  0
SECTION
  2
HEADER
  9
$ACADVER
  1
AC1024
  9
$DWGCODEPAGE
  3
ANSI_1252
  9
$EXTMAX
 10
558.8
 20
431.8
 30
0.0
  9
$EXTMIN
 10
0.0
 20
0.0
 30
0.0
  9
$LIMMIN
 10
0.0
 20
0.0
  9
$LIMMAX
 10
558.8
 20
431.8
  9
$VIEWCTR
 10
279.4
 20
215.9
  9
$VIEWSIZE
 40
431.8
  9
$CLAYER
  8
0
  9
$LTSCALE
 40
30.734
  9
$CELTYPE
  6
BYLAYER
  9
$DIMSCALE
 40
1.0
  9
$DIMASZ
 40
3.0
  9
$DIMEXO
 40
0.5
  9
$DIMDLI
 40
21.2344
  9
$DIMEXE
 40
1.5
  9
$DIMCEN
 40
5.0292
  9
$DIMLFAC
 40
1.0
  9
$DIMBLK
  1
_FILLED
  9
$DIMALT
 70
0
  9
$DIMALTF
 40
0.0393700787
  9
$DIMTXT
 40
3.0
  9
$DIMTOL
 70
1
  9
$DIMLIM
 70
0
  9
$DIMTFAC
 40
1.0
  9
$DIMTP
 40
0.01
  9
$DIMTM
 40
0.01
  9
$DIMGAP
 40
0.625
  9
$DIMDSEP
 70
44
  9
$AUNITS
 70
0
  9
$PDMODE
 70
3
  9
$PDSIZE
 40
3.0
  9
$HANDSEED
  5
609
  9
$TILEMODE
 70
1
  9
$MEASUREMENT
 70
1
  9
$INSUNITS
 70
4
  0
ENDSEC
  0
SECTION
  2
CLASSES
  0
CLASS
  1
ACDBDICTIONARYWDFLT
  2
AcDbDictionaryWithDefault
  3
AutoCAD 2000
 90
0
 91
1
280
0
281
0
  0
CLASS
  1
ACDBPLACEHOLDER
  2
AcDbPlaceHolder
  3
AutoCAD 2000
 90
0
 91
1
280
0
281
0
  0
CLASS
  1
LAYOUT
  2
AcDbLayout
  3
AutoCAD 2000
 90
0
 91
0
280
0
281
0
  0
ENDSEC
  0
SECTION
  2
TABLES
  0
TABLE
  2
VPORT
  5
8
100
AcDbSymbolTable
 70
2
  0
VPORT
  5
1F4
100
AcDbSymbolTableRecord
100
AcDbViewportTableRecord
  2
*ACTIVE
 70
0
 10
0.0
 20
0.0
 11
1.0
 21
1.0
 12
279.4
 22
215.9
 13
0.0
 23
0.0
 14
1.0
 24
1.0
 15
0.0
 25
0.0
 16
0.0
 26
0.0
 36
1.0
 17
0.0
 27
0.0
 37
0.0
 40
431.8
 41
1.2941176471
 42
50.0
 43
0.0
 44
0.0
 50
0.0
 51
0.0
 71
0
 72
100
 73
1
 74
1
 75
0
 76
0
 77
0
 78
0
  0
ENDTAB
  0
TABLE
  2
LTYPE
  5
5
100
AcDbSymbolTable
 70
6
  0
LTYPE
  5
14
100
AcDbSymbolTableRecord
100
AcDbLinetypeTableRecord
  2
BYBLOCK
 70
0
  3

 72
65
 73
0
 40
0.0
  0
LTYPE
  5
15
100
AcDbSymbolTableRecord
100
AcDbLinetypeTableRecord
  2
BYLAYER
 70
0
  3

 72
65
 73
0
 40
0.0
  0
LTYPE
  5
16
100
AcDbSymbolTableRecord
100
AcDbLinetypeTableRecord
  2
CONTINUOUS
 70
64
  3
Solid line
 72
65
 73
0
 40
0.0
  0
LTYPE
  5
1F5
100
AcDbSymbolTableRecord
100
AcDbLinetypeTableRecord
  2
CENTER
 70
64
  3
____ _ ____ _ ____ _ ____ _ ____ _ ____ _ ____
 72
65
 73
4
 40
0.6
 49
0.375
 74
0
 49
-0.075
 74
0
 49
0.075
 74
0
 49
-0.075
 74
0
  0
LTYPE
  5
1F6
100
AcDbSymbolTableRecord
100
AcDbLinetypeTableRecord
  2
HIDDEN
 70
64
  3
- - - - - - - - - - - - - - - - - - - -
 72
65
 73
2
 40
0.2
 49
0.1
 74
0
 49
-0.1
 74
0
  0
LTYPE
  5
1F7
100
AcDbSymbolTableRecord
100
AcDbLinetypeTableRecord
  2
PHANTOM
 70
64
  3
_____ _ _ _____ _ _ _____ _ _ _____
 72
65
 73
6
 40
0.8
 49
0.45
 74
0
 49
-0.05
 74
0
 49
0.1
 74
0
 49
-0.05
 74
0
 49
0.1
 74
0
 49
-0.05
 74
0
  0
LTYPE
  5
1F8
100
AcDbSymbolTableRecord
100
AcDbLinetypeTableRecord
  2
DOT
 70
64
  3
. . . . . . . . . . . . . . . . . . . .
 72
65
 73
2
 40
0.2
 49
0.1
 74
0
 49
-0.1
 74
0
  0
LTYPE
  5
1F9
100
AcDbSymbolTableRecord
100
AcDbLinetypeTableRecord
  2
DASHED
 70
64
  3
- - - - - - - - - - - - - - - - - - - -
 72
65
 73
2
 40
0.2
 49
0.1
 74
0
 49
-0.1
 74
0
  0
ENDTAB
  0
TABLE
  2
LAYER
  5
2
100
AcDbSymbolTable
 70
36
  0
LAYER
  5
10
100
AcDbSymbolTableRecord
100
AcDbLayerTableRecord
  2
0
 70
0
 62
7
  6
CONTINUOUS
370
-3
390
F
  0
LAYER
  5
1FA
100
AcDbSymbolTableRecord
100
AcDbLayerTableRecord
  2
DEFAULT_1
 70
0
 62
7
  6
CENTER
370
-3
390
F
  0
LAYER
  5
1FB
100
AcDbSymbolTableRecord
100
AcDbLayerTableRecord
  2
DEFAULT_2
 70
0
 62
7
  6
HIDDEN
370
-3
390
F
  0
LAYER
  5
1FC
100
AcDbSymbolTableRecord
100
AcDbLayerTableRecord
  2
DEFAULT_3
 70
0
 62
7
  6
PHANTOM
370
-3
390
F
  0
LAYER
  5
1FD
100
AcDbSymbolTableRecord
100
AcDbLayerTableRecord
  2
ASSI
 70
0
 62
7
  6
CONTINUOUS
370
-3
390
F
  0
LAYER
  5
1FE
100
AcDbSymbolTableRecord
100
AcDbLayerTableRecord
  2
COORDINATE
 70
0
 62
7
  6
CONTINUOUS
370
-3
390
F
  0
LAYER
  5
1FF
100
AcDbSymbolTableRecord
100
AcDbLayerTableRecord
  2
COORD_ORIGINE
 70
0
 62
7
  6
CONTINUOUS
370
-3
390
F
  0
LAYER
  5
200
100
AcDbSymbolTableRecord
100
AcDbLayerTableRecord
  2
COPY_PUBLISH
 70
0
 62
7
  6
CONTINUOUS
370
-3
390
F
  0
LAYER
  5
201
100
AcDbSymbolTableRecord
100
AcDbLayerTableRecord
  2
COSMETIC
 70
0
 62
7
  6
CONTINUOUS
370
-3
390
F
  0
LAYER
  5
202
100
AcDbSymbolTableRecord
100
AcDbLayerTableRecord
  2
COSMETICHE
 70
0
 62
7
  6
CONTINUOUS
370
-3
390
F
  0
LAYER
  5
203
100
AcDbSymbolTableRecord
100
AcDbLayerTableRecord
  2
COSMETICI
 70
0
 62
7
  6
CONTINUOUS
370
-3
390
F
  0
LAYER
  5
204
100
AcDbSymbolTableRecord
100
AcDbLayerTableRecord
  2
CURVE
 70
0
 62
7
  6
CONTINUOUS
370
-3
390
F
  0
LAYER
  5
205
100
AcDbSymbolTableRecord
100
AcDbLayerTableRecord
  2
DRAFT
 70
0
 62
7
  6
CONTINUOUS
370
-3
390
F
  0
LAYER
  5
206
100
AcDbSymbolTableRecord
100
AcDbLayerTableRecord
  2
ESTENSIONE
 70
0
 62
7
  6
CONTINUOUS
370
-3
390
F
  0
LAYER
  5
207
100
AcDbSymbolTableRecord
100
AcDbLayerTableRecord
  2
IMPORT_IGES
 70
0
 62
7
  6
CONTINUOUS
370
-3
390
F
  0
LAYER
  5
208
100
AcDbSymbolTableRecord
100
AcDbLayerTableRecord
  2
INTFCLR_1
 70
0
 62
7
  6
CONTINUOUS
370
-3
390
F
  0
LAYER
  5
209
100
AcDbSymbolTableRecord
100
AcDbLayerTableRecord
  2
INTF_1
 70
0
 62
7
  6
CONTINUOUS
370
-3
390
F
  0
LAYER
  5
20A
100
AcDbSymbolTableRecord
100
AcDbLayerTableRecord
  2
INTF_11
 70
0
 62
7
  6
CONTINUOUS
370
-3
390
F
  0
LAYER
  5
20B
100
AcDbSymbolTableRecord
100
AcDbLayerTableRecord
  2
INTF_2
 70
0
 62
7
  6
CONTINUOUS
370
-3
390
F
  0
LAYER
  5
20C
100
AcDbSymbolTableRecord
100
AcDbLayerTableRecord
  2
NOTE
 70
0
 62
7
  6
CONTINUOUS
370
-3
390
F
  0
LAYER
  5
20D
100
AcDbSymbolTableRecord
100
AcDbLayerTableRecord
  2
PIANI
 70
0
 62
7
  6
CONTINUOUS
370
-3
390
F
  0
LAYER
  5
20E
100
AcDbSymbolTableRecord
100
AcDbLayerTableRecord
  2
PIANI_ORIGINE
 70
0
 62
7
  6
CONTINUOUS
370
-3
390
F
  0
LAYER
  5
20F
100
AcDbSymbolTableRecord
100
AcDbLayerTableRecord
  2
PUNTI
 70
0
 62
7
  6
CONTINUOUS
370
-3
390
F
  0
LAYER
  5
210
100
AcDbSymbolTableRecord
100
AcDbLayerTableRecord
  2
RACCORDO
 70
0
 62
7
  6
CONTINUOUS
370
-3
390
F
  0
LAYER
  5
211
100
AcDbSymbolTableRecord
100
AcDbLayerTableRecord
  2
RGB__255__255__255__
 70
0
 62
7
  6
CONTINUOUS
370
-3
390
F
  0
LAYER
  5
212
100
AcDbSymbolTableRecord
100
AcDbLayerTableRecord
  2
RIFERIMENTI
 70
0
 62
7
  6
CONTINUOUS
370
-3
390
F
  0
LAYER
  5
213
100
AcDbSymbolTableRecord
100
AcDbLayerTableRecord
  2
SCRITTE
 70
0
 62
7
  6
CONTINUOUS
370
-3
390
F
  0
LAYER
  5
214
100
AcDbSymbolTableRecord
100
AcDbLayerTableRecord
  2
SIMBOLI
 70
0
 62
7
  6
CONTINUOUS
370
-3
390
F
  0
LAYER
  5
215
100
AcDbSymbolTableRecord
100
AcDbLayerTableRecord
  2
SMUSSO
 70
0
 62
7
  6
CONTINUOUS
370
-3
390
F
  0
LAYER
  5
216
100
AcDbSymbolTableRecord
100
AcDbLayerTableRecord
  2
SNAPLINE
 70
0
 62
7
  6
CONTINUOUS
370
-3
390
F
  0
LAYER
  5
217
100
AcDbSymbolTableRecord
100
AcDbLayerTableRecord
  2
SUPERFICI
 70
0
 62
7
  6
CONTINUOUS
370
-3
390
F
  0
LAYER
  5
218
100
AcDbSymbolTableRecord
100
AcDbLayerTableRecord
  2
SUP_ASS_ANCORINA
 70
0
 62
7
  6
CONTINUOUS
370
-3
390
F
  0
LAYER
  5
219
100
AcDbSymbolTableRecord
100
AcDbLayerTableRecord
  2
TRASH
 70
0
 62
7
  6
CONTINUOUS
370
-3
390
F
  0
LAYER
  5
21A
100
AcDbSymbolTableRecord
100
AcDbLayerTableRecord
  2
XSEC_DATUMS
 70
0
 62
7
  6
CONTINUOUS
370
-3
390
F
  0
ENDTAB
  0
TABLE
  2
STYLE
  5
3
100
AcDbSymbolTable
 70
1
  0
STYLE
  5
11
100
AcDbSymbolTableRecord
100
AcDbTextStyleTableRecord
  2
STANDARD
 70
0
 40
0.0
 41
0.8
 50
0.0
 71
0
 42
0.2
  3
txt
  4

  0
STYLE
  5
21B
100
AcDbSymbolTableRecord
100
AcDbTextStyleTableRecord
  2
TEXTSTYLE_1
 70
0
 40
0.0
 41
0.8
 50
0.0
 71
0
 42
0.2
  3
gdt
  4

  0
ENDTAB
  0
TABLE
  2
VIEW
  5
6
100
AcDbSymbolTable
 70
0
  0
ENDTAB
  0
TABLE
  2
UCS
  5
7
100
AcDbSymbolTable
 70
0
  0
ENDTAB
  0
TABLE
  2
APPID
  5
9
100
AcDbSymbolTable
 70
1
  0
APPID
  5
21C
100
AcDbSymbolTableRecord
100
AcDbRegAppTableRecord
  2
ACAD
 70
0
  0
ENDTAB
  0
TABLE
  2
BLOCK_RECORD
  5
1
100
AcDbSymbolTable
 70
0
  0
BLOCK_RECORD
  5
21D
100
AcDbSymbolTableRecord
100
AcDbBlockTableRecord
  2
*Model_Space
  0
BLOCK_RECORD
  5
21E
100
AcDbSymbolTableRecord
100
AcDbBlockTableRecord
  2
*Paper_Space
  0
BLOCK_RECORD
  5
21F
100
AcDbSymbolTableRecord
100
AcDbBlockTableRecord
  2
_FILLED
  0
BLOCK_RECORD
  5
220
100
AcDbSymbolTableRecord
100
AcDbBlockTableRecord
  2
*D0
  0
BLOCK_RECORD
  5
221
100
AcDbSymbolTableRecord
100
AcDbBlockTableRecord
  2
*D1
  0
BLOCK_RECORD
  5
222
100
AcDbSymbolTableRecord
100
AcDbBlockTableRecord
  2
*D2
  0
BLOCK_RECORD
  5
223
100
AcDbSymbolTableRecord
100
AcDbBlockTableRecord
  2
*D3
  0
ENDTAB
  0
TABLE
  2
DIMSTYLE
  5
A
100
AcDbSymbolTable
 70
1
100
AcDbDimStyleTable
 71
0
  0
DIMSTYLE
105
224
100
AcDbSymbolTableRecord
100
AcDbDimStyleTableRecord
  2
STANDARD
 70
0
  3

  4

 40
1.0
 41
3.0
 42
0.5
 43
0.38
 44
1.5
 45
0.0
 46
0.0
 47
0.01
 48
0.01
140
3.0
141
0.09
142
0.0
143
25.4
144
1.0
145
0.0
146
1.0
147
0.625
 71
1
 72
0
 73
0
 74
0
 75
0
 76
0
 77
1
 78
8
 79
2
170
0
171
1
172
0
173
0
174
0
175
0
176
0
177
0
178
0
270
2
179
2
271
2
272
2
273
2
274
2
275
0
280
0
281
0
282
0
283
1
284
8
285
0
286
0
287
3
288
0
340
11
278
44
341
21F
342
21F
343
21F
344
21F
  0
DIMSTYLE
105
225
100
AcDbSymbolTableRecord
100
AcDbDimStyleTableRecord
  2
DIMSTYLE_1
 70
0
  3

  4

 40
1.0
 41
3.0
 42
0.5
 43
0.38
 44
1.5
 45
0.0
 46
0.0
 47
0.0
 48
0.0
140
3.0
141
0.09
142
0.0
143
25.4
144
1.0
145
0.0
146
1.0
147
0.75
 71
0
 72
0
 73
0
 74
0
 75
0
 76
0
 77
1
 78
8
 79
2
170
0
171
1
172
0
173
0
174
0
175
0
176
0
177
0
178
0
270
2
179
2
271
2
272
2
273
2
274
2
275
0
280
0
281
0
282
0
283
1
284
8
285
0
286
0
287
3
288
0
340
11
278
44
341
21F
342
21F
343
21F
344
21F
  0
DIMSTYLE
105
226
100
AcDbSymbolTableRecord
100
AcDbDimStyleTableRecord
  2
DIMSTYLE_2
 70
0
  3

  4

 40
1.0
 41
3.0
 42
0.5
 43
0.38
 44
1.5
 45
0.0
 46
0.0
 47
0.0
 48
0.0
140
3.0
141
0.09
142
0.0
143
25.4
144
1.0
145
0.0
146
1.0
147
0.75
 71
0
 72
0
 73
0
 74
0
 75
0
 76
0
 77
1
 78
8
 79
2
170
0
171
1
172
0
173
0
174
0
175
0
176
0
177
0
178
0
270
2
179
2
271
1
272
2
273
2
274
2
275
0
280
0
281
0
282
0
283
1
284
8
285
0
286
0
287
3
288
0
340
11
278
44
341
21F
342
21F
343
21F
344
21F
  0
ENDTAB
  0
ENDSEC
  0
SECTION
  2
BLOCKS
  0
BLOCK
  5
20
100
AcDbEntity
  8
0
100
AcDbBlockBegin
  2
*Model_Space
 70
0
 10
0.0
 20
0.0
 30
0.0
  3
*Model_Space
  1

  0
ENDBLK
  5
21
100
AcDbEntity
  8
0
100
AcDbBlockEnd
  0
BLOCK
  5
1C
100
AcDbEntity
  8
0
100
AcDbBlockBegin
  2
*Paper_Space
 70
0
 10
0.0
 20
0.0
 30
0.0
  3
*Paper_Space
  1

  0
ENDBLK
  5
1D
100
AcDbEntity
  8
0
100
AcDbBlockEnd
  0
BLOCK
  5
227
100
AcDbEntity
  8
0
100
AcDbBlockBegin
  2
_FILLED
 70
64
 10
0.0
 20
0.0
  3
_FILLED
  1

  0
SOLID
  5
228
100
AcDbEntity
  8
0
  6
BYBLOCK
 62
0
100
AcDbTrace
 10
0.0
 20
0.0
 11
-1.0
 21
0.3166666667
 12
-1.0
 22
-0.3166666667
 13
-1.0
 23
-0.3166666667
  0
ENDBLK
  5
229
100
AcDbEntity
  8
0
  6
BYBLOCK
 62
0
100
AcDbBlockEnd
  0
BLOCK
  5
22A
100
AcDbEntity
  8
0
100
AcDbBlockBegin
 62
7
  6
CONTINUOUS
  2
*D0
 70
65
 10
0.0
 20
0.0
  3
*D0
  1

  0
LINE
  5
22B
100
AcDbEntity
  8
0
100
AcDbLine
 62
7
  6
CONTINUOUS
 10
-36.8829888773
 20
25.3780391521
 11
-36.8829888773
 21
33.6050910865
  0
LINE
  5
22C
100
AcDbEntity
  8
0
100
AcDbLine
 62
7
  6
CONTINUOUS
 10
-4.1829888773
 20
-0.9563506875
 11
-4.1829888773
 21
33.6050910865
  0
LINE
  5
22D
100
AcDbEntity
  8
0
100
AcDbLine
 62
7
  6
CONTINUOUS
 10
-36.8829888773
 20
32.1050910865
 11
-20.5329888773
 21
32.1050910865
  0
LINE
  5
22E
100
AcDbEntity
  8
0
100
AcDbLine
 62
7
  6
CONTINUOUS
 10
-4.1829888773
 20
32.1050910865
 11
-20.5329888773
 21
32.1050910865
  0
INSERT
  5
22F
100
AcDbEntity
  8
0
100
AcDbBlockReference
 62
7
  6
CONTINUOUS
  2
_FILLED
 10
-36.8829888773
 20
32.1050910865
 41
3.0
 42
3.0
 43
3.0
 50
180.0
  0
INSERT
  5
230
100
AcDbEntity
  8
0
100
AcDbBlockReference
 62
7
  6
CONTINUOUS
  2
_FILLED
 10
-4.1829888773
 20
32.1050910865
 41
3.0
 42
3.0
 43
3.0
  0
ENDBLK
  5
231
100
AcDbEntity
  8
0
  6
BYBLOCK
 62
0
100
AcDbBlockEnd
  0
BLOCK
  5
232
100
AcDbEntity
  8
0
100
AcDbBlockBegin
 62
7
  6
CONTINUOUS
  2
*D1
 70
65
 10
0.0
 20
0.0
  3
*D1
  1

  0
LINE
  5
233
100
AcDbEntity
  8
0
100
AcDbLine
 62
7
  6
CONTINUOUS
 10
-4.1829888773
 20
-0.9949089135
 11
-4.1829888773
 21
43.6050910865
  0
LINE
  5
234
100
AcDbEntity
  8
0
100
AcDbLine
 62
7
  6
CONTINUOUS
 10
-49.8467155839
 20
-19.2435897291
 11
-49.8467155839
 21
43.6050910865
  0
LINE
  5
235
100
AcDbEntity
  8
0
100
AcDbLine
 62
7
  6
CONTINUOUS
 10
-4.1829888773
 20
42.1050910865
 11
-27.0148522306
 21
42.1050910865
  0
LINE
  5
236
100
AcDbEntity
  8
0
100
AcDbLine
 62
7
  6
CONTINUOUS
 10
-49.8467155839
 20
42.1050910865
 11
-27.0148522306
 21
42.1050910865
  0
INSERT
  5
237
100
AcDbEntity
  8
0
100
AcDbBlockReference
 62
7
  6
CONTINUOUS
  2
_FILLED
 10
-4.1829888773
 20
42.1050910865
 41
3.0
 42
3.0
 43
3.0
  0
INSERT
  5
238
100
AcDbEntity
  8
0
100
AcDbBlockReference
 62
7
  6
CONTINUOUS
  2
_FILLED
 10
-49.8467155839
 20
42.1050910865
 41
3.0
 42
3.0
 43
3.0
 50
180.0
  0
ENDBLK
  5
239
100
AcDbEntity
  8
0
  6
BYBLOCK
 62
0
100
AcDbBlockEnd
  0
BLOCK
  5
23A
100
AcDbEntity
  8
0
100
AcDbBlockBegin
 62
7
  6
CONTINUOUS
  2
*D2
 70
65
 10
0.0
 20
0.0
  3
*D2
  1

  0
LINE
  5
23B
100
AcDbEntity
  8
0
100
AcDbLine
 62
7
  6
CONTINUOUS
 10
19.2144364497
 20
22.1622472875
 11
19.2144364497
 21
33.6050910865
  0
LINE
  5
23C
100
AcDbEntity
  8
0
100
AcDbLine
 62
7
  6
CONTINUOUS
 10
41.2144364497
 20
22.1622472875
 11
41.2144364497
 21
33.6050910865
  0
LINE
  5
23D
100
AcDbEntity
  8
0
100
AcDbLine
 62
7
  6
CONTINUOUS
 10
19.2144364497
 20
32.1050910865
 11
30.2144364497
 21
32.1050910865
  0
LINE
  5
23E
100
AcDbEntity
  8
0
100
AcDbLine
 62
7
  6
CONTINUOUS
 10
41.2144364497
 20
32.1050910865
 11
30.2144364497
 21
32.1050910865
  0
INSERT
  5
23F
100
AcDbEntity
  8
0
100
AcDbBlockReference
 62
7
  6
CONTINUOUS
  2
_FILLED
 10
19.2144364497
 20
32.1050910865
 41
3.0
 42
3.0
 43
3.0
 50
180.0
  0
INSERT
  5
240
100
AcDbEntity
  8
0
100
AcDbBlockReference
 62
7
  6
CONTINUOUS
  2
_FILLED
 10
41.2144364497
 20
32.1050910865
 41
3.0
 42
3.0
 43
3.0
  0
ENDBLK
  5
241
100
AcDbEntity
  8
0
  6
BYBLOCK
 62
0
100
AcDbBlockEnd
  0
BLOCK
  5
242
100
AcDbEntity
  8
0
100
AcDbBlockBegin
 62
7
  6
CONTINUOUS
  2
*D3
 70
65
 10
0.0
 20
0.0
  3
*D3
  1

  0
LINE
  5
243
100
AcDbEntity
  8
0
100
AcDbLine
 62
7
  6
CONTINUOUS
 10
34.3892939278
 20
24.1050910865
 11
50.8644364497
 21
24.1050910865
  0
LINE
  5
244
100
AcDbEntity
  8
0
100
AcDbLine
 62
7
  6
CONTINUOUS
 10
34.3892939278
 20
-22.8949089135
 11
50.8644364497
 21
-22.8949089135
  0
LINE
  5
245
100
AcDbEntity
  8
0
100
AcDbLine
 62
7
  6
CONTINUOUS
 10
49.3644364497
 20
24.1050910865
 11
49.3644364497
 21
0.6050910865
  0
LINE
  5
246
100
AcDbEntity
  8
0
100
AcDbLine
 62
7
  6
CONTINUOUS
 10
49.3644364497
 20
-22.8949089135
 11
49.3644364497
 21
0.6050910865
  0
INSERT
  5
247
100
AcDbEntity
  8
0
100
AcDbBlockReference
 62
7
  6
CONTINUOUS
  2
_FILLED
 10
49.3644364497
 20
24.1050910865
 41
3.0
 42
3.0
 43
3.0
 50
90.0
  0
INSERT
  5
248
100
AcDbEntity
  8
0
100
AcDbBlockReference
 62
7
  6
CONTINUOUS
  2
_FILLED
 10
49.3644364497
 20
-22.8949089135
 41
3.0
 42
3.0
 43
3.0
 50
270.0
  0
ENDBLK
  5
249
100
AcDbEntity
  8
0
  6
BYBLOCK
 62
0
100
AcDbBlockEnd
  0
ENDSEC
  0
SECTION
  2
ENTITIES
  0
DIMENSION
  5
24A
100
AcDbEntity
  8
0
100
AcDbDimension
 62
7
  6
CONTINUOUS
  2
*D0
 10
-4.1829888773
 20
32.1050910865
 11
-24.818703163
 21
32.1050910865
 70
160
 71
2
 72
2
 41
0.9
 42
32.7
  3
DIMSTYLE_1
100
AcDbAlignedDimension
 13
-36.8829888773
 23
24.8780391521
 14
-4.1829888773
 24
-1.4563506875
100
AcDbRotatedDimension
  0
DIMENSION
  5
24B
100
AcDbEntity
  8
0
100
AcDbDimension
 62
7
  6
CONTINUOUS
  2
*D1
 10
-49.8467155839
 20
42.1050910865
 11
-31.3005665163
 21
42.1050910865
 70
160
 71
2
 72
2
 41
0.9
 42
45.6637267065
  3
DIMSTYLE_2
100
AcDbAlignedDimension
 13
-4.1829888773
 23
-1.4949089135
 14
-49.8467155839
 24
-19.7435897291
 50
180.0
100
AcDbRotatedDimension
  0
DIMENSION
  5
24C
100
AcDbEntity
  8
0
100
AcDbDimension
 62
7
  6
CONTINUOUS
  2
*D2
 10
41.2144364497
 20
32.1050910865
 11
27.8572935925
 21
32.1050910865
 70
160
 71
2
 72
2
 41
0.9
 42
22.0
  3
DIMSTYLE_1
100
AcDbAlignedDimension
 13
19.2144364497
 23
21.6622472875
 14
41.2144364497
 24
21.6622472875
100
AcDbRotatedDimension
  0
DIMENSION
  5
24D
100
AcDbEntity
  8
0
100
AcDbDimension
 62
7
  6
CONTINUOUS
  2
*D3
 10
49.3644364497
 20
-22.8949089135
 11
49.3644364497
 21
-1.7520517707
 70
160
 71
2
 72
2
 41
0.9
 42
47.0
  3
DIMSTYLE_1
100
AcDbAlignedDimension
 13
33.8892939278
 23
24.1050910865
 14
33.8892939278
 24
-22.8949089135
 50
270.0
100
AcDbRotatedDimension
  0
LWPOLYLINE
  5
24E
100
AcDbEntity
  8
ASSI
100
AcDbPolyline
 62
250
  6
CONTINUOUS
 90
9
 70
0
 10
-48.9609624124
 20
-20.7828355626
 10
-48.9614079848
 20
-20.7817079441
 10
-48.9616094115
 20
-20.7784590475
 10
-48.9615658304
 20
-20.7731027782
 10
-48.9612774281
 20
-20.7656620606
 10
-48.960745439
 20
-20.7561687395
 10
-48.9599721401
 20
-20.7446634418
 10
-48.9589608407
 20
-20.7311954062
 10
-48.957715869
 20
-20.7158222719
  0
LWPOLYLINE
  5
24F
100
AcDbEntity
  8
RACCORDO
100
AcDbPolyline
 62
250
  6
CONTINUOUS
 90
16
 70
0
 10
-45.1713613223
 20
22.5325031042
 10
-45.1724383004
 20
22.5298263988
 10
-45.1738377217
 20
22.5217142932
 10
-45.1755442625
 20
22.5082556137
 10
-45.1775392366
 20
22.4895977307
 10
-45.1798007993
 20
22.4659449452
 10
-45.1823041871
 20
22.4375562514
 10
-45.1850219882
 20
22.404742501
 10
-45.1879244431
 20
22.3678629996
 10
-45.1909797704
 20
22.3273215718
 10
-45.1941545148
 20
22.2835621399
 10
-45.1974139132
 20
22.2370638629
 10
-45.2007222759
 20
22.1883358894
 10
-45.2040433767
 20
22.1379117833
 10
-45.2073408502
 20
22.0863436805
 10
-45.2105785894
 20
22.0341962437
  0
LWPOLYLINE
  5
250
100
AcDbEntity
  8
ASSI
100
AcDbPolyline
 62
250
  6
CONTINUOUS
 90
10
 70
0
 10
-45.1713613223
 20
22.5325031042
 10
-45.1719959403
 20
22.5314699899
 10
-45.1727584773
 20
22.5283054291
 10
-45.1736456699
 20
22.523022966
 10
-45.1746537209
 20
22.5156452094
 10
-45.1757783164
 20
22.5062037346
 10
-45.1770146435
 20
22.4947389464
 10
-45.1783574114
 20
22.4812999105
 10
-45.1798008733
 20
22.4659441417
 10
-45.1829647659
 20
22.4297531811
  0
LWPOLYLINE
  5
251
100
AcDbEntity
  8
0
100
AcDbPolyline
 62
7
  6
CONTINUOUS
 90
5
 70
0
 43
0.3500000087
 10
-23.9615598938
 20
34.5693786835
 10
-23.6044163834
 20
34.7836609528
 10
-23.6044163834
 20
35.4265205505
 10
-23.9615598938
 20
35.8550893524
 10
-24.8187038925
 20
35.8550893524
  0
LWPOLYLINE
  5
252
100
AcDbEntity
  8
RACCORDO
100
AcDbPolyline
 62
250
  6
CONTINUOUS
 90
16
 70
0
 10
-48.9609624124
 20
-20.7828355626
 10
-48.9615582198
 20
-20.7800124027
 10
-48.9615277022
 20
-20.771780245
 10
-48.9608711977
 20
-20.7582292673
 10
-48.9595958984
 20
-20.7395078822
 10
-48.9577157731
 20
-20.7158211263
 10
-48.9552514158
 20
-20.6874284287
 10
-48.952229817
 20
-20.6546407337
 10
-48.9486840673
 20
-20.6178170999
 10
-48.9446529993
 20
-20.5773608003
 10
-48.9401807579
 20
-20.5337148647
 10
-48.935316317
 20
-20.4873572313
 10
-48.9301129453
 20
-20.4387955371
 10
-48.9246276216
 20
-20.3885615373
 10
-48.9189204099
 20
-20.3372052804
 10
-48.9130538029
 20
-20.2852890961
  0
LWPOLYLINE
  5
253
100
AcDbEntity
  8
ASSI
100
AcDbPolyline
 62
250
  6
CONTINUOUS
 90
16
 70
0
 10
-49.3559303956
 20
-19.7656661785
 10
-49.2218124705
 20
-17.0002604154
 10
-49.0723658408
 20
-14.2356488801
 10
-48.9075905065
 20
-11.4718315728
 10
-48.7274797828
 20
-8.708685868
 10
-48.5320403545
 20
-5.946334391
 10
-48.3212922757
 20
-3.1851450184
 10
-48.0952319735
 20
-0.4251231272
 10
-47.8538630207
 20
2.3337366597
 10
-47.5972161905
 20
5.0910825978
 10
-47.325287032
 20
7.8469193514
 10
-47.038079996
 20
10.6012422563
 10
-46.7356392086
 20
13.3536855752
 10
-46.4179793785
 20
16.1041273958
 10
-46.0850857971
 20
18.8526896304
 10
-45.7369584643
 20
21.5993722791
  0
LWPOLYLINE
  5
254
100
AcDbEntity
  8
RACCORDO
100
AcDbPolyline
 62
250
  6
CONTINUOUS
 90
10
 70
0
 10
-49.3559303956
 20
-19.7656661785
 10
-49.1238065513
 20
-15.1558769054
 10
-48.8491606416
 20
-10.5492086611
 10
-48.5319926667
 20
-5.9456614456
 10
-48.1722679222
 20
-1.3448386676
 10
-47.7700211124
 20
3.2528630815
 10
-47.3253563505
 20
7.8462540281
 10
-46.8383083406
 20
12.434937581
 10
-46.3088423785
 20
17.0193103313
 10
-45.7369584643
 20
21.5993722791
  0
LINE
  5
255
100
AcDbEntity
  8
SCRITTE
100
AcDbLine
 62
250
  6
CONTINUOUS
 10
-49.2876528755
 20
-9.7218693014
 11
-49.2861314401
 21
-9.6987761296
  0
LINE
  5
256
100
AcDbEntity
  8
SCRITTE
100
AcDbLine
 62
250
  6
CONTINUOUS
 10
-49.2862161968
 20
-9.7000621713
 11
-49.2842393633
 21
-9.6700803027
  0
LINE
  5
257
100
AcDbEntity
  8
SCRITTE
100
AcDbLine
 62
250
  6
CONTINUOUS
 10
-49.2843629015
 20
-9.6719531672
 11
-49.2829912778
 21
-9.6511649048
  0
LINE
  5
258
100
AcDbEntity
  8
SCRITTE
100
AcDbLine
 62
250
  6
CONTINUOUS
 10
-49.2831329064
 20
-9.6533107981
 11
-49.2815403298
 21
-9.6291888646
  0
LINE
  5
259
100
AcDbEntity
  8
SCRITTE
100
AcDbLine
 62
250
  6
CONTINUOUS
 10
-49.2816993464
 20
-9.6315966075
 11
-49.2780387102
 21
-9.5762143803
  0
LINE
  5
25A
100
AcDbEntity
  8
SCRITTE
100
AcDbLine
 62
250
  6
CONTINUOUS
 10
-49.2782309523
 20
-9.5791205381
 11
-49.2759987805
 21
-9.5453923203
  0
LINE
  5
25B
100
AcDbEntity
  8
SCRITTE
100
AcDbLine
 62
250
  6
CONTINUOUS
 10
-49.2762048217
 20
-9.5485042072
 11
-49.2713819788
 21
-9.4757412308
  0
LINE
  5
25C
100
AcDbEntity
  8
SCRITTE
100
AcDbLine
 62
250
  6
CONTINUOUS
 10
-49.2715999967
 20
-9.4790266815
 11
-49.2660696539
 21
-9.3957797457
  0
LINE
  5
25D
100
AcDbEntity
  8
SCRITTE
100
AcDbLine
 62
250
  6
CONTINUOUS
 10
-49.2662872719
 20
-9.399050157
 11
-49.2600647641
 21
-9.3056261773
  0
LINE
  5
25E
100
AcDbEntity
  8
SCRITTE
100
AcDbLine
 62
250
  6
CONTINUOUS
 10
-49.2602897321
 20
-9.3089984688
 11
-49.2534024124
 21
-9.2058861787
  0
LINE
  5
25F
100
AcDbEntity
  8
SCRITTE
100
AcDbLine
 62
250
  6
CONTINUOUS
 10
-49.2536296897
 20
-9.2092843663
 11
-49.2422304102
 21
-9.0393033392
  0
LINE
  5
260
100
AcDbEntity
  8
SCRITTE
100
AcDbLine
 62
250
  6
CONTINUOUS
 10
-49.2424375123
 20
-9.0423846829
 11
-49.2300838817
 21
-8.8591327152
  0
LINE
  5
261
100
AcDbEntity
  8
SCRITTE
100
AcDbLine
 62
250
  6
CONTINUOUS
 10
-49.2302271699
 20
-8.8612522253
 11
-49.2175858904
 21
-8.6747501124
  0
LINE
  5
262
100
AcDbEntity
  8
SCRITTE
100
AcDbLine
 62
250
  6
CONTINUOUS
 10
-49.2175910698
 20
-8.6748258413
 11
-49.2118244731
 21
-8.5900886079
  0
LINE
  5
263
100
AcDbEntity
  8
SCRITTE
100
AcDbLine
 62
250
  6
CONTINUOUS
 10
-49.2118790727
 20
-8.590889654
 11
-49.2058803562
 21
-8.5029636968
  0
LINE
  5
264
100
AcDbEntity
  8
SCRITTE
100
AcDbLine
 62
250
  6
CONTINUOUS
 10
-49.2059876548
 20
-8.5045343995
 11
-49.1989852794
 21
-8.4021806806
  0
LINE
  5
265
100
AcDbEntity
  8
SCRITTE
100
AcDbLine
 62
250
  6
CONTINUOUS
 10
-49.1990716725
 20
-8.403441791
 11
-49.1882493229
 21
-8.2458485839
  0
LINE
  5
266
100
AcDbEntity
  8
SCRITTE
100
AcDbLine
 62
250
  6
CONTINUOUS
 10
-49.1883024591
 20
-8.2466207079
 11
-49.1770724058
 21
-8.0838529369
  0
LINE
  5
267
100
AcDbEntity
  8
SCRITTE
100
AcDbLine
 62
250
  6
CONTINUOUS
 10
-49.1770919062
 20
-8.0841348683
 11
-49.1693936615
 21
-7.9730048628
  0
LINE
  5
268
100
AcDbEntity
  8
SCRITTE
100
AcDbLine
 62
250
  6
CONTINUOUS
 10
-49.1575453716
 20
-7.8026645518
 11
-49.1693915983
 21
-7.9729752608
  0
LINE
  5
269
100
AcDbEntity
  8
SCRITTE
100
AcDbLine
 62
250
  6
CONTINUOUS
 10
-49.145416723
 20
-7.6291452737
 11
-49.1575759676
 21
-7.8031027836
  0
LINE
  5
26A
100
AcDbEntity
  8
SCRITTE
100
AcDbLine
 62
250
  6
CONTINUOUS
 10
-49.1330870808
 20
-7.4536264556
 11
-49.1454671525
 21
-7.6298645405
  0
LINE
  5
26B
100
AcDbEntity
  8
SCRITTE
100
AcDbLine
 62
250
  6
CONTINUOUS
 10
-49.1205962729
 20
-7.2767151939
 11
-49.1331440091
 21
-7.4544349449
  0
LINE
  5
26C
100
AcDbEntity
  8
SCRITTE
100
AcDbLine
 62
250
  6
CONTINUOUS
 10
-49.1036475935
 20
-7.0380903341
 11
-49.1206439344
 21
-7.2773888356
  0
LINE
  5
26D
100
AcDbEntity
  8
SCRITTE
100
AcDbLine
 62
250
  6
CONTINUOUS
 10
-49.0961094107
 20
-6.9324719406
 11
-49.1036601265
 21
-7.0382662289
  0
LINE
  5
26E
100
AcDbEntity
  8
SCRITTE
100
AcDbLine
 62
250
  6
CONTINUOUS
 10
-49.0896483304
 20
-6.8421924035
 11
-49.096120325
 21
-6.9326246152
  0
LINE
  5
26F
100
AcDbEntity
  8
SCRITTE
100
AcDbLine
 62
250
  6
CONTINUOUS
 10
-49.0832124811
 20
-6.752492456
 11
-49.0896783968
 21
-6.8426118424
  0
LINE
  5
270
100
AcDbEntity
  8
SCRITTE
100
AcDbLine
 62
250
  6
CONTINUOUS
 10
-49.0767986415
 20
-6.6633243379
 11
-49.0832579205
 21
-6.7531246964
  0
LINE
  5
271
100
AcDbEntity
  8
SCRITTE
100
AcDbLine
 62
250
  6
CONTINUOUS
 10
-49.0704035905
 20
-6.5746402886
 11
-49.0768554219
 21
-6.6641123973
  0
LINE
  5
272
100
AcDbEntity
  8
SCRITTE
100
AcDbLine
 62
250
  6
CONTINUOUS
 10
-49.0640241068
 20
-6.4863925478
 11
-49.070467427
 21
-6.5755241651
  0
LINE
  5
273
100
AcDbEntity
  8
SCRITTE
100
AcDbLine
 62
250
  6
CONTINUOUS
 10
-49.0576572621
 20
-6.3985373326
 11
-49.0640904619
 21
-6.4873092197
  0
LINE
  5
274
100
AcDbEntity
  8
SCRITTE
100
AcDbLine
 62
250
  6
CONTINUOUS
 10
-49.0513068664
 20
-6.3111223466
 11
-49.0577213641
 21
-6.3994210113
  0
LINE
  5
275
100
AcDbEntity
  8
SCRITTE
100
AcDbLine
 62
250
  6
CONTINUOUS
 10
-49.044983468
 20
-6.22428678
 11
-49.0513641381
 21
-6.311910281
  0
LINE
  5
276
100
AcDbEntity
  8
SCRITTE
100
AcDbLine
 62
250
  6
CONTINUOUS
 10
-49.038697908
 20
-6.1381738003
 11
-49.0450299549
 21
-6.2249250615
  0
LINE
  5
277
100
AcDbEntity
  8
SCRITTE
100
AcDbLine
 62
250
  6
CONTINUOUS
 10
-49.0324610276
 20
-6.0529265754
 11
-49.0387302973
 21
-6.1386176153
  0
LINE
  5
278
100
AcDbEntity
  8
SCRITTE
100
AcDbLine
 62
250
  6
CONTINUOUS
 10
-49.0324766482
 20
-6.0531402051
 11
-49.0262804903
 21
-5.9686450936
  0
LINE
  5
279
100
AcDbEntity
  8
SCRITTE
100
AcDbLine
 62
250
  6
CONTINUOUS
 10
-49.0219642175
 20
-5.909901821
 11
-49.0262836678
 21
-5.9686882729
  0
LINE
  5
27A
100
AcDbEntity
  8
SCRITTE
100
AcDbLine
 62
250
  6
CONTINUOUS
 10
-49.0219642175
 20
-5.909901821
 11
-49.0012102864
 21
-5.6287699197
  0
LINE
  5
27B
100
AcDbEntity
  8
SCRITTE
100
AcDbLine
 62
250
  6
CONTINUOUS
 10
-49.0012955054
 20
-5.6299196794
 11
-48.9814287904
 21
-5.36280021
  0
LINE
  5
27C
100
AcDbEntity
  8
SCRITTE
100
AcDbLine
 62
250
  6
CONTINUOUS
 10
-48.9815931025
 20
-5.3650018265
 11
-48.9627468758
 21
-5.1133562189
  0
LINE
  5
27D
100
AcDbEntity
  8
SCRITTE
100
AcDbLine
 62
250
  6
CONTINUOUS
 10
-48.9629745188
 20
-5.116386039
 11
-48.9407771877
 21
-4.8221310092
  0
LINE
  5
27E
100
AcDbEntity
  8
SCRITTE
100
AcDbLine
 62
250
  6
CONTINUOUS
 10
-48.9410729518
 20
-4.8260355722
 11
-48.9358643275
 21
-4.757316951
  0
LINE
  5
27F
100
AcDbEntity
  8
SCRITTE
100
AcDbLine
 62
250
  6
CONTINUOUS
 10
-48.9361688411
 20
-4.7613304254
 11
-48.9239803837
 21
-4.6009931526
  0
LINE
  5
280
100
AcDbEntity
  8
SCRITTE
100
AcDbLine
 62
250
  6
CONTINUOUS
 10
-48.9242802087
 20
-4.6049303656
 11
-48.9174999137
 21
-4.5160198641
  0
LINE
  5
281
100
AcDbEntity
  8
SCRITTE
100
AcDbLine
 62
250
  6
CONTINUOUS
 10
-48.9177959972
 20
-4.5198987967
 11
-48.9117917736
 21
-4.4413325483
  0
LINE
  5
282
100
AcDbEntity
  8
SCRITTE
100
AcDbLine
 62
250
  6
CONTINUOUS
 10
-48.9120831577
 20
-4.445141613
 11
-48.9092394626
 21
-4.4079844432
  0
LINE
  5
283
100
AcDbEntity
  8
SCRITTE
100
AcDbLine
 62
250
  6
CONTINUOUS
 10
-48.9095189105
 20
-4.4116342184
 11
-48.9047762774
 21
-4.3497389947
  0
LINE
  5
284
100
AcDbEntity
  8
SCRITTE
100
AcDbLine
 62
250
  6
CONTINUOUS
 10
-48.9050165651
 20
-4.3528725136
 11
-48.9028818719
 21
-4.3250434838
  0
LINE
  5
285
100
AcDbEntity
  8
SCRITTE
100
AcDbLine
 62
250
  6
CONTINUOUS
 10
-48.9030997368
 20
-4.3278827366
 11
-48.901219118
 21
-4.303381201
  0
LINE
  5
286
100
AcDbEntity
  8
SCRITTE
100
AcDbLine
 62
250
  6
CONTINUOUS
 10
-48.8959748267
 20
-4.2351394461
 11
-48.9014136366
 21
-4.3059147472
  0
LWPOLYLINE
  5
287
100
AcDbEntity
  8
ASSI
100
AcDbPolyline
 62
250
  6
CONTINUOUS
 90
25
 70
0
 10
-45.7369584643
 20
21.5993722791
 10
-45.7320438935
 20
21.6300112817
 10
-45.7252409551
 20
21.660183643
 10
-45.7165496491
 20
21.6898893632
 10
-45.7059206115
 20
21.7192822183
 10
-45.6934032064
 20
21.7482084322
 10
-45.6791455255
 20
21.7762066765
 10
-45.6631153855
 20
21.8032412779
 10
-45.6453449698
 20
21.8293479096
 10
-45.6260789207
 20
21.8541722629
 10
-45.6053173085
 20
21.8776734584
 10
-45.5830600629
 20
21.8998923755
 10
-45.5595516159
 20
21.9205973429
 10
-45.5347822819
 20
21.9397768193
 10
-45.5087617466
 20
21.9574423461
 10
-45.4817634986
 20
21.9733968763
 10
-45.4537472049
 20
21.9876324556
 10
-45.4247531984
 20
22.0001570383
 10
-45.3951759671
 20
22.0107974406
 10
-45.3649868304
 20
22.0195155437
 10
-45.3342144689
 20
22.0263494665
 10
-45.3033394111
 20
22.0312403806
 10
-45.2725218334
 20
22.0341686769
 10
-45.2416015595
 20
22.0351539646
 10
-45.2105785894
 20
22.0341962437
  0
LWPOLYLINE
  5
288
100
AcDbEntity
  8
RACCORDO
100
AcDbPolyline
 62
250
  6
CONTINUOUS
 90
19
 70
0
 10
-45.7369584643
 20
21.5993722791
 10
-45.729768228
 20
21.6408098344
 10
-45.7193401406
 20
21.6810145943
 10
-45.7056742021
 20
21.7199865588
 10
-45.6886267457
 20
21.7579976339
 10
-45.6683414382
 20
21.7947759135
 10
-45.6452492802
 20
21.82950568
 10
-45.6192960718
 20
21.8621255266
 10
-45.5905360129
 20
21.89269686
 10
-45.5595627041
 20
21.9205881825
 10
-45.5263308587
 20
21.9457430836
 10
-45.4908857634
 20
21.9682179739
 10
-45.4539568794
 20
21.9875505871
 10
-45.4154949284
 20
22.0036771188
 10
-45.3755491887
 20
22.0166613735
 10
-45.3349969554
 20
22.0262324986
 10
-45.2941306603
 20
22.0323002099
 10
-45.2526578716
 20
22.0349547916
 10
-45.2105785894
 20
22.0341962437
  0
LINE
  5
289
100
AcDbEntity
  8
ASSI
100
AcDbLine
 62
250
  6
CONTINUOUS
 10
-45.2065207708
 20
22.0993107944
 11
-45.2105785894
 21
22.0341962437
  0
LINE
  5
28A
100
AcDbEntity
  8
ASSI
100
AcDbLine
 62
250
  6
CONTINUOUS
 10
-45.2023836618
 20
22.1632993785
 11
-45.2065207708
 21
22.0993107944
  0
LINE
  5
28B
100
AcDbEntity
  8
ASSI
100
AcDbLine
 62
250
  6
CONTINUOUS
 10
-45.1982380069
 20
22.2250677407
 11
-45.2023836618
 21
22.1632993785
  0
LINE
  5
28C
100
AcDbEntity
  8
ASSI
100
AcDbLine
 62
250
  6
CONTINUOUS
 10
-45.1941547025
 20
22.2835595089
 11
-45.1982380069
 21
22.2250677407
  0
LINE
  5
28D
100
AcDbEntity
  8
ASSI
100
AcDbLine
 62
250
  6
CONTINUOUS
 10
-45.1902035816
 20
22.3377743167
 11
-45.1941547025
 21
22.2835595089
  0
LINE
  5
28E
100
AcDbEntity
  8
ASSI
100
AcDbLine
 62
250
  6
CONTINUOUS
 10
-45.1864522163
 20
22.3867849553
 11
-45.1902035816
 21
22.3377743167
  0
LINE
  5
28F
100
AcDbEntity
  8
ASSI
100
AcDbLine
 62
250
  6
CONTINUOUS
 10
-45.1829647659
 20
22.4297531811
 11
-45.1864522163
 21
22.3867849553
  0
LINE
  5
290
100
AcDbEntity
  8
ASSI
100
AcDbLine
 62
250
  6
CONTINUOUS
 10
-48.957715869
 20
-20.7158222719
 11
-48.9545471966
 21
-20.6796317296
  0
LINE
  5
291
100
AcDbEntity
  8
ASSI
100
AcDbLine
 62
250
  6
CONTINUOUS
 10
-48.9545471966
 20
-20.6796317296
 11
-48.9505203092
 21
-20.6367106985
  0
LINE
  5
292
100
AcDbEntity
  8
ASSI
100
AcDbLine
 62
250
  6
CONTINUOUS
 10
-48.9505203092
 20
-20.6367106985
 11
-48.9457040758
 21
-20.5877932239
  0
LINE
  5
293
100
AcDbEntity
  8
ASSI
100
AcDbLine
 62
250
  6
CONTINUOUS
 10
-48.9457040758
 20
-20.5877932239
 11
-48.9401808712
 21
-20.5337159555
  0
LINE
  5
294
100
AcDbEntity
  8
ASSI
100
AcDbLine
 62
250
  6
CONTINUOUS
 10
-48.9401808712
 20
-20.5337159555
 11
-48.934045158
 21
-20.4754037497
  0
LINE
  5
295
100
AcDbEntity
  8
ASSI
100
AcDbLine
 62
250
  6
CONTINUOUS
 10
-48.934045158
 20
-20.4754037497
 11
-48.927401876
 21
-20.4138539013
  0
LINE
  5
296
100
AcDbEntity
  8
ASSI
100
AcDbLine
 62
250
  6
CONTINUOUS
 10
-48.927401876
 20
-20.4138539013
 11
-48.9203646424
 21
-20.3501190449
  0
LINE
  5
297
100
AcDbEntity
  8
ASSI
100
AcDbLine
 62
250
  6
CONTINUOUS
 10
-48.9203646424
 20
-20.3501190449
 11
-48.9130538029
 21
-20.2852890961
  0
LINE
  5
298
100
AcDbEntity
  8
ASSI
100
AcDbLine
 62
7
  6
CONTINUOUS
 10
-42.9031155492
 20
-21.47304003
 11
-48.9609624124
 21
-20.7828355626
  0
LINE
  5
299
100
AcDbEntity
  8
RACCORDO
100
AcDbLine
 62
7
  6
CONTINUOUS
 10
-42.9031155492
 20
-21.47304003
 11
-48.9609624124
 21
-20.7828355626
  0
LWPOLYLINE
  5
29A
100
AcDbEntity
  8
ASSI
100
AcDbPolyline
 62
250
  6
CONTINUOUS
 90
25
 70
0
 10
-48.9130538029
 20
-20.2852890961
 10
-48.9437717729
 20
-20.2808451844
 10
-48.9740512069
 20
-20.2745056156
 10
-49.0038921048
 20
-20.2662703897
 10
-49.0334488047
 20
-20.2560923808
 10
-49.0625669685
 20
-20.2440187149
 10
-49.0907835827
 20
-20.2301907695
 10
-49.1180637831
 20
-20.2145759858
 10
-49.1444424338
 20
-20.1972069227
 10
-49.169561114
 20
-20.178322635
 10
-49.1933787221
 20
-20.1579222931
 10
-49.2159363596
 20
-20.1360067266
 10
-49.2369989099
 20
-20.1128174795
 10
-49.2565548304
 20
-20.0883448674
 10
-49.2746156636
 20
-20.0625985747
 10
-49.2909809201
 20
-20.0358491983
 10
-49.3056435703
 20
-20.0080564679
 10
-49.3186106438
 20
-19.9792606538
 10
-49.32970274
 20
-19.9498531643
 10
-49.3388819696
 20
-19.9198044573
 10
-49.3461862218
 20
-19.8891440749
 10
-49.3515497638
 20
-19.8583520523
 10
-49.3549506846
 20
-19.8275884013
 10
-49.3564108952
 20
-19.79669311
 10
-49.3559303956
 20
-19.7656661785
  0
LWPOLYLINE
  5
29B
100
AcDbEntity
  8
RACCORDO
100
AcDbPolyline
 62
250
  6
CONTINUOUS
 90
19
 70
0
 10
-48.9130538029
 20
-20.2852890961
 10
-48.9546255267
 20
-20.2787291291
 10
-48.9950072872
 20
-20.2689132023
 10
-49.0341990845
 20
-20.2558413155
 10
-49.0724732298
 20
-20.239373776
 10
-49.1095574119
 20
-20.2196502765
 10
-49.1446346966
 20
-20.1970898955
 10
-49.1776454749
 20
-20.1716383546
 10
-49.2086493557
 20
-20.1433499322
 10
-49.237008232
 20
-20.1128065411
 10
-49.2626677091
 20
-20.0799604917
 10
-49.2856821817
 20
-20.0448594737
 10
-49.3055767256
 20
-20.0082284685
 10
-49.3222873013
 20
-19.9700164141
 10
-49.3358779483
 20
-19.9302743726
 10
-49.3460658618
 20
-19.8898805115
 10
-49.3527567733
 20
-19.8491275534
 10
-49.3560449513
 20
-19.8077227757
 10
-49.3559303956
 20
-19.7656661785
  0
LWPOLYLINE
  5
29C
100
AcDbEntity
  8
RACCORDO
100
AcDbPolyline
 62
250
  6
CONTINUOUS
 90
6
 70
0
 10
-42.4899698399
 20
-17.5725088092
 10
-42.4904322818
 20
-17.5701838563
 10
-42.4908440674
 20
-17.5635026881
 10
-42.4912081587
 20
-17.5528831591
 10
-42.4915286995
 20
-17.5388214665
 10
-42.4918107516
 20
-17.5216864952
  0
LINE
  5
29D
100
AcDbEntity
  8
RACCORDO
100
AcDbLine
 62
250
  6
CONTINUOUS
 10
-42.4918107516
 20
-17.5216864952
 11
-42.4922652139
 21
-17.4786080936
  0
LINE
  5
29E
100
AcDbEntity
  8
RACCORDO
100
AcDbLine
 62
250
  6
CONTINUOUS
 10
-42.4922652139
 20
-17.4786080936
 11
-42.4925880499
 21
-17.4249944859
  0
LINE
  5
29F
100
AcDbEntity
  8
RACCORDO
100
AcDbLine
 62
250
  6
CONTINUOUS
 10
-42.4925880499
 20
-17.4249944859
 11
-42.4927854317
 21
-17.3609153701
  0
LINE
  5
2A0
100
AcDbEntity
  8
RACCORDO
100
AcDbLine
 62
250
  6
CONTINUOUS
 10
-42.4927854317
 20
-17.3609153701
 11
-42.492859499
 21
-17.287001961
  0
LINE
  5
2A1
100
AcDbEntity
  8
RACCORDO
100
AcDbLine
 62
250
  6
CONTINUOUS
 10
-42.492859499
 20
-17.287001961
 11
-42.492808618
 21
-17.2038963464
  0
LINE
  5
2A2
100
AcDbEntity
  8
RACCORDO
100
AcDbLine
 62
250
  6
CONTINUOUS
 10
-42.492808618
 20
-17.2038963464
 11
-42.492632201
 21
-17.1121170201
  0
LINE
  5
2A3
100
AcDbEntity
  8
RACCORDO
100
AcDbLine
 62
250
  6
CONTINUOUS
 10
-42.492632201
 20
-17.1121170201
 11
-42.492329718
 21
-17.0129679856
  0
LINE
  5
2A4
100
AcDbEntity
  8
RACCORDO
100
AcDbLine
 62
250
  6
CONTINUOUS
 10
-42.492329718
 20
-17.0129679856
 11
-42.4919050512
 21
-16.9078205069
  0
LINE
  5
2A5
100
AcDbEntity
  8
RACCORDO
100
AcDbLine
 62
250
  6
CONTINUOUS
 10
-42.4919050512
 20
-16.9078205069
 11
-42.4911767632
 21
-16.7645581605
  0
LWPOLYLINE
  5
2A6
100
AcDbEntity
  8
RACCORDO
100
AcDbPolyline
 62
250
  6
CONTINUOUS
 90
9
 70
0
 10
-37.8707081834
 20
22.6948446673
 10
-37.8634513811
 20
22.7265042595
 10
-37.8497498946
 20
22.7565016546
 10
-37.8299703044
 20
22.784034279
 10
-37.8046418091
 20
22.8083655032
 10
-37.774442067
 20
22.8288443507
 10
-37.7401790655
 20
22.8449229144
 10
-37.7027695039
 20
22.856171016
 10
-37.6632142666
 20
22.8622877148
  0
LWPOLYLINE
  5
2A7
100
AcDbEntity
  8
RACCORDO
100
AcDbPolyline
 62
250
  6
CONTINUOUS
 90
10
 70
0
 10
-38.4628981151
 20
17.8718447119
 10
-38.4563669188
 20
17.8967922963
 10
-38.443184402
 20
17.9202142251
 10
-38.4237134761
 20
17.9414656988
 10
-38.3984901705
 20
17.9599616697
 10
-38.3682088763
 20
17.9751929487
 10
-38.3337032297
 20
17.9867402225
 10
-38.2959231622
 20
17.9942855977
 10
-38.2559087493
 20
17.9976213521
 10
-38.2147615773
 20
17.9966556531
  0
LWPOLYLINE
  5
2A8
100
AcDbEntity
  8
ASSI
100
AcDbPolyline
 62
250
  6
CONTINUOUS
 90
10
 70
0
 10
-28.9121340794
 20
21.6128094842
 10
-28.866983296
 20
21.6303336323
 10
-28.8217016042
 20
21.6426376374
 10
-28.7772478348
 20
21.64972603
 10
-28.7349372525
 20
21.6519940421
 10
-28.695270445
 20
21.6494662836
 10
-28.6579817577
 20
21.6416324936
 10
-28.6235486078
 20
21.6285399641
 10
-28.5931022732
 20
21.6109385385
 10
-28.567306892
 20
21.5894091012
  0
LWPOLYLINE
  5
2A9
100
AcDbEntity
  8
RACCORDO
100
AcDbPolyline
 62
250
  6
CONTINUOUS
 90
10
 70
0
 10
-28.9121340794
 20
21.6128094842
 10
-28.866983296
 20
21.6303336323
 10
-28.8217016042
 20
21.6426376374
 10
-28.7772478348
 20
21.64972603
 10
-28.7349372525
 20
21.6519940421
 10
-28.695270445
 20
21.6494662836
 10
-28.6579817577
 20
21.6416324936
 10
-28.6235486078
 20
21.6285399641
 10
-28.5931022732
 20
21.6109385385
 10
-28.567306892
 20
21.5894091012
  0
LWPOLYLINE
  5
2AA
100
AcDbEntity
  8
ASSI
100
AcDbPolyline
 62
7
  6
CONTINUOUS
 90
10
 70
0
 10
-32.8829888773
 20
-22.4947993884
 10
-33.3220462205
 20
-22.5039995792
 10
-33.7624528792
 20
-22.5131252344
 10
-34.2042088533
 20
-22.5221734184
 10
-34.6473175299
 20
-22.5311365296
 10
-35.0917755219
 20
-22.5400167387
 10
-35.5375726687
 20
-22.5488259172
 10
-35.9847055835
 20
-22.557566387
 10
-36.433177653
 20
-22.5662309893
 10
-36.8829888773
 20
-22.5748174753
  0
LWPOLYLINE
  5
2AB
100
AcDbEntity
  8
SUPERFICI
100
AcDbPolyline
 62
7
  6
CONTINUOUS
 90
10
 70
0
 10
-32.8829888773
 20
-22.4947993884
 10
-33.3220462205
 20
-22.5039995792
 10
-33.7624528792
 20
-22.5131252344
 10
-34.2042088533
 20
-22.5221734184
 10
-34.6473175299
 20
-22.5311365296
 10
-35.0917755219
 20
-22.5400167387
 10
-35.5375726687
 20
-22.5488259172
 10
-35.9847055835
 20
-22.557566387
 10
-36.433177653
 20
-22.5662309893
 10
-36.8829888773
 20
-22.5748174753
  0
LINE
  5
2AC
100
AcDbEntity
  8
ASSI
100
AcDbLine
 62
7
  6
CONTINUOUS
 10
-32.8829888773
 20
-22.8250886538
 11
-36.8829888773
 21
-22.8949089135
  0
LINE
  5
2AD
100
AcDbEntity
  8
SUPERFICI
100
AcDbLine
 62
7
  6
CONTINUOUS
 10
-32.8829888773
 20
-22.8250886538
 11
-36.8829888773
 21
-22.8949089135
  0
LINE
  5
2AE
100
AcDbEntity
  8
ASSI
100
AcDbLine
 62
250
  6
CONTINUOUS
 10
-32.8829888773
 20
-22.6580162753
 11
-36.8829888773
 21
-22.728268571
  0
LINE
  5
2AF
100
AcDbEntity
  8
SUPERFICI
100
AcDbLine
 62
250
  6
CONTINUOUS
 10
-32.8829888773
 20
-22.6580162753
 11
-36.8829888773
 21
-22.728268571
  0
LWPOLYLINE
  5
2B0
100
AcDbEntity
  8
ASSI
100
AcDbPolyline
 62
7
  6
CONTINUOUS
 90
10
 70
0
 10
-32.8829888773
 20
-22.0247755162
 10
-33.3220462205
 20
-22.0279872028
 10
-33.7624528792
 20
-22.031330194
 10
-34.2042088533
 20
-22.034799731
 10
-34.6473175299
 20
-22.0383891195
 10
-35.0917755219
 20
-22.0420954759
 10
-35.5375726687
 20
-22.0459205126
 10
-35.9847055835
 20
-22.0498624958
 10
-36.433177653
 20
-22.053915467
 10
-36.8829888773
 20
-22.0580755355
  0
LWPOLYLINE
  5
2B1
100
AcDbEntity
  8
SUPERFICI
100
AcDbPolyline
 62
7
  6
CONTINUOUS
 90
10
 70
0
 10
-32.8829888773
 20
-22.0247755162
 10
-33.3220462205
 20
-22.0279872028
 10
-33.7624528792
 20
-22.031330194
 10
-34.2042088533
 20
-22.034799731
 10
-34.6473175299
 20
-22.0383891195
 10
-35.0917755219
 20
-22.0420954759
 10
-35.5375726687
 20
-22.0459205126
 10
-35.9847055835
 20
-22.0498624958
 10
-36.433177653
 20
-22.053915467
 10
-36.8829888773
 20
-22.0580755355
  0
LINE
  5
2B2
100
AcDbEntity
  8
ASSI
100
AcDbLine
 62
7
  6
CONTINUOUS
 10
-30.7334933934
 20
-21.5949089135
 11
-31.2829888773
 21
-21.5949089135
  0
LINE
  5
2B3
100
AcDbEntity
  8
SUPERFICI
100
AcDbLine
 62
7
  6
CONTINUOUS
 10
-30.7334933934
 20
-21.5949089135
 11
-31.2829888773
 21
-21.5949089135
  0
LINE
  5
2B4
100
AcDbEntity
  8
DRAFT
100
AcDbLine
 62
7
  6
CONTINUOUS
 10
-38.4899700136
 20
-21.1017690833
 11
-37.9194603353
 21
-21.1117273668
  0
LINE
  5
2B5
100
AcDbEntity
  8
RACCORDO
100
AcDbLine
 62
250
  6
CONTINUOUS
 10
-37.6632136822
 20
-21.652101024
 11
-37.6225716455
 21
-21.6529225509
  0
LINE
  5
2B6
100
AcDbEntity
  8
ASSI
100
AcDbLine
 62
250
  6
CONTINUOUS
 10
-49.8373261746
 20
-19.7439489601
 11
-49.7253727578
 21
-19.7489004847
  0
LINE
  5
2B7
100
AcDbEntity
  8
RACCORDO
100
AcDbLine
 62
250
  6
CONTINUOUS
 10
-49.8360375197
 20
-19.7440032737
 11
-49.7211185196
 21
-19.7490914582
  0
LINE
  5
2B8
100
AcDbEntity
  8
RACCORDO
100
AcDbLine
 62
250
  6
CONTINUOUS
 10
-49.7211185196
 20
-19.7490914582
 11
-49.4584401751
 21
-19.7609883194
  0
LINE
  5
2B9
100
AcDbEntity
  8
ASSI
100
AcDbLine
 62
250
  6
CONTINUOUS
 10
-49.7253727578
 20
-19.7489004847
 11
-49.4834906478
 21
-19.7598476283
  0
LINE
  5
2BA
100
AcDbEntity
  8
RACCORDO
100
AcDbLine
 62
250
  6
CONTINUOUS
 10
-49.4584401751
 20
-19.7609883194
 11
-49.3559303956
 21
-19.7656661785
  0
LWPOLYLINE
  5
2BB
100
AcDbEntity
  8
ASSI
100
AcDbPolyline
 62
250
  6
CONTINUOUS
 90
3
 70
0
 10
-49.4834906478
 20
-19.7598476283
 10
-49.3882117799
 20
-19.7641913887
 10
-49.3559303956
 20
-19.7656661785
  0
LINE
  5
2BC
100
AcDbEntity
  8
RACCORDO
100
AcDbLine
 62
7
  6
CONTINUOUS
 10
-37.629277586
 20
-21.7557975796
 11
-36.8829888773
 21
-21.7949089135
  0
LINE
  5
2BD
100
AcDbEntity
  8
RACCORDO
100
AcDbLine
 62
250
  6
CONTINUOUS
 10
-36.8829888773
 20
-21.6923920829
 11
-37.6225719487
 21
-21.6529251015
  0
LINE
  5
2BE
100
AcDbEntity
  8
ASSI
100
AcDbLine
 62
250
  6
CONTINUOUS
 10
-42.8595426551
 20
-20.9749995711
 11
-48.9130538029
 21
-20.2852890961
  0
LINE
  5
2BF
100
AcDbEntity
  8
RACCORDO
100
AcDbLine
 62
250
  6
CONTINUOUS
 10
-42.8595426551
 20
-20.9749995711
 11
-48.9130538029
 21
-20.2852890961
  0
LWPOLYLINE
  5
2C0
100
AcDbEntity
  8
RACCORDO
100
AcDbPolyline
 62
250
  6
CONTINUOUS
 90
10
 70
0
 10
-38.4628981067
 20
-16.661662538
 10
-38.4563587037
 20
-16.6866040601
 10
-38.4431702727
 20
-16.7100195247
 10
-38.423695782
 20
-16.7312644966
 10
-38.3984712028
 20
-16.7497542759
 10
-38.3681907584
 20
-16.7649799917
 10
-38.3336878178
 20
-16.7765226077
 10
-38.2959119605
 20
-16.784064451
 10
-38.2559028426
 20
-16.7873979553
 10
-38.2147615835
 20
-16.7864313755
  0
LWPOLYLINE
  5
2C1
100
AcDbEntity
  8
RACCORDO
100
AcDbPolyline
 62
250
  6
CONTINUOUS
 90
9
 70
0
 10
-37.8707081834
 20
-21.4846624944
 10
-37.8634505727
 20
-21.5163214616
 10
-37.8497485043
 20
-21.546318172
 10
-37.8299685633
 20
-21.5738500938
 10
-37.8046399421
 20
-21.5981806379
 10
-37.7744402825
 20
-21.6186588653
 10
-37.740177546
 20
-21.6347369014
 10
-37.7027683979
 20
-21.6459845945
 10
-37.6632136822
 20
-21.652101024
  0
LWPOLYLINE
  5
2C2
100
AcDbEntity
  8
RACCORDO
100
AcDbPolyline
 62
250
  6
CONTINUOUS
 90
7
 70
0
 10
-40.3167699303
 20
0.4527544072
 10
-40.3204504296
 20
0.4865621358
 10
-40.3232110961
 20
0.5203874753
 10
-40.3250519299
 20
0.5542304256
 10
-40.3259733202
 20
0.5880995123
 10
-40.3259748778
 20
0.6219862099
 10
-40.3250554344
 20
0.6558649416
  0
LINE
  5
2C3
100
AcDbEntity
  8
RACCORDO
100
AcDbLine
 62
250
  6
CONTINUOUS
 10
-40.3250554344
 20
0.6558649416
 11
-40.3232146006
 21
0.6897271821
  0
LWPOLYLINE
  5
2C4
100
AcDbEntity
  8
RACCORDO
100
AcDbPolyline
 62
250
  6
CONTINUOUS
 90
3
 70
0
 10
-40.3232146006
 20
0.6897271821
 10
-40.320452766
 20
0.7235814568
 10
-40.3167699303
 20
0.7574277657
  0
LINE
  5
2C5
100
AcDbEntity
  8
ASSI
100
AcDbLine
 62
7
  6
CONTINUOUS
 10
-42.9031155492
 20
-21.47304003
 11
-39.0856940169
 21
22.1602877464
  0
LINE
  5
2C6
100
AcDbEntity
  8
RACCORDO
100
AcDbLine
 62
7
  6
CONTINUOUS
 10
-42.9031155492
 20
-21.47304003
 11
-39.0856940169
 21
22.1602877464
  0
LINE
  5
2C7
100
AcDbEntity
  8
RACCORDO
100
AcDbLine
 62
250
  6
CONTINUOUS
 10
-38.352310643
 20
16.7566647448
 11
-38.283023818
 21
17.3838114946
  0
LINE
  5
2C8
100
AcDbEntity
  8
RACCORDO
100
AcDbLine
 62
250
  6
CONTINUOUS
 10
-38.283023818
 20
17.3838114946
 11
-38.2147536785
 21
17.9967250158
  0
LINE
  5
2C9
100
AcDbEntity
  8
RACCORDO
100
AcDbLine
 62
250
  6
CONTINUOUS
 10
-38.1416211499
 20
18.5969967713
 11
-37.8172518351
 21
21.2632562651
  0
LINE
  5
2CA
100
AcDbEntity
  8
RACCORDO
100
AcDbLine
 62
250
  6
CONTINUOUS
 10
-37.8172518351
 20
21.2632562651
 11
-37.6464047473
 21
22.6675136227
  0
LINE
  5
2CB
100
AcDbEntity
  8
RACCORDO
100
AcDbLine
 62
250
  6
CONTINUOUS
 10
-37.6464047473
 20
22.6675136227
 11
-37.6225719312
 21
22.8631074107
  0
LINE
  5
2CC
100
AcDbEntity
  8
RACCORDO
100
AcDbLine
 62
250
  6
CONTINUOUS
 10
-38.2147538441
 20
17.9967250207
 11
-38.1416211499
 21
18.5969967713
  0
LINE
  5
2CD
100
AcDbEntity
  8
RACCORDO
100
AcDbLine
 62
7
  6
CONTINUOUS
 10
-40.5605433666
 20
0.7878951016
 11
-37.8643301348
 21
22.7467897047
  0
LINE
  5
2CE
100
AcDbEntity
  8
RACCORDO
100
AcDbLine
 62
250
  6
CONTINUOUS
 10
-40.3167699303
 20
0.7574277657
 11
-38.352310643
 21
16.7566647448
  0
LINE
  5
2CF
100
AcDbEntity
  8
ASSI
100
AcDbLine
 62
7
  6
CONTINUOUS
 10
-28.8919358449
 20
-20.5252448237
 11
-32.8829888773
 21
-20.5949089135
  0
LINE
  5
2D0
100
AcDbEntity
  8
0
100
AcDbLine
 62
7
  6
CONTINUOUS
 10
-31.2829888773
 20
-20.5669808097
 11
-32.8829888773
 21
-20.5949089135
  0
LINE
  5
2D1
100
AcDbEntity
  8
RACCORDO
100
AcDbLine
 62
7
  6
CONTINUOUS
 10
-28.8919358449
 20
-20.5252448237
 11
-32.8829888773
 21
-20.5949089135
  0
LINE
  5
2D2
100
AcDbEntity
  8
ASSI
100
AcDbLine
 62
250
  6
CONTINUOUS
 10
-28.8919809938
 20
-20.4147729773
 11
-32.8829888773
 21
-20.4847163278
  0
LINE
  5
2D3
100
AcDbEntity
  8
RACCORDO
100
AcDbLine
 62
250
  6
CONTINUOUS
 10
-28.8919809938
 20
-20.4147729773
 11
-32.8829888773
 21
-20.4847163278
  0
LINE
  5
2D4
100
AcDbEntity
  8
DRAFT
100
AcDbLine
 62
7
  6
CONTINUOUS
 10
-38.4899700131
 20
-20.0880487438
 11
-38.0401960632
 21
-20.0801979103
  0
LINE
  5
2D5
100
AcDbEntity
  8
ASSI
100
AcDbLine
 62
7
  6
CONTINUOUS
 10
-26.6504885402
 20
-18.4452143713
 11
-16.1251352944
 21
-18.261493647
  0
LINE
  5
2D6
100
AcDbEntity
  8
RACCORDO
100
AcDbLine
 62
7
  6
CONTINUOUS
 10
-26.6504885402
 20
-18.4452143713
 11
-16.1251352944
 21
-18.261493647
  0
LINE
  5
2D7
100
AcDbEntity
  8
ASSI
100
AcDbLine
 62
250
  6
CONTINUOUS
 10
-49.8467155895
 20
-19.7435897279
 11
-49.8456686867
 21
-19.7436141072
  0
LWPOLYLINE
  5
2D8
100
AcDbEntity
  8
RACCORDO
100
AcDbPolyline
 62
250
  6
CONTINUOUS
 90
3
 70
0
 10
-49.8467155895
 20
-19.7435897279
 10
-49.8440380436
 20
-19.743674612
 10
-49.8360375197
 20
-19.7440032737
  0
LINE
  5
2D9
100
AcDbEntity
  8
ASSI
100
AcDbLine
 62
250
  6
CONTINUOUS
 10
-49.8456686867
 20
-19.7436141072
 11
-49.8373261746
 21
-19.7439489601
  0
LWPOLYLINE
  5
2DA
100
AcDbEntity
  8
ASSI
100
AcDbPolyline
 62
7
  6
CONTINUOUS
 90
10
 70
0
 10
-26.6504885402
 20
-18.4452143713
 10
-26.6655972922
 20
-18.4434807724
 10
-26.6816026874
 20
-18.4378514198
 10
-26.6985047993
 20
-18.4284748476
 10
-26.7164478643
 20
-18.4155509472
 10
-26.7352855819
 20
-18.3992695195
 10
-26.7545821087
 20
-18.379761432
 10
-26.7741913015
 20
-18.3571982199
 10
-26.7942558015
 20
-18.3318350367
 10
-26.8147729881
 20
-18.3039181546
  0
LWPOLYLINE
  5
2DB
100
AcDbEntity
  8
RACCORDO
100
AcDbPolyline
 62
7
  6
CONTINUOUS
 90
10
 70
0
 10
-26.6504885402
 20
-18.4452143713
 10
-26.6655972922
 20
-18.4434807724
 10
-26.6816026874
 20
-18.4378514198
 10
-26.6985047993
 20
-18.4284748476
 10
-26.7164478643
 20
-18.4155509472
 10
-26.7352855819
 20
-18.3992695195
 10
-26.7545821087
 20
-18.379761432
 10
-26.7741913015
 20
-18.3571982199
 10
-26.7942558015
 20
-18.3318350367
 10
-26.8147729881
 20
-18.3039181546
  0
LINE
  5
2DC
100
AcDbEntity
  8
RACCORDO
100
AcDbLine
 62
7
  6
CONTINUOUS
 10
-37.8643301348
 20
-21.5366075318
 11
-40.5605433666
 21
0.4222870713
  0
LINE
  5
2DD
100
AcDbEntity
  8
RACCORDO
100
AcDbLine
 62
250
  6
CONTINUOUS
 10
-38.352310643
 20
-15.5464825719
 11
-40.3167699303
 21
0.4527544072
  0
LINE
  5
2DE
100
AcDbEntity
  8
RACCORDO
100
AcDbLine
 62
250
  6
CONTINUOUS
 10
-38.1416245682
 20
-17.3867867522
 11
-38.2147602232
 21
-16.7864885809
  0
LINE
  5
2DF
100
AcDbEntity
  8
RACCORDO
100
AcDbLine
 62
250
  6
CONTINUOUS
 10
-37.6225719487
 20
-21.6529251015
 11
-37.6918723477
 21
-21.0840394218
  0
LINE
  5
2E0
100
AcDbEntity
  8
RACCORDO
100
AcDbLine
 62
250
  6
CONTINUOUS
 10
-37.8172517431
 20
-20.0530740662
 11
-38.1416245682
 21
-17.3867867522
  0
LINE
  5
2E1
100
AcDbEntity
  8
RACCORDO
100
AcDbLine
 62
250
  6
CONTINUOUS
 10
-37.6918723477
 20
-21.0840394218
 11
-37.8172517431
 21
-20.0530740662
  0
LWPOLYLINE
  5
2E2
100
AcDbEntity
  8
RACCORDO
100
AcDbPolyline
 62
250
  6
CONTINUOUS
 90
3
 70
0
 10
-38.2147601783
 20
-16.7864885798
 10
-38.2299687037
 20
-16.6522884694
 10
-38.2452974694
 20
-16.5144021617
  0
LWPOLYLINE
  5
2E3
100
AcDbEntity
  8
RACCORDO
100
AcDbPolyline
 62
250
  6
CONTINUOUS
 90
6
 70
0
 10
-38.2762938569
 20
-16.2335897186
 10
-38.2919251516
 20
-16.0932410166
 10
-38.3073737594
 20
-15.9535661101
 10
-38.3225532835
 20
-15.8152255229
 10
-38.3375334281
 20
-15.6792922233
 10
-38.352310643
 20
-15.5464825719
  0
LINE
  5
2E4
100
AcDbEntity
  8
RACCORDO
100
AcDbLine
 62
250
  6
CONTINUOUS
 10
-38.2452974694
 20
-16.5144021617
 11
-38.2762938569
 21
-16.2335897186
  0
LWPOLYLINE
  5
2E5
100
AcDbEntity
  8
RACCORDO
100
AcDbPolyline
 62
250
  6
CONTINUOUS
 90
13
 70
0
 10
-37.6225716122
 20
22.8631074278
 10
-37.622704986
 20
22.8767503347
 10
-37.6229182369
 20
22.88988548
 10
-37.6232061113
 20
22.9023991043
 10
-37.6235496515
 20
22.9141616723
 10
-37.6239547674
 20
22.9250617272
 10
-37.6244519577
 20
22.9349947446
 10
-37.6250285405
 20
22.9438149842
 10
-37.6256777199
 20
22.9513772
 10
-37.6264364251
 20
22.9575455596
 10
-37.6273074067
 20
22.9621534078
 10
-37.6282598004
 20
22.9650220894
 10
-37.629277586
 20
22.9659797525
  0
LINE
  5
2E6
100
AcDbEntity
  8
RACCORDO
100
AcDbLine
 62
7
  6
CONTINUOUS
 10
-38.8829888773
 20
21.9120121812
 11
-38.8829888773
 21
21.6981699917
  0
LINE
  5
2E7
100
AcDbEntity
  8
RACCORDO
100
AcDbLine
 62
7
  6
CONTINUOUS
 10
-38.8829888773
 20
-20.7018288913
 11
-38.8829888773
 21
-20.4879889325
  0
LINE
  5
2E8
100
AcDbEntity
  8
RACCORDO
100
AcDbLine
 62
250
  6
CONTINUOUS
 10
-38.4899700206
 20
-21.1017685489
 11
-38.48997002
 21
-20.0880492766
  0
LINE
  5
2E9
100
AcDbEntity
  8
RACCORDO
100
AcDbLine
 62
250
  6
CONTINUOUS
 10
-38.48997002
 20
21.2982314495
 11
-38.4899700206
 21
22.3119507218
  0
LINE
  5
2EA
100
AcDbEntity
  8
RACCORDO
100
AcDbLine
 62
7
  6
CONTINUOUS
 10
-36.8829888773
 20
22.9334138158
 11
-36.8829888773
 21
-21.7949089135
  0
LINE
  5
2EB
100
AcDbEntity
  8
ASSI
100
AcDbLine
 62
7
  6
CONTINUOUS
 10
-36.8829888773
 20
-22.8949089135
 11
-36.8829888773
 21
24.1050910865
  0
LINE
  5
2EC
100
AcDbEntity
  8
SUPERFICI
100
AcDbLine
 62
7
  6
CONTINUOUS
 10
-36.8829888773
 20
-22.8949089135
 11
-36.8829888773
 21
24.1050910865
  0
LWPOLYLINE
  5
2ED
100
AcDbEntity
  8
0
100
AcDbPolyline
 62
7
  6
CONTINUOUS
 90
3
 70
0
 43
0.3500000087
 10
-26.0862805908
 20
43.1408058807
 10
-26.1577101456
 20
42.9265193481
 10
-26.3005671234
 20
42.6408053925
  0
LWPOLYLINE
  5
2EE
100
AcDbEntity
  8
ASSI
100
AcDbPolyline
 62
250
  6
CONTINUOUS
 90
16
 70
0
 10
-16.1251352945
 20
-16.6356337577
 10
-16.0786670861
 20
-16.6336236934
 10
-16.0327809361
 20
-16.6286279131
 10
-15.9879684873
 20
-16.6206999497
 10
-15.9447098698
 20
-16.6099247504
 10
-15.9034685783
 20
-16.5964177719
 10
-15.8646865028
 20
-16.5803237471
 10
-15.8287791621
 20
-16.5618151237
 10
-15.7961312668
 20
-16.5410902163
 10
-15.7670926126
 20
-16.5183710923
 10
-15.7419743139
 20
-16.493901181
 10
-15.7210454751
 20
-16.4679426647
 10
-15.7045303147
 20
-16.4407736757
 10
-15.6926057598
 20
-16.4126853131
 10
-15.6853995515
 20
-16.3839785233
 10
-15.6829888773
 20
-16.3549608769
  0
LWPOLYLINE
  5
2EF
100
AcDbEntity
  8
RACCORDO
100
AcDbPolyline
 62
250
  6
CONTINUOUS
 90
16
 70
0
 10
-16.1251352945
 20
-16.6356337577
 10
-16.0786670861
 20
-16.6336236934
 10
-16.0327809361
 20
-16.6286279131
 10
-15.9879684873
 20
-16.6206999497
 10
-15.9447098698
 20
-16.6099247504
 10
-15.9034685783
 20
-16.5964177719
 10
-15.8646865028
 20
-16.5803237471
 10
-15.8287791621
 20
-16.5618151237
 10
-15.7961312668
 20
-16.5410902163
 10
-15.7670926126
 20
-16.5183710923
 10
-15.7419743139
 20
-16.493901181
 10
-15.7210454751
 20
-16.4679426647
 10
-15.7045303147
 20
-16.4407736757
 10
-15.6926057598
 20
-16.4126853131
 10
-15.6853995515
 20
-16.3839785233
 10
-15.6829888773
 20
-16.3549608769
  0
LINE
  5
2F0
100
AcDbEntity
  8
RACCORDO
100
AcDbLine
 62
250
  6
CONTINUOUS
 10
-38.2147602232
 20
-16.7864885809
 11
-36.8829888773
 21
-16.7548431047
  0
LINE
  5
2F1
100
AcDbEntity
  8
ASSI
100
AcDbLine
 62
250
  6
CONTINUOUS
 10
-26.8147729881
 20
-18.3039181546
 11
-16.1251352944
 21
-18.1163405123
  0
LINE
  5
2F2
100
AcDbEntity
  8
RACCORDO
100
AcDbLine
 62
250
  6
CONTINUOUS
 10
-26.8147729881
 20
-18.3039181546
 11
-16.1251352944
 21
-18.1163405123
  0
LINE
  5
2F3
100
AcDbEntity
  8
ASSI
100
AcDbLine
 62
250
  6
CONTINUOUS
 10
-23.0597200237
 20
-16.6753856966
 11
-16.1251352945
 21
-16.6356337578
  0
LINE
  5
2F4
100
AcDbEntity
  8
RACCORDO
100
AcDbLine
 62
250
  6
CONTINUOUS
 10
-23.0597200237
 20
-16.6753856966
 11
-16.1251352945
 21
-16.6356337578
  0
LINE
  5
2F5
100
AcDbEntity
  8
ASSI
100
AcDbLine
 62
250
  6
CONTINUOUS
 10
-36.8829888773
 20
-16.7543384827
 11
-23.0597200237
 21
-16.6753856966
  0
LINE
  5
2F6
100
AcDbEntity
  8
RACCORDO
100
AcDbLine
 62
250
  6
CONTINUOUS
 10
-36.8829888773
 20
-16.7543384827
 11
-23.0597200237
 21
-16.6753856966
  0
LINE
  5
2F7
100
AcDbEntity
  8
ASSI
100
AcDbLine
 62
7
  6
CONTINUOUS
 10
-15.6829888773
 20
-16.045522464
 11
-15.4829888773
 21
-16.045522464
  0
LINE
  5
2F8
100
AcDbEntity
  8
0
100
AcDbLine
 62
7
  6
CONTINUOUS
 10
-15.6829888773
 20
-16.045522464
 11
-15.4829888773
 21
-16.045522464
  0
LINE
  5
2F9
100
AcDbEntity
  8
ASSI
100
AcDbLine
 62
7
  6
CONTINUOUS
 10
-15.6829888773
 20
-15.6640659788
 11
-15.4829888773
 21
-15.6640659788
  0
LINE
  5
2FA
100
AcDbEntity
  8
0
100
AcDbLine
 62
7
  6
CONTINUOUS
 10
-15.6829888773
 20
-15.6640659788
 11
-15.4829888773
 21
-15.6640659788
  0
LINE
  5
2FB
100
AcDbEntity
  8
ASSI
100
AcDbLine
 62
250
  6
CONTINUOUS
 10
-15.6829888773
 20
-15.4906546497
 11
-15.4829888773
 21
-15.4906546497
  0
LINE
  5
2FC
100
AcDbEntity
  8
0
100
AcDbLine
 62
250
  6
CONTINUOUS
 10
-15.6829888773
 20
-15.4906546497
 11
-15.4829888773
 21
-15.4906546497
  0
LINE
  5
2FD
100
AcDbEntity
  8
RACCORDO
100
AcDbLine
 62
7
  6
CONTINUOUS
 10
-38.3421706408
 20
-17.6449089135
 11
-42.4899698399
 21
-17.5725088092
  0
LINE
  5
2FE
100
AcDbEntity
  8
RACCORDO
100
AcDbLine
 62
250
  6
CONTINUOUS
 10
-38.4652001795
 20
-16.6429137298
 11
-42.4899698399
 21
-16.5726855055
  0
LINE
  5
2FF
100
AcDbEntity
  8
RACCORDO
100
AcDbLine
 62
250
  6
CONTINUOUS
 10
-38.5960840793
 20
-15.5769499077
 11
-38.5924079431
 21
-15.5764065099
  0
LINE
  5
300
100
AcDbEntity
  8
RACCORDO
100
AcDbLine
 62
250
  6
CONTINUOUS
 10
-38.5924079431
 20
-15.5764065099
 11
-38.5635850004
 21
-15.572694306
  0
LINE
  5
301
100
AcDbEntity
  8
RACCORDO
100
AcDbLine
 62
250
  6
CONTINUOUS
 10
-38.5635850004
 20
-15.572694306
 11
-38.4745449806
 21
-15.561565891
  0
LINE
  5
302
100
AcDbEntity
  8
RACCORDO
100
AcDbLine
 62
250
  6
CONTINUOUS
 10
-38.4745449806
 20
-15.561565891
 11
-38.352310643
 21
-15.5464825719
  0
LINE
  5
303
100
AcDbEntity
  8
RACCORDO
100
AcDbLine
 62
250
  6
CONTINUOUS
 10
-38.352310643
 20
-15.5464825719
 11
-36.8829888773
 21
-15.5140767529
  0
LINE
  5
304
100
AcDbEntity
  8
ASSI
100
AcDbLine
 62
250
  6
CONTINUOUS
 10
-36.8829888773
 20
-15.5145680796
 11
-29.979004531
 21
-15.4726486141
  0
LINE
  5
305
100
AcDbEntity
  8
RACCORDO
100
AcDbLine
 62
250
  6
CONTINUOUS
 10
-36.8829888773
 20
-15.5145680796
 11
-29.979004531
 21
-15.4726486141
  0
LWPOLYLINE
  5
306
100
AcDbEntity
  8
ASSI
100
AcDbPolyline
 62
250
  6
CONTINUOUS
 90
3
 70
0
 10
-29.979004531
 20
-15.4726486141
 10
-23.0597200034
 20
-15.4305254982
 10
-16.1251352944
 20
-15.3881987317
  0
LWPOLYLINE
  5
307
100
AcDbEntity
  8
RACCORDO
100
AcDbPolyline
 62
250
  6
CONTINUOUS
 90
3
 70
0
 10
-29.979004531
 20
-15.4726486141
 10
-23.0597200034
 20
-15.4305254982
 10
-16.1251352944
 20
-15.3881987317
  0
LINE
  5
308
100
AcDbEntity
  8
ASSI
100
AcDbLine
 62
250
  6
CONTINUOUS
 10
-16.1251352944
 20
-15.3881987317
 11
-15.6829888773
 21
-15.3881987317
  0
LINE
  5
309
100
AcDbEntity
  8
RACCORDO
100
AcDbLine
 62
250
  6
CONTINUOUS
 10
-16.1251352944
 20
-15.3881987317
 11
-15.6829888773
 21
-15.3881987317
  0
LINE
  5
30A
100
AcDbEntity
  8
ASSI
100
AcDbLine
 62
250
  6
CONTINUOUS
 10
-15.6829888773
 20
-15.269402765
 11
-15.4829888773
 21
-15.269402765
  0
LINE
  5
30B
100
AcDbEntity
  8
0
100
AcDbLine
 62
250
  6
CONTINUOUS
 10
-15.6829888773
 20
-15.269402765
 11
-15.4829888773
 21
-15.269402765
  0
LINE
  5
30C
100
AcDbEntity
  8
ASSI
100
AcDbLine
 62
7
  6
CONTINUOUS
 10
-15.6829888773
 20
-15.0567701584
 11
-15.4829888773
 21
-15.0567701584
  0
LINE
  5
30D
100
AcDbEntity
  8
0
100
AcDbLine
 62
7
  6
CONTINUOUS
 10
-15.6829888773
 20
-15.0567701584
 11
-15.4829888773
 21
-15.0567701584
  0
LINE
  5
30E
100
AcDbEntity
  8
ASSI
100
AcDbLine
 62
7
  6
CONTINUOUS
 10
-15.6829888773
 20
-14.6617935163
 11
-15.4829888773
 21
-14.6617935163
  0
LINE
  5
30F
100
AcDbEntity
  8
0
100
AcDbLine
 62
7
  6
CONTINUOUS
 10
-15.6829888773
 20
-14.6617935163
 11
-15.4829888773
 21
-14.6617935163
  0
LINE
  5
310
100
AcDbEntity
  8
ASSI
100
AcDbLine
 62
7
  6
CONTINUOUS
 10
-15.6829888773
 20
-14.5453409135
 11
-15.4829888773
 21
-14.5453409135
  0
LINE
  5
311
100
AcDbEntity
  8
0
100
AcDbLine
 62
7
  6
CONTINUOUS
 10
-15.6829888773
 20
-14.5453409135
 11
-15.4829888773
 21
-14.5453409135
  0
LINE
  5
312
100
AcDbEntity
  8
ASSI
100
AcDbLine
 62
7
  6
CONTINUOUS
 10
-15.6829888773
 20
-14.1273699135
 11
-15.4829888773
 21
-14.1273699135
  0
LINE
  5
313
100
AcDbEntity
  8
0
100
AcDbLine
 62
7
  6
CONTINUOUS
 10
-15.6829888773
 20
-14.1273699135
 11
-15.4829888773
 21
-14.1273699135
  0
LINE
  5
314
100
AcDbEntity
  8
ASSI
100
AcDbLine
 62
7
  6
CONTINUOUS
 10
-15.6829888773
 20
-14.0246369135
 11
-15.4829888773
 21
-14.0246369135
  0
LINE
  5
315
100
AcDbEntity
  8
0
100
AcDbLine
 62
7
  6
CONTINUOUS
 10
-15.6829888773
 20
-14.0246369135
 11
-15.4829888773
 21
-14.0246369135
  0
LINE
  5
316
100
AcDbEntity
  8
ASSI
100
AcDbLine
 62
7
  6
CONTINUOUS
 10
-15.6829888773
 20
-13.4845709135
 11
-15.4829888773
 21
-13.4845709135
  0
LINE
  5
317
100
AcDbEntity
  8
0
100
AcDbLine
 62
7
  6
CONTINUOUS
 10
-15.6829888773
 20
-13.4845709135
 11
-15.4829888773
 21
-13.4845709135
  0
LINE
  5
318
100
AcDbEntity
  8
ASSI
100
AcDbLine
 62
7
  6
CONTINUOUS
 10
-15.6829888773
 20
-13.3751419135
 11
-15.4829888773
 21
-13.3751419135
  0
LINE
  5
319
100
AcDbEntity
  8
0
100
AcDbLine
 62
7
  6
CONTINUOUS
 10
-15.6829888773
 20
-13.3751419135
 11
-15.4829888773
 21
-13.3751419135
  0
LINE
  5
31A
100
AcDbEntity
  8
ASSI
100
AcDbLine
 62
7
  6
CONTINUOUS
 10
-15.6829888773
 20
-12.9828719135
 11
-15.4829888773
 21
-12.9828719135
  0
LINE
  5
31B
100
AcDbEntity
  8
0
100
AcDbLine
 62
7
  6
CONTINUOUS
 10
-15.6829888773
 20
-12.9828719135
 11
-15.4829888773
 21
-12.9828719135
  0
LINE
  5
31C
100
AcDbEntity
  8
ASSI
100
AcDbLine
 62
7
  6
CONTINUOUS
 10
-15.6829888773
 20
-12.9205999135
 11
-15.4829888773
 21
-12.9205999135
  0
LINE
  5
31D
100
AcDbEntity
  8
0
100
AcDbLine
 62
7
  6
CONTINUOUS
 10
-15.6829888773
 20
-12.9205999135
 11
-15.4829888773
 21
-12.9205999135
  0
LINE
  5
31E
100
AcDbEntity
  8
RACCORDO
100
AcDbLine
 62
7
  6
CONTINUOUS
 10
-32.8829888773
 20
-22.0247755162
 11
-32.8829888773
 21
-20.4847163278
  0
LINE
  5
31F
100
AcDbEntity
  8
ASSI
100
AcDbLine
 62
7
  6
CONTINUOUS
 10
-32.8829888773
 20
-20.4847163278
 11
-32.8829888773
 21
-22.8250886538
  0
LINE
  5
320
100
AcDbEntity
  8
SUPERFICI
100
AcDbLine
 62
7
  6
CONTINUOUS
 10
-32.8829888773
 20
-22.0247755162
 11
-32.8829888773
 21
-22.8250886538
  0
LINE
  5
321
100
AcDbEntity
  8
ASSI
100
AcDbLine
 62
7
  6
CONTINUOUS
 10
-32.8829888773
 20
21.6824317367
 11
-32.8829888773
 21
23.2349576891
  0
LINE
  5
322
100
AcDbEntity
  8
RACCORDO
100
AcDbLine
 62
7
  6
CONTINUOUS
 10
-32.8829888773
 20
21.6824317367
 11
-32.8829888773
 21
23.2349576891
  0
LINE
  5
323
100
AcDbEntity
  8
ASSI
100
AcDbLine
 62
7
  6
CONTINUOUS
 10
-32.8829888773
 20
23.2677048303
 11
-32.8829888773
 21
24.0352708267
  0
LINE
  5
324
100
AcDbEntity
  8
SUPERFICI
100
AcDbLine
 62
7
  6
CONTINUOUS
 10
-32.8829888773
 20
23.2677048303
 11
-32.8829888773
 21
24.0352708267
  0
LINE
  5
325
100
AcDbEntity
  8
ASSI
100
AcDbLine
 62
7
  6
CONTINUOUS
 10
-31.2829888773
 20
22.8050910865
 11
-31.2829888773
 21
21.7771629826
  0
LINE
  5
326
100
AcDbEntity
  8
0
100
AcDbLine
 62
7
  6
CONTINUOUS
 10
-31.2829888773
 20
22.8050910865
 11
-31.2829888773
 21
21.7771629826
  0
LINE
  5
327
100
AcDbEntity
  8
ASSI
100
AcDbLine
 62
7
  6
CONTINUOUS
 10
-31.2829888773
 20
-21.5949089135
 11
-31.2829888773
 21
-20.5669808097
  0
LINE
  5
328
100
AcDbEntity
  8
0
100
AcDbLine
 62
7
  6
CONTINUOUS
 10
-31.2829888773
 20
-21.5949089135
 11
-31.2829888773
 21
-20.5669808097
  0
LWPOLYLINE
  5
329
100
AcDbEntity
  8
RACCORDO
100
AcDbPolyline
 62
250
  6
CONTINUOUS
 90
10
 70
0
 10
-37.627046233
 20
-21.7509034391
 10
-37.6263523609
 20
-21.7467733078
 10
-37.6256859358
 20
-21.7412237901
 10
-37.6250635821
 20
-21.7341313984
 10
-37.6244884576
 20
-21.7253884567
 10
-37.62396215
 20
-21.7148904272
 10
-37.6234999206
 20
-21.7024994665
 10
-37.6231108704
 20
-21.6880966213
 10
-37.6227984509
 20
-21.6715992535
 10
-37.6225716052
 20
-21.6529251198
  0
LINE
  5
32A
100
AcDbEntity
  8
ASSI
100
AcDbLine
 62
7
  6
CONTINUOUS
 10
-15.6829888773
 20
-12.5326469135
 11
-15.4829888773
 21
-12.5326469135
  0
LINE
  5
32B
100
AcDbEntity
  8
0
100
AcDbLine
 62
7
  6
CONTINUOUS
 10
-15.6829888773
 20
-12.5326469135
 11
-15.4829888773
 21
-12.5326469135
  0
LINE
  5
32C
100
AcDbEntity
  8
ASSI
100
AcDbLine
 62
7
  6
CONTINUOUS
 10
-15.6829888773
 20
-12.4511699135
 11
-15.4829888773
 21
-12.4511699135
  0
LINE
  5
32D
100
AcDbEntity
  8
0
100
AcDbLine
 62
7
  6
CONTINUOUS
 10
-15.6829888773
 20
-12.4511699135
 11
-15.4829888773
 21
-12.4511699135
  0
LINE
  5
32E
100
AcDbEntity
  8
ASSI
100
AcDbLine
 62
7
  6
CONTINUOUS
 10
-15.6829888773
 20
-11.9796449135
 11
-15.4829888773
 21
-11.9796449135
  0
LINE
  5
32F
100
AcDbEntity
  8
0
100
AcDbLine
 62
7
  6
CONTINUOUS
 10
-15.6829888773
 20
-11.9796449135
 11
-15.4829888773
 21
-11.9796449135
  0
LINE
  5
330
100
AcDbEntity
  8
ASSI
100
AcDbLine
 62
7
  6
CONTINUOUS
 10
-15.6829888773
 20
-11.9240259135
 11
-15.4829888773
 21
-11.9240259135
  0
LINE
  5
331
100
AcDbEntity
  8
0
100
AcDbLine
 62
7
  6
CONTINUOUS
 10
-15.6829888773
 20
-11.9240259135
 11
-15.4829888773
 21
-11.9240259135
  0
LINE
  5
332
100
AcDbEntity
  8
ASSI
100
AcDbLine
 62
7
  6
CONTINUOUS
 10
-15.6829888773
 20
-11.4587989135
 11
-15.4829888773
 21
-11.4587989135
  0
LINE
  5
333
100
AcDbEntity
  8
0
100
AcDbLine
 62
7
  6
CONTINUOUS
 10
-15.6829888773
 20
-11.4587989135
 11
-15.4829888773
 21
-11.4587989135
  0
LINE
  5
334
100
AcDbEntity
  8
ASSI
100
AcDbLine
 62
7
  6
CONTINUOUS
 10
-15.6829888773
 20
-11.3732179135
 11
-15.4829888773
 21
-11.3732179135
  0
LINE
  5
335
100
AcDbEntity
  8
0
100
AcDbLine
 62
7
  6
CONTINUOUS
 10
-15.6829888773
 20
-11.3732179135
 11
-15.4829888773
 21
-11.3732179135
  0
LINE
  5
336
100
AcDbEntity
  8
ASSI
100
AcDbLine
 62
7
  6
CONTINUOUS
 10
-15.6829888773
 20
-10.9938279135
 11
-15.4829888773
 21
-10.9938279135
  0
LINE
  5
337
100
AcDbEntity
  8
0
100
AcDbLine
 62
7
  6
CONTINUOUS
 10
-15.6829888773
 20
-10.9938279135
 11
-15.4829888773
 21
-10.9938279135
  0
LINE
  5
338
100
AcDbEntity
  8
ASSI
100
AcDbLine
 62
7
  6
CONTINUOUS
 10
-15.6829888773
 20
-10.7803399135
 11
-15.4829888773
 21
-10.7803399135
  0
LINE
  5
339
100
AcDbEntity
  8
0
100
AcDbLine
 62
7
  6
CONTINUOUS
 10
-15.6829888773
 20
-10.7803399135
 11
-15.4829888773
 21
-10.7803399135
  0
LINE
  5
33A
100
AcDbEntity
  8
ASSI
100
AcDbLine
 62
7
  6
CONTINUOUS
 10
-15.6829888773
 20
-10.3837679135
 11
-15.4829888773
 21
-10.3837679135
  0
LINE
  5
33B
100
AcDbEntity
  8
0
100
AcDbLine
 62
7
  6
CONTINUOUS
 10
-15.6829888773
 20
-10.3837679135
 11
-15.4829888773
 21
-10.3837679135
  0
LINE
  5
33C
100
AcDbEntity
  8
ASSI
100
AcDbLine
 62
7
  6
CONTINUOUS
 10
-15.6829888773
 20
-10.2365989135
 11
-15.4829888773
 21
-10.2365989135
  0
LINE
  5
33D
100
AcDbEntity
  8
0
100
AcDbLine
 62
7
  6
CONTINUOUS
 10
-15.6829888773
 20
-10.2365989135
 11
-15.4829888773
 21
-10.2365989135
  0
LWPOLYLINE
  5
33E
100
AcDbEntity
  8
ASSI
100
AcDbPolyline
 62
250
  6
CONTINUOUS
 90
3
 70
0
 10
-28.8919358449
 20
-20.4147721831
 10
-28.8918112774
 20
-20.4372019071
 10
-28.8914640729
 20
-20.4749514893
  0
LWPOLYLINE
  5
33F
100
AcDbEntity
  8
RACCORDO
100
AcDbPolyline
 62
250
  6
CONTINUOUS
 90
3
 70
0
 10
-28.8919358449
 20
-20.4147721831
 10
-28.8918112774
 20
-20.4372019071
 10
-28.8914640729
 20
-20.4749514893
  0
LINE
  5
340
100
AcDbEntity
  8
ASSI
100
AcDbLine
 62
250
  6
CONTINUOUS
 10
-28.8914640729
 20
-20.4749514893
 11
-28.8913837821
 21
-20.4901100663
  0
LINE
  5
341
100
AcDbEntity
  8
RACCORDO
100
AcDbLine
 62
250
  6
CONTINUOUS
 10
-28.8914640729
 20
-20.4749514893
 11
-28.8913837821
 21
-20.4901100663
  0
LWPOLYLINE
  5
342
100
AcDbEntity
  8
0
100
AcDbPolyline
 62
7
  6
CONTINUOUS
 90
2
 70
0
 43
0.3500000087
 10
-30.3005667664
 20
42.855091925
 10
-30.3005667664
 20
44.3550891266
  0
LINE
  5
343
100
AcDbEntity
  8
ASSI
100
AcDbLine
 62
250
  6
CONTINUOUS
 10
-28.9115498604
 20
21.7106260939
 11
-28.9116088411
 21
21.679794141
  0
LINE
  5
344
100
AcDbEntity
  8
RACCORDO
100
AcDbLine
 62
250
  6
CONTINUOUS
 10
-28.9115498604
 20
21.7106260939
 11
-28.9116088411
 21
21.679794141
  0
LWPOLYLINE
  5
345
100
AcDbEntity
  8
ASSI
100
AcDbPolyline
 62
250
  6
CONTINUOUS
 90
5
 70
0
 10
-28.8913837821
 20
-20.4901100663
 10
-28.8914640729
 20
-20.5124846619
 10
-28.8915349056
 20
-20.5195418933
 10
-28.8916844409
 20
-20.5238090499
 10
-28.8919358449
 20
-20.5252448237
  0
LWPOLYLINE
  5
346
100
AcDbEntity
  8
RACCORDO
100
AcDbPolyline
 62
250
  6
CONTINUOUS
 90
5
 70
0
 10
-28.8913837821
 20
-20.4901100663
 10
-28.8914640729
 20
-20.5124846619
 10
-28.8915349056
 20
-20.5195418933
 10
-28.8916844409
 20
-20.5238090499
 10
-28.8919358449
 20
-20.5252448237
  0
LWPOLYLINE
  5
347
100
AcDbEntity
  8
ASSI
100
AcDbPolyline
 62
250
  6
CONTINUOUS
 90
3
 70
0
 10
-28.9116088411
 20
21.679794141
 10
-28.9119018788
 20
21.6377307887
 10
-28.9121340794
 20
21.6128094842
  0
LWPOLYLINE
  5
348
100
AcDbEntity
  8
RACCORDO
100
AcDbPolyline
 62
250
  6
CONTINUOUS
 90
3
 70
0
 10
-28.9116088411
 20
21.679794141
 10
-28.9119018788
 20
21.6377307887
 10
-28.9121340794
 20
21.6128094842
  0
LWPOLYLINE
  5
349
100
AcDbEntity
  8
0
100
AcDbPolyline
 62
7
  6
CONTINUOUS
 90
3
 70
0
 43
0.3500000087
 10
-19.6044167404
 20
33.1408046417
 10
-19.6758462952
 20
32.9265181091
 10
-19.818703273
 20
32.6408041534
  0
LINE
  5
34A
100
AcDbEntity
  8
ASSI
100
AcDbLine
 62
7
  6
CONTINUOUS
 10
-15.6829888773
 20
-9.6259129135
 11
-15.4829888773
 21
-9.6259129135
  0
LINE
  5
34B
100
AcDbEntity
  8
0
100
AcDbLine
 62
7
  6
CONTINUOUS
 10
-15.6829888773
 20
-9.6259129135
 11
-15.4829888773
 21
-9.6259129135
  0
LINE
  5
34C
100
AcDbEntity
  8
ASSI
100
AcDbLine
 62
7
  6
CONTINUOUS
 10
-15.6829888773
 20
-9.2764329135
 11
-15.4829888773
 21
-9.2764329135
  0
LINE
  5
34D
100
AcDbEntity
  8
0
100
AcDbLine
 62
7
  6
CONTINUOUS
 10
-15.6829888773
 20
-9.2764329135
 11
-15.4829888773
 21
-9.2764329135
  0
LINE
  5
34E
100
AcDbEntity
  8
ASSI
100
AcDbLine
 62
7
  6
CONTINUOUS
 10
-15.6829888773
 20
-8.6741449135
 11
-15.4829888773
 21
-8.6741449135
  0
LINE
  5
34F
100
AcDbEntity
  8
0
100
AcDbLine
 62
7
  6
CONTINUOUS
 10
-15.6829888773
 20
-8.6741449135
 11
-15.4829888773
 21
-8.6741449135
  0
LINE
  5
350
100
AcDbEntity
  8
ASSI
100
AcDbLine
 62
7
  6
CONTINUOUS
 10
-6.1829888773
 20
-4.2449089135
 11
-4.4672880905
 21
-4.1549928454
  0
LINE
  5
351
100
AcDbEntity
  8
DRAFT
100
AcDbLine
 62
7
  6
CONTINUOUS
 10
-6.1829888773
 20
-4.2449089135
 11
-4.4672880905
 21
-4.1549928454
  0
LINE
  5
352
100
AcDbEntity
  8
ASSI
100
AcDbLine
 62
7
  6
CONTINUOUS
 10
-15.6829888773
 20
-6.3949089135
 11
-6.6251352944
 21
-6.2368034911
  0
LINE
  5
353
100
AcDbEntity
  8
RACCORDO
100
AcDbLine
 62
7
  6
CONTINUOUS
 10
-15.6829888773
 20
-6.3949089135
 11
-6.6251352944
 21
-6.2368034911
  0
LINE
  5
354
100
AcDbEntity
  8
ASSI
100
AcDbLine
 62
250
  6
CONTINUOUS
 10
-16.1251352944
 20
-5.9526951451
 11
-6.6251352944
 21
-5.7868720283
  0
LINE
  5
355
100
AcDbEntity
  8
RACCORDO
100
AcDbLine
 62
250
  6
CONTINUOUS
 10
-16.1251352944
 20
-5.9526951451
 11
-6.6251352944
 21
-5.7868720283
  0
LINE
  5
356
100
AcDbEntity
  8
ASSI
100
AcDbLine
 62
250
  6
CONTINUOUS
 10
-6.1829888773
 20
-5.7868720283
 11
-6.6251352944
 21
-5.7868720283
  0
LINE
  5
357
100
AcDbEntity
  8
RACCORDO
100
AcDbLine
 62
250
  6
CONTINUOUS
 10
-6.1829888773
 20
-5.7868720283
 11
-6.6251352944
 21
-5.7868720283
  0
LINE
  5
358
100
AcDbEntity
  8
RACCORDO
100
AcDbLine
 62
7
  6
CONTINUOUS
 10
-40.0028666371
 20
-4.4050349849
 11
-41.407713229
 21
-4.3805132964
  0
LINE
  5
359
100
AcDbEntity
  8
DRAFT
100
AcDbLine
 62
7
  6
CONTINUOUS
 10
-40.3420800364
 20
-1.356953972
 11
-41.131015464
 21
-1.21784337
  0
LWPOLYLINE
  5
35A
100
AcDbEntity
  8
ASSI
100
AcDbPolyline
 62
250
  6
CONTINUOUS
 90
5
 70
0
 10
-28.9121340794
 20
21.7357795581
 10
-28.9119018788
 20
21.7341915398
 10
-28.9117264289
 20
21.7294466159
 10
-28.9116088411
 20
21.721574845
 10
-28.9115498604
 20
21.7106260939
  0
LWPOLYLINE
  5
35B
100
AcDbEntity
  8
RACCORDO
100
AcDbPolyline
 62
250
  6
CONTINUOUS
 90
5
 70
0
 10
-28.9121340794
 20
21.7357795581
 10
-28.9119018788
 20
21.7341915398
 10
-28.9117264289
 20
21.7294466159
 10
-28.9116088411
 20
21.721574845
 10
-28.9115498604
 20
21.7106260939
  0
LWPOLYLINE
  5
35C
100
AcDbEntity
  8
0
100
AcDbPolyline
 62
7
  6
CONTINUOUS
 90
4
 70
0
 43
0.3500000087
 10
-25.0862817459
 20
45.212235257
 10
-25.0862817459
 20
45.8550905914
 10
-23.5862802811
 20
45.8550905914
 10
-24.4434242798
 20
42.855091925
  0
LINE
  5
35D
100
AcDbEntity
  8
RACCORDO
100
AcDbLine
 62
250
  6
CONTINUOUS
 10
-39.9985048644
 20
-4.1551491962
 11
-41.3858777398
 21
-4.1309325125
  0
LWPOLYLINE
  5
35E
100
AcDbEntity
  8
RACCORDO
100
AcDbPolyline
 62
250
  6
CONTINUOUS
 90
4
 70
0
 10
-40.5605433666
 20
0.7878951016
 10
-40.5568672304
 20
0.7873517036
 10
-40.5459258123
 20
0.7859189761
 10
-40.5037540894
 20
0.7805810186
  0
LWPOLYLINE
  5
35F
100
AcDbEntity
  8
ASSI
100
AcDbPolyline
 62
7
  6
CONTINUOUS
 90
6
 70
0
 10
-16.1742626741
 20
5.6637348397
 10
-16.1330151362
 20
5.7018663522
 10
-16.0933537578
 20
5.7389405165
 10
-16.055278659
 20
5.7747130139
 10
-16.0186914299
 20
5.8089327493
 10
-15.9194318744
 20
5.9012615555
  0
LWPOLYLINE
  5
360
100
AcDbEntity
  8
RACCORDO
100
AcDbPolyline
 62
7
  6
CONTINUOUS
 90
6
 70
0
 10
-16.1742626741
 20
5.6637348397
 10
-16.1330151362
 20
5.7018663522
 10
-16.0933537578
 20
5.7389405165
 10
-16.055278659
 20
5.7747130139
 10
-16.0186914299
 20
5.8089327493
 10
-15.9194318744
 20
5.9012615555
  0
LINE
  5
361
100
AcDbEntity
  8
ASSI
100
AcDbLine
 62
7
  6
CONTINUOUS
 10
-15.9194318744
 20
5.9012615555
 11
-15.8627009083
 21
5.9536960245
  0
LINE
  5
362
100
AcDbEntity
  8
RACCORDO
100
AcDbLine
 62
7
  6
CONTINUOUS
 10
-15.9194318744
 20
5.9012615555
 11
-15.8627009083
 21
5.9536960245
  0
LINE
  5
363
100
AcDbEntity
  8
ASSI
100
AcDbLine
 62
7
  6
CONTINUOUS
 10
-15.8627009083
 20
5.9536960245
 11
-15.8369429004
 21
5.9773846879
  0
LINE
  5
364
100
AcDbEntity
  8
RACCORDO
100
AcDbLine
 62
7
  6
CONTINUOUS
 10
-15.8627009083
 20
5.9536960245
 11
-15.8369429004
 21
5.9773846879
  0
LWPOLYLINE
  5
365
100
AcDbEntity
  8
ASSI
100
AcDbPolyline
 62
7
  6
CONTINUOUS
 90
11
 70
0
 10
-15.8369429004
 20
5.9773846879
 10
-15.7908965741
 20
6.0192293089
 10
-15.7706853722
 20
6.0373965161
 10
-15.7523771567
 20
6.0535411482
 10
-15.7362247641
 20
6.0675051838
 10
-15.7223175866
 20
6.0792671011
 10
-15.7105606567
 20
6.0888147561
 10
-15.7009278846
 20
6.0961080238
 10
-15.6934073963
 20
6.1011974895
 10
-15.6880026855
 20
6.1041745268
 10
-15.6847097095
 20
6.1051211237
  0
LWPOLYLINE
  5
366
100
AcDbEntity
  8
RACCORDO
100
AcDbPolyline
 62
7
  6
CONTINUOUS
 90
11
 70
0
 10
-15.8369429004
 20
5.9773846879
 10
-15.7908965741
 20
6.0192293089
 10
-15.7706853722
 20
6.0373965161
 10
-15.7523771567
 20
6.0535411482
 10
-15.7362247641
 20
6.0675051838
 10
-15.7223175866
 20
6.0792671011
 10
-15.7105606567
 20
6.0888147561
 10
-15.7009278846
 20
6.0961080238
 10
-15.6934073963
 20
6.1011974895
 10
-15.6880026855
 20
6.1041745268
 10
-15.6847097095
 20
6.1051211237
  0
LINE
  5
367
100
AcDbEntity
  8
ASSI
100
AcDbLine
 62
250
  6
CONTINUOUS
 10
-4.1829888773
 20
-1.4949089135
 11
-6.1829888773
 21
-1.4949089135
  0
LINE
  5
368
100
AcDbEntity
  8
RACCORDO
100
AcDbLine
 62
250
  6
CONTINUOUS
 10
-4.1829888773
 20
-1.4949089135
 11
-6.1829888773
 21
-1.4949089135
  0
LINE
  5
369
100
AcDbEntity
  8
ASSI
100
AcDbLine
 62
250
  6
CONTINUOUS
 10
-4.1829888773
 20
0.6050910865
 11
-6.1829888773
 21
0.6050910865
  0
LINE
  5
36A
100
AcDbEntity
  8
RACCORDO
100
AcDbLine
 62
250
  6
CONTINUOUS
 10
-4.1829888773
 20
0.6050910865
 11
-6.1829888773
 21
0.6050910865
  0
LINE
  5
36B
100
AcDbEntity
  8
RACCORDO
100
AcDbLine
 62
250
  6
CONTINUOUS
 10
-40.5037540894
 20
0.7805810186
 11
-40.3167699303
 21
0.7574277657
  0
LWPOLYLINE
  5
36C
100
AcDbEntity
  8
ASSI
100
AcDbPolyline
 62
7
  6
CONTINUOUS
 90
5
 70
0
 10
-15.9859655016
 20
-6.0897988531
 10
-16.0418405502
 20
-6.0346952141
 10
-16.0696256666
 20
-6.0071476836
 10
-16.0973916184
 20
-5.9797761711
 10
-16.1251352944
 20
-5.9526951451
  0
LWPOLYLINE
  5
36D
100
AcDbEntity
  8
RACCORDO
100
AcDbPolyline
 62
7
  6
CONTINUOUS
 90
5
 70
0
 10
-15.9859655016
 20
-6.0897988531
 10
-16.0418405502
 20
-6.0346952141
 10
-16.0696256666
 20
-6.0071476836
 10
-16.0973916184
 20
-5.9797761711
 10
-16.1251352944
 20
-5.9526951451
  0
LWPOLYLINE
  5
36E
100
AcDbEntity
  8
ASSI
100
AcDbPolyline
 62
7
  6
CONTINUOUS
 90
3
 70
0
 10
-15.6829888773
 20
-6.3948427375
 10
-15.6857312715
 20
-6.3921113171
 10
-15.7001501458
 20
-6.3758699133
  0
LWPOLYLINE
  5
36F
100
AcDbEntity
  8
RACCORDO
100
AcDbPolyline
 62
7
  6
CONTINUOUS
 90
3
 70
0
 10
-15.6829888773
 20
-6.3948427375
 10
-15.6857312715
 20
-6.3921113171
 10
-15.7001501458
 20
-6.3758699133
  0
LINE
  5
370
100
AcDbEntity
  8
ASSI
100
AcDbLine
 62
7
  6
CONTINUOUS
 10
-15.7628256589
 20
-6.3118534606
 11
-15.7835353203
 21
-6.2912259317
  0
LINE
  5
371
100
AcDbEntity
  8
RACCORDO
100
AcDbLine
 62
7
  6
CONTINUOUS
 10
-15.7628256589
 20
-6.3118534606
 11
-15.7835353203
 21
-6.2912259317
  0
LWPOLYLINE
  5
372
100
AcDbEntity
  8
ASSI
100
AcDbPolyline
 62
7
  6
CONTINUOUS
 90
7
 70
0
 10
-15.7835353203
 20
-6.2912259317
 10
-15.8287086625
 20
-6.2458710943
 10
-15.853164389
 20
-6.2216277049
 10
-15.8784118875
 20
-6.1964658462
 10
-15.9044230261
 20
-6.1705472539
 10
-15.9312191693
 20
-6.1440806086
 10
-15.9859655016
 20
-6.0897988531
  0
LWPOLYLINE
  5
373
100
AcDbEntity
  8
RACCORDO
100
AcDbPolyline
 62
7
  6
CONTINUOUS
 90
7
 70
0
 10
-15.7835353203
 20
-6.2912259317
 10
-15.8287086625
 20
-6.2458710943
 10
-15.853164389
 20
-6.2216277049
 10
-15.8784118875
 20
-6.1964658462
 10
-15.9044230261
 20
-6.1705472539
 10
-15.9312191693
 20
-6.1440806086
 10
-15.9859655016
 20
-6.0897988531
  0
LWPOLYLINE
  5
374
100
AcDbEntity
  8
ASSI
100
AcDbPolyline
 62
7
  6
CONTINUOUS
 90
4
 70
0
 10
-15.7001501458
 20
-6.3758699133
 10
-15.7121570773
 20
-6.3632560928
 10
-15.7271318137
 20
-6.3482024939
 10
-15.7628256589
 20
-6.3118534606
  0
LWPOLYLINE
  5
375
100
AcDbEntity
  8
RACCORDO
100
AcDbPolyline
 62
7
  6
CONTINUOUS
 90
4
 70
0
 10
-15.7001501458
 20
-6.3758699133
 10
-15.7121570773
 20
-6.3632560928
 10
-15.7271318137
 20
-6.3482024939
 10
-15.7628256589
 20
-6.3118534606
  0
LWPOLYLINE
  5
376
100
AcDbEntity
  8
0
100
AcDbPolyline
 62
7
  6
CONTINUOUS
 90
4
 70
0
 43
0.3500000087
 10
-18.6044178955
 20
35.2122340179
 10
-18.6044178955
 20
35.8550893524
 10
-17.1044174965
 20
35.8550893524
 10
-17.9615604294
 20
32.855090686
  0
LINE
  5
377
100
AcDbEntity
  8
RACCORDO
100
AcDbLine
 62
250
  6
CONTINUOUS
 10
-40.5605433666
 20
0.4222870713
 11
-40.5568672281
 21
0.4228304696
  0
LINE
  5
378
100
AcDbEntity
  8
RACCORDO
100
AcDbLine
 62
250
  6
CONTINUOUS
 10
-40.5568672281
 20
0.4228304696
 11
-40.5280442721
 21
0.4265426755
  0
LINE
  5
379
100
AcDbEntity
  8
RACCORDO
100
AcDbLine
 62
250
  6
CONTINUOUS
 10
-40.5280442721
 20
0.4265426755
 11
-40.4390042366
 21
0.4376710933
  0
LINE
  5
37A
100
AcDbEntity
  8
RACCORDO
100
AcDbLine
 62
250
  6
CONTINUOUS
 10
-40.4390042366
 20
0.4376710933
 11
-40.3167699303
 21
0.4527544072
  0
LINE
  5
37B
100
AcDbEntity
  8
ASSI
100
AcDbLine
 62
7
  6
CONTINUOUS
 10
-6.1829888773
 20
3.6050910865
 11
-5.9829888773
 21
3.6050910865
  0
LINE
  5
37C
100
AcDbEntity
  8
0
100
AcDbLine
 62
7
  6
CONTINUOUS
 10
-6.1829888773
 20
3.6050910865
 11
-5.9829888773
 21
3.6050910865
  0
LWPOLYLINE
  5
37D
100
AcDbEntity
  8
ASSI
100
AcDbPolyline
 62
250
  6
CONTINUOUS
 90
3
 70
0
 10
-16.1735494542
 20
19.4536286499
 10
-16.1745573993
 20
19.4704135592
 10
-16.1742626741
 20
19.4725333415
  0
LWPOLYLINE
  5
37E
100
AcDbEntity
  8
RACCORDO
100
AcDbPolyline
 62
250
  6
CONTINUOUS
 90
3
 70
0
 10
-16.1735494542
 20
19.4536286499
 10
-16.1745573993
 20
19.4704135592
 10
-16.1742626741
 20
19.4725333415
  0
LWPOLYLINE
  5
37F
100
AcDbEntity
  8
ASSI
100
AcDbPolyline
 62
250
  6
CONTINUOUS
 90
4
 70
0
 10
-16.1244947203
 20
-18.244511847
 10
-16.1243770535
 20
-18.253806885
 10
-16.1244991079
 20
-18.2595184405
 10
-16.1251352944
 20
-18.261493647
  0
LWPOLYLINE
  5
380
100
AcDbEntity
  8
RACCORDO
100
AcDbPolyline
 62
250
  6
CONTINUOUS
 90
4
 70
0
 10
-16.1244947203
 20
-18.244511847
 10
-16.1243770535
 20
-18.253806885
 10
-16.1244991079
 20
-18.2595184405
 10
-16.1251352944
 20
-18.261493647
  0
LINE
  5
381
100
AcDbEntity
  8
ASSI
100
AcDbLine
 62
250
  6
CONTINUOUS
 10
-16.1738741176
 20
17.5664504765
 11
-16.1742626741
 21
17.846097883
  0
LINE
  5
382
100
AcDbEntity
  8
RACCORDO
100
AcDbLine
 62
250
  6
CONTINUOUS
 10
-16.1738741176
 20
17.5664504765
 11
-16.1742626741
 21
17.846097883
  0
LINE
  5
383
100
AcDbEntity
  8
ASSI
100
AcDbLine
 62
250
  6
CONTINUOUS
 10
-16.1247855825
 20
-15.7234131206
 11
-16.1251352944
 21
-15.3881987317
  0
LINE
  5
384
100
AcDbEntity
  8
RACCORDO
100
AcDbLine
 62
250
  6
CONTINUOUS
 10
-16.1247855825
 20
-15.7234131206
 11
-16.1251352944
 21
-15.3881987317
  0
LINE
  5
385
100
AcDbEntity
  8
ASSI
100
AcDbLine
 62
250
  6
CONTINUOUS
 10
-16.1737433994
 20
17.2595138395
 11
-16.1738741176
 21
17.5664504765
  0
LINE
  5
386
100
AcDbEntity
  8
RACCORDO
100
AcDbLine
 62
250
  6
CONTINUOUS
 10
-16.1737433994
 20
17.2595138395
 11
-16.1738741176
 21
17.5664504765
  0
LINE
  5
387
100
AcDbEntity
  8
ASSI
100
AcDbLine
 62
250
  6
CONTINUOUS
 10
-16.1742626741
 20
5.6637348397
 11
-16.1742626741
 21
16.5986811603
  0
LINE
  5
388
100
AcDbEntity
  8
RACCORDO
100
AcDbLine
 62
250
  6
CONTINUOUS
 10
-16.1742626741
 20
5.6637348397
 11
-16.1742626741
 21
16.5986811603
  0
LINE
  5
389
100
AcDbEntity
  8
ASSI
100
AcDbLine
 62
250
  6
CONTINUOUS
 10
-16.1742626741
 20
17.8460978828
 11
-16.1742626741
 21
19.3109600029
  0
LINE
  5
38A
100
AcDbEntity
  8
RACCORDO
100
AcDbLine
 62
250
  6
CONTINUOUS
 10
-16.1742626741
 20
17.8460978828
 11
-16.1742626741
 21
19.3109600029
  0
LINE
  5
38B
100
AcDbEntity
  8
ASSI
100
AcDbLine
 62
250
  6
CONTINUOUS
 10
-16.1246679302
 20
-16.0490438819
 11
-16.1247855825
 21
-15.7234131206
  0
LINE
  5
38C
100
AcDbEntity
  8
RACCORDO
100
AcDbLine
 62
250
  6
CONTINUOUS
 10
-16.1246679302
 20
-16.0490438819
 11
-16.1247855825
 21
-15.7234131206
  0
LINE
  5
38D
100
AcDbEntity
  8
ASSI
100
AcDbLine
 62
250
  6
CONTINUOUS
 10
-16.1251352944
 20
-18.1163405123
 11
-16.1251352945
 21
-16.6356337578
  0
LINE
  5
38E
100
AcDbEntity
  8
RACCORDO
100
AcDbLine
 62
250
  6
CONTINUOUS
 10
-16.1251352944
 20
-18.1163405123
 11
-16.1251352945
 21
-16.6356337578
  0
LINE
  5
38F
100
AcDbEntity
  8
ASSI
100
AcDbLine
 62
250
  6
CONTINUOUS
 10
-16.1251352944
 20
-15.3881987317
 11
-16.1251352944
 21
-5.9526951451
  0
LINE
  5
390
100
AcDbEntity
  8
RACCORDO
100
AcDbLine
 62
250
  6
CONTINUOUS
 10
-16.1251352944
 20
-15.3881987317
 11
-16.1251352944
 21
-5.9526951451
  0
LINE
  5
391
100
AcDbEntity
  8
ASSI
100
AcDbLine
 62
7
  6
CONTINUOUS
 10
-15.6829888773
 20
-17.8115621842
 11
-15.6829888773
 21
-6.3948427375
  0
LINE
  5
392
100
AcDbEntity
  8
RACCORDO
100
AcDbLine
 62
7
  6
CONTINUOUS
 10
-15.6829888773
 20
-17.8115621842
 11
-15.6829888773
 21
-6.3948427375
  0
LINE
  5
393
100
AcDbEntity
  8
ASSI
100
AcDbLine
 62
7
  6
CONTINUOUS
 10
-15.6829888773
 20
6.1050910865
 11
-15.6829888773
 21
18.9726094939
  0
LINE
  5
394
100
AcDbEntity
  8
RACCORDO
100
AcDbLine
 62
7
  6
CONTINUOUS
 10
-15.6829888773
 20
6.1050910865
 11
-15.6829888773
 21
18.9726094939
  0
LINE
  5
395
100
AcDbEntity
  8
ASSI
100
AcDbLine
 62
7
  6
CONTINUOUS
 10
-15.4829888773
 20
8.7050910865
 11
-15.4829888773
 21
7.2050910865
  0
LINE
  5
396
100
AcDbEntity
  8
0
100
AcDbLine
 62
7
  6
CONTINUOUS
 10
-15.4829888773
 20
8.7050910865
 11
-15.4829888773
 21
7.2050910865
  0
LINE
  5
397
100
AcDbEntity
  8
ASSI
100
AcDbLine
 62
7
  6
CONTINUOUS
 10
-15.4829888773
 20
-8.6741449135
 11
-15.4829888773
 21
-10.2365989135
  0
LINE
  5
398
100
AcDbEntity
  8
0
100
AcDbLine
 62
7
  6
CONTINUOUS
 10
-15.4829888773
 20
-8.6741449135
 11
-15.4829888773
 21
-10.2365989135
  0
LINE
  5
399
100
AcDbEntity
  8
ASSI
100
AcDbLine
 62
7
  6
CONTINUOUS
 10
-15.4829888773
 20
-10.3837679135
 11
-15.4829888773
 21
-10.7803399135
  0
LINE
  5
39A
100
AcDbEntity
  8
0
100
AcDbLine
 62
7
  6
CONTINUOUS
 10
-15.4829888773
 20
-10.3837679135
 11
-15.4829888773
 21
-10.7803399135
  0
LINE
  5
39B
100
AcDbEntity
  8
ASSI
100
AcDbLine
 62
7
  6
CONTINUOUS
 10
-15.4829888773
 20
-10.9938279135
 11
-15.4829888773
 21
-12.9205999135
  0
LINE
  5
39C
100
AcDbEntity
  8
0
100
AcDbLine
 62
7
  6
CONTINUOUS
 10
-15.4829888773
 20
-10.9938279135
 11
-15.4829888773
 21
-12.9205999135
  0
LINE
  5
39D
100
AcDbEntity
  8
ASSI
100
AcDbLine
 62
7
  6
CONTINUOUS
 10
-15.4829888773
 20
-12.9828719135
 11
-15.4829888773
 21
-14.5453409135
  0
LINE
  5
39E
100
AcDbEntity
  8
0
100
AcDbLine
 62
7
  6
CONTINUOUS
 10
-15.4829888773
 20
-12.9828719135
 11
-15.4829888773
 21
-14.5453409135
  0
LINE
  5
39F
100
AcDbEntity
  8
ASSI
100
AcDbLine
 62
7
  6
CONTINUOUS
 10
-15.4829888773
 20
-14.6617935163
 11
-15.4829888773
 21
-16.045522464
  0
LINE
  5
3A0
100
AcDbEntity
  8
0
100
AcDbLine
 62
7
  6
CONTINUOUS
 10
-15.4829888773
 20
-14.6617935163
 11
-15.4829888773
 21
-16.045522464
  0
LINE
  5
3A1
100
AcDbEntity
  8
ASSI
100
AcDbLine
 62
250
  6
CONTINUOUS
 10
-16.1738741238
 20
16.9338856312
 11
-16.1737433994
 21
17.2595138395
  0
LINE
  5
3A2
100
AcDbEntity
  8
RACCORDO
100
AcDbLine
 62
250
  6
CONTINUOUS
 10
-16.1738741238
 20
16.9338856312
 11
-16.1737433994
 21
17.2595138395
  0
LINE
  5
3A3
100
AcDbEntity
  8
ASSI
100
AcDbLine
 62
250
  6
CONTINUOUS
 10
-16.1247855883
 20
-16.3559864792
 11
-16.1246679302
 21
-16.0490438819
  0
LINE
  5
3A4
100
AcDbEntity
  8
RACCORDO
100
AcDbLine
 62
250
  6
CONTINUOUS
 10
-16.1247855883
 20
-16.3559864792
 11
-16.1246679302
 21
-16.0490438819
  0
LINE
  5
3A5
100
AcDbEntity
  8
ASSI
100
AcDbLine
 62
250
  6
CONTINUOUS
 10
-16.1742626741
 20
16.5986811603
 11
-16.1738741238
 21
16.9338856312
  0
LINE
  5
3A6
100
AcDbEntity
  8
RACCORDO
100
AcDbLine
 62
250
  6
CONTINUOUS
 10
-16.1742626741
 20
16.5986811603
 11
-16.1738741238
 21
16.9338856312
  0
LINE
  5
3A7
100
AcDbEntity
  8
ASSI
100
AcDbLine
 62
250
  6
CONTINUOUS
 10
-16.1251352945
 20
-16.6356337581
 11
-16.1247855883
 21
-16.3559864792
  0
LINE
  5
3A8
100
AcDbEntity
  8
RACCORDO
100
AcDbLine
 62
250
  6
CONTINUOUS
 10
-16.1251352945
 20
-16.6356337581
 11
-16.1247855883
 21
-16.3559864792
  0
LWPOLYLINE
  5
3A9
100
AcDbEntity
  8
ASSI
100
AcDbPolyline
 62
250
  6
CONTINUOUS
 90
6
 70
0
 10
-16.1251352944
 20
-18.1163404444
 10
-16.1253992838
 20
-18.1455055613
 10
-16.1250709002
 20
-18.1717375493
 10
-16.1244947203
 20
-18.1948798044
 10
-16.1242308782
 20
-18.214920277
 10
-16.1244947203
 20
-18.244511847
  0
LWPOLYLINE
  5
3AA
100
AcDbEntity
  8
RACCORDO
100
AcDbPolyline
 62
250
  6
CONTINUOUS
 90
6
 70
0
 10
-16.1251352944
 20
-18.1163404444
 10
-16.1253992838
 20
-18.1455055613
 10
-16.1250709002
 20
-18.1717375493
 10
-16.1244947203
 20
-18.1948798044
 10
-16.1242308782
 20
-18.214920277
 10
-16.1244947203
 20
-18.244511847
  0
LWPOLYLINE
  5
3AB
100
AcDbEntity
  8
ASSI
100
AcDbPolyline
 62
250
  6
CONTINUOUS
 90
7
 70
0
 10
-16.1742626506
 20
19.3109600146
 10
-16.1735537509
 20
19.3438509608
 10
-16.1734179859
 20
19.3729088212
 10
-16.1735494469
 20
19.3983793755
 10
-16.1734438427
 20
19.4204838581
 10
-16.1732555
 20
19.4390453244
 10
-16.1735494542
 20
19.4536286499
  0
LWPOLYLINE
  5
3AC
100
AcDbEntity
  8
RACCORDO
100
AcDbPolyline
 62
250
  6
CONTINUOUS
 90
7
 70
0
 10
-16.1742626506
 20
19.3109600146
 10
-16.1735537509
 20
19.3438509608
 10
-16.1734179859
 20
19.3729088212
 10
-16.1735494469
 20
19.3983793755
 10
-16.1734438427
 20
19.4204838581
 10
-16.1732555
 20
19.4390453244
 10
-16.1735494542
 20
19.4536286499
  0
LINE
  5
3AD
100
AcDbEntity
  8
DRAFT
100
AcDbLine
 62
7
  6
CONTINUOUS
 10
-40.3420800364
 20
2.5671361449
 11
-40.8070455066
 21
2.4851501874
  0
LINE
  5
3AE
100
AcDbEntity
  8
RACCORDO
100
AcDbLine
 62
250
  6
CONTINUOUS
 10
-40.5559135344
 20
5.3556017645
 11
-39.9985048644
 21
5.3653313691
  0
LINE
  5
3AF
100
AcDbEntity
  8
RACCORDO
100
AcDbLine
 62
7
  6
CONTINUOUS
 10
-40.5340112523
 20
5.6059459941
 11
-40.0028666371
 21
5.6152171578
  0
LINE
  5
3B0
100
AcDbEntity
  8
ASSI
100
AcDbLine
 62
7
  6
CONTINUOUS
 10
-6.1829888773
 20
4.6263676499
 11
-5.9829888773
 21
4.6263676499
  0
LINE
  5
3B1
100
AcDbEntity
  8
0
100
AcDbLine
 62
7
  6
CONTINUOUS
 10
-6.1829888773
 20
4.6263676499
 11
-5.9829888773
 21
4.6263676499
  0
LINE
  5
3B2
100
AcDbEntity
  8
ASSI
100
AcDbLine
 62
7
  6
CONTINUOUS
 10
-6.1829888773
 20
4.8816868578
 11
-5.9829888773
 21
4.8816868578
  0
LINE
  5
3B3
100
AcDbEntity
  8
0
100
AcDbLine
 62
7
  6
CONTINUOUS
 10
-6.1829888773
 20
4.8816868578
 11
-5.9829888773
 21
4.8816868578
  0
LINE
  5
3B4
100
AcDbEntity
  8
ASSI
100
AcDbLine
 62
7
  6
CONTINUOUS
 10
-6.1829888773
 20
5.1050910865
 11
-5.9829888773
 21
5.1050910865
  0
LINE
  5
3B5
100
AcDbEntity
  8
0
100
AcDbLine
 62
7
  6
CONTINUOUS
 10
-6.1829888773
 20
5.1050910865
 11
-5.9829888773
 21
5.1050910865
  0
LINE
  5
3B6
100
AcDbEntity
  8
ASSI
100
AcDbLine
 62
250
  6
CONTINUOUS
 10
-6.6251352944
 20
5.4970542012
 11
-6.1829888773
 21
5.4970542012
  0
LINE
  5
3B7
100
AcDbEntity
  8
RACCORDO
100
AcDbLine
 62
250
  6
CONTINUOUS
 10
-6.6251352944
 20
5.4970542012
 11
-6.1829888773
 21
5.4970542012
  0
LINE
  5
3B8
100
AcDbEntity
  8
ASSI
100
AcDbLine
 62
250
  6
CONTINUOUS
 10
-16.1742626741
 20
5.6637348397
 11
-6.6251352944
 21
5.4970542012
  0
LINE
  5
3B9
100
AcDbEntity
  8
RACCORDO
100
AcDbLine
 62
250
  6
CONTINUOUS
 10
-16.1742626741
 20
5.6637348397
 11
-6.6251352944
 21
5.4970542012
  0
LINE
  5
3BA
100
AcDbEntity
  8
ASSI
100
AcDbLine
 62
7
  6
CONTINUOUS
 10
-15.6847097095
 20
6.1051211237
 11
-6.6251352944
 21
5.9469856641
  0
LINE
  5
3BB
100
AcDbEntity
  8
RACCORDO
100
AcDbLine
 62
7
  6
CONTINUOUS
 10
-15.6847097095
 20
6.1051211237
 11
-6.6251352944
 21
5.9469856641
  0
LINE
  5
3BC
100
AcDbEntity
  8
ASSI
100
AcDbLine
 62
7
  6
CONTINUOUS
 10
-6.1829888773
 20
3.3550910865
 11
-4.4672880905
 21
3.2651750183
  0
LINE
  5
3BD
100
AcDbEntity
  8
DRAFT
100
AcDbLine
 62
7
  6
CONTINUOUS
 10
-6.1829888773
 20
3.3550910865
 11
-4.4672880905
 21
3.2651750183
  0
LWPOLYLINE
  5
3BE
100
AcDbEntity
  8
ASSI
100
AcDbPolyline
 62
250
  6
CONTINUOUS
 90
19
 70
0
 10
-15.6829888773
 20
18.9726094939
 10
-15.6848496423
 20
19.0017773362
 10
-15.6904181005
 20
19.0307281316
 10
-15.6996528252
 20
19.0592463952
 10
-15.7124851139
 20
19.0871198845
 10
-15.7288194661
 20
19.1141411027
 10
-15.7485342619
 20
19.1401088511
 10
-15.7714828266
 20
19.1648299248
 10
-15.7974942849
 20
19.1881202423
 10
-15.8263746573
 20
19.2098062041
 10
-15.8579086333
 20
19.2297263242
 10
-15.891861624
 20
19.2477325846
 10
-15.9279812384
 20
19.2636912085
 10
-15.9659992296
 20
19.2774836306
 10
-16.0056321018
 20
19.2890069582
 10
-16.0465834338
 20
19.2981751681
 10
-16.0885478444
 20
19.3049202313
 10
-16.1312134331
 20
19.3091923468
 10
-16.1742626741
 20
19.3109600029
  0
LWPOLYLINE
  5
3BF
100
AcDbEntity
  8
RACCORDO
100
AcDbPolyline
 62
250
  6
CONTINUOUS
 90
19
 70
0
 10
-15.6829888773
 20
18.9726094939
 10
-15.6848496423
 20
19.0017773362
 10
-15.6904181005
 20
19.0307281316
 10
-15.6996528252
 20
19.0592463952
 10
-15.7124851139
 20
19.0871198845
 10
-15.7288194661
 20
19.1141411027
 10
-15.7485342619
 20
19.1401088511
 10
-15.7714828266
 20
19.1648299248
 10
-15.7974942849
 20
19.1881202423
 10
-15.8263746573
 20
19.2098062041
 10
-15.8579086333
 20
19.2297263242
 10
-15.891861624
 20
19.2477325846
 10
-15.9279812384
 20
19.2636912085
 10
-15.9659992296
 20
19.2774836306
 10
-16.0056321018
 20
19.2890069582
 10
-16.0465834338
 20
19.2981751681
 10
-16.0885478444
 20
19.3049202313
 10
-16.1312134331
 20
19.3091923468
 10
-16.1742626741
 20
19.3109600029
  0
LINE
  5
3C0
100
AcDbEntity
  8
ASSI
100
AcDbLine
 62
250
  6
CONTINUOUS
 10
-13.9672880905
 20
16.6651750183
 11
-13.9672880905
 21
9.2450071546
  0
LINE
  5
3C1
100
AcDbEntity
  8
RACCORDO
100
AcDbLine
 62
250
  6
CONTINUOUS
 10
-13.9672880905
 20
16.6651750183
 11
-13.9672880905
 21
9.2450071546
  0
LINE
  5
3C2
100
AcDbEntity
  8
ASSI
100
AcDbLine
 62
7
  6
CONTINUOUS
 10
-13.6829888773
 20
16.3655804432
 11
-13.6829888773
 21
9.5446016796
  0
LINE
  5
3C3
100
AcDbEntity
  8
RACCORDO
100
AcDbLine
 62
7
  6
CONTINUOUS
 10
-13.6829888773
 20
16.3655804432
 11
-13.6829888773
 21
9.5446016796
  0
LWPOLYLINE
  5
3C4
100
AcDbEntity
  8
ASSI
100
AcDbPolyline
 62
250
  6
CONTINUOUS
 90
16
 70
0
 10
-15.6829888773
 20
-17.8115621842
 10
-15.6853381861
 20
-17.843585419
 10
-15.692462479
 20
-17.8745221066
 10
-15.704363209
 20
-17.9043916471
 10
-15.7208521586
 20
-17.9336616708
 10
-15.7417157758
 20
-17.962150469
 10
-15.7668428523
 20
-17.9887702086
 10
-15.7959160771
 20
-18.0133535369
 10
-15.8285271754
 20
-18.0360876691
 10
-15.8644785351
 20
-18.0561754888
 10
-15.9033181194
 20
-18.0736196043
 10
-15.9445336727
 20
-18.0885037846
 10
-15.9878724931
 20
-18.1001019126
 10
-16.0328803213
 20
-18.1082943356
 10
-16.0788515514
 20
-18.1136021372
 10
-16.1251352944
 20
-18.1163404444
  0
LWPOLYLINE
  5
3C5
100
AcDbEntity
  8
RACCORDO
100
AcDbPolyline
 62
250
  6
CONTINUOUS
 90
16
 70
0
 10
-15.6829888773
 20
-17.8115621842
 10
-15.6853381861
 20
-17.843585419
 10
-15.692462479
 20
-17.8745221066
 10
-15.704363209
 20
-17.9043916471
 10
-15.7208521586
 20
-17.9336616708
 10
-15.7417157758
 20
-17.962150469
 10
-15.7668428523
 20
-17.9887702086
 10
-15.7959160771
 20
-18.0133535369
 10
-15.8285271754
 20
-18.0360876691
 10
-15.8644785351
 20
-18.0561754888
 10
-15.9033181194
 20
-18.0736196043
 10
-15.9445336727
 20
-18.0885037846
 10
-15.9878724931
 20
-18.1001019126
 10
-16.0328803213
 20
-18.1082943356
 10
-16.0788515514
 20
-18.1136021372
 10
-16.1251352944
 20
-18.1163404444
  0
LINE
  5
3C6
100
AcDbEntity
  8
ASSI
100
AcDbLine
 62
7
  6
CONTINUOUS
 10
-15.6829888773
 20
9.1550910865
 11
-13.9672880905
 21
9.2450071546
  0
LINE
  5
3C7
100
AcDbEntity
  8
DRAFT
100
AcDbLine
 62
7
  6
CONTINUOUS
 10
-15.6829888773
 20
9.1550910865
 11
-13.9672880905
 21
9.2450071546
  0
LINE
  5
3C8
100
AcDbEntity
  8
ASSI
100
AcDbLine
 62
7
  6
CONTINUOUS
 10
-15.6829888773
 20
7.2050910865
 11
-15.4829888773
 21
7.2050910865
  0
LINE
  5
3C9
100
AcDbEntity
  8
0
100
AcDbLine
 62
7
  6
CONTINUOUS
 10
-15.6829888773
 20
7.2050910865
 11
-15.4829888773
 21
7.2050910865
  0
LINE
  5
3CA
100
AcDbEntity
  8
ASSI
100
AcDbLine
 62
7
  6
CONTINUOUS
 10
-15.6829888773
 20
8.7050910865
 11
-15.4829888773
 21
8.7050910865
  0
LINE
  5
3CB
100
AcDbEntity
  8
0
100
AcDbLine
 62
7
  6
CONTINUOUS
 10
-15.6829888773
 20
8.7050910865
 11
-15.4829888773
 21
8.7050910865
  0
LINE
  5
3CC
100
AcDbEntity
  8
ASSI
100
AcDbLine
 62
250
  6
CONTINUOUS
 10
-27.3116750254
 20
-18.8088879348
 11
-27.9902270306
 21
-19.4984514354
  0
LINE
  5
3CD
100
AcDbEntity
  8
RACCORDO
100
AcDbLine
 62
250
  6
CONTINUOUS
 10
-27.3116750254
 20
-18.8088879348
 11
-27.9902270306
 21
-19.4984514354
  0
LWPOLYLINE
  5
3CE
100
AcDbEntity
  8
ASSI
100
AcDbPolyline
 62
250
  6
CONTINUOUS
 90
6
 70
0
 10
-27.9902270306
 20
-19.4984514354
 10
-28.1640061998
 20
-19.6749595931
 10
-28.3409354021
 20
-19.8548432504
 10
-28.521467233
 20
-20.038517244
 10
-28.7051490969
 20
-20.2252199112
 10
-28.8919809938
 20
-20.4147729773
  0
LWPOLYLINE
  5
3CF
100
AcDbEntity
  8
RACCORDO
100
AcDbPolyline
 62
250
  6
CONTINUOUS
 90
6
 70
0
 10
-27.9902270306
 20
-19.4984514354
 10
-28.1640061998
 20
-19.6749595931
 10
-28.3409354021
 20
-19.8548432504
 10
-28.521467233
 20
-20.038517244
 10
-28.7051490969
 20
-20.2252199112
 10
-28.8919809938
 20
-20.4147729773
  0
LWPOLYLINE
  5
3D0
100
AcDbEntity
  8
ASSI
100
AcDbPolyline
 62
250
  6
CONTINUOUS
 90
3
 70
0
 10
-26.8147729881
 20
-18.3039181546
 10
-26.9793333289
 20
-18.4710343209
 10
-27.3116750254
 20
-18.8088879348
  0
LWPOLYLINE
  5
3D1
100
AcDbEntity
  8
RACCORDO
100
AcDbPolyline
 62
250
  6
CONTINUOUS
 90
3
 70
0
 10
-26.8147729881
 20
-18.3039181546
 10
-26.9793333289
 20
-18.4710343209
 10
-27.3116750254
 20
-18.8088879348
  0
LINE
  5
3D2
100
AcDbEntity
  8
ASSI
100
AcDbLine
 62
7
  6
CONTINUOUS
 10
-26.6329888773
 20
-18.4449089135
 11
-29.239059379
 21
-21.0509794152
  0
LINE
  5
3D3
100
AcDbEntity
  8
RACCORDO
100
AcDbLine
 62
7
  6
CONTINUOUS
 10
-26.6329888773
 20
-18.4449089135
 11
-29.239059379
 21
-21.0509794152
  0
LWPOLYLINE
  5
3D4
100
AcDbEntity
  8
ASSI
100
AcDbPolyline
 62
250
  6
CONTINUOUS
 90
10
 70
0
 10
-28.5815913762
 20
-20.3935114124
 10
-28.6056249312
 20
-20.4137112943
 10
-28.6328740045
 20
-20.4294097003
 10
-28.6632167291
 20
-20.4405563623
 10
-28.6966094422
 20
-20.4474598814
 10
-28.7326336753
 20
-20.4500881732
 10
-28.7705531742
 20
-20.4479096581
 10
-28.8099166578
 20
-20.4409026304
 10
-28.8505090278
 20
-20.4296970777
 10
-28.8919358449
 20
-20.4147721831
  0
LWPOLYLINE
  5
3D5
100
AcDbEntity
  8
RACCORDO
100
AcDbPolyline
 62
250
  6
CONTINUOUS
 90
10
 70
0
 10
-28.5815913762
 20
-20.3935114124
 10
-28.6056249312
 20
-20.4137112943
 10
-28.6328740045
 20
-20.4294097003
 10
-28.6632167291
 20
-20.4405563623
 10
-28.6966094422
 20
-20.4474598814
 10
-28.7326336753
 20
-20.4500881732
 10
-28.7705531742
 20
-20.4479096581
 10
-28.8099166578
 20
-20.4409026304
 10
-28.8505090278
 20
-20.4296970777
 10
-28.8919358449
 20
-20.4147721831
  0
LWPOLYLINE
  5
3D6
100
AcDbEntity
  8
RACCORDO
100
AcDbPolyline
 62
250
  6
CONTINUOUS
 90
4
 70
0
 10
-37.629277586
 20
-21.7557975796
 10
-37.6285052992
 20
-21.7553154944
 10
-37.6277619419
 20
-21.7537183974
 10
-37.627046233
 20
-21.7509034391
  0
LINE
  5
3D7
100
AcDbEntity
  8
ASSI
100
AcDbLine
 62
250
  6
CONTINUOUS
 10
-13.6829888773
 20
11.9050910865
 11
-15.6829888773
 21
11.9050910865
  0
LINE
  5
3D8
100
AcDbEntity
  8
RACCORDO
100
AcDbLine
 62
250
  6
CONTINUOUS
 10
-13.6829888773
 20
11.9050910865
 11
-15.6829888773
 21
11.9050910865
  0
LINE
  5
3D9
100
AcDbEntity
  8
ASSI
100
AcDbLine
 62
7
  6
CONTINUOUS
 10
-29.239059379
 20
22.2611615881
 11
-26.6329888773
 21
19.6550910865
  0
LINE
  5
3DA
100
AcDbEntity
  8
RACCORDO
100
AcDbLine
 62
7
  6
CONTINUOUS
 10
-29.239059379
 20
22.2611615881
 11
-26.6329888773
 21
19.6550910865
  0
LWPOLYLINE
  5
3DB
100
AcDbEntity
  8
ASSI
100
AcDbPolyline
 62
250
  6
CONTINUOUS
 90
5
 70
0
 10
-28.9122006125
 20
21.612810597
 10
-28.5956765676
 20
21.2906570061
 10
-28.435630173
 20
21.1277111004
 10
-28.2754462139
 20
20.9645892239
 10
-27.9483535006
 20
20.6316402818
  0
LWPOLYLINE
  5
3DC
100
AcDbEntity
  8
RACCORDO
100
AcDbPolyline
 62
250
  6
CONTINUOUS
 90
5
 70
0
 10
-28.9122006125
 20
21.612810597
 10
-28.5956765676
 20
21.2906570061
 10
-28.435630173
 20
21.1277111004
 10
-28.2754462139
 20
20.9645892239
 10
-27.9483535006
 20
20.6316402818
  0
LWPOLYLINE
  5
3DD
100
AcDbEntity
  8
ASSI
100
AcDbPolyline
 62
250
  6
CONTINUOUS
 90
3
 70
0
 10
-27.233035339
 20
19.9035620361
 10
-27.0373703671
 20
19.7044011934
 10
-26.8349712227
 20
19.4981436904
  0
LWPOLYLINE
  5
3DE
100
AcDbEntity
  8
RACCORDO
100
AcDbPolyline
 62
250
  6
CONTINUOUS
 90
3
 70
0
 10
-27.233035339
 20
19.9035620361
 10
-27.0373703671
 20
19.7044011934
 10
-26.8349712227
 20
19.4981436904
  0
LWPOLYLINE
  5
3DF
100
AcDbEntity
  8
ASSI
100
AcDbPolyline
 62
250
  6
CONTINUOUS
 90
4
 70
0
 10
-27.9483535006
 20
20.6316402818
 10
-27.7780328588
 20
20.4582335112
 10
-27.6033665848
 20
20.2803523106
 10
-27.233035339
 20
19.9035620361
  0
LWPOLYLINE
  5
3E0
100
AcDbEntity
  8
RACCORDO
100
AcDbPolyline
 62
250
  6
CONTINUOUS
 90
4
 70
0
 10
-27.9483535006
 20
20.6316402818
 10
-27.7780328588
 20
20.4582335112
 10
-27.6033665848
 20
20.2803523106
 10
-27.233035339
 20
19.9035620361
  0
LINE
  5
3E1
100
AcDbEntity
  8
ASSI
100
AcDbLine
 62
250
  6
CONTINUOUS
 10
-6.6251352944
 20
-5.7868720283
 11
-6.6238882012
 21
-5.8652149103
  0
LINE
  5
3E2
100
AcDbEntity
  8
RACCORDO
100
AcDbLine
 62
250
  6
CONTINUOUS
 10
-6.6251352944
 20
-5.7868720283
 11
-6.6238882012
 21
-5.8652149103
  0
LINE
  5
3E3
100
AcDbEntity
  8
ASSI
100
AcDbLine
 62
250
  6
CONTINUOUS
 10
-6.6238882012
 20
-5.8652149103
 11
-6.6229188062
 21
-5.9411952902
  0
LINE
  5
3E4
100
AcDbEntity
  8
RACCORDO
100
AcDbLine
 62
250
  6
CONTINUOUS
 10
-6.6238882012
 20
-5.8652149103
 11
-6.6229188062
 21
-5.9411952902
  0
LWPOLYLINE
  5
3E5
100
AcDbEntity
  8
ASSI
100
AcDbPolyline
 62
250
  6
CONTINUOUS
 90
14
 70
0
 10
-6.6229188062
 20
-5.9411952902
 10
-6.6222572819
 20
-6.0124630038
 10
-6.6220489347
 20
-6.0455965441
 10
-6.6219242159
 20
-6.0767381231
 10
-6.6218839524
 20
-6.105680163
 10
-6.6219286531
 20
-6.1322222684
 10
-6.6220581725
 20
-6.1561289323
 10
-6.6222711568
 20
-6.1771761965
 10
-6.6225656354
 20
-6.1952158275
 10
-6.6229390163
 20
-6.2101226023
 10
-6.6233871749
 20
-6.2217768722
 10
-6.6239056082
 20
-6.2301191238
 10
-6.6244899874
 20
-6.2351291088
 10
-6.6251352944
 20
-6.2368034911
  0
LWPOLYLINE
  5
3E6
100
AcDbEntity
  8
RACCORDO
100
AcDbPolyline
 62
250
  6
CONTINUOUS
 90
14
 70
0
 10
-6.6229188062
 20
-5.9411952902
 10
-6.6222572819
 20
-6.0124630038
 10
-6.6220489347
 20
-6.0455965441
 10
-6.6219242159
 20
-6.0767381231
 10
-6.6218839524
 20
-6.105680163
 10
-6.6219286531
 20
-6.1322222684
 10
-6.6220581725
 20
-6.1561289323
 10
-6.6222711568
 20
-6.1771761965
 10
-6.6225656354
 20
-6.1952158275
 10
-6.6229390163
 20
-6.2101226023
 10
-6.6233871749
 20
-6.2217768722
 10
-6.6239056082
 20
-6.2301191238
 10
-6.6244899874
 20
-6.2351291088
 10
-6.6251352944
 20
-6.2368034911
  0
LINE
  5
3E7
100
AcDbEntity
  8
ASSI
100
AcDbLine
 62
250
  6
CONTINUOUS
 10
-6.6251352944
 20
-5.7868720283
 11
-6.6251352944
 21
5.4970542012
  0
LINE
  5
3E8
100
AcDbEntity
  8
RACCORDO
100
AcDbLine
 62
250
  6
CONTINUOUS
 10
-6.6251352944
 20
-5.7868720283
 11
-6.6251352944
 21
5.4970542012
  0
LINE
  5
3E9
100
AcDbEntity
  8
ASSI
100
AcDbLine
 62
250
  6
CONTINUOUS
 10
-13.6829888773
 20
14.0050910865
 11
-15.6829888773
 21
14.0050910865
  0
LINE
  5
3EA
100
AcDbEntity
  8
RACCORDO
100
AcDbLine
 62
250
  6
CONTINUOUS
 10
-13.6829888773
 20
14.0050910865
 11
-15.6829888773
 21
14.0050910865
  0
LINE
  5
3EB
100
AcDbEntity
  8
RACCORDO
100
AcDbLine
 62
250
  6
CONTINUOUS
 10
-38.5393126727
 20
16.7798202168
 11
-38.3523106424
 21
16.7566647619
  0
LWPOLYLINE
  5
3EC
100
AcDbEntity
  8
RACCORDO
100
AcDbPolyline
 62
250
  6
CONTINUOUS
 90
4
 70
0
 10
-38.5960840793
 20
16.7871320807
 10
-38.5924100292
 20
16.7865889536
 10
-38.5814736138
 20
16.7851568497
 10
-38.5393126727
 20
16.7798202168
  0
LINE
  5
3ED
100
AcDbEntity
  8
ASSI
100
AcDbLine
 62
7
  6
CONTINUOUS
 10
-6.1829888773
 20
-5.7868720283
 11
-6.1829888773
 21
5.4970542012
  0
LINE
  5
3EE
100
AcDbEntity
  8
RACCORDO
100
AcDbLine
 62
7
  6
CONTINUOUS
 10
-6.1829888773
 20
-5.7868720283
 11
-6.1829888773
 21
5.4970542012
  0
LINE
  5
3EF
100
AcDbEntity
  8
ASSI
100
AcDbLine
 62
7
  6
CONTINUOUS
 10
-5.9829888773
 20
5.1050910865
 11
-5.9829888773
 21
3.6050910865
  0
LINE
  5
3F0
100
AcDbEntity
  8
0
100
AcDbLine
 62
7
  6
CONTINUOUS
 10
-5.9829888773
 20
5.1050910865
 11
-5.9829888773
 21
3.6050910865
  0
LINE
  5
3F1
100
AcDbEntity
  8
ASSI
100
AcDbLine
 62
250
  6
CONTINUOUS
 10
-4.4672880905
 20
3.2651750183
 11
-4.4672880905
 21
-4.1549928454
  0
LINE
  5
3F2
100
AcDbEntity
  8
RACCORDO
100
AcDbLine
 62
250
  6
CONTINUOUS
 10
-4.4672880905
 20
3.2651750183
 11
-4.4672880905
 21
-4.1549928454
  0
LINE
  5
3F3
100
AcDbEntity
  8
ASSI
100
AcDbLine
 62
7
  6
CONTINUOUS
 10
-4.1829888773
 20
2.9655804432
 11
-4.1829888773
 21
-3.8553983204
  0
LINE
  5
3F4
100
AcDbEntity
  8
RACCORDO
100
AcDbLine
 62
7
  6
CONTINUOUS
 10
-4.1829888773
 20
2.9655804432
 11
-4.1829888773
 21
-3.8553983204
  0
LINE
  5
3F5
100
AcDbEntity
  8
ASSI
100
AcDbLine
 62
250
  6
CONTINUOUS
 10
-16.1742626741
 20
16.5986811603
 11
-15.6829888773
 21
16.5986811603
  0
LINE
  5
3F6
100
AcDbEntity
  8
RACCORDO
100
AcDbLine
 62
250
  6
CONTINUOUS
 10
-16.1742626741
 20
16.5986811603
 11
-15.6829888773
 21
16.5986811603
  0
LINE
  5
3F7
100
AcDbEntity
  8
ASSI
100
AcDbLine
 62
250
  6
CONTINUOUS
 10
-29.995308222
 20
16.6829299069
 11
-16.1742626741
 21
16.5986811603
  0
LINE
  5
3F8
100
AcDbEntity
  8
RACCORDO
100
AcDbLine
 62
250
  6
CONTINUOUS
 10
-29.995308222
 20
16.6829299069
 11
-16.1742626741
 21
16.5986811603
  0
LINE
  5
3F9
100
AcDbEntity
  8
ASSI
100
AcDbLine
 62
250
  6
CONTINUOUS
 10
-36.8829888773
 20
16.7247502525
 11
-29.995308222
 21
16.6829299069
  0
LINE
  5
3FA
100
AcDbEntity
  8
RACCORDO
100
AcDbLine
 62
250
  6
CONTINUOUS
 10
-36.8829888773
 20
16.7247502525
 11
-29.995308222
 21
16.6829299069
  0
LINE
  5
3FB
100
AcDbEntity
  8
RACCORDO
100
AcDbLine
 62
250
  6
CONTINUOUS
 10
-36.8829888773
 20
16.7242589258
 11
-38.352310643
 21
16.7566647448
  0
LINE
  5
3FC
100
AcDbEntity
  8
ASSI
100
AcDbLine
 62
7
  6
CONTINUOUS
 10
-15.6829888773
 20
16.7550910865
 11
-13.9672880905
 21
16.6651750183
  0
LINE
  5
3FD
100
AcDbEntity
  8
DRAFT
100
AcDbLine
 62
7
  6
CONTINUOUS
 10
-15.6829888773
 20
16.7550910865
 11
-13.9672880905
 21
16.6651750183
  0
LWPOLYLINE
  5
3FE
100
AcDbEntity
  8
0
100
AcDbPolyline
 62
7
  6
CONTINUOUS
 90
10
 70
0
 43
0.3500000087
 10
-26.1577101456
 20
43.3550924133
 10
-26.0862805908
 20
43.2122333038
 10
-26.0862805908
 20
43.1408058807
 10
-26.2291375687
 20
42.9979467712
 10
-26.3005671234
 20
42.9979467712
 10
-26.3719945465
 20
43.0693784576
 10
-26.3719945465
 20
43.1408058807
 10
-26.3005671234
 20
43.2836607269
 10
-26.2291375687
 20
43.3550924133
 10
-26.1577101456
 20
43.3550924133
  0
LWPOLYLINE
  5
3FF
100
AcDbEntity
  8
0
100
AcDbPolyline
 62
7
  6
CONTINUOUS
 90
10
 70
0
 43
0.3500000087
 10
-19.6758462952
 20
33.3550911743
 10
-19.6044167404
 20
33.2122320648
 10
-19.6044167404
 20
33.1408046417
 10
-19.7472737183
 20
32.9979497955
 10
-19.818703273
 20
32.9979497955
 10
-19.8901306961
 20
33.0693772186
 10
-19.8901306961
 20
33.1408046417
 10
-19.818703273
 20
33.2836637512
 10
-19.7472737183
 20
33.3550911743
 10
-19.6758462952
 20
33.3550911743
  0
LWPOLYLINE
  5
400
100
AcDbEntity
  8
ASSI
100
AcDbPolyline
 62
250
  6
CONTINUOUS
 90
16
 70
0
 10
-6.6251352944
 20
5.9469856641
 10
-6.6243577861
 20
5.9445075252
 10
-6.6236748052
 20
5.9371288934
 10
-6.6230938317
 20
5.9249305791
 10
-6.6226212284
 20
5.9080461778
 10
-6.6222621711
 20
5.886660607
 10
-6.6220205924
 20
5.8610080806
 10
-6.621899138
 20
5.8313695442
 10
-6.621899138
 20
5.798069598
 10
-6.6220205924
 20
5.7614729419
 10
-6.6222621711
 20
5.721980381
 10
-6.6226212284
 20
5.6800244366
 10
-6.6230938317
 20
5.6360646086
 10
-6.6236748052
 20
5.5905823436
 10
-6.6243577861
 20
5.5440757616
 10
-6.6251352944
 20
5.4970542012
  0
LWPOLYLINE
  5
401
100
AcDbEntity
  8
RACCORDO
100
AcDbPolyline
 62
250
  6
CONTINUOUS
 90
16
 70
0
 10
-6.6251352944
 20
5.9469856641
 10
-6.6243577861
 20
5.9445075252
 10
-6.6236748052
 20
5.9371288934
 10
-6.6230938317
 20
5.9249305791
 10
-6.6226212284
 20
5.9080461778
 10
-6.6222621711
 20
5.886660607
 10
-6.6220205924
 20
5.8610080806
 10
-6.621899138
 20
5.8313695442
 10
-6.621899138
 20
5.798069598
 10
-6.6220205924
 20
5.7614729419
 10
-6.6222621711
 20
5.721980381
 10
-6.6226212284
 20
5.6800244366
 10
-6.6230938317
 20
5.6360646086
 10
-6.6236748052
 20
5.5905823436
 10
-6.6243577861
 20
5.5440757616
 10
-6.6251352944
 20
5.4970542012
  0
LINE
  5
402
100
AcDbEntity
  8
ASSI
100
AcDbLine
 62
7
  6
CONTINUOUS
 10
-29.239059379
 20
-21.0509794152
 11
-30.7334933934
 21
-21.5949089135
  0
LINE
  5
403
100
AcDbEntity
  8
SUPERFICI
100
AcDbLine
 62
7
  6
CONTINUOUS
 10
-29.239059379
 20
-21.0509794152
 11
-30.7334933934
 21
-21.5949089135
  0
LINE
  5
404
100
AcDbEntity
  8
RACCORDO
100
AcDbLine
 62
250
  6
CONTINUOUS
 10
-38.4652001795
 20
17.8530959027
 11
-39.4640498384
 21
17.8356609171
  0
LINE
  5
405
100
AcDbEntity
  8
RACCORDO
100
AcDbLine
 62
7
  6
CONTINUOUS
 10
-38.3421706408
 20
18.8550910865
 11
-39.3764407102
 21
18.8370378352
  0
LINE
  5
406
100
AcDbEntity
  8
ASSI
100
AcDbLine
 62
250
  6
CONTINUOUS
 10
-29.9953082363
 20
17.9252271582
 11
-16.1742626741
 21
17.8460978828
  0
LINE
  5
407
100
AcDbEntity
  8
RACCORDO
100
AcDbLine
 62
250
  6
CONTINUOUS
 10
-29.9953082363
 20
17.9252271582
 11
-16.1742626741
 21
17.8460978828
  0
LINE
  5
408
100
AcDbEntity
  8
ASSI
100
AcDbLine
 62
250
  6
CONTINUOUS
 10
-36.8829888773
 20
17.9645206556
 11
-29.9953082363
 21
17.9252271582
  0
LINE
  5
409
100
AcDbEntity
  8
RACCORDO
100
AcDbLine
 62
250
  6
CONTINUOUS
 10
-36.8829888773
 20
17.9645206556
 11
-29.9953082363
 21
17.9252271582
  0
LINE
  5
40A
100
AcDbEntity
  8
ASSI
100
AcDbLine
 62
7
  6
CONTINUOUS
 10
-16.1742626741
 20
19.4725333415
 11
-26.6523977874
 21
19.6554298702
  0
LINE
  5
40B
100
AcDbEntity
  8
RACCORDO
100
AcDbLine
 62
7
  6
CONTINUOUS
 10
-16.1742626741
 20
19.4725333415
 11
-26.6523977874
 21
19.6554298702
  0
LINE
  5
40C
100
AcDbEntity
  8
ASSI
100
AcDbLine
 62
250
  6
CONTINUOUS
 10
-16.1742626741
 20
19.3109600029
 11
-26.8349712227
 21
19.4981436904
  0
LINE
  5
40D
100
AcDbEntity
  8
RACCORDO
100
AcDbLine
 62
250
  6
CONTINUOUS
 10
-16.1742626741
 20
19.3109600029
 11
-26.8349712227
 21
19.4981436904
  0
LINE
  5
40E
100
AcDbEntity
  8
RACCORDO
100
AcDbLine
 62
250
  6
CONTINUOUS
 10
-36.8829888773
 20
17.9650252776
 11
-38.2147538441
 21
17.9967250207
  0
LWPOLYLINE
  5
40F
100
AcDbEntity
  8
ASSI
100
AcDbPolyline
 62
250
  6
CONTINUOUS
 90
16
 70
0
 10
-16.1742626741
 20
17.8460978827
 10
-16.1226316821
 20
17.8438645374
 10
-16.071647376
 20
17.8383138188
 10
-16.0218560176
 20
17.8295051991
 10
-15.9737910866
 20
17.8175330566
 10
-15.9279675656
 20
17.8025256647
 10
-15.8848764222
 20
17.7846438173
 10
-15.8449793481
 20
17.7640791064
 10
-15.8087038125
 20
17.7410518686
 10
-15.7764384827
 20
17.7158088251
 10
-15.7485290591
 20
17.6886204376
 10
-15.7252745716
 20
17.6597780112
 10
-15.7069241756
 20
17.6295905724
 10
-15.6936744826
 20
17.5983815589
 10
-15.6856674534
 20
17.5664853536
 10
-15.6829888773
 20
17.5342437021
  0
LWPOLYLINE
  5
410
100
AcDbEntity
  8
RACCORDO
100
AcDbPolyline
 62
250
  6
CONTINUOUS
 90
16
 70
0
 10
-16.1742626741
 20
17.8460978827
 10
-16.1226316821
 20
17.8438645374
 10
-16.071647376
 20
17.8383138188
 10
-16.0218560176
 20
17.8295051991
 10
-15.9737910866
 20
17.8175330566
 10
-15.9279675656
 20
17.8025256647
 10
-15.8848764222
 20
17.7846438173
 10
-15.8449793481
 20
17.7640791064
 10
-15.8087038125
 20
17.7410518686
 10
-15.7764384827
 20
17.7158088251
 10
-15.7485290591
 20
17.6886204376
 10
-15.7252745716
 20
17.6597780112
 10
-15.7069241756
 20
17.6295905724
 10
-15.6936744826
 20
17.5983815589
 10
-15.6856674534
 20
17.5664853536
 10
-15.6829888773
 20
17.5342437021
  0
LINE
  5
411
100
AcDbEntity
  8
ASSI
100
AcDbLine
 62
250
  6
CONTINUOUS
 10
-46.2147897884
 20
21.6615756174
 11
-45.7369584643
 21
21.5993722791
  0
LWPOLYLINE
  5
412
100
AcDbEntity
  8
RACCORDO
100
AcDbPolyline
 62
250
  6
CONTINUOUS
 90
4
 70
0
 10
-46.2240977777
 20
21.662852158
 10
-46.2214463731
 20
21.6624708204
 10
-46.2135108076
 20
21.6614052688
 10
-45.7369584643
 20
21.5993722791
  0
LWPOLYLINE
  5
413
100
AcDbEntity
  8
ASSI
100
AcDbPolyline
 62
250
  6
CONTINUOUS
 90
3
 70
0
 10
-46.2240977777
 20
21.662852158
 10
-46.2230627044
 20
21.6626943909
 10
-46.2147897884
 20
21.6615756174
  0
LINE
  5
414
100
AcDbEntity
  8
ASSI
100
AcDbLine
 62
7
  6
CONTINUOUS
 10
-29.239059379
 20
22.2611615881
 11
-30.7334933934
 21
22.8050910865
  0
LINE
  5
415
100
AcDbEntity
  8
SUPERFICI
100
AcDbLine
 62
7
  6
CONTINUOUS
 10
-29.239059379
 20
22.2611615881
 11
-30.7334933934
 21
22.8050910865
  0
LWPOLYLINE
  5
416
100
AcDbEntity
  8
ASSI
100
AcDbPolyline
 62
7
  6
CONTINUOUS
 90
10
 70
0
 10
-26.6523977874
 20
19.6554298702
 10
-26.6686684099
 20
19.6533008637
 10
-26.6865560174
 20
19.6470735921
 10
-26.7057528504
 20
19.6367947887
 10
-26.7258072045
 20
19.6224519772
 10
-26.7465414999
 20
19.6042504705
 10
-26.7680750587
 20
19.5825676454
 10
-26.7902579243
 20
19.5575998659
 10
-26.8126538565
 20
19.5294038019
 10
-26.8349712215
 20
19.4981437349
  0
LWPOLYLINE
  5
417
100
AcDbEntity
  8
RACCORDO
100
AcDbPolyline
 62
7
  6
CONTINUOUS
 90
10
 70
0
 10
-26.6523977874
 20
19.6554298702
 10
-26.6686684099
 20
19.6533008637
 10
-26.6865560174
 20
19.6470735921
 10
-26.7057528504
 20
19.6367947887
 10
-26.7258072045
 20
19.6224519772
 10
-26.7465414999
 20
19.6042504705
 10
-26.7680750587
 20
19.5825676454
 10
-26.7902579243
 20
19.5575998659
 10
-26.8126538565
 20
19.5294038019
 10
-26.8349712215
 20
19.4981437349
  0
LINE
  5
418
100
AcDbEntity
  8
DRAFT
100
AcDbLine
 62
7
  6
CONTINUOUS
 10
-38.4899700136
 20
22.3119512562
 11
-37.9194603353
 21
22.3219095397
  0
LINE
  5
419
100
AcDbEntity
  8
ASSI
100
AcDbLine
 62
7
  6
CONTINUOUS
 10
-30.7334933934
 20
22.8050910865
 11
-31.2829888773
 21
22.8050910865
  0
LINE
  5
41A
100
AcDbEntity
  8
SUPERFICI
100
AcDbLine
 62
7
  6
CONTINUOUS
 10
-30.7334933934
 20
22.8050910865
 11
-31.2829888773
 21
22.8050910865
  0
LINE
  5
41B
100
AcDbEntity
  8
DRAFT
100
AcDbLine
 62
7
  6
CONTINUOUS
 10
-38.4899700131
 20
21.2982309167
 11
-38.0401960632
 21
21.2903800832
  0
LINE
  5
41C
100
AcDbEntity
  8
ASSI
100
AcDbLine
 62
7
  6
CONTINUOUS
 10
-32.8829888773
 20
21.8050910865
 11
-28.9121340794
 21
21.7357795581
  0
LINE
  5
41D
100
AcDbEntity
  8
0
100
AcDbLine
 62
7
  6
CONTINUOUS
 10
-32.8829888773
 20
21.8050910865
 11
-31.2829888773
 21
21.7771629826
  0
LINE
  5
41E
100
AcDbEntity
  8
RACCORDO
100
AcDbLine
 62
7
  6
CONTINUOUS
 10
-32.8829888773
 20
21.8050910865
 11
-28.9121340794
 21
21.7357795581
  0
LINE
  5
41F
100
AcDbEntity
  8
ASSI
100
AcDbLine
 62
250
  6
CONTINUOUS
 10
-32.8829888773
 20
21.6824317367
 11
-28.9122006125
 21
21.612810597
  0
LINE
  5
420
100
AcDbEntity
  8
RACCORDO
100
AcDbLine
 62
250
  6
CONTINUOUS
 10
-32.8829888773
 20
21.6824317367
 11
-28.9122006125
 21
21.612810597
  0
LINE
  5
421
100
AcDbEntity
  8
ASSI
100
AcDbLine
 62
250
  6
CONTINUOUS
 10
-45.2105785894
 20
22.0341962437
 11
-39.129266911
 21
21.6622472875
  0
LINE
  5
422
100
AcDbEntity
  8
RACCORDO
100
AcDbLine
 62
250
  6
CONTINUOUS
 10
-45.2105785894
 20
22.0341962437
 11
-39.129266911
 21
21.6622472875
  0
LINE
  5
423
100
AcDbEntity
  8
ASSI
100
AcDbLine
 62
7
  6
CONTINUOUS
 10
-45.1713613223
 20
22.5325031042
 11
-39.0856940169
 21
22.1602877464
  0
LINE
  5
424
100
AcDbEntity
  8
RACCORDO
100
AcDbLine
 62
7
  6
CONTINUOUS
 10
-45.1713613223
 20
22.5325031042
 11
-39.0856940169
 21
22.1602877464
  0
LINE
  5
425
100
AcDbEntity
  8
RACCORDO
100
AcDbLine
 62
250
  6
CONTINUOUS
 10
-37.6225719312
 20
22.8631074107
 11
-36.8829888773
 21
22.9025742558
  0
LINE
  5
426
100
AcDbEntity
  8
RACCORDO
100
AcDbLine
 62
7
  6
CONTINUOUS
 10
-37.629277586
 20
22.9659797525
 11
-36.8829888773
 21
23.0050910865
  0
LINE
  5
427
100
AcDbEntity
  8
RACCORDO
100
AcDbLine
 62
250
  6
CONTINUOUS
 10
-37.6632142666
 20
22.8622877148
 11
-37.6225716455
 21
22.8631093601
  0
LWPOLYLINE
  5
428
100
AcDbEntity
  8
ASSI
100
AcDbPolyline
 62
7
  6
CONTINUOUS
 90
10
 70
0
 10
-32.8829888773
 20
23.2349576891
 10
-33.3220462205
 20
23.2381693757
 10
-33.7624528792
 20
23.2415123669
 10
-34.2042088533
 20
23.2449819039
 10
-34.6473175299
 20
23.2485712924
 10
-35.0917755219
 20
23.2522776488
 10
-35.5375726687
 20
23.2561026855
 10
-35.9847055835
 20
23.2600446687
 10
-36.433177653
 20
23.2640976399
 10
-36.8829888773
 20
23.2682577084
  0
LWPOLYLINE
  5
429
100
AcDbEntity
  8
SUPERFICI
100
AcDbPolyline
 62
7
  6
CONTINUOUS
 90
10
 70
0
 10
-32.8829888773
 20
23.2349576891
 10
-33.3220462205
 20
23.2381693757
 10
-33.7624528792
 20
23.2415123669
 10
-34.2042088533
 20
23.2449819039
 10
-34.6473175299
 20
23.2485712924
 10
-35.0917755219
 20
23.2522776488
 10
-35.5375726687
 20
23.2561026855
 10
-35.9847055835
 20
23.2600446687
 10
-36.433177653
 20
23.2640976399
 10
-36.8829888773
 20
23.2682577084
  0
LINE
  5
42A
100
AcDbEntity
  8
ASSI
100
AcDbLine
 62
7
  6
CONTINUOUS
 10
-32.8829888773
 20
24.0352708267
 11
-36.8829888773
 21
24.1050910865
  0
LINE
  5
42B
100
AcDbEntity
  8
SUPERFICI
100
AcDbLine
 62
7
  6
CONTINUOUS
 10
-32.8829888773
 20
24.0352708267
 11
-36.8829888773
 21
24.1050910865
  0
LINE
  5
42C
100
AcDbEntity
  8
ASSI
100
AcDbLine
 62
250
  6
CONTINUOUS
 10
-32.8829888773
 20
23.8681984483
 11
-36.8829888773
 21
23.9384507439
  0
LINE
  5
42D
100
AcDbEntity
  8
SUPERFICI
100
AcDbLine
 62
250
  6
CONTINUOUS
 10
-32.8829888773
 20
23.8681984483
 11
-36.8829888773
 21
23.9384507439
  0
LWPOLYLINE
  5
42E
100
AcDbEntity
  8
ASSI
100
AcDbPolyline
 62
7
  6
CONTINUOUS
 90
10
 70
0
 10
-32.8829888773
 20
23.7049815613
 10
-33.3220462205
 20
23.7141817521
 10
-33.7624528792
 20
23.7233074073
 10
-34.2042088533
 20
23.7323555913
 10
-34.6473175299
 20
23.7413187025
 10
-35.0917755219
 20
23.7501989116
 10
-35.5375726687
 20
23.7590080902
 10
-35.9847055835
 20
23.7677485599
 10
-36.433177653
 20
23.7764131622
 10
-36.8829888773
 20
23.7849996482
  0
LWPOLYLINE
  5
42F
100
AcDbEntity
  8
SUPERFICI
100
AcDbPolyline
 62
7
  6
CONTINUOUS
 90
10
 70
0
 10
-32.8829888773
 20
23.7049815613
 10
-33.3220462205
 20
23.7141817521
 10
-33.7624528792
 20
23.7233074073
 10
-34.2042088533
 20
23.7323555913
 10
-34.6473175299
 20
23.7413187025
 10
-35.0917755219
 20
23.7501989116
 10
-35.5375726687
 20
23.7590080902
 10
-35.9847055835
 20
23.7677485599
 10
-36.433177653
 20
23.7764131622
 10
-36.8829888773
 20
23.7849996482
  0
LWPOLYLINE
  5
430
100
AcDbEntity
  8
0
100
AcDbPolyline
 62
7
  6
CONTINUOUS
 90
6
 70
0
 43
0.3500000087
 10
-24.8187038925
 20
32.855090686
 10
-23.7472754929
 20
32.855090686
 10
-23.5329889603
 20
33.0693772186
 10
-23.5329889603
 20
34.1408056183
 10
-23.9615598938
 20
34.5693786835
 10
-24.3901308273
 20
34.5693786835
  0
LWPOLYLINE
  5
431
100
AcDbEntity
  8
0
100
AcDbPolyline
 62
7
  6
CONTINUOUS
 90
7
 70
0
 43
0.3500000087
 10
-21.1758456284
 20
32.855090686
 10
-22.6758449615
 20
32.855090686
 10
-21.1758456284
 20
34.9979474854
 10
-21.1758456284
 20
35.4265205505
 10
-21.6044165619
 20
35.8550893524
 10
-22.247274028
 20
35.8550893524
 10
-22.6758449615
 20
35.2122340179
  0
LWPOLYLINE
  5
432
100
AcDbEntity
  8
0
100
AcDbPolyline
 62
7
  6
CONTINUOUS
 90
8
 70
0
 43
0.3500000087
 10
-28.943424411
 20
42.855091925
 10
-28.0862804123
 20
42.855091925
 10
-27.6577094788
 20
43.2836607269
 10
-27.6577094788
 20
44.1408068573
 10
-28.0862804123
 20
44.5693756592
 10
-28.943424411
 20
44.5693756592
 10
-28.943424411
 20
45.8550905914
 10
-27.6577094788
 20
45.8550905914
  0
LWPOLYLINE
  5
433
100
AcDbEntity
  8
0
100
AcDbPolyline
 62
7
  6
CONTINUOUS
 90
3
 70
0
 43
0.3500000087
 10
-29.8005662781
 20
43.4979472595
 10
-31.3005656113
 20
43.4979472595
 10
-30.6577102768
 20
45.8550905914
  0
LWPOLYLINE
  5
434
100
AcDbEntity
  8
RACCORDO
100
AcDbPolyline
 62
7
  6
CONTINUOUS
 90
4
 70
0
 10
24.5560564241
 20
22.9126816395
 10
24.5294245033
 20
22.8982787942
 10
24.5029323371
 20
22.8817814264
 10
24.4767728504
 20
22.8631072927
  0
LWPOLYLINE
  5
435
100
AcDbEntity
  8
RACCORDO
100
AcDbPolyline
 62
7
  6
CONTINUOUS
 90
3
 70
0
 10
24.5742684279
 20
22.9334138158
 10
24.6216241472
 20
22.9585809377
 10
24.6712799163
 20
22.9783963768
  0
LWPOLYLINE
  5
436
100
AcDbEntity
  8
RACCORDO
100
AcDbPolyline
 62
7
  6
CONTINUOUS
 90
3
 70
0
 10
35.757592983
 20
-21.7682142039
 10
35.7058383471
 20
-21.7825710417
 10
35.6519848443
 20
-21.7914692782
  0
LINE
  5
437
100
AcDbEntity
  8
RACCORDO
100
AcDbLine
 62
7
  6
CONTINUOUS
 10
35.6519848443
 20
-21.7914692782
 11
35.5960324748
 21
-21.7949089135
  0
LWPOLYLINE
  5
438
100
AcDbEntity
  8
ASSI
100
AcDbPolyline
 62
7
  6
CONTINUOUS
 90
10
 70
0
 10
33.8892939278
 20
-22.8949089135
 10
33.9547668492
 20
-22.8927183016
 10
34.0194206913
 20
-22.8863871115
 10
34.0832554543
 20
-22.8759153435
 10
34.1465335176
 20
-22.8612238872
 10
34.2089925017
 20
-22.8423918529
 10
34.2698452678
 20
-22.819656571
 10
34.3288294363
 20
-22.7930971519
 10
34.3862073869
 20
-22.7626344852
 10
34.4419791195
 20
-22.728268571
  0
LWPOLYLINE
  5
439
100
AcDbEntity
  8
SUPERFICI
100
AcDbPolyline
 62
7
  6
CONTINUOUS
 90
10
 70
0
 10
33.8892939278
 20
-22.8949089135
 10
33.9547668492
 20
-22.8927183016
 10
34.0194206913
 20
-22.8863871115
 10
34.0832554543
 20
-22.8759153435
 10
34.1465335176
 20
-22.8612238872
 10
34.2089925017
 20
-22.8423918529
 10
34.2698452678
 20
-22.819656571
 10
34.3288294363
 20
-22.7930971519
 10
34.3862073869
 20
-22.7626344852
 10
34.4419791195
 20
-22.728268571
  0
LWPOLYLINE
  5
43A
100
AcDbEntity
  8
RACCORDO
100
AcDbPolyline
 62
7
  6
CONTINUOUS
 90
10
 70
0
 10
35.6474094063
 20
-21.7557975796
 10
35.6702498098
 20
-21.7553154944
 10
35.6938009757
 20
-21.7537183974
 10
35.718003143
 20
-21.7509034391
 10
35.7427595836
 20
-21.7467733078
 10
35.7680163208
 20
-21.7412237901
 10
35.7937586408
 20
-21.7341313984
 10
35.8198758775
 20
-21.7253884567
 10
35.8462478242
 20
-21.7148904272
 10
35.8728164752
 20
-21.7024994665
  0
LINE
  5
43B
100
AcDbEntity
  8
ASSI
100
AcDbLine
 62
7
  6
CONTINUOUS
 10
33.8892939278
 20
-22.8949089135
 11
26.5395789715
 21
-22.8949089135
  0
LINE
  5
43C
100
AcDbEntity
  8
SUPERFICI
100
AcDbLine
 62
7
  6
CONTINUOUS
 10
33.8892939278
 20
-22.8949089135
 11
26.5395789715
 21
-22.8949089135
  0
LINE
  5
43D
100
AcDbEntity
  8
ASSI
100
AcDbLine
 62
7
  6
CONTINUOUS
 10
26.74461619
 20
-21.8949089135
 11
33.6842567094
 21
-21.8949089135
  0
LINE
  5
43E
100
AcDbEntity
  8
SUPERFICI
100
AcDbLine
 62
7
  6
CONTINUOUS
 10
26.74461619
 20
-21.8949089135
 11
33.6842567094
 21
-21.8949089135
  0
LINE
  5
43F
100
AcDbEntity
  8
RACCORDO
100
AcDbLine
 62
7
  6
CONTINUOUS
 10
35.5960324748
 20
-21.7949089135
 11
33.5144364497
 21
-21.7949089135
  0
LINE
  5
440
100
AcDbEntity
  8
ASSI
100
AcDbLine
 62
7
  6
CONTINUOUS
 10
32.8144364497
 20
-21.7949089135
 11
32.2144364497
 21
-21.7949089135
  0
LINE
  5
441
100
AcDbEntity
  8
ASSI
100
AcDbLine
 62
7
  6
CONTINUOUS
 10
28.2144364497
 20
-21.7949089135
 11
27.6144364497
 21
-21.7949089135
  0
LINE
  5
442
100
AcDbEntity
  8
RACCORDO
100
AcDbLine
 62
7
  6
CONTINUOUS
 10
26.9144364497
 20
-21.7949089135
 11
24.8328404246
 21
-21.7949089135
  0
LINE
  5
443
100
AcDbEntity
  8
RACCORDO
100
AcDbLine
 62
250
  6
CONTINUOUS
 10
24.781463493
 20
-21.7557975796
 11
35.6474094063
 21
-21.7557975796
  0
LWPOLYLINE
  5
444
100
AcDbEntity
  8
RACCORDO
100
AcDbPolyline
 62
7
  6
CONTINUOUS
 90
6
 70
0
 10
24.8328404246
 20
-21.7949089135
 10
24.776888055
 20
-21.7914692782
 10
24.7230345523
 20
-21.7825710417
 10
24.6712799163
 20
-21.7682142039
 10
24.6216241472
 20
-21.7483987648
 10
24.5740672449
 20
-21.7231247244
  0
LWPOLYLINE
  5
445
100
AcDbEntity
  8
RACCORDO
100
AcDbPolyline
 62
250
  6
CONTINUOUS
 90
6
 70
0
 10
24.7072890358
 20
-21.5253384807
 10
24.7209810681
 20
-21.5292079283
 10
24.7352475998
 20
-21.5322918939
 10
24.7500783982
 20
-21.5345159219
 10
24.765483696
 20
-21.5359544678
 10
24.781463493
 20
-21.5366075318
  0
LWPOLYLINE
  5
446
100
AcDbEntity
  8
RACCORDO
100
AcDbPolyline
 62
7
  6
CONTINUOUS
 90
8
 70
0
 10
24.5825995008
 20
-21.7148795543
 10
24.6074297829
 20
-21.7248125717
 10
24.6334867376
 20
-21.7336328113
 10
24.6607394375
 20
-21.7411950271
 10
24.6892274263
 20
-21.7473633867
 10
24.7189173373
 20
-21.7519712349
 10
24.7496967276
 20
-21.7548399164
 10
24.781463493
 20
-21.7557975796
  0
LINE
  5
447
100
AcDbEntity
  8
RACCORDO
100
AcDbLine
 62
250
  6
CONTINUOUS
 10
24.6284514663
 20
22.6948446673
 11
24.4241072583
 21
22.5343683058
  0
LINE
  5
448
100
AcDbEntity
  8
RACCORDO
100
AcDbLine
 62
7
  6
CONTINUOUS
 10
24.5286092094
 20
22.9025742558
 11
24.5742684279
 21
22.9334138158
  0
LWPOLYLINE
  5
449
100
AcDbEntity
  8
ASSI
100
AcDbPolyline
 62
7
  6
CONTINUOUS
 90
10
 70
0
 10
25.9868937799
 20
23.9384507439
 10
26.0426655125
 20
23.9728166581
 10
26.100043463
 20
24.0032793248
 10
26.1590276316
 20
24.0298387439
 10
26.2198803977
 20
24.0525740258
 10
26.2823393818
 20
24.0714060601
 10
26.3456174451
 20
24.0860975164
 10
26.409452208
 20
24.0965692845
 10
26.4741060502
 20
24.1029004745
 10
26.5395789715
 20
24.1050910865
  0
LWPOLYLINE
  5
44A
100
AcDbEntity
  8
SUPERFICI
100
AcDbPolyline
 62
7
  6
CONTINUOUS
 90
10
 70
0
 10
25.9868937799
 20
23.9384507439
 10
26.0426655125
 20
23.9728166581
 10
26.100043463
 20
24.0032793248
 10
26.1590276316
 20
24.0298387439
 10
26.2198803977
 20
24.0525740258
 10
26.2823393818
 20
24.0714060601
 10
26.3456174451
 20
24.0860975164
 10
26.409452208
 20
24.0965692845
 10
26.4741060502
 20
24.1029004745
 10
26.5395789715
 20
24.1050910865
  0
LINE
  5
44B
100
AcDbEntity
  8
RACCORDO
100
AcDbLine
 62
250
  6
CONTINUOUS
 10
24.4812119029
 20
-21.6521055419
 11
24.4767761395
 21
-21.6529271872
  0
LWPOLYLINE
  5
44C
100
AcDbEntity
  8
RACCORDO
100
AcDbPolyline
 62
250
  6
CONTINUOUS
 90
16
 70
0
 10
40.6082009942
 20
-20.7828355626
 10
40.6604431204
 20
-20.7800124027
 10
40.7121130738
 20
-20.771780245
 10
40.7626450626
 20
-20.7582292673
 10
40.8114857758
 20
-20.7395078822
 10
40.8581003989
 20
-20.7158211263
 10
40.9019784773
 20
-20.6874284287
 10
40.9426395678
 20
-20.6546407337
 10
40.9796384688
 20
-20.6178170999
 10
41.0125700632
 20
-20.5773608003
 10
41.0410737987
 20
-20.5337148647
 10
41.0648376198
 20
-20.4873572313
 10
41.0836013693
 20
-20.4387955371
 10
41.0971596489
 20
-20.3885615373
 10
41.1053640638
 20
-20.3372052804
 10
41.1081248418
 20
-20.2852890961
  0
LWPOLYLINE
  5
44D
100
AcDbEntity
  8
ASSI
100
AcDbPolyline
 62
250
  6
CONTINUOUS
 90
25
 70
0
 10
40.6082009942
 20
-20.7828355626
 10
40.6408882973
 20
-20.7817079441
 10
40.673435704
 20
-20.7784590475
 10
40.7057039206
 20
-20.7731027782
 10
40.7375548463
 20
-20.7656620606
 10
40.7688521706
 20
-20.7561687395
 10
40.799461956
 20
-20.7446634418
 10
40.8292532014
 20
-20.7311954062
 10
40.8580984084
 20
-20.7158222719
 10
40.8858741321
 20
-20.6986098277
 10
40.9124615088
 20
-20.6796317296
 10
40.9377467407
 20
-20.6589692033
 10
40.9616215915
 20
-20.6367106985
 10
40.9839838888
 20
-20.6129514761
 10
41.0047379287
 20
-20.5877932239
 10
41.0237948707
 20
-20.5613436484
 10
41.0410731652
 20
-20.5337159555
 10
41.0564988792
 20
-20.5050283867
 10
41.0700059946
 20
-20.4754037497
 10
41.081536722
 20
-20.4449688365
 10
41.0910417325
 20
-20.4138539013
 10
41.0984803612
 20
-20.3821921335
 10
41.1038207959
 20
-20.3501190449
 10
41.1070402075
 20
-20.3177718886
 10
41.1081248418
 20
-20.2852890961
  0
LWPOLYLINE
  5
44E
100
AcDbEntity
  8
RACCORDO
100
AcDbPolyline
 62
250
  6
CONTINUOUS
 90
13
 70
0
 10
35.6474094063
 20
-21.5366075318
 10
35.6589291689
 20
-21.5364289715
 10
35.6707371927
 20
-21.5355868659
 10
35.6828334777
 20
-21.5340812149
 10
35.6952516273
 20
-21.5319671904
 10
35.7079580382
 20
-21.5291896205
 10
35.7208519005
 20
-21.5255829896
 10
35.733956222
 20
-21.5211491403
 10
35.747247995
 20
-21.5158862299
 10
35.760557386
 20
-21.5096232145
 10
35.7738277837
 20
-21.5023030795
 10
35.7871157994
 20
-21.4939828395
 10
35.800421433
 20
-21.4846624944
  0
LINE
  5
44F
100
AcDbEntity
  8
RACCORDO
100
AcDbLine
 62
250
  6
CONTINUOUS
 10
24.781463493
 20
-21.5366075318
 11
35.6474094063
 21
-21.5366075318
  0
LINE
  5
450
100
AcDbEntity
  8
ASSI
100
AcDbLine
 62
7
  6
CONTINUOUS
 10
19.7142841535
 20
-21.47304003
 11
40.7145887458
 21
-21.47304003
  0
LINE
  5
451
100
AcDbEntity
  8
RACCORDO
100
AcDbLine
 62
7
  6
CONTINUOUS
 10
19.7142841535
 20
-21.47304003
 11
40.7145887458
 21
-21.47304003
  0
LINE
  5
452
100
AcDbEntity
  8
ASSI
100
AcDbLine
 62
250
  6
CONTINUOUS
 10
40.6082009942
 20
-20.7828355626
 11
19.8206719052
 21
-20.7828355626
  0
LINE
  5
453
100
AcDbEntity
  8
RACCORDO
100
AcDbLine
 62
250
  6
CONTINUOUS
 10
40.6082009942
 20
-20.7828355626
 11
19.8206719052
 21
-20.7828355626
  0
LINE
  5
454
100
AcDbEntity
  8
RACCORDO
100
AcDbLine
 62
250
  6
CONTINUOUS
 10
35.9476576109
 20
-21.652101024
 11
35.9520932212
 21
-21.6529225509
  0
LWPOLYLINE
  5
455
100
AcDbEntity
  8
ASSI
100
AcDbPolyline
 62
7
  6
CONTINUOUS
 90
10
 70
0
 10
25.9868937799
 20
-22.728268571
 10
26.0426655125
 20
-22.7626344852
 10
26.100043463
 20
-22.7930971519
 10
26.1590276316
 20
-22.819656571
 10
26.2198803977
 20
-22.8423918529
 10
26.2823393818
 20
-22.8612238872
 10
26.3456174451
 20
-22.8759153435
 10
26.409452208
 20
-22.8863871115
 10
26.4741060502
 20
-22.8927183016
 10
26.5395789715
 20
-22.8949089135
  0
LWPOLYLINE
  5
456
100
AcDbEntity
  8
SUPERFICI
100
AcDbPolyline
 62
7
  6
CONTINUOUS
 90
10
 70
0
 10
25.9868937799
 20
-22.728268571
 10
26.0426655125
 20
-22.7626344852
 10
26.100043463
 20
-22.7930971519
 10
26.1590276316
 20
-22.819656571
 10
26.2198803977
 20
-22.8423918529
 10
26.2823393818
 20
-22.8612238872
 10
26.3456174451
 20
-22.8759153435
 10
26.409452208
 20
-22.8863871115
 10
26.4741060502
 20
-22.8927183016
 10
26.5395789715
 20
-22.8949089135
  0
LINE
  5
457
100
AcDbEntity
  8
RACCORDO
100
AcDbLine
 62
7
  6
CONTINUOUS
 10
24.5740672449
 20
-21.7231247244
 11
24.5286092094
 21
-21.6923920829
  0
LWPOLYLINE
  5
458
100
AcDbEntity
  8
RACCORDO
100
AcDbPolyline
 62
7
  6
CONTINUOUS
 90
6
 70
0
 10
24.4767730274
 20
-21.6529252548
 10
24.4955292683
 20
-21.6665681618
 10
24.5154883636
 20
-21.6797033071
 10
24.5366605927
 20
-21.6922169314
 10
24.5590265562
 20
-21.7039794994
 10
24.5825995008
 20
-21.7148795543
  0
LWPOLYLINE
  5
459
100
AcDbEntity
  8
RACCORDO
100
AcDbPolyline
 62
250
  6
CONTINUOUS
 90
8
 70
0
 10
24.6284514663
 20
-21.4846624944
 10
24.6378969997
 20
-21.4916355662
 10
24.6479477021
 20
-21.4982357042
 10
24.6586035733
 20
-21.5044629084
 10
24.6698646041
 20
-21.5103802392
 10
24.6817308037
 20
-21.5159246362
 10
24.6942022004
 20
-21.5209069182
 10
24.7072890358
 20
-21.5253384807
  0
LINE
  5
45A
100
AcDbEntity
  8
RACCORDO
100
AcDbLine
 62
250
  6
CONTINUOUS
 10
24.781463493
 20
-21.7557975796
 11
24.8328404246
 21
-21.7949089135
  0
LWPOLYLINE
  5
45B
100
AcDbEntity
  8
RACCORDO
100
AcDbPolyline
 62
250
  6
CONTINUOUS
 90
16
 70
0
 10
19.3292395878
 20
21.5993722791
 10
19.3328198364
 20
21.6060086576
 10
19.3417180572
 20
21.6125657734
 10
19.3558389119
 20
21.6189733716
 10
19.3750311055
 20
21.6251627993
 10
19.3990890072
 20
21.6310677412
 10
19.4277548532
 20
21.63662493
 10
19.4607215092
 20
21.6417748242
 10
19.4976357607
 20
21.6464622464
 10
19.5381020972
 20
21.650636974
 10
19.5816869504
 20
21.6542542778
 10
19.6279233391
 20
21.6572754009
 10
19.6763158729
 20
21.6596679737
 10
19.7263460595
 20
21.6614063613
 10
19.7774778608
 20
21.6624719381
 10
19.8291634353
 20
21.6628532873
  0
LINE
  5
45C
100
AcDbEntity
  8
RACCORDO
100
AcDbLine
 62
250
  6
CONTINUOUS
 10
40.5997094641
 20
-19.7435897275
 11
19.8291634353
 21
-19.7435897275
  0
LWPOLYLINE
  5
45D
100
AcDbEntity
  8
ASSI
100
AcDbPolyline
 62
250
  6
CONTINUOUS
 90
25
 70
0
 10
19.7968242632
 20
-19.7436141078
 10
40.6320487152
 20
-19.7436141072
 10
40.6642525338
 20
-19.7437340187
 10
40.6961860601
 20
-19.7439489601
 10
40.7277155635
 20
-19.7442580314
 10
40.7587090117
 20
-19.7446599381
 10
40.7890366228
 20
-19.7451529973
 10
40.8185713956
 20
-19.7457351444
 10
40.8471896456
 20
-19.7464039414
 10
40.8747715319
 20
-19.7471565879
 10
40.901201559
 20
-19.7479899323
 10
40.9263690342
 20
-19.7489004847
 10
40.9501685403
 20
-19.749884431
 10
40.9725004176
 20
-19.7509376507
 10
40.9932711476
 20
-19.7520557331
 10
41.0123937286
 20
-19.7532339941
 10
41.0297880898
 20
-19.7544674992
 10
41.0453814028
 20
-19.7557510826
 10
41.0591083675
 20
-19.7570793678
 10
41.0709115175
 20
-19.7584467918
 10
41.0807414437
 20
-19.7598476283
 10
41.0885569942
 20
-19.7612760095
 10
41.0943254632
 20
-19.7627259535
 10
41.0980227218
 20
-19.7641913887
 10
41.0996333116
 20
-19.7656661785
  0
LWPOLYLINE
  5
45E
100
AcDbEntity
  8
RACCORDO
100
AcDbPolyline
 62
250
  6
CONTINUOUS
 90
16
 70
0
 10
40.5997094641
 20
-19.7435897279
 10
40.6513955571
 20
-19.743674612
 10
40.7025278588
 20
-19.7440032737
 10
40.7525585112
 20
-19.7445721917
 10
40.8009514602
 20
-19.7453752703
 10
40.847188199
 20
-19.7464039048
 10
40.8907733231
 20
-19.7476470741
 10
40.9312398393
 20
-19.7490914582
 10
40.9681541684
 20
-19.7507215811
 10
41.0011207913
 20
-19.752519977
 10
41.0297864867
 20
-19.7544673769
 10
41.0538441155
 20
-19.7565429152
 10
41.073035912
 20
-19.7587243538
 10
41.0871562453
 20
-19.7609883194
 10
41.0960538229
 20
-19.7633105549
 10
41.0996333116
 20
-19.7656661785
  0
LWPOLYLINE
  5
45F
100
AcDbEntity
  8
ASSI
100
AcDbPolyline
 62
250
  6
CONTINUOUS
 90
25
 70
0
 10
19.3292395878
 20
21.5993722791
 10
19.330850751
 20
21.6035255244
 10
19.3345486568
 20
21.607658192
 10
19.3403178246
 20
21.6117529758
 10
19.3481341029
 20
21.6157927296
 10
19.357964763
 20
21.6197605348
 10
19.3697686295
 20
21.6236397718
 10
19.3834962697
 20
21.6274141954
 10
19.3990901964
 20
21.6310680002
 10
19.4164850915
 20
21.6345858825
 10
19.435608106
 20
21.6379531113
 10
19.4563791546
 20
21.6411555864
 10
19.4787112316
 20
21.6441798951
 10
19.5025108066
 20
21.6470133736
 10
19.5276782124
 20
21.6496441579
 10
19.5541080414
 20
21.652061232
 10
19.5816896002
 20
21.6542544751
 10
19.6103073915
 20
21.6562147052
 10
19.6398415895
 20
21.6579337166
 10
19.670168513
 20
21.6594043121
 10
19.7011611682
 20
21.660620335
 10
19.7326898002
 20
21.6615766948
 10
19.7646223929
 20
21.6622693875
 10
19.7968252205
 20
21.6626955129
 10
19.8291634353
 20
21.6628532873
  0
LINE
  5
460
100
AcDbEntity
  8
RACCORDO
100
AcDbLine
 62
7
  6
CONTINUOUS
 10
19.3399237536
 20
22.1708446374
 11
19.2335564056
 21
21.7987006655
  0
LINE
  5
461
100
AcDbEntity
  8
ASSI
100
AcDbLine
 62
250
  6
CONTINUOUS
 10
19.3207480576
 20
22.0341962437
 11
19.2144364497
 21
21.6622472875
  0
LINE
  5
462
100
AcDbEntity
  8
RACCORDO
100
AcDbLine
 62
250
  6
CONTINUOUS
 10
19.3207480576
 20
22.0341962437
 11
19.2144364497
 21
21.6622472875
  0
LINE
  5
463
100
AcDbEntity
  8
ASSI
100
AcDbLine
 62
7
  6
CONTINUOUS
 10
19.2335564058
 20
21.7987006659
 11
19.3400140938
 21
22.1711603138
  0
LINE
  5
464
100
AcDbEntity
  8
RACCORDO
100
AcDbLine
 62
7
  6
CONTINUOUS
 10
19.3438765439
 20
22.1839788147
 11
19.3396391249
 21
22.1698267798
  0
LINE
  5
465
100
AcDbEntity
  8
ASSI
100
AcDbLine
 62
7
  6
CONTINUOUS
 10
19.343125206
 20
22.1814695136
 11
19.3400188911
 21
22.1711589349
  0
LINE
  5
466
100
AcDbEntity
  8
RACCORDO
100
AcDbLine
 62
7
  6
CONTINUOUS
 10
19.2110439058
 20
17.4437718915
 11
19.1655607007
 21
17.3034231896
  0
LWPOLYLINE
  5
467
100
AcDbEntity
  8
ASSI
100
AcDbPolyline
 62
7
  6
CONTINUOUS
 90
3
 70
0
 10
19.1521128816
 20
17.3100757956
 10
19.2010376127
 20
17.4509061509
 10
19.2144364497
 20
17.4818936862
  0
LWPOLYLINE
  5
468
100
AcDbEntity
  8
SUPERFICI
100
AcDbPolyline
 62
7
  6
CONTINUOUS
 90
3
 70
0
 10
19.1521128816
 20
17.3100757956
 10
19.2010376127
 20
17.4509061509
 10
19.2144364497
 20
17.4818936862
  0
LINE
  5
469
100
AcDbEntity
  8
RACCORDO
100
AcDbLine
 62
7
  6
CONTINUOUS
 10
19.1754346329
 20
17.381430943
 11
19.2144364497
 21
17.4761510128
  0
LWPOLYLINE
  5
46A
100
AcDbEntity
  8
RACCORDO
100
AcDbPolyline
 62
250
  6
CONTINUOUS
 90
7
 70
0
 10
41.2144364497
 20
-15.5725337863
 10
41.2480447317
 20
-15.5696358256
 10
41.2787827091
 20
-15.5658892382
 10
41.3038752786
 20
-15.561565891
 10
41.3225766971
 20
-15.5567942722
 10
41.3343311649
 20
-15.5517161929
 10
41.3387893429
 20
-15.5464825719
  0
LWPOLYLINE
  5
46B
100
AcDbEntity
  8
RACCORDO
100
AcDbPolyline
 62
250
  6
CONTINUOUS
 90
7
 70
0
 10
19.2144364497
 20
-15.5725334614
 10
19.1808499695
 20
-15.5696380438
 10
19.1501074658
 20
-15.5658917163
 10
19.1250092296
 20
-15.5615682887
 10
19.1063023303
 20
-15.5567962487
 10
19.0945435642
 20
-15.5517173613
 10
19.0900835565
 20
-15.546482589
  0
LINE
  5
46C
100
AcDbEntity
  8
RACCORDO
100
AcDbLine
 62
7
  6
CONTINUOUS
 10
19.2144364497
 20
-16.2659688399
 11
19.1754346329
 21
-16.1712487701
  0
LINE
  5
46D
100
AcDbEntity
  8
RACCORDO
100
AcDbLine
 62
7
  6
CONTINUOUS
 10
19.1902028387
 20
-16.1736293217
 11
19.2144364497
 21
-16.23886418
  0
LWPOLYLINE
  5
46E
100
AcDbEntity
  8
ASSI
100
AcDbPolyline
 62
7
  6
CONTINUOUS
 90
3
 70
0
 10
19.1521128816
 20
-16.0998936227
 10
19.2010376127
 20
-16.240723978
 10
19.2144364497
 20
-16.2717115133
  0
LWPOLYLINE
  5
46F
100
AcDbEntity
  8
SUPERFICI
100
AcDbPolyline
 62
7
  6
CONTINUOUS
 90
3
 70
0
 10
19.1521128816
 20
-16.0998936227
 10
19.2010376127
 20
-16.240723978
 10
19.2144364497
 20
-16.2717115133
  0
LWPOLYLINE
  5
470
100
AcDbEntity
  8
ASSI
100
AcDbPolyline
 62
7
  6
CONTINUOUS
 90
3
 70
0
 10
19.0866969005
 20
17.0218908006
 10
19.1139101997
 20
17.1668141714
 10
19.1521128816
 20
17.3100757956
  0
LWPOLYLINE
  5
471
100
AcDbEntity
  8
SUPERFICI
100
AcDbPolyline
 62
7
  6
CONTINUOUS
 90
3
 70
0
 10
19.0866969005
 20
17.0218908006
 10
19.1139101997
 20
17.1668141714
 10
19.1521128816
 20
17.3100757956
  0
LWPOLYLINE
  5
472
100
AcDbEntity
  8
RACCORDO
100
AcDbPolyline
 62
7
  6
CONTINUOUS
 90
4
 70
0
 10
19.1655607007
 20
17.3034231896
 10
19.1313550616
 20
17.163748283
 10
19.1077839943
 20
17.0254076958
 10
19.0942601837
 20
16.8894743962
  0
LINE
  5
473
100
AcDbEntity
  8
RACCORDO
100
AcDbLine
 62
7
  6
CONTINUOUS
 10
19.115201799
 20
17.170548902
 11
19.1754346329
 21
17.381430943
  0
LINE
  5
474
100
AcDbEntity
  8
SUPERFICI
100
AcDbLine
 62
7
  6
CONTINUOUS
 10
26.9144364497
 20
23.0050910865
 11
26.9810692473
 21
23.1050910865
  0
LWPOLYLINE
  5
475
100
AcDbEntity
  8
RACCORDO
100
AcDbPolyline
 62
250
  6
CONTINUOUS
 90
27
 70
0
 10
30.2144364497
 20
-13.9692032209
 10
30.2720636326
 20
-13.9675375839
 10
30.3295013631
 20
-13.9625457611
 10
30.3865562982
 20
-13.9542437801
 10
30.4430085496
 20
-13.9426653516
 10
30.4986964626
 20
-13.927845364
 10
30.5535129874
 20
-13.9098038362
 10
30.6073241736
 20
-13.8885628499
 10
30.6598834254
 20
-13.8641972267
 10
30.7109212748
 20
-13.8368239154
 10
30.7602576737
 20
-13.8065416914
 10
30.8077330834
 20
-13.7734507635
 10
30.8531319058
 20
-13.7377104989
 10
30.8962676883
 20
-13.6994913602
 10
30.9370493312
 20
-13.6588988836
 10
30.9754121698
 20
-13.6160047381
 10
31.0112479765
 20
-13.5709198817
 10
31.0444064021
 20
-13.5238226889
 10
31.0747629587
 20
-13.4748871991
 10
31.102214602
 20
-13.4242799767
 10
31.1266695967
 20
-13.3721706386
 10
31.1480402946
 20
-13.3187493154
 10
31.1662466926
 20
-13.2642319132
 10
31.1812445323
 20
-13.2087696197
 10
31.1930024443
 20
-13.152457702
 10
31.2014740757
 20
-13.0954276262
 10
31.2066041435
 20
-13.0379254002
  0
LWPOLYLINE
  5
476
100
AcDbEntity
  8
RACCORDO
100
AcDbPolyline
 62
250
  6
CONTINUOUS
 90
55
 70
0
 10
30.2144364497
 20
-13.8699459868
 10
30.2667893218
 20
-13.8684330987
 10
30.3189700983
 20
-13.8638982991
 10
30.3708031053
 20
-13.8563561497
 10
30.4220885303
 20
-13.8458371811
 10
30.4726795003
 20
-13.8323731969
 10
30.5224788417
 20
-13.8159826795
 10
30.5713649566
 20
-13.7966858404
 10
30.6191137947
 20
-13.7745504798
 10
30.665480471
 20
-13.7496826508
 10
30.7103013565
 20
-13.7221720147
 10
30.7534315473
 20
-13.692109696
 10
30.7946752154
 20
-13.659640536
 10
30.8338629957
 20
-13.624919416
 10
30.8709121106
 20
-13.5880421875
 10
30.9057638018
 20
-13.5490739462
 10
30.9383197403
 20
-13.5081154905
 10
30.9684433429
 20
-13.4653288748
 10
30.9960215188
 20
-13.4208722123
 10
31.020960657
 20
-13.3748968234
 10
31.0431774162
 20
-13.3275567995
 10
31.0625921675
 20
-13.2790248681
 10
31.0791322281
 20
-13.2294971744
 10
31.0927573918
 20
-13.1791110696
 10
31.1034391632
 20
-13.1279531024
 10
31.1111354336
 20
-13.0761427066
 10
31.115795978
 20
-13.0239033736
 10
31.1173925297
 20
-12.9714797425
 10
31.1159203645
 20
-12.9190699533
 10
31.1113852363
 20
-12.8668321443
 10
31.1038035497
 20
-12.8149519775
 10
31.0932034631
 20
-12.7636114697
 10
31.0796212512
 20
-12.7129786909
 10
31.0631005623
 20
-12.6632158542
 10
31.043694008
 20
-12.6144857433
 10
31.0214688163
 20
-12.5669608364
 10
30.9965052915
 20
-12.5208123538
 10
30.9688933785
 20
-12.4762027394
 10
30.9387244255
 20
-12.4332761176
 10
30.9060943092
 20
-12.3921686494
 10
30.871107296
 20
-12.353014267
 10
30.8338866226
 20
-12.3159532727
 10
30.7945686928
 20
-12.2811209785
 10
30.7532963946
 20
-12.2486406666
 10
30.7102031473
 20
-12.2186142422
 10
30.6654209173
 20
-12.1911336771
 10
30.6190697848
 20
-12.1662780184
 10
30.5713356559
 20
-12.1441520013
 10
30.5224618884
 20
-12.1248615753
 10
30.4726714266
 20
-12.108474877
 10
30.4220863319
 20
-12.095012914
 10
30.3708046486
 20
-12.084494823
 10
30.3189734824
 20
-12.0769528082
 10
30.2667922041
 20
-12.0724177503
 10
30.2144364497
 20
-12.0709046194
  0
LINE
  5
477
100
AcDbEntity
  8
SUPERFICI
100
AcDbLine
 62
7
  6
CONTINUOUS
 10
26.9810692473
 20
-21.8949089135
 11
26.9144364497
 21
-21.7949089135
  0
LINE
  5
478
100
AcDbEntity
  8
RACCORDO
100
AcDbLine
 62
7
  6
CONTINUOUS
 10
19.1480787799
 20
-16.0273049956
 11
19.1902028387
 21
-16.1736293217
  0
LINE
  5
479
100
AcDbEntity
  8
RACCORDO
100
AcDbLine
 62
7
  6
CONTINUOUS
 10
19.1754346329
 20
-16.1712487701
 11
19.115201799
 21
-15.9603667291
  0
LWPOLYLINE
  5
47A
100
AcDbEntity
  8
ASSI
100
AcDbPolyline
 62
7
  6
CONTINUOUS
 90
3
 70
0
 10
19.0866969005
 20
-15.8117086277
 10
19.1139101997
 20
-15.9566319985
 10
19.1521128816
 20
-16.0998936227
  0
LWPOLYLINE
  5
47B
100
AcDbEntity
  8
SUPERFICI
100
AcDbPolyline
 62
7
  6
CONTINUOUS
 90
3
 70
0
 10
19.0866969005
 20
-15.8117086277
 10
19.1139101997
 20
-15.9566319985
 10
19.1521128816
 20
-16.0998936227
  0
LWPOLYLINE
  5
47C
100
AcDbEntity
  8
RACCORDO
100
AcDbPolyline
 62
7
  6
CONTINUOUS
 90
3
 70
0
 10
19.115201799
 20
-15.9603667291
 10
19.0782024046
 20
-15.74130939
 10
19.0644364497
 20
-15.5140767529
  0
LWPOLYLINE
  5
47D
100
AcDbEntity
  8
RACCORDO
100
AcDbPolyline
 62
250
  6
CONTINUOUS
 90
16
 70
0
 10
19.3207480576
 20
-20.2852890961
 10
19.3235088103
 20
-20.3372050434
 10
19.3317131584
 20
-20.3885611078
 10
19.3452713426
 20
-20.4387949641
 10
19.3640349816
 20
-20.4873565666
 10
19.3877986905
 20
-20.5337141587
 10
19.4163023231
 20
-20.5773600982
 10
19.4492338358
 20
-20.6178164429
 10
19.4862326853
 20
-20.6546401547
 10
19.526893758
 20
-20.6874279484
 10
19.5707718582
 20
-20.715820757
 10
19.6173865454
 20
-20.7395076256
 10
19.6662273579
 20
-20.758229112
 10
19.7167594769
 20
-20.7717801708
 10
19.7684295914
 20
-20.7800123827
 10
19.8206719052
 20
-20.7828355625
  0
LWPOLYLINE
  5
47E
100
AcDbEntity
  8
RACCORDO
100
AcDbPolyline
 62
250
  6
CONTINUOUS
 90
4
 70
0
 10
19.3207480576
 20
22.0341962437
 10
19.3235089678
 20
22.0863436805
 10
19.3317137341
 20
22.1379117833
 10
19.3396343718
 20
22.1698281058
  0
LWPOLYLINE
  5
47F
100
AcDbEntity
  8
RACCORDO
100
AcDbPolyline
 62
7
  6
CONTINUOUS
 90
3
 70
0
 10
19.0644364497
 20
16.7242589258
 10
19.0782024046
 20
16.9514915629
 10
19.115201799
 20
17.170548902
  0
LINE
  5
480
100
AcDbEntity
  8
ASSI
100
AcDbLine
 62
7
  6
CONTINUOUS
 10
19.0702056505
 20
16.8745361609
 11
19.0866969005
 21
17.0218908006
  0
LINE
  5
481
100
AcDbEntity
  8
SUPERFICI
100
AcDbLine
 62
7
  6
CONTINUOUS
 10
19.0702056505
 20
16.8745361609
 11
19.0866969005
 21
17.0218908006
  0
LWPOLYLINE
  5
482
100
AcDbEntity
  8
RACCORDO
100
AcDbPolyline
 62
250
  6
CONTINUOUS
 90
55
 70
0
 10
30.2144364497
 20
-12.0709046194
 10
30.1620835775
 20
-12.0724175122
 10
30.1099028011
 20
-12.0769523141
 10
30.058069794
 20
-12.0844944635
 10
30.0067843691
 20
-12.095013428
 10
29.9561933991
 20
-12.1084774058
 10
29.9063940577
 20
-12.1248679191
 10
29.8575079427
 20
-12.1441647592
 10
29.8097591047
 20
-12.1663001231
 10
29.7633924284
 20
-12.1911679545
 10
29.7185715429
 20
-12.2186785907
 10
29.6754413521
 20
-12.2487409086
 10
29.634197684
 20
-12.2812100681
 10
29.5950099037
 20
-12.3159311882
 10
29.5579607887
 20
-12.3528084171
 10
29.5231090976
 20
-12.3917766587
 10
29.490553159
 20
-12.4327351145
 10
29.4604295564
 20
-12.4755217303
 10
29.4328513806
 20
-12.5199783929
 10
29.4079122424
 20
-12.5659537819
 10
29.3856954831
 20
-12.613293806
 10
29.3662807318
 20
-12.6618257376
 10
29.3497406713
 20
-12.7113534314
 10
29.3361155076
 20
-12.7617395361
 10
29.3254337362
 20
-12.8128975034
 10
29.3177374658
 20
-12.8647078993
 10
29.3130769213
 20
-12.9169472324
 10
29.3114803696
 20
-12.9693708635
 10
29.3129525349
 20
-13.0217806528
 10
29.3174876631
 20
-13.0740184618
 10
29.3250693496
 20
-13.1258986286
 10
29.3356694362
 20
-13.1772391365
 10
29.3492516482
 20
-13.2278719153
 10
29.3657723371
 20
-13.277634752
 10
29.3851788913
 20
-13.3263648628
 10
29.407404083
 20
-13.3738897696
 10
29.4323676079
 20
-13.4200382523
 10
29.4599795208
 20
-13.4646478666
 10
29.4901484738
 20
-13.5075744884
 10
29.5227785901
 20
-13.5486819565
 10
29.5577656034
 20
-13.5878363388
 10
29.5949862768
 20
-13.6248973327
 10
29.6343042066
 20
-13.6597296268
 10
29.6755765047
 20
-13.6922099391
 10
29.7186697521
 20
-13.7222363641
 10
29.763451982
 20
-13.7497169292
 10
29.8098031145
 20
-13.7745725863
 10
29.8575372435
 20
-13.7966986012
 10
29.906411011
 20
-13.8159890265
 10
29.9562014727
 20
-13.8323757277
 10
30.0067865675
 20
-13.8458376951
 10
30.0580682508
 20
-13.8563557888
 10
30.109899417
 20
-13.8638978034
 10
30.1620806953
 20
-13.8684328595
 10
30.2144364497
 20
-13.8699459868
  0
LWPOLYLINE
  5
483
100
AcDbEntity
  8
RACCORDO
100
AcDbPolyline
 62
7
  6
CONTINUOUS
 90
28
 70
0
 10
30.2144364496
 20
-11.9885797974
 10
30.2700397562
 20
-11.9901309961
 10
30.3254677154
 20
-11.9947795999
 10
30.3805470001
 20
-12.0025108926
 10
30.4351057112
 20
-12.0133006361
 10
30.4889729133
 20
-12.0271149592
 10
30.5419791914
 20
-12.0439102731
 10
30.5939587494
 20
-12.0636338454
 10
30.6447491451
 20
-12.0862238743
 10
30.694190855
 20
-12.1116092133
 10
30.7421292323
 20
-12.1397102099
 10
30.7884145122
 20
-12.1704388486
 10
30.8329015806
 20
-12.2036985461
 10
30.8754512984
 20
-12.2393849873
 10
30.9159307658
 20
-12.2773864297
 10
30.954213316
 20
-12.317583679
 10
30.9901792252
 20
-12.359850703
 10
31.023716177
 20
-12.404055179
 10
31.0547194306
 20
-12.4500587384
 10
31.0830920335
 20
-12.4977171854
 10
31.1087453917
 20
-12.5468813337
 10
31.1315995249
 20
-12.5973975754
 10
31.1515829663
 20
-12.649107621
 10
31.1686333134
 20
-12.7018495933
 10
31.1826974699
 20
-12.7554589306
 10
31.1937314903
 20
-12.8097679524
 10
31.2017008405
 20
-12.8646063706
 10
31.2065805994
 20
-12.9198013775
  0
LWPOLYLINE
  5
484
100
AcDbEntity
  8
RACCORDO
100
AcDbPolyline
 62
7
  6
CONTINUOUS
 90
3
 70
0
 10
19.0967200393
 20
-15.7127902196
 10
19.1164689521
 20
-15.8733708664
 10
19.1480787799
 20
-16.0273049956
  0
LINE
  5
485
100
AcDbEntity
  8
ASSI
100
AcDbLine
 62
7
  6
CONTINUOUS
 10
19.0702056505
 20
-15.664353988
 11
19.0866969005
 21
-15.8117086277
  0
LINE
  5
486
100
AcDbEntity
  8
SUPERFICI
100
AcDbLine
 62
7
  6
CONTINUOUS
 10
19.0702056505
 20
-15.664353988
 11
19.0866969005
 21
-15.8117086277
  0
LINE
  5
487
100
AcDbEntity
  8
RACCORDO
100
AcDbLine
 62
7
  6
CONTINUOUS
 10
19.0900835565
 20
-15.5464825719
 11
19.0967200393
 21
-15.7127902196
  0
LINE
  5
488
100
AcDbEntity
  8
ASSI
100
AcDbLine
 62
7
  6
CONTINUOUS
 10
19.0644364497
 20
-15.5145680796
 11
19.0702056505
 21
-15.664353988
  0
LINE
  5
489
100
AcDbEntity
  8
SUPERFICI
100
AcDbLine
 62
7
  6
CONTINUOUS
 10
19.0644364497
 20
-15.5145680796
 11
19.0702056505
 21
-15.664353988
  0
LWPOLYLINE
  5
48A
100
AcDbEntity
  8
ASSI
100
AcDbPolyline
 62
250
  6
CONTINUOUS
 90
25
 70
0
 10
19.3207480576
 20
-20.2852890961
 10
19.3218326825
 20
-20.317771747
 10
19.3250520689
 20
-20.3501187852
 10
19.3303924673
 20
-20.3821917804
 10
19.3378310536
 20
-20.4138534815
 10
19.3473360197
 20
-20.4449683751
 10
19.3588667033
 20
-20.4754032665
 10
19.3723737791
 20
-20.505027901
 10
19.3877994608
 20
-20.5337154851
 10
19.4050777303
 20
-20.5613432046
 10
19.4241346564
 20
-20.5877928168
 10
19.4448886913
 20
-20.612951114
 10
19.4672509906
 20
-20.636710383
 10
19.4911258504
 20
-20.6589689344
 10
19.5164110989
 20
-20.6796315071
 10
19.5429984958
 20
-20.6986096473
 10
19.5707742407
 20
-20.7158221282
 10
19.5996194712
 20
-20.731195295
 10
19.6294107428
 20
-20.7446633591
 10
19.6600205566
 20
-20.7561686814
 10
19.691317911
 20
-20.7656620228
 10
19.7231688693
 20
-20.7731027565
 10
19.755437121
 20
-20.7784590378
 10
19.7879845643
 20
-20.7817079415
 10
19.8206719052
 20
-20.7828355625
  0
LWPOLYLINE
  5
48B
100
AcDbEntity
  8
ASSI
100
AcDbPolyline
 62
250
  6
CONTINUOUS
 90
10
 70
0
 10
19.3253718879
 20
21.9733666965
 10
19.3249063302
 20
21.9876090119
 10
19.3244211603
 20
22.0001407742
 10
19.3239229601
 20
22.0107871842
 10
19.3234111544
 20
22.0195095087
 10
19.3228863186
 20
22.0263464809
 10
19.3223567602
 20
22.0312395006
 10
19.3218252486
 20
22.0341690342
 10
19.3212890144
 20
22.0351546152
 10
19.3207480576
 20
22.0341962437
  0
LINE
  5
48C
100
AcDbEntity
  8
ASSI
100
AcDbLine
 62
250
  6
CONTINUOUS
 10
19.3262427498
 20
21.939736113
 11
19.3253718879
 21
21.9733666965
  0
LWPOLYLINE
  5
48D
100
AcDbEntity
  8
RACCORDO
100
AcDbPolyline
 62
250
  6
CONTINUOUS
 90
10
 70
0
 10
19.3266408244
 20
21.920729441
 10
19.3261011106
 20
21.9458631676
 10
19.325518824
 20
21.9683205686
 10
19.3249060493
 20
21.9876356193
 10
19.3242618246
 20
22.0037421736
 10
19.323587112
 20
22.0167063776
 10
19.3228968819
 20
22.0262606452
 10
19.3221961246
 20
22.0323157811
 10
19.3214798498
 20
22.0349609806
 10
19.3207480576
 20
22.0341962437
  0
LINE
  5
48E
100
AcDbEntity
  8
ASSI
100
AcDbLine
 62
250
  6
CONTINUOUS
 10
19.3270216186
 20
21.8998393618
 11
19.3262427498
 21
21.939736113
  0
LINE
  5
48F
100
AcDbEntity
  8
RACCORDO
100
AcDbLine
 62
250
  6
CONTINUOUS
 10
19.3271370195
 20
21.8928675237
 11
19.3266408244
 21
21.920729441
  0
LINE
  5
490
100
AcDbEntity
  8
ASSI
100
AcDbLine
 62
250
  6
CONTINUOUS
 10
19.3277000922
 20
21.8541069359
 11
19.3270216186
 21
21.8998393618
  0
LINE
  5
491
100
AcDbEntity
  8
ASSI
100
AcDbLine
 62
250
  6
CONTINUOUS
 10
19.3282663084
 20
21.8031729202
 11
19.3277000922
 21
21.8541069359
  0
LWPOLYLINE
  5
492
100
AcDbEntity
  8
RACCORDO
100
AcDbPolyline
 62
250
  6
CONTINUOUS
 90
4
 70
0
 10
19.328341448
 20
21.7950329535
 10
19.3279924427
 20
21.8297363329
 10
19.3275906417
 20
21.8623292808
 10
19.3271370195
 20
21.8928675237
  0
LINE
  5
493
100
AcDbEntity
  8
ASSI
100
AcDbLine
 62
250
  6
CONTINUOUS
 10
19.8270646181
 20
22.2495274057
 11
19.8263912214
 21
22.3227565717
  0
LINE
  5
494
100
AcDbEntity
  8
ASSI
100
AcDbLine
 62
250
  6
CONTINUOUS
 10
19.328708941
 20
21.7481543363
 11
19.3282663084
 21
21.8031729202
  0
LINE
  5
495
100
AcDbEntity
  8
ASSI
100
AcDbLine
 62
250
  6
CONTINUOUS
 10
19.8276549246
 20
22.167440647
 11
19.8270646181
 21
22.2495274057
  0
LINE
  5
496
100
AcDbEntity
  8
RACCORDO
100
AcDbLine
 62
250
  6
CONTINUOUS
 10
19.3288776707
 20
21.7202508796
 11
19.328341448
 21
21.7950329535
  0
LWPOLYLINE
  5
497
100
AcDbEntity
  8
RACCORDO
100
AcDbPolyline
 62
250
  6
CONTINUOUS
 90
13
 70
0
 10
19.8279166136
 20
22.1234335762
 10
19.8275153454
 20
22.1887635964
 10
19.8270624083
 20
22.2495230049
 10
19.8265669245
 20
22.3053096627
 10
19.8260279055
 20
22.3557397057
 10
19.8254463399
 20
22.4004520107
 10
19.8248343158
 20
22.4391304731
 10
19.8241912263
 20
22.4715046233
 10
19.8235176783
 20
22.4973480136
 10
19.8228275813
 20
22.5164785851
 10
19.8221255716
 20
22.528763167
 10
19.8214070129
 20
22.534116987
 10
19.8212138155
 20
22.5343682637
  0
LINE
  5
498
100
AcDbEntity
  8
ASSI
100
AcDbLine
 62
250
  6
CONTINUOUS
 10
19.3290224887
 20
21.6898632344
 11
19.328708941
 21
21.7481543363
  0
LINE
  5
499
100
AcDbEntity
  8
ASSI
100
AcDbLine
 62
250
  6
CONTINUOUS
 10
19.8283719696
 20
22.0299521256
 11
19.8276549246
 21
22.167440647
  0
LINE
  5
49A
100
AcDbEntity
  8
RACCORDO
100
AcDbLine
 62
250
  6
CONTINUOUS
 10
19.8285623203
 20
21.9808654572
 11
19.8279166136
 21
22.1234335762
  0
LINE
  5
49B
100
AcDbEntity
  8
RACCORDO
100
AcDbLine
 62
250
  6
CONTINUOUS
 10
19.3291770944
 20
21.6409310512
 11
19.3288776707
 21
21.7202508796
  0
LINE
  5
49C
100
AcDbEntity
  8
ASSI
100
AcDbLine
 62
250
  6
CONTINUOUS
 10
19.8288681215
 20
21.8786880785
 11
19.8283719696
 21
22.0299521256
  0
LINE
  5
49D
100
AcDbEntity
  8
ASSI
100
AcDbLine
 62
250
  6
CONTINUOUS
 10
19.3292007368
 20
21.6300039407
 11
19.3290224887
 21
21.6898632344
  0
LINE
  5
49E
100
AcDbEntity
  8
RACCORDO
100
AcDbLine
 62
250
  6
CONTINUOUS
 10
19.8289800569
 20
21.8258901471
 11
19.8285623203
 21
21.9808654572
  0
LINE
  5
49F
100
AcDbEntity
  8
RACCORDO
100
AcDbLine
 62
250
  6
CONTINUOUS
 10
19.0900835565
 20
16.7566647448
 11
19.124485813
 21
0.6897271856
  0
LINE
  5
4A0
100
AcDbEntity
  8
RACCORDO
100
AcDbLine
 62
250
  6
CONTINUOUS
 10
19.8291634353
 20
21.662855175
 11
19.8289800569
 21
21.8258901471
  0
LWPOLYLINE
  5
4A1
100
AcDbEntity
  8
ASSI
100
AcDbPolyline
 62
250
  6
CONTINUOUS
 90
3
 70
0
 10
19.831038567
 20
18.9130889365
 10
19.8291292506
 20
21.7178375851
 10
19.8288681215
 20
21.8786880785
  0
LINE
  5
4A2
100
AcDbEntity
  8
ASSI
100
AcDbLine
 62
7
  6
CONTINUOUS
 10
19.0644364497
 20
16.7247502525
 11
19.0644364497
 21
-15.5145680796
  0
LINE
  5
4A3
100
AcDbEntity
  8
SUPERFICI
100
AcDbLine
 62
7
  6
CONTINUOUS
 10
19.0644364497
 20
16.7247502525
 11
19.0644364497
 21
-15.5145680796
  0
LINE
  5
4A4
100
AcDbEntity
  8
RACCORDO
100
AcDbLine
 62
7
  6
CONTINUOUS
 10
19.0644364497
 20
-15.5140767529
 11
19.0644364497
 21
16.7242589258
  0
LINE
  5
4A5
100
AcDbEntity
  8
RACCORDO
100
AcDbLine
 62
250
  6
CONTINUOUS
 10
19.124485813
 20
0.6897271856
 11
19.1245339667
 21
0.5880995188
  0
LINE
  5
4A6
100
AcDbEntity
  8
ASSI
100
AcDbLine
 62
7
  6
CONTINUOUS
 10
19.2144364497
 20
-20.9749995711
 11
19.2144364497
 21
21.6622472875
  0
LINE
  5
4A7
100
AcDbEntity
  8
RACCORDO
100
AcDbLine
 62
7
  6
CONTINUOUS
 10
19.2144364497
 20
-20.9749995711
 11
19.2144364497
 21
21.6622472875
  0
LWPOLYLINE
  5
4A8
100
AcDbEntity
  8
RACCORDO
100
AcDbPolyline
 62
250
  6
CONTINUOUS
 90
9
 70
0
 10
19.3322161811
 20
-15.1558857713
 10
19.3344486265
 20
-10.549223532
 10
19.3359369241
 20
-5.9456794608
 10
19.3366810744
 20
-1.3448561074
 10
19.3366810768
 20
3.252849078
 10
19.3359369295
 20
7.8462437445
 10
19.3344486319
 20
12.4349304417
 10
19.3322161847
 20
17.0193066199
 10
19.3291770944
 20
21.6409310512
  0
LWPOLYLINE
  5
4A9
100
AcDbEntity
  8
RACCORDO
100
AcDbPolyline
 62
250
  6
CONTINUOUS
 90
9
 70
0
 10
19.832140033
 20
-15.1298301011
 10
19.8343724813
 20
-10.5184138238
 10
19.8358607801
 20
-5.9097345397
 10
19.8366049294
 20
-1.3041857065
 10
19.8366049292
 20
3.2978395798
 10
19.8358607798
 20
7.8959486183
 10
19.834372481
 20
12.4897489475
 10
19.8321400328
 20
17.0788483795
 10
19.8291634353
 20
21.662855175
  0
LWPOLYLINE
  5
4AA
100
AcDbEntity
  8
ASSI
100
AcDbPolyline
 62
250
  6
CONTINUOUS
 90
15
 70
0
 10
19.3311144965
 20
-17.000259618
 10
19.3327216514
 20
-14.2356474368
 10
19.3340610526
 20
-11.4718296349
 10
19.3351327704
 20
-8.7086836184
 10
19.3359367343
 20
-5.9463319813
 10
19.3364727337
 20
-3.1851425048
 10
19.3367406981
 20
-0.4251205304
 10
19.3367406978
 20
2.3337392833
 10
19.336472733
 20
5.0910851798
 10
19.3359367332
 20
7.8469218515
 10
19.3351327689
 20
10.601244606
 10
19.3340610511
 20
13.3536876093
 10
19.3327216501
 20
16.104128917
 10
19.3311144957
 20
18.8526904736
 10
19.3292007368
 20
21.6300039407
  0
LWPOLYLINE
  5
4AB
100
AcDbEntity
  8
ASSI
100
AcDbPolyline
 62
250
  6
CONTINUOUS
 90
14
 70
0
 10
19.8310385694
 20
-16.9750753654
 10
19.8326458643
 20
-14.2073463271
 10
19.83398532
 20
-11.4404876686
 10
19.8350569654
 20
-8.6745823179
 10
19.8358607716
 20
-5.9097173786
 10
19.8363966518
 20
-3.1459841189
 10
19.836664577
 20
-0.3834725549
 10
19.8366645761
 20
2.3777375207
 10
19.8363966495
 20
5.1375702269
 10
19.835860768
 20
7.8959458815
 10
19.8350569608
 20
10.6527745691
 10
19.8339853151
 20
13.4079651234
 10
19.8326458603
 20
16.161430734
 10
19.831038567
 20
18.9130889365
  0
LINE
  5
4AC
100
AcDbEntity
  8
RACCORDO
100
AcDbLine
 62
250
  6
CONTINUOUS
 10
19.1245339667
 20
0.5880995188
 11
19.1244375643
 21
0.4865621388
  0
LINE
  5
4AD
100
AcDbEntity
  8
RACCORDO
100
AcDbLine
 62
250
  6
CONTINUOUS
 10
19.3291770944
 20
-19.8078490276
 11
19.3322161811
 21
-15.1558857713
  0
LINE
  5
4AE
100
AcDbEntity
  8
RACCORDO
100
AcDbLine
 62
250
  6
CONTINUOUS
 10
19.828980057
 20
-19.9102510511
 11
19.832140033
 21
-15.1298301011
  0
LINE
  5
4AF
100
AcDbEntity
  8
ASSI
100
AcDbLine
 62
250
  6
CONTINUOUS
 10
19.8289817836
 20
-19.9102841871
 11
19.8310385694
 21
-16.9750753654
  0
LINE
  5
4B0
100
AcDbEntity
  8
RACCORDO
100
AcDbLine
 62
250
  6
CONTINUOUS
 10
19.1244375643
 20
0.4865621388
 11
19.0900835565
 21
-15.5464825719
  0
LINE
  5
4B1
100
AcDbEntity
  8
ASSI
100
AcDbLine
 62
250
  6
CONTINUOUS
 10
19.3291283705
 20
-19.8275721373
 11
19.3311144965
 21
-17.000259618
  0
LINE
  5
4B2
100
AcDbEntity
  8
RACCORDO
100
AcDbLine
 62
250
  6
CONTINUOUS
 10
19.8285623203
 20
-20.0735997693
 11
19.828980057
 21
-19.9102510511
  0
LINE
  5
4B3
100
AcDbEntity
  8
ASSI
100
AcDbLine
 62
250
  6
CONTINUOUS
 10
19.8285628395
 20
-20.0735921326
 11
19.8289817836
 21
-19.9102841871
  0
LINE
  5
4B4
100
AcDbEntity
  8
RACCORDO
100
AcDbLine
 62
250
  6
CONTINUOUS
 10
19.3288776708
 20
-19.8901589901
 11
19.3291770944
 21
-19.8078490276
  0
LINE
  5
4B5
100
AcDbEntity
  8
ASSI
100
AcDbLine
 62
250
  6
CONTINUOUS
 10
19.8279168594
 20
-20.2290082293
 11
19.8285628395
 21
-20.0735921326
  0
LINE
  5
4B6
100
AcDbEntity
  8
ASSI
100
AcDbLine
 62
250
  6
CONTINUOUS
 10
19.328708941
 20
-19.9197474227
 11
19.3291283705
 21
-19.8275721373
  0
LINE
  5
4B7
100
AcDbEntity
  8
ASSI
100
AcDbLine
 62
250
  6
CONTINUOUS
 10
19.8270646181
 20
-20.3721845075
 11
19.8279168594
 21
-20.2290082293
  0
LINE
  5
4B8
100
AcDbEntity
  8
RACCORDO
100
AcDbLine
 62
250
  6
CONTINUOUS
 10
19.328341448
 20
-19.9702959438
 11
19.3288776708
 21
-19.8901589901
  0
LINE
  5
4B9
100
AcDbEntity
  8
ASSI
100
AcDbLine
 62
250
  6
CONTINUOUS
 10
19.3282663085
 20
-19.9791862656
 11
19.328708941
 21
-19.9197474227
  0
LWPOLYLINE
  5
4BA
100
AcDbEntity
  8
ASSI
100
AcDbPolyline
 62
250
  6
CONTINUOUS
 90
3
 70
0
 10
19.8256453156
 20
-20.5372266231
 10
19.8260269673
 20
-20.4991373962
 10
19.8270646181
 20
-20.3721845075
  0
LINE
  5
4BB
100
AcDbEntity
  8
ASSI
100
AcDbLine
 62
250
  6
CONTINUOUS
 10
19.3277000924
 20
-20.0357746865
 11
19.3282663085
 21
-19.9791862656
  0
LINE
  5
4BC
100
AcDbEntity
  8
ASSI
100
AcDbLine
 62
250
  6
CONTINUOUS
 10
19.3270216187
 20
-20.0882825539
 11
19.3277000924
 21
-20.0357746865
  0
LINE
  5
4BD
100
AcDbEntity
  8
ASSI
100
AcDbLine
 62
250
  6
CONTINUOUS
 10
19.32624275
 20
-20.1359573217
 11
19.3270216187
 21
-20.0882825539
  0
LINE
  5
4BE
100
AcDbEntity
  8
ASSI
100
AcDbLine
 62
250
  6
CONTINUOUS
 10
19.3253718881
 20
-20.1782845925
 11
19.32624275
 21
-20.1359573217
  0
LINE
  5
4BF
100
AcDbEntity
  8
RACCORDO
100
AcDbLine
 62
7
  6
CONTINUOUS
 10
19.0942601837
 20
16.8894743962
 11
19.0900835565
 21
16.7566647448
  0
LWPOLYLINE
  5
4C0
100
AcDbEntity
  8
ASSI
100
AcDbPolyline
 62
250
  6
CONTINUOUS
 90
6
 70
0
 10
19.3207480576
 20
22.0341962437
 10
19.3218326823
 20
22.0668247569
 10
19.3250520682
 20
22.0993105267
 10
19.3303924661
 20
22.1315145287
 10
19.3378310527
 20
22.1632989525
 10
19.3399237148
 20
22.1708445016
  0
LINE
  5
4C1
100
AcDbEntity
  8
ASSI
100
AcDbLine
 62
7
  6
CONTINUOUS
 10
19.0644364497
 20
16.7247502525
 11
19.0702056505
 21
16.8745361609
  0
LINE
  5
4C2
100
AcDbEntity
  8
SUPERFICI
100
AcDbLine
 62
7
  6
CONTINUOUS
 10
19.0644364497
 20
16.7247502525
 11
19.0702056505
 21
16.8745361609
  0
LWPOLYLINE
  5
4C3
100
AcDbEntity
  8
ASSI
100
AcDbPolyline
 62
250
  6
CONTINUOUS
 90
8
 70
0
 10
19.8244081172
 20
22.4614422832
 10
19.8239687328
 20
22.4808649989
 10
19.8235197277
 20
22.497354786
 10
19.8230608887
 20
22.5108604772
 10
19.8225924291
 20
22.521340767
 10
19.8221188507
 20
22.5287635827
 10
19.8216416542
 20
22.5331057888
 10
19.8212090433
 20
22.5343682624
  0
LINE
  5
4C4
100
AcDbEntity
  8
ASSI
100
AcDbLine
 62
250
  6
CONTINUOUS
 10
19.8252464086
 20
22.4140489743
 11
19.8244081172
 21
22.4614422832
  0
LWPOLYLINE
  5
4C5
100
AcDbEntity
  8
ASSI
100
AcDbPolyline
 62
250
  6
CONTINUOUS
 90
3
 70
0
 10
19.8263912214
 20
22.3227565717
 10
19.8260269673
 20
22.3557628664
 10
19.8252464086
 20
22.4140489743
  0
LINE
  5
4C6
100
AcDbEntity
  8
ASSI
100
AcDbLine
 62
250
  6
CONTINUOUS
 10
19.824834019
 20
-20.6063434163
 11
19.8256453156
 21
-20.5372266231
  0
LINE
  5
4C7
100
AcDbEntity
  8
ASSI
100
AcDbLine
 62
250
  6
CONTINUOUS
 10
19.8239687328
 20
-20.6653423751
 11
19.824834019
 21
-20.6063434163
  0
LWPOLYLINE
  5
4C8
100
AcDbEntity
  8
RACCORDO
100
AcDbPolyline
 62
250
  6
CONTINUOUS
 90
14
 70
0
 10
19.8206719052
 20
-20.7828355626
 10
19.8214070129
 20
-20.769931085
 10
19.8221255716
 20
-20.750191632
 10
19.8228275812
 20
-20.7237544156
 10
19.8235176783
 20
-20.6908025745
 10
19.8241912263
 20
-20.6515659428
 10
19.8248343158
 20
-20.6063207667
 10
19.8254463399
 20
-20.5553831029
 10
19.8260279055
 20
-20.4991087955
 10
19.8265669245
 20
-20.4378951429
 10
19.8270624082
 20
-20.3721793915
 10
19.8275153454
 20
-20.302412736
 10
19.8279166136
 20
-20.2290571852
 10
19.8285623203
 20
-20.0735997693
  0
LWPOLYLINE
  5
4C9
100
AcDbEntity
  8
ASSI
100
AcDbPolyline
 62
250
  6
CONTINUOUS
 90
7
 70
0
 10
19.8206719052
 20
-20.7828355626
 10
19.821159339
 20
-20.774997361
 10
19.8216416542
 20
-20.7641051066
 10
19.8221188506
 20
-20.7501927203
 10
19.822592429
 20
-20.7333037083
 10
19.8230608887
 20
-20.7134904052
 10
19.8239687328
 20
-20.6653423751
  0
LWPOLYLINE
  5
4CA
100
AcDbEntity
  8
RACCORDO
100
AcDbPolyline
 62
250
  6
CONTINUOUS
 90
13
 70
0
 10
19.3207480576
 20
-20.2852890961
 10
19.3214798498
 20
-20.2787459376
 10
19.3221961246
 20
-20.2689478046
 10
19.3228968819
 20
-20.255894697
 10
19.323587112
 20
-20.2394475859
 10
19.3242618246
 20
-20.2197455003
 10
19.3249060493
 20
-20.1972055269
 10
19.325518824
 20
-20.1717711251
 10
19.3261011107
 20
-20.1434988355
 10
19.3266408244
 20
-20.1129753668
 10
19.3271370195
 20
-20.0801582966
 10
19.3275906417
 20
-20.0450900474
 10
19.328341448
 20
-19.9702959438
  0
LWPOLYLINE
  5
4CB
100
AcDbEntity
  8
RACCORDO
100
AcDbPolyline
 62
250
  6
CONTINUOUS
 90
9
 70
0
 10
35.800421433
 20
22.6948446673
 10
35.8252645527
 20
22.7265042595
 10
35.8494429981
 20
22.7565016546
 10
35.8723098804
 20
22.784034279
 10
35.8932534011
 20
22.8083655032
 10
35.9117132209
 20
22.8288443507
 10
35.9271954513
 20
22.8449229144
 10
35.9392858687
 20
22.856171016
 10
35.9476609965
 20
22.8622877148
  0
LWPOLYLINE
  5
4CC
100
AcDbEntity
  8
RACCORDO
100
AcDbPolyline
 62
250
  6
CONTINUOUS
 90
9
 70
0
 10
35.800421433
 20
-21.4846624944
 10
35.8252641596
 20
-21.5163214616
 10
35.8494421434
 20
-21.546318172
 10
35.8723085266
 20
-21.5738500938
 10
35.8932515421
 20
-21.5981806379
 10
35.9117108807
 20
-21.6186588653
 10
35.9271926813
 20
-21.6347369014
 10
35.9392827438
 20
-21.6459845945
 10
35.9476576109
 20
-21.652101024
  0
LWPOLYLINE
  5
4CD
100
AcDbEntity
  8
ASSI
100
AcDbPolyline
 62
250
  6
CONTINUOUS
 90
9
 70
0
 10
19.3207480576
 20
-20.2852890961
 10
19.3212890144
 20
-20.2808453117
 10
19.3218252487
 20
-20.2745047351
 10
19.3223567604
 20
-20.2662673663
 10
19.3228863188
 20
-20.2560860175
 10
19.3234111547
 20
-20.2440078764
 10
19.3239229603
 20
-20.230174507
 10
19.3244211605
 20
-20.2145529206
 10
19.3253718881
 20
-20.1782845925
  0
LINE
  5
4CE
100
AcDbEntity
  8
ASSI
100
AcDbLine
 62
250
  6
CONTINUOUS
 10
19.2144364497
 20
-20.9749995711
 11
19.3207480576
 21
-20.2852890961
  0
LINE
  5
4CF
100
AcDbEntity
  8
RACCORDO
100
AcDbLine
 62
250
  6
CONTINUOUS
 10
19.2144364497
 20
-20.9749995711
 11
19.3207480576
 21
-20.2852890961
  0
LINE
  5
4D0
100
AcDbEntity
  8
ASSI
100
AcDbLine
 62
250
  6
CONTINUOUS
 10
19.7142841535
 20
-21.47304003
 11
19.8206719052
 21
-20.7828355626
  0
LINE
  5
4D1
100
AcDbEntity
  8
RACCORDO
100
AcDbLine
 62
250
  6
CONTINUOUS
 10
19.7142841535
 20
-21.47304003
 11
19.8206719052
 21
-20.7828355626
  0
LINE
  5
4D2
100
AcDbEntity
  8
ASSI
100
AcDbLine
 62
7
  6
CONTINUOUS
 10
26.8295641726
 20
23.0050910865
 11
26.851092086
 21
23.1050910865
  0
LINE
  5
4D3
100
AcDbEntity
  8
SUPERFICI
100
AcDbLine
 62
7
  6
CONTINUOUS
 10
26.8295641726
 20
23.0050910865
 11
26.851092086
 21
23.1050910865
  0
LINE
  5
4D4
100
AcDbEntity
  8
ASSI
100
AcDbLine
 62
7
  6
CONTINUOUS
 10
26.8295641726
 20
-21.7949089135
 11
26.851092086
 21
-21.8949089135
  0
LINE
  5
4D5
100
AcDbEntity
  8
SUPERFICI
100
AcDbLine
 62
7
  6
CONTINUOUS
 10
26.8295641726
 20
-21.7949089135
 11
26.851092086
 21
-21.8949089135
  0
LINE
  5
4D6
100
AcDbEntity
  8
RACCORDO
100
AcDbLine
 62
250
  6
CONTINUOUS
 10
24.781463493
 20
-21.5366075318
 11
24.781463493
 21
-21.7557975796
  0
LINE
  5
4D7
100
AcDbEntity
  8
RACCORDO
100
AcDbLine
 62
250
  6
CONTINUOUS
 10
24.781463493
 20
22.7467897047
 11
24.781463493
 21
22.9659797525
  0
LINE
  5
4D8
100
AcDbEntity
  8
ASSI
100
AcDbLine
 62
7
  6
CONTINUOUS
 10
26.74461619
 20
-21.7949089135
 11
26.74461619
 21
-21.8949089135
  0
LINE
  5
4D9
100
AcDbEntity
  8
SUPERFICI
100
AcDbLine
 62
7
  6
CONTINUOUS
 10
26.74461619
 20
-21.7949089135
 11
26.74461619
 21
-21.8949089135
  0
LINE
  5
4DA
100
AcDbEntity
  8
ASSI
100
AcDbLine
 62
7
  6
CONTINUOUS
 10
26.74461619
 20
23.0050910865
 11
26.74461619
 21
23.1050910865
  0
LINE
  5
4DB
100
AcDbEntity
  8
SUPERFICI
100
AcDbLine
 62
7
  6
CONTINUOUS
 10
26.74461619
 20
23.0050910865
 11
26.74461619
 21
23.1050910865
  0
LWPOLYLINE
  5
4DC
100
AcDbEntity
  8
0
100
AcDbPolyline
 62
7
  6
CONTINUOUS
 90
3
 70
0
 10
29.0223016721
 20
-13.1122481108
 10
29.0178149193
 20
-13.0651182978
 10
29.0152520337
 20
-13.019422957
  0
LWPOLYLINE
  5
4DD
100
AcDbEntity
  8
0
100
AcDbPolyline
 62
250
  6
CONTINUOUS
 90
3
 70
0
 10
28.9178379052
 20
-13.0668230955
 10
28.9149976861
 20
-13.0173477254
 10
28.9144364497
 20
-12.9693164604
  0
LINE
  5
4DE
100
AcDbEntity
  8
ASSI
100
AcDbLine
 62
7
  6
CONTINUOUS
 10
29.0160899042
 20
-13.0381395332
 11
29.0150393986
 21
-13.0132310492
  0
LINE
  5
4DF
100
AcDbEntity
  8
ASSI
100
AcDbLine
 62
250
  6
CONTINUOUS
 10
28.9162486389
 20
-13.0376445116
 11
28.9144364497
 21
-12.9693164604
  0
LWPOLYLINE
  5
4E0
100
AcDbEntity
  8
SCRITTE
100
AcDbPolyline
 62
250
  6
CONTINUOUS
 90
86
 70
0
 10
27.4644364497
 20
-6.9778439805
 10
27.4665434939
 20
-6.8695581729
 10
27.4728659256
 20
-6.762051205
 10
27.4834056931
 20
-6.655235329
 10
27.4981647446
 20
-6.5490227969
 10
27.5171450286
 20
-6.4433258609
 10
27.5403394409
 20
-6.3381152494
 10
27.5677046674
 20
-6.233595596
 10
27.5991883415
 20
-6.1300300103
 10
27.6347380967
 20
-6.0276816024
 10
27.6743015663
 20
-5.9268134819
 10
27.7178201107
 20
-5.8276673525
 10
27.7652099977
 20
-5.7303992937
 10
27.8163812219
 20
-5.6351439786
 10
27.871243778
 20
-5.5420360806
 10
27.9297076607
 20
-5.4512102728
 10
27.9916782603
 20
-5.36280021
 10
28.05704255
 20
-5.2769354723
 10
28.1256828988
 20
-5.1937446214
 10
28.1974816755
 20
-5.1133562189
 10
28.272321249
 20
-5.0358988264
 10
28.3500900251
 20
-4.961491105
 10
28.4307005569
 20
-4.8902121132
 10
28.5140714347
 20
-4.8221310092
 10
28.6001212484
 20
-4.757316951
 10
28.6887685883
 20
-4.6958390966
 10
28.7799327232
 20
-4.6377699573
 10
28.8735356381
 20
-4.5831954563
 10
28.9694999964
 20
-4.5322048701
 10
29.067748462
 20
-4.4848874753
 10
29.1682036985
 20
-4.4413325483
 10
29.2535173144
 20
-4.4079844432
 10
29.3400908625
 20
-4.3774177341
 10
29.4277055008
 20
-4.3497389947
 10
29.5160993747
 20
-4.3250434838
 10
29.6048385785
 20
-4.303381201
 10
29.6934461936
 20
-4.2847908311
 10
29.7815677987
 20
-4.2692863989
 10
29.8693389618
 20
-4.2567832893
 10
29.9570177479
 20
-4.2471722271
 10
30.0448078257
 20
-4.2403639696
 10
30.1326952766
 20
-4.236349403
 10
30.2206117857
 20
-4.2351394461
 10
30.3084913126
 20
-4.2367406849
 10
30.3962769153
 20
-4.2411423748
 10
30.4839139265
 20
-4.2483294384
 10
30.5714001163
 20
-4.2583072478
 10
30.6589430058
 20
-4.2711629711
 10
30.7468025537
 20
-4.2870042261
 10
30.83511785
 20
-4.3059147472
 10
30.9235445097
 20
-4.3278827366
 10
31.0116172792
 20
-4.3528725136
 10
31.0989022896
 20
-4.3808308362
 10
31.185091212
 20
-4.4116342184
 10
31.269907102
 20
-4.445141613
 10
31.353131389
 20
-4.481236291
 10
31.4347789959
 20
-4.5198987967
 10
31.5149232188
 20
-4.5611339926
 10
31.5936039717
 20
-4.6049303656
 10
31.6707276386
 20
-4.6512108989
 10
31.7461672214
 20
-4.6998822
 10
31.8343210521
 20
-4.7613304254
 10
31.9198162879
 20
-4.8260355722
 10
32.0026022926
 20
-4.8939463411
 10
32.0826284301
 20
-4.9650114331
 10
32.1598440642
 20
-5.039179549
 10
32.2341860931
 20
-5.116386039
 10
32.3055415525
 20
-5.1965128506
 10
32.3737850121
 20
-5.2794285808
 10
32.4387910419
 20
-5.3650018265
 10
32.5004342118
 20
-5.4531011847
 10
32.5585957201
 20
-5.5435960656
 10
32.6131832785
 20
-5.636359132
 10
32.6641112271
 20
-5.7312638603
 10
32.711293906
 20
-5.8281837267
 10
32.7546456552
 20
-5.9269922074
 10
32.7940856502
 20
-6.0275426336
 10
32.8295524079
 20
-6.1296077566
 10
32.8609892805
 20
-6.2329401825
 10
32.8883396204
 20
-6.3372925175
 10
32.9115467796
 20
-6.4424173679
 10
32.9305619846
 20
-6.5481223271
 10
32.9453679577
 20
-6.6544349379
 10
32.9559552953
 20
-6.7614377304
 10
32.9623145938
 20
-6.8692132346
 10
32.9644364497
 20
-6.9778439805
  0
LWPOLYLINE
  5
4E1
100
AcDbEntity
  8
RACCORDO
100
AcDbPolyline
 62
250
  6
CONTINUOUS
 90
6
 70
0
 10
41.2144364497
 20
0.4296842182
 10
41.2444929703
 20
0.4333477457
 10
41.269585533
 20
0.4376710933
 10
41.2882869431
 20
0.4424427114
 10
41.3000414036
 20
0.4475207889
 10
41.3044995785
 20
0.4527544072
  0
LWPOLYLINE
  5
4E2
100
AcDbEntity
  8
RACCORDO
100
AcDbPolyline
 62
250
  6
CONTINUOUS
 90
6
 70
0
 10
19.2144364497
 20
0.4296842188
 10
19.1843799544
 20
0.4333477421
 10
19.1592873851
 20
0.4376710895
 10
19.1405859666
 20
0.4424427081
 10
19.1288314989
 20
0.4475207869
 10
19.1243733209
 20
0.4527544072
  0
LINE
  5
4E3
100
AcDbEntity
  8
DRAFT
100
AcDbLine
 62
7
  6
CONTINUOUS
 10
31.2065805988
 20
-12.9198013675
 11
31.212643942
 21
-13.0205470381
  0
LWPOLYLINE
  5
4E4
100
AcDbEntity
  8
RACCORDO
100
AcDbPolyline
 62
250
  6
CONTINUOUS
 90
28
 70
0
 10
29.2205113638
 20
-12.97789897
 10
29.2221318465
 20
-13.0355888237
 10
29.2271238713
 20
-13.0930893706
 10
29.2354693817
 20
-13.1501962443
 10
29.247137383
 20
-13.2067090907
 10
29.2620879455
 20
-13.2624429073
 10
29.2802730233
 20
-13.3172191391
 10
29.3016347039
 20
-13.370858603
 10
29.3260989871
 20
-13.4231714442
 10
29.3535774792
 20
-13.4739691925
 10
29.3839711749
 20
-13.5230730373
 10
29.4171795219
 20
-13.570324335
 10
29.453096981
 20
-13.6155732098
 10
29.491608777
 20
-13.6586722413
 10
29.5325792634
 20
-13.6994669887
 10
29.5758583054
 20
-13.7378084964
 10
29.6212886318
 20
-13.7735610422
 10
29.6687233644
 20
-13.8066124698
 10
29.7180172126
 20
-13.836861587
 10
29.7690379739
 20
-13.8642214477
 10
29.8215810582
 20
-13.8885767106
 10
29.8753786499
 20
-13.9098106109
 10
29.930185363
 20
-13.9278480183
 10
29.9858667688
 20
-13.9426659211
 10
30.0423148855
 20
-13.9542434795
 10
30.0993677983
 20
-13.9625453269
 10
30.1568060895
 20
-13.9675374
 10
30.2144364497
 20
-13.9692032209
  0
LINE
  5
4E5
100
AcDbEntity
  8
0
100
AcDbLine
 62
7
  6
CONTINUOUS
 10
29.0152520337
 20
-13.019422957
 11
29.0144364497
 21
-12.975238713
  0
LINE
  5
4E6
100
AcDbEntity
  8
ASSI
100
AcDbLine
 62
7
  6
CONTINUOUS
 10
29.0150393986
 20
-13.0132310492
 11
29.0144364497
 21
-12.975238713
  0
LINE
  5
4E7
100
AcDbEntity
  8
SCRITTE
100
AcDbLine
 62
250
  6
CONTINUOUS
 10
30.2144364497
 20
11.1494092223
 11
30.2144364497
 21
16.1193100084
  0
LINE
  5
4E8
100
AcDbEntity
  8
ASSI
100
AcDbLine
 62
250
  6
CONTINUOUS
 10
28.9144364497
 20
-12.9693164604
 11
28.9161288828
 21
-12.9024928347
  0
LWPOLYLINE
  5
4E9
100
AcDbEntity
  8
ASSI
100
AcDbPolyline
 62
7
  6
CONTINUOUS
 90
60
 70
0
 10
29.0144364497
 20
-12.9752387153
 10
29.0160766264
 20
-12.912591685
 10
29.0209935699
 20
-12.8501090281
 10
29.0291751786
 20
-12.7879612524
 10
29.0406010952
 20
-12.7263144442
 10
29.0552410373
 20
-12.6653407657
 10
29.0730531928
 20
-12.6052175915
 10
29.093986313
 20
-12.5461150332
 10
29.117984595
 20
-12.4881880651
 10
29.1449864642
 20
-12.4315873897
 10
29.1749220513
 20
-12.3764631267
 10
29.207708174
 20
-12.3229716303
 10
29.2432515134
 20
-12.2712669705
 10
29.2814548369
 20
-12.2214903708
 10
29.3222134857
 20
-12.1737778918
 10
29.3654100598
 20
-12.1282665052
 10
29.410921544
 20
-12.0850831694
 10
29.4586259748
 20
-12.0443409887
 10
29.5083979042
 20
-12.0061465697
 10
29.5601025287
 20
-11.9706031883
 10
29.6135969774
 20
-11.9378088105
 10
29.6687367161
 20
-11.9078523803
 10
29.7253726324
 20
-11.8808151737
 10
29.7833482662
 20
-11.8567720678
 10
29.8425018863
 20
-11.8357902914
 10
29.9026702778
 20
-11.8179272342
 10
29.9636899202
 20
-11.8032308645
 10
30.0253943181
 20
-11.7917411244
 10
30.0876141684
 20
-11.7834892587
 10
30.1501796559
 20
-11.7784974487
 10
30.2129214735
 20
-11.7767791787
 10
30.2756681299
 20
-11.7783392746
 10
30.3382478062
 20
-11.7831735272
 10
30.4004906801
 20
-11.7912689833
 10
30.4622255514
 20
-11.802603715
 10
30.5232843258
 20
-11.817147127
 10
30.5835037134
 20
-11.8348608555
 10
30.6427185831
 20
-11.8556974571
 10
30.7007665873
 20
-11.8796008923
 10
30.7574922103
 20
-11.9065083262
 10
30.8127399355
 20
-11.9363480431
 10
30.8663570775
 20
-11.9690395994
 10
30.9181977957
 20
-12.0044959093
 10
30.9681195446
 20
-12.0426222475
 10
31.0159834285
 20
-12.083315321
 10
31.0616565917
 20
-12.1264643903
 10
31.1050128148
 20
-12.1719532847
 10
31.1459310969
 20
-12.2196581868
 10
31.1842960892
 20
-12.2694468263
 10
31.2200007812
 20
-12.3211831593
 10
31.2529461672
 20
-12.3747266506
 10
31.2830401012
 20
-12.429929839
 10
31.310198763
 20
-12.4866425417
 10
31.3343458189
 20
-12.5447091878
 10
31.3554127583
 20
-12.6039676882
 10
31.3733405564
 20
-12.6642557734
 10
31.3880787807
 20
-12.7254081056
 10
31.3995853969
 20
-12.7872534038
 10
31.4078279099
 20
-12.8496206997
 10
31.4127830542
 20
-12.9123399015
  0
LINE
  5
4EA
100
AcDbEntity
  8
ASSI
100
AcDbLine
 62
7
  6
CONTINUOUS
 10
29.01585355
 20
-13.0301477785
 11
29.0163125898
 21
-13.0139449567
  0
LWPOLYLINE
  5
4EB
100
AcDbEntity
  8
DRAFT
100
AcDbPolyline
 62
7
  6
CONTINUOUS
 90
29
 70
0
 10
29.2162427873
 20
-13.0206105855
 10
29.2144364497
 20
-13.0801674586
 10
29.2161415593
 20
-13.138024451
 10
29.2212227092
 20
-13.1958814434
 10
29.2296286312
 20
-13.2531544826
 10
29.2413930136
 20
-13.3098377078
 10
29.2564821681
 20
-13.3659369797
 10
29.2747437615
 20
-13.4208859276
 10
29.2962099023
 20
-13.4746728379
 10
29.320848482
 20
-13.5273094242
 10
29.3484108423
 20
-13.5782644563
 10
29.378926623
 20
-13.6275209558
 10
29.4123661843
 20
-13.6750959011
 10
29.4483919477
 20
-13.7205089975
 10
29.4870300938
 20
-13.7637383221
 10
29.528254442
 20
-13.8048057978
 10
29.5716488725
 20
-13.8432968985
 10
29.6172353563
 20
-13.8791855299
 10
29.6649919223
 20
-13.9124977864
 10
29.7144365375
 20
-13.9428974247
 10
29.765586333
 20
-13.9703549585
 10
29.8184241778
 20
-13.9948998743
 10
29.8724166457
 20
-14.0162843883
 10
29.927575381
 20
-14.0344764732
 10
29.9838887394
 20
-14.0495081564
 10
30.0407883614
 20
-14.0612277365
 10
30.0980847938
 20
-14.0695846463
 10
30.1559674899
 20
-14.0746294531
 10
30.2144364497
 20
-14.0763621567
  0
LINE
  5
4EC
100
AcDbEntity
  8
RACCORDO
100
AcDbLine
 62
250
  6
CONTINUOUS
 10
29.2222923
 20
-12.9198013775
 11
29.2205113638
 21
-12.97789897
  0
LWPOLYLINE
  5
4ED
100
AcDbEntity
  8
0
100
AcDbPolyline
 62
7
  6
CONTINUOUS
 90
46
 70
0
 10
29.0144364497
 20
-12.9752387153
 10
29.0186233776
 20
-12.8751977458
 10
29.0311667044
 20
-12.7757906815
 10
29.0519963237
 20
-12.6777125732
 10
29.0809956504
 20
-12.5816160778
 10
29.1179722699
 20
-12.4882155298
 10
29.1626308122
 20
-12.3982710331
 10
29.2146222745
 20
-12.3124491555
 10
29.2735943088
 20
-12.2312996043
 10
29.339153061
 20
-12.1553586606
 10
29.4108499845
 20
-12.0851479668
 10
29.4881747568
 20
-12.0211685376
 10
29.570584293
 20
-11.9638712001
 10
29.6575009148
 20
-11.9136565588
 10
29.7483163382
 20
-11.8708745049
 10
29.8423940914
 20
-11.8358253891
 10
29.9390760395
 20
-11.8087538163
 10
30.0376844873
 20
-11.789848492
 10
30.1375262999
 20
-11.7792419353
 10
30.2381334626
 20
-11.7770122496
 10
30.3385698414
 20
-11.7832074404
 10
30.4374453837
 20
-11.7976530231
 10
30.5345355731
 20
-11.8201986048
 10
30.6287599837
 20
-11.850472083
 10
30.7176675373
 20
-11.8872395141
 10
30.8005671304
 20
-11.929449689
 10
30.8776495684
 20
-11.9764278458
 10
30.948187486
 20
-12.0269013685
 10
31.0119496919
 20
-12.0797150628
 10
31.0694391139
 20
-12.1342844818
 10
31.1211834517
 20
-12.1902049443
 10
31.1673781302
 20
-12.2468222879
 10
31.2083148014
 20
-12.3036027078
 10
31.2445862889
 20
-12.3605312099
 10
31.2764736778
 20
-12.4172797902
 10
31.3041874364
 20
-12.4734106555
 10
31.328118746
 20
-12.5288863695
 10
31.3485111477
 20
-12.5834406812
 10
31.3656120277
 20
-12.6368297622
 10
31.3797464303
 20
-12.689131065
 10
31.3911314192
 20
-12.740168603
 10
31.3999866572
 20
-12.7897947661
 10
31.4065654326
 20
-12.8381828765
 10
31.411055526
 20
-12.885328097
 10
31.4136202821
 20
-12.9310389467
 10
31.4144364497
 20
-12.975238713
  0
LINE
  5
4EE
100
AcDbEntity
  8
0
100
AcDbLine
 62
250
  6
CONTINUOUS
 10
28.9144364497
 20
-12.9693164604
 11
28.9192037193
 21
-12.8596997911
  0
LINE
  5
4EF
100
AcDbEntity
  8
0
100
AcDbLine
 62
7
  6
CONTINUOUS
 10
29.0163393115
 20
-13.0388087331
 11
29.019289286
 21
-12.9746909981
  0
LINE
  5
4F0
100
AcDbEntity
  8
DRAFT
100
AcDbLine
 62
7
  6
CONTINUOUS
 10
29.2222923006
 20
-12.9198013675
 11
29.2162289574
 21
-13.0205470381
  0
LWPOLYLINE
  5
4F1
100
AcDbEntity
  8
ASSI
100
AcDbPolyline
 62
250
  6
CONTINUOUS
 90
59
 70
0
 10
28.9161288828
 20
-12.9024928347
 10
28.9212920346
 20
-12.835939882
 10
28.929925905
 20
-12.7696575971
 10
28.9420515159
 20
-12.7034128215
 10
28.9576478454
 20
-12.6374387069
 10
28.9766518285
 20
-12.572434697
 10
28.999119503
 20
-12.5084231606
 10
29.0249948312
 20
-12.4453816854
 10
29.0540466341
 20
-12.3839425126
 10
29.0862974798
 20
-12.3241571437
 10
29.1217248003
 20
-12.2659740076
 10
29.1600297135
 20
-12.2098707124
 10
29.2012251663
 20
-12.1558689565
 10
29.2452982118
 20
-12.1039469588
 10
29.2919111273
 20
-12.054517093
 10
29.3410964233
 20
-12.0075911326
 10
29.3928215893
 20
-11.9631572166
 10
29.4466513709
 20
-11.9215922559
 10
29.5026011721
 20
-11.8829237818
 10
29.5606555888
 20
-11.8471241783
 10
29.6203331546
 20
-11.8144876293
 10
29.6816435707
 20
-11.7850397451
 10
29.744577136
 20
-11.7587548428
 10
29.8086232799
 20
-11.7358501658
 10
29.8737935775
 20
-11.7163554923
 10
29.9400764538
 20
-11.7002409909
 10
30.0069266139
 20
-11.6876344939
 10
30.0743475928
 20
-11.6785628751
 10
30.1423358554
 20
-11.6729992323
 10
30.2103355016
 20
-11.6709907391
 10
30.2783464706
 20
-11.672566331
 10
30.3463688232
 20
-11.6776970719
 10
30.4138468421
 20
-11.6863433356
 10
30.4807748854
 20
-11.6985351466
 10
30.5471585951
 20
-11.7142425078
 10
30.6124591786
 20
-11.7333357661
 10
30.6766691888
 20
-11.7558393008
 10
30.7397960729
 20
-11.7817287851
 10
30.8013233809
 20
-11.8108015109
 10
30.8612386853
 20
-11.8430851834
 10
30.9195544135
 20
-11.8785521698
 10
30.9757913977
 20
-11.9169167558
 10
31.0299340942
 20
-11.9582034655
 10
31.0819980467
 20
-12.0023878598
 10
31.131550718
 20
-12.0491107735
 10
31.1785718277
 20
-12.0983934901
 10
31.2230816562
 20
-12.1502148151
 10
31.2647085075
 20
-12.2041518569
 10
31.3034291645
 20
-12.2602243216
 10
31.3392668444
 20
-12.3184125871
 10
31.3719195025
 20
-12.3782347524
 10
31.4013592593
 20
-12.4397022677
 10
31.4276139943
 20
-12.5028037533
 10
31.4504653015
 20
-12.5670230425
 10
31.4698858566
 20
-12.632390496
 10
31.485902984
 20
-12.6988758038
 10
31.4983802503
 20
-12.765871767
 10
31.5072721778
 20
-12.8331759868
 10
31.5126242443
 20
-12.9009908809
  0
LINE
  5
4F2
100
AcDbEntity
  8
ASSI
100
AcDbLine
 62
7
  6
CONTINUOUS
 10
29.0163125898
 20
-13.0139449567
 11
29.0217711018
 21
-12.9483395469
  0
LWPOLYLINE
  5
4F3
100
AcDbEntity
  8
RACCORDO
100
AcDbPolyline
 62
7
  6
CONTINUOUS
 90
28
 70
0
 10
29.2222923
 20
-12.9198013775
 10
29.2271717843
 20
-12.8646087214
 10
29.2351406854
 20
-12.8097721087
 10
29.2461741709
 20
-12.7554643424
 10
29.2602378113
 20
-12.7018556595
 10
29.2772877377
 20
-12.649113813
 10
29.2972708704
 20
-12.5974035511
 10
29.3201248563
 20
-12.5468867822
 10
29.3457782837
 20
-12.4977218131
 10
29.3741511445
 20
-12.4500624048
 10
29.4051548707
 20
-12.4040577671
 10
29.4386925308
 20
-12.3598521255
 10
29.4746593042
 20
-12.317583989
 10
29.5129428752
 20
-12.2773856935
 10
29.553423514
 20
-12.2393832895
 10
29.5959744243
 20
-12.2036960861
 10
29.6404626801
 20
-12.1704358224
 10
29.6867491247
 20
-12.1397068024
 10
29.7346884966
 20
-12.1116056694
 10
29.784130992
 20
-12.08622041
 10
29.8349219471
 20
-12.0636306351
 10
29.8869017082
 20
-12.0439074903
 10
29.9399077982
 20
-12.0271127217
 10
29.9937744165
 20
-12.0132989959
 10
30.0483320621
 20
-12.0025098515
 10
30.1034097697
 20
-11.9947790861
 10
30.15883567
 20
-11.990130855
 10
30.2144364496
 20
-11.9885797974
  0
LINE
  5
4F4
100
AcDbEntity
  8
ASSI
100
AcDbLine
 62
7
  6
CONTINUOUS
 10
33.6295641726
 20
23.0050910865
 11
33.651092086
 21
23.1050910865
  0
LINE
  5
4F5
100
AcDbEntity
  8
SUPERFICI
100
AcDbLine
 62
7
  6
CONTINUOUS
 10
33.6295641726
 20
23.0050910865
 11
33.651092086
 21
23.1050910865
  0
LWPOLYLINE
  5
4F6
100
AcDbEntity
  8
0
100
AcDbPolyline
 62
7
  6
CONTINUOUS
 90
2
 70
0
 43
0.3500000087
 10
48.6144361176
 20
-0.7520511887
 10
47.1144346527
 20
-0.7520511887
  0
LWPOLYLINE
  5
4F7
100
AcDbEntity
  8
0
100
AcDbPolyline
 62
7
  6
CONTINUOUS
 90
4
 70
0
 43
0.3500000087
 10
46.2572927856
 20
0.6050911667
 10
45.6144374512
 20
0.6050911667
 10
45.6144374512
 20
2.1050904999
 10
48.6144361176
 20
1.2479486328
  0
LINE
  5
4F8
100
AcDbEntity
  8
ASSI
100
AcDbLine
 62
7
  6
CONTINUOUS
 10
33.6295641726
 20
-21.7949089135
 11
33.651092086
 21
-21.8949089135
  0
LINE
  5
4F9
100
AcDbEntity
  8
SUPERFICI
100
AcDbLine
 62
7
  6
CONTINUOUS
 10
33.6295641726
 20
-21.7949089135
 11
33.651092086
 21
-21.8949089135
  0
LWPOLYLINE
  5
4FA
100
AcDbEntity
  8
ASSI
100
AcDbPolyline
 62
7
  6
CONTINUOUS
 90
4
 70
0
 10
31.3980609136
 20
-12.8833512294
 10
31.4071017975
 20
-12.9483395469
 10
31.4125603096
 20
-13.0139449567
 10
31.4126635056
 20
-13.017587489
  0
LINE
  5
4FB
100
AcDbEntity
  8
0
100
AcDbLine
 62
7
  6
CONTINUOUS
 10
31.3959539439
 20
-12.8715573339
 11
31.4095836134
 21
-12.9746909981
  0
LWPOLYLINE
  5
4FC
100
AcDbEntity
  8
0
100
AcDbPolyline
 62
250
  6
CONTINUOUS
 90
3
 70
0
 10
31.5110326026
 20
-12.8717759838
 10
31.5138749142
 20
-12.9212682472
 10
31.5144364497
 20
-12.9693164604
  0
LINE
  5
4FD
100
AcDbEntity
  8
0
100
AcDbLine
 62
7
  6
CONTINUOUS
 10
31.4095836134
 20
-12.9746909981
 11
31.4121364473
 21
-13.0301768759
  0
LWPOLYLINE
  5
4FE
100
AcDbEntity
  8
DRAFT
100
AcDbPolyline
 62
7
  6
CONTINUOUS
 90
29
 70
0
 10
31.2126301121
 20
-13.0206105855
 10
31.2144364497
 20
-13.0801674586
 10
31.2127313401
 20
-13.138024451
 10
31.2076501902
 20
-13.1958814434
 10
31.1992442682
 20
-13.2531544826
 10
31.1874798858
 20
-13.3098377078
 10
31.1723907313
 20
-13.3659369797
 10
31.1541291378
 20
-13.4208859276
 10
31.132662997
 20
-13.4746728379
 10
31.1080244173
 20
-13.5273094242
 10
31.0804620571
 20
-13.5782644563
 10
31.0499462763
 20
-13.6275209558
 10
31.0165067151
 20
-13.6750959011
 10
30.9804809517
 20
-13.7205089975
 10
30.9418428056
 20
-13.7637383221
 10
30.9006184573
 20
-13.8048057978
 10
30.8572240268
 20
-13.8432968985
 10
30.8116375431
 20
-13.8791855299
 10
30.7638809771
 20
-13.9124977864
 10
30.7144363619
 20
-13.9428974247
 10
30.6632865663
 20
-13.9703549585
 10
30.6104487215
 20
-13.9948998743
 10
30.5564562537
 20
-14.0162843883
 10
30.5012975183
 20
-14.0344764732
 10
30.44498416
 20
-14.0495081564
 10
30.388084538
 20
-14.0612277365
 10
30.3307881055
 20
-14.0695846463
 10
30.2729054094
 20
-14.0746294531
 10
30.2144364497
 20
-14.0763621567
  0
LINE
  5
4FF
100
AcDbEntity
  8
ASSI
100
AcDbLine
 62
250
  6
CONTINUOUS
 10
31.5126242443
 20
-12.9009908809
 11
31.5144364497
 21
-12.9693164604
  0
LINE
  5
500
100
AcDbEntity
  8
ASSI
100
AcDbLine
 62
7
  6
CONTINUOUS
 10
31.4127830542
 20
-12.9123399015
 11
31.4144364497
 21
-12.975238713
  0
LINE
  5
501
100
AcDbEntity
  8
ASSI
100
AcDbLine
 62
250
  6
CONTINUOUS
 10
31.5144364497
 20
-12.9693164604
 11
31.5127440276
 21
-13.0361429878
  0
LINE
  5
502
100
AcDbEntity
  8
ASSI
100
AcDbLine
 62
7
  6
CONTINUOUS
 10
31.4144364497
 20
-12.9752387106
 11
31.4127962333
 21
-13.0378873916
  0
LWPOLYLINE
  5
503
100
AcDbEntity
  8
RACCORDO
100
AcDbPolyline
 62
250
  6
CONTINUOUS
 90
3
 70
0
 10
31.2066041435
 20
-13.0379254002
 10
31.2083615355
 20
-12.9802203096
 10
31.2065805994
 20
-12.9198013775
  0
LINE
  5
504
100
AcDbEntity
  8
0
100
AcDbLine
 62
7
  6
CONTINUOUS
 10
31.4144364497
 20
-12.9752387106
 11
31.4102466831
 21
-13.0753160343
  0
LINE
  5
505
100
AcDbEntity
  8
0
100
AcDbLine
 62
250
  6
CONTINUOUS
 10
31.5144364497
 20
-12.9693164604
 11
31.5096659166
 21
-13.0789733295
  0
LWPOLYLINE
  5
506
100
AcDbEntity
  8
0
100
AcDbPolyline
 62
250
  6
CONTINUOUS
 90
43
 70
0
 10
28.9192037193
 20
-12.8596997911
 10
28.9327670072
 20
-12.752259971
 10
28.9551263135
 20
-12.6469969214
 10
28.9865699994
 20
-12.54317037
 10
29.0268097036
 20
-12.441520453
 10
29.0749803421
 20
-12.344267624
 10
29.13123406
 20
-12.2515540406
 10
29.1954187121
 20
-12.1632372449
 10
29.2662127787
 20
-12.0811106379
 10
29.3437587639
 20
-12.0052895252
 10
29.4279141637
 20
-11.9356582438
 10
29.5169299466
 20
-11.8736636672
 10
29.6109074538
 20
-11.8194659867
 10
29.7097453441
 20
-11.7729046821
 10
29.8113905616
 20
-11.7349455373
 10
29.9159024639
 20
-11.7057686031
 10
30.0232216934
 20
-11.685193613
 10
30.1311171208
 20
-11.6736458957
 10
30.2398274113
 20
-11.6714204721
 10
30.3491138998
 20
-11.6782222745
 10
30.4560294615
 20
-11.6935915395
 10
30.5607956367
 20
-11.7182217598
 10
30.663190885
 20
-11.7514195736
 10
30.7596034605
 20
-11.7906449445
 10
30.8491432848
 20
-11.8361119458
 10
30.9327004363
 20
-11.8876066951
 10
31.0093334047
 20
-11.9419471513
 10
31.07841014
 20
-11.9987395048
 10
31.1405626922
 20
-12.0583776752
 10
31.1967457012
 20
-12.1188611157
 10
31.2468872699
 20
-12.1798838401
 10
31.2910592953
 20
-12.241751866
 10
31.3304321084
 20
-12.3033825849
 10
31.3650762116
 20
-12.3646614293
 10
31.3949211025
 20
-12.4257029525
 10
31.4209256039
 20
-12.4857681871
 10
31.4431246039
 20
-12.5447344381
 10
31.4614832144
 20
-12.6027243549
 10
31.4768555948
 20
-12.659366963
 10
31.4892913136
 20
-12.7145707742
 10
31.4987408023
 20
-12.7684272199
 10
31.5059095149
 20
-12.8208396965
 10
31.5110326026
 20
-12.8717759838
  0
LINE
  5
507
100
AcDbEntity
  8
0
100
AcDbLine
 62
7
  6
CONTINUOUS
 10
29.019289286
 20
-12.9746909981
 11
29.0329189555
 21
-12.8715573339
  0
LINE
  5
508
100
AcDbEntity
  8
ASSI
100
AcDbLine
 62
7
  6
CONTINUOUS
 10
29.0217711018
 20
-12.9483395469
 11
29.0308119858
 21
-12.8833512294
  0
LWPOLYLINE
  5
509
100
AcDbEntity
  8
ASSI
100
AcDbPolyline
 62
7
  6
CONTINUOUS
 90
52
 70
0
 10
29.0308119858
 20
-12.8833512294
 10
29.0434792172
 20
-12.8188035185
 10
29.0597288204
 20
-12.7548728998
 10
29.0794288694
 20
-12.6920888301
 10
29.1026224092
 20
-12.6304282858
 10
29.1292663946
 20
-12.5699142904
 10
29.1590997644
 20
-12.5111453717
 10
29.1921435205
 20
-12.4541603698
 10
29.2283766609
 20
-12.3989204446
 10
29.267475118
 20
-12.3459076039
 10
29.3094574671
 20
-12.2951425205
 10
29.3543051328
 20
-12.2466045216
 10
29.4016383222
 20
-12.2007135967
 10
29.4515046511
 20
-12.1574749812
 10
29.5038565037
 20
-12.1168834397
 10
29.5581712397
 20
-12.0793432555
 10
29.6144383454
 20
-12.0449027323
 10
29.6726683345
 20
-12.0135135662
 10
29.7323701083
 20
-11.9854351295
 10
29.7935686045
 20
-11.9606871257
 10
29.8562388853
 20
-11.9392498512
 10
29.9198150385
 20
-11.9213235678
 10
29.9843196623
 20
-11.9069411879
 10
30.0497301584
 20
-11.896069799
 10
30.1154128191
 20
-11.8888109259
 10
30.1813378513
 20
-11.8851984102
 10
30.2475350481
 20
-11.8851984102
 10
30.3134600803
 20
-11.8888109259
 10
30.3791427409
 20
-11.896069799
 10
30.444553237
 20
-11.9069411879
 10
30.5090578609
 20
-11.9213235678
 10
30.572634014
 20
-11.9392498512
 10
30.6353042949
 20
-11.9606871257
 10
30.6965027911
 20
-11.9854351295
 10
30.7562045649
 20
-12.0135135662
 10
30.814434554
 20
-12.0449027323
 10
30.8707016596
 20
-12.0793432555
 10
30.9250163957
 20
-12.1168834397
 10
30.9773682483
 20
-12.1574749812
 10
31.0272345771
 20
-12.2007135967
 10
31.0745677666
 20
-12.2466045216
 10
31.1194154323
 20
-12.2951425205
 10
31.1613977813
 20
-12.3459076039
 10
31.2004962385
 20
-12.3989204446
 10
31.2367293789
 20
-12.4541603698
 10
31.269773135
 20
-12.5111453717
 10
31.2996065047
 20
-12.5699142904
 10
31.3262504902
 20
-12.6304282858
 10
31.3494440299
 20
-12.6920888301
 10
31.3691440789
 20
-12.7548728998
 10
31.3853936822
 20
-12.8188035185
 10
31.3980609136
 20
-12.8833512294
  0
LINE
  5
50A
100
AcDbEntity
  8
ASSI
100
AcDbLine
 62
7
  6
CONTINUOUS
 10
26.7993087267
 20
-21.7949089135
 11
26.7777808133
 21
-21.8949089135
  0
LINE
  5
50B
100
AcDbEntity
  8
SUPERFICI
100
AcDbLine
 62
7
  6
CONTINUOUS
 10
26.7993087267
 20
-21.7949089135
 11
26.7777808133
 21
-21.8949089135
  0
LWPOLYLINE
  5
50C
100
AcDbEntity
  8
0
100
AcDbPolyline
 62
7
  6
CONTINUOUS
 90
33
 70
0
 10
29.0329189555
 20
-12.8715573339
 10
29.0553254581
 20
-12.770766466
 10
29.0868113739
 20
-12.6715906815
 10
29.1270741229
 20
-12.5747576932
 10
29.1752059651
 20
-12.4824506397
 10
29.231385656
 20
-12.3947723328
 10
29.2954344402
 20
-12.3116199606
 10
29.3659083123
 20
-12.2348682269
 10
29.4429532251
 20
-12.1646625292
 10
29.5264232258
 20
-12.10085747
 10
29.6144364497
 20
-12.0448915598
 10
29.7070961011
 20
-11.9969428737
 10
29.8042989756
 20
-11.9568333367
 10
29.9038535956
 20
-11.9254672343
 10
30.0058133834
 20
-11.9030431835
 10
30.1101249165
 20
-11.8893625674
 10
30.2144364497
 20
-11.8847338209
 10
30.3187479828
 20
-11.8893625674
 10
30.423059516
 20
-11.9030431835
 10
30.5250193038
 20
-11.9254672343
 10
30.6245739237
 20
-11.9568333367
 10
30.7217767983
 20
-11.9969428737
 10
30.8144364497
 20
-12.0448915598
 10
30.9024496735
 20
-12.10085747
 10
30.9859196742
 20
-12.1646625292
 10
31.0629645871
 20
-12.2348682269
 10
31.1334384591
 20
-12.3116199606
 10
31.1974872434
 20
-12.3947723328
 10
31.2536669342
 20
-12.4824506397
 10
31.3017987765
 20
-12.5747576932
 10
31.3420615255
 20
-12.6715906815
 10
31.3735474412
 20
-12.770766466
 10
31.3959539439
 20
-12.8715573339
  0
LWPOLYLINE
  5
50D
100
AcDbEntity
  8
RACCORDO
100
AcDbPolyline
 62
250
  6
CONTINUOUS
 90
6
 70
0
 10
19.2144364497
 20
0.7804979552
 10
19.1843799065
 20
0.776834424
 10
19.1592873498
 20
0.7725110762
 10
19.1405859471
 20
0.7677394586
 10
19.1288314929
 20
0.7626613822
 10
19.1243733209
 20
0.7574277657
  0
LWPOLYLINE
  5
50E
100
AcDbEntity
  8
RACCORDO
100
AcDbPolyline
 62
250
  6
CONTINUOUS
 90
6
 70
0
 10
41.2144364497
 20
0.7804979541
 10
41.2444929449
 20
0.7768344308
 10
41.2695855143
 20
0.7725110834
 10
41.2882869328
 20
0.7677394649
 10
41.3000414005
 20
0.762661386
 10
41.3044995785
 20
0.7574277657
  0
LINE
  5
50F
100
AcDbEntity
  8
ASSI
100
AcDbLine
 62
7
  6
CONTINUOUS
 10
26.7993087267
 20
23.0050910865
 11
26.7777808133
 21
23.1050910865
  0
LINE
  5
510
100
AcDbEntity
  8
SUPERFICI
100
AcDbLine
 62
7
  6
CONTINUOUS
 10
26.7993087267
 20
23.0050910865
 11
26.7777808133
 21
23.1050910865
  0
LINE
  5
511
100
AcDbEntity
  8
ASSI
100
AcDbLine
 62
7
  6
CONTINUOUS
 10
33.6842567094
 20
23.1050910865
 11
33.6842567094
 21
23.0050910865
  0
LINE
  5
512
100
AcDbEntity
  8
SUPERFICI
100
AcDbLine
 62
7
  6
CONTINUOUS
 10
33.6842567094
 20
23.1050910865
 11
33.6842567094
 21
23.0050910865
  0
LINE
  5
513
100
AcDbEntity
  8
ASSI
100
AcDbLine
 62
7
  6
CONTINUOUS
 10
33.6842567094
 20
-21.8949089135
 11
33.6842567094
 21
-21.7949089135
  0
LINE
  5
514
100
AcDbEntity
  8
SUPERFICI
100
AcDbLine
 62
7
  6
CONTINUOUS
 10
33.6842567094
 20
-21.8949089135
 11
33.6842567094
 21
-21.7949089135
  0
LWPOLYLINE
  5
515
100
AcDbEntity
  8
SCRITTE
100
AcDbPolyline
 62
250
  6
CONTINUOUS
 90
86
 70
0
 10
32.9644364497
 20
-6.9778439805
 10
32.9623304266
 20
-7.0861059042
 10
32.9560110482
 20
-7.1935932604
 10
32.9454763508
 20
-7.3003937789
 10
32.9307243709
 20
-7.4065951895
 10
32.9117531447
 20
-7.5122852222
 10
32.8885697816
 20
-7.6174930989
 10
32.8612176827
 20
-7.7220140102
 10
32.8297493223
 20
-7.825584639
 10
32.7942171743
 20
-7.9279416679
 10
32.7546737129
 20
-8.0288217798
 10
32.7111776367
 20
-8.1279831127
 10
32.6638125422
 20
-8.2252696262
 10
32.6126682501
 20
-8.3205467353
 10
32.5578345814
 20
-8.4136798547
 10
32.4994013568
 20
-8.5045343995
 10
32.437463075
 20
-8.5929767066
 10
32.3721329451
 20
-8.6788768013
 10
32.3035288541
 20
-8.7621056309
 10
32.2317686888
 20
-8.8425341429
 10
32.1569703362
 20
-8.9200332847
 10
32.079245523
 20
-8.9944840232
 10
31.998681335
 20
-9.0658074036
 10
31.915358698
 20
-9.1339344908
 10
31.8293585375
 20
-9.1987963496
 10
31.7407617795
 20
-9.2603240448
 10
31.6496487367
 20
-9.3184451998
 10
31.5560972718
 20
-9.373073672
 10
31.4601846346
 20
-9.4241198773
 10
31.3619880747
 20
-9.4714942315
 10
31.2615848421
 20
-9.5151071508
 10
31.1763143614
 20
-9.5485042072
 10
31.0897826233
 20
-9.5791205381
 10
31.0022071362
 20
-9.6068497368
 10
30.9138480246
 20
-9.6315966075
 10
30.825135876
 20
-9.6533107981
 10
30.7365438937
 20
-9.6719531672
 10
30.6484239521
 20
-9.6875091106
 10
30.560642609
 20
-9.7000621713
 10
30.4729450929
 20
-9.7097204293
 10
30.3851301918
 20
-9.7165720429
 10
30.2972109303
 20
-9.7206254836
 10
30.2092538921
 20
-9.7218693014
 10
30.1213241703
 20
-9.7202963729
 10
30.033480895
 20
-9.7159168811
 10
29.9457817056
 20
-9.708745336
 10
29.8582320864
 20
-9.6987761296
 10
29.7706289018
 20
-9.6859231838
 10
29.6827168612
 20
-9.6700803027
 10
29.5943601041
 20
-9.6511649048
 10
29.5059004903
 20
-9.6291888646
 10
29.4177993095
 20
-9.6041876709
 10
29.3304870526
 20
-9.5762143803
 10
29.2442710146
 20
-9.5453923203
 10
29.1594276914
 20
-9.5118623862
 10
29.0761753498
 20
-9.4757412308
 10
28.9944993397
 20
-9.4370485371
 10
28.9143267818
 20
-9.3957797457
 10
28.835618061
 20
-9.3519466153
 10
28.7584666194
 20
-9.3056261773
 10
28.6829991634
 20
-9.2569117812
 10
28.5948114704
 20
-9.1954076042
 10
28.5092820657
 20
-9.1306419795
 10
28.426461841
 20
-9.0626663357
 10
28.346401688
 20
-8.9915321016
 10
28.2691524984
 20
-8.9172907058
 10
28.194777692
 20
-8.840007076
 10
28.1233908005
 20
-8.7598001367
 10
28.0551178837
 20
-8.6768023113
 10
27.9900850014
 20
-8.5911460235
 10
27.9284182133
 20
-8.5029636968
 10
27.870236859
 20
-8.4123869683
 10
27.815633397
 20
-8.3195443298
 10
27.7646935657
 20
-8.2245634868
 10
27.7175031034
 20
-8.1275721447
 10
27.6741477485
 20
-8.0286980089
 10
27.6347082908
 20
-7.9280890558
 10
27.5992457272
 20
-7.8259743456
 10
27.567816106
 20
-7.7226032095
 10
27.5404754753
 20
-7.6182249786
 10
27.5172798837
 20
-7.5130889842
 10
27.4982773574
 20
-7.4073891559
 10
27.4834838346
 20
-7.3010978184
 10
27.4729072316
 20
-7.1941318946
 10
27.4665554645
 20
-7.0864083076
 10
27.4644364497
 20
-6.9778439805
  0
LWPOLYLINE
  5
516
100
AcDbEntity
  8
ASSI
100
AcDbPolyline
 62
250
  6
CONTINUOUS
 90
59
 70
0
 10
31.5127440276
 20
-13.0361429878
 10
31.5075804753
 20
-13.1027008086
 10
31.4989457928
 20
-13.1689899152
 10
31.4868189806
 20
-13.2352436424
 10
31.4712210382
 20
-13.3012286441
 10
31.4522149643
 20
-13.3662448754
 10
31.4297446343
 20
-13.4302699155
 10
31.4038661728
 20
-13.4933261388
 10
31.3748109515
 20
-13.5547806635
 10
31.3425563597
 20
-13.6145818786
 10
31.307125008
 20
-13.6727813247
 10
31.2688161008
 20
-13.7289008255
 10
31.2276166818
 20
-13.7829184972
 10
31.1835397073
 20
-13.8348561424
 10
31.1369232499
 20
-13.8843010999
 10
31.0877347878
 20
-13.9312414732
 10
31.0360068428
 20
-13.9756890746
 10
30.9821750534
 20
-14.0172667965
 10
30.926224071
 20
-14.0559469549
 10
30.8681692441
 20
-14.0917571538
 10
30.8084922568
 20
-14.1244032112
 10
30.747183505
 20
-14.1538593659
 10
30.6842525927
 20
-14.1801513115
 10
30.6202100163
 20
-14.2030620485
 10
30.5550443045
 20
-14.2225617671
 10
30.4887669286
 20
-14.2386802279
 10
30.4219227982
 20
-14.2512897912
 10
30.3545084205
 20
-14.2603636066
 10
30.2865272884
 20
-14.2659284985
 10
30.2185347901
 20
-14.2679373445
 10
30.1505309986
 20
-14.2663612366
 10
30.082515841
 20
-14.2612290824
 10
30.0150444873
 20
-14.2525804894
 10
29.9481225167
 20
-14.2403855448
 10
29.8817443501
 20
-14.2246741866
 10
29.8164484192
 20
-14.2055758042
 10
29.7522420797
 20
-14.1830660471
 10
29.689117976
 20
-14.1571693143
 10
29.6275924739
 20
-14.1280881227
 10
29.5676779127
 20
-14.0957947887
 10
29.5093619531
 20
-14.0603170633
 10
29.4531239425
 20
-14.0219406157
 10
29.3989793498
 20
-13.9806409312
 10
29.3469127061
 20
-13.9364426047
 10
29.2973569519
 20
-13.8897049647
 10
29.2503323605
 20
-13.8404067145
 10
29.2058186586
 20
-13.7885692363
 10
29.1641879663
 20
-13.734615867
 10
29.1254635392
 20
-13.6785269148
 10
29.0896221218
 20
-13.620322154
 10
29.0569660675
 20
-13.5604841063
 10
29.0275233272
 20
-13.4990013818
 10
29.00126595
 20
-13.4358854416
 10
28.9784124373
 20
-13.3716530651
 10
28.9589901811
 20
-13.3062740028
 10
28.9429717893
 20
-13.2397785578
 10
28.9304935878
 20
-13.1727743136
 10
28.9216010183
 20
-13.1054638005
 10
28.9162486389
 20
-13.0376445116
  0
LWPOLYLINE
  5
517
100
AcDbEntity
  8
ASSI
100
AcDbPolyline
 62
7
  6
CONTINUOUS
 90
3
 70
0
 10
31.4127962333
 20
-13.0378873916
 10
31.407879102
 20
-13.1003738652
 10
31.4067052508
 20
-13.1110801115
  0
LINE
  5
518
100
AcDbEntity
  8
0
100
AcDbLine
 62
7
  6
CONTINUOUS
 10
31.4102466831
 20
-13.0753160343
 11
31.3976948146
 21
-13.1747626599
  0
LWPOLYLINE
  5
519
100
AcDbEntity
  8
0
100
AcDbPolyline
 62
250
  6
CONTINUOUS
 90
43
 70
0
 10
31.5096659166
 20
-13.0789733295
 10
31.4960933831
 20
-13.1864552987
 10
31.4737188492
 20
-13.2917622802
 10
31.4422532664
 20
-13.3956357614
 10
31.4019856832
 20
-13.4973341032
 10
31.3537832453
 20
-13.5946324523
 10
31.2974935104
 20
-13.6873876281
 10
31.2332689208
 20
-13.775742509
 10
31.1624339501
 20
-13.8579012077
 10
31.084846186
 20
-13.9337474771
 10
31.0006480407
 20
-14.0033972193
 10
30.9115912242
 20
-14.0654027026
 10
30.8175750476
 20
-14.1196029731
 10
30.7187001998
 20
-14.1661586757
 10
30.6170204575
 20
-14.2041044573
 10
30.5124762706
 20
-14.2332600922
 10
30.4051271891
 20
-14.253805607
 10
30.2972056396
 20
-14.2653160469
 10
30.1884701486
 20
-14.2674945501
 10
30.0791621896
 20
-14.2606379358
 10
29.9722386091
 20
-14.2452118078
 10
29.8674823617
 20
-14.2205216563
 10
29.7651104929
 20
-14.1872621117
 10
29.6687309862
 20
-14.1479824956
 10
29.5792363953
 20
-14.102472248
 10
29.4957341664
 20
-14.0509421062
 10
29.4191546214
 20
-13.9965732731
 10
29.3501270255
 20
-13.9397604059
 10
29.2880221135
 20
-13.8801089524
 10
29.2318824116
 20
-13.8196162091
 10
29.1817785481
 20
-13.7585873218
 10
29.1376398947
 20
-13.6967171777
 10
29.0982970928
 20
-13.6350876219
 10
29.0636798319
 20
-13.5738133156
 10
29.0338584225
 20
-13.5127795876
 10
29.0078744381
 20
-13.4527242453
 10
28.9856929399
 20
-13.3937698737
 10
28.9673488666
 20
-13.3357938471
 10
28.9519886077
 20
-13.2791661338
 10
28.9395625703
 20
-13.2239780534
 10
28.9301203473
 20
-13.1701382333
 10
28.9229571069
 20
-13.1177425954
 10
28.9178379052
 20
-13.0668230955
  0
LWPOLYLINE
  5
51A
100
AcDbEntity
  8
ASSI
100
AcDbPolyline
 62
7
  6
CONTINUOUS
 90
3
 70
0
 10
31.4067052508
 20
-13.1110801115
 10
31.3996970557
 20
-13.1625276044
 10
31.3982612931
 20
-13.1702745334
  0
LWPOLYLINE
  5
51B
100
AcDbEntity
  8
ASSI
100
AcDbPolyline
 62
7
  6
CONTINUOUS
 90
37
 70
0
 10
31.406678862
 20
-13.1110204505
 10
31.3942914711
 20
-13.1937678249
 10
31.3720657918
 20
-13.2908501784
 10
31.3418154477
 20
-13.3857610338
 10
31.3037484684
 20
-13.4779055718
 10
31.2580946667
 20
-13.5666612116
 10
31.2051308364
 20
-13.6514024413
 10
31.1452153469
 20
-13.7315588938
 10
31.0787180459
 20
-13.8065564483
 10
31.0060744727
 20
-13.8758133054
 10
30.9278312613
 20
-13.9388181808
 10
30.8445281178
 20
-13.9951023786
 10
30.7567190546
 20
-14.0442425652
 10
30.6650495761
 20
-14.0858950235
 10
30.5701594202
 20
-14.1197431753
 10
30.4727033058
 20
-14.1455148694
 10
30.373394616
 20
-14.1630438711
 10
30.2729367769
 20
-14.1721879823
 10
30.1720337623
 20
-14.1728536127
 10
30.0714147877
 20
-14.1650628465
 10
29.9717989372
 20
-14.148857062
 10
29.8738931737
 20
-14.1243273336
 10
29.7783949172
 20
-14.0916818893
 10
29.68599105
 20
-14.0511445111
 10
29.5973431013
 20
-14.0029901947
 10
29.5130717311
 20
-13.9475922179
 10
29.4337776442
 20
-13.8853317743
 10
29.3600177952
 20
-13.8166578321
 10
29.2923187179
 20
-13.7420828842
 10
29.2311591966
 20
-13.6621367344
 10
29.1769477005
 20
-13.5773918228
 10
29.1300662496
 20
-13.4884495401
 10
29.0908280482
 20
-13.395945946
 10
29.0595006308
 20
-13.3005307216
 10
29.0362900338
 20
-13.2028774032
 10
29.0213485817
 20
-13.1036623599
 10
29.0150400594
 20
-13.0132144839
  0
LINE
  5
51C
100
AcDbEntity
  8
RACCORDO
100
AcDbLine
 62
250
  6
CONTINUOUS
 10
35.6474094063
 20
-21.5366075318
 11
35.6474094063
 21
-21.7557975796
  0
LINE
  5
51D
100
AcDbEntity
  8
RACCORDO
100
AcDbLine
 62
250
  6
CONTINUOUS
 10
35.6474094063
 20
22.7467897047
 11
35.6474094063
 21
22.9659797525
  0
LINE
  5
51E
100
AcDbEntity
  8
ASSI
100
AcDbLine
 62
250
  6
CONTINUOUS
 10
40.7145887458
 20
-21.47304003
 11
40.6082009942
 21
-20.7828355626
  0
LINE
  5
51F
100
AcDbEntity
  8
RACCORDO
100
AcDbLine
 62
250
  6
CONTINUOUS
 10
40.7145887458
 20
-21.47304003
 11
40.6082009942
 21
-20.7828355626
  0
LINE
  5
520
100
AcDbEntity
  8
ASSI
100
AcDbLine
 62
7
  6
CONTINUOUS
 10
33.5993087267
 20
-21.7949089135
 11
33.5777808133
 21
-21.8949089135
  0
LINE
  5
521
100
AcDbEntity
  8
SUPERFICI
100
AcDbLine
 62
7
  6
CONTINUOUS
 10
33.5993087267
 20
-21.7949089135
 11
33.5777808133
 21
-21.8949089135
  0
LWPOLYLINE
  5
522
100
AcDbEntity
  8
ASSI
100
AcDbPolyline
 62
250
  6
CONTINUOUS
 90
24
 70
0
 10
19.3292395877
 20
-19.7656661785
 10
19.330850202
 20
-19.7641913754
 10
19.3345475158
 20
-19.7627259292
 10
19.3403160619
 20
-19.7612759766
 10
19.3481317009
 20
-19.7598475893
 10
19.3579617184
 20
-19.7584467491
 10
19.369764958
 20
-19.7570793232
 10
19.3834920035
 20
-19.755751038
 10
19.3990853821
 20
-19.7544674561
 10
19.4164797941
 20
-19.7532339536
 10
19.4356024066
 20
-19.7520556961
 10
19.4563731459
 20
-19.7509376181
 10
19.4787050177
 20
-19.7498844029
 10
19.5025045039
 20
-19.7489004611
 10
19.5276719436
 20
-19.7479899131
 10
19.554101928
 20
-19.7471565728
 10
19.5816837697
 20
-19.7464039298
 10
19.6103019704
 20
-19.7457351359
 10
19.6398366889
 20
-19.7451529916
 10
19.6701642423
 20
-19.7446599346
 10
19.7011576296
 20
-19.7442580297
 10
19.7326870666
 20
-19.7439489598
 10
19.7646205207
 20
-19.7437340191
 10
19.7968242632
 20
-19.7436141078
  0
LINE
  5
523
100
AcDbEntity
  8
ASSI
100
AcDbLine
 62
7
  6
CONTINUOUS
 10
33.5993087267
 20
23.0050910865
 11
33.5777808133
 21
23.1050910865
  0
LINE
  5
524
100
AcDbEntity
  8
SUPERFICI
100
AcDbLine
 62
7
  6
CONTINUOUS
 10
33.5993087267
 20
23.0050910865
 11
33.5777808133
 21
23.1050910865
  0
LINE
  5
525
100
AcDbEntity
  8
ASSI
100
AcDbLine
 62
250
  6
CONTINUOUS
 10
41.2144364497
 20
-20.9749995711
 11
41.1081248418
 21
-20.2852890961
  0
LINE
  5
526
100
AcDbEntity
  8
RACCORDO
100
AcDbLine
 62
250
  6
CONTINUOUS
 10
41.2144364497
 20
-20.9749995711
 11
41.1081248418
 21
-20.2852890961
  0
LWPOLYLINE
  5
527
100
AcDbEntity
  8
ASSI
100
AcDbPolyline
 62
250
  6
CONTINUOUS
 90
7
 70
0
 10
41.1081248418
 20
-20.2852890961
 10
41.1075839374
 20
-20.2808451844
 10
41.1070477747
 20
-20.2745056156
 10
41.1065163536
 20
-20.2662703897
 10
41.1059869188
 20
-20.2560923808
 10
41.1054622257
 20
-20.2440187149
 10
41.1049505405
 20
-20.2301907695
  0
LWPOLYLINE
  5
528
100
AcDbEntity
  8
RACCORDO
100
AcDbPolyline
 62
250
  6
CONTINUOUS
 90
12
 70
0
 10
41.1081248418
 20
-20.2852890961
 10
41.1073919861
 20
-20.2787291291
 10
41.1066748691
 20
-20.2689132023
 10
41.1059734905
 20
-20.2558413155
 10
41.1052829028
 20
-20.239373776
 10
41.1046080537
 20
-20.2196502765
 10
41.103963786
 20
-20.1970898955
 10
41.1033510537
 20
-20.1716383546
 10
41.1027689028
 20
-20.1433499322
 10
41.1022293145
 20
-20.1128065411
 10
41.101733162
 20
-20.0799604917
 10
41.1012795721
 20
-20.0448594737
  0
LWPOLYLINE
  5
529
100
AcDbEntity
  8
ASSI
100
AcDbPolyline
 62
250
  6
CONTINUOUS
 90
5
 70
0
 10
40.6082009942
 20
-20.7828355626
 10
40.6077135733
 20
-20.7749971421
 10
40.6072312776
 20
-20.7641046596
 10
40.6067541071
 20
-20.7501921352
 10
40.6062805891
 20
-20.7333032934
  0
LWPOLYLINE
  5
52A
100
AcDbEntity
  8
RACCORDO
100
AcDbPolyline
 62
250
  6
CONTINUOUS
 90
12
 70
0
 10
40.6082009942
 20
-20.7828355626
 10
40.6074659108
 20
-20.7699324713
 10
40.60674734
 20
-20.7501947758
 10
40.6060452818
 20
-20.7237589796
 10
40.6053550601
 20
-20.690806251
 10
40.604681351
 20
-20.6515666325
 10
40.6040381826
 20
-20.6063209654
 10
40.603426255
 20
-20.5553922239
 10
40.602844868
 20
-20.4991328537
 10
40.6023059494
 20
-20.4379278141
 10
40.601810382
 20
-20.3722014607
 10
40.6013572829
 20
-20.3024129086
  0
LINE
  5
52B
100
AcDbEntity
  8
ASSI
100
AcDbLine
 62
250
  6
CONTINUOUS
 10
41.1049505405
 20
-20.2301907695
 11
41.1039673072
 21
-20.1972069227
  0
LINE
  5
52C
100
AcDbEntity
  8
ASSI
100
AcDbLine
 62
250
  6
CONTINUOUS
 10
41.1039673072
 20
-20.1972069227
 11
41.1030566075
 21
-20.1579222931
  0
LINE
  5
52D
100
AcDbEntity
  8
ASSI
100
AcDbLine
 62
250
  6
CONTINUOUS
 10
40.6062805891
 20
-20.7333032934
 11
40.6053533465
 21
-20.6908139372
  0
LINE
  5
52E
100
AcDbEntity
  8
ASSI
100
AcDbLine
 62
250
  6
CONTINUOUS
 10
41.1030566075
 20
-20.1579222931
 11
41.1022294932
 21
-20.1128174795
  0
LINE
  5
52F
100
AcDbEntity
  8
ASSI
100
AcDbLine
 62
250
  6
CONTINUOUS
 10
40.6053533465
 20
-20.6908139372
 11
40.6044645038
 21
-20.6371565424
  0
LWPOLYLINE
  5
530
100
AcDbEntity
  8
ASSI
100
AcDbPolyline
 62
250
  6
CONTINUOUS
 90
3
 70
0
 10
41.1022294932
 20
-20.1128174795
 10
41.1014989905
 20
-20.0625985747
 10
41.1011737268
 20
-20.0358491983
  0
LINE
  5
531
100
AcDbEntity
  8
ASSI
100
AcDbLine
 62
250
  6
CONTINUOUS
 10
40.6044645038
 20
-20.6371565424
 11
40.6036262535
 21
-20.5729990204
  0
LINE
  5
532
100
AcDbEntity
  8
ASSI
100
AcDbLine
 62
250
  6
CONTINUOUS
 10
40.6036262535
 20
-20.5729990204
 11
40.6028461972
 21
-20.4991377212
  0
LINE
  5
533
100
AcDbEntity
  8
ASSI
100
AcDbLine
 62
250
  6
CONTINUOUS
 10
40.6028461972
 20
-20.4991377212
 11
40.6021347574
 21
-20.4164896621
  0
LINE
  5
534
100
AcDbEntity
  8
ASSI
100
AcDbLine
 62
250
  6
CONTINUOUS
 10
40.6021347574
 20
-20.4164896621
 11
40.6015026566
 21
-20.3260736465
  0
LINE
  5
535
100
AcDbEntity
  8
ASSI
100
AcDbLine
 62
250
  6
CONTINUOUS
 10
40.6015026566
 20
-20.3260736465
 11
40.6009557534
 21
-20.2290080173
  0
LINE
  5
536
100
AcDbEntity
  8
RACCORDO
100
AcDbLine
 62
250
  6
CONTINUOUS
 10
40.6013572829
 20
-20.3024129086
 11
40.6006073333
 21
-20.1525990584
  0
LINE
  5
537
100
AcDbEntity
  8
ASSI
100
AcDbLine
 62
250
  6
CONTINUOUS
 10
40.6009557534
 20
-20.2290080173
 11
40.6005010428
 21
-20.1264959111
  0
LINE
  5
538
100
AcDbEntity
  8
ASSI
100
AcDbLine
 62
250
  6
CONTINUOUS
 10
40.6005010428
 20
-20.1264959111
 11
40.6001449893
 21
-20.0198131634
  0
LINE
  5
539
100
AcDbEntity
  8
RACCORDO
100
AcDbLine
 62
250
  6
CONTINUOUS
 10
40.6006073333
 20
-20.1525990584
 11
40.600071644
 21
-19.9926534846
  0
LINE
  5
53A
100
AcDbEntity
  8
ASSI
100
AcDbLine
 62
250
  6
CONTINUOUS
 10
40.6001449893
 20
-20.0198131634
 11
40.5998910078
 21
-19.9102802491
  0
LINE
  5
53B
100
AcDbEntity
  8
RACCORDO
100
AcDbLine
 62
250
  6
CONTINUOUS
 10
40.600071644
 20
-19.9926534846
 11
40.5997721788
 21
-19.8270648432
  0
LWPOLYLINE
  5
53C
100
AcDbEntity
  8
ASSI
100
AcDbPolyline
 62
250
  6
CONTINUOUS
 90
3
 70
0
 10
40.5998910078
 20
-19.9102802491
 10
40.5997435605
 20
-19.7992427255
 10
40.5978343317
 20
-16.9750787769
  0
LWPOLYLINE
  5
53D
100
AcDbEntity
  8
RACCORDO
100
AcDbPolyline
 62
250
  6
CONTINUOUS
 90
9
 70
0
 10
40.5997721788
 20
-19.8270648432
 10
40.5967328665
 20
-15.1298301026
 10
40.5945004183
 20
-10.5184138263
 10
40.5930121195
 20
-5.9097345428
 10
40.5922679701
 20
-1.3041857096
 10
40.5922679701
 20
3.2978395771
 10
40.5930121195
 20
7.8959486162
 10
40.5945004183
 20
12.4897489459
 10
40.5967328665
 20
17.0788483787
  0
LWPOLYLINE
  5
53E
100
AcDbEntity
  8
ASSI
100
AcDbPolyline
 62
250
  6
CONTINUOUS
 90
15
 70
0
 10
40.5978343317
 20
-16.9750787769
 10
40.596227038
 20
-14.207352459
 10
40.5948875829
 20
-11.4404958304
 10
40.5938159373
 20
-8.6745917239
 10
40.5930121302
 20
-5.9097273393
 10
40.5924762491
 20
-3.1459942322
 10
40.592208323
 20
-0.3834824549
 10
40.5922083229
 20
2.3777282352
 10
40.5924762487
 20
5.1375617774
 10
40.5930121295
 20
7.8959384606
 10
40.5938159363
 20
10.6527683974
 10
40.5948875819
 20
13.407960328
 10
40.5962270372
 20
16.1614274108
 10
40.5978343312
 20
18.9130872119
 10
40.5997094641
 20
21.662855175
  0
LINE
  5
53F
100
AcDbEntity
  8
RACCORDO
100
AcDbLine
 62
250
  6
CONTINUOUS
 10
40.5967328665
 20
17.0788483787
 11
40.5997721788
 21
21.745119226
  0
LINE
  5
540
100
AcDbEntity
  8
ASSI
100
AcDbLine
 62
250
  6
CONTINUOUS
 10
40.5997094641
 20
21.662855175
 11
40.5998040751
 21
21.7722457975
  0
LINE
  5
541
100
AcDbEntity
  8
RACCORDO
100
AcDbLine
 62
250
  6
CONTINUOUS
 10
40.5997721788
 20
21.745119226
 11
40.6000716441
 21
21.9046866929
  0
LINE
  5
542
100
AcDbEntity
  8
ASSI
100
AcDbLine
 62
250
  6
CONTINUOUS
 10
40.5998040751
 20
21.7722457975
 11
40.6000047895
 21
21.8786856714
  0
LINE
  5
543
100
AcDbEntity
  8
ASSI
100
AcDbLine
 62
250
  6
CONTINUOUS
 10
40.6000047895
 20
21.8786856714
 11
40.6003103149
 21
21.9808597051
  0
LWPOLYLINE
  5
544
100
AcDbEntity
  8
RACCORDO
100
AcDbPolyline
 62
250
  6
CONTINUOUS
 90
15
 70
0
 10
40.6000716441
 20
21.9046866929
 10
40.6006073333
 20
22.0539645646
 10
40.6009559317
 20
22.1234212589
 10
40.6013572829
 20
22.1887637484
 10
40.601810382
 20
22.2495419895
 10
40.6023059494
 20
22.3053370025
 10
40.602844868
 20
22.355759188
 10
40.603426255
 20
22.4004591051
 10
40.6040381826
 20
22.4391306199
 10
40.604681351
 20
22.4715050986
 10
40.6053550601
 20
22.4973503041
 10
40.6060452818
 20
22.5164809993
 10
40.60674734
 20
22.5287643679
 10
40.6074659108
 20
22.5341171458
 10
40.6076591858
 20
22.5343682678
  0
LINE
  5
545
100
AcDbEntity
  8
ASSI
100
AcDbLine
 62
250
  6
CONTINUOUS
 10
40.6003103149
 20
21.9808597051
 11
40.6007168964
 21
22.0775127775
  0
LINE
  5
546
100
AcDbEntity
  8
ASSI
100
AcDbLine
 62
250
  6
CONTINUOUS
 10
40.6007168964
 20
22.0775127775
 11
40.6012177033
 21
22.1674406134
  0
LINE
  5
547
100
AcDbEntity
  8
ASSI
100
AcDbLine
 62
250
  6
CONTINUOUS
 10
40.6012177033
 20
22.1674406134
 11
40.6018082218
 21
22.2495279741
  0
LINE
  5
548
100
AcDbEntity
  8
ASSI
100
AcDbLine
 62
250
  6
CONTINUOUS
 10
40.6018082218
 20
22.2495279741
 11
40.6024819049
 21
22.3227569727
  0
LINE
  5
549
100
AcDbEntity
  8
ASSI
100
AcDbLine
 62
250
  6
CONTINUOUS
 10
40.6024819049
 20
22.3227569727
 11
40.6032276529
 21
22.3862254195
  0
LINE
  5
54A
100
AcDbEntity
  8
ASSI
100
AcDbLine
 62
250
  6
CONTINUOUS
 10
41.100876482
 20
21.8293479096
 11
41.1014989906
 21
21.8776734584
  0
LWPOLYLINE
  5
54B
100
AcDbEntity
  8
ASSI
100
AcDbPolyline
 62
250
  6
CONTINUOUS
 90
10
 70
0
 10
40.6032276529
 20
22.3862254195
 10
40.6040384754
 20
22.4391471298
 10
40.6044645038
 20
22.4614423907
 10
40.6049041536
 20
22.4808653107
 10
40.6053533466
 20
22.4973550928
 10
40.6058121962
 20
22.510860519
 10
40.606280589
 20
22.5213405645
 10
40.606754107
 20
22.5287633592
 10
40.6072312776
 20
22.533105688
 10
40.6076640615
 20
22.5343682682
  0
LINE
  5
54C
100
AcDbEntity
  8
RACCORDO
100
AcDbLine
 62
250
  6
CONTINUOUS
 10
41.101733162
 20
21.89269686
 11
41.1022293145
 21
21.9205881825
  0
LINE
  5
54D
100
AcDbEntity
  8
ASSI
100
AcDbLine
 62
250
  6
CONTINUOUS
 10
41.1014989906
 20
21.8776734584
 11
41.1022294934
 21
21.9205973429
  0
LWPOLYLINE
  5
54E
100
AcDbEntity
  8
RACCORDO
100
AcDbPolyline
 62
250
  6
CONTINUOUS
 90
10
 70
0
 10
41.1022293145
 20
21.9205881825
 10
41.1027689028
 20
21.9457430836
 10
41.1033510537
 20
21.9682179739
 10
41.103963786
 20
21.9875505871
 10
41.1046080537
 20
22.0036771188
 10
41.1052829028
 20
22.0166613735
 10
41.1059734905
 20
22.0262324986
 10
41.1066748691
 20
22.0323002099
 10
41.1073919861
 20
22.0349547916
 10
41.1081248418
 20
22.0341962437
  0
LWPOLYLINE
  5
54F
100
AcDbEntity
  8
ASSI
100
AcDbPolyline
 62
250
  6
CONTINUOUS
 90
12
 70
0
 10
41.1022294934
 20
21.9205973429
 10
41.1030566077
 20
21.9574423461
 10
41.1035017988
 20
21.9733968763
 10
41.1039673074
 20
21.9876324556
 10
41.1044524201
 20
22.0001570383
 10
41.1049505406
 20
22.0107974406
 10
41.1054622258
 20
22.0195155437
 10
41.1059869189
 20
22.0263494665
 10
41.1065163537
 20
22.0312403806
 10
41.1070477747
 20
22.0341686769
 10
41.1075839374
 20
22.0351539646
 10
41.1081248418
 20
22.0341962437
  0
LWPOLYLINE
  5
550
100
AcDbEntity
  8
RACCORDO
100
AcDbPolyline
 62
250
  6
CONTINUOUS
 90
9
 70
0
 10
24.6284514663
 20
-21.4846624944
 10
24.6036083467
 20
-21.5163220866
 10
24.5794299012
 20
-21.5463194817
 10
24.556563019
 20
-21.5738521061
 10
24.5356194983
 20
-21.5981833303
 10
24.5171596785
 20
-21.6186621778
 10
24.501677448
 20
-21.6347407415
 10
24.4895870307
 20
-21.645988843
 10
24.4812119029
 20
-21.6521055419
  0
LWPOLYLINE
  5
551
100
AcDbEntity
  8
RACCORDO
100
AcDbPolyline
 62
250
  6
CONTINUOUS
 90
9
 70
0
 10
24.6284514663
 20
22.6948446673
 10
24.6036087397
 20
22.7265036345
 10
24.579430756
 20
22.7565003449
 10
24.5565643728
 20
22.7840322667
 10
24.5356213572
 20
22.8083628109
 10
24.5171620186
 20
22.8288410382
 10
24.5016802181
 20
22.8449190743
 10
24.4895901555
 20
22.8561667675
 10
24.4812152885
 20
22.862283197
  0
LINE
  5
552
100
AcDbEntity
  8
RACCORDO
100
AcDbLine
 62
7
  6
CONTINUOUS
 10
41.3387893429
 20
16.7566647448
 11
41.33215286
 21
16.9229723925
  0
LINE
  5
553
100
AcDbEntity
  8
ASSI
100
AcDbLine
 62
250
  6
CONTINUOUS
 10
41.1011737268
 20
-20.0358491983
 11
41.1006071947
 21
-19.9792606538
  0
LINE
  5
554
100
AcDbEntity
  8
RACCORDO
100
AcDbLine
 62
250
  6
CONTINUOUS
 10
41.1012795721
 20
-20.0448594737
 11
41.1005291993
 21
-19.9700164141
  0
LINE
  5
555
100
AcDbEntity
  8
ASSI
100
AcDbLine
 62
250
  6
CONTINUOUS
 10
41.1006071947
 20
-19.9792606538
 11
41.1001642526
 21
-19.9198044573
  0
LINE
  5
556
100
AcDbEntity
  8
RACCORDO
100
AcDbLine
 62
250
  6
CONTINUOUS
 10
41.1005291993
 20
-19.9700164141
 11
41.0999938109
 21
-19.8898805115
  0
LINE
  5
557
100
AcDbEntity
  8
ASSI
100
AcDbLine
 62
250
  6
CONTINUOUS
 10
41.1001642526
 20
-19.9198044573
 11
41.0998504887
 21
-19.8583520523
  0
LINE
  5
558
100
AcDbEntity
  8
RACCORDO
100
AcDbLine
 62
250
  6
CONTINUOUS
 10
41.0999938109
 20
-19.8898805115
 11
41.0996953008
 21
-19.8077227757
  0
LINE
  5
559
100
AcDbEntity
  8
ASSI
100
AcDbLine
 62
250
  6
CONTINUOUS
 10
41.0998504887
 20
-19.8583520523
 11
41.099672158
 21
-19.79669311
  0
LINE
  5
55A
100
AcDbEntity
  8
RACCORDO
100
AcDbLine
 62
250
  6
CONTINUOUS
 10
41.3387893429
 20
-15.5464825719
 11
41.3043871475
 21
0.5203874753
  0
LWPOLYLINE
  5
55B
100
AcDbEntity
  8
ASSI
100
AcDbPolyline
 62
250
  6
CONTINUOUS
 90
15
 70
0
 10
41.099672158
 20
-19.79669311
 10
41.0977584033
 20
-17.0002604154
 10
41.0961512486
 20
-14.2356488801
 10
41.0948118475
 20
-11.4718315728
 10
41.0937401298
 20
-8.708685868
 10
41.0929361657
 20
-5.946334391
 10
41.0924001661
 20
-3.1851450184
 10
41.0921322015
 20
-0.4251231272
 10
41.0921322015
 20
2.3337366597
 10
41.092400166
 20
5.0910825978
 10
41.0929361654
 20
7.8469193514
 10
41.0937401295
 20
10.6012422563
 10
41.0948118472
 20
13.3536855752
 10
41.0961512483
 20
16.1041273958
 10
41.0977584031
 20
18.8526896304
  0
LWPOLYLINE
  5
55C
100
AcDbEntity
  8
RACCORDO
100
AcDbPolyline
 62
250
  6
CONTINUOUS
 90
9
 70
0
 10
41.0996953008
 20
-19.8077227757
 10
41.0966567157
 20
-15.1558769054
 10
41.0944242689
 20
-10.5492086611
 10
41.0929359711
 20
-5.9456614456
 10
41.0921918226
 20
-1.3448386676
 10
41.0921918231
 20
3.2528630815
 10
41.0929359722
 20
7.8462540281
 10
41.09442427
 20
12.434937581
 10
41.0966567165
 20
17.0193103313
  0
LINE
  5
55D
100
AcDbEntity
  8
ASSI
100
AcDbLine
 62
7
  6
CONTINUOUS
 10
41.2144364497
 20
-20.9749995711
 11
41.2144364497
 21
21.6622472875
  0
LINE
  5
55E
100
AcDbEntity
  8
RACCORDO
100
AcDbLine
 62
7
  6
CONTINUOUS
 10
41.2144364497
 20
-20.9749995711
 11
41.2144364497
 21
21.6622472875
  0
LINE
  5
55F
100
AcDbEntity
  8
RACCORDO
100
AcDbLine
 62
250
  6
CONTINUOUS
 10
41.3043871475
 20
0.5203874753
 11
41.3043389055
 21
0.6219862099
  0
LINE
  5
560
100
AcDbEntity
  8
RACCORDO
100
AcDbLine
 62
7
  6
CONTINUOUS
 10
41.3644364497
 20
16.7242589258
 11
41.3644364497
 21
-15.5140767529
  0
LINE
  5
561
100
AcDbEntity
  8
ASSI
100
AcDbLine
 62
7
  6
CONTINUOUS
 10
41.3644364497
 20
-15.5145680796
 11
41.3644364497
 21
16.7247502525
  0
LINE
  5
562
100
AcDbEntity
  8
SUPERFICI
100
AcDbLine
 62
7
  6
CONTINUOUS
 10
41.3644364497
 20
-15.5145680796
 11
41.3644364497
 21
16.7247502525
  0
LINE
  5
563
100
AcDbEntity
  8
ASSI
100
AcDbLine
 62
250
  6
CONTINUOUS
 10
41.0977584031
 20
18.8526896304
 11
41.099672158
 21
21.6300112817
  0
LINE
  5
564
100
AcDbEntity
  8
RACCORDO
100
AcDbLine
 62
250
  6
CONTINUOUS
 10
41.3043389055
 20
0.6219862099
 11
41.3044352943
 21
0.7235814568
  0
LINE
  5
565
100
AcDbEntity
  8
RACCORDO
100
AcDbLine
 62
250
  6
CONTINUOUS
 10
41.0966567165
 20
17.0193103313
 11
41.0996953008
 21
21.6408098344
  0
LINE
  5
566
100
AcDbEntity
  8
RACCORDO
100
AcDbLine
 62
250
  6
CONTINUOUS
 10
41.3044352943
 20
0.7235814568
 11
41.3387893429
 21
16.7566647448
  0
LINE
  5
567
100
AcDbEntity
  8
ASSI
100
AcDbLine
 62
250
  6
CONTINUOUS
 10
41.099672158
 20
21.6300112817
 11
41.0998504888
 21
21.6898893632
  0
LINE
  5
568
100
AcDbEntity
  8
RACCORDO
100
AcDbLine
 62
250
  6
CONTINUOUS
 10
41.0996953008
 20
21.6408098344
 11
41.0999938109
 21
21.7199865588
  0
LINE
  5
569
100
AcDbEntity
  8
ASSI
100
AcDbLine
 62
250
  6
CONTINUOUS
 10
41.0998504888
 20
21.6898893632
 11
41.1001642527
 21
21.7482084322
  0
LWPOLYLINE
  5
56A
100
AcDbEntity
  8
RACCORDO
100
AcDbPolyline
 62
250
  6
CONTINUOUS
 90
5
 70
0
 10
41.0999938109
 20
21.7199865588
 10
41.1005291993
 20
21.7947759135
 10
41.1008779059
 20
21.82950568
 10
41.1012795721
 20
21.8621255266
 10
41.101733162
 20
21.89269686
  0
LWPOLYLINE
  5
56B
100
AcDbEntity
  8
ASSI
100
AcDbPolyline
 62
250
  6
CONTINUOUS
 90
3
 70
0
 10
41.1001642527
 20
21.7482084322
 10
41.1006071948
 20
21.8032412779
 10
41.100876482
 20
21.8293479096
  0
LINE
  5
56C
100
AcDbEntity
  8
RACCORDO
100
AcDbLine
 62
7
  6
CONTINUOUS
 10
41.3346127156
 20
-15.6792922233
 11
41.3387893429
 21
-15.5464825719
  0
LWPOLYLINE
  5
56D
100
AcDbEntity
  8
RACCORDO
100
AcDbPolyline
 62
7
  6
CONTINUOUS
 90
3
 70
0
 10
41.3644364497
 20
-15.5140767529
 10
41.3506704948
 20
-15.74130939
 10
41.3136711004
 20
-15.9603667291
  0
LWPOLYLINE
  5
56E
100
AcDbEntity
  8
RACCORDO
100
AcDbPolyline
 62
250
  6
CONTINUOUS
 90
16
 70
0
 10
19.3292395877
 20
-19.7656661785
 10
19.332819077
 20
-19.7633105549
 10
19.3417166551
 20
-19.7609883195
 10
19.3558369888
 20
-19.758724354
 10
19.3750287855
 20
-19.7565429155
 10
19.3990864146
 20
-19.7544673773
 10
19.4277521101
 20
-19.7525199776
 10
19.460718733
 20
-19.7507215819
 10
19.4976330621
 20
-19.7490914592
 10
19.5380995782
 20
-19.7476470753
 10
19.5816847022
 20
-19.7464039063
 10
19.6279214406
 20
-19.745375272
 10
19.6763143894
 20
-19.7445721934
 10
19.7263450414
 20
-19.7440032751
 10
19.7774773427
 20
-19.7436746129
 10
19.8291634353
 20
-19.7435897282
  0
LWPOLYLINE
  5
56F
100
AcDbEntity
  8
ASSI
100
AcDbPolyline
 62
7
  6
CONTINUOUS
 90
3
 70
0
 10
41.3421759989
 20
-15.8117086277
 10
41.3586672489
 20
-15.664353988
 10
41.3644364497
 20
-15.5145680796
  0
LWPOLYLINE
  5
570
100
AcDbEntity
  8
SUPERFICI
100
AcDbPolyline
 62
7
  6
CONTINUOUS
 90
3
 70
0
 10
41.3421759989
 20
-15.8117086277
 10
41.3586672489
 20
-15.664353988
 10
41.3644364497
 20
-15.5145680796
  0
LWPOLYLINE
  5
571
100
AcDbEntity
  8
RACCORDO
100
AcDbPolyline
 62
7
  6
CONTINUOUS
 90
3
 70
0
 10
41.3136711004
 20
17.170548902
 10
41.3506704948
 20
16.9514915629
 10
41.3644364497
 20
16.7242589258
  0
LWPOLYLINE
  5
572
100
AcDbEntity
  8
RACCORDO
100
AcDbPolyline
 62
7
  6
CONTINUOUS
 90
3
 70
0
 10
41.33215286
 20
16.9229723925
 10
41.3124039473
 20
17.0835530393
 10
41.2807941194
 20
17.2374871685
  0
LWPOLYLINE
  5
573
100
AcDbEntity
  8
ASSI
100
AcDbPolyline
 62
7
  6
CONTINUOUS
 90
3
 70
0
 10
41.3421759989
 20
17.0218908006
 10
41.3586672489
 20
16.8745361609
 10
41.3644364497
 20
16.7247502525
  0
LWPOLYLINE
  5
574
100
AcDbEntity
  8
SUPERFICI
100
AcDbPolyline
 62
7
  6
CONTINUOUS
 90
3
 70
0
 10
41.3421759989
 20
17.0218908006
 10
41.3586672489
 20
16.8745361609
 10
41.3644364497
 20
16.7247502525
  0
LWPOLYLINE
  5
575
100
AcDbEntity
  8
RACCORDO
100
AcDbPolyline
 62
7
  6
CONTINUOUS
 90
4
 70
0
 10
41.2633121987
 20
-16.0932410166
 10
41.2975178378
 20
-15.9535661101
 10
41.3210889051
 20
-15.8152255229
 10
41.3346127156
 20
-15.6792922233
  0
LINE
  5
576
100
AcDbEntity
  8
RACCORDO
100
AcDbLine
 62
7
  6
CONTINUOUS
 10
41.3136711004
 20
-15.9603667291
 11
41.2534382665
 21
-16.1712487701
  0
LINE
  5
577
100
AcDbEntity
  8
RACCORDO
100
AcDbLine
 62
7
  6
CONTINUOUS
 10
41.2178289936
 20
-16.2335897186
 11
41.2633121987
 21
-16.0932410166
  0
LINE
  5
578
100
AcDbEntity
  8
SUPERFICI
100
AcDbLine
 62
7
  6
CONTINUOUS
 10
33.4478036521
 20
-21.8949089135
 11
33.5144364497
 21
-21.7949089135
  0
LINE
  5
579
100
AcDbEntity
  8
SUPERFICI
100
AcDbLine
 62
7
  6
CONTINUOUS
 10
33.5144364497
 20
23.0050910865
 11
33.4478036521
 21
23.1050910865
  0
LINE
  5
57A
100
AcDbEntity
  8
RACCORDO
100
AcDbLine
 62
7
  6
CONTINUOUS
 10
41.2807941194
 20
17.2374871685
 11
41.2386700607
 21
17.3838114946
  0
LINE
  5
57B
100
AcDbEntity
  8
RACCORDO
100
AcDbLine
 62
7
  6
CONTINUOUS
 10
41.2534382665
 20
17.381430943
 11
41.3136711004
 21
17.170548902
  0
LWPOLYLINE
  5
57C
100
AcDbEntity
  8
RACCORDO
100
AcDbPolyline
 62
250
  6
CONTINUOUS
 90
4
 70
0
 10
41.0892491807
 20
22.1697905268
 10
41.0971591652
 20
22.1379117833
 10
41.1053639315
 20
22.0863436805
 10
41.1081248418
 20
22.0341962437
  0
LWPOLYLINE
  5
57D
100
AcDbEntity
  8
ASSI
100
AcDbPolyline
 62
7
  6
CONTINUOUS
 90
4
 70
0
 10
41.2278352867
 20
-16.240723978
 10
41.2767600178
 20
-16.0998936227
 10
41.3149626997
 20
-15.9566319985
 10
41.3421759989
 20
-15.8117086277
  0
LWPOLYLINE
  5
57E
100
AcDbEntity
  8
SUPERFICI
100
AcDbPolyline
 62
7
  6
CONTINUOUS
 90
4
 70
0
 10
41.2278352867
 20
-16.240723978
 10
41.2767600178
 20
-16.0998936227
 10
41.3149626997
 20
-15.9566319985
 10
41.3421759989
 20
-15.8117086277
  0
LINE
  5
57F
100
AcDbEntity
  8
RACCORDO
100
AcDbLine
 62
7
  6
CONTINUOUS
 10
41.2534382665
 20
-16.1712487701
 11
41.2144364497
 21
-16.2659688399
  0
LINE
  5
580
100
AcDbEntity
  8
ASSI
100
AcDbLine
 62
7
  6
CONTINUOUS
 10
41.2144364497
 20
-16.2717115133
 11
41.2278352867
 21
-16.240723978
  0
LINE
  5
581
100
AcDbEntity
  8
SUPERFICI
100
AcDbLine
 62
7
  6
CONTINUOUS
 10
41.2144364497
 20
-16.2717115133
 11
41.2278352867
 21
-16.240723978
  0
LWPOLYLINE
  5
582
100
AcDbEntity
  8
RACCORDO
100
AcDbPolyline
 62
250
  6
CONTINUOUS
 90
7
 70
0
 10
19.2144364497
 20
16.7827159593
 10
19.1808281677
 20
16.7798179985
 10
19.1500901902
 20
16.7760714111
 10
19.1249976208
 20
16.7717480639
 10
19.1062962022
 20
16.7669764451
 10
19.0945417345
 20
16.7618983658
 10
19.0900835565
 20
16.7566647448
  0
LWPOLYLINE
  5
583
100
AcDbEntity
  8
RACCORDO
100
AcDbPolyline
 62
250
  6
CONTINUOUS
 90
7
 70
0
 10
41.2144364497
 20
16.7827156344
 10
41.2480229299
 20
16.7798202168
 10
41.2787654336
 20
16.7760738892
 10
41.3038636697
 20
16.7717504616
 10
41.3225705691
 20
16.7669784216
 10
41.3343293352
 20
16.7618995342
 10
41.3387893429
 20
16.7566647619
  0
LINE
  5
584
100
AcDbEntity
  8
ASSI
100
AcDbLine
 62
7
  6
CONTINUOUS
 10
41.2144364497
 20
17.4818936862
 11
41.2278352867
 21
17.4509061509
  0
LINE
  5
585
100
AcDbEntity
  8
SUPERFICI
100
AcDbLine
 62
7
  6
CONTINUOUS
 10
41.2144364497
 20
17.4818936862
 11
41.2278352867
 21
17.4509061509
  0
LINE
  5
586
100
AcDbEntity
  8
RACCORDO
100
AcDbLine
 62
7
  6
CONTINUOUS
 10
41.2144364497
 20
17.4761510128
 11
41.2534382665
 21
17.381430943
  0
LINE
  5
587
100
AcDbEntity
  8
RACCORDO
100
AcDbLine
 62
7
  6
CONTINUOUS
 10
41.2386700607
 20
17.3838114946
 11
41.2144364497
 21
17.4490463529
  0
LWPOLYLINE
  5
588
100
AcDbEntity
  8
ASSI
100
AcDbPolyline
 62
7
  6
CONTINUOUS
 90
4
 70
0
 10
41.2278352867
 20
17.4509061509
 10
41.2767600178
 20
17.3100757956
 10
41.3149626997
 20
17.1668141714
 10
41.3421759989
 20
17.0218908006
  0
LWPOLYLINE
  5
589
100
AcDbEntity
  8
SUPERFICI
100
AcDbPolyline
 62
7
  6
CONTINUOUS
 90
4
 70
0
 10
41.2278352867
 20
17.4509061509
 10
41.2767600178
 20
17.3100757956
 10
41.3149626997
 20
17.1668141714
 10
41.3421759989
 20
17.0218908006
  0
LWPOLYLINE
  5
58A
100
AcDbEntity
  8
ASSI
100
AcDbPolyline
 62
7
  6
CONTINUOUS
 90
29
 70
0
 10
41.0888912697
 20
22.1710317836
 10
41.085593858
 20
22.1820743603
 10
41.0795457771
 20
22.2002909191
 10
41.0725877347
 20
22.2188201309
 10
41.0647347111
 20
22.2374466133
 10
41.0559529462
 20
22.2561169134
 10
41.0462049486
 20
22.2747860442
 10
41.0355456159
 20
22.2932537228
 10
41.0239938654
 20
22.3114259785
 10
41.0115157975
 20
22.3292984213
 10
40.9981117751
 20
22.3468107243
 10
40.9837855985
 20
22.3639027304
 10
40.9685345787
 20
22.3805248191
 10
40.952354002
 20
22.3966292127
 10
40.9352510382
 20
22.4121563644
 10
40.9172369975
 20
22.4270452388
 10
40.898316623
 20
22.4412414488
 10
40.8785078721
 20
22.4546811752
 10
40.8578333172
 20
22.4672998585
 10
40.8363091649
 20
22.4790382785
 10
40.8139669284
 20
22.489829762
 10
40.7908418104
 20
22.4996084787
 10
40.7669612547
 20
22.5083132938
 10
40.742370697
 20
22.5158773465
 10
40.7171211951
 20
22.5222348902
 10
40.6912555284
 20
22.5273241064
 10
40.6648356347
 20
22.5310806091
 10
40.6379294825
 20
22.5334423706
 10
40.615358902
 20
22.5341921381
  0
LWPOLYLINE
  5
58B
100
AcDbEntity
  8
RACCORDO
100
AcDbPolyline
 62
7
  6
CONTINUOUS
 90
28
 70
0
 10
41.0892451992
 20
22.1697894166
 10
41.0863857795
 20
22.1795043148
 10
41.0799376473
 20
22.1991775064
 10
41.0725792672
 20
22.2188413715
 10
41.0642023406
 20
22.2386374394
 10
41.0548094969
 20
22.2584088758
 10
41.0443690123
 20
22.2780994155
 10
41.0328537535
 20
22.297645326
 10
41.0203082182
 20
22.3168796359
 10
41.006752408
 20
22.3357063516
 10
40.99216009
 20
22.354100105
 10
40.9765257846
 20
22.3720029815
 10
40.959853507
 20
22.3893474046
 10
40.942151258
 20
22.4060645438
 10
40.9234242534
 20
22.422090111
 10
40.9036888521
 20
22.437351662
 10
40.8829667203
 20
22.4517756282
 10
40.8612769315
 20
22.4652925056
 10
40.838650915
 20
22.4778268627
 10
40.8151259961
 20
22.4893031885
 10
40.7907373366
 20
22.4996495837
 10
40.7655341846
 20
22.5087903811
 10
40.7395710138
 20
22.5166515469
 10
40.7128991931
 20
22.523162661
 10
40.6855862169
 20
22.5282516745
 10
40.6577064516
 20
22.5318491647
 10
40.6293309126
 20
22.5338893941
 10
40.607661689
 20
22.5343589205
  0
LINE
  5
58C
100
AcDbEntity
  8
ASSI
100
AcDbLine
 62
250
  6
CONTINUOUS
 10
41.1081248418
 20
22.0341962437
 11
41.2144364497
 21
21.6622472875
  0
LINE
  5
58D
100
AcDbEntity
  8
RACCORDO
100
AcDbLine
 62
250
  6
CONTINUOUS
 10
41.1081248418
 20
22.0341962437
 11
41.2144364497
 21
21.6622472875
  0
LINE
  5
58E
100
AcDbEntity
  8
ASSI
100
AcDbLine
 62
7
  6
CONTINUOUS
 10
41.0888952855
 20
22.1710329366
 11
41.1953164936
 21
21.7987006659
  0
LINE
  5
58F
100
AcDbEntity
  8
RACCORDO
100
AcDbLine
 62
7
  6
CONTINUOUS
 10
41.0889491458
 20
22.1708446374
 11
41.1953164937
 21
21.7987006655
  0
LWPOLYLINE
  5
590
100
AcDbEntity
  8
ASSI
100
AcDbPolyline
 62
250
  6
CONTINUOUS
 90
6
 70
0
 10
41.0889491785
 20
22.1708445232
 10
41.0910417321
 20
22.1632993785
 10
41.0984803609
 20
22.1315148906
 10
41.1038207957
 20
22.0993107944
 10
41.1070402074
 20
22.0668249037
 10
41.1081248418
 20
22.0341962437
  0
LWPOLYLINE
  5
591
100
AcDbEntity
  8
0
100
AcDbPolyline
 62
7
  6
CONTINUOUS
 90
3
 70
0
 43
0.3500000087
 10
47.9715807831
 20
-0.252052832
 10
47.9715807831
 20
-1.7520521652
 10
45.6144374512
 20
-1.1091946991
  0
LINE
  5
592
100
AcDbEntity
  8
RACCORDO
100
AcDbLine
 62
250
  6
CONTINUOUS
 10
35.9476609965
 20
22.8622877148
 11
35.9520967598
 21
22.8631093601
  0
LINE
  5
593
100
AcDbEntity
  8
RACCORDO
100
AcDbLine
 62
250
  6
CONTINUOUS
 10
24.4812152885
 20
22.862283197
 11
24.4767796781
 21
22.8631047239
  0
LINE
  5
594
100
AcDbEntity
  8
RACCORDO
100
AcDbLine
 62
250
  6
CONTINUOUS
 10
36.0047636511
 20
22.5343683058
 11
35.800421433
 21
22.6948446673
  0
LINE
  5
595
100
AcDbEntity
  8
RACCORDO
100
AcDbLine
 62
7
  6
CONTINUOUS
 10
35.90026369
 20
-21.6923920829
 11
35.8546044715
 21
-21.7232316428
  0
LWPOLYLINE
  5
596
100
AcDbEntity
  8
RACCORDO
100
AcDbPolyline
 62
7
  6
CONTINUOUS
 90
4
 70
0
 10
35.8728164752
 20
-21.7024994665
 10
35.899448396
 20
-21.6880966213
 10
35.9259405623
 20
-21.6715992535
 10
35.9521000489
 20
-21.6529251198
  0
LWPOLYLINE
  5
597
100
AcDbEntity
  8
RACCORDO
100
AcDbPolyline
 62
7
  6
CONTINUOUS
 90
3
 70
0
 10
35.8546044715
 20
-21.7232316428
 10
35.8072487522
 20
-21.7483987648
 10
35.757592983
 20
-21.7682142039
  0
LINE
  5
598
100
AcDbEntity
  8
RACCORDO
100
AcDbLine
 62
7
  6
CONTINUOUS
 10
24.776888055
 20
23.0016514512
 11
24.8328404246
 21
23.0050910865
  0
LWPOLYLINE
  5
599
100
AcDbEntity
  8
ASSI
100
AcDbPolyline
 62
7
  6
CONTINUOUS
 90
28
 70
0
 10
19.8092625958
 20
22.5341412957
 10
19.7848744022
 20
22.5330317092
 10
19.7580648193
 20
22.5303513035
 10
19.7317380607
 20
22.5262856715
 10
19.7059614448
 20
22.5208944101
 10
19.6807965539
 20
22.5142395124
 10
19.6562968433
 20
22.5063840486
 10
19.6325129639
 20
22.4973931487
 10
19.6094900716
 20
22.4873330729
 10
19.5872655335
 20
22.4762695356
 10
19.5658736177
 20
22.4642692504
 10
19.5453448939
 20
22.451399725
 10
19.5257038875
 20
22.4377275498
 10
19.506971193
 20
22.4233192428
 10
19.4891626293
 20
22.4082403306
 10
19.4722889651
 20
22.3925545206
 10
19.4563578288
 20
22.3763249253
 10
19.4413732237
 20
22.3596134411
 10
19.427334773
 20
22.3424794451
 10
19.4142337912
 20
22.3249733949
 10
19.4020701635
 20
22.307158862
 10
19.3908483796
 20
22.2891133975
 10
19.3805411391
 20
22.2708679873
 10
19.3711444838
 20
22.2524947949
 10
19.3626788083
 20
22.234134989
 10
19.3550997083
 20
22.215810827
 10
19.348383401
 20
22.1975917883
 10
19.343125206
 20
22.1814695136
  0
LWPOLYLINE
  5
59A
100
AcDbEntity
  8
RACCORDO
100
AcDbPolyline
 62
7
  6
CONTINUOUS
 90
10
 70
0
 10
24.781463493
 20
22.9659797525
 10
24.7586230896
 20
22.9654976673
 10
24.7350719237
 20
22.9639005703
 10
24.7108697564
 20
22.961085612
 10
24.6861133157
 20
22.9569554808
 10
24.6608565785
 20
22.951405963
 10
24.6351142586
 20
22.9443135713
 10
24.6089970219
 20
22.9355706296
 10
24.5826250752
 20
22.9250726001
 10
24.5560564241
 20
22.9126816395
  0
LWPOLYLINE
  5
59B
100
AcDbEntity
  8
RACCORDO
100
AcDbPolyline
 62
7
  6
CONTINUOUS
 90
25
 70
0
 10
19.8212116375
 20
22.534353249
 10
19.8034684975
 20
22.5340385194
 10
19.7725320957
 20
22.5319789121
 10
19.7421743854
 20
22.5280692758
 10
19.7124996863
 20
22.52239638
 10
19.6835923051
 20
22.5150484324
 10
19.6555378625
 20
22.506118295
 10
19.6284131568
 20
22.4957018001
 10
19.6022764165
 20
22.4838923007
 10
19.5771865353
 20
22.4707871727
 10
19.5531948409
 20
22.4564850363
 10
19.5303368157
 20
22.4410793793
 10
19.5086480791
 20
22.4246672981
 10
19.4881564457
 20
22.4073448412
 10
19.468876031
 20
22.3892002124
 10
19.450817436
 20
22.370320583
 10
19.4339940928
 20
22.350800237
 10
19.4184143126
 20
22.330734536
 10
19.4040472538
 20
22.310169031
 10
19.3909135831
 20
22.2892233486
 10
19.3790697675
 20
22.2681108444
 10
19.3684646954
 20
22.2468899984
 10
19.3590694922
 20
22.2256631669
 10
19.3509158833
 20
22.2047188626
 10
19.3438765439
 20
22.1839788147
  0
LWPOLYLINE
  5
59C
100
AcDbEntity
  8
RACCORDO
100
AcDbPolyline
 62
250
  6
CONTINUOUS
 90
13
 70
0
 10
24.781463493
 20
22.7467897047
 10
24.7699437305
 20
22.7466111445
 10
24.7581357067
 20
22.7457690388
 10
24.7460394216
 20
22.7442633878
 10
24.733621272
 20
22.7421493633
 10
24.7209148612
 20
22.7393717934
 10
24.7080209989
 20
22.7357651625
 10
24.6949166773
 20
22.7313313132
 10
24.6816249043
 20
22.7260684028
 10
24.6683155134
 20
22.7198053874
 10
24.6550451156
 20
22.7124852524
 10
24.6417571
 20
22.7041650124
 10
24.6284514663
 20
22.6948446673
  0
LINE
  5
59D
100
AcDbEntity
  8
ASSI
100
AcDbLine
 62
250
  6
CONTINUOUS
 10
19.8291634353
 20
21.662855175
 11
40.5997094641
 21
21.662855175
  0
LINE
  5
59E
100
AcDbEntity
  8
RACCORDO
100
AcDbLine
 62
250
  6
CONTINUOUS
 10
19.8291634353
 20
21.662855175
 11
40.5997094641
 21
21.662855175
  0
LINE
  5
59F
100
AcDbEntity
  8
ASSI
100
AcDbLine
 62
7
  6
CONTINUOUS
 10
19.8212011459
 20
22.5343683058
 11
40.6076717815
 21
22.5343683058
  0
LINE
  5
5A0
100
AcDbEntity
  8
RACCORDO
100
AcDbLine
 62
7
  6
CONTINUOUS
 10
19.8211975341
 20
22.5343683058
 11
40.6076753295
 21
22.5343683058
  0
LINE
  5
5A1
100
AcDbEntity
  8
RACCORDO
100
AcDbLine
 62
250
  6
CONTINUOUS
 10
35.6474094063
 20
22.7467897047
 11
24.781463493
 21
22.7467897047
  0
LINE
  5
5A2
100
AcDbEntity
  8
RACCORDO
100
AcDbLine
 62
250
  6
CONTINUOUS
 10
35.6474094063
 20
22.9659797525
 11
24.781463493
 21
22.9659797525
  0
LINE
  5
5A3
100
AcDbEntity
  8
ASSI
100
AcDbLine
 62
7
  6
CONTINUOUS
 10
32.8144364497
 20
23.0050910865
 11
32.2144364497
 21
23.0050910865
  0
LINE
  5
5A4
100
AcDbEntity
  8
ASSI
100
AcDbLine
 62
7
  6
CONTINUOUS
 10
28.2144364497
 20
23.0050910865
 11
27.6144364497
 21
23.0050910865
  0
LINE
  5
5A5
100
AcDbEntity
  8
RACCORDO
100
AcDbLine
 62
7
  6
CONTINUOUS
 10
24.8328404246
 20
23.0050910865
 11
26.9144364497
 21
23.0050910865
  0
LINE
  5
5A6
100
AcDbEntity
  8
RACCORDO
100
AcDbLine
 62
7
  6
CONTINUOUS
 10
33.5144364497
 20
23.0050910865
 11
35.5960324748
 21
23.0050910865
  0
LINE
  5
5A7
100
AcDbEntity
  8
ASSI
100
AcDbLine
 62
7
  6
CONTINUOUS
 10
26.74461619
 20
23.1050910865
 11
33.6842567094
 21
23.1050910865
  0
LINE
  5
5A8
100
AcDbEntity
  8
SUPERFICI
100
AcDbLine
 62
7
  6
CONTINUOUS
 10
26.74461619
 20
23.1050910865
 11
33.6842567094
 21
23.1050910865
  0
LWPOLYLINE
  5
5A9
100
AcDbEntity
  8
ASSI
100
AcDbPolyline
 62
250
  6
CONTINUOUS
 90
25
 70
0
 10
40.5997094641
 20
21.662852158
 10
40.6320471876
 20
21.6626943909
 10
40.6642495459
 20
21.662268283
 10
40.6961816968
 20
21.6615756174
 10
40.7277099142
 20
21.6606192942
 10
40.7587021925
 20
21.6594033164
 10
40.7890287961
 20
21.6579327727
 10
40.8185627351
 20
21.6562138184
 10
40.847180328
 20
21.6542536498
 10
40.8747617589
 20
21.6520604708
 10
40.9011915332
 20
21.6496434614
 10
40.9263589497
 20
21.6470127414
 10
40.9501585927
 20
21.6441793264
 10
40.9724907928
 20
21.6411550787
 10
40.9932620125
 20
21.6379526617
 10
41.0123852318
 20
21.6345854885
 10
41.0297803617
 20
21.6310676587
 10
41.0453745484
 20
21.6274139028
 10
41.0591024628
 20
21.6236395258
 10
41.0709066158
 20
21.6197603329
 10
41.0807375719
 20
21.6157925689
 10
41.0885541491
 20
21.6117528558
 10
41.0943236189
 20
21.6076581129
 10
41.0980218329
 20
21.6035254854
 10
41.0996333115
 20
21.5993722791
  0
LWPOLYLINE
  5
5AA
100
AcDbEntity
  8
RACCORDO
100
AcDbPolyline
 62
250
  6
CONTINUOUS
 90
16
 70
0
 10
40.5997094641
 20
21.662852158
 10
40.6513947163
 20
21.6624708204
 10
40.7025262066
 20
21.6614052688
 10
40.7525561039
 20
21.6596669196
 10
40.8009483795
 20
21.6572743978
 10
40.8471845506
 20
21.6542533374
 10
40.8907692354
 20
21.6506361066
 10
40.9312354602
 20
21.6464614611
 10
40.9681496633
 20
21.6417741287
 10
41.0011163399
 20
21.6366243302
 10
41.0297822796
 20
21.6310672416
 10
41.0538403507
 20
21.6251624023
 10
41.0730327911
 20
21.6189730778
 10
41.08715397
 20
21.6125655814
 10
41.0960525905
 20
21.6060085642
 10
41.0996333115
 20
21.5993722791
  0
LINE
  5
5AB
100
AcDbEntity
  8
ASSI
100
AcDbLine
 62
7
  6
CONTINUOUS
 10
40.615358902
 20
22.5341921381
 11
40.607661646
 21
22.5343589205
  0
LWPOLYLINE
  5
5AC
100
AcDbEntity
  8
RACCORDO
100
AcDbPolyline
 62
7
  6
CONTINUOUS
 90
6
 70
0
 10
35.5960324748
 20
23.0050910865
 10
35.6519848443
 20
23.0016514512
 10
35.7058383471
 20
22.9927532146
 10
35.757592983
 20
22.9783963768
 10
35.8072487522
 20
22.9585809377
 10
35.8548056545
 20
22.9333068974
  0
LINE
  5
5AD
100
AcDbEntity
  8
RACCORDO
100
AcDbLine
 62
7
  6
CONTINUOUS
 10
35.8548056545
 20
22.9333068974
 11
35.90026369
 21
22.9025742558
  0
LWPOLYLINE
  5
5AE
100
AcDbEntity
  8
RACCORDO
100
AcDbPolyline
 62
7
  6
CONTINUOUS
 90
6
 70
0
 10
35.952099872
 20
22.8631074278
 10
35.9333436311
 20
22.8767503347
 10
35.9133845358
 20
22.88988548
 10
35.8922123067
 20
22.9023991043
 10
35.8698463432
 20
22.9141616723
 10
35.8462733985
 20
22.9250617272
  0
LWPOLYLINE
  5
5AF
100
AcDbEntity
  8
RACCORDO
100
AcDbPolyline
 62
250
  6
CONTINUOUS
 90
8
 70
0
 10
35.800421433
 20
22.6948446673
 10
35.7909758996
 20
22.7018177391
 10
35.7809251973
 20
22.7084178771
 10
35.7702693261
 20
22.7146450813
 10
35.7590082953
 20
22.7205624121
 10
35.7471420956
 20
22.7261068091
 10
35.734670699
 20
22.7310890911
 10
35.7215838636
 20
22.7355206536
  0
LINE
  5
5B0
100
AcDbEntity
  8
RACCORDO
100
AcDbLine
 62
250
  6
CONTINUOUS
 10
35.6474094063
 20
22.9659797525
 11
35.5960324748
 21
23.0050910865
  0
LWPOLYLINE
  5
5B1
100
AcDbEntity
  8
RACCORDO
100
AcDbPolyline
 62
7
  6
CONTINUOUS
 90
3
 70
0
 10
24.6712799163
 20
22.9783963768
 10
24.7230345523
 20
22.9927532146
 10
24.776888055
 20
23.0016514512
  0
LINE
  5
5B2
100
AcDbEntity
  8
ASSI
100
AcDbLine
 62
7
  6
CONTINUOUS
 10
33.8892939278
 20
24.1050910865
 11
26.5395789715
 21
24.1050910865
  0
LINE
  5
5B3
100
AcDbEntity
  8
SUPERFICI
100
AcDbLine
 62
7
  6
CONTINUOUS
 10
33.8892939278
 20
24.1050910865
 11
26.5395789715
 21
24.1050910865
  0
LWPOLYLINE
  5
5B4
100
AcDbEntity
  8
0
100
AcDbPolyline
 62
7
  6
CONTINUOUS
 90
7
 70
0
 43
0.3500000087
 10
31.7144366669
 20
32.855090686
 10
30.2144373337
 20
32.855090686
 10
31.7144366669
 20
34.9979474854
 10
31.7144366669
 20
35.4265205505
 10
31.2858657333
 20
35.8550893524
 10
30.6430082672
 20
35.8550893524
 10
30.2144373337
 20
35.2122340179
  0
LWPOLYLINE
  5
5B5
100
AcDbEntity
  8
0
100
AcDbPolyline
 62
7
  6
CONTINUOUS
 90
7
 70
0
 43
0.3500000087
 10
29.357293335
 20
32.855090686
 10
27.8572940018
 20
32.855090686
 10
29.357293335
 20
34.9979474854
 10
29.357293335
 20
35.4265205505
 10
28.9287224014
 20
35.8550893524
 10
28.2858649353
 20
35.8550893524
 10
27.8572940018
 20
35.2122340179
  0
LWPOLYLINE
  5
5B6
100
AcDbEntity
  8
ASSI
100
AcDbPolyline
 62
7
  6
CONTINUOUS
 90
10
 70
0
 10
33.8892939278
 20
24.1050910865
 10
33.9547668492
 20
24.1029004745
 10
34.0194206913
 20
24.0965692845
 10
34.0832554543
 20
24.0860975164
 10
34.1465335176
 20
24.0714060601
 10
34.2089925017
 20
24.0525740258
 10
34.2698452678
 20
24.0298387439
 10
34.3288294363
 20
24.0032793248
 10
34.3862073869
 20
23.9728166581
 10
34.4419791195
 20
23.9384507439
  0
LWPOLYLINE
  5
5B7
100
AcDbEntity
  8
SUPERFICI
100
AcDbPolyline
 62
7
  6
CONTINUOUS
 90
10
 70
0
 10
33.8892939278
 20
24.1050910865
 10
33.9547668492
 20
24.1029004745
 10
34.0194206913
 20
24.0965692845
 10
34.0832554543
 20
24.0860975164
 10
34.1465335176
 20
24.0714060601
 10
34.2089925017
 20
24.0525740258
 10
34.2698452678
 20
24.0298387439
 10
34.3288294363
 20
24.0032793248
 10
34.3862073869
 20
23.9728166581
 10
34.4419791195
 20
23.9384507439
  0
LWPOLYLINE
  5
5B8
100
AcDbEntity
  8
RACCORDO
100
AcDbPolyline
 62
250
  6
CONTINUOUS
 90
6
 70
0
 10
35.7215838636
 20
22.7355206536
 10
35.7078918313
 20
22.7393901012
 10
35.6936252996
 20
22.7424740668
 10
35.6787945012
 20
22.7446980948
 10
35.6633892034
 20
22.7461366407
 10
35.6474094063
 20
22.7467897047
  0
LWPOLYLINE
  5
5B9
100
AcDbEntity
  8
RACCORDO
100
AcDbPolyline
 62
7
  6
CONTINUOUS
 90
8
 70
0
 10
35.8462733985
 20
22.9250617272
 10
35.8214431165
 20
22.9349947446
 10
35.7953861618
 20
22.9438149842
 10
35.7681334619
 20
22.9513772
 10
35.739645473
 20
22.9575455596
 10
35.7099555621
 20
22.9621534078
 10
35.6791761718
 20
22.9650220894
 10
35.6474094063
 20
22.9659797525
  0
ARC
  5
5BA
100
AcDbEntity
  8
ASSI
100
AcDbCircle
 62
7
  6
CONTINUOUS
 10
-48.8477591986
 20
-19.789263707
 40
1.0
100
AcDbArc
 50
177.3821630226
 51
263.5
  0
ARC
  5
5BB
100
AcDbEntity
  8
RACCORDO
100
AcDbCircle
 62
7
  6
CONTINUOUS
 10
-48.8477591986
 20
-19.789263707
 40
1.0
100
AcDbArc
 50
177.3821630226
 51
263.5
  0
ARC
  5
5BC
100
AcDbEntity
  8
RACCORDO
100
AcDbCircle
 62
7
  6
CONTINUOUS
 10
-38.4829888773
 20
-20.7018300083
 40
0.4
100
AcDbArc
 50
179.9998399994
 51
268.9999751098
  0
ARC
  5
5BD
100
AcDbEntity
  8
RACCORDO
100
AcDbCircle
 62
7
  6
CONTINUOUS
 10
-38.4829888773
 20
-20.4879878188
 40
0.4
100
AcDbArc
 50
91.0000248176
 51
180.0001595257
  0
ARC
  5
5BE
100
AcDbEntity
  8
RACCORDO
100
AcDbCircle
 62
7
  6
CONTINUOUS
 10
-37.6161935969
 20
-21.5061401959
 40
0.25
100
AcDbArc
 50
187.0
 51
267.0
  0
ARC
  5
5BF
100
AcDbEntity
  8
RACCORDO
100
AcDbCircle
 62
7
  6
CONTINUOUS
 10
-39.5248594967
 20
-13.8384224205
 40
10.0
100
AcDbArc
 50
176.6754727443
 51
176.7535586288
  0
ARC
  5
5C0
100
AcDbEntity
  8
RACCORDO
100
AcDbCircle
 62
7
  6
CONTINUOUS
 10
-42.4829888773
 20
-17.1725701564
 40
0.4
100
AcDbArc
 50
258.7201422051
 51
268.9999989369
  0
ARC
  5
5C1
100
AcDbEntity
  8
ASSI
100
AcDbCircle
 62
7
  6
CONTINUOUS
 10
-28.8997894278
 20
-20.0753133609
 40
0.45
100
AcDbArc
 50
271.0
 51
315.0
  0
ARC
  5
5C2
100
AcDbEntity
  8
ASSI
100
AcDbCircle
 62
7
  6
CONTINUOUS
 10
-16.1329888773
 20
-17.8115621842
 40
0.45
100
AcDbArc
 50
271.0
 51
360.0
  0
ARC
  5
5C3
100
AcDbEntity
  8
RACCORDO
100
AcDbCircle
 62
7
  6
CONTINUOUS
 10
-28.8997894278
 20
-20.0753133609
 40
0.45
100
AcDbArc
 50
271.0
 51
315.0
  0
ARC
  5
5C4
100
AcDbEntity
  8
RACCORDO
100
AcDbCircle
 62
7
  6
CONTINUOUS
 10
-16.1329888773
 20
-17.8115621842
 40
0.45
100
AcDbArc
 50
271.0
 51
360.0
  0
ARC
  5
5C5
100
AcDbEntity
  8
RACCORDO
100
AcDbCircle
 62
7
  6
CONTINUOUS
 10
-39.0717241391
 20
0.6050910865
 40
1.5
100
AcDbArc
 50
173.0
 51
187.0
  0
ARC
  5
5C6
100
AcDbEntity
  8
ASSI
100
AcDbCircle
 62
7
  6
CONTINUOUS
 10
-45.2324098618
 20
21.5343683058
 40
1.0
100
AcDbArc
 50
86.5
 51
172.6178369774
  0
ARC
  5
5C7
100
AcDbEntity
  8
RACCORDO
100
AcDbCircle
 62
7
  6
CONTINUOUS
 10
-45.2324098618
 20
21.5343683058
 40
1.0
100
AcDbArc
 50
86.5
 51
172.6178369774
  0
ARC
  5
5C8
100
AcDbEntity
  8
ASSI
100
AcDbCircle
 62
7
  6
CONTINUOUS
 10
-28.9208602826
 20
21.2358557106
 40
0.5
100
AcDbArc
 50
45.0
 51
89.0
  0
ARC
  5
5C9
100
AcDbEntity
  8
RACCORDO
100
AcDbCircle
 62
7
  6
CONTINUOUS
 10
-28.9208602826
 20
21.2358557106
 40
0.5
100
AcDbArc
 50
45.0
 51
89.0
  0
ARC
  5
5CA
100
AcDbEntity
  8
RACCORDO
100
AcDbCircle
 62
7
  6
CONTINUOUS
 10
-38.4829888773
 20
21.9120121812
 40
0.4
100
AcDbArc
 50
91.0000248902
 51
180.0001600006
  0
ARC
  5
5CB
100
AcDbEntity
  8
RACCORDO
100
AcDbCircle
 62
7
  6
CONTINUOUS
 10
-38.4829888773
 20
21.6981699917
 40
0.4
100
AcDbArc
 50
179.9998404743
 51
268.9999751824
  0
ARC
  5
5CC
100
AcDbEntity
  8
RACCORDO
100
AcDbCircle
 62
7
  6
CONTINUOUS
 10
-37.6161935969
 20
22.7163223688
 40
0.25
100
AcDbArc
 50
93.0
 51
173.0
  0
ARC
  5
5CD
100
AcDbEntity
  8
ASSI
100
AcDbCircle
 62
7
  6
CONTINUOUS
 10
-6.6329888773
 20
5.4970542012
 40
0.45
100
AcDbArc
 50
0.0
 51
89.0
  0
ARC
  5
5CE
100
AcDbEntity
  8
ASSI
100
AcDbCircle
 62
7
  6
CONTINUOUS
 10
-6.6329888773
 20
-5.7868720283
 40
0.45
100
AcDbArc
 50
271.0
 51
360.0
  0
ARC
  5
5CF
100
AcDbEntity
  8
RACCORDO
100
AcDbCircle
 62
7
  6
CONTINUOUS
 10
-6.6329888773
 20
5.4970542012
 40
0.45
100
AcDbArc
 50
0.0
 51
89.0
  0
ARC
  5
5D0
100
AcDbEntity
  8
RACCORDO
100
AcDbCircle
 62
7
  6
CONTINUOUS
 10
-6.6329888773
 20
-5.7868720283
 40
0.45
100
AcDbArc
 50
271.0
 51
360.0
  0
ARC
  5
5D1
100
AcDbEntity
  8
ASSI
100
AcDbCircle
 62
7
  6
CONTINUOUS
 10
-4.4829888773
 20
-3.855403985
 40
0.3
100
AcDbArc
 50
273.0
 51
360.0
  0
ARC
  5
5D2
100
AcDbEntity
  8
ASSI
100
AcDbCircle
 62
7
  6
CONTINUOUS
 10
-4.4829888773
 20
2.9655861579
 40
0.3
100
AcDbArc
 50
0.0
 51
87.0
  0
ARC
  5
5D3
100
AcDbEntity
  8
RACCORDO
100
AcDbCircle
 62
7
  6
CONTINUOUS
 10
-4.4829888773
 20
-3.855403985
 40
0.3
100
AcDbArc
 50
273.0
 51
360.0
  0
ARC
  5
5D4
100
AcDbEntity
  8
RACCORDO
100
AcDbCircle
 62
7
  6
CONTINUOUS
 10
-4.4829888773
 20
2.9655861579
 40
0.3
100
AcDbArc
 50
0.0
 51
87.0
  0
ARC
  5
5D5
100
AcDbEntity
  8
ASSI
100
AcDbCircle
 62
7
  6
CONTINUOUS
 10
-16.1829888773
 20
18.9726094939
 40
0.5
100
AcDbArc
 50
0.0
 51
89.0
  0
ARC
  5
5D6
100
AcDbEntity
  8
RACCORDO
100
AcDbCircle
 62
7
  6
CONTINUOUS
 10
-16.1829888773
 20
18.9726094939
 40
0.5
100
AcDbArc
 50
0.0
 51
89.0
  0
ARC
  5
5D7
100
AcDbEntity
  8
ASSI
100
AcDbCircle
 62
7
  6
CONTINUOUS
 10
-13.9829888773
 20
9.544596015
 40
0.3
100
AcDbArc
 50
273.0
 51
360.0
  0
ARC
  5
5D8
100
AcDbEntity
  8
ASSI
100
AcDbCircle
 62
7
  6
CONTINUOUS
 10
-13.9829888773
 20
16.3655861579
 40
0.3
100
AcDbArc
 50
0.0
 51
87.0
  0
ARC
  5
5D9
100
AcDbEntity
  8
RACCORDO
100
AcDbCircle
 62
7
  6
CONTINUOUS
 10
-13.9829888773
 20
9.544596015
 40
0.3
100
AcDbArc
 50
273.0
 51
360.0
  0
ARC
  5
5DA
100
AcDbEntity
  8
RACCORDO
100
AcDbCircle
 62
7
  6
CONTINUOUS
 10
-13.9829888773
 20
16.3655861579
 40
0.3
100
AcDbArc
 50
0.0
 51
87.0
  0
ARC
  5
5DB
100
AcDbEntity
  8
ASSI
100
AcDbCircle
 62
7
  6
CONTINUOUS
 10
449.6314840271
 20
-42.580579445
 40
500.0
100
AcDbArc
 50
172.6178369774
 51
177.3821630226
  0
ARC
  5
5DC
100
AcDbEntity
  8
SCRITTE
100
AcDbCircle
 62
250
  6
CONTINUOUS
 10
449.6314840271
 20
-42.580579445
 40
500.0
100
AcDbArc
 50
173.2579399088
 51
173.8310850124
  0
ARC
  5
5DD
100
AcDbEntity
  8
0
100
AcDbCircle
 62
7
  6
CONTINUOUS
 10
449.6314840271
 20
-42.580579445
 40
500.0
100
AcDbArc
 50
176.4557836921
 51
176.7538521376
  0
ARC
  5
5DE
100
AcDbEntity
  8
RACCORDO
100
AcDbCircle
 62
7
  6
CONTINUOUS
 10
449.6314840271
 20
-42.580579445
 40
500.0
100
AcDbArc
 50
172.6178369774
 51
177.3821630226
  0
ARC
  5
5DF
100
AcDbEntity
  8
ASSI
100
AcDbCircle
 62
7
  6
CONTINUOUS
 10
25.2644364497
 20
-22.4949089135
 40
0.5
100
AcDbArc
 50
350.803718421
 51
119.112422776
  0
ARC
  5
5E0
100
AcDbEntity
  8
SUPERFICI
100
AcDbCircle
 62
7
  6
CONTINUOUS
 10
25.2644364497
 20
-22.4949089135
 40
0.5
100
AcDbArc
 50
350.803718421
 51
119.112422776
  0
ARC
  5
5E1
100
AcDbEntity
  8
ASSI
100
AcDbCircle
 62
7
  6
CONTINUOUS
 10
27.9144364497
 20
-21.3949089135
 40
0.5
100
AcDbArc
 50
233.1301023542
 51
306.8698976458
  0
ARC
  5
5E2
100
AcDbEntity
  8
ASSI
100
AcDbCircle
 62
7
  6
CONTINUOUS
 10
18.9644364497
 20
0.6050910865
 40
28.0
100
AcDbArc
 50
55.8789063483
 51
56.4427876864
  0
ARC
  5
5E3
100
AcDbEntity
  8
ASSI
100
AcDbCircle
 62
7
  6
CONTINUOUS
 10
18.9644364497
 20
0.6050910865
 40
28.0
100
AcDbArc
 50
52.781461706
 51
54.0372348486
  0
ARC
  5
5E4
100
AcDbEntity
  8
ASSI
100
AcDbCircle
 62
7
  6
CONTINUOUS
 10
18.9644364497
 20
0.6050910865
 40
28.0
100
AcDbArc
 50
305.9627651514
 51
307.218538294
  0
ARC
  5
5E5
100
AcDbEntity
  8
ASSI
100
AcDbCircle
 62
7
  6
CONTINUOUS
 10
18.9644364497
 20
0.6050910865
 40
28.0
100
AcDbArc
 50
303.5572123136
 51
304.1210936517
  0
ARC
  5
5E6
100
AcDbEntity
  8
SUPERFICI
100
AcDbCircle
 62
7
  6
CONTINUOUS
 10
18.9644364497
 20
0.6050910865
 40
28.0
100
AcDbArc
 50
55.8789063483
 51
56.4427876864
  0
ARC
  5
5E7
100
AcDbEntity
  8
SUPERFICI
100
AcDbCircle
 62
7
  6
CONTINUOUS
 10
18.9644364497
 20
0.6050910865
 40
28.0
100
AcDbArc
 50
52.781461706
 51
54.0372348486
  0
ARC
  5
5E8
100
AcDbEntity
  8
SUPERFICI
100
AcDbCircle
 62
7
  6
CONTINUOUS
 10
18.9644364497
 20
0.6050910865
 40
28.0
100
AcDbArc
 50
305.9627651514
 51
307.218538294
  0
ARC
  5
5E9
100
AcDbEntity
  8
SUPERFICI
100
AcDbCircle
 62
7
  6
CONTINUOUS
 10
18.9644364497
 20
0.6050910865
 40
28.0
100
AcDbArc
 50
303.5572123136
 51
304.1210936517
  0
ARC
  5
5EA
100
AcDbEntity
  8
RACCORDO
100
AcDbCircle
 62
7
  6
CONTINUOUS
 10
18.9644364497
 20
0.6050910865
 40
28.0
100
AcDbArc
 50
307.2181187584
 51
307.9474010745
  0
ARC
  5
5EB
100
AcDbEntity
  8
RACCORDO
100
AcDbCircle
 62
7
  6
CONTINUOUS
 10
18.9644364497
 20
0.6050910865
 40
28.0
100
AcDbArc
 50
51.5593989706
 51
52.7818812416
  0
ARC
  5
5EC
100
AcDbEntity
  8
ASSI
100
AcDbCircle
 62
7
  6
CONTINUOUS
 10
25.2644364497
 20
23.7050910865
 40
0.5
100
AcDbArc
 50
240.887577224
 51
9.196281579
  0
ARC
  5
5ED
100
AcDbEntity
  8
SUPERFICI
100
AcDbCircle
 62
7
  6
CONTINUOUS
 10
25.2644364497
 20
23.7050910865
 40
0.5
100
AcDbArc
 50
240.887577224
 51
9.196281579
  0
ARC
  5
5EE
100
AcDbEntity
  8
ASSI
100
AcDbCircle
 62
7
  6
CONTINUOUS
 10
27.9144364497
 20
22.6050910865
 40
0.5
100
AcDbArc
 50
53.1301023542
 51
126.8698976458
  0
ARC
  5
5EF
100
AcDbEntity
  8
ASSI
100
AcDbCircle
 62
7
  6
CONTINUOUS
 10
35.1644364497
 20
-22.4949089135
 40
0.5
100
AcDbArc
 50
60.887577224
 51
189.196281579
  0
ARC
  5
5F0
100
AcDbEntity
  8
SUPERFICI
100
AcDbCircle
 62
7
  6
CONTINUOUS
 10
35.1644364497
 20
-22.4949089135
 40
0.5
100
AcDbArc
 50
60.887577224
 51
189.196281579
  0
ARC
  5
5F1
100
AcDbEntity
  8
ASSI
100
AcDbCircle
 62
7
  6
CONTINUOUS
 10
32.5144364497
 20
-21.3949089135
 40
0.5
100
AcDbArc
 50
233.1301023542
 51
306.8698976458
  0
ARC
  5
5F2
100
AcDbEntity
  8
ASSI
100
AcDbCircle
 62
7
  6
CONTINUOUS
 10
41.4644364497
 20
0.6050910865
 40
28.0
100
AcDbArc
 50
125.9627651514
 51
127.218538294
  0
ARC
  5
5F3
100
AcDbEntity
  8
ASSI
100
AcDbCircle
 62
7
  6
CONTINUOUS
 10
41.4644364497
 20
0.6050910865
 40
28.0
100
AcDbArc
 50
123.5572123136
 51
124.1210936517
  0
ARC
  5
5F4
100
AcDbEntity
  8
ASSI
100
AcDbCircle
 62
7
  6
CONTINUOUS
 10
41.4644364497
 20
0.6050910865
 40
28.0
100
AcDbArc
 50
235.8789063483
 51
236.4427876864
  0
ARC
  5
5F5
100
AcDbEntity
  8
ASSI
100
AcDbCircle
 62
7
  6
CONTINUOUS
 10
41.4644364497
 20
0.6050910865
 40
28.0
100
AcDbArc
 50
232.781461706
 51
234.0372348486
  0
ARC
  5
5F6
100
AcDbEntity
  8
SUPERFICI
100
AcDbCircle
 62
7
  6
CONTINUOUS
 10
41.4644364497
 20
0.6050910865
 40
28.0
100
AcDbArc
 50
125.9627651514
 51
127.218538294
  0
ARC
  5
5F7
100
AcDbEntity
  8
SUPERFICI
100
AcDbCircle
 62
7
  6
CONTINUOUS
 10
41.4644364497
 20
0.6050910865
 40
28.0
100
AcDbArc
 50
123.5572123136
 51
124.1210936517
  0
ARC
  5
5F8
100
AcDbEntity
  8
SUPERFICI
100
AcDbCircle
 62
7
  6
CONTINUOUS
 10
41.4644364497
 20
0.6050910865
 40
28.0
100
AcDbArc
 50
235.8789063483
 51
236.4427876864
  0
ARC
  5
5F9
100
AcDbEntity
  8
SUPERFICI
100
AcDbCircle
 62
7
  6
CONTINUOUS
 10
41.4644364497
 20
0.6050910865
 40
28.0
100
AcDbArc
 50
232.781461706
 51
234.0372348486
  0
ARC
  5
5FA
100
AcDbEntity
  8
RACCORDO
100
AcDbCircle
 62
7
  6
CONTINUOUS
 10
41.4644364497
 20
0.6050910865
 40
28.0
100
AcDbArc
 50
232.052598866
 51
232.7818812416
  0
ARC
  5
5FB
100
AcDbEntity
  8
RACCORDO
100
AcDbCircle
 62
7
  6
CONTINUOUS
 10
41.4644364497
 20
0.6050910865
 40
28.0
100
AcDbArc
 50
127.2181187584
 51
128.4406009909
  0
ARC
  5
5FC
100
AcDbEntity
  8
ASSI
100
AcDbCircle
 62
7
  6
CONTINUOUS
 10
35.1644364497
 20
23.7050910865
 40
0.5
100
AcDbArc
 50
170.803718421
 51
299.112422776
  0
ARC
  5
5FD
100
AcDbEntity
  8
SUPERFICI
100
AcDbCircle
 62
7
  6
CONTINUOUS
 10
35.1644364497
 20
23.7050910865
 40
0.5
100
AcDbArc
 50
170.803718421
 51
299.112422776
  0
ARC
  5
5FE
100
AcDbEntity
  8
ASSI
100
AcDbCircle
 62
7
  6
CONTINUOUS
 10
32.5144364497
 20
22.6050910865
 40
0.5
100
AcDbArc
 50
53.1301023542
 51
126.8698976458
  0
ELLIPSE
  5
5FF
100
AcDbEntity
  8
ASSI
100
AcDbEllipse
 62
7
  6
CONTINUOUS
 10
40.7143602857
 20
21.6620196533
 30
0.0
 11
0.4990996396
 21
0.0313507587
 31
0.0
 40
0.9963558159
 41
-0.0625041969
 42
0.1991541169
  0
ELLIPSE
  5
600
100
AcDbEntity
  8
ASSI
100
AcDbEllipse
 62
7
  6
CONTINUOUS
 10
19.7145126137
 20
21.6620196533
 30
0.0
 11
0.4990996396
 21
-0.0313507587
 31
0.0
 40
0.9963558159
 41
2.942438639
 42
3.2040968505
  0
ELLIPSE
  5
601
100
AcDbEntity
  8
ASSI
100
AcDbEllipse
 62
7
  6
CONTINUOUS
 10
19.7145126137
 20
-20.9747719369
 30
0.0
 11
0.4990996396
 21
0.0313507587
 31
0.0
 40
0.9963558159
 41
3.0790884567
 42
4.6494279327
  0
ELLIPSE
  5
602
100
AcDbEntity
  8
ASSI
100
AcDbEllipse
 62
7
  6
CONTINUOUS
 10
40.7143602857
 20
-20.9747719369
 30
0.0
 11
0.4990996396
 21
-0.0313507587
 31
0.0
 40
0.9963558159
 41
-1.5078352791
 42
0.0625041969
  0
ELLIPSE
  5
603
100
AcDbEntity
  8
RACCORDO
100
AcDbEllipse
 62
7
  6
CONTINUOUS
 10
40.7143602857
 20
21.6620196533
 30
0.0
 11
0.4990996396
 21
0.0313507587
 31
0.0
 40
0.9963558159
 41
-0.0625041969
 42
0.1991541169
  0
ELLIPSE
  5
604
100
AcDbEntity
  8
RACCORDO
100
AcDbEllipse
 62
7
  6
CONTINUOUS
 10
19.7145126137
 20
21.6620196533
 30
0.0
 11
0.4990996396
 21
-0.0313507587
 31
0.0
 40
0.9963558159
 41
2.942438639
 42
3.2040968505
  0
ELLIPSE
  5
605
100
AcDbEntity
  8
RACCORDO
100
AcDbEllipse
 62
7
  6
CONTINUOUS
 10
19.7145126137
 20
-20.9747719369
 30
0.0
 11
0.4990996396
 21
0.0313507587
 31
0.0
 40
0.9963558159
 41
3.0790884567
 42
4.6494279327
  0
ELLIPSE
  5
606
100
AcDbEntity
  8
RACCORDO
100
AcDbEllipse
 62
7
  6
CONTINUOUS
 10
40.7143602857
 20
-20.9747719369
 30
0.0
 11
0.4990996396
 21
-0.0313507587
 31
0.0
 40
0.9963558159
 41
-1.5078352791
 42
0.0625041969
  0
ENDSEC
  0
SECTION
  2
OBJECTS
  0
DICTIONARY
  5
C
100
AcDbDictionary
280
0
281
1
  3
ACAD_GROUP
350
D
  3
ACAD_MLINESTYLE
350
17
  3
ACAD_LAYOUT
350
1A
  3
ACAD_PLOTSETTINGS
350
19
  3
ACAD_PLOTSTYLENAME
350
E
  0
DICTIONARY
  5
D
102
{ACAD_REACTORS
330
C
102
}
100
AcDbDictionary
280
0
281
1
  0
ACDBDICTIONARYWDFLT
  5
E
102
{ACAD_REACTORS
330
C
102
}
100
AcDbDictionary
281
1
  3
Normal
350
F
100
AcDbDictionaryWithDefault
340
F
  0
DICTIONARY
  5
17
102
{ACAD_REACTORS
330
C
102
}
100
AcDbDictionary
280
0
281
1
  3
Standard
350
18
  0
DICTIONARY
  5
19
102
{ACAD_REACTORS
330
C
102
}
100
AcDbDictionary
281
1
  0
DICTIONARY
  5
1A
102
{ACAD_REACTORS
330
C
102
}
100
AcDbDictionary
281
1
  3
Model
350
607
  3
Layout1
350
608
  0
ACDBPLACEHOLDER
  5
F
102
{ACAD_REACTORS
330
E
102
}
  0
MLINESTYLE
  5
18
102
{ACAD_REACTORS
330
17
102
}
100
AcDbMlineStyle
  2
STANDARD
 70
0
  3

 62
256
 51
90.0
 52
90.0
 71
2
 49
0.5
 62
256
  6
BYLAYER
 49
-0.5
 62
256
  6
BYLAYER
  0
LAYOUT
  5
607
102
{ACAD_REACTORS
330
1A
102
}
100
AcDbPlotSettings
  1

  2
none_device
  4
ANSI_C_(22.00_x_17.00_Inches)
  6

 40
0.0
 41
0.0
 42
0.0
 43
0.0
 44
558.8
 45
431.8
 46
0.0
 47
0.0
 48
0.0
 49
0.0
140
0.0
141
0.0
142
1.0
143
1.0
 70
1024
 72
1
 73
0
 74
0
  7

 75
0
147
1.0
148
0.0
149
0.0
100
AcDbLayout
  1
Model
 70
0
 71
0
 10
0.0
 20
0.0
 11
558.8
 21
431.8
 12
0.0
 22
0.0
 32
0.0
 14
0.0
 24
0.0
 34
0.0
 15
0.0
 25
0.0
 35
0.0
146
0.0
 13
0.0
 23
0.0
 33
0.0
 16
1.0
 26
0.0
 36
0.0
 17
0.0
 27
1.0
 37
0.0
 76
0
330
21D
345
0
346
0
  0
LAYOUT
  5
608
102
{ACAD_REACTORS
330
1A
102
}
100
AcDbPlotSettings
  1

  2
none_device
  4
ANSI_C_(22.00_x_17.00_Inches)
  6

 40
0.0
 41
0.0
 42
0.0
 43
0.0
 44
558.8
 45
431.8
 46
0.0
 47
0.0
 48
0.0
 49
0.0
140
0.0
141
0.0
142
1.0
143
1.0
 70
0
 72
1
 73
0
 74
0
  7

 75
0
147
1.0
148
0.0
149
0.0
100
AcDbLayout
  1
Layout1
 70
0
 71
1
 10
0.0
 20
0.0
 11
558.8
 21
431.8
 12
0.0
 22
0.0
 32
0.0
 14
0.0
 24
0.0
 34
0.0
 15
0.0
 25
0.0
 35
0.0
146
0.0
 13
0.0
 23
0.0
 33
0.0
 16
1.0
 26
0.0
 36
0.0
 17
0.0
 27
1.0
 37
0.0
 76
0
330
21E
345
0
346
0
  0
ENDSEC
  0
EOF
