  0
SECTION
  2
HEADER
  9
$ACADVER
  1
AC1024
  9
$DWGCODEPAGE
  3
ANSI_1252
  9
$EXTMAX
 10
297.0
 20
210.0
 30
0.0
  9
$EXTMIN
 10
0.0
 20
0.0
 30
0.0
  9
$LIMMIN
 10
0.0
 20
0.0
  9
$LIMMAX
 10
297.0
 20
210.0
  9
$VIEWCTR
 10
148.5
 20
105.0
  9
$VIEWSIZE
 40
210.0
  9
$CLAYER
  8
0
  9
$LTSCALE
 40
16.335
  9
$CELTYPE
  6
BYLAYER
  9
$DIMSCALE
 40
1.0
  9
$DIMASZ
 40
3.0
  9
$DIMEXO
 40
0.5
  9
$DIMDLI
 40
11.286
  9
$DIMEXE
 40
1.5
  9
$DIMCEN
 40
2.673
  9
$DIMLFAC
 40
1.0
  9
$DIMBLK
  1
_FILLED
  9
$DIMALT
 70
0
  9
$DIMALTF
 40
0.0393700787
  9
$DIMTXT
 40
3.0
  9
$DIMTOL
 70
1
  9
$DIMLIM
 70
0
  9
$DIMTFAC
 40
1.0
  9
$DIMTP
 40
0.01
  9
$DIMTM
 40
0.01
  9
$DIMGAP
 40
0.625
  9
$DIMDSEP
 70
44
  9
$AUNITS
 70
0
  9
$PDMODE
 70
3
  9
$PDSIZE
 40
3.0
  9
$HANDSEED
  5
2D5
  9
$TILEMODE
 70
1
  9
$MEASUREMENT
 70
1
  9
$INSUNITS
 70
4
  0
ENDSEC
  0
SECTION
  2
CLASSES
  0
CLASS
  1
ACDBDICTIONARYWDFLT
  2
AcDbDictionaryWithDefault
  3
AutoCAD 2000
 90
0
 91
1
280
0
281
0
  0
CLASS
  1
ACDBPLACEHOLDER
  2
AcDbPlaceHolder
  3
AutoCAD 2000
 90
0
 91
1
280
0
281
0
  0
CLASS
  1
LAYOUT
  2
AcDbLayout
  3
AutoCAD 2000
 90
0
 91
0
280
0
281
0
  0
ENDSEC
  0
SECTION
  2
TABLES
  0
TABLE
  2
VPORT
  5
8
100
AcDbSymbolTable
 70
2
  0
VPORT
  5
1F4
100
AcDbSymbolTableRecord
100
AcDbViewportTableRecord
  2
*ACTIVE
 70
0
 10
0.0
 20
0.0
 11
1.0
 21
1.0
 12
148.5
 22
105.0
 13
0.0
 23
0.0
 14
1.0
 24
1.0
 15
0.0
 25
0.0
 16
0.0
 26
0.0
 36
1.0
 17
0.0
 27
0.0
 37
0.0
 40
210.0
 41
1.4142857143
 42
50.0
 43
0.0
 44
0.0
 50
0.0
 51
0.0
 71
0
 72
100
 73
1
 74
1
 75
0
 76
0
 77
0
 78
0
  0
ENDTAB
  0
TABLE
  2
LTYPE
  5
5
100
AcDbSymbolTable
 70
6
  0
LTYPE
  5
14
100
AcDbSymbolTableRecord
100
AcDbLinetypeTableRecord
  2
BYBLOCK
 70
0
  3

 72
65
 73
0
 40
0.0
  0
LTYPE
  5
15
100
AcDbSymbolTableRecord
100
AcDbLinetypeTableRecord
  2
BYLAYER
 70
0
  3

 72
65
 73
0
 40
0.0
  0
LTYPE
  5
16
100
AcDbSymbolTableRecord
100
AcDbLinetypeTableRecord
  2
CONTINUOUS
 70
64
  3
Solid line
 72
65
 73
0
 40
0.0
  0
LTYPE
  5
1F5
100
AcDbSymbolTableRecord
100
AcDbLinetypeTableRecord
  2
CENTER
 70
64
  3
____ _ ____ _ ____ _ ____ _ ____ _ ____ _ ____
 72
65
 73
4
 40
0.6
 49
0.375
 74
0
 49
-0.075
 74
0
 49
0.075
 74
0
 49
-0.075
 74
0
  0
LTYPE
  5
1F6
100
AcDbSymbolTableRecord
100
AcDbLinetypeTableRecord
  2
HIDDEN
 70
64
  3
- - - - - - - - - - - - - - - - - - - -
 72
65
 73
2
 40
0.2
 49
0.1
 74
0
 49
-0.1
 74
0
  0
LTYPE
  5
1F7
100
AcDbSymbolTableRecord
100
AcDbLinetypeTableRecord
  2
PHANTOM
 70
64
  3
_____ _ _ _____ _ _ _____ _ _ _____
 72
65
 73
6
 40
0.8
 49
0.45
 74
0
 49
-0.05
 74
0
 49
0.1
 74
0
 49
-0.05
 74
0
 49
0.1
 74
0
 49
-0.05
 74
0
  0
LTYPE
  5
1F8
100
AcDbSymbolTableRecord
100
AcDbLinetypeTableRecord
  2
DOT
 70
64
  3
. . . . . . . . . . . . . . . . . . . .
 72
65
 73
2
 40
0.2
 49
0.1
 74
0
 49
-0.1
 74
0
  0
LTYPE
  5
1F9
100
AcDbSymbolTableRecord
100
AcDbLinetypeTableRecord
  2
DASHED
 70
64
  3
- - - - - - - - - - - - - - - - - - - -
 72
65
 73
2
 40
0.2
 49
0.1
 74
0
 49
-0.1
 74
0
  0
ENDTAB
  0
TABLE
  2
LAYER
  5
2
100
AcDbSymbolTable
 70
36
  0
LAYER
  5
10
100
AcDbSymbolTableRecord
100
AcDbLayerTableRecord
  2
0
 70
0
 62
7
  6
CONTINUOUS
370
-3
390
F
  0
LAYER
  5
1FA
100
AcDbSymbolTableRecord
100
AcDbLayerTableRecord
  2
DEFAULT_1
 70
0
 62
7
  6
CENTER
370
-3
390
F
  0
LAYER
  5
1FB
100
AcDbSymbolTableRecord
100
AcDbLayerTableRecord
  2
DEFAULT_2
 70
0
 62
7
  6
HIDDEN
370
-3
390
F
  0
LAYER
  5
1FC
100
AcDbSymbolTableRecord
100
AcDbLayerTableRecord
  2
DEFAULT_3
 70
0
 62
7
  6
PHANTOM
370
-3
390
F
  0
LAYER
  5
1FD
100
AcDbSymbolTableRecord
100
AcDbLayerTableRecord
  2
ASSI
 70
0
 62
7
  6
CONTINUOUS
370
-3
390
F
  0
LAYER
  5
1FE
100
AcDbSymbolTableRecord
100
AcDbLayerTableRecord
  2
COORDINATE
 70
0
 62
7
  6
CONTINUOUS
370
-3
390
F
  0
LAYER
  5
1FF
100
AcDbSymbolTableRecord
100
AcDbLayerTableRecord
  2
COORD_ORIGINE
 70
0
 62
7
  6
CONTINUOUS
370
-3
390
F
  0
LAYER
  5
200
100
AcDbSymbolTableRecord
100
AcDbLayerTableRecord
  2
COPY_PUBLISH
 70
0
 62
7
  6
CONTINUOUS
370
-3
390
F
  0
LAYER
  5
201
100
AcDbSymbolTableRecord
100
AcDbLayerTableRecord
  2
COSMETIC
 70
0
 62
7
  6
CONTINUOUS
370
-3
390
F
  0
LAYER
  5
202
100
AcDbSymbolTableRecord
100
AcDbLayerTableRecord
  2
COSMETICI
 70
0
 62
7
  6
CONTINUOUS
370
-3
390
F
  0
LAYER
  5
203
100
AcDbSymbolTableRecord
100
AcDbLayerTableRecord
  2
CURVE
 70
0
 62
7
  6
CONTINUOUS
370
-3
390
F
  0
LAYER
  5
204
100
AcDbSymbolTableRecord
100
AcDbLayerTableRecord
  2
DRAFT
 70
0
 62
7
  6
CONTINUOUS
370
-3
390
F
  0
LAYER
  5
205
100
AcDbSymbolTableRecord
100
AcDbLayerTableRecord
  2
IMPORT_IGES
 70
0
 62
7
  6
CONTINUOUS
370
-3
390
F
  0
LAYER
  5
206
100
AcDbSymbolTableRecord
100
AcDbLayerTableRecord
  2
INTFCLR_1
 70
0
 62
7
  6
CONTINUOUS
370
-3
390
F
  0
LAYER
  5
207
100
AcDbSymbolTableRecord
100
AcDbLayerTableRecord
  2
NOTE
 70
0
 62
7
  6
CONTINUOUS
370
-3
390
F
  0
LAYER
  5
208
100
AcDbSymbolTableRecord
100
AcDbLayerTableRecord
  2
PIANI
 70
0
 62
7
  6
CONTINUOUS
370
-3
390
F
  0
LAYER
  5
209
100
AcDbSymbolTableRecord
100
AcDbLayerTableRecord
  2
PIANI_ORIGINE
 70
0
 62
7
  6
CONTINUOUS
370
-3
390
F
  0
LAYER
  5
20A
100
AcDbSymbolTableRecord
100
AcDbLayerTableRecord
  2
PUNTI
 70
0
 62
7
  6
CONTINUOUS
370
-3
390
F
  0
LAYER
  5
20B
100
AcDbSymbolTableRecord
100
AcDbLayerTableRecord
  2
RACCORDO
 70
0
 62
7
  6
CONTINUOUS
370
-3
390
F
  0
LAYER
  5
20C
100
AcDbSymbolTableRecord
100
AcDbLayerTableRecord
  2
SIMBOLI
 70
0
 62
7
  6
CONTINUOUS
370
-3
390
F
  0
LAYER
  5
20D
100
AcDbSymbolTableRecord
100
AcDbLayerTableRecord
  2
SMUSSO
 70
0
 62
7
  6
CONTINUOUS
370
-3
390
F
  0
LAYER
  5
20E
100
AcDbSymbolTableRecord
100
AcDbLayerTableRecord
  2
SNAPLINE
 70
0
 62
7
  6
CONTINUOUS
370
-3
390
F
  0
LAYER
  5
20F
100
AcDbSymbolTableRecord
100
AcDbLayerTableRecord
  2
SUPERFICI
 70
0
 62
7
  6
CONTINUOUS
370
-3
390
F
  0
LAYER
  5
210
100
AcDbSymbolTableRecord
100
AcDbLayerTableRecord
  2
TRASH
 70
0
 62
7
  6
CONTINUOUS
370
-3
390
F
  0
LAYER
  5
211
100
AcDbSymbolTableRecord
100
AcDbLayerTableRecord
  2
XSEC_DATUMS
 70
0
 62
7
  6
CONTINUOUS
370
-3
390
F
  0
ENDTAB
  0
TABLE
  2
STYLE
  5
3
100
AcDbSymbolTable
 70
1
  0
STYLE
  5
11
100
AcDbSymbolTableRecord
100
AcDbTextStyleTableRecord
  2
STANDARD
 70
0
 40
0.0
 41
0.8
 50
0.0
 71
0
 42
0.2
  3
txt
  4

  0
STYLE
  5
212
100
AcDbSymbolTableRecord
100
AcDbTextStyleTableRecord
  2
TEXTSTYLE_1
 70
0
 40
0.0
 41
0.8
 50
0.0
 71
0
 42
0.2
  3
gdt
  4

  0
ENDTAB
  0
TABLE
  2
VIEW
  5
6
100
AcDbSymbolTable
 70
0
  0
ENDTAB
  0
TABLE
  2
UCS
  5
7
100
AcDbSymbolTable
 70
0
  0
ENDTAB
  0
TABLE
  2
APPID
  5
9
100
AcDbSymbolTable
 70
1
  0
APPID
  5
213
100
AcDbSymbolTableRecord
100
AcDbRegAppTableRecord
  2
ACAD
 70
0
  0
ENDTAB
  0
TABLE
  2
BLOCK_RECORD
  5
1
100
AcDbSymbolTable
 70
0
  0
BLOCK_RECORD
  5
214
100
AcDbSymbolTableRecord
100
AcDbBlockTableRecord
  2
*Model_Space
  0
BLOCK_RECORD
  5
215
100
AcDbSymbolTableRecord
100
AcDbBlockTableRecord
  2
*Paper_Space
  0
BLOCK_RECORD
  5
216
100
AcDbSymbolTableRecord
100
AcDbBlockTableRecord
  2
_FILLED
  0
BLOCK_RECORD
  5
217
100
AcDbSymbolTableRecord
100
AcDbBlockTableRecord
  2
*D0
  0
BLOCK_RECORD
  5
218
100
AcDbSymbolTableRecord
100
AcDbBlockTableRecord
  2
*D1
  0
BLOCK_RECORD
  5
219
100
AcDbSymbolTableRecord
100
AcDbBlockTableRecord
  2
*D2
  0
BLOCK_RECORD
  5
21A
100
AcDbSymbolTableRecord
100
AcDbBlockTableRecord
  2
*D3
  0
ENDTAB
  0
TABLE
  2
DIMSTYLE
  5
A
100
AcDbSymbolTable
 70
1
100
AcDbDimStyleTable
 71
0
  0
DIMSTYLE
105
21B
100
AcDbSymbolTableRecord
100
AcDbDimStyleTableRecord
  2
STANDARD
 70
0
  3

  4

 40
1.0
 41
3.0
 42
0.5
 43
0.38
 44
1.5
 45
0.0
 46
0.0
 47
0.01
 48
0.01
140
3.0
141
0.09
142
0.0
143
25.4
144
1.0
145
0.0
146
1.0
147
0.625
 71
1
 72
0
 73
0
 74
0
 75
0
 76
0
 77
1
 78
8
 79
2
170
0
171
1
172
0
173
0
174
0
175
0
176
0
177
0
178
0
270
2
179
2
271
2
272
2
273
2
274
2
275
0
280
0
281
0
282
0
283
1
284
8
285
0
286
0
287
3
288
0
340
11
278
44
341
216
342
216
343
216
344
216
  0
DIMSTYLE
105
21C
100
AcDbSymbolTableRecord
100
AcDbDimStyleTableRecord
  2
DIMSTYLE_1
 70
0
  3

  4

 40
1.0
 41
3.0
 42
0.5
 43
0.38
 44
1.5
 45
0.0
 46
0.0
 47
0.0
 48
0.0
140
3.0
141
0.09
142
0.0
143
25.4
144
1.0
145
0.0
146
1.0
147
0.75
 71
0
 72
0
 73
0
 74
0
 75
0
 76
0
 77
1
 78
8
 79
2
170
0
171
1
172
0
173
0
174
0
175
0
176
0
177
0
178
0
270
2
179
2
271
2
272
2
273
2
274
2
275
0
280
0
281
0
282
0
283
1
284
8
285
0
286
0
287
3
288
0
340
11
278
44
341
216
342
216
343
216
344
216
  0
ENDTAB
  0
ENDSEC
  0
SECTION
  2
BLOCKS
  0
BLOCK
  5
20
100
AcDbEntity
  8
0
100
AcDbBlockBegin
  2
*Model_Space
 70
0
 10
0.0
 20
0.0
 30
0.0
  3
*Model_Space
  1

  0
ENDBLK
  5
21
100
AcDbEntity
  8
0
100
AcDbBlockEnd
  0
BLOCK
  5
1C
100
AcDbEntity
  8
0
100
AcDbBlockBegin
  2
*Paper_Space
 70
0
 10
0.0
 20
0.0
 30
0.0
  3
*Paper_Space
  1

  0
ENDBLK
  5
1D
100
AcDbEntity
  8
0
100
AcDbBlockEnd
  0
BLOCK
  5
21D
100
AcDbEntity
  8
0
100
AcDbBlockBegin
  2
_FILLED
 70
64
 10
0.0
 20
0.0
  3
_FILLED
  1

  0
SOLID
  5
21E
100
AcDbEntity
  8
0
  6
BYBLOCK
 62
0
100
AcDbTrace
 10
0.0
 20
0.0
 11
-1.0
 21
0.3166666667
 12
-1.0
 22
-0.3166666667
 13
-1.0
 23
-0.3166666667
  0
ENDBLK
  5
21F
100
AcDbEntity
  8
0
  6
BYBLOCK
 62
0
100
AcDbBlockEnd
  0
BLOCK
  5
220
100
AcDbEntity
  8
0
100
AcDbBlockBegin
 62
7
  6
CONTINUOUS
  2
*D0
 70
65
 10
0.0
 20
0.0
  3
*D0
  1

  0
LINE
  5
221
100
AcDbEntity
  8
0
100
AcDbLine
 62
7
  6
CONTINUOUS
 10
-11.0
 20
21.6576154961
 11
-11.0
 21
34.4777813096
  0
LINE
  5
222
100
AcDbEntity
  8
0
100
AcDbLine
 62
7
  6
CONTINUOUS
 10
11.0
 20
21.6576154961
 11
11.0
 21
34.4777813096
  0
LINE
  5
223
100
AcDbEntity
  8
0
100
AcDbLine
 62
7
  6
CONTINUOUS
 10
-11.0
 20
32.9777813096
 11
-0.0
 21
32.9777813096
  0
LINE
  5
224
100
AcDbEntity
  8
0
100
AcDbLine
 62
7
  6
CONTINUOUS
 10
11.0
 20
32.9777813096
 11
-0.0
 21
32.9777813096
  0
INSERT
  5
225
100
AcDbEntity
  8
0
100
AcDbBlockReference
 62
7
  6
CONTINUOUS
  2
_FILLED
 10
-11.0
 20
32.9777813096
 41
3.0
 42
3.0
 43
3.0
 50
180.0
  0
INSERT
  5
226
100
AcDbEntity
  8
0
100
AcDbBlockReference
 62
7
  6
CONTINUOUS
  2
_FILLED
 10
11.0
 20
32.9777813096
 41
3.0
 42
3.0
 43
3.0
  0
ENDBLK
  5
227
100
AcDbEntity
  8
0
  6
BYBLOCK
 62
0
100
AcDbBlockEnd
  0
BLOCK
  5
228
100
AcDbEntity
  8
0
100
AcDbBlockBegin
 62
7
  6
CONTINUOUS
  2
*D1
 70
65
 10
0.0
 20
0.0
  3
*D1
  1

  0
LINE
  5
229
100
AcDbEntity
  8
0
100
AcDbLine
 62
7
  6
CONTINUOUS
 10
11.0001522961
 20
21.6575583887
 11
22.5
 21
21.6575583887
  0
LINE
  5
22A
100
AcDbEntity
  8
0
100
AcDbLine
 62
7
  6
CONTINUOUS
 10
11.0001522961
 20
-22.1424416113
 11
22.5
 21
-22.1424416113
  0
LINE
  5
22B
100
AcDbEntity
  8
0
100
AcDbLine
 62
7
  6
CONTINUOUS
 10
21.0
 20
21.6575583887
 11
21.0
 21
-0.2424416113
  0
LINE
  5
22C
100
AcDbEntity
  8
0
100
AcDbLine
 62
7
  6
CONTINUOUS
 10
21.0
 20
-22.1424416113
 11
21.0
 21
-0.2424416113
  0
INSERT
  5
22D
100
AcDbEntity
  8
0
100
AcDbBlockReference
 62
7
  6
CONTINUOUS
  2
_FILLED
 10
21.0
 20
21.6575583887
 41
3.0
 42
3.0
 43
3.0
 50
90.0
  0
INSERT
  5
22E
100
AcDbEntity
  8
0
100
AcDbBlockReference
 62
7
  6
CONTINUOUS
  2
_FILLED
 10
21.0
 20
-22.1424416113
 41
3.0
 42
3.0
 43
3.0
 50
270.0
  0
ENDBLK
  5
22F
100
AcDbEntity
  8
0
  6
BYBLOCK
 62
0
100
AcDbBlockEnd
  0
BLOCK
  5
230
100
AcDbEntity
  8
0
100
AcDbBlockBegin
 62
7
  6
CONTINUOUS
  2
*D2
 70
65
 10
0.0
 20
0.0
  3
*D2
  1

  0
LINE
  5
231
100
AcDbEntity
  8
0
100
AcDbLine
 62
7
  6
CONTINUOUS
 10
-21.7404658598
 20
6.5570710503
 11
-21.7404658598
 21
42.4777813096
  0
LINE
  5
232
100
AcDbEntity
  8
0
100
AcDbLine
 62
7
  6
CONTINUOUS
 10
-33.2404658598
 20
0.2575583887
 11
-33.2404658598
 21
42.4777813096
  0
LINE
  5
233
100
AcDbEntity
  8
0
100
AcDbLine
 62
7
  6
CONTINUOUS
 10
-21.7404658598
 20
40.9777813096
 11
-17.7404658598
 21
40.9777813096
  0
LINE
  5
234
100
AcDbEntity
  8
0
100
AcDbLine
 62
7
  6
CONTINUOUS
 10
-17.7404658598
 20
40.9777813096
 11
-27.4904658598
 21
40.9777813096
  0
LINE
  5
235
100
AcDbEntity
  8
0
100
AcDbLine
 62
7
  6
CONTINUOUS
 10
-33.2404658598
 20
40.9777813096
 11
-37.2404658598
 21
40.9777813096
  0
LINE
  5
236
100
AcDbEntity
  8
0
100
AcDbLine
 62
7
  6
CONTINUOUS
 10
-37.2404658598
 20
40.9777813096
 11
-27.4904658598
 21
40.9777813096
  0
INSERT
  5
237
100
AcDbEntity
  8
0
100
AcDbBlockReference
 62
7
  6
CONTINUOUS
  2
_FILLED
 10
-21.7404658598
 20
40.9777813096
 41
3.0
 42
3.0
 43
3.0
 50
180.0
  0
INSERT
  5
238
100
AcDbEntity
  8
0
100
AcDbBlockReference
 62
7
  6
CONTINUOUS
  2
_FILLED
 10
-33.2404658598
 20
40.9777813096
 41
3.0
 42
3.0
 43
3.0
  0
ENDBLK
  5
239
100
AcDbEntity
  8
0
  6
BYBLOCK
 62
0
100
AcDbBlockEnd
  0
BLOCK
  5
23A
100
AcDbEntity
  8
0
100
AcDbBlockBegin
 62
7
  6
CONTINUOUS
  2
*D3
 70
65
 10
0.0
 20
0.0
  3
*D3
  1

  0
LINE
  5
23B
100
AcDbEntity
  8
0
100
AcDbLine
 62
7
  6
CONTINUOUS
 10
-25.7404658598
 20
21.6576154961
 11
-25.7404658598
 21
34.4777813096
  0
LINE
  5
23C
100
AcDbEntity
  8
0
100
AcDbLine
 62
7
  6
CONTINUOUS
 10
-33.2404658598
 20
0.2575583887
 11
-33.2404658598
 21
34.4777813096
  0
LINE
  5
23D
100
AcDbEntity
  8
0
100
AcDbLine
 62
7
  6
CONTINUOUS
 10
-25.7404658598
 20
32.9777813096
 11
-21.7404658598
 21
32.9777813096
  0
LINE
  5
23E
100
AcDbEntity
  8
0
100
AcDbLine
 62
7
  6
CONTINUOUS
 10
-21.7404658598
 20
32.9777813096
 11
-29.4904658598
 21
32.9777813096
  0
LINE
  5
23F
100
AcDbEntity
  8
0
100
AcDbLine
 62
7
  6
CONTINUOUS
 10
-33.2404658598
 20
32.9777813096
 11
-37.2404658598
 21
32.9777813096
  0
LINE
  5
240
100
AcDbEntity
  8
0
100
AcDbLine
 62
7
  6
CONTINUOUS
 10
-37.2404658598
 20
32.9777813096
 11
-29.4904658598
 21
32.9777813096
  0
INSERT
  5
241
100
AcDbEntity
  8
0
100
AcDbBlockReference
 62
7
  6
CONTINUOUS
  2
_FILLED
 10
-25.7404658598
 20
32.9777813096
 41
3.0
 42
3.0
 43
3.0
 50
180.0
  0
INSERT
  5
242
100
AcDbEntity
  8
0
100
AcDbBlockReference
 62
7
  6
CONTINUOUS
  2
_FILLED
 10
-33.2404658598
 20
32.9777813096
 41
3.0
 42
3.0
 43
3.0
  0
ENDBLK
  5
243
100
AcDbEntity
  8
0
  6
BYBLOCK
 62
0
100
AcDbBlockEnd
  0
ENDSEC
  0
SECTION
  2
ENTITIES
  0
DIMENSION
  5
244
100
AcDbEntity
  8
0
100
AcDbDimension
 62
7
  6
CONTINUOUS
  2
*D0
 10
11.0
 20
32.9777813096
 11
-2.3571428571
 21
32.9777813096
 70
160
 71
2
 72
2
 41
0.9
 42
22.0
  3
DIMSTYLE_1
100
AcDbAlignedDimension
 13
-11.0
 23
21.1576154961
 14
11.0
 24
21.1576154961
100
AcDbRotatedDimension
  0
DIMENSION
  5
245
100
AcDbEntity
  8
0
100
AcDbDimension
 62
7
  6
CONTINUOUS
  2
*D1
 10
21.0
 20
-22.1424416113
 11
21.0
 21
-4.528155897
 70
160
 71
2
 72
2
 41
0.9
 42
43.8
  3
DIMSTYLE_1
100
AcDbAlignedDimension
 13
10.5001522961
 23
21.6575583887
 14
10.5001522961
 24
-22.1424416113
 50
270.0
100
AcDbRotatedDimension
  0
DIMENSION
  5
246
100
AcDbEntity
  8
0
100
AcDbDimension
 62
7
  6
CONTINUOUS
  2
*D2
 10
-33.2404658598
 20
40.9777813096
 11
-31.1333230027
 21
40.9777813096
 70
160
 71
2
 72
2
 41
0.9
 42
11.5
  3
DIMSTYLE_1
100
AcDbAlignedDimension
 13
-21.7404658598
 23
6.0570710503
 14
-33.2404658598
 24
-0.2424416113
 50
180.0
100
AcDbRotatedDimension
  0
DIMENSION
  5
247
100
AcDbEntity
  8
0
100
AcDbDimension
 62
7
  6
CONTINUOUS
  2
*D3
 10
-33.2404658598
 20
32.9777813096
 11
-32.597608717
 21
32.9777813096
 70
160
 71
2
 72
2
 41
0.9
 42
7.5
  3
DIMSTYLE_1
100
AcDbAlignedDimension
 13
-25.7404658598
 23
21.1576154961
 14
-33.2404658598
 24
-0.2424416113
 50
180.0
100
AcDbRotatedDimension
  0
LWPOLYLINE
  5
248
100
AcDbEntity
  8
RACCORDO
100
AcDbPolyline
 62
250
  6
CONTINUOUS
 90
16
 70
0
 10
-10.885196862
 20
-21.0039647036
 10
-10.8816173727
 20
-21.0061133431
 10
-10.8727197946
 20
-21.0082389611
 10
-10.8585994609
 20
-21.0103187825
 10
-10.8394076642
 20
-21.0123305231
 10
-10.8153500351
 20
-21.014252628
 10
-10.7866843396
 20
-21.0160645028
 10
-10.7537177166
 20
-21.0177467342
 10
-10.7168033876
 20
-21.0192812978
 10
-10.6763368715
 20
-21.0206517516
 10
-10.6327517475
 20
-21.0218434118
 10
-10.5865150091
 20
-21.0228435104
 10
-10.5381220603
 20
-21.0236413314
 10
-10.4880914083
 20
-21.0242283266
 10
-10.436959107
 20
-21.0245982066
 10
10.3852730144
 20
-21.0247470089
  0
LWPOLYLINE
  5
249
100
AcDbEntity
  8
RACCORDO
100
AcDbPolyline
 62
250
  6
CONTINUOUS
 90
15
 70
0
 10
-10.8851968619
 20
20.519081481
 10
-10.8816166133
 20
20.5212300583
 10
-10.8727183925
 20
20.5233556128
 10
-10.8585975377
 20
20.5254353705
 10
-10.8394053441
 20
20.5274470485
 10
-10.8153474425
 20
20.5293690929
 10
-10.7866815965
 20
20.5311809105
 10
-10.7537149404
 20
20.5328630889
 10
-10.716800689
 20
20.5343976047
 10
-10.6763343525
 20
20.5357680166
 10
-10.6327494993
 20
20.5369596416
 10
-10.5865131106
 20
20.5379597122
 10
-10.5381205768
 20
20.5387575131
 10
-10.4880903901
 20
20.5393444961
 10
-10.4369585889
 20
20.5397143723
  0
LWPOLYLINE
  5
24A
100
AcDbEntity
  8
RACCORDO
100
AcDbPolyline
 62
250
  6
CONTINUOUS
 90
16
 70
0
 10
10.3937645445
 20
-21.9828397231
 10
10.4460066708
 20
-21.9800792342
 10
10.4976766241
 20
-21.9718757425
 10
10.5482086129
 20
-21.9583191123
 10
10.5970493261
 20
-21.939557818
 10
10.6436639493
 20
-21.9157973337
 10
10.6875420276
 20
-21.887297896
 10
10.7282031182
 20
-21.8543716184
 10
10.7652020191
 20
-21.8173790772
 10
10.7981336135
 20
-21.7767253952
 10
10.826637349
 20
-21.7328557642
 10
10.8504011701
 20
-21.6862505716
 10
10.8691649196
 20
-21.6374201656
 10
10.8827231992
 20
-21.5868992438
 10
10.8909276142
 20
-21.5352409967
 10
10.8936883921
 20
-21.4830110606
  0
LINE
  5
24B
100
AcDbEntity
  8
RACCORDO
100
AcDbLine
 62
7
  6
CONTINUOUS
 10
-10.5001522961
 20
-22.1424416113
 11
10.5001522961
 21
-22.1424416113
  0
LINE
  5
24C
100
AcDbEntity
  8
RACCORDO
100
AcDbLine
 62
250
  6
CONTINUOUS
 10
10.3937645445
 20
-21.9828397231
 11
-10.3937645445
 21
-21.9828397231
  0
LWPOLYLINE
  5
24D
100
AcDbEntity
  8
RACCORDO
100
AcDbPolyline
 62
250
  6
CONTINUOUS
 90
14
 70
0
 10
10.4880914091
 20
-21.0242283256
 10
10.5381220615
 20
-21.0236413302
 10
10.5865150106
 20
-21.0228435092
 10
10.6327517493
 20
-21.0218434108
 10
10.6763368735
 20
-21.0206517508
 10
10.7168033896
 20
-21.0192812972
 10
10.7537177187
 20
-21.0177467337
 10
10.7866843417
 20
-21.0160645025
 10
10.815350037
 20
-21.0142526278
 10
10.8394076658
 20
-21.012330523
 10
10.8585994623
 20
-21.0103187825
 10
10.8727197956
 20
-21.0082389611
 10
10.8816173732
 20
-21.0061133431
 10
10.885196862
 20
-21.0039647036
  0
LINE
  5
24E
100
AcDbEntity
  8
RACCORDO
100
AcDbLine
 62
250
  6
CONTINUOUS
 10
10.3852730144
 20
-21.0247470086
 11
10.4880914091
 21
-21.0242283256
  0
LWPOLYLINE
  5
24F
100
AcDbEntity
  8
RACCORDO
100
AcDbPolyline
 62
250
  6
CONTINUOUS
 90
16
 70
0
 10
-10.8936883921
 20
-21.4830110606
 10
-10.8909276393
 20
-21.5352407583
 10
-10.8827232912
 20
-21.5868988117
 10
-10.8691651071
 20
-21.6374195892
 10
-10.8504014681
 20
-21.6862499031
 10
-10.8266377592
 20
-21.7328550543
 10
-10.7981341266
 20
-21.7767246895
 10
-10.7652026139
 20
-21.8173784169
 10
-10.7282037644
 20
-21.8543710367
 10
-10.6875426916
 20
-21.8872974136
 10
-10.6436645915
 20
-21.9157969629
 10
-10.5970499043
 20
-21.9395575605
 10
-10.5482090918
 20
-21.9583189566
 10
-10.4976769727
 20
-21.9718756683
 10
-10.4460068583
 20
-21.9800792144
 10
-10.3937645445
 20
-21.9828397231
  0
LWPOLYLINE
  5
250
100
AcDbEntity
  8
RACCORDO
100
AcDbPolyline
 62
250
  6
CONTINUOUS
 90
16
 70
0
 10
-10.8936883921
 20
20.9981278381
 10
-10.8909274819
 20
21.0503590257
 10
-10.8827227155
 20
21.10201829
 10
-10.869163934
 20
21.1525399702
 10
-10.8503996038
 20
21.2013708618
 10
-10.8266351915
 20
21.2479762741
 10
-10.7981309135
 20
21.2918458854
 10
-10.7651988872
 20
21.3324993301
 10
-10.7281997133
 20
21.3694914595
 10
-10.6875385267
 20
21.4024172156
 10
-10.6436605611
 20
21.4309160665
 10
-10.5970462733
 20
21.4546759542
 10
-10.5482060826
 20
21.4734367118
 10
-10.4976747811
 20
21.4869929118
 10
-10.4460056789
 20
21.495196116
 10
-10.3937645445
 20
21.4979565005
  0
LWPOLYLINE
  5
251
100
AcDbEntity
  8
RACCORDO
100
AcDbPolyline
 62
250
  6
CONTINUOUS
 90
8
 70
0
 10
-10.8889176257
 20
20.9080883876
 10
-10.8895304004
 20
20.9305485817
 10
-10.890174625
 20
20.9499456573
 10
-10.8908493377
 20
20.9663411922
 10
-10.8915395678
 20
20.9793915421
 10
-10.8922403251
 20
20.988982159
 10
-10.8929565999
 20
20.995227591
 10
-10.8936883921
 20
20.9981278381
  0
LINE
  5
252
100
AcDbEntity
  8
RACCORDO
100
AcDbLine
 62
250
  6
CONTINUOUS
 10
-10.8877956253
 20
20.8546917545
 11
-10.8889176257
 21
20.9080883876
  0
LINE
  5
253
100
AcDbEntity
  8
RACCORDO
100
AcDbLine
 62
250
  6
CONTINUOUS
 10
-10.886845808
 20
20.7913078197
 11
-10.8877956253
 21
20.8546917545
  0
LINE
  5
254
100
AcDbEntity
  8
RACCORDO
100
AcDbLine
 62
250
  6
CONTINUOUS
 10
-10.3889901098
 20
21.3175181013
 11
-10.3902452234
 21
21.4014552337
  0
LINE
  5
255
100
AcDbEntity
  8
RACCORDO
100
AcDbLine
 62
250
  6
CONTINUOUS
 10
-10.3873740414
 20
21.1498135764
 11
-10.3889901098
 21
21.3175181013
  0
LINE
  5
256
100
AcDbEntity
  8
RACCORDO
100
AcDbLine
 62
250
  6
CONTINUOUS
 10
-10.8857978175
 20
20.6816031756
 11
-10.886845808
 21
20.7913078197
  0
LINE
  5
257
100
AcDbEntity
  8
RACCORDO
100
AcDbLine
 62
250
  6
CONTINUOUS
 10
-10.3858741294
 20
20.8651116146
 11
-10.3873740414
 21
21.1498135764
  0
LINE
  5
258
100
AcDbEntity
  8
RACCORDO
100
AcDbLine
 62
250
  6
CONTINUOUS
 10
-10.8852593553
 20
20.5611122312
 11
-10.8857978175
 21
20.6816031756
  0
LINE
  5
259
100
AcDbEntity
  8
RACCORDO
100
AcDbLine
 62
250
  6
CONTINUOUS
 10
-10.3852730144
 20
20.5398637864
 11
-10.3858741294
 21
20.8651116146
  0
LINE
  5
25A
100
AcDbEntity
  8
RACCORDO
100
AcDbLine
 62
7
  6
CONTINUOUS
 10
-11.0
 20
-21.6424987187
 11
-11.0
 21
21.1576154961
  0
LWPOLYLINE
  5
25B
100
AcDbEntity
  8
RACCORDO
100
AcDbPolyline
 62
250
  6
CONTINUOUS
 90
9
 70
0
 10
-10.8822202686
 20
-16.3914950312
 10
-10.8799878232
 20
-11.7784256032
 10
-10.8784995256
 20
-7.1647564196
 10
-10.8777553753
 20
-2.5500885149
 10
-10.8777553729
 20
2.0651791454
 10
-10.8784995202
 20
6.6798496648
 10
-10.8799878178
 20
11.2935240778
 10
-10.882220265
 20
15.9066013498
 10
-10.8852593553
 20
20.5611122312
  0
LWPOLYLINE
  5
25C
100
AcDbEntity
  8
RACCORDO
100
AcDbPolyline
 62
250
  6
CONTINUOUS
 90
9
 70
0
 10
-10.3822964167
 20
-16.4082968103
 10
-10.3800639684
 20
-11.7904667172
 10
-10.3785756696
 20
-7.1716509215
 10
-10.3778315203
 20
-2.5522437465
 10
-10.3778315204
 20
2.0673605288
 10
-10.3785756699
 20
6.6867677033
 10
-10.3800639687
 20
11.305583498
 10
-10.3822964169
 20
15.9234135897
 10
-10.3852730144
 20
20.5398637864
  0
LINE
  5
25D
100
AcDbEntity
  8
RACCORDO
100
AcDbLine
 62
250
  6
CONTINUOUS
 10
-10.3861711483
 20
-21.4263389733
 11
-10.3822964167
 21
-16.4082968103
  0
LINE
  5
25E
100
AcDbEntity
  8
RACCORDO
100
AcDbLine
 62
250
  6
CONTINUOUS
 10
-10.8855587789
 20
-21.1271190491
 11
-10.8822202686
 21
-16.3914950312
  0
LINE
  5
25F
100
AcDbEntity
  8
RACCORDO
100
AcDbLine
 62
250
  6
CONTINUOUS
 10
-10.3878695252
 20
-21.6956800633
 11
-10.3861711483
 21
-21.4263389733
  0
LINE
  5
260
100
AcDbEntity
  8
RACCORDO
100
AcDbLine
 62
250
  6
CONTINUOUS
 10
-10.886444007
 20
-21.2414596785
 11
-10.8855587789
 21
-21.1271190491
  0
LINE
  5
261
100
AcDbEntity
  8
RACCORDO
100
AcDbLine
 62
250
  6
CONTINUOUS
 10
-10.8872994302
 20
-21.3091195913
 11
-10.886444007
 21
-21.2414596785
  0
LWPOLYLINE
  5
262
100
AcDbEntity
  8
RACCORDO
100
AcDbPolyline
 62
250
  6
CONTINUOUS
 90
6
 70
0
 10
-10.3902452234
 20
21.4014552337
 10
-10.3909187714
 20
21.4341195423
 10
-10.3916088684
 20
21.4602602217
 10
-10.3923108781
 20
21.4796950764
 10
-10.3930294367
 20
21.492289639
 10
-10.3937645445
 20
21.4979565005
  0
LWPOLYLINE
  5
263
100
AcDbEntity
  8
RACCORDO
100
AcDbPolyline
 62
250
  6
CONTINUOUS
 90
8
 70
0
 10
-10.3937645445
 20
-21.9828397231
 10
-10.3930294368
 20
-21.9771728616
 10
-10.3923108781
 20
-21.964578299
 10
-10.3916088684
 20
-21.9451434443
 10
-10.3909187714
 20
-21.9190027649
 10
-10.3902452234
 20
-21.8863384563
 10
-10.3896021339
 20
-21.8473805466
 10
-10.3878695252
 20
-21.6956800633
  0
LWPOLYLINE
  5
264
100
AcDbEntity
  8
RACCORDO
100
AcDbPolyline
 62
250
  6
CONTINUOUS
 90
10
 70
0
 10
-10.8936883921
 20
-21.4830110606
 10
-10.8929565999
 20
-21.4801108134
 10
-10.8922403251
 20
-21.4738653814
 10
-10.8915395678
 20
-21.4642747645
 10
-10.8908493377
 20
-21.4512244147
 10
-10.890174625
 20
-21.43482888
 10
-10.8895304004
 20
-21.4154318045
 10
-10.8889176257
 20
-21.3929716104
 10
-10.888335339
 20
-21.3675098754
 10
-10.8872994302
 20
-21.3091195913
  0
LINE
  5
265
100
AcDbEntity
  8
RACCORDO
100
AcDbLine
 62
250
  6
CONTINUOUS
 10
10.3937645445
 20
21.4979565005
 11
10.5001522961
 21
21.6575583887
  0
LWPOLYLINE
  5
266
100
AcDbEntity
  8
0
100
AcDbPolyline
 62
7
  6
CONTINUOUS
 90
2
 70
0
 43
0.3500000006
 10
20.249999382
 20
-3.528155571
 10
18.7500000572
 20
-3.528155571
  0
LINE
  5
267
100
AcDbEntity
  8
RACCORDO
100
AcDbLine
 62
250
  6
CONTINUOUS
 10
10.5001522961
 20
-22.1424416113
 11
10.3937645445
 21
-21.9828397231
  0
LWPOLYLINE
  5
268
100
AcDbEntity
  8
0
100
AcDbPolyline
 62
250
  6
CONTINUOUS
 90
3
 70
0
 10
-1.2965985445
 20
-14.3428811048
 10
-1.2994387635
 20
-14.2933388141
 10
-1.3
 20
-14.2452421714
  0
LINE
  5
269
100
AcDbEntity
  8
RACCORDO
100
AcDbLine
 62
250
  6
CONTINUOUS
 10
10.8936883921
 20
20.9981278381
 11
11.0
 21
21.1576154961
  0
LINE
  5
26A
100
AcDbEntity
  8
RACCORDO
100
AcDbLine
 62
250
  6
CONTINUOUS
 10
11.0
 20
-21.6424987187
 11
10.8936883921
 21
-21.4830110606
  0
LINE
  5
26B
100
AcDbEntity
  8
0
100
AcDbLine
 62
250
  6
CONTINUOUS
 10
-1.3
 20
-14.2452421714
 11
-1.2952327304
 21
-14.1354747834
  0
LWPOLYLINE
  5
26C
100
AcDbEntity
  8
0
100
AcDbPolyline
 62
250
  6
CONTINUOUS
 90
3
 70
0
 10
1.296596153
 20
-14.1475676837
 10
1.2994384646
 20
-14.1971281529
 10
1.3
 20
-14.2452421714
  0
LINE
  5
26D
100
AcDbEntity
  8
0
100
AcDbLine
 62
250
  6
CONTINUOUS
 10
1.3
 20
-14.2452421714
 11
1.2952294669
 21
-14.3550477077
  0
LWPOLYLINE
  5
26E
100
AcDbEntity
  8
0
100
AcDbPolyline
 62
250
  6
CONTINUOUS
 90
43
 70
0
 10
-1.2952327304
 20
-14.1354747834
 10
-1.2816694425
 20
-14.0278851944
 10
-1.2593101362
 20
-13.9224734484
 10
-1.2278664503
 20
-13.8184983276
 10
-1.1876267461
 20
-13.7167011254
 10
-1.1394561076
 20
-13.6193056873
 10
-1.0832023897
 20
-13.5264546075
 10
-1.0190177376
 20
-13.4380054348
 10
-0.948223671
 20
-13.3557545024
 10
-0.8706776857
 20
-13.27981756
 10
-0.7865222859
 20
-13.2100790174
 10
-0.6975065031
 20
-13.1479882279
 10
-0.6035289958
 20
-13.0937058831
 10
-0.5046911055
 20
-13.047071432
 10
-0.4030458881
 20
-13.0090523733
 10
-0.2985339858
 20
-12.9798292151
 10
-0.1912147563
 20
-12.9592215391
 10
-0.0833193289
 20
-12.9476554442
 10
0.0253909617
 20
-12.9454264763
 10
0.1346774502
 20
-12.9522391089
 10
0.2415930118
 20
-12.9676328157
 10
0.346359187
 20
-12.9923021192
 10
0.4487544353
 20
-13.0255524429
 10
0.5451670108
 20
-13.0648396086
 10
0.6347068351
 20
-13.1103779003
 10
0.7182639866
 20
-13.1619529535
 10
0.794896955
 20
-13.2163776473
 10
0.8639736903
 20
-13.2732574861
 10
0.9261262425
 20
-13.3329869169
 10
0.9823092515
 20
-13.3935622746
 10
1.0324508202
 20
-13.4546770859
 10
1.0766228457
 20
-13.5166378079
 10
1.1159956587
 20
-13.5783602005
 10
1.150639762
 20
-13.6397295349
 10
1.1804846528
 20
-13.7008605434
 10
1.2064891543
 20
-13.7610131946
 10
1.2286881542
 20
-13.8200646477
 10
1.2470467647
 20
-13.8781377616
 10
1.2624191451
 20
-13.9348610648
 10
1.2748548639
 20
-13.9901429804
 10
1.2843043527
 20
-14.0440751094
 10
1.2914730652
 20
-14.0965607521
 10
1.296596153
 20
-14.1475676837
  0
LWPOLYLINE
  5
26F
100
AcDbEntity
  8
0
100
AcDbPolyline
 62
7
  6
CONTINUOUS
 90
4
 70
0
 43
0.3500000006
 10
19.8214281464
 20
1.6861304398
 10
18.964285675
 20
1.6861304398
 10
18.5357144394
 20
2.1147016754
 10
18.5357144394
 20
2.7575573959
  0
LWPOLYLINE
  5
270
100
AcDbEntity
  8
0
100
AcDbPolyline
 62
250
  6
CONTINUOUS
 90
43
 70
0
 10
1.2952294669
 20
-14.3550477077
 10
1.2816569334
 20
-14.4626733508
 10
1.2592823995
 20
-14.5681191356
 10
1.2278168167
 20
-14.672127627
 10
1.1875492335
 20
-14.7739563206
 10
1.1393467957
 20
-14.8713776856
 10
1.0830570607
 20
-14.964248589
 10
1.0188324711
 20
-15.0527123059
 10
0.9479975004
 20
-15.1349709809
 10
0.8704097363
 20
-15.2109084955
 10
0.786211591
 20
-15.2806411409
 10
0.6971547745
 20
-15.3427197133
 10
0.6031385979
 20
-15.396983321
 10
0.5042637501
 20
-15.4435930167
 10
0.4025840078
 20
-15.4815825252
 10
0.2980398209
 20
-15.5107715864
 10
0.1906907394
 20
-15.5313405667
 10
0.0827691899
 20
-15.5428641206
 10
-0.0259663011
 20
-15.5450451032
 10
-0.1352742601
 20
-15.5381806825
 10
-0.2421978405
 20
-15.5227369613
 10
-0.3469540879
 20
-15.4980185645
 10
-0.4493259567
 20
-15.4647208025
 10
-0.5457054635
 20
-15.425395802
 10
-0.6352000544
 20
-15.379832633
 10
-0.7187022833
 20
-15.3282421317
 10
-0.7952818282
 20
-15.2738091098
 10
-0.8643094241
 20
-15.216928615
 10
-0.9264143362
 20
-15.1572055465
 10
-0.9825540381
 20
-15.0966395416
 10
-1.0326579016
 20
-15.0355360938
 10
-1.076796555
 20
-14.9735896954
 10
-1.1161393569
 20
-14.9118835151
 10
-1.1507566178
 20
-14.8505323664
 10
-1.1805780271
 20
-14.7894214437
 10
-1.2065620116
 20
-14.7292895072
 10
-1.2287435098
 20
-14.6702593309
 10
-1.2470875831
 20
-14.6122081636
 10
-1.262447842
 20
-14.5555064887
 10
-1.2748738794
 20
-14.5002457863
 10
-1.2843161024
 20
-14.4463346043
 10
-1.2914793428
 20
-14.3938690309
 10
-1.2965985445
 20
-14.3428811048
  0
LINE
  5
271
100
AcDbEntity
  8
RACCORDO
100
AcDbLine
 62
250
  6
CONTINUOUS
 10
-11.0
 20
-21.6424987187
 11
-10.8936883921
 21
-21.4830110606
  0
LINE
  5
272
100
AcDbEntity
  8
RACCORDO
100
AcDbLine
 62
250
  6
CONTINUOUS
 10
-10.5001522961
 20
-22.1424416113
 11
-10.3937645445
 21
-21.9828397231
  0
LINE
  5
273
100
AcDbEntity
  8
RACCORDO
100
AcDbLine
 62
250
  6
CONTINUOUS
 10
-10.8936883921
 20
20.9981278381
 11
-11.0
 21
21.1576154961
  0
LINE
  5
274
100
AcDbEntity
  8
RACCORDO
100
AcDbLine
 62
250
  6
CONTINUOUS
 10
-10.3937645445
 20
21.4979565005
 11
-10.5001522961
 21
21.6575583887
  0
LWPOLYLINE
  5
275
100
AcDbEntity
  8
RACCORDO
100
AcDbPolyline
 62
250
  6
CONTINUOUS
 90
9
 70
0
 10
10.8936883921
 20
-21.4830110606
 10
10.8929555365
 20
-21.4800992708
 10
10.8922384194
 20
-21.4738401988
 10
10.8915370408
 20
-21.4642338447
 10
10.8908464532
 20
-21.4511647807
 10
10.890171604
 20
-21.4347484346
 10
10.8895273363
 20
-21.4153310894
 10
10.888914604
 20
-21.3928534783
 10
10.8883324531
 20
-21.3673748681
  0
LWPOLYLINE
  5
276
100
AcDbEntity
  8
0
100
AcDbPolyline
 62
7
  6
CONTINUOUS
 90
3
 70
0
 43
0.3500000006
 10
19.9642859802
 20
0.6861301346
 10
20.1785704651
 20
0.6147012177
 10
20.4642861328
 20
0.4718433838
  0
LWPOLYLINE
  5
277
100
AcDbEntity
  8
0
100
AcDbPolyline
 62
7
  6
CONTINUOUS
 90
10
 70
0
 43
0.3500000006
 10
19.7499992294
 20
0.6147012177
 10
19.8928570633
 20
0.6861301346
 10
19.9642859802
 20
0.6861301346
 10
20.1071438141
 20
0.5432723007
 10
20.1071438141
 20
0.4718433838
 10
20.0357148972
 20
0.4004144669
 10
19.9642859802
 20
0.4004144669
 10
19.8214281464
 20
0.4718433838
 10
19.7499992294
 20
0.5432723007
 10
19.7499992294
 20
0.6147012177
  0
LWPOLYLINE
  5
278
100
AcDbEntity
  8
RACCORDO
100
AcDbPolyline
 62
250
  6
CONTINUOUS
 90
5
 70
0
 10
10.3937645445
 20
-21.9828397231
 10
10.3930294611
 20
-21.9771736371
 10
10.3923108903
 20
-21.9645804796
 10
10.3916088321
 20
-21.9451469468
 10
10.3909186104
 20
-21.9190057598
  0
LINE
  5
279
100
AcDbEntity
  8
RACCORDO
100
AcDbLine
 62
250
  6
CONTINUOUS
 10
10.3909186104
 20
-21.9190057598
 11
10.3896017329
 21
-21.84738072
  0
LINE
  5
27A
100
AcDbEntity
  8
RACCORDO
100
AcDbLine
 62
250
  6
CONTINUOUS
 10
10.3896017329
 20
-21.84738072
 11
10.3884084183
 21
-21.7517369949
  0
LINE
  5
27B
100
AcDbEntity
  8
RACCORDO
100
AcDbLine
 62
250
  6
CONTINUOUS
 10
10.3884084183
 20
-21.7517369949
 11
10.3869208333
 21
-21.5691846358
  0
LINE
  5
27C
100
AcDbEntity
  8
RACCORDO
100
AcDbLine
 62
250
  6
CONTINUOUS
 10
10.3869208333
 20
-21.5691846358
 11
10.385874033
 21
-21.3500105107
  0
LINE
  5
27D
100
AcDbEntity
  8
RACCORDO
100
AcDbLine
 62
250
  6
CONTINUOUS
 10
10.385874033
 20
-21.3500105107
 11
10.3853357291
 21
-21.1079331406
  0
LWPOLYLINE
  5
27E
100
AcDbEntity
  8
RACCORDO
100
AcDbPolyline
 62
250
  6
CONTINUOUS
 90
9
 70
0
 10
10.3853357291
 20
-21.1079331406
 10
10.3822964168
 20
-16.4082968118
 10
10.3800639686
 20
-11.7904667198
 10
10.3785756698
 20
-7.1716509247
 10
10.3778315204
 20
-2.5522437497
 10
10.3778315204
 20
2.0673605261
 10
10.3785756698
 20
6.6867677012
 10
10.3800639686
 20
11.3055834965
 10
10.3822964168
 20
15.9234135888
  0
LINE
  5
27F
100
AcDbEntity
  8
RACCORDO
100
AcDbLine
 62
250
  6
CONTINUOUS
 10
10.3822964168
 20
15.9234135888
 11
10.3856351944
 21
20.7862489939
  0
LINE
  5
280
100
AcDbEntity
  8
RACCORDO
100
AcDbLine
 62
250
  6
CONTINUOUS
 10
10.3856351944
 20
20.7862489939
 11
10.386519482
 21
21.0146805336
  0
LINE
  5
281
100
AcDbEntity
  8
RACCORDO
100
AcDbLine
 62
250
  6
CONTINUOUS
 10
10.386519482
 20
21.0146805336
 11
10.3878694997
 21
21.2108269608
  0
LINE
  5
282
100
AcDbEntity
  8
RACCORDO
100
AcDbLine
 62
250
  6
CONTINUOUS
 10
10.3878694997
 20
21.2108269608
 11
10.3889898053
 21
21.31752624
  0
LWPOLYLINE
  5
283
100
AcDbEntity
  8
RACCORDO
100
AcDbPolyline
 62
250
  6
CONTINUOUS
 90
7
 70
0
 10
10.3889898053
 20
21.31752624
 10
10.3902449013
 20
21.4014558184
 10
10.3909186104
 20
21.4341225372
 10
10.3916088321
 20
21.4602637242
 10
10.3923108903
 20
21.479697257
 10
10.3930294611
 20
21.4922904145
 10
10.3937645445
 20
21.4979565005
  0
LINE
  5
284
100
AcDbEntity
  8
RACCORDO
100
AcDbLine
 62
250
  6
CONTINUOUS
 10
10.8883324531
 20
-21.3673748681
 11
10.8872967123
 21
-21.3089346533
  0
LINE
  5
285
100
AcDbEntity
  8
RACCORDO
100
AcDbLine
 62
250
  6
CONTINUOUS
 10
10.8872967123
 20
-21.3089346533
 11
10.8860927496
 21
-21.2046051359
  0
LINE
  5
286
100
AcDbEntity
  8
RACCORDO
100
AcDbLine
 62
250
  6
CONTINUOUS
 10
10.8860927496
 20
-21.2046051359
 11
10.8853790175
 21
-21.0868318832
  0
LWPOLYLINE
  5
287
100
AcDbEntity
  8
RACCORDO
100
AcDbPolyline
 62
250
  6
CONTINUOUS
 90
9
 70
0
 10
10.8853790175
 20
-21.0868318832
 10
10.8822202661
 20
-16.3914861443
 10
10.8799878192
 20
-11.7784106952
 10
10.8784995215
 20
-7.1647383563
 10
10.8777553729
 20
-2.5500710207
 10
10.8777553734
 20
2.0651932047
 10
10.8784995226
 20
6.6798599996
 10
10.8799878203
 20
11.2935312572
 10
10.8822202668
 20
15.9066050843
  0
LINE
  5
288
100
AcDbEntity
  8
RACCORDO
100
AcDbLine
 62
7
  6
CONTINUOUS
 10
11.0
 20
-21.6424987187
 11
11.0
 21
21.1576154961
  0
LINE
  5
289
100
AcDbEntity
  8
RACCORDO
100
AcDbLine
 62
250
  6
CONTINUOUS
 10
10.8822202668
 20
15.9066050843
 11
10.8853790175
 21
20.6019486606
  0
LINE
  5
28A
100
AcDbEntity
  8
RACCORDO
100
AcDbLine
 62
250
  6
CONTINUOUS
 10
10.8853790175
 20
20.6019486606
 11
10.8860927496
 21
20.7197219134
  0
LINE
  5
28B
100
AcDbEntity
  8
RACCORDO
100
AcDbLine
 62
250
  6
CONTINUOUS
 10
10.8860927496
 20
20.7197219134
 11
10.8872967123
 21
20.8240514308
  0
LWPOLYLINE
  5
28C
100
AcDbEntity
  8
RACCORDO
100
AcDbPolyline
 62
250
  6
CONTINUOUS
 90
10
 70
0
 10
10.8872967123
 20
20.8240514308
 10
10.8883324531
 20
20.8824916454
 10
10.888914604
 20
20.9079702555
 10
10.8895273363
 20
20.9304478666
 10
10.890171604
 20
20.9498652119
 10
10.8908464532
 20
20.9662815582
 10
10.8915370408
 20
20.9793506223
 10
10.8922384194
 20
20.9889569765
 10
10.8929555365
 20
20.9952160484
 10
10.8936883921
 20
20.9981278381
  0
LWPOLYLINE
  5
28D
100
AcDbEntity
  8
0
100
AcDbPolyline
 62
7
  6
CONTINUOUS
 90
13
 70
0
 43
0.3500000006
 10
18.5357144394
 20
2.1147016754
 10
18.3214288216
 20
1.8289860077
 10
17.6785719681
 20
1.8289860077
 10
17.2499995995
 20
2.1147016754
 10
17.2499995995
 20
2.7575573959
 10
17.6785719681
 20
3.0432730637
 10
18.3214288216
 20
3.0432730637
 10
18.5357144394
 20
2.7575573959
 10
18.964285675
 20
3.1861308975
 10
19.8214281464
 20
3.1861308975
 10
20.249999382
 20
2.7575573959
 10
20.249999382
 20
2.1147016754
 10
19.8214281464
 20
1.6861304398
  0
LWPOLYLINE
  5
28E
100
AcDbEntity
  8
0
100
AcDbPolyline
 62
7
  6
CONTINUOUS
 90
5
 70
0
 43
0.3500000006
 10
18.5357144394
 20
-1.3138704758
 10
18.3214288216
 20
-0.956728157
 10
17.6785719681
 20
-0.956728157
 10
17.2499995995
 20
-1.3138704758
 10
17.2499995995
 20
-2.1710129471
  0
LWPOLYLINE
  5
28F
100
AcDbEntity
  8
0
100
AcDbPolyline
 62
7
  6
CONTINUOUS
 90
3
 70
0
 43
0.3500000006
 10
19.6071436615
 20
-3.0281554184
 10
19.6071436615
 20
-4.5281558762
 10
17.2499995995
 20
-3.8852990227
  0
LWPOLYLINE
  5
290
100
AcDbEntity
  8
0
100
AcDbPolyline
 62
7
  6
CONTINUOUS
 90
6
 70
0
 43
0.3500000006
 10
20.249999382
 20
-2.1710129471
 10
20.249999382
 20
-1.099583725
 10
20.0357148972
 20
-0.8852992401
 10
18.964285675
 20
-0.8852992401
 10
18.5357144394
 20
-1.3138704758
 10
18.5357144394
 20
-1.7424417114
  0
LINE
  5
291
100
AcDbEntity
  8
RACCORDO
100
AcDbLine
 62
250
  6
CONTINUOUS
 10
-10.4369585889
 20
20.5397143723
 11
10.3852730144
 21
20.5398637864
  0
LWPOLYLINE
  5
292
100
AcDbEntity
  8
RACCORDO
100
AcDbPolyline
 62
250
  6
CONTINUOUS
 90
16
 70
0
 10
10.3852730144
 20
20.5398628111
 10
10.4369582666
 20
20.5397140097
 10
10.4880897569
 20
20.5393441429
 10
10.5381196542
 20
20.5387571735
 10
10.5865119298
 20
20.5379593904
 10
10.6327481009
 20
20.5369593411
 10
10.6763327857
 20
20.5357677407
 10
10.7167990105
 20
20.5343973559
 10
10.7537132136
 20
20.5328628695
 10
10.7866798902
 20
20.5311807222
 10
10.8153458299
 20
20.5293689367
 10
10.839403901
 20
20.5274469249
 10
10.8585963415
 20
20.5254352795
 10
10.8727175203
 20
20.5233555536
 10
10.8816161408
 20
20.5212300297
 10
10.8851968618
 20
20.519081481
  0
LINE
  5
293
100
AcDbEntity
  8
RACCORDO
100
AcDbLine
 62
250
  6
CONTINUOUS
 10
-10.3937645445
 20
21.4979565005
 11
10.3937645445
 21
21.4979565005
  0
LINE
  5
294
100
AcDbEntity
  8
RACCORDO
100
AcDbLine
 62
7
  6
CONTINUOUS
 10
-10.5001522961
 20
21.6575583887
 11
10.5001522961
 21
21.6575583887
  0
LWPOLYLINE
  5
295
100
AcDbEntity
  8
RACCORDO
100
AcDbPolyline
 62
250
  6
CONTINUOUS
 90
16
 70
0
 10
10.3937645445
 20
21.4979565005
 10
10.4460056789
 20
21.495196116
 10
10.4976747811
 20
21.4869929118
 10
10.5482060825
 20
21.4734367118
 10
10.5970462732
 20
21.4546759543
 10
10.643660561
 20
21.4309160665
 10
10.6875385266
 20
21.4024172157
 10
10.7281997132
 20
21.3694914596
 10
10.7651988872
 20
21.3324993302
 10
10.7981309134
 20
21.2918458854
 10
10.8266351914
 20
21.2479762742
 10
10.8503996038
 20
21.2013708618
 10
10.869163934
 20
21.1525399702
 10
10.8827227155
 20
21.10201829
 10
10.8909274819
 20
21.0503590257
 10
10.8936883921
 20
20.9981278381
  0
LWPOLYLINE
  5
296
100
AcDbEntity
  8
0
100
AcDbPolyline
 62
7
  6
CONTINUOUS
 90
7
 70
0
 43
0.3500000006
 10
1.5000000329
 20
33.7277812042
 10
-0.0
 20
33.7277812042
 10
1.5000000329
 20
35.8706396484
 10
1.5000000329
 20
36.2992086182
 10
1.0714285848
 20
36.7277821198
 10
0.4285714127
 20
36.7277821198
 10
-0.0
 20
36.0849241333
  0
LWPOLYLINE
  5
297
100
AcDbEntity
  8
0
100
AcDbPolyline
 62
7
  6
CONTINUOUS
 90
7
 70
0
 43
0.3500000006
 10
-0.8571428254
 20
33.7277812042
 10
-2.3571427875
 20
33.7277812042
 10
-0.8571428254
 20
35.8706396484
 10
-0.8571428254
 20
36.2992086182
 10
-1.2857142735
 20
36.7277821198
 10
-1.9285714102
 20
36.7277821198
 10
-2.3571427875
 20
36.0849241333
  0
LWPOLYLINE
  5
298
100
AcDbEntity
  8
0
100
AcDbPolyline
 62
7
  6
CONTINUOUS
 90
3
 70
0
 43
0.3500000006
 10
-31.1333231964
 20
43.870637558
 10
-30.2761807251
 20
44.7277800293
 10
-30.2761807251
 20
41.7277791138
  0
LWPOLYLINE
  5
299
100
AcDbEntity
  8
0
100
AcDbPolyline
 62
7
  6
CONTINUOUS
 90
3
 70
0
 43
0.3500000006
 10
-29.4190382538
 20
43.870637558
 10
-28.5618935165
 20
44.7277800293
 10
-28.5618935165
 20
41.7277791138
  0
LINE
  5
29A
100
AcDbEntity
  8
RACCORDO
100
AcDbLine
 62
7
  6
CONTINUOUS
 10
-25.7404658598
 20
-22.1424416113
 11
-31.8354160698
 21
-21.9828397231
  0
LINE
  5
29B
100
AcDbEntity
  8
RACCORDO
100
AcDbLine
 62
250
  6
CONTINUOUS
 10
-25.7404658598
 20
-21.6424987187
 11
-31.8310537988
 21
-21.4830110606
  0
LWPOLYLINE
  5
29C
100
AcDbEntity
  8
RACCORDO
100
AcDbPolyline
 62
250
  6
CONTINUOUS
 90
19
 70
0
 10
-31.8310537988
 20
-21.4830110606
 10
-31.8730390684
 20
-21.4800992708
 10
-31.9141226786
 20
-21.4738401988
 10
-31.9543046292
 20
-21.4642338447
 10
-31.9938683705
 20
-21.4511647807
 10
-32.0325304524
 20
-21.4347484346
 10
-32.0694405241
 20
-21.4153310894
 10
-32.1045439344
 20
-21.3928534783
 10
-32.1378953346
 20
-21.3673748681
 10
-32.1688083287
 20
-21.3394193427
 10
-32.1972328856
 20
-21.3089346533
 10
-32.2232190365
 20
-21.2759730487
 10
-32.2462304781
 20
-21.2412153593
 10
-32.266207865
 20
-21.2046051359
 10
-32.2832105426
 20
-21.1661988278
 10
-32.296880245
 20
-21.1268466127
 10
-32.3070975499
 20
-21.0868318832
 10
-32.3139818795
 20
-21.0458712469
 10
-32.3175332337
 20
-21.0039647036
  0
LINE
  5
29D
100
AcDbEntity
  8
RACCORDO
100
AcDbLine
 62
250
  6
CONTINUOUS
 10
-32.8083749312
 20
-21.0247470086
 11
-32.805700176
 21
-21.0245982061
  0
LINE
  5
29E
100
AcDbEntity
  8
RACCORDO
100
AcDbLine
 62
250
  6
CONTINUOUS
 10
-32.805700176
 20
-21.0245982061
 11
-32.3691200467
 21
-21.0061133431
  0
LINE
  5
29F
100
AcDbEntity
  8
RACCORDO
100
AcDbLine
 62
250
  6
CONTINUOUS
 10
-32.3691200467
 20
-21.0061133431
 11
-32.3175332337
 21
-21.0039647036
  0
LWPOLYLINE
  5
2A0
100
AcDbEntity
  8
0
100
AcDbPolyline
 62
7
  6
CONTINUOUS
 90
3
 70
0
 43
0.3500000006
 10
-26.9904664078
 20
42.0134947815
 10
-27.0618953247
 20
41.7992102966
 10
-27.2047508926
 20
41.5134946289
  0
LWPOLYLINE
  5
2A1
100
AcDbEntity
  8
0
100
AcDbPolyline
 62
7
  6
CONTINUOUS
 90
3
 70
0
 43
0.3500000006
 10
-29.5261804962
 20
34.0134968719
 10
-29.5976094131
 20
33.7992078552
 10
-29.7404649811
 20
33.5134967194
  0
LWPOLYLINE
  5
2A2
100
AcDbEntity
  8
RACCORDO
100
AcDbPolyline
 62
250
  6
CONTINUOUS
 90
8
 70
0
 10
-31.8354160698
 20
21.4979565005
 10
-31.8362556594
 20
21.495196116
 10
-31.8369427389
 20
21.4869929118
 10
-31.8374697846
 20
21.4734367118
 10
-31.8378310256
 20
21.4546759543
 10
-31.8380225063
 20
21.4309160665
 10
-31.8380421302
 20
21.4024172157
 10
-31.8375668323
 20
21.3324993302
  0
LINE
  5
2A3
100
AcDbEntity
  8
0
100
AcDbLine
 62
7
  6
CONTINUOUS
 10
-25.7404658598
 20
-8.2354574574
 11
-22.7055663631
 21
-8.1294764316
  0
LWPOLYLINE
  5
2A4
100
AcDbEntity
  8
RACCORDO
100
AcDbPolyline
 62
250
  6
CONTINUOUS
 90
7
 70
0
 10
-31.8354160698
 20
-21.9828397231
 10
-31.8362556645
 20
-21.9800792342
 10
-31.8369427429
 20
-21.9718757425
 10
-31.8374697821
 20
-21.9583191123
 10
-31.837831012
 20
-21.939557818
 10
-31.8380224778
 20
-21.9157973337
 10
-31.8380420849
 20
-21.887297896
  0
LINE
  5
2A5
100
AcDbEntity
  8
0
100
AcDbLine
 62
250
  6
CONTINUOUS
 10
-21.7404658598
 20
-6.5419542729
 11
-25.7404658598
 21
-6.6816373509
  0
LWPOLYLINE
  5
2A6
100
AcDbEntity
  8
RACCORDO
100
AcDbPolyline
 62
250
  6
CONTINUOUS
 90
19
 70
0
 10
-32.3175332337
 20
20.519081481
 10
-32.3139818794
 20
20.5609880242
 10
-32.3070975497
 20
20.6019486606
 10
-32.2968802448
 20
20.64196339
 10
-32.2832105426
 20
20.6813156052
 10
-32.266207865
 20
20.7197219134
 10
-32.2462304783
 20
20.7563321368
 10
-32.2232190366
 20
20.7910898262
 10
-32.1972328857
 20
20.8240514308
 10
-32.1688083287
 20
20.8545361201
 10
-32.1378953345
 20
20.8824916454
 10
-32.1045439343
 20
20.9079702555
 10
-32.0694405241
 20
20.9304478666
 10
-32.0325304523
 20
20.9498652119
 10
-31.9938683705
 20
20.9662815582
 10
-31.9543046293
 20
20.9793506223
 10
-31.9141226786
 20
20.9889569765
 10
-31.8730390685
 20
20.9952160484
 10
-31.8310537988
 20
20.9981278381
  0
LINE
  5
2A7
100
AcDbEntity
  8
0
100
AcDbLine
 62
7
  6
CONTINUOUS
 10
-25.7404658598
 20
-5.8821246893
 11
-21.7404658598
 21
-5.7424416113
  0
LINE
  5
2A8
100
AcDbEntity
  8
0
100
AcDbLine
 62
7
  6
CONTINUOUS
 10
-25.7404658598
 20
-4.9967634107
 11
-22.0920407768
 21
-5.0158666943
  0
LWPOLYLINE
  5
2A9
100
AcDbEntity
  8
RACCORDO
100
AcDbPolyline
 62
250
  6
CONTINUOUS
 90
10
 70
0
 10
-32.3175332337
 20
-21.0039647036
 10
-32.4880622987
 20
-16.3914861443
 10
-32.6159590921
 20
-11.7784106952
 10
-32.7012236139
 20
-7.1647383563
 10
-32.7438558571
 20
-2.5500710207
 10
-32.7438558288
 20
2.0651932047
 10
-32.7012235502
 20
6.6798599996
 10
-32.6159590283
 20
11.2935312572
 10
-32.4880622562
 20
15.9066050843
 10
-32.3175332337
 20
20.519081481
  0
LINE
  5
2AA
100
AcDbEntity
  8
RACCORDO
100
AcDbLine
 62
7
  6
CONTINUOUS
 10
-33.0443489602
 20
-14.2452426787
 11
-33.0454984478
 21
-14.2041535301
  0
LWPOLYLINE
  5
2AB
100
AcDbEntity
  8
0
100
AcDbPolyline
 62
7
  6
CONTINUOUS
 90
4
 70
0
 43
0.3500000006
 10
-32.5976080627
 20
36.0849241333
 10
-32.5976080627
 20
36.7277821198
 10
-31.097607605
 20
36.7277821198
 10
-31.9547523422
 20
33.7277812042
  0
LINE
  5
2AC
100
AcDbEntity
  8
RACCORDO
100
AcDbLine
 62
250
  6
CONTINUOUS
 10
-31.8346691469
 20
21.1525399702
 11
-31.8310537988
 21
20.9981278381
  0
LINE
  5
2AD
100
AcDbEntity
  8
RACCORDO
100
AcDbLine
 62
250
  6
CONTINUOUS
 10
-31.8364258927
 20
21.2479762742
 11
-31.8346691469
 21
21.1525399702
  0
LINE
  5
2AE
100
AcDbEntity
  8
RACCORDO
100
AcDbLine
 62
250
  6
CONTINUOUS
 10
-31.8375668323
 20
21.3324993302
 11
-31.8364258927
 21
21.2479762742
  0
LINE
  5
2AF
100
AcDbEntity
  8
RACCORDO
100
AcDbLine
 62
250
  6
CONTINUOUS
 10
-31.8380420849
 20
-21.887297896
 11
-31.8375667542
 21
-21.8173790772
  0
LINE
  5
2B0
100
AcDbEntity
  8
RACCORDO
100
AcDbLine
 62
250
  6
CONTINUOUS
 10
-31.8375667542
 20
-21.8173790772
 11
-31.8364257952
 21
-21.7328557642
  0
LINE
  5
2B1
100
AcDbEntity
  8
RACCORDO
100
AcDbLine
 62
250
  6
CONTINUOUS
 10
-31.8364257952
 20
-21.7328557642
 11
-31.8346690582
 21
-21.6374201656
  0
LWPOLYLINE
  5
2B2
100
AcDbEntity
  8
RACCORDO
100
AcDbPolyline
 62
250
  6
CONTINUOUS
 90
3
 70
0
 10
-31.8346690582
 20
-21.6374201656
 10
-31.832373288
 20
-21.5352409967
 10
-31.8310537988
 20
-21.4830110606
  0
LINE
  5
2B3
100
AcDbEntity
  8
0
100
AcDbLine
 62
7
  6
CONTINUOUS
 10
-22.0920407768
 20
4.5309834717
 11
-21.7404658598
 21
4.8825583887
  0
LINE
  5
2B4
100
AcDbEntity
  8
0
100
AcDbLine
 62
7
  6
CONTINUOUS
 10
-21.7404658598
 20
-5.3674416113
 11
-22.0920407768
 21
-5.0158666943
  0
LINE
  5
2B5
100
AcDbEntity
  8
RACCORDO
100
AcDbLine
 62
7
  6
CONTINUOUS
 10
-25.7404658598
 20
-22.1424416113
 11
-25.7404658598
 21
21.6575583887
  0
LINE
  5
2B6
100
AcDbEntity
  8
0
100
AcDbLine
 62
7
  6
CONTINUOUS
 10
-25.7404658598
 20
4.5118801881
 11
-22.0920407768
 21
4.5309834717
  0
LINE
  5
2B7
100
AcDbEntity
  8
0
100
AcDbLine
 62
7
  6
CONTINUOUS
 10
-25.7404658598
 20
5.3972414667
 11
-21.7404658598
 21
5.2575583887
  0
LINE
  5
2B8
100
AcDbEntity
  8
0
100
AcDbLine
 62
250
  6
CONTINUOUS
 10
-25.7404658598
 20
6.1967541283
 11
-21.7404658598
 21
6.0570710503
  0
LINE
  5
2B9
100
AcDbEntity
  8
0
100
AcDbLine
 62
7
  6
CONTINUOUS
 10
-21.7404658598
 20
6.645202382
 11
-21.7404658598
 21
4.8825583887
  0
LINE
  5
2BA
100
AcDbEntity
  8
0
100
AcDbLine
 62
7
  6
CONTINUOUS
 10
-21.7404658598
 20
-5.3674416113
 11
-21.7404658598
 21
-5.7424416113
  0
LINE
  5
2BB
100
AcDbEntity
  8
0
100
AcDbLine
 62
7
  6
CONTINUOUS
 10
-21.7404658598
 20
-5.7575385774
 11
-21.7404658598
 21
-7.1300856046
  0
LINE
  5
2BC
100
AcDbEntity
  8
0
100
AcDbLine
 62
7
  6
CONTINUOUS
 10
-25.7404658598
 20
7.7505742348
 11
-22.7055663631
 21
7.6445932091
  0
LWPOLYLINE
  5
2BD
100
AcDbEntity
  8
0
100
AcDbPolyline
 62
7
  6
CONTINUOUS
 90
10
 70
0
 43
0.3500000006
 10
-29.5976094131
 20
34.2277813568
 10
-29.5261804962
 20
34.0849235229
 10
-29.5261804962
 20
34.0134968719
 10
-29.6690383301
 20
33.8706390381
 10
-29.7404649811
 20
33.8706390381
 10
-29.811893898
 20
33.9420656891
 10
-29.811893898
 20
34.0134968719
 10
-29.7404649811
 20
34.1563547058
 10
-29.6690383301
 20
34.2277813568
 10
-29.5976094131
 20
34.2277813568
  0
LINE
  5
2BE
100
AcDbEntity
  8
RACCORDO
100
AcDbLine
 62
250
  6
CONTINUOUS
 10
-31.8310537988
 20
20.9981278381
 11
-25.7404658598
 21
21.1576154961
  0
LWPOLYLINE
  5
2BF
100
AcDbEntity
  8
RACCORDO
100
AcDbPolyline
 62
250
  6
CONTINUOUS
 90
3
 70
0
 10
-32.808351471
 20
20.5398628111
 10
-32.80567692
 20
20.5397140097
 10
-32.3175332337
 20
20.519081481
  0
LWPOLYLINE
  5
2C0
100
AcDbEntity
  8
0
100
AcDbPolyline
 62
7
  6
CONTINUOUS
 90
10
 70
0
 43
0.3500000006
 10
-27.0618953247
 20
42.2277792664
 10
-26.9904664078
 20
42.0849259644
 10
-26.9904664078
 20
42.0134947815
 10
-27.1333219757
 20
41.8706369476
 10
-27.2047508926
 20
41.8706369476
 10
-27.2761798096
 20
41.9420681305
 10
-27.2761798096
 20
42.0134947815
 10
-27.2047508926
 20
42.1563526154
 10
-27.1333219757
 20
42.2277792664
 10
-27.0618953247
 20
42.2277792664
  0
LINE
  5
2C1
100
AcDbEntity
  8
RACCORDO
100
AcDbLine
 62
7
  6
CONTINUOUS
 10
-31.8354160698
 20
21.4979565005
 11
-25.7404658598
 21
21.6575583887
  0
LWPOLYLINE
  5
2C2
100
AcDbEntity
  8
0
100
AcDbPolyline
 62
7
  6
CONTINUOUS
 90
8
 70
0
 43
0.3500000006
 10
-28.526180191
 20
33.7277812042
 10
-27.6690377197
 20
33.7277812042
 10
-27.2404664841
 20
34.1563547058
 10
-27.2404664841
 20
35.0134971771
 10
-27.6690377197
 20
35.4420661469
 10
-28.526180191
 20
35.4420661469
 10
-28.526180191
 20
36.7277821198
 10
-27.2404664841
 20
36.7277821198
  0
LWPOLYLINE
  5
2C3
100
AcDbEntity
  8
0
100
AcDbPolyline
 62
7
  6
CONTINUOUS
 90
8
 70
0
 43
0.3500000006
 10
-25.9904661026
 20
41.7277791138
 10
-25.1333236313
 20
41.7277791138
 10
-24.7047523956
 20
42.1563526154
 10
-24.7047523956
 20
43.0134950867
 10
-25.1333236313
 20
43.4420685883
 10
-25.9904661026
 20
43.4420685883
 10
-25.9904661026
 20
44.7277800293
 10
-24.7047523956
 20
44.7277800293
  0
CIRCLE
  5
2C4
100
AcDbEntity
  8
0
100
AcDbCircle
 62
7
  6
CONTINUOUS
 10
0.0
 20
-14.2424416113
 40
1.2
  0
CIRCLE
  5
2C5
100
AcDbEntity
  8
DRAFT
100
AcDbCircle
 62
7
  6
CONTINUOUS
 10
0.0
 20
-14.2424416113
 40
1.0
  0
CIRCLE
  5
2C6
100
AcDbEntity
  8
RACCORDO
100
AcDbCircle
 62
7
  6
CONTINUOUS
 10
0.0
 20
-14.2424416113
 40
0.9939257687
  0
CIRCLE
  5
2C7
100
AcDbEntity
  8
RACCORDO
100
AcDbCircle
 62
250
  6
CONTINUOUS
 10
0.0
 20
-14.2424416113
 40
0.9029566832
  0
ARC
  5
2C8
100
AcDbEntity
  8
0
100
AcDbCircle
 62
7
  6
CONTINUOUS
 10
466.7595341402
 20
-0.2424416113
 40
500.0
100
AcDbArc
 50
181.4557764466
 51
181.7538596077
  0
ARC
  5
2C9
100
AcDbEntity
  8
RACCORDO
100
AcDbCircle
 62
7
  6
CONTINUOUS
 10
466.7595341402
 20
-0.2424416113
 40
500.0
100
AcDbArc
 50
177.6178369774
 51
182.3821630226
  0
ARC
  5
2CA
100
AcDbEntity
  8
0
100
AcDbCircle
 62
7
  6
CONTINUOUS
 10
-23.0404658598
 20
-14.2424416113
 40
10.0
100
AcDbArc
 50
181.6971884852
 51
181.7462140074
  0
ARC
  5
2CB
100
AcDbEntity
  8
RACCORDO
100
AcDbCircle
 62
7
  6
CONTINUOUS
 10
-31.8092391215
 20
20.4982991756
 40
1.0
100
AcDbArc
 50
91.5
 51
177.6178369774
  0
ARC
  5
2CC
100
AcDbEntity
  8
RACCORDO
100
AcDbCircle
 62
7
  6
CONTINUOUS
 10
-31.8092391215
 20
-20.9831823982
 40
1.0
100
AcDbArc
 50
182.3821630226
 51
268.5
  0
ARC
  5
2CD
100
AcDbEntity
  8
0
100
AcDbCircle
 62
7
  6
CONTINUOUS
 10
-22.7404658598
 20
6.645202382
 40
1.0
100
AcDbArc
 50
0.0
 51
88.0
  0
ARC
  5
2CE
100
AcDbEntity
  8
0
100
AcDbCircle
 62
7
  6
CONTINUOUS
 10
-22.7404658598
 20
-7.1300856046
 40
1.0
100
AcDbArc
 50
272.0
 51
360.0
  0
ELLIPSE
  5
2CF
100
AcDbEntity
  8
RACCORDO
100
AcDbEllipse
 62
7
  6
CONTINUOUS
 10
-10.499923836
 20
21.1573869925
 30
0.0
 11
-0.2774630169
 21
0.416247366
 31
0.0
 40
0.9995051766
 41
-0.5877156075
 42
0.9826238685
  0
ELLIPSE
  5
2D0
100
AcDbEntity
  8
RACCORDO
100
AcDbEllipse
 62
7
  6
CONTINUOUS
 10
-10.499923836
 20
-21.642270215
 30
0.0
 11
0.2774630169
 21
0.416247366
 31
0.0
 40
0.9995051766
 41
-4.1242165221
 42
-2.5538770461
  0
ELLIPSE
  5
2D1
100
AcDbEntity
  8
RACCORDO
100
AcDbEllipse
 62
7
  6
CONTINUOUS
 10
10.499923836
 20
21.1573869925
 30
0.0
 11
0.2774630169
 21
0.416247366
 31
0.0
 40
0.9995051766
 41
-0.9826238685
 42
0.5877156075
  0
ELLIPSE
  5
2D2
100
AcDbEntity
  8
RACCORDO
100
AcDbEllipse
 62
7
  6
CONTINUOUS
 10
10.499923836
 20
-21.642270215
 30
0.0
 11
-0.2774630169
 21
0.416247366
 31
0.0
 40
0.9995051766
 41
-3.7293082611
 42
-2.1589687851
  0
ENDSEC
  0
SECTION
  2
OBJECTS
  0
DICTIONARY
  5
C
100
AcDbDictionary
280
0
281
1
  3
ACAD_GROUP
350
D
  3
ACAD_MLINESTYLE
350
17
  3
ACAD_LAYOUT
350
1A
  3
ACAD_PLOTSETTINGS
350
19
  3
ACAD_PLOTSTYLENAME
350
E
  0
DICTIONARY
  5
D
102
{ACAD_REACTORS
330
C
102
}
100
AcDbDictionary
280
0
281
1
  0
ACDBDICTIONARYWDFLT
  5
E
102
{ACAD_REACTORS
330
C
102
}
100
AcDbDictionary
281
1
  3
Normal
350
F
100
AcDbDictionaryWithDefault
340
F
  0
DICTIONARY
  5
17
102
{ACAD_REACTORS
330
C
102
}
100
AcDbDictionary
280
0
281
1
  3
Standard
350
18
  0
DICTIONARY
  5
19
102
{ACAD_REACTORS
330
C
102
}
100
AcDbDictionary
281
1
  0
DICTIONARY
  5
1A
102
{ACAD_REACTORS
330
C
102
}
100
AcDbDictionary
281
1
  3
Model
350
2D3
  3
Layout1
350
2D4
  0
ACDBPLACEHOLDER
  5
F
102
{ACAD_REACTORS
330
E
102
}
  0
MLINESTYLE
  5
18
102
{ACAD_REACTORS
330
17
102
}
100
AcDbMlineStyle
  2
STANDARD
 70
0
  3

 62
256
 51
90.0
 52
90.0
 71
2
 49
0.5
 62
256
  6
BYLAYER
 49
-0.5
 62
256
  6
BYLAYER
  0
LAYOUT
  5
2D3
102
{ACAD_REACTORS
330
1A
102
}
100
AcDbPlotSettings
  1

  2
none_device
  4
ISO_A4_(297.00_x_210.00_MM)
  6

 40
0.0
 41
0.0
 42
0.0
 43
0.0
 44
297.0
 45
210.0
 46
0.0
 47
0.0
 48
0.0
 49
0.0
140
0.0
141
0.0
142
1.0
143
1.0
 70
1024
 72
1
 73
0
 74
0
  7

 75
0
147
1.0
148
0.0
149
0.0
100
AcDbLayout
  1
Model
 70
0
 71
0
 10
0.0
 20
0.0
 11
297.0
 21
210.0
 12
0.0
 22
0.0
 32
0.0
 14
0.0
 24
0.0
 34
0.0
 15
0.0
 25
0.0
 35
0.0
146
0.0
 13
0.0
 23
0.0
 33
0.0
 16
1.0
 26
0.0
 36
0.0
 17
0.0
 27
1.0
 37
0.0
 76
0
330
214
345
0
346
0
  0
LAYOUT
  5
2D4
102
{ACAD_REACTORS
330
1A
102
}
100
AcDbPlotSettings
  1

  2
none_device
  4
ISO_A4_(297.00_x_210.00_MM)
  6

 40
0.0
 41
0.0
 42
0.0
 43
0.0
 44
297.0
 45
210.0
 46
0.0
 47
0.0
 48
0.0
 49
0.0
140
0.0
141
0.0
142
1.0
143
1.0
 70
0
 72
1
 73
0
 74
0
  7

 75
0
147
1.0
148
0.0
149
0.0
100
AcDbLayout
  1
Layout1
 70
0
 71
1
 10
0.0
 20
0.0
 11
297.0
 21
210.0
 12
0.0
 22
0.0
 32
0.0
 14
0.0
 24
0.0
 34
0.0
 15
0.0
 25
0.0
 35
0.0
146
0.0
 13
0.0
 23
0.0
 33
0.0
 16
1.0
 26
0.0
 36
0.0
 17
0.0
 27
1.0
 37
0.0
 76
0
330
215
345
0
346
0
  0
ENDSEC
  0
EOF
