  0
SECTION
  2
HEADER
  9
$ACADVER
  1
AC1024
  9
$DWGCODEPAGE
  3
ANSI_1252
  9
$EXTMAX
 10
297.0
 20
210.0
 30
0.0
  9
$EXTMIN
 10
0.0
 20
0.0
 30
0.0
  9
$LIMMIN
 10
0.0
 20
0.0
  9
$LIMMAX
 10
297.0
 20
210.0
  9
$VIEWCTR
 10
148.5
 20
105.0
  9
$VIEWSIZE
 40
210.0
  9
$CLAYER
  8
0
  9
$LTSCALE
 40
16.335
  9
$CELTYPE
  6
BYLAYER
  9
$DIMSCALE
 40
1.0
  9
$DIMASZ
 40
3.0
  9
$DIMEXO
 40
0.5
  9
$DIMDLI
 40
11.286
  9
$DIMEXE
 40
1.5
  9
$DIMCEN
 40
2.673
  9
$DIMLFAC
 40
1.0
  9
$DIMBLK
  1
_FILLED
  9
$DIMALT
 70
0
  9
$DIMALTF
 40
0.0393700787
  9
$DIMTXT
 40
3.0
  9
$DIMTOL
 70
1
  9
$DIMLIM
 70
0
  9
$DIMTFAC
 40
1.0
  9
$DIMTP
 40
0.01
  9
$DIMTM
 40
0.01
  9
$DIMGAP
 40
0.625
  9
$DIMDSEP
 70
44
  9
$AUNITS
 70
0
  9
$PDMODE
 70
3
  9
$PDSIZE
 40
3.0
  9
$HANDSEED
  5
2CA
  9
$TILEMODE
 70
1
  9
$MEASUREMENT
 70
1
  9
$INSUNITS
 70
4
  0
ENDSEC
  0
SECTION
  2
CLASSES
  0
CLASS
  1
ACDBDICTIONARYWDFLT
  2
AcDbDictionaryWithDefault
  3
AutoCAD 2000
 90
0
 91
1
280
0
281
0
  0
CLASS
  1
ACDBPLACEHOLDER
  2
AcDbPlaceHolder
  3
AutoCAD 2000
 90
0
 91
1
280
0
281
0
  0
CLASS
  1
LAYOUT
  2
AcDbLayout
  3
AutoCAD 2000
 90
0
 91
0
280
0
281
0
  0
ENDSEC
  0
SECTION
  2
TABLES
  0
TABLE
  2
VPORT
  5
8
100
AcDbSymbolTable
 70
2
  0
VPORT
  5
1F4
100
AcDbSymbolTableRecord
100
AcDbViewportTableRecord
  2
*ACTIVE
 70
0
 10
0.0
 20
0.0
 11
1.0
 21
1.0
 12
148.5
 22
105.0
 13
0.0
 23
0.0
 14
1.0
 24
1.0
 15
0.0
 25
0.0
 16
0.0
 26
0.0
 36
1.0
 17
0.0
 27
0.0
 37
0.0
 40
210.0
 41
1.4142857143
 42
50.0
 43
0.0
 44
0.0
 50
0.0
 51
0.0
 71
0
 72
100
 73
1
 74
1
 75
0
 76
0
 77
0
 78
0
  0
ENDTAB
  0
TABLE
  2
LTYPE
  5
5
100
AcDbSymbolTable
 70
6
  0
LTYPE
  5
14
100
AcDbSymbolTableRecord
100
AcDbLinetypeTableRecord
  2
BYBLOCK
 70
0
  3

 72
65
 73
0
 40
0.0
  0
LTYPE
  5
15
100
AcDbSymbolTableRecord
100
AcDbLinetypeTableRecord
  2
BYLAYER
 70
0
  3

 72
65
 73
0
 40
0.0
  0
LTYPE
  5
16
100
AcDbSymbolTableRecord
100
AcDbLinetypeTableRecord
  2
CONTINUOUS
 70
64
  3
Solid line
 72
65
 73
0
 40
0.0
  0
LTYPE
  5
1F5
100
AcDbSymbolTableRecord
100
AcDbLinetypeTableRecord
  2
CENTER
 70
64
  3
____ _ ____ _ ____ _ ____ _ ____ _ ____ _ ____
 72
65
 73
4
 40
0.6
 49
0.375
 74
0
 49
-0.075
 74
0
 49
0.075
 74
0
 49
-0.075
 74
0
  0
LTYPE
  5
1F6
100
AcDbSymbolTableRecord
100
AcDbLinetypeTableRecord
  2
HIDDEN
 70
64
  3
- - - - - - - - - - - - - - - - - - - -
 72
65
 73
2
 40
0.2
 49
0.1
 74
0
 49
-0.1
 74
0
  0
LTYPE
  5
1F7
100
AcDbSymbolTableRecord
100
AcDbLinetypeTableRecord
  2
PHANTOM
 70
64
  3
_____ _ _ _____ _ _ _____ _ _ _____
 72
65
 73
6
 40
0.8
 49
0.45
 74
0
 49
-0.05
 74
0
 49
0.1
 74
0
 49
-0.05
 74
0
 49
0.1
 74
0
 49
-0.05
 74
0
  0
LTYPE
  5
1F8
100
AcDbSymbolTableRecord
100
AcDbLinetypeTableRecord
  2
DOT
 70
64
  3
. . . . . . . . . . . . . . . . . . . .
 72
65
 73
2
 40
0.2
 49
0.1
 74
0
 49
-0.1
 74
0
  0
LTYPE
  5
1F9
100
AcDbSymbolTableRecord
100
AcDbLinetypeTableRecord
  2
DASHED
 70
64
  3
- - - - - - - - - - - - - - - - - - - -
 72
65
 73
2
 40
0.2
 49
0.1
 74
0
 49
-0.1
 74
0
  0
ENDTAB
  0
TABLE
  2
LAYER
  5
2
100
AcDbSymbolTable
 70
36
  0
LAYER
  5
10
100
AcDbSymbolTableRecord
100
AcDbLayerTableRecord
  2
0
 70
0
 62
7
  6
CONTINUOUS
370
-3
390
F
  0
LAYER
  5
1FA
100
AcDbSymbolTableRecord
100
AcDbLayerTableRecord
  2
DEFAULT_1
 70
0
 62
7
  6
CENTER
370
-3
390
F
  0
LAYER
  5
1FB
100
AcDbSymbolTableRecord
100
AcDbLayerTableRecord
  2
DEFAULT_2
 70
0
 62
7
  6
HIDDEN
370
-3
390
F
  0
LAYER
  5
1FC
100
AcDbSymbolTableRecord
100
AcDbLayerTableRecord
  2
DEFAULT_3
 70
0
 62
7
  6
PHANTOM
370
-3
390
F
  0
LAYER
  5
1FD
100
AcDbSymbolTableRecord
100
AcDbLayerTableRecord
  2
ASSI
 70
0
 62
7
  6
CONTINUOUS
370
-3
390
F
  0
LAYER
  5
1FE
100
AcDbSymbolTableRecord
100
AcDbLayerTableRecord
  2
COORDINATE
 70
0
 62
7
  6
CONTINUOUS
370
-3
390
F
  0
LAYER
  5
1FF
100
AcDbSymbolTableRecord
100
AcDbLayerTableRecord
  2
COORD_ORIGINE
 70
0
 62
7
  6
CONTINUOUS
370
-3
390
F
  0
LAYER
  5
200
100
AcDbSymbolTableRecord
100
AcDbLayerTableRecord
  2
COSMETICI
 70
0
 62
7
  6
CONTINUOUS
370
-3
390
F
  0
LAYER
  5
201
100
AcDbSymbolTableRecord
100
AcDbLayerTableRecord
  2
CURVE
 70
0
 62
7
  6
CONTINUOUS
370
-3
390
F
  0
LAYER
  5
202
100
AcDbSymbolTableRecord
100
AcDbLayerTableRecord
  2
DRAFT
 70
0
 62
7
  6
CONTINUOUS
370
-3
390
F
  0
LAYER
  5
203
100
AcDbSymbolTableRecord
100
AcDbLayerTableRecord
  2
INTFCLR_1
 70
0
 62
7
  6
CONTINUOUS
370
-3
390
F
  0
LAYER
  5
204
100
AcDbSymbolTableRecord
100
AcDbLayerTableRecord
  2
NOTE
 70
0
 62
7
  6
CONTINUOUS
370
-3
390
F
  0
LAYER
  5
205
100
AcDbSymbolTableRecord
100
AcDbLayerTableRecord
  2
PIANI
 70
0
 62
7
  6
CONTINUOUS
370
-3
390
F
  0
LAYER
  5
206
100
AcDbSymbolTableRecord
100
AcDbLayerTableRecord
  2
PIANI_ORIGINE
 70
0
 62
7
  6
CONTINUOUS
370
-3
390
F
  0
LAYER
  5
207
100
AcDbSymbolTableRecord
100
AcDbLayerTableRecord
  2
PUNTI
 70
0
 62
7
  6
CONTINUOUS
370
-3
390
F
  0
LAYER
  5
208
100
AcDbSymbolTableRecord
100
AcDbLayerTableRecord
  2
RACCORDO
 70
0
 62
7
  6
CONTINUOUS
370
-3
390
F
  0
LAYER
  5
209
100
AcDbSymbolTableRecord
100
AcDbLayerTableRecord
  2
SIMBOLI
 70
0
 62
7
  6
CONTINUOUS
370
-3
390
F
  0
LAYER
  5
20A
100
AcDbSymbolTableRecord
100
AcDbLayerTableRecord
  2
SMUSSO
 70
0
 62
7
  6
CONTINUOUS
370
-3
390
F
  0
LAYER
  5
20B
100
AcDbSymbolTableRecord
100
AcDbLayerTableRecord
  2
SNAPLINE
 70
0
 62
7
  6
CONTINUOUS
370
-3
390
F
  0
LAYER
  5
20C
100
AcDbSymbolTableRecord
100
AcDbLayerTableRecord
  2
SUPERFICI
 70
0
 62
7
  6
CONTINUOUS
370
-3
390
F
  0
LAYER
  5
20D
100
AcDbSymbolTableRecord
100
AcDbLayerTableRecord
  2
TRASH
 70
0
 62
7
  6
CONTINUOUS
370
-3
390
F
  0
ENDTAB
  0
TABLE
  2
STYLE
  5
3
100
AcDbSymbolTable
 70
1
  0
STYLE
  5
11
100
AcDbSymbolTableRecord
100
AcDbTextStyleTableRecord
  2
STANDARD
 70
0
 40
0.0
 41
0.8
 50
0.0
 71
0
 42
0.2
  3
txt
  4

  0
STYLE
  5
20E
100
AcDbSymbolTableRecord
100
AcDbTextStyleTableRecord
  2
TEXTSTYLE_1
 70
0
 40
0.0
 41
0.8
 50
0.0
 71
0
 42
0.2
  3
gdt
  4

  0
ENDTAB
  0
TABLE
  2
VIEW
  5
6
100
AcDbSymbolTable
 70
0
  0
ENDTAB
  0
TABLE
  2
UCS
  5
7
100
AcDbSymbolTable
 70
0
  0
ENDTAB
  0
TABLE
  2
APPID
  5
9
100
AcDbSymbolTable
 70
1
  0
APPID
  5
20F
100
AcDbSymbolTableRecord
100
AcDbRegAppTableRecord
  2
ACAD
 70
0
  0
ENDTAB
  0
TABLE
  2
BLOCK_RECORD
  5
1
100
AcDbSymbolTable
 70
0
  0
BLOCK_RECORD
  5
210
100
AcDbSymbolTableRecord
100
AcDbBlockTableRecord
  2
*Model_Space
  0
BLOCK_RECORD
  5
211
100
AcDbSymbolTableRecord
100
AcDbBlockTableRecord
  2
*Paper_Space
  0
BLOCK_RECORD
  5
212
100
AcDbSymbolTableRecord
100
AcDbBlockTableRecord
  2
_FILLED
  0
BLOCK_RECORD
  5
213
100
AcDbSymbolTableRecord
100
AcDbBlockTableRecord
  2
*D0
  0
BLOCK_RECORD
  5
214
100
AcDbSymbolTableRecord
100
AcDbBlockTableRecord
  2
*D1
  0
BLOCK_RECORD
  5
215
100
AcDbSymbolTableRecord
100
AcDbBlockTableRecord
  2
*D2
  0
BLOCK_RECORD
  5
216
100
AcDbSymbolTableRecord
100
AcDbBlockTableRecord
  2
*D3
  0
ENDTAB
  0
TABLE
  2
DIMSTYLE
  5
A
100
AcDbSymbolTable
 70
1
100
AcDbDimStyleTable
 71
0
  0
DIMSTYLE
105
217
100
AcDbSymbolTableRecord
100
AcDbDimStyleTableRecord
  2
STANDARD
 70
0
  3

  4

 40
1.0
 41
3.0
 42
0.5
 43
0.38
 44
1.5
 45
0.0
 46
0.0
 47
0.01
 48
0.01
140
3.0
141
0.09
142
0.0
143
25.4
144
1.0
145
0.0
146
1.0
147
0.625
 71
1
 72
0
 73
0
 74
0
 75
0
 76
0
 77
1
 78
8
 79
2
170
0
171
1
172
0
173
0
174
0
175
0
176
0
177
0
178
0
270
2
179
2
271
2
272
2
273
2
274
2
275
0
280
0
281
0
282
0
283
1
284
8
285
0
286
0
287
3
288
0
340
11
278
44
341
212
342
212
343
212
344
212
  0
DIMSTYLE
105
218
100
AcDbSymbolTableRecord
100
AcDbDimStyleTableRecord
  2
DIMSTYLE_1
 70
0
  3

  4

 40
1.0
 41
3.0
 42
0.5
 43
0.38
 44
1.5
 45
0.0
 46
0.0
 47
0.0
 48
0.0
140
3.0
141
0.09
142
0.0
143
25.4
144
1.0
145
0.0
146
1.0
147
0.75
 71
0
 72
0
 73
0
 74
0
 75
0
 76
0
 77
1
 78
8
 79
2
170
0
171
1
172
0
173
0
174
0
175
0
176
0
177
0
178
0
270
2
179
2
271
2
272
2
273
2
274
2
275
0
280
0
281
0
282
0
283
1
284
8
285
0
286
0
287
3
288
0
340
11
278
44
341
212
342
212
343
212
344
212
  0
ENDTAB
  0
ENDSEC
  0
SECTION
  2
BLOCKS
  0
BLOCK
  5
20
100
AcDbEntity
  8
0
100
AcDbBlockBegin
  2
*Model_Space
 70
0
 10
0.0
 20
0.0
 30
0.0
  3
*Model_Space
  1

  0
ENDBLK
  5
21
100
AcDbEntity
  8
0
100
AcDbBlockEnd
  0
BLOCK
  5
1C
100
AcDbEntity
  8
0
100
AcDbBlockBegin
  2
*Paper_Space
 70
0
 10
0.0
 20
0.0
 30
0.0
  3
*Paper_Space
  1

  0
ENDBLK
  5
1D
100
AcDbEntity
  8
0
100
AcDbBlockEnd
  0
BLOCK
  5
219
100
AcDbEntity
  8
0
100
AcDbBlockBegin
  2
_FILLED
 70
64
 10
0.0
 20
0.0
  3
_FILLED
  1

  0
SOLID
  5
21A
100
AcDbEntity
  8
0
  6
BYBLOCK
 62
0
100
AcDbTrace
 10
0.0
 20
0.0
 11
-1.0
 21
0.3166666667
 12
-1.0
 22
-0.3166666667
 13
-1.0
 23
-0.3166666667
  0
ENDBLK
  5
21B
100
AcDbEntity
  8
0
  6
BYBLOCK
 62
0
100
AcDbBlockEnd
  0
BLOCK
  5
21C
100
AcDbEntity
  8
0
100
AcDbBlockBegin
 62
7
  6
CONTINUOUS
  2
*D0
 70
65
 10
0.0
 20
0.0
  3
*D0
  1

  0
LINE
  5
21D
100
AcDbEntity
  8
0
100
AcDbLine
 62
7
  6
CONTINUOUS
 10
-24.570753586
 20
21.6576154961
 11
-24.570753586
 21
34.4777813096
  0
LINE
  5
21E
100
AcDbEntity
  8
0
100
AcDbLine
 62
7
  6
CONTINUOUS
 10
-32.070753586
 20
0.2575583887
 11
-32.070753586
 21
34.4777813096
  0
LINE
  5
21F
100
AcDbEntity
  8
0
100
AcDbLine
 62
7
  6
CONTINUOUS
 10
-24.570753586
 20
32.9777813096
 11
-20.570753586
 21
32.9777813096
  0
LINE
  5
220
100
AcDbEntity
  8
0
100
AcDbLine
 62
7
  6
CONTINUOUS
 10
-20.570753586
 20
32.9777813096
 11
-28.320753586
 21
32.9777813096
  0
LINE
  5
221
100
AcDbEntity
  8
0
100
AcDbLine
 62
7
  6
CONTINUOUS
 10
-32.070753586
 20
32.9777813096
 11
-36.070753586
 21
32.9777813096
  0
LINE
  5
222
100
AcDbEntity
  8
0
100
AcDbLine
 62
7
  6
CONTINUOUS
 10
-36.070753586
 20
32.9777813096
 11
-28.320753586
 21
32.9777813096
  0
INSERT
  5
223
100
AcDbEntity
  8
0
100
AcDbBlockReference
 62
7
  6
CONTINUOUS
  2
_FILLED
 10
-24.570753586
 20
32.9777813096
 41
3.0
 42
3.0
 43
3.0
 50
180.0
  0
INSERT
  5
224
100
AcDbEntity
  8
0
100
AcDbBlockReference
 62
7
  6
CONTINUOUS
  2
_FILLED
 10
-32.070753586
 20
32.9777813096
 41
3.0
 42
3.0
 43
3.0
  0
ENDBLK
  5
225
100
AcDbEntity
  8
0
  6
BYBLOCK
 62
0
100
AcDbBlockEnd
  0
BLOCK
  5
226
100
AcDbEntity
  8
0
100
AcDbBlockBegin
 62
7
  6
CONTINUOUS
  2
*D1
 70
65
 10
0.0
 20
0.0
  3
*D1
  1

  0
LINE
  5
227
100
AcDbEntity
  8
0
100
AcDbLine
 62
7
  6
CONTINUOUS
 10
-20.370753586
 20
7.3250433026
 11
-20.370753586
 21
42.4777813096
  0
LINE
  5
228
100
AcDbEntity
  8
0
100
AcDbLine
 62
7
  6
CONTINUOUS
 10
-32.070753586
 20
0.2575583887
 11
-32.070753586
 21
42.4777813096
  0
LINE
  5
229
100
AcDbEntity
  8
0
100
AcDbLine
 62
7
  6
CONTINUOUS
 10
-20.370753586
 20
40.9777813096
 11
-16.370753586
 21
40.9777813096
  0
LINE
  5
22A
100
AcDbEntity
  8
0
100
AcDbLine
 62
7
  6
CONTINUOUS
 10
-16.370753586
 20
40.9777813096
 11
-26.220753586
 21
40.9777813096
  0
LINE
  5
22B
100
AcDbEntity
  8
0
100
AcDbLine
 62
7
  6
CONTINUOUS
 10
-32.070753586
 20
40.9777813096
 11
-36.070753586
 21
40.9777813096
  0
LINE
  5
22C
100
AcDbEntity
  8
0
100
AcDbLine
 62
7
  6
CONTINUOUS
 10
-36.070753586
 20
40.9777813096
 11
-26.220753586
 21
40.9777813096
  0
INSERT
  5
22D
100
AcDbEntity
  8
0
100
AcDbBlockReference
 62
7
  6
CONTINUOUS
  2
_FILLED
 10
-20.370753586
 20
40.9777813096
 41
3.0
 42
3.0
 43
3.0
 50
180.0
  0
INSERT
  5
22E
100
AcDbEntity
  8
0
100
AcDbBlockReference
 62
7
  6
CONTINUOUS
  2
_FILLED
 10
-32.070753586
 20
40.9777813096
 41
3.0
 42
3.0
 43
3.0
  0
ENDBLK
  5
22F
100
AcDbEntity
  8
0
  6
BYBLOCK
 62
0
100
AcDbBlockEnd
  0
BLOCK
  5
230
100
AcDbEntity
  8
0
100
AcDbBlockBegin
 62
7
  6
CONTINUOUS
  2
*D2
 70
65
 10
0.0
 20
0.0
  3
*D2
  1

  0
LINE
  5
231
100
AcDbEntity
  8
0
100
AcDbLine
 62
7
  6
CONTINUOUS
 10
-11.05
 20
21.6576154961
 11
-11.05
 21
34.4777813096
  0
LINE
  5
232
100
AcDbEntity
  8
0
100
AcDbLine
 62
7
  6
CONTINUOUS
 10
11.05
 20
21.6576154961
 11
11.05
 21
34.4777813096
  0
LINE
  5
233
100
AcDbEntity
  8
0
100
AcDbLine
 62
7
  6
CONTINUOUS
 10
-11.05
 20
32.9777813096
 11
-0.0
 21
32.9777813096
  0
LINE
  5
234
100
AcDbEntity
  8
0
100
AcDbLine
 62
7
  6
CONTINUOUS
 10
11.05
 20
32.9777813096
 11
-0.0
 21
32.9777813096
  0
INSERT
  5
235
100
AcDbEntity
  8
0
100
AcDbBlockReference
 62
7
  6
CONTINUOUS
  2
_FILLED
 10
-11.05
 20
32.9777813096
 41
3.0
 42
3.0
 43
3.0
 50
180.0
  0
INSERT
  5
236
100
AcDbEntity
  8
0
100
AcDbBlockReference
 62
7
  6
CONTINUOUS
  2
_FILLED
 10
11.05
 20
32.9777813096
 41
3.0
 42
3.0
 43
3.0
  0
ENDBLK
  5
237
100
AcDbEntity
  8
0
  6
BYBLOCK
 62
0
100
AcDbBlockEnd
  0
BLOCK
  5
238
100
AcDbEntity
  8
0
100
AcDbBlockBegin
 62
7
  6
CONTINUOUS
  2
*D3
 70
65
 10
0.0
 20
0.0
  3
*D3
  1

  0
LINE
  5
239
100
AcDbEntity
  8
0
100
AcDbLine
 62
7
  6
CONTINUOUS
 10
11.0501522961
 20
21.6575583887
 11
22.55
 21
21.6575583887
  0
LINE
  5
23A
100
AcDbEntity
  8
0
100
AcDbLine
 62
7
  6
CONTINUOUS
 10
11.0501522961
 20
-22.1424416113
 11
22.55
 21
-22.1424416113
  0
LINE
  5
23B
100
AcDbEntity
  8
0
100
AcDbLine
 62
7
  6
CONTINUOUS
 10
21.05
 20
21.6575583887
 11
21.05
 21
-0.2424416113
  0
LINE
  5
23C
100
AcDbEntity
  8
0
100
AcDbLine
 62
7
  6
CONTINUOUS
 10
21.05
 20
-22.1424416113
 11
21.05
 21
-0.2424416113
  0
INSERT
  5
23D
100
AcDbEntity
  8
0
100
AcDbBlockReference
 62
7
  6
CONTINUOUS
  2
_FILLED
 10
21.05
 20
21.6575583887
 41
3.0
 42
3.0
 43
3.0
 50
90.0
  0
INSERT
  5
23E
100
AcDbEntity
  8
0
100
AcDbBlockReference
 62
7
  6
CONTINUOUS
  2
_FILLED
 10
21.05
 20
-22.1424416113
 41
3.0
 42
3.0
 43
3.0
 50
270.0
  0
ENDBLK
  5
23F
100
AcDbEntity
  8
0
  6
BYBLOCK
 62
0
100
AcDbBlockEnd
  0
ENDSEC
  0
SECTION
  2
ENTITIES
  0
DIMENSION
  5
240
100
AcDbEntity
  8
0
100
AcDbDimension
 62
7
  6
CONTINUOUS
  2
*D0
 10
-32.070753586
 20
32.9777813096
 11
-31.4278964431
 21
32.9777813096
 70
160
 71
2
 72
2
 41
0.9
 42
7.5
  3
DIMSTYLE_1
100
AcDbAlignedDimension
 13
-24.570753586
 23
21.1576154961
 14
-32.070753586
 24
-0.2424416113
 50
180.0
100
AcDbRotatedDimension
  0
DIMENSION
  5
241
100
AcDbEntity
  8
0
100
AcDbDimension
 62
7
  6
CONTINUOUS
  2
*D1
 10
-32.070753586
 20
40.9777813096
 11
-29.970753586
 21
40.9777813096
 70
160
 71
2
 72
2
 41
0.9
 42
11.7
  3
DIMSTYLE_1
100
AcDbAlignedDimension
 13
-20.370753586
 23
6.8250433026
 14
-32.070753586
 24
-0.2424416113
 50
180.0
100
AcDbRotatedDimension
  0
DIMENSION
  5
242
100
AcDbEntity
  8
0
100
AcDbDimension
 62
7
  6
CONTINUOUS
  2
*D2
 10
11.05
 20
32.9777813096
 11
-4.0714285714
 21
32.9777813096
 70
160
 71
2
 72
2
 41
0.9
 42
22.1
  3
DIMSTYLE_1
100
AcDbAlignedDimension
 13
-11.05
 23
21.1576154961
 14
11.05
 24
21.1576154961
100
AcDbRotatedDimension
  0
DIMENSION
  5
243
100
AcDbEntity
  8
0
100
AcDbDimension
 62
7
  6
CONTINUOUS
  2
*D3
 10
21.05
 20
-22.1424416113
 11
21.05
 21
-4.528155897
 70
160
 71
2
 72
2
 41
0.9
 42
43.8
  3
DIMSTYLE_1
100
AcDbAlignedDimension
 13
10.5501522961
 23
21.6575583887
 14
10.5501522961
 24
-22.1424416113
 50
270.0
100
AcDbRotatedDimension
  0
LWPOLYLINE
  5
244
100
AcDbEntity
  8
0
100
AcDbPolyline
 62
7
  6
CONTINUOUS
 90
3
 70
0
 43
0.3500000006
 10
2.3571427875
 20
35.8706396484
 10
3.2142856836
 20
36.7277821198
 10
3.2142856836
 20
33.7277812042
  0
LWPOLYLINE
  5
245
100
AcDbEntity
  8
RACCORDO
100
AcDbPolyline
 62
250
  6
CONTINUOUS
 90
16
 70
0
 10
-10.935196862
 20
-21.0039647036
 10
-10.9316173727
 20
-21.0061133431
 10
-10.9227197946
 20
-21.0082389611
 10
-10.9085994609
 20
-21.0103187825
 10
-10.8894076642
 20
-21.0123305231
 10
-10.8653500351
 20
-21.014252628
 10
-10.8366843396
 20
-21.0160645028
 10
-10.8037177166
 20
-21.0177467342
 10
-10.7668033876
 20
-21.0192812978
 10
-10.7263368715
 20
-21.0206517516
 10
-10.6827517475
 20
-21.0218434118
 10
-10.6365150091
 20
-21.0228435104
 10
-10.5881220603
 20
-21.0236413314
 10
-10.5380914083
 20
-21.0242283266
 10
-10.486959107
 20
-21.0245982066
 10
10.4352730144
 20
-21.0247470089
  0
LWPOLYLINE
  5
246
100
AcDbEntity
  8
RACCORDO
100
AcDbPolyline
 62
250
  6
CONTINUOUS
 90
14
 70
0
 10
-10.9351968619
 20
20.519081481
 10
-10.9316166133
 20
20.5212300583
 10
-10.9227183925
 20
20.5233556128
 10
-10.9085975377
 20
20.5254353705
 10
-10.8894053441
 20
20.5274470485
 10
-10.8653474425
 20
20.5293690929
 10
-10.8366815965
 20
20.5311809105
 10
-10.8037149404
 20
20.5328630889
 10
-10.766800689
 20
20.5343976047
 10
-10.7263343525
 20
20.5357680166
 10
-10.6827494993
 20
20.5369596416
 10
-10.6365131106
 20
20.5379597122
 10
-10.5881205768
 20
20.5387575131
 10
-10.5380903901
 20
20.5393444961
  0
LWPOLYLINE
  5
247
100
AcDbEntity
  8
RACCORDO
100
AcDbPolyline
 62
250
  6
CONTINUOUS
 90
16
 70
0
 10
10.4437645445
 20
-21.9828397231
 10
10.4960066708
 20
-21.9800792342
 10
10.5476766241
 20
-21.9718757425
 10
10.5982086129
 20
-21.9583191123
 10
10.6470493261
 20
-21.939557818
 10
10.6936639493
 20
-21.9157973337
 10
10.7375420276
 20
-21.887297896
 10
10.7782031182
 20
-21.8543716184
 10
10.8152020191
 20
-21.8173790772
 10
10.8481336135
 20
-21.7767253952
 10
10.876637349
 20
-21.7328557642
 10
10.9004011701
 20
-21.6862505716
 10
10.9191649196
 20
-21.6374201656
 10
10.9327231992
 20
-21.5868992438
 10
10.9409276142
 20
-21.5352409967
 10
10.9436883921
 20
-21.4830110606
  0
LINE
  5
248
100
AcDbEntity
  8
RACCORDO
100
AcDbLine
 62
7
  6
CONTINUOUS
 10
-10.5501522961
 20
-22.1424416113
 11
10.5501522961
 21
-22.1424416113
  0
LINE
  5
249
100
AcDbEntity
  8
RACCORDO
100
AcDbLine
 62
250
  6
CONTINUOUS
 10
10.4437645445
 20
-21.9828397231
 11
-10.4437645445
 21
-21.9828397231
  0
LWPOLYLINE
  5
24A
100
AcDbEntity
  8
RACCORDO
100
AcDbPolyline
 62
250
  6
CONTINUOUS
 90
14
 70
0
 10
10.5380914091
 20
-21.0242283256
 10
10.5881220615
 20
-21.0236413302
 10
10.6365150106
 20
-21.0228435092
 10
10.6827517493
 20
-21.0218434108
 10
10.7263368735
 20
-21.0206517508
 10
10.7668033896
 20
-21.0192812972
 10
10.8037177187
 20
-21.0177467337
 10
10.8366843417
 20
-21.0160645025
 10
10.865350037
 20
-21.0142526278
 10
10.8894076658
 20
-21.012330523
 10
10.9085994623
 20
-21.0103187825
 10
10.9227197956
 20
-21.0082389611
 10
10.9316173732
 20
-21.0061133431
 10
10.935196862
 20
-21.0039647036
  0
LINE
  5
24B
100
AcDbEntity
  8
RACCORDO
100
AcDbLine
 62
250
  6
CONTINUOUS
 10
10.4352730144
 20
-21.0247470086
 11
10.5380914091
 21
-21.0242283256
  0
LWPOLYLINE
  5
24C
100
AcDbEntity
  8
RACCORDO
100
AcDbPolyline
 62
250
  6
CONTINUOUS
 90
16
 70
0
 10
-10.9436883921
 20
-21.4830110606
 10
-10.9409276393
 20
-21.5352407583
 10
-10.9327232912
 20
-21.5868988117
 10
-10.9191651071
 20
-21.6374195892
 10
-10.9004014681
 20
-21.6862499031
 10
-10.8766377592
 20
-21.7328550543
 10
-10.8481341266
 20
-21.7767246895
 10
-10.8152026139
 20
-21.8173784169
 10
-10.7782037644
 20
-21.8543710367
 10
-10.7375426916
 20
-21.8872974136
 10
-10.6936645915
 20
-21.9157969629
 10
-10.6470499043
 20
-21.9395575605
 10
-10.5982090918
 20
-21.9583189566
 10
-10.5476769727
 20
-21.9718756683
 10
-10.4960068583
 20
-21.9800792144
 10
-10.4437645445
 20
-21.9828397231
  0
LWPOLYLINE
  5
24D
100
AcDbEntity
  8
RACCORDO
100
AcDbPolyline
 62
250
  6
CONTINUOUS
 90
16
 70
0
 10
-10.9436883921
 20
20.9981278381
 10
-10.9409274819
 20
21.0503590257
 10
-10.9327227155
 20
21.10201829
 10
-10.919163934
 20
21.1525399702
 10
-10.9003996038
 20
21.2013708618
 10
-10.8766351915
 20
21.2479762741
 10
-10.8481309135
 20
21.2918458854
 10
-10.8151988872
 20
21.3324993301
 10
-10.7781997133
 20
21.3694914595
 10
-10.7375385267
 20
21.4024172156
 10
-10.6936605611
 20
21.4309160665
 10
-10.6470462733
 20
21.4546759542
 10
-10.5982060826
 20
21.4734367118
 10
-10.5476747811
 20
21.4869929118
 10
-10.4960056789
 20
21.495196116
 10
-10.4437645445
 20
21.4979565005
  0
LWPOLYLINE
  5
24E
100
AcDbEntity
  8
RACCORDO
100
AcDbPolyline
 62
250
  6
CONTINUOUS
 90
8
 70
0
 10
-10.9389176257
 20
20.9080883876
 10
-10.9395304004
 20
20.9305485817
 10
-10.940174625
 20
20.9499456573
 10
-10.9408493377
 20
20.9663411922
 10
-10.9415395678
 20
20.9793915421
 10
-10.9422403251
 20
20.988982159
 10
-10.9429565999
 20
20.995227591
 10
-10.9436883921
 20
20.9981278381
  0
LINE
  5
24F
100
AcDbEntity
  8
RACCORDO
100
AcDbLine
 62
250
  6
CONTINUOUS
 10
-10.9377956253
 20
20.8546917545
 11
-10.9389176257
 21
20.9080883876
  0
LINE
  5
250
100
AcDbEntity
  8
RACCORDO
100
AcDbLine
 62
250
  6
CONTINUOUS
 10
-10.4396021339
 20
21.362497324
 11
-10.4409187714
 21
21.4341195423
  0
LINE
  5
251
100
AcDbEntity
  8
RACCORDO
100
AcDbLine
 62
250
  6
CONTINUOUS
 10
-10.936845808
 20
20.7913078197
 11
-10.9377956253
 21
20.8546917545
  0
LINE
  5
252
100
AcDbEntity
  8
RACCORDO
100
AcDbLine
 62
250
  6
CONTINUOUS
 10
-10.4378695252
 20
21.2107968407
 11
-10.4396021339
 21
21.362497324
  0
LINE
  5
253
100
AcDbEntity
  8
RACCORDO
100
AcDbLine
 62
250
  6
CONTINUOUS
 10
-10.9357978175
 20
20.6816031756
 11
-10.936845808
 21
20.7913078197
  0
LINE
  5
254
100
AcDbEntity
  8
RACCORDO
100
AcDbLine
 62
250
  6
CONTINUOUS
 10
-10.4358741294
 20
20.8651116146
 11
-10.4378695252
 21
21.2107968407
  0
LINE
  5
255
100
AcDbEntity
  8
RACCORDO
100
AcDbLine
 62
250
  6
CONTINUOUS
 10
-10.9352593553
 20
20.5611122312
 11
-10.9357978175
 21
20.6816031756
  0
LINE
  5
256
100
AcDbEntity
  8
RACCORDO
100
AcDbLine
 62
250
  6
CONTINUOUS
 10
-10.9277553729
 20
2.0651791454
 11
-10.9352593553
 21
20.5611122312
  0
LINE
  5
257
100
AcDbEntity
  8
RACCORDO
100
AcDbLine
 62
250
  6
CONTINUOUS
 10
-10.4278315204
 20
2.0673605288
 11
-10.4358741294
 21
20.8651116146
  0
LINE
  5
258
100
AcDbEntity
  8
RACCORDO
100
AcDbLine
 62
7
  6
CONTINUOUS
 10
-11.05
 20
-21.6424987187
 11
-11.05
 21
21.1576154961
  0
LINE
  5
259
100
AcDbEntity
  8
RACCORDO
100
AcDbLine
 62
250
  6
CONTINUOUS
 10
-10.9299878232
 20
-11.7784256032
 11
-10.9277553729
 21
2.0651791454
  0
LINE
  5
25A
100
AcDbEntity
  8
RACCORDO
100
AcDbLine
 62
250
  6
CONTINUOUS
 10
-10.4300639684
 20
-11.7904667172
 11
-10.4278315204
 21
2.0673605288
  0
LINE
  5
25B
100
AcDbEntity
  8
RACCORDO
100
AcDbLine
 62
250
  6
CONTINUOUS
 10
-10.9355587789
 20
-21.1271190491
 11
-10.9299878232
 21
-11.7784256032
  0
LINE
  5
25C
100
AcDbEntity
  8
RACCORDO
100
AcDbLine
 62
250
  6
CONTINUOUS
 10
-10.4365198361
 20
-21.4995768091
 11
-10.4300639684
 21
-11.7904667172
  0
LINE
  5
25D
100
AcDbEntity
  8
RACCORDO
100
AcDbLine
 62
250
  6
CONTINUOUS
 10
-10.936444007
 20
-21.2414596785
 11
-10.9355587789
 21
-21.1271190491
  0
LINE
  5
25E
100
AcDbEntity
  8
RACCORDO
100
AcDbLine
 62
250
  6
CONTINUOUS
 10
-10.4384085442
 20
-21.7517151415
 11
-10.4365198361
 21
-21.4995768091
  0
LINE
  5
25F
100
AcDbEntity
  8
RACCORDO
100
AcDbLine
 62
250
  6
CONTINUOUS
 10
-10.4396021339
 20
-21.8473805466
 11
-10.4384085442
 21
-21.7517151415
  0
LINE
  5
260
100
AcDbEntity
  8
RACCORDO
100
AcDbLine
 62
250
  6
CONTINUOUS
 10
-10.9372994302
 20
-21.3091195913
 11
-10.936444007
 21
-21.2414596785
  0
LWPOLYLINE
  5
261
100
AcDbEntity
  8
RACCORDO
100
AcDbPolyline
 62
250
  6
CONTINUOUS
 90
5
 70
0
 10
-10.4409187714
 20
21.4341195423
 10
-10.4416088684
 20
21.4602602217
 10
-10.4423108781
 20
21.4796950764
 10
-10.4430294367
 20
21.492289639
 10
-10.4437645445
 20
21.4979565005
  0
LWPOLYLINE
  5
262
100
AcDbEntity
  8
0
100
AcDbPolyline
 62
7
  6
CONTINUOUS
 90
3
 70
0
 43
0.3500000006
 10
1.3571429071
 20
34.0134968719
 10
1.2857142735
 20
33.7992078552
 10
1.1428571477
 20
33.5134967194
  0
LWPOLYLINE
  5
263
100
AcDbEntity
  8
RACCORDO
100
AcDbPolyline
 62
250
  6
CONTINUOUS
 90
6
 70
0
 10
-10.4437645445
 20
-21.9828397231
 10
-10.4430294368
 20
-21.9771728616
 10
-10.4423108781
 20
-21.964578299
 10
-10.4416088684
 20
-21.9451434443
 10
-10.4409187714
 20
-21.9190027649
 10
-10.4396021339
 20
-21.8473805466
  0
LWPOLYLINE
  5
264
100
AcDbEntity
  8
RACCORDO
100
AcDbPolyline
 62
250
  6
CONTINUOUS
 90
10
 70
0
 10
-10.9436883921
 20
-21.4830110606
 10
-10.9429565999
 20
-21.4801108134
 10
-10.9422403251
 20
-21.4738653814
 10
-10.9415395678
 20
-21.4642747645
 10
-10.9408493377
 20
-21.4512244147
 10
-10.940174625
 20
-21.43482888
 10
-10.9395304004
 20
-21.4154318045
 10
-10.9389176257
 20
-21.3929716104
 10
-10.938335339
 20
-21.3675098754
 10
-10.9372994302
 20
-21.3091195913
  0
LINE
  5
265
100
AcDbEntity
  8
RACCORDO
100
AcDbLine
 62
250
  6
CONTINUOUS
 10
10.4437645445
 20
21.4979565005
 11
10.5501522961
 21
21.6575583887
  0
LWPOLYLINE
  5
266
100
AcDbEntity
  8
0
100
AcDbPolyline
 62
7
  6
CONTINUOUS
 90
2
 70
0
 43
0.3500000006
 10
20.2999993973
 20
-3.528155571
 10
18.8000000725
 20
-3.528155571
  0
LINE
  5
267
100
AcDbEntity
  8
RACCORDO
100
AcDbLine
 62
250
  6
CONTINUOUS
 10
10.5501522961
 20
-22.1424416113
 11
10.4437645445
 21
-21.9828397231
  0
LINE
  5
268
100
AcDbEntity
  8
RACCORDO
100
AcDbLine
 62
250
  6
CONTINUOUS
 10
10.9436883921
 20
20.9981278381
 11
11.05
 21
21.1576154961
  0
LINE
  5
269
100
AcDbEntity
  8
RACCORDO
100
AcDbLine
 62
250
  6
CONTINUOUS
 10
11.05
 20
-21.6424987187
 11
10.9436883921
 21
-21.4830110606
  0
LWPOLYLINE
  5
26A
100
AcDbEntity
  8
0
100
AcDbPolyline
 62
7
  6
CONTINUOUS
 90
4
 70
0
 43
0.3500000006
 10
19.8714281616
 20
1.6861304398
 10
19.0142856903
 20
1.6861304398
 10
18.5857144547
 20
2.1147016754
 10
18.5857144547
 20
2.7575573959
  0
LINE
  5
26B
100
AcDbEntity
  8
RACCORDO
100
AcDbLine
 62
250
  6
CONTINUOUS
 10
-11.05
 20
-21.6424987187
 11
-10.9436883921
 21
-21.4830110606
  0
LINE
  5
26C
100
AcDbEntity
  8
RACCORDO
100
AcDbLine
 62
250
  6
CONTINUOUS
 10
-10.5501522961
 20
-22.1424416113
 11
-10.4437645445
 21
-21.9828397231
  0
LINE
  5
26D
100
AcDbEntity
  8
RACCORDO
100
AcDbLine
 62
250
  6
CONTINUOUS
 10
-10.9436883921
 20
20.9981278381
 11
-11.05
 21
21.1576154961
  0
LINE
  5
26E
100
AcDbEntity
  8
RACCORDO
100
AcDbLine
 62
250
  6
CONTINUOUS
 10
-10.4437645445
 20
21.4979565005
 11
-10.5501522961
 21
21.6575583887
  0
LWPOLYLINE
  5
26F
100
AcDbEntity
  8
0
100
AcDbPolyline
 62
7
  6
CONTINUOUS
 90
3
 70
0
 43
0.3500000006
 10
20.0142859955
 20
0.6861301346
 10
20.2285704803
 20
0.6147012177
 10
20.5142861481
 20
0.4718433838
  0
LWPOLYLINE
  5
270
100
AcDbEntity
  8
RACCORDO
100
AcDbPolyline
 62
250
  6
CONTINUOUS
 90
8
 70
0
 10
10.9436883921
 20
-21.4830110606
 10
10.9429555365
 20
-21.4800992708
 10
10.9422384194
 20
-21.4738401988
 10
10.9415370408
 20
-21.4642338447
 10
10.9408464532
 20
-21.4511647807
 10
10.940171604
 20
-21.4347484346
 10
10.9395273363
 20
-21.4153310894
 10
10.938914604
 20
-21.3928534783
  0
LWPOLYLINE
  5
271
100
AcDbEntity
  8
0
100
AcDbPolyline
 62
7
  6
CONTINUOUS
 90
10
 70
0
 43
0.3500000006
 10
19.7999992447
 20
0.6147012177
 10
19.9428570786
 20
0.6861301346
 10
20.0142859955
 20
0.6861301346
 10
20.1571438293
 20
0.5432723007
 10
20.1571438293
 20
0.4718433838
 10
20.0857149124
 20
0.4004144669
 10
20.0142859955
 20
0.4004144669
 10
19.8714281616
 20
0.4718433838
 10
19.7999992447
 20
0.5432723007
 10
19.7999992447
 20
0.6147012177
  0
LWPOLYLINE
  5
272
100
AcDbEntity
  8
RACCORDO
100
AcDbPolyline
 62
250
  6
CONTINUOUS
 90
5
 70
0
 10
10.4437645445
 20
-21.9828397231
 10
10.4430294611
 20
-21.9771736371
 10
10.4423108903
 20
-21.9645804796
 10
10.4416088321
 20
-21.9451469468
 10
10.4409186104
 20
-21.9190057598
  0
LINE
  5
273
100
AcDbEntity
  8
RACCORDO
100
AcDbLine
 62
250
  6
CONTINUOUS
 10
10.4409186104
 20
-21.9190057598
 11
10.4396017329
 21
-21.84738072
  0
LINE
  5
274
100
AcDbEntity
  8
RACCORDO
100
AcDbLine
 62
250
  6
CONTINUOUS
 10
10.4396017329
 20
-21.84738072
 11
10.4378694997
 21
-21.6957101834
  0
LINE
  5
275
100
AcDbEntity
  8
RACCORDO
100
AcDbLine
 62
250
  6
CONTINUOUS
 10
10.4378694997
 20
-21.6957101834
 11
10.435874033
 21
-21.3500105107
  0
LWPOLYLINE
  5
276
100
AcDbEntity
  8
RACCORDO
100
AcDbPolyline
 62
250
  6
CONTINUOUS
 90
3
 70
0
 10
10.435874033
 20
-21.3500105107
 10
10.4300639686
 20
-11.7904667198
 10
10.4285756698
 20
-7.1716509247
  0
LINE
  5
277
100
AcDbEntity
  8
RACCORDO
100
AcDbLine
 62
250
  6
CONTINUOUS
 10
10.4285756698
 20
6.6867677012
 11
10.4322964168
 21
15.9234135888
  0
LINE
  5
278
100
AcDbEntity
  8
RACCORDO
100
AcDbLine
 62
250
  6
CONTINUOUS
 10
10.4322964168
 20
15.9234135888
 11
10.436519482
 21
21.0146805336
  0
LINE
  5
279
100
AcDbEntity
  8
RACCORDO
100
AcDbLine
 62
250
  6
CONTINUOUS
 10
10.436519482
 20
21.0146805336
 11
10.4384084183
 21
21.2668537723
  0
LINE
  5
27A
100
AcDbEntity
  8
RACCORDO
100
AcDbLine
 62
250
  6
CONTINUOUS
 10
10.4384084183
 20
21.2668537723
 11
10.4396017329
 21
21.3624974974
  0
LWPOLYLINE
  5
27B
100
AcDbEntity
  8
RACCORDO
100
AcDbPolyline
 62
250
  6
CONTINUOUS
 90
6
 70
0
 10
10.4396017329
 20
21.3624974974
 10
10.4409186104
 20
21.4341225372
 10
10.4416088321
 20
21.4602637242
 10
10.4423108903
 20
21.479697257
 10
10.4430294611
 20
21.4922904145
 10
10.4437645445
 20
21.4979565005
  0
LINE
  5
27C
100
AcDbEntity
  8
RACCORDO
100
AcDbLine
 62
250
  6
CONTINUOUS
 10
10.938914604
 20
-21.3928534783
 11
10.9377928648
 21
-21.3394193427
  0
LINE
  5
27D
100
AcDbEntity
  8
RACCORDO
100
AcDbLine
 62
250
  6
CONTINUOUS
 10
10.9377928648
 20
-21.3394193427
 11
10.9368431224
 21
-21.2759730487
  0
LINE
  5
27E
100
AcDbEntity
  8
RACCORDO
100
AcDbLine
 62
250
  6
CONTINUOUS
 10
10.9368431224
 20
-21.2759730487
 11
10.9357959668
 21
-21.1661988278
  0
LINE
  5
27F
100
AcDbEntity
  8
RACCORDO
100
AcDbLine
 62
250
  6
CONTINUOUS
 10
10.9357959668
 20
-21.1661988278
 11
10.9352588511
 21
-21.0458712469
  0
LINE
  5
280
100
AcDbEntity
  8
RACCORDO
100
AcDbLine
 62
250
  6
CONTINUOUS
 10
10.9352588511
 20
-21.0458712469
 11
10.9299878192
 21
-11.7784106952
  0
LINE
  5
281
100
AcDbEntity
  8
RACCORDO
100
AcDbLine
 62
250
  6
CONTINUOUS
 10
10.9299878192
 20
-11.7784106952
 11
10.9277553729
 21
-2.5500710207
  0
LWPOLYLINE
  5
282
100
AcDbEntity
  8
RACCORDO
100
AcDbPolyline
 62
250
  6
CONTINUOUS
 90
3
 70
0
 10
10.4285756698
 20
-7.1716509247
 10
10.4278315204
 20
2.0673605261
 10
10.4285756698
 20
6.6867677012
  0
LINE
  5
283
100
AcDbEntity
  8
RACCORDO
100
AcDbLine
 62
7
  6
CONTINUOUS
 10
11.05
 20
-21.6424987187
 11
11.05
 21
21.1576154961
  0
LINE
  5
284
100
AcDbEntity
  8
RACCORDO
100
AcDbLine
 62
250
  6
CONTINUOUS
 10
10.9277553729
 20
-2.5500710207
 11
10.9284995226
 21
6.6798599996
  0
LINE
  5
285
100
AcDbEntity
  8
RACCORDO
100
AcDbLine
 62
250
  6
CONTINUOUS
 10
10.9284995226
 20
6.6798599996
 11
10.9322202668
 21
15.9066050843
  0
LINE
  5
286
100
AcDbEntity
  8
RACCORDO
100
AcDbLine
 62
250
  6
CONTINUOUS
 10
10.9322202668
 20
15.9066050843
 11
10.9355573612
 21
20.64196339
  0
LINE
  5
287
100
AcDbEntity
  8
RACCORDO
100
AcDbLine
 62
250
  6
CONTINUOUS
 10
10.9355573612
 20
20.64196339
 11
10.9364414562
 21
20.7563321368
  0
LINE
  5
288
100
AcDbEntity
  8
RACCORDO
100
AcDbLine
 62
250
  6
CONTINUOUS
 10
10.9364414562
 20
20.7563321368
 11
10.9372967123
 21
20.8240514308
  0
LWPOLYLINE
  5
289
100
AcDbEntity
  8
RACCORDO
100
AcDbPolyline
 62
250
  6
CONTINUOUS
 90
10
 70
0
 10
10.9372967123
 20
20.8240514308
 10
10.9383324531
 20
20.8824916454
 10
10.938914604
 20
20.9079702555
 10
10.9395273363
 20
20.9304478666
 10
10.940171604
 20
20.9498652119
 10
10.9408464532
 20
20.9662815582
 10
10.9415370408
 20
20.9793506223
 10
10.9422384194
 20
20.9889569765
 10
10.9429555365
 20
20.9952160484
 10
10.9436883921
 20
20.9981278381
  0
LWPOLYLINE
  5
28A
100
AcDbEntity
  8
0
100
AcDbPolyline
 62
7
  6
CONTINUOUS
 90
13
 70
0
 43
0.3500000006
 10
18.5857144547
 20
2.1147016754
 10
18.3714288368
 20
1.8289860077
 10
17.7285719833
 20
1.8289860077
 10
17.2999996147
 20
2.1147016754
 10
17.2999996147
 20
2.7575573959
 10
17.7285719833
 20
3.0432730637
 10
18.3714288368
 20
3.0432730637
 10
18.5857144547
 20
2.7575573959
 10
19.0142856903
 20
3.1861308975
 10
19.8714281616
 20
3.1861308975
 10
20.2999993973
 20
2.7575573959
 10
20.2999993973
 20
2.1147016754
 10
19.8714281616
 20
1.6861304398
  0
LWPOLYLINE
  5
28B
100
AcDbEntity
  8
0
100
AcDbPolyline
 62
7
  6
CONTINUOUS
 90
5
 70
0
 43
0.3500000006
 10
18.5857144547
 20
-1.3138704758
 10
18.3714288368
 20
-0.956728157
 10
17.7285719833
 20
-0.956728157
 10
17.2999996147
 20
-1.3138704758
 10
17.2999996147
 20
-2.1710129471
  0
LWPOLYLINE
  5
28C
100
AcDbEntity
  8
0
100
AcDbPolyline
 62
7
  6
CONTINUOUS
 90
10
 70
0
 43
0.3500000006
 10
1.2857142735
 20
34.2277813568
 10
1.3571429071
 20
34.0849235229
 10
1.3571429071
 20
34.0134968719
 10
1.2142857814
 20
33.8706390381
 10
1.1428571477
 20
33.8706390381
 10
1.0714285848
 20
33.9420656891
 10
1.0714285848
 20
34.0134968719
 10
1.1428571477
 20
34.1563547058
 10
1.2142857814
 20
34.2277813568
 10
1.2857142735
 20
34.2277813568
  0
LWPOLYLINE
  5
28D
100
AcDbEntity
  8
0
100
AcDbPolyline
 62
7
  6
CONTINUOUS
 90
3
 70
0
 43
0.3500000006
 10
19.6571436768
 20
-3.0281554184
 10
19.6571436768
 20
-4.5281558762
 10
17.2999996147
 20
-3.8852990227
  0
LWPOLYLINE
  5
28E
100
AcDbEntity
  8
0
100
AcDbPolyline
 62
7
  6
CONTINUOUS
 90
6
 70
0
 43
0.3500000006
 10
20.2999993973
 20
-2.1710129471
 10
20.2999993973
 20
-1.099583725
 10
20.0857149124
 20
-0.8852992401
 10
19.0142856903
 20
-0.8852992401
 10
18.5857144547
 20
-1.3138704758
 10
18.5857144547
 20
-1.7424417114
  0
LINE
  5
28F
100
AcDbEntity
  8
RACCORDO
100
AcDbLine
 62
250
  6
CONTINUOUS
 10
-10.5380903901
 20
20.5393444961
 11
-10.4352730144
 21
20.5398631786
  0
LWPOLYLINE
  5
290
100
AcDbEntity
  8
RACCORDO
100
AcDbPolyline
 62
250
  6
CONTINUOUS
 90
16
 70
0
 10
-10.4352730144
 20
20.5398637864
 10
10.4869582666
 20
20.5397140097
 10
10.5380897569
 20
20.5393441429
 10
10.5881196542
 20
20.5387571735
 10
10.6365119298
 20
20.5379593904
 10
10.6827481009
 20
20.5369593411
 10
10.7263327857
 20
20.5357677407
 10
10.7667990105
 20
20.5343973559
 10
10.8037132136
 20
20.5328628695
 10
10.8366798902
 20
20.5311807222
 10
10.8653458299
 20
20.5293689367
 10
10.889403901
 20
20.5274469249
 10
10.9085963415
 20
20.5254352795
 10
10.9227175203
 20
20.5233555536
 10
10.9316161408
 20
20.5212300297
 10
10.9351968618
 20
20.519081481
  0
LINE
  5
291
100
AcDbEntity
  8
RACCORDO
100
AcDbLine
 62
250
  6
CONTINUOUS
 10
-10.4437645445
 20
21.4979565005
 11
10.4437645445
 21
21.4979565005
  0
LINE
  5
292
100
AcDbEntity
  8
RACCORDO
100
AcDbLine
 62
7
  6
CONTINUOUS
 10
-10.5501522961
 20
21.6575583887
 11
10.5501522961
 21
21.6575583887
  0
LWPOLYLINE
  5
293
100
AcDbEntity
  8
RACCORDO
100
AcDbPolyline
 62
250
  6
CONTINUOUS
 90
16
 70
0
 10
10.4437645445
 20
21.4979565005
 10
10.4960056789
 20
21.495196116
 10
10.5476747811
 20
21.4869929118
 10
10.5982060825
 20
21.4734367118
 10
10.6470462732
 20
21.4546759543
 10
10.693660561
 20
21.4309160665
 10
10.7375385266
 20
21.4024172157
 10
10.7781997132
 20
21.3694914596
 10
10.8151988872
 20
21.3324993302
 10
10.8481309134
 20
21.2918458854
 10
10.8766351914
 20
21.2479762742
 10
10.9003996038
 20
21.2013708618
 10
10.919163934
 20
21.1525399702
 10
10.9327227155
 20
21.10201829
 10
10.9409274819
 20
21.0503590257
 10
10.9436883921
 20
20.9981278381
  0
LWPOLYLINE
  5
294
100
AcDbEntity
  8
0
100
AcDbPolyline
 62
7
  6
CONTINUOUS
 90
7
 70
0
 43
0.3500000006
 10
-0.2142857063
 20
33.7277812042
 10
-1.7142856507
 20
33.7277812042
 10
-0.2142857063
 20
35.8706396484
 10
-0.2142857063
 20
36.2992086182
 10
-0.6428571367
 20
36.7277821198
 10
-1.2857142735
 20
36.7277821198
 10
-1.7142856507
 20
36.0849241333
  0
LWPOLYLINE
  5
295
100
AcDbEntity
  8
0
100
AcDbPolyline
 62
7
  6
CONTINUOUS
 90
7
 70
0
 43
0.3500000006
 10
-2.5714285469
 20
33.7277812042
 10
-4.0714284382
 20
33.7277812042
 10
-2.5714285469
 20
35.8706396484
 10
-2.5714285469
 20
36.2992086182
 10
-3.0000000658
 20
36.7277821198
 10
-3.6428572025
 20
36.7277821198
 10
-4.0714284382
 20
36.0849241333
  0
LWPOLYLINE
  5
296
100
AcDbEntity
  8
0
100
AcDbPolyline
 62
7
  6
CONTINUOUS
 90
3
 70
0
 43
0.3500000006
 10
-29.9707537308
 20
43.870637558
 10
-29.1136112595
 20
44.7277800293
 10
-29.1136112595
 20
41.7277791138
  0
LWPOLYLINE
  5
297
100
AcDbEntity
  8
0
100
AcDbPolyline
 62
7
  6
CONTINUOUS
 90
3
 70
0
 43
0.3500000006
 10
-28.2564687881
 20
43.870637558
 10
-27.3993240509
 20
44.7277800293
 10
-27.3993240509
 20
41.7277791138
  0
LINE
  5
298
100
AcDbEntity
  8
RACCORDO
100
AcDbLine
 62
7
  6
CONTINUOUS
 10
-24.570753586
 20
-22.1424416113
 11
-30.6657037959
 21
-21.9828397231
  0
LINE
  5
299
100
AcDbEntity
  8
RACCORDO
100
AcDbLine
 62
250
  6
CONTINUOUS
 10
-24.570753586
 20
-21.6424987187
 11
-30.661341525
 21
-21.4830110606
  0
LWPOLYLINE
  5
29A
100
AcDbEntity
  8
RACCORDO
100
AcDbPolyline
 62
250
  6
CONTINUOUS
 90
19
 70
0
 10
-30.661341525
 20
-21.4830110606
 10
-30.7033267946
 20
-21.4800992708
 10
-30.7444104047
 20
-21.4738401988
 10
-30.7845923554
 20
-21.4642338447
 10
-30.8241560967
 20
-21.4511647807
 10
-30.8628181785
 20
-21.4347484346
 10
-30.8997282503
 20
-21.4153310894
 10
-30.9348316605
 20
-21.3928534783
 10
-30.9681830607
 20
-21.3673748681
 10
-30.9990960548
 20
-21.3394193427
 10
-31.0275206118
 20
-21.3089346533
 10
-31.0535067626
 20
-21.2759730487
 10
-31.0765182043
 20
-21.2412153593
 10
-31.0964955911
 20
-21.2046051359
 10
-31.1134982688
 20
-21.1661988278
 10
-31.1271679711
 20
-21.1268466127
 10
-31.1373852761
 20
-21.0868318832
 10
-31.1442696057
 20
-21.0458712469
 10
-31.1478209599
 20
-21.0039647036
  0
LINE
  5
29B
100
AcDbEntity
  8
RACCORDO
100
AcDbLine
 62
250
  6
CONTINUOUS
 10
-31.6386626574
 20
-21.0247470086
 11
-31.6359879022
 21
-21.0245982061
  0
LINE
  5
29C
100
AcDbEntity
  8
RACCORDO
100
AcDbLine
 62
250
  6
CONTINUOUS
 10
-31.6359879022
 20
-21.0245982061
 11
-31.1478209599
 21
-21.0039647036
  0
LWPOLYLINE
  5
29D
100
AcDbEntity
  8
0
100
AcDbPolyline
 62
7
  6
CONTINUOUS
 90
3
 70
0
 43
0.3500000006
 10
-25.8278969421
 20
42.0134947815
 10
-25.8993258591
 20
41.7992102966
 10
-26.042181427
 20
41.5134946289
  0
LWPOLYLINE
  5
29E
100
AcDbEntity
  8
0
100
AcDbPolyline
 62
7
  6
CONTINUOUS
 90
3
 70
0
 43
0.3500000006
 10
-28.3564688187
 20
34.0134968719
 10
-28.4278954697
 20
33.7992078552
 10
-28.5707533035
 20
33.5134967194
  0
LWPOLYLINE
  5
29F
100
AcDbEntity
  8
RACCORDO
100
AcDbPolyline
 62
250
  6
CONTINUOUS
 90
8
 70
0
 10
-30.6657037959
 20
21.4979565005
 10
-30.6665433856
 20
21.495196116
 10
-30.667230465
 20
21.4869929118
 10
-30.6677575108
 20
21.4734367118
 10
-30.6681187517
 20
21.4546759543
 10
-30.6683102324
 20
21.4309160665
 10
-30.6683298563
 20
21.4024172157
 10
-30.6678545585
 20
21.3324993302
  0
LINE
  5
2A0
100
AcDbEntity
  8
RACCORDO
100
AcDbLine
 62
7
  6
CONTINUOUS
 10
-21.3009971122
 20
-8.3074905754
 11
-24.570753586
 21
-8.5361342215
  0
LWPOLYLINE
  5
2A1
100
AcDbEntity
  8
RACCORDO
100
AcDbPolyline
 62
250
  6
CONTINUOUS
 90
7
 70
0
 10
-30.6657037959
 20
-21.9828397231
 10
-30.6665433906
 20
-21.9800792342
 10
-30.667230469
 20
-21.9718757425
 10
-30.6677575083
 20
-21.9583191123
 10
-30.6681187381
 20
-21.939557818
 10
-30.668310204
 20
-21.9157973337
 10
-30.668329811
 20
-21.887297896
  0
LWPOLYLINE
  5
2A2
100
AcDbEntity
  8
RACCORDO
100
AcDbPolyline
 62
250
  6
CONTINUOUS
 90
19
 70
0
 10
-31.1478209599
 20
20.519081481
 10
-31.1442696055
 20
20.5609880242
 10
-31.1373852759
 20
20.6019486606
 10
-31.127167971
 20
20.64196339
 10
-31.1134982687
 20
20.6813156052
 10
-31.0964955912
 20
20.7197219134
 10
-31.0765182044
 20
20.7563321368
 10
-31.0535067628
 20
20.7910898262
 10
-31.0275206118
 20
20.8240514308
 10
-30.9990960548
 20
20.8545361201
 10
-30.9681830607
 20
20.8824916454
 10
-30.9348316605
 20
20.9079702555
 10
-30.8997282502
 20
20.9304478666
 10
-30.8628181785
 20
20.9498652119
 10
-30.8241560967
 20
20.9662815582
 10
-30.7845923554
 20
20.9793506223
 10
-30.7444104048
 20
20.9889569765
 10
-30.7033267946
 20
20.9952160484
 10
-30.661341525
 20
20.9981278381
  0
LINE
  5
2A3
100
AcDbEntity
  8
DRAFT
100
AcDbLine
 62
7
  6
CONTINUOUS
 10
-24.570753586
 20
-5.804094456
 11
-20.370753586
 21
-5.7674416113
  0
LINE
  5
2A4
100
AcDbEntity
  8
SMUSSO
100
AcDbLine
 62
7
  6
CONTINUOUS
 10
-20.770753586
 20
-4.9674416113
 11
-24.570753586
 21
-4.9674416113
  0
LWPOLYLINE
  5
2A5
100
AcDbEntity
  8
RACCORDO
100
AcDbPolyline
 62
250
  6
CONTINUOUS
 90
10
 70
0
 10
-31.1478209599
 20
-21.0039647036
 10
-31.3183500248
 20
-16.3914861443
 10
-31.4462468182
 20
-11.7784106952
 10
-31.5315113401
 20
-7.1647383563
 10
-31.5741435833
 20
-2.5500710207
 10
-31.5741435549
 20
2.0651932047
 10
-31.5315112763
 20
6.6798599996
 10
-31.4462467545
 20
11.2935312572
 10
-31.3183499823
 20
15.9066050843
 10
-31.1478209599
 20
20.519081481
  0
LWPOLYLINE
  5
2A6
100
AcDbEntity
  8
0
100
AcDbPolyline
 62
7
  6
CONTINUOUS
 90
4
 70
0
 43
0.3500000006
 10
-31.4278963852
 20
36.0849241333
 10
-31.4278963852
 20
36.7277821198
 10
-29.9278959274
 20
36.7277821198
 10
-30.7850383987
 20
33.7277812042
  0
LINE
  5
2A7
100
AcDbEntity
  8
RACCORDO
100
AcDbLine
 62
250
  6
CONTINUOUS
 10
-30.664956873
 20
21.1525399702
 11
-30.661341525
 21
20.9981278381
  0
LINE
  5
2A8
100
AcDbEntity
  8
RACCORDO
100
AcDbLine
 62
250
  6
CONTINUOUS
 10
-30.6667136188
 20
21.2479762742
 11
-30.664956873
 21
21.1525399702
  0
LINE
  5
2A9
100
AcDbEntity
  8
RACCORDO
100
AcDbLine
 62
250
  6
CONTINUOUS
 10
-30.6678545585
 20
21.3324993302
 11
-30.6667136188
 21
21.2479762742
  0
LINE
  5
2AA
100
AcDbEntity
  8
RACCORDO
100
AcDbLine
 62
250
  6
CONTINUOUS
 10
-30.668329811
 20
-21.887297896
 11
-30.6678544803
 21
-21.8173790772
  0
LINE
  5
2AB
100
AcDbEntity
  8
RACCORDO
100
AcDbLine
 62
250
  6
CONTINUOUS
 10
-30.6678544803
 20
-21.8173790772
 11
-30.6667135214
 21
-21.7328557642
  0
LINE
  5
2AC
100
AcDbEntity
  8
RACCORDO
100
AcDbLine
 62
250
  6
CONTINUOUS
 10
-30.6667135214
 20
-21.7328557642
 11
-30.6638705155
 21
-21.5868992438
  0
LINE
  5
2AD
100
AcDbEntity
  8
RACCORDO
100
AcDbLine
 62
250
  6
CONTINUOUS
 10
-30.6638705155
 20
-21.5868992438
 11
-30.661341525
 21
-21.4830110606
  0
LINE
  5
2AE
100
AcDbEntity
  8
SMUSSO
100
AcDbLine
 62
7
  6
CONTINUOUS
 10
-20.370753586
 20
-5.3674416113
 11
-20.770753586
 21
-4.9674416113
  0
LWPOLYLINE
  5
2AF
100
AcDbEntity
  8
0
100
AcDbPolyline
 62
7
  6
CONTINUOUS
 90
4
 70
0
 43
0.3500000006
 10
-24.827896637
 20
44.0849220428
 10
-24.827896637
 20
44.7277800293
 10
-23.3278961792
 20
44.7277800293
 10
-24.1850386505
 20
41.7277791138
  0
LINE
  5
2B0
100
AcDbEntity
  8
RACCORDO
100
AcDbLine
 62
7
  6
CONTINUOUS
 10
-24.570753586
 20
-22.1424416113
 11
-24.570753586
 21
21.6575583887
  0
LINE
  5
2B1
100
AcDbEntity
  8
SMUSSO
100
AcDbLine
 62
7
  6
CONTINUOUS
 10
-20.770753586
 20
4.4825583887
 11
-20.370753586
 21
4.8825583887
  0
LINE
  5
2B2
100
AcDbEntity
  8
SMUSSO
100
AcDbLine
 62
7
  6
CONTINUOUS
 10
-20.770753586
 20
4.4825583887
 11
-24.570753586
 21
4.4825583887
  0
LINE
  5
2B3
100
AcDbEntity
  8
DRAFT
100
AcDbLine
 62
7
  6
CONTINUOUS
 10
-24.570753586
 20
5.3192112334
 11
-20.370753586
 21
5.2825583887
  0
LINE
  5
2B4
100
AcDbEntity
  8
RACCORDO
100
AcDbLine
 62
7
  6
CONTINUOUS
 10
-20.370753586
 20
-7.3099265252
 11
-20.370753586
 21
-5.7674416113
  0
LINE
  5
2B5
100
AcDbEntity
  8
SMUSSO
100
AcDbLine
 62
7
  6
CONTINUOUS
 10
-20.370753586
 20
-5.7674416113
 11
-20.370753586
 21
-5.3674416113
  0
LINE
  5
2B6
100
AcDbEntity
  8
SMUSSO
100
AcDbLine
 62
7
  6
CONTINUOUS
 10
-20.370753586
 20
4.8825583887
 11
-20.370753586
 21
5.2825583887
  0
LINE
  5
2B7
100
AcDbEntity
  8
RACCORDO
100
AcDbLine
 62
7
  6
CONTINUOUS
 10
-20.370753586
 20
5.2825583887
 11
-20.370753586
 21
6.8250433026
  0
LINE
  5
2B8
100
AcDbEntity
  8
RACCORDO
100
AcDbLine
 62
7
  6
CONTINUOUS
 10
-21.3009971122
 20
7.8226073528
 11
-24.570753586
 21
8.0512509989
  0
LWPOLYLINE
  5
2B9
100
AcDbEntity
  8
0
100
AcDbPolyline
 62
7
  6
CONTINUOUS
 90
10
 70
0
 43
0.3500000006
 10
-28.4278954697
 20
34.2277813568
 10
-28.3564688187
 20
34.0849235229
 10
-28.3564688187
 20
34.0134968719
 10
-28.4993243866
 20
33.8706390381
 10
-28.5707533035
 20
33.8706390381
 10
-28.6421822205
 20
33.9420656891
 10
-28.6421822205
 20
34.0134968719
 10
-28.5707533035
 20
34.1563547058
 10
-28.4993243866
 20
34.2277813568
 10
-28.4278954697
 20
34.2277813568
  0
LINE
  5
2BA
100
AcDbEntity
  8
RACCORDO
100
AcDbLine
 62
250
  6
CONTINUOUS
 10
-30.661341525
 20
20.9981278381
 11
-24.570753586
 21
21.1576154961
  0
LWPOLYLINE
  5
2BB
100
AcDbEntity
  8
RACCORDO
100
AcDbPolyline
 62
250
  6
CONTINUOUS
 90
3
 70
0
 10
-31.6386391972
 20
20.5398628111
 10
-31.6359646462
 20
20.5397140097
 10
-31.1478209599
 20
20.519081481
  0
LWPOLYLINE
  5
2BC
100
AcDbEntity
  8
0
100
AcDbPolyline
 62
7
  6
CONTINUOUS
 90
10
 70
0
 43
0.3500000006
 10
-25.8993258591
 20
42.2277792664
 10
-25.8278969421
 20
42.0849259644
 10
-25.8278969421
 20
42.0134947815
 10
-25.9707525101
 20
41.8706369476
 10
-26.042181427
 20
41.8706369476
 10
-26.1136103439
 20
41.9420681305
 10
-26.1136103439
 20
42.0134947815
 10
-26.042181427
 20
42.1563526154
 10
-25.9707525101
 20
42.2277792664
 10
-25.8993258591
 20
42.2277792664
  0
LINE
  5
2BD
100
AcDbEntity
  8
RACCORDO
100
AcDbLine
 62
7
  6
CONTINUOUS
 10
-30.6657037959
 20
21.4979565005
 11
-24.570753586
 21
21.6575583887
  0
LWPOLYLINE
  5
2BE
100
AcDbEntity
  8
0
100
AcDbPolyline
 62
7
  6
CONTINUOUS
 90
8
 70
0
 43
0.3500000006
 10
-27.3564685135
 20
33.7277812042
 10
-26.4993260422
 20
33.7277812042
 10
-26.0707525406
 20
34.1563547058
 10
-26.0707525406
 20
35.0134971771
 10
-26.4993260422
 20
35.4420661469
 10
-27.3564685135
 20
35.4420661469
 10
-27.3564685135
 20
36.7277821198
 10
-26.0707525406
 20
36.7277821198
  0
ARC
  5
2BF
100
AcDbEntity
  8
RACCORDO
100
AcDbCircle
 62
7
  6
CONTINUOUS
 10
467.929246414
 20
-0.2424416113
 40
500.0
100
AcDbArc
 50
177.6178369774
 51
182.3821630226
  0
ARC
  5
2C0
100
AcDbEntity
  8
RACCORDO
100
AcDbCircle
 62
7
  6
CONTINUOUS
 10
-30.6395268476
 20
20.4982991756
 40
1.0
100
AcDbArc
 50
91.5
 51
177.6178369774
  0
ARC
  5
2C1
100
AcDbEntity
  8
RACCORDO
100
AcDbCircle
 62
7
  6
CONTINUOUS
 10
-30.6395268476
 20
-20.9831823982
 40
1.0
100
AcDbArc
 50
182.3821630226
 51
268.5
  0
ARC
  5
2C2
100
AcDbEntity
  8
RACCORDO
100
AcDbCircle
 62
7
  6
CONTINUOUS
 10
-21.370753586
 20
6.8250433026
 40
1.0
100
AcDbArc
 50
0.0
 51
86.0
  0
ARC
  5
2C3
100
AcDbEntity
  8
RACCORDO
100
AcDbCircle
 62
7
  6
CONTINUOUS
 10
-21.370753586
 20
-7.3099265252
 40
1.0
100
AcDbArc
 50
274.0
 51
360.0
  0
ELLIPSE
  5
2C4
100
AcDbEntity
  8
RACCORDO
100
AcDbEllipse
 62
7
  6
CONTINUOUS
 10
-10.549923836
 20
21.1573869925
 30
0.0
 11
-0.2774630169
 21
0.416247366
 31
0.0
 40
0.9995051766
 41
-0.5877156075
 42
0.9826238685
  0
ELLIPSE
  5
2C5
100
AcDbEntity
  8
RACCORDO
100
AcDbEllipse
 62
7
  6
CONTINUOUS
 10
-10.549923836
 20
-21.642270215
 30
0.0
 11
0.2774630169
 21
0.416247366
 31
0.0
 40
0.9995051766
 41
-4.1242165221
 42
-2.5538770461
  0
ELLIPSE
  5
2C6
100
AcDbEntity
  8
RACCORDO
100
AcDbEllipse
 62
7
  6
CONTINUOUS
 10
10.549923836
 20
21.1573869925
 30
0.0
 11
0.2774630169
 21
0.416247366
 31
0.0
 40
0.9995051766
 41
-0.9826238685
 42
0.5877156075
  0
ELLIPSE
  5
2C7
100
AcDbEntity
  8
RACCORDO
100
AcDbEllipse
 62
7
  6
CONTINUOUS
 10
10.549923836
 20
-21.642270215
 30
0.0
 11
-0.2774630169
 21
0.416247366
 31
0.0
 40
0.9995051766
 41
-3.7293082611
 42
-2.1589687851
  0
ENDSEC
  0
SECTION
  2
OBJECTS
  0
DICTIONARY
  5
C
100
AcDbDictionary
280
0
281
1
  3
ACAD_GROUP
350
D
  3
ACAD_MLINESTYLE
350
17
  3
ACAD_LAYOUT
350
1A
  3
ACAD_PLOTSETTINGS
350
19
  3
ACAD_PLOTSTYLENAME
350
E
  0
DICTIONARY
  5
D
102
{ACAD_REACTORS
330
C
102
}
100
AcDbDictionary
280
0
281
1
  0
ACDBDICTIONARYWDFLT
  5
E
102
{ACAD_REACTORS
330
C
102
}
100
AcDbDictionary
281
1
  3
Normal
350
F
100
AcDbDictionaryWithDefault
340
F
  0
DICTIONARY
  5
17
102
{ACAD_REACTORS
330
C
102
}
100
AcDbDictionary
280
0
281
1
  3
Standard
350
18
  0
DICTIONARY
  5
19
102
{ACAD_REACTORS
330
C
102
}
100
AcDbDictionary
281
1
  0
DICTIONARY
  5
1A
102
{ACAD_REACTORS
330
C
102
}
100
AcDbDictionary
281
1
  3
Model
350
2C8
  3
Layout1
350
2C9
  0
ACDBPLACEHOLDER
  5
F
102
{ACAD_REACTORS
330
E
102
}
  0
MLINESTYLE
  5
18
102
{ACAD_REACTORS
330
17
102
}
100
AcDbMlineStyle
  2
STANDARD
 70
0
  3

 62
256
 51
90.0
 52
90.0
 71
2
 49
0.5
 62
256
  6
BYLAYER
 49
-0.5
 62
256
  6
BYLAYER
  0
LAYOUT
  5
2C8
102
{ACAD_REACTORS
330
1A
102
}
100
AcDbPlotSettings
  1

  2
none_device
  4
ISO_A4_(297.00_x_210.00_MM)
  6

 40
0.0
 41
0.0
 42
0.0
 43
0.0
 44
297.0
 45
210.0
 46
0.0
 47
0.0
 48
0.0
 49
0.0
140
0.0
141
0.0
142
1.0
143
1.0
 70
1024
 72
1
 73
0
 74
0
  7

 75
0
147
1.0
148
0.0
149
0.0
100
AcDbLayout
  1
Model
 70
0
 71
0
 10
0.0
 20
0.0
 11
297.0
 21
210.0
 12
0.0
 22
0.0
 32
0.0
 14
0.0
 24
0.0
 34
0.0
 15
0.0
 25
0.0
 35
0.0
146
0.0
 13
0.0
 23
0.0
 33
0.0
 16
1.0
 26
0.0
 36
0.0
 17
0.0
 27
1.0
 37
0.0
 76
0
330
210
345
0
346
0
  0
LAYOUT
  5
2C9
102
{ACAD_REACTORS
330
1A
102
}
100
AcDbPlotSettings
  1

  2
none_device
  4
ISO_A4_(297.00_x_210.00_MM)
  6

 40
0.0
 41
0.0
 42
0.0
 43
0.0
 44
297.0
 45
210.0
 46
0.0
 47
0.0
 48
0.0
 49
0.0
140
0.0
141
0.0
142
1.0
143
1.0
 70
0
 72
1
 73
0
 74
0
  7

 75
0
147
1.0
148
0.0
149
0.0
100
AcDbLayout
  1
Layout1
 70
0
 71
1
 10
0.0
 20
0.0
 11
297.0
 21
210.0
 12
0.0
 22
0.0
 32
0.0
 14
0.0
 24
0.0
 34
0.0
 15
0.0
 25
0.0
 35
0.0
146
0.0
 13
0.0
 23
0.0
 33
0.0
 16
1.0
 26
0.0
 36
0.0
 17
0.0
 27
1.0
 37
0.0
 76
0
330
211
345
0
346
0
  0
ENDSEC
  0
EOF
