  0
SECTION
  2
HEADER
  9
$ACADVER
  1
AC1024
  9
$DWGCODEPAGE
  3
ANSI_1252
  9
$EXTMAX
 10
297.0
 20
210.0
 30
0.0
  9
$EXTMIN
 10
0.0
 20
0.0
 30
0.0
  9
$LIMMIN
 10
0.0
 20
0.0
  9
$LIMMAX
 10
297.0
 20
210.0
  9
$VIEWCTR
 10
148.5
 20
105.0
  9
$VIEWSIZE
 40
210.0
  9
$CLAYER
  8
0
  9
$LTSCALE
 40
16.335
  9
$CELTYPE
  6
BYLAYER
  9
$DIMSCALE
 40
1.0
  9
$DIMASZ
 40
3.0
  9
$DIMEXO
 40
0.5
  9
$DIMDLI
 40
11.286
  9
$DIMEXE
 40
1.5
  9
$DIMCEN
 40
2.673
  9
$DIMLFAC
 40
1.0
  9
$DIMBLK
  1
_FILLED
  9
$DIMALT
 70
0
  9
$DIMALTF
 40
0.0393700787
  9
$DIMTXT
 40
3.0
  9
$DIMTOL
 70
1
  9
$DIMLIM
 70
0
  9
$DIMTFAC
 40
1.0
  9
$DIMTP
 40
0.01
  9
$DIMTM
 40
0.01
  9
$DIMGAP
 40
0.625
  9
$DIMDSEP
 70
44
  9
$AUNITS
 70
0
  9
$PDMODE
 70
3
  9
$PDSIZE
 40
3.0
  9
$HANDSEED
  5
332
  9
$TILEMODE
 70
1
  9
$MEASUREMENT
 70
1
  9
$INSUNITS
 70
4
  0
ENDSEC
  0
SECTION
  2
CLASSES
  0
CLASS
  1
ACDBDICTIONARYWDFLT
  2
AcDbDictionaryWithDefault
  3
AutoCAD 2000
 90
0
 91
1
280
0
281
0
  0
CLASS
  1
ACDBPLACEHOLDER
  2
AcDbPlaceHolder
  3
AutoCAD 2000
 90
0
 91
1
280
0
281
0
  0
CLASS
  1
LAYOUT
  2
AcDbLayout
  3
AutoCAD 2000
 90
0
 91
0
280
0
281
0
  0
ENDSEC
  0
SECTION
  2
TABLES
  0
TABLE
  2
VPORT
  5
8
100
AcDbSymbolTable
 70
2
  0
VPORT
  5
1F4
100
AcDbSymbolTableRecord
100
AcDbViewportTableRecord
  2
*ACTIVE
 70
0
 10
0.0
 20
0.0
 11
1.0
 21
1.0
 12
148.5
 22
105.0
 13
0.0
 23
0.0
 14
1.0
 24
1.0
 15
0.0
 25
0.0
 16
0.0
 26
0.0
 36
1.0
 17
0.0
 27
0.0
 37
0.0
 40
210.0
 41
1.4142857143
 42
50.0
 43
0.0
 44
0.0
 50
0.0
 51
0.0
 71
0
 72
100
 73
1
 74
1
 75
0
 76
0
 77
0
 78
0
  0
ENDTAB
  0
TABLE
  2
LTYPE
  5
5
100
AcDbSymbolTable
 70
6
  0
LTYPE
  5
14
100
AcDbSymbolTableRecord
100
AcDbLinetypeTableRecord
  2
BYBLOCK
 70
0
  3

 72
65
 73
0
 40
0.0
  0
LTYPE
  5
15
100
AcDbSymbolTableRecord
100
AcDbLinetypeTableRecord
  2
BYLAYER
 70
0
  3

 72
65
 73
0
 40
0.0
  0
LTYPE
  5
16
100
AcDbSymbolTableRecord
100
AcDbLinetypeTableRecord
  2
CONTINUOUS
 70
64
  3
Solid line
 72
65
 73
0
 40
0.0
  0
LTYPE
  5
1F5
100
AcDbSymbolTableRecord
100
AcDbLinetypeTableRecord
  2
CENTER
 70
64
  3
____ _ ____ _ ____ _ ____ _ ____ _ ____ _ ____
 72
65
 73
4
 40
0.6
 49
0.375
 74
0
 49
-0.075
 74
0
 49
0.075
 74
0
 49
-0.075
 74
0
  0
LTYPE
  5
1F6
100
AcDbSymbolTableRecord
100
AcDbLinetypeTableRecord
  2
HIDDEN
 70
64
  3
- - - - - - - - - - - - - - - - - - - -
 72
65
 73
2
 40
0.2
 49
0.1
 74
0
 49
-0.1
 74
0
  0
LTYPE
  5
1F7
100
AcDbSymbolTableRecord
100
AcDbLinetypeTableRecord
  2
PHANTOM
 70
64
  3
_____ _ _ _____ _ _ _____ _ _ _____
 72
65
 73
6
 40
0.8
 49
0.45
 74
0
 49
-0.05
 74
0
 49
0.1
 74
0
 49
-0.05
 74
0
 49
0.1
 74
0
 49
-0.05
 74
0
  0
LTYPE
  5
1F8
100
AcDbSymbolTableRecord
100
AcDbLinetypeTableRecord
  2
DOT
 70
64
  3
. . . . . . . . . . . . . . . . . . . .
 72
65
 73
2
 40
0.2
 49
0.1
 74
0
 49
-0.1
 74
0
  0
LTYPE
  5
1F9
100
AcDbSymbolTableRecord
100
AcDbLinetypeTableRecord
  2
DASHED
 70
64
  3
- - - - - - - - - - - - - - - - - - - -
 72
65
 73
2
 40
0.2
 49
0.1
 74
0
 49
-0.1
 74
0
  0
ENDTAB
  0
TABLE
  2
LAYER
  5
2
100
AcDbSymbolTable
 70
36
  0
LAYER
  5
10
100
AcDbSymbolTableRecord
100
AcDbLayerTableRecord
  2
0
 70
0
 62
7
  6
CONTINUOUS
370
-3
390
F
  0
LAYER
  5
1FA
100
AcDbSymbolTableRecord
100
AcDbLayerTableRecord
  2
DEFAULT_1
 70
0
 62
7
  6
CENTER
370
-3
390
F
  0
LAYER
  5
1FB
100
AcDbSymbolTableRecord
100
AcDbLayerTableRecord
  2
DEFAULT_2
 70
0
 62
7
  6
HIDDEN
370
-3
390
F
  0
LAYER
  5
1FC
100
AcDbSymbolTableRecord
100
AcDbLayerTableRecord
  2
DEFAULT_3
 70
0
 62
7
  6
PHANTOM
370
-3
390
F
  0
LAYER
  5
1FD
100
AcDbSymbolTableRecord
100
AcDbLayerTableRecord
  2
ASSI
 70
0
 62
7
  6
CONTINUOUS
370
-3
390
F
  0
LAYER
  5
1FE
100
AcDbSymbolTableRecord
100
AcDbLayerTableRecord
  2
COORDINATE
 70
0
 62
7
  6
CONTINUOUS
370
-3
390
F
  0
LAYER
  5
1FF
100
AcDbSymbolTableRecord
100
AcDbLayerTableRecord
  2
COORD_ORIGINE
 70
0
 62
7
  6
CONTINUOUS
370
-3
390
F
  0
LAYER
  5
200
100
AcDbSymbolTableRecord
100
AcDbLayerTableRecord
  2
COPY_PUBLISH
 70
0
 62
7
  6
CONTINUOUS
370
-3
390
F
  0
LAYER
  5
201
100
AcDbSymbolTableRecord
100
AcDbLayerTableRecord
  2
COSMETIC
 70
0
 62
7
  6
CONTINUOUS
370
-3
390
F
  0
LAYER
  5
202
100
AcDbSymbolTableRecord
100
AcDbLayerTableRecord
  2
COSMETICI
 70
0
 62
7
  6
CONTINUOUS
370
-3
390
F
  0
LAYER
  5
203
100
AcDbSymbolTableRecord
100
AcDbLayerTableRecord
  2
CURVE
 70
0
 62
7
  6
CONTINUOUS
370
-3
390
F
  0
LAYER
  5
204
100
AcDbSymbolTableRecord
100
AcDbLayerTableRecord
  2
DRAFT
 70
0
 62
7
  6
CONTINUOUS
370
-3
390
F
  0
LAYER
  5
205
100
AcDbSymbolTableRecord
100
AcDbLayerTableRecord
  2
IMPORT_IGES
 70
0
 62
7
  6
CONTINUOUS
370
-3
390
F
  0
LAYER
  5
206
100
AcDbSymbolTableRecord
100
AcDbLayerTableRecord
  2
INTFCLR_1
 70
0
 62
7
  6
CONTINUOUS
370
-3
390
F
  0
LAYER
  5
207
100
AcDbSymbolTableRecord
100
AcDbLayerTableRecord
  2
INTF_10
 70
0
 62
7
  6
CONTINUOUS
370
-3
390
F
  0
LAYER
  5
208
100
AcDbSymbolTableRecord
100
AcDbLayerTableRecord
  2
INTF_9
 70
0
 62
7
  6
CONTINUOUS
370
-3
390
F
  0
LAYER
  5
209
100
AcDbSymbolTableRecord
100
AcDbLayerTableRecord
  2
NOTE
 70
0
 62
7
  6
CONTINUOUS
370
-3
390
F
  0
LAYER
  5
20A
100
AcDbSymbolTableRecord
100
AcDbLayerTableRecord
  2
PIANI
 70
0
 62
7
  6
CONTINUOUS
370
-3
390
F
  0
LAYER
  5
20B
100
AcDbSymbolTableRecord
100
AcDbLayerTableRecord
  2
PIANI_ORIGINE
 70
0
 62
7
  6
CONTINUOUS
370
-3
390
F
  0
LAYER
  5
20C
100
AcDbSymbolTableRecord
100
AcDbLayerTableRecord
  2
PUNTI
 70
0
 62
7
  6
CONTINUOUS
370
-3
390
F
  0
LAYER
  5
20D
100
AcDbSymbolTableRecord
100
AcDbLayerTableRecord
  2
RACCORDO
 70
0
 62
7
  6
CONTINUOUS
370
-3
390
F
  0
LAYER
  5
20E
100
AcDbSymbolTableRecord
100
AcDbLayerTableRecord
  2
SIMBOLI
 70
0
 62
7
  6
CONTINUOUS
370
-3
390
F
  0
LAYER
  5
20F
100
AcDbSymbolTableRecord
100
AcDbLayerTableRecord
  2
SMUSSO
 70
0
 62
7
  6
CONTINUOUS
370
-3
390
F
  0
LAYER
  5
210
100
AcDbSymbolTableRecord
100
AcDbLayerTableRecord
  2
SNAPLINE
 70
0
 62
7
  6
CONTINUOUS
370
-3
390
F
  0
LAYER
  5
211
100
AcDbSymbolTableRecord
100
AcDbLayerTableRecord
  2
SUPERFICI
 70
0
 62
7
  6
CONTINUOUS
370
-3
390
F
  0
LAYER
  5
212
100
AcDbSymbolTableRecord
100
AcDbLayerTableRecord
  2
TRASH
 70
0
 62
7
  6
CONTINUOUS
370
-3
390
F
  0
LAYER
  5
213
100
AcDbSymbolTableRecord
100
AcDbLayerTableRecord
  2
XSEC_DATUMS
 70
0
 62
7
  6
CONTINUOUS
370
-3
390
F
  0
ENDTAB
  0
TABLE
  2
STYLE
  5
3
100
AcDbSymbolTable
 70
1
  0
STYLE
  5
11
100
AcDbSymbolTableRecord
100
AcDbTextStyleTableRecord
  2
STANDARD
 70
0
 40
0.0
 41
0.8
 50
0.0
 71
0
 42
0.2
  3
txt
  4

  0
STYLE
  5
214
100
AcDbSymbolTableRecord
100
AcDbTextStyleTableRecord
  2
TEXTSTYLE_1
 70
0
 40
0.0
 41
0.8
 50
0.0
 71
0
 42
0.2
  3
gdt
  4

  0
ENDTAB
  0
TABLE
  2
VIEW
  5
6
100
AcDbSymbolTable
 70
0
  0
ENDTAB
  0
TABLE
  2
UCS
  5
7
100
AcDbSymbolTable
 70
0
  0
ENDTAB
  0
TABLE
  2
APPID
  5
9
100
AcDbSymbolTable
 70
1
  0
APPID
  5
215
100
AcDbSymbolTableRecord
100
AcDbRegAppTableRecord
  2
ACAD
 70
0
  0
ENDTAB
  0
TABLE
  2
BLOCK_RECORD
  5
1
100
AcDbSymbolTable
 70
0
  0
BLOCK_RECORD
  5
216
100
AcDbSymbolTableRecord
100
AcDbBlockTableRecord
  2
*Model_Space
  0
BLOCK_RECORD
  5
217
100
AcDbSymbolTableRecord
100
AcDbBlockTableRecord
  2
*Paper_Space
  0
BLOCK_RECORD
  5
218
100
AcDbSymbolTableRecord
100
AcDbBlockTableRecord
  2
_FILLED
  0
BLOCK_RECORD
  5
219
100
AcDbSymbolTableRecord
100
AcDbBlockTableRecord
  2
*D0
  0
BLOCK_RECORD
  5
21A
100
AcDbSymbolTableRecord
100
AcDbBlockTableRecord
  2
*D1
  0
BLOCK_RECORD
  5
21B
100
AcDbSymbolTableRecord
100
AcDbBlockTableRecord
  2
*D2
  0
BLOCK_RECORD
  5
21C
100
AcDbSymbolTableRecord
100
AcDbBlockTableRecord
  2
*D3
  0
ENDTAB
  0
TABLE
  2
DIMSTYLE
  5
A
100
AcDbSymbolTable
 70
1
100
AcDbDimStyleTable
 71
0
  0
DIMSTYLE
105
21D
100
AcDbSymbolTableRecord
100
AcDbDimStyleTableRecord
  2
STANDARD
 70
0
  3

  4

 40
1.0
 41
3.0
 42
0.5
 43
0.38
 44
1.5
 45
0.0
 46
0.0
 47
0.01
 48
0.01
140
3.0
141
0.09
142
0.0
143
25.4
144
1.0
145
0.0
146
1.0
147
0.625
 71
1
 72
0
 73
0
 74
0
 75
0
 76
0
 77
1
 78
8
 79
2
170
0
171
1
172
0
173
0
174
0
175
0
176
0
177
0
178
0
270
2
179
2
271
2
272
2
273
2
274
2
275
0
280
0
281
0
282
0
283
1
284
8
285
0
286
0
287
3
288
0
340
11
278
44
341
218
342
218
343
218
344
218
  0
DIMSTYLE
105
21E
100
AcDbSymbolTableRecord
100
AcDbDimStyleTableRecord
  2
DIMSTYLE_1
 70
0
  3

  4

 40
1.0
 41
3.0
 42
0.5
 43
0.38
 44
1.5
 45
0.0
 46
0.0
 47
0.0
 48
0.0
140
3.0
141
0.09
142
0.0
143
25.4
144
1.0
145
0.0
146
1.0
147
0.75
 71
0
 72
0
 73
0
 74
0
 75
0
 76
0
 77
1
 78
8
 79
2
170
0
171
1
172
0
173
0
174
0
175
0
176
0
177
0
178
0
270
2
179
2
271
2
272
2
273
2
274
2
275
0
280
0
281
0
282
0
283
1
284
8
285
0
286
0
287
3
288
0
340
11
278
44
341
218
342
218
343
218
344
218
  0
ENDTAB
  0
ENDSEC
  0
SECTION
  2
BLOCKS
  0
BLOCK
  5
20
100
AcDbEntity
  8
0
100
AcDbBlockBegin
  2
*Model_Space
 70
0
 10
0.0
 20
0.0
 30
0.0
  3
*Model_Space
  1

  0
ENDBLK
  5
21
100
AcDbEntity
  8
0
100
AcDbBlockEnd
  0
BLOCK
  5
1C
100
AcDbEntity
  8
0
100
AcDbBlockBegin
  2
*Paper_Space
 70
0
 10
0.0
 20
0.0
 30
0.0
  3
*Paper_Space
  1

  0
ENDBLK
  5
1D
100
AcDbEntity
  8
0
100
AcDbBlockEnd
  0
BLOCK
  5
21F
100
AcDbEntity
  8
0
100
AcDbBlockBegin
  2
_FILLED
 70
64
 10
0.0
 20
0.0
  3
_FILLED
  1

  0
SOLID
  5
220
100
AcDbEntity
  8
0
  6
BYBLOCK
 62
0
100
AcDbTrace
 10
0.0
 20
0.0
 11
-1.0
 21
0.3166666667
 12
-1.0
 22
-0.3166666667
 13
-1.0
 23
-0.3166666667
  0
ENDBLK
  5
221
100
AcDbEntity
  8
0
  6
BYBLOCK
 62
0
100
AcDbBlockEnd
  0
BLOCK
  5
222
100
AcDbEntity
  8
0
100
AcDbBlockBegin
 62
7
  6
CONTINUOUS
  2
*D0
 70
65
 10
0.0
 20
0.0
  3
*D0
  1

  0
LINE
  5
223
100
AcDbEntity
  8
0
100
AcDbLine
 62
7
  6
CONTINUOUS
 10
-11.0
 20
22.187751406
 11
-11.0
 21
35.0090098394
  0
LINE
  5
224
100
AcDbEntity
  8
0
100
AcDbLine
 62
7
  6
CONTINUOUS
 10
11.0
 20
22.187751406
 11
11.0
 21
35.0090098394
  0
LINE
  5
225
100
AcDbEntity
  8
0
100
AcDbLine
 62
7
  6
CONTINUOUS
 10
-11.0
 20
33.5090098394
 11
-0.0
 21
33.5090098394
  0
LINE
  5
226
100
AcDbEntity
  8
0
100
AcDbLine
 62
7
  6
CONTINUOUS
 10
11.0
 20
33.5090098394
 11
-0.0
 21
33.5090098394
  0
INSERT
  5
227
100
AcDbEntity
  8
0
100
AcDbBlockReference
 62
7
  6
CONTINUOUS
  2
_FILLED
 10
-11.0
 20
33.5090098394
 41
3.0
 42
3.0
 43
3.0
 50
180.0
  0
INSERT
  5
228
100
AcDbEntity
  8
0
100
AcDbBlockReference
 62
7
  6
CONTINUOUS
  2
_FILLED
 10
11.0
 20
33.5090098394
 41
3.0
 42
3.0
 43
3.0
  0
ENDBLK
  5
229
100
AcDbEntity
  8
0
  6
BYBLOCK
 62
0
100
AcDbBlockEnd
  0
BLOCK
  5
22A
100
AcDbEntity
  8
0
100
AcDbBlockBegin
 62
7
  6
CONTINUOUS
  2
*D1
 70
65
 10
0.0
 20
0.0
  3
*D1
  1

  0
LINE
  5
22B
100
AcDbEntity
  8
0
100
AcDbLine
 62
7
  6
CONTINUOUS
 10
11.0001522961
 20
22.1876942985
 11
26.5
 21
22.1876942985
  0
LINE
  5
22C
100
AcDbEntity
  8
0
100
AcDbLine
 62
7
  6
CONTINUOUS
 10
11.0001522961
 20
-21.5123057015
 11
26.5
 21
-21.5123057015
  0
LINE
  5
22D
100
AcDbEntity
  8
0
100
AcDbLine
 62
7
  6
CONTINUOUS
 10
25.0
 20
22.1876942985
 11
25.0
 21
0.3376942985
  0
LINE
  5
22E
100
AcDbEntity
  8
0
100
AcDbLine
 62
7
  6
CONTINUOUS
 10
25.0
 20
-21.5123057015
 11
25.0
 21
0.3376942985
  0
INSERT
  5
22F
100
AcDbEntity
  8
0
100
AcDbBlockReference
 62
7
  6
CONTINUOUS
  2
_FILLED
 10
25.0
 20
22.1876942985
 41
3.0
 42
3.0
 43
3.0
 50
90.0
  0
INSERT
  5
230
100
AcDbEntity
  8
0
100
AcDbBlockReference
 62
7
  6
CONTINUOUS
  2
_FILLED
 10
25.0
 20
-21.5123057015
 41
3.0
 42
3.0
 43
3.0
 50
270.0
  0
ENDBLK
  5
231
100
AcDbEntity
  8
0
  6
BYBLOCK
 62
0
100
AcDbBlockEnd
  0
BLOCK
  5
232
100
AcDbEntity
  8
0
100
AcDbBlockBegin
 62
7
  6
CONTINUOUS
  2
*D2
 70
65
 10
0.0
 20
0.0
  3
*D2
  1

  0
LINE
  5
233
100
AcDbEntity
  8
0
100
AcDbLine
 62
7
  6
CONTINUOUS
 10
-27.9021575491
 20
22.187751406
 11
-27.9021575491
 21
35.0090098394
  0
LINE
  5
234
100
AcDbEntity
  8
0
100
AcDbLine
 62
7
  6
CONTINUOUS
 10
-35.4021575491
 20
0.8376942985
 11
-35.4021575491
 21
35.0090098394
  0
LINE
  5
235
100
AcDbEntity
  8
0
100
AcDbLine
 62
7
  6
CONTINUOUS
 10
-27.9021575491
 20
33.5090098394
 11
-23.9021575491
 21
33.5090098394
  0
LINE
  5
236
100
AcDbEntity
  8
0
100
AcDbLine
 62
7
  6
CONTINUOUS
 10
-23.9021575491
 20
33.5090098394
 11
-31.6521575491
 21
33.5090098394
  0
LINE
  5
237
100
AcDbEntity
  8
0
100
AcDbLine
 62
7
  6
CONTINUOUS
 10
-35.4021575491
 20
33.5090098394
 11
-39.4021575491
 21
33.5090098394
  0
LINE
  5
238
100
AcDbEntity
  8
0
100
AcDbLine
 62
7
  6
CONTINUOUS
 10
-39.4021575491
 20
33.5090098394
 11
-31.6521575491
 21
33.5090098394
  0
INSERT
  5
239
100
AcDbEntity
  8
0
100
AcDbBlockReference
 62
7
  6
CONTINUOUS
  2
_FILLED
 10
-27.9021575491
 20
33.5090098394
 41
3.0
 42
3.0
 43
3.0
 50
180.0
  0
INSERT
  5
23A
100
AcDbEntity
  8
0
100
AcDbBlockReference
 62
7
  6
CONTINUOUS
  2
_FILLED
 10
-35.4021575491
 20
33.5090098394
 41
3.0
 42
3.0
 43
3.0
  0
ENDBLK
  5
23B
100
AcDbEntity
  8
0
  6
BYBLOCK
 62
0
100
AcDbBlockEnd
  0
BLOCK
  5
23C
100
AcDbEntity
  8
0
100
AcDbBlockBegin
 62
7
  6
CONTINUOUS
  2
*D3
 70
65
 10
0.0
 20
0.0
  3
*D3
  1

  0
LINE
  5
23D
100
AcDbEntity
  8
0
100
AcDbLine
 62
7
  6
CONTINUOUS
 10
-23.9021575491
 20
7.7253382919
 11
-23.9021575491
 21
43.0090098394
  0
LINE
  5
23E
100
AcDbEntity
  8
0
100
AcDbLine
 62
7
  6
CONTINUOUS
 10
-35.4021575491
 20
0.8376942985
 11
-35.4021575491
 21
43.0090098394
  0
LINE
  5
23F
100
AcDbEntity
  8
0
100
AcDbLine
 62
7
  6
CONTINUOUS
 10
-23.9021575491
 20
41.5090098394
 11
-19.9021575491
 21
41.5090098394
  0
LINE
  5
240
100
AcDbEntity
  8
0
100
AcDbLine
 62
7
  6
CONTINUOUS
 10
-19.9021575491
 20
41.5090098394
 11
-29.6521575491
 21
41.5090098394
  0
LINE
  5
241
100
AcDbEntity
  8
0
100
AcDbLine
 62
7
  6
CONTINUOUS
 10
-35.4021575491
 20
41.5090098394
 11
-39.4021575491
 21
41.5090098394
  0
LINE
  5
242
100
AcDbEntity
  8
0
100
AcDbLine
 62
7
  6
CONTINUOUS
 10
-39.4021575491
 20
41.5090098394
 11
-29.6521575491
 21
41.5090098394
  0
INSERT
  5
243
100
AcDbEntity
  8
0
100
AcDbBlockReference
 62
7
  6
CONTINUOUS
  2
_FILLED
 10
-23.9021575491
 20
41.5090098394
 41
3.0
 42
3.0
 43
3.0
 50
180.0
  0
INSERT
  5
244
100
AcDbEntity
  8
0
100
AcDbBlockReference
 62
7
  6
CONTINUOUS
  2
_FILLED
 10
-35.4021575491
 20
41.5090098394
 41
3.0
 42
3.0
 43
3.0
  0
ENDBLK
  5
245
100
AcDbEntity
  8
0
  6
BYBLOCK
 62
0
100
AcDbBlockEnd
  0
ENDSEC
  0
SECTION
  2
ENTITIES
  0
DIMENSION
  5
246
100
AcDbEntity
  8
0
100
AcDbDimension
 62
7
  6
CONTINUOUS
  2
*D0
 10
11.0
 20
33.5090098394
 11
-2.3571428571
 21
33.5090098394
 70
160
 71
2
 72
2
 41
0.9
 42
22.0
  3
DIMSTYLE_1
100
AcDbAlignedDimension
 13
-11.0
 23
21.687751406
 14
11.0
 24
21.687751406
100
AcDbRotatedDimension
  0
DIMENSION
  5
247
100
AcDbEntity
  8
0
100
AcDbDimension
 62
7
  6
CONTINUOUS
  2
*D1
 10
25.0
 20
-21.5123057015
 11
25.0
 21
-3.9480199872
 70
160
 71
2
 72
2
 41
0.9
 42
43.7
  3
DIMSTYLE_1
100
AcDbAlignedDimension
 13
10.5001522961
 23
22.1876942985
 14
10.5001522961
 24
-21.5123057015
 50
270.0
100
AcDbRotatedDimension
  0
DIMENSION
  5
248
100
AcDbEntity
  8
0
100
AcDbDimension
 62
7
  6
CONTINUOUS
  2
*D2
 10
-35.4021575491
 20
33.5090098394
 11
-34.7593004063
 21
33.5090098394
 70
160
 71
2
 72
2
 41
0.9
 42
7.5
  3
DIMSTYLE_1
100
AcDbAlignedDimension
 13
-27.9021575491
 23
21.687751406
 14
-35.4021575491
 24
0.3376942985
 50
180.0
100
AcDbRotatedDimension
  0
DIMENSION
  5
249
100
AcDbEntity
  8
0
100
AcDbDimension
 62
7
  6
CONTINUOUS
  2
*D3
 10
-35.4021575491
 20
41.5090098394
 11
-33.295014692
 21
41.5090098394
 70
160
 71
2
 72
2
 41
0.9
 42
11.5
  3
DIMSTYLE_1
100
AcDbAlignedDimension
 13
-23.9021575491
 23
7.2253382919
 14
-35.4021575491
 24
0.3376942985
 50
180.0
100
AcDbRotatedDimension
  0
LWPOLYLINE
  5
24A
100
AcDbEntity
  8
RACCORDO
100
AcDbPolyline
 62
250
  6
CONTINUOUS
 90
14
 70
0
 10
-10.8851605229
 20
21.0491127752
 10
-10.8815802704
 20
21.0512561671
 10
-10.8726820464
 20
21.0533765917
 10
-10.8585611891
 20
21.0554513302
 10
-10.8393689935
 20
21.0574581532
 10
-10.8153110905
 20
21.059375559
 10
-10.7866452438
 20
21.0611830039
 10
-10.7536785875
 20
21.0628611226
 10
-10.7167643365
 20
21.064391935
 10
-10.6762980009
 20
21.0657590396
 10
-10.632713149
 20
21.0669477889
 10
-10.5864767621
 20
21.067945446
 10
-10.5380842304
 20
21.0687413216
 10
-10.4880540461
 20
21.0693268882
  0
LWPOLYLINE
  5
24B
100
AcDbEntity
  8
RACCORDO
100
AcDbPolyline
 62
250
  6
CONTINUOUS
 90
16
 70
0
 10
-10.8851605229
 20
-20.3737241781
 10
-10.8815810302
 20
-20.3758676322
 10
-10.8726834492
 20
-20.3779881202
 10
-10.8585631131
 20
-20.3800629222
 10
-10.8393713146
 20
-20.3820698077
 10
-10.8153136843
 20
-20.3839872739
 10
-10.7866479881
 20
-20.385794776
 10
-10.753681365
 20
-20.3874729475
 10
-10.7167670363
 20
-20.3890038077
 10
-10.6763005211
 20
-20.3903709541
 10
-10.6327153983
 20
-20.3915597385
 10
-10.5864786614
 20
-20.3925574235
 10
-10.5380857146
 20
-20.3933533192
 10
-10.4880550646
 20
-20.3939388978
 10
-10.4369227657
 20
-20.3943078853
 10
10.3852366754
 20
-20.3944563287
  0
LWPOLYLINE
  5
24C
100
AcDbEntity
  8
RACCORDO
100
AcDbPolyline
 62
250
  6
CONTINUOUS
 90
16
 70
0
 10
10.3937282419
 20
-21.3526493524
 10
10.4459703684
 20
-21.3498888634
 10
10.497640322
 20
-21.3416853717
 10
10.5481723109
 20
-21.3281287413
 10
10.5970130242
 20
-21.3093674469
 10
10.6436276475
 20
-21.2856069625
 10
10.6875057259
 20
-21.2571075246
 10
10.7281668164
 20
-21.2241812469
 10
10.7651657173
 20
-21.1871887056
 10
10.7980973116
 20
-21.1465350236
 10
10.8266010469
 20
-21.1026653925
 10
10.8503648679
 20
-21.0560602
 10
10.8691286172
 20
-21.0072297941
 10
10.8826868967
 20
-20.9567088725
 10
10.8908913116
 20
-20.9050506257
 10
10.8936520894
 20
-20.8528206899
  0
LWPOLYLINE
  5
24D
100
AcDbEntity
  8
RACCORDO
100
AcDbPolyline
 62
250
  6
CONTINUOUS
 90
14
 70
0
 10
10.4880550655
 20
-20.3939388969
 10
10.5380857158
 20
-20.393353318
 10
10.5864786629
 20
-20.3925574223
 10
10.6327154001
 20
-20.3915597375
 10
10.676300523
 20
-20.3903709533
 10
10.7167670384
 20
-20.3890038071
 10
10.7536813671
 20
-20.387472947
 10
10.7866479902
 20
-20.3857947756
 10
10.8153136862
 20
-20.3839872736
 10
10.8393713163
 20
-20.3820698076
 10
10.8585631145
 20
-20.3800629222
 10
10.8726834502
 20
-20.3779881202
 10
10.8815810307
 20
-20.3758676322
 10
10.8851605229
 20
-20.3737241781
  0
LINE
  5
24E
100
AcDbEntity
  8
RACCORDO
100
AcDbLine
 62
250
  6
CONTINUOUS
 10
10.3852366754
 20
-20.3944563284
 11
10.4880550655
 21
-20.3939388969
  0
LINE
  5
24F
100
AcDbEntity
  8
RACCORDO
100
AcDbLine
 62
7
  6
CONTINUOUS
 10
-10.5001522961
 20
-21.5123057015
 11
10.5001522961
 21
-21.5123057015
  0
LINE
  5
250
100
AcDbEntity
  8
RACCORDO
100
AcDbLine
 62
250
  6
CONTINUOUS
 10
10.3937282419
 20
-21.3526493524
 11
-10.3937282419
 21
-21.3526493524
  0
LWPOLYLINE
  5
251
100
AcDbEntity
  8
0
100
AcDbPolyline
 62
250
  6
CONTINUOUS
 90
52
 70
0
 10
-2.1
 20
-18.3254573871
 10
-2.3944798535
 20
-18.315870835
 10
-2.6854288151
 20
-18.2883351667
 10
-2.9728468848
 20
-18.2428502716
 10
-3.257855129
 20
-18.1790766674
 10
-3.5393324812
 20
-18.0973533976
 10
-3.8139157423
 20
-17.9986980532
 10
-4.0814316652
 20
-17.8829298659
 10
-4.342053497
 20
-17.7502288121
 10
-4.5929377793
 20
-17.6021535751
 10
-4.8340299064
 20
-17.4385599198
 10
-5.0653844841
 20
-17.2595910767
 10
-5.2843218712
 20
-17.0672369856
 10
-5.4907083107
 20
-16.8612992248
 10
-5.6846775598
 20
-16.6419751601
 10
-5.8639512487
 20
-16.4118485674
 10
-6.0283816662
 20
-16.1707912725
 10
-6.1781165236
 20
-15.9189305271
 10
-6.3113205859
 20
-15.6592334954
 10
-6.4277616378
 20
-15.3915917699
 10
-6.5276718947
 20
-15.1161131082
 10
-6.6099127672
 20
-14.8360892397
 10
-6.6742931324
 20
-14.551507143
 10
-6.7210041132
 20
-14.2623795523
 10
-6.7494804891
 20
-13.9720371776
 10
-6.759493764
 20
-13.6804508098
 10
-6.7512724339
 20
-13.3876497332
 10
-6.724936766
 20
-13.0970527383
 10
-6.6802871415
 20
-12.8086698844
 10
-6.6175231792
 20
-12.522491513
 10
-6.5373640025
 20
-12.2419071474
 10
-6.4395797818
 20
-11.9669840255
 10
-6.3244003467
 20
-11.6976555529
 10
-6.1932343091
 20
-11.4371107578
 10
-6.0459025969
 20
-11.1854724459
 10
-5.8825842821
 20
-10.9426185859
 10
-5.7052251937
 20
-10.7113711327
 10
-5.5137305661
 20
-10.4919087526
 10
-5.3081951649
 20
-10.2840535694
 10
-5.0908491146
 20
-10.090092831
 10
-4.8612890523
 20
-9.910053151
 10
-4.6199183409
 20
-9.7439086202
 10
-4.3701771952
 20
-9.5938677538
 10
-4.1101344685
 20
-9.4600064229
 10
-3.8417213075
 20
-9.3422493264
 10
-3.574171366
 20
-9.2425782341
 10
-3.3070612931
 20
-9.1625887979
 10
-3.0408144399
 20
-9.1006857573
 10
-2.7859345132
 20
-9.0540644592
 10
-2.5459227489
 20
-9.0217900561
 10
-2.3172779111
 20
-9.0047975294
 10
-2.1
 20
-9.0030869082
  0
LWPOLYLINE
  5
252
100
AcDbEntity
  8
ASSI
100
AcDbPolyline
 62
250
  6
CONTINUOUS
 90
49
 70
0
 10
2.1
 20
-17.8426898979
 10
2.3737939347
 20
-17.8336421747
 10
2.6445065338
 20
-17.8070659895
 10
2.9121377973
 20
-17.7629611572
 10
3.1779172036
 20
-17.7009975933
 10
3.4406152742
 20
-17.6215046455
 10
3.696543574
 20
-17.5254711308
 10
3.9455248204
 20
-17.4126676689
 10
4.1877362958
 20
-17.2833223201
 10
4.4200214124
 20
-17.1391100355
 10
4.642215188
 20
-16.9798634718
 10
4.8544826047
 20
-16.805748353
 10
5.0541620211
 20
-16.6189393624
 10
5.2411204779
 20
-16.4192521118
 10
5.4154909345
 20
-16.206869388
 10
5.5750106271
 20
-15.9845169381
 10
5.719481258
 20
-15.7520687282
 10
5.849101125
 20
-15.5096495226
 10
5.9622023578
 20
-15.2603617117
 10
6.0585713109
 20
-15.0041138131
 10
6.1384216298
 20
-14.7409965799
 10
6.2007263803
 20
-14.4743862862
 10
6.2452571179
 20
-14.2042397898
 10
6.2722422872
 20
-13.9306001246
 10
6.2813402877
 20
-13.6569733769
 10
6.2723199332
 20
-13.3833626531
 10
6.2454124099
 20
-13.1097653047
 10
6.2009696764
 20
-12.8396792805
 10
6.1387662143
 20
-12.573152011
 10
6.0590275419
 20
-12.3101369347
 10
5.9627821726
 20
-12.0539914085
 10
5.8498206562
 20
-11.8048080415
 10
5.7203524428
 20
-11.5624953015
 10
5.576034396
 20
-11.3301346128
 10
5.4166717925
 20
-11.1078495148
 10
5.2424593556
 20
-10.8955175558
 10
5.0556381185
 20
-10.6958513363
 10
4.8560701239
 20
-10.5090277282
 10
4.6438933292
 20
-10.3348708113
 10
4.4217626402
 20
-10.1755640682
 10
4.1895416245
 20
-10.0312799043
 10
3.9473667144
 20
-9.901846642
 10
3.6983021124
 20
-9.7889316446
 10
3.4420862332
 20
-9.692740278
 10
3.1789806621
 20
-9.6130676555
 10
2.9128343574
 20
-9.5509657289
 10
2.6449303052
 20
-9.5067852298
 10
2.3739855194
 20
-9.4801756612
 10
2.1
 20
-9.4711370794
  0
LWPOLYLINE
  5
253
100
AcDbEntity
  8
ASSI
100
AcDbPolyline
 62
7
  6
CONTINUOUS
 90
49
 70
0
 10
2.1
 20
-17.9386438883
 10
2.3785674192
 20
-17.9295622445
 10
2.6562943114
 20
-17.90231391
 10
2.9319928881
 20
-17.8569480326
 10
3.2045679781
 20
-17.7935663882
 10
3.4727449479
 20
-17.7123880815
 10
3.73509313
 20
-17.6138083643
 10
3.9904192959
 20
-17.4982700899
 10
4.2376919253
 20
-17.3662359662
 10
4.4757891233
 20
-17.2183055177
 10
4.7036532191
 20
-17.0551436473
 10
4.9203510293
 20
-16.8774278217
 10
5.1250111818
 20
-16.6858740164
 10
5.3167720719
 20
-16.4812670191
 10
5.4947762858
 20
-16.2644993047
 10
5.6582367464
 20
-16.0365249369
 10
5.8064442316
 20
-15.7983246362
 10
5.9387634116
 20
-15.5509104829
 10
6.054622418
 20
-15.2953534925
 10
6.1535220178
 20
-15.0327453385
 10
6.2350335949
 20
-14.7642124881
 10
6.2988045826
 20
-14.490924306
 10
6.3445610109
 20
-14.2140535945
 10
6.3721064183
 20
-13.9347851602
 10
6.381325155
 20
-13.6543293903
 10
6.372179565
 20
-13.3738896367
 10
6.3447102487
 20
-13.0946655473
 10
6.2990398371
 20
-12.8178608129
 10
6.235366988
 20
-12.5446613558
 10
6.1539666702
 20
-12.276235708
 10
6.0551929161
 20
-12.0137370605
 10
5.9394733348
 20
-11.7582910713
 10
5.8073051564
 20
-11.510986946
 10
5.6592547012
 20
-11.2728776107
 10
5.4959529255
 20
-11.044975204
 10
5.318104291
 20
-10.8282608768
 10
5.1264843728
 20
-10.6236737346
 10
4.9219383473
 20
-10.4321043742
 10
4.7053265652
 20
-10.2543477561
 10
4.4775240214
 20
-10.0911237367
 10
4.2394870372
 20
-9.9431293445
 10
3.9922436491
 20
-9.8110151877
 10
3.7368331681
 20
-9.695347883
 10
3.474192748
 20
-9.5965820883
 10
3.2055904761
 20
-9.5152242455
 10
2.9326342917
 20
-9.4517260239
 10
2.6566655192
 20
-9.4063022102
 10
2.3787240791
 20
-9.3790282524
 10
2.1
 20
-9.3699415749
  0
LWPOLYLINE
  5
254
100
AcDbEntity
  8
0
100
AcDbPolyline
 62
7
  6
CONTINUOUS
 90
15
 70
0
 10
2.1
 20
-18.1123057015
 10
2.3880052761
 20
-18.1029760293
 10
2.6752584996
 20
-18.0749667647
 10
2.9605426761
 20
-18.0283068813
 10
3.2430437585
 20
-17.9629976186
 10
3.521127398
 20
-17.8792829267
 10
3.7924228531
 20
-17.7779107464
 10
4.0549819053
 20
-17.6598731805
 10
4.3086691969
 20
-17.5255013189
 10
4.5538317362
 20
-17.3746108897
 10
4.7901188185
 20
-17.2071273814
 10
5.0156148973
 20
-17.0241042931
 10
5.2283693928
 20
-16.8270813558
 10
5.427261654
 20
-16.6172726871
 10
5.6118321012
 20
-16.3953507602
  0
LINE
  5
255
100
AcDbEntity
  8
0
100
AcDbLine
 62
250
  6
CONTINUOUS
 10
2.1
 20
-18.3254573871
 11
-2.1
 21
-18.3254573871
  0
LINE
  5
256
100
AcDbEntity
  8
0
100
AcDbLine
 62
250
  6
CONTINUOUS
 10
2.1
 20
-18.1180225874
 11
-2.1
 21
-18.1180225874
  0
LINE
  5
257
100
AcDbEntity
  8
ASSI
100
AcDbLine
 62
7
  6
CONTINUOUS
 10
2.0997287664
 20
-17.9686317532
 11
-2.1002734191
 21
-17.9686317532
  0
LINE
  5
258
100
AcDbEntity
  8
ASSI
100
AcDbLine
 62
250
  6
CONTINUOUS
 10
-2.1
 20
-17.9386438883
 11
2.1
 21
-17.9386438883
  0
LINE
  5
259
100
AcDbEntity
  8
ASSI
100
AcDbLine
 62
250
  6
CONTINUOUS
 10
-2.1
 20
-17.8426898979
 11
2.1
 21
-17.8426898979
  0
LWPOLYLINE
  5
25A
100
AcDbEntity
  8
ASSI
100
AcDbPolyline
 62
7
  6
CONTINUOUS
 90
10
 70
0
 10
-2.1002733223
 20
-17.9686317532
 10
-2.3581971032
 20
-17.9607383438
 10
-2.6134013671
 20
-17.9378228792
 10
-2.8658861141
 20
-17.8998853594
 10
-3.1165285567
 20
-17.8466843947
 10
-3.3644514823
 20
-17.7784613749
 10
-3.6070232532
 20
-17.6959404687
 10
-3.8433666568
 20
-17.5993630656
 10
-4.0743589058
 20
-17.4884877762
 10
-4.3
 20
-17.3633146004
  0
LWPOLYLINE
  5
25B
100
AcDbEntity
  8
0
100
AcDbPolyline
 62
250
  6
CONTINUOUS
 90
52
 70
0
 10
-2.1
 20
-18.1180225874
 10
-2.3800266289
 20
-18.1091947343
 10
-2.658845163
 20
-18.0827969652
 10
-2.935363647
 20
-18.0389918944
 10
-3.2085264204
 20
-17.9779802867
 10
-3.477231197
 20
-17.9000163595
 10
-3.7403360312
 20
-17.8054230457
 10
-3.9967248009
 20
-17.6945948626
 10
-4.2455041453
 20
-17.5679876967
 10
-4.4858900625
 20
-17.4260722685
 10
-4.716983421
 20
-17.2694056069
 10
-4.9378432627
 20
-17.0986207969
 10
-5.1476323994
 20
-16.9143166477
 10
-5.3454979769
 20
-16.7171442588
 10
-5.530636401
 20
-16.5078750086
 10
-5.7023525445
 20
-16.2873605457
 10
-5.8600044879
 20
-16.0564641905
 10
-6.0029531978
 20
-15.8161117996
 10
-6.1305685696
 20
-15.5672975779
 10
-6.2422880572
 20
-15.3109877147
 10
-6.3376488699
 20
-15.0481554909
 10
-6.4163310077
 20
-14.779877178
 10
-6.4780789751
 20
-14.5072417609
 10
-6.5226798756
 20
-14.2313138678
 10
-6.5499440395
 20
-13.953154599
 10
-6.559703649
 20
-13.6738583895
 10
-6.5518514903
 20
-13.3945101961
 10
-6.5264705563
 20
-13.1161592823
 10
-6.4837195607
 20
-12.8398591532
 10
-6.4237962899
 20
-12.5667311733
 10
-6.346939688
 20
-12.2979210424
 10
-6.2534089151
 20
-12.0345179769
 10
-6.1434853175
 20
-11.7775683583
 10
-6.0176375204
 20
-11.5280765497
 10
-5.8764443949
 20
-11.2869694312
 10
-5.7205161682
 20
-11.0551753094
 10
-5.5505037559
 20
-10.8336374595
 10
-5.3671201386
 20
-10.6233221229
 10
-5.1709625384
 20
-10.4250236787
 10
-4.9625931456
 20
-10.2393441127
 10
-4.7426187536
 20
-10.066766774
 10
-4.5121600928
 20
-9.9081634087
 10
-4.2727268988
 20
-9.7645134528
 10
-4.0237584796
 20
-9.6355960816
 10
-3.7676758001
 20
-9.5228377565
 10
-3.5110003733
 20
-9.4284758387
 10
-3.2548200463
 20
-9.3515983813
 10
-3.0007010185
 20
-9.2914407075
 10
-2.7564637773
 20
-9.248094677
 10
-2.5254888337
 20
-9.219782257
 10
-2.3064456504
 20
-9.2041373464
 10
-2.1
 20
-9.1993201348
  0
LWPOLYLINE
  5
25C
100
AcDbEntity
  8
ASSI
100
AcDbPolyline
 62
7
  6
CONTINUOUS
 90
10
 70
0
 10
-4.3
 20
-17.3633146004
 10
-4.4622629986
 20
-17.2617484106
 10
-4.6198438724
 20
-17.1530617803
 10
-4.7724302882
 20
-17.0374701317
 10
-4.9197198117
 20
-16.9152025736
 10
-5.0614205079
 20
-16.7865014462
 10
-5.1972515193
 20
-16.6516218414
 10
-5.326943622
 20
-16.5108310972
 10
-5.4502397596
 20
-16.364408268
 10
-5.5668955529
 20
-16.2126435712
  0
LWPOLYLINE
  5
25D
100
AcDbEntity
  8
0
100
AcDbPolyline
 62
7
  6
CONTINUOUS
 90
5
 70
0
 10
-6.0598226692
 20
-15.6629152458
 10
-6.0326176793
 20
-15.6609168434
 10
-6.0067487193
 20
-15.6556905147
 10
-5.982215789
 20
-15.6472362598
 10
-5.95863165
 20
-15.6353012952
  0
LINE
  5
25E
100
AcDbEntity
  8
0
100
AcDbLine
 62
7
  6
CONTINUOUS
 10
-6.0749291127
 20
-15.6629152458
 11
-6.0598226692
 21
-15.6629152458
  0
LINE
  5
25F
100
AcDbEntity
  8
0
100
AcDbLine
 62
7
  6
CONTINUOUS
 10
6.0598226692
 20
-15.6629152458
 11
6.0749291127
 21
-15.6629152458
  0
LINE
  5
260
100
AcDbEntity
  8
CURVE
100
AcDbLine
 62
250
  6
CONTINUOUS
 10
-3.714522
 20
-14.4862683382
 11
-0.092717
 21
-14.4862683382
  0
LINE
  5
261
100
AcDbEntity
  8
CURVE
100
AcDbLine
 62
250
  6
CONTINUOUS
 10
-0.0986917992
 20
-12.7901088115
 11
-3.714399
 21
-12.7901088115
  0
LWPOLYLINE
  5
262
100
AcDbEntity
  8
0
100
AcDbPolyline
 62
7
  6
CONTINUOUS
 90
5
 70
0
 10
-5.9591602986
 20
-11.6905224182
 10
-5.9827496019
 20
-11.6785909635
 10
-6.0072884782
 20
-11.6701392229
 10
-6.0331641532
 20
-11.6649138598
 10
-6.0603766271
 20
-11.6629148744
  0
LWPOLYLINE
  5
263
100
AcDbEntity
  8
0
100
AcDbPolyline
 62
7
  6
CONTINUOUS
 90
16
 70
0
 10
-5.7813720268
 20
-16.1623057015
 10
-5.6118321012
 20
-16.3953507602
 10
-5.4272616538
 20
-16.6172726872
 10
-5.2283693924
 20
-16.8270813561
 10
-5.0156148965
 20
-17.0241042938
 10
-4.7901188171
 20
-17.2071273824
 10
-4.5538317344
 20
-17.3746108909
 10
-4.3086691948
 20
-17.5255013201
 10
-4.0549819032
 20
-17.6598731816
 10
-3.7924228511
 20
-17.7779107473
 10
-3.5211273964
 20
-17.8792829273
 10
-3.2430437575
 20
-17.9629976189
 10
-2.9605426756
 20
-18.0283068814
 10
-2.6752584994
 20
-18.0749667647
 10
-2.388005276
 20
-18.1029760293
 10
-2.1
 20
-18.1123057015
  0
LWPOLYLINE
  5
264
100
AcDbEntity
  8
RACCORDO
100
AcDbPolyline
 62
250
  6
CONTINUOUS
 90
16
 70
0
 10
-10.8936520894
 20
-20.8528206899
 10
-10.8908913367
 20
-20.9050503872
 10
-10.8826869887
 20
-20.9567084404
 10
-10.8691288047
 20
-21.0072292177
 10
-10.8503651659
 20
-21.0560595314
 10
-10.8266014571
 20
-21.1026646825
 10
-10.7980978247
 20
-21.1465343177
 10
-10.7651663121
 20
-21.1871880452
 10
-10.7281674627
 20
-21.2241806651
 10
-10.68750639
 20
-21.2571070422
 10
-10.6436282898
 20
-21.2856065917
 10
-10.5970136025
 20
-21.3093671894
 10
-10.5481727899
 20
-21.3281285856
 10
-10.4976406706
 20
-21.3416852975
 10
-10.4459705559
 20
-21.3498888437
 10
-10.3937282418
 20
-21.3526493524
  0
LINE
  5
265
100
AcDbEntity
  8
RACCORDO
100
AcDbLine
 62
7
  6
CONTINUOUS
 10
-11.0
 20
-21.0123628089
 11
-11.0
 21
21.687751406
  0
LWPOLYLINE
  5
266
100
AcDbEntity
  8
RACCORDO
100
AcDbPolyline
 62
250
  6
CONTINUOUS
 90
16
 70
0
 10
-10.8936520894
 20
21.528209287
 10
-10.8908911792
 20
21.5804404747
 10
-10.8826864129
 20
21.632099739
 10
-10.8691276314
 20
21.6826214192
 10
-10.8503633012
 20
21.7314523107
 10
-10.8265988888
 20
21.7780577231
 10
-10.7980946108
 20
21.8219273343
 10
-10.7651625846
 20
21.8625807791
 10
-10.7281634106
 20
21.8995729085
 10
-10.6875022241
 20
21.9324986646
 10
-10.6436242585
 20
21.9609975155
 10
-10.5970099707
 20
21.9847574032
 10
-10.5481697799
 20
22.0035181607
 10
-10.4976384785
 20
22.0170743608
 10
-10.4459693763
 20
22.0252775649
 10
-10.3937282419
 20
22.0280379495
  0
LWPOLYLINE
  5
267
100
AcDbEntity
  8
0
100
AcDbPolyline
 62
7
  6
CONTINUOUS
 90
4
 70
0
 10
6.0603766271
 20
-11.6629148744
 10
6.0331641532
 20
-11.6649138598
 10
6.0072884782
 20
-11.6701392229
 10
5.9827496019
 20
-11.6785909635
  0
LINE
  5
268
100
AcDbEntity
  8
0
100
AcDbLine
 62
7
  6
CONTINUOUS
 10
-6.0755422675
 20
-11.6629148744
 11
-6.0603766271
 21
-11.6629148744
  0
LINE
  5
269
100
AcDbEntity
  8
0
100
AcDbLine
 62
7
  6
CONTINUOUS
 10
6.0603766271
 20
-11.6629148744
 11
6.0755422675
 21
-11.6629148744
  0
LINE
  5
26A
100
AcDbEntity
  8
ASSI
100
AcDbLine
 62
7
  6
CONTINUOUS
 10
-5.7785673005
 20
-11.1539389297
 11
-5.5837024056
 21
-11.1539389297
  0
LINE
  5
26B
100
AcDbEntity
  8
ASSI
100
AcDbLine
 62
7
  6
CONTINUOUS
 10
5.5837024056
 20
-11.1539389297
 11
5.7785698625
 21
-11.1539389297
  0
LWPOLYLINE
  5
26C
100
AcDbEntity
  8
0
100
AcDbPolyline
 62
7
  6
CONTINUOUS
 90
5
 70
0
 10
5.95863165
 20
-15.6353012952
 10
5.982215789
 20
-15.6472362598
 10
6.0067487193
 20
-15.6556905147
 10
6.0326176793
 20
-15.6609168434
 10
6.0598226692
 20
-15.6629152458
  0
LWPOLYLINE
  5
26D
100
AcDbEntity
  8
0
100
AcDbPolyline
 62
7
  6
CONTINUOUS
 90
3
 70
0
 10
-5.919613011
 20
-11.7211103555
 10
-5.9369077941
 20
-11.7056802505
 10
-5.9591602986
 20
-11.6905224182
  0
LINE
  5
26E
100
AcDbEntity
  8
0
100
AcDbLine
 62
7
  6
CONTINUOUS
 10
-6.0776889073
 20
-11.6593911927
 11
-6.0755422675
 21
-11.6629148744
  0
LWPOLYLINE
  5
26F
100
AcDbEntity
  8
ASSI
100
AcDbPolyline
 62
7
  6
CONTINUOUS
 90
4
 70
0
 10
-5.9746076909
 20
-15.5048484798
 10
-5.8591656623
 20
-15.7299545061
 10
-5.7302426937
 20
-15.9483982458
 10
-5.5878387851
 20
-16.1601796987
  0
LINE
  5
270
100
AcDbEntity
  8
ASSI
100
AcDbLine
 62
7
  6
CONTINUOUS
 10
-6.0769359096
 20
-15.2720405105
 11
-5.9746076909
 21
-15.5048484798
  0
LWPOLYLINE
  5
271
100
AcDbEntity
  8
RACCORDO
100
AcDbPolyline
 62
250
  6
CONTINUOUS
 90
8
 70
0
 10
-10.8888810446
 20
21.4381586727
 10
-10.8894938459
 20
21.4606216403
 10
-10.8901381033
 20
21.4800211321
 10
-10.8908128545
 20
21.4964187412
 10
-10.891503126
 20
21.5094707346
 10
-10.8922039268
 20
21.5190625345
 10
-10.8929202479
 20
21.5253087186
 10
-10.8936520894
 20
21.528209287
  0
LWPOLYLINE
  5
272
100
AcDbEntity
  8
RACCORDO
100
AcDbPolyline
 62
250
  6
CONTINUOUS
 90
5
 70
0
 10
-10.3908822869
 20
21.9641931239
 10
-10.3915724253
 20
21.9903370974
 10
-10.3922744786
 20
22.0097743826
 10
-10.3929930841
 20
22.0223704771
 10
-10.3937282419
 20
22.0280379495
  0
LINE
  5
273
100
AcDbEntity
  8
RACCORDO
100
AcDbLine
 62
250
  6
CONTINUOUS
 10
-10.8877590105
 20
21.384755602
 11
-10.8888810446
 21
21.4381586727
  0
LINE
  5
274
100
AcDbEntity
  8
RACCORDO
100
AcDbLine
 62
250
  6
CONTINUOUS
 10
-10.3895655789
 20
21.8925619286
 11
-10.3908822869
 21
21.9641931239
  0
LINE
  5
275
100
AcDbEntity
  8
RACCORDO
100
AcDbLine
 62
250
  6
CONTINUOUS
 10
-10.8868091914
 20
21.3213643823
 11
-10.8877590105
 21
21.384755602
  0
LINE
  5
276
100
AcDbEntity
  8
RACCORDO
100
AcDbLine
 62
250
  6
CONTINUOUS
 10
-10.3878329104
 20
21.7408430596
 11
-10.3895655789
 21
21.8925619286
  0
LINE
  5
277
100
AcDbEntity
  8
RACCORDO
100
AcDbLine
 62
250
  6
CONTINUOUS
 10
-10.8857612648
 20
21.2116482301
 11
-10.8868091914
 21
21.3213643823
  0
LINE
  5
278
100
AcDbEntity
  8
RACCORDO
100
AcDbLine
 62
250
  6
CONTINUOUS
 10
-10.385837577
 20
21.3951204207
 11
-10.3878329104
 21
21.7408430596
  0
LINE
  5
279
100
AcDbEntity
  8
RACCORDO
100
AcDbLine
 62
250
  6
CONTINUOUS
 10
-10.885222949
 20
21.091146714
 11
-10.8857612648
 21
21.2116482301
  0
LINE
  5
27A
100
AcDbEntity
  8
RACCORDO
100
AcDbLine
 62
250
  6
CONTINUOUS
 10
-10.8777549231
 20
2.6397421978
 11
-10.885222949
 21
21.091146714
  0
LINE
  5
27B
100
AcDbEntity
  8
RACCORDO
100
AcDbLine
 62
250
  6
CONTINUOUS
 10
-10.3778310707
 20
2.641918938
 11
-10.385837577
 21
21.3951204207
  0
LINE
  5
27C
100
AcDbEntity
  8
RACCORDO
100
AcDbLine
 62
250
  6
CONTINUOUS
 10
-10.8799766066
 20
-11.1704408328
 11
-10.8777549231
 21
2.6397421978
  0
LINE
  5
27D
100
AcDbEntity
  8
RACCORDO
100
AcDbLine
 62
250
  6
CONTINUOUS
 10
-10.3800527519
 20
-11.1824504267
 11
-10.3778310707
 21
2.641918938
  0
LINE
  5
27E
100
AcDbEntity
  8
RACCORDO
100
AcDbLine
 62
250
  6
CONTINUOUS
 10
-10.8855222658
 20
-20.4968885593
 11
-10.8799766066
 21
-11.1704408328
  0
LINE
  5
27F
100
AcDbEntity
  8
RACCORDO
100
AcDbLine
 62
250
  6
CONTINUOUS
 10
-10.386483232
 20
-20.869329131
 11
-10.3800527519
 21
-11.1824504267
  0
LINE
  5
280
100
AcDbEntity
  8
RACCORDO
100
AcDbLine
 62
250
  6
CONTINUOUS
 10
-10.8864074025
 20
-20.6112406342
 11
-10.8855222658
 21
-20.4968885593
  0
LINE
  5
281
100
AcDbEntity
  8
RACCORDO
100
AcDbLine
 62
250
  6
CONTINUOUS
 10
-10.3883719422
 20
-21.121496214
 11
-10.386483232
 21
-20.869329131
  0
LINE
  5
282
100
AcDbEntity
  8
RACCORDO
100
AcDbLine
 62
250
  6
CONTINUOUS
 10
-10.3895655788
 20
-21.2171733316
 11
-10.3883719422
 21
-21.121496214
  0
LINE
  5
283
100
AcDbEntity
  8
RACCORDO
100
AcDbLine
 62
250
  6
CONTINUOUS
 10
-10.8872628106
 20
-20.6789080801
 11
-10.8864074025
 21
-20.6112406342
  0
LINE
  5
284
100
AcDbEntity
  8
ASSI
100
AcDbLine
 62
7
  6
CONTINUOUS
 10
-2.4385110922
 20
-9.383318056
 11
-2.3981347274
 21
-9.3809285256
  0
LWPOLYLINE
  5
285
100
AcDbEntity
  8
ASSI
100
AcDbPolyline
 62
7
  6
CONTINUOUS
 90
3
 70
0
 10
-2.3506313631
 20
-9.3781172092
 10
-2.2695148762
 20
-9.3733166206
 10
-2.0997230665
 20
-9.3699415749
  0
LWPOLYLINE
  5
286
100
AcDbEntity
  8
ASSI
100
AcDbPolyline
 62
250
  6
CONTINUOUS
 90
49
 70
0
 10
-2.1
 20
-9.4711370794
 10
-2.3740978479
 20
-9.4802083967
 10
-2.6450794701
 20
-9.5068251412
 10
-2.9129448667
 20
-9.5509872563
 10
-3.1789281334
 20
-9.6130315988
 10
-3.4417951744
 20
-9.6926210781
 10
-3.6978437025
 20
-9.7887446648
 10
-3.9468867401
 20
-9.9016274719
 10
-4.1891112648
 20
-10.0310439071
 10
-4.4213759221
 20
-10.17530685
 10
-4.6435149203
 20
-10.3345791936
 10
-4.855694051
 20
-10.5086973179
 10
-5.0552693344
 20
-10.6954843375
 10
-5.2421074324
 20
-10.8951189662
 10
-5.416341683
 20
-11.1074215387
 10
-5.5757281215
 20
-11.3296776711
 10
-5.7200708703
 20
-11.5620087056
 10
-5.8495658068
 20
-11.8042922124
 10
-5.9625565988
 20
-12.0534483139
 10
-6.0588341474
 20
-12.3095685341
 10
-6.1386075514
 20
-12.5725602722
 10
-6.2008477758
 20
-12.8390677412
 10
-6.2453295553
 20
-13.109137749
 10
-6.2722781551
 20
-13.3827226185
 10
-6.2813403355
 20
-13.6563252322
 10
-6.2722849374
 20
-13.9299486266
 10
-6.2453431198
 20
-14.2035893066
 10
-6.2008551194
 20
-14.473740853
 10
-6.1385922745
 20
-14.740360519
 10
-6.0587832468
 20
-15.003491159
 10
-5.9624542576
 20
-15.2597553027
 10
-5.8493913774
 20
-15.5090621678
 10
-5.7198085358
 20
-15.7515032655
 10
-5.5753737428
 20
-15.9839750968
 10
-5.4158897263
 20
-16.2063519662
 10
-5.2415537585
 20
-16.4187608385
 10
-5.054625666
 20
-16.6184776515
 10
-4.8549681226
 20
-16.805322207
 10
-4.6427184545
 20
-16.9794763042
 10
-4.4205484669
 20
-17.1387591789
 10
-4.1883268991
 20
-17.2829956289
 10
-3.9461850118
 20
-17.4123624767
 10
-3.6971883927
 20
-17.5252071253
 10
-3.4410770706
 20
-17.6213253081
 10
-3.1781110168
 20
-17.7009226102
 10
-2.9121357326
 20
-17.7629611867
 10
-2.644433052
 20
-17.8070953486
 10
-2.3737211412
 20
-17.8336715238
 10
-2.1
 20
-17.8426898979
  0
LWPOLYLINE
  5
287
100
AcDbEntity
  8
ASSI
100
AcDbPolyline
 62
7
  6
CONTINUOUS
 90
49
 70
0
 10
-2.1
 20
-9.3699415749
 10
-2.3788877011
 20
-9.3790389354
 10
-2.6569001986
 20
-9.4063330058
 10
-2.9328482817
 20
-9.4517684766
 10
-3.2056424282
 20
-9.5152381398
 10
-3.4740015723
 20
-9.5965172723
 10
-3.7364774549
 20
-9.6952006531
 10
-3.9918727463
 20
-9.8108323707
 10
-4.2391670087
 20
-9.9429446365
 10
-4.4772451882
 20
-10.0909374666
 10
-4.7050546477
 20
-10.2541391405
 10
-4.921667708
 20
-10.4318670641
 10
-5.1262198221
 20
-10.6234092164
 10
-5.3178539893
 20
-10.8279754868
 10
-5.4957203505
 20
-11.0446721202
 10
-5.6590406223
 20
-11.272557222
 10
-5.8071095833
 20
-11.5106481969
 10
-5.9392973828
 20
-11.7579342592
 10
-6.0550382042
 20
-12.0133635235
 10
-6.153834858
 20
-12.2758473547
 10
-6.2352594139
 20
-12.5442598115
 10
-6.2989576529
 20
-12.8174475308
 10
-6.3446545053
 20
-13.0942419359
 10
-6.3721512598
 20
-13.3734573316
 10
-6.3813251886
 20
-13.6538902427
 10
-6.3721355574
 20
-13.9343411671
 10
-6.3446198819
 20
-14.213606758
 10
-6.2988936824
 20
-14.4904766234
 10
-6.2351533145
 20
-14.763765905
 10
-6.1536725945
 20
-15.0323019533
 10
-6.0548038448
 20
-15.2949156787
 10
-5.9389753131
 20
-15.5504809728
 10
-5.8066861678
 20
-15.7979057722
 10
-5.6585086013
 20
-16.0361182602
 10
-5.4950787871
 20
-16.2641052667
 10
-5.3171051616
 20
-16.4808874007
 10
-5.1253723086
 20
-16.6855130905
 10
-4.9207331335
 20
-16.8770929171
 10
-4.7040522793
 20
-17.0548376196
 10
-4.4762110464
 20
-17.2180237863
 10
-4.2381749784
 20
-17.365957319
 10
-3.9909733561
 20
-17.4979971604
 10
-3.7356392113
 20
-17.6135824576
 10
-3.4731114376
 20
-17.7122638475
 10
-3.2046610296
 20
-17.7935414724
 10
-2.9318896368
 20
-17.8569685065
 10
-2.6561364407
 20
-17.9023346584
 10
-2.3784435464
 20
-17.9295703817
 10
-2.1
 20
-17.9386438883
  0
LINE
  5
288
100
AcDbEntity
  8
ASSI
100
AcDbLine
 62
250
  6
CONTINUOUS
 10
2.1
 20
-9.4711370794
 11
-2.1
 21
-9.4711370794
  0
LINE
  5
289
100
AcDbEntity
  8
ASSI
100
AcDbLine
 62
7
  6
CONTINUOUS
 10
2.1
 20
-9.3699415749
 11
-2.1
 21
-9.3699415749
  0
LINE
  5
28A
100
AcDbEntity
  8
0
100
AcDbLine
 62
7
  6
CONTINUOUS
 10
-2.1
 20
-9.2088152202
 11
2.1
 21
-9.2088152202
  0
LINE
  5
28B
100
AcDbEntity
  8
0
100
AcDbLine
 62
250
  6
CONTINUOUS
 10
-2.1
 20
-9.1993201348
 11
2.1
 21
-9.1993201348
  0
LWPOLYLINE
  5
28C
100
AcDbEntity
  8
0
100
AcDbPolyline
 62
250
  6
CONTINUOUS
 90
67
 70
0
 10
2.1
 20
-9.1993201348
 10
2.1892146442
 20
-9.2002207017
 10
2.2805515113
 20
-9.2030065363
 10
2.3739685994
 20
-9.2078048601
 10
2.4691062414
 20
-9.2147188139
 10
2.5662242196
 20
-9.223892151
 10
2.6661950058
 20
-9.2355773288
 10
2.7689873667
 20
-9.2499794823
 10
2.8744721396
 20
-9.2672970815
 10
2.9833440045
 20
-9.2878975006
 10
3.0954693018
 20
-9.3120490122
 10
3.2107225137
 20
-9.3400317684
 10
3.3297600237
 20
-9.3723632202
 10
3.4523900936
 20
-9.4094037005
 10
3.5783859848
 20
-9.4515203913
 10
3.7082723716
 20
-9.4993903482
 10
3.8417355883
 20
-9.5534712312
 10
3.9784332192
 20
-9.6142184913
 10
4.1187389693
 20
-9.6824437169
 10
4.2622207168
 20
-9.7586663334
 10
4.4083403146
 20
-9.8433765519
 10
4.5571554971
 20
-9.9374858651
 10
4.708044506
 20
-10.0416001791
 10
4.860183473
 20
-10.1562305029
 10
5.0131294453
 20
-10.2822538329
 10
5.1660096238
 20
-10.420330027
 10
5.3176385022
 20
-10.5709037773
 10
5.4669493854
 20
-10.7345022604
 10
5.6131127581
 20
-10.9119262818
 10
5.7544435346
 20
-11.1030217205
 10
5.888694467
 20
-11.3065783322
 10
6.0148824331
 20
-11.5230240811
 10
6.1313661181
 20
-11.7517577507
 10
6.2355185311
 20
-11.9894811272
 10
6.3263755829
 20
-12.2352771486
 10
6.4033715012
 20
-12.4887698103
 10
6.4653506346
 20
-12.747011258
 10
6.5119215866
 20
-13.0085542301
 10
6.5429368966
 20
-13.2730240753
 10
6.5581105753
 20
-13.5389305104
 10
6.5573080303
 20
-13.8051704887
 10
6.5405426999
 20
-14.0709622302
 10
6.5079486972
 20
-14.3352835336
 10
6.4596843636
 20
-14.597182366
 10
6.3959264479
 20
-14.8557333507
 10
6.3168954301
 20
-15.1099640128
 10
6.2228369445
 20
-15.358941314
 10
6.1140442494
 20
-15.6017831072
 10
5.9909589974
 20
-15.8376535032
 10
5.8540726654
 20
-16.0657393462
 10
5.7038975855
 20
-16.2852417149
 10
5.5409712797
 20
-16.4953809602
 10
5.3658625884
 20
-16.695387194
 10
5.1791542847
 20
-16.884531654
 10
4.9814824554
 20
-17.0621706184
 10
4.7742340093
 20
-17.2272289498
 10
4.5575756591
 20
-17.3797093881
 10
4.3301447245
 20
-17.5203168208
 10
4.0903975015
 20
-17.649217844
 10
3.8409774871
 20
-17.7641942558
 10
3.5870086076
 20
-17.862812713
 10
3.3288194032
 20
-17.9453339358
 10
3.0682349755
 20
-18.0115592555
 10
2.8132756816
 20
-18.0605236269
 10
2.5674517156
 20
-18.0933953924
 10
2.3294279904
 20
-18.1120947369
 10
2.1
 20
-18.1180225874
  0
LWPOLYLINE
  5
28D
100
AcDbEntity
  8
ASSI
100
AcDbPolyline
 62
7
  6
CONTINUOUS
 90
3
 70
0
 10
2.0997230661
 20
-9.3699415838
 10
2.2695191703
 20
-9.3733162623
 10
2.3504662395
 20
-9.3781070192
  0
LWPOLYLINE
  5
28E
100
AcDbEntity
  8
0
100
AcDbPolyline
 62
7
  6
CONTINUOUS
 90
19
 70
0
 10
2.1
 20
-9.2088152202
 10
2.3725998128
 20
-9.2171829838
 10
2.6442817422
 20
-9.2422447788
 10
2.9140270438
 20
-9.2839030852
 10
3.1808624015
 20
-9.3420214271
 10
3.4437362304
 20
-9.416398718
 10
3.7015287929
 20
-9.506744354
 10
3.953196236
 20
-9.6127104029
 10
4.1978694468
 20
-9.7339133869
 10
4.4347228744
 20
-9.869918407
 10
4.6629092799
 20
-10.0202422539
 10
4.8815148208
 20
-10.1843029181
 10
5.0896508344
 20
-10.3614578063
 10
5.286492611
 20
-10.5510362388
 10
5.4713154372
 20
-10.7523580075
 10
5.6434636003
 20
-10.9646752095
 10
5.8023050671
 20
-11.1871884109
 10
5.9472330682
 20
-11.4190496637
 10
6.0776889484
 20
-11.6593911252
  0
LINE
  5
28F
100
AcDbEntity
  8
ASSI
100
AcDbLine
 62
7
  6
CONTINUOUS
 10
2.3980123376
 20
-9.380920979
 11
2.4385222486
 21
-9.3833185103
  0
LWPOLYLINE
  5
290
100
AcDbEntity
  8
RACCORDO
100
AcDbPolyline
 62
250
  6
CONTINUOUS
 90
6
 70
0
 10
-10.3937282419
 20
-21.3526493524
 10
-10.3929930841
 20
-21.34698188
 10
-10.3922744786
 20
-21.3343857855
 10
-10.3915724253
 20
-21.3149485003
 10
-10.3908822869
 20
-21.2888045269
 10
-10.3895655788
 20
-21.2171733316
  0
LWPOLYLINE
  5
291
100
AcDbEntity
  8
ASSI
100
AcDbPolyline
 62
7
  6
CONTINUOUS
 90
4
 70
0
 10
-3.2702607122
 20
-9.5325155833
 10
-3.1065400203
 20
-9.4895876944
 10
-2.9412422502
 20
-9.4531748183
 10
-2.7743747793
 20
-9.4232471549
  0
LINE
  5
292
100
AcDbEntity
  8
ASSI
100
AcDbLine
 62
7
  6
CONTINUOUS
 10
-2.7743747793
 20
-9.4232471549
 11
-2.6067117147
 21
-9.3999458811
  0
LINE
  5
293
100
AcDbEntity
  8
0
100
AcDbLine
 62
250
  6
CONTINUOUS
 10
-2.1
 20
-9.0030869082
 11
2.1
 21
-9.0030869082
  0
LWPOLYLINE
  5
294
100
AcDbEntity
  8
0
100
AcDbPolyline
 62
250
  6
CONTINUOUS
 90
67
 70
0
 10
2.1
 20
-9.0030869082
 10
2.1933303283
 20
-9.003803917
 10
2.2887708636
 20
-9.0067605499
 10
2.3863216059
 20
-9.0119568059
 10
2.4857235298
 20
-9.0191892709
 10
2.5872356608
 20
-9.0286613561
 10
2.6916350752
 20
-9.040983298
 10
2.7990106617
 20
-9.0560641764
 10
2.9092735315
 20
-9.0739949028
 10
3.0229340957
 20
-9.0956584566
 10
3.1400495046
 20
-9.1209447702
 10
3.2605626077
 20
-9.1499638915
 10
3.3848123646
 20
-9.1839289652
 10
3.5129178405
 20
-9.2227228119
 10
3.6447599703
 20
-9.2664625698
 10
3.7803205175
 20
-9.3167128434
 10
3.9197575622
 20
-9.3733815151
 10
4.0629130244
 20
-9.436560621
 10
4.209294428
 20
-9.5080909663
 10
4.3591335783
 20
-9.5878965253
 10
4.5121986701
 20
-9.6760531711
 10
4.6673018109
 20
-9.7746295077
 10
4.8248033208
 20
-9.883621526
 10
4.9843428798
 20
-10.0030329634
 10
5.1436516355
 20
-10.1349439666
 10
5.3031434539
 20
-10.279581973
 10
5.4624044691
 20
-10.4367190861
 10
5.6179242301
 20
-10.6077523555
 10
5.7701819452
 20
-10.7934835665
 10
5.9186984061
 20
-10.993110223
 10
6.0585255375
 20
-11.2056228968
 10
6.1896449817
 20
-11.4320923629
 10
6.3120750962
 20
-11.6714469546
 10
6.4209228783
 20
-11.9194636947
 10
6.5153347426
 20
-12.1762914264
 10
6.5961642744
 20
-12.4417805298
 10
6.6610792263
 20
-12.7112606289
 10
6.7095274969
 20
-12.9843290421
 10
6.7420611876
 20
-13.261387963
 10
6.7580043552
 20
-13.5389746561
 10
6.7570532599
 20
-13.8169549171
 10
6.7395116414
 20
-14.0954627336
 10
6.7056147756
 20
-14.3714379568
 10
6.6552109934
 20
-14.6448294472
 10
6.5884519638
 20
-14.9156884254
 10
6.5060279691
 20
-15.1811085768
 10
6.4077451433
 20
-15.4410228181
 10
6.2937973524
 20
-15.6954986217
 10
6.1654564772
 20
-15.9418317862
 10
6.0225904993
 20
-16.1799230019
 10
5.8653314371
 20
-16.4098722383
 10
5.6953472272
 20
-16.6292744522
 10
5.5125022962
 20
-16.8380229382
 10
5.3169322175
 20
-17.0362252458
 10
5.1107116483
 20
-17.2217978934
 10
4.8945389836
 20
-17.3943124012
 10
4.6677158285
 20
-17.554198167
 10
4.4302216548
 20
-17.7006586025
 10
4.1796729756
 20
-17.8345603636
 10
3.9184532779
 20
-17.9550375699
 10
3.653692495
 20
-18.0586948965
 10
3.3842496743
 20
-18.1442226836
 10
3.1112657684
 20
-18.2129313051
 10
2.8452935689
 20
-18.2653554795
 10
2.5898506729
 20
-18.3016735506
 10
2.3414194833
 20
-18.3217074955
 10
2.1
 20
-18.3254573871
  0
LWPOLYLINE
  5
295
100
AcDbEntity
  8
ASSI
100
AcDbPolyline
 62
7
  6
CONTINUOUS
 90
4
 70
0
 10
2.6067323011
 20
-9.3999483277
 10
2.7744083253
 20
-9.4232527814
 10
2.9412913237
 20
-9.4531848044
 10
3.1066043037
 20
-9.4896031966
  0
LWPOLYLINE
  5
296
100
AcDbEntity
  8
ASSI
100
AcDbPolyline
 62
7
  6
CONTINUOUS
 90
19
 70
0
 10
3.1066043037
 20
-9.4896031966
 10
3.2703398519
 20
-9.5325382078
 10
3.4325053817
 20
-9.5819595881
 10
3.5923461406
 20
-9.6376353876
 10
3.7498510693
 20
-9.6995946902
 10
3.9050312271
 20
-9.767808412
 10
4.0571650393
 20
-9.8419573507
 10
4.2062376428
 20
-9.9220686133
 10
4.3522639006
 20
-10.0081150929
 10
4.4945668278
 20
-10.0996962665
 10
4.6331291776
 20
-10.1968375349
 10
4.7679681966
 20
-10.2995134973
 10
4.8984586403
 20
-10.407247428
 10
5.0245820316
 20
-10.5200647135
 10
5.1463568476
 20
-10.6379399675
 10
5.2632132744
 20
-10.7603203046
 10
5.374961374
 20
-10.8870214298
 10
5.4817910844
 20
-11.0182276382
 10
5.5837024056
 20
-11.1539389297
  0
LWPOLYLINE
  5
297
100
AcDbEntity
  8
0
100
AcDbPolyline
 62
7
  6
CONTINUOUS
 90
3
 70
0
 10
5.9220469679
 20
-15.6073391899
 10
5.9363835408
 20
-15.6201384043
 10
5.95863165
 20
-15.6353012952
  0
LWPOLYLINE
  5
298
100
AcDbEntity
  8
RACCORDO
100
AcDbPolyline
 62
250
  6
CONTINUOUS
 90
10
 70
0
 10
-10.8936520894
 20
-20.8528206899
 10
-10.8929202479
 20
-20.8499201214
 10
-10.8922039268
 20
-20.8436739372
 10
-10.891503126
 20
-20.8340821373
 10
-10.8908128545
 20
-20.821030144
 10
-10.8901381033
 20
-20.8046325351
 10
-10.8894938459
 20
-20.7852330435
 10
-10.8888810446
 20
-20.7627700758
 10
-10.8882987371
 20
-20.7373052255
 10
-10.8872628106
 20
-20.6789080801
  0
LWPOLYLINE
  5
299
100
AcDbEntity
  8
CURVE
100
AcDbPolyline
 62
250
  6
CONTINUOUS
 90
85
 70
0
 10
-0.092717
 20
-14.4862683382
 10
-0.0585801378
 20
-14.5592103982
 10
-0.0219895662
 20
-14.6302578608
 10
0.0170625649
 20
-14.6994622293
 10
0.058584106
 20
-14.7668750071
 10
0.1025829071
 20
-14.8325476976
 10
0.1490668185
 20
-14.8965318042
 10
0.1980263701
 20
-14.9588499158
 10
0.2493828092
 20
-15.0194089627
 10
0.3030400629
 20
-15.0780869607
 10
0.3589020581
 20
-15.1347619257
 10
0.4168727219
 20
-15.1893118734
 10
0.476855981
 20
-15.2416148197
 10
0.5387565416
 20
-15.2915603901
 10
0.6024822254
 20
-15.3390846496
 10
0.6679416331
 20
-15.3841352726
 10
0.7350433655
 20
-15.4266599338
 10
0.8036960233
 20
-15.4666063079
 10
0.8738082072
 20
-15.5039220694
 10
0.9452859008
 20
-15.5385566063
 10
1.0180246182
 20
-15.5704661592
 10
1.0919172563
 20
-15.5996086823
 10
1.1668567121
 20
-15.6259421296
 10
1.2427358825
 20
-15.6494244552
 10
1.3194476644
 20
-15.6700136131
 10
1.3968838726
 20
-15.6876722633
 10
1.4749319934
 20
-15.7023818899
 10
1.5534784309
 20
-15.7141286829
 10
1.6324095893
 20
-15.7228988323
 10
1.7116118728
 20
-15.728678528
 10
1.7909716856
 20
-15.7314539601
 10
1.8703757794
 20
-15.7312153752
 10
1.9497122971
 20
-15.7279692467
 10
2.0288697292
 20
-15.7217261042
 10
2.107736566
 20
-15.7124964779
 10
2.1862012982
 20
-15.7002908974
 10
2.2641524161
 20
-15.6851198927
 10
2.3414787604
 20
-15.6669983185
 10
2.4180705722
 20
-15.6459583282
 10
2.493818443
 20
-15.6220364003
 10
2.5686129641
 20
-15.595269013
 10
2.6423447268
 20
-15.5656926448
 10
2.7149043225
 20
-15.5333437738
 10
2.7861845486
 20
-15.4982626027
 10
2.8560870272
 20
-15.4605042304
 10
2.9245155863
 20
-15.4201274803
 10
2.9913740541
 20
-15.3771911756
 10
3.0565662585
 20
-15.3317541395
 10
3.1199960278
 20
-15.2838751953
 10
3.1815694816
 20
-15.2336167932
 10
3.2412019059
 20
-15.1810558918
 10
3.2988108784
 20
-15.1262730765
 10
3.3543139766
 20
-15.0693489329
 10
3.4076287782
 20
-15.0103640465
 10
3.4586728607
 20
-14.9493990028
 10
3.5073673465
 20
-14.8865369944
 10
3.5536475359
 20
-14.8218716425
 10
3.5974522742
 20
-14.7554991752
 10
3.6387204064
 20
-14.6875158207
 10
3.6773907777
 20
-14.6180178074
 10
3.7134022331
 20
-14.5471013633
 10
3.7466974248
 20
-14.474864725
 10
3.7772342329
 20
-14.4014141624
 10
3.8049743447
 20
-14.3268579536
 10
3.8298794473
 20
-14.2513043769
 10
3.8519112279
 20
-14.1748617104
 10
3.8710313737
 20
-14.0976382323
 10
3.8872058783
 20
-14.019743214
 10
3.9004179616
 20
-13.9412898999
 10
3.9106551496
 20
-13.8623925277
 10
3.9179049686
 20
-13.783165335
 10
3.9221549448
 20
-13.7037225593
 10
3.9233926043
 20
-13.6241784384
 10
3.9216097759
 20
-13.5446470388
 10
3.9168154982
 20
-13.4652417435
 10
3.9090231121
 20
-13.3860757642
 10
3.8982459589
 20
-13.3072623127
 10
3.8844973795
 20
-13.2289146009
 10
3.867790715
 20
-13.1511458407
 10
3.8481436282
 20
-13.0740684463
 10
3.8255910679
 20
-12.9977916427
 10
3.8001723048
 20
-12.922423857
 10
3.7719266096
 20
-12.8480735168
 10
3.7408932527
 20
-12.7748490492
 10
3.7071115047
 20
-12.7028588816
  0
LINE
  5
29A
100
AcDbEntity
  8
ASSI
100
AcDbLine
 62
7
  6
CONTINUOUS
 10
-4.3
 20
-17.3633146004
 11
-4.3
 21
-17.5300931774
  0
LINE
  5
29B
100
AcDbEntity
  8
RACCORDO
100
AcDbLine
 62
250
  6
CONTINUOUS
 10
10.3937282419
 20
22.0280379495
 11
10.5001522961
 21
22.1876942985
  0
LINE
  5
29C
100
AcDbEntity
  8
ASSI
100
AcDbLine
 62
250
  6
CONTINUOUS
 10
-2.1
 20
-17.8426898979
 11
-2.1
 21
-17.9386438883
  0
LINE
  5
29D
100
AcDbEntity
  8
0
100
AcDbLine
 62
250
  6
CONTINUOUS
 10
-2.1
 20
-18.3254573871
 11
-2.1
 21
-18.1180225874
  0
LINE
  5
29E
100
AcDbEntity
  8
0
100
AcDbLine
 62
250
  6
CONTINUOUS
 10
-2.1
 20
-9.2088152202
 11
-2.1
 21
-9.0030869082
  0
LINE
  5
29F
100
AcDbEntity
  8
ASSI
100
AcDbLine
 62
250
  6
CONTINUOUS
 10
-2.1
 20
-9.4711370794
 11
-2.0999999985
 21
-9.3699415749
  0
LINE
  5
2A0
100
AcDbEntity
  8
ASSI
100
AcDbLine
 62
250
  6
CONTINUOUS
 10
-2.1002734191
 20
-17.9686317532
 11
-2.1
 21
-17.9386438883
  0
LINE
  5
2A1
100
AcDbEntity
  8
RACCORDO
100
AcDbLine
 62
250
  6
CONTINUOUS
 10
10.8936520894
 20
21.528209287
 11
11.0
 21
21.687751406
  0
LWPOLYLINE
  5
2A2
100
AcDbEntity
  8
0
100
AcDbPolyline
 62
7
  6
CONTINUOUS
 90
2
 70
0
 43
0.3500000006
 10
24.2500006027
 20
-2.9480196648
 10
22.750000145
 20
-2.9480196648
  0
LINE
  5
2A3
100
AcDbEntity
  8
RACCORDO
100
AcDbLine
 62
250
  6
CONTINUOUS
 10
10.5001522961
 20
-21.5123057015
 11
10.3937282419
 21
-21.3526493524
  0
LINE
  5
2A4
100
AcDbEntity
  8
RACCORDO
100
AcDbLine
 62
250
  6
CONTINUOUS
 10
11.0
 20
-21.0123628089
 11
10.8936520894
 21
-20.8528206899
  0
LWPOLYLINE
  5
2A5
100
AcDbEntity
  8
CURVE
100
AcDbPolyline
 62
250
  6
CONTINUOUS
 90
61
 70
0
 10
3.7071115047
 20
-12.7028588816
 10
3.6706243003
 20
-12.6322092006
 10
3.6314892294
 20
-12.5629972293
 10
3.5897675461
 20
-12.4953179503
 10
3.5455205043
 20
-12.4292663458
 10
3.4988093581
 20
-12.3649373983
 10
3.4496953615
 20
-12.3024260902
 10
3.3982434113
 20
-12.2418249791
 10
3.3445329759
 20
-12.1832169241
 10
3.2886471667
 20
-12.1266823592
 10
3.2306690948
 20
-12.0723017186
 10
3.1706818717
 20
-12.0201554365
 10
3.1087686085
 20
-11.9703239471
 10
3.0450145633
 20
-11.9228839558
 10
2.9795135807
 20
-11.877897253
 10
2.9123616522
 20
-11.8354219007
 10
2.8436547689
 20
-11.7955159605
 10
2.7734889223
 20
-11.7582374943
 10
2.7019601038
 20
-11.7236445639
 10
2.6291666888
 20
-11.6917915792
 10
2.5552165888
 20
-11.6627183439
 10
2.4802200994
 20
-11.6364610098
 10
2.4042875164
 20
-11.6130557286
 10
2.3275291353
 20
-11.5925386521
 10
2.2500552518
 20
-11.5749459322
 10
2.1719763578
 20
-11.56030933
 10
2.0934037306
 20
-11.5486430442
 10
2.0144488441
 20
-11.5399568827
 10
1.9352231718
 20
-11.5342606536
 10
1.8558381875
 20
-11.5315641648
 10
1.7764053647
 20
-11.5318772244
 10
1.6970366547
 20
-11.5352055372
 10
1.6178459173
 20
-11.5415383953
 10
1.5389474902
 20
-11.5508609879
 10
1.4604557107
 20
-11.563158504
 10
1.3824849162
 20
-11.5784161325
 10
1.3051494443
 20
-11.5966190626
 10
1.2285623118
 20
-11.6177478028
 10
1.1528312543
 20
-11.6417641397
 10
1.0780626867
 20
-11.6686251794
 10
1.004363024
 20
-11.698288028
 10
0.9318386811
 20
-11.7307097918
 10
0.8605960732
 20
-11.7658475767
 10
0.7907390733
 20
-11.8036567772
 10
0.7223613878
 20
-11.8440859397
 10
0.655554181
 20
-11.8870818993
 10
0.5904086174
 20
-11.9325914907
 10
0.5270158614
 20
-11.9805615488
 10
0.4654670774
 20
-12.0309389084
 10
0.4058540724
 20
-12.0836588036
 10
0.3482712228
 20
-12.1386100657
 10
0.2928135476
 20
-12.1956699255
 10
0.2395760658
 20
-12.2547156134
 10
0.1886537963
 20
-12.3156243601
 10
0.1401417581
 20
-12.3782733961
 10
0.0941178534
 20
-12.442568981
 10
0.0505915165
 20
-12.5085334889
 10
0.0095550652
 20
-12.5762183229
 10
-0.028999183
 20
-12.6456748859
 10
-0.0650789103
 20
-12.7169545812
 10
-0.0986917992
 20
-12.7901088115
  0
LWPOLYLINE
  5
2A6
100
AcDbEntity
  8
ASSI
100
AcDbPolyline
 62
7
  6
CONTINUOUS
 90
15
 70
0
 10
-5.9746076909
 20
-11.8162724419
 10
-6.0769359096
 20
-12.0490804111
 10
-6.1657831883
 20
-12.2885506671
 10
-6.2400481366
 20
-12.5315642414
 10
-6.2994731983
 20
-12.7776534193
 10
-6.3443159297
 20
-13.0272859155
 10
-6.3742476086
 20
-13.2787459057
 10
-6.389158661
 20
-13.5326797778
 10
-6.389158661
 20
-13.7884411439
 10
-6.3742476086
 20
-14.042375016
 10
-6.3443159297
 20
-14.2938350062
 10
-6.2994731983
 20
-14.5434675024
 10
-6.2400481366
 20
-14.7895566802
 10
-6.1657831883
 20
-15.0325702545
 10
-6.0769359096
 20
-15.2720405105
  0
LINE
  5
2A7
100
AcDbEntity
  8
ASSI
100
AcDbLine
 62
7
  6
CONTINUOUS
 10
-5.8591656623
 20
-11.5911664155
 11
-5.9746076909
 21
-11.8162724419
  0
LWPOLYLINE
  5
2A8
100
AcDbEntity
  8
0
100
AcDbPolyline
 62
7
  6
CONTINUOUS
 90
19
 70
0
 10
-6.0776889073
 20
-11.6593911927
 10
-5.9472652577
 20
-11.419104948
 10
-5.8023588471
 20
-11.187268889
 10
-5.6435232703
 20
-10.9647535813
 10
-5.4713389268
 20
-10.7523851232
 10
-5.2864522823
 20
-10.5509947502
 10
-5.0895893761
 20
-10.3614019717
 10
-4.8815564411
 20
-10.1843361632
 10
-4.6631203115
 20
-10.0203909142
 10
-4.4350229135
 20
-9.8701033992
 10
-4.1980834391
 20
-9.7340278075
 10
-3.9532165822
 20
-9.6127196012
 10
-3.701336045
 20
-9.5066698566
 10
-3.443290032
 20
-9.4162574452
 10
-3.1801463626
 20
-9.3418424363
 10
-2.9131976103
 20
-9.2837490945
 10
-2.6435602635
 20
-9.2421560878
 10
-2.3721549388
 20
-9.2171557866
 10
-2.1
 20
-9.2088152202
  0
LWPOLYLINE
  5
2A9
100
AcDbEntity
  8
ASSI
100
AcDbPolyline
 62
7
  6
CONTINUOUS
 90
4
 70
0
 10
5.9746076909
 20
-11.8162724419
 10
5.8591656623
 20
-11.5911664155
 10
5.7302426937
 20
-11.3727226758
 10
5.5878387851
 20
-11.1609412229
  0
LINE
  5
2AA
100
AcDbEntity
  8
0
100
AcDbLine
 62
250
  6
CONTINUOUS
 10
2.1
 20
-18.3254573871
 11
2.1
 21
-18.1180225874
  0
LINE
  5
2AB
100
AcDbEntity
  8
ASSI
100
AcDbLine
 62
250
  6
CONTINUOUS
 10
2.1
 20
-9.4711370794
 11
2.1
 21
-9.3699415749
  0
LINE
  5
2AC
100
AcDbEntity
  8
0
100
AcDbLine
 62
250
  6
CONTINUOUS
 10
2.1
 20
-9.2088152202
 11
2.1
 21
-9.0030869082
  0
LINE
  5
2AD
100
AcDbEntity
  8
ASSI
100
AcDbLine
 62
250
  6
CONTINUOUS
 10
2.1
 20
-17.8426898979
 11
2.0999999985
 21
-17.9386438883
  0
LWPOLYLINE
  5
2AE
100
AcDbEntity
  8
ASSI
100
AcDbPolyline
 62
7
  6
CONTINUOUS
 90
3
 70
0
 10
-5.5878387851
 20
-11.1609412229
 10
-5.7302426937
 20
-11.3727226758
 10
-5.8591656623
 20
-11.5911664155
  0
LINE
  5
2AF
100
AcDbEntity
  8
ASSI
100
AcDbLine
 62
7
  6
CONTINUOUS
 10
6.0769359096
 20
-12.0490804111
 11
5.9746076909
 21
-11.8162724419
  0
LINE
  5
2B0
100
AcDbEntity
  8
ASSI
100
AcDbLine
 62
250
  6
CONTINUOUS
 10
2.0997287664
 20
-17.9686317532
 11
2.1
 21
-17.9386438883
  0
LWPOLYLINE
  5
2B1
100
AcDbEntity
  8
CURVE
100
AcDbPolyline
 62
250
  6
CONTINUOUS
 90
81
 70
0
 10
2.034063
 20
-13.6354399817
 10
2.0344621173
 20
-13.6150320835
 10
2.0356506601
 20
-13.5949257264
 10
2.0376154148
 20
-13.5750570614
 10
2.0403431677
 20
-13.5553622396
 10
2.0438240431
 20
-13.5357900508
 10
2.0480615168
 20
-13.5163398392
 10
2.0530624025
 20
-13.4970235878
 10
2.058833514
 20
-13.4778532797
 10
2.0653778781
 20
-13.4588476067
 10
2.0726833736
 20
-13.4400520967
 10
2.0807340924
 20
-13.4215189866
 10
2.0895141266
 20
-13.403300513
 10
2.099006769
 20
-13.3854450263
 10
2.1091921168
 20
-13.3679853299
 10
2.120049468
 20
-13.3509503408
 10
2.1315581207
 20
-13.3343689761
 10
2.1436979261
 20
-13.318268409
 10
2.1564509479
 20
-13.3026688386
 10
2.1697998028
 20
-13.2875887202
 10
2.1837271076
 20
-13.2730465091
 10
2.1982154103
 20
-13.2590605715
 10
2.213246985
 20
-13.2456489168
 10
2.2288040367
 20
-13.232829465
 10
2.244868771
 20
-13.2206201363
 10
2.2614211486
 20
-13.2090394929
 10
2.2784321534
 20
-13.1981086649
 10
2.2958705245
 20
-13.1878494246
 10
2.3137050015
 20
-13.1782835442
 10
2.3319035261
 20
-13.1694311927
 10
2.3504308511
 20
-13.1613061257
 10
2.3692509316
 20
-13.1539204954
 10
2.3883277229
 20
-13.1472864542
 10
2.407627059
 20
-13.1414148858
 10
2.4271222896
 20
-13.1363115989
 10
2.4467886432
 20
-13.1319811338
 10
2.4666013483
 20
-13.1284280308
 10
2.4865356335
 20
-13.1256568299
 10
2.5065667273
 20
-13.1236720715
 10
2.5266698582
 20
-13.1224782956
 10
2.5468202548
 20
-13.1220800426
 10
2.5669913144
 20
-13.122480244
 10
2.5871491089
 20
-13.123675397
 10
2.6072578793
 20
-13.1256603905
 10
2.6272818663
 20
-13.128430113
 10
2.6471853107
 20
-13.1319794533
 10
2.6669324535
 20
-13.1363033
 10
2.6864875353
 20
-13.1413965419
 10
2.705814797
 20
-13.1472540675
 10
2.7248803806
 20
-13.1538693402
 10
2.7436580328
 20
-13.161230121
 10
2.7621234012
 20
-13.1693227457
 10
2.7802521337
 20
-13.1781335499
 10
2.798019878
 20
-13.1876488694
 10
2.8154022821
 20
-13.1978550399
 10
2.8323749935
 20
-13.2087383969
 10
2.8489136602
 20
-13.2202852762
 10
2.8649935414
 20
-13.2324806374
 10
2.8805883425
 20
-13.2453039355
 10
2.8956713803
 20
-13.2587332495
 10
2.9102159718
 20
-13.2727466583
 10
2.9241967079
 20
-13.2873221148
 10
2.9375932757
 20
-13.302437068
 10
2.9503866366
 20
-13.3180688407
 10
2.9625577517
 20
-13.3341947557
 10
2.9740877862
 20
-13.3507915822
 10
2.9849587195
 20
-13.367833875
 10
2.9951527353
 20
-13.3852956349
 10
3.0046520168
 20
-13.403150863
 10
3.0134390362
 20
-13.4213693215
 10
3.0214974212
 20
-13.4399038175
 10
3.0288110881
 20
-13.4587029194
 10
3.0353639533
 20
-13.4777151958
 10
3.0411436864
 20
-13.4968956696
 10
3.0461529695
 20
-13.5162251834
 10
3.0503982383
 20
-13.5356910342
 10
3.0538859281
 20
-13.555280519
 10
3.0566191837
 20
-13.5749937357
 10
3.0585879868
 20
-13.5948819845
 10
3.0597790285
 20
-13.6150093662
 10
3.060179
 20
-13.6354399817
  0
LWPOLYLINE
  5
2B2
100
AcDbEntity
  8
CURVE
100
AcDbPolyline
 62
250
  6
CONTINUOUS
 90
81
 70
0
 10
3.060179
 20
-13.6354399817
 10
3.0597798564
 20
-13.6558485535
 10
3.058591238
 20
-13.6759555982
 10
3.0566263637
 20
-13.6958249657
 10
3.0538984521
 20
-13.7155205062
 10
3.0504173811
 20
-13.735093435
 10
3.0461796648
 20
-13.7545444285
 10
3.0411784762
 20
-13.7738615284
 10
3.0354069884
 20
-13.7930327762
 10
3.0288621654
 20
-13.8120394936
 10
3.0215561345
 20
-13.8308361217
 10
3.0135048139
 20
-13.8493703815
 10
3.0047241216
 20
-13.867589994
 10
2.9952307766
 20
-13.8854465717
 10
2.9850447009
 20
-13.9029072914
 10
2.9741866173
 20
-13.9199432216
 10
2.9626772486
 20
-13.9365254305
 10
2.950536761
 20
-13.9526267342
 10
2.9377830939
 20
-13.9682269401
 10
2.9244336304
 20
-13.9833076035
 10
2.9105057532
 20
-13.9978502796
 10
2.8960169185
 20
-14.0118366096
 10
2.8809848755
 20
-14.0252485778
 10
2.8654274466
 20
-14.0380682548
 10
2.8493624541
 20
-14.0502777109
 10
2.8328099576
 20
-14.0618583795
 10
2.8157989651
 20
-14.0727891468
 10
2.7983607217
 20
-14.0830482619
 10
2.7805264726
 20
-14.0926139738
 10
2.7623282645
 20
-14.1014661323
 10
2.7438013513
 20
-14.109590989
 10
2.7249817883
 20
-14.1169763961
 10
2.7059056309
 20
-14.1236102058
 10
2.6866070511
 20
-14.1294815395
 10
2.6671126878
 20
-14.1345845954
 10
2.6474472962
 20
-14.138914841
 10
2.6276356318
 20
-14.1424677435
 10
2.6077024499
 20
-14.1452387705
 10
2.5876725058
 20
-14.1472233894
 10
2.5675705551
 20
-14.1484170675
 10
2.547421353
 20
-14.1488152723
 10
2.5272514865
 20
-14.1484150775
 10
2.5070948695
 20
-14.1472199817
 10
2.4869872473
 20
-14.1452350899
 10
2.4669643654
 20
-14.1424655071
 10
2.4470619691
 20
-14.1389163381
 10
2.4273158039
 20
-14.1345926881
 10
2.4077616152
 20
-14.1294996618
 10
2.3884351484
 20
-14.1236423643
 10
2.3693702496
 20
-14.1170273249
 10
2.3505931679
 20
-14.1096667701
 10
2.3321282531
 20
-14.1015743508
 10
2.3139998551
 20
-14.0927637179
 10
2.2962323237
 20
-14.0832485223
 10
2.2788500086
 20
-14.0730424149
 10
2.2618772597
 20
-14.0621590466
 10
2.2453384269
 20
-14.0506120683
 10
2.2292582528
 20
-14.0384165103
 10
2.2136630519
 20
-14.0255929209
 10
2.1985795316
 20
-14.0121632276
 10
2.1840343992
 20
-13.998149358
 10
2.1700530845
 20
-13.983573364
 10
2.1566559073
 20
-13.9684577944
 10
2.1438619099
 20
-13.9528253224
 10
2.1316901345
 20
-13.9366986211
 10
2.1201594218
 20
-13.9201009198
 10
2.1092878066
 20
-13.9030576734
 10
2.0990931219
 20
-13.8855948927
 10
2.089593201
 20
-13.8677385889
 10
2.0808055871
 20
-13.8495190169
 10
2.0727466632
 20
-13.830983407
 10
2.0654325224
 20
-13.8121832335
 10
2.0588792579
 20
-13.7931699707
 10
2.0530992057
 20
-13.7739886269
 10
2.048089673
 20
-13.7546583462
 10
2.0438442101
 20
-13.7351918071
 10
2.0403563672
 20
-13.7156016877
 10
2.0376229882
 20
-13.6958878696
 10
2.0356540922
 20
-13.6759990473
 10
2.0344629918
 20
-13.6558711187
 10
2.034063
 20
-13.6354399817
  0
LINE
  5
2B3
100
AcDbEntity
  8
RACCORDO
100
AcDbLine
 62
250
  6
CONTINUOUS
 10
-11.0
 20
-21.0123628089
 11
-10.8936520894
 21
-20.8528206899
  0
LINE
  5
2B4
100
AcDbEntity
  8
RACCORDO
100
AcDbLine
 62
250
  6
CONTINUOUS
 10
-10.5001522961
 20
-21.5123057015
 11
-10.3937282419
 21
-21.3526493524
  0
LWPOLYLINE
  5
2B5
100
AcDbEntity
  8
ASSI
100
AcDbPolyline
 62
7
  6
CONTINUOUS
 90
18
 70
0
 10
-5.5837024056
 20
-11.1539389297
 10
-5.481788738
 20
-11.018223782
 10
-5.3749542336
 20
-10.8870123497
 10
-5.2631988924
 20
-10.7603046329
 10
-5.1463321972
 20
-10.6379155563
 10
-5.0245446651
 20
-10.5200301951
 10
-4.8984078484
 20
-10.4072037748
 10
-4.7679029361
 20
-10.2994619853
 10
-4.633048739
 20
-10.1967791366
 10
-4.494473242
 20
-10.0996333848
 10
-4.3521593994
 20
-10.0080507003
 10
-4.2061242567
 20
-9.9220051128
 10
-4.0570469352
 20
-9.8418968667
 10
-3.9049136408
 20
-9.7677536123
 10
-3.7497381675
 20
-9.6995476994
 10
-3.5922410185
 20
-9.6375964218
 10
-3.4324117032
 20
-9.5819286849
 10
-3.2702607122
 20
-9.5325155833
  0
LWPOLYLINE
  5
2B6
100
AcDbEntity
  8
0
100
AcDbPolyline
 62
7
  6
CONTINUOUS
 90
4
 70
0
 43
0.3500000006
 10
21.8928576736
 20
2.266265213
 10
21.2499996872
 20
2.266265213
 10
21.2499996872
 20
3.7662656708
 10
24.2500006027
 20
2.9091231995
  0
LINE
  5
2B7
100
AcDbEntity
  8
RACCORDO
100
AcDbLine
 62
250
  6
CONTINUOUS
 10
-10.8936520894
 20
21.528209287
 11
-11.0
 21
21.687751406
  0
LINE
  5
2B8
100
AcDbEntity
  8
RACCORDO
100
AcDbLine
 62
250
  6
CONTINUOUS
 10
-10.3937282419
 20
22.0280379495
 11
-10.5001522961
 21
22.1876942985
  0
LINE
  5
2B9
100
AcDbEntity
  8
ASSI
100
AcDbLine
 62
7
  6
CONTINUOUS
 10
4.3
 20
-17.5300931773
 11
4.3
 21
-17.3633146004
  0
LWPOLYLINE
  5
2BA
100
AcDbEntity
  8
RACCORDO
100
AcDbPolyline
 62
250
  6
CONTINUOUS
 90
8
 70
0
 10
10.8936520894
 20
-20.8528206899
 10
10.8929191845
 20
-20.8499085773
 10
10.892202021
 20
-20.8436487515
 10
10.8915005989
 20
-20.8340412127
 10
10.8908099698
 20
-20.8209705032
 10
10.8901350821
 20
-20.8045520806
 10
10.8894907817
 20
-20.7851323177
 10
10.8888780229
 20
-20.7626519327
  0
LWPOLYLINE
  5
2BB
100
AcDbEntity
  8
RACCORDO
100
AcDbPolyline
 62
250
  6
CONTINUOUS
 90
5
 70
0
 10
10.3937282419
 20
-21.3526493524
 10
10.3929931085
 20
-21.3469826558
 10
10.3922744908
 20
-21.3343879669
 10
10.391572389
 20
-21.314952004
 10
10.3908821259
 20
-21.2888075229
  0
LWPOLYLINE
  5
2BC
100
AcDbEntity
  8
0
100
AcDbPolyline
 62
7
  6
CONTINUOUS
 90
3
 70
0
 43
0.3500000006
 10
23.964284935
 20
1.2662649078
 10
24.1785716858
 20
1.1948382568
 10
24.4642850876
 20
1.051980423
  0
LINE
  5
2BD
100
AcDbEntity
  8
RACCORDO
100
AcDbLine
 62
250
  6
CONTINUOUS
 10
10.8888780229
 20
-20.7626519327
 11
10.8877562501
 21
-20.709211359
  0
LINE
  5
2BE
100
AcDbEntity
  8
RACCORDO
100
AcDbLine
 62
250
  6
CONTINUOUS
 10
10.3908821259
 20
-21.2888075229
 11
10.3895651778
 21
-21.2171735052
  0
LINE
  5
2BF
100
AcDbEntity
  8
RACCORDO
100
AcDbLine
 62
250
  6
CONTINUOUS
 10
10.8877562501
 20
-20.709211359
 11
10.8868065059
 21
-20.6457577726
  0
LINE
  5
2C0
100
AcDbEntity
  8
RACCORDO
100
AcDbLine
 62
250
  6
CONTINUOUS
 10
10.3895651778
 20
-21.2171735052
 11
10.387832885
 21
-21.0654845913
  0
LINE
  5
2C1
100
AcDbEntity
  8
RACCORDO
100
AcDbLine
 62
250
  6
CONTINUOUS
 10
10.8868065059
 20
-20.6457577726
 11
10.8857594143
 21
-20.5359720383
  0
LINE
  5
2C2
100
AcDbEntity
  8
RACCORDO
100
AcDbLine
 62
250
  6
CONTINUOUS
 10
10.387832885
 20
-21.0654845913
 11
10.3858374806
 21
-20.7197475027
  0
LINE
  5
2C3
100
AcDbEntity
  8
RACCORDO
100
AcDbLine
 62
250
  6
CONTINUOUS
 10
10.8857594143
 20
-20.5359720383
 11
10.885222445
 21
-20.4156339001
  0
LINE
  5
2C4
100
AcDbEntity
  8
RACCORDO
100
AcDbLine
 62
250
  6
CONTINUOUS
 10
10.3858374806
 20
-20.7197475027
 11
10.3800527521
 21
-11.1824504293
  0
LINE
  5
2C5
100
AcDbEntity
  8
RACCORDO
100
AcDbLine
 62
250
  6
CONTINUOUS
 10
10.885222445
 20
-20.4156339001
 11
10.8799766027
 21
-11.1704259972
  0
LINE
  5
2C6
100
AcDbEntity
  8
RACCORDO
100
AcDbLine
 62
250
  6
CONTINUOUS
 10
10.3800527521
 20
-11.1824504293
 11
10.3778310707
 21
-1.9665303392
  0
LINE
  5
2C7
100
AcDbEntity
  8
RACCORDO
100
AcDbLine
 62
250
  6
CONTINUOUS
 10
10.8799766027
 20
-11.1704259972
 11
10.8777549231
 21
-1.9643622113
  0
LINE
  5
2C8
100
AcDbEntity
  8
RACCORDO
100
AcDbLine
 62
7
  6
CONTINUOUS
 10
11.0
 20
-21.0123628089
 11
11.0
 21
21.687751406
  0
LINE
  5
2C9
100
AcDbEntity
  8
RACCORDO
100
AcDbLine
 62
250
  6
CONTINUOUS
 10
10.3778310707
 20
-1.9665303392
 11
10.3785716311
 21
7.2501725336
  0
LINE
  5
2CA
100
AcDbEntity
  8
RACCORDO
100
AcDbLine
 62
250
  6
CONTINUOUS
 10
10.8777549231
 20
-1.9643622113
 11
10.8784954838
 21
7.2432814593
  0
LINE
  5
2CB
100
AcDbEntity
  8
RACCORDO
100
AcDbLine
 62
250
  6
CONTINUOUS
 10
10.3785716311
 20
7.2501725336
 11
10.3822744335
 21
16.4645269377
  0
LINE
  5
2CC
100
AcDbEntity
  8
RACCORDO
100
AcDbLine
 62
250
  6
CONTINUOUS
 10
10.8784954838
 20
7.2432814593
 11
10.8821982835
 21
16.4477621325
  0
LINE
  5
2CD
100
AcDbEntity
  8
RACCORDO
100
AcDbLine
 62
250
  6
CONTINUOUS
 10
10.8821982835
 20
16.4477621325
 11
10.8855208484
 21
21.1720046977
  0
LINE
  5
2CE
100
AcDbEntity
  8
RACCORDO
100
AcDbLine
 62
250
  6
CONTINUOUS
 10
10.3822744335
 20
16.4645269377
 11
10.3864828778
 21
21.5447046725
  0
LINE
  5
2CF
100
AcDbEntity
  8
RACCORDO
100
AcDbLine
 62
250
  6
CONTINUOUS
 10
10.3864828778
 20
21.5447046725
 11
10.3883718163
 21
21.7969066708
  0
LINE
  5
2D0
100
AcDbEntity
  8
RACCORDO
100
AcDbLine
 62
250
  6
CONTINUOUS
 10
10.8855208484
 20
21.1720046977
 11
10.8864048518
 21
21.28638489
  0
LINE
  5
2D1
100
AcDbEntity
  8
RACCORDO
100
AcDbLine
 62
250
  6
CONTINUOUS
 10
10.3883718163
 20
21.7969066708
 11
10.3895651778
 21
21.8925621023
  0
LINE
  5
2D2
100
AcDbEntity
  8
RACCORDO
100
AcDbLine
 62
250
  6
CONTINUOUS
 10
10.8864048518
 20
21.28638489
 11
10.8872600928
 21
21.3541117245
  0
LWPOLYLINE
  5
2D3
100
AcDbEntity
  8
RACCORDO
100
AcDbPolyline
 62
250
  6
CONTINUOUS
 90
10
 70
0
 10
10.8872600928
 20
21.3541117245
 10
10.8882958513
 20
21.4125588044
 10
10.8888780229
 20
21.4380405297
 10
10.8894907817
 20
21.4605209146
 10
10.8901350821
 20
21.4799406776
 10
10.8908099698
 20
21.4963591004
 10
10.8915005989
 20
21.50942981
 10
10.892202021
 20
21.5190373488
 10
10.8929191845
 20
21.5252971745
 10
10.8936520894
 20
21.528209287
  0
LWPOLYLINE
  5
2D4
100
AcDbEntity
  8
RACCORDO
100
AcDbPolyline
 62
250
  6
CONTINUOUS
 90
6
 70
0
 10
10.3895651778
 20
21.8925621023
 10
10.3908821259
 20
21.96419612
 10
10.391572389
 20
21.9903406011
 10
10.3922744909
 20
22.009776564
 10
10.3929931085
 20
22.0223712528
 10
10.3937282419
 20
22.0280379495
  0
LINE
  5
2D5
100
AcDbEntity
  8
0
100
AcDbLine
 62
7
  6
CONTINUOUS
 10
6.0776889484
 20
-11.6593911252
 11
6.0755422675
 21
-11.6629148744
  0
LWPOLYLINE
  5
2D6
100
AcDbEntity
  8
0
100
AcDbPolyline
 62
7
  6
CONTINUOUS
 90
3
 70
0
 10
-5.95863165
 20
-15.6353012952
 10
-5.9363835408
 20
-15.6201384043
 10
-5.9220469679
 20
-15.6073391899
  0
LWPOLYLINE
  5
2D7
100
AcDbEntity
  8
0
100
AcDbPolyline
 62
7
  6
CONTINUOUS
 90
10
 70
0
 43
0.3500000006
 10
23.7500004501
 20
1.1948382568
 10
23.8928560181
 20
1.2662649078
 10
23.964284935
 20
1.2662649078
 10
24.1071427689
 20
1.1234093399
 10
24.1071427689
 20
1.051980423
 10
24.0357138519
 20
0.980551506
 10
23.964284935
 20
0.980551506
 10
23.8214293671
 20
1.051980423
 10
23.7500004501
 20
1.1234093399
 10
23.7500004501
 20
1.1948382568
  0
LWPOLYLINE
  5
2D8
100
AcDbEntity
  8
ASSI
100
AcDbPolyline
 62
7
  6
CONTINUOUS
 90
15
 70
0
 10
5.9746076909
 20
-15.5048484798
 10
6.0769359096
 20
-15.2720405105
 10
6.1657831883
 20
-15.0325702545
 10
6.2400481366
 20
-14.7895566802
 10
6.2994731983
 20
-14.5434675024
 10
6.3443159297
 20
-14.2938350062
 10
6.3742476086
 20
-14.042375016
 10
6.389158661
 20
-13.7884411439
 10
6.389158661
 20
-13.5326797778
 10
6.3742476086
 20
-13.2787459057
 10
6.3443159297
 20
-13.0272859155
 10
6.2994731983
 20
-12.7776534193
 10
6.2400481366
 20
-12.5315642414
 10
6.1657831883
 20
-12.2885506671
 10
6.0769359096
 20
-12.0490804111
  0
LINE
  5
2D9
100
AcDbEntity
  8
ASSI
100
AcDbLine
 62
7
  6
CONTINUOUS
 10
5.8591656623
 20
-15.7299545061
 11
5.9746076909
 21
-15.5048484798
  0
LWPOLYLINE
  5
2DA
100
AcDbEntity
  8
0
100
AcDbPolyline
 62
7
  6
CONTINUOUS
 90
3
 70
0
 10
5.9591602986
 20
-11.6905224182
 10
5.9369077941
 20
-11.7056802505
 10
5.9196059812
 20
-11.7211166274
  0
LINE
  5
2DB
100
AcDbEntity
  8
0
100
AcDbLine
 62
7
  6
CONTINUOUS
 10
5.9827496019
 20
-11.6785909635
 11
5.9591602986
 21
-11.6905224182
  0
LWPOLYLINE
  5
2DC
100
AcDbEntity
  8
ASSI
100
AcDbPolyline
 62
7
  6
CONTINUOUS
 90
3
 70
0
 10
5.5878387851
 20
-16.1601796987
 10
5.7302426937
 20
-15.9483982458
 10
5.8591656623
 20
-15.7299545061
  0
LINE
  5
2DD
100
AcDbEntity
  8
0
100
AcDbLine
 62
7
  6
CONTINUOUS
 10
5.6118321012
 20
-16.3953507602
 11
5.7813720268
 21
-16.1623057015
  0
LWPOLYLINE
  5
2DE
100
AcDbEntity
  8
ASSI
100
AcDbPolyline
 62
7
  6
CONTINUOUS
 90
10
 70
0
 10
5.5668955529
 20
-16.2126435712
 10
5.4502397596
 20
-16.364408268
 10
5.326943622
 20
-16.5108310972
 10
5.1972515193
 20
-16.6516218414
 10
5.0614205079
 20
-16.7865014462
 10
4.9197198117
 20
-16.9152025736
 10
4.7724302882
 20
-17.0374701317
 10
4.6198438724
 20
-17.1530617803
 10
4.4622629986
 20
-17.2617484106
 10
4.3
 20
-17.3633146004
  0
LWPOLYLINE
  5
2DF
100
AcDbEntity
  8
ASSI
100
AcDbPolyline
 62
7
  6
CONTINUOUS
 90
10
 70
0
 10
4.3
 20
-17.3633146004
 10
4.0743041399
 20
-17.488515935
 10
3.8432552113
 20
-17.5994124297
 10
3.6068532142
 20
-17.6960040843
 10
3.3642203011
 20
-17.7785324034
 10
3.1162343195
 20
-17.8467558825
 10
2.8655288116
 20
-17.8999500083
 10
2.6129816248
 20
-17.9378732765
 10
2.3577149117
 20
-17.9607671915
 10
2.0997286723
 20
-17.9686317532
  0
LWPOLYLINE
  5
2E0
100
AcDbEntity
  8
0
100
AcDbPolyline
 62
7
  6
CONTINUOUS
 90
5
 70
0
 43
0.3500000006
 10
22.5357133942
 20
-0.7337334366
 10
22.3214289093
 20
-0.3765911179
 10
21.6785709229
 20
-0.3765911179
 10
21.2499996872
 20
-0.7337334366
 10
21.2499996872
 20
-1.5908770409
  0
LINE
  5
2E1
100
AcDbEntity
  8
RACCORDO
100
AcDbLine
 62
250
  6
CONTINUOUS
 10
-10.4880540461
 20
21.0693268882
 11
-10.3852366754
 21
21.0698443193
  0
LINE
  5
2E2
100
AcDbEntity
  8
RACCORDO
100
AcDbLine
 62
250
  6
CONTINUOUS
 10
-10.3937282419
 20
22.0280379495
 11
10.3937282419
 21
22.0280379495
  0
LINE
  5
2E3
100
AcDbEntity
  8
RACCORDO
100
AcDbLine
 62
7
  6
CONTINUOUS
 10
-10.5001522961
 20
22.1876942985
 11
10.5001522961
 21
22.1876942985
  0
LWPOLYLINE
  5
2E4
100
AcDbEntity
  8
RACCORDO
100
AcDbPolyline
 62
250
  6
CONTINUOUS
 90
16
 70
0
 10
-10.3852366754
 20
21.0698449258
 10
10.436921925
 20
21.0696955102
 10
10.4880534129
 20
21.0693265359
 10
10.5380833079
 20
21.0687409829
 10
10.5864755814
 20
21.067945125
 10
10.6327117508
 20
21.0669474892
 10
10.6762964342
 20
21.0657587645
 10
10.7167626581
 20
21.064391687
 10
10.7536768609
 20
21.0628609038
 10
10.7866435376
 20
21.0611828161
 10
10.815309478
 20
21.0593754032
 10
10.8393675505
 20
21.05745803
 10
10.8585599929
 20
21.0554512395
 10
10.8726811743
 20
21.0533765328
 10
10.881579798
 20
21.0512561386
 10
10.8851605228
 20
21.0491127752
  0
LWPOLYLINE
  5
2E5
100
AcDbEntity
  8
RACCORDO
100
AcDbPolyline
 62
250
  6
CONTINUOUS
 90
16
 70
0
 10
10.3937282419
 20
22.0280379495
 10
10.4459693763
 20
22.0252775649
 10
10.4976384784
 20
22.0170743608
 10
10.5481697798
 20
22.0035181608
 10
10.5970099706
 20
21.9847574032
 10
10.6436242584
 20
21.9609975155
 10
10.687502224
 20
21.9324986646
 10
10.7281634105
 20
21.8995729086
 10
10.7651625845
 20
21.8625807791
 10
10.7980946108
 20
21.8219273344
 10
10.8265988888
 20
21.7780577232
 10
10.8503633012
 20
21.7314523108
 10
10.8691276314
 20
21.6826214192
 10
10.8826864129
 20
21.632099739
 10
10.8908911792
 20
21.5804404747
 10
10.8936520894
 20
21.528209287
  0
LWPOLYLINE
  5
2E6
100
AcDbEntity
  8
0
100
AcDbPolyline
 62
7
  6
CONTINUOUS
 90
3
 70
0
 43
0.3500000006
 10
23.6071426163
 20
-2.4480195122
 10
23.6071426163
 20
-3.9480199699
 10
21.2499996872
 20
-3.3051631165
  0
LWPOLYLINE
  5
2E7
100
AcDbEntity
  8
0
100
AcDbPolyline
 62
7
  6
CONTINUOUS
 90
6
 70
0
 43
0.3500000006
 10
24.2500006027
 20
-1.5908770409
 10
24.2500006027
 20
-0.5194489517
 10
24.0357138519
 20
-0.3051622009
 10
22.9642846298
 20
-0.3051622009
 10
22.5357133942
 20
-0.7337334366
 10
22.5357133942
 20
-1.1623046722
  0
LWPOLYLINE
  5
2E8
100
AcDbEntity
  8
0
100
AcDbPolyline
 62
7
  6
CONTINUOUS
 90
7
 70
0
 43
0.3500000006
 10
1.5000000329
 20
34.2590104065
 10
-0.0
 20
34.2590104065
 10
1.5000000329
 20
36.4018688507
 10
1.5000000329
 20
36.8304378204
 10
1.0714285848
 20
37.259011322
 10
0.4285714127
 20
37.259011322
 10
-0.0
 20
36.6161533356
  0
LWPOLYLINE
  5
2E9
100
AcDbEntity
  8
0
100
AcDbPolyline
 62
7
  6
CONTINUOUS
 90
7
 70
0
 43
0.3500000006
 10
-0.8571428254
 20
34.2590104065
 10
-2.3571427875
 20
34.2590104065
 10
-0.8571428254
 20
36.4018688507
 10
-0.8571428254
 20
36.8304378204
 10
-1.2857142735
 20
37.259011322
 10
-1.9285714102
 20
37.259011322
 10
-2.3571427875
 20
36.6161533356
  0
LWPOLYLINE
  5
2EA
100
AcDbEntity
  8
0
100
AcDbPolyline
 62
7
  6
CONTINUOUS
 90
3
 70
0
 43
0.3500000006
 10
-33.2950137863
 20
44.4018667603
 10
-32.437871315
 20
45.2590092316
 10
-32.437871315
 20
42.259008316
  0
LWPOLYLINE
  5
2EB
100
AcDbEntity
  8
0
100
AcDbPolyline
 62
7
  6
CONTINUOUS
 90
3
 70
0
 43
0.3500000006
 10
-31.5807288437
 20
44.4018667603
 10
-30.7235863724
 20
45.2590092316
 10
-30.7235863724
 20
42.259008316
  0
LINE
  5
2EC
100
AcDbEntity
  8
RACCORDO
100
AcDbLine
 62
7
  6
CONTINUOUS
 10
-27.9021575491
 20
-21.5123057015
 11
-33.9991875358
 21
-21.3526493524
  0
LINE
  5
2ED
100
AcDbEntity
  8
RACCORDO
100
AcDbLine
 62
250
  6
CONTINUOUS
 10
-34.9721505652
 20
-20.3944563284
 11
-34.9694757915
 21
-20.3943078849
  0
LINE
  5
2EE
100
AcDbEntity
  8
RACCORDO
100
AcDbLine
 62
250
  6
CONTINUOUS
 10
-34.9694757915
 20
-20.3943078849
 11
-34.4813067837
 21
-20.3737241781
  0
LINE
  5
2EF
100
AcDbEntity
  8
RACCORDO
100
AcDbLine
 62
250
  6
CONTINUOUS
 10
-27.9021575491
 20
-21.0123628089
 11
-33.9948252648
 21
-20.8528206899
  0
LWPOLYLINE
  5
2F0
100
AcDbEntity
  8
RACCORDO
100
AcDbPolyline
 62
250
  6
CONTINUOUS
 90
19
 70
0
 10
-33.9948252648
 20
-20.8528206899
 10
-34.0368133627
 20
-20.8499085773
 10
-34.077899632
 20
-20.8436487515
 10
-34.1180840727
 20
-20.8340412127
 10
-34.1576501898
 20
-20.8209705032
 10
-34.1963144784
 20
-20.8045520806
 10
-34.2332264228
 20
-20.7851323177
 10
-34.2683313551
 20
-20.7626519327
 10
-34.3016839434
 20
-20.7371702074
 10
-34.3325976761
 20
-20.709211359
 10
-34.3610225064
 20
-20.6787231273
 10
-34.3870084813
 20
-20.6457577726
 10
-34.4100192302
 20
-20.6109962928
 10
-34.4299953871
 20
-20.5743822281
 10
-34.446996318
 20
-20.5359720383
 10
-34.4606637504
 20
-20.4966161007
 10
-34.4708782601
 20
-20.4565978743
 10
-34.4777592711
 20
-20.4156339001
 10
-34.4813067837
 20
-20.3737241781
  0
LWPOLYLINE
  5
2F1
100
AcDbEntity
  8
0
100
AcDbPolyline
 62
7
  6
CONTINUOUS
 90
3
 70
0
 43
0.3500000006
 10
-29.1521569977
 20
42.5447239838
 10
-29.2235859146
 20
42.3304394989
 10
-29.3664437485
 20
42.0447238312
  0
LWPOLYLINE
  5
2F2
100
AcDbEntity
  8
0
100
AcDbPolyline
 62
7
  6
CONTINUOUS
 90
3
 70
0
 43
0.3500000006
 10
-31.6878710861
 20
34.5447260742
 10
-31.7593000031
 20
34.3304370575
 10
-31.9021578369
 20
34.0447259216
  0
LWPOLYLINE
  5
2F3
100
AcDbEntity
  8
RACCORDO
100
AcDbPolyline
 62
250
  6
CONTINUOUS
 90
8
 70
0
 10
-33.9991875358
 20
22.0280379495
 10
-34.0000271254
 20
22.0252775649
 10
-34.0007142049
 20
22.0170743608
 10
-34.0012412506
 20
22.0035181608
 10
-34.0016024916
 20
21.9847574032
 10
-34.0017939723
 20
21.9609975155
 10
-34.0018135962
 20
21.9324986646
 10
-34.0013382983
 20
21.8625807791
  0
LWPOLYLINE
  5
2F4
100
AcDbEntity
  8
RACCORDO
100
AcDbPolyline
 62
250
  6
CONTINUOUS
 90
7
 70
0
 10
-33.9991875358
 20
-21.3526493524
 10
-34.0000271305
 20
-21.3498888634
 10
-34.0007142089
 20
-21.3416853717
 10
-34.0012412481
 20
-21.3281287413
 10
-34.001602478
 20
-21.3093674469
 10
-34.0017939438
 20
-21.2856069625
 10
-34.0018135509
 20
-21.2571075246
  0
LINE
  5
2F5
100
AcDbEntity
  8
0
100
AcDbLine
 62
7
  6
CONTINUOUS
 10
-27.9021575491
 20
-7.6553215476
 11
-24.8672580524
 21
-7.5493405218
  0
LWPOLYLINE
  5
2F6
100
AcDbEntity
  8
RACCORDO
100
AcDbPolyline
 62
250
  6
CONTINUOUS
 90
19
 70
0
 10
-34.4813067837
 20
21.0491127752
 10
-34.477759271
 20
21.0910224972
 10
-34.4708782599
 20
21.1319864714
 10
-34.4606637502
 20
21.1720046977
 10
-34.4469963179
 20
21.2113606354
 10
-34.4299953871
 20
21.2497708252
 10
-34.4100192303
 20
21.28638489
 10
-34.3870084814
 20
21.3211463698
 10
-34.3610225065
 20
21.3541117245
 10
-34.3325976761
 20
21.3845999561
 10
-34.3016839433
 20
21.4125588044
 10
-34.268331355
 20
21.4380405297
 10
-34.2332264227
 20
21.4605209146
 10
-34.1963144783
 20
21.4799406776
 10
-34.1576501899
 20
21.4963591004
 10
-34.1180840727
 20
21.50942981
 10
-34.0778996321
 20
21.5190373488
 10
-34.0368133628
 20
21.5252971745
 10
-33.9948252648
 20
21.528209287
  0
LINE
  5
2F7
100
AcDbEntity
  8
0
100
AcDbLine
 62
250
  6
CONTINUOUS
 10
-23.9021575491
 20
-5.9618183631
 11
-27.9021575491
 21
-6.101501441
  0
LINE
  5
2F8
100
AcDbEntity
  8
0
100
AcDbLine
 62
7
  6
CONTINUOUS
 10
-27.9021575491
 20
-5.3019887794
 11
-23.9021575491
 21
-5.1623057015
  0
LWPOLYLINE
  5
2F9
100
AcDbEntity
  8
RACCORDO
100
AcDbPolyline
 62
250
  6
CONTINUOUS
 90
10
 70
0
 10
-34.4813067837
 20
-20.3737241781
 10
-34.6510134121
 20
-15.7723713833
 10
-34.7782933781
 20
-11.1704259972
 10
-34.8631466817
 20
-6.5678880199
 10
-34.905573316
 20
-1.9643622113
 10
-34.9055732878
 20
2.6397561886
 10
-34.8631466184
 20
7.2432814593
 10
-34.7782933148
 20
11.8458183605
 10
-34.6510133699
 20
16.4477621325
 10
-34.4813067837
 20
21.0491127752
  0
LINE
  5
2FA
100
AcDbEntity
  8
RACCORDO
100
AcDbLine
 62
7
  6
CONTINUOUS
 10
-35.0679108723
 20
-17.9416644412
 11
-35.0695856047
 21
-17.895828135
  0
LINE
  5
2FB
100
AcDbEntity
  8
CURVE
100
AcDbLine
 62
250
  6
CONTINUOUS
 10
-35.1591940003
 20
-15.7314539601
 11
-35.1908466261
 21
-14.7148963104
  0
LINE
  5
2FC
100
AcDbEntity
  8
CURVE
100
AcDbLine
 62
250
  6
CONTINUOUS
 10
-35.1905512361
 20
-14.7249492067
 11
-35.2186014413
 21
-13.7156016877
  0
LINE
  5
2FD
100
AcDbEntity
  8
CURVE
100
AcDbLine
 62
250
  6
CONTINUOUS
 10
-35.2184962572
 20
-13.7196228776
 11
-35.2433311177
 21
-12.7028588816
  0
LINE
  5
2FE
100
AcDbEntity
  8
CURVE
100
AcDbLine
 62
250
  6
CONTINUOUS
 10
-35.2413352569
 20
-12.7901088115
 11
-35.265378312
 21
-11.6518754776
  0
LINE
  5
2FF
100
AcDbEntity
  8
CURVE
100
AcDbLine
 62
250
  6
CONTINUOUS
 10
-35.2676610713
 20
-11.5318772244
 11
-35.2647184868
 21
-11.6860894167
  0
LWPOLYLINE
  5
300
100
AcDbEntity
  8
0
100
AcDbPolyline
 62
7
  6
CONTINUOUS
 90
4
 70
0
 43
0.3500000006
 10
-34.7593009186
 20
36.6161533356
 10
-34.7593009186
 20
37.259011322
 10
-33.2593004608
 20
37.259011322
 10
-34.1164429321
 20
34.2590104065
  0
LINE
  5
301
100
AcDbEntity
  8
0
100
AcDbLine
 62
7
  6
CONTINUOUS
 10
-27.9021575491
 20
-4.4166275009
 11
-24.2537324661
 21
-4.4357307845
  0
LINE
  5
302
100
AcDbEntity
  8
RACCORDO
100
AcDbLine
 62
250
  6
CONTINUOUS
 10
-33.9984406129
 20
21.6826214192
 11
-33.9948252648
 21
21.528209287
  0
LINE
  5
303
100
AcDbEntity
  8
RACCORDO
100
AcDbLine
 62
250
  6
CONTINUOUS
 10
-34.0001973586
 20
21.7780577232
 11
-33.9984406129
 21
21.6826214192
  0
LINE
  5
304
100
AcDbEntity
  8
RACCORDO
100
AcDbLine
 62
250
  6
CONTINUOUS
 10
-34.0013382983
 20
21.8625807791
 11
-34.0001973586
 21
21.7780577232
  0
LINE
  5
305
100
AcDbEntity
  8
RACCORDO
100
AcDbLine
 62
250
  6
CONTINUOUS
 10
-34.0018135509
 20
-21.2571075246
 11
-34.0013382202
 21
-21.1871887056
  0
LINE
  5
306
100
AcDbEntity
  8
RACCORDO
100
AcDbLine
 62
250
  6
CONTINUOUS
 10
-34.0013382202
 20
-21.1871887056
 11
-34.0001972612
 21
-21.1026653925
  0
LINE
  5
307
100
AcDbEntity
  8
RACCORDO
100
AcDbLine
 62
250
  6
CONTINUOUS
 10
-34.0001972612
 20
-21.1026653925
 11
-33.9973542553
 21
-20.9567088725
  0
LINE
  5
308
100
AcDbEntity
  8
RACCORDO
100
AcDbLine
 62
250
  6
CONTINUOUS
 10
-33.9973542553
 20
-20.9567088725
 11
-33.9948252648
 21
-20.8528206899
  0
LINE
  5
309
100
AcDbEntity
  8
0
100
AcDbLine
 62
7
  6
CONTINUOUS
 10
-24.2537324661
 20
5.1111193816
 11
-23.9021575491
 21
5.4626942985
  0
LINE
  5
30A
100
AcDbEntity
  8
RACCORDO
100
AcDbLine
 62
7
  6
CONTINUOUS
 10
-27.9021575491
 20
-21.5123057015
 11
-27.9021575491
 21
22.1876942985
  0
LINE
  5
30B
100
AcDbEntity
  8
0
100
AcDbLine
 62
7
  6
CONTINUOUS
 10
-23.9021575491
 20
-4.7873057015
 11
-24.2537324661
 21
-4.4357307845
  0
LINE
  5
30C
100
AcDbEntity
  8
0
100
AcDbLine
 62
7
  6
CONTINUOUS
 10
-27.9021575491
 20
5.0920160979
 11
-24.2537324661
 21
5.1111193816
  0
LINE
  5
30D
100
AcDbEntity
  8
0
100
AcDbLine
 62
7
  6
CONTINUOUS
 10
-27.9021575491
 20
5.9773773765
 11
-23.9021575491
 21
5.8376942985
  0
LINE
  5
30E
100
AcDbEntity
  8
0
100
AcDbLine
 62
7
  6
CONTINUOUS
 10
-23.9021575491
 20
7.2253382919
 11
-23.9021575491
 21
5.4626942985
  0
LINE
  5
30F
100
AcDbEntity
  8
0
100
AcDbLine
 62
7
  6
CONTINUOUS
 10
-23.9021575491
 20
-4.7873057015
 11
-23.9021575491
 21
-5.1623057015
  0
LINE
  5
310
100
AcDbEntity
  8
0
100
AcDbLine
 62
7
  6
CONTINUOUS
 10
-23.9021575491
 20
-5.1774026676
 11
-23.9021575491
 21
-6.5499496948
  0
LINE
  5
311
100
AcDbEntity
  8
0
100
AcDbLine
 62
250
  6
CONTINUOUS
 10
-27.9021575491
 20
6.7768900381
 11
-23.9021575491
 21
6.6372069602
  0
LINE
  5
312
100
AcDbEntity
  8
0
100
AcDbLine
 62
7
  6
CONTINUOUS
 10
-27.9021575491
 20
8.3307101446
 11
-24.8672580524
 21
8.2247291189
  0
LWPOLYLINE
  5
313
100
AcDbEntity
  8
0
100
AcDbPolyline
 62
7
  6
CONTINUOUS
 90
10
 70
0
 43
0.3500000006
 10
-31.7593000031
 20
34.7590105591
 10
-31.6878710861
 20
34.6161527252
 10
-31.6878710861
 20
34.5447260742
 10
-31.83072892
 20
34.4018682404
 10
-31.9021578369
 20
34.4018682404
 10
-31.9735867538
 20
34.4732948914
 10
-31.9735867538
 20
34.5447260742
 10
-31.9021578369
 20
34.6875793762
 10
-31.83072892
 20
34.7590105591
 10
-31.7593000031
 20
34.7590105591
  0
LINE
  5
314
100
AcDbEntity
  8
RACCORDO
100
AcDbLine
 62
250
  6
CONTINUOUS
 10
-33.9948252648
 20
21.528209287
 11
-27.9021575491
 21
21.687751406
  0
LWPOLYLINE
  5
315
100
AcDbEntity
  8
RACCORDO
100
AcDbPolyline
 62
250
  6
CONTINUOUS
 90
3
 70
0
 10
-34.9721270992
 20
21.0698439526
 10
-34.9694525299
 20
21.0696955102
 10
-34.4813067837
 20
21.0491127752
  0
LWPOLYLINE
  5
316
100
AcDbEntity
  8
0
100
AcDbPolyline
 62
7
  6
CONTINUOUS
 90
10
 70
0
 43
0.3500000006
 10
-29.2235859146
 20
42.7590084686
 10
-29.1521569977
 20
42.6161506348
 10
-29.1521569977
 20
42.5447239838
 10
-29.2950148315
 20
42.4018661499
 10
-29.3664437485
 20
42.4018661499
 10
-29.4378726654
 20
42.4732973328
 10
-29.4378726654
 20
42.5447239838
 10
-29.3664437485
 20
42.6875818176
 10
-29.2950148315
 20
42.7590084686
 10
-29.2235859146
 20
42.7590084686
  0
LINE
  5
317
100
AcDbEntity
  8
RACCORDO
100
AcDbLine
 62
7
  6
CONTINUOUS
 10
-33.9991875358
 20
22.0280379495
 11
-27.9021575491
 21
22.1876942985
  0
LWPOLYLINE
  5
318
100
AcDbEntity
  8
0
100
AcDbPolyline
 62
7
  6
CONTINUOUS
 90
8
 70
0
 43
0.3500000006
 10
-30.6878707809
 20
34.2590104065
 10
-29.8307283096
 20
34.2590104065
 10
-29.402157074
 20
34.6875793762
 10
-29.402157074
 20
35.5447263794
 10
-29.8307283096
 20
35.9732953491
 10
-30.6878707809
 20
35.9732953491
 10
-30.6878707809
 20
37.259011322
 10
-29.402157074
 20
37.259011322
  0
LWPOLYLINE
  5
319
100
AcDbEntity
  8
0
100
AcDbPolyline
 62
7
  6
CONTINUOUS
 90
8
 70
0
 43
0.3500000006
 10
-28.1521566925
 20
42.259008316
 10
-27.2950142212
 20
42.259008316
 10
-26.8664429855
 20
42.6875818176
 10
-26.8664429855
 20
43.5447242889
 10
-27.2950142212
 20
43.9732977905
 10
-28.1521566925
 20
43.9732977905
 10
-28.1521566925
 20
45.2590092316
 10
-26.8664429855
 20
45.2590092316
  0
ARC
  5
31A
100
AcDbEntity
  8
0
100
AcDbCircle
 62
7
  6
CONTINUOUS
 10
464.5978424509
 20
0.3376942985
 40
500.0
100
AcDbArc
 50
181.0703160441
 51
182.1391365706
  0
ARC
  5
31B
100
AcDbEntity
  8
RACCORDO
100
AcDbCircle
 62
7
  6
CONTINUOUS
 10
464.5978424509
 20
0.3376942985
 40
500.0
100
AcDbArc
 50
177.6235892498
 51
182.3764107502
  0
ARC
  5
31C
100
AcDbEntity
  8
ASSI
100
AcDbCircle
 62
7
  6
CONTINUOUS
 10
264.7791769711
 20
-5.8834278095
 40
300.1
100
AcDbArc
 50
180.86264661
 51
182.2838944955
  0
ARC
  5
31D
100
AcDbEntity
  8
RACCORDO
100
AcDbCircle
 62
7
  6
CONTINUOUS
 10
-33.9730105874
 20
21.0283806245
 40
1.0
100
AcDbArc
 50
91.5
 51
177.6235892498
  0
ARC
  5
31E
100
AcDbEntity
  8
RACCORDO
100
AcDbCircle
 62
7
  6
CONTINUOUS
 10
-33.9730105874
 20
-20.3529920274
 40
1.0
100
AcDbArc
 50
182.3764107502
 51
268.5
  0
ARC
  5
31F
100
AcDbEntity
  8
0
100
AcDbCircle
 62
7
  6
CONTINUOUS
 10
-24.9021575491
 20
7.2253382919
 40
1.0
100
AcDbArc
 50
0.0
 51
88.0
  0
ARC
  5
320
100
AcDbEntity
  8
0
100
AcDbCircle
 62
7
  6
CONTINUOUS
 10
-24.9021575491
 20
-6.5499496948
 40
1.0
100
AcDbArc
 50
272.0
 51
360.0
  0
ARC
  5
321
100
AcDbEntity
  8
ASSI
100
AcDbCircle
 62
7
  6
CONTINUOUS
 10
-34.9825139635
 20
-17.8387048056
 40
0.1
100
AcDbArc
 50
182.2838944955
 51
208.8338863616
  0
ELLIPSE
  5
322
100
AcDbEntity
  8
ASSI
100
AcDbEllipse
 62
7
  6
CONTINUOUS
 10
2.1
 20
-12.5311547395
 30
0.0
 11
3.8703029023
 21
0.0
 31
0.0
 40
0.8167870176
 41
0.4483125622
 42
0.4507719807
  0
ELLIPSE
  5
323
100
AcDbEntity
  8
ASSI
100
AcDbEllipse
 62
7
  6
CONTINUOUS
 10
2.1
 20
-14.1069464208
 30
0.0
 11
-0.0
 21
4.737004846
 31
0.0
 40
0.8170358757
 41
-2.0314355491
 42
-2.019108889
  0
ELLIPSE
  5
324
100
AcDbEntity
  8
ASSI
100
AcDbEllipse
 62
7
  6
CONTINUOUS
 10
-2.1
 20
-14.1069464208
 30
0.0
 11
0.0
 21
4.737004846
 31
0.0
 40
0.8170358757
 41
-4.2640764182
 42
-4.2517497581
  0
ELLIPSE
  5
325
100
AcDbEntity
  8
ASSI
100
AcDbEllipse
 62
7
  6
CONTINUOUS
 10
-2.1
 20
-12.5311547395
 30
0.0
 11
3.8703029023
 21
0.0
 31
0.0
 40
0.8167870176
 41
2.6908206729
 42
2.6932800914
  0
ELLIPSE
  5
326
100
AcDbEntity
  8
CURVE
100
AcDbEllipse
 62
250
  6
CONTINUOUS
 10
4.7907445822
 20
-5.8834278095
 30
0.0
 11
210.2025866899
 21
300.0950479607
 31
0.0
 40
0.0082016303
 41
-4.6836275534
 42
-4.6808005013
  0
ELLIPSE
  5
327
100
AcDbEntity
  8
CURVE
100
AcDbEllipse
 62
250
  6
CONTINUOUS
 10
-13.4070500233
 20
-5.8834278095
 30
0.0
 11
-210.2016958236
 21
300.095048017
 31
0.0
 40
0.0082016185
 41
-1.6052115978
 42
-1.6023847732
  0
ELLIPSE
  5
328
100
AcDbEntity
  8
RACCORDO
100
AcDbEllipse
 62
7
  6
CONTINUOUS
 10
-10.499923836
 20
21.6875229023
 30
0.0
 11
-0.2774630169
 21
0.416247366
 31
0.0
 40
0.9995051766
 41
-0.5877156075
 42
0.9826238685
  0
ELLIPSE
  5
329
100
AcDbEntity
  8
RACCORDO
100
AcDbEllipse
 62
7
  6
CONTINUOUS
 10
-10.499923836
 20
-21.0121343052
 30
0.0
 11
0.2774630169
 21
0.416247366
 31
0.0
 40
0.9995051766
 41
-4.1242165221
 42
-2.5538770461
  0
ELLIPSE
  5
32A
100
AcDbEntity
  8
RACCORDO
100
AcDbEllipse
 62
7
  6
CONTINUOUS
 10
10.499923836
 20
21.6875229023
 30
0.0
 11
0.2774630169
 21
0.416247366
 31
0.0
 40
0.9995051766
 41
-0.9826238685
 42
0.5877156075
  0
ELLIPSE
  5
32B
100
AcDbEntity
  8
RACCORDO
100
AcDbEllipse
 62
7
  6
CONTINUOUS
 10
10.499923836
 20
-21.0121343052
 30
0.0
 11
-0.2774630169
 21
0.416247366
 31
0.0
 40
0.9995051766
 41
-3.7293082611
 42
-2.1589687851
  0
ELLIPSE
  5
32C
100
AcDbEntity
  8
0
100
AcDbEllipse
 62
7
  6
CONTINUOUS
 10
2.1
 20
-13.6623057015
 30
0.0
 11
-0.0
 21
4.45
 31
0.0
 40
1.0
 41
4.1158316769
 42
5.1783720903
  0
ELLIPSE
  5
32D
100
AcDbEntity
  8
0
100
AcDbEllipse
 62
7
  6
CONTINUOUS
 10
-2.1
 20
-13.6623057015
 30
0.0
 11
-0.0
 21
4.45
 31
0.0
 40
1.0
 41
1.1048132169
 42
2.1673536302
  0
ELLIPSE
  5
32E
100
AcDbEntity
  8
CURVE
100
AcDbEllipse
 62
250
  6
CONTINUOUS
 10
264.7791769711
 20
-5.8834278095
 30
0.0
 11
5.2374671718
 21
300.0542933164
 31
0.0
 40
1.0
 41
1.6142222594
 42
1.6168302631
  0
ELLIPSE
  5
32F
100
AcDbEntity
  8
CURVE
100
AcDbEllipse
 62
250
  6
CONTINUOUS
 10
264.7791769711
 20
-5.8834278095
 30
0.0
 11
5.2374671718
 21
300.0542933164
 31
0.0
 40
1.0
 41
1.6115308618
 42
1.614093302
  0
ENDSEC
  0
SECTION
  2
OBJECTS
  0
DICTIONARY
  5
C
100
AcDbDictionary
280
0
281
1
  3
ACAD_GROUP
350
D
  3
ACAD_MLINESTYLE
350
17
  3
ACAD_LAYOUT
350
1A
  3
ACAD_PLOTSETTINGS
350
19
  3
ACAD_PLOTSTYLENAME
350
E
  0
DICTIONARY
  5
D
102
{ACAD_REACTORS
330
C
102
}
100
AcDbDictionary
280
0
281
1
  0
ACDBDICTIONARYWDFLT
  5
E
102
{ACAD_REACTORS
330
C
102
}
100
AcDbDictionary
281
1
  3
Normal
350
F
100
AcDbDictionaryWithDefault
340
F
  0
DICTIONARY
  5
17
102
{ACAD_REACTORS
330
C
102
}
100
AcDbDictionary
280
0
281
1
  3
Standard
350
18
  0
DICTIONARY
  5
19
102
{ACAD_REACTORS
330
C
102
}
100
AcDbDictionary
281
1
  0
DICTIONARY
  5
1A
102
{ACAD_REACTORS
330
C
102
}
100
AcDbDictionary
281
1
  3
Model
350
330
  3
Layout1
350
331
  0
ACDBPLACEHOLDER
  5
F
102
{ACAD_REACTORS
330
E
102
}
  0
MLINESTYLE
  5
18
102
{ACAD_REACTORS
330
17
102
}
100
AcDbMlineStyle
  2
STANDARD
 70
0
  3

 62
256
 51
90.0
 52
90.0
 71
2
 49
0.5
 62
256
  6
BYLAYER
 49
-0.5
 62
256
  6
BYLAYER
  0
LAYOUT
  5
330
102
{ACAD_REACTORS
330
1A
102
}
100
AcDbPlotSettings
  1

  2
none_device
  4
ISO_A4_(297.00_x_210.00_MM)
  6

 40
0.0
 41
0.0
 42
0.0
 43
0.0
 44
297.0
 45
210.0
 46
0.0
 47
0.0
 48
0.0
 49
0.0
140
0.0
141
0.0
142
1.0
143
1.0
 70
1024
 72
1
 73
0
 74
0
  7

 75
0
147
1.0
148
0.0
149
0.0
100
AcDbLayout
  1
Model
 70
0
 71
0
 10
0.0
 20
0.0
 11
297.0
 21
210.0
 12
0.0
 22
0.0
 32
0.0
 14
0.0
 24
0.0
 34
0.0
 15
0.0
 25
0.0
 35
0.0
146
0.0
 13
0.0
 23
0.0
 33
0.0
 16
1.0
 26
0.0
 36
0.0
 17
0.0
 27
1.0
 37
0.0
 76
0
330
216
345
0
346
0
  0
LAYOUT
  5
331
102
{ACAD_REACTORS
330
1A
102
}
100
AcDbPlotSettings
  1

  2
none_device
  4
ISO_A4_(297.00_x_210.00_MM)
  6

 40
0.0
 41
0.0
 42
0.0
 43
0.0
 44
297.0
 45
210.0
 46
0.0
 47
0.0
 48
0.0
 49
0.0
140
0.0
141
0.0
142
1.0
143
1.0
 70
0
 72
1
 73
0
 74
0
  7

 75
0
147
1.0
148
0.0
149
0.0
100
AcDbLayout
  1
Layout1
 70
0
 71
1
 10
0.0
 20
0.0
 11
297.0
 21
210.0
 12
0.0
 22
0.0
 32
0.0
 14
0.0
 24
0.0
 34
0.0
 15
0.0
 25
0.0
 35
0.0
146
0.0
 13
0.0
 23
0.0
 33
0.0
 16
1.0
 26
0.0
 36
0.0
 17
0.0
 27
1.0
 37
0.0
 76
0
330
217
345
0
346
0
  0
ENDSEC
  0
EOF
