  0
SECTION
  2
HEADER
  9
$ACADVER
  1
AC1024
  9
$DWGCODEPAGE
  3
ANSI_1252
  9
$EXTMAX
 10
297.0
 20
210.0
 30
0.0
  9
$EXTMIN
 10
0.0
 20
0.0
 30
0.0
  9
$LIMMIN
 10
0.0
 20
0.0
  9
$LIMMAX
 10
297.0
 20
210.0
  9
$VIEWCTR
 10
148.5
 20
105.0
  9
$VIEWSIZE
 40
210.0
  9
$CLAYER
  8
0
  9
$LTSCALE
 40
16.335
  9
$CELTYPE
  6
BYLAYER
  9
$DIMSCALE
 40
1.0
  9
$DIMASZ
 40
3.0
  9
$DIMEXO
 40
0.5
  9
$DIMDLI
 40
11.286
  9
$DIMEXE
 40
1.5
  9
$DIMCEN
 40
2.673
  9
$DIMLFAC
 40
1.0
  9
$DIMBLK
  1
_FILLED
  9
$DIMALT
 70
0
  9
$DIMALTF
 40
0.0393700787
  9
$DIMTXT
 40
3.0
  9
$DIMTOL
 70
1
  9
$DIMLIM
 70
0
  9
$DIMTFAC
 40
1.0
  9
$DIMTP
 40
0.01
  9
$DIMTM
 40
0.01
  9
$DIMGAP
 40
0.625
  9
$DIMDSEP
 70
44
  9
$AUNITS
 70
0
  9
$PDMODE
 70
3
  9
$PDSIZE
 40
3.0
  9
$HANDSEED
  5
3B8
  9
$TILEMODE
 70
1
  9
$MEASUREMENT
 70
1
  9
$INSUNITS
 70
4
  0
ENDSEC
  0
SECTION
  2
CLASSES
  0
CLASS
  1
ACDBDICTIONARYWDFLT
  2
AcDbDictionaryWithDefault
  3
AutoCAD 2000
 90
0
 91
1
280
0
281
0
  0
CLASS
  1
ACDBPLACEHOLDER
  2
AcDbPlaceHolder
  3
AutoCAD 2000
 90
0
 91
1
280
0
281
0
  0
CLASS
  1
LAYOUT
  2
AcDbLayout
  3
AutoCAD 2000
 90
0
 91
0
280
0
281
0
  0
ENDSEC
  0
SECTION
  2
TABLES
  0
TABLE
  2
VPORT
  5
8
100
AcDbSymbolTable
 70
2
  0
VPORT
  5
1F4
100
AcDbSymbolTableRecord
100
AcDbViewportTableRecord
  2
*ACTIVE
 70
0
 10
0.0
 20
0.0
 11
1.0
 21
1.0
 12
148.5
 22
105.0
 13
0.0
 23
0.0
 14
1.0
 24
1.0
 15
0.0
 25
0.0
 16
0.0
 26
0.0
 36
1.0
 17
0.0
 27
0.0
 37
0.0
 40
210.0
 41
1.4142857143
 42
50.0
 43
0.0
 44
0.0
 50
0.0
 51
0.0
 71
0
 72
100
 73
1
 74
1
 75
0
 76
0
 77
0
 78
0
  0
ENDTAB
  0
TABLE
  2
LTYPE
  5
5
100
AcDbSymbolTable
 70
6
  0
LTYPE
  5
14
100
AcDbSymbolTableRecord
100
AcDbLinetypeTableRecord
  2
BYBLOCK
 70
0
  3

 72
65
 73
0
 40
0.0
  0
LTYPE
  5
15
100
AcDbSymbolTableRecord
100
AcDbLinetypeTableRecord
  2
BYLAYER
 70
0
  3

 72
65
 73
0
 40
0.0
  0
LTYPE
  5
16
100
AcDbSymbolTableRecord
100
AcDbLinetypeTableRecord
  2
CONTINUOUS
 70
64
  3
Solid line
 72
65
 73
0
 40
0.0
  0
LTYPE
  5
1F5
100
AcDbSymbolTableRecord
100
AcDbLinetypeTableRecord
  2
CENTER
 70
64
  3
____ _ ____ _ ____ _ ____ _ ____ _ ____ _ ____
 72
65
 73
4
 40
0.6
 49
0.375
 74
0
 49
-0.075
 74
0
 49
0.075
 74
0
 49
-0.075
 74
0
  0
LTYPE
  5
1F6
100
AcDbSymbolTableRecord
100
AcDbLinetypeTableRecord
  2
HIDDEN
 70
64
  3
- - - - - - - - - - - - - - - - - - - -
 72
65
 73
2
 40
0.2
 49
0.1
 74
0
 49
-0.1
 74
0
  0
LTYPE
  5
1F7
100
AcDbSymbolTableRecord
100
AcDbLinetypeTableRecord
  2
PHANTOM
 70
64
  3
_____ _ _ _____ _ _ _____ _ _ _____
 72
65
 73
6
 40
0.8
 49
0.45
 74
0
 49
-0.05
 74
0
 49
0.1
 74
0
 49
-0.05
 74
0
 49
0.1
 74
0
 49
-0.05
 74
0
  0
LTYPE
  5
1F8
100
AcDbSymbolTableRecord
100
AcDbLinetypeTableRecord
  2
DOT
 70
64
  3
. . . . . . . . . . . . . . . . . . . .
 72
65
 73
2
 40
0.2
 49
0.1
 74
0
 49
-0.1
 74
0
  0
LTYPE
  5
1F9
100
AcDbSymbolTableRecord
100
AcDbLinetypeTableRecord
  2
DASHED
 70
64
  3
- - - - - - - - - - - - - - - - - - - -
 72
65
 73
2
 40
0.2
 49
0.1
 74
0
 49
-0.1
 74
0
  0
ENDTAB
  0
TABLE
  2
LAYER
  5
2
100
AcDbSymbolTable
 70
36
  0
LAYER
  5
10
100
AcDbSymbolTableRecord
100
AcDbLayerTableRecord
  2
0
 70
0
 62
7
  6
CONTINUOUS
370
-3
390
F
  0
LAYER
  5
1FA
100
AcDbSymbolTableRecord
100
AcDbLayerTableRecord
  2
DEFAULT_1
 70
0
 62
7
  6
CENTER
370
-3
390
F
  0
LAYER
  5
1FB
100
AcDbSymbolTableRecord
100
AcDbLayerTableRecord
  2
DEFAULT_2
 70
0
 62
7
  6
HIDDEN
370
-3
390
F
  0
LAYER
  5
1FC
100
AcDbSymbolTableRecord
100
AcDbLayerTableRecord
  2
DEFAULT_3
 70
0
 62
7
  6
PHANTOM
370
-3
390
F
  0
LAYER
  5
1FD
100
AcDbSymbolTableRecord
100
AcDbLayerTableRecord
  2
ASSI
 70
0
 62
7
  6
CONTINUOUS
370
-3
390
F
  0
LAYER
  5
1FE
100
AcDbSymbolTableRecord
100
AcDbLayerTableRecord
  2
COORDINATE
 70
0
 62
7
  6
CONTINUOUS
370
-3
390
F
  0
LAYER
  5
1FF
100
AcDbSymbolTableRecord
100
AcDbLayerTableRecord
  2
COORD_ORIGINE
 70
0
 62
7
  6
CONTINUOUS
370
-3
390
F
  0
LAYER
  5
200
100
AcDbSymbolTableRecord
100
AcDbLayerTableRecord
  2
COPY_PUBLISH
 70
0
 62
7
  6
CONTINUOUS
370
-3
390
F
  0
LAYER
  5
201
100
AcDbSymbolTableRecord
100
AcDbLayerTableRecord
  2
COSMETIC
 70
0
 62
7
  6
CONTINUOUS
370
-3
390
F
  0
LAYER
  5
202
100
AcDbSymbolTableRecord
100
AcDbLayerTableRecord
  2
COSMETICI
 70
0
 62
7
  6
CONTINUOUS
370
-3
390
F
  0
LAYER
  5
203
100
AcDbSymbolTableRecord
100
AcDbLayerTableRecord
  2
CURVE
 70
0
 62
7
  6
CONTINUOUS
370
-3
390
F
  0
LAYER
  5
204
100
AcDbSymbolTableRecord
100
AcDbLayerTableRecord
  2
DRAFT
 70
0
 62
7
  6
CONTINUOUS
370
-3
390
F
  0
LAYER
  5
205
100
AcDbSymbolTableRecord
100
AcDbLayerTableRecord
  2
IMPORT_IGES
 70
0
 62
7
  6
CONTINUOUS
370
-3
390
F
  0
LAYER
  5
206
100
AcDbSymbolTableRecord
100
AcDbLayerTableRecord
  2
INTFCLR_1
 70
0
 62
7
  6
CONTINUOUS
370
-3
390
F
  0
LAYER
  5
207
100
AcDbSymbolTableRecord
100
AcDbLayerTableRecord
  2
NOTE
 70
0
 62
7
  6
CONTINUOUS
370
-3
390
F
  0
LAYER
  5
208
100
AcDbSymbolTableRecord
100
AcDbLayerTableRecord
  2
PIANI
 70
0
 62
7
  6
CONTINUOUS
370
-3
390
F
  0
LAYER
  5
209
100
AcDbSymbolTableRecord
100
AcDbLayerTableRecord
  2
PIANI_ORIGINE
 70
0
 62
7
  6
CONTINUOUS
370
-3
390
F
  0
LAYER
  5
20A
100
AcDbSymbolTableRecord
100
AcDbLayerTableRecord
  2
PUNTI
 70
0
 62
7
  6
CONTINUOUS
370
-3
390
F
  0
LAYER
  5
20B
100
AcDbSymbolTableRecord
100
AcDbLayerTableRecord
  2
RACCORDO
 70
0
 62
7
  6
CONTINUOUS
370
-3
390
F
  0
LAYER
  5
20C
100
AcDbSymbolTableRecord
100
AcDbLayerTableRecord
  2
SIMBOLI
 70
0
 62
7
  6
CONTINUOUS
370
-3
390
F
  0
LAYER
  5
20D
100
AcDbSymbolTableRecord
100
AcDbLayerTableRecord
  2
SMUSSO
 70
0
 62
7
  6
CONTINUOUS
370
-3
390
F
  0
LAYER
  5
20E
100
AcDbSymbolTableRecord
100
AcDbLayerTableRecord
  2
SNAPLINE
 70
0
 62
7
  6
CONTINUOUS
370
-3
390
F
  0
LAYER
  5
20F
100
AcDbSymbolTableRecord
100
AcDbLayerTableRecord
  2
SUPERFICI
 70
0
 62
7
  6
CONTINUOUS
370
-3
390
F
  0
LAYER
  5
210
100
AcDbSymbolTableRecord
100
AcDbLayerTableRecord
  2
TRASH
 70
0
 62
7
  6
CONTINUOUS
370
-3
390
F
  0
LAYER
  5
211
100
AcDbSymbolTableRecord
100
AcDbLayerTableRecord
  2
XSEC_DATUMS
 70
0
 62
7
  6
CONTINUOUS
370
-3
390
F
  0
ENDTAB
  0
TABLE
  2
STYLE
  5
3
100
AcDbSymbolTable
 70
1
  0
STYLE
  5
11
100
AcDbSymbolTableRecord
100
AcDbTextStyleTableRecord
  2
STANDARD
 70
0
 40
0.0
 41
0.8
 50
0.0
 71
0
 42
0.2
  3
txt
  4

  0
STYLE
  5
212
100
AcDbSymbolTableRecord
100
AcDbTextStyleTableRecord
  2
TEXTSTYLE_1
 70
0
 40
0.0
 41
0.8
 50
0.0
 71
0
 42
0.2
  3
gdt
  4

  0
ENDTAB
  0
TABLE
  2
VIEW
  5
6
100
AcDbSymbolTable
 70
0
  0
ENDTAB
  0
TABLE
  2
UCS
  5
7
100
AcDbSymbolTable
 70
0
  0
ENDTAB
  0
TABLE
  2
APPID
  5
9
100
AcDbSymbolTable
 70
1
  0
APPID
  5
213
100
AcDbSymbolTableRecord
100
AcDbRegAppTableRecord
  2
ACAD
 70
0
  0
ENDTAB
  0
TABLE
  2
BLOCK_RECORD
  5
1
100
AcDbSymbolTable
 70
0
  0
BLOCK_RECORD
  5
214
100
AcDbSymbolTableRecord
100
AcDbBlockTableRecord
  2
*Model_Space
  0
BLOCK_RECORD
  5
215
100
AcDbSymbolTableRecord
100
AcDbBlockTableRecord
  2
*Paper_Space
  0
BLOCK_RECORD
  5
216
100
AcDbSymbolTableRecord
100
AcDbBlockTableRecord
  2
_FILLED
  0
BLOCK_RECORD
  5
217
100
AcDbSymbolTableRecord
100
AcDbBlockTableRecord
  2
*D0
  0
BLOCK_RECORD
  5
218
100
AcDbSymbolTableRecord
100
AcDbBlockTableRecord
  2
*D1
  0
BLOCK_RECORD
  5
219
100
AcDbSymbolTableRecord
100
AcDbBlockTableRecord
  2
*D2
  0
BLOCK_RECORD
  5
21A
100
AcDbSymbolTableRecord
100
AcDbBlockTableRecord
  2
*D3
  0
ENDTAB
  0
TABLE
  2
DIMSTYLE
  5
A
100
AcDbSymbolTable
 70
1
100
AcDbDimStyleTable
 71
0
  0
DIMSTYLE
105
21B
100
AcDbSymbolTableRecord
100
AcDbDimStyleTableRecord
  2
STANDARD
 70
0
  3

  4

 40
1.0
 41
3.0
 42
0.5
 43
0.38
 44
1.5
 45
0.0
 46
0.0
 47
0.01
 48
0.01
140
3.0
141
0.09
142
0.0
143
25.4
144
1.0
145
0.0
146
1.0
147
0.625
 71
1
 72
0
 73
0
 74
0
 75
0
 76
0
 77
1
 78
8
 79
2
170
0
171
1
172
0
173
0
174
0
175
0
176
0
177
0
178
0
270
2
179
2
271
2
272
2
273
2
274
2
275
0
280
0
281
0
282
0
283
1
284
8
285
0
286
0
287
3
288
0
340
11
278
44
341
216
342
216
343
216
344
216
  0
DIMSTYLE
105
21C
100
AcDbSymbolTableRecord
100
AcDbDimStyleTableRecord
  2
DIMSTYLE_1
 70
0
  3

  4

 40
1.0
 41
3.0
 42
0.5
 43
0.38
 44
1.5
 45
0.0
 46
0.0
 47
0.0
 48
0.0
140
3.0
141
0.09
142
0.0
143
25.4
144
1.0
145
0.0
146
1.0
147
0.75
 71
0
 72
0
 73
0
 74
0
 75
0
 76
0
 77
1
 78
8
 79
2
170
0
171
1
172
0
173
0
174
0
175
0
176
0
177
0
178
0
270
2
179
2
271
2
272
2
273
2
274
2
275
0
280
0
281
0
282
0
283
1
284
8
285
0
286
0
287
3
288
0
340
11
278
44
341
216
342
216
343
216
344
216
  0
ENDTAB
  0
ENDSEC
  0
SECTION
  2
BLOCKS
  0
BLOCK
  5
20
100
AcDbEntity
  8
0
100
AcDbBlockBegin
  2
*Model_Space
 70
0
 10
0.0
 20
0.0
 30
0.0
  3
*Model_Space
  1

  0
ENDBLK
  5
21
100
AcDbEntity
  8
0
100
AcDbBlockEnd
  0
BLOCK
  5
1C
100
AcDbEntity
  8
0
100
AcDbBlockBegin
  2
*Paper_Space
 70
0
 10
0.0
 20
0.0
 30
0.0
  3
*Paper_Space
  1

  0
ENDBLK
  5
1D
100
AcDbEntity
  8
0
100
AcDbBlockEnd
  0
BLOCK
  5
21D
100
AcDbEntity
  8
0
100
AcDbBlockBegin
  2
_FILLED
 70
64
 10
0.0
 20
0.0
  3
_FILLED
  1

  0
SOLID
  5
21E
100
AcDbEntity
  8
0
  6
BYBLOCK
 62
0
100
AcDbTrace
 10
0.0
 20
0.0
 11
-1.0
 21
0.3166666667
 12
-1.0
 22
-0.3166666667
 13
-1.0
 23
-0.3166666667
  0
ENDBLK
  5
21F
100
AcDbEntity
  8
0
  6
BYBLOCK
 62
0
100
AcDbBlockEnd
  0
BLOCK
  5
220
100
AcDbEntity
  8
0
100
AcDbBlockBegin
 62
7
  6
CONTINUOUS
  2
*D0
 70
65
 10
0.0
 20
0.0
  3
*D0
  1

  0
LINE
  5
221
100
AcDbEntity
  8
0
100
AcDbLine
 62
7
  6
CONTINUOUS
 10
-22.275
 20
21.8500571074
 11
-22.275
 21
35.1332861225
  0
LINE
  5
222
100
AcDbEntity
  8
0
100
AcDbLine
 62
7
  6
CONTINUOUS
 10
22.025
 20
21.8500571074
 11
22.025
 21
35.1332861225
  0
LINE
  5
223
100
AcDbEntity
  8
0
100
AcDbLine
 62
7
  6
CONTINUOUS
 10
-22.275
 20
33.6332861225
 11
-0.125
 21
33.6332861225
  0
LINE
  5
224
100
AcDbEntity
  8
0
100
AcDbLine
 62
7
  6
CONTINUOUS
 10
22.025
 20
33.6332861225
 11
-0.125
 21
33.6332861225
  0
INSERT
  5
225
100
AcDbEntity
  8
0
100
AcDbBlockReference
 62
7
  6
CONTINUOUS
  2
_FILLED
 10
-22.275
 20
33.6332861225
 41
3.0
 42
3.0
 43
3.0
 50
180.0
  0
INSERT
  5
226
100
AcDbEntity
  8
0
100
AcDbBlockReference
 62
7
  6
CONTINUOUS
  2
_FILLED
 10
22.025
 20
33.6332861225
 41
3.0
 42
3.0
 43
3.0
 50
0.0
  0
ENDBLK
  5
227
100
AcDbEntity
  8
0
  6
BYBLOCK
 62
0
100
AcDbBlockEnd
  0
BLOCK
  5
228
100
AcDbEntity
  8
0
100
AcDbBlockBegin
 62
7
  6
CONTINUOUS
  2
*D1
 70
65
 10
0.0
 20
0.0
  3
*D1
  1

  0
LINE
  5
229
100
AcDbEntity
  8
0
100
AcDbLine
 62
7
  6
CONTINUOUS
 10
22.0251522961
 20
21.85
 11
30.0508579288
 21
21.85
  0
LINE
  5
22A
100
AcDbEntity
  8
0
100
AcDbLine
 62
7
  6
CONTINUOUS
 10
22.0251522961
 20
-21.85
 11
30.0508579288
 21
-21.85
  0
LINE
  5
22B
100
AcDbEntity
  8
0
100
AcDbLine
 62
7
  6
CONTINUOUS
 10
28.5508579288
 20
21.85
 11
28.5508579288
 21
0.0
  0
LINE
  5
22C
100
AcDbEntity
  8
0
100
AcDbLine
 62
7
  6
CONTINUOUS
 10
28.5508579288
 20
-21.85
 11
28.5508579288
 21
0.0
  0
INSERT
  5
22D
100
AcDbEntity
  8
0
100
AcDbBlockReference
 62
7
  6
CONTINUOUS
  2
_FILLED
 10
28.5508579288
 20
21.85
 41
3.0
 42
3.0
 43
3.0
 50
90.0
  0
INSERT
  5
22E
100
AcDbEntity
  8
0
100
AcDbBlockReference
 62
7
  6
CONTINUOUS
  2
_FILLED
 10
28.5508579288
 20
-21.85
 41
3.0
 42
3.0
 43
3.0
 50
270.0
  0
ENDBLK
  5
22F
100
AcDbEntity
  8
0
  6
BYBLOCK
 62
0
100
AcDbBlockEnd
  0
BLOCK
  5
230
100
AcDbEntity
  8
0
100
AcDbBlockBegin
 62
7
  6
CONTINUOUS
  2
*D2
 70
65
 10
0.0
 20
0.0
  3
*D2
  1

  0
LINE
  5
231
100
AcDbEntity
  8
0
100
AcDbLine
 62
7
  6
CONTINUOUS
 10
-48.1285308829
 20
21.8500571074
 11
-48.1285308829
 21
35.0
  0
LINE
  5
232
100
AcDbEntity
  8
0
100
AcDbLine
 62
7
  6
CONTINUOUS
 10
-55.6285308829
 20
0.5
 11
-55.6285308829
 21
35.0
  0
LINE
  5
233
100
AcDbEntity
  8
0
100
AcDbLine
 62
7
  6
CONTINUOUS
 10
-48.1285308829
 20
33.5
 11
-40.3768464958
 21
33.5
  0
LINE
  5
234
100
AcDbEntity
  8
0
100
AcDbLine
 62
7
  6
CONTINUOUS
 10
-40.3768464958
 20
33.5
 11
-51.8785308829
 21
33.5
  0
LINE
  5
235
100
AcDbEntity
  8
0
100
AcDbLine
 62
7
  6
CONTINUOUS
 10
-55.6285308829
 20
33.5
 11
-59.6285308829
 21
33.5
  0
LINE
  5
236
100
AcDbEntity
  8
0
100
AcDbLine
 62
7
  6
CONTINUOUS
 10
-59.6285308829
 20
33.5
 11
-51.8785308829
 21
33.5
  0
INSERT
  5
237
100
AcDbEntity
  8
0
100
AcDbBlockReference
 62
7
  6
CONTINUOUS
  2
_FILLED
 10
-48.1285308829
 20
33.5
 41
3.0
 42
3.0
 43
3.0
 50
180.0
  0
INSERT
  5
238
100
AcDbEntity
  8
0
100
AcDbBlockReference
 62
7
  6
CONTINUOUS
  2
_FILLED
 10
-55.6285308829
 20
33.5
 41
3.0
 42
3.0
 43
3.0
  0
ENDBLK
  5
239
100
AcDbEntity
  8
0
  6
BYBLOCK
 62
0
100
AcDbBlockEnd
  0
BLOCK
  5
23A
100
AcDbEntity
  8
0
100
AcDbBlockBegin
 62
7
  6
CONTINUOUS
  2
*D3
 70
65
 10
0.0
 20
0.0
  3
*D3
  1

  0
LINE
  5
23B
100
AcDbEntity
  8
0
100
AcDbLine
 62
7
  6
CONTINUOUS
 10
-55.6285308829
 20
0.5
 11
-55.6285308829
 21
43.0
  0
LINE
  5
23C
100
AcDbEntity
  8
0
100
AcDbLine
 62
7
  6
CONTINUOUS
 10
-36.2285308829
 20
20.5698149423
 11
-36.2285308829
 21
43.0
  0
LINE
  5
23D
100
AcDbEntity
  8
0
100
AcDbLine
 62
7
  6
CONTINUOUS
 10
-55.6285308829
 20
41.5
 11
-45.9285308829
 21
41.5
  0
LINE
  5
23E
100
AcDbEntity
  8
0
100
AcDbLine
 62
7
  6
CONTINUOUS
 10
-36.2285308829
 20
41.5
 11
-45.9285308829
 21
41.5
  0
INSERT
  5
23F
100
AcDbEntity
  8
0
100
AcDbBlockReference
 62
7
  6
CONTINUOUS
  2
_FILLED
 10
-55.6285308829
 20
41.5
 41
3.0
 42
3.0
 43
3.0
 50
180.0
  0
INSERT
  5
240
100
AcDbEntity
  8
0
100
AcDbBlockReference
 62
7
  6
CONTINUOUS
  2
_FILLED
 10
-36.2285308829
 20
41.5
 41
3.0
 42
3.0
 43
3.0
  0
ENDBLK
  5
241
100
AcDbEntity
  8
0
  6
BYBLOCK
 62
0
100
AcDbBlockEnd
  0
ENDSEC
  0
SECTION
  2
ENTITIES
  0
DIMENSION
  5
242
100
AcDbEntity
  8
0
100
AcDbDimension
 62
7
  6
CONTINUOUS
  2
*D0
 10
22.025
 20
33.6332861225
 11
-4.4107142857
 21
33.6332861225
 70
160
 71
2
 72
2
 41
0.9
 42
44.3
  3
DIMSTYLE_1
100
AcDbAlignedDimension
 13
-22.275
 23
21.3500571074
 14
22.025
 24
21.3500571074
100
AcDbRotatedDimension
  0
DIMENSION
  5
243
100
AcDbEntity
  8
0
100
AcDbDimension
 62
7
  6
CONTINUOUS
  2
*D1
 10
28.5508579288
 20
-21.85
 11
28.5508579288
 21
-4.2857142857
 70
160
 71
2
 72
2
 41
0.9
 42
43.7
  3
DIMSTYLE_1
100
AcDbAlignedDimension
 13
21.5251522961
 23
21.85
 14
21.5251522961
 24
-21.85
 50
270.0
100
AcDbRotatedDimension
  0
DIMENSION
  5
244
100
AcDbEntity
  8
0
100
AcDbDimension
 62
7
  6
CONTINUOUS
  2
*D2
 10
-55.6285308829
 20
33.5
 11
-46.5911322101
 21
33.5
 70
160
 71
1
 72
2
 41
0.9
 42
7.5
  3
DIMSTYLE_1
100
AcDbAlignedDimension
 13
-48.1285308829
 23
21.3500571074
 14
-55.6285308829
 24
0.0
 50
180.0
100
AcDbRotatedDimension
  0
DIMENSION
  5
245
100
AcDbEntity
  8
0
100
AcDbDimension
 62
7
  6
CONTINUOUS
  2
*D3
 10
-36.2285308829
 20
41.5
 11
-49.9999594544
 21
41.5
 70
160
 71
2
 72
2
 41
0.9
 42
19.4
  3
DIMSTYLE_1
100
AcDbAlignedDimension
 13
-55.6285308829
 23
0.0
 14
-36.2285308829
 24
20.0698149423
100
AcDbRotatedDimension
  0
LWPOLYLINE
  5
246
100
AcDbEntity
  8
0
100
AcDbPolyline
 62
7
  6
CONTINUOUS
 90
5
 70
0
 43
0.3500000006
 10
2.8750000277
 20
36.0975725555
 10
3.2321429129
 20
36.3118570404
 10
3.2321429129
 20
36.9547150269
 10
2.8750000277
 20
37.3832839966
 10
2.0178571315
 20
37.3832839966
  0
LWPOLYLINE
  5
247
100
AcDbEntity
  8
RACCORDO
100
AcDbPolyline
 62
250
  6
CONTINUOUS
 90
12
 70
0
 10
-22.1601605229
 20
20.7114184766
 10
-22.1548515182
 20
20.7140950215
 10
-22.1412662864
 20
20.7167267768
 10
-22.1196321448
 20
20.7192697065
 10
-22.0903110905
 20
20.7216812604
 10
-22.0537937432
 20
20.723921087
 10
-22.0106911357
 20
20.7259517078
 10
-21.96172449
 20
20.7277391452
 10
-21.907713149
 20
20.7292534904
 10
-21.849560867
 20
20.7304694041
 10
-21.7882406871
 20
20.7313665406
 10
-21.7247786601
 20
20.7319298882
  0
LWPOLYLINE
  5
248
100
AcDbEntity
  8
RACCORDO
100
AcDbPolyline
 62
250
  6
CONTINUOUS
 90
13
 70
0
 10
-22.1601605229
 20
-20.7114184766
 10
-22.1548524498
 20
-20.7140950994
 10
-22.1412679652
 20
-20.7167269342
 10
-22.1196343783
 20
-20.7192699426
 10
-22.0903136843
 20
-20.7216815724
 10
-22.0537965067
 20
-20.7239214697
 10
-22.0106938877
 20
-20.7259521544
 10
-21.9617270641
 20
-20.7277396469
 10
-21.9077153983
 20
-20.7292540371
 10
-21.8495626681
 20
-20.7304699844
 10
-21.7882419438
 20
-20.7313671422
 10
-21.7247793059
 20
-20.7319304985
 10
-21.6602366754
 20
-20.7321506267
  0
LWPOLYLINE
  5
249
100
AcDbEntity
  8
RACCORDO
100
AcDbPolyline
 62
250
  6
CONTINUOUS
 90
13
 70
0
 10
-22.1686520894
 20
-21.1905149885
 10
-22.1643480934
 20
-21.2557350448
 10
-22.1515692091
 20
-21.3198402297
 10
-22.1305338109
 20
-21.3817343441
 10
-22.1016014575
 20
-21.4403589805
 10
-22.0652667674
 20
-21.494711583
 10
-22.0221509825
 20
-21.543862604
 10
-21.9729912896
 20
-21.5869714731
 10
-21.9186282714
 20
-21.6233009008
 10
-21.8599915877
 20
-21.6522294906
 10
-21.798083962
 20
-21.6732624537
 10
-21.7339640141
 20
-21.6860400393
 10
-21.6687282418
 20
-21.6903436509
  0
LWPOLYLINE
  5
24A
100
AcDbEntity
  8
RACCORDO
100
AcDbPolyline
 62
250
  6
CONTINUOUS
 90
13
 70
0
 10
-22.1686520894
 20
21.1905149885
 10
-22.1643478532
 20
21.2557368611
 10
-22.151568353
 20
21.3198434176
 10
-22.1305321226
 20
21.3817384139
 10
-22.1015988888
 20
21.4403634246
 10
-22.0652634197
 20
21.494715942
 10
-22.0221470642
 20
21.5438665196
 10
-21.9729871266
 20
21.586974666
 10
-21.9186242585
 20
21.6233032169
 10
-21.8599880834
 20
21.652230942
 10
-21.7980813
 20
21.6732631671
 10
-21.7339625353
 20
21.6860402342
 10
-21.6687282419
 20
21.690343651
  0
LINE
  5
24B
100
AcDbEntity
  8
DRAFT
100
AcDbLine
 62
7
  6
CONTINUOUS
 10
7.3363830423
 20
-23.5
 11
7.9272516364
 21
-23.5
  0
LINE
  5
24C
100
AcDbEntity
  8
DRAFT
100
AcDbLine
 62
7
  6
CONTINUOUS
 10
14.3227483636
 20
-23.5
 11
14.9136169577
 21
-23.5
  0
LWPOLYLINE
  5
24D
100
AcDbEntity
  8
RACCORDO
100
AcDbPolyline
 62
250
  6
CONTINUOUS
 90
8
 70
0
 10
-22.1638810446
 20
21.1004643742
 10
-22.1644938459
 20
21.1229273418
 10
-22.1651381033
 20
21.1423268336
 10
-22.1658128545
 20
21.1587244427
 10
-22.166503126
 20
21.171776436
 10
-22.1672039268
 20
21.181368236
 10
-22.1679202479
 20
21.1876144201
 10
-22.1686520894
 20
21.1905149885
  0
LINE
  5
24E
100
AcDbEntity
  8
RACCORDO
100
AcDbLine
 62
250
  6
CONTINUOUS
 10
-22.1627590105
 20
21.0470613034
 11
-22.1638810446
 21
21.1004643742
  0
LINE
  5
24F
100
AcDbEntity
  8
RACCORDO
100
AcDbLine
 62
250
  6
CONTINUOUS
 10
-22.1618091914
 20
20.9836700838
 11
-22.1627590105
 21
21.0470613034
  0
LINE
  5
250
100
AcDbEntity
  8
RACCORDO
100
AcDbLine
 62
250
  6
CONTINUOUS
 10
-21.6639535284
 20
21.509882854
 11
-21.6652087008
 21
21.5938304067
  0
LINE
  5
251
100
AcDbEntity
  8
RACCORDO
100
AcDbLine
 62
250
  6
CONTINUOUS
 10
-21.662337422
 20
21.3421584106
 11
-21.6639535284
 21
21.509882854
  0
LINE
  5
252
100
AcDbEntity
  8
RACCORDO
100
AcDbLine
 62
250
  6
CONTINUOUS
 10
-22.1607612648
 20
20.8739539316
 11
-22.1618091914
 21
20.9836700838
  0
LINE
  5
253
100
AcDbEntity
  8
RACCORDO
100
AcDbLine
 62
250
  6
CONTINUOUS
 10
-21.660837577
 20
21.0574261222
 11
-21.662337422
 21
21.3421584106
  0
LINE
  5
254
100
AcDbEntity
  8
RACCORDO
100
AcDbLine
 62
250
  6
CONTINUOUS
 10
-22.160222949
 20
20.7534524155
 11
-22.1607612648
 21
20.8739539316
  0
LINE
  5
255
100
AcDbEntity
  8
RACCORDO
100
AcDbLine
 62
250
  6
CONTINUOUS
 10
-21.6602366754
 20
20.7321506272
 11
-21.660837577
 21
21.0574261222
  0
LINE
  5
256
100
AcDbEntity
  8
RACCORDO
100
AcDbLine
 62
7
  6
CONTINUOUS
 10
-22.275
 20
-21.3500571074
 11
-22.275
 21
21.3500571074
  0
LWPOLYLINE
  5
257
100
AcDbEntity
  8
RACCORDO
100
AcDbPolyline
 62
250
  6
CONTINUOUS
 90
9
 70
0
 10
-22.1571982853
 20
-16.1100745255
 10
-22.1549766066
 20
-11.5081351313
 10
-22.1534954868
 20
-6.9056002941
 10
-22.1527549255
 20
-2.302073919
 10
-22.1527549231
 20
2.3020478992
 10
-22.1534954815
 20
6.9055768763
 10
-22.1549766012
 20
11.5081169175
 10
-22.1571982817
 20
16.1100641176
 10
-22.160222949
 20
20.7534524155
  0
LWPOLYLINE
  5
258
100
AcDbEntity
  8
RACCORDO
100
AcDbPolyline
 62
250
  6
CONTINUOUS
 90
9
 70
0
 10
-21.6572744333
 20
-16.126832638
 10
-21.6550527519
 20
-11.5201447253
 10
-21.6535716309
 20
-6.9124782328
 10
-21.6528310705
 20
-2.3042246346
 10
-21.6528310707
 20
2.3042246395
 10
-21.6535716312
 20
6.9124782372
 10
-21.6550527522
 20
11.5201447287
 10
-21.6572744336
 20
16.12683264
 10
-21.6602366754
 20
20.7321506272
  0
LINE
  5
259
100
AcDbEntity
  8
RACCORDO
100
AcDbLine
 62
250
  6
CONTINUOUS
 10
-21.6611345655
 20
-21.1337779079
 11
-21.6572744333
 21
-16.126832638
  0
LINE
  5
25A
100
AcDbEntity
  8
RACCORDO
100
AcDbLine
 62
250
  6
CONTINUOUS
 10
-22.1605222658
 20
-20.8345828579
 11
-22.1571982853
 21
-16.1100745255
  0
LINE
  5
25B
100
AcDbEntity
  8
RACCORDO
100
AcDbLine
 62
250
  6
CONTINUOUS
 10
-21.6628329104
 20
-21.4031487611
 11
-21.6611345655
 21
-21.1337779079
  0
LINE
  5
25C
100
AcDbEntity
  8
RACCORDO
100
AcDbLine
 62
250
  6
CONTINUOUS
 10
-22.1614074025
 20
-20.9489349327
 11
-22.1605222658
 21
-20.8345828579
  0
LINE
  5
25D
100
AcDbEntity
  8
RACCORDO
100
AcDbLine
 62
250
  6
CONTINUOUS
 10
-22.1622628106
 20
-21.0166023787
 11
-22.1614074025
 21
-20.9489349327
  0
LWPOLYLINE
  5
25E
100
AcDbEntity
  8
RACCORDO
100
AcDbPolyline
 62
250
  6
CONTINUOUS
 90
10
 70
0
 10
5.4073884397
 20
-22.2559937955
 10
5.4112179768
 20
-22.2549233855
 10
5.4181149951
 20
-22.2497261672
 10
5.4278992997
 20
-22.2405379257
 10
5.440315261
 20
-22.2275987175
 10
5.4550384935
 20
-22.2112465988
 10
5.4716843306
 20
-22.1919087928
 10
5.4898178751
 20
-22.1700905283
 10
5.5089653613
 20
-22.1463618401
 10
5.5286265325
 20
-22.1213426753
  0
LWPOLYLINE
  5
25F
100
AcDbEntity
  8
RACCORDO
100
AcDbPolyline
 62
250
  6
CONTINUOUS
 90
13
 70
0
 10
21.4187282419
 20
-21.690343651
 10
21.4839637789
 20
-21.6860400703
 10
21.5480835384
 20
-21.6732625673
 10
21.6099910298
 20
-21.6522297218
 10
21.6686276321
 20
-21.6233012699
 10
21.7229906259
 20
-21.5869719824
 10
21.7721503574
 20
-21.5438632289
 10
21.815266233
 20
-21.494712279
 10
21.8516010472
 20
-21.4403596906
 10
21.8805335411
 20
-21.3817349947
 10
21.9015690723
 20
-21.3198407395
 10
21.914348055
 20
-21.2557353353
 10
21.9186520894
 20
-21.1905149885
  0
LWPOLYLINE
  5
260
100
AcDbEntity
  8
RACCORDO
100
AcDbPolyline
 62
250
  6
CONTINUOUS
 90
10
 70
0
 10
16.5387936198
 20
-22.1833408737
 10
16.5605900248
 20
-22.1825350704
 10
16.5820957903
 20
-22.1801835971
 10
16.6033109163
 20
-22.1762864536
 10
16.6243511353
 20
-22.1708103753
 10
16.6451007147
 20
-22.1637886268
 10
16.6652124574
 20
-22.1553210031
 10
16.6845706309
 20
-22.1454407691
 10
16.7032909676
 20
-22.1341146598
 10
16.7213734675
 20
-22.1213426753
  0
LWPOLYLINE
  5
261
100
AcDbEntity
  8
RACCORDO
100
AcDbPolyline
 62
250
  6
CONTINUOUS
 90
10
 70
0
 10
16.5387936198
 20
-22.358692912
 10
16.5749524385
 20
-22.3574086041
 10
16.6109375855
 20
-22.3535035464
 10
16.6465608313
 20
-22.3469967175
 10
16.6816311368
 20
-22.3379216264
 10
16.7159697466
 20
-22.3263239948
 10
16.7494099403
 20
-22.3122579344
 10
16.7817792665
 20
-22.295790391
 10
16.8129017045
 20
-22.2770044306
 10
16.8426118548
 20
-22.2559941819
  0
LINE
  5
262
100
AcDbEntity
  8
RACCORDO
100
AcDbLine
 62
7
  6
CONTINUOUS
 10
5.7427746702
 20
-22.4
 11
7.9272516364
 21
-22.4
  0
LINE
  5
263
100
AcDbEntity
  8
RACCORDO
100
AcDbLine
 62
7
  6
CONTINUOUS
 10
14.3227483636
 20
-22.4
 11
16.5072253295
 21
-22.4
  0
LINE
  5
264
100
AcDbEntity
  8
RACCORDO
100
AcDbLine
 62
250
  6
CONTINUOUS
 10
7.9134937952
 20
-22.358692912
 11
5.7112063804
 21
-22.358692912
  0
LINE
  5
265
100
AcDbEntity
  8
RACCORDO
100
AcDbLine
 62
250
  6
CONTINUOUS
 10
14.3365062048
 20
-22.358692912
 11
16.5387936197
 21
-22.358692912
  0
LINE
  5
266
100
AcDbEntity
  8
0
100
AcDbLine
 62
7
  6
CONTINUOUS
 10
8.025
 20
-22.2
 11
14.225
 21
-22.2
  0
LINE
  5
267
100
AcDbEntity
  8
RACCORDO
100
AcDbLine
 62
250
  6
CONTINUOUS
 10
7.9102115092
 20
-22.1833408737
 11
5.7112063802
 21
-22.1833408737
  0
LINE
  5
268
100
AcDbEntity
  8
RACCORDO
100
AcDbLine
 62
250
  6
CONTINUOUS
 10
14.3397884908
 20
-22.1833408737
 11
16.5387936198
 21
-22.1833408737
  0
LINE
  5
269
100
AcDbEntity
  8
RACCORDO
100
AcDbLine
 62
7
  6
CONTINUOUS
 10
-21.7751522961
 20
-21.85
 11
21.5251522961
 21
-21.85
  0
LINE
  5
26A
100
AcDbEntity
  8
RACCORDO
100
AcDbLine
 62
250
  6
CONTINUOUS
 10
21.4187282419
 20
-21.690343651
 11
-21.6687282419
 21
-21.690343651
  0
LWPOLYLINE
  5
26B
100
AcDbEntity
  8
RACCORDO
100
AcDbPolyline
 62
250
  6
CONTINUOUS
 90
7
 70
0
 10
5.7112063802
 20
-22.358692912
 10
5.6570482897
 20
-22.3557838714
 10
5.603472763
 20
-22.3470022363
 10
5.5511111101
 20
-22.3324396336
 10
5.5005819503
 20
-22.3122558441
 10
5.452483848
 20
-22.2866771993
 10
5.4073881452
 20
-22.2559941819
  0
LWPOLYLINE
  5
26C
100
AcDbEntity
  8
RACCORDO
100
AcDbPolyline
 62
7
  6
CONTINUOUS
 90
7
 70
0
 10
5.7420562152
 20
-22.3998821875
 10
5.6872521419
 20
-22.3967192955
 10
5.6342129187
 20
-22.388021885
 10
5.5829385456
 20
-22.3737899561
 10
5.5334290228
 20
-22.3540235087
 10
5.4856843502
 20
-22.3287225427
 10
5.4397045277
 20
-22.2978870583
  0
LWPOLYLINE
  5
26D
100
AcDbEntity
  8
RACCORDO
100
AcDbPolyline
 62
250
  6
CONTINUOUS
 90
7
 70
0
 10
5.7112063802
 20
-22.1833408737
 10
5.6780538898
 20
-22.1813987183
 10
5.6459904057
 20
-22.1761002118
 10
5.6150159279
 20
-22.1674453542
 10
5.5851304564
 20
-22.1554341456
 10
5.5563339913
 20
-22.140066586
 10
5.5286265325
 20
-22.1213426753
  0
LWPOLYLINE
  5
26E
100
AcDbEntity
  8
RACCORDO
100
AcDbPolyline
 62
250
  6
CONTINUOUS
 90
6
 70
0
 10
-21.6652087008
 20
21.5938304067
 10
-21.6658822869
 20
21.6264988254
 10
-21.6665724253
 20
21.6526427989
 10
-21.6672744786
 20
21.672080084
 10
-21.6679930841
 20
21.6846761785
 10
-21.6687282419
 20
21.690343651
  0
LWPOLYLINE
  5
26F
100
AcDbEntity
  8
RACCORDO
100
AcDbPolyline
 62
250
  6
CONTINUOUS
 90
12
 70
0
 10
21.4747793064
 20
-20.7319304981
 10
21.5382419449
 20
-20.7313671413
 10
21.5995626695
 20
-20.7304699833
 10
21.6577154001
 20
-20.729254036
 10
21.7117270661
 20
-20.7277396461
 10
21.7606938898
 20
-20.7259521538
 10
21.8037965087
 20
-20.7239214694
 10
21.8403136862
 20
-20.7216815722
 10
21.8696343799
 20
-20.7192699425
 10
21.8912679664
 20
-20.7167269342
 10
21.9048524505
 20
-20.7140950994
 10
21.9101605229
 20
-20.7114184766
  0
LINE
  5
270
100
AcDbEntity
  8
RACCORDO
100
AcDbLine
 62
250
  6
CONTINUOUS
 10
21.4747793064
 20
-20.7319304981
 11
-21.6602366754
 21
-20.7321506272
  0
LWPOLYLINE
  5
271
100
AcDbEntity
  8
RACCORDO
100
AcDbPolyline
 62
250
  6
CONTINUOUS
 90
8
 70
0
 10
-21.6687282419
 20
-21.690343651
 10
-21.6679930841
 20
-21.6846761785
 10
-21.6672744786
 20
-21.672080084
 10
-21.6665724253
 20
-21.6526427989
 10
-21.6658822869
 20
-21.6264988254
 10
-21.6652087008
 20
-21.5938304067
 10
-21.6645655788
 20
-21.5548676301
 10
-21.6628329104
 20
-21.4031487611
  0
LWPOLYLINE
  5
272
100
AcDbEntity
  8
RACCORDO
100
AcDbPolyline
 62
250
  6
CONTINUOUS
 90
10
 70
0
 10
-22.1686520894
 20
-21.1905149885
 10
-22.1679202479
 20
-21.1876144199
 10
-22.1672039268
 20
-21.1813682357
 10
-22.166503126
 20
-21.1717764358
 10
-22.1658128545
 20
-21.1587244426
 10
-22.1651381033
 20
-21.1423268337
 10
-22.1644938459
 20
-21.122927342
 10
-22.1638810446
 20
-21.1004643744
 10
-22.1632987371
 20
-21.074999524
 10
-22.1622628106
 20
-21.0166023787
  0
LWPOLYLINE
  5
273
100
AcDbEntity
  8
RACCORDO
100
AcDbPolyline
 62
250
  6
CONTINUOUS
 90
7
 70
0
 10
5.4073881452
 20
22.2559941819
 10
5.452483824
 20
22.2866771848
 10
5.5005819097
 20
22.3122558251
 10
5.5511110624
 20
22.3324396173
 10
5.6034727194
 20
22.3470022264
 10
5.6570482619
 20
22.3557838682
 10
5.7112063802
 20
22.358692912
  0
LWPOLYLINE
  5
274
100
AcDbEntity
  8
RACCORDO
100
AcDbPolyline
 62
250
  6
CONTINUOUS
 90
7
 70
0
 10
5.5286265325
 20
22.1213426753
 10
5.556333994
 20
22.1400665781
 10
5.5851304608
 20
22.155434133
 10
5.6150159328
 20
22.1674453401
 10
5.64599041
 20
22.1761001992
 10
5.6780538925
 20
22.1813987104
 10
5.7112063802
 20
22.1833408737
  0
LWPOLYLINE
  5
275
100
AcDbEntity
  8
RACCORDO
100
AcDbPolyline
 62
7
  6
CONTINUOUS
 90
7
 70
0
 10
5.4397044757
 20
22.2978870308
 10
5.4856843213
 20
22.3287225274
 10
5.5334290112
 20
22.3540235025
 10
5.5829385456
 20
22.3737899561
 10
5.6342129244
 20
22.3880218881
 10
5.6872521476
 20
22.3967192986
 10
5.7420562152
 20
22.3998821875
  0
LWPOLYLINE
  5
276
100
AcDbEntity
  8
RACCORDO
100
AcDbPolyline
 62
250
  6
CONTINUOUS
 90
13
 70
0
 10
22.0484310684
 20
-16.1347897054
 10
22.0742499715
 20
-16.1345312375
 10
22.0996367828
 20
-16.1338691866
 10
22.1241666414
 20
-16.1328146325
 10
22.1474290281
 20
-16.1313852235
 10
22.1690346357
 20
-16.1296048816
 10
22.1886218836
 20
-16.1275034016
 10
22.2058629697
 20
-16.1251159529
 10
22.220469356
 20
-16.1224824905
 10
22.2321965976
 20
-16.1196470868
 10
22.2408484332
 20
-16.1166571938
 10
22.2462800701
 20
-16.1135628486
 10
22.2484006074
 20
-16.1104158367
  0
LWPOLYLINE
  5
277
100
AcDbEntity
  8
0
100
AcDbPolyline
 62
250
  6
CONTINUOUS
 90
4
 70
0
 10
-12.6664400244
 20
-14.1517688125
 10
-12.6715747278
 20
-14.1006976681
 10
-12.674428053
 20
-14.0510415798
 10
-12.675
 20
-14.0028005601
  0
LINE
  5
278
100
AcDbEntity
  8
RACCORDO
100
AcDbLine
 62
7
  6
CONTINUOUS
 10
4.8913386653
 20
21.85
 11
5.4073881452
 21
22.2559941819
  0
LINE
  5
279
100
AcDbEntity
  8
RACCORDO
100
AcDbLine
 62
250
  6
CONTINUOUS
 10
5.1837707522
 20
21.85
 11
5.5286265325
 21
22.1213426753
  0
LINE
  5
27A
100
AcDbEntity
  8
RACCORDO
100
AcDbLine
 62
7
  6
CONTINUOUS
 10
5.4073881452
 20
-22.2559941819
 11
4.891338673
 21
-21.85
  0
LINE
  5
27B
100
AcDbEntity
  8
RACCORDO
100
AcDbLine
 62
250
  6
CONTINUOUS
 10
5.5286265325
 20
-22.1213426753
 11
5.1837712387
 21
-21.85
  0
LWPOLYLINE
  5
27C
100
AcDbEntity
  8
0
100
AcDbPolyline
 62
250
  6
CONTINUOUS
 90
4
 70
0
 10
-10.083566311
 20
-13.8537773729
 10
-10.0784276939
 20
-13.9048676335
 10
-10.0755722569
 20
-13.9545420255
 10
-10.075
 20
-14.0028005601
  0
LINE
  5
27D
100
AcDbEntity
  8
0
100
AcDbLine
 62
250
  6
CONTINUOUS
 10
-12.675
 20
-14.0028005601
 11
-12.6698852227
 21
-13.8914260612
  0
LWPOLYLINE
  5
27E
100
AcDbEntity
  8
0
100
AcDbPolyline
 62
250
  6
CONTINUOUS
 90
42
 70
0
 10
-12.6698852227
 20
-13.8914260612
 10
-12.6560384227
 20
-13.7827358849
 10
-12.6334595999
 20
-13.6767300849
 10
-12.6018912532
 20
-13.5728724615
 10
-12.5615908838
 20
-13.4716993101
 10
-12.513330995
 20
-13.3748194506
 10
-12.4569071465
 20
-13.2821232789
 10
-12.3925237786
 20
-13.1937205357
 10
-12.3215667147
 20
-13.1115491061
 10
-12.2439236093
 20
-13.0357844722
 10
-12.1597068079
 20
-12.9662513125
 10
-12.07063917
 20
-12.9043613381
 10
-11.9766082926
 20
-12.8502617021
 10
-11.8777265787
 20
-12.8038053914
 10
-11.7760540969
 20
-12.7659628759
 10
-11.6715337173
 20
-12.7369172734
 10
-11.5642225696
 20
-12.7164855555
 10
-11.4563521118
 20
-12.7050889632
 10
-11.3476767193
 20
-12.7030272994
 10
-11.2384420165
 20
-12.7100007799
 10
-11.1316163351
 20
-12.7255312489
 10
-11.0269939131
 20
-12.7503118478
 10
-10.9247805125
 20
-12.7836493809
 10
-10.8285617509
 20
-12.822986183
 10
-10.7392305969
 20
-12.8685251241
 10
-10.6558940818
 20
-12.9200632544
 10
-10.579458918
 20
-12.9744342075
 10
-10.510544954
 20
-13.0312459856
 10
-10.4485323412
 20
-13.0908905383
 10
-10.3924682467
 20
-13.1513774625
 10
-10.3424231116
 20
-13.2124028085
 10
-10.2983264948
 20
-13.2742705099
 10
-10.2590142402
 20
-13.3359020175
 10
-10.2244169164
 20
-13.3971808898
 10
-10.1946039547
 20
-13.4582235718
 10
-10.1686194929
 20
-13.5183008613
 10
-10.1464276204
 20
-13.5772902967
 10
-10.1280642476
 20
-13.6353143574
 10
-10.1126812434
 20
-13.6920112624
 10
-10.1002282936
 20
-13.7472900179
 10
-10.0907557122
 20
-13.8012416415
 10
-10.083566311
 20
-13.8537773729
  0
LINE
  5
27F
100
AcDbEntity
  8
0
100
AcDbLine
 62
250
  6
CONTINUOUS
 10
-10.075
 20
-14.0028005601
 11
-10.0801181603
 21
-14.1142133396
  0
LWPOLYLINE
  5
280
100
AcDbEntity
  8
0
100
AcDbPolyline
 62
7
  6
CONTINUOUS
 90
3
 70
0
 43
0.3500000006
 10
1.0178571095
 20
34.6689987488
 10
0.9464285467
 20
34.4547142639
 10
0.8035714209
 20
34.1689985962
  0
LINE
  5
281
100
AcDbEntity
  8
RACCORDO
100
AcDbLine
 62
250
  6
CONTINUOUS
 10
5.7427746705
 20
22.4
 11
5.7112063804
 21
22.358692912
  0
LINE
  5
282
100
AcDbEntity
  8
RACCORDO
100
AcDbLine
 62
250
  6
CONTINUOUS
 10
5.4397045299
 20
22.29788706
 11
5.4073881452
 21
22.2559941819
  0
LINE
  5
283
100
AcDbEntity
  8
RACCORDO
100
AcDbLine
 62
250
  6
CONTINUOUS
 10
5.4073881452
 20
-22.2559941819
 11
5.4397045296
 21
-22.2978870598
  0
LINE
  5
284
100
AcDbEntity
  8
RACCORDO
100
AcDbLine
 62
250
  6
CONTINUOUS
 10
5.7112063804
 20
-22.358692912
 11
5.7427746702
 21
-22.4
  0
LWPOLYLINE
  5
285
100
AcDbEntity
  8
0
100
AcDbPolyline
 62
250
  6
CONTINUOUS
 90
42
 70
0
 10
-10.0801181603
 20
-14.1142133396
 10
-10.0939743349
 20
-14.2229396721
 10
-10.1165685238
 20
-14.3289796019
 10
-10.1481589132
 20
-14.4328707188
 10
-10.1884873169
 20
-14.5340755144
 10
-10.2367791763
 20
-14.6309814137
 10
-10.2932392414
 20
-14.7236974379
 10
-10.3576627621
 20
-14.8121147009
 10
-10.4286609294
 20
-14.8942938218
 10
-10.5063459769
 20
-14.9700589565
 10
-10.590605671
 20
-15.039586123
 10
-10.6797145027
 20
-15.1014637721
 10
-10.7737842308
 20
-15.1555445572
 10
-10.8727030965
 20
-15.2019759852
 10
-10.9744103149
 20
-15.2397887973
 10
-11.0789632495
 20
-15.2688001176
 10
-11.1863045367
 20
-15.2891929279
 10
-11.2942013005
 20
-15.3005467452
 10
-11.4029019438
 20
-15.3025601308
 10
-11.5121580636
 20
-15.2955345459
 10
-11.6189915754
 20
-15.2799538376
 10
-11.723603664
 20
-15.255124068
 10
-11.8257931447
 20
-15.2217391098
 10
-11.921978379
 20
-15.1823645224
 10
-12.0112640056
 20
-15.1368007923
 10
-12.0945453858
 20
-15.0852473399
 10
-12.1709269646
 20
-15.0308681597
 10
-12.2397916866
 20
-14.9740557712
 10
-12.3017566071
 20
-14.9144176023
 10
-12.3577773384
 20
-14.8539400594
 10
-12.4077846862
 20
-14.7929261256
 10
-12.4518478447
 20
-14.7310728036
 10
-12.4911300082
 20
-14.6694575621
 10
-12.5257004204
 20
-14.6081969226
 10
-12.5554898375
 20
-14.5471743714
 10
-12.5814537223
 20
-14.487117844
 10
-12.6036280345
 20
-14.4281497336
 10
-12.6219768144
 20
-14.3701476695
 10
-12.637347645
 20
-14.3134724525
 10
-12.6497908637
 20
-14.2582149795
 10
-12.6592561331
 20
-14.204284381
 10
-12.6664400244
 20
-14.1517688125
  0
LINE
  5
286
100
AcDbEntity
  8
RACCORDO
100
AcDbLine
 62
250
  6
CONTINUOUS
 10
-22.275
 20
-21.3500571074
 11
-22.1686520894
 21
-21.1905149885
  0
LINE
  5
287
100
AcDbEntity
  8
DRAFT
100
AcDbLine
 62
7
  6
CONTINUOUS
 10
14.2529281039
 20
23.4301797403
 11
14.3227483636
 21
23.5
  0
LINE
  5
288
100
AcDbEntity
  8
RACCORDO
100
AcDbLine
 62
250
  6
CONTINUOUS
 10
22.275
 20
16.1196590187
 11
22.2484006074
 21
16.1104158367
  0
LINE
  5
289
100
AcDbEntity
  8
RACCORDO
100
AcDbLine
 62
250
  6
CONTINUOUS
 10
22.2484006074
 20
-16.1104158367
 11
22.275
 21
-16.1196590187
  0
LINE
  5
28A
100
AcDbEntity
  8
DRAFT
100
AcDbLine
 62
7
  6
CONTINUOUS
 10
14.2529281039
 20
-23.4301797403
 11
14.3227483636
 21
-23.5
  0
LINE
  5
28B
100
AcDbEntity
  8
RACCORDO
100
AcDbLine
 62
250
  6
CONTINUOUS
 10
-22.1686520894
 20
21.1905149885
 11
-22.275
 21
21.3500571074
  0
LINE
  5
28C
100
AcDbEntity
  8
RACCORDO
100
AcDbLine
 62
250
  6
CONTINUOUS
 10
-21.7751522961
 20
-21.85
 11
-21.6687282419
 21
-21.690343651
  0
LINE
  5
28D
100
AcDbEntity
  8
RACCORDO
100
AcDbLine
 62
250
  6
CONTINUOUS
 10
-21.6687282419
 20
21.690343651
 11
-21.7751522961
 21
21.85
  0
LWPOLYLINE
  5
28E
100
AcDbEntity
  8
0
100
AcDbPolyline
 62
7
  6
CONTINUOUS
 90
2
 70
0
 43
0.3500000006
 10
-3.4107143555
 20
34.3832876129
 10
-3.4107143555
 20
35.8832880707
  0
LWPOLYLINE
  5
28F
100
AcDbEntity
  8
0
100
AcDbPolyline
 62
7
  6
CONTINUOUS
 90
2
 70
0
 43
0.3500000006
 10
27.8008582077
 20
-3.2857146378
 10
26.3008577499
 20
-3.2857146378
  0
LWPOLYLINE
  5
290
100
AcDbEntity
  8
0
100
AcDbPolyline
 62
7
  6
CONTINUOUS
 90
2
 70
0
 43
0.3500000006
 10
-1.0535714264
 20
34.3832876129
 10
-1.0535714264
 20
35.8832880707
  0
LWPOLYLINE
  5
291
100
AcDbEntity
  8
RACCORDO
100
AcDbPolyline
 62
250
  6
CONTINUOUS
 90
10
 70
0
 10
16.7213734675
 20
22.1213426753
 10
16.7410344845
 20
22.1463616214
 10
16.7601818038
 20
22.1700900793
 10
16.7783151768
 20
22.1919081124
 10
16.7949608456
 20
22.2112456961
 10
16.8096839206
 20
22.2275976109
 10
16.8220997423
 20
22.240536642
 10
16.8318839314
 20
22.2497247403
 10
16.8387808632
 20
22.2549218548
 10
16.8426103463
 20
22.2559922042
  0
LWPOLYLINE
  5
292
100
AcDbEntity
  8
RACCORDO
100
AcDbPolyline
 62
250
  6
CONTINUOUS
 90
13
 70
0
 10
22.025
 20
-0.1217603456
 10
22.039930881
 20
-0.1216108755
 10
22.0653176925
 20
-0.1209488247
 10
22.0898475512
 20
-0.1198942705
 10
22.1131099381
 20
-0.1184648616
 10
22.1347155456
 20
-0.1166845197
 10
22.1543027935
 20
-0.1145830398
 10
22.1715438795
 20
-0.1121955911
 10
22.1861502657
 20
-0.1095621288
 10
22.1978775071
 20
-0.1067267252
 10
22.2065293425
 20
-0.103736832
 10
22.2119609794
 20
-0.1006424868
 10
22.2140815166
 20
-0.0974954747
  0
LWPOLYLINE
  5
293
100
AcDbEntity
  8
RACCORDO
100
AcDbPolyline
 62
250
  6
CONTINUOUS
 90
10
 70
0
 10
16.7213734675
 20
-22.1213426753
 10
16.7410346372
 20
-22.1463618377
 10
16.7601821214
 20
-22.1700905234
 10
16.7783156638
 20
-22.1919087851
 10
16.7949614986
 20
-22.2112465886
 10
16.8096847287
 20
-22.2275987049
 10
16.8221006879
 20
-22.2405379107
 10
16.8318849909
 20
-22.2497261502
 10
16.8387820083
 20
-22.2549233668
 10
16.8426115451
 20
-22.2559937756
  0
LINE
  5
294
100
AcDbEntity
  8
RACCORDO
100
AcDbLine
 62
7
  6
CONTINUOUS
 10
7.9272516364
 20
22.4
 11
7.9134937952
 21
22.358692912
  0
LWPOLYLINE
  5
295
100
AcDbEntity
  8
0
100
AcDbPolyline
 62
7
  6
CONTINUOUS
 90
4
 70
0
 43
0.3500000006
 10
25.4437152786
 20
1.928571373
 10
24.8008572922
 20
1.928571373
 10
24.8008572922
 20
3.4285718307
 10
27.8008582077
 20
2.5714293594
  0
LWPOLYLINE
  5
296
100
AcDbEntity
  8
RACCORDO
100
AcDbPolyline
 62
250
  6
CONTINUOUS
 90
13
 70
0
 10
22.025
 20
0.1217603456
 10
22.0399308808
 20
0.1216108756
 10
22.065317692
 20
0.1209488247
 10
22.0898475506
 20
0.1198942706
 10
22.1131099374
 20
0.1184648616
 10
22.1347155449
 20
0.1166845198
 10
22.1543027928
 20
0.1145830399
 10
22.171543879
 20
0.1121955912
 10
22.1861502653
 20
0.1095621289
 10
22.1978775068
 20
0.1067267252
 10
22.2065293424
 20
0.1037368321
 10
22.2119609793
 20
0.1006424868
 10
22.2140815166
 20
0.0974954747
  0
LINE
  5
297
100
AcDbEntity
  8
RACCORDO
100
AcDbLine
 62
7
  6
CONTINUOUS
 10
7.9134937952
 20
-22.358692912
 11
7.9272516364
 21
-22.4
  0
LINE
  5
298
100
AcDbEntity
  8
RACCORDO
100
AcDbLine
 62
250
  6
CONTINUOUS
 10
5.7112063802
 20
22.358692912
 11
5.7112063802
 21
22.1833408737
  0
LINE
  5
299
100
AcDbEntity
  8
RACCORDO
100
AcDbLine
 62
250
  6
CONTINUOUS
 10
5.7112063802
 20
-22.358692912
 11
5.7112063802
 21
-22.1833408737
  0
LINE
  5
29A
100
AcDbEntity
  8
RACCORDO
100
AcDbLine
 62
250
  6
CONTINUOUS
 10
21.4187282419
 20
21.690343651
 11
21.5251522961
 21
21.85
  0
LINE
  5
29B
100
AcDbEntity
  8
RACCORDO
100
AcDbLine
 62
250
  6
CONTINUOUS
 10
21.9186520894
 20
21.1905149885
 11
22.025
 21
21.3500571074
  0
LINE
  5
29C
100
AcDbEntity
  8
RACCORDO
100
AcDbLine
 62
250
  6
CONTINUOUS
 10
21.5251522961
 20
-21.85
 11
21.4187282419
 21
-21.690343651
  0
LINE
  5
29D
100
AcDbEntity
  8
RACCORDO
100
AcDbLine
 62
250
  6
CONTINUOUS
 10
22.025
 20
-21.3500571074
 11
21.9186520894
 21
-21.1905149885
  0
LINE
  5
29E
100
AcDbEntity
  8
RACCORDO
100
AcDbLine
 62
7
  6
CONTINUOUS
 10
7.9102115092
 20
-22.1833408737
 11
7.9094970889
 21
-21.85
  0
LINE
  5
29F
100
AcDbEntity
  8
DRAFT
100
AcDbLine
 62
7
  6
CONTINUOUS
 10
7.9272516364
 20
23.5
 11
7.9272516364
 21
22.4
  0
LINE
  5
2A0
100
AcDbEntity
  8
DRAFT
100
AcDbLine
 62
7
  6
CONTINUOUS
 10
7.9272516364
 20
-23.5
 11
7.9272516364
 21
-22.4
  0
LINE
  5
2A1
100
AcDbEntity
  8
DRAFT
100
AcDbLine
 62
7
  6
CONTINUOUS
 10
7.9970718961
 20
23.4301797403
 11
7.9970718961
 21
21.85
  0
LINE
  5
2A2
100
AcDbEntity
  8
DRAFT
100
AcDbLine
 62
7
  6
CONTINUOUS
 10
7.9970718961
 20
-23.4301797403
 11
7.9970718961
 21
-21.85
  0
LINE
  5
2A3
100
AcDbEntity
  8
DRAFT
100
AcDbLine
 62
7
  6
CONTINUOUS
 10
8.025
 20
-21.85
 11
8.025
 21
-22.2
  0
LINE
  5
2A4
100
AcDbEntity
  8
DRAFT
100
AcDbLine
 62
7
  6
CONTINUOUS
 10
8.025
 20
21.85
 11
8.025
 21
22.2
  0
LINE
  5
2A5
100
AcDbEntity
  8
RACCORDO
100
AcDbLine
 62
7
  6
CONTINUOUS
 10
7.9102115092
 20
22.1833408737
 11
7.9094970889
 21
21.85
  0
LWPOLYLINE
  5
2A6
100
AcDbEntity
  8
0
100
AcDbPolyline
 62
7
  6
CONTINUOUS
 90
3
 70
0
 43
0.3500000006
 10
27.51514254
 20
0.9285710678
 10
27.7294292908
 20
0.8571421509
 10
28.0151426926
 20
0.7142865829
  0
LWPOLYLINE
  5
2A7
100
AcDbEntity
  8
0
100
AcDbPolyline
 62
7
  6
CONTINUOUS
 90
10
 70
0
 43
0.3500000006
 10
27.3008580551
 20
0.8571421509
 10
27.443715889
 20
0.9285710678
 10
27.51514254
 20
0.9285710678
 10
27.6580003738
 20
0.7857132339
 10
27.6580003738
 20
0.7142865829
 10
27.5865714569
 20
0.642857666
 10
27.51514254
 20
0.642857666
 10
27.372286972
 20
0.7142865829
 10
27.3008580551
 20
0.7857132339
 10
27.3008580551
 20
0.8571421509
  0
LINE
  5
2A8
100
AcDbEntity
  8
RACCORDO
100
AcDbLine
 62
7
  6
CONTINUOUS
 10
14.3397884908
 20
22.1833408737
 11
14.3405029111
 21
21.85
  0
LINE
  5
2A9
100
AcDbEntity
  8
DRAFT
100
AcDbLine
 62
7
  6
CONTINUOUS
 10
14.225
 20
-21.85
 11
14.225
 21
-22.2
  0
LINE
  5
2AA
100
AcDbEntity
  8
DRAFT
100
AcDbLine
 62
7
  6
CONTINUOUS
 10
14.225
 20
21.85
 11
14.225
 21
22.2
  0
LINE
  5
2AB
100
AcDbEntity
  8
DRAFT
100
AcDbLine
 62
7
  6
CONTINUOUS
 10
14.2529281039
 20
23.4301797403
 11
14.2529281039
 21
21.85
  0
LINE
  5
2AC
100
AcDbEntity
  8
DRAFT
100
AcDbLine
 62
7
  6
CONTINUOUS
 10
14.2529281039
 20
-23.4301797403
 11
14.2529281039
 21
-21.85
  0
LINE
  5
2AD
100
AcDbEntity
  8
DRAFT
100
AcDbLine
 62
7
  6
CONTINUOUS
 10
14.3227483636
 20
23.5
 11
14.3227483636
 21
22.4
  0
LINE
  5
2AE
100
AcDbEntity
  8
DRAFT
100
AcDbLine
 62
7
  6
CONTINUOUS
 10
14.3227483636
 20
-23.5
 11
14.3227483636
 21
-22.4
  0
LINE
  5
2AF
100
AcDbEntity
  8
RACCORDO
100
AcDbLine
 62
7
  6
CONTINUOUS
 10
14.3397884908
 20
-22.1833408737
 11
14.3405029111
 21
-21.85
  0
LINE
  5
2B0
100
AcDbEntity
  8
RACCORDO
100
AcDbLine
 62
250
  6
CONTINUOUS
 10
16.5387936198
 20
-22.1833408737
 11
16.5387936223
 21
-22.358692912
  0
LINE
  5
2B1
100
AcDbEntity
  8
RACCORDO
100
AcDbLine
 62
250
  6
CONTINUOUS
 10
16.5387936198
 20
22.1833408737
 11
16.5387936198
 21
22.358692912
  0
LWPOLYLINE
  5
2B2
100
AcDbEntity
  8
RACCORDO
100
AcDbPolyline
 62
250
  6
CONTINUOUS
 90
13
 70
0
 10
22.0484310684
 20
16.1347897054
 10
22.0742493722
 20
16.1345312496
 10
22.0996357369
 20
16.1338692249
 10
22.1241653155
 20
16.1328147045
 10
22.1474275971
 20
16.1313853295
 10
22.169033252
 20
16.1296050159
 10
22.1886206551
 20
16.1275035554
 10
22.205861979
 20
16.1251161129
 10
22.2204686469
 20
16.1224826411
 10
22.2321961564
 20
16.1196472156
 10
22.2408482143
 20
16.11665729
 10
22.2462800073
 20
16.113562901
 10
22.2484006074
 20
16.1104158357
  0
LWPOLYLINE
  5
2B3
100
AcDbEntity
  8
0
100
AcDbPolyline
 62
7
  6
CONTINUOUS
 90
10
 70
0
 43
0.3500000006
 10
0.9464285467
 20
34.8832877655
 10
1.0178571095
 20
34.7404299316
 10
1.0178571095
 20
34.6689987488
 10
0.8749999838
 20
34.5261454468
 10
0.8035714209
 20
34.5261454468
 10
0.732142858
 20
34.5975720978
 10
0.732142858
 20
34.6689987488
 10
0.8035714209
 20
34.8118565826
 10
0.8749999838
 20
34.8832877655
 10
0.9464285467
 20
34.8832877655
  0
LWPOLYLINE
  5
2B4
100
AcDbEntity
  8
RACCORDO
100
AcDbPolyline
 62
250
  6
CONTINUOUS
 90
8
 70
0
 10
21.9186520894
 20
-21.1905149885
 10
21.9179191845
 20
-21.1876028758
 10
21.917202021
 20
-21.18134305
 10
21.9165005989
 20
-21.1717355112
 10
21.9158099698
 20
-21.1586648017
 10
21.9151350821
 20
-21.1422463792
 10
21.9144907817
 20
-21.1228266162
 10
21.9138780229
 20
-21.1003462313
  0
LWPOLYLINE
  5
2B5
100
AcDbEntity
  8
RACCORDO
100
AcDbPolyline
 62
250
  6
CONTINUOUS
 90
5
 70
0
 10
21.4187282419
 20
-21.690343651
 10
21.4179931085
 20
-21.6846769543
 10
21.4172744908
 20
-21.6720822654
 10
21.416572389
 20
-21.6526463026
 10
21.4158821259
 20
-21.6265018215
  0
LINE
  5
2B6
100
AcDbEntity
  8
RACCORDO
100
AcDbLine
 62
250
  6
CONTINUOUS
 10
21.9138780229
 20
-21.1003462313
 11
21.9127562501
 21
-21.0469056575
  0
LINE
  5
2B7
100
AcDbEntity
  8
RACCORDO
100
AcDbLine
 62
250
  6
CONTINUOUS
 10
21.4158821259
 20
-21.6265018215
 11
21.4145651778
 21
-21.5548678038
  0
LINE
  5
2B8
100
AcDbEntity
  8
RACCORDO
100
AcDbLine
 62
250
  6
CONTINUOUS
 10
21.9127562501
 20
-21.0469056575
 11
21.9118065059
 21
-20.9834520711
  0
LINE
  5
2B9
100
AcDbEntity
  8
RACCORDO
100
AcDbLine
 62
250
  6
CONTINUOUS
 10
21.4145651778
 20
-21.5548678038
 11
21.4133718163
 21
-21.4592123723
  0
LINE
  5
2BA
100
AcDbEntity
  8
RACCORDO
100
AcDbLine
 62
250
  6
CONTINUOUS
 10
21.9118065059
 20
-20.9834520711
 11
21.9107594143
 21
-20.8736663369
  0
LINE
  5
2BB
100
AcDbEntity
  8
RACCORDO
100
AcDbLine
 62
250
  6
CONTINUOUS
 10
21.4133718163
 20
-21.4592123723
 11
21.411884217
 21
-21.2766388535
  0
LINE
  5
2BC
100
AcDbEntity
  8
RACCORDO
100
AcDbLine
 62
250
  6
CONTINUOUS
 10
21.411884217
 20
-21.2766388535
 11
21.4108374806
 21
-21.0574418012
  0
LINE
  5
2BD
100
AcDbEntity
  8
RACCORDO
100
AcDbLine
 62
250
  6
CONTINUOUS
 10
21.9107594143
 20
-20.8736663369
 11
21.910222445
 21
-20.7533281987
  0
LINE
  5
2BE
100
AcDbEntity
  8
RACCORDO
100
AcDbLine
 62
250
  6
CONTINUOUS
 10
21.4108374806
 20
-21.0574418012
 11
21.4102993229
 21
-20.8153429916
  0
LWPOLYLINE
  5
2BF
100
AcDbEntity
  8
RACCORDO
100
AcDbPolyline
 62
250
  6
CONTINUOUS
 90
9
 70
0
 10
21.4102993229
 20
-20.8153429916
 10
21.4072744335
 20
-16.1268326395
 10
21.4050527521
 20
-11.5201447278
 10
21.4035716312
 20
-6.9124782359
 10
21.4028310707
 20
-2.3042246378
 10
21.4028310706
 20
2.3042246368
 10
21.4035716311
 20
6.912478235
 10
21.405052752
 20
11.5201447271
 10
21.4072744335
 20
16.1268326391
  0
LINE
  5
2C0
100
AcDbEntity
  8
RACCORDO
100
AcDbLine
 62
250
  6
CONTINUOUS
 10
21.4072744335
 20
16.1268326391
 11
21.4105986816
 21
20.9785560279
  0
LINE
  5
2C1
100
AcDbEntity
  8
RACCORDO
100
AcDbLine
 62
250
  6
CONTINUOUS
 10
21.4105986816
 20
20.9785560279
 11
21.4114828778
 21
21.207010374
  0
LINE
  5
2C2
100
AcDbEntity
  8
RACCORDO
100
AcDbLine
 62
250
  6
CONTINUOUS
 10
21.910222445
 20
20.7533281986
 11
21.9107594143
 21
20.8736663369
  0
LINE
  5
2C3
100
AcDbEntity
  8
RACCORDO
100
AcDbLine
 62
250
  6
CONTINUOUS
 10
21.4114828778
 20
21.207010374
 11
21.412832885
 21
21.4031788898
  0
LINE
  5
2C4
100
AcDbEntity
  8
RACCORDO
100
AcDbLine
 62
250
  6
CONTINUOUS
 10
21.412832885
 20
21.4031788898
 11
21.4139532238
 21
21.5098909952
  0
LINE
  5
2C5
100
AcDbEntity
  8
RACCORDO
100
AcDbLine
 62
250
  6
CONTINUOUS
 10
21.9107594143
 20
20.8736663369
 11
21.9118065059
 21
20.9834520712
  0
LINE
  5
2C6
100
AcDbEntity
  8
RACCORDO
100
AcDbLine
 62
250
  6
CONTINUOUS
 10
21.9118065059
 20
20.9834520712
 11
21.9127562501
 21
21.0469056575
  0
LWPOLYLINE
  5
2C7
100
AcDbEntity
  8
RACCORDO
100
AcDbPolyline
 62
250
  6
CONTINUOUS
 90
7
 70
0
 10
21.4139532238
 20
21.5098909952
 10
21.4152083787
 20
21.5938309918
 10
21.4158821259
 20
21.6265018215
 10
21.416572389
 20
21.6526463026
 10
21.4172744909
 20
21.6720822654
 10
21.4179931085
 20
21.6846769543
 10
21.4187282419
 20
21.690343651
  0
LWPOLYLINE
  5
2C8
100
AcDbEntity
  8
RACCORDO
100
AcDbPolyline
 62
250
  6
CONTINUOUS
 90
9
 70
0
 10
21.9127562501
 20
21.0469056575
 10
21.9138780229
 20
21.1003462311
 10
21.9144907817
 20
21.122826616
 10
21.9151350821
 20
21.1422463791
 10
21.9158099698
 20
21.1586648018
 10
21.9165005989
 20
21.1717355114
 10
21.917202021
 20
21.1813430502
 10
21.9179191845
 20
21.1876028759
 10
21.9186520894
 20
21.1905149885
  0
LINE
  5
2C9
100
AcDbEntity
  8
RACCORDO
100
AcDbLine
 62
7
  6
CONTINUOUS
 10
14.3365062048
 20
-22.358692912
 11
14.3227483636
 21
-22.4
  0
LINE
  5
2CA
100
AcDbEntity
  8
RACCORDO
100
AcDbLine
 62
250
  6
CONTINUOUS
 10
-21.7247786601
 20
20.7319298882
 11
21.4102366754
 21
20.7321506272
  0
LINE
  5
2CB
100
AcDbEntity
  8
RACCORDO
100
AcDbLine
 62
250
  6
CONTINUOUS
 10
-21.6687282419
 20
21.690343651
 11
21.4187282419
 21
21.690343651
  0
LINE
  5
2CC
100
AcDbEntity
  8
RACCORDO
100
AcDbLine
 62
7
  6
CONTINUOUS
 10
-21.7751522961
 20
21.85
 11
21.5251522961
 21
21.85
  0
LWPOLYLINE
  5
2CD
100
AcDbEntity
  8
RACCORDO
100
AcDbPolyline
 62
250
  6
CONTINUOUS
 90
13
 70
0
 10
21.4102366754
 20
20.7321496541
 10
21.4747782587
 20
20.7319295286
 10
21.538239906
 20
20.7313661947
 10
21.5995597474
 20
20.7304690784
 10
21.6577117508
 20
20.7292531907
 10
21.7117228898
 20
20.7277388765
 10
21.7606894249
 20
20.7259514741
 10
21.8037920253
 20
20.7239208913
 10
21.840309478
 20
20.7216811046
 10
21.8696307562
 20
20.7192695914
 10
21.8912652426
 20
20.7167267021
 10
21.9048509389
 20
20.7140949855
 10
21.9101605228
 20
20.7114184766
  0
LWPOLYLINE
  5
2CE
100
AcDbEntity
  8
0
100
AcDbPolyline
 62
7
  6
CONTINUOUS
 90
5
 70
0
 43
0.3500000006
 10
26.0865732651
 20
-1.0714295425
 10
25.8722865143
 20
-0.7142849579
 10
25.2294285278
 20
-0.7142849579
 10
24.8008572922
 20
-1.0714295425
 10
24.8008572922
 20
-1.9285708809
  0
LINE
  5
2CF
100
AcDbEntity
  8
RACCORDO
100
AcDbLine
 62
7
  6
CONTINUOUS
 10
14.3227483636
 20
22.4
 11
14.3365062048
 21
22.358692912
  0
LWPOLYLINE
  5
2D0
100
AcDbEntity
  8
RACCORDO
100
AcDbPolyline
 62
7
  6
CONTINUOUS
 90
10
 70
0
 10
22.2469165827
 20
16.1914557528
 10
22.2454964233
 20
16.2221502136
 10
22.2363652935
 20
16.333492305
 10
22.2210435279
 20
16.4440959109
 10
22.1995873473
 20
16.55361774
 10
22.1720705539
 20
16.6617186338
 10
22.1385840957
 20
16.7680645713
 10
22.0992404562
 20
16.8723246239
 10
22.0541682069
 20
16.9741807198
 10
22.025
 20
17.0312655491
  0
LINE
  5
2D1
100
AcDbEntity
  8
RACCORDO
100
AcDbLine
 62
7
  6
CONTINUOUS
 10
22.2718859314
 20
16.2311860772
 11
22.275
 21
16.119659166
  0
LWPOLYLINE
  5
2D2
100
AcDbEntity
  8
RACCORDO
100
AcDbPolyline
 62
250
  6
CONTINUOUS
 90
4
 70
0
 10
22.0484310684
 20
16.1347897054
 10
22.0458044533
 20
16.2356077373
 10
22.0376447894
 20
16.3355702384
 10
22.025
 20
16.427092407
  0
LINE
  5
2D3
100
AcDbEntity
  8
RACCORDO
100
AcDbLine
 62
250
  6
CONTINUOUS
 10
22.2484006074
 20
16.1104158367
 11
22.2469165827
 21
16.1914557528
  0
LINE
  5
2D4
100
AcDbEntity
  8
RACCORDO
100
AcDbLine
 62
250
  6
CONTINUOUS
 10
22.0484310684
 20
-16.1347897054
 11
22.025
 21
-5.2021040512
  0
LWPOLYLINE
  5
2D5
100
AcDbEntity
  8
RACCORDO
100
AcDbPolyline
 62
250
  6
CONTINUOUS
 90
9
 70
0
 10
21.910222445
 20
-20.7533281987
 10
21.9071982827
 20
-16.1100656818
 10
21.9049766027
 20
-11.5081202958
 10
21.9034954827
 20
-6.9055823185
 10
21.9027549231
 20
-2.3020565098
 10
21.9027549236
 20
2.3020618901
 10
21.9034954838
 20
6.9055871607
 10
21.9049766038
 20
11.508124062
 10
21.9071982835
 20
16.1100678339
  0
LINE
  5
2D6
100
AcDbEntity
  8
RACCORDO
100
AcDbLine
 62
7
  6
CONTINUOUS
 10
22.025
 20
-21.3500571074
 11
22.025
 21
21.3500571074
  0
LINE
  5
2D7
100
AcDbEntity
  8
RACCORDO
100
AcDbLine
 62
7
  6
CONTINUOUS
 10
22.275
 20
-16.1196590187
 11
22.275
 21
16.1196590187
  0
LINE
  5
2D8
100
AcDbEntity
  8
RACCORDO
100
AcDbLine
 62
250
  6
CONTINUOUS
 10
22.2484006074
 20
-16.1104158367
 11
22.2140000578
 21
0.0455274361
  0
LINE
  5
2D9
100
AcDbEntity
  8
RACCORDO
100
AcDbLine
 62
250
  6
CONTINUOUS
 10
21.9071982835
 20
16.1100678339
 11
21.910222445
 21
20.7533281986
  0
LINE
  5
2DA
100
AcDbEntity
  8
RACCORDO
100
AcDbLine
 62
250
  6
CONTINUOUS
 10
22.025
 20
5.2021040512
 11
22.0484310684
 21
16.1347897054
  0
LINE
  5
2DB
100
AcDbEntity
  8
RACCORDO
100
AcDbLine
 62
250
  6
CONTINUOUS
 10
22.2140000578
 20
0.0455274361
 11
22.2484006074
 21
16.1104158367
  0
LINE
  5
2DC
100
AcDbEntity
  8
RACCORDO
100
AcDbLine
 62
250
  6
CONTINUOUS
 10
22.2469165842
 20
-16.1914557126
 11
22.2484006074
 21
-16.1104158367
  0
LINE
  5
2DD
100
AcDbEntity
  8
RACCORDO
100
AcDbLine
 62
7
  6
CONTINUOUS
 10
22.275
 20
-16.119659166
 11
22.2718859314
 21
-16.2311860772
  0
LWPOLYLINE
  5
2DE
100
AcDbEntity
  8
RACCORDO
100
AcDbPolyline
 62
7
  6
CONTINUOUS
 90
10
 70
0
 10
22.2718859314
 20
-16.2311860772
 10
22.2626362366
 20
-16.3418465971
 10
22.2472509158
 20
-16.4516407259
 10
22.2256447272
 20
-16.5609588341
 10
22.1979029126
 20
-16.6694105511
 10
22.1642811968
 20
-16.7758247651
 10
22.124690118
 20
-16.8801722426
 10
22.0792191382
 20
-16.9824822171
 10
22.0283923677
 20
-17.081671278
 10
22.025
 20
-17.0874682035
  0
LINE
  5
2DF
100
AcDbEntity
  8
DRAFT
100
AcDbLine
 62
7
  6
CONTINUOUS
 10
7.9970718961
 20
-23.4301797403
 11
7.9272516364
 21
-23.5
  0
LINE
  5
2E0
100
AcDbEntity
  8
RACCORDO
100
AcDbLine
 62
250
  6
CONTINUOUS
 10
16.5387936198
 20
22.1833408737
 11
14.3397884908
 21
22.1833408737
  0
LINE
  5
2E1
100
AcDbEntity
  8
RACCORDO
100
AcDbLine
 62
250
  6
CONTINUOUS
 10
5.7112063802
 20
22.1833408737
 11
7.9102115092
 21
22.1833408737
  0
LINE
  5
2E2
100
AcDbEntity
  8
0
100
AcDbLine
 62
7
  6
CONTINUOUS
 10
8.025
 20
22.2
 11
14.225
 21
22.2
  0
LINE
  5
2E3
100
AcDbEntity
  8
RACCORDO
100
AcDbLine
 62
250
  6
CONTINUOUS
 10
16.5387936197
 20
22.358692912
 11
14.3365062048
 21
22.358692912
  0
LINE
  5
2E4
100
AcDbEntity
  8
RACCORDO
100
AcDbLine
 62
250
  6
CONTINUOUS
 10
5.7112063804
 20
22.358692912
 11
7.9134937952
 21
22.358692912
  0
LINE
  5
2E5
100
AcDbEntity
  8
RACCORDO
100
AcDbLine
 62
7
  6
CONTINUOUS
 10
5.7427746705
 20
22.4
 11
7.9272516364
 21
22.4
  0
LINE
  5
2E6
100
AcDbEntity
  8
RACCORDO
100
AcDbLine
 62
7
  6
CONTINUOUS
 10
14.3227483636
 20
22.4
 11
16.5072253298
 21
22.4
  0
LINE
  5
2E7
100
AcDbEntity
  8
DRAFT
100
AcDbLine
 62
7
  6
CONTINUOUS
 10
14.9136169577
 20
23.5
 11
14.3227483636
 21
23.5
  0
LINE
  5
2E8
100
AcDbEntity
  8
DRAFT
100
AcDbLine
 62
7
  6
CONTINUOUS
 10
7.9272516364
 20
23.5
 11
7.3363830423
 21
23.5
  0
LWPOLYLINE
  5
2E9
100
AcDbEntity
  8
RACCORDO
100
AcDbPolyline
 62
7
  6
CONTINUOUS
 90
7
 70
0
 10
16.5079437848
 20
22.3998821875
 10
16.5627478581
 20
22.3967192955
 10
16.6157870813
 20
22.388021885
 10
16.6670614544
 20
22.3737899561
 10
16.7165709772
 20
22.3540235087
 10
16.7643156498
 20
22.3287225427
 10
16.8102954723
 20
22.2978870583
  0
LWPOLYLINE
  5
2EA
100
AcDbEntity
  8
RACCORDO
100
AcDbPolyline
 62
250
  6
CONTINUOUS
 90
13
 70
0
 10
21.4187282419
 20
21.690343651
 10
21.4839625352
 20
21.6860402342
 10
21.5480812999
 20
21.6732631671
 10
21.6099880833
 20
21.652230942
 10
21.6686242584
 20
21.623303217
 10
21.7229871265
 20
21.586974666
 10
21.7721470641
 20
21.5438665197
 10
21.8152634197
 20
21.4947159421
 10
21.8515988888
 20
21.4403634246
 10
21.8805321226
 20
21.3817384139
 10
21.901568353
 20
21.3198434176
 10
21.9143478532
 20
21.2557368611
 10
21.9186520894
 20
21.1905149885
  0
LWPOLYLINE
  5
2EB
100
AcDbEntity
  8
RACCORDO
100
AcDbPolyline
 62
250
  6
CONTINUOUS
 90
10
 70
0
 10
5.4074076991
 20
22.2559685277
 10
5.4112365331
 20
22.2548991852
 10
5.4181322969
 20
22.2497036991
 10
5.4279148492
 20
22.2405177924
 10
5.4403286362
 20
22.2275814315
 10
5.455049368
 20
22.2112325575
 10
5.4716924898
 20
22.1918982583
 10
5.4898232286
 20
22.1700836112
 10
5.5089679501
 20
22.1463584896
 10
5.5286265325
 20
22.1213426751
  0
LINE
  5
2EC
100
AcDbEntity
  8
DRAFT
100
AcDbLine
 62
7
  6
CONTINUOUS
 10
7.9970718961
 20
23.4301797403
 11
7.9272516364
 21
23.5
  0
LWPOLYLINE
  5
2ED
100
AcDbEntity
  8
RACCORDO
100
AcDbPolyline
 62
250
  6
CONTINUOUS
 90
4
 70
0
 10
22.025
 20
-16.4270924077
 10
22.0376447895
 20
-16.3355702384
 10
22.0458044533
 20
-16.2356077373
 10
22.0484310684
 20
-16.1347897054
  0
LWPOLYLINE
  5
2EE
100
AcDbEntity
  8
0
100
AcDbPolyline
 62
7
  6
CONTINUOUS
 90
3
 70
0
 43
0.3500000006
 10
27.1580002213
 20
-2.7857144852
 10
27.1580002213
 20
-4.28571381
 10
24.8008572922
 20
-3.6428569565
  0
LWPOLYLINE
  5
2EF
100
AcDbEntity
  8
0
100
AcDbPolyline
 62
7
  6
CONTINUOUS
 90
6
 70
0
 43
0.3500000006
 10
27.8008582077
 20
-1.9285708809
 10
27.8008582077
 20
-0.8571427917
 10
27.5865714569
 20
-0.642856041
 10
26.5151445007
 20
-0.642856041
 10
26.0865732651
 20
-1.0714295425
 10
26.0865732651
 20
-1.4999996452
  0
LWPOLYLINE
  5
2F0
100
AcDbEntity
  8
RACCORDO
100
AcDbPolyline
 62
7
  6
CONTINUOUS
 90
10
 70
0
 10
22.025
 20
-17.0312655498
 10
22.0541682287
 20
-16.974180674
 10
22.0992404681
 20
-16.872324595
 10
22.1385841001
 20
-16.7680645587
 10
22.1720705539
 20
-16.6617186338
 10
22.1995873447
 20
-16.5536177516
 10
22.2210435249
 20
-16.4440959288
 10
22.2363652915
 20
-16.3334923225
 10
22.2454964227
 20
-16.2221502252
 10
22.2469165842
 20
-16.1914557126
  0
LINE
  5
2F1
100
AcDbEntity
  8
RACCORDO
100
AcDbLine
 62
250
  6
CONTINUOUS
 10
16.5072253295
 20
-22.4
 11
16.5387936197
 21
-22.358692912
  0
LINE
  5
2F2
100
AcDbEntity
  8
RACCORDO
100
AcDbLine
 62
250
  6
CONTINUOUS
 10
16.8102954701
 20
-22.29788706
 11
16.8426118548
 21
-22.2559941819
  0
LINE
  5
2F3
100
AcDbEntity
  8
RACCORDO
100
AcDbLine
 62
250
  6
CONTINUOUS
 10
16.7213734675
 20
-22.1213426753
 11
17.0662287304
 21
-21.85
  0
LINE
  5
2F4
100
AcDbEntity
  8
RACCORDO
100
AcDbLine
 62
7
  6
CONTINUOUS
 10
16.8426118548
 20
-22.2559941819
 11
17.3586612884
 21
-21.85
  0
LWPOLYLINE
  5
2F5
100
AcDbEntity
  8
RACCORDO
100
AcDbPolyline
 62
7
  6
CONTINUOUS
 90
7
 70
0
 10
16.8102955243
 20
-22.2978870308
 10
16.7643156787
 20
-22.3287225274
 10
16.7165709887
 20
-22.3540235025
 10
16.6670614544
 20
-22.3737899561
 10
16.6157870756
 20
-22.3880218881
 10
16.5627478524
 20
-22.3967192986
 10
16.5079437848
 20
-22.3998821875
  0
LWPOLYLINE
  5
2F6
100
AcDbEntity
  8
RACCORDO
100
AcDbPolyline
 62
250
  6
CONTINUOUS
 90
10
 70
0
 10
16.7213734675
 20
22.1213426753
 10
16.7032909673
 20
22.1341146593
 10
16.6845706305
 20
22.1454407683
 10
16.6652124569
 20
22.1553210022
 10
16.6451007143
 20
22.163788626
 10
16.6243511351
 20
22.1708103748
 10
16.6033109163
 20
22.1762864534
 10
16.5820957903
 20
22.1801835969
 10
16.5605900248
 20
22.1825350704
 10
16.5387936198
 20
22.1833408737
  0
LWPOLYLINE
  5
2F7
100
AcDbEntity
  8
RACCORDO
100
AcDbPolyline
 62
250
  6
CONTINUOUS
 90
10
 70
0
 10
16.8426118548
 20
22.2559941819
 10
16.8129017124
 20
22.2770044255
 10
16.7817792777
 20
22.2957903848
 10
16.7494099497
 20
22.31225793
 10
16.7159697441
 20
22.3263239958
 10
16.6816311159
 20
22.3379216326
 10
16.6465607996
 20
22.3469967245
 10
16.6109375559
 20
22.3535035507
 10
16.5749524194
 20
22.3574086055
 10
16.5387936198
 20
22.358692912
  0
LINE
  5
2F8
100
AcDbEntity
  8
RACCORDO
100
AcDbLine
 62
250
  6
CONTINUOUS
 10
17.0662310685
 20
21.85
 11
16.7213734675
 21
22.1213426753
  0
LINE
  5
2F9
100
AcDbEntity
  8
RACCORDO
100
AcDbLine
 62
7
  6
CONTINUOUS
 10
17.3586613264
 20
21.85
 11
16.8426118548
 21
22.2559941819
  0
LINE
  5
2FA
100
AcDbEntity
  8
RACCORDO
100
AcDbLine
 62
250
  6
CONTINUOUS
 10
16.8426118548
 20
22.2559941819
 11
16.8102954704
 21
22.2978870598
  0
LINE
  5
2FB
100
AcDbEntity
  8
RACCORDO
100
AcDbLine
 62
250
  6
CONTINUOUS
 10
16.5387936197
 20
22.358692912
 11
16.5072253298
 21
22.4
  0
LWPOLYLINE
  5
2FC
100
AcDbEntity
  8
RACCORDO
100
AcDbPolyline
 62
7
  6
CONTINUOUS
 90
10
 70
0
 10
22.025
 20
17.0874682035
 10
22.0283923677
 20
17.081671278
 10
22.0792191393
 20
16.9824822155
 10
22.1246901186
 20
16.8801722418
 10
22.1642811968
 20
16.7758247651
 10
22.1979029126
 20
16.6694105511
 10
22.2256447272
 20
16.5609588341
 10
22.2472509158
 20
16.4516407259
 10
22.2626362366
 20
16.3418465971
 10
22.2718859314
 20
16.2311860772
  0
LWPOLYLINE
  5
2FD
100
AcDbEntity
  8
0
100
AcDbPolyline
 62
7
  6
CONTINUOUS
 90
6
 70
0
 43
0.3500000006
 10
2.0178571315
 20
34.3832876129
 10
3.0892856455
 20
34.3832876129
 10
3.3035715466
 20
34.5975720978
 10
3.3035715466
 20
35.668999054
 10
2.8750000277
 20
36.0975725555
 10
2.4464285088
 20
36.0975725555
  0
LWPOLYLINE
  5
2FE
100
AcDbEntity
  8
0
100
AcDbPolyline
 62
7
  6
CONTINUOUS
 90
3
 70
0
 43
0.3500000006
 10
-0.5535714154
 20
35.0261410675
 10
-2.0535714483
 20
35.0261410675
 10
-1.4107143116
 20
37.3832839966
  0
LWPOLYLINE
  5
2FF
100
AcDbEntity
  8
0
100
AcDbPolyline
 62
7
  6
CONTINUOUS
 90
3
 70
0
 43
0.3500000006
 10
-2.9107142029
 20
35.0261410675
 10
-4.4107143774
 20
35.0261410675
 10
-3.7678572407
 20
37.3832839966
  0
LWPOLYLINE
  5
300
100
AcDbEntity
  8
0
100
AcDbPolyline
 62
7
  6
CONTINUOUS
 90
3
 70
0
 43
0.3500000006
 10
-49.9999608765
 20
44.3928574219
 10
-49.1428184052
 20
45.2499998932
 10
-49.1428184052
 20
42.2499989777
  0
LWPOLYLINE
  5
301
100
AcDbEntity
  8
0
100
AcDbPolyline
 62
7
  6
CONTINUOUS
 90
10
 70
0
 43
0.3500000006
 10
-47.8571024323
 20
42.2499989777
 10
-46.9999599609
 20
43.107141449
 10
-46.7856754761
 20
43.9642839203
 10
-46.7856754761
 20
44.8214263916
 10
-47.2142444458
 20
45.2499998932
 10
-47.8571024323
 20
45.2499998932
 10
-48.2856759338
 20
44.8214263916
 10
-48.2856759338
 20
43.9642839203
 10
-47.8571024323
 20
43.5357149506
 10
-46.9285287781
 20
43.5357149506
  0
LINE
  5
302
100
AcDbEntity
  8
DRAFT
100
AcDbLine
 62
7
  6
CONTINUOUS
 10
-40.2285308829
 20
-22.9664593826
 11
-41.1038018646
 21
-22.9888044635
  0
LINE
  5
303
100
AcDbEntity
  8
DRAFT
100
AcDbLine
 62
7
  6
CONTINUOUS
 10
-41.1038018646
 20
-22.9888044635
 11
-41.9869156314
 21
-23.0105454462
  0
LINE
  5
304
100
AcDbEntity
  8
DRAFT
100
AcDbLine
 62
7
  6
CONTINUOUS
 10
-41.9869156314
 20
-23.0105454462
 11
-42.8778307769
 21
-23.0316662065
  0
LWPOLYLINE
  5
305
100
AcDbEntity
  8
DRAFT
100
AcDbPolyline
 62
7
  6
CONTINUOUS
 90
3
 70
0
 10
-42.8778307769
 20
-23.0316662065
 10
-43.776381675
 20
-23.052311138
 10
-44.2285308829
 20
-23.062428549
  0
LINE
  5
306
100
AcDbEntity
  8
DRAFT
100
AcDbLine
 62
7
  6
CONTINUOUS
 10
-40.2285308829
 20
-23.4301797403
 11
-44.2285308829
 21
-23.5
  0
LINE
  5
307
100
AcDbEntity
  8
DRAFT
100
AcDbLine
 62
7
  6
CONTINUOUS
 10
-43.3261483063
 20
-22.6133327923
 11
-44.2285308829
 21
-22.6184344621
  0
LINE
  5
308
100
AcDbEntity
  8
DRAFT
100
AcDbLine
 62
7
  6
CONTINUOUS
 10
-42.4314152845
 20
-22.6089294917
 11
-43.3261483063
 21
-22.6133327923
  0
LINE
  5
309
100
AcDbEntity
  8
DRAFT
100
AcDbLine
 62
7
  6
CONTINUOUS
 10
-41.544373224
 20
-22.6053018311
 11
-42.4314152845
 21
-22.6089294917
  0
LWPOLYLINE
  5
30A
100
AcDbEntity
  8
DRAFT
100
AcDbPolyline
 62
7
  6
CONTINUOUS
 90
3
 70
0
 10
-40.2285308829
 20
-22.601490735
 10
-40.6651877509
 20
-22.6025227844
 10
-41.544373224
 20
-22.6053018311
  0
LINE
  5
30B
100
AcDbEntity
  8
DRAFT
100
AcDbLine
 62
7
  6
CONTINUOUS
 10
-37.0660246379
 20
-21.1374937549
 11
-40.2285308829
 21
-21.1650925288
  0
LINE
  5
30C
100
AcDbEntity
  8
0
100
AcDbLine
 62
7
  6
CONTINUOUS
 10
-38.6285308829
 20
-22.2
 11
-38.1285308829
 21
-22.2
  0
LINE
  5
30D
100
AcDbEntity
  8
RACCORDO
100
AcDbLine
 62
7
  6
CONTINUOUS
 10
-45.2641059113
 20
-21.7
 11
-45.8285308829
 21
-21.7
  0
LINE
  5
30E
100
AcDbEntity
  8
RACCORDO
100
AcDbLine
 62
7
  6
CONTINUOUS
 10
-48.1285308829
 20
-21.85
 11
-54.2255608696
 21
-21.690343651
  0
LINE
  5
30F
100
AcDbEntity
  8
RACCORDO
100
AcDbLine
 62
250
  6
CONTINUOUS
 10
-48.1285308829
 20
-21.3500571074
 11
-54.2211985986
 21
-21.1905149885
  0
LINE
  5
310
100
AcDbEntity
  8
RACCORDO
100
AcDbLine
 62
7
  6
CONTINUOUS
 10
-45.0167170753
 20
-22.358692912
 11
-44.2285308829
 21
-22.4
  0
LINE
  5
311
100
AcDbEntity
  8
RACCORDO
100
AcDbLine
 62
250
  6
CONTINUOUS
 10
-44.2285308829
 20
-22.29788706
 11
-45.0173527869
 21
-22.2559941819
  0
LWPOLYLINE
  5
312
100
AcDbEntity
  8
RACCORDO
100
AcDbPolyline
 62
250
  6
CONTINUOUS
 90
19
 70
0
 10
-54.2211985986
 20
-21.1905149885
 10
-54.2631866966
 20
-21.1876028758
 10
-54.3042729659
 20
-21.18134305
 10
-54.3444574065
 20
-21.1717355112
 10
-54.3840235237
 20
-21.1586648017
 10
-54.4226878122
 20
-21.1422463792
 10
-54.4595997566
 20
-21.1228266162
 10
-54.4947046889
 20
-21.1003462313
 10
-54.5280572772
 20
-21.0748645059
 10
-54.5589710099
 20
-21.0469056575
 10
-54.5873958403
 20
-21.0164174259
 10
-54.6133818151
 20
-20.9834520711
 10
-54.636392564
 20
-20.9486905913
 10
-54.6563687209
 20
-20.9120765266
 10
-54.6733696518
 20
-20.8736663369
 10
-54.6870370842
 20
-20.8343103993
 10
-54.6972515939
 20
-20.7942921729
 10
-54.704132605
 20
-20.7533281987
 10
-54.7076801175
 20
-20.7114184766
  0
LINE
  5
313
100
AcDbEntity
  8
RACCORDO
100
AcDbLine
 62
250
  6
CONTINUOUS
 10
-55.198523899
 20
-20.7321506269
 11
-55.1943461806
 21
-20.7319304981
  0
LWPOLYLINE
  5
314
100
AcDbEntity
  8
RACCORDO
100
AcDbPolyline
 62
250
  6
CONTINUOUS
 90
3
 70
0
 10
-55.1943461806
 20
-20.7319304981
 10
-54.7720844112
 20
-20.7140950994
 10
-54.7076801175
 20
-20.7114184766
  0
LINE
  5
315
100
AcDbEntity
  8
DRAFT
100
AcDbLine
 62
7
  6
CONTINUOUS
 10
-36.5720505782
 20
-20.6435196952
 11
-40.2285308829
 21
-20.671935187
  0
LINE
  5
316
100
AcDbEntity
  8
RACCORDO
100
AcDbLine
 62
7
  6
CONTINUOUS
 10
-45.3868904723
 20
-20.7
 11
-45.8285308829
 21
-20.7
  0
LINE
  5
317
100
AcDbEntity
  8
RACCORDO
100
AcDbLine
 62
250
  6
CONTINUOUS
 10
-36.5259129223
 20
-19.8501037691
 11
-36.2285308829
 21
-19.8501037691
  0
LINE
  5
318
100
AcDbEntity
  8
DRAFT
100
AcDbLine
 62
7
  6
CONTINUOUS
 10
-36.2285308829
 20
-20.0698149423
 11
-40.2285308829
 21
-20.0349074712
  0
LINE
  5
319
100
AcDbEntity
  8
DRAFT
100
AcDbLine
 62
7
  6
CONTINUOUS
 10
-48.1285308829
 20
-19.9579311623
 11
-45.4723122277
 21
-20.0042956314
  0
LINE
  5
31A
100
AcDbEntity
  8
RACCORDO
100
AcDbLine
 62
250
  6
CONTINUOUS
 10
-44.2285308829
 20
-17.2585598075
 11
-40.2285308829
 21
-17.2358250044
  0
LINE
  5
31B
100
AcDbEntity
  8
RACCORDO
100
AcDbLine
 62
250
  6
CONTINUOUS
 10
-45.615248578
 20
-17.3515261708
 11
-44.2285308829
 21
-17.359429916
  0
LINE
  5
31C
100
AcDbEntity
  8
RACCORDO
100
AcDbLine
 62
7
  6
CONTINUOUS
 10
-45.7184087867
 20
-18.0
 11
-48.1285308829
 21
-17.9158366818
  0
LWPOLYLINE
  5
31D
100
AcDbEntity
  8
RACCORDO
100
AcDbPolyline
 62
250
  6
CONTINUOUS
 90
3
 70
0
 10
-45.9474278137
 20
-16.1347897054
 10
-45.9457734326
 20
-16.1345312375
 10
-45.9408245895
 20
-16.1338691866
  0
LINE
  5
31E
100
AcDbEntity
  8
RACCORDO
100
AcDbLine
 62
250
  6
CONTINUOUS
 10
-45.9408245895
 20
-16.1338691866
 11
-45.8905326733
 21
-16.1275034016
  0
LINE
  5
31F
100
AcDbEntity
  8
RACCORDO
100
AcDbLine
 62
250
  6
CONTINUOUS
 10
-45.8905326733
 20
-16.1275034016
 11
-45.7524090647
 21
-16.1104158367
  0
LINE
  5
320
100
AcDbEntity
  8
RACCORDO
100
AcDbLine
 62
250
  6
CONTINUOUS
 10
-44.2285308829
 20
-16.0215754898
 11
-40.2285308829
 21
-15.9973709177
  0
LINE
  5
321
100
AcDbEntity
  8
RACCORDO
100
AcDbLine
 62
250
  6
CONTINUOUS
 10
-45.7524090647
 20
-16.1104158367
 11
-44.2285308829
 21
-16.1196590187
  0
LINE
  5
322
100
AcDbEntity
  8
RACCORDO
100
AcDbLine
 62
250
  6
CONTINUOUS
 10
-45.8169993275
 20
-17.1970444808
 11
-48.1285308829
 21
-17.1163240202
  0
LWPOLYLINE
  5
323
100
AcDbEntity
  8
RACCORDO
100
AcDbPolyline
 62
250
  6
CONTINUOUS
 90
19
 70
0
 10
-36.6575088936
 20
19.6621652449
 10
-36.6462427976
 20
19.6665278499
 10
-36.6350672017
 20
19.6718153863
 10
-36.623982106
 20
19.678027854
 10
-36.612854891
 20
19.6851863566
 10
-36.6018181762
 20
19.6932697907
 10
-36.5912698199
 20
19.7022148453
 10
-36.5812353986
 20
19.7120800306
 10
-36.5716893358
 20
19.7228068365
 10
-36.5629527613
 20
19.7341564218
 10
-36.5550760861
 20
19.7461788704
 10
-36.5480088991
 20
19.7588240983
 10
-36.5419210965
 20
19.7717030122
 10
-36.5368836889
 20
19.7847970973
 10
-36.5328256656
 20
19.7981248683
 10
-36.5297038909
 20
19.8113527759
 10
-36.5275039862
 20
19.824369637
 10
-36.52624033
 20
19.8372866347
 10
-36.5259129223
 20
19.8501037691
  0
LINE
  5
324
100
AcDbEntity
  8
RACCORDO
100
AcDbLine
 62
250
  6
CONTINUOUS
 10
-40.2285308829
 20
18.3624195349
 11
-36.6575088936
 21
19.6621652449
  0
LINE
  5
325
100
AcDbEntity
  8
RACCORDO
100
AcDbLine
 62
7
  6
CONTINUOUS
 10
-40.2285308829
 20
18.0441190629
 11
-36.5575208113
 21
19.3802574587
  0
LINE
  5
326
100
AcDbEntity
  8
RACCORDO
100
AcDbLine
 62
250
  6
CONTINUOUS
 10
-36.6575088936
 20
-19.6621652449
 11
-40.2285308829
 21
-18.3624195349
  0
LINE
  5
327
100
AcDbEntity
  8
RACCORDO
100
AcDbLine
 62
7
  6
CONTINUOUS
 10
-36.5575208113
 20
-19.3802574587
 11
-40.2285308829
 21
-18.0441190629
  0
LWPOLYLINE
  5
328
100
AcDbEntity
  8
RACCORDO
100
AcDbPolyline
 62
250
  6
CONTINUOUS
 90
8
 70
0
 10
-54.2255608696
 20
21.690343651
 10
-54.22658685
 20
21.6860402342
 10
-54.2273714682
 20
21.6732631671
 10
-54.2279013071
 20
21.652230942
 10
-54.2281673062
 20
21.623303217
 10
-54.2281649168
 20
21.586974666
 10
-54.2278941799
 20
21.5438665197
 10
-54.2265706925
 20
21.4403634246
  0
LWPOLYLINE
  5
329
100
AcDbEntity
  8
0
100
AcDbPolyline
 62
7
  6
CONTINUOUS
 90
3
 70
0
 43
0.3500000006
 10
-45.2142438354
 20
42.5357146454
 10
-45.2856750183
 20
42.3214301605
 10
-45.4285328522
 20
42.0357144928
  0
LWPOLYLINE
  5
32A
100
AcDbEntity
  8
RACCORDO
100
AcDbPolyline
 62
250
  6
CONTINUOUS
 90
7
 70
0
 10
-54.2255608696
 20
-21.690343651
 10
-54.2265868553
 20
-21.6860400703
 10
-54.2273714695
 20
-21.6732625673
 10
-54.2279012965
 20
-21.6522297218
 10
-54.2281672778
 20
-21.6233012699
 10
-54.2281648672
 20
-21.5869719824
 10
-54.2278941093
 20
-21.5438632289
  0
LWPOLYLINE
  5
32B
100
AcDbEntity
  8
RACCORDO
100
AcDbPolyline
 62
250
  6
CONTINUOUS
 90
10
 70
0
 10
-54.7076801175
 20
-20.7114184766
 10
-54.8773867459
 20
-16.1100656818
 10
-55.0046667119
 20
-11.5081202958
 10
-55.0895200155
 20
-6.9055823185
 10
-55.1319466498
 20
-2.3020565098
 10
-55.1319466216
 20
2.3020618901
 10
-55.0895199522
 20
6.9055871607
 10
-55.0046666486
 20
11.508124062
 10
-54.8773867037
 20
16.1100678339
 10
-54.7076801175
 20
20.7114184766
  0
LINE
  5
32C
100
AcDbEntity
  8
RACCORDO
100
AcDbLine
 62
7
  6
CONTINUOUS
 10
-55.4324139802
 20
-14.0028011817
 11
-55.4335366162
 21
-13.9626732377
  0
LWPOLYLINE
  5
32D
100
AcDbEntity
  8
RACCORDO
100
AcDbPolyline
 62
250
  6
CONTINUOUS
 90
19
 70
0
 10
-54.7076801175
 20
20.7114184766
 10
-54.7041326049
 20
20.7533281986
 10
-54.6972515937
 20
20.7942921728
 10
-54.6870370841
 20
20.8343103992
 10
-54.6733696518
 20
20.8736663369
 10
-54.656368721
 20
20.9120765267
 10
-54.6363925641
 20
20.9486905914
 10
-54.6133818153
 20
20.9834520712
 10
-54.5873958403
 20
21.0164174259
 10
-54.5589710099
 20
21.0469056575
 10
-54.5280572771
 20
21.0748645059
 10
-54.4947046889
 20
21.1003462311
 10
-54.4595997565
 20
21.122826616
 10
-54.4226878121
 20
21.1422463791
 10
-54.3840235237
 20
21.1586648018
 10
-54.3444574066
 20
21.1717355114
 10
-54.3042729659
 20
21.1813430502
 10
-54.2631866966
 20
21.1876028759
 10
-54.2211985986
 20
21.1905149885
  0
LINE
  5
32E
100
AcDbEntity
  8
RACCORDO
100
AcDbLine
 62
250
  6
CONTINUOUS
 10
-54.2242869851
 20
21.3198434176
 11
-54.2211985986
 21
21.1905149885
  0
LINE
  5
32F
100
AcDbEntity
  8
RACCORDO
100
AcDbLine
 62
250
  6
CONTINUOUS
 10
-54.2265706925
 20
21.4403634246
 11
-54.2242869851
 21
21.3198434176
  0
LINE
  5
330
100
AcDbEntity
  8
RACCORDO
100
AcDbLine
 62
250
  6
CONTINUOUS
 10
-54.2278941093
 20
-21.5438632289
 11
-54.2265705951
 21
-21.4403596906
  0
LINE
  5
331
100
AcDbEntity
  8
RACCORDO
100
AcDbLine
 62
250
  6
CONTINUOUS
 10
-54.2265705951
 20
-21.4403596906
 11
-54.2242869043
 21
-21.3198407395
  0
LINE
  5
332
100
AcDbEntity
  8
RACCORDO
100
AcDbLine
 62
250
  6
CONTINUOUS
 10
-54.2242869043
 20
-21.3198407395
 11
-54.2211985986
 21
-21.1905149885
  0
LWPOLYLINE
  5
333
100
AcDbEntity
  8
0
100
AcDbPolyline
 62
7
  6
CONTINUOUS
 90
3
 70
0
 43
0.3500000006
 10
-43.5197042084
 20
34.535712204
 10
-43.5911308594
 20
34.3214277191
 10
-43.7339886932
 20
34.0357120514
  0
LWPOLYLINE
  5
334
100
AcDbEntity
  8
RACCORDO
100
AcDbPolyline
 62
250
  6
CONTINUOUS
 90
10
 70
0
 10
-45.212371536
 20
22.1213426753
 10
-45.2066670562
 20
22.1463616214
 10
-45.1959253067
 20
22.1700900793
 10
-45.1804269298
 20
22.1919081124
 10
-45.1605768404
 20
22.2112456961
 10
-45.1368936481
 20
22.2275976109
 10
-45.1099961069
 20
22.240536642
 10
-45.08058695
 20
22.2497247403
 10
-45.0494345297
 20
22.2549218548
 10
-45.0173527435
 20
22.2559922042
  0
LWPOLYLINE
  5
335
100
AcDbEntity
  8
RACCORDO
100
AcDbPolyline
 62
250
  6
CONTINUOUS
 90
10
 70
0
 10
-45.8102673271
 20
17.2518722247
 10
-45.8051429179
 20
17.2715341847
 10
-45.7948165042
 20
17.2900115868
 10
-45.7795658638
 20
17.3068073934
 10
-45.7598012355
 20
17.3214698013
 10
-45.7360542828
 20
17.3336043953
 10
-45.7089637932
 20
17.3428847577
 10
-45.6792584942
 20
17.3490612487
 10
-45.6477374514
 20
17.3519677225
 10
-45.6152485731
 20
17.3515259954
  0
LWPOLYLINE
  5
336
100
AcDbEntity
  8
RACCORDO
100
AcDbPolyline
 62
250
  6
CONTINUOUS
 90
10
 70
0
 10
-45.8102673267
 20
-17.2518722246
 10
-45.8051413546
 20
-17.2715331165
 10
-45.7948138045
 20
-17.2900093731
 10
-45.7795624657
 20
-17.3068040217
 10
-45.7597975671
 20
-17.3214653215
 10
-45.7360507428
 20
-17.3335989144
 10
-45.7089607323
 20
-17.3428784318
 10
-45.6792561997
 20
-17.3490542743
 10
-45.6477361344
 20
-17.3519603244
 10
-45.6152483597
 20
-17.3515184153
  0
LWPOLYLINE
  5
337
100
AcDbEntity
  8
RACCORDO
100
AcDbPolyline
 62
250
  6
CONTINUOUS
 90
10
 70
0
 10
-45.212371536
 20
-22.1213426753
 10
-45.2066672168
 20
-22.1463618377
 10
-45.1959255846
 20
-22.1700905234
 10
-45.1804272804
 20
-22.1919087851
 10
-45.1605772205
 20
-22.2112465886
 10
-45.136894017
 20
-22.2275987049
 10
-45.1099964289
 20
-22.2405379107
 10
-45.0805871954
 20
-22.2497261502
 10
-45.0494346766
 20
-22.2549233668
 10
-45.017352778
 20
-22.2559937756
  0
LINE
  5
338
100
AcDbEntity
  8
RACCORDO
100
AcDbLine
 62
7
  6
CONTINUOUS
 10
-48.1285308829
 20
-21.85
 11
-48.1285308829
 21
21.85
  0
LINE
  5
339
100
AcDbEntity
  8
RACCORDO
100
AcDbLine
 62
250
  6
CONTINUOUS
 10
-45.199442369
 20
20.7623372186
 11
-45.0173527869
 21
22.2559941819
  0
LINE
  5
33A
100
AcDbEntity
  8
RACCORDO
100
AcDbLine
 62
250
  6
CONTINUOUS
 10
-45.615248578
 20
17.3515261708
 11
-45.3991866021
 21
19.1238598304
  0
LINE
  5
33B
100
AcDbEntity
  8
RACCORDO
100
AcDbLine
 62
250
  6
CONTINUOUS
 10
-45.3991866021
 20
19.1238598304
 11
-45.199442369
 21
20.7623372186
  0
LINE
  5
33C
100
AcDbEntity
  8
RACCORDO
100
AcDbLine
 62
7
  6
CONTINUOUS
 10
-47.9135672091
 20
0.1218693434
 11
-45.2047591144
 21
22.1833408737
  0
LINE
  5
33D
100
AcDbEntity
  8
RACCORDO
100
AcDbLine
 62
250
  6
CONTINUOUS
 10
-47.7185484601
 20
0.0974954747
 11
-45.7524090647
 21
16.1104158367
  0
LWPOLYLINE
  5
33E
100
AcDbEntity
  8
RACCORDO
100
AcDbPolyline
 62
250
  6
CONTINUOUS
 90
3
 70
0
 10
-47.9135672091
 20
-0.1218693434
 10
-47.911912828
 20
-0.1216108755
 10
-47.9069639848
 20
-0.1209488247
  0
LINE
  5
33F
100
AcDbEntity
  8
RACCORDO
100
AcDbLine
 62
250
  6
CONTINUOUS
 10
-47.9069639848
 20
-0.1209488247
 11
-47.8566720679
 21
-0.1145830398
  0
LINE
  5
340
100
AcDbEntity
  8
RACCORDO
100
AcDbLine
 62
250
  6
CONTINUOUS
 10
-47.8566720679
 20
-0.1145830398
 11
-47.7185484601
 21
-0.0974954747
  0
LWPOLYLINE
  5
341
100
AcDbEntity
  8
RACCORDO
100
AcDbPolyline
 62
250
  6
CONTINUOUS
 90
5
 70
0
 10
-47.9135672091
 20
0.1218693434
 10
-47.9119128281
 20
0.1216108756
 10
-47.9069639849
 20
0.1209488247
 10
-47.898803501
 20
0.1198942706
 10
-47.7185484601
 20
0.0974954747
  0
LINE
  5
342
100
AcDbEntity
  8
RACCORDO
100
AcDbLine
 62
7
  6
CONTINUOUS
 10
-45.2047591144
 20
-22.1833408737
 11
-47.9135672091
 21
-0.1218693434
  0
LINE
  5
343
100
AcDbEntity
  8
RACCORDO
100
AcDbLine
 62
250
  6
CONTINUOUS
 10
-45.7524090647
 20
-16.1104158367
 11
-47.7185484601
 21
-0.0974954747
  0
LINE
  5
344
100
AcDbEntity
  8
RACCORDO
100
AcDbLine
 62
250
  6
CONTINUOUS
 10
-45.2641120987
 20
-20.2317380637
 11
-45.330743018
 21
-19.685452003
  0
LINE
  5
345
100
AcDbEntity
  8
RACCORDO
100
AcDbLine
 62
250
  6
CONTINUOUS
 10
-45.330743018
 20
-19.685452003
 11
-45.615248578
 21
-17.3515261708
  0
LINE
  5
346
100
AcDbEntity
  8
RACCORDO
100
AcDbLine
 62
250
  6
CONTINUOUS
 10
-45.0173527869
 20
-22.2559941819
 11
-45.2641120987
 21
-20.2317380637
  0
LWPOLYLINE
  5
347
100
AcDbEntity
  8
RACCORDO
100
AcDbPolyline
 62
250
  6
CONTINUOUS
 90
16
 70
0
 10
-47.7185484601
 20
-0.0974954747
 10
-47.7200334306
 20
-0.0845197297
 10
-47.7213060526
 20
-0.0715367368
 10
-47.7223663262
 20
-0.0585464961
 10
-47.7232140653
 20
-0.0455475249
 10
-47.723849456
 20
-0.0325413058
 10
-47.7242730563
 20
-0.0195322867
 10
-47.7244850765
 20
-0.0065204141
 10
-47.7244853064
 20
0.0064942584
 10
-47.7242736739
 20
0.0195071224
 10
-47.7238503831
 20
0.0325181835
 10
-47.7232152298
 20
0.0455274361
 10
-47.7223675294
 20
0.058530254
 10
-47.7213070535
 20
0.0715250955
 10
-47.7200340304
 20
0.0845135024
 10
-47.7185484601
 20
0.0974954747
  0
LWPOLYLINE
  5
348
100
AcDbEntity
  8
0
100
AcDbPolyline
 62
7
  6
CONTINUOUS
 90
4
 70
0
 43
0.3500000006
 10
-46.5911317749
 20
36.6071439972
 10
-46.5911317749
 20
37.2500019836
 10
-45.0911313171
 20
37.2500019836
 10
-45.9482737885
 20
34.2500010681
  0
LINE
  5
349
100
AcDbEntity
  8
RACCORDO
100
AcDbLine
 62
7
  6
CONTINUOUS
 10
-46.2285308829
 20
-21.3
 11
-46.2285308829
 21
-21.1
  0
LINE
  5
34A
100
AcDbEntity
  8
RACCORDO
100
AcDbLine
 62
7
  6
CONTINUOUS
 10
-46.2285308829
 20
21.1
 11
-46.2285308829
 21
21.3
  0
LINE
  5
34B
100
AcDbEntity
  8
RACCORDO
100
AcDbLine
 62
250
  6
CONTINUOUS
 10
-45.7524090647
 20
16.1104158367
 11
-45.615248578
 21
17.3515261708
  0
LINE
  5
34C
100
AcDbEntity
  8
RACCORDO
100
AcDbLine
 62
250
  6
CONTINUOUS
 10
-45.7400582111
 20
-16.2221502252
 11
-45.7524090647
 21
-16.1104158367
  0
LINE
  5
34D
100
AcDbEntity
  8
RACCORDO
100
AcDbLine
 62
250
  6
CONTINUOUS
 10
-45.615248578
 20
-17.3515261708
 11
-45.6799340688
 21
-16.7680645587
  0
LWPOLYLINE
  5
34E
100
AcDbEntity
  8
RACCORDO
100
AcDbPolyline
 62
250
  6
CONTINUOUS
 90
3
 70
0
 10
-45.6799340688
 20
-16.7680645587
 10
-45.7156858663
 20
-16.4440959288
 10
-45.7400582111
 20
-16.2221502252
  0
LINE
  5
34F
100
AcDbEntity
  8
RACCORDO
100
AcDbLine
 62
250
  6
CONTINUOUS
 10
-45.8285308829
 20
-21.7
 11
-45.8285308829
 21
-20.7
  0
LINE
  5
350
100
AcDbEntity
  8
RACCORDO
100
AcDbLine
 62
250
  6
CONTINUOUS
 10
-45.8285308829
 20
20.7
 11
-45.8285308829
 21
21.7
  0
LINE
  5
351
100
AcDbEntity
  8
DRAFT
100
AcDbLine
 62
7
  6
CONTINUOUS
 10
-44.2285308829
 20
-23.5
 11
-44.2285308829
 21
-22.4
  0
LINE
  5
352
100
AcDbEntity
  8
RACCORDO
100
AcDbLine
 62
7
  6
CONTINUOUS
 10
-44.2285308829
 20
-22.3998821875
 11
-44.2285308829
 21
22.3998821875
  0
LINE
  5
353
100
AcDbEntity
  8
DRAFT
100
AcDbLine
 62
7
  6
CONTINUOUS
 10
-44.2285308829
 20
22.4
 11
-44.2285308829
 21
23.5
  0
LWPOLYLINE
  5
354
100
AcDbEntity
  8
RACCORDO
100
AcDbPolyline
 62
250
  6
CONTINUOUS
 90
10
 70
0
 10
-45.0173527869
 20
22.2559941819
 10
-45.0166860826
 20
22.2770044255
 10
-45.0161860523
 20
22.2957903848
 10
-45.0158411524
 20
22.31225793
 10
-45.0156299275
 20
22.3263239958
 10
-45.0155520415
 20
22.3379216326
 10
-45.0156281906
 20
22.3469967245
 10
-45.0158588969
 20
22.3535035507
 10
-45.016224699
 20
22.3574086055
 10
-45.0167170753
 20
22.358692912
  0
LWPOLYLINE
  5
355
100
AcDbEntity
  8
0
100
AcDbPolyline
 62
7
  6
CONTINUOUS
 90
2
 70
0
 43
0.3500000006
 10
-43.2142432251
 20
42.2499989777
 10
-43.2142432251
 20
43.7499994354
  0
LINE
  5
356
100
AcDbEntity
  8
DRAFT
100
AcDbLine
 62
7
  6
CONTINUOUS
 10
-40.2285308829
 20
-21.1650925288
 11
-40.2285308829
 21
-23.4301797403
  0
LINE
  5
357
100
AcDbEntity
  8
RACCORDO
100
AcDbLine
 62
7
  6
CONTINUOUS
 10
-40.2285308829
 20
-20.671935187
 11
-40.2285308829
 21
20.671935187
  0
LINE
  5
358
100
AcDbEntity
  8
DRAFT
100
AcDbLine
 62
7
  6
CONTINUOUS
 10
-40.2285308829
 20
21.1650925288
 11
-40.2285308829
 21
23.4301797403
  0
LINE
  5
359
100
AcDbEntity
  8
DRAFT
100
AcDbLine
 62
7
  6
CONTINUOUS
 10
-38.6285308829
 20
-21.1511295404
 11
-38.6285308829
 21
-22.2
  0
LINE
  5
35A
100
AcDbEntity
  8
DRAFT
100
AcDbLine
 62
7
  6
CONTINUOUS
 10
-38.6285308829
 20
21.1511295404
 11
-38.6285308829
 21
22.2
  0
LWPOLYLINE
  5
35B
100
AcDbEntity
  8
RACCORDO
100
AcDbPolyline
 62
250
  6
CONTINUOUS
 90
19
 70
0
 10
-36.5259129223
 20
-19.8501037691
 10
-36.5261589637
 20
-19.8380271518
 10
-36.5273050165
 20
-19.8257188254
 10
-36.5293510807
 20
-19.8131787899
 10
-36.5322715682
 20
-19.8002751747
 10
-36.5360920671
 20
-19.7871398504
 10
-36.540889342
 20
-19.774168429
 10
-36.5467275234
 20
-19.7613645642
 10
-36.5535424808
 20
-19.7487246023
 10
-36.5612185875
 20
-19.7366331939
 10
-36.5698128757
 20
-19.725125471
 10
-36.5792683133
 20
-19.7141663015
 10
-36.5892981772
 20
-19.7040349405
 10
-36.5999349661
 20
-19.6947883257
 10
-36.6111461813
 20
-19.6863695194
 10
-36.6225476036
 20
-19.678886964
 10
-36.6340111598
 20
-19.6723768068
 10
-36.6456649232
 20
-19.6668029005
 10
-36.6575088936
 20
-19.6621652449
  0
LINE
  5
35C
100
AcDbEntity
  8
RACCORDO
100
AcDbLine
 62
250
  6
CONTINUOUS
 10
-36.5259129223
 20
-20.0672197286
 11
-36.5259129223
 21
-19.8501037691
  0
LINE
  5
35D
100
AcDbEntity
  8
RACCORDO
100
AcDbLine
 62
250
  6
CONTINUOUS
 10
-36.5259129223
 20
19.8501037691
 11
-36.5259129223
 21
20.0672197286
  0
LINE
  5
35E
100
AcDbEntity
  8
DRAFT
100
AcDbLine
 62
7
  6
CONTINUOUS
 10
-36.2285308829
 20
-20.3
 11
-36.2285308829
 21
-20.0698149423
  0
LINE
  5
35F
100
AcDbEntity
  8
RACCORDO
100
AcDbLine
 62
7
  6
CONTINUOUS
 10
-36.2285308829
 20
-20.0698149423
 11
-36.2285308829
 21
-19.8501037691
  0
LINE
  5
360
100
AcDbEntity
  8
RACCORDO
100
AcDbLine
 62
7
  6
CONTINUOUS
 10
-36.2285308829
 20
19.8501037691
 11
-36.2285308829
 21
20.0698149423
  0
LINE
  5
361
100
AcDbEntity
  8
DRAFT
100
AcDbLine
 62
7
  6
CONTINUOUS
 10
-36.2285308829
 20
20.0698149423
 11
-36.2285308829
 21
20.3
  0
LWPOLYLINE
  5
362
100
AcDbEntity
  8
RACCORDO
100
AcDbPolyline
 62
250
  6
CONTINUOUS
 90
10
 70
0
 10
-45.0167170753
 20
-22.358692912
 10
-45.0162246989
 20
-22.3574086041
 10
-45.0158588965
 20
-22.3535035464
 10
-45.0156281901
 20
-22.3469967175
 10
-45.015552041
 20
-22.3379216264
 10
-45.0156299272
 20
-22.3263239948
 10
-45.0158411524
 20
-22.3122579344
 10
-45.0161860524
 20
-22.295790391
 10
-45.0166860827
 20
-22.2770044306
 10
-45.0173527869
 20
-22.2559941819
  0
LWPOLYLINE
  5
363
100
AcDbEntity
  8
RACCORDO
100
AcDbPolyline
 62
250
  6
CONTINUOUS
 90
4
 70
0
 10
-36.5644188931
 20
-19.4019573962
 10
-36.5604066211
 20
-19.3900443384
 10
-36.5580941214
 20
-19.3827696928
 10
-36.5575208113
 20
-19.3802574587
  0
LINE
  5
364
100
AcDbEntity
  8
RACCORDO
100
AcDbLine
 62
250
  6
CONTINUOUS
 10
-36.5772413827
 20
-19.4388108945
 11
-36.5644188931
 21
-19.4019573962
  0
LINE
  5
365
100
AcDbEntity
  8
RACCORDO
100
AcDbLine
 62
250
  6
CONTINUOUS
 10
-36.6066474135
 20
-19.5214536854
 11
-36.5772413827
 21
-19.4388108945
  0
LINE
  5
366
100
AcDbEntity
  8
RACCORDO
100
AcDbLine
 62
250
  6
CONTINUOUS
 10
-36.6575088936
 20
-19.6621652449
 11
-36.6066474135
 21
-19.5214536854
  0
LINE
  5
367
100
AcDbEntity
  8
RACCORDO
100
AcDbLine
 62
250
  6
CONTINUOUS
 10
-45.8169993275
 20
17.1970444808
 11
-48.1285308829
 21
17.1163240202
  0
LINE
  5
368
100
AcDbEntity
  8
RACCORDO
100
AcDbLine
 62
250
  6
CONTINUOUS
 10
-44.2285308829
 20
16.1196590187
 11
-45.7524090647
 21
16.1104158367
  0
LINE
  5
369
100
AcDbEntity
  8
RACCORDO
100
AcDbLine
 62
250
  6
CONTINUOUS
 10
-44.2285308829
 20
17.359429916
 11
-45.615248578
 21
17.3515261708
  0
LINE
  5
36A
100
AcDbEntity
  8
RACCORDO
100
AcDbLine
 62
250
  6
CONTINUOUS
 10
-40.2285308829
 20
17.2358250044
 11
-44.2285308829
 21
17.2585598076
  0
LINE
  5
36B
100
AcDbEntity
  8
RACCORDO
100
AcDbLine
 62
250
  6
CONTINUOUS
 10
-40.2285308829
 20
15.9973709177
 11
-44.2285308829
 21
16.0215754898
  0
LWPOLYLINE
  5
36C
100
AcDbEntity
  8
RACCORDO
100
AcDbPolyline
 62
250
  6
CONTINUOUS
 90
5
 70
0
 10
-45.9474278137
 20
16.1347897054
 10
-45.9457735098
 20
16.1345312496
 10
-45.9408248639
 20
16.1338692249
 10
-45.9326646433
 20
16.1328147045
 10
-45.7524090648
 20
16.1104158357
  0
LINE
  5
36D
100
AcDbEntity
  8
RACCORDO
100
AcDbLine
 62
250
  6
CONTINUOUS
 10
-36.6575088936
 20
19.6621652449
 11
-36.606647414
 21
19.5214536866
  0
LINE
  5
36E
100
AcDbEntity
  8
RACCORDO
100
AcDbLine
 62
250
  6
CONTINUOUS
 10
-36.606647414
 20
19.5214536866
 11
-36.577241383
 21
19.4388108954
  0
LWPOLYLINE
  5
36F
100
AcDbEntity
  8
RACCORDO
100
AcDbPolyline
 62
250
  6
CONTINUOUS
 90
5
 70
0
 10
-36.577241383
 20
19.4388108954
 10
-36.5644188932
 20
19.4019573966
 10
-36.5604066212
 20
19.3900443386
 10
-36.5580941214
 20
19.3827696928
 10
-36.5575208113
 20
19.3802574587
  0
LINE
  5
370
100
AcDbEntity
  8
RACCORDO
100
AcDbLine
 62
7
  6
CONTINUOUS
 10
-45.7184087867
 20
18.0
 11
-48.1285308829
 21
17.9158366818
  0
LWPOLYLINE
  5
371
100
AcDbEntity
  8
0
100
AcDbPolyline
 62
7
  6
CONTINUOUS
 90
10
 70
0
 43
0.3500000006
 10
-43.5911308594
 20
34.7500012207
 10
-43.5197042084
 20
34.6071433868
 10
-43.5197042084
 20
34.535712204
 10
-43.6625620422
 20
34.392858902
 10
-43.7339886932
 20
34.392858902
 10
-43.8054198761
 20
34.464285553
 10
-43.8054198761
 20
34.535712204
 10
-43.7339886932
 20
34.6785700378
 10
-43.6625620422
 20
34.7500012207
 10
-43.5911308594
 20
34.7500012207
  0
LINE
  5
372
100
AcDbEntity
  8
DRAFT
100
AcDbLine
 62
7
  6
CONTINUOUS
 10
-36.2285308829
 20
20.0698149423
 11
-40.2285308829
 21
20.0349074712
  0
LINE
  5
373
100
AcDbEntity
  8
RACCORDO
100
AcDbLine
 62
250
  6
CONTINUOUS
 10
-36.5259129223
 20
19.8501037691
 11
-36.2285308829
 21
19.8501037691
  0
LINE
  5
374
100
AcDbEntity
  8
RACCORDO
100
AcDbLine
 62
7
  6
CONTINUOUS
 10
-45.3868904723
 20
20.7
 11
-45.8285308829
 21
20.7
  0
LINE
  5
375
100
AcDbEntity
  8
DRAFT
100
AcDbLine
 62
7
  6
CONTINUOUS
 10
-36.5720505782
 20
20.6435196952
 11
-40.2285308829
 21
20.671935187
  0
LINE
  5
376
100
AcDbEntity
  8
DRAFT
100
AcDbLine
 62
7
  6
CONTINUOUS
 10
-37.0660246379
 20
21.1374937549
 11
-40.2285308829
 21
21.1650925288
  0
LWPOLYLINE
  5
377
100
AcDbEntity
  8
RACCORDO
100
AcDbPolyline
 62
250
  6
CONTINUOUS
 90
3
 70
0
 10
-55.198500433
 20
20.7321496541
 10
-55.1943230144
 20
20.7319295286
 10
-54.7076801175
 20
20.7114184766
  0
LINE
  5
378
100
AcDbEntity
  8
DRAFT
100
AcDbLine
 62
7
  6
CONTINUOUS
 10
-36.2285308829
 20
-20.3
 11
-38.1285308829
 21
-22.2
  0
LINE
  5
379
100
AcDbEntity
  8
RACCORDO
100
AcDbLine
 62
250
  6
CONTINUOUS
 10
-45.0173527869
 20
22.2559941819
 11
-44.2285308829
 21
22.2978870598
  0
LINE
  5
37A
100
AcDbEntity
  8
RACCORDO
100
AcDbLine
 62
7
  6
CONTINUOUS
 10
-45.0167170753
 20
22.358692912
 11
-44.2285308829
 21
22.4
  0
LINE
  5
37B
100
AcDbEntity
  8
RACCORDO
100
AcDbLine
 62
250
  6
CONTINUOUS
 10
-54.2211985986
 20
21.1905149885
 11
-48.1285308829
 21
21.3500571074
  0
LINE
  5
37C
100
AcDbEntity
  8
RACCORDO
100
AcDbLine
 62
7
  6
CONTINUOUS
 10
-54.2255608696
 20
21.690343651
 11
-48.1285308829
 21
21.85
  0
LINE
  5
37D
100
AcDbEntity
  8
RACCORDO
100
AcDbLine
 62
7
  6
CONTINUOUS
 10
-45.2641059113
 20
21.7
 11
-45.8285308829
 21
21.7
  0
LINE
  5
37E
100
AcDbEntity
  8
0
100
AcDbLine
 62
7
  6
CONTINUOUS
 10
-38.6285308829
 20
22.2
 11
-38.1285308829
 21
22.2
  0
LINE
  5
37F
100
AcDbEntity
  8
DRAFT
100
AcDbLine
 62
7
  6
CONTINUOUS
 10
-40.2285308829
 20
22.601490735
 11
-41.1038018646
 21
22.6037981215
  0
LINE
  5
380
100
AcDbEntity
  8
DRAFT
100
AcDbLine
 62
7
  6
CONTINUOUS
 10
-41.1038018646
 20
22.6037981215
 11
-41.9869156314
 21
22.6070164204
  0
LINE
  5
381
100
AcDbEntity
  8
DRAFT
100
AcDbLine
 62
7
  6
CONTINUOUS
 10
-41.9869156314
 20
22.6070164204
 11
-42.8778307769
 21
22.6110373026
  0
LWPOLYLINE
  5
382
100
AcDbEntity
  8
DRAFT
100
AcDbPolyline
 62
7
  6
CONTINUOUS
 90
3
 70
0
 10
-42.8778307769
 20
22.6110373026
 10
-43.776381675
 20
22.6158020512
 10
-44.2285308829
 20
22.6184344621
  0
LINE
  5
383
100
AcDbEntity
  8
DRAFT
100
AcDbLine
 62
7
  6
CONTINUOUS
 10
-36.2285308829
 20
20.3
 11
-38.1285308829
 21
22.2
  0
LWPOLYLINE
  5
384
100
AcDbEntity
  8
0
100
AcDbPolyline
 62
7
  6
CONTINUOUS
 90
10
 70
0
 43
0.3500000006
 10
-45.2856750183
 20
42.7499991302
 10
-45.2142438354
 20
42.6071412964
 10
-45.2142438354
 20
42.5357146454
 10
-45.3571016693
 20
42.3928568115
 10
-45.4285328522
 20
42.3928568115
 10
-45.4999595032
 20
42.4642834625
 10
-45.4999595032
 20
42.5357146454
 10
-45.4285328522
 20
42.6785724792
 10
-45.3571016693
 20
42.7499991302
 10
-45.2856750183
 20
42.7499991302
  0
LWPOLYLINE
  5
385
100
AcDbEntity
  8
0
100
AcDbPolyline
 62
7
  6
CONTINUOUS
 90
8
 70
0
 43
0.3500000006
 10
-42.5197039032
 20
34.2500010681
 10
-41.6625614319
 20
34.2500010681
 10
-41.2339879303
 20
34.6785700378
 10
-41.2339879303
 20
35.5357125092
 10
-41.6625614319
 20
35.9642860107
 10
-42.5197039032
 20
35.9642860107
 10
-42.5197039032
 20
37.2500019836
 10
-41.2339879303
 20
37.2500019836
  0
LWPOLYLINE
  5
386
100
AcDbEntity
  8
0
100
AcDbPolyline
 62
7
  6
CONTINUOUS
 90
3
 70
0
 43
0.3500000006
 10
-42.7142430725
 20
42.8928569641
 10
-44.2142435303
 20
42.8928569641
 10
-43.5713900757
 20
45.2499998932
  0
LINE
  5
387
100
AcDbEntity
  8
DRAFT
100
AcDbLine
 62
7
  6
CONTINUOUS
 10
-40.2285308829
 20
23.4301797403
 11
-44.2285308829
 21
23.5
  0
LINE
  5
388
100
AcDbEntity
  8
DRAFT
100
AcDbLine
 62
7
  6
CONTINUOUS
 10
-43.3261483063
 20
23.0420552218
 11
-44.2285308829
 21
23.062428549
  0
LINE
  5
389
100
AcDbEntity
  8
DRAFT
100
AcDbLine
 62
7
  6
CONTINUOUS
 10
-42.4314152845
 20
23.0211663992
 11
-43.3261483063
 21
23.0420552218
  0
LINE
  5
38A
100
AcDbEntity
  8
DRAFT
100
AcDbLine
 62
7
  6
CONTINUOUS
 10
-41.544373224
 20
22.9997609513
 11
-42.4314152845
 21
23.0211663992
  0
LWPOLYLINE
  5
38B
100
AcDbEntity
  8
DRAFT
100
AcDbPolyline
 62
7
  6
CONTINUOUS
 90
3
 70
0
 10
-40.2285308829
 20
22.9664593826
 10
-40.6651877509
 20
22.977700893
 10
-41.544373224
 20
22.9997609513
  0
ARC
  5
38C
100
AcDbEntity
  8
RACCORDO
100
AcDbCircle
 62
7
  6
CONTINUOUS
 10
22.375
 20
0.0
 40
28.0
100
AcDbArc
 50
127.2167524546
 51
128.7047311007
  0
ARC
  5
38D
100
AcDbEntity
  8
RACCORDO
100
AcDbCircle
 62
7
  6
CONTINUOUS
 10
22.375
 20
0.0
 40
28.0
100
AcDbArc
 50
231.2952689033
 51
232.7832476643
  0
ARC
  5
38E
100
AcDbEntity
  8
RACCORDO
100
AcDbCircle
 62
7
  6
CONTINUOUS
 10
-0.125
 20
0.0
 40
28.0
100
AcDbArc
 50
307.2167524544
 51
308.7047311007
  0
ARC
  5
38F
100
AcDbEntity
  8
RACCORDO
100
AcDbCircle
 62
7
  6
CONTINUOUS
 10
-0.125
 20
0.0
 40
28.0
100
AcDbArc
 50
51.295268903
 51
52.7832476643
  0
ARC
  5
390
100
AcDbEntity
  8
DRAFT
100
AcDbCircle
 62
7
  6
CONTINUOUS
 10
22.375
 20
0.0
 40
27.9
100
AcDbArc
 50
235.7520965189
 51
237.3831491754
  0
ARC
  5
391
100
AcDbEntity
  8
DRAFT
100
AcDbCircle
 62
7
  6
CONTINUOUS
 10
22.375
 20
0.0
 40
27.9
100
AcDbArc
 50
233.4047963402
 51
234.164044678
  0
ARC
  5
392
100
AcDbEntity
  8
DRAFT
100
AcDbCircle
 62
7
  6
CONTINUOUS
 10
-0.125
 20
0.0
 40
27.9
100
AcDbArc
 50
305.835955322
 51
306.5952036598
  0
ARC
  5
393
100
AcDbEntity
  8
DRAFT
100
AcDbCircle
 62
7
  6
CONTINUOUS
 10
-0.125
 20
0.0
 40
27.9
100
AcDbArc
 50
302.6168508246
 51
304.2479034811
  0
ARC
  5
394
100
AcDbEntity
  8
DRAFT
100
AcDbCircle
 62
7
  6
CONTINUOUS
 10
22.375
 20
0.0
 40
27.9
100
AcDbArc
 50
125.835955322
 51
126.5952036598
  0
ARC
  5
395
100
AcDbEntity
  8
DRAFT
100
AcDbCircle
 62
7
  6
CONTINUOUS
 10
22.375
 20
0.0
 40
27.9
100
AcDbArc
 50
122.6168508246
 51
124.2479034811
  0
ARC
  5
396
100
AcDbEntity
  8
DRAFT
100
AcDbCircle
 62
7
  6
CONTINUOUS
 10
-0.125
 20
0.0
 40
27.9
100
AcDbArc
 50
55.7520965189
 51
57.3831491754
  0
ARC
  5
397
100
AcDbEntity
  8
DRAFT
100
AcDbCircle
 62
7
  6
CONTINUOUS
 10
-0.125
 20
0.0
 40
27.9
100
AcDbArc
 50
53.4047963402
 51
54.164044678
  0
CIRCLE
  5
398
100
AcDbEntity
  8
0
100
AcDbCircle
 62
7
  6
CONTINUOUS
 10
-11.375
 20
-14.0
 40
1.2
  0
CIRCLE
  5
399
100
AcDbEntity
  8
DRAFT
100
AcDbCircle
 62
7
  6
CONTINUOUS
 10
-11.375
 20
-14.0
 40
1.0
  0
CIRCLE
  5
39A
100
AcDbEntity
  8
RACCORDO
100
AcDbCircle
 62
7
  6
CONTINUOUS
 10
-11.375
 20
-14.0
 40
0.9939257687
  0
CIRCLE
  5
39B
100
AcDbEntity
  8
RACCORDO
100
AcDbCircle
 62
250
  6
CONTINUOUS
 10
-11.375
 20
-14.0
 40
0.9029566832
  0
ARC
  5
39C
100
AcDbEntity
  8
DRAFT
100
AcDbCircle
 62
7
  6
CONTINUOUS
 10
6.175
 20
23.1
 40
0.5
100
AcDbArc
 50
254.3932919591
 51
355.690566844
  0
ARC
  5
39D
100
AcDbEntity
  8
DRAFT
100
AcDbCircle
 62
7
  6
CONTINUOUS
 10
16.075
 20
23.1
 40
0.5
100
AcDbArc
 50
184.309433156
 51
285.6067080409
  0
ARC
  5
39E
100
AcDbEntity
  8
DRAFT
100
AcDbCircle
 62
7
  6
CONTINUOUS
 10
6.175
 20
-23.1
 40
0.5
100
AcDbArc
 50
4.309433156
 51
105.6067080409
  0
ARC
  5
39F
100
AcDbEntity
  8
DRAFT
100
AcDbCircle
 62
7
  6
CONTINUOUS
 10
16.075
 20
-23.1
 40
0.5
100
AcDbArc
 50
74.3932919591
 51
175.690566844
  0
ARC
  5
3A0
100
AcDbEntity
  8
0
100
AcDbCircle
 62
7
  6
CONTINUOUS
 10
-45.4285308829
 20
-14.0
 40
10.0
100
AcDbArc
 50
181.6970324673
 51
181.7463481536
  0
ARC
  5
3A1
100
AcDbEntity
  8
RACCORDO
100
AcDbCircle
 62
7
  6
CONTINUOUS
 10
-54.1993839213
 20
-20.690686326
 40
1.0
100
AcDbArc
 50
182.3764107502
 51
268.5
  0
ARC
  5
3A2
100
AcDbEntity
  8
RACCORDO
100
AcDbCircle
 62
7
  6
CONTINUOUS
 10
-46.9210210575
 20
0.0
 40
1.0
100
AcDbArc
 50
173.0
 51
187.0
  0
ARC
  5
3A3
100
AcDbEntity
  8
RACCORDO
100
AcDbCircle
 62
7
  6
CONTINUOUS
 10
-36.7285308829
 20
-19.8501037691
 40
0.5
100
AcDbArc
 50
0.0
 51
70.0
  0
ARC
  5
3A4
100
AcDbEntity
  8
RACCORDO
100
AcDbCircle
 62
7
  6
CONTINUOUS
 10
-45.8285308829
 20
-21.3
 40
0.4
100
AcDbArc
 50
180.0
 51
270.0
  0
ARC
  5
3A5
100
AcDbEntity
  8
RACCORDO
100
AcDbCircle
 62
7
  6
CONTINUOUS
 10
-45.8285308829
 20
-21.1
 40
0.4
100
AcDbArc
 50
90.0
 51
180.0
  0
ARC
  5
3A6
100
AcDbEntity
  8
RACCORDO
100
AcDbCircle
 62
7
  6
CONTINUOUS
 10
-45.0062509068
 20
-22.1589586754
 40
0.2
100
AcDbArc
 50
187.0024041964
 51
267.0004174671
  0
ARC
  5
3A7
100
AcDbEntity
  8
RACCORDO
100
AcDbCircle
 62
7
  6
CONTINUOUS
 10
-54.1993839213
 20
20.690686326
 40
1.0
100
AcDbArc
 50
91.5
 51
177.6235892498
  0
ARC
  5
3A8
100
AcDbEntity
  8
RACCORDO
100
AcDbCircle
 62
7
  6
CONTINUOUS
 10
-36.7285308829
 20
19.8501037691
 40
0.5
100
AcDbArc
 50
290.0
 51
360.0
  0
ARC
  5
3A9
100
AcDbEntity
  8
RACCORDO
100
AcDbCircle
 62
7
  6
CONTINUOUS
 10
-45.8285308829
 20
21.3
 40
0.4
100
AcDbArc
 50
90.0
 51
180.0
  0
ARC
  5
3AA
100
AcDbEntity
  8
RACCORDO
100
AcDbCircle
 62
7
  6
CONTINUOUS
 10
-45.8285308829
 20
21.1
 40
0.4
100
AcDbArc
 50
180.0
 51
270.0
  0
ARC
  5
3AB
100
AcDbEntity
  8
RACCORDO
100
AcDbCircle
 62
7
  6
CONTINUOUS
 10
-45.0062498841
 20
22.158967005
 40
0.2
100
AcDbArc
 50
93.0
 51
173.0
  0
ARC
  5
3AC
100
AcDbEntity
  8
0
100
AcDbCircle
 62
7
  6
CONTINUOUS
 10
444.3714691171
 20
0.0
 40
500.0
100
AcDbArc
 50
181.4557761487
 51
181.7538599141
  0
ARC
  5
3AD
100
AcDbEntity
  8
RACCORDO
100
AcDbCircle
 62
7
  6
CONTINUOUS
 10
444.3714691171
 20
0.0
 40
500.0
100
AcDbArc
 50
177.6235892498
 51
182.3764107502
  0
ELLIPSE
  5
3AE
100
AcDbEntity
  8
RACCORDO
100
AcDbEllipse
 62
7
  6
CONTINUOUS
 10
7.9136765007
 20
22.158967005
 30
0.0
 11
0.0
 21
0.2
 31
0.0
 40
0.0174550649
 41
0.0523598776
 42
1.4486232792
  0
ELLIPSE
  5
3AF
100
AcDbEntity
  8
RACCORDO
100
AcDbEllipse
 62
7
  6
CONTINUOUS
 10
14.3363234993
 20
22.158967005
 30
0.0
 11
0.0
 21
0.2
 31
0.0
 40
0.0174550649
 41
-1.4486232792
 42
-0.0523598776
  0
ELLIPSE
  5
3B0
100
AcDbEntity
  8
RACCORDO
100
AcDbEllipse
 62
7
  6
CONTINUOUS
 10
14.3363234993
 20
-22.158967005
 30
0.0
 11
-0.0
 21
0.2
 31
0.0
 40
0.0174550649
 41
-3.089232776
 42
-1.6929693744
  0
ELLIPSE
  5
3B1
100
AcDbEntity
  8
RACCORDO
100
AcDbEllipse
 62
7
  6
CONTINUOUS
 10
7.9136765007
 20
-22.158967005
 30
0.0
 11
0.0
 21
0.2
 31
0.0
 40
0.0174550649
 41
-4.5902159327
 42
-3.1939525311
  0
ELLIPSE
  5
3B2
100
AcDbEntity
  8
RACCORDO
100
AcDbEllipse
 62
7
  6
CONTINUOUS
 10
-21.774923836
 20
21.3498286038
 30
0.0
 11
-0.2774630169
 21
0.416247366
 31
0.0
 40
0.9995051766
 41
-0.5877156075
 42
0.9826238685
  0
ELLIPSE
  5
3B3
100
AcDbEntity
  8
RACCORDO
100
AcDbEllipse
 62
7
  6
CONTINUOUS
 10
-21.774923836
 20
-21.3498286038
 30
0.0
 11
0.2774630169
 21
0.416247366
 31
0.0
 40
0.9995051766
 41
-4.1242165221
 42
-2.5538770461
  0
ELLIPSE
  5
3B4
100
AcDbEntity
  8
RACCORDO
100
AcDbEllipse
 62
7
  6
CONTINUOUS
 10
21.524923836
 20
21.3498286038
 30
0.0
 11
0.2774630169
 21
0.416247366
 31
0.0
 40
0.9995051766
 41
-0.9826238685
 42
0.5877156075
  0
ELLIPSE
  5
3B5
100
AcDbEntity
  8
RACCORDO
100
AcDbEllipse
 62
7
  6
CONTINUOUS
 10
21.524923836
 20
-21.3498286038
 30
0.0
 11
-0.2774630169
 21
0.416247366
 31
0.0
 40
0.9995051766
 41
-3.7293082611
 42
-2.1589687851
  0
ENDSEC
  0
SECTION
  2
OBJECTS
  0
DICTIONARY
  5
C
100
AcDbDictionary
280
0
281
1
  3
ACAD_GROUP
350
D
  3
ACAD_MLINESTYLE
350
17
  3
ACAD_LAYOUT
350
1A
  3
ACAD_PLOTSETTINGS
350
19
  3
ACAD_PLOTSTYLENAME
350
E
  0
DICTIONARY
  5
D
102
{ACAD_REACTORS
330
C
102
}
100
AcDbDictionary
280
0
281
1
  0
ACDBDICTIONARYWDFLT
  5
E
102
{ACAD_REACTORS
330
C
102
}
100
AcDbDictionary
281
1
  3
Normal
350
F
100
AcDbDictionaryWithDefault
340
F
  0
DICTIONARY
  5
17
102
{ACAD_REACTORS
330
C
102
}
100
AcDbDictionary
280
0
281
1
  3
Standard
350
18
  0
DICTIONARY
  5
19
102
{ACAD_REACTORS
330
C
102
}
100
AcDbDictionary
281
1
  0
DICTIONARY
  5
1A
102
{ACAD_REACTORS
330
C
102
}
100
AcDbDictionary
281
1
  3
Model
350
3B6
  3
Layout1
350
3B7
  0
ACDBPLACEHOLDER
  5
F
102
{ACAD_REACTORS
330
E
102
}
  0
MLINESTYLE
  5
18
102
{ACAD_REACTORS
330
17
102
}
100
AcDbMlineStyle
  2
STANDARD
 70
0
  3

 62
256
 51
90.0
 52
90.0
 71
2
 49
0.5
 62
256
  6
BYLAYER
 49
-0.5
 62
256
  6
BYLAYER
  0
LAYOUT
  5
3B6
102
{ACAD_REACTORS
330
1A
102
}
100
AcDbPlotSettings
  1

  2
none_device
  4
ISO_A4_(297.00_x_210.00_MM)
  6

 40
0.0
 41
0.0
 42
0.0
 43
0.0
 44
297.0
 45
210.0
 46
0.0
 47
0.0
 48
0.0
 49
0.0
140
0.0
141
0.0
142
1.0
143
1.0
 70
1024
 72
1
 73
0
 74
0
  7

 75
0
147
1.0
148
0.0
149
0.0
100
AcDbLayout
  1
Model
 70
0
 71
0
 10
0.0
 20
0.0
 11
297.0
 21
210.0
 12
0.0
 22
0.0
 32
0.0
 14
0.0
 24
0.0
 34
0.0
 15
0.0
 25
0.0
 35
0.0
146
0.0
 13
0.0
 23
0.0
 33
0.0
 16
1.0
 26
0.0
 36
0.0
 17
0.0
 27
1.0
 37
0.0
 76
0
330
214
345
0
346
0
  0
LAYOUT
  5
3B7
102
{ACAD_REACTORS
330
1A
102
}
100
AcDbPlotSettings
  1

  2
none_device
  4
ISO_A4_(297.00_x_210.00_MM)
  6

 40
0.0
 41
0.0
 42
0.0
 43
0.0
 44
297.0
 45
210.0
 46
0.0
 47
0.0
 48
0.0
 49
0.0
140
0.0
141
0.0
142
1.0
143
1.0
 70
0
 72
1
 73
0
 74
0
  7

 75
0
147
1.0
148
0.0
149
0.0
100
AcDbLayout
  1
Layout1
 70
0
 71
1
 10
0.0
 20
0.0
 11
297.0
 21
210.0
 12
0.0
 22
0.0
 32
0.0
 14
0.0
 24
0.0
 34
0.0
 15
0.0
 25
0.0
 35
0.0
146
0.0
 13
0.0
 23
0.0
 33
0.0
 16
1.0
 26
0.0
 36
0.0
 17
0.0
 27
1.0
 37
0.0
 76
0
330
215
345
0
346
0
  0
ENDSEC
  0
EOF
