  0
SECTION
  2
HEADER
  9
$ACADVER
  1
AC1024
  9
$DWGCODEPAGE
  3
ANSI_1252
  9
$EXTMAX
 10
297.0
 20
210.0
 30
0.0
  9
$EXTMIN
 10
0.0
 20
0.0
 30
0.0
  9
$LIMMIN
 10
0.0
 20
0.0
  9
$LIMMAX
 10
297.0
 20
210.0
  9
$VIEWCTR
 10
148.5
 20
105.0
  9
$VIEWSIZE
 40
210.0
  9
$CLAYER
  8
0
  9
$LTSCALE
 40
16.335
  9
$CELTYPE
  6
BYLAYER
  9
$DIMSCALE
 40
1.0
  9
$DIMASZ
 40
3.0
  9
$DIMEXO
 40
0.5
  9
$DIMDLI
 40
11.286
  9
$DIMEXE
 40
1.5
  9
$DIMCEN
 40
2.673
  9
$DIMLFAC
 40
1.0
  9
$DIMBLK
  1
_FILLED
  9
$DIMALT
 70
0
  9
$DIMALTF
 40
0.0393700787
  9
$DIMTXT
 40
3.0
  9
$DIMTOL
 70
1
  9
$DIMLIM
 70
0
  9
$DIMTFAC
 40
1.0
  9
$DIMTP
 40
0.01
  9
$DIMTM
 40
0.01
  9
$DIMGAP
 40
0.625
  9
$DIMDSEP
 70
44
  9
$AUNITS
 70
0
  9
$PDMODE
 70
3
  9
$PDSIZE
 40
3.0
  9
$HANDSEED
  5
442
  9
$TILEMODE
 70
1
  9
$MEASUREMENT
 70
1
  9
$INSUNITS
 70
4
  0
ENDSEC
  0
SECTION
  2
CLASSES
  0
CLASS
  1
ACDBDICTIONARYWDFLT
  2
AcDbDictionaryWithDefault
  3
AutoCAD 2000
 90
0
 91
1
280
0
281
0
  0
CLASS
  1
ACDBPLACEHOLDER
  2
AcDbPlaceHolder
  3
AutoCAD 2000
 90
0
 91
1
280
0
281
0
  0
CLASS
  1
LAYOUT
  2
AcDbLayout
  3
AutoCAD 2000
 90
0
 91
0
280
0
281
0
  0
ENDSEC
  0
SECTION
  2
TABLES
  0
TABLE
  2
VPORT
  5
8
100
AcDbSymbolTable
 70
2
  0
VPORT
  5
1F4
100
AcDbSymbolTableRecord
100
AcDbViewportTableRecord
  2
*ACTIVE
 70
0
 10
0.0
 20
0.0
 11
1.0
 21
1.0
 12
148.5
 22
105.0
 13
0.0
 23
0.0
 14
1.0
 24
1.0
 15
0.0
 25
0.0
 16
0.0
 26
0.0
 36
1.0
 17
0.0
 27
0.0
 37
0.0
 40
210.0
 41
1.4142857143
 42
50.0
 43
0.0
 44
0.0
 50
0.0
 51
0.0
 71
0
 72
100
 73
1
 74
1
 75
0
 76
0
 77
0
 78
0
  0
ENDTAB
  0
TABLE
  2
LTYPE
  5
5
100
AcDbSymbolTable
 70
6
  0
LTYPE
  5
14
100
AcDbSymbolTableRecord
100
AcDbLinetypeTableRecord
  2
BYBLOCK
 70
0
  3

 72
65
 73
0
 40
0.0
  0
LTYPE
  5
15
100
AcDbSymbolTableRecord
100
AcDbLinetypeTableRecord
  2
BYLAYER
 70
0
  3

 72
65
 73
0
 40
0.0
  0
LTYPE
  5
16
100
AcDbSymbolTableRecord
100
AcDbLinetypeTableRecord
  2
CONTINUOUS
 70
64
  3
Solid line
 72
65
 73
0
 40
0.0
  0
LTYPE
  5
1F5
100
AcDbSymbolTableRecord
100
AcDbLinetypeTableRecord
  2
CENTER
 70
64
  3
____ _ ____ _ ____ _ ____ _ ____ _ ____ _ ____
 72
65
 73
4
 40
0.6
 49
0.375
 74
0
 49
-0.075
 74
0
 49
0.075
 74
0
 49
-0.075
 74
0
  0
LTYPE
  5
1F6
100
AcDbSymbolTableRecord
100
AcDbLinetypeTableRecord
  2
HIDDEN
 70
64
  3
- - - - - - - - - - - - - - - - - - - -
 72
65
 73
2
 40
0.2
 49
0.1
 74
0
 49
-0.1
 74
0
  0
LTYPE
  5
1F7
100
AcDbSymbolTableRecord
100
AcDbLinetypeTableRecord
  2
PHANTOM
 70
64
  3
_____ _ _ _____ _ _ _____ _ _ _____
 72
65
 73
6
 40
0.8
 49
0.45
 74
0
 49
-0.05
 74
0
 49
0.1
 74
0
 49
-0.05
 74
0
 49
0.1
 74
0
 49
-0.05
 74
0
  0
LTYPE
  5
1F8
100
AcDbSymbolTableRecord
100
AcDbLinetypeTableRecord
  2
DOT
 70
64
  3
. . . . . . . . . . . . . . . . . . . .
 72
65
 73
2
 40
0.2
 49
0.1
 74
0
 49
-0.1
 74
0
  0
LTYPE
  5
1F9
100
AcDbSymbolTableRecord
100
AcDbLinetypeTableRecord
  2
DASHED
 70
64
  3
- - - - - - - - - - - - - - - - - - - -
 72
65
 73
2
 40
0.2
 49
0.1
 74
0
 49
-0.1
 74
0
  0
ENDTAB
  0
TABLE
  2
LAYER
  5
2
100
AcDbSymbolTable
 70
36
  0
LAYER
  5
10
100
AcDbSymbolTableRecord
100
AcDbLayerTableRecord
  2
0
 70
0
 62
7
  6
CONTINUOUS
370
-3
390
F
  0
LAYER
  5
1FA
100
AcDbSymbolTableRecord
100
AcDbLayerTableRecord
  2
DEFAULT_1
 70
0
 62
7
  6
CENTER
370
-3
390
F
  0
LAYER
  5
1FB
100
AcDbSymbolTableRecord
100
AcDbLayerTableRecord
  2
DEFAULT_2
 70
0
 62
7
  6
HIDDEN
370
-3
390
F
  0
LAYER
  5
1FC
100
AcDbSymbolTableRecord
100
AcDbLayerTableRecord
  2
DEFAULT_3
 70
0
 62
7
  6
PHANTOM
370
-3
390
F
  0
LAYER
  5
1FD
100
AcDbSymbolTableRecord
100
AcDbLayerTableRecord
  2
ASSI
 70
0
 62
7
  6
CONTINUOUS
370
-3
390
F
  0
LAYER
  5
1FE
100
AcDbSymbolTableRecord
100
AcDbLayerTableRecord
  2
COORDINATE
 70
0
 62
7
  6
CONTINUOUS
370
-3
390
F
  0
LAYER
  5
1FF
100
AcDbSymbolTableRecord
100
AcDbLayerTableRecord
  2
COORD_ORIGINE
 70
0
 62
7
  6
CONTINUOUS
370
-3
390
F
  0
LAYER
  5
200
100
AcDbSymbolTableRecord
100
AcDbLayerTableRecord
  2
COPY_PUBLISH
 70
0
 62
7
  6
CONTINUOUS
370
-3
390
F
  0
LAYER
  5
201
100
AcDbSymbolTableRecord
100
AcDbLayerTableRecord
  2
COSMETIC
 70
0
 62
7
  6
CONTINUOUS
370
-3
390
F
  0
LAYER
  5
202
100
AcDbSymbolTableRecord
100
AcDbLayerTableRecord
  2
COSMETICI
 70
0
 62
7
  6
CONTINUOUS
370
-3
390
F
  0
LAYER
  5
203
100
AcDbSymbolTableRecord
100
AcDbLayerTableRecord
  2
CURVE
 70
0
 62
7
  6
CONTINUOUS
370
-3
390
F
  0
LAYER
  5
204
100
AcDbSymbolTableRecord
100
AcDbLayerTableRecord
  2
DRAFT
 70
0
 62
7
  6
CONTINUOUS
370
-3
390
F
  0
LAYER
  5
205
100
AcDbSymbolTableRecord
100
AcDbLayerTableRecord
  2
IMPORT_IGES
 70
0
 62
7
  6
CONTINUOUS
370
-3
390
F
  0
LAYER
  5
206
100
AcDbSymbolTableRecord
100
AcDbLayerTableRecord
  2
INTFCLR_1
 70
0
 62
7
  6
CONTINUOUS
370
-3
390
F
  0
LAYER
  5
207
100
AcDbSymbolTableRecord
100
AcDbLayerTableRecord
  2
NOTE
 70
0
 62
7
  6
CONTINUOUS
370
-3
390
F
  0
LAYER
  5
208
100
AcDbSymbolTableRecord
100
AcDbLayerTableRecord
  2
PIANI
 70
0
 62
7
  6
CONTINUOUS
370
-3
390
F
  0
LAYER
  5
209
100
AcDbSymbolTableRecord
100
AcDbLayerTableRecord
  2
PIANI_ORIGINE
 70
0
 62
7
  6
CONTINUOUS
370
-3
390
F
  0
LAYER
  5
20A
100
AcDbSymbolTableRecord
100
AcDbLayerTableRecord
  2
PUNTI
 70
0
 62
7
  6
CONTINUOUS
370
-3
390
F
  0
LAYER
  5
20B
100
AcDbSymbolTableRecord
100
AcDbLayerTableRecord
  2
RACCORDO
 70
0
 62
7
  6
CONTINUOUS
370
-3
390
F
  0
LAYER
  5
20C
100
AcDbSymbolTableRecord
100
AcDbLayerTableRecord
  2
SIMBOLI
 70
0
 62
7
  6
CONTINUOUS
370
-3
390
F
  0
LAYER
  5
20D
100
AcDbSymbolTableRecord
100
AcDbLayerTableRecord
  2
SIMBOLO
 70
0
 62
7
  6
CONTINUOUS
370
-3
390
F
  0
LAYER
  5
20E
100
AcDbSymbolTableRecord
100
AcDbLayerTableRecord
  2
SMUSSO
 70
0
 62
7
  6
CONTINUOUS
370
-3
390
F
  0
LAYER
  5
20F
100
AcDbSymbolTableRecord
100
AcDbLayerTableRecord
  2
SNAPLINE
 70
0
 62
7
  6
CONTINUOUS
370
-3
390
F
  0
LAYER
  5
210
100
AcDbSymbolTableRecord
100
AcDbLayerTableRecord
  2
SUPERFICI
 70
0
 62
7
  6
CONTINUOUS
370
-3
390
F
  0
LAYER
  5
211
100
AcDbSymbolTableRecord
100
AcDbLayerTableRecord
  2
TRASH
 70
0
 62
7
  6
CONTINUOUS
370
-3
390
F
  0
LAYER
  5
212
100
AcDbSymbolTableRecord
100
AcDbLayerTableRecord
  2
XSEC_DATUMS
 70
0
 62
7
  6
CONTINUOUS
370
-3
390
F
  0
ENDTAB
  0
TABLE
  2
STYLE
  5
3
100
AcDbSymbolTable
 70
1
  0
STYLE
  5
11
100
AcDbSymbolTableRecord
100
AcDbTextStyleTableRecord
  2
STANDARD
 70
0
 40
0.0
 41
0.8
 50
0.0
 71
0
 42
0.2
  3
txt
  4

  0
STYLE
  5
213
100
AcDbSymbolTableRecord
100
AcDbTextStyleTableRecord
  2
TEXTSTYLE_1
 70
0
 40
0.0
 41
0.8
 50
0.0
 71
0
 42
0.2
  3
gdt
  4

  0
ENDTAB
  0
TABLE
  2
VIEW
  5
6
100
AcDbSymbolTable
 70
0
  0
ENDTAB
  0
TABLE
  2
UCS
  5
7
100
AcDbSymbolTable
 70
0
  0
ENDTAB
  0
TABLE
  2
APPID
  5
9
100
AcDbSymbolTable
 70
1
  0
APPID
  5
214
100
AcDbSymbolTableRecord
100
AcDbRegAppTableRecord
  2
ACAD
 70
0
  0
ENDTAB
  0
TABLE
  2
BLOCK_RECORD
  5
1
100
AcDbSymbolTable
 70
0
  0
BLOCK_RECORD
  5
215
100
AcDbSymbolTableRecord
100
AcDbBlockTableRecord
  2
*Model_Space
  0
BLOCK_RECORD
  5
216
100
AcDbSymbolTableRecord
100
AcDbBlockTableRecord
  2
*Paper_Space
  0
BLOCK_RECORD
  5
217
100
AcDbSymbolTableRecord
100
AcDbBlockTableRecord
  2
_FILLED
  0
BLOCK_RECORD
  5
218
100
AcDbSymbolTableRecord
100
AcDbBlockTableRecord
  2
*D0
  0
BLOCK_RECORD
  5
219
100
AcDbSymbolTableRecord
100
AcDbBlockTableRecord
  2
*D1
  0
BLOCK_RECORD
  5
21A
100
AcDbSymbolTableRecord
100
AcDbBlockTableRecord
  2
*D2
  0
BLOCK_RECORD
  5
21B
100
AcDbSymbolTableRecord
100
AcDbBlockTableRecord
  2
*D3
  0
ENDTAB
  0
TABLE
  2
DIMSTYLE
  5
A
100
AcDbSymbolTable
 70
1
100
AcDbDimStyleTable
 71
0
  0
DIMSTYLE
105
21C
100
AcDbSymbolTableRecord
100
AcDbDimStyleTableRecord
  2
STANDARD
 70
0
  3

  4

 40
1.0
 41
3.0
 42
0.5
 43
0.38
 44
1.5
 45
0.0
 46
0.0
 47
0.01
 48
0.01
140
3.0
141
0.09
142
0.0
143
25.4
144
1.0
145
0.0
146
1.0
147
0.625
 71
1
 72
0
 73
0
 74
0
 75
0
 76
0
 77
1
 78
8
 79
2
170
0
171
1
172
0
173
0
174
0
175
0
176
0
177
0
178
0
270
2
179
2
271
2
272
2
273
2
274
2
275
0
280
0
281
0
282
0
283
1
284
8
285
0
286
0
287
3
288
0
340
11
278
44
341
217
342
217
343
217
344
217
  0
DIMSTYLE
105
21D
100
AcDbSymbolTableRecord
100
AcDbDimStyleTableRecord
  2
DIMSTYLE_1
 70
0
  3

  4

 40
1.0
 41
3.0
 42
0.5
 43
0.38
 44
1.5
 45
0.0
 46
0.0
 47
0.0
 48
0.0
140
3.0
141
0.09
142
0.0
143
25.4
144
1.0
145
0.0
146
1.0
147
0.75
 71
0
 72
0
 73
0
 74
0
 75
0
 76
0
 77
1
 78
8
 79
2
170
0
171
1
172
0
173
0
174
0
175
0
176
0
177
0
178
0
270
2
179
2
271
2
272
2
273
2
274
2
275
0
280
0
281
0
282
0
283
1
284
8
285
0
286
0
287
3
288
0
340
11
278
44
341
217
342
217
343
217
344
217
  0
ENDTAB
  0
ENDSEC
  0
SECTION
  2
BLOCKS
  0
BLOCK
  5
20
100
AcDbEntity
  8
0
100
AcDbBlockBegin
  2
*Model_Space
 70
0
 10
0.0
 20
0.0
 30
0.0
  3
*Model_Space
  1

  0
ENDBLK
  5
21
100
AcDbEntity
  8
0
100
AcDbBlockEnd
  0
BLOCK
  5
1C
100
AcDbEntity
  8
0
100
AcDbBlockBegin
  2
*Paper_Space
 70
0
 10
0.0
 20
0.0
 30
0.0
  3
*Paper_Space
  1

  0
ENDBLK
  5
1D
100
AcDbEntity
  8
0
100
AcDbBlockEnd
  0
BLOCK
  5
21E
100
AcDbEntity
  8
0
100
AcDbBlockBegin
  2
_FILLED
 70
64
 10
0.0
 20
0.0
  3
_FILLED
  1

  0
SOLID
  5
21F
100
AcDbEntity
  8
0
  6
BYBLOCK
 62
0
100
AcDbTrace
 10
0.0
 20
0.0
 11
-1.0
 21
0.3166666667
 12
-1.0
 22
-0.3166666667
 13
-1.0
 23
-0.3166666667
  0
ENDBLK
  5
220
100
AcDbEntity
  8
0
  6
BYBLOCK
 62
0
100
AcDbBlockEnd
  0
BLOCK
  5
221
100
AcDbEntity
  8
0
100
AcDbBlockBegin
 62
7
  6
CONTINUOUS
  2
*D0
 70
65
 10
0.0
 20
0.0
  3
*D0
  1

  0
LINE
  5
222
100
AcDbEntity
  8
0
100
AcDbLine
 62
7
  6
CONTINUOUS
 10
-11.0
 20
35.185771443
 11
-11.0
 21
48.0070298764
  0
LINE
  5
223
100
AcDbEntity
  8
0
100
AcDbLine
 62
7
  6
CONTINUOUS
 10
11.0
 20
35.185771443
 11
11.0
 21
48.0070298764
  0
LINE
  5
224
100
AcDbEntity
  8
0
100
AcDbLine
 62
7
  6
CONTINUOUS
 10
-11.0
 20
46.5070298764
 11
-0.0
 21
46.5070298764
  0
LINE
  5
225
100
AcDbEntity
  8
0
100
AcDbLine
 62
7
  6
CONTINUOUS
 10
11.0
 20
46.5070298764
 11
-0.0
 21
46.5070298764
  0
INSERT
  5
226
100
AcDbEntity
  8
0
100
AcDbBlockReference
 62
7
  6
CONTINUOUS
  2
_FILLED
 10
-11.0
 20
46.5070298764
 41
3.0
 42
3.0
 43
3.0
 50
180.0
  0
INSERT
  5
227
100
AcDbEntity
  8
0
100
AcDbBlockReference
 62
7
  6
CONTINUOUS
  2
_FILLED
 10
11.0
 20
46.5070298764
 41
3.0
 42
3.0
 43
3.0
  0
ENDBLK
  5
228
100
AcDbEntity
  8
0
  6
BYBLOCK
 62
0
100
AcDbBlockEnd
  0
BLOCK
  5
229
100
AcDbEntity
  8
0
100
AcDbBlockBegin
 62
7
  6
CONTINUOUS
  2
*D1
 70
65
 10
0.0
 20
0.0
  3
*D1
  1

  0
LINE
  5
22A
100
AcDbEntity
  8
0
100
AcDbLine
 62
7
  6
CONTINUOUS
 10
11.0001522961
 20
35.1857143356
 11
26.5
 21
35.1857143356
  0
LINE
  5
22B
100
AcDbEntity
  8
0
100
AcDbLine
 62
7
  6
CONTINUOUS
 10
11.0001522961
 20
-8.5142856644
 11
26.5
 21
-8.5142856644
  0
LINE
  5
22C
100
AcDbEntity
  8
0
100
AcDbLine
 62
7
  6
CONTINUOUS
 10
25.0
 20
35.1857143356
 11
25.0
 21
13.3357143356
  0
LINE
  5
22D
100
AcDbEntity
  8
0
100
AcDbLine
 62
7
  6
CONTINUOUS
 10
25.0
 20
-8.5142856644
 11
25.0
 21
13.3357143356
  0
INSERT
  5
22E
100
AcDbEntity
  8
0
100
AcDbBlockReference
 62
7
  6
CONTINUOUS
  2
_FILLED
 10
25.0
 20
35.1857143356
 41
3.0
 42
3.0
 43
3.0
 50
90.0
  0
INSERT
  5
22F
100
AcDbEntity
  8
0
100
AcDbBlockReference
 62
7
  6
CONTINUOUS
  2
_FILLED
 10
25.0
 20
-8.5142856644
 41
3.0
 42
3.0
 43
3.0
 50
270.0
  0
ENDBLK
  5
230
100
AcDbEntity
  8
0
  6
BYBLOCK
 62
0
100
AcDbBlockEnd
  0
BLOCK
  5
231
100
AcDbEntity
  8
0
100
AcDbBlockBegin
 62
7
  6
CONTINUOUS
  2
*D2
 70
65
 10
0.0
 20
0.0
  3
*D2
  1

  0
LINE
  5
232
100
AcDbEntity
  8
0
100
AcDbLine
 62
7
  6
CONTINUOUS
 10
-27.9021575491
 20
35.185771443
 11
-27.9021575491
 21
48.0070298764
  0
LINE
  5
233
100
AcDbEntity
  8
0
100
AcDbLine
 62
7
  6
CONTINUOUS
 10
-35.4021575491
 20
13.8357143356
 11
-35.4021575491
 21
48.0070298764
  0
LINE
  5
234
100
AcDbEntity
  8
0
100
AcDbLine
 62
7
  6
CONTINUOUS
 10
-27.9021575491
 20
46.5070298764
 11
-23.9021575491
 21
46.5070298764
  0
LINE
  5
235
100
AcDbEntity
  8
0
100
AcDbLine
 62
7
  6
CONTINUOUS
 10
-23.9021575491
 20
46.5070298764
 11
-31.6521575491
 21
46.5070298764
  0
LINE
  5
236
100
AcDbEntity
  8
0
100
AcDbLine
 62
7
  6
CONTINUOUS
 10
-35.4021575491
 20
46.5070298764
 11
-39.4021575491
 21
46.5070298764
  0
LINE
  5
237
100
AcDbEntity
  8
0
100
AcDbLine
 62
7
  6
CONTINUOUS
 10
-39.4021575491
 20
46.5070298764
 11
-31.6521575491
 21
46.5070298764
  0
INSERT
  5
238
100
AcDbEntity
  8
0
100
AcDbBlockReference
 62
7
  6
CONTINUOUS
  2
_FILLED
 10
-27.9021575491
 20
46.5070298764
 41
3.0
 42
3.0
 43
3.0
 50
180.0
  0
INSERT
  5
239
100
AcDbEntity
  8
0
100
AcDbBlockReference
 62
7
  6
CONTINUOUS
  2
_FILLED
 10
-35.4021575491
 20
46.5070298764
 41
3.0
 42
3.0
 43
3.0
  0
ENDBLK
  5
23A
100
AcDbEntity
  8
0
  6
BYBLOCK
 62
0
100
AcDbBlockEnd
  0
BLOCK
  5
23B
100
AcDbEntity
  8
0
100
AcDbBlockBegin
 62
7
  6
CONTINUOUS
  2
*D3
 70
65
 10
0.0
 20
0.0
  3
*D3
  1

  0
LINE
  5
23C
100
AcDbEntity
  8
0
100
AcDbLine
 62
7
  6
CONTINUOUS
 10
-23.9021575491
 20
20.7233583289
 11
-23.9021575491
 21
56.0070298764
  0
LINE
  5
23D
100
AcDbEntity
  8
0
100
AcDbLine
 62
7
  6
CONTINUOUS
 10
-35.4021575491
 20
13.8357143356
 11
-35.4021575491
 21
56.0070298764
  0
LINE
  5
23E
100
AcDbEntity
  8
0
100
AcDbLine
 62
7
  6
CONTINUOUS
 10
-23.9021575491
 20
54.5070298764
 11
-19.9021575491
 21
54.5070298764
  0
LINE
  5
23F
100
AcDbEntity
  8
0
100
AcDbLine
 62
7
  6
CONTINUOUS
 10
-19.9021575491
 20
54.5070298764
 11
-29.6521575491
 21
54.5070298764
  0
LINE
  5
240
100
AcDbEntity
  8
0
100
AcDbLine
 62
7
  6
CONTINUOUS
 10
-35.4021575491
 20
54.5070298764
 11
-39.4021575491
 21
54.5070298764
  0
LINE
  5
241
100
AcDbEntity
  8
0
100
AcDbLine
 62
7
  6
CONTINUOUS
 10
-39.4021575491
 20
54.5070298764
 11
-29.6521575491
 21
54.5070298764
  0
INSERT
  5
242
100
AcDbEntity
  8
0
100
AcDbBlockReference
 62
7
  6
CONTINUOUS
  2
_FILLED
 10
-23.9021575491
 20
54.5070298764
 41
3.0
 42
3.0
 43
3.0
 50
180.0
  0
INSERT
  5
243
100
AcDbEntity
  8
0
100
AcDbBlockReference
 62
7
  6
CONTINUOUS
  2
_FILLED
 10
-35.4021575491
 20
54.5070298764
 41
3.0
 42
3.0
 43
3.0
  0
ENDBLK
  5
244
100
AcDbEntity
  8
0
  6
BYBLOCK
 62
0
100
AcDbBlockEnd
  0
ENDSEC
  0
SECTION
  2
ENTITIES
  0
DIMENSION
  5
245
100
AcDbEntity
  8
0
100
AcDbDimension
 62
7
  6
CONTINUOUS
  2
*D0
 10
11.0
 20
46.5070298764
 11
-2.3571428571
 21
46.5070298764
 70
160
 71
2
 72
2
 41
0.9
 42
22.0
  3
DIMSTYLE_1
100
AcDbAlignedDimension
 13
-11.0
 23
34.685771443
 14
11.0
 24
34.685771443
100
AcDbRotatedDimension
  0
DIMENSION
  5
246
100
AcDbEntity
  8
0
100
AcDbDimension
 62
7
  6
CONTINUOUS
  2
*D1
 10
25.0
 20
-8.5142856644
 11
25.0
 21
9.0500000499
 70
160
 71
2
 72
2
 41
0.9
 42
43.7
  3
DIMSTYLE_1
100
AcDbAlignedDimension
 13
10.5001522961
 23
35.1857143356
 14
10.5001522961
 24
-8.5142856644
 50
270.0
100
AcDbRotatedDimension
  0
DIMENSION
  5
247
100
AcDbEntity
  8
0
100
AcDbDimension
 62
7
  6
CONTINUOUS
  2
*D2
 10
-35.4021575491
 20
46.5070298764
 11
-34.7593004063
 21
46.5070298764
 70
160
 71
2
 72
2
 41
0.9
 42
7.5
  3
DIMSTYLE_1
100
AcDbAlignedDimension
 13
-27.9021575491
 23
34.685771443
 14
-35.4021575491
 24
13.3357143356
 50
180.0
100
AcDbRotatedDimension
  0
DIMENSION
  5
248
100
AcDbEntity
  8
0
100
AcDbDimension
 62
7
  6
CONTINUOUS
  2
*D3
 10
-35.4021575491
 20
54.5070298764
 11
-33.295014692
 21
54.5070298764
 70
160
 71
2
 72
2
 41
0.9
 42
11.5
  3
DIMSTYLE_1
100
AcDbAlignedDimension
 13
-23.9021575491
 23
20.2233583289
 14
-35.4021575491
 24
13.3357143356
 50
180.0
100
AcDbRotatedDimension
  0
LWPOLYLINE
  5
249
100
AcDbEntity
  8
RACCORDO
100
AcDbPolyline
 62
250
  6
CONTINUOUS
 90
14
 70
0
 10
-10.8851605229
 20
34.0471328122
 10
-10.8815802704
 20
34.0492762041
 10
-10.8726820464
 20
34.0513966288
 10
-10.8585611891
 20
34.0534713672
 10
-10.8393689935
 20
34.0554781902
 10
-10.8153110905
 20
34.057395596
 10
-10.7866452438
 20
34.059203041
 10
-10.7536785875
 20
34.0608811596
 10
-10.7167643365
 20
34.0624119721
 10
-10.6762980009
 20
34.0637790767
 10
-10.632713149
 20
34.0649678259
 10
-10.5864767621
 20
34.0659654831
 10
-10.5380842304
 20
34.0667613587
 10
-10.4880540461
 20
34.0673469253
  0
LWPOLYLINE
  5
24A
100
AcDbEntity
  8
ASSI
100
AcDbPolyline
 62
250
  6
CONTINUOUS
 90
14
 70
0
 10
-10.8851605229
 20
34.0471328122
 10
-10.8835493572
 20
34.0484739022
 10
-10.8798514492
 20
34.0498093764
 10
-10.8740822794
 20
34.0511336422
 10
-10.8662659993
 20
34.0524411546
 10
-10.8564353375
 20
34.0537264377
 10
-10.8446314697
 20
34.0549841079
 10
-10.8309038284
 20
34.0562088985
 10
-10.8153099008
 20
34.0573956805
 10
-10.797915005
 20
34.0585394833
 10
-10.7787919901
 20
34.0596355172
 10
-10.7580209412
 20
34.0606791927
 10
-10.7356888643
 20
34.0616661385
 10
-10.7118892896
 20
34.0625922219
  0
LINE
  5
24B
100
AcDbEntity
  8
SIMBOLO
100
AcDbLine
 62
250
  6
CONTINUOUS
 10
-0.351254
 20
29.2939873356
 11
-0.492891
 21
29.2419763356
  0
LINE
  5
24C
100
AcDbEntity
  8
SIMBOLO
100
AcDbLine
 62
250
  6
CONTINUOUS
 10
-0.492891
 20
29.2419763356
 11
-0.777559
 21
29.0859653356
  0
LINE
  5
24D
100
AcDbEntity
  8
SIMBOLO
100
AcDbLine
 62
250
  6
CONTINUOUS
 10
-4.663589
 20
24.1836893356
 11
3.925361
 21
28.0587923356
  0
LINE
  5
24E
100
AcDbEntity
  8
SIMBOLO
100
AcDbLine
 62
250
  6
CONTINUOUS
 10
-0.777559
 20
29.0859653356
 11
-1.001917
 21
28.9062003356
  0
LINE
  5
24F
100
AcDbEntity
  8
SIMBOLO
100
AcDbLine
 62
250
  6
CONTINUOUS
 10
-1.001917
 20
28.9062003356
 11
-1.236081
 21
28.6566223356
  0
LINE
  5
250
100
AcDbEntity
  8
SIMBOLO
100
AcDbLine
 62
250
  6
CONTINUOUS
 10
-1.236081
 20
28.6566223356
 11
-1.384704
 21
28.4545903356
  0
LWPOLYLINE
  5
251
100
AcDbEntity
  8
RACCORDO
100
AcDbPolyline
 62
250
  6
CONTINUOUS
 90
16
 70
0
 10
-10.8936520894
 20
-7.8548006529
 10
-10.8908913367
 20
-7.9070303502
 10
-10.8826869887
 20
-7.9586884034
 10
-10.8691288047
 20
-8.0092091806
 10
-10.8503651659
 20
-8.0580394944
 10
-10.8266014571
 20
-8.1046446455
 10
-10.7980978247
 20
-8.1485142807
 10
-10.7651663121
 20
-8.1891680082
 10
-10.7281674627
 20
-8.2261606281
 10
-10.68750639
 20
-8.2590870052
 10
-10.6436282898
 20
-8.2875865546
 10
-10.5970136025
 20
-8.3113471524
 10
-10.5481727899
 20
-8.3301085486
 10
-10.4976406706
 20
-8.3436652605
 10
-10.4459705559
 20
-8.3518688066
 10
-10.3937282418
 20
-8.3546293154
  0
LWPOLYLINE
  5
252
100
AcDbEntity
  8
ASSI
100
AcDbPolyline
 62
250
  6
CONTINUOUS
 90
25
 70
0
 10
-10.8936520894
 20
-7.8548006529
 10
-10.8925674646
 20
-7.8874805939
 10
-10.8893480782
 20
-7.9200208242
 10
-10.8840076798
 20
-7.9522820865
 10
-10.8765690936
 20
-7.9841263243
 10
-10.8670641276
 20
-8.0154172426
 10
-10.8555334441
 20
-8.0460208933
 10
-10.8420263683
 20
-8.0758062994
 10
-10.8266006866
 20
-8.1046459792
 10
-10.8093224172
 20
-8.1324164673
 10
-10.7902654911
 20
-8.1589989101
 10
-10.7695114563
 20
-8.1842795312
 10
-10.7471491569
 20
-8.2081500936
 10
-10.7232742971
 20
-8.2305084317
 10
-10.6979890485
 20
-8.2512588572
 10
-10.6714016517
 20
-8.2703125404
 10
-10.6436259067
 20
-8.2875879309
 10
-10.6147806762
 20
-8.303011105
 10
-10.5849894046
 20
-8.3165160599
 10
-10.5543795907
 20
-8.3280449986
 10
-10.5230822363
 20
-8.3375485811
 10
-10.4912312779
 20
-8.3449861367
 10
-10.4589630262
 20
-8.3503258341
 10
-10.4264155828
 20
-8.3535448194
 10
-10.3937282418
 20
-8.3546293154
  0
LINE
  5
253
100
AcDbEntity
  8
RACCORDO
100
AcDbLine
 62
250
  6
CONTINUOUS
 10
-10.8872628106
 20
34.3523167143
 11
-10.8882987371
 21
34.4107138595
  0
LINE
  5
254
100
AcDbEntity
  8
ASSI
100
AcDbLine
 62
250
  6
CONTINUOUS
 10
-10.887024968
 20
34.3358101011
 11
-10.8881570943
 21
34.4038526699
  0
LINE
  5
255
100
AcDbEntity
  8
ASSI
100
AcDbLine
 62
250
  6
CONTINUOUS
 10
-10.8861335521
 20
34.256608729
 11
-10.887024968
 21
34.3358101011
  0
LINE
  5
256
100
AcDbEntity
  8
RACCORDO
100
AcDbLine
 62
250
  6
CONTINUOUS
 10
-10.8860584185
 20
34.2480601958
 11
-10.8872628106
 21
34.3523167143
  0
LINE
  5
257
100
AcDbEntity
  8
ASSI
100
AcDbLine
 62
250
  6
CONTINUOUS
 10
-10.8853774848
 20
34.1390647549
 11
-10.8861335521
 21
34.256608729
  0
LINE
  5
258
100
AcDbEntity
  8
RACCORDO
100
AcDbLine
 62
250
  6
CONTINUOUS
 10
-10.88534353
 20
34.1302215448
 11
-10.8860584185
 21
34.2480601958
  0
LINE
  5
259
100
AcDbEntity
  8
ASSI
100
AcDbLine
 62
250
  6
CONTINUOUS
 10
-10.3853313234
 20
34.1786307844
 11
-10.3867449118
 21
34.5895451173
  0
LINE
  5
25A
100
AcDbEntity
  8
RACCORDO
100
AcDbLine
 62
250
  6
CONTINUOUS
 10
-10.3852992688
 20
34.1510389738
 11
-10.386884488
 21
34.6123530254
  0
LINE
  5
25B
100
AcDbEntity
  8
RACCORDO
100
AcDbLine
 62
250
  6
CONTINUOUS
 10
-10.8777549231
 20
15.6377622348
 11
-10.88534353
 21
34.1302215448
  0
LINE
  5
25C
100
AcDbEntity
  8
RACCORDO
100
AcDbLine
 62
250
  6
CONTINUOUS
 10
-10.3778310707
 20
15.6399389751
 11
-10.3852992688
 21
34.1510389738
  0
LINE
  5
25D
100
AcDbEntity
  8
ASSI
100
AcDbLine
 62
7
  6
CONTINUOUS
 10
-11.0
 20
-8.0143427719
 11
-11.0
 21
34.685771443
  0
LINE
  5
25E
100
AcDbEntity
  8
RACCORDO
100
AcDbLine
 62
7
  6
CONTINUOUS
 10
-11.0
 20
-8.0143427719
 11
-11.0
 21
34.685771443
  0
LINE
  5
25F
100
AcDbEntity
  8
RACCORDO
100
AcDbLine
 62
250
  6
CONTINUOUS
 10
-10.8799766066
 20
1.8275792042
 11
-10.8777549231
 21
15.6377622348
  0
LINE
  5
260
100
AcDbEntity
  8
RACCORDO
100
AcDbLine
 62
250
  6
CONTINUOUS
 10
-10.3800527519
 20
1.8155696103
 11
-10.3778310707
 21
15.6399389751
  0
LINE
  5
261
100
AcDbEntity
  8
ASSI
100
AcDbLine
 62
250
  6
CONTINUOUS
 10
-10.3862439853
 20
-7.8228074427
 11
-10.3853313234
 21
34.1786307844
  0
LINE
  5
262
100
AcDbEntity
  8
RACCORDO
100
AcDbLine
 62
250
  6
CONTINUOUS
 10
-10.8855222658
 20
-7.4988685223
 11
-10.8799766066
 21
1.8275792042
  0
LINE
  5
263
100
AcDbEntity
  8
ASSI
100
AcDbLine
 62
250
  6
CONTINUOUS
 10
-10.885517465
 20
-7.497832352
 11
-10.8853774848
 21
34.1390647549
  0
LINE
  5
264
100
AcDbEntity
  8
RACCORDO
100
AcDbLine
 62
250
  6
CONTINUOUS
 10
-10.386483232
 20
-7.871309094
 11
-10.3800527519
 21
1.8155696103
  0
LINE
  5
265
100
AcDbEntity
  8
ASSI
100
AcDbLine
 62
250
  6
CONTINUOUS
 10
-10.388008617
 20
-8.0867109606
 11
-10.3862439853
 21
-7.8228074427
  0
LINE
  5
266
100
AcDbEntity
  8
RACCORDO
100
AcDbLine
 62
250
  6
CONTINUOUS
 10
-10.8864074025
 20
-7.6132205971
 11
-10.8855222658
 21
-7.4988685223
  0
LINE
  5
267
100
AcDbEntity
  8
RACCORDO
100
AcDbLine
 62
250
  6
CONTINUOUS
 10
-10.3883719422
 20
-8.123476177
 11
-10.386483232
 21
-7.871309094
  0
LINE
  5
268
100
AcDbEntity
  8
ASSI
100
AcDbLine
 62
250
  6
CONTINUOUS
 10
-10.8864026379
 20
-7.6127385416
 11
-10.885517465
 21
-7.497832352
  0
LINE
  5
269
100
AcDbEntity
  8
RACCORDO
100
AcDbLine
 62
250
  6
CONTINUOUS
 10
-10.3895655788
 20
-8.2191532945
 11
-10.3883719422
 21
-8.123476177
  0
LINE
  5
26A
100
AcDbEntity
  8
RACCORDO
100
AcDbLine
 62
250
  6
CONTINUOUS
 10
-10.8872628106
 20
-7.6808880431
 11
-10.8864074025
 21
-7.6132205971
  0
LINE
  5
26B
100
AcDbEntity
  8
ASSI
100
AcDbLine
 62
250
  6
CONTINUOUS
 10
-10.3895658757
 20
-8.2191730666
 11
-10.388008617
 21
-8.0867109606
  0
LINE
  5
26C
100
AcDbEntity
  8
ASSI
100
AcDbLine
 62
250
  6
CONTINUOUS
 10
-10.8873782119
 20
-7.6884658057
 11
-10.8864026379
 21
-7.6127385416
  0
LINE
  5
26D
100
AcDbEntity
  8
ASSI
100
AcDbLine
 62
250
  6
CONTINUOUS
 10
-10.3904312065
 20
-8.2697301263
 11
-10.3895658757
 21
-8.2191730666
  0
LINE
  5
26E
100
AcDbEntity
  8
ASSI
100
AcDbLine
 62
250
  6
CONTINUOUS
 10
-10.8881570941
 20
-7.7324239913
 11
-10.8873782119
 21
-7.6884658057
  0
LINE
  5
26F
100
AcDbEntity
  8
ASSI
100
AcDbLine
 62
250
  6
CONTINUOUS
 10
-10.8890279866
 20
-7.7705526337
 11
-10.8881570941
 21
-7.7324239913
  0
LWPOLYLINE
  5
270
100
AcDbEntity
  8
ASSI
100
AcDbPolyline
 62
250
  6
CONTINUOUS
 90
25
 70
0
 10
-10.8936520894
 20
34.5262293241
 10
-10.8925674648
 20
34.5589092602
 10
-10.8893480789
 20
34.5914494878
 10
-10.884007681
 20
34.6237107496
 10
-10.8765690945
 20
34.65555499
 10
-10.8670641272
 20
34.6868459127
 10
-10.8555334424
 20
34.7174495664
 10
-10.8420263663
 20
34.7472349724
 10
-10.8266006851
 20
34.7760746509
 10
-10.8093224162
 20
34.8038451379
 10
-10.7902654902
 20
34.8304275803
 10
-10.7695114555
 20
34.8557082012
 10
-10.7471491562
 20
34.8795787636
 10
-10.7232742963
 20
34.9019371017
 10
-10.6979890475
 20
34.9226875275
 10
-10.6714016503
 20
34.9417412109
 10
-10.6436259044
 20
34.959016602
 10
-10.6147806728
 20
34.9744397766
 10
-10.5849894012
 20
34.9879447314
 10
-10.5543795901
 20
34.9994736691
 10
-10.5230822399
 20
35.0089772506
 10
-10.491231284
 20
35.0164148061
 10
-10.4589630321
 20
35.0217545042
 10
-10.4264155867
 20
35.0249734902
 10
-10.3937282419
 20
35.0260579865
  0
LWPOLYLINE
  5
271
100
AcDbEntity
  8
RACCORDO
100
AcDbPolyline
 62
250
  6
CONTINUOUS
 90
16
 70
0
 10
-10.8936520894
 20
34.5262293241
 10
-10.8908911792
 20
34.5784605117
 10
-10.8826864129
 20
34.630119776
 10
-10.8691276314
 20
34.6806414562
 10
-10.8503633012
 20
34.7294723478
 10
-10.8265988888
 20
34.7760777601
 10
-10.7980946108
 20
34.8199473714
 10
-10.7651625846
 20
34.8606008161
 10
-10.7281634106
 20
34.8975929455
 10
-10.6875022241
 20
34.9305187016
 10
-10.6436242585
 20
34.9590175525
 10
-10.5970099707
 20
34.9827774402
 10
-10.5481697799
 20
35.0015381978
 10
-10.4976384785
 20
35.0150943978
 10
-10.4459693763
 20
35.023297602
 10
-10.3937282419
 20
35.0260579865
  0
LINE
  5
272
100
AcDbEntity
  8
SIMBOLO
100
AcDbLine
 62
250
  6
CONTINUOUS
 10
-1.384704
 20
28.4545903356
 11
-1.454797
 21
28.2867343356
  0
LINE
  5
273
100
AcDbEntity
  8
ASSI
100
AcDbLine
 62
250
  6
CONTINUOUS
 10
10.3937282419
 20
35.0260579865
 11
10.5001522961
 21
35.1857143356
  0
LINE
  5
274
100
AcDbEntity
  8
RACCORDO
100
AcDbLine
 62
250
  6
CONTINUOUS
 10
10.3937282419
 20
35.0260579865
 11
10.5001522961
 21
35.1857143356
  0
LINE
  5
275
100
AcDbEntity
  8
SIMBOLO
100
AcDbLine
 62
250
  6
CONTINUOUS
 10
-5.107143
 20
10.6071433356
 11
-4.735714
 21
10.7928573356
  0
LWPOLYLINE
  5
276
100
AcDbEntity
  8
RACCORDO
100
AcDbPolyline
 62
250
  6
CONTINUOUS
 90
16
 70
0
 10
-10.8851605229
 20
-7.375704141
 10
-10.8815810302
 20
-7.3778475951
 10
-10.8726834492
 20
-7.3799680832
 10
-10.8585631131
 20
-7.3820428852
 10
-10.8393713146
 20
-7.3840497707
 10
-10.8153136843
 20
-7.3859672368
 10
-10.7866479881
 20
-7.3877747389
 10
-10.753681365
 20
-7.3894529105
 10
-10.7167670363
 20
-7.3909837707
 10
-10.6763005211
 20
-7.3923509171
 10
-10.6327153983
 20
-7.3935397014
 10
-10.5864786614
 20
-7.3945373865
 10
-10.5380857146
 20
-7.3953332822
 10
-10.4880550646
 20
-7.3959188608
 10
-10.4369227657
 20
-7.3962878483
 10
10.3852366754
 20
-7.3964362917
  0
LWPOLYLINE
  5
277
100
AcDbEntity
  8
ASSI
100
AcDbPolyline
 62
250
  6
CONTINUOUS
 90
15
 70
0
 10
-10.8851605229
 20
-7.375704141
 10
-10.8835499065
 20
-7.3770452389
 10
-10.8798525907
 20
-7.3783807242
 10
-10.8740840429
 20
-7.3797050045
 10
-10.8662684023
 20
-7.3810125344
 10
-10.8564383835
 20
-7.3822978382
 10
-10.8446351429
 20
-7.3835555327
 10
-10.8309080965
 20
-7.384780351
 10
-10.8153147172
 20
-7.3859671639
 10
-10.7979203048
 20
-7.3871110004
 10
-10.778797692
 20
-7.3882070706
 10
-10.7580269527
 20
-7.3892507841
 10
-10.735695081
 20
-7.3902377693
 10
-10.7118955951
 20
-7.3911638928
 10
-10.6602981721
 20
-7.3928183119
  0
LWPOLYLINE
  5
278
100
AcDbEntity
  8
ASSI
100
AcDbPolyline
 62
250
  6
CONTINUOUS
 90
8
 70
0
 10
-10.8899787601
 20
34.4736268652
 10
-10.8904769876
 20
34.4868126911
 10
-10.8909888231
 20
34.4981350389
 10
-10.8915136913
 20
34.5076299159
 10
-10.892043283
 20
34.5151968319
 10
-10.8925748284
 20
34.5208022902
 10
-10.8931110972
 20
34.5244797876
 10
-10.8936520894
 20
34.5262293241
  0
LWPOLYLINE
  5
279
100
AcDbEntity
  8
ASSI
100
AcDbPolyline
 62
250
  6
CONTINUOUS
 90
6
 70
0
 10
-10.3913391034
 20
34.9803847403
 10
-10.3918075923
 20
34.9955913062
 10
-10.3922812008
 20
35.0077951753
 10
-10.3927584281
 20
35.0169584586
 10
-10.3932407751
 20
35.0230524153
 10
-10.3937282419
 20
35.0260579865
  0
LINE
  5
27A
100
AcDbEntity
  8
ASSI
100
AcDbLine
 62
250
  6
CONTINUOUS
 10
-10.8890279868
 20
34.441981312
 11
-10.8899787601
 21
34.4736268652
  0
LWPOLYLINE
  5
27B
100
AcDbEntity
  8
RACCORDO
100
AcDbPolyline
 62
250
  6
CONTINUOUS
 90
5
 70
0
 10
-10.3908822869
 20
34.962213161
 10
-10.3915724253
 20
34.9883571345
 10
-10.3922744786
 20
35.0077944196
 10
-10.3929930841
 20
35.0203905141
 10
-10.3937282419
 20
35.0260579865
  0
LWPOLYLINE
  5
27C
100
AcDbEntity
  8
RACCORDO
100
AcDbPolyline
 62
250
  6
CONTINUOUS
 90
9
 70
0
 10
-10.8882987371
 20
34.4107138595
 10
-10.8888810446
 20
34.4361787098
 10
-10.8894938459
 20
34.4586416773
 10
-10.8901381033
 20
34.4780411691
 10
-10.8908128545
 20
34.4944387783
 10
-10.891503126
 20
34.5074907716
 10
-10.8922039268
 20
34.5170825715
 10
-10.8929202479
 20
34.5233287557
 10
-10.8936520894
 20
34.5262293241
  0
LINE
  5
27D
100
AcDbEntity
  8
ASSI
100
AcDbLine
 62
250
  6
CONTINUOUS
 10
-10.8881570943
 20
34.4038526699
 11
-10.8890279868
 21
34.441981312
  0
LINE
  5
27E
100
AcDbEntity
  8
ASSI
100
AcDbLine
 62
250
  6
CONTINUOUS
 10
-10.3904312066
 20
34.9411587978
 11
-10.3913391034
 21
34.9803847403
  0
LINE
  5
27F
100
AcDbEntity
  8
RACCORDO
100
AcDbLine
 62
250
  6
CONTINUOUS
 10
-10.3895655789
 20
34.8905819657
 11
-10.3908822869
 21
34.962213161
  0
LINE
  5
280
100
AcDbEntity
  8
ASSI
100
AcDbLine
 62
250
  6
CONTINUOUS
 10
-10.3891534677
 20
34.8612652041
 11
-10.3904312066
 21
34.9411587978
  0
LINE
  5
281
100
AcDbEntity
  8
RACCORDO
100
AcDbLine
 62
250
  6
CONTINUOUS
 10
-10.3878329104
 20
34.7388630966
 11
-10.3895655789
 21
34.8905819657
  0
LINE
  5
282
100
AcDbEntity
  8
ASSI
100
AcDbLine
 62
250
  6
CONTINUOUS
 10
-10.387661612
 20
34.7190818489
 11
-10.3891534677
 21
34.8612652041
  0
LINE
  5
283
100
AcDbEntity
  8
RACCORDO
100
AcDbLine
 62
250
  6
CONTINUOUS
 10
-10.386884488
 20
34.6123530254
 11
-10.3878329104
 21
34.7388630966
  0
LINE
  5
284
100
AcDbEntity
  8
ASSI
100
AcDbLine
 62
250
  6
CONTINUOUS
 10
-10.3867449118
 20
34.5895451173
 11
-10.387661612
 21
34.7190818489
  0
LWPOLYLINE
  5
285
100
AcDbEntity
  8
RACCORDO
100
AcDbPolyline
 62
250
  6
CONTINUOUS
 90
6
 70
0
 10
-10.3937282419
 20
-8.3546293154
 10
-10.3929930841
 20
-8.348961843
 10
-10.3922744786
 20
-8.3363657484
 10
-10.3915724253
 20
-8.3169284633
 10
-10.3908822869
 20
-8.2907844898
 10
-10.3895655788
 20
-8.2191532945
  0
LWPOLYLINE
  5
286
100
AcDbEntity
  8
ASSI
100
AcDbPolyline
 62
250
  6
CONTINUOUS
 90
7
 70
0
 10
-10.3937282419
 20
-8.3546293154
 10
-10.3932407752
 20
-8.3516237442
 10
-10.3927584282
 20
-8.3455297875
 10
-10.3922812009
 20
-8.3363665043
 10
-10.3918075923
 20
-8.3241626351
 10
-10.3913391034
 20
-8.308956069
 10
-10.3904312065
 20
-8.2697301263
  0
LINE
  5
287
100
AcDbEntity
  8
SIMBOLO
100
AcDbLine
 62
250
  6
CONTINUOUS
 10
-2.819501
 20
23.3711003356
 11
-2.523451
 21
24.6437123356
  0
LWPOLYLINE
  5
288
100
AcDbEntity
  8
RACCORDO
100
AcDbPolyline
 62
250
  6
CONTINUOUS
 90
10
 70
0
 10
-10.8936520894
 20
-7.8548006529
 10
-10.8929202479
 20
-7.8519000844
 10
-10.8922039268
 20
-7.8456539001
 10
-10.891503126
 20
-7.8360621002
 10
-10.8908128545
 20
-7.823010107
 10
-10.8901381033
 20
-7.8066124981
 10
-10.8894938459
 20
-7.7872130064
 10
-10.8888810446
 20
-7.7647500388
 10
-10.8882987371
 20
-7.7392851884
 10
-10.8872628106
 20
-7.6808880431
  0
LWPOLYLINE
  5
289
100
AcDbEntity
  8
ASSI
100
AcDbPolyline
 62
250
  6
CONTINUOUS
 90
9
 70
0
 10
-10.8936520894
 20
-7.8548006529
 10
-10.8931110972
 20
-7.8530511162
 10
-10.8925748283
 20
-7.8493736182
 10
-10.8920432829
 20
-7.8437681591
 10
-10.8915136912
 20
-7.8362012419
 10
-10.8909888229
 20
-7.8267063636
 10
-10.8904769873
 20
-7.8153840145
 10
-10.8899787599
 20
-7.8021981879
 10
-10.8890279866
 20
-7.7705526337
  0
LINE
  5
28A
100
AcDbEntity
  8
SIMBOLO
100
AcDbLine
 62
250
  6
CONTINUOUS
 10
-1.454797
 20
28.2867343356
 11
-2.210289
 21
25.8699533356
  0
LINE
  5
28B
100
AcDbEntity
  8
ASSI
100
AcDbLine
 62
250
  6
CONTINUOUS
 10
10.8936520894
 20
34.5262293241
 11
11.0
 21
34.685771443
  0
LINE
  5
28C
100
AcDbEntity
  8
RACCORDO
100
AcDbLine
 62
250
  6
CONTINUOUS
 10
10.8936520894
 20
34.5262293241
 11
11.0
 21
34.685771443
  0
LINE
  5
28D
100
AcDbEntity
  8
SIMBOLO
100
AcDbLine
 62
250
  6
CONTINUOUS
 10
-3.25
 20
10.4214283356
 11
-2.878571
 21
10.7928573356
  0
LINE
  5
28E
100
AcDbEntity
  8
SIMBOLO
100
AcDbLine
 62
250
  6
CONTINUOUS
 10
-2.135714
 20
9.3071433356
 11
-2.507143
 21
8.9357143356
  0
LINE
  5
28F
100
AcDbEntity
  8
SIMBOLO
100
AcDbLine
 62
250
  6
CONTINUOUS
 10
-5.602381
 20
7.0071433356
 11
-5.230952
 21
7.1928573356
  0
LWPOLYLINE
  5
290
100
AcDbEntity
  8
RACCORDO
100
AcDbPolyline
 62
250
  6
CONTINUOUS
 90
16
 70
0
 10
10.3937282419
 20
-8.3546293154
 10
10.4459703684
 20
-8.3518688264
 10
10.497640322
 20
-8.3436653347
 10
10.5481723109
 20
-8.3301087043
 10
10.5970130242
 20
-8.3113474099
 10
10.6436276475
 20
-8.2875869255
 10
10.6875057259
 20
-8.2590874876
 10
10.7281668164
 20
-8.2261612098
 10
10.7651657173
 20
-8.1891686686
 10
10.7980973116
 20
-8.1485149865
 10
10.8266010469
 20
-8.1046453554
 10
10.8503648679
 20
-8.0580401629
 10
10.8691286172
 20
-8.009209757
 10
10.8826868967
 20
-7.9586888355
 10
10.8908913116
 20
-7.9070305887
 10
10.8936520894
 20
-7.8548006529
  0
LWPOLYLINE
  5
291
100
AcDbEntity
  8
ASSI
100
AcDbPolyline
 62
250
  6
CONTINUOUS
 90
14
 70
0
 10
10.7118962337
 20
-7.3911638689
 10
10.7356957395
 20
-7.3902377415
 10
10.7580276167
 20
-7.3892507525
 10
10.7787983468
 20
-7.3882070352
 10
10.797920928
 20
-7.387110962
 10
10.8153152897
 20
-7.3859671233
 10
10.8309086033
 20
-7.3847803093
 10
10.8446355689
 20
-7.3835554913
 10
10.85643872
 20
-7.3822977988
 10
10.8662686475
 20
-7.3810124985
 10
10.8740841995
 20
-7.3797049743
 10
10.8798526703
 20
-7.378380702
 10
10.8835499309
 20
-7.3770452268
 10
10.8851605229
 20
-7.375704141
  0
LWPOLYLINE
  5
292
100
AcDbEntity
  8
ASSI
100
AcDbPolyline
 62
250
  6
CONTINUOUS
 90
25
 70
0
 10
10.3937282419
 20
-8.3546293154
 10
10.426415545
 20
-8.3535448219
 10
10.4589629518
 20
-8.3503258439
 10
10.4912311684
 20
-8.3449861584
 10
10.5230820942
 20
-8.3375486191
 10
10.5543794185
 20
-8.328045057
 10
10.584989204
 20
-8.3165161429
 10
10.6147804495
 20
-8.3030112167
 10
10.6436256565
 20
-8.2875880753
 10
10.6714013802
 20
-8.2703127217
 10
10.6979887569
 20
-8.2512590809
 10
10.7232739888
 20
-8.2305087019
 10
10.7471488396
 20
-8.2081504108
 10
10.7695111369
 20
-8.1842798952
 10
10.7902651768
 20
-8.1589993194
 10
10.8093221188
 20
-8.1324169136
 10
10.8266004133
 20
-8.1046464522
 10
10.8420261272
 20
-8.0758067879
 10
10.8555332425
 20
-8.0460213793
 10
10.8670639699
 20
-8.0154177067
 10
10.8765689803
 20
-7.9841267466
 10
10.884007609
 20
-7.9522824418
 10
10.8893480437
 20
-7.9200210854
 10
10.8925674552
 20
-7.8874807364
 10
10.8936520894
 20
-7.8548006529
  0
LINE
  5
293
100
AcDbEntity
  8
ASSI
100
AcDbLine
 62
250
  6
CONTINUOUS
 10
10.6602987326
 20
-7.3928182954
 11
10.7118962337
 21
-7.3911638689
  0
LINE
  5
294
100
AcDbEntity
  8
ASSI
100
AcDbLine
 62
250
  6
CONTINUOUS
 10
10.604098598
 20
-7.3941863452
 11
10.6602987326
 21
-7.3928182954
  0
LINE
  5
295
100
AcDbEntity
  8
ASSI
100
AcDbLine
 62
250
  6
CONTINUOUS
 10
10.5442362163
 20
-7.3952451276
 11
10.604098598
 21
-7.3941863452
  0
LINE
  5
296
100
AcDbEntity
  8
ASSI
100
AcDbLine
 62
7
  6
CONTINUOUS
 10
-10.5001522961
 20
-8.5142856644
 11
10.5001522961
 21
-8.5142856644
  0
LINE
  5
297
100
AcDbEntity
  8
RACCORDO
100
AcDbLine
 62
7
  6
CONTINUOUS
 10
-10.5001522961
 20
-8.5142856644
 11
10.5001522961
 21
-8.5142856644
  0
LINE
  5
298
100
AcDbEntity
  8
ASSI
100
AcDbLine
 62
250
  6
CONTINUOUS
 10
10.3937282419
 20
-8.3546293154
 11
-10.3937282419
 21
-8.3546293154
  0
LINE
  5
299
100
AcDbEntity
  8
RACCORDO
100
AcDbLine
 62
250
  6
CONTINUOUS
 10
10.3937282419
 20
-8.3546293154
 11
-10.3937282419
 21
-8.3546293154
  0
LINE
  5
29A
100
AcDbEntity
  8
ASSI
100
AcDbLine
 62
250
  6
CONTINUOUS
 10
-10.6040981314
 20
-7.394186356
 11
-10.5442358617
 21
-7.395245134
  0
LINE
  5
29B
100
AcDbEntity
  8
ASSI
100
AcDbLine
 62
250
  6
CONTINUOUS
 10
-10.6602981721
 20
-7.3928183119
 11
-10.6040981314
 21
-7.394186356
  0
LINE
  5
29C
100
AcDbEntity
  8
SIMBOLO
100
AcDbLine
 62
250
  6
CONTINUOUS
 10
-5.602381
 20
5.5214283356
 11
-5.602381
 21
7.0071433457
  0
LINE
  5
29D
100
AcDbEntity
  8
SIMBOLO
100
AcDbLine
 62
250
  6
CONTINUOUS
 10
-5.107143
 20
9.1214283356
 11
-5.107143
 21
10.6071433391
  0
LINE
  5
29E
100
AcDbEntity
  8
SIMBOLO
100
AcDbLine
 62
250
  6
CONTINUOUS
 10
-0.752976
 20
21.8356583356
 11
-0.35804
 21
23.3412223356
  0
LINE
  5
29F
100
AcDbEntity
  8
SIMBOLO
100
AcDbLine
 62
250
  6
CONTINUOUS
 10
-3.311905
 20
7.9357143356
 11
-3.373809
 21
7.7500003356
  0
LWPOLYLINE
  5
2A0
100
AcDbEntity
  8
DRAFT
100
AcDbPolyline
 62
7
  6
CONTINUOUS
 90
15
 70
0
 10
-5.9746076909
 20
1.1817475952
 10
-6.0769359096
 20
0.9489396259
 10
-6.1657831883
 20
0.7094693699
 10
-6.2400481366
 20
0.4664557957
 10
-6.2994731983
 20
0.2203666178
 10
-6.3443159297
 20
-0.0292658784
 10
-6.3742476086
 20
-0.2807258686
 10
-6.389158661
 20
-0.5346597407
 10
-6.389158661
 20
-0.7904211068
 10
-6.3742476086
 20
-1.0443549789
 10
-6.3443159297
 20
-1.2958149691
 10
-6.2994731983
 20
-1.5454474653
 10
-6.2400481366
 20
-1.7915366432
 10
-6.1657831883
 20
-2.0345502175
 10
-6.0769359096
 20
-2.2740204735
  0
LINE
  5
2A1
100
AcDbEntity
  8
DRAFT
100
AcDbLine
 62
7
  6
CONTINUOUS
 10
-5.8591656623
 20
1.4068536215
 11
-5.9746076909
 21
1.1817475952
  0
LWPOLYLINE
  5
2A2
100
AcDbEntity
  8
ASSI
100
AcDbPolyline
 62
7
  6
CONTINUOUS
 90
31
 70
0
 10
-6.0776889073
 20
1.3386288443
 10
-6.0011908936
 20
1.4837860463
 10
-5.9194223979
 20
1.6259923523
 10
-5.832501447
 20
1.7650586717
 10
-5.7405673662
 20
1.9007767164
 10
-5.6437343483
 20
2.0329888079
 10
-5.5420830417
 20
2.1615820381
 10
-5.4357092783
 20
2.2864172999
 10
-5.3247821631
 20
2.4072760376
 10
-5.2094989688
 20
2.5239323639
 10
-5.0900510687
 20
2.6361995286
 10
-4.966576276
 20
2.7439668014
 10
-4.8392018018
 20
2.8471322208
 10
-4.7080755805
 20
2.9455760811
 10
-4.573400407
 20
3.0391446148
 10
-4.4353899079
 20
3.1276906173
 10
-4.2942389526
 20
3.2110908894
 10
-4.1501318275
 20
3.2892357266
 10
-4.0032741563
 20
3.3620110581
 10
-3.8538902833
 20
3.4293040423
 10
-3.7021547066
 20
3.4910338432
 10
-3.5482034813
 20
3.5471463421
 10
-3.3921903076
 20
3.5975841056
 10
-3.2343802811
 20
3.6422587051
 10
-3.0750824837
 20
3.6810874688
 10
-2.9145649526
 20
3.71401642
 10
-2.7529967451
 20
3.7410192241
 10
-2.5905419486
 20
3.7620685226
 10
-2.4274015012
 20
3.7771331865
 10
-2.2638139474
 20
3.7861850784
 10
-2.1
 20
3.7892048169
  0
LWPOLYLINE
  5
2A3
100
AcDbEntity
  8
0
100
AcDbPolyline
 62
7
  6
CONTINUOUS
 90
3
 70
0
 10
-6.0776889073
 20
1.3386288443
 10
-5.9472652577
 20
1.578915089
 10
-5.8023588471
 20
1.8107511481
  0
LWPOLYLINE
  5
2A4
100
AcDbEntity
  8
DRAFT
100
AcDbPolyline
 62
7
  6
CONTINUOUS
 90
3
 70
0
 10
-5.5878387851
 20
1.8370788141
 10
-5.7302426937
 20
1.6252973612
 10
-5.8591656623
 20
1.4068536215
  0
LWPOLYLINE
  5
2A5
100
AcDbEntity
  8
0
100
AcDbPolyline
 62
7
  6
CONTINUOUS
 90
16
 70
0
 10
-5.8023588471
 20
1.8107511481
 10
-5.6435232703
 20
2.0332664557
 10
-5.4713389268
 20
2.2456349138
 10
-5.2864522823
 20
2.4470252869
 10
-5.0895893761
 20
2.6366180653
 10
-4.8815564411
 20
2.8136838739
 10
-4.6631203115
 20
2.9776291228
 10
-4.4350229135
 20
3.1279166378
 10
-4.1980834391
 20
3.2639922295
 10
-3.9532165822
 20
3.3853004358
 10
-3.701336045
 20
3.4913501804
 10
-3.443290032
 20
3.5817625919
 10
-3.1801463626
 20
3.6561776007
 10
-2.9131976103
 20
3.7142709425
 10
-2.6435602635
 20
3.7558639492
 10
-2.3721549388
 20
3.7808642504
  0
LWPOLYLINE
  5
2A6
100
AcDbEntity
  8
DRAFT
100
AcDbPolyline
 62
7
  6
CONTINUOUS
 90
10
 70
0
 10
-5.5668955529
 20
1.8720902802
 10
-5.4502397596
 20
2.0238549769
 10
-5.326943622
 20
2.1702778061
 10
-5.1972515193
 20
2.3110685504
 10
-5.0614205079
 20
2.4459481552
 10
-4.9197198117
 20
2.5746492825
 10
-4.7724302882
 20
2.6969168407
 10
-4.6198438724
 20
2.8125084893
 10
-4.4622629986
 20
2.9211951196
 10
-4.3
 20
3.0227613093
  0
LINE
  5
2A7
100
AcDbEntity
  8
SIMBOLO
100
AcDbLine
 62
250
  6
CONTINUOUS
 10
-2.383333
 20
7.0071433356
 11
-2.197619
 21
7.1928573356
  0
LINE
  5
2A8
100
AcDbEntity
  8
SIMBOLO
100
AcDbLine
 62
250
  6
CONTINUOUS
 10
2.507143
 20
10.4214283356
 11
2.878571
 21
10.7928573356
  0
LWPOLYLINE
  5
2A9
100
AcDbEntity
  8
ASSI
100
AcDbPolyline
 62
7
  6
CONTINUOUS
 90
25
 70
0
 10
2.2605583675
 20
-5.1113882055
 10
2.4208878158
 20
-5.1027010359
 10
2.5807797275
 20
-5.0882376142
 10
2.7400062977
 20
-5.0680217985
 10
2.8983806963
 20
-5.0420805733
 10
3.0557561651
 20
-5.0104368529
 10
3.2119753385
 20
-4.97311507
 10
3.3667846326
 20
-4.9301685384
 10
3.51989646
 20
-4.8816775176
 10
3.6710528387
 20
-4.8277329114
 10
3.8201205461
 20
-4.7683915728
 10
3.9670017244
 20
-4.7036921259
 10
4.1115656486
 20
-4.633681543
 10
4.2535565384
 20
-4.5584729013
 10
4.3926944198
 20
-4.4782143865
 10
4.5287419732
 20
-4.393053883
 10
4.6615867514
 20
-4.3030730057
 10
4.7911416138
 20
-4.2083309258
 10
4.917284573
 20
-4.1089057646
 10
5.0397953276
 20
-4.0049597628
 10
5.1584456266
 20
-3.8966857555
 10
5.2730487383
 20
-3.7842635015
 10
5.3834959103
 20
-3.6678093629
 10
5.4896855079
 20
-3.5474318899
 10
5.5914900693
 20
-3.4232704589
  0
LWPOLYLINE
  5
2AA
100
AcDbEntity
  8
RACCORDO
100
AcDbPolyline
 62
250
  6
CONTINUOUS
 90
16
 70
0
 10
2.1
 20
-4.9279571789
 10
2.3788877011
 20
-4.9188687118
 10
2.6569001986
 20
-4.8916021057
 10
2.9328482817
 20
-4.8462126703
 10
3.2056424282
 20
-4.7828075022
 10
3.4740015723
 20
-4.7016114357
 10
3.7364774549
 20
-4.6030300264
 10
3.9918727463
 20
-4.4875192123
 10
4.2391670087
 20
-4.3555467554
 10
4.4772451882
 20
-4.2077128941
 10
4.7050546477
 20
-4.0446894383
 10
4.921667708
 20
-3.8671588928
 10
5.1262198221
 20
-3.6758332654
 10
5.3178539893
 20
-3.4715029295
 10
5.4957203505
 20
-3.2550613775
 10
5.6200114659
 20
-3.0847732505
  0
LWPOLYLINE
  5
2AB
100
AcDbEntity
  8
0
100
AcDbPolyline
 62
7
  6
CONTINUOUS
 90
15
 70
0
 10
2.1
 20
-5.1142856644
 10
2.3880052761
 20
-5.1049559923
 10
2.6752584996
 20
-5.0769467276
 10
2.9605426761
 20
-5.0302868443
 10
3.2430437585
 20
-4.9649775816
 10
3.521127398
 20
-4.8812628897
 10
3.7924228531
 20
-4.7798907094
 10
4.0549819053
 20
-4.6618531435
 10
4.3086691969
 20
-4.5274812819
 10
4.5538317362
 20
-4.3765908526
 10
4.7901188185
 20
-4.2091073444
 10
5.0156148973
 20
-4.026084256
 10
5.2283693928
 20
-3.8290613187
 10
5.427261654
 20
-3.61925265
 10
5.6118321012
 20
-3.3973307231
  0
LINE
  5
2AC
100
AcDbEntity
  8
ASSI
100
AcDbLine
 62
7
  6
CONTINUOUS
 10
2.1
 20
-5.1142856644
 11
2.2605583675
 21
-5.1113882055
  0
LWPOLYLINE
  5
2AD
100
AcDbEntity
  8
RACCORDO
100
AcDbPolyline
 62
250
  6
CONTINUOUS
 90
14
 70
0
 10
10.4880550655
 20
-7.3959188598
 10
10.5380857158
 20
-7.3953332809
 10
10.5864786629
 20
-7.3945373852
 10
10.6327154001
 20
-7.3935397004
 10
10.676300523
 20
-7.3923509163
 10
10.7167670384
 20
-7.39098377
 10
10.7536813671
 20
-7.38945291
 10
10.7866479902
 20
-7.3877747386
 10
10.8153136862
 20
-7.3859672366
 10
10.8393713163
 20
-7.3840497705
 10
10.8585631145
 20
-7.3820428851
 10
10.8726834502
 20
-7.3799680832
 10
10.8815810307
 20
-7.3778475951
 10
10.8851605229
 20
-7.375704141
  0
LINE
  5
2AE
100
AcDbEntity
  8
ASSI
100
AcDbLine
 62
250
  6
CONTINUOUS
 10
10.4817132672
 20
-7.3959769261
 11
10.5442362163
 21
-7.3952451276
  0
LINE
  5
2AF
100
AcDbEntity
  8
ASSI
100
AcDbLine
 62
250
  6
CONTINUOUS
 10
10.4175759251
 20
-7.3963694957
 11
10.4817132672
 21
-7.3959769261
  0
LINE
  5
2B0
100
AcDbEntity
  8
RACCORDO
100
AcDbLine
 62
250
  6
CONTINUOUS
 10
10.3852366754
 20
-7.3964362913
 11
10.4880550655
 21
-7.3959188598
  0
LINE
  5
2B1
100
AcDbEntity
  8
ASSI
100
AcDbLine
 62
250
  6
CONTINUOUS
 10
10.4175759251
 20
-7.3963694957
 11
-10.3852366754
 21
-7.3964362917
  0
LINE
  5
2B2
100
AcDbEntity
  8
ASSI
100
AcDbLine
 62
250
  6
CONTINUOUS
 10
2.1
 20
-5.3274373501
 11
-2.1
 21
-5.3274373501
  0
LINE
  5
2B3
100
AcDbEntity
  8
0
100
AcDbLine
 62
250
  6
CONTINUOUS
 10
2.1
 20
-5.3274373501
 11
-2.1
 21
-5.3274373501
  0
LINE
  5
2B4
100
AcDbEntity
  8
ASSI
100
AcDbLine
 62
250
  6
CONTINUOUS
 10
2.1
 20
-5.1200025504
 11
-2.1
 21
-5.1200025504
  0
LINE
  5
2B5
100
AcDbEntity
  8
0
100
AcDbLine
 62
250
  6
CONTINUOUS
 10
2.1
 20
-5.1200025504
 11
-2.1
 21
-5.1200025504
  0
LINE
  5
2B6
100
AcDbEntity
  8
DRAFT
100
AcDbLine
 62
7
  6
CONTINUOUS
 10
2.0997230665
 20
-4.956649791
 11
-2.0997230661
 21
-4.956649791
  0
LINE
  5
2B7
100
AcDbEntity
  8
RACCORDO
100
AcDbLine
 62
250
  6
CONTINUOUS
 10
-2.1
 20
-4.9279571789
 11
2.1
 21
-4.9279571789
  0
LINE
  5
2B8
100
AcDbEntity
  8
ASSI
100
AcDbLine
 62
250
  6
CONTINUOUS
 10
-10.4497795872
 20
-7.3962161616
 11
-10.3852366754
 21
-7.3964362911
  0
LWPOLYLINE
  5
2B9
100
AcDbEntity
  8
ASSI
100
AcDbPolyline
 62
250
  6
CONTINUOUS
 90
3
 70
0
 10
-10.5442358617
 20
-7.395245134
 10
-10.5132424756
 20
-7.3956528008
 10
-10.4497795872
 20
-7.3962161616
  0
LWPOLYLINE
  5
2BA
100
AcDbEntity
  8
ASSI
100
AcDbPolyline
 62
250
  6
CONTINUOUS
 90
82
 70
0
 10
-2.1
 20
-5.3274373501
 10
-2.2796817248
 20
-5.3239526236
 10
-2.4588336109
 20
-5.3135501841
 10
-2.6374556582
 20
-5.2962300158
 10
-2.8158703414
 20
-5.2719596635
 10
-2.9937551858
 20
-5.2407715178
 10
-3.1701427676
 20
-5.2027628155
 10
-3.345011043
 20
-5.1578903344
 10
-3.5183820559
 20
-5.106197171
 10
-3.6893545138
 20
-5.047910029
 10
-3.8578732522
 20
-4.9829914252
 10
-4.0239934357
 20
-4.9114786649
 10
-4.1869792646
 20
-4.8337106284
 10
-4.3468103724
 20
-4.7496692036
 10
-4.5035071257
 20
-4.6593722857
 10
-4.6563948248
 20
-4.5632127679
 10
-4.8054779909
 20
-4.4611623211
 10
-4.9507521027
 20
-4.3532490319
 10
-5.0915288971
 20
-4.2399504266
 10
-5.2277774194
 20
-4.1212384881
 10
-5.3595286243
 20
-3.9971409817
 10
-5.4861871131
 20
-3.8682191265
 10
-5.6077238591
 20
-3.7344507487
 10
-5.724167889
 20
-3.595857778
 10
-5.8350108843
 20
-3.453067616
 10
-5.9402400138
 20
-3.3060605445
 10
-6.0398681086
 20
-3.1548560606
 10
-6.1334253435
 20
-3.000140425
 10
-6.2208810821
 20
-2.8419004849
 10
-6.3022659607
 20
-2.6801492081
 10
-6.3772020637
 20
-2.5156120795
 10
-6.4456480259
 20
-2.3482788392
 10
-6.5076452124
 20
-2.1781596076
 10
-6.562939803
 20
-2.0060104876
 10
-6.6115138163
 20
-1.8318131163
 10
-6.6533852336
 20
-1.6555857685
 10
-6.6883541787
 20
-1.4781395542
 10
-6.7163918157
 20
-1.2994680412
 10
-6.7375269805
 20
-1.1195776298
 10
-6.751646304
 20
-0.9392987314
 10
-6.7587047981
 20
-0.7586490463
 10
-6.7587474509
 20
-0.5776108977
 10
-6.7517958571
 20
-0.3969616819
 10
-6.7378269543
 20
-0.2166889245
 10
-6.716863805
 20
-0.0368051699
 10
-6.6889971914
 20
0.1418746108
 10
-6.6541941745
 20
0.3193608601
 10
-6.6124876933
 20
0.4956430224
 10
-6.5640673474
 20
0.6698745856
 10
-6.5089028998
 20
0.8420135141
 10
-6.4470245874
 20
1.012101693
 10
-6.37871272
 20
1.1794184521
 10
-6.3039450693
 20
1.3439590532
 10
-6.2227438637
 20
1.5057280636
 10
-6.1354560981
 20
1.6640187406
 10
-6.0420339306
 20
1.8188432347
 10
-5.9425252032
 20
1.9701892122
 10
-5.8374204367
 20
2.1173131785
 10
-5.726711824
 20
2.2601655842
 10
-5.6104071722
 20
2.3987957887
 10
-5.4890204232
 20
2.5326086414
 10
-5.3625465208
 20
2.661579552
 10
-5.2309905212
 20
2.7857329281
 10
-5.0948815345
 20
2.9045471044
 10
-4.9541472398
 20
3.0180276759
 10
-4.8088599579
 20
3.1261688798
 10
-4.6597657621
 20
3.2284320064
 10
-4.5068730599
 20
3.3247696156
 10
-4.3501734436
 20
3.4152289976
 10
-4.190387763
 20
3.4994135353
 10
-4.027560443
 20
3.5772873092
 10
-3.8616470588
 20
3.648886114
 10
-3.6932351857
 20
3.7139209055
 10
-3.5222288337
 20
3.7723791468
 10
-3.3487239929
 20
3.8242732791
 10
-3.1735962097
 20
3.8693517296
 10
-2.9967854373
 20
3.9075771117
 10
-2.8183517225
 20
3.9389867468
 10
-2.6393507527
 20
3.9634411305
 10
-2.4601344236
 20
3.9808937503
 10
-2.2803508393
 20
3.9913910858
 10
-2.1
 20
3.9949331288
  0
LWPOLYLINE
  5
2BB
100
AcDbEntity
  8
ASSI
100
AcDbPolyline
 62
250
  6
CONTINUOUS
 90
82
 70
0
 10
-2.1
 20
-5.1200025504
 10
-2.2727191933
 20
-5.116644405
 10
-2.4452008182
 20
-5.1065836825
 10
-2.6171874843
 20
-5.0898452498
 10
-2.7884280894
 20
-5.0664596399
 10
-2.9586600533
 20
-5.0364653033
 10
-3.1276099527
 20
-4.9999108864
 10
-3.2950125428
 20
-4.9568527041
 10
-3.4606263718
 20
-4.907347759
 10
-3.6242155479
 20
-4.8514553114
 10
-3.785539279
 20
-4.7892408138
 10
-3.9443412222
 20
-4.7207860851
 10
-4.1003734344
 20
-4.6462042446
 10
-4.2534085175
 20
-4.5656177378
 10
-4.4032192975
 20
-4.4791565301
 10
-4.5495675168
 20
-4.3869656512
 10
-4.6922269077
 20
-4.2891935789
 10
-4.8309912214
 20
-4.1859827244
 10
-4.9656575022
 20
-4.0774775641
 10
-5.0960183897
 20
-3.9638326505
 10
-5.2218667825
 20
-3.8452090023
 10
-5.3430058775
 20
-3.7217675669
 10
-5.4592604963
 20
-3.5936932505
 10
-5.5704644526
 20
-3.4611911119
 10
-5.6764551029
 20
-3.3244726679
 10
-5.7770798252
 20
-3.1837487347
 10
-5.872190063
 20
-3.0392342973
 10
-5.9616375596
 20
-2.8911536145
 10
-6.0452822413
 20
-2.7397307673
 10
-6.1229911789
 20
-2.5851865739
 10
-6.1946333559
 20
-2.4277444956
 10
-6.2600819852
 20
-2.2676354999
 10
-6.3192439836
 20
-2.1050973803
 10
-6.3720516724
 20
-1.9403692876
 10
-6.4184415472
 20
-1.7736950648
 10
-6.4583504805
 20
-1.6053367737
 10
-6.4917200282
 20
-1.4355636671
 10
-6.5185011537
 20
-1.2646323355
 10
-6.538648772
 20
-1.0928004985
 10
-6.5521199501
 20
-0.9203410034
 10
-6.5588782202
 20
-0.7475277746
 10
-6.5588935142
 20
-0.5746038615
 10
-6.5521649036
 20
-0.4017961291
 10
-6.5387225183
 20
-0.2293514773
 10
-6.518604311
 20
-0.0575391811
 10
-6.4918527457
 20
0.1133805811
 10
-6.4585121738
 20
0.2831630143
 10
-6.4186350151
 20
0.451538908
 10
-6.3722864721
 20
0.6182132628
 10
-6.3195364533
 20
0.7829079238
 10
-6.2604427712
 20
0.9453946801
 10
-6.1950575707
 20
1.105454784
 10
-6.1234705025
 20
1.2628504737
 10
-6.0458128449
 20
1.4173528182
 10
-5.9622083287
 20
1.5687601675
 10
-5.8727787739
 20
1.7168744014
 10
-5.7776775646
 20
1.8614495316
 10
-5.6770839566
 20
2.0022169336
 10
-5.5711668453
 20
2.1389407988
 10
-5.4600628982
 20
2.2714325818
 10
-5.3439096345
 20
2.3994991545
 10
-5.2228693728
 20
2.5229214467
 10
-5.0971068736
 20
2.6415169206
 10
-4.9667831696
 20
2.7551671304
 10
-4.8320695963
 20
2.8637444697
 10
-4.6932119651
 20
2.967063014
 10
-4.5504908965
 20
3.0649259097
 10
-4.4041473204
 20
3.1571778276
 10
-4.2543821805
 20
3.2436922704
 10
-4.101423773
 20
3.3243270039
 10
-3.9455341859
 20
3.3989281676
 10
-3.7868990087
 20
3.4673826487
 10
-3.6256345309
 20
3.5296175081
 10
-3.4619301943
 20
3.5855729951
 10
-3.2960918466
 20
3.6351593726
 10
-3.1284263918
 20
3.6782986644
 10
-2.9591531181
 20
3.7149410868
 10
-2.7885632446
 20
3.7450218787
 10
-2.6170778762
 20
3.7684688248
 10
-2.4450111111
 20
3.7852458355
 10
-2.2725662439
 20
3.7953319511
 10
-2.1
 20
3.7986999022
  0
LWPOLYLINE
  5
2BC
100
AcDbEntity
  8
DRAFT
100
AcDbPolyline
 62
7
  6
CONTINUOUS
 90
25
 70
0
 10
-2.0997230661
 20
-4.9566497821
 10
-2.2695191703
 20
-4.9532751035
 10
-2.4385222486
 20
-4.9432728556
 10
-2.6067323011
 20
-4.9266430381
 10
-2.7744083253
 20
-4.9033385845
 10
-2.9412913237
 20
-4.8734065615
 10
-3.1066043037
 20
-4.8369881693
 10
-3.2703398519
 20
-4.7940531581
 10
-3.4325053817
 20
-4.7446317778
 10
-3.5923461406
 20
-4.6889559783
 10
-3.7498510693
 20
-4.6269966757
 10
-3.9050312271
 20
-4.5587829539
 10
-4.0571650393
 20
-4.4846340152
 10
-4.2062376428
 20
-4.4045227526
 10
-4.3522639006
 20
-4.318476273
 10
-4.4945668278
 20
-4.2268950994
 10
-4.6331291776
 20
-4.129753831
 10
-4.7679681966
 20
-4.0270778686
 10
-4.8984586403
 20
-3.9193439379
 10
-5.0245820316
 20
-3.8065266523
 10
-5.1463568476
 20
-3.6886513984
 10
-5.2632132744
 20
-3.5662710613
 10
-5.374961374
 20
-3.4395699361
 10
-5.4817910844
 20
-3.3083637277
 10
-5.5837024056
 20
-3.1726524362
  0
LWPOLYLINE
  5
2BD
100
AcDbEntity
  8
0
100
AcDbPolyline
 62
250
  6
CONTINUOUS
 90
52
 70
0
 10
-2.1
 20
-5.1200025504
 10
-2.3800266289
 20
-5.1111746973
 10
-2.658845163
 20
-5.0847769282
 10
-2.935363647
 20
-5.0409718573
 10
-3.2085264204
 20
-4.9799602497
 10
-3.477231197
 20
-4.9019963225
 10
-3.7403360312
 20
-4.8074030087
 10
-3.9967248009
 20
-4.6965748256
 10
-4.2455041453
 20
-4.5699676596
 10
-4.4858900625
 20
-4.4280522315
 10
-4.716983421
 20
-4.2713855699
 10
-4.9378432627
 20
-4.1006007598
 10
-5.1476323994
 20
-3.9162966107
 10
-5.3454979769
 20
-3.7191242218
 10
-5.530636401
 20
-3.5098549716
 10
-5.7023525445
 20
-3.2893405086
 10
-5.8600044879
 20
-3.0584441535
 10
-6.0029531978
 20
-2.8180917626
 10
-6.1305685696
 20
-2.5692775409
 10
-6.2422880572
 20
-2.3129676777
 10
-6.3376488699
 20
-2.0501354539
 10
-6.4163310077
 20
-1.7818571409
 10
-6.4780789751
 20
-1.5092217238
 10
-6.5226798756
 20
-1.2332938308
 10
-6.5499440395
 20
-0.955134562
 10
-6.559703649
 20
-0.6758383525
 10
-6.5518514903
 20
-0.3964901591
 10
-6.5264705563
 20
-0.1181392452
 10
-6.4837195607
 20
0.1581608839
 10
-6.4237962899
 20
0.4312888637
 10
-6.346939688
 20
0.7000989946
 10
-6.2534089151
 20
0.9635020601
 10
-6.1434853175
 20
1.2204516787
 10
-6.0176375204
 20
1.4699434874
 10
-5.8764443949
 20
1.7110506058
 10
-5.7205161682
 20
1.9428447276
 10
-5.5505037559
 20
2.1643825776
 10
-5.3671201386
 20
2.3746979141
 10
-5.1709625384
 20
2.5729963583
 10
-4.9625931456
 20
2.7586759243
 10
-4.7426187536
 20
2.931253263
 10
-4.5121600928
 20
3.0898566283
 10
-4.2727268988
 20
3.2335065843
 10
-4.0237584796
 20
3.3624239554
 10
-3.7676758001
 20
3.4751822805
 10
-3.5110003733
 20
3.5695441984
 10
-3.2548200463
 20
3.6464216557
 10
-3.0007010185
 20
3.7065793295
 10
-2.7564637773
 20
3.7499253601
 10
-2.5254888337
 20
3.77823778
 10
-2.3064456504
 20
3.7938826907
 10
-2.1
 20
3.7986999022
  0
LWPOLYLINE
  5
2BE
100
AcDbEntity
  8
0
100
AcDbPolyline
 62
250
  6
CONTINUOUS
 90
52
 70
0
 10
-2.1
 20
-5.3274373501
 10
-2.3944798535
 20
-5.317850798
 10
-2.6854288151
 20
-5.2903151297
 10
-2.9728468848
 20
-5.2448302345
 10
-3.257855129
 20
-5.1810566303
 10
-3.5393324812
 20
-5.0993333606
 10
-3.8139157423
 20
-5.0006780161
 10
-4.0814316652
 20
-4.8849098289
 10
-4.342053497
 20
-4.7522087751
 10
-4.5929377793
 20
-4.6041335381
 10
-4.8340299064
 20
-4.4405398828
 10
-5.0653844841
 20
-4.2615710397
 10
-5.2843218712
 20
-4.0692169486
 10
-5.4907083107
 20
-3.8632791878
 10
-5.6846775598
 20
-3.6439551231
 10
-5.8639512487
 20
-3.4138285304
 10
-6.0283816662
 20
-3.1727712354
 10
-6.1781165236
 20
-2.92091049
 10
-6.3113205859
 20
-2.6612134583
 10
-6.4277616378
 20
-2.3935717329
 10
-6.5276718947
 20
-2.1180930712
 10
-6.6099127672
 20
-1.8380692027
 10
-6.6742931324
 20
-1.553487106
 10
-6.7210041132
 20
-1.2643595153
 10
-6.7494804891
 20
-0.9740171406
 10
-6.759493764
 20
-0.6824307727
 10
-6.7512724339
 20
-0.3896296962
 10
-6.724936766
 20
-0.0990327013
 10
-6.6802871415
 20
0.1893501526
 10
-6.6175231792
 20
0.475528524
 10
-6.5373640025
 20
0.7561128896
 10
-6.4395797818
 20
1.0310360115
 10
-6.3244003467
 20
1.3003644842
 10
-6.1932343091
 20
1.5609092792
 10
-6.0459025969
 20
1.8125475911
 10
-5.8825842821
 20
2.0554014511
 10
-5.7052251937
 20
2.2866489044
 10
-5.5137305661
 20
2.5061112845
 10
-5.3081951649
 20
2.7139664676
 10
-5.0908491146
 20
2.9079272061
 10
-4.8612890523
 20
3.087966886
 10
-4.6199183409
 20
3.2541114168
 10
-4.3701771952
 20
3.4041522833
 10
-4.1101344685
 20
3.5380136141
 10
-3.8417213075
 20
3.6557707106
 10
-3.574171366
 20
3.7554418029
 10
-3.3070612931
 20
3.8354312392
 10
-3.0408144399
 20
3.8973342797
 10
-2.7859345132
 20
3.9439555779
 10
-2.5459227489
 20
3.9762299809
 10
-2.3172779111
 20
3.9932225076
 10
-2.1
 20
3.9949331288
  0
LWPOLYLINE
  5
2BF
100
AcDbEntity
  8
ASSI
100
AcDbPolyline
 62
7
  6
CONTINUOUS
 90
3
 70
0
 10
-2.4208878158
 20
-5.1027010359
 10
-2.2605583675
 20
-5.1113882055
 10
-2.1
 20
-5.1142856644
  0
LWPOLYLINE
  5
2C0
100
AcDbEntity
  8
ASSI
100
AcDbPolyline
 62
7
  6
CONTINUOUS
 90
25
 70
0
 10
-5.6887617417
 20
-3.2955000535
 10
-5.5914900693
 20
-3.4232704589
 10
-5.4896855079
 20
-3.5474318899
 10
-5.3834959103
 20
-3.6678093629
 10
-5.2730487383
 20
-3.7842635015
 10
-5.1584456266
 20
-3.8966857555
 10
-5.0397953276
 20
-4.0049597628
 10
-4.917284573
 20
-4.1089057646
 10
-4.7911416138
 20
-4.2083309258
 10
-4.6615867514
 20
-4.3030730057
 10
-4.5287419732
 20
-4.393053883
 10
-4.3926944198
 20
-4.4782143865
 10
-4.2535565384
 20
-4.5584729013
 10
-4.1115656486
 20
-4.633681543
 10
-3.9670017244
 20
-4.7036921259
 10
-3.8201205461
 20
-4.7683915728
 10
-3.6710528387
 20
-4.8277329114
 10
-3.51989646
 20
-4.8816775176
 10
-3.3667846326
 20
-4.9301685384
 10
-3.2119753385
 20
-4.97311507
 10
-3.0557561651
 20
-5.0104368529
 10
-2.8983806963
 20
-5.0420805733
 10
-2.7400062977
 20
-5.0680217985
 10
-2.5807797275
 20
-5.0882376142
 10
-2.4208878158
 20
-5.1027010359
  0
LWPOLYLINE
  5
2C1
100
AcDbEntity
  8
RACCORDO
100
AcDbPolyline
 62
250
  6
CONTINUOUS
 90
16
 70
0
 10
-5.6200934459
 20
-3.0846549104
 10
-5.4959529255
 20
-3.2547586517
 10
-5.318104291
 20
-3.4712178694
 10
-5.1264843728
 20
-3.6755690475
 10
-4.9219383473
 20
-3.866921849
 10
-4.7053265652
 20
-4.0444810535
 10
-4.4775240214
 20
-4.207526825
 10
-4.2394870372
 20
-4.3553622339
 10
-3.9922436491
 20
-4.487336573
 10
-3.7368331681
 20
-4.6028829493
 10
-3.474192748
 20
-4.7015467101
 10
-3.2055904761
 20
-4.7828214083
 10
-2.9326342917
 20
-4.8462550823
 10
-2.6566655192
 20
-4.8916328482
 10
-2.3787240791
 20
-4.9188793551
 10
-2.1
 20
-4.9279571789
  0
LWPOLYLINE
  5
2C2
100
AcDbEntity
  8
0
100
AcDbPolyline
 62
7
  6
CONTINUOUS
 90
16
 70
0
 10
-5.7813720268
 20
-3.1642856644
 10
-5.6118321012
 20
-3.3973307232
 10
-5.4272616538
 20
-3.6192526502
 10
-5.2283693924
 20
-3.8290613191
 10
-5.0156148965
 20
-4.0260842567
 10
-4.7901188171
 20
-4.2091073454
 10
-4.5538317344
 20
-4.3765908538
 10
-4.3086691948
 20
-4.5274812831
 10
-4.0549819032
 20
-4.6618531446
 10
-3.7924228511
 20
-4.7798907102
 10
-3.5211273964
 20
-4.8812628903
 10
-3.2430437575
 20
-4.9649775818
 10
-2.9605426756
 20
-5.0302868444
 10
-2.6752584994
 20
-5.0769467277
 10
-2.388005276
 20
-5.1049559923
 10
-2.1
 20
-5.1142856644
  0
LWPOLYLINE
  5
2C3
100
AcDbEntity
  8
RACCORDO
100
AcDbPolyline
 62
250
  6
CONTINUOUS
 90
16
 70
0
 10
-5.576034396
 20
-2.9664452197
 10
-5.4166717925
 20
-3.1884569605
 10
-5.2424593556
 20
-3.4005331708
 10
-5.0556381185
 20
-3.5999636822
 10
-4.8560701239
 20
-3.7865709433
 10
-4.6438933292
 20
-3.9605298384
 10
-4.4217626402
 20
-4.1196585347
 10
-4.1895416245
 20
-4.2637839893
 10
-3.9473667144
 20
-4.3930769386
 10
-3.6983021124
 20
-4.5058711214
 10
-3.4420862332
 20
-4.6019607368
 10
-3.1789806621
 20
-4.6815498966
 10
-2.9128343574
 20
-4.7435872792
 10
-2.6449303052
 20
-4.7877221334
 10
-2.3739855194
 20
-4.8143043201
 10
-2.1
 20
-4.8233336196
  0
LINE
  5
2C4
100
AcDbEntity
  8
ASSI
100
AcDbLine
 62
7
  6
CONTINUOUS
 10
-5.7813720268
 20
-3.1642856644
 11
-5.6887617417
 21
-3.2955000535
  0
LINE
  5
2C5
100
AcDbEntity
  8
DRAFT
100
AcDbLine
 62
7
  6
CONTINUOUS
 10
-5.7302426937
 20
-2.9503782088
 11
-5.5878387851
 21
-3.1621596617
  0
LWPOLYLINE
  5
2C6
100
AcDbEntity
  8
DRAFT
100
AcDbPolyline
 62
7
  6
CONTINUOUS
 90
3
 70
0
 10
-5.9746076909
 20
-2.5068284427
 10
-5.8591656623
 20
-2.7319344691
 10
-5.7302426937
 20
-2.9503782088
  0
LINE
  5
2C7
100
AcDbEntity
  8
DRAFT
100
AcDbLine
 62
7
  6
CONTINUOUS
 10
-6.0769359096
 20
-2.2740204735
 11
-5.9746076909
 21
-2.5068284427
  0
LINE
  5
2C8
100
AcDbEntity
  8
SIMBOLO
100
AcDbLine
 62
250
  6
CONTINUOUS
 10
-4.488095
 20
7.9357143356
 11
-4.488095
 21
5.3357143965
  0
LINE
  5
2C9
100
AcDbEntity
  8
RACCORDO
100
AcDbLine
 62
7
  6
CONTINUOUS
 10
-4.3
 20
3.2054610103
 11
-4.3
 21
3.0227613093
  0
LINE
  5
2CA
100
AcDbEntity
  8
SIMBOLO
100
AcDbLine
 62
250
  6
CONTINUOUS
 10
-3.992857
 20
11.5357143356
 11
-3.992857
 21
8.9357143792
  0
LINE
  5
2CB
100
AcDbEntity
  8
SIMBOLO
100
AcDbLine
 62
250
  6
CONTINUOUS
 10
-3.373809
 20
5.3357143356
 11
-3.373809
 21
7.1928573644
  0
LINE
  5
2CC
100
AcDbEntity
  8
SIMBOLO
100
AcDbLine
 62
250
  6
CONTINUOUS
 10
-3.373809
 20
7.7500003356
 11
-3.373809
 21
7.9357143334
  0
LINE
  5
2CD
100
AcDbEntity
  8
SIMBOLO
100
AcDbLine
 62
250
  6
CONTINUOUS
 10
-3.25
 20
9.3071433356
 11
-3.25
 21
10.4214283416
  0
LINE
  5
2CE
100
AcDbEntity
  8
SIMBOLO
100
AcDbLine
 62
250
  6
CONTINUOUS
 10
-2.383333
 20
6.4500003356
 11
-2.383333
 21
7.0071433269
  0
LINE
  5
2CF
100
AcDbEntity
  8
ASSI
100
AcDbLine
 62
250
  6
CONTINUOUS
 10
-11.0
 20
-8.0143427719
 11
-10.8936520894
 21
-7.8548006529
  0
LINE
  5
2D0
100
AcDbEntity
  8
RACCORDO
100
AcDbLine
 62
250
  6
CONTINUOUS
 10
-11.0
 20
-8.0143427719
 11
-10.8936520894
 21
-7.8548006529
  0
LINE
  5
2D1
100
AcDbEntity
  8
ASSI
100
AcDbLine
 62
250
  6
CONTINUOUS
 10
-10.5001522961
 20
-8.5142856644
 11
-10.3937282419
 21
-8.3546293154
  0
LINE
  5
2D2
100
AcDbEntity
  8
RACCORDO
100
AcDbLine
 62
250
  6
CONTINUOUS
 10
-10.5001522961
 20
-8.5142856644
 11
-10.3937282419
 21
-8.3546293154
  0
LINE
  5
2D3
100
AcDbEntity
  8
SIMBOLO
100
AcDbLine
 62
250
  6
CONTINUOUS
 10
-1.454762
 20
5.3357143356
 11
-1.269048
 21
5.5214283356
  0
LINE
  5
2D4
100
AcDbEntity
  8
SIMBOLO
100
AcDbLine
 62
250
  6
CONTINUOUS
 10
3.621429
 20
9.3071433356
 11
3.25
 21
8.9357143356
  0
LINE
  5
2D5
100
AcDbEntity
  8
DRAFT
100
AcDbLine
 62
7
  6
CONTINUOUS
 10
-4.3
 20
3.0227613093
 11
-4.0743041399
 21
3.147962644
  0
LWPOLYLINE
  5
2D6
100
AcDbEntity
  8
DRAFT
100
AcDbPolyline
 62
7
  6
CONTINUOUS
 90
9
 70
0
 10
-4.0743041399
 20
3.147962644
 10
-3.8432552113
 20
3.2588591386
 10
-3.6068532142
 20
3.3554507933
 10
-3.3642203011
 20
3.4379791123
 10
-3.1162343195
 20
3.5062025914
 10
-2.8655288116
 20
3.5593967173
 10
-2.6129816248
 20
3.5973199855
 10
-2.3577149117
 20
3.6202139004
 10
-2.0997286723
 20
3.6280784622
  0
LINE
  5
2D7
100
AcDbEntity
  8
ASSI
100
AcDbLine
 62
7
  6
CONTINUOUS
 10
-6.0598226692
 20
-2.6648952087
 11
-6.0429933097
 21
-2.6641566855
  0
LWPOLYLINE
  5
2D8
100
AcDbEntity
  8
RACCORDO
100
AcDbPolyline
 62
250
  6
CONTINUOUS
 90
15
 70
0
 10
2.1
 20
-4.8233336196
 10
2.3740978479
 20
-4.8142716182
 10
2.6450794701
 20
-4.7876822632
 10
2.9129448667
 20
-4.743565774
 10
3.1789281334
 20
-4.6815859157
 10
3.4417951744
 20
-4.6020798114
 10
3.6978437025
 20
-4.5060579024
 10
3.9468867401
 20
-4.3932958728
 10
4.1891112648
 20
-4.264019729
 10
4.4213759221
 20
-4.1199154678
 10
4.6435149203
 20
-3.9608211274
 10
4.855694051
 20
-3.7869009746
 10
5.0552693344
 20
-3.6003302521
 10
5.2421074324
 20
-3.4009312852
 10
5.416341683
 20
-3.1888844159
  0
LINE
  5
2D9
100
AcDbEntity
  8
RACCORDO
100
AcDbLine
 62
250
  6
CONTINUOUS
 10
-2.1
 20
-4.8233336196
 11
2.1
 21
-4.8233336196
  0
LINE
  5
2DA
100
AcDbEntity
  8
RACCORDO
100
AcDbLine
 62
7
  6
CONTINUOUS
 10
5.7813720268
 20
-3.1726524362
 11
5.5837024056
 21
-3.1726524362
  0
LINE
  5
2DB
100
AcDbEntity
  8
RACCORDO
100
AcDbLine
 62
7
  6
CONTINUOUS
 10
-5.5837024056
 20
-3.1726524362
 11
-5.7813720268
 21
-3.1726524362
  0
LINE
  5
2DC
100
AcDbEntity
  8
ASSI
100
AcDbLine
 62
7
  6
CONTINUOUS
 10
-6.0749291127
 20
-2.6648952087
 11
-6.0598226692
 21
-2.6648952087
  0
LINE
  5
2DD
100
AcDbEntity
  8
0
100
AcDbLine
 62
7
  6
CONTINUOUS
 10
-6.0749291127
 20
-2.6648952087
 11
-6.0598226692
 21
-2.6648952087
  0
LINE
  5
2DE
100
AcDbEntity
  8
ASSI
100
AcDbLine
 62
7
  6
CONTINUOUS
 10
6.0598226692
 20
-2.6648952087
 11
6.0749291127
 21
-2.6648952087
  0
LINE
  5
2DF
100
AcDbEntity
  8
0
100
AcDbLine
 62
7
  6
CONTINUOUS
 10
6.0598226692
 20
-2.6648952087
 11
6.0749291127
 21
-2.6648952087
  0
LWPOLYLINE
  5
2E0
100
AcDbEntity
  8
0
100
AcDbPolyline
 62
7
  6
CONTINUOUS
 90
3
 70
0
 10
-5.9208934708
 20
1.2780520855
 10
-5.9369077941
 20
1.2923397865
 10
-5.9591602986
 20
1.3074976188
  0
LWPOLYLINE
  5
2E1
100
AcDbEntity
  8
ASSI
100
AcDbPolyline
 62
7
  6
CONTINUOUS
 90
5
 70
0
 10
-5.920823632
 20
1.2781824489
 10
-5.9241659947
 20
1.2815640957
 10
-5.9368148475
 20
1.2923544975
 10
-5.9504138038
 20
1.302145056
 10
-5.9646556872
 20
1.310716616
  0
LINE
  5
2E2
100
AcDbEntity
  8
ASSI
100
AcDbLine
 62
7
  6
CONTINUOUS
 10
-6.0776889073
 20
1.3386288443
 11
-6.0755422675
 21
1.3351051626
  0
LINE
  5
2E3
100
AcDbEntity
  8
0
100
AcDbLine
 62
7
  6
CONTINUOUS
 10
-6.0776889073
 20
1.3386288443
 11
-6.0755422675
 21
1.3351051626
  0
LINE
  5
2E4
100
AcDbEntity
  8
RACCORDO
100
AcDbLine
 62
250
  6
CONTINUOUS
 10
-2.0997230661
 20
-4.956649791
 11
-2.1
 21
-4.9279571789
  0
LINE
  5
2E5
100
AcDbEntity
  8
SIMBOLO
100
AcDbLine
 62
250
  6
CONTINUOUS
 10
-2.135714
 20
10.4214283356
 11
-2.135714
 21
9.3071433296
  0
LINE
  5
2E6
100
AcDbEntity
  8
RACCORDO
100
AcDbLine
 62
250
  6
CONTINUOUS
 10
-2.1
 20
3.5355483043
 11
-2.0999999985
 21
3.6280784622
  0
LINE
  5
2E7
100
AcDbEntity
  8
ASSI
100
AcDbLine
 62
250
  6
CONTINUOUS
 10
-2.1
 20
3.9949331288
 11
-2.1
 21
3.7986999022
  0
LINE
  5
2E8
100
AcDbEntity
  8
0
100
AcDbLine
 62
250
  6
CONTINUOUS
 10
-2.1
 20
3.9949331288
 11
-2.1
 21
3.7986999022
  0
LINE
  5
2E9
100
AcDbEntity
  8
RACCORDO
100
AcDbLine
 62
250
  6
CONTINUOUS
 10
-2.1
 20
-4.8233336196
 11
-2.1
 21
-4.9279571789
  0
LINE
  5
2EA
100
AcDbEntity
  8
ASSI
100
AcDbLine
 62
250
  6
CONTINUOUS
 10
-2.1
 20
-5.3274373501
 11
-2.1
 21
-5.1200025504
  0
LINE
  5
2EB
100
AcDbEntity
  8
0
100
AcDbLine
 62
250
  6
CONTINUOUS
 10
-2.1
 20
-5.3274373501
 11
-2.1
 21
-5.1200025504
  0
LINE
  5
2EC
100
AcDbEntity
  8
SIMBOLO
100
AcDbLine
 62
250
  6
CONTINUOUS
 10
-1.269048
 20
5.5214283356
 11
-1.269048
 21
6.0785713573
  0
LINE
  5
2ED
100
AcDbEntity
  8
SIMBOLO
100
AcDbLine
 62
250
  6
CONTINUOUS
 10
-0.216667
 20
5.3357143356
 11
-0.216667
 21
7.9357142746
  0
LINE
  5
2EE
100
AcDbEntity
  8
SIMBOLO
100
AcDbLine
 62
250
  6
CONTINUOUS
 10
5.602381
 20
5.5214283356
 11
5.416667
 21
5.3357143356
  0
LWPOLYLINE
  5
2EF
100
AcDbEntity
  8
0
100
AcDbPolyline
 62
7
  6
CONTINUOUS
 90
3
 70
0
 10
-5.95863165
 20
-2.6372812581
 10
-5.9363835408
 20
-2.6221183673
 10
-5.9220469679
 20
-2.6093191528
  0
LWPOLYLINE
  5
2F0
100
AcDbEntity
  8
ASSI
100
AcDbPolyline
 62
7
  6
CONTINUOUS
 90
5
 70
0
 10
-5.9641281735
 20
-2.6405025329
 10
-5.9498898334
 20
-2.6319287627
 10
-5.9362939611
 20
-2.6221353362
 10
-5.9236476335
 20
-2.6113408276
 10
-5.9219115317
 20
-2.6095832466
  0
LINE
  5
2F1
100
AcDbEntity
  8
0
100
AcDbLine
 62
7
  6
CONTINUOUS
 10
-5.982215789
 20
-2.6492162228
 11
-5.95863165
 21
-2.6372812581
  0
LWPOLYLINE
  5
2F2
100
AcDbEntity
  8
0
100
AcDbPolyline
 62
7
  6
CONTINUOUS
 90
10
 70
0
 43
0.3500000006
 10
23.7500004501
 20
14.1928572693
 10
23.8928560181
 20
14.2642861862
 10
23.964284935
 20
14.2642861862
 10
24.1071427689
 20
14.1214283524
 10
24.1071427689
 20
14.0499994354
 10
24.0357138519
 20
13.9785705185
 10
23.964284935
 20
13.9785705185
 10
23.8214293671
 20
14.0499994354
 10
23.7500004501
 20
14.1214283524
 10
23.7500004501
 20
14.1928572693
  0
LINE
  5
2F3
100
AcDbEntity
  8
ASSI
100
AcDbLine
 62
7
  6
CONTINUOUS
 10
-5.979003408
 20
-2.6478208264
 11
-5.9641281735
 21
-2.6405025329
  0
LWPOLYLINE
  5
2F4
100
AcDbEntity
  8
ASSI
100
AcDbPolyline
 62
7
  6
CONTINUOUS
 90
4
 70
0
 10
6.0270612612
 20
1.3322976558
 10
6.010931723
 20
1.3288981491
 10
5.9950573377
 20
1.3241309724
 10
5.979535049
 20
1.3180332935
  0
LWPOLYLINE
  5
2F5
100
AcDbEntity
  8
0
100
AcDbPolyline
 62
7
  6
CONTINUOUS
 90
3
 70
0
 10
-6.0326176793
 20
-2.6628968063
 10
-6.0067487193
 20
-2.6576704777
 10
-5.982215789
 20
-2.6492162228
  0
LWPOLYLINE
  5
2F6
100
AcDbEntity
  8
0
100
AcDbPolyline
 62
7
  6
CONTINUOUS
 90
3
 70
0
 10
6.0331641532
 20
1.3331061772
 10
6.0072884782
 20
1.3278808142
 10
5.9827496019
 20
1.3194290735
  0
LWPOLYLINE
  5
2F7
100
AcDbEntity
  8
ASSI
100
AcDbPolyline
 62
7
  6
CONTINUOUS
 90
5
 70
0
 10
-6.0429933097
 20
-2.6641566855
 10
-6.026516061
 20
-2.6620873931
 10
-6.010390923
 20
-2.6586873317
 10
-5.9945211101
 20
-2.6539194636
 10
-5.979003408
 20
-2.6478208264
  0
LINE
  5
2F8
100
AcDbEntity
  8
0
100
AcDbLine
 62
7
  6
CONTINUOUS
 10
-6.0598226692
 20
-2.6648952087
 11
-6.0326176793
 21
-2.6628968063
  0
LWPOLYLINE
  5
2F9
100
AcDbEntity
  8
ASSI
100
AcDbPolyline
 62
7
  6
CONTINUOUS
 90
3
 70
0
 10
6.026516061
 20
-2.6620873931
 10
6.0429933097
 20
-2.6641566855
 10
6.0598226692
 20
-2.6648952087
  0
LWPOLYLINE
  5
2FA
100
AcDbEntity
  8
0
100
AcDbPolyline
 62
7
  6
CONTINUOUS
 90
4
 70
0
 10
-5.9827496019
 20
1.3194290735
 10
-6.0072884782
 20
1.3278808142
 10
-6.0331641532
 20
1.3331061772
 10
-6.0603766271
 20
1.3351051626
  0
LWPOLYLINE
  5
2FB
100
AcDbEntity
  8
0
100
AcDbPolyline
 62
7
  6
CONTINUOUS
 90
4
 70
0
 10
5.982215789
 20
-2.6492162228
 10
6.0067487193
 20
-2.6576704777
 10
6.0326176793
 20
-2.6628968063
 10
6.0598226692
 20
-2.6648952087
  0
LWPOLYLINE
  5
2FC
100
AcDbEntity
  8
ASSI
100
AcDbPolyline
 62
7
  6
CONTINUOUS
 90
4
 70
0
 10
-5.979535049
 20
1.3180332935
 10
-5.9950573377
 20
1.3241309724
 10
-6.010931723
 20
1.3288981491
 10
-6.0270612612
 20
1.3322976558
  0
LWPOLYLINE
  5
2FD
100
AcDbEntity
  8
ASSI
100
AcDbPolyline
 62
7
  6
CONTINUOUS
 90
4
 70
0
 10
5.979003408
 20
-2.6478208264
 10
5.9945211101
 20
-2.6539194636
 10
6.010390923
 20
-2.6586873317
 10
6.026516061
 20
-2.6620873931
  0
LINE
  5
2FE
100
AcDbEntity
  8
ASSI
100
AcDbLine
 62
7
  6
CONTINUOUS
 10
-5.9646556872
 20
1.310716616
 11
-5.979535049
 21
1.3180332935
  0
LINE
  5
2FF
100
AcDbEntity
  8
ASSI
100
AcDbLine
 62
7
  6
CONTINUOUS
 10
5.9641281735
 20
-2.6405025329
 11
5.979003408
 21
-2.6478208264
  0
LINE
  5
300
100
AcDbEntity
  8
0
100
AcDbLine
 62
7
  6
CONTINUOUS
 10
-5.9591602986
 20
1.3074976188
 11
-5.9827496019
 21
1.3194290735
  0
LINE
  5
301
100
AcDbEntity
  8
0
100
AcDbLine
 62
7
  6
CONTINUOUS
 10
5.95863165
 20
-2.6372812581
 11
5.982215789
 21
-2.6492162228
  0
LINE
  5
302
100
AcDbEntity
  8
SIMBOLO
100
AcDbLine
 62
250
  6
CONTINUOUS
 10
0.65
 20
8.9357143356
 11
0.65
 21
10.7928573855
  0
LINE
  5
303
100
AcDbEntity
  8
SIMBOLO
100
AcDbLine
 62
250
  6
CONTINUOUS
 10
0.959524
 20
7.1928573356
 11
0.959524
 21
5.5214283485
  0
LINE
  5
304
100
AcDbEntity
  8
SIMBOLO
100
AcDbLine
 62
250
  6
CONTINUOUS
 10
1.764285
 20
10.6071433356
 11
1.764285
 21
8.9357143686
  0
LINE
  5
305
100
AcDbEntity
  8
SIMBOLO
100
AcDbLine
 62
250
  6
CONTINUOUS
 10
2.07381
 20
5.3357143356
 11
2.07381
 21
7.1928573644
  0
LINE
  5
306
100
AcDbEntity
  8
ASSI
100
AcDbLine
 62
250
  6
CONTINUOUS
 10
2.1
 20
3.9949331288
 11
2.1
 21
3.7986999022
  0
LINE
  5
307
100
AcDbEntity
  8
0
100
AcDbLine
 62
250
  6
CONTINUOUS
 10
2.1
 20
3.9949331288
 11
2.1
 21
3.7986999022
  0
LINE
  5
308
100
AcDbEntity
  8
ASSI
100
AcDbLine
 62
250
  6
CONTINUOUS
 10
2.1
 20
-5.3274373501
 11
2.1
 21
-5.1200025504
  0
LINE
  5
309
100
AcDbEntity
  8
0
100
AcDbLine
 62
250
  6
CONTINUOUS
 10
2.1
 20
-5.3274373501
 11
2.1
 21
-5.1200025504
  0
LINE
  5
30A
100
AcDbEntity
  8
RACCORDO
100
AcDbLine
 62
250
  6
CONTINUOUS
 10
2.1
 20
3.5355483043
 11
2.1
 21
3.6280784622
  0
LINE
  5
30B
100
AcDbEntity
  8
RACCORDO
100
AcDbLine
 62
250
  6
CONTINUOUS
 10
2.1
 20
-4.8233336196
 11
2.0999999985
 21
-4.9279571789
  0
LINE
  5
30C
100
AcDbEntity
  8
SIMBOLO
100
AcDbLine
 62
250
  6
CONTINUOUS
 10
2.507143
 20
9.3071433356
 11
2.507143
 21
10.4214283416
  0
LINE
  5
30D
100
AcDbEntity
  8
SIMBOLO
100
AcDbLine
 62
250
  6
CONTINUOUS
 10
2.816667
 20
5.3357143356
 11
2.816667
 21
7.1928573644
  0
LINE
  5
30E
100
AcDbEntity
  8
RACCORDO
100
AcDbLine
 62
250
  6
CONTINUOUS
 10
2.0997230665
 20
-4.956649791
 11
2.1
 21
-4.9279571789
  0
LWPOLYLINE
  5
30F
100
AcDbEntity
  8
0
100
AcDbPolyline
 62
7
  6
CONTINUOUS
 90
3
 70
0
 10
5.9591602986
 20
1.3074976188
 10
5.9369077941
 20
1.2923397865
 10
5.9208847279
 20
1.2780442853
  0
LWPOLYLINE
  5
310
100
AcDbEntity
  8
ASSI
100
AcDbPolyline
 62
7
  6
CONTINUOUS
 90
5
 70
0
 10
5.9646556872
 20
1.310716616
 10
5.9504138038
 20
1.302145056
 10
5.9368148475
 20
1.2923544975
 10
5.9241659947
 20
1.2815640957
 10
5.9208152645
 20
1.278173983
  0
LINE
  5
311
100
AcDbEntity
  8
0
100
AcDbLine
 62
7
  6
CONTINUOUS
 10
5.9827496019
 20
1.3194290735
 11
5.9591602986
 21
1.3074976188
  0
LINE
  5
312
100
AcDbEntity
  8
ASSI
100
AcDbLine
 62
7
  6
CONTINUOUS
 10
5.979535049
 20
1.3180332935
 11
5.9646556872
 21
1.310716616
  0
LINE
  5
313
100
AcDbEntity
  8
ASSI
100
AcDbLine
 62
7
  6
CONTINUOUS
 10
6.0435428959
 20
1.3343666603
 11
6.0270612612
 21
1.3322976558
  0
LINE
  5
314
100
AcDbEntity
  8
0
100
AcDbLine
 62
7
  6
CONTINUOUS
 10
6.0603766271
 20
1.3351051626
 11
6.0331641532
 21
1.3331061772
  0
LINE
  5
315
100
AcDbEntity
  8
ASSI
100
AcDbLine
 62
7
  6
CONTINUOUS
 10
6.0603766271
 20
1.3351051626
 11
6.0435428959
 21
1.3343666603
  0
LINE
  5
316
100
AcDbEntity
  8
ASSI
100
AcDbLine
 62
7
  6
CONTINUOUS
 10
-6.0755422675
 20
1.3351051626
 11
-6.0603766271
 21
1.3351051626
  0
LINE
  5
317
100
AcDbEntity
  8
0
100
AcDbLine
 62
7
  6
CONTINUOUS
 10
-6.0755422675
 20
1.3351051626
 11
-6.0603766271
 21
1.3351051626
  0
LINE
  5
318
100
AcDbEntity
  8
ASSI
100
AcDbLine
 62
7
  6
CONTINUOUS
 10
6.0603766271
 20
1.3351051626
 11
6.0755422675
 21
1.3351051626
  0
LINE
  5
319
100
AcDbEntity
  8
0
100
AcDbLine
 62
7
  6
CONTINUOUS
 10
6.0603766271
 20
1.3351051626
 11
6.0755422675
 21
1.3351051626
  0
LWPOLYLINE
  5
31A
100
AcDbEntity
  8
ASSI
100
AcDbPolyline
 62
7
  6
CONTINUOUS
 90
3
 70
0
 10
-6.0270612612
 20
1.3322976558
 10
-6.0435428959
 20
1.3343666603
 10
-6.0603766271
 20
1.3351051626
  0
LINE
  5
31B
100
AcDbEntity
  8
SIMBOLO
100
AcDbLine
 62
250
  6
CONTINUOUS
 10
-5.230952
 20
5.3357143356
 11
-5.602381
 21
5.5214283356
  0
LWPOLYLINE
  5
31C
100
AcDbEntity
  8
0
100
AcDbPolyline
 62
7
  6
CONTINUOUS
 90
3
 70
0
 10
5.9220469679
 20
-2.6093191528
 10
5.9363835408
 20
-2.6221183673
 10
5.95863165
 20
-2.6372812581
  0
LINE
  5
31D
100
AcDbEntity
  8
SIMBOLO
100
AcDbLine
 62
250
  6
CONTINUOUS
 10
-2.383333
 20
5.5214283356
 11
-2.197619
 21
5.3357143356
  0
LWPOLYLINE
  5
31E
100
AcDbEntity
  8
ASSI
100
AcDbPolyline
 62
7
  6
CONTINUOUS
 90
5
 70
0
 10
5.9219115317
 20
-2.6095832466
 10
5.9236476335
 20
-2.6113408276
 10
5.9362939611
 20
-2.6221353362
 10
5.9498898334
 20
-2.6319287627
 10
5.9641281735
 20
-2.6405025329
  0
LINE
  5
31F
100
AcDbEntity
  8
SIMBOLO
100
AcDbLine
 62
250
  6
CONTINUOUS
 10
3.621429
 20
10.4214283356
 11
3.621429
 21
9.3071433296
  0
LINE
  5
320
100
AcDbEntity
  8
SIMBOLO
100
AcDbLine
 62
250
  6
CONTINUOUS
 10
3.683333
 20
7.0071433356
 11
3.683333
 21
6.6357143311
  0
LINE
  5
321
100
AcDbEntity
  8
RACCORDO
100
AcDbLine
 62
7
  6
CONTINUOUS
 10
4.3
 20
3.0227613093
 11
4.3
 21
3.2054616557
  0
LINE
  5
322
100
AcDbEntity
  8
SIMBOLO
100
AcDbLine
 62
250
  6
CONTINUOUS
 10
4.488095
 20
5.3357143356
 11
4.488095
 21
7.9357142746
  0
LINE
  5
323
100
AcDbEntity
  8
SIMBOLO
100
AcDbLine
 62
250
  6
CONTINUOUS
 10
4.673809
 20
8.9357143356
 11
4.673809
 21
11.5357142919
  0
LINE
  5
324
100
AcDbEntity
  8
SIMBOLO
100
AcDbLine
 62
250
  6
CONTINUOUS
 10
5.602381
 20
7.0071433356
 11
5.602381
 21
5.5214283254
  0
LINE
  5
325
100
AcDbEntity
  8
ASSI
100
AcDbLine
 62
7
  6
CONTINUOUS
 10
6.0776889484
 20
1.3386289118
 11
6.0755422675
 21
1.3351051626
  0
LINE
  5
326
100
AcDbEntity
  8
0
100
AcDbLine
 62
7
  6
CONTINUOUS
 10
6.0776889484
 20
1.3386289118
 11
6.0755422675
 21
1.3351051626
  0
LWPOLYLINE
  5
327
100
AcDbEntity
  8
RACCORDO
100
AcDbPolyline
 62
250
  6
CONTINUOUS
 90
34
 70
0
 10
-2.1
 20
3.5355483043
 10
-2.3737939347
 20
3.5265186813
 10
-2.6445065338
 20
3.4999956073
 10
-2.9121377973
 20
3.4559787347
 10
-3.1779172036
 20
3.3941383637
 10
-3.4406152742
 20
3.3148028045
 10
-3.696543574
 20
3.2189584447
 10
-3.9455248204
 20
3.1063757963
 10
-4.1877362958
 20
2.9772818165
 10
-4.4200214124
 20
2.8333474944
 10
-4.642215188
 20
2.6744050553
 10
-4.8544826047
 20
2.5006190746
 10
-5.0541620211
 20
2.3141592898
 10
-5.2411204779
 20
2.1148408222
 10
-5.4154909345
 20
1.9028452293
 10
-5.5750106271
 20
1.6808924523
 10
-5.719481258
 20
1.4488559048
 10
-5.849101125
 20
1.2068593155
 10
-5.9622023578
 20
0.9579989567
 10
-6.0585713109
 20
0.7021829012
 10
-6.1384216298
 20
0.4395011307
 10
-6.2007263803
 20
0.173323858
 10
-6.2452571179
 20
-0.0963923159
 10
-6.2722422872
 20
-0.3696047564
 10
-6.2813402877
 20
-0.6428130163
 10
-6.2723199332
 20
-0.9160139918
 10
-6.2454124099
 20
-1.1892103254
 10
-6.2009696764
 20
-1.4589090273
 10
-6.1387662143
 20
-1.7250624007
 10
-6.0590275419
 20
-1.9877166127
 10
-5.9627821726
 20
-2.2435184374
 10
-5.8498206562
 20
-2.4923747714
 10
-5.7203524428
 20
-2.7343764244
 10
-5.576034396
 20
-2.9664452197
  0
LWPOLYLINE
  5
328
100
AcDbEntity
  8
RACCORDO
100
AcDbPolyline
 62
7
  6
CONTINUOUS
 90
35
 70
0
 10
-2.1
 20
3.6280784622
 10
-2.3785674192
 20
3.6190154237
 10
-2.6562943114
 20
3.5918201872
 10
-2.9319928881
 20
3.5465419003
 10
-3.2045679781
 20
3.4832834567
 10
-3.4727449479
 20
3.4022628433
 10
-3.73509313
 20
3.3038719592
 10
-3.9904192959
 20
3.18855432
 10
-4.2376919253
 20
3.0567719711
 10
-4.4757891233
 20
2.909119097
 10
-4.7036532191
 20
2.7462610127
 10
-4.9203510293
 20
2.5688747726
 10
-5.1250111818
 20
2.377669776
 10
-5.3167720719
 20
2.1734310976
 10
-5.4947762858
 20
1.9570509252
 10
-5.6582367464
 20
1.729475884
 10
-5.8064442316
 20
1.4916867157
 10
-5.9387634116
 20
1.2446954794
 10
-6.054622418
 20
0.9895656893
 10
-6.1535220178
 20
0.727388846
 10
-6.2350335949
 20
0.4592915894
 10
-6.2988045826
 20
0.1864363008
 10
-6.3445610109
 20
-0.0900045593
 10
-6.3721064183
 20
-0.3688458426
 10
-6.381325155
 20
-0.6488831201
 10
-6.372179565
 20
-0.9289134836
 10
-6.3447102487
 20
-1.2077368416
 10
-6.2990398371
 20
-1.4841541301
 10
-6.235366988
 20
-1.7569799026
 10
-6.1539666702
 20
-2.0250451515
 10
-6.0551929161
 20
-2.2871998847
 10
-5.9394733348
 20
-2.5423188907
 10
-5.8073051564
 20
-2.7893125175
 10
-5.6592547012
 20
-3.0271296996
 10
-5.6200934459
 20
-3.0846549104
  0
LINE
  5
329
100
AcDbEntity
  8
0
100
AcDbLine
 62
7
  6
CONTINUOUS
 10
-2.3721549388
 20
3.7808642504
 11
-2.1
 21
3.7892048169
  0
LINE
  5
32A
100
AcDbEntity
  8
RACCORDO
100
AcDbLine
 62
250
  6
CONTINUOUS
 10
2.1
 20
3.5355483043
 11
-2.1
 21
3.5355483043
  0
LINE
  5
32B
100
AcDbEntity
  8
RACCORDO
100
AcDbLine
 62
7
  6
CONTINUOUS
 10
2.1
 20
3.6280784622
 11
-2.1
 21
3.6280784622
  0
LINE
  5
32C
100
AcDbEntity
  8
ASSI
100
AcDbLine
 62
7
  6
CONTINUOUS
 10
-2.1
 20
3.7892048169
 11
2.1
 21
3.7892048169
  0
LINE
  5
32D
100
AcDbEntity
  8
0
100
AcDbLine
 62
7
  6
CONTINUOUS
 10
-2.1
 20
3.7892048169
 11
2.1
 21
3.7892048169
  0
LINE
  5
32E
100
AcDbEntity
  8
ASSI
100
AcDbLine
 62
250
  6
CONTINUOUS
 10
-2.1
 20
3.7986999022
 11
2.1
 21
3.7986999022
  0
LINE
  5
32F
100
AcDbEntity
  8
0
100
AcDbLine
 62
250
  6
CONTINUOUS
 10
-2.1
 20
3.7986999022
 11
2.1
 21
3.7986999022
  0
LINE
  5
330
100
AcDbEntity
  8
ASSI
100
AcDbLine
 62
250
  6
CONTINUOUS
 10
-2.1
 20
3.9949331288
 11
2.1
 21
3.9949331288
  0
LINE
  5
331
100
AcDbEntity
  8
0
100
AcDbLine
 62
250
  6
CONTINUOUS
 10
-2.1
 20
3.9949331288
 11
2.1
 21
3.9949331288
  0
LINE
  5
332
100
AcDbEntity
  8
SIMBOLO
100
AcDbLine
 62
250
  6
CONTINUOUS
 10
5.416667
 20
5.3357143356
 11
4.488095
 21
5.3357143356
  0
LINE
  5
333
100
AcDbEntity
  8
SIMBOLO
100
AcDbLine
 62
250
  6
CONTINUOUS
 10
-2.197619
 20
5.3357143356
 11
-1.454762
 21
5.3357143356
  0
LINE
  5
334
100
AcDbEntity
  8
SIMBOLO
100
AcDbLine
 62
250
  6
CONTINUOUS
 10
1.145239
 20
5.3357143356
 11
2.07381
 21
5.3357143356
  0
LINE
  5
335
100
AcDbEntity
  8
SIMBOLO
100
AcDbLine
 62
250
  6
CONTINUOUS
 10
-4.488095
 20
5.3357143356
 11
-5.230952
 21
5.3357143356
  0
LWPOLYLINE
  5
336
100
AcDbEntity
  8
0
100
AcDbPolyline
 62
250
  6
CONTINUOUS
 90
67
 70
0
 10
2.1
 20
3.9949331288
 10
2.1933303283
 20
3.99421612
 10
2.2887708636
 20
3.9912594872
 10
2.3863216059
 20
3.9860632311
 10
2.4857235298
 20
3.9788307661
 10
2.5872356608
 20
3.9693586809
 10
2.6916350752
 20
3.9570367391
 10
2.7990106617
 20
3.9419558606
 10
2.9092735315
 20
3.9240251342
 10
3.0229340957
 20
3.9023615804
 10
3.1400495046
 20
3.8770752668
 10
3.2605626077
 20
3.8480561455
 10
3.3848123646
 20
3.8140910718
 10
3.5129178405
 20
3.7752972251
 10
3.6447599703
 20
3.7315574672
 10
3.7803205175
 20
3.6813071936
 10
3.9197575622
 20
3.6246385219
 10
4.0629130244
 20
3.561459416
 10
4.209294428
 20
3.4899290707
 10
4.3591335783
 20
3.4101235118
 10
4.5121986701
 20
3.321966866
 10
4.6673018109
 20
3.2233905293
 10
4.8248033208
 20
3.114398511
 10
4.9843428798
 20
2.9949870737
 10
5.1436516355
 20
2.8630760704
 10
5.3031434539
 20
2.7184380641
 10
5.4624044691
 20
2.5613009509
 10
5.6179242301
 20
2.3902676816
 10
5.7701819452
 20
2.2045364706
 10
5.9186984061
 20
2.004909814
 10
6.0585255375
 20
1.7923971402
 10
6.1896449817
 20
1.5659276741
 10
6.3120750962
 20
1.3265730825
 10
6.4209228783
 20
1.0785563423
 10
6.5153347426
 20
0.8217286106
 10
6.5961642744
 20
0.5562395073
 10
6.6610792263
 20
0.2867594082
 10
6.7095274969
 20
0.0136909949
 10
6.7420611876
 20
-0.263367926
 10
6.7580043552
 20
-0.540954619
 10
6.7570532599
 20
-0.8189348801
 10
6.7395116414
 20
-1.0974426965
 10
6.7056147756
 20
-1.3734179198
 10
6.6552109934
 20
-1.6468094102
 10
6.5884519638
 20
-1.9176683883
 10
6.5060279691
 20
-2.1830885398
 10
6.4077451433
 20
-2.4430027811
 10
6.2937973524
 20
-2.6974785847
 10
6.1654564772
 20
-2.9438117492
 10
6.0225904993
 20
-3.1819029648
 10
5.8653314371
 20
-3.4118522012
 10
5.6953472272
 20
-3.6312544152
 10
5.5125022962
 20
-3.8400029012
 10
5.3169322175
 20
-4.0382052088
 10
5.1107116483
 20
-4.2237778564
 10
4.8945389836
 20
-4.3962923642
 10
4.6677158285
 20
-4.5561781299
 10
4.4302216548
 20
-4.7026385655
 10
4.1796729756
 20
-4.8365403266
 10
3.9184532779
 20
-4.9570175328
 10
3.653692495
 20
-5.0606748595
 10
3.3842496743
 20
-5.1462026466
 10
3.1112657684
 20
-5.2149112681
 10
2.8452935689
 20
-5.2673354425
 10
2.5898506729
 20
-5.3036535136
 10
2.3414194833
 20
-5.3236874585
 10
2.1
 20
-5.3274373501
  0
LWPOLYLINE
  5
337
100
AcDbEntity
  8
0
100
AcDbPolyline
 62
250
  6
CONTINUOUS
 90
67
 70
0
 10
2.1
 20
3.7986999022
 10
2.1892146442
 20
3.7977993353
 10
2.2805515113
 20
3.7950135007
 10
2.3739685994
 20
3.7902151769
 10
2.4691062414
 20
3.7833012231
 10
2.5662242196
 20
3.774127886
 10
2.6661950058
 20
3.7624427082
 10
2.7689873667
 20
3.7480405548
 10
2.8744721396
 20
3.7307229556
 10
2.9833440045
 20
3.7101225364
 10
3.0954693018
 20
3.6859710248
 10
3.2107225137
 20
3.6579882686
 10
3.3297600237
 20
3.6256568169
 10
3.4523900936
 20
3.5886163366
 10
3.5783859848
 20
3.5464996457
 10
3.7082723716
 20
3.4986296888
 10
3.8417355883
 20
3.4445488058
 10
3.9784332192
 20
3.3838015458
 10
4.1187389693
 20
3.3155763201
 10
4.2622207168
 20
3.2393537036
 10
4.4083403146
 20
3.1546434851
 10
4.5571554971
 20
3.060534172
 10
4.708044506
 20
2.9564198579
 10
4.860183473
 20
2.8417895341
 10
5.0131294453
 20
2.7157662042
 10
5.1660096238
 20
2.5776900101
 10
5.3176385022
 20
2.4271162598
 10
5.4669493854
 20
2.2635177767
 10
5.6131127581
 20
2.0860937552
 10
5.7544435346
 20
1.8949983165
 10
5.888694467
 20
1.6914417049
 10
6.0148824331
 20
1.4749959559
 10
6.1313661181
 20
1.2462622864
 10
6.2355185311
 20
1.0085389098
 10
6.3263755829
 20
0.7627428884
 10
6.4033715012
 20
0.5092502267
 10
6.4653506346
 20
0.251008779
 10
6.5119215866
 20
-0.0105341931
 10
6.5429368966
 20
-0.2750040382
 10
6.5581105753
 20
-0.5409104734
 10
6.5573080303
 20
-0.8071504517
 10
6.5405426999
 20
-1.0729421932
 10
6.5079486972
 20
-1.3372634965
 10
6.4596843636
 20
-1.599162329
 10
6.3959264479
 20
-1.8577133137
 10
6.3168954301
 20
-2.1119439757
 10
6.2228369445
 20
-2.3609212769
 10
6.1140442494
 20
-2.6037630701
 10
5.9909589974
 20
-2.8396334661
 10
5.8540726654
 20
-3.0677193092
 10
5.7038975855
 20
-3.2872216779
 10
5.5409712797
 20
-3.4973609232
 10
5.3658625884
 20
-3.697367157
 10
5.1791542847
 20
-3.8865116169
 10
4.9814824554
 20
-4.0641505814
 10
4.7742340093
 20
-4.2292089128
 10
4.5575756591
 20
-4.3816893511
 10
4.3301447245
 20
-4.5222967838
 10
4.0903975015
 20
-4.6511978069
 10
3.8409774871
 20
-4.7661742187
 10
3.5870086076
 20
-4.8647926759
 10
3.3288194032
 20
-4.9473138988
 10
3.0682349755
 20
-5.0135392184
 10
2.8132756816
 20
-5.0625035899
 10
2.5674517156
 20
-5.0953753554
 10
2.3294279904
 20
-5.1140746999
 10
2.1
 20
-5.1200025504
  0
LWPOLYLINE
  5
338
100
AcDbEntity
  8
ASSI
100
AcDbPolyline
 62
7
  6
CONTINUOUS
 90
31
 70
0
 10
2.1
 20
3.7892048169
 10
2.2638188102
 20
3.7861840372
 10
2.4274100937
 20
3.7771312339
 10
2.5905531731
 20
3.7620659043
 10
2.7530090981
 20
3.7410166112
 10
2.9145774566
 20
3.7140143079
 10
3.0750954992
 20
3.6810854206
 10
3.2343943222
 20
3.6422557568
 10
3.3922055967
 20
3.5975797365
 10
3.5482208428
 20
3.5471403498
 10
3.7021760284
 20
3.4910258454
 10
3.8539163376
 20
3.4292935714
 10
4.0033031526
 20
3.3619983289
 10
4.1501608447
 20
3.2892215877
 10
4.2942663462
 20
3.2110760177
 10
4.4354151207
 20
3.1276753268
 10
4.5734229886
 20
3.0391290408
 10
4.7080950157
 20
2.9455606466
 10
4.8392183731
 20
2.8471174819
 10
4.9665906961
 20
2.7439535069
 10
5.0900637432
 20
2.6361881527
 10
5.209509935
 20
2.5239227602
 10
5.3247911911
 20
2.407267877
 10
5.4357163428
 20
2.2864104586
 10
5.5420883802
 20
2.1615763583
 10
5.6437382507
 20
2.0329839689
 10
5.7405700088
 20
1.9007725195
 10
5.8325030509
 20
1.7650552734
 10
5.9194232243
 20
1.6259900083
 10
6.0011911951
 20
1.483784865
 10
6.0776889484
 20
1.3386289118
  0
LWPOLYLINE
  5
339
100
AcDbEntity
  8
ASSI
100
AcDbPolyline
 62
250
  6
CONTINUOUS
 90
82
 70
0
 10
2.1
 20
3.7986999022
 10
2.2724443431
 20
3.7953367324
 10
2.4449519537
 20
3.7852504724
 10
2.6172645747
 20
3.7684469663
 10
2.7892951096
 20
3.7449072744
 10
2.9606036109
 20
3.7146560269
 10
3.1304092451
 20
3.6778286535
 10
3.2982943534
 20
3.6345464121
 10
3.4641744711
 20
3.5848536122
 10
3.6277833514
 20
3.528835426
 10
3.7887056343
 20
3.4666441877
 10
3.9468778521
 20
3.398316783
 10
4.1025590583
 20
3.3237561916
 10
4.2557709446
 20
3.2429251107
 10
4.4060068059
 20
3.1560545542
 10
4.5527334375
 20
3.0634500233
 10
4.6956862515
 20
2.9652939202
 10
4.8346975509
 20
2.8617074213
 10
4.9694148549
 20
2.7529588513
 10
5.09951213
 20
2.639334126
 10
5.2249307438
 20
2.5208988706
 10
5.3457140967
 20
2.3975847511
 10
5.4617637071
 20
2.2694813478
 10
5.5728287279
 20
2.136877928
 10
5.6787266402
 20
2.0000081868
 10
5.7793314329
 20
1.8590362989
 10
5.8744532513
 20
1.7142163529
 10
5.9638388848
 20
1.5659352937
 10
6.0473068852
 20
1.4145163157
 10
6.1247880729
 20
1.2600947873
 10
6.196209376
 20
1.1027831707
 10
6.2614509673
 20
0.9427797019
 10
6.3204096958
 20
0.7803507244
 10
6.3730345734
 20
0.6157089271
 10
6.4192664184
 20
0.4490824218
 10
6.4590343508
 20
0.2807479822
 10
6.4922733061
 20
0.1109923114
 10
6.5189314173
 20
-0.0599357797
 10
6.5389579152
 20
-0.231772365
 10
6.5523050925
 20
-0.4042055239
 10
6.5589383378
 20
-0.5769402008
 10
6.5588339749
 20
-0.7497551579
 10
6.5519959069
 20
-0.922448693
 10
6.5384562942
 20
-1.094766788
 10
6.5182521978
 20
-1.2664477775
 10
6.4914169987
 20
-1.437278112
 10
6.4579791314
 20
-1.6070487314
 10
6.4179886363
 20
-1.7754519782
 10
6.3715244932
 20
-1.9421292787
 10
6.3186665367
 20
-2.1067841471
 10
6.2594732591
 20
-2.2692108385
 10
6.1940081912
 20
-2.4291918121
 10
6.1223742332
 20
-2.5864747433
 10
6.0446935291
 20
-2.740846699
 10
5.9610613811
 20
-2.8921502769
 10
5.8715759444
 20
-3.0402076374
 10
5.7763969655
 20
-3.1847435621
 10
5.6757198086
 20
-3.3254597392
 10
5.5697165861
 20
-3.4621178805
 10
5.4585242773
 20
-3.594536474
 10
5.3423011734
 20
-3.7225140489
 10
5.2212282675
 20
-3.8458346515
 10
5.0954700967
 20
-3.9643296084
 10
4.9651744226
 20
-4.0778824206
 10
4.8305083822
 20
-4.1863565297
 10
4.691709973
 20
-4.2895627012
 10
4.5490391507
 20
-4.3873128888
 10
4.4027262857
 20
-4.4794538875
 10
4.2529779319
 20
-4.5658552207
 10
4.1000278767
 20
-4.6463777217
 10
3.9441221368
 20
-4.7208856156
 10
3.7854711784
 20
-4.7892686069
 10
3.6242611244
 20
-4.851438747
 10
3.4607159033
 20
-4.9073191005
 10
3.295103585
 20
-4.9568274021
 10
3.127686223
 20
-4.9998928353
 10
2.9587028865
 20
-5.0364568997
 10
2.7884205015
 20
-5.0664608212
 10
2.6171466077
 20
-5.0898500176
 10
2.4451556646
 20
-5.1065871831
 10
2.2726876457
 20
-5.116645622
 10
2.1
 20
-5.1200025504
  0
LWPOLYLINE
  5
33A
100
AcDbEntity
  8
ASSI
100
AcDbPolyline
 62
250
  6
CONTINUOUS
 90
82
 70
0
 10
2.1
 20
3.9949331288
 10
2.2806282544
 20
3.9914048735
 10
2.4607696265
 20
3.9808680555
 10
2.6404241162
 20
3.9633226833
 10
2.8200330793
 20
3.9386940985
 10
2.9991551601
 20
3.9070569929
 10
3.1764662908
 20
3.8686354071
 10
3.3517974705
 20
3.8234136573
 10
3.5253177001
 20
3.7714074924
 10
3.6962099159
 20
3.7128881084
 10
3.8642739373
 20
3.6479153467
 10
4.0297099449
 20
3.5764294604
 10
4.1923014161
 20
3.4985222696
 10
4.3523246775
 20
3.4140283916
 10
4.5095034026
 20
3.3231133376
 10
4.6627920901
 20
3.2263652692
 10
4.8121124941
 20
3.1237736616
 10
4.9575428604
 20
3.0153491889
 10
5.0982724246
 20
2.9017118052
 10
5.2341364086
 20
2.7829623759
 10
5.3652995905
 20
2.6590001992
 10
5.4914455399
 20
2.5301428722
 10
5.6126529411
 20
2.3962813939
 10
5.7288431099
 20
2.2575249517
 10
5.8394635626
 20
2.1145184176
 10
5.9445145364
 20
1.967186039
 10
6.0439957941
 20
1.8156037602
 10
6.137354141
 20
1.6606439754
 10
6.22451394
 20
1.5023985878
 10
6.3055508282
 20
1.3407758719
 10
6.3801385213
 20
1.1763727514
 10
6.4482488164
 20
1.0091454711
 10
6.5099099166
 20
0.8391379583
 10
6.5648801459
 20
0.6670786321
 10
6.6131414138
 20
0.4929322479
 10
6.6547118109
 20
0.3167342007
 10
6.6894039333
 20
0.1393188311
 10
6.7172010329
 20
-0.0393237802
 10
6.7381198578
 20
-0.2191835998
 10
6.7520232483
 20
-0.3993964037
 10
6.758857403
 20
-0.579924524
 10
6.7586761234
 20
-0.7608055614
 10
6.7515036541
 20
-0.9412882418
 10
6.7373157682
 20
-1.1213775182
 10
6.7161366928
 20
-1.3010684153
 10
6.6880633532
 20
-1.4795948139
 10
6.6530642311
 20
-1.6570048273
 10
6.611170845
 20
-1.8332503699
 10
6.5625746752
 20
-2.0074210779
 10
6.5072454934
 20
-2.1794544122
 10
6.4452135279
 20
-2.349413004
 10
6.3767609441
 20
-2.5165742992
 10
6.3018711439
 20
-2.6809164205
 10
6.2205607254
 20
-2.8424613855
 10
6.1331616481
 20
-3.0005525262
 10
6.0396171835
 20
-3.1552288351
 10
5.93998406
 20
-3.3064515
 10
5.8347644229
 20
-3.4534471892
 10
5.7239505539
 20
-3.5961604526
 10
5.6075501713
 20
-3.7346469638
 10
5.4860885749
 20
-3.8683001151
 10
5.3595646323
 20
-3.9970872027
 10
5.2279794758
 20
-4.121041175
 10
5.0918618032
 20
-4.2396539279
 10
4.9511430741
 20
-4.3529334144
 10
4.8058918287
 20
-4.4608719304
 10
4.6568423854
 20
-4.5629379051
 10
4.5040044605
 20
-4.6590842847
 10
4.3473683377
 20
-4.7493583661
 10
4.1876391859
 20
-4.8333701149
 10
4.0248378266
 20
-4.9110901311
 10
3.8589434383
 20
-4.9825480319
 10
3.6905987249
 20
-5.0474423094
 10
3.5197231422
 20
-5.1057549496
 10
3.3463972344
 20
-5.1575041433
 10
3.1715053385
 20
-5.2024426852
 10
2.9950102665
 20
-5.240529751
 10
2.8169492063
 20
-5.2718062904
 10
2.6383180594
 20
-5.296147748
 10
2.459448793
 20
-5.3135126271
 10
2.2800094398
 20
-5.323942489
 10
2.1
 20
-5.3274373501
  0
LWPOLYLINE
  5
33B
100
AcDbEntity
  8
0
100
AcDbPolyline
 62
7
  6
CONTINUOUS
 90
16
 70
0
 10
2.1
 20
3.7892048169
 10
2.3725998128
 20
3.7808370532
 10
2.6442817422
 20
3.7557752582
 10
2.9140270438
 20
3.7141169518
 10
3.1808624015
 20
3.6559986099
 10
3.4437362304
 20
3.581621319
 10
3.7015287929
 20
3.491275683
 10
3.953196236
 20
3.3853096342
 10
4.1978694468
 20
3.2641066502
 10
4.4347228744
 20
3.1281016301
 10
4.6629092799
 20
2.9777777831
 10
4.8815148208
 20
2.8137171189
 10
5.0896508344
 20
2.6365622307
 10
5.286492611
 20
2.4469837982
 10
5.4713154372
 20
2.2456620295
 10
5.6434636003
 20
2.0333448275
  0
LWPOLYLINE
  5
33C
100
AcDbEntity
  8
DRAFT
100
AcDbPolyline
 62
7
  6
CONTINUOUS
 90
7
 70
0
 10
2.3669822428
 20
3.6193962119
 10
2.6134013671
 20
3.5972695881
 10
2.8658861141
 20
3.5593320683
 10
3.1165285567
 20
3.5061311037
 10
3.3644514823
 20
3.4379080839
 10
3.6070232532
 20
3.3553871776
 10
3.8433666568
 20
3.2588097746
  0
LWPOLYLINE
  5
33D
100
AcDbEntity
  8
DRAFT
100
AcDbPolyline
 62
7
  6
CONTINUOUS
 90
3
 70
0
 10
3.8433666568
 20
3.2588097746
 10
4.0743589058
 20
3.1479344852
 10
4.3
 20
3.0227613093
  0
LWPOLYLINE
  5
33E
100
AcDbEntity
  8
DRAFT
100
AcDbPolyline
 62
7
  6
CONTINUOUS
 90
10
 70
0
 10
4.3
 20
3.0227613093
 10
4.4622629986
 20
2.9211951196
 10
4.6198438724
 20
2.8125084893
 10
4.7724302882
 20
2.6969168407
 10
4.9197198117
 20
2.5746492825
 10
5.0614205079
 20
2.4459481552
 10
5.1972515193
 20
2.3110685504
 10
5.326943622
 20
2.1702778061
 10
5.4502397596
 20
2.0238549769
 10
5.5668955529
 20
1.8720902802
  0
LINE
  5
33F
100
AcDbEntity
  8
SIMBOLO
100
AcDbLine
 62
250
  6
CONTINUOUS
 10
-2.197619
 20
6.3261903356
 11
-2.383333
 21
6.4500003356
  0
LINE
  5
340
100
AcDbEntity
  8
SIMBOLO
100
AcDbLine
 62
250
  6
CONTINUOUS
 10
-1.269048
 20
6.0785713356
 11
-1.454762
 21
6.2023813356
  0
LINE
  5
341
100
AcDbEntity
  8
SIMBOLO
100
AcDbLine
 62
250
  6
CONTINUOUS
 10
-1.454762
 20
7.1928573356
 11
-1.269048
 21
7.0071433356
  0
LINE
  5
342
100
AcDbEntity
  8
SIMBOLO
100
AcDbLine
 62
250
  6
CONTINUOUS
 10
-2.878571
 20
8.9357143356
 11
-3.25
 21
9.3071433356
  0
LINE
  5
343
100
AcDbEntity
  8
SIMBOLO
100
AcDbLine
 62
250
  6
CONTINUOUS
 10
0.959524
 20
5.5214283356
 11
1.145239
 21
5.3357143356
  0
LINE
  5
344
100
AcDbEntity
  8
ASSI
100
AcDbLine
 62
250
  6
CONTINUOUS
 10
10.5001522961
 20
-8.5142856644
 11
10.3937282419
 21
-8.3546293154
  0
LINE
  5
345
100
AcDbEntity
  8
RACCORDO
100
AcDbLine
 62
250
  6
CONTINUOUS
 10
10.5001522961
 20
-8.5142856644
 11
10.3937282419
 21
-8.3546293154
  0
LINE
  5
346
100
AcDbEntity
  8
ASSI
100
AcDbLine
 62
250
  6
CONTINUOUS
 10
11.0
 20
-8.0143427719
 11
10.8936520894
 21
-7.8548006529
  0
LINE
  5
347
100
AcDbEntity
  8
RACCORDO
100
AcDbLine
 62
250
  6
CONTINUOUS
 10
11.0
 20
-8.0143427719
 11
10.8936520894
 21
-7.8548006529
  0
LWPOLYLINE
  5
348
100
AcDbEntity
  8
DRAFT
100
AcDbPolyline
 62
7
  6
CONTINUOUS
 90
15
 70
0
 10
5.9746076909
 20
-2.5068284427
 10
6.0769359096
 20
-2.2740204735
 10
6.1657831883
 20
-2.0345502175
 10
6.2400481366
 20
-1.7915366432
 10
6.2994731983
 20
-1.5454474653
 10
6.3443159297
 20
-1.2958149691
 10
6.3742476086
 20
-1.0443549789
 10
6.389158661
 20
-0.7904211068
 10
6.389158661
 20
-0.5346597407
 10
6.3742476086
 20
-0.2807258686
 10
6.3443159297
 20
-0.0292658784
 10
6.2994731983
 20
0.2203666178
 10
6.2400481366
 20
0.4664557957
 10
6.1657831883
 20
0.7094693699
 10
6.0769359096
 20
0.9489396259
  0
LINE
  5
349
100
AcDbEntity
  8
DRAFT
100
AcDbLine
 62
7
  6
CONTINUOUS
 10
5.8591656623
 20
-2.7319344691
 11
5.9746076909
 21
-2.5068284427
  0
LWPOLYLINE
  5
34A
100
AcDbEntity
  8
RACCORDO
100
AcDbPolyline
 62
250
  6
CONTINUOUS
 90
34
 70
0
 10
5.5757281215
 20
-2.9669015935
 10
5.7200708703
 20
-2.7348624026
 10
5.8495658068
 20
-2.492889931
 10
5.9625565988
 20
-2.2440608114
 10
6.0588341474
 20
-1.9882842421
 10
6.1386075514
 20
-1.7256533186
 10
6.2008477758
 20
-1.4595196992
 10
6.2453295553
 20
-1.1898369713
 10
6.2722781551
 20
-0.9166530781
 10
6.2813403355
 20
-0.64346018
 10
6.2722849374
 20
-0.3702552476
 10
6.2453431198
 20
-0.0970417732
 10
6.2008551194
 20
0.172679463
 10
6.1385922745
 20
0.4388661127
 10
6.0587832468
 20
0.7015612871
 10
5.9624542576
 20
0.9573935787
 10
5.8493913774
 20
1.2062729763
 10
5.7198085358
 20
1.4482914359
 10
5.5753737428
 20
1.680351578
 10
5.4158897263
 20
1.9023287442
 10
5.2415537585
 20
2.1143504504
 10
5.054625666
 20
2.3136984369
 10
4.8549681226
 20
2.5001937298
 10
4.6427184545
 20
2.6740186235
 10
4.4205484669
 20
2.8329973111
 10
4.1883268991
 20
2.9769557577
 10
3.9461850118
 20
3.1060711994
 10
3.6971883927
 20
3.2186949578
 10
3.4410770706
 20
3.3146238213
 10
3.1781110168
 20
3.3940635294
 10
2.9121357326
 20
3.4559787641
 10
2.644433052
 20
3.5000249077
 10
2.3737211412
 20
3.5265479717
 10
2.1
 20
3.5355483043
  0
LWPOLYLINE
  5
34B
100
AcDbEntity
  8
DRAFT
100
AcDbPolyline
 62
7
  6
CONTINUOUS
 90
3
 70
0
 10
5.5878387851
 20
-3.1621596617
 10
5.7302426937
 20
-2.9503782088
 10
5.8591656623
 20
-2.7319344691
  0
LWPOLYLINE
  5
34C
100
AcDbEntity
  8
RACCORDO
100
AcDbPolyline
 62
7
  6
CONTINUOUS
 90
35
 70
0
 10
5.6200114659
 20
-3.0847732505
 10
5.6590406223
 20
-3.0274497013
 10
5.8071095833
 20
-2.7896508483
 10
5.9392973828
 20
-2.542675252
 10
6.0550382042
 20
-2.2875729392
 10
6.153834858
 20
-2.0254329916
 10
6.2352594139
 20
-1.7573809039
 10
6.2989576529
 20
-1.4845668405
 10
6.3446545053
 20
-1.2081598538
 10
6.3721512598
 20
-0.9293451633
 10
6.3813251886
 20
-0.6493216185
 10
6.3721355574
 20
-0.3692891654
 10
6.3446198819
 20
-0.0904507069
 10
6.2988936824
 20
0.1859893224
 10
6.2351533145
 20
0.4588457223
 10
6.1536725945
 20
0.7269461851
 10
6.0548038448
 20
0.9891286035
 10
5.9389753131
 20
1.2442666956
 10
5.8066861678
 20
1.4912685715
 10
5.6585086013
 20
1.7290699166
 10
5.4950787871
 20
1.9566575834
 10
5.3171051616
 20
2.1730521583
 10
5.1253723086
 20
2.377309504
 10
4.9207331335
 20
2.5685404837
 10
4.7040522793
 20
2.7459555543
 10
4.4762110464
 20
2.9088378918
 10
4.2381749784
 20
3.0564938283
 10
3.9909733561
 20
3.188281876
 10
3.7356392113
 20
3.3036464785
 10
3.4731114376
 20
3.402138888
 10
3.2046610296
 20
3.4832586315
 10
2.9318896368
 20
3.5465623332
 10
2.6561364407
 20
3.5918408518
 10
2.3784435464
 20
3.6190234908
 10
2.1
 20
3.6280784622
  0
LINE
  5
34D
100
AcDbEntity
  8
ASSI
100
AcDbLine
 62
7
  6
CONTINUOUS
 10
5.6887617417
 20
-3.2955000535
 11
5.7813720268
 21
-3.1642856644
  0
LINE
  5
34E
100
AcDbEntity
  8
RACCORDO
100
AcDbLine
 62
250
  6
CONTINUOUS
 10
5.416341683
 20
-3.1888844159
 11
5.5757281215
 21
-2.9669015935
  0
LINE
  5
34F
100
AcDbEntity
  8
0
100
AcDbLine
 62
7
  6
CONTINUOUS
 10
5.6118321012
 20
-3.3973307231
 11
5.7813720268
 21
-3.1642856644
  0
LWPOLYLINE
  5
350
100
AcDbEntity
  8
DRAFT
100
AcDbPolyline
 62
7
  6
CONTINUOUS
 90
25
 70
0
 10
5.5837024056
 20
-3.1726524362
 10
5.481788738
 20
-3.3083675839
 10
5.3749542336
 20
-3.4395790162
 10
5.2631988924
 20
-3.566286733
 10
5.1463321972
 20
-3.6886758096
 10
5.0245446651
 20
-3.8065611708
 10
4.8984078484
 20
-3.919387591
 10
4.7679029361
 20
-4.0271293806
 10
4.633048739
 20
-4.1298122293
 10
4.494473242
 20
-4.2269579811
 10
4.3521593994
 20
-4.3185406656
 10
4.2061242567
 20
-4.4045862531
 10
4.0570469352
 20
-4.4846944992
 10
3.9049136408
 20
-4.5588377536
 10
3.7497381675
 20
-4.6270436665
 10
3.5922410185
 20
-4.6889949441
 10
3.4324117032
 20
-4.744662681
 10
3.2702607122
 20
-4.7940757826
 10
3.1065400203
 20
-4.8370036715
 10
2.9412422502
 20
-4.8734165476
 10
2.7743747793
 20
-4.903344211
 10
2.6067117147
 20
-4.9266454848
 10
2.4385110922
 20
-4.9432733099
 10
2.2695148762
 20
-4.9532747453
 10
2.0997230665
 20
-4.956649791
  0
LINE
  5
351
100
AcDbEntity
  8
ASSI
100
AcDbLine
 62
7
  6
CONTINUOUS
 10
5.5914900693
 20
-3.4232704589
 11
5.6887617417
 21
-3.2955000535
  0
LINE
  5
352
100
AcDbEntity
  8
SIMBOLO
100
AcDbLine
 62
250
  6
CONTINUOUS
 10
-5.230952
 20
7.1928573356
 11
-4.488095
 21
7.1928573356
  0
LINE
  5
353
100
AcDbEntity
  8
SIMBOLO
100
AcDbLine
 62
250
  6
CONTINUOUS
 10
-2.197619
 20
7.1928573356
 11
-1.454762
 21
7.1928573356
  0
LINE
  5
354
100
AcDbEntity
  8
SIMBOLO
100
AcDbLine
 62
250
  6
CONTINUOUS
 10
-0.52619
 20
7.1928573356
 11
0.216667
 21
7.1928573356
  0
LINE
  5
355
100
AcDbEntity
  8
SIMBOLO
100
AcDbLine
 62
250
  6
CONTINUOUS
 10
2.816667
 20
7.1928573356
 11
3.559524
 21
7.1928573356
  0
LINE
  5
356
100
AcDbEntity
  8
SIMBOLO
100
AcDbLine
 62
250
  6
CONTINUOUS
 10
4.488095
 20
7.1928573356
 11
5.416667
 21
7.1928573356
  0
LINE
  5
357
100
AcDbEntity
  8
SIMBOLO
100
AcDbLine
 62
250
  6
CONTINUOUS
 10
-3.373809
 20
7.9357143356
 11
-3.311905
 21
7.9357143356
  0
LINE
  5
358
100
AcDbEntity
  8
SIMBOLO
100
AcDbLine
 62
250
  6
CONTINUOUS
 10
-1.454762
 20
6.2023813356
 11
-2.197619
 21
6.3261903356
  0
LINE
  5
359
100
AcDbEntity
  8
SIMBOLO
100
AcDbLine
 62
250
  6
CONTINUOUS
 10
-4.735714
 20
8.9357143356
 11
-5.107143
 21
9.1214283356
  0
LINE
  5
35A
100
AcDbEntity
  8
SIMBOLO
100
AcDbLine
 62
250
  6
CONTINUOUS
 10
-2.507143
 20
10.7928573356
 11
-2.135714
 21
10.4214283356
  0
LWPOLYLINE
  5
35B
100
AcDbEntity
  8
0
100
AcDbPolyline
 62
7
  6
CONTINUOUS
 90
3
 70
0
 10
5.6434636003
 20
2.0333448275
 10
5.8023050671
 20
1.8108316262
 10
5.9472330682
 20
1.5789703734
  0
LINE
  5
35C
100
AcDbEntity
  8
SIMBOLO
100
AcDbLine
 62
250
  6
CONTINUOUS
 10
3.559524
 20
7.1928573356
 11
3.683333
 21
7.0071433356
  0
LINE
  5
35D
100
AcDbEntity
  8
0
100
AcDbLine
 62
7
  6
CONTINUOUS
 10
5.9472330682
 20
1.5789703734
 11
6.0776889484
 21
1.3386289118
  0
LWPOLYLINE
  5
35E
100
AcDbEntity
  8
DRAFT
100
AcDbPolyline
 62
7
  6
CONTINUOUS
 90
4
 70
0
 10
5.9746076909
 20
1.1817475952
 10
5.8591656623
 20
1.4068536215
 10
5.7302426937
 20
1.6252973612
 10
5.5878387851
 20
1.8370788141
  0
LINE
  5
35F
100
AcDbEntity
  8
DRAFT
100
AcDbLine
 62
7
  6
CONTINUOUS
 10
6.0769359096
 20
0.9489396259
 11
5.9746076909
 21
1.1817475952
  0
LWPOLYLINE
  5
360
100
AcDbEntity
  8
ASSI
100
AcDbPolyline
 62
250
  6
CONTINUOUS
 90
8
 70
0
 10
10.8936520894
 20
-7.8548006529
 10
10.8931111495
 20
-7.8530507255
 10
10.8925749522
 20
-7.8493738803
 10
10.8920434974
 20
-7.8437701174
 10
10.8915140293
 20
-7.8362059328
 10
10.8909893037
 20
-7.8267148305
 10
10.8904775885
 20
-7.8153973219
 10
10.8899794407
 20
-7.8022179242
  0
LINE
  5
361
100
AcDbEntity
  8
ASSI
100
AcDbLine
 62
250
  6
CONTINUOUS
 10
10.8899794407
 20
-7.8022179242
 11
10.8890287737
 21
-7.77058687
  0
LINE
  5
362
100
AcDbEntity
  8
ASSI
100
AcDbLine
 62
250
  6
CONTINUOUS
 10
10.3913392889
 20
-8.3089561271
 11
10.3904311935
 21
-8.2697305167
  0
LINE
  5
363
100
AcDbEntity
  8
ASSI
100
AcDbLine
 62
250
  6
CONTINUOUS
 10
10.8890287737
 20
-7.77058687
 11
10.8881579649
 21
-7.732469212
  0
LINE
  5
364
100
AcDbEntity
  8
RACCORDO
100
AcDbLine
 62
250
  6
CONTINUOUS
 10
10.8888780229
 20
-7.7646318957
 11
10.8877562501
 21
-7.711191322
  0
LINE
  5
365
100
AcDbEntity
  8
RACCORDO
100
AcDbLine
 62
250
  6
CONTINUOUS
 10
10.3908821259
 20
-8.2907874859
 11
10.3895651778
 21
-8.2191534682
  0
LINE
  5
366
100
AcDbEntity
  8
ASSI
100
AcDbLine
 62
250
  6
CONTINUOUS
 10
10.8881579649
 20
-7.732469212
 11
10.8870259214
 21
-7.6644467004
  0
LINE
  5
367
100
AcDbEntity
  8
ASSI
100
AcDbLine
 62
250
  6
CONTINUOUS
 10
10.3904311935
 20
-8.2697305167
 11
10.3891532304
 21
-8.1898364794
  0
LINE
  5
368
100
AcDbEntity
  8
RACCORDO
100
AcDbLine
 62
250
  6
CONTINUOUS
 10
10.8877562501
 20
-7.711191322
 11
10.8868065059
 21
-7.6477377356
  0
LINE
  5
369
100
AcDbEntity
  8
ASSI
100
AcDbLine
 62
250
  6
CONTINUOUS
 10
10.8870259214
 20
-7.6644467004
 11
10.8861341556
 21
-7.5852516814
  0
LINE
  5
36A
100
AcDbEntity
  8
RACCORDO
100
AcDbLine
 62
250
  6
CONTINUOUS
 10
10.3895651778
 20
-8.2191534682
 11
10.387832885
 21
-8.0674645542
  0
LINE
  5
36B
100
AcDbEntity
  8
ASSI
100
AcDbLine
 62
250
  6
CONTINUOUS
 10
10.3891532304
 20
-8.1898364794
 11
10.3876616904
 21
-8.0476537625
  0
LINE
  5
36C
100
AcDbEntity
  8
RACCORDO
100
AcDbLine
 62
250
  6
CONTINUOUS
 10
10.8868065059
 20
-7.6477377356
 11
10.8857594143
 21
-7.5379520013
  0
LINE
  5
36D
100
AcDbEntity
  8
ASSI
100
AcDbLine
 62
250
  6
CONTINUOUS
 10
10.8861341556
 20
-7.5852516814
 11
10.8853775628
 21
-7.4676626935
  0
LINE
  5
36E
100
AcDbEntity
  8
RACCORDO
100
AcDbLine
 62
250
  6
CONTINUOUS
 10
10.387832885
 20
-8.0674645542
 11
10.3858374806
 21
-7.7217274657
  0
LINE
  5
36F
100
AcDbEntity
  8
ASSI
100
AcDbLine
 62
250
  6
CONTINUOUS
 10
10.3876616904
 20
-8.0476537625
 11
10.3858373126
 21
-7.7217058029
  0
LWPOLYLINE
  5
370
100
AcDbEntity
  8
RACCORDO
100
AcDbPolyline
 62
250
  6
CONTINUOUS
 90
3
 70
0
 10
10.8857594143
 20
-7.5379520013
 10
10.885222445
 20
-7.4176138631
 10
10.8851605229
 20
-7.375704141
  0
LINE
  5
371
100
AcDbEntity
  8
ASSI
100
AcDbLine
 62
250
  6
CONTINUOUS
 10
10.8853775628
 20
-7.4676626935
 11
10.8851605229
 21
-7.375704141
  0
LINE
  5
372
100
AcDbEntity
  8
RACCORDO
100
AcDbLine
 62
250
  6
CONTINUOUS
 10
10.3858374806
 20
-7.7217274657
 11
10.3800527521
 21
1.8155696078
  0
LINE
  5
373
100
AcDbEntity
  8
ASSI
100
AcDbLine
 62
250
  6
CONTINUOUS
 10
10.3858373126
 20
-7.7217058029
 11
10.3793715715
 21
3.6585406227
  0
LINE
  5
374
100
AcDbEntity
  8
RACCORDO
100
AcDbLine
 62
250
  6
CONTINUOUS
 10
10.3800527521
 20
1.8155696078
 11
10.3778310707
 21
11.0314896978
  0
LINE
  5
375
100
AcDbEntity
  8
RACCORDO
100
AcDbLine
 62
250
  6
CONTINUOUS
 10
10.3778310707
 20
11.0314896978
 11
10.3785716311
 21
20.2481925706
  0
LINE
  5
376
100
AcDbEntity
  8
ASSI
100
AcDbLine
 62
250
  6
CONTINUOUS
 10
10.3793715715
 20
3.6585406227
 11
10.378571641
 21
20.2481824193
  0
LINE
  5
377
100
AcDbEntity
  8
RACCORDO
100
AcDbLine
 62
250
  6
CONTINUOUS
 10
10.8777549231
 20
11.0336578258
 11
10.8784954838
 21
20.2413014963
  0
LINE
  5
378
100
AcDbEntity
  8
ASSI
100
AcDbLine
 62
250
  6
CONTINUOUS
 10
10.87769559
 20
11.9543594238
 11
10.8803623087
 21
25.7658009746
  0
LINE
  5
379
100
AcDbEntity
  8
RACCORDO
100
AcDbLine
 62
250
  6
CONTINUOUS
 10
10.3785716311
 20
20.2481925706
 11
10.3822744335
 21
29.4625469747
  0
LINE
  5
37A
100
AcDbEntity
  8
RACCORDO
100
AcDbLine
 62
250
  6
CONTINUOUS
 10
10.8784954838
 20
20.2413014963
 11
10.8821982835
 21
29.4457821695
  0
LINE
  5
37B
100
AcDbEntity
  8
ASSI
100
AcDbLine
 62
250
  6
CONTINUOUS
 10
10.378571641
 20
20.2481824193
 11
10.3852707261
 21
34.1233968881
  0
LINE
  5
37C
100
AcDbEntity
  8
RACCORDO
100
AcDbLine
 62
250
  6
CONTINUOUS
 10
10.8821982835
 20
29.4457821695
 11
10.8855208484
 21
34.1700247348
  0
LINE
  5
37D
100
AcDbEntity
  8
ASSI
100
AcDbLine
 62
250
  6
CONTINUOUS
 10
10.8803623087
 20
25.7658009746
 11
10.8855176358
 21
34.1693014591
  0
LINE
  5
37E
100
AcDbEntity
  8
ASSI
100
AcDbLine
 62
250
  6
CONTINUOUS
 10
10.3852707261
 20
34.1233968881
 11
10.3864826995
 21
34.5426908701
  0
LINE
  5
37F
100
AcDbEntity
  8
RACCORDO
100
AcDbLine
 62
250
  6
CONTINUOUS
 10
10.3822744335
 20
29.4625469747
 11
10.3864828778
 21
34.5427247096
  0
LINE
  5
380
100
AcDbEntity
  8
RACCORDO
100
AcDbLine
 62
250
  6
CONTINUOUS
 10
10.3864828778
 20
34.5427247096
 11
10.3883718163
 21
34.7949267079
  0
LINE
  5
381
100
AcDbEntity
  8
RACCORDO
100
AcDbLine
 62
250
  6
CONTINUOUS
 10
10.8855208484
 20
34.1700247348
 11
10.8864048518
 21
34.284404927
  0
LINE
  5
382
100
AcDbEntity
  8
ASSI
100
AcDbLine
 62
250
  6
CONTINUOUS
 10
10.8855176358
 20
34.1693014591
 11
10.8864034279
 21
34.2842393827
  0
LINE
  5
383
100
AcDbEntity
  8
ASSI
100
AcDbLine
 62
250
  6
CONTINUOUS
 10
10.3864826995
 20
34.5426908701
 11
10.3883731456
 21
34.7949311306
  0
LINE
  5
384
100
AcDbEntity
  8
RACCORDO
100
AcDbLine
 62
250
  6
CONTINUOUS
 10
10.3883718163
 20
34.7949267079
 11
10.3895651778
 21
34.8905821393
  0
LINE
  5
385
100
AcDbEntity
  8
RACCORDO
100
AcDbLine
 62
250
  6
CONTINUOUS
 10
10.8864048518
 20
34.284404927
 11
10.8872600928
 21
34.3521317615
  0
LINE
  5
386
100
AcDbEntity
  8
ASSI
100
AcDbLine
 62
250
  6
CONTINUOUS
 10
10.3883731456
 20
34.7949311306
 11
10.3895654708
 21
34.8906016491
  0
LINE
  5
387
100
AcDbEntity
  8
ASSI
100
AcDbLine
 62
250
  6
CONTINUOUS
 10
10.8864034279
 20
34.2842393827
 11
10.887379143
 21
34.3599523596
  0
LINE
  5
388
100
AcDbEntity
  8
ASSI
100
AcDbLine
 62
250
  6
CONTINUOUS
 10
10.3895654708
 20
34.8906016491
 11
10.3904311935
 21
34.9411591882
  0
LINE
  5
389
100
AcDbEntity
  8
ASSI
100
AcDbLine
 62
250
  6
CONTINUOUS
 10
10.887379143
 20
34.3599523596
 11
10.888157965
 21
34.4038978904
  0
LWPOLYLINE
  5
38A
100
AcDbEntity
  8
RACCORDO
100
AcDbPolyline
 62
250
  6
CONTINUOUS
 90
10
 70
0
 10
10.8872600928
 20
34.3521317615
 10
10.8882958513
 20
34.4105788414
 10
10.8888780229
 20
34.4360605667
 10
10.8894907817
 20
34.4585409516
 10
10.8901350821
 20
34.4779607147
 10
10.8908099698
 20
34.4943791374
 10
10.8915005989
 20
34.507449847
 10
10.892202021
 20
34.5170573858
 10
10.8929191845
 20
34.5233172115
 10
10.8936520894
 20
34.5262293241
  0
LWPOLYLINE
  5
38B
100
AcDbEntity
  8
RACCORDO
100
AcDbPolyline
 62
250
  6
CONTINUOUS
 90
6
 70
0
 10
10.3895651778
 20
34.8905821393
 10
10.3908821259
 20
34.9622161571
 10
10.391572389
 20
34.9883606382
 10
10.3922744909
 20
35.007796601
 10
10.3929931085
 20
35.0203912899
 10
10.3937282419
 20
35.0260579865
  0
LINE
  5
38C
100
AcDbEntity
  8
ASSI
100
AcDbLine
 62
250
  6
CONTINUOUS
 10
10.888157965
 20
34.4038978904
 11
10.8890287738
 21
34.4420155477
  0
LWPOLYLINE
  5
38D
100
AcDbEntity
  8
ASSI
100
AcDbPolyline
 62
250
  6
CONTINUOUS
 90
7
 70
0
 10
10.3904311935
 20
34.9411591882
 10
10.3913392889
 20
34.9803847984
 10
10.391807711
 20
34.9955909962
 10
10.3922812592
 20
35.0077947693
 10
10.3927584606
 20
35.0169581836
 10
10.3932407881
 20
35.0230523089
 10
10.3937282419
 20
35.0260579865
  0
LWPOLYLINE
  5
38E
100
AcDbEntity
  8
ASSI
100
AcDbPolyline
 62
250
  6
CONTINUOUS
 90
9
 70
0
 10
10.8890287738
 20
34.4420155477
 10
10.8899794409
 20
34.4736466008
 10
10.8904775887
 20
34.4868259977
 10
10.8909893039
 20
34.4981435052
 10
10.8915140294
 20
34.5076346063
 10
10.8920434975
 20
34.5151987899
 10
10.8925749523
 20
34.5208025522
 10
10.8931111496
 20
34.5244793969
 10
10.8936520894
 20
34.5262293241
  0
LINE
  5
38F
100
AcDbEntity
  8
SIMBOLO
100
AcDbLine
 62
250
  6
CONTINUOUS
 10
3.25
 20
8.9357143356
 11
2.878571
 21
8.9357143356
  0
LINE
  5
390
100
AcDbEntity
  8
SIMBOLO
100
AcDbLine
 62
250
  6
CONTINUOUS
 10
-2.507143
 20
8.9357143356
 11
-2.878571
 21
8.9357143356
  0
LINE
  5
391
100
AcDbEntity
  8
SIMBOLO
100
AcDbLine
 62
250
  6
CONTINUOUS
 10
-3.992857
 20
8.9357143356
 11
-4.735714
 21
8.9357143356
  0
LWPOLYLINE
  5
392
100
AcDbEntity
  8
0
100
AcDbPolyline
 62
7
  6
CONTINUOUS
 90
2
 70
0
 43
0.3500000006
 10
24.2500006027
 20
10.0500004807
 10
22.750000145
 20
10.0500004807
  0
LINE
  5
393
100
AcDbEntity
  8
SIMBOLO
100
AcDbLine
 62
250
  6
CONTINUOUS
 10
-4.735714
 20
10.7928573356
 11
-3.992857
 21
10.7928573356
  0
LINE
  5
394
100
AcDbEntity
  8
SIMBOLO
100
AcDbLine
 62
250
  6
CONTINUOUS
 10
-2.878571
 20
10.7928573356
 11
-2.507143
 21
10.7928573356
  0
LINE
  5
395
100
AcDbEntity
  8
SIMBOLO
100
AcDbLine
 62
250
  6
CONTINUOUS
 10
0.65
 20
10.7928573356
 11
1.578571
 21
10.7928573356
  0
LINE
  5
396
100
AcDbEntity
  8
SIMBOLO
100
AcDbLine
 62
250
  6
CONTINUOUS
 10
2.878571
 20
10.7928573356
 11
3.25
 21
10.7928573356
  0
LINE
  5
397
100
AcDbEntity
  8
SIMBOLO
100
AcDbLine
 62
250
  6
CONTINUOUS
 10
4.364285
 20
10.7928573356
 11
5.107143
 21
10.7928573356
  0
LINE
  5
398
100
AcDbEntity
  8
SIMBOLO
100
AcDbLine
 62
250
  6
CONTINUOUS
 10
2.878571
 20
8.9357143356
 11
2.507143
 21
9.3071433356
  0
LINE
  5
399
100
AcDbEntity
  8
SIMBOLO
100
AcDbLine
 62
250
  6
CONTINUOUS
 10
1.578571
 20
10.7928573356
 11
1.764285
 21
10.6071433356
  0
LINE
  5
39A
100
AcDbEntity
  8
SIMBOLO
100
AcDbLine
 62
250
  6
CONTINUOUS
 10
5.416667
 20
7.1928573356
 11
5.602381
 21
7.0071433356
  0
LINE
  5
39B
100
AcDbEntity
  8
SIMBOLO
100
AcDbLine
 62
250
  6
CONTINUOUS
 10
3.25
 20
10.7928573356
 11
3.621429
 21
10.4214283356
  0
LINE
  5
39C
100
AcDbEntity
  8
ASSI
100
AcDbLine
 62
250
  6
CONTINUOUS
 10
-10.8936520894
 20
34.5262293241
 11
-11.0
 21
34.685771443
  0
LINE
  5
39D
100
AcDbEntity
  8
RACCORDO
100
AcDbLine
 62
250
  6
CONTINUOUS
 10
-10.8936520894
 20
34.5262293241
 11
-11.0
 21
34.685771443
  0
LINE
  5
39E
100
AcDbEntity
  8
ASSI
100
AcDbLine
 62
250
  6
CONTINUOUS
 10
-10.3937282419
 20
35.0260579865
 11
-10.5001522961
 21
35.1857143356
  0
LINE
  5
39F
100
AcDbEntity
  8
RACCORDO
100
AcDbLine
 62
250
  6
CONTINUOUS
 10
-10.3937282419
 20
35.0260579865
 11
-10.5001522961
 21
35.1857143356
  0
LINE
  5
3A0
100
AcDbEntity
  8
SIMBOLO
100
AcDbLine
 62
250
  6
CONTINUOUS
 10
1.563289
 20
28.0555483356
 11
1.438411
 21
28.4090373356
  0
LINE
  5
3A1
100
AcDbEntity
  8
SIMBOLO
100
AcDbLine
 62
250
  6
CONTINUOUS
 10
2.974206
 20
23.3418033356
 11
2.012586
 21
26.5976733356
  0
LINE
  5
3A2
100
AcDbEntity
  8
SIMBOLO
100
AcDbLine
 62
250
  6
CONTINUOUS
 10
1.657314
 20
27.7020533356
 11
1.563289
 21
28.0555483356
  0
LWPOLYLINE
  5
3A3
100
AcDbEntity
  8
RACCORDO
100
AcDbPolyline
 62
250
  6
CONTINUOUS
 90
8
 70
0
 10
10.8936520894
 20
-7.8548006529
 10
10.8929191845
 20
-7.8518885402
 10
10.892202021
 20
-7.8456287145
 10
10.8915005989
 20
-7.8360211756
 10
10.8908099698
 20
-7.8229504662
 10
10.8901350821
 20
-7.8065320436
 10
10.8894907817
 20
-7.7871122806
 10
10.8888780229
 20
-7.7646318957
  0
LWPOLYLINE
  5
3A4
100
AcDbEntity
  8
ASSI
100
AcDbPolyline
 62
250
  6
CONTINUOUS
 90
6
 70
0
 10
10.3937282419
 20
-8.3546293154
 10
10.3932407882
 20
-8.3516236378
 10
10.3927584607
 20
-8.3455295126
 10
10.3922812593
 20
-8.3363660984
 10
10.391807711
 20
-8.3241623252
 10
10.3913392889
 20
-8.3089561271
  0
LWPOLYLINE
  5
3A5
100
AcDbEntity
  8
RACCORDO
100
AcDbPolyline
 62
250
  6
CONTINUOUS
 90
5
 70
0
 10
10.3937282419
 20
-8.3546293154
 10
10.3929931085
 20
-8.3489626187
 10
10.3922744908
 20
-8.3363679299
 10
10.391572389
 20
-8.316931967
 10
10.3908821259
 20
-8.2907874859
  0
LINE
  5
3A6
100
AcDbEntity
  8
RACCORDO
100
AcDbLine
 62
250
  6
CONTINUOUS
 10
10.8851605229
 20
-7.375704141
 11
10.8799766027
 21
1.8275940398
  0
LINE
  5
3A7
100
AcDbEntity
  8
ASSI
100
AcDbLine
 62
250
  6
CONTINUOUS
 10
10.8851605229
 20
-7.375704141
 11
10.8792957607
 21
3.6672742802
  0
LINE
  5
3A8
100
AcDbEntity
  8
RACCORDO
100
AcDbLine
 62
250
  6
CONTINUOUS
 10
10.8799766027
 20
1.8275940398
 11
10.8777549231
 21
11.0336578258
  0
LINE
  5
3A9
100
AcDbEntity
  8
ASSI
100
AcDbLine
 62
250
  6
CONTINUOUS
 10
10.8792957607
 20
3.6672742802
 11
10.87769559
 21
11.9543594238
  0
LINE
  5
3AA
100
AcDbEntity
  8
ASSI
100
AcDbLine
 62
7
  6
CONTINUOUS
 10
11.0
 20
-8.0143427719
 11
11.0
 21
34.685771443
  0
LINE
  5
3AB
100
AcDbEntity
  8
RACCORDO
100
AcDbLine
 62
7
  6
CONTINUOUS
 10
11.0
 20
-8.0143427719
 11
11.0
 21
34.685771443
  0
LWPOLYLINE
  5
3AC
100
AcDbEntity
  8
0
100
AcDbPolyline
 62
7
  6
CONTINUOUS
 90
4
 70
0
 43
0.3500000006
 10
21.8928576736
 20
15.2642864914
 10
21.2499996872
 20
15.2642864914
 10
21.2499996872
 20
16.7642846832
 10
24.2500006027
 20
15.9071422119
  0
LINE
  5
3AD
100
AcDbEntity
  8
SIMBOLO
100
AcDbLine
 62
250
  6
CONTINUOUS
 10
1.438411
 20
28.4090373356
 11
1.289713
 21
28.6347833356
  0
LWPOLYLINE
  5
3AE
100
AcDbEntity
  8
0
100
AcDbPolyline
 62
7
  6
CONTINUOUS
 90
3
 70
0
 43
0.3500000006
 10
23.964284935
 20
14.2642861862
 10
24.1785716858
 20
14.1928572693
 10
24.4642850876
 20
14.0499994354
  0
LINE
  5
3AF
100
AcDbEntity
  8
SIMBOLO
100
AcDbLine
 62
250
  6
CONTINUOUS
 10
1.289713
 20
28.6347833356
 11
1.076503
 21
28.8605173356
  0
LWPOLYLINE
  5
3B0
100
AcDbEntity
  8
0
100
AcDbPolyline
 62
7
  6
CONTINUOUS
 90
3
 70
0
 43
0.3500000006
 10
23.6071426163
 20
10.5500006332
 10
23.6071426163
 20
9.0500001755
 10
21.2499996872
 20
9.6928581619
  0
LINE
  5
3B1
100
AcDbEntity
  8
SIMBOLO
100
AcDbLine
 62
250
  6
CONTINUOUS
 10
-0.35804
 20
23.3412223356
 11
2.974206
 21
23.3418033356
  0
LINE
  5
3B2
100
AcDbEntity
  8
SIMBOLO
100
AcDbLine
 62
250
  6
CONTINUOUS
 10
-1.311065
 20
23.3713633356
 11
-2.819501
 21
23.3711003356
  0
LINE
  5
3B3
100
AcDbEntity
  8
SIMBOLO
100
AcDbLine
 62
250
  6
CONTINUOUS
 10
1.076503
 20
28.8605173356
 11
0.836651
 21
29.0624813356
  0
LWPOLYLINE
  5
3B4
100
AcDbEntity
  8
0
100
AcDbPolyline
 62
7
  6
CONTINUOUS
 90
6
 70
0
 43
0.3500000006
 10
24.2500006027
 20
11.4071431046
 10
24.2500006027
 20
12.4785723267
 10
24.0357138519
 20
12.6928568115
 10
22.9642846298
 20
12.6928568115
 10
22.5357133942
 20
12.2642855759
 10
22.5357133942
 20
11.8357143402
  0
LINE
  5
3B5
100
AcDbEntity
  8
SIMBOLO
100
AcDbLine
 62
250
  6
CONTINUOUS
 10
0.836651
 20
29.0624813356
 11
0.612239
 21
29.1901823356
  0
LWPOLYLINE
  5
3B6
100
AcDbEntity
  8
0
100
AcDbPolyline
 62
7
  6
CONTINUOUS
 90
5
 70
0
 43
0.3500000006
 10
22.5357133942
 20
12.2642855759
 10
22.3214289093
 20
12.6214278946
 10
21.6785709229
 20
12.6214278946
 10
21.2499996872
 20
12.2642855759
 10
21.2499996872
 20
11.4071431046
  0
LINE
  5
3B7
100
AcDbEntity
  8
SIMBOLO
100
AcDbLine
 62
250
  6
CONTINUOUS
 10
-0.115652
 20
29.3356183356
 11
-0.351254
 21
29.2939873356
  0
LINE
  5
3B8
100
AcDbEntity
  8
SIMBOLO
100
AcDbLine
 62
250
  6
CONTINUOUS
 10
0.365393
 20
29.2837153356
 11
0.114348
 21
29.3356583356
  0
LINE
  5
3B9
100
AcDbEntity
  8
SIMBOLO
100
AcDbLine
 62
250
  6
CONTINUOUS
 10
0.612239
 20
29.1901823356
 11
0.365393
 21
29.2837153356
  0
LINE
  5
3BA
100
AcDbEntity
  8
SIMBOLO
100
AcDbLine
 62
250
  6
CONTINUOUS
 10
0.114348
 20
29.3356583356
 11
-0.115652
 21
29.3356183356
  0
LINE
  5
3BB
100
AcDbEntity
  8
ASSI
100
AcDbLine
 62
250
  6
CONTINUOUS
 10
-10.7118892896
 20
34.0625922219
 11
-10.660292056
 21
34.0642465623
  0
LINE
  5
3BC
100
AcDbEntity
  8
ASSI
100
AcDbLine
 62
250
  6
CONTINUOUS
 10
-10.660292056
 20
34.0642465623
 11
-10.6040927079
 21
34.0656145345
  0
LINE
  5
3BD
100
AcDbEntity
  8
ASSI
100
AcDbLine
 62
250
  6
CONTINUOUS
 10
-10.6040927079
 20
34.0656145345
 11
-10.5442315891
 21
34.0666732545
  0
LINE
  5
3BE
100
AcDbEntity
  8
ASSI
100
AcDbLine
 62
250
  6
CONTINUOUS
 10
-10.5442315891
 20
34.0666732545
 11
-10.4817103051
 21
34.0674050109
  0
LINE
  5
3BF
100
AcDbEntity
  8
ASSI
100
AcDbLine
 62
250
  6
CONTINUOUS
 10
-10.4817103051
 20
34.0674050109
 11
-10.4175748883
 21
34.067797561
  0
LINE
  5
3C0
100
AcDbEntity
  8
RACCORDO
100
AcDbLine
 62
250
  6
CONTINUOUS
 10
-10.4880540461
 20
34.0673469253
 11
-10.3852366754
 21
34.0678643563
  0
LINE
  5
3C1
100
AcDbEntity
  8
ASSI
100
AcDbLine
 62
250
  6
CONTINUOUS
 10
-10.4175748883
 20
34.067797561
 11
10.3852366754
 21
34.0678649628
  0
LWPOLYLINE
  5
3C2
100
AcDbEntity
  8
RACCORDO
100
AcDbPolyline
 62
250
  6
CONTINUOUS
 90
16
 70
0
 10
-10.3852366754
 20
34.0678649628
 10
10.436921925
 20
34.0677155473
 10
10.4880534129
 20
34.0673465729
 10
10.5380833079
 20
34.0667610199
 10
10.5864755814
 20
34.0659651621
 10
10.6327117508
 20
34.0649675263
 10
10.6762964342
 20
34.0637788015
 10
10.7167626581
 20
34.062411724
 10
10.7536768609
 20
34.0608809408
 10
10.7866435376
 20
34.0592028532
 10
10.815309478
 20
34.0573954402
 10
10.8393675505
 20
34.055478067
 10
10.8585599929
 20
34.0534712765
 10
10.8726811743
 20
34.0513965698
 10
10.881579798
 20
34.0492761756
 10
10.8851605228
 20
34.0471328122
  0
LINE
  5
3C3
100
AcDbEntity
  8
ASSI
100
AcDbLine
 62
250
  6
CONTINUOUS
 10
10.3852366754
 20
34.0678639896
 11
10.4497767537
 21
34.067643874
  0
LINE
  5
3C4
100
AcDbEntity
  8
ASSI
100
AcDbLine
 62
250
  6
CONTINUOUS
 10
10.4497767537
 20
34.067643874
 11
10.5132371187
 21
34.0670805636
  0
LINE
  5
3C5
100
AcDbEntity
  8
ASSI
100
AcDbLine
 62
250
  6
CONTINUOUS
 10
10.5132371187
 20
34.0670805636
 11
10.5745559976
 21
34.0661834807
  0
LINE
  5
3C6
100
AcDbEntity
  8
ASSI
100
AcDbLine
 62
250
  6
CONTINUOUS
 10
10.5745559976
 20
34.0661834807
 11
10.6327075272
 21
34.0649676294
  0
LWPOLYLINE
  5
3C7
100
AcDbEntity
  8
ASSI
100
AcDbPolyline
 62
250
  6
CONTINUOUS
 90
16
 70
0
 10
10.6327075272
 20
34.0649676294
 10
10.6867187308
 20
34.0634533457
 10
10.7118861468
 20
34.0625920234
 10
10.7356857896
 20
34.0616659607
 10
10.7580179896
 20
34.0606790347
 10
10.7787892094
 20
34.059635378
 10
10.7979124292
 20
34.058539362
 10
10.8153075597
 20
34.0573955759
 10
10.8309017473
 20
34.0562088093
 10
10.8446296627
 20
34.0549840334
 10
10.8564338171
 20
34.0537263768
 10
10.8662647748
 20
34.0524411064
 10
10.8740813538
 20
34.0511336064
 10
10.8798508256
 20
34.0498093528
 10
10.8835490417
 20
34.0484738907
 10
10.8851605228
 20
34.0471328122
  0
LINE
  5
3C8
100
AcDbEntity
  8
ASSI
100
AcDbLine
 62
250
  6
CONTINUOUS
 10
-10.3937282419
 20
35.0260579865
 11
10.3937282419
 21
35.0260579865
  0
LINE
  5
3C9
100
AcDbEntity
  8
RACCORDO
100
AcDbLine
 62
250
  6
CONTINUOUS
 10
-10.3937282419
 20
35.0260579865
 11
10.3937282419
 21
35.0260579865
  0
LINE
  5
3CA
100
AcDbEntity
  8
ASSI
100
AcDbLine
 62
7
  6
CONTINUOUS
 10
-10.5001522961
 20
35.1857143356
 11
10.5001522961
 21
35.1857143356
  0
LINE
  5
3CB
100
AcDbEntity
  8
RACCORDO
100
AcDbLine
 62
7
  6
CONTINUOUS
 10
-10.5001522961
 20
35.1857143356
 11
10.5001522961
 21
35.1857143356
  0
LWPOLYLINE
  5
3CC
100
AcDbEntity
  8
0
100
AcDbPolyline
 62
7
  6
CONTINUOUS
 90
7
 70
0
 43
0.3500000006
 10
1.5000000329
 20
47.2570294189
 10
-0.0
 20
47.2570294189
 10
1.5000000329
 20
49.3998878632
 10
1.5000000329
 20
49.8284568329
 10
1.0714285848
 20
50.2570303345
 10
0.4285714127
 20
50.2570303345
 10
-0.0
 20
49.614172348
  0
LWPOLYLINE
  5
3CD
100
AcDbEntity
  8
0
100
AcDbPolyline
 62
7
  6
CONTINUOUS
 90
7
 70
0
 43
0.3500000006
 10
-0.8571428254
 20
47.2570294189
 10
-2.3571427875
 20
47.2570294189
 10
-0.8571428254
 20
49.3998878632
 10
-0.8571428254
 20
49.8284568329
 10
-1.2857142735
 20
50.2570303345
 10
-1.9285714102
 20
50.2570303345
 10
-2.3571427875
 20
49.614172348
  0
LWPOLYLINE
  5
3CE
100
AcDbEntity
  8
ASSI
100
AcDbPolyline
 62
250
  6
CONTINUOUS
 90
25
 70
0
 10
10.3937282419
 20
35.0260579865
 10
10.426415545
 20
35.0249734929
 10
10.4589629516
 20
35.0217545148
 10
10.4912311682
 20
35.0164148291
 10
10.5230820939
 20
35.0089772897
 10
10.5543794181
 20
34.9994737275
 10
10.5849892035
 20
34.9879448133
 10
10.614780449
 20
34.974439887
 10
10.6436256559
 20
34.9590167454
 10
10.6714013796
 20
34.9417413917
 10
10.6979887564
 20
34.9226877509
 10
10.7232739883
 20
34.9019373719
 10
10.7471488391
 20
34.8795790807
 10
10.7695111364
 20
34.855708565
 10
10.7902651763
 20
34.8304279892
 10
10.8093221183
 20
34.8038455834
 10
10.8266004128
 20
34.7760751221
 10
10.8420261268
 20
34.7472354578
 10
10.8555332421
 20
34.7174500493
 10
10.8670639695
 20
34.6868463768
 10
10.87656898
 20
34.6555554168
 10
10.8840076087
 20
34.6237111122
 10
10.8893480435
 20
34.5914497561
 10
10.8925674551
 20
34.5589094073
 10
10.8936520894
 20
34.5262293241
  0
LWPOLYLINE
  5
3CF
100
AcDbEntity
  8
RACCORDO
100
AcDbPolyline
 62
250
  6
CONTINUOUS
 90
16
 70
0
 10
10.3937282419
 20
35.0260579865
 10
10.4459693763
 20
35.023297602
 10
10.4976384784
 20
35.0150943978
 10
10.5481697798
 20
35.0015381978
 10
10.5970099706
 20
34.9827774403
 10
10.6436242584
 20
34.9590175525
 10
10.687502224
 20
34.9305187017
 10
10.7281634105
 20
34.8975929456
 10
10.7651625845
 20
34.8606008162
 10
10.7980946108
 20
34.8199473714
 10
10.8265988888
 20
34.7760777602
 10
10.8503633012
 20
34.7294723478
 10
10.8691276314
 20
34.6806414562
 10
10.8826864129
 20
34.630119776
 10
10.8908911792
 20
34.5784605117
 10
10.8936520894
 20
34.5262293241
  0
LWPOLYLINE
  5
3D0
100
AcDbEntity
  8
0
100
AcDbPolyline
 62
7
  6
CONTINUOUS
 90
3
 70
0
 43
0.3500000006
 10
-33.2950137863
 20
57.3998857727
 10
-32.437871315
 20
58.2570327759
 10
-32.437871315
 20
55.2570318604
  0
LWPOLYLINE
  5
3D1
100
AcDbEntity
  8
0
100
AcDbPolyline
 62
7
  6
CONTINUOUS
 90
3
 70
0
 43
0.3500000006
 10
-31.5807288437
 20
57.3998857727
 10
-30.7235863724
 20
58.2570327759
 10
-30.7235863724
 20
55.2570318604
  0
LWPOLYLINE
  5
3D2
100
AcDbEntity
  8
ASSI
100
AcDbPolyline
 62
250
  6
CONTINUOUS
 90
11
 70
0
 10
-33.9991875358
 20
35.0260579865
 10
-33.999729697
 20
35.0249734929
 10
-34.0002135227
 20
35.0217545148
 10
-34.0006369423
 20
35.0164148291
 10
-34.0009981435
 20
35.0089772897
 10
-34.0012955808
 20
34.9994737275
 10
-34.0015279812
 20
34.9879448133
 10
-34.0016943503
 20
34.974439887
 10
-34.001793976
 20
34.9590167454
 10
-34.0018264318
 20
34.9417413917
 10
-34.0016895664
 20
34.9019373719
  0
LWPOLYLINE
  5
3D3
100
AcDbEntity
  8
0
100
AcDbPolyline
 62
7
  6
CONTINUOUS
 90
3
 70
0
 43
0.3500000006
 10
-29.1521569977
 20
55.5427429962
 10
-29.2235859146
 20
55.3284585114
 10
-29.3664437485
 20
55.0427428436
  0
LWPOLYLINE
  5
3D4
100
AcDbEntity
  8
0
100
AcDbPolyline
 62
7
  6
CONTINUOUS
 90
3
 70
0
 43
0.3500000006
 10
-31.6878710861
 20
47.5427450867
 10
-31.7593000031
 20
47.3284606018
 10
-31.9021578369
 20
47.0427449341
  0
LWPOLYLINE
  5
3D5
100
AcDbEntity
  8
RACCORDO
100
AcDbPolyline
 62
250
  6
CONTINUOUS
 90
9
 70
0
 10
-33.9991875358
 20
35.0260579865
 10
-34.0000271254
 20
35.023297602
 10
-34.0007142049
 20
35.0150943978
 10
-34.0012412506
 20
35.0015381978
 10
-34.0016024916
 20
34.9827774403
 10
-34.0017939723
 20
34.9590175525
 10
-34.0018135962
 20
34.9305187017
 10
-34.0016611484
 20
34.8975929456
 10
-34.0008485809
 20
34.8199473714
  0
LINE
  5
3D6
100
AcDbEntity
  8
0
100
AcDbLine
 62
7
  6
CONTINUOUS
 10
-24.2537324661
 20
18.1091394186
 11
-23.9021575491
 21
18.4607143356
  0
LINE
  5
3D7
100
AcDbEntity
  8
ASSI
100
AcDbLine
 62
250
  6
CONTINUOUS
 10
-34.9721505652
 20
-7.3964362913
 11
-34.9711055124
 21
-7.3963694957
  0
LINE
  5
3D8
100
AcDbEntity
  8
RACCORDO
100
AcDbLine
 62
250
  6
CONTINUOUS
 10
-34.9721505652
 20
-7.3964362913
 11
-34.9694757915
 21
-7.3962878478
  0
LINE
  5
3D9
100
AcDbEntity
  8
ASSI
100
AcDbLine
 62
250
  6
CONTINUOUS
 10
-34.9711055124
 20
-7.3963694957
 11
-34.9555055053
 21
-7.3956527962
  0
LINE
  5
3DA
100
AcDbEntity
  8
RACCORDO
100
AcDbLine
 62
250
  6
CONTINUOUS
 10
-34.9694757915
 20
-7.3962878478
 11
-34.4813067837
 21
-7.375704141
  0
LINE
  5
3DB
100
AcDbEntity
  8
ASSI
100
AcDbLine
 62
250
  6
CONTINUOUS
 10
-34.9555055053
 20
-7.3956527962
 11
-34.4813067837
 21
-7.375704141
  0
LINE
  5
3DC
100
AcDbEntity
  8
ASSI
100
AcDbLine
 62
7
  6
CONTINUOUS
 10
-27.9021575491
 20
-8.5142856644
 11
-33.9991875358
 21
-8.3546293154
  0
LINE
  5
3DD
100
AcDbEntity
  8
RACCORDO
100
AcDbLine
 62
7
  6
CONTINUOUS
 10
-27.9021575491
 20
-8.5142856644
 11
-33.9991875358
 21
-8.3546293154
  0
LINE
  5
3DE
100
AcDbEntity
  8
ASSI
100
AcDbLine
 62
250
  6
CONTINUOUS
 10
-27.9021575491
 20
-8.0143427719
 11
-33.9948252648
 21
-7.8548006529
  0
LINE
  5
3DF
100
AcDbEntity
  8
RACCORDO
100
AcDbLine
 62
250
  6
CONTINUOUS
 10
-27.9021575491
 20
-8.0143427719
 11
-33.9948252648
 21
-7.8548006529
  0
LWPOLYLINE
  5
3E0
100
AcDbEntity
  8
ASSI
100
AcDbPolyline
 62
250
  6
CONTINUOUS
 90
25
 70
0
 10
-33.9948252648
 20
-7.8548006529
 10
-34.0258156909
 20
-7.8530507255
 10
-34.0565344154
 20
-7.8493738803
 10
-34.0869814385
 20
-7.8437701174
 10
-34.1173146489
 20
-7.8362059328
 10
-34.1473761578
 20
-7.8267148305
 10
-34.1766922988
 20
-7.8153973219
 10
-34.2052311702
 20
-7.8022179242
 10
-34.2330246738
 20
-7.7872121202
 10
-34.2596948487
 20
-7.77058687
 10
-34.2852008132
 20
-7.7523377641
 10
-34.309583449
 20
-7.732469212
 10
-34.3325874408
 20
-7.7112014027
 10
-34.3542021307
 20
-7.6885236802
 10
-34.3744381765
 20
-7.6644467004
 10
-34.3930722364
 20
-7.6392226202
 10
-34.4101008127
 20
-7.612810701
 10
-34.4255274031
 20
-7.5852516814
 10
-34.4391391595
 20
-7.5569199336
 10
-34.4509008993
 20
-7.527782721
 10
-34.4608478052
 20
-7.4978727801
 10
-34.4688725766
 20
-7.4676626935
 10
-34.4749394467
 20
-7.4373099885
 10
-34.4790841824
 20
-7.4066571377
 10
-34.4813067837
 20
-7.375704141
  0
LWPOLYLINE
  5
3E1
100
AcDbEntity
  8
RACCORDO
100
AcDbPolyline
 62
250
  6
CONTINUOUS
 90
19
 70
0
 10
-33.9948252648
 20
-7.8548006529
 10
-34.0368133627
 20
-7.8518885402
 10
-34.077899632
 20
-7.8456287145
 10
-34.1180840727
 20
-7.8360211756
 10
-34.1576501898
 20
-7.8229504662
 10
-34.1963144784
 20
-7.8065320436
 10
-34.2332264228
 20
-7.7871122806
 10
-34.2683313551
 20
-7.7646318957
 10
-34.3016839434
 20
-7.7391501704
 10
-34.3325976761
 20
-7.711191322
 10
-34.3610225064
 20
-7.6807030903
 10
-34.3870084813
 20
-7.6477377356
 10
-34.4100192302
 20
-7.6129762557
 10
-34.4299953871
 20
-7.5763621911
 10
-34.446996318
 20
-7.5379520013
 10
-34.4606637504
 20
-7.4985960637
 10
-34.4708782601
 20
-7.4585778373
 10
-34.4777592711
 20
-7.4176138631
 10
-34.4813067837
 20
-7.375704141
  0
LINE
  5
3E2
100
AcDbEntity
  8
SIMBOLO
100
AcDbLine
 62
250
  6
CONTINUOUS
 10
-35.1460937725
 20
29.3356583356
 11
-35.1460950531
 21
29.3356183356
  0
LWPOLYLINE
  5
3E3
100
AcDbEntity
  8
ASSI
100
AcDbPolyline
 62
250
  6
CONTINUOUS
 90
25
 70
0
 10
-34.4813067837
 20
34.0471328122
 10
-34.4790841822
 20
34.0780858109
 10
-34.474939446
 20
34.1087386637
 10
-34.4688725752
 20
34.1390913705
 10
-34.4608478028
 20
34.1693014591
 10
-34.4509008957
 20
34.1992114017
 10
-34.4391391547
 20
34.2283486156
 10
-34.4255273976
 20
34.2566803635
 10
-34.4101008065
 20
34.2842393827
 10
-34.3930722298
 20
34.3106513012
 10
-34.3744381694
 20
34.3358753807
 10
-34.3542021234
 20
34.3599523596
 10
-34.3325874331
 20
34.3826300815
 10
-34.3095834406
 20
34.4038978904
 10
-34.2852008039
 20
34.4237664422
 10
-34.2596948387
 20
34.4420155477
 10
-34.2330246631
 20
34.4586407974
 10
-34.205231159
 20
34.4736466008
 10
-34.1766922878
 20
34.4868259977
 10
-34.1473761479
 20
34.4981435052
 10
-34.1173146409
 20
34.5076346063
 10
-34.0869814326
 20
34.5151987899
 10
-34.0565344114
 20
34.5208025522
 10
-34.0258156888
 20
34.5244793969
 10
-33.9948252648
 20
34.5262293241
  0
LWPOLYLINE
  5
3E4
100
AcDbEntity
  8
RACCORDO
100
AcDbPolyline
 62
250
  6
CONTINUOUS
 90
19
 70
0
 10
-34.4813067837
 20
34.0471328122
 10
-34.477759271
 20
34.0890425342
 10
-34.4708782599
 20
34.1300065084
 10
-34.4606637502
 20
34.1700247348
 10
-34.4469963179
 20
34.2093806724
 10
-34.4299953871
 20
34.2477908623
 10
-34.4100192303
 20
34.284404927
 10
-34.3870084814
 20
34.3191664068
 10
-34.3610225065
 20
34.3521317615
 10
-34.3325976761
 20
34.3826199931
 10
-34.3016839433
 20
34.4105788414
 10
-34.268331355
 20
34.4360605667
 10
-34.2332264227
 20
34.4585409516
 10
-34.1963144783
 20
34.4779607147
 10
-34.1576501899
 20
34.4943791374
 10
-34.1180840727
 20
34.507449847
 10
-34.0778996321
 20
34.5170573858
 10
-34.0368133628
 20
34.5233172115
 10
-33.9948252648
 20
34.5262293241
  0
LINE
  5
3E5
100
AcDbEntity
  8
RACCORDO
100
AcDbLine
 62
7
  6
CONTINUOUS
 10
-35.0681242954
 20
-4.9377561443
 11
-35.3487299522
 21
-4.9279571789
  0
LWPOLYLINE
  5
3E6
100
AcDbEntity
  8
ASSI
100
AcDbPolyline
 62
250
  6
CONTINUOUS
 90
9
 70
0
 10
-33.9991875358
 20
-8.3546293154
 10
-33.9997296911
 20
-8.3535448219
 10
-34.0002135113
 20
-8.3503258439
 10
-34.0006369256
 20
-8.3449861584
 10
-34.000998122
 20
-8.3375486191
 10
-34.0012955548
 20
-8.328045057
 10
-34.0015279512
 20
-8.3165161429
 10
-34.0016943169
 20
-8.3030112167
 10
-34.0017939396
 20
-8.2875880753
  0
LWPOLYLINE
  5
3E7
100
AcDbEntity
  8
RACCORDO
100
AcDbPolyline
 62
250
  6
CONTINUOUS
 90
7
 70
0
 10
-33.9991875358
 20
-8.3546293154
 10
-34.0000271305
 20
-8.3518688264
 10
-34.0007142089
 20
-8.3436653347
 10
-34.0012412481
 20
-8.3301087043
 10
-34.001602478
 20
-8.3113474099
 10
-34.0017939438
 20
-8.2875869255
 10
-34.0018135509
 20
-8.2590874876
  0
LWPOLYLINE
  5
3E8
100
AcDbEntity
  8
ASSI
100
AcDbPolyline
 62
250
  6
CONTINUOUS
 90
16
 70
0
 10
-34.4813067837
 20
-7.375704141
 10
-34.5882022674
 20
-4.6158012648
 10
-34.6798320974
 20
-1.855357545
 10
-34.7561962738
 20
0.9056270184
 10
-34.8172987861
 20
3.6672742802
 10
-34.8631356447
 20
6.4294623856
 10
-34.8936948811
 20
9.19182577
 10
-34.9089725061
 20
11.9543594238
 10
-34.908972509
 20
14.7170683566
 10
-34.893694889
 20
17.4796020317
 10
-34.8631356576
 20
20.2419654476
 10
-34.8172988034
 20
23.0041536059
 10
-34.7561962924
 20
25.7658009746
 10
-34.6798321131
 20
28.52678571
 10
-34.5882022768
 20
31.2872296558
 10
-34.4813067837
 20
34.0471328122
  0
LWPOLYLINE
  5
3E9
100
AcDbEntity
  8
RACCORDO
100
AcDbPolyline
 62
250
  6
CONTINUOUS
 90
10
 70
0
 10
-34.4813067837
 20
-7.375704141
 10
-34.6510134121
 20
-2.7743513462
 10
-34.7782933781
 20
1.8275940398
 10
-34.8631466817
 20
6.4301320171
 10
-34.905573316
 20
11.0336578258
 10
-34.9055732878
 20
15.6377762257
 10
-34.8631466184
 20
20.2413014963
 10
-34.7782933148
 20
24.8438383975
 10
-34.6510133699
 20
29.4457821695
 10
-34.4813067837
 20
34.0471328122
  0
LINE
  5
3EA
100
AcDbEntity
  8
SIMBOLO
100
AcDbLine
 62
250
  6
CONTINUOUS
 10
-35.3552121421
 20
6.4842033265
 11
-35.3537527106
 21
6.378524135
  0
LINE
  5
3EB
100
AcDbEntity
  8
ASSI
100
AcDbLine
 62
250
  6
CONTINUOUS
 10
-34.0016895664
 20
34.9019373719
 11
-34.0009863625
 21
34.8304279892
  0
LWPOLYLINE
  5
3EC
100
AcDbEntity
  8
0
100
AcDbPolyline
 62
7
  6
CONTINUOUS
 90
4
 70
0
 43
0.3500000006
 10
-34.7593009186
 20
49.614172348
 10
-34.7593009186
 20
50.2570303345
 10
-33.2593004608
 20
50.2570303345
 10
-34.1164429321
 20
47.2570294189
  0
LINE
  5
3ED
100
AcDbEntity
  8
ASSI
100
AcDbLine
 62
250
  6
CONTINUOUS
 10
-34.0017939396
 20
-8.2875880753
 11
-34.0017915385
 21
-8.2512590809
  0
LINE
  5
3EE
100
AcDbEntity
  8
ASSI
100
AcDbLine
 62
250
  6
CONTINUOUS
 10
-34.0017915385
 20
-8.2512590809
 11
-34.0015207889
 21
-8.2081504108
  0
LINE
  5
3EF
100
AcDbEntity
  8
RACCORDO
100
AcDbLine
 62
250
  6
CONTINUOUS
 10
-34.0018135509
 20
-8.2590874876
 11
-34.0013382202
 21
-8.1891686686
  0
LINE
  5
3F0
100
AcDbEntity
  8
ASSI
100
AcDbLine
 62
250
  6
CONTINUOUS
 10
-34.0015207889
 20
-8.2081504108
 11
-34.0006228784
 21
-8.1324169136
  0
LINE
  5
3F1
100
AcDbEntity
  8
RACCORDO
100
AcDbLine
 62
250
  6
CONTINUOUS
 10
-34.0013382202
 20
-8.1891686686
 11
-34.0001972612
 21
-8.1046453554
  0
LINE
  5
3F2
100
AcDbEntity
  8
SIMBOLO
100
AcDbLine
 62
250
  6
CONTINUOUS
 10
-35.3085584663
 20
23.0099234507
 11
-35.3084531877
 21
23.0153621034
  0
LINE
  5
3F3
100
AcDbEntity
  8
ASSI
100
AcDbLine
 62
250
  6
CONTINUOUS
 10
-34.0006228784
 20
-8.1324169136
 11
-33.9985670457
 21
-8.0154177067
  0
LINE
  5
3F4
100
AcDbEntity
  8
SIMBOLO
100
AcDbLine
 62
250
  6
CONTINUOUS
 10
-35.3014331529
 20
23.3713633356
 11
-35.3014384326
 21
23.3711003356
  0
LINE
  5
3F5
100
AcDbEntity
  8
SIMBOLO
100
AcDbLine
 62
250
  6
CONTINUOUS
 10
-35.3020373347
 20
23.3412223356
 11
-35.3020257057
 21
23.3418033356
  0
LINE
  5
3F6
100
AcDbEntity
  8
RACCORDO
100
AcDbLine
 62
250
  6
CONTINUOUS
 10
-34.0001972612
 20
-8.1046453554
 11
-33.9973542553
 21
-7.9586888355
  0
LWPOLYLINE
  5
3F7
100
AcDbEntity
  8
ASSI
100
AcDbPolyline
 62
250
  6
CONTINUOUS
 90
3
 70
0
 10
-33.9985670457
 20
-8.0154177067
 10
-33.995662084
 20
-7.8874807364
 10
-33.9948252648
 20
-7.8548006529
  0
LINE
  5
3F8
100
AcDbEntity
  8
RACCORDO
100
AcDbLine
 62
250
  6
CONTINUOUS
 10
-33.9973542553
 20
-7.9586888355
 11
-33.9948252648
 21
-7.8548006529
  0
LINE
  5
3F9
100
AcDbEntity
  8
RACCORDO
100
AcDbLine
 62
250
  6
CONTINUOUS
 10
-35.3487299522
 20
-4.9279571789
 11
-35.2979150982
 21
-3.8671588928
  0
LINE
  5
3FA
100
AcDbEntity
  8
RACCORDO
100
AcDbLine
 62
250
  6
CONTINUOUS
 10
-35.2979150982
 20
-3.8671588928
 11
-35.2426284264
 21
-2.7896508483
  0
LWPOLYLINE
  5
3FB
100
AcDbEntity
  8
RACCORDO
100
AcDbPolyline
 62
250
  6
CONTINUOUS
 90
3
 70
0
 10
-35.2426284264
 20
-2.7896508483
 10
-35.1861662592
 20
-1.7573809039
 10
-35.1784100381
 20
-1.6205873833
  0
LINE
  5
3FC
100
AcDbEntity
  8
ASSI
100
AcDbLine
 62
250
  6
CONTINUOUS
 10
-33.997913601
 20
34.6555554168
 11
-33.9948252648
 21
34.5262293241
  0
LINE
  5
3FD
100
AcDbEntity
  8
RACCORDO
100
AcDbLine
 62
250
  6
CONTINUOUS
 10
-33.9984406129
 20
34.6806414562
 11
-33.9948252648
 21
34.5262293241
  0
LINE
  5
3FE
100
AcDbEntity
  8
ASSI
100
AcDbLine
 62
250
  6
CONTINUOUS
 10
-34.0001973163
 20
34.7760751221
 11
-33.997913601
 21
34.6555554168
  0
LWPOLYLINE
  5
3FF
100
AcDbEntity
  8
RACCORDO
100
AcDbPolyline
 62
250
  6
CONTINUOUS
 90
3
 70
0
 10
-34.0008485809
 20
34.8199473714
 10
-34.0001973586
 20
34.7760777602
 10
-33.9984406129
 20
34.6806414562
  0
LINE
  5
400
100
AcDbEntity
  8
ASSI
100
AcDbLine
 62
250
  6
CONTINUOUS
 10
-34.0009863625
 20
34.8304279892
 11
-34.0001973163
 21
34.7760751221
  0
LINE
  5
401
100
AcDbEntity
  8
ASSI
100
AcDbLine
 62
7
  6
CONTINUOUS
 10
-27.9021575491
 20
-8.5142856644
 11
-27.9021575491
 21
35.1857143356
  0
LINE
  5
402
100
AcDbEntity
  8
RACCORDO
100
AcDbLine
 62
7
  6
CONTINUOUS
 10
-27.9021575491
 20
-8.5142856644
 11
-27.9021575491
 21
35.1857143356
  0
LINE
  5
403
100
AcDbEntity
  8
0
100
AcDbLine
 62
7
  6
CONTINUOUS
 10
-27.9021575491
 20
5.3426984895
 11
-24.8672580524
 21
5.4486795152
  0
LINE
  5
404
100
AcDbEntity
  8
0
100
AcDbLine
 62
7
  6
CONTINUOUS
 10
-23.9021575491
 20
20.2233583289
 11
-23.9021575491
 21
18.4607143356
  0
LINE
  5
405
100
AcDbEntity
  8
0
100
AcDbLine
 62
7
  6
CONTINUOUS
 10
-23.9021575491
 20
8.2107143356
 11
-23.9021575491
 21
7.8357143356
  0
LINE
  5
406
100
AcDbEntity
  8
0
100
AcDbLine
 62
7
  6
CONTINUOUS
 10
-23.9021575491
 20
7.8206173695
 11
-23.9021575491
 21
6.4480703422
  0
LINE
  5
407
100
AcDbEntity
  8
0
100
AcDbLine
 62
250
  6
CONTINUOUS
 10
-23.9021575491
 20
7.036201674
 11
-27.9021575491
 21
6.896518596
  0
LINE
  5
408
100
AcDbEntity
  8
0
100
AcDbLine
 62
7
  6
CONTINUOUS
 10
-27.9021575491
 20
7.6960312576
 11
-23.9021575491
 21
7.8357143356
  0
LINE
  5
409
100
AcDbEntity
  8
0
100
AcDbLine
 62
7
  6
CONTINUOUS
 10
-27.9021575491
 20
8.5813925362
 11
-24.2537324661
 21
8.5622892525
  0
LINE
  5
40A
100
AcDbEntity
  8
0
100
AcDbLine
 62
7
  6
CONTINUOUS
 10
-23.9021575491
 20
8.2107143356
 11
-24.2537324661
 21
8.5622892525
  0
LINE
  5
40B
100
AcDbEntity
  8
0
100
AcDbLine
 62
7
  6
CONTINUOUS
 10
-27.9021575491
 20
18.090036135
 11
-24.2537324661
 21
18.1091394186
  0
LINE
  5
40C
100
AcDbEntity
  8
0
100
AcDbLine
 62
7
  6
CONTINUOUS
 10
-27.9021575491
 20
18.9753974135
 11
-23.9021575491
 21
18.8357143356
  0
LINE
  5
40D
100
AcDbEntity
  8
0
100
AcDbLine
 62
250
  6
CONTINUOUS
 10
-27.9021575491
 20
19.7749100752
 11
-23.9021575491
 21
19.6352269972
  0
LINE
  5
40E
100
AcDbEntity
  8
0
100
AcDbLine
 62
7
  6
CONTINUOUS
 10
-27.9021575491
 20
21.3287301817
 11
-24.8672580524
 21
21.2227491559
  0
LWPOLYLINE
  5
40F
100
AcDbEntity
  8
0
100
AcDbPolyline
 62
7
  6
CONTINUOUS
 90
10
 70
0
 43
0.3500000006
 10
-31.7593000031
 20
47.7570295715
 10
-31.6878710861
 20
47.6141717377
 10
-31.6878710861
 20
47.5427450867
 10
-31.83072892
 20
47.3998872528
 10
-31.9021578369
 20
47.3998872528
 10
-31.9735867538
 20
47.4713139038
 10
-31.9735867538
 20
47.5427450867
 10
-31.9021578369
 20
47.6856029205
 10
-31.83072892
 20
47.7570295715
 10
-31.7593000031
 20
47.7570295715
  0
LWPOLYLINE
  5
410
100
AcDbEntity
  8
0
100
AcDbPolyline
 62
7
  6
CONTINUOUS
 90
10
 70
0
 43
0.3500000006
 10
-29.2235859146
 20
55.7570320129
 10
-29.1521569977
 20
55.6141741791
 10
-29.1521569977
 20
55.5427429962
 10
-29.2950148315
 20
55.3998851624
 10
-29.3664437485
 20
55.3998851624
 10
-29.4378726654
 20
55.4713163452
 10
-29.4378726654
 20
55.5427429962
 10
-29.3664437485
 20
55.6856008301
 10
-29.2950148315
 20
55.7570320129
 10
-29.2235859146
 20
55.7570320129
  0
LINE
  5
411
100
AcDbEntity
  8
ASSI
100
AcDbLine
 62
250
  6
CONTINUOUS
 10
-33.9948252648
 20
34.5262293241
 11
-27.9021575491
 21
34.685771443
  0
LINE
  5
412
100
AcDbEntity
  8
RACCORDO
100
AcDbLine
 62
250
  6
CONTINUOUS
 10
-33.9948252648
 20
34.5262293241
 11
-27.9021575491
 21
34.685771443
  0
LINE
  5
413
100
AcDbEntity
  8
ASSI
100
AcDbLine
 62
7
  6
CONTINUOUS
 10
-33.9991875358
 20
35.0260579865
 11
-27.9021575491
 21
35.1857143356
  0
LINE
  5
414
100
AcDbEntity
  8
RACCORDO
100
AcDbLine
 62
7
  6
CONTINUOUS
 10
-33.9991875358
 20
35.0260579865
 11
-27.9021575491
 21
35.1857143356
  0
LWPOLYLINE
  5
415
100
AcDbEntity
  8
0
100
AcDbPolyline
 62
7
  6
CONTINUOUS
 90
8
 70
0
 43
0.3500000006
 10
-30.6878707809
 20
47.2570294189
 10
-29.8307283096
 20
47.2570294189
 10
-29.402157074
 20
47.6856029205
 10
-29.402157074
 20
48.5427453918
 10
-29.8307283096
 20
48.9713143616
 10
-30.6878707809
 20
48.9713143616
 10
-30.6878707809
 20
50.2570303345
 10
-29.402157074
 20
50.2570303345
  0
LWPOLYLINE
  5
416
100
AcDbEntity
  8
0
100
AcDbPolyline
 62
7
  6
CONTINUOUS
 90
8
 70
0
 43
0.3500000006
 10
-28.1521566925
 20
55.2570318604
 10
-27.2950142212
 20
55.2570318604
 10
-26.8664429855
 20
55.6856008301
 10
-26.8664429855
 20
56.5427478333
 10
-27.2950142212
 20
56.971316803
 10
-28.1521566925
 20
56.971316803
 10
-28.1521566925
 20
58.2570327759
 10
-26.8664429855
 20
58.2570327759
  0
LWPOLYLINE
  5
417
100
AcDbEntity
  8
RACCORDO
100
AcDbPolyline
 62
250
  6
CONTINUOUS
 90
3
 70
0
 10
-34.9721270992
 20
34.0678639896
 10
-34.9694525299
 20
34.0677155473
 10
-34.4813067837
 20
34.0471328122
  0
LWPOLYLINE
  5
418
100
AcDbEntity
  8
ASSI
100
AcDbPolyline
 62
250
  6
CONTINUOUS
 90
4
 70
0
 10
-34.9721270992
 20
34.0678639896
 10
-34.9710822054
 20
34.067797197
 10
-34.9679498763
 20
34.067643874
 10
-34.4813067837
 20
34.0471328122
  0
ARC
  5
419
100
AcDbEntity
  8
ASSI
100
AcDbCircle
 62
7
  6
CONTINUOUS
 10
-33.9730105874
 20
-7.3549719904
 40
1.0
100
AcDbArc
 50
182.3764107502
 51
268.5
  0
ARC
  5
41A
100
AcDbEntity
  8
RACCORDO
100
AcDbCircle
 62
7
  6
CONTINUOUS
 10
-33.9730105874
 20
-7.3549719904
 40
1.0
100
AcDbArc
 50
182.3764107502
 51
268.5
  0
ARC
  5
41B
100
AcDbEntity
  8
0
100
AcDbCircle
 62
7
  6
CONTINUOUS
 10
-24.9021575491
 20
6.4480703422
 40
1.0
100
AcDbArc
 50
272.0
 51
360.0
  0
ARC
  5
41C
100
AcDbEntity
  8
RACCORDO
100
AcDbCircle
 62
7
  6
CONTINUOUS
 10
-35.3452400025
 20
-4.8280180962
 40
0.1
100
AcDbArc
 50
177.3150100094
 51
268.0
  0
ARC
  5
41D
100
AcDbEntity
  8
ASSI
100
AcDbCircle
 62
7
  6
CONTINUOUS
 10
-33.9730105874
 20
34.0264006616
 40
1.0
100
AcDbArc
 50
91.5
 51
177.6235892498
  0
ARC
  5
41E
100
AcDbEntity
  8
RACCORDO
100
AcDbCircle
 62
7
  6
CONTINUOUS
 10
-33.9730105874
 20
34.0264006616
 40
1.0
100
AcDbArc
 50
91.5
 51
177.6235892498
  0
ARC
  5
41F
100
AcDbEntity
  8
0
100
AcDbCircle
 62
7
  6
CONTINUOUS
 10
-24.9021575491
 20
20.2233583289
 40
1.0
100
AcDbArc
 50
0.0
 51
88.0
  0
ARC
  5
420
100
AcDbEntity
  8
RACCORDO
100
AcDbCircle
 62
7
  6
CONTINUOUS
 10
264.3254144037
 20
-18.8814478465
 40
300.1
100
AcDbArc
 50
176.4875541336
 51
177.3150100095
  0
ARC
  5
421
100
AcDbEntity
  8
ASSI
100
AcDbCircle
 62
7
  6
CONTINUOUS
 10
464.5978424509
 20
13.3357143356
 40
500.0
100
AcDbArc
 50
177.6235892498
 51
182.3764107502
  0
ARC
  5
422
100
AcDbEntity
  8
SIMBOLO
100
AcDbCircle
 62
250
  6
CONTINUOUS
 10
464.5978424509
 20
13.3357143356
 40
500.0
100
AcDbArc
 50
180.6188064487
 51
180.9167715906
  0
ARC
  5
423
100
AcDbEntity
  8
0
100
AcDbCircle
 62
7
  6
CONTINUOUS
 10
464.5978424509
 20
13.3357143356
 40
500.0
100
AcDbArc
 50
181.0703160441
 51
182.1391365706
  0
ARC
  5
424
100
AcDbEntity
  8
RACCORDO
100
AcDbCircle
 62
7
  6
CONTINUOUS
 10
464.5978424509
 20
13.3357143356
 40
500.0
100
AcDbArc
 50
177.6235892498
 51
182.3764107502
  0
ELLIPSE
  5
425
100
AcDbEntity
  8
DRAFT
100
AcDbEllipse
 62
7
  6
CONTINUOUS
 10
-2.1
 20
-1.1089263838
 30
0.0
 11
0.0
 21
4.737004846
 31
0.0
 40
0.8170358757
 41
-4.2640764182
 42
-4.2616169997
  0
ELLIPSE
  5
426
100
AcDbEntity
  8
DRAFT
100
AcDbEllipse
 62
7
  6
CONTINUOUS
 10
-2.1
 20
0.4668652975
 30
0.0
 11
3.8703029023
 21
-0.0
 31
0.0
 40
0.8167870176
 41
2.6809534313
 42
2.6932800914
  0
ELLIPSE
  5
427
100
AcDbEntity
  8
DRAFT
100
AcDbEllipse
 62
7
  6
CONTINUOUS
 10
2.1
 20
0.4668652975
 30
0.0
 11
3.8703029023
 21
0.0
 31
0.0
 40
0.8167870176
 41
0.4483125622
 42
0.4606392223
  0
ELLIPSE
  5
428
100
AcDbEntity
  8
DRAFT
100
AcDbEllipse
 62
7
  6
CONTINUOUS
 10
2.1
 20
-1.1089263838
 30
0.0
 11
-0.0
 21
4.737004846
 31
0.0
 40
0.8170358757
 41
-2.0215683075
 42
-2.019108889
  0
ELLIPSE
  5
429
100
AcDbEntity
  8
ASSI
100
AcDbEllipse
 62
7
  6
CONTINUOUS
 10
2.1
 20
-0.6642856644
 30
0.0
 11
-0.0
 21
4.45
 31
0.0
 40
1.0
 41
-2.1673536302
 42
-2.0515653832
  0
ELLIPSE
  5
42A
100
AcDbEntity
  8
ASSI
100
AcDbEllipse
 62
7
  6
CONTINUOUS
 10
2.1
 20
-0.6642856644
 30
0.0
 11
4.45
 21
0.0
 31
0.0
 40
1.0
 41
5.8024162508
 42
5.8168956199
  0
ELLIPSE
  5
42B
100
AcDbEntity
  8
ASSI
100
AcDbEllipse
 62
7
  6
CONTINUOUS
 10
-2.1
 20
-0.6642856644
 30
0.0
 11
4.45
 21
0.0
 31
0.0
 40
1.0
 41
-2.6608235972
 42
-2.5450353502
  0
ELLIPSE
  5
42C
100
AcDbEntity
  8
ASSI
100
AcDbEllipse
 62
7
  6
CONTINUOUS
 10
-10.499923836
 20
34.6855429393
 30
0.0
 11
-0.2774630169
 21
0.416247366
 31
0.0
 40
0.9995051766
 41
-0.5877156075
 42
0.9826238685
  0
ELLIPSE
  5
42D
100
AcDbEntity
  8
ASSI
100
AcDbEllipse
 62
7
  6
CONTINUOUS
 10
-10.499923836
 20
-8.0141142682
 30
0.0
 11
0.2774630169
 21
0.416247366
 31
0.0
 40
0.9995051766
 41
-4.1242165221
 42
-2.5538770461
  0
ELLIPSE
  5
42E
100
AcDbEntity
  8
ASSI
100
AcDbEllipse
 62
7
  6
CONTINUOUS
 10
10.499923836
 20
34.6855429393
 30
0.0
 11
0.2774630169
 21
0.416247366
 31
0.0
 40
0.9995051766
 41
-0.9826238685
 42
0.5877156075
  0
ELLIPSE
  5
42F
100
AcDbEntity
  8
ASSI
100
AcDbEllipse
 62
7
  6
CONTINUOUS
 10
10.499923836
 20
-8.0141142682
 30
0.0
 11
-0.2774630169
 21
0.416247366
 31
0.0
 40
0.9995051766
 41
-3.7293082611
 42
-2.1589687851
  0
ELLIPSE
  5
430
100
AcDbEntity
  8
ASSI
100
AcDbEllipse
 62
7
  6
CONTINUOUS
 10
2.1
 20
-0.6642856644
 30
0.0
 11
-0.0
 21
4.45
 31
0.0
 40
1.0
 41
-2.0370860141
 42
-1.1048132169
  0
ELLIPSE
  5
431
100
AcDbEntity
  8
ASSI
100
AcDbEllipse
 62
7
  6
CONTINUOUS
 10
-2.1
 20
-0.6642856644
 30
0.0
 11
0.0
 21
4.45
 31
0.0
 40
1.0
 41
1.1048132169
 42
2.0515653832
  0
ELLIPSE
  5
432
100
AcDbEntity
  8
0
100
AcDbEllipse
 62
7
  6
CONTINUOUS
 10
2.1
 20
-0.6642856644
 30
0.0
 11
4.45
 21
0.0
 31
0.0
 40
1.0
 41
-0.5965573034
 42
-0.4678377733
  0
ELLIPSE
  5
433
100
AcDbEntity
  8
0
100
AcDbEllipse
 62
7
  6
CONTINUOUS
 10
-2.1
 20
-0.6642856644
 30
0.0
 11
4.45
 21
0.0
 31
0.0
 40
1.0
 41
-2.6608235972
 42
-2.5450353502
  0
ELLIPSE
  5
434
100
AcDbEntity
  8
RACCORDO
100
AcDbEllipse
 62
7
  6
CONTINUOUS
 10
-10.499923836
 20
34.6855429393
 30
0.0
 11
-0.2774630169
 21
0.416247366
 31
0.0
 40
0.9995051766
 41
-0.5877156075
 42
0.9826238685
  0
ELLIPSE
  5
435
100
AcDbEntity
  8
RACCORDO
100
AcDbEllipse
 62
7
  6
CONTINUOUS
 10
-10.499923836
 20
-8.0141142682
 30
0.0
 11
0.2774630169
 21
0.416247366
 31
0.0
 40
0.9995051766
 41
-4.1242165221
 42
-2.5538770461
  0
ELLIPSE
  5
436
100
AcDbEntity
  8
RACCORDO
100
AcDbEllipse
 62
7
  6
CONTINUOUS
 10
10.499923836
 20
34.6855429393
 30
0.0
 11
0.2774630169
 21
0.416247366
 31
0.0
 40
0.9995051766
 41
-0.9826238685
 42
0.5877156075
  0
ELLIPSE
  5
437
100
AcDbEntity
  8
RACCORDO
100
AcDbEllipse
 62
7
  6
CONTINUOUS
 10
10.499923836
 20
-8.0141142682
 30
0.0
 11
-0.2774630169
 21
0.416247366
 31
0.0
 40
0.9995051766
 41
-3.7293082611
 42
-2.1589687851
  0
ELLIPSE
  5
438
100
AcDbEntity
  8
0
100
AcDbEllipse
 62
7
  6
CONTINUOUS
 10
2.1
 20
-0.6642856644
 30
0.0
 11
-0.0
 21
4.45
 31
0.0
 40
1.0
 41
4.244551207
 42
5.1783720903
  0
ELLIPSE
  5
439
100
AcDbEntity
  8
0
100
AcDbEllipse
 62
7
  6
CONTINUOUS
 10
-2.1
 20
-0.6642856644
 30
0.0
 11
0.0
 21
4.45
 31
0.0
 40
1.0
 41
1.1048132169
 42
2.0515653832
  0
ELLIPSE
  5
43A
100
AcDbEntity
  8
SIMBOLO
100
AcDbEllipse
 62
250
  6
CONTINUOUS
 10
464.5978424509
 20
13.3357143356
 30
0.0
 11
500.0
 21
0.0
 31
0.0
 40
1.0
 41
3.1553645169
 42
3.1561074492
  0
ELLIPSE
  5
43B
100
AcDbEntity
  8
SIMBOLO
100
AcDbEllipse
 62
250
  6
CONTINUOUS
 10
464.5978424509
 20
13.3357143356
 30
0.0
 11
0.0
 21
500.0
 31
0.0
 40
1.0
 41
-4.7001029573
 42
-4.6997315004
  0
ELLIPSE
  5
43C
100
AcDbEntity
  8
SIMBOLO
100
AcDbEllipse
 62
250
  6
CONTINUOUS
 10
464.5978424509
 20
13.3357143356
 30
0.0
 11
500.0
 21
0.0
 31
0.0
 40
1.0
 41
3.1222430279
 42
3.1245919467
  0
ELLIPSE
  5
43D
100
AcDbEntity
  8
SIMBOLO
100
AcDbEllipse
 62
250
  6
CONTINUOUS
 10
464.5978424509
 20
13.3357143356
 30
0.0
 11
-0.0
 21
500.0
 31
0.0
 40
1.0
 41
1.550783975
 42
1.5514358218
  0
ELLIPSE
  5
43E
100
AcDbEntity
  8
SIMBOLO
100
AcDbEllipse
 62
250
  6
CONTINUOUS
 10
464.5978424509
 20
13.3357143356
 30
0.0
 11
0.0
 21
500.0
 31
0.0
 40
1.0
 41
-4.6967597721
 42
-4.6963882976
  0
ELLIPSE
  5
43F
100
AcDbEntity
  8
SIMBOLO
100
AcDbEllipse
 62
250
  6
CONTINUOUS
 10
464.5978424509
 20
13.3357143356
 30
0.0
 11
500.0
 21
0.0
 31
0.0
 40
1.0
 41
3.1095873018
 42
3.1215791396
  0
ENDSEC
  0
SECTION
  2
OBJECTS
  0
DICTIONARY
  5
C
100
AcDbDictionary
280
0
281
1
  3
ACAD_GROUP
350
D
  3
ACAD_MLINESTYLE
350
17
  3
ACAD_LAYOUT
350
1A
  3
ACAD_PLOTSETTINGS
350
19
  3
ACAD_PLOTSTYLENAME
350
E
  0
DICTIONARY
  5
D
102
{ACAD_REACTORS
330
C
102
}
100
AcDbDictionary
280
0
281
1
  0
ACDBDICTIONARYWDFLT
  5
E
102
{ACAD_REACTORS
330
C
102
}
100
AcDbDictionary
281
1
  3
Normal
350
F
100
AcDbDictionaryWithDefault
340
F
  0
DICTIONARY
  5
17
102
{ACAD_REACTORS
330
C
102
}
100
AcDbDictionary
280
0
281
1
  3
Standard
350
18
  0
DICTIONARY
  5
19
102
{ACAD_REACTORS
330
C
102
}
100
AcDbDictionary
281
1
  0
DICTIONARY
  5
1A
102
{ACAD_REACTORS
330
C
102
}
100
AcDbDictionary
281
1
  3
Model
350
440
  3
Layout1
350
441
  0
ACDBPLACEHOLDER
  5
F
102
{ACAD_REACTORS
330
E
102
}
  0
MLINESTYLE
  5
18
102
{ACAD_REACTORS
330
17
102
}
100
AcDbMlineStyle
  2
STANDARD
 70
0
  3

 62
256
 51
90.0
 52
90.0
 71
2
 49
0.5
 62
256
  6
BYLAYER
 49
-0.5
 62
256
  6
BYLAYER
  0
LAYOUT
  5
440
102
{ACAD_REACTORS
330
1A
102
}
100
AcDbPlotSettings
  1

  2
none_device
  4
ISO_A4_(297.00_x_210.00_MM)
  6

 40
0.0
 41
0.0
 42
0.0
 43
0.0
 44
297.0
 45
210.0
 46
0.0
 47
0.0
 48
0.0
 49
0.0
140
0.0
141
0.0
142
1.0
143
1.0
 70
1024
 72
1
 73
0
 74
0
  7

 75
0
147
1.0
148
0.0
149
0.0
100
AcDbLayout
  1
Model
 70
0
 71
0
 10
0.0
 20
0.0
 11
297.0
 21
210.0
 12
0.0
 22
0.0
 32
0.0
 14
0.0
 24
0.0
 34
0.0
 15
0.0
 25
0.0
 35
0.0
146
0.0
 13
0.0
 23
0.0
 33
0.0
 16
1.0
 26
0.0
 36
0.0
 17
0.0
 27
1.0
 37
0.0
 76
0
330
215
345
0
346
0
  0
LAYOUT
  5
441
102
{ACAD_REACTORS
330
1A
102
}
100
AcDbPlotSettings
  1

  2
none_device
  4
ISO_A4_(297.00_x_210.00_MM)
  6

 40
0.0
 41
0.0
 42
0.0
 43
0.0
 44
297.0
 45
210.0
 46
0.0
 47
0.0
 48
0.0
 49
0.0
140
0.0
141
0.0
142
1.0
143
1.0
 70
0
 72
1
 73
0
 74
0
  7

 75
0
147
1.0
148
0.0
149
0.0
100
AcDbLayout
  1
Layout1
 70
0
 71
1
 10
0.0
 20
0.0
 11
297.0
 21
210.0
 12
0.0
 22
0.0
 32
0.0
 14
0.0
 24
0.0
 34
0.0
 15
0.0
 25
0.0
 35
0.0
146
0.0
 13
0.0
 23
0.0
 33
0.0
 16
1.0
 26
0.0
 36
0.0
 17
0.0
 27
1.0
 37
0.0
 76
0
330
216
345
0
346
0
  0
ENDSEC
  0
EOF
