  0
SECTION
  2
HEADER
  9
$ACADVER
  1
AC1024
  9
$DWGCODEPAGE
  3
ANSI_1252
  9
$EXTMAX
 10
297.0
 20
210.0
 30
0.0
  9
$EXTMIN
 10
0.0
 20
0.0
 30
0.0
  9
$LIMMIN
 10
0.0
 20
0.0
  9
$LIMMAX
 10
297.0
 20
210.0
  9
$VIEWCTR
 10
148.5
 20
105.0
  9
$VIEWSIZE
 40
210.0
  9
$CLAYER
  8
0
  9
$LTSCALE
 40
16.335
  9
$CELTYPE
  6
BYLAYER
  9
$DIMSCALE
 40
1.0
  9
$DIMASZ
 40
3.0
  9
$DIMEXO
 40
0.5
  9
$DIMDLI
 40
11.286
  9
$DIMEXE
 40
1.5
  9
$DIMCEN
 40
2.673
  9
$DIMLFAC
 40
1.0
  9
$DIMBLK
  1
_FILLED
  9
$DIMALT
 70
0
  9
$DIMALTF
 40
0.0393700787
  9
$DIMTXT
 40
3.0
  9
$DIMTOL
 70
1
  9
$DIMLIM
 70
0
  9
$DIMTFAC
 40
1.0
  9
$DIMTP
 40
0.01
  9
$DIMTM
 40
0.01
  9
$DIMGAP
 40
0.625
  9
$DIMDSEP
 70
44
  9
$AUNITS
 70
0
  9
$PDMODE
 70
3
  9
$PDSIZE
 40
3.0
  9
$HANDSEED
  5
466
  9
$TILEMODE
 70
1
  9
$MEASUREMENT
 70
1
  9
$INSUNITS
 70
4
  0
ENDSEC
  0
SECTION
  2
CLASSES
  0
CLASS
  1
ACDBDICTIONARYWDFLT
  2
AcDbDictionaryWithDefault
  3
AutoCAD 2000
 90
0
 91
1
280
0
281
0
  0
CLASS
  1
ACDBPLACEHOLDER
  2
AcDbPlaceHolder
  3
AutoCAD 2000
 90
0
 91
1
280
0
281
0
  0
CLASS
  1
LAYOUT
  2
AcDbLayout
  3
AutoCAD 2000
 90
0
 91
0
280
0
281
0
  0
ENDSEC
  0
SECTION
  2
TABLES
  0
TABLE
  2
VPORT
  5
8
100
AcDbSymbolTable
 70
2
  0
VPORT
  5
1F4
100
AcDbSymbolTableRecord
100
AcDbViewportTableRecord
  2
*ACTIVE
 70
0
 10
0.0
 20
0.0
 11
1.0
 21
1.0
 12
148.5
 22
105.0
 13
0.0
 23
0.0
 14
1.0
 24
1.0
 15
0.0
 25
0.0
 16
0.0
 26
0.0
 36
1.0
 17
0.0
 27
0.0
 37
0.0
 40
210.0
 41
1.4142857143
 42
50.0
 43
0.0
 44
0.0
 50
0.0
 51
0.0
 71
0
 72
100
 73
1
 74
1
 75
0
 76
0
 77
0
 78
0
  0
ENDTAB
  0
TABLE
  2
LTYPE
  5
5
100
AcDbSymbolTable
 70
6
  0
LTYPE
  5
14
100
AcDbSymbolTableRecord
100
AcDbLinetypeTableRecord
  2
BYBLOCK
 70
0
  3

 72
65
 73
0
 40
0.0
  0
LTYPE
  5
15
100
AcDbSymbolTableRecord
100
AcDbLinetypeTableRecord
  2
BYLAYER
 70
0
  3

 72
65
 73
0
 40
0.0
  0
LTYPE
  5
16
100
AcDbSymbolTableRecord
100
AcDbLinetypeTableRecord
  2
CONTINUOUS
 70
64
  3
Solid line
 72
65
 73
0
 40
0.0
  0
LTYPE
  5
1F5
100
AcDbSymbolTableRecord
100
AcDbLinetypeTableRecord
  2
CENTER
 70
64
  3
____ _ ____ _ ____ _ ____ _ ____ _ ____ _ ____
 72
65
 73
4
 40
0.6
 49
0.375
 74
0
 49
-0.075
 74
0
 49
0.075
 74
0
 49
-0.075
 74
0
  0
LTYPE
  5
1F6
100
AcDbSymbolTableRecord
100
AcDbLinetypeTableRecord
  2
HIDDEN
 70
64
  3
- - - - - - - - - - - - - - - - - - - -
 72
65
 73
2
 40
0.2
 49
0.1
 74
0
 49
-0.1
 74
0
  0
LTYPE
  5
1F7
100
AcDbSymbolTableRecord
100
AcDbLinetypeTableRecord
  2
PHANTOM
 70
64
  3
_____ _ _ _____ _ _ _____ _ _ _____
 72
65
 73
6
 40
0.8
 49
0.45
 74
0
 49
-0.05
 74
0
 49
0.1
 74
0
 49
-0.05
 74
0
 49
0.1
 74
0
 49
-0.05
 74
0
  0
LTYPE
  5
1F8
100
AcDbSymbolTableRecord
100
AcDbLinetypeTableRecord
  2
DOT
 70
64
  3
. . . . . . . . . . . . . . . . . . . .
 72
65
 73
2
 40
0.2
 49
0.1
 74
0
 49
-0.1
 74
0
  0
LTYPE
  5
1F9
100
AcDbSymbolTableRecord
100
AcDbLinetypeTableRecord
  2
DASHED
 70
64
  3
- - - - - - - - - - - - - - - - - - - -
 72
65
 73
2
 40
0.2
 49
0.1
 74
0
 49
-0.1
 74
0
  0
ENDTAB
  0
TABLE
  2
LAYER
  5
2
100
AcDbSymbolTable
 70
36
  0
LAYER
  5
10
100
AcDbSymbolTableRecord
100
AcDbLayerTableRecord
  2
0
 70
0
 62
7
  6
CONTINUOUS
370
-3
390
F
  0
LAYER
  5
1FA
100
AcDbSymbolTableRecord
100
AcDbLayerTableRecord
  2
DEFAULT_1
 70
0
 62
7
  6
CENTER
370
-3
390
F
  0
LAYER
  5
1FB
100
AcDbSymbolTableRecord
100
AcDbLayerTableRecord
  2
DEFAULT_2
 70
0
 62
7
  6
HIDDEN
370
-3
390
F
  0
LAYER
  5
1FC
100
AcDbSymbolTableRecord
100
AcDbLayerTableRecord
  2
DEFAULT_3
 70
0
 62
7
  6
PHANTOM
370
-3
390
F
  0
LAYER
  5
1FD
100
AcDbSymbolTableRecord
100
AcDbLayerTableRecord
  2
ASSI
 70
0
 62
7
  6
CONTINUOUS
370
-3
390
F
  0
LAYER
  5
1FE
100
AcDbSymbolTableRecord
100
AcDbLayerTableRecord
  2
COORDINATE
 70
0
 62
7
  6
CONTINUOUS
370
-3
390
F
  0
LAYER
  5
1FF
100
AcDbSymbolTableRecord
100
AcDbLayerTableRecord
  2
COORD_ORIGINE
 70
0
 62
7
  6
CONTINUOUS
370
-3
390
F
  0
LAYER
  5
200
100
AcDbSymbolTableRecord
100
AcDbLayerTableRecord
  2
COSMETICI
 70
0
 62
7
  6
CONTINUOUS
370
-3
390
F
  0
LAYER
  5
201
100
AcDbSymbolTableRecord
100
AcDbLayerTableRecord
  2
CURVE
 70
0
 62
7
  6
CONTINUOUS
370
-3
390
F
  0
LAYER
  5
202
100
AcDbSymbolTableRecord
100
AcDbLayerTableRecord
  2
DRAFT
 70
0
 62
7
  6
CONTINUOUS
370
-3
390
F
  0
LAYER
  5
203
100
AcDbSymbolTableRecord
100
AcDbLayerTableRecord
  2
IMPORT_FEATURES
 70
0
 62
7
  6
CONTINUOUS
370
-3
390
F
  0
LAYER
  5
204
100
AcDbSymbolTableRecord
100
AcDbLayerTableRecord
  2
INTF_1
 70
0
 62
7
  6
CONTINUOUS
370
-3
390
F
  0
LAYER
  5
205
100
AcDbSymbolTableRecord
100
AcDbLayerTableRecord
  2
INTF_9
 70
0
 62
7
  6
CONTINUOUS
370
-3
390
F
  0
LAYER
  5
206
100
AcDbSymbolTableRecord
100
AcDbLayerTableRecord
  2
NOTE
 70
0
 62
7
  6
CONTINUOUS
370
-3
390
F
  0
LAYER
  5
207
100
AcDbSymbolTableRecord
100
AcDbLayerTableRecord
  2
PIANI
 70
0
 62
7
  6
CONTINUOUS
370
-3
390
F
  0
LAYER
  5
208
100
AcDbSymbolTableRecord
100
AcDbLayerTableRecord
  2
PIANI_ORIGINE
 70
0
 62
7
  6
CONTINUOUS
370
-3
390
F
  0
LAYER
  5
209
100
AcDbSymbolTableRecord
100
AcDbLayerTableRecord
  2
PUNTI
 70
0
 62
7
  6
CONTINUOUS
370
-3
390
F
  0
LAYER
  5
20A
100
AcDbSymbolTableRecord
100
AcDbLayerTableRecord
  2
RACCORDO
 70
0
 62
7
  6
CONTINUOUS
370
-3
390
F
  0
LAYER
  5
20B
100
AcDbSymbolTableRecord
100
AcDbLayerTableRecord
  2
RGB____0____0____0__
 70
0
 62
7
  6
CONTINUOUS
370
-3
390
F
  0
LAYER
  5
20C
100
AcDbSymbolTableRecord
100
AcDbLayerTableRecord
  2
SIMBOLI
 70
0
 62
7
  6
CONTINUOUS
370
-3
390
F
  0
LAYER
  5
20D
100
AcDbSymbolTableRecord
100
AcDbLayerTableRecord
  2
SNAPLINE
 70
0
 62
7
  6
CONTINUOUS
370
-3
390
F
  0
LAYER
  5
20E
100
AcDbSymbolTableRecord
100
AcDbLayerTableRecord
  2
SUPERFICI
 70
0
 62
7
  6
CONTINUOUS
370
-3
390
F
  0
LAYER
  5
20F
100
AcDbSymbolTableRecord
100
AcDbLayerTableRecord
  2
TRASH
 70
0
 62
7
  6
CONTINUOUS
370
-3
390
F
  0
LAYER
  5
210
100
AcDbSymbolTableRecord
100
AcDbLayerTableRecord
  2
XSEC_DATUMS
 70
0
 62
7
  6
CONTINUOUS
370
-3
390
F
  0
ENDTAB
  0
TABLE
  2
STYLE
  5
3
100
AcDbSymbolTable
 70
1
  0
STYLE
  5
11
100
AcDbSymbolTableRecord
100
AcDbTextStyleTableRecord
  2
STANDARD
 70
0
 40
0.0
 41
0.8
 50
0.0
 71
0
 42
0.2
  3
txt
  4

  0
STYLE
  5
211
100
AcDbSymbolTableRecord
100
AcDbTextStyleTableRecord
  2
TEXTSTYLE_1
 70
0
 40
0.0
 41
0.8
 50
0.0
 71
0
 42
0.2
  3
gdt
  4

  0
ENDTAB
  0
TABLE
  2
VIEW
  5
6
100
AcDbSymbolTable
 70
0
  0
ENDTAB
  0
TABLE
  2
UCS
  5
7
100
AcDbSymbolTable
 70
0
  0
ENDTAB
  0
TABLE
  2
APPID
  5
9
100
AcDbSymbolTable
 70
1
  0
APPID
  5
212
100
AcDbSymbolTableRecord
100
AcDbRegAppTableRecord
  2
ACAD
 70
0
  0
ENDTAB
  0
TABLE
  2
BLOCK_RECORD
  5
1
100
AcDbSymbolTable
 70
0
  0
BLOCK_RECORD
  5
213
100
AcDbSymbolTableRecord
100
AcDbBlockTableRecord
  2
*Model_Space
  0
BLOCK_RECORD
  5
214
100
AcDbSymbolTableRecord
100
AcDbBlockTableRecord
  2
*Paper_Space
  0
BLOCK_RECORD
  5
215
100
AcDbSymbolTableRecord
100
AcDbBlockTableRecord
  2
_FILLED
  0
BLOCK_RECORD
  5
216
100
AcDbSymbolTableRecord
100
AcDbBlockTableRecord
  2
*D0
  0
BLOCK_RECORD
  5
217
100
AcDbSymbolTableRecord
100
AcDbBlockTableRecord
  2
*D1
  0
BLOCK_RECORD
  5
218
100
AcDbSymbolTableRecord
100
AcDbBlockTableRecord
  2
*D2
  0
BLOCK_RECORD
  5
219
100
AcDbSymbolTableRecord
100
AcDbBlockTableRecord
  2
*D3
  0
BLOCK_RECORD
  5
21A
100
AcDbSymbolTableRecord
100
AcDbBlockTableRecord
  2
*D4
  0
ENDTAB
  0
TABLE
  2
DIMSTYLE
  5
A
100
AcDbSymbolTable
 70
1
100
AcDbDimStyleTable
 71
0
  0
DIMSTYLE
105
21B
100
AcDbSymbolTableRecord
100
AcDbDimStyleTableRecord
  2
STANDARD
 70
0
  3

  4

 40
1.0
 41
3.0
 42
0.5
 43
0.38
 44
1.5
 45
0.0
 46
0.0
 47
0.01
 48
0.01
140
3.0
141
0.09
142
0.0
143
25.4
144
1.0
145
0.0
146
1.0
147
0.625
 71
1
 72
0
 73
0
 74
0
 75
0
 76
0
 77
1
 78
8
 79
2
170
0
171
1
172
0
173
0
174
0
175
0
176
0
177
0
178
0
270
2
179
2
271
2
272
2
273
2
274
2
275
0
280
0
281
0
282
0
283
1
284
8
285
0
286
0
287
3
288
0
340
11
278
44
341
215
342
215
343
215
344
215
  0
DIMSTYLE
105
21C
100
AcDbSymbolTableRecord
100
AcDbDimStyleTableRecord
  2
DIMSTYLE_1
 70
0
  3

  4

 40
1.0
 41
3.0
 42
0.5
 43
0.38
 44
1.5
 45
0.0
 46
0.0
 47
0.0
 48
0.0
140
3.0
141
0.09
142
0.0
143
25.4
144
1.0
145
0.0
146
1.0
147
0.75
 71
0
 72
0
 73
0
 74
0
 75
0
 76
0
 77
1
 78
8
 79
2
170
0
171
1
172
0
173
0
174
0
175
0
176
0
177
0
178
0
270
2
179
2
271
1
272
1
273
2
274
2
275
0
280
0
281
0
282
0
283
1
284
8
285
0
286
0
287
3
288
0
340
11
278
44
341
215
342
215
343
215
344
215
  0
DIMSTYLE
105
21D
100
AcDbSymbolTableRecord
100
AcDbDimStyleTableRecord
  2
DIMSTYLE_2
 70
0
  3

  4

 40
1.0
 41
3.0
 42
0.5
 43
0.38
 44
1.5
 45
0.0
 46
0.0
 47
0.0
 48
0.0
140
3.0
141
0.09
142
0.0
143
25.4
144
1.0
145
0.0
146
1.0
147
0.75
 71
0
 72
0
 73
0
 74
0
 75
0
 76
0
 77
1
 78
8
 79
2
170
0
171
1
172
0
173
0
174
0
175
0
176
0
177
0
178
0
270
2
179
2
271
2
272
2
273
2
274
2
275
0
280
0
281
0
282
0
283
1
284
8
285
0
286
0
287
3
288
0
340
11
278
44
341
215
342
215
343
215
344
215
  0
ENDTAB
  0
ENDSEC
  0
SECTION
  2
BLOCKS
  0
BLOCK
  5
20
100
AcDbEntity
  8
0
100
AcDbBlockBegin
  2
*Model_Space
 70
0
 10
0.0
 20
0.0
 30
0.0
  3
*Model_Space
  1

  0
ENDBLK
  5
21
100
AcDbEntity
  8
0
100
AcDbBlockEnd
  0
BLOCK
  5
1C
100
AcDbEntity
  8
0
100
AcDbBlockBegin
  2
*Paper_Space
 70
0
 10
0.0
 20
0.0
 30
0.0
  3
*Paper_Space
  1

  0
ENDBLK
  5
1D
100
AcDbEntity
  8
0
100
AcDbBlockEnd
  0
BLOCK
  5
21E
100
AcDbEntity
  8
0
100
AcDbBlockBegin
  2
_FILLED
 70
64
 10
0.0
 20
0.0
  3
_FILLED
  1

  0
SOLID
  5
21F
100
AcDbEntity
  8
0
  6
BYBLOCK
 62
0
100
AcDbTrace
 10
0.0
 20
0.0
 11
-1.0
 21
0.3166666667
 12
-1.0
 22
-0.3166666667
 13
-1.0
 23
-0.3166666667
  0
ENDBLK
  5
220
100
AcDbEntity
  8
0
  6
BYBLOCK
 62
0
100
AcDbBlockEnd
  0
BLOCK
  5
221
100
AcDbEntity
  8
0
100
AcDbBlockBegin
 62
7
  6
CONTINUOUS
  2
*D0
 70
65
 10
0.0
 20
0.0
  3
*D0
  1

  0
MTEXT
  5
222
100
AcDbEntity
  8
0
100
AcDbMText
 62
7
  6
CONTINUOUS
  7
STANDARD
 71
2
 72
1
 10
25.1743346034
 20
38.0398825065
 30
0.0
 11
1.0
 21
0.0
 31
0.0
 73
2
 44
0.9
  1
{\ftxt;\W0.0001;\H0.0001;\~}{\ftxt;\W2.5;\H3.0; }{\ftxt;\W0.0001;\H0.0001;\~}
 40
3.0
 41
11.25
  0
LINE
  5
223
100
AcDbEntity
  8
0
100
AcDbLine
 62
7
  6
CONTINUOUS
 10
19.5987149151
 20
19.5157355996
 11
19.5987149151
 21
35.7898825065
  0
LINE
  5
224
100
AcDbEntity
  8
0
100
AcDbLine
 62
7
  6
CONTINUOUS
 10
30.7499542917
 20
19.8898825065
 11
30.7499542917
 21
35.7898825065
  0
LINE
  5
225
100
AcDbEntity
  8
0
100
AcDbLine
 62
7
  6
CONTINUOUS
 10
19.5987149151
 20
34.2898825065
 11
15.5987149151
 21
34.2898825065
  0
LINE
  5
226
100
AcDbEntity
  8
0
100
AcDbLine
 62
7
  6
CONTINUOUS
 10
15.5987149151
 20
34.2898825065
 11
25.1743346034
 21
34.2898825065
  0
LINE
  5
227
100
AcDbEntity
  8
0
100
AcDbLine
 62
7
  6
CONTINUOUS
 10
30.7499542917
 20
34.2898825065
 11
34.7499542917
 21
34.2898825065
  0
LINE
  5
228
100
AcDbEntity
  8
0
100
AcDbLine
 62
7
  6
CONTINUOUS
 10
34.7499542917
 20
34.2898825065
 11
25.1743346034
 21
34.2898825065
  0
INSERT
  5
229
100
AcDbEntity
  8
0
100
AcDbBlockReference
 62
7
  6
CONTINUOUS
  2
_FILLED
 10
19.5987149151
 20
34.2898825065
 41
3.0
 42
3.0
 43
3.0
  0
INSERT
  5
22A
100
AcDbEntity
  8
0
100
AcDbBlockReference
 62
7
  6
CONTINUOUS
  2
_FILLED
 10
30.7499542917
 20
34.2898825065
 41
3.0
 42
3.0
 43
3.0
 50
180.0
  0
ENDBLK
  5
22B
100
AcDbEntity
  8
0
  6
BYBLOCK
 62
0
100
AcDbBlockEnd
  0
BLOCK
  5
22C
100
AcDbEntity
  8
0
100
AcDbBlockBegin
 62
7
  6
CONTINUOUS
  2
*D1
 70
65
 10
0.0
 20
0.0
  3
*D1
  1

  0
MTEXT
  5
22D
100
AcDbEntity
  8
0
100
AcDbMText
 62
7
  6
CONTINUOUS
  7
STANDARD
 71
2
 72
1
 10
45.0487149151
 20
-0.2101174935
 30
0.0
 11
0.0
 21
1.0
 31
0.0
 73
2
 44
0.9
  1
{\ftxt;\W0.0001;\H0.0001;\~}{\ftxt;\W1.5714285714;\H3.0; }{\ftxt;\W0.0001;\H0.0001;\~}
 40
3.0
 41
7.0714285714
  0
LINE
  5
22E
100
AcDbEntity
  8
0
100
AcDbLine
 62
7
  6
CONTINUOUS
 10
23.0487047348
 20
24.2898825065
 11
50.2987149151
 21
24.2898825065
  0
LINE
  5
22F
100
AcDbEntity
  8
0
100
AcDbLine
 62
7
  6
CONTINUOUS
 10
23.0487047348
 20
-24.7101174935
 11
50.2987149151
 21
-24.7101174935
  0
LINE
  5
230
100
AcDbEntity
  8
0
100
AcDbLine
 62
7
  6
CONTINUOUS
 10
48.7987149151
 20
24.2898825065
 11
48.7987149151
 21
-0.2101174935
  0
LINE
  5
231
100
AcDbEntity
  8
0
100
AcDbLine
 62
7
  6
CONTINUOUS
 10
48.7987149151
 20
-24.7101174935
 11
48.7987149151
 21
-0.2101174935
  0
INSERT
  5
232
100
AcDbEntity
  8
0
100
AcDbBlockReference
 62
7
  6
CONTINUOUS
  2
_FILLED
 10
48.7987149151
 20
24.2898825065
 41
3.0
 42
3.0
 43
3.0
 50
90.0
  0
INSERT
  5
233
100
AcDbEntity
  8
0
100
AcDbBlockReference
 62
7
  6
CONTINUOUS
  2
_FILLED
 10
48.7987149151
 20
-24.7101174935
 41
3.0
 42
3.0
 43
3.0
 50
270.0
  0
ENDBLK
  5
234
100
AcDbEntity
  8
0
  6
BYBLOCK
 62
0
100
AcDbBlockEnd
  0
BLOCK
  5
235
100
AcDbEntity
  8
0
100
AcDbBlockBegin
 62
7
  6
CONTINUOUS
  2
*D2
 70
65
 10
0.0
 20
0.0
  3
*D2
  1

  0
MTEXT
  5
236
100
AcDbEntity
  8
0
100
AcDbMText
 62
7
  6
CONTINUOUS
  7
STANDARD
 71
2
 72
1
 10
37.0487149151
 20
-0.2101174935
 30
0.0
 11
0.0
 21
1.0
 31
0.0
 73
2
 44
0.9
  1
{\ftxt;\W0.0001;\H0.0001;\~}{\ftxt;\W1.5714285714;\H3.0; }{\ftxt;\W0.0001;\H0.0001;\~}
 40
3.0
 41
7.0714285714
  0
LINE
  5
237
100
AcDbEntity
  8
0
100
AcDbLine
 62
7
  6
CONTINUOUS
 10
30.9050467872
 20
23.2898825065
 11
42.2987149151
 21
23.2898825065
  0
LINE
  5
238
100
AcDbEntity
  8
0
100
AcDbLine
 62
7
  6
CONTINUOUS
 10
30.9050467872
 20
-23.7101174935
 11
42.2987149151
 21
-23.7101174935
  0
LINE
  5
239
100
AcDbEntity
  8
0
100
AcDbLine
 62
7
  6
CONTINUOUS
 10
40.7987149151
 20
23.2898825065
 11
40.7987149151
 21
-0.2101174935
  0
LINE
  5
23A
100
AcDbEntity
  8
0
100
AcDbLine
 62
7
  6
CONTINUOUS
 10
40.7987149151
 20
-23.7101174935
 11
40.7987149151
 21
-0.2101174935
  0
INSERT
  5
23B
100
AcDbEntity
  8
0
100
AcDbBlockReference
 62
7
  6
CONTINUOUS
  2
_FILLED
 10
40.7987149151
 20
23.2898825065
 41
3.0
 42
3.0
 43
3.0
 50
90.0
  0
INSERT
  5
23C
100
AcDbEntity
  8
0
100
AcDbBlockReference
 62
7
  6
CONTINUOUS
  2
_FILLED
 10
40.7987149151
 20
-23.7101174935
 41
3.0
 42
3.0
 43
3.0
 50
270.0
  0
ENDBLK
  5
23D
100
AcDbEntity
  8
0
  6
BYBLOCK
 62
0
100
AcDbBlockEnd
  0
BLOCK
  5
23E
100
AcDbEntity
  8
0
100
AcDbBlockBegin
 62
7
  6
CONTINUOUS
  2
*D3
 70
65
 10
0.0
 20
0.0
  3
*D3
  1

  0
MTEXT
  5
23F
100
AcDbEntity
  8
0
100
AcDbMText
 62
7
  6
CONTINUOUS
  7
STANDARD
 71
2
 72
1
 10
-3.4139043095
 20
46.0398825065
 30
0.0
 11
1.0
 21
0.0
 31
0.0
 73
2
 44
0.9
  1
{\ftxt;\W0.0001;\H0.0001;\~}{\ftxt;\W2.6428571429;\H3.0; }{\ftxt;\W0.0001;\H0.0001;\~}
 40
3.0
 41
11.8928571429
  0
LINE
  5
240
100
AcDbEntity
  8
0
100
AcDbLine
 62
7
  6
CONTINUOUS
 10
5.3360956905
 20
21.3691360796
 11
5.3360956905
 21
43.7898825065
  0
LINE
  5
241
100
AcDbEntity
  8
0
100
AcDbLine
 62
7
  6
CONTINUOUS
 10
-12.1639043095
 20
0.2898825065
 11
-12.1639043095
 21
43.7898825065
  0
LINE
  5
242
100
AcDbEntity
  8
0
100
AcDbLine
 62
7
  6
CONTINUOUS
 10
5.3360956905
 20
42.2898825065
 11
-3.4139043095
 21
42.2898825065
  0
LINE
  5
243
100
AcDbEntity
  8
0
100
AcDbLine
 62
7
  6
CONTINUOUS
 10
-12.1639043095
 20
42.2898825065
 11
-3.4139043095
 21
42.2898825065
  0
INSERT
  5
244
100
AcDbEntity
  8
0
100
AcDbBlockReference
 62
7
  6
CONTINUOUS
  2
_FILLED
 10
5.3360956905
 20
42.2898825065
 41
3.0
 42
3.0
 43
3.0
 50
0.0
  0
INSERT
  5
245
100
AcDbEntity
  8
0
100
AcDbBlockReference
 62
7
  6
CONTINUOUS
  2
_FILLED
 10
-12.1639043095
 20
42.2898825065
 41
3.0
 42
3.0
 43
3.0
 50
180.0
  0
ENDBLK
  5
246
100
AcDbEntity
  8
0
  6
BYBLOCK
 62
0
100
AcDbBlockEnd
  0
BLOCK
  5
247
100
AcDbEntity
  8
0
100
AcDbBlockBegin
 62
7
  6
CONTINUOUS
  2
*D4
 70
65
 10
0.0
 20
0.0
  3
*D4
  1

  0
MTEXT
  5
248
100
AcDbEntity
  8
0
100
AcDbMText
 62
7
  6
CONTINUOUS
  7
STANDARD
 71
2
 72
1
 10
1.3360956905
 20
38.0398825065
 30
0.0
 11
1.0
 21
0.0
 31
0.0
 73
2
 44
0.9
  1
{\ftxt;\W0.0001;\H0.0001;\~}{\ftxt;\W0.7857142857;\H3.0; }{\ftxt;\W0.0001;\H0.0001;\~}
 40
3.0
 41
3.5357142857
  0
LINE
  5
249
100
AcDbEntity
  8
0
100
AcDbLine
 62
7
  6
CONTINUOUS
 10
-2.6639043095
 20
16.3896857556
 11
-2.6639043095
 21
35.7898825065
  0
LINE
  5
24A
100
AcDbEntity
  8
0
100
AcDbLine
 62
7
  6
CONTINUOUS
 10
5.3360956905
 20
21.3691360796
 11
5.3360956905
 21
35.7898825065
  0
LINE
  5
24B
100
AcDbEntity
  8
0
100
AcDbLine
 62
7
  6
CONTINUOUS
 10
-2.6639043095
 20
34.2898825065
 11
-6.6639043095
 21
34.2898825065
  0
LINE
  5
24C
100
AcDbEntity
  8
0
100
AcDbLine
 62
7
  6
CONTINUOUS
 10
-6.6639043095
 20
34.2898825065
 11
1.3360956905
 21
34.2898825065
  0
LINE
  5
24D
100
AcDbEntity
  8
0
100
AcDbLine
 62
7
  6
CONTINUOUS
 10
5.3360956905
 20
34.2898825065
 11
9.3360956905
 21
34.2898825065
  0
LINE
  5
24E
100
AcDbEntity
  8
0
100
AcDbLine
 62
7
  6
CONTINUOUS
 10
9.3360956905
 20
34.2898825065
 11
1.3360956905
 21
34.2898825065
  0
INSERT
  5
24F
100
AcDbEntity
  8
0
100
AcDbBlockReference
 62
7
  6
CONTINUOUS
  2
_FILLED
 10
-2.6639043095
 20
34.2898825065
 41
3.0
 42
3.0
 43
3.0
  0
INSERT
  5
250
100
AcDbEntity
  8
0
100
AcDbBlockReference
 62
7
  6
CONTINUOUS
  2
_FILLED
 10
5.3360956905
 20
34.2898825065
 41
3.0
 42
3.0
 43
3.0
 50
180.0
  0
ENDBLK
  5
251
100
AcDbEntity
  8
0
  6
BYBLOCK
 62
0
100
AcDbBlockEnd
  0
ENDSEC
  0
SECTION
  2
ENTITIES
  0
DIMENSION
  5
252
100
AcDbEntity
  8
0
100
AcDbDimension
 62
7
  6
CONTINUOUS
  2
*D0
 10
30.7499542917
 20
34.2898825065
 11
24.7457623329
 21
34.2898825065
 70
160
 71
2
 72
2
 41
0.9
 42
11.1512393766
  1
{\ftxt;\W0.0001;\H0.0001;\~}{\ftxt;\W2.5;\H3.0; }{\ftxt;\W0.0001;\H0.0001;\~}
  3
DIMSTYLE_1
100
AcDbAlignedDimension
 13
19.5987149151
 23
19.0157355996
 14
30.7499542917
 24
19.3898825065
100
AcDbRotatedDimension
  0
DIMENSION
  5
253
100
AcDbEntity
  8
0
100
AcDbDimension
 62
7
  6
CONTINUOUS
  2
*D1
 10
48.7987149151
 20
-24.7101174935
 11
48.7987149151
 21
-0.6386895526
 70
160
 71
2
 72
2
 41
0.9
 42
49.0
  1
{\ftxt;\W0.0001;\H0.0001;\~}{\ftxt;\W1.5714285714;\H3.0; }{\ftxt;\W0.0001;\H0.0001;\~}
  3
DIMSTYLE_2
100
AcDbAlignedDimension
 13
22.5487047348
 23
24.2898825065
 14
22.5487047348
 24
-24.7101174935
 50
270.0
100
AcDbRotatedDimension
  0
DIMENSION
  5
254
100
AcDbEntity
  8
0
100
AcDbDimension
 62
7
  6
CONTINUOUS
  2
*D2
 10
40.7987149151
 20
-23.7101174935
 11
40.7987149151
 21
-0.6386874621
 70
160
 71
2
 72
2
 41
0.9
 42
47.0
  1
{\ftxt;\W0.0001;\H0.0001;\~}{\ftxt;\W1.5714285714;\H3.0; }{\ftxt;\W0.0001;\H0.0001;\~}
  3
DIMSTYLE_2
100
AcDbAlignedDimension
 13
30.4050467872
 23
23.2898825065
 14
30.4050467872
 24
-23.7101174935
 50
270.0
100
AcDbRotatedDimension
  0
DIMENSION
  5
255
100
AcDbEntity
  8
0
100
AcDbDimension
 62
7
  6
CONTINUOUS
  2
*D3
 10
-12.1639043095
 20
42.2898825065
 11
-3.8424756491
 21
42.2898825065
 70
160
 71
2
 72
2
 41
0.9
 42
17.5
  1
{\ftxt;\W0.0001;\H0.0001;\~}{\ftxt;\W2.6428571429;\H3.0; }{\ftxt;\W0.0001;\H0.0001;\~}
  3
DIMSTYLE_2
100
AcDbAlignedDimension
 13
5.3360956905
 23
20.8691360796
 14
-12.1639043095
 24
-0.2101174935
 50
180.0
100
AcDbRotatedDimension
  0
DIMENSION
  5
256
100
AcDbEntity
  8
0
100
AcDbDimension
 62
7
  6
CONTINUOUS
  2
*D4
 10
5.3360956905
 20
34.2898825065
 11
0.9075242516
 21
34.2898825065
 70
160
 71
2
 72
2
 41
0.9
 42
8.0
  1
{\ftxt;\W0.0001;\H0.0001;\~}{\ftxt;\W0.7857142857;\H3.0; }{\ftxt;\W0.0001;\H0.0001;\~}
  3
DIMSTYLE_2
100
AcDbAlignedDimension
 13
-2.6639043095
 23
15.8896857556
 14
5.3360956905
 24
20.8691360796
100
AcDbRotatedDimension
  0
LWPOLYLINE
  5
257
100
AcDbEntity
  8
0
100
AcDbPolyline
 62
7
  6
CONTINUOUS
 90
3
 70
0
 43
0.3500000006
 10
21.4243335571
 20
37.1827401123
 10
22.2814782944
 20
38.0398825836
 10
22.2814782944
 20
35.0398816681
  0
LWPOLYLINE
  5
258
100
AcDbEntity
  8
0
100
AcDbPolyline
 62
7
  6
CONTINUOUS
 90
3
 70
0
 43
0.3500000006
 10
23.1386207657
 20
37.1827401123
 10
23.995763237
 20
38.0398825836
 10
23.995763237
 20
35.0398816681
  0
LWPOLYLINE
  5
259
100
AcDbEntity
  8
0
100
AcDbPolyline
 62
7
  6
CONTINUOUS
 90
3
 70
0
 10
27.5313450507
 20
-23.7079737325
 10
27.5634169645
 20
-23.7015923455
 10
27.5943818929
 20
-23.6910793429
  0
LINE
  5
25A
100
AcDbEntity
  8
0
100
AcDbLine
 62
7
  6
CONTINUOUS
 10
22.7172348717
 20
-24.2147377828
 11
22.7151693617
 21
-24.2150643138
  0
LINE
  5
25B
100
AcDbEntity
  8
0
100
AcDbLine
 62
7
  6
CONTINUOUS
 10
22.5431018181
 20
-24.2401937403
 11
22.5172653327
 21
-24.2440870794
  0
LINE
  5
25C
100
AcDbEntity
  8
0
100
AcDbLine
 62
7
  6
CONTINUOUS
 10
22.7487149151
 20
-24.2101174935
 11
22.7172348717
 21
-24.2147377828
  0
LINE
  5
25D
100
AcDbEntity
  8
0
100
AcDbLine
 62
7
  6
CONTINUOUS
 10
22.7151693617
 20
-24.2150643138
 11
22.5431018181
 21
-24.2401937403
  0
LWPOLYLINE
  5
25E
100
AcDbEntity
  8
0
100
AcDbPolyline
 62
7
  6
CONTINUOUS
 90
12
 70
0
 10
27.4768881445
 20
-23.6860898825
 10
27.5074716536
 20
-23.6839405807
 10
27.5396820484
 20
-23.6775030205
 10
27.5707807745
 20
-23.6668938336
 10
27.6002332201
 20
-23.6522899198
 10
27.6275237162
 20
-23.6339411809
 10
27.652167852
 20
-23.6121714446
 10
27.67378196
 20
-23.5873030725
 10
27.6919366934
 20
-23.5598111279
 10
27.7062342389
 20
-23.5303790541
 10
27.7164897868
 20
-23.4996208839
 10
27.7225248327
 20
-23.4689736361
  0
LWPOLYLINE
  5
25F
100
AcDbEntity
  8
0
100
AcDbPolyline
 62
250
  6
CONTINUOUS
 90
13
 70
0
 10
22.5172653327
 20
-24.67863745
 10
22.5433615638
 20
-24.6769193968
 10
22.569011454
 20
-24.6718105193
 10
22.5937762967
 20
-24.663398198
 10
22.6172325224
 20
-24.6518263143
 10
22.6389789442
 20
-24.6372927897
 10
22.6586436189
 20
-24.6200462002
 10
22.675890209
 20
-24.6003815255
 10
22.6904237345
 20
-24.5786351033
 10
22.7019956189
 20
-24.5551788769
 10
22.7104079406
 20
-24.5304140337
 10
22.7155168184
 20
-24.5047641428
 10
22.7172348717
 20
-24.478667911
  0
LINE
  5
260
100
AcDbEntity
  8
0
100
AcDbLine
 62
7
  6
CONTINUOUS
 10
27.498714915
 20
-23.7101143203
 11
27.5313450507
 21
-23.7079737325
  0
LINE
  5
261
100
AcDbEntity
  8
0
100
AcDbLine
 62
250
  6
CONTINUOUS
 10
27.4747065091
 20
-23.6860995682
 11
27.4768881445
 21
-23.6860898825
  0
LINE
  5
262
100
AcDbEntity
  8
0
100
AcDbLine
 62
7
  6
CONTINUOUS
 10
20.9487250955
 20
-24.7101174935
 11
22.5487047348
 21
-24.7101174935
  0
LINE
  5
263
100
AcDbEntity
  8
0
100
AcDbLine
 62
250
  6
CONTINUOUS
 10
20.9801644976
 20
-24.67863745
 11
22.5172653327
 21
-24.67863745
  0
LINE
  5
264
100
AcDbEntity
  8
0
100
AcDbLine
 62
250
  6
CONTINUOUS
 10
20.7801949586
 20
-24.478667911
 11
22.7172348717
 21
-24.478667911
  0
LINE
  5
265
100
AcDbEntity
  8
0
100
AcDbLine
 62
7
  6
CONTINUOUS
 10
30.4050467872
 20
-23.7101174935
 11
26.7824788933
 21
-23.7101174935
  0
LINE
  5
266
100
AcDbEntity
  8
0
100
AcDbLine
 62
7
  6
CONTINUOUS
 10
26.7824788933
 20
-23.6860995682
 11
27.4747065091
 21
-23.6860995682
  0
LINE
  5
267
100
AcDbEntity
  8
0
100
AcDbLine
 62
7
  6
CONTINUOUS
 10
20.7801949586
 20
-24.2147377828
 11
20.7822671863
 21
-24.2150185428
  0
LINE
  5
268
100
AcDbEntity
  8
0
100
AcDbLine
 62
7
  6
CONTINUOUS
 10
20.95429889
 20
-24.2403921623
 11
20.9801644976
 21
-24.2440870794
  0
LWPOLYLINE
  5
269
100
AcDbEntity
  8
0
100
AcDbPolyline
 62
7
  6
CONTINUOUS
 90
3
 70
0
 10
21.1723524663
 20
-23.2542125894
 10
21.2462830439
 20
-23.2649405726
 10
21.2727149151
 20
-23.268919021
  0
LINE
  5
26A
100
AcDbEntity
  8
0
100
AcDbLine
 62
7
  6
CONTINUOUS
 10
20.7487149151
 20
-24.2101174935
 11
20.7801949586
 21
-24.2147377828
  0
LINE
  5
26B
100
AcDbEntity
  8
0
100
AcDbLine
 62
7
  6
CONTINUOUS
 10
21.0797981556
 20
-23.2406297447
 11
21.150854632
 21
-23.2510238052
  0
LINE
  5
26C
100
AcDbEntity
  8
0
100
AcDbLine
 62
7
  6
CONTINUOUS
 10
21.150854632
 20
-23.2510238052
 11
21.1723524663
 21
-23.2542125894
  0
LINE
  5
26D
100
AcDbEntity
  8
0
100
AcDbLine
 62
7
  6
CONTINUOUS
 10
20.7822671863
 20
-24.2150185428
 11
20.95429889
 21
-24.2403921623
  0
LWPOLYLINE
  5
26E
100
AcDbEntity
  8
0
100
AcDbPolyline
 62
7
  6
CONTINUOUS
 90
3
 70
0
 10
21.0727149151
 20
-23.2394592303
 10
21.0745097808
 20
-23.2398273921
 10
21.0797981556
 20
-23.2406297447
  0
LINE
  5
26F
100
AcDbEntity
  8
0
100
AcDbLine
 62
250
  6
CONTINUOUS
 10
21.272539029
 20
22.8492703212
 11
21.0810029483
 21
22.791809497
  0
LINE
  5
270
100
AcDbEntity
  8
0
100
AcDbLine
 62
7
  6
CONTINUOUS
 10
23.7195732908
 20
22.1812210537
 11
23.6015295588
 21
22.14613618
  0
LWPOLYLINE
  5
271
100
AcDbEntity
  8
0
100
AcDbPolyline
 62
250
  6
CONTINUOUS
 90
25
 70
0
 10
25.6476122509
 20
-22.7558961326
 10
25.6452785715
 20
-22.7565381256
 10
25.6429232612
 20
-22.7571981963
 10
25.6405464675
 20
-22.7578766442
 10
25.638140085
 20
-22.7585760943
 10
25.6357125471
 20
-22.759294599
 10
25.6332887224
 20
-22.7600252746
 10
25.6308606831
 20
-22.7607705928
 10
25.6284365126
 20
-22.7615281099
 10
25.6260648034
 20
-22.7622826003
 10
25.6237458015
 20
-22.7630333472
 10
25.6214789868
 20
-22.7637797756
 10
25.6193114056
 20
-22.7645056664
 10
25.6172475558
 20
-22.7652082529
 10
25.6152822753
 20
-22.7658880067
 10
25.6134478129
 20
-22.7665327082
 10
25.6117455838
 20
-22.7671403155
 10
25.6101733506
 20
-22.7677103401
 10
25.6087577093
 20
-22.7682324466
 10
25.6074855252
 20
-22.7687099028
 10
25.6063691441
 20
-22.7691371923
 10
25.6054732056
 20
-22.7694903726
 10
25.6048189455
 20
-22.7697606647
 10
25.6043843662
 20
-22.7699548952
 10
25.6041692367
 20
-22.7700725347
  0
LWPOLYLINE
  5
272
100
AcDbEntity
  8
0
100
AcDbPolyline
 62
7
  6
CONTINUOUS
 90
3
 70
0
 10
22.3251994421
 20
-23.2541483379
 10
22.2512832322
 20
-23.2651175134
 10
22.2247149151
 20
-23.268919021
  0
LINE
  5
273
100
AcDbEntity
  8
0
100
AcDbLine
 62
7
  6
CONTINUOUS
 10
22.4173824286
 20
-23.2406430236
 11
22.3251994421
 21
-23.2541483379
  0
LWPOLYLINE
  5
274
100
AcDbEntity
  8
0
100
AcDbPolyline
 62
7
  6
CONTINUOUS
 90
3
 70
0
 10
22.4247149151
 20
-23.239671261
 10
22.4226470098
 20
-23.239903462
 10
22.4173824286
 20
-23.2406430236
  0
LINE
  5
275
100
AcDbEntity
  8
0
100
AcDbLine
 62
250
  6
CONTINUOUS
 10
26.3712617964
 20
-23.263390619
 11
26.5705914582
 21
-23.2471228645
  0
LINE
  5
276
100
AcDbEntity
  8
0
100
AcDbLine
 62
7
  6
CONTINUOUS
 10
25.1860006097
 20
-22.4558564801
 11
25.2416963998
 21
-22.4546158112
  0
LINE
  5
277
100
AcDbEntity
  8
0
100
AcDbLine
 62
7
  6
CONTINUOUS
 10
25.2416963998
 20
-22.4546158112
 11
25.3042105968
 21
-22.4536837329
  0
LINE
  5
278
100
AcDbEntity
  8
0
100
AcDbLine
 62
7
  6
CONTINUOUS
 10
25.3042105968
 20
-22.4536837329
 11
25.3724438655
 21
-22.4531060654
  0
LINE
  5
279
100
AcDbEntity
  8
0
100
AcDbLine
 62
250
  6
CONTINUOUS
 10
26.8565907463
 20
-23.4361090875
 11
27.7246969899
 21
-23.4361090875
  0
LINE
  5
27A
100
AcDbEntity
  8
0
100
AcDbLine
 62
7
  6
CONTINUOUS
 10
30.1927331772
 20
-22.7411369417
 11
27.7487149151
 21
-22.7411369417
  0
LINE
  5
27B
100
AcDbEntity
  8
0
100
AcDbLine
 62
7
  6
CONTINUOUS
 10
25.1987149151
 20
-22.6101174935
 11
23.9165348414
 21
-22.6101174935
  0
LINE
  5
27C
100
AcDbEntity
  8
0
100
AcDbLine
 62
7
  6
CONTINUOUS
 10
20.1157893803
 20
-22.5577097142
 11
21.0727149151
 21
-22.5577097142
  0
LINE
  5
27D
100
AcDbEntity
  8
0
100
AcDbLine
 62
7
  6
CONTINUOUS
 10
22.4247149151
 20
-22.5577097142
 11
23.4045680082
 21
-22.5577097142
  0
LINE
  5
27E
100
AcDbEntity
  8
0
100
AcDbLine
 62
7
  6
CONTINUOUS
 10
21.2727149151
 20
-22.4528941556
 11
22.2247149151
 21
-22.4528941556
  0
LINE
  5
27F
100
AcDbEntity
  8
0
100
AcDbLine
 62
7
  6
CONTINUOUS
 10
25.3724438655
 20
-22.4531060654
 11
27.4747065091
 21
-22.4528941556
  0
LINE
  5
280
100
AcDbEntity
  8
0
100
AcDbLine
 62
250
  6
CONTINUOUS
 10
20.2399167984
 20
-22.1850246307
 11
30.0075130319
 21
-22.1850246307
  0
LINE
  5
281
100
AcDbEntity
  8
0
100
AcDbLine
 62
7
  6
CONTINUOUS
 10
23.7195732908
 20
-22.6014560407
 11
23.6015295588
 21
-22.566371167
  0
LWPOLYLINE
  5
282
100
AcDbEntity
  8
0
100
AcDbPolyline
 62
250
  6
CONTINUOUS
 90
15
 70
0
 10
19.748256005
 20
20.7871784716
 10
19.7518352451
 20
20.7893514132
 10
19.7607322525
 20
20.7915010887
 10
19.7748517973
 20
20.7936044677
 10
19.7940426946
 20
20.7956390179
 10
19.8180994159
 20
20.7975829386
 10
19.8467642841
 20
20.7994153931
 10
19.8797302531
 20
20.8011167429
 10
19.9166441731
 20
20.8026687592
 10
19.9571105524
 20
20.804054809
 10
20.0006958597
 20
20.8052600425
 10
20.0469331221
 20
20.8062715398
 10
20.0953268825
 20
20.8070784486
 10
20.1453586014
 20
20.8076721164
 10
20.1964922224
 20
20.8080461835
  0
LINE
  5
283
100
AcDbEntity
  8
0
100
AcDbLine
 62
250
  6
CONTINUOUS
 10
20.2481798526
 20
-21.2284317244
 11
30.0509376079
 21
-21.2282812105
  0
LWPOLYLINE
  5
284
100
AcDbEntity
  8
0
100
AcDbPolyline
 62
250
  6
CONTINUOUS
 90
16
 70
0
 10
19.748256005
 20
-21.2074134102
 10
19.7518354765
 20
-21.2095864507
 10
19.7607330394
 20
-21.2117362081
 10
19.7748533607
 20
-21.2138396489
 10
19.794045148
 20
-21.2158742355
 10
19.8181027705
 20
-21.2178181686
 10
19.8467684624
 20
-21.2196506196
 10
19.8797350845
 20
-21.2213519548
 10
19.9166494153
 20
-21.2229039452
 10
19.9571159356
 20
-21.2242899619
 10
20.000701066
 20
-21.2254951545
 10
20.0469378128
 20
-21.2265066099
 10
20.0953307714
 20
-21.2273134909
 10
20.1453614345
 20
-21.227907152
 10
20.1964937477
 20
-21.2282812326
 10
20.2481798526
 20
-21.2284317244
  0
LINE
  5
285
100
AcDbEntity
  8
0
100
AcDbLine
 62
250
  6
CONTINUOUS
 10
22.5172653327
 20
24.2584024631
 11
22.5487047348
 21
24.2898825065
  0
LINE
  5
286
100
AcDbEntity
  8
0
100
AcDbLine
 62
250
  6
CONTINUOUS
 10
22.7172348717
 20
24.058432924
 11
22.7487149151
 21
24.0898723261
  0
LINE
  5
287
100
AcDbEntity
  8
0
100
AcDbLine
 62
250
  6
CONTINUOUS
 10
22.7172348717
 20
-24.478667911
 11
22.7487149151
 21
-24.5101073131
  0
LINE
  5
288
100
AcDbEntity
  8
0
100
AcDbLine
 62
250
  6
CONTINUOUS
 10
22.5172653327
 20
-24.67863745
 11
22.5487047348
 21
-24.7101174935
  0
LINE
  5
289
100
AcDbEntity
  8
0
100
AcDbLine
 62
250
  6
CONTINUOUS
 10
27.4987180873
 20
23.2898825065
 11
27.4747065091
 21
23.2658645813
  0
LINE
  5
28A
100
AcDbEntity
  8
0
100
AcDbLine
 62
250
  6
CONTINUOUS
 10
27.4987180873
 20
-23.7101174935
 11
27.4747065091
 21
-23.6860995682
  0
LINE
  5
28B
100
AcDbEntity
  8
0
100
AcDbLine
 62
250
  6
CONTINUOUS
 10
27.7487149151
 20
23.0398793299
 11
27.7246969899
 21
23.0158741005
  0
LINE
  5
28C
100
AcDbEntity
  8
0
100
AcDbLine
 62
250
  6
CONTINUOUS
 10
27.7487149151
 20
-23.4601143168
 11
27.7246969899
 21
-23.4361090875
  0
LWPOLYLINE
  5
28D
100
AcDbEntity
  8
0
100
AcDbPolyline
 62
7
  6
CONTINUOUS
 90
3
 70
0
 43
0.3500000006
 10
25.5671926117
 20
35.3255973358
 10
25.4957636948
 20
35.111312851
 10
25.3529058609
 20
34.8255971832
  0
LINE
  5
28E
100
AcDbEntity
  8
0
100
AcDbLine
 62
250
  6
CONTINUOUS
 10
22.2248908013
 20
22.8492703212
 11
22.5172653327
 21
23.8238520924
  0
LINE
  5
28F
100
AcDbEntity
  8
0
100
AcDbLine
 62
250
  6
CONTINUOUS
 10
22.416426882
 20
22.791809497
 11
22.7172348717
 21
23.7945027959
  0
LINE
  5
290
100
AcDbEntity
  8
0
100
AcDbLine
 62
7
  6
CONTINUOUS
 10
22.4479069255
 20
22.7871892076
 11
22.7487149151
 21
23.7898825065
  0
LINE
  5
291
100
AcDbEntity
  8
0
100
AcDbLine
 62
7
  6
CONTINUOUS
 10
22.4247149151
 20
22.1374747272
 11
22.3932348717
 21
22.0429577962
  0
LINE
  5
292
100
AcDbEntity
  8
0
100
AcDbLine
 62
250
  6
CONTINUOUS
 10
22.5172653327
 20
-24.2440870794
 11
22.2247149151
 21
-23.268919021
  0
LINE
  5
293
100
AcDbEntity
  8
0
100
AcDbLine
 62
250
  6
CONTINUOUS
 10
22.7172348717
 20
-24.2147377828
 11
22.4247142089
 21
-23.239668907
  0
LINE
  5
294
100
AcDbEntity
  8
0
100
AcDbLine
 62
7
  6
CONTINUOUS
 10
22.7487149151
 20
-24.2101174935
 11
22.4311463216
 21
-23.151555067
  0
LINE
  5
295
100
AcDbEntity
  8
0
100
AcDbLine
 62
7
  6
CONTINUOUS
 10
19.6015997201
 20
-19.6329321371
 11
19.6132851751
 21
-19.7509758691
  0
LWPOLYLINE
  5
296
100
AcDbEntity
  8
0
100
AcDbPolyline
 62
250
  6
CONTINUOUS
 90
16
 70
0
 10
19.7399929509
 20
-21.6857098633
 10
19.7427759463
 20
-21.7378707324
 10
19.7509991266
 20
-21.7894610493
 10
19.7645725807
 20
-21.8399162523
 10
19.7833478488
 20
-21.8886841932
 10
19.8071195397
 20
-21.9352311649
 10
19.8356275717
 20
-21.9790477449
 10
19.8685600355
 20
-22.0196544005
 10
19.9055565877
 20
-22.0566067043
 10
19.9462123741
 20
-22.0895001955
 10
19.9900825156
 20
-22.1179748579
 10
20.0366869381
 20
-22.1417190205
 10
20.0855155861
 20
-22.160472763
 10
20.1360340836
 20
-22.1740308057
 10
20.1876895902
 20
-22.1822447394
 10
20.2399167983
 20
-22.1850246312
  0
LWPOLYLINE
  5
297
100
AcDbEntity
  8
0
100
AcDbPolyline
 62
250
  6
CONTINUOUS
 90
16
 70
0
 10
19.7399929509
 20
21.2654748764
 10
19.7427761075
 20
21.3176372653
 10
19.7509997148
 20
21.369228816
 10
19.7645737779
 20
21.4196849373
 10
19.7833497491
 20
21.4684534634
 10
19.8071221541
 20
21.5150006967
 10
19.8356308398
 20
21.5588172486
 10
19.8685638221
 20
21.5994236132
 10
19.9055606992
 20
21.6363754156
 10
19.9462165967
 20
21.6692682743
 10
19.9900865974
 20
21.6977422268
 10
20.0366906106
 20
21.721485669
 10
20.0855186263
 20
21.7402387648
 10
20.1360362957
 20
21.75379629
 10
20.1876907798
 20
21.7620098781
 10
20.2399167984
 20
21.7647896437
  0
LINE
  5
298
100
AcDbEntity
  8
0
100
AcDbLine
 62
7
  6
CONTINUOUS
 10
19.6015997201
 20
19.2126971502
 11
19.6132851751
 21
19.3307408822
  0
LWPOLYLINE
  5
299
100
AcDbEntity
  8
0
100
AcDbPolyline
 62
250
  6
CONTINUOUS
 90
13
 70
0
 10
20.7801949586
 20
-24.478667911
 10
20.7819130118
 20
-24.5047641421
 10
20.7870218893
 20
-24.5304140323
 10
20.7954342106
 20
-24.555178875
 10
20.8070060943
 20
-24.5786351007
 10
20.821539619
 20
-24.6003815225
 10
20.8387862084
 20
-24.6200461973
 10
20.8584508831
 20
-24.6372927873
 10
20.8801973053
 20
-24.6518263128
 10
20.9036535317
 20
-24.6633981972
 10
20.9284183749
 20
-24.671810519
 10
20.9540682658
 20
-24.6769193967
 10
20.9801644976
 20
-24.67863745
  0
LWPOLYLINE
  5
29A
100
AcDbEntity
  8
0
100
AcDbPolyline
 62
7
  6
CONTINUOUS
 90
13
 70
0
 10
20.7487352281
 20
-24.5100870279
 10
20.7504683627
 20
-24.5364797983
 10
20.7556399762
 20
-24.5623025017
 10
20.7641178468
 20
-24.5871163772
 10
20.7756977041
 20
-24.6104766172
 10
20.7901531898
 20
-24.6320415023
 10
20.8072809429
 20
-24.6515514657
 10
20.8267909063
 20
-24.6686792188
 10
20.8483557914
 20
-24.6831347045
 10
20.8717160314
 20
-24.6947145618
 10
20.896529907
 20
-24.7031924324
 10
20.9223526104
 20
-24.7083640459
 10
20.9487453808
 20
-24.7100971805
  0
LINE
  5
29B
100
AcDbEntity
  8
0
100
AcDbLine
 62
250
  6
CONTINUOUS
 10
19.7450471315
 20
21.1541311478
 11
19.7439592989
 21
21.1971919963
  0
LINE
  5
29C
100
AcDbEntity
  8
0
100
AcDbLine
 62
250
  6
CONTINUOUS
 10
19.7460461015
 20
21.0988644902
 11
19.7450471315
 21
21.1541311478
  0
LINE
  5
29D
100
AcDbEntity
  8
0
100
AcDbLine
 62
250
  6
CONTINUOUS
 10
19.7469318067
 20
21.0316459799
 11
19.7460461015
 21
21.0988644902
  0
LINE
  5
29E
100
AcDbEntity
  8
0
100
AcDbLine
 62
250
  6
CONTINUOUS
 10
19.7478708628
 20
20.914484745
 11
19.7469318067
 21
21.0316459799
  0
LINE
  5
29F
100
AcDbEntity
  8
0
100
AcDbLine
 62
250
  6
CONTINUOUS
 10
20.2479844534
 20
20.9793781045
 11
20.2464372436
 21
21.3669670037
  0
LINE
  5
2A0
100
AcDbEntity
  8
0
100
AcDbLine
 62
7
  6
CONTINUOUS
 10
19.5987149151
 20
-19.4359705865
 11
19.5987149151
 21
19.0157355996
  0
LINE
  5
2A1
100
AcDbEntity
  8
0
100
AcDbLine
 62
7
  6
CONTINUOUS
 10
19.6161699801
 20
21.6372458752
 11
19.6161699801
 21
19.5277024328
  0
LINE
  5
2A2
100
AcDbEntity
  8
0
100
AcDbLine
 62
7
  6
CONTINUOUS
 10
19.6161699801
 20
-19.9479374197
 11
19.6161699801
 21
-22.0574808621
  0
LINE
  5
2A3
100
AcDbEntity
  8
0
100
AcDbLine
 62
250
  6
CONTINUOUS
 10
19.7502556591
 20
-18.2110863136
 11
19.7478708628
 21
20.914484745
  0
LINE
  5
2A4
100
AcDbEntity
  8
0
100
AcDbLine
 62
250
  6
CONTINUOUS
 10
20.2501795067
 20
-18.2293249892
 11
20.2479844534
 21
20.9793781045
  0
LINE
  5
2A5
100
AcDbEntity
  8
0
100
AcDbLine
 62
250
  6
CONTINUOUS
 10
19.7479075651
 20
-21.3277731239
 11
19.7502556591
 21
-18.2110863136
  0
LINE
  5
2A6
100
AcDbEntity
  8
0
100
AcDbLine
 62
250
  6
CONTINUOUS
 10
20.2471021251
 20
-21.6694075387
 11
20.2501795067
 21
-18.2293249892
  0
LINE
  5
2A7
100
AcDbEntity
  8
0
100
AcDbLine
 62
250
  6
CONTINUOUS
 10
20.2464109499
 20
-21.7915098471
 11
20.2471021251
 21
-21.6694075387
  0
LINE
  5
2A8
100
AcDbEntity
  8
0
100
AcDbLine
 62
250
  6
CONTINUOUS
 10
19.7471781322
 20
-21.427901317
 11
19.7479075651
 21
-21.3277731239
  0
LINE
  5
2A9
100
AcDbEntity
  8
0
100
AcDbLine
 62
250
  6
CONTINUOUS
 10
19.7460614557
 20
-21.5184332647
 11
19.7471781322
 21
-21.427901317
  0
LWPOLYLINE
  5
2AA
100
AcDbEntity
  8
0
100
AcDbPolyline
 62
7
  6
CONTINUOUS
 90
13
 70
0
 10
20.7487352281
 20
24.0898520409
 10
20.7504683627
 20
24.1162448113
 10
20.7556399762
 20
24.1420675147
 10
20.7641178468
 20
24.1668813903
 10
20.7756977041
 20
24.1902416303
 10
20.7901531898
 20
24.2118065153
 10
20.8072809429
 20
24.2313164788
 10
20.8267909063
 20
24.2484442319
 10
20.8483557914
 20
24.2628997175
 10
20.8717160314
 20
24.2744795749
 10
20.896529907
 20
24.2829574454
 10
20.9223526104
 20
24.288129059
 10
20.9487453808
 20
24.2898621935
  0
LINE
  5
2AB
100
AcDbEntity
  8
0
100
AcDbLine
 62
250
  6
CONTINUOUS
 10
25.647612251
 20
22.3356611456
 11
25.5950065274
 21
22.1427114326
  0
LINE
  5
2AC
100
AcDbEntity
  8
0
100
AcDbLine
 62
250
  6
CONTINUOUS
 10
25.647612251
 20
-22.7558961326
 11
25.5950065274
 21
-22.5629464196
  0
LWPOLYLINE
  5
2AD
100
AcDbEntity
  8
0
100
AcDbPolyline
 62
250
  6
CONTINUOUS
 90
7
 70
0
 10
19.7439592989
 20
21.1971919963
 10
19.7433834153
 20
21.2151356908
 10
19.7427832578
 20
21.2305420671
 10
19.7421454683
 20
21.2432911694
 10
19.7414655944
 20
21.2533430124
 10
19.7407480886
 20
21.2607375814
 10
19.7399929509
 20
21.2654748764
  0
LWPOLYLINE
  5
2AE
100
AcDbEntity
  8
0
100
AcDbPolyline
 62
250
  6
CONTINUOUS
 90
5
 70
0
 10
20.242707622
 20
21.6943642667
 10
20.2420700868
 20
21.7204222317
 10
20.2413901561
 20
21.7415171119
 10
20.2406723933
 20
21.7565550935
 10
20.2399167984
 20
21.7647896437
  0
LINE
  5
2AF
100
AcDbEntity
  8
0
100
AcDbLine
 62
250
  6
CONTINUOUS
 10
20.2438828865
 20
21.6282238826
 11
20.242707622
 21
21.6943642667
  0
LINE
  5
2B0
100
AcDbEntity
  8
0
100
AcDbLine
 62
250
  6
CONTINUOUS
 10
20.2454784097
 20
21.4903538099
 11
20.2438828865
 21
21.6282238826
  0
LINE
  5
2B1
100
AcDbEntity
  8
0
100
AcDbLine
 62
250
  6
CONTINUOUS
 10
20.2464372436
 20
21.3669670037
 11
20.2454784097
 21
21.4903538099
  0
LINE
  5
2B2
100
AcDbEntity
  8
0
100
AcDbLine
 62
7
  6
CONTINUOUS
 10
20.7487149151
 20
24.0898723261
 11
20.7487149151
 21
23.7898825065
  0
LINE
  5
2B3
100
AcDbEntity
  8
0
100
AcDbLine
 62
7
  6
CONTINUOUS
 10
20.7487149151
 20
-24.2101174935
 11
20.7487149151
 21
-24.5101073131
  0
LINE
  5
2B4
100
AcDbEntity
  8
0
100
AcDbLine
 62
250
  6
CONTINUOUS
 10
20.7801949586
 20
24.058432924
 11
20.7801949586
 21
23.7945027959
  0
LINE
  5
2B5
100
AcDbEntity
  8
0
100
AcDbLine
 62
250
  6
CONTINUOUS
 10
20.7801949586
 20
-24.2147377828
 11
20.7801949586
 21
-24.478667911
  0
LINE
  5
2B6
100
AcDbEntity
  8
0
100
AcDbLine
 62
250
  6
CONTINUOUS
 10
20.9801644976
 20
-24.2440870794
 11
20.9801644976
 21
-24.67863745
  0
LINE
  5
2B7
100
AcDbEntity
  8
0
100
AcDbLine
 62
250
  6
CONTINUOUS
 10
20.9801644976
 20
23.8238520924
 11
20.9801644976
 21
24.2584024631
  0
LINE
  5
2B8
100
AcDbEntity
  8
0
100
AcDbLine
 62
7
  6
CONTINUOUS
 10
21.0727149151
 20
22.629171941
 11
21.0727149151
 21
22.1374747272
  0
LINE
  5
2B9
100
AcDbEntity
  8
0
100
AcDbLine
 62
7
  6
CONTINUOUS
 10
21.0727149151
 20
-22.4633757115
 11
21.0727149151
 21
-23.2394617969
  0
LINE
  5
2BA
100
AcDbEntity
  8
0
100
AcDbLine
 62
250
  6
CONTINUOUS
 10
21.1041949586
 20
22.6337922304
 11
21.1041949586
 21
22.0429577962
  0
LINE
  5
2BB
100
AcDbEntity
  8
0
100
AcDbLine
 62
250
  6
CONTINUOUS
 10
21.2727149151
 20
-22.4528941556
 11
21.2727149151
 21
-23.268919021
  0
LINE
  5
2BC
100
AcDbEntity
  8
0
100
AcDbLine
 62
250
  6
CONTINUOUS
 10
21.3041644976
 20
22.6337922304
 11
21.3041644976
 21
22.0326591687
  0
LINE
  5
2BD
100
AcDbEntity
  8
0
100
AcDbLine
 62
250
  6
CONTINUOUS
 10
20.2449436062
 20
-21.9641025346
 11
20.2464109499
 21
-21.7915098471
  0
LWPOLYLINE
  5
2BE
100
AcDbEntity
  8
0
100
AcDbPolyline
 62
250
  6
CONTINUOUS
 90
10
 70
0
 10
22.3932348717
 20
22.6337922304
 10
22.393624493
 20
22.6544957158
 10
22.3947385097
 20
22.6744369876
 10
22.3964955638
 20
22.6935941606
 10
22.3988149016
 20
22.711937676
 10
22.4016213564
 20
22.7294692545
 10
22.4048497892
 20
22.7462207175
 10
22.4084366615
 20
22.7622010223
 10
22.4123159444
 20
22.7773965118
 10
22.416426882
 20
22.791809497
  0
LWPOLYLINE
  5
2BF
100
AcDbEntity
  8
0
100
AcDbPolyline
 62
250
  6
CONTINUOUS
 90
10
 70
0
 10
22.1932653327
 20
22.6337922304
 10
22.193976102
 20
22.6620620475
 10
22.1954585143
 20
22.6892447021
 10
22.1977125694
 20
22.7153401943
 10
22.2008327341
 20
22.7403415763
 10
22.2047245417
 20
22.7642557959
 10
22.2091045922
 20
22.7871036959
 10
22.213878419
 20
22.808892224
 10
22.2191404887
 20
22.8296144324
 10
22.2248908013
 20
22.8492703212
  0
LINE
  5
2C0
100
AcDbEntity
  8
0
100
AcDbLine
 62
250
  6
CONTINUOUS
 10
22.1932653327
 20
22.0326591687
 11
22.1932653327
 21
22.6337922304
  0
LINE
  5
2C1
100
AcDbEntity
  8
0
100
AcDbLine
 62
250
  6
CONTINUOUS
 10
22.2247149151
 20
-23.268919021
 11
22.2247149151
 21
-22.4528941556
  0
LINE
  5
2C2
100
AcDbEntity
  8
0
100
AcDbLine
 62
250
  6
CONTINUOUS
 10
22.3932348717
 20
22.0429577962
 11
22.3932348717
 21
22.6337922304
  0
LINE
  5
2C3
100
AcDbEntity
  8
0
100
AcDbLine
 62
7
  6
CONTINUOUS
 10
22.4247149151
 20
-23.2394617969
 11
22.4247149151
 21
-22.4633757115
  0
LINE
  5
2C4
100
AcDbEntity
  8
0
100
AcDbLine
 62
7
  6
CONTINUOUS
 10
22.4247149151
 20
22.1374747272
 11
22.4247149151
 21
22.629171941
  0
LINE
  5
2C5
100
AcDbEntity
  8
0
100
AcDbLine
 62
250
  6
CONTINUOUS
 10
22.5172653327
 20
-24.2440870794
 11
22.5172653327
 21
-24.67863745
  0
LINE
  5
2C6
100
AcDbEntity
  8
0
100
AcDbLine
 62
250
  6
CONTINUOUS
 10
22.5172653327
 20
23.8238520924
 11
22.5172653327
 21
24.2584024631
  0
LINE
  5
2C7
100
AcDbEntity
  8
0
100
AcDbLine
 62
250
  6
CONTINUOUS
 10
22.7172348717
 20
-24.478667911
 11
22.7172348717
 21
-24.2147377828
  0
LINE
  5
2C8
100
AcDbEntity
  8
0
100
AcDbLine
 62
250
  6
CONTINUOUS
 10
22.7172348717
 20
23.7945027959
 11
22.7172348717
 21
24.058432924
  0
LINE
  5
2C9
100
AcDbEntity
  8
0
100
AcDbLine
 62
7
  6
CONTINUOUS
 10
22.7487149151
 20
-24.5101073131
 11
22.7487149151
 21
-24.2101174935
  0
LINE
  5
2CA
100
AcDbEntity
  8
0
100
AcDbLine
 62
7
  6
CONTINUOUS
 10
22.7487149151
 20
23.7898825065
 11
22.7487149151
 21
24.0898723261
  0
LWPOLYLINE
  5
2CB
100
AcDbEntity
  8
0
100
AcDbPolyline
 62
250
  6
CONTINUOUS
 90
7
 70
0
 10
20.2399165868
 20
-22.1850246307
 10
20.2407188404
 20
-22.1761078736
 10
20.2414952856
 20
-22.1590541592
 10
20.2422459224
 20
-22.1341067193
 10
20.2429789859
 20
-22.1013487456
 10
20.243686241
 20
-22.061273098
 10
20.2449436062
 20
-21.9641025346
  0
LWPOLYLINE
  5
2CC
100
AcDbEntity
  8
0
100
AcDbPolyline
 62
250
  6
CONTINUOUS
 90
9
 70
0
 10
19.7399929509
 20
-21.6857098633
 10
19.7407947065
 20
-21.6809996704
 10
19.741570852
 20
-21.6725133516
 10
19.7423213871
 20
-21.6602509067
 10
19.7430546574
 20
-21.6438028666
 10
19.7437623174
 20
-21.6235787004
 10
19.7444193308
 20
-21.6008068164
 10
19.7450199312
 20
-21.5753496072
 10
19.7460614557
 20
-21.5184332647
  0
LINE
  5
2CD
100
AcDbEntity
  8
0
100
AcDbLine
 62
250
  6
CONTINUOUS
 10
30.1927331772
 20
22.3209019547
 11
30.0075130319
 21
21.7647896437
  0
LINE
  5
2CE
100
AcDbEntity
  8
0
100
AcDbLine
 62
250
  6
CONTINUOUS
 10
30.6923525775
 20
21.8206731027
 11
30.5074368794
 21
21.2654748764
  0
LINE
  5
2CF
100
AcDbEntity
  8
0
100
AcDbLine
 62
250
  6
CONTINUOUS
 10
30.0075130319
 20
-22.1850246307
 11
30.1927331772
 21
-22.7411369417
  0
LINE
  5
2D0
100
AcDbEntity
  8
0
100
AcDbLine
 62
250
  6
CONTINUOUS
 10
30.5074368794
 20
-21.6857098633
 11
30.6923525775
 21
-22.2409080896
  0
LWPOLYLINE
  5
2D1
100
AcDbEntity
  8
0
100
AcDbPolyline
 62
250
  6
CONTINUOUS
 90
13
 70
0
 10
22.7172348717
 20
24.058432924
 10
22.7155168185
 20
24.0845291551
 10
22.710407941
 20
24.1101790454
 10
22.7019956197
 20
24.134943888
 10
22.690423736
 20
24.1584001138
 10
22.6758902113
 20
24.1801465355
 10
22.6586436219
 20
24.1998112103
 10
22.6389789472
 20
24.2170578004
 10
22.6172325249
 20
24.2315913259
 10
22.5937762986
 20
24.2431632103
 10
22.5690114554
 20
24.251575532
 10
22.5433615645
 20
24.2566844098
 10
22.5172653327
 20
24.2584024631
  0
LWPOLYLINE
  5
2D2
100
AcDbEntity
  8
0
100
AcDbPolyline
 62
250
  6
CONTINUOUS
 90
10
 70
0
 10
26.3727318749
 20
-23.3090645144
 10
26.3739573594
 20
-23.3307992704
 10
26.3775377803
 20
-23.3522721793
 10
26.3834307203
 20
-23.373228835
 10
26.3915663631
 20
-23.3934209464
 10
26.401848322
 20
-23.4126092823
 10
26.4141547826
 20
-23.4305665054
 10
26.4283399441
 20
-23.4470798611
 10
26.4442357457
 20
-23.4619536994
 10
26.4616538594
 20
-23.4750117954
  0
LWPOLYLINE
  5
2D3
100
AcDbEntity
  8
0
100
AcDbPolyline
 62
7
  6
CONTINUOUS
 90
10
 70
0
 10
26.3486569106
 20
-23.3184473706
 10
26.3495475735
 20
-23.3405635734
 10
26.3528768407
 20
-23.3624469828
 10
26.358604255
 20
-23.3838294799
 10
26.3666602919
 20
-23.4044497347
 10
26.3769463869
 20
-23.4240542047
 10
26.3893353656
 20
-23.442400637
 10
26.403674521
 20
-23.4592639269
 10
26.419788254
 20
-23.4744384594
 10
26.4374788834
 20
-23.4877386953
  0
LWPOLYLINE
  5
2D4
100
AcDbEntity
  8
0
100
AcDbPolyline
 62
7
  6
CONTINUOUS
 90
10
 70
0
 10
26.3486466964
 20
22.8982162808
 10
26.3495352517
 20
22.9203305491
 10
26.3528625354
 20
22.9422134632
 10
26.3585886203
 20
22.9635968699
 10
26.366644951
 20
22.9842203002
 10
26.376933187
 20
23.0038288304
 10
26.3893245254
 20
23.0221771642
 10
26.4036649525
 20
23.0390396327
 10
26.4197789927
 20
23.054211953
 10
26.4374686115
 20
23.0675090552
  0
LWPOLYLINE
  5
2D5
100
AcDbEntity
  8
0
100
AcDbPolyline
 62
250
  6
CONTINUOUS
 90
10
 70
0
 10
26.3727318746
 20
22.8888295275
 10
26.3739573628
 20
22.9105643169
 10
26.3775377932
 20
22.9320372507
 10
26.3834307457
 20
22.9529939225
 10
26.3915664018
 20
22.9731860421
 10
26.4018483721
 20
22.9923743779
 10
26.4141548381
 20
23.0103315907
 10
26.4283399955
 20
23.0268449274
 10
26.4442357817
 20
23.0417187416
 10
26.461653867
 20
23.0547768117
  0
LWPOLYLINE
  5
2D6
100
AcDbEntity
  8
0
100
AcDbPolyline
 62
7
  6
CONTINUOUS
 90
13
 70
0
 10
22.7486946022
 20
-24.5100870279
 10
22.7469614676
 20
-24.5364797983
 10
22.7417898541
 20
-24.5623025017
 10
22.7333119835
 20
-24.5871163772
 10
22.7217321261
 20
-24.6104766172
 10
22.7072766405
 20
-24.6320415023
 10
22.6901488874
 20
-24.6515514657
 10
22.6706389239
 20
-24.6686792188
 10
22.6490740389
 20
-24.6831347045
 10
22.6257137989
 20
-24.6947145618
 10
22.6008999233
 20
-24.7031924324
 10
22.5750772199
 20
-24.7083640459
 10
22.5486844495
 20
-24.7100971805
  0
LWPOLYLINE
  5
2D7
100
AcDbEntity
  8
0
100
AcDbPolyline
 62
250
  6
CONTINUOUS
 90
25
 70
0
 10
26.3712617964
 20
22.843155632
 10
26.3714531545
 20
22.8455684305
 10
26.3716348844
 20
22.8480077244
 10
26.3718066546
 20
22.8504734767
 10
26.3719687578
 20
22.8529742026
 10
26.3721201526
 20
22.8555013094
 10
26.3722588395
 20
22.8580290711
 10
26.3723851952
 20
22.8605657832
 10
26.3724987637
 20
22.8631030133
 10
26.3725973072
 20
22.8655898888
 10
26.372681416
 20
22.868025934
 10
26.3727518076
 20
22.8704114422
 10
26.3728077052
 20
22.8726966558
 10
26.3728501779
 20
22.8748764034
 10
26.3728805405
 20
22.8769556992
 10
26.3728992966
 20
22.8789000604
 10
26.3729078838
 20
22.880707461
 10
26.3729075235
 20
22.8823798381
 10
26.3728988734
 20
22.8838886656
 10
26.3728833353
 20
22.8852474061
 10
26.37286189
 20
22.8864425727
 10
26.3728350291
 20
22.8874052359
 10
26.3728037727
 20
22.8881124396
 10
26.3727691956
 20
22.8885871913
 10
26.3727318746
 20
22.8888295275
  0
LINE
  5
2D8
100
AcDbEntity
  8
0
100
AcDbLine
 62
7
  6
CONTINUOUS
 10
27.7487149151
 20
22.1898825065
 11
27.7246969899
 21
22.0456467789
  0
LWPOLYLINE
  5
2D9
100
AcDbEntity
  8
0
100
AcDbPolyline
 62
7
  6
CONTINUOUS
 90
2
 70
0
 43
0.3500000006
 10
48.0487140198
 20
-1.5672603836
 10
46.548713562
 20
-1.5672603836
  0
LWPOLYLINE
  5
2DA
100
AcDbEntity
  8
0
100
AcDbPolyline
 62
7
  6
CONTINUOUS
 90
2
 70
0
 43
0.3500000006
 10
40.0487161102
 20
-1.5672603836
 10
38.5487156525
 20
-1.5672603836
  0
LWPOLYLINE
  5
2DB
100
AcDbEntity
  8
0
100
AcDbPolyline
 62
7
  6
CONTINUOUS
 90
4
 70
0
 43
0.3500000006
 10
37.6915731812
 20
-0.2101177597
 10
37.0487151947
 20
-0.2101177597
 10
37.0487151947
 20
1.2898826981
 10
40.0487161102
 20
0.4327402267
  0
LINE
  5
2DC
100
AcDbEntity
  8
0
100
AcDbLine
 62
7
  6
CONTINUOUS
 10
27.7246969899
 20
-22.4658817659
 11
27.7487149151
 21
-22.6101174935
  0
LINE
  5
2DD
100
AcDbEntity
  8
0
100
AcDbLine
 62
250
  6
CONTINUOUS
 10
25.6035484795
 20
22.3756743168
 11
25.6041692367
 21
22.3498375477
  0
LINE
  5
2DE
100
AcDbEntity
  8
0
100
AcDbLine
 62
250
  6
CONTINUOUS
 10
25.60359493
 20
-22.7933098929
 11
25.6035484888
 21
-22.7959093002
  0
LINE
  5
2DF
100
AcDbEntity
  8
0
100
AcDbLine
 62
250
  6
CONTINUOUS
 10
25.6041692367
 20
-22.7700725347
 11
25.60359493
 21
-22.7933098929
  0
LWPOLYLINE
  5
2E0
100
AcDbEntity
  8
0
100
AcDbPolyline
 62
250
  6
CONTINUOUS
 90
9
 70
0
 10
30.5074368794
 20
21.2654748764
 10
30.5066350693
 20
21.2607637849
 10
30.5058588866
 20
21.2522767459
 10
30.5051083312
 20
21.2400137591
 10
30.504375064
 20
21.2235653984
 10
30.5036674242
 20
21.2033410899
 10
30.5030104292
 20
21.180569113
 10
30.502409839
 20
21.155111815
 10
30.5013683308
 20
21.0981954509
  0
LINE
  5
2E1
100
AcDbEntity
  8
0
100
AcDbLine
 62
250
  6
CONTINUOUS
 10
19.6161699801
 20
-22.0574808621
 11
19.7399929509
 21
-21.6857098633
  0
LINE
  5
2E2
100
AcDbEntity
  8
0
100
AcDbLine
 62
250
  6
CONTINUOUS
 10
19.7399929509
 20
21.2654748764
 11
19.6161699801
 21
21.6372458752
  0
LINE
  5
2E3
100
AcDbEntity
  8
0
100
AcDbLine
 62
250
  6
CONTINUOUS
 10
27.4747065091
 20
-22.4528941556
 11
27.4747065091
 21
-23.6860995682
  0
LINE
  5
2E4
100
AcDbEntity
  8
0
100
AcDbLine
 62
250
  6
CONTINUOUS
 10
27.4747065091
 20
22.0326591687
 11
27.4747065091
 21
23.2658645813
  0
LINE
  5
2E5
100
AcDbEntity
  8
0
100
AcDbLine
 62
7
  6
CONTINUOUS
 10
27.7246969899
 20
-23.4361090875
 11
27.7246969899
 21
-22.4658817659
  0
LINE
  5
2E6
100
AcDbEntity
  8
0
100
AcDbLine
 62
7
  6
CONTINUOUS
 10
27.7246969899
 20
22.0456467789
 11
27.7246969899
 21
23.0158741005
  0
LINE
  5
2E7
100
AcDbEntity
  8
0
100
AcDbLine
 62
7
  6
CONTINUOUS
 10
27.7487149151
 20
-23.4601143168
 11
27.7487149151
 21
-22.6101174935
  0
LINE
  5
2E8
100
AcDbEntity
  8
0
100
AcDbLine
 62
7
  6
CONTINUOUS
 10
27.7487149151
 20
22.1898825065
 11
27.7487149151
 21
23.0398793299
  0
LWPOLYLINE
  5
2E9
100
AcDbEntity
  8
0
100
AcDbPolyline
 62
250
  6
CONTINUOUS
 90
7
 70
0
 10
30.0075132435
 20
21.7647896437
 10
30.0067109352
 20
21.7558719648
 10
30.0059344526
 20
21.7388166275
 10
30.0051837956
 20
21.7138674111
 10
30.0044507353
 20
21.6811083153
 10
30.0037435006
 20
21.6410325384
 10
30.0019360624
 20
21.4884020267
  0
LINE
  5
2EA
100
AcDbEntity
  8
0
100
AcDbLine
 62
250
  6
CONTINUOUS
 10
25.4160709109
 20
-22.755730252
 11
25.4141246787
 21
-22.7700679963
  0
LINE
  5
2EB
100
AcDbEntity
  8
0
100
AcDbLine
 62
250
  6
CONTINUOUS
 10
25.4178561131
 20
-22.7429977895
 11
25.4160709109
 21
-22.755730252
  0
LINE
  5
2EC
100
AcDbEntity
  8
0
100
AcDbLine
 62
7
  6
CONTINUOUS
 10
21.0719858439
 20
-23.1325469244
 11
20.7487149151
 21
-24.2101174935
  0
LINE
  5
2ED
100
AcDbEntity
  8
0
100
AcDbLine
 62
250
  6
CONTINUOUS
 10
21.0727156213
 20
-23.239668907
 11
20.7801949586
 21
-24.2147377828
  0
LINE
  5
2EE
100
AcDbEntity
  8
0
100
AcDbLine
 62
250
  6
CONTINUOUS
 10
21.2727149151
 20
-23.268919021
 11
20.9801644976
 21
-24.2440870794
  0
LINE
  5
2EF
100
AcDbEntity
  8
0
100
AcDbLine
 62
250
  6
CONTINUOUS
 10
20.1157893803
 20
-22.5577097142
 11
20.2399167984
 21
-22.1850246307
  0
LINE
  5
2F0
100
AcDbEntity
  8
0
100
AcDbLine
 62
250
  6
CONTINUOUS
 10
20.2399167984
 20
21.7647896437
 11
20.1157893803
 21
22.1374747272
  0
LINE
  5
2F1
100
AcDbEntity
  8
0
100
AcDbLine
 62
7
  6
CONTINUOUS
 10
21.0727149151
 20
22.1374747272
 11
21.1041949586
 21
22.0429577962
  0
LINE
  5
2F2
100
AcDbEntity
  8
0
100
AcDbLine
 62
7
  6
CONTINUOUS
 10
20.7487149151
 20
23.7898825065
 11
21.0495229048
 21
22.7871892076
  0
LINE
  5
2F3
100
AcDbEntity
  8
0
100
AcDbLine
 62
250
  6
CONTINUOUS
 10
20.7801949586
 20
23.7945027959
 11
21.0810029483
 21
22.791809497
  0
LINE
  5
2F4
100
AcDbEntity
  8
0
100
AcDbLine
 62
250
  6
CONTINUOUS
 10
20.9801644976
 20
23.8238520924
 11
21.272539029
 21
22.8492703212
  0
LWPOLYLINE
  5
2F5
100
AcDbEntity
  8
0
100
AcDbPolyline
 62
250
  6
CONTINUOUS
 90
10
 70
0
 10
21.272539029
 20
22.8492703212
 10
21.2783501506
 20
22.8293542418
 10
21.2836530291
 20
22.8084362522
 10
21.2884476644
 20
22.7865163524
 10
21.292822126
 20
22.763600639
 10
21.2966883445
 20
22.7396830155
 10
21.2997821117
 20
22.7147451919
 10
21.3020153583
 20
22.6887810715
 10
21.3034761536
 20
22.661796751
 10
21.3041644976
 20
22.6337922304
  0
LWPOLYLINE
  5
2F6
100
AcDbEntity
  8
0
100
AcDbPolyline
 62
250
  6
CONTINUOUS
 90
10
 70
0
 10
21.0810029483
 20
22.791809497
 10
21.0851649471
 20
22.7772076293
 10
21.0890730004
 20
22.7618681398
 10
21.0926698233
 20
22.7457899994
 10
21.0958932554
 20
22.7289881579
 10
21.0986840657
 20
22.7114545579
 10
21.1009818217
 20
22.6931578253
 10
21.1027164383
 20
22.6740966489
 10
21.103812644
 20
22.6543008948
 10
21.1041949586
 20
22.6337922304
  0
LINE
  5
2F7
100
AcDbEntity
  8
0
100
AcDbLine
 62
250
  6
CONTINUOUS
 10
25.4141246828
 20
22.3498330124
 11
25.4178561131
 21
22.3227628025
  0
LWPOLYLINE
  5
2F8
100
AcDbEntity
  8
0
100
AcDbPolyline
 62
250
  6
CONTINUOUS
 90
13
 70
0
 10
27.7246969899
 20
23.0158741005
 10
27.722556009
 20
23.0485028333
 10
27.716174665
 20
23.0805733334
 10
27.705662134
 20
23.1115369189
 10
27.6911982707
 20
23.1408638456
 10
27.6730305321
 20
23.1680523701
 10
27.651469743
 20
23.1926373343
 10
27.6268847787
 20
23.2141981235
 10
27.5996962542
 20
23.2323658621
 10
27.5703693276
 20
23.2468297253
 10
27.539405742
 20
23.2573422564
 10
27.5073352419
 20
23.2637236004
 10
27.4747065091
 20
23.2658645813
  0
LINE
  5
2F9
100
AcDbEntity
  8
0
100
AcDbLine
 62
7
  6
CONTINUOUS
 10
27.7487085685
 20
23.0398729869
 11
27.7465692673
 21
23.0725036346
  0
LINE
  5
2FA
100
AcDbEntity
  8
0
100
AcDbLine
 62
7
  6
CONTINUOUS
 10
30.6487149151
 20
-16.8964889487
 11
30.7407207382
 21
-18.8149797193
  0
LWPOLYLINE
  5
2FB
100
AcDbEntity
  8
0
100
AcDbPolyline
 62
250
  6
CONTINUOUS
 90
7
 70
0
 10
30.5034704886
 20
-21.6174255429
 10
30.5040463516
 20
-21.635369047
 10
30.5046464863
 20
-21.6507752983
 10
30.5052842689
 20
-21.6635244866
 10
30.505964158
 20
-21.6735766752
 10
30.5066816948
 20
-21.6809718007
 10
30.5074368794
 20
-21.6857098633
  0
LWPOLYLINE
  5
2FC
100
AcDbEntity
  8
0
100
AcDbPolyline
 62
250
  6
CONTINUOUS
 90
5
 70
0
 10
30.0047221219
 20
-22.1145953413
 10
30.0053596502
 20
-22.1406538792
 10
30.006039596
 20
-22.1617500477
 10
30.0067573899
 20
-22.1767893098
 10
30.0075130319
 20
-22.1850246307
  0
LINE
  5
2FD
100
AcDbEntity
  8
0
100
AcDbLine
 62
250
  6
CONTINUOUS
 10
30.5023826786
 20
-21.5743651814
 11
30.5034704886
 21
-21.6174255429
  0
LINE
  5
2FE
100
AcDbEntity
  8
0
100
AcDbLine
 62
250
  6
CONTINUOUS
 10
30.5013837248
 20
-21.5190991858
 11
30.5023826786
 21
-21.5743651814
  0
LINE
  5
2FF
100
AcDbEntity
  8
0
100
AcDbLine
 62
250
  6
CONTINUOUS
 10
30.0035469012
 20
-22.048455989
 11
30.0047221219
 21
-22.1145953413
  0
LINE
  5
300
100
AcDbEntity
  8
0
100
AcDbLine
 62
250
  6
CONTINUOUS
 10
30.5004980312
 20
-21.4518816616
 11
30.5013837248
 21
-21.5190991858
  0
LINE
  5
301
100
AcDbEntity
  8
0
100
AcDbLine
 62
250
  6
CONTINUOUS
 10
30.0019514092
 20
-21.9105875532
 11
30.0035469012
 21
-22.048455989
  0
LINE
  5
302
100
AcDbEntity
  8
0
100
AcDbLine
 62
250
  6
CONTINUOUS
 10
30.4995589889
 20
-21.3347236734
 11
30.5004980312
 21
-21.4518816616
  0
LINE
  5
303
100
AcDbEntity
  8
0
100
AcDbLine
 62
250
  6
CONTINUOUS
 10
29.999890996
 20
-21.5644851481
 11
30.0019514092
 21
-21.9105875532
  0
LINE
  5
304
100
AcDbEntity
  8
0
100
AcDbLine
 62
250
  6
CONTINUOUS
 10
30.4992406711
 20
-21.2509781951
 11
30.4995589889
 21
-21.3347236734
  0
LINE
  5
305
100
AcDbEntity
  8
0
100
AcDbLine
 62
250
  6
CONTINUOUS
 10
29.9939639543
 20
-11.9917293997
 11
29.999890996
 21
-21.5644851481
  0
LINE
  5
306
100
AcDbEntity
  8
0
100
AcDbLine
 62
250
  6
CONTINUOUS
 10
30.0003276819
 20
21.2491677085
 11
29.9939639543
 21
-11.9917293997
  0
LINE
  5
307
100
AcDbEntity
  8
0
100
AcDbLine
 62
250
  6
CONTINUOUS
 10
30.4997228321
 20
20.942766159
 11
30.4992476368
 21
20.8295455525
  0
LINE
  5
308
100
AcDbEntity
  8
0
100
AcDbLine
 62
250
  6
CONTINUOUS
 10
30.0019360624
 20
21.4884020267
 11
30.0003276819
 21
21.2491677085
  0
LINE
  5
309
100
AcDbEntity
  8
0
100
AcDbLine
 62
250
  6
CONTINUOUS
 10
30.5005757483
 20
21.0388540488
 11
30.4997228321
 21
20.942766159
  0
LINE
  5
30A
100
AcDbEntity
  8
0
100
AcDbLine
 62
250
  6
CONTINUOUS
 10
30.5013683308
 20
21.0981954509
 11
30.5005757483
 21
21.0388540488
  0
LINE
  5
30B
100
AcDbEntity
  8
0
100
AcDbLine
 62
7
  6
CONTINUOUS
 10
30.7442117512
 20
18.4675387792
 11
30.6487149151
 21
16.4762539618
  0
LINE
  5
30C
100
AcDbEntity
  8
0
100
AcDbLine
 62
250
  6
CONTINUOUS
 10
27.7225248327
 20
-23.4689736361
 11
27.7246969899
 21
-23.4361090875
  0
LWPOLYLINE
  5
30D
100
AcDbEntity
  8
0
100
AcDbPolyline
 62
250
  6
CONTINUOUS
 90
16
 70
0
 10
30.5074368794
 20
21.2654748764
 10
30.504653884
 20
21.3176357454
 10
30.4964307037
 20
21.3692260624
 10
30.4828572495
 20
21.4196812654
 10
30.4640819815
 20
21.4684492063
 10
30.4403102906
 20
21.514996178
 10
30.4118022586
 20
21.558812758
 10
30.3788697948
 20
21.5994194135
 10
30.3418732426
 20
21.6363717174
 10
30.3012174562
 20
21.6692652085
 10
30.2573473147
 20
21.6977398709
 10
30.2107428922
 20
21.7214840335
 10
30.1619142441
 20
21.740237776
 10
30.1113957467
 20
21.7537958187
 10
30.05974024
 20
21.7620097524
 10
30.007513032
 20
21.7647896441
  0
LINE
  5
30E
100
AcDbEntity
  8
0
100
AcDbLine
 62
250
  6
CONTINUOUS
 10
30.4938878019
 20
-11.9799477878
 11
30.4992406711
 21
-21.2509781951
  0
LINE
  5
30F
100
AcDbEntity
  8
0
100
AcDbLine
 62
7
  6
CONTINUOUS
 10
30.6050772528
 20
23.0898825065
 11
30.6050772528
 21
22.1031991291
  0
LINE
  5
310
100
AcDbEntity
  8
0
100
AcDbLine
 62
7
  6
CONTINUOUS
 10
30.6050772528
 20
-22.5234341161
 11
30.6050772528
 21
-23.5101174935
  0
LINE
  5
311
100
AcDbEntity
  8
0
100
AcDbLine
 62
7
  6
CONTINUOUS
 10
30.6487149151
 20
-16.8964889487
 11
30.6487149151
 21
16.4762539618
  0
LINE
  5
312
100
AcDbEntity
  8
0
100
AcDbLine
 62
7
  6
CONTINUOUS
 10
30.6923525775
 20
21.8206731027
 11
30.6923525775
 21
21.4561186143
  0
LINE
  5
313
100
AcDbEntity
  8
0
100
AcDbLine
 62
7
  6
CONTINUOUS
 10
30.6923525775
 20
-22.2409080896
 11
30.6923525775
 21
-21.8763536012
  0
LINE
  5
314
100
AcDbEntity
  8
0
100
AcDbLine
 62
7
  6
CONTINUOUS
 10
30.7464632787
 20
-20.9150230813
 11
30.7464632787
 21
-19.2848260297
  0
LINE
  5
315
100
AcDbEntity
  8
0
100
AcDbLine
 62
7
  6
CONTINUOUS
 10
30.7499542917
 20
20.4598825065
 11
30.7499542917
 21
18.9373850896
  0
LINE
  5
316
100
AcDbEntity
  8
0
100
AcDbLine
 62
7
  6
CONTINUOUS
 10
30.7987149151
 20
20.1898825065
 11
30.7987149151
 21
19.3898825065
  0
LINE
  5
317
100
AcDbEntity
  8
0
100
AcDbLine
 62
250
  6
CONTINUOUS
 10
30.4992476368
 20
20.8295455525
 11
30.4938878019
 21
-11.9799477878
  0
LWPOLYLINE
  5
318
100
AcDbEntity
  8
0
100
AcDbPolyline
 62
250
  6
CONTINUOUS
 90
16
 70
0
 10
30.5074368794
 20
-21.6857098633
 10
30.5046537228
 20
-21.7378722522
 10
30.4964301154
 20
-21.7894638029
 10
30.4828560524
 20
-21.8399199241
 10
30.4640800811
 20
-21.8886884502
 10
30.4403076761
 20
-21.9352356835
 10
30.4117989904
 20
-21.9790522354
 10
30.3788660082
 20
-22.0196586
 10
30.341869131
 20
-22.0566104024
 10
30.3012132335
 20
-22.089503261
 10
30.2573432329
 20
-22.1179772136
 10
30.2107392196
 20
-22.1417206558
 10
30.161911204
 20
-22.1604737517
 10
30.1113935345
 20
-22.1740312769
 10
30.0597390505
 20
-22.182244865
 10
30.0075130319
 20
-22.1850246307
  0
LWPOLYLINE
  5
319
100
AcDbEntity
  8
0
100
AcDbPolyline
 62
250
  6
CONTINUOUS
 90
22
 70
0
 10
26.3727318746
 20
-23.3090645145
 10
26.3727610464
 20
-23.3089493248
 10
26.3727893109
 20
-23.3086386666
 10
26.3728163507
 20
-23.3081325118
 10
26.372841657
 20
-23.3074379963
 10
26.3728645271
 20
-23.3065479356
 10
26.3728839521
 20
-23.305440823
 10
26.3728988407
 20
-23.3041069869
 10
26.3729074752
 20
-23.3025560744
 10
26.372907499
 20
-23.3007955732
 10
26.3728968528
 20
-23.2988223179
 10
26.3728734874
 20
-23.2966395474
 10
26.3728349708
 20
-23.2942643959
 10
26.3727792744
 20
-23.2917101419
 10
26.3727035846
 20
-23.2889637327
 10
26.3726038747
 20
-23.2860028676
 10
26.3724771647
 20
-23.2828319823
 10
26.3723196006
 20
-23.2794471298
 10
26.3721245409
 20
-23.2758135689
 10
26.3718862186
 20
-23.2719200681
 10
26.3716004347
 20
-23.2677788687
 10
26.3712617964
 20
-23.263390619
  0
LWPOLYLINE
  5
31A
100
AcDbEntity
  8
0
100
AcDbPolyline
 62
7
  6
CONTINUOUS
 90
11
 70
0
 10
25.047711119
 20
-22.4658817659
 10
25.0480556347
 20
-22.464734905
 10
25.0515575422
 20
-22.4636076505
 10
25.0582168415
 20
-22.4625000025
 10
25.0681663693
 20
-22.4613997265
 10
25.0812732888
 20
-22.4603190568
 10
25.09713909
 20
-22.4592946972
 10
25.1159189728
 20
-22.4583310541
 10
25.1374577371
 20
-22.457423721
 10
25.160891273
 20
-22.4565961817
 10
25.1860006097
 20
-22.4558564801
  0
LINE
  5
31B
100
AcDbEntity
  8
0
100
AcDbLine
 62
7
  6
CONTINUOUS
 10
30.6995795931
 20
20.9635639512
 11
30.7499542917
 21
20.4598825065
  0
LINE
  5
31C
100
AcDbEntity
  8
0
100
AcDbLine
 62
7
  6
CONTINUOUS
 10
30.7464632787
 20
-20.9150230813
 11
30.6995795931
 21
-21.3837989381
  0
LWPOLYLINE
  5
31D
100
AcDbEntity
  8
0
100
AcDbPolyline
 62
7
  6
CONTINUOUS
 90
3
 70
0
 10
26.8368822953
 20
-23.5017887235
 10
26.8464703172
 20
-23.4693085108
 10
26.8565907463
 20
-23.4361090875
  0
LWPOLYLINE
  5
31E
100
AcDbEntity
  8
0
100
AcDbPolyline
 62
7
  6
CONTINUOUS
 90
4
 70
0
 10
26.7976116796
 20
-23.6351449186
 10
26.811060444
 20
-23.5894925692
 10
26.8191773587
 20
-23.5623860879
 10
26.8368822953
 20
-23.5017887235
  0
LINE
  5
31F
100
AcDbEntity
  8
0
100
AcDbLine
 62
7
  6
CONTINUOUS
 10
26.7753775675
 20
-23.7101174935
 11
26.7824788933
 21
-23.6860995682
  0
LINE
  5
320
100
AcDbEntity
  8
0
100
AcDbLine
 62
7
  6
CONTINUOUS
 10
26.7880786358
 20
-23.6671681627
 11
26.7976116796
 21
-23.6351449186
  0
LINE
  5
321
100
AcDbEntity
  8
0
100
AcDbLine
 62
7
  6
CONTINUOUS
 10
26.7753775675
 20
23.2898825065
 11
26.7824788933
 21
23.2658645813
  0
LWPOLYLINE
  5
322
100
AcDbEntity
  8
0
100
AcDbPolyline
 62
7
  6
CONTINUOUS
 90
3
 70
0
 10
26.7976116796
 20
23.2149099316
 10
26.80385428
 20
23.1936369199
 10
26.8191773587
 20
23.1421511009
  0
LWPOLYLINE
  5
323
100
AcDbEntity
  8
0
100
AcDbPolyline
 62
7
  6
CONTINUOUS
 90
3
 70
0
 10
26.7832148184
 20
23.2635707138
 10
26.7880786358
 20
23.2469331757
 10
26.7976116796
 20
23.2149099316
  0
LWPOLYLINE
  5
324
100
AcDbEntity
  8
0
100
AcDbPolyline
 62
7
  6
CONTINUOUS
 90
4
 70
0
 10
26.8191773587
 20
23.1421511009
 10
26.8368822953
 20
23.0815537365
 10
26.8464703172
 20
23.0490735239
 10
26.8565907463
 20
23.0158741005
  0
LWPOLYLINE
  5
325
100
AcDbEntity
  8
0
100
AcDbPolyline
 62
7
  6
CONTINUOUS
 90
12
 70
0
 10
27.7465692673
 20
23.0725036346
 10
27.7401891809
 20
23.1045761966
 10
27.7296774791
 20
23.1355419068
 10
27.7152140297
 20
23.1648709424
 10
27.6970463065
 20
23.1920614758
 10
27.6754851552
 20
23.2166482611
 10
27.6508994982
 20
23.2382106167
 10
27.6237100079
 20
23.25637961
 10
27.5943818929
 20
23.270844356
 10
27.5634169645
 20
23.2813573585
 10
27.5313450507
 20
23.2877387456
 10
27.498714915
 20
23.2898793334
  0
LWPOLYLINE
  5
326
100
AcDbEntity
  8
0
100
AcDbPolyline
 62
7
  6
CONTINUOUS
 90
3
 70
0
 10
26.7824788933
 20
-23.6860995682
 10
26.7832148184
 20
-23.6838057008
 10
26.7880786358
 20
-23.6671681627
  0
LINE
  5
327
100
AcDbEntity
  8
0
100
AcDbLine
 62
7
  6
CONTINUOUS
 10
26.7824788933
 20
23.2658645813
 11
26.7832148184
 21
23.2635707138
  0
LINE
  5
328
100
AcDbEntity
  8
0
100
AcDbLine
 62
250
  6
CONTINUOUS
 10
26.551280454
 20
-23.2887317473
 11
26.5705914582
 21
-23.2471228645
  0
LINE
  5
329
100
AcDbEntity
  8
0
100
AcDbLine
 62
250
  6
CONTINUOUS
 10
26.5258458173
 20
-23.3426861949
 11
26.551280454
 21
-23.2887317473
  0
LINE
  5
32A
100
AcDbEntity
  8
0
100
AcDbLine
 62
250
  6
CONTINUOUS
 10
26.5047055763
 20
-23.3869516779
 11
26.5258458173
 21
-23.3426861949
  0
LINE
  5
32B
100
AcDbEntity
  8
0
100
AcDbLine
 62
250
  6
CONTINUOUS
 10
26.4825451925
 20
-23.4327260232
 11
26.5047055763
 21
-23.3869516779
  0
LINE
  5
32C
100
AcDbEntity
  8
0
100
AcDbLine
 62
250
  6
CONTINUOUS
 10
26.4682209711
 20
-23.461956382
 11
26.4825451925
 21
-23.4327260232
  0
LWPOLYLINE
  5
32D
100
AcDbEntity
  8
0
100
AcDbPolyline
 62
250
  6
CONTINUOUS
 90
3
 70
0
 10
26.4679258342
 20
23.0423211922
 10
26.4654145478
 20
23.047348126
 10
26.4621453422
 20
23.0537619052
  0
LINE
  5
32E
100
AcDbEntity
  8
0
100
AcDbLine
 62
250
  6
CONTINUOUS
 10
26.4866363147
 20
23.0040927473
 11
26.4679258342
 21
23.0423211922
  0
LINE
  5
32F
100
AcDbEntity
  8
0
100
AcDbLine
 62
250
  6
CONTINUOUS
 10
26.4621453422
 20
23.0537619052
 11
26.4616538524
 21
23.054776802
  0
LINE
  5
330
100
AcDbEntity
  8
0
100
AcDbLine
 62
250
  6
CONTINUOUS
 10
26.5072666262
 20
22.961392946
 11
26.4866363147
 21
23.0040927473
  0
LINE
  5
331
100
AcDbEntity
  8
0
100
AcDbLine
 62
250
  6
CONTINUOUS
 10
26.5306102616
 20
22.9124005884
 11
26.5072666262
 21
22.961392946
  0
LINE
  5
332
100
AcDbEntity
  8
0
100
AcDbLine
 62
250
  6
CONTINUOUS
 10
26.5540011659
 20
22.8626411639
 11
26.5306102616
 21
22.9124005884
  0
LWPOLYLINE
  5
333
100
AcDbEntity
  8
0
100
AcDbPolyline
 62
250
  6
CONTINUOUS
 90
3
 70
0
 10
26.5705914582
 20
22.8268878776
 10
26.5651977753
 20
22.8385848374
 10
26.5540011659
 20
22.8626411639
  0
LWPOLYLINE
  5
334
100
AcDbEntity
  8
0
100
AcDbPolyline
 62
7
  6
CONTINUOUS
 90
5
 70
0
 10
27.7152140297
 20
-23.5851059293
 10
27.7296774791
 20
-23.5557768938
 10
27.7401891809
 20
-23.5248111836
 10
27.7465692673
 20
-23.4927386215
 10
27.7487085685
 20
-23.4601079739
  0
LWPOLYLINE
  5
335
100
AcDbEntity
  8
0
100
AcDbPolyline
 62
250
  6
CONTINUOUS
 90
5
 70
0
 10
26.461653867
 20
-23.4750117987
 10
26.4619937591
 20
-23.4743898423
 10
26.4628295751
 20
-23.4727569429
 10
26.4641562163
 20
-23.4701208324
 10
26.4682209711
 20
-23.461956382
  0
LWPOLYLINE
  5
336
100
AcDbEntity
  8
0
100
AcDbPolyline
 62
7
  6
CONTINUOUS
 90
3
 70
0
 43
0.3500000006
 10
39.4058581238
 20
-1.067260231
 10
39.4058581238
 20
-2.5672606888
 10
37.0487151947
 20
-1.9244027023
  0
LINE
  5
337
100
AcDbEntity
  8
0
100
AcDbLine
 62
250
  6
CONTINUOUS
 10
20.9801644976
 20
-24.67863745
 11
20.9487250955
 21
-24.7101174935
  0
LINE
  5
338
100
AcDbEntity
  8
0
100
AcDbLine
 62
250
  6
CONTINUOUS
 10
20.7801949586
 20
-24.478667911
 11
20.7487149151
 21
-24.5101073131
  0
LINE
  5
339
100
AcDbEntity
  8
0
100
AcDbLine
 62
250
  6
CONTINUOUS
 10
20.7801949586
 20
24.058432924
 11
20.7487149151
 21
24.0898723261
  0
LINE
  5
33A
100
AcDbEntity
  8
0
100
AcDbLine
 62
250
  6
CONTINUOUS
 10
20.9801644976
 20
24.2584024631
 11
20.9487250955
 21
24.2898825065
  0
LWPOLYLINE
  5
33B
100
AcDbEntity
  8
0
100
AcDbPolyline
 62
250
  6
CONTINUOUS
 90
5
 70
0
 10
25.4178561131
 20
22.3227628025
 10
25.4183250892
 20
22.3222313726
 10
25.4195756125
 20
22.3208893069
 10
25.4216021501
 20
22.3187440328
 10
25.4278936665
 20
22.3121412075
  0
LWPOLYLINE
  5
33C
100
AcDbEntity
  8
0
100
AcDbPolyline
 62
250
  6
CONTINUOUS
 90
3
 70
0
 10
25.4274302787
 20
-22.7328579974
 10
25.4235594505
 20
-22.7369314863
 10
25.418642902
 20
-22.742189986
  0
LINE
  5
33D
100
AcDbEntity
  8
0
100
AcDbLine
 62
250
  6
CONTINUOUS
 10
25.4569987434
 20
-22.7022442427
 11
25.4274302787
 21
-22.7328579974
  0
LINE
  5
33E
100
AcDbEntity
  8
0
100
AcDbLine
 62
250
  6
CONTINUOUS
 10
25.418642902
 20
-22.742189986
 11
25.4178561272
 21
-22.7429977998
  0
LINE
  5
33F
100
AcDbEntity
  8
0
100
AcDbLine
 62
250
  6
CONTINUOUS
 10
25.4901171627
 20
-22.6683023352
 11
25.4569987434
 21
-22.7022442427
  0
LINE
  5
340
100
AcDbEntity
  8
0
100
AcDbLine
 62
250
  6
CONTINUOUS
 10
25.5282275157
 20
-22.6296658575
 11
25.4901171627
 21
-22.6683023352
  0
LINE
  5
341
100
AcDbEntity
  8
0
100
AcDbLine
 62
250
  6
CONTINUOUS
 10
25.5670429571
 20
-22.5907236408
 11
25.5282275157
 21
-22.6296658575
  0
LWPOLYLINE
  5
342
100
AcDbEntity
  8
0
100
AcDbPolyline
 62
250
  6
CONTINUOUS
 90
3
 70
0
 10
25.5950065274
 20
-22.5629464196
 10
25.585846465
 20
-22.5720020223
 10
25.5670429571
 20
-22.5907236408
  0
LINE
  5
343
100
AcDbEntity
  8
0
100
AcDbLine
 62
250
  6
CONTINUOUS
 10
25.5624643665
 20
22.1750413223
 11
25.5950065274
 21
22.1427114326
  0
LWPOLYLINE
  5
344
100
AcDbEntity
  8
0
100
AcDbPolyline
 62
7
  6
CONTINUOUS
 90
10
 70
0
 43
0.3500000006
 10
48.0487140198
 20
0.218453476
 10
47.1915715485
 20
1.0755959473
 10
46.3344290771
 20
1.2898826981
 10
45.4772866058
 20
1.2898826981
 10
45.0487131042
 20
0.8613114624
 10
45.0487131042
 20
0.218453476
 10
45.4772866058
 20
-0.2101177597
 10
46.3344290771
 20
-0.2101177597
 10
46.7630025787
 20
0.218453476
 10
46.7630025787
 20
1.1470248642
  0
LINE
  5
345
100
AcDbEntity
  8
0
100
AcDbLine
 62
250
  6
CONTINUOUS
 10
25.5204009831
 20
22.2173340515
 11
25.5624643665
 21
22.1750413223
  0
LINE
  5
346
100
AcDbEntity
  8
0
100
AcDbLine
 62
250
  6
CONTINUOUS
 10
25.4859842267
 20
22.2522887314
 11
25.5204009831
 21
22.2173340515
  0
LINE
  5
347
100
AcDbEntity
  8
0
100
AcDbLine
 62
250
  6
CONTINUOUS
 10
25.4504963557
 20
22.2887165273
 11
25.4859842267
 21
22.2522887314
  0
LINE
  5
348
100
AcDbEntity
  8
0
100
AcDbLine
 62
250
  6
CONTINUOUS
 10
25.4278936665
 20
22.3121412075
 11
25.4504963557
 21
22.2887165273
  0
LWPOLYLINE
  5
349
100
AcDbEntity
  8
0
100
AcDbPolyline
 62
7
  6
CONTINUOUS
 90
10
 70
0
 43
0.3500000006
 10
25.4957636948
 20
35.5398818207
 10
25.5671926117
 20
35.3970239868
 10
25.5671926117
 20
35.3255973358
 10
25.4243347778
 20
35.182739502
 10
25.3529058609
 20
35.182739502
 10
25.281476944
 20
35.254166153
 10
25.281476944
 20
35.3255973358
 10
25.3529058609
 20
35.4684551697
 10
25.4243347778
 20
35.5398818207
 10
25.4957636948
 20
35.5398818207
  0
LINE
  5
34A
100
AcDbEntity
  8
0
100
AcDbLine
 62
7
  6
CONTINUOUS
 10
30.7987149151
 20
19.3898825065
 11
30.7499542917
 21
19.3898825065
  0
LWPOLYLINE
  5
34B
100
AcDbEntity
  8
0
100
AcDbPolyline
 62
250
  6
CONTINUOUS
 90
22
 70
0
 10
25.6041692367
 20
22.3498375477
 10
25.6042676
 20
22.3497708819
 10
25.6045500503
 20
22.3496384838
 10
25.6050167221
 20
22.3494406425
 10
25.6056610797
 20
22.3491802668
 10
25.6064901172
 20
22.3488555703
 10
25.6075243988
 20
22.3484601753
 10
25.6087733894
 20
22.3479918134
 10
25.610228604
 20
22.3474553855
 10
25.6118838053
 20
22.3468556583
 10
25.6137426711
 20
22.3461934892
 10
25.6158028543
 20
22.3454719087
 10
25.6180490737
 20
22.3446990395
 10
25.6204695359
 20
22.3438813125
 10
25.6230774718
 20
22.3430169264
 10
25.6258952197
 20
22.3421020707
 10
25.6289196244
 20
22.341141058
 10
25.6321557096
 20
22.3401361673
 10
25.6356384012
 20
22.3390818087
 10
25.6393802235
 20
22.3379795781
 10
25.6433710975
 20
22.3368375933
 10
25.6476122509
 20
22.3356611456
  0
LWPOLYLINE
  5
34C
100
AcDbEntity
  8
0
100
AcDbPolyline
 62
250
  6
CONTINUOUS
 90
15
 70
0
 10
30.4991738253
 20
-21.2074134102
 10
30.4955945851
 20
-21.2095863585
 10
30.4866975777
 20
-21.2117360391
 10
30.4725780329
 20
-21.2138394205
 10
30.4533871357
 20
-21.2158739674
 10
30.4293304144
 20
-21.2178178801
 10
30.4006655461
 20
-21.2196503279
 10
30.3676995771
 20
-21.2213516754
 10
30.3307856572
 20
-21.2229036918
 10
30.2903192778
 20
-21.2242897436
 10
30.2467339706
 20
-21.2254949774
 10
30.2004967082
 20
-21.2265064771
 10
30.1521029478
 20
-21.2273134006
 10
30.1020712288
 20
-21.2279070995
 10
30.0509376079
 20
-21.2282812105
  0
LINE
  5
34D
100
AcDbEntity
  8
0
100
AcDbLine
 62
250
  6
CONTINUOUS
 10
26.4374737578
 20
-23.4877413766
 11
26.461653867
 21
-23.4750117987
  0
LINE
  5
34E
100
AcDbEntity
  8
0
100
AcDbLine
 62
250
  6
CONTINUOUS
 10
26.3486518034
 20
-23.3184492971
 11
26.3727318746
 21
-23.3090645145
  0
LWPOLYLINE
  5
34F
100
AcDbEntity
  8
0
100
AcDbPolyline
 62
7
  6
CONTINUOUS
 90
10
 70
0
 10
25.6035483664
 20
-22.7959147766
 10
25.5824540224
 20
-22.8026124662
 10
25.5607464567
 20
-22.8069384728
 10
25.5386913855
 20
-22.8088389909
 10
25.516557053
 20
-22.8082897483
 10
25.4946166356
 20
-22.8052963658
 10
25.4731446349
 20
-22.7998963838
 10
25.4524056869
 20
-22.7921577321
 10
25.4326516316
 20
-22.7821758036
 10
25.4141239298
 20
-22.7700737458
  0
LWPOLYLINE
  5
350
100
AcDbEntity
  8
0
100
AcDbPolyline
 62
250
  6
CONTINUOUS
 90
10
 70
0
 10
25.6041692367
 20
-22.7700725347
 10
25.5833169016
 20
-22.7763241752
 10
25.561908563
 20
-22.7802725178
 10
25.5401978623
 20
-22.7818707834
 10
25.518442023
 20
-22.7811000361
 10
25.4968988034
 20
-22.7779694076
 10
25.4758234429
 20
-22.7725159888
 10
25.4554656377
 20
-22.7648043907
 10
25.4360665826
 20
-22.7549259785
 10
25.4178561131
 20
-22.7429977895
  0
LINE
  5
351
100
AcDbEntity
  8
0
100
AcDbLine
 62
7
  6
CONTINUOUS
 10
30.7987149151
 20
20.1898825065
 11
30.7499542917
 21
20.1898825065
  0
LINE
  5
352
100
AcDbEntity
  8
0
100
AcDbLine
 62
250
  6
CONTINUOUS
 10
20.1964922224
 20
20.8080461835
 11
29.9992499777
 21
20.8081967374
  0
LINE
  5
353
100
AcDbEntity
  8
0
100
AcDbLine
 62
250
  6
CONTINUOUS
 10
20.2399167984
 20
21.7647896437
 11
30.0075130319
 21
21.7647896437
  0
LWPOLYLINE
  5
354
100
AcDbEntity
  8
0
100
AcDbPolyline
 62
250
  6
CONTINUOUS
 90
10
 70
0
 10
25.6041692367
 20
22.3498375474
 10
25.5833169342
 20
22.3560891801
 10
25.5619086223
 20
22.3600375231
 10
25.5401979409
 20
22.361635795
 10
25.5184421139
 20
22.3608650574
 10
25.4968988981
 20
22.3577344397
 10
25.4758235298
 20
22.3522810294
 10
25.4554657052
 20
22.3445694339
 10
25.4360666222
 20
22.3346910154
 10
25.4178561188
 20
22.3227628085
  0
LINE
  5
355
100
AcDbEntity
  8
0
100
AcDbLine
 62
250
  6
CONTINUOUS
 10
22.416426882
 20
22.791809497
 11
22.2248908013
 21
22.8492703212
  0
LWPOLYLINE
  5
356
100
AcDbEntity
  8
0
100
AcDbPolyline
 62
7
  6
CONTINUOUS
 90
10
 70
0
 10
25.603548551
 20
22.3756688588
 10
25.5824516704
 20
22.3823652258
 10
25.5607429632
 20
22.3866895363
 10
25.5386882944
 20
22.3885884946
 10
25.5165570476
 20
22.3880384466
 10
25.4946211769
 20
22.3850456939
 10
25.4731517677
 20
22.3796472827
 10
25.4524124807
 20
22.3719101065
 10
25.4326564502
 20
22.3619292204
 10
25.4141254577
 20
22.34982728
  0
LINE
  5
357
100
AcDbEntity
  8
0
100
AcDbLine
 62
250
  6
CONTINUOUS
 10
26.351079926
 20
22.8972851629
 11
26.3486518035
 21
22.8982143002
  0
LINE
  5
358
100
AcDbEntity
  8
0
100
AcDbLine
 62
250
  6
CONTINUOUS
 10
26.3727318746
 20
22.8888295275
 11
26.351079926
 21
22.8972851629
  0
LINE
  5
359
100
AcDbEntity
  8
0
100
AcDbLine
 62
250
  6
CONTINUOUS
 10
26.4502910242
 20
23.0607924874
 11
26.4374737621
 21
23.0675063925
  0
LINE
  5
35A
100
AcDbEntity
  8
0
100
AcDbLine
 62
250
  6
CONTINUOUS
 10
26.461653867
 20
23.0547768117
 11
26.4502910242
 21
23.0607924874
  0
LWPOLYLINE
  5
35B
100
AcDbEntity
  8
0
100
AcDbPolyline
 62
250
  6
CONTINUOUS
 90
16
 70
0
 10
30.4991738253
 20
20.7871784232
 10
30.4955943538
 20
20.7893514637
 10
30.4866967908
 20
20.7915012212
 10
30.4725764694
 20
20.7936046619
 10
30.4533846821
 20
20.7956392486
 10
30.4293270595
 20
20.7975831816
 10
30.4006613676
 20
20.7994156326
 10
30.3676947454
 20
20.8011169679
 10
30.3307804145
 20
20.8026689582
 10
30.2903138943
 20
20.804054975
 10
30.2467287639
 20
20.8052601676
 10
30.2004920171
 20
20.806271623
 10
30.1520990586
 20
20.8070785039
 10
30.1020683955
 20
20.8076721651
 10
30.0509360825
 20
20.8080462456
 10
29.9992499777
 20
20.8081967374
  0
LWPOLYLINE
  5
35C
100
AcDbEntity
  8
0
100
AcDbPolyline
 62
7
  6
CONTINUOUS
 90
3
 70
0
 43
0.3500000006
 10
47.4058560333
 20
-1.067260231
 10
47.4058560333
 20
-2.5672606888
 10
45.0487131042
 20
-1.9244027023
  0
LWPOLYLINE
  5
35D
100
AcDbEntity
  8
0
100
AcDbPolyline
 62
7
  6
CONTINUOUS
 90
6
 70
0
 10
27.5943818929
 20
-23.6910793429
 10
27.6237100079
 20
-23.6766145969
 10
27.6508994982
 20
-23.6584456037
 10
27.6754851552
 20
-23.6368832481
 10
27.6970463065
 20
-23.6122964627
 10
27.7152140297
 20
-23.5851059293
  0
LINE
  5
35E
100
AcDbEntity
  8
0
100
AcDbLine
 62
7
  6
CONTINUOUS
 10
20.7801949586
 20
23.7945027959
 11
20.7822604686
 21
23.7948293269
  0
LINE
  5
35F
100
AcDbEntity
  8
0
100
AcDbLine
 62
7
  6
CONTINUOUS
 10
20.9543280122
 20
23.8199587534
 11
20.9801644976
 21
23.8238520924
  0
LINE
  5
360
100
AcDbEntity
  8
0
100
AcDbLine
 62
250
  6
CONTINUOUS
 10
21.1041949586
 20
22.6337922304
 11
21.0727149151
 21
22.629171941
  0
LINE
  5
361
100
AcDbEntity
  8
0
100
AcDbLine
 62
250
  6
CONTINUOUS
 10
21.0810029483
 20
22.791809497
 11
21.0495229048
 21
22.7871892076
  0
LINE
  5
362
100
AcDbEntity
  8
0
100
AcDbLine
 62
7
  6
CONTINUOUS
 10
20.7487149151
 20
23.7898825065
 11
20.7801949586
 21
23.7945027959
  0
LINE
  5
363
100
AcDbEntity
  8
0
100
AcDbLine
 62
7
  6
CONTINUOUS
 10
20.7822604686
 20
23.7948293269
 11
20.9543280122
 21
23.8199587534
  0
LWPOLYLINE
  5
364
100
AcDbEntity
  8
0
100
AcDbPolyline
 62
250
  6
CONTINUOUS
 90
13
 70
0
 10
20.9801644976
 20
24.2584024631
 10
20.9540682665
 20
24.2566844099
 10
20.9284183763
 20
24.2515755324
 10
20.9036535336
 20
24.2431632111
 10
20.8801973079
 20
24.2315913274
 10
20.8584508861
 20
24.2170578027
 10
20.8387862113
 20
24.1998112133
 10
20.8215396213
 20
24.1801465386
 10
20.8070060958
 20
24.1584001163
 10
20.7954342114
 20
24.13494389
 10
20.7870218896
 20
24.1101790468
 10
20.7819130119
 20
24.0845291558
 10
20.7801949586
 20
24.058432924
  0
LINE
  5
365
100
AcDbEntity
  8
0
100
AcDbLine
 62
7
  6
CONTINUOUS
 10
21.3041644976
 20
22.0326591687
 11
22.1932653327
 21
22.0326591687
  0
LINE
  5
366
100
AcDbEntity
  8
0
100
AcDbLine
 62
7
  6
CONTINUOUS
 10
20.1157893803
 20
22.1374747272
 11
21.0727149151
 21
22.1374747272
  0
LINE
  5
367
100
AcDbEntity
  8
0
100
AcDbLine
 62
7
  6
CONTINUOUS
 10
22.4247149151
 20
22.1374747272
 11
23.4045680082
 21
22.1374747272
  0
LINE
  5
368
100
AcDbEntity
  8
0
100
AcDbLine
 62
7
  6
CONTINUOUS
 10
23.9165348414
 20
22.1898825065
 11
25.1987149151
 21
22.1898825065
  0
LINE
  5
369
100
AcDbEntity
  8
0
100
AcDbLine
 62
7
  6
CONTINUOUS
 10
30.1927331772
 20
22.3209019547
 11
27.7487149151
 21
22.3209019547
  0
LINE
  5
36A
100
AcDbEntity
  8
0
100
AcDbLine
 62
250
  6
CONTINUOUS
 10
21.1041949586
 20
22.6337922304
 11
21.3041644976
 21
22.6337922304
  0
LINE
  5
36B
100
AcDbEntity
  8
0
100
AcDbLine
 62
250
  6
CONTINUOUS
 10
22.1932653327
 20
22.6337922304
 11
22.3932348717
 21
22.6337922304
  0
LINE
  5
36C
100
AcDbEntity
  8
0
100
AcDbLine
 62
250
  6
CONTINUOUS
 10
26.8565907463
 20
23.0158741005
 11
27.7246969899
 21
23.0158741005
  0
LINE
  5
36D
100
AcDbEntity
  8
0
100
AcDbLine
 62
7
  6
CONTINUOUS
 10
27.4747065091
 20
23.2658645813
 11
26.7824788933
 21
23.2658645813
  0
LINE
  5
36E
100
AcDbEntity
  8
0
100
AcDbLine
 62
7
  6
CONTINUOUS
 10
26.7824788933
 20
23.2898825065
 11
30.4050467872
 21
23.2898825065
  0
LINE
  5
36F
100
AcDbEntity
  8
0
100
AcDbLine
 62
250
  6
CONTINUOUS
 10
20.7801949586
 20
24.058432924
 11
22.7172348717
 21
24.058432924
  0
LINE
  5
370
100
AcDbEntity
  8
0
100
AcDbLine
 62
250
  6
CONTINUOUS
 10
22.5172653327
 20
24.2584024631
 11
20.9801644976
 21
24.2584024631
  0
LINE
  5
371
100
AcDbEntity
  8
0
100
AcDbLine
 62
7
  6
CONTINUOUS
 10
22.5487047348
 20
24.2898825065
 11
20.9487250955
 21
24.2898825065
  0
LWPOLYLINE
  5
372
100
AcDbEntity
  8
0
100
AcDbPolyline
 62
7
  6
CONTINUOUS
 90
7
 70
0
 43
0.3500000006
 10
28.0671911087
 20
35.0398816681
 10
26.5671906509
 20
35.0398816681
 10
28.0671911087
 20
37.1827401123
 10
28.0671911087
 20
37.611309082
 10
27.638619873
 20
38.0398825836
 10
26.9957641525
 20
38.0398825836
 10
26.5671906509
 20
37.3970245972
  0
LINE
  5
373
100
AcDbEntity
  8
0
100
AcDbLine
 62
7
  6
CONTINUOUS
 10
27.4747065091
 20
22.0326591687
 11
25.3724179287
 21
22.0328713467
  0
LINE
  5
374
100
AcDbEntity
  8
0
100
AcDbLine
 62
7
  6
CONTINUOUS
 10
25.3724179287
 20
22.0328713467
 11
25.3041973235
 21
22.0334489223
  0
LINE
  5
375
100
AcDbEntity
  8
0
100
AcDbLine
 62
7
  6
CONTINUOUS
 10
25.3041973235
 20
22.0334489223
 11
25.241738016
 21
22.0343800574
  0
LWPOLYLINE
  5
376
100
AcDbEntity
  8
0
100
AcDbPolyline
 62
7
  6
CONTINUOUS
 90
12
 70
0
 10
25.241738016
 20
22.0343800574
 10
25.1861779794
 20
22.0356164283
 10
25.161120683
 20
22.0363538578
 10
25.1377005348
 20
22.037179516
 10
25.1161525329
 20
22.038085156
 10
25.0973526664
 20
22.039047494
 10
25.0814560862
 20
22.0400705773
 10
25.0683076415
 20
22.0411503587
 10
25.0583178687
 20
22.0422514122
 10
25.0516236135
 20
22.043361929
 10
25.0480880302
 20
22.0444937179
 10
25.047711119
 20
22.0456467789
  0
LWPOLYLINE
  5
377
100
AcDbEntity
  8
0
100
AcDbPolyline
 62
7
  6
CONTINUOUS
 90
13
 70
0
 10
22.5486844495
 20
24.2898621935
 10
22.5750772199
 20
24.288129059
 10
22.6008999233
 20
24.2829574454
 10
22.6257137989
 20
24.2744795749
 10
22.6490740389
 20
24.2628997175
 10
22.6706389239
 20
24.2484442319
 10
22.6901488874
 20
24.2313164788
 10
22.7072766405
 20
24.2118065153
 10
22.7217321261
 20
24.1902416303
 10
22.7333119835
 20
24.1668813903
 10
22.7417898541
 20
24.1420675147
 10
22.7469614676
 20
24.1162448113
 10
22.7486946022
 20
24.0898520409
  0
LINE
  5
378
100
AcDbEntity
  8
0
100
AcDbLine
 62
250
  6
CONTINUOUS
 10
26.3712617964
 20
22.843155632
 11
26.5705914581
 21
22.8268878776
  0
LINE
  5
379
100
AcDbEntity
  8
0
100
AcDbLine
 62
7
  6
CONTINUOUS
 10
22.7172348717
 20
23.7945027959
 11
22.7151626439
 21
23.7947835558
  0
LINE
  5
37A
100
AcDbEntity
  8
0
100
AcDbLine
 62
7
  6
CONTINUOUS
 10
22.5431309403
 20
23.8201571754
 11
22.5172653327
 21
23.8238520924
  0
LINE
  5
37B
100
AcDbEntity
  8
0
100
AcDbLine
 62
250
  6
CONTINUOUS
 10
22.4247149151
 20
22.629171941
 11
22.3932348717
 21
22.6337922304
  0
LINE
  5
37C
100
AcDbEntity
  8
0
100
AcDbLine
 62
250
  6
CONTINUOUS
 10
22.4479069255
 20
22.7871892076
 11
22.416426882
 21
22.791809497
  0
LINE
  5
37D
100
AcDbEntity
  8
0
100
AcDbLine
 62
7
  6
CONTINUOUS
 10
22.7487149151
 20
23.7898825065
 11
22.7172348717
 21
23.7945027959
  0
LINE
  5
37E
100
AcDbEntity
  8
0
100
AcDbLine
 62
7
  6
CONTINUOUS
 10
22.7151626439
 20
23.7947835558
 11
22.5431309403
 21
23.8201571754
  0
LWPOLYLINE
  5
37F
100
AcDbEntity
  8
0
100
AcDbPolyline
 62
7
  6
CONTINUOUS
 90
3
 70
0
 43
0.3500000006
 10
-7.3781898479
 20
45.1827380219
 10
-6.5210473766
 20
46.0398804932
 10
-6.5210473766
 20
43.0398841095
  0
LINE
  5
380
100
AcDbEntity
  8
0
100
AcDbLine
 62
7
  6
CONTINUOUS
 10
-3.6639043095
 20
-24.7101174935
 11
-2.8604138282
 21
-24.696092515
  0
LINE
  5
381
100
AcDbEntity
  8
0
100
AcDbLine
 62
250
  6
CONTINUOUS
 10
-3.6639043095
 20
-24.5101072894
 11
-2.8604138282
 21
-24.4961229759
  0
LINE
  5
382
100
AcDbEntity
  8
0
100
AcDbLine
 62
250
  6
CONTINUOUS
 10
-2.6639043095
 20
-24.4961229759
 11
-2.8604138282
 21
-24.4961229759
  0
LINE
  5
383
100
AcDbEntity
  8
0
100
AcDbLine
 62
250
  6
CONTINUOUS
 10
-5.6639043095
 20
-24.478667911
 11
-5.4673947908
 21
-24.478667911
  0
LINE
  5
384
100
AcDbEntity
  8
0
100
AcDbLine
 62
7
  6
CONTINUOUS
 10
-5.4673947908
 20
-24.67863745
 11
-3.6639043095
 21
-24.7101174935
  0
LINE
  5
385
100
AcDbEntity
  8
0
100
AcDbLine
 62
250
  6
CONTINUOUS
 10
-5.4673947908
 20
-24.478667911
 11
-3.6639043095
 21
-24.5101073131
  0
LWPOLYLINE
  5
386
100
AcDbEntity
  8
0
100
AcDbPolyline
 62
7
  6
CONTINUOUS
 90
13
 70
0
 10
-5.4673947908
 20
-24.2147377828
 10
-5.492783286
 20
-24.2150643138
 10
-5.5178237182
 20
-24.2158415954
 10
-5.5420960015
 20
-24.2170696276
 10
-5.5652161561
 20
-24.2187836061
 10
-5.5867378937
 20
-24.2209483352
 10
-5.606188377
 20
-24.2234582278
 10
-5.6232199227
 20
-24.2263324496
 10
-5.6375632421
 20
-24.2295518348
 10
-5.6489593479
 20
-24.2329532988
 10
-5.6572221936
 20
-24.2364824802
 10
-5.6622284785
 20
-24.2401937403
 10
-5.6639043095
 20
-24.2440870794
  0
LINE
  5
387
100
AcDbEntity
  8
0
100
AcDbLine
 62
7
  6
CONTINUOUS
 10
-3.6639043095
 20
-24.2101174935
 11
-5.4673947908
 21
-24.2147377828
  0
LINE
  5
388
100
AcDbEntity
  8
0
100
AcDbLine
 62
7
  6
CONTINUOUS
 10
1.2959490412
 20
-23.7101174935
 11
-2.6639043095
 21
-23.7101174935
  0
LINE
  5
389
100
AcDbEntity
  8
0
100
AcDbLine
 62
250
  6
CONTINUOUS
 10
1.2994400542
 20
-23.5101174935
 11
-0.1639043095
 21
-23.5101174935
  0
LINE
  5
38A
100
AcDbEntity
  8
0
100
AcDbLine
 62
250
  6
CONTINUOUS
 10
-0.1639043095
 20
-23.4601174935
 11
-2.6639043095
 21
-23.4601174935
  0
LINE
  5
38B
100
AcDbEntity
  8
0
100
AcDbLine
 62
250
  6
CONTINUOUS
 10
-5.4160859433
 20
-23.4361090875
 11
-5.6639043095
 21
-23.4361090875
  0
LINE
  5
38C
100
AcDbEntity
  8
0
100
AcDbLine
 62
7
  6
CONTINUOUS
 10
-2.8604138282
 20
-24.2121759232
 11
-3.6639043095
 21
-24.2101174935
  0
LINE
  5
38D
100
AcDbEntity
  8
0
100
AcDbLine
 62
7
  6
CONTINUOUS
 10
-2.6639043095
 20
-23.7101174935
 11
-5.4160859433
 21
-23.6860995682
  0
LINE
  5
38E
100
AcDbEntity
  8
0
100
AcDbLine
 62
250
  6
CONTINUOUS
 10
-2.6639043095
 20
-23.4601143168
 11
-5.4160859433
 21
-23.4361090875
  0
LWPOLYLINE
  5
38F
100
AcDbEntity
  8
0
100
AcDbPolyline
 62
7
  6
CONTINUOUS
 90
13
 70
0
 10
-2.8604138282
 20
-24.2121759232
 10
-2.8350253329
 20
-24.2124566832
 10
-2.8099849007
 20
-24.2132378227
 10
-2.7857126175
 20
-24.2145077681
 10
-2.7625924628
 20
-24.2162109854
 10
-2.7410707252
 20
-24.2183345423
 10
-2.7216202419
 20
-24.2208963682
 10
-2.7045886962
 20
-24.2237886612
 10
-2.6902453768
 20
-24.2269397463
 10
-2.678849271
 20
-24.2303914392
 10
-2.6705864253
 20
-24.2340779479
 10
-2.6655801404
 20
-24.2378303028
 10
-2.6639043095
 20
-24.2415252198
  0
LINE
  5
390
100
AcDbEntity
  8
0
100
AcDbLine
 62
7
  6
CONTINUOUS
 10
-10.7751593294
 20
-22.1850246307
 11
-0.1639043095
 21
-22.7411369417
  0
LWPOLYLINE
  5
391
100
AcDbEntity
  8
0
100
AcDbPolyline
 62
250
  6
CONTINUOUS
 90
4
 70
0
 10
-2.7848892929
 20
-23.7727931873
 10
-2.8092913481
 20
-23.7703020647
 10
-2.8346076948
 20
-23.7687378844
 10
-2.8604138282
 20
-23.7681267231
  0
LINE
  5
392
100
AcDbEntity
  8
0
100
AcDbLine
 62
7
  6
CONTINUOUS
 10
2.9360956905
 20
-20.9150230813
 11
0.2501311404
 21
-21.3837989381
  0
LINE
  5
393
100
AcDbEntity
  8
0
100
AcDbLine
 62
250
  6
CONTINUOUS
 10
-11.2311076115
 20
-21.2074134102
 11
-11.7192646177
 21
-21.2282812105
  0
LINE
  5
394
100
AcDbEntity
  8
0
100
AcDbLine
 62
7
  6
CONTINUOUS
 10
2.9535454389
 20
-22.409812907
 11
3.4532468127
 21
-22.4010905871
  0
LINE
  5
395
100
AcDbEntity
  8
0
100
AcDbLine
 62
7
  6
CONTINUOUS
 10
1.3360956905
 20
-21.4101174935
 11
2.9360956905
 21
-21.4101174935
  0
LINE
  5
396
100
AcDbEntity
  8
0
100
AcDbLine
 62
250
  6
CONTINUOUS
 10
-10.7577175545
 20
-21.6857098633
 11
-0.1639043095
 21
-22.2409080896
  0
LINE
  5
397
100
AcDbEntity
  8
0
100
AcDbLine
 62
250
  6
CONTINUOUS
 10
-2.9654466883
 20
23.2872509861
 11
-2.8604138282
 21
23.3478917361
  0
LINE
  5
398
100
AcDbEntity
  8
0
100
AcDbLine
 62
250
  6
CONTINUOUS
 10
-11.7192646177
 20
-21.2282812105
 11
-11.7219394435
 21
-21.228431723
  0
LINE
  5
399
100
AcDbEntity
  8
0
100
AcDbLine
 62
7
  6
CONTINUOUS
 10
2.9565146716
 20
-20.6101174935
 11
5.3360956905
 21
-20.6101174935
  0
LINE
  5
39A
100
AcDbEntity
  8
0
100
AcDbLine
 62
7
  6
CONTINUOUS
 10
2.9860956905
 20
-19.8101174935
 11
5.3360956905
 21
-19.8101174935
  0
LINE
  5
39B
100
AcDbEntity
  8
0
100
AcDbLine
 62
7
  6
CONTINUOUS
 10
5.3360956905
 20
-19.7101174935
 11
3.1860956905
 21
-19.7101174935
  0
LINE
  5
39C
100
AcDbEntity
  8
0
100
AcDbLine
 62
250
  6
CONTINUOUS
 10
5.1395861718
 20
-19.3602212626
 11
5.3360956905
 21
-19.3602213343
  0
LINE
  5
39D
100
AcDbEntity
  8
0
100
AcDbLine
 62
7
  6
CONTINUOUS
 10
5.3360956905
 20
-20.7799324358
 11
3.1839140567
 21
-20.7611506312
  0
LINE
  5
39E
100
AcDbEntity
  8
0
100
AcDbLine
 62
250
  6
CONTINUOUS
 10
5.3360956905
 20
-20.5799400512
 11
2.935678269
 21
-20.5589919257
  0
LINE
  5
39F
100
AcDbEntity
  8
0
100
AcDbLine
 62
250
  6
CONTINUOUS
 10
-2.9654466883
 20
-23.707485973
 11
-2.8604138282
 21
-23.7681267231
  0
LINE
  5
3A0
100
AcDbEntity
  8
0
100
AcDbLine
 62
7
  6
CONTINUOUS
 10
2.8071057622
 20
18.4675387792
 11
-2.6639043095
 21
16.4762539618
  0
LINE
  5
3A1
100
AcDbEntity
  8
0
100
AcDbLine
 62
7
  6
CONTINUOUS
 10
5.0071057622
 20
-19.8903749522
 11
4.7866002066
 21
-19.8101174935
  0
LINE
  5
3A2
100
AcDbEntity
  8
0
100
AcDbLine
 62
7
  6
CONTINUOUS
 10
-2.6639043095
 20
-16.8964889487
 11
2.6071057622
 21
-18.8149797193
  0
LWPOLYLINE
  5
3A3
100
AcDbEntity
  8
0
100
AcDbPolyline
 62
250
  6
CONTINUOUS
 90
16
 70
0
 10
4.9421922148
 20
18.6580784894
 10
4.969036077
 20
18.6699530314
 10
4.9936490257
 20
18.6830470802
 10
5.0160310608
 20
18.6973606357
 10
5.0360653799
 20
18.713100079
 10
5.0538687854
 20
18.730059029
 10
5.0697916853
 20
18.7476183429
 10
5.0838135621
 20
18.7655208716
 10
5.0959549332
 20
18.7840237641
 10
5.1066277595
 20
18.8032793246
 10
5.1160087325
 20
18.8231508044
 10
5.1239211606
 20
18.8437749521
 10
5.13024693
 20
18.8657143181
 10
5.1349466693
 20
18.889156419
 10
5.1380597499
 20
18.9139137382
 10
5.1395861718
 20
18.9399862756
  0
LINE
  5
3A4
100
AcDbEntity
  8
0
100
AcDbLine
 62
250
  6
CONTINUOUS
 10
-2.6639043095
 20
15.8896857556
 11
4.9421922148
 21
18.6580784894
  0
LINE
  5
3A5
100
AcDbEntity
  8
0
100
AcDbLine
 62
7
  6
CONTINUOUS
 10
-2.6639043095
 20
15.6781206324
 11
5.0071057622
 21
18.4701399652
  0
LINE
  5
3A6
100
AcDbEntity
  8
0
100
AcDbLine
 62
250
  6
CONTINUOUS
 10
4.9421922148
 20
-19.0783134763
 11
-2.6639043095
 21
-16.3099207425
  0
LINE
  5
3A7
100
AcDbEntity
  8
0
100
AcDbLine
 62
7
  6
CONTINUOUS
 10
5.0071057622
 20
-18.8903749522
 11
-2.6639043095
 21
-16.0983556193
  0
LWPOLYLINE
  5
3A8
100
AcDbEntity
  8
0
100
AcDbPolyline
 62
7
  6
CONTINUOUS
 90
3
 70
0
 43
0.3500000006
 10
-2.5924756393
 20
43.3255952454
 10
-2.663904273
 20
43.1113107605
 10
-2.8067615404
 20
42.8255950928
  0
LWPOLYLINE
  5
3A9
100
AcDbEntity
  8
0
100
AcDbPolyline
 62
250
  6
CONTINUOUS
 90
19
 70
0
 10
-11.2311076115
 20
-21.2074134102
 10
-11.2272780173
 20
-21.2509781951
 10
-11.2199226803
 20
-21.2934149495
 10
-11.2090416005
 20
-21.3347236734
 10
-11.1943890738
 20
-21.3752894056
 10
-11.1762108042
 20
-21.4147271072
 10
-11.1552439042
 20
-21.4518816616
 10
-11.131267543
 20
-21.4866319973
 10
-11.1045025512
 20
-21.5190991858
 10
-11.0763485338
 20
-21.5484913248
 10
-11.0472725281
 20
-21.5743651814
 10
-11.0168074967
 20
-21.5971639885
 10
-10.9849519318
 20
-21.6174255429
 10
-10.9519607665
 20
-21.635369047
 10
-10.9175790676
 20
-21.6507752983
 10
-10.8810405277
 20
-21.6635244866
 10
-10.842089711
 20
-21.6735766752
 10
-10.8009820532
 20
-21.6809718007
 10
-10.7577175545
 20
-21.6857098633
  0
LWPOLYLINE
  5
3AA
100
AcDbEntity
  8
0
100
AcDbPolyline
 62
250
  6
CONTINUOUS
 90
16
 70
0
 10
-11.2311076115
 20
20.7871784232
 10
-11.3457203161
 20
17.7891049513
 10
-11.4426699721
 20
14.879295257
 10
-11.5219565795
 20
12.0577493403
 10
-11.5823290902
 20
9.3492404499
 10
-11.6250385522
 20
6.7289953371
 10
-11.6538381095
 20
4.1226942559
 10
-11.6702784414
 20
1.528120281
 10
-11.6728088686
 20
-1.0525096622
 10
-11.6605304962
 20
-3.6868645438
 10
-11.6347351767
 20
-6.3808022449
 10
-11.5941310575
 20
-9.1284648842
 10
-11.5339436867
 20
-11.9799477878
 10
-11.45258158
 20
-14.9519493976
 10
-11.3516362216
 20
-18.0277712718
 10
-11.2311076115
 20
-21.2074134102
  0
LWPOLYLINE
  5
3AB
100
AcDbEntity
  8
0
100
AcDbPolyline
 62
250
  6
CONTINUOUS
 90
7
 70
0
 10
-10.7752798179
 20
-22.089503261
 10
-10.7760063198
 20
-22.1179772136
 10
-10.7764371837
 20
-22.1417206558
 10
-10.7765676956
 20
-22.1604737517
 10
-10.7763964275
 20
-22.1740312769
 10
-10.7759252533
 20
-22.182244865
 10
-10.7751593294
 20
-22.1850246307
  0
LWPOLYLINE
  5
3AC
100
AcDbEntity
  8
0
100
AcDbPolyline
 62
7
  6
CONTINUOUS
 90
5
 70
0
 10
-3.6627408158
 20
24.2898621935
 10
-3.663264476
 20
24.288129059
 10
-3.6636505236
 20
24.2829574454
 10
-3.6639043095
 20
24.2744795749
 10
-3.6639883421
 20
24.2628997175
  0
LWPOLYLINE
  5
3AD
100
AcDbEntity
  8
0
100
AcDbPolyline
 62
250
  6
CONTINUOUS
 90
7
 70
0
 10
-5.4673947908
 20
-24.67863745
 10
-5.4678203134
 20
-24.6769193968
 10
-5.4681788581
 20
-24.6718105193
 10
-5.4684642925
 20
-24.663398198
 10
-5.4686717344
 20
-24.6518263143
 10
-5.468797636
 20
-24.6372927897
 10
-5.4688398438
 20
-24.6200462002
  0
LINE
  5
3AE
100
AcDbEntity
  8
0
100
AcDbLine
 62
250
  6
CONTINUOUS
 10
-10.7577175545
 20
21.2654748764
 11
-10.7653701269
 21
21.4196812654
  0
LINE
  5
3AF
100
AcDbEntity
  8
0
100
AcDbLine
 62
250
  6
CONTINUOUS
 10
-10.7653701269
 20
21.4196812654
 11
-10.7696227081
 21
21.514996178
  0
LINE
  5
3B0
100
AcDbEntity
  8
0
100
AcDbLine
 62
250
  6
CONTINUOUS
 10
-10.7696227081
 20
21.514996178
 11
-10.7729746931
 21
21.5994194135
  0
LWPOLYLINE
  5
3B1
100
AcDbEntity
  8
0
100
AcDbPolyline
 62
250
  6
CONTINUOUS
 90
8
 70
0
 10
-10.7729746931
 20
21.5994194135
 10
-10.7752797283
 20
21.6692652085
 10
-10.7760062655
 20
21.6977398709
 10
-10.7764371608
 20
21.7214840335
 10
-10.7765676954
 20
21.740237776
 10
-10.7763964387
 20
21.7537958187
 10
-10.7759252627
 20
21.7620097524
 10
-10.7751593217
 20
21.7647896441
  0
LINE
  5
3B2
100
AcDbEntity
  8
0
100
AcDbLine
 62
250
  6
CONTINUOUS
 10
-10.7729748503
 20
-22.0196586
 11
-10.7752798179
 21
-22.089503261
  0
LINE
  5
3B3
100
AcDbEntity
  8
0
100
AcDbLine
 62
250
  6
CONTINUOUS
 10
-10.7696229024
 20
-21.9352356835
 11
-10.7729748503
 21
-22.0196586
  0
LINE
  5
3B4
100
AcDbEntity
  8
0
100
AcDbLine
 62
250
  6
CONTINUOUS
 10
-10.762962944
 20
-21.7894638029
 11
-10.7696229024
 21
-21.9352356835
  0
LINE
  5
3B5
100
AcDbEntity
  8
0
100
AcDbLine
 62
250
  6
CONTINUOUS
 10
-10.7577175545
 20
-21.6857098633
 11
-10.762962944
 21
-21.7894638029
  0
LWPOLYLINE
  5
3B6
100
AcDbEntity
  8
0
100
AcDbPolyline
 62
250
  6
CONTINUOUS
 90
10
 70
0
 10
-2.6639043095
 20
-23.8255875473
 10
-2.6655625819
 20
-23.8182023203
 10
-2.6705191204
 20
-23.8109295133
 10
-2.6787051533
 20
-23.8038908362
 10
-2.6900033464
 20
-23.7972019173
 10
-2.7042340669
 20
-23.7909798212
 10
-2.7211447687
 20
-23.7853386176
 10
-2.7404424332
 20
-23.7803750535
 10
-2.7618104468
 20
-23.7761696895
 10
-2.7848892929
 20
-23.7727931873
  0
LWPOLYLINE
  5
3B7
100
AcDbEntity
  8
0
100
AcDbPolyline
 62
250
  6
CONTINUOUS
 90
5
 70
0
 10
-5.4160859433
 20
-23.6860995682
 10
-5.4163530392
 20
-23.6839405807
 10
-5.4165779553
 20
-23.6775030205
 10
-5.4167567648
 20
-23.6668938336
 10
-5.416886346
 20
-23.6522899198
  0
LINE
  5
3B8
100
AcDbEntity
  8
0
100
AcDbLine
 62
250
  6
CONTINUOUS
 10
-5.4673947908
 20
24.058432924
 11
-5.4681788581
 21
24.1101790454
  0
LINE
  5
3B9
100
AcDbEntity
  8
0
100
AcDbLine
 62
250
  6
CONTINUOUS
 10
-5.4681788581
 20
24.1101790454
 11
-5.4686717344
 21
24.1584001138
  0
LINE
  5
3BA
100
AcDbEntity
  8
0
100
AcDbLine
 62
250
  6
CONTINUOUS
 10
-5.4160859433
 20
23.0158741005
 11
-5.4168843734
 21
23.1408638456
  0
LWPOLYLINE
  5
3BB
100
AcDbEntity
  8
0
100
AcDbPolyline
 62
250
  6
CONTINUOUS
 90
8
 70
0
 10
-5.4686717344
 20
24.1584001138
 10
-5.4688398438
 20
24.1998112103
 10
-5.468797636
 20
24.2170578004
 10
-5.4686717344
 20
24.2315913259
 10
-5.4684642925
 20
24.2431632103
 10
-5.4681788582
 20
24.251575532
 10
-5.4678203134
 20
24.2566844098
 10
-5.4673947908
 20
24.2584024631
  0
LINE
  5
3BC
100
AcDbEntity
  8
0
100
AcDbLine
 62
250
  6
CONTINUOUS
 10
-5.416886346
 20
-23.6522899198
 11
-5.4169894641
 21
-23.6121714446
  0
LINE
  5
3BD
100
AcDbEntity
  8
0
100
AcDbLine
 62
7
  6
CONTINUOUS
 10
-5.6639043095
 20
-24.478667911
 11
-5.6639043095
 21
-22.4528941556
  0
LINE
  5
3BE
100
AcDbEntity
  8
0
100
AcDbLine
 62
7
  6
CONTINUOUS
 10
-5.6639043095
 20
22.0326591687
 11
-5.6639043095
 21
24.058432924
  0
LWPOLYLINE
  5
3BF
100
AcDbEntity
  8
0
100
AcDbPolyline
 62
7
  6
CONTINUOUS
 90
4
 70
0
 43
0.3500000006
 10
-5.6639043388
 20
45.3970270386
 10
-5.6639043388
 20
46.0398804932
 10
-4.1639044476
 20
46.0398804932
 10
-5.0210469189
 20
43.0398841095
  0
LINE
  5
3C0
100
AcDbEntity
  8
0
100
AcDbLine
 62
250
  6
CONTINUOUS
 10
-5.4673947908
 20
-24.478667911
 11
-5.4673947908
 21
-23.6797889159
  0
LINE
  5
3C1
100
AcDbEntity
  8
0
100
AcDbLine
 62
250
  6
CONTINUOUS
 10
-5.4673947908
 20
23.2595918121
 11
-5.4673947908
 21
24.058432924
  0
LINE
  5
3C2
100
AcDbEntity
  8
0
100
AcDbLine
 62
250
  6
CONTINUOUS
 10
-5.4160859433
 20
-23.4361090875
 11
-5.4160859433
 21
-22.4658817659
  0
LINE
  5
3C3
100
AcDbEntity
  8
0
100
AcDbLine
 62
250
  6
CONTINUOUS
 10
-5.4160859433
 20
22.0456467789
 11
-5.4160859433
 21
23.0158741005
  0
LWPOLYLINE
  5
3C4
100
AcDbEntity
  8
0
100
AcDbPolyline
 62
250
  6
CONTINUOUS
 90
7
 70
0
 10
-5.4168843734
 20
23.1408638456
 10
-5.4169630966
 20
23.2141981235
 10
-5.4168843734
 20
23.2323658621
 10
-5.4167546654
 20
23.2468297253
 10
-5.4165761918
 20
23.2573422564
 10
-5.4163520059
 20
23.2637236004
 10
-5.4160859433
 20
23.2658645813
  0
LINE
  5
3C5
100
AcDbEntity
  8
0
100
AcDbLine
 62
250
  6
CONTINUOUS
 10
-5.4169894641
 20
-23.6121714446
 11
-5.4167475029
 21
-23.5303790541
  0
LINE
  5
3C6
100
AcDbEntity
  8
0
100
AcDbLine
 62
250
  6
CONTINUOUS
 10
-5.4688398438
 20
-24.6200462002
 11
-5.4686717344
 21
-24.5786351033
  0
LINE
  5
3C7
100
AcDbEntity
  8
0
100
AcDbLine
 62
250
  6
CONTINUOUS
 10
-5.4167475029
 20
-23.5303790541
 11
-5.4160859433
 21
-23.4361090875
  0
LINE
  5
3C8
100
AcDbEntity
  8
0
100
AcDbLine
 62
250
  6
CONTINUOUS
 10
-5.4686717344
 20
-24.5786351033
 11
-5.4681788582
 21
-24.5304140337
  0
LINE
  5
3C9
100
AcDbEntity
  8
0
100
AcDbLine
 62
250
  6
CONTINUOUS
 10
-5.4681788582
 20
-24.5304140337
 11
-5.4673947908
 21
-24.478667911
  0
LWPOLYLINE
  5
3CA
100
AcDbEntity
  8
0
100
AcDbPolyline
 62
7
  6
CONTINUOUS
 90
5
 70
0
 10
-2.6642679082
 20
-23.7101143203
 10
-2.6645600664
 20
-23.7079737325
 10
-2.6648120006
 20
-23.7015923455
 10
-2.6650198747
 20
-23.6910793429
 10
-2.6651811785
 20
-23.6766145969
  0
LINE
  5
3CB
100
AcDbEntity
  8
0
100
AcDbLine
 62
250
  6
CONTINUOUS
 10
-2.8604138282
 20
-24.4961229759
 11
-2.8596297608
 21
-24.5478690973
  0
LWPOLYLINE
  5
3CC
100
AcDbEntity
  8
0
100
AcDbPolyline
 62
7
  6
CONTINUOUS
 90
5
 70
0
 10
-3.6639883421
 20
24.1902416303
 10
-3.6639043095
 20
24.1668813903
 10
-3.6636505236
 20
24.1420675147
 10
-3.663264476
 20
24.1162448113
 10
-3.6627408158
 20
24.0898520409
  0
LWPOLYLINE
  5
3CD
100
AcDbEntity
  8
0
100
AcDbPolyline
 62
7
  6
CONTINUOUS
 90
3
 70
0
 10
-3.6639883421
 20
24.2628997175
 10
-3.6639043095
 20
24.2313164788
 10
-3.6639883421
 20
24.1902416303
  0
LINE
  5
3CE
100
AcDbEntity
  8
0
100
AcDbLine
 62
7
  6
CONTINUOUS
 10
-3.6639043095
 20
-24.5101073131
 11
-3.6639043095
 21
-23.7013906257
  0
LINE
  5
3CF
100
AcDbEntity
  8
0
100
AcDbLine
 62
7
  6
CONTINUOUS
 10
-3.6639043095
 20
23.2811556387
 11
-3.6639043095
 21
24.0898723261
  0
LWPOLYLINE
  5
3D0
100
AcDbEntity
  8
0
100
AcDbPolyline
 62
7
  6
CONTINUOUS
 90
6
 70
0
 10
-3.6639043095
 20
-24.6515514657
 10
-3.6639883421
 20
-24.6831347045
 10
-3.6639043095
 20
-24.6947145618
 10
-3.6636505236
 20
-24.7031924324
 10
-3.663264476
 20
-24.7083640459
 10
-3.6627408158
 20
-24.7100971805
  0
LINE
  5
3D1
100
AcDbEntity
  8
0
100
AcDbLine
 62
250
  6
CONTINUOUS
 10
-2.8596297608
 20
24.1276341113
 11
-2.8604138282
 21
24.075887989
  0
LWPOLYLINE
  5
3D2
100
AcDbEntity
  8
0
100
AcDbPolyline
 62
7
  6
CONTINUOUS
 90
6
 70
0
 10
-3.6627408158
 20
-24.5100870279
 10
-3.663264476
 20
-24.5364797983
 10
-3.6636505236
 20
-24.5623025017
 10
-3.6639043095
 20
-24.5871163772
 10
-3.6639883421
 20
-24.6104766172
 10
-3.6639043095
 20
-24.6515514657
  0
LINE
  5
3D3
100
AcDbEntity
  8
0
100
AcDbLine
 62
250
  6
CONTINUOUS
 10
-2.8596297608
 20
-24.5478690973
 11
-2.8591368845
 21
-24.5960901657
  0
LINE
  5
3D4
100
AcDbEntity
  8
0
100
AcDbLine
 62
7
  6
CONTINUOUS
 10
-2.6646315208
 20
23.0398729869
 11
-2.6653142742
 21
23.1648709424
  0
LINE
  5
3D5
100
AcDbEntity
  8
0
100
AcDbLine
 62
7
  6
CONTINUOUS
 10
-2.6651811785
 20
-23.6766145969
 11
-2.6653528073
 21
-23.6368832481
  0
LWPOLYLINE
  5
3D6
100
AcDbEntity
  8
0
100
AcDbPolyline
 62
250
  6
CONTINUOUS
 90
8
 70
0
 10
-2.8591368845
 20
-24.5960901657
 10
-2.8589687751
 20
-24.6375012623
 10
-2.8590109829
 20
-24.6547478524
 10
-2.8591368845
 20
-24.669281378
 10
-2.8593443264
 20
-24.6808532623
 10
-2.8596297608
 20
-24.689265584
 10
-2.8599883055
 20
-24.6943744617
 10
-2.8604138282
 20
-24.696092515
  0
LINE
  5
3D7
100
AcDbEntity
  8
0
100
AcDbLine
 62
250
  6
CONTINUOUS
 10
-2.8604138282
 20
-23.7681267231
 11
-2.8604138282
 21
-24.4961229759
  0
LINE
  5
3D8
100
AcDbEntity
  8
0
100
AcDbLine
 62
250
  6
CONTINUOUS
 10
-2.8604138282
 20
23.3478917361
 11
-2.8604138282
 21
24.075887989
  0
LINE
  5
3D9
100
AcDbEntity
  8
0
100
AcDbLine
 62
7
  6
CONTINUOUS
 10
-2.6639043095
 20
-23.4601143168
 11
-2.6639043095
 21
-22.6101174935
  0
LINE
  5
3DA
100
AcDbEntity
  8
0
100
AcDbLine
 62
7
  6
CONTINUOUS
 10
-2.6639043095
 20
-23.8255875473
 11
-2.6639043095
 21
-24.4961229759
  0
LINE
  5
3DB
100
AcDbEntity
  8
0
100
AcDbLine
 62
7
  6
CONTINUOUS
 10
-2.6639043095
 20
-16.8964889487
 11
-2.6639043095
 21
16.4762539618
  0
LINE
  5
3DC
100
AcDbEntity
  8
0
100
AcDbLine
 62
7
  6
CONTINUOUS
 10
-2.6639043095
 20
22.1898825065
 11
-2.6639043095
 21
23.0398793299
  0
LINE
  5
3DD
100
AcDbEntity
  8
0
100
AcDbLine
 62
7
  6
CONTINUOUS
 10
-2.6639043095
 20
23.4053525604
 11
-2.6639043095
 21
24.075887989
  0
LINE
  5
3DE
100
AcDbEntity
  8
0
100
AcDbLine
 62
7
  6
CONTINUOUS
 10
-2.6653142742
 20
23.1648709424
 11
-2.6653528073
 21
23.2166482611
  0
LINE
  5
3DF
100
AcDbEntity
  8
0
100
AcDbLine
 62
7
  6
CONTINUOUS
 10
-2.6653528073
 20
-23.6368832481
 11
-2.6652162751
 21
-23.5557768938
  0
LINE
  5
3E0
100
AcDbEntity
  8
0
100
AcDbLine
 62
250
  6
CONTINUOUS
 10
-2.8589687751
 20
24.2172662781
 11
-2.8591368845
 21
24.1758551809
  0
LWPOLYLINE
  5
3E1
100
AcDbEntity
  8
0
100
AcDbPolyline
 62
7
  6
CONTINUOUS
 90
6
 70
0
 10
-2.6653528073
 20
23.2166482611
 10
-2.6651811785
 20
23.25637961
 10
-2.6650198747
 20
23.270844356
 10
-2.6648120006
 20
23.2813573585
 10
-2.6645600664
 20
23.2877387456
 10
-2.6642679082
 20
23.2898793334
  0
LINE
  5
3E2
100
AcDbEntity
  8
0
100
AcDbLine
 62
7
  6
CONTINUOUS
 10
-2.6652162751
 20
-23.5557768938
 11
-2.6646315208
 21
-23.4601079739
  0
LINE
  5
3E3
100
AcDbEntity
  8
0
100
AcDbLine
 62
250
  6
CONTINUOUS
 10
-2.8591368845
 20
24.1758551809
 11
-2.8596297608
 21
24.1276341113
  0
LINE
  5
3E4
100
AcDbEntity
  8
0
100
AcDbLine
 62
7
  6
CONTINUOUS
 10
-0.1639043095
 20
-21.8763536012
 11
-0.1639043095
 21
-23.7101174935
  0
LINE
  5
3E5
100
AcDbEntity
  8
0
100
AcDbLine
 62
7
  6
CONTINUOUS
 10
-0.1639043095
 20
21.4561186143
 11
-0.1639043095
 21
23.2898825065
  0
LWPOLYLINE
  5
3E6
100
AcDbEntity
  8
0
100
AcDbPolyline
 62
7
  6
CONTINUOUS
 90
4
 70
0
 43
0.3500000006
 10
0.1575242617
 20
35.4684551697
 10
0.1575242617
 20
36.325597641
 10
0.586095692
 20
36.7541666107
 10
1.2289528642
 20
36.7541666107
  0
LINE
  5
3E7
100
AcDbEntity
  8
0
100
AcDbLine
 62
7
  6
CONTINUOUS
 10
1.3360956905
 20
20.9898825065
 11
1.2959490412
 21
23.2898825065
  0
LINE
  5
3E8
100
AcDbEntity
  8
0
100
AcDbLine
 62
7
  6
CONTINUOUS
 10
1.3360956905
 20
-21.4101174935
 11
1.2959490412
 21
-23.7101174935
  0
LINE
  5
3E9
100
AcDbEntity
  8
0
100
AcDbLine
 62
7
  6
CONTINUOUS
 10
2.9535454389
 20
-22.409812907
 11
2.9360956905
 21
-21.4101174935
  0
LINE
  5
3EA
100
AcDbEntity
  8
0
100
AcDbLine
 62
7
  6
CONTINUOUS
 10
2.9360956905
 20
-20.9150230813
 11
2.9360956905
 21
-19.2848260297
  0
LINE
  5
3EB
100
AcDbEntity
  8
0
100
AcDbLine
 62
7
  6
CONTINUOUS
 10
3.1360956905
 20
20.4598825065
 11
3.1360956905
 21
18.9373850896
  0
LINE
  5
3EC
100
AcDbEntity
  8
0
100
AcDbLine
 62
7
  6
CONTINUOUS
 10
2.9360956905
 20
20.9898825065
 11
2.9535454389
 21
21.98957792
  0
LWPOLYLINE
  5
3ED
100
AcDbEntity
  8
0
100
AcDbPolyline
 62
250
  6
CONTINUOUS
 90
7
 70
0
 10
-2.8604138282
 20
24.275857528
 10
-2.8599883055
 20
24.2741394748
 10
-2.8596297608
 20
24.2690305973
 10
-2.8593443265
 20
24.260618276
 10
-2.8591368845
 20
24.2490463922
 10
-2.8590109829
 20
24.2345128676
 10
-2.8589687751
 20
24.2172662781
  0
LWPOLYLINE
  5
3EE
100
AcDbEntity
  8
0
100
AcDbPolyline
 62
250
  6
CONTINUOUS
 90
16
 70
0
 10
5.1395861718
 20
-19.3602212626
 10
5.1376085008
 20
-19.33093297
 10
5.1337217991
 20
-19.3033243865
 10
5.1279260669
 20
-19.2773955122
 10
5.1199873679
 20
-19.2531855936
 10
5.1101396384
 20
-19.2306553842
 10
5.0990846864
 20
-19.2096871437
 10
5.0870571782
 20
-19.1903880715
 10
5.0738224476
 20
-19.1726509683
 10
5.0593783037
 20
-19.1560364963
 10
5.043913615
 20
-19.1404253491
 10
5.027239513
 20
-19.1259368331
 10
5.0087872017
 20
-19.1124895297
 10
4.9883670822
 20
-19.1000562993
 10
4.9661687532
 20
-19.0886642815
 10
4.9421922148
 20
-19.0783134763
  0
LINE
  5
3EF
100
AcDbEntity
  8
0
100
AcDbLine
 62
250
  6
CONTINUOUS
 10
5.0360956905
 20
19.3898825065
 11
5.0360956905
 21
20.1898825065
  0
LINE
  5
3F0
100
AcDbEntity
  8
0
100
AcDbLine
 62
250
  6
CONTINUOUS
 10
5.1395861718
 20
-19.7101174935
 11
5.1395861718
 21
-19.3602212626
  0
LINE
  5
3F1
100
AcDbEntity
  8
0
100
AcDbLine
 62
250
  6
CONTINUOUS
 10
5.1395861718
 20
18.9399862756
 11
5.1395861718
 21
19.3898825065
  0
LINE
  5
3F2
100
AcDbEntity
  8
0
100
AcDbLine
 62
7
  6
CONTINUOUS
 10
5.3360956905
 20
-20.5799400512
 11
5.3360956905
 21
-20.3602212626
  0
LINE
  5
3F3
100
AcDbEntity
  8
0
100
AcDbLine
 62
7
  6
CONTINUOUS
 10
5.3360956905
 20
-20.6101174935
 11
5.3360956905
 21
-21.2893710666
  0
LINE
  5
3F4
100
AcDbEntity
  8
0
100
AcDbLine
 62
7
  6
CONTINUOUS
 10
5.3360956905
 20
-19.8101174935
 11
5.3360956905
 21
-19.3602212626
  0
LINE
  5
3F5
100
AcDbEntity
  8
0
100
AcDbLine
 62
7
  6
CONTINUOUS
 10
5.3360956905
 20
18.9399862756
 11
5.3360956905
 21
20.8691360796
  0
LWPOLYLINE
  5
3F6
100
AcDbEntity
  8
0
100
AcDbPolyline
 62
250
  6
CONTINUOUS
 90
6
 70
0
 10
4.994943913
 20
-18.9296084346
 10
4.9995450463
 20
-18.915926261
 10
5.0031130264
 20
-18.9050015332
 10
5.0055872686
 20
-18.8970197614
 10
5.0069257566
 20
-18.8921164806
 10
5.0071057622
 20
-18.8903749522
  0
LINE
  5
3F7
100
AcDbEntity
  8
0
100
AcDbLine
 62
250
  6
CONTINUOUS
 10
4.9829709052
 20
-18.9642729041
 11
4.994943913
 21
-18.9296084346
  0
LWPOLYLINE
  5
3F8
100
AcDbEntity
  8
0
100
AcDbPolyline
 62
250
  6
CONTINUOUS
 90
5
 70
0
 10
-2.8604138282
 20
23.3478917361
 10
-2.8492648575
 20
23.3303794261
 10
-2.8382686814
 20
23.3137272993
 10
-2.8275580473
 20
23.2981400956
 10
-2.8206422127
 20
23.2885146756
  0
LWPOLYLINE
  5
3F9
100
AcDbEntity
  8
0
100
AcDbPolyline
 62
250
  6
CONTINUOUS
 90
7
 70
0
 10
4.9829699236
 20
18.5440407114
 10
4.9949432121
 20
18.5093754844
 10
4.9995445482
 20
18.4956927479
 10
5.003112717
 20
18.4847674666
 10
5.0055871061
 20
18.4767852216
 10
5.0069256809
 20
18.471881604
 10
5.0071056905
 20
18.4701399391
  0
LINE
  5
3FA
100
AcDbEntity
  8
0
100
AcDbLine
 62
250
  6
CONTINUOUS
 10
4.9680037799
 20
-19.0066504298
 11
4.9829709052
 21
-18.9642729041
  0
LWPOLYLINE
  5
3FB
100
AcDbEntity
  8
0
100
AcDbPolyline
 62
250
  6
CONTINUOUS
 90
3
 70
0
 10
4.9421922148
 20
-19.0783134763
 10
4.9510548137
 20
-19.0538748316
 10
4.9680037799
 20
-19.0066504298
  0
LWPOLYLINE
  5
3FC
100
AcDbEntity
  8
0
100
AcDbPolyline
 62
250
  6
CONTINUOUS
 90
5
 70
0
 10
-2.8206422127
 20
-23.7087496625
 10
-2.8275580473
 20
-23.7183750826
 10
-2.8382686814
 20
-23.7339622863
 10
-2.8492648575
 20
-23.750614413
 10
-2.8604138282
 20
-23.7681267231
  0
LINE
  5
3FD
100
AcDbEntity
  8
0
100
AcDbLine
 62
250
  6
CONTINUOUS
 10
4.9421922148
 20
18.6580784894
 11
4.9597069095
 21
18.6096182429
  0
LWPOLYLINE
  5
3FE
100
AcDbEntity
  8
0
100
AcDbPolyline
 62
250
  6
CONTINUOUS
 90
3
 70
0
 10
4.9597069095
 20
18.6096182429
 10
4.9758013309
 20
18.5644344458
 10
4.9829699236
 20
18.5440407114
  0
LINE
  5
3FF
100
AcDbEntity
  8
0
100
AcDbLine
 62
250
  6
CONTINUOUS
 10
5.1395861718
 20
18.9399862756
 11
5.3360956905
 21
18.9399862756
  0
LINE
  5
400
100
AcDbEntity
  8
0
100
AcDbLine
 62
7
  6
CONTINUOUS
 10
3.1360956905
 20
19.3898825065
 11
5.3360956905
 21
19.3898825065
  0
LINE
  5
401
100
AcDbEntity
  8
0
100
AcDbLine
 62
7
  6
CONTINUOUS
 10
3.1360956905
 20
20.1898825065
 11
5.3359166645
 21
20.1898825065
  0
LWPOLYLINE
  5
402
100
AcDbEntity
  8
0
100
AcDbPolyline
 62
250
  6
CONTINUOUS
 90
3
 70
0
 10
-11.2311076115
 20
20.7871784232
 10
-11.7192647754
 20
20.8080462456
 10
-11.7219394434
 20
20.8081967374
  0
LWPOLYLINE
  5
403
100
AcDbEntity
  8
0
100
AcDbPolyline
 62
7
  6
CONTINUOUS
 90
10
 70
0
 43
0.3500000006
 10
-2.663904273
 20
43.5398842621
 10
-2.5924756393
 20
43.3970264282
 10
-2.5924756393
 20
43.3255952454
 10
-2.7353329067
 20
43.1827374115
 10
-2.8067615404
 20
43.1827374115
 10
-2.8781898909
 20
43.2541685944
 10
-2.8781898909
 20
43.3255952454
 10
-2.8067615404
 20
43.4684530792
 10
-2.7353329067
 20
43.5398842621
 10
-2.663904273
 20
43.5398842621
  0
LWPOLYLINE
  5
404
100
AcDbEntity
  8
0
100
AcDbPolyline
 62
250
  6
CONTINUOUS
 90
19
 70
0
 10
-10.7577175545
 20
21.2654748764
 10
-10.803653225
 20
21.2607637849
 10
-10.8481207049
 20
21.2522767459
 10
-10.8911199942
 20
21.2400137591
 10
-10.9331288428
 20
21.2235653984
 10
-10.9736695008
 20
21.2033410899
 10
-11.0113087181
 20
21.180569113
 10
-11.0457165079
 20
21.155111815
 10
-11.077222857
 20
21.1271068485
 10
-11.1053844754
 20
21.0981954509
 10
-11.129760349
 20
21.0689779654
 10
-11.150791492
 20
21.0388540488
 10
-11.1693576563
 20
21.0076639085
 10
-11.1857388327
 20
20.9757481456
 10
-11.1996550305
 20
20.942766159
 10
-11.2111460293
 20
20.907536353
 10
-11.220225089
 20
20.8696648624
 10
-11.2268789497
 20
20.8295455525
 10
-11.2311076115
 20
20.7871784232
  0
LINE
  5
405
100
AcDbEntity
  8
0
100
AcDbLine
 62
250
  6
CONTINUOUS
 10
-0.1639043095
 20
21.8206731027
 11
-10.7577175545
 21
21.2654748764
  0
LINE
  5
406
100
AcDbEntity
  8
0
100
AcDbLine
 62
7
  6
CONTINUOUS
 10
-0.1639043095
 20
22.3209019547
 11
-10.7751593294
 21
21.7647896437
  0
LINE
  5
407
100
AcDbEntity
  8
0
100
AcDbLine
 62
7
  6
CONTINUOUS
 10
2.9360956905
 20
20.9898825065
 11
1.3360956905
 21
20.9898825065
  0
LINE
  5
408
100
AcDbEntity
  8
0
100
AcDbLine
 62
7
  6
CONTINUOUS
 10
2.9535454389
 20
21.98957792
 11
3.4532468127
 21
21.9808556001
  0
LINE
  5
409
100
AcDbEntity
  8
0
100
AcDbLine
 62
7
  6
CONTINUOUS
 10
0.2501311404
 20
20.9635639512
 11
3.1360956905
 21
20.4598825065
  0
LINE
  5
40A
100
AcDbEntity
  8
0
100
AcDbLine
 62
7
  6
CONTINUOUS
 10
3.4532468127
 20
-22.4010905871
 11
5.2292449771
 21
-21.4663547111
  0
LWPOLYLINE
  5
40B
100
AcDbEntity
  8
0
100
AcDbPolyline
 62
250
  6
CONTINUOUS
 90
10
 70
0
 10
-2.7848892929
 20
23.3525582004
 10
-2.7618104468
 20
23.3559347026
 10
-2.7404424332
 20
23.3601400666
 10
-2.7211447687
 20
23.3651036306
 10
-2.7042340669
 20
23.3707448343
 10
-2.6900033464
 20
23.3769669303
 10
-2.6787051533
 20
23.3836558492
 10
-2.6705191204
 20
23.3906945264
 10
-2.6655625819
 20
23.3979673333
 10
-2.6639043095
 20
23.4053525604
  0
LWPOLYLINE
  5
40C
100
AcDbEntity
  8
0
100
AcDbPolyline
 62
250
  6
CONTINUOUS
 90
4
 70
0
 10
-2.8604138282
 20
23.3478917361
 10
-2.8346076948
 20
23.3485028974
 10
-2.8092913481
 20
23.3500670778
 10
-2.7848892929
 20
23.3525582004
  0
LINE
  5
40D
100
AcDbEntity
  8
0
100
AcDbLine
 62
250
  6
CONTINUOUS
 10
-5.4673947908
 20
24.058432924
 11
-3.6639043095
 21
24.0898723261
  0
LINE
  5
40E
100
AcDbEntity
  8
0
100
AcDbLine
 62
7
  6
CONTINUOUS
 10
-5.4673947908
 20
24.2584024631
 11
-3.6639043095
 21
24.2898825065
  0
LWPOLYLINE
  5
40F
100
AcDbEntity
  8
0
100
AcDbPolyline
 62
7
  6
CONTINUOUS
 90
13
 70
0
 10
-2.8604138282
 20
23.7919409363
 10
-2.8350253329
 20
23.7922674673
 10
-2.8099849007
 20
23.7930447489
 10
-2.7857126175
 20
23.7942727811
 10
-2.7625924628
 20
23.7959867596
 10
-2.7410707252
 20
23.7981514887
 10
-2.7216202419
 20
23.8006613813
 10
-2.7045886962
 20
23.803535603
 10
-2.6902453768
 20
23.8067549883
 10
-2.678849271
 20
23.8101564523
 10
-2.6705864253
 20
23.8136856336
 10
-2.6655801404
 20
23.8173968938
 10
-2.6639043095
 20
23.8212902328
  0
LINE
  5
410
100
AcDbEntity
  8
0
100
AcDbLine
 62
250
  6
CONTINUOUS
 10
-2.6639043095
 20
23.0398793299
 11
-5.4160859433
 21
23.0158741005
  0
LINE
  5
411
100
AcDbEntity
  8
0
100
AcDbLine
 62
7
  6
CONTINUOUS
 10
-2.6639043095
 20
23.2898825065
 11
-5.4160859433
 21
23.2658645813
  0
LINE
  5
412
100
AcDbEntity
  8
0
100
AcDbLine
 62
7
  6
CONTINUOUS
 10
-2.8604138282
 20
23.7919409363
 11
-3.6639043095
 21
23.7898825065
  0
LINE
  5
413
100
AcDbEntity
  8
0
100
AcDbLine
 62
250
  6
CONTINUOUS
 10
-5.6639043095
 20
23.0158741005
 11
-5.4160859433
 21
23.0158741005
  0
LINE
  5
414
100
AcDbEntity
  8
0
100
AcDbLine
 62
250
  6
CONTINUOUS
 10
-0.1639043095
 20
23.0398825065
 11
-2.6639043095
 21
23.0398825065
  0
LINE
  5
415
100
AcDbEntity
  8
0
100
AcDbLine
 62
250
  6
CONTINUOUS
 10
-0.1639043095
 20
23.0898825065
 11
1.2994400542
 21
23.0898825065
  0
LINE
  5
416
100
AcDbEntity
  8
0
100
AcDbLine
 62
7
  6
CONTINUOUS
 10
1.2959490412
 20
23.2898825065
 11
-2.6639043095
 21
23.2898825065
  0
LINE
  5
417
100
AcDbEntity
  8
0
100
AcDbLine
 62
250
  6
CONTINUOUS
 10
-5.6639043095
 20
24.058432924
 11
-5.4673947908
 21
24.058432924
  0
LINE
  5
418
100
AcDbEntity
  8
0
100
AcDbLine
 62
250
  6
CONTINUOUS
 10
-2.6639043095
 20
24.075887989
 11
-2.8604138282
 21
24.075887989
  0
LWPOLYLINE
  5
419
100
AcDbEntity
  8
0
100
AcDbPolyline
 62
7
  6
CONTINUOUS
 90
8
 70
0
 43
0.3500000006
 10
-1.592475759
 20
43.0398841095
 10
-0.7353328629
 20
43.0398841095
 10
-0.3067614502
 20
43.4684530792
 10
-0.3067614502
 20
44.3255955505
 10
-0.7353328629
 20
44.7541690521
 10
-1.592475759
 20
44.7541690521
 10
-1.592475759
 20
46.0398804932
 10
-0.3067614502
 20
46.0398804932
  0
LINE
  5
41A
100
AcDbEntity
  8
0
100
AcDbLine
 62
7
  6
CONTINUOUS
 10
-3.6639043095
 20
23.7898825065
 11
-5.4673947908
 21
23.7945027959
  0
LWPOLYLINE
  5
41B
100
AcDbEntity
  8
0
100
AcDbPolyline
 62
7
  6
CONTINUOUS
 90
13
 70
0
 10
-5.4673947908
 20
23.7945027959
 10
-5.492783286
 20
23.7947835558
 10
-5.5178237182
 20
23.7955646953
 10
-5.5420960015
 20
23.7968346407
 10
-5.5652161561
 20
23.7985378581
 10
-5.5867378937
 20
23.800661415
 10
-5.606188377
 20
23.8032232408
 10
-5.6232199227
 20
23.8061155338
 10
-5.6375632421
 20
23.809266619
 10
-5.6489593479
 20
23.8127183119
 10
-5.6572221936
 20
23.8164048206
 10
-5.6622284785
 20
23.8201571754
 10
-5.6639043095
 20
23.8238520924
  0
LINE
  5
41C
100
AcDbEntity
  8
0
100
AcDbLine
 62
250
  6
CONTINUOUS
 10
-3.6639043095
 20
24.0898723025
 11
-2.8604138282
 21
24.075887989
  0
LINE
  5
41D
100
AcDbEntity
  8
0
100
AcDbLine
 62
7
  6
CONTINUOUS
 10
-3.6639043095
 20
24.2898825065
 11
-2.8604138282
 21
24.275857528
  0
LINE
  5
41E
100
AcDbEntity
  8
0
100
AcDbLine
 62
7
  6
CONTINUOUS
 10
5.2292449771
 20
21.0461197241
 11
3.4532468127
 21
21.9808556001
  0
LWPOLYLINE
  5
41F
100
AcDbEntity
  8
0
100
AcDbPolyline
 62
7
  6
CONTINUOUS
 90
13
 70
0
 43
0.3500000006
 10
0.586095692
 20
36.7541666107
 10
0.3003814051
 20
36.9684556274
 10
0.3003814051
 20
37.611309082
 10
0.586095692
 20
38.0398825836
 10
1.2289528642
 20
38.0398825836
 10
1.5146671157
 20
37.611309082
 10
1.5146671157
 20
36.9684556274
 10
1.2289528642
 20
36.7541666107
 10
1.6575242414
 20
36.325597641
 10
1.6575242414
 20
35.4684551697
 10
1.2289528642
 20
35.0398816681
 10
0.586095692
 20
35.0398816681
 10
0.1575242617
 20
35.4684551697
  0
ARC
  5
420
100
AcDbEntity
  8
0
100
AcDbCircle
 62
7
  6
CONTINUOUS
 10
41.9987149151
 20
-0.2101174935
 40
28.0
100
AcDbArc
 50
233.1301023542
 51
233.679123238
  0
ARC
  5
421
100
AcDbEntity
  8
0
100
AcDbCircle
 62
7
  6
CONTINUOUS
 10
41.9987149151
 20
-0.2101174935
 40
28.0
100
AcDbArc
 50
236.2370179485
 51
237.0647695028
  0
ARC
  5
422
100
AcDbEntity
  8
0
100
AcDbCircle
 62
7
  6
CONTINUOUS
 10
41.9987149151
 20
-0.2101174935
 40
28.0
100
AcDbArc
 50
122.9497949937
 51
123.7629820411
  0
ARC
  5
423
100
AcDbEntity
  8
0
100
AcDbCircle
 62
7
  6
CONTINUOUS
 10
41.9987149151
 20
-0.2101174935
 40
28.0
100
AcDbArc
 50
126.3208767516
 51
126.8698976458
  0
ARC
  5
424
100
AcDbEntity
  8
0
100
AcDbCircle
 62
7
  6
CONTINUOUS
 10
41.9987149151
 20
-0.2101174935
 40
27.9759820747
100
AcDbArc
 50
232.7054498086
 51
233.6524426628
  0
ARC
  5
425
100
AcDbEntity
  8
0
100
AcDbCircle
 62
7
  6
CONTINUOUS
 10
41.9987149151
 20
-0.2101174935
 40
27.9759820747
100
AcDbArc
 50
236.2636985341
 51
237.0502319809
  0
ARC
  5
426
100
AcDbEntity
  8
0
100
AcDbCircle
 62
7
  6
CONTINUOUS
 10
41.9987149151
 20
-0.2101174935
 40
27.9759820747
100
AcDbArc
 50
122.9497680191
 51
123.7363014659
  0
ARC
  5
427
100
AcDbEntity
  8
0
100
AcDbCircle
 62
7
  6
CONTINUOUS
 10
41.9987149151
 20
-0.2101174935
 40
27.9759820747
100
AcDbArc
 50
126.3475573372
 51
127.2945501914
  0
ARC
  5
428
100
AcDbEntity
  8
0
100
AcDbCircle
 62
250
  6
CONTINUOUS
 10
41.9987149151
 20
-0.2101174935
 40
27.725991594
100
AcDbArc
 50
126.2732247921
 51
126.6558830335
  0
ARC
  5
429
100
AcDbEntity
  8
0
100
AcDbCircle
 62
250
  6
CONTINUOUS
 10
41.9987149151
 20
-0.2101174935
 40
27.725991594
100
AcDbArc
 50
123.1022344445
 51
123.8106340075
  0
ARC
  5
42A
100
AcDbEntity
  8
0
100
AcDbCircle
 62
250
  6
CONTINUOUS
 10
41.9987149151
 20
-0.2101174935
 40
27.725991594
100
AcDbArc
 50
236.1893659858
 51
236.8977655555
  0
ARC
  5
42B
100
AcDbEntity
  8
0
100
AcDbCircle
 62
250
  6
CONTINUOUS
 10
41.9987149151
 20
-0.2101174935
 40
27.725991594
100
AcDbArc
 50
233.3441169665
 51
233.7267752042
  0
ARC
  5
42C
100
AcDbEntity
  8
0
100
AcDbCircle
 62
250
  6
CONTINUOUS
 10
25.7987149151
 20
22.8898825065
 40
0.7744428455
100
AcDbArc
 50
254.7495595988
 51
355.3342993702
  0
ARC
  5
42D
100
AcDbEntity
  8
0
100
AcDbCircle
 62
250
  6
CONTINUOUS
 10
25.7987149151
 20
-23.3101174935
 40
0.7744428455
100
AcDbArc
 50
4.6657009547
 51
105.2504405778
  0
ARC
  5
42E
100
AcDbEntity
  8
0
100
AcDbCircle
 62
7
  6
CONTINUOUS
 10
25.7987149151
 20
22.8898825065
 40
0.5744504609
100
AcDbArc
 50
254.7495594089
 51
355.3342993941
  0
ARC
  5
42F
100
AcDbEntity
  8
0
100
AcDbCircle
 62
7
  6
CONTINUOUS
 10
25.7987149151
 20
-23.3101174935
 40
0.5744504609
100
AcDbArc
 50
4.6657006059
 51
105.2504405911
  0
ARC
  5
430
100
AcDbEntity
  8
0
100
AcDbCircle
 62
7
  6
CONTINUOUS
 10
25.7987149151
 20
22.8898825065
 40
0.55
100
AcDbArc
 50
249.2158670906
 51
0.8679906804
  0
ARC
  5
431
100
AcDbEntity
  8
0
100
AcDbCircle
 62
7
  6
CONTINUOUS
 10
25.7987149151
 20
-23.3101174935
 40
0.55
100
AcDbArc
 50
359.1320082875
 51
110.7841318773
  0
ARC
  5
432
100
AcDbEntity
  8
0
100
AcDbCircle
 62
7
  6
CONTINUOUS
 10
-10.7228233731
 20
-21.1863950959
 40
1.0
100
AcDbArc
 50
182.4092313014
 51
267.0
  0
ARC
  5
433
100
AcDbEntity
  8
0
100
AcDbCircle
 62
7
  6
CONTINUOUS
 10
4.8360956905
 20
-19.3602212626
 40
0.5
100
AcDbArc
 50
0.0
 51
70.0
  0
ARC
  5
434
100
AcDbEntity
  8
0
100
AcDbCircle
 62
7
  6
CONTINUOUS
 10
4.8360956905
 20
-20.3602212626
 40
0.5
100
AcDbArc
 50
0.0
 51
70.0
  0
ARC
  5
435
100
AcDbEntity
  8
0
100
AcDbCircle
 62
7
  6
CONTINUOUS
 10
0.3360956905
 20
-21.8763536012
 40
0.5
100
AcDbArc
 50
99.9
 51
180.0
  0
ARC
  5
436
100
AcDbEntity
  8
0
100
AcDbCircle
 62
7
  6
CONTINUOUS
 10
2.4360956905
 20
-19.2848260297
 40
0.5
100
AcDbArc
 50
0.0
 51
70.0
  0
ARC
  5
437
100
AcDbEntity
  8
0
100
AcDbCircle
 62
7
  6
CONTINUOUS
 10
-5.4139043095
 20
-23.4361090875
 40
0.25
100
AcDbArc
 50
180.0
 51
269.5
  0
ARC
  5
438
100
AcDbEntity
  8
0
100
AcDbCircle
 62
7
  6
CONTINUOUS
 10
3.1860956905
 20
-20.5111601505
 40
0.25
100
AcDbArc
 50
180.0
 51
269.5
  0
ARC
  5
439
100
AcDbEntity
  8
0
100
AcDbCircle
 62
7
  6
CONTINUOUS
 10
3.1860956905
 20
-19.9601174935
 40
0.25
100
AcDbArc
 50
90.0
 51
180.0
  0
ARC
  5
43A
100
AcDbEntity
  8
0
100
AcDbCircle
 62
7
  6
CONTINUOUS
 10
5.1360956905
 20
-21.2893710666
 40
0.2
100
AcDbArc
 50
297.7585406011
 51
360.0
  0
ARC
  5
43B
100
AcDbEntity
  8
0
100
AcDbCircle
 62
7
  6
CONTINUOUS
 10
-5.4639043095
 20
-24.478667911
 40
0.2
100
AcDbArc
 50
180.0
 51
269.0
  0
ARC
  5
43C
100
AcDbEntity
  8
0
100
AcDbCircle
 62
7
  6
CONTINUOUS
 10
-2.8639043095
 20
-24.4961229759
 40
0.2
100
AcDbArc
 50
271.0
 51
360.0
  0
ARC
  5
43D
100
AcDbEntity
  8
0
100
AcDbCircle
 62
7
  6
CONTINUOUS
 10
-2.8639043095
 20
-23.8255875473
 40
0.2
100
AcDbArc
 50
0.0
 51
35.4394549231
  0
ARC
  5
43E
100
AcDbEntity
  8
0
100
AcDbCircle
 62
7
  6
CONTINUOUS
 10
-10.7228233731
 20
20.766160109
 40
1.0
100
AcDbArc
 50
93.0
 51
177.5907686986
  0
ARC
  5
43F
100
AcDbEntity
  8
0
100
AcDbCircle
 62
7
  6
CONTINUOUS
 10
4.8360956905
 20
18.9399862756
 40
0.5
100
AcDbArc
 50
290.0
 51
360.0
  0
ARC
  5
440
100
AcDbEntity
  8
0
100
AcDbCircle
 62
7
  6
CONTINUOUS
 10
0.3360956905
 20
21.4561186143
 40
0.5
100
AcDbArc
 50
180.0
 51
260.1
  0
ARC
  5
441
100
AcDbEntity
  8
0
100
AcDbCircle
 62
7
  6
CONTINUOUS
 10
2.6360956905
 20
18.9373850896
 40
0.5
100
AcDbArc
 50
290.0
 51
360.0
  0
ARC
  5
442
100
AcDbEntity
  8
0
100
AcDbCircle
 62
7
  6
CONTINUOUS
 10
-5.4139043095
 20
23.0158741005
 40
0.25
100
AcDbArc
 50
90.5
 51
180.0
  0
ARC
  5
443
100
AcDbEntity
  8
0
100
AcDbCircle
 62
7
  6
CONTINUOUS
 10
5.1360956905
 20
20.8691360796
 40
0.2
100
AcDbArc
 50
0.0
 51
62.2414593989
  0
ARC
  5
444
100
AcDbEntity
  8
0
100
AcDbCircle
 62
7
  6
CONTINUOUS
 10
-5.4639043095
 20
24.058432924
 40
0.2
100
AcDbArc
 50
91.0
 51
180.0
  0
ARC
  5
445
100
AcDbEntity
  8
0
100
AcDbCircle
 62
7
  6
CONTINUOUS
 10
-2.8639043095
 20
24.075887989
 40
0.2
100
AcDbArc
 50
0.0
 51
89.0
  0
ARC
  5
446
100
AcDbEntity
  8
0
100
AcDbCircle
 62
7
  6
CONTINUOUS
 10
-2.8639043095
 20
23.4053525604
 40
0.2
100
AcDbArc
 50
324.5605450769
 51
360.0
  0
ARC
  5
447
100
AcDbEntity
  8
0
100
AcDbCircle
 62
7
  6
CONTINUOUS
 10
487.8360956905
 20
-0.2101174935
 40
500.0
100
AcDbArc
 50
177.5907686986
 51
182.4092313014
  0
ELLIPSE
  5
448
100
AcDbEntity
  8
0
100
AcDbEllipse
 62
7
  6
CONTINUOUS
 10
20.1162461441
 20
-22.0570235412
 30
0.0
 11
0.1582391023
 21
0.4751033573
 31
0.0
 40
0.9984778551
 41
1.8927600658
 42
3.4626430041
  0
ELLIPSE
  5
449
100
AcDbEntity
  8
0
100
AcDbEllipse
 62
7
  6
CONTINUOUS
 10
20.1162461441
 20
21.6367885542
 30
0.0
 11
-0.1582391023
 21
0.4751033573
 31
0.0
 40
0.9984778551
 41
-0.3210503505
 42
1.2488325878
  0
ELLIPSE
  5
44A
100
AcDbEntity
  8
0
100
AcDbEllipse
 62
7
  6
CONTINUOUS
 10
23.9165348414
 20
22.1794009507
 30
0.0
 11
0.2
 21
0.0
 31
0.0
 40
0.0524077793
 41
1.5707963268
 42
2.9670597284
  0
ELLIPSE
  5
44B
100
AcDbEntity
  8
0
100
AcDbEllipse
 62
7
  6
CONTINUOUS
 10
23.9165348414
 20
-22.5996359376
 30
0.0
 11
0.2
 21
0.0
 31
0.0
 40
0.0524077793
 41
-2.9670597284
 42
-1.5707963268
  0
ELLIPSE
  5
44C
100
AcDbEntity
  8
0
100
AcDbEllipse
 62
7
  6
CONTINUOUS
 10
19.6022059281
 20
-19.4359705865
 30
0.0
 11
0.0
 21
0.2
 31
0.0
 40
0.0174550649
 41
-4.7123889804
 42
-3.3161255788
  0
ELLIPSE
  5
44D
100
AcDbEntity
  8
0
100
AcDbEllipse
 62
7
  6
CONTINUOUS
 10
19.6022059281
 20
19.0157355996
 30
0.0
 11
-0.0
 21
0.2
 31
0.0
 40
0.0174550649
 41
0.1745329252
 42
1.5707963268
  0
ELLIPSE
  5
44E
100
AcDbEntity
  8
0
100
AcDbEllipse
 62
7
  6
CONTINUOUS
 10
30.7010801099
 20
-21.8763536012
 30
0.0
 11
0.0
 21
0.5
 31
0.0
 40
0.0174550649
 41
0.1727875959
 42
1.5707963268
  0
ELLIPSE
  5
44F
100
AcDbEntity
  8
0
100
AcDbEllipse
 62
7
  6
CONTINUOUS
 10
30.7010801099
 20
21.4561186143
 30
0.0
 11
0.0
 21
0.5
 31
0.0
 40
0.0174550649
 41
-4.7123889804
 42
-3.3143802495
  0
ELLIPSE
  5
450
100
AcDbEntity
  8
0
100
AcDbEllipse
 62
7
  6
CONTINUOUS
 10
30.7412267593
 20
18.9373850896
 30
0.0
 11
0.0
 21
0.5
 31
0.0
 40
0.0174550649
 41
-2.7925268032
 42
-1.5707963268
  0
ELLIPSE
  5
451
100
AcDbEntity
  8
0
100
AcDbEllipse
 62
7
  6
CONTINUOUS
 10
30.7377357463
 20
-19.2848260297
 30
0.0
 11
-0.0
 21
0.5
 31
0.0
 40
0.0174550649
 41
-1.5707963268
 42
-0.3490658504
  0
ELLIPSE
  5
452
100
AcDbEntity
  8
0
100
AcDbEllipse
 62
7
  6
CONTINUOUS
 10
30.4050467872
 20
23.0898825065
 30
0.0
 11
0.2000304656
 21
0.0
 31
0.0
 40
0.9998476952
 41
-0.0
 42
1.5707963268
  0
ELLIPSE
  5
453
100
AcDbEntity
  8
0
100
AcDbEllipse
 62
7
  6
CONTINUOUS
 10
30.4050467872
 20
-23.5101174935
 30
0.0
 11
-0.2000304656
 21
-0.0
 31
0.0
 40
0.9998476952
 41
1.5707963268
 42
3.1415926536
  0
ELLIPSE
  5
454
100
AcDbEntity
  8
0
100
AcDbEllipse
 62
7
  6
CONTINUOUS
 10
19.6126789671
 20
-19.9479374197
 30
0.0
 11
0.0
 21
0.2
 31
0.0
 40
0.0174550649
 41
-1.5707963268
 42
-0.1745329252
  0
ELLIPSE
  5
455
100
AcDbEntity
  8
0
100
AcDbEllipse
 62
7
  6
CONTINUOUS
 10
20.5226311347
 20
22.6291473502
 30
0.0
 11
-0.5442548954
 21
-0.0798796576
 31
0.0
 40
0.9998444151
 41
2.9958866099
 42
3.2872986973
  0
ELLIPSE
  5
456
100
AcDbEntity
  8
0
100
AcDbEllipse
 62
7
  6
CONTINUOUS
 10
23.4045680082
 20
-22.56819127
 30
0.0
 11
0.2
 21
-0.0
 31
0.0
 40
0.0524077793
 41
0.1745329252
 42
1.5707963268
  0
ELLIPSE
  5
457
100
AcDbEntity
  8
0
100
AcDbEllipse
 62
7
  6
CONTINUOUS
 10
23.4045680082
 20
22.1479562831
 30
0.0
 11
0.2
 21
0.0
 31
0.0
 40
0.0524077793
 41
-1.5707963268
 42
-0.1745329252
  0
ELLIPSE
  5
458
100
AcDbEntity
  8
0
100
AcDbEllipse
 62
7
  6
CONTINUOUS
 10
22.9747986956
 20
22.6291473502
 30
0.0
 11
-0.5442548954
 21
0.0798796576
 31
0.0
 40
0.9998444151
 41
-0.1457060437
 42
0.1457060437
  0
ELLIPSE
  5
459
100
AcDbEntity
  8
0
100
AcDbEllipse
 62
7
  6
CONTINUOUS
 10
19.6126789671
 20
19.5277024328
 30
0.0
 11
-0.0
 21
0.2
 31
0.0
 40
0.0174550649
 41
-2.9670597284
 42
-1.5707963268
  0
ELLIPSE
  5
45A
100
AcDbEntity
  8
0
100
AcDbEllipse
 62
7
  6
CONTINUOUS
 10
27.4747065091
 20
22.0457611135
 30
0.0
 11
0.25
 21
0.0
 31
0.0
 40
0.0524077793
 41
-1.5707963268
 42
-0.0087266463
  0
ELLIPSE
  5
45B
100
AcDbEntity
  8
0
100
AcDbEllipse
 62
7
  6
CONTINUOUS
 10
41.9987149151
 20
3.9465429455
 30
0.0
 11
-0.0
 21
24.9621454183
 31
0.0
 40
0.9860383208
 41
0.751244199
 42
0.7596718662
  0
ELLIPSE
  5
45C
100
AcDbEntity
  8
0
100
AcDbEllipse
 62
7
  6
CONTINUOUS
 10
41.9987149151
 20
-4.3667779324
 30
0.0
 11
-0.0
 21
24.9621454183
 31
0.0
 40
0.9860383208
 41
-3.9012645198
 42
-3.8928368526
  0
ELLIPSE
  5
45D
100
AcDbEntity
  8
0
100
AcDbEllipse
 62
7
  6
CONTINUOUS
 10
27.4747065091
 20
-22.4659961004
 30
0.0
 11
0.25
 21
-0.0
 31
0.0
 40
0.0524077793
 41
0.0087266463
 42
1.5707963268
  0
ELLIPSE
  5
45E
100
AcDbEntity
  8
0
100
AcDbEllipse
 62
7
  6
CONTINUOUS
 10
21.3041644976
 20
22.0431407245
 30
0.0
 11
0.2
 21
-0.0
 31
0.0
 40
0.0524077793
 41
-3.1241393611
 42
-1.5707963268
  0
ELLIPSE
  5
45F
100
AcDbEntity
  8
0
100
AcDbEllipse
 62
7
  6
CONTINUOUS
 10
22.1932653327
 20
22.0431407245
 30
0.0
 11
0.2
 21
0.0
 31
0.0
 40
0.0524077793
 41
-1.5707963268
 42
-0.0174532925
  0
ELLIPSE
  5
460
100
AcDbEntity
  8
0
100
AcDbEllipse
 62
7
  6
CONTINUOUS
 10
21.2727149151
 20
-22.4633757115
 30
0.0
 11
0.2
 21
0.0
 31
0.0
 40
0.0524077793
 41
1.5707963268
 42
3.1415926536
  0
ELLIPSE
  5
461
100
AcDbEntity
  8
0
100
AcDbEllipse
 62
7
  6
CONTINUOUS
 10
22.2247149151
 20
-22.4633757115
 30
0.0
 11
0.2
 21
-0.0
 31
0.0
 40
0.0524077793
 41
0.0
 42
1.5707963268
  0
ELLIPSE
  5
462
100
AcDbEntity
  8
0
100
AcDbEllipse
 62
7
  6
CONTINUOUS
 10
30.1922764134
 20
21.8202157817
 30
0.0
 11
0.1582391023
 21
0.4751033573
 31
0.0
 40
0.9984778551
 41
5.0343527194
 42
6.6042356577
  0
ELLIPSE
  5
463
100
AcDbEntity
  8
0
100
AcDbEllipse
 62
7
  6
CONTINUOUS
 10
30.1922764134
 20
-22.2404507687
 30
0.0
 11
-0.1582391023
 21
0.4751033573
 31
0.0
 40
0.9984778551
 41
-3.4626430041
 42
-1.8927600658
  0
ENDSEC
  0
SECTION
  2
OBJECTS
  0
DICTIONARY
  5
C
100
AcDbDictionary
280
0
281
1
  3
ACAD_GROUP
350
D
  3
ACAD_MLINESTYLE
350
17
  3
ACAD_LAYOUT
350
1A
  3
ACAD_PLOTSETTINGS
350
19
  3
ACAD_PLOTSTYLENAME
350
E
  0
DICTIONARY
  5
D
102
{ACAD_REACTORS
330
C
102
}
100
AcDbDictionary
280
0
281
1
  0
ACDBDICTIONARYWDFLT
  5
E
102
{ACAD_REACTORS
330
C
102
}
100
AcDbDictionary
281
1
  3
Normal
350
F
100
AcDbDictionaryWithDefault
340
F
  0
DICTIONARY
  5
17
102
{ACAD_REACTORS
330
C
102
}
100
AcDbDictionary
280
0
281
1
  3
Standard
350
18
  0
DICTIONARY
  5
19
102
{ACAD_REACTORS
330
C
102
}
100
AcDbDictionary
281
1
  0
DICTIONARY
  5
1A
102
{ACAD_REACTORS
330
C
102
}
100
AcDbDictionary
281
1
  3
Model
350
464
  3
Layout1
350
465
  0
ACDBPLACEHOLDER
  5
F
102
{ACAD_REACTORS
330
E
102
}
  0
MLINESTYLE
  5
18
102
{ACAD_REACTORS
330
17
102
}
100
AcDbMlineStyle
  2
STANDARD
 70
0
  3

 62
256
 51
90.0
 52
90.0
 71
2
 49
0.5
 62
256
  6
BYLAYER
 49
-0.5
 62
256
  6
BYLAYER
  0
LAYOUT
  5
464
102
{ACAD_REACTORS
330
1A
102
}
100
AcDbPlotSettings
  1

  2
none_device
  4
ISO_A4_(297.00_x_210.00_MM)
  6

 40
0.0
 41
0.0
 42
0.0
 43
0.0
 44
297.0
 45
210.0
 46
0.0
 47
0.0
 48
0.0
 49
0.0
140
0.0
141
0.0
142
1.0
143
1.0
 70
1024
 72
1
 73
0
 74
0
  7

 75
0
147
1.0
148
0.0
149
0.0
100
AcDbLayout
  1
Model
 70
0
 71
0
 10
0.0
 20
0.0
 11
297.0
 21
210.0
 12
0.0
 22
0.0
 32
0.0
 14
0.0
 24
0.0
 34
0.0
 15
0.0
 25
0.0
 35
0.0
146
0.0
 13
0.0
 23
0.0
 33
0.0
 16
1.0
 26
0.0
 36
0.0
 17
0.0
 27
1.0
 37
0.0
 76
0
330
213
345
0
346
0
  0
LAYOUT
  5
465
102
{ACAD_REACTORS
330
1A
102
}
100
AcDbPlotSettings
  1

  2
none_device
  4
ISO_A4_(297.00_x_210.00_MM)
  6

 40
0.0
 41
0.0
 42
0.0
 43
0.0
 44
297.0
 45
210.0
 46
0.0
 47
0.0
 48
0.0
 49
0.0
140
0.0
141
0.0
142
1.0
143
1.0
 70
0
 72
1
 73
0
 74
0
  7

 75
0
147
1.0
148
0.0
149
0.0
100
AcDbLayout
  1
Layout1
 70
0
 71
1
 10
0.0
 20
0.0
 11
297.0
 21
210.0
 12
0.0
 22
0.0
 32
0.0
 14
0.0
 24
0.0
 34
0.0
 15
0.0
 25
0.0
 35
0.0
146
0.0
 13
0.0
 23
0.0
 33
0.0
 16
1.0
 26
0.0
 36
0.0
 17
0.0
 27
1.0
 37
0.0
 76
0
330
214
345
0
346
0
  0
ENDSEC
  0
EOF
