0
SECTION
2
HEADER
9
$ACADVER
1
AC1015
9
$DWGCODEPAGE
3
ANSI_1252
9
$EXTMAX
10
297.0000000000
20
210.0000000000
30
0.0000000000
9
$EXTMIN
10
0.0000000000
20
0.0000000000
30
0.0000000000
9
$LIMMIN
10
0.0000000000
20
0.0000000000
9
$LIMMAX
10
297.0000000000
20
210.0000000000
9
$VIEWCTR
10
148.5000000000
20
105.0000000000
9
$VIEWSIZE
40
210.0000000000
9
$CLAYER
8
0
9
$LTSCALE
40
16.3350000000
9
$CELTYPE
6
BYLAYER
9
$DIMSCALE
40
1
9
$DIMASZ
40
3.0000000000
9
$DIMEXO
40
1.8562500000
9
$DIMDLI
40
11.2860000000
9
$DIMEXE
40
5.3460000000
9
$DIMCEN
40
2.6730000000
9
$DIMLFAC
40
1.0000000000
9
$DIMBLK
1
_FILLED
9
$DIMTXT
40
3.0000000000
9
$DIMTOL
70
1
9
$DIMLIM
70
0
9
$DIMTFAC
40
1.0000000000
9
$DIMTP
40
0.0100000000
9
$DIMTM
40
0.0100000000
9
$PDMODE
70
3
9
$PDSIZE
40
3.0000000000
9
$HANDSEED
5
304
9
$MEASUREMENT
70
1
9
$INSUNITS
70
4
0
ENDSEC
0
SECTION
2
CLASSES
0
CLASS
1
ACDBDICTIONARYWDFLT
2
AcDbDictionaryWithDefault
3
AutoCAD 2000
90
0
280
0
281
0
0
CLASS
1
ACDBPLACEHOLDER
2
AcDbPlaceHolder
3
AutoCAD 2000
90
0
280
0
281
0
0
CLASS
1
LAYOUT
2
AcDbLayout
3
AutoCAD 2000
90
0
280
0
281
0
0
ENDSEC
0
SECTION
2
TABLES
0
TABLE
2
VPORT
5
8
100
AcDbSymbolTable
70
2
0
VPORT
5
1F4
100
AcDbSymbolTableRecord
100
AcDbViewportTableRecord
2
*ACTIVE
70
0
10
0.0
20
0.0
11
1.0
21
1.0
12
148.5000000000
22
105.0000000000
13
0.0
23
0.0
14
1.0
24
1.0
15
0.0
25
0.0
16
0.0
26
0.0
36
1.0
17
0.0
27
0.0
37
0.0
40
210.0000000000
41
1.4142857143
42
50.0
43
0.0
44
0.0
50
0.0
51
0.0
71
0
72
100
73
1
74
1
75
0
76
0
77
0
78
0
0
ENDTAB
0
TABLE
2
LTYPE
5
5
100
AcDbSymbolTable
70
6
0
LTYPE
5
14
100
AcDbSymbolTableRecord
100
AcDbLinetypeTableRecord
2
BYBLOCK
70
0
3

72
65
73
0
40
0.0
0
LTYPE
5
15
100
AcDbSymbolTableRecord
100
AcDbLinetypeTableRecord
2
BYLAYER
70
0
3

72
65
73
0
40
0.0
0
LTYPE
5
16
100
AcDbSymbolTableRecord
100
AcDbLinetypeTableRecord
2
CONTINUOUS
70
64
3
Solid line
72
65
73
0
40
0
0
LTYPE
5
1F5
100
AcDbSymbolTableRecord
100
AcDbLinetypeTableRecord
2
CENTER
70
64
3
____ _ ____ _ ____ _ ____ _ ____ _ ____ _ ____
72
65
73
4
40
0.6
49
0.375
74
0
49
-0.075
74
0
49
0.075
74
0
49
-0.075
74
0
0
LTYPE
5
1F6
100
AcDbSymbolTableRecord
100
AcDbLinetypeTableRecord
2
HIDDEN
70
64
3
- - - - - - - - - - - - - - - - - - - -
72
65
73
2
40
0.2
49
0.1
74
0
49
-0.1
74
0
0
LTYPE
5
1F7
100
AcDbSymbolTableRecord
100
AcDbLinetypeTableRecord
2
PHANTOM
70
64
3
_____ _ _ _____ _ _ _____ _ _ _____
72
65
73
6
40
0.8
49
0.45
74
0
49
-0.05
74
0
49
0.1
74
0
49
-0.05
74
0
49
0.1
74
0
49
-0.05
74
0
0
LTYPE
5
1F8
100
AcDbSymbolTableRecord
100
AcDbLinetypeTableRecord
2
DOT
70
64
3
. . . . . . . . . . . . . . . . . . . .
72
65
73
2
40
0.2
49
0.1
74
0
49
-0.1
74
0
0
LTYPE
5
1F9
100
AcDbSymbolTableRecord
100
AcDbLinetypeTableRecord
2
DASHED
70
64
3
- - - - - - - - - - - - - - - - - - - -
72
65
73
2
40
0.2
49
0.1
74
0
49
-0.1
74
0
0
ENDTAB
0
TABLE
2
LAYER
5
2
100
AcDbSymbolTable
70
36
0
LAYER
5
10
100
AcDbSymbolTableRecord
100
AcDbLayerTableRecord
2
0
70
0
62
7
6
CONTINUOUS
370
-3
390
F
0
LAYER
5
1FA
100
AcDbSymbolTableRecord
100
AcDbLayerTableRecord
2
DEFAULT_1
70
0
62
7
6
CENTER
370
-3
390
F
0
LAYER
5
1FB
100
AcDbSymbolTableRecord
100
AcDbLayerTableRecord
2
DEFAULT_2
70
0
62
9
6
HIDDEN
370
-3
390
F
0
LAYER
5
1FC
100
AcDbSymbolTableRecord
100
AcDbLayerTableRecord
2
DEFAULT_3
70
0
62
7
6
PHANTOM
370
-3
390
F
0
LAYER
5
1FD
100
AcDbSymbolTableRecord
100
AcDbLayerTableRecord
2
_2D_DELETED_OBJS
70
0
62
7
6
CONTINUOUS
370
-3
390
F
0
LAYER
5
1FE
100
AcDbSymbolTableRecord
100
AcDbLayerTableRecord
2
_BLACK_HOLE
70
0
62
7
6
CONTINUOUS
370
-3
390
F
0
LAYER
5
1FF
100
AcDbSymbolTableRecord
100
AcDbLayerTableRecord
2
ASSI
70
0
62
7
6
CONTINUOUS
370
-3
390
F
0
LAYER
5
200
100
AcDbSymbolTableRecord
100
AcDbLayerTableRecord
2
COLOR5
70
0
62
7
6
CONTINUOUS
370
-3
390
F
0
LAYER
5
201
100
AcDbSymbolTableRecord
100
AcDbLayerTableRecord
2
COORDINATE
70
0
62
7
6
CONTINUOUS
370
-3
390
F
0
LAYER
5
202
100
AcDbSymbolTableRecord
100
AcDbLayerTableRecord
2
COORD_ORIGINE
70
0
62
7
6
CONTINUOUS
370
-3
390
F
0
LAYER
5
203
100
AcDbSymbolTableRecord
100
AcDbLayerTableRecord
2
CURVE
70
0
62
7
6
CONTINUOUS
370
-3
390
F
0
LAYER
5
204
100
AcDbSymbolTableRecord
100
AcDbLayerTableRecord
2
DRAFT
70
0
62
7
6
CONTINUOUS
370
-3
390
F
0
LAYER
5
205
100
AcDbSymbolTableRecord
100
AcDbLayerTableRecord
2
IMPORT_FEATURES
70
0
62
7
6
CONTINUOUS
370
-3
390
F
0
LAYER
5
206
100
AcDbSymbolTableRecord
100
AcDbLayerTableRecord
2
INTF_1
70
0
62
7
6
CONTINUOUS
370
-3
390
F
0
LAYER
5
207
100
AcDbSymbolTableRecord
100
AcDbLayerTableRecord
2
NOTE
70
0
62
7
6
CONTINUOUS
370
-3
390
F
0
LAYER
5
208
100
AcDbSymbolTableRecord
100
AcDbLayerTableRecord
2
PIANI
70
0
62
7
6
CONTINUOUS
370
-3
390
F
0
LAYER
5
209
100
AcDbSymbolTableRecord
100
AcDbLayerTableRecord
2
PIANI_ORIGINE
70
0
62
7
6
CONTINUOUS
370
-3
390
F
0
LAYER
5
20A
100
AcDbSymbolTableRecord
100
AcDbLayerTableRecord
2
PUNTI
70
0
62
7
6
CONTINUOUS
370
-3
390
F
0
LAYER
5
20B
100
AcDbSymbolTableRecord
100
AcDbLayerTableRecord
2
RACCORDO
70
0
62
7
6
CONTINUOUS
370
-3
390
F
0
LAYER
5
20C
100
AcDbSymbolTableRecord
100
AcDbLayerTableRecord
2
RGB____0____0____0__
70
0
62
7
6
CONTINUOUS
370
-3
390
F
0
LAYER
5
20D
100
AcDbSymbolTableRecord
100
AcDbLayerTableRecord
2
SMUSSO
70
0
62
7
6
CONTINUOUS
370
-3
390
F
0
LAYER
5
20E
100
AcDbSymbolTableRecord
100
AcDbLayerTableRecord
2
SNAPLINE
70
0
62
7
6
CONTINUOUS
370
-3
390
F
0
LAYER
5
20F
100
AcDbSymbolTableRecord
100
AcDbLayerTableRecord
2
SUPERFICI
70
0
62
7
6
CONTINUOUS
370
-3
390
F
0
LAYER
5
210
100
AcDbSymbolTableRecord
100
AcDbLayerTableRecord
2
TRASH
70
0
62
7
6
CONTINUOUS
370
-3
390
F
0
LAYER
5
211
100
AcDbSymbolTableRecord
100
AcDbLayerTableRecord
2
XSEC_DATUMS
70
0
62
7
6
CONTINUOUS
370
-3
390
F
0
ENDTAB
0
TABLE
2
STYLE
5
3
100
AcDbSymbolTable
70
1
0
STYLE
5
11
100
AcDbSymbolTableRecord
100
AcDbTextStyleTableRecord
2
STANDARD
70
0
40
0.0
41
0.8000000000
50
0.0
71
0
42
0.2
3
txt
4

0
ENDTAB
0
TABLE
2
VIEW
5
6
100
AcDbSymbolTable
70
0
0
ENDTAB
0
TABLE
2
UCS
5
7
100
AcDbSymbolTable
70
0
0
ENDTAB
0
TABLE
2
APPID
5
9
100
AcDbSymbolTable
70
1
0
APPID
5
212
100
AcDbSymbolTableRecord
100
AcDbRegAppTableRecord
2
ACAD
70
0
0
ENDTAB
0
TABLE
2
BLOCK_RECORD
5
1
100
AcDbSymbolTable
70
0
0
BLOCK_RECORD
5
1F
100
AcDbSymbolTableRecord
100
AcDbBlockTableRecord
2
*MODEL_SPACE
0
BLOCK_RECORD
5
1B
100
AcDbSymbolTableRecord
100
AcDbBlockTableRecord
2
*PAPER_SPACE
0
BLOCK_RECORD
5
213
100
AcDbSymbolTableRecord
100
AcDbBlockTableRecord
2
_FILLED
0
BLOCK_RECORD
5
214
100
AcDbSymbolTableRecord
100
AcDbBlockTableRecord
2
*D0
0
BLOCK_RECORD
5
215
100
AcDbSymbolTableRecord
100
AcDbBlockTableRecord
2
*D1
0
BLOCK_RECORD
5
216
100
AcDbSymbolTableRecord
100
AcDbBlockTableRecord
2
*D2
0
BLOCK_RECORD
5
217
100
AcDbSymbolTableRecord
100
AcDbBlockTableRecord
2
*D3
0
ENDTAB
0
TABLE
2
DIMSTYLE
5
A
100
AcDbSymbolTable
70
1
100
AcDbDimStyleTable
71
0
0
DIMSTYLE
105
218
100
AcDbSymbolTableRecord
100
AcDbDimStyleTableRecord
2
STANDARD
70
0
3

4

40
1.0
41
3.0000000000
42
0.0625
43
0.38
44
0.18
45
0.0
46
0.0
47
0.0100000000
48
0.0100000000
140
3.0000000000
141
0.09
142
0.0
143
25.4
144
1.0000000000
145
0.0
146
1.0000000000
147
0.09
71
1
72
0
73
0
74
0
75
0
76
0
77
1
78
8
170
0
171
2
172
0
173
0
174
0
175
0
176
0
177
0
178
0
270
2
271
2
272
2
273
2
274
2
275
0
280
0
281
0
282
0
283
1
284
8
285
0
286
0
287
3
288
0
340
11
341
213
342
213
343
213
344
213
0
DIMSTYLE
105
219
100
AcDbSymbolTableRecord
100
AcDbDimStyleTableRecord
2
DIMSTYLE_1
70
0
3

4

40
1.0
41
3.0000000000
42
0.0625
43
0.38
44
0.18
45
0.0
46
0.0
47
0.0000000000
48
0.0000000000
140
3.0000000000
141
0.09
142
0.0
143
25.4
144
1.0000000000
145
0.0
146
1.0000000000
147
0.09
71
0
72
0
73
0
74
0
75
0
76
0
77
1
78
8
170
0
171
2
172
0
173
0
174
0
175
0
176
0
177
0
178
0
270
2
271
2
272
2
273
2
274
2
275
0
280
0
281
0
282
0
283
1
284
8
285
0
286
0
287
3
288
0
340
11
341
213
342
213
343
213
344
213
0
DIMSTYLE
105
21A
100
AcDbSymbolTableRecord
100
AcDbDimStyleTableRecord
2
DIMSTYLE_2
70
0
3

4

40
1.0
41
3.0000000000
42
0.0625
43
0.38
44
0.18
45
0.0
46
0.0
47
0.0000000000
48
0.0000000000
140
3.0000000000
141
0.09
142
0.0
143
25.4
144
1.0000000000
145
0.0
146
1.0000000000
147
0.09
71
0
72
0
73
0
74
0
75
0
76
0
77
1
78
8
170
0
171
2
172
0
173
0
174
0
175
0
176
0
177
0
178
0
270
2
271
1
272
1
273
2
274
2
275
0
280
0
281
0
282
0
283
1
284
8
285
0
286
0
287
3
288
0
340
11
341
213
342
213
343
213
344
213
0
ENDTAB
0
ENDSEC
0
SECTION
2
BLOCKS
0
BLOCK
5
20
100
AcDbEntity
8
0
100
AcDbBlockBegin
2
*MODEL_SPACE
70
0
10
0.0
20
0.0
30
0.0
3
*MODEL_SPACE
1

0
ENDBLK
5
21
100
AcDbEntity
8
0
100
AcDbBlockEnd
0
BLOCK
5
1C
100
AcDbEntity
8
0
100
AcDbBlockBegin
2
*PAPER_SPACE
70
0
10
0.0
20
0.0
30
0.0
3
*PAPER_SPACE
1

0
ENDBLK
5
1D
100
AcDbEntity
8
0
100
AcDbBlockEnd
0
BLOCK
5
21B
100
AcDbEntity
8
0
100
AcDbBlockBegin
62
9
6
CONTINUOUS
2
*D0
70
65
10
0.0000000000
20
0.0000000000
3
*D0
1

0
TEXT
5
21C
100
AcDbEntity
8
0
100
AcDbText
62
9
6
CONTINUOUS
10
19.8591103163
20
-2.6599095071
7
STANDARD
40
3.0000000000
1
47
50
90.0000000000
41
0.7857142857
72
0
100
AcDbText
0
LINE
5
21D
100
AcDbEntity
8
0
100
AcDbLine
62
9
6
CONTINUOUS
10
3.5000000000
20
23.5000000000
11
22.1091103163
21
23.5000000000
0
LINE
5
21E
100
AcDbEntity
8
0
100
AcDbLine
62
9
6
CONTINUOUS
10
4.4733373476
20
-23.5000000000
11
22.1091103163
21
-23.5000000000
0
LINE
5
21F
100
AcDbEntity
8
0
100
AcDbLine
62
9
6
CONTINUOUS
10
20.6091103163
20
23.5000000000
11
20.6091103163
21
0.0000000000
0
LINE
5
220
100
AcDbEntity
8
0
100
AcDbLine
62
9
6
CONTINUOUS
10
20.6091103163
20
-23.5000000000
11
20.6091103163
21
0.0000000000
0
INSERT
5
221
100
AcDbEntity
8
0
100
AcDbBlockReference
62
9
6
CONTINUOUS
2
_FILLED
10
20.6091103163
20
23.5000000000
41
  3.000000
42
  3.000000
43
  3.000000
50
 90.000000
0
INSERT
5
222
100
AcDbEntity
8
0
100
AcDbBlockReference
62
9
6
CONTINUOUS
2
_FILLED
10
20.6091103163
20
-23.5000000000
41
  3.000000
42
  3.000000
43
  3.000000
50
270.000000
0
ENDBLK
5
223
100
AcDbEntity
8
0
6
BYBLOCK
62
0
100
AcDbBlockEnd
0
BLOCK
5
224
100
AcDbEntity
8
0
100
AcDbBlockBegin
62
9
6
CONTINUOUS
2
*D1
70
65
10
0.0000000000
20
0.0000000000
3
*D1
1

0
TEXT
5
225
100
AcDbEntity
8
0
100
AcDbText
62
9
6
CONTINUOUS
10
-3.8282576534
20
28.0201286891
7
STANDARD
40
3.0000000000
1
22,3
41
0.7142857143
72
0
100
AcDbText
0
LINE
5
226
100
AcDbEntity
8
0
100
AcDbLine
62
9
6
CONTINUOUS
10
11.1500000000
20
22.3997711479
11
11.1500000000
21
28.7701286891
0
LINE
5
227
100
AcDbEntity
8
0
100
AcDbLine
62
9
6
CONTINUOUS
10
-11.1500000000
20
22.3997711479
11
-11.1500000000
21
28.7701286891
0
LINE
5
228
100
AcDbEntity
8
0
100
AcDbLine
62
9
6
CONTINUOUS
10
11.1500000000
20
27.2701286891
11
0.0000000000
21
27.2701286891
0
LINE
5
229
100
AcDbEntity
8
0
100
AcDbLine
62
9
6
CONTINUOUS
10
-11.1500000000
20
27.2701286891
11
0.0000000000
21
27.2701286891
0
INSERT
5
22A
100
AcDbEntity
8
0
100
AcDbBlockReference
62
9
6
CONTINUOUS
2
_FILLED
10
11.1500000000
20
27.2701286891
41
  3.000000
42
  3.000000
43
  3.000000
0
INSERT
5
22B
100
AcDbEntity
8
0
100
AcDbBlockReference
62
9
6
CONTINUOUS
2
_FILLED
10
-11.1500000000
20
27.2701286891
41
  3.000000
42
  3.000000
43
  3.000000
50
180.000000
0
ENDBLK
5
22C
100
AcDbEntity
8
0
6
BYBLOCK
62
0
100
AcDbBlockEnd
0
BLOCK
5
22D
100
AcDbEntity
8
0
100
AcDbBlockBegin
62
9
6
CONTINUOUS
2
*D2
70
65
10
0.0000000000
20
0.0000000000
3
*D2
1

0
TEXT
5
22E
100
AcDbEntity
8
0
100
AcDbText
62
9
6
CONTINUOUS
10
-36.7065773166
20
32.2500000000
7
STANDARD
40
3.0000000000
1
11,1
41
0.5714285714
72
0
100
AcDbText
0
LINE
5
22F
100
AcDbEntity
8
0
100
AcDbLine
62
9
6
CONTINUOUS
10
-38.8497848320
20
22.3997711479
11
-38.8497848320
21
33.0000000000
0
LINE
5
230
100
AcDbEntity
8
0
100
AcDbLine
62
9
6
CONTINUOUS
10
-27.7062269440
20
-8.8727027659
11
-27.7062269440
21
33.0000000000
0
LINE
5
231
100
AcDbEntity
8
0
100
AcDbLine
62
9
6
CONTINUOUS
10
-38.8497848320
20
31.5000000000
11
-42.8497848320
21
31.5000000000
0
LINE
5
232
100
AcDbEntity
8
0
100
AcDbLine
62
9
6
CONTINUOUS
10
-42.8497848320
20
31.5000000000
11
-33.2780058880
21
31.5000000000
0
LINE
5
233
100
AcDbEntity
8
0
100
AcDbLine
62
9
6
CONTINUOUS
10
-27.7062269440
20
31.5000000000
11
-23.7062269440
21
31.5000000000
0
LINE
5
234
100
AcDbEntity
8
0
100
AcDbLine
62
9
6
CONTINUOUS
10
-23.7062269440
20
31.5000000000
11
-33.2780058880
21
31.5000000000
0
INSERT
5
235
100
AcDbEntity
8
0
100
AcDbBlockReference
62
9
6
CONTINUOUS
2
_FILLED
10
-38.8497848320
20
31.5000000000
41
  3.000000
42
  3.000000
43
  3.000000
0
INSERT
5
236
100
AcDbEntity
8
0
100
AcDbBlockReference
62
9
6
CONTINUOUS
2
_FILLED
10
-27.7062269440
20
31.5000000000
41
  3.000000
42
  3.000000
43
  3.000000
50
180.000000
0
ENDBLK
5
237
100
AcDbEntity
8
0
6
BYBLOCK
62
0
100
AcDbBlockEnd
0
BLOCK
5
238
100
AcDbEntity
8
0
100
AcDbBlockBegin
62
9
6
CONTINUOUS
2
*D3
70
65
10
0.0000000000
20
0.0000000000
3
*D3
1

0
TEXT
5
239
100
AcDbEntity
8
0
100
AcDbText
62
9
6
CONTINUOUS
10
-42.4208630309
20
42.2500000000
7
STANDARD
40
3.0000000000
1
20,6
41
0.7321428571
72
0
100
AcDbText
0
LINE
5
23A
100
AcDbEntity
8
0
100
AcDbLine
62
9
6
CONTINUOUS
10
-48.3497848320
20
0.5000000000
11
-48.3497848320
21
43.0000000000
0
LINE
5
23B
100
AcDbEntity
8
0
100
AcDbLine
62
9
6
CONTINUOUS
10
-27.7062269440
20
-8.8727027659
11
-27.7062269440
21
43.0000000000
0
LINE
5
23C
100
AcDbEntity
8
0
100
AcDbLine
62
9
6
CONTINUOUS
10
-48.3497848320
20
41.5000000000
11
-38.0280058880
21
41.5000000000
0
LINE
5
23D
100
AcDbEntity
8
0
100
AcDbLine
62
9
6
CONTINUOUS
10
-27.7062269440
20
41.5000000000
11
-38.0280058880
21
41.5000000000
0
INSERT
5
23E
100
AcDbEntity
8
0
100
AcDbBlockReference
62
9
6
CONTINUOUS
2
_FILLED
10
-48.3497848320
20
41.5000000000
41
  3.000000
42
  3.000000
43
  3.000000
50
180.000000
0
INSERT
5
23F
100
AcDbEntity
8
0
100
AcDbBlockReference
62
9
6
CONTINUOUS
2
_FILLED
10
-27.7062269440
20
41.5000000000
41
  3.000000
42
  3.000000
43
  3.000000
0
ENDBLK
5
240
100
AcDbEntity
8
0
6
BYBLOCK
62
0
100
AcDbBlockEnd
0
BLOCK
5
241
100
AcDbEntity
8
0
100
AcDbBlockBegin
2
_FILLED
70
64
10
0.0000000000
20
0.0000000000
3
_FILLED
1

0
SOLID
5
242
100
AcDbEntity
8
0
6
BYBLOCK
62
0
100
AcDbTrace
10
0.0000000000
20
0.0000000000
11
-1.0000000000
21
0.1333333333
12
-1.0000000000
22
-0.1333333333
13
-1.0000000000
23
-0.1333333333
0
ENDBLK
5
243
100
AcDbEntity
8
0
6
BYBLOCK
62
0
100
AcDbBlockEnd
0
ENDSEC
0
SECTION
2
ENTITIES
0
DIMENSION
5
244
100
AcDbEntity
8
0
100
AcDbDimension
62
9
6
CONTINUOUS
2
*D0
10
20.6091103163
20
-23.5000000000
11
18.3591103163
21
-0.3027666500
70
160
3
DIMSTYLE_1
100
AcDbAlignedDimension
13
3.5000000000
23
23.5000000000
14
4.4733373476
24
-23.5000000000
50
270.000000
100
AcDbRotatedDimension
0
DIMENSION
5
245
100
AcDbEntity
8
0
100
AcDbDimension
62
9
6
CONTINUOUS
2
*D1
10
-11.1500000000
20
27.2701286891
11
0.4574566323
21
29.5201286891
70
160
3
DIMSTYLE_1
100
AcDbAlignedDimension
13
11.1500000000
23
22.3997711479
14
-11.1500000000
24
22.3997711479
50
180.000000
100
AcDbRotatedDimension
0
DIMENSION
5
246
100
AcDbEntity
8
0
100
AcDbDimension
62
9
6
CONTINUOUS
2
*D2
10
-27.7062269440
20
31.5000000000
11
-33.2780058880
21
33.7500000000
70
160
3
DIMSTYLE_2
100
AcDbAlignedDimension
13
-38.8497848320
23
22.3997711479
14
-27.7062269440
24
-8.8727027659
100
AcDbRotatedDimension
0
DIMENSION
5
247
100
AcDbEntity
8
0
100
AcDbDimension
62
9
6
CONTINUOUS
2
*D3
10
-27.7062269440
20
41.5000000000
11
-38.0280058880
21
43.7500000000
70
160
3
DIMSTYLE_2
100
AcDbAlignedDimension
13
-48.3497848320
23
0.5000000000
14
-27.7062269440
24
-8.8727027659
100
AcDbRotatedDimension
0
LINE
5
248
100
AcDbEntity
8
0
100
AcDbLine
62
9
6
CONTINUOUS
10
-3.0000000000
20
-23.5000000000
11
-2.7812783412
21
-23.4563623377
0
LINE
5
249
100
AcDbEntity
8
0
100
AcDbLine
62
9
6
CONTINUOUS
10
3.9733373476
20
-23.5000000000
11
3.0000000000
21
-23.5000000000
0
LINE
5
24A
100
AcDbEntity
8
0
100
AcDbLine
62
9
6
CONTINUOUS
10
-3.0000000000
20
-23.5000000000
11
-3.9733373476
21
-23.5000000000
0
LINE
5
24B
100
AcDbEntity
8
0
100
AcDbLine
62
9
6
CONTINUOUS
10
2.7812783412
20
-23.4563623377
11
-2.7812783412
21
-23.4563623377
0
LINE
5
24C
100
AcDbEntity
8
0
100
AcDbLine
62
9
6
CONTINUOUS
10
-2.7812783412
20
-22.5310194482
11
2.7812783412
21
-22.5310194482
0
LINE
5
24D
100
AcDbEntity
8
0
100
AcDbLine
62
9
6
CONTINUOUS
10
10.6503805997
20
-22.4000000000
11
3.0000000000
21
-22.4000000000
0
LINE
5
24E
100
AcDbEntity
8
0
100
AcDbLine
62
9
6
CONTINUOUS
10
-3.0000000000
20
-22.4000000000
11
-10.6503805997
21
-22.4000000000
0
LINE
5
24F
100
AcDbEntity
8
0
100
AcDbLine
62
9
6
CONTINUOUS
10
3.0000000000
20
-23.5000000000
11
2.7812783412
21
-23.4563623377
0
LINE
5
250
100
AcDbEntity
8
0
100
AcDbLine
62
9
6
CONTINUOUS
10
-2.7812783412
20
22.5310194482
11
-3.0000000000
21
22.4000000000
0
LINE
5
251
100
AcDbEntity
8
0
100
AcDbLine
62
9
6
CONTINUOUS
10
10.5087981167
20
-21.9749071372
11
-10.5087981167
21
-21.9749071372
0
LINE
5
252
100
AcDbEntity
8
0
100
AcDbLine
62
9
6
CONTINUOUS
10
10.5005350625
20
-21.0183142309
11
-10.5005350625
21
-21.0183142309
0
LINE
5
253
100
AcDbEntity
8
0
100
AcDbLine
62
9
6
CONTINUOUS
10
-3.0000000000
20
-22.4000000000
11
-2.7812783412
21
-22.5310194482
0
LINE
5
254
100
AcDbEntity
8
0
100
AcDbLine
62
9
6
CONTINUOUS
10
-11.1500000000
20
-21.8997711479
11
-11.1500000000
21
21.8997711479
0
LINE
5
255
100
AcDbEntity
8
0
100
AcDbLine
62
9
6
CONTINUOUS
10
-10.5005350625
20
21.0183142309
11
-10.5005350625
21
-21.0183142309
0
LINE
5
256
100
AcDbEntity
8
0
100
AcDbLine
62
9
6
CONTINUOUS
10
-11.0087219643
20
-21.4755923698
11
-11.1500000000
21
-21.8997711479
0
LINE
5
257
100
AcDbEntity
8
0
100
AcDbLine
62
9
6
CONTINUOUS
10
-11.1500000000
20
21.8997711479
11
-11.0087219643
21
21.4755923698
0
LINE
5
258
100
AcDbEntity
8
0
100
AcDbLine
62
9
6
CONTINUOUS
10
-3.0000000000
20
23.5000000000
11
-3.0000000000
21
22.4000000000
0
LINE
5
259
100
AcDbEntity
8
0
100
AcDbLine
62
9
6
CONTINUOUS
10
-3.0000000000
20
-22.4000000000
11
-3.0000000000
21
-23.5000000000
0
LINE
5
25A
100
AcDbEntity
8
0
100
AcDbLine
62
9
6
CONTINUOUS
10
-2.7812783412
20
23.4563623377
11
-2.7812783412
21
22.5310194482
0
LINE
5
25B
100
AcDbEntity
8
0
100
AcDbLine
62
9
6
CONTINUOUS
10
-2.7812783412
20
-22.5310194482
11
-2.7812783412
21
-23.4563623377
0
LINE
5
25C
100
AcDbEntity
8
0
100
AcDbLine
62
9
6
CONTINUOUS
10
-10.5087981167
20
-21.9749071372
11
-10.6503805997
21
-22.4000000000
0
LINE
5
25D
100
AcDbEntity
8
0
100
AcDbLine
62
9
6
CONTINUOUS
10
-10.6503805997
20
22.4000000000
11
-10.5087981167
21
21.9749071372
0
LINE
5
25E
100
AcDbEntity
8
0
100
AcDbLine
62
9
6
CONTINUOUS
10
2.7812783412
20
23.4563623377
11
2.7812783412
21
22.5310194482
0
LINE
5
25F
100
AcDbEntity
8
0
100
AcDbLine
62
9
6
CONTINUOUS
10
2.7812783412
20
-22.5310194482
11
2.7812783412
21
-23.4563623377
0
LINE
5
260
100
AcDbEntity
8
0
100
AcDbLine
62
9
6
CONTINUOUS
10
3.0000000000
20
23.5000000000
11
3.0000000000
21
22.4000000000
0
LINE
5
261
100
AcDbEntity
8
0
100
AcDbLine
62
9
6
CONTINUOUS
10
3.0000000000
20
-22.4000000000
11
3.0000000000
21
-23.5000000000
0
LINE
5
262
100
AcDbEntity
8
0
100
AcDbLine
62
9
6
CONTINUOUS
10
10.6503805997
20
22.4000000000
11
10.5087981167
21
21.9749071372
0
LINE
5
263
100
AcDbEntity
8
0
100
AcDbLine
62
9
6
CONTINUOUS
10
11.1500000000
20
21.8997711479
11
11.0087219643
21
21.4755923698
0
LINE
5
264
100
AcDbEntity
8
0
100
AcDbLine
62
9
6
CONTINUOUS
10
10.5087981167
20
-21.9749071372
11
10.6503805997
21
-22.4000000000
0
LINE
5
265
100
AcDbEntity
8
0
100
AcDbLine
62
9
6
CONTINUOUS
10
11.0087219643
20
-21.4755923698
11
11.1500000000
21
-21.8997711479
0
LINE
5
266
100
AcDbEntity
8
0
100
AcDbLine
62
9
6
CONTINUOUS
10
10.5005350625
20
21.0183142309
11
10.5005350625
21
-21.0183142309
0
LINE
5
267
100
AcDbEntity
8
0
100
AcDbLine
62
9
6
CONTINUOUS
10
11.1500000000
20
21.8997711479
11
11.1500000000
21
-21.8997711479
0
LINE
5
268
100
AcDbEntity
8
0
100
AcDbLine
62
9
6
CONTINUOUS
10
3.0000000000
20
-22.4000000000
11
2.7812783412
21
-22.5310194482
0
LINE
5
269
100
AcDbEntity
8
0
100
AcDbLine
62
9
6
CONTINUOUS
10
-10.5005350625
20
21.0183142309
11
10.5005350625
21
21.0183142309
0
LINE
5
26A
100
AcDbEntity
8
0
100
AcDbLine
62
9
6
CONTINUOUS
10
2.7812783412
20
22.5310194482
11
3.0000000000
21
22.4000000000
0
LINE
5
26B
100
AcDbEntity
8
0
100
AcDbLine
62
9
6
CONTINUOUS
10
3.0000000000
20
23.5000000000
11
2.7812783412
21
23.4563623377
0
LINE
5
26C
100
AcDbEntity
8
0
100
AcDbLine
62
9
6
CONTINUOUS
10
-10.5087981167
20
21.9749071372
11
10.5087981167
21
21.9749071372
0
LINE
5
26D
100
AcDbEntity
8
0
100
AcDbLine
62
9
6
CONTINUOUS
10
3.0000000000
20
22.4000000000
11
10.6503805997
21
22.4000000000
0
LINE
5
26E
100
AcDbEntity
8
0
100
AcDbLine
62
9
6
CONTINUOUS
10
-3.0000000000
20
22.4000000000
11
-10.6503805997
21
22.4000000000
0
LINE
5
26F
100
AcDbEntity
8
0
100
AcDbLine
62
9
6
CONTINUOUS
10
-2.7812783412
20
22.5310194482
11
2.7812783412
21
22.5310194482
0
LINE
5
270
100
AcDbEntity
8
0
100
AcDbLine
62
9
6
CONTINUOUS
10
-3.0000000000
20
23.5000000000
11
-2.7812783412
21
23.4563623377
0
LINE
5
271
100
AcDbEntity
8
0
100
AcDbLine
62
9
6
CONTINUOUS
10
2.7812783412
20
23.4563623377
11
-2.7812783412
21
23.4563623377
0
LINE
5
272
100
AcDbEntity
8
0
100
AcDbLine
62
9
6
CONTINUOUS
10
-3.9733373476
20
23.5000000000
11
-3.0000000000
21
23.5000000000
0
LINE
5
273
100
AcDbEntity
8
0
100
AcDbLine
62
9
6
CONTINUOUS
10
3.0000000000
20
23.5000000000
11
3.9733373476
21
23.5000000000
0
LINE
5
274
100
AcDbEntity
8
0
100
AcDbLine
62
9
6
CONTINUOUS
10
-38.8497848320
20
-23.5000000000
11
-34.8497848320
21
-23.4301797403
0
LINE
5
275
100
AcDbEntity
8
0
100
AcDbLine
62
9
6
CONTINUOUS
10
-33.2497848320
20
-22.4000000000
11
-32.7497848320
21
-22.4000000000
0
LINE
5
276
100
AcDbEntity
8
0
100
AcDbLine
62
9
6
CONTINUOUS
10
-46.9610398519
20
-21.9749071372
11
-38.8497848320
21
-22.4000000000
0
LINE
5
277
100
AcDbEntity
8
0
100
AcDbLine
62
9
6
CONTINUOUS
10
-47.4169881340
20
-20.9972959167
11
-47.9078142964
21
-21.0183139940
0
LINE
5
278
100
AcDbEntity
8
0
100
AcDbLine
62
9
6
CONTINUOUS
10
-30.8145700461
20
-21.1647852141
11
-34.8497848320
21
-21.2000000000
0
LINE
5
279
100
AcDbEntity
8
0
100
AcDbLine
62
9
6
CONTINUOUS
10
-30.7657999707
20
-20.8366629075
11
-38.8497848320
21
-20.9000000000
0
LINE
5
27A
100
AcDbEntity
8
0
100
AcDbLine
62
9
6
CONTINUOUS
10
-30.8497848320
20
-21.2000000000
11
-34.8497848320
21
-21.2000000000
0
LINE
5
27B
100
AcDbEntity
8
0
100
AcDbLine
62
9
6
CONTINUOUS
10
-46.9435980770
20
-21.4755923698
11
-38.8497848320
21
-21.8997711479
0
LINE
5
27C
100
AcDbEntity
8
0
100
AcDbLine
62
9
6
CONTINUOUS
10
-30.0462943507
20
-20.1171572875
11
-29.8497848320
21
-20.1171572875
0
LINE
5
27D
100
AcDbEntity
8
0
100
AcDbLine
62
9
6
CONTINUOUS
10
-30.0462943507
20
-19.0000000000
11
-29.8497848320
21
-18.9999999999
0
LINE
5
27E
100
AcDbEntity
8
0
100
AcDbLine
62
9
6
CONTINUOUS
10
-30.3462943507
20
-18.7000000000
11
-34.6046756578
21
-18.7000000000
0
LINE
5
27F
100
AcDbEntity
8
0
100
AcDbLine
62
9
6
CONTINUOUS
10
-30.3497848320
20
-18.5000000000
11
-34.5818356396
21
-18.5000000000
0
LINE
5
280
100
AcDbEntity
8
0
100
AcDbLine
62
9
6
CONTINUOUS
10
-34.6046756578
20
-18.7000000000
11
-38.8497848320
21
-17.5625264250
0
LINE
5
281
100
AcDbEntity
8
0
100
AcDbLine
62
9
6
CONTINUOUS
10
-34.5818356396
20
-18.5000000000
11
-38.8497848320
21
-17.3564064606
0
LINE
5
282
100
AcDbEntity
8
0
100
AcDbLine
62
9
6
CONTINUOUS
10
-29.1497848320
20
-13.1450136038
11
-30.3497848320
21
-13.2500000000
0
LINE
5
283
100
AcDbEntity
8
0
100
AcDbLine
62
9
6
CONTINUOUS
10
-38.8497848320
20
-12.6007591949
11
-33.0462943461
21
-12.4994588916
0
LINE
5
284
100
AcDbEntity
8
0
100
AcDbLine
62
9
6
CONTINUOUS
10
-31.8497848320
20
-13.0000000000
11
-30.3497848320
21
-12.9869096983
0
LINE
5
285
100
AcDbEntity
8
0
100
AcDbLine
62
9
6
CONTINUOUS
10
-32.8497848320
20
-12.9912731322
11
-31.8497848320
21
-13.0000000000
0
LINE
5
286
100
AcDbEntity
8
0
100
AcDbLine
62
9
6
CONTINUOUS
10
-32.8497848320
20
-7.0087268678
11
-31.8497848320
21
-7.0000000000
0
LINE
5
287
100
AcDbEntity
8
0
100
AcDbLine
62
9
6
CONTINUOUS
10
-31.8497848320
20
-7.0000000000
11
-30.3497848320
21
-7.0130903017
0
LINE
5
288
100
AcDbEntity
8
0
100
AcDbLine
62
9
6
CONTINUOUS
10
-38.8497848320
20
-7.3992408051
11
-33.0462943461
21
-7.5005411084
0
LINE
5
289
100
AcDbEntity
8
0
100
AcDbLine
62
9
6
CONTINUOUS
10
-29.1497848320
20
-6.8549863962
11
-30.3497848320
21
-6.7500000000
0
LINE
5
28A
100
AcDbEntity
8
0
100
AcDbLine
62
9
6
CONTINUOUS
10
-38.8497848320
20
22.6631666220
11
-38.8497848320
21
-22.6631666220
0
LINE
5
28B
100
AcDbEntity
8
0
100
AcDbLine
62
9
6
CONTINUOUS
10
-38.8497848320
20
-22.7738654494
11
-38.8497848320
21
-23.5000000000
0
LINE
5
28C
100
AcDbEntity
8
0
100
AcDbLine
62
9
6
CONTINUOUS
10
-38.8497848320
20
22.7738536449
11
-38.8497848320
21
23.5000000000
0
LINE
5
28D
100
AcDbEntity
8
0
100
AcDbLine
62
9
6
CONTINUOUS
10
-34.8497848320
20
23.4301797403
11
-34.8497848320
21
21.2000000000
0
LINE
5
28E
100
AcDbEntity
8
0
100
AcDbLine
62
9
6
CONTINUOUS
10
-34.8497848320
20
-21.2000000000
11
-34.8497848320
21
-23.4301797403
0
LINE
5
28F
100
AcDbEntity
8
0
100
AcDbLine
62
9
6
CONTINUOUS
10
-33.2497848320
20
-21.2000000000
11
-33.2497848320
21
-22.4000000000
0
LINE
5
290
100
AcDbEntity
8
0
100
AcDbLine
62
9
6
CONTINUOUS
10
-33.2497848320
20
21.2000000000
11
-33.2497848320
21
22.4000000000
0
LINE
5
291
100
AcDbEntity
8
0
100
AcDbLine
62
9
6
CONTINUOUS
10
-33.0462943461
20
-7.5005411084
11
-33.0462943461
21
-12.4994588916
0
LINE
5
292
100
AcDbEntity
8
0
100
AcDbLine
62
9
6
CONTINUOUS
10
-32.8497848320
20
-7.0087268678
11
-32.8497848320
21
-12.9912731322
0
LINE
5
293
100
AcDbEntity
8
0
100
AcDbLine
62
9
6
CONTINUOUS
10
-31.8497848320
20
-7.0000000000
11
-31.8497848320
21
-13.0000000000
0
LINE
5
294
100
AcDbEntity
8
0
100
AcDbLine
62
9
6
CONTINUOUS
10
-30.3497848320
20
-13.2499919726
11
-30.3497848320
21
-6.7500080274
0
LINE
5
295
100
AcDbEntity
8
0
100
AcDbLine
62
9
6
CONTINUOUS
10
-30.0462943507
20
20.1171572875
11
-30.0462943507
21
19.0000000000
0
LINE
5
296
100
AcDbEntity
8
0
100
AcDbLine
62
9
6
CONTINUOUS
10
-30.0462943507
20
-20.1171572875
11
-30.0462943507
21
-19.0000000000
0
LINE
5
297
100
AcDbEntity
8
0
100
AcDbLine
62
9
6
CONTINUOUS
10
-29.8497848320
20
20.1171572875
11
-29.8497848320
21
19.0000000000
0
LINE
5
298
100
AcDbEntity
8
0
100
AcDbLine
62
9
6
CONTINUOUS
10
-29.8497848320
20
-20.1171572875
11
-29.8497848320
21
-19.0000000000
0
LINE
5
299
100
AcDbEntity
8
0
100
AcDbLine
62
9
6
CONTINUOUS
10
-29.1497848320
20
-13.1449847606
11
-29.1497848320
21
-13.0872496770
0
LINE
5
29A
100
AcDbEntity
8
0
100
AcDbLine
62
9
6
CONTINUOUS
10
-29.1497848320
20
-6.9127503230
11
-29.1497848320
21
-6.8550152394
0
LINE
5
29B
100
AcDbEntity
8
0
100
AcDbLine
62
9
6
CONTINUOUS
10
-28.3618817157
20
-13.0169975803
11
-28.3618817157
21
-6.9830024197
0
LINE
5
29C
100
AcDbEntity
8
0
100
AcDbLine
62
9
6
CONTINUOUS
10
-27.8562292364
20
-9.7718605073
11
-27.8562292364
21
-10.2279452996
0
LINE
5
29D
100
AcDbEntity
8
0
100
AcDbLine
62
9
6
CONTINUOUS
10
-38.8497848320
20
17.3564064606
11
-34.5818356396
21
18.5000000000
0
LINE
5
29E
100
AcDbEntity
8
0
100
AcDbLine
62
9
6
CONTINUOUS
10
-38.8497848320
20
17.5625264250
11
-34.6046756578
21
18.7000000000
0
LINE
5
29F
100
AcDbEntity
8
0
100
AcDbLine
62
9
6
CONTINUOUS
10
-30.3497848320
20
18.5000000000
11
-34.5818356396
21
18.5000000000
0
LINE
5
2A0
100
AcDbEntity
8
0
100
AcDbLine
62
9
6
CONTINUOUS
10
-30.3462943507
20
18.7000000000
11
-34.6046756578
21
18.7000000000
0
LINE
5
2A1
100
AcDbEntity
8
0
100
AcDbLine
62
9
6
CONTINUOUS
10
-29.8497848320
20
19.0000000000
11
-30.0462943507
21
19.0000000000
0
LINE
5
2A2
100
AcDbEntity
8
0
100
AcDbLine
62
9
6
CONTINUOUS
10
-30.7657999707
20
-20.8366629075
11
-30.0462943507
21
-20.1171572875
0
LINE
5
2A3
100
AcDbEntity
8
0
100
AcDbLine
62
9
6
CONTINUOUS
10
-29.9083634758
20
-20.2585786438
11
-30.8497848320
21
-21.2000000000
0
LINE
5
2A4
100
AcDbEntity
8
0
100
AcDbLine
62
9
6
CONTINUOUS
10
-29.8497848320
20
20.1171572875
11
-30.0462943507
21
20.1171572875
0
LINE
5
2A5
100
AcDbEntity
8
0
100
AcDbLine
62
9
6
CONTINUOUS
10
-30.7657999707
20
20.8366629075
11
-38.8497848320
21
20.9000000000
0
LINE
5
2A6
100
AcDbEntity
8
0
100
AcDbLine
62
9
6
CONTINUOUS
10
-47.4169881340
20
20.9972959167
11
-47.9078199478
21
21.0183142302
0
LINE
5
2A7
100
AcDbEntity
8
0
100
AcDbLine
62
9
6
CONTINUOUS
10
-30.7657999707
20
20.8366629075
11
-30.0462943507
21
20.1171572875
0
LINE
5
2A8
100
AcDbEntity
8
0
100
AcDbLine
62
9
6
CONTINUOUS
10
-30.8497848320
20
21.2000000000
11
-29.9083634758
21
20.2585786438
0
LINE
5
2A9
100
AcDbEntity
8
0
100
AcDbLine
62
9
6
CONTINUOUS
10
-30.8497848320
20
-21.2000000000
11
-32.7497848320
21
-22.4000000000
0
LINE
5
2AA
100
AcDbEntity
8
0
100
AcDbLine
62
9
6
CONTINUOUS
10
-38.8497848320
20
21.8997711479
11
-46.9435980770
21
21.4755923698
0
LINE
5
2AB
100
AcDbEntity
8
0
100
AcDbLine
62
9
6
CONTINUOUS
10
-38.8497848320
20
22.4000000000
11
-46.9610398519
21
21.9749071372
0
LINE
5
2AC
100
AcDbEntity
8
0
100
AcDbLine
62
9
6
CONTINUOUS
10
-34.8497848320
20
21.2000000000
11
-30.8497848320
21
21.2000000000
0
LINE
5
2AD
100
AcDbEntity
8
0
100
AcDbLine
62
9
6
CONTINUOUS
10
-33.2497848320
20
22.4000000000
11
-32.7497848320
21
22.4000000000
0
LINE
5
2AE
100
AcDbEntity
8
0
100
AcDbLine
62
9
6
CONTINUOUS
10
-34.8497848320
20
21.2000000000
11
-30.8145700461
21
21.1647852141
0
LINE
5
2AF
100
AcDbEntity
8
0
100
AcDbLine
62
9
6
CONTINUOUS
10
-32.7497848320
20
22.4000000000
11
-30.8497848320
21
21.2000000000
0
LINE
5
2B0
100
AcDbEntity
8
0
100
AcDbLine
62
9
6
CONTINUOUS
10
-38.8497848320
20
23.5000000000
11
-34.8497848320
21
23.4301797403
0
ARC
5
2B1
100
AcDbEntity
8
0
100
AcDbCircle
62
9
6
CONTINUOUS
10
-11.2500000000
20
0.0000000000
40
28.0000000000
100
AcDbArc
50
53.1301023542
51
54.0372348486
0
ARC
5
2B2
100
AcDbEntity
8
0
100
AcDbCircle
62
9
6
CONTINUOUS
10
-11.2500000000
20
0.0000000000
40
28.0000000000
100
AcDbArc
50
55.8789063483
51
57.0647695028
0
ARC
5
2B3
100
AcDbEntity
8
0
100
AcDbCircle
62
9
6
CONTINUOUS
10
-11.2500000000
20
0.0000000000
40
28.0000000000
100
AcDbArc
50
302.9352304972
51
304.1210936517
0
ARC
5
2B4
100
AcDbEntity
8
0
100
AcDbCircle
62
9
6
CONTINUOUS
10
-11.2500000000
20
0.0000000000
40
28.0000000000
100
AcDbArc
50
305.9627651514
51
306.8698976458
0
ARC
5
2B5
100
AcDbEntity
8
0
100
AcDbCircle
62
9
6
CONTINUOUS
10
11.2500000000
20
0.0000000000
40
28.0000000000
100
AcDbArc
50
122.9352304972
51
124.1210936517
0
ARC
5
2B6
100
AcDbEntity
8
0
100
AcDbCircle
62
9
6
CONTINUOUS
10
11.2500000000
20
0.0000000000
40
28.0000000000
100
AcDbArc
50
125.9627651514
51
126.8698976458
0
ARC
5
2B7
100
AcDbEntity
8
0
100
AcDbCircle
62
9
6
CONTINUOUS
10
11.2500000000
20
0.0000000000
40
28.0000000000
100
AcDbArc
50
233.1301023542
51
234.0372348486
0
ARC
5
2B8
100
AcDbEntity
8
0
100
AcDbCircle
62
9
6
CONTINUOUS
10
11.2500000000
20
0.0000000000
40
28.0000000000
100
AcDbArc
50
235.8789063483
51
237.0647695028
0
ARC
5
2B9
100
AcDbEntity
8
0
100
AcDbCircle
62
9
6
CONTINUOUS
10
4.9500000000
20
23.1000000000
40
0.5000000000
100
AcDbArc
50
170.8037184210
51
299.1124227760
0
ARC
5
2BA
100
AcDbEntity
8
0
100
AcDbCircle
62
9
6
CONTINUOUS
10
4.9500000000
20
-23.1000000000
40
0.5000000000
100
AcDbArc
50
60.8875772240
51
189.1962815790
0
ARC
5
2BB
100
AcDbEntity
8
0
100
AcDbCircle
62
9
6
CONTINUOUS
10
-4.9500000000
20
23.1000000000
40
0.5000000000
100
AcDbArc
50
240.8875772240
51
9.1962815790
0
ARC
5
2BC
100
AcDbEntity
8
0
100
AcDbCircle
62
9
6
CONTINUOUS
10
-4.9500000000
20
-23.1000000000
40
0.5000000000
100
AcDbArc
50
350.8037184210
51
119.1124227760
0
CIRCLE
5
2BD
100
AcDbEntity
8
0
100
AcDbCircle
62
9
6
CONTINUOUS
10
0.0000000000
20
0.0000000000
40
4.8000000000
0
ARC
5
2BE
100
AcDbEntity
8
0
100
AcDbCircle
62
9
6
CONTINUOUS
10
-34.6497848320
20
-10.0000000000
40
6.9742383097
100
AcDbArc
50
5.6109025878
51
25.6321484864
0
ARC
5
2BF
100
AcDbEntity
8
0
100
AcDbCircle
62
9
6
CONTINUOUS
10
-34.6497848320
20
-10.0000000000
40
6.9742383097
100
AcDbArc
50
334.3678515136
51
354.3890903291
0
ARC
5
2C0
100
AcDbEntity
8
0
100
AcDbCircle
62
9
6
CONTINUOUS
10
-33.0497848320
20
-7.7005106473
40
0.2000000000
100
AcDbArc
50
0.0000000000
51
88.9999986833
0
ARC
5
2C1
100
AcDbEntity
8
0
100
AcDbCircle
62
9
6
CONTINUOUS
10
-33.0497848320
20
-12.2994893527
40
0.2000000000
100
AcDbArc
50
271.0000013172
51
360.0000000000
0
ARC
5
2C2
100
AcDbEntity
8
0
100
AcDbCircle
62
9
6
CONTINUOUS
10
-46.9087038957
20
20.9762776025
40
1.0000000000
100
AcDbArc
50
93.0000000000
51
177.5907686986
0
ARC
5
2C3
100
AcDbEntity
8
0
100
AcDbCircle
62
9
6
CONTINUOUS
10
451.6502151680
20
0.0000000000
40
500.0000000000
100
AcDbArc
50
177.5907686986
51
182.4092313014
0
ARC
5
2C4
100
AcDbEntity
8
0
100
AcDbCircle
62
9
6
CONTINUOUS
10
-46.9087038957
20
-20.9762776025
40
1.0000000000
100
AcDbArc
50
182.4092313014
51
267.0000000000
0
ARC
5
2C5
100
AcDbEntity
8
0
100
AcDbCircle
62
9
6
CONTINUOUS
10
-30.3497848320
20
19.0000000000
40
0.5000000000
100
AcDbArc
50
270.0000000000
51
360.0000000000
0
ARC
5
2C6
100
AcDbEntity
8
0
100
AcDbCircle
62
9
6
CONTINUOUS
10
-30.3497848320
20
-19.0000000000
40
0.5000000000
100
AcDbArc
50
0.0000000000
51
90.0000000000
0
ARC
5
2C7
100
AcDbEntity
8
0
100
AcDbCircle
62
9
6
CONTINUOUS
10
-30.0497848320
20
-20.1171572875
40
0.2000000000
100
AcDbArc
50
315.0000000000
51
360.0000000000
0
ARC
5
2C8
100
AcDbEntity
8
0
100
AcDbCircle
62
9
6
CONTINUOUS
10
-30.0497848320
20
20.1171572875
40
0.2000000000
100
AcDbArc
50
0.0000000000
51
45.0000000000
0
SPLINE
5
2C9
100
AcDbEntity
8
0
100
AcDbSpline
62
9
6
CONTINUOUS
70
0
71
3
72
15
73
11
74
9
42
0.0000001000
43
0.0000001000
44
0.0000000001
12
0.0000000000
22
0.7840504605
32
0.0000000000
13
0.7840504605
23
0.0000000000
33
0.0000000000
40
0.0000000000
40
0.0000000000
40
0.0000000000
40
0.0000000000
40
0.1250035856
40
0.2500003382
40
0.3749971738
40
0.4999931596
40
0.6249941993
40
0.7499962985
40
0.8749988330
40
1.0000000000
40
1.0000000000
40
1.0000000000
40
1.0000000000
10
-11.1500000000
20
21.8997711479
30
0.0000000000
10
-11.1500000000
20
21.9324408542
30
0.0000000000
10
-11.1435720625
20
21.9979588343
30
0.0000000000
10
-11.1150028885
20
22.0923353736
30
0.0000000000
10
-11.0685863853
20
22.1793736183
30
0.0000000000
10
-11.0060858443
20
22.2556795571
30
0.0000000000
10
-10.9298940235
20
22.3183228818
30
0.0000000000
10
-10.8429223671
20
22.3648787971
30
0.0000000000
10
-10.7485697898
20
22.3935479377
30
0.0000000000
10
-10.6830496739
20
22.4000000000
30
0.0000000000
10
-10.6503805997
20
22.4000000000
30
0.0000000000
11
-11.1500000000
21
21.8997711479
31
0.0000000000
11
-11.1404171274
21
21.9973106575
31
0.0000000000
11
-11.1120282390
21
22.0911126206
31
0.0000000000
11
-11.0659057104
21
22.1775849419
31
0.0000000000
11
-11.0038050670
21
22.2534013617
31
0.0000000000
11
-10.9280978412
21
22.3156413172
31
0.0000000000
11
-10.8416923200
21
22.3618976126
31
0.0000000000
11
-10.7479148288
21
22.3903828363
31
0.0000000000
11
-10.6503805997
21
22.4000000000
31
0.0000000000
0
SPLINE
5
2CA
100
AcDbEntity
8
0
100
AcDbSpline
62
9
6
CONTINUOUS
70
0
71
3
72
15
73
11
74
9
42
0.0000001000
43
0.0000001000
44
0.0000000001
12
-0.7840504604
22
0.0000000000
32
0.0000000000
13
-0.0000000000
23
0.7840504604
33
0.0000000000
40
0.0000000000
40
0.0000000000
40
0.0000000000
40
0.0000000000
40
0.1250026133
40
0.2500082844
40
0.3750136098
40
0.5000160060
40
0.6250106349
40
0.7500042447
40
0.8749978606
40
1.0000000000
40
1.0000000000
40
1.0000000000
40
1.0000000000
10
-10.6503805997
20
-22.4000000000
30
0.0000000000
10
-10.6830500519
20
-22.4000000000
30
0.0000000000
10
-10.7485713718
20
-22.3935477443
30
0.0000000000
10
-10.8429258085
20
-22.3648775487
30
0.0000000000
10
-10.9298988298
20
-22.3183198083
30
0.0000000000
10
-11.0060904776
20
-22.2556749149
30
0.0000000000
10
-11.0685894502
20
-22.1793688070
30
0.0000000000
10
-11.1150041327
20
-22.0923319310
30
0.0000000000
10
-11.1435722551
20
-21.9979572524
30
0.0000000000
10
-11.1500000000
20
-21.9324404763
30
0.0000000000
10
-11.1500000000
20
-21.8997711479
30
0.0000000000
11
-10.6503805997
21
-22.4000000000
31
0.0000000000
11
-10.7479159463
21
-22.3903826137
31
0.0000000000
11
-10.8416956551
21
-22.3618962291
31
0.0000000000
11
-10.9281029540
21
-22.3156378952
31
0.0000000000
11
-11.0038101683
21
-22.2533962508
31
0.0000000000
11
-11.0659091235
21
-22.1775798235
31
0.0000000000
11
-11.1120296181
21
-22.0911092838
31
0.0000000000
11
-11.1404173492
21
-21.9973095399
31
0.0000000000
11
-11.1500000000
21
-21.8997711479
31
0.0000000000
0
SPLINE
5
2CB
100
AcDbEntity
8
0
100
AcDbSpline
62
9
6
CONTINUOUS
70
0
71
3
72
15
73
11
74
9
42
0.0000001000
43
0.0000001000
44
0.0000000001
12
0.7840504604
22
0.0000000000
32
0.0000000000
13
0.0000000000
23
-0.7840504604
33
0.0000000000
40
0.0000000000
40
0.0000000000
40
0.0000000000
40
0.0000000000
40
0.1250026133
40
0.2500082844
40
0.3750136098
40
0.5000160060
40
0.6250106349
40
0.7500042447
40
0.8749978606
40
1.0000000000
40
1.0000000000
40
1.0000000000
40
1.0000000000
10
10.6503805997
20
22.4000000000
30
0.0000000000
10
10.6830500519
20
22.4000000000
30
0.0000000000
10
10.7485713718
20
22.3935477443
30
0.0000000000
10
10.8429258085
20
22.3648775487
30
0.0000000000
10
10.9298988298
20
22.3183198083
30
0.0000000000
10
11.0060904776
20
22.2556749149
30
0.0000000000
10
11.0685894502
20
22.1793688070
30
0.0000000000
10
11.1150041327
20
22.0923319310
30
0.0000000000
10
11.1435722551
20
21.9979572524
30
0.0000000000
10
11.1500000000
20
21.9324404763
30
0.0000000000
10
11.1500000000
20
21.8997711479
30
0.0000000000
11
10.6503805997
21
22.4000000000
31
0.0000000000
11
10.7479159463
21
22.3903826137
31
0.0000000000
11
10.8416956551
21
22.3618962291
31
0.0000000000
11
10.9281029540
21
22.3156378952
31
0.0000000000
11
11.0038101683
21
22.2533962508
31
0.0000000000
11
11.0659091235
21
22.1775798235
31
0.0000000000
11
11.1120296181
21
22.0911092838
31
0.0000000000
11
11.1404173492
21
21.9973095399
31
0.0000000000
11
11.1500000000
21
21.8997711479
31
0.0000000000
0
SPLINE
5
2CC
100
AcDbEntity
8
0
100
AcDbSpline
62
9
6
CONTINUOUS
70
0
71
3
72
15
73
11
74
9
42
0.0000001000
43
0.0000001000
44
0.0000000001
12
0.0000000000
22
-0.7840504605
32
0.0000000000
13
-0.7840504605
23
0.0000000000
33
0.0000000000
40
0.0000000000
40
0.0000000000
40
0.0000000000
40
0.0000000000
40
0.1250035856
40
0.2500003382
40
0.3749971738
40
0.4999931596
40
0.6249941993
40
0.7499962985
40
0.8749988330
40
1.0000000000
40
1.0000000000
40
1.0000000000
40
1.0000000000
10
11.1500000000
20
-21.8997711479
30
0.0000000000
10
11.1500000000
20
-21.9324408542
30
0.0000000000
10
11.1435720625
20
-21.9979588343
30
0.0000000000
10
11.1150028885
20
-22.0923353736
30
0.0000000000
10
11.0685863853
20
-22.1793736183
30
0.0000000000
10
11.0060858443
20
-22.2556795571
30
0.0000000000
10
10.9298940235
20
-22.3183228818
30
0.0000000000
10
10.8429223671
20
-22.3648787971
30
0.0000000000
10
10.7485697898
20
-22.3935479377
30
0.0000000000
10
10.6830496739
20
-22.4000000000
30
0.0000000000
10
10.6503805997
20
-22.4000000000
30
0.0000000000
11
11.1500000000
21
-21.8997711479
31
0.0000000000
11
11.1404171274
21
-21.9973106575
31
0.0000000000
11
11.1120282390
21
-22.0911126206
31
0.0000000000
11
11.0659057104
21
-22.1775849419
31
0.0000000000
11
11.0038050670
21
-22.2534013617
31
0.0000000000
11
10.9280978412
21
-22.3156413172
31
0.0000000000
11
10.8416923200
21
-22.3618976126
31
0.0000000000
11
10.7479148288
21
-22.3903828363
31
0.0000000000
11
10.6503805997
21
-22.4000000000
31
0.0000000000
0
SPLINE
5
2CD
100
AcDbEntity
8
0
100
AcDbSpline
62
9
6
CONTINUOUS
70
0
71
3
72
24
73
20
74
18
42
0.0000001000
43
0.0000001000
44
0.0000000001
12
-16.0391660865
22
0.0017021191
32
0.0000000000
13
16.0391661036
23
0.0015321971
33
0.0000000000
40
0.0000000000
40
0.0000000000
40
0.0000000000
40
0.0000000000
40
0.0586085971
40
0.1174796139
40
0.1763138213
40
0.2351428290
40
0.2939916719
40
0.3528659822
40
0.4117324521
40
0.4705952199
40
0.5293961761
40
0.5882643557
40
0.6471333621
40
0.7060088319
40
0.7648580328
40
0.8236882835
40
0.8825244993
40
0.9413950028
40
1.0000000000
40
1.0000000000
40
1.0000000000
40
1.0000000000
10
0.0000000000
20
-5.1140036519
30
0.0000000000
10
-0.3133443412
20
-5.1139703989
30
0.0000000000
10
-0.9429670002
20
-5.0559152205
30
0.0000000000
10
-1.8546568494
20
-4.7967960294
30
0.0000000000
10
-2.7045161860
20
-4.3738796281
30
0.0000000000
10
-3.4619499330
20
-3.8020013526
30
0.0000000000
10
-4.1015343460
20
-3.1004868000
30
0.0000000000
10
-4.6013597311
20
-2.2931784769
30
0.0000000000
10
-4.9443055866
20
-1.4076876790
30
0.0000000000
10
-5.1186231965
20
-0.4746447154
30
0.0000000000
10
-5.1186360760
20
0.4745360503
30
0.0000000000
10
-4.9443278575
20
1.4076253506
30
0.0000000000
10
-4.6013695806
20
2.2931643483
30
0.0000000000
10
-4.1015326785
20
3.1004913425
30
0.0000000000
10
-3.4619371990
20
3.8020161828
30
0.0000000000
10
-2.7044842843
20
4.3739011441
30
0.0000000000
10
-1.8546087538
20
4.7968199510
30
0.0000000000
10
-0.9429250811
20
5.0559176529
30
0.0000000000
10
-0.3133250946
20
5.1139737204
30
0.0000000000
10
0.0000000000
20
5.1140036519
30
0.0000000000
11
0.0000000000
21
-5.1140036519
31
0.0000000000
11
-0.9360465883
21
-5.0275231353
31
0.0000000000
11
-1.8443441783
21
-4.7694756967
31
0.0000000000
11
-2.6891548873
21
-4.3490315688
31
0.0000000000
11
-3.4422051524
21
-3.7804928254
31
0.0000000000
11
-4.0781370298
21
-3.0829886109
31
0.0000000000
11
-4.5752241534
21
-2.2801205350
31
0.0000000000
11
-4.9162199154
21
-1.3996790736
31
0.0000000000
11
-5.0896086161
21
-0.4716276130
31
0.0000000000
11
-5.0896214025
21
0.4714906938
31
0.0000000000
11
-4.9162340815
21
1.3996307132
31
0.0000000000
11
-4.5752290116
21
2.2801121977
31
0.0000000000
11
-4.0781323044
21
3.0829962149
31
0.0000000000
11
-3.4421952170
21
3.7805034485
31
0.0000000000
11
-2.6891261566
21
4.3490503844
31
0.0000000000
11
-1.8442830776
21
4.7695017702
31
0.0000000000
11
-0.9359895484
21
5.0275333825
31
0.0000000000
11
0.0000000000
21
5.1140036519
31
0.0000000000
0
SPLINE
5
2CE
100
AcDbEntity
8
0
100
AcDbSpline
62
9
6
CONTINUOUS
70
0
71
3
72
13
73
9
74
7
42
0.0000001000
43
0.0000001000
44
0.0000000001
12
0.1577378029
22
-0.9435858985
32
0.0000000000
13
0.0003490202
23
-0.9566793822
33
0.0000000000
40
0.0000000000
40
0.0000000000
40
0.0000000000
40
0.0000000000
40
0.0448208408
40
0.1498261432
40
0.3086281187
40
0.5117190361
40
0.7469352638
40
1.0000000000
40
1.0000000000
40
1.0000000000
40
1.0000000000
10
-10.5087981167
20
21.9749071372
30
0.0000000000
10
-10.5064414697
20
21.9608096994
30
0.0000000000
10
-10.5072295647
20
21.9127248768
30
0.0000000000
10
-10.5036916604
20
21.8145848799
30
0.0000000000
10
-10.5030908201
20
21.6655686219
30
0.0000000000
10
-10.5015010824
20
21.4752101535
30
0.0000000000
10
-10.5008152536
20
21.2547198844
30
0.0000000000
10
-10.5005645041
20
21.0990148361
30
0.0000000000
10
-10.5005350625
20
21.0183142309
30
0.0000000000
11
-10.5087981167
21
21.9749071372
31
0.0000000000
11
-10.5066887591
21
21.9320798744
31
0.0000000000
11
-10.5047336849
21
21.8316424864
31
0.0000000000
11
-10.5030519635
21
21.6797292088
31
0.0000000000
11
-10.5017438026
21
21.4854407064
31
0.0000000000
11
-10.5008871714
21
21.2604158065
31
0.0000000000
11
-10.5005350625
21
21.0183142309
31
0.0000000000
0
SPLINE
5
2CF
100
AcDbEntity
8
0
100
AcDbSpline
62
9
6
CONTINUOUS
70
0
71
3
72
13
73
9
74
7
42
0.0000001000
43
0.0000001000
44
0.0000000001
12
0.1518283440
22
-0.4537411951
32
0.0000000000
13
0.0003498850
23
-0.4784692214
33
0.0000000000
40
0.0000000000
40
0.0000000000
40
0.0000000000
40
0.0000000000
40
0.0448720941
40
0.1499620513
40
0.3088769427
40
0.5121305404
40
0.7475203519
40
1.0000000000
40
1.0000000000
40
1.0000000000
40
1.0000000000
10
-11.0087219643
20
21.4755923698
30
0.0000000000
10
-11.0064510124
20
21.4688055973
30
0.0000000000
10
-11.0070644478
20
21.4443203345
30
0.0000000000
10
-11.0036664875
20
21.3955798760
30
0.0000000000
10
-11.0029931518
20
21.3208239670
30
0.0000000000
10
-11.0014301292
20
21.2256234781
30
0.0000000000
10
-11.0007361325
20
21.1153658418
30
0.0000000000
10
-11.0004883564
20
21.0375638302
30
0.0000000000
10
-11.0004589101
20
20.9972959167
30
0.0000000000
11
-11.0087219643
21
21.4755923698
31
0.0000000000
11
-11.0066154888
21
21.4542260342
31
0.0000000000
11
-11.0046585314
21
21.4039818070
31
0.0000000000
11
-11.0029751375
21
21.3279645393
31
0.0000000000
11
-11.0016659628
21
21.2307227351
31
0.0000000000
11
-11.0008096574
21
21.1180991805
31
0.0000000000
11
-11.0004589101
21
20.9972959167
31
0.0000000000
0
SPLINE
5
2D0
100
AcDbEntity
8
0
100
AcDbSpline
62
9
6
CONTINUOUS
70
0
71
3
72
12
73
8
74
6
42
0.0000001000
43
0.0000001000
44
0.0000000001
12
-0.7813571085
22
-0.0007128051
32
0.0000000000
13
-0.0007145497
23
-0.7813571069
33
0.0000000000
40
0.0000000000
40
0.0000000000
40
0.0000000000
40
0.0000000000
40
0.2000879484
40
0.4001761228
40
0.6002085985
40
0.8001502331
40
1.0000000000
40
1.0000000000
40
1.0000000000
40
1.0000000000
10
-10.5087981167
20
21.9749071372
30
0.0000000000
10
-10.5609114970
20
21.9748595960
30
0.0000000000
10
-10.6658541434
20
21.9582167171
30
0.0000000000
10
-10.8073215017
20
21.8860919029
30
0.0000000000
10
-10.9197686772
20
21.7737938411
30
0.0000000000
10
-10.9920030345
20
21.6324882152
30
0.0000000000
10
-11.0086743634
20
21.5276437151
30
0.0000000000
10
-11.0087219643
20
21.4755923698
30
0.0000000000
11
-10.5087981167
21
21.9749071372
31
0.0000000000
11
-10.6631985021
21
21.9503555394
31
0.0000000000
11
-10.8025013793
21
21.8793835478
31
0.0000000000
11
-10.9130864355
21
21.7689315022
31
0.0000000000
11
-10.9841419991
21
21.6297997904
31
0.0000000000
11
-11.0087219643
21
21.4755923698
31
0.0000000000
0
SPLINE
5
2D1
100
AcDbEntity
8
0
100
AcDbSpline
62
9
6
CONTINUOUS
70
0
71
3
72
10
73
6
74
4
42
0.0000001000
43
0.0000001000
44
0.0000000001
12
0.0308408131
22
-41.9945838615
32
0.0000000000
13
-0.0308408106
23
-41.9945838615
33
0.0000000000
40
0.0000000000
40
0.0000000000
40
0.0000000000
40
0.0000000000
40
0.3332892101
40
0.6667109287
40
1.0000000000
40
1.0000000000
40
1.0000000000
40
1.0000000000
10
-11.0004589101
20
20.9972959167
30
0.0000000000
10
-10.9970326067
20
16.3318486893
30
0.0000000000
10
-10.9924665635
20
6.9990975058
30
0.0000000000
10
-10.9924665646
20
-6.9991013917
30
0.0000000000
10
-10.9970326084
20
-16.3318506322
30
0.0000000000
10
-11.0004589101
20
-20.9972959167
30
0.0000000000
11
-11.0004589101
21
20.9972959167
31
0.0000000000
11
-10.9936085283
21
7.0009521365
31
0.0000000000
11
-10.9936085296
21
-7.0009579653
31
0.0000000000
11
-11.0004589101
21
-20.9972959167
31
0.0000000000
0
SPLINE
5
2D2
100
AcDbEntity
8
0
100
AcDbSpline
62
9
6
CONTINUOUS
70
0
71
3
72
12
73
8
74
6
42
0.0000001000
43
0.0000001000
44
0.0000000001
12
-0.5010580609
22
-0.0003673192
32
0.0000000000
13
-0.1919553163
23
-0.4628309323
33
0.0000000000
40
0.0000000000
40
0.0000000000
40
0.0000000000
40
0.0000000000
40
0.3050607102
40
0.5809725745
40
0.8013959844
40
0.9453902239
40
1.0000000000
40
1.0000000000
40
1.0000000000
40
1.0000000000
10
-10.5005350625
20
21.0183142305
30
0.0000000000
10
-10.5514861052
20
21.0182768789
30
0.0000000000
10
-10.6490214532
20
21.0180276728
30
0.0000000000
10
-10.7809060054
20
21.0135856071
30
0.0000000000
10
-10.8928023060
20
21.0137704023
30
0.0000000000
10
-10.9527896770
20
21.0005048015
30
0.0000000000
10
-10.9969646978
20
21.0057209479
30
0.0000000000
10
-11.0004589101
20
20.9972959167
30
0.0000000000
11
-10.5005350625
21
21.0183142305
31
0.0000000000
11
-10.6533841411
21
21.0171959985
31
0.0000000000
11
-10.7915989752
21
21.0141724692
31
0.0000000000
11
-10.9019464483
21
21.0095331264
31
0.0000000000
11
-10.9738615515
21
21.0037221554
31
0.0000000000
11
-11.0004589101
21
20.9972959167
31
0.0000000000
0
SPLINE
5
2D3
100
AcDbEntity
8
0
100
AcDbSpline
62
9
6
CONTINUOUS
70
0
71
3
72
13
73
9
74
7
42
0.0000001000
43
0.0000001000
44
0.0000000001
12
-0.0003490200
22
-0.9566793822
32
0.0000000000
13
-0.1577378176
23
-0.9435858960
33
0.0000000000
40
0.0000000000
40
0.0000000000
40
0.0000000000
40
0.0000000000
40
0.2530647362
40
0.4882809639
40
0.6913718813
40
0.8501738568
40
0.9551791592
40
1.0000000000
40
1.0000000000
40
1.0000000000
40
1.0000000000
10
-10.5005350625
20
-21.0183142309
30
0.0000000000
10
-10.5005645041
20
-21.0990148361
30
0.0000000000
10
-10.5008152537
20
-21.2547198844
30
0.0000000000
10
-10.5015010823
20
-21.4752101535
30
0.0000000000
10
-10.5030908202
20
-21.6655686219
30
0.0000000000
10
-10.5036916603
20
-21.8145848800
30
0.0000000000
10
-10.5072295650
20
-21.9127248768
30
0.0000000000
10
-10.5064414695
20
-21.9608096995
30
0.0000000000
10
-10.5087981167
20
-21.9749071372
30
0.0000000000
11
-10.5005350625
21
-21.0183142309
31
0.0000000000
11
-10.5008871715
21
-21.2604158065
31
0.0000000000
11
-10.5017438025
21
-21.4854407064
31
0.0000000000
11
-10.5030519635
21
-21.6797292088
31
0.0000000000
11
-10.5047336849
21
-21.8316424864
31
0.0000000000
11
-10.5066887591
21
-21.9320798744
31
0.0000000000
11
-10.5087981167
21
-21.9749071372
31
0.0000000000
0
SPLINE
5
2D4
100
AcDbEntity
8
0
100
AcDbSpline
62
9
6
CONTINUOUS
70
0
71
3
72
13
73
9
74
7
42
0.0000001000
43
0.0000001000
44
0.0000000001
12
-0.0003498847
22
-0.4784692214
32
0.0000000000
13
-0.1518282341
23
-0.4537412319
33
0.0000000000
40
0.0000000000
40
0.0000000000
40
0.0000000000
40
0.0000000000
40
0.2524796480
40
0.4878694598
40
0.6911230573
40
0.8500379483
40
0.9551279064
40
1.0000000000
40
1.0000000000
40
1.0000000000
40
1.0000000000
10
-11.0004589101
20
-20.9972959167
30
0.0000000000
10
-11.0004883564
20
-21.0375638302
30
0.0000000000
10
-11.0007361325
20
-21.1153658418
30
0.0000000000
10
-11.0014301293
20
-21.2256234781
30
0.0000000000
10
-11.0029931514
20
-21.3208239671
30
0.0000000000
10
-11.0036664885
20
-21.3955798757
30
0.0000000000
10
-11.0070644460
20
-21.4443203351
30
0.0000000000
10
-11.0064510140
20
-21.4688055968
30
0.0000000000
10
-11.0087219643
20
-21.4755923698
30
0.0000000000
11
-11.0004589101
21
-20.9972959167
31
0.0000000000
11
-11.0008096574
21
-21.1180991804
31
0.0000000000
11
-11.0016659628
21
-21.2307227352
31
0.0000000000
11
-11.0029751375
21
-21.3279645393
31
0.0000000000
11
-11.0046585314
21
-21.4039818068
31
0.0000000000
11
-11.0066154888
21
-21.4542260345
31
0.0000000000
11
-11.0087219643
21
-21.4755923698
31
0.0000000000
0
SPLINE
5
2D5
100
AcDbEntity
8
0
100
AcDbSpline
62
9
6
CONTINUOUS
70
0
71
3
72
12
73
8
74
6
42
0.0000001000
43
0.0000001000
44
0.0000000001
12
-0.5010578743
22
0.0003674018
32
0.0000000000
13
-0.1921898260
23
0.4627333997
33
0.0000000000
40
0.0000000000
40
0.0000000000
40
0.0000000000
40
0.0000000000
40
0.3050562610
40
0.5809650378
40
0.8013878226
40
0.9453845855
40
1.0000000000
40
1.0000000000
40
1.0000000000
40
1.0000000000
10
-10.5005350626
20
-21.0183132877
30
0.0000000000
10
-10.5514853431
20
-21.0182759283
30
0.0000000000
10
-10.6490189648
20
-21.0180266176
30
0.0000000000
10
-10.7809037669
20
-21.0135851280
30
0.0000000000
10
-10.8927956002
20
-21.0137689630
30
0.0000000000
10
-10.9527922360
20
-21.0005055030
30
0.0000000000
10
-10.9969600676
20
-21.0057200422
30
0.0000000000
10
-11.0004589100
20
-20.9972959167
30
0.0000000000
11
-10.5005350626
21
-21.0183132877
31
0.0000000000
11
-10.6533818551
21
-21.0171950877
31
0.0000000000
11
-10.7915950934
21
-21.0141716956
31
0.0000000000
11
-10.9019422211
21
-21.0095325749
31
0.0000000000
11
-10.9738585879
21
-21.0037218762
31
0.0000000000
11
-11.0004589100
21
-20.9972959167
31
0.0000000000
0
SPLINE
5
2D6
100
AcDbEntity
8
0
100
AcDbSpline
62
9
6
CONTINUOUS
70
0
71
3
72
24
73
20
74
18
42
0.0000001000
43
0.0000001000
44
0.0000000001
12
16.0391660870
22
-0.0017020925
32
0.0000000000
13
-16.0391661041
23
-0.0015322223
33
0.0000000000
40
0.0000000000
40
0.0000000000
40
0.0000000000
40
0.0000000000
40
0.0586082677
40
0.1174789623
40
0.1763128538
40
0.2351415489
40
0.2939900601
40
0.3528641219
40
0.4117300977
40
0.4705926100
40
0.5293959685
40
0.5882653316
40
0.6471343372
40
0.7060095444
40
0.7648583325
40
0.8236883230
40
0.8825242321
40
0.9413947465
40
1.0000000000
40
1.0000000000
40
1.0000000000
40
1.0000000000
10
0.0000000000
20
5.1140036519
30
0.0000000000
10
0.3133425800
20
5.1139703997
30
0.0000000000
10
0.9429617300
20
5.0559158726
30
0.0000000000
10
1.8546469230
20
4.7967995303
30
0.0000000000
10
2.7045027093
20
4.3738876005
30
0.0000000000
10
3.4619343156
20
3.8020151527
30
0.0000000000
10
4.1015186475
20
3.1005071077
30
0.0000000000
10
4.6013453842
20
2.2932064650
30
0.0000000000
10
4.9442951401
20
1.4077230268
30
0.0000000000
10
5.1186216722
20
0.4746727805
30
0.0000000000
10
5.1186387718
20
-0.4745263901
30
0.0000000000
10
4.9443258296
20
-1.4076346277
30
0.0000000000
10
4.6013630470
20
-2.2931771764
30
0.0000000000
10
4.1015259365
20
-3.1004997102
30
0.0000000000
10
3.4619327830
20
-3.8020197537
30
0.0000000000
10
2.7044838016
20
-4.3739011099
30
0.0000000000
10
1.8546111552
20
-4.7968188627
30
0.0000000000
10
0.9429279000
20
-5.0559172633
30
0.0000000000
10
0.3133264651
20
-5.1139737198
30
0.0000000000
10
0.0000000000
20
-5.1140036519
30
0.0000000000
11
0.0000000000
21
5.1140036519
31
0.0000000000
11
0.9360413720
21
5.0275241074
31
0.0000000000
11
1.8443343918
21
4.7694794851
31
0.0000000000
11
2.6891416361
21
4.3490397708
31
0.0000000000
11
3.4421899138
21
3.7805067146
31
0.0000000000
11
4.0781213833
21
3.0830093289
31
0.0000000000
11
4.5752107988
21
2.2801473590
31
0.0000000000
11
4.9162095409
21
1.3997155505
31
0.0000000000
11
5.0896047404
21
0.4716694740
31
0.0000000000
11
5.0896217107
21
-0.4714873648
31
0.0000000000
11
4.9162297812
21
-1.3996458335
31
0.0000000000
11
4.5752220112
21
-2.2801262589
31
0.0000000000
11
4.0781253877
21
-3.0830053735
31
0.0000000000
11
3.4421916497
21
-3.7805067000
31
0.0000000000
11
2.6891256155
21
-4.3490507193
31
0.0000000000
11
1.8442870925
21
-4.7695002163
31
0.0000000000
11
0.9359936075
21
-5.0275326261
31
0.0000000000
11
0.0000000000
21
-5.1140036519
31
0.0000000000
0
SPLINE
5
2D7
100
AcDbEntity
8
0
100
AcDbSpline
62
9
6
CONTINUOUS
70
0
71
3
72
12
73
8
74
6
42
0.0000001000
43
0.0000001000
44
0.0000000001
12
-0.7813571062
22
0.0007128138
32
0.0000000000
13
-0.0007145531
23
0.7813571046
33
0.0000000000
40
0.0000000000
40
0.0000000000
40
0.0000000000
40
0.0000000000
40
0.2000850064
40
0.4001713425
40
0.6002035309
40
0.8001467217
40
1.0000000000
40
1.0000000000
40
1.0000000000
40
1.0000000000
10
-10.5087981167
20
-21.9749071372
30
0.0000000000
10
-10.5609107306
20
-21.9748595961
30
0.0000000000
10
-10.6658521000
20
-21.9582171671
30
0.0000000000
10
-10.8073186644
20
-21.8860938495
30
0.0000000000
10
-10.9197666024
20
-21.7737967766
30
0.0000000000
10
-10.9920025187
20
-21.6324904868
30
0.0000000000
10
-11.0086743624
20
-21.5276446294
30
0.0000000000
10
-11.0087219643
20
-21.4755923698
30
0.0000000000
11
-10.5087981167
21
-21.9749071372
31
0.0000000000
11
-10.6631962883
21
-21.9503562579
31
0.0000000000
11
-10.8024983178
21
-21.8793857676
31
0.0000000000
11
-10.9130840749
21
-21.7689347421
31
0.0000000000
11
-10.9841411372
21
-21.6298024308
31
0.0000000000
11
-11.0087219643
21
-21.4755923698
31
0.0000000000
0
SPLINE
5
2D8
100
AcDbEntity
8
0
100
AcDbSpline
62
9
6
CONTINUOUS
70
0
71
3
72
13
73
9
74
7
42
0.0000001000
43
0.0000001000
44
0.0000000001
12
-0.1517233705
22
-0.4537763541
32
0.0000000000
13
-0.0003487208
23
-0.4784692666
33
0.0000000000
40
0.0000000000
40
0.0000000000
40
0.0000000000
40
0.0000000000
40
0.0447511791
40
0.1496617630
40
0.3084069250
40
0.5114254892
40
0.7467904150
40
1.0000000000
40
1.0000000000
40
1.0000000000
40
1.0000000000
10
11.0087219643
20
21.4755923698
30
0.0000000000
10
11.0064586977
20
21.4688233609
30
0.0000000000
10
11.0070626629
20
21.4443888060
30
0.0000000000
10
11.0036726327
20
21.3957214402
30
0.0000000000
10
11.0029962005
20
21.3210594969
30
0.0000000000
10
11.0014333211
20
21.2259272635
30
0.0000000000
10
11.0007370348
20
21.1155947072
30
0.0000000000
10
11.0004883433
20
21.0376802515
30
0.0000000000
10
11.0004589101
20
20.9972959167
30
0.0000000000
11
11.0087219643
21
21.4755923698
31
0.0000000000
11
11.0066187988
21
21.4542838406
31
0.0000000000
11
11.0046627389
21
21.4041254635
31
0.0000000000
11
11.0029790226
21
21.3281894262
31
0.0000000000
11
11.0016694038
21
21.2310600855
31
0.0000000000
11
11.0008114400
21
21.1184484404
31
0.0000000000
11
11.0004589101
21
20.9972959167
31
0.0000000000
0
SPLINE
5
2D9
100
AcDbEntity
8
0
100
AcDbSpline
62
9
6
CONTINUOUS
70
0
71
3
72
13
73
9
74
7
42
0.0000001000
43
0.0000001000
44
0.0000000001
12
-0.1577707702
22
-0.9435803750
32
0.0000000000
13
-0.0003449110
23
-0.9566793721
33
0.0000000000
40
0.0000000000
40
0.0000000000
40
0.0000000000
40
0.0000000000
40
0.0448247981
40
0.1498254833
40
0.3086663044
40
0.5117002731
40
0.7469689740
40
1.0000000000
40
1.0000000000
40
1.0000000000
40
1.0000000000
10
10.5087981167
20
21.9749071372
30
0.0000000000
10
10.5064407691
20
21.9608085373
30
0.0000000000
10
10.5072303684
20
21.9127237243
30
0.0000000000
10
10.5036915785
20
21.8145717156
30
0.0000000000
10
10.5030911067
20
21.6655626178
30
0.0000000000
10
10.5015012527
20
21.4751932123
30
0.0000000000
10
10.5008152484
20
21.2547151132
30
0.0000000000
10
10.5005641536
20
21.0990040853
30
0.0000000000
10
10.5005350625
20
21.0183142309
30
0.0000000000
11
10.5087981167
21
21.9749071372
31
0.0000000000
11
10.5066888073
21
21.9320760821
31
0.0000000000
11
10.5047341778
21
21.8316431047
31
0.0000000000
11
10.5030519894
21
21.6796926689
31
0.0000000000
11
10.5017441538
21
21.4854586496
31
0.0000000000
11
10.5008870654
21
21.2603835538
31
0.0000000000
11
10.5005350625
21
21.0183142309
31
0.0000000000
0
SPLINE
5
2DA
100
AcDbEntity
8
0
100
AcDbSpline
62
9
6
CONTINUOUS
70
0
71
3
72
12
73
8
74
6
42
0.0000001000
43
0.0000001000
44
0.0000000001
12
-0.0007145491
22
0.7813571074
32
0.0000000000
13
-0.7813571090
23
0.0007128017
33
0.0000000000
40
0.0000000000
40
0.0000000000
40
0.0000000000
40
0.0000000000
40
0.1998485957
40
0.3997897125
40
0.5998222854
40
0.7999110728
40
1.0000000000
40
1.0000000000
40
1.0000000000
40
1.0000000000
10
11.0087219643
20
21.4755923698
30
0.0000000000
10
11.0086743637
20
21.5276434101
30
0.0000000000
10
10.9920032064
20
21.6324874578
30
0.0000000000
10
10.9197693684
20
21.7737928627
30
0.0000000000
10
10.8073224464
20
21.8860912544
30
0.0000000000
10
10.6658548235
20
21.9582165671
30
0.0000000000
10
10.5609117519
20
21.9748595957
30
0.0000000000
10
10.5087981166
20
21.9749071370
30
0.0000000000
11
11.0087219643
21
21.4755923698
31
0.0000000000
11
10.9841422864
21
21.6297989097
31
0.0000000000
11
10.9130872219
21
21.7689304222
31
0.0000000000
11
10.8025023986
21
21.8793828084
31
0.0000000000
11
10.6631992385
21
21.9503553003
31
0.0000000000
11
10.5087981166
21
21.9749071370
31
0.0000000000
0
SPLINE
5
2DB
100
AcDbEntity
8
0
100
AcDbSpline
62
9
6
CONTINUOUS
70
0
71
3
72
10
73
6
74
4
42
0.0000001000
43
0.0000001000
44
0.0000000001
12
-0.0308407996
22
-41.9945838615
32
0.0000000000
13
0.0308408117
23
-41.9945838615
33
0.0000000000
40
0.0000000000
40
0.0000000000
40
0.0000000000
40
0.0000000000
40
0.3332886949
40
0.6667106342
40
1.0000000000
40
1.0000000000
40
1.0000000000
40
1.0000000000
10
11.0004589101
20
20.9972959167
30
0.0000000000
10
10.9970326135
20
16.3318559011
30
0.0000000000
10
10.9924665659
20
6.9991088406
30
0.0000000000
10
10.9924665607
20
-6.9990900570
30
0.0000000000
10
10.9970326052
20
-16.3318465093
30
0.0000000000
10
11.0004589101
20
-20.9972959167
30
0.0000000000
11
11.0004589101
21
20.9972959167
31
0.0000000000
11
10.9936085333
21
7.0009737718
31
0.0000000000
11
10.9936085267
21
-7.0009455965
31
0.0000000000
11
11.0004589101
21
-20.9972959167
31
0.0000000000
0
SPLINE
5
2DC
100
AcDbEntity
8
0
100
AcDbSpline
62
9
6
CONTINUOUS
70
0
71
3
72
12
73
8
74
6
42
0.0000001000
43
0.0000001000
44
0.0000000001
12
-0.1919554566
22
0.4628308739
32
0.0000000000
13
-0.5010580608
23
0.0003673235
33
0.0000000000
40
0.0000000000
40
0.0000000000
40
0.0000000000
40
0.0000000000
40
0.0546097796
40
0.1986040208
40
0.4190274305
40
0.6949392928
40
1.0000000000
40
1.0000000000
40
1.0000000000
40
1.0000000000
10
11.0004589101
20
20.9972959167
30
0.0000000000
10
10.9969646951
20
21.0057209474
30
0.0000000000
10
10.9527896784
20
21.0005048020
30
0.0000000000
10
10.8928023018
20
21.0137704013
30
0.0000000000
10
10.7809060038
20
21.0135856065
30
0.0000000000
10
10.6490214516
20
21.0180276713
30
0.0000000000
10
10.5514861046
20
21.0182768782
30
0.0000000000
10
10.5005350625
20
21.0183142302
30
0.0000000000
11
11.0004589101
21
20.9972959167
31
0.0000000000
11
10.9738615497
21
21.0037221553
31
0.0000000000
11
10.9019464456
21
21.0095331260
31
0.0000000000
11
10.7915989726
21
21.0141724684
31
0.0000000000
11
10.6533841395
21
21.0171959974
31
0.0000000000
11
10.5005350625
21
21.0183142302
31
0.0000000000
0
SPLINE
5
2DD
100
AcDbEntity
8
0
100
AcDbSpline
62
9
6
CONTINUOUS
70
0
71
3
72
13
73
9
74
7
42
0.0000001000
43
0.0000001000
44
0.0000000001
12
0.0003487206
22
-0.4784692666
32
0.0000000000
13
0.1517232156
23
-0.4537764059
33
0.0000000000
40
0.0000000000
40
0.0000000000
40
0.0000000000
40
0.0000000000
40
0.2532095848
40
0.4885745110
40
0.6915930751
40
0.8503382364
40
0.9552488215
40
1.0000000000
40
1.0000000000
40
1.0000000000
40
1.0000000000
10
11.0004589101
20
-20.9972959167
30
0.0000000000
10
11.0004883432
20
-21.0376802515
30
0.0000000000
10
11.0007370348
20
-21.1155947072
30
0.0000000000
10
11.0014333213
20
-21.2259272634
30
0.0000000000
10
11.0029961999
20
-21.3210594970
30
0.0000000000
10
11.0036726342
20
-21.3957214398
30
0.0000000000
10
11.0070626603
20
-21.4443888068
30
0.0000000000
10
11.0064587001
20
-21.4688233602
30
0.0000000000
10
11.0087219643
20
-21.4755923698
30
0.0000000000
11
11.0004589101
21
-20.9972959167
31
0.0000000000
11
11.0008114400
21
-21.1184484403
31
0.0000000000
11
11.0016694038
21
-21.2310600856
31
0.0000000000
11
11.0029790226
21
-21.3281894263
31
0.0000000000
11
11.0046627389
21
-21.4041254633
31
0.0000000000
11
11.0066187988
21
-21.4542838409
31
0.0000000000
11
11.0087219643
21
-21.4755923698
31
0.0000000000
0
SPLINE
5
2DE
100
AcDbEntity
8
0
100
AcDbSpline
62
9
6
CONTINUOUS
70
0
71
3
72
13
73
9
74
7
42
0.0000001000
43
0.0000001000
44
0.0000000001
12
0.0003449115
22
-0.9566793721
32
0.0000000000
13
0.1577707732
23
-0.9435803745
33
0.0000000000
40
0.0000000000
40
0.0000000000
40
0.0000000000
40
0.0000000000
40
0.2530310260
40
0.4882997269
40
0.6913336956
40
0.8501745167
40
0.9551752019
40
1.0000000000
40
1.0000000000
40
1.0000000000
40
1.0000000000
10
10.5005350625
20
-21.0183142309
30
0.0000000000
10
10.5005641536
20
-21.0990040853
30
0.0000000000
10
10.5008152485
20
-21.2547151132
30
0.0000000000
10
10.5015012526
20
-21.4751932123
30
0.0000000000
10
10.5030911067
20
-21.6655626178
30
0.0000000000
10
10.5036915785
20
-21.8145717156
30
0.0000000000
10
10.5072303685
20
-21.9127237242
30
0.0000000000
10
10.5064407690
20
-21.9608085373
30
0.0000000000
10
10.5087981167
20
-21.9749071372
30
0.0000000000
11
10.5005350625
21
-21.0183142309
31
0.0000000000
11
10.5008870654
21
-21.2603835538
31
0.0000000000
11
10.5017441538
21
-21.4854586496
31
0.0000000000
11
10.5030519894
21
-21.6796926689
31
0.0000000000
11
10.5047341778
21
-21.8316431047
31
0.0000000000
11
10.5066888073
21
-21.9320760821
31
0.0000000000
11
10.5087981167
21
-21.9749071372
31
0.0000000000
0
SPLINE
5
2DF
100
AcDbEntity
8
0
100
AcDbSpline
62
9
6
CONTINUOUS
70
0
71
3
72
12
73
8
74
6
42
0.0000001000
43
0.0000001000
44
0.0000000001
12
-0.1920144796
22
-0.4628063375
32
0.0000000000
13
-0.5010580120
23
-0.0003673725
33
0.0000000000
40
0.0000000000
40
0.0000000000
40
0.0000000000
40
0.0000000000
40
0.0546111894
40
0.1986060630
40
0.4190293170
40
0.6949404067
40
1.0000000000
40
1.0000000000
40
1.0000000000
40
1.0000000000
10
11.0004589101
20
-20.9972959167
30
0.0000000000
10
10.9969635304
20
-21.0057207182
30
0.0000000000
10
10.9527903228
20
-21.0005049635
30
0.0000000000
10
10.8928006189
20
-21.0137700305
30
0.0000000000
10
10.7809054436
20
-21.0135854735
30
0.0000000000
10
10.6490208276
20
-21.0180273997
30
0.0000000000
10
10.5514859137
20
-21.0182766372
30
0.0000000000
10
10.5005350625
20
-21.0183139940
30
0.0000000000
11
11.0004589101
21
-20.9972959167
31
0.0000000000
11
10.9738608069
21
-21.0037220776
31
0.0000000000
11
10.9019453861
21
-21.0095329760
31
0.0000000000
11
10.7915979997
21
-21.0141722630
31
0.0000000000
11
10.6533835666
21
-21.0171957618
31
0.0000000000
11
10.5005350625
21
-21.0183139940
31
0.0000000000
0
SPLINE
5
2E0
100
AcDbEntity
8
0
100
AcDbSpline
62
9
6
CONTINUOUS
70
0
71
3
72
24
73
20
74
18
42
0.0000001000
43
0.0000001000
44
0.0000000001
12
15.0933603787
22
-0.0008013365
32
0.0000000000
13
-15.0933603827
23
-0.0007213715
33
0.0000000000
40
0.0000000000
40
0.0000000000
40
0.0000000000
40
0.0000000000
40
0.0586532504
40
0.1175372440
40
0.1763795368
40
0.2352105848
40
0.2940547542
40
0.3529179293
40
0.4117675316
40
0.4706099200
40
0.5293916573
40
0.5882401918
40
0.6470917636
40
0.7059550439
40
0.7647984688
40
0.8236298369
40
0.8824732064
40
0.9413560182
40
1.0000000000
40
1.0000000000
40
1.0000000000
40
1.0000000000
10
0.0000000000
20
4.8109809411
30
0.0000000000
10
0.2950915484
20
4.8109652741
30
0.0000000000
10
0.8878755952
20
4.7562843501
30
0.0000000000
10
1.7461432260
20
4.5124526947
30
0.0000000000
10
2.5460541241
20
4.1145524108
30
0.0000000000
10
3.2589720216
20
3.5765539826
30
0.0000000000
10
3.8609616018
20
2.9166100831
30
0.0000000000
10
4.3314048751
20
2.1571564983
30
0.0000000000
10
4.6541864603
20
1.3241626440
30
0.0000000000
10
4.8182513133
20
0.4464301893
30
0.0000000000
10
4.8182491318
20
-0.4464851637
30
0.0000000000
10
4.6541636513
20
-1.3242567491
30
0.0000000000
10
4.3313440457
20
-2.1572807873
30
0.0000000000
10
3.8608738916
20
-2.9167256641
30
0.0000000000
10
3.2588659064
20
-3.5766503976
30
0.0000000000
10
2.5459297098
20
-4.1146300976
30
0.0000000000
10
1.7460052573
20
-4.5125062309
30
0.0000000000
10
0.8877756953
20
-4.7562972629
30
0.0000000000
10
0.2950449174
20
-4.8109668398
30
0.0000000000
10
0.0000000000
20
-4.8109809411
30
0.0000000000
11
0.0000000000
21
4.8109809411
31
0.0000000000
11
0.8815211577
21
4.7295460083
31
0.0000000000
11
1.7364670373
21
4.4867350778
31
0.0000000000
11
2.5316341569
21
4.0911589470
31
0.0000000000
11
3.2404237228
21
3.5562878077
31
0.0000000000
11
3.8389684407
21
2.9001127137
31
0.0000000000
11
4.3068239227
21
2.1448363275
31
0.0000000000
11
4.6277588103
21
1.3166044772
31
0.0000000000
11
4.7909408099
21
0.4435950710
31
0.0000000000
11
4.7909386056
21
-0.4436188744
31
0.0000000000
11
4.6277267693
21
-1.3167170742
31
0.0000000000
11
4.3067584152
21
-2.1449678380
31
0.0000000000
11
3.8388789068
21
-2.9002312076
31
0.0000000000
11
3.2403222757
21
-3.5563802251
31
0.0000000000
11
2.5315133283
21
-4.0912337001
31
0.0000000000
11
1.7363193062
21
-4.4867922394
31
0.0000000000
11
0.8813830460
21
-4.7295717426
31
0.0000000000
11
0.0000000000
21
-4.8109809411
31
0.0000000000
0
SPLINE
5
2E1
100
AcDbEntity
8
0
100
AcDbSpline
62
9
6
CONTINUOUS
70
0
71
3
72
24
73
20
74
18
42
0.0000001000
43
0.0000001000
44
0.0000000001
12
-15.0933603784
22
0.0008013490
32
0.0000000000
13
15.0933603824
23
0.0007213596
33
0.0000000000
40
0.0000000000
40
0.0000000000
40
0.0000000000
40
0.0000000000
40
0.0586535803
40
0.1175378960
40
0.1763805047
40
0.2352118651
40
0.2940563659
40
0.3529197893
40
0.4117698855
40
0.4706125285
40
0.5293918641
40
0.5882392159
40
0.6470907884
40
0.7059543311
40
0.7647981687
40
0.8236297970
40
0.8824734735
40
0.9413562747
40
1.0000000000
40
1.0000000000
40
1.0000000000
40
1.0000000000
10
0.0000000000
20
-4.8109809411
30
0.0000000000
10
-0.2950932081
20
-4.8109652738
30
0.0000000000
10
-0.8878805593
20
-4.7562837356
30
0.0000000000
10
-1.7461525737
20
-4.5124493991
30
0.0000000000
10
-2.5460668124
20
-4.1145449080
30
0.0000000000
10
-3.2589867235
20
-3.5765409978
30
0.0000000000
10
-3.8609763793
20
-2.9165909764
30
0.0000000000
10
-4.3314183798
20
-2.1571301661
30
0.0000000000
10
-4.6541962926
20
-1.3241293916
30
0.0000000000
10
-4.8182527459
20
-0.4464037914
30
0.0000000000
10
-4.8182465955
20
0.4464942434
30
0.0000000000
10
-4.6541655621
20
1.3242480156
30
0.0000000000
10
-4.3313501978
20
2.1572687154
30
0.0000000000
10
-3.8608802406
20
2.9167177883
30
0.0000000000
10
-3.2588700670
20
3.5766470349
30
0.0000000000
10
-2.5459301682
20
4.1146301273
30
0.0000000000
10
-1.7460029992
20
4.5125072543
30
0.0000000000
10
-0.8877730423
20
4.7562976297
30
0.0000000000
10
-0.2950436266
20
4.8109668401
30
0.0000000000
10
0.0000000000
20
4.8109809411
30
0.0000000000
11
0.0000000000
21
-4.8109809411
31
0.0000000000
11
-0.8815260734
21
-4.7295450922
31
0.0000000000
11
-1.7364762538
21
-4.4867315115
31
0.0000000000
11
-2.5316466330
21
-4.0911512281
31
0.0000000000
11
-3.2404380689
21
-3.5562747382
31
0.0000000000
11
-3.8389831688
21
-2.9000932213
31
0.0000000000
11
-4.3068364932
21
-2.1448110905
31
0.0000000000
11
-4.6277685758
21
-1.3165701583
31
0.0000000000
11
-4.7909444558
21
-0.4435556998
31
0.0000000000
11
-4.7909383165
21
0.4436219965
31
0.0000000000
11
-4.6277308183
21
1.3167028463
31
0.0000000000
11
-4.3067650064
21
2.1449546064
31
0.0000000000
11
-3.8388854207
21
2.9002225871
31
0.0000000000
11
-3.2403256381
21
3.5563771621
31
0.0000000000
11
-2.5315138425
21
4.0912333820
31
0.0000000000
11
-1.7363155304
21
4.4867937003
31
0.0000000000
11
-0.8813792230
21
4.7295724549
31
0.0000000000
11
0.0000000000
21
4.8109809411
31
0.0000000000
0
SPLINE
5
2E2
100
AcDbEntity
8
0
100
AcDbSpline
62
9
6
CONTINUOUS
70
0
71
3
72
12
73
8
74
6
42
0.0000001000
43
0.0000001000
44
0.0000000001
12
-0.0007145531
22
-0.7813571046
32
0.0000000000
13
-0.7813571062
23
-0.0007128139
33
0.0000000000
40
0.0000000000
40
0.0000000000
40
0.0000000000
40
0.0000000000
40
0.1998532782
40
0.3997964689
40
0.5998286573
40
0.7999149934
40
1.0000000000
40
1.0000000000
40
1.0000000000
40
1.0000000000
10
11.0087219643
20
-21.4755923698
30
0.0000000000
10
11.0086743624
20
-21.5276446294
30
0.0000000000
10
10.9920025187
20
-21.6324904868
30
0.0000000000
10
10.9197666025
20
-21.7737967765
30
0.0000000000
10
10.8073186645
20
-21.8860938494
30
0.0000000000
10
10.6658521001
20
-21.9582171671
30
0.0000000000
10
10.5609107306
20
-21.9748595961
30
0.0000000000
10
10.5087981167
20
-21.9749071372
30
0.0000000000
11
11.0087219643
21
-21.4755923698
31
0.0000000000
11
10.9841411372
21
-21.6298024308
31
0.0000000000
11
10.9130840750
21
-21.7689347420
31
0.0000000000
11
10.8024983179
21
-21.8793857675
31
0.0000000000
11
10.6631962884
21
-21.9503562578
31
0.0000000000
11
10.5087981167
21
-21.9749071372
31
0.0000000000
0
SPLINE
5
2E3
100
AcDbEntity
8
0
100
AcDbSpline
62
9
6
CONTINUOUS
70
0
71
3
72
9
73
5
74
3
42
0.0000001000
43
0.0000001000
44
0.0000000001
12
-0.0024792976
22
0.0546022513
32
0.0000000000
13
-0.0029904361
23
0.0545766439
33
0.0000000000
40
0.0000000000
40
0.0000000000
40
0.0000000000
40
0.0000000000
40
0.5008439448
40
1.0000000000
40
1.0000000000
40
1.0000000000
40
1.0000000000
10
-27.7062269440
20
-9.3727027659
30
0.0000000000
10
-27.7066408578
20
-9.3635870302
30
0.0000000000
10
-27.7075097470
20
-9.3453881824
30
0.0000000000
10
-27.7084638354
20
-9.3271936020
30
0.0000000000
10
-27.7089614002
20
-9.3181128479
30
0.0000000000
11
-27.7062269440
21
-9.3727027659
31
0.0000000000
11
-27.7075325853
21
-9.3453585352
31
0.0000000000
11
-27.7089614002
21
-9.3181128479
31
0.0000000000
0
SPLINE
5
2E4
100
AcDbEntity
8
0
100
AcDbSpline
62
9
6
CONTINUOUS
70
0
71
3
72
12
73
8
74
6
42
0.0000001000
43
0.0000001000
44
0.0000000001
12
0.0743070954
22
0.2773355522
32
0.0000000000
13
0.0261020148
23
0.2859287284
33
0.0000000000
40
0.0000000000
40
0.0000000000
40
0.0000000000
40
0.0000000000
40
0.2063133030
40
0.4098342078
40
0.6102284323
40
0.8069821820
40
1.0000000000
40
1.0000000000
40
1.0000000000
40
1.0000000000
10
-27.7571607429
20
-9.6549273261
30
0.0000000000
10
-27.7520505621
20
-9.6358546549
30
0.0000000000
10
-27.7425188228
20
-9.5977980917
30
0.0000000000
10
-27.7302317129
20
-9.5406920416
30
0.0000000000
10
-27.7200506926
20
-9.4841015357
30
0.0000000000
10
-27.7119629150
20
-9.4281905451
30
0.0000000000
10
-27.7079063287
20
-9.3910992123
30
0.0000000000
10
-27.7062269440
20
-9.3727027659
30
0.0000000000
11
-27.7571607429
21
-9.6549273261
31
0.0000000000
11
-27.7427781576
21
-9.5974637040
31
0.0000000000
11
-27.7304954534
21
-9.5403347293
31
0.0000000000
11
-27.7203171313
21
-9.4837054428
31
0.0000000000
11
-27.7122391393
21
-9.4277945046
31
0.0000000000
11
-27.7062269440
21
-9.3727027659
31
0.0000000000
0
SPLINE
5
2E5
100
AcDbEntity
8
0
100
AcDbSpline
62
9
6
CONTINUOUS
70
0
71
3
72
9
73
5
74
3
42
0.0000001000
43
0.0000001000
44
0.0000000001
12
-0.0024980795
22
-0.0127750348
32
0.0000000000
13
-0.0025671568
23
-0.0127613331
33
0.0000000000
40
0.0000000000
40
0.0000000000
40
0.0000000000
40
0.0000000000
40
0.5018825793
40
1.0000000000
40
1.0000000000
40
1.0000000000
40
1.0000000000
10
-27.7571607429
20
-9.6549273261
30
0.0000000000
10
-27.7575786571
20
-9.6570645153
30
0.0000000000
10
-27.7584171420
20
-9.6613217297
30
0.0000000000
10
-27.7592671397
20
-9.6655766604
30
0.0000000000
10
-27.7596933882
20
-9.6676955411
30
0.0000000000
11
-27.7571607429
21
-9.6549273261
31
0.0000000000
11
-27.7584231989
21
-9.6613371836
31
0.0000000000
11
-27.7596933882
21
-9.6676955411
31
0.0000000000
0
SPLINE
5
2E6
100
AcDbEntity
8
0
100
AcDbSpline
62
9
6
CONTINUOUS
70
0
71
3
72
11
73
7
74
5
42
0.0000001000
43
0.0000001000
44
0.0000000001
12
0.1044581197
22
0.0964548458
32
0.0000000000
13
0.0865187238
23
0.1128252918
33
0.0000000000
40
0.0000000000
40
0.0000000000
40
0.0000000000
40
0.0000000000
40
0.2355353838
40
0.4786824662
40
0.7323379640
40
1.0000000000
40
1.0000000000
40
1.0000000000
40
1.0000000000
10
-27.8562292364
20
-9.7718605073
30
0.0000000000
10
-27.8480280419
20
-9.7642876643
30
0.0000000000
10
-27.8315949815
20
-9.7486406890
30
0.0000000000
10
-27.8073051211
20
-9.7238373264
30
0.0000000000
10
-27.7830353992
20
-9.6969221868
30
0.0000000000
10
-27.7674126474
20
-9.6777618902
30
0.0000000000
10
-27.7596933882
20
-9.6676955411
30
0.0000000000
11
-27.8562292364
21
-9.7718605073
31
0.0000000000
11
-27.8319909846
21
-9.7487526076
31
0.0000000000
11
-27.8078226675
21
-9.7240338786
31
0.0000000000
11
-27.7836996985
21
-9.6972245471
31
0.0000000000
11
-27.7596933882
21
-9.6676955411
31
0.0000000000
0
SPLINE
5
2E7
100
AcDbEntity
8
0
100
AcDbSpline
62
9
6
CONTINUOUS
70
0
71
3
72
10
73
6
74
4
42
0.0000001000
43
0.0000001000
44
0.0000000001
12
-0.0863765015
22
0.1132927583
32
0.0000000000
13
-0.1046351633
23
0.0966831511
33
0.0000000000
40
0.0000000000
40
0.0000000000
40
0.0000000000
40
0.0000000000
40
0.3099458946
40
0.6440315833
40
1.0000000000
40
1.0000000000
40
1.0000000000
40
1.0000000000
10
-27.7596598123
20
-10.3324714129
30
0.0000000000
10
-27.7685838263
20
-10.3207665378
30
0.0000000000
10
-27.7879804051
20
-10.2970876035
30
0.0000000000
10
-27.8202624493
20
-10.2622275735
30
0.0000000000
10
-27.8438136319
20
-10.2394173490
30
0.0000000000
10
-27.8562292364
20
-10.2279452996
30
0.0000000000
11
-27.7596598123
21
-10.3324714129
31
0.0000000000
11
-27.7875762588
21
-10.2982595559
31
0.0000000000
11
-27.8198548436
21
-10.2632822479
31
0.0000000000
11
-27.8562292364
21
-10.2279452996
31
0.0000000000
0
SPLINE
5
2E8
100
AcDbEntity
8
0
100
AcDbSpline
62
9
6
CONTINUOUS
70
0
71
3
72
9
73
5
74
3
42
0.0000001000
43
0.0000001000
44
0.0000000001
12
-0.0024653886
22
0.0126078536
32
0.0000000000
13
-0.0025326717
23
0.0125945102
33
0.0000000000
40
0.0000000000
40
0.0000000000
40
0.0000000000
40
0.0000000000
40
0.5018636117
40
1.0000000000
40
1.0000000000
40
1.0000000000
40
1.0000000000
10
-27.7571607561
20
-10.3450726247
30
0.0000000000
10
-27.7575731857
20
-10.3429634837
30
0.0000000000
10
-27.7584006228
20
-10.3387619669
30
0.0000000000
10
-27.7592392737
20
-10.3345626742
30
0.0000000000
10
-27.7596598123
20
-10.3324714129
30
0.0000000000
11
-27.7571607561
21
-10.3450726247
31
0.0000000000
11
-27.7584065312
21
-10.3387468671
31
0.0000000000
11
-27.7596598123
21
-10.3324714129
31
0.0000000000
0
SPLINE
5
2E9
100
AcDbEntity
8
0
100
AcDbSpline
62
9
6
CONTINUOUS
70
0
71
3
72
16
73
12
74
10
42
0.0000001000
43
0.0000001000
44
0.0000000001
12
-0.0261038066
22
0.2859382675
32
0.0000000000
13
-0.0743096035
23
0.2773448835
33
0.0000000000
40
0.0000000000
40
0.0000000000
40
0.0000000000
40
0.0000000000
40
0.0949712511
40
0.1906364472
40
0.2865582996
40
0.3831220033
40
0.4836313966
40
0.5918535301
40
0.7113391590
40
0.8459754281
40
1.0000000000
40
1.0000000000
40
1.0000000000
40
1.0000000000
10
-27.7062269788
20
-10.6272975163
30
0.0000000000
10
-27.7070533492
20
-10.6182455446
30
0.0000000000
10
-27.7088722898
20
-10.6000896933
30
0.0000000000
10
-27.7120783362
20
-10.5728501927
30
0.0000000000
10
-27.7157700398
20
-10.5455183878
30
0.0000000000
10
-27.7199932559
20
-10.5177946076
30
0.0000000000
10
-27.7248858341
20
-10.4889861238
30
0.0000000000
10
-27.7306961722
20
-10.4581130061
30
0.0000000000
10
-27.7377615506
20
-10.4241583493
30
0.0000000000
10
-27.7465213338
20
-10.3860868234
30
0.0000000000
10
-27.7533455878
20
-10.3593119337
30
0.0000000000
10
-27.7571607561
20
-10.3450726247
30
0.0000000000
11
-27.7062269788
21
-10.6272975163
31
0.0000000000
11
-27.7089435786
21
-10.6001643300
31
0.0000000000
11
-27.7121530215
21
-10.5728843822
31
0.0000000000
11
-27.7158384055
21
-10.5455902827
31
0.0000000000
11
-27.7200126442
21
-10.5181802273
31
0.0000000000
11
-27.7248433948
21
-10.4897284199
31
0.0000000000
11
-27.7305891726
21
-10.4591907314
31
0.0000000000
11
-27.7375764249
21
-10.4256022069
31
0.0000000000
11
-27.7462420320
21
-10.3879282232
31
0.0000000000
11
-27.7571607561
21
-10.3450726247
31
0.0000000000
0
SPLINE
5
2EA
100
AcDbEntity
8
0
100
AcDbSpline
62
9
6
CONTINUOUS
70
0
71
3
72
9
73
5
74
3
42
0.0000001000
43
0.0000001000
44
0.0000000001
12
0.0029904261
22
0.0545772229
32
0.0000000000
13
0.0024793666
23
0.0546028264
33
0.0000000000
40
0.0000000000
40
0.0000000000
40
0.0000000000
40
0.0000000000
40
0.5002265628
40
1.0000000000
40
1.0000000000
40
1.0000000000
40
1.0000000000
10
-27.7089614845
20
-10.6818880102
30
0.0000000000
10
-27.7084628543
20
-10.6727876846
30
0.0000000000
10
-27.7075088414
20
-10.6545929070
30
0.0000000000
10
-27.7066400193
20
-10.6363938637
30
0.0000000000
10
-27.7062269788
20
-10.6272975163
30
0.0000000000
11
-27.7089614845
21
-10.6818880102
31
0.0000000000
11
-27.7075297261
21
-10.6545835951
31
0.0000000000
11
-27.7062269788
21
-10.6272975163
31
0.0000000000
0
SPLINE
5
2EB
100
AcDbEntity
8
0
100
AcDbSpline
62
9
6
CONTINUOUS
70
0
71
3
72
10
73
6
74
4
42
0.0000001000
43
0.0000001000
44
0.0000000001
12
-0.7879004235
22
0.0702822932
32
0.0000000000
13
-0.7879057471
23
0.0702225870
33
0.0000000000
40
0.0000000000
40
0.0000000000
40
0.0000000000
40
0.0000000000
40
0.3323362206
40
0.6656698614
40
1.0000000000
40
1.0000000000
40
1.0000000000
40
1.0000000000
10
-28.3618817157
20
-6.9830024197
30
0.0000000000
10
-28.4491643320
20
-6.9752166358
30
0.0000000000
10
-28.6239917238
20
-6.9596239795
30
0.0000000000
10
-28.8866261010
20
-6.9362066704
30
0.0000000000
10
-29.0619779528
20
-6.9205761655
30
0.0000000000
10
-29.1497848320
20
-6.9127503230
30
0.0000000000
11
-28.3618817157
21
-6.9830024197
31
0.0000000000
11
-28.6237298667
21
-6.9596484546
31
0.0000000000
11
-28.8863644839
21
-6.9362310985
31
0.0000000000
11
-29.1497848320
21
-6.9127503230
31
0.0000000000
0
SPLINE
5
2EC
100
AcDbEntity
8
0
100
AcDbSpline
62
9
6
CONTINUOUS
70
0
71
3
72
10
73
6
74
4
42
0.0000001000
43
0.0000001000
44
0.0000000001
12
0.7879057471
22
0.0702225870
32
0.0000000000
13
0.7879004235
23
0.0702822932
33
0.0000000000
40
0.0000000000
40
0.0000000000
40
0.0000000000
40
0.0000000000
40
0.3343252834
40
0.6676589276
40
1.0000000000
40
1.0000000000
40
1.0000000000
40
1.0000000000
10
-29.1497848320
20
-13.0872496770
30
0.0000000000
10
-29.0619792279
20
-13.0794239482
30
0.0000000000
10
-28.8866286504
20
-13.0637935569
30
0.0000000000
10
-28.6239942732
20
-13.0403762479
30
0.0000000000
10
-28.4491656062
20
-13.0247834778
30
0.0000000000
10
-28.3618817157
20
-13.0169975803
30
0.0000000000
11
-29.1497848320
21
-13.0872496770
31
0.0000000000
11
-28.8863683093
21
-13.0637692426
31
0.0000000000
11
-28.6237336894
21
-13.0403518863
31
0.0000000000
11
-28.3618817157
21
-13.0169975803
31
0.0000000000
0
SPLINE
5
2ED
100
AcDbEntity
8
0
100
AcDbSpline
62
9
6
CONTINUOUS
70
0
71
3
72
10
73
6
74
4
42
0.0000001000
43
0.0000001000
44
0.0000000001
12
3.9999639244
22
0.0374577365
32
0.0000000000
13
4.0000360299
23
0.0287443498
33
0.0000000000
40
0.0000000000
40
0.0000000000
40
0.0000000000
40
0.0000000000
40
0.3364708831
40
0.6698115685
40
1.0000000000
40
1.0000000000
40
1.0000000000
40
1.0000000000
10
-38.8497848320
20
-22.6631666220
30
0.0000000000
10
-38.4011610340
20
-22.6589654761
30
0.0000000000
10
-37.5080842749
20
-22.6508894149
30
0.0000000000
10
-36.1747508955
20
-22.6397547576
30
0.0000000000
10
-35.2900400396
20
-22.6330302866
30
0.0000000000
10
-34.8497848320
20
-22.6298666026
30
0.0000000000
11
-38.8497848320
21
-22.6631666220
31
0.0000000000
11
-37.5039093495
21
-22.6510076054
31
0.0000000000
11
-36.1705465434
21
-22.6398871632
31
0.0000000000
11
-34.8497848320
21
-22.6298666026
31
0.0000000000
0
SPLINE
5
2EE
100
AcDbEntity
8
0
100
AcDbSpline
62
9
6
CONTINUOUS
70
0
71
3
72
10
73
6
74
4
42
0.0000001000
43
0.0000001000
44
0.0000000001
12
3.9999639244
22
-0.0374577365
32
0.0000000000
13
4.0000360299
23
-0.0287443498
33
0.0000000000
40
0.0000000000
40
0.0000000000
40
0.0000000000
40
0.0000000000
40
0.3364708831
40
0.6698115685
40
1.0000000000
40
1.0000000000
40
1.0000000000
40
1.0000000000
10
-38.8497848320
20
22.6631666220
30
0.0000000000
10
-38.4011610340
20
22.6589654761
30
0.0000000000
10
-37.5080842749
20
22.6508894149
30
0.0000000000
10
-36.1747508955
20
22.6397547576
30
0.0000000000
10
-35.2900400396
20
22.6330302866
30
0.0000000000
10
-34.8497848320
20
22.6298666026
30
0.0000000000
11
-38.8497848320
21
22.6631666220
31
0.0000000000
11
-37.5039093495
21
22.6510076054
31
0.0000000000
11
-36.1705465434
21
22.6398871632
31
0.0000000000
11
-34.8497848320
21
22.6298666026
31
0.0000000000
0
SPLINE
5
2EF
100
AcDbEntity
8
0
100
AcDbSpline
62
9
6
CONTINUOUS
70
0
71
3
72
14
73
10
74
8
42
0.0000001000
43
0.0000001000
44
0.0000000001
12
0.2124183528
22
0.2124183528
32
0.0000000000
13
-0.3003956676
23
-0.0023571426
33
0.0000000000
40
0.0000000000
40
0.0000000000
40
0.0000000000
40
0.0000000000
40
0.1513188742
40
0.2818786869
40
0.3940475863
40
0.5043907142
40
0.6381355679
40
0.8048762473
40
1.0000000000
40
1.0000000000
40
1.0000000000
40
1.0000000000
10
-30.6592713434
20
-21.0094865114
30
0.0000000000
10
-30.6485570414
20
-20.9987722094
30
0.0000000000
10
-30.6299609573
20
-20.9772966162
30
0.0000000000
10
-30.6111286387
20
-20.9421137519
30
0.0000000000
10
-30.6070257829
20
-20.9054085283
30
0.0000000000
10
-30.6250035464
20
-20.8721731582
30
0.0000000000
10
-30.6613938756
20
-20.8504265231
30
0.0000000000
10
-30.7098874524
20
-20.8384692690
30
0.0000000000
10
-30.7462618607
20
-20.8365095960
30
0.0000000000
10
-30.7657999707
20
-20.8366629075
30
0.0000000000
11
-30.6592713434
21
-21.0094865114
31
0.0000000000
11
-30.6300682246
21
-20.9746510313
31
0.0000000000
11
-30.6127898823
21
-20.9394412204
31
0.0000000000
11
-30.6105150488
21
-20.9058220067
31
0.0000000000
11
-30.6257238783
21
-20.8763693993
31
0.0000000000
11
-30.6590229233
21
-20.8538879832
31
0.0000000000
11
-30.7073156448
21
-20.8405916279
31
0.0000000000
11
-30.7657999707
21
-20.8366629075
31
0.0000000000
0
SPLINE
5
2F0
100
AcDbEntity
8
0
100
AcDbSpline
62
9
6
CONTINUOUS
70
0
71
3
72
10
73
6
74
4
42
0.0000001000
43
0.0000001000
44
0.0000000001
12
4.0000789575
22
0.0760029924
32
0.0000000000
13
3.9999099472
23
0.0844306542
33
0.0000000000
40
0.0000000000
40
0.0000000000
40
0.0000000000
40
0.0000000000
40
0.3364642805
40
0.6698048252
40
1.0000000000
40
1.0000000000
40
1.0000000000
40
1.0000000000
10
-38.8497848320
20
-23.1799085618
30
0.0000000000
10
-38.4011569359
20
-23.1713844644
30
0.0000000000
10
-37.5080714286
20
-23.1541389527
30
0.0000000000
10
-36.1747370839
20
-23.1275011740
30
0.0000000000
10
-35.2900351534
20
-23.1091833397
30
0.0000000000
10
-34.8497848320
20
-23.0998904748
30
0.0000000000
11
-38.8497848320
21
-23.1799085618
31
0.0000000000
11
-37.5039093495
21
-23.1539079810
31
0.0000000000
11
-36.1705465434
21
-23.1272551822
31
0.0000000000
11
-34.8497848320
21
-23.0998904748
31
0.0000000000
0
SPLINE
5
2F1
100
AcDbEntity
8
0
100
AcDbSpline
62
9
6
CONTINUOUS
70
0
71
3
72
13
73
9
74
7
42
0.0000001000
43
0.0000001000
44
0.0000000001
12
-0.7353260965
22
-0.0383875882
32
0.0000000000
13
-0.0307181493
23
-0.7356863941
33
0.0000000000
40
0.0000000000
40
0.0000000000
40
0.0000000000
40
0.0000000000
40
0.1661760139
40
0.3329167328
40
0.4996404914
40
0.6663226984
40
0.8331932491
40
1.0000000000
40
1.0000000000
40
1.0000000000
40
1.0000000000
10
-46.9435980770
20
21.4755923698
30
0.0000000000
10
-46.9843292636
20
21.4734660044
30
0.0000000000
10
-47.0657529065
20
21.4590758242
30
0.0000000000
10
-47.1787585785
20
21.4084670293
30
0.0000000000
10
-47.2762130784
20
21.3317731277
30
0.0000000000
10
-47.3520298998
20
21.2335934973
30
0.0000000000
10
-47.4016539619
20
21.1199569645
30
0.0000000000
10
-47.4152801358
20
21.0382017357
30
0.0000000000
10
-47.4169881340
20
20.9972959167
30
0.0000000000
11
-46.9435980770
21
21.4755923698
31
0.0000000000
11
-47.0640883483
21
21.4542838406
31
0.0000000000
11
-47.1761509444
21
21.4041254635
31
0.0000000000
11
-47.2726109884
21
21.3281894262
31
0.0000000000
11
-47.3476389960
21
21.2310600855
31
0.0000000000
11
-47.3967917086
21
21.1184484404
31
0.0000000000
11
-47.4169881340
21
20.9972959167
31
0.0000000000
0
SPLINE
5
2F2
100
AcDbEntity
8
0
100
AcDbSpline
62
9
6
CONTINUOUS
70
0
71
3
72
12
73
8
74
6
42
0.0000001000
43
0.0000001000
44
0.0000000001
12
-0.0261470918
22
0.4990710030
32
0.0000000000
13
0.4990705792
23
0.0261551808
33
0.0000000000
40
0.0000000000
40
0.0000000000
40
0.0000000000
40
0.0000000000
40
0.3089436939
40
0.5876060637
40
0.8087537240
40
0.9507915428
40
1.0000000000
40
1.0000000000
40
1.0000000000
40
1.0000000000
10
-46.9435980770
20
21.4755923698
30
0.0000000000
10
-46.9462907367
20
21.5269873162
30
0.0000000000
10
-46.9519468719
20
21.6256520607
30
0.0000000000
10
-46.9548137936
20
21.7567809177
30
0.0000000000
10
-46.9665257686
20
21.8725158008
30
0.0000000000
10
-46.9531979708
20
21.9242212339
30
0.0000000000
10
-46.9692260209
20
21.9744781183
30
0.0000000000
10
-46.9610398565
20
21.9749071370
30
0.0000000000
11
-46.9435980770
21
21.4755923698
31
0.0000000000
11
-46.9512506231
21
21.6297989097
31
0.0000000000
11
-46.9573019078
21
21.7689304222
31
0.0000000000
11
-46.9611602085
21
21.8793828084
31
0.0000000000
11
-46.9624481948
21
21.9503553003
31
0.0000000000
11
-46.9610398565
21
21.9749071370
31
0.0000000000
0
SPLINE
5
2F3
100
AcDbEntity
8
0
100
AcDbSpline
62
9
6
CONTINUOUS
70
0
71
3
72
10
73
6
74
4
42
0.0000001000
43
0.0000001000
44
0.0000000001
12
-1.7657692813
22
-41.9684644010
32
0.0000000000
13
1.7657699770
23
-41.9684643717
33
0.0000000000
40
0.0000000000
40
0.0000000000
40
0.0000000000
40
0.0000000000
40
0.3333323477
40
0.6666669816
40
1.0000000000
40
1.0000000000
40
1.0000000000
40
1.0000000000
10
-47.4169881340
20
20.9972959167
30
0.0000000000
10
-47.6131841407
20
16.3341469941
30
0.0000000000
10
-47.8748670999
20
7.0017671651
30
0.0000000000
10
-47.8748673965
20
-7.0017483769
30
0.0000000000
10
-47.6131846128
20
-16.3341376140
30
0.0000000000
10
-47.4169881340
20
-20.9972959167
30
0.0000000000
11
-47.4169881340
21
20.9972959167
31
0.0000000000
11
-47.8094459609
21
7.0009737718
31
0.0000000000
11
-47.8094463341
21
-7.0009455965
31
0.0000000000
11
-47.4169881340
21
-20.9972959167
31
0.0000000000
0
SPLINE
5
2F4
100
AcDbEntity
8
0
100
AcDbSpline
62
9
6
CONTINUOUS
70
0
71
3
72
13
73
9
74
7
42
0.0000001000
43
0.0000001000
44
0.0000000001
12
0.0307181302
22
-0.7356863949
32
0.0000000000
13
0.7353260943
23
-0.0383876317
33
0.0000000000
40
0.0000000000
40
0.0000000000
40
0.0000000000
40
0.0000000000
40
0.1668067509
40
0.3336773015
40
0.5003595086
40
0.6670832671
40
0.8338239861
40
1.0000000000
40
1.0000000000
40
1.0000000000
40
1.0000000000
10
-47.4169881340
20
-20.9972959167
30
0.0000000000
10
-47.4152801369
20
-21.0382017357
30
0.0000000000
10
-47.4016539609
20
-21.1199569644
30
0.0000000000
10
-47.3520299002
20
-21.2335934974
30
0.0000000000
10
-47.2762130785
20
-21.3317731280
30
0.0000000000
10
-47.1787585781
20
-21.4084670284
30
0.0000000000
10
-47.0657529068
20
-21.4590758260
30
0.0000000000
10
-46.9843292634
20
-21.4734660020
30
0.0000000000
10
-46.9435980770
20
-21.4755923698
30
0.0000000000
11
-47.4169881340
21
-20.9972959167
31
0.0000000000
11
-47.3967917084
21
-21.1184484403
31
0.0000000000
11
-47.3476389961
21
-21.2310600856
31
0.0000000000
11
-47.2726109884
21
-21.3281894263
31
0.0000000000
11
-47.1761509442
21
-21.4041254633
31
0.0000000000
11
-47.0640883484
21
-21.4542838409
31
0.0000000000
11
-46.9435980770
21
-21.4755923698
31
0.0000000000
0
SPLINE
5
2F5
100
AcDbEntity
8
0
100
AcDbSpline
62
9
6
CONTINUOUS
70
0
71
3
72
12
73
8
74
6
42
0.0000001000
43
0.0000001000
44
0.0000000001
12
-0.0261472363
22
-0.4990710015
32
0.0000000000
13
0.4990705852
23
-0.0261551811
33
0.0000000000
40
0.0000000000
40
0.0000000000
40
0.0000000000
40
0.0000000000
40
0.3089507471
40
0.5876147125
40
0.8087596427
40
0.9507934516
40
1.0000000000
40
1.0000000000
40
1.0000000000
40
1.0000000000
10
-46.9435980770
20
-21.4755923698
30
0.0000000000
10
-46.9462908131
20
-21.5269884894
30
0.0000000000
10
-46.9519470610
20
-21.6256547081
30
0.0000000000
10
-46.9548139864
20
-21.7567844814
30
0.0000000000
10
-46.9665258057
20
-21.8725184815
30
0.0000000000
10
-46.9531983806
20
-21.9242228489
30
0.0000000000
10
-46.9692256989
20
-21.9744781351
30
0.0000000000
10
-46.9610398519
20
-21.9749071372
30
0.0000000000
11
-46.9435980770
21
-21.4755923698
31
0.0000000000
11
-46.9512508241
21
-21.6298024308
31
0.0000000000
11
-46.9573021344
21
-21.7689347420
31
0.0000000000
11
-46.9611603465
21
-21.8793857675
31
0.0000000000
11
-46.9624482270
21
-21.9503562578
31
0.0000000000
11
-46.9610398519
21
-21.9749071372
31
0.0000000000
0
SPLINE
5
2F6
100
AcDbEntity
8
0
100
AcDbSpline
62
9
6
CONTINUOUS
70
0
71
3
72
13
73
9
74
7
42
0.0000001000
43
0.0000001000
44
0.0000000001
12
0.0000448150
22
0.4698741839
32
0.0000000000
13
-0.4698741838
23
0.0000462340
33
0.0000000000
40
0.0000000000
40
0.0000000000
40
0.0000000000
40
0.0000000000
40
0.1477567409
40
0.3150474673
40
0.4926713929
40
0.6719442100
40
0.8433749448
40
1.0000000000
40
1.0000000000
40
1.0000000000
40
1.0000000000
10
-30.0462943507
20
-19.0000000000
30
0.0000000000
10
-30.0462921435
20
-18.9768576407
30
0.0000000000
10
-30.0520506517
20
-18.9273352429
30
0.0000000000
10
-30.0797851744
20
-18.8543959264
30
0.0000000000
10
-30.1290697999
20
-18.7873845821
30
0.0000000000
10
-30.1955272151
20
-18.7362335114
30
0.0000000000
10
-30.2701691105
20
-18.7063625541
30
0.0000000000
10
-30.3217629941
20
-18.7000024138
30
0.0000000000
10
-30.3462943507
20
-18.7000000000
30
0.0000000000
11
-30.0462943507
21
-19.0000000000
31
0.0000000000
11
-30.0543280209
21
-18.9310392912
31
0.0000000000
11
-30.0822646101
21
-18.8575655791
31
0.0000000000
11
-30.1317230518
21
-18.7903377281
31
0.0000000000
11
-30.1984691810
21
-18.7389509382
31
0.0000000000
11
-30.2732562012
21
-18.7090286155
31
0.0000000000
11
-30.3462943507
21
-18.7000000000
31
0.0000000000
0
SPLINE
5
2F7
100
AcDbEntity
8
0
100
AcDbSpline
62
9
6
CONTINUOUS
70
0
71
3
72
13
73
9
74
7
42
0.0000001000
43
0.0000001000
44
0.0000000001
12
0.0000892306
22
-0.4698760805
32
0.0000000000
13
-0.4698760828
23
0.0000763065
33
0.0000000000
40
0.0000000000
40
0.0000000000
40
0.0000000000
40
0.0000000000
40
0.1550483784
40
0.3243559340
40
0.5006146388
40
0.6768416506
40
0.8457851906
40
1.0000000000
40
1.0000000000
40
1.0000000000
40
1.0000000000
10
-30.0462943507
20
19.0000000000
30
0.0000000000
10
-30.0462897390
20
18.9757154919
30
0.0000000000
10
-30.0525223622
20
18.9247066242
30
0.0000000000
10
-30.0816872980
20
18.8509548116
30
0.0000000000
10
-30.1316391512
20
18.7849350501
30
0.0000000000
10
-30.1977085345
20
18.7351453912
30
0.0000000000
10
-30.2713224834
20
18.7061712519
30
0.0000000000
10
-30.3221404005
20
18.6999960775
30
0.0000000000
10
-30.3462943507
20
18.7000000000
30
0.0000000000
11
-30.0462943507
21
19.0000000000
31
0.0000000000
11
-30.0551420725
21
18.9276857274
31
0.0000000000
11
-30.0843907455
21
18.8537040678
31
0.0000000000
11
-30.1343724244
21
18.7876666321
31
0.0000000000
11
-30.2004939251
21
18.7378209520
31
0.0000000000
11
-30.2743631440
21
18.7087533662
31
0.0000000000
11
-30.3462943507
21
18.7000000000
31
0.0000000000
0
SPLINE
5
2F8
100
AcDbEntity
8
0
100
AcDbSpline
62
9
6
CONTINUOUS
70
0
71
3
72
10
73
6
74
4
42
0.0000001000
43
0.0000001000
44
0.0000000001
12
4.0000789575
22
-0.0760029924
32
0.0000000000
13
3.9999099472
23
-0.0844306542
33
0.0000000000
40
0.0000000000
40
0.0000000000
40
0.0000000000
40
0.0000000000
40
0.3364642805
40
0.6698048252
40
1.0000000000
40
1.0000000000
40
1.0000000000
40
1.0000000000
10
-38.8497848320
20
23.1799085618
30
0.0000000000
10
-38.4011569359
20
23.1713844644
30
0.0000000000
10
-37.5080714286
20
23.1541389527
30
0.0000000000
10
-36.1747370839
20
23.1275011740
30
0.0000000000
10
-35.2900351534
20
23.1091833397
30
0.0000000000
10
-34.8497848320
20
23.0998904748
30
0.0000000000
11
-38.8497848320
21
23.1799085618
31
0.0000000000
11
-37.5039093495
21
23.1539079810
31
0.0000000000
11
-36.1705465434
21
23.1272551822
31
0.0000000000
11
-34.8497848320
21
23.0998904748
31
0.0000000000
0
SPLINE
5
2F9
100
AcDbEntity
8
0
100
AcDbSpline
62
9
6
CONTINUOUS
70
0
71
3
72
14
73
10
74
8
42
0.0000001000
43
0.0000001000
44
0.0000000001
12
0.3003880742
22
-0.0023570830
32
0.0000000000
13
-0.2124129833
23
0.2124129833
33
0.0000000000
40
0.0000000000
40
0.0000000000
40
0.0000000000
40
0.0000000000
40
0.1908229875
40
0.3555840812
40
0.4897926708
40
0.6018246220
40
0.7142482008
40
0.8446055685
40
1.0000000000
40
1.0000000000
40
1.0000000000
40
1.0000000000
10
-30.7657999707
20
20.8366629075
30
0.0000000000
10
-30.7466929874
20
20.8365129789
30
0.0000000000
10
-30.7109573165
20
20.8383881315
30
0.0000000000
10
-30.6629804116
20
20.8499034672
30
0.0000000000
10
-30.6262834384
20
20.8709660741
30
0.0000000000
10
-30.6072290139
20
20.9039240810
30
0.0000000000
10
-30.6106973055
20
20.9409457174
30
0.0000000000
10
-30.6294471210
20
20.9766703474
30
0.0000000000
10
-30.6482687451
20
20.9984839131
30
0.0000000000
10
-30.6592713434
20
21.0094865114
30
0.0000000000
11
-30.7657999707
21
20.8366629075
31
0.0000000000
11
-30.7085987560
21
20.8403931378
31
0.0000000000
11
-30.6607746269
21
20.8531402181
31
0.0000000000
11
-30.6269484261
21
20.8750755778
31
0.0000000000
11
-30.6107671374
21
20.9045842920
31
0.0000000000
11
-30.6124645704
21
20.9383133489
31
0.0000000000
11
-30.6293848113
21
20.9736281199
31
0.0000000000
11
-30.6592713434
21
21.0094865114
31
0.0000000000
0
SPLINE
5
2FA
100
AcDbEntity
8
0
100
AcDbSpline
62
9
6
CONTINUOUS
70
0
71
3
72
9
73
5
74
3
42
0.0000001000
43
0.0000001000
44
0.0000000001
12
0.0689767967
22
-0.0689978125
32
0.0000000000
13
0.0736355110
23
-0.0698102598
33
0.0000000000
40
0.0000000000
40
0.0000000000
40
0.0000000000
40
0.0000000000
40
0.7717571908
40
1.0000000000
40
1.0000000000
40
1.0000000000
40
1.0000000000
10
-30.0462943507
20
-20.1171572875
30
0.0000000000
10
-30.0285499044
20
-20.1349071402
30
0.0000000000
10
-30.0070270269
20
-20.1578659501
30
0.0000000000
10
-29.9819132781
20
-20.1811460536
30
0.0000000000
10
-29.9763110194
20
-20.1864572836
30
0.0000000000
11
-30.0462943507
21
-20.1171572875
31
0.0000000000
11
-29.9931902776
21
-20.1705357589
31
0.0000000000
11
-29.9763110194
21
-20.1864572836
31
0.0000000000
0
SPLINE
5
2FB
100
AcDbEntity
8
0
100
AcDbSpline
62
9
6
CONTINUOUS
70
0
71
3
72
9
73
5
74
3
42
0.0000001000
43
0.0000001000
44
0.0000000001
12
0.0641145172
22
-0.0607838669
32
0.0000000000
13
0.1016854249
23
-0.0645472911
33
0.0000000000
40
0.0000000000
40
0.0000000000
40
0.0000000000
40
0.0000000000
40
0.4947342253
40
1.0000000000
40
1.0000000000
40
1.0000000000
40
1.0000000000
10
-29.9763110194
20
-20.1864572836
30
0.0000000000
10
-29.9657378041
20
-20.1964812367
30
0.0000000000
10
-29.9453006351
20
-20.2167260649
30
0.0000000000
10
-29.9354541944
20
-20.2364151166
30
0.0000000000
10
-29.9183281394
20
-20.2472862956
30
0.0000000000
11
-29.9763110194
21
-20.1864572836
31
0.0000000000
11
-29.9481080775
21
-20.2163768226
31
0.0000000000
11
-29.9183281394
21
-20.2472862956
31
0.0000000000
0
SPLINE
5
2FC
100
AcDbEntity
8
0
100
AcDbSpline
62
9
6
CONTINUOUS
70
0
71
3
72
8
73
4
74
2
42
0.0000001000
43
0.0000001000
44
0.0000000001
12
0.0180276091
22
-0.0114434624
32
0.0000000000
13
-0.0106492170
23
-0.0106492170
33
0.0000000000
40
0.0000000000
40
0.0000000000
40
0.0000000000
40
0.0000000000
40
1.0000000000
40
1.0000000000
40
1.0000000000
40
1.0000000000
10
-29.9183281394
20
-20.2472862956
30
0.0000000000
10
-29.9123189363
20
-20.2511007831
30
0.0000000000
10
-29.9048137368
20
-20.2550289047
30
0.0000000000
10
-29.9083634758
20
-20.2585786438
30
0.0000000000
11
-29.9183281394
21
-20.2472862956
31
0.0000000000
11
-29.9083634758
21
-20.2585786438
31
0.0000000000
0
SPLINE
5
2FD
100
AcDbEntity
8
0
100
AcDbSpline
62
9
6
CONTINUOUS
70
0
71
3
72
11
73
7
74
5
42
0.0000001000
43
0.0000001000
44
0.0000000001
12
0.0262732317
22
0.1996247748
32
0.0000000000
13
0.0039137548
23
0.2015172086
33
0.0000000000
40
0.0000000000
40
0.0000000000
40
0.0000000000
40
0.0000000000
40
0.3806643543
40
0.7053222360
40
0.9231727225
40
1.0000000000
40
1.0000000000
40
1.0000000000
40
1.0000000000
10
-34.6046756578
20
-18.7000000000
30
0.0000000000
10
-34.6013418969
20
-18.6746699880
30
0.0000000000
10
-34.5952151127
20
-18.6277230276
30
0.0000000000
10
-34.5881097743
20
-18.5661918001
30
0.0000000000
10
-34.5828773258
20
-18.5249145259
30
0.0000000000
10
-34.5819358673
20
-18.5051606728
30
0.0000000000
10
-34.5818356396
20
-18.5000000000
30
0.0000000000
11
-34.6046756578
21
-18.7000000000
31
0.0000000000
11
-34.5949319731
21
-18.6239765047
31
0.0000000000
11
-34.5871416427
21
-18.5590737083
31
0.0000000000
11
-34.5825320048
21
-18.5154532061
31
0.0000000000
11
-34.5818356396
21
-18.5000000000
31
0.0000000000
0
SPLINE
5
2FE
100
AcDbEntity
8
0
100
AcDbSpline
62
9
6
CONTINUOUS
70
0
71
3
72
11
73
7
74
5
42
0.0000001000
43
0.0000001000
44
0.0000000001
12
0.0000000000
22
0.2000781454
32
0.0000000000
13
-0.2000781454
23
0.0000000000
33
0.0000000000
40
0.0000000000
40
0.0000000000
40
0.0000000000
40
0.0000000000
40
0.3825362711
40
0.7068549578
40
0.9236169453
40
1.0000000000
40
1.0000000000
40
1.0000000000
40
1.0000000000
10
-30.3462943507
20
-18.7000000000
30
0.0000000000
10
-30.3462943507
20
-18.6744876174
30
0.0000000000
10
-30.3477288860
20
-18.6288886270
30
0.0000000000
10
-30.3438614840
20
-18.5618570212
30
0.0000000000
10
-30.3536815098
20
-18.5314256819
30
0.0000000000
10
-30.3446906387
20
-18.5000000000
30
0.0000000000
10
-30.3497848320
20
-18.5000000000
30
0.0000000000
11
-30.3462943507
21
-18.7000000000
31
0.0000000000
11
-30.3465600478
21
-18.6234633135
31
0.0000000000
11
-30.3473166891
21
-18.5585786438
31
0.0000000000
11
-30.3484490828
21
-18.5152240935
31
0.0000000000
11
-30.3497848320
21
-18.5000000000
31
0.0000000000
0
SPLINE
5
2FF
100
AcDbEntity
8
0
100
AcDbSpline
62
9
6
CONTINUOUS
70
0
71
3
72
11
73
7
74
5
42
0.0000001000
43
0.0000001000
44
0.0000000001
12
0.0262732236
22
-0.1996247133
32
0.0000000000
13
0.0039467275
23
-0.2015164991
33
0.0000000000
40
0.0000000000
40
0.0000000000
40
0.0000000000
40
0.0000000000
40
0.3815193473
40
0.7053225289
40
0.9228155731
40
1.0000000000
40
1.0000000000
40
1.0000000000
40
1.0000000000
10
-34.6046756578
20
18.7000000000
30
0.0000000000
10
-34.6013344101
20
18.6746131032
30
0.0000000000
10
-34.5952083366
20
18.6276660866
30
0.0000000000
10
-34.5881039992
20
18.5661586915
30
0.0000000000
10
-34.5828830463
20
18.5249382596
30
0.0000000000
10
-34.5819371815
20
18.5051846452
30
0.0000000000
10
-34.5818356396
20
18.5000000000
30
0.0000000000
11
-34.6046756578
21
18.7000000000
31
0.0000000000
11
-34.5949107190
21
18.6238056948
31
0.0000000000
11
-34.5871416411
21
18.5590736936
31
0.0000000000
11
-34.5825384486
21
18.5155248943
31
0.0000000000
11
-34.5818356396
21
18.5000000000
31
0.0000000000
0
SPLINE
5
300
100
AcDbEntity
8
0
100
AcDbSpline
62
9
6
CONTINUOUS
70
0
71
3
72
11
73
7
74
5
42
0.0000001000
43
0.0000001000
44
0.0000000001
12
0.2000781454
22
0.0000000000
32
0.0000000000
13
-0.0000000000
23
0.2000781454
33
0.0000000000
40
0.0000000000
40
0.0000000000
40
0.0000000000
40
0.0000000000
40
0.0763830554
40
0.2931450430
40
0.6174637294
40
1.0000000000
40
1.0000000000
40
1.0000000000
40
1.0000000000
10
-30.3497848320
20
18.5000000000
30
0.0000000000
10
-30.3446906386
20
18.5000000000
30
0.0000000000
10
-30.3536815067
20
18.5314256817
30
0.0000000000
10
-30.3438614846
20
18.5618570214
30
0.0000000000
10
-30.3477288855
20
18.6288886270
30
0.0000000000
10
-30.3462943507
20
18.6744876175
30
0.0000000000
10
-30.3462943507
20
18.7000000000
30
0.0000000000
11
-30.3497848320
21
18.5000000000
31
0.0000000000
11
-30.3484490816
21
18.5152240935
31
0.0000000000
11
-30.3473166884
21
18.5585786439
31
0.0000000000
11
-30.3465600476
21
18.6234633136
31
0.0000000000
11
-30.3462943507
21
18.7000000000
31
0.0000000000
0
SPLINE
5
301
100
AcDbEntity
8
0
100
AcDbSpline
62
9
6
CONTINUOUS
70
0
71
3
72
8
73
4
74
2
42
0.0000001000
43
0.0000001000
44
0.0000000001
12
0.0106492170
22
-0.0106492170
32
0.0000000000
13
-0.0180276091
23
-0.0114434624
33
0.0000000000
40
0.0000000000
40
0.0000000000
40
0.0000000000
40
0.0000000000
40
1.0000000000
40
1.0000000000
40
1.0000000000
40
1.0000000000
10
-29.9083634758
20
20.2585786438
30
0.0000000000
10
-29.9048137368
20
20.2550289047
30
0.0000000000
10
-29.9123189363
20
20.2511007831
30
0.0000000000
10
-29.9183281394
20
20.2472862956
30
0.0000000000
11
-29.9083634758
21
20.2585786438
31
0.0000000000
11
-29.9183281394
21
20.2472862956
31
0.0000000000
0
SPLINE
5
302
100
AcDbEntity
8
0
100
AcDbSpline
62
9
6
CONTINUOUS
70
0
71
3
72
9
73
5
74
3
42
0.0000001000
43
0.0000001000
44
0.0000000001
12
-0.1016854249
22
-0.0645472911
32
0.0000000000
13
-0.0641145172
23
-0.0607838669
33
0.0000000000
40
0.0000000000
40
0.0000000000
40
0.0000000000
40
0.0000000000
40
0.5052657747
40
1.0000000000
40
1.0000000000
40
1.0000000000
40
1.0000000000
10
-29.9183281394
20
20.2472862956
30
0.0000000000
10
-29.9354541944
20
20.2364151166
30
0.0000000000
10
-29.9453006351
20
20.2167260649
30
0.0000000000
10
-29.9657378041
20
20.1964812367
30
0.0000000000
10
-29.9763110194
20
20.1864572836
30
0.0000000000
11
-29.9183281394
21
20.2472862956
31
0.0000000000
11
-29.9481080775
21
20.2163768226
31
0.0000000000
11
-29.9763110194
21
20.1864572836
31
0.0000000000
0
SPLINE
5
303
100
AcDbEntity
8
0
100
AcDbSpline
62
9
6
CONTINUOUS
70
0
71
3
72
9
73
5
74
3
42
0.0000001000
43
0.0000001000
44
0.0000000001
12
-0.0736355110
22
-0.0698102598
32
0.0000000000
13
-0.0689767967
23
-0.0689978125
33
0.0000000000
40
0.0000000000
40
0.0000000000
40
0.0000000000
40
0.0000000000
40
0.2282428092
40
1.0000000000
40
1.0000000000
40
1.0000000000
40
1.0000000000
10
-29.9763110194
20
20.1864572836
30
0.0000000000
10
-29.9819132781
20
20.1811460536
30
0.0000000000
10
-30.0070270269
20
20.1578659501
30
0.0000000000
10
-30.0285499044
20
20.1349071402
30
0.0000000000
10
-30.0462943507
20
20.1171572875
30
0.0000000000
11
-29.9763110194
21
20.1864572836
31
0.0000000000
11
-29.9931902776
21
20.1705357589
31
0.0000000000
11
-30.0462943507
21
20.1171572875
31
0.0000000000
0
ENDSEC
0
SECTION
2
OBJECTS
0
DICTIONARY
5
C
100
AcDbDictionary
280
0
281
1
3
ACAD_GROUP
350
D
3
ACAD_MLINESTYLE
350
17
3
ACAD_LAYOUT
350
1A
3
ACAD_PLOTSETTINGS
350
19
3
ACAD_PLOTSTYLENAME
350
E
0
DICTIONARY
5
D
102
{ACAD_REACTORS
330
C
102
}
100
AcDbDictionary
280
0
281
1
0
ACDBDICTIONARYWDFLT
5
E
102
{ACAD_REACTORS
330
C
102
}
100
AcDbDictionary
281
1
3
Normal
350
F
100
AcDbDictionaryWithDefault
340
F
0
DICTIONARY
5
17
102
{ACAD_REACTORS
330
C
102
}
100
AcDbDictionary
280
0
281
1
3
Standard
350
18
0
DICTIONARY
5
19
102
{ACAD_REACTORS
330
C
102
}
100
AcDbDictionary
281
1
0
DICTIONARY
5
1A
102
{ACAD_REACTORS
330
C
102
}
100
AcDbDictionary
281
1
3
Layout1
350
1E
3
Model
350
22
0
ACDBPLACEHOLDER
5
F
102
{ACAD_REACTORS
330
E
102
}
0
MLINESTYLE
5
18
102
{ACAD_REACTORS
330
17
102
}
100
AcDbMlineStyle
2
STANDARD
70
0
3

62
256
51
90.0
52
90.0
71
2
49
0.5
62
256
6
BYLAYER
49
-0.5
62
256
6
BYLAYER
0
LAYOUT
5
1E
102
{ACAD_REACTORS
330
1A
102
}
100
AcDbPlotSettings
1

2

4

6

40
0.0
41
0.0
42
0.0
43
0.0
44
0.0
45
0.0
46
0.0
47
0.0
48
0.0
49
0.0
140
0.0
141
0.0
142
1.0
143
1.0
70
0
72
0
73
0
74
0
7

75
0
147
1.0
148
0.0
149
0.0
100
AcDbLayout
1
Layout1
70
0
71
0
10
0.0
20
0.0
11
0.0
21
0.0
12
0.0
22
0.0
32
0.0
14
0.0
24
0.0
34
0.0
15
0.0
25
0.0
35
0.0
146
0.0
13
0.0
23
0.0
33
0.0
16
0.0
26
0.0
36
0.0
17
0.0
27
0.0
37
0.0
76
0
330
1B
331
0
345
0
346
0
0
LAYOUT
5
22
102
{ACAD_REACTORS
330
1A
102
}
100
AcDbPlotSettings
1

2

4

6

40
0.0
41
0.0
42
0.0
43
0.0
44
0.0
45
0.0
46
0.0
47
0.0
48
0.0
49
0.0
140
0.0
141
0.0
142
1.0
143
1.0
70
0
72
0
73
0
74
0
7

75
0
147
1.0
148
0.0
149
0.0
100
AcDbLayout
1
Model
70
0
71
0
10
0.0
20
0.0
11
0.0
21
0.0
12
0.0
22
0.0
32
0.0
14
0.0
24
0.0
34
0.0
15
0.0
25
0.0
35
0.0
146
0.0
13
0.0
23
0.0
33
0.0
16
0.0
26
0.0
36
0.0
17
0.0
27
0.0
37
0.0
76
0
330
1F
331
0
345
0
346
0
0
ENDSEC
0
EOF
