  0
SECTION
  2
HEADER
  9
$ACADVER
  1
AC1024
  9
$DWGCODEPAGE
  3
ANSI_1252
  9
$EXTMAX
 10
297.0
 20
210.0
 30
0.0
  9
$EXTMIN
 10
0.0
 20
0.0
 30
0.0
  9
$LIMMIN
 10
0.0
 20
0.0
  9
$LIMMAX
 10
297.0
 20
210.0
  9
$VIEWCTR
 10
148.5
 20
105.0
  9
$VIEWSIZE
 40
210.0
  9
$CLAYER
  8
0
  9
$LTSCALE
 40
16.335
  9
$CELTYPE
  6
BYLAYER
  9
$DIMSCALE
 40
1.0
  9
$DIMASZ
 40
3.0
  9
$DIMEXO
 40
0.5
  9
$DIMDLI
 40
11.286
  9
$DIMEXE
 40
1.5
  9
$DIMCEN
 40
2.673
  9
$DIMLFAC
 40
1.0
  9
$DIMBLK
  1
_FILLED
  9
$DIMALT
 70
0
  9
$DIMALTF
 40
0.0393700787
  9
$DIMTXT
 40
3.0
  9
$DIMTOL
 70
1
  9
$DIMLIM
 70
0
  9
$DIMTFAC
 40
1.0
  9
$DIMTP
 40
0.01
  9
$DIMTM
 40
0.01
  9
$DIMGAP
 40
0.625
  9
$DIMDSEP
 70
44
  9
$AUNITS
 70
0
  9
$PDMODE
 70
3
  9
$PDSIZE
 40
3.0
  9
$HANDSEED
  5
358
  9
$TILEMODE
 70
1
  9
$MEASUREMENT
 70
1
  9
$INSUNITS
 70
4
  0
ENDSEC
  0
SECTION
  2
CLASSES
  0
CLASS
  1
ACDBDICTIONARYWDFLT
  2
AcDbDictionaryWithDefault
  3
AutoCAD 2000
 90
0
 91
1
280
0
281
0
  0
CLASS
  1
ACDBPLACEHOLDER
  2
AcDbPlaceHolder
  3
AutoCAD 2000
 90
0
 91
1
280
0
281
0
  0
CLASS
  1
LAYOUT
  2
AcDbLayout
  3
AutoCAD 2000
 90
0
 91
0
280
0
281
0
  0
ENDSEC
  0
SECTION
  2
TABLES
  0
TABLE
  2
VPORT
  5
8
100
AcDbSymbolTable
 70
2
  0
VPORT
  5
1F4
100
AcDbSymbolTableRecord
100
AcDbViewportTableRecord
  2
*ACTIVE
 70
0
 10
0.0
 20
0.0
 11
1.0
 21
1.0
 12
148.5
 22
105.0
 13
0.0
 23
0.0
 14
1.0
 24
1.0
 15
0.0
 25
0.0
 16
0.0
 26
0.0
 36
1.0
 17
0.0
 27
0.0
 37
0.0
 40
210.0
 41
1.4142857143
 42
50.0
 43
0.0
 44
0.0
 50
0.0
 51
0.0
 71
0
 72
100
 73
1
 74
1
 75
0
 76
0
 77
0
 78
0
  0
ENDTAB
  0
TABLE
  2
LTYPE
  5
5
100
AcDbSymbolTable
 70
6
  0
LTYPE
  5
14
100
AcDbSymbolTableRecord
100
AcDbLinetypeTableRecord
  2
BYBLOCK
 70
0
  3

 72
65
 73
0
 40
0.0
  0
LTYPE
  5
15
100
AcDbSymbolTableRecord
100
AcDbLinetypeTableRecord
  2
BYLAYER
 70
0
  3

 72
65
 73
0
 40
0.0
  0
LTYPE
  5
16
100
AcDbSymbolTableRecord
100
AcDbLinetypeTableRecord
  2
CONTINUOUS
 70
64
  3
Solid line
 72
65
 73
0
 40
0.0
  0
LTYPE
  5
1F5
100
AcDbSymbolTableRecord
100
AcDbLinetypeTableRecord
  2
CENTER
 70
64
  3
____ _ ____ _ ____ _ ____ _ ____ _ ____ _ ____
 72
65
 73
4
 40
0.6
 49
0.375
 74
0
 49
-0.075
 74
0
 49
0.075
 74
0
 49
-0.075
 74
0
  0
LTYPE
  5
1F6
100
AcDbSymbolTableRecord
100
AcDbLinetypeTableRecord
  2
HIDDEN
 70
64
  3
- - - - - - - - - - - - - - - - - - - -
 72
65
 73
2
 40
0.2
 49
0.1
 74
0
 49
-0.1
 74
0
  0
LTYPE
  5
1F7
100
AcDbSymbolTableRecord
100
AcDbLinetypeTableRecord
  2
PHANTOM
 70
64
  3
_____ _ _ _____ _ _ _____ _ _ _____
 72
65
 73
6
 40
0.8
 49
0.45
 74
0
 49
-0.05
 74
0
 49
0.1
 74
0
 49
-0.05
 74
0
 49
0.1
 74
0
 49
-0.05
 74
0
  0
LTYPE
  5
1F8
100
AcDbSymbolTableRecord
100
AcDbLinetypeTableRecord
  2
DOT
 70
64
  3
. . . . . . . . . . . . . . . . . . . .
 72
65
 73
2
 40
0.2
 49
0.1
 74
0
 49
-0.1
 74
0
  0
LTYPE
  5
1F9
100
AcDbSymbolTableRecord
100
AcDbLinetypeTableRecord
  2
DASHED
 70
64
  3
- - - - - - - - - - - - - - - - - - - -
 72
65
 73
2
 40
0.2
 49
0.1
 74
0
 49
-0.1
 74
0
  0
ENDTAB
  0
TABLE
  2
LAYER
  5
2
100
AcDbSymbolTable
 70
36
  0
LAYER
  5
10
100
AcDbSymbolTableRecord
100
AcDbLayerTableRecord
  2
0
 70
0
 62
7
  6
CONTINUOUS
370
-3
390
F
  0
LAYER
  5
1FA
100
AcDbSymbolTableRecord
100
AcDbLayerTableRecord
  2
DEFAULT_1
 70
0
 62
7
  6
CENTER
370
-3
390
F
  0
LAYER
  5
1FB
100
AcDbSymbolTableRecord
100
AcDbLayerTableRecord
  2
DEFAULT_2
 70
0
 62
7
  6
HIDDEN
370
-3
390
F
  0
LAYER
  5
1FC
100
AcDbSymbolTableRecord
100
AcDbLayerTableRecord
  2
DEFAULT_3
 70
0
 62
7
  6
PHANTOM
370
-3
390
F
  0
LAYER
  5
1FD
100
AcDbSymbolTableRecord
100
AcDbLayerTableRecord
  2
ASSI
 70
0
 62
7
  6
CONTINUOUS
370
-3
390
F
  0
LAYER
  5
1FE
100
AcDbSymbolTableRecord
100
AcDbLayerTableRecord
  2
COLOR5
 70
0
 62
7
  6
CONTINUOUS
370
-3
390
F
  0
LAYER
  5
1FF
100
AcDbSymbolTableRecord
100
AcDbLayerTableRecord
  2
COORDINATE
 70
0
 62
7
  6
CONTINUOUS
370
-3
390
F
  0
LAYER
  5
200
100
AcDbSymbolTableRecord
100
AcDbLayerTableRecord
  2
COORD_ORIGINE
 70
0
 62
7
  6
CONTINUOUS
370
-3
390
F
  0
LAYER
  5
201
100
AcDbSymbolTableRecord
100
AcDbLayerTableRecord
  2
CURVE
 70
0
 62
7
  6
CONTINUOUS
370
-3
390
F
  0
LAYER
  5
202
100
AcDbSymbolTableRecord
100
AcDbLayerTableRecord
  2
DRAFT
 70
0
 62
7
  6
CONTINUOUS
370
-3
390
F
  0
LAYER
  5
203
100
AcDbSymbolTableRecord
100
AcDbLayerTableRecord
  2
IMPORT_FEATURES
 70
0
 62
7
  6
CONTINUOUS
370
-3
390
F
  0
LAYER
  5
204
100
AcDbSymbolTableRecord
100
AcDbLayerTableRecord
  2
INTF_1
 70
0
 62
7
  6
CONTINUOUS
370
-3
390
F
  0
LAYER
  5
205
100
AcDbSymbolTableRecord
100
AcDbLayerTableRecord
  2
INTF_12
 70
0
 62
7
  6
CONTINUOUS
370
-3
390
F
  0
LAYER
  5
206
100
AcDbSymbolTableRecord
100
AcDbLayerTableRecord
  2
NOTE
 70
0
 62
7
  6
CONTINUOUS
370
-3
390
F
  0
LAYER
  5
207
100
AcDbSymbolTableRecord
100
AcDbLayerTableRecord
  2
PIANI
 70
0
 62
7
  6
CONTINUOUS
370
-3
390
F
  0
LAYER
  5
208
100
AcDbSymbolTableRecord
100
AcDbLayerTableRecord
  2
PIANI_ORIGINE
 70
0
 62
7
  6
CONTINUOUS
370
-3
390
F
  0
LAYER
  5
209
100
AcDbSymbolTableRecord
100
AcDbLayerTableRecord
  2
PUNTI
 70
0
 62
7
  6
CONTINUOUS
370
-3
390
F
  0
LAYER
  5
20A
100
AcDbSymbolTableRecord
100
AcDbLayerTableRecord
  2
RACCORDO
 70
0
 62
7
  6
CONTINUOUS
370
-3
390
F
  0
LAYER
  5
20B
100
AcDbSymbolTableRecord
100
AcDbLayerTableRecord
  2
RGB____0____0____0__
 70
0
 62
7
  6
CONTINUOUS
370
-3
390
F
  0
LAYER
  5
20C
100
AcDbSymbolTableRecord
100
AcDbLayerTableRecord
  2
SMUSSO
 70
0
 62
7
  6
CONTINUOUS
370
-3
390
F
  0
LAYER
  5
20D
100
AcDbSymbolTableRecord
100
AcDbLayerTableRecord
  2
SNAPLINE
 70
0
 62
7
  6
CONTINUOUS
370
-3
390
F
  0
LAYER
  5
20E
100
AcDbSymbolTableRecord
100
AcDbLayerTableRecord
  2
SUPERFICI
 70
0
 62
7
  6
CONTINUOUS
370
-3
390
F
  0
LAYER
  5
20F
100
AcDbSymbolTableRecord
100
AcDbLayerTableRecord
  2
TRASH
 70
0
 62
7
  6
CONTINUOUS
370
-3
390
F
  0
LAYER
  5
210
100
AcDbSymbolTableRecord
100
AcDbLayerTableRecord
  2
XSEC_DATUMS
 70
0
 62
7
  6
CONTINUOUS
370
-3
390
F
  0
ENDTAB
  0
TABLE
  2
STYLE
  5
3
100
AcDbSymbolTable
 70
1
  0
STYLE
  5
11
100
AcDbSymbolTableRecord
100
AcDbTextStyleTableRecord
  2
STANDARD
 70
0
 40
0.0
 41
0.8
 50
0.0
 71
0
 42
0.2
  3
txt
  4

  0
STYLE
  5
211
100
AcDbSymbolTableRecord
100
AcDbTextStyleTableRecord
  2
TEXTSTYLE_1
 70
0
 40
0.0
 41
0.8
 50
0.0
 71
0
 42
0.2
  3
gdt
  4

  0
ENDTAB
  0
TABLE
  2
VIEW
  5
6
100
AcDbSymbolTable
 70
0
  0
ENDTAB
  0
TABLE
  2
UCS
  5
7
100
AcDbSymbolTable
 70
0
  0
ENDTAB
  0
TABLE
  2
APPID
  5
9
100
AcDbSymbolTable
 70
1
  0
APPID
  5
212
100
AcDbSymbolTableRecord
100
AcDbRegAppTableRecord
  2
ACAD
 70
0
  0
ENDTAB
  0
TABLE
  2
BLOCK_RECORD
  5
1
100
AcDbSymbolTable
 70
0
  0
BLOCK_RECORD
  5
213
100
AcDbSymbolTableRecord
100
AcDbBlockTableRecord
  2
*Model_Space
  0
BLOCK_RECORD
  5
214
100
AcDbSymbolTableRecord
100
AcDbBlockTableRecord
  2
*Paper_Space
  0
BLOCK_RECORD
  5
215
100
AcDbSymbolTableRecord
100
AcDbBlockTableRecord
  2
_FILLED
  0
BLOCK_RECORD
  5
216
100
AcDbSymbolTableRecord
100
AcDbBlockTableRecord
  2
*D0
  0
BLOCK_RECORD
  5
217
100
AcDbSymbolTableRecord
100
AcDbBlockTableRecord
  2
*D1
  0
BLOCK_RECORD
  5
218
100
AcDbSymbolTableRecord
100
AcDbBlockTableRecord
  2
*D2
  0
BLOCK_RECORD
  5
219
100
AcDbSymbolTableRecord
100
AcDbBlockTableRecord
  2
*D3
  0
ENDTAB
  0
TABLE
  2
DIMSTYLE
  5
A
100
AcDbSymbolTable
 70
1
100
AcDbDimStyleTable
 71
0
  0
DIMSTYLE
105
21A
100
AcDbSymbolTableRecord
100
AcDbDimStyleTableRecord
  2
STANDARD
 70
0
  3

  4

 40
1.0
 41
3.0
 42
0.5
 43
0.38
 44
1.5
 45
0.0
 46
0.0
 47
0.01
 48
0.01
140
3.0
141
0.09
142
0.0
143
25.4
144
1.0
145
0.0
146
1.0
147
0.625
 71
1
 72
0
 73
0
 74
0
 75
0
 76
0
 77
1
 78
8
 79
2
170
0
171
1
172
0
173
0
174
0
175
0
176
0
177
0
178
0
270
2
179
2
271
2
272
2
273
2
274
2
275
0
280
0
281
0
282
0
283
1
284
8
285
0
286
0
287
3
288
0
340
11
278
44
341
215
342
215
343
215
344
215
  0
DIMSTYLE
105
21B
100
AcDbSymbolTableRecord
100
AcDbDimStyleTableRecord
  2
DIMSTYLE_1
 70
0
  3

  4

 40
1.0
 41
3.0
 42
0.5
 43
0.38
 44
1.5
 45
0.0
 46
0.0
 47
0.0
 48
0.0
140
3.0
141
0.09
142
0.0
143
25.4
144
1.0
145
0.0
146
1.0
147
0.75
 71
0
 72
0
 73
0
 74
0
 75
0
 76
0
 77
1
 78
8
 79
2
170
0
171
1
172
0
173
0
174
0
175
0
176
0
177
0
178
0
270
2
179
2
271
2
272
2
273
2
274
2
275
0
280
0
281
0
282
0
283
1
284
8
285
0
286
0
287
3
288
0
340
11
278
44
341
215
342
215
343
215
344
215
  0
DIMSTYLE
105
21C
100
AcDbSymbolTableRecord
100
AcDbDimStyleTableRecord
  2
DIMSTYLE_2
 70
0
  3

  4

 40
1.0
 41
3.0
 42
0.5
 43
0.38
 44
1.5
 45
0.0
 46
0.0
 47
0.0
 48
0.0
140
3.0
141
0.09
142
0.0
143
25.4
144
1.0
145
0.0
146
1.0
147
0.75
 71
0
 72
0
 73
0
 74
0
 75
0
 76
0
 77
1
 78
8
 79
2
170
0
171
1
172
0
173
0
174
0
175
0
176
0
177
0
178
0
270
2
179
2
271
1
272
1
273
2
274
2
275
0
280
0
281
0
282
0
283
1
284
8
285
0
286
0
287
3
288
0
340
11
278
44
341
215
342
215
343
215
344
215
  0
ENDTAB
  0
ENDSEC
  0
SECTION
  2
BLOCKS
  0
BLOCK
  5
20
100
AcDbEntity
  8
0
100
AcDbBlockBegin
  2
*Model_Space
 70
0
 10
0.0
 20
0.0
 30
0.0
  3
*Model_Space
  1

  0
ENDBLK
  5
21
100
AcDbEntity
  8
0
100
AcDbBlockEnd
  0
BLOCK
  5
1C
100
AcDbEntity
  8
0
100
AcDbBlockBegin
  2
*Paper_Space
 70
0
 10
0.0
 20
0.0
 30
0.0
  3
*Paper_Space
  1

  0
ENDBLK
  5
1D
100
AcDbEntity
  8
0
100
AcDbBlockEnd
  0
BLOCK
  5
21D
100
AcDbEntity
  8
0
100
AcDbBlockBegin
  2
_FILLED
 70
64
 10
0.0
 20
0.0
  3
_FILLED
  1

  0
SOLID
  5
21E
100
AcDbEntity
  8
0
  6
BYBLOCK
 62
0
100
AcDbTrace
 10
0.0
 20
0.0
 11
-1.0
 21
0.3166666667
 12
-1.0
 22
-0.3166666667
 13
-1.0
 23
-0.3166666667
  0
ENDBLK
  5
21F
100
AcDbEntity
  8
0
  6
BYBLOCK
 62
0
100
AcDbBlockEnd
  0
BLOCK
  5
220
100
AcDbEntity
  8
0
100
AcDbBlockBegin
 62
7
  6
CONTINUOUS
  2
*D0
 70
65
 10
0.0
 20
0.0
  3
*D0
  1

  0
LINE
  5
221
100
AcDbEntity
  8
0
100
AcDbLine
 62
7
  6
CONTINUOUS
 10
4.4733373476
 20
23.5
 11
20.65
 21
23.5
  0
LINE
  5
222
100
AcDbEntity
  8
0
100
AcDbLine
 62
7
  6
CONTINUOUS
 10
4.4733373476
 20
-23.5
 11
20.65
 21
-23.5
  0
LINE
  5
223
100
AcDbEntity
  8
0
100
AcDbLine
 62
7
  6
CONTINUOUS
 10
19.15
 20
23.5
 11
19.15
 21
0.0
  0
LINE
  5
224
100
AcDbEntity
  8
0
100
AcDbLine
 62
7
  6
CONTINUOUS
 10
19.15
 20
-23.5
 11
19.15
 21
0.0
  0
INSERT
  5
225
100
AcDbEntity
  8
0
100
AcDbBlockReference
 62
7
  6
CONTINUOUS
  2
_FILLED
 10
19.15
 20
23.5
 41
3.0
 42
3.0
 43
3.0
 50
90.0
  0
INSERT
  5
226
100
AcDbEntity
  8
0
100
AcDbBlockReference
 62
7
  6
CONTINUOUS
  2
_FILLED
 10
19.15
 20
-23.5
 41
3.0
 42
3.0
 43
3.0
 50
270.0
  0
ENDBLK
  5
227
100
AcDbEntity
  8
0
  6
BYBLOCK
 62
0
100
AcDbBlockEnd
  0
BLOCK
  5
228
100
AcDbEntity
  8
0
100
AcDbBlockBegin
 62
7
  6
CONTINUOUS
  2
*D1
 70
65
 10
0.0
 20
0.0
  3
*D1
  1

  0
LINE
  5
229
100
AcDbEntity
  8
0
100
AcDbLine
 62
7
  6
CONTINUOUS
 10
11.15
 20
22.3997711479
 11
11.15
 21
33.0
  0
LINE
  5
22A
100
AcDbEntity
  8
0
100
AcDbLine
 62
7
  6
CONTINUOUS
 10
-11.15
 20
22.3997711479
 11
-11.15
 21
33.0
  0
LINE
  5
22B
100
AcDbEntity
  8
0
100
AcDbLine
 62
7
  6
CONTINUOUS
 10
11.15
 20
31.5
 11
-0.0
 21
31.5
  0
LINE
  5
22C
100
AcDbEntity
  8
0
100
AcDbLine
 62
7
  6
CONTINUOUS
 10
-11.15
 20
31.5
 11
-0.0
 21
31.5
  0
INSERT
  5
22D
100
AcDbEntity
  8
0
100
AcDbBlockReference
 62
7
  6
CONTINUOUS
  2
_FILLED
 10
11.15
 20
31.5
 41
3.0
 42
3.0
 43
3.0
  0
INSERT
  5
22E
100
AcDbEntity
  8
0
100
AcDbBlockReference
 62
7
  6
CONTINUOUS
  2
_FILLED
 10
-11.15
 20
31.5
 41
3.0
 42
3.0
 43
3.0
 50
180.0
  0
ENDBLK
  5
22F
100
AcDbEntity
  8
0
  6
BYBLOCK
 62
0
100
AcDbBlockEnd
  0
BLOCK
  5
230
100
AcDbEntity
  8
0
100
AcDbBlockBegin
 62
7
  6
CONTINUOUS
  2
*D2
 70
65
 10
0.0
 20
0.0
  3
*D2
  1

  0
LINE
  5
231
100
AcDbEntity
  8
0
100
AcDbLine
 62
7
  6
CONTINUOUS
 10
-35.5193046157
 20
22.3997711479
 11
-35.5193046157
 21
33.0
  0
LINE
  5
232
100
AcDbEntity
  8
0
100
AcDbLine
 62
7
  6
CONTINUOUS
 10
-24.3867929024
 20
11.1856679962
 11
-24.3867929024
 21
33.0
  0
LINE
  5
233
100
AcDbEntity
  8
0
100
AcDbLine
 62
7
  6
CONTINUOUS
 10
-35.5193046157
 20
31.5
 11
-39.5193046157
 21
31.5
  0
LINE
  5
234
100
AcDbEntity
  8
0
100
AcDbLine
 62
7
  6
CONTINUOUS
 10
-39.5193046157
 20
31.5
 11
-29.953048759
 21
31.5
  0
LINE
  5
235
100
AcDbEntity
  8
0
100
AcDbLine
 62
7
  6
CONTINUOUS
 10
-24.3867929024
 20
31.5
 11
-20.3867929024
 21
31.5
  0
LINE
  5
236
100
AcDbEntity
  8
0
100
AcDbLine
 62
7
  6
CONTINUOUS
 10
-20.3867929024
 20
31.5
 11
-29.953048759
 21
31.5
  0
INSERT
  5
237
100
AcDbEntity
  8
0
100
AcDbBlockReference
 62
7
  6
CONTINUOUS
  2
_FILLED
 10
-35.5193046157
 20
31.5
 41
3.0
 42
3.0
 43
3.0
  0
INSERT
  5
238
100
AcDbEntity
  8
0
100
AcDbBlockReference
 62
7
  6
CONTINUOUS
  2
_FILLED
 10
-24.3867929024
 20
31.5
 41
3.0
 42
3.0
 43
3.0
 50
180.0
  0
ENDBLK
  5
239
100
AcDbEntity
  8
0
  6
BYBLOCK
 62
0
100
AcDbBlockEnd
  0
BLOCK
  5
23A
100
AcDbEntity
  8
0
100
AcDbBlockBegin
 62
7
  6
CONTINUOUS
  2
*D3
 70
65
 10
0.0
 20
0.0
  3
*D3
  1

  0
LINE
  5
23B
100
AcDbEntity
  8
0
100
AcDbLine
 62
7
  6
CONTINUOUS
 10
-45.0193046157
 20
0.5
 11
-45.0193046157
 21
43.0
  0
LINE
  5
23C
100
AcDbEntity
  8
0
100
AcDbLine
 62
7
  6
CONTINUOUS
 10
-24.3867929024
 20
11.1856679962
 11
-24.3867929024
 21
43.0
  0
LINE
  5
23D
100
AcDbEntity
  8
0
100
AcDbLine
 62
7
  6
CONTINUOUS
 10
-45.0193046157
 20
41.5
 11
-34.703048759
 21
41.5
  0
LINE
  5
23E
100
AcDbEntity
  8
0
100
AcDbLine
 62
7
  6
CONTINUOUS
 10
-24.3867929024
 20
41.5
 11
-34.703048759
 21
41.5
  0
INSERT
  5
23F
100
AcDbEntity
  8
0
100
AcDbBlockReference
 62
7
  6
CONTINUOUS
  2
_FILLED
 10
-45.0193046157
 20
41.5
 41
3.0
 42
3.0
 43
3.0
 50
180.0
  0
INSERT
  5
240
100
AcDbEntity
  8
0
100
AcDbBlockReference
 62
7
  6
CONTINUOUS
  2
_FILLED
 10
-24.3867929024
 20
41.5
 41
3.0
 42
3.0
 43
3.0
  0
ENDBLK
  5
241
100
AcDbEntity
  8
0
  6
BYBLOCK
 62
0
100
AcDbBlockEnd
  0
ENDSEC
  0
SECTION
  2
ENTITIES
  0
DIMENSION
  5
242
100
AcDbEntity
  8
0
100
AcDbDimension
 62
7
  6
CONTINUOUS
  2
*D0
 10
19.15
 20
-23.5
 11
19.15
 21
-2.3571428571
 70
160
 71
2
 72
2
 41
0.9
 42
47.0
  3
DIMSTYLE_1
100
AcDbAlignedDimension
 13
3.9733373476
 23
23.5
 14
3.9733373476
 24
-23.5
 50
270.0
100
AcDbRotatedDimension
  0
DIMENSION
  5
243
100
AcDbEntity
  8
0
100
AcDbDimension
 62
7
  6
CONTINUOUS
  2
*D1
 10
-11.15
 20
31.5
 11
-4.2857142857
 21
31.5
 70
160
 71
2
 72
2
 41
0.9
 42
22.3
  3
DIMSTYLE_1
100
AcDbAlignedDimension
 13
11.15
 23
21.8997711479
 14
-11.15
 24
21.8997711479
 50
180.0
100
AcDbRotatedDimension
  0
DIMENSION
  5
244
100
AcDbEntity
  8
0
100
AcDbDimension
 62
7
  6
CONTINUOUS
  2
*D2
 10
-24.3867929024
 20
31.5
 11
-33.3816201876
 21
31.5
 70
160
 71
2
 72
2
 41
0.9
 42
11.1325117133
  3
DIMSTYLE_2
100
AcDbAlignedDimension
 13
-35.5193046157
 23
21.8997711479
 14
-24.3867929024
 24
10.6856679962
100
AcDbRotatedDimension
  0
DIMENSION
  5
245
100
AcDbEntity
  8
0
100
AcDbDimension
 62
7
  6
CONTINUOUS
  2
*D3
 10
-24.3867929024
 20
41.5
 11
-39.0959059019
 21
41.5
 70
160
 71
2
 72
2
 41
0.9
 42
20.6325117133
  3
DIMSTYLE_2
100
AcDbAlignedDimension
 13
-45.0193046157
 23
0.0
 14
-24.3867929024
 24
10.6856679962
100
AcDbRotatedDimension
  0
LWPOLYLINE
  5
246
100
AcDbEntity
  8
0
100
AcDbPolyline
 62
7
  6
CONTINUOUS
 90
5
 70
0
 43
0.3500000006
 10
3.0000000658
 20
33.9642854004
 10
3.357142951
 20
34.1785698853
 10
3.357142951
 20
34.8214278717
 10
3.0000000658
 20
35.2500013733
 10
2.1428571696
 20
35.2500013733
  0
LWPOLYLINE
  5
247
100
AcDbEntity
  8
0
100
AcDbPolyline
 62
250
  6
CONTINUOUS
 90
16
 70
0
 10
-11.0004589101
 20
20.9972959167
 10
-10.9968791436
 20
20.9994689314
 10
-10.9879813308
 20
21.0016186628
 10
-10.9738608069
 20
21.0037220776
 10
-10.9546688652
 20
21.005756639
 10
-10.9306111366
 20
21.0077005477
 10
-10.9019453861
 20
21.009532976
 10
-10.868978751
 20
21.0112342904
 10
-10.8320644502
 20
21.0127862623
 10
-10.7915979997
 20
21.014172263
 10
-10.7480129745
 20
21.0153774425
 10
-10.7017763638
 20
21.0163888878
 10
-10.6533835666
 20
21.0171957618
 10
-10.6033530845
 20
21.0177894192
 10
-10.5522209659
 20
21.0181634993
 10
-10.5005350625
 20
21.018313994
  0
LINE
  5
248
100
AcDbEntity
  8
DRAFT
100
AcDbLine
 62
7
  6
CONTINUOUS
 10
-3.0
 20
-23.5
 11
-2.7812783412
 21
-23.4563623377
  0
LWPOLYLINE
  5
249
100
AcDbEntity
  8
0
100
AcDbPolyline
 62
250
  6
CONTINUOUS
 90
16
 70
0
 10
10.5087981167
 20
-21.9749071372
 10
10.5610250031
 20
-21.97212728
 10
10.6126802316
 20
-21.9639134406
 10
10.6631985021
 20
-21.9503555394
 10
10.7120269743
 20
-21.931601975
 10
10.7586312804
 20
-21.9078580123
 10
10.8025013793
 20
-21.8793835478
 10
10.8431571925
 20
-21.8464902344
 10
10.8801538308
 20
-21.8095380733
 10
10.9130864355
 20
-21.7689315022
 10
10.941594647
 20
-21.7251149336
 10
10.9653665353
 20
-21.6785678925
 10
10.9841419991
 20
-21.6297997904
 10
10.9977156235
 20
-21.5793443309
 10
11.0059389237
 20
-21.5277536674
 10
11.0087219643
 20
-21.4755923698
  0
LINE
  5
24A
100
AcDbEntity
  8
DRAFT
100
AcDbLine
 62
7
  6
CONTINUOUS
 10
3.9733373476
 20
-23.5
 11
3.0
 21
-23.5
  0
LINE
  5
24B
100
AcDbEntity
  8
DRAFT
100
AcDbLine
 62
7
  6
CONTINUOUS
 10
-3.0
 20
-23.5
 11
-3.9733373476
 21
-23.5
  0
LINE
  5
24C
100
AcDbEntity
  8
DRAFT
100
AcDbLine
 62
7
  6
CONTINUOUS
 10
-2.7812783412
 20
-23.4563623377
 11
2.7812783412
 21
-23.4563623377
  0
LINE
  5
24D
100
AcDbEntity
  8
DRAFT
100
AcDbLine
 62
7
  6
CONTINUOUS
 10
2.7812783412
 20
-22.5310194482
 11
-2.7812783412
 21
-22.5310194482
  0
LINE
  5
24E
100
AcDbEntity
  8
DRAFT
100
AcDbLine
 62
7
  6
CONTINUOUS
 10
3.0
 20
-22.4
 11
10.6503805997
 21
-22.4
  0
LINE
  5
24F
100
AcDbEntity
  8
DRAFT
100
AcDbLine
 62
7
  6
CONTINUOUS
 10
-3.0
 20
-22.4
 11
-10.6503805997
 21
-22.4
  0
LINE
  5
250
100
AcDbEntity
  8
DRAFT
100
AcDbLine
 62
7
  6
CONTINUOUS
 10
3.0
 20
-23.5
 11
2.7812783412
 21
-23.4563623377
  0
LWPOLYLINE
  5
251
100
AcDbEntity
  8
0
100
AcDbPolyline
 62
250
  6
CONTINUOUS
 90
16
 70
0
 10
-11.0004589101
 20
-20.9972959167
 10
-10.9968794369
 20
-20.9994689572
 10
-10.9879818724
 20
-21.0016187146
 10
-10.9738615497
 20
-21.0037221553
 10
-10.9546697613
 20
-21.005756742
 10
-10.9306121379
 20
-21.007700675
 10
-10.9019464456
 20
-21.009533126
 10
-10.8689798232
 20
-21.0112344612
 10
-10.8320654925
 20
-21.0127864516
 10
-10.7915989726
 20
-21.0141724684
 10
-10.7480138429
 20
-21.0153776611
 10
-10.701777097
 20
-21.0163891165
 10
-10.6533841395
 20
-21.0171959974
 10
-10.6033534777
 20
-21.0177896584
 10
-10.552221166
 20
-21.0181637387
 10
-10.5005350625
 20
-21.0183142302
  0
LINE
  5
252
100
AcDbEntity
  8
DRAFT
100
AcDbLine
 62
7
  6
CONTINUOUS
 10
-3.0
 20
22.4
 11
-2.7812783412
 21
22.5310194482
  0
LWPOLYLINE
  5
253
100
AcDbEntity
  8
0
100
AcDbPolyline
 62
250
  6
CONTINUOUS
 90
15
 70
0
 10
10.5522211666
 20
-21.0181637394
 10
10.6033534788
 20
-21.0177896594
 10
10.6533841411
 20
-21.0171959985
 10
10.701777099
 20
-21.0163891176
 10
10.7480138452
 20
-21.015377662
 10
10.7915989752
 20
-21.0141724692
 10
10.8320654952
 20
-21.0127864523
 10
10.868979826
 20
-21.0112344618
 10
10.9019464483
 20
-21.0095331264
 10
10.9306121405
 20
-21.0077006753
 10
10.9546697635
 20
-21.0057567422
 10
10.9738615515
 20
-21.0037221554
 10
10.9879818737
 20
-21.0016187147
 10
10.9968794376
 20
-20.9994689572
 10
11.0004589101
 20
-20.9972959167
  0
LINE
  5
254
100
AcDbEntity
  8
0
100
AcDbLine
 62
250
  6
CONTINUOUS
 10
10.5087981167
 20
-21.9749071372
 11
-10.5087981167
 21
-21.9749071372
  0
LINE
  5
255
100
AcDbEntity
  8
0
100
AcDbLine
 62
250
  6
CONTINUOUS
 10
10.5522211666
 20
-21.0181637394
 11
-10.5005350625
 21
-21.0183142309
  0
LINE
  5
256
100
AcDbEntity
  8
DRAFT
100
AcDbLine
 62
7
  6
CONTINUOUS
 10
-2.7812783412
 20
-22.5310194482
 11
-3.0
 21
-22.4
  0
LWPOLYLINE
  5
257
100
AcDbEntity
  8
0
100
AcDbPolyline
 62
250
  6
CONTINUOUS
 90
16
 70
0
 10
-11.0087219643
 20
-21.4755923698
 10
-11.0059389623
 20
-21.5277533032
 10
-10.9977157646
 20
-21.5793436708
 10
-10.9841422864
 20
-21.6297989097
 10
-10.9653669917
 20
-21.6785668706
 10
-10.9415952756
 20
-21.7251138478
 10
-10.9130872219
 20
-21.7689304222
 10
-10.8801547429
 20
-21.8095370623
 10
-10.843158184
 20
-21.8464893433
 10
-10.8025023985
 20
-21.8793828084
 10
-10.7586322667
 20
-21.9078574436
 10
-10.7120278628
 20
-21.9316015798
 10
-10.6631992385
 20
-21.9503553003
 10
-10.6126807679
 20
-21.9639133265
 10
-10.5610252917
 20
-21.9721272495
 10
-10.5087981166
 20
-21.974907137
  0
LWPOLYLINE
  5
258
100
AcDbEntity
  8
0
100
AcDbPolyline
 62
250
  6
CONTINUOUS
 90
16
 70
0
 10
-11.0087219643
 20
21.4755923698
 10
-11.0059388076
 20
21.5277547588
 10
-10.9977152003
 20
21.5793463095
 10
-10.9841411372
 20
21.6298024308
 10
-10.9653651658
 20
21.6785709568
 10
-10.9415927608
 20
21.7251181902
 10
-10.913084075
 20
21.768934742
 10
-10.8801510927
 20
21.8095411066
 10
-10.8431542155
 20
21.8464929089
 10
-10.8024983179
 20
21.8793857675
 10
-10.7586283172
 20
21.90785972
 10
-10.712024304
 20
21.931603162
 10
-10.6631962884
 20
21.9503562578
 10
-10.612678619
 20
21.9639137831
 10
-10.5610241352
 20
21.9721273713
 10
-10.5087981167
 20
21.9749071372
  0
LWPOLYLINE
  5
259
100
AcDbEntity
  8
0
100
AcDbPolyline
 62
250
  6
CONTINUOUS
 90
7
 70
0
 10
-11.0046627389
 20
21.4041254633
 10
-11.0052891369
 20
21.4238228917
 10
-11.0059457953
 20
21.4406561357
 10
-11.0066187988
 20
21.4542838409
 10
-11.0073035089
 20
21.4645922227
 10
-11.0080045641
 20
21.4716950656
 10
-11.0087219643
 20
21.4755923698
  0
LINE
  5
25A
100
AcDbEntity
  8
0
100
AcDbLine
 62
250
  6
CONTINUOUS
 10
-11.0035024636
 20
21.3560260411
 11
-11.0046627389
 21
21.4041254633
  0
LINE
  5
25B
100
AcDbEntity
  8
0
100
AcDbLine
 62
250
  6
CONTINUOUS
 10
-11.0024980441
 20
21.2979562724
 11
-11.0035024636
 21
21.3560260411
  0
LINE
  5
25C
100
AcDbEntity
  8
0
100
AcDbLine
 62
250
  6
CONTINUOUS
 10
-11.0013312402
 20
21.1949860367
 11
-11.0024980441
 21
21.2979562724
  0
LINE
  5
25D
100
AcDbEntity
  8
0
100
AcDbLine
 62
250
  6
CONTINUOUS
 10
-10.5030519894
 20
21.6796926689
 11
-10.5047341778
 21
21.8316431047
  0
LINE
  5
25E
100
AcDbEntity
  8
0
100
AcDbLine
 62
250
  6
CONTINUOUS
 10
-11.0006377707
 20
21.0790132523
 11
-11.0013312402
 21
21.1949860367
  0
LINE
  5
25F
100
AcDbEntity
  8
0
100
AcDbLine
 62
250
  6
CONTINUOUS
 10
-10.5011186535
 20
21.3380089963
 11
-10.5030519894
 21
21.6796926689
  0
LINE
  5
260
100
AcDbEntity
  8
0
100
AcDbLine
 62
250
  6
CONTINUOUS
 10
-10.5005350625
 20
21.0183142309
 11
-10.5011186535
 21
21.3380089963
  0
LINE
  5
261
100
AcDbEntity
  8
0
100
AcDbLine
 62
7
  6
CONTINUOUS
 10
-11.15
 20
-21.8997711479
 11
-11.15
 21
21.8997711479
  0
LWPOLYLINE
  5
262
100
AcDbEntity
  8
0
100
AcDbPolyline
 62
250
  6
CONTINUOUS
 90
9
 70
0
 10
-10.9974142989
 20
-16.3324771154
 10
-10.99513084
 20
-11.6670364005
 10
-10.9936085333
 20
-7.0009737718
 10
-10.9928473781
 20
-2.3338756638
 10
-10.9928473752
 20
2.3338443579
 10
-10.9936085267
 20
7.0009455965
 10
-10.9951308334
 20
11.6670144863
 10
-10.9974142946
 20
16.3324645931
 10
-11.0006377707
 20
21.0790132523
  0
LWPOLYLINE
  5
263
100
AcDbEntity
  8
0
100
AcDbPolyline
 62
250
  6
CONTINUOUS
 90
9
 70
0
 10
-10.497490446
 20
-16.349481053
 10
-10.4952069837
 20
-11.6792204116
 10
-10.4936846755
 20
-7.0079400855
 10
-10.4929235215
 20
-2.3360479917
 10
-10.4929235217
 20
2.3360479976
 10
-10.4936846759
 20
7.0079400907
 10
-10.4952069841
 20
11.6792204157
 10
-10.4974904463
 20
16.3494810554
 10
-10.5005350625
 20
21.0183142309
  0
LINE
  5
264
100
AcDbEntity
  8
0
100
AcDbLine
 62
250
  6
CONTINUOUS
 10
-11.00081144
 20
-21.1184484404
 11
-10.9974142989
 21
-16.3324771154
  0
LINE
  5
265
100
AcDbEntity
  8
0
100
AcDbLine
 62
250
  6
CONTINUOUS
 10
-10.5017441538
 20
-21.4854586496
 11
-10.497490446
 21
-16.349481053
  0
LINE
  5
266
100
AcDbEntity
  8
0
100
AcDbLine
 62
250
  6
CONTINUOUS
 10
-11.0016694038
 20
-21.2310600855
 11
-11.00081144
 21
-21.1184484404
  0
LINE
  5
267
100
AcDbEntity
  8
0
100
AcDbLine
 62
250
  6
CONTINUOUS
 10
-10.5035748986
 20
-21.7355556626
 11
-10.5017441538
 21
-21.4854586496
  0
LINE
  5
268
100
AcDbEntity
  8
0
100
AcDbLine
 62
250
  6
CONTINUOUS
 10
-10.5047341778
 20
-21.8316431047
 11
-10.5035748986
 21
-21.7355556626
  0
LINE
  5
269
100
AcDbEntity
  8
0
100
AcDbLine
 62
250
  6
CONTINUOUS
 10
-11.0024980441
 20
-21.2979562723
 11
-11.0016694038
 21
-21.2310600855
  0
LINE
  5
26A
100
AcDbEntity
  8
0
100
AcDbLine
 62
250
  6
CONTINUOUS
 10
-11.0035024636
 20
-21.3560260412
 11
-11.0024980441
 21
-21.2979562723
  0
LWPOLYLINE
  5
26B
100
AcDbEntity
  8
0
100
AcDbPolyline
 62
250
  6
CONTINUOUS
 90
5
 70
0
 10
-10.5060157159
 20
21.9047687004
 10
-10.5066888073
 20
21.9320760821
 10
-10.5073747238
 20
21.952953371
 10
-10.5080778269
 20
21.9672621499
 10
-10.5087981167
 20
21.9749071372
  0
LINE
  5
26C
100
AcDbEntity
  8
0
100
AcDbLine
 62
250
  6
CONTINUOUS
 10
-10.5047341778
 20
21.8316431047
 11
-10.5060157159
 21
21.9047687004
  0
LWPOLYLINE
  5
26D
100
AcDbEntity
  8
0
100
AcDbPolyline
 62
7
  6
CONTINUOUS
 90
3
 70
0
 43
0.3500000006
 10
1.1428571477
 20
32.5357161255
 10
1.0714285848
 20
32.3214271088
 10
0.9285714591
 20
32.0357159729
  0
LWPOLYLINE
  5
26E
100
AcDbEntity
  8
0
100
AcDbPolyline
 62
250
  6
CONTINUOUS
 90
6
 70
0
 10
-10.5087981167
 20
-21.9749071372
 10
-10.5080778269
 20
-21.9672621499
 10
-10.5073747238
 20
-21.952953371
 10
-10.5066888073
 20
-21.9320760821
 10
-10.5060157159
 20
-21.9047687004
 10
-10.5047341778
 20
-21.8316431047
  0
LWPOLYLINE
  5
26F
100
AcDbEntity
  8
0
100
AcDbPolyline
 62
250
  6
CONTINUOUS
 90
8
 70
0
 10
-11.0087219643
 20
-21.4755923698
 10
-11.0080045641
 20
-21.4716950654
 10
-11.0073035089
 20
-21.4645922224
 10
-11.0066187988
 20
-21.4542838406
 10
-11.0059457953
 20
-21.4406561355
 10
-11.0052891369
 20
-21.4238228918
 10
-11.0046627389
 20
-21.4041254635
 10
-11.0035024636
 20
-21.3560260412
  0
LWPOLYLINE
  5
270
100
AcDbEntity
  8
RACCORDO
100
AcDbPolyline
 62
250
  6
CONTINUOUS
 90
52
 70
0
 10
0.0
 20
-5.1140036519
 10
-0.3150969409
 20
-5.1042398329
 10
-0.6271107316
 20
-5.0754133292
 10
-0.936041372
 20
-5.0275241074
 10
-1.2432124704
 20
-4.9602323953
 10
-1.5473004186
 20
-4.873877834
 10
-1.8443343918
 20
-4.7694794851
 10
-2.1340379369
 20
-4.6468471521
 10
-2.4166875069
 20
-4.5061708089
 10
-2.6891416361
 20
-4.3490397708
 10
-2.9512923487
 20
-4.1752751393
 10
-3.2032476206
 20
-3.9850555652
 10
-3.4421899138
 20
-3.7805067146
 10
-3.6679846877
 20
-3.5614629492
 10
-3.8807664829
 20
-3.3280897083
 10
-4.0781213833
 20
-3.0830093289
 10
-4.2598835878
 20
-2.8260664591
 10
-4.4262188973
 20
-2.5574163599
 10
-4.5752107988
 20
-2.280147359
 10
-4.7066468569
 20
-1.9941795145
 10
-4.8207395068
 20
-1.6995928144
 10
-4.9162095409
 20
-1.3997155505
 10
-4.9928444339
 20
-1.0944534875
 10
-5.050856711
 20
-0.7839010284
 10
-5.0896047404
 20
-0.471669474
 10
-5.1088757808
 20
-0.1578476423
 10
-5.1088825735
 20
0.1576530452
 10
-5.0896217107
 20
0.4714873649
 10
-5.0508774986
 20
0.7837504201
 10
-4.992865631
 20
1.0943468679
 10
-4.9162297811
 20
1.3996458335
 10
-4.8207575813
 20
1.6995451928
 10
-4.7066613993
 20
1.9941469021
 10
-4.5752220112
 20
2.2801262589
 10
-4.4262273894
 20
2.557403795
 10
-4.2598895616
 20
2.8260589325
 10
-4.0781253877
 20
3.0830053735
 10
-3.8807699389
 20
3.3280877845
 10
-3.6679881441
 20
3.5614615899
 10
-3.4421916497
 20
3.7805067001
 10
-3.2032450857
 20
3.9850587285
 10
-2.9512838222
 20
4.1752822608
 10
-2.6891256154
 20
4.3490507193
 10
-2.4166609204
 20
4.5061859204
 10
-2.1339992821
 20
4.6468662954
 10
-1.8442870925
 20
4.7695002163
 10
-1.5472488955
 20
4.8738959869
 10
-1.2431601472
 20
4.9602455259
 10
-0.9359936075
 20
5.0275326261
 10
-0.6270735297
 20
5.0754185979
 10
-0.3150756605
 20
5.104242262
 10
-0.0
 20
5.1140036519
  0
LINE
  5
271
100
AcDbEntity
  8
0
100
AcDbLine
 62
250
  6
CONTINUOUS
 10
-11.15
 20
-21.8997711479
 11
-11.0087219643
 21
-21.4755923698
  0
LWPOLYLINE
  5
272
100
AcDbEntity
  8
RACCORDO
100
AcDbPolyline
 62
250
  6
CONTINUOUS
 90
52
 70
0
 10
-0.0
 20
-4.8109809411
 10
-0.2949360527
 20
-4.8019338483
 10
-0.5891483265
 20
-4.7747784593
 10
-0.8815211577
 20
-4.7295460083
 10
-1.1710871233
 20
-4.6662996885
 10
-1.4565804584
 20
-4.5852278922
 10
-1.7364670373
 20
-4.4867350778
 10
-2.0095325626
 20
-4.3712791848
 10
-2.2749076895
 20
-4.2392588492
 10
-2.5316341569
 20
-4.091158947
 10
-2.7787424957
 20
-3.9275426119
 10
-3.0152942586
 20
-3.749035055
 10
-3.2404237228
 20
-3.5562878077
 10
-3.4532812573
 20
-3.350021825
 10
-3.6530482261
 20
-3.1310235074
 10
-3.8389684407
 20
-2.9001127137
 10
-4.0103432411
 20
-2.6581446642
 10
-4.1665029318
 20
-2.4060515021
 10
-4.3068239227
 20
-2.1448363275
 10
-4.430768222
 20
-1.8755137956
 10
-4.5378800167
 20
-1.5990897304
 10
-4.6277588103
 20
-1.3166044772
 10
-4.7000724783
 20
-1.0290987796
 10
-4.7545375658
 20
-0.7376969187
 10
-4.7909408099
 20
-0.443595071
 10
-4.8091594751
 20
-0.1480133833
 10
-4.8091590582
 20
0.1480269308
 10
-4.7909386056
 20
0.4436188744
 10
-4.7545298361
 20
0.7377467256
 10
-4.7000538121
 20
1.0291840117
 10
-4.6277267693
 20
1.3167170743
 10
-4.5378358865
 20
1.5992149359
 10
-4.4307130894
 20
1.8756440142
 10
-4.3067584152
 20
2.1449678381
 10
-4.1664278955
 20
2.4061814131
 10
-4.0102603648
 20
2.6582696733
 10
-3.8388789068
 20
2.9002312076
 10
-3.6529537805
 20
3.1311336765
 10
-3.4531835743
 20
3.3501224979
 10
-3.2403222757
 20
3.5563802251
 10
-3.0151873161
 20
3.7491210491
 10
-2.7786290005
 20
3.9276228926
 10
-2.5315133283
 20
4.0912337001
 10
-2.2747773249
 20
4.239328791
 10
-2.0093916573
 20
4.371343946
 10
-1.7363193062
 20
4.4867922394
 10
-1.4564284329
 20
4.5852761739
 10
-1.1709350294
 20
4.666337849
 10
-0.881383046
 20
4.7295717426
 10
-0.5890418549
 20
4.7747915915
 10
-0.2948757174
 20
4.8019375518
 10
-0.0
 20
4.8109809411
  0
LINE
  5
273
100
AcDbEntity
  8
0
100
AcDbLine
 62
250
  6
CONTINUOUS
 10
-11.0087219643
 20
21.4755923698
 11
-11.15
 21
21.8997711479
  0
LINE
  5
274
100
AcDbEntity
  8
DRAFT
100
AcDbLine
 62
7
  6
CONTINUOUS
 10
-3.0
 20
-23.5
 11
-3.0
 21
-22.4
  0
LINE
  5
275
100
AcDbEntity
  8
DRAFT
100
AcDbLine
 62
7
  6
CONTINUOUS
 10
-3.0
 20
22.4
 11
-3.0
 21
23.5
  0
LINE
  5
276
100
AcDbEntity
  8
DRAFT
100
AcDbLine
 62
7
  6
CONTINUOUS
 10
-2.7812783412
 20
-23.4563623377
 11
-2.7812783412
 21
-22.5310194482
  0
LINE
  5
277
100
AcDbEntity
  8
DRAFT
100
AcDbLine
 62
7
  6
CONTINUOUS
 10
-2.7812783412
 20
22.5310194482
 11
-2.7812783412
 21
23.4563623377
  0
LINE
  5
278
100
AcDbEntity
  8
0
100
AcDbLine
 62
250
  6
CONTINUOUS
 10
-10.6503805997
 20
-22.4
 11
-10.5087981167
 21
-21.9749071372
  0
LINE
  5
279
100
AcDbEntity
  8
0
100
AcDbLine
 62
250
  6
CONTINUOUS
 10
-10.5087981167
 20
21.9749071372
 11
-10.6503805997
 21
22.4
  0
LWPOLYLINE
  5
27A
100
AcDbEntity
  8
0
100
AcDbPolyline
 62
7
  6
CONTINUOUS
 90
2
 70
0
 43
0.3500000006
 10
18.3999999504
 20
-1.3571429443
 10
16.8999994926
 20
-1.3571429443
  0
LWPOLYLINE
  5
27B
100
AcDbEntity
  8
0
100
AcDbPolyline
 62
7
  6
CONTINUOUS
 90
4
 70
0
 43
0.3500000006
 10
16.0428570213
 20
-0.0000003204
 10
15.4000001678
 20
-0.0000003204
 10
15.4000001678
 20
1.5000001373
 10
18.3999999504
 20
0.642857666
  0
LINE
  5
27C
100
AcDbEntity
  8
DRAFT
100
AcDbLine
 62
7
  6
CONTINUOUS
 10
2.7812783412
 20
-23.4563623377
 11
2.7812783412
 21
-22.5310194482
  0
LINE
  5
27D
100
AcDbEntity
  8
DRAFT
100
AcDbLine
 62
7
  6
CONTINUOUS
 10
2.7812783412
 20
22.5310194482
 11
2.7812783412
 21
23.4563623377
  0
LINE
  5
27E
100
AcDbEntity
  8
DRAFT
100
AcDbLine
 62
7
  6
CONTINUOUS
 10
3.0
 20
-23.5
 11
3.0
 21
-22.4
  0
LINE
  5
27F
100
AcDbEntity
  8
DRAFT
100
AcDbLine
 62
7
  6
CONTINUOUS
 10
3.0
 20
22.4
 11
3.0
 21
23.5
  0
LINE
  5
280
100
AcDbEntity
  8
0
100
AcDbLine
 62
250
  6
CONTINUOUS
 10
10.5087981167
 20
21.9749071372
 11
10.6503805997
 21
22.4
  0
LINE
  5
281
100
AcDbEntity
  8
0
100
AcDbLine
 62
250
  6
CONTINUOUS
 10
11.0087219643
 20
21.4755923698
 11
11.15
 21
21.8997711479
  0
LINE
  5
282
100
AcDbEntity
  8
0
100
AcDbLine
 62
250
  6
CONTINUOUS
 10
10.6503805997
 20
-22.4
 11
10.5087981167
 21
-21.9749071372
  0
LINE
  5
283
100
AcDbEntity
  8
0
100
AcDbLine
 62
250
  6
CONTINUOUS
 10
11.15
 20
-21.8997711479
 11
11.0087219643
 21
-21.4755923698
  0
LWPOLYLINE
  5
284
100
AcDbEntity
  8
RACCORDO
100
AcDbPolyline
 62
250
  6
CONTINUOUS
 90
52
 70
0
 10
-0.0
 20
4.8109809411
 10
0.2949377294
 20
4.8019337454
 10
0.589151648
 20
4.7747780495
 10
0.8815260734
 20
4.7295450922
 10
1.1710935636
 20
4.6662980725
 10
1.456588337
 20
4.58522539
 10
1.7364762538
 20
4.4867315115
 10
2.0095430003
 20
4.3712743874
 10
2.2749192172
 20
4.2392526643
 10
2.531646633
 20
4.0911512281
 10
2.7787557562
 20
3.9275332318
 10
3.0153081368
 20
3.749023895
 10
3.2404380689
 20
3.5562747383
 10
3.4532959553
 20
3.3500066768
 10
3.6530630906
 20
3.1310061678
 10
3.8389831688
 20
2.9000932213
 10
4.010357409
 20
2.6581232931
 10
4.1665162912
 20
2.4060283723
 10
4.3068364932
 20
2.1448110905
 10
4.4307801319
 20
1.8754856643
 10
4.5378910914
 20
1.5990583084
 10
4.6277685758
 20
1.3165701583
 10
4.7000807628
 20
1.0290609487
 10
4.7545439096
 20
0.7376560377
 10
4.7909444558
 20
0.4435556998
 10
4.8091603891
 20
0.1479836943
 10
4.8091585846
 20
-0.1480423164
 10
4.7909383165
 20
-0.4436219966
 10
4.7545305834
 20
-0.7377419097
 10
4.7000561291
 20
-1.0291734327
 10
4.6277308183
 20
-1.3167028463
 10
4.5378412935
 20
-1.5991995959
 10
4.430719228
 20
-1.8756295161
 10
4.3067650064
 20
-2.1449546064
 10
4.1664348154
 20
-2.4061694332
 10
4.0102672424
 20
-2.6582592997
 10
3.8388854207
 20
-2.9002225871
 10
3.6529595097
 20
-3.1311269938
 10
3.4531881334
 20
-3.3501177994
 10
3.2403256381
 20
-3.5563771621
 10
3.0151897232
 20
-3.7491191136
 10
2.7786305403
 20
-3.9276218034
 10
2.5315138425
 20
-4.091233382
 10
2.2747763801
 20
-4.2393292979
 10
2.0093890879
 20
-4.3713451269
 10
1.7363155304
 20
-4.4867937003
 10
1.4564241535
 20
-4.5852775329
 10
1.170930765
 20
-4.6663389189
 10
0.881379223
 20
-4.7295724549
 10
0.5890388706
 20
-4.7747919596
 10
0.29487401
 20
-4.8019376566
 10
0.0
 20
-4.8109809411
  0
LWPOLYLINE
  5
285
100
AcDbEntity
  8
RACCORDO
100
AcDbPolyline
 62
250
  6
CONTINUOUS
 90
52
 70
0
 10
-0.0
 20
5.1140036519
 10
0.3150987515
 20
5.1042397138
 10
0.6271142809
 20
5.075412886
 10
0.9360465883
 20
5.0275231353
 10
1.243219299
 20
4.9602306802
 10
1.5473087876
 20
4.873875171
 10
1.8443441783
 20
4.7694756967
 10
2.1340490149
 20
4.646842058
 10
2.4166997535
 20
4.5061642317
 10
2.6891548873
 20
4.3490315689
 10
2.9513064303
 20
4.1752651782
 10
3.2032623685
 20
3.9850437034
 10
3.4422051524
 20
3.7804928254
 10
3.6680002793
 20
3.5614468415
 10
3.880782252
 20
3.3280712553
 10
4.0781370298
 20
3.0829886109
 10
4.2598986958
 20
2.8260437836
 10
4.4262331669
 20
2.5573918072
 10
4.5752241534
 20
2.280120535
 10
4.7066593994
 20
1.9941495775
 10
4.8207511608
 20
1.6995593703
 10
4.9162199154
 20
1.3996790737
 10
4.992852817
 20
1.0944132732
 10
5.0508627118
 20
0.7838575511
 10
5.0896086161
 20
0.471627613
 10
5.1088777648
 20
0.1578161162
 10
5.1088829229
 20
-0.157669357
 10
5.0896214025
 20
-0.4714906938
 10
5.050878146
 20
-0.7837453892
 10
4.9928682109
 20
-1.0943357084
 10
4.9162340815
 20
-1.3996307132
 10
4.8207630262
 20
-1.6995288381
 10
4.7066677765
 20
-1.9941314806
 10
4.5752290116
 20
-2.2801121977
 10
4.426234689
 20
-2.5573910461
 10
4.2598968512
 20
-2.8260479229
 10
4.0781323044
 20
-3.0829962149
 10
3.8807759691
 20
-3.3280806313
 10
3.6679929249
 20
-3.5614565537
 10
3.442195217
 20
-3.7805034485
 10
3.203247677
 20
-3.9850567088
 10
2.9512854734
 20
-4.1752811406
 10
2.6891261566
 20
-4.3490503844
 10
2.416659889
 20
-4.5061863908
 10
2.1339965083
 20
-4.6468674568
 10
1.8442830776
 20
-4.7695017702
 10
1.5472443797
 20
-4.8738974724
 10
1.2431556318
 20
-4.9602466445
 10
0.9359895484
 20
-5.0275333825
 10
0.6270703678
 20
-5.0754190976
 10
0.3150738516
 20
-5.1042425096
 10
0.0
 20
-5.1140036519
  0
LWPOLYLINE
  5
286
100
AcDbEntity
  8
0
100
AcDbPolyline
 62
250
  6
CONTINUOUS
 90
7
 70
0
 10
11.0087219643
 20
-21.4755923698
 10
11.0080031927
 20
-21.4716789126
 10
11.0073010341
 20
-21.4645568007
 10
11.0066154888
 20
-21.4542260342
 10
11.0059419622
 20
-21.4405716186
 10
11.0052850488
 20
-21.4237085484
 10
11.0046585314
 20
-21.403981807
  0
LWPOLYLINE
  5
287
100
AcDbEntity
  8
0
100
AcDbPolyline
 62
250
  6
CONTINUOUS
 90
5
 70
0
 10
10.5087981167
 20
-21.9749071372
 10
10.5080778549
 20
-21.9672631277
 10
10.5073747357
 20
-21.9529558612
 10
10.5066887591
 20
-21.9320798744
 10
10.5060155151
 20
-21.9047715709
  0
LWPOLYLINE
  5
288
100
AcDbEntity
  8
0
100
AcDbPolyline
 62
250
  6
CONTINUOUS
 90
3
 70
0
 10
11.0046585314
 20
-21.403981807
 10
11.0034984168
 20
-21.3558303735
 10
11.0029751375
 20
-21.3279645393
  0
LINE
  5
289
100
AcDbEntity
  8
0
100
AcDbLine
 62
250
  6
CONTINUOUS
 10
10.5060155151
 20
-21.9047715709
 11
10.5047336849
 21
-21.8316424864
  0
LINE
  5
28A
100
AcDbEntity
  8
0
100
AcDbLine
 62
250
  6
CONTINUOUS
 10
10.5047336849
 20
-21.8316424864
 11
10.5030519635
 21
-21.6797292088
  0
LINE
  5
28B
100
AcDbEntity
  8
0
100
AcDbLine
 62
250
  6
CONTINUOUS
 10
10.5030519635
 20
-21.6797292088
 11
10.5011186198
 21
-21.3380251343
  0
LINE
  5
28C
100
AcDbEntity
  8
0
100
AcDbLine
 62
250
  6
CONTINUOUS
 10
10.5011186198
 20
-21.3380251343
 11
10.5005350625
 21
-21.0183142309
  0
LWPOLYLINE
  5
28D
100
AcDbEntity
  8
0
100
AcDbPolyline
 62
250
  6
CONTINUOUS
 90
9
 70
0
 10
10.5005350625
 20
-21.0183142309
 10
10.4974904462
 20
-16.3494810548
 10
10.495206984
 20
-11.6792204147
 10
10.4936846758
 20
-7.0079400892
 10
10.4929235217
 20
-2.3360479955
 10
10.4929235216
 20
2.3360479943
 10
10.4936846757
 20
7.0079400882
 10
10.4952069839
 20
11.6792204138
 10
10.4974904462
 20
16.3494810544
  0
LINE
  5
28E
100
AcDbEntity
  8
0
100
AcDbLine
 62
250
  6
CONTINUOUS
 10
10.4974904462
 20
16.3494810544
 11
10.5014061262
 21
21.4132060252
  0
LINE
  5
28F
100
AcDbEntity
  8
0
100
AcDbLine
 62
250
  6
CONTINUOUS
 10
10.5014061262
 20
21.4132060252
 11
10.5030519635
 21
21.6797292088
  0
LINE
  5
290
100
AcDbEntity
  8
0
100
AcDbLine
 62
250
  6
CONTINUOUS
 10
10.5030519635
 20
21.6797292088
 11
10.5047336849
 21
21.8316424864
  0
LWPOLYLINE
  5
291
100
AcDbEntity
  8
0
100
AcDbPolyline
 62
250
  6
CONTINUOUS
 90
6
 70
0
 10
10.5047336849
 20
21.8316424864
 10
10.5060155151
 20
21.9047715709
 10
10.5066887591
 20
21.9320798744
 10
10.5073747357
 20
21.9529558612
 10
10.5080778549
 20
21.9672631277
 10
10.5087981167
 20
21.9749071372
  0
LWPOLYLINE
  5
292
100
AcDbEntity
  8
0
100
AcDbPolyline
 62
250
  6
CONTINUOUS
 90
9
 70
0
 10
11.0029751375
 20
21.3279645393
 10
11.0040632761
 20
21.3813379257
 10
11.0046585314
 20
21.4039818068
 10
11.0052850488
 20
21.4237085483
 10
11.0059419622
 20
21.4405716188
 10
11.0066154888
 20
21.4542260345
 10
11.0073010341
 20
21.464556801
 10
11.0080031927
 20
21.4716789127
 10
11.0087219643
 20
21.4755923698
  0
LINE
  5
293
100
AcDbEntity
  8
0
100
AcDbLine
 62
250
  6
CONTINUOUS
 10
11.0029751375
 20
-21.3279645393
 11
11.0020549485
 21
-21.2650621527
  0
LINE
  5
294
100
AcDbEntity
  8
0
100
AcDbLine
 62
250
  6
CONTINUOUS
 10
11.0020549485
 20
-21.2650621527
 11
11.0010408709
 21
-21.1568159642
  0
LINE
  5
295
100
AcDbEntity
  8
0
100
AcDbLine
 62
250
  6
CONTINUOUS
 10
11.0010408709
 20
-21.1568159642
 11
11.0005196528
 21
-21.0384725278
  0
LWPOLYLINE
  5
296
100
AcDbEntity
  8
0
100
AcDbPolyline
 62
250
  6
CONTINUOUS
 90
9
 70
0
 10
11.0005196528
 20
-21.0384725278
 10
10.9974142958
 20
-16.3324664701
 10
10.9951308352
 20
-11.6670185434
 10
10.9936085283
 20
-7.0009521365
 10
10.9928473752
 20
-2.3338547134
 10
10.9928473758
 20
2.3338611899
 10
10.9936085296
 20
7.0009579653
 10
10.9951308365
 20
11.667023077
 10
10.9974142967
 20
16.3324690607
  0
LINE
  5
297
100
AcDbEntity
  8
0
100
AcDbLine
 62
7
  6
CONTINUOUS
 10
11.15
 20
21.8997711479
 11
11.15
 21
-21.8997711479
  0
LINE
  5
298
100
AcDbEntity
  8
0
100
AcDbLine
 62
250
  6
CONTINUOUS
 10
10.9974142967
 20
16.3324690607
 11
11.0008096574
 21
21.1180991804
  0
LINE
  5
299
100
AcDbEntity
  8
0
100
AcDbLine
 62
250
  6
CONTINUOUS
 10
11.0008096574
 20
21.1180991804
 11
11.0016659628
 21
21.2307227352
  0
LWPOLYLINE
  5
29A
100
AcDbEntity
  8
0
100
AcDbPolyline
 62
250
  6
CONTINUOUS
 90
3
 70
0
 10
11.0016659628
 20
21.2307227352
 10
11.002494253
 20
21.297692487
 10
11.0029751375
 20
21.3279645393
  0
LWPOLYLINE
  5
29B
100
AcDbEntity
  8
0
100
AcDbPolyline
 62
7
  6
CONTINUOUS
 90
10
 70
0
 43
0.3500000006
 10
1.0714285848
 20
32.7500006104
 10
1.1428571477
 20
32.6071427765
 10
1.1428571477
 20
32.5357161255
 10
1.0000000219
 20
32.3928582916
 10
0.9285714591
 20
32.3928582916
 10
0.8571428254
 20
32.4642849426
 10
0.8571428254
 20
32.5357161255
 10
0.9285714591
 20
32.6785694275
 10
1.0000000219
 20
32.7500006104
 10
1.0714285848
 20
32.7500006104
  0
LWPOLYLINE
  5
29C
100
AcDbEntity
  8
0
100
AcDbPolyline
 62
7
  6
CONTINUOUS
 90
3
 70
0
 43
0.3500000006
 10
17.7571430969
 20
-0.8571427917
 10
17.7571430969
 20
-2.3571432495
 10
15.4000001678
 20
-1.7142852631
  0
LINE
  5
29D
100
AcDbEntity
  8
DRAFT
100
AcDbLine
 62
7
  6
CONTINUOUS
 10
2.7812783412
 20
-22.5310194482
 11
3.0
 21
-22.4
  0
LINE
  5
29E
100
AcDbEntity
  8
0
100
AcDbLine
 62
250
  6
CONTINUOUS
 10
-10.5005350625
 20
21.0183142309
 11
10.5005350625
 21
21.0183142309
  0
LINE
  5
29F
100
AcDbEntity
  8
DRAFT
100
AcDbLine
 62
7
  6
CONTINUOUS
 10
3.0
 20
22.4
 11
2.7812783412
 21
22.5310194482
  0
LINE
  5
2A0
100
AcDbEntity
  8
DRAFT
100
AcDbLine
 62
7
  6
CONTINUOUS
 10
3.0
 20
23.5
 11
2.7812783412
 21
23.4563623377
  0
LINE
  5
2A1
100
AcDbEntity
  8
0
100
AcDbLine
 62
250
  6
CONTINUOUS
 10
-10.5087981167
 20
21.9749071372
 11
10.5087981167
 21
21.9749071372
  0
LINE
  5
2A2
100
AcDbEntity
  8
DRAFT
100
AcDbLine
 62
7
  6
CONTINUOUS
 10
-10.6503805997
 20
22.4
 11
-3.0
 21
22.4
  0
LINE
  5
2A3
100
AcDbEntity
  8
DRAFT
100
AcDbLine
 62
7
  6
CONTINUOUS
 10
3.0
 20
22.4
 11
10.6503805997
 21
22.4
  0
LINE
  5
2A4
100
AcDbEntity
  8
DRAFT
100
AcDbLine
 62
7
  6
CONTINUOUS
 10
2.7812783412
 20
22.5310194482
 11
-2.7812783412
 21
22.5310194482
  0
LWPOLYLINE
  5
2A5
100
AcDbEntity
  8
0
100
AcDbPolyline
 62
250
  6
CONTINUOUS
 90
16
 70
0
 10
10.5005350626
 20
21.0183132877
 10
10.5522203681
 20
21.0181627949
 10
10.6033519099
 20
21.0177887256
 10
10.6533818551
 20
21.0171950877
 10
10.7017741735
 20
21.0163882415
 10
10.7480103807
 20
21.0153768319
 10
10.7915950934
 20
21.0141716956
 10
10.8320613367
 20
21.0127857448
 10
10.8689755479
 20
21.0112338287
 10
10.9019422211
 20
21.0095325749
 10
10.9306081453
 20
21.0077002109
 10
10.9546661883
 20
21.0057563691
 10
10.9738585879
 20
21.0037218762
 10
10.987979713
 20
21.00161853
 10
10.9968782673
 20
20.9994688662
 10
11.00045891
 20
20.9972959167
  0
LWPOLYLINE
  5
2A6
100
AcDbEntity
  8
0
100
AcDbPolyline
 62
250
  6
CONTINUOUS
 90
16
 70
0
 10
10.5087981167
 20
21.9749071372
 10
10.5610241351
 20
21.9721273713
 10
10.6126786189
 20
21.9639137831
 10
10.6631962883
 20
21.9503562579
 10
10.7120243038
 20
21.9316031621
 10
10.7586283171
 20
21.90785972
 10
10.8024983178
 20
21.8793857676
 10
10.8431542153
 20
21.846492909
 10
10.8801510926
 20
21.8095411067
 10
10.9130840749
 20
21.7689347421
 10
10.9415927608
 20
21.7251181903
 10
10.9653651658
 20
21.6785709569
 10
10.9841411372
 20
21.6298024308
 10
10.9977152003
 20
21.5793463095
 10
11.0059388076
 20
21.5277547588
 10
11.0087219643
 20
21.4755923698
  0
LINE
  5
2A7
100
AcDbEntity
  8
DRAFT
100
AcDbLine
 62
7
  6
CONTINUOUS
 10
-3.0
 20
23.5
 11
-2.7812783412
 21
23.4563623377
  0
LINE
  5
2A8
100
AcDbEntity
  8
DRAFT
100
AcDbLine
 62
7
  6
CONTINUOUS
 10
-2.7812783412
 20
23.4563623377
 11
2.7812783412
 21
23.4563623377
  0
LINE
  5
2A9
100
AcDbEntity
  8
DRAFT
100
AcDbLine
 62
7
  6
CONTINUOUS
 10
-3.9733373476
 20
23.5
 11
-3.0
 21
23.5
  0
LINE
  5
2AA
100
AcDbEntity
  8
DRAFT
100
AcDbLine
 62
7
  6
CONTINUOUS
 10
3.0
 20
23.5
 11
3.9733373476
 21
23.5
  0
LWPOLYLINE
  5
2AB
100
AcDbEntity
  8
0
100
AcDbPolyline
 62
7
  6
CONTINUOUS
 90
7
 70
0
 43
0.3500000006
 10
-0.4285714127
 20
32.2500004578
 10
-1.9285714102
 20
32.2500004578
 10
-0.4285714127
 20
34.392858902
 10
-0.4285714127
 20
34.8214278717
 10
-0.8571428254
 20
35.2500013733
 10
-1.5000000329
 20
35.2500013733
 10
-1.9285714102
 20
34.6071433868
  0
LWPOLYLINE
  5
2AC
100
AcDbEntity
  8
0
100
AcDbPolyline
 62
7
  6
CONTINUOUS
 90
6
 70
0
 43
0.3500000006
 10
2.1428571696
 20
32.2500004578
 10
3.2142856836
 20
32.2500004578
 10
3.4285713015
 20
32.4642849426
 10
3.4285713015
 20
33.5357164307
 10
3.0000000658
 20
33.9642854004
 10
2.5714285469
 20
33.9642854004
  0
LWPOLYLINE
  5
2AD
100
AcDbEntity
  8
0
100
AcDbPolyline
 62
7
  6
CONTINUOUS
 90
7
 70
0
 43
0.3500000006
 10
-2.7857141647
 20
32.2500004578
 10
-4.2857143393
 20
32.2500004578
 10
-2.7857141647
 20
34.392858902
 10
-2.7857141647
 20
34.8214278717
 10
-3.2142856836
 20
35.2500013733
 10
-3.8571428204
 20
35.2500013733
 10
-4.2857143393
 20
34.6071433868
  0
LWPOLYLINE
  5
2AE
100
AcDbEntity
  8
0
100
AcDbPolyline
 62
7
  6
CONTINUOUS
 90
10
 70
0
 43
0.3500000006
 10
-31.595906044
 20
45.2499998932
 10
-32.2387640305
 20
44.6071419067
 10
-32.6673352661
 20
43.7499994354
 10
-32.6673352661
 20
42.6785724792
 10
-32.2387640305
 20
42.2499989777
 10
-31.595906044
 20
42.2499989777
 10
-31.1673348083
 20
42.6785724792
 10
-31.1673348083
 20
43.5357149506
 10
-31.595906044
 20
43.9642839203
 10
-32.5244774323
 20
43.9642839203
  0
LWPOLYLINE
  5
2AF
100
AcDbEntity
  8
0
100
AcDbPolyline
 62
7
  6
CONTINUOUS
 90
3
 70
0
 43
0.3500000006
 10
-33.3816199036
 20
34.392858902
 10
-32.5244774323
 20
35.2500013733
 10
-32.5244774323
 20
32.2500004578
  0
LWPOLYLINE
  5
2B0
100
AcDbEntity
  8
0
100
AcDbPolyline
 62
7
  6
CONTINUOUS
 90
3
 70
0
 43
0.3500000006
 10
-31.6673349609
 20
34.392858902
 10
-30.8101924896
 20
35.2500013733
 10
-30.8101924896
 20
32.2500004578
  0
LINE
  5
2B1
100
AcDbEntity
  8
DRAFT
100
AcDbLine
 62
7
  6
CONTINUOUS
 10
-34.6206639966
 20
-23.1626504991
 11
-31.5193046157
 21
-23.0998904748
  0
LINE
  5
2B2
100
AcDbEntity
  8
DRAFT
100
AcDbLine
 62
7
  6
CONTINUOUS
 10
-35.5193046157
 20
-23.1799085618
 11
-34.6206639966
 21
-23.1626504991
  0
LINE
  5
2B3
100
AcDbEntity
  8
DRAFT
100
AcDbLine
 62
7
  6
CONTINUOUS
 10
-35.5193046157
 20
-23.5
 11
-31.5193046157
 21
-23.4301797403
  0
LINE
  5
2B4
100
AcDbEntity
  8
DRAFT
100
AcDbLine
 62
7
  6
CONTINUOUS
 10
-35.5193046157
 20
-22.663166622
 11
-33.7275812923
 21
-22.6471822492
  0
LWPOLYLINE
  5
2B5
100
AcDbEntity
  8
DRAFT
100
AcDbPolyline
 62
7
  6
CONTINUOUS
 90
3
 70
0
 10
-33.7275812923
 20
-22.6471822492
 10
-31.9581583979
 20
-22.6330767947
 10
-31.5193046157
 20
-22.6298666026
  0
LINE
  5
2B6
100
AcDbEntity
  8
0
100
AcDbLine
 62
7
  6
CONTINUOUS
 10
-29.4193046157
 20
-22.4
 11
-29.9193046157
 21
-22.4
  0
LINE
  5
2B7
100
AcDbEntity
  8
0
100
AcDbLine
 62
7
  6
CONTINUOUS
 10
-35.5193046157
 20
-22.4
 11
-43.6305596356
 21
-21.9749071372
  0
LWPOLYLINE
  5
2B8
100
AcDbEntity
  8
0
100
AcDbPolyline
 62
250
  6
CONTINUOUS
 90
19
 70
0
 10
-43.6131178607
 20
-21.4755923698
 10
-43.6542962604
 20
-21.4716789126
 10
-43.6945228946
 20
-21.4645568007
 10
-43.7337977634
 20
-21.4542260342
 10
-43.7723840724
 20
-21.4405716186
 10
-43.810018616
 20
-21.4237085484
 10
-43.8459117771
 20
-21.403981807
 10
-43.8800139264
 20
-21.3813379258
 10
-43.9123746933
 20
-21.3558303735
 10
-43.9423533484
 20
-21.3279645393
 10
-43.9699031991
 20
-21.2976924869
 10
-43.995070938
 20
-21.2650621527
 10
-44.0173559145
 20
-21.2307227351
 10
-44.0367030427
 20
-21.1946238913
 10
-44.0531674083
 20
-21.1568159642
 10
-44.066413618
 20
-21.1180991805
 10
-44.0763298739
 20
-21.0787402824
 10
-44.0830279738
 20
-21.0384725278
 10
-44.0865079177
 20
-20.9972959167
  0
LINE
  5
2B9
100
AcDbEntity
  8
0
100
AcDbLine
 62
250
  6
CONTINUOUS
 10
-44.577339739
 20
-21.0183142305
 11
-44.5746650711
 21
-21.0181637394
  0
LINE
  5
2BA
100
AcDbEntity
  8
0
100
AcDbLine
 62
250
  6
CONTINUOUS
 10
-44.5746650711
 20
-21.0181637394
 11
-44.0865079177
 21
-20.9972959167
  0
LINE
  5
2BB
100
AcDbEntity
  8
DRAFT
100
AcDbLine
 62
7
  6
CONTINUOUS
 10
-31.5193046157
 20
-21.2
 11
-27.4840898297
 21
-21.1647852141
  0
LINE
  5
2BC
100
AcDbEntity
  8
RACCORDO
100
AcDbLine
 62
7
  6
CONTINUOUS
 10
-35.5193046157
 20
-20.9
 11
-27.4353197543
 21
-20.8366629075
  0
LINE
  5
2BD
100
AcDbEntity
  8
DRAFT
100
AcDbLine
 62
7
  6
CONTINUOUS
 10
-31.5193046157
 20
-21.2
 11
-27.5193046157
 21
-21.2
  0
LINE
  5
2BE
100
AcDbEntity
  8
0
100
AcDbLine
 62
250
  6
CONTINUOUS
 10
-35.5193046157
 20
-21.8997711479
 11
-43.6131178607
 21
-21.4755923698
  0
LWPOLYLINE
  5
2BF
100
AcDbEntity
  8
0
100
AcDbPolyline
 62
7
  6
CONTINUOUS
 90
3
 70
0
 43
0.3500000006
 10
-28.2387628098
 20
34.392858902
 10
-27.3816203384
 20
35.2500013733
 10
-27.3816203384
 20
32.2500004578
  0
LINE
  5
2C0
100
AcDbEntity
  8
RACCORDO
100
AcDbLine
 62
250
  6
CONTINUOUS
 10
-26.7158141344
 20
-20.1171572875
 11
-26.5193046157
 21
-20.1171572875
  0
LINE
  5
2C1
100
AcDbEntity
  8
RACCORDO
100
AcDbLine
 62
250
  6
CONTINUOUS
 10
-26.7158141344
 20
-19.0
 11
-26.5193046157
 21
-18.9999999999
  0
LINE
  5
2C2
100
AcDbEntity
  8
RACCORDO
100
AcDbLine
 62
250
  6
CONTINUOUS
 10
-27.0158141344
 20
-18.7
 11
-31.2741954415
 21
-18.7
  0
LINE
  5
2C3
100
AcDbEntity
  8
RACCORDO
100
AcDbLine
 62
7
  6
CONTINUOUS
 10
-27.0193046157
 20
-18.5
 11
-31.2513554232
 21
-18.5
  0
LINE
  5
2C4
100
AcDbEntity
  8
RACCORDO
100
AcDbLine
 62
250
  6
CONTINUOUS
 10
-31.2741954415
 20
-18.7
 11
-35.5193046157
 21
-17.562526425
  0
LINE
  5
2C5
100
AcDbEntity
  8
RACCORDO
100
AcDbLine
 62
7
  6
CONTINUOUS
 10
-31.2513554232
 20
-18.5
 11
-35.5193046157
 21
-17.3564064606
  0
LWPOLYLINE
  5
2C6
100
AcDbEntity
  8
0
100
AcDbPolyline
 62
250
  6
CONTINUOUS
 90
8
 70
0
 10
-43.6305596356
 20
21.9749071372
 10
-43.6313255637
 20
21.9721273713
 10
-43.6317967408
 20
21.9639137831
 10
-43.6319680105
 20
21.9503562579
 10
-43.6318374986
 20
21.9316031621
 10
-43.6314066333
 20
21.90785972
 10
-43.6306801301
 20
21.8793857676
 10
-43.6283751603
 20
21.8095411067
  0
LWPOLYLINE
  5
2C7
100
AcDbEntity
  8
0
100
AcDbPolyline
 62
250
  6
CONTINUOUS
 90
7
 70
0
 10
-43.6305596356
 20
-21.9749071372
 10
-43.6313255635
 20
-21.97212728
 10
-43.6317967311
 20
-21.9639134406
 10
-43.6319679835
 20
-21.9503555394
 10
-43.6318374478
 20
-21.931601975
 10
-43.6314065543
 20
-21.9078580123
 10
-43.6306800217
 20
-21.8793835478
  0
LWPOLYLINE
  5
2C8
100
AcDbEntity
  8
0
100
AcDbPolyline
 62
7
  6
CONTINUOUS
 90
3
 70
0
 43
0.3500000006
 10
-33.6673355713
 20
42.5357146454
 10
-33.7387622223
 20
42.3214301605
 10
-33.8816200562
 20
42.0357144928
  0
LWPOLYLINE
  5
2C9
100
AcDbEntity
  8
0
100
AcDbPolyline
 62
250
  6
CONTINUOUS
 90
10
 70
0
 10
-44.0865079177
 20
-20.9972959167
 10
-44.2609337545
 20
-16.3324664701
 10
-44.3917531256
 20
-11.6670185434
 10
-44.4789660312
 20
-7.0009521365
 10
-44.5225724625
 20
-2.3338547134
 10
-44.5225724281
 20
2.3338611899
 10
-44.4789659539
 20
7.0009579653
 10
-44.3917530484
 20
11.667023077
 10
-44.260933703
 20
16.3324690607
 10
-44.0865079177
 20
20.9972959167
  0
LWPOLYLINE
  5
2CA
100
AcDbEntity
  8
0
100
AcDbPolyline
 62
250
  6
CONTINUOUS
 90
19
 70
0
 10
-44.0865079177
 20
20.9972959167
 10
-44.0830279736
 20
21.0384725278
 10
-44.0763298737
 20
21.0787402824
 10
-44.0664136178
 20
21.1180991804
 10
-44.0531674082
 20
21.1568159641
 10
-44.0367030427
 20
21.1946238914
 10
-44.0173559147
 20
21.2307227352
 10
-43.9950709382
 20
21.2650621528
 10
-43.9699031991
 20
21.297692487
 10
-43.9423533484
 20
21.3279645393
 10
-43.9123746932
 20
21.3558303734
 10
-43.8800139263
 20
21.3813379257
 10
-43.845911777
 20
21.4039818068
 10
-43.810018616
 20
21.4237085483
 10
-43.7723840725
 20
21.4405716188
 10
-43.7337977635
 20
21.4542260345
 10
-43.6945228947
 20
21.464556801
 10
-43.6542962604
 20
21.4716789127
 10
-43.6131178607
 20
21.4755923698
  0
LINE
  5
2CB
100
AcDbEntity
  8
RACCORDO
100
AcDbLine
 62
250
  6
CONTINUOUS
 10
-26.6176278612
 20
20.2163768226
 11
-26.6463956588
 21
20.1870530906
  0
LWPOLYLINE
  5
2CC
100
AcDbEntity
  8
RACCORDO
100
AcDbPolyline
 62
250
  6
CONTINUOUS
 90
3
 70
0
 10
-26.6463956588
 20
20.1870530906
 10
-26.6977094313
 20
20.1352963416
 10
-26.7158141344
 20
20.1171572875
  0
LINE
  5
2CD
100
AcDbEntity
  8
RACCORDO
100
AcDbLine
 62
250
  6
CONTINUOUS
 10
-26.7158141344
 20
-20.1171572875
 11
-26.6627100612
 21
-20.1705357589
  0
LWPOLYLINE
  5
2CE
100
AcDbEntity
  8
RACCORDO
100
AcDbPolyline
 62
250
  6
CONTINUOUS
 90
6
 70
0
 10
-26.6627100612
 20
-20.1705357589
 10
-26.6312664332
 20
-20.2024368699
 10
-26.6176278612
 20
-20.2163768226
 10
-26.605720141
 20
-20.2286273937
 10
-26.5957352881
 20
-20.2389909837
 10
-26.587847923
 20
-20.2472862956
  0
LINE
  5
2CF
100
AcDbEntity
  8
0
100
AcDbLine
 62
250
  6
CONTINUOUS
 10
-43.6207706077
 20
21.6298024308
 11
-43.6131178607
 21
21.4755923698
  0
LINE
  5
2D0
100
AcDbEntity
  8
0
100
AcDbLine
 62
250
  6
CONTINUOUS
 10
-43.6250232106
 20
21.7251181903
 11
-43.6207706077
 21
21.6298024308
  0
LINE
  5
2D1
100
AcDbEntity
  8
0
100
AcDbLine
 62
250
  6
CONTINUOUS
 10
-43.6283751603
 20
21.8095411067
 11
-43.6250232106
 21
21.7251181903
  0
LINE
  5
2D2
100
AcDbEntity
  8
0
100
AcDbLine
 62
250
  6
CONTINUOUS
 10
-43.6306800217
 20
-21.8793835478
 11
-43.6283750012
 21
-21.8095380733
  0
LINE
  5
2D3
100
AcDbEntity
  8
0
100
AcDbLine
 62
250
  6
CONTINUOUS
 10
-43.6283750012
 20
-21.8095380733
 11
-43.6250230299
 21
-21.7251149336
  0
LINE
  5
2D4
100
AcDbEntity
  8
0
100
AcDbLine
 62
250
  6
CONTINUOUS
 10
-43.6250230299
 20
-21.7251149336
 11
-43.6183631321
 21
-21.5793443309
  0
LINE
  5
2D5
100
AcDbEntity
  8
0
100
AcDbLine
 62
250
  6
CONTINUOUS
 10
-43.6183631321
 20
-21.5793443309
 11
-43.6131178607
 21
-21.4755923698
  0
LWPOLYLINE
  5
2D6
100
AcDbEntity
  8
RACCORDO
100
AcDbPolyline
 62
250
  6
CONTINUOUS
 90
4
 70
0
 10
-26.587847923
 20
20.2472862956
 10
-26.5957352881
 20
20.2389909837
 10
-26.605720141
 20
20.2286273937
 10
-26.6176278612
 20
20.2163768226
  0
LWPOLYLINE
  5
2D7
100
AcDbEntity
  8
RACCORDO
100
AcDbPolyline
 62
250
  6
CONTINUOUS
 90
4
 70
0
 10
-26.587847923
 20
-20.2472862956
 10
-26.5821894227
 20
-20.2533749129
 10
-26.5788502065
 20
-20.257159202
 10
-26.5778832594
 20
-20.2585786438
  0
LWPOLYLINE
  5
2D8
100
AcDbEntity
  8
0
100
AcDbPolyline
 62
7
  6
CONTINUOUS
 90
3
 70
0
 43
0.3500000006
 10
-29.2387631149
 20
32.5357161255
 10
-29.3101920319
 20
32.3214271088
 10
-29.4530498657
 20
32.0357159729
  0
LWPOLYLINE
  5
2D9
100
AcDbEntity
  8
RACCORDO
100
AcDbPolyline
 62
250
  6
CONTINUOUS
 90
4
 70
0
 10
-26.5778832594
 20
20.2585786438
 10
-26.5788502065
 20
20.257159202
 10
-26.5821894227
 20
20.2533749129
 10
-26.587847923
 20
20.2472862956
  0
LWPOLYLINE
  5
2DA
100
AcDbEntity
  8
0
100
AcDbPolyline
 62
7
  6
CONTINUOUS
 90
13
 70
0
 43
0.3500000006
 10
-36.7387631378
 20
43.107141449
 10
-36.7387631378
 20
44.3928574219
 10
-36.524476387
 20
44.8214263916
 10
-36.0959051514
 20
45.2499998932
 10
-35.8816206665
 20
45.2499998932
 10
-35.4530494308
 20
44.8214263916
 10
-35.2387626801
 20
44.3928574219
 10
-35.2387626801
 20
43.107141449
 10
-35.4530494308
 20
42.6785724792
 10
-35.8816206665
 20
42.2499989777
 10
-36.0959051514
 20
42.2499989777
 10
-36.524476387
 20
42.6785724792
 10
-36.7387631378
 20
43.107141449
  0
LWPOLYLINE
  5
2DB
100
AcDbEntity
  8
0
100
AcDbPolyline
 62
7
  6
CONTINUOUS
 90
22
 70
0
 10
-24.6225705804
 20
10.2281948247
 10
-24.6094131887
 20
10.2384644111
 10
-24.5969221568
 20
10.2483944607
 10
-24.5850975187
 20
10.2579853173
 10
-24.5740072797
 20
10.2671973593
 10
-24.563583502
 20
10.2760708894
 10
-24.5536222926
 20
10.2847260064
 10
-24.544109526
 20
10.293163861
 10
-24.5350593652
 20
10.3013836813
 10
-24.5263103265
 20
10.309502451
 10
-24.5178430789
 20
10.3175286355
 10
-24.5096769675
 20
10.3254539109
 10
-24.5017085025
 20
10.3333698802
 10
-24.4939047279
 20
10.341304828
 10
-24.4862985954
 20
10.349230425
 10
-24.4788854675
 20
10.3571532618
 10
-24.4716595756
 20
10.3650798291
 10
-24.4646266839
 20
10.3730035914
 10
-24.4577994548
 20
10.3809116065
 10
-24.4511821092
 20
10.3887995607
 10
-24.4447704249
 20
10.3966717548
 10
-24.4385644012
 20
10.4045281811
  0
LINE
  5
2DC
100
AcDbEntity
  8
0
100
AcDbLine
 62
7
  6
CONTINUOUS
 10
-35.5193046157
 20
22.4
 11
-35.5193046157
 21
-22.4
  0
LINE
  5
2DD
100
AcDbEntity
  8
DRAFT
100
AcDbLine
 62
7
  6
CONTINUOUS
 10
-35.5193046157
 20
-22.4
 11
-35.5193046157
 21
-23.5
  0
LINE
  5
2DE
100
AcDbEntity
  8
DRAFT
100
AcDbLine
 62
7
  6
CONTINUOUS
 10
-35.5193046157
 20
22.4
 11
-35.5193046157
 21
23.5
  0
LINE
  5
2DF
100
AcDbEntity
  8
DRAFT
100
AcDbLine
 62
7
  6
CONTINUOUS
 10
-31.5193046157
 20
23.4301797403
 11
-31.5193046157
 21
21.2
  0
LINE
  5
2E0
100
AcDbEntity
  8
DRAFT
100
AcDbLine
 62
7
  6
CONTINUOUS
 10
-31.5193046157
 20
-21.2
 11
-31.5193046157
 21
-23.4301797403
  0
LWPOLYLINE
  5
2E1
100
AcDbEntity
  8
RACCORDO
100
AcDbPolyline
 62
250
  6
CONTINUOUS
 90
8
 70
0
 10
-27.0193046157
 20
18.5
 10
-27.0188490159
 20
18.5017110277
 10
-27.0184012117
 20
18.5068148348
 10
-27.0179688652
 20
18.5152240935
 10
-27.017559374
 20
18.5267949193
 10
-27.0171797445
 20
18.541329332
 10
-27.0168364721
 20
18.5585786439
 10
-27.0162817699
 20
18.6000000001
  0
LINE
  5
2E2
100
AcDbEntity
  8
DRAFT
100
AcDbLine
 62
7
  6
CONTINUOUS
 10
-29.9193046157
 20
-21.2
 11
-29.9193046157
 21
-22.4
  0
LINE
  5
2E3
100
AcDbEntity
  8
DRAFT
100
AcDbLine
 62
7
  6
CONTINUOUS
 10
-29.9193046157
 20
21.2
 11
-29.9193046157
 21
22.4
  0
LINE
  5
2E4
100
AcDbEntity
  8
DRAFT
100
AcDbLine
 62
7
  6
CONTINUOUS
 10
-29.5193046157
 20
12.9912731322
 11
-29.5193046157
 21
7.0087268678
  0
LWPOLYLINE
  5
2E5
100
AcDbEntity
  8
RACCORDO
100
AcDbPolyline
 62
7
  6
CONTINUOUS
 90
5
 70
0
 10
-31.2531776089
 20
-18.5271341059
 10
-31.2520517884
 20
-18.5154532061
 10
-31.2513945106
 20
-18.5069324742
 10
-31.2511649758
 20
-18.5017443099
 10
-31.2513554232
 20
-18.5
  0
LINE
  5
2E6
100
AcDbEntity
  8
DRAFT
100
AcDbLine
 62
7
  6
CONTINUOUS
 10
-28.5193046157
 20
13.0
 11
-28.5193046157
 21
7.0
  0
LWPOLYLINE
  5
2E7
100
AcDbEntity
  8
RACCORDO
100
AcDbPolyline
 62
7
  6
CONTINUOUS
 90
3
 70
0
 10
-31.2589473989
 20
-18.5787914426
 10
-31.2566614264
 20
-18.5590737083
 10
-31.2531776089
 20
-18.5271341059
  0
LWPOLYLINE
  5
2E8
100
AcDbEntity
  8
RACCORDO
100
AcDbPolyline
 62
7
  6
CONTINUOUS
 90
4
 70
0
 10
-31.2741954415
 20
-18.7
 10
-31.2707269253
 20
-18.6741235681
 10
-31.2674794227
 20
-18.6486379494
 10
-31.2589473989
 20
-18.5787914426
  0
LWPOLYLINE
  5
2E9
100
AcDbEntity
  8
RACCORDO
100
AcDbPolyline
 62
7
  6
CONTINUOUS
 90
16
 70
0
 10
-24.9307493714
 20
7.2024364367
 10
-24.9433318947
 20
7.1762498327
 10
-24.9575915801
 20
7.1512303526
 10
-24.9735284276
 20
7.1273779964
 10
-24.991288904
 20
7.1045380877
 10
-25.0107265425
 20
7.0828653029
 10
-25.0314019432
 20
7.0628236714
 10
-25.0532373435
 20
7.0445276898
 10
-25.0763105059
 20
7.0278628616
 10
-25.100415318
 20
7.0129497268
 10
-25.1256811952
 20
6.9997532235
 10
-25.151978722
 20
6.9883084137
 10
-25.1787135392
 20
6.9788410233
 10
-25.2056875271
 20
6.9714262943
 10
-25.2330988053
 20
6.9659889847
 10
-25.260947374
 20
6.9625290945
  0
LINE
  5
2EA
100
AcDbEntity
  8
RACCORDO
100
AcDbLine
 62
7
  6
CONTINUOUS
 10
-25.3193046157
 20
6.9573250096
 11
-25.260947374
 21
6.9625290945
  0
LINE
  5
2EB
100
AcDbEntity
  8
0
100
AcDbLine
 62
7
  6
CONTINUOUS
 10
-25.3193046157
 20
6.898730728
 11
-26.5844423186
 21
6.7880455212
  0
LINE
  5
2EC
100
AcDbEntity
  8
DRAFT
100
AcDbLine
 62
7
  6
CONTINUOUS
 10
-28.5193046157
 20
7.0
 11
-27.0193046157
 21
7.0130903017
  0
LINE
  5
2ED
100
AcDbEntity
  8
RACCORDO
100
AcDbLine
 62
7
  6
CONTINUOUS
 10
-26.9796906407
 20
7.0134360076
 11
-27.0193046157
 21
7.0130903017
  0
LINE
  5
2EE
100
AcDbEntity
  8
DRAFT
100
AcDbLine
 62
7
  6
CONTINUOUS
 10
-29.5193046157
 20
7.0087268678
 11
-28.5193046157
 21
7.0
  0
LINE
  5
2EF
100
AcDbEntity
  8
RACCORDO
100
AcDbLine
 62
7
  6
CONTINUOUS
 10
-31.2741954415
 20
18.7
 11
-31.2644305027
 21
18.6238056948
  0
LINE
  5
2F0
100
AcDbEntity
  8
RACCORDO
100
AcDbLine
 62
7
  6
CONTINUOUS
 10
-31.2644305027
 20
18.6238056948
 11
-31.2615322251
 21
18.6004322166
  0
LWPOLYLINE
  5
2F1
100
AcDbEntity
  8
RACCORDO
100
AcDbPolyline
 62
7
  6
CONTINUOUS
 90
8
 70
0
 10
-31.2615322251
 20
18.6004322166
 10
-31.2566614247
 20
18.5590736936
 10
-31.2547057992
 20
18.5417887896
 10
-31.2531822965
 20
18.5271768639
 10
-31.2520582323
 20
18.5155248943
 10
-31.2513463379
 20
18.5070349419
 10
-31.2511070927
 20
18.5018319132
 10
-31.2513554232
 20
18.5
  0
LWPOLYLINE
  5
2F2
100
AcDbEntity
  8
RACCORDO
100
AcDbPolyline
 62
250
  6
CONTINUOUS
 90
19
 70
0
 10
-26.7158141344
 20
-19.0
 10
-26.716280589
 20
-18.9775145419
 10
-26.718958479
 20
-18.954527639
 10
-26.7238478045
 20
-18.9310392912
 10
-26.730888605
 20
-18.9066510222
 10
-26.7401408409
 20
-18.8817613084
 10
-26.7517843938
 20
-18.8575655791
 10
-26.766036045
 20
-18.8341069331
 10
-26.7826790132
 20
-18.8113422717
 10
-26.8012428355
 20
-18.7903377281
 10
-26.821913165
 20
-18.771240406
 10
-26.8445043487
 20
-18.7539032017
 10
-26.8679889647
 20
-18.7389509382
 10
-26.8923871228
 20
-18.7266130291
 10
-26.9176787133
 20
-18.7166600608
 10
-26.9427759848
 20
-18.7090286155
 10
-26.9673163536
 20
-18.703697554
 10
-26.9916624035
 20
-18.7006880155
 10
-27.0158141344
 20
-18.7
  0
LWPOLYLINE
  5
2F3
100
AcDbEntity
  8
RACCORDO
100
AcDbPolyline
 62
250
  6
CONTINUOUS
 90
7
 70
0
 10
-27.0168364728
 20
-18.5585786438
 10
-27.0171797454
 20
-18.5413293319
 10
-27.0175593752
 20
-18.5267949192
 10
-27.0179688665
 20
-18.5152240935
 10
-27.0184012128
 20
-18.5068148347
 10
-27.0188490165
 20
-18.5017110277
 10
-27.0193046157
 20
-18.5
  0
LINE
  5
2F4
100
AcDbEntity
  8
RACCORDO
100
AcDbLine
 62
250
  6
CONTINUOUS
 10
-27.0162817702
 20
-18.6
 11
-27.0168364728
 21
-18.5585786438
  0
LINE
  5
2F5
100
AcDbEntity
  8
RACCORDO
100
AcDbLine
 62
250
  6
CONTINUOUS
 10
-27.0159330697
 20
-18.648236191
 11
-27.0162817702
 21
-18.6
  0
LINE
  5
2F6
100
AcDbEntity
  8
RACCORDO
100
AcDbLine
 62
250
  6
CONTINUOUS
 10
-27.0158141344
 20
-18.7
 11
-27.0159330697
 21
-18.648236191
  0
LINE
  5
2F7
100
AcDbEntity
  8
DRAFT
100
AcDbLine
 62
7
  6
CONTINUOUS
 10
-27.0193046157
 20
12.9869096983
 11
-27.0193046157
 21
7.0130903017
  0
LINE
  5
2F8
100
AcDbEntity
  8
RACCORDO
100
AcDbLine
 62
250
  6
CONTINUOUS
 10
-26.7158141344
 20
20.1171572875
 11
-26.7158141344
 21
19.0
  0
LINE
  5
2F9
100
AcDbEntity
  8
RACCORDO
100
AcDbLine
 62
250
  6
CONTINUOUS
 10
-26.7158141344
 20
-20.1171572875
 11
-26.7158141344
 21
-19.0
  0
LINE
  5
2FA
100
AcDbEntity
  8
RACCORDO
100
AcDbLine
 62
250
  6
CONTINUOUS
 10
-26.5844423185
 20
13.2119544788
 11
-26.5844423185
 21
6.7880455212
  0
LINE
  5
2FB
100
AcDbEntity
  8
RACCORDO
100
AcDbLine
 62
7
  6
CONTINUOUS
 10
-26.5193046157
 20
20.1171572875
 11
-26.5193046157
 21
19.0
  0
LINE
  5
2FC
100
AcDbEntity
  8
RACCORDO
100
AcDbLine
 62
7
  6
CONTINUOUS
 10
-26.5193046157
 20
-20.1171572875
 11
-26.5193046157
 21
-19.0
  0
LINE
  5
2FD
100
AcDbEntity
  8
RACCORDO
100
AcDbLine
 62
250
  6
CONTINUOUS
 10
-27.0159330696
 20
18.648236191
 11
-27.0158141344
 21
18.7
  0
LINE
  5
2FE
100
AcDbEntity
  8
RACCORDO
100
AcDbLine
 62
250
  6
CONTINUOUS
 10
-27.0162817699
 20
18.6000000001
 11
-27.0159330696
 21
18.648236191
  0
LWPOLYLINE
  5
2FF
100
AcDbEntity
  8
RACCORDO
100
AcDbPolyline
 62
250
  6
CONTINUOUS
 90
19
 70
0
 10
-26.7158141344
 20
19.0
 10
-26.7164966026
 20
18.9760805077
 10
-26.7194458432
 20
18.9519757502
 10
-26.7246618562
 20
18.9276857274
 10
-26.7321323432
 20
18.9028544539
 10
-26.7418696025
 20
18.8778379151
 10
-26.7539105292
 20
18.8537040678
 10
-26.7684375394
 20
18.8305034336
 10
-26.7852682169
 20
18.8081854909
 10
-26.803892208
 20
18.7876666321
 10
-26.8244502134
 20
18.7690824571
 10
-26.8468015323
 20
18.752297366
 10
-26.8700137087
 20
18.737820952
 10
-26.8941346549
 20
18.7258402601
 10
-26.9191164586
 20
18.7161682454
 10
-26.9438829277
 20
18.7087533662
 10
-26.9680753312
 20
18.7035784419
 10
-26.9920524002
 20
18.7006606532
 10
-27.0158141344
 20
18.7
  0
LINE
  5
300
100
AcDbEntity
  8
0
100
AcDbLine
 62
7
  6
CONTINUOUS
 10
-24.4385644012
 20
10.4045281811
 11
-24.4363136319
 21
10.4160654532
  0
LWPOLYLINE
  5
301
100
AcDbEntity
  8
0
100
AcDbPolyline
 62
7
  6
CONTINUOUS
 90
25
 70
0
 10
-24.4363136319
 20
10.4160654532
 10
-24.4324458044
 20
10.4309280725
 10
-24.4288288903
 20
10.4451640352
 10
-24.4254538306
 20
10.4588355832
 10
-24.4223247569
 20
10.4720162789
 10
-24.4194204512
 20
10.4847579305
 10
-24.416696145
 20
10.4970746343
 10
-24.4141439756
 20
10.5089937177
 10
-24.4117606929
 20
10.5205773936
 10
-24.4095116424
 20
10.5318629379
 10
-24.4073912054
 20
10.5428614372
 10
-24.4053975458
 20
10.5536211887
 10
-24.403503899
 20
10.5642064188
 10
-24.4017061214
 20
10.5746105175
 10
-24.4000033472
 20
10.5848703033
 10
-24.3983752635
 20
10.5950848276
 10
-24.396814261
 20
10.6052702722
 10
-24.3953246455
 20
10.6154059445
 10
-24.3939046407
 20
10.6255177968
 10
-24.3925514871
 20
10.6356098548
 10
-24.3912649083
 20
10.6456720892
 10
-24.3900468564
 20
10.6557091115
 10
-24.3888969912
 20
10.6657226139
 10
-24.3878127809
 20
10.6757093282
 10
-24.3867929024
 20
10.6856679962
  0
LINE
  5
302
100
AcDbEntity
  8
DRAFT
100
AcDbLine
 62
7
  6
CONTINUOUS
 10
-35.5193046157
 20
7.2895386637
 11
-29.5193046157
 21
7.3523728136
  0
LINE
  5
303
100
AcDbEntity
  8
0
100
AcDbLine
 62
7
  6
CONTINUOUS
 10
-25.3193046157
 20
6.8987612045
 11
-25.3193046157
 21
6.9573250096
  0
LINE
  5
304
100
AcDbEntity
  8
0
100
AcDbLine
 62
7
  6
CONTINUOUS
 10
-25.3193046157
 20
13.0426749904
 11
-25.3193046157
 21
13.1012387955
  0
LINE
  5
305
100
AcDbEntity
  8
RACCORDO
100
AcDbLine
 62
250
  6
CONTINUOUS
 10
-25.260947374
 20
13.0374709055
 11
-25.260947374
 21
6.9625290945
  0
LINE
  5
306
100
AcDbEntity
  8
RACCORDO
100
AcDbLine
 62
250
  6
CONTINUOUS
 10
-24.9307493714
 20
12.7975635633
 11
-24.9307493714
 21
7.2024364367
  0
LINE
  5
307
100
AcDbEntity
  8
0
100
AcDbLine
 62
7
  6
CONTINUOUS
 10
-24.6225705804
 20
10.2281948247
 11
-24.6225705804
 21
9.7719259344
  0
LINE
  5
308
100
AcDbEntity
  8
0
100
AcDbLine
 62
7
  6
CONTINUOUS
 10
-24.3887811423
 20
9.2766216195
 11
-24.3867929633
 21
9.314331643
  0
LINE
  5
309
100
AcDbEntity
  8
0
100
AcDbLine
 62
7
  6
CONTINUOUS
 10
-24.3910071785
 20
9.239007496
 11
-24.3887811423
 21
9.2766216195
  0
LINE
  5
30A
100
AcDbEntity
  8
0
100
AcDbLine
 62
7
  6
CONTINUOUS
 10
-24.3934753672
 20
9.20145821
 11
-24.3910071785
 21
9.239007496
  0
LWPOLYLINE
  5
30B
100
AcDbEntity
  8
0
100
AcDbPolyline
 62
7
  6
CONTINUOUS
 90
3
 70
0
 10
-24.397613878
 20
9.1454841536
 10
-24.3961738161
 20
9.1641151608
 10
-24.3934753672
 20
9.20145821
  0
LWPOLYLINE
  5
30C
100
AcDbEntity
  8
0
100
AcDbPolyline
 62
7
  6
CONTINUOUS
 90
25
 70
0
 10
-24.3867929633
 20
9.314331643
 10
-24.3878417978
 20
9.3245612579
 10
-24.3889577852
 20
9.3348173434
 10
-24.3901423435
 20
9.3450977056
 10
-24.3913987393
 20
9.3553994289
 10
-24.3927267976
 20
9.3657223983
 10
-24.3941227392
 20
9.3760654175
 10
-24.3955869532
 20
9.3864133882
 10
-24.397122207
 20
9.3967701975
 10
-24.3987281778
 20
9.4071606261
 10
-24.4004013557
 20
9.4175620848
 10
-24.4021485554
 20
9.4279856593
 10
-24.4039854004
 20
9.4385206166
 10
-24.405912204
 20
9.4491908582
 10
-24.4079333116
 20
9.4599892214
 10
-24.4100716529
 20
9.4709847613
 10
-24.412329182
 20
9.482216719
 10
-24.4147106848
 20
9.4936890573
 10
-24.4172451855
 20
9.5054436119
 10
-24.4199353693
 20
9.5175282954
 10
-24.4227882517
 20
9.5299630112
 10
-24.4258419776
 20
9.5427730191
 10
-24.4291146051
 20
9.5560042075
 10
-24.4326026103
 20
9.5697087194
 10
-24.436313645
 20
9.5839345959
  0
LINE
  5
30D
100
AcDbEntity
  8
0
100
AcDbLine
 62
7
  6
CONTINUOUS
 10
-24.3947977602
 20
10.8172713695
 11
-24.3976138512
 21
10.8545156298
  0
LINE
  5
30E
100
AcDbEntity
  8
0
100
AcDbLine
 62
7
  6
CONTINUOUS
 10
-24.3922170268
 20
10.7798591069
 11
-24.3947977602
 21
10.8172713695
  0
LINE
  5
30F
100
AcDbEntity
  8
0
100
AcDbLine
 62
7
  6
CONTINUOUS
 10
-24.3898672596
 20
10.7422537862
 11
-24.3922170268
 21
10.7798591069
  0
LWPOLYLINE
  5
310
100
AcDbEntity
  8
0
100
AcDbPolyline
 62
7
  6
CONTINUOUS
 90
3
 70
0
 10
-24.3867929024
 20
10.6856679962
 10
-24.3877599009
 20
10.7045753699
 10
-24.3898672596
 20
10.7422537862
  0
LINE
  5
311
100
AcDbEntity
  8
0
100
AcDbLine
 62
7
  6
CONTINUOUS
 10
-24.4385410543
 20
9.5953536493
 11
-24.436313645
 21
9.5839345959
  0
LINE
  5
312
100
AcDbEntity
  8
DRAFT
100
AcDbLine
 62
7
  6
CONTINUOUS
 10
-29.5193046157
 20
12.9912731322
 11
-28.5193046157
 21
13.0
  0
LINE
  5
313
100
AcDbEntity
  8
DRAFT
100
AcDbLine
 62
7
  6
CONTINUOUS
 10
-28.5193046157
 20
13.0
 11
-27.0193046157
 21
12.9869096983
  0
LINE
  5
314
100
AcDbEntity
  8
RACCORDO
100
AcDbLine
 62
7
  6
CONTINUOUS
 10
-27.0193046157
 20
12.9869096983
 11
-26.9796906407
 21
12.9865639924
  0
LINE
  5
315
100
AcDbEntity
  8
DRAFT
100
AcDbLine
 62
7
  6
CONTINUOUS
 10
-35.5193046157
 20
12.7104613363
 11
-29.5193046157
 21
12.6476271864
  0
LINE
  5
316
100
AcDbEntity
  8
0
100
AcDbLine
 62
7
  6
CONTINUOUS
 10
-25.3193046157
 20
13.101269272
 11
-26.5844423186
 21
13.2119544788
  0
LINE
  5
317
100
AcDbEntity
  8
RACCORDO
100
AcDbLine
 62
7
  6
CONTINUOUS
 10
-25.260947374
 20
13.0374709055
 11
-25.3193046157
 21
13.0426749904
  0
LWPOLYLINE
  5
318
100
AcDbEntity
  8
0
100
AcDbPolyline
 62
7
  6
CONTINUOUS
 90
16
 70
0
 10
-24.6225705804
 20
9.7719259344
 10
-24.6038340378
 20
9.7572482407
 10
-24.5861535671
 20
9.7430061152
 10
-24.5695291684
 20
9.7291995578
 10
-24.5540023609
 20
9.7158227441
 10
-24.5395316253
 20
9.7028814986
 10
-24.5259924046
 20
9.6903932948
 10
-24.5134066842
 20
9.6783853744
 10
-24.5017524787
 20
9.6668304958
 10
-24.4908392743
 20
9.6556644078
 10
-24.4806776031
 20
9.6449157058
 10
-24.471256933
 20
9.6345557944
 10
-24.4623551541
 20
9.6244346368
 10
-24.4538982296
 20
9.6145022206
 10
-24.4459601964
 20
9.6048085581
 10
-24.4385410543
 20
9.5953536493
  0
LWPOLYLINE
  5
319
100
AcDbEntity
  8
RACCORDO
100
AcDbPolyline
 62
7
  6
CONTINUOUS
 90
16
 70
0
 10
-25.260947374
 20
13.0374709055
 10
-25.2330988084
 20
13.0340110175
 10
-25.2056875291
 20
13.0285737076
 10
-25.1787135362
 20
13.0211589757
 10
-25.1519787071
 20
13.011691579
 10
-25.1256811643
 20
13.0002467603
 10
-25.1004152751
 20
12.9870502488
 10
-25.0763104578
 20
12.9721371063
 10
-25.053237294
 20
12.955472271
 10
-25.0314018962
 20
12.9371762863
 10
-25.0107265035
 20
12.9171346583
 10
-24.9912888768
 20
12.8954618809
 10
-24.9735284108
 20
12.8726219802
 10
-24.9575915703
 20
12.8487696313
 10
-24.9433318905
 20
12.823750159
 10
-24.9307493714
 20
12.7975635633
  0
LINE
  5
31A
100
AcDbEntity
  8
RACCORDO
100
AcDbLine
 62
7
  6
CONTINUOUS
 10
-35.5193046157
 20
17.3564064606
 11
-31.2513554232
 21
18.5
  0
LINE
  5
31B
100
AcDbEntity
  8
RACCORDO
100
AcDbLine
 62
250
  6
CONTINUOUS
 10
-35.5193046157
 20
17.562526425
 11
-31.2741954415
 21
18.7
  0
LINE
  5
31C
100
AcDbEntity
  8
RACCORDO
100
AcDbLine
 62
7
  6
CONTINUOUS
 10
-27.0193046157
 20
18.5
 11
-31.2513554232
 21
18.5
  0
LINE
  5
31D
100
AcDbEntity
  8
RACCORDO
100
AcDbLine
 62
250
  6
CONTINUOUS
 10
-27.0158141344
 20
18.7
 11
-31.2741954415
 21
18.7
  0
LINE
  5
31E
100
AcDbEntity
  8
RACCORDO
100
AcDbLine
 62
250
  6
CONTINUOUS
 10
-26.5193046157
 20
19.0
 11
-26.7158141344
 21
19.0
  0
LWPOLYLINE
  5
31F
100
AcDbEntity
  8
RACCORDO
100
AcDbPolyline
 62
7
  6
CONTINUOUS
 90
22
 70
0
 10
-27.328791127
 20
-21.0094865114
 10
-27.3177794981
 20
-20.9978705966
 10
-27.3080345772
 20
-20.9862689466
 10
-27.2995880083
 20
-20.9746510313
 10
-27.2923758126
 20
-20.9628966864
 10
-27.2865162586
 20
-20.9510743423
 10
-27.2823096659
 20
-20.9394412204
 10
-27.2797778251
 20
-20.9279768357
 10
-27.2789299412
 20
-20.9166738744
 10
-27.2800348324
 20
-20.9058220067
 10
-27.2831279126
 20
-20.8954483426
 10
-27.2881595483
 20
-20.8855434904
 10
-27.295243662
 20
-20.8763693993
 10
-27.3044458032
 20
-20.8680202071
 10
-27.3156247758
 20
-20.8604803948
 10
-27.3285427069
 20
-20.8538879832
 10
-27.3431738491
 20
-20.8484063534
 10
-27.3594039567
 20
-20.8440127591
 10
-27.3768354285
 20
-20.8405916279
 10
-27.395287361
 20
-20.8381523097
 10
-27.4148027791
 20
-20.8368223095
 10
-27.4353197543
 20
-20.8366629075
  0
LINE
  5
320
100
AcDbEntity
  8
RACCORDO
100
AcDbLine
 62
250
  6
CONTINUOUS
 10
-27.4353197543
 20
-20.8366629075
 11
-26.7158141344
 21
-20.1171572875
  0
LINE
  5
321
100
AcDbEntity
  8
DRAFT
100
AcDbLine
 62
7
  6
CONTINUOUS
 10
-27.5193046157
 20
-21.2
 11
-27.4840898297
 21
-21.1647852141
  0
LINE
  5
322
100
AcDbEntity
  8
RACCORDO
100
AcDbLine
 62
7
  6
CONTINUOUS
 10
-26.5778832594
 20
-20.2585786438
 11
-27.4840898297
 21
-21.1647852141
  0
LINE
  5
323
100
AcDbEntity
  8
RACCORDO
100
AcDbLine
 62
250
  6
CONTINUOUS
 10
-26.5193046157
 20
20.1171572875
 11
-26.7158141344
 21
20.1171572875
  0
LWPOLYLINE
  5
324
100
AcDbEntity
  8
0
100
AcDbPolyline
 62
250
  6
CONTINUOUS
 90
3
 70
0
 10
-44.5773172491
 20
21.0183132877
 10
-44.5746427771
 20
21.0181627949
 10
-44.0865079177
 20
20.9972959167
  0
LINE
  5
325
100
AcDbEntity
  8
RACCORDO
100
AcDbLine
 62
250
  6
CONTINUOUS
 10
-27.4353197543
 20
20.8366629075
 11
-26.7158141344
 21
20.1171572875
  0
LINE
  5
326
100
AcDbEntity
  8
DRAFT
100
AcDbLine
 62
7
  6
CONTINUOUS
 10
-27.5193046157
 20
21.2
 11
-27.4840898297
 21
21.1647852141
  0
LINE
  5
327
100
AcDbEntity
  8
RACCORDO
100
AcDbLine
 62
7
  6
CONTINUOUS
 10
-27.4840898297
 20
21.1647852141
 11
-26.5778832594
 21
20.2585786438
  0
LWPOLYLINE
  5
328
100
AcDbEntity
  8
0
100
AcDbPolyline
 62
7
  6
CONTINUOUS
 90
10
 70
0
 43
0.3500000006
 10
-29.3101920319
 20
32.7500006104
 10
-29.2387631149
 20
32.6071427765
 10
-29.2387631149
 20
32.5357161255
 10
-29.3816209488
 20
32.3928582916
 10
-29.4530498657
 20
32.3928582916
 10
-29.5244765167
 20
32.4642849426
 10
-29.5244765167
 20
32.5357161255
 10
-29.4530498657
 20
32.6785694275
 10
-29.3816209488
 20
32.7500006104
 10
-29.3101920319
 20
32.7500006104
  0
LWPOLYLINE
  5
329
100
AcDbEntity
  8
0
100
AcDbPolyline
 62
7
  6
CONTINUOUS
 90
10
 70
0
 43
0.3500000006
 10
-33.7387622223
 20
42.7499991302
 10
-33.6673355713
 20
42.6071412964
 10
-33.6673355713
 20
42.5357146454
 10
-33.8101911392
 20
42.3928568115
 10
-33.8816200562
 20
42.3928568115
 10
-33.9530489731
 20
42.4642834625
 10
-33.9530489731
 20
42.5357146454
 10
-33.8816200562
 20
42.6785724792
 10
-33.8101911392
 20
42.7499991302
 10
-33.7387622223
 20
42.7499991302
  0
LINE
  5
32A
100
AcDbEntity
  8
DRAFT
100
AcDbLine
 62
7
  6
CONTINUOUS
 10
-29.4193046157
 20
-22.4
 11
-27.5193046157
 21
-21.2
  0
LINE
  5
32B
100
AcDbEntity
  8
0
100
AcDbLine
 62
250
  6
CONTINUOUS
 10
-43.6131178607
 20
21.4755923698
 11
-35.5193046157
 21
21.8997711479
  0
LINE
  5
32C
100
AcDbEntity
  8
0
100
AcDbLine
 62
7
  6
CONTINUOUS
 10
-43.6305596356
 20
21.9749071372
 11
-35.5193046157
 21
22.4
  0
LWPOLYLINE
  5
32D
100
AcDbEntity
  8
RACCORDO
100
AcDbPolyline
 62
7
  6
CONTINUOUS
 90
22
 70
0
 10
-27.4353197543
 20
20.8366629075
 10
-27.4153151583
 20
20.8368010859
 10
-27.3962287217
 20
20.8380636212
 10
-27.3781185396
 20
20.8403931378
 10
-27.3609441186
 20
20.8436534677
 10
-27.3448765982
 20
20.8478512965
 10
-27.3302944105
 20
20.8531402181
 10
-27.3172947251
 20
20.8595243195
 10
-27.3059243326
 20
20.8668554358
 10
-27.2964682098
 20
20.8750755778
 10
-27.2890667693
 20
20.8842329749
 10
-27.283683194
 20
20.8941735828
 10
-27.2802869211
 20
20.904584292
 10
-27.278952715
 20
20.9154684847
 10
-27.2796136524
 20
20.9268111718
 10
-27.2819843541
 20
20.9383133489
 10
-27.2860269941
 20
20.9499376582
 10
-27.2917414587
 20
20.9617560641
 10
-27.298904595
 20
20.9736281199
 10
-27.3074423708
 20
20.985505879
 10
-27.3174100562
 20
20.9974535593
 10
-27.328791127
 20
21.0094865114
  0
LINE
  5
32E
100
AcDbEntity
  8
DRAFT
100
AcDbLine
 62
7
  6
CONTINUOUS
 10
-27.5193046157
 20
21.2
 11
-31.5193046157
 21
21.2
  0
LINE
  5
32F
100
AcDbEntity
  8
0
100
AcDbLine
 62
7
  6
CONTINUOUS
 10
-29.4193046157
 20
22.4
 11
-29.9193046157
 21
22.4
  0
LINE
  5
330
100
AcDbEntity
  8
RACCORDO
100
AcDbLine
 62
7
  6
CONTINUOUS
 10
-27.4353197543
 20
20.8366629075
 11
-35.5193046157
 21
20.9
  0
LINE
  5
331
100
AcDbEntity
  8
DRAFT
100
AcDbLine
 62
7
  6
CONTINUOUS
 10
-31.5193046157
 20
21.2
 11
-27.4840898297
 21
21.1647852141
  0
LINE
  5
332
100
AcDbEntity
  8
DRAFT
100
AcDbLine
 62
7
  6
CONTINUOUS
 10
-27.5193046157
 20
21.2
 11
-29.4193046157
 21
22.4
  0
LWPOLYLINE
  5
333
100
AcDbEntity
  8
0
100
AcDbPolyline
 62
7
  6
CONTINUOUS
 90
7
 70
0
 43
0.3500000006
 10
-37.5959056091
 20
42.2499989777
 10
-39.0959060669
 20
42.2499989777
 10
-37.5959056091
 20
44.3928574219
 10
-37.5959056091
 20
44.8214263916
 10
-38.0244791107
 20
45.2499998932
 10
-38.6673325653
 20
45.2499998932
 10
-39.0959060669
 20
44.6071419067
  0
LINE
  5
334
100
AcDbEntity
  8
DRAFT
100
AcDbLine
 62
7
  6
CONTINUOUS
 10
-34.6206639966
 20
22.6549503782
 11
-31.5193046157
 21
22.6298666026
  0
LINE
  5
335
100
AcDbEntity
  8
DRAFT
100
AcDbLine
 62
7
  6
CONTINUOUS
 10
-35.5193046157
 20
22.663166622
 11
-34.6206639966
 21
22.6549503782
  0
LINE
  5
336
100
AcDbEntity
  8
DRAFT
100
AcDbLine
 62
7
  6
CONTINUOUS
 10
-35.5193046157
 20
23.5
 11
-31.5193046157
 21
23.4301797403
  0
LINE
  5
337
100
AcDbEntity
  8
DRAFT
100
AcDbLine
 62
7
  6
CONTINUOUS
 10
-35.5193046157
 20
23.1799085618
 11
-33.7275812923
 21
23.1450976957
  0
LWPOLYLINE
  5
338
100
AcDbEntity
  8
DRAFT
100
AcDbPolyline
 62
7
  6
CONTINUOUS
 90
3
 70
0
 10
-33.7275812923
 20
23.1450976957
 10
-31.9581583979
 20
23.1090864878
 10
-31.5193046157
 20
23.0998904748
  0
ARC
  5
339
100
AcDbEntity
  8
DRAFT
100
AcDbCircle
 62
7
  6
CONTINUOUS
 10
11.25
 20
0.0
 40
28.0
100
AcDbArc
 50
233.1301023542
 51
234.0372348486
  0
ARC
  5
33A
100
AcDbEntity
  8
DRAFT
100
AcDbCircle
 62
7
  6
CONTINUOUS
 10
11.25
 20
0.0
 40
28.0
100
AcDbArc
 50
235.8789063483
 51
237.0647695028
  0
ARC
  5
33B
100
AcDbEntity
  8
DRAFT
100
AcDbCircle
 62
7
  6
CONTINUOUS
 10
11.25
 20
0.0
 40
28.0
100
AcDbArc
 50
122.9352304972
 51
124.1210936517
  0
ARC
  5
33C
100
AcDbEntity
  8
DRAFT
100
AcDbCircle
 62
7
  6
CONTINUOUS
 10
11.25
 20
0.0
 40
28.0
100
AcDbArc
 50
125.9627651514
 51
126.8698976458
  0
ARC
  5
33D
100
AcDbEntity
  8
DRAFT
100
AcDbCircle
 62
7
  6
CONTINUOUS
 10
-11.25
 20
0.0
 40
28.0
100
AcDbArc
 50
302.9352304972
 51
304.1210936517
  0
ARC
  5
33E
100
AcDbEntity
  8
DRAFT
100
AcDbCircle
 62
7
  6
CONTINUOUS
 10
-11.25
 20
0.0
 40
28.0
100
AcDbArc
 50
305.9627651514
 51
306.8698976458
  0
ARC
  5
33F
100
AcDbEntity
  8
DRAFT
100
AcDbCircle
 62
7
  6
CONTINUOUS
 10
-11.25
 20
0.0
 40
28.0
100
AcDbArc
 50
53.1301023542
 51
54.0372348486
  0
ARC
  5
340
100
AcDbEntity
  8
DRAFT
100
AcDbCircle
 62
7
  6
CONTINUOUS
 10
-11.25
 20
0.0
 40
28.0
100
AcDbArc
 50
55.8789063483
 51
57.0647695028
  0
CIRCLE
  5
341
100
AcDbEntity
  8
DRAFT
100
AcDbCircle
 62
7
  6
CONTINUOUS
 10
0.0
 20
0.0
 40
4.8
  0
ARC
  5
342
100
AcDbEntity
  8
DRAFT
100
AcDbCircle
 62
7
  6
CONTINUOUS
 10
-4.95
 20
-23.1
 40
0.5
100
AcDbArc
 50
350.803718421
 51
119.112422776
  0
ARC
  5
343
100
AcDbEntity
  8
DRAFT
100
AcDbCircle
 62
7
  6
CONTINUOUS
 10
-4.95
 20
23.1
 40
0.5
100
AcDbArc
 50
240.887577224
 51
9.196281579
  0
ARC
  5
344
100
AcDbEntity
  8
DRAFT
100
AcDbCircle
 62
7
  6
CONTINUOUS
 10
4.95
 20
-23.1
 40
0.5
100
AcDbArc
 50
60.887577224
 51
189.196281579
  0
ARC
  5
345
100
AcDbEntity
  8
DRAFT
100
AcDbCircle
 62
7
  6
CONTINUOUS
 10
4.95
 20
23.1
 40
0.5
100
AcDbArc
 50
170.803718421
 51
299.112422776
  0
ARC
  5
346
100
AcDbEntity
  8
0
100
AcDbCircle
 62
7
  6
CONTINUOUS
 10
-43.5782236793
 20
-20.9762776025
 40
1.0
100
AcDbArc
 50
182.4092313014
 51
267.0
  0
ARC
  5
347
100
AcDbEntity
  8
RACCORDO
100
AcDbCircle
 62
7
  6
CONTINUOUS
 10
-27.0193046157
 20
-19.0
 40
0.5
100
AcDbArc
 50
0.0
 51
90.0
  0
ARC
  5
348
100
AcDbEntity
  8
RACCORDO
100
AcDbCircle
 62
7
  6
CONTINUOUS
 10
-26.7193046157
 20
-20.1171572875
 40
0.2
100
AcDbArc
 50
315.0
 51
360.0
  0
ARC
  5
349
100
AcDbEntity
  8
RACCORDO
100
AcDbCircle
 62
7
  6
CONTINUOUS
 10
-31.3193046157
 20
10.0
 40
6.9742383097
100
AcDbArc
 50
7.0378258465
 51
23.6487258094
  0
ARC
  5
34A
100
AcDbEntity
  8
RACCORDO
100
AcDbCircle
 62
7
  6
CONTINUOUS
 10
-31.3193046157
 20
10.0
 40
6.9742383097
100
AcDbArc
 50
336.3512741906
 51
352.9621723606
  0
ARC
  5
34B
100
AcDbEntity
  8
0
100
AcDbCircle
 62
7
  6
CONTINUOUS
 10
-43.5782236793
 20
20.9762776025
 40
1.0
100
AcDbArc
 50
93.0
 51
177.5907686986
  0
ARC
  5
34C
100
AcDbEntity
  8
RACCORDO
100
AcDbCircle
 62
7
  6
CONTINUOUS
 10
-27.0193046157
 20
19.0
 40
0.5
100
AcDbArc
 50
270.0
 51
360.0
  0
ARC
  5
34D
100
AcDbEntity
  8
RACCORDO
100
AcDbCircle
 62
7
  6
CONTINUOUS
 10
-26.6193046157
 20
12.8134765996
 40
0.4
100
AcDbArc
 50
85.0
 51
180.0
  0
ARC
  5
34E
100
AcDbEntity
  8
RACCORDO
100
AcDbCircle
 62
7
  6
CONTINUOUS
 10
-26.6193046157
 20
7.1865234004
 40
0.4
100
AcDbArc
 50
180.0
 51
275.0
  0
ARC
  5
34F
100
AcDbEntity
  8
RACCORDO
100
AcDbCircle
 62
7
  6
CONTINUOUS
 10
-26.7193046157
 20
20.1171572875
 40
0.2
100
AcDbArc
 50
0.0
 51
45.0
  0
ARC
  5
350
100
AcDbEntity
  8
RACCORDO
100
AcDbCircle
 62
7
  6
CONTINUOUS
 10
454.9806953843
 20
-0.0
 40
500.0
100
AcDbArc
 50
179.4139681307
 51
180.2680719982
  0
ARC
  5
351
100
AcDbEntity
  8
0
100
AcDbCircle
 62
7
  6
CONTINUOUS
 10
454.9806953843
 20
0.0
 40
500.0
100
AcDbArc
 50
177.5907686986
 51
182.4092313014
  0
ELLIPSE
  5
352
100
AcDbEntity
  8
0
100
AcDbEllipse
 62
7
  6
CONTINUOUS
 10
10.649923836
 20
-21.899313827
 30
0.0
 11
-0.1582391023
 21
0.4751033573
 31
0.0
 40
0.9984778551
 41
-3.4626430041
 42
-1.8927600658
  0
ELLIPSE
  5
353
100
AcDbEntity
  8
0
100
AcDbEllipse
 62
7
  6
CONTINUOUS
 10
10.649923836
 20
21.899313827
 30
0.0
 11
0.1582391023
 21
0.4751033573
 31
0.0
 40
0.9984778551
 41
-1.2488325878
 42
0.3210503505
  0
ELLIPSE
  5
354
100
AcDbEntity
  8
0
100
AcDbEllipse
 62
7
  6
CONTINUOUS
 10
-10.649923836
 20
-21.899313827
 30
0.0
 11
0.1582391023
 21
0.4751033573
 31
0.0
 40
0.9984778551
 41
-4.3904252414
 42
-2.8205423031
  0
ELLIPSE
  5
355
100
AcDbEntity
  8
0
100
AcDbEllipse
 62
7
  6
CONTINUOUS
 10
-10.649923836
 20
21.899313827
 30
0.0
 11
-0.1582391023
 21
0.4751033573
 31
0.0
 40
0.9984778551
 41
-0.3210503505
 42
1.2488325878
  0
ENDSEC
  0
SECTION
  2
OBJECTS
  0
DICTIONARY
  5
C
100
AcDbDictionary
280
0
281
1
  3
ACAD_GROUP
350
D
  3
ACAD_MLINESTYLE
350
17
  3
ACAD_LAYOUT
350
1A
  3
ACAD_PLOTSETTINGS
350
19
  3
ACAD_PLOTSTYLENAME
350
E
  0
DICTIONARY
  5
D
102
{ACAD_REACTORS
330
C
102
}
100
AcDbDictionary
280
0
281
1
  0
ACDBDICTIONARYWDFLT
  5
E
102
{ACAD_REACTORS
330
C
102
}
100
AcDbDictionary
281
1
  3
Normal
350
F
100
AcDbDictionaryWithDefault
340
F
  0
DICTIONARY
  5
17
102
{ACAD_REACTORS
330
C
102
}
100
AcDbDictionary
280
0
281
1
  3
Standard
350
18
  0
DICTIONARY
  5
19
102
{ACAD_REACTORS
330
C
102
}
100
AcDbDictionary
281
1
  0
DICTIONARY
  5
1A
102
{ACAD_REACTORS
330
C
102
}
100
AcDbDictionary
281
1
  3
Model
350
356
  3
Layout1
350
357
  0
ACDBPLACEHOLDER
  5
F
102
{ACAD_REACTORS
330
E
102
}
  0
MLINESTYLE
  5
18
102
{ACAD_REACTORS
330
17
102
}
100
AcDbMlineStyle
  2
STANDARD
 70
0
  3

 62
256
 51
90.0
 52
90.0
 71
2
 49
0.5
 62
256
  6
BYLAYER
 49
-0.5
 62
256
  6
BYLAYER
  0
LAYOUT
  5
356
102
{ACAD_REACTORS
330
1A
102
}
100
AcDbPlotSettings
  1

  2
none_device
  4
ISO_A4_(297.00_x_210.00_MM)
  6

 40
0.0
 41
0.0
 42
0.0
 43
0.0
 44
297.0
 45
210.0
 46
0.0
 47
0.0
 48
0.0
 49
0.0
140
0.0
141
0.0
142
1.0
143
1.0
 70
1024
 72
1
 73
0
 74
0
  7

 75
0
147
1.0
148
0.0
149
0.0
100
AcDbLayout
  1
Model
 70
0
 71
0
 10
0.0
 20
0.0
 11
297.0
 21
210.0
 12
0.0
 22
0.0
 32
0.0
 14
0.0
 24
0.0
 34
0.0
 15
0.0
 25
0.0
 35
0.0
146
0.0
 13
0.0
 23
0.0
 33
0.0
 16
1.0
 26
0.0
 36
0.0
 17
0.0
 27
1.0
 37
0.0
 76
0
330
213
345
0
346
0
  0
LAYOUT
  5
357
102
{ACAD_REACTORS
330
1A
102
}
100
AcDbPlotSettings
  1

  2
none_device
  4
ISO_A4_(297.00_x_210.00_MM)
  6

 40
0.0
 41
0.0
 42
0.0
 43
0.0
 44
297.0
 45
210.0
 46
0.0
 47
0.0
 48
0.0
 49
0.0
140
0.0
141
0.0
142
1.0
143
1.0
 70
0
 72
1
 73
0
 74
0
  7

 75
0
147
1.0
148
0.0
149
0.0
100
AcDbLayout
  1
Layout1
 70
0
 71
1
 10
0.0
 20
0.0
 11
297.0
 21
210.0
 12
0.0
 22
0.0
 32
0.0
 14
0.0
 24
0.0
 34
0.0
 15
0.0
 25
0.0
 35
0.0
146
0.0
 13
0.0
 23
0.0
 33
0.0
 16
1.0
 26
0.0
 36
0.0
 17
0.0
 27
1.0
 37
0.0
 76
0
330
214
345
0
346
0
  0
ENDSEC
  0
EOF
