  0
SECTION
  2
HEADER
  9
$ACADVER
  1
AC1024
  9
$DWGCODEPAGE
  3
ANSI_1252
  9
$EXTMAX
 10
297.0
 20
210.0
 30
0.0
  9
$EXTMIN
 10
0.0
 20
0.0
 30
0.0
  9
$LIMMIN
 10
0.0
 20
0.0
  9
$LIMMAX
 10
297.0
 20
210.0
  9
$VIEWCTR
 10
148.5
 20
105.0
  9
$VIEWSIZE
 40
210.0
  9
$CLAYER
  8
0
  9
$LTSCALE
 40
16.335
  9
$CELTYPE
  6
BYLAYER
  9
$DIMSCALE
 40
1.0
  9
$DIMASZ
 40
3.0
  9
$DIMEXO
 40
0.5
  9
$DIMDLI
 40
11.286
  9
$DIMEXE
 40
1.5
  9
$DIMCEN
 40
2.673
  9
$DIMLFAC
 40
1.0
  9
$DIMBLK
  1
_FILLED
  9
$DIMALT
 70
0
  9
$DIMALTF
 40
0.0393700787
  9
$DIMTXT
 40
3.0
  9
$DIMTOL
 70
1
  9
$DIMLIM
 70
0
  9
$DIMTFAC
 40
1.0
  9
$DIMTP
 40
0.01
  9
$DIMTM
 40
0.01
  9
$DIMGAP
 40
0.625
  9
$DIMDSEP
 70
44
  9
$AUNITS
 70
0
  9
$PDMODE
 70
3
  9
$PDSIZE
 40
3.0
  9
$HANDSEED
  5
6B7
  9
$TILEMODE
 70
1
  9
$MEASUREMENT
 70
1
  9
$INSUNITS
 70
4
  0
ENDSEC
  0
SECTION
  2
CLASSES
  0
CLASS
  1
ACDBDICTIONARYWDFLT
  2
AcDbDictionaryWithDefault
  3
AutoCAD 2000
 90
0
 91
1
280
0
281
0
  0
CLASS
  1
ACDBPLACEHOLDER
  2
AcDbPlaceHolder
  3
AutoCAD 2000
 90
0
 91
1
280
0
281
0
  0
CLASS
  1
LAYOUT
  2
AcDbLayout
  3
AutoCAD 2000
 90
0
 91
0
280
0
281
0
  0
ENDSEC
  0
SECTION
  2
TABLES
  0
TABLE
  2
VPORT
  5
8
100
AcDbSymbolTable
 70
2
  0
VPORT
  5
1F4
100
AcDbSymbolTableRecord
100
AcDbViewportTableRecord
  2
*ACTIVE
 70
0
 10
0.0
 20
0.0
 11
1.0
 21
1.0
 12
148.5
 22
105.0
 13
0.0
 23
0.0
 14
1.0
 24
1.0
 15
0.0
 25
0.0
 16
0.0
 26
0.0
 36
1.0
 17
0.0
 27
0.0
 37
0.0
 40
210.0
 41
1.4142857143
 42
50.0
 43
0.0
 44
0.0
 50
0.0
 51
0.0
 71
0
 72
100
 73
1
 74
1
 75
0
 76
0
 77
0
 78
0
  0
ENDTAB
  0
TABLE
  2
LTYPE
  5
5
100
AcDbSymbolTable
 70
6
  0
LTYPE
  5
14
100
AcDbSymbolTableRecord
100
AcDbLinetypeTableRecord
  2
BYBLOCK
 70
0
  3

 72
65
 73
0
 40
0.0
  0
LTYPE
  5
15
100
AcDbSymbolTableRecord
100
AcDbLinetypeTableRecord
  2
BYLAYER
 70
0
  3

 72
65
 73
0
 40
0.0
  0
LTYPE
  5
16
100
AcDbSymbolTableRecord
100
AcDbLinetypeTableRecord
  2
CONTINUOUS
 70
64
  3
Solid line
 72
65
 73
0
 40
0.0
  0
LTYPE
  5
1F5
100
AcDbSymbolTableRecord
100
AcDbLinetypeTableRecord
  2
CENTER
 70
64
  3
____ _ ____ _ ____ _ ____ _ ____ _ ____ _ ____
 72
65
 73
4
 40
0.6
 49
0.375
 74
0
 49
-0.075
 74
0
 49
0.075
 74
0
 49
-0.075
 74
0
  0
LTYPE
  5
1F6
100
AcDbSymbolTableRecord
100
AcDbLinetypeTableRecord
  2
HIDDEN
 70
64
  3
- - - - - - - - - - - - - - - - - - - -
 72
65
 73
2
 40
0.2
 49
0.1
 74
0
 49
-0.1
 74
0
  0
LTYPE
  5
1F7
100
AcDbSymbolTableRecord
100
AcDbLinetypeTableRecord
  2
PHANTOM
 70
64
  3
_____ _ _ _____ _ _ _____ _ _ _____
 72
65
 73
6
 40
0.8
 49
0.45
 74
0
 49
-0.05
 74
0
 49
0.1
 74
0
 49
-0.05
 74
0
 49
0.1
 74
0
 49
-0.05
 74
0
  0
LTYPE
  5
1F8
100
AcDbSymbolTableRecord
100
AcDbLinetypeTableRecord
  2
DOT
 70
64
  3
. . . . . . . . . . . . . . . . . . . .
 72
65
 73
2
 40
0.2
 49
0.1
 74
0
 49
-0.1
 74
0
  0
LTYPE
  5
1F9
100
AcDbSymbolTableRecord
100
AcDbLinetypeTableRecord
  2
DASHED
 70
64
  3
- - - - - - - - - - - - - - - - - - - -
 72
65
 73
2
 40
0.2
 49
0.1
 74
0
 49
-0.1
 74
0
  0
ENDTAB
  0
TABLE
  2
LAYER
  5
2
100
AcDbSymbolTable
 70
36
  0
LAYER
  5
10
100
AcDbSymbolTableRecord
100
AcDbLayerTableRecord
  2
0
 70
0
 62
7
  6
CONTINUOUS
370
-3
390
F
  0
LAYER
  5
1FA
100
AcDbSymbolTableRecord
100
AcDbLayerTableRecord
  2
DEFAULT_1
 70
0
 62
7
  6
CENTER
370
-3
390
F
  0
LAYER
  5
1FB
100
AcDbSymbolTableRecord
100
AcDbLayerTableRecord
  2
DEFAULT_2
 70
0
 62
7
  6
HIDDEN
370
-3
390
F
  0
LAYER
  5
1FC
100
AcDbSymbolTableRecord
100
AcDbLayerTableRecord
  2
DEFAULT_3
 70
0
 62
7
  6
PHANTOM
370
-3
390
F
  0
LAYER
  5
1FD
100
AcDbSymbolTableRecord
100
AcDbLayerTableRecord
  2
ASSI
 70
0
 62
7
  6
CONTINUOUS
370
-3
390
F
  0
LAYER
  5
1FE
100
AcDbSymbolTableRecord
100
AcDbLayerTableRecord
  2
CASTELLO
 70
0
 62
7
  6
CONTINUOUS
370
-3
390
F
  0
LAYER
  5
1FF
100
AcDbSymbolTableRecord
100
AcDbLayerTableRecord
  2
CONTATTO
 70
0
 62
7
  6
CONTINUOUS
370
-3
390
F
  0
LAYER
  5
200
100
AcDbSymbolTableRecord
100
AcDbLayerTableRecord
  2
CONT_MOBILE
 70
0
 62
7
  6
CONTINUOUS
370
-3
390
F
  0
LAYER
  5
201
100
AcDbSymbolTableRecord
100
AcDbLayerTableRecord
  2
COORDINATE
 70
0
 62
7
  6
CONTINUOUS
370
-3
390
F
  0
LAYER
  5
202
100
AcDbSymbolTableRecord
100
AcDbLayerTableRecord
  2
COORD_ORIGINE
 70
0
 62
7
  6
CONTINUOUS
370
-3
390
F
  0
LAYER
  5
203
100
AcDbSymbolTableRecord
100
AcDbLayerTableRecord
  2
COPERCHIO
 70
0
 62
7
  6
CONTINUOUS
370
-3
390
F
  0
LAYER
  5
204
100
AcDbSymbolTableRecord
100
AcDbLayerTableRecord
  2
COPY_PUBLISH
 70
0
 62
7
  6
CONTINUOUS
370
-3
390
F
  0
LAYER
  5
205
100
AcDbSymbolTableRecord
100
AcDbLayerTableRecord
  2
CORPO
 70
0
 62
7
  6
CONTINUOUS
370
-3
390
F
  0
LAYER
  5
206
100
AcDbSymbolTableRecord
100
AcDbLayerTableRecord
  2
COSMETICHE
 70
0
 62
7
  6
CONTINUOUS
370
-3
390
F
  0
LAYER
  5
207
100
AcDbSymbolTableRecord
100
AcDbLayerTableRecord
  2
COSMETICI
 70
0
 62
7
  6
CONTINUOUS
370
-3
390
F
  0
LAYER
  5
208
100
AcDbSymbolTableRecord
100
AcDbLayerTableRecord
  2
CURVE
 70
0
 62
7
  6
CONTINUOUS
370
-3
390
F
  0
LAYER
  5
209
100
AcDbSymbolTableRecord
100
AcDbLayerTableRecord
  2
DRAFT
 70
0
 62
7
  6
CONTINUOUS
370
-3
390
F
  0
LAYER
  5
20A
100
AcDbSymbolTableRecord
100
AcDbLayerTableRecord
  2
IMPORT_IGES
 70
0
 62
7
  6
CONTINUOUS
370
-3
390
F
  0
LAYER
  5
20B
100
AcDbSymbolTableRecord
100
AcDbLayerTableRecord
  2
INTF_1
 70
0
 62
7
  6
CONTINUOUS
370
-3
390
F
  0
LAYER
  5
20C
100
AcDbSymbolTableRecord
100
AcDbLayerTableRecord
  2
INTF_11
 70
0
 62
7
  6
CONTINUOUS
370
-3
390
F
  0
LAYER
  5
20D
100
AcDbSymbolTableRecord
100
AcDbLayerTableRecord
  2
INTF_2
 70
0
 62
7
  6
CONTINUOUS
370
-3
390
F
  0
LAYER
  5
20E
100
AcDbSymbolTableRecord
100
AcDbLayerTableRecord
  2
MOLLA
 70
0
 62
7
  6
CONTINUOUS
370
-3
390
F
  0
LAYER
  5
20F
100
AcDbSymbolTableRecord
100
AcDbLayerTableRecord
  2
NOTE
 70
0
 62
7
  6
CONTINUOUS
370
-3
390
F
  0
LAYER
  5
210
100
AcDbSymbolTableRecord
100
AcDbLayerTableRecord
  2
PERNO
 70
0
 62
7
  6
CONTINUOUS
370
-3
390
F
  0
LAYER
  5
211
100
AcDbSymbolTableRecord
100
AcDbLayerTableRecord
  2
PIANI
 70
0
 62
7
  6
CONTINUOUS
370
-3
390
F
  0
LAYER
  5
212
100
AcDbSymbolTableRecord
100
AcDbLayerTableRecord
  2
PIANI_ORIGINE
 70
0
 62
7
  6
CONTINUOUS
370
-3
390
F
  0
LAYER
  5
213
100
AcDbSymbolTableRecord
100
AcDbLayerTableRecord
  2
POMELLO
 70
0
 62
7
  6
CONTINUOUS
370
-3
390
F
  0
LAYER
  5
214
100
AcDbSymbolTableRecord
100
AcDbLayerTableRecord
  2
PUNTI
 70
0
 62
7
  6
CONTINUOUS
370
-3
390
F
  0
LAYER
  5
215
100
AcDbSymbolTableRecord
100
AcDbLayerTableRecord
  2
RACCORDO
 70
0
 62
7
  6
CONTINUOUS
370
-3
390
F
  0
LAYER
  5
216
100
AcDbSymbolTableRecord
100
AcDbLayerTableRecord
  2
SIMBOLI
 70
0
 62
7
  6
CONTINUOUS
370
-3
390
F
  0
LAYER
  5
217
100
AcDbSymbolTableRecord
100
AcDbLayerTableRecord
  2
SMUSSO
 70
0
 62
7
  6
CONTINUOUS
370
-3
390
F
  0
LAYER
  5
218
100
AcDbSymbolTableRecord
100
AcDbLayerTableRecord
  2
SNAPLINE
 70
0
 62
7
  6
CONTINUOUS
370
-3
390
F
  0
LAYER
  5
219
100
AcDbSymbolTableRecord
100
AcDbLayerTableRecord
  2
SUPERFICI
 70
0
 62
7
  6
CONTINUOUS
370
-3
390
F
  0
LAYER
  5
21A
100
AcDbSymbolTableRecord
100
AcDbLayerTableRecord
  2
SUPPORTO
 70
0
 62
7
  6
CONTINUOUS
370
-3
390
F
  0
LAYER
  5
21B
100
AcDbSymbolTableRecord
100
AcDbLayerTableRecord
  2
TASTO
 70
0
 62
7
  6
CONTINUOUS
370
-3
390
F
  0
LAYER
  5
21C
100
AcDbSymbolTableRecord
100
AcDbLayerTableRecord
  2
TRASH
 70
0
 62
7
  6
CONTINUOUS
370
-3
390
F
  0
LAYER
  5
21D
100
AcDbSymbolTableRecord
100
AcDbLayerTableRecord
  2
TRECCIA
 70
0
 62
7
  6
CONTINUOUS
370
-3
390
F
  0
LAYER
  5
21E
100
AcDbSymbolTableRecord
100
AcDbLayerTableRecord
  2
XSEC_DATUMS
 70
0
 62
7
  6
CONTINUOUS
370
-3
390
F
  0
ENDTAB
  0
TABLE
  2
STYLE
  5
3
100
AcDbSymbolTable
 70
1
  0
STYLE
  5
11
100
AcDbSymbolTableRecord
100
AcDbTextStyleTableRecord
  2
STANDARD
 70
0
 40
0.0
 41
0.8
 50
0.0
 71
0
 42
0.2
  3
txt
  4

  0
STYLE
  5
21F
100
AcDbSymbolTableRecord
100
AcDbTextStyleTableRecord
  2
TEXTSTYLE_1
 70
0
 40
0.0
 41
0.8
 50
0.0
 71
0
 42
0.2
  3
gdt
  4

  0
ENDTAB
  0
TABLE
  2
VIEW
  5
6
100
AcDbSymbolTable
 70
0
  0
ENDTAB
  0
TABLE
  2
UCS
  5
7
100
AcDbSymbolTable
 70
0
  0
ENDTAB
  0
TABLE
  2
APPID
  5
9
100
AcDbSymbolTable
 70
1
  0
APPID
  5
220
100
AcDbSymbolTableRecord
100
AcDbRegAppTableRecord
  2
ACAD
 70
0
  0
ENDTAB
  0
TABLE
  2
BLOCK_RECORD
  5
1
100
AcDbSymbolTable
 70
0
  0
BLOCK_RECORD
  5
221
100
AcDbSymbolTableRecord
100
AcDbBlockTableRecord
  2
*Model_Space
  0
BLOCK_RECORD
  5
222
100
AcDbSymbolTableRecord
100
AcDbBlockTableRecord
  2
*Paper_Space
  0
BLOCK_RECORD
  5
223
100
AcDbSymbolTableRecord
100
AcDbBlockTableRecord
  2
_FILLED
  0
BLOCK_RECORD
  5
224
100
AcDbSymbolTableRecord
100
AcDbBlockTableRecord
  2
*D0
  0
BLOCK_RECORD
  5
225
100
AcDbSymbolTableRecord
100
AcDbBlockTableRecord
  2
*D1
  0
BLOCK_RECORD
  5
226
100
AcDbSymbolTableRecord
100
AcDbBlockTableRecord
  2
*D2
  0
BLOCK_RECORD
  5
227
100
AcDbSymbolTableRecord
100
AcDbBlockTableRecord
  2
*D3
  0
ENDTAB
  0
TABLE
  2
DIMSTYLE
  5
A
100
AcDbSymbolTable
 70
1
100
AcDbDimStyleTable
 71
0
  0
DIMSTYLE
105
228
100
AcDbSymbolTableRecord
100
AcDbDimStyleTableRecord
  2
STANDARD
 70
0
  3

  4

 40
1.0
 41
3.0
 42
0.5
 43
0.38
 44
1.5
 45
0.0
 46
0.0
 47
0.01
 48
0.01
140
3.0
141
0.09
142
0.0
143
25.4
144
1.0
145
0.0
146
1.0
147
0.625
 71
1
 72
0
 73
0
 74
0
 75
0
 76
0
 77
1
 78
8
 79
2
170
0
171
1
172
0
173
0
174
0
175
0
176
0
177
0
178
0
270
2
179
2
271
2
272
2
273
2
274
2
275
0
280
0
281
0
282
0
283
1
284
8
285
0
286
0
287
3
288
0
340
11
278
44
341
223
342
223
343
223
344
223
  0
DIMSTYLE
105
229
100
AcDbSymbolTableRecord
100
AcDbDimStyleTableRecord
  2
DIMSTYLE_1
 70
0
  3

  4

 40
1.0
 41
3.0
 42
0.5
 43
0.38
 44
1.5
 45
0.0
 46
0.0
 47
0.0
 48
0.0
140
3.0
141
0.09
142
0.0
143
25.4
144
1.0
145
0.0
146
1.0
147
0.75
 71
0
 72
0
 73
0
 74
0
 75
0
 76
0
 77
1
 78
8
 79
2
170
0
171
1
172
0
173
0
174
0
175
0
176
0
177
0
178
0
270
2
179
2
271
2
272
2
273
2
274
2
275
0
280
0
281
0
282
0
283
1
284
8
285
0
286
0
287
3
288
0
340
11
278
44
341
223
342
223
343
223
344
223
  0
DIMSTYLE
105
22A
100
AcDbSymbolTableRecord
100
AcDbDimStyleTableRecord
  2
DIMSTYLE_2
 70
0
  3

  4

 40
1.0
 41
3.0
 42
0.5
 43
0.38
 44
1.5
 45
0.0
 46
0.0
 47
0.0
 48
0.0
140
3.0
141
0.09
142
0.0
143
25.4
144
1.0
145
0.0
146
1.0
147
0.75
 71
0
 72
0
 73
0
 74
0
 75
0
 76
0
 77
1
 78
8
 79
2
170
0
171
1
172
0
173
0
174
0
175
0
176
0
177
0
178
0
270
2
179
2
271
1
272
1
273
2
274
2
275
0
280
0
281
0
282
0
283
1
284
8
285
0
286
0
287
3
288
0
340
11
278
44
341
223
342
223
343
223
344
223
  0
ENDTAB
  0
ENDSEC
  0
SECTION
  2
BLOCKS
  0
BLOCK
  5
20
100
AcDbEntity
  8
0
100
AcDbBlockBegin
  2
*Model_Space
 70
0
 10
0.0
 20
0.0
 30
0.0
  3
*Model_Space
  1

  0
ENDBLK
  5
21
100
AcDbEntity
  8
0
100
AcDbBlockEnd
  0
BLOCK
  5
1C
100
AcDbEntity
  8
0
100
AcDbBlockBegin
  2
*Paper_Space
 70
0
 10
0.0
 20
0.0
 30
0.0
  3
*Paper_Space
  1

  0
ENDBLK
  5
1D
100
AcDbEntity
  8
0
100
AcDbBlockEnd
  0
BLOCK
  5
22B
100
AcDbEntity
  8
0
100
AcDbBlockBegin
  2
_FILLED
 70
64
 10
0.0
 20
0.0
  3
_FILLED
  1

  0
SOLID
  5
22C
100
AcDbEntity
  8
0
  6
BYBLOCK
 62
0
100
AcDbTrace
 10
0.0
 20
0.0
 11
-1.0
 21
0.3166666667
 12
-1.0
 22
-0.3166666667
 13
-1.0
 23
-0.3166666667
  0
ENDBLK
  5
22D
100
AcDbEntity
  8
0
  6
BYBLOCK
 62
0
100
AcDbBlockEnd
  0
BLOCK
  5
22E
100
AcDbEntity
  8
0
100
AcDbBlockBegin
 62
7
  6
CONTINUOUS
  2
*D0
 70
65
 10
0.0
 20
0.0
  3
*D0
  1

  0
LINE
  5
22F
100
AcDbEntity
  8
0
100
AcDbLine
 62
7
  6
CONTINUOUS
 10
4.1748574782
 20
37.1342476215
 11
20.65
 21
37.1342476215
  0
LINE
  5
230
100
AcDbEntity
  8
0
100
AcDbLine
 62
7
  6
CONTINUOUS
 10
4.1748574782
 20
-9.8657523785
 11
20.65
 21
-9.8657523785
  0
LINE
  5
231
100
AcDbEntity
  8
0
100
AcDbLine
 62
7
  6
CONTINUOUS
 10
19.15
 20
37.1342476215
 11
19.15
 21
13.6342476215
  0
LINE
  5
232
100
AcDbEntity
  8
0
100
AcDbLine
 62
7
  6
CONTINUOUS
 10
19.15
 20
-9.8657523785
 11
19.15
 21
13.6342476215
  0
INSERT
  5
233
100
AcDbEntity
  8
0
100
AcDbBlockReference
 62
7
  6
CONTINUOUS
  2
_FILLED
 10
19.15
 20
37.1342476215
 41
3.0
 42
3.0
 43
3.0
 50
90.0
  0
INSERT
  5
234
100
AcDbEntity
  8
0
100
AcDbBlockReference
 62
7
  6
CONTINUOUS
  2
_FILLED
 10
19.15
 20
-9.8657523785
 41
3.0
 42
3.0
 43
3.0
 50
270.0
  0
ENDBLK
  5
235
100
AcDbEntity
  8
0
  6
BYBLOCK
 62
0
100
AcDbBlockEnd
  0
BLOCK
  5
236
100
AcDbEntity
  8
0
100
AcDbBlockBegin
 62
7
  6
CONTINUOUS
  2
*D1
 70
65
 10
0.0
 20
0.0
  3
*D1
  1

  0
LINE
  5
237
100
AcDbEntity
  8
0
100
AcDbLine
 62
7
  6
CONTINUOUS
 10
11.15
 20
36.0340187694
 11
11.15
 21
46.6342476215
  0
LINE
  5
238
100
AcDbEntity
  8
0
100
AcDbLine
 62
7
  6
CONTINUOUS
 10
-11.15
 20
36.0340187694
 11
-11.15
 21
46.6342476215
  0
LINE
  5
239
100
AcDbEntity
  8
0
100
AcDbLine
 62
7
  6
CONTINUOUS
 10
11.15
 20
45.1342476215
 11
0.0
 21
45.1342476215
  0
LINE
  5
23A
100
AcDbEntity
  8
0
100
AcDbLine
 62
7
  6
CONTINUOUS
 10
-11.15
 20
45.1342476215
 11
0.0
 21
45.1342476215
  0
INSERT
  5
23B
100
AcDbEntity
  8
0
100
AcDbBlockReference
 62
7
  6
CONTINUOUS
  2
_FILLED
 10
11.15
 20
45.1342476215
 41
3.0
 42
3.0
 43
3.0
  0
INSERT
  5
23C
100
AcDbEntity
  8
0
100
AcDbBlockReference
 62
7
  6
CONTINUOUS
  2
_FILLED
 10
-11.15
 20
45.1342476215
 41
3.0
 42
3.0
 43
3.0
 50
180.0
  0
ENDBLK
  5
23D
100
AcDbEntity
  8
0
  6
BYBLOCK
 62
0
100
AcDbBlockEnd
  0
BLOCK
  5
23E
100
AcDbEntity
  8
0
100
AcDbBlockBegin
 62
7
  6
CONTINUOUS
  2
*D2
 70
65
 10
0.0
 20
0.0
  3
*D2
  1

  0
LINE
  5
23F
100
AcDbEntity
  8
0
100
AcDbLine
 62
7
  6
CONTINUOUS
 10
-65.411233412
 20
37.6342476215
 11
-65.411233412
 21
46.6342476215
  0
LINE
  5
240
100
AcDbEntity
  8
0
100
AcDbLine
 62
7
  6
CONTINUOUS
 10
-40.711233412
 20
30.6947426929
 11
-40.711233412
 21
46.6342476215
  0
LINE
  5
241
100
AcDbEntity
  8
0
100
AcDbLine
 62
7
  6
CONTINUOUS
 10
-65.411233412
 20
45.1342476215
 11
-53.061233412
 21
45.1342476215
  0
LINE
  5
242
100
AcDbEntity
  8
0
100
AcDbLine
 62
7
  6
CONTINUOUS
 10
-40.711233412
 20
45.1342476215
 11
-53.061233412
 21
45.1342476215
  0
INSERT
  5
243
100
AcDbEntity
  8
0
100
AcDbBlockReference
 62
7
  6
CONTINUOUS
  2
_FILLED
 10
-65.411233412
 20
45.1342476215
 41
3.0
 42
3.0
 43
3.0
 50
180.0
  0
INSERT
  5
244
100
AcDbEntity
  8
0
100
AcDbBlockReference
 62
7
  6
CONTINUOUS
  2
_FILLED
 10
-40.711233412
 20
45.1342476215
 41
3.0
 42
3.0
 43
3.0
  0
ENDBLK
  5
245
100
AcDbEntity
  8
0
  6
BYBLOCK
 62
0
100
AcDbBlockEnd
  0
BLOCK
  5
246
100
AcDbEntity
  8
0
100
AcDbBlockBegin
 62
7
  6
CONTINUOUS
  2
*D3
 70
65
 10
0.0
 20
0.0
  3
*D3
  1

  0
LINE
  5
247
100
AcDbEntity
  8
0
100
AcDbLine
 62
7
  6
CONTINUOUS
 10
-40.711233412
 20
30.6947426929
 11
-40.711233412
 21
56.6342476215
  0
LINE
  5
248
100
AcDbEntity
  8
0
100
AcDbLine
 62
7
  6
CONTINUOUS
 10
-75.633180511
 20
25.0434562872
 11
-75.633180511
 21
56.6342476215
  0
LINE
  5
249
100
AcDbEntity
  8
0
100
AcDbLine
 62
7
  6
CONTINUOUS
 10
-40.711233412
 20
55.1342476215
 11
-58.1722069615
 21
55.1342476215
  0
LINE
  5
24A
100
AcDbEntity
  8
0
100
AcDbLine
 62
7
  6
CONTINUOUS
 10
-75.633180511
 20
55.1342476215
 11
-58.1722069615
 21
55.1342476215
  0
INSERT
  5
24B
100
AcDbEntity
  8
0
100
AcDbBlockReference
 62
7
  6
CONTINUOUS
  2
_FILLED
 10
-40.711233412
 20
55.1342476215
 41
3.0
 42
3.0
 43
3.0
  0
INSERT
  5
24C
100
AcDbEntity
  8
0
100
AcDbBlockReference
 62
7
  6
CONTINUOUS
  2
_FILLED
 10
-75.633180511
 20
55.1342476215
 41
3.0
 42
3.0
 43
3.0
 50
180.0
  0
ENDBLK
  5
24D
100
AcDbEntity
  8
0
  6
BYBLOCK
 62
0
100
AcDbBlockEnd
  0
ENDSEC
  0
SECTION
  2
ENTITIES
  0
DIMENSION
  5
24E
100
AcDbEntity
  8
0
100
AcDbDimension
 62
7
  6
CONTINUOUS
  2
*D0
 10
19.15
 20
-9.8657523785
 11
19.15
 21
11.2771047643
 70
160
 71
2
 72
2
 41
0.9
 42
47.0
  3
DIMSTYLE_1
100
AcDbAlignedDimension
 13
3.6748574782
 23
37.1342476215
 14
3.6748574782
 24
-9.8657523785
 50
270.0
100
AcDbRotatedDimension
  0
DIMENSION
  5
24F
100
AcDbEntity
  8
0
100
AcDbDimension
 62
7
  6
CONTINUOUS
  2
*D1
 10
-11.15
 20
45.1342476215
 11
-4.2857142857
 21
45.1342476215
 70
160
 71
2
 72
2
 41
0.9
 42
22.3
  3
DIMSTYLE_1
100
AcDbAlignedDimension
 13
11.15
 23
35.5340187694
 14
-11.15
 24
35.5340187694
 50
180.0
100
AcDbRotatedDimension
  0
DIMENSION
  5
250
100
AcDbEntity
  8
0
100
AcDbDimension
 62
7
  6
CONTINUOUS
  2
*D2
 10
-40.711233412
 20
45.1342476215
 11
-57.4540905549
 21
45.1342476215
 70
160
 71
2
 72
2
 41
0.9
 42
24.7
  3
DIMSTYLE_1
100
AcDbAlignedDimension
 13
-65.411233412
 23
37.1342476215
 14
-40.711233412
 24
30.1947426929
100
AcDbRotatedDimension
  0
DIMENSION
  5
251
100
AcDbEntity
  8
0
100
AcDbDimension
 62
7
  6
CONTINUOUS
  2
*D3
 10
-75.633180511
 20
55.1342476215
 11
-62.4579212472
 21
55.1342476215
 70
160
 71
2
 72
2
 41
0.9
 42
34.921947099
  3
DIMSTYLE_2
100
AcDbAlignedDimension
 13
-40.711233412
 23
30.1947426929
 14
-75.633180511
 24
24.5434562872
 50
180.0
100
AcDbRotatedDimension
  0
LWPOLYLINE
  5
252
100
AcDbEntity
  8
0
100
AcDbPolyline
 62
7
  6
CONTINUOUS
 90
5
 70
0
 43
0.3500000006
 10
3.0000000658
 20
47.5985322876
 10
3.357142951
 20
47.8128213043
 10
3.357142951
 20
48.4556747589
 10
3.0000000658
 20
48.8842482605
 10
2.1428571696
 20
48.8842482605
  0
LINE
  5
253
100
AcDbEntity
  8
POMELLO
100
AcDbLine
 62
7
  6
CONTINUOUS
 10
0.5
 20
-37.1657523785
 11
3.100759663
 21
-37.1430558928
  0
LINE
  5
254
100
AcDbEntity
  8
POMELLO
100
AcDbLine
 62
7
  6
CONTINUOUS
 10
0.5
 20
-37.1657523785
 11
-2.100759663
 21
-37.1430558928
  0
LWPOLYLINE
  5
255
100
AcDbEntity
  8
0
100
AcDbPolyline
 62
250
  6
CONTINUOUS
 90
16
 70
0
 10
-11.0004589101
 20
34.6315435381
 10
-10.9968791436
 20
34.6337165529
 10
-10.9879813308
 20
34.6358662842
 10
-10.9738608069
 20
34.637969699
 10
-10.9546688652
 20
34.6400042604
 10
-10.9306111366
 20
34.6419481692
 10
-10.9019453861
 20
34.6437805975
 10
-10.868978751
 20
34.6454819119
 10
-10.8320644502
 20
34.6470338837
 10
-10.7915979997
 20
34.6484198845
 10
-10.7480129745
 20
34.6496250639
 10
-10.7017763638
 20
34.6506365093
 10
-10.6533835666
 20
34.6514433833
 10
-10.6033530845
 20
34.6520370407
 10
-10.5522209659
 20
34.6524111208
 10
-10.5005350625
 20
34.6525616155
  0
LINE
  5
256
100
AcDbEntity
  8
0
100
AcDbLine
 62
7
  6
CONTINUOUS
 10
-3.2333672024
 20
36.1342476215
 11
-3.3
 21
36.0342476215
  0
LWPOLYLINE
  5
257
100
AcDbEntity
  8
0
100
AcDbPolyline
 62
250
  6
CONTINUOUS
 90
16
 70
0
 10
-11.0087219643
 20
35.1098399913
 10
-11.0059388076
 20
35.1620023802
 10
-10.9977152003
 20
35.213593931
 10
-10.9841411372
 20
35.2640500522
 10
-10.9653651658
 20
35.3128185783
 10
-10.9415927608
 20
35.3593658117
 10
-10.913084075
 20
35.4031823635
 10
-10.8801510927
 20
35.4437887281
 10
-10.8431542155
 20
35.4807405304
 10
-10.8024983179
 20
35.513633389
 10
-10.7586283172
 20
35.5421073414
 10
-10.712024304
 20
35.5658507835
 10
-10.6631962884
 20
35.5846038793
 10
-10.612678619
 20
35.5981614045
 10
-10.5610241352
 20
35.6063749928
 10
-10.5087981167
 20
35.6091547587
  0
LWPOLYLINE
  5
258
100
AcDbEntity
  8
0
100
AcDbPolyline
 62
7
  6
CONTINUOUS
 90
3
 70
0
 43
0.3500000006
 10
1.1428571477
 20
46.1699630127
 10
1.0714285848
 20
45.955673996
 10
0.9285714591
 20
45.6699628601
  0
LWPOLYLINE
  5
259
100
AcDbEntity
  8
0
100
AcDbPolyline
 62
250
  6
CONTINUOUS
 90
16
 70
0
 10
-11.0087219643
 20
-7.8413447484
 10
-11.0059389623
 20
-7.8935056818
 10
-10.9977157646
 20
-7.9450960493
 10
-10.9841422864
 20
-7.9955512882
 10
-10.9653669917
 20
-8.0443192491
 10
-10.9415952756
 20
-8.0908662263
 10
-10.9130872219
 20
-8.1346828007
 10
-10.8801547429
 20
-8.1752894409
 10
-10.843158184
 20
-8.2122417218
 10
-10.8025023985
 20
-8.245135187
 10
-10.7586322667
 20
-8.2736098221
 10
-10.7120278628
 20
-8.2973539583
 10
-10.6631992385
 20
-8.3161076788
 10
-10.6126807679
 20
-8.329665705
 10
-10.5610252917
 20
-8.337879628
 10
-10.5087981166
 20
-8.3406595155
  0
LWPOLYLINE
  5
25A
100
AcDbEntity
  8
0
100
AcDbPolyline
 62
250
  6
CONTINUOUS
 90
13
 70
0
 10
-11.0016694038
 20
34.865307707
 10
-11.002058632
 20
34.8996159285
 10
-11.0024980441
 20
34.9322038939
 10
-11.0029790226
 20
34.9624370477
 10
-11.0035024636
 20
34.9902736625
 10
-11.0040674711
 20
35.0157554658
 10
-11.0046627389
 20
35.0383730847
 10
-11.0052891369
 20
35.0580705131
 10
-11.0059457953
 20
35.0749037571
 10
-11.0066187988
 20
35.0885314624
 10
-11.0073035089
 20
35.0988398441
 10
-11.0080045641
 20
35.1059426871
 10
-11.0087219643
 20
35.1098399913
  0
LINE
  5
25B
100
AcDbEntity
  8
0
100
AcDbLine
 62
250
  6
CONTINUOUS
 10
-11.0010432605
 20
34.7914393532
 11
-11.0016694038
 21
34.865307707
  0
LWPOLYLINE
  5
25C
100
AcDbEntity
  8
0
100
AcDbPolyline
 62
250
  6
CONTINUOUS
 90
13
 70
0
 10
-10.5017441538
 20
35.1197062711
 10
-10.5021328454
 20
35.1884878313
 10
-10.50257162
 20
35.2533685095
 10
-10.5030519894
 20
35.3139402904
 10
-10.5035748986
 20
35.3698032841
 10
-10.5041394026
 20
35.4205692271
 10
-10.5047341778
 20
35.4658907261
 10
-10.5053598112
 20
35.505462235
 10
-10.5060157159
 20
35.5390163218
 10
-10.5066888073
 20
35.5663237035
 10
-10.5073747238
 20
35.5872009925
 10
-10.5080778269
 20
35.6015097714
 10
-10.5087981167
 20
35.6091547587
  0
LINE
  5
25D
100
AcDbEntity
  8
0
100
AcDbLine
 62
250
  6
CONTINUOUS
 10
-11.0006377707
 20
34.7132608737
 11
-11.0010432605
 21
34.7914393532
  0
LINE
  5
25E
100
AcDbEntity
  8
0
100
AcDbLine
 62
250
  6
CONTINUOUS
 10
-10.5011186535
 20
34.9722566178
 11
-10.5017441538
 21
35.1197062711
  0
LINE
  5
25F
100
AcDbEntity
  8
0
100
AcDbLine
 62
250
  6
CONTINUOUS
 10
-10.5007136105
 20
34.8151209015
 11
-10.5011186535
 21
34.9722566178
  0
LINE
  5
260
100
AcDbEntity
  8
0
100
AcDbLine
 62
250
  6
CONTINUOUS
 10
-11.0004589101
 20
34.6315435381
 11
-11.0006377707
 21
34.7132608737
  0
LINE
  5
261
100
AcDbEntity
  8
0
100
AcDbLine
 62
250
  6
CONTINUOUS
 10
-10.5005350625
 20
34.6525618524
 11
-10.5007136105
 21
34.8151209015
  0
LINE
  5
262
100
AcDbEntity
  8
ASSI
100
AcDbLine
 62
7
  6
CONTINUOUS
 10
-11.15
 20
29.7539067875
 11
-11.15
 21
-2.4854115446
  0
LINE
  5
263
100
AcDbEntity
  8
0
100
AcDbLine
 62
7
  6
CONTINUOUS
 10
-11.15
 20
-8.2655235265
 11
-11.15
 21
35.5340187694
  0
LWPOLYLINE
  5
264
100
AcDbEntity
  8
0
100
AcDbPolyline
 62
250
  6
CONTINUOUS
 90
9
 70
0
 10
-10.9974142989
 20
-2.698229494
 10
-10.99513084
 20
1.967211221
 10
-10.9936085333
 20
6.6332738496
 10
-10.9928473781
 20
11.3003719576
 10
-10.9928473752
 20
15.9680919793
 10
-10.9936085267
 20
20.6351932179
 10
-10.9951308334
 20
25.3012621078
 10
-10.9974142946
 20
29.9667122145
 10
-11.0004589101
 20
34.6315435381
  0
LWPOLYLINE
  5
265
100
AcDbEntity
  8
0
100
AcDbPolyline
 62
250
  6
CONTINUOUS
 90
9
 70
0
 10
-10.497490446
 20
-2.7152334316
 10
-10.4952069837
 20
1.9550272098
 10
-10.4936846755
 20
6.626307536
 10
-10.4929235215
 20
11.2981996297
 10
-10.4929235217
 20
15.970295619
 10
-10.4936846759
 20
20.6421877122
 10
-10.4952069841
 20
25.3134680372
 10
-10.4974904463
 20
29.9837286768
 10
-10.5005350625
 20
34.6525618524
  0
LINE
  5
266
100
AcDbEntity
  8
0
100
AcDbLine
 62
250
  6
CONTINUOUS
 10
-11.0005202608
 20
-7.4043814563
 11
-10.9974142989
 21
-2.698229494
  0
LINE
  5
267
100
AcDbEntity
  8
0
100
AcDbLine
 62
250
  6
CONTINUOUS
 10
-10.5007136105
 20
-7.5466256586
 11
-10.497490446
 21
-2.7152334316
  0
LINE
  5
268
100
AcDbEntity
  8
0
100
AcDbLine
 62
250
  6
CONTINUOUS
 10
-10.5011186535
 20
-7.7037613749
 11
-10.5007136105
 21
-7.5466256586
  0
LINE
  5
269
100
AcDbEntity
  8
0
100
AcDbLine
 62
250
  6
CONTINUOUS
 10
-11.00081144
 20
-7.4842008189
 11
-11.0005202608
 21
-7.4043814563
  0
LINE
  5
26A
100
AcDbEntity
  8
ASSI
100
AcDbLine
 62
7
  6
CONTINUOUS
 10
-3.3848722771
 20
36.0342476215
 11
-3.3633443637
 21
36.1342476215
  0
LINE
  5
26B
100
AcDbEntity
  8
POMELLO
100
AcDbLine
 62
7
  6
CONTINUOUS
 10
0.85
 20
-10.1688067838
 11
0.8489535485
 21
-10.1688558464
  0
LINE
  5
26C
100
AcDbEntity
  8
POMELLO
100
AcDbLine
 62
7
  6
CONTINUOUS
 10
-0.85
 20
-10.1775336501
 11
-2.100759663
 21
-10.1884488643
  0
LINE
  5
26D
100
AcDbEntity
  8
POMELLO
100
AcDbLine
 62
7
  6
CONTINUOUS
 10
0.85
 20
-10.1688067823
 11
3.100759663
 21
-10.1884488643
  0
LWPOLYLINE
  5
26E
100
AcDbEntity
  8
0
100
AcDbPolyline
 62
250
  6
CONTINUOUS
 90
16
 70
0
 10
-11.0004589101
 20
-7.3630482952
 10
-10.9968794369
 20
-7.3652213357
 10
-10.9879818724
 20
-7.3673710931
 10
-10.9738615497
 20
-7.3694745339
 10
-10.9546697613
 20
-7.3715091205
 10
-10.9306121379
 20
-7.3734530535
 10
-10.9019464456
 20
-7.3752855045
 10
-10.8689798232
 20
-7.3769868398
 10
-10.8320654925
 20
-7.3785388302
 10
-10.7915989726
 20
-7.379924847
 10
-10.7480138429
 20
-7.3811300396
 10
-10.701777097
 20
-7.3821414951
 10
-10.6533841395
 20
-7.382948376
 10
-10.6033534777
 20
-7.3835420369
 10
-10.552221166
 20
-7.3839161172
 10
-10.5005350625
 20
-7.3840666087
  0
LWPOLYLINE
  5
26F
100
AcDbEntity
  8
0
100
AcDbPolyline
 62
250
  6
CONTINUOUS
 90
14
 70
0
 10
-10.5087981167
 20
-8.3406595158
 10
-10.5080778269
 20
-8.3330145284
 10
-10.5073747238
 20
-8.3187057496
 10
-10.5066888073
 20
-8.2978284606
 10
-10.5060157159
 20
-8.2705210789
 10
-10.5053598112
 20
-8.2369669921
 10
-10.5047341778
 20
-8.1973954832
 10
-10.5041394026
 20
-8.1520739842
 10
-10.5035748986
 20
-8.1013080412
 10
-10.5030519894
 20
-8.0454450475
 10
-10.5025716201
 20
-7.9848732666
 10
-10.5021328454
 20
-7.9199925884
 10
-10.5017441538
 20
-7.8512110282
 10
-10.5011186535
 20
-7.7037613749
  0
LWPOLYLINE
  5
270
100
AcDbEntity
  8
0
100
AcDbPolyline
 62
250
  6
CONTINUOUS
 90
15
 70
0
 10
-11.0087219643
 20
-7.8413447484
 10
-11.0080045641
 20
-7.837447444
 10
-11.0073035089
 20
-7.8303446009
 10
-11.0066187988
 20
-7.8200362192
 10
-11.0059457953
 20
-7.8064085141
 10
-11.0052891369
 20
-7.7895752703
 10
-11.0046627389
 20
-7.7698778421
 10
-11.0040674711
 20
-7.7472602231
 10
-11.0035024636
 20
-7.7217784197
 10
-11.0029790226
 20
-7.6939418048
 10
-11.0024980441
 20
-7.6637086509
 10
-11.002058632
 20
-7.6311206855
 10
-11.0016694038
 20
-7.596812464
 10
-11.0013312402
 20
-7.5607384152
 10
-11.00081144
 20
-7.4842008189
  0
LINE
  5
271
100
AcDbEntity
  8
0
100
AcDbLine
 62
250
  6
CONTINUOUS
 10
-11.15
 20
-8.2655235265
 11
-11.0087219643
 21
-7.8413447484
  0
LWPOLYLINE
  5
272
100
AcDbEntity
  8
0
100
AcDbPolyline
 62
250
  6
CONTINUOUS
 90
16
 70
0
 10
10.5087981167
 20
-8.3406595158
 10
10.5610250031
 20
-8.3378796586
 10
10.6126802316
 20
-8.3296658191
 10
10.6631985021
 20
-8.316107918
 10
10.7120269743
 20
-8.2973543536
 10
10.7586312804
 20
-8.2736103908
 10
10.8025013793
 20
-8.2451359264
 10
10.8431571925
 20
-8.212242613
 10
10.8801538308
 20
-8.1752904518
 10
10.9130864355
 20
-8.1346838807
 10
10.941594647
 20
-8.0908673121
 10
10.9653665353
 20
-8.0443202711
 10
10.9841419991
 20
-7.9955521689
 10
10.9977156235
 20
-7.9450967094
 10
11.0059389237
 20
-7.8935060459
 10
11.0087219643
 20
-7.8413447484
  0
LWPOLYLINE
  5
273
100
AcDbEntity
  8
0
100
AcDbPolyline
 62
250
  6
CONTINUOUS
 90
16
 70
0
 10
10.5005350625
 20
-7.384066609
 10
10.5522211666
 20
-7.3839161179
 10
10.6033534788
 20
-7.3835420379
 10
10.6533841411
 20
-7.3829483771
 10
10.701777099
 20
-7.3821414962
 10
10.7480138452
 20
-7.3811300406
 10
10.7915989752
 20
-7.3799248477
 10
10.8320654952
 20
-7.3785388308
 10
10.868979826
 20
-7.3769868403
 10
10.9019464483
 20
-7.375285505
 10
10.9306121405
 20
-7.3734530538
 10
10.9546697635
 20
-7.3715091207
 10
10.9738615515
 20
-7.369474534
 10
10.9879818737
 20
-7.3673710932
 10
10.9968794376
 20
-7.3652213357
 10
11.0004589101
 20
-7.3630482952
  0
LINE
  5
274
100
AcDbEntity
  8
ASSI
100
AcDbLine
 62
7
  6
CONTINUOUS
 10
-3.6748574782
 20
-9.8657523785
 11
-0.85
 21
-9.8657523785
  0
LINE
  5
275
100
AcDbEntity
  8
ASSI
100
AcDbLine
 62
7
  6
CONTINUOUS
 10
0.85
 20
-9.8657523785
 11
3.6748574782
 21
-9.8657523785
  0
LINE
  5
276
100
AcDbEntity
  8
ASSI
100
AcDbLine
 62
7
  6
CONTINUOUS
 10
3.4698202597
 20
-8.8657523785
 11
0.85
 21
-8.8657523785
  0
LINE
  5
277
100
AcDbEntity
  8
ASSI
100
AcDbLine
 62
7
  6
CONTINUOUS
 10
-0.85
 20
-8.8657523785
 11
-3.4698202597
 21
-8.8657523785
  0
LINE
  5
278
100
AcDbEntity
  8
0
100
AcDbLine
 62
7
  6
CONTINUOUS
 10
10.6503805997
 20
-8.7657523785
 11
3.3
 21
-8.7657523785
  0
LINE
  5
279
100
AcDbEntity
  8
0
100
AcDbLine
 62
7
  6
CONTINUOUS
 10
-3.3
 20
-8.7657523785
 11
-10.6503805997
 21
-8.7657523785
  0
LINE
  5
27A
100
AcDbEntity
  8
0
100
AcDbLine
 62
250
  6
CONTINUOUS
 10
10.5087981167
 20
-8.3406595158
 11
0.85
 21
-8.3406595158
  0
LINE
  5
27B
100
AcDbEntity
  8
0
100
AcDbLine
 62
250
  6
CONTINUOUS
 10
-0.85
 20
-8.3406595158
 11
-10.5087981167
 21
-8.3406595158
  0
LWPOLYLINE
  5
27C
100
AcDbEntity
  8
ASSI
100
AcDbPolyline
 62
7
  6
CONTINUOUS
 90
10
 70
0
 10
-3.6748574782
 20
-9.8657523785
 10
-3.7403304144
 20
-9.8635617631
 10
-3.804984264
 20
-9.8572305716
 10
-3.8688190271
 20
-9.846758804
 10
-3.9320970783
 20
-9.8320673516
 10
-3.994556043
 20
-9.8132353232
 10
-4.0554087969
 20
-9.7905000447
 10
-4.1143929653
 20
-9.7639406251
 10
-4.1717709229
 20
-9.7334779555
 10
-4.2275426698
 20
-9.699112036
  0
LINE
  5
27D
100
AcDbEntity
  8
0
100
AcDbLine
 62
7
  6
CONTINUOUS
 10
-3.3
 20
-8.7657523785
 11
-3.2333672024
 21
-8.8657523785
  0
LINE
  5
27E
100
AcDbEntity
  8
POMELLO
100
AcDbLine
 62
7
  6
CONTINUOUS
 10
-3.5956076751
 20
-32.1911743477
 11
-3.598536432
 21
-32.1570726599
  0
LWPOLYLINE
  5
27F
100
AcDbEntity
  8
TASTO
100
AcDbPolyline
 62
7
  6
CONTINUOUS
 90
5
 70
0
 10
0.9657591994
 20
26.1071226786
 10
0.9394128809
 20
26.0244606026
 10
0.9058962411
 20
25.9444123749
 10
0.8654776519
 20
25.8676012553
 10
0.85
 20
25.8435661734
  0
LINE
  5
280
100
AcDbEntity
  8
0
100
AcDbLine
 62
250
  6
CONTINUOUS
 10
-10.6503805997
 20
-8.7657523785
 11
-10.5087981167
 21
-8.3406595158
  0
LINE
  5
281
100
AcDbEntity
  8
0
100
AcDbLine
 62
250
  6
CONTINUOUS
 10
10.5005350625
 20
-7.3840666095
 11
0.85
 21
-7.3840666095
  0
LINE
  5
282
100
AcDbEntity
  8
0
100
AcDbLine
 62
250
  6
CONTINUOUS
 10
-0.85
 20
-7.3840666095
 11
-10.5005350625
 21
-7.3840666095
  0
LINE
  5
283
100
AcDbEntity
  8
ASSI
100
AcDbLine
 62
7
  6
CONTINUOUS
 10
-3.3848722771
 20
-8.7657523785
 11
-3.3633443637
 21
-8.8657523785
  0
LINE
  5
284
100
AcDbEntity
  8
POMELLO
100
AcDbLine
 62
7
  6
CONTINUOUS
 10
-3.598536432
 20
-32.1570726599
 11
-3.598536432
 21
-15.1744320972
  0
LINE
  5
285
100
AcDbEntity
  8
POMELLO
100
AcDbLine
 62
250
  6
CONTINUOUS
 10
-3.5956076755
 20
-15.1403304114
 11
-3.5956076755
 21
-32.1911743457
  0
LINE
  5
286
100
AcDbEntity
  8
ASSI
100
AcDbLine
 62
7
  6
CONTINUOUS
 10
-3.4698202597
 20
36.1342476215
 11
-3.4698202597
 21
36.0342476215
  0
LINE
  5
287
100
AcDbEntity
  8
ASSI
100
AcDbLine
 62
7
  6
CONTINUOUS
 10
-3.4698202597
 20
-8.8657523785
 11
-3.4698202597
 21
-8.7657523785
  0
LINE
  5
288
100
AcDbEntity
  8
POMELLO
100
AcDbLine
 62
250
  6
CONTINUOUS
 10
-2.5789075024
 20
-10.5573457629
 11
-2.5789075024
 21
-36.7741589942
  0
LINE
  5
289
100
AcDbEntity
  8
POMELLO
100
AcDbLine
 62
7
  6
CONTINUOUS
 10
-3.5956076751
 20
-15.1403304093
 11
-3.598536432
 21
-15.1744320972
  0
LINE
  5
28A
100
AcDbEntity
  8
TASTO
100
AcDbLine
 62
7
  6
CONTINUOUS
 10
0.9924547545
 20
26.2498110561
 11
0.9847288387
 21
26.1917655208
  0
LINE
  5
28B
100
AcDbEntity
  8
ASSI
100
AcDbLine
 62
7
  6
CONTINUOUS
 10
3.4151277229
 20
36.0342476215
 11
3.4366556363
 21
36.1342476215
  0
LINE
  5
28C
100
AcDbEntity
  8
TASTO
100
AcDbLine
 62
7
  6
CONTINUOUS
 10
0.9847288387
 20
26.1917655208
 11
0.9657591994
 21
26.1071226786
  0
LINE
  5
28D
100
AcDbEntity
  8
POMELLO
100
AcDbLine
 62
250
  6
CONTINUOUS
 10
-2.1007596631
 20
-10.1884488643
 11
-2.1007596631
 21
-37.1430558928
  0
LINE
  5
28E
100
AcDbEntity
  8
TRECCIA
100
AcDbLine
 62
7
  6
CONTINUOUS
 10
-0.85
 20
-10.1775336501
 11
-0.85
 21
26.3342476215
  0
LINE
  5
28F
100
AcDbEntity
  8
RACCORDO
100
AcDbLine
 62
250
  6
CONTINUOUS
 10
-0.0
 20
31.9626659423
 11
-0.0000000003
 21
27.4742338418
  0
LINE
  5
290
100
AcDbEntity
  8
ASSI
100
AcDbLine
 62
7
  6
CONTINUOUS
 10
-3.4151277229
 20
-8.7657523785
 11
-3.4366556363
 21
-8.8657523785
  0
LINE
  5
291
100
AcDbEntity
  8
0
100
AcDbLine
 62
250
  6
CONTINUOUS
 10
10.5087981167
 20
35.6091547587
 11
10.6503805997
 21
36.0342476215
  0
LINE
  5
292
100
AcDbEntity
  8
0
100
AcDbLine
 62
250
  6
CONTINUOUS
 10
11.0087219643
 20
35.1098399913
 11
11.15
 21
35.5340187694
  0
LINE
  5
293
100
AcDbEntity
  8
POMELLO
100
AcDbLine
 62
7
  6
CONTINUOUS
 10
0.5
 20
-10.1806680258
 11
0.5
 21
-37.1656036991
  0
LINE
  5
294
100
AcDbEntity
  8
TRECCIA
100
AcDbLine
 62
7
  6
CONTINUOUS
 10
0.85
 20
-10.1688067838
 11
0.85
 21
26.3342476215
  0
LINE
  5
295
100
AcDbEntity
  8
0
100
AcDbLine
 62
250
  6
CONTINUOUS
 10
-11.0087219643
 20
35.1098399913
 11
-11.15
 21
35.5340187694
  0
LINE
  5
296
100
AcDbEntity
  8
0
100
AcDbLine
 62
250
  6
CONTINUOUS
 10
-10.5087981167
 20
35.6091547587
 11
-10.6503805997
 21
36.0342476215
  0
LINE
  5
297
100
AcDbEntity
  8
ASSI
100
AcDbLine
 62
7
  6
CONTINUOUS
 10
3.4151277229
 20
-8.7657523785
 11
3.4366556363
 21
-8.8657523785
  0
LINE
  5
298
100
AcDbEntity
  8
TASTO
100
AcDbLine
 62
7
  6
CONTINUOUS
 10
-0.9847323149
 20
26.1917850229
 11
-0.9924547251
 21
26.2498112794
  0
LINE
  5
299
100
AcDbEntity
  8
POMELLO
100
AcDbLine
 62
7
  6
CONTINUOUS
 10
4.5956076751
 20
-15.1403304093
 11
4.598536432
 21
-15.1744320972
  0
LINE
  5
29A
100
AcDbEntity
  8
POMELLO
100
AcDbLine
 62
250
  6
CONTINUOUS
 10
3.1007596631
 20
-37.1430558928
 11
3.1007596631
 21
-10.1884488643
  0
LINE
  5
29B
100
AcDbEntity
  8
ASSI
100
AcDbLine
 62
7
  6
CONTINUOUS
 10
3.4698202597
 20
-8.7657523785
 11
3.4698202597
 21
-8.8657523785
  0
LINE
  5
29C
100
AcDbEntity
  8
ASSI
100
AcDbLine
 62
7
  6
CONTINUOUS
 10
3.4698202597
 20
36.0342476215
 11
3.4698202597
 21
36.1342476215
  0
LINE
  5
29D
100
AcDbEntity
  8
POMELLO
100
AcDbLine
 62
250
  6
CONTINUOUS
 10
3.5789075024
 20
-36.7741589942
 11
3.5789075024
 21
-10.5573457629
  0
LINE
  5
29E
100
AcDbEntity
  8
POMELLO
100
AcDbLine
 62
250
  6
CONTINUOUS
 10
4.5956076755
 20
-32.1911743457
 11
4.5956076755
 21
-15.1403304114
  0
LINE
  5
29F
100
AcDbEntity
  8
POMELLO
100
AcDbLine
 62
7
  6
CONTINUOUS
 10
4.598536432
 20
-15.1744320972
 11
4.598536432
 21
-32.1570726599
  0
LINE
  5
2A0
100
AcDbEntity
  8
ASSI
100
AcDbLine
 62
7
  6
CONTINUOUS
 10
3.3848722771
 20
-8.7657523785
 11
3.3633443637
 21
-8.8657523785
  0
LINE
  5
2A1
100
AcDbEntity
  8
TASTO
100
AcDbLine
 62
7
  6
CONTINUOUS
 10
-0.9657657112
 20
26.1071467203
 11
-0.9847323149
 21
26.1917850229
  0
LINE
  5
2A2
100
AcDbEntity
  8
ASSI
100
AcDbLine
 62
7
  6
CONTINUOUS
 10
-3.4151277229
 20
36.0342476215
 11
-3.4366556363
 21
36.1342476215
  0
LINE
  5
2A3
100
AcDbEntity
  8
POMELLO
100
AcDbLine
 62
7
  6
CONTINUOUS
 10
4.5956076751
 20
-32.1911743477
 11
4.598536432
 21
-32.1570726599
  0
LINE
  5
2A4
100
AcDbEntity
  8
0
100
AcDbLine
 62
7
  6
CONTINUOUS
 10
3.3
 20
-8.7657523785
 11
3.2333672024
 21
-8.8657523785
  0
LINE
  5
2A5
100
AcDbEntity
  8
0
100
AcDbLine
 62
250
  6
CONTINUOUS
 10
10.6503805997
 20
-8.7657523785
 11
10.5087981167
 21
-8.3406595158
  0
LINE
  5
2A6
100
AcDbEntity
  8
0
100
AcDbLine
 62
250
  6
CONTINUOUS
 10
11.15
 20
-8.2655235265
 11
11.0087219643
 21
-7.8413447484
  0
LWPOLYLINE
  5
2A7
100
AcDbEntity
  8
0
100
AcDbPolyline
 62
250
  6
CONTINUOUS
 90
13
 70
0
 10
10.5087981167
 20
-8.3406595158
 10
10.5080778549
 20
-8.3330155062
 10
10.5073747357
 20
-8.3187082398
 10
10.5066887591
 20
-8.2978322529
 10
10.5060155151
 20
-8.2705239495
 10
10.5053594138
 20
-8.2369667971
 10
10.5047336849
 20
-8.1973948649
 10
10.5041390272
 20
-8.1520833805
 10
10.503574742
 20
-8.1013344967
 10
10.5030519635
 20
-8.0454815873
 10
10.5025715154
 20
-7.9848976849
 10
10.502132574
 20
-7.9199913429
 10
10.5017438026
 20
-7.8511930849
  0
LINE
  5
2A8
100
AcDbEntity
  8
0
100
AcDbLine
 62
250
  6
CONTINUOUS
 10
10.5017438026
 20
-7.8511930849
 11
10.5011186198
 21
-7.7037775128
  0
LINE
  5
2A9
100
AcDbEntity
  8
0
100
AcDbLine
 62
250
  6
CONTINUOUS
 10
10.5011186198
 20
-7.7037775128
 11
10.5007137438
 21
-7.5466571947
  0
LINE
  5
2AA
100
AcDbEntity
  8
0
100
AcDbLine
 62
250
  6
CONTINUOUS
 10
10.5007137438
 20
-7.5466571947
 11
10.5005350625
 21
-7.3840666095
  0
LWPOLYLINE
  5
2AB
100
AcDbEntity
  8
0
100
AcDbPolyline
 62
250
  6
CONTINUOUS
 90
9
 70
0
 10
10.5005350625
 20
-7.3840666095
 10
10.4974904462
 20
-2.7152334334
 10
10.495206984
 20
1.9550272068
 10
10.4936846758
 20
6.6263075322
 10
10.4929235217
 20
11.298199626
 10
10.4929235216
 20
15.9702956158
 10
10.4936846757
 20
20.6421877096
 10
10.4952069839
 20
25.3134680353
 10
10.4974904462
 20
29.9837286758
  0
LINE
  5
2AC
100
AcDbEntity
  8
0
100
AcDbLine
 62
250
  6
CONTINUOUS
 10
10.4974904462
 20
29.9837286758
 11
10.5005963742
 21
34.7342705757
  0
LINE
  5
2AD
100
AcDbEntity
  8
0
100
AcDbLine
 62
250
  6
CONTINUOUS
 10
10.5005963742
 20
34.7342705757
 11
10.5008871715
 21
34.8946634279
  0
LWPOLYLINE
  5
2AE
100
AcDbEntity
  8
0
100
AcDbPolyline
 62
250
  6
CONTINUOUS
 90
15
 70
0
 10
10.5008871715
 20
34.8946634279
 10
10.5014061262
 20
35.0474536467
 10
10.5017438025
 20
35.1196883278
 10
10.502132574
 20
35.1884865858
 10
10.5025715154
 20
35.2533929278
 10
10.5030519635
 20
35.3139768302
 10
10.503574742
 20
35.3698297396
 10
10.5041390272
 20
35.4205786235
 10
10.5047336849
 20
35.4658901078
 10
10.5053594138
 20
35.50546204
 10
10.5060155151
 20
35.5390191924
 10
10.5066887591
 20
35.5663274958
 10
10.5073747357
 20
35.5872034827
 10
10.5080778549
 20
35.6015107491
 10
10.5087981167
 20
35.6091547587
  0
LWPOLYLINE
  5
2AF
100
AcDbEntity
  8
ASSI
100
AcDbPolyline
 62
7
  6
CONTINUOUS
 90
10
 70
0
 10
4.2275426698
 20
-9.699112036
 10
4.1717709229
 20
-9.7334779555
 10
4.1143929653
 20
-9.7639406251
 10
4.0554087969
 20
-9.7905000447
 10
3.994556043
 20
-9.8132353232
 10
3.9320970783
 20
-9.8320673516
 10
3.8688190271
 20
-9.846758804
 10
3.804984264
 20
-9.8572305716
 10
3.7403304144
 20
-9.8635617631
 10
3.6748574782
 20
-9.8657523785
  0
LWPOLYLINE
  5
2B0
100
AcDbEntity
  8
0
100
AcDbPolyline
 62
250
  6
CONTINUOUS
 90
13
 70
0
 10
11.0087219643
 20
-7.8413447484
 10
11.0080031927
 20
-7.8374312911
 10
11.0073010341
 20
-7.8303091793
 10
11.0066154888
 20
-7.8199784128
 10
11.0059419622
 20
-7.8063239972
 10
11.0052850488
 20
-7.7894609269
 10
11.0046585314
 20
-7.7697341855
 10
11.0040632761
 20
-7.7470903044
 10
11.0034984168
 20
-7.7215827521
 10
11.0029751375
 20
-7.6937169179
 10
11.002494253
 20
-7.6634448655
 10
11.0020549485
 20
-7.6308145312
 10
11.0016659628
 20
-7.5964751136
  0
LINE
  5
2B1
100
AcDbEntity
  8
0
100
AcDbLine
 62
250
  6
CONTINUOUS
 10
11.0016659628
 20
-7.5964751136
 11
11.0010408709
 21
-7.5225683427
  0
LINE
  5
2B2
100
AcDbEntity
  8
0
100
AcDbLine
 62
250
  6
CONTINUOUS
 10
11.0010408709
 20
-7.5225683427
 11
11.0006365685
 21
-7.444492661
  0
LINE
  5
2B3
100
AcDbEntity
  8
0
100
AcDbLine
 62
250
  6
CONTINUOUS
 10
11.0006365685
 20
-7.444492661
 11
11.0004589101
 21
-7.3630482952
  0
LWPOLYLINE
  5
2B4
100
AcDbEntity
  8
0
100
AcDbPolyline
 62
250
  6
CONTINUOUS
 90
9
 70
0
 10
11.0004589101
 20
-7.3630482952
 10
10.9974142958
 20
-2.6982188487
 10
10.9951308352
 20
1.967229078
 10
10.9936085283
 20
6.6332954849
 10
10.9928473752
 20
11.300392908
 10
10.9928473758
 20
15.9681088113
 10
10.9936085296
 20
20.6352055868
 10
10.9951308365
 20
25.3012706984
 10
10.9974142967
 20
29.9667166822
  0
LINE
  5
2B5
100
AcDbEntity
  8
0
100
AcDbLine
 62
7
  6
CONTINUOUS
 10
11.15
 20
35.5340187694
 11
11.15
 21
-8.2655235265
  0
LINE
  5
2B6
100
AcDbEntity
  8
ASSI
100
AcDbLine
 62
7
  6
CONTINUOUS
 10
11.15
 20
-2.4854115446
 11
11.15
 21
29.7539067875
  0
LINE
  5
2B7
100
AcDbEntity
  8
0
100
AcDbLine
 62
250
  6
CONTINUOUS
 10
10.9974142967
 20
29.9667166822
 11
11.0005196528
 21
34.6727201493
  0
LINE
  5
2B8
100
AcDbEntity
  8
0
100
AcDbLine
 62
250
  6
CONTINUOUS
 10
11.0005196528
 20
34.6727201493
 11
11.0008096574
 21
34.7523468018
  0
LWPOLYLINE
  5
2B9
100
AcDbEntity
  8
0
100
AcDbPolyline
 62
250
  6
CONTINUOUS
 90
15
 70
0
 10
11.0008096574
 20
34.7523468018
 10
11.0013282574
 20
34.8288715128
 10
11.0016659628
 20
34.8649703566
 10
11.0020549485
 20
34.8993097742
 10
11.002494253
 20
34.9319401084
 10
11.0029751375
 20
34.9622121608
 10
11.0034984168
 20
34.9900779949
 10
11.0040632761
 20
35.0155855471
 10
11.0046585314
 20
35.0382294283
 10
11.0052850488
 20
35.0579561698
 10
11.0059419622
 20
35.0748192402
 10
11.0066154888
 20
35.0884736559
 10
11.0073010341
 20
35.0988044224
 10
11.0080031927
 20
35.1059265342
 10
11.0087219643
 20
35.1098399913
  0
LWPOLYLINE
  5
2BA
100
AcDbEntity
  8
0
100
AcDbPolyline
 62
7
  6
CONTINUOUS
 90
2
 70
0
 43
0.3500000006
 10
18.3999999504
 20
12.2771039429
 10
16.8999994926
 20
12.2771039429
  0
LINE
  5
2BB
100
AcDbEntity
  8
ASSI
100
AcDbLine
 62
7
  6
CONTINUOUS
 10
3.3848722771
 20
36.0342476215
 11
3.3633443637
 21
36.1342476215
  0
LWPOLYLINE
  5
2BC
100
AcDbEntity
  8
0
100
AcDbPolyline
 62
7
  6
CONTINUOUS
 90
4
 70
0
 43
0.3500000006
 10
16.0428570213
 20
13.6342465668
 10
15.4000001678
 20
13.6342465668
 10
15.4000001678
 20
15.1342470245
 10
18.3999999504
 20
14.2771045532
  0
LWPOLYLINE
  5
2BD
100
AcDbEntity
  8
TASTO
100
AcDbPolyline
 62
7
  6
CONTINUOUS
 90
5
 70
0
 10
-0.85
 20
25.8435669035
 10
-0.8654882101
 20
25.867619347
 10
-0.9059067214
 20
25.9444346094
 10
-0.939421979
 20
26.0244853321
 10
-0.9657657112
 20
26.1071467203
  0
LWPOLYLINE
  5
2BE
100
AcDbEntity
  8
0
100
AcDbPolyline
 62
7
  6
CONTINUOUS
 90
3
 70
0
 43
0.3500000006
 10
17.7571430969
 20
12.7771040955
 10
17.7571430969
 20
11.2771036377
 10
15.4000001678
 20
11.9199616241
  0
LWPOLYLINE
  5
2BF
100
AcDbEntity
  8
RACCORDO
100
AcDbPolyline
 62
250
  6
CONTINUOUS
 90
177
 70
0
 10
0.85
 20
20.3711220662
 10
0.8649701542
 20
20.3733813703
 10
0.8950040688
 20
20.3780882427
 10
0.9259481498
 20
20.3831015137
 10
0.957807456
 20
20.388427048
 10
0.9907600603
 20
20.3941465697
 10
1.0247898412
 20
20.4002503538
 10
1.0599129204
 20
20.406748125
 10
1.0963557351
 20
20.4137507826
 10
1.1341081215
 20
20.4212466279
 10
1.1731802436
 20
20.429247359
 10
1.2138290309
 20
20.4378989703
 10
1.2560909067
 20
20.4471979661
 10
1.2999294477
 20
20.457147841
 10
1.3454923131
 20
20.4679050753
 10
1.3928626477
 20
20.4794811553
 10
1.4419573067
 20
20.4918645931
 10
1.4926745152
 20
20.505177407
 10
1.5450066883
 20
20.5194117607
 10
1.5989614109
 20
20.5345754884
 10
1.6544596634
 20
20.5508141134
 10
1.7114735938
 20
20.5681124897
 10
1.770031054
 20
20.5864857604
 10
1.8301365806
 20
20.6061248817
 10
1.8918097799
 20
20.6270315685
 10
1.9550310457
 20
20.6492041016
 10
2.0197460955
 20
20.672828285
 10
2.0858979434
 20
20.6978740503
 10
2.1535435753
 20
20.7243714599
 10
2.2227996661
 20
20.7525965125
 10
2.2936373206
 20
20.782510261
 10
2.3660854339
 20
20.8141516438
 10
2.4403473656
 20
20.8479134861
 10
2.5164431006
 20
20.8837628104
 10
2.594352654
 20
20.9217325812
 10
2.6742194306
 20
20.9623145329
 10
2.7560564018
 20
21.0054688176
 10
2.8398505962
 20
21.0512352636
 10
2.9257065058
 20
21.1002251143
 10
3.0136314467
 20
21.1523901532
 10
3.1036181026
 20
21.2077785667
 10
3.1957490168
 20
21.2671461946
 10
3.2900110931
 20
21.3303976669
 10
3.3864174277
 20
21.3976283074
 10
3.4850898523
 20
21.4698799835
 10
3.5863283184
 20
21.5472912295
 10
3.6898328745
 20
21.6297234363
 10
3.794825498
 20
21.71780274
 10
3.9017642935
 20
21.8119955024
 10
4.0101911565
 20
21.9118352529
 10
4.1179537509
 20
22.0165488756
 10
4.2250941312
 20
22.1264940906
 10
4.331570243
 20
22.24131306
 10
4.4351035868
 20
22.3591593546
 10
4.5351537904
 20
22.479697857
 10
4.6322612262
 20
22.6032635982
 10
4.7257685117
 20
22.7290154015
 10
4.8151194848
 20
22.8560430515
 10
4.9008703078
 20
22.9852566955
 10
4.9840320851
 20
23.1185456823
 10
5.0651106847
 20
23.2564418397
 10
5.1436002387
 20
23.3984131886
 10
5.2189942473
 20
23.5447533293
 10
5.2917193912
 20
23.6967142138
 10
5.3613489897
 20
23.8530436936
 10
5.4260965022
 20
24.0102792716
 10
5.4854430538
 20
24.1679154395
 10
5.5399075193
 20
24.3264576454
 10
5.5892599823
 20
24.4839599311
 10
5.6331711898
 20
24.6392463513
 10
5.6719703948
 20
24.7934928789
 10
5.7064154399
 20
24.9482814405
 10
5.7367322306
 20
25.1038990902
 10
5.7626948614
 20
25.260058717
 10
5.7843834585
 20
25.4174809512
 10
5.8018805322
 20
25.5767747541
 10
5.8151035721
 20
25.7373310669
 10
5.8238851739
 20
25.8980434976
 10
5.8281459026
 20
26.0588268261
 10
5.8279651931
 20
26.2197662332
 10
5.8234139461
 20
26.3800109746
 10
5.8145031409
 20
26.5392157223
 10
5.8012217982
 20
26.6977258112
 10
5.7836078805
 20
26.8557265084
 10
5.7618654538
 20
27.012710117
 10
5.735790452
 20
27.1691843366
 10
5.7048086397
 20
27.3268574813
 10
5.6687273513
 20
27.4868495064
 10
5.6277392523
 20
27.6480403425
 10
5.5818481032
 20
27.8087782664
 10
5.5305921804
 20
27.9696544114
 10
5.4744332073
 20
28.1300776249
 10
5.4147601154
 20
28.2866228954
 10
5.3519588285
 20
28.4379263695
 10
5.2856434226
 20
28.5853521059
 10
5.2160450578
 20
28.7295670384
 10
5.1437590445
 20
28.8699042924
 10
5.0681900722
 20
29.0070308965
 10
4.9877833687
 20
29.1436145538
 10
4.9020396491
 20
29.2808159084
 10
4.8114581982
 20
29.4174743037
 10
4.7159820982
 20
29.5527754457
 10
4.614637507
 20
29.6876157221
 10
4.5083982667
 20
29.82109878
 10
4.4001289852
 20
29.9497213267
 10
4.2897983059
 20
30.0728938315
 10
4.1774375855
 20
30.1912060585
 10
4.0660055017
 20
30.3029237833
 10
3.9560093567
 20
30.407334218
 10
3.8469418483
 20
30.5051504359
 10
3.7402397481
 20
30.596777027
 10
3.6363398567
 20
30.6819336425
 10
3.5348053736
 20
30.7609008518
 10
3.4357626688
 20
30.8349245841
 10
3.3393223614
 20
30.9040607769
 10
3.2453738323
 20
30.9682536354
 10
3.1537115941
 20
31.0285814482
 10
3.0643446126
 20
31.0851310989
 10
2.9772639219
 20
31.137815796
 10
2.8922371368
 20
31.1874532879
 10
2.8092390674
 20
31.2341166291
 10
2.7282949036
 20
31.2777328254
 10
2.6492478297
 20
31.3189005352
 10
2.5721172852
 20
31.3576580847
 10
2.4968838306
 20
31.3939671885
 10
2.4233323315
 20
31.4283115757
 10
2.3514318074
 20
31.4607433041
 10
2.2812132388
 20
31.4912103435
 10
2.212554432
 20
31.5200402843
 10
2.1454143673
 20
31.5472686045
 10
2.0798340644
 20
31.5728598455
 10
2.015814389
 20
31.5970351888
 10
1.9533655531
 20
31.6197984794
 10
1.8924773447
 20
31.6411458865
 10
1.8331199933
 20
31.6612870752
 10
1.7752762772
 20
31.6802342395
 10
1.7189634181
 20
31.6979751955
 10
1.6642033105
 20
31.7146830399
 10
1.6109871444
 20
31.7303670116
 10
1.5593237297
 20
31.7450178788
 10
1.5092613907
 20
31.7587810302
 10
1.4608323934
 20
31.77165612
 10
1.4140044717
 20
31.7836434991
 10
1.3687291513
 20
31.7948896003
 10
1.3250306484
 20
31.8053980008
 10
1.2828847469
 20
31.8151651269
 10
1.2421703232
 20
31.8243266835
 10
1.2028982784
 20
31.8328888985
 10
1.1650577115
 20
31.8408455463
 10
1.128494796
 20
31.8483136513
 10
1.0932243227
 20
31.855297828
 10
1.0592315006
 20
31.8617934634
 10
1.0263181311
 20
31.8679037398
 10
0.994493818
 20
31.873633772
 10
0.9637489574
 20
31.8789784463
 10
0.9338565392
 20
31.8840256015
 10
0.9048214298
 20
31.8887805359
 10
0.8766387628
 20
31.8932379519
 10
0.8490669284
 20
31.8974697949
 10
0.8220955522
 20
31.9014826542
 10
0.7957350087
 20
31.905269941
 10
0.769774811
 20
31.9088838328
 10
0.7441631166
 20
31.9123341745
 10
0.7189517681
 20
31.9156111216
 10
0.6940858071
 20
31.9187373171
 10
0.6695136668
 20
31.9217189769
 10
0.645286914
 20
31.9245498854
 10
0.6215052904
 20
31.9272340381
 10
0.5981641826
 20
31.9297705233
 10
0.5752682039
 20
31.9321602528
 10
0.5529309362
 20
31.934409958
 10
0.5311638289
 20
31.9365175519
 10
0.5099554327
 20
31.9384851216
 10
0.4893849807
 20
31.9403256587
 10
0.469466576
 20
31.9420377965
 10
0.4501861157
 20
31.9436229017
 10
0.4136740388
 20
31.9464621376
  0
LWPOLYLINE
  5
2C0
100
AcDbEntity
  8
RACCORDO
100
AcDbPolyline
 62
250
  6
CONTINUOUS
 90
175
 70
0
 10
0.85
 20
20.5200802389
 10
0.8718981594
 20
20.5233826033
 10
0.9020896978
 20
20.5281008509
 10
0.9331765111
 20
20.5331394449
 10
0.9653345257
 20
20.5385412905
 10
0.9985465743
 20
20.5443204813
 10
1.0328278926
 20
20.5505026814
 10
1.0684065828
 20
20.5571517864
 10
1.1052643037
 20
20.5642863736
 10
1.1434095292
 20
20.5719362388
 10
1.183111963
 20
20.5801886451
 10
1.2243854214
 20
20.5890773529
 10
1.2671889847
 20
20.5986292661
 10
1.3117071132
 20
20.6089295094
 10
1.3579811139
 20
20.6200306365
 10
1.4059129442
 20
20.631953456
 10
1.4554705267
 20
20.6447406566
 10
1.5065961372
 20
20.6584278783
 10
1.5592610324
 20
20.6730586541
 10
1.6134715905
 20
20.6886909245
 10
1.6691599836
 20
20.7053627246
 10
1.7263064826
 20
20.7231281508
 10
1.7849920672
 20
20.7420766834
 10
1.8452144005
 20
20.7622756458
 10
1.9069146356
 20
20.7837730721
 10
1.9700953349
 20
20.8066370089
 10
2.034682001
 20
20.8309125632
 10
2.1007131547
 20
20.8566839263
 10
2.1683595019
 20
20.8840857714
 10
2.2375330098
 20
20.9131646198
 10
2.3082492138
 20
20.9440150436
 10
2.3808130713
 20
20.9768603512
 10
2.4551336196
 20
21.0117690662
 10
2.5311444362
 20
21.0488346335
 10
2.6091585752
 20
21.0883463442
 10
2.6890677591
 20
21.1304011721
 10
2.770770574
 20
21.1751116749
 10
2.8545716019
 20
21.2228323539
 10
2.9403698131
 20
21.2737048305
 10
3.028071794
 20
21.3278790462
 10
3.1179752623
 20
21.3857716731
 10
3.2099070473
 20
21.4475225533
 10
3.3038115923
 20
21.5133579909
 10
3.4001129805
 20
21.5838839897
 10
3.498838794
 20
21.6594870521
 10
3.5995666161
 20
21.7402362964
 10
3.7019910762
 20
21.8262916191
 10
3.8062799516
 20
21.9182576754
 10
3.9117040964
 20
22.0159823239
 10
4.0166631179
 20
22.1183793714
 10
4.1210806322
 20
22.2257304917
 10
4.2245483298
 20
22.3379712985
 10
4.3251836988
 20
22.4532437395
 10
4.422500323
 20
22.571021517
 10
4.5168144331
 20
22.6917030531
 10
4.607638794
 20
22.8146284022
 10
4.6943340525
 20
22.938811409
 10
4.7774920402
 20
23.0649821842
 10
4.8583628298
 20
23.195122022
 10
4.937069207
 20
23.3297856762
 10
5.0130302431
 20
23.4683737246
 10
5.0862409156
 20
23.611248422
 10
5.1569604543
 20
23.7595001971
 10
5.2243279851
 20
23.9119529015
 10
5.2868803262
 20
24.065454155
 10
5.3444061003
 20
24.2192328573
 10
5.3971614016
 20
24.3736883468
 10
5.444778926
 20
24.5272849759
 10
5.4871121241
 20
24.6787170145
 10
5.5246734509
 20
24.8289180676
 10
5.5580488819
 20
24.9797343182
 10
5.5873021703
 20
25.1313783779
 10
5.6123638306
 20
25.2834139992
 10
5.633380274
 20
25.4367687557
 10
5.6503409558
 20
25.5919413264
 10
5.6630891485
 20
25.7482347008
 10
5.6715339164
 20
25.9047880708
 10
5.6756751908
 20
26.0614072682
 10
5.6755191017
 20
26.2180685662
 10
5.6710892541
 20
26.3741630561
 10
5.6624539709
 20
26.5292479386
 10
5.6496517072
 20
26.683554781
 10
5.6326626001
 20
26.8374852224
 10
5.6115740746
 20
26.9904112537
 10
5.586343289
 20
27.1427491822
 10
5.5565501692
 20
27.296434825
 10
5.5217930179
 20
27.4523790525
 10
5.4821132749
 20
27.6093539014
 10
5.4376904593
 20
27.7660664333
 10
5.388273162
 20
27.9229978083
 10
5.3340022307
 20
28.0793421834
 10
5.2760135705
 20
28.2319791629
 10
5.2150834805
 20
28.3795829515
 10
5.1509798585
 20
28.5233812147
 10
5.0835167922
 20
28.6641539457
 10
5.0132559304
 20
28.8010907489
 10
4.9400065618
 20
28.9348828864
 10
4.8621495056
 20
29.0684040937
 10
4.7789702729
 20
29.2024796053
 10
4.6909999384
 20
29.3358411449
 10
4.5982749598
 20
29.468087988
 10
4.4999774934
 20
29.6000310849
 10
4.3967930069
 20
29.7304131806
 10
4.2913027187
 20
29.8559655645
 10
4.1839945029
 20
29.9764339154
 10
4.0748681186
 20
30.0921651914
 10
3.9662025398
 20
30.2011984218
 10
3.8589503974
 20
30.3032219504
 10
3.7529336209
 20
30.3990259383
 10
3.6488905365
 20
30.4885062566
 10
3.5474785
 20
30.5716582547
 10
3.4486627189
 20
30.6490291885
 10
3.3520882012
 20
30.7213352661
 10
3.2579553034
 20
30.7888017091
 10
3.1664326662
 20
30.8516555698
 10
3.0770304493
 20
30.9105390946
 10
2.9898176385
 20
30.9656639655
 10
2.9049377198
 20
31.0171846794
 10
2.8219601567
 20
31.0655889301
 10
2.7409390533
 20
31.1110374531
 10
2.6620028358
 20
31.1536419984
 10
2.5848114092
 20
31.1937604436
 10
2.5094629462
 20
31.2314942764
 10
2.4360525712
 20
31.2669335087
 10
2.364215224
 20
31.3003760822
 10
2.2939601008
 20
31.3319268232
 10
2.2254152164
 20
31.3616249278
 10
2.158367434
 20
31.3896444877
 10
2.0927901031
 20
31.4160766478
 10
2.0287741172
 20
31.4409620628
 10
1.9662664561
 20
31.4643895351
 10
1.9052955895
 20
31.4864177232
 10
1.8458709366
 20
31.5071149235
 10
1.787909945
 20
31.5265773194
 10
1.7314308728
 20
31.5448614385
 10
1.6764722741
 20
31.5620175175
 10
1.62298603
 20
31.5781235299
 10
1.5710046019
 20
31.5932256253
 10
1.5205737646
 20
31.6073648432
 10
1.4716666747
 20
31.6206044214
 10
1.424346358
 20
31.6329755204
 10
1.3786254625
 20
31.6445206978
 10
1.3343967334
 20
31.655314053
 10
1.2916999934
 20
31.6653847259
 10
1.2505468475
 20
31.6747661992
 10
1.2107814994
 20
31.6835324007
 10
1.1724206271
 20
31.6917103172
 10
1.1354747772
 20
31.6993255938
 10
1.0997751626
 20
31.7064438984
 10
1.0653370805
 20
31.7130868647
 10
1.0321552519
 20
31.7192766129
 10
1.0000294832
 20
31.7250741116
 10
0.9689691378
 20
31.730498309
 10
0.938966123
 20
31.7355657721
 10
0.9097969412
 20
31.7403296146
 10
0.8814687203
 20
31.7448071878
 10
0.853974382
 20
31.7490100922
 10
0.8270750675
 20
31.752980522
 10
0.8007671001
 20
31.7567373433
 10
0.775058208
 20
31.7602870552
 10
0.7497348423
 20
31.7636539152
 10
0.7247563456
 20
31.7668620649
 10
0.7001746235
 20
31.7699133108
 10
0.6759225675
 20
31.7728019985
 10
0.6519592692
 20
31.7755509178
 10
0.6283412627
 20
31.7781667771
 10
0.6051510235
 20
31.780624274
 10
0.5823900011
 20
31.7829391329
 10
0.5600705463
 20
31.7851269118
 10
0.5382912618
 20
31.7871651072
 10
0.5170664456
 20
31.7890659111
 10
0.4963917422
 20
31.7908467552
 10
0.4763364775
 20
31.7924941807
 10
0.4569150428
 20
31.7940174158
 10
0.4199795084
 20
31.7967342783
  0
LWPOLYLINE
  5
2C1
100
AcDbEntity
  8
RACCORDO
100
AcDbPolyline
 62
250
  6
CONTINUOUS
 90
42
 70
0
 10
-0.85
 20
24.804981129
 10
-0.9050765811
 20
24.8431519408
 10
-0.9765396472
 20
24.899965839
 10
-1.0475102503
 20
24.9637437945
 10
-1.1176875333
 20
25.0344641724
 10
-1.1850202999
 20
25.1130708322
 10
-1.2496537827
 20
25.2003837269
 10
-1.3110403033
 20
25.2956439688
 10
-1.3659789057
 20
25.3973138919
 10
-1.4137790007
 20
25.5058319723
 10
-1.45452262
 20
25.6205805406
 10
-1.486200383
 20
25.7382728379
 10
-1.5080608122
 20
25.8587841515
 10
-1.5204668109
 20
25.9818488977
 10
-1.5233073333
 20
26.1038816472
 10
-1.5160851579
 20
26.2247254876
 10
-1.4993786053
 20
26.3441145009
 10
-1.4749700801
 20
26.4583439559
 10
-1.4428413704
 20
26.5665769655
 10
-1.4034871744
 20
26.6693971818
 10
-1.3595943338
 20
26.7653595449
 10
-1.3116418247
 20
26.8537783691
 10
-1.2596065283
 20
26.9352996285
 10
-1.2053787192
 20
27.0105740191
 10
-1.149193172
 20
27.0796110828
 10
-1.0910738909
 20
27.1424497276
 10
-1.0325147029
 20
27.1998271862
 10
-0.9739875958
 20
27.2515959649
 10
-0.9151145288
 20
27.2979987778
 10
-0.8560697431
 20
27.3403591098
 10
-0.7973525203
 20
27.3787328915
 10
-0.7384779159
 20
27.4131332299
 10
-0.678153264
 20
27.4447742069
 10
-0.6167896679
 20
27.4739163829
 10
-0.5539934424
 20
27.5003030214
 10
-0.4873093092
 20
27.5243021715
 10
-0.4160003928
 20
27.5464439318
 10
-0.3408638983
 20
27.5661065505
 10
-0.2617425942
 20
27.5819093766
 10
-0.1785544966
 20
27.5933878597
 10
-0.091321683
 20
27.600972349
 10
0.0
 20
27.604647571
  0
LWPOLYLINE
  5
2C2
100
AcDbEntity
  8
RACCORDO
100
AcDbPolyline
 62
250
  6
CONTINUOUS
 90
42
 70
0
 10
-0.85
 20
24.9042950583
 10
-0.8560526306
 20
24.908633829
 10
-0.9232751501
 20
24.9631666935
 10
-0.9897112117
 20
25.0242671497
 10
-1.0545655399
 20
25.0921138734
 10
-1.1173240106
 20
25.1672587776
 10
-1.1773667739
 20
25.2503601692
 10
-1.2332557498
 20
25.3409538913
 10
-1.2833508682
 20
25.4376801531
 10
-1.3268691225
 20
25.5403766241
 10
-1.362920198
 20
25.6484421378
 10
-1.3904100761
 20
25.7594750574
 10
-1.4089971262
 20
25.8727203127
 10
-1.4184426641
 20
25.9875251348
 10
-1.4187179523
 20
26.1015103494
 10
-1.4100534091
 20
26.2141518327
 10
-1.3927224562
 20
26.3246006189
 10
-1.3677235858
 20
26.4301932848
 10
-1.3360356151
 20
26.5301899334
 10
-1.298371619
 20
26.62467467
 10
-1.2560006036
 20
26.7125943912
 10
-1.2101053609
 20
26.7935631189
 10
-1.1613385839
 20
26.8680944719
 10
-1.1102147982
 20
26.9366586927
 10
-1.057364256
 20
26.9994801467
 10
-1.0034405878
 20
27.0567119265
 10
-0.9488289297
 20
27.1087073858
 10
-0.894262012
 20
27.1555211344
 10
-0.8399630479
 20
27.197651537
 10
-0.785365574
 20
27.2359800376
 10
-0.7309856889
 20
27.2705093538
 10
-0.6768455803
 20
27.3015961444
 10
-0.6213759973
 20
27.3302813046
 10
-0.5648558471
 20
27.356405413
 10
-0.5072141023
 20
27.3800315213
 10
-0.4460949918
 20
27.4019566878
 10
-0.3807800664
 20
27.4219540668
 10
-0.3119967035
 20
27.4393382919
 10
-0.2394467433
 20
27.4537936034
 10
-0.1630968016
 20
27.4648257916
 10
-0.0832129167
 20
27.4718289039
 10
0.0
 20
27.4742338418
  0
LINE
  5
2C3
100
AcDbEntity
  8
0
100
AcDbLine
 62
7
  6
CONTINUOUS
 10
3.2333672024
 20
36.1342476215
 11
3.3
 21
36.0342476215
  0
LWPOLYLINE
  5
2C4
100
AcDbEntity
  8
0
100
AcDbPolyline
 62
7
  6
CONTINUOUS
 90
10
 70
0
 43
0.3500000006
 10
1.0714285848
 20
46.3842474976
 10
1.1428571477
 20
46.2413896637
 10
1.1428571477
 20
46.1699630127
 10
1.0000000219
 20
46.0271051788
 10
0.9285714591
 20
46.0271051788
 10
0.8571428254
 20
46.0985318298
 10
0.8571428254
 20
46.1699630127
 10
0.9285714591
 20
46.3128208466
 10
1.0000000219
 20
46.3842474976
 10
1.0714285848
 20
46.3842474976
  0
LINE
  5
2C5
100
AcDbEntity
  8
TRECCIA
100
AcDbLine
 62
250
  6
CONTINUOUS
 10
-0.85
 20
24.3342476215
 11
0.85
 21
24.3342476215
  0
LWPOLYLINE
  5
2C6
100
AcDbEntity
  8
RACCORDO
100
AcDbPolyline
 62
250
  6
CONTINUOUS
 90
43
 70
0
 10
0.0
 20
27.604647571
 10
0.0570022572
 20
27.6039184978
 10
0.1157272607
 20
27.6005132647
 10
0.1762307417
 20
27.594382125
 10
0.2386765444
 20
27.5857187144
 10
0.3030114991
 20
27.57422779
 10
0.3689774525
 20
27.5591181669
 10
0.4367645985
 20
27.540378003
 10
0.5063109133
 20
27.5178960219
 10
0.5769942575
 20
27.49072053
 10
0.6489596423
 20
27.4588554071
 10
0.72216672
 20
27.4221616457
 10
0.7957097248
 20
27.3794666508
 10
0.8697826695
 20
27.3307252436
 10
0.9442077376
 20
27.2758381744
 10
1.0174763307
 20
27.213556618
 10
1.08983672
 20
27.1434995286
 10
1.1608565455
 20
27.0659185946
 10
1.227902768
 20
26.9805689876
 10
1.2908598169
 20
26.8865652011
 10
1.3493565039
 20
26.7847874635
 10
1.4003030553
 20
26.6777870064
 10
1.4428370822
 20
26.5656348561
 10
1.4772724378
 20
26.4485242227
 10
1.5023789653
 20
26.3293385086
 10
1.5175920415
 20
26.2079862655
 10
1.523214145
 20
26.0849666598
 10
1.5195637168
 20
25.9640962566
 10
1.5061915362
 20
25.8456591624
 10
1.4837770252
 20
25.7297662329
 10
1.4545923222
 20
25.6198988295
 10
1.4188550061
 20
25.5171083139
 10
1.3768759336
 20
25.4205260459
 10
1.3311369843
 20
25.3306245862
 10
1.2820931631
 20
25.2478097065
 10
1.2296931146
 20
25.1716855054
 10
1.1755844504
 20
25.101446211
 10
1.1199650754
 20
25.0370393287
 10
1.0628493704
 20
24.9784622856
 10
1.0055330489
 20
24.9249528752
 10
0.9484737896
 20
24.8766432724
 10
0.8912773149
 20
24.8333110759
 10
0.85
 20
24.8047779993
  0
LWPOLYLINE
  5
2C7
100
AcDbEntity
  8
RACCORDO
100
AcDbPolyline
 62
250
  6
CONTINUOUS
 90
42
 70
0
 10
0.0
 20
27.4742338418
 10
0.0518659002
 20
27.473261533
 10
0.1056260061
 20
27.4702636956
 10
0.1611964066
 20
27.4650073831
 10
0.2183566726
 20
27.4572591675
 10
0.2771012082
 20
27.4467838568
 10
0.3376350584
 20
27.4332937686
 10
0.3997924512
 20
27.4164888491
 10
0.4633566098
 20
27.3960813288
 10
0.5284016138
 20
27.3717067259
 10
0.5945912344
 20
27.3430473481
 10
0.6616509022
 20
27.309759444
 10
0.7296523031
 20
27.2713255889
 10
0.7981398488
 20
27.2273604639
 10
0.8665986236
 20
27.1775059674
 10
0.9348554216
 20
27.1211594394
 10
1.0024156642
 20
27.0577496761
 10
1.068269862
 20
26.9871155285
 10
1.1313723368
 20
26.9093114674
 10
1.1911914977
 20
26.8237119186
 10
1.2463685123
 20
26.7306895883
 10
1.2949945289
 20
26.6322564944
 10
1.3364115913
 20
26.5290862636
 10
1.370159804
 20
26.4213690288
 10
1.3953503909
 20
26.3109002581
 10
1.4117962776
 20
26.1981765825
 10
1.4192795174
 20
26.0840524571
 10
1.4176696485
 20
25.9711026192
 10
1.4073394015
 20
25.8599987743
 10
1.3887377733
 20
25.7514546286
 10
1.3628320208
 20
25.6480669038
 10
1.3307897375
 20
25.5508966614
 10
1.2934284893
 20
25.4595904347
 10
1.2516585834
 20
25.3744131342
 10
1.2064933114
 20
25.2956719655
 10
1.1586833319
 20
25.2231278451
 10
1.1085909179
 20
25.1561562743
 10
1.0567898604
 20
25.0946006425
 10
1.0039532988
 20
25.0384143308
 10
0.9503790668
 20
24.9871589588
 10
0.8967855921
 20
24.940858989
 10
0.85
 20
24.9042660151
  0
LWPOLYLINE
  5
2C8
100
AcDbEntity
  8
RACCORDO
100
AcDbPolyline
 62
250
  6
CONTINUOUS
 90
173
 70
0
 10
-0.4938080306
 20
31.9399385756
 10
-0.5149948731
 20
31.9380261605
 10
-0.5366981208
 20
31.9359859577
 10
-0.5589193459
 20
31.9338180201
 10
-0.5816155253
 20
31.9315086364
 10
-0.6047707737
 20
31.9290595598
 10
-0.6284009765
 20
31.9264690371
 10
-0.6525107672
 20
31.9237180971
 10
-0.6770662974
 20
31.9208120578
 10
-0.7021014155
 20
31.917745601
 10
-0.7277223001
 20
31.9144838009
 10
-0.7539099591
 20
31.9110321854
 10
-0.7806833846
 20
31.9073852264
 10
-0.8082057308
 20
31.9034914144
 10
-0.8364765229
 20
31.8993549717
 10
-0.8654962358
 20
31.8949716757
 10
-0.8954294483
 20
31.8902773496
 10
-0.9262712078
 20
31.8852778597
 10
-0.9580264671
 20
31.879967339
 10
-0.9908746635
 20
31.8742640111
 10
-1.0248005481
 20
31.8681774269
 10
-1.0598193699
 20
31.8616980344
 10
-1.0961563138
 20
31.8547154018
 10
-1.133801925
 20
31.8472409785
 10
-1.1727656582
 20
31.8392633134
 10
-1.2133010627
 20
31.8306376238
 10
-1.2554435952
 20
31.8213674693
 10
-1.2991577989
 20
31.8114492878
 10
-1.3445908524
 20
31.8007276131
 10
-1.3918249416
 20
31.7891911276
 10
-1.4407778805
 20
31.7768511449
 10
-1.4913502901
 20
31.7635861445
 10
-1.5435354965
 20
31.7494037162
 10
-1.5973401736
 20
31.7342962647
 10
-1.6526849647
 20
31.7181194906
 10
-1.7095418468
 20
31.7008886653
 10
-1.767938843
 20
31.6825885095
 10
-1.8278806659
 20
31.6630288968
 10
-1.8893870768
 20
31.6422081832
 10
-1.9524383143
 20
31.6201280016
 10
-2.0169798072
 20
31.5966031386
 10
-2.082955221
 20
31.5716630959
 10
-2.1504208901
 20
31.5452783569
 10
-2.2194912469
 20
31.5171751781
 10
-2.2901366227
 20
31.4873920504
 10
-2.3623866862
 20
31.4558904618
 10
-2.4364448755
 20
31.4222811597
 10
-2.5123308664
 20
31.3865968584
 10
-2.5900249832
 20
31.3488048128
 10
-2.6696716367
 20
31.3084175733
 10
-2.7512836183
 20
31.2654754898
 10
-2.8348481365
 20
31.2199381674
 10
-2.920471228
 20
31.1711970271
 10
-3.0081607083
 20
31.1192997387
 10
-3.0979087619
 20
31.0641985658
 10
-3.1897979793
 20
31.0051418038
 10
-3.2838142454
 20
30.9422236829
 10
-3.3799716753
 20
30.8753498748
 10
-3.4783952049
 20
30.8034858087
 10
-3.5793797339
 20
30.7264969075
 10
-3.6826303625
 20
30.6445175972
 10
-3.7873873276
 20
30.5569167797
 10
-3.8941106388
 20
30.463229926
 10
-4.0023402864
 20
30.3639213584
 10
-4.1099364777
 20
30.2597532522
 10
-4.2169459026
 20
30.1503650798
 10
-4.3233218712
 20
30.0361171664
 10
-4.4267845215
 20
29.918853018
 10
-4.5268009381
 20
29.798894814
 10
-4.6239040363
 20
29.6759202535
 10
-4.7174127003
 20
29.5508061837
 10
-4.8067658495
 20
29.4244590467
 10
-4.8925245644
 20
29.2959723282
 10
-4.9756909706
 20
29.1635034162
 10
-5.0567517016
 20
29.0265572868
 10
-5.1352201237
 20
28.8856287753
 10
-5.2106384619
 20
28.7403600036
 10
-5.2834433711
 20
28.5895023138
 10
-5.3531981964
 20
28.4343041343
 10
-5.4181351968
 20
28.2781532995
 10
-5.4777476312
 20
28.1215240915
 10
-5.5325422407
 20
27.9639422153
 10
-5.5822715087
 20
27.8073727867
 10
-5.626596916
 20
27.6530082149
 10
-5.6658569816
 20
27.4996561955
 10
-5.7008197457
 20
27.3457047863
 10
-5.7317158024
 20
27.1908815727
 10
-5.7583145576
 20
27.0354589636
 10
-5.7806922688
 20
26.8786421909
 10
-5.7989434269
 20
26.7198088927
 10
-5.8129735411
 20
26.559581382
 10
-5.8225753964
 20
26.3990319099
 10
-5.8276712992
 20
26.2382273584
 10
-5.828338943
 20
26.077100864
 10
-5.8246041939
 20
25.9165241083
 10
-5.8164694283
 20
25.7568222035
 10
-5.8039322697
 20
25.5976701013
 10
-5.7870114539
 20
25.4389642612
 10
-5.7659038895
 20
25.281229462
 10
-5.740412668
 20
25.1239409844
 10
-5.7099657997
 20
24.9654210013
 10
-5.6743755227
 20
24.8045621439
 10
-5.6338295988
 20
24.642471744
 10
-5.5883193246
 20
24.4807940242
 10
-5.5373757434
 20
24.3189186653
 10
-5.4814678118
 20
24.1574560294
 10
-5.4219936958
 20
23.9998814671
 10
-5.3593266573
 20
23.8475540228
 10
-5.2930934345
 20
23.6991148495
 10
-5.223572408
 20
23.5539625151
 10
-5.1513726754
 20
23.4127957484
 10
-5.0758851391
 20
23.2749159641
 10
-4.9955608868
 20
23.1376257
 10
-4.9099180437
 20
22.9997743697
 10
-4.8194384847
 20
22.862512587
 10
-4.7240189216
 20
22.7265946567
 10
-4.622670863
 20
22.5910977404
 10
-4.5163828005
 20
22.4569447273
 10
-4.4080169208
 20
22.3276585747
 10
-4.2975297104
 20
22.2038241027
 10
-4.184964683
 20
22.0848566414
 10
-4.0733145656
 20
21.9725249777
 10
-3.9630931537
 20
21.8675540041
 10
-3.8537866518
 20
21.7692189882
 10
-3.7468464017
 20
21.6771142874
 10
-3.6427147589
 20
21.5915251393
 10
-3.5409493677
 20
21.5121664205
 10
-3.4416745025
 20
21.4377769261
 10
-3.3449990404
 20
21.3682975957
 10
-3.2508141042
 20
21.3037875595
 10
-3.1589173367
 20
21.243162878
 10
-3.0693183871
 20
21.1863358035
 10
-2.9820076063
 20
21.1333941267
 10
-2.8967536896
 20
21.0835172031
 10
-2.8135316832
 20
21.0366320615
 10
-2.7323665408
 20
20.9928117004
 10
-2.6531018194
 20
20.9514544215
 10
-2.5757568162
 20
20.9125221666
 10
-2.5003122339
 20
20.8760530118
 10
-2.4265537384
 20
20.8415594553
 10
-2.3544508523
 20
20.8089892582
 10
-2.2840340529
 20
20.778394671
 10
-2.215180438
 20
20.7494449231
 10
-2.1478488647
 20
20.7221038866
 10
-2.0820804759
 20
20.6964076973
 10
-2.0178757974
 20
20.6721339782
 10
-1.9552448274
 20
20.6492786544
 10
-1.8941775676
 20
20.6278458065
 10
-1.8346445496
 20
20.6076252887
 10
-1.7766284214
 20
20.588604985
 10
-1.7201465349
 20
20.5707970155
 10
-1.6652214775
 20
20.5540275879
 10
-1.6118442138
 20
20.5382875048
 10
-1.5600237792
 20
20.5235859664
 10
-1.5098098669
 20
20.5097767757
 10
-1.4612349441
 20
20.4968603268
 10
-1.4142665436
 20
20.4848362277
 10
-1.3688569575
 20
20.4735571014
 10
-1.3250308027
 20
20.4630193783
 10
-1.2827634623
 20
20.4532266294
 10
-1.2419333775
 20
20.4440421884
 10
-1.2025517699
 20
20.4354597949
 10
-1.1646074179
 20
20.4274857101
 10
-1.1279450981
 20
20.4200020508
 10
-1.0925797204
 20
20.4130041366
 10
-1.0584963749
 20
20.4064966484
 10
-1.025495108
 20
20.400375744
 10
-0.9935855013
 20
20.3946362375
 10
-0.9627579732
 20
20.3892833151
 10
-0.9327838255
 20
20.3842286923
 10
-0.9036677323
 20
20.3794669938
 10
-0.8754050196
 20
20.3750035952
 10
-0.85
 20
20.3711106618
  0
LWPOLYLINE
  5
2C9
100
AcDbEntity
  8
RACCORDO
100
AcDbPolyline
 62
250
  6
CONTINUOUS
 90
172
 70
0
 10
-0.5013049844
 20
31.7904308944
 10
-0.5224675846
 20
31.7885971468
 10
-0.5441277147
 20
31.7866236676
 10
-0.5662581751
 20
31.7845291783
 10
-0.5888379354
 20
31.7823009726
 10
-0.6118734601
 20
31.7799190586
 10
-0.63538282
 20
31.7773961796
 10
-0.6593302816
 20
31.7747243211
 10
-0.6837394252
 20
31.7718808836
 10
-0.7087236092
 20
31.7688617364
 10
-0.7342651608
 20
31.7656591728
 10
-0.7603751634
 20
31.7622522229
 10
-0.7872177118
 20
31.7586202938
 10
-0.8147947793
 20
31.7547523151
 10
-0.8431028308
 20
31.7506297453
 10
-0.8723042781
 20
31.7462217024
 10
-0.9023959329
 20
31.7415151637
 10
-0.933381184
 20
31.7364897351
 10
-0.9654371906
 20
31.731102102
 10
-0.9985477414
 20
31.7253381132
 10
-1.0327272919
 20
31.7191724759
 10
-1.068202498
 20
31.7125414329
 10
-1.1049559099
 20
31.7054262965
 10
-1.1429954581
 20
31.6977976305
 10
-1.1825871549
 20
31.6895689948
 10
-1.2237442479
 20
31.6807068861
 10
-1.2664269596
 20
31.6711844591
 10
-1.3108186131
 20
31.6609171492
 10
-1.3569601341
 20
31.6498527892
 10
-1.4047548166
 20
31.6379705921
 10
-1.4541720656
 20
31.6252279046
 10
-1.5051553037
 20
31.6115891322
 10
-1.5576755388
 20
31.5970112064
 10
-1.6117383857
 20
31.5814369209
 10
-1.6672752825
 20
31.5648288626
 10
-1.7242669243
 20
31.547133191
 10
-1.782794954
 20
31.528260687
 10
-1.8428563224
 20
31.5081446798
 10
-1.9043916453
 20
31.4867374734
 10
-1.967404251
 20
31.4639707591
 10
-2.0318201527
 20
31.4397995171
 10
-2.0976763486
 20
31.4141403073
 10
-2.1651416058
 20
31.3868591364
 10
-2.2341287763
 20
31.3579095908
 10
-2.3046541127
 20
31.3271978389
 10
-2.3770209454
 20
31.2945023832
 10
-2.4511400014
 20
31.2597549583
 10
-2.5269459294
 20
31.2228632976
 10
-2.6047494897
 20
31.1835416498
 10
-2.6844444511
 20
31.1416934774
 10
-2.7659301313
 20
31.0972069306
 10
-2.8495076009
 20
31.0497313791
 10
-2.935080306
 20
30.9991236845
 10
-3.0225562593
 20
30.9452333657
 10
-3.1122266539
 20
30.8876490425
 10
-3.2039210602
 20
30.8262305212
 10
-3.2975898246
 20
30.7607496389
 10
-3.3936555358
 20
30.6906047835
 10
-3.4921379985
 20
30.6154192069
 10
-3.5926248546
 20
30.5351197337
 10
-3.6948328082
 20
30.4495312038
 10
-3.7989211971
 20
30.3580598922
 10
-3.9041581925
 20
30.2608618829
 10
-4.008968569
 20
30.1589958424
 10
-4.1132728706
 20
30.0521830383
 10
-4.2166487898
 20
29.9405030505
 10
-4.3172220302
 20
29.8257986009
 10
-4.4145182847
 20
29.7085794516
 10
-4.5088375634
 20
29.5884689414
 10
-4.5996645522
 20
29.4661639831
 10
-4.6863686064
 20
29.3426395901
 10
-4.7695448676
 20
29.2171681568
 10
-4.8504158728
 20
29.087828215
 10
-4.9291005039
 20
28.954089127
 10
-5.0050471893
 20
28.8165092833
 10
-5.0782763791
 20
28.6746883164
 10
-5.1490613001
 20
28.5275205706
 10
-5.2165480322
 20
28.3761620241
 10
-5.2792810753
 20
28.2237183958
 10
-5.3370565026
 20
28.0709257034
 10
-5.390124386
 20
27.9173959678
 10
-5.4380999233
 20
27.7646964614
 10
-5.4808258286
 20
27.6141525408
 10
-5.5188245892
 20
27.4648103295
 10
-5.5526960043
 20
27.3147977332
 10
-5.5825000719
 20
27.1639140747
 10
-5.6081650769
 20
27.0125821423
 10
-5.6298473149
 20
26.8598057319
 10
-5.6475308419
 20
26.7050720612
 10
-5.6610433836
 20
26.5490894626
 10
-5.6702800738
 20
26.3926874521
 10
-5.6752265214
 20
26.2360444827
 10
-5.6758736807
 20
26.0792011962
 10
-5.6722284932
 20
25.9227857074
 10
-5.6643436467
 20
25.7672218605
 10
-5.6522472396
 20
25.612298682
 10
-5.6359187318
 20
25.4576924991
 10
-5.6154396005
 20
25.3040456799
 10
-5.590763252
 20
25.1509273056
 10
-5.5614800563
 20
24.9964319112
 10
-5.5271923764
 20
24.8396593976
 10
-5.4879317623
 20
24.6818211444
 10
-5.4438690989
 20
24.5241992418
 10
-5.3947506686
 20
24.3663043143
 10
-5.3407176737
 20
24.2089577301
 10
-5.2829078374
 20
24.0553128959
 10
-5.2221006176
 20
23.9067074858
 10
-5.15807758
 20
23.7619285526
 10
-5.0906786029
 20
23.6202369628
 10
-5.0204918437
 20
23.4824876981
 10
-4.9473271579
 20
23.3479699068
 10
-4.8695493742
 20
23.2137556581
 10
-4.7864636788
 20
23.0790453483
 10
-4.6986008195
 20
22.9451088648
 10
-4.6059394817
 20
22.8122634254
 10
-4.5076419712
 20
22.6796751289
 10
-4.404418121
 20
22.5486465827
 10
-4.2988474096
 20
22.422459668
 10
-4.1913964259
 20
22.3013445789
 10
-4.0820764016
 20
22.1849674702
 10
-3.9732113839
 20
22.0753421859
 10
-3.8657538678
 20
21.972775239
 10
-3.7595097134
 20
21.8764548154
 10
-3.6552425397
 20
21.7865055341
 10
-3.5536159696
 20
21.7029325799
 10
-3.4545818264
 20
21.6251717749
 10
-3.3577851976
 20
21.5525022276
 10
-3.2634290844
 20
21.4846975787
 10
-3.1716825219
 20
21.4215285023
 10
-3.0820538935
 20
21.362348733
 10
-2.9946173141
 20
21.3069484618
 10
-2.9095194457
 20
21.2551741051
 10
-2.8263245733
 20
21.2065335216
 10
-2.7450885997
 20
21.1608666816
 10
-2.6659433691
 20
21.1180628182
 10
-2.5885445668
 20
21.0777599013
 10
-2.512990708
 20
21.0398555674
 10
-2.4393791459
 20
21.0042596659
 10
-2.3673427635
 20
20.9706712103
 10
-2.29689183
 20
20.9389843862
 10
-2.2281556368
 20
20.9091597626
 10
-2.1609190325
 20
20.8810216438
 10
-2.0951551325
 20
20.8544779663
 10
-2.0309562591
 20
20.8294882877
 10
-1.9682693971
 20
20.8059639935
 10
-1.9071220781
 20
20.7838459286
 10
-1.8475237124
 20
20.7630654547
 10
-1.7893929232
 20
20.7435267039
 10
-1.7327476046
 20
20.7251728228
 10
-1.6776257079
 20
20.7079529741
 10
-1.6239801079
 20
20.6917890382
 10
-1.5718433142
 20
20.6766345241
 10
-1.521260912
 20
20.6624479162
 10
-1.472206961
 20
20.6491656634
 10
-1.4247452102
 20
20.636756382
 10
-1.378888364
 20
20.6251771681
 10
-1.3345291845
 20
20.6143534822
 10
-1.2917082075
 20
20.6042560129
 10
-1.2504371122
 20
20.594851031
 10
-1.2105591249
 20
20.5860640972
 10
-1.1720913741
 20
20.5778680638
 10
-1.1350444288
 20
20.5702371196
 10
-1.0992478612
 20
20.5631051077
 10
-1.0647171337
 20
20.5564502165
 10
-1.0314469959
 20
20.5502502378
 10
-0.9992354499
 20
20.5444438518
 10
-0.9680918755
 20
20.5390118995
 10
-0.9380082043
 20
20.5339377726
 10
-0.9087592562
 20
20.529168216
 10
-0.8803520667
 20
20.5246855939
 10
-0.852779684
 20
20.5204782972
 10
-0.85
 20
20.5200688292
  0
LWPOLYLINE
  5
2CA
100
AcDbEntity
  8
RACCORDO
100
AcDbPolyline
 62
250
  6
CONTINUOUS
 90
3
 70
0
 10
-0.4335008444
 20
31.9449507975
 10
-0.4530360168
 20
31.9433940717
 10
-0.4938080306
 20
31.9399385756
  0
LWPOLYLINE
  5
2CB
100
AcDbEntity
  8
RACCORDO
100
AcDbPolyline
 62
250
  6
CONTINUOUS
 90
3
 70
0
 10
-0.4408978279
 20
31.7952277465
 10
-0.460499676
 20
31.7937472981
 10
-0.5013049844
 20
31.7904308944
  0
LINE
  5
2CC
100
AcDbEntity
  8
RACCORDO
100
AcDbLine
 62
250
  6
CONTINUOUS
 10
-0.3961686095
 20
31.9477372009
 11
-0.4335008444
 21
31.9449507975
  0
LINE
  5
2CD
100
AcDbEntity
  8
RACCORDO
100
AcDbLine
 62
250
  6
CONTINUOUS
 10
-0.4033581119
 20
31.7978767828
 11
-0.4408978279
 21
31.7952277465
  0
LINE
  5
2CE
100
AcDbEntity
  8
RACCORDO
100
AcDbLine
 62
250
  6
CONTINUOUS
 10
-0.3612901166
 20
31.9501251198
 11
-0.3961686095
 21
31.9477372009
  0
LINE
  5
2CF
100
AcDbEntity
  8
RACCORDO
100
AcDbLine
 62
250
  6
CONTINUOUS
 10
-0.3681528269
 20
31.8001231379
 11
-0.4033581119
 21
31.7978767828
  0
LINE
  5
2D0
100
AcDbEntity
  8
RACCORDO
100
AcDbLine
 62
250
  6
CONTINUOUS
 10
-0.3288510942
 20
31.9521649122
 11
-0.3612901166
 21
31.9501251198
  0
LINE
  5
2D1
100
AcDbEntity
  8
RACCORDO
100
AcDbLine
 62
250
  6
CONTINUOUS
 10
-0.3353309876
 20
31.8020242801
 11
-0.3681528269
 21
31.8001231379
  0
LINE
  5
2D2
100
AcDbEntity
  8
RACCORDO
100
AcDbLine
 62
250
  6
CONTINUOUS
 10
-0.2988177554
 20
31.9538890671
 11
-0.3288510942
 21
31.9521649122
  0
LINE
  5
2D3
100
AcDbEntity
  8
RACCORDO
100
AcDbLine
 62
250
  6
CONTINUOUS
 10
-0.2710996665
 20
31.9553466894
 11
-0.2988177554
 21
31.9538890671
  0
LINE
  5
2D4
100
AcDbEntity
  8
RACCORDO
100
AcDbLine
 62
250
  6
CONTINUOUS
 10
-0.3048967053
 20
31.8036132501
 11
-0.3353309876
 21
31.8020242801
  0
LINE
  5
2D5
100
AcDbEntity
  8
RACCORDO
100
AcDbLine
 62
250
  6
CONTINUOUS
 10
-0.2454887224
 20
31.956581961
 11
-0.2710996665
 21
31.9553466894
  0
LINE
  5
2D6
100
AcDbEntity
  8
RACCORDO
100
AcDbLine
 62
250
  6
CONTINUOUS
 10
-0.2767398143
 20
31.8049343341
 11
-0.3048967053
 21
31.8036132501
  0
LINE
  5
2D7
100
AcDbEntity
  8
RACCORDO
100
AcDbLine
 62
250
  6
CONTINUOUS
 10
-0.2104644081
 20
31.9580906015
 11
-0.2454887224
 21
31.956581961
  0
LINE
  5
2D8
100
AcDbEntity
  8
RACCORDO
100
AcDbLine
 62
250
  6
CONTINUOUS
 10
-0.2385329151
 20
31.8065090707
 11
-0.2767398143
 21
31.8049343341
  0
LINE
  5
2D9
100
AcDbEntity
  8
RACCORDO
100
AcDbLine
 62
250
  6
CONTINUOUS
 10
-0.1781336714
 20
31.9593024963
 11
-0.2104644081
 21
31.9580906015
  0
LINE
  5
2DA
100
AcDbEntity
  8
RACCORDO
100
AcDbLine
 62
250
  6
CONTINUOUS
 10
-0.2043787804
 20
31.8077022371
 11
-0.2385329151
 21
31.8065090707
  0
LINE
  5
2DB
100
AcDbEntity
  8
RACCORDO
100
AcDbLine
 62
250
  6
CONTINUOUS
 10
-0.146871782
 20
31.9603099747
 11
-0.1781336714
 21
31.9593024963
  0
LINE
  5
2DC
100
AcDbEntity
  8
RACCORDO
100
AcDbLine
 62
250
  6
CONTINUOUS
 10
-0.1626892839
 20
31.8089128471
 11
-0.2043787804
 21
31.8077022371
  0
LINE
  5
2DD
100
AcDbEntity
  8
RACCORDO
100
AcDbLine
 62
250
  6
CONTINUOUS
 10
-0.1155952586
 20
31.9611551899
 11
-0.146871782
 21
31.9603099747
  0
LINE
  5
2DE
100
AcDbEntity
  8
RACCORDO
100
AcDbLine
 62
250
  6
CONTINUOUS
 10
-0.1322547036
 20
31.8096185371
 11
-0.1626892839
 21
31.8089128471
  0
LINE
  5
2DF
100
AcDbEntity
  8
RACCORDO
100
AcDbLine
 62
250
  6
CONTINUOUS
 10
-0.0840580533
 20
31.9618360412
 11
-0.1155952586
 21
31.9611551899
  0
LINE
  5
2E0
100
AcDbEntity
  8
RACCORDO
100
AcDbLine
 62
250
  6
CONTINUOUS
 10
-0.0914420767
 20
31.8103893958
 11
-0.1322547036
 21
31.8096185371
  0
LINE
  5
2E1
100
AcDbEntity
  8
RACCORDO
100
AcDbLine
 62
250
  6
CONTINUOUS
 10
-0.0508880255
 20
31.8110690504
 11
-0.0914420767
 21
31.8103893958
  0
LINE
  5
2E2
100
AcDbEntity
  8
RACCORDO
100
AcDbLine
 62
250
  6
CONTINUOUS
 10
-0.0527142226
 20
31.9623273296
 11
-0.0840580533
 21
31.9618360412
  0
LINE
  5
2E3
100
AcDbEntity
  8
RACCORDO
100
AcDbLine
 62
250
  6
CONTINUOUS
 10
-0.0204029861
 20
31.8114061668
 11
-0.0508880255
 21
31.8110690504
  0
LINE
  5
2E4
100
AcDbEntity
  8
RACCORDO
100
AcDbLine
 62
250
  6
CONTINUOUS
 10
-0.0320902041
 20
31.9625359977
 11
-0.0527142226
 21
31.9623273296
  0
LINE
  5
2E5
100
AcDbEntity
  8
RACCORDO
100
AcDbLine
 62
250
  6
CONTINUOUS
 10
-0.0108243853
 20
31.9626469139
 11
-0.0320902041
 21
31.9625359977
  0
LWPOLYLINE
  5
2E6
100
AcDbEntity
  8
RACCORDO
100
AcDbPolyline
 62
250
  6
CONTINUOUS
 90
3
 70
0
 10
0.0
 20
31.811452896
 10
-0.0100174552
 20
31.8114598818
 10
-0.0204029861
 20
31.8114061668
  0
LINE
  5
2E7
100
AcDbEntity
  8
RACCORDO
100
AcDbLine
 62
250
  6
CONTINUOUS
 10
0.0100768031
 20
31.9626534883
 11
-0.0108243853
 21
31.9626469139
  0
LWPOLYLINE
  5
2E8
100
AcDbEntity
  8
RACCORDO
100
AcDbPolyline
 62
250
  6
CONTINUOUS
 90
3
 70
0
 10
0.0194391268
 20
31.811440362
 10
0.0094529279
 20
31.8114940243
 10
0.0
 20
31.811452896
  0
LINE
  5
2E9
100
AcDbEntity
  8
RACCORDO
100
AcDbLine
 62
250
  6
CONTINUOUS
 10
0.0309595992
 20
31.9625446694
 11
0.0100768031
 21
31.9626534883
  0
LINE
  5
2EA
100
AcDbEntity
  8
RACCORDO
100
AcDbLine
 62
250
  6
CONTINUOUS
 10
0.0530208615
 20
31.9623211104
 11
0.0309595992
 21
31.9625446694
  0
LINE
  5
2EB
100
AcDbEntity
  8
RACCORDO
100
AcDbLine
 62
250
  6
CONTINUOUS
 10
0.0750447584
 20
31.961998083
 11
0.0530208615
 21
31.9623211104
  0
LWPOLYLINE
  5
2EC
100
AcDbEntity
  8
RACCORDO
100
AcDbPolyline
 62
250
  6
CONTINUOUS
 90
3
 70
0
 10
0.1037445938
 20
31.8101831475
 10
0.0618471591
 20
31.8108847074
 10
0.0194391268
 20
31.811440362
  0
LINE
  5
2ED
100
AcDbEntity
  8
RACCORDO
100
AcDbLine
 62
250
  6
CONTINUOUS
 10
0.1342491823
 20
31.8095699259
 11
0.1037445938
 21
31.8101831475
  0
LINE
  5
2EE
100
AcDbEntity
  8
RACCORDO
100
AcDbLine
 62
250
  6
CONTINUOUS
 10
0.1071980638
 20
31.9613549575
 11
0.0750447584
 21
31.961998083
  0
LINE
  5
2EF
100
AcDbEntity
  8
RACCORDO
100
AcDbLine
 62
250
  6
CONTINUOUS
 10
0.1649227736
 20
31.8088554687
 11
0.1342491823
 21
31.8095699259
  0
LINE
  5
2F0
100
AcDbEntity
  8
RACCORDO
100
AcDbLine
 62
250
  6
CONTINUOUS
 10
0.1385338178
 20
31.9605512107
 11
0.1071980638
 21
31.9613549575
  0
LINE
  5
2F1
100
AcDbEntity
  8
RACCORDO
100
AcDbLine
 62
250
  6
CONTINUOUS
 10
0.1955544021
 20
31.8079906966
 11
0.1649227736
 21
31.8088554687
  0
LINE
  5
2F2
100
AcDbEntity
  8
RACCORDO
100
AcDbLine
 62
250
  6
CONTINUOUS
 10
0.1699891102
 20
31.9595801883
 11
0.1385338178
 21
31.9605512107
  0
LINE
  5
2F3
100
AcDbEntity
  8
RACCORDO
100
AcDbLine
 62
250
  6
CONTINUOUS
 10
0.2270263572
 20
31.8069405666
 11
0.1955544021
 21
31.8079906966
  0
LINE
  5
2F4
100
AcDbEntity
  8
RACCORDO
100
AcDbLine
 62
250
  6
CONTINUOUS
 10
0.2014046836
 20
31.958446783
 11
0.1699891102
 21
31.9595801883
  0
LINE
  5
2F5
100
AcDbEntity
  8
RACCORDO
100
AcDbLine
 62
250
  6
CONTINUOUS
 10
0.260623856
 20
31.8056340824
 11
0.2270263572
 21
31.8069405666
  0
LINE
  5
2F6
100
AcDbEntity
  8
RACCORDO
100
AcDbLine
 62
250
  6
CONTINUOUS
 10
0.2336828676
 20
31.9571118631
 11
0.2014046836
 21
31.958446783
  0
LINE
  5
2F7
100
AcDbEntity
  8
RACCORDO
100
AcDbLine
 62
250
  6
CONTINUOUS
 10
0.2976367685
 20
31.8039687601
 11
0.260623856
 21
31.8056340824
  0
LINE
  5
2F8
100
AcDbEntity
  8
RACCORDO
100
AcDbLine
 62
250
  6
CONTINUOUS
 10
0.2681408908
 20
31.9554952356
 11
0.2336828676
 21
31.9571118631
  0
LINE
  5
2F9
100
AcDbEntity
  8
RACCORDO
100
AcDbLine
 62
250
  6
CONTINUOUS
 10
0.3247124407
 20
31.8025970754
 11
0.2976367685
 21
31.8039687601
  0
LINE
  5
2FA
100
AcDbEntity
  8
RACCORDO
100
AcDbLine
 62
250
  6
CONTINUOUS
 10
0.2929695142
 20
31.9542075026
 11
0.2681408908
 21
31.9554952356
  0
LINE
  5
2FB
100
AcDbEntity
  8
RACCORDO
100
AcDbLine
 62
250
  6
CONTINUOUS
 10
0.3540017879
 20
31.8009684215
 11
0.3247124407
 21
31.8025970754
  0
LINE
  5
2FC
100
AcDbEntity
  8
RACCORDO
100
AcDbLine
 62
250
  6
CONTINUOUS
 10
0.3197040896
 20
31.9527066679
 11
0.2929695142
 21
31.9542075026
  0
LINE
  5
2FD
100
AcDbEntity
  8
RACCORDO
100
AcDbLine
 62
250
  6
CONTINUOUS
 10
0.3486081361
 20
31.9509430886
 11
0.3197040896
 21
31.9527066679
  0
LINE
  5
2FE
100
AcDbEntity
  8
RACCORDO
100
AcDbLine
 62
250
  6
CONTINUOUS
 10
0.3857202983
 20
31.7990307043
 11
0.3540017879
 21
31.8009684215
  0
LINE
  5
2FF
100
AcDbEntity
  8
RACCORDO
100
AcDbLine
 62
250
  6
CONTINUOUS
 10
0.3798498853
 20
31.9488810052
 11
0.3486081361
 21
31.9509430886
  0
LINE
  5
300
100
AcDbEntity
  8
RACCORDO
100
AcDbLine
 62
250
  6
CONTINUOUS
 10
0.4199795084
 20
31.7967342783
 11
0.3857202983
 21
31.7990307043
  0
LINE
  5
301
100
AcDbEntity
  8
RACCORDO
100
AcDbLine
 62
250
  6
CONTINUOUS
 10
0.4136740388
 20
31.9464621376
 11
0.3798498853
 21
31.9488810052
  0
LWPOLYLINE
  5
302
100
AcDbEntity
  8
ASSI
100
AcDbPolyline
 62
7
  6
CONTINUOUS
 90
10
 70
0
 10
4.2275426698
 20
36.9676072789
 10
4.1717709229
 20
37.0019731984
 10
4.1143929653
 20
37.032435868
 10
4.0554087969
 20
37.0589952877
 10
3.994556043
 20
37.0817305661
 10
3.9320970783
 20
37.1005625945
 10
3.8688190271
 20
37.1152540469
 10
3.804984264
 20
37.1257258145
 10
3.7403304144
 20
37.132057006
 10
3.6748574782
 20
37.1342476215
  0
LWPOLYLINE
  5
303
100
AcDbEntity
  8
ASSI
100
AcDbPolyline
 62
7
  6
CONTINUOUS
 90
10
 70
0
 10
-3.6748574782
 20
37.1342476215
 10
-3.7403304144
 20
37.132057006
 10
-3.804984264
 20
37.1257258145
 10
-3.8688190271
 20
37.1152540469
 10
-3.9320970783
 20
37.1005625945
 10
-3.994556043
 20
37.0817305661
 10
-4.0554087969
 20
37.0589952877
 10
-4.1143929653
 20
37.032435868
 10
-4.1717709229
 20
37.0019731984
 10
-4.2275426698
 20
36.9676072789
  0
LINE
  5
304
100
AcDbEntity
  8
0
100
AcDbLine
 62
250
  6
CONTINUOUS
 10
-10.5005350625
 20
34.6525618524
 11
10.5005350625
 21
34.6525618524
  0
LINE
  5
305
100
AcDbEntity
  8
0
100
AcDbLine
 62
250
  6
CONTINUOUS
 10
-10.5087981167
 20
35.6091547587
 11
10.5087981167
 21
35.6091547587
  0
LINE
  5
306
100
AcDbEntity
  8
0
100
AcDbLine
 62
7
  6
CONTINUOUS
 10
-10.6503805997
 20
36.0342476215
 11
-3.3
 21
36.0342476215
  0
LINE
  5
307
100
AcDbEntity
  8
0
100
AcDbLine
 62
7
  6
CONTINUOUS
 10
3.3
 20
36.0342476215
 11
10.6503805997
 21
36.0342476215
  0
LINE
  5
308
100
AcDbEntity
  8
ASSI
100
AcDbLine
 62
7
  6
CONTINUOUS
 10
3.4698202597
 20
36.1342476215
 11
-3.4698202597
 21
36.1342476215
  0
LINE
  5
309
100
AcDbEntity
  8
ASSI
100
AcDbLine
 62
7
  6
CONTINUOUS
 10
-3.6748574782
 20
37.1342476215
 11
3.6748574782
 21
37.1342476215
  0
LWPOLYLINE
  5
30A
100
AcDbEntity
  8
0
100
AcDbPolyline
 62
7
  6
CONTINUOUS
 90
7
 70
0
 43
0.3500000006
 10
-0.4285714127
 20
45.884247345
 10
-1.9285714102
 20
45.884247345
 10
-0.4285714127
 20
48.0271057892
 10
-0.4285714127
 20
48.4556747589
 10
-0.8571428254
 20
48.8842482605
 10
-1.5000000329
 20
48.8842482605
 10
-1.9285714102
 20
48.241390274
  0
LWPOLYLINE
  5
30B
100
AcDbEntity
  8
0
100
AcDbPolyline
 62
7
  6
CONTINUOUS
 90
6
 70
0
 43
0.3500000006
 10
2.1428571696
 20
45.884247345
 10
3.2142856836
 20
45.884247345
 10
3.4285713015
 20
46.0985318298
 10
3.4285713015
 20
47.1699633179
 10
3.0000000658
 20
47.5985322876
 10
2.5714285469
 20
47.5985322876
  0
LWPOLYLINE
  5
30C
100
AcDbEntity
  8
0
100
AcDbPolyline
 62
7
  6
CONTINUOUS
 90
7
 70
0
 43
0.3500000006
 10
-2.7857141647
 20
45.884247345
 10
-4.2857143393
 20
45.884247345
 10
-2.7857141647
 20
48.0271057892
 10
-2.7857141647
 20
48.4556747589
 10
-3.2142856836
 20
48.8842482605
 10
-3.8571428204
 20
48.8842482605
 10
-4.2857143393
 20
48.241390274
  0
LWPOLYLINE
  5
30D
100
AcDbEntity
  8
0
100
AcDbPolyline
 62
250
  6
CONTINUOUS
 90
16
 70
0
 10
10.5005350626
 20
34.6525609092
 10
10.5522203681
 20
34.6524104164
 10
10.6033519099
 20
34.652036347
 10
10.6533818551
 20
34.6514427091
 10
10.7017741735
 20
34.650635863
 10
10.7480103807
 20
34.6496244534
 10
10.7915950934
 20
34.6484193171
 10
10.8320613367
 20
34.6470333662
 10
10.8689755479
 20
34.6454814501
 10
10.9019422211
 20
34.6437801963
 10
10.9306081453
 20
34.6419478324
 10
10.9546661883
 20
34.6400039906
 10
10.9738585879
 20
34.6379694976
 10
10.987979713
 20
34.6358661515
 10
10.9968782673
 20
34.6337164877
 10
11.00045891
 20
34.6315435381
  0
LWPOLYLINE
  5
30E
100
AcDbEntity
  8
0
100
AcDbPolyline
 62
250
  6
CONTINUOUS
 90
16
 70
0
 10
10.5087981167
 20
35.6091547587
 10
10.5610241351
 20
35.6063749928
 10
10.6126786189
 20
35.5981614046
 10
10.6631962883
 20
35.5846038793
 10
10.7120243038
 20
35.5658507836
 10
10.7586283171
 20
35.5421073415
 10
10.8024983178
 20
35.5136333891
 10
10.8431542153
 20
35.4807405305
 10
10.8801510926
 20
35.4437887282
 10
10.9130840749
 20
35.4031823636
 10
10.9415927608
 20
35.3593658118
 10
10.9653651658
 20
35.3128185784
 10
10.9841411372
 20
35.2640500523
 10
10.9977152003
 20
35.213593931
 10
11.0059388076
 20
35.1620023803
 10
11.0087219643
 20
35.1098399913
  0
LWPOLYLINE
  5
30F
100
AcDbEntity
  8
0
100
AcDbPolyline
 62
7
  6
CONTINUOUS
 90
5
 70
0
 43
0.3500000006
 10
-61.6007801514
 20
57.5985353394
 10
-61.2436333008
 20
57.8128198242
 10
-61.2436333008
 20
58.4556732788
 10
-61.6007801514
 20
58.8842513123
 10
-62.4579226227
 20
58.8842513123
  0
LWPOLYLINE
  5
310
100
AcDbEntity
  8
0
100
AcDbPolyline
 62
7
  6
CONTINUOUS
 90
10
 70
0
 43
0.3500000006
 10
-55.8150628052
 20
55.8842503967
 10
-54.9579203339
 20
56.7413883362
 10
-54.743635849
 20
57.5985353394
 10
-54.743635849
 20
58.4556732788
 10
-55.1722048187
 20
58.8842513123
 10
-55.8150628052
 20
58.8842513123
 10
-56.2436363068
 20
58.4556732788
 10
-56.2436363068
 20
57.5985353394
 10
-55.8150628052
 20
57.1699663696
 10
-54.8864936829
 20
57.1699663696
  0
LWPOLYLINE
  5
311
100
AcDbEntity
  8
RACCORDO
100
AcDbPolyline
 62
250
  6
CONTINUOUS
 90
35
 70
0
 10
-57.505805399
 20
34.6431136193
 10
-57.4901889807
 20
34.6480297788
 10
-57.4749328005
 20
34.6525389278
 10
-57.4600470759
 20
34.6566571808
 10
-57.4455852484
 20
34.6603924851
 10
-57.4315102747
 20
34.6637722767
 10
-57.4176963153
 20
34.6668330186
 10
-57.4041277066
 20
34.6695852664
 10
-57.3908345197
 20
34.6720336553
 10
-57.3777611126
 20
34.6741923781
 10
-57.3649080183
 20
34.6760658069
 10
-57.3522882068
 20
34.6776581842
 10
-57.3398661483
 20
34.6789762645
 10
-57.3276484019
 20
34.6800212721
 10
-57.3156420166
 20
34.6807959822
 10
-57.3038140395
 20
34.681303441
 10
-57.2921717523
 20
34.6815423269
 10
-57.2807230053
 20
34.6815127988
 10
-57.2694382503
 20
34.6812139128
 10
-57.2583259548
 20
34.6806416512
 10
-57.2473956552
 20
34.6797934817
 10
-57.2366226797
 20
34.6786643209
 10
-57.2260205525
 20
34.6772477802
 10
-57.2155978657
 20
34.6755384224
 10
-57.2053271054
 20
34.6735251866
 10
-57.1952371907
 20
34.6712007824
 10
-57.185327584
 20
34.6685542476
 10
-57.1755359939
 20
34.6655554394
 10
-57.1658770412
 20
34.6621816434
 10
-57.1563822077
 20
34.6584178915
 10
-57.147027907
 20
34.654228685
 10
-57.1378372897
 20
34.6495830226
 10
-57.1288525649
 20
34.6444600852
 10
-57.1200909025
 20
34.6388273257
 10
-57.1115878881
 20
34.6326520725
  0
LWPOLYLINE
  5
312
100
AcDbEntity
  8
ASSI
100
AcDbPolyline
 62
250
  6
CONTINUOUS
 90
35
 70
0
 10
-57.505805399
 20
34.6431136193
 10
-57.4901889807
 20
34.6480297788
 10
-57.4749328005
 20
34.6525389278
 10
-57.4600470759
 20
34.6566571808
 10
-57.4455852484
 20
34.6603924851
 10
-57.4315102747
 20
34.6637722767
 10
-57.4176963153
 20
34.6668330186
 10
-57.4041277066
 20
34.6695852664
 10
-57.3908345197
 20
34.6720336553
 10
-57.3777611126
 20
34.6741923781
 10
-57.3649080183
 20
34.6760658069
 10
-57.3522882068
 20
34.6776581842
 10
-57.3398661483
 20
34.6789762645
 10
-57.3276484019
 20
34.6800212721
 10
-57.3156420166
 20
34.6807959822
 10
-57.3038140395
 20
34.681303441
 10
-57.2921717523
 20
34.6815423269
 10
-57.2807230053
 20
34.6815127988
 10
-57.2694382503
 20
34.6812139128
 10
-57.2583259548
 20
34.6806416512
 10
-57.2473956552
 20
34.6797934817
 10
-57.2366226797
 20
34.6786643209
 10
-57.2260205525
 20
34.6772477802
 10
-57.2155978657
 20
34.6755384224
 10
-57.2053271054
 20
34.6735251866
 10
-57.1952371907
 20
34.6712007824
 10
-57.185327584
 20
34.6685542476
 10
-57.1755359939
 20
34.6655554394
 10
-57.1658770412
 20
34.6621816434
 10
-57.1563822077
 20
34.6584178915
 10
-57.147027907
 20
34.654228685
 10
-57.1378372897
 20
34.6495830226
 10
-57.1288525649
 20
34.6444600852
 10
-57.1200909025
 20
34.6388273257
 10
-57.1115878881
 20
34.6326520725
  0
LINE
  5
313
100
AcDbEntity
  8
RACCORDO
100
AcDbLine
 62
250
  6
CONTINUOUS
 10
-74.6044559806
 20
31.8114940243
 11
-74.6044751979
 21
31.811452896
  0
LINE
  5
314
100
AcDbEntity
  8
TRECCIA
100
AcDbLine
 62
7
  6
CONTINUOUS
 10
-83.761233412
 20
-10.1958881539
 11
-83.761233412
 21
24.3342476215
  0
LINE
  5
315
100
AcDbEntity
  8
TRECCIA
100
AcDbLine
 62
7
  6
CONTINUOUS
 10
-82.061233412
 20
-10.1958881539
 11
-82.061233412
 21
24.3342476215
  0
LWPOLYLINE
  5
316
100
AcDbEntity
  8
0
100
AcDbPolyline
 62
250
  6
CONTINUOUS
 90
16
 70
0
 10
-73.5224884319
 20
35.6091547587
 10
-73.52325436
 20
35.6063749928
 10
-73.5237255371
 20
35.5981614046
 10
-73.5238968069
 20
35.5846038793
 10
-73.5237662949
 20
35.5658507836
 10
-73.5233354296
 20
35.5421073415
 10
-73.5226089264
 20
35.5136333891
 10
-73.5215947359
 20
35.4807405305
 10
-73.5203039566
 20
35.4437887282
 10
-73.5187507144
 20
35.4031823636
 10
-73.516952007
 20
35.3593658118
 10
-73.5149275186
 20
35.3128185784
 10
-73.5126994041
 20
35.2640500523
 10
-73.5102920469
 20
35.213593931
 10
-73.5077317918
 20
35.1620023803
 10
-73.505046657
 20
35.1098399913
  0
LWPOLYLINE
  5
317
100
AcDbEntity
  8
RACCORDO
100
AcDbPolyline
 62
7
  6
CONTINUOUS
 90
10
 70
0
 10
-74.6044751979
 20
31.811452896
 10
-74.7612962929
 20
31.3574421987
 10
-74.9060036093
 20
30.899211814
 10
-75.0384763616
 20
30.4371391224
 10
-75.1585920205
 20
29.9716326513
 10
-75.2662494204
 20
29.503045702
 10
-75.3613599651
 20
29.0316734556
 10
-75.4438347099
 20
28.5578721576
 10
-75.5136120906
 20
28.0820655274
 10
-75.5706558187
 20
27.604647571
  0
LINE
  5
318
100
AcDbEntity
  8
CURVE
100
AcDbLine
 62
7
  6
CONTINUOUS
 10
-63.3137366047
 20
28.7287374908
 11
-63.1519110723
 21
28.8905630233
  0
LINE
  5
319
100
AcDbEntity
  8
CURVE
100
AcDbLine
 62
7
  6
CONTINUOUS
 10
-62.5954390177
 20
29.4470350779
 11
-62.414000857
 21
29.6284732385
  0
LINE
  5
31A
100
AcDbEntity
  8
CURVE
100
AcDbLine
 62
250
  6
CONTINUOUS
 10
-45.4183576325
 20
29.6322121751
 11
-46.711233412
 21
29.2628186549
  0
LINE
  5
31B
100
AcDbEntity
  8
TRECCIA
100
AcDbLine
 62
250
  6
CONTINUOUS
 10
-80.911233412
 20
27.1842476215
 11
-80.911233412
 21
25.4842476215
  0
LINE
  5
31C
100
AcDbEntity
  8
CURVE
100
AcDbLine
 62
7
  6
CONTINUOUS
 10
-63.3137366047
 20
27.8886946348
 11
-63.1591414314
 21
28.0432898081
  0
LINE
  5
31D
100
AcDbEntity
  8
CURVE
100
AcDbLine
 62
7
  6
CONTINUOUS
 10
-61.9907503592
 20
29.2116808803
 11
-61.8667519268
 21
29.3356793127
  0
LINE
  5
31E
100
AcDbEntity
  8
CURVE
100
AcDbLine
 62
7
  6
CONTINUOUS
 10
-62.813579523
 20
27.5488088604
 11
-62.634440475
 21
27.7279479084
  0
LINE
  5
31F
100
AcDbEntity
  8
CURVE
100
AcDbLine
 62
7
  6
CONTINUOUS
 10
-61.8574369882
 20
28.5049513953
 11
-61.7028418149
 21
28.6595465685
  0
LINE
  5
320
100
AcDbEntity
  8
CURVE
100
AcDbLine
 62
7
  6
CONTINUOUS
 10
-62.6650121504
 20
26.857333377
 11
-62.4859855269
 21
27.0363600006
  0
LINE
  5
321
100
AcDbEntity
  8
CURVE
100
AcDbLine
 62
7
  6
CONTINUOUS
 10
-61.973536667
 20
27.5488088604
 11
-61.7028418149
 21
27.8195037125
  0
LINE
  5
322
100
AcDbEntity
  8
CURVE
100
AcDbLine
 62
7
  6
CONTINUOUS
 10
-61.8249692944
 20
26.857333377
 11
-61.6459426708
 21
27.0363600006
  0
LINE
  5
323
100
AcDbEntity
  8
CURVE
100
AcDbLine
 62
7
  6
CONTINUOUS
 10
-61.1334938109
 20
27.5488088604
 11
-60.9543547629
 21
27.7279479084
  0
LINE
  5
324
100
AcDbEntity
  8
CURVE
100
AcDbLine
 62
7
  6
CONTINUOUS
 10
-63.0276072594
 20
24.814652556
 11
-62.8485789578
 21
24.9936808575
  0
LINE
  5
325
100
AcDbEntity
  8
CURVE
100
AcDbLine
 62
7
  6
CONTINUOUS
 10
-61.0541070261
 20
26.7881527892
 11
-60.9187794406
 21
26.9234803747
  0
LINE
  5
326
100
AcDbEntity
  8
CURVE
100
AcDbLine
 62
250
  6
CONTINUOUS
 10
-58.0395568174
 20
29.634247693
 11
-58.3109440328
 21
29.362819251
  0
LINE
  5
327
100
AcDbEntity
  8
CURVE
100
AcDbLine
 62
7
  6
CONTINUOUS
 10
-63.3110329032
 20
23.6911840561
 11
-63.1930793378
 21
23.8091376215
  0
LINE
  5
328
100
AcDbEntity
  8
CURVE
100
AcDbLine
 62
7
  6
CONTINUOUS
 10
-62.1875644033
 20
24.814652556
 11
-62.0085361017
 21
24.9936808575
  0
LINE
  5
329
100
AcDbEntity
  8
CURVE
100
AcDbLine
 62
7
  6
CONTINUOUS
 10
-60.5957697974
 20
26.4064471619
 11
-60.4744435543
 21
26.5277734049
  0
LINE
  5
32A
100
AcDbEntity
  8
CURVE
100
AcDbLine
 62
250
  6
CONTINUOUS
 10
-58.0395568174
 20
26.648533472
 11
-57.7681696021
 21
26.784247693
  0
LINE
  5
32B
100
AcDbEntity
  8
CURVE
100
AcDbLine
 62
250
  6
CONTINUOUS
 10
-56.6826206557
 20
25.9699621405
 11
-56.9540078994
 21
25.834247693
  0
LINE
  5
32C
100
AcDbEntity
  8
CURVE
100
AcDbLine
 62
250
  6
CONTINUOUS
 10
-58.0395568174
 20
23.6628191944
 11
-57.7681696021
 21
23.798533472
  0
LINE
  5
32D
100
AcDbEntity
  8
CURVE
100
AcDbLine
 62
250
  6
CONTINUOUS
 10
-47.411233412
 20
29.6342477168
 11
-48.711233412
 21
28.9842477168
  0
LWPOLYLINE
  5
32E
100
AcDbEntity
  8
0
100
AcDbPolyline
 62
250
  6
CONTINUOUS
 90
10
 70
0
 10
-73.978436714
 20
-7.3630482952
 10
-74.1528625508
 20
-2.6982188487
 10
-74.283681922
 20
1.967229078
 10
-74.3708948275
 20
6.6332954849
 10
-74.4145012588
 20
11.300392908
 10
-74.4145012245
 20
15.9681088113
 10
-74.3708947503
 20
20.6352055868
 10
-74.2836818447
 20
25.3012706984
 10
-74.1528624993
 20
29.9667166822
 10
-73.978436714
 20
34.6315435381
  0
LINE
  5
32F
100
AcDbEntity
  8
RACCORDO
100
AcDbLine
 62
250
  6
CONTINUOUS
 10
-74.6042767768
 20
31.8039687601
 11
-74.6043109371
 21
31.8056340824
  0
LINE
  5
330
100
AcDbEntity
  8
RACCORDO
100
AcDbLine
 62
250
  6
CONTINUOUS
 10
-74.6042586051
 20
31.8025970754
 11
-74.6042767768
 21
31.8039687601
  0
LINE
  5
331
100
AcDbEntity
  8
RACCORDO
100
AcDbLine
 62
250
  6
CONTINUOUS
 10
-74.6042447452
 20
31.8009684215
 11
-74.6042586051
 21
31.8025970754
  0
LINE
  5
332
100
AcDbEntity
  8
RACCORDO
100
AcDbLine
 62
250
  6
CONTINUOUS
 10
-75.6331915652
 20
24.5469029862
 11
-75.633180511
 21
24.5434562872
  0
LINE
  5
333
100
AcDbEntity
  8
RACCORDO
100
AcDbLine
 62
250
  6
CONTINUOUS
 10
-74.6042377592
 20
31.7990307043
 11
-74.6042447452
 21
31.8009684215
  0
LINE
  5
334
100
AcDbEntity
  8
RACCORDO
100
AcDbLine
 62
250
  6
CONTINUOUS
 10
-74.6042441504
 20
31.7954321408
 11
-74.6042377592
 21
31.7990307043
  0
LINE
  5
335
100
AcDbEntity
  8
RACCORDO
100
AcDbLine
 62
250
  6
CONTINUOUS
 10
-74.6042767933
 20
31.7908467552
 11
-74.6042441504
 21
31.7954321408
  0
LINE
  5
336
100
AcDbEntity
  8
RACCORDO
100
AcDbLine
 62
250
  6
CONTINUOUS
 10
-74.8706930967
 20
21.4475225533
 11
-74.8648827814
 21
21.8262916191
  0
LINE
  5
337
100
AcDbEntity
  8
RACCORDO
100
AcDbLine
 62
250
  6
CONTINUOUS
 10
-74.8648827814
 20
21.8262916191
 11
-74.860262688
 21
22.1183793714
  0
LINE
  5
338
100
AcDbEntity
  8
RACCORDO
100
AcDbLine
 62
250
  6
CONTINUOUS
 10
-74.860262688
 20
22.1183793714
 11
-74.8566956248
 21
22.3379712985
  0
LINE
  5
339
100
AcDbEntity
  8
RACCORDO
100
AcDbLine
 62
250
  6
CONTINUOUS
 10
-74.8566956248
 20
22.3379712985
 11
-74.8528117015
 21
22.571021517
  0
LINE
  5
33A
100
AcDbEntity
  8
RACCORDO
100
AcDbLine
 62
250
  6
CONTINUOUS
 10
-74.8528117015
 20
22.571021517
 11
-74.8486475027
 21
22.8146284022
  0
LINE
  5
33B
100
AcDbEntity
  8
RACCORDO
100
AcDbLine
 62
250
  6
CONTINUOUS
 10
-74.8486475027
 20
22.8146284022
 11
-74.8442455394
 21
23.0649821842
  0
LINE
  5
33C
100
AcDbEntity
  8
RACCORDO
100
AcDbLine
 62
7
  6
CONTINUOUS
 10
-75.6254339263
 20
25.0248778323
 11
-75.6335713489
 21
24.5597369753
  0
LINE
  5
33D
100
AcDbEntity
  8
RACCORDO
100
AcDbLine
 62
250
  6
CONTINUOUS
 10
-75.6221179495
 20
25.1716855054
 11
-75.6314635128
 21
24.642599488
  0
LINE
  5
33E
100
AcDbEntity
  8
RACCORDO
100
AcDbLine
 62
250
  6
CONTINUOUS
 10
-75.6314635128
 20
24.642599488
 11
-75.6328166101
 21
24.5649902709
  0
LINE
  5
33F
100
AcDbEntity
  8
RACCORDO
100
AcDbLine
 62
250
  6
CONTINUOUS
 10
-74.8442455394
 20
23.0649821842
 11
-74.8394485897
 21
23.3297856762
  0
LINE
  5
340
100
AcDbEntity
  8
RACCORDO
100
AcDbLine
 62
7
  6
CONTINUOUS
 10
-75.620108849
 20
25.3171906496
 11
-75.6254339263
 21
25.0248778323
  0
LINE
  5
341
100
AcDbEntity
  8
RACCORDO
100
AcDbLine
 62
250
  6
CONTINUOUS
 10
-75.6175301316
 20
25.4205260459
 11
-75.6221179495
 21
25.1716855054
  0
LINE
  5
342
100
AcDbEntity
  8
RACCORDO
100
AcDbLine
 62
250
  6
CONTINUOUS
 10
-74.8394485897
 20
23.3297856762
 11
-74.8341854288
 21
23.611248422
  0
LINE
  5
343
100
AcDbEntity
  8
RACCORDO
100
AcDbLine
 62
250
  6
CONTINUOUS
 10
-75.6116287996
 20
25.7297662329
 11
-75.6137211236
 21
25.6198988295
  0
LINE
  5
344
100
AcDbEntity
  8
RACCORDO
100
AcDbLine
 62
250
  6
CONTINUOUS
 10
-75.6137211236
 20
25.6198988295
 11
-75.6175301316
 21
25.4205260459
  0
LINE
  5
345
100
AcDbEntity
  8
RACCORDO
100
AcDbLine
 62
7
  6
CONTINUOUS
 10
-75.6137406179
 20
25.6537110072
 11
-75.620108849
 21
25.3171906496
  0
LINE
  5
346
100
AcDbEntity
  8
RACCORDO
100
AcDbLine
 62
250
  6
CONTINUOUS
 10
-74.8842154165
 20
20.5986292661
 11
-74.8706930967
 21
21.4475225533
  0
LINE
  5
347
100
AcDbEntity
  8
RACCORDO
100
AcDbLine
 62
250
  6
CONTINUOUS
 10
-74.8341854288
 20
23.611248422
 11
-74.8283680133
 21
23.9119529015
  0
LINE
  5
348
100
AcDbEntity
  8
RACCORDO
100
AcDbLine
 62
7
  6
CONTINUOUS
 10
-75.6090350501
 20
25.8929972227
 11
-75.6137406179
 21
25.6537110072
  0
LINE
  5
349
100
AcDbEntity
  8
RACCORDO
100
AcDbLine
 62
250
  6
CONTINUOUS
 10
-75.6045026285
 20
26.0849666598
 11
-75.6116287996
 21
25.7297662329
  0
LINE
  5
34A
100
AcDbEntity
  8
RACCORDO
100
AcDbLine
 62
250
  6
CONTINUOUS
 10
-74.8283680133
 20
23.9119529015
 11
-74.8222093057
 21
24.2192328573
  0
LINE
  5
34B
100
AcDbEntity
  8
RACCORDO
100
AcDbLine
 62
7
  6
CONTINUOUS
 10
-75.6040756069
 20
26.1369346695
 11
-75.6090350501
 21
25.8929972227
  0
LINE
  5
34C
100
AcDbEntity
  8
RACCORDO
100
AcDbLine
 62
250
  6
CONTINUOUS
 10
-74.8222093057
 20
24.2192328573
 11
-74.8158182108
 21
24.5272849759
  0
LINE
  5
34D
100
AcDbEntity
  8
RACCORDO
100
AcDbLine
 62
7
  6
CONTINUOUS
 10
-75.5989913517
 20
26.3791681111
 11
-75.6040756069
 21
26.1369346695
  0
LINE
  5
34E
100
AcDbEntity
  8
RACCORDO
100
AcDbLine
 62
250
  6
CONTINUOUS
 10
-74.8158182108
 20
24.5272849759
 11
-74.8093442516
 21
24.8289180676
  0
LINE
  5
34F
100
AcDbEntity
  8
RACCORDO
100
AcDbLine
 62
250
  6
CONTINUOUS
 10
-75.6328166101
 20
24.5649902709
 11
-75.6331915652
 21
24.5469029862
  0
LINE
  5
350
100
AcDbEntity
  8
RACCORDO
100
AcDbLine
 62
250
  6
CONTINUOUS
 10
-74.6048130062
 20
31.7602870552
 11
-74.6042767933
 21
31.7908467552
  0
LINE
  5
351
100
AcDbEntity
  8
RACCORDO
100
AcDbLine
 62
7
  6
CONTINUOUS
 10
-75.5914564303
 20
26.7256125146
 11
-75.5989913517
 21
26.3791681111
  0
LINE
  5
352
100
AcDbEntity
  8
RACCORDO
100
AcDbLine
 62
250
  6
CONTINUOUS
 10
-75.5872322272
 20
26.8865652011
 11
-75.5918411881
 21
26.6777870064
  0
LWPOLYLINE
  5
353
100
AcDbEntity
  8
RACCORDO
100
AcDbPolyline
 62
250
  6
CONTINUOUS
 90
3
 70
0
 10
-75.5918411881
 20
26.6777870064
 10
-75.594319789
 20
26.5656348561
 10
-75.6045026285
 20
26.0849666598
  0
LINE
  5
354
100
AcDbEntity
  8
RACCORDO
100
AcDbLine
 62
250
  6
CONTINUOUS
 10
-74.8093442516
 20
24.8289180676
 11
-74.8026347488
 21
25.1313783779
  0
LINE
  5
355
100
AcDbEntity
  8
RACCORDO
100
AcDbLine
 62
7
  6
CONTINUOUS
 10
-75.5805163076
 20
27.2094018945
 11
-75.5914564303
 21
26.7256125146
  0
LINE
  5
356
100
AcDbEntity
  8
RACCORDO
100
AcDbLine
 62
250
  6
CONTINUOUS
 10
-74.8026347488
 20
25.1313783779
 11
-74.7956368044
 21
25.4367687557
  0
LINE
  5
357
100
AcDbEntity
  8
RACCORDO
100
AcDbLine
 62
250
  6
CONTINUOUS
 10
-75.5797456013
 20
27.213556618
 11
-75.5872322272
 21
26.8865652011
  0
LINE
  5
358
100
AcDbEntity
  8
RACCORDO
100
AcDbLine
 62
7
  6
CONTINUOUS
 10
-75.5717141981
 20
27.5882733596
 11
-75.5721717888
 21
27.5688578306
  0
LINE
  5
359
100
AcDbEntity
  8
RACCORDO
100
AcDbLine
 62
7
  6
CONTINUOUS
 10
-75.5721717888
 20
27.5688578306
 11
-75.5805163076
 21
27.2094018945
  0
LINE
  5
35A
100
AcDbEntity
  8
RACCORDO
100
AcDbLine
 62
250
  6
CONTINUOUS
 10
-75.5706558187
 20
27.604647571
 11
-75.5797456013
 21
27.213556618
  0
LINE
  5
35B
100
AcDbEntity
  8
RACCORDO
100
AcDbLine
 62
250
  6
CONTINUOUS
 10
-74.7956368044
 20
25.4367687557
 11
-74.7882641134
 21
25.7482347008
  0
LINE
  5
35C
100
AcDbEntity
  8
RACCORDO
100
AcDbLine
 62
250
  6
CONTINUOUS
 10
-74.8857254363
 20
20.5281008509
 11
-74.8842154165
 21
20.5986292661
  0
LINE
  5
35D
100
AcDbEntity
  8
RACCORDO
100
AcDbLine
 62
250
  6
CONTINUOUS
 10
-74.7882641134
 20
25.7482347008
 11
-74.7806089011
 21
26.0614072682
  0
LINE
  5
35E
100
AcDbEntity
  8
RACCORDO
100
AcDbLine
 62
250
  6
CONTINUOUS
 10
-74.7806089011
 20
26.0614072682
 11
-74.7727208816
 21
26.3741630561
  0
LINE
  5
35F
100
AcDbEntity
  8
RACCORDO
100
AcDbLine
 62
250
  6
CONTINUOUS
 10
-74.7727208816
 20
26.3741630561
 11
-74.7646779402
 21
26.683554781
  0
LINE
  5
360
100
AcDbEntity
  8
RACCORDO
100
AcDbLine
 62
250
  6
CONTINUOUS
 10
-74.7646779402
 20
26.683554781
 11
-74.7564681046
 21
26.9904112537
  0
LINE
  5
361
100
AcDbEntity
  8
RACCORDO
100
AcDbLine
 62
250
  6
CONTINUOUS
 10
-74.6058663454
 20
31.7192766129
 11
-74.6048130062
 21
31.7602870552
  0
LINE
  5
362
100
AcDbEntity
  8
RACCORDO
100
AcDbLine
 62
250
  6
CONTINUOUS
 10
-74.7564681046
 20
26.9904112537
 11
-74.7480515315
 21
27.296434825
  0
LINE
  5
363
100
AcDbEntity
  8
RACCORDO
100
AcDbLine
 62
250
  6
CONTINUOUS
 10
-74.8863586088
 20
20.5039047071
 11
-74.8857254363
 21
20.5281008509
  0
LINE
  5
364
100
AcDbEntity
  8
RACCORDO
100
AcDbLine
 62
250
  6
CONTINUOUS
 10
-74.7480515315
 20
27.296434825
 11
-74.7392119653
 21
27.6093539014
  0
LINE
  5
365
100
AcDbEntity
  8
RACCORDO
100
AcDbLine
 62
250
  6
CONTINUOUS
 10
-74.7392119653
 20
27.6093539014
 11
-74.7301215023
 21
27.9229978083
  0
LINE
  5
366
100
AcDbEntity
  8
RACCORDO
100
AcDbLine
 62
250
  6
CONTINUOUS
 10
-74.7301215023
 20
27.9229978083
 11
-74.7209411648
 21
28.2319791629
  0
LINE
  5
367
100
AcDbEntity
  8
RACCORDO
100
AcDbLine
 62
250
  6
CONTINUOUS
 10
-74.7209411648
 20
28.2319791629
 11
-74.7120840826
 21
28.5233812147
  0
LINE
  5
368
100
AcDbEntity
  8
RACCORDO
100
AcDbLine
 62
250
  6
CONTINUOUS
 10
-74.7120840826
 20
28.5233812147
 11
-74.7034671781
 21
28.8010907489
  0
LINE
  5
369
100
AcDbEntity
  8
RACCORDO
100
AcDbLine
 62
250
  6
CONTINUOUS
 10
-74.7034671781
 20
28.8010907489
 11
-74.6950145675
 21
29.0684040937
  0
LINE
  5
36A
100
AcDbEntity
  8
RACCORDO
100
AcDbLine
 62
250
  6
CONTINUOUS
 10
-74.6102016158
 20
31.5781235299
 11
-74.6058663454
 21
31.7192766129
  0
LINE
  5
36B
100
AcDbEntity
  8
RACCORDO
100
AcDbLine
 62
250
  6
CONTINUOUS
 10
-74.6950145675
 20
29.0684040937
 11
-74.686404976
 21
29.3358411449
  0
LINE
  5
36C
100
AcDbEntity
  8
RACCORDO
100
AcDbLine
 62
250
  6
CONTINUOUS
 10
-74.686404976
 20
29.3358411449
 11
-74.6777654791
 21
29.6000310849
  0
LINE
  5
36D
100
AcDbEntity
  8
RACCORDO
100
AcDbLine
 62
250
  6
CONTINUOUS
 10
-74.6777654791
 20
29.6000310849
 11
-74.6692636984
 21
29.8559655645
  0
LINE
  5
36E
100
AcDbEntity
  8
RACCORDO
100
AcDbLine
 62
250
  6
CONTINUOUS
 10
-74.6692636984
 20
29.8559655645
 11
-74.6613176778
 21
30.0921651914
  0
LINE
  5
36F
100
AcDbEntity
  8
RACCORDO
100
AcDbLine
 62
250
  6
CONTINUOUS
 10
-74.6613176778
 20
30.0921651914
 11
-74.6508509519
 21
30.3990259383
  0
LINE
  5
370
100
AcDbEntity
  8
RACCORDO
100
AcDbLine
 62
250
  6
CONTINUOUS
 10
-74.6184729692
 20
31.3319268232
 11
-74.6102016158
 21
31.5781235299
  0
LINE
  5
371
100
AcDbEntity
  8
RACCORDO
100
AcDbLine
 62
250
  6
CONTINUOUS
 10
-74.6351684694
 20
30.8516555698
 11
-74.6311955019
 21
30.9656639655
  0
LWPOLYLINE
  5
372
100
AcDbEntity
  8
RACCORDO
100
AcDbPolyline
 62
250
  6
CONTINUOUS
 90
3
 70
0
 10
-74.6311955019
 20
30.9656639655
 10
-74.6277163488
 20
31.0655889301
 10
-74.6184729692
 20
31.3319268232
  0
LWPOLYLINE
  5
373
100
AcDbEntity
  8
RACCORDO
100
AcDbPolyline
 62
250
  6
CONTINUOUS
 90
3
 70
0
 10
-74.6508509519
 20
30.3990259383
 10
-74.6373574648
 20
30.7888017091
 10
-74.6351684694
 20
30.8516555698
  0
LINE
  5
374
100
AcDbEntity
  8
RACCORDO
100
AcDbLine
 62
250
  6
CONTINUOUS
 10
-74.8871800609
 20
20.4791610641
 11
-74.8863586088
 21
20.5039047071
  0
LINE
  5
375
100
AcDbEntity
  8
RACCORDO
100
AcDbLine
 62
250
  6
CONTINUOUS
 10
-74.8873820924
 20
20.4743960418
 11
-74.8871800609
 21
20.4791610641
  0
LWPOLYLINE
  5
376
100
AcDbEntity
  8
RACCORDO
100
AcDbPolyline
 62
250
  6
CONTINUOUS
 90
4
 70
0
 10
-74.8876740701
 20
20.4685546903
 10
-74.8876212781
 20
20.4695407574
 10
-74.8875641708
 20
20.4706072138
 10
-74.8873820924
 20
20.4743960418
  0
LINE
  5
377
100
AcDbEntity
  8
RACCORDO
100
AcDbLine
 62
250
  6
CONTINUOUS
 10
-74.8878237322
 20
20.4660795946
 11
-74.8876740701
 21
20.4685546903
  0
LINE
  5
378
100
AcDbEntity
  8
RACCORDO
100
AcDbLine
 62
7
  6
CONTINUOUS
 10
-75.5706558187
 20
27.604647571
 11
-75.5717141981
 21
27.5882733605
  0
LWPOLYLINE
  5
379
100
AcDbEntity
  8
RACCORDO
100
AcDbPolyline
 62
250
  6
CONTINUOUS
 90
3
 70
0
 10
-74.8879549915
 20
20.4641979719
 10
-74.8879137686
 20
20.4647689024
 10
-74.8878237322
 20
20.4660795946
  0
LWPOLYLINE
  5
37A
100
AcDbEntity
  8
0
100
AcDbPolyline
 62
250
  6
CONTINUOUS
 90
19
 70
0
 10
-73.978436714
 20
34.6315435381
 10
-73.97495677
 20
34.6727201493
 10
-73.96825867
 20
34.7129879038
 10
-73.9583424141
 20
34.7523468018
 10
-73.9450962046
 20
34.7910635856
 10
-73.9286318391
 20
34.8288715128
 10
-73.909284711
 20
34.8649703566
 10
-73.8869997345
 20
34.8993097742
 10
-73.8618319955
 20
34.9319401084
 10
-73.8342821447
 20
34.9622121608
 10
-73.8043034895
 20
34.9900779949
 10
-73.7719427227
 20
35.0155855471
 10
-73.7378405733
 20
35.0382294283
 10
-73.7019474123
 20
35.0579561698
 10
-73.6643128688
 20
35.0748192402
 10
-73.6257265598
 20
35.0884736559
 10
-73.586451691
 20
35.0988044224
 10
-73.5462250568
 20
35.1059265342
 10
-73.505046657
 20
35.1098399913
  0
LWPOLYLINE
  5
37B
100
AcDbEntity
  8
RACCORDO
100
AcDbPolyline
 62
250
  6
CONTINUOUS
 90
4
 70
0
 10
-74.8881674285
 20
20.4616814169
 10
-74.888106051
 20
20.4623873945
 10
-74.8880684525
 20
20.4627735703
 10
-74.8879549915
 20
20.4641979719
  0
LWPOLYLINE
  5
37C
100
AcDbEntity
  8
0
100
AcDbPolyline
 62
7
  6
CONTINUOUS
 90
3
 70
0
 43
0.3500000006
 10
-57.2436366119
 20
56.1699660645
 10
-57.3150632629
 20
55.9556725159
 10
-57.4579210968
 20
55.66996138
  0
LINE
  5
37D
100
AcDbEntity
  8
CURVE
100
AcDbLine
 62
7
  6
CONTINUOUS
 10
-63.3110329032
 20
22.8511412001
 11
-62.9862038718
 21
23.1759702314
  0
LINE
  5
37E
100
AcDbEntity
  8
CURVE
100
AcDbLine
 62
7
  6
CONTINUOUS
 10
-61.3360236294
 20
24.8261504738
 11
-61.1121446606
 21
25.0500294426
  0
LINE
  5
37F
100
AcDbEntity
  8
CURVE
100
AcDbLine
 62
7
  6
CONTINUOUS
 10
-60.5234371503
 20
25.6387369529
 11
-60.3426719667
 21
25.8195021365
  0
LINE
  5
380
100
AcDbEntity
  8
CURVE
100
AcDbLine
 62
250
  6
CONTINUOUS
 10
-57.2253951147
 20
28.141390809
 11
-57.4967823867
 21
27.869961914
  0
LINE
  5
381
100
AcDbEntity
  8
CURVE
100
AcDbLine
 62
7
  6
CONTINUOUS
 10
-63.3110329032
 20
22.011098344
 11
-62.9862038718
 21
22.3359273753
  0
LINE
  5
382
100
AcDbEntity
  8
CURVE
100
AcDbLine
 62
7
  6
CONTINUOUS
 10
-62.0644867
 20
23.2576445472
 11
-61.7396306769
 21
23.5825005703
  0
LINE
  5
383
100
AcDbEntity
  8
CURVE
100
AcDbLine
 62
250
  6
CONTINUOUS
 10
-58.3109440328
 20
26.3771048035
 11
-58.0395568174
 21
26.648533472
  0
LINE
  5
384
100
AcDbEntity
  8
CURVE
100
AcDbLine
 62
7
  6
CONTINUOUS
 10
-63.3110249056
 20
21.1710634855
 11
-63.2046311837
 21
21.2774572074
  0
LINE
  5
385
100
AcDbEntity
  8
CURVE
100
AcDbLine
 62
7
  6
CONTINUOUS
 10
-62.6753277696
 20
21.8067606215
 11
-62.2894787696
 21
22.1926096215
  0
LINE
  5
386
100
AcDbEntity
  8
CURVE
100
AcDbLine
 62
7
  6
CONTINUOUS
 10
-62.0644867
 20
22.4176016911
 11
-61.7396306769
 21
22.7424577142
  0
LINE
  5
387
100
AcDbEntity
  8
CURVE
100
AcDbLine
 62
7
  6
CONTINUOUS
 10
-60.7367262411
 20
23.74536215
 11
-60.6607177696
 21
23.8213706215
  0
LINE
  5
388
100
AcDbEntity
  8
CURVE
100
AcDbLine
 62
7
  6
CONTINUOUS
 10
-62.8742467009
 20
20.7677988342
 11
-62.5850672046
 21
21.0569783304
  0
LINE
  5
389
100
AcDbEntity
  8
CURVE
100
AcDbLine
 62
7
  6
CONTINUOUS
 10
-61.8352849136
 20
21.8067606215
 11
-61.4494359136
 21
22.1926096215
  0
LINE
  5
38A
100
AcDbEntity
  8
CURVE
100
AcDbLine
 62
7
  6
CONTINUOUS
 10
-60.7367262411
 20
22.905319294
 11
-60.4118992092
 21
23.2301463259
  0
LINE
  5
38B
100
AcDbEntity
  8
CURVE
100
AcDbLine
 62
250
  6
CONTINUOUS
 10
-58.0395568174
 20
25.2913905825
 11
-58.3109440328
 21
25.0199621405
  0
LINE
  5
38C
100
AcDbEntity
  8
CURVE
100
AcDbLine
 62
7
  6
CONTINUOUS
 10
-62.2440003384
 20
20.5580023406
 11
-61.9655032256
 21
20.8364994534
  0
LINE
  5
38D
100
AcDbEntity
  8
CURVE
100
AcDbLine
 62
7
  6
CONTINUOUS
 10
-60.9952420575
 20
21.8067606215
 11
-60.4118992092
 21
22.3901034699
  0
LINE
  5
38E
100
AcDbEntity
  8
CURVE
100
AcDbLine
 62
250
  6
CONTINUOUS
 10
-56.411233412
 20
26.2413905825
 11
-56.6826206557
 21
25.9699621405
  0
LINE
  5
38F
100
AcDbEntity
  8
CURVE
100
AcDbLine
 62
7
  6
CONTINUOUS
 10
-63.0474303831
 20
18.9145294398
 11
-62.4325936699
 21
19.5293661531
  0
LINE
  5
390
100
AcDbEntity
  8
CURVE
100
AcDbLine
 62
7
  6
CONTINUOUS
 10
-61.613753976
 20
20.348205847
 11
-61.3459392465
 21
20.6160205764
  0
LINE
  5
391
100
AcDbEntity
  8
CURVE
100
AcDbLine
 62
250
  6
CONTINUOUS
 10
-57.4967823867
 20
24.3413905825
 11
-57.2253951147
 21
24.6128191377
  0
LINE
  5
392
100
AcDbEntity
  8
CURVE
100
AcDbLine
 62
250
  6
CONTINUOUS
 10
-58.3109440328
 20
23.3913906391
 11
-58.0395568174
 21
23.6628191944
  0
LINE
  5
393
100
AcDbEntity
  8
CURVE
100
AcDbLine
 62
7
  6
CONTINUOUS
 10
-63.3110329032
 20
17.8108840638
 11
-62.9862038718
 21
18.1357130951
  0
LINE
  5
394
100
AcDbEntity
  8
CURVE
100
AcDbLine
 62
7
  6
CONTINUOUS
 10
-61.7489733028
 20
19.3729436641
 11
-61.1793855776
 21
19.9425313893
  0
LINE
  5
395
100
AcDbEntity
  8
CURVE
100
AcDbLine
 62
7
  6
CONTINUOUS
 10
-60.9835076135
 20
20.1384093534
 11
-60.7263752675
 21
20.3955416994
  0
LWPOLYLINE
  5
396
100
AcDbEntity
  8
RACCORDO
100
AcDbPolyline
 62
7
  6
CONTINUOUS
 90
7
 70
0
 10
-43.3990167275
 20
32.6927921266
 10
-43.3380664049
 20
32.7315380697
 10
-43.2792063515
 20
32.7648933297
 10
-43.2228040353
 20
32.7931653602
 10
-43.1691576889
 20
32.8166736095
 10
-43.1184998627
 20
32.835743503
 10
-43.0710016494
 20
32.8507010939
  0
LWPOLYLINE
  5
397
100
AcDbEntity
  8
ASSI
100
AcDbPolyline
 62
7
  6
CONTINUOUS
 90
7
 70
0
 10
-43.3990167275
 20
32.6927921266
 10
-43.3380664049
 20
32.7315380697
 10
-43.2792063515
 20
32.7648933297
 10
-43.2228040353
 20
32.7931653602
 10
-43.1691576889
 20
32.8166736095
 10
-43.1184998627
 20
32.835743503
 10
-43.0710016494
 20
32.8507010939
  0
LINE
  5
398
100
AcDbEntity
  8
CURVE
100
AcDbLine
 62
250
  6
CONTINUOUS
 10
-56.6826206557
 20
22.9842477638
 11
-56.9540078994
 21
22.848533472
  0
LINE
  5
399
100
AcDbEntity
  8
CURVE
100
AcDbLine
 62
250
  6
CONTINUOUS
 10
-45.411233412
 20
25.8271044578
 11
-46.711233412
 21
25.1771046127
  0
LINE
  5
39A
100
AcDbEntity
  8
CURVE
100
AcDbLine
 62
250
  6
CONTINUOUS
 10
-60.4118902119
 20
19.8449946215
 11
-63.3110249056
 21
18.8214686215
  0
LINE
  5
39B
100
AcDbEntity
  8
CURVE
100
AcDbLine
 62
250
  6
CONTINUOUS
 10
-63.3110249056
 20
19.2397596215
 11
-60.7976216875
 21
20.0683936215
  0
LINE
  5
39C
100
AcDbEntity
  8
CURVE
100
AcDbLine
 62
250
  6
CONTINUOUS
 10
-47.411233412
 20
24.6509144868
 11
-48.711233412
 21
24.2794859375
  0
LWPOLYLINE
  5
39D
100
AcDbEntity
  8
0
100
AcDbPolyline
 62
250
  6
CONTINUOUS
 90
16
 70
0
 10
-73.5224884319
 20
-8.3406595158
 10
-73.5232543599
 20
-8.3378796586
 10
-73.5237255274
 20
-8.3296658191
 10
-73.5238967798
 20
-8.316107918
 10
-73.5237662441
 20
-8.2973543536
 10
-73.5233353506
 20
-8.2736103908
 10
-73.5226088181
 20
-8.2451359264
 10
-73.5215946
 20
-8.212242613
 10
-73.5203037975
 20
-8.1752904518
 10
-73.5187505394
 20
-8.1346838807
 10
-73.5169518262
 20
-8.0908673121
 10
-73.5149273442
 20
-8.0443202711
 10
-73.51269925
 20
-7.9955521689
 10
-73.5102919284
 20
-7.9450967094
 10
-73.5077317247
 20
-7.8935060459
 10
-73.505046657
 20
-7.8413447484
  0
LWPOLYLINE
  5
39E
100
AcDbEntity
  8
RACCORDO
100
AcDbPolyline
 62
7
  6
CONTINUOUS
 90
10
 70
0
 10
-75.633180511
 20
24.5434562872
 10
-75.5973415081
 20
24.0822962211
 10
-75.5496862802
 20
23.6223364905
 10
-75.4902321267
 20
23.1638346384
 10
-75.4190048988
 20
22.7070151159
 10
-75.3360610989
 20
22.2521570642
 10
-75.2414741772
 20
21.799594659
 10
-75.135306625
 20
21.3496057947
 10
-75.017603929
 20
20.9024138568
 10
-74.8884122633
 20
20.4582717797
  0
LWPOLYLINE
  5
39F
100
AcDbEntity
  8
RACCORDO
100
AcDbPolyline
 62
250
  6
CONTINUOUS
 90
24
 70
0
 10
-74.6043109371
 20
31.8056340824
 10
-74.6043385819
 20
31.8065339858
 10
-74.6043500269
 20
31.8069405666
 10
-74.6043687822
 20
31.80730224
 10
-74.6043827861
 20
31.8076526893
 10
-74.6043927803
 20
31.8079906966
 10
-74.6044151103
 20
31.8082773951
 10
-74.6044313861
 20
31.808563359
 10
-74.6044389217
 20
31.8088554687
 10
-74.604463087
 20
31.8090874455
 10
-74.6044829843
 20
31.8093165716
 10
-74.6044881955
 20
31.8095699259
 10
-74.6045066591
 20
31.8097710368
 10
-74.6045202191
 20
31.8099672557
 10
-74.6045203988
 20
31.8101831475
 10
-74.6045323539
 20
31.8103536359
 10
-74.6045445045
 20
31.8105085644
 10
-74.6045403384
 20
31.8106905853
 10
-74.6045253307
 20
31.8108847074
 10
-74.6045160589
 20
31.8110423205
 10
-74.6045114043
 20
31.8111636887
 10
-74.604491719
 20
31.8113021497
 10
-74.6044630206
 20
31.811440362
 10
-74.6044559806
 20
31.8114940243
  0
LINE
  5
3A0
100
AcDbEntity
  8
CURVE
100
AcDbLine
 62
7
  6
CONTINUOUS
 10
-63.3110329032
 20
16.9708412077
 11
-62.9862038718
 21
17.295670239
  0
LINE
  5
3A1
100
AcDbEntity
  8
CURVE
100
AcDbLine
 62
7
  6
CONTINUOUS
 10
-62.0644867
 20
18.2173874109
 11
-61.9111974894
 21
18.3706766215
  0
LINE
  5
3A2
100
AcDbEntity
  8
CURVE
100
AcDbLine
 62
7
  6
CONTINUOUS
 10
-60.4505162225
 20
19.8313578883
 11
-60.4118902119
 21
19.869983899
  0
LINE
  5
3A3
100
AcDbEntity
  8
CURVE
100
AcDbLine
 62
250
  6
CONTINUOUS
 10
-56.411233412
 20
23.2556763332
 11
-56.6826206557
 21
22.9842477638
  0
LINE
  5
3A4
100
AcDbEntity
  8
CURVE
100
AcDbLine
 62
7
  6
CONTINUOUS
 10
-62.9638926333
 20
16.4779386215
 11
-62.5780146333
 21
16.8638166215
  0
LINE
  5
3A5
100
AcDbEntity
  8
CURVE
100
AcDbLine
 62
7
  6
CONTINUOUS
 10
-62.0644867
 20
17.3773445548
 11
-61.7396306769
 21
17.7022005779
  0
LINE
  5
3A6
100
AcDbEntity
  8
CURVE
100
AcDbLine
 62
7
  6
CONTINUOUS
 10
-63.2975887773
 20
15.3041996215
 11
-62.9320277773
 21
15.6697606215
  0
LINE
  5
3A7
100
AcDbEntity
  8
CURVE
100
AcDbLine
 62
7
  6
CONTINUOUS
 10
-62.1238497773
 20
16.4779386215
 11
-61.7379717773
 21
16.8638166215
  0
LINE
  5
3A8
100
AcDbEntity
  8
CURVE
100
AcDbLine
 62
7
  6
CONTINUOUS
 10
-60.7367262411
 20
17.8650621577
 11
-60.4118992092
 21
18.1898891896
  0
LINE
  5
3A9
100
AcDbEntity
  8
CURVE
100
AcDbLine
 62
7
  6
CONTINUOUS
 10
-62.4575459213
 20
15.3041996215
 11
-62.0919849213
 21
15.6697606215
  0
LINE
  5
3AA
100
AcDbEntity
  8
CURVE
100
AcDbLine
 62
7
  6
CONTINUOUS
 10
-61.2838069213
 20
16.4779386215
 11
-60.8979289213
 21
16.8638166215
  0
LINE
  5
3AB
100
AcDbEntity
  8
CURVE
100
AcDbLine
 62
7
  6
CONTINUOUS
 10
-60.7367262411
 20
17.0250193016
 11
-60.4118992092
 21
17.3498463336
  0
LINE
  5
3AC
100
AcDbEntity
  8
CURVE
100
AcDbLine
 62
7
  6
CONTINUOUS
 10
-63.3110329032
 20
13.6106697835
 11
-62.8595114228
 21
14.0621912638
  0
LINE
  5
3AD
100
AcDbEntity
  8
CURVE
100
AcDbLine
 62
7
  6
CONTINUOUS
 10
-61.6175030652
 20
15.3041996215
 11
-61.2519420652
 21
15.6697606215
  0
LINE
  5
3AE
100
AcDbEntity
  8
CURVE
100
AcDbLine
 62
7
  6
CONTINUOUS
 10
-60.4437640652
 20
16.4779386215
 11
-60.4118992092
 21
16.5098034775
  0
LINE
  5
3AF
100
AcDbEntity
  8
CURVE
100
AcDbLine
 62
7
  6
CONTINUOUS
 10
-62.7230112092
 20
13.3586486215
 11
-62.3574792092
 21
13.7241806215
  0
LINE
  5
3B0
100
AcDbEntity
  8
CURVE
100
AcDbLine
 62
7
  6
CONTINUOUS
 10
-61.6228310091
 20
14.4588288215
 11
-60.4118992092
 21
15.6697606215
  0
LINE
  5
3B1
100
AcDbEntity
  8
CURVE
100
AcDbLine
 62
250
  6
CONTINUOUS
 10
-60.4118992092
 20
15.2473466215
 11
-62.7384943438
 21
13.7323466215
  0
LINE
  5
3B2
100
AcDbEntity
  8
CURVE
100
AcDbLine
 62
250
  6
CONTINUOUS
 10
-63.3110329032
 20
13.7688836215
 11
-60.9600312047
 21
15.2960906215
  0
LINE
  5
3B3
100
AcDbEntity
  8
CURVE
100
AcDbLine
 62
250
  6
CONTINUOUS
 10
-47.9683762747
 20
23.1652001734
 11
-48.711233412
 21
22.7937715854
  0
LWPOLYLINE
  5
3B4
100
AcDbEntity
  8
0
100
AcDbPolyline
 62
7
  6
CONTINUOUS
 90
3
 70
0
 43
0.3500000006
 10
-52.0255211792
 20
46.1699630127
 10
-52.0969478302
 20
45.955673996
 10
-52.2398056641
 20
45.6699628601
  0
LINE
  5
3B5
100
AcDbEntity
  8
CURVE
100
AcDbLine
 62
7
  6
CONTINUOUS
 10
-61.8829683531
 20
13.3586486215
 11
-61.5174363531
 21
13.7241806215
  0
LINE
  5
3B6
100
AcDbEntity
  8
CURVE
100
AcDbLine
 62
7
  6
CONTINUOUS
 10
-61.0429254971
 20
13.3586486215
 11
-60.6773934971
 21
13.7241806215
  0
LINE
  5
3B7
100
AcDbEntity
  8
CURVE
100
AcDbLine
 62
250
  6
CONTINUOUS
 10
-46.6183762359
 20
27.6842473592
 11
-46.711233412
 21
27.5913902606
  0
LINE
  5
3B8
100
AcDbEntity
  8
CURVE
100
AcDbLine
 62
250
  6
CONTINUOUS
 10
-48.5255191374
 20
25.6723428811
 11
-48.711233412
 21
25.486628684
  0
LINE
  5
3B9
100
AcDbEntity
  8
CURVE
100
AcDbLine
 62
250
  6
CONTINUOUS
 10
-45.411233412
 20
27.1271044578
 11
-45.504090559
 21
27.0342473592
  0
LWPOLYLINE
  5
3BA
100
AcDbEntity
  8
POMELLO
100
AcDbPolyline
 62
7
  6
CONTINUOUS
 90
23
 70
0
 10
-82.523439701
 20
-10.1734347095
 10
-82.561456793
 20
-10.1725841892
 10
-82.6000196015
 20
-10.1718112106
 10
-82.6390680305
 20
-10.1711065923
 10
-82.6782751342
 20
-10.1704935802
 10
-82.7172899495
 20
-10.1699791428
 10
-82.7561444058
 20
-10.1695563117
 10
-82.7951068538
 20
-10.1692274274
 10
-82.8340858572
 20
-10.1689930903
 10
-82.8729410666
 20
-10.1688527
 10
-82.911893798
 20
-10.1688067959
 10
-82.9508387418
 20
-10.1688558464
 10
-82.9896709843
 20
-10.1689993831
 10
-83.0286124924
 20
-10.1692365398
 10
-83.0675231905
 20
-10.1695678886
 10
-83.1063123995
 20
-10.1699928573
 10
-83.1452499467
 20
-10.1705088637
 10
-83.1843675626
 20
-10.1711228006
 10
-83.2233166341
 20
-10.171827775
 10
-83.2617754901
 20
-10.1726005256
 10
-83.2996847991
 20
-10.1734501266
 10
-83.3367515143
 20
-10.1743675038
 10
-83.4063676545
 20
-10.1762559855
  0
LINE
  5
3BB
100
AcDbEntity
  8
POMELLO
100
AcDbLine
 62
7
  6
CONTINUOUS
 10
-82.4505528722
 20
-10.1752900407
 11
-82.523439701
 21
-10.1734347095
  0
LINE
  5
3BC
100
AcDbEntity
  8
POMELLO
100
AcDbLine
 62
7
  6
CONTINUOUS
 10
-82.3840459193
 20
-10.1772194304
 11
-82.4505528722
 21
-10.1752900407
  0
LWPOLYLINE
  5
3BD
100
AcDbEntity
  8
POMELLO
100
AcDbPolyline
 62
7
  6
CONTINUOUS
 90
3
 70
0
 10
-82.276804535
 20
-10.1806680258
 10
-82.3002429376
 20
-10.1798689118
 10
-82.3840459193
 20
-10.1772194304
  0
LINE
  5
3BE
100
AcDbEntity
  8
0
100
AcDbLine
 62
7
  6
CONTINUOUS
 10
-65.411233412
 20
36.0342476215
 11
-65.411233412
 21
-8.7657523785
  0
LINE
  5
3BF
100
AcDbEntity
  8
DRAFT
100
AcDbLine
 62
7
  6
CONTINUOUS
 10
-65.411233412
 20
-8.7657523785
 11
-65.411233412
 21
-9.0289190005
  0
LINE
  5
3C0
100
AcDbEntity
  8
ASSI
100
AcDbLine
 62
7
  6
CONTINUOUS
 10
-65.411233412
 20
-8.7657523785
 11
-65.411233412
 21
-9.0289190005
  0
LINE
  5
3C1
100
AcDbEntity
  8
ASSI
100
AcDbLine
 62
7
  6
CONTINUOUS
 10
-65.411233412
 20
-9.0687462145
 11
-65.411233412
 21
-9.8657523785
  0
LINE
  5
3C2
100
AcDbEntity
  8
ASSI
100
AcDbLine
 62
7
  6
CONTINUOUS
 10
-65.411233412
 20
-2.708356602
 11
-65.411233412
 21
29.7539067875
  0
LINE
  5
3C3
100
AcDbEntity
  8
DRAFT
100
AcDbLine
 62
7
  6
CONTINUOUS
 10
-65.411233412
 20
36.0342476215
 11
-65.411233412
 21
36.2974142434
  0
LINE
  5
3C4
100
AcDbEntity
  8
ASSI
100
AcDbLine
 62
7
  6
CONTINUOUS
 10
-65.411233412
 20
36.0342476215
 11
-65.411233412
 21
37.1342476215
  0
LINE
  5
3C5
100
AcDbEntity
  8
SUPPORTO
100
AcDbLine
 62
7
  6
CONTINUOUS
 10
-64.411233412
 20
32.9746327672
 11
-64.411233412
 21
32.7393419126
  0
LINE
  5
3C6
100
AcDbEntity
  8
SUPPORTO
100
AcDbLine
 62
7
  6
CONTINUOUS
 10
-64.411233412
 20
-5.4708466697
 11
-64.411233412
 21
-5.7061375243
  0
LINE
  5
3C7
100
AcDbEntity
  8
DRAFT
100
AcDbLine
 62
7
  6
CONTINUOUS
 10
-64.411233412
 20
-4.4763992505
 11
-64.411233412
 21
-6.3657523785
  0
LINE
  5
3C8
100
AcDbEntity
  8
ASSI
100
AcDbLine
 62
7
  6
CONTINUOUS
 10
-64.411233412
 20
-4.4763992505
 11
-64.411233412
 21
-6.3657523785
  0
LINE
  5
3C9
100
AcDbEntity
  8
DRAFT
100
AcDbLine
 62
7
  6
CONTINUOUS
 10
-64.411233412
 20
31.7448944935
 11
-64.411233412
 21
33.6342476215
  0
LINE
  5
3CA
100
AcDbEntity
  8
ASSI
100
AcDbLine
 62
7
  6
CONTINUOUS
 10
-64.411233412
 20
31.7448944935
 11
-64.411233412
 21
33.6342476215
  0
LINE
  5
3CB
100
AcDbEntity
  8
CURVE
100
AcDbLine
 62
250
  6
CONTINUOUS
 10
-63.318178726
 20
0.2433126215
 11
-63.318178726
 21
0.8485836215
  0
LINE
  5
3CC
100
AcDbEntity
  8
CURVE
100
AcDbLine
 62
250
  6
CONTINUOUS
 10
-63.318004779
 20
5.7052576215
 11
-63.318004779
 21
5.1197306215
  0
LINE
  5
3CD
100
AcDbEntity
  8
CURVE
100
AcDbLine
 62
250
  6
CONTINUOUS
 10
-63.318004779
 20
3.8440206215
 11
-63.318004779
 21
3.2451636215
  0
LINE
  5
3CE
100
AcDbEntity
  8
CURVE
100
AcDbLine
 62
250
  6
CONTINUOUS
 10
-63.318004779
 20
2.0410136215
 11
-63.318004779
 21
1.4362426215
  0
LINE
  5
3CF
100
AcDbEntity
  8
CURVE
100
AcDbLine
 62
250
  6
CONTINUOUS
 10
-63.318004779
 20
0.0186956215
 11
-63.318004779
 21
-0.5861623785
  0
LINE
  5
3D0
100
AcDbEntity
  8
CURVE
100
AcDbLine
 62
250
  6
CONTINUOUS
 10
-63.318004779
 20
-1.7085003785
 11
-63.318004779
 21
-2.3660123785
  0
LINE
  5
3D1
100
AcDbEntity
  8
CURVE
100
AcDbLine
 62
250
  6
CONTINUOUS
 10
-63.313744992
 20
24.814652556
 11
-63.313744992
 21
24.9936808575
  0
LINE
  5
3D2
100
AcDbEntity
  8
CURVE
100
AcDbLine
 62
250
  6
CONTINUOUS
 10
-63.313744992
 20
26.857333377
 11
-63.313744992
 21
27.0363600006
  0
LINE
  5
3D3
100
AcDbEntity
  8
CURVE
100
AcDbLine
 62
250
  6
CONTINUOUS
 10
-63.3137366047
 20
27.5488088604
 11
-63.3137366047
 21
28.7858379938
  0
LINE
  5
3D4
100
AcDbEntity
  8
CURVE
100
AcDbLine
 62
250
  6
CONTINUOUS
 10
-63.3110329032
 20
13.3586486215
 11
-63.3110329032
 21
13.7688836215
  0
LINE
  5
3D5
100
AcDbEntity
  8
CURVE
100
AcDbLine
 62
250
  6
CONTINUOUS
 10
-63.3110329032
 20
15.3041996215
 11
-63.3110329032
 21
15.6697606215
  0
LINE
  5
3D6
100
AcDbEntity
  8
CURVE
100
AcDbLine
 62
250
  6
CONTINUOUS
 10
-63.3110329032
 20
16.4779386215
 11
-63.3110329032
 21
18.4803436215
  0
LINE
  5
3D7
100
AcDbEntity
  8
CURVE
100
AcDbLine
 62
250
  6
CONTINUOUS
 10
-63.3110329032
 20
21.8067606215
 11
-63.3110329032
 21
23.8091376215
  0
LINE
  5
3D8
100
AcDbEntity
  8
CURVE
100
AcDbLine
 62
250
  6
CONTINUOUS
 10
-63.3110249056
 20
18.8214686215
 11
-63.3110249056
 21
19.2397596215
  0
LINE
  5
3D9
100
AcDbEntity
  8
CURVE
100
AcDbLine
 62
250
  6
CONTINUOUS
 10
-63.3110249056
 20
20.9131936215
 11
-63.3110249056
 21
21.3153186215
  0
LINE
  5
3DA
100
AcDbEntity
  8
CURVE
100
AcDbLine
 62
250
  6
CONTINUOUS
 10
-63.1591414314
 20
28.7736038703
 11
-63.1591414314
 21
27.7279479084
  0
LINE
  5
3DB
100
AcDbEntity
  8
CURVE
100
AcDbLine
 62
250
  6
CONTINUOUS
 10
-62.9862038718
 20
23.8091376215
 11
-62.9862038718
 21
22.1926096215
  0
LINE
  5
3DC
100
AcDbEntity
  8
CURVE
100
AcDbLine
 62
250
  6
CONTINUOUS
 10
-62.9862038718
 20
18.4803436215
 11
-62.9862038718
 21
16.8638166215
  0
LWPOLYLINE
  5
3DD
100
AcDbEntity
  8
CURVE
100
AcDbPolyline
 62
250
  6
CONTINUOUS
 90
88
 70
0
 10
-63.1591414314
 20
28.7736038703
 10
-63.1588363686
 20
28.8004643815
 10
-63.1578908701
 20
28.8273706959
 10
-63.1562594707
 20
28.8542808075
 10
-63.1538967053
 20
28.8811527106
 10
-63.1507571087
 20
28.9079443993
 10
-63.1467952157
 20
28.9346138678
 10
-63.1419655612
 20
28.9611191103
 10
-63.1362226799
 20
28.9874181209
 10
-63.1295211069
 20
29.0134688939
 10
-63.1218153768
 20
29.0392294233
 10
-63.1145995259
 20
29.0604356269
 10
-63.1066470064
 20
29.081374439
 10
-63.0979495842
 20
29.1020090484
 10
-63.088499025
 20
29.1223026436
 10
-63.0782870948
 20
29.1422184132
 10
-63.0673055594
 20
29.1617195458
 10
-63.0555113684
 20
29.1808324148
 10
-63.0429567812
 20
29.1994616322
 10
-63.0296643649
 20
29.2175779692
 10
-63.015656687
 20
29.2351521967
 10
-63.0009563146
 20
29.2521550856
 10
-62.9855858152
 20
29.268557407
 10
-62.9696252965
 20
29.2842767041
 10
-62.9530491839
 20
29.2993439623
 10
-62.9358849567
 20
29.3137325754
 10
-62.918160094
 20
29.3274159374
 10
-62.899902075
 20
29.3403674421
 10
-62.8811383789
 20
29.3525604836
 10
-62.8619197411
 20
29.3639642756
 10
-62.8422661277
 20
29.3746035793
 10
-62.8222197409
 20
29.3844973
 10
-62.8018227825
 20
29.3936643435
 10
-62.7811174544
 20
29.4021236153
 10
-62.7601459587
 20
29.409894021
 10
-62.7347388926
 20
29.4183158616
 10
-62.7090487514
 20
29.4257952583
 10
-62.683113551
 20
29.4323502641
 10
-62.6569713074
 20
29.4379989319
 10
-62.6306600365
 20
29.4427593148
 10
-62.6042873229
 20
29.4466342387
 10
-62.5778018097
 20
29.4496274438
 10
-62.5512209881
 20
29.4517226585
 10
-62.5245623494
 20
29.4529036113
 10
-62.497843385
 20
29.4531540304
 10
-62.4711769637
 20
29.452462856
 10
-62.4445159042
 20
29.4508226714
 10
-62.4179081143
 20
29.4482248981
 10
-62.391401502
 20
29.4446609578
 10
-62.3650439751
 20
29.4401222719
 10
-62.3388834415
 20
29.434600262
 10
-62.3129678092
 20
29.4280863495
 10
-62.287344986
 20
29.4205719561
 10
-62.2620628797
 20
29.4120485032
 10
-62.2371693984
 20
29.4025074124
 10
-62.2165593242
 20
29.3936846965
 10
-62.1962914131
 20
29.384133477
 10
-62.1763987328
 20
29.3738518827
 10
-62.156914351
 20
29.362838042
 10
-62.1378713353
 20
29.3510900837
 10
-62.1193027535
 20
29.3386061363
 10
-62.1012733132
 20
29.3254127811
 10
-62.0837790315
 20
29.3115055219
 10
-62.0668494005
 20
29.2969056471
 10
-62.0505139122
 20
29.2816344449
 10
-62.0348020589
 20
29.2657132037
 10
-62.0197433326
 20
29.2491632119
 10
-62.0041314804
 20
29.2304731034
 10
-61.989328636
 20
29.2111111876
 10
-61.9753359552
 20
29.191124564
 10
-61.9621545939
 20
29.1705603323
 10
-61.9497857077
 20
29.1494655921
 10
-61.9382304527
 20
29.127887443
 10
-61.9274899845
 20
29.1058729846
 10
-61.9175654589
 20
29.0834693164
 10
-61.9084580319
 20
29.0607235381
 10
-61.9001688593
 20
29.0376827493
 10
-61.8926990967
 20
29.0143940496
 10
-61.8854083414
 20
28.9884861215
 10
-61.8790708833
 20
28.9623637833
 10
-61.873642948
 20
28.9360566309
 10
-61.8690807611
 20
28.9095942606
 10
-61.8653405481
 20
28.8830062685
 10
-61.8623785348
 20
28.8563222506
 10
-61.8601509465
 20
28.8295718031
 10
-61.8586140089
 20
28.802784522
 10
-61.8577239476
 20
28.7759900036
 10
-61.8574369882
 20
28.7492178439
  0
LWPOLYLINE
  5
3DE
100
AcDbEntity
  8
CURVE
100
AcDbPolyline
 62
250
  6
CONTINUOUS
 90
24
 70
0
 10
-62.841236253
 20
7.8296067323
 10
-62.8436204284
 20
7.8077336219
 10
-62.845701712
 20
7.7858059086
 10
-62.8474762415
 20
7.7638334327
 10
-62.8489401547
 20
7.7418260342
 10
-62.8500895894
 20
7.7197935534
 10
-62.8509206834
 20
7.6977458305
 10
-62.8514295745
 20
7.6756927056
 10
-62.8516077365
 20
7.656394955
 10
-62.851535021
 20
7.6370797703
 10
-62.8512101942
 20
7.6177263197
 10
-62.8506320221
 20
7.5983137711
 10
-62.8497992709
 20
7.5788212925
 10
-62.8487107067
 20
7.559228052
 10
-62.8473650956
 20
7.5395132176
 10
-62.8457612038
 20
7.5196559573
 10
-62.8438991383
 20
7.4996398837
 10
-62.8417843705
 20
7.479466388
 10
-62.8394237124
 20
7.4591413059
 10
-62.8368239765
 20
7.438670473
 10
-62.8339919749
 20
7.4180597253
 10
-62.8309345198
 20
7.3973148983
 10
-62.8276584236
 20
7.3764418278
 10
-62.8241704983
 20
7.3554463496
  0
LWPOLYLINE
  5
3DF
100
AcDbEntity
  8
CURVE
100
AcDbPolyline
 62
250
  6
CONTINUOUS
 90
71
 70
0
 10
-63.253617899
 20
8.2663975022
 10
-63.2454501871
 20
8.2875683192
 10
-63.2363374347
 20
8.3084352254
 10
-63.2262826053
 20
8.3290338353
 10
-63.2152886623
 20
8.3493997634
 10
-63.2033585691
 20
8.3695686244
 10
-63.1904952893
 20
8.3895760325
 10
-63.1767017862
 20
8.4094576025
 10
-63.1619894337
 20
8.4292290229
 10
-63.1464032478
 20
8.448826279
 10
-63.1299966547
 20
8.4681654301
 10
-63.1128230809
 20
8.4871625355
 10
-63.0949359527
 20
8.5057336547
 10
-63.0763886965
 20
8.5237948469
 10
-63.0572347386
 20
8.5412621715
 10
-63.0341892462
 20
8.5607949951
 10
-63.0104534377
 20
8.5793730302
 10
-62.9860900659
 20
8.596964061
 10
-62.961161884
 20
8.6135358713
 10
-62.9357316449
 20
8.629056245
 10
-62.9098621016
 20
8.6434929662
 10
-62.8836223161
 20
8.6568201106
 10
-62.8571065868
 20
8.6690369209
 10
-62.8304155209
 20
8.6801489319
 10
-62.8103509188
 20
8.6877608569
 10
-62.7903361669
 20
8.6947544513
 10
-62.7704631506
 20
8.701129721
 10
-62.7508237553
 20
8.7068866718
 10
-62.7314883331
 20
8.7120328682
 10
-62.7124411029
 20
8.7166061094
 10
-62.6936447503
 20
8.7206517536
 10
-62.675061961
 20
8.7242151586
 10
-62.6505787527
 20
8.7282855549
 10
-62.626477198
 20
8.7316324462
 10
-62.6028256192
 20
8.7343090051
 10
-62.575107771
 20
8.7367053784
 10
-62.548097615
 20
8.7382717701
 10
-62.5217564937
 20
8.7390669083
 10
-62.49604575
 20
8.7391495215
 10
-62.4709267264
 20
8.7385783378
 10
-62.4463650547
 20
8.7374050136
 10
-62.4223435225
 20
8.7356529158
 10
-62.3988492062
 20
8.7333383395
 10
-62.3758691826
 20
8.7304775797
 10
-62.353390528
 20
8.7270869312
 10
-62.3259871679
 20
8.7221334729
 10
-62.2993793373
 20
8.7164404532
 10
-62.2735993691
 20
8.7100708011
 10
-62.2486795963
 20
8.7030874452
 10
-62.2246419349
 20
8.6955505882
 10
-62.2014666326
 20
8.6875095283
 10
-62.1791235202
 20
8.6790108376
 10
-62.1575824282
 20
8.6701010883
 10
-62.1368173567
 20
8.660825342
 10
-62.1168189825
 20
8.6512226196
 10
-62.0975821516
 20
8.6413304312
 10
-62.07910171
 20
8.6311862873
 10
-62.0613694391
 20
8.6208234919
 10
-62.0443648622
 20
8.6102585233
 10
-62.0280644376
 20
8.5995036535
 10
-62.012444624
 20
8.5885711545
 10
-61.9926375053
 20
8.573749311
 10
-61.9739502696
 20
8.5587221271
 10
-61.9563346762
 20
8.5435782307
 10
-61.9397397295
 20
8.5284013547
 10
-61.9241034132
 20
8.5132556515
 10
-61.9093609558
 20
8.4982003784
 10
-61.8988448205
 20
8.4870029131
 10
-61.8887261828
 20
8.475908634
 10
-61.8789476522
 20
8.4649425358
 10
-61.8694977311
 20
8.4541536442
  0
LWPOLYLINE
  5
3E0
100
AcDbEntity
  8
CURVE
100
AcDbPolyline
 62
250
  6
CONTINUOUS
 90
41
 70
0
 10
-61.7723547777
 20
8.3288033314
 10
-61.767564104
 20
8.3401625028
 10
-61.7623559356
 20
8.3512787406
 10
-61.7567416726
 20
8.3621642088
 10
-61.7507327148
 20
8.3728310714
 10
-61.7443404623
 20
8.3832914921
 10
-61.7375763151
 20
8.393557635
 10
-61.7304537753
 20
8.4036375095
 10
-61.7229947539
 20
8.4135225071
 10
-61.7152232642
 20
8.4231998647
 10
-61.7071633192
 20
8.4326568194
 10
-61.6988389322
 20
8.4418806081
 10
-61.6902741163
 20
8.4508584679
 10
-61.6797084343
 20
8.4612949291
 10
-61.6688465241
 20
8.4713705752
 10
-61.6577037962
 20
8.4810971077
 10
-61.6462956609
 20
8.4904862278
 10
-61.6346375287
 20
8.499549637
 10
-61.6227472174
 20
8.5082982545
 10
-61.6106521746
 20
8.5167398709
 10
-61.5983822553
 20
8.5248814947
 10
-61.5859673145
 20
8.5327301344
 10
-61.5734372072
 20
8.5402927984
 10
-61.5576452673
 20
8.5493596773
 10
-61.541701327
 20
8.5580345091
 10
-61.5255866854
 20
8.5663611326
 10
-61.5092826412
 20
8.5743833871
 10
-61.4927700345
 20
8.5821398022
 10
-61.4760278695
 20
8.5896476717
 10
-61.4590346915
 20
8.5969189798
 10
-61.4417690458
 20
8.6039657111
 10
-61.4242085799
 20
8.6107997338
 10
-61.4063273494
 20
8.6174324518
 10
-61.3880985121
 20
8.6238751527
 10
-61.3694952255
 20
8.6301391243
 10
-61.354324015
 20
8.6350316542
 10
-61.3388765958
 20
8.6398375145
 10
-61.3231335857
 20
8.6445771983
 10
-61.3070756023
 20
8.6492711987
 10
-61.2906832637
 20
8.6539400088
 10
-61.2739428882
 20
8.6586047937
  0
LINE
  5
3E1
100
AcDbEntity
  8
CURVE
100
AcDbLine
 62
250
  6
CONTINUOUS
 10
-46.3398048627
 20
27.0342473592
 11
-45.782662
 21
27.6842473592
  0
LINE
  5
3E2
100
AcDbEntity
  8
CURVE
100
AcDbLine
 62
250
  6
CONTINUOUS
 10
-45.411233412
 20
24.3413902606
 11
-45.596947706
 21
24.155675986
  0
LWPOLYLINE
  5
3E3
100
AcDbEntity
  8
CURVE
100
AcDbPolyline
 62
250
  6
CONTINUOUS
 90
49
 70
0
 10
-61.298236674
 20
8.037735586
 10
-61.3087732818
 20
8.0336359047
 10
-61.3190427198
 20
8.0293544446
 10
-61.3290591716
 20
8.0248954155
 10
-61.3388368203
 20
8.0202630271
 10
-61.3483898494
 20
8.0154614891
 10
-61.3577324422
 20
8.0104950112
 10
-61.366875559
 20
8.0053686898
 10
-61.3758172679
 20
8.0000911678
 10
-61.3845524141
 20
7.9946719747
 10
-61.3930758426
 20
7.9891206401
 10
-61.4013823986
 20
7.9834466935
 10
-61.4094669271
 20
7.9776596644
 10
-61.417325521
 20
7.97176715
 10
-61.4249592636
 20
7.9657690175
 10
-61.4323704861
 20
7.9596632019
 10
-61.4395615197
 20
7.9534476382
 10
-61.4465346955
 20
7.9471202612
 10
-61.4532923447
 20
7.9406790058
 10
-61.4598361587
 20
7.9341223423
 10
-61.4661652709
 20
7.9274508826
 10
-61.4722781749
 20
7.9206657739
 10
-61.4781733644
 20
7.9137681634
 10
-61.483849333
 20
7.9067591984
 10
-61.4893045745
 20
7.899640026
 10
-61.4945379229
 20
7.8924122273
 10
-61.4995495744
 20
7.8850791178
 10
-61.5043400656
 20
7.8776444472
 10
-61.508909933
 20
7.8701119647
 10
-61.5132597132
 20
7.8624854198
 10
-61.5173899429
 20
7.854768562
 10
-61.521301239
 20
7.8469631933
 10
-61.5249945405
 20
7.8390633268
 10
-61.5284708666
 20
7.8310610278
 10
-61.5317302098
 20
7.8229496545
 10
-61.5347684541
 20
7.8147277345
 10
-61.5375804565
 20
7.8063950877
 10
-61.5401621715
 20
7.7979535014
 10
-61.5425139422
 20
7.7894126313
 10
-61.5446372093
 20
7.7807841007
 10
-61.5465334134
 20
7.7720795325
 10
-61.548203995
 20
7.7633105497
 10
-61.5496503947
 20
7.7544887754
 10
-61.5508738283
 20
7.7456209618
 10
-61.5518746128
 20
7.7366943776
 10
-61.5526528402
 20
7.7276914208
 10
-61.5532086029
 20
7.7185944894
 10
-61.5535419928
 20
7.7093859812
 10
-61.5536531024
 20
7.7000482942
  0
LINE
  5
3E4
100
AcDbEntity
  8
CURVE
100
AcDbLine
 62
250
  6
CONTINUOUS
 10
-53.8117817094
 20
8.8822473315
 11
-51.9120710886
 21
9.4902480563
  0
LINE
  5
3E5
100
AcDbEntity
  8
CURVE
100
AcDbLine
 62
250
  6
CONTINUOUS
 10
-60.4192349741
 20
6.5949436215
 11
-63.318004779
 21
5.7052576215
  0
LWPOLYLINE
  5
3E6
100
AcDbEntity
  8
CURVE
100
AcDbPolyline
 62
250
  6
CONTINUOUS
 90
5
 70
0
 10
-60.6775838611
 20
8.2271984504
 10
-60.7780462943
 20
8.1979626655
 10
-60.8276970349
 20
8.1836234345
 10
-60.8769603975
 20
8.1694843947
 10
-60.9742677097
 20
8.141668237
  0
LWPOLYLINE
  5
3E7
100
AcDbEntity
  8
CURVE
100
AcDbPolyline
 62
250
  6
CONTINUOUS
 90
10
 70
0
 10
-60.9742677097
 20
8.141668237
 10
-61.0222360975
 20
8.1277654069
 10
-61.0578796496
 20
8.1172408906
 10
-61.0932228708
 20
8.1065853011
 10
-61.1282532553
 20
8.0957586165
 10
-61.1629582971
 20
8.0847208154
 10
-61.1973248928
 20
8.0734330879
 10
-61.2313375486
 20
8.0618614732
 10
-61.2649801728
 20
8.0499732222
 10
-61.298236674
 20
8.037735586
  0
LWPOLYLINE
  5
3E8
100
AcDbEntity
  8
CURVE
100
AcDbPolyline
 62
250
  6
CONTINUOUS
 90
4
 70
0
 10
-60.4192346219
 20
8.3024058831
 10
-60.4717631351
 20
8.2872413269
 10
-60.523857481
 20
8.2721074517
 10
-60.6775838611
 20
8.2271984504
  0
LINE
  5
3E9
100
AcDbEntity
  8
POMELLO
100
AcDbLine
 62
7
  6
CONTINUOUS
 10
-83.4966499741
 20
-10.1790343864
 11
-83.545662289
 21
-10.1806680258
  0
LINE
  5
3EA
100
AcDbEntity
  8
POMELLO
100
AcDbLine
 62
7
  6
CONTINUOUS
 10
-83.4063676545
 20
-10.1762559855
 11
-83.4966499741
 21
-10.1790343864
  0
LWPOLYLINE
  5
3EB
100
AcDbEntity
  8
ASSI
100
AcDbPolyline
 62
7
  6
CONTINUOUS
 90
10
 70
0
 10
-61.411233412
 20
-9.4656428534
 10
-61.8486436268
 20
-9.474809237
 10
-62.2878139395
 20
-9.4839097357
 10
-62.72874435
 20
-9.4929414259
 10
-63.1714369125
 20
-9.5018969255
 10
-63.6158895729
 20
-9.5107781566
 10
-64.0620961693
 20
-9.5195962771
 10
-64.5100546476
 20
-9.5283533344
 10
-64.9597670618
 20
-9.5370423308
 10
-65.411233412
 20
-9.5456609403
  0
LINE
  5
3EC
100
AcDbEntity
  8
ASSI
100
AcDbLine
 62
7
  6
CONTINUOUS
 10
-65.411233412
 20
-9.8657523785
 11
-61.411233412
 21
-9.7959321188
  0
LINE
  5
3ED
100
AcDbEntity
  8
ASSI
100
AcDbLine
 62
250
  6
CONTINUOUS
 10
-65.411233412
 20
-9.699112036
 11
-61.411233412
 21
-9.6288597403
  0
LINE
  5
3EE
100
AcDbEntity
  8
ASSI
100
AcDbLine
 62
7
  6
CONTINUOUS
 10
-57.4403786141
 20
-7.4964408502
 11
-61.411233412
 21
-7.5657523785
  0
LINE
  5
3EF
100
AcDbEntity
  8
RACCORDO
100
AcDbLine
 62
7
  6
CONTINUOUS
 10
-57.4403786141
 20
-7.4964408502
 11
-61.411233412
 21
-7.5657523785
  0
LINE
  5
3F0
100
AcDbEntity
  8
RACCORDO
100
AcDbLine
 62
250
  6
CONTINUOUS
 10
-57.5058049572
 20
-7.3746180239
 11
-61.411233412
 21
-7.4430930298
  0
LINE
  5
3F1
100
AcDbEntity
  8
ASSI
100
AcDbLine
 62
250
  6
CONTINUOUS
 10
-57.5058049572
 20
-7.3746180239
 11
-61.411233412
 21
-7.4430930298
  0
LWPOLYLINE
  5
3F2
100
AcDbEntity
  8
ASSI
100
AcDbPolyline
 62
7
  6
CONTINUOUS
 90
10
 70
0
 10
-61.411233412
 20
-8.9956189812
 10
-61.8486436268
 20
-8.9988185746
 10
-62.2878139395
 20
-9.0021515556
 10
-62.72874435
 20
-9.0056136229
 10
-63.1714369125
 20
-9.0091986203
 10
-63.6158895729
 20
-9.0129040107
 10
-64.0620961693
 20
-9.0167316246
 10
-64.5100546476
 20
-9.0206799996
 10
-64.9597670618
 20
-9.0247436376
 10
-65.411233412
 20
-9.0289190005
  0
LINE
  5
3F3
100
AcDbEntity
  8
ASSI
100
AcDbLine
 62
7
  6
CONTINUOUS
 10
-59.2617379281
 20
-8.5657523785
 11
-59.811233412
 21
-8.5657523785
  0
LINE
  5
3F4
100
AcDbEntity
  8
0
100
AcDbLine
 62
7
  6
CONTINUOUS
 10
-65.411233412
 20
-8.7657523785
 11
-73.5224884319
 21
-8.3406595158
  0
LINE
  5
3F5
100
AcDbEntity
  8
0
100
AcDbLine
 62
250
  6
CONTINUOUS
 10
-65.411233412
 20
-8.2655235265
 11
-73.505046657
 21
-7.8413447484
  0
LWPOLYLINE
  5
3F6
100
AcDbEntity
  8
0
100
AcDbPolyline
 62
250
  6
CONTINUOUS
 90
19
 70
0
 10
-73.505046657
 20
-7.8413447484
 10
-73.5462250567
 20
-7.8374312911
 10
-73.586451691
 20
-7.8303091793
 10
-73.6257265597
 20
-7.8199784128
 10
-73.6643128688
 20
-7.8063239972
 10
-73.7019474124
 20
-7.7894609269
 10
-73.7378405734
 20
-7.7697341855
 10
-73.7719427228
 20
-7.7470903044
 10
-73.8043034896
 20
-7.7215827521
 10
-73.8342821447
 20
-7.6937169179
 10
-73.8618319954
 20
-7.6634448655
 10
-73.8869997344
 20
-7.6308145312
 10
-73.9092847108
 20
-7.5964751136
 10
-73.928631839
 20
-7.5603762698
 10
-73.9450962047
 20
-7.5225683427
 10
-73.9583424144
 20
-7.483851559
 10
-73.9682586702
 20
-7.444492661
 10
-73.9749567701
 20
-7.4042249064
 10
-73.978436714
 20
-7.3630482952
  0
LWPOLYLINE
  5
3F7
100
AcDbEntity
  8
CURVE
100
AcDbPolyline
 62
250
  6
CONTINUOUS
 90
58
 70
0
 10
-62.0284015955
 20
7.7013529457
 10
-62.0289323342
 20
7.7184407695
 10
-62.0297879039
 20
7.735634501
 10
-62.0310050029
 20
7.752959076
 10
-62.0326203295
 20
7.7704394298
 10
-62.0342231051
 20
7.784543921
 10
-62.0361177975
 20
7.7987245803
 10
-62.0383179711
 20
7.8129419186
 10
-62.0408371904
 20
7.8271564467
 10
-62.0436890195
 20
7.8413286755
 10
-62.0468838132
 20
7.8554190745
 10
-62.050419087
 20
7.8693879478
 10
-62.0542891471
 20
7.8831955578
 10
-62.0584882992
 20
7.8968021673
 10
-62.0630108493
 20
7.910168039
 10
-62.0678512412
 20
7.9232581868
 10
-62.0730044697
 20
7.936056631
 10
-62.0784656675
 20
7.9485521433
 10
-62.0842299671
 20
7.9607334952
 10
-62.0902925012
 20
7.9725894585
 10
-62.0955700523
 20
7.9822143365
 10
-62.1010553108
 20
7.991608375
 10
-62.1067522571
 20
8.0007744962
 10
-62.1126650993
 20
8.0097149997
 10
-62.118798956
 20
8.0184296938
 10
-62.1251591738
 20
8.0269177644
 10
-62.1317507685
 20
8.0351777643
 10
-62.1385774335
 20
8.0432057161
 10
-62.1456425315
 20
8.0509970094
 10
-62.1529468632
 20
8.0585480691
 10
-62.1604809811
 20
8.0658594611
 10
-62.1682328758
 20
8.0729327866
 10
-62.1778107862
 20
8.0811096013
 10
-62.1876947349
 20
8.0889535777
 10
-62.197894455
 20
8.0964723878
 10
-62.20841968
 20
8.1036737037
 10
-62.2192801431
 20
8.1105651973
 10
-62.2285898162
 20
8.1160737835
 10
-62.2381217671
 20
8.1213578408
 10
-62.2478587101
 20
8.1264026669
 10
-62.2577889998
 20
8.1311958598
 10
-62.2679235526
 20
8.1357342172
 10
-62.2782789252
 20
8.1400168375
 10
-62.2888621889
 20
8.1440400982
 10
-62.2996424736
 20
8.1477894955
 10
-62.3105794238
 20
8.1512478052
 10
-62.3216366911
 20
8.1544019121
 10
-62.3327939555
 20
8.1572551367
 10
-62.3440349044
 20
8.1598149087
 10
-62.3576098063
 20
8.1625108524
 10
-62.3712431436
 20
8.1648144443
 10
-62.3848963369
 20
8.166745206
 10
-62.3985308066
 20
8.1683226589
 10
-62.4121079731
 20
8.1695663243
 10
-62.4289570321
 20
8.1706822964
 10
-62.4456826659
 20
8.1713515905
 10
-62.4623112663
 20
8.1716185693
 10
-62.4788692248
 20
8.1715275953
  0
LWPOLYLINE
  5
3F8
100
AcDbEntity
  8
CURVE
100
AcDbPolyline
 62
250
  6
CONTINUOUS
 90
54
 70
0
 10
-61.7028418149
 20
28.7207644036
 10
-61.7031463045
 20
28.752356077
 10
-61.7040776856
 20
28.7839502843
 10
-61.7056628264
 20
28.815530079
 10
-61.7079285953
 20
28.8470785148
 10
-61.7109018606
 20
28.8785786451
 10
-61.7146094908
 20
28.9100135236
 10
-61.719078354
 20
28.9413662038
 10
-61.7243353186
 20
28.9726197392
 10
-61.7304072531
 20
29.0037571834
 10
-61.7373210256
 20
29.0347615899
 10
-61.7451035046
 20
29.0656160124
 10
-61.7517308579
 20
29.0893434815
 10
-61.7589095309
 20
29.1129370832
 10
-61.7666559415
 20
29.1363626531
 10
-61.7749865078
 20
29.1595860265
 10
-61.7839176478
 20
29.182573039
 10
-61.7934657795
 20
29.2052895261
 10
-61.8036473209
 20
29.2277013233
 10
-61.8144786901
 20
29.2497742661
 10
-61.825976305
 20
29.27147419
 10
-61.8381565837
 20
29.2927669305
 10
-61.8510359441
 20
29.3136183232
 10
-61.8646308043
 20
29.3339942034
 10
-61.8789575824
 20
29.3538604068
 10
-61.8940326963
 20
29.3731827687
 10
-61.9096891124
 20
29.3917302537
 10
-61.926061215
 20
29.4096942853
 10
-61.94311638
 20
29.427056988
 10
-61.9608219836
 20
29.4438004861
 10
-61.9791454021
 20
29.4599069039
 10
-61.9980540115
 20
29.475358366
 10
-62.0175151881
 20
29.4901369965
 10
-62.0374963079
 20
29.5042249199
 10
-62.0579647472
 20
29.5176042605
 10
-62.078887882
 20
29.5302571427
 10
-62.1002330886
 20
29.5421656909
 10
-62.1219677431
 20
29.5533120294
 10
-62.1440592216
 20
29.5636782825
 10
-62.1664749003
 20
29.5732465747
 10
-62.1892438931
 20
29.5820280365
 10
-62.2122802526
 20
29.5900127461
 10
-62.2355582213
 20
29.5972241189
 10
-62.2590520418
 20
29.6036855702
 10
-62.2827359564
 20
29.6094205152
 10
-62.3065842078
 20
29.6144523694
 10
-62.3305710384
 20
29.6188045481
 10
-62.3546706907
 20
29.6225004665
 10
-62.3788574073
 20
29.6255635401
 10
-62.4031054306
 20
29.6280171841
 10
-62.4273890031
 20
29.6298848138
 10
-62.4516823674
 20
29.6311898447
 10
-62.4759597659
 20
29.6319556919
 10
-62.5001954412
 20
29.632205771
  0
LINE
  5
3F9
100
AcDbEntity
  8
CURVE
100
AcDbLine
 62
250
  6
CONTINUOUS
 10
-62.7384943438
 20
13.7323466215
 11
-62.7384943438
 21
13.7241806215
  0
LINE
  5
3FA
100
AcDbEntity
  8
CURVE
100
AcDbLine
 62
250
  6
CONTINUOUS
 10
-62.0644867
 20
16.8638166215
 11
-62.0644867
 21
18.3706766215
  0
LINE
  5
3FB
100
AcDbEntity
  8
CURVE
100
AcDbLine
 62
250
  6
CONTINUOUS
 10
-62.0644867
 20
22.1926096215
 11
-62.0644867
 21
23.6995546215
  0
LINE
  5
3FC
100
AcDbEntity
  8
CURVE
100
AcDbLine
 62
250
  6
CONTINUOUS
 10
-62.0284015955
 20
7.3554463496
 11
-62.0284015955
 21
7.7013529457
  0
LINE
  5
3FD
100
AcDbEntity
  8
CURVE
100
AcDbLine
 62
250
  6
CONTINUOUS
 10
-61.8574369882
 20
27.7279479084
 11
-61.8574369882
 21
28.7492178439
  0
LINE
  5
3FE
100
AcDbEntity
  8
CURVE
100
AcDbLine
 62
250
  6
CONTINUOUS
 10
-61.7396306769
 20
23.6995546215
 11
-61.7396306769
 21
22.1926096215
  0
LINE
  5
3FF
100
AcDbEntity
  8
CURVE
100
AcDbLine
 62
250
  6
CONTINUOUS
 10
-61.7396306769
 20
18.3706766215
 11
-61.7396306769
 21
16.8638166215
  0
LINE
  5
400
100
AcDbEntity
  8
CURVE
100
AcDbLine
 62
250
  6
CONTINUOUS
 10
-61.7028418149
 20
28.7207644036
 11
-61.7028418149
 21
27.7279479084
  0
LINE
  5
401
100
AcDbEntity
  8
CURVE
100
AcDbLine
 62
250
  6
CONTINUOUS
 10
-61.5536531024
 20
7.7000482942
 11
-61.5536531024
 21
7.3755162382
  0
LINE
  5
402
100
AcDbEntity
  8
CURVE
100
AcDbLine
 62
250
  6
CONTINUOUS
 10
-61.4457262235
 20
5.6792516215
 11
-61.4457262235
 21
5.0997476215
  0
LINE
  5
403
100
AcDbEntity
  8
RACCORDO
100
AcDbLine
 62
7
  6
CONTINUOUS
 10
-61.411233412
 20
-8.9956189812
 11
-61.411233412
 21
-7.4430930298
  0
LINE
  5
404
100
AcDbEntity
  8
ASSI
100
AcDbLine
 62
7
  6
CONTINUOUS
 10
-61.411233412
 20
-9.7959321188
 11
-61.411233412
 21
-7.4430930298
  0
LINE
  5
405
100
AcDbEntity
  8
RACCORDO
100
AcDbLine
 62
7
  6
CONTINUOUS
 10
-61.411233412
 20
34.7115882701
 11
-61.411233412
 21
36.2641142241
  0
LINE
  5
406
100
AcDbEntity
  8
ASSI
100
AcDbLine
 62
7
  6
CONTINUOUS
 10
-61.411233412
 20
34.7115882701
 11
-61.411233412
 21
37.0644273617
  0
LINE
  5
407
100
AcDbEntity
  8
CURVE
100
AcDbLine
 62
250
  6
CONTINUOUS
 10
-60.9979326569
 20
4.9759356215
 11
-60.9979326569
 21
5.8002146215
  0
LINE
  5
408
100
AcDbEntity
  8
CURVE
100
AcDbLine
 62
250
  6
CONTINUOUS
 10
-60.9600312047
 20
15.2960906215
 11
-60.9600312047
 21
15.3041996215
  0
LINE
  5
409
100
AcDbEntity
  8
CURVE
100
AcDbLine
 62
250
  6
CONTINUOUS
 10
-60.7976216875
 20
20.0683936215
 11
-60.7976216875
 21
20.0765316215
  0
LINE
  5
40A
100
AcDbEntity
  8
CURVE
100
AcDbLine
 62
250
  6
CONTINUOUS
 10
-60.7367262411
 20
16.8638166215
 11
-60.7367262411
 21
18.4925226215
  0
LINE
  5
40B
100
AcDbEntity
  8
CURVE
100
AcDbLine
 62
250
  6
CONTINUOUS
 10
-60.7367262411
 20
22.1926096215
 11
-60.7367262411
 21
23.8213706215
  0
LINE
  5
40C
100
AcDbEntity
  8
CURVE
100
AcDbLine
 62
250
  6
CONTINUOUS
 10
-60.4192349741
 20
0.8485836215
 11
-60.4192349741
 21
0.2433126215
  0
LINE
  5
40D
100
AcDbEntity
  8
CURVE
100
AcDbLine
 62
250
  6
CONTINUOUS
 10
-60.4192349741
 20
-1.4467653785
 11
-60.4192349741
 21
-0.9133693785
  0
LINE
  5
40E
100
AcDbEntity
  8
CURVE
100
AcDbLine
 62
250
  6
CONTINUOUS
 10
-60.4192349741
 20
1.1744206215
 11
-60.4192349741
 21
1.7534686215
  0
LINE
  5
40F
100
AcDbEntity
  8
CURVE
100
AcDbLine
 62
250
  6
CONTINUOUS
 10
-60.4192349741
 20
2.5941426215
 11
-60.4192349741
 21
2.6790316215
  0
LINE
  5
410
100
AcDbEntity
  8
CURVE
100
AcDbLine
 62
250
  6
CONTINUOUS
 10
-60.4192349741
 20
3.5230546215
 11
-60.4192349741
 21
4.1151706215
  0
LINE
  5
411
100
AcDbEntity
  8
CURVE
100
AcDbLine
 62
250
  6
CONTINUOUS
 10
-60.4192349741
 20
4.2102146215
 11
-60.4192349741
 21
4.8089186215
  0
LINE
  5
412
100
AcDbEntity
  8
CURVE
100
AcDbLine
 62
250
  6
CONTINUOUS
 10
-60.4192349741
 20
5.9570126215
 11
-60.4192349741
 21
6.5949436215
  0
LINE
  5
413
100
AcDbEntity
  8
CURVE
100
AcDbLine
 62
250
  6
CONTINUOUS
 10
-60.4192346219
 20
8.8846066066
 11
-60.4192346219
 21
8.3024058831
  0
LINE
  5
414
100
AcDbEntity
  8
CURVE
100
AcDbLine
 62
250
  6
CONTINUOUS
 10
-60.4192346219
 20
7.3755162382
 11
-60.4192346219
 21
6.7726802771
  0
LINE
  5
415
100
AcDbEntity
  8
CURVE
100
AcDbLine
 62
250
  6
CONTINUOUS
 10
-60.4118992092
 20
23.8213706215
 11
-60.4118992092
 21
21.8067606215
  0
LINE
  5
416
100
AcDbEntity
  8
CURVE
100
AcDbLine
 62
250
  6
CONTINUOUS
 10
-60.4118992092
 20
18.4925226215
 11
-60.4118992092
 21
16.4779386215
  0
LINE
  5
417
100
AcDbEntity
  8
CURVE
100
AcDbLine
 62
250
  6
CONTINUOUS
 10
-60.4118992092
 20
15.6697606215
 11
-60.4118992092
 21
15.2473466215
  0
LINE
  5
418
100
AcDbEntity
  8
CURVE
100
AcDbLine
 62
250
  6
CONTINUOUS
 10
-60.4118992092
 20
13.7241806215
 11
-60.4118992092
 21
13.3586486215
  0
LINE
  5
419
100
AcDbEntity
  8
CURVE
100
AcDbLine
 62
250
  6
CONTINUOUS
 10
-60.4118902119
 20
20.2836286215
 11
-60.4118902119
 21
19.8449946215
  0
LINE
  5
41A
100
AcDbEntity
  8
CURVE
100
AcDbLine
 62
250
  6
CONTINUOUS
 10
-60.4092990775
 20
27.7279479084
 11
-60.4092990775
 21
27.5488088604
  0
LINE
  5
41B
100
AcDbEntity
  8
ASSI
100
AcDbLine
 62
7
  6
CONTINUOUS
 10
-59.811233412
 20
35.8342476215
 11
-59.811233412
 21
34.8063195176
  0
LINE
  5
41C
100
AcDbEntity
  8
ASSI
100
AcDbLine
 62
7
  6
CONTINUOUS
 10
-59.811233412
 20
-8.5657523785
 11
-59.811233412
 21
-7.5378242747
  0
LWPOLYLINE
  5
41D
100
AcDbEntity
  8
0
100
AcDbPolyline
 62
7
  6
CONTINUOUS
 90
2
 70
0
 43
0.3500000006
 10
-59.3150638733
 20
55.8842503967
 10
-59.3150638733
 20
57.3842508545
  0
LWPOLYLINE
  5
41E
100
AcDbEntity
  8
CURVE
100
AcDbPolyline
 62
250
  6
CONTINUOUS
 90
55
 70
0
 10
-60.4946984007
 20
25.9052027677
 10
-60.4951090629
 20
25.8715997951
 10
-60.4963635903
 20
25.8380037205
 10
-60.498495794
 20
25.8044421013
 10
-60.5015394851
 20
25.7709424948
 10
-60.5055284747
 20
25.7375324584
 10
-60.510496574
 20
25.7042395494
 10
-60.5155653171
 20
25.6758104309
 10
-60.521420738
 20
25.6475293321
 10
-60.5281047767
 20
25.619437895
 10
-60.5356593732
 20
25.5915777614
 10
-60.5441264677
 20
25.5639905735
 10
-60.5535480002
 20
25.5367179732
 10
-60.5639659108
 20
25.5098016025
 10
-60.5738232798
 20
25.4868037806
 10
-60.5844507196
 20
25.4641374036
 10
-60.5958389822
 20
25.4418352908
 10
-60.60797882
 20
25.4199302613
 10
-60.6208609848
 20
25.3984551342
 10
-60.634476229
 20
25.3774427286
 10
-60.6488153045
 20
25.3569258637
 10
-60.6638689636
 20
25.3369373584
 10
-60.6797355813
 20
25.3173727596
 10
-60.6962838081
 20
25.2983825203
 10
-60.7134801085
 20
25.2799720171
 10
-60.7312909471
 20
25.2621466267
 10
-60.7496827883
 20
25.2449117255
 10
-60.7686220967
 20
25.2282726901
 10
-60.7880753369
 20
25.2122348972
 10
-60.8080089733
 20
25.1968037232
 10
-60.8313000411
 20
25.1799439804
 10
-60.8551400764
 20
25.1638856505
 10
-60.8794962841
 20
25.1486333969
 10
-60.904335869
 20
25.134191883
 10
-60.929626036
 20
25.1205657719
 10
-60.9553339898
 20
25.1077597272
 10
-60.9814269354
 20
25.095778412
 10
-61.0078400448
 20
25.0846340155
 10
-61.03457369
 20
25.0742884991
 10
-61.0615970658
 20
25.0647133651
 10
-61.0888793671
 20
25.0558801158
 10
-61.1163897887
 20
25.0477602533
 10
-61.1440975254
 20
25.04032528
 10
-61.1719717722
 20
25.033546698
 10
-61.2078047723
 20
25.0257933904
 10
-61.243833756
 20
25.0190161105
 10
-61.28003294
 20
25.0131647918
 10
-61.316376541
 20
25.0081893678
 10
-61.3528387757
 20
25.0040397718
 10
-61.3893938609
 20
25.0006659373
 10
-61.4260160132
 20
24.9980177977
 10
-61.4626794494
 20
24.9960452865
 10
-61.4993583861
 20
24.9946983371
 10
-61.5360270402
 20
24.993926883
 10
-61.5726596283
 20
24.9936808575
  0
LINE
  5
41F
100
AcDbEntity
  8
CURVE
100
AcDbLine
 62
250
  6
CONTINUOUS
 10
-52.6357703862
 20
11.0609138049
 11
-52.3643831426
 21
11.4662476215
  0
LINE
  5
420
100
AcDbEntity
  8
CURVE
100
AcDbLine
 62
250
  6
CONTINUOUS
 10
-53.8117817094
 20
7.8182473315
 11
-53.5403944941
 21
8.1222471866
  0
LWPOLYLINE
  5
421
100
AcDbEntity
  8
CURVE
100
AcDbPolyline
 62
250
  6
CONTINUOUS
 90
66
 70
0
 10
-46.6600991823
 20
11.9479513862
 10
-46.7396530299
 20
11.892408209
 10
-46.8211387002
 20
11.8389985146
 10
-46.9044620885
 20
11.7878531502
 10
-46.98952909
 20
11.7391029633
 10
-47.0762456
 20
11.6928788011
 10
-47.1645175139
 20
11.6493115109
 10
-47.2542507269
 20
11.6085319401
 10
-47.3453511343
 20
11.5706709359
 10
-47.4377246313
 20
11.5358593457
 10
-47.5312771133
 20
11.5042280168
 10
-47.6259144756
 20
11.4759077965
 10
-47.7215426134
 20
11.4510295321
 10
-47.818067422
 20
11.4297240709
 10
-47.9153947967
 20
11.4121222603
 10
-48.0134306328
 20
11.3983549476
 10
-48.1120808256
 20
11.38855298
 10
-48.2112512703
 20
11.3828472049
 10
-48.3108478622
 20
11.3813684696
 10
-48.4107764967
 20
11.3842476215
 10
-48.506195655
 20
11.3911290984
 10
-48.601731272
 20
11.401989956
 10
-48.6972838568
 20
11.4167356485
 10
-48.7927539185
 20
11.4352716298
 10
-48.888041966
 20
11.457503354
 10
-48.9830485084
 20
11.4833362753
 10
-49.0776740548
 20
11.5126758477
 10
-49.171819114
 20
11.5454275254
 10
-49.2653841952
 20
11.5814967623
 10
-49.3582698074
 20
11.6207890127
 10
-49.4503764595
 20
11.6632097305
 10
-49.5416046607
 20
11.7086643699
 10
-49.6318549199
 20
11.7570583849
 10
-49.7210277462
 20
11.8082972297
 10
-49.8090236485
 20
11.8622863583
 10
-49.895743136
 20
11.9189312248
 10
-49.9810867175
 20
11.9781372833
 10
-50.0649549023
 20
12.0398099879
 10
-50.1472481992
 20
12.1038547927
 10
-50.2278671172
 20
12.1701771517
 10
-50.3067121655
 20
12.2386825191
 10
-50.383683853
 20
12.3092763489
 10
-50.4586826888
 20
12.3818640953
 10
-50.5316091819
 20
12.4563512122
 10
-50.6023638413
 20
12.5326431539
 10
-50.6708471759
 20
12.6106453743
 10
-50.736959695
 20
12.6902633276
 10
-50.8006019074
 20
12.7714024678
 10
-50.8616743222
 20
12.8539682491
 10
-50.9200774484
 20
12.9378661255
 10
-50.975711795
 20
13.0230015511
 10
-51.0284778711
 20
13.1092799801
 10
-51.0782761856
 20
13.1966068664
 10
-51.1250072477
 20
13.2848876642
 10
-51.1685715663
 20
13.3740278276
 10
-51.2088696504
 20
13.4639328106
 10
-51.2458020091
 20
13.5545080674
 10
-51.2792691514
 20
13.6456590519
 10
-51.3091715863
 20
13.7372912184
 10
-51.3354098228
 20
13.8293100209
 10
-51.35788437
 20
13.9216209135
 10
-51.3764957368
 20
14.0141293503
 10
-51.3911444324
 20
14.1067407853
 10
-51.4017309657
 20
14.1993606726
 10
-51.4081558457
 20
14.2918944664
 10
-51.4103195814
 20
14.3842476207
  0
LINE
  5
422
100
AcDbEntity
  8
CURVE
100
AcDbLine
 62
250
  6
CONTINUOUS
 10
-53.5403944941
 20
8.1222471866
 11
-53.2690072787
 21
8.2742476215
  0
LINE
  5
423
100
AcDbEntity
  8
CURVE
100
AcDbLine
 62
250
  6
CONTINUOUS
 10
-52.1834583323
 20
7.3622480563
 11
-52.454845576
 21
7.2102476215
  0
LINE
  5
424
100
AcDbEntity
  8
CURVE
100
AcDbLine
 62
250
  6
CONTINUOUS
 10
-62.3120772642
 20
1.8840856215
 11
-60.4192349741
 21
2.5941426215
  0
LINE
  5
425
100
AcDbEntity
  8
CURVE
100
AcDbLine
 62
250
  6
CONTINUOUS
 10
-61.7085991315
 20
2.6398926215
 11
-63.318004779
 21
2.0410136215
  0
LWPOLYLINE
  5
426
100
AcDbEntity
  8
RACCORDO
100
AcDbPolyline
 62
250
  6
CONTINUOUS
 90
3
 70
0
 10
-40.9194901972
 20
11.1465939859
 10
-40.945015864
 20
11.1388434368
 10
-40.9704358433
 20
11.1337826071
  0
LWPOLYLINE
  5
427
100
AcDbEntity
  8
ASSI
100
AcDbPolyline
 62
250
  6
CONTINUOUS
 90
3
 70
0
 10
-40.9194901972
 20
11.1465939859
 10
-40.945015864
 20
11.1388434368
 10
-40.9704358433
 20
11.1337826071
  0
LWPOLYLINE
  5
428
100
AcDbEntity
  8
RACCORDO
100
AcDbPolyline
 62
250
  6
CONTINUOUS
 90
43
 70
0
 10
-42.6118183433
 20
-2.5530954848
 10
-42.462984589
 20
-2.5269698249
 10
-42.3174215405
 20
-2.4911711824
 10
-42.1751291978
 20
-2.4456995572
 10
-42.0354194174
 20
-2.3902464093
 10
-41.8989803427
 20
-2.3251202788
 10
-41.767876404
 20
-2.2512467858
 10
-41.6422394369
 20
-2.1685113771
 10
-41.5219376058
 20
-2.077028606
 10
-41.4086398337
 20
-1.9780677525
 10
-41.3024428519
 20
-1.8715210003
 10
-41.2032499292
 20
-1.7574961657
 10
-41.1124397948
 20
-1.6375859783
 10
-41.0301308009
 20
-1.5116976165
 10
-40.9562045954
 20
-1.3799239019
 10
-40.8916848514
 20
-1.2441360285
 10
-40.8367143586
 20
-1.1043337221
 10
-40.7911503273
 20
-0.960517257
 10
-40.7555880611
 20
-0.81455865
 10
-40.7301460417
 20
-0.6663669537
 10
-40.7147057875
 20
-0.5160331155
 10
-40.7095071577
 20
-0.3657019932
 10
-40.7147108675
 20
-0.215373944
 10
-40.7301562017
 20
-0.0650486109
 10
-40.7556008731
 20
0.0831302192
 10
-40.7911622091
 20
0.22906965
 10
-40.8367228822
 20
0.3728625778
 10
-40.8916886231
 20
0.5126439035
 10
-40.9562026606
 20
0.6484158662
 10
-41.0301217658
 20
0.7801762268
 10
-41.1124219829
 20
0.906053169
 10
-41.2032196589
 20
1.0259527864
 10
-41.3023984467
 20
1.1399689854
 10
-41.4085853497
 20
1.246511669
 10
-41.5218798245
 20
1.3454753787
 10
-41.6421824145
 20
1.436965573
 10
-41.7678217527
 20
1.5197085302
 10
-41.8989287688
 20
1.5935885073
 10
-42.0353725333
 20
1.6587212473
 10
-42.1750888903
 20
1.7141802572
 10
-42.3173897881
 20
1.7596567062
 10
-42.4629632786
 20
1.7954594252
 10
-42.6118093617
 20
1.8215884141
  0
LWPOLYLINE
  5
429
100
AcDbEntity
  8
ASSI
100
AcDbPolyline
 62
250
  6
CONTINUOUS
 90
43
 70
0
 10
-42.6118183433
 20
-2.5530954848
 10
-42.462984589
 20
-2.5269698249
 10
-42.3174215405
 20
-2.4911711824
 10
-42.1751291978
 20
-2.4456995572
 10
-42.0354194174
 20
-2.3902464093
 10
-41.8989803427
 20
-2.3251202788
 10
-41.767876404
 20
-2.2512467858
 10
-41.6422394369
 20
-2.1685113771
 10
-41.5219376058
 20
-2.077028606
 10
-41.4086398337
 20
-1.9780677525
 10
-41.3024428519
 20
-1.8715210003
 10
-41.2032499292
 20
-1.7574961657
 10
-41.1124397948
 20
-1.6375859783
 10
-41.0301308009
 20
-1.5116976165
 10
-40.9562045954
 20
-1.3799239019
 10
-40.8916848514
 20
-1.2441360285
 10
-40.8367143586
 20
-1.1043337221
 10
-40.7911503273
 20
-0.960517257
 10
-40.7555880611
 20
-0.81455865
 10
-40.7301460417
 20
-0.6663669537
 10
-40.7147057875
 20
-0.5160331155
 10
-40.7095071577
 20
-0.3657019932
 10
-40.7147108675
 20
-0.215373944
 10
-40.7301562017
 20
-0.0650486109
 10
-40.7556008731
 20
0.0831302192
 10
-40.7911622091
 20
0.22906965
 10
-40.8367228822
 20
0.3728625778
 10
-40.8916886231
 20
0.5126439035
 10
-40.9562026606
 20
0.6484158662
 10
-41.0301217658
 20
0.7801762268
 10
-41.1124219829
 20
0.906053169
 10
-41.2032196589
 20
1.0259527864
 10
-41.3023984467
 20
1.1399689854
 10
-41.4085853497
 20
1.246511669
 10
-41.5218798245
 20
1.3454753787
 10
-41.6421824145
 20
1.436965573
 10
-41.7678217527
 20
1.5197085302
 10
-41.8989287688
 20
1.5935885073
 10
-42.0353725333
 20
1.6587212473
 10
-42.1750888903
 20
1.7141802572
 10
-42.3173897881
 20
1.7596567062
 10
-42.4629632786
 20
1.7954594252
 10
-42.6118093617
 20
1.8215884141
  0
LINE
  5
42A
100
AcDbEntity
  8
0
100
AcDbLine
 62
250
  6
CONTINUOUS
 10
-74.4692685353
 20
-7.384066609
 11
-74.4665938674
 21
-7.3839161179
  0
LINE
  5
42B
100
AcDbEntity
  8
0
100
AcDbLine
 62
250
  6
CONTINUOUS
 10
-74.4665938674
 20
-7.3839161179
 11
-74.4037926383
 21
-7.3811300406
  0
LINE
  5
42C
100
AcDbEntity
  8
0
100
AcDbLine
 62
250
  6
CONTINUOUS
 10
-74.4037926383
 20
-7.3811300406
 11
-74.130709688
 21
-7.369474534
  0
LWPOLYLINE
  5
42D
100
AcDbEntity
  8
0
100
AcDbPolyline
 62
250
  6
CONTINUOUS
 90
3
 70
0
 10
-74.130709688
 20
-7.369474534
 10
-74.0300225174
 20
-7.3652213357
 10
-73.978436714
 20
-7.3630482952
  0
LWPOLYLINE
  5
42E
100
AcDbEntity
  8
RACCORDO
100
AcDbPolyline
 62
250
  6
CONTINUOUS
 90
19
 70
0
 10
-43.3990167275
 20
-3.599276532
 10
-43.3387383056
 20
-3.596994105
 10
-43.2789994523
 20
-3.5914780009
 10
-43.220244778
 20
-3.5827692769
 10
-43.1629115645
 20
-3.5709327502
 10
-43.1074265199
 20
-3.5560565182
 10
-43.0542026021
 20
-3.5382513042
 10
-43.0036359302
 20
-3.5176496288
 10
-42.9561028446
 20
-3.4944048245
 10
-42.9119571138
 20
-3.4686898992
 10
-42.8715272879
 20
-3.4406962415
 10
-42.8351142594
 20
-3.4106321987
 10
-42.8029890283
 20
-3.3787215295
 10
-42.775390678
 20
-3.3452017334
 10
-42.752524599
 20
-3.310322284
 10
-42.7345609624
 20
-3.2743427753
 10
-42.7216334513
 20
-3.2375309867
 10
-42.7138382665
 20
-3.2001608895
 10
-42.711233412
 20
-3.1625106099
  0
LWPOLYLINE
  5
42F
100
AcDbEntity
  8
ASSI
100
AcDbPolyline
 62
250
  6
CONTINUOUS
 90
19
 70
0
 10
-43.3990167275
 20
-3.599276532
 10
-43.3387383056
 20
-3.596994105
 10
-43.2789994523
 20
-3.5914780009
 10
-43.220244778
 20
-3.5827692769
 10
-43.1629115645
 20
-3.5709327502
 10
-43.1074265199
 20
-3.5560565182
 10
-43.0542026021
 20
-3.5382513042
 10
-43.0036359302
 20
-3.5176496288
 10
-42.9561028446
 20
-3.4944048245
 10
-42.9119571138
 20
-3.4686898992
 10
-42.8715272879
 20
-3.4406962415
 10
-42.8351142594
 20
-3.4106321987
 10
-42.8029890283
 20
-3.3787215295
 10
-42.775390678
 20
-3.3452017334
 10
-42.752524599
 20
-3.310322284
 10
-42.7345609624
 20
-3.2743427753
 10
-42.7216334513
 20
-3.2375309867
 10
-42.7138382665
 20
-3.2001608895
 10
-42.711233412
 20
-3.1625106099
  0
LWPOLYLINE
  5
430
100
AcDbEntity
  8
RACCORDO
100
AcDbPolyline
 62
250
  6
CONTINUOUS
 90
16
 70
0
 10
-55.2853066306
 20
-5.6331895769
 10
-55.3435210559
 20
-5.6352477325
 10
-55.4025688191
 20
-5.6404286667
 10
-55.4624499202
 20
-5.6487307363
 10
-55.5233210622
 20
-5.6599745915
 10
-55.5850255421
 20
-5.6743323652
 10
-55.6470932509
 20
-5.6923265524
 10
-55.709722018
 20
-5.714049211
 10
-55.772714014
 20
-5.7393888421
 10
-55.8350056415
 20
-5.768557826
 10
-55.8966150772
 20
-5.8016713856
 10
-55.9575241443
 20
-5.838580243
 10
-56.0166147147
 20
-5.8790965031
 10
-56.0735140791
 20
-5.9231427192
 10
-56.1285949468
 20
-5.9707510635
 10
-56.1818573178
 20
-6.0218955729
  0
LWPOLYLINE
  5
431
100
AcDbEntity
  8
ASSI
100
AcDbPolyline
 62
250
  6
CONTINUOUS
 90
16
 70
0
 10
-55.2853066306
 20
-5.6331895769
 10
-55.3435210559
 20
-5.6352477325
 10
-55.4025688191
 20
-5.6404286667
 10
-55.4624499202
 20
-5.6487307363
 10
-55.5233210622
 20
-5.6599745915
 10
-55.5850255421
 20
-5.6743323652
 10
-55.6470932509
 20
-5.6923265524
 10
-55.709722018
 20
-5.714049211
 10
-55.772714014
 20
-5.7393888421
 10
-55.8350056415
 20
-5.768557826
 10
-55.8966150772
 20
-5.8016713856
 10
-55.9575241443
 20
-5.838580243
 10
-56.0166147147
 20
-5.8790965031
 10
-56.0735140791
 20
-5.9231427192
 10
-56.1285949468
 20
-5.9707510635
 10
-56.1818573178
 20
-6.0218955729
  0
LINE
  5
432
100
AcDbEntity
  8
SMUSSO
100
AcDbLine
 62
7
  6
CONTINUOUS
 10
-64.411233412
 20
-4.4763992505
 11
-65.0112441589
 21
-4.4873998833
  0
LINE
  5
433
100
AcDbEntity
  8
ASSI
100
AcDbLine
 62
7
  6
CONTINUOUS
 10
-64.411233412
 20
-4.4763992505
 11
-65.0112441589
 21
-4.4873998833
  0
LINE
  5
434
100
AcDbEntity
  8
DRAFT
100
AcDbLine
 62
7
  6
CONTINUOUS
 10
-65.411233412
 20
-6.3832074435
 11
-64.411233412
 21
-6.3657523785
  0
LINE
  5
435
100
AcDbEntity
  8
ASSI
100
AcDbLine
 62
7
  6
CONTINUOUS
 10
-65.411233412
 20
-6.3832074435
 11
-64.411233412
 21
-6.3657523785
  0
LINE
  5
436
100
AcDbEntity
  8
RACCORDO
100
AcDbLine
 62
7
  6
CONTINUOUS
 10
-43.3990167275
 20
-5.6101890577
 11
-55.2853066306
 21
-5.8176650197
  0
LINE
  5
437
100
AcDbEntity
  8
ASSI
100
AcDbLine
 62
7
  6
CONTINUOUS
 10
-43.3990167275
 20
-5.6101890577
 11
-55.2853066306
 21
-5.8176650197
  0
LINE
  5
438
100
AcDbEntity
  8
RACCORDO
100
AcDbLine
 62
250
  6
CONTINUOUS
 10
-43.3990167275
 20
-5.4242968838
 11
-55.2853066306
 21
-5.6331895769
  0
LINE
  5
439
100
AcDbEntity
  8
ASSI
100
AcDbLine
 62
250
  6
CONTINUOUS
 10
-43.3990167275
 20
-5.4242968838
 11
-55.2853066306
 21
-5.6331895769
  0
LINE
  5
43A
100
AcDbEntity
  8
RACCORDO
100
AcDbLine
 62
250
  6
CONTINUOUS
 10
-43.3990167275
 20
-3.5992765321
 11
-50.6964199242
 21
-3.641122969
  0
LINE
  5
43B
100
AcDbEntity
  8
ASSI
100
AcDbLine
 62
250
  6
CONTINUOUS
 10
-43.3990167275
 20
-3.5992765321
 11
-50.6964199242
 21
-3.641122969
  0
LWPOLYLINE
  5
43C
100
AcDbEntity
  8
RACCORDO
100
AcDbPolyline
 62
250
  6
CONTINUOUS
 90
3
 70
0
 10
-50.6964199242
 20
-3.641122969
 10
-58.0338254857
 20
-3.6830920713
 10
-65.411233412
 20
-3.7251819477
  0
LWPOLYLINE
  5
43D
100
AcDbEntity
  8
ASSI
100
AcDbPolyline
 62
250
  6
CONTINUOUS
 90
3
 70
0
 10
-50.6964199242
 20
-3.641122969
 10
-58.0338254857
 20
-3.6830920713
 10
-65.411233412
 20
-3.7251819477
  0
LINE
  5
43E
100
AcDbEntity
  8
SUPPORTO
100
AcDbLine
 62
7
  6
CONTINUOUS
 10
-65.411233412
 20
-6.0657523785
 11
-64.411233412
 21
-6.0657523785
  0
LINE
  5
43F
100
AcDbEntity
  8
SUPPORTO
100
AcDbLine
 62
250
  6
CONTINUOUS
 10
-65.411233412
 20
-4.5657523785
 11
-64.411233412
 21
-4.5657523785
  0
LINE
  5
440
100
AcDbEntity
  8
RACCORDO
100
AcDbLine
 62
7
  6
CONTINUOUS
 10
-64.411233412
 20
-6.2934215019
 11
-65.411233412
 21
-6.2846946341
  0
LWPOLYLINE
  5
441
100
AcDbEntity
  8
CURVE
100
AcDbPolyline
 62
250
  6
CONTINUOUS
 90
35
 70
0
 10
-63.284137445
 20
6.7726802771
 10
-63.292109678
 20
6.8278739284
 10
-63.2996419455
 20
6.8821449702
 10
-63.3067096075
 20
6.9354669759
 10
-63.3132880238
 20
6.9878135189
 10
-63.3193567413
 20
7.0391776018
 10
-63.3249120553
 20
7.0896299453
 10
-63.329954448
 20
7.1392606993
 10
-63.3344844017
 20
7.1881600138
 10
-63.3385020659
 20
7.2364114025
 10
-63.3420062602
 20
7.2840718344
 10
-63.3449954712
 20
7.3311916424
 10
-63.3474681859
 20
7.3778211593
 10
-63.3494212358
 20
7.4240135828
 10
-63.3508448323
 20
7.4698335705
 10
-63.3517275315
 20
7.5153486448
 10
-63.3520578895
 20
7.5606263281
 10
-63.3518216795
 20
7.6057254353
 10
-63.350993543
 20
7.6506699518
 10
-63.3495453386
 20
7.6954751552
 10
-63.3474489247
 20
7.7401563233
 10
-63.3446750506
 20
7.7847277509
 10
-63.3411900269
 20
7.8291998003
 10
-63.336959055
 20
7.873581851
 10
-63.3319473363
 20
7.9178832824
 10
-63.3273466085
 20
7.953268574
 10
-63.3221711324
 20
7.988588411
 10
-63.3163681091
 20
8.0238229323
 10
-63.3098847393
 20
8.0589522766
 10
-63.3026682239
 20
8.0939565831
 10
-63.2946647832
 20
8.1288159111
 10
-63.285816714
 20
8.1635100036
 10
-63.2760653328
 20
8.198018524
 10
-63.2653519557
 20
8.2323211357
 10
-63.253617899
 20
8.2663975022
  0
LINE
  5
442
100
AcDbEntity
  8
RACCORDO
100
AcDbLine
 62
250
  6
CONTINUOUS
 10
-57.5052797421
 20
-7.4415998699
 11
-57.5058050164
 21
-7.3746179791
  0
LINE
  5
443
100
AcDbEntity
  8
ASSI
100
AcDbLine
 62
250
  6
CONTINUOUS
 10
-57.5052797421
 20
-7.4415998699
 11
-57.5058050164
 21
-7.3746179791
  0
LINE
  5
444
100
AcDbEntity
  8
CURVE
100
AcDbLine
 62
250
  6
CONTINUOUS
 10
-58.3607841127
 20
5.2796956215
 11
-58.3607841127
 21
3.2796956215
  0
LINE
  5
445
100
AcDbEntity
  8
CURVE
100
AcDbLine
 62
250
  6
CONTINUOUS
 10
-58.3109440328
 20
29.362819251
 11
-58.3109440328
 21
28.955676135
  0
LINE
  5
446
100
AcDbEntity
  8
CURVE
100
AcDbLine
 62
250
  6
CONTINUOUS
 10
-58.3109440328
 20
25.0199621405
 11
-58.3109440328
 21
24.6128191377
  0
LINE
  5
447
100
AcDbEntity
  8
CURVE
100
AcDbLine
 62
250
  6
CONTINUOUS
 10
-58.3109440328
 20
23.2556763332
 11
-58.3109440328
 21
23.3913906391
  0
LINE
  5
448
100
AcDbEntity
  8
CURVE
100
AcDbLine
 62
250
  6
CONTINUOUS
 10
-58.3109440328
 20
26.2413905825
 11
-58.3109440328
 21
26.3771048035
  0
LINE
  5
449
100
AcDbEntity
  8
CURVE
100
AcDbLine
 62
250
  6
CONTINUOUS
 10
-58.3109440328
 20
27.32710503
 11
-58.3109440328
 21
28.141390809
  0
LINE
  5
44A
100
AcDbEntity
  8
CURVE
100
AcDbLine
 62
250
  6
CONTINUOUS
 10
-57.4967823867
 20
27.869961914
 11
-57.4967823867
 21
27.32710503
  0
LINE
  5
44B
100
AcDbEntity
  8
CURVE
100
AcDbLine
 62
250
  6
CONTINUOUS
 10
-57.2253951147
 20
24.6128191377
 11
-57.2253951147
 21
25.2009145106
  0
LINE
  5
44C
100
AcDbEntity
  8
CURVE
100
AcDbLine
 62
250
  6
CONTINUOUS
 10
-56.411233412
 20
29.634247693
 11
-56.411233412
 21
28.684247693
  0
LINE
  5
44D
100
AcDbEntity
  8
CURVE
100
AcDbLine
 62
250
  6
CONTINUOUS
 10
-56.411233412
 20
26.3771048035
 11
-56.411233412
 21
26.2413905825
  0
LINE
  5
44E
100
AcDbEntity
  8
CURVE
100
AcDbLine
 62
250
  6
CONTINUOUS
 10
-56.411233412
 20
23.3913906391
 11
-56.411233412
 21
23.2556763332
  0
LINE
  5
44F
100
AcDbEntity
  8
CURVE
100
AcDbLine
 62
250
  6
CONTINUOUS
 10
-56.411233412
 20
27.32710503
 11
-56.411233412
 21
27.869961914
  0
LINE
  5
450
100
AcDbEntity
  8
RACCORDO
100
AcDbLine
 62
250
  6
CONTINUOUS
 10
-57.5052209659
 20
34.740925817
 11
-57.5052800341
 21
34.7100952669
  0
LINE
  5
451
100
AcDbEntity
  8
ASSI
100
AcDbLine
 62
250
  6
CONTINUOUS
 10
-57.5052209659
 20
34.740925817
 11
-57.5052800341
 21
34.7100952669
  0
LWPOLYLINE
  5
452
100
AcDbEntity
  8
RACCORDO
100
AcDbPolyline
 62
250
  6
CONTINUOUS
 90
3
 70
0
 10
-57.5052800341
 20
34.7100952669
 10
-57.5055731575
 20
34.6680337798
 10
-57.505805403
 20
34.6431135526
  0
LWPOLYLINE
  5
453
100
AcDbEntity
  8
ASSI
100
AcDbPolyline
 62
250
  6
CONTINUOUS
 90
3
 70
0
 10
-57.5052800341
 20
34.7100952669
 10
-57.5055731575
 20
34.6680337798
 10
-57.505805403
 20
34.6431135526
  0
LWPOLYLINE
  5
454
100
AcDbEntity
  8
RACCORDO
100
AcDbPolyline
 62
250
  6
CONTINUOUS
 90
3
 70
0
 10
-55.2844978362
 20
33.0016353668
 10
-55.2849495824
 20
32.9387148116
 10
-55.2853066328
 20
32.9016848199
  0
LWPOLYLINE
  5
455
100
AcDbEntity
  8
ASSI
100
AcDbPolyline
 62
250
  6
CONTINUOUS
 90
3
 70
0
 10
-55.2844978362
 20
33.0016353668
 10
-55.2849495824
 20
32.9387148116
 10
-55.2853066328
 20
32.9016848199
  0
LWPOLYLINE
  5
456
100
AcDbEntity
  8
RACCORDO
100
AcDbPolyline
 62
250
  6
CONTINUOUS
 90
6
 70
0
 10
-57.5058049238
 20
-7.4975828707
 10
-57.5055727394
 20
-7.4959949222
 10
-57.5053973032
 20
-7.4912502063
 10
-57.5052797264
 20
-7.4833787791
 10
-57.5052207521
 20
-7.4724305033
 10
-57.5052797421
 20
-7.4415998699
  0
LWPOLYLINE
  5
457
100
AcDbEntity
  8
ASSI
100
AcDbPolyline
 62
250
  6
CONTINUOUS
 90
6
 70
0
 10
-57.5058049238
 20
-7.4975828707
 10
-57.5055727394
 20
-7.4959949222
 10
-57.5053973032
 20
-7.4912502063
 10
-57.5052797264
 20
-7.4833787791
 10
-57.5052207521
 20
-7.4724305033
 10
-57.5052797421
 20
-7.4415998699
  0
LWPOLYLINE
  5
458
100
AcDbEntity
  8
CURVE
100
AcDbPolyline
 62
250
  6
CONTINUOUS
 90
33
 70
0
 10
-46.8828934659
 20
13.0938852434
 10
-46.8555322628
 20
13.127060573
 10
-46.8288810297
 20
13.1609854494
 10
-46.8029501703
 20
13.1956310371
 10
-46.7777500879
 20
13.2309685008
 10
-46.7532911862
 20
13.2669690052
 10
-46.7295838685
 20
13.3036037149
 10
-46.7066385384
 20
13.3408437946
 10
-46.6844655993
 20
13.3786604089
 10
-46.6630754548
 20
13.4170247225
 10
-46.6424785083
 20
13.4559078999
 10
-46.6226851634
 20
13.4952811059
 10
-46.6037058236
 20
13.5351155051
 10
-46.5855508922
 20
13.5753822622
 10
-46.5682307729
 20
13.6160525417
 10
-46.5517558692
 20
13.6570975085
 10
-46.5361365844
 20
13.698488327
 10
-46.5213833222
 20
13.7401961619
 10
-46.5075064859
 20
13.782192178
 10
-46.4945164792
 20
13.8244475398
 10
-46.4824237054
 20
13.8669334119
 10
-46.4712385682
 20
13.9096209592
 10
-46.4609714709
 20
13.9524813461
 10
-46.4516328171
 20
13.9954857373
 10
-46.4432330102
 20
14.0386052975
 10
-46.4357824539
 20
14.0818111914
 10
-46.4292915514
 20
14.1250745836
 10
-46.4237707065
 20
14.1683666386
 10
-46.4192303225
 20
14.2116585213
 10
-46.4156808029
 20
14.2549213962
 10
-46.4131325512
 20
14.298126428
 10
-46.411595971
 20
14.3412447812
 10
-46.4110814657
 20
14.3842476207
  0
LINE
  5
459
100
AcDbEntity
  8
CURVE
100
AcDbLine
 62
250
  6
CONTINUOUS
 10
-51.9120710886
 20
7.6662479114
 11
-52.1834583323
 21
7.3622480563
  0
LINE
  5
45A
100
AcDbEntity
  8
CURVE
100
AcDbLine
 62
250
  6
CONTINUOUS
 10
-52.7262327914
 20
6.6022479114
 11
-52.9976200633
 21
6.2982480563
  0
LINE
  5
45B
100
AcDbEntity
  8
CURVE
100
AcDbLine
 62
250
  6
CONTINUOUS
 10
-53.5403944941
 20
5.0822476215
 11
-53.8117817094
 21
4.7782477664
  0
LWPOLYLINE
  5
45C
100
AcDbEntity
  8
RACCORDO
100
AcDbPolyline
 62
7
  6
CONTINUOUS
 90
8
 70
0
 10
-40.7810658623
 20
11.2505903135
 10
-40.7939188409
 20
11.2408956217
 10
-40.8088923721
 20
11.2315429369
 10
-40.8259230907
 20
11.2228699881
 10
-40.8450430736
 20
11.2154050722
 10
-40.865917871
 20
11.2094333407
 10
-40.8877933357
 20
11.2047395082
 10
-40.9102086204
 20
11.2012963565
  0
LWPOLYLINE
  5
45D
100
AcDbEntity
  8
ASSI
100
AcDbPolyline
 62
7
  6
CONTINUOUS
 90
8
 70
0
 10
-40.7810658623
 20
11.2505903135
 10
-40.7939188409
 20
11.2408956217
 10
-40.8088923721
 20
11.2315429369
 10
-40.8259230907
 20
11.2228699881
 10
-40.8450430736
 20
11.2154050722
 10
-40.865917871
 20
11.2094333407
 10
-40.8877933357
 20
11.2047395082
 10
-40.9102086204
 20
11.2012963565
  0
LINE
  5
45E
100
AcDbEntity
  8
CURVE
100
AcDbLine
 62
250
  6
CONTINUOUS
 10
-53.8117817094
 20
1.1302477302
 11
-51.9120710886
 21
1.7382476939
  0
LINE
  5
45F
100
AcDbEntity
  8
CURVE
100
AcDbLine
 62
250
  6
CONTINUOUS
 10
-63.318004779
 20
-2.3660123785
 11
-60.4192349741
 21
-1.4467653785
  0
LINE
  5
460
100
AcDbEntity
  8
CURVE
100
AcDbLine
 62
250
  6
CONTINUOUS
 10
-61.3226917095
 20
-1.1557733785
 11
-63.318004779
 21
-1.7085003785
  0
LWPOLYLINE
  5
461
100
AcDbEntity
  8
RACCORDO
100
AcDbPolyline
 62
250
  6
CONTINUOUS
 90
4
 70
0
 10
-43.3990167275
 20
-2.3513738971
 10
-50.7131779642
 20
-2.3960359284
 10
-54.3789752044
 20
-2.4183733882
 10
-65.411233412
 20
-2.4854115446
  0
LWPOLYLINE
  5
462
100
AcDbEntity
  8
ASSI
100
AcDbPolyline
 62
250
  6
CONTINUOUS
 90
4
 70
0
 10
-43.3990167275
 20
-2.3513738971
 10
-50.7131779642
 20
-2.3960359284
 10
-54.3789752044
 20
-2.4183733882
 10
-65.411233412
 20
-2.4854115446
  0
LINE
  5
463
100
AcDbEntity
  8
CURVE
100
AcDbLine
 62
250
  6
CONTINUOUS
 10
-55.411233412
 20
-2.3657523785
 11
-57.3109440328
 21
-2.3657523785
  0
LINE
  5
464
100
AcDbEntity
  8
RACCORDO
100
AcDbLine
 62
250
  6
CONTINUOUS
 10
-43.3990167275
 20
-2.3513738971
 11
-42.711233412
 21
-2.3513738971
  0
LINE
  5
465
100
AcDbEntity
  8
ASSI
100
AcDbLine
 62
250
  6
CONTINUOUS
 10
-43.3990167275
 20
-2.3513738971
 11
-42.711233412
 21
-2.3513738971
  0
LINE
  5
466
100
AcDbEntity
  8
CURVE
100
AcDbLine
 62
250
  6
CONTINUOUS
 10
-53.8117817094
 20
-1.7577523514
 11
-51.9120710886
 21
-1.7577523514
  0
LINE
  5
467
100
AcDbEntity
  8
CURVE
100
AcDbLine
 62
250
  6
CONTINUOUS
 10
-52.454845576
 20
-1.1497523242
 11
-53.2690072787
 21
-1.1497523242
  0
LINE
  5
468
100
AcDbEntity
  8
CURVE
100
AcDbLine
 62
250
  6
CONTINUOUS
 10
-53.2690072787
 20
-0.085752451
 11
-52.454845576
 21
-0.085752451
  0
LINE
  5
469
100
AcDbEntity
  8
CURVE
100
AcDbLine
 62
250
  6
CONTINUOUS
 10
-60.4192349741
 20
0.2433126215
 11
-63.318178726
 21
0.2433126215
  0
LINE
  5
46A
100
AcDbEntity
  8
CURVE
100
AcDbLine
 62
250
  6
CONTINUOUS
 10
-63.318004779
 20
-0.5861623785
 11
-61.3226917095
 21
-1.1557733785
  0
LINE
  5
46B
100
AcDbEntity
  8
CURVE
100
AcDbLine
 62
250
  6
CONTINUOUS
 10
-60.4192349741
 20
-0.9133693785
 11
-63.318004779
 21
0.0186956215
  0
LINE
  5
46C
100
AcDbEntity
  8
CURVE
100
AcDbLine
 62
250
  6
CONTINUOUS
 10
-63.318004779
 20
3.2451636215
 11
-61.7085991315
 21
2.6398926215
  0
LINE
  5
46D
100
AcDbEntity
  8
CURVE
100
AcDbLine
 62
250
  6
CONTINUOUS
 10
-53.2690072787
 20
-1.1497523242
 11
-53.5403944941
 21
-0.9977523967
  0
LINE
  5
46E
100
AcDbEntity
  8
CURVE
100
AcDbLine
 62
250
  6
CONTINUOUS
 10
-53.2690072787
 20
-2.3657523785
 11
-53.8117817094
 21
-1.7577523514
  0
LINE
  5
46F
100
AcDbEntity
  8
RACCORDO
100
AcDbLine
 62
250
  6
CONTINUOUS
 10
-55.2846796099
 20
-5.703626139
 11
-55.2853066328
 21
-5.6331895769
  0
LINE
  5
470
100
AcDbEntity
  8
ASSI
100
AcDbLine
 62
250
  6
CONTINUOUS
 10
-55.2846796099
 20
-5.703626139
 11
-55.2853066328
 21
-5.6331895769
  0
LINE
  5
471
100
AcDbEntity
  8
CURVE
100
AcDbLine
 62
250
  6
CONTINUOUS
 10
-55.411233412
 20
8.6342476215
 11
-55.411233412
 21
5.6342476215
  0
LINE
  5
472
100
AcDbEntity
  8
CURVE
100
AcDbLine
 62
250
  6
CONTINUOUS
 10
-55.411233412
 20
2.6342476215
 11
-55.411233412
 21
-0.3657523785
  0
LINE
  5
473
100
AcDbEntity
  8
CURVE
100
AcDbLine
 62
250
  6
CONTINUOUS
 10
-55.411233412
 20
-1.3657523785
 11
-55.411233412
 21
-2.3657523785
  0
LWPOLYLINE
  5
474
100
AcDbEntity
  8
0
100
AcDbPolyline
 62
7
  6
CONTINUOUS
 90
2
 70
0
 43
0.3500000006
 10
-54.0969484406
 20
45.884247345
 10
-54.0969484406
 20
47.3842478027
  0
LINE
  5
475
100
AcDbEntity
  8
CURVE
100
AcDbLine
 62
250
  6
CONTINUOUS
 10
-53.8117817094
 20
4.7782477664
 11
-53.8117817094
 21
4.3222474765
  0
LINE
  5
476
100
AcDbEntity
  8
CURVE
100
AcDbLine
 62
250
  6
CONTINUOUS
 10
-53.8117817094
 20
-0.6937524148
 11
-53.8117817094
 21
-0.5417523604
  0
LINE
  5
477
100
AcDbEntity
  8
CURVE
100
AcDbLine
 62
250
  6
CONTINUOUS
 10
-53.8117817094
 20
5.6902478389
 11
-53.8117817094
 21
6.6022479114
  0
LINE
  5
478
100
AcDbEntity
  8
CURVE
100
AcDbLine
 62
250
  6
CONTINUOUS
 10
-53.8117817094
 20
7.6662479114
 11
-53.8117817094
 21
7.8182473315
  0
LINE
  5
479
100
AcDbEntity
  8
CURVE
100
AcDbLine
 62
250
  6
CONTINUOUS
 10
-52.9976200633
 20
6.2982480563
 11
-52.9976200633
 21
5.6902478389
  0
LINE
  5
47A
100
AcDbEntity
  8
CURVE
100
AcDbLine
 62
250
  6
CONTINUOUS
 10
-52.454845576
 20
0.7249141673
 11
-52.454845576
 21
1.5355810393
  0
LINE
  5
47B
100
AcDbEntity
  8
CURVE
100
AcDbLine
 62
250
  6
CONTINUOUS
 10
-51.9120710886
 20
7.8182473315
 11
-51.9120710886
 21
7.6662479114
  0
LINE
  5
47C
100
AcDbEntity
  8
CURVE
100
AcDbLine
 62
250
  6
CONTINUOUS
 10
-51.9120710886
 20
5.0822476215
 11
-51.9120710886
 21
4.0182476215
  0
LINE
  5
47D
100
AcDbEntity
  8
CURVE
100
AcDbLine
 62
250
  6
CONTINUOUS
 10
-51.9120710886
 20
-0.5417523604
 11
-51.9120710886
 21
-0.6937524148
  0
LINE
  5
47E
100
AcDbEntity
  8
CURVE
100
AcDbLine
 62
250
  6
CONTINUOUS
 10
-51.9120710886
 20
5.6902478389
 11
-51.9120710886
 21
6.2982480563
  0
LWPOLYLINE
  5
47F
100
AcDbEntity
  8
RACCORDO
100
AcDbPolyline
 62
250
  6
CONTINUOUS
 90
7
 70
0
 10
-55.2853066315
 20
-5.8176650197
 10
-55.2849497601
 20
-5.8152556464
 10
-55.2846795899
 20
-5.8080607276
 10
-55.2844982769
 20
-5.7961378621
 10
-55.2844072534
 20
-5.779582521
 10
-55.2844072448
 20
-5.7585272736
 10
-55.2846796099
 20
-5.703626139
  0
LWPOLYLINE
  5
480
100
AcDbEntity
  8
ASSI
100
AcDbPolyline
 62
250
  6
CONTINUOUS
 90
7
 70
0
 10
-55.2853066315
 20
-5.8176650197
 10
-55.2849497601
 20
-5.8152556464
 10
-55.2846795899
 20
-5.8080607276
 10
-55.2844982769
 20
-5.7961378621
 10
-55.2844072534
 20
-5.779582521
 10
-55.2844072448
 20
-5.7585272736
 10
-55.2846796099
 20
-5.703626139
  0
LINE
  5
481
100
AcDbEntity
  8
CURVE
100
AcDbLine
 62
250
  6
CONTINUOUS
 10
-53.8117817094
 20
-0.5417523604
 11
-53.5403944941
 21
-0.2377523785
  0
LINE
  5
482
100
AcDbEntity
  8
CURVE
100
AcDbLine
 62
250
  6
CONTINUOUS
 10
-51.9120710886
 20
-0.6937524148
 11
-52.1834583323
 21
-0.9977523967
  0
LINE
  5
483
100
AcDbEntity
  8
RACCORDO
100
AcDbLine
 62
250
  6
CONTINUOUS
 10
-56.1818573178
 20
-6.0218955729
 11
-57.5058049572
 21
-7.3746180239
  0
LINE
  5
484
100
AcDbEntity
  8
ASSI
100
AcDbLine
 62
250
  6
CONTINUOUS
 10
-56.1818573178
 20
-6.0218955729
 11
-57.5058049572
 21
-7.3746180239
  0
LINE
  5
485
100
AcDbEntity
  8
CURVE
100
AcDbLine
 62
250
  6
CONTINUOUS
 10
-53.5403944941
 20
-0.2377523785
 11
-53.2690072787
 21
-0.085752451
  0
LINE
  5
486
100
AcDbEntity
  8
CURVE
100
AcDbLine
 62
250
  6
CONTINUOUS
 10
-52.1834583323
 20
-0.9977523967
 11
-52.454845576
 21
-1.1497523242
  0
LINE
  5
487
100
AcDbEntity
  8
CURVE
100
AcDbLine
 62
250
  6
CONTINUOUS
 10
-62.3041866683
 20
3.3986996215
 11
-60.4192349741
 21
3.5230546215
  0
LINE
  5
488
100
AcDbEntity
  8
CURVE
100
AcDbLine
 62
250
  6
CONTINUOUS
 10
-63.318178726
 20
0.8485836215
 11
-60.4192349741
 21
0.8485836215
  0
LINE
  5
489
100
AcDbEntity
  8
CURVE
100
AcDbLine
 62
250
  6
CONTINUOUS
 10
-58.3607841127
 20
3.2796956215
 11
-59.3106394231
 21
3.2796956215
  0
LINE
  5
48A
100
AcDbEntity
  8
CURVE
100
AcDbLine
 62
250
  6
CONTINUOUS
 10
-60.4192349741
 20
1.7534686215
 11
-62.3120772642
 21
1.8840856215
  0
LINE
  5
48B
100
AcDbEntity
  8
CURVE
100
AcDbLine
 62
250
  6
CONTINUOUS
 10
-63.318004779
 20
1.4362426215
 11
-60.4192349741
 21
1.1744206215
  0
LINE
  5
48C
100
AcDbEntity
  8
CURVE
100
AcDbLine
 62
250
  6
CONTINUOUS
 10
-61.4457262235
 20
5.0997476215
 11
-62.5214964586
 21
5.4011216215
  0
LINE
  5
48D
100
AcDbEntity
  8
CURVE
100
AcDbLine
 62
250
  6
CONTINUOUS
 10
-60.4192349741
 20
4.8089186215
 11
-60.9979326569
 21
4.9759356215
  0
LINE
  5
48E
100
AcDbEntity
  8
CURVE
100
AcDbLine
 62
250
  6
CONTINUOUS
 10
-63.318004779
 20
5.1197306215
 11
-60.4192349741
 21
4.2102146215
  0
LINE
  5
48F
100
AcDbEntity
  8
CURVE
100
AcDbLine
 62
250
  6
CONTINUOUS
 10
-51.9120710886
 20
0.5222475127
 11
-53.8117817094
 21
1.1302477302
  0
LINE
  5
490
100
AcDbEntity
  8
CURVE
100
AcDbLine
 62
250
  6
CONTINUOUS
 10
-60.4192349741
 20
2.6790316215
 11
-62.3041866683
 21
3.3986996215
  0
LINE
  5
491
100
AcDbEntity
  8
CURVE
100
AcDbLine
 62
250
  6
CONTINUOUS
 10
-52.454845576
 20
-0.085752451
 11
-52.1834583323
 21
-0.2377523785
  0
LWPOLYLINE
  5
492
100
AcDbEntity
  8
RACCORDO
100
AcDbPolyline
 62
250
  6
CONTINUOUS
 90
20
 70
0
 10
-74.8884122633
 20
20.4582717797
 10
-74.8884059283
 20
20.4582667009
 10
-74.8884089806
 20
20.4583199174
 10
-74.8884220856
 20
20.4584344764
 10
-74.8884263143
 20
20.4585440393
 10
-74.8884256137
 20
20.4586576379
 10
-74.8884348962
 20
20.4588280219
 10
-74.888442036
 20
20.4590179308
 10
-74.8884353281
 20
20.4591848196
 10
-74.8884190046
 20
20.4593424041
 10
-74.8884054566
 20
20.4595293893
 10
-74.888393638
 20
20.4597405079
 10
-74.888366933
 20
20.4599226124
 10
-74.8883377784
 20
20.4601146148
 10
-74.8883205172
 20
20.4603619154
 10
-74.8882915846
 20
20.4605908415
 10
-74.8882563268
 20
20.4608175132
 10
-74.888233272
 20
20.4611018945
 10
-74.8882038379
 20
20.4613903285
 10
-74.8881674285
 20
20.4616814169
  0
LINE
  5
493
100
AcDbEntity
  8
CURVE
100
AcDbLine
 62
250
  6
CONTINUOUS
 10
-53.5403944941
 20
-0.9977523967
 11
-53.8117817094
 21
-0.6937524148
  0
LINE
  5
494
100
AcDbEntity
  8
CURVE
100
AcDbLine
 62
250
  6
CONTINUOUS
 10
-52.1834583323
 20
-0.2377523785
 11
-51.9120710886
 21
-0.5417523604
  0
LWPOLYLINE
  5
495
100
AcDbEntity
  8
CURVE
100
AcDbPolyline
 62
250
  6
CONTINUOUS
 90
12
 70
0
 10
-61.8694977311
 20
8.4541536442
 10
-61.8514633191
 20
8.4332256503
 10
-61.8341890933
 20
8.4128910247
 10
-61.8258970598
 20
8.402675122
 10
-61.8180631868
 20
8.3923867415
 10
-61.8109066743
 20
8.3820454888
 10
-61.8045683118
 20
8.3716407785
 10
-61.799164108
 20
8.3611491528
 10
-61.7947893599
 20
8.3505258541
 10
-61.792489109
 20
8.3433501942
 10
-61.7907120989
 20
8.3361054535
 10
-61.7894839816
 20
8.3288033314
  0
LINE
  5
496
100
AcDbEntity
  8
CURVE
100
AcDbLine
 62
250
  6
CONTINUOUS
 10
-57.3109440328
 20
5.9251446215
 11
-55.411233412
 21
2.6342476215
  0
LWPOLYLINE
  5
497
100
AcDbEntity
  8
RACCORDO
100
AcDbPolyline
 62
250
  6
CONTINUOUS
 90
5
 70
0
 10
-57.505805034
 20
34.7660781155
 10
-57.5055728756
 20
34.7644901717
 10
-57.5053974622
 20
34.7597454689
 10
-57.5052799087
 20
34.7518740632
 10
-57.5052209659
 20
34.740925817
  0
LWPOLYLINE
  5
498
100
AcDbEntity
  8
ASSI
100
AcDbPolyline
 62
250
  6
CONTINUOUS
 90
5
 70
0
 10
-57.505805034
 20
34.7660781155
 10
-57.5055728756
 20
34.7644901717
 10
-57.5053974622
 20
34.7597454689
 10
-57.5052799087
 20
34.7518740632
 10
-57.5052209659
 20
34.740925817
  0
LWPOLYLINE
  5
499
100
AcDbEntity
  8
CURVE
100
AcDbPolyline
 62
250
  6
CONTINUOUS
 90
61
 70
0
 10
-50.4104726042
 20
14.3842476207
 10
-50.4091792877
 20
14.3264324766
 10
-50.4053377098
 20
14.2684695204
 10
-50.3990054275
 20
14.2104133966
 10
-50.3902399979
 20
14.1523187494
 10
-50.379098978
 20
14.0942402234
 10
-50.3656399251
 20
14.0362324628
 10
-50.3499203962
 20
13.9783501121
 10
-50.3319979483
 20
13.9206478157
 10
-50.3119301386
 20
13.8631802181
 10
-50.2897745242
 20
13.8060019634
 10
-50.2655886621
 20
13.7491676963
 10
-50.2394301095
 20
13.6927320611
 10
-50.2113564235
 20
13.6367497021
 10
-50.1814251611
 20
13.5812752638
 10
-50.1496938794
 20
13.5263633905
 10
-50.1162201356
 20
13.4720687267
 10
-50.0810614867
 20
13.4184459168
 10
-50.0442754898
 20
13.3655496051
 10
-50.005919702
 20
13.3134344361
 10
-49.9660516805
 20
13.2621550541
 10
-49.9247289822
 20
13.2117661036
 10
-49.8820091644
 20
13.1623222289
 10
-49.837949784
 20
13.1138780744
 10
-49.7926083983
 20
13.0664882846
 10
-49.7460425642
 20
13.0202075038
 10
-49.6983098389
 20
12.9750903764
 10
-49.6494677795
 20
12.9311915469
 10
-49.599573943
 20
12.8885656595
 10
-49.5486858866
 20
12.8472673588
 10
-49.4968611674
 20
12.8073512891
 10
-49.4441573424
 20
12.7688720948
 10
-49.3906319687
 20
12.7318844203
 10
-49.3363426035
 20
12.69644291
 10
-49.2813468038
 20
12.6626022083
 10
-49.2257021268
 20
12.6304169596
 10
-49.1694661295
 20
12.5999418082
 10
-49.1126963689
 20
12.5712313987
 10
-49.0554504023
 20
12.5443403753
 10
-48.9977857867
 20
12.5193233825
 10
-48.9397600792
 20
12.4962350647
 10
-48.8814308369
 20
12.4751300662
 10
-48.8228556169
 20
12.4560630315
 10
-48.7640919763
 20
12.439088605
 10
-48.7051974721
 20
12.4242614311
 10
-48.6462296615
 20
12.411636154
 10
-48.5872461016
 20
12.4012674184
 10
-48.5283043494
 20
12.3932098685
 10
-48.4694619621
 20
12.3875181487
 10
-48.4107764967
 20
12.3842469035
 10
-48.3559393735
 20
12.3834026984
 10
-48.3013096075
 20
12.3846336087
 10
-48.2469059909
 20
12.3878386822
 10
-48.1927473159
 20
12.3929169668
 10
-48.1388523747
 20
12.3997675104
 10
-48.0852399595
 20
12.4082893608
 10
-48.0319288624
 20
12.418381566
 10
-47.9789378757
 20
12.4299431737
 10
-47.9262857915
 20
12.4428732318
 10
-47.873991402
 20
12.4570707882
 10
-47.8220734994
 20
12.4724348908
  0
LINE
  5
49A
100
AcDbEntity
  8
0
100
AcDbLine
 62
250
  6
CONTINUOUS
 10
-48.4394253259
 20
32.9666649599
 11
-48.439349807
 21
32.9516758864
  0
LINE
  5
49B
100
AcDbEntity
  8
ASSI
100
AcDbLine
 62
250
  6
CONTINUOUS
 10
-48.4394253259
 20
32.9666649599
 11
-48.439349807
 21
32.9516758864
  0
LWPOLYLINE
  5
49C
100
AcDbEntity
  8
0
100
AcDbPolyline
 62
7
  6
CONTINUOUS
 90
4
 70
0
 43
0.3500000006
 10
-51.025520874
 20
48.241390274
 10
-51.025520874
 20
48.8842482605
 10
-49.5255204163
 20
48.8842482605
 10
-50.3826628876
 20
45.884247345
  0
LINE
  5
49D
100
AcDbEntity
  8
CURVE
100
AcDbLine
 62
250
  6
CONTINUOUS
 10
-48.711233412
 20
26.7556764211
 11
-48.711233412
 21
26.1985335197
  0
LINE
  5
49E
100
AcDbEntity
  8
CURVE
100
AcDbLine
 62
250
  6
CONTINUOUS
 10
-48.711233412
 20
25.486628684
 11
-48.711233412
 21
25.0223430361
  0
LINE
  5
49F
100
AcDbEntity
  8
CURVE
100
AcDbLine
 62
250
  6
CONTINUOUS
 10
-48.1540905881
 20
26.1985335197
 11
-48.1540905881
 21
26.569961914
  0
LWPOLYLINE
  5
4A0
100
AcDbEntity
  8
CURVE
100
AcDbPolyline
 62
250
  6
CONTINUOUS
 90
87
 70
0
 10
-49.9105480391
 20
14.3842476207
 10
-49.9092697691
 20
14.4348764563
 10
-49.9054767209
 20
14.4857015202
 10
-49.8992315373
 20
14.5366535299
 10
-49.8905968613
 20
14.5876632028
 10
-49.8796353356
 20
14.6386612564
 10
-49.8664096032
 20
14.6895784081
 10
-49.8509823067
 20
14.7403453754
 10
-49.8334160892
 20
14.7908928757
 10
-49.8137735933
 20
14.8411516265
 10
-49.792117462
 20
14.8910523453
 10
-49.7685103381
 20
14.9405257493
 10
-49.7430148644
 20
14.9895025563
 10
-49.7156936838
 20
15.0379134835
 10
-49.6866094391
 20
15.0856892484
 10
-49.6558247731
 20
15.1327605684
 10
-49.6234023287
 20
15.1790581611
 10
-49.5894047488
 20
15.2245127439
 10
-49.5538946761
 20
15.2690550341
 10
-49.5169347536
 20
15.3126157493
 10
-49.478587624
 20
15.355125607
 10
-49.4389159302
 20
15.3965153245
 10
-49.397982315
 20
15.4367156193
 10
-49.3558494213
 20
15.4756572088
 10
-49.3125798918
 20
15.5132708106
 10
-49.2682363696
 20
15.549487142
 10
-49.2228814973
 20
15.5842369205
 10
-49.1765779179
 20
15.6174508635
 10
-49.1293882741
 20
15.6490596886
 10
-49.0813752088
 20
15.6789941131
 10
-49.0326013649
 20
15.7071848545
 10
-48.9831293852
 20
15.7335626302
 10
-48.9330219125
 20
15.7580581578
 10
-48.8823415896
 20
15.7806021545
 10
-48.8311510595
 20
15.801125338
 10
-48.7795129649
 20
15.8195584256
 10
-48.7274899487
 20
15.8358321348
 10
-48.6751446538
 20
15.849877183
 10
-48.6225397229
 20
15.8616242877
 10
-48.5697377989
 20
15.8710041663
 10
-48.5168015246
 20
15.8779475364
 10
-48.463793543
 20
15.8823851152
 10
-48.4107764967
 20
15.8842476203
 10
-48.3578117531
 20
15.8834882377
 10
-48.3049555765
 20
15.880150027
 10
-48.2522629558
 20
15.8742985167
 10
-48.1997888798
 20
15.8659992351
 10
-48.1475883372
 20
15.8553177104
 10
-48.0957163169
 20
15.8423194709
 10
-48.0442278077
 20
15.827070045
 10
-47.9931777984
 20
15.809634961
 10
-47.9426212778
 20
15.7900797472
 10
-47.8926132346
 20
15.7684699318
 10
-47.8432086577
 20
15.7448710432
 10
-47.7944625359
 20
15.7193486098
 10
-47.746429858
 20
15.6919681597
 10
-47.6991656128
 20
15.6627952213
 10
-47.6527247891
 20
15.6318953229
 10
-47.6071623757
 20
15.5993339929
 10
-47.5625333614
 20
15.5651767594
 10
-47.5188927349
 20
15.5294891509
 10
-47.4762954852
 20
15.4923366957
 10
-47.434796601
 20
15.4537849219
 10
-47.394451071
 20
15.413899358
 10
-47.3553138842
 20
15.3727455323
 10
-47.3174400293
 20
15.330388973
 10
-47.2808844951
 20
15.2868952085
 10
-47.2457022704
 20
15.2423297671
 10
-47.211948344
 20
15.196758177
 10
-47.1796777047
 20
15.1502459666
 10
-47.1489453413
 20
15.1028586642
 10
-47.1198062427
 20
15.0546617981
 10
-47.0923153976
 20
15.0057208966
 10
-47.0665277947
 20
14.956101488
 10
-47.0424984231
 20
14.9058691006
 10
-47.0202822713
 20
14.8550892628
 10
-46.9999343283
 20
14.8038275027
 10
-46.9815095828
 20
14.7521493488
 10
-46.9650630236
 20
14.7001203293
 10
-46.9506496395
 20
14.6478059726
 10
-46.9383244194
 20
14.5952718069
 10
-46.9281423521
 20
14.5425833606
 10
-46.9201584262
 20
14.4898061619
 10
-46.9144276307
 20
14.4370057392
 10
-46.9110049544
 20
14.3842476207
 10
-46.9101041515
 20
14.3542114632
 10
-46.9099601648
 20
14.3242207223
  0
LWPOLYLINE
  5
4A1
100
AcDbEntity
  8
RACCORDO
100
AcDbPolyline
 62
250
  6
CONTINUOUS
 90
7
 70
0
 10
-40.7810654671
 20
11.2505900569
 10
-40.8006807356
 20
11.2267440038
 10
-40.8220165676
 20
11.2053835372
 10
-40.8448197134
 20
11.1866170505
 10
-40.8689283245
 20
11.1704989755
 10
-40.8940036313
 20
11.1571310453
 10
-40.9194901972
 20
11.1465939859
  0
LWPOLYLINE
  5
4A2
100
AcDbEntity
  8
ASSI
100
AcDbPolyline
 62
250
  6
CONTINUOUS
 90
7
 70
0
 10
-40.7810654671
 20
11.2505900569
 10
-40.8006807356
 20
11.2267440038
 10
-40.8220165676
 20
11.2053835372
 10
-40.8448197134
 20
11.1866170505
 10
-40.8689283245
 20
11.1704989755
 10
-40.8940036313
 20
11.1571310453
 10
-40.9194901972
 20
11.1465939859
  0
LINE
  5
4A3
100
AcDbEntity
  8
RACCORDO
100
AcDbLine
 62
7
  6
CONTINUOUS
 10
-55.7680646929
 20
-6.0225836595
 11
-57.7673039137
 21
-8.0218228802
  0
LINE
  5
4A4
100
AcDbEntity
  8
ASSI
100
AcDbLine
 62
7
  6
CONTINUOUS
 10
-55.7680646929
 20
-6.0225836595
 11
-57.7673039137
 21
-8.0218228802
  0
LINE
  5
4A5
100
AcDbEntity
  8
RACCORDO
100
AcDbLine
 62
250
  6
CONTINUOUS
 10
-57.0955514267
 20
-7.3500703932
 11
-57.1026412343
 21
-7.3567486036
  0
LINE
  5
4A6
100
AcDbEntity
  8
ASSI
100
AcDbLine
 62
250
  6
CONTINUOUS
 10
-57.0955514267
 20
-7.3500703932
 11
-57.1026412343
 21
-7.3567486036
  0
LWPOLYLINE
  5
4A7
100
AcDbEntity
  8
RACCORDO
100
AcDbPolyline
 62
250
  6
CONTINUOUS
 90
13
 70
0
 10
-55.7680646929
 20
-6.0225836594
 10
-55.7903222683
 20
-6.0416940244
 10
-55.8155617958
 20
-6.0575155686
 10
-55.8435960549
 20
-6.0699309345
 10
-55.8742170947
 20
-6.0788480304
 10
-55.907197777
 20
-6.0842007139
 10
-55.9422934613
 20
-6.0859492824
 10
-55.979243818
 20
-6.0840807669
 10
-56.0177747608
 20
-6.0786090292
 10
-56.0576004801
 20
-6.0695746581
 10
-56.0984255617
 20
-6.0570446685
 10
-56.139947178
 20
-6.0411120052
 10
-56.1818573351
 20
-6.0218948525
  0
LWPOLYLINE
  5
4A8
100
AcDbEntity
  8
ASSI
100
AcDbPolyline
 62
250
  6
CONTINUOUS
 90
13
 70
0
 10
-55.7680646929
 20
-6.0225836594
 10
-55.7903222683
 20
-6.0416940244
 10
-55.8155617958
 20
-6.0575155686
 10
-55.8435960549
 20
-6.0699309345
 10
-55.8742170947
 20
-6.0788480304
 10
-55.907197777
 20
-6.0842007139
 10
-55.9422934613
 20
-6.0859492824
 10
-55.979243818
 20
-6.0840807669
 10
-56.0177747608
 20
-6.0786090292
 10
-56.0576004801
 20
-6.0695746581
 10
-56.0984255617
 20
-6.0570446685
 10
-56.139947178
 20
-6.0411120052
 10
-56.1818573351
 20
-6.0218948525
  0
LWPOLYLINE
  5
4A9
100
AcDbEntity
  8
RACCORDO
100
AcDbPolyline
 62
250
  6
CONTINUOUS
 90
36
 70
0
 10
-57.1026412343
 20
-7.3567486036
 10
-57.1100369705
 20
-7.3629439499
 10
-57.117706453
 20
-7.3686755331
 10
-57.1256037562
 20
-7.3739547371
 10
-57.1337126243
 20
-7.3788118823
 10
-57.1420535084
 20
-7.3832877129
 10
-57.1506061643
 20
-7.3873954836
 10
-57.1593487965
 20
-7.391149201
 10
-57.1683117365
 20
-7.3945773235
 10
-57.1774844443
 20
-7.3976886745
 10
-57.1868483219
 20
-7.4004906795
 10
-57.1964300762
 20
-7.4029991347
 10
-57.2062224798
 20
-7.405218576
 10
-57.2162112078
 20
-7.40715326
 10
-57.2264175859
 20
-7.4088111227
 10
-57.2368324845
 20
-7.4101934947
 10
-57.2474476519
 20
-7.4113031087
 10
-57.258289394
 20
-7.4121439432
 10
-57.2693486673
 20
-7.4127147096
 10
-57.2806202018
 20
-7.4130157993
 10
-57.2921391409
 20
-7.4130473207
 10
-57.3039025903
 20
-7.4128050664
 10
-57.3159014551
 20
-7.412286241
 10
-57.3281639004
 20
-7.4114871891
 10
-57.3406529473
 20
-7.4104040408
 10
-57.3533931805
 20
-7.409031429
 10
-57.3665088695
 20
-7.4073511492
 10
-57.379993472
 20
-7.4053461533
 10
-57.39384462
 20
-7.4030037981
 10
-57.4081974414
 20
-7.4002923628
 10
-57.4230565315
 20
-7.3971823027
 10
-57.4384066401
 20
-7.3936526685
 10
-57.4543548386
 20
-7.3896662439
 10
-57.4709308906
 20
-7.3851850996
 10
-57.4880855134
 20
-7.3801797835
 10
-57.5058050163
 20
-7.3746179792
  0
LWPOLYLINE
  5
4AA
100
AcDbEntity
  8
ASSI
100
AcDbPolyline
 62
250
  6
CONTINUOUS
 90
36
 70
0
 10
-57.1026412343
 20
-7.3567486036
 10
-57.1100369705
 20
-7.3629439499
 10
-57.117706453
 20
-7.3686755331
 10
-57.1256037562
 20
-7.3739547371
 10
-57.1337126243
 20
-7.3788118823
 10
-57.1420535084
 20
-7.3832877129
 10
-57.1506061643
 20
-7.3873954836
 10
-57.1593487965
 20
-7.391149201
 10
-57.1683117365
 20
-7.3945773235
 10
-57.1774844443
 20
-7.3976886745
 10
-57.1868483219
 20
-7.4004906795
 10
-57.1964300762
 20
-7.4029991347
 10
-57.2062224798
 20
-7.405218576
 10
-57.2162112078
 20
-7.40715326
 10
-57.2264175859
 20
-7.4088111227
 10
-57.2368324845
 20
-7.4101934947
 10
-57.2474476519
 20
-7.4113031087
 10
-57.258289394
 20
-7.4121439432
 10
-57.2693486673
 20
-7.4127147096
 10
-57.2806202018
 20
-7.4130157993
 10
-57.2921391409
 20
-7.4130473207
 10
-57.3039025903
 20
-7.4128050664
 10
-57.3159014551
 20
-7.412286241
 10
-57.3281639004
 20
-7.4114871891
 10
-57.3406529473
 20
-7.4104040408
 10
-57.3533931805
 20
-7.409031429
 10
-57.3665088695
 20
-7.4073511492
 10
-57.379993472
 20
-7.4053461533
 10
-57.39384462
 20
-7.4030037981
 10
-57.4081974414
 20
-7.4002923628
 10
-57.4230565315
 20
-7.3971823027
 10
-57.4384066401
 20
-7.3936526685
 10
-57.4543548386
 20
-7.3896662439
 10
-57.4709308906
 20
-7.3851850996
 10
-57.4880855134
 20
-7.3801797835
 10
-57.5058050163
 20
-7.3746179792
  0
LINE
  5
4AB
100
AcDbEntity
  8
ASSI
100
AcDbLine
 62
7
  6
CONTINUOUS
 10
-57.7673039137
 20
-8.0218228802
 11
-59.2617379281
 21
-8.5657523785
  0
LINE
  5
4AC
100
AcDbEntity
  8
CURVE
100
AcDbLine
 62
250
  6
CONTINUOUS
 10
-60.9979326569
 20
5.8002146215
 11
-60.4192349741
 21
5.9570126215
  0
LINE
  5
4AD
100
AcDbEntity
  8
CURVE
100
AcDbLine
 62
250
  6
CONTINUOUS
 10
-62.5214964586
 20
5.4011216215
 11
-61.4457262235
 21
5.6792516215
  0
LINE
  5
4AE
100
AcDbEntity
  8
CURVE
100
AcDbLine
 62
250
  6
CONTINUOUS
 10
-60.4192349741
 20
4.1151706215
 11
-63.318004779
 21
3.8440206215
  0
LINE
  5
4AF
100
AcDbEntity
  8
CURVE
100
AcDbLine
 62
250
  6
CONTINUOUS
 10
-58.3607841127
 20
4.2796956215
 11
-57.8608602651
 21
4.2796956215
  0
LINE
  5
4B0
100
AcDbEntity
  8
CURVE
100
AcDbLine
 62
250
  6
CONTINUOUS
 10
-57.3109440328
 20
4.2796956215
 11
-56.3610887224
 21
4.2796956215
  0
LINE
  5
4B1
100
AcDbEntity
  8
CURVE
100
AcDbLine
 62
250
  6
CONTINUOUS
 10
-53.2690072787
 20
5.0822476215
 11
-53.5403944941
 21
5.0822476215
  0
LINE
  5
4B2
100
AcDbEntity
  8
CURVE
100
AcDbLine
 62
250
  6
CONTINUOUS
 10
-59.3106394231
 20
5.2796956215
 11
-58.3607841127
 21
5.2796956215
  0
LINE
  5
4B3
100
AcDbEntity
  8
CURVE
100
AcDbLine
 62
250
  6
CONTINUOUS
 10
-52.9976200633
 20
5.6902478389
 11
-53.8117817094
 21
5.6902478389
  0
LINE
  5
4B4
100
AcDbEntity
  8
CURVE
100
AcDbLine
 62
250
  6
CONTINUOUS
 10
-52.1834583323
 20
6.6022479114
 11
-52.7262327914
 21
6.6022479114
  0
LINE
  5
4B5
100
AcDbEntity
  8
CURVE
100
AcDbLine
 62
250
  6
CONTINUOUS
 10
-60.4192346219
 20
6.7726802771
 11
-63.284137445
 21
6.7726802771
  0
LINE
  5
4B6
100
AcDbEntity
  8
CURVE
100
AcDbLine
 62
250
  6
CONTINUOUS
 10
-52.454845576
 20
7.2102476215
 11
-53.2690072787
 21
7.2102476215
  0
LINE
  5
4B7
100
AcDbEntity
  8
CURVE
100
AcDbLine
 62
250
  6
CONTINUOUS
 10
-62.8241704983
 20
7.3554463496
 11
-62.0284015955
 21
7.3554463496
  0
LINE
  5
4B8
100
AcDbEntity
  8
CURVE
100
AcDbLine
 62
250
  6
CONTINUOUS
 10
-61.5536531024
 20
7.3755162382
 11
-60.4192346219
 21
7.3755162382
  0
LINE
  5
4B9
100
AcDbEntity
  8
CURVE
100
AcDbLine
 62
250
  6
CONTINUOUS
 10
-53.2690072787
 20
7.2102476215
 11
-53.5403944941
 21
7.3622480563
  0
LINE
  5
4BA
100
AcDbEntity
  8
CURVE
100
AcDbLine
 62
250
  6
CONTINUOUS
 10
-53.8117817094
 20
4.3222474765
 11
-53.4047008298
 21
4.0182476215
  0
LINE
  5
4BB
100
AcDbEntity
  8
CURVE
100
AcDbLine
 62
250
  6
CONTINUOUS
 10
-51.9120710886
 20
4.0182476215
 11
-53.2690072787
 21
5.0822476215
  0
LINE
  5
4BC
100
AcDbEntity
  8
CURVE
100
AcDbLine
 62
250
  6
CONTINUOUS
 10
-56.7710262774
 20
9.0294416215
 11
-57.3109440328
 21
9.6342476215
  0
LINE
  5
4BD
100
AcDbEntity
  8
CURVE
100
AcDbLine
 62
250
  6
CONTINUOUS
 10
-53.5403944941
 20
7.3622480563
 11
-53.8117817094
 21
7.6662479114
  0
LINE
  5
4BE
100
AcDbEntity
  8
CURVE
100
AcDbLine
 62
250
  6
CONTINUOUS
 10
-51.9120710886
 20
6.2982480563
 11
-52.1834583323
 21
6.6022479114
  0
LINE
  5
4BF
100
AcDbEntity
  8
CURVE
100
AcDbLine
 62
250
  6
CONTINUOUS
 10
-52.5000767786
 20
10.7062474765
 11
-52.6357703862
 21
11.0609138049
  0
LINE
  5
4C0
100
AcDbEntity
  8
CURVE
100
AcDbLine
 62
250
  6
CONTINUOUS
 10
-52.3643831426
 20
11.4662476215
 11
-52.5000767786
 21
11.871581438
  0
LWPOLYLINE
  5
4C1
100
AcDbEntity
  8
RACCORDO
100
AcDbPolyline
 62
250
  6
CONTINUOUS
 90
7
 70
0
 10
-55.2853066314
 20
33.0861602626
 10
-55.2849495814
 20
33.0837508463
 10
-55.2846792612
 20
33.076555824
 10
-55.2844978358
 20
33.0646328233
 10
-55.2844067585
 20
33.0480773405
 10
-55.2844067586
 20
33.0270219747
 10
-55.2844978362
 20
33.0016353668
  0
LWPOLYLINE
  5
4C2
100
AcDbEntity
  8
ASSI
100
AcDbPolyline
 62
250
  6
CONTINUOUS
 90
7
 70
0
 10
-55.2853066314
 20
33.0861602626
 10
-55.2849495814
 20
33.0837508463
 10
-55.2846792612
 20
33.076555824
 10
-55.2844978358
 20
33.0646328233
 10
-55.2844067585
 20
33.0480773405
 10
-55.2844067586
 20
33.0270219747
 10
-55.2844978362
 20
33.0016353668
  0
LINE
  5
4C3
100
AcDbEntity
  8
CURVE
100
AcDbLine
 62
250
  6
CONTINUOUS
 10
-47.782662
 20
24.5271049704
 11
-47.782662
 21
24.0318668272
  0
LINE
  5
4C4
100
AcDbEntity
  8
CURVE
100
AcDbLine
 62
250
  6
CONTINUOUS
 10
-47.411233412
 20
25.0223430361
 11
-47.411233412
 21
25.486628684
  0
LINE
  5
4C5
100
AcDbEntity
  8
CURVE
100
AcDbLine
 62
250
  6
CONTINUOUS
 10
-47.411233412
 20
26.1985335197
 11
-47.411233412
 21
26.7556764211
  0
LINE
  5
4C6
100
AcDbEntity
  8
CURVE
100
AcDbLine
 62
250
  6
CONTINUOUS
 10
-46.711233412
 20
27.5913902606
 11
-46.711233412
 21
27.2199615564
  0
LINE
  5
4C7
100
AcDbEntity
  8
CURVE
100
AcDbLine
 62
250
  6
CONTINUOUS
 10
-46.711233412
 20
23.7842474367
 11
-46.711233412
 21
23.0413902606
  0
LINE
  5
4C8
100
AcDbEntity
  8
CURVE
100
AcDbLine
 62
250
  6
CONTINUOUS
 10
-45.782662
 20
29.5104379977
 11
-45.782662
 21
29.015199932
  0
LINE
  5
4C9
100
AcDbEntity
  8
CURVE
100
AcDbLine
 62
250
  6
CONTINUOUS
 10
-45.411233412
 20
27.498533162
 11
-45.411233412
 21
27.1271044578
  0
LINE
  5
4CA
100
AcDbEntity
  8
CURVE
100
AcDbLine
 62
250
  6
CONTINUOUS
 10
-45.411233412
 20
24.6199617113
 11
-45.411233412
 21
24.3413902606
  0
LINE
  5
4CB
100
AcDbEntity
  8
CURVE
100
AcDbLine
 62
250
  6
CONTINUOUS
 10
-45.411233412
 20
12.3842469035
 11
-45.411233412
 21
11.3842476215
  0
LWPOLYLINE
  5
4CC
100
AcDbEntity
  8
CURVE
100
AcDbPolyline
 62
250
  6
CONTINUOUS
 90
31
 70
0
 10
-45.411233412
 20
14.3842476207
 10
-45.4119002189
 20
14.3235104983
 10
-45.4138931936
 20
14.2626349349
 10
-45.4172011672
 20
14.2016574549
 10
-45.4218129709
 20
14.1406145831
 10
-45.4277174356
 20
14.0795428438
 10
-45.4349033926
 20
14.0184787617
 10
-45.4433596728
 20
13.9574588614
 10
-45.4530751075
 20
13.8965196674
 10
-45.4640385276
 20
13.8356977044
 10
-45.4762387644
 20
13.7750294967
 10
-45.4896646488
 20
13.7145515691
 10
-45.5043050121
 20
13.6543004461
 10
-45.5201486852
 20
13.5943126522
 10
-45.5371844992
 20
13.5346247121
 10
-45.5554012854
 20
13.4752731503
 10
-45.5747878747
 20
13.4162944913
 10
-45.5953330983
 20
13.3577252597
 10
-45.6170257872
 20
13.2996019802
 10
-45.6398547726
 20
13.2419611772
 10
-45.6638088856
 20
13.1848393753
 10
-45.6888769572
 20
13.1282730991
 10
-45.7150478186
 20
13.0722988732
 10
-45.7423103007
 20
13.016953222
 10
-45.7706532349
 20
12.9622726703
 10
-45.800065452
 20
12.9082937426
 10
-45.8305357833
 20
12.8550529633
 10
-45.8620530598
 20
12.8025868572
 10
-45.8946061127
 20
12.7509319487
 10
-45.9281837729
 20
12.7001247624
 10
-45.9627748717
 20
12.6502018229
  0
LWPOLYLINE
  5
4CD
100
AcDbEntity
  8
CURVE
100
AcDbPolyline
 62
250
  6
CONTINUOUS
 90
37
 70
0
 10
-46.9099601648
 20
14.3242207223
 10
-46.9106166834
 20
14.2926245519
 10
-46.912090437
 20
14.2611027202
 10
-46.91436807
 20
14.2296674158
 10
-46.9174362271
 20
14.1983308273
 10
-46.9212815528
 20
14.1671051432
 10
-46.9258906918
 20
14.1360025522
 10
-46.9312502886
 20
14.1050352428
 10
-46.9373469879
 20
14.0742154037
 10
-46.9441674341
 20
14.0435552234
 10
-46.951698272
 20
14.0130668905
 10
-46.959926146
 20
13.9827625937
 10
-46.9688377008
 20
13.9526545214
 10
-46.978419581
 20
13.9227548623
 10
-46.9886584311
 20
13.893075805
 10
-46.9995408957
 20
13.863629538
 10
-47.0110536195
 20
13.83442825
 10
-47.023183247
 20
13.8054841296
 10
-47.0359164227
 20
13.7768093653
 10
-47.0492397914
 20
13.7484161457
 10
-47.0631399975
 20
13.7203166595
 10
-47.0776036857
 20
13.6925230951
 10
-47.0926175005
 20
13.6650476413
 10
-47.1081680865
 20
13.6379024865
 10
-47.1242420884
 20
13.6110998194
 10
-47.1408261507
 20
13.5846518286
 10
-47.157906918
 20
13.5585707026
 10
-47.1754710348
 20
13.5328686301
 10
-47.1935051458
 20
13.5075577996
 10
-47.2119958956
 20
13.4826503998
 10
-47.2309299287
 20
13.4581586191
 10
-47.2502938897
 20
13.4340946463
 10
-47.2700744233
 20
13.4104706699
 10
-47.2902581739
 20
13.3872988784
 10
-47.3108317863
 20
13.3645914605
 10
-47.3317819049
 20
13.3423606048
 10
-47.3530951744
 20
13.3206184999
  0
LWPOLYLINE
  5
4CE
100
AcDbEntity
  8
RACCORDO
100
AcDbPolyline
 62
250
  6
CONTINUOUS
 90
22
 70
0
 10
-42.71797906
 20
29.61986914
 10
-42.7223025673
 20
29.5664423055
 10
-42.7277513924
 20
29.5098508559
 10
-42.7343550048
 20
29.4500947914
 10
-42.7421757329
 20
29.3871666883
 10
-42.7512133771
 20
29.3210739703
 10
-42.7613588081
 20
29.2518389074
 10
-42.7726046666
 20
29.1794531977
 10
-42.7849180135
 20
29.1039251431
 10
-42.7980570739
 20
29.0253019202
 10
-42.8119818091
 20
28.9435959383
 10
-42.8265920984
 20
28.8587947881
 10
-42.8414446541
 20
28.7709084182
 10
-42.856481595
 20
28.6799929322
 10
-42.8715251743
 20
28.5859922265
 10
-42.8858234237
 20
28.488747939
 10
-42.8993151781
 20
28.3883036551
 10
-42.9117586876
 20
28.2846157893
 10
-42.9220057942
 20
28.1773952238
 10
-42.929551636
 20
28.0665455858
 10
-42.9346183738
 20
27.9521632479
 10
-42.9371334685
 20
27.8342482103
  0
LWPOLYLINE
  5
4CF
100
AcDbEntity
  8
ASSI
100
AcDbPolyline
 62
250
  6
CONTINUOUS
 90
22
 70
0
 10
-42.71797906
 20
29.61986914
 10
-42.7223025673
 20
29.5664423055
 10
-42.7277513924
 20
29.5098508559
 10
-42.7343550048
 20
29.4500947914
 10
-42.7421757329
 20
29.3871666883
 10
-42.7512133771
 20
29.3210739703
 10
-42.7613588081
 20
29.2518389074
 10
-42.7726046666
 20
29.1794531977
 10
-42.7849180135
 20
29.1039251431
 10
-42.7980570739
 20
29.0253019202
 10
-42.8119818091
 20
28.9435959383
 10
-42.8265920984
 20
28.8587947881
 10
-42.8414446541
 20
28.7709084182
 10
-42.856481595
 20
28.6799929322
 10
-42.8715251743
 20
28.5859922265
 10
-42.8858234237
 20
28.488747939
 10
-42.8993151781
 20
28.3883036551
 10
-42.9117586876
 20
28.2846157893
 10
-42.9220057942
 20
28.1773952238
 10
-42.929551636
 20
28.0665455858
 10
-42.9346183738
 20
27.9521632479
 10
-42.9371334685
 20
27.8342482103
  0
LWPOLYLINE
  5
4D0
100
AcDbEntity
  8
RACCORDO
100
AcDbPolyline
 62
250
  6
CONTINUOUS
 90
13
 70
0
 10
-42.711233412
 20
23.7731177422
 10
-42.7088347941
 20
23.7975846141
 10
-42.7016773387
 20
23.821660135
 10
-42.6898755611
 20
23.8449593298
 10
-42.6736182445
 20
23.8671096389
 10
-42.653165404
 20
23.8877568963
 10
-42.6288441143
 20
23.9065709872
 10
-42.6010433189
 20
23.9232510909
 10
-42.5702075827
 20
23.9375305205
 10
-42.5368299447
 20
23.9491809914
 10
-42.5014441034
 20
23.9580162357
 10
-42.4646158954
 20
23.9638949921
 10
-42.4269341989
 20
23.9667232802
  0
LWPOLYLINE
  5
4D1
100
AcDbEntity
  8
ASSI
100
AcDbPolyline
 62
250
  6
CONTINUOUS
 90
13
 70
0
 10
-42.711233412
 20
23.7731177422
 10
-42.7088347941
 20
23.7975846141
 10
-42.7016773387
 20
23.821660135
 10
-42.6898755611
 20
23.8449593298
 10
-42.6736182445
 20
23.8671096389
 10
-42.653165404
 20
23.8877568963
 10
-42.6288441143
 20
23.9065709872
 10
-42.6010433189
 20
23.9232510909
 10
-42.5702075827
 20
23.9375305205
 10
-42.5368299447
 20
23.9491809914
 10
-42.5014441034
 20
23.9580162357
 10
-42.4646158954
 20
23.9638949921
 10
-42.4269341989
 20
23.9667232802
  0
LWPOLYLINE
  5
4D2
100
AcDbEntity
  8
RACCORDO
100
AcDbPolyline
 62
250
  6
CONTINUOUS
 90
22
 70
0
 10
-42.4365708389
 20
29.4436200428
 10
-42.4426820115
 20
29.3953709564
 10
-42.4504801116
 20
29.3444105731
 10
-42.459965139
 20
29.2906670573
 10
-42.4711864656
 20
29.2340099396
 10
-42.4840947196
 20
29.1744330014
 10
-42.4985417858
 20
29.1120650338
 10
-42.5146372964
 20
29.0468799754
 10
-42.5322716192
 20
28.9788153386
 10
-42.5509677431
 20
28.9079705374
 10
-42.5708681436
 20
28.8343691892
 10
-42.5918303451
 20
28.757955908
 10
-42.6129499103
 20
28.6787359163
 10
-42.6344113742
 20
28.5968068029
 10
-42.6560302019
 20
28.5121042241
 10
-42.6763483507
 20
28.4244118176
 10
-42.6955604857
 20
28.3338627109
 10
-42.7134719419
 20
28.2404327901
 10
-42.7280406817
 20
28.1436947625
 10
-42.7385860259
 20
28.0435810847
 10
-42.7457886538
 20
27.9403831902
 10
-42.7496485653
 20
27.8342476215
  0
LWPOLYLINE
  5
4D3
100
AcDbEntity
  8
ASSI
100
AcDbPolyline
 62
250
  6
CONTINUOUS
 90
22
 70
0
 10
-42.4365708389
 20
29.4436200428
 10
-42.4426820115
 20
29.3953709564
 10
-42.4504801116
 20
29.3444105731
 10
-42.459965139
 20
29.2906670573
 10
-42.4711864656
 20
29.2340099396
 10
-42.4840947196
 20
29.1744330014
 10
-42.4985417858
 20
29.1120650338
 10
-42.5146372964
 20
29.0468799754
 10
-42.5322716192
 20
28.9788153386
 10
-42.5509677431
 20
28.9079705374
 10
-42.5708681436
 20
28.8343691892
 10
-42.5918303451
 20
28.757955908
 10
-42.6129499103
 20
28.6787359163
 10
-42.6344113742
 20
28.5968068029
 10
-42.6560302019
 20
28.5121042241
 10
-42.6763483507
 20
28.4244118176
 10
-42.6955604857
 20
28.3338627109
 10
-42.7134719419
 20
28.2404327901
 10
-42.7280406817
 20
28.1436947625
 10
-42.7385860259
 20
28.0435810847
 10
-42.7457886538
 20
27.9403831902
 10
-42.7496485653
 20
27.8342476215
  0
LWPOLYLINE
  5
4D4
100
AcDbEntity
  8
RACCORDO
100
AcDbPolyline
 62
250
  6
CONTINUOUS
 90
6
 70
0
 10
-42.6608954538
 20
-2.6039001147
 10
-42.6684235553
 20
-2.6119631937
 10
-42.6761476553
 20
-2.6204201316
 10
-42.6840788731
 20
-2.6292648394
 10
-42.6922060893
 20
-2.6385034061
 10
-42.700498653
 20
-2.6482594072
  0
LWPOLYLINE
  5
4D5
100
AcDbEntity
  8
ASSI
100
AcDbPolyline
 62
250
  6
CONTINUOUS
 90
6
 70
0
 10
-42.6608954538
 20
-2.6039001147
 10
-42.6684235553
 20
-2.6119631937
 10
-42.6761476553
 20
-2.6204201316
 10
-42.6840788731
 20
-2.6292648394
 10
-42.6922060893
 20
-2.6385034061
 10
-42.700498653
 20
-2.6482594072
  0
LINE
  5
4D6
100
AcDbEntity
  8
RACCORDO
100
AcDbLine
 62
250
  6
CONTINUOUS
 10
-42.6464844134
 20
-2.5886871661
 11
-42.6608954538
 21
-2.6039001147
  0
LINE
  5
4D7
100
AcDbEntity
  8
ASSI
100
AcDbLine
 62
250
  6
CONTINUOUS
 10
-42.6464844134
 20
-2.5886871661
 11
-42.6608954538
 21
-2.6039001147
  0
LINE
  5
4D8
100
AcDbEntity
  8
RACCORDO
100
AcDbLine
 62
250
  6
CONTINUOUS
 10
-42.6327132553
 20
-2.5744279921
 11
-42.6464844134
 21
-2.5886871661
  0
LINE
  5
4D9
100
AcDbEntity
  8
ASSI
100
AcDbLine
 62
250
  6
CONTINUOUS
 10
-42.6327132553
 20
-2.5744279921
 11
-42.6464844134
 21
-2.5886871661
  0
LWPOLYLINE
  5
4DA
100
AcDbEntity
  8
RACCORDO
100
AcDbPolyline
 62
250
  6
CONTINUOUS
 90
3
 70
0
 10
-42.6118183433
 20
-2.5530954848
 10
-42.6187885944
 20
-2.5601657554
 10
-42.6327132553
 20
-2.5744279921
  0
LWPOLYLINE
  5
4DB
100
AcDbEntity
  8
ASSI
100
AcDbPolyline
 62
250
  6
CONTINUOUS
 90
3
 70
0
 10
-42.6118183433
 20
-2.5530954848
 10
-42.6187885944
 20
-2.5601657554
 10
-42.6327132553
 20
-2.5744279921
  0
LINE
  5
4DC
100
AcDbEntity
  8
CURVE
100
AcDbLine
 62
250
  6
CONTINUOUS
 10
-61.2739428882
 20
8.6586047937
 11
-61.2394602137
 21
8.6680183742
  0
LWPOLYLINE
  5
4DD
100
AcDbEntity
  8
CURVE
100
AcDbPolyline
 62
250
  6
CONTINUOUS
 90
4
 70
0
 10
-61.2394602137
 20
8.6680183742
 10
-61.1180685361
 20
8.7008322625
 10
-61.0319091844
 20
8.7237106585
 10
-60.9452427009
 20
8.7464475922
  0
LWPOLYLINE
  5
4DE
100
AcDbEntity
  8
CURVE
100
AcDbPolyline
 62
250
  6
CONTINUOUS
 90
4
 70
0
 10
-60.6828220388
 20
8.8146845058
 10
-60.595021976
 20
8.8376742977
 10
-60.507165053
 20
8.8609427661
 10
-60.4192346219
 20
8.8846066066
  0
LINE
  5
4DF
100
AcDbEntity
  8
CURVE
100
AcDbLine
 62
250
  6
CONTINUOUS
 10
-60.9452427009
 20
8.7464475922
 11
-60.6828220388
 21
8.8146845058
  0
LINE
  5
4E0
100
AcDbEntity
  8
RACCORDO
100
AcDbLine
 62
250
  6
CONTINUOUS
 10
-40.9704358433
 20
11.1337826071
 11
-40.9955326251
 21
11.1313182822
  0
LINE
  5
4E1
100
AcDbEntity
  8
ASSI
100
AcDbLine
 62
250
  6
CONTINUOUS
 10
-40.9704358433
 20
11.1337826071
 11
-40.9955326251
 21
11.1313182822
  0
LWPOLYLINE
  5
4E2
100
AcDbEntity
  8
RACCORDO
100
AcDbPolyline
 62
250
  6
CONTINUOUS
 90
31
 70
0
 10
-42.4269341989
 20
11.0455613815
 10
-42.4428859857
 20
11.0440010548
 10
-42.4594060236
 20
11.0409783486
 10
-42.4764284142
 20
11.0364096822
 10
-42.4939885003
 20
11.0301878819
 10
-42.5118751225
 20
11.0222423827
 10
-42.5296525591
 20
11.0125975051
 10
-42.5472487288
 20
11.0011437287
 10
-42.5645413447
 20
10.9879427561
 10
-42.5810725007
 20
10.973394468
 10
-42.5968097992
 20
10.9574697408
 10
-42.611671891
 20
10.9402940632
 10
-42.6252418102
 20
10.9226273797
 10
-42.637460287
 20
10.9047165524
 10
-42.6484701716
 20
10.8865387168
 10
-42.658254329
 20
10.8685131541
 10
-42.666836774
 20
10.8508664883
 10
-42.6743506775
 20
10.8335582746
 10
-42.6809453541
 20
10.816592047
 10
-42.6866874525
 20
10.8000323366
 10
-42.6916349142
 20
10.7839252029
 10
-42.6958908763
 20
10.7682202118
 10
-42.6995072494
 20
10.7529547652
 10
-42.7025316794
 20
10.7381597274
 10
-42.705034725
 20
10.7237598257
 10
-42.7070554207
 20
10.7097780008
 10
-42.7086312379
 20
10.6962334381
 10
-42.7098089538
 20
10.68303663
 10
-42.7106186503
 20
10.6701658218
 10
-42.7110842676
 20
10.6576688088
 10
-42.711233412
 20
10.6455563369
  0
LWPOLYLINE
  5
4E3
100
AcDbEntity
  8
ASSI
100
AcDbPolyline
 62
250
  6
CONTINUOUS
 90
31
 70
0
 10
-42.4269341989
 20
11.0455613815
 10
-42.4428859857
 20
11.0440010548
 10
-42.4594060236
 20
11.0409783486
 10
-42.4764284142
 20
11.0364096822
 10
-42.4939885003
 20
11.0301878819
 10
-42.5118751225
 20
11.0222423827
 10
-42.5296525591
 20
11.0125975051
 10
-42.5472487288
 20
11.0011437287
 10
-42.5645413447
 20
10.9879427561
 10
-42.5810725007
 20
10.973394468
 10
-42.5968097992
 20
10.9574697408
 10
-42.611671891
 20
10.9402940632
 10
-42.6252418102
 20
10.9226273797
 10
-42.637460287
 20
10.9047165524
 10
-42.6484701716
 20
10.8865387168
 10
-42.658254329
 20
10.8685131541
 10
-42.666836774
 20
10.8508664883
 10
-42.6743506775
 20
10.8335582746
 10
-42.6809453541
 20
10.816592047
 10
-42.6866874525
 20
10.8000323366
 10
-42.6916349142
 20
10.7839252029
 10
-42.6958908763
 20
10.7682202118
 10
-42.6995072494
 20
10.7529547652
 10
-42.7025316794
 20
10.7381597274
 10
-42.705034725
 20
10.7237598257
 10
-42.7070554207
 20
10.7097780008
 10
-42.7086312379
 20
10.6962334381
 10
-42.7098089538
 20
10.68303663
 10
-42.7106186503
 20
10.6701658218
 10
-42.7110842676
 20
10.6576688088
 10
-42.711233412
 20
10.6455563369
  0
LWPOLYLINE
  5
4E4
100
AcDbEntity
  8
RACCORDO
100
AcDbPolyline
 62
250
  6
CONTINUOUS
 90
14
 70
0
 10
-40.9139594726
 20
11.2278793489
 10
-40.9031846612
 20
11.2288618366
 10
-40.8923858363
 20
11.2299593402
 10
-40.8815847745
 20
11.231189092
 10
-40.8708230986
 20
11.2325321676
 10
-40.8601291611
 20
11.2340004751
 10
-40.8495307607
 20
11.235608778
 10
-40.8390690675
 20
11.2373399467
 10
-40.8287735823
 20
11.2392036132
 10
-40.8186768915
 20
11.2412122548
 10
-40.8088242178
 20
11.2433502108
 10
-40.7992516514
 20
11.2456169477
 10
-40.7899876006
 20
11.2480281379
 10
-40.7810654671
 20
11.2505900569
  0
LWPOLYLINE
  5
4E5
100
AcDbEntity
  8
ASSI
100
AcDbPolyline
 62
250
  6
CONTINUOUS
 90
14
 70
0
 10
-40.9139594726
 20
11.2278793489
 10
-40.9031846612
 20
11.2288618366
 10
-40.8923858363
 20
11.2299593402
 10
-40.8815847745
 20
11.231189092
 10
-40.8708230986
 20
11.2325321676
 10
-40.8601291611
 20
11.2340004751
 10
-40.8495307607
 20
11.235608778
 10
-40.8390690675
 20
11.2373399467
 10
-40.8287735823
 20
11.2392036132
 10
-40.8186768915
 20
11.2412122548
 10
-40.8088242178
 20
11.2433502108
 10
-40.7992516514
 20
11.2456169477
 10
-40.7899876006
 20
11.2480281379
 10
-40.7810654671
 20
11.2505900569
  0
LWPOLYLINE
  5
4E6
100
AcDbEntity
  8
RACCORDO
100
AcDbPolyline
 62
250
  6
CONTINUOUS
 90
14
 70
0
 10
-42.4312951409
 20
11.1254738582
 10
-42.4527400386
 20
11.1237836366
 10
-42.4747375189
 20
11.1201766737
 10
-42.4972875818
 20
11.1146529695
 10
-42.5206635195
 20
11.1072497229
 10
-42.5445920397
 20
11.097929735
 10
-42.5682532655
 20
11.086581409
 10
-42.5916428805
 20
11.0730079299
 10
-42.614765201
 20
11.0574061127
 10
-42.636813299
 20
11.040254806
 10
-42.657711065
 20
11.0213575622
 10
-42.6775346085
 20
11.0009108288
 10
-42.69570533
 20
10.979982797
 10
-42.711233412
 20
10.9596731232
  0
LWPOLYLINE
  5
4E7
100
AcDbEntity
  8
ASSI
100
AcDbPolyline
 62
250
  6
CONTINUOUS
 90
14
 70
0
 10
-42.4312951409
 20
11.1254738582
 10
-42.4527400386
 20
11.1237836366
 10
-42.4747375189
 20
11.1201766737
 10
-42.4972875818
 20
11.1146529695
 10
-42.5206635195
 20
11.1072497229
 10
-42.5445920397
 20
11.097929735
 10
-42.5682532655
 20
11.086581409
 10
-42.5916428805
 20
11.0730079299
 10
-42.614765201
 20
11.0574061127
 10
-42.636813299
 20
11.040254806
 10
-42.657711065
 20
11.0213575622
 10
-42.6775346085
 20
11.0009108288
 10
-42.69570533
 20
10.979982797
 10
-42.711233412
 20
10.9596731232
  0
LWPOLYLINE
  5
4E8
100
AcDbEntity
  8
RACCORDO
100
AcDbPolyline
 62
7
  6
CONTINUOUS
 90
3
 70
0
 10
-40.9102086204
 20
11.2012963565
 10
-40.9330429332
 20
11.1995020538
 10
-40.9560537544
 20
11.1995648423
  0
LWPOLYLINE
  5
4E9
100
AcDbEntity
  8
ASSI
100
AcDbPolyline
 62
7
  6
CONTINUOUS
 90
3
 70
0
 10
-40.9102086204
 20
11.2012963565
 10
-40.9330429332
 20
11.1995020538
 10
-40.9560537544
 20
11.1995648423
  0
LINE
  5
4EA
100
AcDbEntity
  8
RACCORDO
100
AcDbLine
 62
250
  6
CONTINUOUS
 10
-40.9955326251
 20
11.1313177573
 11
-41.2203075883
 21
11.1177853054
  0
LINE
  5
4EB
100
AcDbEntity
  8
ASSI
100
AcDbLine
 62
250
  6
CONTINUOUS
 10
-40.9955326251
 20
11.1313177573
 11
-41.2203075883
 21
11.1177853054
  0
LWPOLYLINE
  5
4EC
100
AcDbEntity
  8
RACCORDO
100
AcDbPolyline
 62
250
  6
CONTINUOUS
 90
3
 70
0
 10
-41.2203075883
 20
11.1177853054
 10
-41.6864078736
 20
11.0898120448
 10
-41.9277331957
 20
11.0753685887
  0
LWPOLYLINE
  5
4ED
100
AcDbEntity
  8
ASSI
100
AcDbPolyline
 62
250
  6
CONTINUOUS
 90
3
 70
0
 10
-41.2203075883
 20
11.1177853054
 10
-41.6864078736
 20
11.0898120448
 10
-41.9277331957
 20
11.0753685887
  0
LINE
  5
4EE
100
AcDbEntity
  8
RACCORDO
100
AcDbLine
 62
250
  6
CONTINUOUS
 10
-41.9277331957
 20
11.0753685887
 11
-42.4269341988
 21
11.0455613744
  0
LINE
  5
4EF
100
AcDbEntity
  8
ASSI
100
AcDbLine
 62
250
  6
CONTINUOUS
 10
-41.9277331957
 20
11.0753685887
 11
-42.4269341988
 21
11.0455613744
  0
LINE
  5
4F0
100
AcDbEntity
  8
RACCORDO
100
AcDbLine
 62
250
  6
CONTINUOUS
 10
-41.2182233904
 20
11.1972769225
 11
-41.6075319303
 21
11.1741676096
  0
LINE
  5
4F1
100
AcDbEntity
  8
ASSI
100
AcDbLine
 62
250
  6
CONTINUOUS
 10
-41.2182233904
 20
11.1972769225
 11
-41.6075319303
 21
11.1741676096
  0
LINE
  5
4F2
100
AcDbEntity
  8
RACCORDO
100
AcDbLine
 62
250
  6
CONTINUOUS
 10
-41.6075319303
 20
11.1741676096
 11
-42.0118891805
 21
11.1502332548
  0
LINE
  5
4F3
100
AcDbEntity
  8
ASSI
100
AcDbLine
 62
250
  6
CONTINUOUS
 10
-41.6075319303
 20
11.1741676096
 11
-42.0118891805
 21
11.1502332548
  0
LINE
  5
4F4
100
AcDbEntity
  8
RACCORDO
100
AcDbLine
 62
250
  6
CONTINUOUS
 10
-42.0118891805
 20
11.1502332548
 11
-42.4312951409
 21
11.1254738582
  0
LINE
  5
4F5
100
AcDbEntity
  8
ASSI
100
AcDbLine
 62
250
  6
CONTINUOUS
 10
-42.0118891805
 20
11.1502332548
 11
-42.4312951409
 21
11.1254738582
  0
LWPOLYLINE
  5
4F6
100
AcDbEntity
  8
RACCORDO
100
AcDbPolyline
 62
250
  6
CONTINUOUS
 90
5
 70
0
 10
-40.9561751805
 20
11.2250206531
 10
-40.9458114549
 20
11.2255868261
 10
-40.935307108
 20
11.2262408595
 10
-40.9246832533
 20
11.2269985647
 10
-40.9139594726
 20
11.2278793489
  0
LWPOLYLINE
  5
4F7
100
AcDbEntity
  8
ASSI
100
AcDbPolyline
 62
250
  6
CONTINUOUS
 90
5
 70
0
 10
-40.9561751805
 20
11.2250206531
 10
-40.9458114549
 20
11.2255868261
 10
-40.935307108
 20
11.2262408595
 10
-40.9246832533
 20
11.2269985647
 10
-40.9139594726
 20
11.2278793489
  0
LINE
  5
4F8
100
AcDbEntity
  8
DRAFT
100
AcDbLine
 62
7
  6
CONTINUOUS
 10
-42.4269341988
 20
10.4991471119
 11
-40.9955326251
 21
10.5741636896
  0
LINE
  5
4F9
100
AcDbEntity
  8
ASSI
100
AcDbLine
 62
7
  6
CONTINUOUS
 10
-42.4269341988
 20
10.4991471119
 11
-40.9955326251
 21
10.5741636896
  0
LWPOLYLINE
  5
4FA
100
AcDbEntity
  8
CURVE
100
AcDbPolyline
 62
250
  6
CONTINUOUS
 90
49
 70
0
 10
-62.4788692248
 20
8.1715275953
 10
-62.490179885
 20
8.1711673442
 10
-62.5014199408
 20
8.1704459541
 10
-62.5125936312
 20
8.1693698724
 10
-62.523705195
 20
8.1679455461
 10
-62.5347588712
 20
8.1661794227
 10
-62.5457588985
 20
8.1640779493
 10
-62.5567067608
 20
8.1616470709
 10
-62.5675929214
 20
8.1588907229
 10
-62.5784050882
 20
8.1558123385
 10
-62.5891309695
 20
8.1524153508
 10
-62.5997582734
 20
8.1487031931
 10
-62.6102747079
 20
8.1446792984
 10
-62.6206682285
 20
8.1403470719
 10
-62.6309277794
 20
8.1357098067
 10
-62.6410425523
 20
8.1307707682
 10
-62.6510017388
 20
8.1255332214
 10
-62.6607945304
 20
8.1200004315
 10
-62.6704101187
 20
8.1141756636
 10
-62.6798375276
 20
8.1080618226
 10
-62.6890651099
 20
8.1016603706
 10
-62.6980810505
 20
8.0949724098
 10
-62.7068735345
 20
8.0879990419
 10
-62.7154307469
 20
8.0807413688
 10
-62.7237408727
 20
8.0732004925
 10
-62.7317936424
 20
8.0653792056
 10
-62.7395849676
 20
8.0572870635
 10
-62.7471123055
 20
8.0489353125
 10
-62.7543731133
 20
8.0403351988
 10
-62.761364848
 20
8.0314979685
 10
-62.7680849668
 20
8.0224348679
 10
-62.7745313057
 20
8.0131566564
 10
-62.780703217
 20
8.0036721458
 10
-62.7866004317
 20
7.9939896612
 10
-62.792222681
 20
7.9841175275
 10
-62.7975696958
 20
7.9740640699
 10
-62.8026412074
 20
7.9638376134
 10
-62.8074366499
 20
7.953446053
 10
-62.8119542697
 20
7.9428955639
 10
-62.8161920159
 20
7.9321918914
 10
-62.8201478382
 20
7.9213407806
 10
-62.8238196857
 20
7.9103479768
 10
-62.8272055078
 20
7.8992192252
 10
-62.8303025002
 20
7.8879588506
 10
-62.8331048432
 20
7.876565496
 10
-62.8356059634
 20
7.8650363843
 10
-62.8377992874
 20
7.853368738
 10
-62.8396782418
 20
7.8415597798
 10
-62.8412362532
 20
7.8296067323
  0
LWPOLYLINE
  5
4FB
100
AcDbEntity
  8
RACCORDO
100
AcDbPolyline
 62
250
  6
CONTINUOUS
 90
5
 70
0
 10
-40.9955326251
 20
11.2236999183
 10
-40.9860352234
 20
11.2239303759
 10
-40.976302731
 20
11.224212277
 10
-40.966348076
 20
11.224564703
 10
-40.9561751805
 20
11.2250206531
  0
LWPOLYLINE
  5
4FC
100
AcDbEntity
  8
ASSI
100
AcDbPolyline
 62
250
  6
CONTINUOUS
 90
5
 70
0
 10
-40.9955326251
 20
11.2236999183
 10
-40.9860352234
 20
11.2239303759
 10
-40.976302731
 20
11.224212277
 10
-40.966348076
 20
11.224564703
 10
-40.9561751805
 20
11.2250206531
  0
LINE
  5
4FD
100
AcDbEntity
  8
RACCORDO
100
AcDbLine
 62
7
  6
CONTINUOUS
 10
-42.711233412
 20
11.1842476215
 11
-40.9560537544
 21
11.1995648423
  0
LINE
  5
4FE
100
AcDbEntity
  8
ASSI
100
AcDbLine
 62
7
  6
CONTINUOUS
 10
-42.711233412
 20
11.1842476215
 11
-40.9560537544
 21
11.1995648423
  0
LINE
  5
4FF
100
AcDbEntity
  8
RACCORDO
100
AcDbLine
 62
250
  6
CONTINUOUS
 10
-42.4269341989
 20
11.2128835178
 11
-41.0007183468
 21
11.2236608663
  0
LINE
  5
500
100
AcDbEntity
  8
ASSI
100
AcDbLine
 62
250
  6
CONTINUOUS
 10
-42.4269341989
 20
11.2128835178
 11
-41.0007183468
 21
11.2236608663
  0
LINE
  5
501
100
AcDbEntity
  8
RACCORDO
100
AcDbLine
 62
250
  6
CONTINUOUS
 10
-41.0007183468
 20
11.2236608663
 11
-40.9955326251
 21
11.2236999171
  0
LINE
  5
502
100
AcDbEntity
  8
ASSI
100
AcDbLine
 62
250
  6
CONTINUOUS
 10
-41.0007183468
 20
11.2236608663
 11
-40.9955326251
 21
11.2236999171
  0
LINE
  5
503
100
AcDbEntity
  8
CURVE
100
AcDbLine
 62
250
  6
CONTINUOUS
 10
-53.2690072787
 20
8.2742476215
 11
-52.454845576
 21
8.2742476215
  0
LINE
  5
504
100
AcDbEntity
  8
CURVE
100
AcDbLine
 62
250
  6
CONTINUOUS
 10
-61.7894839816
 20
8.3288033314
 11
-61.7723547777
 21
8.3288033314
  0
LINE
  5
505
100
AcDbEntity
  8
0
100
AcDbLine
 62
7
  6
CONTINUOUS
 10
-42.711233412
 20
9.5342476215
 11
-42.511233412
 21
9.5342476215
  0
LINE
  5
506
100
AcDbEntity
  8
ASSI
100
AcDbLine
 62
7
  6
CONTINUOUS
 10
-42.711233412
 20
9.5342476215
 11
-42.511233412
 21
9.5342476215
  0
LINE
  5
507
100
AcDbEntity
  8
CURVE
100
AcDbLine
 62
250
  6
CONTINUOUS
 10
-57.3109440328
 20
9.6342476215
 11
-55.411233412
 21
9.6342476215
  0
LINE
  5
508
100
AcDbEntity
  8
CURVE
100
AcDbLine
 62
250
  6
CONTINUOUS
 10
-51.9120710886
 20
9.4902480563
 11
-53.8117817094
 21
10.0982477664
  0
LINE
  5
509
100
AcDbEntity
  8
CURVE
100
AcDbLine
 62
250
  6
CONTINUOUS
 10
-52.454845576
 20
8.2742476215
 11
-52.1834583323
 21
8.1222471866
  0
LINE
  5
50A
100
AcDbEntity
  8
RACCORDO
100
AcDbLine
 62
250
  6
CONTINUOUS
 10
-42.6244856437
 20
1.8344997597
 11
-42.6118093617
 21
1.8215884141
  0
LINE
  5
50B
100
AcDbEntity
  8
ASSI
100
AcDbLine
 62
250
  6
CONTINUOUS
 10
-42.6244856437
 20
1.8344997597
 11
-42.6118093617
 21
1.8215884141
  0
LINE
  5
50C
100
AcDbEntity
  8
CURVE
100
AcDbLine
 62
250
  6
CONTINUOUS
 10
-52.1834583323
 20
8.1222471866
 11
-51.9120710886
 21
7.8182473315
  0
LINE
  5
50D
100
AcDbEntity
  8
RACCORDO
100
AcDbLine
 62
250
  6
CONTINUOUS
 10
-42.4285069679
 20
11.0762502936
 11
-42.4312951409
 21
11.1254738582
  0
LINE
  5
50E
100
AcDbEntity
  8
ASSI
100
AcDbLine
 62
250
  6
CONTINUOUS
 10
-42.4285069679
 20
11.0762502936
 11
-42.4312951409
 21
11.1254738582
  0
LWPOLYLINE
  5
50F
100
AcDbEntity
  8
RACCORDO
100
AcDbPolyline
 62
250
  6
CONTINUOUS
 90
17
 70
0
 10
-42.6965260617
 20
15.9780988709
 10
-42.6895206976
 20
15.8479870044
 10
-42.6874085659
 20
15.8076070077
 10
-42.6854371745
 20
15.7686386933
 10
-42.6836366763
 20
15.7310575009
 10
-42.6819796862
 20
15.6946978148
 10
-42.6804798194
 20
15.6595568679
 10
-42.6791547034
 20
15.6256174414
 10
-42.6779724161
 20
15.5926997007
 10
-42.6769384272
 20
15.5608021672
 10
-42.6760632402
 20
15.5299129347
 10
-42.6753166815
 20
15.499841701
 10
-42.6746996283
 20
15.4705875235
 10
-42.6742185922
 20
15.4421422096
 10
-42.6738489104
 20
15.4143080562
 10
-42.67358306
 20
15.3870175655
 10
-42.6734312169
 20
15.3603318865
  0
LWPOLYLINE
  5
510
100
AcDbEntity
  8
ASSI
100
AcDbPolyline
 62
250
  6
CONTINUOUS
 90
17
 70
0
 10
-42.6965260617
 20
15.9780988709
 10
-42.6895206976
 20
15.8479870044
 10
-42.6874085659
 20
15.8076070077
 10
-42.6854371745
 20
15.7686386933
 10
-42.6836366763
 20
15.7310575009
 10
-42.6819796862
 20
15.6946978148
 10
-42.6804798194
 20
15.6595568679
 10
-42.6791547034
 20
15.6256174414
 10
-42.6779724161
 20
15.5926997007
 10
-42.6769384272
 20
15.5608021672
 10
-42.6760632402
 20
15.5299129347
 10
-42.6753166815
 20
15.499841701
 10
-42.6746996283
 20
15.4705875235
 10
-42.6742185922
 20
15.4421422096
 10
-42.6738489104
 20
15.4143080562
 10
-42.67358306
 20
15.3870175655
 10
-42.6734312169
 20
15.3603318865
  0
LWPOLYLINE
  5
511
100
AcDbEntity
  8
RACCORDO
100
AcDbPolyline
 62
250
  6
CONTINUOUS
 90
3
 70
0
 10
-42.4269341991
 20
11.0455613814
 10
-42.4272531222
 20
11.0521449294
 10
-42.4285069679
 20
11.0762502936
  0
LWPOLYLINE
  5
512
100
AcDbEntity
  8
ASSI
100
AcDbPolyline
 62
250
  6
CONTINUOUS
 90
3
 70
0
 10
-42.4269341991
 20
11.0455613814
 10
-42.4272531222
 20
11.0521449294
 10
-42.4285069679
 20
11.0762502936
  0
LINE
  5
513
100
AcDbEntity
  8
RACCORDO
100
AcDbLine
 62
250
  6
CONTINUOUS
 10
-42.6138068943
 20
1.8663546807
 11
-42.611809028
 21
1.8215883674
  0
LINE
  5
514
100
AcDbEntity
  8
ASSI
100
AcDbLine
 62
250
  6
CONTINUOUS
 10
-42.6138068943
 20
1.8663546807
 11
-42.611809028
 21
1.8215883674
  0
LINE
  5
515
100
AcDbEntity
  8
RACCORDO
100
AcDbLine
 62
250
  6
CONTINUOUS
 10
-42.6173097653
 20
1.9529744544
 11
-42.6138068943
 21
1.8663546807
  0
LINE
  5
516
100
AcDbEntity
  8
ASSI
100
AcDbLine
 62
250
  6
CONTINUOUS
 10
-42.6173097653
 20
1.9529744544
 11
-42.6138068943
 21
1.8663546807
  0
LINE
  5
517
100
AcDbEntity
  8
RACCORDO
100
AcDbLine
 62
250
  6
CONTINUOUS
 10
-42.6211166576
 20
2.0592255204
 11
-42.6173097653
 21
1.9529744544
  0
LINE
  5
518
100
AcDbEntity
  8
ASSI
100
AcDbLine
 62
250
  6
CONTINUOUS
 10
-42.6211166576
 20
2.0592255204
 11
-42.6173097653
 21
1.9529744544
  0
LWPOLYLINE
  5
519
100
AcDbEntity
  8
RACCORDO
100
AcDbPolyline
 62
250
  6
CONTINUOUS
 90
13
 70
0
 10
-42.7112332458
 20
2.1701033756
 10
-42.7107371883
 20
2.155144058
 10
-42.7093573935
 20
2.1404696857
 10
-42.7072558455
 20
2.1261093263
 10
-42.7046029481
 20
2.1120605356
 10
-42.7015356442
 20
2.0983010867
 10
-42.6981262684
 20
2.0848209515
 10
-42.6944686036
 20
2.0715921629
 10
-42.6906562674
 20
2.0585760304
 10
-42.6867070743
 20
2.0457762629
 10
-42.6826750324
 20
2.0331610299
 10
-42.6786205561
 20
2.0206995991
 10
-42.674539267
 20
2.0084278854
  0
LWPOLYLINE
  5
51A
100
AcDbEntity
  8
ASSI
100
AcDbPolyline
 62
250
  6
CONTINUOUS
 90
13
 70
0
 10
-42.7112332458
 20
2.1701033756
 10
-42.7107371883
 20
2.155144058
 10
-42.7093573935
 20
2.1404696857
 10
-42.7072558455
 20
2.1261093263
 10
-42.7046029481
 20
2.1120605356
 10
-42.7015356442
 20
2.0983010867
 10
-42.6981262684
 20
2.0848209515
 10
-42.6944686036
 20
2.0715921629
 10
-42.6906562674
 20
2.0585760304
 10
-42.6867070743
 20
2.0457762629
 10
-42.6826750324
 20
2.0331610299
 10
-42.6786205561
 20
2.0206995991
 10
-42.674539267
 20
2.0084278854
  0
LINE
  5
51B
100
AcDbEntity
  8
RACCORDO
100
AcDbLine
 62
250
  6
CONTINUOUS
 10
-42.622760556
 20
2.1118831181
 11
-42.6211166576
 21
2.0592255204
  0
LINE
  5
51C
100
AcDbEntity
  8
ASSI
100
AcDbLine
 62
250
  6
CONTINUOUS
 10
-42.622760556
 20
2.1118831181
 11
-42.6211166576
 21
2.0592255204
  0
LWPOLYLINE
  5
51D
100
AcDbEntity
  8
RACCORDO
100
AcDbPolyline
 62
250
  6
CONTINUOUS
 90
22
 70
0
 10
-42.7496485653
 20
25.7342476215
 10
-42.7481536492
 20
25.6559282747
 10
-42.7438136059
 20
25.5762771603
 10
-42.7366284352
 20
25.4953797227
 10
-42.7265880218
 20
25.4140755569
 10
-42.7137024811
 20
25.3317126181
 10
-42.6980021593
 20
25.2461790957
 10
-42.6789512892
 20
25.1561409657
 10
-42.657085638
 20
25.0633015532
 10
-42.634042853
 20
24.9701051887
 10
-42.6096145897
 20
24.8764987772
 10
-42.5840091926
 20
24.7828694973
 10
-42.5594893424
 20
24.6921436601
 10
-42.5365506389
 20
24.6058722099
 10
-42.5146974823
 20
24.5225207593
 10
-42.4947057545
 20
24.4403307803
 10
-42.4764067848
 20
24.3591206528
 10
-42.4599692439
 20
24.2792808612
 10
-42.4466750255
 20
24.2000444189
 10
-42.4369514275
 20
24.1212829257
 10
-42.430371152
 20
24.0434529853
 10
-42.4269341989
 20
23.9667232794
  0
LWPOLYLINE
  5
51E
100
AcDbEntity
  8
ASSI
100
AcDbPolyline
 62
250
  6
CONTINUOUS
 90
22
 70
0
 10
-42.7496485653
 20
25.7342476215
 10
-42.7481536492
 20
25.6559282747
 10
-42.7438136059
 20
25.5762771603
 10
-42.7366284352
 20
25.4953797227
 10
-42.7265880218
 20
25.4140755569
 10
-42.7137024811
 20
25.3317126181
 10
-42.6980021593
 20
25.2461790957
 10
-42.6789512892
 20
25.1561409657
 10
-42.657085638
 20
25.0633015532
 10
-42.634042853
 20
24.9701051887
 10
-42.6096145897
 20
24.8764987772
 10
-42.5840091926
 20
24.7828694973
 10
-42.5594893424
 20
24.6921436601
 10
-42.5365506389
 20
24.6058722099
 10
-42.5146974823
 20
24.5225207593
 10
-42.4947057545
 20
24.4403307803
 10
-42.4764067848
 20
24.3591206528
 10
-42.4599692439
 20
24.2792808612
 10
-42.4466750255
 20
24.2000444189
 10
-42.4369514275
 20
24.1212829257
 10
-42.430371152
 20
24.0434529853
 10
-42.4269341989
 20
23.9667232794
  0
LWPOLYLINE
  5
51F
100
AcDbEntity
  8
RACCORDO
100
AcDbPolyline
 62
250
  6
CONTINUOUS
 90
11
 70
0
 10
-42.9371334685
 20
25.7342476215
 10
-42.9361882281
 20
25.6472324348
 10
-42.9331383165
 20
25.5589398168
 10
-42.9280188863
 20
25.4693697674
 10
-42.9210183228
 20
25.3792033137
 10
-42.9120906235
 20
25.2877594286
 10
-42.9009801688
 20
25.1929950305
 10
-42.8876021903
 20
25.0932033834
 10
-42.8724573818
 20
24.9900912233
 10
-42.8562097541
 20
24.8867356766
 10
-42.8389518322
 20
24.7830091311
  0
LWPOLYLINE
  5
520
100
AcDbEntity
  8
ASSI
100
AcDbPolyline
 62
250
  6
CONTINUOUS
 90
11
 70
0
 10
-42.9371334685
 20
25.7342476215
 10
-42.9361882281
 20
25.6472324348
 10
-42.9331383165
 20
25.5589398168
 10
-42.9280188863
 20
25.4693697674
 10
-42.9210183228
 20
25.3792033137
 10
-42.9120906235
 20
25.2877594286
 10
-42.9009801688
 20
25.1929950305
 10
-42.8876021903
 20
25.0932033834
 10
-42.8724573818
 20
24.9900912233
 10
-42.8562097541
 20
24.8867356766
 10
-42.8389518322
 20
24.7830091311
  0
LWPOLYLINE
  5
521
100
AcDbEntity
  8
RACCORDO
100
AcDbPolyline
 62
250
  6
CONTINUOUS
 90
3
 70
0
 10
-42.6230657341
 20
-2.8568206304
 10
-42.6230736849
 20
-2.8559830437
 10
-42.6230253089
 20
-2.8534655206
  0
LWPOLYLINE
  5
522
100
AcDbEntity
  8
ASSI
100
AcDbPolyline
 62
250
  6
CONTINUOUS
 90
3
 70
0
 10
-42.6230657341
 20
-2.8568206304
 10
-42.6230736849
 20
-2.8559830437
 10
-42.6230253089
 20
-2.8534655206
  0
LINE
  5
523
100
AcDbEntity
  8
RACCORDO
100
AcDbLine
 62
250
  6
CONTINUOUS
 10
-43.3983839117
 20
-5.4952553117
 11
-43.3990167455
 21
-5.4242968841
  0
LINE
  5
524
100
AcDbEntity
  8
ASSI
100
AcDbLine
 62
250
  6
CONTINUOUS
 10
-43.3983839117
 20
-5.4952553117
 11
-43.3990167455
 21
-5.4242968841
  0
LWPOLYLINE
  5
525
100
AcDbEntity
  8
RACCORDO
100
AcDbPolyline
 62
250
  6
CONTINUOUS
 90
9
 70
0
 10
-42.711233412
 20
16.4023361676
 10
-42.7108222824
 20
16.3424341799
 10
-42.7097090282
 20
16.2845760629
 10
-42.7080643851
 20
16.2287354184
 10
-42.7060612054
 20
16.1749160254
 10
-42.7038331846
 20
16.1230395087
 10
-42.7014442786
 20
16.0729624158
 10
-42.698979228
 20
16.0246598774
 10
-42.6965260617
 20
15.9780988709
  0
LWPOLYLINE
  5
526
100
AcDbEntity
  8
ASSI
100
AcDbPolyline
 62
250
  6
CONTINUOUS
 90
9
 70
0
 10
-42.711233412
 20
16.4023361676
 10
-42.7108222824
 20
16.3424341799
 10
-42.7097090282
 20
16.2845760629
 10
-42.7080643851
 20
16.2287354184
 10
-42.7060612054
 20
16.1749160254
 10
-42.7038331846
 20
16.1230395087
 10
-42.7014442786
 20
16.0729624158
 10
-42.698979228
 20
16.0246598774
 10
-42.6965260617
 20
15.9780988709
  0
LINE
  5
527
100
AcDbEntity
  8
RACCORDO
100
AcDbLine
 62
250
  6
CONTINUOUS
 10
-43.3985816579
 20
30.6687169766
 11
-43.3990167275
 21
30.8677717753
  0
LINE
  5
528
100
AcDbEntity
  8
ASSI
100
AcDbLine
 62
250
  6
CONTINUOUS
 10
-43.3985816579
 20
30.6687169766
 11
-43.3990167275
 21
30.8677717753
  0
LINE
  5
529
100
AcDbEntity
  8
RACCORDO
100
AcDbLine
 62
250
  6
CONTINUOUS
 10
-43.3985816614
 20
-2.5942858535
 11
-43.3990167275
 21
-2.3513738971
  0
LINE
  5
52A
100
AcDbEntity
  8
ASSI
100
AcDbLine
 62
250
  6
CONTINUOUS
 10
-43.3985816614
 20
-2.5942858535
 11
-43.3990167275
 21
-2.3513738971
  0
LINE
  5
52B
100
AcDbEntity
  8
RACCORDO
100
AcDbLine
 62
250
  6
CONTINUOUS
 10
-43.3983543348
 20
30.4635659787
 11
-43.3985816579
 21
30.6687169766
  0
LINE
  5
52C
100
AcDbEntity
  8
ASSI
100
AcDbLine
 62
250
  6
CONTINUOUS
 10
-43.3983543348
 20
30.4635659787
 11
-43.3985816579
 21
30.6687169766
  0
LINE
  5
52D
100
AcDbEntity
  8
RACCORDO
100
AcDbLine
 62
250
  6
CONTINUOUS
 10
-43.3983543285
 20
-2.8235104785
 11
-43.3985816614
 21
-2.5942858535
  0
LINE
  5
52E
100
AcDbEntity
  8
ASSI
100
AcDbLine
 62
250
  6
CONTINUOUS
 10
-43.3983543285
 20
-2.8235104785
 11
-43.3985816614
 21
-2.5942858535
  0
LINE
  5
52F
100
AcDbEntity
  8
RACCORDO
100
AcDbLine
 62
250
  6
CONTINUOUS
 10
-43.3990167275
 20
-5.4242968838
 11
-43.3990167275
 21
-3.5992765321
  0
LINE
  5
530
100
AcDbEntity
  8
ASSI
100
AcDbLine
 62
250
  6
CONTINUOUS
 10
-43.3990167275
 20
-5.4242968838
 11
-43.3990167275
 21
-3.5992765321
  0
LINE
  5
531
100
AcDbEntity
  8
RACCORDO
100
AcDbLine
 62
250
  6
CONTINUOUS
 10
-43.3990167275
 20
-2.3513738971
 11
-43.3990167275
 21
29.61986914
  0
LINE
  5
532
100
AcDbEntity
  8
ASSI
100
AcDbLine
 62
250
  6
CONTINUOUS
 10
-43.3990167275
 20
-2.3513738971
 11
-43.3990167275
 21
29.61986914
  0
LINE
  5
533
100
AcDbEntity
  8
RACCORDO
100
AcDbLine
 62
250
  6
CONTINUOUS
 10
-43.3990167275
 20
30.867771775
 11
-43.3990167275
 21
32.6927921267
  0
LINE
  5
534
100
AcDbEntity
  8
ASSI
100
AcDbLine
 62
250
  6
CONTINUOUS
 10
-43.3990167275
 20
30.867771775
 11
-43.3990167275
 21
32.6927921267
  0
LINE
  5
535
100
AcDbEntity
  8
RACCORDO
100
AcDbLine
 62
250
  6
CONTINUOUS
 10
-43.3982901845
 20
-3.0375524765
 11
-43.3983543285
 21
-2.8235104785
  0
LINE
  5
536
100
AcDbEntity
  8
ASSI
100
AcDbLine
 62
250
  6
CONTINUOUS
 10
-43.3982901845
 20
-3.0375524765
 11
-43.3983543285
 21
-2.8235104785
  0
LINE
  5
537
100
AcDbEntity
  8
RACCORDO
100
AcDbLine
 62
250
  6
CONTINUOUS
 10
-43.3982901833
 20
30.2558367405
 11
-43.3983543348
 21
30.4635659787
  0
LINE
  5
538
100
AcDbEntity
  8
ASSI
100
AcDbLine
 62
250
  6
CONTINUOUS
 10
-43.3982901833
 20
30.2558367405
 11
-43.3983543348
 21
30.4635659787
  0
LINE
  5
539
100
AcDbEntity
  8
RACCORDO
100
AcDbLine
 62
250
  6
CONTINUOUS
 10
-42.9371334685
 20
27.8342482103
 11
-42.9371334685
 21
25.7342476215
  0
LINE
  5
53A
100
AcDbEntity
  8
ASSI
100
AcDbLine
 62
250
  6
CONTINUOUS
 10
-42.9371334685
 20
27.8342482103
 11
-42.9371334685
 21
25.7342476215
  0
LINE
  5
53B
100
AcDbEntity
  8
RACCORDO
100
AcDbLine
 62
250
  6
CONTINUOUS
 10
-42.7496485653
 20
27.8342476215
 11
-42.7496485653
 21
25.7342476215
  0
LINE
  5
53C
100
AcDbEntity
  8
ASSI
100
AcDbLine
 62
250
  6
CONTINUOUS
 10
-42.7496485653
 20
27.8342476215
 11
-42.7496485653
 21
25.7342476215
  0
LINE
  5
53D
100
AcDbEntity
  8
RACCORDO
100
AcDbLine
 62
7
  6
CONTINUOUS
 10
-42.711233412
 20
-4.9102956711
 11
-42.711233412
 21
23.7731177422
  0
LINE
  5
53E
100
AcDbEntity
  8
ASSI
100
AcDbLine
 62
7
  6
CONTINUOUS
 10
-42.711233412
 20
-4.9102956711
 11
-42.711233412
 21
23.7731177422
  0
LINE
  5
53F
100
AcDbEntity
  8
RACCORDO
100
AcDbLine
 62
7
  6
CONTINUOUS
 10
-42.711233412
 20
29.812140242
 11
-42.711233412
 21
32.2977744829
  0
LINE
  5
540
100
AcDbEntity
  8
ASSI
100
AcDbLine
 62
7
  6
CONTINUOUS
 10
-42.711233412
 20
29.812140242
 11
-42.711233412
 21
32.2977744829
  0
LINE
  5
541
100
AcDbEntity
  8
RACCORDO
100
AcDbLine
 62
250
  6
CONTINUOUS
 10
-42.6734312169
 20
15.3603318865
 11
-42.6733940268
 21
13.2342476215
  0
LINE
  5
542
100
AcDbEntity
  8
ASSI
100
AcDbLine
 62
250
  6
CONTINUOUS
 10
-42.6734312169
 20
15.3603318865
 11
-42.6733940268
 21
13.2342476215
  0
LINE
  5
543
100
AcDbEntity
  8
0
100
AcDbLine
 62
7
  6
CONTINUOUS
 10
-42.511233412
 20
31.4342476215
 11
-42.511233412
 21
30.5863109702
  0
LINE
  5
544
100
AcDbEntity
  8
ASSI
100
AcDbLine
 62
7
  6
CONTINUOUS
 10
-42.511233412
 20
31.4342476215
 11
-42.511233412
 21
30.5863109702
  0
LINE
  5
545
100
AcDbEntity
  8
0
100
AcDbLine
 62
7
  6
CONTINUOUS
 10
-42.511233412
 20
21.0342476215
 11
-42.511233412
 21
19.1342476215
  0
LINE
  5
546
100
AcDbEntity
  8
ASSI
100
AcDbLine
 62
7
  6
CONTINUOUS
 10
-42.511233412
 20
21.0342476215
 11
-42.511233412
 21
19.1342476215
  0
LINE
  5
547
100
AcDbEntity
  8
0
100
AcDbLine
 62
7
  6
CONTINUOUS
 10
-42.511233412
 20
10.4821842746
 11
-42.511233412
 21
9.5342476215
  0
LINE
  5
548
100
AcDbEntity
  8
ASSI
100
AcDbLine
 62
7
  6
CONTINUOUS
 10
-42.511233412
 20
10.4821842746
 11
-42.511233412
 21
9.5342476215
  0
LINE
  5
549
100
AcDbEntity
  8
RACCORDO
100
AcDbLine
 62
250
  6
CONTINUOUS
 10
-42.4269341989
 20
30.569348131
 11
-42.4269341989
 21
29.6168798629
  0
LINE
  5
54A
100
AcDbEntity
  8
ASSI
100
AcDbLine
 62
250
  6
CONTINUOUS
 10
-42.4269341989
 20
30.569348131
 11
-42.4269341989
 21
29.6168798629
  0
LINE
  5
54B
100
AcDbEntity
  8
RACCORDO
100
AcDbLine
 62
250
  6
CONTINUOUS
 10
-42.4269341989
 20
23.9667232794
 11
-42.4269341989
 21
22.9991471119
  0
LINE
  5
54C
100
AcDbEntity
  8
ASSI
100
AcDbLine
 62
250
  6
CONTINUOUS
 10
-42.4269341989
 20
23.9667232794
 11
-42.4269341989
 21
22.9991471119
  0
LINE
  5
54D
100
AcDbEntity
  8
RACCORDO
100
AcDbLine
 62
250
  6
CONTINUOUS
 10
-42.4269341988
 20
18.069348131
 11
-42.4269341989
 21
11.2128835178
  0
LINE
  5
54E
100
AcDbEntity
  8
ASSI
100
AcDbLine
 62
250
  6
CONTINUOUS
 10
-42.4269341988
 20
18.069348131
 11
-42.4269341989
 21
11.2128835178
  0
LINE
  5
54F
100
AcDbEntity
  8
RACCORDO
100
AcDbLine
 62
250
  6
CONTINUOUS
 10
-42.4269341988
 20
11.0455613744
 11
-42.4269341988
 21
10.4991471119
  0
LINE
  5
550
100
AcDbEntity
  8
ASSI
100
AcDbLine
 62
250
  6
CONTINUOUS
 10
-42.4269341988
 20
11.0455613744
 11
-42.4269341988
 21
10.4991471119
  0
LINE
  5
551
100
AcDbEntity
  8
RACCORDO
100
AcDbLine
 62
250
  6
CONTINUOUS
 10
-40.9955326251
 20
30.4943315533
 11
-40.9955326251
 21
23.0741636896
  0
LINE
  5
552
100
AcDbEntity
  8
ASSI
100
AcDbLine
 62
250
  6
CONTINUOUS
 10
-40.9955326251
 20
30.4943315533
 11
-40.9955326251
 21
23.0741636896
  0
LINE
  5
553
100
AcDbEntity
  8
RACCORDO
100
AcDbLine
 62
250
  6
CONTINUOUS
 10
-40.9955326251
 20
17.9943315533
 11
-40.9955326251
 21
11.2236999171
  0
LINE
  5
554
100
AcDbEntity
  8
ASSI
100
AcDbLine
 62
250
  6
CONTINUOUS
 10
-40.9955326251
 20
17.9943315533
 11
-40.9955326251
 21
11.2236999171
  0
LINE
  5
555
100
AcDbEntity
  8
RACCORDO
100
AcDbLine
 62
250
  6
CONTINUOUS
 10
-40.9955326251
 20
11.1313177573
 11
-40.9955326251
 21
10.5741636896
  0
LINE
  5
556
100
AcDbEntity
  8
ASSI
100
AcDbLine
 62
250
  6
CONTINUOUS
 10
-40.9955326251
 20
11.1313177573
 11
-40.9955326251
 21
10.5741636896
  0
LINE
  5
557
100
AcDbEntity
  8
RACCORDO
100
AcDbLine
 62
250
  6
CONTINUOUS
 10
-43.398386042
 20
30.0458749666
 11
-43.3982901833
 21
30.2558367405
  0
LINE
  5
558
100
AcDbEntity
  8
ASSI
100
AcDbLine
 62
250
  6
CONTINUOUS
 10
-43.398386042
 20
30.0458749666
 11
-43.3982901833
 21
30.2558367405
  0
LINE
  5
559
100
AcDbEntity
  8
RACCORDO
100
AcDbLine
 62
250
  6
CONTINUOUS
 10
-43.3983860536
 20
-3.2377648479
 11
-43.3982901845
 21
-3.0375524765
  0
LINE
  5
55A
100
AcDbEntity
  8
ASSI
100
AcDbLine
 62
250
  6
CONTINUOUS
 10
-43.3983860536
 20
-3.2377648479
 11
-43.3982901845
 21
-3.0375524765
  0
LINE
  5
55B
100
AcDbEntity
  8
RACCORDO
100
AcDbLine
 62
250
  6
CONTINUOUS
 10
-43.3986319035
 20
29.8333579481
 11
-43.398386042
 21
30.0458749666
  0
LINE
  5
55C
100
AcDbEntity
  8
ASSI
100
AcDbLine
 62
250
  6
CONTINUOUS
 10
-43.3986319035
 20
29.8333579481
 11
-43.398386042
 21
30.0458749666
  0
LWPOLYLINE
  5
55D
100
AcDbEntity
  8
RACCORDO
100
AcDbPolyline
 62
250
  6
CONTINUOUS
 90
14
 70
0
 10
-42.6733940268
 20
13.2342476215
 10
-42.6734372775
 20
13.2032292244
 10
-42.6736571644
 20
13.1711028383
 10
-42.6740522435
 20
13.1378619421
 10
-42.6746087554
 20
13.1034057542
 10
-42.6753342763
 20
13.0678228524
 10
-42.6762566588
 20
13.0313885165
 10
-42.6773746034
 20
12.9940812594
 10
-42.6786723944
 20
12.955905037
 10
-42.6801519752
 20
12.9171694332
 10
-42.6818037778
 20
12.8778890576
 10
-42.6836073065
 20
12.8380282465
 10
-42.6855442474
 20
12.7978191635
 10
-42.6876043299
 20
12.7571596924
  0
LWPOLYLINE
  5
55E
100
AcDbEntity
  8
ASSI
100
AcDbPolyline
 62
250
  6
CONTINUOUS
 90
14
 70
0
 10
-42.6733940268
 20
13.2342476215
 10
-42.6734372775
 20
13.2032292244
 10
-42.6736571644
 20
13.1711028383
 10
-42.6740522435
 20
13.1378619421
 10
-42.6746087554
 20
13.1034057542
 10
-42.6753342763
 20
13.0678228524
 10
-42.6762566588
 20
13.0313885165
 10
-42.6773746034
 20
12.9940812594
 10
-42.6786723944
 20
12.955905037
 10
-42.6801519752
 20
12.9171694332
 10
-42.6818037778
 20
12.8778890576
 10
-42.6836073065
 20
12.8380282465
 10
-42.6855442474
 20
12.7978191635
 10
-42.6876043299
 20
12.7571596924
  0
LINE
  5
55F
100
AcDbEntity
  8
RACCORDO
100
AcDbLine
 62
250
  6
CONTINUOUS
 10
-43.3986319334
 20
-3.4253357021
 11
-43.3983860536
 21
-3.2377648479
  0
LINE
  5
560
100
AcDbEntity
  8
ASSI
100
AcDbLine
 62
250
  6
CONTINUOUS
 10
-43.3986319334
 20
-3.4253357021
 11
-43.3983860536
 21
-3.2377648479
  0
LINE
  5
561
100
AcDbEntity
  8
RACCORDO
100
AcDbLine
 62
250
  6
CONTINUOUS
 10
-43.3990167275
 20
29.61986914
 11
-43.3986319035
 21
29.8333579481
  0
LINE
  5
562
100
AcDbEntity
  8
ASSI
100
AcDbLine
 62
250
  6
CONTINUOUS
 10
-43.3990167275
 20
29.61986914
 11
-43.3986319035
 21
29.8333579481
  0
LINE
  5
563
100
AcDbEntity
  8
RACCORDO
100
AcDbLine
 62
250
  6
CONTINUOUS
 10
-43.3990167275
 20
-3.5992765324
 11
-43.3986319334
 21
-3.4253357021
  0
LINE
  5
564
100
AcDbEntity
  8
ASSI
100
AcDbLine
 62
250
  6
CONTINUOUS
 10
-43.3990167275
 20
-3.5992765324
 11
-43.3986319334
 21
-3.4253357021
  0
LWPOLYLINE
  5
565
100
AcDbEntity
  8
RACCORDO
100
AcDbPolyline
 62
250
  6
CONTINUOUS
 90
10
 70
0
 10
-42.711233412
 20
29.8121402418
 10
-42.7113115398
 20
29.7903941611
 10
-42.7115486134
 20
29.7687155272
 10
-42.7119486656
 20
29.7471210351
 10
-42.7125160024
 20
29.7256394794
 10
-42.7132545062
 20
29.7042744021
 10
-42.7141669229
 20
29.6830037671
 10
-42.7152561059
 20
29.6618299917
 10
-42.7165257223
 20
29.6407803034
 10
-42.71797906
 20
29.61986914
  0
LWPOLYLINE
  5
566
100
AcDbEntity
  8
ASSI
100
AcDbPolyline
 62
250
  6
CONTINUOUS
 90
10
 70
0
 10
-42.711233412
 20
29.8121402418
 10
-42.7113115398
 20
29.7903941611
 10
-42.7115486134
 20
29.7687155272
 10
-42.7119486656
 20
29.7471210351
 10
-42.7125160024
 20
29.7256394794
 10
-42.7132545062
 20
29.7042744021
 10
-42.7141669229
 20
29.6830037671
 10
-42.7152561059
 20
29.6618299917
 10
-42.7165257223
 20
29.6407803034
 10
-42.71797906
 20
29.61986914
  0
LWPOLYLINE
  5
567
100
AcDbEntity
  8
RACCORDO
100
AcDbPolyline
 62
250
  6
CONTINUOUS
 90
10
 70
0
 10
-42.4269341989
 20
29.6168798629
 10
-42.4270362252
 20
29.5977833807
 10
-42.4273768232
 20
29.5786390418
 10
-42.4279559928
 20
29.5594502891
 10
-42.4287689256
 20
29.5402187927
 10
-42.4298204301
 20
29.5209496134
 10
-42.4311249311
 20
29.5016512972
 10
-42.4326872371
 20
29.4823289434
 10
-42.4345025397
 20
29.4629841097
 10
-42.4365708389
 20
29.4436200428
  0
LWPOLYLINE
  5
568
100
AcDbEntity
  8
ASSI
100
AcDbPolyline
 62
250
  6
CONTINUOUS
 90
10
 70
0
 10
-42.4269341989
 20
29.6168798629
 10
-42.4270362252
 20
29.5977833807
 10
-42.4273768232
 20
29.5786390418
 10
-42.4279559928
 20
29.5594502891
 10
-42.4287689256
 20
29.5402187927
 10
-42.4298204301
 20
29.5209496134
 10
-42.4311249311
 20
29.5016512972
 10
-42.4326872371
 20
29.4823289434
 10
-42.4345025397
 20
29.4629841097
 10
-42.4365708389
 20
29.4436200428
  0
LWPOLYLINE
  5
569
100
AcDbEntity
  8
RACCORDO
100
AcDbPolyline
 62
250
  6
CONTINUOUS
 90
4
 70
0
 10
-42.6230664103
 20
2.1253163659
 10
-42.623073567
 20
2.1244733304
 10
-42.6230248759
 20
2.1219413836
 10
-42.622760556
 20
2.1118831181
  0
LWPOLYLINE
  5
56A
100
AcDbEntity
  8
ASSI
100
AcDbPolyline
 62
250
  6
CONTINUOUS
 90
4
 70
0
 10
-42.6230664103
 20
2.1253163659
 10
-42.623073567
 20
2.1244733304
 10
-42.6230248759
 20
2.1219413836
 10
-42.622760556
 20
2.1118831181
  0
LINE
  5
56B
100
AcDbEntity
  8
RACCORDO
100
AcDbLine
 62
250
  6
CONTINUOUS
 10
-42.6230253089
 20
-2.8534655206
 11
-42.6225465102
 21
-2.8360097272
  0
LINE
  5
56C
100
AcDbEntity
  8
ASSI
100
AcDbLine
 62
250
  6
CONTINUOUS
 10
-42.6230253089
 20
-2.8534655206
 11
-42.6225465102
 21
-2.8360097272
  0
LINE
  5
56D
100
AcDbEntity
  8
RACCORDO
100
AcDbLine
 62
250
  6
CONTINUOUS
 10
-42.6225465102
 20
-2.8360097272
 11
-42.6211222225
 21
-2.7909296958
  0
LINE
  5
56E
100
AcDbEntity
  8
ASSI
100
AcDbLine
 62
250
  6
CONTINUOUS
 10
-42.6225465102
 20
-2.8360097272
 11
-42.6211222225
 21
-2.7909296958
  0
LINE
  5
56F
100
AcDbEntity
  8
RACCORDO
100
AcDbLine
 62
250
  6
CONTINUOUS
 10
-42.6211222225
 20
-2.7909296958
 11
-42.6194682568
 21
-2.7427902224
  0
LINE
  5
570
100
AcDbEntity
  8
ASSI
100
AcDbLine
 62
250
  6
CONTINUOUS
 10
-42.6211222225
 20
-2.7909296958
 11
-42.6194682568
 21
-2.7427902224
  0
LINE
  5
571
100
AcDbEntity
  8
RACCORDO
100
AcDbLine
 62
250
  6
CONTINUOUS
 10
-42.6194682568
 20
-2.7427902224
 11
-42.6173306029
 21
-2.6850079389
  0
LINE
  5
572
100
AcDbEntity
  8
ASSI
100
AcDbLine
 62
250
  6
CONTINUOUS
 10
-42.6194682568
 20
-2.7427902224
 11
-42.6173306029
 21
-2.6850079389
  0
LINE
  5
573
100
AcDbEntity
  8
RACCORDO
100
AcDbLine
 62
250
  6
CONTINUOUS
 10
-42.6173306029
 20
-2.6850079389
 11
-42.6147530779
 21
-2.6206557866
  0
LINE
  5
574
100
AcDbEntity
  8
ASSI
100
AcDbLine
 62
250
  6
CONTINUOUS
 10
-42.6173306029
 20
-2.6850079389
 11
-42.6147530779
 21
-2.6206557866
  0
LWPOLYLINE
  5
575
100
AcDbEntity
  8
RACCORDO
100
AcDbPolyline
 62
250
  6
CONTINUOUS
 90
3
 70
0
 10
-42.6147530779
 20
-2.6206557866
 10
-42.6128477938
 20
-2.5757663634
 10
-42.6118087163
 20
-2.5530931907
  0
LWPOLYLINE
  5
576
100
AcDbEntity
  8
ASSI
100
AcDbPolyline
 62
250
  6
CONTINUOUS
 90
3
 70
0
 10
-42.6147530779
 20
-2.6206557866
 10
-42.6128477938
 20
-2.5757663634
 10
-42.6118087163
 20
-2.5530931907
  0
LWPOLYLINE
  5
577
100
AcDbEntity
  8
RACCORDO
100
AcDbPolyline
 62
250
  6
CONTINUOUS
 90
9
 70
0
 10
-42.7005342793
 20
12.5136378448
 10
-42.7025091065
 20
12.473589073
 10
-42.7043970497
 20
12.4329134938
 10
-42.7061452415
 20
12.3916408157
 10
-42.7077181053
 20
12.3497162317
 10
-42.7091014028
 20
12.3063084366
 10
-42.7102187233
 20
12.2611221087
 10
-42.7109624288
 20
12.2144106761
 10
-42.711233412
 20
12.1661590712
  0
LWPOLYLINE
  5
578
100
AcDbEntity
  8
ASSI
100
AcDbPolyline
 62
250
  6
CONTINUOUS
 90
9
 70
0
 10
-42.7005342793
 20
12.5136378448
 10
-42.7025091065
 20
12.473589073
 10
-42.7043970497
 20
12.4329134938
 10
-42.7061452415
 20
12.3916408157
 10
-42.7077181053
 20
12.3497162317
 10
-42.7091014028
 20
12.3063084366
 10
-42.7102187233
 20
12.2611221087
 10
-42.7109624288
 20
12.2144106761
 10
-42.711233412
 20
12.1661590712
  0
LINE
  5
579
100
AcDbEntity
  8
RACCORDO
100
AcDbLine
 62
250
  6
CONTINUOUS
 10
-42.6963219629
 20
12.5941516406
 11
-42.7005342793
 21
12.5136378448
  0
LINE
  5
57A
100
AcDbEntity
  8
ASSI
100
AcDbLine
 62
250
  6
CONTINUOUS
 10
-42.6963219629
 20
12.5941516406
 11
-42.7005342793
 21
12.5136378448
  0
LWPOLYLINE
  5
57B
100
AcDbEntity
  8
RACCORDO
100
AcDbPolyline
 62
250
  6
CONTINUOUS
 90
3
 70
0
 10
-42.6876043299
 20
12.7571596924
 10
-42.6919410106
 20
12.6752297158
 10
-42.6963219629
 20
12.5941516406
  0
LWPOLYLINE
  5
57C
100
AcDbEntity
  8
ASSI
100
AcDbPolyline
 62
250
  6
CONTINUOUS
 90
3
 70
0
 10
-42.6876043299
 20
12.7571596924
 10
-42.6919410106
 20
12.6752297158
 10
-42.6963219629
 20
12.5941516406
  0
LWPOLYLINE
  5
57D
100
AcDbEntity
  8
RACCORDO
100
AcDbPolyline
 62
250
  6
CONTINUOUS
 90
19
 70
0
 10
-42.711233412
 20
-4.910295671
 10
-42.7137945633
 20
-4.9542070926
 10
-42.7214914187
 20
-4.9979088825
 10
-42.7343153321
 20
-5.0410940151
 10
-42.7522413775
 20
-5.0835242843
 10
-42.7751707458
 20
-5.1248192322
 10
-42.8028767052
 20
-5.1644731441
 10
-42.8351196638
 20
-5.2021602905
 10
-42.8716758494
 20
-5.2376633997
 10
-42.9122325208
 20
-5.2706784062
 10
-42.9564515697
 20
-5.3009730903
 10
-43.0040106033
 20
-5.3283510816
 10
-43.0545771274
 20
-5.3525924511
 10
-43.1077750951
 20
-5.3735212079
 10
-43.1632024381
 20
-5.3910034277
 10
-43.2204680755
 20
-5.4049080801
 10
-43.2791545458
 20
-5.4151332256
 10
-43.3388184422
 20
-5.421611172
 10
-43.3990167275
 20
-5.4242968837
  0
LWPOLYLINE
  5
57E
100
AcDbEntity
  8
ASSI
100
AcDbPolyline
 62
250
  6
CONTINUOUS
 90
19
 70
0
 10
-42.711233412
 20
-4.910295671
 10
-42.7137945633
 20
-4.9542070926
 10
-42.7214914187
 20
-4.9979088825
 10
-42.7343153321
 20
-5.0410940151
 10
-42.7522413775
 20
-5.0835242843
 10
-42.7751707458
 20
-5.1248192322
 10
-42.8028767052
 20
-5.1644731441
 10
-42.8351196638
 20
-5.2021602905
 10
-42.8716758494
 20
-5.2376633997
 10
-42.9122325208
 20
-5.2706784062
 10
-42.9564515697
 20
-5.3009730903
 10
-43.0040106033
 20
-5.3283510816
 10
-43.0545771274
 20
-5.3525924511
 10
-43.1077750951
 20
-5.3735212079
 10
-43.1632024381
 20
-5.3910034277
 10
-43.2204680755
 20
-5.4049080801
 10
-43.2791545458
 20
-5.4151332256
 10
-43.3388184422
 20
-5.421611172
 10
-43.3990167275
 20
-5.4242968837
  0
LWPOLYLINE
  5
57F
100
AcDbEntity
  8
RACCORDO
100
AcDbPolyline
 62
250
  6
CONTINUOUS
 90
10
 70
0
 10
-42.4269341989
 20
11.2128835178
 10
-42.4273163317
 20
11.2075914226
 10
-42.4277312452
 20
11.2028337654
 10
-42.428176136
 20
11.1986426929
 10
-42.4286479979
 20
11.1950465239
 10
-42.4291436426
 20
11.1920695571
 10
-42.4296597212
 20
11.1897319076
 10
-42.4301927466
 20
11.1880493707
 10
-42.4307391171
 20
11.1870333149
 10
-42.431295141
 20
11.1866906057
  0
LWPOLYLINE
  5
580
100
AcDbEntity
  8
ASSI
100
AcDbPolyline
 62
250
  6
CONTINUOUS
 90
10
 70
0
 10
-42.4269341989
 20
11.2128835178
 10
-42.4273163317
 20
11.2075914226
 10
-42.4277312452
 20
11.2028337654
 10
-42.428176136
 20
11.1986426929
 10
-42.4286479979
 20
11.1950465239
 10
-42.4291436426
 20
11.1920695571
 10
-42.4296597212
 20
11.1897319076
 10
-42.4301927466
 20
11.1880493707
 10
-42.4307391171
 20
11.1870333149
 10
-42.431295141
 20
11.1866906057
  0
LWPOLYLINE
  5
581
100
AcDbEntity
  8
RACCORDO
100
AcDbPolyline
 62
250
  6
CONTINUOUS
 90
10
 70
0
 10
-40.9955326698
 20
11.2237005644
 10
-40.9959219477
 20
11.2187343919
 10
-40.996341769
 20
11.2142753996
 10
-40.9967894871
 20
11.2103517034
 10
-40.9972415619
 20
11.2071202929
 10
-40.9977139993
 20
11.2044206807
 10
-40.9982710247
 20
11.2020220161
 10
-40.9989388052
 20
11.2001475501
 10
-40.9996956458
 20
11.1992243729
 10
-40.9998936174
 20
11.1991822576
  0
LWPOLYLINE
  5
582
100
AcDbEntity
  8
ASSI
100
AcDbPolyline
 62
250
  6
CONTINUOUS
 90
10
 70
0
 10
-40.9955326698
 20
11.2237005644
 10
-40.9959219477
 20
11.2187343919
 10
-40.996341769
 20
11.2142753996
 10
-40.9967894871
 20
11.2103517034
 10
-40.9972415619
 20
11.2071202929
 10
-40.9977139993
 20
11.2044206807
 10
-40.9982710247
 20
11.2020220161
 10
-40.9989388052
 20
11.2001475501
 10
-40.9996956458
 20
11.1992243729
 10
-40.9998936174
 20
11.1991822576
  0
LWPOLYLINE
  5
583
100
AcDbEntity
  8
RACCORDO
100
AcDbPolyline
 62
250
  6
CONTINUOUS
 90
7
 70
0
 10
-43.3990167326
 20
-5.6101890577
 10
-43.3986566064
 20
-5.6077602145
 10
-43.3983839317
 20
-5.6005072726
 10
-43.398200912
 20
-5.5884886885
 10
-43.3981090267
 20
-5.5718014069
 10
-43.39810902
 20
-5.5505800622
 10
-43.3983839117
 20
-5.4952553117
  0
LWPOLYLINE
  5
584
100
AcDbEntity
  8
ASSI
100
AcDbPolyline
 62
250
  6
CONTINUOUS
 90
7
 70
0
 10
-43.3990167326
 20
-5.6101890577
 10
-43.3986566064
 20
-5.6077602145
 10
-43.3983839317
 20
-5.6005072726
 10
-43.398200912
 20
-5.5884886885
 10
-43.3981090267
 20
-5.5718014069
 10
-43.39810902
 20
-5.5505800622
 10
-43.3983839117
 20
-5.4952553117
  0
LWPOLYLINE
  5
585
100
AcDbEntity
  8
RACCORDO
100
AcDbPolyline
 62
250
  6
CONTINUOUS
 90
8
 70
0
 10
-42.7023860663
 20
-2.83342921
 10
-42.7047021638
 20
-2.8440179427
 10
-42.7066972483
 20
-2.8543940482
 10
-42.7083481571
 20
-2.86454269
 10
-42.7096231317
 20
-2.8743585892
 10
-42.7105218823
 20
-2.8837977543
 10
-42.7110567138
 20
-2.8928846162
 10
-42.7112335161
 20
-2.9016099492
  0
LWPOLYLINE
  5
586
100
AcDbEntity
  8
ASSI
100
AcDbPolyline
 62
250
  6
CONTINUOUS
 90
8
 70
0
 10
-42.7023860663
 20
-2.83342921
 10
-42.7047021638
 20
-2.8440179427
 10
-42.7066972483
 20
-2.8543940482
 10
-42.7083481571
 20
-2.86454269
 10
-42.7096231317
 20
-2.8743585892
 10
-42.7105218823
 20
-2.8837977543
 10
-42.7110567138
 20
-2.8928846162
 10
-42.7112335161
 20
-2.9016099492
  0
LWPOLYLINE
  5
587
100
AcDbEntity
  8
RACCORDO
100
AcDbPolyline
 62
250
  6
CONTINUOUS
 90
5
 70
0
 10
-42.6903204164
 20
-2.7889659287
 10
-42.6937043673
 20
-2.800390599
 10
-42.6968570612
 20
-2.8116040765
 10
-42.6997590272
 20
-2.8226100709
 10
-42.7023860663
 20
-2.83342921
  0
LWPOLYLINE
  5
588
100
AcDbEntity
  8
ASSI
100
AcDbPolyline
 62
250
  6
CONTINUOUS
 90
5
 70
0
 10
-42.6903204164
 20
-2.7889659287
 10
-42.6937043673
 20
-2.800390599
 10
-42.6968570612
 20
-2.8116040765
 10
-42.6997590272
 20
-2.8226100709
 10
-42.7023860663
 20
-2.83342921
  0
LWPOLYLINE
  5
589
100
AcDbEntity
  8
RACCORDO
100
AcDbPolyline
 62
250
  6
CONTINUOUS
 90
4
 70
0
 10
-42.6790929306
 20
-2.7536305447
 10
-42.6829907127
 20
-2.7656027398
 10
-42.6867439138
 20
-2.7773928137
 10
-42.6903204164
 20
-2.7889659287
  0
LWPOLYLINE
  5
58A
100
AcDbEntity
  8
ASSI
100
AcDbPolyline
 62
250
  6
CONTINUOUS
 90
4
 70
0
 10
-42.6790929306
 20
-2.7536305447
 10
-42.6829907127
 20
-2.7656027398
 10
-42.6867439138
 20
-2.7773928137
 10
-42.6903204164
 20
-2.7889659287
  0
LINE
  5
58B
100
AcDbEntity
  8
RACCORDO
100
AcDbLine
 62
250
  6
CONTINUOUS
 10
-42.6118086479
 20
-2.5530911116
 11
-42.6340172501
 21
-2.6199467952
  0
LINE
  5
58C
100
AcDbEntity
  8
ASSI
100
AcDbLine
 62
250
  6
CONTINUOUS
 10
-42.6118086479
 20
-2.5530911116
 11
-42.6340172501
 21
-2.6199467952
  0
LINE
  5
58D
100
AcDbEntity
  8
RACCORDO
100
AcDbLine
 62
250
  6
CONTINUOUS
 10
-42.6340172501
 20
-2.6199467952
 11
-42.6479361817
 21
-2.661386201
  0
LINE
  5
58E
100
AcDbEntity
  8
ASSI
100
AcDbLine
 62
250
  6
CONTINUOUS
 10
-42.6340172501
 20
-2.6199467952
 11
-42.6479361817
 21
-2.661386201
  0
LINE
  5
58F
100
AcDbEntity
  8
RACCORDO
100
AcDbLine
 62
250
  6
CONTINUOUS
 10
-42.6671126446
 20
-2.7178809524
 11
-42.6790929306
 21
-2.7536305447
  0
LINE
  5
590
100
AcDbEntity
  8
ASSI
100
AcDbLine
 62
250
  6
CONTINUOUS
 10
-42.6671126446
 20
-2.7178809524
 11
-42.6790929306
 21
-2.7536305447
  0
LINE
  5
591
100
AcDbEntity
  8
RACCORDO
100
AcDbLine
 62
250
  6
CONTINUOUS
 10
-42.6479361817
 20
-2.661386201
 11
-42.6671126446
 21
-2.7178809524
  0
LINE
  5
592
100
AcDbEntity
  8
ASSI
100
AcDbLine
 62
250
  6
CONTINUOUS
 10
-42.6479361817
 20
-2.661386201
 11
-42.6671126446
 21
-2.7178809524
  0
LWPOLYLINE
  5
593
100
AcDbEntity
  8
RACCORDO
100
AcDbPolyline
 62
250
  6
CONTINUOUS
 90
3
 70
0
 10
-42.700498653
 20
-2.6482594072
 10
-42.7089827807
 20
-2.6585302271
 10
-42.711233412
 20
-2.6613373781
  0
LWPOLYLINE
  5
594
100
AcDbEntity
  8
ASSI
100
AcDbPolyline
 62
250
  6
CONTINUOUS
 90
3
 70
0
 10
-42.700498653
 20
-2.6482594072
 10
-42.7089827807
 20
-2.6585302271
 10
-42.711233412
 20
-2.6613373781
  0
LINE
  5
595
100
AcDbEntity
  8
RACCORDO
100
AcDbLine
 62
250
  6
CONTINUOUS
 10
-40.711233412
 20
13.2342476215
 11
-42.4269341989
 21
13.2342476215
  0
LINE
  5
596
100
AcDbEntity
  8
ASSI
100
AcDbLine
 62
250
  6
CONTINUOUS
 10
-40.711233412
 20
13.2342476215
 11
-42.4269341989
 21
13.2342476215
  0
LINE
  5
597
100
AcDbEntity
  8
RACCORDO
100
AcDbLine
 62
250
  6
CONTINUOUS
 10
-42.6733940268
 20
13.2342476215
 11
-42.711233412
 21
13.2342476215
  0
LINE
  5
598
100
AcDbEntity
  8
ASSI
100
AcDbLine
 62
250
  6
CONTINUOUS
 10
-42.6733940268
 20
13.2342476215
 11
-42.711233412
 21
13.2342476215
  0
LINE
  5
599
100
AcDbEntity
  8
RACCORDO
100
AcDbLine
 62
250
  6
CONTINUOUS
 10
-42.6733940268
 20
13.2342476215
 11
-42.4269341989
 21
13.2342399956
  0
LINE
  5
59A
100
AcDbEntity
  8
ASSI
100
AcDbLine
 62
250
  6
CONTINUOUS
 10
-42.6733940268
 20
13.2342476215
 11
-42.4269341989
 21
13.2342399956
  0
LINE
  5
59B
100
AcDbEntity
  8
CURVE
100
AcDbLine
 62
250
  6
CONTINUOUS
 10
-60.4118992092
 20
13.3586486215
 11
-63.3110329032
 21
13.3586486215
  0
LINE
  5
59C
100
AcDbEntity
  8
CURVE
100
AcDbLine
 62
250
  6
CONTINUOUS
 10
-62.7384943438
 20
13.7241806215
 11
-60.4118992092
 21
13.7241806215
  0
LINE
  5
59D
100
AcDbEntity
  8
CURVE
100
AcDbLine
 62
250
  6
CONTINUOUS
 10
-51.4103195814
 20
14.3842476207
 11
-50.4104726042
 21
14.3842476207
  0
LINE
  5
59E
100
AcDbEntity
  8
CURVE
100
AcDbLine
 62
250
  6
CONTINUOUS
 10
-46.4110814657
 20
14.3842476207
 11
-45.411233412
 21
14.3842476207
  0
LWPOLYLINE
  5
59F
100
AcDbEntity
  8
RACCORDO
100
AcDbPolyline
 62
250
  6
CONTINUOUS
 90
13
 70
0
 10
-42.5244221106
 20
11.2178195343
 10
-42.5170799485
 20
11.2171036076
 10
-42.5098416694
 20
11.2164551519
 10
-42.502696106
 20
11.2158781164
 10
-42.4955997892
 20
11.2153541769
 10
-42.4886132072
 20
11.2148793176
 10
-42.481689672
 20
11.2144659135
 10
-42.4746191634
 20
11.2141070584
 10
-42.4674007251
 20
11.2137739669
 10
-42.4600403882
 20
11.2134806636
 10
-42.4523325142
 20
11.2132619577
 10
-42.4442087485
 20
11.2131109363
 10
-42.4269341989
 20
11.2128835178
  0
LWPOLYLINE
  5
5A0
100
AcDbEntity
  8
ASSI
100
AcDbPolyline
 62
250
  6
CONTINUOUS
 90
13
 70
0
 10
-42.5244221106
 20
11.2178195343
 10
-42.5170799485
 20
11.2171036076
 10
-42.5098416694
 20
11.2164551519
 10
-42.502696106
 20
11.2158781164
 10
-42.4955997892
 20
11.2153541769
 10
-42.4886132072
 20
11.2148793176
 10
-42.481689672
 20
11.2144659135
 10
-42.4746191634
 20
11.2141070584
 10
-42.4674007251
 20
11.2137739669
 10
-42.4600403882
 20
11.2134806636
 10
-42.4523325142
 20
11.2132619577
 10
-42.4442087485
 20
11.2131109363
 10
-42.4269341989
 20
11.2128835178
  0
LWPOLYLINE
  5
5A1
100
AcDbEntity
  8
CURVE
100
AcDbPolyline
 62
250
  6
CONTINUOUS
 90
17
 70
0
 10
-48.4107704984
 20
13.8842426215
 10
-48.5078726884
 20
13.8937650247
 10
-48.6012762861
 20
13.9219695292
 10
-48.6874235776
 20
13.967781834
 10
-48.7642693341
 20
14.030688938
 10
-48.8261986207
 20
14.10609437
 10
-48.8723043792
 20
14.1920943444
 10
-48.9008304556
 20
14.2854131489
 10
-48.9106933461
 20
14.3842416215
 10
-48.9011723931
 20
14.4813586028
 10
-48.8729721844
 20
14.5747764286
 10
-48.827166857
 20
14.6609368427
 10
-48.7642693341
 20
14.7377943049
 10
-48.6888753867
 20
14.7997330251
 10
-48.6028885105
 20
14.8458458068
 10
-48.5095839189
 20
14.8743762285
 10
-48.4107704547
 20
14.8842406215
  0
LINE
  5
5A2
100
AcDbEntity
  8
CURVE
100
AcDbLine
 62
250
  6
CONTINUOUS
 10
-45.411233412
 20
11.3842476215
 11
-46.6600991823
 21
11.9479513862
  0
LINE
  5
5A3
100
AcDbEntity
  8
CURVE
100
AcDbLine
 62
250
  6
CONTINUOUS
 10
-47.8220734994
 20
12.4724348908
 11
-49.0269426461
 21
13.016279994
  0
LWPOLYLINE
  5
5A4
100
AcDbEntity
  8
CURVE
100
AcDbPolyline
 62
250
  6
CONTINUOUS
 90
44
 70
0
 10
-49.0269423678
 20
13.0162806107
 10
-49.0612838748
 20
13.0324691879
 10
-49.0952604542
 20
13.0498529775
 10
-49.1288507504
 20
13.068398966
 10
-49.1620334079
 20
13.08807414
 10
-49.1947870709
 20
13.1088454861
 10
-49.227090384
 20
13.1306799909
 10
-49.2589219915
 20
13.1535446409
 10
-49.2902605378
 20
13.1774064228
 10
-49.3210846672
 20
13.2022323232
 10
-49.3513730243
 20
13.2279893285
 10
-49.3811042533
 20
13.2546444255
 10
-49.4102569987
 20
13.2821646006
 10
-49.4388099049
 20
13.3105168406
 10
-49.4667416162
 20
13.3396681318
 10
-49.4940307771
 20
13.3695854611
 10
-49.5206560319
 20
13.4002358148
 10
-49.5465960251
 20
13.4315861797
 10
-49.571829401
 20
13.4636035423
 10
-49.596334804
 20
13.4962548892
 10
-49.6200908786
 20
13.5295072069
 10
-49.643076269
 20
13.5633274821
 10
-49.6652696198
 20
13.5976827013
 10
-49.6866495753
 20
13.6325398512
 10
-49.7071947799
 20
13.6678659183
 10
-49.7268838779
 20
13.7036278891
 10
-49.7456955139
 20
13.7397927504
 10
-49.7636083321
 20
13.7763274886
 10
-49.780600977
 20
13.8131990904
 10
-49.796652093
 20
13.8503745423
 10
-49.8117403244
 20
13.8878208309
 10
-49.8258443157
 20
13.9255049428
 10
-49.8389427113
 20
13.9633938646
 10
-49.8510141554
 20
14.0014545829
 10
-49.8620372926
 20
14.0396540843
 10
-49.8719907673
 20
14.0779593553
 10
-49.8808532237
 20
14.1163373825
 10
-49.8886033064
 20
14.1547551525
 10
-49.8952196597
 20
14.193179652
 10
-49.900680928
 20
14.2315778674
 10
-49.9049657557
 20
14.2699167854
 10
-49.9080527872
 20
14.3081633926
 10
-49.9099206668
 20
14.3462846755
 10
-49.9105480391
 20
14.3842476207
  0
LINE
  5
5A5
100
AcDbEntity
  8
CURVE
100
AcDbLine
 62
250
  6
CONTINUOUS
 10
-58.0395568174
 20
22.9842477638
 11
-58.3109440328
 21
23.2556763332
  0
LWPOLYLINE
  5
5A6
100
AcDbEntity
  8
RACCORDO
100
AcDbPolyline
 62
250
  6
CONTINUOUS
 90
11
 70
0
 10
-42.711233412
 20
1.9298318561
 10
-42.7086792145
 20
1.9266515808
 10
-42.7000166329
 20
1.916185814
 10
-42.69155085
 20
1.9062426787
 10
-42.6832600305
 20
1.8968375558
 10
-42.6751749281
 20
1.8878397427
 10
-42.6673031562
 20
1.8792365945
 10
-42.6596371013
 20
1.8710407562
 10
-42.6521846763
 20
1.8631594602
 10
-42.644954549
 20
1.8555878256
 10
-42.6244856437
 20
1.8344997597
  0
LWPOLYLINE
  5
5A7
100
AcDbEntity
  8
ASSI
100
AcDbPolyline
 62
250
  6
CONTINUOUS
 90
11
 70
0
 10
-42.711233412
 20
1.9298318561
 10
-42.7086792145
 20
1.9266515808
 10
-42.7000166329
 20
1.916185814
 10
-42.69155085
 20
1.9062426787
 10
-42.6832600305
 20
1.8968375558
 10
-42.6751749281
 20
1.8878397427
 10
-42.6673031562
 20
1.8792365945
 10
-42.6596371013
 20
1.8710407562
 10
-42.6521846763
 20
1.8631594602
 10
-42.644954549
 20
1.8555878256
 10
-42.6244856437
 20
1.8344997597
  0
LINE
  5
5A8
100
AcDbEntity
  8
RACCORDO
100
AcDbLine
 62
250
  6
CONTINUOUS
 10
-42.674539267
 20
2.0084278854
 11
-42.643492764
 21
1.9166682555
  0
LINE
  5
5A9
100
AcDbEntity
  8
ASSI
100
AcDbLine
 62
250
  6
CONTINUOUS
 10
-42.674539267
 20
2.0084278854
 11
-42.643492764
 21
1.9166682555
  0
LINE
  5
5AA
100
AcDbEntity
  8
RACCORDO
100
AcDbLine
 62
250
  6
CONTINUOUS
 10
-42.643492764
 20
1.9166682555
 11
-42.6298097913
 21
1.8758554404
  0
LINE
  5
5AB
100
AcDbEntity
  8
ASSI
100
AcDbLine
 62
250
  6
CONTINUOUS
 10
-42.643492764
 20
1.9166682555
 11
-42.6298097913
 21
1.8758554404
  0
LINE
  5
5AC
100
AcDbEntity
  8
RACCORDO
100
AcDbLine
 62
250
  6
CONTINUOUS
 10
-42.6298097913
 20
1.8758554404
 11
-42.6118090325
 21
1.8215878026
  0
LINE
  5
5AD
100
AcDbEntity
  8
ASSI
100
AcDbLine
 62
250
  6
CONTINUOUS
 10
-42.6298097913
 20
1.8758554404
 11
-42.6118090325
 21
1.8215878026
  0
LWPOLYLINE
  5
5AE
100
AcDbEntity
  8
RACCORDO
100
AcDbPolyline
 62
250
  6
CONTINUOUS
 90
33
 70
0
 10
-42.711233412
 20
11.2833787425
 10
-42.7108018221
 20
11.2798358805
 10
-42.7095617168
 20
11.276466681
 10
-42.707594512
 20
11.2732301706
 10
-42.7049880358
 20
11.2700636879
 10
-42.7018163218
 20
11.2669632571
 10
-42.6981218131
 20
11.2639819831
 10
-42.69395842
 20
11.2611035357
 10
-42.6893869396
 20
11.2582994095
 10
-42.6844336556
 20
11.2556064828
 10
-42.6791415025
 20
11.2530136681
 10
-42.6735567025
 20
11.2505009268
 10
-42.6676942055
 20
11.2480920081
 10
-42.6615871122
 20
11.2457789122
 10
-42.6552721614
 20
11.2435480711
 10
-42.6487586956
 20
11.24141456
 10
-42.6420737526
 20
11.2393732539
 10
-42.6352461051
 20
11.2374147327
 10
-42.6282799571
 20
11.2355470727
 10
-42.62119775
 20
11.2337671307
 10
-42.6140218642
 20
11.2320687304
 10
-42.6067504474
 20
11.2304545808
 10
-42.5993983335
 20
11.2289222983
 10
-42.5919862944
 20
11.2274684362
 10
-42.5845172399
 20
11.2260934393
 10
-42.577000668
 20
11.2247970117
 10
-42.5694565246
 20
11.2235768575
 10
-42.5619015998
 20
11.2224309371
 10
-42.5543493419
 20
11.2213627443
 10
-42.5468123669
 20
11.220370797
 10
-42.5393055004
 20
11.2194469604
 10
-42.5318376314
 20
11.2185963139
 10
-42.5244221106
 20
11.2178195343
  0
LWPOLYLINE
  5
5AF
100
AcDbEntity
  8
ASSI
100
AcDbPolyline
 62
250
  6
CONTINUOUS
 90
33
 70
0
 10
-42.711233412
 20
11.2833787425
 10
-42.7108018221
 20
11.2798358805
 10
-42.7095617168
 20
11.276466681
 10
-42.707594512
 20
11.2732301706
 10
-42.7049880358
 20
11.2700636879
 10
-42.7018163218
 20
11.2669632571
 10
-42.6981218131
 20
11.2639819831
 10
-42.69395842
 20
11.2611035357
 10
-42.6893869396
 20
11.2582994095
 10
-42.6844336556
 20
11.2556064828
 10
-42.6791415025
 20
11.2530136681
 10
-42.6735567025
 20
11.2505009268
 10
-42.6676942055
 20
11.2480920081
 10
-42.6615871122
 20
11.2457789122
 10
-42.6552721614
 20
11.2435480711
 10
-42.6487586956
 20
11.24141456
 10
-42.6420737526
 20
11.2393732539
 10
-42.6352461051
 20
11.2374147327
 10
-42.6282799571
 20
11.2355470727
 10
-42.62119775
 20
11.2337671307
 10
-42.6140218642
 20
11.2320687304
 10
-42.6067504474
 20
11.2304545808
 10
-42.5993983335
 20
11.2289222983
 10
-42.5919862944
 20
11.2274684362
 10
-42.5845172399
 20
11.2260934393
 10
-42.577000668
 20
11.2247970117
 10
-42.5694565246
 20
11.2235768575
 10
-42.5619015998
 20
11.2224309371
 10
-42.5543493419
 20
11.2213627443
 10
-42.5468123669
 20
11.220370797
 10
-42.5393055004
 20
11.2194469604
 10
-42.5318376314
 20
11.2185963139
 10
-42.5244221106
 20
11.2178195343
  0
LWPOLYLINE
  5
5B0
100
AcDbEntity
  8
RACCORDO
100
AcDbPolyline
 62
250
  6
CONTINUOUS
 90
13
 70
0
 10
-42.711233412
 20
29.8121402417
 10
-42.7088348983
 20
29.7874647979
 10
-42.7016777094
 20
29.763183912
 10
-42.6898762891
 20
29.7396858381
 10
-42.6736193435
 20
29.7173463137
 10
-42.6531668221
 20
29.6965225495
 10
-42.6288457607
 20
29.677547518
 10
-42.6010450545
 20
29.6607246321
 10
-42.5702092387
 20
29.6463228923
 10
-42.5368313788
 20
29.6345725841
 10
-42.5014451886
 20
29.6256615971
 10
-42.4646164971
 20
29.6197324201
 10
-42.4269341989
 20
29.616879862
  0
LWPOLYLINE
  5
5B1
100
AcDbEntity
  8
ASSI
100
AcDbPolyline
 62
250
  6
CONTINUOUS
 90
13
 70
0
 10
-42.711233412
 20
29.8121402417
 10
-42.7088348983
 20
29.7874647979
 10
-42.7016777094
 20
29.763183912
 10
-42.6898762891
 20
29.7396858381
 10
-42.6736193435
 20
29.7173463137
 10
-42.6531668221
 20
29.6965225495
 10
-42.6288457607
 20
29.677547518
 10
-42.6010450545
 20
29.6607246321
 10
-42.5702092387
 20
29.6463228923
 10
-42.5368313788
 20
29.6345725841
 10
-42.5014451886
 20
29.6256615971
 10
-42.4646164971
 20
29.6197324201
 10
-42.4269341989
 20
29.616879862
  0
LINE
  5
5B2
100
AcDbEntity
  8
RACCORDO
100
AcDbLine
 62
250
  6
CONTINUOUS
 10
-40.9992390625
 20
11.1991879698
 11
-40.9973094723
 21
11.1653051178
  0
LINE
  5
5B3
100
AcDbEntity
  8
ASSI
100
AcDbLine
 62
250
  6
CONTINUOUS
 10
-40.9992390625
 20
11.1991879698
 11
-40.9973094723
 21
11.1653051178
  0
LINE
  5
5B4
100
AcDbEntity
  8
RACCORDO
100
AcDbLine
 62
250
  6
CONTINUOUS
 10
-40.9973094723
 20
11.1653051178
 11
-40.9955325939
 21
11.1313177534
  0
LINE
  5
5B5
100
AcDbEntity
  8
ASSI
100
AcDbLine
 62
250
  6
CONTINUOUS
 10
-40.9973094723
 20
11.1653051178
 11
-40.9955325939
 21
11.1313177534
  0
LINE
  5
5B6
100
AcDbEntity
  8
RACCORDO
100
AcDbLine
 62
7
  6
CONTINUOUS
 10
-40.711233412
 20
30.1946925226
 11
-40.711233412
 21
23.3738027203
  0
LINE
  5
5B7
100
AcDbEntity
  8
ASSI
100
AcDbLine
 62
7
  6
CONTINUOUS
 10
-40.711233412
 20
30.1946925226
 11
-40.711233412
 21
23.3740536054
  0
LINE
  5
5B8
100
AcDbEntity
  8
RACCORDO
100
AcDbLine
 62
7
  6
CONTINUOUS
 10
-40.711233412
 20
17.6946925226
 11
-40.711233412
 21
10.8737945315
  0
LINE
  5
5B9
100
AcDbEntity
  8
ASSI
100
AcDbLine
 62
7
  6
CONTINUOUS
 10
-40.711233412
 20
17.6946925226
 11
-40.711233412
 21
10.8737945315
  0
LINE
  5
5BA
100
AcDbEntity
  8
CURVE
100
AcDbLine
 62
250
  6
CONTINUOUS
 10
-60.9600312047
 20
15.3041996215
 11
-63.3110329032
 21
15.3041996215
  0
LINE
  5
5BB
100
AcDbEntity
  8
RACCORDO
100
AcDbLine
 62
250
  6
CONTINUOUS
 10
-42.6733940268
 20
15.3342476215
 11
-42.4269341989
 21
15.3342670737
  0
LINE
  5
5BC
100
AcDbEntity
  8
ASSI
100
AcDbLine
 62
250
  6
CONTINUOUS
 10
-42.6733940268
 20
15.3342476215
 11
-42.4269341989
 21
15.3342670737
  0
LINE
  5
5BD
100
AcDbEntity
  8
RACCORDO
100
AcDbLine
 62
250
  6
CONTINUOUS
 10
-40.711233412
 20
15.3342476215
 11
-42.4269341989
 21
15.3342476215
  0
LINE
  5
5BE
100
AcDbEntity
  8
ASSI
100
AcDbLine
 62
250
  6
CONTINUOUS
 10
-40.711233412
 20
15.3342476215
 11
-42.4269341989
 21
15.3342476215
  0
LINE
  5
5BF
100
AcDbEntity
  8
RACCORDO
100
AcDbLine
 62
250
  6
CONTINUOUS
 10
-42.6733940268
 20
15.3342476215
 11
-42.711233412
 21
15.3342476215
  0
LINE
  5
5C0
100
AcDbEntity
  8
ASSI
100
AcDbLine
 62
250
  6
CONTINUOUS
 10
-42.6733940268
 20
15.3342476215
 11
-42.711233412
 21
15.3342476215
  0
LINE
  5
5C1
100
AcDbEntity
  8
CURVE
100
AcDbLine
 62
250
  6
CONTINUOUS
 10
-63.3110329032
 20
15.6697606215
 11
-60.4118992092
 21
15.6697606215
  0
LINE
  5
5C2
100
AcDbEntity
  8
CURVE
100
AcDbLine
 62
250
  6
CONTINUOUS
 10
-60.4118992092
 20
16.4779386215
 11
-63.3110329032
 21
16.4779386215
  0
LINE
  5
5C3
100
AcDbEntity
  8
CURVE
100
AcDbLine
 62
250
  6
CONTINUOUS
 10
-62.9862038718
 20
16.8638166215
 11
-62.0644867
 21
16.8638166215
  0
LINE
  5
5C4
100
AcDbEntity
  8
CURVE
100
AcDbLine
 62
250
  6
CONTINUOUS
 10
-61.7396306769
 20
16.8638166215
 11
-60.7367262411
 21
16.8638166215
  0
LINE
  5
5C5
100
AcDbEntity
  8
CURVE
100
AcDbLine
 62
250
  6
CONTINUOUS
 10
-62.0644867
 20
18.3706766215
 11
-61.7396306769
 21
18.3706766215
  0
LINE
  5
5C6
100
AcDbEntity
  8
CURVE
100
AcDbLine
 62
250
  6
CONTINUOUS
 10
-63.3110329032
 20
18.4803436215
 11
-62.9862038718
 21
18.4803436215
  0
LINE
  5
5C7
100
AcDbEntity
  8
CURVE
100
AcDbLine
 62
250
  6
CONTINUOUS
 10
-60.7367262411
 20
18.4925226215
 11
-60.4118992092
 21
18.4925226215
  0
LINE
  5
5C8
100
AcDbEntity
  8
DRAFT
100
AcDbLine
 62
7
  6
CONTINUOUS
 10
-42.4269341988
 20
18.069348131
 11
-40.9955326251
 21
17.9943315533
  0
LINE
  5
5C9
100
AcDbEntity
  8
ASSI
100
AcDbLine
 62
7
  6
CONTINUOUS
 10
-42.4269341988
 20
18.069348131
 11
-40.9955326251
 21
17.9943315533
  0
LWPOLYLINE
  5
5CA
100
AcDbEntity
  8
CURVE
100
AcDbPolyline
 62
250
  6
CONTINUOUS
 90
17
 70
0
 10
-48.4107704984
 20
14.8842406215
 10
-48.3136683084
 20
14.8747182182
 10
-48.2202647107
 20
14.8465137137
 10
-48.1341174192
 20
14.8007014089
 10
-48.0572716627
 20
14.7377943049
 10
-47.9953423761
 20
14.6623888729
 10
-47.9492366176
 20
14.5763888985
 10
-47.9207105412
 20
14.483070094
 10
-47.9108476507
 20
14.3842416215
 10
-47.9203686036
 20
14.2871246401
 10
-47.9485688124
 20
14.1937068144
 10
-47.9943741398
 20
14.1075464002
 10
-48.0572716627
 20
14.030688938
 10
-48.1326656101
 20
13.9687502178
 10
-48.2186524863
 20
13.9226374361
 10
-48.3119570779
 20
13.8941070144
 10
-48.4107705421
 20
13.8842426215
  0
LINE
  5
5CB
100
AcDbEntity
  8
CURVE
100
AcDbLine
 62
250
  6
CONTINUOUS
 10
-60.7976216875
 20
20.0765316215
 11
-63.3110249056
 21
20.9131936215
  0
LINE
  5
5CC
100
AcDbEntity
  8
CURVE
100
AcDbLine
 62
250
  6
CONTINUOUS
 10
-63.3110249056
 20
21.3153186215
 11
-60.4118902119
 21
20.2836286215
  0
LINE
  5
5CD
100
AcDbEntity
  8
CURVE
100
AcDbLine
 62
250
  6
CONTINUOUS
 10
-45.9627748717
 20
12.6502018229
 11
-45.411233412
 21
12.3842469035
  0
LINE
  5
5CE
100
AcDbEntity
  8
CURVE
100
AcDbLine
 62
250
  6
CONTINUOUS
 10
-47.3530951744
 20
13.3206184999
 11
-46.8828934659
 21
13.0938852434
  0
LINE
  5
5CF
100
AcDbEntity
  8
RACCORDO
100
AcDbLine
 62
7
  6
CONTINUOUS
 10
-40.9998936174
 20
11.1991822576
 11
-41.0005371411
 21
11.199597832
  0
LINE
  5
5D0
100
AcDbEntity
  8
ASSI
100
AcDbLine
 62
7
  6
CONTINUOUS
 10
-40.9998936174
 20
11.1991822576
 11
-41.0005371411
 21
11.199597832
  0
LINE
  5
5D1
100
AcDbEntity
  8
CURVE
100
AcDbLine
 62
250
  6
CONTINUOUS
 10
-58.3109440328
 20
24.6128191377
 11
-58.0395568174
 21
24.3413905825
  0
LINE
  5
5D2
100
AcDbEntity
  8
CURVE
100
AcDbLine
 62
250
  6
CONTINUOUS
 10
-56.6826206557
 20
23.6628191944
 11
-56.411233412
 21
23.3913906391
  0
LINE
  5
5D3
100
AcDbEntity
  8
CURVE
100
AcDbLine
 62
250
  6
CONTINUOUS
 10
-58.0395568174
 20
25.9699621405
 11
-58.3109440328
 21
26.2413905825
  0
LINE
  5
5D4
100
AcDbEntity
  8
CURVE
100
AcDbLine
 62
250
  6
CONTINUOUS
 10
-56.411233412
 20
24.6128191377
 11
-56.9540078994
 21
25.1556763615
  0
LINE
  5
5D5
100
AcDbEntity
  8
CURVE
100
AcDbLine
 62
250
  6
CONTINUOUS
 10
-56.6826206557
 20
26.648533472
 11
-56.411233412
 21
26.3771048035
  0
LWPOLYLINE
  5
5D6
100
AcDbEntity
  8
RACCORDO
100
AcDbPolyline
 62
250
  6
CONTINUOUS
 90
11
 70
0
 10
-42.8389518322
 20
24.7830091311
 10
-42.8040223989
 20
24.5782858438
 10
-42.7879450416
 20
24.4825014239
 10
-42.772805309
 20
24.389933581
 10
-42.7586738606
 20
24.2987852031
 10
-42.7458407722
 20
24.2086421321
 10
-42.7345692802
 20
24.1199185261
 10
-42.7250516674
 20
24.0320597479
 10
-42.7176752556
 20
23.9448809183
 10
-42.7129198356
 20
23.8585669164
 10
-42.711233412
 20
23.7731177422
  0
LWPOLYLINE
  5
5D7
100
AcDbEntity
  8
ASSI
100
AcDbPolyline
 62
250
  6
CONTINUOUS
 90
11
 70
0
 10
-42.8389518322
 20
24.7830091311
 10
-42.8040223989
 20
24.5782858438
 10
-42.7879450416
 20
24.4825014239
 10
-42.772805309
 20
24.389933581
 10
-42.7586738606
 20
24.2987852031
 10
-42.7458407722
 20
24.2086421321
 10
-42.7345692802
 20
24.1199185261
 10
-42.7250516674
 20
24.0320597479
 10
-42.7176752556
 20
23.9448809183
 10
-42.7129198356
 20
23.8585669164
 10
-42.711233412
 20
23.7731177422
  0
LINE
  5
5D8
100
AcDbEntity
  8
DRAFT
100
AcDbLine
 62
7
  6
CONTINUOUS
 10
-42.4269341989
 20
22.9991471119
 11
-40.9955326251
 21
23.0741636896
  0
LINE
  5
5D9
100
AcDbEntity
  8
ASSI
100
AcDbLine
 62
7
  6
CONTINUOUS
 10
-42.4269341989
 20
22.9991471119
 11
-40.9955326251
 21
23.0741636896
  0
LINE
  5
5DA
100
AcDbEntity
  8
0
100
AcDbLine
 62
7
  6
CONTINUOUS
 10
-42.711233412
 20
19.1342476215
 11
-42.511233412
 21
19.1342476215
  0
LINE
  5
5DB
100
AcDbEntity
  8
ASSI
100
AcDbLine
 62
7
  6
CONTINUOUS
 10
-42.711233412
 20
19.1342476215
 11
-42.511233412
 21
19.1342476215
  0
LINE
  5
5DC
100
AcDbEntity
  8
0
100
AcDbLine
 62
7
  6
CONTINUOUS
 10
-42.711233412
 20
20.7916944306
 11
-42.511233412
 21
20.7916944306
  0
LINE
  5
5DD
100
AcDbEntity
  8
ASSI
100
AcDbLine
 62
7
  6
CONTINUOUS
 10
-42.711233412
 20
20.7916944306
 11
-42.511233412
 21
20.7916944306
  0
LINE
  5
5DE
100
AcDbEntity
  8
0
100
AcDbLine
 62
7
  6
CONTINUOUS
 10
-42.711233412
 20
21.0342476215
 11
-42.511233412
 21
21.0342476215
  0
LINE
  5
5DF
100
AcDbEntity
  8
ASSI
100
AcDbLine
 62
7
  6
CONTINUOUS
 10
-42.711233412
 20
21.0342476215
 11
-42.511233412
 21
21.0342476215
  0
LINE
  5
5E0
100
AcDbEntity
  8
CURVE
100
AcDbLine
 62
250
  6
CONTINUOUS
 10
-60.4118992092
 20
21.8067606215
 11
-63.3110329032
 21
21.8067606215
  0
LINE
  5
5E1
100
AcDbEntity
  8
CURVE
100
AcDbLine
 62
250
  6
CONTINUOUS
 10
-62.9862038718
 20
22.1926096215
 11
-62.0644867
 21
22.1926096215
  0
LINE
  5
5E2
100
AcDbEntity
  8
CURVE
100
AcDbLine
 62
250
  6
CONTINUOUS
 10
-61.7396306769
 20
22.1926096215
 11
-60.7367262411
 21
22.1926096215
  0
LINE
  5
5E3
100
AcDbEntity
  8
CURVE
100
AcDbLine
 62
250
  6
CONTINUOUS
 10
-57.7681696021
 20
22.848533472
 11
-58.0395568174
 21
22.9842477638
  0
LINE
  5
5E4
100
AcDbEntity
  8
CURVE
100
AcDbLine
 62
250
  6
CONTINUOUS
 10
-56.9540078994
 20
23.798533472
 11
-56.6826206557
 21
23.6628191944
  0
LINE
  5
5E5
100
AcDbEntity
  8
CURVE
100
AcDbLine
 62
250
  6
CONTINUOUS
 10
-57.7681696021
 20
25.834247693
 11
-58.0395568174
 21
25.9699621405
  0
LINE
  5
5E6
100
AcDbEntity
  8
CURVE
100
AcDbLine
 62
250
  6
CONTINUOUS
 10
-56.411233412
 20
27.869961914
 11
-56.6826206557
 21
28.141390809
  0
LWPOLYLINE
  5
5E7
100
AcDbEntity
  8
RACCORDO
100
AcDbPolyline
 62
250
  6
CONTINUOUS
 90
13
 70
0
 10
-42.71797906
 20
29.6198691401
 10
-42.7120380812
 20
29.598978525
 10
-42.7021023276
 20
29.5783745158
 10
-42.6883081117
 20
29.5583397976
 10
-42.6708446821
 20
29.5391492444
 10
-42.6499516313
 20
29.5210661507
 10
-42.6259156116
 20
29.5043386181
 10
-42.5990663927
 20
29.4891961458
 10
-42.5697723412
 20
29.4758464878
 10
-42.538435375
 20
29.4644728042
 10
-42.5054854365
 20
29.4552311399
 10
-42.4713745923
 20
29.4482482856
 10
-42.4365708389
 20
29.4436200429
  0
LWPOLYLINE
  5
5E8
100
AcDbEntity
  8
ASSI
100
AcDbPolyline
 62
250
  6
CONTINUOUS
 90
13
 70
0
 10
-42.71797906
 20
29.6198691401
 10
-42.7120380812
 20
29.598978525
 10
-42.7021023276
 20
29.5783745158
 10
-42.6883081117
 20
29.5583397976
 10
-42.6708446821
 20
29.5391492444
 10
-42.6499516313
 20
29.5210661507
 10
-42.6259156116
 20
29.5043386181
 10
-42.5990663927
 20
29.4891961458
 10
-42.5697723412
 20
29.4758464878
 10
-42.538435375
 20
29.4644728042
 10
-42.5054854365
 20
29.4552311399
 10
-42.4713745923
 20
29.4482482856
 10
-42.4365708389
 20
29.4436200429
  0
LWPOLYLINE
  5
5E9
100
AcDbEntity
  8
CURVE
100
AcDbPolyline
 62
250
  6
CONTINUOUS
 90
90
 70
0
 10
-61.5726596283
 20
24.814652556
 10
-61.525192118
 20
24.8149840938
 10
-61.4777107496
 20
24.8160458074
 10
-61.4302425381
 20
24.8179383471
 10
-61.3828144986
 20
24.8207623629
 10
-61.3354536462
 20
24.824618505
 10
-61.2881869957
 20
24.8296074236
 10
-61.2410415624
 20
24.835829769
 10
-61.1940443611
 20
24.8433861912
 10
-61.147222407
 20
24.8523773404
 10
-61.100602715
 20
24.8629038669
 10
-61.0621240495
 20
24.872866033
 10
-61.0238894314
 20
24.8839837689
 10
-60.9859852129
 20
24.8962873962
 10
-60.9484977461
 20
24.9098072363
 10
-60.9115133831
 20
24.9245736107
 10
-60.8751184762
 20
24.9406168409
 10
-60.8393993774
 20
24.9579672486
 10
-60.8044424389
 20
24.9766551551
 10
-60.7703340129
 20
24.9967108819
 10
-60.7371604514
 20
25.0181647506
 10
-60.7050081068
 20
25.0410470827
 10
-60.673963331
 20
25.0653881998
 10
-60.6439725414
 20
25.091324371
 10
-60.6152508046
 20
25.1186874844
 10
-60.5878621133
 20
25.1474014825
 10
-60.5618704598
 20
25.1773903075
 10
-60.5373398367
 20
25.2085779017
 10
-60.5143342362
 20
25.2408882075
 10
-60.4928878417
 20
25.2742673417
 10
-60.4730107701
 20
25.3085992606
 10
-60.4546809461
 20
25.3437885254
 10
-60.4378762946
 20
25.3797396975
 10
-60.4225747402
 20
25.416357338
 10
-60.4087542077
 20
25.4535460082
 10
-60.3963882214
 20
25.4912116225
 10
-60.3854233066
 20
25.5292947946
 10
-60.3758019655
 20
25.5677376144
 10
-60.3674667003
 20
25.6064821717
 10
-60.3603600129
 20
25.6454705563
 10
-60.3544244057
 20
25.6846448582
 10
-60.3487705046
 20
25.7317914324
 10
-60.3446195865
 20
25.7790829124
 10
-60.3418735588
 20
25.8264801593
 10
-60.3404343288
 20
25.8739440341
 10
-60.3402038041
 20
25.9214353979
 10
-60.3411125681
 20
25.9689086729
 10
-60.3432068945
 20
26.0163358087
 10
-60.3465620706
 20
26.0636823124
 10
-60.3512533838
 20
26.1109136911
 10
-60.3573561212
 20
26.1579954521
 10
-60.3635829094
 20
26.1971179481
 10
-60.3709058174
 20
26.2360579202
 10
-60.3793868003
 20
26.2747609128
 10
-60.389087813
 20
26.3131724706
 10
-60.4000708107
 20
26.3512381378
 10
-60.4123977482
 20
26.388903459
 10
-60.4261192822
 20
26.4260933343
 10
-60.4412733401
 20
26.4627364878
 10
-60.4578876407
 20
26.4987406464
 10
-60.475989903
 20
26.5340135374
 10
-60.4956078458
 20
26.5684628878
 10
-60.5167691881
 20
26.6019964248
 10
-60.5394724196
 20
26.6345025366
 10
-60.5636884145
 20
26.6659180065
 10
-60.5893608514
 20
26.6961589742
 10
-60.6164334089
 20
26.7251415793
 10
-60.6448497657
 20
26.7527819614
 10
-60.6745536005
 20
26.7789962602
 10
-60.7054442962
 20
26.8036905176
 10
-60.7374743142
 20
26.8269112529
 10
-60.7705548518
 20
26.8486911695
 10
-60.8045971064
 20
26.8690629707
 10
-60.8395122755
 20
26.8880593598
 10
-60.8752115565
 20
26.9057130403
 10
-60.9116061468
 20
26.9220567154
 10
-60.9486072437
 20
26.9371230885
 10
-60.9861260448
 20
26.9509448629
 10
-61.0240737473
 20
26.9635547419
 10
-61.0623615487
 20
26.9749854289
 10
-61.1009006465
 20
26.9852696272
 10
-61.1526514778
 20
26.9972832312
 10
-61.2046553098
 20
27.0074302196
 10
-61.2568751602
 20
27.0158316174
 10
-61.3092740464
 20
27.0226084496
 10
-61.361814986
 20
27.0278817412
 10
-61.4144609964
 20
27.0317725171
 10
-61.4671750953
 20
27.0344018023
 10
-61.5199203001
 20
27.0358906218
 10
-61.5726596283
 20
27.0363600006
  0
LINE
  5
5EA
100
AcDbEntity
  8
CURVE
100
AcDbLine
 62
250
  6
CONTINUOUS
 10
-48.711233412
 20
22.7937715854
 11
-47.411233412
 21
22.7937715854
  0
LINE
  5
5EB
100
AcDbEntity
  8
CURVE
100
AcDbLine
 62
250
  6
CONTINUOUS
 10
-56.9540078994
 20
22.848533472
 11
-57.7681696021
 21
22.848533472
  0
LINE
  5
5EC
100
AcDbEntity
  8
CURVE
100
AcDbLine
 62
250
  6
CONTINUOUS
 10
-46.711233412
 20
23.4128188486
 11
-45.411233412
 21
23.4128188486
  0
LINE
  5
5ED
100
AcDbEntity
  8
CURVE
100
AcDbLine
 62
250
  6
CONTINUOUS
 10
-47.411233412
 20
23.5366287615
 11
-48.711233412
 21
23.5366287615
  0
LINE
  5
5EE
100
AcDbEntity
  8
CURVE
100
AcDbLine
 62
250
  6
CONTINUOUS
 10
-62.0644867
 20
23.6995546215
 11
-61.7396306769
 21
23.6995546215
  0
LINE
  5
5EF
100
AcDbEntity
  8
CURVE
100
AcDbLine
 62
250
  6
CONTINUOUS
 10
-57.7681696021
 20
23.798533472
 11
-56.9540078994
 21
23.798533472
  0
LINE
  5
5F0
100
AcDbEntity
  8
CURVE
100
AcDbLine
 62
250
  6
CONTINUOUS
 10
-63.3110329032
 20
23.8091376215
 11
-62.9862038718
 21
23.8091376215
  0
LINE
  5
5F1
100
AcDbEntity
  8
CURVE
100
AcDbLine
 62
250
  6
CONTINUOUS
 10
-60.7367262411
 20
23.8213706215
 11
-60.4118992092
 21
23.8213706215
  0
LINE
  5
5F2
100
AcDbEntity
  8
CURVE
100
AcDbLine
 62
250
  6
CONTINUOUS
 10
-45.596947706
 20
24.155675986
 11
-46.711233412
 21
24.155675986
  0
LINE
  5
5F3
100
AcDbEntity
  8
TRECCIA
100
AcDbLine
 62
250
  6
CONTINUOUS
 10
-83.761233412
 20
24.3342476215
 11
-82.061233412
 21
24.3342476215
  0
LINE
  5
5F4
100
AcDbEntity
  8
CURVE
100
AcDbLine
 62
250
  6
CONTINUOUS
 10
-58.0395568174
 20
24.3413905825
 11
-57.4967823867
 21
24.3413905825
  0
LINE
  5
5F5
100
AcDbEntity
  8
CURVE
100
AcDbLine
 62
250
  6
CONTINUOUS
 10
-46.711233412
 20
24.8056759085
 11
-45.596947706
 21
24.8056759085
  0
LINE
  5
5F6
100
AcDbEntity
  8
CURVE
100
AcDbLine
 62
250
  6
CONTINUOUS
 10
-61.5726596283
 20
24.814652556
 11
-63.313744992
 21
24.814652556
  0
LINE
  5
5F7
100
AcDbEntity
  8
CURVE
100
AcDbLine
 62
250
  6
CONTINUOUS
 10
-63.313744992
 20
24.9936808575
 11
-61.5726596283
 21
24.9936808575
  0
LINE
  5
5F8
100
AcDbEntity
  8
CURVE
100
AcDbLine
 62
250
  6
CONTINUOUS
 10
-48.711233412
 20
25.0223430361
 11
-47.411233412
 21
25.0223430361
  0
LINE
  5
5F9
100
AcDbEntity
  8
CURVE
100
AcDbLine
 62
250
  6
CONTINUOUS
 10
-46.711233412
 20
25.1771046127
 11
-45.411233412
 21
25.1771046127
  0
LINE
  5
5FA
100
AcDbEntity
  8
CURVE
100
AcDbLine
 62
250
  6
CONTINUOUS
 10
-57.4967823867
 20
25.2913905825
 11
-58.0395568174
 21
25.2913905825
  0
LINE
  5
5FB
100
AcDbEntity
  8
TRECCIA
100
AcDbLine
 62
7
  6
CONTINUOUS
 10
-80.911233412
 20
25.4842476215
 11
-75.6169782115
 21
25.4842476215
  0
LINE
  5
5FC
100
AcDbEntity
  8
CURVE
100
AcDbLine
 62
250
  6
CONTINUOUS
 10
-47.596947706
 20
25.6723428811
 11
-48.5255191374
 21
25.6723428811
  0
LINE
  5
5FD
100
AcDbEntity
  8
RACCORDO
100
AcDbLine
 62
250
  6
CONTINUOUS
 10
-40.711233412
 20
25.7342476215
 11
-42.9371334685
 21
25.7342476215
  0
LINE
  5
5FE
100
AcDbEntity
  8
ASSI
100
AcDbLine
 62
250
  6
CONTINUOUS
 10
-40.711233412
 20
25.7342476215
 11
-42.9371334685
 21
25.7342476215
  0
LINE
  5
5FF
100
AcDbEntity
  8
CURVE
100
AcDbLine
 62
250
  6
CONTINUOUS
 10
-46.711233412
 20
25.8271044578
 11
-45.411233412
 21
25.8271044578
  0
LINE
  5
600
100
AcDbEntity
  8
CURVE
100
AcDbLine
 62
250
  6
CONTINUOUS
 10
-56.9540078994
 20
25.834247693
 11
-57.7681696021
 21
25.834247693
  0
LINE
  5
601
100
AcDbEntity
  8
CURVE
100
AcDbLine
 62
250
  6
CONTINUOUS
 10
-56.9540078994
 20
25.1556763615
 11
-57.4967823867
 21
25.2913905825
  0
LINE
  5
602
100
AcDbEntity
  8
CURVE
100
AcDbLine
 62
250
  6
CONTINUOUS
 10
-48.711233412
 20
24.2794859375
 11
-47.411233412
 21
23.9080573107
  0
LINE
  5
603
100
AcDbEntity
  8
CURVE
100
AcDbLine
 62
250
  6
CONTINUOUS
 10
-56.9540078994
 20
26.784247693
 11
-56.6826206557
 21
26.648533472
  0
LINE
  5
604
100
AcDbEntity
  8
CURVE
100
AcDbLine
 62
250
  6
CONTINUOUS
 10
-48.711233412
 20
23.5366287615
 11
-47.9683762747
 21
23.1652001734
  0
LINE
  5
605
100
AcDbEntity
  8
CURVE
100
AcDbLine
 62
250
  6
CONTINUOUS
 10
-58.3109440328
 20
28.955676135
 11
-57.9038631531
 21
28.684247693
  0
LINE
  5
606
100
AcDbEntity
  8
CURVE
100
AcDbLine
 62
250
  6
CONTINUOUS
 10
-56.411233412
 20
28.684247693
 11
-57.7681696021
 21
29.634247693
  0
LWPOLYLINE
  5
607
100
AcDbEntity
  8
RACCORDO
100
AcDbPolyline
 62
250
  6
CONTINUOUS
 90
3
 70
0
 10
-57.1115878881
 20
34.6326520725
 10
-57.1033929056
 20
34.6259073595
 10
-57.0955509388
 20
34.6185651483
  0
LWPOLYLINE
  5
608
100
AcDbEntity
  8
ASSI
100
AcDbPolyline
 62
250
  6
CONTINUOUS
 90
3
 70
0
 10
-57.1115878881
 20
34.6326520725
 10
-57.1033929056
 20
34.6259073595
 10
-57.0955509388
 20
34.6185651483
  0
LWPOLYLINE
  5
609
100
AcDbEntity
  8
RACCORDO
100
AcDbPolyline
 62
250
  6
CONTINUOUS
 90
13
 70
0
 10
-55.7680646929
 20
33.2910789024
 10
-55.79032245
 20
33.3101895322
 10
-55.815562189
 20
33.3260112531
 10
-55.8435966727
 20
33.3384267176
 10
-55.8742179429
 20
33.3473438476
 10
-55.9071988394
 20
33.35269651
 10
-55.9422946795
 20
33.3544450163
 10
-55.9792451162
 20
33.3525764215
 10
-56.0177760523
 20
33.3471046113
 10
-56.0576016433
 20
33.338070205
 10
-56.0984264596
 20
33.3255402502
 10
-56.1399476809
 20
33.3096077173
 10
-56.1818573174
 20
33.2903908155
  0
LWPOLYLINE
  5
60A
100
AcDbEntity
  8
ASSI
100
AcDbPolyline
 62
250
  6
CONTINUOUS
 90
13
 70
0
 10
-55.7680646929
 20
33.2910789024
 10
-55.79032245
 20
33.3101895322
 10
-55.815562189
 20
33.3260112531
 10
-55.8435966727
 20
33.3384267176
 10
-55.8742179429
 20
33.3473438476
 10
-55.9071988394
 20
33.35269651
 10
-55.9422946795
 20
33.3544450163
 10
-55.9792451162
 20
33.3525764215
 10
-56.0177760523
 20
33.3471046113
 10
-56.0576016433
 20
33.338070205
 10
-56.0984264596
 20
33.3255402502
 10
-56.1399476809
 20
33.3096077173
 10
-56.1818573174
 20
33.2903908155
  0
LWPOLYLINE
  5
60B
100
AcDbEntity
  8
RACCORDO
100
AcDbPolyline
 62
250
  6
CONTINUOUS
 90
16
 70
0
 10
-56.1818573178
 20
33.2903908158
 10
-56.1310884541
 20
33.2416369174
 10
-56.079038525
 20
33.1962542617
 10
-56.0257075304
 20
33.1542663399
 10
-55.9710535428
 20
33.1158050339
 10
-55.9151184897
 20
33.0807799786
 10
-55.8580281536
 20
33.0488767328
 10
-55.8000653812
 20
33.020074074
 10
-55.7409473258
 20
32.9944204021
 10
-55.6799512289
 20
32.9717009919
 10
-55.6163837132
 20
32.9516756899
 10
-55.5509381561
 20
32.9346015318
 10
-55.4849719319
 20
32.9210079248
 10
-55.4189374986
 20
32.911075186
 10
-55.3523823982
 20
32.9046333509
 10
-55.2853066306
 20
32.9016848199
  0
LWPOLYLINE
  5
60C
100
AcDbEntity
  8
ASSI
100
AcDbPolyline
 62
250
  6
CONTINUOUS
 90
16
 70
0
 10
-56.1818573178
 20
33.2903908158
 10
-56.1310884541
 20
33.2416369174
 10
-56.079038525
 20
33.1962542617
 10
-56.0257075304
 20
33.1542663399
 10
-55.9710535428
 20
33.1158050339
 10
-55.9151184897
 20
33.0807799786
 10
-55.8580281536
 20
33.0488767328
 10
-55.8000653812
 20
33.020074074
 10
-55.7409473258
 20
32.9944204021
 10
-55.6799512289
 20
32.9717009919
 10
-55.6163837132
 20
32.9516756899
 10
-55.5509381561
 20
32.9346015318
 10
-55.4849719319
 20
32.9210079248
 10
-55.4189374986
 20
32.911075186
 10
-55.3523823982
 20
32.9046333509
 10
-55.2853066306
 20
32.9016848199
  0
LINE
  5
60D
100
AcDbEntity
  8
RACCORDO
100
AcDbLine
 62
7
  6
CONTINUOUS
 10
-57.7673039137
 20
35.2903181231
 11
-55.7680646929
 21
33.2910789024
  0
LINE
  5
60E
100
AcDbEntity
  8
ASSI
100
AcDbLine
 62
7
  6
CONTINUOUS
 10
-57.7673039137
 20
35.2903181231
 11
-55.7680646929
 21
33.2910789024
  0
LINE
  5
60F
100
AcDbEntity
  8
CURVE
100
AcDbLine
 62
250
  6
CONTINUOUS
 10
-47.411233412
 20
25.486628684
 11
-47.596947706
 21
25.6723428811
  0
LINE
  5
610
100
AcDbEntity
  8
CURVE
100
AcDbLine
 62
250
  6
CONTINUOUS
 10
-45.596947706
 20
24.8056759085
 11
-45.411233412
 21
24.6199617113
  0
LINE
  5
611
100
AcDbEntity
  8
CURVE
100
AcDbLine
 62
250
  6
CONTINUOUS
 10
-46.711233412
 20
27.2199615564
 11
-46.5255191374
 21
27.0342473592
  0
LWPOLYLINE
  5
612
100
AcDbEntity
  8
RACCORDO
100
AcDbPolyline
 62
250
  6
CONTINUOUS
 90
7
 70
0
 10
-57.5058052114
 20
34.6431133001
 10
-57.3027930541
 20
34.4354763714
 10
-57.0927225668
 20
34.2208854264
 10
-56.8755937495
 20
33.9992102971
 10
-56.6514066022
 20
33.7703215608
 10
-56.420161125
 20
33.5340907906
 10
-56.1818573178
 20
33.2903908158
  0
LWPOLYLINE
  5
613
100
AcDbEntity
  8
ASSI
100
AcDbPolyline
 62
250
  6
CONTINUOUS
 90
7
 70
0
 10
-57.5058052114
 20
34.6431133001
 10
-57.3027930541
 20
34.4354763714
 10
-57.0927225668
 20
34.2208854264
 10
-56.8755937495
 20
33.9992102971
 10
-56.6514066022
 20
33.7703215608
 10
-56.420161125
 20
33.5340907906
 10
-56.1818573178
 20
33.2903908158
  0
LWPOLYLINE
  5
614
100
AcDbEntity
  8
0
100
AcDbPolyline
 62
7
  6
CONTINUOUS
 90
10
 70
0
 43
0.3500000006
 10
-57.3150632629
 20
56.3842505493
 10
-57.2436366119
 20
56.2413881836
 10
-57.2436366119
 20
56.1699660645
 10
-57.3864944458
 20
56.0271036987
 10
-57.4579210968
 20
56.0271036987
 10
-57.5293477478
 20
56.0985348816
 10
-57.5293477478
 20
56.1699660645
 10
-57.4579210968
 20
56.3128193665
 10
-57.3864944458
 20
56.3842505493
 10
-57.3150632629
 20
56.3842505493
  0
LWPOLYLINE
  5
615
100
AcDbEntity
  8
0
100
AcDbPolyline
 62
7
  6
CONTINUOUS
 90
10
 70
0
 43
0.3500000006
 10
-52.0969478302
 20
46.3842474976
 10
-52.0255211792
 20
46.2413896637
 10
-52.0255211792
 20
46.1699630127
 10
-52.1683744812
 20
46.0271051788
 10
-52.2398056641
 20
46.0271051788
 10
-52.3112323151
 20
46.0985318298
 10
-52.3112323151
 20
46.1699630127
 10
-52.2398056641
 20
46.3128208466
 10
-52.1683744812
 20
46.3842474976
 10
-52.0969478302
 20
46.3842474976
  0
LWPOLYLINE
  5
616
100
AcDbEntity
  8
CURVE
100
AcDbPolyline
 62
250
  6
CONTINUOUS
 90
54
 70
0
 10
-62.5001954412
 20
29.632205771
 10
-62.5257838262
 20
29.6319841278
 10
-62.5514211529
 20
29.6312987244
 10
-62.5770804502
 20
29.6301188498
 10
-62.6027347473
 20
29.628413793
 10
-62.6283570731
 20
29.6261528431
 10
-62.6539204565
 20
29.623305289
 10
-62.6793979267
 20
29.6198404199
 10
-62.7047625125
 20
29.6157275247
 10
-62.729987243
 20
29.6109358924
 10
-62.7550451471
 20
29.6054348122
 10
-62.7799092539
 20
29.599193573
 10
-62.8045525923
 20
29.5921814639
 10
-62.8289481913
 20
29.5843677739
 10
-62.8513391139
 20
29.5763769354
 10
-62.8734617216
 20
29.5676669296
 10
-62.8952842477
 20
29.558235261
 10
-62.9167749255
 20
29.5480794341
 10
-62.9379019883
 20
29.5371969533
 10
-62.9586336695
 20
29.5255853231
 10
-62.9789382023
 20
29.5132420479
 10
-62.998865404
 20
29.5001135191
 10
-63.0183057593
 20
29.486265893
 10
-63.0372351015
 20
29.4717202355
 10
-63.0556292642
 20
29.4564976125
 10
-63.0734640807
 20
29.44061909
 10
-63.0907153846
 20
29.4241057339
 10
-63.1073590092
 20
29.4069786102
 10
-63.123314568
 20
29.3893259678
 10
-63.138626774
 20
29.3711127938
 10
-63.1532794963
 20
29.3523669205
 10
-63.1672566038
 20
29.3331161804
 10
-63.1805419654
 20
29.3133884059
 10
-63.1931194501
 20
29.2932114294
 10
-63.2049729267
 20
29.2726130832
 10
-63.2161484382
 20
29.2515119755
 10
-63.2265987984
 20
29.2300450467
 10
-63.2363466897
 20
29.2082441041
 10
-63.2454147946
 20
29.1861409553
 10
-63.2538257955
 20
29.1637674076
 10
-63.261602375
 20
29.1411552685
 10
-63.2687672153
 20
29.1183363454
 10
-63.2764162506
 20
29.0913596772
 10
-63.2832788116
 20
29.0641673242
 10
-63.2893780268
 20
29.0367840903
 10
-63.2947370248
 20
29.0092347794
 10
-63.2993789339
 20
28.9815441955
 10
-63.3033268828
 20
28.9537371424
 10
-63.3066039998
 20
28.9258384243
 10
-63.3092334136
 20
28.8978728449
 10
-63.3112382524
 20
28.8698652082
 10
-63.3126416449
 20
28.8418403181
 10
-63.3134667195
 20
28.8138229787
 10
-63.3137366047
 20
28.7858379938
  0
LINE
  5
617
100
AcDbEntity
  8
CURVE
100
AcDbLine
 62
250
  6
CONTINUOUS
 10
-48.711233412
 20
26.1985335197
 11
-47.411233412
 21
26.1985335197
  0
LINE
  5
618
100
AcDbEntity
  8
CURVE
100
AcDbLine
 62
250
  6
CONTINUOUS
 10
-46.711233412
 20
26.4461521949
 11
-45.411233412
 21
26.4461521949
  0
LINE
  5
619
100
AcDbEntity
  8
CURVE
100
AcDbLine
 62
250
  6
CONTINUOUS
 10
-57.7681696021
 20
26.784247693
 11
-56.9540078994
 21
26.784247693
  0
LINE
  5
61A
100
AcDbEntity
  8
CURVE
100
AcDbLine
 62
250
  6
CONTINUOUS
 10
-61.5726596283
 20
26.857333377
 11
-63.313744992
 21
26.857333377
  0
LINE
  5
61B
100
AcDbEntity
  8
CURVE
100
AcDbLine
 62
250
  6
CONTINUOUS
 10
-46.5255191374
 20
27.0342473592
 11
-46.3398048627
 21
27.0342473592
  0
LINE
  5
61C
100
AcDbEntity
  8
CURVE
100
AcDbLine
 62
250
  6
CONTINUOUS
 10
-63.313744992
 20
27.0363600006
 11
-61.5726596283
 21
27.0363600006
  0
LINE
  5
61D
100
AcDbEntity
  8
TRECCIA
100
AcDbLine
 62
7
  6
CONTINUOUS
 10
-80.911233412
 20
27.1842476215
 11
-75.5810931444
 21
27.1842476215
  0
LINE
  5
61E
100
AcDbEntity
  8
CURVE
100
AcDbLine
 62
250
  6
CONTINUOUS
 10
-57.4967823867
 20
27.32710503
 11
-58.3109440328
 21
27.32710503
  0
LINE
  5
61F
100
AcDbEntity
  8
CURVE
100
AcDbLine
 62
250
  6
CONTINUOUS
 10
-60.4092990775
 20
27.5488088604
 11
-63.3137366047
 21
27.5488088604
  0
LINE
  5
620
100
AcDbEntity
  8
CURVE
100
AcDbLine
 62
250
  6
CONTINUOUS
 10
-45.782662
 20
27.6842473592
 11
-45.596947706
 21
27.6842473592
  0
LINE
  5
621
100
AcDbEntity
  8
CURVE
100
AcDbLine
 62
250
  6
CONTINUOUS
 10
-63.1591414314
 20
27.7279479084
 11
-61.8574369882
 21
27.7279479084
  0
LINE
  5
622
100
AcDbEntity
  8
CURVE
100
AcDbLine
 62
250
  6
CONTINUOUS
 10
-61.7028418149
 20
27.7279479084
 11
-60.4092990775
 21
27.7279479084
  0
LINE
  5
623
100
AcDbEntity
  8
RACCORDO
100
AcDbLine
 62
250
  6
CONTINUOUS
 10
-40.711233412
 20
27.8342476215
 11
-42.9371334685
 21
27.8342476215
  0
LINE
  5
624
100
AcDbEntity
  8
ASSI
100
AcDbLine
 62
250
  6
CONTINUOUS
 10
-40.711233412
 20
27.8342476215
 11
-42.9371334685
 21
27.8342476215
  0
LINE
  5
625
100
AcDbEntity
  8
CURVE
100
AcDbLine
 62
250
  6
CONTINUOUS
 10
-56.6826206557
 20
28.141390809
 11
-57.2253951147
 21
28.141390809
  0
LINE
  5
626
100
AcDbEntity
  8
CURVE
100
AcDbLine
 62
250
  6
CONTINUOUS
 10
-46.711233412
 20
28.3032947864
 11
-45.411233412
 21
28.3032947864
  0
LINE
  5
627
100
AcDbEntity
  8
CURVE
100
AcDbLine
 62
250
  6
CONTINUOUS
 10
-48.711233412
 20
28.3961522426
 11
-47.411233412
 21
28.3961522426
  0
LINE
  5
628
100
AcDbEntity
  8
CURVE
100
AcDbLine
 62
250
  6
CONTINUOUS
 10
-48.711233412
 20
28.9842477168
 11
-47.411233412
 21
28.9842477168
  0
LINE
  5
629
100
AcDbEntity
  8
RACCORDO
100
AcDbLine
 62
250
  6
CONTINUOUS
 10
-43.3990167275
 20
29.61986914
 11
-42.71797906
 21
29.61986914
  0
LINE
  5
62A
100
AcDbEntity
  8
ASSI
100
AcDbLine
 62
250
  6
CONTINUOUS
 10
-43.3990167275
 20
29.61986914
 11
-42.71797906
 21
29.61986914
  0
LINE
  5
62B
100
AcDbEntity
  8
CURVE
100
AcDbLine
 62
250
  6
CONTINUOUS
 10
-48.711233412
 20
29.6342477168
 11
-47.411233412
 21
29.6342477168
  0
LINE
  5
62C
100
AcDbEntity
  8
CURVE
100
AcDbLine
 62
250
  6
CONTINUOUS
 10
-57.7681696021
 20
29.634247693
 11
-58.0395568174
 21
29.634247693
  0
LWPOLYLINE
  5
62D
100
AcDbEntity
  8
CURVE
100
AcDbPolyline
 62
250
  6
CONTINUOUS
 90
57
 70
0
 10
-61.5726596283
 20
26.857333377
 10
-61.5376740604
 20
26.8571430582
 10
-61.5026869271
 20
26.8565387587
 10
-61.4677078629
 20
26.8554704634
 10
-61.4327465023
 20
26.8538881573
 10
-61.3978124796
 20
26.8517418255
 10
-61.3629154294
 20
26.8489814528
 10
-61.3280649862
 20
26.8455570244
 10
-61.2932707844
 20
26.8414185251
 10
-61.2585424585
 20
26.8365159401
 10
-61.2238896429
 20
26.8307992543
 10
-61.1893219721
 20
26.8242184527
 10
-61.1548490806
 20
26.8167235203
 10
-61.128109283
 20
26.8102291023
 10
-61.1014748128
 20
26.8031299509
 10
-61.0749878076
 20
26.7954048219
 10
-61.0486904048
 20
26.7870324712
 10
-61.0226247419
 20
26.7779916546
 10
-60.9968329563
 20
26.768261128
 10
-60.9713571857
 20
26.7578196473
 10
-60.9462395675
 20
26.7466459684
 10
-60.9215222392
 20
26.7347188471
 10
-60.8972473382
 20
26.7220170393
 10
-60.8734570021
 20
26.708519301
 10
-60.8501933684
 20
26.6942043879
 10
-60.8274985745
 20
26.6790510559
 10
-60.805414758
 20
26.6630380609
 10
-60.7839840563
 20
26.6461441588
 10
-60.7632831016
 20
26.6283941691
 10
-60.7432877345
 20
26.609789473
 10
-60.7240109703
 20
26.5903740379
 10
-60.7054658243
 20
26.5701918311
 10
-60.687665312
 20
26.5492868199
 10
-60.6706224486
 20
26.5277029717
 10
-60.6543502494
 20
26.5054842537
 10
-60.6388617298
 20
26.4826746332
 10
-60.6241699051
 20
26.4593180776
 10
-60.6102877906
 20
26.4354585542
 10
-60.5972284017
 20
26.4111400303
 10
-60.5850047536
 20
26.3864064731
 10
-60.5736298618
 20
26.3613018501
 10
-60.5631167415
 20
26.3358701285
 10
-60.553478408
 20
26.3101552756
 10
-60.5440895513
 20
26.2822164991
 10
-60.5356826239
 20
26.2540258727
 10
-60.5282117699
 20
26.2256084203
 10
-60.5216311332
 20
26.1969891657
 10
-60.515894858
 20
26.168193133
 10
-60.5109570881
 20
26.1392453461
 10
-60.5067719675
 20
26.1101708288
 10
-60.5032936403
 20
26.0809946051
 10
-60.5004762504
 20
26.0517416989
 10
-60.4982739418
 20
26.0224371341
 10
-60.4966408586
 20
25.9931059347
 10
-60.4955311446
 20
25.9637731245
 10
-60.494898944
 20
25.9344637276
 10
-60.4946984007
 20
25.9052027677
  0
LINE
  5
62E
100
AcDbEntity
  8
RACCORDO
100
AcDbLine
 62
250
  6
CONTINUOUS
 10
-47.053191805
 20
29.6421980076
 11
-65.411233412
 21
29.7539067875
  0
LINE
  5
62F
100
AcDbEntity
  8
ASSI
100
AcDbLine
 62
250
  6
CONTINUOUS
 10
-47.053191805
 20
29.6421980076
 11
-65.411233412
 21
29.7539067875
  0
LINE
  5
630
100
AcDbEntity
  8
RACCORDO
100
AcDbLine
 62
250
  6
CONTINUOUS
 10
-43.3990167275
 20
29.61986914
 11
-47.053191805
 21
29.6421980076
  0
LINE
  5
631
100
AcDbEntity
  8
ASSI
100
AcDbLine
 62
250
  6
CONTINUOUS
 10
-43.3990167275
 20
29.61986914
 11
-47.053191805
 21
29.6421980076
  0
LINE
  5
632
100
AcDbEntity
  8
CURVE
100
AcDbLine
 62
250
  6
CONTINUOUS
 10
-45.596947706
 20
27.6842473592
 11
-45.411233412
 21
27.498533162
  0
LINE
  5
633
100
AcDbEntity
  8
0
100
AcDbLine
 62
7
  6
CONTINUOUS
 10
-42.711233412
 20
31.4342476215
 11
-42.511233412
 21
31.4342476215
  0
LINE
  5
634
100
AcDbEntity
  8
ASSI
100
AcDbLine
 62
7
  6
CONTINUOUS
 10
-42.711233412
 20
31.4342476215
 11
-42.511233412
 21
31.4342476215
  0
LINE
  5
635
100
AcDbEntity
  8
SUPPORTO
100
AcDbLine
 62
250
  6
CONTINUOUS
 10
-65.411233412
 20
31.8342476215
 11
-64.411233412
 21
31.8342476215
  0
LINE
  5
636
100
AcDbEntity
  8
SUPPORTO
100
AcDbLine
 62
7
  6
CONTINUOUS
 10
-65.411233412
 20
33.3342476215
 11
-64.411233412
 21
33.3342476215
  0
LINE
  5
637
100
AcDbEntity
  8
RACCORDO
100
AcDbLine
 62
250
  6
CONTINUOUS
 10
-47.0427180305
 20
30.8886795416
 11
-65.411233412
 21
30.9936771906
  0
LINE
  5
638
100
AcDbEntity
  8
ASSI
100
AcDbLine
 62
250
  6
CONTINUOUS
 10
-47.0427180305
 20
30.8886795416
 11
-65.411233412
 21
30.9936771906
  0
LINE
  5
639
100
AcDbEntity
  8
RACCORDO
100
AcDbLine
 62
250
  6
CONTINUOUS
 10
-43.3990167275
 20
30.867771775
 11
-47.0427180305
 21
30.8886795416
  0
LINE
  5
63A
100
AcDbEntity
  8
ASSI
100
AcDbLine
 62
250
  6
CONTINUOUS
 10
-43.3990167275
 20
30.867771775
 11
-47.0427180305
 21
30.8886795416
  0
LINE
  5
63B
100
AcDbEntity
  8
RACCORDO
100
AcDbLine
 62
7
  6
CONTINUOUS
 10
-43.3990167275
 20
32.8786843006
 11
-55.2853066306
 21
33.0861602626
  0
LINE
  5
63C
100
AcDbEntity
  8
ASSI
100
AcDbLine
 62
7
  6
CONTINUOUS
 10
-43.3990167275
 20
32.8786843006
 11
-55.2853066306
 21
33.0861602626
  0
LINE
  5
63D
100
AcDbEntity
  8
RACCORDO
100
AcDbLine
 62
250
  6
CONTINUOUS
 10
-55.2853066306
 20
32.9016848199
 11
-43.3990167275
 21
32.6927921267
  0
LINE
  5
63E
100
AcDbEntity
  8
ASSI
100
AcDbLine
 62
250
  6
CONTINUOUS
 10
-55.2853066306
 20
32.9016848199
 11
-43.3990167275
 21
32.6927921267
  0
LINE
  5
63F
100
AcDbEntity
  8
SMUSSO
100
AcDbLine
 62
7
  6
CONTINUOUS
 10
-64.411233412
 20
31.7448944935
 11
-65.0112441589
 21
31.7558951263
  0
LINE
  5
640
100
AcDbEntity
  8
ASSI
100
AcDbLine
 62
7
  6
CONTINUOUS
 10
-64.411233412
 20
31.7448944935
 11
-65.0112441589
 21
31.7558951263
  0
LWPOLYLINE
  5
641
100
AcDbEntity
  8
RACCORDO
100
AcDbPolyline
 62
7
  6
CONTINUOUS
 90
4
 70
0
 10
-48.439349807
 20
32.9516758864
 10
-46.6579019767
 20
32.9183156371
 10
-45.7641774782
 20
32.9015237569
 10
-44.8684525908
 20
32.8846573729
  0
LWPOLYLINE
  5
642
100
AcDbEntity
  8
ASSI
100
AcDbPolyline
 62
7
  6
CONTINUOUS
 90
4
 70
0
 10
-48.439349807
 20
32.9516758864
 10
-46.6579019767
 20
32.9183156371
 10
-45.7641774782
 20
32.9015237569
 10
-44.8684525908
 20
32.8846573729
  0
LINE
  5
643
100
AcDbEntity
  8
RACCORDO
100
AcDbLine
 62
7
  6
CONTINUOUS
 10
-44.8684525908
 20
32.8846573729
 11
-43.0710016494
 21
32.8507010939
  0
LINE
  5
644
100
AcDbEntity
  8
ASSI
100
AcDbLine
 62
7
  6
CONTINUOUS
 10
-44.8684525908
 20
32.8846573729
 11
-43.0710016494
 21
32.8507010939
  0
LWPOLYLINE
  5
645
100
AcDbEntity
  8
RACCORDO
100
AcDbPolyline
 62
7
  6
CONTINUOUS
 90
10
 70
0
 10
-49.3679336236
 20
32.9828721325
 10
-49.2776499132
 20
32.9802683045
 10
-49.1838894189
 20
32.9772639384
 10
-49.0866959037
 20
32.9738590343
 10
-48.9859817436
 20
32.9698070154
 10
-48.8819778531
 20
32.9653544584
 10
-48.7751947805
 20
32.961241094
 10
-48.6658395586
 20
32.957713499
 10
-48.5538567034
 20
32.9545250964
 10
-48.439349807
 20
32.9516758864
  0
LWPOLYLINE
  5
646
100
AcDbEntity
  8
ASSI
100
AcDbPolyline
 62
7
  6
CONTINUOUS
 90
10
 70
0
 10
-49.3679336236
 20
32.9828721325
 10
-49.2776499132
 20
32.9802683045
 10
-49.1838894189
 20
32.9772639384
 10
-49.0866959037
 20
32.9738590343
 10
-48.9859817436
 20
32.9698070154
 10
-48.8819778531
 20
32.9653544584
 10
-48.7751947805
 20
32.961241094
 10
-48.6658395586
 20
32.957713499
 10
-48.5538567034
 20
32.9545250964
 10
-48.439349807
 20
32.9516758864
  0
LWPOLYLINE
  5
647
100
AcDbEntity
  8
RACCORDO
100
AcDbPolyline
 62
250
  6
CONTINUOUS
 90
19
 70
0
 10
-43.3990167275
 20
30.8677717749
 10
-43.3387385356
 20
30.8654893628
 10
-43.2789998891
 20
30.8599732963
 10
-43.2202453943
 20
30.8512646288
 10
-43.1629123329
 20
30.839428175
 10
-43.1074274077
 20
30.824552028
 10
-43.0542035669
 20
30.8067469041
 10
-43.0036369302
 20
30.7861453187
 10
-42.9561038409
 20
30.7629005995
 10
-42.9119580651
 20
30.7371857462
 10
-42.8715281588
 20
30.7091921424
 10
-42.8351150221
 20
30.6791281312
 10
-42.8029896605
 20
30.6472174651
 10
-42.7753911676
 20
30.6136976399
 10
-42.7525249453
 20
30.5788181279
 10
-42.7345611756
 20
30.5428385207
 10
-42.7216335541
 20
30.5060265976
 10
-42.7138382942
 20
30.4686563319
 10
-42.711233412
 20
30.4310058528
  0
LWPOLYLINE
  5
648
100
AcDbEntity
  8
ASSI
100
AcDbPolyline
 62
250
  6
CONTINUOUS
 90
19
 70
0
 10
-43.3990167275
 20
30.8677717749
 10
-43.3387385356
 20
30.8654893628
 10
-43.2789998891
 20
30.8599732963
 10
-43.2202453943
 20
30.8512646288
 10
-43.1629123329
 20
30.839428175
 10
-43.1074274077
 20
30.824552028
 10
-43.0542035669
 20
30.8067469041
 10
-43.0036369302
 20
30.7861453187
 10
-42.9561038409
 20
30.7629005995
 10
-42.9119580651
 20
30.7371857462
 10
-42.8715281588
 20
30.7091921424
 10
-42.8351150221
 20
30.6791281312
 10
-42.8029896605
 20
30.6472174651
 10
-42.7753911676
 20
30.6136976399
 10
-42.7525249453
 20
30.5788181279
 10
-42.7345611756
 20
30.5428385207
 10
-42.7216335541
 20
30.5060265976
 10
-42.7138382942
 20
30.4686563319
 10
-42.711233412
 20
30.4310058528
  0
LINE
  5
649
100
AcDbEntity
  8
DRAFT
100
AcDbLine
 62
7
  6
CONTINUOUS
 10
-42.4269341989
 20
30.569348131
 11
-40.9955326251
 21
30.4943315533
  0
LINE
  5
64A
100
AcDbEntity
  8
ASSI
100
AcDbLine
 62
7
  6
CONTINUOUS
 10
-42.4269341989
 20
30.569348131
 11
-40.9955326251
 21
30.4943315533
  0
LINE
  5
64B
100
AcDbEntity
  8
CURVE
100
AcDbLine
 62
250
  6
CONTINUOUS
 10
-46.711233412
 20
29.2628186549
 11
-45.411233412
 21
28.8913902606
  0
LINE
  5
64C
100
AcDbEntity
  8
ASSI
100
AcDbLine
 62
7
  6
CONTINUOUS
 10
-57.7673039137
 20
35.2903181231
 11
-59.2617379281
 21
35.8342476215
  0
LINE
  5
64D
100
AcDbEntity
  8
0
100
AcDbLine
 62
250
  6
CONTINUOUS
 10
-73.505046657
 20
35.1098399913
 11
-65.411233412
 21
35.5340187694
  0
LINE
  5
64E
100
AcDbEntity
  8
0
100
AcDbLine
 62
7
  6
CONTINUOUS
 10
-73.5224884319
 20
35.6091547587
 11
-65.411233412
 21
36.0342476215
  0
LINE
  5
64F
100
AcDbEntity
  8
RACCORDO
100
AcDbLine
 62
7
  6
CONTINUOUS
 10
-65.411233412
 20
33.553189877
 11
-64.411233412
 21
33.5619167448
  0
LINE
  5
650
100
AcDbEntity
  8
ASSI
100
AcDbLine
 62
7
  6
CONTINUOUS
 10
-59.2617379281
 20
35.8342476215
 11
-59.811233412
 21
35.8342476215
  0
LWPOLYLINE
  5
651
100
AcDbEntity
  8
ASSI
100
AcDbPolyline
 62
7
  6
CONTINUOUS
 90
10
 70
0
 10
-61.411233412
 20
36.2641142241
 10
-61.8486436268
 20
36.2673138175
 10
-62.2878139395
 20
36.2706467985
 10
-62.72874435
 20
36.2741088658
 10
-63.1714369125
 20
36.2776938632
 10
-63.6158895729
 20
36.2813992536
 10
-64.0620961693
 20
36.2852268675
 10
-64.5100546476
 20
36.2891752425
 10
-64.9597670618
 20
36.2932388805
 10
-65.411233412
 20
36.2974142434
  0
LINE
  5
652
100
AcDbEntity
  8
DRAFT
100
AcDbLine
 62
7
  6
CONTINUOUS
 10
-65.411233412
 20
33.6517026864
 11
-64.411233412
 21
33.6342476215
  0
LINE
  5
653
100
AcDbEntity
  8
ASSI
100
AcDbLine
 62
7
  6
CONTINUOUS
 10
-65.411233412
 20
33.6517026864
 11
-64.411233412
 21
33.6342476215
  0
LINE
  5
654
100
AcDbEntity
  8
RACCORDO
100
AcDbLine
 62
7
  6
CONTINUOUS
 10
-61.411233412
 20
34.8342476215
 11
-57.4403786141
 21
34.7649360931
  0
LINE
  5
655
100
AcDbEntity
  8
ASSI
100
AcDbLine
 62
7
  6
CONTINUOUS
 10
-61.411233412
 20
34.8342476215
 11
-57.4403786141
 21
34.7649360931
  0
LINE
  5
656
100
AcDbEntity
  8
ASSI
100
AcDbLine
 62
7
  6
CONTINUOUS
 10
-65.411233412
 20
37.1342476215
 11
-61.411233412
 21
37.0644273617
  0
LINE
  5
657
100
AcDbEntity
  8
RACCORDO
100
AcDbLine
 62
250
  6
CONTINUOUS
 10
-61.411233412
 20
34.7115882701
 11
-57.5058052114
 21
34.6431133001
  0
LINE
  5
658
100
AcDbEntity
  8
ASSI
100
AcDbLine
 62
250
  6
CONTINUOUS
 10
-61.411233412
 20
34.7115882701
 11
-57.5058052114
 21
34.6431133001
  0
LINE
  5
659
100
AcDbEntity
  8
ASSI
100
AcDbLine
 62
250
  6
CONTINUOUS
 10
-65.411233412
 20
36.9676072789
 11
-61.411233412
 21
36.8973549833
  0
LWPOLYLINE
  5
65A
100
AcDbEntity
  8
ASSI
100
AcDbPolyline
 62
7
  6
CONTINUOUS
 90
10
 70
0
 10
-61.411233412
 20
36.7341380963
 10
-61.8486436268
 20
36.7433044799
 10
-62.2878139395
 20
36.7524049787
 10
-62.72874435
 20
36.7614366688
 10
-63.1714369125
 20
36.7703921684
 10
-63.6158895729
 20
36.7792733995
 10
-64.0620961693
 20
36.78809152
 10
-64.5100546476
 20
36.7968485773
 10
-64.9597670618
 20
36.8055375738
 10
-65.411233412
 20
36.8141561832
  0
LWPOLYLINE
  5
65B
100
AcDbEntity
  8
0
100
AcDbPolyline
 62
250
  6
CONTINUOUS
 90
4
 70
0
 10
-74.4692460454
 20
34.6525609092
 10
-74.4665715735
 20
34.6524104164
 10
-74.4585735058
 20
34.652036347
 10
-73.978436714
 20
34.6315435381
  0
LWPOLYLINE
  5
65C
100
AcDbEntity
  8
RACCORDO
100
AcDbPolyline
 62
7
  6
CONTINUOUS
 90
16
 70
0
 10
-43.0710016494
 20
32.8507010939
 10
-43.0294480125
 20
32.8279691995
 10
-42.9899597832
 20
32.802857356
 10
-42.9525369618
 20
32.7753655633
 10
-42.9170330924
 20
32.7454443243
 10
-42.8835946308
 20
32.7131431361
 10
-42.8526609437
 20
32.6786104901
 10
-42.824133235
 20
32.6416437431
 10
-42.7981103008
 20
32.6024455383
 10
-42.7753278954
 20
32.5617722963
 10
-42.7559172951
 20
32.5195241357
 10
-42.7397472237
 20
32.4758009379
 10
-42.727159607
 20
32.4316587673
 10
-42.7182684205
 20
32.3874496454
 10
-42.7129596889
 20
32.3428215506
 10
-42.711233412
 20
32.2977744829
  0
LWPOLYLINE
  5
65D
100
AcDbEntity
  8
ASSI
100
AcDbPolyline
 62
7
  6
CONTINUOUS
 90
16
 70
0
 10
-43.0710016494
 20
32.8507010939
 10
-43.0294480125
 20
32.8279691995
 10
-42.9899597832
 20
32.802857356
 10
-42.9525369618
 20
32.7753655633
 10
-42.9170330924
 20
32.7454443243
 10
-42.8835946308
 20
32.7131431361
 10
-42.8526609437
 20
32.6786104901
 10
-42.824133235
 20
32.6416437431
 10
-42.7981103008
 20
32.6024455383
 10
-42.7753278954
 20
32.5617722963
 10
-42.7559172951
 20
32.5195241357
 10
-42.7397472237
 20
32.4758009379
 10
-42.727159607
 20
32.4316587673
 10
-42.7182684205
 20
32.3874496454
 10
-42.7129596889
 20
32.3428215506
 10
-42.711233412
 20
32.2977744829
  0
LWPOLYLINE
  5
65E
100
AcDbEntity
  8
0
100
AcDbPolyline
 62
7
  6
CONTINUOUS
 90
7
 70
0
 43
0.3500000006
 10
-55.954091217
 20
45.884247345
 10
-57.4540916748
 20
45.884247345
 10
-55.954091217
 20
48.0271057892
 10
-55.954091217
 20
48.4556747589
 10
-56.3826601868
 20
48.8842482605
 10
-57.0255181732
 20
48.8842482605
 10
-57.4540916748
 20
48.241390274
  0
LWPOLYLINE
  5
65F
100
AcDbEntity
  8
0
100
AcDbPolyline
 62
7
  6
CONTINUOUS
 90
3
 70
0
 43
0.3500000006
 10
-53.596948288
 20
46.5271053314
 10
-55.0969487457
 20
46.5271053314
 10
-54.4540907593
 20
48.8842482605
  0
LWPOLYLINE
  5
660
100
AcDbEntity
  8
0
100
AcDbPolyline
 62
7
  6
CONTINUOUS
 90
6
 70
0
 43
0.3500000006
 10
-62.4579226227
 20
55.8842503967
 10
-61.3864911346
 20
55.8842503967
 10
-61.1722066498
 20
56.0985348816
 10
-61.1722066498
 20
57.1699663696
 10
-61.6007801514
 20
57.5985353394
 10
-62.0293491211
 20
57.5985353394
  0
LWPOLYLINE
  5
661
100
AcDbEntity
  8
0
100
AcDbPolyline
 62
7
  6
CONTINUOUS
 90
3
 70
0
 43
0.3500000006
 10
-58.8150637207
 20
56.5271038513
 10
-60.3150641785
 20
56.5271038513
 10
-59.672206192
 20
58.8842513123
  0
ARC
  5
662
100
AcDbEntity
  8
POMELLO
100
AcDbCircle
 62
7
  6
CONTINUOUS
 10
-44.672203117
 20
-23.6657523785
 40
50.0
100
AcDbArc
 50
344.8012495729
 51
350.1826178967
  0
ARC
  5
663
100
AcDbEntity
  8
POMELLO
100
AcDbCircle
 62
7
  6
CONTINUOUS
 10
-44.672203117
 20
-23.6657523785
 40
50.0
100
AcDbArc
 50
9.8173821033
 51
15.1987504271
  0
ARC
  5
664
100
AcDbEntity
  8
POMELLO
100
AcDbCircle
 62
7
  6
CONTINUOUS
 10
-2.0963963953
 20
-36.6430749313
 40
0.5
100
AcDbArc
 50
195.1987504271
 51
269.5
  0
ARC
  5
665
100
AcDbEntity
  8
POMELLO
100
AcDbCircle
 62
7
  6
CONTINUOUS
 10
-2.0963963953
 20
-10.6884298258
 40
0.5
100
AcDbArc
 50
90.5
 51
164.8012495729
  0
ARC
  5
666
100
AcDbEntity
  8
ASSI
100
AcDbCircle
 62
7
  6
CONTINUOUS
 10
-4.95
 20
-9.4657523785
 40
0.5
100
AcDbArc
 50
350.803718421
 51
119.112422776
  0
ARC
  5
667
100
AcDbEntity
  8
DRAFT
100
AcDbCircle
 62
7
  6
CONTINUOUS
 10
-11.25
 20
13.6342476215
 40
28.0
100
AcDbArc
 50
53.1303940676
 51
54.0372348486
  0
ARC
  5
668
100
AcDbEntity
  8
DRAFT
100
AcDbCircle
 62
7
  6
CONTINUOUS
 10
-11.25
 20
13.6342476215
 40
28.0
100
AcDbArc
 50
305.9627651514
 51
306.8696059324
  0
ARC
  5
669
100
AcDbEntity
  8
ASSI
100
AcDbCircle
 62
7
  6
CONTINUOUS
 10
-11.25
 20
13.6342476215
 40
28.0
100
AcDbArc
 50
55.8789063483
 51
56.4427876864
  0
ARC
  5
66A
100
AcDbEntity
  8
ASSI
100
AcDbCircle
 62
7
  6
CONTINUOUS
 10
-11.25
 20
13.6342476215
 40
28.0
100
AcDbArc
 50
53.1303940676
 51
54.0372348486
  0
ARC
  5
66B
100
AcDbEntity
  8
ASSI
100
AcDbCircle
 62
7
  6
CONTINUOUS
 10
-11.25
 20
13.6342476215
 40
28.0
100
AcDbArc
 50
305.9627651514
 51
306.8696059324
  0
ARC
  5
66C
100
AcDbEntity
  8
ASSI
100
AcDbCircle
 62
7
  6
CONTINUOUS
 10
-11.25
 20
13.6342476215
 40
28.0
100
AcDbArc
 50
303.5572123136
 51
304.1210936517
  0
ARC
  5
66D
100
AcDbEntity
  8
0
100
AcDbCircle
 62
7
  6
CONTINUOUS
 10
0.0
 20
26.1342476215
 40
1.0
100
AcDbArc
 50
328.2905637705
 51
52.6074760489
  0
ARC
  5
66E
100
AcDbEntity
  8
0
100
AcDbCircle
 62
7
  6
CONTINUOUS
 10
0.0
 20
26.1342476215
 40
1.0
100
AcDbArc
 50
127.3925239511
 51
211.7094362295
  0
ARC
  5
66F
100
AcDbEntity
  8
TRECCIA
100
AcDbCircle
 62
7
  6
CONTINUOUS
 10
0.0
 20
26.3342476215
 40
0.85
100
AcDbArc
 50
0.0
 51
180.0
  0
ARC
  5
670
100
AcDbEntity
  8
ASSI
100
AcDbCircle
 62
7
  6
CONTINUOUS
 10
-4.95
 20
36.7342476215
 40
0.5
100
AcDbArc
 50
240.887577224
 51
9.196281579
  0
ARC
  5
671
100
AcDbEntity
  8
POMELLO
100
AcDbCircle
 62
7
  6
CONTINUOUS
 10
45.672203117
 20
-23.6657523785
 40
50.0
100
AcDbArc
 50
189.8173821033
 51
195.1987504271
  0
ARC
  5
672
100
AcDbEntity
  8
POMELLO
100
AcDbCircle
 62
7
  6
CONTINUOUS
 10
45.672203117
 20
-23.6657523785
 40
50.0
100
AcDbArc
 50
164.8012495729
 51
170.1826178967
  0
ARC
  5
673
100
AcDbEntity
  8
POMELLO
100
AcDbCircle
 62
7
  6
CONTINUOUS
 10
3.0963963953
 20
-36.6430749313
 40
0.5
100
AcDbArc
 50
270.5
 51
344.8012495729
  0
ARC
  5
674
100
AcDbEntity
  8
POMELLO
100
AcDbCircle
 62
7
  6
CONTINUOUS
 10
3.0963963953
 20
-10.6884298258
 40
0.5
100
AcDbArc
 50
15.1987504271
 51
89.5
  0
ARC
  5
675
100
AcDbEntity
  8
ASSI
100
AcDbCircle
 62
7
  6
CONTINUOUS
 10
4.95
 20
-9.4657523785
 40
0.5
100
AcDbArc
 50
60.887577224
 51
189.196281579
  0
ARC
  5
676
100
AcDbEntity
  8
DRAFT
100
AcDbCircle
 62
7
  6
CONTINUOUS
 10
11.25
 20
13.6342476215
 40
28.0
100
AcDbArc
 50
125.9627651514
 51
126.8696059324
  0
ARC
  5
677
100
AcDbEntity
  8
DRAFT
100
AcDbCircle
 62
7
  6
CONTINUOUS
 10
11.25
 20
13.6342476215
 40
28.0
100
AcDbArc
 50
233.1303940676
 51
234.0372348486
  0
ARC
  5
678
100
AcDbEntity
  8
ASSI
100
AcDbCircle
 62
7
  6
CONTINUOUS
 10
11.25
 20
13.6342476215
 40
28.0
100
AcDbArc
 50
125.9627651514
 51
126.8696059324
  0
ARC
  5
679
100
AcDbEntity
  8
ASSI
100
AcDbCircle
 62
7
  6
CONTINUOUS
 10
11.25
 20
13.6342476215
 40
28.0
100
AcDbArc
 50
123.5572123136
 51
124.1210936517
  0
ARC
  5
67A
100
AcDbEntity
  8
ASSI
100
AcDbCircle
 62
7
  6
CONTINUOUS
 10
11.25
 20
13.6342476215
 40
28.0
100
AcDbArc
 50
235.8789063483
 51
236.4427876864
  0
ARC
  5
67B
100
AcDbEntity
  8
ASSI
100
AcDbCircle
 62
7
  6
CONTINUOUS
 10
11.25
 20
13.6342476215
 40
28.0
100
AcDbArc
 50
233.1303940676
 51
234.0372348486
  0
ARC
  5
67C
100
AcDbEntity
  8
ASSI
100
AcDbCircle
 62
7
  6
CONTINUOUS
 10
4.95
 20
36.7342476215
 40
0.5
100
AcDbArc
 50
170.803718421
 51
299.112422776
  0
ARC
  5
67D
100
AcDbEntity
  8
POMELLO
100
AcDbCircle
 62
7
  6
CONTINUOUS
 10
-82.911233412
 20
-23.6657523785
 40
13.5
100
AcDbArc
 50
92.6935918714
 51
87.3064081286
  0
CIRCLE
  5
67E
100
AcDbEntity
  8
POMELLO
100
AcDbCircle
 62
250
  6
CONTINUOUS
 10
-82.911233412
 20
-23.6657523785
 40
13.4773035143
  0
CIRCLE
  5
67F
100
AcDbEntity
  8
POMELLO
100
AcDbCircle
 62
250
  6
CONTINUOUS
 10
-82.911233412
 20
-23.6657523785
 40
13.1084066379
  0
CIRCLE
  5
680
100
AcDbEntity
  8
POMELLO
100
AcDbCircle
 62
250
  6
CONTINUOUS
 10
-82.911233412
 20
-23.6657523785
 40
8.5254218138
  0
CIRCLE
  5
681
100
AcDbEntity
  8
POMELLO
100
AcDbCircle
 62
250
  6
CONTINUOUS
 10
-82.911233412
 20
-23.6657523785
 40
8.4743713822
  0
ARC
  5
682
100
AcDbEntity
  8
0
100
AcDbCircle
 62
7
  6
CONTINUOUS
 10
-73.4701524757
 20
-7.342029981
 40
1.0
100
AcDbArc
 50
182.4092313014
 51
267.0
  0
ARC
  5
683
100
AcDbEntity
  8
RACCORDO
100
AcDbCircle
 62
7
  6
CONTINUOUS
 10
-42.9199290642
 20
-0.3657523785
 40
2.5086956522
100
AcDbArc
 50
276.795937418
 51
83.2040708685
  0
ARC
  5
684
100
AcDbEntity
  8
ASSI
100
AcDbCircle
 62
7
  6
CONTINUOUS
 10
-42.9199290642
 20
-0.3657523785
 40
2.5086956522
100
AcDbArc
 50
276.795937418
 51
83.2040708685
  0
ARC
  5
685
100
AcDbEntity
  8
RACCORDO
100
AcDbCircle
 62
7
  6
CONTINUOUS
 10
-43.411233412
 20
-4.9102956711
 40
0.7
100
AcDbArc
 50
271.0
 51
360.0
  0
ARC
  5
686
100
AcDbEntity
  8
RACCORDO
100
AcDbCircle
 62
7
  6
CONTINUOUS
 10
-55.2730899461
 20
-6.5175584063
 40
0.7
100
AcDbArc
 50
91.0
 51
135.0
  0
ARC
  5
687
100
AcDbEntity
  8
ASSI
100
AcDbCircle
 62
7
  6
CONTINUOUS
 10
-43.411233412
 20
-4.9102956711
 40
0.7
100
AcDbArc
 50
271.0
 51
360.0
  0
ARC
  5
688
100
AcDbEntity
  8
ASSI
100
AcDbCircle
 62
7
  6
CONTINUOUS
 10
-55.2730899461
 20
-6.5175584063
 40
0.7
100
AcDbArc
 50
91.0
 51
135.0
  0
ARC
  5
689
100
AcDbEntity
  8
RACCORDO
100
AcDbCircle
 62
7
  6
CONTINUOUS
 10
-57.4491048173
 20
-6.9965170026
 40
0.5
100
AcDbArc
 50
271.0
 51
314.9999999999
  0
ARC
  5
68A
100
AcDbEntity
  8
ASSI
100
AcDbCircle
 62
7
  6
CONTINUOUS
 10
-57.4491048173
 20
-6.9965170026
 40
0.5
100
AcDbArc
 50
271.0
 51
314.9999999999
  0
ARC
  5
68B
100
AcDbEntity
  8
RACCORDO
100
AcDbCircle
 62
7
  6
CONTINUOUS
 10
-42.611233412
 20
-2.9561191479
 40
0.1
100
AcDbArc
 50
96.7959242617
 51
170.7581919797
  0
ARC
  5
68C
100
AcDbEntity
  8
RACCORDO
100
AcDbCircle
 62
7
  6
CONTINUOUS
 10
-42.611233412
 20
2.2246143909
 40
0.1
100
AcDbArc
 50
179.9999999996
 51
263.2040757396
  0
ARC
  5
68D
100
AcDbEntity
  8
ASSI
100
AcDbCircle
 62
7
  6
CONTINUOUS
 10
-42.611233412
 20
-2.9561191479
 40
0.1
100
AcDbArc
 50
96.7959242617
 51
170.7581919797
  0
ARC
  5
68E
100
AcDbEntity
  8
ASSI
100
AcDbCircle
 62
7
  6
CONTINUOUS
 10
-42.611233412
 20
2.2246143909
 40
0.1
100
AcDbArc
 50
179.9999999996
 51
263.2040757396
  0
ARC
  5
68F
100
AcDbEntity
  8
TRECCIA
100
AcDbCircle
 62
7
  6
CONTINUOUS
 10
-80.911233412
 20
24.3342476215
 40
2.85
100
AcDbArc
 50
90.0
 51
180.0
  0
ARC
  5
690
100
AcDbEntity
  8
TRECCIA
100
AcDbCircle
 62
7
  6
CONTINUOUS
 10
-80.911233412
 20
24.3342476215
 40
1.15
100
AcDbArc
 50
90.0
 51
180.0
  0
ARC
  5
691
100
AcDbEntity
  8
0
100
AcDbCircle
 62
7
  6
CONTINUOUS
 10
-73.4701524757
 20
34.6105252239
 40
1.0
100
AcDbArc
 50
93.0
 51
177.5907686986
  0
ARC
  5
692
100
AcDbEntity
  8
RACCORDO
100
AcDbCircle
 62
7
  6
CONTINUOUS
 10
-55.2730899461
 20
33.7860536492
 40
0.7
100
AcDbArc
 50
225.0
 51
269.0
  0
ARC
  5
693
100
AcDbEntity
  8
RACCORDO
100
AcDbCircle
 62
7
  6
CONTINUOUS
 10
-43.411233412
 20
32.178790914
 40
0.7
100
AcDbArc
 50
74.6828178721
 51
89.0
  0
ARC
  5
694
100
AcDbEntity
  8
ASSI
100
AcDbCircle
 62
7
  6
CONTINUOUS
 10
-55.2730899461
 20
33.7860536492
 40
0.7
100
AcDbArc
 50
225.0
 51
269.0
  0
ARC
  5
695
100
AcDbEntity
  8
ASSI
100
AcDbCircle
 62
7
  6
CONTINUOUS
 10
-43.411233412
 20
32.178790914
 40
0.7
100
AcDbArc
 50
74.6828178721
 51
89.0
  0
ARC
  5
696
100
AcDbEntity
  8
RACCORDO
100
AcDbCircle
 62
7
  6
CONTINUOUS
 10
-75.366677468
 20
20.3124553865
 40
0.5000000266
100
AcDbArc
 50
359.2354755716
 51
16.9557329436
  0
ARC
  5
697
100
AcDbEntity
  8
RACCORDO
100
AcDbCircle
 62
7
  6
CONTINUOUS
 10
-75.074853469
 20
31.9809943615
 40
0.5000000265
100
AcDbArc
 50
340.1789899579
 51
357.8992473226
  0
ARC
  5
698
100
AcDbEntity
  8
RACCORDO
100
AcDbCircle
 62
7
  6
CONTINUOUS
 10
-57.4491048173
 20
34.2650122456
 40
0.5
100
AcDbArc
 50
45.0
 51
89.0
  0
ARC
  5
699
100
AcDbEntity
  8
ASSI
100
AcDbCircle
 62
7
  6
CONTINUOUS
 10
-57.4491048173
 20
34.2650122456
 40
0.5
100
AcDbArc
 50
45.0
 51
89.0
  0
ARC
  5
69A
100
AcDbEntity
  8
RACCORDO
100
AcDbCircle
 62
7
  6
CONTINUOUS
 10
-41.011233412
 20
30.1947426929
 40
0.3
100
AcDbArc
 50
0.0
 51
87.0
  0
ARC
  5
69B
100
AcDbEntity
  8
RACCORDO
100
AcDbCircle
 62
7
  6
CONTINUOUS
 10
-41.011233412
 20
23.37375255
 40
0.3
100
AcDbArc
 50
273.0
 51
360.0
  0
ARC
  5
69C
100
AcDbEntity
  8
RACCORDO
100
AcDbCircle
 62
7
  6
CONTINUOUS
 10
-41.011233412
 20
17.6947426929
 40
0.3
100
AcDbArc
 50
0.0
 51
87.0
  0
ARC
  5
69D
100
AcDbEntity
  8
RACCORDO
100
AcDbCircle
 62
7
  6
CONTINUOUS
 10
-41.011233412
 20
10.8737525515
 40
0.3
100
AcDbArc
 50
273.0
 51
360.0
  0
ARC
  5
69E
100
AcDbEntity
  8
RACCORDO
100
AcDbCircle
 62
7
  6
CONTINUOUS
 10
-42.411233412
 20
22.6995582514
 40
0.3
100
AcDbArc
 50
93.0
 51
180.0
  0
ARC
  5
69F
100
AcDbEntity
  8
RACCORDO
100
AcDbCircle
 62
7
  6
CONTINUOUS
 10
-42.411233412
 20
30.8689369915
 40
0.3
100
AcDbArc
 50
180.0
 51
267.0
  0
ARC
  5
6A0
100
AcDbEntity
  8
RACCORDO
100
AcDbCircle
 62
7
  6
CONTINUOUS
 10
-42.411233412
 20
18.36893699
 40
0.3
100
AcDbArc
 50
180.0
 51
267.0
  0
ARC
  5
6A1
100
AcDbEntity
  8
RACCORDO
100
AcDbCircle
 62
7
  6
CONTINUOUS
 10
-42.411233412
 20
10.1995582534
 40
0.3
100
AcDbArc
 50
93.0
 51
180.0
  0
ARC
  5
6A2
100
AcDbEntity
  8
ASSI
100
AcDbCircle
 62
7
  6
CONTINUOUS
 10
-41.011233412
 20
30.1947426929
 40
0.3
100
AcDbArc
 50
0.0
 51
87.0
  0
ARC
  5
6A3
100
AcDbEntity
  8
ASSI
100
AcDbCircle
 62
7
  6
CONTINUOUS
 10
-41.011233412
 20
23.37375255
 40
0.3
100
AcDbArc
 50
273.0
 51
360.0
  0
ARC
  5
6A4
100
AcDbEntity
  8
ASSI
100
AcDbCircle
 62
7
  6
CONTINUOUS
 10
-41.011233412
 20
17.6947426929
 40
0.3
100
AcDbArc
 50
0.0
 51
87.0
  0
ARC
  5
6A5
100
AcDbEntity
  8
ASSI
100
AcDbCircle
 62
7
  6
CONTINUOUS
 10
-41.011233412
 20
10.8737525515
 40
0.3
100
AcDbArc
 50
273.0
 51
360.0
  0
ARC
  5
6A6
100
AcDbEntity
  8
ASSI
100
AcDbCircle
 62
7
  6
CONTINUOUS
 10
-42.411233412
 20
22.6995582514
 40
0.3
100
AcDbArc
 50
93.0
 51
180.0
  0
ARC
  5
6A7
100
AcDbEntity
  8
ASSI
100
AcDbCircle
 62
7
  6
CONTINUOUS
 10
-42.411233412
 20
30.8689369915
 40
0.3
100
AcDbArc
 50
180.0
 51
267.0
  0
ARC
  5
6A8
100
AcDbEntity
  8
ASSI
100
AcDbCircle
 62
7
  6
CONTINUOUS
 10
-42.411233412
 20
18.36893699
 40
0.3
100
AcDbArc
 50
180.0
 51
267.0
  0
ARC
  5
6A9
100
AcDbEntity
  8
ASSI
100
AcDbCircle
 62
7
  6
CONTINUOUS
 10
-42.411233412
 20
10.1995582534
 40
0.3
100
AcDbArc
 50
93.0
 51
180.0
  0
ARC
  5
6AA
100
AcDbEntity
  8
RACCORDO
100
AcDbCircle
 62
7
  6
CONTINUOUS
 10
-75.4335993144
 20
24.5563925139
 40
0.2
100
AcDbArc
 50
171.5151228901
 51
183.7085417167
  0
ARC
  5
6AB
100
AcDbEntity
  8
RACCORDO
100
AcDbCircle
 62
7
  6
CONTINUOUS
 10
425.088766588
 20
13.6342476215
 40
500.0
100
AcDbArc
 50
177.8992473187
 51
179.2354755755
  0
ARC
  5
6AC
100
AcDbEntity
  8
0
100
AcDbCircle
 62
7
  6
CONTINUOUS
 10
425.088766588
 20
13.6342476215
 40
500.0
100
AcDbArc
 50
177.5907686986
 51
182.4092313014
  0
ELLIPSE
  5
6AD
100
AcDbEntity
  8
0
100
AcDbEllipse
 62
7
  6
CONTINUOUS
 10
10.649923836
 20
-8.2650662055
 30
0.0
 11
-0.1582391023
 21
0.4751033573
 31
0.0
 40
0.9984778551
 41
-3.4626430041
 42
-1.8927600658
  0
ELLIPSE
  5
6AE
100
AcDbEntity
  8
0
100
AcDbEllipse
 62
7
  6
CONTINUOUS
 10
10.649923836
 20
35.5335614485
 30
0.0
 11
0.1582391023
 21
0.4751033573
 31
0.0
 40
0.9984778551
 41
-1.2488325878
 42
0.3210503505
  0
ELLIPSE
  5
6AF
100
AcDbEntity
  8
0
100
AcDbEllipse
 62
7
  6
CONTINUOUS
 10
-10.649923836
 20
-8.2650662055
 30
0.0
 11
0.1582391023
 21
0.4751033573
 31
0.0
 40
0.9984778551
 41
-4.3904252414
 42
-2.8205423031
  0
ELLIPSE
  5
6B0
100
AcDbEntity
  8
0
100
AcDbEllipse
 62
7
  6
CONTINUOUS
 10
-10.649923836
 20
35.5335614485
 30
0.0
 11
-0.1582391023
 21
0.4751033573
 31
0.0
 40
0.9984778551
 41
-0.3210503505
 42
1.2488325878
  0
ELLIPSE
  5
6B1
100
AcDbEntity
  8
SMUSSO
100
AcDbEllipse
 62
7
  6
CONTINUOUS
 10
-44.3065980938
 20
13.6342476215
 30
0.0
 11
0.0
 21
27.6274687813
 31
0.0
 40
0.9928454133
 41
0.8553841125
 42
0.8779094629
  0
ELLIPSE
  5
6B2
100
AcDbEntity
  8
SMUSSO
100
AcDbEllipse
 62
7
  6
CONTINUOUS
 10
-44.3065980938
 20
13.6342476215
 30
0.0
 11
-0.0
 21
27.6274687813
 31
0.0
 40
0.9928454133
 41
-4.0195021165
 42
-3.9969767661
  0
ELLIPSE
  5
6B3
100
AcDbEntity
  8
ASSI
100
AcDbEllipse
 62
7
  6
CONTINUOUS
 10
-44.3065980938
 20
13.6342476215
 30
0.0
 11
0.0
 21
27.6274687813
 31
0.0
 40
0.9928454133
 41
0.8553841125
 42
0.8779094629
  0
ELLIPSE
  5
6B4
100
AcDbEntity
  8
ASSI
100
AcDbEllipse
 62
7
  6
CONTINUOUS
 10
-44.3065980938
 20
13.6342476215
 30
0.0
 11
-0.0
 21
27.6274687813
 31
0.0
 40
0.9928454133
 41
-4.0195021165
 42
-3.9969767661
  0
ENDSEC
  0
SECTION
  2
OBJECTS
  0
DICTIONARY
  5
C
100
AcDbDictionary
280
0
281
1
  3
ACAD_GROUP
350
D
  3
ACAD_MLINESTYLE
350
17
  3
ACAD_LAYOUT
350
1A
  3
ACAD_PLOTSETTINGS
350
19
  3
ACAD_PLOTSTYLENAME
350
E
  0
DICTIONARY
  5
D
102
{ACAD_REACTORS
330
C
102
}
100
AcDbDictionary
280
0
281
1
  0
ACDBDICTIONARYWDFLT
  5
E
102
{ACAD_REACTORS
330
C
102
}
100
AcDbDictionary
281
1
  3
Normal
350
F
100
AcDbDictionaryWithDefault
340
F
  0
DICTIONARY
  5
17
102
{ACAD_REACTORS
330
C
102
}
100
AcDbDictionary
280
0
281
1
  3
Standard
350
18
  0
DICTIONARY
  5
19
102
{ACAD_REACTORS
330
C
102
}
100
AcDbDictionary
281
1
  0
DICTIONARY
  5
1A
102
{ACAD_REACTORS
330
C
102
}
100
AcDbDictionary
281
1
  3
Model
350
6B5
  3
Layout1
350
6B6
  0
ACDBPLACEHOLDER
  5
F
102
{ACAD_REACTORS
330
E
102
}
  0
MLINESTYLE
  5
18
102
{ACAD_REACTORS
330
17
102
}
100
AcDbMlineStyle
  2
STANDARD
 70
0
  3

 62
256
 51
90.0
 52
90.0
 71
2
 49
0.5
 62
256
  6
BYLAYER
 49
-0.5
 62
256
  6
BYLAYER
  0
LAYOUT
  5
6B5
102
{ACAD_REACTORS
330
1A
102
}
100
AcDbPlotSettings
  1

  2
none_device
  4
ISO_A4_(297.00_x_210.00_MM)
  6

 40
0.0
 41
0.0
 42
0.0
 43
0.0
 44
297.0
 45
210.0
 46
0.0
 47
0.0
 48
0.0
 49
0.0
140
0.0
141
0.0
142
1.0
143
1.0
 70
1024
 72
1
 73
0
 74
0
  7

 75
0
147
1.0
148
0.0
149
0.0
100
AcDbLayout
  1
Model
 70
0
 71
0
 10
0.0
 20
0.0
 11
297.0
 21
210.0
 12
0.0
 22
0.0
 32
0.0
 14
0.0
 24
0.0
 34
0.0
 15
0.0
 25
0.0
 35
0.0
146
0.0
 13
0.0
 23
0.0
 33
0.0
 16
1.0
 26
0.0
 36
0.0
 17
0.0
 27
1.0
 37
0.0
 76
0
330
221
345
0
346
0
  0
LAYOUT
  5
6B6
102
{ACAD_REACTORS
330
1A
102
}
100
AcDbPlotSettings
  1

  2
none_device
  4
ISO_A4_(297.00_x_210.00_MM)
  6

 40
0.0
 41
0.0
 42
0.0
 43
0.0
 44
297.0
 45
210.0
 46
0.0
 47
0.0
 48
0.0
 49
0.0
140
0.0
141
0.0
142
1.0
143
1.0
 70
0
 72
1
 73
0
 74
0
  7

 75
0
147
1.0
148
0.0
149
0.0
100
AcDbLayout
  1
Layout1
 70
0
 71
1
 10
0.0
 20
0.0
 11
297.0
 21
210.0
 12
0.0
 22
0.0
 32
0.0
 14
0.0
 24
0.0
 34
0.0
 15
0.0
 25
0.0
 35
0.0
146
0.0
 13
0.0
 23
0.0
 33
0.0
 16
1.0
 26
0.0
 36
0.0
 17
0.0
 27
1.0
 37
0.0
 76
0
330
222
345
0
346
0
  0
ENDSEC
  0
EOF
