  0
SECTION
  2
HEADER
  9
$ACADVER
  1
AC1024
  9
$DWGCODEPAGE
  3
ANSI_1252
  9
$EXTMAX
 10
215.9
 20
279.4
 30
0.0
  9
$EXTMIN
 10
0.0
 20
0.0
 30
0.0
  9
$LIMMIN
 10
0.0
 20
0.0
  9
$LIMMAX
 10
215.9
 20
279.4
  9
$VIEWCTR
 10
107.95
 20
139.7
  9
$VIEWSIZE
 40
279.4
  9
$CLAYER
  8
0
  9
$LTSCALE
 40
18.2127407407
  9
$CELTYPE
  6
BYLAYER
  9
$DIMSCALE
 40
1.0
  9
$DIMASZ
 40
3.0
  9
$DIMEXO
 40
0.5
  9
$DIMDLI
 40
12.5833481481
  9
$DIMEXE
 40
1.5
  9
$DIMCEN
 40
2.9802666667
  9
$DIMLFAC
 40
1.0
  9
$DIMBLK
  1
_FILLED
  9
$DIMALT
 70
0
  9
$DIMALTF
 40
0.0393700787
  9
$DIMTXT
 40
3.0
  9
$DIMTOL
 70
1
  9
$DIMLIM
 70
0
  9
$DIMTFAC
 40
1.0
  9
$DIMTP
 40
0.01
  9
$DIMTM
 40
0.01
  9
$DIMGAP
 40
0.625
  9
$DIMDSEP
 70
44
  9
$AUNITS
 70
0
  9
$PDMODE
 70
3
  9
$PDSIZE
 40
3.0
  9
$HANDSEED
  5
571
  9
$TILEMODE
 70
1
  9
$MEASUREMENT
 70
1
  9
$INSUNITS
 70
4
  0
ENDSEC
  0
SECTION
  2
CLASSES
  0
CLASS
  1
ACDBDICTIONARYWDFLT
  2
AcDbDictionaryWithDefault
  3
AutoCAD 2000
 90
0
 91
1
280
0
281
0
  0
CLASS
  1
ACDBPLACEHOLDER
  2
AcDbPlaceHolder
  3
AutoCAD 2000
 90
0
 91
1
280
0
281
0
  0
CLASS
  1
LAYOUT
  2
AcDbLayout
  3
AutoCAD 2000
 90
0
 91
0
280
0
281
0
  0
ENDSEC
  0
SECTION
  2
TABLES
  0
TABLE
  2
VPORT
  5
8
100
AcDbSymbolTable
 70
2
  0
VPORT
  5
1F4
100
AcDbSymbolTableRecord
100
AcDbViewportTableRecord
  2
*ACTIVE
 70
0
 10
0.0
 20
0.0
 11
1.0
 21
1.0
 12
107.95
 22
139.7
 13
0.0
 23
0.0
 14
1.0
 24
1.0
 15
0.0
 25
0.0
 16
0.0
 26
0.0
 36
1.0
 17
0.0
 27
0.0
 37
0.0
 40
279.4
 41
0.7727272727
 42
50.0
 43
0.0
 44
0.0
 50
0.0
 51
0.0
 71
0
 72
100
 73
1
 74
1
 75
0
 76
0
 77
0
 78
0
  0
ENDTAB
  0
TABLE
  2
LTYPE
  5
5
100
AcDbSymbolTable
 70
6
  0
LTYPE
  5
14
100
AcDbSymbolTableRecord
100
AcDbLinetypeTableRecord
  2
BYBLOCK
 70
0
  3

 72
65
 73
0
 40
0.0
  0
LTYPE
  5
15
100
AcDbSymbolTableRecord
100
AcDbLinetypeTableRecord
  2
BYLAYER
 70
0
  3

 72
65
 73
0
 40
0.0
  0
LTYPE
  5
16
100
AcDbSymbolTableRecord
100
AcDbLinetypeTableRecord
  2
CONTINUOUS
 70
64
  3
Solid line
 72
65
 73
0
 40
0.0
  0
LTYPE
  5
1F5
100
AcDbSymbolTableRecord
100
AcDbLinetypeTableRecord
  2
CENTER
 70
64
  3
____ _ ____ _ ____ _ ____ _ ____ _ ____ _ ____
 72
65
 73
4
 40
0.6
 49
0.375
 74
0
 49
-0.075
 74
0
 49
0.075
 74
0
 49
-0.075
 74
0
  0
LTYPE
  5
1F6
100
AcDbSymbolTableRecord
100
AcDbLinetypeTableRecord
  2
HIDDEN
 70
64
  3
- - - - - - - - - - - - - - - - - - - -
 72
65
 73
2
 40
0.2
 49
0.1
 74
0
 49
-0.1
 74
0
  0
LTYPE
  5
1F7
100
AcDbSymbolTableRecord
100
AcDbLinetypeTableRecord
  2
PHANTOM
 70
64
  3
_____ _ _ _____ _ _ _____ _ _ _____
 72
65
 73
6
 40
0.8
 49
0.45
 74
0
 49
-0.05
 74
0
 49
0.1
 74
0
 49
-0.05
 74
0
 49
0.1
 74
0
 49
-0.05
 74
0
  0
LTYPE
  5
1F8
100
AcDbSymbolTableRecord
100
AcDbLinetypeTableRecord
  2
DOT
 70
64
  3
. . . . . . . . . . . . . . . . . . . .
 72
65
 73
2
 40
0.2
 49
0.1
 74
0
 49
-0.1
 74
0
  0
LTYPE
  5
1F9
100
AcDbSymbolTableRecord
100
AcDbLinetypeTableRecord
  2
DASHED
 70
64
  3
- - - - - - - - - - - - - - - - - - - -
 72
65
 73
2
 40
0.2
 49
0.1
 74
0
 49
-0.1
 74
0
  0
ENDTAB
  0
TABLE
  2
LAYER
  5
2
100
AcDbSymbolTable
 70
36
  0
LAYER
  5
10
100
AcDbSymbolTableRecord
100
AcDbLayerTableRecord
  2
0
 70
0
 62
7
  6
CONTINUOUS
370
-3
390
F
  0
LAYER
  5
1FA
100
AcDbSymbolTableRecord
100
AcDbLayerTableRecord
  2
DEFAULT_1
 70
0
 62
7
  6
CENTER
370
-3
390
F
  0
LAYER
  5
1FB
100
AcDbSymbolTableRecord
100
AcDbLayerTableRecord
  2
DEFAULT_2
 70
0
 62
7
  6
HIDDEN
370
-3
390
F
  0
LAYER
  5
1FC
100
AcDbSymbolTableRecord
100
AcDbLayerTableRecord
  2
DEFAULT_3
 70
0
 62
7
  6
PHANTOM
370
-3
390
F
  0
LAYER
  5
1FD
100
AcDbSymbolTableRecord
100
AcDbLayerTableRecord
  2
ASSI
 70
0
 62
7
  6
CONTINUOUS
370
-3
390
F
  0
LAYER
  5
1FE
100
AcDbSymbolTableRecord
100
AcDbLayerTableRecord
  2
COORDINATE
 70
0
 62
7
  6
CONTINUOUS
370
-3
390
F
  0
LAYER
  5
1FF
100
AcDbSymbolTableRecord
100
AcDbLayerTableRecord
  2
COORD_ORIGINE
 70
0
 62
7
  6
CONTINUOUS
370
-3
390
F
  0
LAYER
  5
200
100
AcDbSymbolTableRecord
100
AcDbLayerTableRecord
  2
COPY_PUBLISH
 70
0
 62
7
  6
CONTINUOUS
370
-3
390
F
  0
LAYER
  5
201
100
AcDbSymbolTableRecord
100
AcDbLayerTableRecord
  2
COSMETIC
 70
0
 62
7
  6
CONTINUOUS
370
-3
390
F
  0
LAYER
  5
202
100
AcDbSymbolTableRecord
100
AcDbLayerTableRecord
  2
CURVE
 70
0
 62
7
  6
CONTINUOUS
370
-3
390
F
  0
LAYER
  5
203
100
AcDbSymbolTableRecord
100
AcDbLayerTableRecord
  2
DRAFT
 70
0
 62
7
  6
CONTINUOUS
370
-3
390
F
  0
LAYER
  5
204
100
AcDbSymbolTableRecord
100
AcDbLayerTableRecord
  2
IMPORT
 70
0
 62
7
  6
CONTINUOUS
370
-3
390
F
  0
LAYER
  5
205
100
AcDbSymbolTableRecord
100
AcDbLayerTableRecord
  2
IMPORT_IGES
 70
0
 62
7
  6
CONTINUOUS
370
-3
390
F
  0
LAYER
  5
206
100
AcDbSymbolTableRecord
100
AcDbLayerTableRecord
  2
INTF_1
 70
0
 62
7
  6
CONTINUOUS
370
-3
390
F
  0
LAYER
  5
207
100
AcDbSymbolTableRecord
100
AcDbLayerTableRecord
  2
INTF_11
 70
0
 62
7
  6
CONTINUOUS
370
-3
390
F
  0
LAYER
  5
208
100
AcDbSymbolTableRecord
100
AcDbLayerTableRecord
  2
INTF_16
 70
0
 62
7
  6
CONTINUOUS
370
-3
390
F
  0
LAYER
  5
209
100
AcDbSymbolTableRecord
100
AcDbLayerTableRecord
  2
INTF_2
 70
0
 62
7
  6
CONTINUOUS
370
-3
390
F
  0
LAYER
  5
20A
100
AcDbSymbolTableRecord
100
AcDbLayerTableRecord
  2
INTF_8
 70
0
 62
7
  6
CONTINUOUS
370
-3
390
F
  0
LAYER
  5
20B
100
AcDbSymbolTableRecord
100
AcDbLayerTableRecord
  2
NOTE
 70
0
 62
7
  6
CONTINUOUS
370
-3
390
F
  0
LAYER
  5
20C
100
AcDbSymbolTableRecord
100
AcDbLayerTableRecord
  2
PIANI
 70
0
 62
7
  6
CONTINUOUS
370
-3
390
F
  0
LAYER
  5
20D
100
AcDbSymbolTableRecord
100
AcDbLayerTableRecord
  2
PIANI_ORIGINE
 70
0
 62
7
  6
CONTINUOUS
370
-3
390
F
  0
LAYER
  5
20E
100
AcDbSymbolTableRecord
100
AcDbLayerTableRecord
  2
PUNTI
 70
0
 62
7
  6
CONTINUOUS
370
-3
390
F
  0
LAYER
  5
20F
100
AcDbSymbolTableRecord
100
AcDbLayerTableRecord
  2
RACCORDO
 70
0
 62
7
  6
CONTINUOUS
370
-3
390
F
  0
LAYER
  5
210
100
AcDbSymbolTableRecord
100
AcDbLayerTableRecord
  2
RGB__255__255__255__
 70
0
 62
7
  6
CONTINUOUS
370
-3
390
F
  0
LAYER
  5
211
100
AcDbSymbolTableRecord
100
AcDbLayerTableRecord
  2
SKETCH_SNI
 70
0
 62
7
  6
CONTINUOUS
370
-3
390
F
  0
LAYER
  5
212
100
AcDbSymbolTableRecord
100
AcDbLayerTableRecord
  2
SMUSSO
 70
0
 62
7
  6
CONTINUOUS
370
-3
390
F
  0
LAYER
  5
213
100
AcDbSymbolTableRecord
100
AcDbLayerTableRecord
  2
SNAPLINE
 70
0
 62
7
  6
CONTINUOUS
370
-3
390
F
  0
LAYER
  5
214
100
AcDbSymbolTableRecord
100
AcDbLayerTableRecord
  2
TRASH
 70
0
 62
7
  6
CONTINUOUS
370
-3
390
F
  0
LAYER
  5
215
100
AcDbSymbolTableRecord
100
AcDbLayerTableRecord
  2
XSEC_DATUMS
 70
0
 62
7
  6
CONTINUOUS
370
-3
390
F
  0
ENDTAB
  0
TABLE
  2
STYLE
  5
3
100
AcDbSymbolTable
 70
1
  0
STYLE
  5
11
100
AcDbSymbolTableRecord
100
AcDbTextStyleTableRecord
  2
STANDARD
 70
0
 40
0.0
 41
0.8
 50
0.0
 71
0
 42
0.2
  3
txt
  4

  0
STYLE
  5
216
100
AcDbSymbolTableRecord
100
AcDbTextStyleTableRecord
  2
TEXTSTYLE_1
 70
0
 40
0.0
 41
0.8
 50
0.0
 71
0
 42
0.2
  3
gdt
  4

  0
ENDTAB
  0
TABLE
  2
VIEW
  5
6
100
AcDbSymbolTable
 70
0
  0
ENDTAB
  0
TABLE
  2
UCS
  5
7
100
AcDbSymbolTable
 70
0
  0
ENDTAB
  0
TABLE
  2
APPID
  5
9
100
AcDbSymbolTable
 70
1
  0
APPID
  5
217
100
AcDbSymbolTableRecord
100
AcDbRegAppTableRecord
  2
ACAD
 70
0
  0
ENDTAB
  0
TABLE
  2
BLOCK_RECORD
  5
1
100
AcDbSymbolTable
 70
0
  0
BLOCK_RECORD
  5
218
100
AcDbSymbolTableRecord
100
AcDbBlockTableRecord
  2
*Model_Space
  0
BLOCK_RECORD
  5
219
100
AcDbSymbolTableRecord
100
AcDbBlockTableRecord
  2
*Paper_Space
  0
BLOCK_RECORD
  5
21A
100
AcDbSymbolTableRecord
100
AcDbBlockTableRecord
  2
_FILLED
  0
BLOCK_RECORD
  5
21B
100
AcDbSymbolTableRecord
100
AcDbBlockTableRecord
  2
*D0
  0
BLOCK_RECORD
  5
21C
100
AcDbSymbolTableRecord
100
AcDbBlockTableRecord
  2
*D1
  0
BLOCK_RECORD
  5
21D
100
AcDbSymbolTableRecord
100
AcDbBlockTableRecord
  2
*D2
  0
BLOCK_RECORD
  5
21E
100
AcDbSymbolTableRecord
100
AcDbBlockTableRecord
  2
*D3
  0
ENDTAB
  0
TABLE
  2
DIMSTYLE
  5
A
100
AcDbSymbolTable
 70
1
100
AcDbDimStyleTable
 71
0
  0
DIMSTYLE
105
21F
100
AcDbSymbolTableRecord
100
AcDbDimStyleTableRecord
  2
STANDARD
 70
0
  3

  4

 40
1.0
 41
3.0
 42
0.5
 43
0.38
 44
1.5
 45
0.0
 46
0.0
 47
0.01
 48
0.01
140
3.0
141
0.09
142
0.0
143
25.4
144
1.0
145
0.0
146
1.0
147
0.625
 71
1
 72
0
 73
0
 74
0
 75
0
 76
0
 77
1
 78
8
 79
2
170
0
171
1
172
0
173
0
174
0
175
0
176
0
177
0
178
0
270
2
179
2
271
2
272
2
273
2
274
2
275
0
280
0
281
0
282
0
283
1
284
8
285
0
286
0
287
3
288
0
340
11
278
44
341
21A
342
21A
343
21A
344
21A
  0
DIMSTYLE
105
220
100
AcDbSymbolTableRecord
100
AcDbDimStyleTableRecord
  2
DIMSTYLE_1
 70
0
  3

  4

 40
1.0
 41
3.0
 42
0.5
 43
0.38
 44
1.5
 45
0.0
 46
0.0
 47
0.0
 48
0.0
140
3.0
141
0.09
142
0.0
143
25.4
144
1.0
145
0.0
146
1.0
147
0.75
 71
0
 72
0
 73
0
 74
0
 75
0
 76
0
 77
1
 78
8
 79
2
170
0
171
1
172
0
173
0
174
0
175
0
176
0
177
0
178
0
270
2
179
2
271
2
272
2
273
2
274
2
275
0
280
0
281
0
282
0
283
1
284
8
285
0
286
0
287
3
288
0
340
11
278
44
341
21A
342
21A
343
21A
344
21A
  0
ENDTAB
  0
ENDSEC
  0
SECTION
  2
BLOCKS
  0
BLOCK
  5
20
100
AcDbEntity
  8
0
100
AcDbBlockBegin
  2
*Model_Space
 70
0
 10
0.0
 20
0.0
 30
0.0
  3
*Model_Space
  1

  0
ENDBLK
  5
21
100
AcDbEntity
  8
0
100
AcDbBlockEnd
  0
BLOCK
  5
1C
100
AcDbEntity
  8
0
100
AcDbBlockBegin
  2
*Paper_Space
 70
0
 10
0.0
 20
0.0
 30
0.0
  3
*Paper_Space
  1

  0
ENDBLK
  5
1D
100
AcDbEntity
  8
0
100
AcDbBlockEnd
  0
BLOCK
  5
221
100
AcDbEntity
  8
0
100
AcDbBlockBegin
  2
_FILLED
 70
64
 10
0.0
 20
0.0
  3
_FILLED
  1

  0
SOLID
  5
222
100
AcDbEntity
  8
0
  6
BYBLOCK
 62
0
100
AcDbTrace
 10
0.0
 20
0.0
 11
-1.0
 21
0.3166666667
 12
-1.0
 22
-0.3166666667
 13
-1.0
 23
-0.3166666667
  0
ENDBLK
  5
223
100
AcDbEntity
  8
0
  6
BYBLOCK
 62
0
100
AcDbBlockEnd
  0
BLOCK
  5
224
100
AcDbEntity
  8
0
100
AcDbBlockBegin
 62
7
  6
CONTINUOUS
  2
*D0
 70
65
 10
0.0
 20
0.0
  3
*D0
  1

  0
LINE
  5
225
100
AcDbEntity
  8
0
100
AcDbLine
 62
7
  6
CONTINUOUS
 10
26.0898392194
 20
20.1282165045
 11
26.0898392194
 21
45.0296209041
  0
LINE
  5
226
100
AcDbEntity
  8
0
100
AcDbLine
 62
7
  6
CONTINUOUS
 10
-32.4101607806
 20
0.3163068061
 11
-32.4101607806
 21
45.0296209041
  0
LINE
  5
227
100
AcDbEntity
  8
0
100
AcDbLine
 62
7
  6
CONTINUOUS
 10
26.0898392194
 20
43.5296209041
 11
-3.1601607806
 21
43.5296209041
  0
LINE
  5
228
100
AcDbEntity
  8
0
100
AcDbLine
 62
7
  6
CONTINUOUS
 10
-32.4101607806
 20
43.5296209041
 11
-3.1601607806
 21
43.5296209041
  0
INSERT
  5
229
100
AcDbEntity
  8
0
100
AcDbBlockReference
 62
7
  6
CONTINUOUS
  2
_FILLED
 10
26.0898392194
 20
43.5296209041
 41
3.0
 42
3.0
 43
3.0
  0
INSERT
  5
22A
100
AcDbEntity
  8
0
100
AcDbBlockReference
 62
7
  6
CONTINUOUS
  2
_FILLED
 10
-32.4101607806
 20
43.5296209041
 41
3.0
 42
3.0
 43
3.0
 50
180.0
  0
ENDBLK
  5
22B
100
AcDbEntity
  8
0
  6
BYBLOCK
 62
0
100
AcDbBlockEnd
  0
BLOCK
  5
22C
100
AcDbEntity
  8
0
100
AcDbBlockBegin
 62
7
  6
CONTINUOUS
  2
*D1
 70
65
 10
0.0
 20
0.0
  3
*D1
  1

  0
LINE
  5
22D
100
AcDbEntity
  8
0
100
AcDbLine
 62
7
  6
CONTINUOUS
 10
-13.9101607806
 20
22.2160779541
 11
-13.9101607806
 21
35.0296209041
  0
LINE
  5
22E
100
AcDbEntity
  8
0
100
AcDbLine
 62
7
  6
CONTINUOUS
 10
26.0898392194
 20
20.1282165045
 11
26.0898392194
 21
35.0296209041
  0
LINE
  5
22F
100
AcDbEntity
  8
0
100
AcDbLine
 62
7
  6
CONTINUOUS
 10
-13.9101607806
 20
33.5296209041
 11
6.0898392194
 21
33.5296209041
  0
LINE
  5
230
100
AcDbEntity
  8
0
100
AcDbLine
 62
7
  6
CONTINUOUS
 10
26.0898392194
 20
33.5296209041
 11
6.0898392194
 21
33.5296209041
  0
INSERT
  5
231
100
AcDbEntity
  8
0
100
AcDbBlockReference
 62
7
  6
CONTINUOUS
  2
_FILLED
 10
-13.9101607806
 20
33.5296209041
 41
3.0
 42
3.0
 43
3.0
 50
180.0
  0
INSERT
  5
232
100
AcDbEntity
  8
0
100
AcDbBlockReference
 62
7
  6
CONTINUOUS
  2
_FILLED
 10
26.0898392194
 20
33.5296209041
 41
3.0
 42
3.0
 43
3.0
  0
ENDBLK
  5
233
100
AcDbEntity
  8
0
  6
BYBLOCK
 62
0
100
AcDbBlockEnd
  0
BLOCK
  5
234
100
AcDbEntity
  8
0
100
AcDbBlockBegin
 62
7
  6
CONTINUOUS
  2
*D2
 70
65
 10
0.0
 20
0.0
  3
*D2
  1

  0
LINE
  5
235
100
AcDbEntity
  8
0
100
AcDbLine
 62
7
  6
CONTINUOUS
 10
39.3947410756
 20
16.4359659724
 11
39.3947410756
 21
35.0296209041
  0
LINE
  5
236
100
AcDbEntity
  8
0
100
AcDbLine
 62
7
  6
CONTINUOUS
 10
61.6947410756
 20
16.4359659724
 11
61.6947410756
 21
35.0296209041
  0
LINE
  5
237
100
AcDbEntity
  8
0
100
AcDbLine
 62
7
  6
CONTINUOUS
 10
39.3947410756
 20
33.5296209041
 11
50.5447410756
 21
33.5296209041
  0
LINE
  5
238
100
AcDbEntity
  8
0
100
AcDbLine
 62
7
  6
CONTINUOUS
 10
61.6947410756
 20
33.5296209041
 11
50.5447410756
 21
33.5296209041
  0
INSERT
  5
239
100
AcDbEntity
  8
0
100
AcDbBlockReference
 62
7
  6
CONTINUOUS
  2
_FILLED
 10
39.3947410756
 20
33.5296209041
 41
3.0
 42
3.0
 43
3.0
 50
180.0
  0
INSERT
  5
23A
100
AcDbEntity
  8
0
100
AcDbBlockReference
 62
7
  6
CONTINUOUS
  2
_FILLED
 10
61.6947410756
 20
33.5296209041
 41
3.0
 42
3.0
 43
3.0
  0
ENDBLK
  5
23B
100
AcDbEntity
  8
0
  6
BYBLOCK
 62
0
100
AcDbBlockEnd
  0
BLOCK
  5
23C
100
AcDbEntity
  8
0
100
AcDbBlockBegin
 62
7
  6
CONTINUOUS
  2
*D3
 70
65
 10
0.0
 20
0.0
  3
*D3
  1

  0
LINE
  5
23D
100
AcDbEntity
  8
0
100
AcDbLine
 62
7
  6
CONTINUOUS
 10
54.7195991007
 20
23.3163068061
 11
72.5965445468
 21
23.3163068061
  0
LINE
  5
23E
100
AcDbEntity
  8
0
100
AcDbLine
 62
7
  6
CONTINUOUS
 10
54.7195987526
 20
-23.6836931939
 11
72.5965445468
 21
-23.6836931939
  0
LINE
  5
23F
100
AcDbEntity
  8
0
100
AcDbLine
 62
7
  6
CONTINUOUS
 10
71.0965445468
 20
23.3163068061
 11
71.0965445468
 21
-0.1836931939
  0
LINE
  5
240
100
AcDbEntity
  8
0
100
AcDbLine
 62
7
  6
CONTINUOUS
 10
71.0965445468
 20
-23.6836931939
 11
71.0965445468
 21
-0.1836931939
  0
INSERT
  5
241
100
AcDbEntity
  8
0
100
AcDbBlockReference
 62
7
  6
CONTINUOUS
  2
_FILLED
 10
71.0965445468
 20
23.3163068061
 41
3.0
 42
3.0
 43
3.0
 50
90.0
  0
INSERT
  5
242
100
AcDbEntity
  8
0
100
AcDbBlockReference
 62
7
  6
CONTINUOUS
  2
_FILLED
 10
71.0965445468
 20
-23.6836931939
 41
3.0
 42
3.0
 43
3.0
 50
270.0
  0
ENDBLK
  5
243
100
AcDbEntity
  8
0
  6
BYBLOCK
 62
0
100
AcDbBlockEnd
  0
ENDSEC
  0
SECTION
  2
ENTITIES
  0
DIMENSION
  5
244
100
AcDbEntity
  8
0
100
AcDbDimension
 62
7
  6
CONTINUOUS
  2
*D0
 10
-32.4101607806
 20
43.5296209041
 11
-7.3387322092
 21
43.5296209041
 70
160
 71
2
 72
2
 41
0.9
 42
58.5
  3
DIMSTYLE_1
100
AcDbAlignedDimension
 13
26.0898392194
 23
19.6282165045
 14
-32.4101607806
 24
-0.1836931939
 50
180.0
100
AcDbRotatedDimension
  0
DIMENSION
  5
245
100
AcDbEntity
  8
0
100
AcDbDimension
 62
7
  6
CONTINUOUS
  2
*D1
 10
26.0898392194
 20
33.5296209041
 11
3.7326963622
 21
33.5296209041
 70
160
 71
2
 72
2
 41
0.9
 42
40.0
  3
DIMSTYLE_1
100
AcDbAlignedDimension
 13
-13.9101607806
 23
21.7160779541
 14
26.0898392194
 24
19.6282165045
100
AcDbRotatedDimension
  0
DIMENSION
  5
246
100
AcDbEntity
  8
0
100
AcDbDimension
 62
7
  6
CONTINUOUS
  2
*D2
 10
61.6947410756
 20
33.5296209041
 11
46.2590267899
 21
33.5296209041
 70
160
 71
2
 72
2
 41
0.9
 42
22.3
  3
DIMSTYLE_1
100
AcDbAlignedDimension
 13
39.3947410756
 23
15.9359659724
 14
61.6947410756
 24
15.9359659724
100
AcDbRotatedDimension
  0
DIMENSION
  5
247
100
AcDbEntity
  8
0
100
AcDbDimension
 62
7
  6
CONTINUOUS
  2
*D3
 10
71.0965445468
 20
-23.6836931939
 11
71.0965445468
 21
-2.540836051
 70
160
 71
2
 72
2
 41
0.9
 42
47.0
  3
DIMSTYLE_1
100
AcDbAlignedDimension
 13
54.2195991007
 23
23.3163068061
 14
54.2195987526
 24
-23.6836931939
 50
270.0
100
AcDbRotatedDimension
  0
LWPOLYLINE
  5
248
100
AcDbEntity
  8
0
100
AcDbPolyline
 62
7
  6
CONTINUOUS
 90
5
 70
0
 43
0.3499999865
 10
53.5447424841
 20
35.9939061017
 10
53.9018849682
 20
36.208193108
 10
53.9018849682
 20
36.8510490741
 10
53.5447424841
 20
37.2796205603
 10
52.6875944589
 20
37.2796205603
  0
LWPOLYLINE
  5
249
100
AcDbEntity
  8
0
100
AcDbPolyline
 62
7
  6
CONTINUOUS
 90
10
 70
0
 10
54.2195987526
 20
-23.6836931939
 10
54.284692437
 20
-23.6815935051
 10
54.3491636292
 20
-23.6752983674
 10
54.413012329
 20
-23.6648077806
 10
54.4766366357
 20
-23.6499997753
 10
54.5396384501
 20
-23.630996321
 10
54.6008234743
 20
-23.6081633264
 10
54.659793609
 20
-23.5816227611
 10
54.7169469536
 20
-23.5512526555
 10
54.7722835079
 20
-23.5170530096
  0
LWPOLYLINE
  5
24A
100
AcDbEntity
  8
ASSI
100
AcDbPolyline
 62
7
  6
CONTINUOUS
 90
10
 70
0
 10
54.2195987526
 20
-23.6836931939
 10
54.284692437
 20
-23.6815935051
 10
54.3491636292
 20
-23.6752983674
 10
54.413012329
 20
-23.6648077806
 10
54.4766366357
 20
-23.6499997753
 10
54.5396384501
 20
-23.630996321
 10
54.6008234743
 20
-23.6081633264
 10
54.659793609
 20
-23.5816227611
 10
54.7169469536
 20
-23.5512526555
 10
54.7722835079
 20
-23.5170530096
  0
LINE
  5
24B
100
AcDbEntity
  8
0
100
AcDbLine
 62
7
  6
CONTINUOUS
 10
46.8698833986
 20
-23.6836931939
 11
54.2195987526
 21
-23.6836931939
  0
LINE
  5
24C
100
AcDbEntity
  8
ASSI
100
AcDbLine
 62
7
  6
CONTINUOUS
 10
46.8698833986
 20
-23.6836931939
 11
54.2195987526
 21
-23.6836931939
  0
LINE
  5
24D
100
AcDbEntity
  8
0
100
AcDbLine
 62
7
  6
CONTINUOUS
 10
47.0749208159
 20
-22.6836931939
 11
54.0145613353
 21
-22.6836931939
  0
LINE
  5
24E
100
AcDbEntity
  8
ASSI
100
AcDbLine
 62
7
  6
CONTINUOUS
 10
47.0749208159
 20
-22.6836931939
 11
54.0145613353
 21
-22.6836931939
  0
LINE
  5
24F
100
AcDbEntity
  8
0
100
AcDbLine
 62
7
  6
CONTINUOUS
 10
61.1951216753
 20
-22.5836931939
 11
53.8447410756
 21
-22.5836931939
  0
LINE
  5
250
100
AcDbEntity
  8
0
100
AcDbLine
 62
7
  6
CONTINUOUS
 10
47.2447410756
 20
-22.5836931939
 11
39.8943604758
 21
-22.5836931939
  0
LINE
  5
251
100
AcDbEntity
  8
0
100
AcDbLine
 62
250
  6
CONTINUOUS
 10
61.0535391923
 20
-22.1586003311
 11
40.0359429589
 21
-22.1586003311
  0
LINE
  5
252
100
AcDbEntity
  8
0
100
AcDbLine
 62
250
  6
CONTINUOUS
 10
61.0969620414
 20
-21.2018566932
 11
40.044206013
 21
-21.2020074248
  0
LWPOLYLINE
  5
253
100
AcDbEntity
  8
0
100
AcDbPolyline
 62
250
  6
CONTINUOUS
 90
16
 70
0
 10
40.044206013
 20
-21.2020064816
 10
39.9925207075
 20
-21.2018559888
 10
39.9413891657
 20
-21.2014819194
 10
39.8913592205
 20
-21.2008882815
 10
39.8429669021
 20
-21.2000814354
 10
39.7967306949
 20
-21.1990700258
 10
39.7531459822
 20
-21.1978648895
 10
39.7126797388
 20
-21.1964789386
 10
39.6757655277
 20
-21.1949270225
 10
39.6427988544
 20
-21.1932257687
 10
39.6141329303
 20
-21.1913934048
 10
39.5900748872
 20
-21.189449563
 10
39.5708824877
 20
-21.18741507
 10
39.5567613626
 20
-21.1853117239
 10
39.5478628083
 20
-21.1831620601
 10
39.5442821656
 20
-21.1809891105
  0
LWPOLYLINE
  5
254
100
AcDbEntity
  8
0
100
AcDbPolyline
 62
250
  6
CONTINUOUS
 90
16
 70
0
 10
40.0359429589
 20
-22.1586003311
 10
39.9837169405
 20
-22.1558205652
 10
39.9320624566
 20
-22.147606977
 10
39.8815447873
 20
-22.1340494517
 10
39.8327167717
 20
-22.115296356
 10
39.7861127585
 20
-22.0915529139
 10
39.7422427578
 20
-22.0630789615
 10
39.7015868602
 20
-22.0301861029
 10
39.664589983
 20
-21.9932343006
 10
39.6316570006
 20
-21.952627936
 10
39.6031483148
 20
-21.9088113842
 10
39.5793759098
 20
-21.8622641508
 10
39.5605999384
 20
-21.8134956247
 10
39.5470258753
 20
-21.7630395034
 10
39.538802268
 20
-21.7114479526
 10
39.5360191113
 20
-21.6592855637
  0
LWPOLYLINE
  5
255
100
AcDbEntity
  8
ASSI
100
AcDbPolyline
 62
7
  6
CONTINUOUS
 90
9
 70
0
 10
46.3725351976
 20
-23.5512526555
 10
46.4296885421
 20
-23.5816227611
 10
46.4886586769
 20
-23.6081633264
 10
46.5498437011
 20
-23.630996321
 10
46.6128455154
 20
-23.6499997753
 10
46.6764698222
 20
-23.6648077806
 10
46.7403185219
 20
-23.6752983674
 10
46.8047897141
 20
-23.6815935051
 10
46.8698833986
 20
-23.6836931939
  0
LWPOLYLINE
  5
256
100
AcDbEntity
  8
0
100
AcDbPolyline
 62
7
  6
CONTINUOUS
 90
10
 70
0
 10
46.3171986432
 20
-23.5170530096
 10
46.3725351976
 20
-23.5512526555
 10
46.4296885421
 20
-23.5816227611
 10
46.4886586769
 20
-23.6081633264
 10
46.5498437011
 20
-23.630996321
 10
46.6128455154
 20
-23.6499997753
 10
46.6764698222
 20
-23.6648077806
 10
46.7403185219
 20
-23.6752983674
 10
46.8047897141
 20
-23.6815935051
 10
46.8698833986
 20
-23.6836931939
  0
LINE
  5
257
100
AcDbEntity
  8
ASSI
100
AcDbLine
 62
7
  6
CONTINUOUS
 10
46.3171986432
 20
-23.5170530096
 11
46.3725351976
 21
-23.5512526555
  0
LINE
  5
258
100
AcDbEntity
  8
0
100
AcDbLine
 62
7
  6
CONTINUOUS
 10
47.2447410756
 20
22.2163068061
 11
47.3113738732
 21
22.3163068061
  0
LINE
  5
259
100
AcDbEntity
  8
0
100
AcDbLine
 62
7
  6
CONTINUOUS
 10
47.3113738732
 20
-22.6836931939
 11
47.2447410756
 21
-22.5836931939
  0
LINE
  5
25A
100
AcDbEntity
  8
0
100
AcDbLine
 62
250
  6
CONTINUOUS
 10
39.5400825442
 20
21.2202886131
 11
39.5412426587
 21
21.1721371797
  0
LINE
  5
25B
100
AcDbEntity
  8
0
100
AcDbLine
 62
250
  6
CONTINUOUS
 10
39.5412426587
 20
21.1721371797
 11
39.5422468225
 21
21.1139992931
  0
LINE
  5
25C
100
AcDbEntity
  8
0
100
AcDbLine
 62
250
  6
CONTINUOUS
 10
40.0387255604
 20
21.7210783771
 11
40.0400073907
 21
21.6479492925
  0
LINE
  5
25D
100
AcDbEntity
  8
0
100
AcDbLine
 62
250
  6
CONTINUOUS
 10
39.5422468225
 20
21.1139992931
 11
39.5434128181
 21
21.0109306974
  0
LINE
  5
25E
100
AcDbEntity
  8
0
100
AcDbLine
 62
250
  6
CONTINUOUS
 10
40.0400073907
 20
21.6479492925
 11
40.0416891121
 21
21.4960360149
  0
LINE
  5
25F
100
AcDbEntity
  8
0
100
AcDbLine
 62
250
  6
CONTINUOUS
 10
39.5434128181
 20
21.0109306974
 11
39.544104507
 21
20.8950470886
  0
LINE
  5
260
100
AcDbEntity
  8
0
100
AcDbLine
 62
250
  6
CONTINUOUS
 10
40.0416891121
 20
21.4960360149
 11
40.0436224558
 21
21.1543319404
  0
LWPOLYLINE
  5
261
100
AcDbEntity
  8
0
100
AcDbPolyline
 62
250
  6
CONTINUOUS
 90
9
 70
0
 10
39.544104507
 20
20.8950470886
 10
39.5473267798
 20
16.1487732763
 10
39.5496102404
 20
11.4833253496
 10
39.5511325473
 20
6.8172589427
 10
39.5518937004
 20
2.1501615196
 10
39.5518936998
 20
-2.5175543837
 10
39.551132546
 20
-7.1846511592
 10
39.549610239
 20
-11.8507162708
 10
39.5473267789
 20
-16.5161622546
  0
LWPOLYLINE
  5
262
100
AcDbEntity
  8
0
100
AcDbPolyline
 62
250
  6
CONTINUOUS
 90
8
 70
0
 10
40.0436224558
 20
21.1543319404
 10
40.0495340916
 20
11.4955272208
 10
40.0510563998
 20
6.8242468954
 10
40.0518175539
 20
2.1523548017
 10
40.0518175539
 20
-2.5197411881
 10
40.0510563999
 20
-7.191633282
 10
40.0495340917
 20
-11.8629136077
 10
40.0472506294
 20
-16.5331742482
  0
LINE
  5
263
100
AcDbEntity
  8
ASSI
100
AcDbLine
 62
7
  6
CONTINUOUS
 10
39.3947410756
 20
15.9359659724
 11
39.3947410756
 21
-16.3033523614
  0
LINE
  5
264
100
AcDbEntity
  8
0
100
AcDbLine
 62
7
  6
CONTINUOUS
 10
39.3947410756
 20
-22.0834643418
 11
39.3947410756
 21
21.7160779541
  0
LINE
  5
265
100
AcDbEntity
  8
0
100
AcDbLine
 62
250
  6
CONTINUOUS
 10
40.0472506294
 20
-16.5331742482
 11
40.0433349494
 21
-21.5968992191
  0
LINE
  5
266
100
AcDbEntity
  8
0
100
AcDbLine
 62
250
  6
CONTINUOUS
 10
39.5473267789
 20
-16.5161622546
 11
39.5439314181
 21
-21.3017923742
  0
LINE
  5
267
100
AcDbEntity
  8
0
100
AcDbLine
 62
250
  6
CONTINUOUS
 10
40.0433349494
 20
-21.5968992191
 11
40.0416891121
 21
-21.8634224026
  0
LINE
  5
268
100
AcDbEntity
  8
0
100
AcDbLine
 62
250
  6
CONTINUOUS
 10
39.5439314181
 20
-21.3017923742
 11
39.5430751128
 21
-21.414415929
  0
LINE
  5
269
100
AcDbEntity
  8
0
100
AcDbLine
 62
250
  6
CONTINUOUS
 10
40.0416891121
 20
-21.8634224026
 11
40.0400073907
 21
-22.0153356802
  0
LINE
  5
26A
100
AcDbEntity
  8
0
100
AcDbLine
 62
250
  6
CONTINUOUS
 10
39.5430751128
 20
-21.414415929
 11
39.5422468225
 21
-21.4813856808
  0
LINE
  5
26B
100
AcDbEntity
  8
0
100
AcDbLine
 62
250
  6
CONTINUOUS
 10
39.5422468225
 20
-21.4813856808
 11
39.5412426587
 21
-21.5395235673
  0
LWPOLYLINE
  5
26C
100
AcDbEntity
  8
0
100
AcDbPolyline
 62
250
  6
CONTINUOUS
 90
6
 70
0
 10
40.0400073907
 20
-22.0153356802
 10
40.0387255604
 20
-22.0884647648
 10
40.0380523164
 20
-22.1157730682
 10
40.0373663398
 20
-22.1366490551
 10
40.0366632206
 20
-22.1509563215
 10
40.0359429589
 20
-22.1586003311
  0
LWPOLYLINE
  5
26D
100
AcDbEntity
  8
0
100
AcDbPolyline
 62
250
  6
CONTINUOUS
 90
8
 70
0
 10
39.5412426587
 20
-21.5395235673
 10
39.5400825442
 20
-21.5876750007
 10
39.5394560267
 20
-21.6074017422
 10
39.5387991133
 20
-21.6242648126
 10
39.5381255868
 20
-21.6379192283
 10
39.5374400414
 20
-21.6482499948
 10
39.5367378829
 20
-21.6553721066
 10
39.5360191113
 20
-21.6592855637
  0
LWPOLYLINE
  5
26E
100
AcDbEntity
  8
0
100
AcDbPolyline
 62
7
  6
CONTINUOUS
 90
3
 70
0
 43
0.3499999865
 10
51.6875934823
 20
34.5653361654
 10
51.6161670067
 20
34.3510491591
 10
51.4733140553
 20
34.0653356771
  0
LWPOLYLINE
  5
26F
100
AcDbEntity
  8
0
100
AcDbPolyline
 62
250
  6
CONTINUOUS
 90
5
 70
0
 10
40.0359429589
 20
21.7912139434
 10
40.0366632207
 20
21.7835699338
 10
40.0373663399
 20
21.7692626674
 10
40.0380523165
 20
21.7483866805
 10
40.0387255604
 20
21.7210783771
  0
LINE
  5
270
100
AcDbEntity
  8
0
100
AcDbLine
 62
7
  6
CONTINUOUS
 10
47.1598687985
 20
22.2163068061
 11
47.176680642
 21
22.2944000389
  0
LINE
  5
271
100
AcDbEntity
  8
ASSI
100
AcDbLine
 62
7
  6
CONTINUOUS
 10
47.1598687985
 20
22.2163068061
 11
47.176680642
 21
22.2944000389
  0
LINE
  5
272
100
AcDbEntity
  8
DRAFT
100
AcDbLine
 62
7
  6
CONTINUOUS
 10
48.5102186369
 20
-7.6618760244
 11
50.0066131656
 21
-7.6618760244
  0
LINE
  5
273
100
AcDbEntity
  8
DRAFT
100
AcDbLine
 62
7
  6
CONTINUOUS
 10
51.0828689855
 20
-7.6618760244
 11
52.5792635142
 21
-7.6618760244
  0
LWPOLYLINE
  5
274
100
AcDbEntity
  8
RACCORDO
100
AcDbPolyline
 62
250
  6
CONTINUOUS
 90
58
 70
0
 10
50.5447410756
 20
-8.00070406
 10
50.111136012
 20
-7.9886726304
 10
49.6793668282
 20
-7.9526700257
 10
49.2507519491
 20
-7.8928902829
 10
48.8266416056
 20
-7.8096107954
 10
48.4082651042
 20
-7.7031619707
 10
47.9967341276
 20
-7.573898664
 10
47.5932766048
 20
-7.4222671826
 10
47.1991049209
 20
-7.2487844938
 10
46.8152783383
 20
-7.0539668506
 10
46.4429391757
 20
-6.8384349007
 10
46.0832008139
 20
-6.6028748954
 10
45.7370420597
 20
-6.3479579024
 10
45.4054895097
 20
-6.0744607335
 10
45.0895442247
 20
-5.7832307291
 10
44.7900981054
 20
-5.4751025888
 10
44.508041921
 20
-5.1509982295
 10
44.2442353888
 20
-4.8119112497
 10
43.9994574162
 20
-4.4588438604
 10
43.7744781024
 20
-4.0929162758
 10
43.5699399554
 20
-3.7151841582
 10
43.3863760669
 20
-3.3265921199
 10
43.2243737974
 20
-2.9283022597
 10
43.084454527
 20
-2.5215050493
 10
42.9670221199
 20
-2.1072078362
 10
42.8724770356
 20
-1.6865231682
 10
42.801214635
 20
-1.2608384105
 10
42.7535368608
 20
-0.8316040768
 10
42.7296297549
 20
-0.4000002249
 10
42.7296274406
 20
0.0325302245
 10
42.7535288656
 20
0.4641215672
 10
42.8011971004
 20
0.8933260012
 10
42.8724441907
 20
1.3189691416
 10
42.9669700143
 20
1.7396162246
 10
43.0843810346
 20
2.1538841912
 10
43.2242765258
 20
2.5606564915
 10
43.3862542805
 20
2.9589284119
 10
43.5697947161
 20
3.3475109848
 10
43.7743107544
 20
3.725240131
 10
43.9992686717
 20
4.0911685717
 10
44.2440258576
 20
4.4442396891
 10
44.5078131514
 20
4.7833338867
 10
44.7898521562
 20
5.1074487835
 10
45.0892830958
 20
5.4155900036
 10
45.4052159986
 20
5.706835784
 10
45.7367609561
 20
5.9803523249
 10
46.0829185092
 20
6.2352923428
 10
46.4426614751
 20
6.4708773859
 10
46.8150097074
 20
6.6864346732
 10
47.1988496724
 20
6.8812772627
 10
47.5930393598
 20
7.0547840827
 10
47.9965185356
 20
7.2064379613
 10
48.4080736572
 20
7.3357212003
 10
48.8264776617
 20
7.4421874794
 10
49.2506208928
 20
7.5254819019
 10
49.6792746126
 20
7.5852733684
 10
50.1110875972
 20
7.6212835538
 10
50.5447410756
 20
7.6333176723
  0
LWPOLYLINE
  5
275
100
AcDbEntity
  8
RACCORDO
100
AcDbPolyline
 62
250
  6
CONTINUOUS
 90
58
 70
0
 10
50.5447410756
 20
-8.1022725454
 10
50.1039575945
 20
-8.0897119513
 10
49.6675183487
 20
-8.0533763969
 10
49.2354233383
 20
-7.9932658006
 10
48.8063994124
 20
-7.9089951151
 10
48.3817197218
 20
-7.8009490685
 10
47.9652037188
 20
-7.67028218
 10
47.5569740524
 20
-7.5168216053
 10
47.1569080735
 20
-7.3407396348
 10
46.7684572876
 20
-7.1437084755
 10
46.3917188762
 20
-6.9255632873
 10
46.0265956578
 20
-6.6864682561
 10
45.6762475932
 20
-6.4285891734
 10
45.3407894598
 20
-6.1517679219
 10
45.0201064801
 20
-5.8561620198
 10
44.7170142821
 20
-5.5444108156
 10
44.4316537595
 20
-5.2163652414
 10
44.1638840184
 20
-4.872173963
 10
43.9160980055
 20
-4.51492308
 10
43.6884866292
 20
-4.1445582509
 10
43.480858981
 20
-3.7611337098
 10
43.295035282
 20
-3.3678985862
 10
43.1311666482
 20
-2.9647761401
 10
42.9891019637
 20
-2.5518433184
 10
42.8702081016
 20
-2.1325799324
 10
42.774655107
 20
-1.7067917538
 10
42.7022729348
 20
-1.2746734885
 10
42.6539183226
 20
-0.8402884592
 10
42.629877807
 20
-0.4034772438
 10
42.6298648515
 20
0.0356000902
 10
42.6538765838
 20
0.4724009428
 10
42.702197407
 20
0.9067599456
 10
42.774542918
 20
1.3388418218
 10
42.870057036
 20
1.7645991518
 10
42.9889089496
 20
2.1838418318
 10
43.1309294701
 20
2.5967594878
 10
43.29475495
 20
2.9998744056
 10
43.4805372791
 20
3.3931113906
 10
43.6881245675
 20
3.7765454301
 10
43.9156974989
 20
4.1469242334
 10
44.1634467873
 20
4.504192782
 10
44.4311817186
 20
4.8484062016
 10
44.7165108342
 20
5.1764775849
 10
45.0195745384
 20
5.488258133
 10
45.340232427
 20
5.7838970467
 10
45.6756718285
 20
6.0607545676
 10
46.0260087891
 20
6.3186740543
 10
46.3911272627
 20
6.5578127472
 10
46.7678664398
 20
6.7760018163
 10
47.1563235055
 20
6.9730769037
 10
47.5564012746
 20
7.1492030215
 10
47.9646473818
 20
7.3027054394
 10
48.3811707911
 20
7.4334112952
 10
48.8058625385
 20
7.5414940051
 10
49.2349433663
 20
7.6257982415
 10
49.6671535222
 20
7.6859390071
 10
50.1037527586
 20
7.7223016186
 10
50.5447410756
 20
7.7348861577
  0
LINE
  5
276
100
AcDbEntity
  8
0
100
AcDbLine
 62
7
  6
CONTINUOUS
 10
47.1598687985
 20
-22.5836931939
 11
47.176680642
 21
-22.6617864266
  0
LINE
  5
277
100
AcDbEntity
  8
ASSI
100
AcDbLine
 62
7
  6
CONTINUOUS
 10
47.1598687985
 20
-22.5836931939
 11
47.176680642
 21
-22.6617864266
  0
LINE
  5
278
100
AcDbEntity
  8
DRAFT
100
AcDbLine
 62
7
  6
CONTINUOUS
 10
48.4818308034
 20
-7.6691152131
 11
48.4255931309
 21
-7.6836931939
  0
LINE
  5
279
100
AcDbEntity
  8
DRAFT
100
AcDbLine
 62
7
  6
CONTINUOUS
 10
48.5102186369
 20
-7.6618760244
 11
48.4818308034
 21
-7.6691152131
  0
LINE
  5
27A
100
AcDbEntity
  8
DRAFT
100
AcDbLine
 62
7
  6
CONTINUOUS
 10
52.5792635142
 20
-7.6618760244
 11
52.6264748663
 21
-7.6739598036
  0
LINE
  5
27B
100
AcDbEntity
  8
DRAFT
100
AcDbLine
 62
7
  6
CONTINUOUS
 10
52.6264748663
 20
-7.6739598036
 11
52.6638890203
 21
-7.6836931939
  0
LWPOLYLINE
  5
27C
100
AcDbEntity
  8
0
100
AcDbPolyline
 62
250
  6
CONTINUOUS
 90
7
 70
0
 10
39.5360191113
 20
21.291899176
 10
39.5367378829
 20
21.2879857187
 10
39.5374400414
 20
21.2808636069
 10
39.5381255868
 20
21.2705328404
 10
39.5387991133
 20
21.2568784248
 10
39.5394560267
 20
21.2400153545
 10
39.5400825442
 20
21.2202886131
  0
LINE
  5
27D
100
AcDbEntity
  8
0
100
AcDbLine
 62
7
  6
CONTINUOUS
 10
47.0749208159
 20
-22.6836931939
 11
47.0749208159
 21
-22.5836931939
  0
LINE
  5
27E
100
AcDbEntity
  8
ASSI
100
AcDbLine
 62
7
  6
CONTINUOUS
 10
47.0749208159
 20
-22.6836931939
 11
47.0749208159
 21
-22.5836931939
  0
LINE
  5
27F
100
AcDbEntity
  8
0
100
AcDbLine
 62
7
  6
CONTINUOUS
 10
47.0749208159
 20
22.3163068061
 11
47.0749208159
 21
22.2163068061
  0
LINE
  5
280
100
AcDbEntity
  8
ASSI
100
AcDbLine
 62
7
  6
CONTINUOUS
 10
47.0749208159
 20
22.3163068061
 11
47.0749208159
 21
22.2163068061
  0
LINE
  5
281
100
AcDbEntity
  8
0
100
AcDbLine
 62
250
  6
CONTINUOUS
 10
39.5360191113
 20
-21.6592855637
 11
39.3947410756
 21
-22.0834643418
  0
LINE
  5
282
100
AcDbEntity
  8
0
100
AcDbLine
 62
250
  6
CONTINUOUS
 10
40.0359429589
 20
-22.1586003311
 11
39.8943604758
 21
-22.5836931939
  0
LINE
  5
283
100
AcDbEntity
  8
0
100
AcDbLine
 62
250
  6
CONTINUOUS
 10
39.3947410756
 20
21.7160779541
 11
39.5360191113
 21
21.291899176
  0
LINE
  5
284
100
AcDbEntity
  8
0
100
AcDbLine
 62
250
  6
CONTINUOUS
 10
39.8943604758
 20
22.2163068061
 11
40.0359429589
 21
21.7912139434
  0
LINE
  5
285
100
AcDbEntity
  8
0
100
AcDbLine
 62
7
  6
CONTINUOUS
 10
53.9598687985
 20
22.2163068061
 11
53.9781495818
 21
22.3012234582
  0
LINE
  5
286
100
AcDbEntity
  8
ASSI
100
AcDbLine
 62
7
  6
CONTINUOUS
 10
53.9598687985
 20
22.2163068061
 11
53.9813967119
 21
22.3163068061
  0
LWPOLYLINE
  5
287
100
AcDbEntity
  8
0
100
AcDbPolyline
 62
7
  6
CONTINUOUS
 90
2
 70
0
 43
0.3499999865
 10
70.3465475839
 20
-1.5408360381
 10
68.8465410663
 20
-1.5408360381
  0
LWPOLYLINE
  5
288
100
AcDbEntity
  8
0
100
AcDbPolyline
 62
7
  6
CONTINUOUS
 90
4
 70
0
 43
0.3499999865
 10
67.9894031467
 20
-0.1836931893
 10
67.3465446542
 20
-0.1836931893
 10
67.3465446542
 20
1.3163068347
 10
70.3465475839
 20
0.4591639413
  0
LINE
  5
289
100
AcDbEntity
  8
0
100
AcDbLine
 62
7
  6
CONTINUOUS
 10
53.9598687985
 20
-22.5836931939
 11
53.9781495818
 21
-22.6686098459
  0
LINE
  5
28A
100
AcDbEntity
  8
ASSI
100
AcDbLine
 62
7
  6
CONTINUOUS
 10
53.9598687985
 20
-22.5836931939
 11
53.9813967119
 21
-22.6836931939
  0
LINE
  5
28B
100
AcDbEntity
  8
0
100
AcDbLine
 62
7
  6
CONTINUOUS
 10
47.1296133526
 20
-22.5836931939
 11
47.1113325693
 21
-22.6686098459
  0
LINE
  5
28C
100
AcDbEntity
  8
ASSI
100
AcDbLine
 62
7
  6
CONTINUOUS
 10
47.1296133526
 20
-22.5836931939
 11
47.1080854392
 21
-22.6836931939
  0
LINE
  5
28D
100
AcDbEntity
  8
0
100
AcDbLine
 62
7
  6
CONTINUOUS
 10
47.1296133526
 20
22.2163068061
 11
47.1113325693
 21
22.3012234582
  0
LINE
  5
28E
100
AcDbEntity
  8
ASSI
100
AcDbLine
 62
7
  6
CONTINUOUS
 10
47.1296133526
 20
22.2163068061
 11
47.1080854392
 21
22.3163068061
  0
LINE
  5
28F
100
AcDbEntity
  8
0
100
AcDbLine
 62
7
  6
CONTINUOUS
 10
54.0145613353
 20
22.2163068061
 11
54.0145613353
 21
22.3163068061
  0
LINE
  5
290
100
AcDbEntity
  8
ASSI
100
AcDbLine
 62
7
  6
CONTINUOUS
 10
54.0145613353
 20
22.2163068061
 11
54.0145613353
 21
22.3163068061
  0
LINE
  5
291
100
AcDbEntity
  8
0
100
AcDbLine
 62
7
  6
CONTINUOUS
 10
54.0145613353
 20
-22.5836931939
 11
54.0145613353
 21
-22.6836931939
  0
LINE
  5
292
100
AcDbEntity
  8
ASSI
100
AcDbLine
 62
7
  6
CONTINUOUS
 10
54.0145613353
 20
-22.5836931939
 11
54.0145613353
 21
-22.6836931939
  0
LINE
  5
293
100
AcDbEntity
  8
0
100
AcDbLine
 62
250
  6
CONTINUOUS
 10
61.1951216753
 20
22.2163068061
 11
61.0535391923
 21
21.7912139434
  0
LINE
  5
294
100
AcDbEntity
  8
0
100
AcDbLine
 62
250
  6
CONTINUOUS
 10
61.0535391923
 20
-22.1586003311
 11
61.1951216753
 21
-22.5836931939
  0
LINE
  5
295
100
AcDbEntity
  8
0
100
AcDbLine
 62
250
  6
CONTINUOUS
 10
61.6947410756
 20
21.7160779541
 11
61.5534630399
 21
21.291899176
  0
LINE
  5
296
100
AcDbEntity
  8
0
100
AcDbLine
 62
250
  6
CONTINUOUS
 10
61.5534630399
 20
-21.6592855637
 11
61.6947410756
 21
-22.0834643418
  0
LWPOLYLINE
  5
297
100
AcDbEntity
  8
0
100
AcDbPolyline
 62
250
  6
CONTINUOUS
 90
8
 70
0
 10
61.5534630399
 20
21.291899176
 10
61.5527456396
 20
21.2880018716
 10
61.5520445845
 20
21.2808990285
 10
61.5513598744
 20
21.2705906468
 10
61.5506868709
 20
21.2569629417
 10
61.5500302125
 20
21.2401296979
 10
61.5494038145
 20
21.2204322697
 10
61.5482435392
 20
21.1723328473
  0
LINE
  5
298
100
AcDbEntity
  8
DRAFT
100
AcDbLine
 62
7
  6
CONTINUOUS
 10
52.6076513478
 20
7.3017288254
 11
52.6638890203
 21
7.3163068061
  0
LINE
  5
299
100
AcDbEntity
  8
DRAFT
100
AcDbLine
 62
7
  6
CONTINUOUS
 10
52.5792635142
 20
7.2944896367
 11
52.6076513478
 21
7.3017288254
  0
LINE
  5
29A
100
AcDbEntity
  8
DRAFT
100
AcDbLine
 62
7
  6
CONTINUOUS
 10
52.5792635142
 20
7.2944896367
 11
51.0828689855
 21
7.2944896367
  0
LINE
  5
29B
100
AcDbEntity
  8
DRAFT
100
AcDbLine
 62
7
  6
CONTINUOUS
 10
50.0066131656
 20
7.2944896367
 11
48.5102186369
 21
7.2944896367
  0
LWPOLYLINE
  5
29C
100
AcDbEntity
  8
RACCORDO
100
AcDbPolyline
 62
250
  6
CONTINUOUS
 90
58
 70
0
 10
50.5447410756
 20
7.6333176723
 10
50.978345175
 20
7.6212862962
 10
51.4101138196
 20
7.5852838053
 10
51.8387285836
 20
7.5255041668
 10
52.2628395095
 20
7.442224641
 10
52.6812169852
 20
7.3357756006
 10
53.0927484825
 20
7.2065121181
 10
53.4962057084
 20
7.0548807288
 10
53.8903767029
 20
6.8813983557
 10
54.2742025634
 20
6.6865811409
 10
54.6465409019
 20
6.4710497907
 10
55.0062784389
 20
6.2354905216
 10
55.352436902
 20
5.9805740015
 10
55.6839898543
 20
5.7070767767
 10
55.9999359395
 20
5.4158462766
 10
56.2993830579
 20
5.1077172751
 10
56.5814404732
 20
4.7836115464
 10
56.8452483102
 20
4.4445227555
 10
57.0900272694
 20
4.0914535935
 10
57.3150071592
 20
3.7255245027
 10
57.5195456263
 20
3.3477909968
 10
57.7031096309
 20
2.9591976563
 10
57.8651117704
 20
2.5609067616
 10
58.0050307628
 20
2.1541086485
 10
58.1224629086
 20
1.7398101161
 10
58.2170077998
 20
1.3191230806
 10
58.2882698126
 20
0.8934355181
 10
58.335946822
 20
0.4641992747
 10
58.3598529203
 20
0.0325949063
 10
58.3598541984
 20
-0.3999351142
 10
58.3359518546
 20
-0.8315251588
 10
58.2882830193
 20
-1.2607269913
 10
58.2170357677
 20
-1.6863667223
 10
58.122509997
 20
-2.1070110409
 10
58.005098924
 20
-2.5212775743
 10
57.8652033102
 20
-2.9280490527
 10
57.7032255482
 20
-3.3263200884
 10
57.5196853173
 20
-3.7149015543
 10
57.3151696369
 20
-4.092629566
 10
57.090212309
 20
-4.4585567508
 10
56.8454561114
 20
-4.8116263248
 10
56.5816701023
 20
-5.1507189348
 10
56.299632291
 20
-5.4748326746
 10
56.0002022949
 20
-5.7829732358
 10
55.6842701218
 20
-6.0742187095
 10
55.3527254934
 20
-6.3477353608
 10
55.0065675808
 20
-6.6026759934
 10
54.6468237247
 20
-6.8382618948
 10
54.2744746058
 20
-7.0538198875
 10
53.8906338683
 20
-7.2486629926
 10
53.4964434479
 20
-7.4221702028
 10
53.0929639151
 20
-7.5738242457
 10
52.6814092291
 20
-7.7031073791
 10
52.2630060972
 20
-7.8095735049
 10
51.8388633296
 20
-7.892867942
 10
51.410209359
 20
-7.9526595534
 10
50.9783956838
 20
-7.9886698788
 10
50.5447410756
 20
-8.00070406
  0
LWPOLYLINE
  5
29D
100
AcDbEntity
  8
RACCORDO
100
AcDbPolyline
 62
250
  6
CONTINUOUS
 90
58
 70
0
 10
50.5447410756
 20
7.7348861577
 10
50.9855235895
 20
7.7223257346
 10
51.4219622853
 20
7.6859902724
 10
51.854057163
 20
7.6258796894
 10
52.2830816542
 20
7.5416088647
 10
52.7077623273
 20
7.4335626
 10
53.1242788872
 20
7.3028956357
 10
53.532508271
 20
7.1494352116
 10
53.9325735417
 20
6.9733535341
 10
54.3210235925
 20
6.7763227775
 10
54.6977612108
 20
6.5581782484
 10
55.0628836094
 20
6.3190839861
 10
55.4132313203
 20
6.06120531
 10
55.7486898358
 20
5.7843839576
 10
56.0693736637
 20
5.4887775922
 10
56.3724668591
 20
5.1770255259
 10
56.6578285662
 20
4.8489785175
 10
56.9255996409
 20
4.504785406
 10
57.1733867051
 20
4.1475327747
 10
57.4009986756
 20
3.7771664363
 10
57.6086266356
 20
3.3937404707
 10
57.794450457
 20
3.0005040287
 10
57.958319017
 20
2.5973805562
 10
58.1003834384
 20
2.1844468142
 10
58.2192769613
 20
1.765182077
 10
58.3148296137
 20
1.3393914827
 10
58.3872113677
 20
0.9072703709
 10
58.4355653796
 20
0.4728834284
 10
58.4596049323
 20
0.0360717149
 10
58.4596167429
 20
-0.4030051839
 10
58.4356041192
 20
-0.8398047496
 10
58.3872828682
 20
-1.2741611455
 10
58.314937183
 20
-1.706239563
 10
58.2194229502
 20
-2.1319940687
 10
58.1005708858
 20
-2.5512352791
 10
57.9585502738
 20
-2.9641520998
 10
57.7947248527
 20
-3.367266142
 10
57.6089427262
 20
-3.7605020026
 10
57.4013557906
 20
-4.1439348774
 10
57.1737834725
 20
-4.5143124272
 10
56.9260352363
 20
-4.8715794587
 10
56.6583016176
 20
-5.2157912722
 10
56.3729736495
 20
-5.543861436
 10
56.0699108863
 20
-5.8556413249
 10
55.7492537737
 20
-6.1512799659
 10
55.4138146824
 20
-6.4281375555
 10
55.0634773003
 20
-6.6860575924
 10
54.6983579394
 20
-6.9251971769
 10
54.3216179063
 20
-7.1433870127
 10
53.9331600556
 20
-7.340462594
 10
53.5330815326
 20
-7.5165890808
 10
53.1248350803
 20
-7.6700917199
 10
52.7083121411
 20
-7.80079757
 10
52.2836212727
 20
-7.9088801265
 10
51.8545408903
 20
-7.9931842761
 10
51.4223304659
 20
-8.0533250928
 10
50.9857305277
 20
-8.0896878221
 10
50.5447410756
 20
-8.1022725454
  0
LINE
  5
29E
100
AcDbEntity
  8
DRAFT
100
AcDbLine
 62
7
  6
CONTINUOUS
 10
48.5102186369
 20
7.2944896367
 11
48.4630072848
 21
7.3065734159
  0
LINE
  5
29F
100
AcDbEntity
  8
DRAFT
100
AcDbLine
 62
7
  6
CONTINUOUS
 10
48.4630072848
 20
7.3065734159
 11
48.4255931309
 21
7.3163068061
  0
LWPOLYLINE
  5
2A0
100
AcDbEntity
  8
0
100
AcDbPolyline
 62
250
  6
CONTINUOUS
 90
6
 70
0
 10
61.0535391923
 20
21.7912139434
 10
61.0528189025
 20
21.783568956
 10
61.0521157994
 20
21.7692601772
 10
61.0514298829
 20
21.7483828882
 10
61.0507567915
 20
21.7210755065
 10
61.0494752533
 20
21.6479499108
  0
LINE
  5
2A1
100
AcDbEntity
  8
0
100
AcDbLine
 62
7
  6
CONTINUOUS
 10
53.9296133526
 20
-22.5836931939
 11
53.9128015091
 21
-22.6617864266
  0
LINE
  5
2A2
100
AcDbEntity
  8
ASSI
100
AcDbLine
 62
7
  6
CONTINUOUS
 10
53.9296133526
 20
-22.5836931939
 11
53.9128015091
 21
-22.6617864266
  0
LINE
  5
2A3
100
AcDbEntity
  8
0
100
AcDbLine
 62
7
  6
CONTINUOUS
 10
53.9296133526
 20
22.2163068061
 11
53.9128015091
 21
22.2944000389
  0
LINE
  5
2A4
100
AcDbEntity
  8
ASSI
100
AcDbLine
 62
7
  6
CONTINUOUS
 10
53.9296133526
 20
22.2163068061
 11
53.9128015091
 21
22.2944000389
  0
LWPOLYLINE
  5
2A5
100
AcDbEntity
  8
0
100
AcDbPolyline
 62
250
  6
CONTINUOUS
 90
7
 70
0
 10
61.5494038145
 20
-21.5878186571
 10
61.5500302125
 20
-21.6075160855
 10
61.5506868709
 20
-21.6243493295
 10
61.5513598743
 20
-21.6379770348
 10
61.5520445844
 20
-21.6482854165
 10
61.5527456396
 20
-21.6553882595
 10
61.5534630399
 20
-21.6592855637
  0
LWPOLYLINE
  5
2A6
100
AcDbEntity
  8
0
100
AcDbPolyline
 62
250
  6
CONTINUOUS
 90
5
 70
0
 10
61.0507567915
 20
-22.0884618942
 10
61.0514298829
 20
-22.1157692759
 10
61.0521157994
 20
-22.1366465649
 10
61.0528189025
 20
-22.1509553437
 10
61.0535391923
 20
-22.1586003311
  0
LINE
  5
2A7
100
AcDbEntity
  8
0
100
AcDbLine
 62
250
  6
CONTINUOUS
 10
61.5482435392
 20
-21.5397192349
 11
61.5494038145
 21
-21.5878186571
  0
LINE
  5
2A8
100
AcDbEntity
  8
0
100
AcDbLine
 62
250
  6
CONTINUOUS
 10
61.5472391197
 20
-21.4816494663
 11
61.5482435392
 21
-21.5397192349
  0
LINE
  5
2A9
100
AcDbEntity
  8
0
100
AcDbLine
 62
250
  6
CONTINUOUS
 10
61.0494752533
 20
-22.0153362985
 11
61.0507567915
 21
-22.0884618942
  0
LINE
  5
2AA
100
AcDbEntity
  8
0
100
AcDbLine
 62
250
  6
CONTINUOUS
 10
61.047793065
 20
-21.8633858628
 11
61.0494752533
 21
-22.0153362985
  0
LINE
  5
2AB
100
AcDbEntity
  8
0
100
AcDbLine
 62
250
  6
CONTINUOUS
 10
61.5460723158
 20
-21.3786792305
 11
61.5472391197
 21
-21.4816494663
  0
LINE
  5
2AC
100
AcDbEntity
  8
0
100
AcDbLine
 62
250
  6
CONTINUOUS
 10
61.5453788463
 20
-21.2627064461
 11
61.5460723158
 21
-21.3786792305
  0
LINE
  5
2AD
100
AcDbEntity
  8
0
100
AcDbLine
 62
250
  6
CONTINUOUS
 10
61.0458597291
 20
-21.5217021902
 11
61.047793065
 21
-21.8633858628
  0
LINE
  5
2AE
100
AcDbEntity
  8
ASSI
100
AcDbLine
 62
7
  6
CONTINUOUS
 10
61.6947410756
 20
-16.3033523614
 11
61.6947410756
 21
15.9359659724
  0
LINE
  5
2AF
100
AcDbEntity
  8
0
100
AcDbLine
 62
7
  6
CONTINUOUS
 10
61.6947410756
 20
21.7160779541
 11
61.6947410756
 21
-22.0834643418
  0
LWPOLYLINE
  5
2B0
100
AcDbEntity
  8
0
100
AcDbPolyline
 62
250
  6
CONTINUOUS
 90
9
 70
0
 10
61.0422315216
 20
16.1657878592
 10
61.0399480593
 20
11.4955272178
 10
61.0384257511
 20
6.8242468916
 10
61.0376645971
 20
2.1523547979
 10
61.0376645972
 20
-2.5197411914
 10
61.0384257514
 20
-7.1916332846
 10
61.0399480596
 20
-11.8629136095
 10
61.0422315218
 20
-16.5331742492
 10
61.0458597291
 20
-21.5217021902
  0
LWPOLYLINE
  5
2B1
100
AcDbEntity
  8
0
100
AcDbPolyline
 62
250
  6
CONTINUOUS
 90
9
 70
0
 10
61.5421553745
 20
16.1487839216
 10
61.5398719155
 20
11.4833432066
 10
61.5383496088
 20
6.817280578
 10
61.5375884537
 20
2.15018247
 10
61.5375884508
 20
-2.5175375517
 10
61.5383496023
 20
-7.1846387903
 10
61.539871909
 20
-11.8507076802
 10
61.5421553701
 20
-16.5161577869
 10
61.5453788463
 20
-21.2627064461
  0
LINE
  5
2B2
100
AcDbEntity
  8
0
100
AcDbLine
 62
250
  6
CONTINUOUS
 10
61.5455525156
 20
20.9347552465
 11
61.5421553745
 21
16.1487839216
  0
LINE
  5
2B3
100
AcDbEntity
  8
0
100
AcDbLine
 62
250
  6
CONTINUOUS
 10
61.0464852294
 20
21.3017654558
 11
61.0422315216
 21
16.1657878592
  0
LINE
  5
2B4
100
AcDbEntity
  8
0
100
AcDbLine
 62
250
  6
CONTINUOUS
 10
61.0483159742
 20
21.5518624688
 11
61.0464852294
 21
21.3017654558
  0
LINE
  5
2B5
100
AcDbEntity
  8
0
100
AcDbLine
 62
250
  6
CONTINUOUS
 10
61.5464104794
 20
21.0473668916
 11
61.5455525156
 21
20.9347552465
  0
LINE
  5
2B6
100
AcDbEntity
  8
0
100
AcDbLine
 62
250
  6
CONTINUOUS
 10
61.0494752533
 20
21.6479499108
 11
61.0483159742
 21
21.5518624688
  0
LINE
  5
2B7
100
AcDbEntity
  8
0
100
AcDbLine
 62
250
  6
CONTINUOUS
 10
61.5472391197
 20
21.1142630785
 11
61.5464104794
 21
21.0473668916
  0
LINE
  5
2B8
100
AcDbEntity
  8
0
100
AcDbLine
 62
250
  6
CONTINUOUS
 10
61.5482435392
 20
21.1723328473
 11
61.5472391197
 21
21.1142630785
  0
LWPOLYLINE
  5
2B9
100
AcDbEntity
  8
0
100
AcDbPolyline
 62
250
  6
CONTINUOUS
 90
16
 70
0
 10
61.5534630399
 20
21.291899176
 10
61.5506800379
 20
21.3440601094
 10
61.5424568402
 20
21.3956504769
 10
61.528883362
 20
21.4461057158
 10
61.5101080673
 20
21.4948736767
 10
61.4863363512
 20
21.5414206539
 10
61.4578282975
 20
21.5852372284
 10
61.4248958184
 20
21.6258438685
 10
61.3878992595
 20
21.6627961494
 10
61.3472434741
 20
21.6956896146
 10
61.3033733423
 20
21.7241642497
 10
61.2567689384
 20
21.7479083859
 10
61.2079403141
 20
21.7666621064
 10
61.1574218435
 20
21.7802201326
 10
61.1057663672
 20
21.7884340556
 10
61.0535391922
 20
21.7912139431
  0
LWPOLYLINE
  5
2BA
100
AcDbEntity
  8
0
100
AcDbPolyline
 62
250
  6
CONTINUOUS
 90
16
 70
0
 10
61.5534630399
 20
-21.6592855637
 10
61.5506798832
 20
-21.7114479526
 10
61.5424562758
 20
-21.7630395034
 10
61.5288822127
 20
-21.8134956246
 10
61.5101062414
 20
-21.8622641507
 10
61.4863338364
 20
-21.9088113841
 10
61.4578251506
 20
-21.9526279359
 10
61.4248921683
 20
-21.9932343005
 10
61.387895291
 20
-22.0301861028
 10
61.3472393935
 20
-22.0630789614
 10
61.3033693928
 20
-22.0915529138
 10
61.2567653795
 20
-22.1152963559
 10
61.207937364
 20
-22.1340494517
 10
61.1574196946
 20
-22.1476069769
 10
61.1057652107
 20
-22.1558205652
 10
61.0535391923
 20
-22.1586003311
  0
LINE
  5
2BB
100
AcDbEntity
  8
0
100
AcDbLine
 62
7
  6
CONTINUOUS
 10
53.8447410756
 20
22.2163068061
 11
53.778108278
 21
22.3163068061
  0
LINE
  5
2BC
100
AcDbEntity
  8
0
100
AcDbLine
 62
7
  6
CONTINUOUS
 10
53.778108278
 20
-22.6836931939
 11
53.8447410756
 21
-22.5836931939
  0
LWPOLYLINE
  5
2BD
100
AcDbEntity
  8
0
100
AcDbPolyline
 62
7
  6
CONTINUOUS
 90
10
 70
0
 43
0.3499999865
 10
51.6161670067
 20
34.7796206453
 10
51.6875934823
 20
34.6367626411
 10
51.6875934823
 20
34.5653361654
 10
51.544740531
 20
34.4224781612
 10
51.4733140553
 20
34.4224781612
 10
51.4018875796
 20
34.4939071633
 10
51.4018875796
 20
34.5653361654
 10
51.4733140553
 20
34.7081916432
 10
51.544740531
 20
34.7796206453
 10
51.6161670067
 20
34.7796206453
  0
LWPOLYLINE
  5
2BE
100
AcDbEntity
  8
0
100
AcDbPolyline
 62
7
  6
CONTINUOUS
 90
3
 70
0
 43
0.3499999865
 10
69.7036890914
 20
-1.0408360235
 10
69.7036890914
 20
-2.5408360673
 10
67.3465446542
 20
-1.897978838
  0
LWPOLYLINE
  5
2BF
100
AcDbEntity
  8
0
100
AcDbPolyline
 62
250
  6
CONTINUOUS
 90
15
 70
0
 10
39.992519909
 20
20.8344705455
 10
39.9413875968
 20
20.8340964655
 10
39.8913569344
 20
20.8335028047
 10
39.8429639765
 20
20.8326959238
 10
39.7967272304
 20
20.8316844682
 10
39.7531421004
 20
20.8304792753
 10
39.7126755804
 20
20.8290932584
 10
39.6757612496
 20
20.8275412679
 10
39.6427946273
 20
20.8258399326
 10
39.6141289351
 20
20.8240074814
 10
39.5900713121
 20
20.8220635483
 10
39.5708795241
 20
20.8200289616
 10
39.5567592019
 20
20.8179255208
 10
39.547861638
 20
20.8157757634
 10
39.5442821655
 20
20.8136027228
  0
LINE
  5
2C0
100
AcDbEntity
  8
0
100
AcDbLine
 62
250
  6
CONTINUOUS
 10
39.992519909
 20
20.8344705455
 11
61.0452761381
 21
20.8346210371
  0
LWPOLYLINE
  5
2C1
100
AcDbEntity
  8
0
100
AcDbPolyline
 62
250
  6
CONTINUOUS
 90
16
 70
0
 10
40.0359429589
 20
21.7912139434
 10
39.9837160724
 20
21.7884340862
 10
39.9320608439
 20
21.7802202467
 10
39.8815425734
 20
21.7666623456
 10
39.8327141013
 20
21.7479087812
 10
39.7861097951
 20
21.7241648185
 10
39.7422396963
 20
21.695690354
 10
39.701583883
 20
21.6627970406
 10
39.6645872448
 20
21.6258448794
 10
39.6316546401
 20
21.5852383083
 10
39.6031464285
 20
21.5414217397
 10
39.5793745403
 20
21.4948746987
 10
39.5605990765
 20
21.4461065965
 10
39.547025452
 20
21.395651137
 10
39.5388021519
 20
21.3440604735
 10
39.5360191113
 20
21.291899176
  0
LINE
  5
2C2
100
AcDbEntity
  8
0
100
AcDbLine
 62
250
  6
CONTINUOUS
 10
40.0359429589
 20
21.7912139434
 11
61.0535391923
 21
21.7912139434
  0
LINE
  5
2C3
100
AcDbEntity
  8
0
100
AcDbLine
 62
7
  6
CONTINUOUS
 10
39.8943604758
 20
22.2163068061
 11
47.2447410756
 21
22.2163068061
  0
LINE
  5
2C4
100
AcDbEntity
  8
0
100
AcDbLine
 62
7
  6
CONTINUOUS
 10
53.8447410756
 20
22.2163068061
 11
61.1951216753
 21
22.2163068061
  0
LINE
  5
2C5
100
AcDbEntity
  8
0
100
AcDbLine
 62
7
  6
CONTINUOUS
 10
47.0749208159
 20
22.3163068061
 11
54.0145613353
 21
22.3163068061
  0
LINE
  5
2C6
100
AcDbEntity
  8
ASSI
100
AcDbLine
 62
7
  6
CONTINUOUS
 10
47.0749208159
 20
22.3163068061
 11
54.0145613353
 21
22.3163068061
  0
LWPOLYLINE
  5
2C7
100
AcDbEntity
  8
ASSI
100
AcDbPolyline
 62
7
  6
CONTINUOUS
 90
9
 70
0
 10
54.716777685
 20
23.1839327068
 10
54.6595320539
 20
23.2143408636
 10
54.6005466691
 20
23.2408910559
 10
54.5394696949
 20
23.2636895114
 10
54.4766529672
 20
23.2826300023
 10
54.4131519931
 20
23.2973938456
 10
54.3493186086
 20
23.3078748134
 10
54.2848009778
 20
23.3141791336
 10
54.2195991007
 20
23.3163068061
  0
LWPOLYLINE
  5
2C8
100
AcDbEntity
  8
0
100
AcDbPolyline
 62
7
  6
CONTINUOUS
 90
10
 70
0
 10
54.7722835626
 20
23.1496665855
 10
54.716777685
 20
23.1839327068
 10
54.6595320539
 20
23.2143408636
 10
54.6005466691
 20
23.2408910559
 10
54.5394696949
 20
23.2636895114
 10
54.4766529672
 20
23.2826300023
 10
54.4131519931
 20
23.2973938456
 10
54.3493186086
 20
23.3078748134
 10
54.2848009778
 20
23.3141791336
 10
54.2195991007
 20
23.3163068061
  0
LINE
  5
2C9
100
AcDbEntity
  8
ASSI
100
AcDbLine
 62
7
  6
CONTINUOUS
 10
54.7722835626
 20
23.1496665855
 11
54.716777685
 21
23.1839327068
  0
LWPOLYLINE
  5
2CA
100
AcDbEntity
  8
0
100
AcDbPolyline
 62
250
  6
CONTINUOUS
 90
15
 70
0
 10
61.5451999857
 20
-21.1809891105
 10
61.5416202191
 20
-21.1831621253
 10
61.5327224064
 20
-21.1853118566
 10
61.5186018824
 20
-21.1874152714
 10
61.4994099408
 20
-21.1894498328
 10
61.4753522122
 20
-21.1913937416
 10
61.4466864616
 20
-21.1932261699
 10
61.4137198266
 20
-21.1949274843
 10
61.3768055258
 20
-21.1964794561
 10
61.3363390752
 20
-21.1978654569
 10
61.2927540501
 20
-21.1990706363
 10
61.2465174393
 20
-21.2000820817
 10
61.1981246421
 20
-21.2008889557
 10
61.14809416
 20
-21.2014826131
 10
61.0969620414
 20
-21.2018566932
  0
LWPOLYLINE
  5
2CB
100
AcDbEntity
  8
0
100
AcDbPolyline
 62
7
  6
CONTINUOUS
 90
10
 70
0
 10
46.8698830505
 20
23.3163068061
 10
46.8046811734
 20
23.3141791336
 10
46.7401635426
 20
23.3078748134
 10
46.676330158
 20
23.2973938456
 10
46.612829184
 20
23.2826300023
 10
46.5500124562
 20
23.2636895114
 10
46.4889354821
 20
23.2408910559
 10
46.4299500973
 20
23.2143408636
 10
46.3727044661
 20
23.1839327068
 10
46.3171985885
 20
23.1496665855
  0
LWPOLYLINE
  5
2CC
100
AcDbEntity
  8
ASSI
100
AcDbPolyline
 62
7
  6
CONTINUOUS
 90
10
 70
0
 10
46.8698830505
 20
23.3163068061
 10
46.8046811734
 20
23.3141791336
 10
46.7401635426
 20
23.3078748134
 10
46.676330158
 20
23.2973938456
 10
46.612829184
 20
23.2826300023
 10
46.5500124562
 20
23.2636895114
 10
46.4889354821
 20
23.2408910559
 10
46.4299500973
 20
23.2143408636
 10
46.3727044661
 20
23.1839327068
 10
46.3171985885
 20
23.1496665855
  0
LINE
  5
2CD
100
AcDbEntity
  8
0
100
AcDbLine
 62
7
  6
CONTINUOUS
 10
46.8698830505
 20
23.3163068061
 11
54.2195991007
 21
23.3163068061
  0
LINE
  5
2CE
100
AcDbEntity
  8
ASSI
100
AcDbLine
 62
7
  6
CONTINUOUS
 10
46.8698830505
 20
23.3163068061
 11
54.2195991007
 21
23.3163068061
  0
LWPOLYLINE
  5
2CF
100
AcDbEntity
  8
0
100
AcDbPolyline
 62
250
  6
CONTINUOUS
 90
16
 70
0
 10
61.5451999857
 20
20.8136027228
 10
61.5416205124
 20
20.8157757633
 10
61.5327229479
 20
20.8179255207
 10
61.5186026252
 20
20.8200289615
 10
61.4994108368
 20
20.8220635481
 10
61.4753532135
 20
20.8240074811
 10
61.4466875211
 20
20.8258399321
 10
61.4137208988
 20
20.8275412674
 10
61.3768065681
 20
20.8290932578
 10
61.3363400482
 20
20.8304792746
 10
61.2927549184
 20
20.8316844672
 10
61.2465181726
 20
20.8326959227
 10
61.1981252151
 20
20.8335028036
 10
61.1480945533
 20
20.8340964646
 10
61.0969622416
 20
20.8344705448
 10
61.0452761381
 20
20.8346210363
  0
LWPOLYLINE
  5
2D0
100
AcDbEntity
  8
0
100
AcDbPolyline
 62
7
  6
CONTINUOUS
 90
7
 70
0
 43
0.3499999865
 10
50.1161705946
 20
34.279620157
 10
48.6161741826
 20
34.279620157
 10
50.1161705946
 20
36.4224775879
 10
50.1161705946
 20
36.8510490741
 10
49.6876016348
 20
37.2796205603
 10
49.0447431424
 20
37.2796205603
 10
48.6161741826
 20
36.6367645942
  0
LWPOLYLINE
  5
2D1
100
AcDbEntity
  8
0
100
AcDbPolyline
 62
7
  6
CONTINUOUS
 90
7
 70
0
 43
0.3499999865
 10
47.7590261574
 20
34.279620157
 10
46.2590297454
 20
34.279620157
 10
47.7590261574
 20
36.4224775879
 10
47.7590261574
 20
36.8510490741
 10
47.3304571976
 20
37.2796205603
 10
46.6875987052
 20
37.2796205603
 10
46.2590297454
 20
36.6367645942
  0
LWPOLYLINE
  5
2D2
100
AcDbEntity
  8
0
100
AcDbPolyline
 62
7
  6
CONTINUOUS
 90
6
 70
0
 43
0.3499999865
 10
52.6875944589
 20
34.279620157
 10
53.7590219112
 20
34.279620157
 10
53.9733114439
 20
34.4939071633
 10
53.9733114439
 20
35.5653346155
 10
53.5447424841
 20
35.9939061017
 10
53.1161735243
 20
35.9939061017
  0
LINE
  5
2D3
100
AcDbEntity
  8
RACCORDO
100
AcDbLine
 62
250
  6
CONTINUOUS
 10
-32.0666114235
 20
-6.5952372117
 11
-32.0666114235
 21
6.227850824
  0
LINE
  5
2D4
100
AcDbEntity
  8
RACCORDO
100
AcDbLine
 62
250
  6
CONTINUOUS
 10
-31.6043525717
 20
-7.0405897034
 11
-31.6043525717
 21
6.6732033157
  0
LWPOLYLINE
  5
2D5
100
AcDbEntity
  8
0
100
AcDbPolyline
 62
250
  6
CONTINUOUS
 90
19
 70
0
 10
-22.4773640827
 20
-21.1809891105
 10
-22.473849306
 20
-21.2223222716
 10
-22.4671171641
 20
-21.2627064461
 10
-22.4571676571
 20
-21.3021416342
 10
-22.443886674
 20
-21.3408849256
 10
-22.4273883258
 20
-21.3786792305
 10
-22.4080149448
 20
-21.4147532794
 10
-22.3857160766
 20
-21.4490615009
 10
-22.3605421755
 20
-21.4816494663
 10
-22.3329869371
 20
-21.5118826201
 10
-22.3029990195
 20
-21.5397192349
 10
-22.2706297646
 20
-21.5652010382
 10
-22.2365268929
 20
-21.5878186571
 10
-22.2006405749
 20
-21.6075160855
 10
-22.1630206402
 20
-21.6243493295
 10
-22.124464297
 20
-21.6379770348
 10
-22.0852372816
 20
-21.6482854165
 10
-22.0450738578
 20
-21.6553882595
 10
-22.0039740257
 20
-21.6592855637
  0
LINE
  5
2D6
100
AcDbEntity
  8
0
100
AcDbLine
 62
7
  6
CONTINUOUS
 10
-24.9101607806
 20
-7.5086931939
 11
-24.9101607806
 21
7.1413068061
  0
LINE
  5
2D7
100
AcDbEntity
  8
RACCORDO
100
AcDbLine
 62
250
  6
CONTINUOUS
 10
-24.6310877295
 20
-7.5283908528
 11
-24.6310877295
 21
7.1610044651
  0
LWPOLYLINE
  5
2D8
100
AcDbEntity
  8
0
100
AcDbPolyline
 62
250
  6
CONTINUOUS
 90
10
 70
0
 10
-22.4773640827
 20
20.8136027228
 10
-22.651789742
 20
16.1487839216
 10
-22.7826090176
 20
11.4833432066
 10
-22.8698219095
 20
6.817280578
 10
-22.9134284591
 20
2.15018247
 10
-22.913428625
 20
-2.5175375517
 10
-22.8698222828
 20
-7.1846387903
 10
-22.7826093909
 20
-11.8507076802
 10
-22.6517899909
 20
-16.5161577869
 10
-22.4773640827
 20
-21.1809891105
  0
LINE
  5
2D9
100
AcDbEntity
  8
0
100
AcDbLine
 62
7
  6
CONTINUOUS
 10
-9.9101607806
 20
-23.2835836687
 11
-11.6744894332
 21
-23.3199208099
  0
LINE
  5
2DA
100
AcDbEntity
  8
ASSI
100
AcDbLine
 62
7
  6
CONTINUOUS
 10
-9.9101607806
 20
-23.2835836687
 11
-11.6744894332
 21
-23.3199208099
  0
LWPOLYLINE
  5
2DB
100
AcDbEntity
  8
0
100
AcDbPolyline
 62
7
  6
CONTINUOUS
 90
3
 70
0
 10
-11.6744894332
 20
-23.3199208099
 10
-13.4603495563
 20
-23.3550152696
 10
-13.9101607806
 20
-23.3636017556
  0
LWPOLYLINE
  5
2DC
100
AcDbEntity
  8
ASSI
100
AcDbPolyline
 62
7
  6
CONTINUOUS
 90
3
 70
0
 10
-11.6744894332
 20
-23.3199208099
 10
-13.4603495563
 20
-23.3550152696
 10
-13.9101607806
 20
-23.3636017556
  0
LINE
  5
2DD
100
AcDbEntity
  8
0
100
AcDbLine
 62
7
  6
CONTINUOUS
 10
-9.9101607806
 20
-23.6138729341
 11
-13.9101607806
 21
-23.6836931939
  0
LINE
  5
2DE
100
AcDbEntity
  8
ASSI
100
AcDbLine
 62
7
  6
CONTINUOUS
 10
-9.9101607806
 20
-23.6138729341
 11
-13.9101607806
 21
-23.6836931939
  0
LINE
  5
2DF
100
AcDbEntity
  8
ASSI
100
AcDbLine
 62
250
  6
CONTINUOUS
 10
-9.9101607806
 20
-23.4468005557
 11
-13.9101607806
 21
-23.5170528513
  0
LINE
  5
2E0
100
AcDbEntity
  8
0
100
AcDbLine
 62
250
  6
CONTINUOUS
 10
-9.9101607806
 20
-23.4468005557
 11
-13.9101607806
 21
-23.5170528513
  0
LINE
  5
2E1
100
AcDbEntity
  8
RACCORDO
100
AcDbLine
 62
7
  6
CONTINUOUS
 10
-5.7373236374
 20
-21.3108560506
 11
-9.7136512619
 21
-21.3802631074
  0
LINE
  5
2E2
100
AcDbEntity
  8
ASSI
100
AcDbLine
 62
7
  6
CONTINUOUS
 10
-5.7373236374
 20
-21.3108560506
 11
-9.7136512619
 21
-21.3802631074
  0
LWPOLYLINE
  5
2E3
100
AcDbEntity
  8
0
100
AcDbPolyline
 62
7
  6
CONTINUOUS
 90
3
 70
0
 10
-9.9101607806
 20
-22.8135597965
 10
-10.3492181238
 20
-22.8167714831
 10
-13.9101607806
 20
-22.8468598158
  0
LWPOLYLINE
  5
2E4
100
AcDbEntity
  8
ASSI
100
AcDbPolyline
 62
7
  6
CONTINUOUS
 90
3
 70
0
 10
-9.9101607806
 20
-22.8135597965
 10
-10.3492181238
 20
-22.8167714831
 10
-13.9101607806
 20
-22.8468598158
  0
LINE
  5
2E5
100
AcDbEntity
  8
0
100
AcDbLine
 62
7
  6
CONTINUOUS
 10
-7.7606652968
 20
-22.3836931939
 11
-8.3101607806
 21
-22.3836931939
  0
LINE
  5
2E6
100
AcDbEntity
  8
ASSI
100
AcDbLine
 62
7
  6
CONTINUOUS
 10
-7.7606652968
 20
-22.3836931939
 11
-8.3101607806
 21
-22.3836931939
  0
LINE
  5
2E7
100
AcDbEntity
  8
0
100
AcDbLine
 62
7
  6
CONTINUOUS
 10
-22.0214158006
 20
-22.1586003311
 11
-13.9101607806
 21
-22.5836931939
  0
LINE
  5
2E8
100
AcDbEntity
  8
0
100
AcDbLine
 62
250
  6
CONTINUOUS
 10
-22.0039740257
 20
-21.6592855637
 11
-13.9101607806
 21
-22.0834643418
  0
LINE
  5
2E9
100
AcDbEntity
  8
0
100
AcDbLine
 62
250
  6
CONTINUOUS
 10
-22.0039740257
 20
21.291899176
 11
-22.0116265717
 21
21.4461057158
  0
LINE
  5
2EA
100
AcDbEntity
  8
0
100
AcDbLine
 62
250
  6
CONTINUOUS
 10
-22.0116265717
 20
21.4461057158
 11
-22.0158791409
 21
21.5414206539
  0
LINE
  5
2EB
100
AcDbEntity
  8
0
100
AcDbLine
 62
250
  6
CONTINUOUS
 10
-22.0158791409
 20
21.5414206539
 11
-22.0192311201
 21
21.6258438685
  0
LWPOLYLINE
  5
2EC
100
AcDbEntity
  8
0
100
AcDbPolyline
 62
250
  6
CONTINUOUS
 90
8
 70
0
 10
-22.0192311201
 20
21.6258438685
 10
-22.0215361572
 20
21.6956896146
 10
-22.0222626987
 20
21.7241642497
 10
-22.0226936005
 20
21.7479083859
 10
-22.0228241434
 20
21.7666621064
 10
-22.0226528966
 20
21.7802201326
 10
-22.0221817324
 20
21.7884340556
 10
-22.0214158051
 20
21.7912139431
  0
LWPOLYLINE
  5
2ED
100
AcDbEntity
  8
0
100
AcDbPolyline
 62
250
  6
CONTINUOUS
 90
7
 70
0
 10
-22.0215362952
 20
-22.0630789614
 10
-22.0222627984
 20
-22.0915529138
 10
-22.0226936637
 20
-22.1152963559
 10
-22.0228241756
 20
-22.1340494517
 10
-22.0226529059
 20
-22.1476069769
 10
-22.0221817287
 20
-22.1558205652
 10
-22.0214158006
 20
-22.1586003311
  0
LINE
  5
2EE
100
AcDbEntity
  8
0
100
AcDbLine
 62
250
  6
CONTINUOUS
 10
-22.0192313253
 20
-21.9932343005
 11
-22.0215362952
 21
-22.0630789614
  0
LINE
  5
2EF
100
AcDbEntity
  8
0
100
AcDbLine
 62
250
  6
CONTINUOUS
 10
-22.0158793757
 20
-21.9088113841
 11
-22.0192313253
 21
-21.9932343005
  0
LINE
  5
2F0
100
AcDbEntity
  8
0
100
AcDbLine
 62
250
  6
CONTINUOUS
 10
-22.0092194155
 20
-21.7630395034
 11
-22.0158793757
 21
-21.9088113841
  0
LINE
  5
2F1
100
AcDbEntity
  8
0
100
AcDbLine
 62
250
  6
CONTINUOUS
 10
-22.0039740257
 20
-21.6592855637
 11
-22.0092194155
 21
-21.7630395034
  0
LINE
  5
2F2
100
AcDbEntity
  8
0
100
AcDbLine
 62
250
  6
CONTINUOUS
 10
-22.9655156266
 20
-21.2018566932
 11
-22.9681902451
 21
-21.2020071879
  0
LINE
  5
2F3
100
AcDbEntity
  8
0
100
AcDbLine
 62
250
  6
CONTINUOUS
 10
-22.6296355432
 20
-21.1874152714
 11
-22.9655156266
 21
-21.2018566932
  0
LINE
  5
2F4
100
AcDbEntity
  8
0
100
AcDbLine
 62
250
  6
CONTINUOUS
 10
-22.4773640827
 20
-21.1809891105
 11
-22.6296355432
 21
-21.1874152714
  0
LINE
  5
2F5
100
AcDbEntity
  8
DRAFT
100
AcDbLine
 62
7
  6
CONTINUOUS
 10
26.0898392194
 20
-19.9956028922
 11
-4.6906880711
 21
-20.2642204844
  0
LINE
  5
2F6
100
AcDbEntity
  8
ASSI
100
AcDbLine
 62
7
  6
CONTINUOUS
 10
26.0898392194
 20
-19.9956028922
 11
-4.6906880711
 21
-20.2642204844
  0
LINE
  5
2F7
100
AcDbEntity
  8
DRAFT
100
AcDbLine
 62
250
  6
CONTINUOUS
 10
-13.9101607806
 20
-16.3033523599
 11
-4.1537555172
 21
-16.2440813074
  0
LINE
  5
2F8
100
AcDbEntity
  8
ASSI
100
AcDbLine
 62
250
  6
CONTINUOUS
 10
-13.9101607806
 20
-16.3033523599
 11
-4.1537555172
 21
-16.2440813074
  0
LINE
  5
2F9
100
AcDbEntity
  8
0
100
AcDbLine
 62
250
  6
CONTINUOUS
 10
-13.9101607806
 20
-17.543122763
 11
26.0898392193
 21
-17.3136076099
  0
LINE
  5
2FA
100
AcDbEntity
  8
ASSI
100
AcDbLine
 62
250
  6
CONTINUOUS
 10
-13.9101607806
 20
-17.543122763
 11
26.0898392193
 21
-17.3136076099
  0
LINE
  5
2FB
100
AcDbEntity
  8
DRAFT
100
AcDbLine
 62
7
  6
CONTINUOUS
 10
26.0898392194
 20
-16.428095806
 11
16.7376307975
 21
-16.3731208965
  0
LINE
  5
2FC
100
AcDbEntity
  8
ASSI
100
AcDbLine
 62
7
  6
CONTINUOUS
 10
26.0898392194
 20
-16.428095806
 11
16.7376307975
 21
-16.3731208965
  0
LINE
  5
2FD
100
AcDbEntity
  8
DRAFT
100
AcDbLine
 62
7
  6
CONTINUOUS
 10
16.7376307975
 20
-16.3731208965
 11
7.4739849004
 21
-16.3169815564
  0
LINE
  5
2FE
100
AcDbEntity
  8
ASSI
100
AcDbLine
 62
7
  6
CONTINUOUS
 10
16.7376307975
 20
-16.3731208965
 11
7.4739849004
 21
-16.3169815564
  0
LINE
  5
2FF
100
AcDbEntity
  8
DRAFT
100
AcDbLine
 62
7
  6
CONTINUOUS
 10
7.4739849004
 20
-16.3169815564
 11
-1.658925954
 21
-16.2599556804
  0
LINE
  5
300
100
AcDbEntity
  8
ASSI
100
AcDbLine
 62
7
  6
CONTINUOUS
 10
7.4739849004
 20
-16.3169815564
 11
-1.658925954
 21
-16.2599556804
  0
LINE
  5
301
100
AcDbEntity
  8
DRAFT
100
AcDbLine
 62
250
  6
CONTINUOUS
 10
-1.6593746632
 20
-16.2599528046
 11
-4.1537555172
 21
-16.2440813074
  0
LINE
  5
302
100
AcDbEntity
  8
ASSI
100
AcDbLine
 62
250
  6
CONTINUOUS
 10
-1.6593746632
 20
-16.2599528046
 11
-4.1537555172
 21
-16.2440813074
  0
LINE
  5
303
100
AcDbEntity
  8
DRAFT
100
AcDbLine
 62
7
  6
CONTINUOUS
 10
-1.6667056823
 20
-15.9336646362
 11
26.0898392194
 21
-16.1758923338
  0
LINE
  5
304
100
AcDbEntity
  8
ASSI
100
AcDbLine
 62
7
  6
CONTINUOUS
 10
-1.6667056823
 20
-15.9336646362
 11
26.0898392194
 21
-16.1758923338
  0
LINE
  5
305
100
AcDbEntity
  8
CURVE
100
AcDbLine
 62
250
  6
CONTINUOUS
 10
-12.1041192523
 20
-13.6836931939
 11
-12.4254499465
 21
-13.46940747
  0
LINE
  5
306
100
AcDbEntity
  8
CURVE
100
AcDbLine
 62
250
  6
CONTINUOUS
 10
-11.9970090805
 20
-12.9336931939
 11
-10.9259068262
 21
-13.6836931939
  0
LINE
  5
307
100
AcDbEntity
  8
CURVE
100
AcDbLine
 62
250
  6
CONTINUOUS
 10
-12.4254499465
 20
-11.1122645969
 11
-12.2112295135
 21
-11.3265503878
  0
LWPOLYLINE
  5
308
100
AcDbEntity
  8
0
100
AcDbPolyline
 62
7
  6
CONTINUOUS
 90
3
 70
0
 43
0.3499999865
 10
-2.1244443142
 20
44.5653358254
 10
-2.1958758427
 20
44.3510513455
 10
-2.3387338469
 20
44.0653353371
  0
LINE
  5
309
100
AcDbEntity
  8
CURVE
100
AcDbLine
 62
7
  6
CONTINUOUS
 10
-6.7584245307
 20
15.5597254248
 11
-6.5471410377
 21
15.7710089177
  0
LINE
  5
30A
100
AcDbEntity
  8
CURVE
100
AcDbLine
 62
7
  6
CONTINUOUS
 10
-6.8117144865
 20
15.0381317424
 11
-6.7157588617
 21
15.1340873672
  0
LINE
  5
30B
100
AcDbEntity
  8
CURVE
100
AcDbLine
 62
7
  6
CONTINUOUS
 10
-6.1695612058
 20
15.680285023
 11
-6.083987006
 21
15.7658592228
  0
LINE
  5
30C
100
AcDbEntity
  8
CURVE
100
AcDbLine
 62
7
  6
CONTINUOUS
 10
-6.8117144865
 20
14.5698280157
 11
-6.7157588617
 21
14.6657836405
  0
LINE
  5
30D
100
AcDbEntity
  8
CURVE
100
AcDbLine
 62
7
  6
CONTINUOUS
 10
-5.9359435537
 20
15.4455989485
 11
-5.855798238
 21
15.5257442642
  0
LINE
  5
30E
100
AcDbEntity
  8
CURVE
100
AcDbLine
 62
7
  6
CONTINUOUS
 10
-6.8117196924
 20
14.1015190832
 11
-6.7094139411
 21
14.2038248345
  0
LINE
  5
30F
100
AcDbEntity
  8
CURVE
100
AcDbLine
 62
7
  6
CONTINUOUS
 10
-6.3913422349
 20
14.5218965407
 11
-6.280152481
 21
14.6330862946
  0
LINE
  5
310
100
AcDbEntity
  8
CURVE
100
AcDbLine
 62
7
  6
CONTINUOUS
 10
-5.9078043796
 20
15.005434396
 11
-5.8118487549
 21
15.1013900207
  0
LINE
  5
311
100
AcDbEntity
  8
CURVE
100
AcDbLine
 62
7
  6
CONTINUOUS
 10
-6.3522301877
 20
14.0927048613
 11
-6.2411102144
 21
14.2038248345
  0
LINE
  5
312
100
AcDbEntity
  8
CURVE
100
AcDbLine
 62
7
  6
CONTINUOUS
 10
-5.9230385083
 20
14.5218965407
 11
-5.8118487544
 21
14.6330862946
  0
LINE
  5
313
100
AcDbEntity
  8
CURVE
100
AcDbLine
 62
7
  6
CONTINUOUS
 10
-5.8839264611
 20
14.0927048613
 11
-5.7728064878
 21
14.2038248345
  0
LINE
  5
314
100
AcDbEntity
  8
CURVE
100
AcDbLine
 62
7
  6
CONTINUOUS
 10
-5.4547347817
 20
14.5218965407
 11
-5.3435450278
 21
14.6330862946
  0
LWPOLYLINE
  5
315
100
AcDbEntity
  8
DRAFT
100
AcDbPolyline
 62
7
  6
CONTINUOUS
 90
34
 70
0
 10
-1.6589244126
 20
-14.1073660557
 10
-1.7636330935
 20
-14.1133055377
 10
-1.8652706952
 20
-14.1285488919
 10
-1.9638372175
 20
-14.153096118
 10
-2.0601134629
 20
-14.1873959765
 10
-2.153318629
 20
-14.230999707
 10
-2.2411103087
 20
-14.2825610287
 10
-2.3232955713
 20
-14.3421995058
 10
-2.4000673475
 20
-14.4097955741
 10
-2.4696620223
 20
-14.4836442599
 10
-2.532063909
 20
-14.564069412
 10
-2.5872886944
 20
-14.6507471816
 10
-2.6336198238
 20
-14.7410010492
 10
-2.6706285197
 20
-14.8345101589
 10
-2.6987435596
 20
-14.9315953666
 10
-2.7175347214
 20
-15.0305427203
 10
-2.7268585978
 20
-15.1320223333
 10
-2.726858596
 20
-15.2353640922
 10
-2.717534716
 20
-15.3368437052
 10
-2.6987435498
 20
-15.4357910599
 10
-2.6706285053
 20
-15.5328762688
 10
-2.6336198064
 20
-15.6263853771
 10
-2.587288677
 20
-15.7166392386
 10
-2.5320638933
 20
-15.8033169996
 10
-2.4696620078
 20
-15.8837421447
 10
-2.4000673325
 20
-15.9575908273
 10
-2.3232955555
 20
-16.0251868939
 10
-2.2411102933
 20
-16.0848253691
 10
-2.1533019407
 20
-16.1363891888
 10
-2.0600801029
 20
-16.1799954171
 10
-1.9638372129
 20
-16.2142902711
 10
-1.8653707485
 20
-16.2388224899
 10
-1.7638832319
 20
-16.2540433344
 10
-1.6593746632
 20
-16.2599528046
  0
LWPOLYLINE
  5
316
100
AcDbEntity
  8
ASSI
100
AcDbPolyline
 62
7
  6
CONTINUOUS
 90
34
 70
0
 10
-1.6589244126
 20
-14.1073660557
 10
-1.7636330935
 20
-14.1133055377
 10
-1.8652706952
 20
-14.1285488919
 10
-1.9638372175
 20
-14.153096118
 10
-2.0601134629
 20
-14.1873959765
 10
-2.153318629
 20
-14.230999707
 10
-2.2411103087
 20
-14.2825610287
 10
-2.3232955713
 20
-14.3421995058
 10
-2.4000673475
 20
-14.4097955741
 10
-2.4696620223
 20
-14.4836442599
 10
-2.532063909
 20
-14.564069412
 10
-2.5872886944
 20
-14.6507471816
 10
-2.6336198238
 20
-14.7410010492
 10
-2.6706285197
 20
-14.8345101589
 10
-2.6987435596
 20
-14.9315953666
 10
-2.7175347214
 20
-15.0305427203
 10
-2.7268585978
 20
-15.1320223333
 10
-2.726858596
 20
-15.2353640922
 10
-2.717534716
 20
-15.3368437052
 10
-2.6987435498
 20
-15.4357910599
 10
-2.6706285053
 20
-15.5328762688
 10
-2.6336198064
 20
-15.6263853771
 10
-2.587288677
 20
-15.7166392386
 10
-2.5320638933
 20
-15.8033169996
 10
-2.4696620078
 20
-15.8837421447
 10
-2.4000673325
 20
-15.9575908273
 10
-2.3232955555
 20
-16.0251868939
 10
-2.2411102933
 20
-16.0848253691
 10
-2.1533019407
 20
-16.1363891888
 10
-2.0600801029
 20
-16.1799954171
 10
-1.9638372129
 20
-16.2142902711
 10
-1.8653707485
 20
-16.2388224899
 10
-1.7638832319
 20
-16.2540433344
 10
-1.6593746632
 20
-16.2599528046
  0
LINE
  5
317
100
AcDbEntity
  8
DRAFT
100
AcDbLine
 62
7
  6
CONTINUOUS
 10
26.0898392194
 20
-14.1914940539
 11
-1.6667056823
 21
-14.4337217516
  0
LINE
  5
318
100
AcDbEntity
  8
ASSI
100
AcDbLine
 62
7
  6
CONTINUOUS
 10
26.0898392194
 20
-14.1914940539
 11
-1.6667056823
 21
-14.4337217516
  0
LINE
  5
319
100
AcDbEntity
  8
DRAFT
100
AcDbLine
 62
7
  6
CONTINUOUS
 10
26.0898392194
 20
-13.9300842247
 11
-1.6589244126
 21
-14.1073660557
  0
LINE
  5
31A
100
AcDbEntity
  8
ASSI
100
AcDbLine
 62
7
  6
CONTINUOUS
 10
26.0898392194
 20
-13.9300842247
 11
-1.6589244126
 21
-14.1073660557
  0
LINE
  5
31B
100
AcDbEntity
  8
CURVE
100
AcDbLine
 62
250
  6
CONTINUOUS
 10
-12.2112295135
 20
-11.3265503878
 11
-11.9970090805
 21
-11.4336931939
  0
LINE
  5
31C
100
AcDbEntity
  8
CURVE
100
AcDbLine
 62
250
  6
CONTINUOUS
 10
-11.1401272815
 20
-10.7908359999
 11
-11.3543477369
 21
-10.6836931939
  0
LINE
  5
31D
100
AcDbEntity
  8
CURVE
100
AcDbLine
 62
250
  6
CONTINUOUS
 10
-11.0330170539
 20
-11.8622645969
 11
-10.9259068262
 21
-11.9694074029
  0
LINE
  5
31E
100
AcDbEntity
  8
CURVE
100
AcDbLine
 62
250
  6
CONTINUOUS
 10
-10.9259068262
 20
-11.0051217908
 11
-11.1401272815
 21
-10.7908359999
  0
LINE
  5
31F
100
AcDbEntity
  8
CURVE
100
AcDbLine
 62
250
  6
CONTINUOUS
 10
-12.1911463339
 20
-7.4961931939
 11
-12.284867779
 21
-7.4024431939
  0
LINE
  5
320
100
AcDbEntity
  8
CURVE
100
AcDbLine
 62
250
  6
CONTINUOUS
 10
-11.8898988193
 20
-11.8979789252
 11
-11.7827886475
 21
-12.0765503878
  0
LWPOLYLINE
  5
321
100
AcDbEntity
  8
0
100
AcDbPolyline
 62
250
  6
CONTINUOUS
 90
57
 70
0
 10
-12.0319069703
 20
-4.4434302981
 10
-12.0307750327
 20
-4.4643576228
 10
-12.0295247805
 20
-4.4853730363
 10
-12.0281426184
 20
-4.5064620951
 10
-12.0266149514
 20
-4.5276103559
 10
-12.0249281841
 20
-4.5488033752
 10
-12.0230687214
 20
-4.5700267097
 10
-12.0210229681
 20
-4.591265916
 10
-12.0187773289
 20
-4.6125065507
 10
-12.0163182087
 20
-4.6337341704
 10
-12.0136320124
 20
-4.6549343318
 10
-12.0107051446
 20
-4.6760925915
 10
-12.0075240101
 20
-4.697194506
 10
-12.0040750139
 20
-4.718225632
 10
-12.0003445607
 20
-4.7391715262
 10
-11.9963190552
 20
-4.760017745
 10
-11.9919849023
 20
-4.7807498452
 10
-11.9873285069
 20
-4.8013533834
 10
-11.9823362736
 20
-4.8218139161
 10
-11.9769946073
 20
-4.842117
 10
-11.9712899128
 20
-4.8622481917
 10
-11.9652085949
 20
-4.8821930479
 10
-11.9587370583
 20
-4.9019371251
 10
-11.951861708
 20
-4.9214659799
 10
-11.9445689487
 20
-4.9407651691
 10
-11.9368451852
 20
-4.9598202491
 10
-11.9286768222
 20
-4.9786167766
 10
-11.9200502647
 20
-4.9971403082
 10
-11.9109519174
 20
-5.0153764006
 10
-11.901368185
 20
-5.0333106103
 10
-11.8912854725
 20
-5.050928494
 10
-11.8806901846
 20
-5.0682156083
 10
-11.869568726
 20
-5.0851575098
 10
-11.8579075017
 20
-5.1017397551
 10
-11.8456929164
 20
-5.1179479009
 10
-11.8329113749
 20
-5.1337675037
 10
-11.819549282
 20
-5.1491841201
 10
-11.8055930425
 20
-5.1641833069
 10
-11.7910290613
 20
-5.1787506205
 10
-11.775843743
 20
-5.1928716177
 10
-11.7600234926
 20
-5.206531855
 10
-11.7512190255
 20
-5.2137008998
 10
-11.7422322157
 20
-5.2206922549
 10
-11.7330695841
 20
-5.2274666189
 10
-11.7237376514
 20
-5.2339846904
 10
-11.7142429388
 20
-5.2402071681
 10
-11.704591967
 20
-5.2460947506
 10
-11.694791257
 20
-5.2516081364
 10
-11.6848473297
 20
-5.2567080244
 10
-11.674766706
 20
-5.261355113
 10
-11.6645559068
 20
-5.2655101009
 10
-11.654221453
 20
-5.2691336867
 10
-11.6437698656
 20
-5.2721865691
 10
-11.6332076654
 20
-5.2746294467
 10
-11.6225413734
 20
-5.2764230181
 10
-11.6117775104
 20
-5.277527982
 10
-11.6009225975
 20
-5.2779050369
  0
LINE
  5
322
100
AcDbEntity
  8
0
100
AcDbLine
 62
250
  6
CONTINUOUS
 10
-12.0338702824
 20
-4.4018976882
 11
-12.0319069703
 21
-4.4434302981
  0
LWPOLYLINE
  5
323
100
AcDbEntity
  8
0
100
AcDbPolyline
 62
250
  6
CONTINUOUS
 90
3
 70
0
 10
-12.0362677708
 20
-4.3406205234
 10
-12.0355234783
 20
-4.3608907539
 10
-12.0338702824
 20
-4.4018976882
  0
LWPOLYLINE
  5
324
100
AcDbEntity
  8
0
100
AcDbPolyline
 62
250
  6
CONTINUOUS
 90
63
 70
0
 10
-12.1101614971
 20
4.6163068054
 10
-12.1095745933
 20
4.5671609092
 10
-12.1078279421
 20
4.5191283734
 10
-12.104942634
 20
4.4719213781
 10
-12.1009397596
 20
4.4252521037
 10
-12.0958404094
 20
4.3788327303
 10
-12.0879533432
 20
4.3208458739
 10
-12.0784086436
 20
4.2629840969
 10
-12.067228967
 20
4.2054317266
 10
-12.0544369696
 20
4.1483730905
 10
-12.0400557471
 20
4.0919629839
 10
-12.0241101525
 20
4.036238074
 10
-12.0066254781
 20
3.981205496
 10
-11.9876270164
 20
3.9268723849
 10
-11.967128311
 20
3.8732353864
 10
-11.9450959097
 20
3.8202491869
 10
-11.9214846116
 20
3.7678579835
 10
-11.8962492157
 20
3.7160059731
 10
-11.8653850754
 20
3.6573708421
 10
-11.8324110768
 20
3.5994977219
 10
-11.7973976702
 20
3.542517257
 10
-11.7604153058
 20
3.4865600919
 10
-11.7215344338
 20
3.4317568709
 10
-11.6808255045
 20
3.3782382383
 10
-11.6383589681
 20
3.3261348387
 10
-11.5942036407
 20
3.2755614972
 10
-11.5484218016
 20
3.2265697626
 10
-11.501074096
 20
3.1791953645
 10
-11.4522211691
 20
3.1334740326
 10
-11.401923666
 20
3.0894414964
 10
-11.3502422319
 20
3.0471334856
 10
-11.2972375119
 20
3.0065857298
 10
-11.2429665263
 20
2.9678347748
 10
-11.1874717952
 20
2.9309204313
 10
-11.1307922137
 20
2.8958833262
 10
-11.0729666772
 20
2.8627640864
 10
-11.0140340808
 20
2.8316033388
 10
-10.9540333196
 20
2.8024417104
 10
-10.8930032889
 20
2.7753198279
 10
-10.8309997237
 20
2.7502745799
 10
-10.7681457187
 20
2.7273279005
 10
-10.7045812084
 20
2.7064979853
 10
-10.6404461274
 20
2.6878030302
 10
-10.5758804101
 20
2.6712612307
 10
-10.5110239911
 20
2.6568907825
 10
-10.4460168048
 20
2.6447098814
 10
-10.3890965541
 20
2.6358566501
 10
-10.332109993
 20
2.6286737523
 10
-10.2749991047
 20
2.6231412187
 10
-10.2177058726
 20
2.6192390797
 10
-10.1601836445
 20
2.6169562189
 10
-10.1024312267
 20
2.6163169309
 10
-10.0444587897
 20
2.6173543634
 10
-9.9862765042
 20
2.620101664
 10
-9.9279219807
 20
2.624581177
 10
-9.8695425892
 20
2.6307720328
 10
-9.8113131392
 20
2.6386425583
 10
-9.7534084406
 20
2.6481610807
 10
-9.7073786527
 20
2.6569604712
 10
-9.6614141547
 20
2.6668938875
 10
-9.6152605172
 20
2.6780609079
 10
-9.5686633109
 20
2.6905611111
 10
-9.5213681066
 20
2.7044940755
  0
LINE
  5
325
100
AcDbEntity
  8
ASSI
100
AcDbLine
 62
7
  6
CONTINUOUS
 10
-13.9101607806
 20
-22.8468598158
 11
-13.9101607806
 21
-22.3347731085
  0
LINE
  5
326
100
AcDbEntity
  8
ASSI
100
AcDbLine
 62
7
  6
CONTINUOUS
 10
-13.9101607806
 20
-16.3033523614
 11
-13.9101607806
 21
17.1757363752
  0
LINE
  5
327
100
AcDbEntity
  8
0
100
AcDbLine
 62
7
  6
CONTINUOUS
 10
-13.9101607806
 20
-23.1186629668
 11
-13.9101607806
 21
-23.6836931939
  0
LINE
  5
328
100
AcDbEntity
  8
ASSI
100
AcDbLine
 62
7
  6
CONTINUOUS
 10
-13.9101607806
 20
-23.1186629668
 11
-13.9101607806
 21
-23.6836931939
  0
LINE
  5
329
100
AcDbEntity
  8
0
100
AcDbLine
 62
7
  6
CONTINUOUS
 10
-13.9101607806
 20
-22.8468598158
 11
-13.9101607806
 21
23.3163068061
  0
LINE
  5
32A
100
AcDbEntity
  8
ASSI
100
AcDbLine
 62
7
  6
CONTINUOUS
 10
-13.9101607806
 20
22.2163068061
 11
-13.9101607806
 21
23.3163068061
  0
LINE
  5
32B
100
AcDbEntity
  8
CURVE
100
AcDbLine
 62
250
  6
CONTINUOUS
 10
-12.4254499465
 20
-13.46940747
 11
-12.4254499465
 21
-13.1479788954
  0
LINE
  5
32C
100
AcDbEntity
  8
CURVE
100
AcDbLine
 62
250
  6
CONTINUOUS
 10
-12.4254499465
 20
-12.5051217908
 11
-12.4254499465
 21
-12.0765503878
  0
LINE
  5
32D
100
AcDbEntity
  8
CURVE
100
AcDbLine
 62
250
  6
CONTINUOUS
 10
-12.4254499465
 20
-11.0051217908
 11
-12.4254499465
 21
-11.1122645969
  0
LINE
  5
32E
100
AcDbEntity
  8
CURVE
100
AcDbLine
 62
250
  6
CONTINUOUS
 10
-12.3317285015
 20
-7.2618181939
 11
-12.3317285015
 21
-7.1680681939
  0
LINE
  5
32F
100
AcDbEntity
  8
0
100
AcDbLine
 62
250
  6
CONTINUOUS
 10
-11.9954806517
 20
-4.9654771939
 11
-11.9954806517
 21
-4.8661031939
  0
LINE
  5
330
100
AcDbEntity
  8
CURVE
100
AcDbLine
 62
250
  6
CONTINUOUS
 10
-11.7827886475
 20
-12.2908360893
 11
-11.7827886475
 21
-12.0765503878
  0
LINE
  5
331
100
AcDbEntity
  8
CURVE
100
AcDbLine
 62
250
  6
CONTINUOUS
 10
-11.7693998314
 20
-7.1680681939
 11
-11.7693998314
 21
-7.2149431939
  0
LINE
  5
332
100
AcDbEntity
  8
0
100
AcDbLine
 62
250
  6
CONTINUOUS
 10
-11.600922754
 20
-5.4936661939
 11
-11.600922754
 21
-3.0557591939
  0
LINE
  5
333
100
AcDbEntity
  8
0
100
AcDbLine
 62
250
  6
CONTINUOUS
 10
-12.0884404914
 20
-4.3406201939
 11
-12.0878825763
 21
-3.7676171939
  0
LINE
  5
334
100
AcDbEntity
  8
0
100
AcDbLine
 62
250
  6
CONTINUOUS
 10
-11.8704217017
 20
-3.7676171939
 11
-11.8709796167
 21
-4.3406201939
  0
LWPOLYLINE
  5
335
100
AcDbEntity
  8
0
100
AcDbPolyline
 62
250
  6
CONTINUOUS
 90
88
 70
0
 10
-11.6101607795
 20
4.6163068054
 10
-11.6096972913
 20
4.6540702838
 10
-11.6083199529
 20
4.6904513256
 10
-11.6060484541
 20
4.7263070269
 10
-11.6010062848
 20
4.780356511
 10
-11.5940543619
 20
4.8343014315
 10
-11.5852486528
 20
4.8874605566
 10
-11.5746377721
 20
4.9398317824
 10
-11.5622671214
 20
4.9915389813
 10
-11.5481766038
 20
5.0425308003
 10
-11.5324020079
 20
5.0927243696
 10
-11.5149681638
 20
5.1420859758
 10
-11.4958971622
 20
5.1905941948
 10
-11.4752110935
 20
5.2382276021
 10
-11.4529388713
 20
5.2849592017
 10
-11.4291367011
 20
5.330739709
 10
-11.4038418226
 20
5.3755497506
 10
-11.3769883197
 20
5.419511884
 10
-11.3485007728
 20
5.462745864
 10
-11.3183689038
 20
5.5052183018
 10
-11.2865987202
 20
5.5468575225
 10
-11.2531962296
 20
5.5875918516
 10
-11.2181823014
 20
5.6273416469
 10
-11.1816372538
 20
5.6659953978
 10
-11.1436562671
 20
5.7034336262
 10
-11.1043345213
 20
5.7395368539
 10
-11.0637696668
 20
5.7741956143
 10
-11.0220692333
 20
5.807340485
 10
-10.9793432209
 20
5.8389120553
 10
-10.9357016292
 20
5.8688509139
 10
-10.8912712246
 20
5.8970946039
 10
-10.8462458383
 20
5.9235684828
 10
-10.8007613081
 20
5.9482317476
 10
-10.7546544314
 20
5.9711911364
 10
-10.7077240574
 20
5.9925620121
 10
-10.65991628
 20
6.0123466956
 10
-10.6112140047
 20
6.030519247
 10
-10.561600137
 20
6.0470537268
 10
-10.5110956005
 20
6.0619203882
 10
-10.4598733924
 20
6.0750742574
 10
-10.4081445285
 20
6.0864665536
 10
-10.3561200243
 20
6.0960484962
 10
-10.2965266137
 20
6.1047340553
 10
-10.2368645597
 20
6.1110031596
 10
-10.1771757493
 20
6.1148676113
 10
-10.1175020695
 20
6.1163392128
 10
-10.0578854071
 20
6.1154297665
 10
-9.998367649
 20
6.1121510745
 10
-9.9389906822
 20
6.1065149393
 10
-9.879807644
 20
6.0985328522
 10
-9.8209166739
 20
6.0882150611
 10
-9.7624271616
 20
6.0755715028
 10
-9.704448497
 20
6.0606121144
 10
-9.64709007
 20
6.0433468328
 10
-9.5904612703
 20
6.0237855948
 10
-9.5346714878
 20
6.0019383375
 10
-9.4798260441
 20
5.9778255662
 10
-9.4260139876
 20
5.9515100601
 10
-9.3733202984
 20
5.923065167
 10
-9.3218299565
 20
5.8925642344
 10
-9.2716279421
 20
5.8600806101
 10
-9.2227992353
 20
5.8256876418
 10
-9.1754288162
 20
5.789458677
 10
-9.1295931998
 20
5.7514578365
 10
-9.0853350414
 20
5.7117123334
 10
-9.0426885307
 20
5.6702401537
 10
-9.001687858
 20
5.6270592833
 10
-8.9623672131
 20
5.5821877084
 10
-8.9247607862
 20
5.535643415
 10
-8.8889027672
 20
5.4874443891
 10
-8.8590042136
 20
5.4439563252
 10
-8.8305899311
 20
5.3994032292
 10
-8.8037793893
 20
5.353973203
 10
-8.7786920576
 20
5.3078543485
 10
-8.7554194454
 20
5.2611970919
 10
-8.7339412202
 20
5.214001157
 10
-8.7142090891
 20
5.1662285919
 10
-8.6961747594
 20
5.117841445
 10
-8.6798002772
 20
5.0688033563
 10
-8.6650890443
 20
5.0190843336
 10
-8.6520548015
 20
4.968655977
 10
-8.6407112895
 20
4.9174898862
 10
-8.6310788754
 20
4.86559019
 10
-8.6232044319
 20
4.8130911325
 10
-8.617141458
 20
4.7601594869
 10
-8.6129434528
 20
4.706962026
 10
-8.6106519163
 20
4.6536604285
 10
-8.6102603528
 20
4.6003959941
  0
LINE
  5
336
100
AcDbEntity
  8
CURVE
100
AcDbLine
 62
250
  6
CONTINUOUS
 10
-3.7852253394
 20
15.244878388
 11
-3.5710048618
 21
15.4591640001
  0
LINE
  5
337
100
AcDbEntity
  8
CURVE
100
AcDbLine
 62
250
  6
CONTINUOUS
 10
-2.9283435181
 20
14.9234496122
 11
-3.1425639735
 21
14.7091640001
  0
LINE
  5
338
100
AcDbEntity
  8
CURVE
100
AcDbLine
 62
250
  6
CONTINUOUS
 10
-4.4278866384
 20
12.0305925971
 11
-4.2136662054
 21
12.2448782092
  0
LINE
  5
339
100
AcDbEntity
  8
CURVE
100
AcDbLine
 62
7
  6
CONTINUOUS
 10
-6.6834935889
 20
12.8248340069
 11
-6.5723725741
 21
12.9359550216
  0
LINE
  5
33A
100
AcDbEntity
  8
CURVE
100
AcDbLine
 62
7
  6
CONTINUOUS
 10
-5.447237272
 20
14.0610903237
 11
-5.3606235333
 21
14.1477040625
  0
LINE
  5
33B
100
AcDbEntity
  8
CURVE
100
AcDbLine
 62
7
  6
CONTINUOUS
 10
-6.2151898623
 20
12.8248340069
 11
-6.1040688475
 21
12.9359550216
  0
LINE
  5
33C
100
AcDbEntity
  8
CURVE
100
AcDbLine
 62
7
  6
CONTINUOUS
 10
-5.1635258735
 20
13.8764979957
 11
-5.0896524251
 21
13.9503714441
  0
LINE
  5
33D
100
AcDbEntity
  8
CURVE
100
AcDbLine
 62
7
  6
CONTINUOUS
 10
-6.8100363958
 20
11.7616837467
 11
-6.6084188245
 21
11.963301318
  0
LINE
  5
33E
100
AcDbEntity
  8
CURVE
100
AcDbLine
 62
7
  6
CONTINUOUS
 10
-5.7468861357
 20
12.8248340069
 11
-5.6320305818
 21
12.9396895608
  0
LINE
  5
33F
100
AcDbEntity
  8
CURVE
100
AcDbLine
 62
7
  6
CONTINUOUS
 10
-5.0621257423
 20
13.5095944002
 11
-4.9702193773
 21
13.6015007652
  0
LINE
  5
340
100
AcDbEntity
  8
CURVE
100
AcDbLine
 62
7
  6
CONTINUOUS
 10
-6.8100363958
 20
11.2933800201
 11
-6.6084188245
 21
11.4949975914
  0
LINE
  5
341
100
AcDbEntity
  8
CURVE
100
AcDbLine
 62
7
  6
CONTINUOUS
 10
-6.0363181317
 20
12.0670982842
 11
-5.9707116098
 21
12.1327048061
  0
LINE
  5
342
100
AcDbEntity
  8
CURVE
100
AcDbLine
 62
7
  6
CONTINUOUS
 10
-6.6772458832
 20
10.9578668061
 11
-6.4377528832
 21
11.1973598061
  0
LINE
  5
343
100
AcDbEntity
  8
CURVE
100
AcDbLine
 62
7
  6
CONTINUOUS
 10
-6.0363181317
 20
11.5987945576
 11
-5.8346835656
 21
11.8004291237
  0
LINE
  5
344
100
AcDbEntity
  8
CURVE
100
AcDbLine
 62
7
  6
CONTINUOUS
 10
-6.7751736317
 20
10.391635331
 11
-6.5916785779
 21
10.5751303848
  0
LINE
  5
345
100
AcDbEntity
  8
CURVE
100
AcDbLine
 62
7
  6
CONTINUOUS
 10
-6.2089421566
 20
10.9578668061
 11
-5.8346835656
 21
11.3321253971
  0
LINE
  5
346
100
AcDbEntity
  8
CURVE
100
AcDbLine
 62
7
  6
CONTINUOUS
 10
-5.2121912261
 20
11.9546177366
 11
-5.0105736548
 21
12.1562353079
  0
LINE
  5
347
100
AcDbEntity
  8
CURVE
100
AcDbLine
 62
7
  6
CONTINUOUS
 10
-6.423826546
 20
10.2746786901
 11
-6.2462866388
 21
10.4522185973
  0
LINE
  5
348
100
AcDbEntity
  8
CURVE
100
AcDbLine
 62
7
  6
CONTINUOUS
 10
-5.74063843
 20
10.9578668061
 11
-5.50114543
 21
11.1973598061
  0
LINE
  5
349
100
AcDbEntity
  8
CURVE
100
AcDbLine
 62
7
  6
CONTINUOUS
 10
-5.2121912261
 20
11.48631401
 11
-5.0105736548
 21
11.6879315813
  0
LINE
  5
34A
100
AcDbEntity
  8
CURVE
100
AcDbLine
 62
7
  6
CONTINUOUS
 10
-6.0724794603
 20
10.1577220492
 11
-5.9008946997
 21
10.3293068098
  0
LINE
  5
34B
100
AcDbEntity
  8
CURVE
100
AcDbLine
 62
7
  6
CONTINUOUS
 10
-5.2723347034
 20
10.9578668061
 11
-5.0105736548
 21
11.2196278547
  0
LINE
  5
34C
100
AcDbEntity
  8
CURVE
100
AcDbLine
 62
250
  6
CONTINUOUS
 10
-3.9994457724
 20
11.0663068061
 11
-4.2136662054
 21
10.9591639554
  0
LINE
  5
34D
100
AcDbEntity
  8
CURVE
100
AcDbLine
 62
250
  6
CONTINUOUS
 10
-5.0105686564
 20
9.7402188061
 11
-6.8100313973
 21
9.1049268061
  0
LINE
  5
34E
100
AcDbEntity
  8
CURVE
100
AcDbLine
 62
250
  6
CONTINUOUS
 10
-6.8100313973
 20
9.3645558061
 11
-5.2423653241
 21
9.8813931286
  0
LINE
  5
34F
100
AcDbEntity
  8
0
100
AcDbLine
 62
250
  6
CONTINUOUS
 10
-10.4469803519
 20
-12.9482831939
 11
-9.6765717067
 21
-12.9482831939
  0
LINE
  5
350
100
AcDbEntity
  8
0
100
AcDbLine
 62
250
  6
CONTINUOUS
 10
-6.1437258582
 20
-12.9482831939
 11
-5.3733172131
 21
-12.9482831939
  0
LINE
  5
351
100
AcDbEntity
  8
CURVE
100
AcDbLine
 62
250
  6
CONTINUOUS
 10
-12.2112295135
 20
-12.9336931939
 11
-11.9970090805
 21
-12.9336931939
  0
LINE
  5
352
100
AcDbEntity
  8
CURVE
100
AcDbLine
 62
250
  6
CONTINUOUS
 10
-12.2112295135
 20
-11.8979789252
 11
-11.8898988193
 21
-11.8979789252
  0
LINE
  5
353
100
AcDbEntity
  8
CURVE
100
AcDbLine
 62
250
  6
CONTINUOUS
 10
-11.5685681699
 20
-11.8622645969
 11
-11.0330170539
 21
-11.8622645969
  0
LINE
  5
354
100
AcDbEntity
  8
CURVE
100
AcDbLine
 62
250
  6
CONTINUOUS
 10
-11.9970090805
 20
-11.4336931939
 11
-11.3543477369
 21
-11.4336931939
  0
LINE
  5
355
100
AcDbEntity
  8
CURVE
100
AcDbLine
 62
250
  6
CONTINUOUS
 10
-11.3543477369
 20
-10.6836931939
 11
-11.9970090805
 21
-10.6836931939
  0
LINE
  5
356
100
AcDbEntity
  8
DRAFT
100
AcDbLine
 62
7
  6
CONTINUOUS
 10
26.0898392194
 20
-11.437302163
 11
-1.6589244126
 21
-11.2600203321
  0
LINE
  5
357
100
AcDbEntity
  8
ASSI
100
AcDbLine
 62
7
  6
CONTINUOUS
 10
26.0898392194
 20
-11.437302163
 11
-1.6589244126
 21
-11.2600203321
  0
LINE
  5
358
100
AcDbEntity
  8
DRAFT
100
AcDbLine
 62
7
  6
CONTINUOUS
 10
-1.6667056823
 20
-10.9336646362
 11
26.0898392194
 21
-11.1758923338
  0
LINE
  5
359
100
AcDbEntity
  8
ASSI
100
AcDbLine
 62
7
  6
CONTINUOUS
 10
-1.6667056823
 20
-10.9336646362
 11
26.0898392194
 21
-11.1758923338
  0
LINE
  5
35A
100
AcDbEntity
  8
CURVE
100
AcDbLine
 62
250
  6
CONTINUOUS
 10
-12.4254499465
 20
-9.397978806
 11
-10.9259068262
 21
-9.8265503878
  0
LINE
  5
35B
100
AcDbEntity
  8
CURVE
100
AcDbLine
 62
250
  6
CONTINUOUS
 10
-12.0505641664
 20
-7.5430681939
 11
-12.1911463339
 21
-7.4961931939
  0
LINE
  5
35C
100
AcDbEntity
  8
CURVE
100
AcDbLine
 62
250
  6
CONTINUOUS
 10
-11.3945140513
 20
-7.6836931939
 11
-11.5350962188
 21
-7.6368181939
  0
LINE
  5
35D
100
AcDbEntity
  8
CURVE
100
AcDbLine
 62
250
  6
CONTINUOUS
 10
-11.5350962188
 20
-7.6368181939
 11
-11.6288176638
 21
-7.5430681939
  0
LINE
  5
35E
100
AcDbEntity
  8
CURVE
100
AcDbLine
 62
250
  6
CONTINUOUS
 10
-11.1602104388
 20
-6.7461931939
 11
-11.0664889937
 21
-6.8399431939
  0
LINE
  5
35F
100
AcDbEntity
  8
CURVE
100
AcDbLine
 62
250
  6
CONTINUOUS
 10
-11.0664889937
 20
-6.8399431939
 11
-10.9727675487
 21
-6.9805681939
  0
LINE
  5
360
100
AcDbEntity
  8
CURVE
100
AcDbLine
 62
250
  6
CONTINUOUS
 10
-11.6288176638
 20
-7.5430681939
 11
-11.7225391089
 21
-7.3555681939
  0
LINE
  5
361
100
AcDbEntity
  8
CURVE
100
AcDbLine
 62
250
  6
CONTINUOUS
 10
-11.4971613589
 20
-8.7194074625
 11
-11.3900511424
 21
-8.9694075817
  0
LINE
  5
362
100
AcDbEntity
  8
CURVE
100
AcDbLine
 62
250
  6
CONTINUOUS
 10
-11.3900511424
 20
-8.1479789252
 11
-11.2829409035
 21
-8.4336931939
  0
LINE
  5
363
100
AcDbEntity
  8
CURVE
100
AcDbLine
 62
250
  6
CONTINUOUS
 10
-12.284867779
 20
-7.4024431939
 11
-12.3317285015
 21
-7.2618181939
  0
LINE
  5
364
100
AcDbEntity
  8
CURVE
100
AcDbLine
 62
250
  6
CONTINUOUS
 10
-11.7225391089
 20
-7.3555681939
 11
-11.7693998314
 21
-7.1680681939
  0
LINE
  5
365
100
AcDbEntity
  8
CURVE
100
AcDbLine
 62
250
  6
CONTINUOUS
 10
-10.9727675487
 20
-6.9805681939
 11
-10.9259068262
 21
-7.1680681939
  0
LWPOLYLINE
  5
366
100
AcDbEntity
  8
0
100
AcDbPolyline
 62
250
  6
CONTINUOUS
 90
17
 70
0
 10
-9.6833383139
 20
-13.4059319926
 10
-9.6102128317
 20
-13.7465393599
 10
-9.4693103503
 20
-14.0719028791
 10
-9.2668870162
 20
-14.3629927062
 10
-9.0109299788
 20
-14.6083231203
 10
-8.7171003184
 20
-14.7954064439
 10
-8.3865331949
 20
-14.923519913
 10
-8.0371690616
 20
-14.9837568825
 10
-7.6827930064
 20
-14.9737405429
 10
-7.3373878761
 20
-14.8938661156
 10
-7.0199767538
 20
-14.750402437
 10
-6.7317859022
 20
-14.543903754
 10
-6.4900904816
 20
-14.2845073331
 10
-6.3044272255
 20
-13.9824483478
 10
-6.1836903549
 20
-13.6556754746
 10
-6.1283463156
 20
-13.3054511437
 10
-6.1437258584
 20
-12.9482831928
  0
LINE
  5
367
100
AcDbEntity
  8
0
100
AcDbLine
 62
250
  6
CONTINUOUS
 10
-11.2380680269
 20
-3.1158061939
 11
-11.2380680269
 21
-2.7657461939
  0
LINE
  5
368
100
AcDbEntity
  8
CURVE
100
AcDbLine
 62
250
  6
CONTINUOUS
 10
-10.9259068262
 20
-13.6836931939
 11
-10.9259068262
 21
-12.9336931939
  0
LINE
  5
369
100
AcDbEntity
  8
CURVE
100
AcDbLine
 62
250
  6
CONTINUOUS
 10
-10.9259068262
 20
-11.1122645969
 11
-10.9259068262
 21
-11.0051217908
  0
LINE
  5
36A
100
AcDbEntity
  8
CURVE
100
AcDbLine
 62
250
  6
CONTINUOUS
 10
-10.9259068262
 20
-7.1680681939
 11
-10.9259068262
 21
-7.3086931939
  0
LINE
  5
36B
100
AcDbEntity
  8
CURVE
100
AcDbLine
 62
250
  6
CONTINUOUS
 10
-10.9259068262
 20
-11.9694074029
 11
-10.9259068262
 21
-12.5051217908
  0
LINE
  5
36C
100
AcDbEntity
  8
0
100
AcDbLine
 62
250
  6
CONTINUOUS
 10
-10.865660755
 20
-2.7657461939
 11
-10.865660755
 21
-3.1158061939
  0
LINE
  5
36D
100
AcDbEntity
  8
0
100
AcDbLine
 62
250
  6
CONTINUOUS
 10
-10.7732588304
 20
-4.3956231939
 11
-10.7732588304
 21
-3.5722831939
  0
LINE
  5
36E
100
AcDbEntity
  8
0
100
AcDbLine
 62
250
  6
CONTINUOUS
 10
-10.5576556728
 20
-3.5722831939
 11
-10.5576556728
 21
-4.3956231939
  0
LINE
  5
36F
100
AcDbEntity
  8
RACCORDO
100
AcDbLine
 62
7
  6
CONTINUOUS
 10
-9.9101607806
 20
-22.8135597965
 11
-9.9101607806
 21
-21.5802326465
  0
LINE
  5
370
100
AcDbEntity
  8
RACCORDO
100
AcDbLine
 62
7
  6
CONTINUOUS
 10
-9.9101607806
 20
22.4461734088
 11
-9.9101607806
 21
21.2128462588
  0
LINE
  5
371
100
AcDbEntity
  8
0
100
AcDbLine
 62
7
  6
CONTINUOUS
 10
-9.9101607806
 20
22.4461734088
 11
-9.9101607806
 21
23.2464865464
  0
LINE
  5
372
100
AcDbEntity
  8
ASSI
100
AcDbLine
 62
7
  6
CONTINUOUS
 10
-9.9101607806
 20
21.2128462588
 11
-9.9101607806
 21
23.2464865464
  0
LINE
  5
373
100
AcDbEntity
  8
0
100
AcDbLine
 62
7
  6
CONTINUOUS
 10
-9.9101607806
 20
-22.8135597965
 11
-9.9101607806
 21
-23.6138729341
  0
LINE
  5
374
100
AcDbEntity
  8
ASSI
100
AcDbLine
 62
7
  6
CONTINUOUS
 10
-9.9101607806
 20
-21.5802326465
 11
-9.9101607806
 21
-23.6138729341
  0
LWPOLYLINE
  5
375
100
AcDbEntity
  8
0
100
AcDbPolyline
 62
250
  6
CONTINUOUS
 90
17
 70
0
 10
-10.4469803519
 20
-8.6132831939
 10
-10.4481890047
 20
-9.1109545214
 10
-10.3501579886
 20
-9.6079055985
 10
-10.1558499414
 20
-10.075672913
 10
-9.8729318021
 20
-10.4957994657
 10
-9.512566856
 20
-10.8517080497
 10
-9.0968584879
 20
-11.1252260776
 10
-8.627412715
 20
-11.3152968601
 10
-8.1296653923
 20
-11.408814232
 10
-7.6232564598
 20
-11.4020882174
 10
-7.1281676245
 20
-11.2953842091
 10
-6.6717057436
 20
-11.0972497077
 10
-6.2556342783
 20
-10.8084501713
 10
-5.9048460685
 20
-10.443096204
 10
-5.6331823929
 20
-10.0156038148
 10
-5.4513624618
 20
-9.5428408493
 10
-5.3666118346
 20
-9.0442059811
  0
LWPOLYLINE
  5
376
100
AcDbEntity
  8
0
100
AcDbPolyline
 62
250
  6
CONTINUOUS
 90
17
 70
0
 10
-10.4469803519
 20
-12.9482831939
 10
-10.4481890047
 20
-13.4459545214
 10
-10.3501579886
 20
-13.9429055985
 10
-10.1558499414
 20
-14.410672913
 10
-9.8729318021
 20
-14.8307994657
 10
-9.512566856
 20
-15.1867080497
 10
-9.0968584879
 20
-15.4602260776
 10
-8.627412715
 20
-15.6502968601
 10
-8.1296653923
 20
-15.743814232
 10
-7.6232564598
 20
-15.7370882174
 10
-7.1281676245
 20
-15.6303842091
 10
-6.6717057436
 20
-15.4322497077
 10
-6.2556342783
 20
-15.1434501713
 10
-5.9048460685
 20
-14.778096204
 10
-5.6331823929
 20
-14.3506038148
 10
-5.4513624618
 20
-13.8778408493
 10
-5.3666118346
 20
-13.3792059811
  0
LWPOLYLINE
  5
377
100
AcDbEntity
  8
0
100
AcDbPolyline
 62
250
  6
CONTINUOUS
 90
8
 70
0
 10
-9.6765717067
 20
-8.6132831939
 10
-9.6905582404
 20
-8.9923879681
 10
-9.6241268632
 20
-9.3658871517
 10
-9.4802781617
 20
-9.7169104545
 10
-9.2614481227
 20
-10.0343275192
 10
-8.9845536859
 20
-10.2936000081
 10
-8.6591303013
 20
-10.4884934859
 10
-8.2925905864
 20
-10.6118196364
  0
LINE
  5
378
100
AcDbEntity
  8
CURVE
100
AcDbLine
 62
250
  6
CONTINUOUS
 10
-12.3317285015
 20
-7.1680681939
 11
-12.284867779
 21
-6.9805681939
  0
LINE
  5
379
100
AcDbEntity
  8
CURVE
100
AcDbLine
 62
250
  6
CONTINUOUS
 10
-12.284867779
 20
-6.9805681939
 11
-12.2380070564
 21
-6.8399431939
  0
LINE
  5
37A
100
AcDbEntity
  8
CURVE
100
AcDbLine
 62
250
  6
CONTINUOUS
 10
-11.7693998314
 20
-7.2149431939
 11
-11.8162605539
 21
-7.3555681939
  0
LWPOLYLINE
  5
37B
100
AcDbEntity
  8
0
100
AcDbPolyline
 62
250
  6
CONTINUOUS
 90
35
 70
0
 10
-8.5820450095
 20
3.325944428
 10
-8.5569186296
 20
3.3562658828
 10
-8.5325381091
 20
3.3868897878
 10
-8.5088750786
 20
3.4178402756
 10
-8.4859011686
 20
3.4491414787
 10
-8.4635880099
 20
3.4808175297
 10
-8.4419072328
 20
3.5128925612
 10
-8.4166957087
 20
3.5519346485
 10
-8.3923685916
 20
3.5915762198
 10
-8.3689405109
 20
3.6318074762
 10
-8.3464260957
 20
3.6726186191
 10
-8.3248399754
 20
3.7139998496
 10
-8.3075720686
 20
3.7489103569
 10
-8.2909725861
 20
3.7841906887
 10
-8.2750551437
 20
3.8198215798
 10
-8.2598333574
 20
3.8557837654
 10
-8.245320843
 20
3.8920579804
 10
-8.2315312163
 20
3.9286249597
 10
-8.2184761277
 20
3.9654647128
 10
-8.2061593653
 20
4.0025543465
 10
-8.1945827516
 20
4.039870242
 10
-8.1837481093
 20
4.0773887806
 10
-8.1736572609
 20
4.1150863435
 10
-8.1643120291
 20
4.152939312
 10
-8.1540833863
 20
4.1985386564
 10
-8.1449273381
 20
4.2443103738
 10
-8.1368401669
 20
4.290237064
 10
-8.129818155
 20
4.3363013272
 10
-8.1238575847
 20
4.3824857632
 10
-8.1197000421
 20
4.4210599335
 10
-8.1162836258
 20
4.4597427729
 10
-8.1136149316
 20
4.4985715807
 10
-8.1117005553
 20
4.5375836559
 10
-8.1105470926
 20
4.5768162978
 10
-8.1101611393
 20
4.6163068054
  0
LINE
  5
37C
100
AcDbEntity
  8
CURVE
100
AcDbLine
 62
250
  6
CONTINUOUS
 10
-3.5710048618
 20
11.7091639107
 11
-3.7852253394
 21
11.4948782092
  0
LINE
  5
37D
100
AcDbEntity
  8
CURVE
100
AcDbLine
 62
250
  6
CONTINUOUS
 10
-4.2136662054
 20
10.9591639554
 11
-4.4278866384
 21
10.7448782539
  0
LINE
  5
37E
100
AcDbEntity
  8
CURVE
100
AcDbLine
 62
250
  6
CONTINUOUS
 10
-3.1425639735
 20
10.4234496681
 11
-2.9283435181
 21
10.6377353808
  0
LINE
  5
37F
100
AcDbEntity
  8
CURVE
100
AcDbLine
 62
7
  6
CONTINUOUS
 10
-6.5734453758
 20
9.1884524071
 11
-6.1943657116
 21
9.5675320713
  0
LINE
  5
380
100
AcDbEntity
  8
CURVE
100
AcDbLine
 62
7
  6
CONTINUOUS
 10
-5.7211323746
 20
10.0407654083
 11
-5.5555027607
 21
10.2063950222
  0
LINE
  5
381
100
AcDbEntity
  8
CURVE
100
AcDbLine
 62
7
  6
CONTINUOUS
 10
-6.8100363958
 20
8.4835576605
 11
-6.6084188245
 21
8.6851752318
  0
LINE
  5
382
100
AcDbEntity
  8
CURVE
100
AcDbLine
 62
7
  6
CONTINUOUS
 10
-5.8495866858
 20
9.4440073705
 11
-5.4957325008
 21
9.7978615555
  0
LINE
  5
383
100
AcDbEntity
  8
CURVE
100
AcDbLine
 62
7
  6
CONTINUOUS
 10
-5.3697852889
 20
9.9238087674
 11
-5.2101108216
 21
10.0834832347
  0
LINE
  5
384
100
AcDbEntity
  8
CURVE
100
AcDbLine
 62
7
  6
CONTINUOUS
 10
-6.8100363958
 20
8.0152539339
 11
-6.6084188245
 21
8.2168715052
  0
LINE
  5
385
100
AcDbEntity
  8
CURVE
100
AcDbLine
 62
7
  6
CONTINUOUS
 10
-6.0363181317
 20
8.7889721979
 11
-6.0001655235
 21
8.8251248061
  0
LINE
  5
386
100
AcDbEntity
  8
CURVE
100
AcDbLine
 62
7
  6
CONTINUOUS
 10
-5.1257279958
 20
9.6995623338
 11
-5.0105686564
 21
9.8147216733
  0
LINE
  5
387
100
AcDbEntity
  8
CURVE
100
AcDbLine
 62
7
  6
CONTINUOUS
 10
-6.7066647969
 20
7.6503218061
 11
-6.4671537969
 21
7.8898328061
  0
LINE
  5
388
100
AcDbEntity
  8
CURVE
100
AcDbLine
 62
7
  6
CONTINUOUS
 10
-6.0363181317
 20
8.3206684713
 11
-5.8346835656
 21
8.5223030374
  0
LINE
  5
389
100
AcDbEntity
  8
CURVE
100
AcDbLine
 62
7
  6
CONTINUOUS
 10
-6.8100363958
 20
7.0786464806
 11
-6.7399890703
 21
7.1486938061
  0
LINE
  5
38A
100
AcDbEntity
  8
CURVE
100
AcDbLine
 62
7
  6
CONTINUOUS
 10
-6.2383610703
 20
7.6503218061
 11
-5.8346835656
 21
8.0539993108
  0
LINE
  5
38B
100
AcDbEntity
  8
CURVE
100
AcDbLine
 62
7
  6
CONTINUOUS
 10
-5.2121912261
 20
8.6764916503
 11
-5.0105736548
 21
8.8781092216
  0
LINE
  5
38C
100
AcDbEntity
  8
CURVE
100
AcDbLine
 62
7
  6
CONTINUOUS
 10
-6.4985843437
 20
6.9217948061
 11
-6.2716853437
 21
7.1486938061
  0
LINE
  5
38D
100
AcDbEntity
  8
CURVE
100
AcDbLine
 62
7
  6
CONTINUOUS
 10
-5.7700573437
 20
7.6503218061
 11
-5.5305463437
 21
7.8898328061
  0
LINE
  5
38E
100
AcDbEntity
  8
CURVE
100
AcDbLine
 62
7
  6
CONTINUOUS
 10
-5.2121912261
 20
8.2081879237
 11
-5.0105736548
 21
8.409805495
  0
LINE
  5
38F
100
AcDbEntity
  8
CURVE
100
AcDbLine
 62
7
  6
CONTINUOUS
 10
-6.0302806171
 20
6.9217948061
 11
-5.8033816171
 21
7.1486938061
  0
LINE
  5
390
100
AcDbEntity
  8
CURVE
100
AcDbLine
 62
7
  6
CONTINUOUS
 10
-5.3017536171
 20
7.6503218061
 11
-5.0105736548
 21
7.9415017684
  0
LINE
  5
391
100
AcDbEntity
  8
CURVE
100
AcDbLine
 62
7
  6
CONTINUOUS
 10
-6.7695608905
 20
5.7142108061
 11
-5.9678462404
 21
6.5159254562
  0
LINE
  5
392
100
AcDbEntity
  8
CURVE
100
AcDbLine
 62
7
  6
CONTINUOUS
 10
-5.5619768905
 20
6.9217948061
 11
-5.3350778905
 21
7.1486938061
  0
LINE
  5
393
100
AcDbEntity
  8
CURVE
100
AcDbLine
 62
250
  6
CONTINUOUS
 10
-5.0105736548
 20
6.8865058061
 11
-6.4624506303
 21
5.9410928061
  0
LINE
  5
394
100
AcDbEntity
  8
CURVE
100
AcDbLine
 62
250
  6
CONTINUOUS
 10
-6.8100363958
 20
5.9688398061
 11
-5.3430461367
 21
6.9217948061
  0
LINE
  5
395
100
AcDbEntity
  8
CURVE
100
AcDbLine
 62
250
  6
CONTINUOUS
 10
-3.3567844288
 20
10.3163068061
 11
-3.1425639735
 21
10.4234496681
  0
LWPOLYLINE
  5
396
100
AcDbEntity
  8
DRAFT
100
AcDbPolyline
 62
7
  6
CONTINUOUS
 90
34
 70
0
 10
-1.6589244126
 20
-9.1073660557
 10
-1.7636330935
 20
-9.1133055377
 10
-1.8652706952
 20
-9.1285488919
 10
-1.9638372175
 20
-9.153096118
 10
-2.0601134629
 20
-9.1873959765
 10
-2.153318629
 20
-9.230999707
 10
-2.2411103087
 20
-9.2825610287
 10
-2.3232955713
 20
-9.3421995058
 10
-2.4000673475
 20
-9.4097955741
 10
-2.4696620223
 20
-9.4836442599
 10
-2.532063909
 20
-9.564069412
 10
-2.5872886944
 20
-9.6507471816
 10
-2.6336198238
 20
-9.7410010492
 10
-2.6706285197
 20
-9.8345101589
 10
-2.6987435596
 20
-9.9315953666
 10
-2.7175347214
 20
-10.0305427203
 10
-2.7268585978
 20
-10.1320223333
 10
-2.726858596
 20
-10.2353640922
 10
-2.717534716
 20
-10.3368437052
 10
-2.6987435498
 20
-10.4357910599
 10
-2.6706285053
 20
-10.5328762688
 10
-2.6336198064
 20
-10.6263853771
 10
-2.587288677
 20
-10.7166392386
 10
-2.5320638933
 20
-10.8033169996
 10
-2.4696620078
 20
-10.8837421447
 10
-2.4000673325
 20
-10.9575908273
 10
-2.3232955555
 20
-11.0251868939
 10
-2.2411102933
 20
-11.0848253691
 10
-2.1533186166
 20
-11.1363866878
 10
-2.0601134548
 20
-11.179990415
 10
-1.9638372129
 20
-11.2142902711
 10
-1.8652706928
 20
-11.238837496
 10
-1.7636330927
 20
-11.2540808496
 10
-1.6589244126
 20
-11.2600203321
  0
LWPOLYLINE
  5
397
100
AcDbEntity
  8
ASSI
100
AcDbPolyline
 62
7
  6
CONTINUOUS
 90
34
 70
0
 10
-1.6589244126
 20
-9.1073660557
 10
-1.7636330935
 20
-9.1133055377
 10
-1.8652706952
 20
-9.1285488919
 10
-1.9638372175
 20
-9.153096118
 10
-2.0601134629
 20
-9.1873959765
 10
-2.153318629
 20
-9.230999707
 10
-2.2411103087
 20
-9.2825610287
 10
-2.3232955713
 20
-9.3421995058
 10
-2.4000673475
 20
-9.4097955741
 10
-2.4696620223
 20
-9.4836442599
 10
-2.532063909
 20
-9.564069412
 10
-2.5872886944
 20
-9.6507471816
 10
-2.6336198238
 20
-9.7410010492
 10
-2.6706285197
 20
-9.8345101589
 10
-2.6987435596
 20
-9.9315953666
 10
-2.7175347214
 20
-10.0305427203
 10
-2.7268585978
 20
-10.1320223333
 10
-2.726858596
 20
-10.2353640922
 10
-2.717534716
 20
-10.3368437052
 10
-2.6987435498
 20
-10.4357910599
 10
-2.6706285053
 20
-10.5328762688
 10
-2.6336198064
 20
-10.6263853771
 10
-2.587288677
 20
-10.7166392386
 10
-2.5320638933
 20
-10.8033169996
 10
-2.4696620078
 20
-10.8837421447
 10
-2.4000673325
 20
-10.9575908273
 10
-2.3232955555
 20
-11.0251868939
 10
-2.2411102933
 20
-11.0848253691
 10
-2.1533186166
 20
-11.1363866878
 10
-2.0601134548
 20
-11.179990415
 10
-1.9638372129
 20
-11.2142902711
 10
-1.8652706928
 20
-11.238837496
 10
-1.7636330927
 20
-11.2540808496
 10
-1.6589244126
 20
-11.2600203321
  0
LINE
  5
398
100
AcDbEntity
  8
DRAFT
100
AcDbLine
 62
7
  6
CONTINUOUS
 10
26.0898392194
 20
-9.1914940539
 11
-1.6667056823
 21
-9.4337217516
  0
LINE
  5
399
100
AcDbEntity
  8
ASSI
100
AcDbLine
 62
7
  6
CONTINUOUS
 10
26.0898392194
 20
-9.1914940539
 11
-1.6667056823
 21
-9.4337217516
  0
LINE
  5
39A
100
AcDbEntity
  8
DRAFT
100
AcDbLine
 62
7
  6
CONTINUOUS
 10
26.0898392194
 20
-8.9300842247
 11
-1.6589244126
 21
-9.1073660557
  0
LINE
  5
39B
100
AcDbEntity
  8
ASSI
100
AcDbLine
 62
7
  6
CONTINUOUS
 10
26.0898392194
 20
-8.9300842247
 11
-1.6589244126
 21
-9.1073660557
  0
LINE
  5
39C
100
AcDbEntity
  8
0
100
AcDbLine
 62
250
  6
CONTINUOUS
 10
-8.2925905259
 20
-9.1232831939
 11
-7.5277070391
 21
-9.1232831939
  0
LINE
  5
39D
100
AcDbEntity
  8
0
100
AcDbLine
 62
250
  6
CONTINUOUS
 10
-10.4469803519
 20
-8.6132831939
 11
-9.6765717067
 21
-8.6132831939
  0
LINE
  5
39E
100
AcDbEntity
  8
0
100
AcDbLine
 62
250
  6
CONTINUOUS
 10
-6.1437258582
 20
-8.6132831939
 11
-5.3733172131
 21
-8.6132831939
  0
LINE
  5
39F
100
AcDbEntity
  8
DRAFT
100
AcDbLine
 62
7
  6
CONTINUOUS
 10
-24.6310877228
 20
-7.5283908532
 11
-23.3548889871
 21
-7.6176313622
  0
LINE
  5
3A0
100
AcDbEntity
  8
RACCORDO
100
AcDbLine
 62
7
  6
CONTINUOUS
 10
-24.9101607806
 20
-7.5086931939
 11
-31.6043525717
 21
-7.0405897034
  0
LINE
  5
3A1
100
AcDbEntity
  8
0
100
AcDbLine
 62
250
  6
CONTINUOUS
 10
-7.4995645059
 20
-6.5593151939
 11
-12.5090794163
 21
-1.6226831939
  0
LINE
  5
3A2
100
AcDbEntity
  8
0
100
AcDbLine
 62
7
  6
CONTINUOUS
 10
-8.3101607806
 20
22.0163068061
 11
-8.3101607806
 21
20.9883787023
  0
LINE
  5
3A3
100
AcDbEntity
  8
ASSI
100
AcDbLine
 62
7
  6
CONTINUOUS
 10
-8.3101607806
 20
22.0163068061
 11
-8.3101607806
 21
20.9883787023
  0
LINE
  5
3A4
100
AcDbEntity
  8
0
100
AcDbLine
 62
7
  6
CONTINUOUS
 10
-8.3101607806
 20
-22.3836931939
 11
-8.3101607806
 21
-21.35576509
  0
LINE
  5
3A5
100
AcDbEntity
  8
ASSI
100
AcDbLine
 62
7
  6
CONTINUOUS
 10
-8.3101607806
 20
-22.3836931939
 11
-8.3101607806
 21
-21.35576509
  0
LINE
  5
3A6
100
AcDbEntity
  8
0
100
AcDbLine
 62
250
  6
CONTINUOUS
 10
-8.2925905259
 20
-9.1232831939
 11
-8.2925905259
 21
-10.6118191939
  0
LINE
  5
3A7
100
AcDbEntity
  8
0
100
AcDbLine
 62
250
  6
CONTINUOUS
 10
-8.2392138365
 20
-4.9585191939
 11
-8.2392138365
 21
-3.6126521939
  0
LINE
  5
3A8
100
AcDbEntity
  8
0
100
AcDbLine
 62
250
  6
CONTINUOUS
 10
-8.0427957565
 20
-4.7841901939
 11
-8.0427957565
 21
-4.9018101939
  0
LINE
  5
3A9
100
AcDbEntity
  8
0
100
AcDbLine
 62
250
  6
CONTINUOUS
 10
-7.5277070391
 20
-9.1232831939
 11
-7.5277070391
 21
-10.6118191939
  0
LINE
  5
3AA
100
AcDbEntity
  8
0
100
AcDbLine
 62
250
  6
CONTINUOUS
 10
-7.1101607806
 20
2.6163060882
 11
-7.1101607806
 21
1.6163068061
  0
LINE
  5
3AB
100
AcDbEntity
  8
CURVE
100
AcDbLine
 62
250
  6
CONTINUOUS
 10
-6.8117196924
 20
12.8248340069
 11
-6.8117196924
 21
12.9359550216
  0
LINE
  5
3AC
100
AcDbEntity
  8
CURVE
100
AcDbLine
 62
250
  6
CONTINUOUS
 10
-6.8117196924
 20
14.0927048613
 11
-6.8117196924
 21
14.2038248345
  0
LINE
  5
3AD
100
AcDbEntity
  8
CURVE
100
AcDbLine
 62
250
  6
CONTINUOUS
 10
-6.8117144865
 20
14.5218965407
 11
-6.8117144865
 21
15.2897077269
  0
LINE
  5
3AE
100
AcDbEntity
  8
CURVE
100
AcDbLine
 62
250
  6
CONTINUOUS
 10
-6.8100363958
 20
5.7142108061
 11
-6.8100363958
 21
5.9688398061
  0
LINE
  5
3AF
100
AcDbEntity
  8
CURVE
100
AcDbLine
 62
250
  6
CONTINUOUS
 10
-6.8100363958
 20
6.9217948061
 11
-6.8100363958
 21
7.1486938061
  0
LINE
  5
3B0
100
AcDbEntity
  8
CURVE
100
AcDbLine
 62
250
  6
CONTINUOUS
 10
-6.8100363958
 20
7.6503218061
 11
-6.8100363958
 21
8.8931938061
  0
LINE
  5
3B1
100
AcDbEntity
  8
CURVE
100
AcDbLine
 62
250
  6
CONTINUOUS
 10
-6.8100363958
 20
10.9578668061
 11
-6.8100363958
 21
12.2007218061
  0
LINE
  5
3B2
100
AcDbEntity
  8
CURVE
100
AcDbLine
 62
250
  6
CONTINUOUS
 10
-6.8100313973
 20
9.1049268061
 11
-6.8100313973
 21
9.3645558061
  0
LINE
  5
3B3
100
AcDbEntity
  8
CURVE
100
AcDbLine
 62
250
  6
CONTINUOUS
 10
-6.8100313973
 20
10.4032388061
 11
-6.8100313973
 21
10.6528338061
  0
LINE
  5
3B4
100
AcDbEntity
  8
CURVE
100
AcDbLine
 62
250
  6
CONTINUOUS
 10
-6.7157588617
 20
15.282114133
 11
-6.7157588617
 21
14.6330862946
  0
LINE
  5
3B5
100
AcDbEntity
  8
CURVE
100
AcDbLine
 62
250
  6
CONTINUOUS
 10
-6.6084188245
 20
12.2007218061
 11
-6.6084188245
 21
11.1973598061
  0
LINE
  5
3B6
100
AcDbEntity
  8
CURVE
100
AcDbLine
 62
250
  6
CONTINUOUS
 10
-6.6084188245
 20
8.8931938061
 11
-6.6084188245
 21
7.8898328061
  0
LINE
  5
3B7
100
AcDbEntity
  8
0
100
AcDbLine
 62
250
  6
CONTINUOUS
 10
-6.4290175802
 20
-6.2760551939
 11
-6.4290175802
 21
-2.0913311939
  0
LWPOLYLINE
  5
3B8
100
AcDbEntity
  8
0
100
AcDbPolyline
 62
250
  6
CONTINUOUS
 90
31
 70
0
 10
-7.1101607806
 20
4.6163068054
 10
-7.1108030067
 20
4.5538537633
 10
-7.1127227387
 20
4.4917854648
 10
-7.1159095573
 20
4.4300359579
 10
-7.120353043
 20
4.3685392901
 10
-7.1260427766
 20
4.3072295092
 10
-7.1329704823
 20
4.246054905
 10
-7.1411364588
 20
4.185020736
 10
-7.1505431482
 20
4.1241465028
 10
-7.161192993
 20
4.063451706
 10
-7.1730884354
 20
4.0029558463
 10
-7.1862310716
 20
3.9426815604
 10
-7.2006191138
 20
3.8826640308
 10
-7.2162499283
 20
3.8229415758
 10
-7.2331208813
 20
3.763552514
 10
-7.251229339
 20
3.704535164
 10
-7.2705696953
 20
3.645926917
 10
-7.291124455
 20
3.5877614554
 10
-7.3128731507
 20
3.5300715342
 10
-7.3357953151
 20
3.4728899085
 10
-7.3598704805
 20
3.4162493334
 10
-7.3850791911
 20
3.3601792937
 10
-7.4114060367
 20
3.3046961933
 10
-7.4388366187
 20
3.249813166
 10
-7.4673565384
 20
3.1955433452
 10
-7.4969513971
 20
3.1418998647
 10
-7.5276167196
 20
3.0888856483
 10
-7.5593877246
 20
3.0364627801
 10
-7.5923095542
 20
2.9845831344
 10
-7.6264273505
 20
2.9331985855
 10
-7.6617862556
 20
2.8822610076
  0
LWPOLYLINE
  5
3B9
100
AcDbEntity
  8
CURVE
100
AcDbPolyline
 62
250
  6
CONTINUOUS
 90
89
 70
0
 10
-6.7157588617
 20
15.282114133
 10
-6.7155520601
 20
15.2969762142
 10
-6.7149286518
 20
15.3119469224
 10
-6.7138841313
 20
15.3269971368
 10
-6.7124139931
 20
15.3420977366
 10
-6.7105137319
 20
15.357219601
 10
-6.7081788421
 20
15.372333609
 10
-6.7054048184
 20
15.3874106399
 10
-6.7021871553
 20
15.4024215728
 10
-6.6985213473
 20
15.4173372869
 10
-6.694402889
 20
15.4321286613
 10
-6.689827275
 20
15.4467665752
 10
-6.6847899998
 20
15.4612219077
 10
-6.679286558
 20
15.475465538
 10
-6.6733124442
 20
15.4894683453
 10
-6.6668631528
 20
15.5032012087
 10
-6.6599341785
 20
15.5166350073
 10
-6.6525210158
 20
15.5297406205
 10
-6.6446191593
 20
15.5424889272
 10
-6.6362241035
 20
15.5548508066
 10
-6.627331343
 20
15.566797138
 10
-6.6179363723
 20
15.5782988004
 10
-6.6080346861
 20
15.589326673
 10
-6.5976861093
 20
15.5997989079
 10
-6.5868555637
 20
15.6097733135
 10
-6.5755665992
 20
15.6192493618
 10
-6.5638427655
 20
15.6282265245
 10
-6.5517076126
 20
15.6367042735
 10
-6.5391846904
 20
15.6446820805
 10
-6.5262975488
 20
15.6521594174
 10
-6.5130697375
 20
15.659135756
 10
-6.4995248066
 20
15.6656105681
 10
-6.4856863058
 20
15.6715833255
 10
-6.4715777851
 20
15.6770535
 10
-6.4572227943
 20
15.6820205635
 10
-6.4426448833
 20
15.6864839877
 10
-6.427867602
 20
15.6904432444
 10
-6.4129145002
 20
15.6938978055
 10
-6.3978091279
 20
15.6968471428
 10
-6.3825750349
 20
15.6992907281
 10
-6.3672357711
 20
15.7012280331
 10
-6.3518148863
 20
15.7026585298
 10
-6.3363359305
 20
15.7035816899
 10
-6.3208224535
 20
15.7039969852
 10
-6.3052980052
 20
15.7039038876
 10
-6.2898368325
 20
15.703305075
 10
-6.2744110286
 20
15.7022025623
 10
-6.2590434663
 20
15.7005982413
 10
-6.2437570181
 20
15.6984940042
 10
-6.2285745566
 20
15.6958917427
 10
-6.2135189545
 20
15.692793349
 10
-6.1986130844
 20
15.6892007149
 10
-6.1838798189
 20
15.6851157325
 10
-6.1693420306
 20
15.6805402936
 10
-6.1550225921
 20
15.6754762903
 10
-6.1409443761
 20
15.6699256144
 10
-6.1271302551
 20
15.6638901581
 10
-6.1136031018
 20
15.6573718131
 10
-6.1003857888
 20
15.6503724716
 10
-6.0875011887
 20
15.6428940254
 10
-6.074972174
 20
15.6349383665
 10
-6.0628216176
 20
15.6265073869
 10
-6.0510723918
 20
15.6176029786
 10
-6.0397473694
 20
15.6082270334
 10
-6.028869423
 20
15.5983814434
 10
-6.0184614252
 20
15.5880681005
 10
-6.0085462486
 20
15.5772888968
 10
-5.9990401757
 20
15.5659225999
 10
-5.9900537497
 20
15.5541098206
 10
-5.9815794078
 20
15.5418784063
 10
-5.9736095873
 20
15.5292562046
 10
-5.9661367254
 20
15.5162710628
 10
-5.9591532592
 20
15.5029508283
 10
-5.9526516259
 20
15.4893233486
 10
-5.9466242628
 20
15.4754164711
 10
-5.9410636071
 20
15.4612580433
 10
-5.9359620959
 20
15.4468759125
 10
-5.9313121665
 20
15.4322979262
 10
-5.927106256
 20
15.4175519318
 10
-5.9233368018
 20
15.4026657768
 10
-5.9199962409
 20
15.3876673086
 10
-5.9170770106
 20
15.3725843746
 10
-5.914571548
 20
15.3574448222
 10
-5.9124722905
 20
15.3422764989
 10
-5.9107716751
 20
15.3271072522
 10
-5.9094621392
 20
15.3119649293
 10
-5.9085361198
 20
15.2968773778
 10
-5.9079860542
 20
15.2818724452
 10
-5.9078043796
 20
15.2669779787
  0
LWPOLYLINE
  5
3BA
100
AcDbEntity
  8
0
100
AcDbPolyline
 62
250
  6
CONTINUOUS
 90
38
 70
0
 10
-8.6102603528
 20
4.6003959941
 10
-8.6110457179
 20
4.5649742794
 10
-8.6126618157
 20
4.5296699746
 10
-8.6151031663
 20
4.4945234369
 10
-8.6183630444
 20
4.4595709957
 10
-8.6224297435
 20
4.4248328703
 10
-8.6272903114
 20
4.3903252522
 10
-8.6329317963
 20
4.356064333
 10
-8.639341246
 20
4.3220663041
 10
-8.6465057087
 20
4.2883473572
 10
-8.6544166548
 20
4.2549121804
 10
-8.6630832452
 20
4.2217194488
 10
-8.6725190631
 20
4.1887163341
 10
-8.6827357628
 20
4.1558624647
 10
-8.6937372826
 20
4.1231672968
 10
-8.7055256314
 20
4.0906527435
 10
-8.7181025842
 20
4.0583386552
 10
-8.7314689789
 20
4.0262366318
 10
-8.7456254189
 20
3.9943562106
 10
-8.7605725078
 20
3.9627069291
 10
-8.7763108491
 20
3.9312983246
 10
-8.7928410463
 20
3.9001399343
 10
-8.8101615265
 20
3.8692445582
 10
-8.828262011
 20
3.8386380457
 10
-8.8471300446
 20
3.8083495087
 10
-8.8617812557
 20
3.7858556063
 10
-8.8768757987
 20
3.7635471198
 10
-8.8924322654
 20
3.7414142283
 10
-8.9084692473
 20
3.719447111
 10
-8.9249908051
 20
3.6976508349
 10
-8.9419428746
 20
3.6760900174
 10
-8.9592568606
 20
3.6548441639
 10
-8.9768641677
 20
3.6339927796
 10
-8.9911428177
 20
3.6176215627
 10
-9.0056964263
 20
3.6014290672
 10
-9.0206561274
 20
3.5852906706
 10
-9.036153055
 20
3.5690817505
 10
-9.052318343
 20
3.5526776846
  0
LWPOLYLINE
  5
3BB
100
AcDbEntity
  8
0
100
AcDbPolyline
 62
250
  6
CONTINUOUS
 90
7
 70
0
 10
-9.6765717067
 20
-12.9482831939
 10
-9.685698919
 20
-13.0224882546
 10
-9.6917112131
 20
-13.0970104911
 10
-9.6945980413
 20
-13.1717191661
 10
-9.6941926958
 20
-13.2527119402
 10
-9.6905582404
 20
-13.3273879681
 10
-9.6833383117
 20
-13.4059320113
  0
LINE
  5
3BC
100
AcDbEntity
  8
CURVE
100
AcDbLine
 62
250
  6
CONTINUOUS
 10
-10.9259068262
 20
-7.3086931939
 11
-10.9727675487
 21
-7.4493181939
  0
LINE
  5
3BD
100
AcDbEntity
  8
CURVE
100
AcDbLine
 62
250
  6
CONTINUOUS
 10
-12.2380070564
 20
-6.8399431939
 11
-12.1911463339
 21
-6.7461931939
  0
LINE
  5
3BE
100
AcDbEntity
  8
CURVE
100
AcDbLine
 62
250
  6
CONTINUOUS
 10
-11.8162605539
 20
-7.3555681939
 11
-11.8631212764
 21
-7.4493181939
  0
LINE
  5
3BF
100
AcDbEntity
  8
CURVE
100
AcDbLine
 62
250
  6
CONTINUOUS
 10
-10.9727675487
 20
-7.4493181939
 11
-11.0196282712
 21
-7.5430681939
  0
LWPOLYLINE
  5
3C0
100
AcDbEntity
  8
0
100
AcDbPolyline
 62
250
  6
CONTINUOUS
 90
36
 70
0
 10
-11.7540820136
 20
-3.0801503029
 10
-11.7672238535
 20
-3.09358528
 10
-11.779964251
 20
-3.1073962851
 10
-11.7923089031
 20
-3.1215689068
 10
-11.8042635072
 20
-3.1360887336
 10
-11.8158337605
 20
-3.1509413541
 10
-11.82702536
 20
-3.1661123569
 10
-11.837844003
 20
-3.1815873304
 10
-11.8482953868
 20
-3.1973518634
 10
-11.8583852084
 20
-3.2133915443
 10
-11.8681191652
 20
-3.2296919617
 10
-11.8775029542
 20
-3.2462387042
 10
-11.8865422727
 20
-3.2630173603
 10
-11.8952428179
 20
-3.2800135186
 10
-11.9036102869
 20
-3.2972127676
 10
-11.911650377
 20
-3.314600696
 10
-11.9193687854
 20
-3.3321628923
 10
-11.9267712092
 20
-3.349884945
 10
-11.9338633457
 20
-3.3677524427
 10
-11.940650892
 20
-3.385750974
 10
-11.9471395453
 20
-3.4038661275
 10
-11.9533350029
 20
-3.4220834917
 10
-11.9592429619
 20
-3.4403886551
 10
-11.9648691195
 20
-3.4587672063
 10
-11.970219173
 20
-3.477204734
 10
-11.9752988194
 20
-3.4956868266
 10
-11.9801137561
 20
-3.5141990728
 10
-11.9846696801
 20
-3.532727061
 10
-11.9889722888
 20
-3.5512563799
 10
-11.9948166726
 20
-3.5782829685
 10
-12.0001953454
 20
-3.6052927375
 10
-12.0051701037
 20
-3.6322967335
 10
-12.009802744
 20
-3.6593060035
 10
-12.0141550629
 20
-3.6863315939
 10
-12.018288857
 20
-3.7133845516
 10
-12.0261480565
 20
-3.7676167558
  0
LINE
  5
3C1
100
AcDbEntity
  8
CURVE
100
AcDbLine
 62
7
  6
CONTINUOUS
 10
-6.3012571639
 20
5.7142108061
 11
-6.0743751639
 21
5.9410928061
  0
LINE
  5
3C2
100
AcDbEntity
  8
CURVE
100
AcDbLine
 62
7
  6
CONTINUOUS
 10
-5.3499572216
 20
6.6655107485
 11
-5.0105736548
 21
7.0048943152
  0
LINE
  5
3C3
100
AcDbEntity
  8
CURVE
100
AcDbLine
 62
7
  6
CONTINUOUS
 10
-5.8329534373
 20
5.7142108061
 11
-5.6060714373
 21
5.9410928061
  0
LINE
  5
3C4
100
AcDbEntity
  8
CURVE
100
AcDbLine
 62
7
  6
CONTINUOUS
 10
-5.3646497106
 20
5.7142108061
 11
-5.1377677106
 21
5.9410928061
  0
LWPOLYLINE
  5
3C5
100
AcDbEntity
  8
0
100
AcDbPolyline
 62
250
  6
CONTINUOUS
 90
63
 70
0
 10
-8.3592167883
 20
2.1800105708
 10
-8.4305354621
 20
2.1301832242
 10
-8.5016535108
 20
2.083496293
 10
-8.5730725047
 20
2.0395246137
 10
-8.645294014
 20
1.997843023
 10
-8.7434273122
 20
1.9453074364
 10
-8.843403993
 20
1.8963536251
 10
-8.9447490647
 20
1.8512479419
 10
-9.047054101
 20
1.8102023345
 10
-9.1501769383
 20
1.7732111311
 10
-9.2540419785
 20
1.7402142547
 10
-9.3586215802
 20
1.7111555646
 10
-9.4640799282
 20
1.6859946649
 10
-9.570629164
 20
1.6646950959
 10
-9.6784013232
 20
1.6472332348
 10
-9.7872080197
 20
1.633636806
 10
-9.8967807614
 20
1.6239463709
 10
-10.0068510564
 20
1.6182024909
 10
-10.1171504128
 20
1.6164457273
 10
-10.2274103385
 20
1.6187166414
 10
-10.3373830075
 20
1.6250410735
 10
-10.4469032577
 20
1.6353859796
 10
-10.5558265927
 20
1.6497035945
 10
-10.6640085161
 20
1.667946153
 10
-10.7713045317
 20
1.6900658901
 10
-10.8775701431
 20
1.7160150404
 10
-10.9826657015
 20
1.7457475641
 10
-11.0864709478
 20
1.7792243212
 10
-11.1888704707
 20
1.8164078973
 10
-11.2897488586
 20
1.8572608776
 10
-11.3889906999
 20
1.9017458476
 10
-11.4864805832
 20
1.9498253925
 10
-11.5821056968
 20
2.0014537129
 10
-11.6757636287
 20
2.0565514697
 10
-11.7673545668
 20
2.1150309393
 10
-11.8567786988
 20
2.1768043978
 10
-11.9439362127
 20
2.2417841213
 10
-12.0287272963
 20
2.309882386
 10
-12.1110524962
 20
2.3810144721
 10
-12.1908137943
 20
2.4551076758
 10
-12.2679135315
 20
2.5320922971
 10
-12.3422540484
 20
2.6118986361
 10
-12.4137376857
 20
2.6944569929
 10
-12.4822667842
 20
2.7796976677
 10
-12.5477374118
 20
2.8675246327
 10
-12.6100205453
 20
2.9577365491
 10
-12.6689808885
 20
3.0501057504
 10
-12.7244831455
 20
3.1444045698
 10
-12.7763920201
 20
3.2404053407
 10
-12.8245722163
 20
3.3378803966
 10
-12.868929149
 20
3.4366621316
 10
-12.909531077
 20
3.5368231839
 10
-12.94648697
 20
3.6384962522
 10
-12.9798746641
 20
3.7417896025
 10
-13.0096474608
 20
3.8467137697
 10
-13.035727528
 20
3.9532548556
 10
-13.0580374239
 20
4.0613095519
 10
-13.0765012692
 20
4.1704169101
 10
-13.0910435751
 20
4.2800265713
 10
-13.0993278582
 20
4.3623877067
 10
-13.1053108171
 20
4.4454215989
 10
-13.108939456
 20
4.5298280357
 10
-13.1101607791
 20
4.6163068054
  0
LINE
  5
3C6
100
AcDbEntity
  8
CURVE
100
AcDbLine
 62
250
  6
CONTINUOUS
 10
-11.2539318838
 20
-7.6836931939
 11
-11.3945140513
 21
-7.6836931939
  0
LINE
  5
3C7
100
AcDbEntity
  8
CURVE
100
AcDbLine
 62
250
  6
CONTINUOUS
 10
-12.0037034439
 20
-7.5430681939
 11
-12.0505641664
 21
-7.5430681939
  0
LINE
  5
3C8
100
AcDbEntity
  8
0
100
AcDbLine
 62
250
  6
CONTINUOUS
 10
-5.4101607806
 20
-6.2760551939
 11
-6.4290175802
 21
-6.2760551939
  0
LINE
  5
3C9
100
AcDbEntity
  8
DRAFT
100
AcDbLine
 62
7
  6
CONTINUOUS
 10
26.0898392194
 20
-6.437302163
 11
-1.6589244126
 21
-6.2600203321
  0
LINE
  5
3CA
100
AcDbEntity
  8
ASSI
100
AcDbLine
 62
7
  6
CONTINUOUS
 10
26.0898392194
 20
-6.437302163
 11
-1.6589244126
 21
-6.2600203321
  0
LINE
  5
3CB
100
AcDbEntity
  8
DRAFT
100
AcDbLine
 62
7
  6
CONTINUOUS
 10
-1.6667056823
 20
-5.9336646362
 11
26.0898392194
 21
-6.1758923338
  0
LINE
  5
3CC
100
AcDbEntity
  8
ASSI
100
AcDbLine
 62
7
  6
CONTINUOUS
 10
-1.6667056823
 20
-5.9336646362
 11
26.0898392194
 21
-6.1758923338
  0
LWPOLYLINE
  5
3CD
100
AcDbEntity
  8
CURVE
100
AcDbPolyline
 62
250
  6
CONTINUOUS
 90
59
 70
0
 10
-5.8118487549
 20
15.2493172227
 10
-5.8119407119
 20
15.2637747994
 10
-5.8122230372
 20
15.2783312168
 10
-5.812705412
 20
15.292970613
 10
-5.8133975176
 20
15.3076771261
 10
-5.8143090351
 20
15.3224348942
 10
-5.8154496459
 20
15.3372280554
 10
-5.8168290312
 20
15.3520407479
 10
-5.8184568722
 20
15.3668571098
 10
-5.8203428503
 20
15.3816612791
 10
-5.8224966465
 20
15.396437394
 10
-5.8249279423
 20
15.4111695927
 10
-5.8276464187
 20
15.4258420131
 10
-5.8306617572
 20
15.4404387935
 10
-5.8339836389
 20
15.454944072
 10
-5.837621745
 20
15.4693419866
 10
-5.8415857569
 20
15.4836166755
 10
-5.8458853557
 20
15.4977522767
 10
-5.8505302228
 20
15.5117329285
 10
-5.8555300393
 20
15.525542769
 10
-5.8608944865
 20
15.5391659362
 10
-5.8666332457
 20
15.5525865682
 10
-5.8727559981
 20
15.5657888032
 10
-5.8792724249
 20
15.5787567793
 10
-5.8861922074
 20
15.5914746346
 10
-5.8935250269
 20
15.6039265072
 10
-5.9012805646
 20
15.6160965352
 10
-5.9094685017
 20
15.6279688568
 10
-5.9180985195
 20
15.6395276101
 10
-5.9271802992
 20
15.6507569331
 10
-5.9366245178
 20
15.661539857
 10
-5.9465020999
 20
15.6719814236
 10
-5.9567938201
 20
15.6820789423
 10
-5.9674804526
 20
15.6918297227
 10
-5.9785427718
 20
15.7012310741
 10
-5.9899615523
 20
15.7102803062
 10
-6.0017175683
 20
15.7189747282
 10
-6.0137915943
 20
15.7273116498
 10
-6.0261644047
 20
15.7352883803
 10
-6.0388167738
 20
15.7429022292
 10
-6.0517294761
 20
15.750150506
 10
-6.064883286
 20
15.7570305202
 10
-6.0782589778
 20
15.7635395812
 10
-6.0918373259
 20
15.7696749985
 10
-6.1055991049
 20
15.7754340816
 10
-6.119525089
 20
15.7808141399
 10
-6.1335960526
 20
15.7858124829
 10
-6.1477927702
 20
15.79042642
 10
-6.1620960161
 20
15.7946532608
 10
-6.1764865648
 20
15.7984903147
 10
-6.1909451907
 20
15.8019348911
 10
-6.205452668
 20
15.8049842996
 10
-6.2199897713
 20
15.8076358495
 10
-6.234537275
 20
15.8098868504
 10
-6.2490759534
 20
15.8117346118
 10
-6.2635865809
 20
15.813176443
 10
-6.2780499319
 20
15.8142096536
 10
-6.2924467809
 20
15.814831553
 10
-6.3067579022
 20
15.8150394507
  0
LINE
  5
3CE
100
AcDbEntity
  8
CURVE
100
AcDbLine
 62
250
  6
CONTINUOUS
 10
-6.0363181317
 20
7.8898328061
 11
-6.0363181317
 21
8.8251248061
  0
LINE
  5
3CF
100
AcDbEntity
  8
CURVE
100
AcDbLine
 62
250
  6
CONTINUOUS
 10
-6.0363181317
 20
11.1973598061
 11
-6.0363181317
 21
12.1327048061
  0
LINE
  5
3D0
100
AcDbEntity
  8
CURVE
100
AcDbLine
 62
250
  6
CONTINUOUS
 10
-5.9078043796
 20
14.6330862946
 11
-5.9078043796
 21
15.2669779787
  0
LINE
  5
3D1
100
AcDbEntity
  8
CURVE
100
AcDbLine
 62
250
  6
CONTINUOUS
 10
-5.8346835656
 20
12.1327048061
 11
-5.8346835656
 21
11.1973598061
  0
LINE
  5
3D2
100
AcDbEntity
  8
CURVE
100
AcDbLine
 62
250
  6
CONTINUOUS
 10
-5.8346835656
 20
8.8251248061
 11
-5.8346835656
 21
7.8898328061
  0
LINE
  5
3D3
100
AcDbEntity
  8
CURVE
100
AcDbLine
 62
250
  6
CONTINUOUS
 10
-5.8118487549
 20
15.2493172227
 11
-5.8118487549
 21
14.6330862946
  0
LINE
  5
3D4
100
AcDbEntity
  8
0
100
AcDbLine
 62
250
  6
CONTINUOUS
 10
-5.4101607806
 20
-2.0913311939
 11
-5.4101607806
 21
-6.2760551939
  0
LINE
  5
3D5
100
AcDbEntity
  8
CURVE
100
AcDbLine
 62
250
  6
CONTINUOUS
 10
-5.2121912261
 20
7.8898328061
 11
-5.2121912261
 21
8.9007528061
  0
LINE
  5
3D6
100
AcDbEntity
  8
CURVE
100
AcDbLine
 62
250
  6
CONTINUOUS
 10
-5.2121912261
 20
11.1973598061
 11
-5.2121912261
 21
12.2083138061
  0
LWPOLYLINE
  5
3D7
100
AcDbEntity
  8
0
100
AcDbPolyline
 62
7
  6
CONTINUOUS
 90
4
 70
0
 43
0.3499999865
 10
-5.1958737196
 20
44.7081938296
 10
-5.1958737196
 20
45.5653368019
 10
-4.7673047598
 20
45.9939057617
 10
-4.1244462674
 20
45.9939057617
  0
LINE
  5
3D8
100
AcDbEntity
  8
CURVE
100
AcDbLine
 62
250
  6
CONTINUOUS
 10
-5.0105736548
 20
12.2083138061
 11
-5.0105736548
 21
10.9578668061
  0
LINE
  5
3D9
100
AcDbEntity
  8
CURVE
100
AcDbLine
 62
250
  6
CONTINUOUS
 10
-5.0105736548
 20
8.9007528061
 11
-5.0105736548
 21
7.6503218061
  0
LINE
  5
3DA
100
AcDbEntity
  8
CURVE
100
AcDbLine
 62
250
  6
CONTINUOUS
 10
-5.0105736548
 20
7.1486938061
 11
-5.0105736548
 21
6.8865058061
  0
LINE
  5
3DB
100
AcDbEntity
  8
CURVE
100
AcDbLine
 62
250
  6
CONTINUOUS
 10
-5.0105736548
 20
5.9410928061
 11
-5.0105736548
 21
5.7142108061
  0
LINE
  5
3DC
100
AcDbEntity
  8
CURVE
100
AcDbLine
 62
250
  6
CONTINUOUS
 10
-5.0105686564
 20
10.0124738061
 11
-5.0105686564
 21
9.7402188061
  0
LINE
  5
3DD
100
AcDbEntity
  8
CURVE
100
AcDbLine
 62
250
  6
CONTINUOUS
 10
-5.0089601593
 20
14.6330862946
 11
-5.0089601593
 21
14.5218965407
  0
LINE
  5
3DE
100
AcDbEntity
  8
CURVE
100
AcDbLine
 62
250
  6
CONTINUOUS
 10
-4.4278866384
 20
10.7448782539
 11
-4.4278866384
 21
10.6377353808
  0
LINE
  5
3DF
100
AcDbEntity
  8
CURVE
100
AcDbLine
 62
250
  6
CONTINUOUS
 10
-4.4278866384
 20
11.7091639107
 11
-4.4278866384
 21
12.0305925971
  0
LINE
  5
3E0
100
AcDbEntity
  8
CURVE
100
AcDbLine
 62
250
  6
CONTINUOUS
 10
-3.7852253394
 20
14.7805926567
 11
-3.7852253394
 21
15.244878388
  0
LINE
  5
3E1
100
AcDbEntity
  8
CURVE
100
AcDbLine
 62
250
  6
CONTINUOUS
 10
-3.5710048618
 20
12.1734497314
 11
-3.5710048618
 21
11.7091639107
  0
LWPOLYLINE
  5
3E2
100
AcDbEntity
  8
CURVE
100
AcDbPolyline
 62
250
  6
CONTINUOUS
 90
59
 70
0
 10
-5.0619666357
 20
13.5017272418
 10
-5.0621102962
 20
13.4850898628
 10
-5.0625548269
 20
13.4684114341
 10
-5.0633205517
 20
13.4517105259
 10
-5.0644277944
 20
13.4350057086
 10
-5.0658968789
 20
13.4183155524
 10
-5.0677481289
 20
13.4016586278
 10
-5.0700018683
 20
13.385053505
 10
-5.072678421
 20
13.3685187544
 10
-5.0757981107
 20
13.3520729463
 10
-5.0793812614
 20
13.335734651
 10
-5.0834481968
 20
13.3195224389
 10
-5.0880192408
 20
13.3034548804
 10
-5.0931147172
 20
13.2875505456
 10
-5.0987549499
 20
13.271828005
 10
-5.1049602627
 20
13.2563058289
 10
-5.111665388
 20
13.2411732043
 10
-5.1189264214
 20
13.226272911
 10
-5.1267269402
 20
13.2116232348
 10
-5.1350505221
 20
13.1972424614
 10
-5.1438807446
 20
13.1831488767
 10
-5.1532011853
 20
13.1693607664
 10
-5.1629954217
 20
13.1558964165
 10
-5.1732470315
 20
13.1427741126
 10
-5.1839395921
 20
13.1300121406
 10
-5.1950566811
 20
13.1176287863
 10
-5.2065818761
 20
13.1056423354
 10
-5.2184987546
 20
13.0940710739
 10
-5.2307908942
 20
13.0829332874
 10
-5.2434418725
 20
13.0722472619
 10
-5.256435267
 20
13.0620312831
 10
-5.2706719931
 20
13.0516546701
 10
-5.2852628749
 20
13.0418224368
 10
-5.300190242
 20
13.0325219745
 10
-5.3154364239
 20
13.0237406742
 10
-5.3309837501
 20
13.015465927
 10
-5.3468145503
 20
13.0076851242
 10
-5.3629111538
 20
13.0003856567
 10
-5.3792558902
 20
12.9935549159
 10
-5.3958310892
 20
12.9871802927
 10
-5.4126190801
 20
12.9812491783
 10
-5.4296021926
 20
12.975748964
 10
-5.4467627562
 20
12.9706670407
 10
-5.4640831003
 20
12.9659907996
 10
-5.4815455546
 20
12.9617076319
 10
-5.4991324486
 20
12.9578049287
 10
-5.5168261118
 20
12.9542700811
 10
-5.5346088737
 20
12.9510904803
 10
-5.5524630639
 20
12.9482535174
 10
-5.5703710119
 20
12.9457465835
 10
-5.5883150473
 20
12.9435570698
 10
-5.6062774995
 20
12.9416723673
 10
-5.6242406981
 20
12.9400798673
 10
-5.6421869727
 20
12.9387669608
 10
-5.6600986528
 20
12.9377210391
 10
-5.6779580678
 20
12.9369294931
 10
-5.6957475474
 20
12.9363797142
 10
-5.7134494211
 20
12.9360590933
 10
-5.7310460184
 20
12.9359550216
  0
LWPOLYLINE
  5
3E3
100
AcDbEntity
  8
0
100
AcDbPolyline
 62
250
  6
CONTINUOUS
 90
7
 70
0
 10
-5.3666118219
 20
-9.0442057975
 10
-5.3626922094
 20
-8.9731066696
 10
-5.360759027
 20
-8.9019258034
 10
-5.360813782
 20
-8.8307187038
 10
-5.3628564317
 20
-8.7595408958
 10
-5.3668853834
 20
-8.6884478817
 10
-5.3733172139
 20
-8.613283186
  0
LWPOLYLINE
  5
3E4
100
AcDbEntity
  8
0
100
AcDbPolyline
 62
250
  6
CONTINUOUS
 90
7
 70
0
 10
-5.3666118219
 20
-13.3792057975
 10
-5.3626922094
 20
-13.3081066696
 10
-5.360759027
 20
-13.2369258034
 10
-5.360813782
 20
-13.1657187038
 10
-5.3628564317
 20
-13.0945408958
 10
-5.3668853834
 20
-13.0234478817
 10
-5.3733172139
 20
-12.948283186
  0
LINE
  5
3E5
100
AcDbEntity
  8
CURVE
100
AcDbLine
 62
250
  6
CONTINUOUS
 10
-11.2829409035
 20
-8.4336931939
 11
-11.4971613589
 21
-8.7194074625
  0
LINE
  5
3E6
100
AcDbEntity
  8
CURVE
100
AcDbLine
 62
250
  6
CONTINUOUS
 10
-11.8631212764
 20
-7.4493181939
 11
-11.9099819989
 21
-7.4961931939
  0
LINE
  5
3E7
100
AcDbEntity
  8
0
100
AcDbLine
 62
250
  6
CONTINUOUS
 10
-12.4854080221
 20
-6.6838231939
 11
-7.5088800868
 21
-1.9521371939
  0
LWPOLYLINE
  5
3E8
100
AcDbEntity
  8
0
100
AcDbPolyline
 62
250
  6
CONTINUOUS
 90
17
 70
0
 10
-8.3603393857
 20
-3.6365851939
 10
-8.2986615049
 20
-3.6305367036
 10
-8.2393329154
 20
-3.6126216178
 10
-8.1846134248
 20
-3.5835223165
 10
-8.1358021322
 20
-3.5435646507
 10
-8.0964655615
 20
-3.495668231
 10
-8.0671798628
 20
-3.441042314
 10
-8.0490605193
 20
-3.3817675839
 10
-8.0427957565
 20
-3.3189931939
 10
-8.0488433256
 20
-3.2573059178
 10
-8.0667556828
 20
-3.1979682909
 10
-8.0958505521
 20
-3.1432404649
 10
-8.1358021322
 20
-3.094421737
 10
-8.1836912571
 20
-3.0550791743
 10
-8.2383088543
 20
-3.0257890146
 10
-8.2975745565
 20
-3.007666911
 10
-8.3603394135
 20
-3.0014011939
  0
LWPOLYLINE
  5
3E9
100
AcDbEntity
  8
0
100
AcDbPolyline
 62
250
  6
CONTINUOUS
 90
17
 70
0
 10
-8.3603393857
 20
-3.4595031939
 10
-8.3330516737
 20
-3.4568272027
 10
-8.3068033422
 20
-3.448901157
 10
-8.2825941819
 20
-3.4360269574
 10
-8.2609989442
 20
-3.4183487677
 10
-8.2435955413
 20
-3.3971582908
 10
-8.2306388751
 20
-3.3729905296
 10
-8.2226224611
 20
-3.3467660267
 10
-8.2198507861
 20
-3.3189931939
 10
-8.2225263696
 20
-3.2917013252
 10
-8.2304512081
 20
-3.2654489953
 10
-8.243323447
 20
-3.2412361473
 10
-8.2609989442
 20
-3.21963762
 10
-8.2821861937
 20
-3.2022315661
 10
-8.306350274
 20
-3.1892729262
 10
-8.3325707827
 20
-3.1812552911
 10
-8.360339398
 20
-3.1784831939
  0
LWPOLYLINE
  5
3EA
100
AcDbEntity
  8
0
100
AcDbPolyline
 62
250
  6
CONTINUOUS
 90
17
 70
0
 10
-8.3603393857
 20
-3.1784831939
 10
-8.3876270977
 20
-3.181159185
 10
-8.4138754292
 20
-3.1890852307
 10
-8.4380845895
 20
-3.2019594303
 10
-8.4596798272
 20
-3.21963762
 10
-8.4770832301
 20
-3.2408280969
 10
-8.4900398963
 20
-3.2649958581
 10
-8.4980563103
 20
-3.291220361
 10
-8.5008279854
 20
-3.3189931939
 10
-8.4981524018
 20
-3.3462850625
 10
-8.4902275633
 20
-3.3725373924
 10
-8.4773553244
 20
-3.3967502404
 10
-8.4596798272
 20
-3.4183487677
 10
-8.4384925777
 20
-3.4357548216
 10
-8.4143284974
 20
-3.4487134615
 10
-8.3881079887
 20
-3.4567310966
 10
-8.3603393734
 20
-3.4595031939
  0
LINE
  5
3EB
100
AcDbEntity
  8
0
100
AcDbLine
 62
250
  6
CONTINUOUS
 10
-11.600922754
 20
-5.2525691939
 11
-8.2392138365
 21
-4.9585191939
  0
LWPOLYLINE
  5
3EC
100
AcDbEntity
  8
DRAFT
100
AcDbPolyline
 62
7
  6
CONTINUOUS
 90
34
 70
0
 10
-1.6589244126
 20
-4.1073660557
 10
-1.7636330935
 20
-4.1133055377
 10
-1.8652706952
 20
-4.1285488919
 10
-1.9638372175
 20
-4.153096118
 10
-2.0601134629
 20
-4.1873959765
 10
-2.153318629
 20
-4.230999707
 10
-2.2411103087
 20
-4.2825610287
 10
-2.3232955713
 20
-4.3421995058
 10
-2.4000673475
 20
-4.4097955741
 10
-2.4696620223
 20
-4.4836442599
 10
-2.532063909
 20
-4.564069412
 10
-2.5872886944
 20
-4.6507471816
 10
-2.6336198238
 20
-4.7410010492
 10
-2.6706285197
 20
-4.8345101589
 10
-2.6987435596
 20
-4.9315953666
 10
-2.7175347214
 20
-5.0305427203
 10
-2.7268585978
 20
-5.1320223333
 10
-2.726858596
 20
-5.2353640922
 10
-2.717534716
 20
-5.3368437052
 10
-2.6987435498
 20
-5.4357910599
 10
-2.6706285053
 20
-5.5328762688
 10
-2.6336198064
 20
-5.6263853771
 10
-2.587288677
 20
-5.7166392386
 10
-2.5320638933
 20
-5.8033169996
 10
-2.4696620078
 20
-5.8837421447
 10
-2.4000673325
 20
-5.9575908273
 10
-2.3232955555
 20
-6.0251868939
 10
-2.2411102933
 20
-6.0848253691
 10
-2.1533186166
 20
-6.1363866878
 10
-2.0601134548
 20
-6.179990415
 10
-1.9638372129
 20
-6.2142902711
 10
-1.8652706928
 20
-6.238837496
 10
-1.7636330927
 20
-6.2540808496
 10
-1.6589244126
 20
-6.2600203321
  0
LWPOLYLINE
  5
3ED
100
AcDbEntity
  8
ASSI
100
AcDbPolyline
 62
7
  6
CONTINUOUS
 90
34
 70
0
 10
-1.6589244126
 20
-4.1073660557
 10
-1.7636330935
 20
-4.1133055377
 10
-1.8652706952
 20
-4.1285488919
 10
-1.9638372175
 20
-4.153096118
 10
-2.0601134629
 20
-4.1873959765
 10
-2.153318629
 20
-4.230999707
 10
-2.2411103087
 20
-4.2825610287
 10
-2.3232955713
 20
-4.3421995058
 10
-2.4000673475
 20
-4.4097955741
 10
-2.4696620223
 20
-4.4836442599
 10
-2.532063909
 20
-4.564069412
 10
-2.5872886944
 20
-4.6507471816
 10
-2.6336198238
 20
-4.7410010492
 10
-2.6706285197
 20
-4.8345101589
 10
-2.6987435596
 20
-4.9315953666
 10
-2.7175347214
 20
-5.0305427203
 10
-2.7268585978
 20
-5.1320223333
 10
-2.726858596
 20
-5.2353640922
 10
-2.717534716
 20
-5.3368437052
 10
-2.6987435498
 20
-5.4357910599
 10
-2.6706285053
 20
-5.5328762688
 10
-2.6336198064
 20
-5.6263853771
 10
-2.587288677
 20
-5.7166392386
 10
-2.5320638933
 20
-5.8033169996
 10
-2.4696620078
 20
-5.8837421447
 10
-2.4000673325
 20
-5.9575908273
 10
-2.3232955555
 20
-6.0251868939
 10
-2.2411102933
 20
-6.0848253691
 10
-2.1533186166
 20
-6.1363866878
 10
-2.0601134548
 20
-6.179990415
 10
-1.9638372129
 20
-6.2142902711
 10
-1.8652706928
 20
-6.238837496
 10
-1.7636330927
 20
-6.2540808496
 10
-1.6589244126
 20
-6.2600203321
  0
LINE
  5
3EE
100
AcDbEntity
  8
DRAFT
100
AcDbLine
 62
7
  6
CONTINUOUS
 10
26.0898392194
 20
-4.1914940539
 11
-1.6667056823
 21
-4.4337217516
  0
LINE
  5
3EF
100
AcDbEntity
  8
ASSI
100
AcDbLine
 62
7
  6
CONTINUOUS
 10
26.0898392194
 20
-4.1914940539
 11
-1.6667056823
 21
-4.4337217516
  0
LINE
  5
3F0
100
AcDbEntity
  8
DRAFT
100
AcDbLine
 62
7
  6
CONTINUOUS
 10
26.0898392194
 20
-3.9300842247
 11
-1.6589244126
 21
-4.1073660557
  0
LINE
  5
3F1
100
AcDbEntity
  8
ASSI
100
AcDbLine
 62
7
  6
CONTINUOUS
 10
26.0898392194
 20
-3.9300842247
 11
-1.6589244126
 21
-4.1073660557
  0
LINE
  5
3F2
100
AcDbEntity
  8
0
100
AcDbLine
 62
250
  6
CONTINUOUS
 10
-11.600922754
 20
-4.9654771939
 11
-11.9954806517
 21
-4.9654771939
  0
LINE
  5
3F3
100
AcDbEntity
  8
0
100
AcDbLine
 62
250
  6
CONTINUOUS
 10
-8.0427957565
 20
-4.9018101939
 11
-8.2392138365
 21
-4.9018101939
  0
LINE
  5
3F4
100
AcDbEntity
  8
0
100
AcDbLine
 62
250
  6
CONTINUOUS
 10
-11.9954806517
 20
-4.8661031939
 11
-11.600922754
 21
-4.8661031939
  0
LINE
  5
3F5
100
AcDbEntity
  8
0
100
AcDbLine
 62
250
  6
CONTINUOUS
 10
-8.2392138365
 20
-4.7841901939
 11
-8.0427957565
 21
-4.7841901939
  0
LINE
  5
3F6
100
AcDbEntity
  8
0
100
AcDbLine
 62
250
  6
CONTINUOUS
 10
-10.5576556728
 20
-4.3956231939
 11
-10.7732588304
 21
-4.3956231939
  0
LINE
  5
3F7
100
AcDbEntity
  8
0
100
AcDbLine
 62
250
  6
CONTINUOUS
 10
-11.8709796167
 20
-4.3406201939
 11
-12.0884404914
 21
-4.3406201939
  0
LINE
  5
3F8
100
AcDbEntity
  8
0
100
AcDbLine
 62
250
  6
CONTINUOUS
 10
-12.0878825763
 20
-3.7676171939
 11
-11.8704217017
 21
-3.7676171939
  0
LINE
  5
3F9
100
AcDbEntity
  8
0
100
AcDbLine
 62
250
  6
CONTINUOUS
 10
-10.7732588304
 20
-3.5722831939
 11
-10.5576556728
 21
-3.5722831939
  0
LINE
  5
3FA
100
AcDbEntity
  8
0
100
AcDbLine
 62
250
  6
CONTINUOUS
 10
-10.865660755
 20
-3.1158061939
 11
-11.2380680269
 21
-3.1158061939
  0
LINE
  5
3FB
100
AcDbEntity
  8
0
100
AcDbLine
 62
250
  6
CONTINUOUS
 10
-11.2380680269
 20
-2.7657461939
 11
-10.865660755
 21
-2.7657461939
  0
LINE
  5
3FC
100
AcDbEntity
  8
0
100
AcDbLine
 62
250
  6
CONTINUOUS
 10
-8.6772911051
 20
-3.3031001939
 11
-11.600922754
 21
-3.0312931023
  0
LINE
  5
3FD
100
AcDbEntity
  8
DRAFT
100
AcDbLine
 62
250
  6
CONTINUOUS
 10
-1.658925954
 20
-16.2599556804
 11
-1.6667056823
 21
-15.9336646362
  0
LINE
  5
3FE
100
AcDbEntity
  8
ASSI
100
AcDbLine
 62
250
  6
CONTINUOUS
 10
-1.658925954
 20
-16.2599556804
 11
-1.6667056823
 21
-15.9336646362
  0
LINE
  5
3FF
100
AcDbEntity
  8
DRAFT
100
AcDbLine
 62
250
  6
CONTINUOUS
 10
-1.6589244126
 20
-11.2600203321
 11
-1.6667056823
 21
-10.9336646362
  0
LINE
  5
400
100
AcDbEntity
  8
ASSI
100
AcDbLine
 62
250
  6
CONTINUOUS
 10
-1.6589244126
 20
-11.2600203321
 11
-1.6667056823
 21
-10.9336646362
  0
LINE
  5
401
100
AcDbEntity
  8
DRAFT
100
AcDbLine
 62
250
  6
CONTINUOUS
 10
-1.6589244126
 20
-6.2600203321
 11
-1.6667056823
 21
-5.9336646362
  0
LINE
  5
402
100
AcDbEntity
  8
ASSI
100
AcDbLine
 62
250
  6
CONTINUOUS
 10
-1.6589244126
 20
-6.2600203321
 11
-1.6667056823
 21
-5.9336646362
  0
LINE
  5
403
100
AcDbEntity
  8
DRAFT
100
AcDbLine
 62
250
  6
CONTINUOUS
 10
-1.6589244126
 20
-1.2600203321
 11
-1.6667056823
 21
-0.9336646362
  0
LINE
  5
404
100
AcDbEntity
  8
ASSI
100
AcDbLine
 62
250
  6
CONTINUOUS
 10
-1.6589244126
 20
-1.2600203321
 11
-1.6667056823
 21
-0.9336646362
  0
LINE
  5
405
100
AcDbEntity
  8
DRAFT
100
AcDbLine
 62
250
  6
CONTINUOUS
 10
-1.6589244126
 20
3.7399796679
 11
-1.6667056823
 21
4.0663353638
  0
LINE
  5
406
100
AcDbEntity
  8
ASSI
100
AcDbLine
 62
250
  6
CONTINUOUS
 10
-1.6589244126
 20
3.7399796679
 11
-1.6667056823
 21
4.0663353638
  0
LINE
  5
407
100
AcDbEntity
  8
DRAFT
100
AcDbLine
 62
250
  6
CONTINUOUS
 10
-1.6589244126
 20
8.7399796679
 11
-1.6667056823
 21
9.0663353638
  0
LINE
  5
408
100
AcDbEntity
  8
ASSI
100
AcDbLine
 62
250
  6
CONTINUOUS
 10
-1.6589244126
 20
8.7399796679
 11
-1.6667056823
 21
9.0663353638
  0
LINE
  5
409
100
AcDbEntity
  8
DRAFT
100
AcDbLine
 62
250
  6
CONTINUOUS
 10
-1.6589244126
 20
13.7399796679
 11
-1.6667056823
 21
14.0663353638
  0
LINE
  5
40A
100
AcDbEntity
  8
ASSI
100
AcDbLine
 62
250
  6
CONTINUOUS
 10
-1.6589244126
 20
13.7399796679
 11
-1.6667056823
 21
14.0663353638
  0
LINE
  5
40B
100
AcDbEntity
  8
CURVE
100
AcDbLine
 62
250
  6
CONTINUOUS
 10
-3.24967419
 20
13.5305924183
 11
-3.24967419
 21
14.2805924183
  0
LINE
  5
40C
100
AcDbEntity
  8
CURVE
100
AcDbLine
 62
250
  6
CONTINUOUS
 10
-2.9283435181
 20
15.244878388
 11
-2.9283435181
 21
14.9234496122
  0
LINE
  5
40D
100
AcDbEntity
  8
CURVE
100
AcDbLine
 62
250
  6
CONTINUOUS
 10
-2.9283435181
 20
10.6377353808
 11
-2.9283435181
 21
10.7448782539
  0
LINE
  5
40E
100
AcDbEntity
  8
0
100
AcDbLine
 62
7
  6
CONTINUOUS
 10
-1.2101607806
 20
-5.9376488431
 11
-1.2101607806
 21
-4.4297375446
  0
LINE
  5
40F
100
AcDbEntity
  8
0
100
AcDbLine
 62
7
  6
CONTINUOUS
 10
-1.2101607806
 20
-0.9376488431
 11
-1.2101607806
 21
0.5702624554
  0
LINE
  5
410
100
AcDbEntity
  8
0
100
AcDbLine
 62
7
  6
CONTINUOUS
 10
-1.2101607806
 20
4.0623511569
 11
-1.2101607806
 21
5.5702624554
  0
LINE
  5
411
100
AcDbEntity
  8
DRAFT
100
AcDbLine
 62
250
  6
CONTINUOUS
 10
-1.658925954
 20
15.8925692927
 11
-1.6667056823
 21
15.5662782484
  0
LINE
  5
412
100
AcDbEntity
  8
ASSI
100
AcDbLine
 62
250
  6
CONTINUOUS
 10
-1.658925954
 20
15.8925692927
 11
-1.6667056823
 21
15.5662782484
  0
LINE
  5
413
100
AcDbEntity
  8
DRAFT
100
AcDbLine
 62
250
  6
CONTINUOUS
 10
-1.6589244126
 20
10.8926339443
 11
-1.6667056823
 21
10.5662782484
  0
LINE
  5
414
100
AcDbEntity
  8
ASSI
100
AcDbLine
 62
250
  6
CONTINUOUS
 10
-1.6589244126
 20
10.8926339443
 11
-1.6667056823
 21
10.5662782484
  0
LINE
  5
415
100
AcDbEntity
  8
DRAFT
100
AcDbLine
 62
250
  6
CONTINUOUS
 10
-1.6589244126
 20
5.8926339443
 11
-1.6667056823
 21
5.5662782484
  0
LINE
  5
416
100
AcDbEntity
  8
ASSI
100
AcDbLine
 62
250
  6
CONTINUOUS
 10
-1.6589244126
 20
5.8926339443
 11
-1.6667056823
 21
5.5662782484
  0
LINE
  5
417
100
AcDbEntity
  8
DRAFT
100
AcDbLine
 62
250
  6
CONTINUOUS
 10
-1.6589244126
 20
0.8926339443
 11
-1.6667056823
 21
0.5662782484
  0
LINE
  5
418
100
AcDbEntity
  8
ASSI
100
AcDbLine
 62
250
  6
CONTINUOUS
 10
-1.6589244126
 20
0.8926339443
 11
-1.6667056823
 21
0.5662782484
  0
LINE
  5
419
100
AcDbEntity
  8
DRAFT
100
AcDbLine
 62
250
  6
CONTINUOUS
 10
-1.6589244126
 20
-4.1073660557
 11
-1.6667056823
 21
-4.4337217516
  0
LINE
  5
41A
100
AcDbEntity
  8
ASSI
100
AcDbLine
 62
250
  6
CONTINUOUS
 10
-1.6589244126
 20
-4.1073660557
 11
-1.6667056823
 21
-4.4337217516
  0
LINE
  5
41B
100
AcDbEntity
  8
DRAFT
100
AcDbLine
 62
250
  6
CONTINUOUS
 10
-1.6589244126
 20
-9.1073660557
 11
-1.6667056823
 21
-9.4337217516
  0
LINE
  5
41C
100
AcDbEntity
  8
ASSI
100
AcDbLine
 62
250
  6
CONTINUOUS
 10
-1.6589244126
 20
-9.1073660557
 11
-1.6667056823
 21
-9.4337217516
  0
LINE
  5
41D
100
AcDbEntity
  8
DRAFT
100
AcDbLine
 62
250
  6
CONTINUOUS
 10
-1.6589244126
 20
-14.1073660557
 11
-1.6667056823
 21
-14.4337217516
  0
LINE
  5
41E
100
AcDbEntity
  8
ASSI
100
AcDbLine
 62
250
  6
CONTINUOUS
 10
-1.6589244126
 20
-14.1073660557
 11
-1.6667056823
 21
-14.4337217516
  0
LINE
  5
41F
100
AcDbEntity
  8
CURVE
100
AcDbLine
 62
250
  6
CONTINUOUS
 10
-11.0196282712
 20
-7.5430681939
 11
-11.1133497162
 21
-7.6368181939
  0
LINE
  5
420
100
AcDbEntity
  8
CURVE
100
AcDbLine
 62
250
  6
CONTINUOUS
 10
-12.2112295135
 20
-10.7908359999
 11
-12.4254499465
 21
-11.0051217908
  0
LINE
  5
421
100
AcDbEntity
  8
0
100
AcDbLine
 62
7
  6
CONTINUOUS
 10
-6.4290175802
 20
-2.5596349209
 11
-5.9607138531
 21
-2.0913311939
  0
LINE
  5
422
100
AcDbEntity
  8
0
100
AcDbLine
 62
7
  6
CONTINUOUS
 10
-6.4290175802
 20
-3.0279386475
 11
-5.4924101265
 21
-2.0913311939
  0
LINE
  5
423
100
AcDbEntity
  8
0
100
AcDbLine
 62
7
  6
CONTINUOUS
 10
-6.4290175802
 20
-3.4962423742
 11
-5.4101607806
 21
-2.4773855746
  0
LINE
  5
424
100
AcDbEntity
  8
0
100
AcDbLine
 62
7
  6
CONTINUOUS
 10
-6.4290175802
 20
-3.9645461008
 11
-5.4101607806
 21
-2.9456893012
  0
LINE
  5
425
100
AcDbEntity
  8
0
100
AcDbLine
 62
7
  6
CONTINUOUS
 10
-6.4290175802
 20
-4.4328498274
 11
-5.4101607806
 21
-3.4139930278
  0
LINE
  5
426
100
AcDbEntity
  8
0
100
AcDbLine
 62
7
  6
CONTINUOUS
 10
-10.4595383803
 20
-8.8346286374
 11
-10.2381929367
 21
-8.6132831939
  0
LINE
  5
427
100
AcDbEntity
  8
0
100
AcDbLine
 62
7
  6
CONTINUOUS
 10
-6.4290175802
 20
-4.901153554
 11
-5.4101607806
 21
-3.8822967544
  0
LINE
  5
428
100
AcDbEntity
  8
0
100
AcDbLine
 62
7
  6
CONTINUOUS
 10
-10.4277425236
 20
-9.2711365073
 11
-9.7698892101
 21
-8.6132831939
  0
LINE
  5
429
100
AcDbEntity
  8
0
100
AcDbLine
 62
7
  6
CONTINUOUS
 10
-6.4290175802
 20
-5.3694572806
 11
-5.4101607806
 21
-4.3506004811
  0
LINE
  5
42A
100
AcDbEntity
  8
0
100
AcDbLine
 62
7
  6
CONTINUOUS
 10
-10.3373198069
 20
-9.6490175172
 11
-9.6898930472
 21
-9.0015907575
  0
LWPOLYLINE
  5
42B
100
AcDbEntity
  8
0
100
AcDbPolyline
 62
250
  6
CONTINUOUS
 90
17
 70
0
 10
-8.3603393857
 20
-3.0014011939
 10
-8.4220172665
 20
-3.0074496842
 10
-8.481345856
 20
-3.0253647699
 10
-8.5360653466
 20
-3.0544640712
 10
-8.5848766392
 20
-3.094421737
 10
-8.6242132099
 20
-3.1423181567
 10
-8.6534989086
 20
-3.1969440737
 10
-8.6716182521
 20
-3.2562188038
 10
-8.6778830149
 20
-3.3189931939
 10
-8.6718354458
 20
-3.3806804699
 10
-8.6539230886
 20
-3.4400180968
 10
-8.6248282193
 20
-3.4947459228
 10
-8.5848766392
 20
-3.5435646507
 10
-8.5369875144
 20
-3.5829072134
 10
-8.4823699171
 20
-3.6121973731
 10
-8.4231042149
 20
-3.6303194767
 10
-8.3603393579
 20
-3.6365851939
  0
LWPOLYLINE
  5
42C
100
AcDbEntity
  8
0
100
AcDbPolyline
 62
250
  6
CONTINUOUS
 90
17
 70
0
 10
-11.7053838416
 20
-3.0863621939
 10
-11.6679834989
 20
-3.0826944996
 10
-11.6320077236
 20
-3.0718311181
 10
-11.5988268219
 20
-3.0541858322
 10
-11.5692285438
 20
-3.029956232
 10
-11.5453755643
 20
-3.0009127161
 10
-11.5276172504
 20
-2.9677885557
 10
-11.5166300108
 20
-2.9318454398
 10
-11.5128311728
 20
-2.8937801939
 10
-11.5164983085
 20
-2.856374154
 10
-11.5273600354
 20
-2.8203928986
 10
-11.5450026338
 20
-2.7872069425
 10
-11.5692285438
 20
-2.7576041557
 10
-11.5982676362
 20
-2.7337475428
 10
-11.6313867516
 20
-2.7159865238
 10
-11.6673243932
 20
-2.7049976105
 10
-11.7053838585
 20
-2.7011981939
  0
LWPOLYLINE
  5
42D
100
AcDbEntity
  8
0
100
AcDbPolyline
 62
250
  6
CONTINUOUS
 90
17
 70
0
 10
-11.7053838416
 20
-2.7011981939
 10
-11.7427841843
 20
-2.7048658881
 10
-11.7787599596
 20
-2.7157292696
 10
-11.8119408613
 20
-2.7333745555
 10
-11.8415391395
 20
-2.7576041557
 10
-11.8653921189
 20
-2.7866476716
 10
-11.8831504328
 20
-2.819771832
 10
-11.8941376725
 20
-2.8557149479
 10
-11.8979365105
 20
-2.8937801939
 10
-11.8942693748
 20
-2.9311862337
 10
-11.8834076479
 20
-2.9671674891
 10
-11.8657650494
 20
-3.0003534452
 10
-11.8415391395
 20
-3.029956232
 10
-11.812500047
 20
-3.0538128449
 10
-11.7793809316
 20
-3.0715738639
 10
-11.74344329
 20
-3.0825627772
 10
-11.7053838248
 20
-3.0863621939
  0
LINE
  5
42E
100
AcDbEntity
  8
0
100
AcDbLine
 62
250
  6
CONTINUOUS
 10
-6.4290175802
 20
-2.0913311939
 11
-5.4101607806
 21
-2.0913311939
  0
LINE
  5
42F
100
AcDbEntity
  8
ASSI
100
AcDbLine
 62
7
  6
CONTINUOUS
 10
26.0898392194
 20
-1.2337961939
 11
26.1898392194
 21
-1.2337961939
  0
LINE
  5
430
100
AcDbEntity
  8
ASSI
100
AcDbLine
 62
7
  6
CONTINUOUS
 10
26.0898392194
 20
-0.0256917061
 11
26.1898392194
 21
-0.0256901939
  0
LINE
  5
431
100
AcDbEntity
  8
DRAFT
100
AcDbLine
 62
7
  6
CONTINUOUS
 10
26.0898392194
 20
-1.437302163
 11
-1.6589244126
 21
-1.2600203321
  0
LINE
  5
432
100
AcDbEntity
  8
ASSI
100
AcDbLine
 62
7
  6
CONTINUOUS
 10
26.0898392194
 20
-1.437302163
 11
-1.6589244126
 21
-1.2600203321
  0
LINE
  5
433
100
AcDbEntity
  8
SMUSSO
100
AcDbLine
 62
7
  6
CONTINUOUS
 10
-1.6667056823
 20
-0.9336646362
 11
26.0898392194
 21
-1.1758923338
  0
LINE
  5
434
100
AcDbEntity
  8
ASSI
100
AcDbLine
 62
7
  6
CONTINUOUS
 10
-1.6667056823
 20
-0.9336646362
 11
26.0898392194
 21
-1.1758923338
  0
LINE
  5
435
100
AcDbEntity
  8
0
100
AcDbLine
 62
250
  6
CONTINUOUS
 10
-9.5213681066
 20
2.7044940755
 11
-10.7265254444
 21
3.2483864102
  0
LINE
  5
436
100
AcDbEntity
  8
0
100
AcDbLine
 62
250
  6
CONTINUOUS
 10
-7.1101607806
 20
1.6163068061
 11
-8.3592167883
 21
2.1800105708
  0
LWPOLYLINE
  5
437
100
AcDbEntity
  8
0
100
AcDbPolyline
 62
250
  6
CONTINUOUS
 90
45
 70
0
 10
-10.7265251751
 20
3.2483870072
 10
-10.7598008882
 20
3.2638953262
 10
-10.7923000708
 20
3.2800241566
 10
-10.8240744025
 20
3.2967806964
 10
-10.855175563
 20
3.3141721438
 10
-10.8856552317
 20
3.3322056969
 10
-10.9155650882
 20
3.3508885537
 10
-10.9449568122
 20
3.3702279125
 10
-10.9738820833
 20
3.3902309712
 10
-11.006418954
 20
3.4139129473
 10
-11.0383969653
 20
3.4384784029
 10
-11.0697990026
 20
3.4639345425
 10
-11.1006079514
 20
3.4902885705
 10
-11.130806697
 20
3.5175476914
 10
-11.1603781249
 20
3.5457191097
 10
-11.1893051204
 20
3.5748100298
 10
-11.2175645528
 20
3.6048202841
 10
-11.2451092264
 20
3.635720217
 10
-11.2718859292
 20
3.6674728008
 10
-11.2978414492
 20
3.7000410077
 10
-11.3229225745
 20
3.7333878102
 10
-11.3470760932
 20
3.7674761805
 10
-11.3702487933
 20
3.8022690909
 10
-11.3923945107
 20
3.8377249171
 10
-11.4134952724
 20
3.8737836481
 10
-11.4335401531
 20
3.9103806766
 10
-11.4525182278
 20
3.9474513948
 10
-11.4704185713
 20
3.9849311953
 10
-11.4872302583
 20
4.0227554706
 10
-11.5029423637
 20
4.0608596131
 10
-11.5175479117
 20
4.0991876651
 10
-11.5310557241
 20
4.1377182683
 10
-11.5434785721
 20
4.1764387142
 10
-11.5548292268
 20
4.2153362942
 10
-11.5651204594
 20
4.2543982998
 10
-11.5743650411
 20
4.2936120226
 10
-11.5825757431
 20
4.3329647539
 10
-11.5889181091
 20
4.3675122936
 10
-11.5944636427
 20
4.4022071767
 10
-11.5991972977
 20
4.4371000482
 10
-11.6031040281
 20
4.4722415531
 10
-11.6061687876
 20
4.5076823363
 10
-11.6083765301
 20
4.5434730428
 10
-11.6097122095
 20
4.5796643175
 10
-11.6101607795
 20
4.6163068054
  0
LINE
  5
438
100
AcDbEntity
  8
0
100
AcDbLine
 62
250
  6
CONTINUOUS
 10
-9.052318343
 20
3.5526776846
 11
-8.5820450095
 21
3.325944428
  0
LINE
  5
439
100
AcDbEntity
  8
0
100
AcDbLine
 62
250
  6
CONTINUOUS
 10
-7.6617862556
 20
2.8822610076
 11
-7.1101607806
 21
2.6163060882
  0
LINE
  5
43A
100
AcDbEntity
  8
0
100
AcDbLine
 62
7
  6
CONTINUOUS
 10
-0.2101607806
 20
-5.9463757109
 11
-0.2101607806
 21
-4.4210106768
  0
LINE
  5
43B
100
AcDbEntity
  8
0
100
AcDbLine
 62
7
  6
CONTINUOUS
 10
-0.2101607806
 20
-0.9463757109
 11
-0.2101607806
 21
0.5789893232
  0
LINE
  5
43C
100
AcDbEntity
  8
0
100
AcDbLine
 62
7
  6
CONTINUOUS
 10
-0.2101607806
 20
4.0536242891
 11
-0.2101607806
 21
5.5789893232
  0
LINE
  5
43D
100
AcDbEntity
  8
CURVE
100
AcDbLine
 62
250
  6
CONTINUOUS
 10
-11.1401272815
 20
-11.3265503878
 11
-10.9259068262
 21
-11.1122645969
  0
LINE
  5
43E
100
AcDbEntity
  8
CURVE
100
AcDbLine
 62
250
  6
CONTINUOUS
 10
-11.7827886475
 20
-12.0765503878
 11
-11.5685681699
 21
-11.8622645969
  0
LINE
  5
43F
100
AcDbEntity
  8
CURVE
100
AcDbLine
 62
250
  6
CONTINUOUS
 10
-12.4254499465
 20
-13.1479788954
 11
-12.2112295135
 21
-12.9336931939
  0
LINE
  5
440
100
AcDbEntity
  8
0
100
AcDbLine
 62
7
  6
CONTINUOUS
 10
-6.4290175802
 20
-5.8377610072
 11
-5.4101607806
 21
-4.8189042077
  0
LINE
  5
441
100
AcDbEntity
  8
0
100
AcDbLine
 62
7
  6
CONTINUOUS
 10
-10.2031664932
 20
-9.9831679302
 11
-9.6153113881
 21
-9.395312825
  0
LINE
  5
442
100
AcDbEntity
  8
0
100
AcDbLine
 62
7
  6
CONTINUOUS
 10
-6.3990080402
 20
-6.2760551939
 11
-5.4101607806
 21
-5.2872079343
  0
LINE
  5
443
100
AcDbEntity
  8
0
100
AcDbLine
 62
7
  6
CONTINUOUS
 10
-10.0327170388
 20
-10.2810222024
 11
-9.4761681999
 21
-9.7244733635
  0
LINE
  5
444
100
AcDbEntity
  8
0
100
AcDbLine
 62
7
  6
CONTINUOUS
 10
-5.9307043136
 20
-6.2760551939
 11
-5.4101607806
 21
-5.7555116609
  0
LINE
  5
445
100
AcDbEntity
  8
0
100
AcDbLine
 62
7
  6
CONTINUOUS
 10
-9.8298292864
 20
-10.5464381766
 11
-9.2871918834
 21
-10.0038007735
  0
LINE
  5
446
100
AcDbEntity
  8
0
100
AcDbLine
 62
7
  6
CONTINUOUS
 10
-5.462400587
 20
-6.2760551939
 11
-5.4101607806
 21
-6.2238153875
  0
LINE
  5
447
100
AcDbEntity
  8
0
100
AcDbLine
 62
7
  6
CONTINUOUS
 10
-9.5961929068
 20
-10.7811055235
 11
-9.0537626571
 21
-10.2386752739
  0
LINE
  5
448
100
AcDbEntity
  8
0
100
AcDbLine
 62
7
  6
CONTINUOUS
 10
-8.2925905486
 20
-9.4775031654
 11
-7.9383705771
 21
-9.1232831939
  0
LINE
  5
449
100
AcDbEntity
  8
0
100
AcDbLine
 62
7
  6
CONTINUOUS
 10
-9.331832918
 20
-10.9850492614
 11
-8.7759560316
 21
-10.429172375
  0
LINE
  5
44A
100
AcDbEntity
  8
0
100
AcDbLine
 62
7
  6
CONTINUOUS
 10
-8.2925905786
 20
-9.945806922
 11
-7.5277070391
 21
-9.1809233825
  0
LINE
  5
44B
100
AcDbEntity
  8
0
100
AcDbLine
 62
7
  6
CONTINUOUS
 10
-9.0351166541
 20
-11.1566367241
 11
-8.44859081
 21
-10.57011088
  0
LINE
  5
44C
100
AcDbEntity
  8
0
100
AcDbLine
 62
7
  6
CONTINUOUS
 10
-8.2925906086
 20
-10.4141106786
 11
-7.5277070391
 21
-9.6492271091
  0
LINE
  5
44D
100
AcDbEntity
  8
0
100
AcDbLine
 62
7
  6
CONTINUOUS
 10
-10.4548219294
 20
-13.044645726
 11
-10.3584593972
 21
-12.9482831939
  0
LINE
  5
44E
100
AcDbEntity
  8
0
100
AcDbLine
 62
7
  6
CONTINUOUS
 10
-8.7022692453
 20
-11.2920930419
 11
-7.5277070391
 21
-10.1175308357
  0
LINE
  5
44F
100
AcDbEntity
  8
0
100
AcDbLine
 62
7
  6
CONTINUOUS
 10
-6.1314814147
 20
-8.7213052114
 11
-6.0234593972
 21
-8.6132831939
  0
LINE
  5
450
100
AcDbEntity
  8
0
100
AcDbLine
 62
7
  6
CONTINUOUS
 10
-10.4423816386
 20
-13.5005091619
 11
-9.8901556706
 21
-12.9482831939
  0
LINE
  5
451
100
AcDbEntity
  8
0
100
AcDbLine
 62
7
  6
CONTINUOUS
 10
-8.3260072593
 20
-11.3841347825
 11
-7.5277070391
 21
-10.5858345623
  0
LINE
  5
452
100
AcDbEntity
  8
0
100
AcDbLine
 62
7
  6
CONTINUOUS
 10
-6.1600431974
 20
-9.2181707206
 11
-5.5551556706
 21
-8.6132831939
  0
LINE
  5
453
100
AcDbEntity
  8
CURVE
100
AcDbLine
 62
250
  6
CONTINUOUS
 10
-12.4254499465
 20
-12.0765503878
 11
-12.2112295135
 21
-11.8979789252
  0
LINE
  5
454
100
AcDbEntity
  8
CURVE
100
AcDbLine
 62
250
  6
CONTINUOUS
 10
-11.9099819989
 20
-7.4961931939
 11
-12.0037034439
 21
-7.5430681939
  0
LWPOLYLINE
  5
455
100
AcDbEntity
  8
DRAFT
100
AcDbPolyline
 62
7
  6
CONTINUOUS
 90
34
 70
0
 10
-1.6589244126
 20
0.8926339443
 10
-1.7636330935
 20
0.8866944623
 10
-1.8652706952
 20
0.8714511081
 10
-1.9638372175
 20
0.846903882
 10
-2.0601134629
 20
0.8126040235
 10
-2.153318629
 20
0.769000293
 10
-2.2411103087
 20
0.7174389713
 10
-2.3232955713
 20
0.6578004942
 10
-2.4000673475
 20
0.5902044259
 10
-2.4696620223
 20
0.5163557401
 10
-2.532063909
 20
0.435930588
 10
-2.5872886944
 20
0.3492528184
 10
-2.6336198238
 20
0.2589989508
 10
-2.6706285197
 20
0.1654898411
 10
-2.6987435596
 20
0.0684046334
 10
-2.7175347214
 20
-0.0305427203
 10
-2.7268585978
 20
-0.1320223333
 10
-2.726858596
 20
-0.2353640922
 10
-2.717534716
 20
-0.3368437052
 10
-2.6987435498
 20
-0.4357910599
 10
-2.6706285053
 20
-0.5328762688
 10
-2.6336198064
 20
-0.6263853771
 10
-2.587288677
 20
-0.7166392386
 10
-2.5320638933
 20
-0.8033169996
 10
-2.4696620078
 20
-0.8837421447
 10
-2.4000673325
 20
-0.9575908273
 10
-2.3232955555
 20
-1.0251868939
 10
-2.2411102933
 20
-1.0848253691
 10
-2.1533186166
 20
-1.1363866878
 10
-2.0601134548
 20
-1.179990415
 10
-1.9638372129
 20
-1.2142902711
 10
-1.8652706928
 20
-1.238837496
 10
-1.7636330927
 20
-1.2540808496
 10
-1.6589244126
 20
-1.2600203321
  0
LWPOLYLINE
  5
456
100
AcDbEntity
  8
ASSI
100
AcDbPolyline
 62
7
  6
CONTINUOUS
 90
34
 70
0
 10
-1.6589244126
 20
0.8926339443
 10
-1.7636330935
 20
0.8866944623
 10
-1.8652706952
 20
0.8714511081
 10
-1.9638372175
 20
0.846903882
 10
-2.0601134629
 20
0.8126040235
 10
-2.153318629
 20
0.769000293
 10
-2.2411103087
 20
0.7174389713
 10
-2.3232955713
 20
0.6578004942
 10
-2.4000673475
 20
0.5902044259
 10
-2.4696620223
 20
0.5163557401
 10
-2.532063909
 20
0.435930588
 10
-2.5872886944
 20
0.3492528184
 10
-2.6336198238
 20
0.2589989508
 10
-2.6706285197
 20
0.1654898411
 10
-2.6987435596
 20
0.0684046334
 10
-2.7175347214
 20
-0.0305427203
 10
-2.7268585978
 20
-0.1320223333
 10
-2.726858596
 20
-0.2353640922
 10
-2.717534716
 20
-0.3368437052
 10
-2.6987435498
 20
-0.4357910599
 10
-2.6706285053
 20
-0.5328762688
 10
-2.6336198064
 20
-0.6263853771
 10
-2.587288677
 20
-0.7166392386
 10
-2.5320638933
 20
-0.8033169996
 10
-2.4696620078
 20
-0.8837421447
 10
-2.4000673325
 20
-0.9575908273
 10
-2.3232955555
 20
-1.0251868939
 10
-2.2411102933
 20
-1.0848253691
 10
-2.1533186166
 20
-1.1363866878
 10
-2.0601134548
 20
-1.179990415
 10
-1.9638372129
 20
-1.2142902711
 10
-1.8652706928
 20
-1.238837496
 10
-1.7636330927
 20
-1.2540808496
 10
-1.6589244126
 20
-1.2600203321
  0
LINE
  5
457
100
AcDbEntity
  8
DRAFT
100
AcDbLine
 62
7
  6
CONTINUOUS
 10
26.0898392194
 20
0.8085059461
 11
-1.6667056823
 21
0.5662782484
  0
LINE
  5
458
100
AcDbEntity
  8
ASSI
100
AcDbLine
 62
7
  6
CONTINUOUS
 10
26.0898392194
 20
0.8085059461
 11
-1.6667056823
 21
0.5662782484
  0
LINE
  5
459
100
AcDbEntity
  8
DRAFT
100
AcDbLine
 62
7
  6
CONTINUOUS
 10
26.0898392194
 20
1.0699157753
 11
-1.6589244126
 21
0.8926339443
  0
LINE
  5
45A
100
AcDbEntity
  8
ASSI
100
AcDbLine
 62
7
  6
CONTINUOUS
 10
26.0898392194
 20
1.0699157753
 11
-1.6589244126
 21
0.8926339443
  0
LINE
  5
45B
100
AcDbEntity
  8
ASSI
100
AcDbLine
 62
7
  6
CONTINUOUS
 10
26.0898392194
 20
0.8162918061
 11
26.1898392194
 21
0.8162918061
  0
LINE
  5
45C
100
AcDbEntity
  8
0
100
AcDbLine
 62
7
  6
CONTINUOUS
 10
-10.3651307057
 20
-13.8915619555
 11
-9.6947870016
 21
-13.2212182515
  0
LINE
  5
45D
100
AcDbEntity
  8
0
100
AcDbLine
 62
7
  6
CONTINUOUS
 10
-7.891785841
 20
-11.4182170909
 11
-5.3606060793
 21
-8.8870373291
  0
LINE
  5
45E
100
AcDbEntity
  8
0
100
AcDbLine
 62
7
  6
CONTINUOUS
 10
-10.2413003311
 20
-14.2360353075
 11
-9.6415665248
 21
-13.6363015013
  0
LINE
  5
45F
100
AcDbEntity
  8
0
100
AcDbLine
 62
7
  6
CONTINUOUS
 10
-7.3644578657
 20
-11.3591928421
 11
-5.4197016584
 21
-9.4144366348
  0
LINE
  5
460
100
AcDbEntity
  8
0
100
AcDbLine
 62
7
  6
CONTINUOUS
 10
-10.0796960854
 20
-14.5427347884
 11
-9.5170249554
 21
-13.9800636585
  0
LINE
  5
461
100
AcDbEntity
  8
0
100
AcDbLine
 62
7
  6
CONTINUOUS
 10
-6.581834321
 20
-11.0448730241
 11
-5.7340928068
 21
-10.1971315099
  0
LINE
  5
462
100
AcDbEntity
  8
0
100
AcDbLine
 62
7
  6
CONTINUOUS
 10
-9.8849044828
 20
-14.8162469125
 11
-9.3400755834
 21
-14.2714180131
  0
LINE
  5
463
100
AcDbEntity
  8
0
100
AcDbLine
 62
7
  6
CONTINUOUS
 10
-9.6590993136
 20
-15.0587454699
 11
-9.1178665115
 21
-14.5175126678
  0
LINE
  5
464
100
AcDbEntity
  8
0
100
AcDbLine
 62
7
  6
CONTINUOUS
 10
-9.4027150656
 20
-15.2706649485
 11
-8.8517140118
 21
-14.7196638947
  0
LINE
  5
465
100
AcDbEntity
  8
0
100
AcDbLine
 62
7
  6
CONTINUOUS
 10
-9.1145685247
 20
-15.4508221342
 11
-8.5379491592
 21
-14.8742027687
  0
LINE
  5
466
100
AcDbEntity
  8
0
100
AcDbLine
 62
7
  6
CONTINUOUS
 10
-8.7915176286
 20
-15.5960749647
 11
-8.1653789966
 21
-14.9699363327
  0
LINE
  5
467
100
AcDbEntity
  8
CURVE
100
AcDbLine
 62
250
  6
CONTINUOUS
 10
-11.9970090805
 20
-10.6836931939
 11
-12.2112295135
 21
-10.7908359999
  0
LINE
  5
468
100
AcDbEntity
  8
CURVE
100
AcDbLine
 62
250
  6
CONTINUOUS
 10
-11.3543477369
 20
-11.4336931939
 11
-11.1401272815
 21
-11.3265503878
  0
LINE
  5
469
100
AcDbEntity
  8
CURVE
100
AcDbLine
 62
250
  6
CONTINUOUS
 10
-11.1133497162
 20
-7.6368181939
 11
-11.2539318838
 21
-7.6836931939
  0
LINE
  5
46A
100
AcDbEntity
  8
DRAFT
100
AcDbLine
 62
7
  6
CONTINUOUS
 10
26.0898392194
 20
5.8085059461
 11
-1.6667056823
 21
5.5662782484
  0
LINE
  5
46B
100
AcDbEntity
  8
ASSI
100
AcDbLine
 62
7
  6
CONTINUOUS
 10
26.0898392194
 20
5.8085059461
 11
-1.6667056823
 21
5.5662782484
  0
LINE
  5
46C
100
AcDbEntity
  8
0
100
AcDbLine
 62
250
  6
CONTINUOUS
 10
-13.1101607791
 20
4.6163068054
 11
-12.1101614971
 21
4.6163068054
  0
LINE
  5
46D
100
AcDbEntity
  8
0
100
AcDbLine
 62
250
  6
CONTINUOUS
 10
-8.1101611393
 20
4.6163068054
 11
-7.1101607806
 21
4.6163068054
  0
LINE
  5
46E
100
AcDbEntity
  8
ASSI
100
AcDbLine
 62
7
  6
CONTINUOUS
 10
26.0898392194
 20
4.8163068061
 11
26.1898392194
 21
4.8163068061
  0
LINE
  5
46F
100
AcDbEntity
  8
ASSI
100
AcDbLine
 62
250
  6
CONTINUOUS
 10
26.0898392194
 20
5.3785848061
 11
26.1898392194
 21
5.3785848061
  0
LINE
  5
470
100
AcDbEntity
  8
CURVE
100
AcDbLine
 62
250
  6
CONTINUOUS
 10
-5.0105736548
 20
5.7142108061
 11
-6.8100363958
 21
5.7142108061
  0
LINE
  5
471
100
AcDbEntity
  8
DRAFT
100
AcDbLine
 62
7
  6
CONTINUOUS
 10
26.0898392194
 20
3.562697837
 11
-1.6589244126
 21
3.7399796679
  0
LINE
  5
472
100
AcDbEntity
  8
ASSI
100
AcDbLine
 62
7
  6
CONTINUOUS
 10
26.0898392194
 20
3.562697837
 11
-1.6589244126
 21
3.7399796679
  0
LINE
  5
473
100
AcDbEntity
  8
DRAFT
100
AcDbLine
 62
7
  6
CONTINUOUS
 10
-1.6667056823
 20
4.0663353638
 11
26.0898392194
 21
3.8241076662
  0
LINE
  5
474
100
AcDbEntity
  8
ASSI
100
AcDbLine
 62
7
  6
CONTINUOUS
 10
-1.6667056823
 20
4.0663353638
 11
26.0898392194
 21
3.8241076662
  0
LINE
  5
475
100
AcDbEntity
  8
CURVE
100
AcDbLine
 62
250
  6
CONTINUOUS
 10
-4.4278866384
 20
10.6377353808
 11
-4.2136662054
 21
10.4234496681
  0
LWPOLYLINE
  5
476
100
AcDbEntity
  8
0
100
AcDbPolyline
 62
7
  6
CONTINUOUS
 90
2
 70
0
 43
0.3499999865
 10
4.7326944119
 20
34.279620157
 10
4.7326944119
 20
35.7796216218
  0
LWPOLYLINE
  5
477
100
AcDbEntity
  8
0
100
AcDbPolyline
 62
7
  6
CONTINUOUS
 90
13
 70
0
 43
0.3499999865
 10
6.0898378725
 20
35.1367631293
 10
6.0898378725
 20
36.4224775879
 10
6.3041274052
 20
36.8510490741
 10
6.732696365
 20
37.2796205603
 10
6.9469808449
 20
37.2796205603
 10
7.3755548575
 20
36.8510490741
 10
7.5898393374
 20
36.4224775879
 10
7.5898393374
 20
35.1367631293
 10
7.3755548575
 20
34.7081916432
 10
6.9469808449
 20
34.279620157
 10
6.732696365
 20
34.279620157
 10
6.3041274052
 20
34.7081916432
 10
6.0898378725
 20
35.1367631293
  0
LINE
  5
478
100
AcDbEntity
  8
0
100
AcDbLine
 62
7
  6
CONTINUOUS
 10
-8.42739525
 20
-15.7002563127
 11
-7.7034054326
 21
-14.9762664953
  0
LINE
  5
479
100
AcDbEntity
  8
0
100
AcDbLine
 62
7
  6
CONTINUOUS
 10
-6.1374670259
 20
-13.4103280886
 11
-5.6754221311
 21
-12.9482831939
  0
LINE
  5
47A
100
AcDbEntity
  8
0
100
AcDbLine
 62
7
  6
CONTINUOUS
 10
-8.010156019
 20
-15.7513208084
 11
-6.9939838186
 21
-14.7351486079
  0
LINE
  5
47B
100
AcDbEntity
  8
0
100
AcDbLine
 62
7
  6
CONTINUOUS
 10
-6.3786562437
 20
-14.119821033
 11
-5.3624840432
 21
-13.1036488326
  0
LINE
  5
47C
100
AcDbEntity
  8
0
100
AcDbLine
 62
7
  6
CONTINUOUS
 10
-7.5126300529
 20
-15.7220985689
 11
-5.3917776131
 21
-13.601246129
  0
LINE
  5
47D
100
AcDbEntity
  8
0
100
AcDbLine
 62
7
  6
CONTINUOUS
 10
-6.8400294532
 20
-15.5178016957
 11
-5.5961458166
 21
-14.2739180591
  0
LWPOLYLINE
  5
47E
100
AcDbEntity
  8
0
100
AcDbPolyline
 62
250
  6
CONTINUOUS
 90
8
 70
0
 10
-7.5277070391
 20
-10.6118191939
 10
-7.1679478706
 20
-10.4916112579
 10
-6.8417125898
 20
-10.2980804967
 10
-6.5637366609
 20
-10.0399683486
 10
-6.3435815133
 20
-9.7234693146
 10
-6.1982665261
 20
-9.3730507627
 10
-6.1302741986
 20
-8.9998327625
 10
-6.1437263039
 20
-8.6132832221
  0
LINE
  5
47F
100
AcDbEntity
  8
CURVE
100
AcDbLine
 62
250
  6
CONTINUOUS
 10
-10.9259068262
 20
-9.8265503878
 11
-12.4254499465
 21
-10.255121612
  0
LWPOLYLINE
  5
480
100
AcDbEntity
  8
DRAFT
100
AcDbPolyline
 62
7
  6
CONTINUOUS
 90
34
 70
0
 10
-1.6589244126
 20
5.8926339443
 10
-1.7636330935
 20
5.8866944623
 10
-1.8652706952
 20
5.8714511081
 10
-1.9638372175
 20
5.846903882
 10
-2.0601134629
 20
5.8126040235
 10
-2.153318629
 20
5.769000293
 10
-2.2411103087
 20
5.7174389713
 10
-2.3232955713
 20
5.6578004942
 10
-2.4000673475
 20
5.5902044259
 10
-2.4696620223
 20
5.5163557401
 10
-2.532063909
 20
5.435930588
 10
-2.5872886944
 20
5.3492528184
 10
-2.6336198238
 20
5.2589989508
 10
-2.6706285197
 20
5.1654898411
 10
-2.6987435596
 20
5.0684046334
 10
-2.7175347214
 20
4.9694572797
 10
-2.7268585978
 20
4.8679776667
 10
-2.726858596
 20
4.7646359078
 10
-2.717534716
 20
4.6631562948
 10
-2.6987435498
 20
4.5642089401
 10
-2.6706285053
 20
4.4671237312
 10
-2.6336198064
 20
4.3736146229
 10
-2.587288677
 20
4.2833607614
 10
-2.5320638933
 20
4.1966830004
 10
-2.4696620078
 20
4.1162578553
 10
-2.4000673325
 20
4.0424091727
 10
-2.3232955555
 20
3.9748131061
 10
-2.2411102933
 20
3.9151746309
 10
-2.1533186166
 20
3.8636133122
 10
-2.0601134548
 20
3.820009585
 10
-1.9638372129
 20
3.7857097289
 10
-1.8652706928
 20
3.761162504
 10
-1.7636330927
 20
3.7459191504
 10
-1.6589244126
 20
3.7399796679
  0
LWPOLYLINE
  5
481
100
AcDbEntity
  8
ASSI
100
AcDbPolyline
 62
7
  6
CONTINUOUS
 90
34
 70
0
 10
-1.6589244126
 20
5.8926339443
 10
-1.7636330935
 20
5.8866944623
 10
-1.8652706952
 20
5.8714511081
 10
-1.9638372175
 20
5.846903882
 10
-2.0601134629
 20
5.8126040235
 10
-2.153318629
 20
5.769000293
 10
-2.2411103087
 20
5.7174389713
 10
-2.3232955713
 20
5.6578004942
 10
-2.4000673475
 20
5.5902044259
 10
-2.4696620223
 20
5.5163557401
 10
-2.532063909
 20
5.435930588
 10
-2.5872886944
 20
5.3492528184
 10
-2.6336198238
 20
5.2589989508
 10
-2.6706285197
 20
5.1654898411
 10
-2.6987435596
 20
5.0684046334
 10
-2.7175347214
 20
4.9694572797
 10
-2.7268585978
 20
4.8679776667
 10
-2.726858596
 20
4.7646359078
 10
-2.717534716
 20
4.6631562948
 10
-2.6987435498
 20
4.5642089401
 10
-2.6706285053
 20
4.4671237312
 10
-2.6336198064
 20
4.3736146229
 10
-2.587288677
 20
4.2833607614
 10
-2.5320638933
 20
4.1966830004
 10
-2.4696620078
 20
4.1162578553
 10
-2.4000673325
 20
4.0424091727
 10
-2.3232955555
 20
3.9748131061
 10
-2.2411102933
 20
3.9151746309
 10
-2.1533186166
 20
3.8636133122
 10
-2.0601134548
 20
3.820009585
 10
-1.9638372129
 20
3.7857097289
 10
-1.8652706928
 20
3.761162504
 10
-1.7636330927
 20
3.7459191504
 10
-1.6589244126
 20
3.7399796679
  0
LINE
  5
482
100
AcDbEntity
  8
DRAFT
100
AcDbLine
 62
7
  6
CONTINUOUS
 10
26.0898392194
 20
6.0699157753
 11
-1.6589244126
 21
5.8926339443
  0
LINE
  5
483
100
AcDbEntity
  8
ASSI
100
AcDbLine
 62
7
  6
CONTINUOUS
 10
26.0898392194
 20
6.0699157753
 11
-1.6589244126
 21
5.8926339443
  0
LINE
  5
484
100
AcDbEntity
  8
ASSI
100
AcDbLine
 62
7
  6
CONTINUOUS
 10
26.0898392194
 20
5.7489383174
 11
26.1898392194
 21
5.7489383174
  0
LINE
  5
485
100
AcDbEntity
  8
ASSI
100
AcDbLine
 62
7
  6
CONTINUOUS
 10
26.0898392194
 20
5.8521338061
 11
26.1898392194
 21
5.8521338061
  0
LINE
  5
486
100
AcDbEntity
  8
CURVE
100
AcDbLine
 62
250
  6
CONTINUOUS
 10
-6.4624506303
 20
5.9410928061
 11
-5.0105736548
 21
5.9410928061
  0
LINE
  5
487
100
AcDbEntity
  8
ASSI
100
AcDbLine
 62
7
  6
CONTINUOUS
 10
26.0898392194
 20
6.3222288061
 11
26.1898392194
 21
6.3222288061
  0
LINE
  5
488
100
AcDbEntity
  8
ASSI
100
AcDbLine
 62
7
  6
CONTINUOUS
 10
26.0898392194
 20
6.5137008061
 11
26.1898392194
 21
6.5137008061
  0
LINE
  5
489
100
AcDbEntity
  8
CURVE
100
AcDbLine
 62
250
  6
CONTINUOUS
 10
-5.3430461367
 20
6.9217948061
 11
-6.8100363958
 21
6.9217948061
  0
LINE
  5
48A
100
AcDbEntity
  8
ASSI
100
AcDbLine
 62
7
  6
CONTINUOUS
 10
26.0898392194
 20
6.9663268061
 11
26.1898392194
 21
6.9663268061
  0
LINE
  5
48B
100
AcDbEntity
  8
ASSI
100
AcDbLine
 62
7
  6
CONTINUOUS
 10
26.0898392194
 20
7.0133068061
 11
26.1898392194
 21
7.0133068061
  0
LINE
  5
48C
100
AcDbEntity
  8
CURVE
100
AcDbLine
 62
250
  6
CONTINUOUS
 10
-6.8100363958
 20
7.1486938061
 11
-5.0105736548
 21
7.1486938061
  0
LINE
  5
48D
100
AcDbEntity
  8
CURVE
100
AcDbLine
 62
250
  6
CONTINUOUS
 10
-5.0105736548
 20
7.6503218061
 11
-6.8100363958
 21
7.6503218061
  0
LINE
  5
48E
100
AcDbEntity
  8
CURVE
100
AcDbLine
 62
250
  6
CONTINUOUS
 10
-6.6084188245
 20
7.8898328061
 11
-6.0363181317
 21
7.8898328061
  0
LINE
  5
48F
100
AcDbEntity
  8
CURVE
100
AcDbLine
 62
250
  6
CONTINUOUS
 10
-5.8346835656
 20
7.8898328061
 11
-5.2121912261
 21
7.8898328061
  0
LINE
  5
490
100
AcDbEntity
  8
ASSI
100
AcDbLine
 62
7
  6
CONTINUOUS
 10
26.0898392194
 20
8.0282098061
 11
26.1898392194
 21
8.0282098061
  0
LINE
  5
491
100
AcDbEntity
  8
ASSI
100
AcDbLine
 62
7
  6
CONTINUOUS
 10
26.0898392194
 20
8.2040878061
 11
26.1898392194
 21
8.2040878061
  0
LINE
  5
492
100
AcDbEntity
  8
ASSI
100
AcDbLine
 62
7
  6
CONTINUOUS
 10
26.0898392194
 20
8.3850988061
 11
26.1898392194
 21
8.3850988061
  0
LINE
  5
493
100
AcDbEntity
  8
CURVE
100
AcDbLine
 62
250
  6
CONTINUOUS
 10
-5.2423653241
 20
9.8813931286
 11
-6.8100313973
 21
10.4032388061
  0
LINE
  5
494
100
AcDbEntity
  8
CURVE
100
AcDbLine
 62
250
  6
CONTINUOUS
 10
-6.8100313973
 20
10.6528338061
 11
-5.0105686564
 21
10.0124738061
  0
LINE
  5
495
100
AcDbEntity
  8
CURVE
100
AcDbLine
 62
250
  6
CONTINUOUS
 10
-4.2136662054
 20
10.4234496681
 11
-3.9994457724
 21
10.3163068061
  0
LINE
  5
496
100
AcDbEntity
  8
CURVE
100
AcDbLine
 62
250
  6
CONTINUOUS
 10
-4.2136662054
 20
11.4948782092
 11
-4.4278866384
 21
11.7091639107
  0
LINE
  5
497
100
AcDbEntity
  8
CURVE
100
AcDbLine
 62
250
  6
CONTINUOUS
 10
-2.9283435181
 20
10.7448782539
 11
-3.1425639735
 21
10.9591639554
  0
LINE
  5
498
100
AcDbEntity
  8
CURVE
100
AcDbLine
 62
250
  6
CONTINUOUS
 10
-4.4278866384
 20
13.1020210152
 11
-3.9994457724
 21
12.6734496122
  0
LINE
  5
499
100
AcDbEntity
  8
CURVE
100
AcDbLine
 62
250
  6
CONTINUOUS
 10
-3.3567844288
 20
12.1377354031
 11
-2.9283435181
 21
11.7091639107
  0
LINE
  5
49A
100
AcDbEntity
  8
CURVE
100
AcDbLine
 62
250
  6
CONTINUOUS
 10
-4.1065559442
 20
14.9234496122
 11
-4.4278866384
 21
15.244878388
  0
LINE
  5
49B
100
AcDbEntity
  8
RACCORDO
100
AcDbLine
 62
7
  6
CONTINUOUS
 10
-24.9101607806
 20
7.1413068061
 11
-31.6043525717
 21
6.6732033157
  0
LINE
  5
49C
100
AcDbEntity
  8
DRAFT
100
AcDbLine
 62
7
  6
CONTINUOUS
 10
-24.6310877228
 20
7.1610044655
 11
-23.3548889801
 21
7.250244975
  0
LWPOLYLINE
  5
49D
100
AcDbEntity
  8
DRAFT
100
AcDbPolyline
 62
7
  6
CONTINUOUS
 90
34
 70
0
 10
-1.6589244126
 20
10.8926339443
 10
-1.7636330935
 20
10.8866944623
 10
-1.8652706952
 20
10.8714511081
 10
-1.9638372175
 20
10.846903882
 10
-2.0601134629
 20
10.8126040235
 10
-2.153318629
 20
10.769000293
 10
-2.2411103087
 20
10.7174389713
 10
-2.3232955713
 20
10.6578004942
 10
-2.4000673475
 20
10.5902044259
 10
-2.4696620223
 20
10.5163557401
 10
-2.532063909
 20
10.435930588
 10
-2.5872886944
 20
10.3492528184
 10
-2.6336198238
 20
10.2589989508
 10
-2.6706285197
 20
10.1654898411
 10
-2.6987435596
 20
10.0684046334
 10
-2.7175347214
 20
9.9694572797
 10
-2.7268585978
 20
9.8679776667
 10
-2.726858596
 20
9.7646359078
 10
-2.717534716
 20
9.6631562948
 10
-2.6987435498
 20
9.5642089401
 10
-2.6706285053
 20
9.4671237312
 10
-2.6336198064
 20
9.3736146229
 10
-2.587288677
 20
9.2833607614
 10
-2.5320638933
 20
9.1966830004
 10
-2.4696620078
 20
9.1162578553
 10
-2.4000673325
 20
9.0424091727
 10
-2.3232955555
 20
8.9748131061
 10
-2.2411102933
 20
8.9151746309
 10
-2.1533186166
 20
8.8636133122
 10
-2.0601134548
 20
8.820009585
 10
-1.9638372129
 20
8.7857097289
 10
-1.8652706928
 20
8.761162504
 10
-1.7636330927
 20
8.7459191504
 10
-1.6589244126
 20
8.7399796679
  0
LWPOLYLINE
  5
49E
100
AcDbEntity
  8
ASSI
100
AcDbPolyline
 62
7
  6
CONTINUOUS
 90
34
 70
0
 10
-1.6589244126
 20
10.8926339443
 10
-1.7636330935
 20
10.8866944623
 10
-1.8652706952
 20
10.8714511081
 10
-1.9638372175
 20
10.846903882
 10
-2.0601134629
 20
10.8126040235
 10
-2.153318629
 20
10.769000293
 10
-2.2411103087
 20
10.7174389713
 10
-2.3232955713
 20
10.6578004942
 10
-2.4000673475
 20
10.5902044259
 10
-2.4696620223
 20
10.5163557401
 10
-2.532063909
 20
10.435930588
 10
-2.5872886944
 20
10.3492528184
 10
-2.6336198238
 20
10.2589989508
 10
-2.6706285197
 20
10.1654898411
 10
-2.6987435596
 20
10.0684046334
 10
-2.7175347214
 20
9.9694572797
 10
-2.7268585978
 20
9.8679776667
 10
-2.726858596
 20
9.7646359078
 10
-2.717534716
 20
9.6631562948
 10
-2.6987435498
 20
9.5642089401
 10
-2.6706285053
 20
9.4671237312
 10
-2.6336198064
 20
9.3736146229
 10
-2.587288677
 20
9.2833607614
 10
-2.5320638933
 20
9.1966830004
 10
-2.4696620078
 20
9.1162578553
 10
-2.4000673325
 20
9.0424091727
 10
-2.3232955555
 20
8.9748131061
 10
-2.2411102933
 20
8.9151746309
 10
-2.1533186166
 20
8.8636133122
 10
-2.0601134548
 20
8.820009585
 10
-1.9638372129
 20
8.7857097289
 10
-1.8652706928
 20
8.761162504
 10
-1.7636330927
 20
8.7459191504
 10
-1.6589244126
 20
8.7399796679
  0
LINE
  5
49F
100
AcDbEntity
  8
DRAFT
100
AcDbLine
 62
7
  6
CONTINUOUS
 10
26.0898392194
 20
10.8085059461
 11
-1.6667056823
 21
10.5662782484
  0
LINE
  5
4A0
100
AcDbEntity
  8
ASSI
100
AcDbLine
 62
7
  6
CONTINUOUS
 10
26.0898392194
 20
10.8085059461
 11
-1.6667056823
 21
10.5662782484
  0
LINE
  5
4A1
100
AcDbEntity
  8
DRAFT
100
AcDbLine
 62
7
  6
CONTINUOUS
 10
26.0898392194
 20
11.0699157753
 11
-1.6589244126
 21
10.8926339443
  0
LINE
  5
4A2
100
AcDbEntity
  8
ASSI
100
AcDbLine
 62
7
  6
CONTINUOUS
 10
26.0898392194
 20
11.0699157753
 11
-1.6589244126
 21
10.8926339443
  0
LINE
  5
4A3
100
AcDbEntity
  8
CURVE
100
AcDbLine
 62
250
  6
CONTINUOUS
 10
-6.0363181317
 20
8.8251248061
 11
-5.8346835656
 21
8.8251248061
  0
LINE
  5
4A4
100
AcDbEntity
  8
CURVE
100
AcDbLine
 62
250
  6
CONTINUOUS
 10
-6.8100363958
 20
8.8931938061
 11
-6.6084188245
 21
8.8931938061
  0
LINE
  5
4A5
100
AcDbEntity
  8
CURVE
100
AcDbLine
 62
250
  6
CONTINUOUS
 10
-5.2121912261
 20
8.9007528061
 11
-5.0105736548
 21
8.9007528061
  0
LINE
  5
4A6
100
AcDbEntity
  8
ASSI
100
AcDbLine
 62
7
  6
CONTINUOUS
 10
26.0898392194
 20
9.1702348061
 11
26.1898392194
 21
9.1702348061
  0
LINE
  5
4A7
100
AcDbEntity
  8
ASSI
100
AcDbLine
 62
250
  6
CONTINUOUS
 10
26.0898392194
 20
9.7325128061
 11
26.1898392194
 21
9.7325128061
  0
LINE
  5
4A8
100
AcDbEntity
  8
ASSI
100
AcDbLine
 62
7
  6
CONTINUOUS
 10
26.0898392194
 20
10.1028664658
 11
26.1898392194
 21
10.1028664658
  0
LINE
  5
4A9
100
AcDbEntity
  8
CURVE
100
AcDbLine
 62
250
  6
CONTINUOUS
 10
-3.9994457724
 20
10.3163068061
 11
-3.3567844288
 21
10.3163068061
  0
LINE
  5
4AA
100
AcDbEntity
  8
ASSI
100
AcDbLine
 62
7
  6
CONTINUOUS
 10
26.0898392194
 20
10.3314078061
 11
26.1898392194
 21
10.3314078061
  0
LINE
  5
4AB
100
AcDbEntity
  8
CURVE
100
AcDbLine
 62
250
  6
CONTINUOUS
 10
-5.0105736548
 20
10.9578668061
 11
-6.8100363958
 21
10.9578668061
  0
LINE
  5
4AC
100
AcDbEntity
  8
CURVE
100
AcDbLine
 62
250
  6
CONTINUOUS
 10
-3.3567844288
 20
11.0663068061
 11
-3.9994457724
 21
11.0663068061
  0
LINE
  5
4AD
100
AcDbEntity
  8
DRAFT
100
AcDbLine
 62
7
  6
CONTINUOUS
 10
26.0898392194
 20
8.562697837
 11
-1.6589244126
 21
8.7399796679
  0
LINE
  5
4AE
100
AcDbEntity
  8
ASSI
100
AcDbLine
 62
7
  6
CONTINUOUS
 10
26.0898392194
 20
8.562697837
 11
-1.6589244126
 21
8.7399796679
  0
LINE
  5
4AF
100
AcDbEntity
  8
DRAFT
100
AcDbLine
 62
7
  6
CONTINUOUS
 10
-1.6667056823
 20
9.0663353638
 11
26.0898392194
 21
8.8241076662
  0
LINE
  5
4B0
100
AcDbEntity
  8
ASSI
100
AcDbLine
 62
7
  6
CONTINUOUS
 10
-1.6667056823
 20
9.0663353638
 11
26.0898392194
 21
8.8241076662
  0
LINE
  5
4B1
100
AcDbEntity
  8
CURVE
100
AcDbLine
 62
250
  6
CONTINUOUS
 10
-3.1425639735
 20
10.9591639554
 11
-3.3567844288
 21
11.0663068061
  0
LINE
  5
4B2
100
AcDbEntity
  8
CURVE
100
AcDbLine
 62
250
  6
CONTINUOUS
 10
-3.1425639735
 20
15.4591640001
 11
-2.9283435181
 21
15.244878388
  0
LINE
  5
4B3
100
AcDbEntity
  8
0
100
AcDbLine
 62
7
  6
CONTINUOUS
 10
-6.2662312823
 20
-21.8397636955
 11
-5.7373236374
 21
-21.3108560506
  0
LINE
  5
4B4
100
AcDbEntity
  8
DRAFT
100
AcDbLine
 62
7
  6
CONTINUOUS
 10
-5.7373236374
 20
-21.3108560506
 11
-4.6906880711
 21
-20.2642204844
  0
LINE
  5
4B5
100
AcDbEntity
  8
ASSI
100
AcDbLine
 62
7
  6
CONTINUOUS
 10
-6.2662312823
 20
-21.8397636955
 11
-4.6906880711
 21
-20.2642204844
  0
LWPOLYLINE
  5
4B6
100
AcDbEntity
  8
CURVE
100
AcDbPolyline
 62
250
  6
CONTINUOUS
 90
95
 70
0
 10
-5.7310460184
 20
12.8248340069
 10
-5.7067983967
 20
12.8250020996
 10
-5.6823415446
 20
12.8255241337
 10
-5.6577159161
 20
12.8264267431
 10
-5.6329619653
 20
12.8277365616
 10
-5.6081201461
 20
12.8294802231
 10
-5.5832309128
 20
12.8316843616
 10
-5.5583347193
 20
12.8343756108
 10
-5.5334720198
 20
12.8375806046
 10
-5.5086832683
 20
12.8413259771
 10
-5.4840089188
 20
12.8456383619
 10
-5.4594894255
 20
12.8505443931
 10
-5.4351652425
 20
12.8560707044
 10
-5.4110768237
 20
12.8622439298
 10
-5.3872646232
 20
12.8690907031
 10
-5.3637690952
 20
12.8766376583
 10
-5.3406306936
 20
12.8849114292
 10
-5.3178898727
 20
12.8939386496
 10
-5.2955870863
 20
12.9037459535
 10
-5.2737627887
 20
12.9143599748
 10
-5.2524574338
 20
12.9258073473
 10
-5.2317114758
 20
12.9381147049
 10
-5.2115653687
 20
12.9513086815
 10
-5.1920595666
 20
12.9654159109
 10
-5.1732345235
 20
12.9804630272
 10
-5.1549921483
 20
12.9965878646
 10
-5.1375028883
 20
13.0136333875
 10
-5.1207876088
 20
13.0315389698
 10
-5.1048671749
 20
13.0502439852
 10
-5.0897624517
 20
13.0696878077
 10
-5.0754943044
 20
13.0898098109
 10
-5.0620835982
 20
13.1105493689
 10
-5.0495511983
 20
13.1318458554
 10
-5.0379179698
 20
13.1536386443
 10
-5.0272047778
 20
13.1758671093
 10
-5.0174324876
 20
13.1984706244
 10
-5.0086219642
 20
13.2213885635
 10
-5.0000707871
 20
13.2468347741
 10
-4.9926411329
 20
13.2725579304
 10
-4.9862713693
 20
13.2985293888
 10
-4.9808998638
 20
13.3247205052
 10
-4.9764649843
 20
13.351102636
 10
-4.9729050982
 20
13.3776471373
 10
-4.9701585732
 20
13.4043253652
 10
-4.9681637771
 20
13.431108676
 10
-4.9668590774
 20
13.4579684259
 10
-4.9661828417
 20
13.4848759709
 10
-4.9660734378
 20
13.5118026674
 10
-4.9664891023
 20
13.5387276323
 10
-4.9674667665
 20
13.5656181012
 10
-4.9690629622
 20
13.5924490758
 10
-4.9713342211
 20
13.6191955575
 10
-4.974337075
 20
13.6458325478
 10
-4.9781280556
 20
13.6723350483
 10
-4.9827636948
 20
13.6986780605
 10
-4.9883005242
 20
13.724836586
 10
-4.9947950758
 20
13.7507856262
 10
-5.0023038811
 20
13.7765001827
 10
-5.0108834721
 20
13.801955257
 10
-5.0196682747
 20
13.8248875419
 10
-5.0293729006
 20
13.8475226688
 10
-5.0399818564
 20
13.8697995083
 10
-5.0514796488
 20
13.8916569314
 10
-5.0638507843
 20
13.9130338089
 10
-5.0770797696
 20
13.9338690116
 10
-5.0911511113
 20
13.9541014104
 10
-5.106049316
 20
13.973669876
 10
-5.1217588904
 20
13.9925132792
 10
-5.138264341
 20
14.010570491
 10
-5.1555501746
 20
14.0277803821
 10
-5.1736008976
 20
14.0440818233
 10
-5.1922813466
 20
14.0593386808
 10
-5.2116607948
 20
14.0736627949
 10
-5.2316978344
 20
14.0870793708
 10
-5.2523510576
 20
14.099613614
 10
-5.2735790565
 20
14.1112907298
 10
-5.2953404233
 20
14.1221359235
 10
-5.3175937502
 20
14.1321744005
 10
-5.3402976293
 20
14.1414313662
 10
-5.3634106529
 20
14.1499320258
 10
-5.3868914131
 20
14.1577015847
 10
-5.4106985021
 20
14.1647652484
 10
-5.4347905121
 20
14.171148222
 10
-5.4591260352
 20
14.176875711
 10
-5.4836636636
 20
14.1819729208
 10
-5.5083619895
 20
14.1864650566
 10
-5.533179605
 20
14.1903773238
 10
-5.5580751024
 20
14.1937349278
 10
-5.5830070739
 20
14.1965630739
 10
-5.6079341114
 20
14.1988869675
 10
-5.6328148074
 20
14.2007318139
 10
-5.6576077539
 20
14.2021228185
 10
-5.6822715431
 20
14.2030851865
 10
-5.7067647672
 20
14.2036441234
 10
-5.7310460184
 20
14.2038248345
  0
LINE
  5
4B7
100
AcDbEntity
  8
CURVE
100
AcDbLine
 62
250
  6
CONTINUOUS
 10
-6.6084188245
 20
11.1973598061
 11
-6.0363181317
 21
11.1973598061
  0
LINE
  5
4B8
100
AcDbEntity
  8
CURVE
100
AcDbLine
 62
250
  6
CONTINUOUS
 10
-5.8346835656
 20
11.1973598061
 11
-5.2121912261
 21
11.1973598061
  0
LINE
  5
4B9
100
AcDbEntity
  8
ASSI
100
AcDbLine
 62
7
  6
CONTINUOUS
 10
26.0898392194
 20
11.2419878061
 11
26.1898392194
 21
11.2419878061
  0
LINE
  5
4BA
100
AcDbEntity
  8
ASSI
100
AcDbLine
 62
7
  6
CONTINUOUS
 10
26.0898392194
 20
11.4752088061
 11
26.1898392194
 21
11.4752088061
  0
LINE
  5
4BB
100
AcDbEntity
  8
CURVE
100
AcDbLine
 62
250
  6
CONTINUOUS
 10
-3.7852253394
 20
11.4948782092
 11
-4.2136662054
 21
11.4948782092
  0
LINE
  5
4BC
100
AcDbEntity
  8
ASSI
100
AcDbLine
 62
7
  6
CONTINUOUS
 10
26.0898392194
 20
11.6754658061
 11
26.1898392194
 21
11.6754658061
  0
LINE
  5
4BD
100
AcDbEntity
  8
CURVE
100
AcDbLine
 62
250
  6
CONTINUOUS
 10
-6.0363181317
 20
12.1327048061
 11
-5.8346835656
 21
12.1327048061
  0
LINE
  5
4BE
100
AcDbEntity
  8
CURVE
100
AcDbLine
 62
250
  6
CONTINUOUS
 10
-6.8100363958
 20
12.2007218061
 11
-6.6084188245
 21
12.2007218061
  0
LINE
  5
4BF
100
AcDbEntity
  8
CURVE
100
AcDbLine
 62
250
  6
CONTINUOUS
 10
-5.2121912261
 20
12.2083138061
 11
-5.0105736548
 21
12.2083138061
  0
LINE
  5
4C0
100
AcDbEntity
  8
CURVE
100
AcDbLine
 62
250
  6
CONTINUOUS
 10
-4.2136662054
 20
12.2448782092
 11
-3.7852253394
 21
12.2448782092
  0
LINE
  5
4C1
100
AcDbEntity
  8
ASSI
100
AcDbLine
 62
7
  6
CONTINUOUS
 10
26.0898392194
 20
12.3038708061
 11
26.1898392194
 21
12.3038708061
  0
LINE
  5
4C2
100
AcDbEntity
  8
ASSI
100
AcDbLine
 62
7
  6
CONTINUOUS
 10
26.0898392194
 20
12.4675108061
 11
26.1898392194
 21
12.4675108061
  0
LINE
  5
4C3
100
AcDbEntity
  8
ASSI
100
AcDbLine
 62
7
  6
CONTINUOUS
 10
26.0898392194
 20
12.7408038061
 11
26.1898392194
 21
12.7408038061
  0
LINE
  5
4C4
100
AcDbEntity
  8
CURVE
100
AcDbLine
 62
250
  6
CONTINUOUS
 10
-5.7310460184
 20
12.8248340069
 11
-6.8117196924
 21
12.8248340069
  0
LINE
  5
4C5
100
AcDbEntity
  8
CURVE
100
AcDbLine
 62
250
  6
CONTINUOUS
 10
-6.8117196924
 20
12.9359550216
 11
-5.7310460184
 21
12.9359550216
  0
LINE
  5
4C6
100
AcDbEntity
  8
CURVE
100
AcDbLine
 62
250
  6
CONTINUOUS
 10
-2.9283435181
 20
13.1020210152
 11
-4.4278866384
 21
13.1020210152
  0
LINE
  5
4C7
100
AcDbEntity
  8
ASSI
100
AcDbLine
 62
250
  6
CONTINUOUS
 10
26.0898392194
 20
13.2474158061
 11
26.1898392194
 21
13.2474158061
  0
LINE
  5
4C8
100
AcDbEntity
  8
ASSI
100
AcDbLine
 62
7
  6
CONTINUOUS
 10
26.0898392194
 20
13.772550549
 11
26.1898392194
 21
13.772550549
  0
LINE
  5
4C9
100
AcDbEntity
  8
DRAFT
100
AcDbLine
 62
7
  6
CONTINUOUS
 10
26.0898392194
 20
13.562697837
 11
-1.6589244126
 21
13.7399796679
  0
LINE
  5
4CA
100
AcDbEntity
  8
ASSI
100
AcDbLine
 62
7
  6
CONTINUOUS
 10
26.0898392194
 20
13.562697837
 11
-1.6589244126
 21
13.7399796679
  0
LINE
  5
4CB
100
AcDbEntity
  8
CURVE
100
AcDbLine
 62
250
  6
CONTINUOUS
 10
-3.7852253394
 20
12.2448782092
 11
-3.3567844288
 21
12.1377354031
  0
LINE
  5
4CC
100
AcDbEntity
  8
CURVE
100
AcDbLine
 62
250
  6
CONTINUOUS
 10
-4.4278866384
 20
13.852021194
 11
-3.24967419
 21
13.5305924183
  0
LINE
  5
4CD
100
AcDbEntity
  8
CURVE
100
AcDbLine
 62
250
  6
CONTINUOUS
 10
-3.6781150783
 20
14.7091640001
 11
-4.1065559442
 21
14.9234496122
  0
LINE
  5
4CE
100
AcDbEntity
  8
0
100
AcDbLine
 62
7
  6
CONTINUOUS
 10
-6.2662312823
 20
21.4723773078
 11
-5.7373236374
 21
20.9434696629
  0
LINE
  5
4CF
100
AcDbEntity
  8
DRAFT
100
AcDbLine
 62
7
  6
CONTINUOUS
 10
-5.7373236374
 20
20.9434696629
 11
-4.6906880711
 21
19.8968340967
  0
LINE
  5
4D0
100
AcDbEntity
  8
ASSI
100
AcDbLine
 62
7
  6
CONTINUOUS
 10
-6.2662312823
 20
21.4723773078
 11
-4.6906880711
 21
19.8968340967
  0
LWPOLYLINE
  5
4D1
100
AcDbEntity
  8
DRAFT
100
AcDbPolyline
 62
7
  6
CONTINUOUS
 90
34
 70
0
 10
-1.6593746632
 20
15.8925664169
 10
-1.7638832328
 20
15.886656947
 10
-1.8653707509
 20
15.871436102
 10
-1.9638372175
 20
15.846903882
 10
-2.060080111
 20
15.8126090255
 10
-2.1533019531
 20
15.769002794
 10
-2.2411103087
 20
15.7174389713
 10
-2.3232955713
 20
15.6578004942
 10
-2.4000673475
 20
15.5902044259
 10
-2.4696620223
 20
15.5163557401
 10
-2.532063909
 20
15.435930588
 10
-2.5872886944
 20
15.3492528184
 10
-2.6336198238
 20
15.2589989508
 10
-2.6706285197
 20
15.1654898411
 10
-2.6987435596
 20
15.0684046334
 10
-2.7175347214
 20
14.9694572797
 10
-2.7268585978
 20
14.8679776667
 10
-2.726858596
 20
14.7646359078
 10
-2.717534716
 20
14.6631562948
 10
-2.6987435498
 20
14.5642089401
 10
-2.6706285053
 20
14.4671237312
 10
-2.6336198064
 20
14.3736146229
 10
-2.587288677
 20
14.2833607614
 10
-2.5320638933
 20
14.1966830004
 10
-2.4696620078
 20
14.1162578553
 10
-2.4000673325
 20
14.0424091727
 10
-2.3232955555
 20
13.9748131061
 10
-2.2411102933
 20
13.9151746309
 10
-2.1533186166
 20
13.8636133122
 10
-2.0601134548
 20
13.820009585
 10
-1.9638372129
 20
13.7857097289
 10
-1.8652706928
 20
13.761162504
 10
-1.7636330927
 20
13.7459191504
 10
-1.6589244126
 20
13.7399796679
  0
LWPOLYLINE
  5
4D2
100
AcDbEntity
  8
ASSI
100
AcDbPolyline
 62
7
  6
CONTINUOUS
 90
34
 70
0
 10
-1.6593746632
 20
15.8925664169
 10
-1.7638832328
 20
15.886656947
 10
-1.8653707509
 20
15.871436102
 10
-1.9638372175
 20
15.846903882
 10
-2.060080111
 20
15.8126090255
 10
-2.1533019531
 20
15.769002794
 10
-2.2411103087
 20
15.7174389713
 10
-2.3232955713
 20
15.6578004942
 10
-2.4000673475
 20
15.5902044259
 10
-2.4696620223
 20
15.5163557401
 10
-2.532063909
 20
15.435930588
 10
-2.5872886944
 20
15.3492528184
 10
-2.6336198238
 20
15.2589989508
 10
-2.6706285197
 20
15.1654898411
 10
-2.6987435596
 20
15.0684046334
 10
-2.7175347214
 20
14.9694572797
 10
-2.7268585978
 20
14.8679776667
 10
-2.726858596
 20
14.7646359078
 10
-2.717534716
 20
14.6631562948
 10
-2.6987435498
 20
14.5642089401
 10
-2.6706285053
 20
14.4671237312
 10
-2.6336198064
 20
14.3736146229
 10
-2.587288677
 20
14.2833607614
 10
-2.5320638933
 20
14.1966830004
 10
-2.4696620078
 20
14.1162578553
 10
-2.4000673325
 20
14.0424091727
 10
-2.3232955555
 20
13.9748131061
 10
-2.2411102933
 20
13.9151746309
 10
-2.1533186166
 20
13.8636133122
 10
-2.0601134548
 20
13.820009585
 10
-1.9638372129
 20
13.7857097289
 10
-1.8652706928
 20
13.761162504
 10
-1.7636330927
 20
13.7459191504
 10
-1.6589244126
 20
13.7399796679
  0
LINE
  5
4D3
100
AcDbEntity
  8
DRAFT
100
AcDbLine
 62
7
  6
CONTINUOUS
 10
26.0898392194
 20
15.8085059461
 11
-1.6667056823
 21
15.5662782484
  0
LINE
  5
4D4
100
AcDbEntity
  8
ASSI
100
AcDbLine
 62
7
  6
CONTINUOUS
 10
26.0898392194
 20
15.8085059461
 11
-1.6667056823
 21
15.5662782484
  0
LWPOLYLINE
  5
4D5
100
AcDbEntity
  8
CURVE
100
AcDbPolyline
 62
250
  6
CONTINUOUS
 90
57
 70
0
 10
-6.3067579022
 20
15.8150394507
 10
-6.3226351771
 20
15.8149079087
 10
-6.3385342114
 20
15.8144985651
 10
-6.35444085
 20
15.8137893429
 10
-6.3703409376
 20
15.8127581653
 10
-6.3862203191
 20
15.8113829556
 10
-6.4020648394
 20
15.8096416368
 10
-6.4178603433
 20
15.8075121323
 10
-6.4335926756
 20
15.804972365
 10
-6.4492476812
 20
15.8020002584
 10
-6.464811205
 20
15.7985737354
 10
-6.4802690917
 20
15.7946707194
 10
-6.4956071862
 20
15.7902691334
 10
-6.5108113333
 20
15.7853469008
 10
-6.5237849345
 20
15.7806769291
 10
-6.5366303718
 20
15.7756084103
 10
-6.5493293151
 20
15.770145286
 10
-6.5618634348
 20
15.7642914977
 10
-6.5742144009
 20
15.758050987
 10
-6.5863638836
 20
15.7514276953
 10
-6.598293553
 20
15.7444255643
 10
-6.6099850793
 20
15.7370485354
 10
-6.6214201326
 20
15.7293005501
 10
-6.6325803831
 20
15.7211855501
 10
-6.6434475008
 20
15.7127074768
 10
-6.6540031561
 20
15.7038702718
 10
-6.6642290189
 20
15.6946778767
 10
-6.6741067594
 20
15.6851342328
 10
-6.6836180479
 20
15.6752432819
 10
-6.6933024616
 20
15.664364802
 10
-6.7025585981
 20
15.6531169315
 10
-6.7113922025
 20
15.6415175861
 10
-6.7198090204
 20
15.6295846813
 10
-6.7278147969
 20
15.6173361328
 10
-6.7354152774
 20
15.6047898562
 10
-6.7426162072
 20
15.5919637669
 10
-6.7494233316
 20
15.5788757808
 10
-6.755842396
 20
15.5655438133
 10
-6.7618791456
 20
15.5519857801
 10
-6.7675393259
 20
15.5382195967
 10
-6.7728286821
 20
15.5242631788
 10
-6.7777529595
 20
15.510134442
 10
-6.7823179034
 20
15.4958513018
 10
-6.7865292592
 20
15.4814316739
 10
-6.7903927723
 20
15.4668934739
 10
-6.7939141878
 20
15.4522546173
 10
-6.7970992512
 20
15.4375330199
 10
-6.7999537077
 20
15.4227465971
 10
-6.8024833027
 20
15.4079132646
 10
-6.8046937815
 20
15.393050938
 10
-6.8065908895
 20
15.3781775328
 10
-6.8081803718
 20
15.3633109648
 10
-6.8094679739
 20
15.3484691494
 10
-6.8104594412
 20
15.3336700024
 10
-6.8111605188
 20
15.3189314392
 10
-6.8115769521
 20
15.3042713755
 10
-6.8117144865
 20
15.2897077269
  0
LINE
  5
4D6
100
AcDbEntity
  8
DRAFT
100
AcDbLine
 62
250
  6
CONTINUOUS
 10
-4.1537555172
 20
15.8766949197
 11
-1.6593746632
 21
15.8925664169
  0
LINE
  5
4D7
100
AcDbEntity
  8
ASSI
100
AcDbLine
 62
250
  6
CONTINUOUS
 10
-4.1537555172
 20
15.8766949197
 11
-1.6593746632
 21
15.8925664169
  0
LINE
  5
4D8
100
AcDbEntity
  8
DRAFT
100
AcDbLine
 62
7
  6
CONTINUOUS
 10
-1.658925954
 20
15.8925692927
 11
7.4739855108
 21
15.9495951725
  0
LINE
  5
4D9
100
AcDbEntity
  8
ASSI
100
AcDbLine
 62
7
  6
CONTINUOUS
 10
-1.658925954
 20
15.8925692927
 11
7.4739855108
 21
15.9495951725
  0
LINE
  5
4DA
100
AcDbEntity
  8
DRAFT
100
AcDbLine
 62
7
  6
CONTINUOUS
 10
7.4739855108
 20
15.9495951725
 11
16.7376320361
 21
16.0057345162
  0
LINE
  5
4DB
100
AcDbEntity
  8
ASSI
100
AcDbLine
 62
7
  6
CONTINUOUS
 10
7.4739855108
 20
15.9495951725
 11
16.7376320361
 21
16.0057345162
  0
LINE
  5
4DC
100
AcDbEntity
  8
DRAFT
100
AcDbLine
 62
7
  6
CONTINUOUS
 10
16.7376320361
 20
16.0057345162
 11
26.0898392194
 21
16.0607094183
  0
LINE
  5
4DD
100
AcDbEntity
  8
ASSI
100
AcDbLine
 62
7
  6
CONTINUOUS
 10
16.7376320361
 20
16.0057345162
 11
26.0898392194
 21
16.0607094183
  0
LINE
  5
4DE
100
AcDbEntity
  8
ASSI
100
AcDbLine
 62
7
  6
CONTINUOUS
 10
26.0898392194
 20
14.0081738061
 11
26.1898392194
 21
14.0081738061
  0
LINE
  5
4DF
100
AcDbEntity
  8
CURVE
100
AcDbLine
 62
250
  6
CONTINUOUS
 10
-3.6781150783
 20
14.0305926567
 11
-2.9283435181
 21
14.0305926567
  0
LINE
  5
4E0
100
AcDbEntity
  8
CURVE
100
AcDbLine
 62
250
  6
CONTINUOUS
 10
-5.7310460184
 20
14.0927048613
 11
-6.8117196924
 21
14.0927048613
  0
LINE
  5
4E1
100
AcDbEntity
  8
ASSI
100
AcDbLine
 62
7
  6
CONTINUOUS
 10
26.0898392194
 20
14.1892838061
 11
26.1898392194
 21
14.1892838061
  0
LINE
  5
4E2
100
AcDbEntity
  8
CURVE
100
AcDbLine
 62
250
  6
CONTINUOUS
 10
-6.8117196924
 20
14.2038248345
 11
-5.7310460184
 21
14.2038248345
  0
LINE
  5
4E3
100
AcDbEntity
  8
CURVE
100
AcDbLine
 62
250
  6
CONTINUOUS
 10
-5.0089601593
 20
14.5218965407
 11
-6.8117144865
 21
14.5218965407
  0
LINE
  5
4E4
100
AcDbEntity
  8
CURVE
100
AcDbLine
 62
250
  6
CONTINUOUS
 10
-6.7157588617
 20
14.6330862946
 11
-5.9078043796
 21
14.6330862946
  0
LINE
  5
4E5
100
AcDbEntity
  8
CURVE
100
AcDbLine
 62
250
  6
CONTINUOUS
 10
-5.8118487549
 20
14.6330862946
 11
-5.0089601593
 21
14.6330862946
  0
LINE
  5
4E6
100
AcDbEntity
  8
CURVE
100
AcDbLine
 62
250
  6
CONTINUOUS
 10
-3.1425639735
 20
14.7091640001
 11
-3.6781150783
 21
14.7091640001
  0
LINE
  5
4E7
100
AcDbEntity
  8
CURVE
100
AcDbLine
 62
250
  6
CONTINUOUS
 10
-3.5710048618
 20
15.4591640001
 11
-3.1425639735
 21
15.4591640001
  0
LWPOLYLINE
  5
4E8
100
AcDbEntity
  8
CURVE
100
AcDbPolyline
 62
250
  6
CONTINUOUS
 90
60
 70
0
 10
-5.7310460184
 20
14.0927048613
 10
-5.7140841062
 20
14.0926243605
 10
-5.6969949218
 20
14.0923738725
 10
-5.6797968637
 20
14.0919399184
 10
-5.6625083304
 20
14.0913090197
 10
-5.6451477204
 20
14.0904676977
 10
-5.6277334322
 20
14.0894024735
 10
-5.6102838645
 20
14.0880998687
 10
-5.5928174157
 20
14.0865464044
 10
-5.5753524843
 20
14.0847286021
 10
-5.5579074689
 20
14.0826329829
 10
-5.5405007679
 20
14.0802460683
 10
-5.5231507801
 20
14.0775543795
 10
-5.5058759037
 20
14.0745444379
 10
-5.4886945375
 20
14.0712027647
 10
-5.4716250799
 20
14.0675158813
 10
-5.4546859294
 20
14.063470309
 10
-5.4378954847
 20
14.0590525692
 10
-5.4212721441
 20
14.054249183
 10
-5.4048343062
 20
14.0490466719
 10
-5.3886003696
 20
14.0434315572
 10
-5.3725887328
 20
14.0373903601
 10
-5.3568177944
 20
14.030909602
 10
-5.3413059527
 20
14.0239758042
 10
-5.3260716065
 20
14.016575488
 10
-5.3111331541
 20
14.0086951748
 10
-5.2965089942
 20
14.0003213857
 10
-5.2822175253
 20
13.9914406423
 10
-5.2682771458
 20
13.9820394657
 10
-5.2547062544
 20
13.9721043772
 10
-5.2415232495
 20
13.9616218983
 10
-5.2287701795
 20
13.9506078692
 10
-5.216432018
 20
13.9390625616
 10
-5.2045190029
 20
13.9270133378
 10
-5.193041372
 20
13.9144875601
 10
-5.1820093628
 20
13.901512591
 10
-5.1714332133
 20
13.8881157926
 10
-5.1613231611
 20
13.8743245273
 10
-5.1516894441
 20
13.8601661574
 10
-5.1425422998
 20
13.8456680452
 10
-5.1338919662
 20
13.8308575531
 10
-5.1257486809
 20
13.8157620434
 10
-5.1181226817
 20
13.8004088783
 10
-5.1110242064
 20
13.7848254202
 10
-5.1044634926
 20
13.7690390314
 10
-5.0984507782
 20
13.7530770742
 10
-5.0925981012
 20
13.7357349244
 10
-5.0873623268
 20
13.7182367025
 10
-5.0827141012
 20
13.7005979108
 10
-5.0786240705
 20
13.6828340516
 10
-5.0750628808
 20
13.6649606271
 10
-5.0720011784
 20
13.6469931396
 10
-5.0694096093
 20
13.6289470914
 10
-5.0672588197
 20
13.6108379846
 10
-5.0655194558
 20
13.5926813216
 10
-5.0641621636
 20
13.5744926046
 10
-5.0631575894
 20
13.5562873359
 10
-5.0624763792
 20
13.5380810177
 10
-5.0620891793
 20
13.5198891522
 10
-5.0619666357
 20
13.5017272418
  0
LINE
  5
4E9
100
AcDbEntity
  8
DRAFT
100
AcDbLine
 62
250
  6
CONTINUOUS
 10
-13.9101607806
 20
15.9359659722
 11
-4.1537555172
 21
15.8766949197
  0
LINE
  5
4EA
100
AcDbEntity
  8
ASSI
100
AcDbLine
 62
250
  6
CONTINUOUS
 10
-13.9101607806
 20
15.9359659722
 11
-4.1537555172
 21
15.8766949197
  0
LINE
  5
4EB
100
AcDbEntity
  8
DRAFT
100
AcDbLine
 62
7
  6
CONTINUOUS
 10
-1.6667056823
 20
14.0663353638
 11
26.0898392194
 21
13.8241076662
  0
LINE
  5
4EC
100
AcDbEntity
  8
ASSI
100
AcDbLine
 62
7
  6
CONTINUOUS
 10
-1.6667056823
 20
14.0663353638
 11
26.0898392194
 21
13.8241076662
  0
LINE
  5
4ED
100
AcDbEntity
  8
0
100
AcDbLine
 62
7
  6
CONTINUOUS
 10
-6.2662312823
 20
-21.8397636955
 11
-7.7606652968
 21
-22.3836931939
  0
LINE
  5
4EE
100
AcDbEntity
  8
ASSI
100
AcDbLine
 62
7
  6
CONTINUOUS
 10
-6.2662312823
 20
-21.8397636955
 11
-7.7606652968
 21
-22.3836931939
  0
LWPOLYLINE
  5
4EF
100
AcDbEntity
  8
0
100
AcDbPolyline
 62
250
  6
CONTINUOUS
 90
3
 70
0
 10
-13.9101607806
 20
17.1757363753
 10
21.6202977824
 20
16.9720295549
 10
26.0898392193
 20
16.9462212222
  0
LWPOLYLINE
  5
4F0
100
AcDbEntity
  8
ASSI
100
AcDbPolyline
 62
250
  6
CONTINUOUS
 90
3
 70
0
 10
-13.9101607806
 20
17.1757363753
 10
21.6202977824
 20
16.9720295549
 10
26.0898392193
 20
16.9462212222
  0
LINE
  5
4F1
100
AcDbEntity
  8
0
100
AcDbLine
 62
7
  6
CONTINUOUS
 10
-6.2662312823
 20
21.4723773078
 11
-7.7606652968
 21
22.0163068061
  0
LINE
  5
4F2
100
AcDbEntity
  8
ASSI
100
AcDbLine
 62
7
  6
CONTINUOUS
 10
-6.2662312823
 20
21.4723773078
 11
-7.7606652968
 21
22.0163068061
  0
LINE
  5
4F3
100
AcDbEntity
  8
SMUSSO
100
AcDbLine
 62
7
  6
CONTINUOUS
 10
24.5898392194
 20
-0.9836931939
 11
24.7705248775
 21
-1.164378852
  0
LINE
  5
4F4
100
AcDbEntity
  8
ASSI
100
AcDbLine
 62
7
  6
CONTINUOUS
 10
24.5898392194
 20
-0.9836931939
 11
24.7705248775
 21
-1.164378852
  0
LWPOLYLINE
  5
4F5
100
AcDbEntity
  8
0
100
AcDbPolyline
 62
7
  6
CONTINUOUS
 90
10
 70
0
 43
0.3499999865
 10
-2.1958758427
 20
44.7796203053
 10
-2.1244443142
 20
44.6367623011
 10
-2.1244443142
 20
44.5653358254
 10
-2.2673023184
 20
44.4224778212
 10
-2.3387338469
 20
44.4224778212
 10
-2.4101603226
 20
44.4939042969
 10
-2.4101603226
 20
44.5653358254
 10
-2.3387338469
 20
44.7081938296
 10
-2.2673023184
 20
44.7796203053
 10
-2.1958758427
 20
44.7796203053
  0
LINE
  5
4F6
100
AcDbEntity
  8
DRAFT
100
AcDbLine
 62
7
  6
CONTINUOUS
 10
-4.6906880711
 20
19.8968340967
 11
26.0898392194
 21
19.6282165045
  0
LINE
  5
4F7
100
AcDbEntity
  8
ASSI
100
AcDbLine
 62
7
  6
CONTINUOUS
 10
-4.6906880711
 20
19.8968340967
 11
26.0898392194
 21
19.6282165045
  0
LINE
  5
4F8
100
AcDbEntity
  8
RACCORDO
100
AcDbLine
 62
7
  6
CONTINUOUS
 10
-5.7373236374
 20
20.9434696629
 11
-9.7136512619
 21
21.0128767197
  0
LINE
  5
4F9
100
AcDbEntity
  8
ASSI
100
AcDbLine
 62
7
  6
CONTINUOUS
 10
-5.7373236374
 20
20.9434696629
 11
-9.7136512619
 21
21.0128767197
  0
LWPOLYLINE
  5
4FA
100
AcDbEntity
  8
0
100
AcDbPolyline
 62
250
  6
CONTINUOUS
 90
3
 70
0
 10
-22.4773640827
 20
20.8136027228
 10
-22.9655212287
 20
20.8344705448
 10
-22.9681958965
 20
20.8346210363
  0
LWPOLYLINE
  5
4FB
100
AcDbEntity
  8
0
100
AcDbPolyline
 62
250
  6
CONTINUOUS
 90
19
 70
0
 10
-22.0039740257
 20
21.291899176
 10
-22.0450738578
 20
21.2880018716
 10
-22.0852372815
 20
21.2808990285
 10
-22.1244642969
 20
21.2705906468
 10
-22.1630206401
 20
21.2569629417
 10
-22.200640575
 20
21.2401296979
 10
-22.236526893
 20
21.2204322697
 10
-22.2706297648
 20
21.1978146507
 10
-22.3029990196
 20
21.1723328473
 10
-22.332986937
 20
21.1444962324
 10
-22.3605421754
 20
21.1142630785
 10
-22.3857160764
 20
21.0816751131
 10
-22.4080149446
 20
21.0473668916
 10
-22.4273883258
 20
21.0112928428
 10
-22.4438866741
 20
20.9734985379
 10
-22.4571676573
 20
20.9347552465
 10
-22.4671171643
 20
20.8953200585
 10
-22.4738493061
 20
20.8549358839
 10
-22.4773640827
 20
20.8136027228
  0
LINE
  5
4FC
100
AcDbEntity
  8
0
100
AcDbLine
 62
250
  6
CONTINUOUS
 10
-13.9101607806
 20
21.7160779541
 11
-22.0039740257
 21
21.291899176
  0
LINE
  5
4FD
100
AcDbEntity
  8
0
100
AcDbLine
 62
7
  6
CONTINUOUS
 10
-13.9101607806
 20
22.2163068061
 11
-22.0214158006
 21
21.7912139434
  0
LINE
  5
4FE
100
AcDbEntity
  8
0
100
AcDbLine
 62
7
  6
CONTINUOUS
 10
-7.7606652968
 20
22.0163068061
 11
-8.3101607806
 21
22.0163068061
  0
LINE
  5
4FF
100
AcDbEntity
  8
ASSI
100
AcDbLine
 62
7
  6
CONTINUOUS
 10
-7.7606652968
 20
22.0163068061
 11
-8.3101607806
 21
22.0163068061
  0
LINE
  5
500
100
AcDbEntity
  8
0
100
AcDbLine
 62
7
  6
CONTINUOUS
 10
-9.9101607806
 20
22.4461734088
 11
-11.6744894332
 21
22.4597870121
  0
LINE
  5
501
100
AcDbEntity
  8
ASSI
100
AcDbLine
 62
7
  6
CONTINUOUS
 10
-9.9101607806
 20
22.4461734088
 11
-11.6744894332
 21
22.4597870121
  0
LWPOLYLINE
  5
502
100
AcDbEntity
  8
0
100
AcDbPolyline
 62
7
  6
CONTINUOUS
 90
3
 70
0
 10
-11.6744894332
 20
22.4597870121
 10
-13.4603495563
 20
22.4753133596
 10
-13.9101607806
 20
22.4794734281
  0
LWPOLYLINE
  5
503
100
AcDbEntity
  8
ASSI
100
AcDbPolyline
 62
7
  6
CONTINUOUS
 90
3
 70
0
 10
-11.6744894332
 20
22.4597870121
 10
-13.4603495563
 20
22.4753133596
 10
-13.9101607806
 20
22.4794734281
  0
LINE
  5
504
100
AcDbEntity
  8
0
100
AcDbLine
 62
7
  6
CONTINUOUS
 10
-9.9101607806
 20
23.2464865464
 11
-13.9101607806
 21
23.3163068061
  0
LINE
  5
505
100
AcDbEntity
  8
ASSI
100
AcDbLine
 62
7
  6
CONTINUOUS
 10
-9.9101607806
 20
23.2464865464
 11
-13.9101607806
 21
23.3163068061
  0
LINE
  5
506
100
AcDbEntity
  8
0
100
AcDbLine
 62
250
  6
CONTINUOUS
 10
-9.9101607806
 20
23.0794141679
 11
-13.9101607806
 21
23.1496664636
  0
LINE
  5
507
100
AcDbEntity
  8
ASSI
100
AcDbLine
 62
250
  6
CONTINUOUS
 10
-9.9101607806
 20
23.0794141679
 11
-13.9101607806
 21
23.1496664636
  0
LWPOLYLINE
  5
508
100
AcDbEntity
  8
0
100
AcDbPolyline
 62
7
  6
CONTINUOUS
 90
3
 70
0
 10
-9.9101607806
 20
22.916197281
 10
-10.3492181238
 20
22.9253974718
 10
-13.9101607806
 20
22.9962153679
  0
LWPOLYLINE
  5
509
100
AcDbEntity
  8
ASSI
100
AcDbPolyline
 62
7
  6
CONTINUOUS
 90
3
 70
0
 10
-9.9101607806
 20
22.916197281
 10
-10.3492181238
 20
22.9253974718
 10
-13.9101607806
 20
22.9962153679
  0
LINE
  5
50A
100
AcDbEntity
  8
SMUSSO
100
AcDbLine
 62
7
  6
CONTINUOUS
 10
24.5898392194
 20
-0.9836931939
 11
24.5898392194
 21
0.7954156444
  0
LINE
  5
50B
100
AcDbEntity
  8
ASSI
100
AcDbLine
 62
7
  6
CONTINUOUS
 10
24.5898392194
 20
-1.1628020321
 11
24.5898392194
 21
0.7954156444
  0
LINE
  5
50C
100
AcDbEntity
  8
ASSI
100
AcDbLine
 62
7
  6
CONTINUOUS
 10
24.5898392194
 20
-4.2045843556
 11
24.5898392194
 21
-6.1628020321
  0
LINE
  5
50D
100
AcDbEntity
  8
DRAFT
100
AcDbLine
 62
7
  6
CONTINUOUS
 10
24.5898392194
 20
3.8371979679
 11
24.5898392194
 21
5.7954156444
  0
LINE
  5
50E
100
AcDbEntity
  8
ASSI
100
AcDbLine
 62
7
  6
CONTINUOUS
 10
24.5898392194
 20
3.8371979679
 11
24.5898392194
 21
5.7954156444
  0
LINE
  5
50F
100
AcDbEntity
  8
ASSI
100
AcDbLine
 62
7
  6
CONTINUOUS
 10
24.5898392194
 20
-9.2045843556
 11
24.5898392194
 21
-11.1628020321
  0
LINE
  5
510
100
AcDbEntity
  8
DRAFT
100
AcDbLine
 62
7
  6
CONTINUOUS
 10
24.5898392194
 20
8.8371979679
 11
24.5898392194
 21
10.7954156444
  0
LINE
  5
511
100
AcDbEntity
  8
ASSI
100
AcDbLine
 62
7
  6
CONTINUOUS
 10
24.5898392194
 20
8.8371979679
 11
24.5898392194
 21
10.7954156444
  0
LINE
  5
512
100
AcDbEntity
  8
ASSI
100
AcDbLine
 62
7
  6
CONTINUOUS
 10
24.5898392194
 20
-14.2045843556
 11
24.5898392194
 21
-16.1628020321
  0
LINE
  5
513
100
AcDbEntity
  8
DRAFT
100
AcDbLine
 62
7
  6
CONTINUOUS
 10
24.5898392194
 20
13.8371979679
 11
24.5898392194
 21
15.7954156444
  0
LINE
  5
514
100
AcDbEntity
  8
ASSI
100
AcDbLine
 62
7
  6
CONTINUOUS
 10
24.5898392194
 20
13.8371979679
 11
24.5898392194
 21
15.7954156444
  0
LINE
  5
515
100
AcDbEntity
  8
DRAFT
100
AcDbLine
 62
7
  6
CONTINUOUS
 10
25.0898392194
 20
-16.167165466
 11
25.0898392194
 21
-14.2002209217
  0
LINE
  5
516
100
AcDbEntity
  8
ASSI
100
AcDbLine
 62
7
  6
CONTINUOUS
 10
25.0898392194
 20
-16.167165466
 11
25.0898392194
 21
-14.2002209217
  0
LINE
  5
517
100
AcDbEntity
  8
DRAFT
100
AcDbLine
 62
7
  6
CONTINUOUS
 10
25.0898392194
 20
-11.167165466
 11
25.0898392194
 21
-9.2002209217
  0
LINE
  5
518
100
AcDbEntity
  8
ASSI
100
AcDbLine
 62
7
  6
CONTINUOUS
 10
25.0898392194
 20
-11.167165466
 11
25.0898392194
 21
-9.2002209217
  0
LINE
  5
519
100
AcDbEntity
  8
DRAFT
100
AcDbLine
 62
7
  6
CONTINUOUS
 10
25.0898392194
 20
-6.167165466
 11
25.0898392194
 21
-4.2002209217
  0
LINE
  5
51A
100
AcDbEntity
  8
ASSI
100
AcDbLine
 62
7
  6
CONTINUOUS
 10
25.0898392194
 20
-6.167165466
 11
25.0898392194
 21
-4.2002209217
  0
LINE
  5
51B
100
AcDbEntity
  8
DRAFT
100
AcDbLine
 62
7
  6
CONTINUOUS
 10
26.0898392194
 20
19.6282165045
 11
26.0898392194
 21
-19.9956028922
  0
LINE
  5
51C
100
AcDbEntity
  8
ASSI
100
AcDbLine
 62
7
  6
CONTINUOUS
 10
26.0898392194
 20
19.6282165045
 11
26.0898392194
 21
-19.9956028922
  0
LINE
  5
51D
100
AcDbEntity
  8
ASSI
100
AcDbLine
 62
7
  6
CONTINUOUS
 10
26.1898392194
 20
14.1892838061
 11
26.1898392194
 21
14.0081738061
  0
LINE
  5
51E
100
AcDbEntity
  8
CURVE
100
AcDbLine
 62
250
  6
CONTINUOUS
 10
26.1898392194
 20
-16.9157440014
 11
26.1898392194
 21
-13.624847467
  0
LINE
  5
51F
100
AcDbEntity
  8
ASSI
100
AcDbLine
 62
7
  6
CONTINUOUS
 10
26.1898392194
 20
13.772550549
 11
26.1898392194
 21
12.7408038061
  0
LINE
  5
520
100
AcDbEntity
  8
ASSI
100
AcDbLine
 62
7
  6
CONTINUOUS
 10
26.1898392194
 20
12.4675108061
 11
26.1898392194
 21
11.4752088061
  0
LINE
  5
521
100
AcDbEntity
  8
ASSI
100
AcDbLine
 62
7
  6
CONTINUOUS
 10
26.1898392194
 20
11.2419878061
 11
26.1898392194
 21
10.3314078061
  0
LINE
  5
522
100
AcDbEntity
  8
ASSI
100
AcDbLine
 62
7
  6
CONTINUOUS
 10
26.1898392194
 20
10.1027305558
 11
26.1898392194
 21
9.1702348061
  0
LINE
  5
523
100
AcDbEntity
  8
CURVE
100
AcDbLine
 62
250
  6
CONTINUOUS
 10
26.1898392194
 20
-10.5836931939
 11
26.1898392194
 21
-9.9051217491
  0
LINE
  5
524
100
AcDbEntity
  8
ASSI
100
AcDbLine
 62
7
  6
CONTINUOUS
 10
26.1898392194
 20
8.3850988061
 11
26.1898392194
 21
8.2040878061
  0
LINE
  5
525
100
AcDbEntity
  8
ASSI
100
AcDbLine
 62
7
  6
CONTINUOUS
 10
26.1898392194
 20
8.0282098061
 11
26.1898392194
 21
7.0133068061
  0
LINE
  5
526
100
AcDbEntity
  8
ASSI
100
AcDbLine
 62
7
  6
CONTINUOUS
 10
26.1898392194
 20
6.9663268061
 11
26.1898392194
 21
5.8521338061
  0
LINE
  5
527
100
AcDbEntity
  8
ASSI
100
AcDbLine
 62
7
  6
CONTINUOUS
 10
26.1898392194
 20
5.7488024073
 11
26.1898392194
 21
4.8163068061
  0
LINE
  5
528
100
AcDbEntity
  8
ASSI
100
AcDbLine
 62
7
  6
CONTINUOUS
 10
26.1898392194
 20
0.8162918061
 11
26.1898392194
 21
-1.2337961939
  0
LWPOLYLINE
  5
529
100
AcDbEntity
  8
0
100
AcDbPolyline
 62
7
  6
CONTINUOUS
 90
3
 70
0
 43
0.3499999865
 10
5.2326949002
 20
34.9224786495
 10
3.7326984881
 20
34.9224786495
 10
4.3755519278
 20
37.2796205603
  0
LWPOLYLINE
  5
52A
100
AcDbEntity
  8
0
100
AcDbPolyline
 62
7
  6
CONTINUOUS
 90
13
 70
0
 43
0.3499999865
 10
-4.7673047598
 20
45.9939057617
 10
-5.0530157154
 20
46.2081902416
 10
-5.0530157154
 20
46.8510487341
 10
-4.7673047598
 20
47.2796227467
 10
-4.1244462674
 20
47.2796227467
 10
-3.838730259
 20
46.8510487341
 10
-3.838730259
 20
46.2081902416
 10
-4.1244462674
 20
45.9939057617
 10
-3.6958773076
 20
45.5653368019
 10
-3.6958773076
 20
44.7081938296
 10
-4.1244462674
 20
44.279619817
 10
-4.7673047598
 20
44.279619817
 10
-5.1958737196
 20
44.7081938296
  0
LWPOLYLINE
  5
52B
100
AcDbEntity
  8
0
100
AcDbPolyline
 62
7
  6
CONTINUOUS
 90
8
 70
0
 43
0.3499999865
 10
-7.3387336769
 20
44.279619817
 10
-6.4815907046
 20
44.279619817
 10
-6.053016692
 20
44.7081938296
 10
-6.053016692
 20
45.5653368019
 10
-6.4815907046
 20
45.9939057617
 10
-7.3387336769
 20
45.9939057617
 10
-7.3387336769
 20
47.2796227467
 10
-6.053016692
 20
47.2796227467
  0
LWPOLYLINE
  5
52C
100
AcDbEntity
  8
0
100
AcDbPolyline
 62
7
  6
CONTINUOUS
 90
8
 70
0
 43
0.3499999865
 10
-1.1244483905
 20
44.279619817
 10
-0.2673054181
 20
44.279619817
 10
0.1612685945
 20
44.7081938296
 10
0.1612685945
 20
45.5653368019
 10
-0.2673054181
 20
45.9939057617
 10
-1.1244483905
 20
45.9939057617
 10
-1.1244483905
 20
47.2796227467
 10
0.1612685945
 20
47.2796227467
  0
ARC
  5
52D
100
AcDbEntity
  8
0
100
AcDbCircle
 62
7
  6
CONTINUOUS
 10
45.5947410756
 20
-23.2836931939
 40
0.5
100
AcDbArc
 50
350.803718421
 51
119.112422776
  0
ARC
  5
52E
100
AcDbEntity
  8
ASSI
100
AcDbCircle
 62
7
  6
CONTINUOUS
 10
45.5947410756
 20
-23.2836931939
 40
0.5
100
AcDbArc
 50
350.803718421
 51
119.112422776
  0
ARC
  5
52F
100
AcDbEntity
  8
0
100
AcDbCircle
 62
7
  6
CONTINUOUS
 10
39.2947410756
 20
-0.1836931939
 40
28.0
100
AcDbArc
 50
305.9627651514
 51
306.8614238325
  0
ARC
  5
530
100
AcDbEntity
  8
0
100
AcDbCircle
 62
7
  6
CONTINUOUS
 10
39.2947410756
 20
-0.1836931939
 40
28.0
100
AcDbArc
 50
303.5572117297
 51
304.1210936517
  0
ARC
  5
531
100
AcDbEntity
  8
0
100
AcDbCircle
 62
7
  6
CONTINUOUS
 10
39.2947410756
 20
-0.1836931939
 40
28.0
100
AcDbArc
 50
55.8789063483
 51
56.4427881358
  0
ARC
  5
532
100
AcDbEntity
  8
0
100
AcDbCircle
 62
7
  6
CONTINUOUS
 10
39.2947410756
 20
-0.1836931939
 40
28.0
100
AcDbArc
 50
53.1385761675
 51
54.0372348486
  0
ARC
  5
533
100
AcDbEntity
  8
ASSI
100
AcDbCircle
 62
7
  6
CONTINUOUS
 10
39.2947410756
 20
-0.1836931939
 40
28.0
100
AcDbArc
 50
305.9627651514
 51
306.8614238325
  0
ARC
  5
534
100
AcDbEntity
  8
ASSI
100
AcDbCircle
 62
7
  6
CONTINUOUS
 10
39.2947410756
 20
-0.1836931939
 40
28.0
100
AcDbArc
 50
303.5572117297
 51
304.1210936517
  0
ARC
  5
535
100
AcDbEntity
  8
ASSI
100
AcDbCircle
 62
7
  6
CONTINUOUS
 10
39.2947410756
 20
-0.1836931939
 40
28.0
100
AcDbArc
 50
55.8789063483
 51
56.4427881358
  0
ARC
  5
536
100
AcDbEntity
  8
ASSI
100
AcDbCircle
 62
7
  6
CONTINUOUS
 10
39.2947410756
 20
-0.1836931939
 40
28.0
100
AcDbArc
 50
53.1385761675
 51
54.0372348486
  0
ARC
  5
537
100
AcDbEntity
  8
0
100
AcDbCircle
 62
7
  6
CONTINUOUS
 10
45.5947410756
 20
22.9163068061
 40
0.5
100
AcDbArc
 50
240.887577224
 51
9.196281579
  0
ARC
  5
538
100
AcDbEntity
  8
ASSI
100
AcDbCircle
 62
7
  6
CONTINUOUS
 10
45.5947410756
 20
22.9163068061
 40
0.5
100
AcDbArc
 50
240.887577224
 51
9.196281579
  0
ARC
  5
539
100
AcDbEntity
  8
0
100
AcDbCircle
 62
7
  6
CONTINUOUS
 10
55.4947410756
 20
-23.2836931939
 40
0.5
100
AcDbArc
 50
60.887577224
 51
189.196281579
  0
ARC
  5
53A
100
AcDbEntity
  8
ASSI
100
AcDbCircle
 62
7
  6
CONTINUOUS
 10
55.4947410756
 20
-23.2836931939
 40
0.5
100
AcDbArc
 50
60.887577224
 51
189.196281579
  0
ARC
  5
53B
100
AcDbEntity
  8
0
100
AcDbCircle
 62
7
  6
CONTINUOUS
 10
61.7947410756
 20
-0.1836931939
 40
28.0
100
AcDbArc
 50
235.8789063483
 51
236.4427882703
  0
ARC
  5
53C
100
AcDbEntity
  8
0
100
AcDbCircle
 62
7
  6
CONTINUOUS
 10
61.7947410756
 20
-0.1836931939
 40
28.0
100
AcDbArc
 50
233.1385761675
 51
234.0372348486
  0
ARC
  5
53D
100
AcDbEntity
  8
0
100
AcDbCircle
 62
7
  6
CONTINUOUS
 10
61.7947410756
 20
-0.1836931939
 40
28.0
100
AcDbArc
 50
125.9627651514
 51
126.8614238325
  0
ARC
  5
53E
100
AcDbEntity
  8
0
100
AcDbCircle
 62
7
  6
CONTINUOUS
 10
61.7947410756
 20
-0.1836931939
 40
28.0
100
AcDbArc
 50
123.5572118642
 51
124.1210936517
  0
ARC
  5
53F
100
AcDbEntity
  8
ASSI
100
AcDbCircle
 62
7
  6
CONTINUOUS
 10
61.7947410756
 20
-0.1836931939
 40
28.0
100
AcDbArc
 50
235.8789063483
 51
236.4427882703
  0
ARC
  5
540
100
AcDbEntity
  8
ASSI
100
AcDbCircle
 62
7
  6
CONTINUOUS
 10
61.7947410756
 20
-0.1836931939
 40
28.0
100
AcDbArc
 50
233.1385761675
 51
234.0372348486
  0
ARC
  5
541
100
AcDbEntity
  8
ASSI
100
AcDbCircle
 62
7
  6
CONTINUOUS
 10
61.7947410756
 20
-0.1836931939
 40
28.0
100
AcDbArc
 50
125.9627651514
 51
126.8614238325
  0
ARC
  5
542
100
AcDbEntity
  8
ASSI
100
AcDbCircle
 62
7
  6
CONTINUOUS
 10
61.7947410756
 20
-0.1836931939
 40
28.0
100
AcDbArc
 50
123.5572118642
 51
124.1210936517
  0
ARC
  5
543
100
AcDbEntity
  8
DRAFT
100
AcDbCircle
 62
7
  6
CONTINUOUS
 10
50.5447410756
 20
-0.1836931939
 40
7.7936376623
100
AcDbArc
 50
254.2221986956
 51
285.7778013044
  0
ARC
  5
544
100
AcDbEntity
  8
DRAFT
100
AcDbCircle
 62
7
  6
CONTINUOUS
 10
50.5447410756
 20
-0.1836931939
 40
7.7936376623
100
AcDbArc
 50
74.2221986956
 51
105.7778013044
  0
ARC
  5
545
100
AcDbEntity
  8
DRAFT
100
AcDbCircle
 62
7
  6
CONTINUOUS
 10
50.5447410756
 20
-0.1836931939
 40
7.75
100
AcDbArc
 50
285.2195847889
 51
74.7804152111
  0
ARC
  5
546
100
AcDbEntity
  8
DRAFT
100
AcDbCircle
 62
7
  6
CONTINUOUS
 10
50.5447410756
 20
-0.1836931939
 40
7.75
100
AcDbArc
 50
105.2195847889
 51
254.7804152111
  0
CIRCLE
  5
547
100
AcDbEntity
  8
DRAFT
100
AcDbCircle
 62
7
  6
CONTINUOUS
 10
50.5447410756
 20
-0.1836931939
 40
7.5
  0
CIRCLE
  5
548
100
AcDbEntity
  8
RACCORDO
100
AcDbCircle
 62
250
  6
CONTINUOUS
 10
50.5447410756
 20
-0.1836931939
 40
7.3446976577
  0
CIRCLE
  5
549
100
AcDbEntity
  8
0
100
AcDbCircle
 62
7
  6
CONTINUOUS
 10
50.5447410756
 20
-0.1836931939
 40
7.325
  0
CIRCLE
  5
54A
100
AcDbEntity
  8
RACCORDO
100
AcDbCircle
 62
250
  6
CONTINUOUS
 10
50.5447410756
 20
-0.1836931939
 40
6.8568965095
  0
CIRCLE
  5
54B
100
AcDbEntity
  8
RACCORDO
100
AcDbCircle
 62
250
  6
CONTINUOUS
 10
50.5447410756
 20
-0.1836931939
 40
6.4115440154
  0
ARC
  5
54C
100
AcDbEntity
  8
0
100
AcDbCircle
 62
7
  6
CONTINUOUS
 10
55.4947410756
 20
22.9163068061
 40
0.5
100
AcDbArc
 50
170.803718421
 51
299.112422776
  0
ARC
  5
54D
100
AcDbEntity
  8
ASSI
100
AcDbCircle
 62
7
  6
CONTINUOUS
 10
55.4947410756
 20
22.9163068061
 40
0.5
100
AcDbArc
 50
170.803718421
 51
299.112422776
  0
ARC
  5
54E
100
AcDbEntity
  8
RACCORDO
100
AcDbCircle
 62
7
  6
CONTINUOUS
 10
476.5898392194
 20
-0.1836931939
 40
500.0
100
AcDbArc
 50
179.0925597108
 51
180.267389943
  0
ARC
  5
54F
100
AcDbEntity
  8
RACCORDO
100
AcDbCircle
 62
7
  6
CONTINUOUS
 10
476.5898392194
 20
-0.1836931939
 40
500.0
100
AcDbArc
 50
180.8031116105
 51
180.9074402892
  0
ARC
  5
550
100
AcDbEntity
  8
0
100
AcDbCircle
 62
7
  6
CONTINUOUS
 10
476.5898392194
 20
-0.1836931939
 40
500.0
100
AcDbArc
 50
177.5907686986
 51
182.4092313014
  0
ARC
  5
551
100
AcDbEntity
  8
RACCORDO
100
AcDbCircle
 62
7
  6
CONTINUOUS
 10
27.5898392194
 20
-0.1836931939
 40
60.0
100
AcDbArc
 50
173.8657140405
 51
186.1342859595
  0
ARC
  5
552
100
AcDbEntity
  8
0
100
AcDbCircle
 62
7
  6
CONTINUOUS
 10
-21.9690798443
 20
20.7925844086
 40
1.0
100
AcDbArc
 50
93.0
 51
177.5907686986
  0
ARC
  5
553
100
AcDbEntity
  8
0
100
AcDbCircle
 62
7
  6
CONTINUOUS
 10
-21.9690798443
 20
-21.1599707963
 40
1.0
100
AcDbArc
 50
182.4092313014
 51
267.0
  0
ARC
  5
554
100
AcDbEntity
  8
RACCORDO
100
AcDbCircle
 62
7
  6
CONTINUOUS
 10
-31.5694743348
 20
-6.5418076782
 40
0.5
100
AcDbArc
 50
186.1342859595
 51
266.0
  0
ARC
  5
555
100
AcDbEntity
  8
RACCORDO
100
AcDbCircle
 62
7
  6
CONTINUOUS
 10
-31.5694743348
 20
6.1744212905
 40
0.5
100
AcDbArc
 50
94.0
 51
173.8657140405
  0
ARC
  5
556
100
AcDbEntity
  8
RACCORDO
100
AcDbCircle
 62
7
  6
CONTINUOUS
 10
-24.6101607806
 20
-7.2291216382
 40
0.3
100
AcDbArc
 50
185.7331507522
 51
266.0
  0
ARC
  5
557
100
AcDbEntity
  8
RACCORDO
100
AcDbCircle
 62
7
  6
CONTINUOUS
 10
-24.6101607806
 20
6.8617352504
 40
0.3
100
AcDbArc
 50
94.0
 51
174.2668492478
  0
ARC
  5
558
100
AcDbEntity
  8
RACCORDO
100
AcDbCircle
 62
7
  6
CONTINUOUS
 10
-9.7101607806
 20
21.2128462588
 40
0.2
100
AcDbArc
 50
180.0
 51
269.0
  0
ARC
  5
559
100
AcDbEntity
  8
RACCORDO
100
AcDbCircle
 62
7
  6
CONTINUOUS
 10
-9.7101607806
 20
-21.5802326465
 40
0.2
100
AcDbArc
 50
91.0
 51
180.0
  0
ARC
  5
55A
100
AcDbEntity
  8
ASSI
100
AcDbCircle
 62
7
  6
CONTINUOUS
 10
-9.7101607806
 20
21.2128462588
 40
0.2
100
AcDbArc
 50
180.0
 51
269.0
  0
ARC
  5
55B
100
AcDbEntity
  8
ASSI
100
AcDbCircle
 62
7
  6
CONTINUOUS
 10
-9.7101607806
 20
-21.5802326465
 40
0.2
100
AcDbArc
 50
91.0
 51
180.0
  0
ELLIPSE
  5
55C
100
AcDbEntity
  8
0
100
AcDbEllipse
 62
7
  6
CONTINUOUS
 10
61.1946649115
 20
-22.0830070209
 30
0.0
 11
-0.1582391023
 21
0.4751033573
 31
0.0
 40
0.9984778551
 41
-3.4626430041
 42
-1.8927600658
  0
ELLIPSE
  5
55D
100
AcDbEntity
  8
0
100
AcDbEllipse
 62
7
  6
CONTINUOUS
 10
39.8948172396
 20
21.7156206331
 30
0.0
 11
-0.1582391023
 21
0.4751033573
 31
0.0
 40
0.9984778551
 41
-0.3210503505
 42
1.2488325878
  0
ELLIPSE
  5
55E
100
AcDbEntity
  8
0
100
AcDbEllipse
 62
7
  6
CONTINUOUS
 10
39.8948172396
 20
-22.0830070209
 30
0.0
 11
0.1582391023
 21
0.4751033573
 31
0.0
 40
0.9984778551
 41
-4.3904252414
 42
-2.8205423031
  0
ELLIPSE
  5
55F
100
AcDbEntity
  8
0
100
AcDbEllipse
 62
7
  6
CONTINUOUS
 10
61.1946649115
 20
21.7156206331
 30
0.0
 11
0.1582391023
 21
0.4751033573
 31
0.0
 40
0.9984778551
 41
-1.2488325878
 42
0.3210503505
  0
ELLIPSE
  5
560
100
AcDbEntity
  8
DRAFT
100
AcDbEllipse
 62
7
  6
CONTINUOUS
 10
-1.6601607806
 20
-15.1836931939
 30
0.0
 11
0.75
 21
-0.0
 31
0.0
 40
1.0
 41
1.5795229731
 42
4.7036623341
  0
ELLIPSE
  5
561
100
AcDbEntity
  8
DRAFT
100
AcDbEllipse
 62
7
  6
CONTINUOUS
 10
-1.6601607806
 20
14.8163068061
 30
0.0
 11
0.75
 21
-0.0
 31
0.0
 40
1.0
 41
1.5795229731
 42
4.7036623341
  0
ELLIPSE
  5
562
100
AcDbEntity
  8
DRAFT
100
AcDbEllipse
 62
7
  6
CONTINUOUS
 10
-1.6601607806
 20
9.8163068061
 30
0.0
 11
0.75
 21
-0.0
 31
0.0
 40
1.0
 41
1.5795229731
 42
4.7036623341
  0
ELLIPSE
  5
563
100
AcDbEntity
  8
DRAFT
100
AcDbEllipse
 62
7
  6
CONTINUOUS
 10
-1.6601607806
 20
4.8163068061
 30
0.0
 11
0.75
 21
0.0
 31
0.0
 40
1.0
 41
1.5795229731
 42
4.7036623341
  0
ELLIPSE
  5
564
100
AcDbEntity
  8
DRAFT
100
AcDbEllipse
 62
7
  6
CONTINUOUS
 10
-1.6601607806
 20
-0.1836931939
 30
0.0
 11
0.75
 21
-0.0
 31
0.0
 40
1.0
 41
1.5795229731
 42
4.7036623341
  0
ELLIPSE
  5
565
100
AcDbEntity
  8
DRAFT
100
AcDbEllipse
 62
7
  6
CONTINUOUS
 10
-1.6601607806
 20
-5.1836931939
 30
0.0
 11
0.75
 21
0.0
 31
0.0
 40
1.0
 41
1.5795229731
 42
4.7036623341
  0
ELLIPSE
  5
566
100
AcDbEntity
  8
DRAFT
100
AcDbEllipse
 62
7
  6
CONTINUOUS
 10
-1.6601607806
 20
-10.1836931939
 30
0.0
 11
0.75
 21
-0.0
 31
0.0
 40
1.0
 41
1.5795229731
 42
4.7036623341
  0
ELLIPSE
  5
567
100
AcDbEntity
  8
ASSI
100
AcDbEllipse
 62
7
  6
CONTINUOUS
 10
-1.6601607806
 20
-10.1836931939
 30
0.0
 11
0.75
 21
-0.0
 31
0.0
 40
1.0
 41
1.5795229731
 42
4.7036623341
  0
ELLIPSE
  5
568
100
AcDbEntity
  8
ASSI
100
AcDbEllipse
 62
7
  6
CONTINUOUS
 10
-1.6601607806
 20
-5.1836931939
 30
0.0
 11
0.75
 21
0.0
 31
0.0
 40
1.0
 41
1.5795229731
 42
4.7036623341
  0
ELLIPSE
  5
569
100
AcDbEntity
  8
ASSI
100
AcDbEllipse
 62
7
  6
CONTINUOUS
 10
-1.6601607806
 20
-0.1836931939
 30
0.0
 11
0.75
 21
-0.0
 31
0.0
 40
1.0
 41
1.5795229731
 42
4.7036623341
  0
ELLIPSE
  5
56A
100
AcDbEntity
  8
ASSI
100
AcDbEllipse
 62
7
  6
CONTINUOUS
 10
-1.6601607806
 20
4.8163068061
 30
0.0
 11
0.75
 21
0.0
 31
0.0
 40
1.0
 41
1.5795229731
 42
4.7036623341
  0
ELLIPSE
  5
56B
100
AcDbEntity
  8
ASSI
100
AcDbEllipse
 62
7
  6
CONTINUOUS
 10
-1.6601607806
 20
9.8163068061
 30
0.0
 11
0.75
 21
-0.0
 31
0.0
 40
1.0
 41
1.5795229731
 42
4.7036623341
  0
ELLIPSE
  5
56C
100
AcDbEntity
  8
ASSI
100
AcDbEllipse
 62
7
  6
CONTINUOUS
 10
-1.6601607806
 20
14.8163068061
 30
0.0
 11
0.75
 21
-0.0
 31
0.0
 40
1.0
 41
1.5795229731
 42
4.7036623341
  0
ELLIPSE
  5
56D
100
AcDbEntity
  8
ASSI
100
AcDbEllipse
 62
7
  6
CONTINUOUS
 10
-1.6601607806
 20
-15.1836931939
 30
0.0
 11
0.75
 21
-0.0
 31
0.0
 40
1.0
 41
1.5795229731
 42
4.7036623341
  0
ELLIPSE
  5
56E
100
AcDbEntity
  8
0
100
AcDbEllipse
 62
250
  6
CONTINUOUS
 10
-10.1101547806
 20
4.6163008061
 30
0.0
 11
0.0
 21
0.499999
 31
0.0
 40
1.0
 41
0.0
 42
6.2831853072
  0
ENDSEC
  0
SECTION
  2
OBJECTS
  0
DICTIONARY
  5
C
100
AcDbDictionary
280
0
281
1
  3
ACAD_GROUP
350
D
  3
ACAD_MLINESTYLE
350
17
  3
ACAD_LAYOUT
350
1A
  3
ACAD_PLOTSETTINGS
350
19
  3
ACAD_PLOTSTYLENAME
350
E
  0
DICTIONARY
  5
D
102
{ACAD_REACTORS
330
C
102
}
100
AcDbDictionary
280
0
281
1
  0
ACDBDICTIONARYWDFLT
  5
E
102
{ACAD_REACTORS
330
C
102
}
100
AcDbDictionary
281
1
  3
Normal
350
F
100
AcDbDictionaryWithDefault
340
F
  0
DICTIONARY
  5
17
102
{ACAD_REACTORS
330
C
102
}
100
AcDbDictionary
280
0
281
1
  3
Standard
350
18
  0
DICTIONARY
  5
19
102
{ACAD_REACTORS
330
C
102
}
100
AcDbDictionary
281
1
  0
DICTIONARY
  5
1A
102
{ACAD_REACTORS
330
C
102
}
100
AcDbDictionary
281
1
  3
Model
350
56F
  3
Layout1
350
570
  0
ACDBPLACEHOLDER
  5
F
102
{ACAD_REACTORS
330
E
102
}
  0
MLINESTYLE
  5
18
102
{ACAD_REACTORS
330
17
102
}
100
AcDbMlineStyle
  2
STANDARD
 70
0
  3

 62
256
 51
90.0
 52
90.0
 71
2
 49
0.5
 62
256
  6
BYLAYER
 49
-0.5
 62
256
  6
BYLAYER
  0
LAYOUT
  5
56F
102
{ACAD_REACTORS
330
1A
102
}
100
AcDbPlotSettings
  1

  2
none_device
  4

  6

 40
0.0
 41
0.0
 42
0.0
 43
0.0
 44
215.9
 45
279.4
 46
0.0
 47
0.0
 48
0.0
 49
0.0
140
0.0
141
0.0
142
1.0
143
1.0
 70
1024
 72
1
 73
0
 74
0
  7

 75
0
147
1.0
148
0.0
149
0.0
100
AcDbLayout
  1
Model
 70
0
 71
0
 10
0.0
 20
0.0
 11
215.9
 21
279.4
 12
0.0
 22
0.0
 32
0.0
 14
0.0
 24
0.0
 34
0.0
 15
0.0
 25
0.0
 35
0.0
146
0.0
 13
0.0
 23
0.0
 33
0.0
 16
1.0
 26
0.0
 36
0.0
 17
0.0
 27
1.0
 37
0.0
 76
0
330
218
345
0
346
0
  0
LAYOUT
  5
570
102
{ACAD_REACTORS
330
1A
102
}
100
AcDbPlotSettings
  1

  2
none_device
  4

  6

 40
0.0
 41
0.0
 42
0.0
 43
0.0
 44
215.9
 45
279.4
 46
0.0
 47
0.0
 48
0.0
 49
0.0
140
0.0
141
0.0
142
1.0
143
1.0
 70
0
 72
1
 73
0
 74
0
  7

 75
0
147
1.0
148
0.0
149
0.0
100
AcDbLayout
  1
Layout1
 70
0
 71
1
 10
0.0
 20
0.0
 11
215.9
 21
279.4
 12
0.0
 22
0.0
 32
0.0
 14
0.0
 24
0.0
 34
0.0
 15
0.0
 25
0.0
 35
0.0
146
0.0
 13
0.0
 23
0.0
 33
0.0
 16
1.0
 26
0.0
 36
0.0
 17
0.0
 27
1.0
 37
0.0
 76
0
330
219
345
0
346
0
  0
ENDSEC
  0
EOF
