0
SECTION
2
HEADER
9
$ACADVER
1
AC1015
9
$DWGCODEPAGE
3
ANSI_1252
9
$EXTMAX
10
297.0000000000
20
210.0000000000
30
0.0000000000
9
$EXTMIN
10
0.0000000000
20
0.0000000000
30
0.0000000000
9
$LIMMIN
10
0.0000000000
20
0.0000000000
9
$LIMMAX
10
297.0000000000
20
210.0000000000
9
$VIEWCTR
10
148.5000000000
20
105.0000000000
9
$VIEWSIZE
40
210.0000000000
9
$CLAYER
8
0
9
$LTSCALE
40
16.3350000000
9
$CELTYPE
6
BYLAYER
9
$DIMSCALE
40
1
9
$DIMASZ
40
3.0000000000
9
$DIMEXO
40
1.8562500000
9
$DIMDLI
40
11.2860000000
9
$DIMEXE
40
5.3460000000
9
$DIMCEN
40
2.6730000000
9
$DIMLFAC
40
1.0000000000
9
$DIMBLK
1
_FILLED
9
$DIMTXT
40
3.0000000000
9
$DIMTOL
70
1
9
$DIMLIM
70
0
9
$DIMTFAC
40
1.0000000000
9
$DIMTP
40
0.0100000000
9
$DIMTM
40
0.0100000000
9
$PDMODE
70
3
9
$PDSIZE
40
3.0000000000
9
$HANDSEED
5
4BE
9
$MEASUREMENT
70
1
9
$INSUNITS
70
4
0
ENDSEC
0
SECTION
2
CLASSES
0
CLASS
1
ACDBDICTIONARYWDFLT
2
AcDbDictionaryWithDefault
3
AutoCAD 2000
90
0
280
0
281
0
0
CLASS
1
ACDBPLACEHOLDER
2
AcDbPlaceHolder
3
AutoCAD 2000
90
0
280
0
281
0
0
CLASS
1
LAYOUT
2
AcDbLayout
3
AutoCAD 2000
90
0
280
0
281
0
0
ENDSEC
0
SECTION
2
TABLES
0
TABLE
2
VPORT
5
8
100
AcDbSymbolTable
70
2
0
VPORT
5
1F4
100
AcDbSymbolTableRecord
100
AcDbViewportTableRecord
2
*ACTIVE
70
0
10
0.0
20
0.0
11
1.0
21
1.0
12
148.5000000000
22
105.0000000000
13
0.0
23
0.0
14
1.0
24
1.0
15
0.0
25
0.0
16
0.0
26
0.0
36
1.0
17
0.0
27
0.0
37
0.0
40
210.0000000000
41
1.4142857143
42
50.0
43
0.0
44
0.0
50
0.0
51
0.0
71
0
72
100
73
1
74
1
75
0
76
0
77
0
78
0
0
ENDTAB
0
TABLE
2
LTYPE
5
5
100
AcDbSymbolTable
70
6
0
LTYPE
5
14
100
AcDbSymbolTableRecord
100
AcDbLinetypeTableRecord
2
BYBLOCK
70
0
3

72
65
73
0
40
0.0
0
LTYPE
5
15
100
AcDbSymbolTableRecord
100
AcDbLinetypeTableRecord
2
BYLAYER
70
0
3

72
65
73
0
40
0.0
0
LTYPE
5
16
100
AcDbSymbolTableRecord
100
AcDbLinetypeTableRecord
2
CONTINUOUS
70
64
3
Solid line
72
65
73
0
40
0
0
LTYPE
5
1F5
100
AcDbSymbolTableRecord
100
AcDbLinetypeTableRecord
2
CENTER
70
64
3
____ _ ____ _ ____ _ ____ _ ____ _ ____ _ ____
72
65
73
4
40
0.6
49
0.375
74
0
49
-0.075
74
0
49
0.075
74
0
49
-0.075
74
0
0
LTYPE
5
1F6
100
AcDbSymbolTableRecord
100
AcDbLinetypeTableRecord
2
HIDDEN
70
64
3
- - - - - - - - - - - - - - - - - - - -
72
65
73
2
40
0.2
49
0.1
74
0
49
-0.1
74
0
0
LTYPE
5
1F7
100
AcDbSymbolTableRecord
100
AcDbLinetypeTableRecord
2
PHANTOM
70
64
3
_____ _ _ _____ _ _ _____ _ _ _____
72
65
73
6
40
0.8
49
0.45
74
0
49
-0.05
74
0
49
0.1
74
0
49
-0.05
74
0
49
0.1
74
0
49
-0.05
74
0
0
LTYPE
5
1F8
100
AcDbSymbolTableRecord
100
AcDbLinetypeTableRecord
2
DOT
70
64
3
. . . . . . . . . . . . . . . . . . . .
72
65
73
2
40
0.2
49
0.1
74
0
49
-0.1
74
0
0
LTYPE
5
1F9
100
AcDbSymbolTableRecord
100
AcDbLinetypeTableRecord
2
DASHED
70
64
3
- - - - - - - - - - - - - - - - - - - -
72
65
73
2
40
0.2
49
0.1
74
0
49
-0.1
74
0
0
ENDTAB
0
TABLE
2
LAYER
5
2
100
AcDbSymbolTable
70
36
0
LAYER
5
10
100
AcDbSymbolTableRecord
100
AcDbLayerTableRecord
2
0
70
0
62
7
6
CONTINUOUS
370
-3
390
F
0
LAYER
5
1FA
100
AcDbSymbolTableRecord
100
AcDbLayerTableRecord
2
DEFAULT_1
70
0
62
7
6
CENTER
370
-3
390
F
0
LAYER
5
1FB
100
AcDbSymbolTableRecord
100
AcDbLayerTableRecord
2
DEFAULT_2
70
0
62
8
6
HIDDEN
370
-3
390
F
0
LAYER
5
1FC
100
AcDbSymbolTableRecord
100
AcDbLayerTableRecord
2
DEFAULT_3
70
0
62
7
6
PHANTOM
370
-3
390
F
0
LAYER
5
1FD
100
AcDbSymbolTableRecord
100
AcDbLayerTableRecord
2
_BLACK_HOLE
70
0
62
7
6
CONTINUOUS
370
-3
390
F
0
LAYER
5
1FE
100
AcDbSymbolTableRecord
100
AcDbLayerTableRecord
2
ASSI
70
0
62
7
6
CONTINUOUS
370
-3
390
F
0
LAYER
5
1FF
100
AcDbSymbolTableRecord
100
AcDbLayerTableRecord
2
COORDINATE
70
0
62
7
6
CONTINUOUS
370
-3
390
F
0
LAYER
5
200
100
AcDbSymbolTableRecord
100
AcDbLayerTableRecord
2
COORD_ORIGINE
70
0
62
7
6
CONTINUOUS
370
-3
390
F
0
LAYER
5
201
100
AcDbSymbolTableRecord
100
AcDbLayerTableRecord
2
COPY_PUBLISH
70
0
62
7
6
CONTINUOUS
370
-3
390
F
0
LAYER
5
202
100
AcDbSymbolTableRecord
100
AcDbLayerTableRecord
2
COSMETIC
70
0
62
7
6
CONTINUOUS
370
-3
390
F
0
LAYER
5
203
100
AcDbSymbolTableRecord
100
AcDbLayerTableRecord
2
CURVE
70
0
62
7
6
CONTINUOUS
370
-3
390
F
0
LAYER
5
204
100
AcDbSymbolTableRecord
100
AcDbLayerTableRecord
2
DRAFT
70
0
62
7
6
CONTINUOUS
370
-3
390
F
0
LAYER
5
205
100
AcDbSymbolTableRecord
100
AcDbLayerTableRecord
2
IMPORT
70
0
62
7
6
CONTINUOUS
370
-3
390
F
0
LAYER
5
206
100
AcDbSymbolTableRecord
100
AcDbLayerTableRecord
2
IMPORT_IGES
70
0
62
7
6
CONTINUOUS
370
-3
390
F
0
LAYER
5
207
100
AcDbSymbolTableRecord
100
AcDbLayerTableRecord
2
NOTE
70
0
62
7
6
CONTINUOUS
370
-3
390
F
0
LAYER
5
208
100
AcDbSymbolTableRecord
100
AcDbLayerTableRecord
2
PIANI
70
0
62
7
6
CONTINUOUS
370
-3
390
F
0
LAYER
5
209
100
AcDbSymbolTableRecord
100
AcDbLayerTableRecord
2
PIANI_ORIGINE
70
0
62
7
6
CONTINUOUS
370
-3
390
F
0
LAYER
5
20A
100
AcDbSymbolTableRecord
100
AcDbLayerTableRecord
2
PUNTI
70
0
62
7
6
CONTINUOUS
370
-3
390
F
0
LAYER
5
20B
100
AcDbSymbolTableRecord
100
AcDbLayerTableRecord
2
RACCORDO
70
0
62
7
6
CONTINUOUS
370
-3
390
F
0
LAYER
5
20C
100
AcDbSymbolTableRecord
100
AcDbLayerTableRecord
2
SMUSSO
70
0
62
7
6
CONTINUOUS
370
-3
390
F
0
LAYER
5
20D
100
AcDbSymbolTableRecord
100
AcDbLayerTableRecord
2
SNAPLINE
70
0
62
7
6
CONTINUOUS
370
-3
390
F
0
LAYER
5
20E
100
AcDbSymbolTableRecord
100
AcDbLayerTableRecord
2
TRASH
70
0
62
7
6
CONTINUOUS
370
-3
390
F
0
LAYER
5
20F
100
AcDbSymbolTableRecord
100
AcDbLayerTableRecord
2
XSEC_DATUMS
70
0
62
7
6
CONTINUOUS
370
-3
390
F
0
ENDTAB
0
TABLE
2
STYLE
5
3
100
AcDbSymbolTable
70
1
0
STYLE
5
11
100
AcDbSymbolTableRecord
100
AcDbTextStyleTableRecord
2
STANDARD
70
0
40
0.0
41
0.8000000000
50
0.0
71
0
42
0.2
3
txt
4

0
ENDTAB
0
TABLE
2
VIEW
5
6
100
AcDbSymbolTable
70
0
0
ENDTAB
0
TABLE
2
UCS
5
7
100
AcDbSymbolTable
70
0
0
ENDTAB
0
TABLE
2
APPID
5
9
100
AcDbSymbolTable
70
1
0
APPID
5
210
100
AcDbSymbolTableRecord
100
AcDbRegAppTableRecord
2
ACAD
70
0
0
ENDTAB
0
TABLE
2
BLOCK_RECORD
5
1
100
AcDbSymbolTable
70
0
0
BLOCK_RECORD
5
1F
100
AcDbSymbolTableRecord
100
AcDbBlockTableRecord
2
*MODEL_SPACE
0
BLOCK_RECORD
5
1B
100
AcDbSymbolTableRecord
100
AcDbBlockTableRecord
2
*PAPER_SPACE
0
BLOCK_RECORD
5
211
100
AcDbSymbolTableRecord
100
AcDbBlockTableRecord
2
_FILLED
0
BLOCK_RECORD
5
212
100
AcDbSymbolTableRecord
100
AcDbBlockTableRecord
2
*D0
0
BLOCK_RECORD
5
213
100
AcDbSymbolTableRecord
100
AcDbBlockTableRecord
2
*D1
0
BLOCK_RECORD
5
214
100
AcDbSymbolTableRecord
100
AcDbBlockTableRecord
2
*D2
0
BLOCK_RECORD
5
215
100
AcDbSymbolTableRecord
100
AcDbBlockTableRecord
2
*D3
0
ENDTAB
0
TABLE
2
DIMSTYLE
5
A
100
AcDbSymbolTable
70
1
100
AcDbDimStyleTable
71
0
0
DIMSTYLE
105
216
100
AcDbSymbolTableRecord
100
AcDbDimStyleTableRecord
2
STANDARD
70
0
3

4

40
1.0
41
3.0000000000
42
0.0625
43
0.38
44
0.18
45
0.0
46
0.0
47
0.0100000000
48
0.0100000000
140
3.0000000000
141
0.09
142
0.0
143
25.4
144
1.0000000000
145
0.0
146
1.0000000000
147
0.09
71
1
72
0
73
0
74
0
75
0
76
0
77
1
78
8
170
0
171
2
172
0
173
0
174
0
175
0
176
0
177
0
178
0
270
2
271
2
272
2
273
2
274
2
275
0
280
0
281
0
282
0
283
1
284
8
285
0
286
0
287
3
288
0
340
11
341
211
342
211
343
211
344
211
0
DIMSTYLE
105
217
100
AcDbSymbolTableRecord
100
AcDbDimStyleTableRecord
2
DIMSTYLE_1
70
0
3

4

40
1.0
41
3.0000000000
42
0.0625
43
0.38
44
0.18
45
0.0
46
0.0
47
0.0000000000
48
0.0000000000
140
3.0000000000
141
0.09
142
0.0
143
25.4
144
1.0000000000
145
0.0
146
1.0000000000
147
0.09
71
0
72
0
73
0
74
0
75
0
76
0
77
1
78
8
170
0
171
2
172
0
173
0
174
0
175
0
176
0
177
0
178
0
270
2
271
2
272
2
273
2
274
2
275
0
280
0
281
0
282
0
283
1
284
8
285
0
286
0
287
3
288
0
340
11
341
211
342
211
343
211
344
211
0
ENDTAB
0
ENDSEC
0
SECTION
2
BLOCKS
0
BLOCK
5
20
100
AcDbEntity
8
0
100
AcDbBlockBegin
2
*MODEL_SPACE
70
0
10
0.0
20
0.0
30
0.0
3
*MODEL_SPACE
1

0
ENDBLK
5
21
100
AcDbEntity
8
0
100
AcDbBlockEnd
0
BLOCK
5
1C
100
AcDbEntity
8
0
100
AcDbBlockBegin
2
*PAPER_SPACE
70
0
10
0.0
20
0.0
30
0.0
3
*PAPER_SPACE
1

0
ENDBLK
5
1D
100
AcDbEntity
8
0
100
AcDbBlockEnd
0
BLOCK
5
218
100
AcDbEntity
8
0
100
AcDbBlockBegin
62
2
6
CONTINUOUS
2
*D0
70
65
10
0.0000000000
20
0.0000000000
3
*D0
1

0
TEXT
5
219
100
AcDbEntity
8
0
100
AcDbText
62
2
6
CONTINUOUS
10
18.4000000000
20
-2.3571428571
7
STANDARD
40
3.0000000000
1
47
50
90.0000000000
41
0.7857142857
72
0
100
AcDbText
0
LINE
5
21A
100
AcDbEntity
8
0
100
AcDbLine
62
2
6
CONTINUOUS
10
4.1748580251
20
23.5000000000
11
20.6500000000
21
23.5000000000
0
LINE
5
21B
100
AcDbEntity
8
0
100
AcDbLine
62
2
6
CONTINUOUS
10
4.1748576770
20
-23.5000000000
11
20.6500000000
21
-23.5000000000
0
LINE
5
21C
100
AcDbEntity
8
0
100
AcDbLine
62
2
6
CONTINUOUS
10
19.1500000000
20
23.5000000000
11
19.1500000000
21
-0.0000000000
0
LINE
5
21D
100
AcDbEntity
8
0
100
AcDbLine
62
2
6
CONTINUOUS
10
19.1500000000
20
-23.5000000000
11
19.1500000000
21
-0.0000000000
0
INSERT
5
21E
100
AcDbEntity
8
0
100
AcDbBlockReference
62
2
6
CONTINUOUS
2
_FILLED
10
19.1500000000
20
23.5000000000
41
  3.000000
42
  3.000000
43
  3.000000
50
 90.000000
0
INSERT
5
21F
100
AcDbEntity
8
0
100
AcDbBlockReference
62
2
6
CONTINUOUS
2
_FILLED
10
19.1500000000
20
-23.5000000000
41
  3.000000
42
  3.000000
43
  3.000000
50
270.000000
0
ENDBLK
5
220
100
AcDbEntity
8
0
6
BYBLOCK
62
0
100
AcDbBlockEnd
0
BLOCK
5
221
100
AcDbEntity
8
0
100
AcDbBlockBegin
62
2
6
CONTINUOUS
2
*D1
70
65
10
0.0000000000
20
0.0000000000
3
*D1
1

0
TEXT
5
222
100
AcDbEntity
8
0
100
AcDbText
62
2
6
CONTINUOUS
10
-4.2857142857
20
32.2500000000
7
STANDARD
40
3.0000000000
1
22,3
41
0.7142857143
72
0
100
AcDbText
0
LINE
5
223
100
AcDbEntity
8
0
100
AcDbLine
62
2
6
CONTINUOUS
10
11.1500000000
20
22.3997711479
11
11.1500000000
21
33.0000000000
0
LINE
5
224
100
AcDbEntity
8
0
100
AcDbLine
62
2
6
CONTINUOUS
10
-11.1500000000
20
16.6196591663
11
-11.1500000000
21
33.0000000000
0
LINE
5
225
100
AcDbEntity
8
0
100
AcDbLine
62
2
6
CONTINUOUS
10
11.1500000000
20
31.5000000000
11
0.0000000000
21
31.5000000000
0
LINE
5
226
100
AcDbEntity
8
0
100
AcDbLine
62
2
6
CONTINUOUS
10
-11.1500000000
20
31.5000000000
11
0.0000000000
21
31.5000000000
0
INSERT
5
227
100
AcDbEntity
8
0
100
AcDbBlockReference
62
2
6
CONTINUOUS
2
_FILLED
10
11.1500000000
20
31.5000000000
41
  3.000000
42
  3.000000
43
  3.000000
0
INSERT
5
228
100
AcDbEntity
8
0
100
AcDbBlockReference
62
2
6
CONTINUOUS
2
_FILLED
10
-11.1500000000
20
31.5000000000
41
  3.000000
42
  3.000000
43
  3.000000
50
180.000000
0
ENDBLK
5
229
100
AcDbEntity
8
0
6
BYBLOCK
62
0
100
AcDbBlockEnd
0
BLOCK
5
22A
100
AcDbEntity
8
0
100
AcDbBlockBegin
62
2
6
CONTINUOUS
2
*D2
70
65
10
0.0000000000
20
0.0000000000
3
*D2
1

0
TEXT
5
22B
100
AcDbEntity
8
0
100
AcDbText
62
2
6
CONTINUOUS
10
-43.9513272050
20
32.2500000000
7
STANDARD
40
3.0000000000
1
40
41
0.7857142857
72
0
100
AcDbText
0
LINE
5
22C
100
AcDbEntity
8
0
100
AcDbLine
62
2
6
CONTINUOUS
10
-21.5941843478
20
20.3119096983
11
-21.5941843478
21
33.0000000000
0
LINE
5
22D
100
AcDbEntity
8
0
100
AcDbLine
62
2
6
CONTINUOUS
10
-61.5941843478
20
22.3997711479
11
-61.5941843478
21
33.0000000000
0
LINE
5
22E
100
AcDbEntity
8
0
100
AcDbLine
62
2
6
CONTINUOUS
10
-21.5941843478
20
31.5000000000
11
-41.5941843478
21
31.5000000000
0
LINE
5
22F
100
AcDbEntity
8
0
100
AcDbLine
62
2
6
CONTINUOUS
10
-61.5941843478
20
31.5000000000
11
-41.5941843478
21
31.5000000000
0
INSERT
5
230
100
AcDbEntity
8
0
100
AcDbBlockReference
62
2
6
CONTINUOUS
2
_FILLED
10
-21.5941843478
20
31.5000000000
41
  3.000000
42
  3.000000
43
  3.000000
0
INSERT
5
231
100
AcDbEntity
8
0
100
AcDbBlockReference
62
2
6
CONTINUOUS
2
_FILLED
10
-61.5941843478
20
31.5000000000
41
  3.000000
42
  3.000000
43
  3.000000
50
180.000000
0
ENDBLK
5
232
100
AcDbEntity
8
0
6
BYBLOCK
62
0
100
AcDbBlockEnd
0
BLOCK
5
233
100
AcDbEntity
8
0
100
AcDbBlockBegin
62
2
6
CONTINUOUS
2
*D3
70
65
10
0.0000000000
20
0.0000000000
3
*D3
1

0
TEXT
5
234
100
AcDbEntity
8
0
100
AcDbText
62
2
6
CONTINUOUS
10
-55.0227557764
20
42.2500000000
7
STANDARD
40
3.0000000000
1
58,5
41
0.6964285714
72
0
100
AcDbText
0
LINE
5
235
100
AcDbEntity
8
0
100
AcDbLine
62
2
6
CONTINUOUS
10
-21.5941843478
20
20.3119096983
11
-21.5941843478
21
43.0000000000
0
LINE
5
236
100
AcDbEntity
8
0
100
AcDbLine
62
2
6
CONTINUOUS
10
-80.0941843478
20
0.5000000000
11
-80.0941843478
21
43.0000000000
0
LINE
5
237
100
AcDbEntity
8
0
100
AcDbLine
62
2
6
CONTINUOUS
10
-21.5941843478
20
41.5000000000
11
-50.8441843478
21
41.5000000000
0
LINE
5
238
100
AcDbEntity
8
0
100
AcDbLine
62
2
6
CONTINUOUS
10
-80.0941843478
20
41.5000000000
11
-50.8441843478
21
41.5000000000
0
INSERT
5
239
100
AcDbEntity
8
0
100
AcDbBlockReference
62
2
6
CONTINUOUS
2
_FILLED
10
-21.5941843478
20
41.5000000000
41
  3.000000
42
  3.000000
43
  3.000000
50
360.000000
0
INSERT
5
23A
100
AcDbEntity
8
0
100
AcDbBlockReference
62
2
6
CONTINUOUS
2
_FILLED
10
-80.0941843478
20
41.5000000000
41
  3.000000
42
  3.000000
43
  3.000000
50
180.000000
0
ENDBLK
5
23B
100
AcDbEntity
8
0
6
BYBLOCK
62
0
100
AcDbBlockEnd
0
BLOCK
5
23C
100
AcDbEntity
8
0
100
AcDbBlockBegin
2
_FILLED
70
64
10
0.0000000000
20
0.0000000000
3
_FILLED
1

0
SOLID
5
23D
100
AcDbEntity
8
0
6
BYBLOCK
62
0
100
AcDbTrace
10
0.0000000000
20
0.0000000000
11
-1.0000000000
21
0.3166666667
12
-1.0000000000
22
-0.3166666667
13
-1.0000000000
23
-0.3166666667
0
ENDBLK
5
23E
100
AcDbEntity
8
0
6
BYBLOCK
62
0
100
AcDbBlockEnd
0
ENDSEC
0
SECTION
2
ENTITIES
0
DIMENSION
5
23F
100
AcDbEntity
8
0
100
AcDbDimension
62
2
6
CONTINUOUS
2
*D0
10
19.1500000000
20
-23.5000000000
11
16.9000000000
21
-0.0000000000
70
160
3
DIMSTYLE_1
100
AcDbAlignedDimension
13
4.1748580251
23
23.5000000000
14
4.1748576770
24
-23.5000000000
50
270.000000
100
AcDbRotatedDimension
0
DIMENSION
5
240
100
AcDbEntity
8
0
100
AcDbDimension
62
2
6
CONTINUOUS
2
*D1
10
-11.1500000000
20
31.5000000000
11
0.0000000000
21
33.7500000000
70
160
3
DIMSTYLE_1
100
AcDbAlignedDimension
13
11.1500000000
23
22.3997711479
14
-11.1500000000
24
16.6196591663
50
180.000000
100
AcDbRotatedDimension
0
DIMENSION
5
241
100
AcDbEntity
8
0
100
AcDbDimension
62
2
6
CONTINUOUS
2
*D2
10
-61.5941843478
20
31.5000000000
11
-41.5941843478
21
33.7500000000
70
160
3
DIMSTYLE_1
100
AcDbAlignedDimension
13
-21.5941843478
23
20.3119096983
14
-61.5941843478
24
22.3997711479
50
180.000000
100
AcDbRotatedDimension
0
DIMENSION
5
242
100
AcDbEntity
8
0
100
AcDbDimension
62
2
6
CONTINUOUS
2
*D3
10
-80.0941843478
20
41.5000000000
11
-50.8441843478
21
43.7500000000
70
160
3
DIMSTYLE_1
100
AcDbAlignedDimension
13
-21.5941843478
23
20.3119096983
14
-80.0941843478
24
0.5000000000
50
180.000000
100
AcDbRotatedDimension
0
LINE
5
243
100
AcDbEntity
8
0
100
AcDbLine
62
7
6
CONTINUOUS
10
-3.6748576770
20
-23.5000000000
11
3.6748576770
21
-23.5000000000
0
LINE
5
244
100
AcDbEntity
8
0
100
AcDbLine
62
7
6
CONTINUOUS
10
-3.4698202597
20
-22.5000000000
11
3.4698202597
21
-22.5000000000
0
LINE
5
245
100
AcDbEntity
8
0
100
AcDbLine
62
7
6
CONTINUOUS
10
10.6503805997
20
-22.4000000000
11
3.3000000000
21
-22.4000000000
0
LINE
5
246
100
AcDbEntity
8
0
100
AcDbLine
62
7
6
CONTINUOUS
10
-3.3000000000
20
-22.4000000000
11
-10.6503805997
21
-22.4000000000
0
LINE
5
247
100
AcDbEntity
8
0
100
AcDbLine
62
9
6
CONTINUOUS
10
10.5087981167
20
-21.9749071372
11
-10.5087981167
21
-21.9749071372
0
LINE
5
248
100
AcDbEntity
8
0
100
AcDbLine
62
9
6
CONTINUOUS
10
10.5005350625
20
-21.0183142309
11
-10.5005350625
21
-21.0183142309
0
LINE
5
249
100
AcDbEntity
8
0
100
AcDbLine
62
7
6
CONTINUOUS
10
-3.3000000000
20
22.4000000000
11
-3.2333672024
21
22.5000000000
0
LINE
5
24A
100
AcDbEntity
8
0
100
AcDbLine
62
7
6
CONTINUOUS
10
-3.2333672024
20
-22.5000000000
11
-3.3000000000
21
-22.4000000000
0
LINE
5
24B
100
AcDbEntity
8
0
100
AcDbLine
62
7
6
CONTINUOUS
10
-11.1500000000
20
-21.8997711479
11
-11.1500000000
21
21.8997711479
0
LINE
5
24C
100
AcDbEntity
8
0
100
AcDbLine
62
7
6
CONTINUOUS
10
-3.3848722771
20
22.4000000000
11
-3.3680604335
21
22.4780932327
0
LINE
5
24D
100
AcDbEntity
8
0
100
AcDbLine
62
7
6
CONTINUOUS
10
-2.0345224386
20
-7.4781828305
11
-0.5381279100
21
-7.4781828305
0
LINE
5
24E
100
AcDbEntity
8
0
100
AcDbLine
62
7
6
CONTINUOUS
10
0.5381279100
20
-7.4781828305
11
2.0345224386
21
-7.4781828305
0
LINE
5
24F
100
AcDbEntity
8
0
100
AcDbLine
62
7
6
CONTINUOUS
10
-3.3848722771
20
-22.4000000000
11
-3.3680604335
21
-22.4780932327
0
LINE
5
250
100
AcDbEntity
8
0
100
AcDbLine
62
7
6
CONTINUOUS
10
-3.4698202597
20
22.5000000000
11
-3.4698202597
21
22.4000000000
0
LINE
5
251
100
AcDbEntity
8
0
100
AcDbLine
62
7
6
CONTINUOUS
10
-3.4698202597
20
-22.5000000000
11
-3.4698202597
21
-22.4000000000
0
LINE
5
252
100
AcDbEntity
8
0
100
AcDbLine
62
9
6
CONTINUOUS
10
-11.0087219643
20
-21.4755923698
11
-11.1500000000
21
-21.8997711479
0
LINE
5
253
100
AcDbEntity
8
0
100
AcDbLine
62
9
6
CONTINUOUS
10
-11.1500000000
20
21.8997711479
11
-11.0087219643
21
21.4755923698
0
LINE
5
254
100
AcDbEntity
8
0
100
AcDbLine
62
9
6
CONTINUOUS
10
-10.5087981167
20
-21.9749071372
11
-10.6503805997
21
-22.4000000000
0
LINE
5
255
100
AcDbEntity
8
0
100
AcDbLine
62
9
6
CONTINUOUS
10
-10.6503805997
20
22.4000000000
11
-10.5087981167
21
21.9749071372
0
LINE
5
256
100
AcDbEntity
8
0
100
AcDbLine
62
7
6
CONTINUOUS
10
3.4151277229
20
22.4000000000
11
3.4334085063
21
22.4849166520
0
LINE
5
257
100
AcDbEntity
8
0
100
AcDbLine
62
7
6
CONTINUOUS
10
3.4151277229
20
-22.4000000000
11
3.4334085063
21
-22.4849166521
0
LINE
5
258
100
AcDbEntity
8
0
100
AcDbLine
62
7
6
CONTINUOUS
10
-3.4151277229
20
-22.4000000000
11
-3.4334085063
21
-22.4849166521
0
LINE
5
259
100
AcDbEntity
8
0
100
AcDbLine
62
7
6
CONTINUOUS
10
-3.4151277229
20
22.4000000000
11
-3.4334085063
21
22.4849166520
0
LINE
5
25A
100
AcDbEntity
8
0
100
AcDbLine
62
7
6
CONTINUOUS
10
3.4698202597
20
-22.4000000000
11
3.4698202597
21
-22.5000000000
0
LINE
5
25B
100
AcDbEntity
8
0
100
AcDbLine
62
7
6
CONTINUOUS
10
3.4698202597
20
22.4000000000
11
3.4698202597
21
22.5000000000
0
LINE
5
25C
100
AcDbEntity
8
0
100
AcDbLine
62
9
6
CONTINUOUS
10
10.6503805997
20
22.4000000000
11
10.5087981167
21
21.9749071372
0
LINE
5
25D
100
AcDbEntity
8
0
100
AcDbLine
62
9
6
CONTINUOUS
10
11.1500000000
20
21.8997711479
11
11.0087219643
21
21.4755923698
0
LINE
5
25E
100
AcDbEntity
8
0
100
AcDbLine
62
9
6
CONTINUOUS
10
10.5087981167
20
-21.9749071372
11
10.6503805997
21
-22.4000000000
0
LINE
5
25F
100
AcDbEntity
8
0
100
AcDbLine
62
9
6
CONTINUOUS
10
11.0087219643
20
-21.4755923698
11
11.1500000000
21
-21.8997711479
0
LINE
5
260
100
AcDbEntity
8
0
100
AcDbLine
62
7
6
CONTINUOUS
10
3.3848722771
20
-22.4000000000
11
3.3680604335
21
-22.4780932327
0
LINE
5
261
100
AcDbEntity
8
0
100
AcDbLine
62
7
6
CONTINUOUS
10
2.0345224386
20
7.4781828305
11
0.5381279100
21
7.4781828305
0
LINE
5
262
100
AcDbEntity
8
0
100
AcDbLine
62
7
6
CONTINUOUS
10
-0.5381279100
20
7.4781828305
11
-2.0345224386
21
7.4781828305
0
LINE
5
263
100
AcDbEntity
8
0
100
AcDbLine
62
7
6
CONTINUOUS
10
3.3848722771
20
22.4000000000
11
3.3680604335
21
22.4780932327
0
LINE
5
264
100
AcDbEntity
8
0
100
AcDbLine
62
7
6
CONTINUOUS
10
11.1500000000
20
21.8997711479
11
11.1500000000
21
-21.8997711479
0
LINE
5
265
100
AcDbEntity
8
0
100
AcDbLine
62
7
6
CONTINUOUS
10
3.2333672024
20
-22.5000000000
11
3.3000000000
21
-22.4000000000
0
LINE
5
266
100
AcDbEntity
8
0
100
AcDbLine
62
7
6
CONTINUOUS
10
3.3000000000
20
22.4000000000
11
3.2333672024
21
22.5000000000
0
LINE
5
267
100
AcDbEntity
8
0
100
AcDbLine
62
9
6
CONTINUOUS
10
-10.5005350625
20
21.0183142309
11
10.5005350625
21
21.0183142309
0
LINE
5
268
100
AcDbEntity
8
0
100
AcDbLine
62
9
6
CONTINUOUS
10
-10.5087981167
20
21.9749071372
11
10.5087981167
21
21.9749071372
0
LINE
5
269
100
AcDbEntity
8
0
100
AcDbLine
62
7
6
CONTINUOUS
10
-10.6503805997
20
22.4000000000
11
-3.3000000000
21
22.4000000000
0
LINE
5
26A
100
AcDbEntity
8
0
100
AcDbLine
62
7
6
CONTINUOUS
10
3.3000000000
20
22.4000000000
11
10.6503805997
21
22.4000000000
0
LINE
5
26B
100
AcDbEntity
8
0
100
AcDbLine
62
7
6
CONTINUOUS
10
-3.4698202597
20
22.5000000000
11
3.4698202597
21
22.5000000000
0
LINE
5
26C
100
AcDbEntity
8
0
100
AcDbLine
62
7
6
CONTINUOUS
10
-3.6748580251
20
23.5000000000
11
3.6748580251
21
23.5000000000
0
LINE
5
26D
100
AcDbEntity
8
0
100
AcDbLine
62
9
6
CONTINUOUS
10
-79.7506349907
20
-6.4115440179
11
-79.7506349907
21
6.4115440179
0
LINE
5
26E
100
AcDbEntity
8
0
100
AcDbLine
62
9
6
CONTINUOUS
10
-79.2883761389
20
-6.8568965095
11
-79.2883761389
21
6.8568965095
0
LINE
5
26F
100
AcDbEntity
8
0
100
AcDbLine
62
7
6
CONTINUOUS
10
-57.5941843478
20
-23.4301797403
11
-61.5941843478
21
-23.5000000000
0
LINE
5
270
100
AcDbEntity
8
0
100
AcDbLine
62
9
6
CONTINUOUS
10
-57.5941843478
20
-23.2631073618
11
-61.5941843478
21
-23.3333596575
0
LINE
5
271
100
AcDbEntity
8
0
100
AcDbLine
62
7
6
CONTINUOUS
10
-55.4446888639
20
-22.2000000000
11
-55.9941843478
21
-22.2000000000
0
LINE
5
272
100
AcDbEntity
8
0
100
AcDbLine
62
7
6
CONTINUOUS
10
-69.7054393677
20
-21.9749071372
11
-61.5941843478
21
-22.4000000000
0
LINE
5
273
100
AcDbEntity
8
0
100
AcDbLine
62
9
6
CONTINUOUS
10
-69.6879975928
20
-21.4755923698
11
-61.5941843478
21
-21.8997711479
0
LINE
5
274
100
AcDbEntity
8
0
100
AcDbLine
62
7
6
CONTINUOUS
10
-72.5941843478
20
-7.3250000000
11
-72.5941843478
21
7.3250000000
0
LINE
5
275
100
AcDbEntity
8
0
100
AcDbLine
62
9
6
CONTINUOUS
10
-72.3151112967
20
-7.3446976589
11
-72.3151112967
21
7.3446976589
0
LINE
5
276
100
AcDbEntity
8
0
100
AcDbLine
62
9
6
CONTINUOUS
10
-70.1613876499
20
-20.9972959167
11
-70.6522138123
21
-21.0183139940
0
LINE
5
277
100
AcDbEntity
8
0
100
AcDbLine
62
7
6
CONTINUOUS
10
-53.4213472046
20
-21.1271628567
11
-57.3976748291
21
-21.1965699136
0
LINE
5
278
100
AcDbEntity
8
0
100
AcDbLine
62
7
6
CONTINUOUS
10
-21.5941843478
20
-19.8119096983
11
-52.3747116383
21
-20.0805272905
0
LINE
5
279
100
AcDbEntity
8
CURVE
100
AcDbLine
62
9
6
CONTINUOUS
10
-57.8913993149
20
13.2250000000
11
-58.0038650490
21
13.1687500000
0
LINE
5
27A
100
AcDbEntity
8
0
100
AcDbLine
62
7
6
CONTINUOUS
10
-21.5941843478
20
-15.9921991400
11
-49.3507292494
21
-15.7499714423
0
LINE
5
27B
100
AcDbEntity
8
CURVE
100
AcDbLine
62
9
6
CONTINUOUS
10
-58.2850293840
20
14.0125000000
11
-58.2287965170
21
14.1250000000
0
LINE
5
27C
100
AcDbEntity
8
CURVE
100
AcDbLine
62
9
6
CONTINUOUS
10
-57.7789335809
20
13.3937500000
11
-57.8351664479
21
13.2812500000
0
LINE
5
27D
100
AcDbEntity
8
CURVE
100
AcDbLine
62
9
6
CONTINUOUS
10
-57.8351664479
20
13.2812500000
11
-57.8913993149
21
13.2250000000
0
LINE
5
27E
100
AcDbEntity
8
CURVE
100
AcDbLine
62
9
6
CONTINUOUS
10
-56.8229748417
20
13.1687500000
11
-56.9354405758
21
13.0562500000
0
LINE
5
27F
100
AcDbEntity
8
CURVE
100
AcDbLine
62
2
6
CONTINUOUS
10
-54.4936358373
20
14.2540319040
11
-54.2920175330
21
14.4556502083
0
LINE
5
280
100
AcDbEntity
8
CURVE
100
AcDbLine
62
2
6
CONTINUOUS
10
-54.4936358373
20
13.8340104760
11
-54.2920175330
21
14.0356287803
0
LINE
5
281
100
AcDbEntity
8
CURVE
100
AcDbLine
62
9
6
CONTINUOUS
10
-56.9354405758
20
13.0562500000
11
-57.1041391768
21
13.0000000000
0
LINE
5
282
100
AcDbEntity
8
0
100
AcDbLine
62
9
6
CONTINUOUS
10
-54.4941840929
20
11.6503037553
11
-52.9336783032
21
12.1646135967
0
LINE
5
283
100
AcDbEntity
8
CURVE
100
AcDbLine
62
9
6
CONTINUOUS
10
-54.4936358373
20
11.6503037553
11
-52.9336053565
21
12.1646135967
0
LINE
5
284
100
AcDbEntity
8
0
100
AcDbLine
62
7
6
CONTINUOUS
10
-21.5941843478
20
-14.0078008600
11
-49.3507292494
21
-14.2500285577
0
LINE
5
285
100
AcDbEntity
8
0
100
AcDbLine
62
7
6
CONTINUOUS
10
-21.5941843478
20
-13.7463910308
11
-49.3429479797
21
-13.9236728618
0
LINE
5
286
100
AcDbEntity
8
CURVE
100
AcDbLine
62
9
6
CONTINUOUS
10
-55.1109964461
20
-13.4250000000
11
-52.1119102056
21
-13.4250000000
0
LINE
5
287
100
AcDbEntity
8
CURVE
100
AcDbLine
62
9
6
CONTINUOUS
10
-59.1097781002
20
-12.9000000000
11
-58.5264709607
21
-12.9000000000
0
LINE
5
288
100
AcDbEntity
8
CURVE
100
AcDbLine
62
9
6
CONTINUOUS
10
-52.1119102056
20
-12.8750000000
11
-55.1109964461
21
-12.8750000000
0
LINE
5
289
100
AcDbEntity
8
CURVE
100
AcDbLine
62
9
6
CONTINUOUS
10
-55.1109964461
20
-12.5000000000
11
-52.1119102056
21
-12.5000000000
0
LINE
5
28A
100
AcDbEntity
8
CURVE
100
AcDbLine
62
9
6
CONTINUOUS
10
-56.1106918596
20
-12.5000000000
11
-56.4106004837
21
-12.5000000000
0
LINE
5
28B
100
AcDbEntity
8
CURVE
100
AcDbLine
62
9
6
CONTINUOUS
10
-58.6705720889
20
-11.4393398282
11
-58.4585046671
21
-11.6514718626
0
LINE
5
28C
100
AcDbEntity
8
CURVE
100
AcDbLine
62
9
6
CONTINUOUS
10
-56.5498978709
20
-13.5606601718
11
-56.7619652927
21
-13.3485281374
0
LINE
5
28D
100
AcDbEntity
8
0
100
AcDbLine
62
7
6
CONTINUOUS
10
-61.5941843478
20
-23.5000000000
11
-61.5941843478
21
23.5000000000
0
LINE
5
28E
100
AcDbEntity
8
CURVE
100
AcDbLine
62
9
6
CONTINUOUS
10
-58.3974951180
20
13.6187500000
11
-58.3412622510
21
13.8437500000
0
LINE
5
28F
100
AcDbEntity
8
CURVE
100
AcDbLine
62
9
6
CONTINUOUS
10
-58.3412622510
20
13.8437500000
11
-58.2850293840
21
14.0125000000
0
LINE
5
290
100
AcDbEntity
8
CURVE
100
AcDbLine
62
9
6
CONTINUOUS
10
-57.7227007139
20
13.5625000000
11
-57.7789335809
21
13.3937500000
0
LINE
5
291
100
AcDbEntity
8
CURVE
100
AcDbLine
62
9
6
CONTINUOUS
10
-56.7105091077
20
13.4500000000
11
-56.7667419747
21
13.2812500000
0
LINE
5
292
100
AcDbEntity
8
CURVE
100
AcDbLine
62
9
6
CONTINUOUS
10
-56.7667419747
20
13.2812500000
11
-56.8229748417
21
13.1687500000
0
LINE
5
293
100
AcDbEntity
8
CURVE
100
AcDbLine
62
9
6
CONTINUOUS
10
-57.1389500005
20
11.0428572655
11
-57.3960145469
21
10.7000001430
0
LINE
5
294
100
AcDbEntity
8
CURVE
100
AcDbLine
62
9
6
CONTINUOUS
10
-58.2528963325
20
8.2142856836
11
-58.5099608520
21
7.9571429491
0
LINE
5
295
100
AcDbEntity
8
CURVE
100
AcDbLine
62
9
6
CONTINUOUS
10
-58.5099608520
20
6.6714285254
11
-58.2528963325
21
6.9285713673
0
LINE
5
296
100
AcDbEntity
8
CURVE
100
AcDbLine
62
9
6
CONTINUOUS
10
-56.9675736541
20
7.5714286327
11
-56.7105091077
21
7.8285713673
0
LINE
5
297
100
AcDbEntity
8
CURVE
100
AcDbLine
62
2
6
CONTINUOUS
10
-54.4936358373
20
13.4139890479
11
-54.2920175330
21
13.6156073522
0
LINE
5
298
100
AcDbEntity
8
CURVE
100
AcDbLine
62
2
6
CONTINUOUS
10
-53.7199134623
20
14.1877114229
11
-53.5182951579
21
14.3893297273
0
LINE
5
299
100
AcDbEntity
8
CURVE
100
AcDbLine
62
2
6
CONTINUOUS
10
-54.2440182690
20
13.2435851882
11
-54.0045232549
21
13.4830802023
0
LINE
5
29A
100
AcDbEntity
8
CURVE
100
AcDbLine
62
2
6
CONTINUOUS
10
-53.7199134623
20
13.7676899949
11
-53.5182951579
21
13.9693082992
0
LINE
5
29B
100
AcDbEntity
8
CURVE
100
AcDbLine
62
2
6
CONTINUOUS
10
-54.4075501843
20
12.6600318449
11
-54.2247108823
21
12.8428711469
0
LINE
5
29C
100
AcDbEntity
8
CURVE
100
AcDbLine
62
2
6
CONTINUOUS
10
-53.8239968409
20
13.2435851882
11
-53.5182951579
21
13.5492868712
0
LINE
5
29D
100
AcDbEntity
8
CURVE
100
AcDbLine
62
2
6
CONTINUOUS
10
-52.8958026521
20
14.1717793770
11
-52.6941843478
21
14.3733976813
0
LINE
5
29E
100
AcDbEntity
8
CURVE
100
AcDbLine
62
2
6
CONTINUOUS
10
-54.0931904713
20
12.5543701299
11
-53.9149293711
21
12.7326312300
0
LINE
5
29F
100
AcDbEntity
8
CURVE
100
AcDbLine
62
2
6
CONTINUOUS
10
-53.4039754129
20
13.2435851882
11
-53.1644803988
21
13.4830802023
0
LINE
5
2A0
100
AcDbEntity
8
CURVE
100
AcDbLine
62
2
6
CONTINUOUS
10
-52.8958026521
20
13.7517579490
11
-52.6941843478
21
13.9533762533
0
LINE
5
2A1
100
AcDbEntity
8
CURVE
100
AcDbLine
62
2
6
CONTINUOUS
10
-53.7788307582
20
12.4487084149
11
-53.6051478600
21
12.6223913131
0
LINE
5
2A2
100
AcDbEntity
8
CURVE
100
AcDbLine
62
2
6
CONTINUOUS
10
-52.9839539849
20
13.2435851882
11
-52.6941843478
21
13.5333548253
0
LINE
5
2A3
100
AcDbEntity
8
CURVE
100
AcDbLine
62
2
6
CONTINUOUS
10
-54.3749422569
20
11.4325754882
11
-53.9917538655
21
11.8157638796
0
LINE
5
2A4
100
AcDbEntity
8
CURVE
100
AcDbLine
62
2
6
CONTINUOUS
10
-53.4644710452
20
12.3430466999
11
-53.2953663489
21
12.5121513962
0
LINE
5
2A5
100
AcDbEntity
8
CURVE
100
AcDbLine
62
2
6
CONTINUOUS
10
-54.4936358373
20
10.8938604798
11
-54.2920175330
21
11.0954787841
0
LINE
5
2A6
100
AcDbEntity
8
CURVE
100
AcDbLine
62
2
6
CONTINUOUS
10
-53.7257145046
20
11.6617818125
11
-53.3651560863
21
12.0223402308
0
LINE
5
2A7
100
AcDbEntity
8
CURVE
100
AcDbLine
62
2
6
CONTINUOUS
10
-53.1501113322
20
12.2373849848
11
-52.9855848378
21
12.4019114793
0
LINE
5
2A8
100
AcDbEntity
8
CURVE
100
AcDbLine
62
2
6
CONTINUOUS
10
-54.4936358373
20
10.4738390518
11
-54.2920175330
21
10.6754573561
0
LINE
5
2A9
100
AcDbEntity
8
CURVE
100
AcDbLine
62
2
6
CONTINUOUS
10
-53.0764867523
20
11.8909881368
11
-52.6941843478
21
12.2732905412
0
LINE
5
2AA
100
AcDbEntity
8
CURVE
100
AcDbLine
62
2
6
CONTINUOUS
10
-54.4936358373
20
10.0538176237
11
-54.2920175330
21
10.2554359280
0
LINE
5
2AB
100
AcDbEntity
8
CURVE
100
AcDbLine
62
2
6
CONTINUOUS
10
-53.7199134623
20
10.8275399987
11
-53.5182951579
21
11.0291583031
0
LINE
5
2AC
100
AcDbEntity
8
CURVE
100
AcDbLine
62
9
6
CONTINUOUS
10
-57.9958318129
20
8.3428570509
11
-58.2528963325
21
8.2142856836
0
LINE
5
2AD
100
AcDbEntity
8
0
100
AcDbLine
62
9
6
CONTINUOUS
10
-52.6941843478
20
12.0259579198
11
-54.4941840929
21
11.3906713657
0
LINE
5
2AE
100
AcDbEntity
8
CURVE
100
AcDbLine
62
9
6
CONTINUOUS
10
-52.6941843478
20
12.0259579198
11
-54.4936358373
21
11.3906713657
0
LINE
5
2AF
100
AcDbEntity
8
CURVE
100
AcDbLine
62
9
6
CONTINUOUS
10
-56.7105091077
20
9.3714286327
11
-58.5099608520
21
8.8571427345
0
LINE
5
2B0
100
AcDbEntity
8
CURVE
100
AcDbLine
62
9
6
CONTINUOUS
10
-52.1119102056
20
-12.1250000000
11
-55.1109964461
21
-12.1250000000
0
LINE
5
2B1
100
AcDbEntity
8
CURVE
100
AcDbLine
62
9
6
CONTINUOUS
10
-58.5264709607
20
-12.1000000000
11
-59.1097781002
21
-12.1000000000
0
LINE
5
2B2
100
AcDbEntity
8
CURVE
100
AcDbLine
62
9
6
CONTINUOUS
10
-55.1109964461
20
-11.5750000000
11
-52.1119102056
21
-11.5750000000
0
LINE
5
2B3
100
AcDbEntity
8
0
100
AcDbLine
62
7
6
CONTINUOUS
10
-21.5941843478
20
-11.2536089692
11
-49.3429479797
21
-11.0763271382
0
LINE
5
2B4
100
AcDbEntity
8
0
100
AcDbLine
62
7
6
CONTINUOUS
10
-21.5941843478
20
-10.9921991400
11
-49.3507292494
21
-10.7499714423
0
LINE
5
2B5
100
AcDbEntity
8
CURVE
100
AcDbLine
62
9
6
CONTINUOUS
10
-59.1097781002
20
-12.1000000000
11
-59.1097781002
21
-12.9000000000
0
LINE
5
2B6
100
AcDbEntity
8
CURVE
100
AcDbLine
62
9
6
CONTINUOUS
10
-58.5099608520
20
7.9571429491
11
-58.5099608520
21
7.8285713673
0
LINE
5
2B7
100
AcDbEntity
8
CURVE
100
AcDbLine
62
9
6
CONTINUOUS
10
-58.5099608520
20
0.7000000000
11
-58.5099608520
21
0.5714286327
0
LINE
5
2B8
100
AcDbEntity
8
CURVE
100
AcDbLine
62
9
6
CONTINUOUS
10
-58.5099608520
20
-0.7142858982
11
-58.5099608520
21
-0.8428572655
0
LINE
5
2B9
100
AcDbEntity
8
CURVE
100
AcDbLine
62
9
6
CONTINUOUS
10
-58.5099608520
20
-1.7428572655
11
-58.5099608520
21
-2.5142858982
0
LINE
5
2BA
100
AcDbEntity
8
CURVE
100
AcDbLine
62
9
6
CONTINUOUS
10
-58.5099608520
20
-4.7000000000
11
-58.5099608520
21
-4.8285714746
0
LINE
5
2BB
100
AcDbEntity
8
CURVE
100
AcDbLine
62
9
6
CONTINUOUS
10
-58.5099608520
20
-6.5000000000
11
-58.5099608520
21
-5.9857142627
0
LINE
5
2BC
100
AcDbEntity
8
CURVE
100
AcDbLine
62
9
6
CONTINUOUS
10
-58.5099608520
20
6.2857143164
11
-58.5099608520
21
6.6714285254
0
LINE
5
2BD
100
AcDbEntity
8
CURVE
100
AcDbLine
62
9
6
CONTINUOUS
10
-58.3974951180
20
13.5062500000
11
-58.3974951180
21
13.6187500000
0
LINE
5
2BE
100
AcDbEntity
8
CURVE
100
AcDbLine
62
9
6
CONTINUOUS
10
-52.1119102056
20
9.7142857909
11
-51.8976897726
21
9.9285714030
0
LINE
5
2BF
100
AcDbEntity
8
CURVE
100
AcDbLine
62
2
6
CONTINUOUS
10
-54.1913377211
20
9.9360943119
11
-53.9518437657
21
10.1755882673
0
LINE
5
2C0
100
AcDbEntity
8
CURVE
100
AcDbLine
62
2
6
CONTINUOUS
10
-53.7199134623
20
10.4075185707
11
-53.5182951579
21
10.6091368750
0
LINE
5
2C1
100
AcDbEntity
8
CURVE
100
AcDbLine
62
2
6
CONTINUOUS
10
-54.4936358373
20
9.2137747677
11
-54.2729391643
21
9.4344714406
0
LINE
5
2C2
100
AcDbEntity
8
CURVE
100
AcDbLine
62
2
6
CONTINUOUS
10
-53.7713162930
20
9.9360943119
11
-53.5182951579
21
10.1891154470
0
LINE
5
2C3
100
AcDbEntity
8
CURVE
100
AcDbLine
62
2
6
CONTINUOUS
10
-52.8958026521
20
10.8116079528
11
-52.6941843478
21
11.0132262571
0
LINE
5
2C4
100
AcDbEntity
8
CURVE
100
AcDbLine
62
2
6
CONTINUOUS
10
-54.0812471320
20
9.2061420449
11
-53.8529177363
21
9.4344714406
0
LINE
5
2C5
100
AcDbEntity
8
CURVE
100
AcDbLine
62
2
6
CONTINUOUS
10
-53.3512948650
20
9.9360943119
11
-53.1118009097
21
10.1755882673
0
LINE
5
2C6
100
AcDbEntity
8
CURVE
100
AcDbLine
62
2
6
CONTINUOUS
10
-52.8958026521
20
10.3915865248
11
-52.6941843478
21
10.5932048291
0
LINE
5
2C7
100
AcDbEntity
8
CURVE
100
AcDbLine
62
2
6
CONTINUOUS
10
-53.6626710156
20
9.2046967333
11
-53.4328963083
21
9.4344714406
0
LINE
5
2C8
100
AcDbEntity
8
CURVE
100
AcDbLine
62
2
6
CONTINUOUS
10
-52.9312734370
20
9.9360943119
11
-52.6941843478
21
10.1731834011
0
LINE
5
2C9
100
AcDbEntity
8
CURVE
100
AcDbLine
62
2
6
CONTINUOUS
10
-54.4473463209
20
8.0000000000
11
-53.6348720753
21
8.8124742456
0
LINE
5
2CA
100
AcDbEntity
8
CURVE
100
AcDbLine
62
2
6
CONTINUOUS
10
-53.2440948992
20
9.2032514217
11
-53.0128748803
21
9.4344714406
0
LINE
5
2CB
100
AcDbEntity
8
CURVE
100
AcDbLine
62
2
6
CONTINUOUS
10
-54.0273248929
20
8.0000000000
11
-53.7965760427
21
8.2307488502
0
LINE
5
2CC
100
AcDbEntity
8
CURVE
100
AcDbLine
62
2
6
CONTINUOUS
10
-53.1553157062
20
8.8720091866
11
-52.6941843478
21
9.3331405450
0
LINE
5
2CD
100
AcDbEntity
8
CURVE
100
AcDbLine
62
2
6
CONTINUOUS
10
-53.6073034648
20
8.0000000000
11
-53.3780199073
21
8.2292835575
0
LINE
5
2CE
100
AcDbEntity
8
CURVE
100
AcDbLine
62
2
6
CONTINUOUS
10
-53.1872820368
20
8.0000000000
11
-52.9594637719
21
8.2278182649
0
LINE
5
2CF
100
AcDbEntity
8
CURVE
100
AcDbLine
62
9
6
CONTINUOUS
10
-52.6941843478
20
9.1722789998
11
-54.1382770798
21
8.2319450864
0
LINE
5
2D0
100
AcDbEntity
8
0
100
AcDbLine
62
9
6
CONTINUOUS
10
-52.6941843478
20
9.1722789998
11
-54.1387170650
21
8.2319450864
0
LINE
5
2D1
100
AcDbEntity
8
CURVE
100
AcDbLine
62
9
6
CONTINUOUS
10
-54.4936358373
20
8.2546266319
11
-53.0344150379
21
9.2025274130
0
LINE
5
2D2
100
AcDbEntity
8
0
100
AcDbLine
62
9
6
CONTINUOUS
10
-54.4941840929
20
8.2546266319
11
-53.0345186992
21
9.2025274130
0
LINE
5
2D3
100
AcDbEntity
8
CURVE
100
AcDbLine
62
9
6
CONTINUOUS
10
-57.2246382005
20
7.4428570509
11
-56.9675736541
21
7.5714286327
0
LINE
5
2D4
100
AcDbEntity
8
CURVE
100
AcDbLine
62
9
6
CONTINUOUS
10
-51.6834693396
20
8.7500000000
11
-51.8976897726
21
8.6428571492
0
LINE
5
2D5
100
AcDbEntity
8
CURVE
100
AcDbLine
62
9
6
CONTINUOUS
10
-51.0408079960
20
8.0000000000
11
-50.8265875406
21
8.1071428619
0
LINE
5
2D6
100
AcDbEntity
8
0
100
AcDbLine
62
7
6
CONTINUOUS
10
-21.5941843478
20
-9.0078008600
11
-49.3507292494
21
-9.2500285577
0
LINE
5
2D7
100
AcDbEntity
8
0
100
AcDbLine
62
7
6
CONTINUOUS
10
-21.5941843478
20
-8.7463910308
11
-49.3429479797
21
-8.9236728618
0
LINE
5
2D8
100
AcDbEntity
8
CURVE
100
AcDbLine
62
9
6
CONTINUOUS
10
-55.1109964461
20
-9.1250000000
11
-54.7361106660
21
-9.1250000000
0
LINE
5
2D9
100
AcDbEntity
8
CURVE
100
AcDbLine
62
9
6
CONTINUOUS
10
-52.1119102056
20
-9.1250000000
11
-52.4867959856
21
-9.1250000000
0
LINE
5
2DA
100
AcDbEntity
8
0
100
AcDbLine
62
7
6
CONTINUOUS
10
-72.3151112967
20
-7.3446976589
11
-71.0389125543
21
-7.4339381684
0
LINE
5
2DB
100
AcDbEntity
8
0
100
AcDbLine
62
7
6
CONTINUOUS
10
-79.2883761389
20
-6.8568965095
11
-72.5941843478
21
-7.3250000000
0
LINE
5
2DC
100
AcDbEntity
8
CURVE
100
AcDbLine
62
9
6
CONTINUOUS
10
-58.2528963325
20
-5.0857143164
11
-57.9958318129
21
-5.2142856836
0
LINE
5
2DD
100
AcDbEntity
8
CURVE
100
AcDbLine
62
9
6
CONTINUOUS
10
-58.5099608520
20
-4.8285714746
11
-58.2528963325
21
-5.0857143164
0
LINE
5
2DE
100
AcDbEntity
8
CURVE
100
AcDbLine
62
9
6
CONTINUOUS
10
-54.4067061576
20
-8.3295048712
11
-52.8162004941
21
-9.9204951288
0
LINE
5
2DF
100
AcDbEntity
8
CURVE
100
AcDbLine
62
9
6
CONTINUOUS
10
-56.8390413809
20
-5.7285714209
11
-56.7105091077
21
-5.8571428418
0
LINE
5
2E0
100
AcDbEntity
8
CURVE
100
AcDbLine
62
9
6
CONTINUOUS
10
-56.7105091077
20
-4.7000000000
11
-56.9675736541
21
-4.4428570509
0
LINE
5
2E1
100
AcDbEntity
8
CURVE
100
AcDbLine
62
9
6
CONTINUOUS
10
-57.8672994995
20
-5.7714285612
11
-57.7387672933
21
-5.9857142627
0
LINE
5
2E2
100
AcDbEntity
8
CURVE
100
AcDbLine
62
9
6
CONTINUOUS
10
-57.7387672933
20
-6.2428571314
11
-57.7387672933
21
-5.9857142627
0
LINE
5
2E3
100
AcDbEntity
8
CURVE
100
AcDbLine
62
9
6
CONTINUOUS
10
-57.7387672933
20
-2.5142858982
11
-57.7387672933
21
-2.0000000000
0
LINE
5
2E4
100
AcDbEntity
8
CURVE
100
AcDbLine
62
9
6
CONTINUOUS
10
-57.7227007139
20
13.6187500000
11
-57.7227007139
21
13.5625000000
0
LINE
5
2E5
100
AcDbEntity
8
CURVE
100
AcDbLine
62
9
6
CONTINUOUS
10
-57.6102349799
20
-11.0000000000
11
-57.6102349799
21
-11.3000000000
0
LINE
5
2E6
100
AcDbEntity
8
CURVE
100
AcDbLine
62
9
6
CONTINUOUS
10
-57.6102349799
20
-14.0000000000
11
-57.6102349799
21
-13.7000000000
0
LINE
5
2E7
100
AcDbEntity
8
0
100
AcDbLine
62
7
6
CONTINUOUS
10
-57.5941843478
20
-21.3965394526
11
-57.5941843478
21
-23.4301797403
0
LINE
5
2E8
100
AcDbEntity
8
0
100
AcDbLine
62
7
6
CONTINUOUS
10
-57.5941843478
20
21.3965394526
11
-57.5941843478
21
23.4301797403
0
LINE
5
2E9
100
AcDbEntity
8
CURVE
100
AcDbLine
62
9
6
CONTINUOUS
10
-57.3531704603
20
-3.0285713673
11
-57.3531704603
21
-3.8000000000
0
LINE
5
2EA
100
AcDbEntity
8
CURVE
100
AcDbLine
62
9
6
CONTINUOUS
10
-56.7105091077
20
13.6187500000
11
-56.7105091077
21
13.4500000000
0
LINE
5
2EB
100
AcDbEntity
8
CURVE
100
AcDbLine
62
9
6
CONTINUOUS
10
-56.7105091077
20
-2.0000000000
11
-56.7105091077
21
-2.5142858982
0
LINE
5
2EC
100
AcDbEntity
8
CURVE
100
AcDbLine
62
9
6
CONTINUOUS
10
-56.7105091077
20
-5.8571428418
11
-56.7105091077
21
-6.5000000000
0
LINE
5
2ED
100
AcDbEntity
8
CURVE
100
AcDbLine
62
9
6
CONTINUOUS
10
-56.7105091077
20
-4.8285714746
11
-56.7105091077
21
-4.7000000000
0
LINE
5
2EE
100
AcDbEntity
8
CURVE
100
AcDbLine
62
9
6
CONTINUOUS
10
-56.7105091077
20
-0.8428572655
11
-56.7105091077
21
-0.7142858982
0
LINE
5
2EF
100
AcDbEntity
8
CURVE
100
AcDbLine
62
9
6
CONTINUOUS
10
-56.7105091077
20
0.5714286327
11
-56.7105091077
21
0.7000000000
0
LINE
5
2F0
100
AcDbEntity
8
CURVE
100
AcDbLine
62
9
6
CONTINUOUS
10
-56.7105091077
20
6.0285714745
11
-56.7105091077
21
6.9285713673
0
LINE
5
2F1
100
AcDbEntity
8
CURVE
100
AcDbLine
62
9
6
CONTINUOUS
10
-56.7105091077
20
7.8285713673
11
-56.7105091077
21
7.9571429491
0
LINE
5
2F2
100
AcDbEntity
8
0
100
AcDbLine
62
7
6
CONTINUOUS
10
-55.9941843478
20
22.2000000000
11
-55.9941843478
21
21.1720718961
0
LINE
5
2F3
100
AcDbEntity
8
0
100
AcDbLine
62
7
6
CONTINUOUS
10
-55.9941843478
20
-22.2000000000
11
-55.9941843478
21
-21.1720718961
0
LINE
5
2F4
100
AcDbEntity
8
CURVE
100
AcDbLine
62
9
6
CONTINUOUS
10
-51.2550284290
20
9.3928571045
11
-51.4692489066
21
9.1785714030
0
LINE
5
2F5
100
AcDbEntity
8
CURVE
100
AcDbLine
62
9
6
CONTINUOUS
10
-51.8976897726
20
8.6428571492
11
-52.1119102056
21
8.4285714477
0
LINE
5
2F6
100
AcDbEntity
8
CURVE
100
AcDbLine
62
9
6
CONTINUOUS
10
-58.2528963325
20
0.9571427345
11
-58.5099608520
21
0.7000000000
0
LINE
5
2F7
100
AcDbEntity
8
CURVE
100
AcDbLine
62
9
6
CONTINUOUS
10
-50.8265875406
20
8.1071428619
11
-50.6123670853
21
8.3214285746
0
LINE
5
2F8
100
AcDbEntity
8
CURVE
100
AcDbLine
62
9
6
CONTINUOUS
10
-58.2528963325
20
-0.4571427345
11
-58.5099608520
21
-0.7142858982
0
LINE
5
2F9
100
AcDbEntity
8
CURVE
100
AcDbLine
62
2
6
CONTINUOUS
10
-52.7672606088
20
8.0000000000
11
-52.6941843478
21
8.0730762610
0
LINE
5
2FA
100
AcDbEntity
8
CURVE
100
AcDbLine
62
9
6
CONTINUOUS
10
-58.2528963325
20
-5.7714285612
11
-57.8672994995
21
-5.7714285612
0
LINE
5
2FB
100
AcDbEntity
8
CURVE
100
AcDbLine
62
9
6
CONTINUOUS
10
-54.2541146784
20
-5.7714285612
11
-53.8685178454
21
-5.7714285612
0
LINE
5
2FC
100
AcDbEntity
8
CURVE
100
AcDbLine
62
9
6
CONTINUOUS
10
-57.4817027201
20
-5.7285714209
11
-56.8390413809
21
-5.7285714209
0
LINE
5
2FD
100
AcDbEntity
8
CURVE
100
AcDbLine
62
9
6
CONTINUOUS
10
-53.4829210661
20
-5.7285714209
11
-52.8402597269
21
-5.7285714209
0
LINE
5
2FE
100
AcDbEntity
8
CURVE
100
AcDbLine
62
9
6
CONTINUOUS
10
-57.9958318129
20
-5.2142856836
11
-57.2246382005
21
-5.2142856836
0
LINE
5
2FF
100
AcDbEntity
8
CURVE
100
AcDbLine
62
9
6
CONTINUOUS
10
-53.9970501588
20
-5.2142856836
11
-53.2258565465
21
-5.2142856836
0
LINE
5
300
100
AcDbEntity
8
0
100
AcDbLine
62
7
6
CONTINUOUS
10
-21.5941843478
20
-6.2536089692
11
-49.3429479797
21
-6.0763271382
0
LINE
5
301
100
AcDbEntity
8
0
100
AcDbLine
62
7
6
CONTINUOUS
10
-21.5941843478
20
-5.9921991400
11
-49.3507292494
21
-5.7499714423
0
LINE
5
302
100
AcDbEntity
8
CURVE
100
AcDbLine
62
9
6
CONTINUOUS
10
-56.9675736541
20
-4.4428570509
11
-57.2246382005
21
-4.3142856836
0
LINE
5
303
100
AcDbEntity
8
CURVE
100
AcDbLine
62
9
6
CONTINUOUS
10
-54.2541146784
20
-5.0857143164
11
-53.9970501588
21
-5.2142856836
0
LINE
5
304
100
AcDbEntity
8
CURVE
100
AcDbLine
62
9
6
CONTINUOUS
10
-52.9687920001
20
-4.4428570509
11
-53.2258565465
21
-4.3142856836
0
LINE
5
305
100
AcDbEntity
8
CURVE
100
AcDbLine
62
9
6
CONTINUOUS
10
-58.5099608520
20
-0.8428572655
11
-58.2528963325
21
-1.1000000000
0
LINE
5
306
100
AcDbEntity
8
CURVE
100
AcDbLine
62
9
6
CONTINUOUS
10
-54.5111791980
20
-4.8285714746
11
-54.2541146784
21
-5.0857143164
0
LINE
5
307
100
AcDbEntity
8
CURVE
100
AcDbLine
62
9
6
CONTINUOUS
10
-56.9675736541
20
-1.7428572655
11
-56.7105091077
21
-2.0000000000
0
LINE
5
308
100
AcDbEntity
8
CURVE
100
AcDbLine
62
9
6
CONTINUOUS
10
-52.8402597269
20
-5.7285714209
11
-52.7117274537
21
-5.8571428418
0
LINE
5
309
100
AcDbEntity
8
CURVE
100
AcDbLine
62
9
6
CONTINUOUS
10
-58.5099608520
20
0.5714286327
11
-58.2528963325
21
0.3142858982
0
LINE
5
30A
100
AcDbEntity
8
CURVE
100
AcDbLine
62
9
6
CONTINUOUS
10
-56.7105091077
20
-0.7142858982
11
-56.9675736541
21
-0.4571427345
0
LINE
5
30B
100
AcDbEntity
8
CURVE
100
AcDbLine
62
9
6
CONTINUOUS
10
-52.7117274537
20
-4.7000000000
11
-52.9687920001
21
-4.4428570509
0
LINE
5
30C
100
AcDbEntity
8
CURVE
100
AcDbLine
62
9
6
CONTINUOUS
10
-53.8685178454
20
-5.7714285612
11
-53.7399856393
21
-5.9857142627
0
LINE
5
30D
100
AcDbEntity
8
CURVE
100
AcDbLine
62
9
6
CONTINUOUS
10
-55.1109964461
20
-12.8750000000
11
-55.1109964461
21
-15.8750000000
0
LINE
5
30E
100
AcDbEntity
8
CURVE
100
AcDbLine
62
9
6
CONTINUOUS
10
-55.1109964461
20
-12.1250000000
11
-55.1109964461
21
-9.1250000000
0
LINE
5
30F
100
AcDbEntity
8
CURVE
100
AcDbLine
62
9
6
CONTINUOUS
10
-54.5111791980
20
0.7000000000
11
-54.5111791980
21
0.5714286327
0
LINE
5
310
100
AcDbEntity
8
CURVE
100
AcDbLine
62
9
6
CONTINUOUS
10
-54.5111791980
20
-0.7142858982
11
-54.5111791980
21
-0.8428572655
0
LINE
5
311
100
AcDbEntity
8
CURVE
100
AcDbLine
62
9
6
CONTINUOUS
10
-54.5111791980
20
-4.7000000000
11
-54.5111791980
21
-4.8285714746
0
LINE
5
312
100
AcDbEntity
8
CURVE
100
AcDbLine
62
9
6
CONTINUOUS
10
-54.5111791980
20
-6.5000000000
11
-54.5111791980
21
-5.9857142627
0
LINE
5
313
100
AcDbEntity
8
CURVE
100
AcDbLine
62
9
6
CONTINUOUS
10
-54.5111791980
20
-2.5142858982
11
-54.5111791980
21
-2.0000000000
0
LINE
5
314
100
AcDbEntity
8
0
100
AcDbLine
62
9
6
CONTINUOUS
10
-54.4941840929
20
8.0000000000
11
-54.4941840929
21
8.2546266319
0
LINE
5
315
100
AcDbEntity
8
0
100
AcDbLine
62
9
6
CONTINUOUS
10
-54.4941840929
20
9.2075659919
11
-54.4941840929
21
9.4344714406
0
LINE
5
316
100
AcDbEntity
8
0
100
AcDbLine
62
9
6
CONTINUOUS
10
-54.4941840929
20
9.9360943119
11
-54.4941840929
21
11.1789472959
0
LINE
5
317
100
AcDbEntity
8
0
100
AcDbLine
62
9
6
CONTINUOUS
10
-54.4941840929
20
11.3906713657
11
-54.4941840929
21
11.6503037553
0
LINE
5
318
100
AcDbEntity
8
0
100
AcDbLine
62
9
6
CONTINUOUS
10
-54.4941840929
20
12.6889667159
11
-54.4941840929
21
12.9385717089
0
LINE
5
319
100
AcDbEntity
8
0
100
AcDbLine
62
9
6
CONTINUOUS
10
-54.4941840929
20
13.2435851882
11
-54.4941840929
21
14.4864222909
0
LINE
5
31A
100
AcDbEntity
8
CURVE
100
AcDbLine
62
9
6
CONTINUOUS
10
-54.4936358373
20
8.0000000000
11
-54.4936358373
21
8.2546266319
0
LINE
5
31B
100
AcDbEntity
8
CURVE
100
AcDbLine
62
9
6
CONTINUOUS
10
-54.4936358373
20
9.2075659919
11
-54.4936358373
21
9.4344714406
0
LINE
5
31C
100
AcDbEntity
8
CURVE
100
AcDbLine
62
9
6
CONTINUOUS
10
-54.4936358373
20
9.9360943119
11
-54.4936358373
21
11.1789472959
0
LINE
5
31D
100
AcDbEntity
8
CURVE
100
AcDbLine
62
9
6
CONTINUOUS
10
-54.4936358373
20
11.3906713657
11
-54.4936358373
21
11.6503037553
0
LINE
5
31E
100
AcDbEntity
8
CURVE
100
AcDbLine
62
9
6
CONTINUOUS
10
-54.4936358373
20
12.6889667159
11
-54.4936358373
21
12.9385717089
0
LINE
5
31F
100
AcDbEntity
8
CURVE
100
AcDbLine
62
9
6
CONTINUOUS
10
-54.4936358373
20
13.2435851882
11
-54.4936358373
21
14.4864222909
0
LINE
5
320
100
AcDbEntity
8
0
100
AcDbLine
62
9
6
CONTINUOUS
10
-54.2925043596
20
14.4864222909
11
-54.2925043596
21
13.4830802023
0
LINE
5
321
100
AcDbEntity
8
0
100
AcDbLine
62
9
6
CONTINUOUS
10
-54.2925043596
20
11.1789472959
11
-54.2925043596
21
10.1755882673
0
LINE
5
322
100
AcDbEntity
8
CURVE
100
AcDbLine
62
9
6
CONTINUOUS
10
-54.2920175330
20
14.4864222909
11
-54.2920175330
21
13.4830802023
0
LINE
5
323
100
AcDbEntity
8
CURVE
100
AcDbLine
62
9
6
CONTINUOUS
10
-54.2920175330
20
11.1789472959
11
-54.2920175330
21
10.1755882673
0
LINE
5
324
100
AcDbEntity
8
CURVE
100
AcDbLine
62
9
6
CONTINUOUS
10
-53.7399856393
20
-6.2428571314
11
-53.7399856393
21
-5.9857142627
0
LINE
5
325
100
AcDbEntity
8
CURVE
100
AcDbLine
62
9
6
CONTINUOUS
10
-53.7399856393
20
-2.2571427345
11
-53.7399856393
21
-2.0000000000
0
LINE
5
326
100
AcDbEntity
8
0
100
AcDbLine
62
9
6
CONTINUOUS
10
-53.7202259807
20
10.1755882673
11
-53.7202259807
21
11.1108836018
0
LINE
5
327
100
AcDbEntity
8
0
100
AcDbLine
62
9
6
CONTINUOUS
10
-53.7202259807
20
13.4830802023
11
-53.7202259807
21
14.4184083580
0
LINE
5
328
100
AcDbEntity
8
CURVE
100
AcDbLine
62
9
6
CONTINUOUS
10
-53.7199134623
20
10.1755882673
11
-53.7199134623
21
11.1108836018
0
LINE
5
329
100
AcDbEntity
8
CURVE
100
AcDbLine
62
9
6
CONTINUOUS
10
-53.7199134623
20
13.4830802023
11
-53.7199134623
21
14.4184083580
0
LINE
5
32A
100
AcDbEntity
8
0
100
AcDbLine
62
9
6
CONTINUOUS
10
-53.5185462474
20
14.4184083580
11
-53.5185462474
21
13.4830802023
0
LINE
5
32B
100
AcDbEntity
8
0
100
AcDbLine
62
9
6
CONTINUOUS
10
-53.5185462474
20
11.1108836018
11
-53.5185462474
21
10.1755882673
0
LINE
5
32C
100
AcDbEntity
8
CURVE
100
AcDbLine
62
9
6
CONTINUOUS
10
-53.5182951579
20
14.4184083580
11
-53.5182951579
21
13.4830802023
0
LINE
5
32D
100
AcDbEntity
8
CURVE
100
AcDbLine
62
9
6
CONTINUOUS
10
-53.5182951579
20
11.1108836018
11
-53.5182951579
21
10.1755882673
0
LINE
5
32E
100
AcDbEntity
8
CURVE
100
AcDbLine
62
9
6
CONTINUOUS
10
-53.3543888063
20
-3.0285713673
11
-53.3543888063
21
-3.8000000000
0
LINE
5
32F
100
AcDbEntity
8
CURVE
100
AcDbLine
62
9
6
CONTINUOUS
10
-53.2258565465
20
3.9571424484
11
-53.2258565465
21
3.2714282036
0
LINE
5
330
100
AcDbEntity
8
CURVE
100
AcDbLine
62
9
6
CONTINUOUS
10
-56.9675736541
20
0.3142858982
11
-56.7105091077
21
0.5714286327
0
LINE
5
331
100
AcDbEntity
8
CURVE
100
AcDbLine
62
9
6
CONTINUOUS
10
-56.9675736541
20
-1.1000000000
11
-56.7105091077
21
-0.8428572655
0
LINE
5
332
100
AcDbEntity
8
CURVE
100
AcDbLine
62
9
6
CONTINUOUS
10
-57.7387672933
20
-2.0000000000
11
-57.4817027201
21
-1.7428572655
0
LINE
5
333
100
AcDbEntity
8
CURVE
100
AcDbLine
62
9
6
CONTINUOUS
10
-54.2541146784
20
0.9571427345
11
-54.5111791980
21
0.7000000000
0
LINE
5
334
100
AcDbEntity
8
CURVE
100
AcDbLine
62
9
6
CONTINUOUS
10
-57.9958318129
20
1.0857145309
11
-58.2528963325
21
0.9571427345
0
LINE
5
335
100
AcDbEntity
8
CURVE
100
AcDbLine
62
9
6
CONTINUOUS
10
-57.2246382005
20
0.1857141018
11
-56.9675736541
21
0.3142858982
0
LINE
5
336
100
AcDbEntity
8
CURVE
100
AcDbLine
62
9
6
CONTINUOUS
10
-57.9958318129
20
-0.3285713673
11
-58.2528963325
21
-0.4571427345
0
LINE
5
337
100
AcDbEntity
8
CURVE
100
AcDbLine
62
9
6
CONTINUOUS
10
-53.9970501588
20
1.0857145309
11
-54.2541146784
21
0.9571427345
0
LINE
5
338
100
AcDbEntity
8
CURVE
100
AcDbLine
62
9
6
CONTINUOUS
10
-56.7105091077
20
2.7571427345
11
-57.9958318129
21
2.3714282036
0
LINE
5
339
100
AcDbEntity
8
CURVE
100
AcDbLine
62
9
6
CONTINUOUS
10
-52.7117274537
20
4.1285712242
11
-54.5111791980
21
3.6142857552
0
LINE
5
33A
100
AcDbEntity
8
CURVE
100
AcDbLine
62
9
6
CONTINUOUS
10
-52.7117274537
20
2.1142854690
11
-54.5111791980
21
1.6000000000
0
LINE
5
33B
100
AcDbEntity
8
0
100
AcDbLine
62
7
6
CONTINUOUS
10
-21.5941843478
20
-4.0078008600
11
-49.3507292494
21
-4.2500285577
0
LINE
5
33C
100
AcDbEntity
8
0
100
AcDbLine
62
7
6
CONTINUOUS
10
-21.5941843478
20
-3.7463910308
11
-49.3429479797
21
-3.9236728618
0
LINE
5
33D
100
AcDbEntity
8
CURVE
100
AcDbLine
62
9
6
CONTINUOUS
10
-53.2258565465
20
-4.3142856836
11
-53.9970501588
21
-4.3142856836
0
LINE
5
33E
100
AcDbEntity
8
CURVE
100
AcDbLine
62
9
6
CONTINUOUS
10
-57.2246382005
20
-4.3142856836
11
-57.9958318129
21
-4.3142856836
0
LINE
5
33F
100
AcDbEntity
8
CURVE
100
AcDbLine
62
9
6
CONTINUOUS
10
-58.5099608520
20
-2.5142858982
11
-57.7387672933
21
-2.5142858982
0
LINE
5
340
100
AcDbEntity
8
CURVE
100
AcDbLine
62
9
6
CONTINUOUS
10
-58.2528963325
20
-1.1000000000
11
-57.9958318129
21
-1.2285713673
0
LINE
5
341
100
AcDbEntity
8
CURVE
100
AcDbLine
62
9
6
CONTINUOUS
10
-56.9675736541
20
-0.4571427345
11
-57.2246382005
21
-0.3285713673
0
LINE
5
342
100
AcDbEntity
8
CURVE
100
AcDbLine
62
9
6
CONTINUOUS
10
-58.2528963325
20
0.3142858982
11
-57.9958318129
21
0.1857141018
0
LINE
5
343
100
AcDbEntity
8
CURVE
100
AcDbLine
62
9
6
CONTINUOUS
10
-54.2541146784
20
-1.1000000000
11
-53.9970501588
21
-1.2285713673
0
LINE
5
344
100
AcDbEntity
8
CURVE
100
AcDbLine
62
9
6
CONTINUOUS
10
-56.7105091077
20
0.7000000000
11
-56.9675736541
21
0.9571427345
0
LINE
5
345
100
AcDbEntity
8
CURVE
100
AcDbLine
62
9
6
CONTINUOUS
10
-54.5111791980
20
-0.8428572655
11
-54.2541146784
21
-1.1000000000
0
LINE
5
346
100
AcDbEntity
8
CURVE
100
AcDbLine
62
9
6
CONTINUOUS
10
-52.8402597269
20
-1.7428572655
11
-52.7117274537
21
-1.8714286327
0
LINE
5
347
100
AcDbEntity
8
CURVE
100
AcDbLine
62
9
6
CONTINUOUS
10
-54.5111791980
20
0.5714286327
11
-54.2541146784
21
0.3142858982
0
LINE
5
348
100
AcDbEntity
8
CURVE
100
AcDbLine
62
9
6
CONTINUOUS
10
-53.8685178454
20
-1.7857142448
11
-53.7399856393
21
-2.0000000000
0
LINE
5
349
100
AcDbEntity
8
CURVE
100
AcDbLine
62
9
6
CONTINUOUS
10
-58.3412622510
20
13.3375000000
11
-58.3974951180
21
13.5062500000
0
LINE
5
34A
100
AcDbEntity
8
CURVE
100
AcDbLine
62
9
6
CONTINUOUS
10
-57.6664678469
20
13.3937500000
11
-57.7227007139
21
13.6187500000
0
LINE
5
34B
100
AcDbEntity
8
CURVE
100
AcDbLine
62
9
6
CONTINUOUS
10
-56.7667419747
20
13.8437500000
11
-56.7105091077
21
13.6187500000
0
LINE
5
34C
100
AcDbEntity
8
0
100
AcDbLine
62
9
6
CONTINUOUS
10
-52.8958640811
20
10.1755882673
11
-52.8958640811
21
11.1865131048
0
LINE
5
34D
100
AcDbEntity
8
0
100
AcDbLine
62
9
6
CONTINUOUS
10
-52.8958640811
20
13.4830802023
11
-52.8958640811
21
14.4940378610
0
LINE
5
34E
100
AcDbEntity
8
CURVE
100
AcDbLine
62
9
6
CONTINUOUS
10
-52.8958026521
20
10.1755882673
11
-52.8958026521
21
11.1865131048
0
LINE
5
34F
100
AcDbEntity
8
CURVE
100
AcDbLine
62
9
6
CONTINUOUS
10
-52.8958026521
20
13.4830802023
11
-52.8958026521
21
14.4940378610
0
LINE
5
350
100
AcDbEntity
8
CURVE
100
AcDbLine
62
9
6
CONTINUOUS
10
-52.7117274537
20
-1.8714286327
11
-52.7117274537
21
-2.5142858982
0
LINE
5
351
100
AcDbEntity
8
CURVE
100
AcDbLine
62
9
6
CONTINUOUS
10
-52.7117274537
20
-5.8571428418
11
-52.7117274537
21
-6.5000000000
0
LINE
5
352
100
AcDbEntity
8
CURVE
100
AcDbLine
62
9
6
CONTINUOUS
10
-52.7117274537
20
-4.8285714746
11
-52.7117274537
21
-4.7000000000
0
LINE
5
353
100
AcDbEntity
8
CURVE
100
AcDbLine
62
9
6
CONTINUOUS
10
-52.7117274537
20
-0.8428572655
11
-52.7117274537
21
-0.7142858982
0
LINE
5
354
100
AcDbEntity
8
CURVE
100
AcDbLine
62
9
6
CONTINUOUS
10
-52.7117274537
20
0.5714286327
11
-52.7117274537
21
0.7000000000
0
LINE
5
355
100
AcDbEntity
8
CURVE
100
AcDbLine
62
9
6
CONTINUOUS
10
-52.6941843478
20
14.4940378610
11
-52.6941843478
21
13.2435851882
0
LINE
5
356
100
AcDbEntity
8
0
100
AcDbLine
62
9
6
CONTINUOUS
10
-52.6941843478
20
14.4940378610
11
-52.6941843478
21
13.2435851882
0
LINE
5
357
100
AcDbEntity
8
CURVE
100
AcDbLine
62
9
6
CONTINUOUS
10
-52.6941843478
20
12.2982126959
11
-52.6941843478
21
12.0259579198
0
LINE
5
358
100
AcDbEntity
8
0
100
AcDbLine
62
9
6
CONTINUOUS
10
-52.6941843478
20
12.2982126959
11
-52.6941843478
21
12.0259579198
0
LINE
5
359
100
AcDbEntity
8
CURVE
100
AcDbLine
62
9
6
CONTINUOUS
10
-52.6941843478
20
11.1865131048
11
-52.6941843478
21
9.9360943119
0
LINE
5
35A
100
AcDbEntity
8
0
100
AcDbLine
62
9
6
CONTINUOUS
10
-52.6941843478
20
11.1865131048
11
-52.6941843478
21
9.9360943119
0
LINE
5
35B
100
AcDbEntity
8
CURVE
100
AcDbLine
62
9
6
CONTINUOUS
10
-52.6941843478
20
9.4344714406
11
-52.6941843478
21
9.1722789998
0
LINE
5
35C
100
AcDbEntity
8
0
100
AcDbLine
62
9
6
CONTINUOUS
10
-52.6941843478
20
9.4344714406
11
-52.6941843478
21
9.1722789998
0
LINE
5
35D
100
AcDbEntity
8
CURVE
100
AcDbLine
62
9
6
CONTINUOUS
10
-52.6941843478
20
8.2268895675
11
-52.6941843478
21
8.0000000000
0
LINE
5
35E
100
AcDbEntity
8
0
100
AcDbLine
62
9
6
CONTINUOUS
10
-52.6941843478
20
8.2268895675
11
-52.6941843478
21
8.0000000000
0
LINE
5
35F
100
AcDbEntity
8
CURVE
100
AcDbLine
62
9
6
CONTINUOUS
10
-52.1119102056
20
13.1428571939
11
-52.1119102056
21
12.3928571939
0
LINE
5
360
100
AcDbEntity
8
CURVE
100
AcDbLine
62
9
6
CONTINUOUS
10
-52.1119102056
20
8.4285714477
11
-52.1119102056
21
8.3214285746
0
LINE
5
361
100
AcDbEntity
8
CURVE
100
AcDbLine
62
9
6
CONTINUOUS
10
-52.1119102056
20
-15.8750000000
11
-52.1119102056
21
-12.8750000000
0
LINE
5
362
100
AcDbEntity
8
CURVE
100
AcDbLine
62
9
6
CONTINUOUS
10
-52.1119102056
20
-12.1250000000
11
-52.1119102056
21
-9.1250000000
0
LINE
5
363
100
AcDbEntity
8
CURVE
100
AcDbLine
62
9
6
CONTINUOUS
10
-52.1119102056
20
9.3928571045
11
-52.1119102056
21
9.7142857909
0
LINE
5
364
100
AcDbEntity
8
CURVE
100
AcDbLine
62
9
6
CONTINUOUS
10
-51.2550284290
20
9.8571429253
11
-51.2550284290
21
9.3928571045
0
LINE
5
365
100
AcDbEntity
8
CURVE
100
AcDbLine
62
9
6
CONTINUOUS
10
-50.9336977571
20
11.2142856121
11
-50.9336977571
21
11.9642856121
0
LINE
5
366
100
AcDbEntity
8
CURVE
100
AcDbLine
62
9
6
CONTINUOUS
10
-50.6123670853
20
8.3214285746
11
-50.6123670853
21
8.4285714477
0
LINE
5
367
100
AcDbEntity
8
CURVE
100
AcDbLine
62
9
6
CONTINUOUS
10
-58.2528963325
20
-4.4428570509
11
-58.5099608520
21
-4.7000000000
0
LINE
5
368
100
AcDbEntity
8
CURVE
100
AcDbLine
62
9
6
CONTINUOUS
10
-54.2541146784
20
-0.4571427345
11
-54.5111791980
21
-0.7142858982
0
LINE
5
369
100
AcDbEntity
8
CURVE
100
AcDbLine
62
9
6
CONTINUOUS
10
-52.9687920001
20
0.3142858982
11
-52.7117274537
21
0.5714286327
0
LINE
5
36A
100
AcDbEntity
8
CURVE
100
AcDbLine
62
9
6
CONTINUOUS
10
-56.9675736541
20
-5.0857143164
11
-56.7105091077
21
-4.8285714746
0
LINE
5
36B
100
AcDbEntity
8
CURVE
100
AcDbLine
62
9
6
CONTINUOUS
10
-52.9687920001
20
-1.1000000000
11
-52.7117274537
21
-0.8428572655
0
LINE
5
36C
100
AcDbEntity
8
CURVE
100
AcDbLine
62
9
6
CONTINUOUS
10
-57.7387672933
20
-5.9857142627
11
-57.4817027201
21
-5.7285714209
0
LINE
5
36D
100
AcDbEntity
8
CURVE
100
AcDbLine
62
9
6
CONTINUOUS
10
-53.7399856393
20
-2.0000000000
11
-53.4829210661
21
-1.7428572655
0
LINE
5
36E
100
AcDbEntity
8
CURVE
100
AcDbLine
62
9
6
CONTINUOUS
10
-54.5111791980
20
-2.0000000000
11
-54.2541146784
21
-1.7857142448
0
LINE
5
36F
100
AcDbEntity
8
CURVE
100
AcDbLine
62
9
6
CONTINUOUS
10
-58.5099608520
20
-5.9857142627
11
-58.2528963325
21
-5.7714285612
0
LINE
5
370
100
AcDbEntity
8
CURVE
100
AcDbLine
62
9
6
CONTINUOUS
10
-57.2246382005
20
-1.2285713673
11
-56.9675736541
21
-1.1000000000
0
LINE
5
371
100
AcDbEntity
8
CURVE
100
AcDbLine
62
9
6
CONTINUOUS
10
-53.2258565465
20
0.1857141018
11
-52.9687920001
21
0.3142858982
0
LINE
5
372
100
AcDbEntity
8
CURVE
100
AcDbLine
62
9
6
CONTINUOUS
10
-53.9970501588
20
-0.3285713673
11
-54.2541146784
21
-0.4571427345
0
LINE
5
373
100
AcDbEntity
8
CURVE
100
AcDbLine
62
9
6
CONTINUOUS
10
-53.2258565465
20
-1.2285713673
11
-52.9687920001
21
-1.1000000000
0
LINE
5
374
100
AcDbEntity
8
CURVE
100
AcDbLine
62
9
6
CONTINUOUS
10
-54.2541146784
20
-1.7857142448
11
-53.8685178454
21
-1.7857142448
0
LINE
5
375
100
AcDbEntity
8
CURVE
100
AcDbLine
62
9
6
CONTINUOUS
10
-57.4817027201
20
-1.7428572655
11
-56.9675736541
21
-1.7428572655
0
LINE
5
376
100
AcDbEntity
8
CURVE
100
AcDbLine
62
9
6
CONTINUOUS
10
-53.4829210661
20
-1.7428572655
11
-52.8402597269
21
-1.7428572655
0
LINE
5
377
100
AcDbEntity
8
CURVE
100
AcDbLine
62
9
6
CONTINUOUS
10
-57.9958318129
20
-1.2285713673
11
-57.2246382005
21
-1.2285713673
0
LINE
5
378
100
AcDbEntity
8
CURVE
100
AcDbLine
62
9
6
CONTINUOUS
10
-53.9970501588
20
-1.2285713673
11
-53.2258565465
21
-1.2285713673
0
LINE
5
379
100
AcDbEntity
8
0
100
AcDbLine
62
7
6
CONTINUOUS
10
-21.5941843478
20
-1.0501031425
11
-21.4941843478
21
-1.0501031425
0
LINE
5
37A
100
AcDbEntity
8
CURVE
100
AcDbLine
62
9
6
CONTINUOUS
10
-53.2258565465
20
-0.3285713673
11
-53.9970501588
21
-0.3285713673
0
LINE
5
37B
100
AcDbEntity
8
CURVE
100
AcDbLine
62
9
6
CONTINUOUS
10
-57.2246382005
20
-0.3285713673
11
-57.9958318129
21
-0.3285713673
0
LINE
5
37C
100
AcDbEntity
8
0
100
AcDbLine
62
7
6
CONTINUOUS
10
-21.5941843478
20
0.1580014877
11
-21.4941843478
21
0.1580030000
0
LINE
5
37D
100
AcDbEntity
8
CURVE
100
AcDbLine
62
9
6
CONTINUOUS
10
-57.9958318129
20
0.1857141018
11
-57.2246382005
21
0.1857141018
0
LINE
5
37E
100
AcDbEntity
8
CURVE
100
AcDbLine
62
9
6
CONTINUOUS
10
-53.9970501588
20
0.1857141018
11
-53.2258565465
21
0.1857141018
0
LINE
5
37F
100
AcDbEntity
8
0
100
AcDbLine
62
7
6
CONTINUOUS
10
-21.5941843478
20
-1.2536089692
11
-49.3429479797
21
-1.0763271382
0
LINE
5
380
100
AcDbEntity
8
0
100
AcDbLine
62
7
6
CONTINUOUS
10
-21.5941843478
20
-0.9921991400
11
-49.3507292494
21
-0.7499714423
0
LINE
5
381
100
AcDbEntity
8
CURVE
100
AcDbLine
62
9
6
CONTINUOUS
10
-57.9958318129
20
2.3714282036
11
-56.7105091077
21
1.9857145309
0
LINE
5
382
100
AcDbEntity
8
CURVE
100
AcDbLine
62
9
6
CONTINUOUS
10
-56.9675736541
20
0.9571427345
11
-57.2246382005
21
1.0857145309
0
LINE
5
383
100
AcDbEntity
8
CURVE
100
AcDbLine
62
9
6
CONTINUOUS
10
-52.9687920001
20
-0.4571427345
11
-53.2258565465
21
-0.3285713673
0
LINE
5
384
100
AcDbEntity
8
CURVE
100
AcDbLine
62
9
6
CONTINUOUS
10
-54.2541146784
20
0.3142858982
11
-53.9970501588
21
0.1857141018
0
LINE
5
385
100
AcDbEntity
8
CURVE
100
AcDbLine
62
9
6
CONTINUOUS
10
-52.9687920001
20
0.9571427345
11
-53.2258565465
21
1.0857145309
0
LINE
5
386
100
AcDbEntity
8
CURVE
100
AcDbLine
62
9
6
CONTINUOUS
10
-52.7117274537
20
-0.7142858982
11
-52.9687920001
21
-0.4571427345
0
LINE
5
387
100
AcDbEntity
8
CURVE
100
AcDbLine
62
9
6
CONTINUOUS
10
-58.5099608520
20
5.5142857373
11
-57.9958318129
21
5.0000000000
0
LINE
5
388
100
AcDbEntity
8
CURVE
100
AcDbLine
62
9
6
CONTINUOUS
10
-52.7117274537
20
0.7000000000
11
-52.9687920001
21
0.9571427345
0
LINE
5
389
100
AcDbEntity
8
CURVE
100
AcDbLine
62
9
6
CONTINUOUS
10
-58.5099608520
20
7.8285713673
11
-58.2528963325
21
7.5714286327
0
LINE
5
38A
100
AcDbEntity
8
CURVE
100
AcDbLine
62
9
6
CONTINUOUS
10
-57.5540021129
20
13.1687500000
11
-57.6664678469
21
13.3937500000
0
LINE
5
38B
100
AcDbEntity
8
CURVE
100
AcDbLine
62
9
6
CONTINUOUS
10
-57.3960145469
20
10.7000001430
11
-57.2674822871
21
10.4000000000
0
LINE
5
38C
100
AcDbEntity
8
CURVE
100
AcDbLine
62
9
6
CONTINUOUS
10
-57.2674822871
20
11.3857143879
11
-57.1389500005
21
11.0428572655
0
LINE
5
38D
100
AcDbEntity
8
0
100
AcDbLine
62
9
6
CONTINUOUS
10
-49.3429495212
20
-16.0762624865
11
-49.3507292494
21
-15.7499714423
0
LINE
5
38E
100
AcDbEntity
8
0
100
AcDbLine
62
9
6
CONTINUOUS
10
-49.3429479797
20
-11.0763271382
11
-49.3507292494
21
-10.7499714423
0
LINE
5
38F
100
AcDbEntity
8
0
100
AcDbLine
62
9
6
CONTINUOUS
10
-49.3429479797
20
-6.0763271382
11
-49.3507292494
21
-5.7499714423
0
LINE
5
390
100
AcDbEntity
8
0
100
AcDbLine
62
9
6
CONTINUOUS
10
-49.3429479797
20
-1.0763271382
11
-49.3507292494
21
-0.7499714423
0
LINE
5
391
100
AcDbEntity
8
0
100
AcDbLine
62
9
6
CONTINUOUS
10
-49.3429479797
20
3.9236728618
11
-49.3507292494
21
4.2500285577
0
LINE
5
392
100
AcDbEntity
8
0
100
AcDbLine
62
9
6
CONTINUOUS
10
-49.3429479797
20
8.9236728618
11
-49.3507292494
21
9.2500285577
0
LINE
5
393
100
AcDbEntity
8
0
100
AcDbLine
62
9
6
CONTINUOUS
10
-49.3429479797
20
13.9236728618
11
-49.3507292494
21
14.2500285577
0
LINE
5
394
100
AcDbEntity
8
0
100
AcDbLine
62
7
6
CONTINUOUS
10
-48.8941843478
20
-5.7539556493
11
-48.8941843478
21
-4.2460443507
0
LINE
5
395
100
AcDbEntity
8
0
100
AcDbLine
62
7
6
CONTINUOUS
10
-48.8941843478
20
-0.7539556493
11
-48.8941843478
21
0.7539556493
0
LINE
5
396
100
AcDbEntity
8
0
100
AcDbLine
62
7
6
CONTINUOUS
10
-48.8941843478
20
4.2460443507
11
-48.8941843478
21
5.7539556493
0
LINE
5
397
100
AcDbEntity
8
0
100
AcDbLine
62
9
6
CONTINUOUS
10
-49.3429495212
20
16.0762624865
11
-49.3507292494
21
15.7499714423
0
LINE
5
398
100
AcDbEntity
8
0
100
AcDbLine
62
9
6
CONTINUOUS
10
-49.3429479797
20
11.0763271382
11
-49.3507292494
21
10.7499714423
0
LINE
5
399
100
AcDbEntity
8
0
100
AcDbLine
62
9
6
CONTINUOUS
10
-49.3429479797
20
6.0763271382
11
-49.3507292494
21
5.7499714423
0
LINE
5
39A
100
AcDbEntity
8
0
100
AcDbLine
62
9
6
CONTINUOUS
10
-49.3429479797
20
1.0763271382
11
-49.3507292494
21
0.7499714423
0
LINE
5
39B
100
AcDbEntity
8
0
100
AcDbLine
62
9
6
CONTINUOUS
10
-49.3429479797
20
-3.9236728618
11
-49.3507292494
21
-4.2500285577
0
LINE
5
39C
100
AcDbEntity
8
0
100
AcDbLine
62
9
6
CONTINUOUS
10
-49.3429479797
20
-8.9236728618
11
-49.3507292494
21
-9.2500285577
0
LINE
5
39D
100
AcDbEntity
8
0
100
AcDbLine
62
9
6
CONTINUOUS
10
-49.3429479797
20
-13.9236728618
11
-49.3507292494
21
-14.2500285577
0
LINE
5
39E
100
AcDbEntity
8
CURVE
100
AcDbLine
62
9
6
CONTINUOUS
10
-54.2541146784
20
-4.4428570509
11
-54.5111791980
21
-4.7000000000
0
LINE
5
39F
100
AcDbEntity
8
CURVE
100
AcDbLine
62
9
6
CONTINUOUS
10
-52.9687920001
20
-5.0857143164
11
-52.7117274537
21
-4.8285714746
0
LINE
5
3A0
100
AcDbEntity
8
CURVE
100
AcDbLine
62
9
6
CONTINUOUS
10
-53.7399856393
20
-5.9857142627
11
-53.4829210661
21
-5.7285714209
0
LINE
5
3A1
100
AcDbEntity
8
CURVE
100
AcDbLine
62
9
6
CONTINUOUS
10
-54.5111791980
20
-5.9857142627
11
-54.2541146784
21
-5.7714285612
0
LINE
5
3A2
100
AcDbEntity
8
CURVE
100
AcDbLine
62
9
6
CONTINUOUS
10
-57.9958318129
20
-4.3142856836
11
-58.2528963325
21
-4.4428570509
0
LINE
5
3A3
100
AcDbEntity
8
CURVE
100
AcDbLine
62
9
6
CONTINUOUS
10
-57.2246382005
20
-5.2142856836
11
-56.9675736541
21
-5.0857143164
0
LINE
5
3A4
100
AcDbEntity
8
CURVE
100
AcDbLine
62
9
6
CONTINUOUS
10
-53.9970501588
20
-4.3142856836
11
-54.2541146784
21
-4.4428570509
0
LINE
5
3A5
100
AcDbEntity
8
0
100
AcDbLine
62
7
6
CONTINUOUS
10
-21.5941843478
20
0.9921991400
11
-49.3507292494
21
0.7499714423
0
LINE
5
3A6
100
AcDbEntity
8
0
100
AcDbLine
62
7
6
CONTINUOUS
10
-21.5941843478
20
1.2536089692
11
-49.3429479797
21
1.0763271382
0
LINE
5
3A7
100
AcDbEntity
8
0
100
AcDbLine
62
7
6
CONTINUOUS
10
-21.5941843478
20
0.9999850000
11
-21.4941843478
21
0.9999850000
0
LINE
5
3A8
100
AcDbEntity
8
CURVE
100
AcDbLine
62
9
6
CONTINUOUS
10
-53.2258565465
20
1.0857145309
11
-53.9970501588
21
1.0857145309
0
LINE
5
3A9
100
AcDbEntity
8
CURVE
100
AcDbLine
62
9
6
CONTINUOUS
10
-57.2246382005
20
1.0857145309
11
-57.9958318129
21
1.0857145309
0
LINE
5
3AA
100
AcDbEntity
8
CURVE
100
AcDbLine
62
9
6
CONTINUOUS
10
-58.5099608520
20
3.1428572655
11
-56.7105091077
21
2.7571427345
0
LINE
5
3AB
100
AcDbEntity
8
CURVE
100
AcDbLine
62
9
6
CONTINUOUS
10
-54.5111791980
20
2.6285717964
11
-52.7117274537
21
2.1142854690
0
LINE
5
3AC
100
AcDbEntity
8
CURVE
100
AcDbLine
62
9
6
CONTINUOUS
10
-54.5111791980
20
3.6142857552
11
-52.7117274537
21
3.1000002861
0
LINE
5
3AD
100
AcDbEntity
8
CURVE
100
AcDbLine
62
9
6
CONTINUOUS
10
-58.1243640190
20
6.0285714745
11
-58.5099608520
21
6.2857143164
0
LINE
5
3AE
100
AcDbEntity
8
CURVE
100
AcDbLine
62
9
6
CONTINUOUS
10
-57.9958318129
20
6.9285713673
11
-56.7105091077
21
6.0285714745
0
LINE
5
3AF
100
AcDbEntity
8
CURVE
100
AcDbLine
62
9
6
CONTINUOUS
10
-56.7105091077
20
7.9571429491
11
-56.9675736541
21
8.2142856836
0
LINE
5
3B0
100
AcDbEntity
8
CURVE
100
AcDbLine
62
9
6
CONTINUOUS
10
-56.8792077088
20
14.0125000000
11
-56.7667419747
21
13.8437500000
0
LINE
5
3B1
100
AcDbEntity
8
0
100
AcDbLine
62
7
6
CONTINUOUS
10
-47.8941843478
20
-5.7626825171
11
-47.8941843478
21
-4.2373174829
0
LINE
5
3B2
100
AcDbEntity
8
0
100
AcDbLine
62
7
6
CONTINUOUS
10
-47.8941843478
20
-0.7626825171
11
-47.8941843478
21
0.7626825171
0
LINE
5
3B3
100
AcDbEntity
8
0
100
AcDbLine
62
7
6
CONTINUOUS
10
-47.8941843478
20
4.2373174829
11
-47.8941843478
21
5.7626825171
0
LINE
5
3B4
100
AcDbEntity
8
CURVE
100
AcDbLine
62
9
6
CONTINUOUS
10
-56.5498978709
20
-11.4393398282
11
-56.7619652927
21
-11.6514718626
0
LINE
5
3B5
100
AcDbEntity
8
CURVE
100
AcDbLine
62
9
6
CONTINUOUS
10
-58.4585046671
20
-13.3485281374
11
-58.6705720889
21
-13.5606601718
0
LINE
5
3B6
100
AcDbEntity
8
CURVE
100
AcDbLine
62
9
6
CONTINUOUS
10
-52.8162004941
20
-8.3295048712
11
-54.4067061576
21
-9.9204951288
0
LINE
5
3B7
100
AcDbEntity
8
CURVE
100
AcDbLine
62
9
6
CONTINUOUS
10
-53.2258565465
20
-5.2142856836
11
-52.9687920001
21
-5.0857143164
0
LINE
5
3B8
100
AcDbEntity
8
CURVE
100
AcDbLine
62
9
6
CONTINUOUS
10
-56.7105091077
20
1.9857145309
11
-58.5099608520
21
1.6000000000
0
LINE
5
3B9
100
AcDbEntity
8
0
100
AcDbLine
62
7
6
CONTINUOUS
10
-21.5941843478
20
5.0000000000
11
-21.4941843478
21
5.0000000000
0
LINE
5
3BA
100
AcDbEntity
8
0
100
AcDbLine
62
7
6
CONTINUOUS
10
-21.5941843478
20
3.7463910308
11
-49.3429479797
21
3.9236728618
0
LINE
5
3BB
100
AcDbEntity
8
0
100
AcDbLine
62
7
6
CONTINUOUS
10
-21.5941843478
20
4.0078008600
11
-49.3507292494
21
4.2500285577
0
LINE
5
3BC
100
AcDbEntity
8
CURVE
100
AcDbLine
62
9
6
CONTINUOUS
10
-58.2528963325
20
7.5714286327
11
-57.9958318129
21
7.4428570509
0
LINE
5
3BD
100
AcDbEntity
8
CURVE
100
AcDbLine
62
9
6
CONTINUOUS
10
-56.9675736541
20
8.2142856836
11
-57.2246382005
21
8.3428570509
0
LINE
5
3BE
100
AcDbEntity
8
CURVE
100
AcDbLine
62
9
6
CONTINUOUS
10
-58.2287965170
20
13.2250000000
11
-58.3412622510
21
13.3375000000
0
LINE
5
3BF
100
AcDbEntity
8
CURVE
100
AcDbLine
62
9
6
CONTINUOUS
10
-57.4415363789
20
13.0562500000
11
-57.5540021129
21
13.1687500000
0
LINE
5
3C0
100
AcDbEntity
8
CURVE
100
AcDbLine
62
9
6
CONTINUOUS
10
-52.1119102056
20
8.3214285746
11
-51.8976897726
21
8.1071428619
0
LINE
5
3C1
100
AcDbEntity
8
0
100
AcDbLine
62
7
6
CONTINUOUS
10
-21.5941843478
20
5.9921991400
11
-49.3507292494
21
5.7499714423
0
LINE
5
3C2
100
AcDbEntity
8
0
100
AcDbLine
62
7
6
CONTINUOUS
10
-21.5941843478
20
6.2536089692
11
-49.3429479797
21
6.0763271382
0
LINE
5
3C3
100
AcDbEntity
8
CURVE
100
AcDbLine
62
9
6
CONTINUOUS
10
-56.7105091077
20
5.5142857373
11
-58.5099608520
21
5.5142857373
0
LINE
5
3C4
100
AcDbEntity
8
0
100
AcDbLine
62
9
6
CONTINUOUS
10
-21.5941843478
20
5.5622780000
11
-21.4941843478
21
5.5622780000
0
LINE
5
3C5
100
AcDbEntity
8
0
100
AcDbLine
62
7
6
CONTINUOUS
10
-21.5941843478
20
5.9326315112
11
-21.4941843478
21
5.9326315112
0
LINE
5
3C6
100
AcDbEntity
8
0
100
AcDbLine
62
7
6
CONTINUOUS
10
-21.5941843478
20
6.0358270000
11
-21.4941843478
21
6.0358270000
0
LINE
5
3C7
100
AcDbEntity
8
0
100
AcDbLine
62
7
6
CONTINUOUS
10
-21.5941843478
20
6.5059220000
11
-21.4941843478
21
6.5059220000
0
LINE
5
3C8
100
AcDbEntity
8
0
100
AcDbLine
62
7
6
CONTINUOUS
10
-21.5941843478
20
6.6973940000
11
-21.4941843478
21
6.6973940000
0
LINE
5
3C9
100
AcDbEntity
8
CURVE
100
AcDbLine
62
9
6
CONTINUOUS
10
-58.2528963325
20
6.9285713673
11
-57.9958318129
21
6.9285713673
0
LINE
5
3CA
100
AcDbEntity
8
0
100
AcDbLine
62
7
6
CONTINUOUS
10
-21.5941843478
20
7.1500200000
11
-21.4941843478
21
7.1500200000
0
LINE
5
3CB
100
AcDbEntity
8
0
100
AcDbLine
62
7
6
CONTINUOUS
10
-21.5941843478
20
7.1970000000
11
-21.4941843478
21
7.1970000000
0
LINE
5
3CC
100
AcDbEntity
8
CURVE
100
AcDbLine
62
9
6
CONTINUOUS
10
-57.9958318129
20
7.4428570509
11
-57.2246382005
21
7.4428570509
0
LINE
5
3CD
100
AcDbEntity
8
CURVE
100
AcDbLine
62
9
6
CONTINUOUS
10
-58.5099608520
20
9.8857141018
11
-56.7105091077
21
9.3714286327
0
LINE
5
3CE
100
AcDbEntity
8
CURVE
100
AcDbLine
62
9
6
CONTINUOUS
10
-51.8976897726
20
8.1071428619
11
-51.6834693396
21
8.0000000000
0
LINE
5
3CF
100
AcDbEntity
8
CURVE
100
AcDbLine
62
9
6
CONTINUOUS
10
-50.8265875406
20
8.6428571492
11
-51.0408079960
21
8.7500000000
0
LINE
5
3D0
100
AcDbEntity
8
CURVE
100
AcDbLine
62
9
6
CONTINUOUS
10
-56.9916734428
20
14.1250000000
11
-56.8792077088
21
14.0125000000
0
LINE
5
3D1
100
AcDbEntity
8
CURVE
100
AcDbLine
62
9
6
CONTINUOUS
10
-51.8976897726
20
9.1785714030
11
-52.1119102056
21
9.3928571045
0
LINE
5
3D2
100
AcDbEntity
8
CURVE
100
AcDbLine
62
9
6
CONTINUOUS
10
-50.6123670853
20
8.4285714477
11
-50.8265875406
21
8.6428571492
0
LINE
5
3D3
100
AcDbEntity
8
CURVE
100
AcDbLine
62
9
6
CONTINUOUS
10
-52.1119102056
20
10.7857142091
11
-51.6834693396
21
10.3571428060
0
LINE
5
3D4
100
AcDbEntity
8
CURVE
100
AcDbLine
62
9
6
CONTINUOUS
10
-51.0408079960
20
9.8214285970
11
-50.6123670853
21
9.3928571045
0
LINE
5
3D5
100
AcDbEntity
8
0
100
AcDbLine
62
7
6
CONTINUOUS
10
-79.2883761389
20
6.8568965095
11
-72.5941843478
21
7.3250000000
0
LINE
5
3D6
100
AcDbEntity
8
0
100
AcDbLine
62
7
6
CONTINUOUS
10
-72.3151112967
20
7.3446976589
11
-71.0389125473
21
7.4339381689
0
LINE
5
3D7
100
AcDbEntity
8
CURVE
100
AcDbLine
62
9
6
CONTINUOUS
10
-51.6834693396
20
8.0000000000
11
-51.0408079960
21
8.0000000000
0
LINE
5
3D8
100
AcDbEntity
8
CURVE
100
AcDbLine
62
9
6
CONTINUOUS
10
-52.6941843478
20
8.0000000000
11
-54.4936358373
21
8.0000000000
0
LINE
5
3D9
100
AcDbEntity
8
0
100
AcDbLine
62
9
6
CONTINUOUS
10
-52.6941843478
20
8.0000000000
11
-54.4941840929
21
8.0000000000
0
LINE
5
3DA
100
AcDbEntity
8
0
100
AcDbLine
62
7
6
CONTINUOUS
10
-21.5941843478
20
8.2119030000
11
-21.4941843478
21
8.2119030000
0
LINE
5
3DB
100
AcDbEntity
8
CURVE
100
AcDbLine
62
9
6
CONTINUOUS
10
-54.1382770798
20
8.2268895675
11
-52.6941843478
21
8.2268895675
0
LINE
5
3DC
100
AcDbEntity
8
0
100
AcDbLine
62
9
6
CONTINUOUS
10
-54.1387170650
20
8.2268895675
11
-52.6941843478
21
8.2268895675
0
LINE
5
3DD
100
AcDbEntity
8
CURVE
100
AcDbLine
62
9
6
CONTINUOUS
10
-57.2246382005
20
8.3428570509
11
-57.9958318129
21
8.3428570509
0
LINE
5
3DE
100
AcDbEntity
8
0
100
AcDbLine
62
7
6
CONTINUOUS
10
-21.5941843478
20
8.3877810000
11
-21.4941843478
21
8.3877810000
0
LINE
5
3DF
100
AcDbEntity
8
0
100
AcDbLine
62
7
6
CONTINUOUS
10
-21.5941843478
20
8.5687920000
11
-21.4941843478
21
8.5687920000
0
LINE
5
3E0
100
AcDbEntity
8
CURVE
100
AcDbLine
62
9
6
CONTINUOUS
10
-51.0408079960
20
8.7500000000
11
-51.6834693396
21
8.7500000000
0
LINE
5
3E1
100
AcDbEntity
8
CURVE
100
AcDbLine
62
9
6
CONTINUOUS
10
-51.4692489066
20
9.1785714030
11
-51.8976897726
21
9.1785714030
0
LINE
5
3E2
100
AcDbEntity
8
CURVE
100
AcDbLine
62
9
6
CONTINUOUS
10
-53.0344150379
20
9.2075659919
11
-54.4936358373
21
9.2075659919
0
LINE
5
3E3
100
AcDbEntity
8
0
100
AcDbLine
62
9
6
CONTINUOUS
10
-53.0345186992
20
9.2075659919
11
-54.4941840929
21
9.2075659919
0
LINE
5
3E4
100
AcDbEntity
8
0
100
AcDbLine
62
7
6
CONTINUOUS
10
-21.5941843478
20
9.3539280000
11
-21.4941843478
21
9.3539280000
0
LINE
5
3E5
100
AcDbEntity
8
CURVE
100
AcDbLine
62
9
6
CONTINUOUS
10
-54.4936358373
20
9.4344714406
11
-52.6941843478
21
9.4344714406
0
LINE
5
3E6
100
AcDbEntity
8
0
100
AcDbLine
62
9
6
CONTINUOUS
10
-54.4941840929
20
9.4344714406
11
-52.6941843478
21
9.4344714406
0
LINE
5
3E7
100
AcDbEntity
8
0
100
AcDbLine
62
9
6
CONTINUOUS
10
-21.5941843478
20
9.9162060000
11
-21.4941843478
21
9.9162060000
0
LINE
5
3E8
100
AcDbEntity
8
CURVE
100
AcDbLine
62
9
6
CONTINUOUS
10
-51.8976897726
20
9.9285714030
11
-51.4692489066
21
9.9285714030
0
LINE
5
3E9
100
AcDbEntity
8
CURVE
100
AcDbLine
62
9
6
CONTINUOUS
10
-52.6941843478
20
9.9360943119
11
-54.4936358373
21
9.9360943119
0
LINE
5
3EA
100
AcDbEntity
8
0
100
AcDbLine
62
9
6
CONTINUOUS
10
-52.6941843478
20
9.9360943119
11
-54.4941840929
21
9.9360943119
0
LINE
5
3EB
100
AcDbEntity
8
CURVE
100
AcDbLine
62
9
6
CONTINUOUS
10
-54.2920175330
20
10.1755882673
11
-53.7199134623
21
10.1755882673
0
LINE
5
3EC
100
AcDbEntity
8
0
100
AcDbLine
62
9
6
CONTINUOUS
10
-54.2925043596
20
10.1755882673
11
-53.7202259807
21
10.1755882673
0
LINE
5
3ED
100
AcDbEntity
8
CURVE
100
AcDbLine
62
9
6
CONTINUOUS
10
-53.5182951579
20
10.1755882673
11
-52.8958026521
21
10.1755882673
0
LINE
5
3EE
100
AcDbEntity
8
0
100
AcDbLine
62
9
6
CONTINUOUS
10
-53.5185462474
20
10.1755882673
11
-52.8958640811
21
10.1755882673
0
LINE
5
3EF
100
AcDbEntity
8
0
100
AcDbLine
62
7
6
CONTINUOUS
10
-21.5941843478
20
10.2865596597
11
-21.4941843478
21
10.2865596597
0
LINE
5
3F0
100
AcDbEntity
8
0
100
AcDbLine
62
7
6
CONTINUOUS
10
-21.5941843478
20
8.7463910308
11
-49.3429479797
21
8.9236728618
0
LINE
5
3F1
100
AcDbEntity
8
0
100
AcDbLine
62
7
6
CONTINUOUS
10
-21.5941843478
20
9.0078008600
11
-49.3507292494
21
9.2500285577
0
LINE
5
3F2
100
AcDbEntity
8
CURVE
100
AcDbLine
62
9
6
CONTINUOUS
10
-51.4692489066
20
9.9285714030
11
-51.0408079960
21
9.8214285970
0
LINE
5
3F3
100
AcDbEntity
8
CURVE
100
AcDbLine
62
9
6
CONTINUOUS
10
-58.0600979160
20
13.1687500000
11
-58.2287965170
21
13.2250000000
0
LINE
5
3F4
100
AcDbEntity
8
CURVE
100
AcDbLine
62
9
6
CONTINUOUS
10
-57.2728377778
20
13.0000000000
11
-57.4415363789
21
13.0562500000
0
LINE
5
3F5
100
AcDbEntity
8
0
100
AcDbLine
62
7
6
CONTINUOUS
10
-21.5941843478
20
10.9921991400
11
-49.3507292494
21
10.7499714423
0
LINE
5
3F6
100
AcDbEntity
8
0
100
AcDbLine
62
7
6
CONTINUOUS
10
-21.5941843478
20
11.2536089692
11
-49.3429479797
21
11.0763271382
0
LINE
5
3F7
100
AcDbEntity
8
0
100
AcDbLine
62
7
6
CONTINUOUS
10
-21.5941843478
20
10.5151010000
11
-21.4941843478
21
10.5151010000
0
LINE
5
3F8
100
AcDbEntity
8
CURVE
100
AcDbLine
62
9
6
CONTINUOUS
10
-50.6123670853
20
10.7857142091
11
-52.1119102056
21
10.7857142091
0
LINE
5
3F9
100
AcDbEntity
8
CURVE
100
AcDbLine
62
9
6
CONTINUOUS
10
-53.7199134623
20
11.1108836018
11
-53.5182951579
21
11.1108836018
0
LINE
5
3FA
100
AcDbEntity
8
0
100
AcDbLine
62
9
6
CONTINUOUS
10
-53.7202259807
20
11.1108836018
11
-53.5185462474
21
11.1108836018
0
LINE
5
3FB
100
AcDbEntity
8
CURVE
100
AcDbLine
62
9
6
CONTINUOUS
10
-54.4936358373
20
11.1789472959
11
-54.2920175330
21
11.1789472959
0
LINE
5
3FC
100
AcDbEntity
8
0
100
AcDbLine
62
9
6
CONTINUOUS
10
-54.4941840929
20
11.1789472959
11
-54.2925043596
21
11.1789472959
0
LINE
5
3FD
100
AcDbEntity
8
CURVE
100
AcDbLine
62
9
6
CONTINUOUS
10
-52.8958026521
20
11.1865131048
11
-52.6941843478
21
11.1865131048
0
LINE
5
3FE
100
AcDbEntity
8
0
100
AcDbLine
62
9
6
CONTINUOUS
10
-52.8958640811
20
11.1865131048
11
-52.6941843478
21
11.1865131048
0
LINE
5
3FF
100
AcDbEntity
8
0
100
AcDbLine
62
7
6
CONTINUOUS
10
-21.5941843478
20
11.4256810000
11
-21.4941843478
21
11.4256810000
0
LINE
5
400
100
AcDbEntity
8
0
100
AcDbLine
62
7
6
CONTINUOUS
10
-21.5941843478
20
11.6589020000
11
-21.4941843478
21
11.6589020000
0
LINE
5
401
100
AcDbEntity
8
CURVE
100
AcDbLine
62
9
6
CONTINUOUS
10
-51.3621386455
20
11.7142858505
11
-50.6123670853
21
11.7142858505
0
LINE
5
402
100
AcDbEntity
8
0
100
AcDbLine
62
7
6
CONTINUOUS
10
-21.5941843478
20
11.8591590000
11
-21.4941843478
21
11.8591590000
0
LINE
5
403
100
AcDbEntity
8
CURVE
100
AcDbLine
62
9
6
CONTINUOUS
10
-52.1119102056
20
12.3928571939
11
-51.7905795114
21
12.3928571939
0
LINE
5
404
100
AcDbEntity
8
0
100
AcDbLine
62
7
6
CONTINUOUS
10
-21.5941843478
20
12.4875640000
11
-21.4941843478
21
12.4875640000
0
LINE
5
405
100
AcDbEntity
8
0
100
AcDbLine
62
7
6
CONTINUOUS
10
-21.5941843478
20
12.6512040000
11
-21.4941843478
21
12.6512040000
0
LINE
5
406
100
AcDbEntity
8
CURVE
100
AcDbLine
62
9
6
CONTINUOUS
10
-52.1119102056
20
11.5357143879
11
-50.9336977571
21
11.2142856121
0
LINE
5
407
100
AcDbEntity
8
CURVE
100
AcDbLine
62
9
6
CONTINUOUS
10
-50.6123670853
20
12.7142856121
11
-52.1119102056
21
13.1428571939
0
LINE
5
408
100
AcDbEntity
8
CURVE
100
AcDbLine
62
9
6
CONTINUOUS
10
-52.9336053565
20
12.1696680567
11
-54.4936358373
21
12.6889667159
0
LINE
5
409
100
AcDbEntity
8
0
100
AcDbLine
62
9
6
CONTINUOUS
10
-52.9336783032
20
12.1696680567
11
-54.4941840929
21
12.6889667159
0
LINE
5
40A
100
AcDbEntity
8
CURVE
100
AcDbLine
62
9
6
CONTINUOUS
10
-54.4936358373
20
12.9385717089
11
-52.6941843478
21
12.2982126959
0
LINE
5
40B
100
AcDbEntity
8
0
100
AcDbLine
62
9
6
CONTINUOUS
10
-54.4941840929
20
12.9385717089
11
-52.6941843478
21
12.2982126959
0
LINE
5
40C
100
AcDbEntity
8
0
100
AcDbLine
62
7
6
CONTINUOUS
10
-53.9502548495
20
-21.6560705017
11
-52.3747116383
21
-20.0805272905
0
LINE
5
40D
100
AcDbEntity
8
0
100
AcDbLine
62
7
6
CONTINUOUS
10
-21.5941843478
20
12.9244970000
11
-21.4941843478
21
12.9244970000
0
LINE
5
40E
100
AcDbEntity
8
CURVE
100
AcDbLine
62
9
6
CONTINUOUS
10
-57.1041391768
20
13.0000000000
11
-57.2728377778
21
13.0000000000
0
LINE
5
40F
100
AcDbEntity
8
CURVE
100
AcDbLine
62
9
6
CONTINUOUS
10
-58.0038650490
20
13.1687500000
11
-58.0600979160
21
13.1687500000
0
LINE
5
410
100
AcDbEntity
8
CURVE
100
AcDbLine
62
9
6
CONTINUOUS
10
-52.6941843478
20
13.2435851882
11
-54.4936358373
21
13.2435851882
0
LINE
5
411
100
AcDbEntity
8
0
100
AcDbLine
62
9
6
CONTINUOUS
10
-52.6941843478
20
13.2435851882
11
-54.4941840929
21
13.2435851882
0
LINE
5
412
100
AcDbEntity
8
0
100
AcDbLine
62
9
6
CONTINUOUS
10
-21.5941843478
20
13.4311090000
11
-21.4941843478
21
13.4311090000
0
LINE
5
413
100
AcDbEntity
8
CURVE
100
AcDbLine
62
9
6
CONTINUOUS
10
-54.2920175330
20
13.4830802023
11
-53.7199134623
21
13.4830802023
0
LINE
5
414
100
AcDbEntity
8
0
100
AcDbLine
62
9
6
CONTINUOUS
10
-54.2925043596
20
13.4830802023
11
-53.7202259807
21
13.4830802023
0
LINE
5
415
100
AcDbEntity
8
CURVE
100
AcDbLine
62
9
6
CONTINUOUS
10
-53.5182951579
20
13.4830802023
11
-52.8958026521
21
13.4830802023
0
LINE
5
416
100
AcDbEntity
8
0
100
AcDbLine
62
9
6
CONTINUOUS
10
-53.5185462474
20
13.4830802023
11
-52.8958640811
21
13.4830802023
0
LINE
5
417
100
AcDbEntity
8
0
100
AcDbLine
62
7
6
CONTINUOUS
10
-21.5941843478
20
13.9562437428
11
-21.4941843478
21
13.9562437428
0
LINE
5
418
100
AcDbEntity
8
0
100
AcDbLine
62
7
6
CONTINUOUS
10
-21.5941843478
20
14.1918670000
11
-21.4941843478
21
14.1918670000
0
LINE
5
419
100
AcDbEntity
8
0
100
AcDbLine
62
7
6
CONTINUOUS
10
-21.5941843478
20
14.3729770000
11
-21.4941843478
21
14.3729770000
0
LINE
5
41A
100
AcDbEntity
8
CURVE
100
AcDbLine
62
9
6
CONTINUOUS
10
-53.7199134623
20
14.4184083580
11
-53.5182951579
21
14.4184083580
0
LINE
5
41B
100
AcDbEntity
8
0
100
AcDbLine
62
9
6
CONTINUOUS
10
-53.7202259807
20
14.4184083580
11
-53.5185462474
21
14.4184083580
0
LINE
5
41C
100
AcDbEntity
8
CURVE
100
AcDbLine
62
9
6
CONTINUOUS
10
-54.4936358373
20
14.4864222909
11
-54.2920175330
21
14.4864222909
0
LINE
5
41D
100
AcDbEntity
8
0
100
AcDbLine
62
9
6
CONTINUOUS
10
-54.4941840929
20
14.4864222909
11
-54.2925043596
21
14.4864222909
0
LINE
5
41E
100
AcDbEntity
8
CURVE
100
AcDbLine
62
9
6
CONTINUOUS
10
-52.8958026521
20
14.4940378610
11
-52.6941843478
21
14.4940378610
0
LINE
5
41F
100
AcDbEntity
8
0
100
AcDbLine
62
9
6
CONTINUOUS
10
-52.8958640811
20
14.4940378610
11
-52.6941843478
21
14.4940378610
0
LINE
5
420
100
AcDbEntity
8
0
100
AcDbLine
62
7
6
CONTINUOUS
10
-21.5941843478
20
13.7463910308
11
-49.3429479797
21
13.9236728618
0
LINE
5
421
100
AcDbEntity
8
0
100
AcDbLine
62
7
6
CONTINUOUS
10
-21.5941843478
20
14.0078008600
11
-49.3507292494
21
14.2500285577
0
LINE
5
422
100
AcDbEntity
8
0
100
AcDbLine
62
7
6
CONTINUOUS
10
-53.9502548495
20
21.6560705017
11
-52.3747116383
21
20.0805272905
0
LINE
5
423
100
AcDbEntity
8
0
100
AcDbLine
62
7
6
CONTINUOUS
10
-21.5941843478
20
15.9921991400
11
-49.3507292494
21
15.7499714423
0
LINE
5
424
100
AcDbEntity
8
0
100
AcDbLine
62
7
6
CONTINUOUS
10
-53.9502548495
20
-21.6560705017
11
-55.4446888639
21
-22.2000000000
0
LINE
5
425
100
AcDbEntity
8
0
100
AcDbLine
62
7
6
CONTINUOUS
10
-52.3747116383
20
20.0805272905
11
-21.5941843478
21
19.8119096983
0
LINE
5
426
100
AcDbEntity
8
0
100
AcDbLine
62
9
6
CONTINUOUS
10
-70.1613876499
20
20.9972959167
11
-70.6522194637
21
21.0183142301
0
LINE
5
427
100
AcDbEntity
8
0
100
AcDbLine
62
7
6
CONTINUOUS
10
-53.9502548495
20
21.6560705017
11
-55.4446888639
21
22.2000000000
0
LINE
5
428
100
AcDbEntity
8
0
100
AcDbLine
62
7
6
CONTINUOUS
10
-23.0941843478
20
-0.8000000000
11
-22.9134986897
21
-0.9806856582
0
LINE
5
429
100
AcDbEntity
8
0
100
AcDbLine
62
9
6
CONTINUOUS
10
-61.5941843478
20
21.8997711479
11
-69.6879975928
21
21.4755923698
0
LINE
5
42A
100
AcDbEntity
8
0
100
AcDbLine
62
7
6
CONTINUOUS
10
-55.4446888639
20
22.2000000000
11
-55.9941843478
21
22.2000000000
0
LINE
5
42B
100
AcDbEntity
8
0
100
AcDbLine
62
7
6
CONTINUOUS
10
-53.4213472046
20
21.1271628567
11
-57.3976748291
21
21.1965699136
0
LINE
5
42C
100
AcDbEntity
8
0
100
AcDbLine
62
7
6
CONTINUOUS
10
-61.5941843478
20
22.4000000000
11
-69.7054393723
21
21.9749071370
0
LINE
5
42D
100
AcDbEntity
8
0
100
AcDbLine
62
7
6
CONTINUOUS
10
-57.5941843478
20
23.4301797403
11
-61.5941843478
21
23.5000000000
0
LINE
5
42E
100
AcDbEntity
8
0
100
AcDbLine
62
9
6
CONTINUOUS
10
-57.5941843478
20
23.2631073618
11
-61.5941843478
21
23.3333596575
0
LINE
5
42F
100
AcDbEntity
8
0
100
AcDbLine
62
7
6
CONTINUOUS
10
-23.0941843478
20
-4.0208911617
11
-23.0941843478
21
-5.9791088383
0
LINE
5
430
100
AcDbEntity
8
0
100
AcDbLine
62
7
6
CONTINUOUS
10
-23.0941843478
20
-9.0208911617
11
-23.0941843478
21
-10.9791088383
0
LINE
5
431
100
AcDbEntity
8
0
100
AcDbLine
62
7
6
CONTINUOUS
10
-23.0941843478
20
-14.0208911617
11
-23.0941843478
21
-15.9791088383
0
LINE
5
432
100
AcDbEntity
8
0
100
AcDbLine
62
7
6
CONTINUOUS
10
-23.0941843478
20
-0.9791088383
11
-23.0941843478
21
0.9791088383
0
LINE
5
433
100
AcDbEntity
8
0
100
AcDbLine
62
7
6
CONTINUOUS
10
-23.0941843478
20
4.0208911617
11
-23.0941843478
21
5.9791088383
0
LINE
5
434
100
AcDbEntity
8
0
100
AcDbLine
62
7
6
CONTINUOUS
10
-23.0941843478
20
9.0208911617
11
-23.0941843478
21
10.9791088383
0
LINE
5
435
100
AcDbEntity
8
0
100
AcDbLine
62
7
6
CONTINUOUS
10
-23.0941843478
20
14.0208911617
11
-23.0941843478
21
15.9791088383
0
LINE
5
436
100
AcDbEntity
8
0
100
AcDbLine
62
7
6
CONTINUOUS
10
-22.5941843478
20
-15.9834722722
11
-22.5941843478
21
-14.0165277278
0
LINE
5
437
100
AcDbEntity
8
0
100
AcDbLine
62
7
6
CONTINUOUS
10
-22.5941843478
20
-10.9834722722
11
-22.5941843478
21
-9.0165277278
0
LINE
5
438
100
AcDbEntity
8
0
100
AcDbLine
62
7
6
CONTINUOUS
10
-22.5941843478
20
-5.9834722722
11
-22.5941843478
21
-4.0165277278
0
LINE
5
439
100
AcDbEntity
8
0
100
AcDbLine
62
7
6
CONTINUOUS
10
-21.5941843478
20
-19.8119096983
11
-21.5941843478
21
19.8119096983
0
LINE
5
43A
100
AcDbEntity
8
0
100
AcDbLine
62
7
6
CONTINUOUS
10
-21.4941843478
20
14.3729770000
11
-21.4941843478
21
14.1918670000
0
LINE
5
43B
100
AcDbEntity
8
0
100
AcDbLine
62
7
6
CONTINUOUS
10
-21.4941843478
20
13.9562437428
11
-21.4941843478
21
12.9244970000
0
LINE
5
43C
100
AcDbEntity
8
0
100
AcDbLine
62
7
6
CONTINUOUS
10
-21.4941843478
20
12.6512040000
11
-21.4941843478
21
11.6589020000
0
LINE
5
43D
100
AcDbEntity
8
0
100
AcDbLine
62
7
6
CONTINUOUS
10
-21.4941843478
20
11.4256810000
11
-21.4941843478
21
10.5151010000
0
LINE
5
43E
100
AcDbEntity
8
0
100
AcDbLine
62
7
6
CONTINUOUS
10
-21.4941843478
20
10.2864237496
11
-21.4941843478
21
9.3539280000
0
LINE
5
43F
100
AcDbEntity
8
0
100
AcDbLine
62
7
6
CONTINUOUS
10
-21.4941843478
20
8.5687920000
11
-21.4941843478
21
8.3877810000
0
LINE
5
440
100
AcDbEntity
8
0
100
AcDbLine
62
7
6
CONTINUOUS
10
-21.4941843478
20
8.2119030000
11
-21.4941843478
21
7.1970000000
0
LINE
5
441
100
AcDbEntity
8
0
100
AcDbLine
62
7
6
CONTINUOUS
10
-21.4941843478
20
7.1500200000
11
-21.4941843478
21
6.0358270000
0
LINE
5
442
100
AcDbEntity
8
0
100
AcDbLine
62
7
6
CONTINUOUS
10
-21.4941843478
20
5.9324956012
11
-21.4941843478
21
5.0000000000
0
LINE
5
443
100
AcDbEntity
8
0
100
AcDbLine
62
7
6
CONTINUOUS
10
-21.4941843478
20
0.9999850000
11
-21.4941843478
21
-1.0501029853
0
LINE
5
444
100
AcDbEntity
8
CURVE
100
AcDbLine
62
9
6
CONTINUOUS
10
-21.4941843478
20
-16.7320508076
11
-21.4941843478
21
-13.4411542732
0
LINE
5
445
100
AcDbEntity
8
CURVE
100
AcDbLine
62
9
6
CONTINUOUS
10
-21.4941843478
20
-10.4000000000
11
-21.4941843478
21
-9.7214285553
0
CIRCLE
5
446
100
AcDbEntity
8
0
100
AcDbCircle
62
7
6
CONTINUOUS
10
0.0000000000
20
-0.0000000000
40
7.3250000000
0
CIRCLE
5
447
100
AcDbEntity
8
0
100
AcDbCircle
62
9
6
CONTINUOUS
10
0.0000000000
20
-0.0000000000
40
6.4115440154
0
CIRCLE
5
448
100
AcDbEntity
8
0
100
AcDbCircle
62
9
6
CONTINUOUS
10
0.0000000000
20
-0.0000000000
40
6.8568965095
0
CIRCLE
5
449
100
AcDbEntity
8
0
100
AcDbCircle
62
7
6
CONTINUOUS
10
0.0000000000
20
-0.0000000000
40
7.5000000000
0
CIRCLE
5
44A
100
AcDbEntity
8
0
100
AcDbCircle
62
9
6
CONTINUOUS
10
0.0000000000
20
-0.0000000000
40
7.3446976577
0
ARC
5
44B
100
AcDbEntity
8
0
100
AcDbCircle
62
7
6
CONTINUOUS
10
-11.2500000000
20
-0.0000000000
40
28.0000000000
100
AcDbArc
50
305.9627651514
51
306.8614238325
0
ARC
5
44C
100
AcDbEntity
8
0
100
AcDbCircle
62
7
6
CONTINUOUS
10
4.9500000000
20
-23.1000000000
40
0.5000000000
100
AcDbArc
50
60.8875772240
51
189.1962815790
0
ARC
5
44D
100
AcDbEntity
8
0
100
AcDbCircle
62
7
6
CONTINUOUS
10
-11.2500000000
20
-0.0000000000
40
28.0000000000
100
AcDbArc
50
303.5572117297
51
304.1210936517
0
ARC
5
44E
100
AcDbEntity
8
0
100
AcDbCircle
62
7
6
CONTINUOUS
10
11.2500000000
20
-0.0000000000
40
28.0000000000
100
AcDbArc
50
235.8789063483
51
236.4427882703
0
ARC
5
44F
100
AcDbEntity
8
0
100
AcDbCircle
62
7
6
CONTINUOUS
10
-4.9500000000
20
-23.1000000000
40
0.5000000000
100
AcDbArc
50
350.8037184210
51
119.1124227760
0
ARC
5
450
100
AcDbEntity
8
0
100
AcDbCircle
62
7
6
CONTINUOUS
10
11.2500000000
20
-0.0000000000
40
28.0000000000
100
AcDbArc
50
233.1385761675
51
234.0372348486
0
ARC
5
451
100
AcDbEntity
8
0
100
AcDbCircle
62
7
6
CONTINUOUS
10
11.2500000000
20
-0.0000000000
40
28.0000000000
100
AcDbArc
50
125.9627651514
51
126.8614238325
0
ARC
5
452
100
AcDbEntity
8
0
100
AcDbCircle
62
7
6
CONTINUOUS
10
-4.9500000000
20
23.1000000000
40
0.5000000000
100
AcDbArc
50
240.8875772240
51
9.1962815790
0
ARC
5
453
100
AcDbEntity
8
0
100
AcDbCircle
62
7
6
CONTINUOUS
10
11.2500000000
20
-0.0000000000
40
28.0000000000
100
AcDbArc
50
123.5572118642
51
124.1210936517
0
ARC
5
454
100
AcDbEntity
8
0
100
AcDbCircle
62
7
6
CONTINUOUS
10
-11.2500000000
20
-0.0000000000
40
28.0000000000
100
AcDbArc
50
55.8789063483
51
56.4427881358
0
ARC
5
455
100
AcDbEntity
8
0
100
AcDbCircle
62
7
6
CONTINUOUS
10
4.9500000000
20
23.1000000000
40
0.5000000000
100
AcDbArc
50
170.8037184210
51
299.1124227760
0
ARC
5
456
100
AcDbEntity
8
0
100
AcDbCircle
62
7
6
CONTINUOUS
10
-11.2500000000
20
-0.0000000000
40
28.0000000000
100
AcDbArc
50
53.1385761675
51
54.0372348486
0
ARC
5
457
100
AcDbEntity
8
0
100
AcDbCircle
62
7
6
CONTINUOUS
10
0.0000000000
20
-0.0000000000
40
7.7936376623
100
AcDbArc
50
254.2221986956
51
285.7778013044
0
ARC
5
458
100
AcDbEntity
8
0
100
AcDbCircle
62
7
6
CONTINUOUS
10
0.0000000000
20
-0.0000000000
40
7.7936376623
100
AcDbArc
50
74.2221986956
51
105.7778013044
0
ARC
5
459
100
AcDbEntity
8
0
100
AcDbCircle
62
7
6
CONTINUOUS
10
0.0000000000
20
-0.0000000000
40
7.7500000000
100
AcDbArc
50
285.2195847889
51
74.7804152111
0
ARC
5
45A
100
AcDbEntity
8
0
100
AcDbCircle
62
7
6
CONTINUOUS
10
0.0000000000
20
-0.0000000000
40
7.7500000000
100
AcDbArc
50
105.2195847889
51
254.7804152111
0
ARC
5
45B
100
AcDbEntity
8
0
100
AcDbCircle
62
7
6
CONTINUOUS
10
-79.2534979020
20
6.3581144844
40
0.5000000000
100
AcDbArc
50
94.0000000000
51
173.8657140405
0
ARC
5
45C
100
AcDbEntity
8
0
100
AcDbCircle
62
7
6
CONTINUOUS
10
-79.2534979020
20
-6.3581144844
40
0.5000000000
100
AcDbArc
50
186.1342859595
51
266.0000000000
0
ARC
5
45D
100
AcDbEntity
8
0
100
AcDbCircle
62
7
6
CONTINUOUS
10
-20.0941843478
20
-0.0000000000
40
60.0000000000
100
AcDbArc
50
173.8657140405
51
186.1342859595
0
ARC
5
45E
100
AcDbEntity
8
0
100
AcDbCircle
62
7
6
CONTINUOUS
10
-72.2941843478
20
-7.0454284443
40
0.3000000000
100
AcDbArc
50
185.7331507522
51
265.9999987060
0
ARC
5
45F
100
AcDbEntity
8
0
100
AcDbCircle
62
7
6
CONTINUOUS
10
-72.2941843478
20
7.0454284443
40
0.3000000000
100
AcDbArc
50
94.0000012940
51
174.2668492478
0
ARC
5
460
100
AcDbEntity
8
0
100
AcDbCircle
62
7
6
CONTINUOUS
10
-69.6531034115
20
20.9762776024
40
1.0000000000
100
AcDbArc
50
93.0000000000
51
177.5907686986
0
ARC
5
461
100
AcDbEntity
8
0
100
AcDbCircle
62
7
6
CONTINUOUS
10
428.9058156522
20
-0.0000000000
40
500.0000000000
100
AcDbArc
50
177.5907686986
51
182.4092313014
0
ARC
5
462
100
AcDbEntity
8
0
100
AcDbCircle
62
7
6
CONTINUOUS
10
-69.6531034115
20
-20.9762776025
40
1.0000000000
100
AcDbArc
50
182.4092313014
51
267.0000000000
0
ARC
5
463
100
AcDbEntity
8
0
100
AcDbCircle
62
7
6
CONTINUOUS
10
-57.3941843478
20
21.3965394526
40
0.2000000000
100
AcDbArc
50
180.0000000000
51
269.0000000000
0
ARC
5
464
100
AcDbEntity
8
0
100
AcDbCircle
62
7
6
CONTINUOUS
10
-57.3941843478
20
-21.3965394526
40
0.2000000000
100
AcDbArc
50
91.0000000000
51
180.0000000000
0
SPLINE
5
465
100
AcDbEntity
8
0
100
AcDbSpline
62
7
6
CONTINUOUS
70
0
71
3
72
10
73
6
74
4
42
0.0000001000
43
0.0000001000
44
0.0000000001
12
0.4872211006
22
-0.3231847228
32
0.0000000000
13
0.5846646611
23
0.0000000000
33
0.0000000000
40
0.0000000000
40
0.0000000000
40
0.0000000000
40
0.0000000000
40
0.3320945256
40
0.6676156214
40
1.0000000000
40
1.0000000000
40
1.0000000000
40
1.0000000000
10
-4.2275424324
20
-23.3333598158
30
0.0000000000
10
-4.1736079456
20
-23.3691357749
30
0.0000000000
10
-4.0578491580
20
-23.4306579531
30
0.0000000000
10
-3.8701662121
20
-23.4872638493
30
0.0000000000
10
-3.7396354770
20
-23.5000000000
30
0.0000000000
10
-3.6748576770
20
-23.5000000000
30
0.0000000000
11
-4.2275424324
21
-23.3333598158
31
0.0000000000
11
-4.0560823987
21
-23.4244701326
31
0.0000000000
11
-3.8682712534
21
-23.4811145868
31
0.0000000000
11
-3.6748576770
21
-23.5000000000
31
0.0000000000
0
SPLINE
5
466
100
AcDbEntity
8
0
100
AcDbSpline
62
7
6
CONTINUOUS
70
0
71
3
72
10
73
6
74
4
42
0.0000001000
43
0.0000001000
44
0.0000000001
12
-0.4872208954
22
0.3231845867
32
0.0000000000
13
-0.5846644148
23
0.0000000000
33
0.0000000000
40
0.0000000000
40
0.0000000000
40
0.0000000000
40
0.0000000000
40
0.3326044525
40
0.6673737459
40
1.0000000000
40
1.0000000000
40
1.0000000000
40
1.0000000000
10
4.2275424871
20
23.3333597793
30
0.0000000000
10
4.1735252073
20
23.3691906568
30
0.0000000000
10
4.0577955893
20
23.4306748466
30
0.0000000000
10
3.8701152825
20
23.4872637543
30
0.0000000000
10
3.7396829365
20
23.5000000000
30
0.0000000000
10
3.6748580251
20
23.5000000000
30
0.0000000000
11
4.2275424871
21
23.3333597793
31
0.0000000000
11
4.0558055935
21
23.4245842498
31
0.0000000000
11
3.8684109176
21
23.4810870394
31
0.0000000000
11
3.6748580251
21
23.5000000000
31
0.0000000000
0
SPLINE
5
467
100
AcDbEntity
8
0
100
AcDbSpline
62
7
6
CONTINUOUS
70
0
71
3
72
10
73
6
74
4
42
0.0000001000
43
0.0000001000
44
0.0000000001
12
0.5846646611
22
0.0000000000
32
0.0000000000
13
0.4872211006
23
0.3231847228
33
0.0000000000
40
0.0000000000
40
0.0000000000
40
0.0000000000
40
0.0000000000
40
0.3323843786
40
0.6679054744
40
1.0000000000
40
1.0000000000
40
1.0000000000
40
1.0000000000
10
3.6748576770
20
-23.5000000000
30
0.0000000000
10
3.7396354770
20
-23.5000000000
30
0.0000000000
10
3.8701662121
20
-23.4872638493
30
0.0000000000
10
4.0578491580
20
-23.4306579531
30
0.0000000000
10
4.1736079456
20
-23.3691357749
30
0.0000000000
10
4.2275424324
20
-23.3333598158
30
0.0000000000
11
3.6748576770
21
-23.5000000000
31
0.0000000000
11
3.8682712534
21
-23.4811145868
31
0.0000000000
11
4.0560823987
21
-23.4244701326
31
0.0000000000
11
4.2275424324
21
-23.3333598158
31
0.0000000000
0
SPLINE
5
468
100
AcDbEntity
8
0
100
AcDbSpline
62
7
6
CONTINUOUS
70
0
71
3
72
8
73
4
74
2
42
0.0000001000
43
0.0000001000
44
0.0000000001
12
0.0541751989
22
-0.0359356289
32
0.0000000000
13
0.0564839302
23
-0.0323775315
33
0.0000000000
40
0.0000000000
40
0.0000000000
40
0.0000000000
40
0.0000000000
40
1.0000000000
40
1.0000000000
40
1.0000000000
40
1.0000000000
10
-4.2275424324
20
-23.3333598158
30
0.0000000000
10
-4.2094840327
20
-23.3453383588
30
0.0000000000
10
-4.1910166918
20
-23.3567370097
30
0.0000000000
10
-4.1721887150
20
-23.3675295202
30
0.0000000000
11
-4.2275424324
21
-23.3333598158
31
0.0000000000
11
-4.1721887150
21
-23.3675295202
31
0.0000000000
0
SPLINE
5
469
100
AcDbEntity
8
0
100
AcDbSpline
62
7
6
CONTINUOUS
70
0
71
3
72
10
73
6
74
4
42
0.0000001000
43
0.0000001000
44
0.0000000001
12
-0.5846644148
22
0.0000000000
32
0.0000000000
13
-0.4872208954
23
-0.3231845867
33
0.0000000000
40
0.0000000000
40
0.0000000000
40
0.0000000000
40
0.0000000000
40
0.3326262541
40
0.6673955475
40
1.0000000000
40
1.0000000000
40
1.0000000000
40
1.0000000000
10
-3.6748580251
20
23.5000000000
30
0.0000000000
10
-3.7396829365
20
23.5000000000
30
0.0000000000
10
-3.8701152825
20
23.4872637543
30
0.0000000000
10
-4.0577955893
20
23.4306748466
30
0.0000000000
10
-4.1735252073
20
23.3691906568
30
0.0000000000
10
-4.2275424871
20
23.3333597793
30
0.0000000000
11
-3.6748580251
21
23.5000000000
31
0.0000000000
11
-3.8684109176
21
23.4810870394
31
0.0000000000
11
-4.0558055935
21
23.4245842498
31
0.0000000000
11
-4.2275424871
21
23.3333597793
31
0.0000000000
0
SPLINE
5
46A
100
AcDbEntity
8
0
100
AcDbSpline
62
7
6
CONTINUOUS
70
0
71
3
72
8
73
4
74
2
42
0.0000001000
43
0.0000001000
44
0.0000000001
12
-0.0543247782
22
0.0360348482
32
0.0000000000
13
-0.0566462248
23
0.0324569387
33
0.0000000000
40
0.0000000000
40
0.0000000000
40
0.0000000000
40
0.0000000000
40
1.0000000000
40
1.0000000000
40
1.0000000000
40
1.0000000000
10
4.2275424871
20
23.3333597793
30
0.0000000000
10
4.2094342277
20
23.3453713954
30
0.0000000000
10
4.1909146780
20
23.3567999287
30
0.0000000000
10
4.1720326030
20
23.3676189083
30
0.0000000000
11
4.2275424871
21
23.3333597793
31
0.0000000000
11
4.1720326030
21
23.3676189083
31
0.0000000000
0
SPLINE
5
46B
100
AcDbEntity
8
0
100
AcDbSpline
62
7
6
CONTINUOUS
70
0
71
3
72
10
73
6
74
4
42
0.0000001000
43
0.0000001000
44
0.0000000001
12
-0.0847114981
22
0.0214816768
32
0.0000000000
13
-0.0845394621
23
0.0221490335
33
0.0000000000
40
0.0000000000
40
0.0000000000
40
0.0000000000
40
0.0000000000
40
0.3352259242
40
0.6685289985
40
1.0000000000
40
1.0000000000
40
1.0000000000
40
1.0000000000
10
-2.0345224386
20
7.4781828305
30
0.0000000000
10
-2.0439882687
20
7.4805832355
30
0.0000000000
10
-2.0628592189
20
7.4853956122
30
0.0000000000
10
-2.0910676104
20
7.4926688206
30
0.0000000000
10
-2.1098071513
20
7.4975527459
30
0.0000000000
10
-2.1191479447
20
7.5000000000
30
0.0000000000
11
-2.0345224386
21
7.4781828305
31
0.0000000000
11
-2.0629102722
21
7.4854220192
31
0.0000000000
11
-2.0911161061
21
7.4926944343
31
0.0000000000
11
-2.1191479447
21
7.5000000000
31
0.0000000000
0
SPLINE
5
46C
100
AcDbEntity
8
0
100
AcDbSpline
62
7
6
CONTINUOUS
70
0
71
3
72
10
73
6
74
4
42
0.0000001000
43
0.0000001000
44
0.0000000001
12
0.0847114981
22
0.0214816768
32
0.0000000000
13
0.0845394621
23
0.0221490335
33
0.0000000000
40
0.0000000000
40
0.0000000000
40
0.0000000000
40
0.0000000000
40
0.3352259242
40
0.6685289985
40
1.0000000000
40
1.0000000000
40
1.0000000000
40
1.0000000000
10
2.0345224386
20
7.4781828305
30
0.0000000000
10
2.0439882687
20
7.4805832355
30
0.0000000000
10
2.0628592189
20
7.4853956122
30
0.0000000000
10
2.0910676104
20
7.4926688206
30
0.0000000000
10
2.1098071513
20
7.4975527459
30
0.0000000000
10
2.1191479447
20
7.5000000000
30
0.0000000000
11
2.0345224386
21
7.4781828305
31
0.0000000000
11
2.0629102722
21
7.4854220192
31
0.0000000000
11
2.0911161061
21
7.4926944343
31
0.0000000000
11
2.1191479447
21
7.5000000000
31
0.0000000000
0
SPLINE
5
46D
100
AcDbEntity
8
0
100
AcDbSpline
62
7
6
CONTINUOUS
70
0
71
3
72
10
73
6
74
4
42
0.0000001000
43
0.0000001000
44
0.0000000001
12
0.0847114981
22
-0.0214816768
32
0.0000000000
13
0.0845394621
23
-0.0221490335
33
0.0000000000
40
0.0000000000
40
0.0000000000
40
0.0000000000
40
0.0000000000
40
0.3352259242
40
0.6685289985
40
1.0000000000
40
1.0000000000
40
1.0000000000
40
1.0000000000
10
2.0345224386
20
-7.4781828305
30
0.0000000000
10
2.0439882687
20
-7.4805832355
30
0.0000000000
10
2.0628592189
20
-7.4853956122
30
0.0000000000
10
2.0910676104
20
-7.4926688206
30
0.0000000000
10
2.1098071513
20
-7.4975527459
30
0.0000000000
10
2.1191479447
20
-7.5000000000
30
0.0000000000
11
2.0345224386
21
-7.4781828305
31
0.0000000000
11
2.0629102722
21
-7.4854220192
31
0.0000000000
11
2.0911161061
21
-7.4926944343
31
0.0000000000
11
2.1191479447
21
-7.5000000000
31
0.0000000000
0
SPLINE
5
46E
100
AcDbEntity
8
0
100
AcDbSpline
62
7
6
CONTINUOUS
70
0
71
3
72
10
73
6
74
4
42
0.0000001000
43
0.0000001000
44
0.0000000001
12
-0.0847114981
22
-0.0214816768
32
0.0000000000
13
-0.0845394621
23
-0.0221490335
33
0.0000000000
40
0.0000000000
40
0.0000000000
40
0.0000000000
40
0.0000000000
40
0.3352259242
40
0.6685289985
40
1.0000000000
40
1.0000000000
40
1.0000000000
40
1.0000000000
10
-2.0345224386
20
-7.4781828305
30
0.0000000000
10
-2.0439882687
20
-7.4805832355
30
0.0000000000
10
-2.0628592189
20
-7.4853956122
30
0.0000000000
10
-2.0910676104
20
-7.4926688206
30
0.0000000000
10
-2.1098071513
20
-7.4975527459
30
0.0000000000
10
-2.1191479447
20
-7.5000000000
30
0.0000000000
11
-2.0345224386
21
-7.4781828305
31
0.0000000000
11
-2.0629102722
21
-7.4854220192
31
0.0000000000
11
-2.0911161061
21
-7.4926944343
31
0.0000000000
11
-2.1191479447
21
-7.5000000000
31
0.0000000000
0
SPLINE
5
46F
100
AcDbEntity
8
0
100
AcDbSpline
62
7
6
CONTINUOUS
70
0
71
3
72
15
73
11
74
9
42
0.0000001000
43
0.0000001000
44
0.0000000001
12
0.0000000000
22
0.7840504605
32
0.0000000000
13
0.7840504605
23
0.0000000000
33
0.0000000000
40
0.0000000000
40
0.0000000000
40
0.0000000000
40
0.0000000000
40
0.1250035856
40
0.2500003382
40
0.3749971738
40
0.4999931596
40
0.6249941993
40
0.7499962985
40
0.8749988330
40
1.0000000000
40
1.0000000000
40
1.0000000000
40
1.0000000000
10
-11.1500000000
20
21.8997711479
30
0.0000000000
10
-11.1500000000
20
21.9324408542
30
0.0000000000
10
-11.1435720625
20
21.9979588343
30
0.0000000000
10
-11.1150028885
20
22.0923353736
30
0.0000000000
10
-11.0685863853
20
22.1793736183
30
0.0000000000
10
-11.0060858443
20
22.2556795570
30
0.0000000000
10
-10.9298940235
20
22.3183228818
30
0.0000000000
10
-10.8429223671
20
22.3648787971
30
0.0000000000
10
-10.7485697898
20
22.3935479377
30
0.0000000000
10
-10.6830496739
20
22.4000000000
30
0.0000000000
10
-10.6503805997
20
22.4000000000
30
0.0000000000
11
-11.1500000000
21
21.8997711479
31
0.0000000000
11
-11.1404171274
21
21.9973106575
31
0.0000000000
11
-11.1120282390
21
22.0911126206
31
0.0000000000
11
-11.0659057104
21
22.1775849419
31
0.0000000000
11
-11.0038050670
21
22.2534013616
31
0.0000000000
11
-10.9280978412
21
22.3156413172
31
0.0000000000
11
-10.8416923200
21
22.3618976126
31
0.0000000000
11
-10.7479148288
21
22.3903828363
31
0.0000000000
11
-10.6503805997
21
22.4000000000
31
0.0000000000
0
SPLINE
5
470
100
AcDbEntity
8
0
100
AcDbSpline
62
7
6
CONTINUOUS
70
0
71
3
72
15
73
11
74
9
42
0.0000001000
43
0.0000001000
44
0.0000000001
12
-0.7840504604
22
0.0000000000
32
0.0000000000
13
-0.0000000000
23
0.7840504604
33
0.0000000000
40
0.0000000000
40
0.0000000000
40
0.0000000000
40
0.0000000000
40
0.1250026133
40
0.2500082844
40
0.3750136098
40
0.5000160060
40
0.6250106349
40
0.7500042447
40
0.8749978606
40
1.0000000000
40
1.0000000000
40
1.0000000000
40
1.0000000000
10
-10.6503805997
20
-22.4000000000
30
0.0000000000
10
-10.6830500519
20
-22.4000000000
30
0.0000000000
10
-10.7485713718
20
-22.3935477443
30
0.0000000000
10
-10.8429258085
20
-22.3648775487
30
0.0000000000
10
-10.9298988298
20
-22.3183198083
30
0.0000000000
10
-11.0060904776
20
-22.2556749149
30
0.0000000000
10
-11.0685894502
20
-22.1793688070
30
0.0000000000
10
-11.1150041327
20
-22.0923319310
30
0.0000000000
10
-11.1435722551
20
-21.9979572524
30
0.0000000000
10
-11.1500000000
20
-21.9324404763
30
0.0000000000
10
-11.1500000000
20
-21.8997711479
30
0.0000000000
11
-10.6503805997
21
-22.4000000000
31
0.0000000000
11
-10.7479159463
21
-22.3903826137
31
0.0000000000
11
-10.8416956551
21
-22.3618962291
31
0.0000000000
11
-10.9281029540
21
-22.3156378952
31
0.0000000000
11
-11.0038101683
21
-22.2533962508
31
0.0000000000
11
-11.0659091235
21
-22.1775798235
31
0.0000000000
11
-11.1120296181
21
-22.0911092838
31
0.0000000000
11
-11.1404173492
21
-21.9973095400
31
0.0000000000
11
-11.1500000000
21
-21.8997711479
31
0.0000000000
0
SPLINE
5
471
100
AcDbEntity
8
0
100
AcDbSpline
62
7
6
CONTINUOUS
70
0
71
3
72
15
73
11
74
9
42
0.0000001000
43
0.0000001000
44
0.0000000001
12
0.7840504604
22
0.0000000000
32
0.0000000000
13
0.0000000000
23
-0.7840504604
33
0.0000000000
40
0.0000000000
40
0.0000000000
40
0.0000000000
40
0.0000000000
40
0.1250026133
40
0.2500082844
40
0.3750136098
40
0.5000160060
40
0.6250106349
40
0.7500042447
40
0.8749978606
40
1.0000000000
40
1.0000000000
40
1.0000000000
40
1.0000000000
10
10.6503805997
20
22.4000000000
30
0.0000000000
10
10.6830500519
20
22.4000000000
30
0.0000000000
10
10.7485713718
20
22.3935477443
30
0.0000000000
10
10.8429258085
20
22.3648775487
30
0.0000000000
10
10.9298988298
20
22.3183198083
30
0.0000000000
10
11.0060904776
20
22.2556749149
30
0.0000000000
10
11.0685894502
20
22.1793688070
30
0.0000000000
10
11.1150041327
20
22.0923319310
30
0.0000000000
10
11.1435722551
20
21.9979572524
30
0.0000000000
10
11.1500000000
20
21.9324404762
30
0.0000000000
10
11.1500000000
20
21.8997711479
30
0.0000000000
11
10.6503805997
21
22.4000000000
31
0.0000000000
11
10.7479159463
21
22.3903826137
31
0.0000000000
11
10.8416956551
21
22.3618962291
31
0.0000000000
11
10.9281029540
21
22.3156378952
31
0.0000000000
11
11.0038101683
21
22.2533962508
31
0.0000000000
11
11.0659091235
21
22.1775798235
31
0.0000000000
11
11.1120296181
21
22.0911092837
31
0.0000000000
11
11.1404173492
21
21.9973095399
31
0.0000000000
11
11.1500000000
21
21.8997711479
31
0.0000000000
0
SPLINE
5
472
100
AcDbEntity
8
0
100
AcDbSpline
62
7
6
CONTINUOUS
70
0
71
3
72
15
73
11
74
9
42
0.0000001000
43
0.0000001000
44
0.0000000001
12
0.0000000000
22
-0.7840504605
32
0.0000000000
13
-0.7840504605
23
0.0000000000
33
0.0000000000
40
0.0000000000
40
0.0000000000
40
0.0000000000
40
0.0000000000
40
0.1250035856
40
0.2500003382
40
0.3749971738
40
0.4999931596
40
0.6249941993
40
0.7499962985
40
0.8749988330
40
1.0000000000
40
1.0000000000
40
1.0000000000
40
1.0000000000
10
11.1500000000
20
-21.8997711479
30
0.0000000000
10
11.1500000000
20
-21.9324408542
30
0.0000000000
10
11.1435720625
20
-21.9979588343
30
0.0000000000
10
11.1150028885
20
-22.0923353736
30
0.0000000000
10
11.0685863853
20
-22.1793736183
30
0.0000000000
10
11.0060858443
20
-22.2556795571
30
0.0000000000
10
10.9298940235
20
-22.3183228818
30
0.0000000000
10
10.8429223671
20
-22.3648787971
30
0.0000000000
10
10.7485697898
20
-22.3935479377
30
0.0000000000
10
10.6830496739
20
-22.4000000000
30
0.0000000000
10
10.6503805997
20
-22.4000000000
30
0.0000000000
11
11.1500000000
21
-21.8997711479
31
0.0000000000
11
11.1404171274
21
-21.9973106575
31
0.0000000000
11
11.1120282390
21
-22.0911126206
31
0.0000000000
11
11.0659057104
21
-22.1775849419
31
0.0000000000
11
11.0038050670
21
-22.2534013617
31
0.0000000000
11
10.9280978412
21
-22.3156413172
31
0.0000000000
11
10.8416923200
21
-22.3618976126
31
0.0000000000
11
10.7479148288
21
-22.3903828363
31
0.0000000000
11
10.6503805997
21
-22.4000000000
31
0.0000000000
0
SPLINE
5
473
100
AcDbEntity
8
0
100
AcDbSpline
62
9
6
CONTINUOUS
70
0
71
3
72
26
73
22
74
20
42
0.0000001000
43
0.0000001000
44
0.0000000001
12
-24.8478529927
22
0.0016915963
32
0.0000000000
13
24.8478530061
23
0.0014815573
33
0.0000000000
40
0.0000000000
40
0.0000000000
40
0.0000000000
40
0.0000000000
40
0.0528756974
40
0.1056222929
40
0.1582413888
40
0.2107809448
40
0.2632832217
40
0.3157764276
40
0.3682707476
40
0.4208437819
40
0.4735753632
40
0.5264044507
40
0.5791316039
40
0.6317012949
40
0.6841942089
40
0.7366869554
40
0.7891897827
40
0.8417316517
40
0.8943541248
40
0.9471047817
40
1.0000000000
40
1.0000000000
40
1.0000000000
40
1.0000000000
10
0.0000000000
20
-7.9185793515
30
0.0000000000
10
-0.4379491852
20
-7.9185495368
30
0.0000000000
10
-1.3145188730
20
-7.8456805491
30
0.0000000000
10
-2.5902815129
20
-7.5211849876
30
0.0000000000
10
-3.7929362040
20
-6.9920554338
30
0.0000000000
10
-4.8903877653
20
-6.2734839062
30
0.0000000000
10
-5.8541580248
20
-5.3851289585
30
0.0000000000
10
-6.6587620913
20
-4.3508964192
30
0.0000000000
10
-7.2829528902
20
-3.1980941963
30
0.0000000000
10
-7.7099315140
20
-1.9565202193
30
0.0000000000
10
-7.9271299806
20
-0.6588059886
30
0.0000000000
10
-7.9271718368
20
0.6582657599
30
0.0000000000
10
-7.7100757626
20
1.9559304597
30
0.0000000000
10
-7.2832249899
20
3.1974668405
30
0.0000000000
10
-6.6591590795
20
4.3502870748
30
0.0000000000
10
-5.8546580800
20
5.3845857197
30
0.0000000000
10
-4.8909560072
20
6.2730445016
30
0.0000000000
10
-3.7935236660
20
6.9917406506
30
0.0000000000
10
-2.5908369711
20
7.5210021368
30
0.0000000000
10
-1.3148775295
20
7.8456334592
30
0.0000000000
10
-0.4381108696
20
7.9185532291
30
0.0000000000
10
0.0000000000
20
7.9185793515
30
0.0000000000
11
0.0000000000
21
-7.9185793515
31
0.0000000000
11
-1.3093177373
21
-7.8095726067
31
0.0000000000
11
-2.5795373567
21
-7.4865889862
31
0.0000000000
11
-3.7762837880
21
-6.9600152817
31
0.0000000000
11
-4.8684934824
21
-6.2448959796
31
0.0000000000
11
-5.8277267935
21
-5.3607176217
31
0.0000000000
11
-6.6286430701
21
-4.3312298862
31
0.0000000000
11
-7.2497057936
21
-3.1842053923
31
0.0000000000
11
-7.6745329740
21
-1.9488867386
31
0.0000000000
11
-7.8908227530
21
-0.6565952653
31
0.0000000000
11
-7.8908644918
21
0.6560941366
31
0.0000000000
11
-7.6746840396
21
1.9482923456
31
0.0000000000
11
-7.2499861255
21
3.1835675995
31
0.0000000000
11
-6.6290435766
21
4.3306174272
31
0.0000000000
11
-5.8282302413
21
5.3601707787
31
0.0000000000
11
-4.8690692471
21
6.2444477615
31
0.0000000000
11
-3.7768746358
21
6.9596950101
31
0.0000000000
11
-2.5800936937
21
7.4863986332
31
0.0000000000
11
-1.3097977092
21
7.8094914354
31
0.0000000000
11
0.0000000000
21
7.9185793515
31
0.0000000000
0
SPLINE
5
474
100
AcDbEntity
8
0
100
AcDbSpline
62
9
6
CONTINUOUS
70
0
71
3
72
26
73
22
74
20
42
0.0000001000
43
0.0000001000
44
0.0000000001
12
-24.5316147740
22
0.0008343442
32
0.0000000000
13
24.5316147773
23
0.0007308088
33
0.0000000000
40
0.0000000000
40
0.0000000000
40
0.0000000000
40
0.0000000000
40
0.0529305891
40
0.1056769646
40
0.1582948162
40
0.2108316849
40
0.2633295905
40
0.3158166580
40
0.3683032228
40
0.4208671850
40
0.4735887390
40
0.5264073429
40
0.5791242136
40
0.6316844730
40
0.6841693231
40
0.7366556500
40
0.7891538344
40
0.8416927675
40
0.8943137716
40
0.9470640126
40
1.0000000000
40
1.0000000000
40
1.0000000000
40
1.0000000000
10
0.0000000000
20
-7.8170108662
30
0.0000000000
10
-0.4328242738
20
-7.8169961454
30
0.0000000000
10
-1.2986883135
20
-7.7449349905
30
0.0000000000
10
-2.5586065928
20
-7.4243593570
30
0.0000000000
10
-3.7458892287
20
-6.9019011157
30
0.0000000000
10
-4.8292997587
20
-6.1924920821
30
0.0000000000
10
-5.7807230307
20
-5.3155164444
30
0.0000000000
10
-6.5750076209
20
-4.2945758119
30
0.0000000000
10
-7.1911807407
20
-3.1566196190
30
0.0000000000
10
-7.6126618095
20
-1.9310577725
30
0.0000000000
10
-7.8270459911
20
-0.6500963488
30
0.0000000000
10
-7.8270539858
20
0.6499613689
30
0.0000000000
10
-7.6127066037
20
1.9308579504
30
0.0000000000
10
-7.1912931526
20
3.1563544301
30
0.0000000000
10
-6.5751914697
20
4.2942913584
30
0.0000000000
10
-5.7809642247
20
5.3152537345
30
0.0000000000
10
-4.8295716171
20
6.1922821559
30
0.0000000000
10
-3.7461529743
20
6.9017619913
30
0.0000000000
10
-2.5588192088
20
7.4242913812
30
0.0000000000
10
-1.2988087371
20
7.7449203978
30
0.0000000000
10
-0.4328684172
20
7.8169979708
30
0.0000000000
10
0.0000000000
20
7.8170108662
30
0.0000000000
11
0.0000000000
21
-7.8170108662
31
0.0000000000
11
-1.2939891265
21
-7.7091970891
31
0.0000000000
11
-2.5480069480
21
-7.3902054701
31
0.0000000000
11
-3.7294627373
21
-6.8702736568
31
0.0000000000
11
-4.8076990159
21
-6.1642647086
31
0.0000000000
11
-5.7546429702
21
-5.2914093950
31
0.0000000000
11
-6.5452836594
21
-4.2751506666
31
0.0000000000
11
-7.1583650087
21
-3.1428989260
31
0.0000000000
11
-7.5777189556
21
-1.9235146423
31
0.0000000000
11
-7.7912042147
21
-0.6479108830
31
0.0000000000
11
-7.7912122099
21
0.6478147610
31
0.0000000000
11
-7.5777710613
21
1.9233094184
31
0.0000000000
11
-7.1584867950
21
3.1426216058
31
0.0000000000
11
-6.5454724038
21
4.2748617655
31
0.0000000000
11
-5.7548889194
21
5.2911419773
31
0.0000000000
11
-4.8079801195
21
6.1640455187
31
0.0000000000
11
-3.7297313682
21
6.8701278671
31
0.0000000000
11
-2.5482225399
21
7.3901311551
31
0.0000000000
11
-1.2941201827
21
7.7091750957
31
0.0000000000
11
0.0000000000
21
7.8170108662
31
0.0000000000
0
SPLINE
5
475
100
AcDbEntity
8
0
100
AcDbSpline
62
9
6
CONTINUOUS
70
0
71
3
72
26
73
22
74
20
42
0.0000001000
43
0.0000001000
44
0.0000000001
12
24.5316147740
22
-0.0008343400
32
0.0000000000
13
-24.5316147774
23
-0.0007308104
33
0.0000000000
40
0.0000000000
40
0.0000000000
40
0.0000000000
40
0.0000000000
40
0.0529305224
40
0.1056769844
40
0.1582947584
40
0.2108315206
40
0.2633295312
40
0.3158168462
40
0.3683035812
40
0.4208676600
40
0.4735894896
40
0.5264080442
40
0.5791245669
40
0.6316847076
40
0.6841694100
40
0.7366555122
40
0.7891536129
40
0.8416926676
40
0.8943137587
40
0.9470639273
40
1.0000000000
40
1.0000000000
40
1.0000000000
40
1.0000000000
10
0.0000000000
20
7.8170108662
30
0.0000000000
10
0.4328237287
20
7.8169961455
30
0.0000000000
10
1.2986879221
20
7.7449350699
30
0.0000000000
10
2.5586057907
20
7.4243596403
30
0.0000000000
10
3.7458877045
20
6.9019017995
30
0.0000000000
10
4.8292979178
20
6.1924935158
30
0.0000000000
10
5.7807230036
20
5.3155168282
30
0.0000000000
10
6.5750100586
20
4.2945726002
30
0.0000000000
10
7.1911843057
20
3.1566119835
30
0.0000000000
10
7.6126652769
20
1.9310451955
30
0.0000000000
10
7.8270474630
20
0.6500805097
30
0.0000000000
10
7.8270524807
20
-0.6499761967
30
0.0000000000
10
7.6127036861
20
-1.9308681555
30
0.0000000000
10
7.1912907501
20
-3.1563594534
30
0.0000000000
10
6.5751904260
20
-4.2942924927
30
0.0000000000
10
5.7809655960
20
-5.3152519334
30
0.0000000000
10
4.8295746287
20
-6.1922798405
30
0.0000000000
10
3.7461554618
20
-6.9017608037
30
0.0000000000
10
2.5588207445
20
-7.4242908621
30
0.0000000000
10
1.2988095493
20
-7.7449202705
30
0.0000000000
10
0.4328691148
20
-7.8169979708
30
0.0000000000
10
0.0000000000
20
-7.8170108662
30
0.0000000000
11
0.0000000000
21
7.8170108662
31
0.0000000000
11
1.2939875081
21
7.7091973606
31
0.0000000000
11
2.5480074069
21
7.3902053120
31
0.0000000000
11
3.7294614879
21
6.8702743348
31
0.0000000000
11
4.8076958264
21
6.1642671954
31
0.0000000000
11
5.7546419823
21
5.2914104690
31
0.0000000000
11
6.5452861938
21
4.2751467874
31
0.0000000000
11
7.1583685554
21
3.1428908501
31
0.0000000000
11
7.5777218330
21
1.9235033100
31
0.0000000000
11
7.7912057465
21
0.6478924686
31
0.0000000000
11
7.7912107791
21
-0.6478319649
31
0.0000000000
11
7.5777689214
21
-1.9233178470
31
0.0000000000
11
7.1584844726
21
-3.1426268945
31
0.0000000000
11
6.5454712335
21
-4.2748635570
31
0.0000000000
11
5.7548912154
21
-5.2911394807
31
0.0000000000
11
4.8079844178
21
-6.1640421669
31
0.0000000000
11
3.7297335303
21
-6.8701266936
31
0.0000000000
11
2.5482228395
21
-7.3901310518
31
0.0000000000
11
1.2941222540
21
-7.7091747481
31
0.0000000000
11
0.0000000000
21
-7.8170108662
31
0.0000000000
0
SPLINE
5
476
100
AcDbEntity
8
0
100
AcDbSpline
62
9
6
CONTINUOUS
70
0
71
3
72
26
73
22
74
20
42
0.0000001000
43
0.0000001000
44
0.0000000001
12
24.8478529928
22
-0.0016915876
32
0.0000000000
13
-24.8478530062
23
-0.0014815606
33
0.0000000000
40
0.0000000000
40
0.0000000000
40
0.0000000000
40
0.0000000000
40
0.0528756303
40
0.1056223122
40
0.1582413308
40
0.2107807801
40
0.2632831619
40
0.3157766153
40
0.3682711055
40
0.4208442565
40
0.4735761135
40
0.5264051518
40
0.5791319569
40
0.6317015292
40
0.6841942954
40
0.7366868172
40
0.7891895609
40
0.8417315515
40
0.8943541116
40
0.9471046961
40
1.0000000000
40
1.0000000000
40
1.0000000000
40
1.0000000000
10
0.0000000000
20
7.9185793515
30
0.0000000000
10
0.4379486295
20
7.9185495370
30
0.0000000000
10
1.3145184694
20
7.8456806301
30
0.0000000000
10
2.5902806919
20
7.5211852777
30
0.0000000000
10
3.7929346525
20
6.9920561305
30
0.0000000000
10
4.8903858928
20
6.2734853642
30
0.0000000000
10
5.8541579889
20
5.3851293562
30
0.0000000000
10
6.6587645533
20
4.3508931771
30
0.0000000000
10
7.2829564964
20
3.1980864735
30
0.0000000000
10
7.7099350236
20
1.9565074902
30
0.0000000000
10
7.9271314712
20
0.6587899542
30
0.0000000000
10
7.9271703136
20
-0.6582807710
30
0.0000000000
10
7.7100728098
20
-1.9559407888
30
0.0000000000
10
7.2832225603
20
-3.1974719202
30
0.0000000000
10
6.6591580279
20
-4.3502882154
30
0.0000000000
10
5.8546594753
20
-5.3845838884
30
0.0000000000
10
4.8909590639
20
-6.2730421515
30
0.0000000000
10
3.7935261919
20
-6.9917394443
30
0.0000000000
10
2.5908385332
20
-7.5210016086
30
0.0000000000
10
1.3148783574
20
-7.8456333297
30
0.0000000000
10
0.4381115788
20
-7.9185532290
30
0.0000000000
10
0.0000000000
20
-7.9185793515
30
0.0000000000
11
0.0000000000
21
7.9185793515
31
0.0000000000
11
1.3093160874
21
7.8095728833
31
0.0000000000
11
2.5795378116
21
7.4865888295
31
0.0000000000
11
3.7762825170
21
6.9600159714
31
0.0000000000
11
4.8684902448
21
6.2448985039
31
0.0000000000
11
5.8277257835
21
5.3607187198
31
0.0000000000
11
6.6286456296
21
4.3312259685
31
0.0000000000
11
7.2497093815
21
3.1841972226
31
0.0000000000
11
7.6745358857
21
1.9488752708
31
0.0000000000
11
7.8908243040
21
0.6565766222
31
0.0000000000
11
7.8908630436
21
-0.6561115557
31
0.0000000000
11
7.6746818746
21
-1.9483008749
31
0.0000000000
11
7.2499837771
21
-3.1835729482
31
0.0000000000
11
6.6290423969
21
-4.3306192333
31
0.0000000000
11
5.8282325739
21
-5.3601682421
31
0.0000000000
11
4.8690736068
21
-6.2444443616
31
0.0000000000
11
3.7768768308
21
-6.9596938189
31
0.0000000000
11
2.5800940047
21
-7.4863985260
31
0.0000000000
11
1.3097998148
21
-7.8094910823
31
0.0000000000
11
0.0000000000
21
-7.9185793515
31
0.0000000000
0
SPLINE
5
477
100
AcDbEntity
8
0
100
AcDbSpline
62
9
6
CONTINUOUS
70
0
71
3
72
12
73
8
74
6
42
0.0000001000
43
0.0000001000
44
0.0000000001
12
-0.0007145531
22
-0.7813571046
32
0.0000000000
13
-0.7813571062
23
-0.0007128139
33
0.0000000000
40
0.0000000000
40
0.0000000000
40
0.0000000000
40
0.0000000000
40
0.1998532782
40
0.3997964689
40
0.5998286573
40
0.7999149934
40
1.0000000000
40
1.0000000000
40
1.0000000000
40
1.0000000000
10
11.0087219643
20
-21.4755923698
30
0.0000000000
10
11.0086743624
20
-21.5276446294
30
0.0000000000
10
10.9920025187
20
-21.6324904868
30
0.0000000000
10
10.9197666025
20
-21.7737967765
30
0.0000000000
10
10.8073186645
20
-21.8860938494
30
0.0000000000
10
10.6658521001
20
-21.9582171671
30
0.0000000000
10
10.5609107306
20
-21.9748595961
30
0.0000000000
10
10.5087981167
20
-21.9749071372
30
0.0000000000
11
11.0087219643
21
-21.4755923698
31
0.0000000000
11
10.9841411372
21
-21.6298024308
31
0.0000000000
11
10.9130840750
21
-21.7689347420
31
0.0000000000
11
10.8024983179
21
-21.8793857675
31
0.0000000000
11
10.6631962884
21
-21.9503562578
31
0.0000000000
11
10.5087981167
21
-21.9749071372
31
0.0000000000
0
SPLINE
5
478
100
AcDbEntity
8
0
100
AcDbSpline
62
9
6
CONTINUOUS
70
0
71
3
72
13
73
9
74
7
42
0.0000001000
43
0.0000001000
44
0.0000000001
12
0.1577378029
22
-0.9435858985
32
0.0000000000
13
0.0003490202
23
-0.9566793822
33
0.0000000000
40
0.0000000000
40
0.0000000000
40
0.0000000000
40
0.0000000000
40
0.0448208408
40
0.1498261432
40
0.3086281187
40
0.5117190361
40
0.7469352638
40
1.0000000000
40
1.0000000000
40
1.0000000000
40
1.0000000000
10
-10.5087981167
20
21.9749071372
30
0.0000000000
10
-10.5064414697
20
21.9608096994
30
0.0000000000
10
-10.5072295647
20
21.9127248768
30
0.0000000000
10
-10.5036916604
20
21.8145848799
30
0.0000000000
10
-10.5030908201
20
21.6655686219
30
0.0000000000
10
-10.5015010824
20
21.4752101535
30
0.0000000000
10
-10.5008152536
20
21.2547198844
30
0.0000000000
10
-10.5005645041
20
21.0990148361
30
0.0000000000
10
-10.5005350625
20
21.0183142309
30
0.0000000000
11
-10.5087981167
21
21.9749071372
31
0.0000000000
11
-10.5066887591
21
21.9320798744
31
0.0000000000
11
-10.5047336849
21
21.8316424864
31
0.0000000000
11
-10.5030519635
21
21.6797292088
31
0.0000000000
11
-10.5017438026
21
21.4854407064
31
0.0000000000
11
-10.5008871714
21
21.2604158064
31
0.0000000000
11
-10.5005350625
21
21.0183142309
31
0.0000000000
0
SPLINE
5
479
100
AcDbEntity
8
0
100
AcDbSpline
62
9
6
CONTINUOUS
70
0
71
3
72
13
73
9
74
7
42
0.0000001000
43
0.0000001000
44
0.0000000001
12
0.1518283440
22
-0.4537411951
32
0.0000000000
13
0.0003498850
23
-0.4784692214
33
0.0000000000
40
0.0000000000
40
0.0000000000
40
0.0000000000
40
0.0000000000
40
0.0448720941
40
0.1499620513
40
0.3088769427
40
0.5121305404
40
0.7475203519
40
1.0000000000
40
1.0000000000
40
1.0000000000
40
1.0000000000
10
-11.0087219643
20
21.4755923698
30
0.0000000000
10
-11.0064510124
20
21.4688055973
30
0.0000000000
10
-11.0070644478
20
21.4443203345
30
0.0000000000
10
-11.0036664875
20
21.3955798760
30
0.0000000000
10
-11.0029931518
20
21.3208239670
30
0.0000000000
10
-11.0014301292
20
21.2256234781
30
0.0000000000
10
-11.0007361325
20
21.1153658418
30
0.0000000000
10
-11.0004883564
20
21.0375638302
30
0.0000000000
10
-11.0004589101
20
20.9972959167
30
0.0000000000
11
-11.0087219643
21
21.4755923698
31
0.0000000000
11
-11.0066154888
21
21.4542260342
31
0.0000000000
11
-11.0046585314
21
21.4039818070
31
0.0000000000
11
-11.0029751375
21
21.3279645393
31
0.0000000000
11
-11.0016659628
21
21.2307227350
31
0.0000000000
11
-11.0008096574
21
21.1180991804
31
0.0000000000
11
-11.0004589101
21
20.9972959167
31
0.0000000000
0
SPLINE
5
47A
100
AcDbEntity
8
0
100
AcDbSpline
62
9
6
CONTINUOUS
70
0
71
3
72
12
73
8
74
6
42
0.0000001000
43
0.0000001000
44
0.0000000001
12
-0.7813571085
22
-0.0007128051
32
0.0000000000
13
-0.0007145497
23
-0.7813571069
33
0.0000000000
40
0.0000000000
40
0.0000000000
40
0.0000000000
40
0.0000000000
40
0.2000879484
40
0.4001761228
40
0.6002085985
40
0.8001502331
40
1.0000000000
40
1.0000000000
40
1.0000000000
40
1.0000000000
10
-10.5087981167
20
21.9749071372
30
0.0000000000
10
-10.5609114970
20
21.9748595960
30
0.0000000000
10
-10.6658541434
20
21.9582167170
30
0.0000000000
10
-10.8073215017
20
21.8860919029
30
0.0000000000
10
-10.9197686772
20
21.7737938411
30
0.0000000000
10
-10.9920030345
20
21.6324882152
30
0.0000000000
10
-11.0086743634
20
21.5276437150
30
0.0000000000
10
-11.0087219643
20
21.4755923698
30
0.0000000000
11
-10.5087981167
21
21.9749071372
31
0.0000000000
11
-10.6631985021
21
21.9503555394
31
0.0000000000
11
-10.8025013793
21
21.8793835478
31
0.0000000000
11
-10.9130864355
21
21.7689315022
31
0.0000000000
11
-10.9841419991
21
21.6297997904
31
0.0000000000
11
-11.0087219643
21
21.4755923698
31
0.0000000000
0
SPLINE
5
47B
100
AcDbEntity
8
0
100
AcDbSpline
62
9
6
CONTINUOUS
70
0
71
3
72
10
73
6
74
4
42
0.0000001000
43
0.0000001000
44
0.0000000001
12
0.0308408133
22
-42.0366204979
32
0.0000000000
13
-0.0308408108
23
-42.0366204979
33
0.0000000000
40
0.0000000000
40
0.0000000000
40
0.0000000000
40
0.0000000000
40
0.3332896860
40
0.6667103140
40
1.0000000000
40
1.0000000000
40
1.0000000000
40
1.0000000000
10
-10.5005350625
20
21.0183142309
30
0.0000000000
10
-10.4971087542
20
16.3481902156
30
0.0000000000
10
-10.4925427185
20
7.0061055531
30
0.0000000000
10
-10.4925427181
20
-7.0061055523
30
0.0000000000
10
-10.4971087545
20
-16.3481902153
30
0.0000000000
10
-10.5005350625
20
-21.0183142309
30
0.0000000000
11
-10.5005350625
21
21.0183142309
31
0.0000000000
11
-10.4936846758
21
7.0079400892
31
0.0000000000
11
-10.4936846757
21
-7.0079400882
31
0.0000000000
11
-10.5005350625
21
-21.0183142309
31
0.0000000000
0
SPLINE
5
47C
100
AcDbEntity
8
0
100
AcDbSpline
62
9
6
CONTINUOUS
70
0
71
3
72
10
73
6
74
4
42
0.0000001000
43
0.0000001000
44
0.0000000001
12
0.0308408131
22
-41.9945838615
32
0.0000000000
13
-0.0308408106
23
-41.9945838615
33
0.0000000000
40
0.0000000000
40
0.0000000000
40
0.0000000000
40
0.0000000000
40
0.3332892101
40
0.6667109287
40
1.0000000000
40
1.0000000000
40
1.0000000000
40
1.0000000000
10
-11.0004589101
20
20.9972959167
30
0.0000000000
10
-10.9970326067
20
16.3318486893
30
0.0000000000
10
-10.9924665635
20
6.9990975058
30
0.0000000000
10
-10.9924665646
20
-6.9991013917
30
0.0000000000
10
-10.9970326084
20
-16.3318506322
30
0.0000000000
10
-11.0004589101
20
-20.9972959167
30
0.0000000000
11
-11.0004589101
21
20.9972959167
31
0.0000000000
11
-10.9936085283
21
7.0009521365
31
0.0000000000
11
-10.9936085296
21
-7.0009579653
31
0.0000000000
11
-11.0004589101
21
-20.9972959167
31
0.0000000000
0
SPLINE
5
47D
100
AcDbEntity
8
0
100
AcDbSpline
62
9
6
CONTINUOUS
70
0
71
3
72
12
73
8
74
6
42
0.0000001000
43
0.0000001000
44
0.0000000001
12
-0.5010580609
22
-0.0003673192
32
0.0000000000
13
-0.1919553163
23
-0.4628309323
33
0.0000000000
40
0.0000000000
40
0.0000000000
40
0.0000000000
40
0.0000000000
40
0.3050607102
40
0.5809725745
40
0.8013959844
40
0.9453902239
40
1.0000000000
40
1.0000000000
40
1.0000000000
40
1.0000000000
10
-10.5005350625
20
21.0183142305
30
0.0000000000
10
-10.5514861052
20
21.0182768789
30
0.0000000000
10
-10.6490214532
20
21.0180276728
30
0.0000000000
10
-10.7809060054
20
21.0135856071
30
0.0000000000
10
-10.8928023060
20
21.0137704023
30
0.0000000000
10
-10.9527896770
20
21.0005048015
30
0.0000000000
10
-10.9969646978
20
21.0057209479
30
0.0000000000
10
-11.0004589101
20
20.9972959167
30
0.0000000000
11
-10.5005350625
21
21.0183142305
31
0.0000000000
11
-10.6533841411
21
21.0171959985
31
0.0000000000
11
-10.7915989752
21
21.0141724692
31
0.0000000000
11
-10.9019464483
21
21.0095331264
31
0.0000000000
11
-10.9738615515
21
21.0037221554
31
0.0000000000
11
-11.0004589101
21
20.9972959167
31
0.0000000000
0
SPLINE
5
47E
100
AcDbEntity
8
0
100
AcDbSpline
62
9
6
CONTINUOUS
70
0
71
3
72
13
73
9
74
7
42
0.0000001000
43
0.0000001000
44
0.0000000001
12
-0.0003490200
22
-0.9566793822
32
0.0000000000
13
-0.1577378176
23
-0.9435858960
33
0.0000000000
40
0.0000000000
40
0.0000000000
40
0.0000000000
40
0.0000000000
40
0.2530647362
40
0.4882809639
40
0.6913718813
40
0.8501738568
40
0.9551791592
40
1.0000000000
40
1.0000000000
40
1.0000000000
40
1.0000000000
10
-10.5005350625
20
-21.0183142309
30
0.0000000000
10
-10.5005645041
20
-21.0990148361
30
0.0000000000
10
-10.5008152537
20
-21.2547198844
30
0.0000000000
10
-10.5015010823
20
-21.4752101535
30
0.0000000000
10
-10.5030908202
20
-21.6655686219
30
0.0000000000
10
-10.5036916603
20
-21.8145848800
30
0.0000000000
10
-10.5072295650
20
-21.9127248768
30
0.0000000000
10
-10.5064414695
20
-21.9608096995
30
0.0000000000
10
-10.5087981167
20
-21.9749071372
30
0.0000000000
11
-10.5005350625
21
-21.0183142309
31
0.0000000000
11
-10.5008871715
21
-21.2604158065
31
0.0000000000
11
-10.5017438025
21
-21.4854407064
31
0.0000000000
11
-10.5030519635
21
-21.6797292088
31
0.0000000000
11
-10.5047336849
21
-21.8316424864
31
0.0000000000
11
-10.5066887591
21
-21.9320798744
31
0.0000000000
11
-10.5087981167
21
-21.9749071372
31
0.0000000000
0
SPLINE
5
47F
100
AcDbEntity
8
0
100
AcDbSpline
62
9
6
CONTINUOUS
70
0
71
3
72
13
73
9
74
7
42
0.0000001000
43
0.0000001000
44
0.0000000001
12
-0.0003498847
22
-0.4784692214
32
0.0000000000
13
-0.1518282341
23
-0.4537412319
33
0.0000000000
40
0.0000000000
40
0.0000000000
40
0.0000000000
40
0.0000000000
40
0.2524796480
40
0.4878694598
40
0.6911230573
40
0.8500379483
40
0.9551279064
40
1.0000000000
40
1.0000000000
40
1.0000000000
40
1.0000000000
10
-11.0004589101
20
-20.9972959167
30
0.0000000000
10
-11.0004883564
20
-21.0375638302
30
0.0000000000
10
-11.0007361325
20
-21.1153658418
30
0.0000000000
10
-11.0014301293
20
-21.2256234781
30
0.0000000000
10
-11.0029931514
20
-21.3208239671
30
0.0000000000
10
-11.0036664885
20
-21.3955798757
30
0.0000000000
10
-11.0070644460
20
-21.4443203351
30
0.0000000000
10
-11.0064510140
20
-21.4688055968
30
0.0000000000
10
-11.0087219643
20
-21.4755923698
30
0.0000000000
11
-11.0004589101
21
-20.9972959167
31
0.0000000000
11
-11.0008096574
21
-21.1180991804
31
0.0000000000
11
-11.0016659628
21
-21.2307227352
31
0.0000000000
11
-11.0029751375
21
-21.3279645394
31
0.0000000000
11
-11.0046585314
21
-21.4039818068
31
0.0000000000
11
-11.0066154888
21
-21.4542260345
31
0.0000000000
11
-11.0087219643
21
-21.4755923698
31
0.0000000000
0
SPLINE
5
480
100
AcDbEntity
8
0
100
AcDbSpline
62
9
6
CONTINUOUS
70
0
71
3
72
12
73
8
74
6
42
0.0000001000
43
0.0000001000
44
0.0000000001
12
-0.5010578743
22
0.0003674018
32
0.0000000000
13
-0.1921898260
23
0.4627333997
33
0.0000000000
40
0.0000000000
40
0.0000000000
40
0.0000000000
40
0.0000000000
40
0.3050562610
40
0.5809650378
40
0.8013878226
40
0.9453845855
40
1.0000000000
40
1.0000000000
40
1.0000000000
40
1.0000000000
10
-10.5005350626
20
-21.0183132877
30
0.0000000000
10
-10.5514853431
20
-21.0182759283
30
0.0000000000
10
-10.6490189648
20
-21.0180266176
30
0.0000000000
10
-10.7809037669
20
-21.0135851280
30
0.0000000000
10
-10.8927956002
20
-21.0137689630
30
0.0000000000
10
-10.9527922360
20
-21.0005055030
30
0.0000000000
10
-10.9969600676
20
-21.0057200422
30
0.0000000000
10
-11.0004589100
20
-20.9972959167
30
0.0000000000
11
-10.5005350626
21
-21.0183132877
31
0.0000000000
11
-10.6533818551
21
-21.0171950877
31
0.0000000000
11
-10.7915950934
21
-21.0141716957
31
0.0000000000
11
-10.9019422211
21
-21.0095325749
31
0.0000000000
11
-10.9738585879
21
-21.0037218762
31
0.0000000000
11
-11.0004589100
21
-20.9972959167
31
0.0000000000
0
SPLINE
5
481
100
AcDbEntity
8
0
100
AcDbSpline
62
9
6
CONTINUOUS
70
0
71
3
72
12
73
8
74
6
42
0.0000001000
43
0.0000001000
44
0.0000000001
12
-0.7813571062
22
0.0007128138
32
0.0000000000
13
-0.0007145531
23
0.7813571046
33
0.0000000000
40
0.0000000000
40
0.0000000000
40
0.0000000000
40
0.0000000000
40
0.2000850064
40
0.4001713425
40
0.6002035309
40
0.8001467217
40
1.0000000000
40
1.0000000000
40
1.0000000000
40
1.0000000000
10
-10.5087981167
20
-21.9749071372
30
0.0000000000
10
-10.5609107306
20
-21.9748595961
30
0.0000000000
10
-10.6658521000
20
-21.9582171671
30
0.0000000000
10
-10.8073186644
20
-21.8860938495
30
0.0000000000
10
-10.9197666024
20
-21.7737967766
30
0.0000000000
10
-10.9920025187
20
-21.6324904868
30
0.0000000000
10
-11.0086743624
20
-21.5276446295
30
0.0000000000
10
-11.0087219643
20
-21.4755923698
30
0.0000000000
11
-10.5087981167
21
-21.9749071372
31
0.0000000000
11
-10.6631962883
21
-21.9503562579
31
0.0000000000
11
-10.8024983178
21
-21.8793857676
31
0.0000000000
11
-10.9130840749
21
-21.7689347421
31
0.0000000000
11
-10.9841411372
21
-21.6298024308
31
0.0000000000
11
-11.0087219643
21
-21.4755923698
31
0.0000000000
0
SPLINE
5
482
100
AcDbEntity
8
0
100
AcDbSpline
62
9
6
CONTINUOUS
70
0
71
3
72
13
73
9
74
7
42
0.0000001000
43
0.0000001000
44
0.0000000001
12
-0.1517233705
22
-0.4537763541
32
0.0000000000
13
-0.0003487208
23
-0.4784692666
33
0.0000000000
40
0.0000000000
40
0.0000000000
40
0.0000000000
40
0.0000000000
40
0.0447511791
40
0.1496617630
40
0.3084069250
40
0.5114254892
40
0.7467904150
40
1.0000000000
40
1.0000000000
40
1.0000000000
40
1.0000000000
10
11.0087219643
20
21.4755923698
30
0.0000000000
10
11.0064586977
20
21.4688233609
30
0.0000000000
10
11.0070626629
20
21.4443888059
30
0.0000000000
10
11.0036726327
20
21.3957214402
30
0.0000000000
10
11.0029962005
20
21.3210594969
30
0.0000000000
10
11.0014333211
20
21.2259272635
30
0.0000000000
10
11.0007370348
20
21.1155947071
30
0.0000000000
10
11.0004883433
20
21.0376802515
30
0.0000000000
10
11.0004589101
20
20.9972959167
30
0.0000000000
11
11.0087219643
21
21.4755923698
31
0.0000000000
11
11.0066187988
21
21.4542838406
31
0.0000000000
11
11.0046627389
21
21.4041254635
31
0.0000000000
11
11.0029790226
21
21.3281894262
31
0.0000000000
11
11.0016694038
21
21.2310600855
31
0.0000000000
11
11.0008114400
21
21.1184484404
31
0.0000000000
11
11.0004589101
21
20.9972959167
31
0.0000000000
0
SPLINE
5
483
100
AcDbEntity
8
0
100
AcDbSpline
62
9
6
CONTINUOUS
70
0
71
3
72
13
73
9
74
7
42
0.0000001000
43
0.0000001000
44
0.0000000001
12
-0.1577707702
22
-0.9435803750
32
0.0000000000
13
-0.0003449110
23
-0.9566793721
33
0.0000000000
40
0.0000000000
40
0.0000000000
40
0.0000000000
40
0.0000000000
40
0.0448247981
40
0.1498254833
40
0.3086663044
40
0.5117002731
40
0.7469689740
40
1.0000000000
40
1.0000000000
40
1.0000000000
40
1.0000000000
10
10.5087981167
20
21.9749071372
30
0.0000000000
10
10.5064407691
20
21.9608085373
30
0.0000000000
10
10.5072303684
20
21.9127237243
30
0.0000000000
10
10.5036915785
20
21.8145717156
30
0.0000000000
10
10.5030911067
20
21.6655626178
30
0.0000000000
10
10.5015012527
20
21.4751932123
30
0.0000000000
10
10.5008152484
20
21.2547151132
30
0.0000000000
10
10.5005641536
20
21.0990040853
30
0.0000000000
10
10.5005350625
20
21.0183142309
30
0.0000000000
11
10.5087981167
21
21.9749071372
31
0.0000000000
11
10.5066888073
21
21.9320760821
31
0.0000000000
11
10.5047341778
21
21.8316431047
31
0.0000000000
11
10.5030519894
21
21.6796926689
31
0.0000000000
11
10.5017441538
21
21.4854586496
31
0.0000000000
11
10.5008870654
21
21.2603835538
31
0.0000000000
11
10.5005350625
21
21.0183142309
31
0.0000000000
0
SPLINE
5
484
100
AcDbEntity
8
0
100
AcDbSpline
62
9
6
CONTINUOUS
70
0
71
3
72
12
73
8
74
6
42
0.0000001000
43
0.0000001000
44
0.0000000001
12
-0.0007145491
22
0.7813571074
32
0.0000000000
13
-0.7813571090
23
0.0007128017
33
0.0000000000
40
0.0000000000
40
0.0000000000
40
0.0000000000
40
0.0000000000
40
0.1998485957
40
0.3997897125
40
0.5998222854
40
0.7999110728
40
1.0000000000
40
1.0000000000
40
1.0000000000
40
1.0000000000
10
11.0087219643
20
21.4755923698
30
0.0000000000
10
11.0086743637
20
21.5276434101
30
0.0000000000
10
10.9920032064
20
21.6324874578
30
0.0000000000
10
10.9197693684
20
21.7737928627
30
0.0000000000
10
10.8073224464
20
21.8860912544
30
0.0000000000
10
10.6658548235
20
21.9582165671
30
0.0000000000
10
10.5609117519
20
21.9748595957
30
0.0000000000
10
10.5087981166
20
21.9749071370
30
0.0000000000
11
11.0087219643
21
21.4755923698
31
0.0000000000
11
10.9841422864
21
21.6297989096
31
0.0000000000
11
10.9130872219
21
21.7689304222
31
0.0000000000
11
10.8025023986
21
21.8793828084
31
0.0000000000
11
10.6631992385
21
21.9503553003
31
0.0000000000
11
10.5087981166
21
21.9749071370
31
0.0000000000
0
SPLINE
5
485
100
AcDbEntity
8
0
100
AcDbSpline
62
9
6
CONTINUOUS
70
0
71
3
72
10
73
6
74
4
42
0.0000001000
43
0.0000001000
44
0.0000000001
12
-0.0308407996
22
-41.9945838615
32
0.0000000000
13
0.0308408117
23
-41.9945838615
33
0.0000000000
40
0.0000000000
40
0.0000000000
40
0.0000000000
40
0.0000000000
40
0.3332886949
40
0.6667106342
40
1.0000000000
40
1.0000000000
40
1.0000000000
40
1.0000000000
10
11.0004589101
20
20.9972959167
30
0.0000000000
10
10.9970326135
20
16.3318559010
30
0.0000000000
10
10.9924665659
20
6.9991088405
30
0.0000000000
10
10.9924665607
20
-6.9990900570
30
0.0000000000
10
10.9970326052
20
-16.3318465093
30
0.0000000000
10
11.0004589101
20
-20.9972959167
30
0.0000000000
11
11.0004589101
21
20.9972959167
31
0.0000000000
11
10.9936085333
21
7.0009737718
31
0.0000000000
11
10.9936085267
21
-7.0009455965
31
0.0000000000
11
11.0004589101
21
-20.9972959167
31
0.0000000000
0
SPLINE
5
486
100
AcDbEntity
8
0
100
AcDbSpline
62
9
6
CONTINUOUS
70
0
71
3
72
10
73
6
74
4
42
0.0000001000
43
0.0000001000
44
0.0000000001
12
-0.0308407997
22
-42.0366204979
32
0.0000000000
13
0.0308408119
23
-42.0366204979
33
0.0000000000
40
0.0000000000
40
0.0000000000
40
0.0000000000
40
0.0000000000
40
0.3332896861
40
0.6667103140
40
1.0000000000
40
1.0000000000
40
1.0000000000
40
1.0000000000
10
10.5005350625
20
21.0183142309
30
0.0000000000
10
10.4971087557
20
16.3481902144
30
0.0000000000
10
10.4925427171
20
7.0061055509
30
0.0000000000
10
10.4925427189
20
-7.0061055545
30
0.0000000000
10
10.4971087544
20
-16.3481902162
30
0.0000000000
10
10.5005350625
20
-21.0183142309
30
0.0000000000
11
10.5005350625
21
21.0183142309
31
0.0000000000
11
10.4936846755
21
7.0079400855
31
0.0000000000
11
10.4936846759
21
-7.0079400908
31
0.0000000000
11
10.5005350625
21
-21.0183142309
31
0.0000000000
0
SPLINE
5
487
100
AcDbEntity
8
0
100
AcDbSpline
62
9
6
CONTINUOUS
70
0
71
3
72
12
73
8
74
6
42
0.0000001000
43
0.0000001000
44
0.0000000001
12
-0.1919554566
22
0.4628308739
32
0.0000000000
13
-0.5010580608
23
0.0003673235
33
0.0000000000
40
0.0000000000
40
0.0000000000
40
0.0000000000
40
0.0000000000
40
0.0546097796
40
0.1986040208
40
0.4190274305
40
0.6949392928
40
1.0000000000
40
1.0000000000
40
1.0000000000
40
1.0000000000
10
11.0004589101
20
20.9972959167
30
0.0000000000
10
10.9969646951
20
21.0057209473
30
0.0000000000
10
10.9527896784
20
21.0005048020
30
0.0000000000
10
10.8928023018
20
21.0137704013
30
0.0000000000
10
10.7809060038
20
21.0135856065
30
0.0000000000
10
10.6490214516
20
21.0180276713
30
0.0000000000
10
10.5514861046
20
21.0182768782
30
0.0000000000
10
10.5005350625
20
21.0183142301
30
0.0000000000
11
11.0004589101
21
20.9972959167
31
0.0000000000
11
10.9738615497
21
21.0037221553
31
0.0000000000
11
10.9019464456
21
21.0095331260
31
0.0000000000
11
10.7915989726
21
21.0141724684
31
0.0000000000
11
10.6533841395
21
21.0171959974
31
0.0000000000
11
10.5005350625
21
21.0183142301
31
0.0000000000
0
SPLINE
5
488
100
AcDbEntity
8
0
100
AcDbSpline
62
9
6
CONTINUOUS
70
0
71
3
72
13
73
9
74
7
42
0.0000001000
43
0.0000001000
44
0.0000000001
12
0.0003487206
22
-0.4784692666
32
0.0000000000
13
0.1517232156
23
-0.4537764059
33
0.0000000000
40
0.0000000000
40
0.0000000000
40
0.0000000000
40
0.0000000000
40
0.2532095848
40
0.4885745110
40
0.6915930751
40
0.8503382364
40
0.9552488215
40
1.0000000000
40
1.0000000000
40
1.0000000000
40
1.0000000000
10
11.0004589101
20
-20.9972959167
30
0.0000000000
10
11.0004883432
20
-21.0376802515
30
0.0000000000
10
11.0007370348
20
-21.1155947072
30
0.0000000000
10
11.0014333213
20
-21.2259272635
30
0.0000000000
10
11.0029961999
20
-21.3210594970
30
0.0000000000
10
11.0036726342
20
-21.3957214398
30
0.0000000000
10
11.0070626603
20
-21.4443888068
30
0.0000000000
10
11.0064587001
20
-21.4688233602
30
0.0000000000
10
11.0087219643
20
-21.4755923698
30
0.0000000000
11
11.0004589101
21
-20.9972959167
31
0.0000000000
11
11.0008114400
21
-21.1184484403
31
0.0000000000
11
11.0016694038
21
-21.2310600856
31
0.0000000000
11
11.0029790226
21
-21.3281894263
31
0.0000000000
11
11.0046627389
21
-21.4041254633
31
0.0000000000
11
11.0066187988
21
-21.4542838409
31
0.0000000000
11
11.0087219643
21
-21.4755923698
31
0.0000000000
0
SPLINE
5
489
100
AcDbEntity
8
0
100
AcDbSpline
62
9
6
CONTINUOUS
70
0
71
3
72
13
73
9
74
7
42
0.0000001000
43
0.0000001000
44
0.0000000001
12
0.0003449115
22
-0.9566793721
32
0.0000000000
13
0.1577707732
23
-0.9435803745
33
0.0000000000
40
0.0000000000
40
0.0000000000
40
0.0000000000
40
0.0000000000
40
0.2530310260
40
0.4882997269
40
0.6913336956
40
0.8501745167
40
0.9551752019
40
1.0000000000
40
1.0000000000
40
1.0000000000
40
1.0000000000
10
10.5005350625
20
-21.0183142309
30
0.0000000000
10
10.5005641536
20
-21.0990040853
30
0.0000000000
10
10.5008152485
20
-21.2547151132
30
0.0000000000
10
10.5015012526
20
-21.4751932123
30
0.0000000000
10
10.5030911067
20
-21.6655626178
30
0.0000000000
10
10.5036915785
20
-21.8145717156
30
0.0000000000
10
10.5072303685
20
-21.9127237243
30
0.0000000000
10
10.5064407690
20
-21.9608085373
30
0.0000000000
10
10.5087981167
20
-21.9749071372
30
0.0000000000
11
10.5005350625
21
-21.0183142309
31
0.0000000000
11
10.5008870654
21
-21.2603835538
31
0.0000000000
11
10.5017441538
21
-21.4854586496
31
0.0000000000
11
10.5030519894
21
-21.6796926689
31
0.0000000000
11
10.5047341778
21
-21.8316431047
31
0.0000000000
11
10.5066888073
21
-21.9320760821
31
0.0000000000
11
10.5087981167
21
-21.9749071372
31
0.0000000000
0
SPLINE
5
48A
100
AcDbEntity
8
0
100
AcDbSpline
62
9
6
CONTINUOUS
70
0
71
3
72
12
73
8
74
6
42
0.0000001000
43
0.0000001000
44
0.0000000001
12
-0.1920144796
22
-0.4628063375
32
0.0000000000
13
-0.5010580120
23
-0.0003673725
33
0.0000000000
40
0.0000000000
40
0.0000000000
40
0.0000000000
40
0.0000000000
40
0.0546111894
40
0.1986060630
40
0.4190293170
40
0.6949404067
40
1.0000000000
40
1.0000000000
40
1.0000000000
40
1.0000000000
10
11.0004589101
20
-20.9972959167
30
0.0000000000
10
10.9969635304
20
-21.0057207182
30
0.0000000000
10
10.9527903228
20
-21.0005049635
30
0.0000000000
10
10.8928006189
20
-21.0137700305
30
0.0000000000
10
10.7809054436
20
-21.0135854735
30
0.0000000000
10
10.6490208276
20
-21.0180273997
30
0.0000000000
10
10.5514859137
20
-21.0182766372
30
0.0000000000
10
10.5005350625
20
-21.0183139940
30
0.0000000000
11
11.0004589101
21
-20.9972959167
31
0.0000000000
11
10.9738608069
21
-21.0037220776
31
0.0000000000
11
10.9019453861
21
-21.0095329760
31
0.0000000000
11
10.7915979997
21
-21.0141722630
31
0.0000000000
11
10.6533835666
21
-21.0171957618
31
0.0000000000
11
10.5005350625
21
-21.0183139940
31
0.0000000000
0
SPLINE
5
48B
100
AcDbEntity
8
0
100
AcDbSpline
62
9
6
CONTINUOUS
70
0
71
3
72
13
73
9
74
7
42
0.0000001000
43
0.0000001000
44
0.0000000001
12
-0.7353260965
22
-0.0383875882
32
0.0000000000
13
-0.0307181493
23
-0.7356863941
33
0.0000000000
40
0.0000000000
40
0.0000000000
40
0.0000000000
40
0.0000000000
40
0.1661760139
40
0.3329167328
40
0.4996404914
40
0.6663226984
40
0.8331932491
40
1.0000000000
40
1.0000000000
40
1.0000000000
40
1.0000000000
10
-69.6879975928
20
21.4755923698
30
0.0000000000
10
-69.7287287794
20
21.4734660044
30
0.0000000000
10
-69.8101524223
20
21.4590758242
30
0.0000000000
10
-69.9231580943
20
21.4084670293
30
0.0000000000
10
-70.0206125943
20
21.3317731277
30
0.0000000000
10
-70.0964294156
20
21.2335934973
30
0.0000000000
10
-70.1460534777
20
21.1199569645
30
0.0000000000
10
-70.1596796516
20
21.0382017357
30
0.0000000000
10
-70.1613876499
20
20.9972959167
30
0.0000000000
11
-69.6879975928
21
21.4755923698
31
0.0000000000
11
-69.8084878641
21
21.4542838406
31
0.0000000000
11
-69.9205504602
21
21.4041254635
31
0.0000000000
11
-70.0170105042
21
21.3281894262
31
0.0000000000
11
-70.0920385118
21
21.2310600855
31
0.0000000000
11
-70.1411912245
21
21.1184484404
31
0.0000000000
11
-70.1613876499
21
20.9972959167
31
0.0000000000
0
SPLINE
5
48C
100
AcDbEntity
8
0
100
AcDbSpline
62
9
6
CONTINUOUS
70
0
71
3
72
12
73
8
74
6
42
0.0000001000
43
0.0000001000
44
0.0000000001
12
-0.0261470918
22
0.4990710030
32
0.0000000000
13
0.4990705792
23
0.0261551808
33
0.0000000000
40
0.0000000000
40
0.0000000000
40
0.0000000000
40
0.0000000000
40
0.3089436939
40
0.5876060637
40
0.8087537240
40
0.9507915428
40
1.0000000000
40
1.0000000000
40
1.0000000000
40
1.0000000000
10
-69.6879975928
20
21.4755923698
30
0.0000000000
10
-69.6906902526
20
21.5269873162
30
0.0000000000
10
-69.6963463877
20
21.6256520607
30
0.0000000000
10
-69.6992133094
20
21.7567809177
30
0.0000000000
10
-69.7109252844
20
21.8725158007
30
0.0000000000
10
-69.6975974866
20
21.9242212339
30
0.0000000000
10
-69.7136255367
20
21.9744781183
30
0.0000000000
10
-69.7054393723
20
21.9749071370
30
0.0000000000
11
-69.6879975928
21
21.4755923698
31
0.0000000000
11
-69.6956501389
21
21.6297989096
31
0.0000000000
11
-69.7017014236
21
21.7689304222
31
0.0000000000
11
-69.7055597244
21
21.8793828084
31
0.0000000000
11
-69.7068477106
21
21.9503553003
31
0.0000000000
11
-69.7054393723
21
21.9749071370
31
0.0000000000
0
SPLINE
5
48D
100
AcDbEntity
8
0
100
AcDbSpline
62
9
6
CONTINUOUS
70
0
71
3
72
10
73
6
74
4
42
0.0000001000
43
0.0000001000
44
0.0000000001
12
-1.7657692813
22
-41.9684644010
32
0.0000000000
13
1.7657699770
23
-41.9684643717
33
0.0000000000
40
0.0000000000
40
0.0000000000
40
0.0000000000
40
0.0000000000
40
0.3333323477
40
0.6666669816
40
1.0000000000
40
1.0000000000
40
1.0000000000
40
1.0000000000
10
-70.1613876499
20
20.9972959167
30
0.0000000000
10
-70.3575836565
20
16.3341469940
30
0.0000000000
10
-70.6192666157
20
7.0017671651
30
0.0000000000
10
-70.6192669124
20
-7.0017483769
30
0.0000000000
10
-70.3575841286
20
-16.3341376140
30
0.0000000000
10
-70.1613876499
20
-20.9972959167
30
0.0000000000
11
-70.1613876499
21
20.9972959167
31
0.0000000000
11
-70.5538454767
21
7.0009737718
31
0.0000000000
11
-70.5538458499
21
-7.0009455965
31
0.0000000000
11
-70.1613876499
21
-20.9972959167
31
0.0000000000
0
SPLINE
5
48E
100
AcDbEntity
8
0
100
AcDbSpline
62
9
6
CONTINUOUS
70
0
71
3
72
13
73
9
74
7
42
0.0000001000
43
0.0000001000
44
0.0000000001
12
0.0307181302
22
-0.7356863949
32
0.0000000000
13
0.7353260943
23
-0.0383876317
33
0.0000000000
40
0.0000000000
40
0.0000000000
40
0.0000000000
40
0.0000000000
40
0.1668067509
40
0.3336773015
40
0.5003595086
40
0.6670832671
40
0.8338239861
40
1.0000000000
40
1.0000000000
40
1.0000000000
40
1.0000000000
10
-70.1613876499
20
-20.9972959167
30
0.0000000000
10
-70.1596796527
20
-21.0382017358
30
0.0000000000
10
-70.1460534767
20
-21.1199569644
30
0.0000000000
10
-70.0964294161
20
-21.2335934974
30
0.0000000000
10
-70.0206125943
20
-21.3317731280
30
0.0000000000
10
-69.9231580940
20
-21.4084670284
30
0.0000000000
10
-69.8101524226
20
-21.4590758260
30
0.0000000000
10
-69.7287287793
20
-21.4734660020
30
0.0000000000
10
-69.6879975928
20
-21.4755923698
30
0.0000000000
11
-70.1613876499
21
-20.9972959167
31
0.0000000000
11
-70.1411912242
21
-21.1184484403
31
0.0000000000
11
-70.0920385120
21
-21.2310600856
31
0.0000000000
11
-70.0170105043
21
-21.3281894263
31
0.0000000000
11
-69.9205504600
21
-21.4041254633
31
0.0000000000
11
-69.8084878642
21
-21.4542838409
31
0.0000000000
11
-69.6879975928
21
-21.4755923698
31
0.0000000000
0
SPLINE
5
48F
100
AcDbEntity
8
0
100
AcDbSpline
62
9
6
CONTINUOUS
70
0
71
3
72
12
73
8
74
6
42
0.0000001000
43
0.0000001000
44
0.0000000001
12
-0.0261472363
22
-0.4990710015
32
0.0000000000
13
0.4990705852
23
-0.0261551811
33
0.0000000000
40
0.0000000000
40
0.0000000000
40
0.0000000000
40
0.0000000000
40
0.3089507471
40
0.5876147125
40
0.8087596427
40
0.9507934516
40
1.0000000000
40
1.0000000000
40
1.0000000000
40
1.0000000000
10
-69.6879975928
20
-21.4755923698
30
0.0000000000
10
-69.6906903289
20
-21.5269884894
30
0.0000000000
10
-69.6963465768
20
-21.6256547081
30
0.0000000000
10
-69.6992135022
20
-21.7567844814
30
0.0000000000
10
-69.7109253215
20
-21.8725184815
30
0.0000000000
10
-69.6975978965
20
-21.9242228489
30
0.0000000000
10
-69.7136252147
20
-21.9744781352
30
0.0000000000
10
-69.7054393677
20
-21.9749071372
30
0.0000000000
11
-69.6879975928
21
-21.4755923698
31
0.0000000000
11
-69.6956503399
21
-21.6298024308
31
0.0000000000
11
-69.7017016502
21
-21.7689347420
31
0.0000000000
11
-69.7055598624
21
-21.8793857675
31
0.0000000000
11
-69.7068477428
21
-21.9503562578
31
0.0000000000
11
-69.7054393677
21
-21.9749071372
31
0.0000000000
0
SPLINE
5
490
100
AcDbEntity
8
0
100
AcDbSpline
62
7
6
CONTINUOUS
70
0
71
3
72
15
73
11
74
9
42
0.0000001000
43
0.0000001000
44
0.0000000001
12
-2.3281553722
22
-0.0203175041
32
0.0000000000
13
2.3281553722
23
-0.0203175041
33
0.0000000000
40
0.0000000000
40
0.0000000000
40
0.0000000000
40
0.0000000000
40
0.1250000000
40
0.2500000000
40
0.3750000000
40
0.5000000000
40
0.6250000000
40
0.7500000000
40
0.8750000000
40
1.0000000000
40
1.0000000000
40
1.0000000000
40
1.0000000000
10
-49.3507292494
20
-14.2500285577
30
0.0000000000
10
-49.4477357233
20
-14.2508751204
30
0.0000000000
10
-49.6435121752
20
-14.2911980215
30
0.0000000000
10
-49.8904587544
20
-14.4583962708
30
0.0000000000
10
-50.0555930846
20
-14.7071506352
30
0.0000000000
10
-50.1134799795
20
-15.0000000000
30
0.0000000000
10
-50.0555930846
20
-15.2928493648
30
0.0000000000
10
-49.8904587544
20
-15.5416037292
30
0.0000000000
10
-49.6435121752
20
-15.7088019785
30
0.0000000000
10
-49.4477357233
20
-15.7491248796
30
0.0000000000
10
-49.3507292494
20
-15.7499714423
30
0.0000000000
11
-49.3507292494
21
-14.2500285577
31
0.0000000000
11
-49.6357258254
21
-14.3089836711
31
0.0000000000
11
-49.8768233795
21
-14.4719889567
31
0.0000000000
11
-50.0377185120
21
-14.7144998019
31
0.0000000000
11
-50.0941843478
21
-15.0000000000
31
0.0000000000
11
-50.0377185120
21
-15.2855001981
31
0.0000000000
11
-49.8768233795
21
-15.5280110433
31
0.0000000000
11
-49.6357258254
21
-15.6910163289
31
0.0000000000
11
-49.3507292494
21
-15.7499714423
31
0.0000000000
0
SPLINE
5
491
100
AcDbEntity
8
0
100
AcDbSpline
62
7
6
CONTINUOUS
70
0
71
3
72
15
73
11
74
9
42
0.0000001000
43
0.0000001000
44
0.0000000001
12
-2.3281553722
22
-0.0203175041
32
0.0000000000
13
2.3281553722
23
-0.0203175041
33
0.0000000000
40
0.0000000000
40
0.0000000000
40
0.0000000000
40
0.0000000000
40
0.1250000000
40
0.2500000000
40
0.3750000000
40
0.5000000000
40
0.6250000000
40
0.7500000000
40
0.8750000000
40
1.0000000000
40
1.0000000000
40
1.0000000000
40
1.0000000000
10
-49.3507292494
20
15.7499714423
30
0.0000000000
10
-49.4477357233
20
15.7491248796
30
0.0000000000
10
-49.6435121752
20
15.7088019785
30
0.0000000000
10
-49.8904587544
20
15.5416037292
30
0.0000000000
10
-50.0555930846
20
15.2928493648
30
0.0000000000
10
-50.1134799795
20
15.0000000000
30
0.0000000000
10
-50.0555930846
20
14.7071506352
30
0.0000000000
10
-49.8904587544
20
14.4583962708
30
0.0000000000
10
-49.6435121752
20
14.2911980215
30
0.0000000000
10
-49.4477357233
20
14.2508751204
30
0.0000000000
10
-49.3507292494
20
14.2500285577
30
0.0000000000
11
-49.3507292494
21
15.7499714423
31
0.0000000000
11
-49.6357258254
21
15.6910163289
31
0.0000000000
11
-49.8768233795
21
15.5280110433
31
0.0000000000
11
-50.0377185120
21
15.2855001981
31
0.0000000000
11
-50.0941843478
21
15.0000000000
31
0.0000000000
11
-50.0377185120
21
14.7144998019
31
0.0000000000
11
-49.8768233795
21
14.4719889567
31
0.0000000000
11
-49.6357258254
21
14.3089836711
31
0.0000000000
11
-49.3507292494
21
14.2500285577
31
0.0000000000
0
SPLINE
5
492
100
AcDbEntity
8
0
100
AcDbSpline
62
7
6
CONTINUOUS
70
0
71
3
72
15
73
11
74
9
42
0.0000001000
43
0.0000001000
44
0.0000000001
12
-2.3281553722
22
-0.0203175041
32
0.0000000000
13
2.3281553722
23
-0.0203175041
33
0.0000000000
40
0.0000000000
40
0.0000000000
40
0.0000000000
40
0.0000000000
40
0.1250000000
40
0.2500000000
40
0.3750000000
40
0.5000000000
40
0.6250000000
40
0.7500000000
40
0.8750000000
40
1.0000000000
40
1.0000000000
40
1.0000000000
40
1.0000000000
10
-49.3507292494
20
10.7499714423
30
0.0000000000
10
-49.4477357233
20
10.7491248796
30
0.0000000000
10
-49.6435121752
20
10.7088019785
30
0.0000000000
10
-49.8904587544
20
10.5416037292
30
0.0000000000
10
-50.0555930846
20
10.2928493648
30
0.0000000000
10
-50.1134799795
20
10.0000000000
30
0.0000000000
10
-50.0555930846
20
9.7071506352
30
0.0000000000
10
-49.8904587544
20
9.4583962708
30
0.0000000000
10
-49.6435121752
20
9.2911980215
30
0.0000000000
10
-49.4477357233
20
9.2508751204
30
0.0000000000
10
-49.3507292494
20
9.2500285577
30
0.0000000000
11
-49.3507292494
21
10.7499714423
31
0.0000000000
11
-49.6357258254
21
10.6910163289
31
0.0000000000
11
-49.8768233795
21
10.5280110433
31
0.0000000000
11
-50.0377185120
21
10.2855001981
31
0.0000000000
11
-50.0941843478
21
10.0000000000
31
0.0000000000
11
-50.0377185120
21
9.7144998019
31
0.0000000000
11
-49.8768233795
21
9.4719889567
31
0.0000000000
11
-49.6357258254
21
9.3089836711
31
0.0000000000
11
-49.3507292494
21
9.2500285577
31
0.0000000000
0
SPLINE
5
493
100
AcDbEntity
8
0
100
AcDbSpline
62
7
6
CONTINUOUS
70
0
71
3
72
15
73
11
74
9
42
0.0000001000
43
0.0000001000
44
0.0000000001
12
-2.3281553722
22
-0.0203175041
32
0.0000000000
13
2.3281553722
23
-0.0203175041
33
0.0000000000
40
0.0000000000
40
0.0000000000
40
0.0000000000
40
0.0000000000
40
0.1250000000
40
0.2500000000
40
0.3750000000
40
0.5000000000
40
0.6250000000
40
0.7500000000
40
0.8750000000
40
1.0000000000
40
1.0000000000
40
1.0000000000
40
1.0000000000
10
-49.3507292494
20
5.7499714423
30
0.0000000000
10
-49.4477357233
20
5.7491248796
30
0.0000000000
10
-49.6435121752
20
5.7088019785
30
0.0000000000
10
-49.8904587544
20
5.5416037292
30
0.0000000000
10
-50.0555930846
20
5.2928493648
30
0.0000000000
10
-50.1134799795
20
5.0000000000
30
0.0000000000
10
-50.0555930846
20
4.7071506352
30
0.0000000000
10
-49.8904587544
20
4.4583962708
30
0.0000000000
10
-49.6435121752
20
4.2911980215
30
0.0000000000
10
-49.4477357233
20
4.2508751204
30
0.0000000000
10
-49.3507292494
20
4.2500285577
30
0.0000000000
11
-49.3507292494
21
5.7499714423
31
0.0000000000
11
-49.6357258254
21
5.6910163289
31
0.0000000000
11
-49.8768233795
21
5.5280110433
31
0.0000000000
11
-50.0377185120
21
5.2855001981
31
0.0000000000
11
-50.0941843478
21
5.0000000000
31
0.0000000000
11
-50.0377185120
21
4.7144998019
31
0.0000000000
11
-49.8768233795
21
4.4719889567
31
0.0000000000
11
-49.6357258254
21
4.3089836711
31
0.0000000000
11
-49.3507292494
21
4.2500285577
31
0.0000000000
0
SPLINE
5
494
100
AcDbEntity
8
0
100
AcDbSpline
62
7
6
CONTINUOUS
70
0
71
3
72
15
73
11
74
9
42
0.0000001000
43
0.0000001000
44
0.0000000001
12
-2.3281553722
22
-0.0203175041
32
0.0000000000
13
2.3281553722
23
-0.0203175041
33
0.0000000000
40
0.0000000000
40
0.0000000000
40
0.0000000000
40
0.0000000000
40
0.1250000000
40
0.2500000000
40
0.3750000000
40
0.5000000000
40
0.6250000000
40
0.7500000000
40
0.8750000000
40
1.0000000000
40
1.0000000000
40
1.0000000000
40
1.0000000000
10
-49.3507292494
20
0.7499714423
30
0.0000000000
10
-49.4477357233
20
0.7491248796
30
0.0000000000
10
-49.6435121752
20
0.7088019785
30
0.0000000000
10
-49.8904587544
20
0.5416037292
30
0.0000000000
10
-50.0555930846
20
0.2928493648
30
0.0000000000
10
-50.1134799795
20
-0.0000000000
30
0.0000000000
10
-50.0555930846
20
-0.2928493648
30
0.0000000000
10
-49.8904587544
20
-0.5416037292
30
0.0000000000
10
-49.6435121752
20
-0.7088019785
30
0.0000000000
10
-49.4477357233
20
-0.7491248796
30
0.0000000000
10
-49.3507292494
20
-0.7499714423
30
0.0000000000
11
-49.3507292494
21
0.7499714423
31
0.0000000000
11
-49.6357258254
21
0.6910163289
31
0.0000000000
11
-49.8768233795
21
0.5280110433
31
0.0000000000
11
-50.0377185120
21
0.2855001981
31
0.0000000000
11
-50.0941843478
21
-0.0000000000
31
0.0000000000
11
-50.0377185120
21
-0.2855001981
31
0.0000000000
11
-49.8768233795
21
-0.5280110433
31
0.0000000000
11
-49.6357258254
21
-0.6910163289
31
0.0000000000
11
-49.3507292494
21
-0.7499714423
31
0.0000000000
0
SPLINE
5
495
100
AcDbEntity
8
0
100
AcDbSpline
62
7
6
CONTINUOUS
70
0
71
3
72
15
73
11
74
9
42
0.0000001000
43
0.0000001000
44
0.0000000001
12
-2.3281553722
22
-0.0203175041
32
0.0000000000
13
2.3281553722
23
-0.0203175041
33
0.0000000000
40
0.0000000000
40
0.0000000000
40
0.0000000000
40
0.0000000000
40
0.1250000000
40
0.2500000000
40
0.3750000000
40
0.5000000000
40
0.6250000000
40
0.7500000000
40
0.8750000000
40
1.0000000000
40
1.0000000000
40
1.0000000000
40
1.0000000000
10
-49.3507292494
20
-4.2500285577
30
0.0000000000
10
-49.4477357233
20
-4.2508751204
30
0.0000000000
10
-49.6435121752
20
-4.2911980215
30
0.0000000000
10
-49.8904587544
20
-4.4583962708
30
0.0000000000
10
-50.0555930846
20
-4.7071506352
30
0.0000000000
10
-50.1134799795
20
-5.0000000000
30
0.0000000000
10
-50.0555930846
20
-5.2928493648
30
0.0000000000
10
-49.8904587544
20
-5.5416037292
30
0.0000000000
10
-49.6435121752
20
-5.7088019785
30
0.0000000000
10
-49.4477357233
20
-5.7491248796
30
0.0000000000
10
-49.3507292494
20
-5.7499714423
30
0.0000000000
11
-49.3507292494
21
-4.2500285577
31
0.0000000000
11
-49.6357258254
21
-4.3089836711
31
0.0000000000
11
-49.8768233795
21
-4.4719889567
31
0.0000000000
11
-50.0377185120
21
-4.7144998019
31
0.0000000000
11
-50.0941843478
21
-5.0000000000
31
0.0000000000
11
-50.0377185120
21
-5.2855001981
31
0.0000000000
11
-49.8768233795
21
-5.5280110433
31
0.0000000000
11
-49.6357258254
21
-5.6910163289
31
0.0000000000
11
-49.3507292494
21
-5.7499714423
31
0.0000000000
0
SPLINE
5
496
100
AcDbEntity
8
0
100
AcDbSpline
62
7
6
CONTINUOUS
70
0
71
3
72
15
73
11
74
9
42
0.0000001000
43
0.0000001000
44
0.0000000001
12
-2.3281553722
22
-0.0203175041
32
0.0000000000
13
2.3281553722
23
-0.0203175041
33
0.0000000000
40
0.0000000000
40
0.0000000000
40
0.0000000000
40
0.0000000000
40
0.1250000000
40
0.2500000000
40
0.3750000000
40
0.5000000000
40
0.6250000000
40
0.7500000000
40
0.8750000000
40
1.0000000000
40
1.0000000000
40
1.0000000000
40
1.0000000000
10
-49.3507292494
20
-9.2500285577
30
0.0000000000
10
-49.4477357233
20
-9.2508751204
30
0.0000000000
10
-49.6435121752
20
-9.2911980215
30
0.0000000000
10
-49.8904587544
20
-9.4583962708
30
0.0000000000
10
-50.0555930846
20
-9.7071506352
30
0.0000000000
10
-50.1134799795
20
-10.0000000000
30
0.0000000000
10
-50.0555930846
20
-10.2928493648
30
0.0000000000
10
-49.8904587544
20
-10.5416037292
30
0.0000000000
10
-49.6435121752
20
-10.7088019785
30
0.0000000000
10
-49.4477357233
20
-10.7491248796
30
0.0000000000
10
-49.3507292494
20
-10.7499714423
30
0.0000000000
11
-49.3507292494
21
-9.2500285577
31
0.0000000000
11
-49.6357258254
21
-9.3089836711
31
0.0000000000
11
-49.8768233795
21
-9.4719889567
31
0.0000000000
11
-50.0377185120
21
-9.7144998019
31
0.0000000000
11
-50.0941843478
21
-10.0000000000
31
0.0000000000
11
-50.0377185120
21
-10.2855001981
31
0.0000000000
11
-49.8768233795
21
-10.5280110433
31
0.0000000000
11
-49.6357258254
21
-10.6910163289
31
0.0000000000
11
-49.3507292494
21
-10.7499714423
31
0.0000000000
0
SPLINE
5
497
100
AcDbEntity
8
0
100
AcDbSpline
62
9
6
CONTINUOUS
70
0
71
3
72
10
73
6
74
4
42
0.0000001000
43
0.0000001000
44
0.0000000001
12
-3.9999999803
22
-0.0702534154
32
0.0000000000
13
-4.0000000196
23
-0.0702511788
33
0.0000000000
40
0.0000000000
40
0.0000000000
40
0.0000000000
40
0.0000000000
40
0.3334720350
40
0.6668053684
40
1.0000000000
40
1.0000000000
40
1.0000000000
40
1.0000000000
10
-57.5941843478
20
-23.2631073618
30
0.0000000000
10
-58.0388137257
20
-23.2709165449
30
0.0000000000
10
-58.9278875472
20
-23.2865315799
30
0.0000000000
10
-60.2612208806
20
-23.3099490114
30
0.0000000000
10
-61.1499248368
20
-23.3255572189
30
0.0000000000
10
-61.5941843478
20
-23.3333596575
30
0.0000000000
11
-57.5941843478
21
-23.2631073618
31
0.0000000000
11
-58.9280724835
21
-23.2865347865
31
0.0000000000
11
-60.2614058169
21
-23.3099522181
31
0.0000000000
11
-61.5941843478
21
-23.3333596575
31
0.0000000000
0
SPLINE
5
498
100
AcDbEntity
8
0
100
AcDbSpline
62
7
6
CONTINUOUS
70
0
71
3
72
18
73
14
74
12
42
0.0000001000
43
0.0000001000
44
0.0000000001
12
-3.3564844719
22
-0.0214439721
32
0.0000000000
13
3.3564844719
23
-0.0214439721
33
0.0000000000
40
0.0000000000
40
0.0000000000
40
0.0000000000
40
0.0000000000
40
0.0918570266
40
0.1830246735
40
0.2737183275
40
0.3646291458
40
0.4544405133
40
0.5456951390
40
0.6355065078
40
0.7264173201
40
0.8171109730
40
0.9082786159
40
1.0000000000
40
1.0000000000
40
1.0000000000
40
1.0000000000
10
-49.3429479797
20
-13.9236728618
30
0.0000000000
10
-49.4457202075
20
-13.9243294550
30
0.0000000000
10
-49.6515949243
20
-13.9548109595
30
0.0000000000
10
-49.9327113563
20
-14.0863520241
30
0.0000000000
10
-50.1647250356
20
-14.2907783532
30
0.0000000000
10
-50.3305381347
20
-14.5501309878
30
0.0000000000
10
-50.4160117957
20
-14.8464538608
30
0.0000000000
10
-50.4160118103
20
-15.1535462159
30
0.0000000000
10
-50.3305380607
20
-15.4498688618
30
0.0000000000
10
-50.1647252354
20
-15.7092223678
30
0.0000000000
10
-49.9327105279
20
-15.9136453677
30
0.0000000000
10
-49.6517372909
20
-16.0451337031
30
0.0000000000
10
-49.4460186976
20
-16.0756039871
30
0.0000000000
10
-49.3433982304
20
-16.0762596107
30
0.0000000000
11
-49.3429479797
21
-13.9236728618
31
0.0000000000
11
-49.6478607847
21
-13.9694029242
31
0.0000000000
11
-49.9251338759
21
-14.0988678348
31
0.0000000000
11
-50.1536855895
21
-14.2999510661
31
0.0000000000
11
-50.3176433910
21
-14.5573078553
31
0.0000000000
11
-50.4015582886
21
-14.8468495265
31
0.0000000000
11
-50.4015582832
21
-15.1531505114
31
0.0000000000
11
-50.3176433736
21
-15.4426921833
31
0.0000000000
11
-50.1536855749
21
-15.7000489509
31
0.0000000000
11
-49.9251338605
21
-15.9011321753
31
0.0000000000
11
-49.6478607801
21
-16.0305970772
31
0.0000000000
11
-49.3433982304
21
-16.0762596107
31
0.0000000000
0
SPLINE
5
499
100
AcDbEntity
8
0
100
AcDbSpline
62
7
6
CONTINUOUS
70
0
71
3
72
18
73
14
74
12
42
0.0000001000
43
0.0000001000
44
0.0000000001
12
-3.3564844719
22
-0.0214439721
32
0.0000000000
13
3.3564844719
23
-0.0214439721
33
0.0000000000
40
0.0000000000
40
0.0000000000
40
0.0000000000
40
0.0000000000
40
0.0917213855
40
0.1828890324
40
0.2735826865
40
0.3644935047
40
0.4543048723
40
0.5455594979
40
0.6353708667
40
0.7262816791
40
0.8169753320
40
0.9081429748
40
1.0000000000
40
1.0000000000
40
1.0000000000
40
1.0000000000
10
-49.3433982304
20
16.0762596107
30
0.0000000000
10
-49.4460186992
20
16.0756039871
30
0.0000000000
10
-49.6517372986
20
16.0451337017
30
0.0000000000
10
-49.9327105413
20
15.9136453599
30
0.0000000000
10
-50.1647252545
20
15.7092223474
30
0.0000000000
10
-50.3305380758
20
15.4498688302
30
0.0000000000
10
-50.4160118156
20
15.1535461762
30
0.0000000000
10
-50.4160117904
20
14.8464538211
30
0.0000000000
10
-50.3305381196
20
14.5501309562
30
0.0000000000
10
-50.1647250166
20
14.2907783328
30
0.0000000000
10
-49.9327113429
20
14.0863520163
30
0.0000000000
10
-49.6515949166
20
13.9548109582
30
0.0000000000
10
-49.4457202059
20
13.9243294550
30
0.0000000000
10
-49.3429479797
20
13.9236728618
30
0.0000000000
11
-49.3433982304
21
16.0762596107
31
0.0000000000
11
-49.6478607847
21
16.0305970758
31
0.0000000000
11
-49.9251338759
21
15.9011321652
31
0.0000000000
11
-50.1536855895
21
15.7000489339
31
0.0000000000
11
-50.3176433910
21
15.4426921447
31
0.0000000000
11
-50.4015582886
21
15.1531504735
31
0.0000000000
11
-50.4015582832
21
14.8468494886
31
0.0000000000
11
-50.3176433736
21
14.5573078167
31
0.0000000000
11
-50.1536855749
21
14.2999510491
31
0.0000000000
11
-49.9251338605
21
14.0988678247
31
0.0000000000
11
-49.6478607801
21
13.9694029228
31
0.0000000000
11
-49.3429479797
21
13.9236728618
31
0.0000000000
0
SPLINE
5
49A
100
AcDbEntity
8
0
100
AcDbSpline
62
7
6
CONTINUOUS
70
0
71
3
72
18
73
14
74
12
42
0.0000001000
43
0.0000001000
44
0.0000000001
12
-3.3569397490
22
-0.0214468808
32
0.0000000000
13
3.3569397490
23
-0.0214468808
33
0.0000000000
40
0.0000000000
40
0.0000000000
40
0.0000000000
40
0.0000000000
40
0.0918445687
40
0.1829998512
40
0.2736812051
40
0.3645796938
40
0.4543788809
40
0.5456211304
40
0.6354203187
40
0.7263188015
40
0.8170001543
40
0.9081554327
40
1.0000000000
40
1.0000000000
40
1.0000000000
40
1.0000000000
10
-49.3429479797
20
11.0763271382
30
0.0000000000
10
-49.4457202075
20
11.0756705450
30
0.0000000000
10
-49.6515949243
20
11.0451890404
30
0.0000000000
10
-49.9327113562
20
10.9136479761
30
0.0000000000
10
-50.1647250359
20
10.7092216458
30
0.0000000000
10
-50.3305381336
20
10.4498690158
30
0.0000000000
10
-50.4160117999
20
10.1535461258
30
0.0000000000
10
-50.4160117946
20
9.8464538344
30
0.0000000000
10
-50.3305381185
20
9.5501309526
30
0.0000000000
10
-50.1647250169
20
9.2907783338
30
0.0000000000
10
-49.9327113428
20
9.0863520160
30
0.0000000000
10
-49.6515949166
20
8.9548109583
30
0.0000000000
10
-49.4457202059
20
8.9243294550
30
0.0000000000
10
-49.3429479797
20
8.9236728618
30
0.0000000000
11
-49.3429479797
21
11.0763271382
31
0.0000000000
11
-49.6478607847
21
11.0305970758
31
0.0000000000
11
-49.9251338759
21
10.9011321652
31
0.0000000000
11
-50.1536855895
21
10.7000489339
31
0.0000000000
11
-50.3176433910
21
10.4426921447
31
0.0000000000
11
-50.4015582886
21
10.1531504735
31
0.0000000000
11
-50.4015582832
21
9.8468494886
31
0.0000000000
11
-50.3176433736
21
9.5573078167
31
0.0000000000
11
-50.1536855749
21
9.2999510491
31
0.0000000000
11
-49.9251338605
21
9.0988678247
31
0.0000000000
11
-49.6478607801
21
8.9694029228
31
0.0000000000
11
-49.3429479797
21
8.9236728618
31
0.0000000000
0
SPLINE
5
49B
100
AcDbEntity
8
0
100
AcDbSpline
62
7
6
CONTINUOUS
70
0
71
3
72
18
73
14
74
12
42
0.0000001000
43
0.0000001000
44
0.0000000001
12
-3.3569397490
22
-0.0214468808
32
0.0000000000
13
3.3569397490
23
-0.0214468808
33
0.0000000000
40
0.0000000000
40
0.0000000000
40
0.0000000000
40
0.0000000000
40
0.0918445687
40
0.1829998512
40
0.2736812051
40
0.3645796938
40
0.4543788809
40
0.5456211304
40
0.6354203187
40
0.7263188015
40
0.8170001543
40
0.9081554327
40
1.0000000000
40
1.0000000000
40
1.0000000000
40
1.0000000000
10
-49.3429479797
20
6.0763271382
30
0.0000000000
10
-49.4457202075
20
6.0756705450
30
0.0000000000
10
-49.6515949243
20
6.0451890404
30
0.0000000000
10
-49.9327113562
20
5.9136479761
30
0.0000000000
10
-50.1647250359
20
5.7092216458
30
0.0000000000
10
-50.3305381336
20
5.4498690158
30
0.0000000000
10
-50.4160117999
20
5.1535461258
30
0.0000000000
10
-50.4160117946
20
4.8464538344
30
0.0000000000
10
-50.3305381185
20
4.5501309526
30
0.0000000000
10
-50.1647250169
20
4.2907783338
30
0.0000000000
10
-49.9327113428
20
4.0863520160
30
0.0000000000
10
-49.6515949166
20
3.9548109583
30
0.0000000000
10
-49.4457202059
20
3.9243294550
30
0.0000000000
10
-49.3429479797
20
3.9236728618
30
0.0000000000
11
-49.3429479797
21
6.0763271382
31
0.0000000000
11
-49.6478607847
21
6.0305970758
31
0.0000000000
11
-49.9251338759
21
5.9011321652
31
0.0000000000
11
-50.1536855895
21
5.7000489339
31
0.0000000000
11
-50.3176433910
21
5.4426921447
31
0.0000000000
11
-50.4015582886
21
5.1531504735
31
0.0000000000
11
-50.4015582832
21
4.8468494886
31
0.0000000000
11
-50.3176433736
21
4.5573078167
31
0.0000000000
11
-50.1536855749
21
4.2999510491
31
0.0000000000
11
-49.9251338605
21
4.0988678247
31
0.0000000000
11
-49.6478607801
21
3.9694029228
31
0.0000000000
11
-49.3429479797
21
3.9236728618
31
0.0000000000
0
SPLINE
5
49C
100
AcDbEntity
8
0
100
AcDbSpline
62
7
6
CONTINUOUS
70
0
71
3
72
18
73
14
74
12
42
0.0000001000
43
0.0000001000
44
0.0000000001
12
-3.3569397490
22
-0.0214468808
32
0.0000000000
13
3.3569397490
23
-0.0214468808
33
0.0000000000
40
0.0000000000
40
0.0000000000
40
0.0000000000
40
0.0000000000
40
0.0918445687
40
0.1829998512
40
0.2736812051
40
0.3645796938
40
0.4543788809
40
0.5456211304
40
0.6354203187
40
0.7263188015
40
0.8170001543
40
0.9081554327
40
1.0000000000
40
1.0000000000
40
1.0000000000
40
1.0000000000
10
-49.3429479797
20
1.0763271382
30
0.0000000000
10
-49.4457202075
20
1.0756705450
30
0.0000000000
10
-49.6515949243
20
1.0451890404
30
0.0000000000
10
-49.9327113562
20
0.9136479761
30
0.0000000000
10
-50.1647250359
20
0.7092216458
30
0.0000000000
10
-50.3305381336
20
0.4498690158
30
0.0000000000
10
-50.4160117999
20
0.1535461258
30
0.0000000000
10
-50.4160117946
20
-0.1535461656
30
0.0000000000
10
-50.3305381185
20
-0.4498690474
30
0.0000000000
10
-50.1647250169
20
-0.7092216662
30
0.0000000000
10
-49.9327113428
20
-0.9136479840
30
0.0000000000
10
-49.6515949166
20
-1.0451890417
30
0.0000000000
10
-49.4457202059
20
-1.0756705450
30
0.0000000000
10
-49.3429479797
20
-1.0763271382
30
0.0000000000
11
-49.3429479797
21
1.0763271382
31
0.0000000000
11
-49.6478607847
21
1.0305970758
31
0.0000000000
11
-49.9251338759
21
0.9011321652
31
0.0000000000
11
-50.1536855895
21
0.7000489339
31
0.0000000000
11
-50.3176433910
21
0.4426921447
31
0.0000000000
11
-50.4015582886
21
0.1531504735
31
0.0000000000
11
-50.4015582832
21
-0.1531505114
31
0.0000000000
11
-50.3176433736
21
-0.4426921833
31
0.0000000000
11
-50.1536855749
21
-0.7000489509
31
0.0000000000
11
-49.9251338605
21
-0.9011321753
31
0.0000000000
11
-49.6478607801
21
-1.0305970772
31
0.0000000000
11
-49.3429479797
21
-1.0763271382
31
0.0000000000
0
SPLINE
5
49D
100
AcDbEntity
8
0
100
AcDbSpline
62
7
6
CONTINUOUS
70
0
71
3
72
18
73
14
74
12
42
0.0000001000
43
0.0000001000
44
0.0000000001
12
-3.3569397490
22
-0.0214468808
32
0.0000000000
13
3.3569397490
23
-0.0214468808
33
0.0000000000
40
0.0000000000
40
0.0000000000
40
0.0000000000
40
0.0000000000
40
0.0918445687
40
0.1829998512
40
0.2736812051
40
0.3645796938
40
0.4543788809
40
0.5456211304
40
0.6354203187
40
0.7263188015
40
0.8170001543
40
0.9081554327
40
1.0000000000
40
1.0000000000
40
1.0000000000
40
1.0000000000
10
-49.3429479797
20
-3.9236728618
30
0.0000000000
10
-49.4457202075
20
-3.9243294550
30
0.0000000000
10
-49.6515949243
20
-3.9548109596
30
0.0000000000
10
-49.9327113562
20
-4.0863520239
30
0.0000000000
10
-50.1647250359
20
-4.2907783542
30
0.0000000000
10
-50.3305381336
20
-4.5501309842
30
0.0000000000
10
-50.4160117999
20
-4.8464538742
30
0.0000000000
10
-50.4160117946
20
-5.1535461656
30
0.0000000000
10
-50.3305381185
20
-5.4498690474
30
0.0000000000
10
-50.1647250169
20
-5.7092216662
30
0.0000000000
10
-49.9327113428
20
-5.9136479840
30
0.0000000000
10
-49.6515949166
20
-6.0451890417
30
0.0000000000
10
-49.4457202059
20
-6.0756705450
30
0.0000000000
10
-49.3429479797
20
-6.0763271382
30
0.0000000000
11
-49.3429479797
21
-3.9236728618
31
0.0000000000
11
-49.6478607847
21
-3.9694029242
31
0.0000000000
11
-49.9251338759
21
-4.0988678348
31
0.0000000000
11
-50.1536855895
21
-4.2999510661
31
0.0000000000
11
-50.3176433910
21
-4.5573078553
31
0.0000000000
11
-50.4015582886
21
-4.8468495265
31
0.0000000000
11
-50.4015582832
21
-5.1531505114
31
0.0000000000
11
-50.3176433736
21
-5.4426921833
31
0.0000000000
11
-50.1536855749
21
-5.7000489509
31
0.0000000000
11
-49.9251338605
21
-5.9011321753
31
0.0000000000
11
-49.6478607801
21
-6.0305970772
31
0.0000000000
11
-49.3429479797
21
-6.0763271382
31
0.0000000000
0
SPLINE
5
49E
100
AcDbEntity
8
0
100
AcDbSpline
62
7
6
CONTINUOUS
70
0
71
3
72
18
73
14
74
12
42
0.0000001000
43
0.0000001000
44
0.0000000001
12
-3.3569397490
22
-0.0214468808
32
0.0000000000
13
3.3569397490
23
-0.0214468808
33
0.0000000000
40
0.0000000000
40
0.0000000000
40
0.0000000000
40
0.0000000000
40
0.0918445687
40
0.1829998512
40
0.2736812051
40
0.3645796938
40
0.4543788809
40
0.5456211304
40
0.6354203187
40
0.7263188015
40
0.8170001543
40
0.9081554327
40
1.0000000000
40
1.0000000000
40
1.0000000000
40
1.0000000000
10
-49.3429479797
20
-8.9236728618
30
0.0000000000
10
-49.4457202075
20
-8.9243294550
30
0.0000000000
10
-49.6515949243
20
-8.9548109596
30
0.0000000000
10
-49.9327113562
20
-9.0863520239
30
0.0000000000
10
-50.1647250359
20
-9.2907783542
30
0.0000000000
10
-50.3305381336
20
-9.5501309842
30
0.0000000000
10
-50.4160117999
20
-9.8464538742
30
0.0000000000
10
-50.4160117946
20
-10.1535461656
30
0.0000000000
10
-50.3305381185
20
-10.4498690474
30
0.0000000000
10
-50.1647250169
20
-10.7092216662
30
0.0000000000
10
-49.9327113428
20
-10.9136479840
30
0.0000000000
10
-49.6515949166
20
-11.0451890417
30
0.0000000000
10
-49.4457202059
20
-11.0756705450
30
0.0000000000
10
-49.3429479797
20
-11.0763271382
30
0.0000000000
11
-49.3429479797
21
-8.9236728618
31
0.0000000000
11
-49.6478607847
21
-8.9694029242
31
0.0000000000
11
-49.9251338759
21
-9.0988678348
31
0.0000000000
11
-50.1536855895
21
-9.2999510661
31
0.0000000000
11
-50.3176433910
21
-9.5573078553
31
0.0000000000
11
-50.4015582886
21
-9.8468495265
31
0.0000000000
11
-50.4015582832
21
-10.1531505114
31
0.0000000000
11
-50.3176433736
21
-10.4426921833
31
0.0000000000
11
-50.1536855749
21
-10.7000489509
31
0.0000000000
11
-49.9251338605
21
-10.9011321753
31
0.0000000000
11
-49.6478607801
21
-11.0305970772
31
0.0000000000
11
-49.3429479797
21
-11.0763271382
31
0.0000000000
0
SPLINE
5
49F
100
AcDbEntity
8
0
100
AcDbSpline
62
9
6
CONTINUOUS
70
0
71
3
72
10
73
6
74
4
42
0.0000001000
43
0.0000001000
44
0.0000000001
12
-3.9999999803
22
0.0702534154
32
0.0000000000
13
-4.0000000196
23
0.0702511788
33
0.0000000000
40
0.0000000000
40
0.0000000000
40
0.0000000000
40
0.0000000000
40
0.3334720350
40
0.6668053684
40
1.0000000000
40
1.0000000000
40
1.0000000000
40
1.0000000000
10
-57.5941843478
20
23.2631073618
30
0.0000000000
10
-58.0388137257
20
23.2709165449
30
0.0000000000
10
-58.9278875472
20
23.2865315799
30
0.0000000000
10
-60.2612208806
20
23.3099490114
30
0.0000000000
10
-61.1499248368
20
23.3255572189
30
0.0000000000
10
-61.5941843478
20
23.3333596575
30
0.0000000000
11
-57.5941843478
21
23.2631073618
31
0.0000000000
11
-58.9280724835
21
23.2865347865
31
0.0000000000
11
-60.2614058169
21
23.3099522180
31
0.0000000000
11
-61.5941843478
21
23.3333596575
31
0.0000000000
0
SPLINE
5
4A0
100
AcDbEntity
8
0
100
AcDbSpline
62
7
6
CONTINUOUS
70
0
71
3
72
10
73
6
74
4
42
0.0000001000
43
0.0000001000
44
0.0000000001
12
-4.0000360299
22
-0.0287443498
32
0.0000000000
13
-3.9999639243
23
-0.0374577365
33
0.0000000000
40
0.0000000000
40
0.0000000000
40
0.0000000000
40
0.0000000000
40
0.3303029973
40
0.6636439357
40
1.0000000000
40
1.0000000000
40
1.0000000000
40
1.0000000000
10
-57.5941843478
20
-22.6298666026
30
0.0000000000
10
-58.0345923111
20
-22.6330313843
30
0.0000000000
10
-58.9194562589
20
-22.6397571456
30
0.0000000000
10
-60.2527896355
20
-22.6508921323
30
0.0000000000
10
-61.1457136402
20
-22.6589669097
30
0.0000000000
10
-61.5941843478
20
-22.6631666220
30
0.0000000000
11
-57.5941843478
21
-22.6298666026
31
0.0000000000
11
-58.9154043238
21
-22.6398908175
31
0.0000000000
11
-60.2487681392
21
-22.6510115990
31
0.0000000000
11
-61.5941843478
21
-22.6631666220
31
0.0000000000
0
SPLINE
5
4A1
100
AcDbEntity
8
0
100
AcDbSpline
62
7
6
CONTINUOUS
70
0
71
3
72
10
73
6
74
4
42
0.0000001000
43
0.0000001000
44
0.0000000001
12
-4.0000360299
22
0.0287443498
32
0.0000000000
13
-3.9999639243
23
0.0374577365
33
0.0000000000
40
0.0000000000
40
0.0000000000
40
0.0000000000
40
0.0000000000
40
0.3303029973
40
0.6636439357
40
1.0000000000
40
1.0000000000
40
1.0000000000
40
1.0000000000
10
-57.5941843478
20
22.6298666026
30
0.0000000000
10
-58.0345923111
20
22.6330313843
30
0.0000000000
10
-58.9194562589
20
22.6397571456
30
0.0000000000
10
-60.2527896355
20
22.6508921323
30
0.0000000000
10
-61.1457136402
20
22.6589669097
30
0.0000000000
10
-61.5941843478
20
22.6631666220
30
0.0000000000
11
-57.5941843478
21
22.6298666026
31
0.0000000000
11
-58.9154043238
21
22.6398908175
31
0.0000000000
11
-60.2487681392
21
22.6510115990
31
0.0000000000
11
-61.5941843478
21
22.6631666220
31
0.0000000000
0
SPLINE
5
4A2
100
AcDbEntity
8
0
100
AcDbSpline
62
7
6
CONTINUOUS
70
0
71
3
72
15
73
11
74
9
42
0.0000001000
43
0.0000001000
44
0.0000000001
12
-2.3268864811
22
-0.0203064307
32
0.0000000000
13
2.3268864811
23
-0.0203064307
33
0.0000000000
40
0.0000000000
40
0.0000000000
40
0.0000000000
40
0.0000000000
40
0.1250840772
40
0.2500094376
40
0.3749979481
40
0.5000000000
40
0.6250020519
40
0.7499905624
40
0.8749159228
40
1.0000000000
40
1.0000000000
40
1.0000000000
40
1.0000000000
10
-49.3507292494
20
-14.2500285577
30
0.0000000000
10
-49.4477480656
20
-14.2508752281
30
0.0000000000
10
-49.6429316982
20
-14.2925782927
30
0.0000000000
10
-49.8910281066
20
-14.4579416627
30
0.0000000000
10
-50.0540393693
20
-14.7077725747
30
0.0000000000
10
-50.1142579244
20
-15.0000000000
30
0.0000000000
10
-50.0540393693
20
-15.2922274253
30
0.0000000000
10
-49.8910281066
20
-15.5420583373
30
0.0000000000
10
-49.6429316982
20
-15.7074217073
30
0.0000000000
10
-49.4477480656
20
-15.7491247719
30
0.0000000000
10
-49.3507292494
20
-15.7499714423
30
0.0000000000
11
-49.3507292494
21
-14.2500285577
31
0.0000000000
11
-49.6356014343
21
-14.3097625186
31
0.0000000000
11
-49.8768233795
21
-14.4719889567
31
0.0000000000
11
-50.0368979721
21
-14.7148202273
31
0.0000000000
11
-50.0941843478
21
-15.0000000000
31
0.0000000000
11
-50.0368979721
21
-15.2851797727
31
0.0000000000
11
-49.8768233795
21
-15.5280110433
31
0.0000000000
11
-49.6356014343
21
-15.6902374814
31
0.0000000000
11
-49.3507292494
21
-15.7499714423
31
0.0000000000
0
SPLINE
5
4A3
100
AcDbEntity
8
0
100
AcDbSpline
62
7
6
CONTINUOUS
70
0
71
3
72
15
73
11
74
9
42
0.0000001000
43
0.0000001000
44
0.0000000001
12
-2.3268864811
22
-0.0203064307
32
0.0000000000
13
2.3268864811
23
-0.0203064307
33
0.0000000000
40
0.0000000000
40
0.0000000000
40
0.0000000000
40
0.0000000000
40
0.1250840772
40
0.2500094376
40
0.3749979481
40
0.5000000000
40
0.6250020519
40
0.7499905624
40
0.8749159228
40
1.0000000000
40
1.0000000000
40
1.0000000000
40
1.0000000000
10
-49.3507292494
20
15.7499714423
30
0.0000000000
10
-49.4477480656
20
15.7491247719
30
0.0000000000
10
-49.6429316982
20
15.7074217073
30
0.0000000000
10
-49.8910281066
20
15.5420583373
30
0.0000000000
10
-50.0540393693
20
15.2922274253
30
0.0000000000
10
-50.1142579244
20
15.0000000000
30
0.0000000000
10
-50.0540393693
20
14.7077725747
30
0.0000000000
10
-49.8910281066
20
14.4579416627
30
0.0000000000
10
-49.6429316982
20
14.2925782927
30
0.0000000000
10
-49.4477480656
20
14.2508752281
30
0.0000000000
10
-49.3507292494
20
14.2500285577
30
0.0000000000
11
-49.3507292494
21
15.7499714423
31
0.0000000000
11
-49.6356014343
21
15.6902374814
31
0.0000000000
11
-49.8768233795
21
15.5280110433
31
0.0000000000
11
-50.0368979721
21
15.2851797727
31
0.0000000000
11
-50.0941843478
21
15.0000000000
31
0.0000000000
11
-50.0368979721
21
14.7148202273
31
0.0000000000
11
-49.8768233795
21
14.4719889567
31
0.0000000000
11
-49.6356014343
21
14.3097625186
31
0.0000000000
11
-49.3507292494
21
14.2500285577
31
0.0000000000
0
SPLINE
5
4A4
100
AcDbEntity
8
0
100
AcDbSpline
62
7
6
CONTINUOUS
70
0
71
3
72
15
73
11
74
9
42
0.0000001000
43
0.0000001000
44
0.0000000001
12
-2.3268864811
22
-0.0203064307
32
0.0000000000
13
2.3268864811
23
-0.0203064307
33
0.0000000000
40
0.0000000000
40
0.0000000000
40
0.0000000000
40
0.0000000000
40
0.1250840772
40
0.2500094376
40
0.3749979481
40
0.5000000000
40
0.6250020519
40
0.7499905624
40
0.8749159228
40
1.0000000000
40
1.0000000000
40
1.0000000000
40
1.0000000000
10
-49.3507292494
20
10.7499714423
30
0.0000000000
10
-49.4477480656
20
10.7491247719
30
0.0000000000
10
-49.6429316982
20
10.7074217073
30
0.0000000000
10
-49.8910281066
20
10.5420583373
30
0.0000000000
10
-50.0540393693
20
10.2922274253
30
0.0000000000
10
-50.1142579244
20
10.0000000000
30
0.0000000000
10
-50.0540393693
20
9.7077725747
30
0.0000000000
10
-49.8910281066
20
9.4579416627
30
0.0000000000
10
-49.6429316982
20
9.2925782927
30
0.0000000000
10
-49.4477480656
20
9.2508752281
30
0.0000000000
10
-49.3507292494
20
9.2500285577
30
0.0000000000
11
-49.3507292494
21
10.7499714423
31
0.0000000000
11
-49.6356014343
21
10.6902374814
31
0.0000000000
11
-49.8768233795
21
10.5280110433
31
0.0000000000
11
-50.0368979721
21
10.2851797727
31
0.0000000000
11
-50.0941843478
21
10.0000000000
31
0.0000000000
11
-50.0368979721
21
9.7148202273
31
0.0000000000
11
-49.8768233795
21
9.4719889567
31
0.0000000000
11
-49.6356014343
21
9.3097625186
31
0.0000000000
11
-49.3507292494
21
9.2500285577
31
0.0000000000
0
SPLINE
5
4A5
100
AcDbEntity
8
0
100
AcDbSpline
62
7
6
CONTINUOUS
70
0
71
3
72
15
73
11
74
9
42
0.0000001000
43
0.0000001000
44
0.0000000001
12
-2.3268864811
22
-0.0203064307
32
0.0000000000
13
2.3268864811
23
-0.0203064307
33
0.0000000000
40
0.0000000000
40
0.0000000000
40
0.0000000000
40
0.0000000000
40
0.1250840772
40
0.2500094376
40
0.3749979481
40
0.5000000000
40
0.6250020519
40
0.7499905624
40
0.8749159228
40
1.0000000000
40
1.0000000000
40
1.0000000000
40
1.0000000000
10
-49.3507292494
20
5.7499714423
30
0.0000000000
10
-49.4477480656
20
5.7491247719
30
0.0000000000
10
-49.6429316982
20
5.7074217073
30
0.0000000000
10
-49.8910281066
20
5.5420583373
30
0.0000000000
10
-50.0540393693
20
5.2922274253
30
0.0000000000
10
-50.1142579244
20
5.0000000000
30
0.0000000000
10
-50.0540393693
20
4.7077725747
30
0.0000000000
10
-49.8910281066
20
4.4579416627
30
0.0000000000
10
-49.6429316982
20
4.2925782927
30
0.0000000000
10
-49.4477480656
20
4.2508752281
30
0.0000000000
10
-49.3507292494
20
4.2500285577
30
0.0000000000
11
-49.3507292494
21
5.7499714423
31
0.0000000000
11
-49.6356014343
21
5.6902374814
31
0.0000000000
11
-49.8768233795
21
5.5280110433
31
0.0000000000
11
-50.0368979721
21
5.2851797727
31
0.0000000000
11
-50.0941843478
21
5.0000000000
31
0.0000000000
11
-50.0368979721
21
4.7148202273
31
0.0000000000
11
-49.8768233795
21
4.4719889567
31
0.0000000000
11
-49.6356014343
21
4.3097625186
31
0.0000000000
11
-49.3507292494
21
4.2500285577
31
0.0000000000
0
SPLINE
5
4A6
100
AcDbEntity
8
0
100
AcDbSpline
62
7
6
CONTINUOUS
70
0
71
3
72
15
73
11
74
9
42
0.0000001000
43
0.0000001000
44
0.0000000001
12
-2.3268864811
22
-0.0203064307
32
0.0000000000
13
2.3268864811
23
-0.0203064307
33
0.0000000000
40
0.0000000000
40
0.0000000000
40
0.0000000000
40
0.0000000000
40
0.1250840772
40
0.2500094376
40
0.3749979481
40
0.5000000000
40
0.6250020519
40
0.7499905624
40
0.8749159228
40
1.0000000000
40
1.0000000000
40
1.0000000000
40
1.0000000000
10
-49.3507292494
20
0.7499714423
30
0.0000000000
10
-49.4477480656
20
0.7491247719
30
0.0000000000
10
-49.6429316982
20
0.7074217073
30
0.0000000000
10
-49.8910281066
20
0.5420583373
30
0.0000000000
10
-50.0540393693
20
0.2922274253
30
0.0000000000
10
-50.1142579244
20
-0.0000000000
30
0.0000000000
10
-50.0540393693
20
-0.2922274253
30
0.0000000000
10
-49.8910281066
20
-0.5420583373
30
0.0000000000
10
-49.6429316982
20
-0.7074217073
30
0.0000000000
10
-49.4477480656
20
-0.7491247719
30
0.0000000000
10
-49.3507292494
20
-0.7499714423
30
0.0000000000
11
-49.3507292494
21
0.7499714423
31
0.0000000000
11
-49.6356014343
21
0.6902374814
31
0.0000000000
11
-49.8768233795
21
0.5280110433
31
0.0000000000
11
-50.0368979721
21
0.2851797727
31
0.0000000000
11
-50.0941843478
21
-0.0000000000
31
0.0000000000
11
-50.0368979721
21
-0.2851797727
31
0.0000000000
11
-49.8768233795
21
-0.5280110433
31
0.0000000000
11
-49.6356014343
21
-0.6902374814
31
0.0000000000
11
-49.3507292494
21
-0.7499714423
31
0.0000000000
0
SPLINE
5
4A7
100
AcDbEntity
8
0
100
AcDbSpline
62
7
6
CONTINUOUS
70
0
71
3
72
15
73
11
74
9
42
0.0000001000
43
0.0000001000
44
0.0000000001
12
-2.3268864811
22
-0.0203064307
32
0.0000000000
13
2.3268864811
23
-0.0203064307
33
0.0000000000
40
0.0000000000
40
0.0000000000
40
0.0000000000
40
0.0000000000
40
0.1250840772
40
0.2500094376
40
0.3749979481
40
0.5000000000
40
0.6250020519
40
0.7499905624
40
0.8749159228
40
1.0000000000
40
1.0000000000
40
1.0000000000
40
1.0000000000
10
-49.3507292494
20
-4.2500285577
30
0.0000000000
10
-49.4477480656
20
-4.2508752281
30
0.0000000000
10
-49.6429316982
20
-4.2925782927
30
0.0000000000
10
-49.8910281066
20
-4.4579416627
30
0.0000000000
10
-50.0540393693
20
-4.7077725747
30
0.0000000000
10
-50.1142579244
20
-5.0000000000
30
0.0000000000
10
-50.0540393693
20
-5.2922274253
30
0.0000000000
10
-49.8910281066
20
-5.5420583373
30
0.0000000000
10
-49.6429316982
20
-5.7074217073
30
0.0000000000
10
-49.4477480656
20
-5.7491247719
30
0.0000000000
10
-49.3507292494
20
-5.7499714423
30
0.0000000000
11
-49.3507292494
21
-4.2500285577
31
0.0000000000
11
-49.6356014343
21
-4.3097625186
31
0.0000000000
11
-49.8768233795
21
-4.4719889567
31
0.0000000000
11
-50.0368979721
21
-4.7148202273
31
0.0000000000
11
-50.0941843478
21
-5.0000000000
31
0.0000000000
11
-50.0368979721
21
-5.2851797727
31
0.0000000000
11
-49.8768233795
21
-5.5280110433
31
0.0000000000
11
-49.6356014343
21
-5.6902374814
31
0.0000000000
11
-49.3507292494
21
-5.7499714423
31
0.0000000000
0
SPLINE
5
4A8
100
AcDbEntity
8
0
100
AcDbSpline
62
7
6
CONTINUOUS
70
0
71
3
72
15
73
11
74
9
42
0.0000001000
43
0.0000001000
44
0.0000000001
12
-2.3268864811
22
-0.0203064307
32
0.0000000000
13
2.3268864811
23
-0.0203064307
33
0.0000000000
40
0.0000000000
40
0.0000000000
40
0.0000000000
40
0.0000000000
40
0.1250840772
40
0.2500094376
40
0.3749979481
40
0.5000000000
40
0.6250020519
40
0.7499905624
40
0.8749159228
40
1.0000000000
40
1.0000000000
40
1.0000000000
40
1.0000000000
10
-49.3507292494
20
-9.2500285577
30
0.0000000000
10
-49.4477480656
20
-9.2508752281
30
0.0000000000
10
-49.6429316982
20
-9.2925782927
30
0.0000000000
10
-49.8910281066
20
-9.4579416627
30
0.0000000000
10
-50.0540393693
20
-9.7077725747
30
0.0000000000
10
-50.1142579244
20
-10.0000000000
30
0.0000000000
10
-50.0540393693
20
-10.2922274253
30
0.0000000000
10
-49.8910281066
20
-10.5420583373
30
0.0000000000
10
-49.6429316982
20
-10.7074217073
30
0.0000000000
10
-49.4477480656
20
-10.7491247719
30
0.0000000000
10
-49.3507292494
20
-10.7499714423
30
0.0000000000
11
-49.3507292494
21
-9.2500285577
31
0.0000000000
11
-49.6356014343
21
-9.3097625186
31
0.0000000000
11
-49.8768233795
21
-9.4719889567
31
0.0000000000
11
-50.0368979721
21
-9.7148202273
31
0.0000000000
11
-50.0941843478
21
-10.0000000000
31
0.0000000000
11
-50.0368979721
21
-10.2851797727
31
0.0000000000
11
-49.8768233795
21
-10.5280110433
31
0.0000000000
11
-49.6356014343
21
-10.6902374814
31
0.0000000000
11
-49.3507292494
21
-10.7499714423
31
0.0000000000
0
SPLINE
5
4A9
100
AcDbEntity
8
0
100
AcDbSpline
62
9
6
CONTINUOUS
70
0
71
3
72
9
73
5
74
3
42
0.0000001000
43
0.0000001000
44
0.0000000001
12
9.7564059250
22
-0.0591620892
32
0.0000000000
13
9.7564045986
23
-0.0593804195
33
0.0000000000
40
0.0000000000
40
0.0000000000
40
0.0000000000
40
0.0000000000
40
0.4987207607
40
1.0000000000
40
1.0000000000
40
1.0000000000
40
1.0000000000
10
-61.5941843478
20
16.1196591660
30
0.0000000000
10
-59.9722769529
20
16.1098240453
30
0.0000000000
10
-56.7201417540
20
16.0900853022
30
0.0000000000
10
-53.4680067761
20
16.0703101708
30
0.0000000000
10
-51.8377790844
20
16.0603881136
30
0.0000000000
11
-61.5941843478
21
16.1196591660
31
0.0000000000
11
-56.7284623271
21
16.0901267528
31
0.0000000000
11
-51.8377790844
21
16.0603881136
31
0.0000000000
0
SPLINE
5
4AA
100
AcDbEntity
8
0
100
AcDbSpline
62
9
6
CONTINUOUS
70
0
71
3
72
10
73
6
74
4
42
0.0000001000
43
0.0000001000
44
0.0000000001
12
40.0000091318
22
-0.2279197761
32
0.0000000000
13
39.9999906869
23
-0.2311342022
33
0.0000000000
40
0.0000000000
40
0.0000000000
40
0.0000000000
40
0.0000000000
40
0.3319215754
40
0.6652549091
40
1.0000000000
40
1.0000000000
40
1.0000000000
40
1.0000000000
10
-61.5941843478
20
17.3594295691
30
0.0000000000
10
-57.1685623323
20
17.3342124054
30
0.0000000000
10
-48.2984955115
20
17.2835551087
30
0.0000000000
10
-34.9651621497
20
17.2070542006
30
0.0000000000
10
-26.0574511873
20
17.1557047625
30
0.0000000000
10
-21.5941843478
20
17.1299144160
30
0.0000000000
11
-61.5941843478
21
17.3594295691
31
0.0000000000
11
-48.3173192940
21
17.2836040325
31
0.0000000000
11
-34.9839859236
21
17.2071022475
31
0.0000000000
11
-21.5941843478
21
17.1299144160
31
0.0000000000
0
SPLINE
5
4AB
100
AcDbEntity
8
0
100
AcDbSpline
62
7
6
CONTINUOUS
70
0
71
3
72
18
73
14
74
12
42
0.0000001000
43
0.0000001000
44
0.0000000001
12
-3.3564844719
22
-0.0214439721
32
0.0000000000
13
3.3564844719
23
-0.0214439721
33
0.0000000000
40
0.0000000000
40
0.0000000000
40
0.0000000000
40
0.0000000000
40
0.0918570266
40
0.1830246735
40
0.2737183275
40
0.3646291458
40
0.4544405133
40
0.5456951390
40
0.6355065078
40
0.7264173201
40
0.8171109730
40
0.9082786159
40
1.0000000000
40
1.0000000000
40
1.0000000000
40
1.0000000000
10
-49.3429479797
20
-13.9236728618
30
0.0000000000
10
-49.4457202075
20
-13.9243294550
30
0.0000000000
10
-49.6515949243
20
-13.9548109595
30
0.0000000000
10
-49.9327113563
20
-14.0863520241
30
0.0000000000
10
-50.1647250356
20
-14.2907783532
30
0.0000000000
10
-50.3305381347
20
-14.5501309878
30
0.0000000000
10
-50.4160117957
20
-14.8464538608
30
0.0000000000
10
-50.4160118103
20
-15.1535462159
30
0.0000000000
10
-50.3305380607
20
-15.4498688618
30
0.0000000000
10
-50.1647252354
20
-15.7092223678
30
0.0000000000
10
-49.9327105279
20
-15.9136453677
30
0.0000000000
10
-49.6517372909
20
-16.0451337031
30
0.0000000000
10
-49.4460186976
20
-16.0756039871
30
0.0000000000
10
-49.3433982304
20
-16.0762596107
30
0.0000000000
11
-49.3429479797
21
-13.9236728618
31
0.0000000000
11
-49.6478607847
21
-13.9694029242
31
0.0000000000
11
-49.9251338759
21
-14.0988678348
31
0.0000000000
11
-50.1536855895
21
-14.2999510661
31
0.0000000000
11
-50.3176433910
21
-14.5573078553
31
0.0000000000
11
-50.4015582886
21
-14.8468495265
31
0.0000000000
11
-50.4015582832
21
-15.1531505114
31
0.0000000000
11
-50.3176433736
21
-15.4426921833
31
0.0000000000
11
-50.1536855749
21
-15.7000489509
31
0.0000000000
11
-49.9251338605
21
-15.9011321753
31
0.0000000000
11
-49.6478607801
21
-16.0305970772
31
0.0000000000
11
-49.3433982304
21
-16.0762596107
31
0.0000000000
0
SPLINE
5
4AC
100
AcDbEntity
8
0
100
AcDbSpline
62
7
6
CONTINUOUS
70
0
71
3
72
18
73
14
74
12
42
0.0000001000
43
0.0000001000
44
0.0000000001
12
-3.3564844719
22
-0.0214439721
32
0.0000000000
13
3.3564844719
23
-0.0214439721
33
0.0000000000
40
0.0000000000
40
0.0000000000
40
0.0000000000
40
0.0000000000
40
0.0917213855
40
0.1828890324
40
0.2735826865
40
0.3644935047
40
0.4543048723
40
0.5455594979
40
0.6353708667
40
0.7262816791
40
0.8169753320
40
0.9081429748
40
1.0000000000
40
1.0000000000
40
1.0000000000
40
1.0000000000
10
-49.3433982304
20
16.0762596107
30
0.0000000000
10
-49.4460186992
20
16.0756039871
30
0.0000000000
10
-49.6517372986
20
16.0451337017
30
0.0000000000
10
-49.9327105413
20
15.9136453599
30
0.0000000000
10
-50.1647252545
20
15.7092223474
30
0.0000000000
10
-50.3305380758
20
15.4498688302
30
0.0000000000
10
-50.4160118156
20
15.1535461762
30
0.0000000000
10
-50.4160117904
20
14.8464538211
30
0.0000000000
10
-50.3305381196
20
14.5501309562
30
0.0000000000
10
-50.1647250166
20
14.2907783328
30
0.0000000000
10
-49.9327113429
20
14.0863520163
30
0.0000000000
10
-49.6515949166
20
13.9548109582
30
0.0000000000
10
-49.4457202059
20
13.9243294550
30
0.0000000000
10
-49.3429479797
20
13.9236728618
30
0.0000000000
11
-49.3433982304
21
16.0762596107
31
0.0000000000
11
-49.6478607847
21
16.0305970758
31
0.0000000000
11
-49.9251338759
21
15.9011321652
31
0.0000000000
11
-50.1536855895
21
15.7000489339
31
0.0000000000
11
-50.3176433910
21
15.4426921447
31
0.0000000000
11
-50.4015582886
21
15.1531504735
31
0.0000000000
11
-50.4015582832
21
14.8468494886
31
0.0000000000
11
-50.3176433736
21
14.5573078167
31
0.0000000000
11
-50.1536855749
21
14.2999510491
31
0.0000000000
11
-49.9251338605
21
14.0988678247
31
0.0000000000
11
-49.6478607801
21
13.9694029228
31
0.0000000000
11
-49.3429479797
21
13.9236728618
31
0.0000000000
0
SPLINE
5
4AD
100
AcDbEntity
8
0
100
AcDbSpline
62
7
6
CONTINUOUS
70
0
71
3
72
18
73
14
74
12
42
0.0000001000
43
0.0000001000
44
0.0000000001
12
-3.3569397490
22
-0.0214468808
32
0.0000000000
13
3.3569397490
23
-0.0214468808
33
0.0000000000
40
0.0000000000
40
0.0000000000
40
0.0000000000
40
0.0000000000
40
0.0918445687
40
0.1829998512
40
0.2736812051
40
0.3645796938
40
0.4543788809
40
0.5456211304
40
0.6354203187
40
0.7263188015
40
0.8170001543
40
0.9081554327
40
1.0000000000
40
1.0000000000
40
1.0000000000
40
1.0000000000
10
-49.3429479797
20
11.0763271382
30
0.0000000000
10
-49.4457202075
20
11.0756705450
30
0.0000000000
10
-49.6515949243
20
11.0451890404
30
0.0000000000
10
-49.9327113562
20
10.9136479761
30
0.0000000000
10
-50.1647250359
20
10.7092216458
30
0.0000000000
10
-50.3305381336
20
10.4498690158
30
0.0000000000
10
-50.4160117999
20
10.1535461258
30
0.0000000000
10
-50.4160117946
20
9.8464538344
30
0.0000000000
10
-50.3305381185
20
9.5501309526
30
0.0000000000
10
-50.1647250169
20
9.2907783338
30
0.0000000000
10
-49.9327113428
20
9.0863520160
30
0.0000000000
10
-49.6515949166
20
8.9548109583
30
0.0000000000
10
-49.4457202059
20
8.9243294550
30
0.0000000000
10
-49.3429479797
20
8.9236728618
30
0.0000000000
11
-49.3429479797
21
11.0763271382
31
0.0000000000
11
-49.6478607847
21
11.0305970758
31
0.0000000000
11
-49.9251338759
21
10.9011321652
31
0.0000000000
11
-50.1536855895
21
10.7000489339
31
0.0000000000
11
-50.3176433910
21
10.4426921447
31
0.0000000000
11
-50.4015582886
21
10.1531504735
31
0.0000000000
11
-50.4015582832
21
9.8468494886
31
0.0000000000
11
-50.3176433736
21
9.5573078167
31
0.0000000000
11
-50.1536855749
21
9.2999510491
31
0.0000000000
11
-49.9251338605
21
9.0988678247
31
0.0000000000
11
-49.6478607801
21
8.9694029228
31
0.0000000000
11
-49.3429479797
21
8.9236728618
31
0.0000000000
0
SPLINE
5
4AE
100
AcDbEntity
8
0
100
AcDbSpline
62
7
6
CONTINUOUS
70
0
71
3
72
18
73
14
74
12
42
0.0000001000
43
0.0000001000
44
0.0000000001
12
-3.3569397490
22
-0.0214468808
32
0.0000000000
13
3.3569397490
23
-0.0214468808
33
0.0000000000
40
0.0000000000
40
0.0000000000
40
0.0000000000
40
0.0000000000
40
0.0918445687
40
0.1829998512
40
0.2736812051
40
0.3645796938
40
0.4543788809
40
0.5456211304
40
0.6354203187
40
0.7263188015
40
0.8170001543
40
0.9081554327
40
1.0000000000
40
1.0000000000
40
1.0000000000
40
1.0000000000
10
-49.3429479797
20
6.0763271382
30
0.0000000000
10
-49.4457202075
20
6.0756705450
30
0.0000000000
10
-49.6515949243
20
6.0451890404
30
0.0000000000
10
-49.9327113562
20
5.9136479761
30
0.0000000000
10
-50.1647250359
20
5.7092216458
30
0.0000000000
10
-50.3305381336
20
5.4498690158
30
0.0000000000
10
-50.4160117999
20
5.1535461258
30
0.0000000000
10
-50.4160117946
20
4.8464538344
30
0.0000000000
10
-50.3305381185
20
4.5501309526
30
0.0000000000
10
-50.1647250169
20
4.2907783338
30
0.0000000000
10
-49.9327113428
20
4.0863520160
30
0.0000000000
10
-49.6515949166
20
3.9548109583
30
0.0000000000
10
-49.4457202059
20
3.9243294550
30
0.0000000000
10
-49.3429479797
20
3.9236728618
30
0.0000000000
11
-49.3429479797
21
6.0763271382
31
0.0000000000
11
-49.6478607847
21
6.0305970758
31
0.0000000000
11
-49.9251338759
21
5.9011321652
31
0.0000000000
11
-50.1536855895
21
5.7000489339
31
0.0000000000
11
-50.3176433910
21
5.4426921447
31
0.0000000000
11
-50.4015582886
21
5.1531504735
31
0.0000000000
11
-50.4015582832
21
4.8468494886
31
0.0000000000
11
-50.3176433736
21
4.5573078167
31
0.0000000000
11
-50.1536855749
21
4.2999510491
31
0.0000000000
11
-49.9251338605
21
4.0988678247
31
0.0000000000
11
-49.6478607801
21
3.9694029228
31
0.0000000000
11
-49.3429479797
21
3.9236728618
31
0.0000000000
0
SPLINE
5
4AF
100
AcDbEntity
8
0
100
AcDbSpline
62
7
6
CONTINUOUS
70
0
71
3
72
18
73
14
74
12
42
0.0000001000
43
0.0000001000
44
0.0000000001
12
-3.3569397490
22
-0.0214468808
32
0.0000000000
13
3.3569397490
23
-0.0214468808
33
0.0000000000
40
0.0000000000
40
0.0000000000
40
0.0000000000
40
0.0000000000
40
0.0918445687
40
0.1829998512
40
0.2736812051
40
0.3645796938
40
0.4543788809
40
0.5456211304
40
0.6354203187
40
0.7263188015
40
0.8170001543
40
0.9081554327
40
1.0000000000
40
1.0000000000
40
1.0000000000
40
1.0000000000
10
-49.3429479797
20
1.0763271382
30
0.0000000000
10
-49.4457202075
20
1.0756705450
30
0.0000000000
10
-49.6515949243
20
1.0451890404
30
0.0000000000
10
-49.9327113562
20
0.9136479761
30
0.0000000000
10
-50.1647250359
20
0.7092216458
30
0.0000000000
10
-50.3305381336
20
0.4498690158
30
0.0000000000
10
-50.4160117999
20
0.1535461258
30
0.0000000000
10
-50.4160117946
20
-0.1535461656
30
0.0000000000
10
-50.3305381185
20
-0.4498690474
30
0.0000000000
10
-50.1647250169
20
-0.7092216662
30
0.0000000000
10
-49.9327113428
20
-0.9136479840
30
0.0000000000
10
-49.6515949166
20
-1.0451890417
30
0.0000000000
10
-49.4457202059
20
-1.0756705450
30
0.0000000000
10
-49.3429479797
20
-1.0763271382
30
0.0000000000
11
-49.3429479797
21
1.0763271382
31
0.0000000000
11
-49.6478607847
21
1.0305970758
31
0.0000000000
11
-49.9251338759
21
0.9011321652
31
0.0000000000
11
-50.1536855895
21
0.7000489339
31
0.0000000000
11
-50.3176433910
21
0.4426921447
31
0.0000000000
11
-50.4015582886
21
0.1531504735
31
0.0000000000
11
-50.4015582832
21
-0.1531505114
31
0.0000000000
11
-50.3176433736
21
-0.4426921833
31
0.0000000000
11
-50.1536855749
21
-0.7000489509
31
0.0000000000
11
-49.9251338605
21
-0.9011321753
31
0.0000000000
11
-49.6478607801
21
-1.0305970772
31
0.0000000000
11
-49.3429479797
21
-1.0763271382
31
0.0000000000
0
SPLINE
5
4B0
100
AcDbEntity
8
0
100
AcDbSpline
62
7
6
CONTINUOUS
70
0
71
3
72
18
73
14
74
12
42
0.0000001000
43
0.0000001000
44
0.0000000001
12
-3.3569397490
22
-0.0214468808
32
0.0000000000
13
3.3569397490
23
-0.0214468808
33
0.0000000000
40
0.0000000000
40
0.0000000000
40
0.0000000000
40
0.0000000000
40
0.0918445687
40
0.1829998512
40
0.2736812051
40
0.3645796938
40
0.4543788809
40
0.5456211304
40
0.6354203187
40
0.7263188015
40
0.8170001543
40
0.9081554327
40
1.0000000000
40
1.0000000000
40
1.0000000000
40
1.0000000000
10
-49.3429479797
20
-3.9236728618
30
0.0000000000
10
-49.4457202075
20
-3.9243294550
30
0.0000000000
10
-49.6515949243
20
-3.9548109596
30
0.0000000000
10
-49.9327113562
20
-4.0863520239
30
0.0000000000
10
-50.1647250359
20
-4.2907783542
30
0.0000000000
10
-50.3305381336
20
-4.5501309842
30
0.0000000000
10
-50.4160117999
20
-4.8464538742
30
0.0000000000
10
-50.4160117946
20
-5.1535461656
30
0.0000000000
10
-50.3305381185
20
-5.4498690474
30
0.0000000000
10
-50.1647250169
20
-5.7092216662
30
0.0000000000
10
-49.9327113428
20
-5.9136479840
30
0.0000000000
10
-49.6515949166
20
-6.0451890417
30
0.0000000000
10
-49.4457202059
20
-6.0756705450
30
0.0000000000
10
-49.3429479797
20
-6.0763271382
30
0.0000000000
11
-49.3429479797
21
-3.9236728618
31
0.0000000000
11
-49.6478607847
21
-3.9694029242
31
0.0000000000
11
-49.9251338759
21
-4.0988678348
31
0.0000000000
11
-50.1536855895
21
-4.2999510661
31
0.0000000000
11
-50.3176433910
21
-4.5573078553
31
0.0000000000
11
-50.4015582886
21
-4.8468495265
31
0.0000000000
11
-50.4015582832
21
-5.1531505114
31
0.0000000000
11
-50.3176433736
21
-5.4426921833
31
0.0000000000
11
-50.1536855749
21
-5.7000489509
31
0.0000000000
11
-49.9251338605
21
-5.9011321753
31
0.0000000000
11
-49.6478607801
21
-6.0305970772
31
0.0000000000
11
-49.3429479797
21
-6.0763271382
31
0.0000000000
0
SPLINE
5
4B1
100
AcDbEntity
8
0
100
AcDbSpline
62
7
6
CONTINUOUS
70
0
71
3
72
18
73
14
74
12
42
0.0000001000
43
0.0000001000
44
0.0000000001
12
-3.3569397490
22
-0.0214468808
32
0.0000000000
13
3.3569397490
23
-0.0214468808
33
0.0000000000
40
0.0000000000
40
0.0000000000
40
0.0000000000
40
0.0000000000
40
0.0918445687
40
0.1829998512
40
0.2736812051
40
0.3645796938
40
0.4543788809
40
0.5456211304
40
0.6354203187
40
0.7263188015
40
0.8170001543
40
0.9081554327
40
1.0000000000
40
1.0000000000
40
1.0000000000
40
1.0000000000
10
-49.3429479797
20
-8.9236728618
30
0.0000000000
10
-49.4457202075
20
-8.9243294550
30
0.0000000000
10
-49.6515949243
20
-8.9548109596
30
0.0000000000
10
-49.9327113562
20
-9.0863520239
30
0.0000000000
10
-50.1647250359
20
-9.2907783542
30
0.0000000000
10
-50.3305381336
20
-9.5501309842
30
0.0000000000
10
-50.4160117999
20
-9.8464538742
30
0.0000000000
10
-50.4160117946
20
-10.1535461656
30
0.0000000000
10
-50.3305381185
20
-10.4498690474
30
0.0000000000
10
-50.1647250169
20
-10.7092216662
30
0.0000000000
10
-49.9327113428
20
-10.9136479840
30
0.0000000000
10
-49.6515949166
20
-11.0451890417
30
0.0000000000
10
-49.4457202059
20
-11.0756705450
30
0.0000000000
10
-49.3429479797
20
-11.0763271382
30
0.0000000000
11
-49.3429479797
21
-8.9236728618
31
0.0000000000
11
-49.6478607847
21
-8.9694029242
31
0.0000000000
11
-49.9251338759
21
-9.0988678348
31
0.0000000000
11
-50.1536855895
21
-9.2999510661
31
0.0000000000
11
-50.3176433910
21
-9.5573078553
31
0.0000000000
11
-50.4015582886
21
-9.8468495265
31
0.0000000000
11
-50.4015582832
21
-10.1531505114
31
0.0000000000
11
-50.3176433736
21
-10.4426921833
31
0.0000000000
11
-50.1536855749
21
-10.7000489509
31
0.0000000000
11
-49.9251338605
21
-10.9011321753
31
0.0000000000
11
-49.6478607801
21
-11.0305970772
31
0.0000000000
11
-49.3429479797
21
-11.0763271382
31
0.0000000000
0
SPLINE
5
4B2
100
AcDbEntity
8
0
100
AcDbSpline
62
7
6
CONTINUOUS
70
0
71
3
72
10
73
6
74
4
42
0.0000001000
43
0.0000001000
44
0.0000000001
12
-27.7488101191
22
0.1606047145
32
0.0000000000
13
-27.7487177187
23
0.1758461481
33
0.0000000000
40
0.0000000000
40
0.0000000000
40
0.0000000000
40
0.0000000000
40
0.3370311490
40
0.6708710796
40
1.0000000000
40
1.0000000000
40
1.0000000000
40
1.0000000000
10
-21.5941843478
20
-16.2444026122
30
0.0000000000
10
-24.7115888003
20
-16.2263596817
30
0.0000000000
10
-30.9168769804
20
-16.1898855902
30
0.0000000000
10
-40.1664655136
20
-16.1338377246
30
0.0000000000
10
-46.2986476858
20
-16.0955545042
30
0.0000000000
10
-49.3429495212
20
-16.0762624865
30
0.0000000000
11
-21.5941843478
21
-16.2444026122
31
0.0000000000
11
-30.9463927697
21
-16.1894277027
31
0.0000000000
11
-40.2100386668
21
-16.1332883626
31
0.0000000000
11
-49.3429495212
21
-16.0762624865
31
0.0000000000
0
SPLINE
5
4B3
100
AcDbEntity
8
0
100
AcDbSpline
62
9
6
CONTINUOUS
70
0
71
3
72
10
73
6
74
4
42
0.0000001000
43
0.0000001000
44
0.0000000001
12
40.0000091318
22
0.2279197761
32
0.0000000000
13
39.9999906869
23
0.2311342022
33
0.0000000000
40
0.0000000000
40
0.0000000000
40
0.0000000000
40
0.0000000000
40
0.3319215754
40
0.6652549091
40
1.0000000000
40
1.0000000000
40
1.0000000000
40
1.0000000000
10
-61.5941843478
20
-17.3594295692
30
0.0000000000
10
-57.1685623323
20
-17.3342124054
30
0.0000000000
10
-48.2984955115
20
-17.2835551087
30
0.0000000000
10
-34.9651621497
20
-17.2070542006
30
0.0000000000
10
-26.0574511873
20
-17.1557047626
30
0.0000000000
10
-21.5941843478
20
-17.1299144160
30
0.0000000000
11
-61.5941843478
21
-17.3594295692
31
0.0000000000
11
-48.3173192940
21
-17.2836040326
31
0.0000000000
11
-34.9839859236
21
-17.2071022475
31
0.0000000000
11
-21.5941843478
21
-17.1299144160
31
0.0000000000
0
SPLINE
5
4B4
100
AcDbEntity
8
0
100
AcDbSpline
62
9
6
CONTINUOUS
70
0
71
3
72
9
73
5
74
3
42
0.0000001000
43
0.0000001000
44
0.0000000001
12
9.7564059250
22
0.0591620892
32
0.0000000000
13
9.7564045986
23
0.0593804195
33
0.0000000000
40
0.0000000000
40
0.0000000000
40
0.0000000000
40
0.0000000000
40
0.4987207607
40
1.0000000000
40
1.0000000000
40
1.0000000000
40
1.0000000000
10
-61.5941843478
20
-16.1196591660
30
0.0000000000
10
-59.9722769529
20
-16.1098240453
30
0.0000000000
10
-56.7201417540
20
-16.0900853022
30
0.0000000000
10
-53.4680067761
20
-16.0703101708
30
0.0000000000
10
-51.8377790844
20
-16.0603881136
30
0.0000000000
11
-61.5941843478
21
-16.1196591660
31
0.0000000000
11
-56.7284623271
21
-16.0901267528
31
0.0000000000
11
-51.8377790844
21
-16.0603881136
31
0.0000000000
0
SPLINE
5
4B5
100
AcDbEntity
8
0
100
AcDbSpline
62
9
6
CONTINUOUS
70
0
71
3
72
9
73
5
74
3
42
0.0000001000
43
0.0000001000
44
0.0000000001
12
-2.4943812633
22
0.0158070681
32
0.0000000000
13
-2.4943804420
23
0.0159361438
33
0.0000000000
40
0.0000000000
40
0.0000000000
40
0.0000000000
40
0.0000000000
40
0.5004217342
40
1.0000000000
40
1.0000000000
40
1.0000000000
40
1.0000000000
10
-49.3433982304
20
-16.0762596107
30
0.0000000000
10
-49.7594790962
20
-16.0736228772
30
0.0000000000
10
-50.5909394495
20
-16.0683431435
30
0.0000000000
10
-51.4223996659
20
-16.0630418973
30
0.0000000000
10
-51.8377790844
20
-16.0603881136
30
0.0000000000
11
-49.3433982304
21
-16.0762596107
31
0.0000000000
11
-50.5916407257
21
-16.0683333030
31
0.0000000000
11
-51.8377790844
21
-16.0603881136
31
0.0000000000
0
SPLINE
5
4B6
100
AcDbEntity
8
0
100
AcDbSpline
62
7
6
CONTINUOUS
70
0
71
3
72
10
73
6
74
4
42
0.0000001000
43
0.0000001000
44
0.0000000001
12
-3.9999099472
22
0.0844306542
32
0.0000000000
13
-4.0000789575
23
0.0760029924
33
0.0000000000
40
0.0000000000
40
0.0000000000
40
0.0000000000
40
0.0000000000
40
0.3303097417
40
0.6636505372
40
1.0000000000
40
1.0000000000
40
1.0000000000
40
1.0000000000
10
-57.5941843478
20
23.0998904748
30
0.0000000000
10
-58.0345874217
20
23.1091865640
30
0.0000000000
10
-58.9194424428
20
23.1275074450
30
0.0000000000
10
-60.2527767938
20
23.1541449052
30
0.0000000000
10
-61.1457095449
20
23.1713873732
30
0.0000000000
10
-61.5941843478
20
23.1799085617
30
0.0000000000
11
-57.5941843478
21
23.0998904748
31
0.0000000000
11
-58.9154043238
21
23.1272645048
31
0.0000000000
11
-60.2487681392
21
23.1539170037
31
0.0000000000
11
-61.5941843478
21
23.1799085617
31
0.0000000000
0
SPLINE
5
4B7
100
AcDbEntity
8
0
100
AcDbSpline
62
7
6
CONTINUOUS
70
0
71
3
72
10
73
6
74
4
42
0.0000001000
43
0.0000001000
44
0.0000000001
12
-3.9999099472
22
-0.0844306542
32
0.0000000000
13
-4.0000789575
23
-0.0760029924
33
0.0000000000
40
0.0000000000
40
0.0000000000
40
0.0000000000
40
0.0000000000
40
0.3303097417
40
0.6636505372
40
1.0000000000
40
1.0000000000
40
1.0000000000
40
1.0000000000
10
-57.5941843478
20
-23.0998904748
30
0.0000000000
10
-58.0345874217
20
-23.1091865640
30
0.0000000000
10
-58.9194424428
20
-23.1275074450
30
0.0000000000
10
-60.2527767938
20
-23.1541449052
30
0.0000000000
10
-61.1457095449
20
-23.1713873732
30
0.0000000000
10
-61.5941843478
20
-23.1799085618
30
0.0000000000
11
-57.5941843478
21
-23.0998904748
31
0.0000000000
11
-58.9154043238
21
-23.1272645049
31
0.0000000000
11
-60.2487681392
21
-23.1539170037
31
0.0000000000
11
-61.5941843478
21
-23.1799085618
31
0.0000000000
0
SPLINE
5
4B8
100
AcDbEntity
8
0
100
AcDbSpline
62
7
6
CONTINUOUS
70
0
71
3
72
10
73
6
74
4
42
0.0000001000
43
0.0000001000
44
0.0000000001
12
27.7487177187
22
0.1758461481
32
0.0000000000
13
27.7488101191
23
0.1606047145
33
0.0000000000
40
0.0000000000
40
0.0000000000
40
0.0000000000
40
0.0000000000
40
0.3291289424
40
0.6629688957
40
1.0000000000
40
1.0000000000
40
1.0000000000
40
1.0000000000
10
-49.3429495212
20
16.0762624865
30
0.0000000000
10
-46.2986474823
20
16.0955545054
30
0.0000000000
10
-40.1664648973
20
16.1338377284
30
0.0000000000
10
-30.9168763641
20
16.1898855938
30
0.0000000000
10
-24.7115883874
20
16.2263596841
30
0.0000000000
10
-21.5941843478
20
16.2444026122
30
0.0000000000
11
-49.3429495212
21
16.0762624865
31
0.0000000000
11
-40.2100380564
21
16.1332883663
31
0.0000000000
11
-30.9463915311
21
16.1894277100
31
0.0000000000
11
-21.5941843478
21
16.2444026122
31
0.0000000000
0
SPLINE
5
4B9
100
AcDbEntity
8
0
100
AcDbSpline
62
9
6
CONTINUOUS
70
0
71
3
72
9
73
5
74
3
42
0.0000001000
43
0.0000001000
44
0.0000000001
12
2.4943804420
22
0.0159361438
32
0.0000000000
13
2.4943812633
23
0.0158070681
33
0.0000000000
40
0.0000000000
40
0.0000000000
40
0.0000000000
40
0.0000000000
40
0.4995782652
40
1.0000000000
40
1.0000000000
40
1.0000000000
40
1.0000000000
10
-51.8377790844
20
16.0603881136
30
0.0000000000
10
-51.4223996664
20
16.0630418973
30
0.0000000000
10
-50.5909394500
20
16.0683431435
30
0.0000000000
10
-49.7594790967
20
16.0736228772
30
0.0000000000
10
-49.3433982304
20
16.0762596107
30
0.0000000000
11
-51.8377790844
21
16.0603881136
31
0.0000000000
11
-50.5916407272
21
16.0683333030
31
0.0000000000
11
-49.3433982304
21
16.0762596107
31
0.0000000000
0
SPLINE
5
4BA
100
AcDbEntity
8
CURVE
100
AcDbSpline
62
9
6
CONTINUOUS
70
0
71
3
72
32
73
28
74
26
42
0.0000001000
43
0.0000001000
44
0.0000000001
12
3.6733639865
22
0.0000000000
32
-0.0641188069
13
-3.5968425700
23
0.0000000000
33
0.0627831206
40
0.0000000000
40
0.0000000000
40
0.0000000000
40
0.0000000000
40
0.0208333333
40
0.0416666667
40
0.0625000000
40
0.0833333333
40
0.1041666667
40
0.1250000000
40
0.1666666667
40
0.2083333333
40
0.2500000000
40
0.3333333333
40
0.4166666667
40
0.5000000000
40
0.5833333333
40
0.6666666667
40
0.7083333333
40
0.7500000000
40
0.7916666667
40
0.8333333333
40
0.8750000000
40
0.8958333333
40
0.9166666667
40
0.9375000000
40
0.9583333333
40
0.9791666667
40
1.0000000000
40
1.0000000000
40
1.0000000000
40
1.0000000000
10
-53.6114533258
20
-8.0000000000
30
11.0106609117
10
-53.5859438537
20
-8.0000000000
30
11.0102156422
10
-53.5390544870
20
-8.0016220529
30
11.0093971853
10
-53.4664566137
20
-8.0087231268
30
11.0081299847
10
-53.3957272024
20
-8.0203280733
30
11.0068953982
10
-53.3259191131
20
-8.0363199463
30
11.0056768935
10
-53.2574565067
20
-8.0566040605
30
11.0044818742
10
-53.1678810652
20
-8.0894122612
30
11.0029183291
10
-53.0603930886
20
-8.1406606880
30
11.0010421195
10
-52.9352377521
20
-8.2218502281
30
10.9988575250
10
-52.7772374498
20
-8.3584083806
30
10.9960996194
10
-52.6214242956
20
-8.5632304387
30
10.9933798907
10
-52.5110859870
20
-8.8389067802
30
10.9914539284
10
-52.4734345341
20
-9.1331938203
30
10.9907967198
10
-52.5161860537
20
-9.4339237519
30
10.9915429504
10
-52.6173489129
20
-9.6673174352
30
10.9933087546
10
-52.7294966733
20
-9.8280307434
30
10.9952663011
10
-52.8318788510
20
-9.9402466314
30
10.9970533886
10
-52.9474508377
20
-10.0368945768
30
10.9990707052
10
-53.0701584630
20
-10.1145932108
30
11.0012125747
10
-53.1759173252
20
-10.1639064066
30
11.0030586025
10
-53.2638966932
20
-10.1954738600
30
11.0045942881
10
-53.3311382328
20
-10.2150074328
30
11.0057679936
10
-53.3996813089
20
-10.2304125789
30
11.0069644174
10
-53.4691315856
20
-10.2415946305
30
11.0081766765
10
-53.5403616564
20
-10.2484372138
30
11.0094200020
10
-53.5864752524
20
-10.2500000000
30
11.0102249178
10
-53.6114533258
20
-10.2500000000
30
11.0106609117
11
-53.6114533258
21
-8.0000000000
31
11.0106609117
11
-53.5386771831
21
-8.0024000520
31
11.0093905994
11
-53.4667680240
21
-8.0094737723
31
11.0081354204
11
-53.3958807560
21
-8.0210592278
31
11.0068980785
11
-53.3261433603
21
-8.0370353198
31
11.0056808077
11
-53.2576700109
21
-8.0573243999
31
11.0044856010
11
-53.1905736806
21
-8.0818927561
31
11.0033144302
11
-53.0610314612
21
-8.1439425926
31
11.0010532623
11
-52.9363469370
21
-8.2253884072
31
10.9988768859
11
-52.8195166736
21
-8.3265438003
31
10.9968376060
11
-52.6341972083
21
-8.5682120840
31
10.9936028427
11
-52.5232004630
21
-8.8420085633
31
10.9916653873
11
-52.4868350295
21
-9.1342676356
31
10.9910306263
11
-52.5292933723
21
-9.4304808333
31
10.9917717395
11
-52.6479873091
21
-9.7053289591
31
10.9938435498
11
-52.7325418996
21
-9.8266442278
31
10.9953194557
11
-52.8340771525
21
-9.9376519743
31
10.9970917601
11
-52.9486401108
21
-10.0337363582
31
10.9990914640
11
-53.0708589645
21
-10.1115060776
31
11.0012248020
11
-53.1981931904
21
-10.1711413447
31
11.0034474292
11
-53.2641061955
21
-10.1947835238
31
11.0045979450
11
-53.3313551556
21
-10.2143193617
31
11.0057717800
11
-53.3998325090
21
-10.2297087298
31
11.0069670566
11
-53.4694282180
21
-10.2408713858
31
11.0081818542
11
-53.5400183769
21
-10.2476874798
31
11.0094140100
11
-53.6114533258
21
-10.2500000000
31
11.0106609117
0
SPLINE
5
4BB
100
AcDbEntity
8
CURVE
100
AcDbSpline
62
9
6
CONTINUOUS
70
0
71
3
72
32
73
28
74
26
42
0.0000001000
43
0.0000001000
44
0.0000000001
12
-3.6733639865
22
0.0000000000
32
0.0641188069
13
3.5968425700
23
0.0000000000
33
-0.0627831206
40
0.0000000000
40
0.0000000000
40
0.0000000000
40
0.0000000000
40
0.0208333333
40
0.0416666667
40
0.0625000000
40
0.0833333333
40
0.1041666667
40
0.1250000000
40
0.1666666667
40
0.2083333333
40
0.2500000000
40
0.3333333333
40
0.4166666667
40
0.5000000000
40
0.5833333333
40
0.6666666667
40
0.7083333333
40
0.7500000000
40
0.7916666667
40
0.8333333333
40
0.8750000000
40
0.8958333333
40
0.9166666667
40
0.9375000000
40
0.9583333333
40
0.9791666667
40
1.0000000000
40
1.0000000000
40
1.0000000000
40
1.0000000000
10
-53.6114533258
20
-10.2500000000
30
11.0106609117
10
-53.6369627980
20
-10.2500000000
30
11.0111061812
10
-53.6838521647
20
-10.2483779471
30
11.0119246381
10
-53.7564500380
20
-10.2412768732
30
11.0131918387
10
-53.8271794493
20
-10.2296719267
30
11.0144264252
10
-53.8969875386
20
-10.2136800537
30
11.0156449299
10
-53.9654501450
20
-10.1933959395
30
11.0168399492
10
-54.0550255865
20
-10.1605877388
30
11.0184034943
10
-54.1625135631
20
-10.1093393121
30
11.0202797039
10
-54.2876688996
20
-10.0281497719
30
11.0224642985
10
-54.4456692019
20
-9.8915916194
30
11.0252222040
10
-54.6014823561
20
-9.6867695613
30
11.0279419327
10
-54.7118206647
20
-9.4110932199
30
11.0298678951
10
-54.7494721176
20
-9.1168061797
30
11.0305251036
10
-54.7067205980
20
-8.8160762481
30
11.0297788731
10
-54.6055577388
20
-8.5826825648
30
11.0280130688
10
-54.4934099784
20
-8.4219692566
30
11.0260555223
10
-54.3910278007
20
-8.3097533686
30
11.0242684348
10
-54.2754558140
20
-8.2131054232
30
11.0222511183
10
-54.1527481887
20
-8.1354067892
30
11.0201092487
10
-54.0469893265
20
-8.0860935934
30
11.0182632209
10
-53.9590099585
20
-8.0545261400
30
11.0167275353
10
-53.8917684189
20
-8.0349925672
30
11.0155538299
10
-53.8232253428
20
-8.0195874211
30
11.0143574060
10
-53.7537750661
20
-8.0084053695
30
11.0131451469
10
-53.6825449953
20
-8.0015627862
30
11.0119018214
10
-53.6364313993
20
-8.0000000000
30
11.0110969056
10
-53.6114533258
20
-8.0000000000
30
11.0106609117
11
-53.6114533258
21
-10.2500000000
31
11.0106609117
11
-53.6842294686
21
-10.2475999480
31
11.0119312240
11
-53.7561386277
21
-10.2405262277
31
11.0131864030
11
-53.8270258957
21
-10.2289407723
31
11.0144237449
11
-53.8967632914
21
-10.2129646802
31
11.0156410157
11
-53.9652366407
21
-10.1926756001
31
11.0168362224
11
-54.0323329711
21
-10.1681072439
31
11.0180073932
11
-54.1618751905
21
-10.1060574074
31
11.0202685611
11
-54.2865597147
21
-10.0246115928
31
11.0224449376
11
-54.4033899781
21
-9.9234561997
31
11.0244842174
11
-54.5887094433
21
-9.6817879160
31
11.0277189807
11
-54.6997061887
21
-9.4079914367
31
11.0296564361
11
-54.7360716222
21
-9.1157323644
31
11.0302911971
11
-54.6936132794
21
-8.8195191667
31
11.0295500840
11
-54.5749193426
21
-8.5446710410
31
11.0274782736
11
-54.4903647521
21
-8.4233557722
31
11.0260023677
11
-54.3888294992
21
-8.3123480257
31
11.0242300633
11
-54.2742665409
21
-8.2162636418
31
11.0222303594
11
-54.1520476872
21
-8.1384939224
31
11.0200970214
11
-54.0247134613
21
-8.0788586553
31
11.0178743942
11
-53.9588004562
21
-8.0552164762
31
11.0167238784
11
-53.8915514961
21
-8.0356806383
31
11.0155500435
11
-53.8230741427
21
-8.0202912702
31
11.0143547668
11
-53.7534784337
21
-8.0091286142
31
11.0131399692
11
-53.6828882748
21
-8.0023125202
31
11.0119078134
11
-53.6114533258
21
-8.0000000000
31
11.0106609117
0
SPLINE
5
4BC
100
AcDbEntity
8
CURVE
100
AcDbSpline
62
9
6
CONTINUOUS
70
0
71
3
72
25
73
21
74
19
42
0.0000001000
43
0.0000001000
44
0.0000000001
12
1.3806776690
22
-3.1644938264
32
-0.0240998184
13
-1.3035670552
23
2.8874542399
33
0.0227538476
40
0.0000000000
40
0.0000000000
40
0.0000000000
40
0.0000000000
40
0.0240963855
40
0.0481927711
40
0.0722891566
40
0.0963855422
40
0.1445783133
40
0.1927710843
40
0.2409638554
40
0.2891566265
40
0.3855421687
40
0.4819277108
40
0.5783132530
40
0.6746987952
40
0.7710843373
40
0.8674698795
40
0.9156626506
40
0.9638554217
40
0.9879518072
40
1.0000000000
40
1.0000000000
40
1.0000000000
40
1.0000000000
10
-58.5264709607
20
-12.9000000000
30
11.0964528636
10
-58.5153811803
20
-12.9254176211
30
11.0962592908
10
-58.4933777972
20
-12.9704984776
30
11.0958752203
10
-58.4539537858
20
-13.0378523391
30
11.0951870717
10
-58.4105930924
20
-13.1002039733
30
11.0944302079
10
-58.3473608608
20
-13.1781773683
30
11.0933264852
10
-58.2590585675
20
-13.2652035973
30
11.0917851630
10
-58.1408513566
20
-13.3519034375
30
11.0897218484
10
-58.0072374562
20
-13.4218688135
30
11.0873896091
10
-57.8087072749
20
-13.4891999303
30
11.0839242519
10
-57.5530547315
20
-13.5142533796
30
11.0794618202
10
-57.2509127899
20
-13.4492388542
30
11.0741879130
10
-56.9820472647
20
-13.2980848125
30
11.0694948478
10
-56.7743094941
20
-13.0745987866
30
11.0658687715
10
-56.6402031154
20
-12.7997899397
30
11.0635279359
10
-56.6028916498
20
-12.5478516028
30
11.0628766619
10
-56.6195601726
20
-12.3404715543
30
11.0631676120
10
-56.6486870464
20
-12.2184749229
30
11.0636760235
10
-56.6782824536
20
-12.1367647012
30
11.0641926133
10
-56.6932506057
20
-12.1018452821
30
11.0644538833
10
-56.6984858147
20
-12.0902490804
30
11.0645452642
11
-58.5264709607
21
-12.9000000000
31
11.0964528636
11
-58.4923079744
21
-12.9704539071
31
11.0958565465
11
-58.4532976722
21
-13.0370186345
31
11.0951756191
11
-58.4099158457
21
-13.0995587087
31
11.0944183865
11
-58.3625514518
21
-13.1579879852
31
11.0935916380
11
-58.2570178244
21
-13.2622483248
31
11.0917495417
11
-58.1382835750
21
-13.3491143601
31
11.0896770276
11
-58.0046901669
21
-13.4186243071
31
11.0873451460
11
-57.8578404991
21
-13.4684264546
31
11.0847818755
11
-57.5538282499
21
-13.4984069355
31
11.0794753220
11
-57.2564588593
21
-13.4348822681
31
11.0742847200
11
-56.9922352238
21
-13.2860294818
31
11.0696726792
11
-56.7865813928
21
-13.0660449831
31
11.0660829783
11
-56.6550918854
21
-12.7952037468
31
11.0637878204
11
-56.6109352551
21
-12.4955208091
31
11.0630170635
11
-56.6233019820
21
-12.3419947341
31
11.0632329256
11
-56.6580196957
21
-12.1954803281
31
11.0638389255
11
-56.6835256605
21
-12.1251359223
31
11.0642841338
11
-56.6984858147
21
-12.0902490804
31
11.0645452642
0
SPLINE
5
4BD
100
AcDbEntity
8
CURVE
100
AcDbSpline
62
9
6
CONTINUOUS
70
0
71
3
72
27
73
23
74
21
42
0.0000001000
43
0.0000001000
44
0.0000000001
12
-0.9580432574
22
2.1221049233
32
0.0167227073
13
-0.9937864368
23
-2.2777445558
33
0.0173466068
40
0.0000000000
40
0.0000000000
40
0.0000000000
40
0.0000000000
40
0.0163934426
40
0.0819672131
40
0.1475409836
40
0.2131147541
40
0.2459016393
40
0.2786885246
40
0.3442622951
40
0.4098360656
40
0.4754098361
40
0.5081967213
40
0.5409836066
40
0.6065573770
40
0.6721311475
40
0.7377049180
40
0.8032786885
40
0.8688524590
40
0.9016393443
40
0.9344262295
40
0.9672131148
40
1.0000000000
40
1.0000000000
40
1.0000000000
40
1.0000000000
10
-56.6984858147
20
-12.0902490804
30
11.0645452642
10
-56.7037210238
20
-12.0786528786
30
11.0646366451
10
-56.7311261943
20
-12.0208898927
30
11.0651150042
10
-56.7911577251
20
-11.9203446951
30
11.0661628584
10
-56.8911822189
20
-11.7998820929
30
11.0679087925
10
-56.9855310593
20
-11.7164727570
30
11.0695556576
10
-57.0667532894
20
-11.6596636437
30
11.0709733969
10
-57.1541589369
20
-11.6078917909
30
11.0724990682
10
-57.2720567670
20
-11.5551459565
30
11.0745569824
10
-57.4218341851
20
-11.5141433711
30
11.0771713570
10
-57.5460920726
20
-11.4998743588
30
11.0793402865
10
-57.6447747673
20
-11.4997563336
30
11.0810627993
10
-57.7457509050
20
-11.5072506906
30
11.0828253444
10
-57.8723469601
20
-11.5313191820
30
11.0850350867
10
-58.0181165201
20
-11.5830145467
30
11.0875795039
10
-58.1493730706
20
-11.6535669412
30
11.0898705955
10
-58.2651131443
20
-11.7401474500
30
11.0918908460
10
-58.3514388041
20
-11.8263945528
30
11.0933976660
10
-58.4132007194
20
-11.9033370654
30
11.0944757242
10
-58.4555498614
20
-11.9647195369
30
11.0952149313
10
-58.4940691438
20
-12.0308738859
30
11.0958872878
10
-58.5156099068
20
-12.0751066169
30
11.0962632832
10
-58.5264709607
20
-12.1000000000
30
11.0964528636
11
-56.6984858147
21
-12.0902490804
31
11.0645452642
11
-56.7149209192
21
-12.0556238660
31
11.0648321401
11
-56.7944881339
21
-11.9226109720
31
11.0662209910
11
-56.8933812380
21
-11.8032773261
31
11.0679471765
11
-57.0063152133
21
-11.7030970083
31
11.0699184464
11
-57.0675262166
21
-11.6602933012
31
11.0709868884
11
-57.1328835764
21
-11.6216326862
31
11.0721277054
11
-57.2734401040
21
-11.5588613591
31
11.0745811287
11
-57.4217228596
21
-11.5181233328
31
11.0771694138
11
-57.5707024450
21
-11.5007862846
31
11.0797698621
11
-57.6450614476
21
-11.5007078814
31
11.0810678034
11
-57.7205319294
21
-11.5063571377
31
11.0823851455
11
-57.8713226757
21
-11.5351213778
31
11.0850172078
11
-58.0156976852
21
-11.5861573850
31
11.0875372830
11
-58.1467869911
21
-11.6562382936
31
11.0898254553
11
-58.2630882640
21
-11.7429667857
31
11.0918555016
11
-58.3662710652
21
-11.8462922501
31
11.0936565641
11
-58.4125386703
21
-11.9039496633
31
11.0944641681
11
-58.4549115515
21
-11.9655148498
31
11.0952037895
11
-58.4930344542
21
-12.0309063438
31
11.0958692273
11
-58.5264709607
21
-12.1000000000
31
11.0964528636
0
ENDSEC
0
SECTION
2
OBJECTS
0
DICTIONARY
5
C
100
AcDbDictionary
280
0
281
1
3
ACAD_GROUP
350
D
3
ACAD_MLINESTYLE
350
17
3
ACAD_LAYOUT
350
1A
3
ACAD_PLOTSETTINGS
350
19
3
ACAD_PLOTSTYLENAME
350
E
0
DICTIONARY
5
D
102
{ACAD_REACTORS
330
C
102
}
100
AcDbDictionary
280
0
281
1
0
ACDBDICTIONARYWDFLT
5
E
102
{ACAD_REACTORS
330
C
102
}
100
AcDbDictionary
281
1
3
Normal
350
F
100
AcDbDictionaryWithDefault
340
F
0
DICTIONARY
5
17
102
{ACAD_REACTORS
330
C
102
}
100
AcDbDictionary
280
0
281
1
3
Standard
350
18
0
DICTIONARY
5
19
102
{ACAD_REACTORS
330
C
102
}
100
AcDbDictionary
281
1
0
DICTIONARY
5
1A
102
{ACAD_REACTORS
330
C
102
}
100
AcDbDictionary
281
1
3
Layout1
350
1E
3
Model
350
22
0
ACDBPLACEHOLDER
5
F
102
{ACAD_REACTORS
330
E
102
}
0
MLINESTYLE
5
18
102
{ACAD_REACTORS
330
17
102
}
100
AcDbMlineStyle
2
STANDARD
70
0
3

62
256
51
90.0
52
90.0
71
2
49
0.5
62
256
6
BYLAYER
49
-0.5
62
256
6
BYLAYER
0
LAYOUT
5
1E
102
{ACAD_REACTORS
330
1A
102
}
100
AcDbPlotSettings
1

2

4

6

40
0.0
41
0.0
42
0.0
43
0.0
44
0.0
45
0.0
46
0.0
47
0.0
48
0.0
49
0.0
140
0.0
141
0.0
142
1.0
143
1.0
70
0
72
0
73
0
74
0
7

75
0
147
1.0
148
0.0
149
0.0
100
AcDbLayout
1
Layout1
70
0
71
0
10
0.0
20
0.0
11
0.0
21
0.0
12
0.0
22
0.0
32
0.0
14
0.0
24
0.0
34
0.0
15
0.0
25
0.0
35
0.0
146
0.0
13
0.0
23
0.0
33
0.0
16
0.0
26
0.0
36
0.0
17
0.0
27
0.0
37
0.0
76
0
330
1B
331
0
345
0
346
0
0
LAYOUT
5
22
102
{ACAD_REACTORS
330
1A
102
}
100
AcDbPlotSettings
1

2

4

6

40
0.0
41
0.0
42
0.0
43
0.0
44
0.0
45
0.0
46
0.0
47
0.0
48
0.0
49
0.0
140
0.0
141
0.0
142
1.0
143
1.0
70
0
72
0
73
0
74
0
7

75
0
147
1.0
148
0.0
149
0.0
100
AcDbLayout
1
Model
70
0
71
0
10
0.0
20
0.0
11
0.0
21
0.0
12
0.0
22
0.0
32
0.0
14
0.0
24
0.0
34
0.0
15
0.0
25
0.0
35
0.0
146
0.0
13
0.0
23
0.0
33
0.0
16
0.0
26
0.0
36
0.0
17
0.0
27
0.0
37
0.0
76
0
330
1F
331
0
345
0
346
0
0
ENDSEC
0
EOF
