  0
SECTION
  2
HEADER
  9
$ACADVER
  1
AC1024
  9
$DWGCODEPAGE
  3
ANSI_1252
  9
$EXTMAX
 10
297.0
 20
210.0
 30
0.0
  9
$EXTMIN
 10
0.0
 20
0.0
 30
0.0
  9
$LIMMIN
 10
0.0
 20
0.0
  9
$LIMMAX
 10
297.0
 20
210.0
  9
$VIEWCTR
 10
148.5
 20
105.0
  9
$VIEWSIZE
 40
210.0
  9
$CLAYER
  8
0
  9
$LTSCALE
 40
16.335
  9
$CELTYPE
  6
BYLAYER
  9
$DIMSCALE
 40
1.0
  9
$DIMASZ
 40
3.0
  9
$DIMEXO
 40
0.5
  9
$DIMDLI
 40
11.286
  9
$DIMEXE
 40
1.5
  9
$DIMCEN
 40
2.673
  9
$DIMLFAC
 40
1.0
  9
$DIMBLK
  1
_FILLED
  9
$DIMALT
 70
0
  9
$DIMALTF
 40
0.0393700787
  9
$DIMTXT
 40
3.0
  9
$DIMTOL
 70
1
  9
$DIMLIM
 70
0
  9
$DIMTFAC
 40
1.0
  9
$DIMTP
 40
0.01
  9
$DIMTM
 40
0.01
  9
$DIMGAP
 40
0.625
  9
$DIMDSEP
 70
44
  9
$AUNITS
 70
0
  9
$PDMODE
 70
3
  9
$PDSIZE
 40
3.0
  9
$HANDSEED
  5
425
  9
$TILEMODE
 70
1
  9
$MEASUREMENT
 70
1
  9
$INSUNITS
 70
4
  0
ENDSEC
  0
SECTION
  2
CLASSES
  0
CLASS
  1
ACDBDICTIONARYWDFLT
  2
AcDbDictionaryWithDefault
  3
AutoCAD 2000
 90
0
 91
1
280
0
281
0
  0
CLASS
  1
ACDBPLACEHOLDER
  2
AcDbPlaceHolder
  3
AutoCAD 2000
 90
0
 91
1
280
0
281
0
  0
CLASS
  1
LAYOUT
  2
AcDbLayout
  3
AutoCAD 2000
 90
0
 91
0
280
0
281
0
  0
ENDSEC
  0
SECTION
  2
TABLES
  0
TABLE
  2
VPORT
  5
8
100
AcDbSymbolTable
 70
2
  0
VPORT
  5
1F4
100
AcDbSymbolTableRecord
100
AcDbViewportTableRecord
  2
*ACTIVE
 70
0
 10
0.0
 20
0.0
 11
1.0
 21
1.0
 12
148.5
 22
105.0
 13
0.0
 23
0.0
 14
1.0
 24
1.0
 15
0.0
 25
0.0
 16
0.0
 26
0.0
 36
1.0
 17
0.0
 27
0.0
 37
0.0
 40
210.0
 41
1.4142857143
 42
50.0
 43
0.0
 44
0.0
 50
0.0
 51
0.0
 71
0
 72
100
 73
1
 74
1
 75
0
 76
0
 77
0
 78
0
  0
ENDTAB
  0
TABLE
  2
LTYPE
  5
5
100
AcDbSymbolTable
 70
6
  0
LTYPE
  5
14
100
AcDbSymbolTableRecord
100
AcDbLinetypeTableRecord
  2
BYBLOCK
 70
0
  3

 72
65
 73
0
 40
0.0
  0
LTYPE
  5
15
100
AcDbSymbolTableRecord
100
AcDbLinetypeTableRecord
  2
BYLAYER
 70
0
  3

 72
65
 73
0
 40
0.0
  0
LTYPE
  5
16
100
AcDbSymbolTableRecord
100
AcDbLinetypeTableRecord
  2
CONTINUOUS
 70
64
  3
Solid line
 72
65
 73
0
 40
0.0
  0
LTYPE
  5
1F5
100
AcDbSymbolTableRecord
100
AcDbLinetypeTableRecord
  2
CENTER
 70
64
  3
____ _ ____ _ ____ _ ____ _ ____ _ ____ _ ____
 72
65
 73
4
 40
0.6
 49
0.375
 74
0
 49
-0.075
 74
0
 49
0.075
 74
0
 49
-0.075
 74
0
  0
LTYPE
  5
1F6
100
AcDbSymbolTableRecord
100
AcDbLinetypeTableRecord
  2
HIDDEN
 70
64
  3
- - - - - - - - - - - - - - - - - - - -
 72
65
 73
2
 40
0.2
 49
0.1
 74
0
 49
-0.1
 74
0
  0
LTYPE
  5
1F7
100
AcDbSymbolTableRecord
100
AcDbLinetypeTableRecord
  2
PHANTOM
 70
64
  3
_____ _ _ _____ _ _ _____ _ _ _____
 72
65
 73
6
 40
0.8
 49
0.45
 74
0
 49
-0.05
 74
0
 49
0.1
 74
0
 49
-0.05
 74
0
 49
0.1
 74
0
 49
-0.05
 74
0
  0
LTYPE
  5
1F8
100
AcDbSymbolTableRecord
100
AcDbLinetypeTableRecord
  2
DOT
 70
64
  3
. . . . . . . . . . . . . . . . . . . .
 72
65
 73
2
 40
0.2
 49
0.1
 74
0
 49
-0.1
 74
0
  0
LTYPE
  5
1F9
100
AcDbSymbolTableRecord
100
AcDbLinetypeTableRecord
  2
DASHED
 70
64
  3
- - - - - - - - - - - - - - - - - - - -
 72
65
 73
2
 40
0.2
 49
0.1
 74
0
 49
-0.1
 74
0
  0
ENDTAB
  0
TABLE
  2
LAYER
  5
2
100
AcDbSymbolTable
 70
36
  0
LAYER
  5
10
100
AcDbSymbolTableRecord
100
AcDbLayerTableRecord
  2
0
 70
0
 62
7
  6
CONTINUOUS
370
-3
390
F
  0
LAYER
  5
1FA
100
AcDbSymbolTableRecord
100
AcDbLayerTableRecord
  2
DEFAULT_1
 70
0
 62
7
  6
CENTER
370
-3
390
F
  0
LAYER
  5
1FB
100
AcDbSymbolTableRecord
100
AcDbLayerTableRecord
  2
DEFAULT_2
 70
0
 62
7
  6
HIDDEN
370
-3
390
F
  0
LAYER
  5
1FC
100
AcDbSymbolTableRecord
100
AcDbLayerTableRecord
  2
DEFAULT_3
 70
0
 62
7
  6
PHANTOM
370
-3
390
F
  0
LAYER
  5
1FD
100
AcDbSymbolTableRecord
100
AcDbLayerTableRecord
  2
ASSI
 70
0
 62
7
  6
CONTINUOUS
370
-3
390
F
  0
LAYER
  5
1FE
100
AcDbSymbolTableRecord
100
AcDbLayerTableRecord
  2
COORDINATE
 70
0
 62
7
  6
CONTINUOUS
370
-3
390
F
  0
LAYER
  5
1FF
100
AcDbSymbolTableRecord
100
AcDbLayerTableRecord
  2
COORD_ORIGINE
 70
0
 62
7
  6
CONTINUOUS
370
-3
390
F
  0
LAYER
  5
200
100
AcDbSymbolTableRecord
100
AcDbLayerTableRecord
  2
COPY_PUBLISH
 70
0
 62
7
  6
CONTINUOUS
370
-3
390
F
  0
LAYER
  5
201
100
AcDbSymbolTableRecord
100
AcDbLayerTableRecord
  2
COSMETIC
 70
0
 62
7
  6
CONTINUOUS
370
-3
390
F
  0
LAYER
  5
202
100
AcDbSymbolTableRecord
100
AcDbLayerTableRecord
  2
COSMETICI
 70
0
 62
7
  6
CONTINUOUS
370
-3
390
F
  0
LAYER
  5
203
100
AcDbSymbolTableRecord
100
AcDbLayerTableRecord
  2
CURVE
 70
0
 62
7
  6
CONTINUOUS
370
-3
390
F
  0
LAYER
  5
204
100
AcDbSymbolTableRecord
100
AcDbLayerTableRecord
  2
DRAFT
 70
0
 62
7
  6
CONTINUOUS
370
-3
390
F
  0
LAYER
  5
205
100
AcDbSymbolTableRecord
100
AcDbLayerTableRecord
  2
IMPORT
 70
0
 62
7
  6
CONTINUOUS
370
-3
390
F
  0
LAYER
  5
206
100
AcDbSymbolTableRecord
100
AcDbLayerTableRecord
  2
IMPORT_IGES
 70
0
 62
7
  6
CONTINUOUS
370
-3
390
F
  0
LAYER
  5
207
100
AcDbSymbolTableRecord
100
AcDbLayerTableRecord
  2
INTF_1
 70
0
 62
7
  6
CONTINUOUS
370
-3
390
F
  0
LAYER
  5
208
100
AcDbSymbolTableRecord
100
AcDbLayerTableRecord
  2
INTF_11
 70
0
 62
7
  6
CONTINUOUS
370
-3
390
F
  0
LAYER
  5
209
100
AcDbSymbolTableRecord
100
AcDbLayerTableRecord
  2
INTF_16
 70
0
 62
7
  6
CONTINUOUS
370
-3
390
F
  0
LAYER
  5
20A
100
AcDbSymbolTableRecord
100
AcDbLayerTableRecord
  2
INTF_2
 70
0
 62
7
  6
CONTINUOUS
370
-3
390
F
  0
LAYER
  5
20B
100
AcDbSymbolTableRecord
100
AcDbLayerTableRecord
  2
INTF_8
 70
0
 62
7
  6
CONTINUOUS
370
-3
390
F
  0
LAYER
  5
20C
100
AcDbSymbolTableRecord
100
AcDbLayerTableRecord
  2
NOTE
 70
0
 62
7
  6
CONTINUOUS
370
-3
390
F
  0
LAYER
  5
20D
100
AcDbSymbolTableRecord
100
AcDbLayerTableRecord
  2
PIANI
 70
0
 62
7
  6
CONTINUOUS
370
-3
390
F
  0
LAYER
  5
20E
100
AcDbSymbolTableRecord
100
AcDbLayerTableRecord
  2
PIANI_ORIGINE
 70
0
 62
7
  6
CONTINUOUS
370
-3
390
F
  0
LAYER
  5
20F
100
AcDbSymbolTableRecord
100
AcDbLayerTableRecord
  2
PUNTI
 70
0
 62
7
  6
CONTINUOUS
370
-3
390
F
  0
LAYER
  5
210
100
AcDbSymbolTableRecord
100
AcDbLayerTableRecord
  2
RACCORDO
 70
0
 62
7
  6
CONTINUOUS
370
-3
390
F
  0
LAYER
  5
211
100
AcDbSymbolTableRecord
100
AcDbLayerTableRecord
  2
RGB__255__255__255__
 70
0
 62
7
  6
CONTINUOUS
370
-3
390
F
  0
LAYER
  5
212
100
AcDbSymbolTableRecord
100
AcDbLayerTableRecord
  2
SIMBOLI
 70
0
 62
7
  6
CONTINUOUS
370
-3
390
F
  0
LAYER
  5
213
100
AcDbSymbolTableRecord
100
AcDbLayerTableRecord
  2
SKETCH_SNI
 70
0
 62
7
  6
CONTINUOUS
370
-3
390
F
  0
LAYER
  5
214
100
AcDbSymbolTableRecord
100
AcDbLayerTableRecord
  2
SMUSSO
 70
0
 62
7
  6
CONTINUOUS
370
-3
390
F
  0
LAYER
  5
215
100
AcDbSymbolTableRecord
100
AcDbLayerTableRecord
  2
SNAPLINE
 70
0
 62
7
  6
CONTINUOUS
370
-3
390
F
  0
LAYER
  5
216
100
AcDbSymbolTableRecord
100
AcDbLayerTableRecord
  2
SUPERFICI
 70
0
 62
7
  6
CONTINUOUS
370
-3
390
F
  0
LAYER
  5
217
100
AcDbSymbolTableRecord
100
AcDbLayerTableRecord
  2
TRASH
 70
0
 62
7
  6
CONTINUOUS
370
-3
390
F
  0
LAYER
  5
218
100
AcDbSymbolTableRecord
100
AcDbLayerTableRecord
  2
XSEC_DATUMS
 70
0
 62
7
  6
CONTINUOUS
370
-3
390
F
  0
ENDTAB
  0
TABLE
  2
STYLE
  5
3
100
AcDbSymbolTable
 70
1
  0
STYLE
  5
11
100
AcDbSymbolTableRecord
100
AcDbTextStyleTableRecord
  2
STANDARD
 70
0
 40
0.0
 41
0.8
 50
0.0
 71
0
 42
0.2
  3
txt
  4

  0
STYLE
  5
219
100
AcDbSymbolTableRecord
100
AcDbTextStyleTableRecord
  2
TEXTSTYLE_1
 70
0
 40
0.0
 41
0.8
 50
0.0
 71
0
 42
0.2
  3
gdt
  4

  0
ENDTAB
  0
TABLE
  2
VIEW
  5
6
100
AcDbSymbolTable
 70
0
  0
ENDTAB
  0
TABLE
  2
UCS
  5
7
100
AcDbSymbolTable
 70
0
  0
ENDTAB
  0
TABLE
  2
APPID
  5
9
100
AcDbSymbolTable
 70
1
  0
APPID
  5
21A
100
AcDbSymbolTableRecord
100
AcDbRegAppTableRecord
  2
ACAD
 70
0
  0
ENDTAB
  0
TABLE
  2
BLOCK_RECORD
  5
1
100
AcDbSymbolTable
 70
0
  0
BLOCK_RECORD
  5
21B
100
AcDbSymbolTableRecord
100
AcDbBlockTableRecord
  2
*Model_Space
  0
BLOCK_RECORD
  5
21C
100
AcDbSymbolTableRecord
100
AcDbBlockTableRecord
  2
*Paper_Space
  0
BLOCK_RECORD
  5
21D
100
AcDbSymbolTableRecord
100
AcDbBlockTableRecord
  2
_FILLED
  0
BLOCK_RECORD
  5
21E
100
AcDbSymbolTableRecord
100
AcDbBlockTableRecord
  2
*D0
  0
BLOCK_RECORD
  5
21F
100
AcDbSymbolTableRecord
100
AcDbBlockTableRecord
  2
*D1
  0
BLOCK_RECORD
  5
220
100
AcDbSymbolTableRecord
100
AcDbBlockTableRecord
  2
*D2
  0
BLOCK_RECORD
  5
221
100
AcDbSymbolTableRecord
100
AcDbBlockTableRecord
  2
*D3
  0
ENDTAB
  0
TABLE
  2
DIMSTYLE
  5
A
100
AcDbSymbolTable
 70
1
100
AcDbDimStyleTable
 71
0
  0
DIMSTYLE
105
222
100
AcDbSymbolTableRecord
100
AcDbDimStyleTableRecord
  2
STANDARD
 70
0
  3

  4

 40
1.0
 41
3.0
 42
0.5
 43
0.38
 44
1.5
 45
0.0
 46
0.0
 47
0.01
 48
0.01
140
3.0
141
0.09
142
0.0
143
25.4
144
1.0
145
0.0
146
1.0
147
0.625
 71
1
 72
0
 73
0
 74
0
 75
0
 76
0
 77
1
 78
8
 79
2
170
0
171
1
172
0
173
0
174
0
175
0
176
0
177
0
178
0
270
2
179
2
271
2
272
2
273
2
274
2
275
0
280
0
281
0
282
0
283
1
284
8
285
0
286
0
287
3
288
0
340
11
278
44
341
21D
342
21D
343
21D
344
21D
  0
DIMSTYLE
105
223
100
AcDbSymbolTableRecord
100
AcDbDimStyleTableRecord
  2
DIMSTYLE_1
 70
0
  3

  4

 40
1.0
 41
3.0
 42
0.5
 43
0.38
 44
1.5
 45
0.0
 46
0.0
 47
0.0
 48
0.0
140
3.0
141
0.09
142
0.0
143
25.4
144
1.0
145
0.0
146
1.0
147
0.75
 71
0
 72
0
 73
0
 74
0
 75
0
 76
0
 77
1
 78
8
 79
2
170
0
171
1
172
0
173
0
174
0
175
0
176
0
177
0
178
0
270
2
179
2
271
2
272
2
273
2
274
2
275
0
280
0
281
0
282
0
283
1
284
8
285
0
286
0
287
3
288
0
340
11
278
44
341
21D
342
21D
343
21D
344
21D
  0
ENDTAB
  0
ENDSEC
  0
SECTION
  2
BLOCKS
  0
BLOCK
  5
20
100
AcDbEntity
  8
0
100
AcDbBlockBegin
  2
*Model_Space
 70
0
 10
0.0
 20
0.0
 30
0.0
  3
*Model_Space
  1

  0
ENDBLK
  5
21
100
AcDbEntity
  8
0
100
AcDbBlockEnd
  0
BLOCK
  5
1C
100
AcDbEntity
  8
0
100
AcDbBlockBegin
  2
*Paper_Space
 70
0
 10
0.0
 20
0.0
 30
0.0
  3
*Paper_Space
  1

  0
ENDBLK
  5
1D
100
AcDbEntity
  8
0
100
AcDbBlockEnd
  0
BLOCK
  5
224
100
AcDbEntity
  8
0
100
AcDbBlockBegin
  2
_FILLED
 70
64
 10
0.0
 20
0.0
  3
_FILLED
  1

  0
SOLID
  5
225
100
AcDbEntity
  8
0
  6
BYBLOCK
 62
0
100
AcDbTrace
 10
0.0
 20
0.0
 11
-1.0
 21
0.3166666667
 12
-1.0
 22
-0.3166666667
 13
-1.0
 23
-0.3166666667
  0
ENDBLK
  5
226
100
AcDbEntity
  8
0
  6
BYBLOCK
 62
0
100
AcDbBlockEnd
  0
BLOCK
  5
227
100
AcDbEntity
  8
0
100
AcDbBlockBegin
 62
7
  6
CONTINUOUS
  2
*D0
 70
65
 10
0.0
 20
0.0
  3
*D0
  1

  0
LINE
  5
228
100
AcDbEntity
  8
0
100
AcDbLine
 62
7
  6
CONTINUOUS
 10
-35.009179344
 20
20.4956028922
 11
-35.009179344
 21
37.0296209041
  0
LINE
  5
229
100
AcDbEntity
  8
0
100
AcDbLine
 62
7
  6
CONTINUOUS
 10
-75.009179344
 20
21.5836931939
 11
-75.009179344
 21
37.0296209041
  0
LINE
  5
22A
100
AcDbEntity
  8
0
100
AcDbLine
 62
7
  6
CONTINUOUS
 10
-35.009179344
 20
35.5296209041
 11
-55.009179344
 21
35.5296209041
  0
LINE
  5
22B
100
AcDbEntity
  8
0
100
AcDbLine
 62
7
  6
CONTINUOUS
 10
-75.009179344
 20
35.5296209041
 11
-55.009179344
 21
35.5296209041
  0
INSERT
  5
22C
100
AcDbEntity
  8
0
100
AcDbBlockReference
 62
7
  6
CONTINUOUS
  2
_FILLED
 10
-35.009179344
 20
35.5296209041
 41
3.0
 42
3.0
 43
3.0
  0
INSERT
  5
22D
100
AcDbEntity
  8
0
100
AcDbBlockReference
 62
7
  6
CONTINUOUS
  2
_FILLED
 10
-75.009179344
 20
35.5296209041
 41
3.0
 42
3.0
 43
3.0
 50
180.0
  0
ENDBLK
  5
22E
100
AcDbEntity
  8
0
  6
BYBLOCK
 62
0
100
AcDbBlockEnd
  0
BLOCK
  5
22F
100
AcDbEntity
  8
0
100
AcDbBlockBegin
 62
7
  6
CONTINUOUS
  2
*D1
 70
65
 10
0.0
 20
0.0
  3
*D1
  1

  0
LINE
  5
230
100
AcDbEntity
  8
0
100
AcDbLine
 62
7
  6
CONTINUOUS
 10
-35.009179344
 20
20.4956028922
 11
-35.009179344
 21
45.0296209041
  0
LINE
  5
231
100
AcDbEntity
  8
0
100
AcDbLine
 62
7
  6
CONTINUOUS
 10
-90.509179344
 20
0.6836931939
 11
-90.509179344
 21
45.0296209041
  0
LINE
  5
232
100
AcDbEntity
  8
0
100
AcDbLine
 62
7
  6
CONTINUOUS
 10
-35.009179344
 20
43.5296209041
 11
-62.759179344
 21
43.5296209041
  0
LINE
  5
233
100
AcDbEntity
  8
0
100
AcDbLine
 62
7
  6
CONTINUOUS
 10
-90.509179344
 20
43.5296209041
 11
-62.759179344
 21
43.5296209041
  0
INSERT
  5
234
100
AcDbEntity
  8
0
100
AcDbBlockReference
 62
7
  6
CONTINUOUS
  2
_FILLED
 10
-35.009179344
 20
43.5296209041
 41
3.0
 42
3.0
 43
3.0
  0
INSERT
  5
235
100
AcDbEntity
  8
0
100
AcDbBlockReference
 62
7
  6
CONTINUOUS
  2
_FILLED
 10
-90.509179344
 20
43.5296209041
 41
3.0
 42
3.0
 43
3.0
 50
180.0
  0
ENDBLK
  5
236
100
AcDbEntity
  8
0
  6
BYBLOCK
 62
0
100
AcDbBlockEnd
  0
BLOCK
  5
237
100
AcDbEntity
  8
0
100
AcDbBlockBegin
 62
7
  6
CONTINUOUS
  2
*D2
 70
65
 10
0.0
 20
0.0
  3
*D2
  1

  0
LINE
  5
238
100
AcDbEntity
  8
0
100
AcDbLine
 62
7
  6
CONTINUOUS
 10
-11.6947410756
 20
22.5834643418
 11
-11.6947410756
 21
37.0296209041
  0
LINE
  5
239
100
AcDbEntity
  8
0
100
AcDbLine
 62
7
  6
CONTINUOUS
 10
10.6052589244
 20
22.5834643418
 11
10.6052589244
 21
37.0296209041
  0
LINE
  5
23A
100
AcDbEntity
  8
0
100
AcDbLine
 62
7
  6
CONTINUOUS
 10
-11.6947410756
 20
35.5296209041
 11
-0.5447410756
 21
35.5296209041
  0
LINE
  5
23B
100
AcDbEntity
  8
0
100
AcDbLine
 62
7
  6
CONTINUOUS
 10
10.6052589244
 20
35.5296209041
 11
-0.5447410756
 21
35.5296209041
  0
INSERT
  5
23C
100
AcDbEntity
  8
0
100
AcDbBlockReference
 62
7
  6
CONTINUOUS
  2
_FILLED
 10
-11.6947410756
 20
35.5296209041
 41
3.0
 42
3.0
 43
3.0
 50
180.0
  0
INSERT
  5
23D
100
AcDbEntity
  8
0
100
AcDbBlockReference
 62
7
  6
CONTINUOUS
  2
_FILLED
 10
10.6052589244
 20
35.5296209041
 41
3.0
 42
3.0
 43
3.0
  0
ENDBLK
  5
23E
100
AcDbEntity
  8
0
  6
BYBLOCK
 62
0
100
AcDbBlockEnd
  0
BLOCK
  5
23F
100
AcDbEntity
  8
0
100
AcDbBlockBegin
 62
7
  6
CONTINUOUS
  2
*D3
 70
65
 10
0.0
 20
0.0
  3
*D3
  1

  0
LINE
  5
240
100
AcDbEntity
  8
0
100
AcDbLine
 62
7
  6
CONTINUOUS
 10
3.6301166014
 20
23.6836931939
 11
24.5965445468
 21
23.6836931939
  0
LINE
  5
241
100
AcDbEntity
  8
0
100
AcDbLine
 62
7
  6
CONTINUOUS
 10
3.6301169495
 20
-23.3163068061
 11
24.5965445468
 21
-23.3163068061
  0
LINE
  5
242
100
AcDbEntity
  8
0
100
AcDbLine
 62
7
  6
CONTINUOUS
 10
23.0965445468
 20
23.6836931939
 11
23.0965445468
 21
0.1836931939
  0
LINE
  5
243
100
AcDbEntity
  8
0
100
AcDbLine
 62
7
  6
CONTINUOUS
 10
23.0965445468
 20
-23.3163068061
 11
23.0965445468
 21
0.1836931939
  0
INSERT
  5
244
100
AcDbEntity
  8
0
100
AcDbBlockReference
 62
7
  6
CONTINUOUS
  2
_FILLED
 10
23.0965445468
 20
23.6836931939
 41
3.0
 42
3.0
 43
3.0
 50
90.0
  0
INSERT
  5
245
100
AcDbEntity
  8
0
100
AcDbBlockReference
 62
7
  6
CONTINUOUS
  2
_FILLED
 10
23.0965445468
 20
-23.3163068061
 41
3.0
 42
3.0
 43
3.0
 50
270.0
  0
ENDBLK
  5
246
100
AcDbEntity
  8
0
  6
BYBLOCK
 62
0
100
AcDbBlockEnd
  0
ENDSEC
  0
SECTION
  2
ENTITIES
  0
DIMENSION
  5
247
100
AcDbEntity
  8
0
100
AcDbDimension
 62
7
  6
CONTINUOUS
  2
*D0
 10
-75.009179344
 20
35.5296209041
 11
-57.3663222012
 21
35.5296209041
 70
160
 71
2
 72
2
 41
0.9
 42
40.0
  3
DIMSTYLE_1
100
AcDbAlignedDimension
 13
-35.009179344
 23
19.9956028922
 14
-75.009179344
 24
21.0836931939
 50
180.0
100
AcDbRotatedDimension
  0
DIMENSION
  5
248
100
AcDbEntity
  8
0
100
AcDbDimension
 62
7
  6
CONTINUOUS
  2
*D1
 10
-90.509179344
 20
43.5296209041
 11
-66.8306079155
 21
43.5296209041
 70
160
 71
2
 72
2
 41
0.9
 42
55.5
  3
DIMSTYLE_1
100
AcDbAlignedDimension
 13
-35.009179344
 23
19.9956028922
 14
-90.509179344
 24
0.1836931939
 50
180.0
100
AcDbRotatedDimension
  0
DIMENSION
  5
249
100
AcDbEntity
  8
0
100
AcDbDimension
 62
7
  6
CONTINUOUS
  2
*D2
 10
10.6052589244
 20
35.5296209041
 11
-4.8304553613
 21
35.5296209041
 70
160
 71
2
 72
2
 41
0.9
 42
22.3
  3
DIMSTYLE_1
100
AcDbAlignedDimension
 13
-11.6947410756
 23
22.0834643418
 14
10.6052589244
 24
22.0834643418
100
AcDbRotatedDimension
  0
DIMENSION
  5
24A
100
AcDbEntity
  8
0
100
AcDbDimension
 62
7
  6
CONTINUOUS
  2
*D3
 10
23.0965445468
 20
-23.3163068061
 11
23.0965445468
 21
-2.1734496633
 70
160
 71
2
 72
2
 41
0.9
 42
47.0
  3
DIMSTYLE_1
100
AcDbAlignedDimension
 13
3.1301166014
 23
23.6836931939
 14
3.1301169495
 24
-23.3163068061
 50
270.0
100
AcDbRotatedDimension
  0
LWPOLYLINE
  5
24B
100
AcDbEntity
  8
0
100
AcDbPolyline
 62
7
  6
CONTINUOUS
 90
5
 70
0
 43
0.3500000006
 10
2.4552588387
 20
37.9939068604
 10
2.8124017239
 20
38.2081913452
 10
2.8124017239
 20
38.8510493317
 10
2.4552588387
 20
39.2796228333
 10
1.5981160841
 20
39.2796228333
  0
LINE
  5
24C
100
AcDbEntity
  8
0
100
AcDbLine
 62
7
  6
CONTINUOUS
 10
3.1301169495
 20
-23.3163068061
 11
-4.2195991007
 21
-23.3163068061
  0
LINE
  5
24D
100
AcDbEntity
  8
ASSI
100
AcDbLine
 62
7
  6
CONTINUOUS
 10
3.1301169495
 20
-23.3163068061
 11
-4.2195991007
 21
-23.3163068061
  0
LINE
  5
24E
100
AcDbEntity
  8
0
100
AcDbLine
 62
7
  6
CONTINUOUS
 10
2.9250791841
 20
-22.3163068061
 11
-4.0145613353
 21
-22.3163068061
  0
LINE
  5
24F
100
AcDbEntity
  8
ASSI
100
AcDbLine
 62
7
  6
CONTINUOUS
 10
2.9250791841
 20
-22.3163068061
 11
-4.0145613353
 21
-22.3163068061
  0
LINE
  5
250
100
AcDbEntity
  8
0
100
AcDbLine
 62
7
  6
CONTINUOUS
 10
10.1056395242
 20
-22.2163068061
 11
2.7552589244
 21
-22.2163068061
  0
LINE
  5
251
100
AcDbEntity
  8
0
100
AcDbLine
 62
7
  6
CONTINUOUS
 10
-3.8447410756
 20
-22.2163068061
 11
-11.1951216753
 21
-22.2163068061
  0
LINE
  5
252
100
AcDbEntity
  8
0
100
AcDbLine
 62
250
  6
CONTINUOUS
 10
9.9640570411
 20
-21.7912139434
 11
-11.0535391923
 21
-21.7912139434
  0
LINE
  5
253
100
AcDbEntity
  8
0
100
AcDbLine
 62
250
  6
CONTINUOUS
 10
9.955793987
 20
-20.8346210371
 11
-11.0452761381
 21
-20.8346210371
  0
LINE
  5
254
100
AcDbEntity
  8
0
100
AcDbLine
 62
7
  6
CONTINUOUS
 10
-3.778108278
 20
22.6836931939
 11
-3.8447410756
 21
22.5836931939
  0
LINE
  5
255
100
AcDbEntity
  8
0
100
AcDbLine
 62
7
  6
CONTINUOUS
 10
-3.8447410756
 20
-22.2163068061
 11
-3.778108278
 21
-22.3163068061
  0
LINE
  5
256
100
AcDbEntity
  8
ASSI
100
AcDbLine
 62
7
  6
CONTINUOUS
 10
-11.6947410756
 20
16.3033523614
 11
-11.6947410756
 21
-15.9359659724
  0
LINE
  5
257
100
AcDbEntity
  8
0
100
AcDbLine
 62
7
  6
CONTINUOUS
 10
-11.6947410756
 20
-21.7160779541
 11
-11.6947410756
 21
22.0834643418
  0
LWPOLYLINE
  5
258
100
AcDbEntity
  8
0
100
AcDbPolyline
 62
7
  6
CONTINUOUS
 90
3
 70
0
 43
0.3500000006
 10
0.5981160622
 20
36.5653330536
 10
0.5266874993
 20
36.3510485687
 10
0.3838303381
 20
36.0653374329
  0
LINE
  5
259
100
AcDbEntity
  8
0
100
AcDbLine
 62
7
  6
CONTINUOUS
 10
-3.9296133526
 20
22.5836931939
 11
-3.9128015091
 21
22.6617864266
  0
LINE
  5
25A
100
AcDbEntity
  8
ASSI
100
AcDbLine
 62
7
  6
CONTINUOUS
 10
-3.9296133526
 20
22.5836931939
 11
-3.9128015091
 21
22.6617864266
  0
LINE
  5
25B
100
AcDbEntity
  8
0
100
AcDbLine
 62
7
  6
CONTINUOUS
 10
-3.9296133526
 20
-22.2163068061
 11
-3.9128015091
 21
-22.2944000389
  0
LINE
  5
25C
100
AcDbEntity
  8
ASSI
100
AcDbLine
 62
7
  6
CONTINUOUS
 10
-3.9296133526
 20
-22.2163068061
 11
-3.9128015091
 21
-22.2944000389
  0
LINE
  5
25D
100
AcDbEntity
  8
DRAFT
100
AcDbLine
 62
7
  6
CONTINUOUS
 10
-2.5792635142
 20
-7.2944896367
 11
-1.0828689855
 21
-7.2944896367
  0
LINE
  5
25E
100
AcDbEntity
  8
DRAFT
100
AcDbLine
 62
7
  6
CONTINUOUS
 10
-0.0066131656
 20
-7.2944896367
 11
1.4897813631
 21
-7.2944896367
  0
LINE
  5
25F
100
AcDbEntity
  8
0
100
AcDbLine
 62
7
  6
CONTINUOUS
 10
-4.0145613353
 20
-22.2163068061
 11
-4.0145613353
 21
-22.3163068061
  0
LINE
  5
260
100
AcDbEntity
  8
ASSI
100
AcDbLine
 62
7
  6
CONTINUOUS
 10
-4.0145613353
 20
-22.2163068061
 11
-4.0145613353
 21
-22.3163068061
  0
LINE
  5
261
100
AcDbEntity
  8
0
100
AcDbLine
 62
7
  6
CONTINUOUS
 10
-4.0145613353
 20
22.5836931939
 11
-4.0145613353
 21
22.6836931939
  0
LINE
  5
262
100
AcDbEntity
  8
ASSI
100
AcDbLine
 62
7
  6
CONTINUOUS
 10
-4.0145613353
 20
22.5836931939
 11
-4.0145613353
 21
22.6836931939
  0
LINE
  5
263
100
AcDbEntity
  8
0
100
AcDbLine
 62
250
  6
CONTINUOUS
 10
-11.6947410756
 20
-21.7160779541
 11
-11.5534630399
 21
-21.291899176
  0
LINE
  5
264
100
AcDbEntity
  8
0
100
AcDbLine
 62
250
  6
CONTINUOUS
 10
-11.1951216753
 20
-22.2163068061
 11
-11.0535391923
 21
-21.7912139434
  0
LINE
  5
265
100
AcDbEntity
  8
0
100
AcDbLine
 62
250
  6
CONTINUOUS
 10
-11.5534630399
 20
21.6592855637
 11
-11.6947410756
 21
22.0834643418
  0
LINE
  5
266
100
AcDbEntity
  8
0
100
AcDbLine
 62
7
  6
CONTINUOUS
 10
2.8703866474
 20
22.5836931939
 11
2.8886674307
 21
22.6686098459
  0
LINE
  5
267
100
AcDbEntity
  8
ASSI
100
AcDbLine
 62
7
  6
CONTINUOUS
 10
2.8703866474
 20
22.5836931939
 11
2.8919145608
 21
22.6836931939
  0
LINE
  5
268
100
AcDbEntity
  8
0
100
AcDbLine
 62
250
  6
CONTINUOUS
 10
-11.0535391923
 20
22.1586003311
 11
-11.1951216753
 21
22.5836931939
  0
LINE
  5
269
100
AcDbEntity
  8
0
100
AcDbLine
 62
7
  6
CONTINUOUS
 10
2.8703866474
 20
-22.2163068061
 11
2.8886674307
 21
-22.3012234582
  0
LINE
  5
26A
100
AcDbEntity
  8
ASSI
100
AcDbLine
 62
7
  6
CONTINUOUS
 10
2.8703866474
 20
-22.2163068061
 11
2.8919145608
 21
-22.3163068061
  0
LWPOLYLINE
  5
26B
100
AcDbEntity
  8
0
100
AcDbPolyline
 62
7
  6
CONTINUOUS
 90
2
 70
0
 43
0.3500000006
 10
22.3465444794
 20
-1.1734507828
 10
20.8465440216
 20
-1.1734507828
  0
LWPOLYLINE
  5
26C
100
AcDbEntity
  8
0
100
AcDbPolyline
 62
7
  6
CONTINUOUS
 90
4
 70
0
 43
0.3500000006
 10
19.9894015503
 20
0.1836941071
 10
19.3465435638
 20
0.1836941071
 10
19.3465435638
 20
1.6836922989
 10
22.3465444794
 20
0.8265498276
  0
LINE
  5
26D
100
AcDbEntity
  8
0
100
AcDbLine
 62
7
  6
CONTINUOUS
 10
-3.9598687985
 20
-22.2163068061
 11
-3.9781495818
 21
-22.3012234582
  0
LINE
  5
26E
100
AcDbEntity
  8
ASSI
100
AcDbLine
 62
7
  6
CONTINUOUS
 10
-3.9598687985
 20
-22.2163068061
 11
-3.9813967119
 21
-22.3163068061
  0
LINE
  5
26F
100
AcDbEntity
  8
0
100
AcDbLine
 62
7
  6
CONTINUOUS
 10
-3.9598687985
 20
22.5836931939
 11
-3.9781495818
 21
22.6686098459
  0
LINE
  5
270
100
AcDbEntity
  8
ASSI
100
AcDbLine
 62
7
  6
CONTINUOUS
 10
-3.9598687985
 20
22.5836931939
 11
-3.9813967119
 21
22.6836931939
  0
LINE
  5
271
100
AcDbEntity
  8
0
100
AcDbLine
 62
7
  6
CONTINUOUS
 10
2.9250791841
 20
22.6836931939
 11
2.9250791841
 21
22.5836931939
  0
LINE
  5
272
100
AcDbEntity
  8
ASSI
100
AcDbLine
 62
7
  6
CONTINUOUS
 10
2.9250791841
 20
22.6836931939
 11
2.9250791841
 21
22.5836931939
  0
LINE
  5
273
100
AcDbEntity
  8
0
100
AcDbLine
 62
7
  6
CONTINUOUS
 10
2.9250791841
 20
-22.3163068061
 11
2.9250791841
 21
-22.2163068061
  0
LINE
  5
274
100
AcDbEntity
  8
ASSI
100
AcDbLine
 62
7
  6
CONTINUOUS
 10
2.9250791841
 20
-22.3163068061
 11
2.9250791841
 21
-22.2163068061
  0
LINE
  5
275
100
AcDbEntity
  8
0
100
AcDbLine
 62
250
  6
CONTINUOUS
 10
9.9640570411
 20
22.1586003311
 11
10.1056395242
 21
22.5836931939
  0
LINE
  5
276
100
AcDbEntity
  8
0
100
AcDbLine
 62
250
  6
CONTINUOUS
 10
10.4639808887
 20
21.6592855637
 11
10.6052589244
 21
22.0834643418
  0
LINE
  5
277
100
AcDbEntity
  8
0
100
AcDbLine
 62
250
  6
CONTINUOUS
 10
10.1056395242
 20
-22.2163068061
 11
9.9640570411
 21
-21.7912139434
  0
LINE
  5
278
100
AcDbEntity
  8
0
100
AcDbLine
 62
250
  6
CONTINUOUS
 10
10.6052589244
 20
-21.7160779541
 11
10.4639808887
 21
-21.291899176
  0
LINE
  5
279
100
AcDbEntity
  8
0
100
AcDbLine
 62
7
  6
CONTINUOUS
 10
2.8401312015
 20
-22.2163068061
 11
2.823319358
 21
-22.2944000389
  0
LINE
  5
27A
100
AcDbEntity
  8
ASSI
100
AcDbLine
 62
7
  6
CONTINUOUS
 10
2.8401312015
 20
-22.2163068061
 11
2.823319358
 21
-22.2944000389
  0
LINE
  5
27B
100
AcDbEntity
  8
DRAFT
100
AcDbLine
 62
7
  6
CONTINUOUS
 10
1.4897813631
 20
7.6618760244
 11
-0.0066131656
 21
7.6618760244
  0
LINE
  5
27C
100
AcDbEntity
  8
DRAFT
100
AcDbLine
 62
7
  6
CONTINUOUS
 10
-1.0828689855
 20
7.6618760244
 11
-2.5792635142
 21
7.6618760244
  0
LINE
  5
27D
100
AcDbEntity
  8
0
100
AcDbLine
 62
7
  6
CONTINUOUS
 10
2.8401312015
 20
22.5836931939
 11
2.823319358
 21
22.6617864266
  0
LINE
  5
27E
100
AcDbEntity
  8
ASSI
100
AcDbLine
 62
7
  6
CONTINUOUS
 10
2.8401312015
 20
22.5836931939
 11
2.823319358
 21
22.6617864266
  0
LINE
  5
27F
100
AcDbEntity
  8
0
100
AcDbLine
 62
7
  6
CONTINUOUS
 10
10.6052589244
 20
22.0834643418
 11
10.6052589244
 21
-21.7160779541
  0
LINE
  5
280
100
AcDbEntity
  8
ASSI
100
AcDbLine
 62
7
  6
CONTINUOUS
 10
10.6052589244
 20
-15.9359659724
 11
10.6052589244
 21
16.3033523614
  0
LINE
  5
281
100
AcDbEntity
  8
0
100
AcDbLine
 62
7
  6
CONTINUOUS
 10
2.7552589244
 20
-22.2163068061
 11
2.6886261268
 21
-22.3163068061
  0
LINE
  5
282
100
AcDbEntity
  8
0
100
AcDbLine
 62
7
  6
CONTINUOUS
 10
2.6886261268
 20
22.6836931939
 11
2.7552589244
 21
22.5836931939
  0
LWPOLYLINE
  5
283
100
AcDbEntity
  8
0
100
AcDbPolyline
 62
7
  6
CONTINUOUS
 90
10
 70
0
 43
0.3500000006
 10
0.5266874993
 20
36.7796220703
 10
0.5981160622
 20
36.6367642365
 10
0.5981160622
 20
36.5653330536
 10
0.4552589364
 20
36.4224797516
 10
0.3838303381
 20
36.4224797516
 10
0.3124017752
 20
36.4939064026
 10
0.3124017752
 20
36.5653330536
 10
0.3838303381
 20
36.7081908875
 10
0.4552589364
 20
36.7796220703
 10
0.5266874993
 20
36.7796220703
  0
LINE
  5
284
100
AcDbEntity
  8
0
100
AcDbLine
 62
250
  6
CONTINUOUS
 10
-11.0452761381
 20
21.2020074248
 11
9.955793987
 21
21.2020074248
  0
LWPOLYLINE
  5
285
100
AcDbEntity
  8
0
100
AcDbPolyline
 62
7
  6
CONTINUOUS
 90
3
 70
0
 43
0.3500000006
 10
21.7036864929
 20
-0.6734506302
 10
21.7036864929
 20
-2.173449955
 10
19.3465435638
 20
-1.5305919685
  0
LINE
  5
286
100
AcDbEntity
  8
0
100
AcDbLine
 62
250
  6
CONTINUOUS
 10
-11.0535391923
 20
22.1586003311
 11
9.9640570411
 21
22.1586003311
  0
LINE
  5
287
100
AcDbEntity
  8
0
100
AcDbLine
 62
7
  6
CONTINUOUS
 10
-11.1951216753
 20
22.5836931939
 11
-3.8447410756
 21
22.5836931939
  0
LINE
  5
288
100
AcDbEntity
  8
0
100
AcDbLine
 62
7
  6
CONTINUOUS
 10
2.7552589244
 20
22.5836931939
 11
10.1056395242
 21
22.5836931939
  0
LINE
  5
289
100
AcDbEntity
  8
0
100
AcDbLine
 62
7
  6
CONTINUOUS
 10
2.9250791841
 20
22.6836931939
 11
-4.0145613353
 21
22.6836931939
  0
LINE
  5
28A
100
AcDbEntity
  8
ASSI
100
AcDbLine
 62
7
  6
CONTINUOUS
 10
2.9250791841
 20
22.6836931939
 11
-4.0145613353
 21
22.6836931939
  0
LINE
  5
28B
100
AcDbEntity
  8
0
100
AcDbLine
 62
7
  6
CONTINUOUS
 10
3.1301166014
 20
23.6836931939
 11
-4.2195987526
 21
23.6836931939
  0
LINE
  5
28C
100
AcDbEntity
  8
ASSI
100
AcDbLine
 62
7
  6
CONTINUOUS
 10
3.1301166014
 20
23.6836931939
 11
-4.2195987526
 21
23.6836931939
  0
LWPOLYLINE
  5
28D
100
AcDbEntity
  8
0
100
AcDbPolyline
 62
7
  6
CONTINUOUS
 90
6
 70
0
 43
0.3500000006
 10
1.5981160841
 20
36.2796219177
 10
2.6695447397
 20
36.2796219177
 10
2.8838303576
 20
36.4939064026
 10
2.8838303576
 20
37.5653333588
 10
2.4552588387
 20
37.9939068604
 10
2.0266874614
 20
37.9939068604
  0
LWPOLYLINE
  5
28E
100
AcDbEntity
  8
0
100
AcDbPolyline
 62
7
  6
CONTINUOUS
 90
7
 70
0
 43
0.3500000006
 10
-0.9733125336
 20
36.2796219177
 10
-2.4733126373
 20
36.2796219177
 10
-0.9733125336
 20
38.4224758301
 10
-0.9733125336
 20
38.8510493317
 10
-1.4018839817
 20
39.2796228333
 10
-2.0447411184
 20
39.2796228333
 10
-2.4733126373
 20
38.6367648468
  0
LWPOLYLINE
  5
28F
100
AcDbEntity
  8
0
100
AcDbPolyline
 62
7
  6
CONTINUOUS
 90
7
 70
0
 43
0.3500000006
 10
-3.3304553919
 20
36.2796219177
 10
-4.8304555664
 20
36.2796219177
 10
-3.3304553919
 20
38.4224758301
 10
-3.3304553919
 20
38.8510493317
 10
-3.7590269108
 20
39.2796228333
 10
-4.4018840475
 20
39.2796228333
 10
-4.8304555664
 20
38.6367648468
  0
LINE
  5
290
100
AcDbEntity
  8
RACCORDO
100
AcDbLine
 62
250
  6
CONTINUOUS
 10
-90.1656299875
 20
-6.2278508181
 11
-90.1656299875
 21
6.5952372058
  0
LINE
  5
291
100
AcDbEntity
  8
RACCORDO
100
AcDbLine
 62
250
  6
CONTINUOUS
 10
-89.7033711357
 20
-6.6732033156
 11
-89.7033711357
 21
7.0405897033
  0
LINE
  5
292
100
AcDbEntity
  8
0
100
AcDbLine
 62
7
  6
CONTINUOUS
 10
-75.009179344
 20
-23.3163068061
 11
-71.009179344
 21
-23.2464865464
  0
LINE
  5
293
100
AcDbEntity
  8
ASSI
100
AcDbLine
 62
7
  6
CONTINUOUS
 10
-75.009179344
 20
-23.3163068061
 11
-71.009179344
 21
-23.2464865464
  0
LINE
  5
294
100
AcDbEntity
  8
ASSI
100
AcDbLine
 62
250
  6
CONTINUOUS
 10
-75.009179344
 20
-23.1496664636
 11
-71.009179344
 21
-23.0794141679
  0
LINE
  5
295
100
AcDbEntity
  8
RACCORDO
100
AcDbLine
 62
7
  6
CONTINUOUS
 10
-66.8363422008
 20
-20.9434696629
 11
-70.8126698253
 21
-21.0128767197
  0
LINE
  5
296
100
AcDbEntity
  8
ASSI
100
AcDbLine
 62
7
  6
CONTINUOUS
 10
-66.8363422008
 20
-20.9434696629
 11
-70.8126698253
 21
-21.0128767197
  0
LINE
  5
297
100
AcDbEntity
  8
0
100
AcDbLine
 62
7
  6
CONTINUOUS
 10
-68.8596838601
 20
-22.0163068061
 11
-69.409179344
 21
-22.0163068061
  0
LINE
  5
298
100
AcDbEntity
  8
ASSI
100
AcDbLine
 62
7
  6
CONTINUOUS
 10
-68.8596838601
 20
-22.0163068061
 11
-69.409179344
 21
-22.0163068061
  0
LINE
  5
299
100
AcDbEntity
  8
0
100
AcDbLine
 62
7
  6
CONTINUOUS
 10
-75.009179344
 20
-22.2163068061
 11
-83.1204343639
 21
-21.7912139434
  0
LINE
  5
29A
100
AcDbEntity
  8
0
100
AcDbLine
 62
250
  6
CONTINUOUS
 10
-75.009179344
 20
-21.7160779541
 11
-83.102992589
 21
-21.291899176
  0
LINE
  5
29B
100
AcDbEntity
  8
0
100
AcDbLine
 62
250
  6
CONTINUOUS
 10
-84.0672144673
 20
-20.8346210366
 11
-83.5763826461
 21
-20.8136027228
  0
LINE
  5
29C
100
AcDbEntity
  8
DRAFT
100
AcDbLine
 62
7
  6
CONTINUOUS
 10
-65.7897066345
 20
-19.8968340967
 11
-35.009179344
 21
-19.6282165045
  0
LINE
  5
29D
100
AcDbEntity
  8
ASSI
100
AcDbLine
 62
7
  6
CONTINUOUS
 10
-65.7897066345
 20
-19.8968340967
 11
-35.009179344
 21
-19.6282165045
  0
LINE
  5
29E
100
AcDbEntity
  8
DRAFT
100
AcDbLine
 62
7
  6
CONTINUOUS
 10
-36.509179344
 20
-15.3163068061
 11
-38.059179344
 21
-15.3244226613
  0
LINE
  5
29F
100
AcDbEntity
  8
ASSI
100
AcDbLine
 62
7
  6
CONTINUOUS
 10
-36.509179344
 20
-15.3163068061
 11
-38.059179344
 21
-15.3244226613
  0
LINE
  5
2A0
100
AcDbEntity
  8
DRAFT
100
AcDbLine
 62
7
  6
CONTINUOUS
 10
-35.009179344
 20
-15.8085059461
 11
-62.7657242456
 21
-15.5662782484
  0
LINE
  5
2A1
100
AcDbEntity
  8
ASSI
100
AcDbLine
 62
7
  6
CONTINUOUS
 10
-35.009179344
 20
-15.8085059461
 11
-62.7657242456
 21
-15.5662782484
  0
LINE
  5
2A2
100
AcDbEntity
  8
ASSI
100
AcDbLine
 62
7
  6
CONTINUOUS
 10
-75.009179344
 20
-22.2163068061
 11
-75.009179344
 21
-23.3163068061
  0
LINE
  5
2A3
100
AcDbEntity
  8
ASSI
100
AcDbLine
 62
7
  6
CONTINUOUS
 10
-75.009179344
 20
-15.9359659724
 11
-75.009179344
 21
17.543122763
  0
LINE
  5
2A4
100
AcDbEntity
  8
0
100
AcDbLine
 62
7
  6
CONTINUOUS
 10
-75.009179344
 20
-23.3163068061
 11
-75.009179344
 21
23.6836931939
  0
LINE
  5
2A5
100
AcDbEntity
  8
ASSI
100
AcDbLine
 62
7
  6
CONTINUOUS
 10
-75.009179344
 20
22.3347731085
 11
-75.009179344
 21
23.6836931939
  0
LWPOLYLINE
  5
2A6
100
AcDbEntity
  8
0
100
AcDbPolyline
 62
7
  6
CONTINUOUS
 90
3
 70
0
 43
0.3500000006
 10
-61.8306089172
 20
44.565335495
 10
-61.9020355682
 20
44.3510510101
 10
-62.0448934021
 20
44.0653353424
  0
LINE
  5
2A7
100
AcDbEntity
  8
DRAFT
100
AcDbLine
 62
7
  6
CONTINUOUS
 10
-35.009179344
 20
-13.8241076662
 11
-62.7657242456
 21
-14.0663353638
  0
LINE
  5
2A8
100
AcDbEntity
  8
ASSI
100
AcDbLine
 62
7
  6
CONTINUOUS
 10
-35.009179344
 20
-13.8241076662
 11
-62.7657242456
 21
-14.0663353638
  0
LINE
  5
2A9
100
AcDbEntity
  8
DRAFT
100
AcDbLine
 62
7
  6
CONTINUOUS
 10
-35.009179344
 20
-13.562697837
 11
-62.7579429759
 21
-13.7399796679
  0
LINE
  5
2AA
100
AcDbEntity
  8
ASSI
100
AcDbLine
 62
7
  6
CONTINUOUS
 10
-35.009179344
 20
-13.562697837
 11
-62.7579429759
 21
-13.7399796679
  0
LINE
  5
2AB
100
AcDbEntity
  8
ASSI
100
AcDbLine
 62
7
  6
CONTINUOUS
 10
-35.009179344
 20
-14.1892838061
 11
-34.909179344
 21
-14.1892838061
  0
LINE
  5
2AC
100
AcDbEntity
  8
ASSI
100
AcDbLine
 62
7
  6
CONTINUOUS
 10
-35.009179344
 20
-14.0081738061
 11
-34.909179344
 21
-14.0081738061
  0
LINE
  5
2AD
100
AcDbEntity
  8
ASSI
100
AcDbLine
 62
7
  6
CONTINUOUS
 10
-35.009179344
 20
-13.772550549
 11
-34.909179344
 21
-13.772550549
  0
LINE
  5
2AE
100
AcDbEntity
  8
ASSI
100
AcDbLine
 62
250
  6
CONTINUOUS
 10
-35.009179344
 20
-13.2474158061
 11
-34.909179344
 21
-13.2474158061
  0
LINE
  5
2AF
100
AcDbEntity
  8
ASSI
100
AcDbLine
 62
7
  6
CONTINUOUS
 10
-35.009179344
 20
-12.7408038061
 11
-34.909179344
 21
-12.7408038061
  0
LINE
  5
2B0
100
AcDbEntity
  8
RACCORDO
100
AcDbLine
 62
7
  6
CONTINUOUS
 10
-71.009179344
 20
-21.2128462588
 11
-71.009179344
 21
-22.4461734088
  0
LINE
  5
2B1
100
AcDbEntity
  8
0
100
AcDbLine
 62
7
  6
CONTINUOUS
 10
-71.009179344
 20
-22.417945112
 11
-71.009179344
 21
-23.2464865464
  0
LINE
  5
2B2
100
AcDbEntity
  8
ASSI
100
AcDbLine
 62
7
  6
CONTINUOUS
 10
-71.009179344
 20
-21.2128462588
 11
-71.009179344
 21
-23.2464865464
  0
LINE
  5
2B3
100
AcDbEntity
  8
RACCORDO
100
AcDbLine
 62
7
  6
CONTINUOUS
 10
-71.009179344
 20
21.5802326465
 11
-71.009179344
 21
22.8135597965
  0
LINE
  5
2B4
100
AcDbEntity
  8
0
100
AcDbLine
 62
7
  6
CONTINUOUS
 10
-71.009179344
 20
22.8135597965
 11
-71.009179344
 21
23.6138729341
  0
LINE
  5
2B5
100
AcDbEntity
  8
ASSI
100
AcDbLine
 62
7
  6
CONTINUOUS
 10
-71.009179344
 20
21.5802326465
 11
-71.009179344
 21
23.6138729341
  0
LINE
  5
2B6
100
AcDbEntity
  8
ASSI
100
AcDbLine
 62
7
  6
CONTINUOUS
 10
-35.009179344
 20
-12.4675108061
 11
-34.909179344
 21
-12.4675108061
  0
LINE
  5
2B7
100
AcDbEntity
  8
ASSI
100
AcDbLine
 62
7
  6
CONTINUOUS
 10
-35.009179344
 20
-12.2778148061
 11
-34.909179344
 21
-12.2778148061
  0
LINE
  5
2B8
100
AcDbEntity
  8
ASSI
100
AcDbLine
 62
7
  6
CONTINUOUS
 10
-35.009179344
 20
-11.6388488061
 11
-34.909179344
 21
-11.6388488061
  0
LINE
  5
2B9
100
AcDbEntity
  8
ASSI
100
AcDbLine
 62
7
  6
CONTINUOUS
 10
-35.009179344
 20
-11.4752088061
 11
-34.909179344
 21
-11.4752088061
  0
LINE
  5
2BA
100
AcDbEntity
  8
ASSI
100
AcDbLine
 62
7
  6
CONTINUOUS
 10
-35.009179344
 20
-11.2541278061
 11
-34.909179344
 21
-11.2541278061
  0
LINE
  5
2BB
100
AcDbEntity
  8
ASSI
100
AcDbLine
 62
7
  6
CONTINUOUS
 10
-35.009179344
 20
-10.3314078061
 11
-34.909179344
 21
-10.3314078061
  0
LINE
  5
2BC
100
AcDbEntity
  8
DRAFT
100
AcDbLine
 62
7
  6
CONTINUOUS
 10
-35.009179344
 20
-11.0699157753
 11
-62.7579429759
 21
-10.8926339443
  0
LINE
  5
2BD
100
AcDbEntity
  8
ASSI
100
AcDbLine
 62
7
  6
CONTINUOUS
 10
-35.009179344
 20
-11.0699157753
 11
-62.7579429759
 21
-10.8926339443
  0
LINE
  5
2BE
100
AcDbEntity
  8
DRAFT
100
AcDbLine
 62
7
  6
CONTINUOUS
 10
-35.009179344
 20
-10.8085059461
 11
-62.7657242456
 21
-10.5662782484
  0
LINE
  5
2BF
100
AcDbEntity
  8
ASSI
100
AcDbLine
 62
7
  6
CONTINUOUS
 10
-35.009179344
 20
-10.8085059461
 11
-62.7657242456
 21
-10.5662782484
  0
LINE
  5
2C0
100
AcDbEntity
  8
0
100
AcDbLine
 62
7
  6
CONTINUOUS
 10
-69.409179344
 20
22.3836931939
 11
-69.409179344
 21
21.35576509
  0
LINE
  5
2C1
100
AcDbEntity
  8
ASSI
100
AcDbLine
 62
7
  6
CONTINUOUS
 10
-69.409179344
 20
22.3836931939
 11
-69.409179344
 21
21.35576509
  0
LINE
  5
2C2
100
AcDbEntity
  8
0
100
AcDbLine
 62
7
  6
CONTINUOUS
 10
-69.409179344
 20
-22.0163068061
 11
-69.409179344
 21
-20.9883787023
  0
LINE
  5
2C3
100
AcDbEntity
  8
ASSI
100
AcDbLine
 62
7
  6
CONTINUOUS
 10
-69.409179344
 20
-22.0163068061
 11
-69.409179344
 21
-20.9883787023
  0
LINE
  5
2C4
100
AcDbEntity
  8
DRAFT
100
AcDbLine
 62
7
  6
CONTINUOUS
 10
-35.009179344
 20
-8.8241076662
 11
-62.7657242456
 21
-9.0663353638
  0
LINE
  5
2C5
100
AcDbEntity
  8
ASSI
100
AcDbLine
 62
7
  6
CONTINUOUS
 10
-35.009179344
 20
-8.8241076662
 11
-62.7657242456
 21
-9.0663353638
  0
LINE
  5
2C6
100
AcDbEntity
  8
DRAFT
100
AcDbLine
 62
7
  6
CONTINUOUS
 10
-35.009179344
 20
-8.562697837
 11
-62.7579429759
 21
-8.7399796679
  0
LINE
  5
2C7
100
AcDbEntity
  8
ASSI
100
AcDbLine
 62
7
  6
CONTINUOUS
 10
-35.009179344
 20
-8.562697837
 11
-62.7579429759
 21
-8.7399796679
  0
LINE
  5
2C8
100
AcDbEntity
  8
ASSI
100
AcDbLine
 62
7
  6
CONTINUOUS
 10
-35.009179344
 20
-10.1029780634
 11
-34.909179344
 21
-10.1029780634
  0
LINE
  5
2C9
100
AcDbEntity
  8
ASSI
100
AcDbLine
 62
250
  6
CONTINUOUS
 10
-35.009179344
 20
-9.7325128061
 11
-34.909179344
 21
-9.7325128061
  0
LINE
  5
2CA
100
AcDbEntity
  8
ASSI
100
AcDbLine
 62
7
  6
CONTINUOUS
 10
-35.009179344
 20
-9.3391058061
 11
-34.909179344
 21
-9.3391058061
  0
LINE
  5
2CB
100
AcDbEntity
  8
ASSI
100
AcDbLine
 62
7
  6
CONTINUOUS
 10
-35.009179344
 20
-9.1702348061
 11
-34.909179344
 21
-9.1702348061
  0
LINE
  5
2CC
100
AcDbEntity
  8
ASSI
100
AcDbLine
 62
7
  6
CONTINUOUS
 10
-35.009179344
 20
-8.3850988061
 11
-34.909179344
 21
-8.3850988061
  0
LINE
  5
2CD
100
AcDbEntity
  8
ASSI
100
AcDbLine
 62
7
  6
CONTINUOUS
 10
-35.009179344
 20
-8.2040878061
 11
-34.909179344
 21
-8.2040878061
  0
LINE
  5
2CE
100
AcDbEntity
  8
ASSI
100
AcDbLine
 62
7
  6
CONTINUOUS
 10
-35.009179344
 20
-8.0282098061
 11
-34.909179344
 21
-8.0282098061
  0
LINE
  5
2CF
100
AcDbEntity
  8
ASSI
100
AcDbLine
 62
7
  6
CONTINUOUS
 10
-35.009179344
 20
-7.6051938061
 11
-34.909179344
 21
-7.6051938061
  0
LINE
  5
2D0
100
AcDbEntity
  8
0
100
AcDbLine
 62
7
  6
CONTINUOUS
 10
-89.7033711351
 20
-6.6732033157
 11
-84.4569866068
 21
-7.04006626
  0
LINE
  5
2D1
100
AcDbEntity
  8
ASSI
100
AcDbLine
 62
7
  6
CONTINUOUS
 10
-35.009179344
 20
-7.4363228061
 11
-34.909179344
 21
-7.4363228061
  0
LINE
  5
2D2
100
AcDbEntity
  8
ASSI
100
AcDbLine
 62
7
  6
CONTINUOUS
 10
-35.009179344
 20
-7.0133068061
 11
-34.909179344
 21
-7.0133068061
  0
LINE
  5
2D3
100
AcDbEntity
  8
ASSI
100
AcDbLine
 62
7
  6
CONTINUOUS
 10
-35.009179344
 20
-6.9663268061
 11
-34.909179344
 21
-6.9663268061
  0
LINE
  5
2D4
100
AcDbEntity
  8
ASSI
100
AcDbLine
 62
7
  6
CONTINUOUS
 10
-35.009179344
 20
-6.7818618061
 11
-34.909179344
 21
-6.7818618061
  0
LINE
  5
2D5
100
AcDbEntity
  8
ASSI
100
AcDbLine
 62
7
  6
CONTINUOUS
 10
-35.009179344
 20
-6.6581938061
 11
-34.909179344
 21
-6.6581938061
  0
LINE
  5
2D6
100
AcDbEntity
  8
ASSI
100
AcDbLine
 62
7
  6
CONTINUOUS
 10
-35.009179344
 20
-6.1568118061
 11
-34.909179344
 21
-6.1568118061
  0
LINE
  5
2D7
100
AcDbEntity
  8
ASSI
100
AcDbLine
 62
7
  6
CONTINUOUS
 10
-35.009179344
 20
-6.0262358061
 11
-34.909179344
 21
-6.0262358061
  0
LINE
  5
2D8
100
AcDbEntity
  8
ASSI
100
AcDbLine
 62
7
  6
CONTINUOUS
 10
-35.009179344
 20
-5.8521338061
 11
-34.909179344
 21
-5.8521338061
  0
LINE
  5
2D9
100
AcDbEntity
  8
ASSI
100
AcDbLine
 62
7
  6
CONTINUOUS
 10
-35.009179344
 20
-5.749049915
 11
-34.909179344
 21
-5.749049915
  0
LINE
  5
2DA
100
AcDbEntity
  8
ASSI
100
AcDbLine
 62
250
  6
CONTINUOUS
 10
-35.009179344
 20
-5.3785848061
 11
-34.909179344
 21
-5.3785848061
  0
LINE
  5
2DB
100
AcDbEntity
  8
ASSI
100
AcDbLine
 62
7
  6
CONTINUOUS
 10
-35.009179344
 20
-4.9851778061
 11
-34.909179344
 21
-4.9851778061
  0
LINE
  5
2DC
100
AcDbEntity
  8
DRAFT
100
AcDbLine
 62
7
  6
CONTINUOUS
 10
-35.009179344
 20
-6.0699157753
 11
-62.7579429759
 21
-5.8926339443
  0
LINE
  5
2DD
100
AcDbEntity
  8
ASSI
100
AcDbLine
 62
7
  6
CONTINUOUS
 10
-35.009179344
 20
-6.0699157753
 11
-62.7579429759
 21
-5.8926339443
  0
LINE
  5
2DE
100
AcDbEntity
  8
DRAFT
100
AcDbLine
 62
7
  6
CONTINUOUS
 10
-35.009179344
 20
-5.8085059461
 11
-62.7657242456
 21
-5.5662782484
  0
LINE
  5
2DF
100
AcDbEntity
  8
ASSI
100
AcDbLine
 62
7
  6
CONTINUOUS
 10
-35.009179344
 20
-5.8085059461
 11
-62.7657242456
 21
-5.5662782484
  0
LINE
  5
2E0
100
AcDbEntity
  8
DRAFT
100
AcDbLine
 62
250
  6
CONTINUOUS
 10
-62.7579445174
 20
-15.8925692927
 11
-62.7657242456
 21
-15.5662782484
  0
LINE
  5
2E1
100
AcDbEntity
  8
ASSI
100
AcDbLine
 62
250
  6
CONTINUOUS
 10
-62.7579445174
 20
-15.8925692927
 11
-62.7657242456
 21
-15.5662782484
  0
LINE
  5
2E2
100
AcDbEntity
  8
DRAFT
100
AcDbLine
 62
250
  6
CONTINUOUS
 10
-62.7579429759
 20
-10.8926339443
 11
-62.7657242456
 21
-10.5662782484
  0
LINE
  5
2E3
100
AcDbEntity
  8
ASSI
100
AcDbLine
 62
250
  6
CONTINUOUS
 10
-62.7579429759
 20
-10.8926339443
 11
-62.7657242456
 21
-10.5662782484
  0
LINE
  5
2E4
100
AcDbEntity
  8
DRAFT
100
AcDbLine
 62
250
  6
CONTINUOUS
 10
-62.7579445174
 20
16.2599556798
 11
-62.7657242456
 21
15.9336646362
  0
LINE
  5
2E5
100
AcDbEntity
  8
ASSI
100
AcDbLine
 62
250
  6
CONTINUOUS
 10
-62.7579445174
 20
16.2599556798
 11
-62.7657242456
 21
15.9336646362
  0
LINE
  5
2E6
100
AcDbEntity
  8
DRAFT
100
AcDbLine
 62
250
  6
CONTINUOUS
 10
-62.7579429759
 20
11.2600203321
 11
-62.7657242456
 21
10.9336646362
  0
LINE
  5
2E7
100
AcDbEntity
  8
ASSI
100
AcDbLine
 62
250
  6
CONTINUOUS
 10
-62.7579429759
 20
11.2600203321
 11
-62.7657242456
 21
10.9336646362
  0
LINE
  5
2E8
100
AcDbEntity
  8
DRAFT
100
AcDbLine
 62
7
  6
CONTINUOUS
 10
-35.009179344
 20
-3.8241076662
 11
-62.7657242456
 21
-4.0663353638
  0
LINE
  5
2E9
100
AcDbEntity
  8
ASSI
100
AcDbLine
 62
7
  6
CONTINUOUS
 10
-35.009179344
 20
-3.8241076662
 11
-62.7657242456
 21
-4.0663353638
  0
LINE
  5
2EA
100
AcDbEntity
  8
DRAFT
100
AcDbLine
 62
7
  6
CONTINUOUS
 10
-35.009179344
 20
-3.562697837
 11
-62.7579429759
 21
-3.7399796679
  0
LINE
  5
2EB
100
AcDbEntity
  8
ASSI
100
AcDbLine
 62
7
  6
CONTINUOUS
 10
-35.009179344
 20
-3.562697837
 11
-62.7579429759
 21
-3.7399796679
  0
LINE
  5
2EC
100
AcDbEntity
  8
ASSI
100
AcDbLine
 62
7
  6
CONTINUOUS
 10
-35.009179344
 20
-4.8163068061
 11
-34.909179344
 21
-4.8163068061
  0
LINE
  5
2ED
100
AcDbEntity
  8
DRAFT
100
AcDbLine
 62
250
  6
CONTINUOUS
 10
-62.7579429759
 20
-5.8926339443
 11
-62.7657242456
 21
-5.5662782484
  0
LINE
  5
2EE
100
AcDbEntity
  8
ASSI
100
AcDbLine
 62
250
  6
CONTINUOUS
 10
-62.7579429759
 20
-5.8926339443
 11
-62.7657242456
 21
-5.5662782484
  0
LINE
  5
2EF
100
AcDbEntity
  8
DRAFT
100
AcDbLine
 62
250
  6
CONTINUOUS
 10
-62.7579429759
 20
-0.8926339443
 11
-62.7657242456
 21
-0.5662782484
  0
LINE
  5
2F0
100
AcDbEntity
  8
ASSI
100
AcDbLine
 62
250
  6
CONTINUOUS
 10
-62.7579429759
 20
-0.8926339443
 11
-62.7657242456
 21
-0.5662782484
  0
LINE
  5
2F1
100
AcDbEntity
  8
DRAFT
100
AcDbLine
 62
250
  6
CONTINUOUS
 10
-62.7579429759
 20
4.1073660557
 11
-62.7657242456
 21
4.4337217516
  0
LINE
  5
2F2
100
AcDbEntity
  8
ASSI
100
AcDbLine
 62
250
  6
CONTINUOUS
 10
-62.7579429759
 20
4.1073660557
 11
-62.7657242456
 21
4.4337217516
  0
LINE
  5
2F3
100
AcDbEntity
  8
DRAFT
100
AcDbLine
 62
250
  6
CONTINUOUS
 10
-62.7579429759
 20
9.1073660557
 11
-62.7657242456
 21
9.4337217516
  0
LINE
  5
2F4
100
AcDbEntity
  8
ASSI
100
AcDbLine
 62
250
  6
CONTINUOUS
 10
-62.7579429759
 20
9.1073660557
 11
-62.7657242456
 21
9.4337217516
  0
LINE
  5
2F5
100
AcDbEntity
  8
DRAFT
100
AcDbLine
 62
250
  6
CONTINUOUS
 10
-62.7579429759
 20
14.1073660557
 11
-62.7657242456
 21
14.4337217516
  0
LINE
  5
2F6
100
AcDbEntity
  8
ASSI
100
AcDbLine
 62
250
  6
CONTINUOUS
 10
-62.7579429759
 20
14.1073660557
 11
-62.7657242456
 21
14.4337217516
  0
LINE
  5
2F7
100
AcDbEntity
  8
DRAFT
100
AcDbLine
 62
250
  6
CONTINUOUS
 10
-62.7579429759
 20
6.2600203321
 11
-62.7657242456
 21
5.9336646362
  0
LINE
  5
2F8
100
AcDbEntity
  8
ASSI
100
AcDbLine
 62
250
  6
CONTINUOUS
 10
-62.7579429759
 20
6.2600203321
 11
-62.7657242456
 21
5.9336646362
  0
LINE
  5
2F9
100
AcDbEntity
  8
DRAFT
100
AcDbLine
 62
250
  6
CONTINUOUS
 10
-62.7579429759
 20
1.2600203321
 11
-62.7657242456
 21
0.9336646362
  0
LINE
  5
2FA
100
AcDbEntity
  8
ASSI
100
AcDbLine
 62
250
  6
CONTINUOUS
 10
-62.7579429759
 20
1.2600203321
 11
-62.7657242456
 21
0.9336646362
  0
LINE
  5
2FB
100
AcDbEntity
  8
DRAFT
100
AcDbLine
 62
250
  6
CONTINUOUS
 10
-62.7579429759
 20
-3.7399796679
 11
-62.7657242456
 21
-4.0663353638
  0
LINE
  5
2FC
100
AcDbEntity
  8
ASSI
100
AcDbLine
 62
250
  6
CONTINUOUS
 10
-62.7579429759
 20
-3.7399796679
 11
-62.7657242456
 21
-4.0663353638
  0
LINE
  5
2FD
100
AcDbEntity
  8
DRAFT
100
AcDbLine
 62
250
  6
CONTINUOUS
 10
-62.7579429759
 20
-8.7399796679
 11
-62.7657242456
 21
-9.0663353638
  0
LINE
  5
2FE
100
AcDbEntity
  8
ASSI
100
AcDbLine
 62
250
  6
CONTINUOUS
 10
-62.7579429759
 20
-8.7399796679
 11
-62.7657242456
 21
-9.0663353638
  0
LINE
  5
2FF
100
AcDbEntity
  8
DRAFT
100
AcDbLine
 62
250
  6
CONTINUOUS
 10
-62.7579429759
 20
-13.7399796679
 11
-62.7657242456
 21
-14.0663353638
  0
LINE
  5
300
100
AcDbEntity
  8
ASSI
100
AcDbLine
 62
250
  6
CONTINUOUS
 10
-62.7579429759
 20
-13.7399796679
 11
-62.7657242456
 21
-14.0663353638
  0
LINE
  5
301
100
AcDbEntity
  8
ASSI
100
AcDbLine
 62
7
  6
CONTINUOUS
 10
-35.009179344
 20
-0.8163068061
 11
-34.909179344
 21
-0.8163068061
  0
LINE
  5
302
100
AcDbEntity
  8
DRAFT
100
AcDbLine
 62
7
  6
CONTINUOUS
 10
-35.009179344
 20
-1.0699157753
 11
-62.7579429759
 21
-0.8926339443
  0
LINE
  5
303
100
AcDbEntity
  8
ASSI
100
AcDbLine
 62
7
  6
CONTINUOUS
 10
-35.009179344
 20
-1.0699157753
 11
-62.7579429759
 21
-0.8926339443
  0
LINE
  5
304
100
AcDbEntity
  8
DRAFT
100
AcDbLine
 62
7
  6
CONTINUOUS
 10
-35.009179344
 20
-0.8085059461
 11
-62.7657242456
 21
-0.5662782484
  0
LINE
  5
305
100
AcDbEntity
  8
ASSI
100
AcDbLine
 62
7
  6
CONTINUOUS
 10
-35.009179344
 20
-0.8085059461
 11
-62.7657242456
 21
-0.5662782484
  0
LINE
  5
306
100
AcDbEntity
  8
0
100
AcDbLine
 62
7
  6
CONTINUOUS
 10
-39.8142766859
 20
16.7735705988
 11
-42.599056749
 21
13.9887905357
  0
LINE
  5
307
100
AcDbEntity
  8
DRAFT
100
AcDbLine
 62
7
  6
CONTINUOUS
 10
-35.009179344
 20
1.1758923338
 11
-62.7657242456
 21
0.9336646362
  0
LINE
  5
308
100
AcDbEntity
  8
ASSI
100
AcDbLine
 62
7
  6
CONTINUOUS
 10
-35.009179344
 20
1.1758923338
 11
-62.7657242456
 21
0.9336646362
  0
LINE
  5
309
100
AcDbEntity
  8
DRAFT
100
AcDbLine
 62
7
  6
CONTINUOUS
 10
-35.009179344
 20
1.437302163
 11
-62.7579429759
 21
1.2600203321
  0
LINE
  5
30A
100
AcDbEntity
  8
ASSI
100
AcDbLine
 62
7
  6
CONTINUOUS
 10
-35.009179344
 20
1.437302163
 11
-62.7579429759
 21
1.2600203321
  0
LINE
  5
30B
100
AcDbEntity
  8
ASSI
100
AcDbLine
 62
7
  6
CONTINUOUS
 10
-35.009179344
 20
1.2337901939
 11
-34.909179344
 21
1.2337901939
  0
LWPOLYLINE
  5
30C
100
AcDbEntity
  8
0
100
AcDbPolyline
 62
7
  6
CONTINUOUS
 90
2
 70
0
 43
0.3500000006
 10
-56.3663228302
 20
36.2796219177
 10
-56.3663228302
 20
37.7796223755
  0
LINE
  5
30D
100
AcDbEntity
  8
0
100
AcDbLine
 62
7
  6
CONTINUOUS
 10
-42.1040820022
 20
13.4938157889
 11
-39.319301939
 21
16.278595852
  0
LINE
  5
30E
100
AcDbEntity
  8
DRAFT
100
AcDbLine
 62
7
  6
CONTINUOUS
 10
-42.9304543625
 20
3.9806918178
 11
-62.7579429759
 21
4.1073660557
  0
LINE
  5
30F
100
AcDbEntity
  8
ASSI
100
AcDbLine
 62
7
  6
CONTINUOUS
 10
-42.9304543625
 20
3.9806918178
 11
-62.7579429759
 21
4.1073660557
  0
LINE
  5
310
100
AcDbEntity
  8
ASSI
100
AcDbLine
 62
7
  6
CONTINUOUS
 10
-41.2275050686
 20
3.0837731554
 11
-35.009179344
 21
3.0295066489
  0
LINE
  5
311
100
AcDbEntity
  8
DRAFT
100
AcDbLine
 62
7
  6
CONTINUOUS
 10
-43.0961363497
 20
4.2620678585
 11
-62.7657242456
 21
4.4337217516
  0
LINE
  5
312
100
AcDbEntity
  8
ASSI
100
AcDbLine
 62
7
  6
CONTINUOUS
 10
-43.0961363497
 20
4.2620678585
 11
-62.7657242456
 21
4.4337217516
  0
LWPOLYLINE
  5
313
100
AcDbEntity
  8
0
100
AcDbPolyline
 62
7
  6
CONTINUOUS
 90
13
 70
0
 43
0.3500000006
 10
-55.0091802063
 20
37.136764389
 10
-55.0091802063
 20
38.4224758301
 10
-54.7948957214
 20
38.8510493317
 10
-54.3663222198
 20
39.2796228333
 10
-54.152037735
 20
39.2796228333
 10
-53.7234642334
 20
38.8510493317
 10
-53.5091797485
 20
38.4224758301
 10
-53.5091797485
 20
37.136764389
 10
-53.7234642334
 20
36.7081908875
 10
-54.152037735
 20
36.2796219177
 10
-54.3663222198
 20
36.2796219177
 10
-54.7948957214
 20
36.7081908875
 10
-55.0091802063
 20
37.136764389
  0
LINE
  5
314
100
AcDbEntity
  8
0
100
AcDbLine
 62
7
  6
CONTINUOUS
 10
-39.8142766859
 20
11.7735705988
 11
-42.599056749
 21
8.9887905357
  0
LINE
  5
315
100
AcDbEntity
  8
0
100
AcDbLine
 62
7
  6
CONTINUOUS
 10
-42.1040820022
 20
8.4938157889
 11
-39.319301939
 21
11.278595852
  0
LINE
  5
316
100
AcDbEntity
  8
DRAFT
100
AcDbLine
 62
7
  6
CONTINUOUS
 10
-43.0961363497
 20
6.1053185292
 11
-62.7657242456
 21
5.9336646362
  0
LINE
  5
317
100
AcDbEntity
  8
ASSI
100
AcDbLine
 62
7
  6
CONTINUOUS
 10
-43.0961363497
 20
6.1053185292
 11
-62.7657242456
 21
5.9336646362
  0
LINE
  5
318
100
AcDbEntity
  8
ASSI
100
AcDbLine
 62
7
  6
CONTINUOUS
 10
-35.009179344
 20
7.3378797388
 11
-41.2275050686
 21
7.2836132323
  0
LINE
  5
319
100
AcDbEntity
  8
DRAFT
100
AcDbLine
 62
7
  6
CONTINUOUS
 10
-42.9304543625
 20
6.3866945699
 11
-62.7579429759
 21
6.2600203321
  0
LINE
  5
31A
100
AcDbEntity
  8
ASSI
100
AcDbLine
 62
7
  6
CONTINUOUS
 10
-42.9304543625
 20
6.3866945699
 11
-62.7579429759
 21
6.2600203321
  0
LINE
  5
31B
100
AcDbEntity
  8
0
100
AcDbLine
 62
7
  6
CONTINUOUS
 10
-38.059179344
 20
6.5336931939
 11
-42.8173463212
 21
6.5336931939
  0
LINE
  5
31C
100
AcDbEntity
  8
ASSI
100
AcDbLine
 62
7
  6
CONTINUOUS
 10
-37.509179344
 20
7.2336931939
 11
-41.6634072881
 21
7.2336931939
  0
LINE
  5
31D
100
AcDbEntity
  8
0
100
AcDbLine
 62
7
  6
CONTINUOUS
 10
-67.3652498457
 20
-21.4723773078
 11
-66.8363422008
 21
-20.9434696629
  0
LINE
  5
31E
100
AcDbEntity
  8
DRAFT
100
AcDbLine
 62
7
  6
CONTINUOUS
 10
-65.7897066345
 20
-19.8968340967
 11
-66.8363422008
 21
-20.9434696629
  0
LINE
  5
31F
100
AcDbEntity
  8
ASSI
100
AcDbLine
 62
7
  6
CONTINUOUS
 10
-65.7897066345
 20
-19.8968340967
 11
-67.3652498457
 21
-21.4723773078
  0
LINE
  5
320
100
AcDbEntity
  8
0
100
AcDbLine
 62
7
  6
CONTINUOUS
 10
-89.7033711351
 20
7.0405897034
 11
-84.4569866214
 21
7.4074526466
  0
LINE
  5
321
100
AcDbEntity
  8
DRAFT
100
AcDbLine
 62
7
  6
CONTINUOUS
 10
-42.9304543625
 20
8.9806918178
 11
-62.7579429759
 21
9.1073660557
  0
LINE
  5
322
100
AcDbEntity
  8
ASSI
100
AcDbLine
 62
7
  6
CONTINUOUS
 10
-42.9304543625
 20
8.9806918178
 11
-62.7579429759
 21
9.1073660557
  0
LINE
  5
323
100
AcDbEntity
  8
ASSI
100
AcDbLine
 62
7
  6
CONTINUOUS
 10
-35.009179344
 20
8.0295066489
 11
-41.2275050686
 21
8.0837731554
  0
LINE
  5
324
100
AcDbEntity
  8
DRAFT
100
AcDbLine
 62
7
  6
CONTINUOUS
 10
-43.0961363497
 20
9.2620678585
 11
-62.7657242456
 21
9.4337217516
  0
LINE
  5
325
100
AcDbEntity
  8
ASSI
100
AcDbLine
 62
7
  6
CONTINUOUS
 10
-43.0961363497
 20
9.2620678585
 11
-62.7657242456
 21
9.4337217516
  0
LINE
  5
326
100
AcDbEntity
  8
0
100
AcDbLine
 62
7
  6
CONTINUOUS
 10
-67.3652498457
 20
21.8397636955
 11
-66.8363422008
 21
21.3108560506
  0
LINE
  5
327
100
AcDbEntity
  8
DRAFT
100
AcDbLine
 62
7
  6
CONTINUOUS
 10
-65.7897066345
 20
20.2642204844
 11
-66.8363422008
 21
21.3108560506
  0
LINE
  5
328
100
AcDbEntity
  8
ASSI
100
AcDbLine
 62
7
  6
CONTINUOUS
 10
-65.7897066345
 20
20.2642204844
 11
-67.3652498457
 21
21.8397636955
  0
LINE
  5
329
100
AcDbEntity
  8
DRAFT
100
AcDbLine
 62
7
  6
CONTINUOUS
 10
-43.0961363497
 20
11.1053185292
 11
-62.7657242456
 21
10.9336646362
  0
LINE
  5
32A
100
AcDbEntity
  8
ASSI
100
AcDbLine
 62
7
  6
CONTINUOUS
 10
-43.0961363497
 20
11.1053185292
 11
-62.7657242456
 21
10.9336646362
  0
LINE
  5
32B
100
AcDbEntity
  8
ASSI
100
AcDbLine
 62
7
  6
CONTINUOUS
 10
-35.009179344
 20
12.3378797388
 11
-41.2275050686
 21
12.2836132323
  0
LINE
  5
32C
100
AcDbEntity
  8
DRAFT
100
AcDbLine
 62
7
  6
CONTINUOUS
 10
-42.9304543625
 20
11.3866945699
 11
-62.7579429759
 21
11.2600203321
  0
LINE
  5
32D
100
AcDbEntity
  8
ASSI
100
AcDbLine
 62
7
  6
CONTINUOUS
 10
-42.9304543625
 20
11.3866945699
 11
-62.7579429759
 21
11.2600203321
  0
LINE
  5
32E
100
AcDbEntity
  8
ASSI
100
AcDbLine
 62
7
  6
CONTINUOUS
 10
-35.009179344
 20
13.0295066489
 11
-41.2275050686
 21
13.0837731554
  0
LINE
  5
32F
100
AcDbEntity
  8
0
100
AcDbLine
 62
7
  6
CONTINUOUS
 10
-46.259179344
 20
16.0336931939
 11
-46.259179344
 21
15.0336931939
  0
LINE
  5
330
100
AcDbEntity
  8
ASSI
100
AcDbLine
 62
7
  6
CONTINUOUS
 10
-46.159179344
 20
16.078587758
 11
-46.159179344
 21
15.0336931939
  0
LINE
  5
331
100
AcDbEntity
  8
ASSI
100
AcDbLine
 62
250
  6
CONTINUOUS
 10
-45.159179344
 20
16.0873146258
 11
-45.159179344
 21
14.9492657522
  0
LINE
  5
332
100
AcDbEntity
  8
DRAFT
100
AcDbLine
 62
7
  6
CONTINUOUS
 10
-43.0961363497
 20
16.1053185292
 11
-62.7657242456
 21
15.9336646362
  0
LINE
  5
333
100
AcDbEntity
  8
ASSI
100
AcDbLine
 62
7
  6
CONTINUOUS
 10
-43.0961363497
 20
16.1053185292
 11
-62.7657242456
 21
15.9336646362
  0
LINE
  5
334
100
AcDbEntity
  8
RACCORDO
100
AcDbLine
 62
7
  6
CONTINUOUS
 10
-46.259179344
 20
15.0336931939
 11
-45.559179344
 21
15.0336931939
  0
LINE
  5
335
100
AcDbEntity
  8
0
100
AcDbLine
 62
250
  6
CONTINUOUS
 10
-46.259179344
 20
15.0336931939
 11
-63.4937474417
 21
15.0336931939
  0
LINE
  5
336
100
AcDbEntity
  8
0
100
AcDbLine
 62
7
  6
CONTINUOUS
 10
-46.259179344
 20
16.0336931939
 11
-51.3035868442
 21
16.0336931939
  0
LINE
  5
337
100
AcDbEntity
  8
DRAFT
100
AcDbLine
 62
7
  6
CONTINUOUS
 10
-42.9304543625
 20
13.9806918178
 11
-62.7579429759
 21
14.1073660557
  0
LINE
  5
338
100
AcDbEntity
  8
ASSI
100
AcDbLine
 62
7
  6
CONTINUOUS
 10
-42.9304543625
 20
13.9806918178
 11
-62.7579429759
 21
14.1073660557
  0
LINE
  5
339
100
AcDbEntity
  8
DRAFT
100
AcDbLine
 62
7
  6
CONTINUOUS
 10
-43.0961363497
 20
14.2620678585
 11
-62.7657242456
 21
14.4337217516
  0
LINE
  5
33A
100
AcDbEntity
  8
ASSI
100
AcDbLine
 62
7
  6
CONTINUOUS
 10
-43.0961363497
 20
14.2620678585
 11
-62.7657242456
 21
14.4337217516
  0
LINE
  5
33B
100
AcDbEntity
  8
RACCORDO
100
AcDbLine
 62
7
  6
CONTINUOUS
 10
-44.559179344
 20
11.0925507464
 11
-44.559179344
 21
9.2748356413
  0
LINE
  5
33C
100
AcDbEntity
  8
ASSI
100
AcDbLine
 62
7
  6
CONTINUOUS
 10
-44.159179344
 20
16.0960414936
 11
-44.159179344
 21
14.2713448942
  0
LINE
  5
33D
100
AcDbEntity
  8
ASSI
100
AcDbLine
 62
7
  6
CONTINUOUS
 10
-44.159179344
 20
11.0960414936
 11
-44.159179344
 21
9.2713448942
  0
LINE
  5
33E
100
AcDbEntity
  8
0
100
AcDbLine
 62
7
  6
CONTINUOUS
 10
-67.3652498457
 20
-21.4723773078
 11
-68.8596838601
 21
-22.0163068061
  0
LINE
  5
33F
100
AcDbEntity
  8
ASSI
100
AcDbLine
 62
7
  6
CONTINUOUS
 10
-67.3652498457
 20
-21.4723773078
 11
-68.8596838601
 21
-22.0163068061
  0
LINE
  5
340
100
AcDbEntity
  8
ASSI
100
AcDbLine
 62
7
  6
CONTINUOUS
 10
-41.2275050686
 20
17.2836132323
 11
-35.009179344
 21
17.3378797388
  0
LINE
  5
341
100
AcDbEntity
  8
DRAFT
100
AcDbLine
 62
250
  6
CONTINUOUS
 10
-62.7583932669
 20
16.2599527985
 11
-65.2527740806
 21
16.2440813074
  0
LINE
  5
342
100
AcDbEntity
  8
ASSI
100
AcDbLine
 62
250
  6
CONTINUOUS
 10
-62.7583932669
 20
16.2599527985
 11
-65.2527740806
 21
16.2440813074
  0
LINE
  5
343
100
AcDbEntity
  8
ASSI
100
AcDbLine
 62
7
  6
CONTINUOUS
 10
-42.9339889327
 20
16.3816213565
 11
-43.0978259334
 21
16.3806158387
  0
LINE
  5
344
100
AcDbEntity
  8
DRAFT
100
AcDbLine
 62
7
  6
CONTINUOUS
 10
-42.9339889327
 20
16.3816213565
 11
-62.7579445174
 21
16.2599556798
  0
LINE
  5
345
100
AcDbEntity
  8
DRAFT
100
AcDbLine
 62
7
  6
CONTINUOUS
 10
-41.9884735366
 20
17.1337446192
 11
-37.509179344
 21
17.1181088693
  0
LINE
  5
346
100
AcDbEntity
  8
ASSI
100
AcDbLine
 62
7
  6
CONTINUOUS
 10
-41.9884735366
 20
17.1337446192
 11
-37.509179344
 21
17.1181088693
  0
LINE
  5
347
100
AcDbEntity
  8
ASSI
100
AcDbLine
 62
250
  6
CONTINUOUS
 10
-36.6827138356
 20
17.3232750242
 11
-41.9872051916
 21
17.3538777184
  0
LINE
  5
348
100
AcDbEntity
  8
0
100
AcDbLine
 62
7
  6
CONTINUOUS
 10
-67.3652498457
 20
21.8397636955
 11
-68.8596838601
 21
22.3836931939
  0
LINE
  5
349
100
AcDbEntity
  8
ASSI
100
AcDbLine
 62
7
  6
CONTINUOUS
 10
-67.3652498457
 20
21.8397636955
 11
-68.8596838601
 21
22.3836931939
  0
LINE
  5
34A
100
AcDbEntity
  8
DRAFT
100
AcDbLine
 62
7
  6
CONTINUOUS
 10
-35.009179344
 20
19.9956028922
 11
-65.7897066345
 21
20.2642204844
  0
LINE
  5
34B
100
AcDbEntity
  8
ASSI
100
AcDbLine
 62
7
  6
CONTINUOUS
 10
-35.009179344
 20
19.9956028922
 11
-65.7897066345
 21
20.2642204844
  0
LINE
  5
34C
100
AcDbEntity
  8
RACCORDO
100
AcDbLine
 62
7
  6
CONTINUOUS
 10
-66.8363422008
 20
21.3108560506
 11
-70.8126698253
 21
21.3802631074
  0
LINE
  5
34D
100
AcDbEntity
  8
ASSI
100
AcDbLine
 62
7
  6
CONTINUOUS
 10
-66.8363422008
 20
21.3108560506
 11
-70.8126698253
 21
21.3802631074
  0
LINE
  5
34E
100
AcDbEntity
  8
0
100
AcDbLine
 62
250
  6
CONTINUOUS
 10
-84.0671919774
 20
21.2020064816
 11
-83.5763826461
 21
21.1809891105
  0
LWPOLYLINE
  5
34F
100
AcDbEntity
  8
0
100
AcDbPolyline
 62
7
  6
CONTINUOUS
 90
10
 70
0
 43
0.3500000006
 10
-61.9020355682
 20
44.7796199799
 10
-61.8306089172
 20
44.636762146
 10
-61.8306089172
 20
44.565335495
 10
-61.9734667511
 20
44.4224776611
 10
-62.0448934021
 20
44.4224776611
 10
-62.1163200531
 20
44.493908844
 10
-62.1163200531
 20
44.565335495
 10
-62.0448934021
 20
44.7081933289
 10
-61.9734667511
 20
44.7796199799
 10
-61.9020355682
 20
44.7796199799
  0
LINE
  5
350
100
AcDbEntity
  8
ASSI
100
AcDbLine
 62
7
  6
CONTINUOUS
 10
-38.459179344
 20
17.1214250084
 11
-38.459179344
 21
13.0596143428
  0
LINE
  5
351
100
AcDbEntity
  8
ASSI
100
AcDbLine
 62
7
  6
CONTINUOUS
 10
-38.459179344
 20
12.3077720449
 11
-38.459179344
 21
8.0596143428
  0
LINE
  5
352
100
AcDbEntity
  8
ASSI
100
AcDbLine
 62
7
  6
CONTINUOUS
 10
-38.459179344
 20
7.3077720449
 11
-38.459179344
 21
7.2336931939
  0
LINE
  5
353
100
AcDbEntity
  8
0
100
AcDbLine
 62
7
  6
CONTINUOUS
 10
-38.059179344
 20
6.5336931939
 11
-38.059179344
 21
3.0561235957
  0
LINE
  5
354
100
AcDbEntity
  8
0
100
AcDbLine
 62
7
  6
CONTINUOUS
 10
-38.059179344
 20
1.1492753871
 11
-38.059179344
 21
-0.7818889994
  0
LINE
  5
355
100
AcDbEntity
  8
0
100
AcDbLine
 62
7
  6
CONTINUOUS
 10
-38.059179344
 20
-3.8507246129
 11
-38.059179344
 21
-5.7818889994
  0
LINE
  5
356
100
AcDbEntity
  8
0
100
AcDbLine
 62
7
  6
CONTINUOUS
 10
-38.059179344
 20
-8.8507246129
 11
-38.059179344
 21
-10.7818889994
  0
LINE
  5
357
100
AcDbEntity
  8
0
100
AcDbLine
 62
7
  6
CONTINUOUS
 10
-38.059179344
 20
-13.8507246129
 11
-38.059179344
 21
-15.7818889994
  0
LINE
  5
358
100
AcDbEntity
  8
DRAFT
100
AcDbLine
 62
7
  6
CONTINUOUS
 10
-37.509179344
 20
17.1181088693
 11
-37.509179344
 21
13.0513238184
  0
LINE
  5
359
100
AcDbEntity
  8
ASSI
100
AcDbLine
 62
7
  6
CONTINUOUS
 10
-37.509179344
 20
17.1181088693
 11
-37.509179344
 21
13.0513238184
  0
LINE
  5
35A
100
AcDbEntity
  8
DRAFT
100
AcDbLine
 62
7
  6
CONTINUOUS
 10
-37.509179344
 20
3.0513238184
 11
-37.509179344
 21
7.3160625693
  0
LINE
  5
35B
100
AcDbEntity
  8
ASSI
100
AcDbLine
 62
7
  6
CONTINUOUS
 10
-37.509179344
 20
3.0513238184
 11
-37.509179344
 21
7.3160625693
  0
LINE
  5
35C
100
AcDbEntity
  8
DRAFT
100
AcDbLine
 62
7
  6
CONTINUOUS
 10
-37.509179344
 20
8.0513238184
 11
-37.509179344
 21
12.3160625693
  0
LINE
  5
35D
100
AcDbEntity
  8
ASSI
100
AcDbLine
 62
7
  6
CONTINUOUS
 10
-37.509179344
 20
8.0513238184
 11
-37.509179344
 21
12.3160625693
  0
LINE
  5
35E
100
AcDbEntity
  8
0
100
AcDbLine
 62
250
  6
CONTINUOUS
 10
-83.102992589
 20
21.6592855637
 11
-75.009179344
 21
22.0834643418
  0
LINE
  5
35F
100
AcDbEntity
  8
0
100
AcDbLine
 62
7
  6
CONTINUOUS
 10
-83.1204343639
 20
22.1586003311
 11
-75.009179344
 21
22.5836931939
  0
LINE
  5
360
100
AcDbEntity
  8
0
100
AcDbLine
 62
7
  6
CONTINUOUS
 10
-68.8596838601
 20
22.3836931939
 11
-69.409179344
 21
22.3836931939
  0
LINE
  5
361
100
AcDbEntity
  8
ASSI
100
AcDbLine
 62
7
  6
CONTINUOUS
 10
-68.8596838601
 20
22.3836931939
 11
-69.409179344
 21
22.3836931939
  0
LINE
  5
362
100
AcDbEntity
  8
0
100
AcDbLine
 62
7
  6
CONTINUOUS
 10
-75.009179344
 20
23.6836931939
 11
-71.009179344
 21
23.6138729341
  0
LINE
  5
363
100
AcDbEntity
  8
ASSI
100
AcDbLine
 62
7
  6
CONTINUOUS
 10
-75.009179344
 20
23.6836931939
 11
-71.009179344
 21
23.6138729341
  0
LINE
  5
364
100
AcDbEntity
  8
ASSI
100
AcDbLine
 62
250
  6
CONTINUOUS
 10
-75.009179344
 20
23.5170528513
 11
-71.009179344
 21
23.4468005557
  0
LINE
  5
365
100
AcDbEntity
  8
ASSI
100
AcDbLine
 62
7
  6
CONTINUOUS
 10
-36.559179344
 20
-15.3163068061
 11
-36.559179344
 21
-13.8371979679
  0
LINE
  5
366
100
AcDbEntity
  8
ASSI
100
AcDbLine
 62
7
  6
CONTINUOUS
 10
-36.559179344
 20
-10.7954156444
 11
-36.559179344
 21
-8.8371979679
  0
LINE
  5
367
100
AcDbEntity
  8
ASSI
100
AcDbLine
 62
7
  6
CONTINUOUS
 10
-36.559179344
 20
-5.7954156444
 11
-36.559179344
 21
-3.8371979679
  0
LINE
  5
368
100
AcDbEntity
  8
ASSI
100
AcDbLine
 62
7
  6
CONTINUOUS
 10
-36.559179344
 20
-0.7954156444
 11
-36.559179344
 21
1.1628020321
  0
LINE
  5
369
100
AcDbEntity
  8
DRAFT
100
AcDbLine
 62
7
  6
CONTINUOUS
 10
-36.509179344
 20
-15.7954156444
 11
-36.509179344
 21
-13.8371979679
  0
LINE
  5
36A
100
AcDbEntity
  8
ASSI
100
AcDbLine
 62
7
  6
CONTINUOUS
 10
-36.509179344
 20
-15.7954156444
 11
-36.509179344
 21
-13.8371979679
  0
LINE
  5
36B
100
AcDbEntity
  8
DRAFT
100
AcDbLine
 62
7
  6
CONTINUOUS
 10
-36.509179344
 20
-10.7954156444
 11
-36.509179344
 21
-8.8371979679
  0
LINE
  5
36C
100
AcDbEntity
  8
ASSI
100
AcDbLine
 62
7
  6
CONTINUOUS
 10
-36.509179344
 20
-10.7954156444
 11
-36.509179344
 21
-8.8371979679
  0
LINE
  5
36D
100
AcDbEntity
  8
DRAFT
100
AcDbLine
 62
7
  6
CONTINUOUS
 10
-36.509179344
 20
-5.7954156444
 11
-36.509179344
 21
-3.8371979679
  0
LINE
  5
36E
100
AcDbEntity
  8
ASSI
100
AcDbLine
 62
7
  6
CONTINUOUS
 10
-36.509179344
 20
-5.7954156444
 11
-36.509179344
 21
-3.8371979679
  0
LINE
  5
36F
100
AcDbEntity
  8
DRAFT
100
AcDbLine
 62
7
  6
CONTINUOUS
 10
-36.509179344
 20
-0.7954156444
 11
-36.509179344
 21
1.1628020321
  0
LINE
  5
370
100
AcDbEntity
  8
ASSI
100
AcDbLine
 62
7
  6
CONTINUOUS
 10
-36.509179344
 20
-0.7954156444
 11
-36.509179344
 21
1.1628020321
  0
LINE
  5
371
100
AcDbEntity
  8
DRAFT
100
AcDbLine
 62
7
  6
CONTINUOUS
 10
-35.009179344
 20
19.9956028922
 11
-35.009179344
 21
13.0295066489
  0
LINE
  5
372
100
AcDbEntity
  8
DRAFT
100
AcDbLine
 62
7
  6
CONTINUOUS
 10
-35.009179344
 20
12.3378797388
 11
-35.009179344
 21
8.0295066489
  0
LINE
  5
373
100
AcDbEntity
  8
DRAFT
100
AcDbLine
 62
7
  6
CONTINUOUS
 10
-35.009179344
 20
-19.6282165045
 11
-35.009179344
 21
7.3378797388
  0
LINE
  5
374
100
AcDbEntity
  8
ASSI
100
AcDbLine
 62
7
  6
CONTINUOUS
 10
-35.009179344
 20
-19.6282165045
 11
-35.009179344
 21
19.9956028922
  0
LINE
  5
375
100
AcDbEntity
  8
CURVE
100
AcDbLine
 62
250
  6
CONTINUOUS
 10
-34.909179344
 20
16.9157440014
 11
-34.909179344
 21
13.624847467
  0
LINE
  5
376
100
AcDbEntity
  8
CURVE
100
AcDbLine
 62
250
  6
CONTINUOUS
 10
-34.909179344
 20
10.5836931939
 11
-34.909179344
 21
9.9051217491
  0
LINE
  5
377
100
AcDbEntity
  8
ASSI
100
AcDbLine
 62
7
  6
CONTINUOUS
 10
-34.909179344
 20
1.2337901939
 11
-34.909179344
 21
-0.8163068061
  0
LINE
  5
378
100
AcDbEntity
  8
ASSI
100
AcDbLine
 62
7
  6
CONTINUOUS
 10
-34.909179344
 20
-4.8163068061
 11
-34.909179344
 21
-5.7489383174
  0
LINE
  5
379
100
AcDbEntity
  8
ASSI
100
AcDbLine
 62
7
  6
CONTINUOUS
 10
-34.909179344
 20
-5.8521338061
 11
-34.909179344
 21
-6.9663268061
  0
LINE
  5
37A
100
AcDbEntity
  8
ASSI
100
AcDbLine
 62
7
  6
CONTINUOUS
 10
-34.909179344
 20
-7.0133068061
 11
-34.909179344
 21
-8.0282098061
  0
LINE
  5
37B
100
AcDbEntity
  8
ASSI
100
AcDbLine
 62
7
  6
CONTINUOUS
 10
-34.909179344
 20
-8.2040878061
 11
-34.909179344
 21
-8.3850988061
  0
LINE
  5
37C
100
AcDbEntity
  8
ASSI
100
AcDbLine
 62
7
  6
CONTINUOUS
 10
-34.909179344
 20
-9.1702348061
 11
-34.909179344
 21
-10.1027305558
  0
LINE
  5
37D
100
AcDbEntity
  8
ASSI
100
AcDbLine
 62
7
  6
CONTINUOUS
 10
-34.909179344
 20
-10.3314078061
 11
-34.909179344
 21
-11.2541278061
  0
LINE
  5
37E
100
AcDbEntity
  8
ASSI
100
AcDbLine
 62
7
  6
CONTINUOUS
 10
-34.909179344
 20
-11.4752088061
 11
-34.909179344
 21
-12.4675108061
  0
LINE
  5
37F
100
AcDbEntity
  8
ASSI
100
AcDbLine
 62
7
  6
CONTINUOUS
 10
-34.909179344
 20
-14.0081738061
 11
-34.909179344
 21
-14.1892838061
  0
LINE
  5
380
100
AcDbEntity
  8
ASSI
100
AcDbLine
 62
7
  6
CONTINUOUS
 10
-34.909179344
 20
-12.7408038061
 11
-34.909179344
 21
-13.772550549
  0
LWPOLYLINE
  5
381
100
AcDbEntity
  8
0
100
AcDbPolyline
 62
7
  6
CONTINUOUS
 90
3
 70
0
 43
0.3500000006
 10
-55.8663226776
 20
36.9224799042
 10
-57.3663231354
 20
36.9224799042
 10
-56.7234651489
 20
39.2796228333
  0
LWPOLYLINE
  5
382
100
AcDbEntity
  8
0
100
AcDbPolyline
 62
7
  6
CONTINUOUS
 90
8
 70
0
 43
0.3500000006
 10
-66.8306059113
 20
44.2796198273
 10
-65.9734634399
 20
44.2796198273
 10
-65.5448944702
 20
44.7081933289
 10
-65.5448944702
 20
45.5653358002
 10
-65.9734634399
 20
45.9939047699
 10
-66.8306059113
 20
45.9939047699
 10
-66.8306059113
 20
47.2796207428
 10
-65.5448944702
 20
47.2796207428
  0
LWPOLYLINE
  5
383
100
AcDbEntity
  8
0
100
AcDbPolyline
 62
7
  6
CONTINUOUS
 90
8
 70
0
 43
0.3500000006
 10
-64.6877519989
 20
44.2796198273
 10
-63.8306095276
 20
44.2796198273
 10
-63.402036026
 20
44.7081933289
 10
-63.402036026
 20
45.5653358002
 10
-63.8306095276
 20
45.9939047699
 10
-64.6877519989
 20
45.9939047699
 10
-64.6877519989
 20
47.2796207428
 10
-63.402036026
 20
47.2796207428
  0
LWPOLYLINE
  5
384
100
AcDbEntity
  8
0
100
AcDbPolyline
 62
7
  6
CONTINUOUS
 90
8
 70
0
 43
0.3500000006
 10
-60.8306086121
 20
44.2796198273
 10
-59.9734661407
 20
44.2796198273
 10
-59.5448926392
 20
44.7081933289
 10
-59.5448926392
 20
45.5653358002
 10
-59.9734661407
 20
45.9939047699
 10
-60.8306086121
 20
45.9939047699
 10
-60.8306086121
 20
47.2796207428
 10
-59.5448926392
 20
47.2796207428
  0
ARC
  5
385
100
AcDbEntity
  8
DRAFT
100
AcDbCircle
 62
7
  6
CONTINUOUS
 10
-1.2275487963
 20
-18.0096363812
 40
11.0543318637
100
AcDbArc
 50
75.3169797219
 51
75.7699460153
  0
ARC
  5
386
100
AcDbEntity
  8
0
100
AcDbCircle
 62
7
  6
CONTINUOUS
 10
-4.2196232249
 20
-22.3165409329
 40
0.9997658735
100
AcDbArc
 50
236.4413864925
 51
270.0013825398
  0
ARC
  5
387
100
AcDbEntity
  8
ASSI
100
AcDbCircle
 62
7
  6
CONTINUOUS
 10
-4.2205096267
 20
-22.317730967
 40
0.9982842029
100
AcDbArc
 50
236.446025001
 51
240.1905548941
  0
ARC
  5
388
100
AcDbEntity
  8
0
100
AcDbCircle
 62
250
  6
CONTINUOUS
 10
-11.0532963426
 20
-21.2910043332
 40
0.5001919747
100
AcDbArc
 50
180.1025071439
 51
269.9721831541
  0
ARC
  5
389
100
AcDbEntity
  8
0
100
AcDbCircle
 62
7
  6
CONTINUOUS
 10
-5.4947410756
 20
-22.9163068061
 40
0.5
100
AcDbArc
 50
350.803718421
 51
119.112422776
  0
ARC
  5
38A
100
AcDbEntity
  8
ASSI
100
AcDbCircle
 62
7
  6
CONTINUOUS
 10
-5.4947410756
 20
-22.9163068061
 40
0.5
100
AcDbArc
 50
350.803718421
 51
119.112422776
  0
ARC
  5
38B
100
AcDbEntity
  8
0
100
AcDbCircle
 62
7
  6
CONTINUOUS
 10
-11.7947410756
 20
0.1836931939
 40
28.0
100
AcDbArc
 50
55.8789063483
 51
56.4427882703
  0
ARC
  5
38C
100
AcDbEntity
  8
0
100
AcDbCircle
 62
7
  6
CONTINUOUS
 10
-11.7947410756
 20
0.1836931939
 40
28.0
100
AcDbArc
 50
53.1385761675
 51
54.0372348486
  0
ARC
  5
38D
100
AcDbEntity
  8
0
100
AcDbCircle
 62
7
  6
CONTINUOUS
 10
-11.7947410756
 20
0.1836931939
 40
28.0
100
AcDbArc
 50
305.9627651514
 51
306.8614238325
  0
ARC
  5
38E
100
AcDbEntity
  8
0
100
AcDbCircle
 62
7
  6
CONTINUOUS
 10
-11.7947410756
 20
0.1836931939
 40
28.0
100
AcDbArc
 50
303.5572118642
 51
304.1210936517
  0
ARC
  5
38F
100
AcDbEntity
  8
ASSI
100
AcDbCircle
 62
7
  6
CONTINUOUS
 10
-11.7947410756
 20
0.1836931939
 40
28.0
100
AcDbArc
 50
55.8789063483
 51
56.4427882703
  0
ARC
  5
390
100
AcDbEntity
  8
ASSI
100
AcDbCircle
 62
7
  6
CONTINUOUS
 10
-11.7947410756
 20
0.1836931939
 40
28.0
100
AcDbArc
 50
53.1385761675
 51
54.0372348486
  0
ARC
  5
391
100
AcDbEntity
  8
ASSI
100
AcDbCircle
 62
7
  6
CONTINUOUS
 10
-11.7947410756
 20
0.1836931939
 40
28.0
100
AcDbArc
 50
305.9627651514
 51
306.8614238325
  0
ARC
  5
392
100
AcDbEntity
  8
ASSI
100
AcDbCircle
 62
7
  6
CONTINUOUS
 10
-11.7947410756
 20
0.1836931939
 40
28.0
100
AcDbArc
 50
303.5572118642
 51
304.1210936517
  0
ARC
  5
393
100
AcDbEntity
  8
DRAFT
100
AcDbCircle
 62
7
  6
CONTINUOUS
 10
-1.2275487961
 20
18.3770227683
 40
11.054331863
100
AcDbArc
 50
284.2300539847
 51
284.6830202781
  0
ARC
  5
394
100
AcDbEntity
  8
RACCORDO
100
AcDbCircle
 62
250
  6
CONTINUOUS
 10
-0.5452649824
 20
0.1836931939
 40
7.9186613869
100
AcDbArc
 50
270.0037907872
 51
89.9962092128
  0
ARC
  5
395
100
AcDbEntity
  8
RACCORDO
100
AcDbCircle
 62
250
  6
CONTINUOUS
 10
-0.545878057
 20
0.1836931939
 40
7.81682699
100
AcDbArc
 50
89.9916663494
 51
270.0083336506
  0
ARC
  5
396
100
AcDbEntity
  8
0
100
AcDbCircle
 62
7
  6
CONTINUOUS
 10
-4.2196223491
 20
22.6839244149
 40
0.9997687792
100
AcDbArc
 50
89.9986477078
 51
123.5585595149
  0
ARC
  5
397
100
AcDbEntity
  8
0
100
AcDbCircle
 62
250
  6
CONTINUOUS
 10
-11.0532963365
 20
21.658390714
 40
0.5001919814
100
AcDbArc
 50
90.0278175618
 51
179.8974920689
  0
ARC
  5
398
100
AcDbEntity
  8
0
100
AcDbCircle
 62
7
  6
CONTINUOUS
 10
-5.4947410756
 20
23.2836931939
 40
0.5
100
AcDbArc
 50
240.887577224
 51
9.196281579
  0
ARC
  5
399
100
AcDbEntity
  8
ASSI
100
AcDbCircle
 62
7
  6
CONTINUOUS
 10
-5.4947410756
 20
23.2836931939
 40
0.5
100
AcDbArc
 50
240.887577224
 51
9.196281579
  0
ARC
  5
39A
100
AcDbEntity
  8
DRAFT
100
AcDbCircle
 62
7
  6
CONTINUOUS
 10
0.1380666451
 20
-18.0096363811
 40
11.0543318635
100
AcDbArc
 50
104.2300539847
 51
104.6830202781
  0
ARC
  5
39B
100
AcDbEntity
  8
0
100
AcDbCircle
 62
7
  6
CONTINUOUS
 10
3.1301410738
 20
-22.3165409329
 40
0.9997658735
100
AcDbArc
 50
269.9986174602
 51
303.5586135075
  0
ARC
  5
39C
100
AcDbEntity
  8
0
100
AcDbCircle
 62
250
  6
CONTINUOUS
 10
9.9638141931
 20
-21.2910043291
 40
0.5001919761
100
AcDbArc
 50
270.027816675
 51
359.8974923815
  0
ARC
  5
39D
100
AcDbEntity
  8
0
100
AcDbCircle
 62
7
  6
CONTINUOUS
 10
4.4052589244
 20
-22.9163068061
 40
0.5
100
AcDbArc
 50
60.887577224
 51
189.196281579
  0
ARC
  5
39E
100
AcDbEntity
  8
ASSI
100
AcDbCircle
 62
7
  6
CONTINUOUS
 10
4.4052589244
 20
-22.9163068061
 40
0.5
100
AcDbArc
 50
60.887577224
 51
189.196281579
  0
ARC
  5
39F
100
AcDbEntity
  8
RACCORDO
100
AcDbCircle
 62
250
  6
CONTINUOUS
 10
-0.5442172489
 20
0.1836931939
 40
7.9186606943
100
AcDbArc
 50
90.0037902074
 51
269.9962097926
  0
ARC
  5
3A0
100
AcDbEntity
  8
RACCORDO
100
AcDbCircle
 62
250
  6
CONTINUOUS
 10
-0.5436040896
 20
0.1836931939
 40
7.816827386
100
AcDbArc
 50
269.9916663161
 51
90.0083336839
  0
ARC
  5
3A1
100
AcDbEntity
  8
DRAFT
100
AcDbCircle
 62
7
  6
CONTINUOUS
 10
-0.5447410756
 20
0.1836931939
 40
7.7936376623
100
AcDbArc
 50
74.2221986956
 51
105.7778013044
  0
ARC
  5
3A2
100
AcDbEntity
  8
DRAFT
100
AcDbCircle
 62
7
  6
CONTINUOUS
 10
-0.5447410756
 20
0.1836931939
 40
7.7936376623
100
AcDbArc
 50
254.2221986956
 51
285.7778013044
  0
ARC
  5
3A3
100
AcDbEntity
  8
DRAFT
100
AcDbCircle
 62
7
  6
CONTINUOUS
 10
-0.5447410756
 20
0.1836931939
 40
7.75
100
AcDbArc
 50
105.2195847889
 51
254.7804152111
  0
ARC
  5
3A4
100
AcDbEntity
  8
DRAFT
100
AcDbCircle
 62
7
  6
CONTINUOUS
 10
-0.5447410756
 20
0.1836931939
 40
7.75
100
AcDbArc
 50
285.2195847889
 51
74.7804152111
  0
CIRCLE
  5
3A5
100
AcDbEntity
  8
DRAFT
100
AcDbCircle
 62
7
  6
CONTINUOUS
 10
-0.5447410756
 20
0.1836931939
 40
7.5
  0
CIRCLE
  5
3A6
100
AcDbEntity
  8
RACCORDO
100
AcDbCircle
 62
250
  6
CONTINUOUS
 10
-0.5447410756
 20
0.1836931939
 40
7.3446976577
  0
CIRCLE
  5
3A7
100
AcDbEntity
  8
0
100
AcDbCircle
 62
7
  6
CONTINUOUS
 10
-0.5447410756
 20
0.1836931939
 40
7.325
  0
CIRCLE
  5
3A8
100
AcDbEntity
  8
RACCORDO
100
AcDbCircle
 62
250
  6
CONTINUOUS
 10
-0.5447410756
 20
0.1836931939
 40
6.8568965095
  0
CIRCLE
  5
3A9
100
AcDbEntity
  8
RACCORDO
100
AcDbCircle
 62
250
  6
CONTINUOUS
 10
-0.5447410756
 20
0.1836931939
 40
6.4115440154
  0
ARC
  5
3AA
100
AcDbEntity
  8
DRAFT
100
AcDbCircle
 62
7
  6
CONTINUOUS
 10
0.138066645
 20
18.3770227684
 40
11.0543318631
100
AcDbArc
 50
255.3169797219
 51
255.7699460153
  0
ARC
  5
3AB
100
AcDbEntity
  8
0
100
AcDbCircle
 62
7
  6
CONTINUOUS
 10
3.1301401979
 20
22.6839244149
 40
0.9997687792
100
AcDbArc
 50
56.4414404851
 51
90.0013522922
  0
ARC
  5
3AC
100
AcDbEntity
  8
ASSI
100
AcDbCircle
 62
7
  6
CONTINUOUS
 10
3.1310216983
 20
22.6851097894
 40
0.998293701
100
AcDbArc
 50
56.4459924408
 51
60.1801583584
  0
ARC
  5
3AD
100
AcDbEntity
  8
0
100
AcDbCircle
 62
7
  6
CONTINUOUS
 10
4.4052589244
 20
23.2836931939
 40
0.5
100
AcDbArc
 50
170.803718421
 51
299.112422776
  0
ARC
  5
3AE
100
AcDbEntity
  8
ASSI
100
AcDbCircle
 62
7
  6
CONTINUOUS
 10
4.4052589244
 20
23.2836931939
 40
0.5
100
AcDbArc
 50
170.803718421
 51
299.112422776
  0
ARC
  5
3AF
100
AcDbEntity
  8
0
100
AcDbCircle
 62
7
  6
CONTINUOUS
 10
10.7052589244
 20
0.1836931939
 40
28.0
100
AcDbArc
 50
125.9627651514
 51
126.8614238325
  0
ARC
  5
3B0
100
AcDbEntity
  8
0
100
AcDbCircle
 62
7
  6
CONTINUOUS
 10
10.7052589244
 20
0.1836931939
 40
28.0
100
AcDbArc
 50
123.5572117297
 51
124.1210936517
  0
ARC
  5
3B1
100
AcDbEntity
  8
0
100
AcDbCircle
 62
7
  6
CONTINUOUS
 10
10.7052589244
 20
0.1836931939
 40
28.0
100
AcDbArc
 50
235.8789063483
 51
236.4427881358
  0
ARC
  5
3B2
100
AcDbEntity
  8
0
100
AcDbCircle
 62
7
  6
CONTINUOUS
 10
10.7052589244
 20
0.1836931939
 40
28.0
100
AcDbArc
 50
233.1385761675
 51
234.0372348486
  0
ARC
  5
3B3
100
AcDbEntity
  8
ASSI
100
AcDbCircle
 62
7
  6
CONTINUOUS
 10
10.7052589244
 20
0.1836931939
 40
28.0
100
AcDbArc
 50
125.9627651514
 51
126.8614238325
  0
ARC
  5
3B4
100
AcDbEntity
  8
ASSI
100
AcDbCircle
 62
7
  6
CONTINUOUS
 10
10.7052589244
 20
0.1836931939
 40
28.0
100
AcDbArc
 50
123.5572117297
 51
124.1210936517
  0
ARC
  5
3B5
100
AcDbEntity
  8
ASSI
100
AcDbCircle
 62
7
  6
CONTINUOUS
 10
10.7052589244
 20
0.1836931939
 40
28.0
100
AcDbArc
 50
235.8789063483
 51
236.4427881358
  0
ARC
  5
3B6
100
AcDbEntity
  8
ASSI
100
AcDbCircle
 62
7
  6
CONTINUOUS
 10
10.7052589244
 20
0.1836931939
 40
28.0
100
AcDbArc
 50
233.1385761675
 51
234.0372348486
  0
ARC
  5
3B7
100
AcDbEntity
  8
0
100
AcDbCircle
 62
250
  6
CONTINUOUS
 10
9.9638141882
 20
21.6583907112
 40
0.5001919813
100
AcDbArc
 50
0.1025082521
 51
89.9721827695
  0
ARC
  5
3B8
100
AcDbEntity
  8
0
100
AcDbCircle
 62
7
  6
CONTINUOUS
 10
-110.9879213194
 20
-1875.1842784392
 40
1898.8887601085
100
AcDbArc
 50
88.7936194629
 51
88.9143369151
  0
ARC
  5
3B9
100
AcDbEntity
  8
ASSI
100
AcDbCircle
 62
7
  6
CONTINUOUS
 10
-110.9879213194
 20
-1875.1842784392
 40
1898.8887601085
100
AcDbArc
 50
88.7936194629
 51
88.9143369151
  0
ARC
  5
3BA
100
AcDbEntity
  8
0
100
AcDbCircle
 62
7
  6
CONTINUOUS
 10
-57.7223430574
 20
-1858.718368702
 40
1836.3202648845
100
AcDbArc
 50
90.4145716298
 51
90.539381615
  0
ARC
  5
3BB
100
AcDbEntity
  8
ASSI
100
AcDbCircle
 62
7
  6
CONTINUOUS
 10
-57.7223430574
 20
-1858.718368702
 40
1836.3202648845
100
AcDbArc
 50
90.4145716298
 51
90.539381615
  0
ARC
  5
3BC
100
AcDbEntity
  8
0
100
AcDbCircle
 62
7
  6
CONTINUOUS
 10
-45.559179344
 20
-11.9663068061
 40
1.5
100
AcDbArc
 50
55.9575220246
 51
123.0112693618
  0
ARC
  5
3BD
100
AcDbEntity
  8
0
100
AcDbCircle
 62
7
  6
CONTINUOUS
 10
-83.0680984077
 20
-20.7925844086
 40
1.0
100
AcDbArc
 50
182.4092313014
 51
267.0
  0
ARC
  5
3BE
100
AcDbEntity
  8
0
100
AcDbCircle
 62
250
  6
CONTINUOUS
 10
-83.0768107704
 20
-20.79257071
 40
0.5000132837
100
AcDbArc
 50
182.4107329424
 51
266.9984983588
  0
ARC
  5
3BF
100
AcDbEntity
  8
RACCORDO
100
AcDbCircle
 62
7
  6
CONTINUOUS
 10
-89.6684928982
 20
-6.1744212905
 40
0.5
100
AcDbArc
 50
186.1342859595
 51
266.0
  0
ARC
  5
3C0
100
AcDbEntity
  8
RACCORDO
100
AcDbCircle
 62
7
  6
CONTINUOUS
 10
-70.809179344
 20
-21.2128462588
 40
0.2
100
AcDbArc
 50
91.0
 51
180.0
  0
ARC
  5
3C1
100
AcDbEntity
  8
ASSI
100
AcDbCircle
 62
7
  6
CONTINUOUS
 10
-70.809179344
 20
-21.2128462588
 40
0.2
100
AcDbArc
 50
91.0
 51
180.0
  0
ARC
  5
3C2
100
AcDbEntity
  8
0
100
AcDbCircle
 62
7
  6
CONTINUOUS
 10
-83.0680984077
 20
21.1599707963
 40
1.0
100
AcDbArc
 50
93.0
 51
177.5907686986
  0
ARC
  5
3C3
100
AcDbEntity
  8
0
100
AcDbCircle
 62
250
  6
CONTINUOUS
 10
-83.0768107704
 20
21.1599570977
 40
0.5000132837
100
AcDbArc
 50
93.0015016419
 51
177.589267057
  0
ARC
  5
3C4
100
AcDbEntity
  8
RACCORDO
100
AcDbCircle
 62
7
  6
CONTINUOUS
 10
-89.6684928982
 20
6.5418076782
 40
0.5
100
AcDbArc
 50
94.0
 51
173.8657140405
  0
ARC
  5
3C5
100
AcDbEntity
  8
RACCORDO
100
AcDbCircle
 62
7
  6
CONTINUOUS
 10
-70.809179344
 20
21.5802326465
 40
0.2
100
AcDbArc
 50
180.0
 51
269.0
  0
ARC
  5
3C6
100
AcDbEntity
  8
ASSI
100
AcDbCircle
 62
7
  6
CONTINUOUS
 10
-70.809179344
 20
21.5802326465
 40
0.2
100
AcDbArc
 50
180.0
 51
269.0
  0
ARC
  5
3C7
100
AcDbEntity
  8
0
100
AcDbCircle
 62
7
  6
CONTINUOUS
 10
-110.9879213196
 20
1875.5516648365
 40
1898.888760118
100
AcDbArc
 50
271.0856630849
 51
271.2063805371
  0
ARC
  5
3C8
100
AcDbEntity
  8
ASSI
100
AcDbCircle
 62
7
  6
CONTINUOUS
 10
-110.9879213196
 20
1875.5516648365
 40
1898.888760118
100
AcDbArc
 50
271.0856630849
 51
271.2063805371
  0
ARC
  5
3C9
100
AcDbEntity
  8
DRAFT
100
AcDbCircle
 62
7
  6
CONTINUOUS
 10
-41.209179344
 20
5.1836931939
 40
2.1
100
AcDbArc
 50
90.5
 51
153.9682456452
  0
ARC
  5
3CA
100
AcDbEntity
  8
DRAFT
100
AcDbCircle
 62
7
  6
CONTINUOUS
 10
-41.209179344
 20
5.1836931939
 40
2.1
100
AcDbArc
 50
206.0317543548
 51
269.5
  0
ARC
  5
3CB
100
AcDbEntity
  8
ASSI
100
AcDbCircle
 62
7
  6
CONTINUOUS
 10
-41.209179344
 20
5.1836931939
 40
2.1
100
AcDbArc
 50
90.5
 51
153.9682456452
  0
ARC
  5
3CC
100
AcDbEntity
  8
ASSI
100
AcDbCircle
 62
7
  6
CONTINUOUS
 10
-41.209179344
 20
5.1836931939
 40
2.1
100
AcDbArc
 50
206.0317543548
 51
269.5
  0
ARC
  5
3CD
100
AcDbEntity
  8
RACCORDO
100
AcDbCircle
 62
7
  6
CONTINUOUS
 10
-45.559179344
 20
14.0336931939
 40
1.0
100
AcDbArc
 50
13.9790677455
 51
90.0
  0
ARC
  5
3CE
100
AcDbEntity
  8
DRAFT
100
AcDbCircle
 62
7
  6
CONTINUOUS
 10
-41.209179344
 20
10.1836931939
 40
2.1
100
AcDbArc
 50
90.5
 51
153.9682456452
  0
ARC
  5
3CF
100
AcDbEntity
  8
DRAFT
100
AcDbCircle
 62
7
  6
CONTINUOUS
 10
-41.209179344
 20
10.1836931939
 40
2.1
100
AcDbArc
 50
206.0317543548
 51
269.5
  0
ARC
  5
3D0
100
AcDbEntity
  8
ASSI
100
AcDbCircle
 62
7
  6
CONTINUOUS
 10
-41.209179344
 20
10.1836931939
 40
2.1
100
AcDbArc
 50
90.5
 51
153.9682456452
  0
ARC
  5
3D1
100
AcDbEntity
  8
ASSI
100
AcDbCircle
 62
7
  6
CONTINUOUS
 10
-41.209179344
 20
10.1836931939
 40
2.1
100
AcDbArc
 50
206.0317543548
 51
269.5
  0
CIRCLE
  5
3D2
100
AcDbEntity
  8
ASSI
100
AcDbCircle
 62
7
  6
CONTINUOUS
 10
-40.959179344
 20
10.1336931939
 40
2.0
  0
ARC
  5
3D3
100
AcDbEntity
  8
DRAFT
100
AcDbCircle
 62
7
  6
CONTINUOUS
 10
-41.209179344
 20
15.1836931939
 40
2.1
100
AcDbArc
 50
206.0317543548
 51
269.5
  0
ARC
  5
3D4
100
AcDbEntity
  8
DRAFT
100
AcDbCircle
 62
7
  6
CONTINUOUS
 10
-41.209179344
 20
15.1836931939
 40
2.1
100
AcDbArc
 50
90.5
 51
153.9682456452
  0
ARC
  5
3D5
100
AcDbEntity
  8
ASSI
100
AcDbCircle
 62
7
  6
CONTINUOUS
 10
-41.209179344
 20
15.1836931939
 40
2.1
100
AcDbArc
 50
90.5
 51
153.9682456452
  0
ARC
  5
3D6
100
AcDbEntity
  8
ASSI
100
AcDbCircle
 62
7
  6
CONTINUOUS
 10
-41.209179344
 20
15.1836931939
 40
2.1
100
AcDbArc
 50
206.0317543548
 51
269.5
  0
ARC
  5
3D7
100
AcDbEntity
  8
ASSI
100
AcDbCircle
 62
7
  6
CONTINUOUS
 10
-40.959179344
 20
15.1336931939
 40
2.0
100
AcDbArc
 50
108.451506746
 51
87.3541744394
  0
ARC
  5
3D8
100
AcDbEntity
  8
0
100
AcDbCircle
 62
7
  6
CONTINUOUS
 10
-30.509179344
 20
0.1836931939
 40
60.0
100
AcDbArc
 50
173.8657140405
 51
186.1342859595
  0
ARC
  5
3D9
100
AcDbEntity
  8
0
100
AcDbCircle
 62
7
  6
CONTINUOUS
 10
-57.7223430575
 20
1859.0857550821
 40
1836.3202648769
100
AcDbArc
 50
269.460618385
 51
269.5854283702
  0
ARC
  5
3DA
100
AcDbEntity
  8
ASSI
100
AcDbCircle
 62
7
  6
CONTINUOUS
 10
-57.7223430575
 20
1859.0857550821
 40
1836.3202648769
100
AcDbArc
 50
269.460618385
 51
269.5854283702
  0
ARC
  5
3DB
100
AcDbEntity
  8
RACCORDO
100
AcDbCircle
 62
7
  6
CONTINUOUS
 10
415.490820656
 20
0.1836931939
 40
500.0
100
AcDbArc
 50
180.8031116095
 51
180.9074402892
  0
ARC
  5
3DC
100
AcDbEntity
  8
RACCORDO
100
AcDbCircle
 62
7
  6
CONTINUOUS
 10
415.490820656
 20
0.1836931939
 40
500.0
100
AcDbArc
 50
179.0925597108
 51
180.2679893861
  0
ARC
  5
3DD
100
AcDbEntity
  8
0
100
AcDbCircle
 62
7
  6
CONTINUOUS
 10
415.490820656
 20
0.1836931939
 40
500.0
100
AcDbArc
 50
177.5907686986
 51
182.4092313014
  0
ARC
  5
3DE
100
AcDbEntity
  8
0
100
AcDbCircle
 62
250
  6
CONTINUOUS
 10
415.4810502127
 20
0.1836931939
 40
499.4989566829
100
AcDbArc
 50
177.5907636634
 51
182.4092363366
  0
SPLINE
  5
3DF
100
AcDbEntity
  8
ASSI
100
AcDbSpline
 62
7
  6
CONTINUOUS
 70
0
 71
3
 72
9
 73
5
 74
0
 42
0.0000001
 43
0.0000001
 44
0.0000000001
 40
0.0
 40
0.0
 40
0.0
 40
0.0
 40
0.2513032798
 40
1.0
 40
1.0
 40
1.0
 40
1.0
 10
-4.2195987526
 20
23.6836931939
 30
0.0
 10
-4.2683464345
 20
23.6836931939
 30
0.0
 10
-4.4621312158
 20
23.6697470377
 30
0.0
 10
-4.6512568651
 20
23.597332706
 30
0.0
 10
-4.7722835079
 20
23.5170530096
 30
0.0
  0
SPLINE
  5
3E0
100
AcDbEntity
  8
ASSI
100
AcDbSpline
 62
7
  6
CONTINUOUS
 70
0
 71
3
 72
8
 73
4
 74
0
 42
0.0000001
 43
0.0000001
 44
0.0000000001
 40
0.0
 40
0.0
 40
0.0
 40
0.0
 40
1.0
 40
1.0
 40
1.0
 40
1.0
 10
3.6274476395
 20
23.551222714
 30
0.0
 10
3.4786091324
 20
23.6365394303
 30
0.0
 10
3.3016737152
 20
23.6836931939
 30
0.0
 10
3.1301166014
 20
23.6836931939
 30
0.0
  0
SPLINE
  5
3E1
100
AcDbEntity
  8
ASSI
100
AcDbSpline
 62
7
  6
CONTINUOUS
 70
0
 71
3
 72
9
 73
5
 74
0
 42
0.0000001
 43
0.0000001
 44
0.0000000001
 40
0.0
 40
0.0
 40
0.0
 40
0.0
 40
0.2513039846
 40
1.0
 40
1.0
 40
1.0
 40
1.0
 10
3.1301169495
 20
-23.3163068061
 30
0.0
 10
3.1788647438
 20
-23.3163068061
 30
0.0
 10
3.3726494069
 20
-23.3023603076
 30
0.0
 10
3.5617749432
 20
-23.2299461661
 30
0.0
 10
3.6828014115
 20
-23.1496665855
 30
0.0
  0
SPLINE
  5
3E2
100
AcDbEntity
  8
ASSI
100
AcDbSpline
 62
7
  6
CONTINUOUS
 70
0
 71
3
 72
8
 73
4
 74
0
 42
0.0000001
 43
0.0000001
 44
0.0000000001
 40
0.0
 40
0.0
 40
0.0
 40
0.0
 40
1.0
 40
1.0
 40
1.0
 40
1.0
 10
-4.7167736786
 20
-23.1839257144
 30
0.0
 10
-4.5679701097
 20
-23.2691866181
 30
0.0
 10
-4.3910981497
 20
-23.3163068061
 30
0.0
 10
-4.2195991007
 20
-23.3163068061
 30
0.0
  0
SPLINE
  5
3E3
100
AcDbEntity
  8
0
100
AcDbSpline
 62
250
  6
CONTINUOUS
 70
0
 71
3
 72
16
 73
12
 74
0
 42
0.0000001
 43
0.0000001
 44
0.0000000001
 40
0.0
 40
0.0
 40
0.0
 40
0.0
 40
0.009516323
 40
0.027818877
 40
0.0547607558
 40
0.0901211737
 40
0.1847844843
 40
0.30862854
 40
0.4574562602
 40
0.6261565798
 40
1.0
 40
1.0
 40
1.0
 40
1.0
 10
9.9640570411
 20
-21.7912139434
 30
0.0
 10
9.9635566746
 20
-21.788220756
 30
0.0
 10
9.9631136268
 20
-21.7793344545
 30
0.0
 10
9.9622854488
 20
-21.7619091796
 30
0.0
 10
9.961604546
 20
-21.7362034491
 30
0.0
 10
9.960503017
 20
-21.6861650175
 30
0.0
 10
9.9593586766
 20
-21.6052109103
 30
0.0
 10
9.9581733261
 20
-21.4880767344
 30
0.0
 10
9.9571963261
 20
-21.34732726
 30
0.0
 10
9.9561583044
 20
-21.1268539543
 30
0.0
 10
9.9558374804
 20
-20.9538383795
 30
0.0
 10
9.955793987
 20
-20.8346210371
 30
0.0
  0
SPLINE
  5
3E4
100
AcDbEntity
  8
0
100
AcDbSpline
 62
250
  6
CONTINUOUS
 70
0
 71
3
 72
16
 73
12
 74
0
 42
0.0000001
 43
0.0000001
 44
0.0000000001
 40
0.0
 40
0.0
 40
0.0
 40
0.0
 40
0.0096159036
 40
0.0279701207
 40
0.0549445032
 40
0.0903232102
 40
0.184988416
 40
0.3088051173
 40
0.4576013364
 40
0.6262585176
 40
1.0
 40
1.0
 40
1.0
 40
1.0
 10
10.4639808887
 20
-21.291899176
 30
0.0
 10
10.4634942132
 20
-21.2904447391
 30
0.0
 10
10.4630297135
 20
-21.2859600528
 30
0.0
 10
10.462215449
 20
-21.2772673432
 30
0.0
 10
10.4615265931
 20
-21.2643949015
 30
0.0
 10
10.4604292889
 20
-21.2393844709
 30
0.0
 10
10.4592821843
 20
-21.1989023869
 30
0.0
 10
10.4580975314
 20
-21.140337871
 30
0.0
 10
10.4571198272
 20
-21.0699621161
 30
0.0
 10
10.4560820463
 20
-20.9597242471
 30
0.0
 10
10.4557614252
 20
-20.8732131016
 30
0.0
 10
10.4557178345
 20
-20.8136027228
 30
0.0
  0
SPLINE
  5
3E5
100
AcDbEntity
  8
0
100
AcDbSpline
 62
250
  6
CONTINUOUS
 70
0
 71
3
 72
9
 73
5
 74
0
 42
0.0000001
 43
0.0000001
 44
0.0000000001
 40
0.0
 40
0.0
 40
0.0
 40
0.0
 40
0.2499439267
 40
1.0
 40
1.0
 40
1.0
 40
1.0
 10
9.955793987
 20
-20.8346210371
 30
0.0
 10
9.9532244957
 20
-17.3323551423
 30
0.0
 10
9.9455188735
 20
-3.3201469498
 30
0.0
 10
9.9480832081
 20
10.6920668969
 30
0.0
 10
9.955793987
 20
21.2020074248
 30
0.0
  0
SPLINE
  5
3E6
100
AcDbEntity
  8
0
100
AcDbSpline
 62
250
  6
CONTINUOUS
 70
0
 71
3
 72
9
 73
5
 74
0
 42
0.0000001
 43
0.0000001
 44
0.0000000001
 40
0.0
 40
0.0
 40
0.0
 40
0.0
 40
0.2499439267
 40
1.0
 40
1.0
 40
1.0
 40
1.0
 10
10.4557178345
 20
-20.8136027228
 30
0.0
 10
10.4531483433
 20
-17.314839095
 30
0.0
 10
10.445442721
 20
-3.3166431133
 30
0.0
 10
10.4480070557
 20
10.6815585283
 30
0.0
 10
10.4557178345
 20
21.1809891105
 30
0.0
  0
SPLINE
  5
3E7
100
AcDbEntity
  8
0
100
AcDbSpline
 62
250
  6
CONTINUOUS
 70
0
 71
3
 72
18
 73
14
 74
0
 42
0.0000001
 43
0.0000001
 44
0.0000000001
 40
0.0
 40
0.0
 40
0.0
 40
0.0
 40
0.192282469
 40
0.3777070261
 40
0.5487339137
 40
0.6991742156
 40
0.8234830531
 40
0.8742943669
 40
0.9169375246
 40
0.9510094033
 40
0.976200234
 40
0.9924262434
 40
1.0
 40
1.0
 40
1.0
 40
1.0
 10
9.955793987
 20
-20.8346210366
 30
0.0
 10
9.9879264817
 20
-20.8345974807
 30
0.0
 10
10.0510456946
 20
-20.8342958096
 30
0.0
 10
10.1427378503
 20
-20.8330984601
 30
0.0
 10
10.2274271031
 20
-20.8312037635
 30
0.0
 10
10.3018751177
 20
-20.8286864122
 30
0.0
 10
10.3562320423
 20
-20.8260476519
 30
0.0
 10
10.392520789
 20
-20.8235803136
 30
0.0
 10
10.4137999576
 20
-20.8217847425
 30
0.0
 10
10.4306156282
 20
-20.8199174553
 30
0.0
 10
10.4433719292
 20
-20.818087027
 30
0.0
 10
10.4508331444
 20
-20.816214441
 30
0.0
 10
10.4552329613
 20
-20.8147718195
 30
0.0
 10
10.4557178345
 20
-20.8136027228
 30
0.0
  0
SPLINE
  5
3E8
100
AcDbEntity
  8
0
100
AcDbSpline
 62
250
  6
CONTINUOUS
 70
0
 71
3
 72
16
 73
12
 74
0
 42
0.0000001
 43
0.0000001
 44
0.0000000001
 40
0.0
 40
0.0
 40
0.0
 40
0.0
 40
0.3738434202
 40
0.5425437398
 40
0.69137146
 40
0.8152155157
 40
0.9098788264
 40
0.9452392442
 40
0.9721811228
 40
0.9904836768
 40
1.0
 40
1.0
 40
1.0
 40
1.0
 10
9.955793987
 20
21.2020074248
 30
0.0
 10
9.9558374804
 20
21.3212247672
 30
0.0
 10
9.9561583045
 20
21.494240342
 30
0.0
 10
9.9571963261
 20
21.7147136478
 30
0.0
 10
9.9581733261
 20
21.8554631221
 30
0.0
 10
9.9593586766
 20
21.972597298
 30
0.0
 10
9.960503017
 20
22.0535514053
 30
0.0
 10
9.961604546
 20
22.1035898368
 30
0.0
 10
9.9622854488
 20
22.1292955672
 30
0.0
 10
9.9631136268
 20
22.1467208421
 30
0.0
 10
9.9635566746
 20
22.1556071437
 30
0.0
 10
9.9640570411
 20
22.1586003311
 30
0.0
  0
SPLINE
  5
3E9
100
AcDbEntity
  8
0
100
AcDbSpline
 62
250
  6
CONTINUOUS
 70
0
 71
3
 72
16
 73
12
 74
0
 42
0.0000001
 43
0.0000001
 44
0.0000000001
 40
0.0
 40
0.0
 40
0.0
 40
0.0
 40
0.3737414825
 40
0.5423986639
 40
0.6911948827
 40
0.8150115835
 40
0.9096767904
 40
0.9450554975
 40
0.9720298788
 40
0.9903840948
 40
1.0
 40
1.0
 40
1.0
 40
1.0
 10
10.4557178345
 20
21.1809891105
 30
0.0
 10
10.4557614251
 20
21.2405994893
 30
0.0
 10
10.4560820463
 20
21.3271106349
 30
0.0
 10
10.4571198272
 20
21.4373485039
 30
0.0
 10
10.4580975314
 20
21.5077242586
 30
0.0
 10
10.4592821843
 20
21.5662887746
 30
0.0
 10
10.460429289
 20
21.6067708588
 30
0.0
 10
10.4615265931
 20
21.6317812894
 30
0.0
 10
10.4622154491
 20
21.6446537307
 30
0.0
 10
10.4630297134
 20
21.6533464403
 30
0.0
 10
10.4634942134
 20
21.6578311264
 30
0.0
 10
10.4639808887
 20
21.6592855637
 30
0.0
  0
SPLINE
  5
3EA
100
AcDbEntity
  8
0
100
AcDbSpline
 62
250
  6
CONTINUOUS
 70
0
 71
3
 72
18
 73
14
 74
0
 42
0.0000001
 43
0.0000001
 44
0.0000000001
 40
0.0
 40
0.0
 40
0.0
 40
0.0
 40
0.1922777651
 40
0.3776984417
 40
0.5487229375
 40
0.6991626459
 40
0.8234726619
 40
0.8742851559
 40
0.9169298173
 40
0.9510034654
 40
0.9761962651
 40
0.9924243591
 40
1.0
 40
1.0
 40
1.0
 40
1.0
 10
9.955793987
 20
21.2020064816
 30
0.0
 10
9.9879256741
 20
21.201982921
 30
0.0
 10
10.0510434099
 20
21.2016812592
 30
0.0
 10
10.1427336707
 20
21.2004839752
 30
0.0
 10
10.2274217196
 20
21.198589387
 30
0.0
 10
10.3018693911
 20
21.196072169
 30
0.0
 10
10.3562265691
 20
21.1934335464
 30
0.0
 10
10.3925159638
 20
21.1909663209
 30
0.0
 10
10.4137958329
 20
21.1891708401
 30
0.0
 10
10.4306124785
 20
21.18730357
 30
0.0
 10
10.4433695368
 20
21.1854733108
 30
0.0
 10
10.4508321692
 20
21.1836005186
 30
0.0
 10
10.4552322482
 20
21.1821582513
 30
0.0
 10
10.4557178344
 20
21.1809891105
 30
0.0
  0
SPLINE
  5
3EB
100
AcDbEntity
  8
0
100
AcDbSpline
 62
250
  6
CONTINUOUS
 70
0
 71
3
 72
16
 73
12
 74
0
 42
0.0000001
 43
0.0000001
 44
0.0000000001
 40
0.0
 40
0.0
 40
0.0
 40
0.0
 40
0.0096175074
 40
0.0279708833
 40
0.0549448201
 40
0.0903243343
 40
0.1849904142
 40
0.3088036845
 40
0.4575968307
 40
0.6262531789
 40
1.0
 40
1.0
 40
1.0
 40
1.0
 10
-11.5534630399
 20
-21.291899176
 30
0.0
 10
-11.5529766197
 20
-21.2904443839
 30
0.0
 10
-11.5525117305
 20
-21.2859597418
 30
0.0
 10
-11.5516976795
 20
-21.2772668649
 30
0.0
 10
-11.551008717
 20
-21.2643945556
 30
0.0
 10
-11.5499115186
 20
-21.2393838966
 30
0.0
 10
-11.5487643774
 20
-21.1989021137
 30
0.0
 10
-11.5475796896
 20
-21.140338489
 30
0.0
 10
-11.5466019366
 20
-21.0699639099
 30
0.0
 10
-11.5455642244
 20
-20.9597258131
 30
0.0
 10
-11.5452434319
 20
-20.8732139518
 30
0.0
 10
-11.5451999857
 20
-20.8136027228
 30
0.0
  0
SPLINE
  5
3EC
100
AcDbEntity
  8
0
100
AcDbSpline
 62
250
  6
CONTINUOUS
 70
0
 71
3
 72
16
 73
12
 74
0
 42
0.0000001
 43
0.0000001
 44
0.0000000001
 40
0.0
 40
0.0
 40
0.0
 40
0.0
 40
0.0095172377
 40
0.0278193524
 40
0.054760625
 40
0.0901209217
 40
0.1847846043
 40
0.308628729
 40
0.4574561745
 40
0.6261566443
 40
1.0
 40
1.0
 40
1.0
 40
1.0
 10
-11.0535391923
 20
-21.7912139434
 30
0.0
 10
-11.0530386731
 20
-21.7882204858
 30
0.0
 10
-11.0525955574
 20
-21.7793340206
 30
0.0
 10
-11.0517676282
 20
-21.7619087848
 30
0.0
 10
-11.0510869704
 20
-21.7362034169
 30
0.0
 10
-11.0499856699
 20
-21.6861650961
 30
0.0
 10
-11.0488413132
 20
-21.6052108869
 30
0.0
 10
-11.0476557788
 20
-21.4880766605
 30
0.0
 10
-11.0466787698
 20
-21.3473272039
 30
0.0
 10
-11.0456406354
 20
-21.1268539603
 30
0.0
 10
-11.0453191194
 20
-20.9538383588
 30
0.0
 10
-11.0452761381
 20
-20.8346210371
 30
0.0
  0
SPLINE
  5
3ED
100
AcDbEntity
  8
0
100
AcDbSpline
 62
250
  6
CONTINUOUS
 70
0
 71
3
 72
9
 73
5
 74
0
 42
0.0000001
 43
0.0000001
 44
0.0000000001
 40
0.0
 40
0.0
 40
0.0
 40
0.0
 40
0.2499439267
 40
1.0
 40
1.0
 40
1.0
 40
1.0
 10
-11.5451999857
 20
-20.8136027228
 30
0.0
 10
-11.5426304956
 20
-17.3148390951
 30
0.0
 10
-11.5349248708
 20
-3.3166431134
 30
0.0
 10
-11.5374892065
 20
10.6815585282
 30
0.0
 10
-11.5451999857
 20
21.1809891105
 30
0.0
  0
SPLINE
  5
3EE
100
AcDbEntity
  8
0
100
AcDbSpline
 62
250
  6
CONTINUOUS
 70
0
 71
3
 72
9
 73
5
 74
0
 42
0.0000001
 43
0.0000001
 44
0.0000000001
 40
0.0
 40
0.0
 40
0.0
 40
0.0
 40
0.2499439267
 40
1.0
 40
1.0
 40
1.0
 40
1.0
 10
-11.0452761381
 20
-20.8346210371
 30
0.0
 10
-11.042706648
 20
-17.3323551421
 30
0.0
 10
-11.0350010233
 20
-3.3201469496
 30
0.0
 10
-11.0375653589
 20
10.6920668971
 30
0.0
 10
-11.0452761381
 20
21.2020074248
 30
0.0
  0
SPLINE
  5
3EF
100
AcDbEntity
  8
0
100
AcDbSpline
 62
250
  6
CONTINUOUS
 70
0
 71
3
 72
18
 73
14
 74
0
 42
0.0000001
 43
0.0000001
 44
0.0000000001
 40
0.0
 40
0.0
 40
0.0
 40
0.0
 40
0.0075737577
 40
0.0237997682
 40
0.0489905999
 40
0.0830624793
 40
0.1257056375
 40
0.1765169517
 40
0.3008257893
 40
0.4512660906
 40
0.6222929771
 40
0.8077175327
 40
1.0
 40
1.0
 40
1.0
 40
1.0
 10
-11.5451999857
 20
-20.8136027228
 30
0.0
 10
-11.544715112
 20
-20.8147718195
 30
0.0
 10
-11.540315295
 20
-20.8162144408
 30
0.0
 10
-11.532854079
 20
-20.8180870269
 30
0.0
 10
-11.5200977776
 20
-20.8199174551
 30
0.0
 10
-11.5032821066
 20
-20.8217847422
 30
0.0
 10
-11.4820029379
 20
-20.8235803133
 30
0.0
 10
-11.4457141909
 20
-20.8260476515
 30
0.0
 10
-11.3913572664
 20
-20.8286864116
 30
0.0
 10
-11.316909252
 20
-20.8312037627
 30
0.0
 10
-11.2322199998
 20
-20.8330984589
 30
0.0
 10
-11.1405278449
 20
-20.8342958086
 30
0.0
 10
-11.0774086326
 20
-20.8345974801
 30
0.0
 10
-11.0452761381
 20
-20.8346210363
 30
0.0
  0
SPLINE
  5
3F0
100
AcDbEntity
  8
0
100
AcDbSpline
 62
250
  6
CONTINUOUS
 70
0
 71
3
 72
16
 73
12
 74
0
 42
0.0000001
 43
0.0000001
 44
0.0000000001
 40
0.0
 40
0.0
 40
0.0
 40
0.0
 40
0.3737468212
 40
0.5424031696
 40
0.6911963156
 40
0.8150095851
 40
0.9096756665
 40
0.9450551809
 40
0.9720291161
 40
0.9903824903
 40
1.0
 40
1.0
 40
1.0
 40
1.0
 10
-11.5451999857
 20
21.1809891105
 30
0.0
 10
-11.5452434319
 20
21.2406003395
 30
0.0
 10
-11.5455642244
 20
21.3271122009
 30
0.0
 10
-11.5466019366
 20
21.4373502976
 30
0.0
 10
-11.5475796896
 20
21.5077248767
 30
0.0
 10
-11.5487643774
 20
21.5662885015
 30
0.0
 10
-11.5499115186
 20
21.6067702844
 30
0.0
 10
-11.5510087169
 20
21.6317809435
 30
0.0
 10
-11.5516976796
 20
21.6446532523
 30
0.0
 10
-11.5525117303
 20
21.6533461291
 30
0.0
 10
-11.5529766201
 20
21.6578307711
 30
0.0
 10
-11.5534630399
 20
21.6592855637
 30
0.0
  0
SPLINE
  5
3F1
100
AcDbEntity
  8
0
100
AcDbSpline
 62
250
  6
CONTINUOUS
 70
0
 71
3
 72
16
 73
12
 74
0
 42
0.0000001
 43
0.0000001
 44
0.0000000001
 40
0.0
 40
0.0
 40
0.0
 40
0.0
 40
0.3738433557
 40
0.5425438255
 40
0.691371271
 40
0.8152153956
 40
0.9098790784
 40
0.945239375
 40
0.9721806474
 40
0.9904827618
 40
1.0
 40
1.0
 40
1.0
 40
1.0
 10
-11.0452761381
 20
21.2020074248
 30
0.0
 10
-11.0453191195
 20
21.3212247465
 30
0.0
 10
-11.0456406354
 20
21.494240348
 30
0.0
 10
-11.0466787697
 20
21.7147135916
 30
0.0
 10
-11.0476557788
 20
21.8554630482
 30
0.0
 10
-11.0488413132
 20
21.9725972746
 30
0.0
 10
-11.04998567
 20
22.0535514838
 30
0.0
 10
-11.0510869704
 20
22.1035898046
 30
0.0
 10
-11.0517676282
 20
22.1292951723
 30
0.0
 10
-11.0525955573
 20
22.1467204081
 30
0.0
 10
-11.053038673
 20
22.1556068734
 30
0.0
 10
-11.0535391923
 20
22.1586003311
 30
0.0
  0
SPLINE
  5
3F2
100
AcDbEntity
  8
0
100
AcDbSpline
 62
250
  6
CONTINUOUS
 70
0
 71
3
 72
18
 73
14
 74
0
 42
0.0000001
 43
0.0000001
 44
0.0000000001
 40
0.0
 40
0.0
 40
0.0
 40
0.0
 40
0.0075742272
 40
0.0238007595
 40
0.0489920847
 40
0.0830644082
 40
0.1257079442
 40
0.1765195552
 40
0.3008286901
 40
0.451268844
 40
0.6222951312
 40
0.8077187133
 40
1.0
 40
1.0
 40
1.0
 40
1.0
 10
-11.5451999857
 20
21.1809891105
 30
0.0
 10
-11.5447149329
 20
21.1821582176
 30
0.0
 10
-11.5403150496
 20
21.1836007467
 30
0.0
 10
-11.5328534791
 20
21.1854733833
 30
0.0
 10
-11.5200969874
 20
21.1873037666
 30
0.0
 10
-11.5032810718
 20
21.1891710481
 30
0.0
 10
-11.482001727
 20
21.1909665951
 30
0.0
 10
-11.4457128171
 20
21.1934339038
 30
0.0
 10
-11.3913558287
 20
21.1960726289
 30
0.0
 10
-11.3169079002
 20
21.1985899475
 30
0.0
 10
-11.2322189501
 20
21.2004846191
 30
0.0
 10
-11.140527271
 20
21.2016819563
 30
0.0
 10
-11.0774084297
 20
21.2019836287
 30
0.0
 10
-11.0452761381
 20
21.2020071879
 30
0.0
  0
SPLINE
  5
3F3
100
AcDbEntity
  8
0
100
AcDbSpline
 62
250
  6
CONTINUOUS
 70
0
 71
3
 72
21
 73
17
 74
0
 42
0.0000001
 43
0.0000001
 44
0.0000000001
 40
0.0
 40
0.0
 40
0.0
 40
0.0
 40
0.0014805297
 40
0.0051988326
 40
0.0112680463
 40
0.0196913985
 40
0.0435509674
 40
0.0766298561
 40
0.1185876581
 40
0.1690012444
 40
0.2274362432
 40
0.2933198627
 40
0.4447118178
 40
0.6174575587
 40
0.8051562794
 40
1.0
 40
1.0
 40
1.0
 40
1.0
 10
-83.1204343639
 20
22.1586003311
 30
0.0
 10
-83.1206807212
 20
22.15858742
 30
0.0
 10
-83.1209620713
 20
22.1574532099
 30
0.0
 10
-83.1212288626
 20
22.1558575328
 30
0.0
 10
-83.1214719936
 20
22.1526877304
 30
0.0
 10
-83.1217505758
 20
22.1463888378
 30
0.0
 10
-83.1218804255
 20
22.1354332815
 30
0.0
 10
-83.1217924296
 20
22.1189850168
 30
0.0
 10
-83.1214477202
 20
22.0980724999
 30
0.0
 10
-83.1208508951
 20
22.0729552625
 30
0.0
 10
-83.1200014929
 20
22.0438511652
 30
0.0
 10
-83.1184700799
 20
21.9979365016
 30
0.0
 10
-83.1159692271
 20
21.9329960541
 30
0.0
 10
-83.112282222
 20
21.8477902239
 30
0.0
 10
-83.1079181891
 20
21.755367276
 30
0.0
 10
-83.1046912178
 20
21.691707206
 30
0.0
 10
-83.102992589
 20
21.6592855637
 30
0.0
  0
SPLINE
  5
3F4
100
AcDbEntity
  8
0
100
AcDbSpline
 62
250
  6
CONTINUOUS
 70
0
 71
3
 72
21
 73
17
 74
0
 42
0.0000001
 43
0.0000001
 44
0.0000000001
 40
0.0
 40
0.0
 40
0.0
 40
0.0
 40
0.0014805244
 40
0.0051988267
 40
0.0112680414
 40
0.0196913953
 40
0.043550968
 40
0.0766298619
 40
0.1185876739
 40
0.1690012687
 40
0.2274362717
 40
0.2933198997
 40
0.4447118671
 40
0.6174576038
 40
0.8051562932
 40
1.0
 40
1.0
 40
1.0
 40
1.0
 10
-83.1204343639
 20
-21.7912139434
 30
0.0
 10
-83.1206807203
 20
-21.7912010324
 30
0.0
 10
-83.1209620627
 20
-21.7900668188
 30
0.0
 10
-83.1212288529
 20
-21.7884711455
 30
0.0
 10
-83.1214719779
 20
-21.7853013404
 30
0.0
 10
-83.121750555
 20
-21.7790024479
 30
0.0
 10
-83.1218803975
 20
-21.768046889
 30
0.0
 10
-83.1217923952
 20
-21.7515986218
 30
0.0
 10
-83.1214476798
 20
-21.7306861011
 30
0.0
 10
-83.1208508502
 20
-21.7055688604
 30
0.0
 10
-83.120001445
 20
-21.67646476
 30
0.0
 10
-83.1184700303
 20
-21.6305500929
 30
0.0
 10
-83.1159691803
 20
-21.5656096433
 30
0.0
 10
-83.1122821845
 20
-21.4804038176
 30
0.0
 10
-83.1079181672
 20
-21.3879808784
 30
0.0
 10
-83.1046912097
 20
-21.324320816
 30
0.0
 10
-83.102992589
 20
-21.291899176
 30
0.0
  0
LINE
  5
3F5
100
AcDbEntity
  8
DRAFT
100
AcDbLine
 62
250
  6
CONTINUOUS
 10
-65.2527740806
 20
16.2440813074
 11
-75.009179344
 21
16.3033523599
  0
SPLINE
  5
3F6
100
AcDbEntity
  8
ASSI
100
AcDbSpline
 62
250
  6
CONTINUOUS
 70
0
 71
3
 72
8
 73
4
 74
0
 42
0.0000001
 43
0.0000001
 44
0.0000000001
 40
0.0
 40
0.0
 40
0.0
 40
0.0
 40
1.0
 40
1.0
 40
1.0
 40
1.0
 10
-41.2271254307
 20
17.3494975111
 30
0.0
 10
-52.4878078659
 20
17.4144224181
 30
0.0
 10
-63.7484925436
 20
17.4789594473
 30
0.0
 10
-75.009179344
 20
17.543122763
 30
0.0
  0
LINE
  5
3F7
100
AcDbEntity
  8
0
100
AcDbLine
 62
250
  6
CONTINUOUS
 10
-75.009179344
 20
23.5170528513
 11
-71.009179344
 21
23.4468005557
  0
SPLINE
  5
3F8
100
AcDbEntity
  8
DRAFT
100
AcDbSpline
 62
7
  6
CONTINUOUS
 70
0
 71
3
 72
15
 73
11
 74
0
 42
0.0000001
 43
0.0000001
 44
0.0000000001
 40
0.0
 40
0.0
 40
0.0
 40
0.0
 40
0.125005382
 40
0.249985533
 40
0.3749907869
 40
0.4999991645
 40
0.6250074857
 40
0.7500129175
 40
0.8749927346
 40
1.0
 40
1.0
 40
1.0
 40
1.0
 10
-62.7583932669
 20
16.2599527985
 30
0.0
 10
-62.8978320631
 20
16.2590619493
 30
0.0
 10
-63.1796105264
 20
16.202306266
 30
0.0
 10
-63.5341297418
 20
15.9614230336
 30
0.0
 10
-63.7727339786
 20
15.6046637359
 30
0.0
 10
-63.8547681818
 20
15.1834588764
 30
0.0
 10
-63.7725548511
 20
14.7622894665
 30
0.0
 10
-63.5338023907
 20
14.4056290585
 30
0.0
 10
-63.1791684169
 20
14.1649041491
 30
0.0
 10
-62.897383873
 20
14.1082569183
 30
0.0
 10
-62.7579429759
 20
14.1073660557
 30
0.0
  0
SPLINE
  5
3F9
100
AcDbEntity
  8
DRAFT
100
AcDbSpline
 62
7
  6
CONTINUOUS
 70
0
 71
3
 72
15
 73
11
 74
0
 42
0.0000001
 43
0.0000001
 44
0.0000000001
 40
0.0
 40
0.0
 40
0.0
 40
0.0
 40
0.1250070529
 40
0.2499866733
 40
0.3749918616
 40
0.5
 40
0.6250081385
 40
0.7500133268
 40
0.8749929471
 40
1.0
 40
1.0
 40
1.0
 40
1.0
 10
-62.7579429759
 20
11.2600203321
 30
0.0
 10
-62.8974025437
 20
11.2591293501
 30
0.0
 10
-63.1792255669
 20
11.2024665438
 30
0.0
 10
-63.5338903333
 20
10.9616796623
 30
0.0
 10
-63.772628812
 20
10.6049372446
 30
0.0
 10
-63.8547760067
 20
10.1836931937
 30
0.0
 10
-63.7726288119
 20
9.7624491429
 30
0.0
 10
-63.5338903332
 20
9.4057067253
 30
0.0
 10
-63.1792255668
 20
9.1649198439
 30
0.0
 10
-62.8974025437
 20
9.1082570376
 30
0.0
 10
-62.7579429759
 20
9.1073660557
 30
0.0
  0
SPLINE
  5
3FA
100
AcDbEntity
  8
DRAFT
100
AcDbSpline
 62
7
  6
CONTINUOUS
 70
0
 71
3
 72
15
 73
11
 74
0
 42
0.0000001
 43
0.0000001
 44
0.0000000001
 40
0.0
 40
0.0
 40
0.0
 40
0.0
 40
0.1250070529
 40
0.2499866733
 40
0.3749918616
 40
0.5
 40
0.6250081385
 40
0.7500133268
 40
0.8749929471
 40
1.0
 40
1.0
 40
1.0
 40
1.0
 10
-62.7579429759
 20
6.2600203321
 30
0.0
 10
-62.8974025437
 20
6.2591293501
 30
0.0
 10
-63.1792255669
 20
6.2024665438
 30
0.0
 10
-63.5338903333
 20
5.9616796623
 30
0.0
 10
-63.772628812
 20
5.6049372446
 30
0.0
 10
-63.8547760067
 20
5.1836931937
 30
0.0
 10
-63.7726288119
 20
4.7624491429
 30
0.0
 10
-63.5338903332
 20
4.4057067253
 30
0.0
 10
-63.1792255668
 20
4.1649198439
 30
0.0
 10
-62.8974025437
 20
4.1082570376
 30
0.0
 10
-62.7579429759
 20
4.1073660557
 30
0.0
  0
SPLINE
  5
3FB
100
AcDbEntity
  8
DRAFT
100
AcDbSpline
 62
7
  6
CONTINUOUS
 70
0
 71
3
 72
15
 73
11
 74
0
 42
0.0000001
 43
0.0000001
 44
0.0000000001
 40
0.0
 40
0.0
 40
0.0
 40
0.0
 40
0.1250070529
 40
0.2499866733
 40
0.3749918616
 40
0.5
 40
0.6250081385
 40
0.7500133268
 40
0.8749929471
 40
1.0
 40
1.0
 40
1.0
 40
1.0
 10
-62.7579429759
 20
1.2600203321
 30
0.0
 10
-62.8974025437
 20
1.2591293501
 30
0.0
 10
-63.1792255669
 20
1.2024665438
 30
0.0
 10
-63.5338903333
 20
0.9616796623
 30
0.0
 10
-63.772628812
 20
0.6049372446
 30
0.0
 10
-63.8547760067
 20
0.1836931937
 30
0.0
 10
-63.7726288119
 20
-0.2375508571
 30
0.0
 10
-63.5338903332
 20
-0.5942932747
 30
0.0
 10
-63.1792255668
 20
-0.8350801561
 30
0.0
 10
-62.8974025437
 20
-0.8917429624
 30
0.0
 10
-62.7579429759
 20
-0.8926339443
 30
0.0
  0
SPLINE
  5
3FC
100
AcDbEntity
  8
DRAFT
100
AcDbSpline
 62
7
  6
CONTINUOUS
 70
0
 71
3
 72
15
 73
11
 74
0
 42
0.0000001
 43
0.0000001
 44
0.0000000001
 40
0.0
 40
0.0
 40
0.0
 40
0.0
 40
0.1250070529
 40
0.2499866733
 40
0.3749918616
 40
0.5
 40
0.6250081385
 40
0.7500133268
 40
0.8749929471
 40
1.0
 40
1.0
 40
1.0
 40
1.0
 10
-62.7579429759
 20
-3.7399796679
 30
0.0
 10
-62.8974025437
 20
-3.7408706499
 30
0.0
 10
-63.1792255669
 20
-3.7975334562
 30
0.0
 10
-63.5338903333
 20
-4.0383203377
 30
0.0
 10
-63.772628812
 20
-4.3950627554
 30
0.0
 10
-63.8547760067
 20
-4.8163068063
 30
0.0
 10
-63.7726288119
 20
-5.2375508571
 30
0.0
 10
-63.5338903332
 20
-5.5942932747
 30
0.0
 10
-63.1792255668
 20
-5.8350801561
 30
0.0
 10
-62.8974025437
 20
-5.8917429624
 30
0.0
 10
-62.7579429759
 20
-5.8926339443
 30
0.0
  0
SPLINE
  5
3FD
100
AcDbEntity
  8
DRAFT
100
AcDbSpline
 62
7
  6
CONTINUOUS
 70
0
 71
3
 72
15
 73
11
 74
0
 42
0.0000001
 43
0.0000001
 44
0.0000000001
 40
0.0
 40
0.0
 40
0.0
 40
0.0
 40
0.1250070529
 40
0.2499866733
 40
0.3749918616
 40
0.5
 40
0.6250081385
 40
0.7500133268
 40
0.8749929471
 40
1.0
 40
1.0
 40
1.0
 40
1.0
 10
-62.7579429759
 20
-8.7399796679
 30
0.0
 10
-62.8974025437
 20
-8.7408706499
 30
0.0
 10
-63.1792255669
 20
-8.7975334562
 30
0.0
 10
-63.5338903333
 20
-9.0383203377
 30
0.0
 10
-63.772628812
 20
-9.3950627554
 30
0.0
 10
-63.8547760067
 20
-9.8163068063
 30
0.0
 10
-63.7726288119
 20
-10.2375508571
 30
0.0
 10
-63.5338903332
 20
-10.5942932747
 30
0.0
 10
-63.1792255668
 20
-10.8350801561
 30
0.0
 10
-62.8974025437
 20
-10.8917429624
 30
0.0
 10
-62.7579429759
 20
-10.8926339443
 30
0.0
  0
SPLINE
  5
3FE
100
AcDbEntity
  8
DRAFT
100
AcDbSpline
 62
7
  6
CONTINUOUS
 70
0
 71
3
 72
15
 73
11
 74
0
 42
0.0000001
 43
0.0000001
 44
0.0000000001
 40
0.0
 40
0.0
 40
0.0
 40
0.0
 40
0.1250072654
 40
0.2499870825
 40
0.3749925143
 40
0.5000008355
 40
0.6250092131
 40
0.7500144669
 40
0.8749946179
 40
1.0
 40
1.0
 40
1.0
 40
1.0
 10
-62.7579429759
 20
-13.7399796679
 30
0.0
 10
-62.8973838747
 20
-13.7408705306
 30
0.0
 10
-63.1791684221
 20
-13.7975177628
 30
0.0
 10
-63.5338023987
 20
-14.0382426778
 30
0.0
 10
-63.7725548579
 20
-14.3949030933
 30
0.0
 10
-63.8547681825
 20
-14.8160725099
 30
0.0
 10
-63.772733969
 20
-15.2372773729
 30
0.0
 10
-63.5341297202
 20
-15.594036669
 30
0.0
 10
-63.179610492
 20
-15.8349198927
 30
0.0
 10
-62.8978320247
 20
-15.8916755676
 30
0.0
 10
-62.7583932266
 20
-15.8925664169
 30
0.0
  0
LINE
  5
3FF
100
AcDbEntity
  8
0
100
AcDbLine
 62
250
  6
CONTINUOUS
 10
-75.009179344
 20
-23.1496664636
 11
-71.009179344
 21
-23.0794141679
  0
LINE
  5
400
100
AcDbEntity
  8
DRAFT
100
AcDbLine
 62
250
  6
CONTINUOUS
 10
-62.7583932266
 20
-15.8925664169
 11
-65.2527740806
 21
-15.8766949197
  0
LINE
  5
401
100
AcDbEntity
  8
DRAFT
100
AcDbLine
 62
250
  6
CONTINUOUS
 10
-65.2527740806
 20
-15.8766949197
 11
-75.009179344
 21
-15.9359659722
  0
SPLINE
  5
402
100
AcDbEntity
  8
0
100
AcDbSpline
 62
250
  6
CONTINUOUS
 70
0
 71
3
 72
8
 73
4
 74
0
 42
0.0000001
 43
0.0000001
 44
0.0000000001
 40
0.0
 40
0.0
 40
0.0
 40
0.0
 40
1.0
 40
1.0
 40
1.0
 40
1.0
 10
-35.009179344
 20
-16.9462212222
 30
0.0
 10
-48.3425095698
 20
-17.0232659562
 30
0.0
 10
-61.6758429699
 20
-17.0997631166
 30
0.0
 10
-75.009179344
 20
-17.1757363753
 30
0.0
  0
SPLINE
  5
403
100
AcDbEntity
  8
DRAFT
100
AcDbSpline
 62
7
  6
CONTINUOUS
 70
0
 71
3
 72
8
 73
4
 74
0
 42
0.0000001
 43
0.0000001
 44
0.0000000001
 40
0.0
 40
0.0
 40
0.0
 40
0.0
 40
1.0
 40
1.0
 40
1.0
 40
1.0
 10
-35.009179344
 20
-16.0607094183
 30
0.0
 10
-44.2587826141
 20
-16.0071745141
 30
0.0
 10
-53.5083720475
 20
-15.9511846747
 30
0.0
 10
-62.7579445174
 20
-15.8925692927
 30
0.0
  0
LINE
  5
404
100
AcDbEntity
  8
ASSI
100
AcDbLine
 62
250
  6
CONTINUOUS
 10
-65.2527740806
 20
16.2440813074
 11
-75.009179344
 21
16.3033523599
  0
SPLINE
  5
405
100
AcDbEntity
  8
ASSI
100
AcDbSpline
 62
7
  6
CONTINUOUS
 70
0
 71
3
 72
9
 73
5
 74
0
 42
0.0000001
 43
0.0000001
 44
0.0000000001
 40
0.0
 40
0.0
 40
0.0
 40
0.0
 40
0.5000000553
 40
1.0
 40
1.0
 40
1.0
 40
1.0
 10
-43.0978239072
 20
16.3806469087
 30
0.0
 10
-46.3745146981
 20
16.3611370739
 30
0.0
 10
-52.9278805306
 20
16.3196432544
 30
0.0
 10
-59.4812621624
 20
16.280720314
 30
0.0
 10
-62.7579445174
 20
16.2599556798
 30
0.0
  0
SPLINE
  5
406
100
AcDbEntity
  8
ASSI
100
AcDbSpline
 62
7
  6
CONTINUOUS
 70
0
 71
3
 72
15
 73
11
 74
0
 42
0.0000001
 43
0.0000001
 44
0.0000000001
 40
0.0
 40
0.0
 40
0.0
 40
0.0
 40
0.125005382
 40
0.249985533
 40
0.3749907869
 40
0.4999991645
 40
0.6250074857
 40
0.7500129175
 40
0.8749927346
 40
1.0
 40
1.0
 40
1.0
 40
1.0
 10
-62.7583932669
 20
16.2599527985
 30
0.0
 10
-62.8978320631
 20
16.2590619493
 30
0.0
 10
-63.1796105264
 20
16.202306266
 30
0.0
 10
-63.5341297418
 20
15.9614230336
 30
0.0
 10
-63.7727339786
 20
15.6046637359
 30
0.0
 10
-63.8547681818
 20
15.1834588764
 30
0.0
 10
-63.7725548511
 20
14.7622894665
 30
0.0
 10
-63.5338023907
 20
14.4056290585
 30
0.0
 10
-63.1791684169
 20
14.1649041491
 30
0.0
 10
-62.897383873
 20
14.1082569183
 30
0.0
 10
-62.7579429759
 20
14.1073660557
 30
0.0
  0
SPLINE
  5
407
100
AcDbEntity
  8
ASSI
100
AcDbSpline
 62
7
  6
CONTINUOUS
 70
0
 71
3
 72
15
 73
11
 74
0
 42
0.0000001
 43
0.0000001
 44
0.0000000001
 40
0.0
 40
0.0
 40
0.0
 40
0.0
 40
0.1250070529
 40
0.2499866733
 40
0.3749918616
 40
0.5
 40
0.6250081385
 40
0.7500133268
 40
0.8749929471
 40
1.0
 40
1.0
 40
1.0
 40
1.0
 10
-62.7579429759
 20
11.2600203321
 30
0.0
 10
-62.8974025437
 20
11.2591293501
 30
0.0
 10
-63.1792255669
 20
11.2024665438
 30
0.0
 10
-63.5338903333
 20
10.9616796623
 30
0.0
 10
-63.772628812
 20
10.6049372446
 30
0.0
 10
-63.8547760067
 20
10.1836931937
 30
0.0
 10
-63.7726288119
 20
9.7624491429
 30
0.0
 10
-63.5338903332
 20
9.4057067253
 30
0.0
 10
-63.1792255668
 20
9.1649198439
 30
0.0
 10
-62.8974025437
 20
9.1082570376
 30
0.0
 10
-62.7579429759
 20
9.1073660557
 30
0.0
  0
SPLINE
  5
408
100
AcDbEntity
  8
ASSI
100
AcDbSpline
 62
7
  6
CONTINUOUS
 70
0
 71
3
 72
8
 73
4
 74
0
 42
0.0000001
 43
0.0000001
 44
0.0000000001
 40
0.0
 40
0.0
 40
0.0
 40
0.0
 40
1.0
 40
1.0
 40
1.0
 40
1.0
 10
-35.009179344
 20
-16.0607094183
 30
0.0
 10
-44.2587826141
 20
-16.0071745141
 30
0.0
 10
-53.5083720475
 20
-15.9511846747
 30
0.0
 10
-62.7579445174
 20
-15.8925692927
 30
0.0
  0
SPLINE
  5
409
100
AcDbEntity
  8
ASSI
100
AcDbSpline
 62
250
  6
CONTINUOUS
 70
0
 71
3
 72
8
 73
4
 74
0
 42
0.0000001
 43
0.0000001
 44
0.0000000001
 40
0.0
 40
0.0
 40
0.0
 40
0.0
 40
1.0
 40
1.0
 40
1.0
 40
1.0
 10
-35.009179344
 20
-16.9462212222
 30
0.0
 10
-48.3425095698
 20
-17.0232659562
 30
0.0
 10
-61.6758429699
 20
-17.0997631166
 30
0.0
 10
-75.009179344
 20
-17.1757363753
 30
0.0
  0
SPLINE
  5
40A
100
AcDbEntity
  8
ASSI
100
AcDbSpline
 62
7
  6
CONTINUOUS
 70
0
 71
3
 72
15
 73
11
 74
0
 42
0.0000001
 43
0.0000001
 44
0.0000000001
 40
0.0
 40
0.0
 40
0.0
 40
0.0
 40
0.1250070529
 40
0.2499866733
 40
0.3749918616
 40
0.5
 40
0.6250081385
 40
0.7500133268
 40
0.8749929471
 40
1.0
 40
1.0
 40
1.0
 40
1.0
 10
-62.7579429759
 20
6.2600203321
 30
0.0
 10
-62.8974025437
 20
6.2591293501
 30
0.0
 10
-63.1792255669
 20
6.2024665438
 30
0.0
 10
-63.5338903333
 20
5.9616796623
 30
0.0
 10
-63.772628812
 20
5.6049372446
 30
0.0
 10
-63.8547760067
 20
5.1836931937
 30
0.0
 10
-63.7726288119
 20
4.7624491429
 30
0.0
 10
-63.5338903332
 20
4.4057067253
 30
0.0
 10
-63.1792255668
 20
4.1649198439
 30
0.0
 10
-62.8974025437
 20
4.1082570376
 30
0.0
 10
-62.7579429759
 20
4.1073660557
 30
0.0
  0
SPLINE
  5
40B
100
AcDbEntity
  8
ASSI
100
AcDbSpline
 62
7
  6
CONTINUOUS
 70
0
 71
3
 72
15
 73
11
 74
0
 42
0.0000001
 43
0.0000001
 44
0.0000000001
 40
0.0
 40
0.0
 40
0.0
 40
0.0
 40
0.1250070529
 40
0.2499866733
 40
0.3749918616
 40
0.5
 40
0.6250081385
 40
0.7500133268
 40
0.8749929471
 40
1.0
 40
1.0
 40
1.0
 40
1.0
 10
-62.7579429759
 20
1.2600203321
 30
0.0
 10
-62.8974025437
 20
1.2591293501
 30
0.0
 10
-63.1792255669
 20
1.2024665438
 30
0.0
 10
-63.5338903333
 20
0.9616796623
 30
0.0
 10
-63.772628812
 20
0.6049372446
 30
0.0
 10
-63.8547760067
 20
0.1836931937
 30
0.0
 10
-63.7726288119
 20
-0.2375508571
 30
0.0
 10
-63.5338903332
 20
-0.5942932747
 30
0.0
 10
-63.1792255668
 20
-0.8350801561
 30
0.0
 10
-62.8974025437
 20
-0.8917429624
 30
0.0
 10
-62.7579429759
 20
-0.8926339443
 30
0.0
  0
SPLINE
  5
40C
100
AcDbEntity
  8
ASSI
100
AcDbSpline
 62
7
  6
CONTINUOUS
 70
0
 71
3
 72
15
 73
11
 74
0
 42
0.0000001
 43
0.0000001
 44
0.0000000001
 40
0.0
 40
0.0
 40
0.0
 40
0.0
 40
0.1250070529
 40
0.2499866733
 40
0.3749918616
 40
0.5
 40
0.6250081385
 40
0.7500133268
 40
0.8749929471
 40
1.0
 40
1.0
 40
1.0
 40
1.0
 10
-62.7579429759
 20
-3.7399796679
 30
0.0
 10
-62.8974025437
 20
-3.7408706499
 30
0.0
 10
-63.1792255669
 20
-3.7975334562
 30
0.0
 10
-63.5338903333
 20
-4.0383203377
 30
0.0
 10
-63.772628812
 20
-4.3950627554
 30
0.0
 10
-63.8547760067
 20
-4.8163068063
 30
0.0
 10
-63.7726288119
 20
-5.2375508571
 30
0.0
 10
-63.5338903332
 20
-5.5942932747
 30
0.0
 10
-63.1792255668
 20
-5.8350801561
 30
0.0
 10
-62.8974025437
 20
-5.8917429624
 30
0.0
 10
-62.7579429759
 20
-5.8926339443
 30
0.0
  0
SPLINE
  5
40D
100
AcDbEntity
  8
ASSI
100
AcDbSpline
 62
7
  6
CONTINUOUS
 70
0
 71
3
 72
15
 73
11
 74
0
 42
0.0000001
 43
0.0000001
 44
0.0000000001
 40
0.0
 40
0.0
 40
0.0
 40
0.0
 40
0.1250070529
 40
0.2499866733
 40
0.3749918616
 40
0.5
 40
0.6250081385
 40
0.7500133268
 40
0.8749929471
 40
1.0
 40
1.0
 40
1.0
 40
1.0
 10
-62.7579429759
 20
-8.7399796679
 30
0.0
 10
-62.8974025437
 20
-8.7408706499
 30
0.0
 10
-63.1792255669
 20
-8.7975334562
 30
0.0
 10
-63.5338903333
 20
-9.0383203377
 30
0.0
 10
-63.772628812
 20
-9.3950627554
 30
0.0
 10
-63.8547760067
 20
-9.8163068063
 30
0.0
 10
-63.7726288119
 20
-10.2375508571
 30
0.0
 10
-63.5338903332
 20
-10.5942932747
 30
0.0
 10
-63.1792255668
 20
-10.8350801561
 30
0.0
 10
-62.8974025437
 20
-10.8917429624
 30
0.0
 10
-62.7579429759
 20
-10.8926339443
 30
0.0
  0
SPLINE
  5
40E
100
AcDbEntity
  8
ASSI
100
AcDbSpline
 62
7
  6
CONTINUOUS
 70
0
 71
3
 72
15
 73
11
 74
0
 42
0.0000001
 43
0.0000001
 44
0.0000000001
 40
0.0
 40
0.0
 40
0.0
 40
0.0
 40
0.1250072654
 40
0.2499870825
 40
0.3749925143
 40
0.5000008355
 40
0.6250092131
 40
0.7500144669
 40
0.8749946179
 40
1.0
 40
1.0
 40
1.0
 40
1.0
 10
-62.7579429759
 20
-13.7399796679
 30
0.0
 10
-62.8973838747
 20
-13.7408705306
 30
0.0
 10
-63.1791684221
 20
-13.7975177628
 30
0.0
 10
-63.5338023987
 20
-14.0382426778
 30
0.0
 10
-63.7725548579
 20
-14.3949030933
 30
0.0
 10
-63.8547681825
 20
-14.8160725099
 30
0.0
 10
-63.772733969
 20
-15.2372773729
 30
0.0
 10
-63.5341297202
 20
-15.594036669
 30
0.0
 10
-63.179610492
 20
-15.8349198927
 30
0.0
 10
-62.8978320247
 20
-15.8916755676
 30
0.0
 10
-62.7583932266
 20
-15.8925664169
 30
0.0
  0
LINE
  5
40F
100
AcDbEntity
  8
ASSI
100
AcDbLine
 62
250
  6
CONTINUOUS
 10
-65.2527740806
 20
-15.8766949197
 11
-75.009179344
 21
-15.9359659722
  0
LINE
  5
410
100
AcDbEntity
  8
ASSI
100
AcDbLine
 62
250
  6
CONTINUOUS
 10
-62.7583932266
 20
-15.8925664169
 11
-65.2527740806
 21
-15.8766949197
  0
ELLIPSE
  5
411
100
AcDbEntity
  8
0
100
AcDbEllipse
 62
7
  6
CONTINUOUS
 10
-11.1946649115
 20
22.0830070209
 30
0.0
 11
-0.1582391023
 21
0.4751033573
 31
0.0
 40
0.9984778551
 41
-0.3210503505
 42
1.2488325878
  0
ELLIPSE
  5
412
100
AcDbEntity
  8
0
100
AcDbEllipse
 62
7
  6
CONTINUOUS
 10
10.1051827604
 20
-21.7156206331
 30
0.0
 11
-0.1582391023
 21
0.4751033573
 31
0.0
 40
0.9984778551
 41
-3.4626430041
 42
-1.8927600658
  0
ELLIPSE
  5
413
100
AcDbEntity
  8
0
100
AcDbEllipse
 62
7
  6
CONTINUOUS
 10
10.1051827604
 20
22.0830070209
 30
0.0
 11
0.1582391023
 21
0.4751033573
 31
0.0
 40
0.9984778551
 41
-1.2488325878
 42
0.3210503505
  0
ELLIPSE
  5
414
100
AcDbEntity
  8
0
100
AcDbEllipse
 62
7
  6
CONTINUOUS
 10
-11.1946649115
 20
-21.7156206331
 30
0.0
 11
0.1582391023
 21
0.4751033573
 31
0.0
 40
0.9984778551
 41
-4.3904252414
 42
-2.8205423031
  0
ELLIPSE
  5
415
100
AcDbEntity
  8
DRAFT
100
AcDbEllipse
 62
7
  6
CONTINUOUS
 10
-62.759179344
 20
15.1836931939
 30
0.0
 11
0.75
 21
-0.0
 31
0.0
 40
1.0
 41
1.5795229731
 42
4.7036623341
  0
ELLIPSE
  5
416
100
AcDbEntity
  8
DRAFT
100
AcDbEllipse
 62
7
  6
CONTINUOUS
 10
-62.759179344
 20
10.1836931939
 30
0.0
 11
0.75
 21
0.0
 31
0.0
 40
1.0
 41
1.5795229731
 42
4.7036623341
  0
ELLIPSE
  5
417
100
AcDbEntity
  8
DRAFT
100
AcDbEllipse
 62
7
  6
CONTINUOUS
 10
-62.759179344
 20
5.1836931939
 30
0.0
 11
0.75
 21
0.0
 31
0.0
 40
1.0
 41
1.5795229731
 42
4.7036623341
  0
ELLIPSE
  5
418
100
AcDbEntity
  8
DRAFT
100
AcDbEllipse
 62
7
  6
CONTINUOUS
 10
-62.759179344
 20
0.1836931939
 30
0.0
 11
0.75
 21
0.0
 31
0.0
 40
1.0
 41
1.5795229731
 42
4.7036623341
  0
ELLIPSE
  5
419
100
AcDbEntity
  8
DRAFT
100
AcDbEllipse
 62
7
  6
CONTINUOUS
 10
-62.759179344
 20
-4.8163068061
 30
0.0
 11
0.75
 21
-0.0
 31
0.0
 40
1.0
 41
1.5795229731
 42
4.7036623341
  0
ELLIPSE
  5
41A
100
AcDbEntity
  8
DRAFT
100
AcDbEllipse
 62
7
  6
CONTINUOUS
 10
-62.759179344
 20
-9.8163068061
 30
0.0
 11
0.75
 21
0.0
 31
0.0
 40
1.0
 41
1.5795229731
 42
4.7036623341
  0
ELLIPSE
  5
41B
100
AcDbEntity
  8
DRAFT
100
AcDbEllipse
 62
7
  6
CONTINUOUS
 10
-62.759179344
 20
-14.8163068061
 30
0.0
 11
0.75
 21
0.0
 31
0.0
 40
1.0
 41
1.5795229731
 42
4.7036623341
  0
ELLIPSE
  5
41C
100
AcDbEntity
  8
ASSI
100
AcDbEllipse
 62
7
  6
CONTINUOUS
 10
-62.759179344
 20
-14.8163068061
 30
0.0
 11
0.75
 21
0.0
 31
0.0
 40
1.0
 41
1.5795229731
 42
4.7036623341
  0
ELLIPSE
  5
41D
100
AcDbEntity
  8
ASSI
100
AcDbEllipse
 62
7
  6
CONTINUOUS
 10
-62.759179344
 20
-9.8163068061
 30
0.0
 11
0.75
 21
0.0
 31
0.0
 40
1.0
 41
1.5795229731
 42
4.7036623341
  0
ELLIPSE
  5
41E
100
AcDbEntity
  8
ASSI
100
AcDbEllipse
 62
7
  6
CONTINUOUS
 10
-62.759179344
 20
-4.8163068061
 30
0.0
 11
0.75
 21
-0.0
 31
0.0
 40
1.0
 41
1.5795229731
 42
4.7036623341
  0
ELLIPSE
  5
41F
100
AcDbEntity
  8
ASSI
100
AcDbEllipse
 62
7
  6
CONTINUOUS
 10
-62.759179344
 20
0.1836931939
 30
0.0
 11
0.75
 21
0.0
 31
0.0
 40
1.0
 41
1.5795229731
 42
4.7036623341
  0
ELLIPSE
  5
420
100
AcDbEntity
  8
ASSI
100
AcDbEllipse
 62
7
  6
CONTINUOUS
 10
-62.759179344
 20
5.1836931939
 30
0.0
 11
0.75
 21
0.0
 31
0.0
 40
1.0
 41
1.5795229731
 42
4.7036623341
  0
ELLIPSE
  5
421
100
AcDbEntity
  8
ASSI
100
AcDbEllipse
 62
7
  6
CONTINUOUS
 10
-62.759179344
 20
10.1836931939
 30
0.0
 11
0.75
 21
0.0
 31
0.0
 40
1.0
 41
1.5795229731
 42
4.7036623341
  0
ELLIPSE
  5
422
100
AcDbEntity
  8
ASSI
100
AcDbEllipse
 62
7
  6
CONTINUOUS
 10
-62.759179344
 20
15.1836931939
 30
0.0
 11
0.75
 21
-0.0
 31
0.0
 40
1.0
 41
1.5795229731
 42
4.7036623341
  0
ENDSEC
  0
SECTION
  2
OBJECTS
  0
DICTIONARY
  5
C
100
AcDbDictionary
280
0
281
1
  3
ACAD_GROUP
350
D
  3
ACAD_MLINESTYLE
350
17
  3
ACAD_LAYOUT
350
1A
  3
ACAD_PLOTSETTINGS
350
19
  3
ACAD_PLOTSTYLENAME
350
E
  0
DICTIONARY
  5
D
102
{ACAD_REACTORS
330
C
102
}
100
AcDbDictionary
280
0
281
1
  0
ACDBDICTIONARYWDFLT
  5
E
102
{ACAD_REACTORS
330
C
102
}
100
AcDbDictionary
281
1
  3
Normal
350
F
100
AcDbDictionaryWithDefault
340
F
  0
DICTIONARY
  5
17
102
{ACAD_REACTORS
330
C
102
}
100
AcDbDictionary
280
0
281
1
  3
Standard
350
18
  0
DICTIONARY
  5
19
102
{ACAD_REACTORS
330
C
102
}
100
AcDbDictionary
281
1
  0
DICTIONARY
  5
1A
102
{ACAD_REACTORS
330
C
102
}
100
AcDbDictionary
281
1
  3
Model
350
423
  3
Layout1
350
424
  0
ACDBPLACEHOLDER
  5
F
102
{ACAD_REACTORS
330
E
102
}
  0
MLINESTYLE
  5
18
102
{ACAD_REACTORS
330
17
102
}
100
AcDbMlineStyle
  2
STANDARD
 70
0
  3

 62
256
 51
90.0
 52
90.0
 71
2
 49
0.5
 62
256
  6
BYLAYER
 49
-0.5
 62
256
  6
BYLAYER
  0
LAYOUT
  5
423
102
{ACAD_REACTORS
330
1A
102
}
100
AcDbPlotSettings
  1

  2
none_device
  4
ISO_A4_(297.00_x_210.00_MM)
  6

 40
0.0
 41
0.0
 42
0.0
 43
0.0
 44
297.0
 45
210.0
 46
0.0
 47
0.0
 48
0.0
 49
0.0
140
0.0
141
0.0
142
1.0
143
1.0
 70
1024
 72
1
 73
0
 74
0
  7

 75
0
147
1.0
148
0.0
149
0.0
100
AcDbLayout
  1
Model
 70
0
 71
0
 10
0.0
 20
0.0
 11
297.0
 21
210.0
 12
0.0
 22
0.0
 32
0.0
 14
0.0
 24
0.0
 34
0.0
 15
0.0
 25
0.0
 35
0.0
146
0.0
 13
0.0
 23
0.0
 33
0.0
 16
1.0
 26
0.0
 36
0.0
 17
0.0
 27
1.0
 37
0.0
 76
0
330
21B
345
0
346
0
  0
LAYOUT
  5
424
102
{ACAD_REACTORS
330
1A
102
}
100
AcDbPlotSettings
  1

  2
none_device
  4
ISO_A4_(297.00_x_210.00_MM)
  6

 40
0.0
 41
0.0
 42
0.0
 43
0.0
 44
297.0
 45
210.0
 46
0.0
 47
0.0
 48
0.0
 49
0.0
140
0.0
141
0.0
142
1.0
143
1.0
 70
0
 72
1
 73
0
 74
0
  7

 75
0
147
1.0
148
0.0
149
0.0
100
AcDbLayout
  1
Layout1
 70
0
 71
1
 10
0.0
 20
0.0
 11
297.0
 21
210.0
 12
0.0
 22
0.0
 32
0.0
 14
0.0
 24
0.0
 34
0.0
 15
0.0
 25
0.0
 35
0.0
146
0.0
 13
0.0
 23
0.0
 33
0.0
 16
1.0
 26
0.0
 36
0.0
 17
0.0
 27
1.0
 37
0.0
 76
0
330
21C
345
0
346
0
  0
ENDSEC
  0
EOF
