  0
SECTION
  2
HEADER
  9
$ACADVER
  1
AC1024
  9
$DWGCODEPAGE
  3
ANSI_1252
  9
$EXTMAX
 10
297.0
 20
210.0
 30
0.0
  9
$EXTMIN
 10
0.0
 20
0.0
 30
0.0
  9
$LIMMIN
 10
0.0
 20
0.0
  9
$LIMMAX
 10
297.0
 20
210.0
  9
$VIEWCTR
 10
148.5
 20
105.0
  9
$VIEWSIZE
 40
210.0
  9
$CLAYER
  8
0
  9
$LTSCALE
 40
16.335
  9
$CELTYPE
  6
BYLAYER
  9
$DIMSCALE
 40
1.0
  9
$DIMASZ
 40
3.0
  9
$DIMEXO
 40
0.5
  9
$DIMDLI
 40
11.286
  9
$DIMEXE
 40
1.5
  9
$DIMCEN
 40
2.673
  9
$DIMLFAC
 40
1.0
  9
$DIMBLK
  1
_FILLED
  9
$DIMALT
 70
0
  9
$DIMALTF
 40
0.0393700787
  9
$DIMTXT
 40
3.0
  9
$DIMTOL
 70
1
  9
$DIMLIM
 70
0
  9
$DIMTFAC
 40
1.0
  9
$DIMTP
 40
0.01
  9
$DIMTM
 40
0.01
  9
$DIMGAP
 40
0.625
  9
$DIMDSEP
 70
44
  9
$AUNITS
 70
0
  9
$PDMODE
 70
3
  9
$PDSIZE
 40
3.0
  9
$HANDSEED
  5
649
  9
$TILEMODE
 70
1
  9
$MEASUREMENT
 70
1
  9
$INSUNITS
 70
4
  0
ENDSEC
  0
SECTION
  2
CLASSES
  0
CLASS
  1
ACDBDICTIONARYWDFLT
  2
AcDbDictionaryWithDefault
  3
AutoCAD 2000
 90
0
 91
1
280
0
281
0
  0
CLASS
  1
ACDBPLACEHOLDER
  2
AcDbPlaceHolder
  3
AutoCAD 2000
 90
0
 91
1
280
0
281
0
  0
CLASS
  1
LAYOUT
  2
AcDbLayout
  3
AutoCAD 2000
 90
0
 91
0
280
0
281
0
  0
ENDSEC
  0
SECTION
  2
TABLES
  0
TABLE
  2
VPORT
  5
8
100
AcDbSymbolTable
 70
2
  0
VPORT
  5
1F4
100
AcDbSymbolTableRecord
100
AcDbViewportTableRecord
  2
*ACTIVE
 70
0
 10
0.0
 20
0.0
 11
1.0
 21
1.0
 12
148.5
 22
105.0
 13
0.0
 23
0.0
 14
1.0
 24
1.0
 15
0.0
 25
0.0
 16
0.0
 26
0.0
 36
1.0
 17
0.0
 27
0.0
 37
0.0
 40
210.0
 41
1.4142857143
 42
50.0
 43
0.0
 44
0.0
 50
0.0
 51
0.0
 71
0
 72
100
 73
1
 74
1
 75
0
 76
0
 77
0
 78
0
  0
ENDTAB
  0
TABLE
  2
LTYPE
  5
5
100
AcDbSymbolTable
 70
6
  0
LTYPE
  5
14
100
AcDbSymbolTableRecord
100
AcDbLinetypeTableRecord
  2
BYBLOCK
 70
0
  3

 72
65
 73
0
 40
0.0
  0
LTYPE
  5
15
100
AcDbSymbolTableRecord
100
AcDbLinetypeTableRecord
  2
BYLAYER
 70
0
  3

 72
65
 73
0
 40
0.0
  0
LTYPE
  5
16
100
AcDbSymbolTableRecord
100
AcDbLinetypeTableRecord
  2
CONTINUOUS
 70
64
  3
Solid line
 72
65
 73
0
 40
0.0
  0
LTYPE
  5
1F5
100
AcDbSymbolTableRecord
100
AcDbLinetypeTableRecord
  2
CENTER
 70
64
  3
____ _ ____ _ ____ _ ____ _ ____ _ ____ _ ____
 72
65
 73
4
 40
0.6
 49
0.375
 74
0
 49
-0.075
 74
0
 49
0.075
 74
0
 49
-0.075
 74
0
  0
LTYPE
  5
1F6
100
AcDbSymbolTableRecord
100
AcDbLinetypeTableRecord
  2
HIDDEN
 70
64
  3
- - - - - - - - - - - - - - - - - - - -
 72
65
 73
2
 40
0.2
 49
0.1
 74
0
 49
-0.1
 74
0
  0
LTYPE
  5
1F7
100
AcDbSymbolTableRecord
100
AcDbLinetypeTableRecord
  2
PHANTOM
 70
64
  3
_____ _ _ _____ _ _ _____ _ _ _____
 72
65
 73
6
 40
0.8
 49
0.45
 74
0
 49
-0.05
 74
0
 49
0.1
 74
0
 49
-0.05
 74
0
 49
0.1
 74
0
 49
-0.05
 74
0
  0
LTYPE
  5
1F8
100
AcDbSymbolTableRecord
100
AcDbLinetypeTableRecord
  2
DOT
 70
64
  3
. . . . . . . . . . . . . . . . . . . .
 72
65
 73
2
 40
0.2
 49
0.1
 74
0
 49
-0.1
 74
0
  0
LTYPE
  5
1F9
100
AcDbSymbolTableRecord
100
AcDbLinetypeTableRecord
  2
DASHED
 70
64
  3
- - - - - - - - - - - - - - - - - - - -
 72
65
 73
2
 40
0.2
 49
0.1
 74
0
 49
-0.1
 74
0
  0
ENDTAB
  0
TABLE
  2
LAYER
  5
2
100
AcDbSymbolTable
 70
36
  0
LAYER
  5
10
100
AcDbSymbolTableRecord
100
AcDbLayerTableRecord
  2
0
 70
0
 62
7
  6
CONTINUOUS
370
-3
390
F
  0
LAYER
  5
1FA
100
AcDbSymbolTableRecord
100
AcDbLayerTableRecord
  2
DEFAULT_1
 70
0
 62
7
  6
CENTER
370
-3
390
F
  0
LAYER
  5
1FB
100
AcDbSymbolTableRecord
100
AcDbLayerTableRecord
  2
DEFAULT_2
 70
0
 62
7
  6
HIDDEN
370
-3
390
F
  0
LAYER
  5
1FC
100
AcDbSymbolTableRecord
100
AcDbLayerTableRecord
  2
DEFAULT_3
 70
0
 62
7
  6
PHANTOM
370
-3
390
F
  0
LAYER
  5
1FD
100
AcDbSymbolTableRecord
100
AcDbLayerTableRecord
  2
ASSI
 70
0
 62
7
  6
CONTINUOUS
370
-3
390
F
  0
LAYER
  5
1FE
100
AcDbSymbolTableRecord
100
AcDbLayerTableRecord
  2
CASTELLO
 70
0
 62
7
  6
CONTINUOUS
370
-3
390
F
  0
LAYER
  5
1FF
100
AcDbSymbolTableRecord
100
AcDbLayerTableRecord
  2
CONTATTO
 70
0
 62
7
  6
CONTINUOUS
370
-3
390
F
  0
LAYER
  5
200
100
AcDbSymbolTableRecord
100
AcDbLayerTableRecord
  2
CONT_MOBILE
 70
0
 62
7
  6
CONTINUOUS
370
-3
390
F
  0
LAYER
  5
201
100
AcDbSymbolTableRecord
100
AcDbLayerTableRecord
  2
COORDINATE
 70
0
 62
7
  6
CONTINUOUS
370
-3
390
F
  0
LAYER
  5
202
100
AcDbSymbolTableRecord
100
AcDbLayerTableRecord
  2
COORD_ORIGINE
 70
0
 62
7
  6
CONTINUOUS
370
-3
390
F
  0
LAYER
  5
203
100
AcDbSymbolTableRecord
100
AcDbLayerTableRecord
  2
COPERCHIO
 70
0
 62
7
  6
CONTINUOUS
370
-3
390
F
  0
LAYER
  5
204
100
AcDbSymbolTableRecord
100
AcDbLayerTableRecord
  2
COPY-PUBBLISH
 70
0
 62
7
  6
CONTINUOUS
370
-3
390
F
  0
LAYER
  5
205
100
AcDbSymbolTableRecord
100
AcDbLayerTableRecord
  2
COPY_PUBLISH
 70
0
 62
7
  6
CONTINUOUS
370
-3
390
F
  0
LAYER
  5
206
100
AcDbSymbolTableRecord
100
AcDbLayerTableRecord
  2
CORPO
 70
0
 62
7
  6
CONTINUOUS
370
-3
390
F
  0
LAYER
  5
207
100
AcDbSymbolTableRecord
100
AcDbLayerTableRecord
  2
COSMETICI
 70
0
 62
7
  6
CONTINUOUS
370
-3
390
F
  0
LAYER
  5
208
100
AcDbSymbolTableRecord
100
AcDbLayerTableRecord
  2
CURVE
 70
0
 62
7
  6
CONTINUOUS
370
-3
390
F
  0
LAYER
  5
209
100
AcDbSymbolTableRecord
100
AcDbLayerTableRecord
  2
DRAFT
 70
0
 62
7
  6
CONTINUOUS
370
-3
390
F
  0
LAYER
  5
20A
100
AcDbSymbolTableRecord
100
AcDbLayerTableRecord
  2
IMPORT_IGES
 70
0
 62
7
  6
CONTINUOUS
370
-3
390
F
  0
LAYER
  5
20B
100
AcDbSymbolTableRecord
100
AcDbLayerTableRecord
  2
INTF_1
 70
0
 62
7
  6
CONTINUOUS
370
-3
390
F
  0
LAYER
  5
20C
100
AcDbSymbolTableRecord
100
AcDbLayerTableRecord
  2
INTF_11
 70
0
 62
7
  6
CONTINUOUS
370
-3
390
F
  0
LAYER
  5
20D
100
AcDbSymbolTableRecord
100
AcDbLayerTableRecord
  2
INTF_2
 70
0
 62
7
  6
CONTINUOUS
370
-3
390
F
  0
LAYER
  5
20E
100
AcDbSymbolTableRecord
100
AcDbLayerTableRecord
  2
MOLLA
 70
0
 62
7
  6
CONTINUOUS
370
-3
390
F
  0
LAYER
  5
20F
100
AcDbSymbolTableRecord
100
AcDbLayerTableRecord
  2
NOTE
 70
0
 62
7
  6
CONTINUOUS
370
-3
390
F
  0
LAYER
  5
210
100
AcDbSymbolTableRecord
100
AcDbLayerTableRecord
  2
PERNO
 70
0
 62
7
  6
CONTINUOUS
370
-3
390
F
  0
LAYER
  5
211
100
AcDbSymbolTableRecord
100
AcDbLayerTableRecord
  2
PIANI
 70
0
 62
7
  6
CONTINUOUS
370
-3
390
F
  0
LAYER
  5
212
100
AcDbSymbolTableRecord
100
AcDbLayerTableRecord
  2
PIANI_ORIGINE
 70
0
 62
7
  6
CONTINUOUS
370
-3
390
F
  0
LAYER
  5
213
100
AcDbSymbolTableRecord
100
AcDbLayerTableRecord
  2
POMELLO
 70
0
 62
7
  6
CONTINUOUS
370
-3
390
F
  0
LAYER
  5
214
100
AcDbSymbolTableRecord
100
AcDbLayerTableRecord
  2
PUNTI
 70
0
 62
7
  6
CONTINUOUS
370
-3
390
F
  0
LAYER
  5
215
100
AcDbSymbolTableRecord
100
AcDbLayerTableRecord
  2
RACCORDO
 70
0
 62
7
  6
CONTINUOUS
370
-3
390
F
  0
LAYER
  5
216
100
AcDbSymbolTableRecord
100
AcDbLayerTableRecord
  2
SIMBOLI
 70
0
 62
7
  6
CONTINUOUS
370
-3
390
F
  0
LAYER
  5
217
100
AcDbSymbolTableRecord
100
AcDbLayerTableRecord
  2
SMUSSO
 70
0
 62
7
  6
CONTINUOUS
370
-3
390
F
  0
LAYER
  5
218
100
AcDbSymbolTableRecord
100
AcDbLayerTableRecord
  2
SNAPLINE
 70
0
 62
7
  6
CONTINUOUS
370
-3
390
F
  0
LAYER
  5
219
100
AcDbSymbolTableRecord
100
AcDbLayerTableRecord
  2
SUPERFICI
 70
0
 62
7
  6
CONTINUOUS
370
-3
390
F
  0
LAYER
  5
21A
100
AcDbSymbolTableRecord
100
AcDbLayerTableRecord
  2
SUPPORTO
 70
0
 62
7
  6
CONTINUOUS
370
-3
390
F
  0
LAYER
  5
21B
100
AcDbSymbolTableRecord
100
AcDbLayerTableRecord
  2
TASTO
 70
0
 62
7
  6
CONTINUOUS
370
-3
390
F
  0
LAYER
  5
21C
100
AcDbSymbolTableRecord
100
AcDbLayerTableRecord
  2
TRASH
 70
0
 62
7
  6
CONTINUOUS
370
-3
390
F
  0
LAYER
  5
21D
100
AcDbSymbolTableRecord
100
AcDbLayerTableRecord
  2
TRECCIA
 70
0
 62
7
  6
CONTINUOUS
370
-3
390
F
  0
LAYER
  5
21E
100
AcDbSymbolTableRecord
100
AcDbLayerTableRecord
  2
___SHELL
 70
0
 62
7
  6
CONTINUOUS
370
-3
390
F
  0
ENDTAB
  0
TABLE
  2
STYLE
  5
3
100
AcDbSymbolTable
 70
1
  0
STYLE
  5
11
100
AcDbSymbolTableRecord
100
AcDbTextStyleTableRecord
  2
STANDARD
 70
0
 40
0.0
 41
0.8
 50
0.0
 71
0
 42
0.2
  3
txt
  4

  0
STYLE
  5
21F
100
AcDbSymbolTableRecord
100
AcDbTextStyleTableRecord
  2
TEXTSTYLE_1
 70
0
 40
0.0
 41
0.8
 50
0.0
 71
0
 42
0.2
  3
gdt
  4

  0
ENDTAB
  0
TABLE
  2
VIEW
  5
6
100
AcDbSymbolTable
 70
0
  0
ENDTAB
  0
TABLE
  2
UCS
  5
7
100
AcDbSymbolTable
 70
0
  0
ENDTAB
  0
TABLE
  2
APPID
  5
9
100
AcDbSymbolTable
 70
1
  0
APPID
  5
220
100
AcDbSymbolTableRecord
100
AcDbRegAppTableRecord
  2
ACAD
 70
0
  0
ENDTAB
  0
TABLE
  2
BLOCK_RECORD
  5
1
100
AcDbSymbolTable
 70
0
  0
BLOCK_RECORD
  5
221
100
AcDbSymbolTableRecord
100
AcDbBlockTableRecord
  2
*Model_Space
  0
BLOCK_RECORD
  5
222
100
AcDbSymbolTableRecord
100
AcDbBlockTableRecord
  2
*Paper_Space
  0
BLOCK_RECORD
  5
223
100
AcDbSymbolTableRecord
100
AcDbBlockTableRecord
  2
_FILLED
  0
BLOCK_RECORD
  5
224
100
AcDbSymbolTableRecord
100
AcDbBlockTableRecord
  2
*D0
  0
BLOCK_RECORD
  5
225
100
AcDbSymbolTableRecord
100
AcDbBlockTableRecord
  2
*D1
  0
BLOCK_RECORD
  5
226
100
AcDbSymbolTableRecord
100
AcDbBlockTableRecord
  2
*D2
  0
BLOCK_RECORD
  5
227
100
AcDbSymbolTableRecord
100
AcDbBlockTableRecord
  2
*D3
  0
ENDTAB
  0
TABLE
  2
DIMSTYLE
  5
A
100
AcDbSymbolTable
 70
1
100
AcDbDimStyleTable
 71
0
  0
DIMSTYLE
105
228
100
AcDbSymbolTableRecord
100
AcDbDimStyleTableRecord
  2
STANDARD
 70
0
  3

  4

 40
1.0
 41
3.0
 42
0.5
 43
0.38
 44
1.5
 45
0.0
 46
0.0
 47
0.01
 48
0.01
140
3.0
141
0.09
142
0.0
143
25.4
144
1.0
145
0.0
146
1.0
147
0.625
 71
1
 72
0
 73
0
 74
0
 75
0
 76
0
 77
1
 78
8
 79
2
170
0
171
1
172
0
173
0
174
0
175
0
176
0
177
0
178
0
270
2
179
2
271
2
272
2
273
2
274
2
275
0
280
0
281
0
282
0
283
1
284
8
285
0
286
0
287
3
288
0
340
11
278
44
341
223
342
223
343
223
344
223
  0
DIMSTYLE
105
229
100
AcDbSymbolTableRecord
100
AcDbDimStyleTableRecord
  2
DIMSTYLE_1
 70
0
  3

  4

 40
1.0
 41
3.0
 42
0.5
 43
0.38
 44
1.5
 45
0.0
 46
0.0
 47
0.0
 48
0.0
140
3.0
141
0.09
142
0.0
143
25.4
144
1.0
145
0.0
146
1.0
147
0.75
 71
0
 72
0
 73
0
 74
0
 75
0
 76
0
 77
1
 78
8
 79
2
170
0
171
1
172
0
173
0
174
0
175
0
176
0
177
0
178
0
270
2
179
2
271
2
272
2
273
2
274
2
275
0
280
0
281
0
282
0
283
1
284
8
285
0
286
0
287
3
288
0
340
11
278
44
341
223
342
223
343
223
344
223
  0
ENDTAB
  0
ENDSEC
  0
SECTION
  2
BLOCKS
  0
BLOCK
  5
20
100
AcDbEntity
  8
0
100
AcDbBlockBegin
  2
*Model_Space
 70
0
 10
0.0
 20
0.0
 30
0.0
  3
*Model_Space
  1

  0
ENDBLK
  5
21
100
AcDbEntity
  8
0
100
AcDbBlockEnd
  0
BLOCK
  5
1C
100
AcDbEntity
  8
0
100
AcDbBlockBegin
  2
*Paper_Space
 70
0
 10
0.0
 20
0.0
 30
0.0
  3
*Paper_Space
  1

  0
ENDBLK
  5
1D
100
AcDbEntity
  8
0
100
AcDbBlockEnd
  0
BLOCK
  5
22A
100
AcDbEntity
  8
0
100
AcDbBlockBegin
  2
_FILLED
 70
64
 10
0.0
 20
0.0
  3
_FILLED
  1

  0
SOLID
  5
22B
100
AcDbEntity
  8
0
  6
BYBLOCK
 62
0
100
AcDbTrace
 10
0.0
 20
0.0
 11
-1.0
 21
0.3166666667
 12
-1.0
 22
-0.3166666667
 13
-1.0
 23
-0.3166666667
  0
ENDBLK
  5
22C
100
AcDbEntity
  8
0
  6
BYBLOCK
 62
0
100
AcDbBlockEnd
  0
BLOCK
  5
22D
100
AcDbEntity
  8
0
100
AcDbBlockBegin
 62
7
  6
CONTINUOUS
  2
*D0
 70
65
 10
0.0
 20
0.0
  3
*D0
  1

  0
LINE
  5
22E
100
AcDbEntity
  8
0
100
AcDbLine
 62
7
  6
CONTINUOUS
 10
4.1748574782
 20
-23.5
 11
20.65
 21
-23.5
  0
LINE
  5
22F
100
AcDbEntity
  8
0
100
AcDbLine
 62
7
  6
CONTINUOUS
 10
4.1748574782
 20
23.5
 11
20.65
 21
23.5
  0
LINE
  5
230
100
AcDbEntity
  8
0
100
AcDbLine
 62
7
  6
CONTINUOUS
 10
19.15
 20
-23.5
 11
19.15
 21
0.0
  0
LINE
  5
231
100
AcDbEntity
  8
0
100
AcDbLine
 62
7
  6
CONTINUOUS
 10
19.15
 20
23.5
 11
19.15
 21
0.0
  0
INSERT
  5
232
100
AcDbEntity
  8
0
100
AcDbBlockReference
 62
7
  6
CONTINUOUS
  2
_FILLED
 10
19.15
 20
-23.5
 41
3.0
 42
3.0
 43
3.0
 50
270.0
  0
INSERT
  5
233
100
AcDbEntity
  8
0
100
AcDbBlockReference
 62
7
  6
CONTINUOUS
  2
_FILLED
 10
19.15
 20
23.5
 41
3.0
 42
3.0
 43
3.0
 50
90.0
  0
ENDBLK
  5
234
100
AcDbEntity
  8
0
  6
BYBLOCK
 62
0
100
AcDbBlockEnd
  0
BLOCK
  5
235
100
AcDbEntity
  8
0
100
AcDbBlockBegin
 62
7
  6
CONTINUOUS
  2
*D1
 70
65
 10
0.0
 20
0.0
  3
*D1
  1

  0
LINE
  5
236
100
AcDbEntity
  8
0
100
AcDbLine
 62
7
  6
CONTINUOUS
 10
11.15
 20
22.3997711479
 11
11.15
 21
33.0
  0
LINE
  5
237
100
AcDbEntity
  8
0
100
AcDbLine
 62
7
  6
CONTINUOUS
 10
-11.15
 20
22.3997711479
 11
-11.15
 21
33.0
  0
LINE
  5
238
100
AcDbEntity
  8
0
100
AcDbLine
 62
7
  6
CONTINUOUS
 10
11.15
 20
31.5
 11
0.0
 21
31.5
  0
LINE
  5
239
100
AcDbEntity
  8
0
100
AcDbLine
 62
7
  6
CONTINUOUS
 10
-11.15
 20
31.5
 11
0.0
 21
31.5
  0
INSERT
  5
23A
100
AcDbEntity
  8
0
100
AcDbBlockReference
 62
7
  6
CONTINUOUS
  2
_FILLED
 10
11.15
 20
31.5
 41
3.0
 42
3.0
 43
3.0
  0
INSERT
  5
23B
100
AcDbEntity
  8
0
100
AcDbBlockReference
 62
7
  6
CONTINUOUS
  2
_FILLED
 10
-11.15
 20
31.5
 41
3.0
 42
3.0
 43
3.0
 50
180.0
  0
ENDBLK
  5
23C
100
AcDbEntity
  8
0
  6
BYBLOCK
 62
0
100
AcDbBlockEnd
  0
BLOCK
  5
23D
100
AcDbEntity
  8
0
100
AcDbBlockBegin
 62
7
  6
CONTINUOUS
  2
*D2
 70
65
 10
0.0
 20
0.0
  3
*D2
  1

  0
LINE
  5
23E
100
AcDbEntity
  8
0
100
AcDbLine
 62
7
  6
CONTINUOUS
 10
-37.7327424918
 20
19.6635018829
 11
-37.7327424918
 21
33.0
  0
LINE
  5
23F
100
AcDbEntity
  8
0
100
AcDbLine
 62
7
  6
CONTINUOUS
 10
-74.7327424918
 20
24.0
 11
-74.7327424918
 21
33.0
  0
LINE
  5
240
100
AcDbEntity
  8
0
100
AcDbLine
 62
7
  6
CONTINUOUS
 10
-37.7327424918
 20
31.5
 11
-56.2327424918
 21
31.5
  0
LINE
  5
241
100
AcDbEntity
  8
0
100
AcDbLine
 62
7
  6
CONTINUOUS
 10
-74.7327424918
 20
31.5
 11
-56.2327424918
 21
31.5
  0
INSERT
  5
242
100
AcDbEntity
  8
0
100
AcDbBlockReference
 62
7
  6
CONTINUOUS
  2
_FILLED
 10
-37.7327424918
 20
31.5
 41
3.0
 42
3.0
 43
3.0
  0
INSERT
  5
243
100
AcDbEntity
  8
0
100
AcDbBlockReference
 62
7
  6
CONTINUOUS
  2
_FILLED
 10
-74.7327424918
 20
31.5
 41
3.0
 42
3.0
 43
3.0
 50
180.0
  0
ENDBLK
  5
244
100
AcDbEntity
  8
0
  6
BYBLOCK
 62
0
100
AcDbBlockEnd
  0
BLOCK
  5
245
100
AcDbEntity
  8
0
100
AcDbBlockBegin
 62
7
  6
CONTINUOUS
  2
*D3
 70
65
 10
0.0
 20
0.0
  3
*D3
  1

  0
LINE
  5
246
100
AcDbEntity
  8
0
100
AcDbLine
 62
7
  6
CONTINUOUS
 10
-91.7327424918
 20
2.0
 11
-91.7327424918
 21
43.0
  0
LINE
  5
247
100
AcDbEntity
  8
0
100
AcDbLine
 62
7
  6
CONTINUOUS
 10
-37.7327424918
 20
19.6635018829
 11
-37.7327424918
 21
43.0
  0
LINE
  5
248
100
AcDbEntity
  8
0
100
AcDbLine
 62
7
  6
CONTINUOUS
 10
-91.7327424918
 20
41.5
 11
-64.7327424918
 21
41.5
  0
LINE
  5
249
100
AcDbEntity
  8
0
100
AcDbLine
 62
7
  6
CONTINUOUS
 10
-37.7327424918
 20
41.5
 11
-64.7327424918
 21
41.5
  0
INSERT
  5
24A
100
AcDbEntity
  8
0
100
AcDbBlockReference
 62
7
  6
CONTINUOUS
  2
_FILLED
 10
-91.7327424918
 20
41.5
 41
3.0
 42
3.0
 43
3.0
 50
180.0
  0
INSERT
  5
24B
100
AcDbEntity
  8
0
100
AcDbBlockReference
 62
7
  6
CONTINUOUS
  2
_FILLED
 10
-37.7327424918
 20
41.5
 41
3.0
 42
3.0
 43
3.0
  0
ENDBLK
  5
24C
100
AcDbEntity
  8
0
  6
BYBLOCK
 62
0
100
AcDbBlockEnd
  0
ENDSEC
  0
SECTION
  2
ENTITIES
  0
DIMENSION
  5
24D
100
AcDbEntity
  8
0
100
AcDbDimension
 62
7
  6
CONTINUOUS
  2
*D0
 10
19.15
 20
23.5
 11
19.15
 21
-2.3571428571
 70
160
 71
2
 72
2
 41
0.9
 42
47.0
  3
DIMSTYLE_1
100
AcDbAlignedDimension
 13
3.6748574782
 23
-23.5
 14
3.6748574782
 24
23.5
 50
90.0
100
AcDbRotatedDimension
  0
DIMENSION
  5
24E
100
AcDbEntity
  8
0
100
AcDbDimension
 62
7
  6
CONTINUOUS
  2
*D1
 10
-11.15
 20
31.5
 11
-4.2857142857
 21
31.5
 70
160
 71
2
 72
2
 41
0.9
 42
22.3
  3
DIMSTYLE_1
100
AcDbAlignedDimension
 13
11.15
 23
21.8997711479
 14
-11.15
 24
21.8997711479
 50
180.0
100
AcDbRotatedDimension
  0
DIMENSION
  5
24F
100
AcDbEntity
  8
0
100
AcDbDimension
 62
7
  6
CONTINUOUS
  2
*D2
 10
-74.7327424918
 20
31.5
 11
-58.4827424918
 21
31.5
 70
160
 71
2
 72
2
 41
0.9
 42
37.0
  3
DIMSTYLE_1
100
AcDbAlignedDimension
 13
-37.7327424918
 23
19.1635018829
 14
-74.7327424918
 24
23.5
 50
180.0
100
AcDbRotatedDimension
  0
DIMENSION
  5
250
100
AcDbEntity
  8
0
100
AcDbDimension
 62
7
  6
CONTINUOUS
  2
*D3
 10
-37.7327424918
 20
41.5
 11
-66.9827424918
 21
41.5
 70
160
 71
2
 72
2
 41
0.9
 42
54.0
  3
DIMSTYLE_1
100
AcDbAlignedDimension
 13
-91.7327424918
 23
1.5
 14
-37.7327424918
 24
19.1635018829
100
AcDbRotatedDimension
  0
LWPOLYLINE
  5
251
100
AcDbEntity
  8
0
100
AcDbPolyline
 62
7
  6
CONTINUOUS
 90
5
 70
0
 43
0.3500000006
 10
3.0000000658
 20
33.9642854004
 10
3.357142951
 20
34.1785698853
 10
3.357142951
 20
34.8214278717
 10
3.0000000658
 20
35.2500013733
 10
2.1428571696
 20
35.2500013733
  0
LWPOLYLINE
  5
252
100
AcDbEntity
  8
ASSI
100
AcDbPolyline
 62
7
  6
CONTINUOUS
 90
10
 70
0
 10
3.6748574782
 20
-23.5
 10
3.7403304144
 20
-23.4978093846
 10
3.804984264
 20
-23.4914781931
 10
3.8688190271
 20
-23.4810064255
 10
3.9320970783
 20
-23.4663149731
 10
3.994556043
 20
-23.4474829446
 10
4.0554087969
 20
-23.4247476662
 10
4.1143929653
 20
-23.3981882466
 10
4.1717709229
 20
-23.367725577
 10
4.2275426698
 20
-23.3333596575
  0
LINE
  5
253
100
AcDbEntity
  8
ASSI
100
AcDbLine
 62
7
  6
CONTINUOUS
 10
3.6748574782
 20
-23.5
 11
-3.6748574782
 21
-23.5
  0
LINE
  5
254
100
AcDbEntity
  8
ASSI
100
AcDbLine
 62
7
  6
CONTINUOUS
 10
-3.4698202597
 20
-22.5
 11
3.4698202597
 21
-22.5
  0
LINE
  5
255
100
AcDbEntity
  8
0
100
AcDbLine
 62
7
  6
CONTINUOUS
 10
10.6503805997
 20
-22.4
 11
3.3
 21
-22.4
  0
LINE
  5
256
100
AcDbEntity
  8
0
100
AcDbLine
 62
7
  6
CONTINUOUS
 10
-3.3
 20
-22.4
 11
-10.6503805997
 21
-22.4
  0
LWPOLYLINE
  5
257
100
AcDbEntity
  8
0
100
AcDbPolyline
 62
250
  6
CONTINUOUS
 90
16
 70
0
 10
-10.5087981167
 20
-21.9749071372
 10
-10.5610241351
 20
-21.9721273713
 10
-10.6126786189
 20
-21.9639137831
 10
-10.6631962883
 20
-21.9503562579
 10
-10.7120243038
 20
-21.9316031621
 10
-10.7586283171
 20
-21.90785972
 10
-10.8024983178
 20
-21.8793857676
 10
-10.8431542153
 20
-21.846492909
 10
-10.8801510926
 20
-21.8095411067
 10
-10.9130840749
 20
-21.7689347421
 10
-10.9415927608
 20
-21.7251181903
 10
-10.9653651658
 20
-21.6785709569
 10
-10.9841411372
 20
-21.6298024308
 10
-10.9977152003
 20
-21.5793463095
 10
-11.0059388076
 20
-21.5277547588
 10
-11.0087219643
 20
-21.4755923698
  0
LWPOLYLINE
  5
258
100
AcDbEntity
  8
ASSI
100
AcDbPolyline
 62
7
  6
CONTINUOUS
 90
10
 70
0
 10
-4.2275426698
 20
23.3333596575
 10
-4.1717709229
 20
23.367725577
 10
-4.1143929653
 20
23.3981882466
 10
-4.0554087969
 20
23.4247476662
 10
-3.994556043
 20
23.4474829446
 10
-3.9320970783
 20
23.4663149731
 10
-3.8688190271
 20
23.4810064255
 10
-3.804984264
 20
23.4914781931
 10
-3.7403304144
 20
23.4978093846
 10
-3.6748574782
 20
23.5
  0
LINE
  5
259
100
AcDbEntity
  8
0
100
AcDbLine
 62
250
  6
CONTINUOUS
 10
10.5087981167
 20
-21.9749071372
 11
-10.5087981167
 21
-21.9749071372
  0
LINE
  5
25A
100
AcDbEntity
  8
0
100
AcDbLine
 62
250
  6
CONTINUOUS
 10
10.5522209659
 20
-21.0181634993
 11
-10.5005350625
 21
-21.0183142309
  0
LWPOLYLINE
  5
25B
100
AcDbEntity
  8
0
100
AcDbPolyline
 62
250
  6
CONTINUOUS
 90
16
 70
0
 10
-10.5005350626
 20
-21.0183132877
 10
-10.5522203681
 20
-21.0181627949
 10
-10.6033519099
 20
-21.0177887256
 10
-10.6533818551
 20
-21.0171950877
 10
-10.7017741735
 20
-21.0163882415
 10
-10.7480103807
 20
-21.0153768319
 10
-10.7915950934
 20
-21.0141716956
 10
-10.8320613367
 20
-21.0127857448
 10
-10.8689755479
 20
-21.0112338287
 10
-10.9019422211
 20
-21.0095325749
 10
-10.9306081453
 20
-21.0077002109
 10
-10.9546661883
 20
-21.0057563691
 10
-10.9738585879
 20
-21.0037218762
 10
-10.987979713
 20
-21.00161853
 10
-10.9968782673
 20
-20.9994688662
 10
-11.00045891
 20
-20.9972959167
  0
LWPOLYLINE
  5
25C
100
AcDbEntity
  8
ASSI
100
AcDbPolyline
 62
7
  6
CONTINUOUS
 90
10
 70
0
 10
-4.2275426698
 20
-23.3333596575
 10
-4.1717709229
 20
-23.367725577
 10
-4.1143929653
 20
-23.3981882466
 10
-4.0554087969
 20
-23.4247476662
 10
-3.994556043
 20
-23.4474829446
 10
-3.9320970783
 20
-23.4663149731
 10
-3.8688190271
 20
-23.4810064255
 10
-3.804984264
 20
-23.4914781931
 10
-3.7403304144
 20
-23.4978093846
 10
-3.6748574782
 20
-23.5
  0
LWPOLYLINE
  5
25D
100
AcDbEntity
  8
RACCORDO
100
AcDbPolyline
 62
250
  6
CONTINUOUS
 90
49
 70
0
 10
5.0
 20
-15.7067954501
 10
5.1217978533
 20
-15.7024345053
 10
5.2444755233
 20
-15.6891416964
 10
5.3673425127
 20
-15.6666640999
 10
5.4901502534
 20
-15.6346549152
 10
5.6116228894
 20
-15.5930479842
 10
5.7295853249
 20
-15.5424170792
 10
5.8429092817
 20
-15.4833081445
 10
5.951433127
 20
-15.4158820071
 10
6.0545785818
 20
-15.3405200501
 10
6.1517603977
 20
-15.2576465129
 10
6.2424226009
 20
-15.1677377713
 10
6.3260804149
 20
-15.0713034498
 10
6.4022597084
 20
-14.9688832243
 10
6.4705235582
 20
-14.8610627766
 10
6.5305082317
 20
-14.7484611295
 10
6.5818679503
 20
-14.6317260196
 10
6.6243192156
 20
-14.5115057119
 10
6.6576588781
 20
-14.3884422382
 10
6.68169296
 20
-14.2632012854
 10
6.6962694498
 20
-14.1365102919
 10
6.7013250355
 20
-14.0091104061
 10
6.6968232107
 20
-13.8816493707
 10
6.6827803004
 20
-13.7549104997
 10
6.6593487027
 20
-13.6298221404
 10
6.6264621444
 20
-13.5062700732
 10
6.5844710088
 20
-13.3857685031
 10
6.5348550643
 20
-13.2714357963
 10
6.4786464073
 20
-13.1639134823
 10
6.4165515791
 20
-13.0631293136
 10
6.350422154
 20
-12.9705863492
 10
6.2817382651
 20
-12.8866392324
 10
6.2110891752
 20
-12.8105150062
 10
6.1391402536
 20
-12.741738719
 10
6.0668595593
 20
-12.680150994
 10
5.9947547663
 20
-12.6252015151
 10
5.9225556793
 20
-12.575933502
 10
5.8508495646
 20
-12.5321276723
 10
5.779949467
 20
-12.4933937019
 10
5.7089057473
 20
-12.4588103751
 10
5.6384013735
 20
-12.4284025871
 10
5.5682671222
 20
-12.4017946196
 10
5.4960128758
 20
-12.3779907228
 10
5.4214951906
 20
-12.3571197525
 10
5.3450621682
 20
-12.3394441385
 10
5.2647816122
 20
-12.3248100456
 10
5.1800628475
 20
-12.3136262207
 10
5.0917359607
 20
-12.3065435026
 10
5.0
 20
-12.3040791025
  0
LWPOLYLINE
  5
25E
100
AcDbEntity
  8
RACCORDO
100
AcDbPolyline
 62
7
  6
CONTINUOUS
 90
49
 70
0
 10
5.0
 20
-15.6019311736
 10
5.1145745236
 20
-15.5978271938
 10
5.2299611873
 20
-15.5853334736
 10
5.3455204593
 20
-15.56421067
 10
5.4610364596
 20
-15.5341281891
 10
5.5753097896
 20
-15.4950173255
 10
5.6862787399
 20
-15.4474199091
 10
5.7928921596
 20
-15.3918548845
 10
5.8950070032
 20
-15.3284675605
 10
5.9920624123
 20
-15.2576140543
 10
6.083516773
 20
-15.179695425
 10
6.1688559107
 20
-15.0951559035
 10
6.2476059738
 20
-15.0044720117
 10
6.3193291695
 20
-14.9081534054
 10
6.3836226679
 20
-14.8067472663
 10
6.4401255984
 20
-14.7008332611
 10
6.4885201934
 20
-14.5910229433
 10
6.5285473685
 20
-14.4779229041
 10
6.5599967559
 20
-14.3621352182
 10
6.5826928762
 20
-14.2442887314
 10
6.5964999119
 20
-14.1250649709
 10
6.6013388177
 20
-14.0051602523
 10
6.5971819101
 20
-13.8851876802
 10
6.5840516951
 20
-13.7658817268
 10
6.5620723609
 20
-13.6481153674
 10
6.5311875008
 20
-13.5317893049
 10
6.4917351631
 20
-13.4183225266
 10
6.445089743
 20
-13.3106443506
 10
6.3922258428
 20
-13.2093775772
 10
6.3338194569
 20
-13.1144547791
 10
6.2716007816
 20
-13.0272754491
 10
6.2069643725
 20
-12.9481894969
 10
6.1404752117
 20
-12.8764786602
 10
6.0727521635
 20
-12.8116776315
 10
6.0047073756
 20
-12.7536446395
 10
5.936826185
 20
-12.7018727333
 10
5.8688493859
 20
-12.6554467061
 10
5.8013308502
 20
-12.6141635279
 10
5.7345700905
 20
-12.5776647048
 10
5.6676693055
 20
-12.5450738353
 10
5.6012730611
 20
-12.5164134597
 10
5.5352247168
 20
-12.4913372893
 10
5.4671758272
 20
-12.4689058839
 10
5.3969937104
 20
-12.4492340357
 10
5.3250074805
 20
-12.4325724023
 10
5.249393298
 20
-12.41878332
 10
5.1695959552
 20
-12.4082497986
 10
5.0864017742
 20
-12.401576237
 10
5.0
 20
-12.3992438944
  0
LWPOLYLINE
  5
25F
100
AcDbEntity
  8
RACCORDO
100
AcDbPolyline
 62
250
  6
CONTINUOUS
 90
49
 70
0
 10
-5.0
 20
-15.7067954501
 10
-4.8782021467
 20
-15.7024345053
 10
-4.7555244767
 20
-15.6891416964
 10
-4.6326574873
 20
-15.6666640999
 10
-4.5098497466
 20
-15.6346549152
 10
-4.3883771106
 20
-15.5930479842
 10
-4.2704146751
 20
-15.5424170792
 10
-4.1570907183
 20
-15.4833081445
 10
-4.048566873
 20
-15.4158820071
 10
-3.9454214182
 20
-15.3405200501
 10
-3.8482396023
 20
-15.2576465129
 10
-3.7575773991
 20
-15.1677377713
 10
-3.6739195851
 20
-15.0713034498
 10
-3.5977402916
 20
-14.9688832243
 10
-3.5294764418
 20
-14.8610627766
 10
-3.4694917683
 20
-14.7484611295
 10
-3.4181320497
 20
-14.6317260196
 10
-3.3756807844
 20
-14.5115057119
 10
-3.3423411219
 20
-14.3884422382
 10
-3.31830704
 20
-14.2632012854
 10
-3.3037305502
 20
-14.1365102919
 10
-3.2986749645
 20
-14.0091104061
 10
-3.3031767893
 20
-13.8816493707
 10
-3.3172196996
 20
-13.7549104997
 10
-3.3406512973
 20
-13.6298221404
 10
-3.3735378556
 20
-13.5062700732
 10
-3.4155289912
 20
-13.3857685031
 10
-3.4651449357
 20
-13.2714357963
 10
-3.5213535927
 20
-13.1639134823
 10
-3.5834484209
 20
-13.0631293136
 10
-3.649577846
 20
-12.9705863492
 10
-3.7182617349
 20
-12.8866392324
 10
-3.7889108248
 20
-12.8105150062
 10
-3.8608597464
 20
-12.741738719
 10
-3.9331404407
 20
-12.680150994
 10
-4.0052452337
 20
-12.6252015151
 10
-4.0774443207
 20
-12.575933502
 10
-4.1491504354
 20
-12.5321276723
 10
-4.220050533
 20
-12.4933937019
 10
-4.2910942527
 20
-12.4588103751
 10
-4.3615986265
 20
-12.4284025871
 10
-4.4317328778
 20
-12.4017946196
 10
-4.5039871242
 20
-12.3779907228
 10
-4.5785048094
 20
-12.3571197525
 10
-4.6549378318
 20
-12.3394441385
 10
-4.7352183878
 20
-12.3248100456
 10
-4.8199371525
 20
-12.3136262207
 10
-4.9082640393
 20
-12.3065435026
 10
-5.0
 20
-12.3040791025
  0
LWPOLYLINE
  5
260
100
AcDbEntity
  8
RACCORDO
100
AcDbPolyline
 62
7
  6
CONTINUOUS
 90
49
 70
0
 10
-5.0
 20
-15.6019311736
 10
-4.8854254764
 20
-15.5978271938
 10
-4.7700388127
 20
-15.5853334736
 10
-4.6544795407
 20
-15.56421067
 10
-4.5389635404
 20
-15.5341281891
 10
-4.4246902104
 20
-15.4950173255
 10
-4.3137212601
 20
-15.4474199091
 10
-4.2071078404
 20
-15.3918548845
 10
-4.1049929968
 20
-15.3284675605
 10
-4.0079375877
 20
-15.2576140543
 10
-3.916483227
 20
-15.179695425
 10
-3.8311440893
 20
-15.0951559035
 10
-3.7523940262
 20
-15.0044720117
 10
-3.6806708305
 20
-14.9081534054
 10
-3.6163773321
 20
-14.8067472663
 10
-3.5598744016
 20
-14.7008332611
 10
-3.5114798066
 20
-14.5910229433
 10
-3.4714526315
 20
-14.4779229041
 10
-3.4400032441
 20
-14.3621352182
 10
-3.4173071238
 20
-14.2442887314
 10
-3.4035000881
 20
-14.1250649709
 10
-3.3986611823
 20
-14.0051602523
 10
-3.4028180899
 20
-13.8851876802
 10
-3.4159483049
 20
-13.7658817268
 10
-3.4379276391
 20
-13.6481153674
 10
-3.4688124992
 20
-13.5317893049
 10
-3.5082648369
 20
-13.4183225266
 10
-3.554910257
 20
-13.3106443506
 10
-3.6077741572
 20
-13.2093775772
 10
-3.6661805431
 20
-13.1144547791
 10
-3.7283992184
 20
-13.0272754491
 10
-3.7930356275
 20
-12.9481894969
 10
-3.8595247883
 20
-12.8764786602
 10
-3.9272478365
 20
-12.8116776315
 10
-3.9952926244
 20
-12.7536446395
 10
-4.063173815
 20
-12.7018727333
 10
-4.1311506141
 20
-12.6554467061
 10
-4.1986691498
 20
-12.6141635279
 10
-4.2654299095
 20
-12.5776647048
 10
-4.3323306945
 20
-12.5450738353
 10
-4.3987269389
 20
-12.5164134597
 10
-4.4647752832
 20
-12.4913372893
 10
-4.5328241728
 20
-12.4689058839
 10
-4.6030062896
 20
-12.4492340357
 10
-4.6749925195
 20
-12.4325724023
 10
-4.750606702
 20
-12.41878332
 10
-4.8304040448
 20
-12.4082497986
 10
-4.9135982258
 20
-12.401576237
 10
-5.0
 20
-12.3992438944
  0
LWPOLYLINE
  5
261
100
AcDbEntity
  8
RACCORDO
100
AcDbPolyline
 62
250
  6
CONTINUOUS
 90
64
 70
0
 10
-5.0
 20
-16.7010437464
 10
-5.1857092885
 20
-16.6947366168
 10
-5.36956916
 20
-16.6759395851
 10
-5.5507634943
 20
-16.6449415283
 10
-5.7281570397
 20
-16.6021896238
 10
-5.9013754245
 20
-16.5480080061
 10
-6.0707275368
 20
-16.4823588657
 10
-6.2359027112
 20
-16.4052845648
 10
-6.3956825201
 20
-16.3172645699
 10
-6.5489993371
 20
-16.2188530242
 10
-6.6950675218
 20
-16.1106359605
 10
-6.8334024797
 20
-15.9930514929
 10
-6.9634531949
 20
-15.8665567864
 10
-7.0846682458
 20
-15.7317267265
 10
-7.1965128229
 20
-15.5891987836
 10
-7.2984922462
 20
-15.4395696749
 10
-7.3901609823
 20
-15.2835283996
 10
-7.4711287909
 20
-15.1217903917
 10
-7.5410326969
 20
-14.9550371144
 10
-7.5995605881
 20
-14.7840432346
 10
-7.6464721623
 20
-14.6095784581
 10
-7.6815615904
 20
-14.4323460348
 10
-7.7046669782
 20
-14.2531112451
 10
-7.7156806891
 20
-14.0727324074
 10
-7.714550315
 20
-13.8920672398
 10
-7.701212649
 20
-13.7112865734
 10
-7.6757314638
 20
-13.5318762438
 10
-7.6387327149
 20
-13.3566020307
 10
-7.5906042189
 20
-13.1856290868
 10
-7.5320565351
 20
-13.0201488463
 10
-7.4653157312
 20
-12.8640642394
 10
-7.3921102356
 20
-12.7184386771
 10
-7.313277692
 20
-12.5824191835
 10
-7.2304052821
 20
-12.4565388227
 10
-7.1450351235
 20
-12.3410733798
 10
-7.057908067
 20
-12.2352158569
 10
-6.9692563829
 20
-12.1377878031
 10
-6.8798238829
 20
-12.0484443199
 10
-6.790372086
 20
-11.9668981394
 10
-6.7008475203
 20
-11.892191982
 10
-6.6116947842
 20
-11.82395663
 10
-6.5234789859
 20
-11.7619427765
 10
-6.436133446
 20
-11.705493436
 10
-6.3499765169
 20
-11.6542912784
 10
-6.2653851347
 20
-11.6080716564
 10
-6.1822666785
 20
-11.5663442585
 10
-6.1008613635
 20
-11.5288390856
 10
-6.0214079908
 20
-11.4952976
 10
-5.9437380612
 20
-11.4653202766
 10
-5.8680212518
 20
-11.4386769708
 10
-5.7944110728
 20
-11.4151404516
 10
-5.7226635903
 20
-11.3943851999
 10
-5.652891544
 20
-11.3762205438
 10
-5.5851948512
 20
-11.3604585086
 10
-5.5192750651
 20
-11.3468436499
 10
-5.455205275
 20
-11.3352239292
 10
-5.3930492641
 20
-11.3254496039
 10
-5.3324712492
 20
-11.3173298204
 10
-5.2735179616
 20
-11.3107480289
 10
-5.2162294584
 20
-11.3055892883
 10
-5.1602453867
 20
-11.3017210698
 10
-5.1054631673
 20
-11.2990537569
 10
-5.0520405103
 20
-11.2975127536
 10
-5.0
 20
-11.2970155541
  0
LWPOLYLINE
  5
262
100
AcDbEntity
  8
RACCORDO
100
AcDbPolyline
 62
250
  6
CONTINUOUS
 90
64
 70
0
 10
5.0
 20
-16.7010437464
 10
4.8142907115
 20
-16.6947366168
 10
4.63043084
 20
-16.6759395851
 10
4.4492365057
 20
-16.6449415283
 10
4.2718429603
 20
-16.6021896238
 10
4.0986245755
 20
-16.5480080061
 10
3.9292724632
 20
-16.4823588657
 10
3.7640972888
 20
-16.4052845648
 10
3.6043174799
 20
-16.3172645699
 10
3.451000663
 20
-16.2188530242
 10
3.3049324782
 20
-16.1106359605
 10
3.1665975204
 20
-15.9930514929
 10
3.0365468051
 20
-15.8665567864
 10
2.9153317542
 20
-15.7317267265
 10
2.8034871771
 20
-15.5891987836
 10
2.7015077538
 20
-15.4395696749
 10
2.6098390177
 20
-15.2835283997
 10
2.5288712091
 20
-15.1217903918
 10
2.4589673031
 20
-14.9550371144
 10
2.4004394119
 20
-14.7840432347
 10
2.3535278377
 20
-14.6095784582
 10
2.3184384096
 20
-14.4323460348
 10
2.2953330218
 20
-14.2531112452
 10
2.2843193109
 20
-14.0727324075
 10
2.285449685
 20
-13.8920672399
 10
2.298787351
 20
-13.7112865735
 10
2.3242685362
 20
-13.5318762439
 10
2.3612672851
 20
-13.3566020307
 10
2.4093957811
 20
-13.1856290869
 10
2.4679434649
 20
-13.0201488464
 10
2.5346842688
 20
-12.8640642394
 10
2.6078897643
 20
-12.7184386772
 10
2.686722308
 20
-12.5824191836
 10
2.7695947178
 20
-12.4565388227
 10
2.8549648765
 20
-12.3410733799
 10
2.9420919329
 20
-12.235215857
 10
3.030743617
 20
-12.1377878031
 10
3.1201761171
 20
-12.0484443199
 10
3.209627914
 20
-11.9668981394
 10
3.2991524796
 20
-11.8921919821
 10
3.3883052157
 20
-11.82395663
 10
3.4765210141
 20
-11.7619427765
 10
3.563866554
 20
-11.705493436
 10
3.6500234831
 20
-11.6542912784
 10
3.7346148652
 20
-11.6080716564
 10
3.8177333215
 20
-11.5663442586
 10
3.8991386365
 20
-11.5288390857
 10
3.9785920092
 20
-11.4952976
 10
4.0562619387
 20
-11.4653202766
 10
4.1319787481
 20
-11.4386769708
 10
4.2055889272
 20
-11.4151404516
 10
4.2773364097
 20
-11.3943851999
 10
4.347108456
 20
-11.3762205438
 10
4.4148051488
 20
-11.3604585086
 10
4.4807249349
 20
-11.3468436499
 10
4.544794725
 20
-11.3352239292
 10
4.6069507359
 20
-11.3254496039
 10
4.6675287508
 20
-11.3173298204
 10
4.7264820384
 20
-11.3107480289
 10
4.7837705416
 20
-11.3055892883
 10
4.8397546133
 20
-11.3017210698
 10
4.8945368327
 20
-11.2990537569
 10
4.9479594897
 20
-11.2975127536
 10
5.0
 20
-11.2970155541
  0
LWPOLYLINE
  5
263
100
AcDbEntity
  8
RACCORDO
100
AcDbPolyline
 62
250
  6
CONTINUOUS
 90
64
 70
0
 10
-5.0
 20
-16.8028759468
 10
-5.1939295104
 20
-16.7957459238
 10
-5.3843077524
 20
-16.7763387377
 10
-5.5711347262
 20
-16.7446543403
 10
-5.7548292908
 20
-16.7004782348
 10
-5.9349725871
 20
-16.6440247301
 10
-6.1103080375
 20
-16.5759369504
 10
-6.281266504
 20
-16.4959618175
 10
-6.4474171246
 20
-16.4043520675
 10
-6.6062107356
 20
-16.3025095404
 10
-6.7573960455
 20
-16.1903586334
 10
-6.9012243459
 20
-16.0679745296
 10
-7.0359003474
 20
-15.9369852851
 10
-7.161327174
 20
-15.7972741329
 10
-7.2776017018
 20
-15.6489574123
 10
-7.3832192706
 20
-15.4940129181
 10
-7.4780426948
 20
-15.3323549901
 10
-7.5622091599
 20
-15.1640689283
 10
-7.6346255623
 20
-14.991389085
 10
-7.6951391659
 20
-14.8142704532
 10
-7.7439027067
 20
-14.6327578053
 10
-7.7802812895
 20
-14.4492203072
 10
-7.8041117324
 20
-14.2635879661
 10
-7.8155572173
 20
-14.0759306941
 10
-7.8144723944
 20
-13.8888276739
 10
-7.8003789312
 20
-13.7016753487
 10
-7.7737551604
 20
-13.5150773499
 10
-7.7358907299
 20
-13.3334238575
 10
-7.6858299621
 20
-13.1565620117
 10
-7.6245285348
 20
-12.9846449996
 10
-7.5561431293
 20
-12.8225223238
 10
-7.4807061203
 20
-12.6716660111
 10
-7.3981851331
 20
-12.5306045616
 10
-7.3126397249
 20
-12.3997722971
 10
-7.2246944638
 20
-12.2799138978
 10
-7.1337247816
 20
-12.1702850907
 10
-7.0419165316
 20
-12.0690867186
 10
-6.9495776064
 20
-11.976266659
 10
-6.8564001132
 20
-11.8918772785
 10
-6.7636462273
 20
-11.8142760854
 10
-6.6714618654
 20
-11.7433514391
 10
-6.5797011108
 20
-11.6792151259
 10
-6.4891883888
 20
-11.6205597522
 10
-6.4000258868
 20
-11.5673115361
 10
-6.3121114175
 20
-11.519544346
 10
-6.2259628437
 20
-11.4761722382
 10
-6.1416713788
 20
-11.437141981
 10
-6.0591458095
 20
-11.4025068562
 10
-5.9786303589
 20
-11.3713406737
 10
-5.9001974173
 20
-11.3435919701
 10
-5.8237745944
 20
-11.3193122368
 10
-5.7493889428
 20
-11.2977297059
 10
-5.6770916899
 20
-11.278793321
 10
-5.6068316083
 20
-11.2625541532
 10
-5.5384820682
 20
-11.2483936205
 10
-5.4720778745
 20
-11.2362639676
 10
-5.4075842223
 20
-11.226212957
 10
-5.3447700679
 20
-11.2177652808
 10
-5.2836581193
 20
-11.2108778742
 10
-5.2242256684
 20
-11.2055938052
 10
-5.1661735478
 20
-11.2015669632
 10
-5.109402035
 20
-11.1986819783
 10
-5.0540108523
 20
-11.1970542214
 10
-5.0
 20
-11.196683693
  0
LWPOLYLINE
  5
264
100
AcDbEntity
  8
RACCORDO
100
AcDbPolyline
 62
250
  6
CONTINUOUS
 90
64
 70
0
 10
5.0
 20
-16.8028759468
 10
4.8060704896
 20
-16.7957459238
 10
4.6156922476
 20
-16.7763387377
 10
4.4288652738
 20
-16.7446543403
 10
4.2451707092
 20
-16.7004782348
 10
4.0650274129
 20
-16.6440247301
 10
3.8896919625
 20
-16.5759369504
 10
3.718733496
 20
-16.4959618175
 10
3.5525828754
 20
-16.4043520675
 10
3.3937892644
 20
-16.3025095405
 10
3.2426039545
 20
-16.1903586334
 10
3.0987756542
 20
-16.0679745296
 10
2.9640996526
 20
-15.9369852852
 10
2.838672826
 20
-15.7972741329
 10
2.7223982982
 20
-15.6489574123
 10
2.6167807294
 20
-15.4940129181
 10
2.5219573052
 20
-15.3323549901
 10
2.4377908401
 20
-15.1640689283
 10
2.3653744377
 20
-14.9913890851
 10
2.3048608341
 20
-14.8142704533
 10
2.2560972933
 20
-14.6327578054
 10
2.2197187105
 20
-14.4492203073
 10
2.1958882676
 20
-14.2635879662
 10
2.1844427828
 20
-14.0759306942
 10
2.1855276056
 20
-13.888827674
 10
2.1996210688
 20
-13.7016753487
 10
2.2262448396
 20
-13.51507735
 10
2.2641092701
 20
-13.3334238576
 10
2.3141700378
 20
-13.1565620118
 10
2.3754714652
 20
-12.9846449996
 10
2.4438568707
 20
-12.8225223239
 10
2.5192938797
 20
-12.6716660111
 10
2.6018148669
 20
-12.5306045616
 10
2.6873602751
 20
-12.3997722971
 10
2.7753055362
 20
-12.2799138978
 10
2.8662752183
 20
-12.1702850907
 10
2.9580834683
 20
-12.0690867186
 10
3.0504223936
 20
-11.9762666591
 10
3.1435998868
 20
-11.8918772785
 10
3.2363537726
 20
-11.8142760855
 10
3.3285381346
 20
-11.7433514391
 10
3.4202988892
 20
-11.6792151259
 10
3.5108116112
 20
-11.6205597522
 10
3.5999741131
 20
-11.5673115361
 10
3.6878885825
 20
-11.5195443461
 10
3.7740371562
 20
-11.4761722382
 10
3.8583286212
 20
-11.437141981
 10
3.9408541905
 20
-11.4025068562
 10
4.0213696411
 20
-11.3713406737
 10
4.0998025827
 20
-11.3435919701
 10
4.1762254056
 20
-11.3193122368
 10
4.2506110572
 20
-11.2977297059
 10
4.3229083101
 20
-11.278793321
 10
4.3931683917
 20
-11.2625541532
 10
4.4615179317
 20
-11.2483936205
 10
4.5279221255
 20
-11.2362639676
 10
4.5924157777
 20
-11.226212957
 10
4.655229932
 20
-11.2177652808
 10
4.7163418807
 20
-11.2108778742
 10
4.7757743316
 20
-11.2055938052
 10
4.8338264522
 20
-11.2015669632
 10
4.890597965
 20
-11.1986819783
 10
4.9459891476
 20
-11.1970542214
 10
5.0
 20
-11.196683693
  0
LINE
  5
265
100
AcDbEntity
  8
0
100
AcDbLine
 62
7
  6
CONTINUOUS
 10
-3.3
 20
22.4
 11
-3.2333672024
 21
22.5
  0
LINE
  5
266
100
AcDbEntity
  8
DRAFT
100
AcDbLine
 62
7
  6
CONTINUOUS
 10
6.5207340751
 20
-14.5
 11
6.4572564413
 21
-14.5
  0
LINE
  5
267
100
AcDbEntity
  8
SUPERFICI
100
AcDbLine
 62
7
  6
CONTINUOUS
 10
6.5207340751
 20
-14.5
 11
6.4572564413
 21
-14.5
  0
LINE
  5
268
100
AcDbEntity
  8
DRAFT
100
AcDbLine
 62
7
  6
CONTINUOUS
 10
-3.4792659249
 20
-14.5
 11
-3.5427435587
 21
-14.5
  0
LINE
  5
269
100
AcDbEntity
  8
SUPERFICI
100
AcDbLine
 62
7
  6
CONTINUOUS
 10
-3.4792659249
 20
-14.5
 11
-3.5427435587
 21
-14.5
  0
LINE
  5
26A
100
AcDbEntity
  8
RACCORDO
100
AcDbLine
 62
7
  6
CONTINUOUS
 10
-6.4651323357
 20
-14.35
 11
-3.5348676643
 21
-14.35
  0
LINE
  5
26B
100
AcDbEntity
  8
SUPERFICI
100
AcDbLine
 62
7
  6
CONTINUOUS
 10
-6.4651323357
 20
-14.35
 11
-3.5348676643
 21
-14.35
  0
LINE
  5
26C
100
AcDbEntity
  8
RACCORDO
100
AcDbLine
 62
7
  6
CONTINUOUS
 10
3.5348676643
 20
-14.35
 11
6.4651323357
 21
-14.35
  0
LINE
  5
26D
100
AcDbEntity
  8
SUPERFICI
100
AcDbLine
 62
7
  6
CONTINUOUS
 10
3.5348676643
 20
-14.35
 11
6.4651323357
 21
-14.35
  0
LINE
  5
26E
100
AcDbEntity
  8
RACCORDO
100
AcDbLine
 62
7
  6
CONTINUOUS
 10
6.4651323357
 20
-13.65
 11
3.5348676643
 21
-13.65
  0
LINE
  5
26F
100
AcDbEntity
  8
SUPERFICI
100
AcDbLine
 62
7
  6
CONTINUOUS
 10
6.4651323357
 20
-13.65
 11
3.5348676643
 21
-13.65
  0
LINE
  5
270
100
AcDbEntity
  8
RACCORDO
100
AcDbLine
 62
7
  6
CONTINUOUS
 10
-3.5348676643
 20
-13.65
 11
-6.4651323357
 21
-13.65
  0
LINE
  5
271
100
AcDbEntity
  8
SUPERFICI
100
AcDbLine
 62
7
  6
CONTINUOUS
 10
-3.5348676643
 20
-13.65
 11
-6.4651323357
 21
-13.65
  0
LINE
  5
272
100
AcDbEntity
  8
0
100
AcDbLine
 62
7
  6
CONTINUOUS
 10
-3.2333672024
 20
-22.5
 11
-3.3
 21
-22.4
  0
LWPOLYLINE
  5
273
100
AcDbEntity
  8
RACCORDO
100
AcDbPolyline
 62
250
  6
CONTINUOUS
 90
10
 70
0
 10
-9.2936660426
 20
9.3
 10
-9.3339796127
 20
9.2565628399
 10
-9.370189133
 20
9.2100119125
 10
-9.4022946035
 20
9.1603472021
 10
-9.4306198162
 20
9.107325995
 10
-9.454840979
 20
9.0511909699
 10
-9.4739867165
 20
8.9926702033
 10
-9.4877332365
 20
8.9320063796
 10
-9.496404331
 20
8.8689567863
 10
-9.5
 20
8.8035214086
  0
LWPOLYLINE
  5
274
100
AcDbEntity
  8
RACCORDO
100
AcDbPolyline
 62
250
  6
CONTINUOUS
 90
10
 70
0
 10
-9.046369298
 20
8.9886769903
 10
-9.0787397753
 20
8.9637917207
 10
-9.1082155376
 20
8.9371549573
 10
-9.1344570894
 20
8.9087765425
 10
-9.1571313038
 20
8.8783850042
 10
-9.1760245475
 20
8.8463563957
 10
-9.1910116877
 20
8.8135830657
 10
-9.2019396601
 20
8.7802880134
 10
-9.2086841342
 20
8.7461841606
 10
-9.2112424309
 20
8.7113185833
  0
LWPOLYLINE
  5
275
100
AcDbEntity
  8
RACCORDO
100
AcDbPolyline
 62
250
  6
CONTINUOUS
 90
49
 70
0
 10
5.0
 20
-12.3040791025
 10
4.8810422857
 20
-12.3082510925
 10
4.7604398187
 20
-12.3210360823
 10
4.6388469587
 20
-12.3428538735
 10
4.5162291823
 20
-12.3743035335
 10
4.3941617714
 20
-12.415598866
 10
4.275637138
 20
-12.4659893878
 10
4.1620035731
 20
-12.524776985
 10
4.0531525264
 20
-12.5919038525
 10
3.9496855867
 20
-12.6669975419
 10
3.8521684846
 20
-12.7496298241
 10
3.7611431291
 20
-12.8393283801
 10
3.6771294951
 20
-12.9355902801
 10
3.60058418
 20
-13.0378728986
 10
3.5319309197
 20
-13.1455947049
 10
3.4715764026
 20
-13.2581353156
 10
3.4198518064
 20
-13.3748369416
 10
3.377022957
 20
-13.4950593077
 10
3.3433326195
 20
-13.6181669166
 10
3.3189598636
 20
-13.7434892385
 10
3.3040428981
 20
-13.8703012688
 10
3.298687876
 20
-13.9978599251
 10
3.3029167241
 20
-14.1255125412
 10
3.3166981241
 20
-14.2524748017
 10
3.3399184907
 20
-14.3778011487
 10
3.3726226856
 20
-14.5015764939
 10
3.4144404905
 20
-14.622310151
 10
3.4639373232
 20
-14.7369089161
 10
3.5200749082
 20
-14.8446941723
 10
3.5821181747
 20
-14.9457301167
 10
3.6482408224
 20
-15.0385416951
 10
3.7169568858
 20
-15.1227391186
 10
3.7876506633
 20
-15.1990750937
 10
3.8596672738
 20
-15.2680602891
 10
3.9320317601
 20
-15.3298357479
 10
4.0042186806
 20
-15.384930988
 10
4.07650814
 20
-15.4343367083
 10
4.1483089168
 20
-15.4782664091
 10
4.2192954796
 20
-15.5170923423
 10
4.2904254336
 20
-15.5517576075
 10
4.3610100344
 20
-15.5822406313
 10
4.4312128903
 20
-15.6089028064
 10
4.5035372437
 20
-15.6327467278
 10
4.5781189254
 20
-15.6536589952
 10
4.6546084537
 20
-15.6713711826
 10
4.7349593563
 20
-15.6860236988
 10
4.8197641958
 20
-15.6972122797
 10
4.9081787404
 20
-15.7043043428
 10
5.0
 20
-15.7067954501
  0
LWPOLYLINE
  5
276
100
AcDbEntity
  8
RACCORDO
100
AcDbPolyline
 62
250
  6
CONTINUOUS
 90
49
 70
0
 10
-5.0
 20
-12.3040791025
 10
-5.1189577143
 20
-12.3082510925
 10
-5.2395601813
 20
-12.3210360823
 10
-5.3611530413
 20
-12.3428538735
 10
-5.4837708177
 20
-12.3743035335
 10
-5.6058382286
 20
-12.415598866
 10
-5.724362862
 20
-12.4659893878
 10
-5.8379964269
 20
-12.524776985
 10
-5.9468474736
 20
-12.5919038525
 10
-6.0503144133
 20
-12.6669975419
 10
-6.1478315154
 20
-12.7496298241
 10
-6.2388568709
 20
-12.8393283801
 10
-6.3228705049
 20
-12.9355902801
 10
-6.39941582
 20
-13.0378728986
 10
-6.4680690803
 20
-13.1455947049
 10
-6.5284235974
 20
-13.2581353156
 10
-6.5801481936
 20
-13.3748369416
 10
-6.622977043
 20
-13.4950593077
 10
-6.6566673805
 20
-13.6181669166
 10
-6.6810401364
 20
-13.7434892385
 10
-6.6959571019
 20
-13.8703012688
 10
-6.701312124
 20
-13.9978599251
 10
-6.6970832759
 20
-14.1255125412
 10
-6.6833018759
 20
-14.2524748017
 10
-6.6600815093
 20
-14.3778011487
 10
-6.6273773144
 20
-14.5015764939
 10
-6.5855595095
 20
-14.622310151
 10
-6.5360626768
 20
-14.7369089161
 10
-6.4799250918
 20
-14.8446941723
 10
-6.4178818253
 20
-14.9457301167
 10
-6.3517591776
 20
-15.0385416951
 10
-6.2830431142
 20
-15.1227391186
 10
-6.2123493367
 20
-15.1990750937
 10
-6.1403327262
 20
-15.2680602891
 10
-6.0679682399
 20
-15.3298357479
 10
-5.9957813194
 20
-15.384930988
 10
-5.92349186
 20
-15.4343367083
 10
-5.8516910832
 20
-15.4782664091
 10
-5.7807045204
 20
-15.5170923423
 10
-5.7095745664
 20
-15.5517576075
 10
-5.6389899656
 20
-15.5822406313
 10
-5.5687871097
 20
-15.6089028064
 10
-5.4964627563
 20
-15.6327467278
 10
-5.4218810746
 20
-15.6536589952
 10
-5.3453915463
 20
-15.6713711826
 10
-5.2650406437
 20
-15.6860236988
 10
-5.1802358042
 20
-15.6972122797
 10
-5.0918212596
 20
-15.7043043428
 10
-5.0
 20
-15.7067954501
  0
LWPOLYLINE
  5
277
100
AcDbEntity
  8
RACCORDO
100
AcDbPolyline
 62
7
  6
CONTINUOUS
 90
49
 70
0
 10
5.0
 20
-12.3992438944
 10
4.8879680698
 20
-12.4031678489
 10
4.7743722072
 20
-12.415219078
 10
4.6598386283
 20
-12.4357898002
 10
4.5443519162
 20
-12.4654369749
 10
4.4293960905
 20
-12.5043543146
 10
4.3177747294
 20
-12.5518394015
 10
4.2107678634
 20
-12.6072407058
 10
4.1082816016
 20
-12.6704966673
 10
4.0108664888
 20
-12.7412549787
 10
3.9190638781
 20
-12.8191134645
 10
3.8333923856
 20
-12.9036229282
 10
3.7543247737
 20
-12.9943082221
 10
3.682298983
 20
-13.0906594751
 10
3.6177216044
 20
-13.192124608
 10
3.56095771
 20
-13.298118166
 10
3.5123265554
 20
-13.4080221599
 10
3.4720854614
 20
-13.5212297191
 10
3.440444311
 20
-13.6371419042
 10
3.4175788288
 20
-13.7551291872
 10
3.4036258413
 20
-13.8745053603
 10
3.3986659551
 20
-13.9945711543
 10
3.4027268553
 20
-14.114715089
 10
3.4157858873
 20
-14.2341954432
 10
3.437716549
 20
-14.3521227967
 10
3.4685678306
 20
-14.4685848314
 10
3.507999269
 20
-14.5821714652
 10
3.55464116
 20
-14.6899667288
 10
3.6075206775
 20
-14.7913507866
 10
3.6659572875
 20
-14.8863837449
 10
3.7282179178
 20
-14.973662647
 10
3.7929061706
 20
-15.0528370236
 10
3.8594537113
 20
-15.1246240756
 10
3.9272354276
 20
-15.1894861947
 10
3.9953349755
 20
-15.2475646433
 10
4.0632660214
 20
-15.2993687578
 10
4.1312864914
 20
-15.3458160879
 10
4.1988411576
 20
-15.3871110636
 10
4.2656289457
 20
-15.4236131009
 10
4.3325467525
 20
-15.4562003051
 10
4.3989480898
 20
-15.4848513482
 10
4.4649898583
 20
-15.5099140303
 10
4.5330232902
 20
-15.5323298939
 10
4.6031785955
 20
-15.5519851836
 10
4.6751284099
 20
-15.5686310555
 10
4.7507061033
 20
-15.5824074144
 10
4.8304701684
 20
-15.5929318504
 10
4.913631161
 20
-15.599600035
 10
5.0
 20
-15.6019311737
  0
LWPOLYLINE
  5
278
100
AcDbEntity
  8
RACCORDO
100
AcDbPolyline
 62
7
  6
CONTINUOUS
 90
49
 70
0
 10
-5.0
 20
-12.3992438944
 10
-5.1120319302
 20
-12.4031678489
 10
-5.2256277928
 20
-12.415219078
 10
-5.3401613717
 20
-12.4357898002
 10
-5.4556480838
 20
-12.4654369749
 10
-5.5706039095
 20
-12.5043543146
 10
-5.6822252706
 20
-12.5518394015
 10
-5.7892321366
 20
-12.6072407058
 10
-5.8917183984
 20
-12.6704966673
 10
-5.9891335112
 20
-12.7412549787
 10
-6.0809361219
 20
-12.8191134645
 10
-6.1666076144
 20
-12.9036229282
 10
-6.2456752263
 20
-12.9943082221
 10
-6.317701017
 20
-13.0906594751
 10
-6.3822783956
 20
-13.192124608
 10
-6.43904229
 20
-13.298118166
 10
-6.4876734446
 20
-13.4080221599
 10
-6.5279145386
 20
-13.5212297191
 10
-6.559555689
 20
-13.6371419042
 10
-6.5824211712
 20
-13.7551291872
 10
-6.5963741587
 20
-13.8745053603
 10
-6.6013340449
 20
-13.9945711543
 10
-6.5972731447
 20
-14.114715089
 10
-6.5842141127
 20
-14.2341954432
 10
-6.562283451
 20
-14.3521227967
 10
-6.5314321694
 20
-14.4685848314
 10
-6.492000731
 20
-14.5821714652
 10
-6.44535884
 20
-14.6899667288
 10
-6.3924793225
 20
-14.7913507866
 10
-6.3340427125
 20
-14.8863837449
 10
-6.2717820822
 20
-14.973662647
 10
-6.2070938294
 20
-15.0528370236
 10
-6.1405462887
 20
-15.1246240756
 10
-6.0727645724
 20
-15.1894861947
 10
-6.0046650245
 20
-15.2475646433
 10
-5.9367339786
 20
-15.2993687578
 10
-5.8687135086
 20
-15.3458160879
 10
-5.8011588424
 20
-15.3871110636
 10
-5.7343710543
 20
-15.4236131009
 10
-5.6674532475
 20
-15.4562003051
 10
-5.6010519102
 20
-15.4848513482
 10
-5.5350101417
 20
-15.5099140303
 10
-5.4669767098
 20
-15.5323298939
 10
-5.3968214045
 20
-15.5519851836
 10
-5.3248715901
 20
-15.5686310555
 10
-5.2492938967
 20
-15.5824074144
 10
-5.1695298316
 20
-15.5929318504
 10
-5.086368839
 20
-15.599600035
 10
-5.0
 20
-15.6019311737
  0
LINE
  5
279
100
AcDbEntity
  8
DRAFT
100
AcDbLine
 62
7
  6
CONTINUOUS
 10
6.5201343766
 20
-13.5
 11
6.4572564413
 21
-13.5
  0
LINE
  5
27A
100
AcDbEntity
  8
SUPERFICI
100
AcDbLine
 62
7
  6
CONTINUOUS
 10
6.5201343766
 20
-13.5
 11
6.4572564413
 21
-13.5
  0
LINE
  5
27B
100
AcDbEntity
  8
DRAFT
100
AcDbLine
 62
7
  6
CONTINUOUS
 10
-3.4798656234
 20
-13.5
 11
-3.5427435587
 21
-13.5
  0
LINE
  5
27C
100
AcDbEntity
  8
SUPERFICI
100
AcDbLine
 62
7
  6
CONTINUOUS
 10
-3.4798656234
 20
-13.5
 11
-3.5427435587
 21
-13.5
  0
LINE
  5
27D
100
AcDbEntity
  8
0
100
AcDbLine
 62
250
  6
CONTINUOUS
 10
-11.0046585314
 20
21.403981807
 11
-11.0034984168
 21
21.3558303735
  0
LINE
  5
27E
100
AcDbEntity
  8
0
100
AcDbLine
 62
250
  6
CONTINUOUS
 10
-11.0034984168
 20
21.3558303735
 11
-11.002494253
 21
21.2976924869
  0
LINE
  5
27F
100
AcDbEntity
  8
0
100
AcDbLine
 62
250
  6
CONTINUOUS
 10
-11.002494253
 20
21.2976924869
 11
-11.0013282574
 21
21.1946238913
  0
LINE
  5
280
100
AcDbEntity
  8
0
100
AcDbLine
 62
250
  6
CONTINUOUS
 10
-10.5047336849
 20
21.8316424864
 11
-10.5030519635
 21
21.6797292088
  0
LINE
  5
281
100
AcDbEntity
  8
0
100
AcDbLine
 62
250
  6
CONTINUOUS
 10
-10.5030519635
 20
21.6797292088
 11
-10.5014061262
 21
21.4132060252
  0
LINE
  5
282
100
AcDbEntity
  8
0
100
AcDbLine
 62
250
  6
CONTINUOUS
 10
-11.0013282574
 20
21.1946238913
 11
-11.0006365685
 21
21.0787402824
  0
LWPOLYLINE
  5
283
100
AcDbEntity
  8
0
100
AcDbPolyline
 62
250
  6
CONTINUOUS
 90
9
 70
0
 10
-11.0006365685
 20
21.0787402824
 10
-10.9974142958
 20
16.3324664701
 10
-10.9951308352
 20
11.6670185434
 10
-10.9936085283
 20
7.0009521365
 10
-10.9928473752
 20
2.3338547134
 10
-10.9928473758
 20
-2.3338611899
 10
-10.9936085296
 20
-7.0009579653
 10
-10.9951308365
 20
-11.667023077
 10
-10.9974142967
 20
-16.3324690607
  0
LWPOLYLINE
  5
284
100
AcDbEntity
  8
0
100
AcDbPolyline
 62
250
  6
CONTINUOUS
 90
9
 70
0
 10
-10.5005350625
 20
21.0183142309
 10
-10.4974904462
 20
16.3494810548
 10
-10.495206984
 20
11.6792204147
 10
-10.4936846758
 20
7.0079400892
 10
-10.4929235217
 20
2.3360479955
 10
-10.4929235216
 20
-2.3360479943
 10
-10.4936846757
 20
-7.0079400882
 10
-10.4952069839
 20
-11.6792204138
 10
-10.4974904462
 20
-16.3494810544
  0
LINE
  5
285
100
AcDbEntity
  8
0
100
AcDbLine
 62
250
  6
CONTINUOUS
 10
-10.5014061262
 20
21.4132060252
 11
-10.5005350625
 21
21.0183142309
  0
LINE
  5
286
100
AcDbEntity
  8
ASSI
100
AcDbLine
 62
7
  6
CONTINUOUS
 10
-11.15
 20
16.119659166
 11
-11.15
 21
-16.119659166
  0
LINE
  5
287
100
AcDbEntity
  8
0
100
AcDbLine
 62
7
  6
CONTINUOUS
 10
-11.15
 20
-21.8997711479
 11
-11.15
 21
21.8997711479
  0
LINE
  5
288
100
AcDbEntity
  8
0
100
AcDbLine
 62
250
  6
CONTINUOUS
 10
-10.4974904462
 20
-16.3494810544
 11
-10.5011186198
 21
-21.3380251343
  0
LINE
  5
289
100
AcDbEntity
  8
0
100
AcDbLine
 62
250
  6
CONTINUOUS
 10
-10.9974142967
 20
-16.3324690607
 11
-11.0008096574
 21
-21.1180991804
  0
LINE
  5
28A
100
AcDbEntity
  8
0
100
AcDbLine
 62
250
  6
CONTINUOUS
 10
-10.5011186198
 20
-21.3380251343
 11
-10.5025715154
 21
-21.6191453064
  0
LINE
  5
28B
100
AcDbEntity
  8
0
100
AcDbLine
 62
250
  6
CONTINUOUS
 10
-11.0008096574
 20
-21.1180991804
 11
-11.0016659628
 21
-21.2307227352
  0
LWPOLYLINE
  5
28C
100
AcDbEntity
  8
0
100
AcDbPolyline
 62
250
  6
CONTINUOUS
 90
3
 70
0
 10
-10.5025715154
 20
-21.6191453064
 10
-10.5041390272
 20
-21.786331002
 10
-10.5047336849
 20
-21.8316424864
  0
LINE
  5
28D
100
AcDbEntity
  8
0
100
AcDbLine
 62
250
  6
CONTINUOUS
 10
-11.0016659628
 20
-21.2307227352
 11
-11.002494253
 21
-21.297692487
  0
LINE
  5
28E
100
AcDbEntity
  8
0
100
AcDbLine
 62
250
  6
CONTINUOUS
 10
-11.002494253
 20
-21.297692487
 11
-11.0034984168
 21
-21.3558303734
  0
LWPOLYLINE
  5
28F
100
AcDbEntity
  8
0
100
AcDbPolyline
 62
250
  6
CONTINUOUS
 90
8
 70
0
 10
-11.0034984168
 20
-21.3558303734
 10
-11.0046585314
 20
-21.4039818068
 10
-11.0052850488
 20
-21.4237085483
 10
-11.0059419622
 20
-21.4405716188
 10
-11.0066154888
 20
-21.4542260345
 10
-11.0073010341
 20
-21.464556801
 10
-11.0080031927
 20
-21.4716789127
 10
-11.0087219643
 20
-21.4755923698
  0
LINE
  5
290
100
AcDbEntity
  8
COPY-PUBBLISH
100
AcDbLine
 62
7
  6
CONTINUOUS
 10
-5.6716793246
 20
9.3
 11
-5.7131041086
 21
9.258575216
  0
LWPOLYLINE
  5
291
100
AcDbEntity
  8
RACCORDO
100
AcDbPolyline
 62
250
  6
CONTINUOUS
 90
64
 70
0
 10
-5.0
 20
-11.2970155541
 10
-4.8142907115
 20
-11.3033251385
 10
-4.63043084
 20
-11.3221282032
 10
-4.4492365057
 20
-11.3531358709
 10
-4.2718429603
 20
-11.3959012518
 10
-4.0986245755
 20
-11.450099924
 10
-3.9292724632
 20
-11.5157688346
 10
-3.7640972888
 20
-11.5928657918
 10
-3.6043174799
 20
-11.6809111588
 10
-3.4510006629
 20
-11.7793494195
 10
-3.3049324782
 20
-11.887594593
 10
-3.1665975203
 20
-12.0052085134
 10
-3.0365468051
 20
-12.1317324867
 10
-2.9153317542
 20
-12.2665916177
 10
-2.8034871771
 20
-12.4091484458
 10
-2.7015077538
 20
-12.5588047547
 10
-2.6098390177
 20
-12.7148714552
 10
-2.5288712091
 20
-12.8766332033
 10
-2.4589673031
 20
-13.0434073061
 10
-2.4004394119
 20
-13.2144189428
 10
-2.3535278377
 20
-13.3888985616
 10
-2.3184384096
 20
-13.5661421444
 10
-2.2953330218
 20
-13.7453842163
 10
-2.2843193109
 20
-13.9257666533
 10
-2.285449685
 20
-14.1064315523
 10
-2.298787351
 20
-14.2872077896
 10
-2.3242685362
 20
-14.4666098222
 10
-2.3612672851
 20
-14.6418725631
 10
-2.4093957811
 20
-14.8128305134
 10
-2.4679434649
 20
-14.9782925853
 10
-2.5346842688
 20
-15.1343575789
 10
-2.6078897644
 20
-15.2799621648
 10
-2.686722308
 20
-15.4159592374
 10
-2.7695947179
 20
-15.5418172184
 10
-2.8549648765
 20
-15.6572605852
 10
-2.942091933
 20
-15.7630960731
 10
-3.0307436171
 20
-15.8605028311
 10
-3.1201761171
 20
-15.9498258951
 10
-3.209627914
 20
-16.0313523956
 10
-3.2991524797
 20
-16.1060398974
 10
-3.3883052158
 20
-16.1742576893
 10
-3.4765210141
 20
-16.2362550072
 10
-3.563866554
 20
-16.29268891
 10
-3.6500234831
 20
-16.3438767696
 10
-3.7346148653
 20
-16.3900831914
 10
-3.8177333215
 20
-16.4317984335
 10
-3.8991386365
 20
-16.4692925191
 10
-3.9785920092
 20
-16.502823962
 10
-4.0562619388
 20
-16.5327921619
 10
-4.1319787482
 20
-16.5594272727
 10
-4.2055889272
 20
-16.582956516
 10
-4.2773364097
 20
-16.6037052596
 10
-4.347108456
 20
-16.6218641738
 10
-4.4148051488
 20
-16.6376212347
 10
-4.4807249349
 20
-16.651231739
 10
-4.544794725
 20
-16.662847718
 10
-4.6069507359
 20
-16.6726189214
 10
-4.6675287508
 20
-16.6807360753
 10
-4.7264820384
 20
-16.6873157201
 10
-4.7837705416
 20
-16.6924728063
 10
-4.8397546133
 20
-16.6963397628
 10
-4.8945368327
 20
-16.6990061727
 10
-4.9479594897
 20
-16.7005466653
 10
-5.0
 20
-16.7010437464
  0
LWPOLYLINE
  5
292
100
AcDbEntity
  8
RACCORDO
100
AcDbPolyline
 62
250
  6
CONTINUOUS
 90
64
 70
0
 10
5.0
 20
-11.2970155541
 10
5.1857092885
 20
-11.3033251385
 10
5.36956916
 20
-11.3221282032
 10
5.5507634943
 20
-11.3531358709
 10
5.7281570397
 20
-11.3959012518
 10
5.9013754245
 20
-11.450099924
 10
6.0707275368
 20
-11.5157688346
 10
6.2359027112
 20
-11.5928657918
 10
6.3956825201
 20
-11.6809111588
 10
6.548999337
 20
-11.7793494195
 10
6.6950675217
 20
-11.887594593
 10
6.8334024796
 20
-12.0052085134
 10
6.9634531949
 20
-12.1317324867
 10
7.0846682458
 20
-12.2665916177
 10
7.1965128229
 20
-12.4091484458
 10
7.2984922461
 20
-12.5588047546
 10
7.3901609823
 20
-12.7148714551
 10
7.4711287909
 20
-12.8766332032
 10
7.5410326969
 20
-13.043407306
 10
7.5995605881
 20
-13.2144189428
 10
7.6464721623
 20
-13.3888985615
 10
7.6815615904
 20
-13.5661421443
 10
7.7046669782
 20
-13.7453842161
 10
7.7156806891
 20
-13.9257666532
 10
7.714550315
 20
-14.1064315522
 10
7.701212649
 20
-14.2872077895
 10
7.6757314638
 20
-14.4666098221
 10
7.6387327149
 20
-14.6418725629
 10
7.590604219
 20
-14.8128305133
 10
7.5320565351
 20
-14.9782925852
 10
7.4653157312
 20
-15.1343575788
 10
7.3921102357
 20
-15.2799621647
 10
7.313277692
 20
-15.4159592373
 10
7.2304052822
 20
-15.5418172183
 10
7.1450351235
 20
-15.6572605851
 10
7.0579080671
 20
-15.7630960731
 10
6.969256383
 20
-15.8605028311
 10
6.879823883
 20
-15.9498258951
 10
6.790372086
 20
-16.0313523955
 10
6.7008475204
 20
-16.1060398973
 10
6.6116947843
 20
-16.1742576892
 10
6.523478986
 20
-16.2362550072
 10
6.436133446
 20
-16.2926889099
 10
6.349976517
 20
-16.3438767696
 10
6.2653851348
 20
-16.3900831913
 10
6.1822666786
 20
-16.4317984335
 10
6.1008613636
 20
-16.4692925191
 10
6.0214079908
 20
-16.5028239619
 10
5.9437380613
 20
-16.5327921619
 10
5.8680212519
 20
-16.5594272726
 10
5.7944110728
 20
-16.582956516
 10
5.7226635904
 20
-16.6037052596
 10
5.652891544
 20
-16.6218641738
 10
5.5851948512
 20
-16.6376212347
 10
5.5192750651
 20
-16.651231739
 10
5.455205275
 20
-16.662847718
 10
5.3930492641
 20
-16.6726189214
 10
5.3324712492
 20
-16.6807360753
 10
5.2735179616
 20
-16.6873157201
 10
5.2162294584
 20
-16.6924728063
 10
5.1602453867
 20
-16.6963397628
 10
5.1054631673
 20
-16.6990061727
 10
5.0520405103
 20
-16.7005466653
 10
5.0
 20
-16.7010437464
  0
LWPOLYLINE
  5
293
100
AcDbEntity
  8
RACCORDO
100
AcDbPolyline
 62
250
  6
CONTINUOUS
 90
64
 70
0
 10
-5.0
 20
-11.196683693
 10
-4.8060704896
 20
-11.2038159537
 10
-4.6156922476
 20
-11.2232292019
 10
-4.4288652738
 20
-11.2549234054
 10
-4.2451707092
 20
-11.2991129953
 10
-4.0650274129
 20
-11.3555834134
 10
-3.8896919625
 20
-11.4236911166
 10
-3.718733496
 20
-11.5036889875
 10
-3.5525828754
 20
-11.595323902
 10
-3.3937892644
 20
-11.6971932999
 10
-3.2426039544
 20
-11.8093724519
 10
-3.0987756541
 20
-11.9317857687
 10
-2.9640996525
 20
-12.0628044193
 10
-2.838672826
 20
-12.2025448155
 10
-2.7223982982
 20
-12.3508901863
 10
-2.6167807294
 20
-12.5058619769
 10
-2.5219573052
 20
-12.6675455148
 10
-2.4377908401
 20
-12.835855124
 10
-2.3653744377
 20
-13.008555829
 10
-2.3048608341
 20
-13.1856923859
 10
-2.2560972933
 20
-13.3672197549
 10
-2.2197187105
 20
-13.5507683829
 10
-2.1958882676
 20
-13.73640814
 10
-2.1844427827
 20
-13.9240689828
 10
-2.1855276056
 20
-14.1111716334
 10
-2.1996210688
 20
-14.2983196636
 10
-2.2262448396
 20
-14.4849094717
 10
-2.2641092701
 20
-14.6665512417
 10
-2.3141700379
 20
-14.8433981212
 10
-2.3754714652
 20
-15.0152972254
 10
-2.4438568707
 20
-15.1773999789
 10
-2.5192938797
 20
-15.3282351082
 10
-2.6018148669
 20
-15.4692744424
 10
-2.6873602751
 20
-15.6000842021
 10
-2.7753055362
 20
-15.7199203007
 10
-2.8662752184
 20
-15.8295273008
 10
-2.9580834684
 20
-15.9307043476
 10
-3.0504223936
 20
-16.0235038383
 10
-3.1435998868
 20
-16.1078736804
 10
-3.2363537727
 20
-16.1854562024
 10
-3.3285381346
 20
-16.2563631938
 10
-3.4202988892
 20
-16.3204830567
 10
-3.5108116112
 20
-16.3791229823
 10
-3.5999741132
 20
-16.4323568407
 10
-3.6878885825
 20
-16.4801108804
 10
-3.7740371563
 20
-16.5234708266
 10
-3.8583286212
 20
-16.5624899594
 10
-3.9408541905
 20
-16.5971150695
 10
-4.0213696411
 20
-16.6282721255
 10
-4.0998025827
 20
-16.6560126117
 10
-4.1762254056
 20
-16.6802850842
 10
-4.2506110572
 20
-16.7018611054
 10
-4.3229083101
 20
-16.7207917358
 10
-4.3931683917
 20
-16.7370259366
 10
-4.4615179318
 20
-16.7511821141
 10
-4.5279221255
 20
-16.7633080186
 10
-4.5924157777
 20
-16.7733559105
 10
-4.6552299321
 20
-16.7818009569
 10
-4.7163418807
 20
-16.7886862134
 10
-4.7757743316
 20
-16.7939686293
 10
-4.8338264522
 20
-16.7979942094
 10
-4.890597965
 20
-16.8008782891
 10
-4.9459891476
 20
-16.8025055348
 10
-5.0
 20
-16.8028759468
  0
LWPOLYLINE
  5
294
100
AcDbEntity
  8
RACCORDO
100
AcDbPolyline
 62
250
  6
CONTINUOUS
 90
64
 70
0
 10
5.0
 20
-11.196683693
 10
5.1939295104
 20
-11.2038159537
 10
5.3843077524
 20
-11.2232292019
 10
5.5711347262
 20
-11.2549234054
 10
5.7548292908
 20
-11.2991129953
 10
5.9349725871
 20
-11.3555834134
 10
6.1103080374
 20
-11.4236911166
 10
6.281266504
 20
-11.5036889875
 10
6.4474171246
 20
-11.595323902
 10
6.6062107356
 20
-11.6971932999
 10
6.7573960455
 20
-11.8093724519
 10
6.9012243458
 20
-11.9317857687
 10
7.0359003474
 20
-12.0628044193
 10
7.161327174
 20
-12.2025448154
 10
7.2776017018
 20
-12.3508901863
 10
7.3832192706
 20
-12.5058619769
 10
7.4780426947
 20
-12.6675455147
 10
7.5622091599
 20
-12.8358551239
 10
7.6346255623
 20
-13.0085558289
 10
7.6951391658
 20
-13.1856923858
 10
7.7439027067
 20
-13.3672197548
 10
7.7802812895
 20
-13.5507683828
 10
7.8041117324
 20
-13.7364081399
 10
7.8155572172
 20
-13.9240689827
 10
7.8144723944
 20
-14.1111716333
 10
7.8003789313
 20
-14.2983196635
 10
7.7737551604
 20
-14.4849094716
 10
7.7358907299
 20
-14.6665512416
 10
7.6858299622
 20
-14.843398121
 10
7.6245285349
 20
-15.0152972253
 10
7.5561431293
 20
-15.1773999788
 10
7.4807061203
 20
-15.3282351081
 10
7.3981851331
 20
-15.4692744422
 10
7.312639725
 20
-15.600084202
 10
7.2246944638
 20
-15.7199203007
 10
7.1337247817
 20
-15.8295273008
 10
7.0419165317
 20
-15.9307043475
 10
6.9495776064
 20
-16.0235038382
 10
6.8564001133
 20
-16.1078736803
 10
6.7636462274
 20
-16.1854562023
 10
6.6714618655
 20
-16.2563631938
 10
6.5797011108
 20
-16.3204830566
 10
6.4891883888
 20
-16.3791229823
 10
6.4000258869
 20
-16.4323568406
 10
6.3121114175
 20
-16.4801108804
 10
6.2259628438
 20
-16.5234708266
 10
6.1416713789
 20
-16.5624899594
 10
6.0591458095
 20
-16.5971150695
 10
5.978630359
 20
-16.6282721255
 10
5.9001974173
 20
-16.6560126117
 10
5.8237745944
 20
-16.6802850842
 10
5.7493889428
 20
-16.7018611054
 10
5.6770916899
 20
-16.7207917358
 10
5.6068316083
 20
-16.7370259366
 10
5.5384820683
 20
-16.7511821141
 10
5.4720778745
 20
-16.7633080186
 10
5.4075842223
 20
-16.7733559105
 10
5.344770068
 20
-16.7818009569
 10
5.2836581193
 20
-16.7886862134
 10
5.2242256684
 20
-16.7939686293
 10
5.1661735478
 20
-16.7979942094
 10
5.109402035
 20
-16.8008782891
 10
5.0540108524
 20
-16.8025055348
 10
5.0
 20
-16.8028759468
  0
LWPOLYLINE
  5
295
100
AcDbEntity
  8
RACCORDO
100
AcDbPolyline
 62
7
  6
CONTINUOUS
 90
46
 70
0
 10
-8.9931461607
 20
-6.6176940627
 10
-8.6866384558
 20
-6.9480722882
 10
-8.3687159175
 20
-7.266210987
 10
-8.0393785458
 20
-7.5721103622
 10
-7.6980741485
 20
-7.8662520066
 10
-7.3453549178
 20
-8.1481547686
 10
-6.9828774305
 20
-8.4163747926
 10
-6.6106465336
 20
-8.6707858148
 10
-6.2286573801
 20
-8.9115146792
 10
-5.838552005
 20
-9.137497264
 10
-5.4403888149
 20
-9.3486334057
 10
-5.0341094032
 20
-9.5450238913
 10
-4.6211805848
 20
-9.7259060572
 10
-4.2014018945
 20
-9.8912793371
 10
-3.7749737976
 20
-10.0411448815
 10
-3.3439645044
 20
-10.1747426075
 10
-2.9085907855
 20
-10.2919439631
 10
-2.4686358703
 20
-10.3928779832
 10
-2.0255176576
 20
-10.4771709446
 10
-1.5789137586
 20
-10.5447987441
 10
-1.1291465621
 20
-10.5957857988
 10
-0.6786011325
 20
-10.6298311237
 10
-0.2275885961
 20
-10.6468401984
 10
0.2242021733
 20
-10.6469076535
 10
0.6753194899
 20
-10.6300161791
 10
1.1261029128
 20
-10.5960634871
 10
1.5762128828
 20
-10.5451517556
 10
2.0231790365
 20
-10.4775703218
 10
2.4666659159
 20
-10.3932873363
 10
2.9070089789
 20
-10.292334334
 10
3.3427442355
 20
-10.1750956863
 10
3.7740821764
 20
-10.041438327
 10
4.200812311
 20
-9.8914948387
 10
4.6208391769
 20
-9.726048046
 10
5.0339484641
 20
-9.5451008199
 10
5.4403544827
 20
-9.3486497052
 10
5.8386047012
 20
-9.1374680436
 10
6.2287556737
 20
-8.9114583243
 10
6.6107508461
 20
-8.670717435
 10
6.9829680241
 20
-8.4163103494
 10
7.3454051122
 20
-8.1481214449
 10
7.6980642058
 20
-7.8662657648
 10
8.0393293983
 20
-7.5721543512
 10
8.3686620538
 20
-7.2662574174
 10
8.686600808
 20
-6.9481043078
 10
8.993145661
 20
-6.6176948191
  0
LWPOLYLINE
  5
296
100
AcDbEntity
  8
RACCORDO
100
AcDbPolyline
 62
7
  6
CONTINUOUS
 90
10
 70
0
 10
-8.9931461607
 20
-6.6176940627
 10
-9.0060484644
 20
-6.6016193634
 10
-9.016974121
 20
-6.5850783756
 10
-9.0259231307
 20
-6.5680710988
 10
-9.0329073289
 20
-6.5504226578
 10
-9.0379148801
 20
-6.5323079263
 10
-9.0409102777
 20
-6.5142515277
 10
-9.041881686
 20
-6.4964283366
 10
-9.0408409408
 20
-6.4786634787
 10
-9.0377880419
 20
-6.4609569541
  0
LWPOLYLINE
  5
297
100
AcDbEntity
  8
RACCORDO
100
AcDbPolyline
 62
250
  6
CONTINUOUS
 90
13
 70
0
 10
-9.046369298
 20
-5.9886769903
 10
-9.0267812084
 20
-6.0214396595
 10
-9.0051223952
 20
-6.0521666673
 10
-8.9815350285
 20
-6.0806563191
 10
-8.956173938
 20
-6.1067216065
 10
-8.9292055959
 20
-6.1301914345
 10
-8.9008070249
 20
-6.1509117452
 10
-8.8711646355
 20
-6.1687465289
 10
-8.8404730029
 20
-6.1835787163
 10
-8.8089335897
 20
-6.1953109478
 10
-8.7767534232
 20
-6.2038662119
 10
-8.7441437368
 20
-6.2091883513
 10
-8.7113185833
 20
-6.2112424309
  0
LWPOLYLINE
  5
298
100
AcDbEntity
  8
RACCORDO
100
AcDbPolyline
 62
250
  6
CONTINUOUS
 90
16
 70
0
 10
-8.9323308271
 20
-6.6203007522
 10
-8.9455565634
 20
-6.5954706798
 10
-8.9556109325
 20
-6.5685603773
 10
-8.9622748302
 20
-6.5401561478
 10
-8.9654030224
 20
-6.5108768493
 10
-8.9649273035
 20
-6.481360435
 10
-8.9608579938
 20
-6.4522500538
 10
-8.9532837198
 20
-6.4241799894
 10
-8.9423694852
 20
-6.3977618816
 10
-8.9283530915
 20
-6.3735714129
 10
-8.9115399234
 20
-6.3521356882
 10
-8.8922963156
 20
-6.3339217991
 10
-8.8710416071
 20
-6.3193266601
 10
-8.8482389392
 20
-6.3086682981
 10
-8.8243851512
 20
-6.3021789443
 10
-8.8
 20
-6.3
  0
LWPOLYLINE
  5
299
100
AcDbEntity
  8
RACCORDO
100
AcDbPolyline
 62
250
  6
CONTINUOUS
 90
10
 70
0
 10
-9.2112424309
 20
-5.7113185833
 10
-9.2085887615
 20
-5.7464254274
 10
-9.2018502783
 20
-5.7802724929
 10
-9.1911570851
 20
-5.8132072276
 10
-9.1764004121
 20
-5.8458782206
 10
-9.1574946722
 20
-5.8779975247
 10
-9.1347766098
 20
-5.9083898156
 10
-9.1086147838
 20
-5.9367219532
 10
-9.0790693004
 20
-5.9634607065
 10
-9.046369298
 20
-5.9886769903
  0
LWPOLYLINE
  5
29A
100
AcDbEntity
  8
RACCORDO
100
AcDbPolyline
 62
250
  6
CONTINUOUS
 90
16
 70
0
 10
-9.5
 20
-5.8023209284
 10
-9.4977164674
 20
-5.8592270228
 10
-9.4908950942
 20
-5.9152649049
 10
-9.4795358802
 20
-5.9704345773
 10
-9.4634888084
 20
-6.0251899368
 10
-9.442903896
 20
-6.0790770911
 10
-9.418231194
 20
-6.1307343643
 10
-9.3894117945
 20
-6.1800000518
 10
-9.3565046054
 20
-6.2270358743
 10
-9.3201364026
 20
-6.2709653017
 10
-9.2802461634
 20
-6.3117405386
 10
-9.2368949104
 20
-6.3494093996
 10
-9.1908924874
 20
-6.3832387743
 10
-9.1425088422
 20
-6.4129842993
 10
-9.0914740271
 20
-6.4388903567
 10
-9.0377880419
 20
-6.4609569541
  0
LWPOLYLINE
  5
29B
100
AcDbEntity
  8
RACCORDO
100
AcDbPolyline
 62
250
  6
CONTINUOUS
 90
3
 70
0
 10
-9.0464122245
 20
8.9882726583
 10
-9.0311084954
 20
8.1294192662
 10
-9.0265885252
 20
7.8345025648
  0
LINE
  5
29C
100
AcDbEntity
  8
RACCORDO
100
AcDbLine
 62
250
  6
CONTINUOUS
 10
-9.1997802587
 20
8.084200018
 11
-9.2112350086
 21
8.711311161
  0
LINE
  5
29D
100
AcDbEntity
  8
0
100
AcDbLine
 62
250
  6
CONTINUOUS
 10
-10.5060155151
 20
21.9047715709
 11
-10.5047336849
 21
21.8316424864
  0
LINE
  5
29E
100
AcDbEntity
  8
RACCORDO
100
AcDbLine
 62
250
  6
CONTINUOUS
 10
-9.1894400867
 20
7.3994099925
 11
-9.1997802587
 21
8.084200018
  0
LINE
  5
29F
100
AcDbEntity
  8
RACCORDO
100
AcDbLine
 62
250
  6
CONTINUOUS
 10
-9.0265885252
 20
7.8345025648
 11
-9.0186512869
 21
7.2369949665
  0
LINE
  5
2A0
100
AcDbEntity
  8
RACCORDO
100
AcDbLine
 62
250
  6
CONTINUOUS
 10
-9.1802492791
 20
6.659480026
 11
-9.1894400867
 21
7.3994099925
  0
LINE
  5
2A1
100
AcDbEntity
  8
RACCORDO
100
AcDbLine
 62
250
  6
CONTINUOUS
 10
-9.0186512869
 20
7.2369949665
 11
-9.0056919135
 21
6.0404446732
  0
LINE
  5
2A2
100
AcDbEntity
  8
RACCORDO
100
AcDbLine
 62
250
  6
CONTINUOUS
 10
-9.1723297965
 20
5.8727812923
 11
-9.1802492791
 21
6.659480026
  0
LINE
  5
2A3
100
AcDbEntity
  8
RACCORDO
100
AcDbLine
 62
250
  6
CONTINUOUS
 10
-9.1657551829
 20
5.0473601046
 11
-9.1723297965
 21
5.8727812923
  0
LWPOLYLINE
  5
2A4
100
AcDbEntity
  8
RACCORDO
100
AcDbPolyline
 62
250
  6
CONTINUOUS
 90
3
 70
0
 10
-9.0056919135
 20
6.0404446732
 10
-9.0037840154
 20
5.7528599906
 10
-8.9987643318
 20
5.19907877
  0
LINE
  5
2A5
100
AcDbEntity
  8
RACCORDO
100
AcDbLine
 62
250
  6
CONTINUOUS
 10
-9.1605703329
 20
4.1887991826
 11
-9.1657551829
 21
5.0473601046
  0
LINE
  5
2A6
100
AcDbEntity
  8
RACCORDO
100
AcDbLine
 62
250
  6
CONTINUOUS
 10
-8.9987643318
 20
5.19907877
 11
-8.994002532
 21
4.411852854
  0
LINE
  5
2A7
100
AcDbEntity
  8
RACCORDO
100
AcDbLine
 62
250
  6
CONTINUOUS
 10
-9.1568354628
 20
3.3058128792
 11
-9.1605703329
 21
4.1887991826
  0
LWPOLYLINE
  5
2A8
100
AcDbEntity
  8
RACCORDO
100
AcDbPolyline
 62
250
  6
CONTINUOUS
 90
3
 70
0
 10
-8.994002532
 20
4.411852854
 10
-8.9897068317
 20
3.3942234985
 10
-8.9875792222
 20
2.6113900453
  0
LINE
  5
2A9
100
AcDbEntity
  8
RACCORDO
100
AcDbLine
 62
250
  6
CONTINUOUS
 10
-8.987632151
 20
1.786760424
 11
-8.9867454424
 21
1.5
  0
LINE
  5
2AA
100
AcDbEntity
  8
RACCORDO
100
AcDbLine
 62
250
  6
CONTINUOUS
 10
-9.1545825449
 20
2.4075436311
 11
-9.1568354628
 21
3.3058128792
  0
LINE
  5
2AB
100
AcDbEntity
  8
RACCORDO
100
AcDbLine
 62
250
  6
CONTINUOUS
 10
-9.1538268662
 20
1.5000776881
 11
-9.1545825449
 21
2.4075436311
  0
LINE
  5
2AC
100
AcDbEntity
  8
RACCORDO
100
AcDbLine
 62
250
  6
CONTINUOUS
 10
-9.5
 20
8.8035214086
 11
-9.5
 21
-5.8023209284
  0
LINE
  5
2AD
100
AcDbEntity
  8
RACCORDO
100
AcDbLine
 62
7
  6
CONTINUOUS
 10
-9.3
 20
8.8
 11
-9.3
 21
-5.8
  0
LWPOLYLINE
  5
2AE
100
AcDbEntity
  8
RACCORDO
100
AcDbPolyline
 62
250
  6
CONTINUOUS
 90
3
 70
0
 10
-8.9873704403
 20
0.6580284974
 10
-8.9875758272
 20
0.3889615753
 10
-8.9897039213
 20
-0.3933047978
  0
LINE
  5
2AF
100
AcDbEntity
  8
RACCORDO
100
AcDbLine
 62
250
  6
CONTINUOUS
 10
-8.9875792222
 20
2.6113900453
 11
-8.987632151
 21
1.786760424
  0
LINE
  5
2B0
100
AcDbEntity
  8
RACCORDO
100
AcDbLine
 62
250
  6
CONTINUOUS
 10
-9.1545822876
 20
0.5926107906
 11
-9.1538268662
 21
1.5000776881
  0
LINE
  5
2B1
100
AcDbEntity
  8
RACCORDO
100
AcDbLine
 62
250
  6
CONTINUOUS
 10
-9.1568349533
 20
-0.3056611877
 11
-9.1545822876
 21
0.5926107906
  0
LWPOLYLINE
  5
2B2
100
AcDbEntity
  8
RACCORDO
100
AcDbPolyline
 62
250
  6
CONTINUOUS
 90
3
 70
0
 10
-8.9867454424
 20
1.5
 10
-8.9876375729
 20
1.2132712526
 10
-8.9873704403
 20
0.6580284974
  0
LINE
  5
2B3
100
AcDbEntity
  8
RACCORDO
100
AcDbLine
 62
250
  6
CONTINUOUS
 10
-9.1605695778
 20
-1.1886517435
 11
-9.1568349533
 21
-0.3056611877
  0
LINE
  5
2B4
100
AcDbEntity
  8
RACCORDO
100
AcDbLine
 62
250
  6
CONTINUOUS
 10
-8.9897039213
 20
-0.3933047978
 11
-8.9939894169
 21
-1.4100768446
  0
LINE
  5
2B5
100
AcDbEntity
  8
RACCORDO
100
AcDbLine
 62
250
  6
CONTINUOUS
 10
-9.1657541904
 20
-2.0472178399
 11
-9.1605695778
 21
-1.1886517435
  0
LINE
  5
2B6
100
AcDbEntity
  8
RACCORDO
100
AcDbLine
 62
250
  6
CONTINUOUS
 10
-8.9939894169
 20
-1.4100768446
 11
-8.9987453061
 21
-2.1968516734
  0
LINE
  5
2B7
100
AcDbEntity
  8
RACCORDO
100
AcDbLine
 62
250
  6
CONTINUOUS
 10
-9.1723285727
 20
-2.8726446786
 11
-9.1657541904
 21
-2.0472178399
  0
LWPOLYLINE
  5
2B8
100
AcDbEntity
  8
RACCORDO
100
AcDbPolyline
 62
250
  6
CONTINUOUS
 90
3
 70
0
 10
-8.9987453061
 20
-2.1968516734
 10
-9.0037694068
 20
-2.7506152291
 10
-9.0056735595
 20
-3.0382919124
  0
LINE
  5
2B9
100
AcDbEntity
  8
RACCORDO
100
AcDbLine
 62
250
  6
CONTINUOUS
 10
-9.1802477872
 20
-3.6593469017
 11
-9.1723285727
 21
-2.8726446786
  0
LWPOLYLINE
  5
2BA
100
AcDbEntity
  8
RACCORDO
100
AcDbPolyline
 62
250
  6
CONTINUOUS
 90
3
 70
0
 10
-9.0123023049
 20
-3.6293815743
 10
-9.0186314938
 20
-4.23539583
 10
-9.026564455
 20
-4.8333567069
  0
LINE
  5
2BB
100
AcDbEntity
  8
RACCORDO
100
AcDbLine
 62
250
  6
CONTINUOUS
 10
-9.0056735595
 20
-3.0382919124
 11
-9.0123023049
 21
-3.6293815743
  0
LINE
  5
2BC
100
AcDbEntity
  8
RACCORDO
100
AcDbLine
 62
250
  6
CONTINUOUS
 10
-9.1894379469
 20
-4.3992554229
 11
-9.1802477872
 21
-3.6593469017
  0
LINE
  5
2BD
100
AcDbEntity
  8
RACCORDO
100
AcDbLine
 62
250
  6
CONTINUOUS
 10
-9.026564455
 20
-4.8333567069
 11
-9.031095732
 21
-5.1286057292
  0
LINE
  5
2BE
100
AcDbEntity
  8
RACCORDO
100
AcDbLine
 62
250
  6
CONTINUOUS
 10
-9.1997782512
 20
-5.0840827104
 11
-9.1894379469
 21
-4.3992554229
  0
LINE
  5
2BF
100
AcDbEntity
  8
RACCORDO
100
AcDbLine
 62
250
  6
CONTINUOUS
 10
-9.031095732
 20
-5.1286057292
 11
-9.0464043337
 21
-5.9889917392
  0
LINE
  5
2C0
100
AcDbEntity
  8
RACCORDO
100
AcDbLine
 62
250
  6
CONTINUOUS
 10
-9.2112341973
 20
-5.7113103497
 11
-9.1997782512
 21
-5.0840827104
  0
LWPOLYLINE
  5
2C1
100
AcDbEntity
  8
0
100
AcDbPolyline
 62
250
  6
CONTINUOUS
 90
6
 70
0
 10
-10.5047336849
 20
-21.8316424864
 10
-10.5060155151
 20
-21.9047715709
 10
-10.5066887591
 20
-21.9320798744
 10
-10.5073747357
 20
-21.9529558612
 10
-10.5080778549
 20
-21.9672631277
 10
-10.5087981167
 20
-21.9749071372
  0
LWPOLYLINE
  5
2C2
100
AcDbEntity
  8
RACCORDO
100
AcDbPolyline
 62
250
  6
CONTINUOUS
 90
16
 70
0
 10
-9.2112424309
 20
8.7113185833
 10
-9.2084889433
 20
8.7635647615
 10
-9.2002904634
 20
8.8152387415
 10
-9.1867367809
 20
8.8657745915
 10
-9.1679763351
 20
8.9146188448
 10
-9.1442145897
 20
8.9612365608
 10
-9.1157117826
 20
9.005117184
 10
-9.0827800755
 20
9.0457801353
 10
-9.0457801353
 20
9.0827800755
 10
-9.005117184
 20
9.1157117826
 10
-8.9612365608
 20
9.1442145897
 10
-8.9146188448
 20
9.1679763351
 10
-8.8657745915
 20
9.1867367809
 10
-8.8152387415
 20
9.2002904634
 10
-8.7635647615
 20
9.2084889433
 10
-8.7113185833
 20
9.2112424309
  0
LWPOLYLINE
  5
2C3
100
AcDbEntity
  8
0
100
AcDbPolyline
 62
7
  6
CONTINUOUS
 90
3
 70
0
 43
0.3500000006
 10
1.1428571477
 20
32.5357161255
 10
1.0714285848
 20
32.3214271088
 10
0.9285714591
 20
32.0357159729
  0
LINE
  5
2C4
100
AcDbEntity
  8
COPY-PUBBLISH
100
AcDbLine
 62
7
  6
CONTINUOUS
 10
-5.6716793246
 20
-6.3
 11
-5.7131041086
 21
-6.258575216
  0
LWPOLYLINE
  5
2C5
100
AcDbEntity
  8
0
100
AcDbPolyline
 62
250
  6
CONTINUOUS
 90
5
 70
0
 10
-10.5087981167
 20
21.9749071372
 10
-10.5080778549
 20
21.9672631277
 10
-10.5073747357
 20
21.9529558612
 10
-10.5066887591
 20
21.9320798744
 10
-10.5060155151
 20
21.9047715709
  0
LINE
  5
2C6
100
AcDbEntity
  8
COPY-PUBBLISH
100
AcDbLine
 62
250
  6
CONTINUOUS
 10
-7.7868958914
 20
9.3
 11
-7.7868958914
 21
9.258575216
  0
LINE
  5
2C7
100
AcDbEntity
  8
COPY-PUBBLISH
100
AcDbLine
 62
250
  6
CONTINUOUS
 10
-7.7868958914
 20
-6.258575216
 11
-7.7868958914
 21
-6.3
  0
LINE
  5
2C8
100
AcDbEntity
  8
COPY-PUBBLISH
100
AcDbLine
 62
250
  6
CONTINUOUS
 10
-7.2869720439
 20
9.3
 11
-7.2869720439
 21
9.25
  0
LINE
  5
2C9
100
AcDbEntity
  8
COPY-PUBBLISH
100
AcDbLine
 62
250
  6
CONTINUOUS
 10
-7.2869720439
 20
-6.25
 11
-7.2869720439
 21
-6.3
  0
LINE
  5
2CA
100
AcDbEntity
  8
ASSI
100
AcDbLine
 62
7
  6
CONTINUOUS
 10
-3.3848722771
 20
22.4
 11
-3.3633443637
 21
22.5
  0
LWPOLYLINE
  5
2CB
100
AcDbEntity
  8
RACCORDO
100
AcDbPolyline
 62
7
  6
CONTINUOUS
 90
22
 70
0
 10
8.9018989766
 20
-6.289499366
 10
8.9109156566
 20
-6.2885470937
 10
8.9198092805
 20
-6.2893630687
 10
8.9286191017
 20
-6.2917685651
 10
8.9373892148
 20
-6.295556208
 10
8.946081019
 20
-6.300563409
 10
8.9545854131
 20
-6.3067160293
 10
8.9628288719
 20
-6.3139156134
 10
8.970803811
 20
-6.3220048574
 10
8.9784907315
 20
-6.3308683018
 10
8.985796109
 20
-6.3404081147
 10
8.992678893
 20
-6.3505108406
 10
8.9992004468
 20
-6.3610497376
 10
9.0052873583
 20
-6.3719470711
 10
9.0108776819
 20
-6.3831138284
 10
9.0160662012
 20
-6.3944105694
 10
9.0207992202
 20
-6.4057638541
 10
9.0250220485
 20
-6.4171183323
 10
9.0288500214
 20
-6.4283653233
 10
9.0323021549
 20
-6.4394378593
 10
9.0352913478
 20
-6.4503136642
 10
9.0377881066
 20
-6.4609586801
  0
LWPOLYLINE
  5
2CC
100
AcDbEntity
  8
RACCORDO
100
AcDbPolyline
 62
250
  6
CONTINUOUS
 90
7
 70
0
 10
8.9931469572
 20
-6.6176932526
 10
8.9830390071
 20
-6.6184909851
 10
8.9729202322
 20
-6.6191438618
 10
8.9627903362
 20
-6.6196515822
 10
8.952649014
 20
-6.6200138426
 10
8.9424959518
 20
-6.620230336
 10
8.9323308271
 20
-6.6203007519
  0
LWPOLYLINE
  5
2CD
100
AcDbEntity
  8
RACCORDO
100
AcDbPolyline
 62
250
  6
CONTINUOUS
 90
13
 70
0
 10
8.7113185833
 20
-6.2112424309
 10
8.7444149304
 20
-6.209173584
 10
8.7765902417
 20
-6.2039208072
 10
8.8080790115
 20
-6.1955818209
 10
8.8393097634
 20
-6.184080971
 10
8.8701180937
 20
-6.1693530201
 10
8.8997888562
 20
-6.1515858108
 10
8.9283491934
 20
-6.1308663814
 10
8.9557959064
 20
-6.107162483
 10
8.9813811681
 20
-6.0808277157
 10
9.0048691938
 20
-6.0521928834
 10
9.026518816
 20
-6.0213937729
 10
9.046369298
 20
-5.9886769903
  0
LWPOLYLINE
  5
2CE
100
AcDbEntity
  8
RACCORDO
100
AcDbPolyline
 62
7
  6
CONTINUOUS
 90
22
 70
0
 10
-8.9019007866
 20
-6.2895080605
 10
-8.910570493
 20
-6.2886155124
 10
-8.9194809978
 20
-6.2893917112
 10
-8.9284526784
 20
-6.2917108141
 10
-8.9372739014
 20
-6.2954318267
 10
-8.9458768198
 20
-6.3004058267
 10
-8.9543306706
 20
-6.3065144476
 10
-8.9625886477
 20
-6.3136448312
 10
-8.9705395011
 20
-6.3216689201
 10
-8.9781755693
 20
-6.3304819523
 10
-8.9854809611
 20
-6.3399728915
 10
-8.9924051707
 20
-6.3500271322
 10
-8.9989053055
 20
-6.3605470049
 10
-9.0049912655
 20
-6.3714323162
 10
-9.0106559468
 20
-6.382581776
 10
-9.0158450262
 20
-6.3939032833
 10
-9.0205865526
 20
-6.4053109218
 10
-9.0249048859
 20
-6.4167220993
 10
-9.0287510905
 20
-6.4280570955
 10
-9.0321372445
 20
-6.4392460927
 10
-9.0351344171
 20
-6.4502304672
 10
-9.0377880419
 20
-6.4609569478
  0
LINE
  5
2CF
100
AcDbEntity
  8
ASSI
100
AcDbLine
 62
7
  6
CONTINUOUS
 10
-3.3848722771
 20
-22.4
 11
-3.3633443637
 21
-22.5
  0
LWPOLYLINE
  5
2D0
100
AcDbEntity
  8
0
100
AcDbPolyline
 62
250
  6
CONTINUOUS
 90
7
 70
0
 10
-11.0087219643
 20
21.4755923698
 10
-11.0080031927
 20
21.4716789126
 10
-11.0073010341
 20
21.4645568007
 10
-11.0066154888
 20
21.4542260342
 10
-11.0059419622
 20
21.4405716186
 10
-11.0052850488
 20
21.4237085484
 10
-11.0046585314
 20
21.403981807
  0
LINE
  5
2D1
100
AcDbEntity
  8
COPY-PUBBLISH
100
AcDbLine
 62
250
  6
CONTINUOUS
 10
-6.2130279561
 20
-6.3
 11
-6.2130279561
 21
-6.25
  0
LINE
  5
2D2
100
AcDbEntity
  8
COPY-PUBBLISH
100
AcDbLine
 62
250
  6
CONTINUOUS
 10
-6.2130279561
 20
9.25
 11
-6.2130279561
 21
9.3
  0
LINE
  5
2D3
100
AcDbEntity
  8
COPY-PUBBLISH
100
AcDbLine
 62
250
  6
CONTINUOUS
 10
-5.7131041086
 20
-6.3
 11
-5.7131041086
 21
-6.258575216
  0
LINE
  5
2D4
100
AcDbEntity
  8
COPY-PUBBLISH
100
AcDbLine
 62
250
  6
CONTINUOUS
 10
-5.7131041086
 20
9.258575216
 11
-5.7131041086
 21
9.3
  0
LWPOLYLINE
  5
2D5
100
AcDbEntity
  8
RACCORDO
100
AcDbPolyline
 62
250
  6
CONTINUOUS
 90
5
 70
0
 10
-9.0464043337
 20
-5.9889917392
 10
-8.7961633829
 20
-5.9815347456
 10
-8.5327046583
 20
-5.9760469463
 10
-8.2567832986
 20
-5.971678511
 10
-7.6685759535
 20
-5.9613021912
  0
LINE
  5
2D6
100
AcDbEntity
  8
RACCORDO
100
AcDbLine
 62
250
  6
CONTINUOUS
 10
-8.7113265854
 20
-6.211250433
 11
-8.215665535
 21
-6.2001557755
  0
LINE
  5
2D7
100
AcDbEntity
  8
RACCORDO
100
AcDbLine
 62
250
  6
CONTINUOUS
 10
-8.215665535
 20
-6.2001557755
 11
-7.6732109181
 21
-6.1897431515
  0
LWPOLYLINE
  5
2D8
100
AcDbEntity
  8
RACCORDO
100
AcDbPolyline
 62
250
  6
CONTINUOUS
 90
3
 70
0
 10
-7.6685759535
 20
-5.9613021912
 10
-7.3619677251
 20
-5.9563198892
 10
-6.7272880137
 20
-5.9483147
  0
LINE
  5
2D9
100
AcDbEntity
  8
RACCORDO
100
AcDbLine
 62
250
  6
CONTINUOUS
 10
-7.6732109181
 20
-6.1897431515
 11
-7.0892977401
 21
-6.1800836717
  0
LWPOLYLINE
  5
2DA
100
AcDbEntity
  8
RACCORDO
100
AcDbPolyline
 62
250
  6
CONTINUOUS
 90
4
 70
0
 10
-6.7272880137
 20
-5.9483147
 10
-6.4118409427
 20
-5.9432750749
 10
-6.1042268802
 20
-5.939389535
 10
-5.8022623236
 20
-5.9366737877
  0
LINE
  5
2DB
100
AcDbEntity
  8
RACCORDO
100
AcDbLine
 62
250
  6
CONTINUOUS
 10
-7.0892977401
 20
-6.1800836717
 11
-6.4780684482
 21
-6.1714091437
  0
LINE
  5
2DC
100
AcDbEntity
  8
RACCORDO
100
AcDbLine
 62
250
  6
CONTINUOUS
 10
-9.3267927542
 20
-5.8011604244
 11
-9.3585748911
 21
-5.8016411042
  0
LINE
  5
2DD
100
AcDbEntity
  8
RACCORDO
100
AcDbLine
 62
250
  6
CONTINUOUS
 10
-6.4780684482
 20
-6.1714091437
 11
-5.8784770445
 21
-6.16400864
  0
LWPOLYLINE
  5
2DE
100
AcDbEntity
  8
RACCORDO
100
AcDbPolyline
 62
250
  6
CONTINUOUS
 90
4
 70
0
 10
-5.8022623236
 20
-5.9366737877
 10
-5.2208417996
 20
-5.9300208352
 10
-4.9416281852
 20
-5.9280368838
 10
-4.3982424259
 20
-5.9232752896
  0
LINE
  5
2DF
100
AcDbEntity
  8
RACCORDO
100
AcDbLine
 62
250
  6
CONTINUOUS
 10
-5.8784770445
 20
-6.16400864
 11
-5.0275297255
 21
-6.1552456816
  0
LINE
  5
2E0
100
AcDbEntity
  8
RACCORDO
100
AcDbLine
 62
250
  6
CONTINUOUS
 10
-5.0275297255
 20
-6.1552456816
 11
-4.2352477935
 21
-6.1486362353
  0
LINE
  5
2E1
100
AcDbEntity
  8
RACCORDO
100
AcDbLine
 62
250
  6
CONTINUOUS
 10
-9.3585748911
 20
-5.8016411042
 11
-9.3999956464
 21
-5.8020099569
  0
LINE
  5
2E2
100
AcDbEntity
  8
RACCORDO
100
AcDbLine
 62
250
  6
CONTINUOUS
 10
-4.2352477935
 20
-6.1486362353
 11
-3.4766929283
 21
-6.1435448887
  0
LINE
  5
2E3
100
AcDbEntity
  8
RACCORDO
100
AcDbLine
 62
250
  6
CONTINUOUS
 10
-4.3982424259
 20
-5.9232752896
 11
-3.0921010074
 21
-5.9155295817
  0
LINE
  5
2E4
100
AcDbEntity
  8
RACCORDO
100
AcDbLine
 62
250
  6
CONTINUOUS
 10
-3.4766929283
 20
-6.1435448887
 11
-2.727509044
 21
-6.1396004673
  0
LINE
  5
2E5
100
AcDbEntity
  8
RACCORDO
100
AcDbLine
 62
250
  6
CONTINUOUS
 10
-3.0921010074
 20
-5.9155295817
 11
-2.3130417983
 21
-5.9121320044
  0
LINE
  5
2E6
100
AcDbEntity
  8
RACCORDO
100
AcDbLine
 62
250
  6
CONTINUOUS
 10
-2.727509044
 20
-6.1396004673
 11
-1.9764180885
 21
-6.1366575088
  0
LWPOLYLINE
  5
2E7
100
AcDbEntity
  8
RACCORDO
100
AcDbPolyline
 62
250
  6
CONTINUOUS
 90
5
 70
0
 10
8.3047202267
 20
-6.6191114735
 10
7.6096274035
 20
-6.6214255748
 10
7.2403697663
 20
-6.621322311
 10
6.8680437874
 20
-6.6203007519
 10
6.1226174822
 20
-6.6210348401
  0
LWPOLYLINE
  5
2E8
100
AcDbEntity
  8
RACCORDO
100
AcDbPolyline
 62
250
  6
CONTINUOUS
 90
3
 70
0
 10
-6.8680440526
 20
-6.6203007519
 10
-7.2403701692
 20
-6.6213223152
 10
-7.6096279071
 20
-6.6214255856
  0
LINE
  5
2E9
100
AcDbEntity
  8
RACCORDO
100
AcDbLine
 62
250
  6
CONTINUOUS
 10
-2.3130417983
 20
-5.9121320044
 11
-1.5296154312
 21
-5.9097397288
  0
LWPOLYLINE
  5
2EA
100
AcDbEntity
  8
RACCORDO
100
AcDbPolyline
 62
250
  6
CONTINUOUS
 90
3
 70
0
 10
-9.3999956464
 20
-5.8020099569
 10
-9.4738929471
 20
-5.8023010708
 10
-9.5
 20
-5.8023209284
  0
LINE
  5
2EB
100
AcDbEntity
  8
RACCORDO
100
AcDbLine
 62
250
  6
CONTINUOUS
 10
-1.9764180885
 20
-6.1366575088
 11
-1.2192740733
 21
-6.1346694439
  0
LINE
  5
2EC
100
AcDbEntity
  8
RACCORDO
100
AcDbLine
 62
250
  6
CONTINUOUS
 10
5.3940233341
 20
-6.6196344571
 11
5.0393056156
 21
-6.6202606006
  0
LINE
  5
2ED
100
AcDbEntity
  8
RACCORDO
100
AcDbLine
 62
250
  6
CONTINUOUS
 10
-1.2192740733
 20
-6.1346694439
 11
-0.4526054493
 21
-6.1336250534
  0
LWPOLYLINE
  5
2EE
100
AcDbEntity
  8
RACCORDO
100
AcDbPolyline
 62
250
  6
CONTINUOUS
 90
3
 70
0
 10
4.3407535254
 20
-6.6198292899
 10
3.6541108384
 20
-6.6203007519
 10
1.9355486912
 20
-6.6202464603
  0
LINE
  5
2EF
100
AcDbEntity
  8
RACCORDO
100
AcDbLine
 62
250
  6
CONTINUOUS
 10
-1.5296154312
 20
-5.9097397288
 11
-0.4703515068
 21
-5.9081981776
  0
LINE
  5
2F0
100
AcDbEntity
  8
RACCORDO
100
AcDbLine
 62
7
  6
CONTINUOUS
 10
8.8
 20
-6.3
 11
-8.8
 21
-6.3
  0
LINE
  5
2F1
100
AcDbEntity
  8
COPY-PUBBLISH
100
AcDbLine
 62
7
  6
CONTINUOUS
 10
-7.2869720439
 20
-6.25
 11
-6.2130279561
 21
-6.25
  0
LINE
  5
2F2
100
AcDbEntity
  8
COPY-PUBBLISH
100
AcDbLine
 62
7
  6
CONTINUOUS
 10
6.2130279561
 20
-6.25
 11
7.2869720439
 21
-6.25
  0
LWPOLYLINE
  5
2F3
100
AcDbEntity
  8
RACCORDO
100
AcDbPolyline
 62
250
  6
CONTINUOUS
 90
4
 70
0
 10
-4.340753293
 20
-6.619829291
 10
-5.039305342
 20
-6.6202605934
 10
-5.3940230131
 20
-6.6196344465
 10
-6.1226173346
 20
-6.621034853
  0
LINE
  5
2F4
100
AcDbEntity
  8
RACCORDO
100
AcDbLine
 62
250
  6
CONTINUOUS
 10
1.9355486912
 20
-6.6202464603
 11
-0.1780725289
 21
-6.6205199549
  0
LINE
  5
2F5
100
AcDbEntity
  8
RACCORDO
100
AcDbLine
 62
250
  6
CONTINUOUS
 10
-0.4526054493
 20
-6.1336250534
 11
0.3197690268
 21
-6.1335414041
  0
LWPOLYLINE
  5
2F6
100
AcDbEntity
  8
RACCORDO
100
AcDbPolyline
 62
250
  6
CONTINUOUS
 90
3
 70
0
 10
-2.9695859193
 20
-6.6201460074
 10
-3.9968996562
 20
-6.6201272792
 10
-4.340753293
 20
-6.619829291
  0
LINE
  5
2F7
100
AcDbEntity
  8
RACCORDO
100
AcDbLine
 62
250
  6
CONTINUOUS
 10
-0.1780725289
 20
-6.6205199549
 11
-2.9695859193
 21
-6.6201460074
  0
LINE
  5
2F8
100
AcDbEntity
  8
RACCORDO
100
AcDbLine
 62
250
  6
CONTINUOUS
 10
-0.4703515068
 20
-5.9081981776
 11
0.3316576828
 21
-5.9080756428
  0
LINE
  5
2F9
100
AcDbEntity
  8
RACCORDO
100
AcDbLine
 62
250
  6
CONTINUOUS
 10
5.0393056156
 20
-6.6202606006
 11
4.3407535254
 21
-6.6198292899
  0
LINE
  5
2FA
100
AcDbEntity
  8
RACCORDO
100
AcDbLine
 62
250
  6
CONTINUOUS
 10
-6.1226173346
 20
-6.621034853
 11
-6.8680440526
 21
-6.6203007519
  0
LINE
  5
2FB
100
AcDbEntity
  8
RACCORDO
100
AcDbLine
 62
250
  6
CONTINUOUS
 10
0.3197690268
 20
-6.1335414041
 11
1.0883128782
 21
-6.134422065
  0
LINE
  5
2FC
100
AcDbEntity
  8
RACCORDO
100
AcDbLine
 62
250
  6
CONTINUOUS
 10
0.3316576828
 20
-5.9080756428
 11
1.1297622954
 21
-5.9088927434
  0
LINE
  5
2FD
100
AcDbEntity
  8
RACCORDO
100
AcDbLine
 62
250
  6
CONTINUOUS
 10
6.1226174822
 20
-6.6210348401
 11
5.3940233341
 21
-6.6196344571
  0
LINE
  5
2FE
100
AcDbEntity
  8
RACCORDO
100
AcDbLine
 62
250
  6
CONTINUOUS
 10
1.0883128782
 20
-6.134422065
 11
1.8472120805
 21
-6.1362499953
  0
LWPOLYLINE
  5
2FF
100
AcDbEntity
  8
RACCORDO
100
AcDbPolyline
 62
250
  6
CONTINUOUS
 90
4
 70
0
 10
-7.6096279071
 20
-6.6214255856
 10
-8.3047206478
 20
-6.6191114537
 10
-8.6274419027
 20
-6.6188289806
 10
-8.9323308271
 20
-6.6203007519
  0
LINE
  5
300
100
AcDbEntity
  8
RACCORDO
100
AcDbLine
 62
250
  6
CONTINUOUS
 10
1.1297622954
 20
-5.9088927434
 11
2.1788505545
 21
-5.9116571122
  0
LINE
  5
301
100
AcDbEntity
  8
RACCORDO
100
AcDbLine
 62
250
  6
CONTINUOUS
 10
9.4234633135
 20
-5.8021442582
 11
9.5
 21
-5.8023209284
  0
LINE
  5
302
100
AcDbEntity
  8
RACCORDO
100
AcDbLine
 62
250
  6
CONTINUOUS
 10
1.8472120805
 20
-6.1362499953
 11
2.5991196098
 21
-6.1390281678
  0
LINE
  5
303
100
AcDbEntity
  8
RACCORDO
100
AcDbLine
 62
250
  6
CONTINUOUS
 10
2.1788505545
 20
-5.9116571122
 11
2.9584373907
 21
-5.9148512525
  0
LWPOLYLINE
  5
304
100
AcDbEntity
  8
RACCORDO
100
AcDbPolyline
 62
250
  6
CONTINUOUS
 90
3
 70
0
 10
8.9323308271
 20
-6.6203007519
 10
8.6274416554
 20
-6.6188290051
 10
8.3047202267
 20
-6.6191114735
  0
LINE
  5
305
100
AcDbEntity
  8
RACCORDO
100
AcDbLine
 62
250
  6
CONTINUOUS
 10
2.5991196098
 20
-6.1390281678
 11
3.3488524313
 21
-6.1427999542
  0
LWPOLYLINE
  5
306
100
AcDbEntity
  8
RACCORDO
100
AcDbPolyline
 62
250
  6
CONTINUOUS
 90
3
 70
0
 10
2.9584373907
 20
-5.9148512525
 10
3.7371338659
 20
-5.9189468066
 10
4.5292085393
 20
-5.9242472051
  0
LINE
  5
307
100
AcDbEntity
  8
RACCORDO
100
AcDbLine
 62
250
  6
CONTINUOUS
 10
3.3488524313
 20
-6.1427999542
 11
4.1052470717
 21
-6.1476872344
  0
LWPOLYLINE
  5
308
100
AcDbEntity
  8
RACCORDO
100
AcDbPolyline
 62
250
  6
CONTINUOUS
 90
7
 70
0
 10
-8.9323308271
 20
-6.6203007519
 10
-8.9425891814
 20
-6.6202249351
 10
-8.9527979589
 20
-6.6200049644
 10
-8.9629575974
 20
-6.6196413836
 10
-8.9730685243
 20
-6.6191347302
 10
-8.983131156
 20
-6.6184855349
 10
-8.9931458983
 20
-6.6176943221
  0
LINE
  5
309
100
AcDbEntity
  8
RACCORDO
100
AcDbLine
 62
250
  6
CONTINUOUS
 10
9.3782477141
 20
-5.8018413163
 11
9.4234633135
 21
-5.8021442582
  0
LINE
  5
30A
100
AcDbEntity
  8
RACCORDO
100
AcDbLine
 62
250
  6
CONTINUOUS
 10
4.1052470717
 20
-6.1476872344
 11
4.8902010711
 21
-6.1540110926
  0
LWPOLYLINE
  5
30B
100
AcDbEntity
  8
RACCORDO
100
AcDbPolyline
 62
250
  6
CONTINUOUS
 90
3
 70
0
 10
4.5292085393
 20
-5.9242472051
 10
4.8008253353
 20
-5.9268529717
 10
5.3605396976
 20
-5.931280772
  0
LINE
  5
30C
100
AcDbEntity
  8
RACCORDO
100
AcDbLine
 62
250
  6
CONTINUOUS
 10
4.8902010711
 20
-6.1540110926
 11
5.4419427288
 21
-6.1592962903
  0
LINE
  5
30D
100
AcDbEntity
  8
RACCORDO
100
AcDbLine
 62
250
  6
CONTINUOUS
 10
5.4419427288
 20
-6.1592962903
 11
6.0289711188
 21
-6.1657664008
  0
LWPOLYLINE
  5
30E
100
AcDbEntity
  8
RACCORDO
100
AcDbPolyline
 62
250
  6
CONTINUOUS
 90
3
 70
0
 10
5.9518337201
 20
-5.9386530963
 10
6.570629205
 20
-5.9452581273
 10
7.1978987342
 20
-5.9549759945
  0
LWPOLYLINE
  5
30F
100
AcDbEntity
  8
RACCORDO
100
AcDbPolyline
 62
250
  6
CONTINUOUS
 90
8
 70
0
 10
7.1978987342
 20
-5.9549759945
 10
7.5021370842
 20
-5.9585056314
 10
7.7935221598
 20
-5.9631476204
 10
8.0737199962
 20
-5.9688851258
 10
8.3397384127
 20
-5.9732901679
 10
8.5903841558
 20
-5.9765809897
 10
8.8260545462
 20
-5.9811819937
 10
9.0464122246
 20
-5.9882726573
  0
LINE
  5
310
100
AcDbEntity
  8
RACCORDO
100
AcDbLine
 62
250
  6
CONTINUOUS
 10
5.3605396976
 20
-5.931280772
 11
5.9518337201
 21
-5.9386530963
  0
LINE
  5
311
100
AcDbEntity
  8
RACCORDO
100
AcDbLine
 62
250
  6
CONTINUOUS
 10
6.0289711188
 20
-6.1657664008
 11
6.6289151111
 21
-6.1734369814
  0
LINE
  5
312
100
AcDbEntity
  8
RACCORDO
100
AcDbLine
 62
250
  6
CONTINUOUS
 10
6.6289151111
 20
-6.1734369814
 11
7.2243169539
 21
-6.1821891133
  0
LINE
  5
313
100
AcDbEntity
  8
RACCORDO
100
AcDbLine
 62
250
  6
CONTINUOUS
 10
7.2243169539
 20
-6.1821891133
 11
7.7746866636
 21
-6.191582303
  0
LINE
  5
314
100
AcDbEntity
  8
RACCORDO
100
AcDbLine
 62
250
  6
CONTINUOUS
 10
7.7746866636
 20
-6.191582303
 11
8.2716757129
 21
-6.2012987305
  0
LINE
  5
315
100
AcDbEntity
  8
RACCORDO
100
AcDbLine
 62
250
  6
CONTINUOUS
 10
8.2716757129
 20
-6.2012987305
 11
8.7113140495
 21
-6.211237897
  0
LWPOLYLINE
  5
316
100
AcDbEntity
  8
RACCORDO
100
AcDbPolyline
 62
250
  6
CONTINUOUS
 90
16
 70
0
 10
-8.7113185833
 20
-6.2112424309
 10
-8.7636177675
 20
-6.2084833542
 10
-8.8153496663
 20
-6.2002668434
 10
-8.8659460793
 20
-6.1866809863
 10
-8.9148526711
 20
-6.1678721087
 10
-8.9615296167
 20
-6.144045212
 10
-9.0054584475
 20
-6.1154635797
 10
-9.0461572564
 20
-6.0824401496
 10
-9.0831775931
 20
-6.0453381425
 10
-9.1161068919
 20
-6.0045726817
 10
-9.1446013992
 20
-5.9605655844
 10
-9.1683287385
 20
-5.9138258517
 10
-9.1869981522
 20
-5.8649684378
 10
-9.2004312556
 20
-5.8145749703
 10
-9.208530296
 20
-5.7631708807
 10
-9.2112424309
 20
-5.7113185833
  0
LINE
  5
317
100
AcDbEntity
  8
0
100
AcDbLine
 62
7
  6
CONTINUOUS
 10
-3.4698202597
 20
-22.5
 11
-3.4698202597
 21
-22.4
  0
LINE
  5
318
100
AcDbEntity
  8
ASSI
100
AcDbLine
 62
7
  6
CONTINUOUS
 10
-3.4698202597
 20
-22.5
 11
-3.4698202597
 21
-22.4
  0
LINE
  5
319
100
AcDbEntity
  8
0
100
AcDbLine
 62
7
  6
CONTINUOUS
 10
-3.4698202597
 20
22.4
 11
-3.4698202597
 21
22.5
  0
LINE
  5
31A
100
AcDbEntity
  8
ASSI
100
AcDbLine
 62
7
  6
CONTINUOUS
 10
-3.4698202597
 20
22.4
 11
-3.4698202597
 21
22.5
  0
LINE
  5
31B
100
AcDbEntity
  8
0
100
AcDbLine
 62
250
  6
CONTINUOUS
 10
-11.0087219643
 20
-21.4755923698
 11
-11.15
 21
-21.8997711479
  0
LWPOLYLINE
  5
31C
100
AcDbEntity
  8
RACCORDO
100
AcDbPolyline
 62
250
  6
CONTINUOUS
 90
5
 70
0
 10
-9.3
 20
-5.8
 10
-9.3017108509
 20
-5.8003029278
 10
-9.3068141821
 20
-5.8006006748
 10
-9.315222754
 20
-5.8008881467
 10
-9.3267927542
 20
-5.8011604244
  0
LWPOLYLINE
  5
31D
100
AcDbEntity
  8
RACCORDO
100
AcDbPolyline
 62
250
  6
CONTINUOUS
 90
7
 70
0
 10
9.3
 20
-5.8
 10
9.3017110277
 20
-5.8003029419
 10
9.3068148347
 20
-5.8006007005
 10
9.3152240935
 20
-5.8008881808
 10
9.3267949192
 20
-5.8011604642
 10
9.3413293319
 20
-5.8014128917
 10
9.3782477141
 20
-5.8018413163
  0
LINE
  5
31E
100
AcDbEntity
  8
0
100
AcDbLine
 62
250
  6
CONTINUOUS
 10
-11.15
 20
21.8997711479
 11
-11.0087219643
 21
21.4755923698
  0
LINE
  5
31F
100
AcDbEntity
  8
0
100
AcDbLine
 62
250
  6
CONTINUOUS
 10
-10.5087981167
 20
-21.9749071372
 11
-10.6503805997
 21
-22.4
  0
LINE
  5
320
100
AcDbEntity
  8
RACCORDO
100
AcDbLine
 62
250
  6
CONTINUOUS
 10
-9.2112341973
 20
-5.7113103497
 11
-9.2999619238
 21
-5.8000380762
  0
LINE
  5
321
100
AcDbEntity
  8
RACCORDO
100
AcDbLine
 62
250
  6
CONTINUOUS
 10
-8.7113265854
 20
-6.211250433
 11
-8.8000380762
 21
-6.2999619238
  0
LINE
  5
322
100
AcDbEntity
  8
0
100
AcDbLine
 62
250
  6
CONTINUOUS
 10
-10.6503805997
 20
22.4
 11
-10.5087981167
 21
21.9749071372
  0
LINE
  5
323
100
AcDbEntity
  8
ASSI
100
AcDbLine
 62
7
  6
CONTINUOUS
 10
3.4151277229
 20
22.4
 11
3.4366556363
 21
22.5
  0
LINE
  5
324
100
AcDbEntity
  8
COPY-PUBBLISH
100
AcDbLine
 62
7
  6
CONTINUOUS
 10
-7.8283206754
 20
-6.3
 11
-7.7868958914
 21
-6.258575216
  0
LINE
  5
325
100
AcDbEntity
  8
COPY-PUBBLISH
100
AcDbLine
 62
7
  6
CONTINUOUS
 10
7.8283206754
 20
9.3
 11
7.7868958914
 21
9.258575216
  0
LINE
  5
326
100
AcDbEntity
  8
RACCORDO
100
AcDbLine
 62
250
  6
CONTINUOUS
 10
8.7113265854
 20
9.211250433
 11
8.8000380762
 21
9.2999619238
  0
LWPOLYLINE
  5
327
100
AcDbEntity
  8
0
100
AcDbPolyline
 62
7
  6
CONTINUOUS
 90
2
 70
0
 43
0.3500000006
 10
18.3999999504
 20
-1.3571429443
 10
16.8999994926
 20
-1.3571429443
  0
LWPOLYLINE
  5
328
100
AcDbEntity
  8
0
100
AcDbPolyline
 62
7
  6
CONTINUOUS
 90
4
 70
0
 43
0.3500000006
 10
16.0428570213
 20
-0.0000003204
 10
15.4000001678
 20
-0.0000003204
 10
15.4000001678
 20
1.5000001373
 10
18.3999999504
 20
0.642857666
  0
LINE
  5
329
100
AcDbEntity
  8
RACCORDO
100
AcDbLine
 62
250
  6
CONTINUOUS
 10
-9.2999619238
 20
8.8000380762
 11
-9.2112350086
 21
8.711311161
  0
LINE
  5
32A
100
AcDbEntity
  8
ASSI
100
AcDbLine
 62
7
  6
CONTINUOUS
 10
3.4151277229
 20
-22.4
 11
3.4366556363
 21
-22.5
  0
LINE
  5
32B
100
AcDbEntity
  8
ASSI
100
AcDbLine
 62
7
  6
CONTINUOUS
 10
-3.4151277229
 20
-22.4
 11
-3.4366556363
 21
-22.5
  0
LINE
  5
32C
100
AcDbEntity
  8
RACCORDO
100
AcDbLine
 62
250
  6
CONTINUOUS
 10
9.2112341973
 20
8.7113103497
 11
9.2999619238
 21
8.8000380762
  0
LINE
  5
32D
100
AcDbEntity
  8
RACCORDO
100
AcDbLine
 62
250
  6
CONTINUOUS
 10
-8.8000380762
 20
9.2999619238
 11
-8.7113140495
 21
9.211237897
  0
LINE
  5
32E
100
AcDbEntity
  8
COPY-PUBBLISH
100
AcDbLine
 62
7
  6
CONTINUOUS
 10
-7.8283206754
 20
9.3
 11
-7.7868958914
 21
9.258575216
  0
LINE
  5
32F
100
AcDbEntity
  8
COPY-PUBBLISH
100
AcDbLine
 62
7
  6
CONTINUOUS
 10
7.8283206754
 20
-6.3
 11
7.7868958914
 21
-6.258575216
  0
LINE
  5
330
100
AcDbEntity
  8
RACCORDO
100
AcDbLine
 62
250
  6
CONTINUOUS
 10
8.7113140495
 20
-6.211237897
 11
8.8000380762
 21
-6.2999619238
  0
LINE
  5
331
100
AcDbEntity
  8
ASSI
100
AcDbLine
 62
7
  6
CONTINUOUS
 10
-3.4151277229
 20
22.4
 11
-3.4366556363
 21
22.5
  0
LINE
  5
332
100
AcDbEntity
  8
0
100
AcDbLine
 62
7
  6
CONTINUOUS
 10
3.4698202597
 20
22.5
 11
3.4698202597
 21
22.4
  0
LINE
  5
333
100
AcDbEntity
  8
ASSI
100
AcDbLine
 62
7
  6
CONTINUOUS
 10
3.4698202597
 20
22.5
 11
3.4698202597
 21
22.4
  0
LINE
  5
334
100
AcDbEntity
  8
0
100
AcDbLine
 62
7
  6
CONTINUOUS
 10
3.4698202597
 20
-22.4
 11
3.4698202597
 21
-22.5
  0
LINE
  5
335
100
AcDbEntity
  8
ASSI
100
AcDbLine
 62
7
  6
CONTINUOUS
 10
3.4698202597
 20
-22.4
 11
3.4698202597
 21
-22.5
  0
LINE
  5
336
100
AcDbEntity
  8
0
100
AcDbLine
 62
250
  6
CONTINUOUS
 10
10.6503805997
 20
22.4
 11
10.5087981167
 21
21.9749071372
  0
LINE
  5
337
100
AcDbEntity
  8
0
100
AcDbLine
 62
250
  6
CONTINUOUS
 10
11.15
 20
21.8997711479
 11
11.0087219643
 21
21.4755923698
  0
LINE
  5
338
100
AcDbEntity
  8
RACCORDO
100
AcDbLine
 62
250
  6
CONTINUOUS
 10
9.2112350086
 20
-5.711311161
 11
9.2999619238
 21
-5.8000380762
  0
LINE
  5
339
100
AcDbEntity
  8
0
100
AcDbLine
 62
250
  6
CONTINUOUS
 10
10.5087981167
 20
-21.9749071372
 11
10.6503805997
 21
-22.4
  0
LINE
  5
33A
100
AcDbEntity
  8
0
100
AcDbLine
 62
250
  6
CONTINUOUS
 10
11.0087219643
 20
-21.4755923698
 11
11.15
 21
-21.8997711479
  0
LINE
  5
33B
100
AcDbEntity
  8
COPY-PUBBLISH
100
AcDbLine
 62
250
  6
CONTINUOUS
 10
5.7131041086
 20
9.3
 11
5.7131041086
 21
9.258575216
  0
LINE
  5
33C
100
AcDbEntity
  8
COPY-PUBBLISH
100
AcDbLine
 62
250
  6
CONTINUOUS
 10
5.7131041086
 20
-6.258575216
 11
5.7131041086
 21
-6.3
  0
LINE
  5
33D
100
AcDbEntity
  8
COPY-PUBBLISH
100
AcDbLine
 62
250
  6
CONTINUOUS
 10
6.2130279561
 20
9.3
 11
6.2130279561
 21
9.25
  0
LINE
  5
33E
100
AcDbEntity
  8
COPY-PUBBLISH
100
AcDbLine
 62
250
  6
CONTINUOUS
 10
6.2130279561
 20
-6.25
 11
6.2130279561
 21
-6.3
  0
LWPOLYLINE
  5
33F
100
AcDbEntity
  8
0
100
AcDbPolyline
 62
250
  6
CONTINUOUS
 90
9
 70
0
 10
11.0087219643
 20
21.4755923698
 10
11.0080045641
 20
21.4716950654
 10
11.0073035089
 20
21.4645922224
 10
11.0066187988
 20
21.4542838406
 10
11.0059457953
 20
21.4406561355
 10
11.0052891369
 20
21.4238228918
 10
11.0046627389
 20
21.4041254635
 10
11.0040674711
 20
21.3815078446
 10
11.0029790226
 20
21.3281894262
  0
LWPOLYLINE
  5
340
100
AcDbEntity
  8
RACCORDO
100
AcDbPolyline
 62
250
  6
CONTINUOUS
 90
7
 70
0
 10
9.3
 20
8.8
 10
9.3017108509
 20
8.8004596139
 10
9.3068141823
 20
8.8009113673
 10
9.3152227545
 20
8.8013475312
 10
9.326792755
 20
8.801760642
 10
9.3413263065
 20
8.802143632
 10
9.3585748926
 20
8.8024899494
  0
LWPOLYLINE
  5
341
100
AcDbEntity
  8
RACCORDO
100
AcDbPolyline
 62
250
  6
CONTINUOUS
 90
8
 70
0
 10
-9.3
 20
8.8
 10
-9.3017110277
 20
8.8004596361
 10
-9.3068148347
 20
8.8009114076
 10
-9.3152240935
 20
8.8013475847
 10
-9.3267949192
 20
8.8017607043
 10
-9.3413293319
 20
8.8021436977
 10
-9.3585786438
 20
8.8024900119
 10
-9.4
 20
8.8030496293
  0
LINE
  5
342
100
AcDbEntity
  8
COPY-PUBBLISH
100
AcDbLine
 62
250
  6
CONTINUOUS
 10
7.2869720439
 20
-6.3
 11
7.2869720439
 21
-6.25
  0
LINE
  5
343
100
AcDbEntity
  8
COPY-PUBBLISH
100
AcDbLine
 62
250
  6
CONTINUOUS
 10
7.2869720439
 20
9.25
 11
7.2869720439
 21
9.3
  0
LINE
  5
344
100
AcDbEntity
  8
COPY-PUBBLISH
100
AcDbLine
 62
250
  6
CONTINUOUS
 10
7.7868958914
 20
-6.3
 11
7.7868958914
 21
-6.258575216
  0
LINE
  5
345
100
AcDbEntity
  8
COPY-PUBBLISH
100
AcDbLine
 62
250
  6
CONTINUOUS
 10
7.7868958914
 20
9.258575216
 11
7.7868958914
 21
9.3
  0
LINE
  5
346
100
AcDbEntity
  8
RACCORDO
100
AcDbLine
 62
250
  6
CONTINUOUS
 10
9.031095732
 20
8.1286057292
 11
9.0464043337
 21
8.98899174
  0
LWPOLYLINE
  5
347
100
AcDbEntity
  8
0
100
AcDbPolyline
 62
250
  6
CONTINUOUS
 90
6
 70
0
 10
10.5087981167
 20
21.9749071372
 10
10.5080778269
 20
21.9672621499
 10
10.5073747238
 20
21.952953371
 10
10.5066888073
 20
21.9320760821
 10
10.5060157159
 20
21.9047687004
 10
10.5047341778
 20
21.8316431047
  0
LINE
  5
348
100
AcDbEntity
  8
ASSI
100
AcDbLine
 62
7
  6
CONTINUOUS
 10
3.3848722771
 20
-22.4
 11
3.3633443637
 21
-22.5
  0
LINE
  5
349
100
AcDbEntity
  8
COPY-PUBBLISH
100
AcDbLine
 62
7
  6
CONTINUOUS
 10
5.6716793246
 20
-6.3
 11
5.7131041086
 21
-6.258575216
  0
LWPOLYLINE
  5
34A
100
AcDbEntity
  8
RACCORDO
100
AcDbPolyline
 62
250
  6
CONTINUOUS
 90
4
 70
0
 10
9.0464043337
 20
8.98899174
 10
8.7962418456
 20
8.9815208403
 10
8.5327984112
 20
8.9760361809
 10
7.9680082999
 20
8.9668985345
  0
LWPOLYLINE
  5
34B
100
AcDbEntity
  8
RACCORDO
100
AcDbPolyline
 62
250
  6
CONTINUOUS
 90
4
 70
0
 10
7.9680082999
 20
8.9668985345
 10
7.6681684953
 20
8.9613193879
 10
7.3614403848
 20
8.956311805
 10
6.7272402564
 20
8.9482932382
  0
LWPOLYLINE
  5
34C
100
AcDbEntity
  8
RACCORDO
100
AcDbPolyline
 62
250
  6
CONTINUOUS
 90
4
 70
0
 10
6.7272402564
 20
8.9482932382
 10
6.4120384509
 20
8.9432774963
 10
6.1045136669
 20
8.939400266
 10
5.8025697967
 20
8.9366802805
  0
LINE
  5
34D
100
AcDbEntity
  8
RACCORDO
100
AcDbLine
 62
250
  6
CONTINUOUS
 10
9.3585748926
 20
8.8024899494
 11
9.399995648
 21
8.8030495881
  0
LWPOLYLINE
  5
34E
100
AcDbEntity
  8
RACCORDO
100
AcDbPolyline
 62
250
  6
CONTINUOUS
 90
4
 70
0
 10
5.8025697967
 20
8.9366802805
 10
5.2211428416
 20
8.9300255282
 10
4.941902868
 20
8.9280401388
 10
4.3984503574
 20
8.9232777017
  0
LINE
  5
34F
100
AcDbEntity
  8
RACCORDO
100
AcDbLine
 62
250
  6
CONTINUOUS
 10
9.399995648
 20
8.8030495881
 11
9.4482330219
 21
8.8034014065
  0
LINE
  5
350
100
AcDbEntity
  8
RACCORDO
100
AcDbLine
 62
250
  6
CONTINUOUS
 10
4.3984503574
 20
8.9232777017
 11
3.0921801518
 21
8.9155299802
  0
LINE
  5
351
100
AcDbEntity
  8
RACCORDO
100
AcDbLine
 62
250
  6
CONTINUOUS
 10
3.0921801518
 20
8.9155299802
 11
2.5729467362
 21
8.9131221941
  0
LINE
  5
352
100
AcDbEntity
  8
RACCORDO
100
AcDbLine
 62
250
  6
CONTINUOUS
 10
9.4482330219
 20
8.8034014065
 11
9.5
 21
8.8035214086
  0
LINE
  5
353
100
AcDbEntity
  8
RACCORDO
100
AcDbLine
 62
250
  6
CONTINUOUS
 10
-9.448236191
 20
8.8034014195
 11
-9.5
 21
8.8035214086
  0
LINE
  5
354
100
AcDbEntity
  8
RACCORDO
100
AcDbLine
 62
250
  6
CONTINUOUS
 10
-2.4390079444
 20
8.9126112764
 11
-3.4773167961
 21
8.9174835025
  0
LINE
  5
355
100
AcDbEntity
  8
RACCORDO
100
AcDbLine
 62
250
  6
CONTINUOUS
 10
-3.4773167961
 20
8.9174835025
 11
-4.5290548898
 21
8.9242459235
  0
LINE
  5
356
100
AcDbEntity
  8
RACCORDO
100
AcDbLine
 62
250
  6
CONTINUOUS
 10
-9.4
 20
8.8030496293
 11
-9.448236191
 21
8.8034014195
  0
LWPOLYLINE
  5
357
100
AcDbEntity
  8
RACCORDO
100
AcDbPolyline
 62
250
  6
CONTINUOUS
 90
3
 70
0
 10
-4.5290548898
 20
8.9242459235
 10
-4.8006702086
 20
8.9268516809
 10
-5.3603576714
 20
8.9312724757
  0
LWPOLYLINE
  5
358
100
AcDbEntity
  8
RACCORDO
100
AcDbPolyline
 62
250
  6
CONTINUOUS
 90
3
 70
0
 10
-5.9518578773
 20
8.9386662793
 10
-6.5710167001
 20
8.9452630568
 10
-7.198206962
 20
8.9549760896
  0
LWPOLYLINE
  5
359
100
AcDbEntity
  8
RACCORDO
100
AcDbPolyline
 62
250
  6
CONTINUOUS
 90
8
 70
0
 10
-7.198206962
 20
8.9549760896
 10
-7.5023527133
 20
8.9585090513
 10
-7.7936353126
 20
8.9631449264
 10
-8.0737189168
 20
8.9688793078
 10
-8.3396651651
 20
8.9732887288
 10
-8.5902969933
 20
8.9765861476
 10
-8.8259924242
 20
8.9811891459
 10
-9.0464122245
 20
8.9882726583
  0
LINE
  5
35A
100
AcDbEntity
  8
RACCORDO
100
AcDbLine
 62
250
  6
CONTINUOUS
 10
-5.3603576714
 20
8.9312724757
 11
-5.9518578773
 21
8.9386662793
  0
LWPOLYLINE
  5
35B
100
AcDbEntity
  8
RACCORDO
100
AcDbPolyline
 62
7
  6
CONTINUOUS
 90
22
 70
0
 10
-8.8272582361
 20
9.3
 10
-8.8555239629
 20
9.3015725727
 10
-8.8825660416
 20
9.3054692707
 10
-8.9083844722
 20
9.3116900928
 10
-8.9332775104
 20
9.3204860604
 10
-8.9569469005
 20
9.3316061482
 10
-8.978497876
 20
9.3442972854
 10
-8.9976805012
 20
9.3584950915
 10
-9.0147447119
 20
9.3742639423
 10
-9.0295455485
 20
9.3910439029
 10
-9.0420784407
 20
9.4087798106
 10
-9.0523479588
 20
9.4275268242
 10
-9.0602228533
 20
9.4468904924
 10
-9.0656867623
 20
9.4670170223
 10
-9.0687560478
 20
9.4877602037
 10
-9.0693485469
 20
9.5082869619
 10
-9.0673561144
 20
9.528502413
 10
-9.0628868956
 20
9.5485014419
 10
-9.0561831635
 20
9.5677356304
 10
-9.0473256757
 20
9.5860221739
 10
-9.0362336746
 20
9.6035438806
 10
-9.0229071601
 20
9.6203007519
  0
LINE
  5
35C
100
AcDbEntity
  8
ASSI
100
AcDbLine
 62
7
  6
CONTINUOUS
 10
3.3848722771
 20
22.4
 11
3.3633443637
 21
22.5
  0
LWPOLYLINE
  5
35D
100
AcDbEntity
  8
RACCORDO
100
AcDbPolyline
 62
7
  6
CONTINUOUS
 90
10
 70
0
 10
9.0377881066
 20
-6.4609586806
 10
9.0408393103
 20
-6.4786866848
 10
9.0418784795
 20
-6.4964655232
 10
9.0409056144
 20
-6.5142951957
 10
9.0379084941
 20
-6.5323477738
 10
9.0328993394
 20
-6.5504511857
 10
9.0259148126
 20
-6.5680892169
 10
9.0169671343
 20
-6.5850897967
 10
9.0060440837
 20
-6.6016249972
 10
8.993145661
 20
-6.6176948191
  0
LWPOLYLINE
  5
35E
100
AcDbEntity
  8
RACCORDO
100
AcDbPolyline
 62
250
  6
CONTINUOUS
 90
10
 70
0
 10
9.2112424309
 20
8.7113185833
 10
9.2085887615
 20
8.7464254274
 10
9.2018502783
 20
8.7802724929
 10
9.1911570851
 20
8.8132072276
 10
9.1764004121
 20
8.8458782206
 10
9.1574946722
 20
8.8779975247
 10
9.1347766098
 20
8.9083898156
 10
9.1086147838
 20
8.9367219532
 10
9.0790693004
 20
8.9634607065
 10
9.046369298
 20
8.9886769903
  0
LWPOLYLINE
  5
35F
100
AcDbEntity
  8
RACCORDO
100
AcDbPolyline
 62
250
  6
CONTINUOUS
 90
13
 70
0
 10
9.5
 20
8.8035214086
 10
9.49829224
 20
8.850673003
 10
9.4936617112
 20
8.8969582637
 10
9.4861084136
 20
8.9423771945
 10
9.4755693773
 20
8.9870322098
 10
9.4621075722
 20
9.0308209025
 10
9.4459119076
 20
9.0734360463
 10
9.4269727107
 20
9.1149185042
 10
9.4052996544
 20
9.1552274231
 10
9.3811106667
 20
9.1939330058
 10
9.3544783901
 20
9.2308919914
 10
9.3253301821
 20
9.2662476541
 10
9.2936660426
 20
9.3
  0
LWPOLYLINE
  5
360
100
AcDbEntity
  8
0
100
AcDbPolyline
 62
250
  6
CONTINUOUS
 90
7
 70
0
 10
11.0046627389
 20
-21.4041254633
 10
11.0052891369
 20
-21.4238228917
 10
11.0059457953
 20
-21.4406561357
 10
11.0066187988
 20
-21.4542838409
 10
11.0073035089
 20
-21.4645922227
 10
11.0080045641
 20
-21.4716950656
 10
11.0087219643
 20
-21.4755923698
  0
LWPOLYLINE
  5
361
100
AcDbEntity
  8
0
100
AcDbPolyline
 62
250
  6
CONTINUOUS
 90
5
 70
0
 10
10.5060157159
 20
-21.9047687004
 10
10.5066888073
 20
-21.9320760821
 10
10.5073747238
 20
-21.952953371
 10
10.5080778269
 20
-21.9672621499
 10
10.5087981167
 20
-21.9749071372
  0
LWPOLYLINE
  5
362
100
AcDbEntity
  8
0
100
AcDbPolyline
 62
250
  6
CONTINUOUS
 90
3
 70
0
 10
11.0029790226
 20
-21.3281894263
 10
11.0035024636
 20
-21.3560260411
 10
11.0046627389
 20
-21.4041254633
  0
LINE
  5
363
100
AcDbEntity
  8
RACCORDO
100
AcDbLine
 62
250
  6
CONTINUOUS
 10
9.0464122246
 20
-5.9882726573
 11
9.0311084954
 21
-5.1294192662
  0
LINE
  5
364
100
AcDbEntity
  8
RACCORDO
100
AcDbLine
 62
250
  6
CONTINUOUS
 10
9.1997802587
 20
-5.084200018
 11
9.2112350086
 21
-5.711311161
  0
LINE
  5
365
100
AcDbEntity
  8
0
100
AcDbLine
 62
250
  6
CONTINUOUS
 10
10.5047341778
 20
-21.8316431047
 11
10.5060157159
 21
-21.9047687004
  0
LWPOLYLINE
  5
366
100
AcDbEntity
  8
RACCORDO
100
AcDbPolyline
 62
250
  6
CONTINUOUS
 90
3
 70
0
 10
9.0311084954
 20
-5.1294192662
 10
9.0265885252
 20
-4.8345025649
 10
9.0186512869
 20
-4.2369949665
  0
LINE
  5
367
100
AcDbEntity
  8
RACCORDO
100
AcDbLine
 62
250
  6
CONTINUOUS
 10
9.1894400867
 20
-4.3994099925
 11
9.1997802587
 21
-5.084200018
  0
LINE
  5
368
100
AcDbEntity
  8
RACCORDO
100
AcDbLine
 62
250
  6
CONTINUOUS
 10
9.1802492791
 20
-3.659480026
 11
9.1894400867
 21
-4.3994099925
  0
LINE
  5
369
100
AcDbEntity
  8
RACCORDO
100
AcDbLine
 62
250
  6
CONTINUOUS
 10
9.0186512869
 20
-4.2369949665
 11
9.0056919135
 21
-3.0404446732
  0
LINE
  5
36A
100
AcDbEntity
  8
RACCORDO
100
AcDbLine
 62
250
  6
CONTINUOUS
 10
9.1723297965
 20
-2.8727812923
 11
9.1802492791
 21
-3.659480026
  0
LINE
  5
36B
100
AcDbEntity
  8
0
100
AcDbLine
 62
250
  6
CONTINUOUS
 10
10.5030519894
 20
-21.6796926689
 11
10.5047341778
 21
-21.8316431047
  0
LWPOLYLINE
  5
36C
100
AcDbEntity
  8
RACCORDO
100
AcDbPolyline
 62
250
  6
CONTINUOUS
 90
3
 70
0
 10
9.0037840154
 20
-2.7528599906
 10
8.9987643318
 20
-2.19907877
 10
8.994002532
 20
-1.411852854
  0
LINE
  5
36D
100
AcDbEntity
  8
RACCORDO
100
AcDbLine
 62
250
  6
CONTINUOUS
 10
9.1657551829
 20
-2.0473601046
 11
9.1723297965
 21
-2.8727812923
  0
LINE
  5
36E
100
AcDbEntity
  8
RACCORDO
100
AcDbLine
 62
250
  6
CONTINUOUS
 10
9.0056919135
 20
-3.0404446732
 11
9.0037840154
 21
-2.7528599906
  0
LINE
  5
36F
100
AcDbEntity
  8
RACCORDO
100
AcDbLine
 62
250
  6
CONTINUOUS
 10
9.1605703329
 20
-1.1887991826
 11
9.1657551829
 21
-2.0473601046
  0
LINE
  5
370
100
AcDbEntity
  8
RACCORDO
100
AcDbLine
 62
250
  6
CONTINUOUS
 10
8.994002532
 20
-1.411852854
 11
8.9897068317
 21
-0.3942234985
  0
LINE
  5
371
100
AcDbEntity
  8
RACCORDO
100
AcDbLine
 62
250
  6
CONTINUOUS
 10
9.1568354628
 20
-0.3058128792
 11
9.1605703329
 21
-1.1887991826
  0
LINE
  5
372
100
AcDbEntity
  8
0
100
AcDbLine
 62
250
  6
CONTINUOUS
 10
10.5011186535
 20
-21.3380089963
 11
10.5030519894
 21
-21.6796926689
  0
LINE
  5
373
100
AcDbEntity
  8
RACCORDO
100
AcDbLine
 62
250
  6
CONTINUOUS
 10
8.987632151
 20
1.213239576
 11
8.9867454424
 21
1.5
  0
LINE
  5
374
100
AcDbEntity
  8
RACCORDO
100
AcDbLine
 62
250
  6
CONTINUOUS
 10
8.9897068317
 20
-0.3942234985
 11
8.9875792222
 21
0.3886099547
  0
LINE
  5
375
100
AcDbEntity
  8
RACCORDO
100
AcDbLine
 62
250
  6
CONTINUOUS
 10
9.1545825449
 20
0.5924563689
 11
9.1568354628
 21
-0.3058128792
  0
LINE
  5
376
100
AcDbEntity
  8
0
100
AcDbLine
 62
250
  6
CONTINUOUS
 10
10.5005350625
 20
-21.0183142309
 11
10.5011186535
 21
-21.3380089963
  0
LINE
  5
377
100
AcDbEntity
  8
RACCORDO
100
AcDbLine
 62
250
  6
CONTINUOUS
 10
9.1538268662
 20
1.4999223119
 11
9.1545825449
 21
0.5924563689
  0
LINE
  5
378
100
AcDbEntity
  8
RACCORDO
100
AcDbLine
 62
7
  6
CONTINUOUS
 10
9.3
 20
-5.8
 11
9.3
 21
8.8
  0
LINE
  5
379
100
AcDbEntity
  8
RACCORDO
100
AcDbLine
 62
250
  6
CONTINUOUS
 10
9.5
 20
-5.8023209284
 11
9.5
 21
8.8035214086
  0
LWPOLYLINE
  5
37A
100
AcDbEntity
  8
0
100
AcDbPolyline
 62
250
  6
CONTINUOUS
 90
9
 70
0
 10
10.497490446
 20
16.349481053
 10
10.4952069837
 20
11.6792204116
 10
10.4936846755
 20
7.0079400855
 10
10.4929235215
 20
2.3360479917
 10
10.4929235217
 20
-2.3360479976
 10
10.4936846759
 20
-7.0079400907
 10
10.4952069841
 20
-11.6792204157
 10
10.4974904463
 20
-16.3494810554
 10
10.5005350625
 20
-21.0183142309
  0
LWPOLYLINE
  5
37B
100
AcDbEntity
  8
RACCORDO
100
AcDbPolyline
 62
250
  6
CONTINUOUS
 90
3
 70
0
 10
8.9873704403
 20
2.3419715026
 10
8.9875758272
 20
2.6110384247
 10
8.9897039213
 20
3.3933047978
  0
LINE
  5
37C
100
AcDbEntity
  8
RACCORDO
100
AcDbLine
 62
250
  6
CONTINUOUS
 10
8.9875792222
 20
0.3886099547
 11
8.987632151
 21
1.213239576
  0
LINE
  5
37D
100
AcDbEntity
  8
RACCORDO
100
AcDbLine
 62
250
  6
CONTINUOUS
 10
9.1545822876
 20
2.4073892094
 11
9.1538268662
 21
1.4999223119
  0
LINE
  5
37E
100
AcDbEntity
  8
RACCORDO
100
AcDbLine
 62
250
  6
CONTINUOUS
 10
9.1568349533
 20
3.3056611877
 11
9.1545822876
 21
2.4073892094
  0
LWPOLYLINE
  5
37F
100
AcDbEntity
  8
RACCORDO
100
AcDbPolyline
 62
250
  6
CONTINUOUS
 90
3
 70
0
 10
8.9867454424
 20
1.5
 10
8.9876375729
 20
1.7867287474
 10
8.9873704403
 20
2.3419715026
  0
LINE
  5
380
100
AcDbEntity
  8
RACCORDO
100
AcDbLine
 62
250
  6
CONTINUOUS
 10
9.1605695778
 20
4.1886517435
 11
9.1568349533
 21
3.3056611877
  0
LINE
  5
381
100
AcDbEntity
  8
0
100
AcDbLine
 62
250
  6
CONTINUOUS
 10
10.5017441538
 20
21.4854586496
 11
10.497490446
 21
16.349481053
  0
LINE
  5
382
100
AcDbEntity
  8
RACCORDO
100
AcDbLine
 62
250
  6
CONTINUOUS
 10
8.9897039213
 20
3.3933047978
 11
8.9939894169
 21
4.4100768446
  0
LINE
  5
383
100
AcDbEntity
  8
RACCORDO
100
AcDbLine
 62
250
  6
CONTINUOUS
 10
9.0037694068
 20
5.7506152291
 11
9.0056735595
 21
6.0382919124
  0
LINE
  5
384
100
AcDbEntity
  8
RACCORDO
100
AcDbLine
 62
250
  6
CONTINUOUS
 10
9.1657541904
 20
5.0472178399
 11
9.1605695778
 21
4.1886517435
  0
LINE
  5
385
100
AcDbEntity
  8
RACCORDO
100
AcDbLine
 62
250
  6
CONTINUOUS
 10
8.9939894169
 20
4.4100768446
 11
8.9987453061
 21
5.1968516734
  0
LINE
  5
386
100
AcDbEntity
  8
RACCORDO
100
AcDbLine
 62
250
  6
CONTINUOUS
 10
9.1723285727
 20
5.8726446786
 11
9.1657541904
 21
5.0472178399
  0
LINE
  5
387
100
AcDbEntity
  8
RACCORDO
100
AcDbLine
 62
250
  6
CONTINUOUS
 10
8.9987453061
 20
5.1968516734
 11
9.0037694068
 21
5.7506152291
  0
LINE
  5
388
100
AcDbEntity
  8
0
100
AcDbLine
 62
250
  6
CONTINUOUS
 10
10.5035748986
 20
21.7355556626
 11
10.5017441538
 21
21.4854586496
  0
LINE
  5
389
100
AcDbEntity
  8
RACCORDO
100
AcDbLine
 62
250
  6
CONTINUOUS
 10
9.1802477872
 20
6.6593469017
 11
9.1723285727
 21
5.8726446786
  0
LINE
  5
38A
100
AcDbEntity
  8
RACCORDO
100
AcDbLine
 62
250
  6
CONTINUOUS
 10
9.0123023049
 20
6.6293815743
 11
9.0186314938
 21
7.23539583
  0
LINE
  5
38B
100
AcDbEntity
  8
RACCORDO
100
AcDbLine
 62
250
  6
CONTINUOUS
 10
9.0056735595
 20
6.0382919124
 11
9.0123023049
 21
6.6293815743
  0
LINE
  5
38C
100
AcDbEntity
  8
RACCORDO
100
AcDbLine
 62
250
  6
CONTINUOUS
 10
9.1894379469
 20
7.3992554229
 11
9.1802477872
 21
6.6593469017
  0
LINE
  5
38D
100
AcDbEntity
  8
0
100
AcDbLine
 62
250
  6
CONTINUOUS
 10
10.5047341778
 20
21.8316431047
 11
10.5035748986
 21
21.7355556626
  0
LWPOLYLINE
  5
38E
100
AcDbEntity
  8
RACCORDO
100
AcDbPolyline
 62
250
  6
CONTINUOUS
 90
3
 70
0
 10
9.0186314938
 20
7.23539583
 10
9.026564455
 20
7.8333567069
 10
9.031095732
 20
8.1286057292
  0
LINE
  5
38F
100
AcDbEntity
  8
RACCORDO
100
AcDbLine
 62
250
  6
CONTINUOUS
 10
9.1997782512
 20
8.0840827104
 11
9.1894379469
 21
7.3992554229
  0
LINE
  5
390
100
AcDbEntity
  8
RACCORDO
100
AcDbLine
 62
250
  6
CONTINUOUS
 10
9.2112341973
 20
8.7113103497
 11
9.1997782512
 21
8.0840827104
  0
LWPOLYLINE
  5
391
100
AcDbEntity
  8
RACCORDO
100
AcDbPolyline
 62
250
  6
CONTINUOUS
 90
16
 70
0
 10
9.2112424309
 20
-5.7113185833
 10
9.2084847548
 20
-5.7636044898
 10
9.2002736886
 20
-5.8153175325
 10
9.1866990958
 20
-5.8658904417
 10
9.1679094252
 20
-5.9147689905
 10
9.1441107333
 20
-5.9614163065
 10
9.1155650147
 20
-6.0053190538
 10
9.0825863933
 20
-6.0459951049
 10
9.045536394
 20
-6.0829994081
 10
9.004820744
 20
-6.1159270281
 10
8.9608665442
 20
-6.1444280708
 10
8.9141730411
 20
-6.1681746515
 10
8.865315947
 20
-6.1868856679
 10
8.8148592934
 20
-6.2003710632
 10
8.763338831
 20
-6.2085127018
 10
8.7113185833
 20
-6.2112424309
  0
LWPOLYLINE
  5
392
100
AcDbEntity
  8
RACCORDO
100
AcDbPolyline
 62
250
  6
CONTINUOUS
 90
10
 70
0
 10
9.046369298
 20
-5.9886769903
 10
9.0789277455
 20
-5.9640577717
 10
9.1083999268
 20
-5.9373166788
 10
9.134538408
 20
-5.9086782169
 10
9.1571237431
 20
-5.8783828202
 10
9.1759663169
 20
-5.8466848342
 10
9.1909079364
 20
-5.8138503796
 10
9.2018231589
 20
-5.7801551184
 10
9.2086203457
 20
-5.7458819393
 10
9.2112424309
 20
-5.7113185833
  0
LWPOLYLINE
  5
393
100
AcDbEntity
  8
RACCORDO
100
AcDbPolyline
 62
250
  6
CONTINUOUS
 90
16
 70
0
 10
9.0377881066
 20
-6.4609586806
 10
9.0914462088
 20
-6.4389149421
 10
9.142467281
 20
-6.4130194687
 10
9.1908513232
 20
-6.3832722529
 10
9.2368748723
 20
-6.3494252955
 10
9.2802613914
 20
-6.3117265767
 10
9.3201812697
 20
-6.2709200586
 10
9.3565681229
 20
-6.2269573592
 10
9.3894883352
 20
-6.1798868412
 10
9.4183114495
 20
-6.1305975872
 10
9.4429736153
 20
-6.0789313445
 10
9.463538683
 20
-6.0250463501
 10
9.479567746
 20
-5.97030643
 10
9.4909145021
 20
-5.9151661935
 10
9.4977252534
 20
-5.8591710272
 10
9.5
 20
-5.8023209284
  0
LWPOLYLINE
  5
394
100
AcDbEntity
  8
RACCORDO
100
AcDbPolyline
 62
250
  6
CONTINUOUS
 90
13
 70
0
 10
-8.7113185833
 20
9.2112424309
 10
-8.7440635267
 20
9.209253304
 10
-8.7763944713
 20
9.2040208578
 10
-8.8082393387
 20
9.1955311873
 10
-8.8397262897
 20
9.1838396739
 10
-8.8706658964
 20
9.1690213356
 10
-8.9004602671
 20
9.151141823
 10
-8.9289512758
 20
9.1303338641
 10
-8.9561375729
 20
9.1067743064
 10
-8.9815743327
 20
9.0806125075
 10
-9.0050607009
 20
9.0520429613
 10
-9.0266707045
 20
9.0213138593
 10
-9.046369298
 20
8.9886769903
  0
LINE
  5
395
100
AcDbEntity
  8
RACCORDO
100
AcDbLine
 62
250
  6
CONTINUOUS
 10
8.7113265854
 20
9.211250433
 11
8.2157685472
 21
9.2001575505
  0
LINE
  5
396
100
AcDbEntity
  8
RACCORDO
100
AcDbLine
 62
250
  6
CONTINUOUS
 10
8.2157685472
 20
9.2001575505
 11
7.6730881354
 21
9.1897414689
  0
LINE
  5
397
100
AcDbEntity
  8
RACCORDO
100
AcDbLine
 62
250
  6
CONTINUOUS
 10
7.6730881354
 20
9.1897414689
 11
7.0888246247
 21
9.1800764187
  0
LINE
  5
398
100
AcDbEntity
  8
RACCORDO
100
AcDbLine
 62
250
  6
CONTINUOUS
 10
7.0888246247
 20
9.1800764187
 11
6.4780750451
 21
9.1714087895
  0
LINE
  5
399
100
AcDbEntity
  8
RACCORDO
100
AcDbLine
 62
250
  6
CONTINUOUS
 10
6.4780750451
 20
9.1714087895
 11
5.878816508
 21
9.1640126695
  0
LINE
  5
39A
100
AcDbEntity
  8
RACCORDO
100
AcDbLine
 62
250
  6
CONTINUOUS
 10
5.878816508
 20
9.1640126695
 11
5.0278897727
 21
9.1552490423
  0
LINE
  5
39B
100
AcDbEntity
  8
RACCORDO
100
AcDbLine
 62
250
  6
CONTINUOUS
 10
5.0278897727
 20
9.1552490423
 11
4.2355153268
 21
9.1486382489
  0
LINE
  5
39C
100
AcDbEntity
  8
RACCORDO
100
AcDbLine
 62
250
  6
CONTINUOUS
 10
4.2355153268
 20
9.1486382489
 11
3.476861898
 21
9.1435458944
  0
LINE
  5
39D
100
AcDbEntity
  8
RACCORDO
100
AcDbLine
 62
250
  6
CONTINUOUS
 10
3.476861898
 20
9.1435458944
 11
2.7276488785
 21
9.1396010953
  0
LINE
  5
39E
100
AcDbEntity
  8
RACCORDO
100
AcDbLine
 62
250
  6
CONTINUOUS
 10
4.7284873406
 20
9.6197170728
 11
5.0142511635
 21
9.6207850499
  0
LINE
  5
39F
100
AcDbEntity
  8
RACCORDO
100
AcDbLine
 62
250
  6
CONTINUOUS
 10
2.7276488785
 20
9.1396010953
 11
1.976566077
 21
9.1366579974
  0
LINE
  5
3A0
100
AcDbEntity
  8
RACCORDO
100
AcDbLine
 62
250
  6
CONTINUOUS
 10
2.5729467362
 20
8.9131221941
 11
1.7914720888
 21
8.9103866883
  0
LWPOLYLINE
  5
3A1
100
AcDbEntity
  8
RACCORDO
100
AcDbPolyline
 62
250
  6
CONTINUOUS
 90
4
 70
0
 10
-6.1157635676
 20
9.6194792141
 10
-5.5929459286
 20
9.6209229505
 10
-5.3066548237
 20
9.6198183066
 10
-4.6899322195
 20
9.6213274358
  0
LINE
  5
3A2
100
AcDbEntity
  8
RACCORDO
100
AcDbLine
 62
250
  6
CONTINUOUS
 10
1.976566077
 20
9.1366579974
 11
1.2193967419
 21
9.1346696893
  0
LWPOLYLINE
  5
3A3
100
AcDbEntity
  8
RACCORDO
100
AcDbPolyline
 62
250
  6
CONTINUOUS
 90
6
 70
0
 10
2.3867516212
 20
9.6203007519
 10
3.0984030816
 20
9.6211468523
 10
3.4452245451
 20
9.6203007519
 10
3.7829154031
 20
9.6203315254
 10
4.1124392467
 20
9.6212267981
 10
4.7284873406
 20
9.6197170728
  0
LINE
  5
3A4
100
AcDbEntity
  8
RACCORDO
100
AcDbLine
 62
250
  6
CONTINUOUS
 10
1.2193967419
 20
9.1346696893
 11
0.452714292
 21
9.1336251322
  0
LINE
  5
3A5
100
AcDbEntity
  8
RACCORDO
100
AcDbLine
 62
250
  6
CONTINUOUS
 10
1.7914720888
 20
8.9103866883
 11
0.4704044208
 21
8.9081981061
  0
LWPOLYLINE
  5
3A6
100
AcDbEntity
  8
RACCORDO
100
AcDbPolyline
 62
250
  6
CONTINUOUS
 90
3
 70
0
 10
-6.7825508477
 20
9.6196118516
 10
-6.3514566721
 20
9.6204261288
 10
-6.1157635676
 20
9.6194792141
  0
LWPOLYLINE
  5
3A7
100
AcDbEntity
  8
RACCORDO
100
AcDbPolyline
 62
250
  6
CONTINUOUS
 90
3
 70
0
 10
6.2243344397
 20
9.6196779463
 10
6.6234822729
 20
9.6203007519
 10
8.4699536848
 20
9.6203718904
  0
LINE
  5
3A8
100
AcDbEntity
  8
COPY-PUBBLISH
100
AcDbLine
 62
7
  6
CONTINUOUS
 10
7.2869720439
 20
9.25
 11
6.2130279561
 21
9.25
  0
LINE
  5
3A9
100
AcDbEntity
  8
COPY-PUBBLISH
100
AcDbLine
 62
7
  6
CONTINUOUS
 10
-6.2130279561
 20
9.25
 11
-7.2869720439
 21
9.25
  0
LINE
  5
3AA
100
AcDbEntity
  8
RACCORDO
100
AcDbLine
 62
7
  6
CONTINUOUS
 10
9.2936660426
 20
9.3
 11
-9.2936660426
 21
9.3
  0
LINE
  5
3AB
100
AcDbEntity
  8
RACCORDO
100
AcDbLine
 62
250
  6
CONTINUOUS
 10
0.452714292
 20
9.1336251322
 11
-0.3196566705
 21
9.1335413436
  0
LINE
  5
3AC
100
AcDbEntity
  8
RACCORDO
100
AcDbLine
 62
250
  6
CONTINUOUS
 10
0.4704044208
 20
8.9081981061
 11
-0.3315988398
 21
8.9080754129
  0
LWPOLYLINE
  5
3AD
100
AcDbEntity
  8
RACCORDO
100
AcDbPolyline
 62
250
  6
CONTINUOUS
 90
3
 70
0
 10
-7.3436869752
 20
9.6199113437
 10
-6.9775075524
 20
9.620186653
 10
-6.7825508477
 20
9.6196118516
  0
LINE
  5
3AE
100
AcDbEntity
  8
RACCORDO
100
AcDbLine
 62
250
  6
CONTINUOUS
 10
2.0289900801
 20
9.6205754999
 11
2.3867516212
 21
9.6203007519
  0
LINE
  5
3AF
100
AcDbEntity
  8
RACCORDO
100
AcDbLine
 62
250
  6
CONTINUOUS
 10
-0.3315988398
 20
8.9080754129
 11
-1.1296907752
 21
8.9088926233
  0
LINE
  5
3B0
100
AcDbEntity
  8
RACCORDO
100
AcDbLine
 62
250
  6
CONTINUOUS
 10
-0.3196566705
 20
9.1335413436
 11
-1.0881915971
 21
9.1344218496
  0
LINE
  5
3B1
100
AcDbEntity
  8
RACCORDO
100
AcDbLine
 62
250
  6
CONTINUOUS
 10
-9.0229071601
 20
9.6203007519
 11
-7.5146507872
 21
9.6201657315
  0
LINE
  5
3B2
100
AcDbEntity
  8
RACCORDO
100
AcDbLine
 62
250
  6
CONTINUOUS
 10
-7.5146507872
 20
9.6201657315
 11
-7.3436869752
 21
9.6199113437
  0
LINE
  5
3B3
100
AcDbEntity
  8
RACCORDO
100
AcDbLine
 62
250
  6
CONTINUOUS
 10
8.4699536848
 20
9.6203718904
 11
9.0229071601
 21
9.6203007519
  0
LWPOLYLINE
  5
3B4
100
AcDbEntity
  8
RACCORDO
100
AcDbPolyline
 62
250
  6
CONTINUOUS
 90
5
 70
0
 10
-4.6899322195
 20
9.6213274358
 10
-4.3604302224
 20
9.6205187953
 10
-4.0243060784
 20
9.6203007519
 10
-3.6818727391
 20
9.620938341
 10
2.0289900801
 20
9.6205754999
  0
LINE
  5
3B5
100
AcDbEntity
  8
RACCORDO
100
AcDbLine
 62
250
  6
CONTINUOUS
 10
-1.0881915971
 20
9.1344218496
 11
-1.8470937274
 21
9.1362496376
  0
LWPOLYLINE
  5
3B6
100
AcDbEntity
  8
RACCORDO
100
AcDbPolyline
 62
250
  6
CONTINUOUS
 90
3
 70
0
 10
5.0142511635
 20
9.6207850499
 10
5.5407266005
 20
9.6195440476
 10
5.7806417013
 20
9.6204152239
  0
LINE
  5
3B7
100
AcDbEntity
  8
RACCORDO
100
AcDbLine
 62
250
  6
CONTINUOUS
 10
5.7806417013
 20
9.6204152239
 11
6.2243344397
 21
9.6196779463
  0
LWPOLYLINE
  5
3B8
100
AcDbEntity
  8
RACCORDO
100
AcDbPolyline
 62
250
  6
CONTINUOUS
 90
3
 70
0
 10
-1.1296907752
 20
8.9088926233
 10
-2.1787812761
 20
8.9116571486
 10
-2.4390079444
 20
8.9126112764
  0
LINE
  5
3B9
100
AcDbEntity
  8
RACCORDO
100
AcDbLine
 62
250
  6
CONTINUOUS
 10
-1.8470937274
 20
9.1362496376
 11
-2.5990084346
 21
9.1390276857
  0
LINE
  5
3BA
100
AcDbEntity
  8
RACCORDO
100
AcDbLine
 62
250
  6
CONTINUOUS
 10
-2.5990084346
 20
9.1390276857
 11
-3.3487178204
 21
9.1427991734
  0
LINE
  5
3BB
100
AcDbEntity
  8
RACCORDO
100
AcDbLine
 62
250
  6
CONTINUOUS
 10
-3.3487178204
 20
9.1427991734
 11
-4.1050682672
 21
9.147685946
  0
LINE
  5
3BC
100
AcDbEntity
  8
RACCORDO
100
AcDbLine
 62
250
  6
CONTINUOUS
 10
-4.1050682672
 20
9.147685946
 11
-4.8900076075
 21
9.1540093028
  0
LINE
  5
3BD
100
AcDbEntity
  8
RACCORDO
100
AcDbLine
 62
250
  6
CONTINUOUS
 10
-4.8900076075
 20
9.1540093028
 11
-5.4417872698
 21
9.1592946961
  0
LINE
  5
3BE
100
AcDbEntity
  8
RACCORDO
100
AcDbLine
 62
250
  6
CONTINUOUS
 10
-5.4417872698
 20
9.1592946961
 11
-6.029193235
 21
9.165769277
  0
LINE
  5
3BF
100
AcDbEntity
  8
RACCORDO
100
AcDbLine
 62
250
  6
CONTINUOUS
 10
-6.029193235
 20
9.165769277
 11
-6.6292806317
 21
9.1734418378
  0
LINE
  5
3C0
100
AcDbEntity
  8
RACCORDO
100
AcDbLine
 62
250
  6
CONTINUOUS
 10
-6.6292806317
 20
9.1734418378
 11
-7.2245233441
 21
9.1821923867
  0
LINE
  5
3C1
100
AcDbEntity
  8
RACCORDO
100
AcDbLine
 62
250
  6
CONTINUOUS
 10
-7.2245233441
 20
9.1821923867
 11
-7.7746854787
 21
9.1915821124
  0
LINE
  5
3C2
100
AcDbEntity
  8
RACCORDO
100
AcDbLine
 62
250
  6
CONTINUOUS
 10
-7.7746854787
 20
9.1915821124
 11
-8.2715881767
 21
9.2012970975
  0
LINE
  5
3C3
100
AcDbEntity
  8
RACCORDO
100
AcDbLine
 62
250
  6
CONTINUOUS
 10
-8.2715881767
 20
9.2012970975
 11
-8.7113140495
 21
9.211237897
  0
LWPOLYLINE
  5
3C4
100
AcDbEntity
  8
RACCORDO
100
AcDbPolyline
 62
250
  6
CONTINUOUS
 90
16
 70
0
 10
8.7113185833
 20
9.2112424309
 10
8.7636177675
 20
9.2084833542
 10
8.8153496663
 20
9.2002668434
 10
8.8659460793
 20
9.1866809863
 10
8.9148526711
 20
9.1678721087
 10
8.9615296167
 20
9.144045212
 10
9.0054584475
 20
9.1154635797
 10
9.0461572564
 20
9.0824401496
 10
9.0831775931
 20
9.0453381425
 10
9.1161068919
 20
9.0045726817
 10
9.1446013992
 20
8.9605655844
 10
9.1683287385
 20
8.9138258517
 10
9.1869981522
 20
8.8649684378
 10
9.2004312556
 20
8.8145749703
 10
9.208530296
 20
8.7631708807
 10
9.2112424309
 20
8.7113185833
  0
LINE
  5
3C5
100
AcDbEntity
  8
COPY-PUBBLISH
100
AcDbLine
 62
7
  6
CONTINUOUS
 10
5.6716793246
 20
9.3
 11
5.7131041086
 21
9.258575216
  0
LWPOLYLINE
  5
3C6
100
AcDbEntity
  8
0
100
AcDbPolyline
 62
250
  6
CONTINUOUS
 90
16
 70
0
 10
11.0087219643
 20
21.4755923698
 10
11.0059389623
 20
21.5277533032
 10
10.9977157646
 20
21.5793436708
 10
10.9841422864
 20
21.6297989097
 10
10.9653669917
 20
21.6785668706
 10
10.9415952756
 20
21.7251138478
 10
10.9130872219
 20
21.7689304222
 10
10.8801547429
 20
21.8095370623
 10
10.843158184
 20
21.8464893433
 10
10.8025023986
 20
21.8793828084
 10
10.7586322667
 20
21.9078574436
 10
10.7120278628
 20
21.9316015798
 10
10.6631992385
 20
21.9503553003
 10
10.6126807679
 20
21.9639133265
 10
10.5610252917
 20
21.9721272495
 10
10.5087981166
 20
21.974907137
  0
LINE
  5
3C7
100
AcDbEntity
  8
0
100
AcDbLine
 62
250
  6
CONTINUOUS
 10
11.002058632
 20
-21.265368307
 11
11.0029790226
 21
-21.3281894263
  0
LINE
  5
3C8
100
AcDbEntity
  8
0
100
AcDbLine
 62
250
  6
CONTINUOUS
 10
11.0010432605
 20
-21.1571917317
 11
11.002058632
 21
-21.265368307
  0
LINE
  5
3C9
100
AcDbEntity
  8
0
100
AcDbLine
 62
250
  6
CONTINUOUS
 10
11.0005202608
 20
-21.0386290777
 11
11.0010432605
 21
-21.1571917317
  0
LINE
  5
3CA
100
AcDbEntity
  8
0
100
AcDbLine
 62
7
  6
CONTINUOUS
 10
11.15
 20
21.8997711479
 11
11.15
 21
-21.8997711479
  0
LINE
  5
3CB
100
AcDbEntity
  8
ASSI
100
AcDbLine
 62
7
  6
CONTINUOUS
 10
11.15
 20
-16.119659166
 11
11.15
 21
16.119659166
  0
LWPOLYLINE
  5
3CC
100
AcDbEntity
  8
0
100
AcDbPolyline
 62
250
  6
CONTINUOUS
 90
9
 70
0
 10
10.9974142989
 20
16.3324771154
 10
10.99513084
 20
11.6670364005
 10
10.9936085333
 20
7.0009737718
 10
10.9928473781
 20
2.3338756638
 10
10.9928473752
 20
-2.3338443579
 10
10.9936085267
 20
-7.0009455965
 10
10.9951308334
 20
-11.6670144863
 10
10.9974142946
 20
-16.3324645931
 10
11.0005202608
 20
-21.0386290777
  0
LINE
  5
3CD
100
AcDbEntity
  8
0
100
AcDbLine
 62
250
  6
CONTINUOUS
 10
11.00081144
 20
21.1184484404
 11
10.9974142989
 21
16.3324771154
  0
LINE
  5
3CE
100
AcDbEntity
  8
0
100
AcDbLine
 62
250
  6
CONTINUOUS
 10
11.0016694038
 20
21.2310600855
 11
11.00081144
 21
21.1184484404
  0
LWPOLYLINE
  5
3CF
100
AcDbEntity
  8
0
100
AcDbPolyline
 62
250
  6
CONTINUOUS
 90
3
 70
0
 10
11.0029790226
 20
21.3281894262
 10
11.0024980441
 20
21.2979562723
 10
11.0016694038
 20
21.2310600855
  0
LWPOLYLINE
  5
3D0
100
AcDbEntity
  8
0
100
AcDbPolyline
 62
250
  6
CONTINUOUS
 90
16
 70
0
 10
11.0087219643
 20
-21.4755923698
 10
11.0059388076
 20
-21.5277547588
 10
10.9977152003
 20
-21.5793463095
 10
10.9841411372
 20
-21.6298024308
 10
10.9653651658
 20
-21.6785709568
 10
10.9415927608
 20
-21.7251181902
 10
10.913084075
 20
-21.768934742
 10
10.8801510927
 20
-21.8095411066
 10
10.8431542155
 20
-21.8464929089
 10
10.8024983179
 20
-21.8793857675
 10
10.7586283172
 20
-21.90785972
 10
10.712024304
 20
-21.931603162
 10
10.6631962884
 20
-21.9503562578
 10
10.612678619
 20
-21.9639137831
 10
10.5610241352
 20
-21.9721273713
 10
10.5087981167
 20
-21.9749071372
  0
LWPOLYLINE
  5
3D1
100
AcDbEntity
  8
RACCORDO
100
AcDbPolyline
 62
250
  6
CONTINUOUS
 90
16
 70
0
 10
8.9323308271
 20
-6.6203007522
 10
8.945556743
 20
-6.5954698346
 10
8.9556110824
 20
-6.5685586379
 10
8.962274749
 20
-6.5401535329
 10
8.9654025274
 20
-6.5108734083
 10
8.964926234
 20
-6.4813563024
 10
8.9608562508
 20
-6.4522454996
 10
8.9532812852
 20
-6.4241753136
 10
8.9423664142
 20
-6.397757369
 10
8.9283495424
 20
-6.3735673673
 10
8.9115361433
 20
-6.3521323548
 10
8.8922926032
 20
-6.3339193182
 10
8.8710383059
 20
-6.3193250687
 10
8.8482364099
 20
-6.3086675065
 10
8.8243837372
 20
-6.3021787263
 10
8.8
 20
-6.3
  0
LWPOLYLINE
  5
3D2
100
AcDbEntity
  8
RACCORDO
100
AcDbPolyline
 62
7
  6
CONTINUOUS
 90
46
 70
0
 10
9.0229071601
 20
9.6203007519
 10
8.7154198225
 20
9.9539845524
 10
8.396610389
 20
10.2751191922
 10
8.0664788594
 20
10.5837050276
 10
7.7245516848
 20
10.8801425033
 10
7.3713024142
 20
11.1640319057
 10
7.0081516945
 20
11.4341734107
 10
6.6350087447
 20
11.6905366714
 10
6.2519643457
 20
11.9331528813
 10
5.8607114874
 20
12.1609146058
 10
5.4613258862
 20
12.3737088707
 10
5.0537318256
 20
12.571649521
 10
4.6393951456
 20
12.7539693895
 10
4.2181111393
 20
12.9206712774
 10
3.7900845136
 20
13.0717531745
 10
3.3573952296
 20
13.2064406994
 10
2.9202574951
 20
13.3246054627
 10
2.4784571022
 20
13.4263764956
 10
2.0334313883
 20
13.511365518
 10
1.5848393491
 20
13.5795469182
 10
1.1330219888
 20
13.6309467208
 10
0.6804396576
 20
13.6652540441
 10
0.2274159404
 20
13.6823675568
 10
-0.2263727478
 20
13.6823887343
 10
-0.6794368119
 20
13.6653108368
 10
-1.1321100986
 20
13.6310296218
 10
-1.5840587613
 20
13.5796491878
 10
-2.0327916651
 20
13.5114752372
 10
-2.4779660292
 20
13.4264778725
 10
-2.9199246345
 20
13.324686578
 10
-3.3572046881
 20
13.2064960729
 10
-3.7900131582
 20
13.0717770746
 10
-4.2181430767
 20
12.9206582234
 10
-4.6395107456
 20
12.7539210941
 10
-5.0539103689
 20
12.5715674679
 10
-5.4615477427
 20
12.3735947725
 10
-5.8609565566
 20
12.1607780546
 10
-6.2522066143
 20
11.9330079856
 10
-6.6352281122
 20
11.690393024
 10
-7.0083453292
 20
11.4340349351
 10
-7.3714737708
 20
11.1638992878
 10
-7.7246979315
 20
10.8800196669
 10
-8.0665955745
 20
10.5835999391
 10
-8.3966926208
 20
10.2750411659
 10
-8.7154631493
 20
9.9539415555
 10
-9.0229071601
 20
9.6203007519
  0
LWPOLYLINE
  5
3D3
100
AcDbEntity
  8
RACCORDO
100
AcDbPolyline
 62
7
  6
CONTINUOUS
 90
22
 70
0
 10
9.0229071601
 20
9.6203007519
 10
9.036583548
 20
9.6027590381
 10
9.0478869695
 20
9.5847239142
 10
9.0568174245
 20
9.5661953792
 10
9.063373443
 20
9.5470486849
 10
9.0675564951
 20
9.5274085772
 10
9.0693709908
 20
9.5076492972
 10
9.0688177225
 20
9.4877110576
 10
9.0658958979
 20
9.4676536452
 10
9.0606075495
 20
9.4480306637
 10
9.0529392248
 20
9.428860293
 10
9.0429043763
 20
9.4101243554
 10
9.0305453946
 20
9.3923219203
 10
9.0158086778
 20
9.3754002968
 10
8.9987478277
 20
9.3594121795
 10
8.9795660402
 20
9.3450147183
 10
8.958074891
 20
9.3321806005
 10
8.9344628044
 20
9.3209371436
 10
8.9094982487
 20
9.3120234436
 10
8.8834373802
 20
9.3056858677
 10
8.8560240427
 20
9.3016780528
 10
8.8272582361
 20
9.3
  0
LWPOLYLINE
  5
3D4
100
AcDbEntity
  8
RACCORDO
100
AcDbPolyline
 62
250
  6
CONTINUOUS
 90
13
 70
0
 10
9.046369298
 20
8.9886769903
 10
9.0267812084
 20
9.0214396595
 10
9.0051223952
 20
9.0521666673
 10
8.9815350285
 20
9.0806563191
 10
8.956173938
 20
9.1067216065
 10
8.9292055959
 20
9.1301914345
 10
8.9008070249
 20
9.1509117452
 10
8.8711646355
 20
9.1687465289
 10
8.8404730029
 20
9.1835787163
 10
8.8089335897
 20
9.1953109478
 10
8.7767534232
 20
9.2038662119
 10
8.7441437368
 20
9.2091883513
 10
8.7113185833
 20
9.2112424309
  0
LINE
  5
3D5
100
AcDbEntity
  8
0
100
AcDbLine
 62
7
  6
CONTINUOUS
 10
3.2333672024
 20
-22.5
 11
3.3
 21
-22.4
  0
LINE
  5
3D6
100
AcDbEntity
  8
0
100
AcDbLine
 62
7
  6
CONTINUOUS
 10
3.3
 20
22.4
 11
3.2333672024
 21
22.5
  0
LWPOLYLINE
  5
3D7
100
AcDbEntity
  8
0
100
AcDbPolyline
 62
7
  6
CONTINUOUS
 90
10
 70
0
 43
0.3500000006
 10
1.0714285848
 20
32.7500006104
 10
1.1428571477
 20
32.6071427765
 10
1.1428571477
 20
32.5357161255
 10
1.0000000219
 20
32.3928582916
 10
0.9285714591
 20
32.3928582916
 10
0.8571428254
 20
32.4642849426
 10
0.8571428254
 20
32.5357161255
 10
0.9285714591
 20
32.6785694275
 10
1.0000000219
 20
32.7500006104
 10
1.0714285848
 20
32.7500006104
  0
LWPOLYLINE
  5
3D8
100
AcDbEntity
  8
0
100
AcDbPolyline
 62
7
  6
CONTINUOUS
 90
3
 70
0
 43
0.3500000006
 10
17.7571430969
 20
-0.8571427917
 10
17.7571430969
 20
-2.3571432495
 10
15.4000001678
 20
-1.7142852631
  0
LINE
  5
3D9
100
AcDbEntity
  8
0
100
AcDbLine
 62
250
  6
CONTINUOUS
 10
-10.5005350625
 20
21.0183142309
 11
10.5005350625
 21
21.0183142309
  0
LWPOLYLINE
  5
3DA
100
AcDbEntity
  8
0
100
AcDbPolyline
 62
250
  6
CONTINUOUS
 90
16
 70
0
 10
-10.5087981167
 20
21.9749071372
 10
-10.5610250031
 20
21.97212728
 10
-10.6126802316
 20
21.9639134406
 10
-10.6631985021
 20
21.9503555394
 10
-10.7120269743
 20
21.931601975
 10
-10.7586312804
 20
21.9078580123
 10
-10.8025013793
 20
21.8793835478
 10
-10.8431571925
 20
21.8464902344
 10
-10.8801538308
 20
21.8095380733
 10
-10.9130864355
 20
21.7689315022
 10
-10.941594647
 20
21.7251149336
 10
-10.9653665353
 20
21.6785678925
 10
-10.9841419991
 20
21.6297997904
 10
-10.9977156235
 20
21.5793443309
 10
-11.0059389237
 20
21.5277536674
 10
-11.0087219643
 20
21.4755923698
  0
LWPOLYLINE
  5
3DB
100
AcDbEntity
  8
0
100
AcDbPolyline
 62
250
  6
CONTINUOUS
 90
16
 70
0
 10
-10.5005350625
 20
21.0183142305
 10
-10.5522211666
 20
21.0181637394
 10
-10.6033534788
 20
21.0177896594
 10
-10.6533841411
 20
21.0171959985
 10
-10.701777099
 20
21.0163891176
 10
-10.7480138452
 20
21.015377662
 10
-10.7915989752
 20
21.0141724692
 10
-10.8320654952
 20
21.0127864523
 10
-10.868979826
 20
21.0112344618
 10
-10.9019464483
 20
21.0095331264
 10
-10.9306121405
 20
21.0077006753
 10
-10.9546697635
 20
21.0057567422
 10
-10.9738615515
 20
21.0037221554
 10
-10.9879818737
 20
21.0016187147
 10
-10.9968794376
 20
20.9994689572
 10
-11.0004589101
 20
20.9972959167
  0
LINE
  5
3DC
100
AcDbEntity
  8
0
100
AcDbLine
 62
250
  6
CONTINUOUS
 10
-10.5087981167
 20
21.9749071372
 11
10.5087981167
 21
21.9749071372
  0
LINE
  5
3DD
100
AcDbEntity
  8
0
100
AcDbLine
 62
7
  6
CONTINUOUS
 10
-10.6503805997
 20
22.4
 11
-3.3
 21
22.4
  0
LINE
  5
3DE
100
AcDbEntity
  8
0
100
AcDbLine
 62
7
  6
CONTINUOUS
 10
3.3
 20
22.4
 11
10.6503805997
 21
22.4
  0
LINE
  5
3DF
100
AcDbEntity
  8
ASSI
100
AcDbLine
 62
7
  6
CONTINUOUS
 10
-3.4698202597
 20
22.5
 11
3.4698202597
 21
22.5
  0
LWPOLYLINE
  5
3E0
100
AcDbEntity
  8
0
100
AcDbPolyline
 62
250
  6
CONTINUOUS
 90
15
 70
0
 10
11.0004589101
 20
-20.9972959167
 10
10.9968791436
 20
-20.9994689314
 10
10.9879813308
 20
-21.0016186628
 10
10.9738608069
 20
-21.0037220776
 10
10.9546688652
 20
-21.005756639
 10
10.9306111366
 20
-21.0077005477
 10
10.9019453861
 20
-21.009532976
 10
10.868978751
 20
-21.0112342904
 10
10.8320644502
 20
-21.0127862623
 10
10.7915979997
 20
-21.014172263
 10
10.7480129745
 20
-21.0153774425
 10
10.7017763638
 20
-21.0163888878
 10
10.6533835666
 20
-21.0171957618
 10
10.6033530845
 20
-21.0177894192
 10
10.5522209659
 20
-21.0181634993
  0
LINE
  5
3E1
100
AcDbEntity
  8
ASSI
100
AcDbLine
 62
7
  6
CONTINUOUS
 10
3.6748574782
 20
23.5
 11
-3.6748574782
 21
23.5
  0
LWPOLYLINE
  5
3E2
100
AcDbEntity
  8
0
100
AcDbPolyline
 62
7
  6
CONTINUOUS
 90
7
 70
0
 43
0.3500000006
 10
-0.4285714127
 20
32.2500004578
 10
-1.9285714102
 20
32.2500004578
 10
-0.4285714127
 20
34.392858902
 10
-0.4285714127
 20
34.8214278717
 10
-0.8571428254
 20
35.2500013733
 10
-1.5000000329
 20
35.2500013733
 10
-1.9285714102
 20
34.6071433868
  0
LWPOLYLINE
  5
3E3
100
AcDbEntity
  8
0
100
AcDbPolyline
 62
7
  6
CONTINUOUS
 90
6
 70
0
 43
0.3500000006
 10
2.1428571696
 20
32.2500004578
 10
3.2142856836
 20
32.2500004578
 10
3.4285713015
 20
32.4642849426
 10
3.4285713015
 20
33.5357164307
 10
3.0000000658
 20
33.9642854004
 10
2.5714285469
 20
33.9642854004
  0
LWPOLYLINE
  5
3E4
100
AcDbEntity
  8
0
100
AcDbPolyline
 62
7
  6
CONTINUOUS
 90
7
 70
0
 43
0.3500000006
 10
-2.7857141647
 20
32.2500004578
 10
-4.2857143393
 20
32.2500004578
 10
-2.7857141647
 20
34.392858902
 10
-2.7857141647
 20
34.8214278717
 10
-3.2142856836
 20
35.2500013733
 10
-3.8571428204
 20
35.2500013733
 10
-4.2857143393
 20
34.6071433868
  0
LWPOLYLINE
  5
3E5
100
AcDbEntity
  8
ASSI
100
AcDbPolyline
 62
7
  6
CONTINUOUS
 90
10
 70
0
 10
3.6748574782
 20
23.5
 10
3.7403304144
 20
23.4978093846
 10
3.804984264
 20
23.4914781931
 10
3.8688190271
 20
23.4810064255
 10
3.9320970783
 20
23.4663149731
 10
3.994556043
 20
23.4474829446
 10
4.0554087969
 20
23.4247476662
 10
4.1143929653
 20
23.3981882466
 10
4.1717709229
 20
23.367725577
 10
4.2275426698
 20
23.3333596575
  0
LWPOLYLINE
  5
3E6
100
AcDbEntity
  8
0
100
AcDbPolyline
 62
250
  6
CONTINUOUS
 90
16
 70
0
 10
11.0004589101
 20
20.9972959167
 10
10.9968794369
 20
20.9994689572
 10
10.9879818724
 20
21.0016187146
 10
10.9738615497
 20
21.0037221553
 10
10.9546697613
 20
21.005756742
 10
10.9306121379
 20
21.007700675
 10
10.9019464456
 20
21.009533126
 10
10.8689798232
 20
21.0112344612
 10
10.8320654925
 20
21.0127864516
 10
10.7915989726
 20
21.0141724684
 10
10.7480138429
 20
21.0153776611
 10
10.701777097
 20
21.0163891165
 10
10.6533841395
 20
21.0171959974
 10
10.6033534777
 20
21.0177896584
 10
10.552221166
 20
21.0181637387
 10
10.5005350625
 20
21.0183142302
  0
LWPOLYLINE
  5
3E7
100
AcDbEntity
  8
RACCORDO
100
AcDbPolyline
 62
250
  6
CONTINUOUS
 90
28
 70
0
 10
-88.3068879321
 20
1.5
 10
-88.3020104633
 20
1.7867287474
 10
-88.2900855196
 20
2.0672332143
 10
-88.2710818244
 20
2.3419715026
 10
-88.2446890742
 20
2.6110384247
 10
-88.2110980447
 20
2.8752437665
 10
-88.1710114425
 20
3.1360264881
 10
-88.1246897394
 20
3.3933047978
 10
-88.0716818964
 20
3.6477800831
 10
-88.0116077463
 20
3.901985913
 10
-87.9448093637
 20
4.1559083156
 10
-87.8706679494
 20
4.4100768446
 10
-87.787295511
 20
4.6679377795
 10
-87.6947637503
 20
4.9302781704
 10
-87.5925432707
 20
5.1968516734
 10
-87.4776929426
 20
5.4697538927
 10
-87.3494527889
 20
5.7506152291
 10
-87.20780518
 20
6.0382919124
 10
-87.0507402531
 20
6.3308127488
 10
-86.876691348
 20
6.6293815743
 10
-86.6861433708
 20
6.9328127196
 10
-86.4801372715
 20
7.23539583
 10
-86.258874789
 20
7.5351934733
 10
-86.0211779548
 20
7.8333567069
 10
-85.7660615456
 20
8.1286057292
 10
-85.4928479521
 20
8.4200373493
 10
-85.201198966
 20
8.7071258836
 10
-84.8906379062
 20
8.98899174
  0
LWPOLYLINE
  5
3E8
100
AcDbEntity
  8
RACCORDO
100
AcDbPolyline
 62
250
  6
CONTINUOUS
 90
8
 70
0
 10
-84.6531621398
 20
9.2112424309
 10
-84.6540268656
 20
9.2084833542
 10
-84.6547864295
 20
9.2002668434
 10
-84.6554324512
 20
9.1866809863
 10
-84.6559578087
 20
9.1678721087
 10
-84.6563566578
 20
9.144045212
 10
-84.6566245442
 20
9.1154635797
 10
-84.6567570928
 20
9.0453381425
  0
LWPOLYLINE
  5
3E9
100
AcDbEntity
  8
RACCORDO
100
AcDbPolyline
 62
250
  6
CONTINUOUS
 90
13
 70
0
 10
-84.8910395306
 20
8.9886769903
 10
-84.8774772425
 20
9.0214396595
 10
-84.8623852512
 20
9.0521666673
 10
-84.8458626221
 20
9.0806563191
 10
-84.8280178109
 20
9.1067216065
 10
-84.8089679525
 20
9.1301914345
 10
-84.788838092
 20
9.1509117452
 10
-84.7677603633
 20
9.1687465289
 10
-84.7458731225
 20
9.1835787163
 10
-84.7233200394
 20
9.1953109478
 10
-84.7002491542
 20
9.2038662119
 10
-84.6768119063
 20
9.2091883513
 10
-84.6531621398
 20
9.2112424309
  0
LWPOLYLINE
  5
3EA
100
AcDbEntity
  8
0
100
AcDbPolyline
 62
7
  6
CONTINUOUS
 90
5
 70
0
 43
0.3500000006
 10
-57.6255999298
 20
33.9642854004
 10
-57.2684576111
 20
34.1785698853
 10
-57.2684576111
 20
34.8214278717
 10
-57.6255999298
 20
35.2500013733
 10
-58.4827424011
 20
35.2500013733
  0
LWPOLYLINE
  5
3EB
100
AcDbEntity
  8
0
100
AcDbPolyline
 62
250
  6
CONTINUOUS
 90
19
 70
0
 10
-83.2999457938
 20
-20.9972959167
 10
-83.2964310171
 20
-21.0386290777
 10
-83.2896988752
 20
-21.0790132523
 10
-83.2797493682
 20
-21.1184484403
 10
-83.2664683851
 20
-21.1571917317
 10
-83.2499700369
 20
-21.1949860367
 10
-83.2305966559
 20
-21.2310600856
 10
-83.2082977877
 20
-21.265368307
 10
-83.1831238866
 20
-21.2979562724
 10
-83.1555686482
 20
-21.3281894263
 10
-83.1255807307
 20
-21.3560260411
 10
-83.0932114757
 20
-21.3815078444
 10
-83.059108604
 20
-21.4041254633
 10
-83.0232222861
 20
-21.4238228917
 10
-82.9856023513
 20
-21.4406561357
 10
-82.9470460081
 20
-21.4542838409
 10
-82.9078189927
 20
-21.4645922227
 10
-82.8676555689
 20
-21.4716950656
 10
-82.8265557368
 20
-21.4755923698
  0
LINE
  5
3EC
100
AcDbEntity
  8
RACCORDO
100
AcDbLine
 62
250
  6
CONTINUOUS
 10
-84.6554209225
 20
8.8649684378
 11
-84.6531621398
 21
8.7113185833
  0
LWPOLYLINE
  5
3ED
100
AcDbEntity
  8
RACCORDO
100
AcDbPolyline
 62
250
  6
CONTINUOUS
 90
7
 70
0
 10
-84.6566215025
 20
-6.1159270281
 10
-84.6563517667
 20
-6.1444280708
 10
-84.6559512267
 20
-6.1681746515
 10
-84.6554250249
 20
-6.1868856679
 10
-84.6547796892
 20
-6.2003710632
 10
-84.654022509
 20
-6.2085127018
 10
-84.6531621398
 20
-6.2112424309
  0
LINE
  5
3EE
100
AcDbEntity
  8
RACCORDO
100
AcDbLine
 62
250
  6
CONTINUOUS
 10
-84.6563495389
 20
8.9605655844
 11
-84.6554209225
 21
8.8649684378
  0
LINE
  5
3EF
100
AcDbEntity
  8
RACCORDO
100
AcDbLine
 62
250
  6
CONTINUOUS
 10
-84.6567570928
 20
9.0453381425
 11
-84.6563495389
 21
8.9605655844
  0
LINE
  5
3F0
100
AcDbEntity
  8
RACCORDO
100
AcDbLine
 62
250
  6
CONTINUOUS
 10
-84.6567582407
 20
-6.0459951049
 11
-84.6566215025
 21
-6.1159270281
  0
LINE
  5
3F1
100
AcDbEntity
  8
RACCORDO
100
AcDbLine
 62
7
  6
CONTINUOUS
 10
-84.2273137972
 20
2.3299495859
 11
-84.2272277104
 21
2.3483506924
  0
LINE
  5
3F2
100
AcDbEntity
  8
RACCORDO
100
AcDbLine
 62
250
  6
CONTINUOUS
 10
-84.6563558237
 20
-5.9614163065
 11
-84.6567582407
 21
-6.0459951049
  0
LINE
  5
3F3
100
AcDbEntity
  8
RACCORDO
100
AcDbLine
 62
250
  6
CONTINUOUS
 10
-84.6547859881
 20
-5.8153175325
 11
-84.6563558237
 21
-5.9614163065
  0
LINE
  5
3F4
100
AcDbEntity
  8
RACCORDO
100
AcDbLine
 62
250
  6
CONTINUOUS
 10
-84.6531621398
 20
-5.7113185833
 11
-84.6547859881
 21
-5.8153175325
  0
LWPOLYLINE
  5
3F5
100
AcDbEntity
  8
0
100
AcDbPolyline
 62
250
  6
CONTINUOUS
 90
10
 70
0
 10
-83.2999457938
 20
20.9972959167
 10
-83.4743714531
 20
16.3324771154
 10
-83.6051907287
 20
11.6670364005
 10
-83.6924036206
 20
7.0009737718
 10
-83.7360101702
 20
2.3338756638
 10
-83.7360103361
 20
-2.3338443579
 10
-83.6924039939
 20
-7.0009455965
 10
-83.605191102
 20
-11.6670144863
 10
-83.474371702
 20
-16.3324645931
 10
-83.2999457938
 20
-20.9972959167
  0
LWPOLYLINE
  5
3F6
100
AcDbEntity
  8
RACCORDO
100
AcDbPolyline
 62
250
  6
CONTINUOUS
 90
37
 70
0
 10
-84.653633841
 20
8.7113103497
 10
-84.9898609409
 20
8.4047915521
 10
-85.3099445507
 20
8.0840827104
 10
-85.6138846705
 20
7.7491838245
 10
-85.9023401885
 20
7.3992554229
 10
-86.1746522164
 20
7.0351369772
 10
-86.4288440896
 20
6.6593469017
 10
-86.6647499124
 20
6.2718316051
 10
-86.8825355805
 20
5.8726446786
 10
-87.0807221159
 20
5.4644653104
 10
-87.2591816889
 20
5.0472178399
 10
-87.4180421291
 20
4.6209779276
 10
-87.5562079472
 20
4.1886517435
 10
-87.6735335053
 20
3.7501996016
 10
-87.7701644412
 20
3.3056611877
 10
-87.8454421799
 20
2.8580617291
 10
-87.8992195727
 20
2.4073892094
 10
-87.9316437682
 20
1.953655645
 10
-87.9424976372
 20
1.4999223119
 10
-87.9316363976
 20
1.0461892247
 10
-87.8992048314
 20
0.5924563689
 10
-87.8454201555
 20
0.141784977
 10
-87.7701352519
 20
-0.3058128792
 10
-87.6734972386
 20
-0.7503492714
 10
-87.5561646863
 20
-1.1887991826
 10
-87.4179920289
 20
-1.6211228842
 10
-87.2591248324
 20
-2.0473601046
 10
-87.080658366
 20
-2.4646050122
 10
-86.8824654681
 20
-2.8727812923
 10
-86.6646733003
 20
-3.2719652595
 10
-86.4287586168
 20
-3.659480026
 10
-86.1745493664
 20
-4.0352796096
 10
-85.9022176002
 20
-4.3994099925
 10
-85.613756226
 20
-4.7493322332
 10
-85.3098295466
 20
-5.084200018
 10
-84.9897732592
 20
-5.4048596606
 10
-84.6535873638
 20
-5.711311161
  0
LWPOLYLINE
  5
3F7
100
AcDbEntity
  8
RACCORDO
100
AcDbPolyline
 62
250
  6
CONTINUOUS
 90
16
 70
0
 10
-84.276266438
 20
-6.6203007522
 10
-84.2852149582
 20
-6.5954698346
 10
-84.292017622
 20
-6.5685586379
 10
-84.2965261912
 20
-6.5401535329
 10
-84.2986424145
 20
-6.5108734083
 10
-84.2983201595
 20
-6.4813563024
 10
-84.2955664505
 20
-6.4522454996
 10
-84.2904413061
 20
-6.4241753136
 10
-84.2830564157
 20
-6.397757369
 10
-84.2735727432
 20
-6.3735673673
 10
-84.2621969687
 20
-6.3521323548
 10
-84.2491769856
 20
-6.3339193182
 10
-84.2347965446
 20
-6.3193250687
 10
-84.219369014
 20
-6.3086675065
 10
-84.2032305387
 20
-6.3021787263
 10
-84.1930400936
 20
-6.3008329586
  0
LINE
  5
3F8
100
AcDbEntity
  8
0
100
AcDbLine
 62
250
  6
CONTINUOUS
 10
-82.8265557368
 20
21.4755923698
 11
-82.8342082829
 21
21.6297989097
  0
LINE
  5
3F9
100
AcDbEntity
  8
0
100
AcDbLine
 62
250
  6
CONTINUOUS
 10
-82.8342082829
 20
21.6297989097
 11
-82.838460852
 21
21.7251138478
  0
LINE
  5
3FA
100
AcDbEntity
  8
0
100
AcDbLine
 62
250
  6
CONTINUOUS
 10
-82.838460852
 20
21.7251138478
 11
-82.8418128312
 21
21.8095370623
  0
LWPOLYLINE
  5
3FB
100
AcDbEntity
  8
0
100
AcDbPolyline
 62
250
  6
CONTINUOUS
 90
8
 70
0
 10
-82.8418128312
 20
21.8095370623
 10
-82.8441178683
 20
21.8793828084
 10
-82.8448444098
 20
21.9078574436
 10
-82.8452753116
 20
21.9316015798
 10
-82.8454058545
 20
21.9503553003
 10
-82.8452346078
 20
21.9639133265
 10
-82.8447634436
 20
21.9721272495
 10
-82.8439975163
 20
21.974907137
  0
LWPOLYLINE
  5
3FC
100
AcDbEntity
  8
0
100
AcDbPolyline
 62
250
  6
CONTINUOUS
 90
7
 70
0
 10
-82.8441180063
 20
-21.8793857675
 10
-82.8448445095
 20
-21.90785972
 10
-82.8452753748
 20
-21.931603162
 10
-82.8454058868
 20
-21.9503562578
 10
-82.845234617
 20
-21.9639137831
 10
-82.8447634398
 20
-21.9721273713
 10
-82.8439975117
 20
-21.9749071372
  0
LINE
  5
3FD
100
AcDbEntity
  8
0
100
AcDbLine
 62
250
  6
CONTINUOUS
 10
-82.8418130365
 20
-21.8095411066
 11
-82.8441180063
 21
-21.8793857675
  0
LINE
  5
3FE
100
AcDbEntity
  8
0
100
AcDbLine
 62
250
  6
CONTINUOUS
 10
-82.8384610868
 20
-21.7251181902
 11
-82.8418130365
 21
-21.8095411066
  0
LINE
  5
3FF
100
AcDbEntity
  8
0
100
AcDbLine
 62
250
  6
CONTINUOUS
 10
-82.8318011266
 20
-21.5793463095
 11
-82.8384610868
 21
-21.7251181902
  0
LINE
  5
400
100
AcDbEntity
  8
0
100
AcDbLine
 62
250
  6
CONTINUOUS
 10
-82.8265557368
 20
-21.4755923698
 11
-82.8318011266
 21
-21.5793463095
  0
LWPOLYLINE
  5
401
100
AcDbEntity
  8
RACCORDO
100
AcDbPolyline
 62
250
  6
CONTINUOUS
 90
35
 70
0
 10
-66.8273144775
 20
21.008865999
 10
-66.8117110892
 20
21.0137781776
 10
-66.796466386
 20
21.0182843148
 10
-66.781590568
 20
21.0224004128
 10
-66.767136834
 20
21.0261343391
 10
-66.7530683745
 20
21.0295133747
 10
-66.73926005
 20
21.0325738106
 10
-66.7256962786
 20
21.0353261514
 10
-66.7124070516
 20
21.0377749712
 10
-66.6993371726
 20
21.0399343628
 10
-66.6864873196
 20
21.0418086568
 10
-66.673870315
 20
21.0434020959
 10
-66.6614506274
 20
21.0447214303
 10
-66.6492348253
 20
21.0457678588
 10
-66.6372299546
 20
21.0465441323
 10
-66.6254030451
 20
21.0470532915
 10
-66.6137613918
 20
21.0472939863
 10
-66.602312846
 20
21.0472663493
 10
-66.5910278262
 20
21.0469694287
 10
-66.5799148101
 20
21.0463991732
 10
-66.5689833498
 20
21.0455530187
 10
-66.5582087532
 20
21.0444258682
 10
-66.54760467
 20
21.0430113064
 10
-66.5371796025
 20
21.041303854
 10
-66.5269057179
 20
21.0392923701
 10
-66.5168119401
 20
21.0369694675
 10
-66.5068978279
 20
21.0343241247
 10
-66.4971009542
 20
21.0313261097
 10
-66.4874358076
 20
21.0279525228
 10
-66.4779341828
 20
21.024188346
 10
-66.4685730175
 20
21.0199982106
 10
-66.4593755778
 20
21.0153510822
 10
-66.4503840916
 20
21.0102260485
 10
-66.4416160524
 20
21.0045906808
 10
-66.4331071771
 20
20.9984123412
  0
LWPOLYLINE
  5
402
100
AcDbEntity
  8
ASSI
100
AcDbPolyline
 62
250
  6
CONTINUOUS
 90
35
 70
0
 10
-66.8273144775
 20
21.008865999
 10
-66.8117110892
 20
21.0137781776
 10
-66.796466386
 20
21.0182843148
 10
-66.781590568
 20
21.0224004128
 10
-66.767136834
 20
21.0261343391
 10
-66.7530683745
 20
21.0295133747
 10
-66.73926005
 20
21.0325738106
 10
-66.7256962786
 20
21.0353261514
 10
-66.7124070516
 20
21.0377749712
 10
-66.6993371726
 20
21.0399343628
 10
-66.6864873196
 20
21.0418086568
 10
-66.673870315
 20
21.0434020959
 10
-66.6614506274
 20
21.0447214303
 10
-66.6492348253
 20
21.0457678588
 10
-66.6372299546
 20
21.0465441323
 10
-66.6254030451
 20
21.0470532915
 10
-66.6137613918
 20
21.0472939863
 10
-66.602312846
 20
21.0472663493
 10
-66.5910278262
 20
21.0469694287
 10
-66.5799148101
 20
21.0463991732
 10
-66.5689833498
 20
21.0455530187
 10
-66.5582087532
 20
21.0444258682
 10
-66.54760467
 20
21.0430113064
 10
-66.5371796025
 20
21.041303854
 10
-66.5269057179
 20
21.0392923701
 10
-66.5168119401
 20
21.0369694675
 10
-66.5068978279
 20
21.0343241247
 10
-66.4971009542
 20
21.0313261097
 10
-66.4874358076
 20
21.0279525228
 10
-66.4779341828
 20
21.024188346
 10
-66.4685730175
 20
21.0199982106
 10
-66.4593755778
 20
21.0153510822
 10
-66.4503840916
 20
21.0102260485
 10
-66.4416160524
 20
21.0045906808
 10
-66.4331071771
 20
20.9984123412
  0
LINE
  5
403
100
AcDbEntity
  8
ASSI
100
AcDbLine
 62
7
  6
CONTINUOUS
 10
-70.7327424918
 20
-23.0998904748
 11
-72.0502534298
 21
-23.1271890473
  0
LINE
  5
404
100
AcDbEntity
  8
ASSI
100
AcDbLine
 62
7
  6
CONTINUOUS
 10
-72.0502534298
 20
-23.1271890473
 11
-73.383605249
 21
-23.1538438986
  0
LINE
  5
405
100
AcDbEntity
  8
ASSI
100
AcDbLine
 62
7
  6
CONTINUOUS
 10
-73.383605249
 20
-23.1538438986
 11
-74.7327424918
 21
-23.1799085618
  0
LINE
  5
406
100
AcDbEntity
  8
ASSI
100
AcDbLine
 62
7
  6
CONTINUOUS
 10
-70.7327424918
 20
-23.4301797403
 11
-74.7327424918
 21
-23.5
  0
LINE
  5
407
100
AcDbEntity
  8
ASSI
100
AcDbLine
 62
250
  6
CONTINUOUS
 10
-70.7327424918
 20
-23.2631073618
 11
-74.7327424918
 21
-23.3333596575
  0
LINE
  5
408
100
AcDbEntity
  8
ASSI
100
AcDbLine
 62
7
  6
CONTINUOUS
 10
-72.0502534298
 20
-22.6398612444
 11
-74.7327424918
 21
-22.663166622
  0
LINE
  5
409
100
AcDbEntity
  8
ASSI
100
AcDbLine
 62
7
  6
CONTINUOUS
 10
-70.7327424918
 20
-22.6298666026
 11
-72.0502534298
 21
-22.6398612444
  0
LINE
  5
40A
100
AcDbEntity
  8
ASSI
100
AcDbLine
 62
7
  6
CONTINUOUS
 10
-68.5832470079
 20
-22.2
 11
-69.1327424918
 21
-22.2
  0
LINE
  5
40B
100
AcDbEntity
  8
0
100
AcDbLine
 62
7
  6
CONTINUOUS
 10
-82.8439975117
 20
-21.9749071372
 11
-74.7327424918
 21
-22.4
  0
LINE
  5
40C
100
AcDbEntity
  8
0
100
AcDbLine
 62
250
  6
CONTINUOUS
 10
-82.8265557368
 20
-21.4755923698
 11
-74.7327424918
 21
-21.8997711479
  0
LWPOLYLINE
  5
40D
100
AcDbEntity
  8
RACCORDO
100
AcDbPolyline
 62
250
  6
CONTINUOUS
 90
28
 70
0
 10
-84.8914359427
 20
-5.9882726573
 10
-85.2013525017
 20
-5.7069939719
 10
-85.4924936486
 20
-5.4204182269
 10
-85.7653303298
 20
-5.1294192662
 10
-86.0202181323
 20
-4.8345025649
 10
-86.2578050269
 20
-4.5365852629
 10
-86.4790033243
 20
-4.2369949665
 10
-86.6849746145
 20
-3.9345918333
 10
-86.8755297138
 20
-3.6313023739
 10
-87.0496026238
 20
-3.3328517427
 10
-87.206697881
 20
-3.0404446732
 10
-87.3483914157
 20
-2.7528599906
 10
-87.4766987253
 20
-2.4720291467
 10
-87.5916450318
 20
-2.19907877
 10
-87.6939812448
 20
-1.9323994667
 10
-87.786629625
 20
-1.6699124118
 10
-87.8701192827
 20
-1.411852854
 10
-87.9443791149
 20
-1.1574463196
 10
-88.0112804865
 20
-0.9032964755
 10
-88.0714362009
 20
-0.6488902697
 10
-88.1245112122
 20
-0.3942234985
 10
-88.1708888193
 20
-0.1367594509
 10
-88.211021065
 20
0.1242161058
 10
-88.2446470005
 20
0.3886099547
 10
-88.27106471
 20
0.6578276652
 10
-88.2900837715
 20
0.932668491
 10
-88.3020144008
 20
1.213239576
 10
-88.3068879321
 20
1.5
  0
LINE
  5
40E
100
AcDbEntity
  8
0
100
AcDbLine
 62
250
  6
CONTINUOUS
 10
-83.7880973377
 20
-21.0181634993
 11
-83.7907719562
 21
-21.018313994
  0
LINE
  5
40F
100
AcDbEntity
  8
0
100
AcDbLine
 62
250
  6
CONTINUOUS
 10
-83.4522172543
 20
-21.0037220776
 11
-83.7880973377
 21
-21.0181634993
  0
LWPOLYLINE
  5
410
100
AcDbEntity
  8
0
100
AcDbPolyline
 62
250
  6
CONTINUOUS
 90
3
 70
0
 10
-83.2999457938
 20
-20.9972959167
 10
-83.3515311127
 20
-20.9994689314
 10
-83.4522172543
 20
-21.0037220776
  0
LWPOLYLINE
  5
411
100
AcDbEntity
  8
RACCORDO
100
AcDbPolyline
 62
250
  6
CONTINUOUS
 90
16
 70
0
 10
-64.5411403126
 20
-19.2117738234
 10
-64.59997034
 20
-19.2133622572
 10
-64.6595766304
 20
-19.2180939124
 10
-64.7199591838
 20
-19.2259673554
 10
-64.7812355011
 20
-19.2367944184
 10
-64.8432880813
 20
-19.2507564497
 10
-64.9057644212
 20
-19.2684031892
 10
-64.9688902129
 20
-19.2898136808
 10
-65.0324397643
 20
-19.3148897551
 10
-65.0953834961
 20
-19.3439102967
 10
-65.1577200629
 20
-19.3769471695
 10
-65.2194508102
 20
-19.4138940664
 10
-65.2795501951
 20
-19.4547577168
 10
-65.3376763698
 20
-19.4995237976
 10
-65.3941711821
 20
-19.5481572165
 10
-65.449034632
 20
-19.6006295381
  0
LWPOLYLINE
  5
412
100
AcDbEntity
  8
ASSI
100
AcDbPolyline
 62
250
  6
CONTINUOUS
 90
16
 70
0
 10
-64.5411403126
 20
-19.2117738234
 10
-64.59997034
 20
-19.2133622572
 10
-64.6595766304
 20
-19.2180939124
 10
-64.7199591838
 20
-19.2259673554
 10
-64.7812355011
 20
-19.2367944184
 10
-64.8432880813
 20
-19.2507564497
 10
-64.9057644212
 20
-19.2684031892
 10
-64.9688902129
 20
-19.2898136808
 10
-65.0324397643
 20
-19.3148897551
 10
-65.0953834961
 20
-19.3439102967
 10
-65.1577200629
 20
-19.3769471695
 10
-65.2194508102
 20
-19.4138940664
 10
-65.2795501951
 20
-19.4547577168
 10
-65.3376763698
 20
-19.4995237976
 10
-65.3941711821
 20
-19.5481572165
 10
-65.449034632
 20
-19.6006295381
  0
LINE
  5
413
100
AcDbEntity
  8
ASSI
100
AcDbLine
 62
7
  6
CONTINUOUS
 10
-66.7618876938
 20
-21.1306884717
 11
-70.7327424918
 21
-21.2
  0
LINE
  5
414
100
AcDbEntity
  8
RACCORDO
100
AcDbLine
 62
7
  6
CONTINUOUS
 10
-66.7618876938
 20
-21.1306884717
 11
-70.7327424918
 21
-21.2
  0
LINE
  5
415
100
AcDbEntity
  8
RACCORDO
100
AcDbLine
 62
250
  6
CONTINUOUS
 10
-66.8273140206
 20
-21.0088656546
 11
-70.7327424917
 21
-21.0773406518
  0
LINE
  5
416
100
AcDbEntity
  8
ASSI
100
AcDbLine
 62
250
  6
CONTINUOUS
 10
-66.8273140206
 20
-21.0088656546
 11
-70.7327424917
 21
-21.0773406518
  0
LINE
  5
417
100
AcDbEntity
  8
SMUSSO
100
AcDbLine
 62
7
  6
CONTINUOUS
 10
-63.4920116092
 20
-19.3882996188
 11
-63.4911238329
 21
-19.3882918713
  0
LINE
  5
418
100
AcDbEntity
  8
SMUSSO
100
AcDbLine
 62
7
  6
CONTINUOUS
 10
-62.4763837119
 20
-19.3794363685
 11
-37.7327424918
 21
-19.1635018829
  0
LINE
  5
419
100
AcDbEntity
  8
RACCORDO
100
AcDbLine
 62
7
  6
CONTINUOUS
 10
-37.7327424918
 20
-19.1635018829
 11
-64.5463758351
 21
-19.397500916
  0
LINE
  5
41A
100
AcDbEntity
  8
ASSI
100
AcDbLine
 62
7
  6
CONTINUOUS
 10
-37.7327424918
 20
-19.1635018829
 11
-64.5463758351
 21
-19.397500916
  0
LINE
  5
41B
100
AcDbEntity
  8
RACCORDO
100
AcDbLine
 62
250
  6
CONTINUOUS
 10
-37.7327424918
 20
-18.9798113381
 11
-64.5411403126
 21
-19.2117738234
  0
LINE
  5
41C
100
AcDbEntity
  8
ASSI
100
AcDbLine
 62
250
  6
CONTINUOUS
 10
-37.7327424918
 20
-18.9798113381
 11
-64.5411403126
 21
-19.2117738234
  0
LINE
  5
41D
100
AcDbEntity
  8
ASSI
100
AcDbLine
 62
7
  6
CONTINUOUS
 10
-74.7327424918
 20
23.5
 11
-74.7327424918
 21
22.4
  0
LINE
  5
41E
100
AcDbEntity
  8
ASSI
100
AcDbLine
 62
7
  6
CONTINUOUS
 10
-74.7327424918
 20
-23.5
 11
-74.7327424918
 21
-22.4
  0
LINE
  5
41F
100
AcDbEntity
  8
0
100
AcDbLine
 62
7
  6
CONTINUOUS
 10
-74.7327424918
 20
22.4
 11
-74.7327424918
 21
-22.4
  0
LINE
  5
420
100
AcDbEntity
  8
ASSI
100
AcDbLine
 62
7
  6
CONTINUOUS
 10
-74.7327424918
 20
-16.119659166
 11
-74.7327424918
 21
16.3426042235
  0
LINE
  5
421
100
AcDbEntity
  8
RACCORDO
100
AcDbLine
 62
250
  6
CONTINUOUS
 10
-84.8910395306
 20
-5.9886769903
 11
-84.8231372378
 21
-5.9086782169
  0
LINE
  5
422
100
AcDbEntity
  8
RACCORDO
100
AcDbLine
 62
250
  6
CONTINUOUS
 10
-84.8231372378
 20
-5.9086782169
 11
-84.7127498646
 21
-5.7801551184
  0
LINE
  5
423
100
AcDbEntity
  8
RACCORDO
100
AcDbLine
 62
250
  6
CONTINUOUS
 10
-84.7127498646
 20
-5.7801551184
 11
-84.6531621398
 21
-5.7113185833
  0
LWPOLYLINE
  5
424
100
AcDbEntity
  8
0
100
AcDbPolyline
 62
250
  6
CONTINUOUS
 90
3
 70
0
 10
-74.7327424918
 20
-16.119659166
 10
-58.2149505481
 20
-16.019183427
 10
-37.7327424918
 20
-15.8937104774
  0
LWPOLYLINE
  5
425
100
AcDbEntity
  8
ASSI
100
AcDbPolyline
 62
250
  6
CONTINUOUS
 90
3
 70
0
 10
-74.7327424918
 20
-16.119659166
 10
-58.2149505481
 20
-16.019183427
 10
-37.7327424918
 20
-15.8937104774
  0
LINE
  5
426
100
AcDbEntity
  8
0
100
AcDbLine
 62
250
  6
CONTINUOUS
 10
-74.7327424918
 20
-17.3594295692
 11
-37.7327424918
 21
-17.1472402523
  0
LINE
  5
427
100
AcDbEntity
  8
ASSI
100
AcDbLine
 62
250
  6
CONTINUOUS
 10
-74.7327424918
 20
-17.3594295692
 11
-37.7327424918
 21
-17.1472402523
  0
LINE
  5
428
100
AcDbEntity
  8
CURVE
100
AcDbLine
 62
250
  6
CONTINUOUS
 10
-70.1342143543
 20
-14.4485281374
 11
-69.92208232
 21
-14.6606601718
  0
LINE
  5
429
100
AcDbEntity
  8
CURVE
100
AcDbLine
 62
250
  6
CONTINUOUS
 10
-71.8312706292
 20
-12.7514718626
 11
-72.0434026635
 21
-12.5393398282
  0
LINE
  5
42A
100
AcDbEntity
  8
CURVE
100
AcDbLine
 62
250
  6
CONTINUOUS
 10
-71.5898853813
 20
-10.0
 11
-72.1327424918
 21
-9.4571428329
  0
LWPOLYLINE
  5
42B
100
AcDbEntity
  8
CURVE
100
AcDbPolyline
 62
250
  6
CONTINUOUS
 90
57
 70
0
 10
-72.3588494819
 20
4.8430726704
 10
-72.3571744234
 20
4.8056019211
 10
-72.3548405249
 20
4.7680536133
 10
-72.3518607659
 20
4.7304820334
 10
-72.3482481264
 20
4.6929414676
 10
-72.3440155859
 20
4.655486202
 10
-72.3391761242
 20
4.6181705228
 10
-72.3337427211
 20
4.5810487164
 10
-72.3277283563
 20
4.5441750688
 10
-72.3211460096
 20
4.5076038664
 10
-72.3140086606
 20
4.4713893953
 10
-72.3091315483
 20
4.4483427971
 10
-72.3039875004
 20
4.4254360402
 10
-72.2985330381
 20
4.4026395177
 10
-72.2927246826
 20
4.3799236227
 10
-72.2865189549
 20
4.3572587486
 10
-72.2798723763
 20
4.3346152884
 10
-72.272741468
 20
4.3119636353
 10
-72.265082751
 20
4.2892741825
 10
-72.2568527466
 20
4.2665173232
 10
-72.2480079759
 20
4.2436634507
 10
-72.23850496
 20
4.220682958
 10
-72.2283002203
 20
4.1975462383
 10
-72.2173502777
 20
4.1742236849
 10
-72.211562471
 20
4.1624465914
 10
-72.2055764295
 20
4.1506401302
 10
-72.1993924866
 20
4.1388291758
 10
-72.1930109758
 20
4.1270386026
 10
-72.1864322308
 20
4.1152932849
 10
-72.179656585
 20
4.1036180971
 10
-72.1726843719
 20
4.0920379136
 10
-72.1655159251
 20
4.0805776088
 10
-72.1581515779
 20
4.0692620572
 10
-72.1505916641
 20
4.058116133
 10
-72.142836517
 20
4.0471647107
 10
-72.1348864703
 20
4.0364326646
 10
-72.1267418573
 20
4.0259448692
 10
-72.1184030116
 20
4.0157261988
 10
-72.1098702668
 20
4.0058015279
 10
-72.1011439564
 20
3.9961957308
 10
-72.0922244138
 20
3.9869336819
 10
-72.0831119725
 20
3.9780402556
 10
-72.0738069662
 20
3.9695403262
 10
-72.0643097282
 20
3.9614587683
 10
-72.0546205922
 20
3.9538204561
 10
-72.0447398916
 20
3.946650264
 10
-72.03466796
 20
3.9399730665
 10
-72.0244051308
 20
3.933813738
 10
-72.0139517376
 20
3.9281971527
 10
-72.0033081139
 20
3.9231481852
 10
-71.9924745931
 20
3.9186917098
 10
-71.9814515089
 20
3.9148526008
 10
-71.9702391948
 20
3.9116557327
 10
-71.9588379841
 20
3.9091259799
 10
-71.9472482105
 20
3.9072882168
 10
-71.9354702075
 20
3.9061673176
 10
-71.9235043086
 20
3.905788157
  0
LWPOLYLINE
  5
42C
100
AcDbEntity
  8
CURVE
100
AcDbPolyline
 62
250
  6
CONTINUOUS
 90
72
 70
0
 10
-71.7327424903
 20
0.4999999992
 10
-71.7317773809
 20
0.438513238
 10
-71.7287889468
 20
0.3750659333
 10
-71.7236375291
 20
0.3095981593
 10
-71.7161626181
 20
0.2420159314
 10
-71.7061203015
 20
0.1720890288
 10
-71.6932458161
 20
0.0995531718
 10
-71.6773106324
 20
0.02428746
 10
-71.6582311558
 20
-0.0532554898
 10
-71.6359600248
 20
-0.1324796814
 10
-71.6104614124
 20
-0.2128490369
 10
-71.5817456282
 20
-0.2940671512
 10
-71.5498345158
 20
-0.3758975374
 10
-71.5147538116
 20
-0.4581128131
 10
-71.4765448238
 20
-0.5405220142
 10
-71.4352527535
 20
-0.6229432808
 10
-71.3909328464
 20
-0.7051883875
 10
-71.3436805275
 20
-0.787043646
 10
-71.2936012664
 20
-0.868289002
 10
-71.229941116
 20
-0.9646823253
 10
-71.1626524475
 20
-1.0595830791
 10
-71.0920256631
 20
-1.1526938309
 10
-71.0183511651
 20
-1.2437171487
 10
-70.9419193557
 20
-1.3323556002
 10
-70.8630147675
 20
-1.4183389329
 10
-70.7818984544
 20
-1.5015056131
 10
-70.6988256007
 20
-1.5817212869
 10
-70.6140513906
 20
-1.6588516002
 10
-70.5278310086
 20
-1.7327621991
 10
-70.4404420684
 20
-1.8033213867
 10
-70.3522519028
 20
-1.8704080947
 10
-70.2636502741
 20
-1.9339039121
 10
-70.1750269446
 20
-1.9936904278
 10
-70.0867716767
 20
-2.0496492306
 10
-69.9992247385
 20
-2.1017031583
 10
-69.9125284214
 20
-2.1499400444
 10
-69.8267755227
 20
-2.1944889708
 10
-69.7420588397
 20
-2.2354790199
 10
-69.6584711696
 20
-2.2730392737
 10
-69.5761036654
 20
-2.307295426
 10
-69.4950409028
 20
-2.3383596159
 10
-69.4153658132
 20
-2.3663405941
 10
-69.3371613281
 20
-2.3913471112
 10
-69.260510379
 20
-2.4134879177
 10
-69.1854744858
 20
-2.432873445
 10
-69.1120295231
 20
-2.4496208472
 10
-69.0401299542
 20
-2.463848959
 10
-68.9697302422
 20
-2.475676615
 10
-68.9007848504
 20
-2.48522265
 10
-68.8165726731
 20
-2.4941225855
 10
-68.7344355639
 20
-2.4998445707
 10
-68.6542473671
 20
-2.5025900088
 10
-68.5758819268
 20
-2.5025603029
 10
-68.4992151965
 20
-2.4999513248
 10
-68.4241315679
 20
-2.4949368197
 10
-68.3505175419
 20
-2.4876850015
 10
-68.2782596197
 20
-2.478364084
 10
-68.1837939083
 20
-2.4629538328
 10
-68.0910574047
 20
-2.4442359461
 10
-67.9995702415
 20
-2.4222821404
 10
-67.9089345269
 20
-2.3971615489
 10
-67.819080271
 20
-2.3689329708
 10
-67.7300194592
 20
-2.3376526217
 10
-67.6417888458
 20
-2.3033884051
 10
-67.5545242595
 20
-2.2662549754
 10
-67.4683862981
 20
-2.2263786749
 10
-67.3835282295
 20
-2.1838873931
 10
-67.3000740046
 20
-2.1389152081
 10
-67.2181402449
 20
-2.0915977456
 10
-67.1378128507
 20
-2.0420471602
 10
-67.0590548374
 20
-1.9902817233
 10
-66.9817984994
 20
-1.9362962353
  0
LINE
  5
42D
100
AcDbEntity
  8
CURVE
100
AcDbLine
 62
250
  6
CONTINUOUS
 10
-72.4827424918
 20
-14.0
 11
-72.4827424918
 21
-13.2
  0
LINE
  5
42E
100
AcDbEntity
  8
CURVE
100
AcDbLine
 62
250
  6
CONTINUOUS
 10
-72.3180623629
 20
4.218216
 11
-72.3180623629
 21
4.31759
  0
LINE
  5
42F
100
AcDbEntity
  8
CURVE
100
AcDbLine
 62
250
  6
CONTINUOUS
 10
-72.1327424918
 20
-8.5071428895
 11
-72.1327424918
 21
-8.3714285553
  0
LINE
  5
430
100
AcDbEntity
  8
CURVE
100
AcDbLine
 62
250
  6
CONTINUOUS
 10
-72.1327424918
 20
-7.014285779
 11
-72.1327424918
 21
-6.8785713315
  0
LINE
  5
431
100
AcDbEntity
  8
CURVE
100
AcDbLine
 62
250
  6
CONTINUOUS
 10
-72.1327424918
 20
-5.521428442
 11
-72.1327424918
 21
-5.385714221
  0
LINE
  5
432
100
AcDbEntity
  8
CURVE
100
AcDbLine
 62
250
  6
CONTINUOUS
 10
-71.9235044651
 20
3.690027
 11
-71.9235044651
 21
6.127934
  0
LINE
  5
433
100
AcDbEntity
  8
CURVE
100
AcDbLine
 62
250
  6
CONTINUOUS
 10
-71.560649738
 20
6.067887
 11
-71.560649738
 21
6.417947
  0
LINE
  5
434
100
AcDbEntity
  8
CURVE
100
AcDbLine
 62
250
  6
CONTINUOUS
 10
-72.4110222025
 20
4.843073
 11
-72.4104642875
 21
5.416076
  0
LINE
  5
435
100
AcDbEntity
  8
CURVE
100
AcDbLine
 62
250
  6
CONTINUOUS
 10
-72.1930034128
 20
5.416076
 11
-72.1935613279
 21
4.843073
  0
LWPOLYLINE
  5
436
100
AcDbEntity
  8
CURVE
100
AcDbPolyline
 62
250
  6
CONTINUOUS
 90
36
 70
0
 10
-72.0766637247
 20
6.103542891
 10
-72.0898055646
 20
6.0901079138
 10
-72.1025459621
 20
6.0762969087
 10
-72.1148906142
 20
6.062124287
 10
-72.1268452183
 20
6.0476044602
 10
-72.1384154716
 20
6.0327518397
 10
-72.1496070711
 20
6.017580837
 10
-72.1604257142
 20
6.0021058634
 10
-72.1708770979
 20
5.9863413305
 10
-72.1809669195
 20
5.9703016496
 10
-72.1907008763
 20
5.9540012322
 10
-72.2000846653
 20
5.9374544897
 10
-72.2091239838
 20
5.9206758336
 10
-72.217824529
 20
5.9036796753
 10
-72.226191998
 20
5.8864804262
 10
-72.2342320881
 20
5.8690924979
 10
-72.2419504965
 20
5.8515303016
 10
-72.2493529203
 20
5.8338082489
 10
-72.2564450568
 20
5.8159407511
 10
-72.2632326031
 20
5.7979422198
 10
-72.2697212564
 20
5.7798270664
 10
-72.275916714
 20
5.7616097022
 10
-72.281824673
 20
5.7433045388
 10
-72.2874508306
 20
5.7249259875
 10
-72.2928008841
 20
5.7064884599
 10
-72.2978805305
 20
5.6880063672
 10
-72.3026954672
 20
5.6694941211
 10
-72.3072513912
 20
5.6509661329
 10
-72.3115539999
 20
5.632436814
 10
-72.3173983837
 20
5.6054102254
 10
-72.3227770565
 20
5.5784004564
 10
-72.3277518148
 20
5.5513964603
 10
-72.3323844551
 20
5.5243871904
 10
-72.3367367741
 20
5.4973615999
 10
-72.3408705681
 20
5.4703086422
 10
-72.3487297676
 20
5.4160764381
  0
LINE
  5
437
100
AcDbEntity
  8
RACCORDO
100
AcDbLine
 62
7
  6
CONTINUOUS
 10
-84.1704765609
 20
-14.35
 11
-84.0267705894
 21
-14.35
  0
LINE
  5
438
100
AcDbEntity
  8
SUPERFICI
100
AcDbLine
 62
7
  6
CONTINUOUS
 10
-84.1704765609
 20
-14.35
 11
-84.0267705894
 21
-14.35
  0
LINE
  5
439
100
AcDbEntity
  8
CURVE
100
AcDbLine
 62
250
  6
CONTINUOUS
 10
-71.8992576307
 20
-14.0
 11
-72.4827424918
 21
-14.0
  0
LINE
  5
43A
100
AcDbEntity
  8
RACCORDO
100
AcDbLine
 62
7
  6
CONTINUOUS
 10
-84.0463766787
 20
-13.65
 11
-84.1704765609
 21
-13.65
  0
LINE
  5
43B
100
AcDbEntity
  8
SUPERFICI
100
AcDbLine
 62
7
  6
CONTINUOUS
 10
-84.0463766787
 20
-13.65
 11
-84.1704765609
 21
-13.65
  0
LINE
  5
43C
100
AcDbEntity
  8
CURVE
100
AcDbLine
 62
250
  6
CONTINUOUS
 10
-69.7827424918
 20
-13.6
 11
-69.4827424918
 21
-13.6
  0
LINE
  5
43D
100
AcDbEntity
  8
SMUSSO
100
AcDbLine
 62
7
  6
CONTINUOUS
 10
-37.7327424918
 20
-13.7405453306
 11
-62.4676579711
 21
-13.5246869934
  0
LINE
  5
43E
100
AcDbEntity
  8
ASSI
100
AcDbLine
 62
7
  6
CONTINUOUS
 10
-37.7327424918
 20
-13.7405453306
 11
-62.4676579711
 21
-13.5246869934
  0
LINE
  5
43F
100
AcDbEntity
  8
SMUSSO
100
AcDbLine
 62
7
  6
CONTINUOUS
 10
-37.7327424918
 20
-13.4725351287
 11
-62.4827710495
 21
-13.2565449016
  0
LINE
  5
440
100
AcDbEntity
  8
ASSI
100
AcDbLine
 62
7
  6
CONTINUOUS
 10
-37.7327424918
 20
-13.4725351287
 11
-62.4827710495
 21
-13.2565449016
  0
LWPOLYLINE
  5
441
100
AcDbEntity
  8
SMUSSO
100
AcDbPolyline
 62
7
  6
CONTINUOUS
 90
40
 70
0
 10
-62.4676579711
 20
-13.5246869934
 10
-62.550271051
 20
-13.5205638091
 10
-62.6313690581
 20
-13.5100671367
 10
-62.7109519924
 20
-13.4931969761
 10
-62.7895575452
 20
-13.4697522139
 10
-62.8666480252
 20
-13.4399339634
 10
-62.9406103586
 20
-13.4043455654
 10
-63.0113163307
 20
-13.3628983501
 10
-63.0788941562
 20
-13.3156809872
 10
-63.1421154058
 20
-13.2635628271
 10
-63.200924786
 20
-13.2064326861
 10
-63.2553775902
 20
-13.1444017477
 10
-63.3044112697
 20
-13.078672913
 10
-63.3479115978
 20
-13.0091843752
 10
-63.385992801
 20
-12.9359979409
 10
-63.4179350107
 20
-12.8605019314
 10
-63.4436229746
 20
-12.7826480679
 10
-63.463171945
 20
-12.7024846292
 10
-63.4762078093
 20
-12.6215447722
 10
-63.4826047552
 20
-12.5398148593
 10
-63.4824885951
 20
-12.4573085281
 10
-63.4758626543
 20
-12.3755998489
 10
-63.4626042509
 20
-12.2947075502
 10
-63.4428360668
 20
-12.2146129035
 10
-63.4169294731
 20
-12.1368337935
 10
-63.384757808
 20
-12.0614018662
 10
-63.3464477333
 20
-11.9882854756
 10
-63.3027506057
 20
-11.9189075676
 10
-63.2535865746
 20
-11.8533646647
 10
-63.1990354906
 20
-11.7915602444
 10
-63.1400882624
 20
-11.7346276852
 10
-63.0766422686
 20
-11.682634083
 10
-63.0088001307
 20
-11.635512342
 10
-62.9378606211
 20
-11.5941945526
 10
-62.8635943804
 20
-11.5587959295
 10
-62.786230768
 20
-11.529201258
 10
-62.7077566357
 20
-11.5059969853
 10
-62.6288342674
 20
-11.4893785937
 10
-62.5488013792
 20
-11.4791506008
 10
-62.4676579711
 20
-11.4753130066
  0
LWPOLYLINE
  5
442
100
AcDbEntity
  8
ASSI
100
AcDbPolyline
 62
7
  6
CONTINUOUS
 90
40
 70
0
 10
-62.4676579711
 20
-13.5246869934
 10
-62.550271051
 20
-13.5205638091
 10
-62.6313690581
 20
-13.5100671367
 10
-62.7109519924
 20
-13.4931969761
 10
-62.7895575452
 20
-13.4697522139
 10
-62.8666480252
 20
-13.4399339634
 10
-62.9406103586
 20
-13.4043455654
 10
-63.0113163307
 20
-13.3628983501
 10
-63.0788941562
 20
-13.3156809872
 10
-63.1421154058
 20
-13.2635628271
 10
-63.200924786
 20
-13.2064326861
 10
-63.2553775902
 20
-13.1444017477
 10
-63.3044112697
 20
-13.078672913
 10
-63.3479115978
 20
-13.0091843752
 10
-63.385992801
 20
-12.9359979409
 10
-63.4179350107
 20
-12.8605019314
 10
-63.4436229746
 20
-12.7826480679
 10
-63.463171945
 20
-12.7024846292
 10
-63.4762078093
 20
-12.6215447722
 10
-63.4826047552
 20
-12.5398148593
 10
-63.4824885951
 20
-12.4573085281
 10
-63.4758626543
 20
-12.3755998489
 10
-63.4626042509
 20
-12.2947075502
 10
-63.4428360668
 20
-12.2146129035
 10
-63.4169294731
 20
-12.1368337935
 10
-63.384757808
 20
-12.0614018662
 10
-63.3464477333
 20
-11.9882854756
 10
-63.3027506057
 20
-11.9189075676
 10
-63.2535865746
 20
-11.8533646647
 10
-63.1990354906
 20
-11.7915602444
 10
-63.1400882624
 20
-11.7346276852
 10
-63.0766422686
 20
-11.682634083
 10
-63.0088001307
 20
-11.635512342
 10
-62.9378606211
 20
-11.5941945526
 10
-62.8635943804
 20
-11.5587959295
 10
-62.786230768
 20
-11.529201258
 10
-62.7077566357
 20
-11.5059969853
 10
-62.6288342674
 20
-11.4893785937
 10
-62.5488013792
 20
-11.4791506008
 10
-62.4676579711
 20
-11.4753130066
  0
LINE
  5
443
100
AcDbEntity
  8
CURVE
100
AcDbLine
 62
250
  6
CONTINUOUS
 10
-71.5898853813
 20
-8.9142856658
 11
-71.8613139365
 21
-8.7785714447
  0
LINE
  5
444
100
AcDbEntity
  8
CURVE
100
AcDbLine
 62
250
  6
CONTINUOUS
 10
-71.8613139365
 20
-8.7785714447
 11
-72.1327424918
 21
-8.5071428895
  0
LINE
  5
445
100
AcDbEntity
  8
CURVE
100
AcDbLine
 62
250
  6
CONTINUOUS
 10
-71.8613139365
 20
-7.285714221
 11
-72.1327424918
 21
-7.014285779
  0
LINE
  5
446
100
AcDbEntity
  8
CURVE
100
AcDbLine
 62
250
  6
CONTINUOUS
 10
-70.5041710753
 20
-8.1
 11
-70.2327424918
 21
-8.3714285553
  0
LINE
  5
447
100
AcDbEntity
  8
CURVE
100
AcDbLine
 62
250
  6
CONTINUOUS
 10
-71.8613139365
 20
-5.792857337
 11
-72.1327424918
 21
-5.521428442
  0
LINE
  5
448
100
AcDbEntity
  8
CURVE
100
AcDbLine
 62
250
  6
CONTINUOUS
 10
-70.5041710753
 20
-6.6071428895
 11
-70.2327424918
 21
-6.8785713315
  0
LWPOLYLINE
  5
449
100
AcDbEntity
  8
RACCORDO
100
AcDbPolyline
 62
250
  6
CONTINUOUS
 90
7
 70
0
 10
-84.7412538914
 20
8.8132072276
 10
-84.7693062555
 20
8.8458782206
 10
-84.7965708379
 20
8.8779975247
 10
-84.8228910548
 20
8.9083898156
 10
-84.8477805945
 20
8.9367219532
 10
-84.8706742177
 20
8.9634607065
 10
-84.8910395306
 20
8.9886769903
  0
LWPOLYLINE
  5
44A
100
AcDbEntity
  8
RACCORDO
100
AcDbPolyline
 62
250
  6
CONTINUOUS
 90
3
 70
0
 10
-84.6531621398
 20
8.7113185833
 10
-84.683034892
 20
8.7464254274
 10
-84.7412538914
 20
8.8132072276
  0
LWPOLYLINE
  5
44B
100
AcDbEntity
  8
CURVE
100
AcDbPolyline
 62
250
  6
CONTINUOUS
 90
45
 70
0
 10
-70.2327424906
 20
0.4999999992
 10
-70.2321910509
 20
0.4641795669
 10
-70.2305575946
 20
0.4285218729
 10
-70.2278734164
 20
0.3930167324
 10
-70.2241698106
 20
0.3576539605
 10
-70.219478072
 20
0.3224233722
 10
-70.2138294948
 20
0.2873147827
 10
-70.2072546562
 20
0.2523246953
 10
-70.1997812626
 20
0.2174763659
 10
-70.1914363032
 20
0.1827997386
 10
-70.1822467669
 20
0.1483247575
 10
-70.1722396429
 20
0.1140813668
 10
-70.16144192
 20
0.0800995106
 10
-70.1474757902
 20
0.0397011215
 10
-70.1324370636
 20
-0.0002710868
 10
-70.1163527416
 20
-0.0398106622
 10
-70.0992498254
 20
-0.0789111532
 10
-70.0811553164
 20
-0.1175661078
 10
-70.0620946646
 20
-0.1557664504
 10
-70.0420871153
 20
-0.1934926101
 10
-70.0211503627
 20
-0.230722392
 10
-69.9993021008
 20
-0.2674336011
 10
-69.9765600237
 20
-0.3036040426
 10
-69.952941041
 20
-0.339210948
 10
-69.9284589243
 20
-0.3742292542
 10
-69.9031266604
 20
-0.4086333242
 10
-69.8769572363
 20
-0.4423975212
 10
-69.849963639
 20
-0.4754962085
 10
-69.8221558456
 20
-0.5079034244
 10
-69.7935317946
 20
-0.5395919082
 10
-69.7640864148
 20
-0.5705340745
 10
-69.7338146347
 20
-0.6007023378
 10
-69.7027113831
 20
-0.6300691127
 10
-69.6761564135
 20
-0.6539057581
 10
-69.6490368802
 20
-0.6771295894
 10
-69.621369152
 20
-0.6997035384
 10
-69.5931695976
 20
-0.7215905369
 10
-69.5644545859
 20
-0.7427535166
 10
-69.5352404857
 20
-0.7631554093
 10
-69.505537233
 20
-0.7827612712
 10
-69.4753290334
 20
-0.8015446566
 10
-69.4445936597
 20
-0.8194812444
 10
-69.4133088846
 20
-0.8365467135
 10
-69.3814524809
 20
-0.8527167426
 10
-69.3490022215
 20
-0.8679670108
  0
LINE
  5
44C
100
AcDbEntity
  8
CURVE
100
AcDbLine
 62
250
  6
CONTINUOUS
 10
-71.1882424661
 20
6.417947
 11
-71.1882424661
 21
6.067887
  0
LINE
  5
44D
100
AcDbEntity
  8
CURVE
100
AcDbLine
 62
250
  6
CONTINUOUS
 10
-71.0958405415
 20
4.78807
 11
-71.0958405415
 21
5.61141
  0
LINE
  5
44E
100
AcDbEntity
  8
CURVE
100
AcDbLine
 62
250
  6
CONTINUOUS
 10
-70.9827424918
 20
-14.8
 11
-70.9827424918
 21
-15.1
  0
LINE
  5
44F
100
AcDbEntity
  8
CURVE
100
AcDbLine
 62
250
  6
CONTINUOUS
 10
-70.9827424918
 20
-12.4
 11
-70.9827424918
 21
-12.1
  0
LINE
  5
450
100
AcDbEntity
  8
CURVE
100
AcDbLine
 62
250
  6
CONTINUOUS
 10
-70.8802373839
 20
5.61141
 11
-70.8802373839
 21
4.78807
  0
LINE
  5
451
100
AcDbEntity
  8
RACCORDO
100
AcDbLine
 62
7
  6
CONTINUOUS
 10
-70.7327424918
 20
-22.6298666026
 11
-70.7327424918
 21
-21.0773406518
  0
LINE
  5
452
100
AcDbEntity
  8
ASSI
100
AcDbLine
 62
7
  6
CONTINUOUS
 10
-70.7327424918
 20
-21.0773406518
 11
-70.7327424918
 21
-23.4301797403
  0
LINE
  5
453
100
AcDbEntity
  8
RACCORDO
100
AcDbLine
 62
7
  6
CONTINUOUS
 10
-70.7327424918
 20
21.0773406491
 11
-70.7327424918
 21
22.6298666026
  0
LINE
  5
454
100
AcDbEntity
  8
ASSI
100
AcDbLine
 62
7
  6
CONTINUOUS
 10
-70.7327424918
 20
21.0773406491
 11
-70.7327424918
 21
22.6298666026
  0
LINE
  5
455
100
AcDbEntity
  8
ASSI
100
AcDbLine
 62
7
  6
CONTINUOUS
 10
-70.7327424918
 20
22.6690804809
 11
-70.7327424918
 21
23.4301797403
  0
LINE
  5
456
100
AcDbEntity
  8
CURVE
100
AcDbLine
 62
250
  6
CONTINUOUS
 10
-70.2327424918
 20
-5.385714221
 11
-70.2327424918
 21
-5.521428442
  0
LINE
  5
457
100
AcDbEntity
  8
CURVE
100
AcDbLine
 62
250
  6
CONTINUOUS
 10
-70.2327424918
 20
-6.8785713315
 11
-70.2327424918
 21
-7.014285779
  0
LINE
  5
458
100
AcDbEntity
  8
CURVE
100
AcDbLine
 62
250
  6
CONTINUOUS
 10
-70.2327424918
 20
-8.3714285553
 11
-70.2327424918
 21
-8.5071428895
  0
LINE
  5
459
100
AcDbEntity
  8
ASSI
100
AcDbLine
 62
7
  6
CONTINUOUS
 10
-69.1327424918
 20
22.2
 11
-69.1327424918
 21
21.1720718961
  0
LINE
  5
45A
100
AcDbEntity
  8
ASSI
100
AcDbLine
 62
7
  6
CONTINUOUS
 10
-69.1327424918
 20
-22.2
 11
-69.1327424918
 21
-21.1720718961
  0
LINE
  5
45B
100
AcDbEntity
  8
CURVE
100
AcDbLine
 62
250
  6
CONTINUOUS
 10
-72.8079897332
 20
2.49987
 11
-67.8314617979
 21
7.231556
  0
LINE
  5
45C
100
AcDbEntity
  8
SMUSSO
100
AcDbLine
 62
7
  6
CONTINUOUS
 10
-62.4827710495
 20
-11.7434550984
 11
-37.7327424918
 21
-11.5274648713
  0
LINE
  5
45D
100
AcDbEntity
  8
ASSI
100
AcDbLine
 62
7
  6
CONTINUOUS
 10
-62.4827710495
 20
-11.7434550984
 11
-37.7327424918
 21
-11.5274648713
  0
LINE
  5
45E
100
AcDbEntity
  8
SMUSSO
100
AcDbLine
 62
7
  6
CONTINUOUS
 10
-62.4676579711
 20
-11.4753130066
 11
-37.7327424918
 21
-11.2594546694
  0
LINE
  5
45F
100
AcDbEntity
  8
ASSI
100
AcDbLine
 62
7
  6
CONTINUOUS
 10
-62.4676579711
 20
-11.4753130066
 11
-37.7327424918
 21
-11.2594546694
  0
LINE
  5
460
100
AcDbEntity
  8
CURVE
100
AcDbLine
 62
250
  6
CONTINUOUS
 10
-72.4827424918
 20
-13.2
 11
-71.8992576307
 21
-13.2
  0
LINE
  5
461
100
AcDbEntity
  8
CURVE
100
AcDbLine
 62
250
  6
CONTINUOUS
 10
-70.7755996589
 20
-7.964285779
 11
-70.5041710753
 21
-8.1
  0
LINE
  5
462
100
AcDbEntity
  8
CURVE
100
AcDbLine
 62
250
  6
CONTINUOUS
 10
-71.5898853813
 20
-7.4214286685
 11
-71.8613139365
 21
-7.285714221
  0
LINE
  5
463
100
AcDbEntity
  8
CURVE
100
AcDbLine
 62
250
  6
CONTINUOUS
 10
-70.7755996589
 20
-6.4714286685
 11
-70.5041710753
 21
-6.6071428895
  0
LINE
  5
464
100
AcDbEntity
  8
CURVE
100
AcDbLine
 62
250
  6
CONTINUOUS
 10
-71.5898853813
 20
-5.928571558
 11
-71.8613139365
 21
-5.792857337
  0
LINE
  5
465
100
AcDbEntity
  8
CURVE
100
AcDbLine
 62
250
  6
CONTINUOUS
 10
-70.5041710753
 20
-5.114285779
 11
-70.2327424918
 21
-5.385714221
  0
LINE
  5
466
100
AcDbEntity
  8
RACCORDO
100
AcDbLine
 62
250
  6
CONTINUOUS
 10
-66.8267888074
 20
-21.0758474887
 11
-66.8273140765
 21
-21.0088655964
  0
LINE
  5
467
100
AcDbEntity
  8
ASSI
100
AcDbLine
 62
250
  6
CONTINUOUS
 10
-66.8267888074
 20
-21.0758474887
 11
-66.8273140765
 21
-21.0088655964
  0
LINE
  5
468
100
AcDbEntity
  8
CURVE
100
AcDbLine
 62
250
  6
CONTINUOUS
 10
-68.6643372955
 20
14.99041
 11
-68.6643372955
 21
13.501874
  0
LINE
  5
469
100
AcDbEntity
  8
CURVE
100
AcDbLine
 62
250
  6
CONTINUOUS
 10
-68.5617955476
 20
4.225174
 11
-68.5617955476
 21
5.571041
  0
LINE
  5
46A
100
AcDbEntity
  8
CURVE
100
AcDbLine
 62
250
  6
CONTINUOUS
 10
-68.3653774676
 20
4.399503
 11
-68.3653774676
 21
4.281883
  0
LINE
  5
46B
100
AcDbEntity
  8
CURVE
100
AcDbLine
 62
250
  6
CONTINUOUS
 10
-67.8995703042
 20
14.99041
 11
-67.8995703042
 21
13.501874
  0
LINE
  5
46C
100
AcDbEntity
  8
CURVE
100
AcDbLine
 62
250
  6
CONTINUOUS
 10
-67.1921174918
 20
-5.45625
 11
-67.1921174918
 21
-5.515625
  0
LINE
  5
46D
100
AcDbEntity
  8
CURVE
100
AcDbLine
 62
250
  6
CONTINUOUS
 10
-67.1327424918
 20
-6.109375
 11
-67.1327424918
 21
-6.40625
  0
LINE
  5
46E
100
AcDbEntity
  8
CURVE
100
AcDbLine
 62
250
  6
CONTINUOUS
 10
-66.7515992913
 20
2.907638
 11
-66.7515992913
 21
7.092362
  0
LINE
  5
46F
100
AcDbEntity
  8
RACCORDO
100
AcDbLine
 62
250
  6
CONTINUOUS
 10
-66.8267300077
 20
21.1066781982
 11
-66.8267890835
 21
21.075847652
  0
LINE
  5
470
100
AcDbEntity
  8
ASSI
100
AcDbLine
 62
250
  6
CONTINUOUS
 10
-66.8267300077
 20
21.1066781982
 11
-66.8267890835
 21
21.075847652
  0
LINE
  5
471
100
AcDbEntity
  8
RACCORDO
100
AcDbLine
 62
250
  6
CONTINUOUS
 10
-66.8267890835
 20
21.075847652
 11
-66.8273144811
 21
21.0088659463
  0
LINE
  5
472
100
AcDbEntity
  8
ASSI
100
AcDbLine
 62
250
  6
CONTINUOUS
 10
-66.8267890835
 20
21.075847652
 11
-66.8273144811
 21
21.0088659463
  0
LWPOLYLINE
  5
473
100
AcDbEntity
  8
CURVE
100
AcDbPolyline
 62
250
  6
CONTINUOUS
 90
33
 70
0
 10
-66.7327428504
 20
0.4999999992
 10
-66.7332061438
 20
0.4585195267
 10
-66.7346048096
 20
0.4169038349
 10
-66.736952026
 20
0.3751238543
 10
-66.7402609712
 20
0.3331505153
 10
-66.7445448236
 20
0.2909547484
 10
-66.7498167613
 20
0.2485074839
 10
-66.7560899626
 20
0.2057796521
 10
-66.7633776057
 20
0.1627421836
 10
-66.771689404
 20
0.1193853776
 10
-66.7810212108
 20
0.0757770083
 10
-66.7913654146
 20
0.0320042189
 10
-66.8027144039
 20
-0.0118458473
 10
-66.8150605671
 20
-0.0556860472
 10
-66.8283962928
 20
-0.0994292377
 10
-66.8427139692
 20
-0.1429882755
 10
-66.8580059851
 20
-0.1862760175
 10
-66.8742575543
 20
-0.2292079438
 10
-66.8914251935
 20
-0.2717100277
 10
-66.9094582451
 20
-0.3137108659
 10
-66.9283060512
 20
-0.355139055
 10
-66.9479179542
 20
-0.3959231917
 10
-66.9682432962
 20
-0.4359918724
 10
-66.9892314196
 20
-0.475273694
 10
-67.0108316666
 20
-0.513697253
 10
-67.0330032145
 20
-0.5512082212
 10
-67.055744581
 20
-0.5878205713
 10
-67.0790641188
 20
-0.6235653514
 10
-67.1029701805
 20
-0.6584736093
 10
-67.1274711188
 20
-0.692576393
 10
-67.1525752865
 20
-0.7259047504
 10
-67.1782910363
 20
-0.7584897295
 10
-67.2046267207
 20
-0.7903623781
  0
LWPOLYLINE
  5
474
100
AcDbEntity
  8
CURVE
100
AcDbPolyline
 62
250
  6
CONTINUOUS
 90
39
 70
0
 10
-69.8012353158
 20
1.470319678
 10
-69.825425661
 20
1.4437952024
 10
-69.8490721696
 20
1.4168510854
 10
-69.8721532466
 20
1.3895157956
 10
-69.8946472969
 20
1.3618178016
 10
-69.9165327252
 20
1.3337855719
 10
-69.9377885502
 20
1.3054478813
 10
-69.9583962447
 20
1.276834729
 10
-69.9783378951
 20
1.2479764205
 10
-69.9975955879
 20
1.2189032612
 10
-70.0161514096
 20
1.1896455565
 10
-70.0339893208
 20
1.1602316013
 10
-70.0511007783
 20
1.1306816482
 10
-70.0674791129
 20
1.1010139396
 10
-70.0831176556
 20
1.0712467174
 10
-70.0980097372
 20
1.041398224
 10
-70.1098439011
 20
1.01647837
 10
-70.1211459227
 20
0.9915421749
 10
-70.1319066665
 20
0.9666170679
 10
-70.1421169974
 20
0.941730478
 10
-70.1517677799
 20
0.9169098345
 10
-70.1608498787
 20
0.8921825665
 10
-70.1693558246
 20
0.867580905
 10
-70.1772848122
 20
0.8431562887
 10
-70.184637702
 20
0.8189649581
 10
-70.1914153549
 20
0.7950631538
 10
-70.1976186313
 20
0.7715071162
 10
-70.203248392
 20
0.7483530858
 10
-70.2083094614
 20
0.7256440961
 10
-70.212822519
 20
0.7033703509
 10
-70.2168122083
 20
0.6815088472
 10
-70.2203031726
 20
0.6600365818
 10
-70.2233200554
 20
0.6389305514
 10
-70.2258874999
 20
0.6181677528
 10
-70.2284059408
 20
0.593676987
 10
-70.2303316687
 20
0.5696310895
 10
-70.2316836753
 20
0.5460137997
 10
-70.2324809521
 20
0.5228088565
 10
-70.2327424906
 20
0.4999999992
  0
LINE
  5
475
100
AcDbEntity
  8
0
100
AcDbLine
 62
7
  6
CONTINUOUS
 10
-60.0060026946
 20
12.6247397972
 11
-60.0847424918
 21
12.546
  0
LINE
  5
476
100
AcDbEntity
  8
CURVE
100
AcDbLine
 62
250
  6
CONTINUOUS
 10
-72.1327424918
 20
-9.4571428329
 11
-70.2327424918
 21
-9.4571428329
  0
LINE
  5
477
100
AcDbEntity
  8
CURVE
100
AcDbLine
 62
250
  6
CONTINUOUS
 10
-70.7755996589
 20
-8.9142856658
 11
-71.5898853813
 21
-8.9142856658
  0
LINE
  5
478
100
AcDbEntity
  8
CURVE
100
AcDbLine
 62
250
  6
CONTINUOUS
 10
-71.5898853813
 20
-7.964285779
 11
-70.7755996589
 21
-7.964285779
  0
LINE
  5
479
100
AcDbEntity
  8
SMUSSO
100
AcDbLine
 62
7
  6
CONTINUOUS
 10
-37.7327424918
 20
-8.7405453306
 11
-62.4676579711
 21
-8.5246869934
  0
LINE
  5
47A
100
AcDbEntity
  8
ASSI
100
AcDbLine
 62
7
  6
CONTINUOUS
 10
-37.7327424918
 20
-8.7405453306
 11
-62.4676579711
 21
-8.5246869934
  0
LINE
  5
47B
100
AcDbEntity
  8
SMUSSO
100
AcDbLine
 62
7
  6
CONTINUOUS
 10
-37.7327424918
 20
-8.4725351287
 11
-62.4827710495
 21
-8.2565449016
  0
LINE
  5
47C
100
AcDbEntity
  8
ASSI
100
AcDbLine
 62
7
  6
CONTINUOUS
 10
-37.7327424918
 20
-8.4725351287
 11
-62.4827710495
 21
-8.2565449016
  0
LWPOLYLINE
  5
47D
100
AcDbEntity
  8
SMUSSO
100
AcDbPolyline
 62
7
  6
CONTINUOUS
 90
40
 70
0
 10
-62.4676579711
 20
-8.5246869934
 10
-62.5504564738
 20
-8.5205239616
 10
-62.6316814003
 20
-8.5099950303
 10
-62.7113327508
 20
-8.4931001995
 10
-62.7899207843
 20
-8.469645251
 10
-62.8669352416
 20
-8.439824403
 10
-62.9408453454
 20
-8.4042203099
 10
-63.0115628395
 20
-8.3627309701
 10
-63.0791759801
 20
-8.3154583852
 10
-63.1424187579
 20
-8.2632912141
 10
-63.2012192679
 20
-8.2061275868
 10
-63.2556494153
 20
-8.1440693734
 10
-63.3046589057
 20
-8.0783108416
 10
-63.3481386599
 20
-8.0087853348
 10
-63.3861977572
 20
-7.9355595098
 10
-63.4181131422
 20
-7.8600276052
 10
-63.4437680181
 20
-7.782143662
 10
-63.4632791817
 20
-7.7019536394
 10
-63.4762739677
 20
-7.620989653
 10
-63.4826267533
 20
-7.5392368851
 10
-63.4824631612
 20
-7.4567101535
 10
-63.4757873941
 20
-7.3749860273
 10
-63.4624772303
 20
-7.2940849068
 10
-63.4426548915
 20
-7.2139863918
 10
-63.4166912454
 20
-7.1362058508
 10
-63.3844554501
 20
-7.0607698227
 10
-63.3460783474
 20
-6.9876517686
 10
-63.3023233311
 20
-6.9182874405
 10
-63.2531281531
 20
-6.8527885948
 10
-63.1985550614
 20
-6.791043475
 10
-63.1395541931
 20
-6.7341525639
 10
-63.0759798488
 20
-6.6821549462
 10
-63.0079777279
 20
-6.6350115371
 10
-62.9369350655
 20
-6.5937055653
 10
-62.8626455407
 20
-6.5583836389
 10
-62.7853154744
 20
-6.5288991497
 10
-62.7069510645
 20
-6.5057955016
 10
-62.6282210437
 20
-6.4892538289
 10
-62.5484566792
 20
-6.4790929973
 10
-62.4676579711
 20
-6.4753130066
  0
LWPOLYLINE
  5
47E
100
AcDbEntity
  8
ASSI
100
AcDbPolyline
 62
7
  6
CONTINUOUS
 90
40
 70
0
 10
-62.4676579711
 20
-8.5246869934
 10
-62.5504564738
 20
-8.5205239616
 10
-62.6316814003
 20
-8.5099950303
 10
-62.7113327508
 20
-8.4931001995
 10
-62.7899207843
 20
-8.469645251
 10
-62.8669352416
 20
-8.439824403
 10
-62.9408453454
 20
-8.4042203099
 10
-63.0115628395
 20
-8.3627309701
 10
-63.0791759801
 20
-8.3154583852
 10
-63.1424187579
 20
-8.2632912141
 10
-63.2012192679
 20
-8.2061275868
 10
-63.2556494153
 20
-8.1440693734
 10
-63.3046589057
 20
-8.0783108416
 10
-63.3481386599
 20
-8.0087853348
 10
-63.3861977572
 20
-7.9355595098
 10
-63.4181131422
 20
-7.8600276052
 10
-63.4437680181
 20
-7.782143662
 10
-63.4632791817
 20
-7.7019536394
 10
-63.4762739677
 20
-7.620989653
 10
-63.4826267533
 20
-7.5392368851
 10
-63.4824631612
 20
-7.4567101535
 10
-63.4757873941
 20
-7.3749860273
 10
-63.4624772303
 20
-7.2940849068
 10
-63.4426548915
 20
-7.2139863918
 10
-63.4166912454
 20
-7.1362058508
 10
-63.3844554501
 20
-7.0607698227
 10
-63.3460783474
 20
-6.9876517686
 10
-63.3023233311
 20
-6.9182874405
 10
-63.2531281531
 20
-6.8527885948
 10
-63.1985550614
 20
-6.791043475
 10
-63.1395541931
 20
-6.7341525639
 10
-63.0759798488
 20
-6.6821549462
 10
-63.0079777279
 20
-6.6350115371
 10
-62.9369350655
 20
-6.5937055653
 10
-62.8626455407
 20
-6.5583836389
 10
-62.7853154744
 20
-6.5288991497
 10
-62.7069510645
 20
-6.5057955016
 10
-62.6282210437
 20
-6.4892538289
 10
-62.5484566792
 20
-6.4790929973
 10
-62.4676579711
 20
-6.4753130066
  0
LWPOLYLINE
  5
47F
100
AcDbEntity
  8
RACCORDO
100
AcDbPolyline
 62
250
  6
CONTINUOUS
 90
13
 70
0
 10
-84.6531621398
 20
-6.2112424309
 10
-84.6767628623
 20
-6.209173584
 10
-84.6999576402
 20
-6.2039208072
 10
-84.7227081302
 20
-6.1955818209
 10
-84.7450042345
 20
-6.184080971
 10
-84.7668580352
 20
-6.1693530201
 10
-84.7881151787
 20
-6.1515858108
 10
-84.8083790955
 20
-6.1308663814
 10
-84.8275709839
 20
-6.107162483
 10
-84.8457545929
 20
-6.0808277157
 10
-84.862685222
 20
-6.0521928834
 10
-84.8778929778
 20
-6.0213937729
 10
-84.8910395306
 20
-5.9886769903
  0
LINE
  5
480
100
AcDbEntity
  8
CURVE
100
AcDbLine
 62
250
  6
CONTINUOUS
 10
-66.7171174918
 20
-7.0
 11
-68.9139924918
 21
-6.64375
  0
LINE
  5
481
100
AcDbEntity
  8
CURVE
100
AcDbLine
 62
250
  6
CONTINUOUS
 10
-67.4889924918
 20
-5.69375
 11
-67.3108674918
 21
-5.753125
  0
LINE
  5
482
100
AcDbEntity
  8
CURVE
100
AcDbLine
 62
250
  6
CONTINUOUS
 10
-70.7755996589
 20
-4.978571558
 11
-70.5041710753
 21
-5.114285779
  0
LINE
  5
483
100
AcDbEntity
  8
CURVE
100
AcDbLine
 62
250
  6
CONTINUOUS
 10
-67.3108674918
 20
-5.753125
 11
-67.1921174918
 21
-5.871875
  0
LINE
  5
484
100
AcDbEntity
  8
CURVE
100
AcDbLine
 62
250
  6
CONTINUOUS
 10
-67.2514924918
 20
-5.3375
 11
-67.1921174918
 21
-5.45625
  0
LINE
  5
485
100
AcDbEntity
  8
CURVE
100
AcDbLine
 62
250
  6
CONTINUOUS
 10
-67.1921174918
 20
-5.871875
 11
-67.1327424918
 21
-6.109375
  0
LWPOLYLINE
  5
486
100
AcDbEntity
  8
RACCORDO
100
AcDbPolyline
 62
250
  6
CONTINUOUS
 90
3
 70
0
 10
-64.5422527899
 20
19.3123834017
 10
-64.5414300164
 20
19.2490425921
 10
-64.5411403154
 20
19.2117738234
  0
LWPOLYLINE
  5
487
100
AcDbEntity
  8
ASSI
100
AcDbPolyline
 62
250
  6
CONTINUOUS
 90
3
 70
0
 10
-64.5422527899
 20
19.3123834017
 10
-64.5414300164
 20
19.2490425921
 10
-64.5411403154
 20
19.2117738234
  0
LINE
  5
488
100
AcDbEntity
  8
CURVE
100
AcDbLine
 62
250
  6
CONTINUOUS
 10
-65.7327424918
 20
7.092362
 11
-65.7327424918
 21
2.907638
  0
LINE
  5
489
100
AcDbEntity
  8
CURVE
100
AcDbLine
 62
250
  6
CONTINUOUS
 10
-65.7327424918
 20
-2.5
 11
-65.7327424918
 21
-1.500000718
  0
LWPOLYLINE
  5
48A
100
AcDbEntity
  8
0
100
AcDbPolyline
 62
7
  6
CONTINUOUS
 90
2
 70
0
 43
0.3500000006
 10
-63.8398862457
 20
42.2499989777
 10
-63.8398862457
 20
43.7499994354
  0
LWPOLYLINE
  5
48B
100
AcDbEntity
  8
RACCORDO
100
AcDbPolyline
 62
250
  6
CONTINUOUS
 90
6
 70
0
 10
-66.8273139917
 20
-21.131830492
 10
-66.827081807
 20
-21.1302425434
 10
-66.8269063703
 20
-21.1254978272
 10
-66.8267887931
 20
-21.1176263996
 10
-66.8267298185
 20
-21.1066781232
 10
-66.8267888074
 20
-21.0758474887
  0
LWPOLYLINE
  5
48C
100
AcDbEntity
  8
ASSI
100
AcDbPolyline
 62
250
  6
CONTINUOUS
 90
6
 70
0
 10
-66.8273139917
 20
-21.131830492
 10
-66.827081807
 20
-21.1302425434
 10
-66.8269063703
 20
-21.1254978272
 10
-66.8267887931
 20
-21.1176263996
 10
-66.8267298185
 20
-21.1066781232
 10
-66.8267888074
 20
-21.0758474887
  0
LINE
  5
48D
100
AcDbEntity
  8
CURVE
100
AcDbLine
 62
250
  6
CONTINUOUS
 10
-67.1327424918
 20
-6.40625
 11
-67.1921174918
 21
-6.584375
  0
LWPOLYLINE
  5
48E
100
AcDbEntity
  8
CURVE
100
AcDbPolyline
 62
250
  6
CONTINUOUS
 90
33
 70
0
 10
-66.2843679667
 20
-1.2340457986
 10
-66.2529342426
 20
-1.1888106909
 10
-66.2222951872
 20
-1.1428153797
 10
-66.1924438215
 20
-1.0960283545
 10
-66.1633731661
 20
-1.0484181046
 10
-66.1350762417
 20
-0.9999531194
 10
-66.1075460693
 20
-0.9506018884
 10
-66.0807756695
 20
-0.9003329008
 10
-66.0547580631
 20
-0.8491146461
 10
-66.0294952013
 20
-0.7969335749
 10
-66.0050247565
 20
-0.7438479831
 10
-65.9813933316
 20
-0.6899341278
 10
-65.9586475295
 20
-0.6352682659
 10
-65.936833953
 20
-0.5799266547
 10
-65.915999205
 20
-0.5239855511
 10
-65.8961898884
 20
-0.4675212123
 10
-65.8774526059
 20
-0.4106098954
 10
-65.859827321
 20
-0.3533299702
 10
-65.8433274386
 20
-0.295768258
 10
-65.8279597241
 20
-0.2380136929
 10
-65.813730943
 20
-0.1801552089
 10
-65.8006478607
 20
-0.1222817401
 10
-65.7887172427
 20
-0.0644822206
 10
-65.7779458544
 20
-0.0068455845
 10
-65.7683404612
 20
0.0505392342
 10
-65.759904816
 20
0.1076030666
 10
-65.7526306205
 20
0.1643558039
 10
-65.7465065641
 20
0.2208271029
 10
-65.7415213361
 20
0.2770466199
 10
-65.7376636255
 20
0.3330440115
 10
-65.7349221218
 20
0.3888489343
 10
-65.7332855141
 20
0.4444910447
 10
-65.7327424918
 20
0.4999999992
  0
LWPOLYLINE
  5
48F
100
AcDbEntity
  8
CURVE
100
AcDbPolyline
 62
250
  6
CONTINUOUS
 90
89
 70
0
 10
-67.6749000542
 20
-0.5636291216
 10
-67.6401749306
 20
-0.527769435
 10
-67.6068825759
 20
-0.4911143556
 10
-67.5749851263
 20
-0.4536874662
 10
-67.5444447177
 20
-0.4155123494
 10
-67.505787998
 20
-0.3634931457
 10
-67.4694966259
 20
-0.3102661908
 10
-67.4355907454
 20
-0.2559119909
 10
-67.4040954295
 20
-0.2005149402
 10
-67.3750554685
 20
-0.1441749859
 10
-67.3485205821
 20
-0.0869959636
 10
-67.3245398049
 20
-0.0290667045
 10
-67.3031594313
 20
0.0295839763
 10
-67.2844250709
 20
0.0889422679
 10
-67.2721407817
 20
0.1339114536
 10
-67.2614053603
 20
0.1792315075
 10
-67.2522536365
 20
0.2248630355
 10
-67.2447204403
 20
0.2707666434
 10
-67.2388439551
 20
0.31690627
 10
-67.2346757783
 20
0.3632591864
 10
-67.232270861
 20
0.4098059964
 10
-67.231684154
 20
0.4565273041
 10
-67.2329501374
 20
0.503373735
 10
-67.2360214083
 20
0.5501760014
 10
-67.2408300931
 20
0.596734837
 10
-67.2473083178
 20
0.6428509756
 10
-67.2553872895
 20
0.6883664549
 10
-67.2649945388
 20
0.7332885276
 10
-67.2760566766
 20
0.7776657503
 10
-67.2885003143
 20
0.8215466796
 10
-67.3071657662
 20
0.8794096827
 10
-67.3282934702
 20
0.9368509118
 10
-67.3520201479
 20
0.9942445693
 10
-67.3716117098
 20
1.037469062
 10
-67.3928521633
 20
1.0809473243
 10
-67.4158515714
 20
1.1247493955
 10
-67.440719997
 20
1.1689453153
 10
-67.4675791398
 20
1.2135984713
 10
-67.496597245
 20
1.2587456436
 10
-67.5279541946
 20
1.3044169607
 10
-67.5618298705
 20
1.3506425508
 10
-67.5908649867
 20
1.3880260173
 10
-67.6217205837
 20
1.4257009565
 10
-67.6544900329
 20
1.4635848243
 10
-67.6892667058
 20
1.5015950764
 10
-67.7261439738
 20
1.5396491688
 10
-67.7651817556
 20
1.5776348071
 10
-67.8063061576
 20
1.6153206967
 10
-67.8494098333
 20
1.6524457927
 10
-67.8943854365
 20
1.6887490502
 10
-67.9411256205
 20
1.7239694244
 10
-67.9895273446
 20
1.7578613669
 10
-68.03950479
 20
1.7902413154
 10
-68.0909764435
 20
1.8209412041
 10
-68.143860792
 20
1.849792967
 10
-68.1980763222
 20
1.8766285383
 10
-68.2442117508
 20
1.8973299658
 10
-68.2911543503
 20
1.9164163802
 10
-68.3388434661
 20
1.9337896142
 10
-68.3872282004
 20
1.9493538991
 10
-68.4362966827
 20
1.9630230622
 10
-68.4860467991
 20
1.9747133295
 10
-68.5364556358
 20
1.9843336391
 10
-68.5874170792
 20
1.9917637753
 10
-68.6388042159
 20
1.9968762345
 10
-68.6904771989
 20
1.9995653574
 10
-68.7422444476
 20
1.9998128633
 10
-68.793901448
 20
1.9976223157
 10
-68.8452900873
 20
1.9930097701
 10
-68.8964378578
 20
1.9860412482
 10
-68.9474186528
 20
1.9767952636
 10
-68.9982892411
 20
1.9653417272
 10
-69.0490378933
 20
1.9517161389
 10
-69.0996357551
 20
1.9359453963
 10
-69.1500459303
 20
1.9180610173
 10
-69.2001993542
 20
1.898113002
 10
-69.2500189196
 20
1.8761559713
 10
-69.2994326251
 20
1.8522413629
 10
-69.3483888904
 20
1.8264078839
 10
-69.3968412404
 20
1.7986910584
 10
-69.4447369879
 20
1.7691315345
 10
-69.491998596
 20
1.7377904553
 10
-69.5385423156
 20
1.7047340877
 10
-69.5843054845
 20
1.6700053895
 10
-69.6293097889
 20
1.6335540812
 10
-69.6735980018
 20
1.5953065741
 10
-69.7171625813
 20
1.5552362684
 10
-69.7597947251
 20
1.5135045211
 10
-69.8012353158
 20
1.470319678
  0
LINE
  5
490
100
AcDbEntity
  8
0
100
AcDbLine
 62
7
  6
CONTINUOUS
 10
-54.9260026946
 20
12.6247397972
 11
-55.0047424918
 21
12.546
  0
LINE
  5
491
100
AcDbEntity
  8
CURVE
100
AcDbLine
 62
250
  6
CONTINUOUS
 10
-72.1327424918
 20
-5.385714221
 11
-71.8613139365
 21
-5.114285779
  0
LWPOLYLINE
  5
492
100
AcDbEntity
  8
RACCORDO
100
AcDbPolyline
 62
250
  6
CONTINUOUS
 90
7
 70
0
 10
-84.1889463216
 20
-6.6176932526
 10
-84.2030954396
 20
-6.6184909851
 10
-84.217406681
 20
-6.6191438618
 10
-84.2318797274
 20
-6.6196515822
 10
-84.2465142556
 20
-6.6200138426
 10
-84.2613099371
 20
-6.620230336
 10
-84.2762664385
 20
-6.6203007519
  0
LINE
  5
493
100
AcDbEntity
  8
SMUSSO
100
AcDbLine
 62
7
  6
CONTINUOUS
 10
-62.4827710495
 20
-6.7434550984
 11
-37.7327424918
 21
-6.5274648713
  0
LINE
  5
494
100
AcDbEntity
  8
ASSI
100
AcDbLine
 62
7
  6
CONTINUOUS
 10
-62.4827710495
 20
-6.7434550984
 11
-37.7327424918
 21
-6.5274648713
  0
LINE
  5
495
100
AcDbEntity
  8
SMUSSO
100
AcDbLine
 62
7
  6
CONTINUOUS
 10
-62.4676579711
 20
-6.4753130066
 11
-37.7327424918
 21
-6.2594546694
  0
LINE
  5
496
100
AcDbEntity
  8
ASSI
100
AcDbLine
 62
7
  6
CONTINUOUS
 10
-62.4676579711
 20
-6.4753130066
 11
-37.7327424918
 21
-6.2594546694
  0
LINE
  5
497
100
AcDbEntity
  8
RACCORDO
100
AcDbLine
 62
250
  6
CONTINUOUS
 10
-88.8424196163
 20
-6.6202464603
 11
-88.9460707011
 21
-6.6204926525
  0
LWPOLYLINE
  5
498
100
AcDbEntity
  8
RACCORDO
100
AcDbPolyline
 62
250
  6
CONTINUOUS
 90
3
 70
0
 10
-87.5722311584
 20
-6.6196344571
 10
-87.945194237
 20
-6.6203007519
 10
-88.1057476642
 20
-6.6198292899
  0
LINE
  5
499
100
AcDbEntity
  8
0
100
AcDbLine
 62
7
  6
CONTINUOUS
 10
-62.7567424918
 20
-7.61
 11
-63.224147295
 21
-7.61
  0
LINE
  5
49A
100
AcDbEntity
  8
0
100
AcDbLine
 62
7
  6
CONTINUOUS
 10
-62.3567424918
 20
-7.585
 11
-62.7567424918
 21
-7.585
  0
LINE
  5
49B
100
AcDbEntity
  8
CURVE
100
AcDbLine
 62
250
  6
CONTINUOUS
 10
-70.7755996589
 20
-7.4214286685
 11
-71.5898853813
 21
-7.4214286685
  0
LINE
  5
49C
100
AcDbEntity
  8
CURVE
100
AcDbLine
 62
250
  6
CONTINUOUS
 10
-71.5898853813
 20
-6.4714286685
 11
-70.7755996589
 21
-6.4714286685
  0
LINE
  5
49D
100
AcDbEntity
  8
RACCORDO
100
AcDbLine
 62
7
  6
CONTINUOUS
 10
-84.1930505752
 20
-6.3
 11
-88.8575860706
 21
-6.3
  0
LINE
  5
49E
100
AcDbEntity
  8
CURVE
100
AcDbLine
 62
250
  6
CONTINUOUS
 10
-70.7755996589
 20
-5.928571558
 11
-71.5898853813
 21
-5.928571558
  0
LWPOLYLINE
  5
49F
100
AcDbEntity
  8
RACCORDO
100
AcDbPolyline
 62
250
  6
CONTINUOUS
 90
4
 70
0
 10
-85.8738168542
 20
-6.6214255748
 10
-86.2246865335
 20
-6.621322311
 10
-86.5478305991
 20
-6.6203007519
 10
-87.1103743997
 20
-6.6210348401
  0
LINE
  5
4A0
100
AcDbEntity
  8
RACCORDO
100
AcDbLine
 62
250
  6
CONTINUOUS
 10
-88.1057476642
 20
-6.6198292899
 11
-88.8424196163
 21
-6.6202464603
  0
LINE
  5
4A1
100
AcDbEntity
  8
RACCORDO
100
AcDbLine
 62
250
  6
CONTINUOUS
 10
-87.1103743997
 20
-6.6210348401
 11
-87.5722311584
 21
-6.6196344571
  0
LWPOLYLINE
  5
4A2
100
AcDbEntity
  8
RACCORDO
100
AcDbPolyline
 62
250
  6
CONTINUOUS
 90
4
 70
0
 10
-84.2762664385
 20
-6.6203007519
 10
-84.7059075652
 20
-6.6188290051
 10
-85.1147226456
 20
-6.6191114735
 10
-85.8738168542
 20
-6.6214255748
  0
LWPOLYLINE
  5
4A3
100
AcDbEntity
  8
RACCORDO
100
AcDbPolyline
 62
250
  6
CONTINUOUS
 90
4
 70
0
 10
-88.9460707011
 20
-6.6204926525
 10
-89.0043557818
 20
-6.6203007519
 10
-89.0158517717
 20
-6.6205199549
 10
-89.0172872566
 20
-6.6205661265
  0
LINE
  5
4A4
100
AcDbEntity
  8
RACCORDO
100
AcDbLine
 62
250
  6
CONTINUOUS
 10
-88.7773532397
 20
-5.9208411322
 11
-88.5582847751
 21
-5.9242472051
  0
LWPOLYLINE
  5
4A5
100
AcDbEntity
  8
RACCORDO
100
AcDbPolyline
 62
250
  6
CONTINUOUS
 90
11
 70
0
 10
-87.7978935873
 20
-5.9386530963
 10
-87.3785045304
 20
-5.9452581273
 10
-87.1408642806
 20
-5.950305472
 10
-86.8851171215
 20
-5.9549759945
 10
-86.6195555287
 20
-5.9585056314
 10
-86.3452291599
 20
-5.9631476204
 10
-86.060947931
 20
-5.9688851258
 10
-85.7725500009
 20
-5.9732901679
 10
-85.4822967373
 20
-5.9765809897
 10
-85.1885082386
 20
-5.9811819937
 10
-84.8914359427
 20
-5.9882726573
  0
LINE
  5
4A6
100
AcDbEntity
  8
RACCORDO
100
AcDbLine
 62
7
  6
CONTINUOUS
 10
-89.1094316771
 20
-6.1334579568
 11
-84.1940615463
 21
-6.2192560615
  0
LINE
  5
4A7
100
AcDbEntity
  8
RACCORDO
100
AcDbLine
 62
250
  6
CONTINUOUS
 10
-84.6535873638
 20
-5.711311161
 11
-84.197624771
 21
-5.7192700176
  0
LINE
  5
4A8
100
AcDbEntity
  8
RACCORDO
100
AcDbLine
 62
250
  6
CONTINUOUS
 10
-89.4851024695
 20
-5.9084873235
 11
-88.7773532397
 21
-5.9208411322
  0
LWPOLYLINE
  5
4A9
100
AcDbEntity
  8
RACCORDO
100
AcDbPolyline
 62
250
  6
CONTINUOUS
 90
3
 70
0
 10
-88.5582847751
 20
-5.9242472051
 10
-88.4329351878
 20
-5.9268529717
 10
-88.1469081268
 20
-5.931280772
  0
LINE
  5
4AA
100
AcDbEntity
  8
RACCORDO
100
AcDbLine
 62
250
  6
CONTINUOUS
 10
-88.1469081268
 20
-5.931280772
 11
-87.7978935873
 21
-5.9386530963
  0
LINE
  5
4AB
100
AcDbEntity
  8
CURVE
100
AcDbLine
 62
250
  6
CONTINUOUS
 10
-68.9139924918
 20
-5.45625
 11
-67.4889924918
 21
-5.69375
  0
LINE
  5
4AC
100
AcDbEntity
  8
CURVE
100
AcDbLine
 62
250
  6
CONTINUOUS
 10
-72.1327424918
 20
-2.807142663
 11
-70.2327424918
 21
-3.214285779
  0
LINE
  5
4AD
100
AcDbEntity
  8
CURVE
100
AcDbLine
 62
250
  6
CONTINUOUS
 10
-71.5898853813
 20
-3.621428442
 11
-70.2327424918
 21
-4.028571558
  0
LINE
  5
4AE
100
AcDbEntity
  8
CURVE
100
AcDbLine
 62
250
  6
CONTINUOUS
 10
-69.3490024997
 20
-0.8679676275
 11
-68.1439498177
 21
-1.4118127306
  0
LINE
  5
4AF
100
AcDbEntity
  8
CURVE
100
AcDbLine
 62
250
  6
CONTINUOUS
 10
-66.9817984994
 20
-1.9362962353
 11
-65.7327424918
 21
-2.5
  0
LWPOLYLINE
  5
4B0
100
AcDbEntity
  8
RACCORDO
100
AcDbPolyline
 62
250
  6
CONTINUOUS
 90
5
 70
0
 10
-66.8273140973
 20
21.1318304938
 10
-66.8270819334
 20
21.1302425501
 10
-66.8269065129
 20
21.1254978478
 10
-66.8267889531
 20
21.117626443
 10
-66.8267300077
 20
21.1066781982
  0
LWPOLYLINE
  5
4B1
100
AcDbEntity
  8
ASSI
100
AcDbPolyline
 62
250
  6
CONTINUOUS
 90
5
 70
0
 10
-66.8273140973
 20
21.1318304938
 10
-66.8270819334
 20
21.1302425501
 10
-66.8269065129
 20
21.1254978478
 10
-66.8267889531
 20
21.117626443
 10
-66.8267300077
 20
21.1066781982
  0
LINE
  5
4B2
100
AcDbEntity
  8
SMUSSO
100
AcDbLine
 62
250
  6
CONTINUOUS
 10
-62.4676579711
 20
-13.5246869934
 11
-62.4827710495
 21
-13.2565449016
  0
LINE
  5
4B3
100
AcDbEntity
  8
ASSI
100
AcDbLine
 62
250
  6
CONTINUOUS
 10
-62.4676579711
 20
-13.5246869934
 11
-62.4827710495
 21
-13.2565449016
  0
LINE
  5
4B4
100
AcDbEntity
  8
SMUSSO
100
AcDbLine
 62
250
  6
CONTINUOUS
 10
-62.4676579711
 20
-8.5246869934
 11
-62.4827710495
 21
-8.2565449016
  0
LINE
  5
4B5
100
AcDbEntity
  8
ASSI
100
AcDbLine
 62
250
  6
CONTINUOUS
 10
-62.4676579711
 20
-8.5246869934
 11
-62.4827710495
 21
-8.2565449016
  0
LINE
  5
4B6
100
AcDbEntity
  8
SMUSSO
100
AcDbLine
 62
250
  6
CONTINUOUS
 10
-62.4676579711
 20
-3.5246869934
 11
-62.4827710495
 21
-3.2565449016
  0
LINE
  5
4B7
100
AcDbEntity
  8
ASSI
100
AcDbLine
 62
250
  6
CONTINUOUS
 10
-62.4676579711
 20
-3.5246869934
 11
-62.4827710495
 21
-3.2565449016
  0
LINE
  5
4B8
100
AcDbEntity
  8
SMUSSO
100
AcDbLine
 62
250
  6
CONTINUOUS
 10
-62.4676579711
 20
1.4753130066
 11
-62.4827710495
 21
1.7434550984
  0
LINE
  5
4B9
100
AcDbEntity
  8
ASSI
100
AcDbLine
 62
250
  6
CONTINUOUS
 10
-62.4676579711
 20
1.4753130066
 11
-62.4827710495
 21
1.7434550984
  0
LINE
  5
4BA
100
AcDbEntity
  8
SMUSSO
100
AcDbLine
 62
250
  6
CONTINUOUS
 10
-62.4676579711
 20
6.4753130066
 11
-62.4827710495
 21
6.7434550984
  0
LINE
  5
4BB
100
AcDbEntity
  8
ASSI
100
AcDbLine
 62
250
  6
CONTINUOUS
 10
-62.4676579711
 20
6.4753130066
 11
-62.4827710495
 21
6.7434550984
  0
LINE
  5
4BC
100
AcDbEntity
  8
SMUSSO
100
AcDbLine
 62
250
  6
CONTINUOUS
 10
-62.4676579711
 20
11.4753130066
 11
-62.4827710495
 21
11.7434550984
  0
LINE
  5
4BD
100
AcDbEntity
  8
ASSI
100
AcDbLine
 62
250
  6
CONTINUOUS
 10
-62.4676579711
 20
11.4753130066
 11
-62.4827710495
 21
11.7434550984
  0
LINE
  5
4BE
100
AcDbEntity
  8
0
100
AcDbLine
 62
7
  6
CONTINUOUS
 10
-62.7567424918
 20
-2.759
 11
-62.7567424918
 21
-3.2020161687
  0
LINE
  5
4BF
100
AcDbEntity
  8
0
100
AcDbLine
 62
7
  6
CONTINUOUS
 10
-62.7567424918
 20
-7.585
 11
-62.7567424918
 21
-8.2020161687
  0
LINE
  5
4C0
100
AcDbEntity
  8
0
100
AcDbLine
 62
250
  6
CONTINUOUS
 10
-62.3567424918
 20
-8.2576447362
 11
-62.3567424918
 21
-7.585
  0
LINE
  5
4C1
100
AcDbEntity
  8
0
100
AcDbLine
 62
250
  6
CONTINUOUS
 10
-62.3567424918
 20
-3.2576447362
 11
-62.3567424918
 21
-2.759
  0
LINE
  5
4C2
100
AcDbEntity
  8
0
100
AcDbLine
 62
7
  6
CONTINUOUS
 10
-62.1567424918
 20
-8.2593901097
 11
-62.1567424918
 21
-7.7850000033
  0
LINE
  5
4C3
100
AcDbEntity
  8
0
100
AcDbLine
 62
7
  6
CONTINUOUS
 10
-62.1567424918
 20
-3.2593901097
 11
-62.1567424918
 21
-2.9590000033
  0
LINE
  5
4C4
100
AcDbEntity
  8
0
100
AcDbLine
 62
7
  6
CONTINUOUS
 10
-61.3267424918
 20
1.82
 11
-61.3267424918
 21
3.26663341
  0
LINE
  5
4C5
100
AcDbEntity
  8
0
100
AcDbLine
 62
7
  6
CONTINUOUS
 10
-61.3267424918
 20
6.73336659
 11
-61.3267424918
 21
7.322
  0
LINE
  5
4C6
100
AcDbEntity
  8
0
100
AcDbLine
 62
7
  6
CONTINUOUS
 10
-60.6847424918
 20
12.946
 11
-60.6847424918
 21
13.2722360591
  0
LINE
  5
4C7
100
AcDbEntity
  8
SMUSSO
100
AcDbLine
 62
250
  6
CONTINUOUS
 10
-62.4676579711
 20
13.5246869934
 11
-62.4827710495
 21
13.2565449016
  0
LINE
  5
4C8
100
AcDbEntity
  8
ASSI
100
AcDbLine
 62
250
  6
CONTINUOUS
 10
-62.4676579711
 20
13.5246869934
 11
-62.4827710495
 21
13.2565449016
  0
LINE
  5
4C9
100
AcDbEntity
  8
SMUSSO
100
AcDbLine
 62
250
  6
CONTINUOUS
 10
-62.4676579711
 20
8.5246869934
 11
-62.4827710495
 21
8.2565449016
  0
LINE
  5
4CA
100
AcDbEntity
  8
ASSI
100
AcDbLine
 62
250
  6
CONTINUOUS
 10
-62.4676579711
 20
8.5246869934
 11
-62.4827710495
 21
8.2565449016
  0
LINE
  5
4CB
100
AcDbEntity
  8
SMUSSO
100
AcDbLine
 62
250
  6
CONTINUOUS
 10
-62.4676579711
 20
3.5246869934
 11
-62.4827710495
 21
3.2565449016
  0
LINE
  5
4CC
100
AcDbEntity
  8
ASSI
100
AcDbLine
 62
250
  6
CONTINUOUS
 10
-62.4676579711
 20
3.5246869934
 11
-62.4827710495
 21
3.2565449016
  0
LINE
  5
4CD
100
AcDbEntity
  8
SMUSSO
100
AcDbLine
 62
250
  6
CONTINUOUS
 10
-62.4676579711
 20
-1.4753130066
 11
-62.4827710495
 21
-1.7434550984
  0
LINE
  5
4CE
100
AcDbEntity
  8
ASSI
100
AcDbLine
 62
250
  6
CONTINUOUS
 10
-62.4676579711
 20
-1.4753130066
 11
-62.4827710495
 21
-1.7434550984
  0
LINE
  5
4CF
100
AcDbEntity
  8
SMUSSO
100
AcDbLine
 62
250
  6
CONTINUOUS
 10
-62.4676579711
 20
-6.4753130066
 11
-62.4827710495
 21
-6.7434550984
  0
LINE
  5
4D0
100
AcDbEntity
  8
ASSI
100
AcDbLine
 62
250
  6
CONTINUOUS
 10
-62.4676579711
 20
-6.4753130066
 11
-62.4827710495
 21
-6.7434550984
  0
LINE
  5
4D1
100
AcDbEntity
  8
SMUSSO
100
AcDbLine
 62
250
  6
CONTINUOUS
 10
-62.4676579711
 20
-11.4753130066
 11
-62.4827710495
 21
-11.7434550984
  0
LINE
  5
4D2
100
AcDbEntity
  8
ASSI
100
AcDbLine
 62
250
  6
CONTINUOUS
 10
-62.4676579711
 20
-11.4753130066
 11
-62.4827710495
 21
-11.7434550984
  0
LINE
  5
4D3
100
AcDbEntity
  8
CURVE
100
AcDbLine
 62
250
  6
CONTINUOUS
 10
-67.1921174918
 20
-6.584375
 11
-67.2514924918
 21
-6.703125
  0
LINE
  5
4D4
100
AcDbEntity
  8
CURVE
100
AcDbLine
 62
250
  6
CONTINUOUS
 10
-72.1327424918
 20
-6.8785713315
 11
-71.8613139365
 21
-6.6071428895
  0
LINE
  5
4D5
100
AcDbEntity
  8
CURVE
100
AcDbLine
 62
250
  6
CONTINUOUS
 10
-70.2327424918
 20
-5.521428442
 11
-70.5041710753
 21
-5.792857337
  0
LINE
  5
4D6
100
AcDbEntity
  8
CURVE
100
AcDbLine
 62
250
  6
CONTINUOUS
 10
-72.1327424918
 20
-8.3714285553
 11
-71.8613139365
 21
-8.1
  0
LINE
  5
4D7
100
AcDbEntity
  8
CURVE
100
AcDbLine
 62
250
  6
CONTINUOUS
 10
-70.2327424918
 20
-7.014285779
 11
-70.5041710753
 21
-7.285714221
  0
LINE
  5
4D8
100
AcDbEntity
  8
CURVE
100
AcDbLine
 62
250
  6
CONTINUOUS
 10
-70.2327424918
 20
-8.5071428895
 11
-70.5041710753
 21
-8.7785714447
  0
LINE
  5
4D9
100
AcDbEntity
  8
CURVE
100
AcDbLine
 62
250
  6
CONTINUOUS
 10
-67.1921174918
 20
-5.515625
 11
-67.3108674918
 21
-5.634375
  0
LWPOLYLINE
  5
4DA
100
AcDbEntity
  8
RACCORDO
100
AcDbPolyline
 62
250
  6
CONTINUOUS
 90
5
 70
0
 10
-89.5186999585
 20
-5.9079122605
 10
-89.5185202128
 20
-5.9079040146
 10
-89.5137184448
 20
-5.9080756428
 10
-89.5025168838
 20
-5.9083076912
 10
-89.4851024695
 20
-5.9084873235
  0
LINE
  5
4DB
100
AcDbEntity
  8
CURVE
100
AcDbLine
 62
250
  6
CONTINUOUS
 10
-71.5898853813
 20
-4.978571558
 11
-70.7755996589
 21
-4.978571558
  0
LINE
  5
4DC
100
AcDbEntity
  8
0
100
AcDbLine
 62
7
  6
CONTINUOUS
 10
-62.7567424918
 20
-2.784
 11
-63.1768397748
 21
-2.784
  0
LINE
  5
4DD
100
AcDbEntity
  8
0
100
AcDbLine
 62
7
  6
CONTINUOUS
 10
-62.3567424918
 20
-2.759
 11
-62.7567424918
 21
-2.759
  0
LINE
  5
4DE
100
AcDbEntity
  8
0
100
AcDbLine
 62
7
  6
CONTINUOUS
 10
-49.3147424918
 20
-2.652
 11
-54.1147424918
 21
-2.652
  0
LINE
  5
4DF
100
AcDbEntity
  8
SMUSSO
100
AcDbLine
 62
7
  6
CONTINUOUS
 10
-37.7327424918
 20
-3.7405453306
 11
-62.4676579711
 21
-3.5246869934
  0
LINE
  5
4E0
100
AcDbEntity
  8
ASSI
100
AcDbLine
 62
7
  6
CONTINUOUS
 10
-37.7327424918
 20
-3.7405453306
 11
-62.4676579711
 21
-3.5246869934
  0
LINE
  5
4E1
100
AcDbEntity
  8
SMUSSO
100
AcDbLine
 62
7
  6
CONTINUOUS
 10
-37.7327424918
 20
-3.4725351287
 11
-62.4827710495
 21
-3.2565449016
  0
LINE
  5
4E2
100
AcDbEntity
  8
ASSI
100
AcDbLine
 62
7
  6
CONTINUOUS
 10
-37.7327424918
 20
-3.4725351287
 11
-62.4827710495
 21
-3.2565449016
  0
LWPOLYLINE
  5
4E3
100
AcDbEntity
  8
SMUSSO
100
AcDbPolyline
 62
7
  6
CONTINUOUS
 90
40
 70
0
 10
-62.4676579711
 20
-3.5246869934
 10
-62.5504564738
 20
-3.5205239616
 10
-62.6316814003
 20
-3.5099950303
 10
-62.7113327508
 20
-3.4931001995
 10
-62.7899207843
 20
-3.469645251
 10
-62.8669352416
 20
-3.439824403
 10
-62.9408453454
 20
-3.4042203099
 10
-63.0115628395
 20
-3.3627309701
 10
-63.0791759801
 20
-3.3154583852
 10
-63.1424187579
 20
-3.2632912141
 10
-63.2012192679
 20
-3.2061275868
 10
-63.2556494153
 20
-3.1440693734
 10
-63.3046589057
 20
-3.0783108416
 10
-63.3481386599
 20
-3.0087853348
 10
-63.3861977572
 20
-2.9355595098
 10
-63.4181131422
 20
-2.8600276052
 10
-63.4437680181
 20
-2.782143662
 10
-63.4632791817
 20
-2.7019536394
 10
-63.4762739677
 20
-2.620989653
 10
-63.4826267533
 20
-2.5392368851
 10
-63.4824631612
 20
-2.4567101535
 10
-63.4757873941
 20
-2.3749860273
 10
-63.4624772303
 20
-2.2940849068
 10
-63.4426548915
 20
-2.2139863918
 10
-63.4166912454
 20
-2.1362058508
 10
-63.3844554501
 20
-2.0607698227
 10
-63.3460783474
 20
-1.9876517686
 10
-63.3023233311
 20
-1.9182874405
 10
-63.2531281531
 20
-1.8527885948
 10
-63.1985550614
 20
-1.791043475
 10
-63.1395541931
 20
-1.7341525639
 10
-63.0759798488
 20
-1.6821549462
 10
-63.0079777279
 20
-1.6350115371
 10
-62.9369350655
 20
-1.5937055653
 10
-62.8626455407
 20
-1.5583836389
 10
-62.7853154744
 20
-1.5288991497
 10
-62.7069510645
 20
-1.5057955016
 10
-62.6282210437
 20
-1.4892538289
 10
-62.5484566792
 20
-1.4790929973
 10
-62.4676579711
 20
-1.4753130066
  0
LWPOLYLINE
  5
4E4
100
AcDbEntity
  8
ASSI
100
AcDbPolyline
 62
7
  6
CONTINUOUS
 90
40
 70
0
 10
-62.4676579711
 20
-3.5246869934
 10
-62.5504564738
 20
-3.5205239616
 10
-62.6316814003
 20
-3.5099950303
 10
-62.7113327508
 20
-3.4931001995
 10
-62.7899207843
 20
-3.469645251
 10
-62.8669352416
 20
-3.439824403
 10
-62.9408453454
 20
-3.4042203099
 10
-63.0115628395
 20
-3.3627309701
 10
-63.0791759801
 20
-3.3154583852
 10
-63.1424187579
 20
-3.2632912141
 10
-63.2012192679
 20
-3.2061275868
 10
-63.2556494153
 20
-3.1440693734
 10
-63.3046589057
 20
-3.0783108416
 10
-63.3481386599
 20
-3.0087853348
 10
-63.3861977572
 20
-2.9355595098
 10
-63.4181131422
 20
-2.8600276052
 10
-63.4437680181
 20
-2.782143662
 10
-63.4632791817
 20
-2.7019536394
 10
-63.4762739677
 20
-2.620989653
 10
-63.4826267533
 20
-2.5392368851
 10
-63.4824631612
 20
-2.4567101535
 10
-63.4757873941
 20
-2.3749860273
 10
-63.4624772303
 20
-2.2940849068
 10
-63.4426548915
 20
-2.2139863918
 10
-63.4166912454
 20
-2.1362058508
 10
-63.3844554501
 20
-2.0607698227
 10
-63.3460783474
 20
-1.9876517686
 10
-63.3023233311
 20
-1.9182874405
 10
-63.2531281531
 20
-1.8527885948
 10
-63.1985550614
 20
-1.791043475
 10
-63.1395541931
 20
-1.7341525639
 10
-63.0759798488
 20
-1.6821549462
 10
-63.0079777279
 20
-1.6350115371
 10
-62.9369350655
 20
-1.5937055653
 10
-62.8626455407
 20
-1.5583836389
 10
-62.7853154744
 20
-1.5288991497
 10
-62.7069510645
 20
-1.5057955016
 10
-62.6282210437
 20
-1.4892538289
 10
-62.5484566792
 20
-1.4790929973
 10
-62.4676579711
 20
-1.4753130066
  0
LINE
  5
4E5
100
AcDbEntity
  8
CURVE
100
AcDbLine
 62
250
  6
CONTINUOUS
 10
-67.2046267207
 20
-0.7903623781
 11
-67.6749000542
 21
-0.5636291216
  0
LINE
  5
4E6
100
AcDbEntity
  8
CURVE
100
AcDbLine
 62
250
  6
CONTINUOUS
 10
-65.7327424918
 20
-1.500000718
 11
-66.2843679667
 21
-1.2340457986
  0
LINE
  5
4E7
100
AcDbEntity
  8
CURVE
100
AcDbLine
 62
250
  6
CONTINUOUS
 10
-67.822146217
 20
2.624378
 11
-72.8316611274
 21
7.56101
  0
LINE
  5
4E8
100
AcDbEntity
  8
0
100
AcDbLine
 62
250
  6
CONTINUOUS
 10
-60.5247424918
 20
12.946
 11
-60.5247424918
 21
13.273632358
  0
LINE
  5
4E9
100
AcDbEntity
  8
0
100
AcDbLine
 62
7
  6
CONTINUOUS
 10
-60.4247424918
 20
12.946
 11
-60.4247424918
 21
13.2745050448
  0
LINE
  5
4EA
100
AcDbEntity
  8
0
100
AcDbLine
 62
250
  6
CONTINUOUS
 10
-60.1747424918
 20
13.2766867617
 11
-60.1747424918
 21
12.946
  0
LINE
  5
4EB
100
AcDbEntity
  8
0
100
AcDbLine
 62
7
  6
CONTINUOUS
 10
-60.0847424918
 20
12.946
 11
-60.0847424918
 21
12.546
  0
LINE
  5
4EC
100
AcDbEntity
  8
0
100
AcDbLine
 62
7
  6
CONTINUOUS
 10
-60.0716191922
 20
13.2775867051
 11
-60.0716191922
 21
12.946
  0
LINE
  5
4ED
100
AcDbEntity
  8
0
100
AcDbLine
 62
7
  6
CONTINUOUS
 10
-60.0060026946
 20
12.6247397972
 11
-60.0060026946
 21
13.2781593316
  0
LINE
  5
4EE
100
AcDbEntity
  8
0
100
AcDbLine
 62
7
  6
CONTINUOUS
 10
-58.6634822889
 20
13.2898753297
 11
-58.6634822889
 21
12.6247397972
  0
LINE
  5
4EF
100
AcDbEntity
  8
0
100
AcDbLine
 62
7
  6
CONTINUOUS
 10
-58.5847424918
 20
12.546
 11
-58.5847424918
 21
13.2905624815
  0
LWPOLYLINE
  5
4F0
100
AcDbEntity
  8
RACCORDO
100
AcDbPolyline
 62
250
  6
CONTINUOUS
 90
9
 70
0
 10
-64.5463758363
 20
-19.3975009161
 10
-64.5455467575
 20
-19.395073924
 10
-64.5447665644
 20
-19.3878273352
 10
-64.5440415401
 20
-19.3758195586
 10
-64.543377509
 20
-19.3591474121
 10
-64.5427798225
 20
-19.3379453269
 10
-64.5422533249
 20
-19.3123842497
 10
-64.5418022681
 20
-19.2826702927
 10
-64.5411403154
 20
-19.2117738234
  0
LWPOLYLINE
  5
4F1
100
AcDbEntity
  8
ASSI
100
AcDbPolyline
 62
250
  6
CONTINUOUS
 90
9
 70
0
 10
-64.5463758363
 20
-19.3975009161
 10
-64.5455467575
 20
-19.395073924
 10
-64.5447665644
 20
-19.3878273352
 10
-64.5440415401
 20
-19.3758195586
 10
-64.543377509
 20
-19.3591474121
 10
-64.5427798225
 20
-19.3379453269
 10
-64.5422533249
 20
-19.3123842497
 10
-64.5418022681
 20
-19.2826702927
 10
-64.5411403154
 20
-19.2117738234
  0
LINE
  5
4F2
100
AcDbEntity
  8
CURVE
100
AcDbLine
 62
250
  6
CONTINUOUS
 10
-67.2514924918
 20
-6.703125
 11
-67.3702424918
 21
-6.821875
  0
LINE
  5
4F3
100
AcDbEntity
  8
CURVE
100
AcDbLine
 62
250
  6
CONTINUOUS
 10
-71.8613139365
 20
-5.114285779
 11
-71.5898853813
 21
-4.978571558
  0
LINE
  5
4F4
100
AcDbEntity
  8
CURVE
100
AcDbLine
 62
250
  6
CONTINUOUS
 10
-70.5041710753
 20
-5.792857337
 11
-70.7755996589
 21
-5.928571558
  0
LINE
  5
4F5
100
AcDbEntity
  8
CURVE
100
AcDbLine
 62
250
  6
CONTINUOUS
 10
-71.8613139365
 20
-6.6071428895
 11
-71.5898853813
 21
-6.4714286685
  0
LINE
  5
4F6
100
AcDbEntity
  8
CURVE
100
AcDbLine
 62
250
  6
CONTINUOUS
 10
-70.2327424918
 20
-3.214285779
 11
-71.5898853813
 21
-3.621428442
  0
LWPOLYLINE
  5
4F7
100
AcDbEntity
  8
CURVE
100
AcDbPolyline
 62
250
  6
CONTINUOUS
 90
63
 70
0
 10
-68.1439498177
 20
-1.4118127306
 10
-68.1990226748
 20
-1.4280638183
 10
-68.2540416618
 20
-1.4428722836
 10
-68.3090126473
 20
-1.4561726104
 10
-68.3639414999
 20
-1.4678992825
 10
-68.4188450382
 20
-1.4779827229
 10
-68.4737838804
 20
-1.4863371112
 10
-68.5288295946
 20
-1.492872566
 10
-68.5840537489
 20
-1.497499206
 10
-68.6395112458
 20
-1.5001322699
 10
-68.6951903247
 20
-1.5007074765
 10
-68.7510625597
 20
-1.4991656645
 10
-68.8070995248
 20
-1.4954476728
 10
-68.8632785894
 20
-1.4895110119
 10
-68.9196003053
 20
-1.4813798807
 10
-68.97607102
 20
-1.4710951497
 10
-69.0326970808
 20
-1.4586976895
 10
-69.089468509
 20
-1.4442277711
 10
-69.146310021
 20
-1.4277232659
 10
-69.2031300071
 20
-1.4092214458
 10
-69.2598368577
 20
-1.3887595826
 10
-69.3163372722
 20
-1.3663811174
 10
-69.3725311868
 20
-1.3421541683
 10
-69.428316847
 20
-1.3161530229
 10
-69.483592498
 20
-1.2884519686
 10
-69.5382545461
 20
-1.2591319664
 10
-69.5921920397
 20
-1.2283006716
 10
-69.645292188
 20
-1.1960724128
 10
-69.6974422004
 20
-1.1625615186
 10
-69.7485505942
 20
-1.1278686713
 10
-69.7986111196
 20
-1.0920399667
 10
-69.847638835
 20
-1.0551078539
 10
-69.8956487988
 20
-1.0171047822
 10
-69.9580858081
 20
-0.9648301881
 10
-70.0186611449
 20
-0.910822386
 10
-70.0772957021
 20
-0.8551944071
 10
-70.1339053869
 20
-0.7980670929
 10
-70.1883861614
 20
-0.739592525
 10
-70.2406290019
 20
-0.6799305953
 10
-70.278278953
 20
-0.6345005077
 10
-70.3145750433
 20
-0.5885562092
 10
-70.3494835758
 20
-0.5421614407
 10
-70.3829708536
 20
-0.4953799434
 10
-70.4150059177
 20
-0.448273982
 10
-70.4455687617
 20
-0.4008999168
 10
-70.4746421169
 20
-0.3533126316
 10
-70.5022087149
 20
-0.3055670106
 10
-70.5282572503
 20
-0.2577024961
 10
-70.5528002696
 20
-0.2096967652
 10
-70.5758562824
 20
-0.1615120531
 10
-70.5974437985
 20
-0.1131105955
 10
-70.6175748828
 20
-0.0644527969
 10
-70.6362358227
 20
-0.0154917392
 10
-70.6534064608
 20
0.0338213263
 10
-70.6690666401
 20
0.0835351485
 10
-70.6831878758
 20
0.1336965128
 10
-70.6957083744
 20
0.1843443508
 10
-70.7065580151
 20
0.2355156307
 10
-70.715666677
 20
0.2872473208
 10
-70.7229557094
 20
0.3395683026
 10
-70.7283123421
 20
0.3924751108
 10
-70.731615275
 20
0.4459561937
 10
-70.7327432082
 20
0.4999999992
  0
LINE
  5
4F8
100
AcDbEntity
  8
CURVE
100
AcDbLine
 62
250
  6
CONTINUOUS
 10
-70.2327424918
 20
-4.028571558
 11
-72.1327424918
 21
-4.435714221
  0
LINE
  5
4F9
100
AcDbEntity
  8
SMUSSO
100
AcDbLine
 62
7
  6
CONTINUOUS
 10
-62.4827710495
 20
-1.7434550984
 11
-37.7327424918
 21
-1.5274648713
  0
LINE
  5
4FA
100
AcDbEntity
  8
ASSI
100
AcDbLine
 62
7
  6
CONTINUOUS
 10
-62.4827710495
 20
-1.7434550984
 11
-37.7327424918
 21
-1.5274648713
  0
LINE
  5
4FB
100
AcDbEntity
  8
SMUSSO
100
AcDbLine
 62
7
  6
CONTINUOUS
 10
-62.4676579711
 20
-1.4753130066
 11
-37.7327424918
 21
-1.2594546694
  0
LINE
  5
4FC
100
AcDbEntity
  8
ASSI
100
AcDbLine
 62
7
  6
CONTINUOUS
 10
-62.4676579711
 20
-1.4753130066
 11
-37.7327424918
 21
-1.2594546694
  0
LWPOLYLINE
  5
4FD
100
AcDbEntity
  8
RACCORDO
100
AcDbPolyline
 62
250
  6
CONTINUOUS
 90
7
 70
0
 10
-64.5463758361
 20
19.3975009161
 10
-64.545546539
 20
19.3950738645
 10
-64.5447661626
 20
19.3878271287
 10
-64.544041001
 20
19.375819159
 10
-64.5433769034
 20
19.3591468085
 10
-64.5427792261
 20
19.3379445521
 10
-64.5422527899
 20
19.3123834017
  0
LWPOLYLINE
  5
4FE
100
AcDbEntity
  8
ASSI
100
AcDbPolyline
 62
250
  6
CONTINUOUS
 90
7
 70
0
 10
-64.5463758361
 20
19.3975009161
 10
-64.545546539
 20
19.3950738645
 10
-64.5447661626
 20
19.3878271287
 10
-64.544041001
 20
19.375819159
 10
-64.5433769034
 20
19.3591468085
 10
-64.5427792261
 20
19.3379445521
 10
-64.5422527899
 20
19.3123834017
  0
LWPOLYLINE
  5
4FF
100
AcDbEntity
  8
0
100
AcDbPolyline
 62
7
  6
CONTINUOUS
 90
4
 70
0
 43
0.3500000006
 10
-56.3398839569
 20
34.6071433868
 10
-56.3398839569
 20
35.2500013733
 10
-54.8398834991
 20
35.2500013733
 10
-55.6970259705
 20
32.2500004578
  0
LINE
  5
500
100
AcDbEntity
  8
0
100
AcDbLine
 62
7
  6
CONTINUOUS
 10
-56.3267424918
 20
7.322
 11
-56.3267424918
 21
6.689732251
  0
LINE
  5
501
100
AcDbEntity
  8
0
100
AcDbLine
 62
7
  6
CONTINUOUS
 10
-56.3267424918
 20
3.310267749
 11
-56.3267424918
 21
1.82
  0
LINE
  5
502
100
AcDbEntity
  8
0
100
AcDbLine
 62
7
  6
CONTINUOUS
 10
-55.6047424918
 20
12.946
 11
-55.6047424918
 21
13.3165685475
  0
LINE
  5
503
100
AcDbEntity
  8
0
100
AcDbLine
 62
250
  6
CONTINUOUS
 10
-55.4447424918
 20
12.946
 11
-55.4447424918
 21
13.3179648464
  0
LINE
  5
504
100
AcDbEntity
  8
0
100
AcDbLine
 62
7
  6
CONTINUOUS
 10
-55.3447424918
 20
12.946
 11
-55.3447424918
 21
13.3188375331
  0
LINE
  5
505
100
AcDbEntity
  8
0
100
AcDbLine
 62
7
  6
CONTINUOUS
 10
-55.2767424918
 20
2.031
 11
-55.2767424918
 21
2.539
  0
LINE
  5
506
100
AcDbEntity
  8
0
100
AcDbLine
 62
7
  6
CONTINUOUS
 10
-55.2767424918
 20
3.301
 11
-55.2767424918
 21
3.3194309601
  0
LINE
  5
507
100
AcDbEntity
  8
CURVE
100
AcDbLine
 62
250
  6
CONTINUOUS
 10
-70.1342143543
 20
-12.7514718626
 11
-69.92208232
 21
-12.5393398282
  0
LINE
  5
508
100
AcDbEntity
  8
CURVE
100
AcDbLine
 62
250
  6
CONTINUOUS
 10
-71.8312706292
 20
-14.4485281374
 11
-72.0434026635
 21
-14.6606601718
  0
LINE
  5
509
100
AcDbEntity
  8
CURVE
100
AcDbLine
 62
250
  6
CONTINUOUS
 10
-70.5041710753
 20
-7.285714221
 11
-70.7755996589
 21
-7.4214286685
  0
LINE
  5
50A
100
AcDbEntity
  8
CURVE
100
AcDbLine
 62
250
  6
CONTINUOUS
 10
-71.8613139365
 20
-8.1
 11
-71.5898853813
 21
-7.964285779
  0
LINE
  5
50B
100
AcDbEntity
  8
CURVE
100
AcDbLine
 62
250
  6
CONTINUOUS
 10
-67.3702424918
 20
-6.821875
 11
-67.4889924918
 21
-6.88125
  0
LINE
  5
50C
100
AcDbEntity
  8
CURVE
100
AcDbLine
 62
250
  6
CONTINUOUS
 10
-70.5041710753
 20
-8.7785714447
 11
-70.7755996589
 21
-8.9142856658
  0
LINE
  5
50D
100
AcDbEntity
  8
CURVE
100
AcDbLine
 62
250
  6
CONTINUOUS
 10
-67.3108674918
 20
-5.634375
 11
-67.4889924918
 21
-5.69375
  0
LINE
  5
50E
100
AcDbEntity
  8
CURVE
100
AcDbLine
 62
250
  6
CONTINUOUS
 10
-65.7327424918
 20
0.4999999992
 11
-66.7327428504
 21
0.4999999992
  0
LINE
  5
50F
100
AcDbEntity
  8
CURVE
100
AcDbLine
 62
250
  6
CONTINUOUS
 10
-70.7327432082
 20
0.4999999992
 11
-71.7327424903
 21
0.4999999992
  0
LINE
  5
510
100
AcDbEntity
  8
0
100
AcDbLine
 62
7
  6
CONTINUOUS
 10
-56.3267424918
 20
1.82
 11
-61.3267424918
 21
1.82
  0
LINE
  5
511
100
AcDbEntity
  8
0
100
AcDbLine
 62
7
  6
CONTINUOUS
 10
-49.7767424918
 20
2.031
 11
-51.0767424918
 21
2.031
  0
LINE
  5
512
100
AcDbEntity
  8
0
100
AcDbLine
 62
7
  6
CONTINUOUS
 10
-53.8767424918
 20
2.031
 11
-55.2767424918
 21
2.031
  0
LINE
  5
513
100
AcDbEntity
  8
0
100
AcDbLine
 62
7
  6
CONTINUOUS
 10
-55.2767424918
 20
2.539
 11
-53.8767424918
 21
2.539
  0
LINE
  5
514
100
AcDbEntity
  8
0
100
AcDbLine
 62
7
  6
CONTINUOUS
 10
-51.0767424918
 20
2.539
 11
-49.7767424918
 21
2.539
  0
LINE
  5
515
100
AcDbEntity
  8
CURVE
100
AcDbLine
 62
250
  6
CONTINUOUS
 10
-65.7327424918
 20
2.907638
 11
-66.7515992913
 21
2.907638
  0
LINE
  5
516
100
AcDbEntity
  8
SMUSSO
100
AcDbLine
 62
7
  6
CONTINUOUS
 10
-37.7327424918
 20
1.2594546694
 11
-62.4676579711
 21
1.4753130066
  0
LINE
  5
517
100
AcDbEntity
  8
ASSI
100
AcDbLine
 62
7
  6
CONTINUOUS
 10
-37.7327424918
 20
1.2594546694
 11
-62.4676579711
 21
1.4753130066
  0
LINE
  5
518
100
AcDbEntity
  8
SMUSSO
100
AcDbLine
 62
7
  6
CONTINUOUS
 10
-37.7327424918
 20
1.5274648713
 11
-62.4827710495
 21
1.7434550984
  0
LINE
  5
519
100
AcDbEntity
  8
ASSI
100
AcDbLine
 62
7
  6
CONTINUOUS
 10
-37.7327424918
 20
1.5274648713
 11
-62.4827710495
 21
1.7434550984
  0
LWPOLYLINE
  5
51A
100
AcDbEntity
  8
SMUSSO
100
AcDbPolyline
 62
7
  6
CONTINUOUS
 90
40
 70
0
 10
-62.4676579711
 20
1.4753130066
 10
-62.550271051
 20
1.4794361909
 10
-62.6313690581
 20
1.4899328633
 10
-62.7109519924
 20
1.5068030239
 10
-62.7895575452
 20
1.5302477861
 10
-62.8666480252
 20
1.5600660366
 10
-62.9406103586
 20
1.5956544346
 10
-63.0113163307
 20
1.6371016499
 10
-63.0788941562
 20
1.6843190128
 10
-63.1421154058
 20
1.7364371729
 10
-63.200924786
 20
1.7935673139
 10
-63.2553775902
 20
1.8555982523
 10
-63.3044112697
 20
1.921327087
 10
-63.3479115978
 20
1.9908156248
 10
-63.385992801
 20
2.0640020591
 10
-63.4179350107
 20
2.1394980686
 10
-63.4436229746
 20
2.2173519321
 10
-63.463171945
 20
2.2975153708
 10
-63.4762078093
 20
2.3784552278
 10
-63.4826047552
 20
2.4601851407
 10
-63.4824885951
 20
2.5426914719
 10
-63.4758626543
 20
2.6244001511
 10
-63.4626042509
 20
2.7052924498
 10
-63.4428360668
 20
2.7853870965
 10
-63.4169294731
 20
2.8631662065
 10
-63.384757808
 20
2.9385981338
 10
-63.3464477333
 20
3.0117145244
 10
-63.3027506057
 20
3.0810924324
 10
-63.2535865746
 20
3.1466353353
 10
-63.1990354906
 20
3.2084397556
 10
-63.1400882624
 20
3.2653723148
 10
-63.0766422686
 20
3.317365917
 10
-63.0088001307
 20
3.364487658
 10
-62.9378606211
 20
3.4058054474
 10
-62.8635943804
 20
3.4412040705
 10
-62.786230768
 20
3.470798742
 10
-62.7077566357
 20
3.4940030147
 10
-62.6288342674
 20
3.5106214063
 10
-62.5488013792
 20
3.5208493992
 10
-62.4676579711
 20
3.5246869934
  0
LWPOLYLINE
  5
51B
100
AcDbEntity
  8
ASSI
100
AcDbPolyline
 62
7
  6
CONTINUOUS
 90
40
 70
0
 10
-62.4676579711
 20
1.4753130066
 10
-62.550271051
 20
1.4794361909
 10
-62.6313690581
 20
1.4899328633
 10
-62.7109519924
 20
1.5068030239
 10
-62.7895575452
 20
1.5302477861
 10
-62.8666480252
 20
1.5600660366
 10
-62.9406103586
 20
1.5956544346
 10
-63.0113163307
 20
1.6371016499
 10
-63.0788941562
 20
1.6843190128
 10
-63.1421154058
 20
1.7364371729
 10
-63.200924786
 20
1.7935673139
 10
-63.2553775902
 20
1.8555982523
 10
-63.3044112697
 20
1.921327087
 10
-63.3479115978
 20
1.9908156248
 10
-63.385992801
 20
2.0640020591
 10
-63.4179350107
 20
2.1394980686
 10
-63.4436229746
 20
2.2173519321
 10
-63.463171945
 20
2.2975153708
 10
-63.4762078093
 20
2.3784552278
 10
-63.4826047552
 20
2.4601851407
 10
-63.4824885951
 20
2.5426914719
 10
-63.4758626543
 20
2.6244001511
 10
-63.4626042509
 20
2.7052924498
 10
-63.4428360668
 20
2.7853870965
 10
-63.4169294731
 20
2.8631662065
 10
-63.384757808
 20
2.9385981338
 10
-63.3464477333
 20
3.0117145244
 10
-63.3027506057
 20
3.0810924324
 10
-63.2535865746
 20
3.1466353353
 10
-63.1990354906
 20
3.2084397556
 10
-63.1400882624
 20
3.2653723148
 10
-63.0766422686
 20
3.317365917
 10
-63.0088001307
 20
3.364487658
 10
-62.9378606211
 20
3.4058054474
 10
-62.8635943804
 20
3.4412040705
 10
-62.786230768
 20
3.470798742
 10
-62.7077566357
 20
3.4940030147
 10
-62.6288342674
 20
3.5106214063
 10
-62.5488013792
 20
3.5208493992
 10
-62.4676579711
 20
3.5246869934
  0
LINE
  5
51C
100
AcDbEntity
  8
0
100
AcDbLine
 62
250
  6
CONTINUOUS
 10
-55.0947424918
 20
13.3210192501
 11
-55.0947424918
 21
12.946
  0
LINE
  5
51D
100
AcDbEntity
  8
0
100
AcDbLine
 62
7
  6
CONTINUOUS
 10
-55.0047424918
 20
12.946
 11
-55.0047424918
 21
12.546
  0
LINE
  5
51E
100
AcDbEntity
  8
0
100
AcDbLine
 62
7
  6
CONTINUOUS
 10
-54.9916191922
 20
13.3219191935
 11
-54.9916191922
 21
12.946
  0
LINE
  5
51F
100
AcDbEntity
  8
0
100
AcDbLine
 62
7
  6
CONTINUOUS
 10
-54.9260026946
 20
12.6247397972
 11
-54.9260026946
 21
13.32249182
  0
LINE
  5
520
100
AcDbEntity
  8
0
100
AcDbLine
 62
7
  6
CONTINUOUS
 10
-54.1767424918
 20
6.6709694853
 11
-54.1767424918
 21
7.834
  0
LINE
  5
521
100
AcDbEntity
  8
0
100
AcDbLine
 62
7
  6
CONTINUOUS
 10
-54.1147424918
 20
-2.652
 11
-54.1147424918
 21
-1.6704284195
  0
LINE
  5
522
100
AcDbEntity
  8
0
100
AcDbLine
 62
7
  6
CONTINUOUS
 10
-53.8767424918
 20
1.6683514249
 11
-53.8767424918
 21
2.031
  0
LINE
  5
523
100
AcDbEntity
  8
0
100
AcDbLine
 62
7
  6
CONTINUOUS
 10
-53.8767424918
 20
2.539
 11
-53.8767424918
 21
3.301
  0
LINE
  5
524
100
AcDbEntity
  8
0
100
AcDbLine
 62
7
  6
CONTINUOUS
 10
-53.5834822889
 20
13.3342078181
 11
-53.5834822889
 21
12.6247397972
  0
LINE
  5
525
100
AcDbEntity
  8
0
100
AcDbLine
 62
7
  6
CONTINUOUS
 10
-53.5047424918
 20
12.546
 11
-53.5047424918
 21
13.3348949699
  0
LINE
  5
526
100
AcDbEntity
  8
CURVE
100
AcDbLine
 62
250
  6
CONTINUOUS
 10
-71.9235044651
 20
3.931124
 11
-68.5617955476
 21
4.225174
  0
LINE
  5
527
100
AcDbEntity
  8
SMUSSO
100
AcDbLine
 62
7
  6
CONTINUOUS
 10
-62.4827710495
 20
3.2565449016
 11
-37.7327424918
 21
3.4725351287
  0
LINE
  5
528
100
AcDbEntity
  8
ASSI
100
AcDbLine
 62
7
  6
CONTINUOUS
 10
-62.4827710495
 20
3.2565449016
 11
-37.7327424918
 21
3.4725351287
  0
LINE
  5
529
100
AcDbEntity
  8
SMUSSO
100
AcDbLine
 62
7
  6
CONTINUOUS
 10
-62.4676579711
 20
3.5246869934
 11
-37.7327424918
 21
3.7405453306
  0
LINE
  5
52A
100
AcDbEntity
  8
ASSI
100
AcDbLine
 62
7
  6
CONTINUOUS
 10
-62.4676579711
 20
3.5246869934
 11
-37.7327424918
 21
3.7405453306
  0
LINE
  5
52B
100
AcDbEntity
  8
0
100
AcDbLine
 62
7
  6
CONTINUOUS
 10
-49.7767424918
 20
3.301
 11
-51.0767424918
 21
3.301
  0
LINE
  5
52C
100
AcDbEntity
  8
0
100
AcDbLine
 62
7
  6
CONTINUOUS
 10
-53.8767424918
 20
3.301
 11
-55.2767424918
 21
3.301
  0
LINE
  5
52D
100
AcDbEntity
  8
CURVE
100
AcDbLine
 62
250
  6
CONTINUOUS
 10
-71.9235044651
 20
4.218216
 11
-72.3180623629
 21
4.218216
  0
LINE
  5
52E
100
AcDbEntity
  8
CURVE
100
AcDbLine
 62
250
  6
CONTINUOUS
 10
-68.3653774676
 20
4.281883
 11
-68.5617955476
 21
4.281883
  0
LINE
  5
52F
100
AcDbEntity
  8
CURVE
100
AcDbLine
 62
250
  6
CONTINUOUS
 10
-72.3180623629
 20
4.31759
 11
-71.9235044651
 21
4.31759
  0
LINE
  5
530
100
AcDbEntity
  8
CURVE
100
AcDbLine
 62
250
  6
CONTINUOUS
 10
-68.5617955476
 20
4.399503
 11
-68.3653774676
 21
4.399503
  0
LINE
  5
531
100
AcDbEntity
  8
CURVE
100
AcDbLine
 62
250
  6
CONTINUOUS
 10
-70.8802373839
 20
4.78807
 11
-71.0958405415
 21
4.78807
  0
LINE
  5
532
100
AcDbEntity
  8
CURVE
100
AcDbLine
 62
250
  6
CONTINUOUS
 10
-72.1935613279
 20
4.843073
 11
-72.4110222025
 21
4.843073
  0
LINE
  5
533
100
AcDbEntity
  8
CURVE
100
AcDbLine
 62
250
  6
CONTINUOUS
 10
-72.4104642875
 20
5.416076
 11
-72.1930034128
 21
5.416076
  0
LINE
  5
534
100
AcDbEntity
  8
CURVE
100
AcDbLine
 62
250
  6
CONTINUOUS
 10
-71.0958405415
 20
5.61141
 11
-70.8802373839
 21
5.61141
  0
LINE
  5
535
100
AcDbEntity
  8
CURVE
100
AcDbLine
 62
250
  6
CONTINUOUS
 10
-68.9998728162
 20
5.880593
 11
-71.8959566614
 21
6.149839
  0
LWPOLYLINE
  5
536
100
AcDbEntity
  8
CURVE
100
AcDbPolyline
 62
250
  6
CONTINUOUS
 90
17
 70
0
 10
-68.6829210968
 20
5.547108
 10
-68.7445989776
 20
5.5531564903
 10
-68.8039275671
 20
5.5710715761
 10
-68.8586470577
 20
5.6001708773
 10
-68.9074583503
 20
5.6401285431
 10
-68.946794921
 20
5.6880249629
 10
-68.9760806197
 20
5.7426508799
 10
-68.9941999632
 20
5.80192561
 10
-69.000464726
 20
5.8647
 10
-68.9944171569
 20
5.9263872761
 10
-68.9765047997
 20
5.985724903
 10
-68.9474099304
 20
6.0404527289
 10
-68.9074583503
 20
6.0892714569
 10
-68.8595692255
 20
6.1286140196
 10
-68.8049516283
 20
6.1579041793
 10
-68.745685926
 20
6.1760262829
 10
-68.6829210691
 20
6.182292
  0
LWPOLYLINE
  5
537
100
AcDbEntity
  8
CURVE
100
AcDbPolyline
 62
250
  6
CONTINUOUS
 90
17
 70
0
 10
-68.6829210968
 20
5.72419
 10
-68.7102088088
 20
5.7268659911
 10
-68.7364571404
 20
5.7347920368
 10
-68.7606663006
 20
5.7476662365
 10
-68.7822615383
 20
5.7653444262
 10
-68.7996649412
 20
5.7865349031
 10
-68.8126216074
 20
5.8107026642
 10
-68.8206380214
 20
5.8369271671
 10
-68.8234096965
 20
5.8647
 10
-68.8207341129
 20
5.8919918687
 10
-68.8128092744
 20
5.9182441986
 10
-68.7999370355
 20
5.9424570466
 10
-68.7822615383
 20
5.9640555738
 10
-68.7610742888
 20
5.9814616278
 10
-68.7369102085
 20
5.9944202676
 10
-68.7106896998
 20
6.0024379027
 10
-68.6829210845
 20
6.00521
  0
LWPOLYLINE
  5
538
100
AcDbEntity
  8
CURVE
100
AcDbPolyline
 62
250
  6
CONTINUOUS
 90
17
 70
0
 10
-72.0279655527
 20
6.097331
 10
-72.0653658954
 20
6.1009986943
 10
-72.1013416707
 20
6.1118620758
 10
-72.1345225725
 20
6.1295073616
 10
-72.1641208506
 20
6.1537369619
 10
-72.1879738301
 20
6.1827804778
 10
-72.2057321439
 20
6.2159046382
 10
-72.2167193836
 20
6.2518477541
 10
-72.2205182216
 20
6.289913
 10
-72.2168510859
 20
6.3273190398
 10
-72.205989359
 20
6.3633002952
 10
-72.1883467606
 20
6.3964862513
 10
-72.1641208506
 20
6.4260890381
 10
-72.1350817582
 20
6.4499456511
 10
-72.1019626427
 20
6.46770667
 10
-72.0660250011
 20
6.4786955834
 10
-72.0279655359
 20
6.482495
  0
LWPOLYLINE
  5
539
100
AcDbEntity
  8
CURVE
100
AcDbPolyline
 62
250
  6
CONTINUOUS
 90
17
 70
0
 10
-68.6829210968
 20
6.00521
 10
-68.6556333848
 20
6.0025340089
 10
-68.6293850533
 20
5.9946079632
 10
-68.605175893
 20
5.9817337635
 10
-68.5835806553
 20
5.9640555738
 10
-68.5661772524
 20
5.9428650969
 10
-68.5532205862
 20
5.9186973358
 10
-68.5452041722
 20
5.8924728329
 10
-68.5424324972
 20
5.8647
 10
-68.5451080807
 20
5.8374081313
 10
-68.5530329192
 20
5.8111558014
 10
-68.5659051581
 20
5.7869429534
 10
-68.5835806553
 20
5.7653444262
 10
-68.6047679048
 20
5.7479383722
 10
-68.6289319851
 20
5.7349797324
 10
-68.6551524939
 20
5.7269620973
 10
-68.6829211091
 20
5.72419
  0
LWPOLYLINE
  5
53A
100
AcDbEntity
  8
CURVE
100
AcDbPolyline
 62
250
  6
CONTINUOUS
 90
17
 70
0
 10
-72.0279655527
 20
6.482495
 10
-71.99056521
 20
6.4788273057
 10
-71.9545894348
 20
6.4679639242
 10
-71.921408533
 20
6.4503186384
 10
-71.8918102549
 20
6.4260890381
 10
-71.8679572754
 20
6.3970455222
 10
-71.8501989615
 20
6.3639213618
 10
-71.8392117219
 20
6.3279782459
 10
-71.8354128839
 20
6.289913
 10
-71.8390800196
 20
6.2525069602
 10
-71.8499417465
 20
6.2165257048
 10
-71.8675843449
 20
6.1833397487
 10
-71.8918102549
 20
6.1537369619
 10
-71.9208493473
 20
6.1298803489
 10
-71.9539684627
 20
6.11211933
 10
-71.9899061043
 20
6.1011304166
 10
-72.0279655696
 20
6.097331
  0
LWPOLYLINE
  5
53B
100
AcDbEntity
  8
CURVE
100
AcDbPolyline
 62
250
  6
CONTINUOUS
 90
17
 70
0
 10
-68.6829210968
 20
6.182292
 10
-68.621243216
 20
6.1762435097
 10
-68.5619146265
 20
6.1583284239
 10
-68.5071951359
 20
6.1292291227
 10
-68.4583838433
 20
6.0892714569
 10
-68.4190472726
 20
6.0413750371
 10
-68.389761574
 20
5.9867491201
 10
-68.3716422304
 20
5.92747439
 10
-68.3653774676
 20
5.8647
 10
-68.3714250367
 20
5.8030127239
 10
-68.3893373939
 20
5.743675097
 10
-68.4184322632
 20
5.6889472711
 10
-68.4583838433
 20
5.6401285431
 10
-68.5062729682
 20
5.6007859804
 10
-68.5608905654
 20
5.5714958207
 10
-68.6201562676
 20
5.5533737171
 10
-68.6829211246
 20
5.547108
  0
LINE
  5
53C
100
AcDbEntity
  8
0
100
AcDbLine
 62
7
  6
CONTINUOUS
 10
-51.0767424918
 20
3.301
 11
-51.0767424918
 21
2.539
  0
LINE
  5
53D
100
AcDbEntity
  8
0
100
AcDbLine
 62
7
  6
CONTINUOUS
 10
-51.0767424918
 20
2.031
 11
-51.0767424918
 21
1.6439161951
  0
LINE
  5
53E
100
AcDbEntity
  8
0
100
AcDbLine
 62
7
  6
CONTINUOUS
 10
-50.7767424918
 20
7.834
 11
-50.7767424918
 21
6.6412981348
  0
LINE
  5
53F
100
AcDbEntity
  8
0
100
AcDbLine
 62
7
  6
CONTINUOUS
 10
-49.7767424918
 20
3.367428733
 11
-49.7767424918
 21
3.301
  0
LINE
  5
540
100
AcDbEntity
  8
0
100
AcDbLine
 62
7
  6
CONTINUOUS
 10
-49.7767424918
 20
2.539
 11
-49.7767424918
 21
2.031
  0
LINE
  5
541
100
AcDbEntity
  8
SMUSSO
100
AcDbLine
 62
7
  6
CONTINUOUS
 10
-62.4827710495
 20
8.2565449016
 11
-37.7327424918
 21
8.4725351287
  0
LINE
  5
542
100
AcDbEntity
  8
ASSI
100
AcDbLine
 62
7
  6
CONTINUOUS
 10
-62.4827710495
 20
8.2565449016
 11
-37.7327424918
 21
8.4725351287
  0
LINE
  5
543
100
AcDbEntity
  8
CURVE
100
AcDbLine
 62
250
  6
CONTINUOUS
 10
-71.1882424661
 20
6.067887
 11
-71.560649738
 21
6.067887
  0
LINE
  5
544
100
AcDbEntity
  8
CURVE
100
AcDbLine
 62
250
  6
CONTINUOUS
 10
-71.560649738
 20
6.417947
 11
-71.1882424661
 21
6.417947
  0
LINE
  5
545
100
AcDbEntity
  8
CURVE
100
AcDbLine
 62
250
  6
CONTINUOUS
 10
-66.7515992913
 20
7.092362
 11
-65.7327424918
 21
7.092362
  0
LINE
  5
546
100
AcDbEntity
  8
0
100
AcDbLine
 62
7
  6
CONTINUOUS
 10
-61.3267424918
 20
7.322
 11
-56.3267424918
 21
7.322
  0
LINE
  5
547
100
AcDbEntity
  8
0
100
AcDbLine
 62
7
  6
CONTINUOUS
 10
-54.1767424918
 20
7.834
 11
-50.7767424918
 21
7.834
  0
LINE
  5
548
100
AcDbEntity
  8
0
100
AcDbLine
 62
7
  6
CONTINUOUS
 10
-39.3547424918
 20
8.422
 11
-39.7327424918
 21
8.422
  0
LINE
  5
549
100
AcDbEntity
  8
SMUSSO
100
AcDbLine
 62
7
  6
CONTINUOUS
 10
-37.7327424918
 20
6.2594546694
 11
-62.4676579711
 21
6.4753130066
  0
LINE
  5
54A
100
AcDbEntity
  8
ASSI
100
AcDbLine
 62
7
  6
CONTINUOUS
 10
-37.7327424918
 20
6.2594546694
 11
-62.4676579711
 21
6.4753130066
  0
LINE
  5
54B
100
AcDbEntity
  8
SMUSSO
100
AcDbLine
 62
7
  6
CONTINUOUS
 10
-37.7327424918
 20
6.5274648713
 11
-62.4827710495
 21
6.7434550984
  0
LINE
  5
54C
100
AcDbEntity
  8
ASSI
100
AcDbLine
 62
7
  6
CONTINUOUS
 10
-37.7327424918
 20
6.5274648713
 11
-62.4827710495
 21
6.7434550984
  0
LWPOLYLINE
  5
54D
100
AcDbEntity
  8
SMUSSO
100
AcDbPolyline
 62
7
  6
CONTINUOUS
 90
40
 70
0
 10
-62.4676579711
 20
6.4753130066
 10
-62.550271051
 20
6.4794361909
 10
-62.6313690581
 20
6.4899328633
 10
-62.7109519924
 20
6.5068030239
 10
-62.7895575452
 20
6.5302477861
 10
-62.8666480252
 20
6.5600660366
 10
-62.9406103586
 20
6.5956544346
 10
-63.0113163307
 20
6.6371016499
 10
-63.0788941562
 20
6.6843190128
 10
-63.1421154058
 20
6.7364371729
 10
-63.200924786
 20
6.7935673139
 10
-63.2553775902
 20
6.8555982523
 10
-63.3044112697
 20
6.921327087
 10
-63.3479115978
 20
6.9908156248
 10
-63.385992801
 20
7.0640020591
 10
-63.4179350107
 20
7.1394980686
 10
-63.4436229746
 20
7.2173519321
 10
-63.463171945
 20
7.2975153708
 10
-63.4762078093
 20
7.3784552278
 10
-63.4826047552
 20
7.4601851407
 10
-63.4824885951
 20
7.5426914719
 10
-63.4758626543
 20
7.6244001511
 10
-63.4626042509
 20
7.7052924498
 10
-63.4428360668
 20
7.7853870965
 10
-63.4169294731
 20
7.8631662065
 10
-63.384757808
 20
7.9385981338
 10
-63.3464477333
 20
8.0117145244
 10
-63.3027506057
 20
8.0810924324
 10
-63.2535865746
 20
8.1466353353
 10
-63.1990354906
 20
8.2084397556
 10
-63.1400882624
 20
8.2653723148
 10
-63.0766422686
 20
8.317365917
 10
-63.0088001307
 20
8.364487658
 10
-62.9378606211
 20
8.4058054474
 10
-62.8635943804
 20
8.4412040705
 10
-62.786230768
 20
8.470798742
 10
-62.7077566357
 20
8.4940030147
 10
-62.6288342674
 20
8.5106214063
 10
-62.5488013792
 20
8.5208493992
 10
-62.4676579711
 20
8.5246869934
  0
LWPOLYLINE
  5
54E
100
AcDbEntity
  8
ASSI
100
AcDbPolyline
 62
7
  6
CONTINUOUS
 90
40
 70
0
 10
-62.4676579711
 20
6.4753130066
 10
-62.550271051
 20
6.4794361909
 10
-62.6313690581
 20
6.4899328633
 10
-62.7109519924
 20
6.5068030239
 10
-62.7895575452
 20
6.5302477861
 10
-62.8666480252
 20
6.5600660366
 10
-62.9406103586
 20
6.5956544346
 10
-63.0113163307
 20
6.6371016499
 10
-63.0788941562
 20
6.6843190128
 10
-63.1421154058
 20
6.7364371729
 10
-63.200924786
 20
6.7935673139
 10
-63.2553775902
 20
6.8555982523
 10
-63.3044112697
 20
6.921327087
 10
-63.3479115978
 20
6.9908156248
 10
-63.385992801
 20
7.0640020591
 10
-63.4179350107
 20
7.1394980686
 10
-63.4436229746
 20
7.2173519321
 10
-63.463171945
 20
7.2975153708
 10
-63.4762078093
 20
7.3784552278
 10
-63.4826047552
 20
7.4601851407
 10
-63.4824885951
 20
7.5426914719
 10
-63.4758626543
 20
7.6244001511
 10
-63.4626042509
 20
7.7052924498
 10
-63.4428360668
 20
7.7853870965
 10
-63.4169294731
 20
7.8631662065
 10
-63.384757808
 20
7.9385981338
 10
-63.3464477333
 20
8.0117145244
 10
-63.3027506057
 20
8.0810924324
 10
-63.2535865746
 20
8.1466353353
 10
-63.1990354906
 20
8.2084397556
 10
-63.1400882624
 20
8.2653723148
 10
-63.0766422686
 20
8.317365917
 10
-63.0088001307
 20
8.364487658
 10
-62.9378606211
 20
8.4058054474
 10
-62.8635943804
 20
8.4412040705
 10
-62.786230768
 20
8.470798742
 10
-62.7077566357
 20
8.4940030147
 10
-62.6288342674
 20
8.5106214063
 10
-62.5488013792
 20
8.5208493992
 10
-62.4676579711
 20
8.5246869934
  0
LWPOLYLINE
  5
54F
100
AcDbEntity
  8
RACCORDO
100
AcDbPolyline
 62
250
  6
CONTINUOUS
 90
3
 70
0
 10
-66.8273142814
 20
21.0088657004
 10
-66.6165273163
 20
20.7932626932
 10
-65.6976742167
 20
19.8549123257
  0
LWPOLYLINE
  5
550
100
AcDbEntity
  8
ASSI
100
AcDbPolyline
 62
250
  6
CONTINUOUS
 90
3
 70
0
 10
-66.8273142814
 20
21.0088657004
 10
-66.6165273163
 20
20.7932626932
 10
-65.6976742167
 20
19.8549123257
  0
LINE
  5
551
100
AcDbEntity
  8
RACCORDO
100
AcDbLine
 62
250
  6
CONTINUOUS
 10
-65.6976742167
 20
19.8549123257
 11
-65.449034632
 21
19.6006295381
  0
LINE
  5
552
100
AcDbEntity
  8
ASSI
100
AcDbLine
 62
250
  6
CONTINUOUS
 10
-65.6976742167
 20
19.8549123257
 11
-65.449034632
 21
19.6006295381
  0
LINE
  5
553
100
AcDbEntity
  8
0
100
AcDbLine
 62
7
  6
CONTINUOUS
 10
-49.3147424918
 20
-1.6285394541
 11
-49.3147424918
 21
-2.652
  0
LINE
  5
554
100
AcDbEntity
  8
0
100
AcDbLine
 62
7
  6
CONTINUOUS
 10
-47.0827424918
 20
12.45
 11
-47.0827424918
 21
13.3909389148
  0
LINE
  5
555
100
AcDbEntity
  8
RACCORDO
100
AcDbLine
 62
250
  6
CONTINUOUS
 10
-65.449034632
 20
-19.6006295381
 11
-66.8273140206
 21
-21.0088656546
  0
LINE
  5
556
100
AcDbEntity
  8
ASSI
100
AcDbLine
 62
250
  6
CONTINUOUS
 10
-65.449034632
 20
-19.6006295381
 11
-66.8273140206
 21
-21.0088656546
  0
LINE
  5
557
100
AcDbEntity
  8
RACCORDO
100
AcDbLine
 62
7
  6
CONTINUOUS
 10
-65.0352420071
 20
-19.6024995154
 11
-67.0888129934
 21
-21.6560705017
  0
LINE
  5
558
100
AcDbEntity
  8
ASSI
100
AcDbLine
 62
7
  6
CONTINUOUS
 10
-65.0352420071
 20
-19.6024995154
 11
-67.0888129934
 21
-21.6560705017
  0
LINE
  5
559
100
AcDbEntity
  8
RACCORDO
100
AcDbLine
 62
250
  6
CONTINUOUS
 10
-66.4170605065
 20
-20.9843180147
 11
-66.4241571644
 21
-20.9910023088
  0
LINE
  5
55A
100
AcDbEntity
  8
ASSI
100
AcDbLine
 62
250
  6
CONTINUOUS
 10
-66.4170605065
 20
-20.9843180147
 11
-66.4241571644
 21
-20.9910023088
  0
LWPOLYLINE
  5
55B
100
AcDbEntity
  8
RACCORDO
100
AcDbPolyline
 62
250
  6
CONTINUOUS
 90
13
 70
0
 10
-65.0352420071
 20
-19.6024995153
 10
-65.0574577165
 20
-19.6215581213
 10
-65.0826650361
 20
-19.6373179806
 10
-65.1106763978
 20
-19.649661827
 10
-65.1412833691
 20
-19.6584978126
 10
-65.1742582042
 20
-19.6637601917
 10
-65.209355539
 20
-19.6654098093
 10
-65.2463142156
 20
-19.6634343926
 10
-65.2848592264
 20
-19.6578486423
 10
-65.3247037615
 20
-19.6486941232
 10
-65.3655513407
 20
-19.6360389547
 10
-65.4070980196
 20
-19.6199773042
 10
-65.4490346524
 20
-19.6006286866
  0
LWPOLYLINE
  5
55C
100
AcDbEntity
  8
ASSI
100
AcDbPolyline
 62
250
  6
CONTINUOUS
 90
13
 70
0
 10
-65.0352420071
 20
-19.6024995153
 10
-65.0574577165
 20
-19.6215581213
 10
-65.0826650361
 20
-19.6373179806
 10
-65.1106763978
 20
-19.649661827
 10
-65.1412833691
 20
-19.6584978126
 10
-65.1742582042
 20
-19.6637601917
 10
-65.209355539
 20
-19.6654098093
 10
-65.2463142156
 20
-19.6634343926
 10
-65.2848592264
 20
-19.6578486423
 10
-65.3247037615
 20
-19.6486941232
 10
-65.3655513407
 20
-19.6360389547
 10
-65.4070980196
 20
-19.6199773042
 10
-65.4490346524
 20
-19.6006286866
  0
LWPOLYLINE
  5
55D
100
AcDbEntity
  8
RACCORDO
100
AcDbPolyline
 62
250
  6
CONTINUOUS
 90
36
 70
0
 10
-66.4241571644
 20
-20.9910023088
 10
-66.4315599307
 20
-20.997202553
 10
-66.4392364853
 20
-21.0029379566
 10
-66.4471408082
 20
-21.0082200469
 10
-66.4552564895
 20
-21.0130792209
 10
-66.4636037627
 20
-21.017556235
 10
-66.4721621362
 20
-21.0216643896
 10
-66.4809098469
 20
-21.0254178816
 10
-66.48987747
 20
-21.0288453551
 10
-66.4990544508
 20
-21.0319557055
 10
-66.5084221015
 20
-21.0347564159
 10
-66.5180073163
 20
-21.0372633724
 10
-66.5278028887
 20
-21.0394811555
 10
-66.5377944199
 20
-21.041414052
 10
-66.5480033074
 20
-21.0430700278
 10
-66.5584204352
 20
-21.0444504446
 10
-66.5690375052
 20
-21.045558059
 10
-66.5798808115
 20
-21.0463968576
 10
-66.5909412684
 20
-21.0469655775
 10
-66.602213621
 20
-21.0472646407
 10
-66.613733092
 20
-21.047294162
 10
-66.6254968707
 20
-21.04704995
 10
-66.6374957667
 20
-21.0465292271
 10
-66.6497577529
 20
-21.0457283534
 10
-66.6622461199
 20
-21.0446434819
 10
-66.6749851684
 20
-21.0432692763
 10
-66.6880981144
 20
-21.0415876567
 10
-66.7015778279
 20
-21.0395817881
 10
-66.715422464
 20
-21.0372390854
 10
-66.7297677525
 20
-21.0345277579
 10
-66.7446183493
 20
-21.0314183217
 10
-66.7599589422
 20
-21.0278899223
 10
-66.7758970443
 20
-21.0239052479
 10
-66.7924625808
 20
-21.0194263537
 10
-66.8096061462
 20
-21.0144238882
 10
-66.8273140768
 20
-21.0088655794
  0
LWPOLYLINE
  5
55E
100
AcDbEntity
  8
ASSI
100
AcDbPolyline
 62
250
  6
CONTINUOUS
 90
36
 70
0
 10
-66.4241571644
 20
-20.9910023088
 10
-66.4315599307
 20
-20.997202553
 10
-66.4392364853
 20
-21.0029379566
 10
-66.4471408082
 20
-21.0082200469
 10
-66.4552564895
 20
-21.0130792209
 10
-66.4636037627
 20
-21.017556235
 10
-66.4721621362
 20
-21.0216643896
 10
-66.4809098469
 20
-21.0254178816
 10
-66.48987747
 20
-21.0288453551
 10
-66.4990544508
 20
-21.0319557055
 10
-66.5084221015
 20
-21.0347564159
 10
-66.5180073163
 20
-21.0372633724
 10
-66.5278028887
 20
-21.0394811555
 10
-66.5377944199
 20
-21.041414052
 10
-66.5480033074
 20
-21.0430700278
 10
-66.5584204352
 20
-21.0444504446
 10
-66.5690375052
 20
-21.045558059
 10
-66.5798808115
 20
-21.0463968576
 10
-66.5909412684
 20
-21.0469655775
 10
-66.602213621
 20
-21.0472646407
 10
-66.613733092
 20
-21.047294162
 10
-66.6254968707
 20
-21.04704995
 10
-66.6374957667
 20
-21.0465292271
 10
-66.6497577529
 20
-21.0457283534
 10
-66.6622461199
 20
-21.0446434819
 10
-66.6749851684
 20
-21.0432692763
 10
-66.6880981144
 20
-21.0415876567
 10
-66.7015778279
 20
-21.0395817881
 10
-66.715422464
 20
-21.0372390854
 10
-66.7297677525
 20
-21.0345277579
 10
-66.7446183493
 20
-21.0314183217
 10
-66.7599589422
 20
-21.0278899223
 10
-66.7758970443
 20
-21.0239052479
 10
-66.7924625808
 20
-21.0194263537
 10
-66.8096061462
 20
-21.0144238882
 10
-66.8273140768
 20
-21.0088655794
  0
LWPOLYLINE
  5
55F
100
AcDbEntity
  8
RACCORDO
100
AcDbPolyline
 62
250
  6
CONTINUOUS
 90
4
 70
0
 10
-84.8906379062
 20
8.98899174
 10
-85.2258087226
 20
8.9815208403
 10
-85.550545051
 20
8.9760361809
 10
-86.1703913886
 20
8.9668985345
  0
LWPOLYLINE
  5
560
100
AcDbEntity
  8
RACCORDO
100
AcDbPolyline
 62
250
  6
CONTINUOUS
 90
5
 70
0
 10
-89.4465404886
 20
8.9092329673
 10
-89.4943560785
 20
8.9083258011
 10
-89.5087045572
 20
8.9081981061
 10
-89.5168062722
 20
8.9080289636
 10
-89.5186999414
 20
8.9079122865
  0
LWPOLYLINE
  5
561
100
AcDbEntity
  8
RACCORDO
100
AcDbPolyline
 62
250
  6
CONTINUOUS
 90
8
 70
0
 10
-86.1703913886
 20
8.9668985345
 10
-86.7452397592
 20
8.956311805
 10
-87.0106091214
 20
8.9525252979
 10
-87.2614282417
 20
8.9482932382
 10
-87.4919748043
 20
8.9432774963
 10
-87.7005952881
 20
8.939400266
 10
-87.8906910399
 20
8.9366802805
 10
-88.2219560783
 20
8.9300255282
  0
LINE
  5
562
100
AcDbEntity
  8
RACCORDO
100
AcDbLine
 62
250
  6
CONTINUOUS
 10
-84.653633841
 20
8.7113103497
 11
-84.153777241
 21
8.7200353791
  0
LINE
  5
563
100
AcDbEntity
  8
RACCORDO
100
AcDbLine
 62
7
  6
CONTINUOUS
 10
-89.1094350155
 20
9.1334578985
 11
-84.1448506128
 21
9.2201150416
  0
LINE
  5
564
100
AcDbEntity
  8
RACCORDO
100
AcDbLine
 62
250
  6
CONTINUOUS
 10
-88.6153521164
 20
8.9232777017
 11
-89.4133421311
 21
8.9097399048
  0
LINE
  5
565
100
AcDbEntity
  8
RACCORDO
100
AcDbLine
 62
250
  6
CONTINUOUS
 10
-89.4133421311
 20
8.9097399048
 11
-89.4465404886
 21
8.9092329673
  0
LWPOLYLINE
  5
566
100
AcDbEntity
  8
RACCORDO
100
AcDbPolyline
 62
250
  6
CONTINUOUS
 90
3
 70
0
 10
-88.2219560783
 20
8.9300255282
 10
-88.3644657282
 20
8.9280401388
 10
-88.6153521164
 20
8.9232777017
  0
LINE
  5
567
100
AcDbEntity
  8
SMUSSO
100
AcDbLine
 62
7
  6
CONTINUOUS
 10
-62.4676579711
 20
8.5246869934
 11
-37.7327424918
 21
8.7405453306
  0
LINE
  5
568
100
AcDbEntity
  8
ASSI
100
AcDbLine
 62
7
  6
CONTINUOUS
 10
-62.4676579711
 20
8.5246869934
 11
-37.7327424918
 21
8.7405453306
  0
LINE
  5
569
100
AcDbEntity
  8
RACCORDO
100
AcDbLine
 62
250
  6
CONTINUOUS
 10
-87.9261217852
 20
9.6197170728
 11
-87.7805241945
 21
9.6207850499
  0
LWPOLYLINE
  5
56A
100
AcDbEntity
  8
RACCORDO
100
AcDbPolyline
 62
250
  6
CONTINUOUS
 90
6
 70
0
 10
-88.750067836
 20
9.6203007519
 10
-88.5621602947
 20
9.6211468523
 10
-88.4523874725
 20
9.6203007519
 10
-88.3322358934
 20
9.6203315254
 10
-88.2018707754
 20
9.6212267981
 10
-87.9261217852
 20
9.6197170728
  0
LWPOLYLINE
  5
56B
100
AcDbEntity
  8
RACCORDO
100
AcDbPolyline
 62
250
  6
CONTINUOUS
 90
3
 70
0
 10
-88.9377813358
 20
9.6203007519
 10
-88.8246947578
 20
9.6205754999
 10
-88.750067836
 20
9.6203007519
  0
LWPOLYLINE
  5
56C
100
AcDbEntity
  8
RACCORDO
100
AcDbPolyline
 62
250
  6
CONTINUOUS
 90
3
 70
0
 10
-87.0406077741
 20
9.6196779463
 10
-86.7439232723
 20
9.6203007519
 10
-84.9087776129
 20
9.6203718904
  0
LINE
  5
56D
100
AcDbEntity
  8
RACCORDO
100
AcDbLine
 62
7
  6
CONTINUOUS
 10
-88.8577276866
 20
9.3
 11
-84.1462450099
 21
9.3
  0
LINE
  5
56E
100
AcDbEntity
  8
CURVE
100
AcDbLine
 62
250
  6
CONTINUOUS
 10
-70.8183989975
 20
11.16541
 11
-70.0481076893
 21
11.16541
  0
LINE
  5
56F
100
AcDbEntity
  8
CURVE
100
AcDbLine
 62
250
  6
CONTINUOUS
 10
-66.5157999104
 20
11.16541
 11
-65.7455086022
 21
11.16541
  0
LINE
  5
570
100
AcDbEntity
  8
RACCORDO
100
AcDbLine
 62
250
  6
CONTINUOUS
 10
-84.9087776129
 20
9.6203718904
 11
-84.1401837381
 21
9.6203007519
  0
LINE
  5
571
100
AcDbEntity
  8
RACCORDO
100
AcDbLine
 62
250
  6
CONTINUOUS
 10
-89.0013590389
 20
9.6203833245
 11
-88.9377813358
 21
9.6203007519
  0
LINE
  5
572
100
AcDbEntity
  8
RACCORDO
100
AcDbLine
 62
250
  6
CONTINUOUS
 10
-87.3373038823
 20
9.6204152239
 11
-87.0406077741
 21
9.6196779463
  0
LWPOLYLINE
  5
573
100
AcDbEntity
  8
RACCORDO
100
AcDbPolyline
 62
250
  6
CONTINUOUS
 90
3
 70
0
 10
-87.7805241945
 20
9.6207850499
 10
-87.4860312691
 20
9.6195440476
 10
-87.3373038823
 20
9.6204152239
  0
LWPOLYLINE
  5
574
100
AcDbEntity
  8
RACCORDO
100
AcDbPolyline
 62
250
  6
CONTINUOUS
 90
3
 70
0
 10
-89.0174368773
 20
9.6203674184
 10
-89.0150556745
 20
9.6203007519
 10
-89.0013590389
 20
9.6203833245
  0
LWPOLYLINE
  5
575
100
AcDbEntity
  8
SMUSSO
100
AcDbPolyline
 62
7
  6
CONTINUOUS
 90
40
 70
0
 10
-62.4676579711
 20
11.4753130066
 10
-62.550271051
 20
11.4794361909
 10
-62.6313690581
 20
11.4899328633
 10
-62.7109519924
 20
11.5068030239
 10
-62.7895575452
 20
11.5302477861
 10
-62.8666480252
 20
11.5600660366
 10
-62.9406103586
 20
11.5956544346
 10
-63.0113163307
 20
11.6371016499
 10
-63.0788941562
 20
11.6843190128
 10
-63.1421154058
 20
11.7364371729
 10
-63.200924786
 20
11.7935673139
 10
-63.2553775902
 20
11.8555982523
 10
-63.3044112697
 20
11.921327087
 10
-63.3479115978
 20
11.9908156248
 10
-63.385992801
 20
12.0640020591
 10
-63.4179350107
 20
12.1394980686
 10
-63.4436229746
 20
12.2173519321
 10
-63.463171945
 20
12.2975153708
 10
-63.4762078093
 20
12.3784552278
 10
-63.4826047552
 20
12.4601851407
 10
-63.4824885951
 20
12.5426914719
 10
-63.4758626543
 20
12.6244001511
 10
-63.4626042509
 20
12.7052924498
 10
-63.4428360668
 20
12.7853870965
 10
-63.4169294731
 20
12.8631662065
 10
-63.384757808
 20
12.9385981338
 10
-63.3464477333
 20
13.0117145244
 10
-63.3027506057
 20
13.0810924324
 10
-63.2535865746
 20
13.1466353353
 10
-63.1990354906
 20
13.2084397556
 10
-63.1400882624
 20
13.2653723148
 10
-63.0766422686
 20
13.317365917
 10
-63.0088001307
 20
13.364487658
 10
-62.9378606211
 20
13.4058054474
 10
-62.8635943804
 20
13.4412040705
 10
-62.786230768
 20
13.470798742
 10
-62.7077566357
 20
13.4940030147
 10
-62.6288342674
 20
13.5106214063
 10
-62.5488013792
 20
13.5208493992
 10
-62.4676579711
 20
13.5246869934
  0
LWPOLYLINE
  5
576
100
AcDbEntity
  8
ASSI
100
AcDbPolyline
 62
7
  6
CONTINUOUS
 90
40
 70
0
 10
-62.4676579711
 20
11.4753130066
 10
-62.550271051
 20
11.4794361909
 10
-62.6313690581
 20
11.4899328633
 10
-62.7109519924
 20
11.5068030239
 10
-62.7895575452
 20
11.5302477861
 10
-62.8666480252
 20
11.5600660366
 10
-62.9406103586
 20
11.5956544346
 10
-63.0113163307
 20
11.6371016499
 10
-63.0788941562
 20
11.6843190128
 10
-63.1421154058
 20
11.7364371729
 10
-63.200924786
 20
11.7935673139
 10
-63.2553775902
 20
11.8555982523
 10
-63.3044112697
 20
11.921327087
 10
-63.3479115978
 20
11.9908156248
 10
-63.385992801
 20
12.0640020591
 10
-63.4179350107
 20
12.1394980686
 10
-63.4436229746
 20
12.2173519321
 10
-63.463171945
 20
12.2975153708
 10
-63.4762078093
 20
12.3784552278
 10
-63.4826047552
 20
12.4601851407
 10
-63.4824885951
 20
12.5426914719
 10
-63.4758626543
 20
12.6244001511
 10
-63.4626042509
 20
12.7052924498
 10
-63.4428360668
 20
12.7853870965
 10
-63.4169294731
 20
12.8631662065
 10
-63.384757808
 20
12.9385981338
 10
-63.3464477333
 20
13.0117145244
 10
-63.3027506057
 20
13.0810924324
 10
-63.2535865746
 20
13.1466353353
 10
-63.1990354906
 20
13.2084397556
 10
-63.1400882624
 20
13.2653723148
 10
-63.0766422686
 20
13.317365917
 10
-63.0088001307
 20
13.364487658
 10
-62.9378606211
 20
13.4058054474
 10
-62.8635943804
 20
13.4412040705
 10
-62.786230768
 20
13.470798742
 10
-62.7077566357
 20
13.4940030147
 10
-62.6288342674
 20
13.5106214063
 10
-62.5488013792
 20
13.5208493992
 10
-62.4676579711
 20
13.5246869934
  0
LWPOLYLINE
  5
577
100
AcDbEntity
  8
RACCORDO
100
AcDbPolyline
 62
250
  6
CONTINUOUS
 90
3
 70
0
 10
-66.4331071771
 20
20.9984123412
 10
-66.4249068185
 20
20.9916639777
 10
-66.4170600174
 20
20.9843175256
  0
LWPOLYLINE
  5
578
100
AcDbEntity
  8
ASSI
100
AcDbPolyline
 62
250
  6
CONTINUOUS
 90
3
 70
0
 10
-66.4331071771
 20
20.9984123412
 10
-66.4249068185
 20
20.9916639777
 10
-66.4170600174
 20
20.9843175256
  0
LWPOLYLINE
  5
579
100
AcDbEntity
  8
RACCORDO
100
AcDbPolyline
 62
250
  6
CONTINUOUS
 90
13
 70
0
 10
-65.0352420071
 20
19.6024995154
 10
-65.0574578811
 20
19.6215583991
 10
-65.0826653949
 20
19.6373184518
 10
-65.1106769648
 20
19.6496624161
 10
-65.141284151
 20
19.6584984564
 10
-65.174259187
 20
19.6637608353
 10
-65.2093566692
 20
19.6654104112
 10
-65.2463154227
 20
19.6634349335
 10
-65.2848604293
 20
19.6578491251
 10
-65.3247048461
 20
19.64869458
 10
-65.365552178
 20
19.6360394483
 10
-65.4070984872
 20
19.6199779215
 10
-65.4490346314
 20
19.6006295376
  0
LWPOLYLINE
  5
57A
100
AcDbEntity
  8
ASSI
100
AcDbPolyline
 62
250
  6
CONTINUOUS
 90
13
 70
0
 10
-65.0352420071
 20
19.6024995154
 10
-65.0574578811
 20
19.6215583991
 10
-65.0826653949
 20
19.6373184518
 10
-65.1106769648
 20
19.6496624161
 10
-65.141284151
 20
19.6584984564
 10
-65.174259187
 20
19.6637608353
 10
-65.2093566692
 20
19.6654104112
 10
-65.2463154227
 20
19.6634349335
 10
-65.2848604293
 20
19.6578491251
 10
-65.3247048461
 20
19.64869458
 10
-65.365552178
 20
19.6360394483
 10
-65.4070984872
 20
19.6199779215
 10
-65.4490346314
 20
19.6006295376
  0
LWPOLYLINE
  5
57B
100
AcDbEntity
  8
RACCORDO
100
AcDbPolyline
 62
250
  6
CONTINUOUS
 90
16
 70
0
 10
-65.449034632
 20
19.6006295381
 10
-65.3975275278
 20
19.5512200858
 10
-65.3447254695
 20
19.5052812141
 10
-65.2906284572
 20
19.462837183
 10
-65.2352193857
 20
19.4240355005
 10
-65.1785153601
 20
19.3887714692
 10
-65.1205676959
 20
19.3566861257
 10
-65.0615823411
 20
19.3277208301
 10
-65.0013533476
 20
19.3019617086
 10
-64.9393141869
 20
19.2792621813
 10
-64.8747868434
 20
19.2594186511
 10
-64.8084493326
 20
19.2426521114
 10
-64.7417691724
 20
19.2294511711
 10
-64.6752355352
 20
19.2199823894
 10
-64.6083592486
 20
19.2140892242
 10
-64.5411403126
 20
19.2117738234
  0
LWPOLYLINE
  5
57C
100
AcDbEntity
  8
ASSI
100
AcDbPolyline
 62
250
  6
CONTINUOUS
 90
16
 70
0
 10
-65.449034632
 20
19.6006295381
 10
-65.3975275278
 20
19.5512200858
 10
-65.3447254695
 20
19.5052812141
 10
-65.2906284572
 20
19.462837183
 10
-65.2352193857
 20
19.4240355005
 10
-65.1785153601
 20
19.3887714692
 10
-65.1205676959
 20
19.3566861257
 10
-65.0615823411
 20
19.3277208301
 10
-65.0013533476
 20
19.3019617086
 10
-64.9393141869
 20
19.2792621813
 10
-64.8747868434
 20
19.2594186511
 10
-64.8084493326
 20
19.2426521114
 10
-64.7417691724
 20
19.2294511711
 10
-64.6752355352
 20
19.2199823894
 10
-64.6083592486
 20
19.2140892242
 10
-64.5411403126
 20
19.2117738234
  0
LINE
  5
57D
100
AcDbEntity
  8
0
100
AcDbLine
 62
7
  6
CONTINUOUS
 10
-58.5847424918
 20
12.546
 11
-58.6634822889
 21
12.6247397972
  0
LINE
  5
57E
100
AcDbEntity
  8
RACCORDO
100
AcDbLine
 62
7
  6
CONTINUOUS
 10
-67.0888129934
 20
21.6560705017
 11
-65.0352420071
 21
19.6024995154
  0
LINE
  5
57F
100
AcDbEntity
  8
ASSI
100
AcDbLine
 62
7
  6
CONTINUOUS
 10
-67.0888129934
 20
21.6560705017
 11
-65.0352420071
 21
19.6024995154
  0
LINE
  5
580
100
AcDbEntity
  8
SMUSSO
100
AcDbLine
 62
7
  6
CONTINUOUS
 10
-62.4827710495
 20
13.2565449016
 11
-37.7327424918
 21
13.4725351287
  0
LINE
  5
581
100
AcDbEntity
  8
ASSI
100
AcDbLine
 62
7
  6
CONTINUOUS
 10
-62.4827710495
 20
13.2565449016
 11
-37.7327424918
 21
13.4725351287
  0
LINE
  5
582
100
AcDbEntity
  8
SMUSSO
100
AcDbLine
 62
7
  6
CONTINUOUS
 10
-62.4676579711
 20
13.5246869934
 11
-37.7327424918
 21
13.7405453306
  0
LINE
  5
583
100
AcDbEntity
  8
ASSI
100
AcDbLine
 62
7
  6
CONTINUOUS
 10
-62.4676579711
 20
13.5246869934
 11
-37.7327424918
 21
13.7405453306
  0
LINE
  5
584
100
AcDbEntity
  8
0
100
AcDbLine
 62
7
  6
CONTINUOUS
 10
-42.1827424918
 20
12.45
 11
-47.0827424918
 21
12.45
  0
LINE
  5
585
100
AcDbEntity
  8
0
100
AcDbLine
 62
7
  6
CONTINUOUS
 10
-53.5047424918
 20
12.546
 11
-55.0047424918
 21
12.546
  0
LINE
  5
586
100
AcDbEntity
  8
0
100
AcDbLine
 62
7
  6
CONTINUOUS
 10
-58.5847424918
 20
12.546
 11
-60.0847424918
 21
12.546
  0
LINE
  5
587
100
AcDbEntity
  8
0
100
AcDbLine
 62
7
  6
CONTINUOUS
 10
-53.5834822889
 20
12.6247397972
 11
-54.9260026946
 21
12.6247397972
  0
LINE
  5
588
100
AcDbEntity
  8
0
100
AcDbLine
 62
7
  6
CONTINUOUS
 10
-58.6634822889
 20
12.6247397972
 11
-60.0060026946
 21
12.6247397972
  0
LINE
  5
589
100
AcDbEntity
  8
0
100
AcDbLine
 62
7
  6
CONTINUOUS
 10
-54.9916191922
 20
12.946
 11
-55.6047424918
 21
12.946
  0
LINE
  5
58A
100
AcDbEntity
  8
0
100
AcDbLine
 62
7
  6
CONTINUOUS
 10
-60.0716191922
 20
12.946
 11
-60.6847424918
 21
12.946
  0
LINE
  5
58B
100
AcDbEntity
  8
SMUSSO
100
AcDbLine
 62
7
  6
CONTINUOUS
 10
-37.7327424918
 20
11.2594546694
 11
-62.4676579711
 21
11.4753130066
  0
LINE
  5
58C
100
AcDbEntity
  8
ASSI
100
AcDbLine
 62
7
  6
CONTINUOUS
 10
-37.7327424918
 20
11.2594546694
 11
-62.4676579711
 21
11.4753130066
  0
LINE
  5
58D
100
AcDbEntity
  8
SMUSSO
100
AcDbLine
 62
7
  6
CONTINUOUS
 10
-37.7327424918
 20
11.5274648713
 11
-62.4827710495
 21
11.7434550984
  0
LINE
  5
58E
100
AcDbEntity
  8
ASSI
100
AcDbLine
 62
7
  6
CONTINUOUS
 10
-37.7327424918
 20
11.5274648713
 11
-62.4827710495
 21
11.7434550984
  0
LINE
  5
58F
100
AcDbEntity
  8
0
100
AcDbLine
 62
7
  6
CONTINUOUS
 10
-53.5047424918
 20
12.546
 11
-53.5834822889
 21
12.6247397972
  0
LINE
  5
590
100
AcDbEntity
  8
0
100
AcDbLine
 62
7
  6
CONTINUOUS
 10
-42.1827424918
 20
13.433700567
 11
-42.1827424918
 21
12.45
  0
LINE
  5
591
100
AcDbEntity
  8
CURVE
100
AcDbLine
 62
250
  6
CONTINUOUS
 10
-68.6643372955
 20
14.99041
 11
-67.8995703042
 21
14.99041
  0
LINE
  5
592
100
AcDbEntity
  8
CURVE
100
AcDbLine
 62
250
  6
CONTINUOUS
 10
-70.8183989975
 20
15.50041
 11
-70.0481076893
 21
15.50041
  0
LINE
  5
593
100
AcDbEntity
  8
CURVE
100
AcDbLine
 62
250
  6
CONTINUOUS
 10
-66.5157999104
 20
15.50041
 11
-65.7455086022
 21
15.50041
  0
LINE
  5
594
100
AcDbEntity
  8
0
100
AcDbLine
 62
250
  6
CONTINUOUS
 10
-74.7327424918
 20
16.119659166
 11
-37.7327424918
 21
15.8937104774
  0
LINE
  5
595
100
AcDbEntity
  8
ASSI
100
AcDbLine
 62
250
  6
CONTINUOUS
 10
-74.7327424918
 20
16.119659166
 11
-37.7327424918
 21
15.8937104774
  0
LINE
  5
596
100
AcDbEntity
  8
0
100
AcDbLine
 62
7
  6
CONTINUOUS
 10
-39.7327424918
 20
-13.4550813931
 11
-39.7327424918
 21
-11.5449186069
  0
LINE
  5
597
100
AcDbEntity
  8
0
100
AcDbLine
 62
7
  6
CONTINUOUS
 10
-39.7327424918
 20
-8.4550813931
 11
-39.7327424918
 21
-6.5449186069
  0
LINE
  5
598
100
AcDbEntity
  8
0
100
AcDbLine
 62
7
  6
CONTINUOUS
 10
-39.7327424918
 20
-3.4550813931
 11
-39.7327424918
 21
-1.5449186069
  0
LINE
  5
599
100
AcDbEntity
  8
0
100
AcDbLine
 62
7
  6
CONTINUOUS
 10
-39.7327424918
 20
1.5449186069
 11
-39.7327424918
 21
3.4550813931
  0
LINE
  5
59A
100
AcDbEntity
  8
0
100
AcDbLine
 62
7
  6
CONTINUOUS
 10
-39.7327424918
 20
6.5449186069
 11
-39.7327424918
 21
8.4550813931
  0
LINE
  5
59B
100
AcDbEntity
  8
0
100
AcDbLine
 62
7
  6
CONTINUOUS
 10
-39.7327424918
 20
11.5449186069
 11
-39.7327424918
 21
13.4550813931
  0
LINE
  5
59C
100
AcDbEntity
  8
0
100
AcDbLine
 62
7
  6
CONTINUOUS
 10
-39.5987424918
 20
-13.4562507934
 11
-39.5987424918
 21
-11.5437492066
  0
LINE
  5
59D
100
AcDbEntity
  8
0
100
AcDbLine
 62
7
  6
CONTINUOUS
 10
-39.5987424918
 20
-8.4562507934
 11
-39.5987424918
 21
-6.5437492066
  0
LINE
  5
59E
100
AcDbEntity
  8
0
100
AcDbLine
 62
7
  6
CONTINUOUS
 10
-39.5987424918
 20
-3.4562507934
 11
-39.5987424918
 21
-1.5437492066
  0
LINE
  5
59F
100
AcDbEntity
  8
0
100
AcDbLine
 62
7
  6
CONTINUOUS
 10
-39.3547424918
 20
6.5416198509
 11
-39.3547424918
 21
8.422
  0
LINE
  5
5A0
100
AcDbEntity
  8
DRAFT
100
AcDbLine
 62
7
  6
CONTINUOUS
 10
-39.2327424918
 20
13.459444827
 11
-39.2327424918
 21
11.540555173
  0
LINE
  5
5A1
100
AcDbEntity
  8
ASSI
100
AcDbLine
 62
7
  6
CONTINUOUS
 10
-39.2327424918
 20
13.459444827
 11
-39.2327424918
 21
11.540555173
  0
LINE
  5
5A2
100
AcDbEntity
  8
DRAFT
100
AcDbLine
 62
7
  6
CONTINUOUS
 10
-39.2327424918
 20
8.459444827
 11
-39.2327424918
 21
6.540555173
  0
LINE
  5
5A3
100
AcDbEntity
  8
ASSI
100
AcDbLine
 62
7
  6
CONTINUOUS
 10
-39.2327424918
 20
8.459444827
 11
-39.2327424918
 21
6.540555173
  0
LINE
  5
5A4
100
AcDbEntity
  8
DRAFT
100
AcDbLine
 62
7
  6
CONTINUOUS
 10
-39.2327424918
 20
3.459444827
 11
-39.2327424918
 21
1.540555173
  0
LINE
  5
5A5
100
AcDbEntity
  8
ASSI
100
AcDbLine
 62
7
  6
CONTINUOUS
 10
-39.2327424918
 20
3.459444827
 11
-39.2327424918
 21
1.540555173
  0
LINE
  5
5A6
100
AcDbEntity
  8
DRAFT
100
AcDbLine
 62
7
  6
CONTINUOUS
 10
-39.2327424918
 20
-1.540555173
 11
-39.2327424918
 21
-3.459444827
  0
LINE
  5
5A7
100
AcDbEntity
  8
ASSI
100
AcDbLine
 62
7
  6
CONTINUOUS
 10
-39.2327424918
 20
-1.540555173
 11
-39.2327424918
 21
-3.459444827
  0
LINE
  5
5A8
100
AcDbEntity
  8
DRAFT
100
AcDbLine
 62
7
  6
CONTINUOUS
 10
-39.2327424918
 20
-6.540555173
 11
-39.2327424918
 21
-8.459444827
  0
LINE
  5
5A9
100
AcDbEntity
  8
ASSI
100
AcDbLine
 62
7
  6
CONTINUOUS
 10
-39.2327424918
 20
-6.540555173
 11
-39.2327424918
 21
-8.459444827
  0
LINE
  5
5AA
100
AcDbEntity
  8
DRAFT
100
AcDbLine
 62
7
  6
CONTINUOUS
 10
-39.2327424918
 20
-11.540555173
 11
-39.2327424918
 21
-13.459444827
  0
LINE
  5
5AB
100
AcDbEntity
  8
ASSI
100
AcDbLine
 62
7
  6
CONTINUOUS
 10
-39.2327424918
 20
-11.540555173
 11
-39.2327424918
 21
-13.459444827
  0
LINE
  5
5AC
100
AcDbEntity
  8
ASSI
100
AcDbLine
 62
7
  6
CONTINUOUS
 10
-67.0888129934
 20
-21.6560705017
 11
-68.5832470079
 21
-22.2
  0
LINE
  5
5AD
100
AcDbEntity
  8
0
100
AcDbLine
 62
250
  6
CONTINUOUS
 10
-74.7327424918
 20
17.3594295692
 11
-37.7327424918
 21
17.1472402523
  0
LINE
  5
5AE
100
AcDbEntity
  8
ASSI
100
AcDbLine
 62
250
  6
CONTINUOUS
 10
-74.7327424918
 20
17.3594295692
 11
-37.7327424918
 21
17.1472402523
  0
LINE
  5
5AF
100
AcDbEntity
  8
RACCORDO
100
AcDbLine
 62
250
  6
CONTINUOUS
 10
-64.5411403126
 20
19.2117738234
 11
-37.7327424918
 21
18.9798103418
  0
LINE
  5
5B0
100
AcDbEntity
  8
ASSI
100
AcDbLine
 62
250
  6
CONTINUOUS
 10
-64.5411403126
 20
19.2117738234
 11
-37.7327424918
 21
18.9798103418
  0
LINE
  5
5B1
100
AcDbEntity
  8
RACCORDO
100
AcDbLine
 62
7
  6
CONTINUOUS
 10
-64.5463758351
 20
19.397500916
 11
-37.7327424918
 21
19.1635018829
  0
LINE
  5
5B2
100
AcDbEntity
  8
ASSI
100
AcDbLine
 62
7
  6
CONTINUOUS
 10
-64.5463758351
 20
19.397500916
 11
-37.7327424918
 21
19.1635018829
  0
LINE
  5
5B3
100
AcDbEntity
  8
SMUSSO
100
AcDbLine
 62
7
  6
CONTINUOUS
 10
-37.7327424918
 20
19.1635018829
 11
-62.4763837119
 21
19.3794363685
  0
LINE
  5
5B4
100
AcDbEntity
  8
ASSI
100
AcDbLine
 62
7
  6
CONTINUOUS
 10
-67.0888129934
 20
21.6560705017
 11
-68.5832470079
 21
22.2
  0
LINE
  5
5B5
100
AcDbEntity
  8
RACCORDO
100
AcDbLine
 62
7
  6
CONTINUOUS
 10
-37.7327424918
 20
19.1635018829
 11
-37.7327424918
 21
17.1472402485
  0
LINE
  5
5B6
100
AcDbEntity
  8
DRAFT
100
AcDbLine
 62
7
  6
CONTINUOUS
 10
-37.7327424918
 20
13.4725351287
 11
-37.7327424918
 21
11.5274648713
  0
LINE
  5
5B7
100
AcDbEntity
  8
DRAFT
100
AcDbLine
 62
7
  6
CONTINUOUS
 10
-37.7327424918
 20
8.4725351287
 11
-37.7327424918
 21
6.5274648713
  0
LINE
  5
5B8
100
AcDbEntity
  8
DRAFT
100
AcDbLine
 62
7
  6
CONTINUOUS
 10
-37.7327424918
 20
3.4725351287
 11
-37.7327424918
 21
1.5274648713
  0
LINE
  5
5B9
100
AcDbEntity
  8
DRAFT
100
AcDbLine
 62
7
  6
CONTINUOUS
 10
-37.7327424918
 20
-1.5274648713
 11
-37.7327424918
 21
-3.4725351287
  0
LINE
  5
5BA
100
AcDbEntity
  8
DRAFT
100
AcDbLine
 62
7
  6
CONTINUOUS
 10
-37.7327424918
 20
-6.5274648713
 11
-37.7327424918
 21
-8.4725351287
  0
LINE
  5
5BB
100
AcDbEntity
  8
DRAFT
100
AcDbLine
 62
7
  6
CONTINUOUS
 10
-37.7327424918
 20
-11.5274648713
 11
-37.7327424918
 21
-13.4725351287
  0
LINE
  5
5BC
100
AcDbEntity
  8
RACCORDO
100
AcDbLine
 62
7
  6
CONTINUOUS
 10
-37.7327424918
 20
-19.1635018829
 11
-37.7327424918
 21
-17.1472402485
  0
LINE
  5
5BD
100
AcDbEntity
  8
0
100
AcDbLine
 62
7
  6
CONTINUOUS
 10
-37.7327424918
 20
-17.1472402485
 11
-37.7327424918
 21
-15.8937104774
  0
LINE
  5
5BE
100
AcDbEntity
  8
SMUSSO
100
AcDbLine
 62
7
  6
CONTINUOUS
 10
-37.7327424918
 20
-15.8937104774
 11
-37.7327424918
 21
-13.4725351287
  0
LINE
  5
5BF
100
AcDbEntity
  8
SMUSSO
100
AcDbLine
 62
7
  6
CONTINUOUS
 10
-37.7327424918
 20
-11.5274648713
 11
-37.7327424918
 21
-8.4725351287
  0
LINE
  5
5C0
100
AcDbEntity
  8
SMUSSO
100
AcDbLine
 62
7
  6
CONTINUOUS
 10
-37.7327424918
 20
-6.5274648713
 11
-37.7327424918
 21
-3.4725351287
  0
LINE
  5
5C1
100
AcDbEntity
  8
SMUSSO
100
AcDbLine
 62
7
  6
CONTINUOUS
 10
-37.7327424918
 20
-1.5274648713
 11
-37.7327424918
 21
1.5274648713
  0
LINE
  5
5C2
100
AcDbEntity
  8
SMUSSO
100
AcDbLine
 62
7
  6
CONTINUOUS
 10
-37.7327424918
 20
3.4725351287
 11
-37.7327424918
 21
6.5274648713
  0
LINE
  5
5C3
100
AcDbEntity
  8
SMUSSO
100
AcDbLine
 62
7
  6
CONTINUOUS
 10
-37.7327424918
 20
8.4725351287
 11
-37.7327424918
 21
11.5274648713
  0
LINE
  5
5C4
100
AcDbEntity
  8
SMUSSO
100
AcDbLine
 62
7
  6
CONTINUOUS
 10
-37.7327424918
 20
13.4725351287
 11
-37.7327424918
 21
15.8937104774
  0
LINE
  5
5C5
100
AcDbEntity
  8
0
100
AcDbLine
 62
7
  6
CONTINUOUS
 10
-37.7327424918
 20
15.8937104774
 11
-37.7327424918
 21
17.1472402485
  0
LINE
  5
5C6
100
AcDbEntity
  8
ASSI
100
AcDbLine
 62
7
  6
CONTINUOUS
 10
-37.7327424918
 20
-19.1635018829
 11
-37.7327424918
 21
19.1635018829
  0
LINE
  5
5C7
100
AcDbEntity
  8
RACCORDO
100
AcDbLine
 62
7
  6
CONTINUOUS
 10
-70.7327424918
 20
21.2
 11
-66.7618876938
 21
21.1306884717
  0
LINE
  5
5C8
100
AcDbEntity
  8
ASSI
100
AcDbLine
 62
7
  6
CONTINUOUS
 10
-70.7327424918
 20
21.2
 11
-66.7618876938
 21
21.1306884717
  0
LINE
  5
5C9
100
AcDbEntity
  8
RACCORDO
100
AcDbLine
 62
250
  6
CONTINUOUS
 10
-70.7327424918
 20
21.0773406491
 11
-66.8273142814
 21
21.0088657004
  0
LINE
  5
5CA
100
AcDbEntity
  8
ASSI
100
AcDbLine
 62
250
  6
CONTINUOUS
 10
-70.7327424918
 20
21.0773406491
 11
-66.8273142814
 21
21.0088657004
  0
LWPOLYLINE
  5
5CB
100
AcDbEntity
  8
0
100
AcDbPolyline
 62
250
  6
CONTINUOUS
 90
4
 70
0
 10
-83.2999457938
 20
20.9972959167
 10
-83.7801044056
 20
21.0177896584
 10
-83.7881029398
 20
21.0181637387
 10
-83.7907776076
 20
21.0183142302
  0
LWPOLYLINE
  5
5CC
100
AcDbEntity
  8
0
100
AcDbPolyline
 62
250
  6
CONTINUOUS
 90
19
 70
0
 10
-82.8265557368
 20
21.4755923698
 10
-82.8676555689
 20
21.4716950654
 10
-82.9078189926
 20
21.4645922224
 10
-82.947046008
 20
21.4542838406
 10
-82.9856023513
 20
21.4406561355
 10
-83.0232222862
 20
21.4238228918
 10
-83.0591086041
 20
21.4041254635
 10
-83.0932114759
 20
21.3815078446
 10
-83.1255807307
 20
21.3560260412
 10
-83.1555686482
 20
21.3281894262
 10
-83.1831238865
 20
21.2979562723
 10
-83.2082977875
 20
21.2653683069
 10
-83.2305966557
 20
21.2310600855
 10
-83.2499700369
 20
21.1949860366
 10
-83.2664683853
 20
21.1571917318
 10
-83.2797493684
 20
21.1184484404
 10
-83.2896988754
 20
21.0790132523
 10
-83.2964310172
 20
21.0386290778
 10
-83.2999457938
 20
20.9972959167
  0
LINE
  5
5CD
100
AcDbEntity
  8
0
100
AcDbLine
 62
250
  6
CONTINUOUS
 10
-74.7327424918
 20
21.8997711479
 11
-82.8265557368
 21
21.4755923698
  0
LINE
  5
5CE
100
AcDbEntity
  8
0
100
AcDbLine
 62
7
  6
CONTINUOUS
 10
-74.7327424918
 20
22.4
 11
-82.8439975117
 21
21.9749071372
  0
LINE
  5
5CF
100
AcDbEntity
  8
ASSI
100
AcDbLine
 62
7
  6
CONTINUOUS
 10
-68.5832470079
 20
22.2
 11
-69.1327424918
 21
22.2
  0
LINE
  5
5D0
100
AcDbEntity
  8
ASSI
100
AcDbLine
 62
7
  6
CONTINUOUS
 10
-70.7327424918
 20
22.6298666026
 11
-72.0502534298
 21
22.6398612444
  0
LINE
  5
5D1
100
AcDbEntity
  8
ASSI
100
AcDbLine
 62
7
  6
CONTINUOUS
 10
-72.0502534298
 20
22.6398612444
 11
-73.383605249
 21
22.6509792461
  0
LINE
  5
5D2
100
AcDbEntity
  8
ASSI
100
AcDbLine
 62
7
  6
CONTINUOUS
 10
-73.383605249
 20
22.6509792461
 11
-74.7327424918
 21
22.663166622
  0
LINE
  5
5D3
100
AcDbEntity
  8
ASSI
100
AcDbLine
 62
7
  6
CONTINUOUS
 10
-70.7327424918
 20
23.4301797403
 11
-74.7327424918
 21
23.5
  0
LINE
  5
5D4
100
AcDbEntity
  8
ASSI
100
AcDbLine
 62
250
  6
CONTINUOUS
 10
-70.7327424918
 20
23.2631073618
 11
-74.7327424918
 21
23.3333596575
  0
LINE
  5
5D5
100
AcDbEntity
  8
ASSI
100
AcDbLine
 62
7
  6
CONTINUOUS
 10
-72.0502534298
 20
23.1271890473
 11
-74.7327424918
 21
23.1799085618
  0
LINE
  5
5D6
100
AcDbEntity
  8
ASSI
100
AcDbLine
 62
7
  6
CONTINUOUS
 10
-70.7327424918
 20
23.0998904748
 11
-72.0502534298
 21
23.1271890473
  0
LWPOLYLINE
  5
5D7
100
AcDbEntity
  8
0
100
AcDbPolyline
 62
7
  6
CONTINUOUS
 90
6
 70
0
 43
0.3500000006
 10
-58.4827424011
 20
32.2500004578
 10
-57.4113154449
 20
32.2500004578
 10
-57.1970264282
 20
32.4642849426
 10
-57.1970264282
 20
33.5357164307
 10
-57.6255999298
 20
33.9642854004
 10
-58.0541688995
 20
33.9642854004
  0
LWPOLYLINE
  5
5D8
100
AcDbEntity
  8
0
100
AcDbPolyline
 62
7
  6
CONTINUOUS
 90
8
 70
0
 43
0.3500000006
 10
-66.9827404633
 20
42.2499989777
 10
-66.1255979919
 20
42.2499989777
 10
-65.6970290222
 20
42.6785724792
 10
-65.6970290222
 20
43.5357149506
 10
-66.1255979919
 20
43.9642839203
 10
-66.9827404633
 20
43.9642839203
 10
-66.9827404633
 20
45.2499998932
 10
-65.6970290222
 20
45.2499998932
  0
LWPOLYLINE
  5
5D9
100
AcDbEntity
  8
0
100
AcDbPolyline
 62
7
  6
CONTINUOUS
 90
3
 70
0
 43
0.3500000006
 10
-63.3398860931
 20
42.8928569641
 10
-64.8398865509
 20
42.8928569641
 10
-64.1970285645
 20
45.2499998932
  0
ARC
  5
5DA
100
AcDbEntity
  8
0
100
AcDbCircle
 62
7
  6
CONTINUOUS
 10
-5.0
 20
-14.0
 40
1.55
100
AcDbArc
 50
18.819063369
 51
341.180936631
  0
ARC
  5
5DB
100
AcDbEntity
  8
SUPERFICI
100
AcDbCircle
 62
7
  6
CONTINUOUS
 10
-5.0
 20
-14.0
 40
1.55
100
AcDbArc
 50
18.819063369
 51
341.180936631
  0
ARC
  5
5DC
100
AcDbEntity
  8
0
100
AcDbCircle
 62
7
  6
CONTINUOUS
 10
-5.0
 20
-14.0
 40
1.5406480246
100
AcDbArc
 50
341.0623667279
 51
18.9376332721
  0
ARC
  5
5DD
100
AcDbEntity
  8
SUPERFICI
100
AcDbCircle
 62
7
  6
CONTINUOUS
 10
-5.0
 20
-14.0
 40
1.5406480246
100
AcDbArc
 50
341.0623667279
 51
18.9376332721
  0
ARC
  5
5DE
100
AcDbEntity
  8
0
100
AcDbCircle
 62
7
  6
CONTINUOUS
 10
-5.0
 20
-14.0
 40
1.506357448
100
AcDbArc
 50
346.5646185414
 51
13.4353814586
  0
ARC
  5
5DF
100
AcDbEntity
  8
0
100
AcDbCircle
 62
7
  6
CONTINUOUS
 10
-5.0
 20
-14.0
 40
1.506357448
100
AcDbArc
 50
166.5646185414
 51
193.4353814586
  0
ARC
  5
5E0
100
AcDbEntity
  8
SUPERFICI
100
AcDbCircle
 62
7
  6
CONTINUOUS
 10
-5.0
 20
-14.0
 40
1.506357448
100
AcDbArc
 50
166.5646185414
 51
193.4353814586
  0
ARC
  5
5E1
100
AcDbEntity
  8
SUPERFICI
100
AcDbCircle
 62
7
  6
CONTINUOUS
 10
-5.0
 20
-14.0
 40
1.506357448
100
AcDbArc
 50
346.5646185414
 51
13.4353814586
  0
ARC
  5
5E2
100
AcDbEntity
  8
RACCORDO
100
AcDbCircle
 62
7
  6
CONTINUOUS
 10
-5.0
 20
-14.0
 40
1.5009233771
100
AcDbArc
 50
193.4849408006
 51
346.5150591994
  0
ARC
  5
5E3
100
AcDbEntity
  8
RACCORDO
100
AcDbCircle
 62
7
  6
CONTINUOUS
 10
-5.0
 20
-14.0
 40
1.5009233771
100
AcDbArc
 50
13.4849408006
 51
166.5150591994
  0
ARC
  5
5E4
100
AcDbEntity
  8
SUPERFICI
100
AcDbCircle
 62
7
  6
CONTINUOUS
 10
-5.0
 20
-14.0
 40
1.5009233771
100
AcDbArc
 50
13.4849408006
 51
166.5150591994
  0
ARC
  5
5E5
100
AcDbEntity
  8
SUPERFICI
100
AcDbCircle
 62
7
  6
CONTINUOUS
 10
-5.0
 20
-14.0
 40
1.5009233771
100
AcDbArc
 50
193.4849408006
 51
346.5150591994
  0
ARC
  5
5E6
100
AcDbEntity
  8
RACCORDO
100
AcDbCircle
 62
250
  6
CONTINUOUS
 10
-5.0
 20
-14.0
 40
1.3551325667
100
AcDbArc
 50
194.9678685971
 51
345.0321314029
  0
ARC
  5
5E7
100
AcDbEntity
  8
RACCORDO
100
AcDbCircle
 62
250
  6
CONTINUOUS
 10
-5.0
 20
-14.0
 40
1.3551325667
100
AcDbArc
 50
14.9678685971
 51
165.0321314029
  0
ARC
  5
5E8
100
AcDbEntity
  8
SUPERFICI
100
AcDbCircle
 62
250
  6
CONTINUOUS
 10
-5.0
 20
-14.0
 40
1.3551325667
100
AcDbArc
 50
194.9678685971
 51
345.0321314029
  0
ARC
  5
5E9
100
AcDbEntity
  8
SUPERFICI
100
AcDbCircle
 62
250
  6
CONTINUOUS
 10
-5.0
 20
-14.0
 40
1.3551325667
100
AcDbArc
 50
14.9678685971
 51
165.0321314029
  0
ARC
  5
5EA
100
AcDbEntity
  8
ASSI
100
AcDbCircle
 62
7
  6
CONTINUOUS
 10
-4.95
 20
-23.1
 40
0.5
100
AcDbArc
 50
350.803718421
 51
119.112422776
  0
ARC
  5
5EB
100
AcDbEntity
  8
RACCORDO
100
AcDbCircle
 62
7
  6
CONTINUOUS
 10
-8.8
 20
-5.8
 40
0.5
100
AcDbArc
 50
180.0
 51
270.0
  0
ARC
  5
5EC
100
AcDbEntity
  8
ASSI
100
AcDbCircle
 62
7
  6
CONTINUOUS
 10
-11.25
 20
0.0
 40
28.0
100
AcDbArc
 50
55.8789063483
 51
56.4427876864
  0
ARC
  5
5ED
100
AcDbEntity
  8
ASSI
100
AcDbCircle
 62
7
  6
CONTINUOUS
 10
-11.25
 20
0.0
 40
28.0
100
AcDbArc
 50
53.1385839578
 51
54.0372348486
  0
ARC
  5
5EE
100
AcDbEntity
  8
ASSI
100
AcDbCircle
 62
7
  6
CONTINUOUS
 10
-11.25
 20
0.0
 40
28.0
100
AcDbArc
 50
305.9627651514
 51
306.8614160422
  0
ARC
  5
5EF
100
AcDbEntity
  8
ASSI
100
AcDbCircle
 62
7
  6
CONTINUOUS
 10
-11.25
 20
0.0
 40
28.0
100
AcDbArc
 50
303.5572123136
 51
304.1210936517
  0
ARC
  5
5F0
100
AcDbEntity
  8
ASSI
100
AcDbCircle
 62
7
  6
CONTINUOUS
 10
-4.95
 20
23.1
 40
0.5
100
AcDbArc
 50
240.887577224
 51
9.196281579
  0
ARC
  5
5F1
100
AcDbEntity
  8
RACCORDO
100
AcDbCircle
 62
7
  6
CONTINUOUS
 10
-8.8
 20
8.8
 40
0.5
100
AcDbArc
 50
94.9070565994
 51
180.0
  0
ARC
  5
5F2
100
AcDbEntity
  8
0
100
AcDbCircle
 62
7
  6
CONTINUOUS
 10
5.0
 20
-14.0
 40
1.55
100
AcDbArc
 50
18.819063369
 51
341.180936631
  0
ARC
  5
5F3
100
AcDbEntity
  8
SUPERFICI
100
AcDbCircle
 62
7
  6
CONTINUOUS
 10
5.0
 20
-14.0
 40
1.55
100
AcDbArc
 50
18.819063369
 51
341.180936631
  0
ARC
  5
5F4
100
AcDbEntity
  8
0
100
AcDbCircle
 62
7
  6
CONTINUOUS
 10
5.0
 20
-14.0
 40
1.5406480246
100
AcDbArc
 50
341.0623667279
 51
18.9376332721
  0
ARC
  5
5F5
100
AcDbEntity
  8
SUPERFICI
100
AcDbCircle
 62
7
  6
CONTINUOUS
 10
5.0
 20
-14.0
 40
1.5406480246
100
AcDbArc
 50
341.0623667279
 51
18.9376332721
  0
ARC
  5
5F6
100
AcDbEntity
  8
0
100
AcDbCircle
 62
7
  6
CONTINUOUS
 10
5.0
 20
-14.0
 40
1.506357448
100
AcDbArc
 50
346.5646185414
 51
13.4353814586
  0
ARC
  5
5F7
100
AcDbEntity
  8
0
100
AcDbCircle
 62
7
  6
CONTINUOUS
 10
5.0
 20
-14.0
 40
1.506357448
100
AcDbArc
 50
166.5646185414
 51
193.4353814586
  0
ARC
  5
5F8
100
AcDbEntity
  8
SUPERFICI
100
AcDbCircle
 62
7
  6
CONTINUOUS
 10
5.0
 20
-14.0
 40
1.506357448
100
AcDbArc
 50
166.5646185414
 51
193.4353814586
  0
ARC
  5
5F9
100
AcDbEntity
  8
SUPERFICI
100
AcDbCircle
 62
7
  6
CONTINUOUS
 10
5.0
 20
-14.0
 40
1.506357448
100
AcDbArc
 50
346.5646185414
 51
13.4353814586
  0
ARC
  5
5FA
100
AcDbEntity
  8
RACCORDO
100
AcDbCircle
 62
7
  6
CONTINUOUS
 10
5.0
 20
-14.0
 40
1.5009233771
100
AcDbArc
 50
193.4849408006
 51
346.5150591994
  0
ARC
  5
5FB
100
AcDbEntity
  8
RACCORDO
100
AcDbCircle
 62
7
  6
CONTINUOUS
 10
5.0
 20
-14.0
 40
1.5009233771
100
AcDbArc
 50
13.4849408006
 51
166.5150591994
  0
ARC
  5
5FC
100
AcDbEntity
  8
SUPERFICI
100
AcDbCircle
 62
7
  6
CONTINUOUS
 10
5.0
 20
-14.0
 40
1.5009233771
100
AcDbArc
 50
13.4849408006
 51
166.5150591994
  0
ARC
  5
5FD
100
AcDbEntity
  8
SUPERFICI
100
AcDbCircle
 62
7
  6
CONTINUOUS
 10
5.0
 20
-14.0
 40
1.5009233771
100
AcDbArc
 50
193.4849408006
 51
346.5150591994
  0
ARC
  5
5FE
100
AcDbEntity
  8
RACCORDO
100
AcDbCircle
 62
250
  6
CONTINUOUS
 10
5.0
 20
-14.0
 40
1.3551325667
100
AcDbArc
 50
194.9678685971
 51
345.0321314029
  0
ARC
  5
5FF
100
AcDbEntity
  8
RACCORDO
100
AcDbCircle
 62
250
  6
CONTINUOUS
 10
5.0
 20
-14.0
 40
1.3551325667
100
AcDbArc
 50
14.9678685971
 51
165.0321314029
  0
ARC
  5
600
100
AcDbEntity
  8
SUPERFICI
100
AcDbCircle
 62
250
  6
CONTINUOUS
 10
5.0
 20
-14.0
 40
1.3551325667
100
AcDbArc
 50
194.9678685971
 51
345.0321314029
  0
ARC
  5
601
100
AcDbEntity
  8
SUPERFICI
100
AcDbCircle
 62
250
  6
CONTINUOUS
 10
5.0
 20
-14.0
 40
1.3551325667
100
AcDbArc
 50
14.9678685971
 51
165.0321314029
  0
ARC
  5
602
100
AcDbEntity
  8
ASSI
100
AcDbCircle
 62
7
  6
CONTINUOUS
 10
4.95
 20
-23.1
 40
0.5
100
AcDbArc
 50
60.887577224
 51
189.196281579
  0
ARC
  5
603
100
AcDbEntity
  8
RACCORDO
100
AcDbCircle
 62
7
  6
CONTINUOUS
 10
8.8
 20
-5.8
 40
0.5
100
AcDbArc
 50
270.0
 51
360.0
  0
ARC
  5
604
100
AcDbEntity
  8
ASSI
100
AcDbCircle
 62
7
  6
CONTINUOUS
 10
11.25
 20
0.0
 40
28.0
100
AcDbArc
 50
125.9627651514
 51
126.8614160422
  0
ARC
  5
605
100
AcDbEntity
  8
ASSI
100
AcDbCircle
 62
7
  6
CONTINUOUS
 10
11.25
 20
0.0
 40
28.0
100
AcDbArc
 50
123.5572123136
 51
124.1210936517
  0
ARC
  5
606
100
AcDbEntity
  8
ASSI
100
AcDbCircle
 62
7
  6
CONTINUOUS
 10
11.25
 20
0.0
 40
28.0
100
AcDbArc
 50
235.8789063483
 51
236.4427876864
  0
ARC
  5
607
100
AcDbEntity
  8
ASSI
100
AcDbCircle
 62
7
  6
CONTINUOUS
 10
11.25
 20
0.0
 40
28.0
100
AcDbArc
 50
233.1385839578
 51
234.0372348486
  0
ARC
  5
608
100
AcDbEntity
  8
ASSI
100
AcDbCircle
 62
7
  6
CONTINUOUS
 10
4.95
 20
23.1
 40
0.5
100
AcDbArc
 50
170.803718421
 51
299.112422776
  0
ARC
  5
609
100
AcDbEntity
  8
RACCORDO
100
AcDbCircle
 62
7
  6
CONTINUOUS
 10
8.8
 20
8.8
 40
0.5
100
AcDbArc
 50
0.0
 51
86.875960412
  0
ARC
  5
60A
100
AcDbEntity
  8
0
100
AcDbCircle
 62
7
  6
CONTINUOUS
 10
-79.1827424918
 20
-14.0
 40
5.0
100
AcDbArc
 50
167.6047667455
 51
175.9860127819
  0
ARC
  5
60B
100
AcDbEntity
  8
0
100
AcDbCircle
 62
7
  6
CONTINUOUS
 10
-79.1827424918
 20
-14.0
 40
5.0
100
AcDbArc
 50
184.0139872181
 51
195.6589921411
  0
ARC
  5
60C
100
AcDbEntity
  8
SUPERFICI
100
AcDbCircle
 62
7
  6
CONTINUOUS
 10
-79.1827424918
 20
-14.0
 40
5.0
100
AcDbArc
 50
184.0139872181
 51
195.6589921411
  0
ARC
  5
60D
100
AcDbEntity
  8
SUPERFICI
100
AcDbCircle
 62
7
  6
CONTINUOUS
 10
-79.1827424918
 20
-14.0
 40
5.0
100
AcDbArc
 50
167.6047667455
 51
175.9860127819
  0
ARC
  5
60E
100
AcDbEntity
  8
0
100
AcDbCircle
 62
7
  6
CONTINUOUS
 10
-82.7916615554
 20
-20.9762776025
 40
1.0
100
AcDbArc
 50
182.4092313014
 51
267.0
  0
ARC
  5
60F
100
AcDbEntity
  8
SMUSSO
100
AcDbCircle
 62
7
  6
CONTINUOUS
 10
-62.4761687821
 20
-12.5
 40
0.7565737096
100
AcDbArc
 50
90.5
 51
269.5
  0
ARC
  5
610
100
AcDbEntity
  8
SMUSSO
100
AcDbCircle
 62
7
  6
CONTINUOUS
 10
-62.4761687821
 20
-7.5
 40
0.7565737096
100
AcDbArc
 50
90.5
 51
269.5
  0
ARC
  5
611
100
AcDbEntity
  8
SMUSSO
100
AcDbCircle
 62
7
  6
CONTINUOUS
 10
-62.4761687821
 20
-2.5
 40
0.7565737096
100
AcDbArc
 50
90.5
 51
269.5
  0
ARC
  5
612
100
AcDbEntity
  8
ASSI
100
AcDbCircle
 62
7
  6
CONTINUOUS
 10
-62.4761687821
 20
-12.5
 40
0.7565737096
100
AcDbArc
 50
90.5
 51
269.5
  0
ARC
  5
613
100
AcDbEntity
  8
ASSI
100
AcDbCircle
 62
7
  6
CONTINUOUS
 10
-62.4761687821
 20
-7.5
 40
0.7565737096
100
AcDbArc
 50
90.5
 51
269.5
  0
ARC
  5
614
100
AcDbEntity
  8
ASSI
100
AcDbCircle
 62
7
  6
CONTINUOUS
 10
-62.4761687821
 20
-2.5
 40
0.7565737096
100
AcDbArc
 50
90.5
 51
269.5
  0
ARC
  5
615
100
AcDbEntity
  8
RACCORDO
100
AcDbCircle
 62
7
  6
CONTINUOUS
 10
-64.5402672603
 20
-20.0974742622
 40
0.7
100
AcDbArc
 50
90.5
 51
135.0
  0
ARC
  5
616
100
AcDbEntity
  8
ASSI
100
AcDbCircle
 62
7
  6
CONTINUOUS
 10
-64.5402672603
 20
-20.0974742622
 40
0.7
100
AcDbArc
 50
90.5
 51
135.0
  0
ARC
  5
617
100
AcDbEntity
  8
RACCORDO
100
AcDbCircle
 62
7
  6
CONTINUOUS
 10
-89.1007088123
 20
-5.6335340509
 40
0.5
100
AcDbArc
 50
213.2801614554
 51
269.0
  0
ARC
  5
618
100
AcDbEntity
  8
RACCORDO
100
AcDbCircle
 62
7
  6
CONTINUOUS
 10
-66.770613897
 20
-20.6307646241
 40
0.5
100
AcDbArc
 50
271.0
 51
314.9999999999
  0
ARC
  5
619
100
AcDbEntity
  8
ASSI
100
AcDbCircle
 62
7
  6
CONTINUOUS
 10
-66.770613897
 20
-20.6307646241
 40
0.5
100
AcDbArc
 50
271.0
 51
314.9999999999
  0
ARC
  5
61A
100
AcDbEntity
  8
RACCORDO
100
AcDbCircle
 62
7
  6
CONTINUOUS
 10
-88.8577130799
 20
-6.5
 40
0.2
100
AcDbArc
 50
90.0
 51
216.9776725659
  0
ARC
  5
61B
100
AcDbEntity
  8
0
100
AcDbCircle
 62
7
  6
CONTINUOUS
 10
-62.3567424918
 20
-2.959
 40
0.2
100
AcDbArc
 50
0.0004356508
 51
90.0000000005
  0
ARC
  5
61C
100
AcDbEntity
  8
0
100
AcDbCircle
 62
7
  6
CONTINUOUS
 10
-62.3567424918
 20
-7.785
 40
0.2
100
AcDbArc
 50
0.0004359222
 51
90.0000000001
  0
ARC
  5
61D
100
AcDbEntity
  8
COPY-PUBBLISH
100
AcDbCircle
 62
7
  6
CONTINUOUS
 10
-78.2327424918
 20
1.5
 40
13.5
100
AcDbArc
 50
146.7198385446
 51
213.2801614554
  0
ARC
  5
61E
100
AcDbEntity
  8
0
100
AcDbCircle
 62
7
  6
CONTINUOUS
 10
-78.2327424918
 20
1.5
 40
13.5
100
AcDbArc
 50
115.503757199
 51
143.0223274341
  0
ARC
  5
61F
100
AcDbEntity
  8
ASSI
100
AcDbCircle
 62
7
  6
CONTINUOUS
 10
-78.2327424918
 20
1.5
 40
13.5
100
AcDbArc
 50
216.9776725659
 51
244.1482937924
  0
ARC
  5
620
100
AcDbEntity
  8
0
100
AcDbCircle
 62
7
  6
CONTINUOUS
 10
-82.7916615554
 20
20.9762776025
 40
1.0
100
AcDbArc
 50
93.0
 51
177.5907686986
  0
ARC
  5
621
100
AcDbEntity
  8
SMUSSO
100
AcDbCircle
 62
7
  6
CONTINUOUS
 10
-62.4761687821
 20
2.5
 40
0.7565737096
100
AcDbArc
 50
90.5
 51
269.5
  0
ARC
  5
622
100
AcDbEntity
  8
SMUSSO
100
AcDbCircle
 62
7
  6
CONTINUOUS
 10
-62.4761687821
 20
7.5
 40
0.7565737096
100
AcDbArc
 50
90.5
 51
269.5
  0
ARC
  5
623
100
AcDbEntity
  8
SMUSSO
100
AcDbCircle
 62
7
  6
CONTINUOUS
 10
-62.4761687821
 20
12.5
 40
0.7565737096
100
AcDbArc
 50
90.5
 51
269.5
  0
ARC
  5
624
100
AcDbEntity
  8
ASSI
100
AcDbCircle
 62
7
  6
CONTINUOUS
 10
-62.4761687821
 20
2.5
 40
0.7565737096
100
AcDbArc
 50
90.5
 51
269.5
  0
ARC
  5
625
100
AcDbEntity
  8
ASSI
100
AcDbCircle
 62
7
  6
CONTINUOUS
 10
-62.4761687821
 20
7.5
 40
0.7565737096
100
AcDbArc
 50
90.5
 51
269.5
  0
ARC
  5
626
100
AcDbEntity
  8
ASSI
100
AcDbCircle
 62
7
  6
CONTINUOUS
 10
-62.4761687821
 20
12.5
 40
0.7565737096
100
AcDbArc
 50
90.5
 51
269.5
  0
ARC
  5
627
100
AcDbEntity
  8
RACCORDO
100
AcDbCircle
 62
7
  6
CONTINUOUS
 10
-64.5402672603
 20
20.0974742622
 40
0.7
100
AcDbArc
 50
225.0
 51
269.5
  0
ARC
  5
628
100
AcDbEntity
  8
ASSI
100
AcDbCircle
 62
7
  6
CONTINUOUS
 10
-64.5402672603
 20
20.0974742622
 40
0.7
100
AcDbArc
 50
225.0
 51
269.5
  0
ARC
  5
629
100
AcDbEntity
  8
RACCORDO
100
AcDbCircle
 62
7
  6
CONTINUOUS
 10
-89.1007088123
 20
8.6335340509
 40
0.5
100
AcDbArc
 50
91.0
 51
146.7198385446
  0
ARC
  5
62A
100
AcDbEntity
  8
RACCORDO
100
AcDbCircle
 62
7
  6
CONTINUOUS
 10
-66.770613897
 20
20.6307646241
 40
0.5
100
AcDbArc
 50
45.0
 51
89.0
  0
ARC
  5
62B
100
AcDbEntity
  8
ASSI
100
AcDbCircle
 62
7
  6
CONTINUOUS
 10
-66.770613897
 20
20.6307646241
 40
0.5
100
AcDbArc
 50
45.0
 51
89.0
  0
ARC
  5
62C
100
AcDbEntity
  8
0
100
AcDbCircle
 62
7
  6
CONTINUOUS
 10
-45.8727424918
 20
11.302
 40
0.25
100
AcDbArc
 50
0.0000000006
 51
179.9999999994
  0
ARC
  5
62D
100
AcDbEntity
  8
0
100
AcDbCircle
 62
7
  6
CONTINUOUS
 10
-43.3727424918
 20
11.302
 40
0.25
100
AcDbArc
 50
0.0000000006
 51
179.9999999994
  0
ARC
  5
62E
100
AcDbEntity
  8
RACCORDO
100
AcDbCircle
 62
7
  6
CONTINUOUS
 10
-88.8577130799
 20
9.5
 40
0.2
100
AcDbArc
 50
143.0223274341
 51
270.0
  0
ARC
  5
62F
100
AcDbEntity
  8
RACCORDO
100
AcDbCircle
 62
7
  6
CONTINUOUS
 10
415.7672575082
 20
0.0
 40
500.0
100
AcDbArc
 50
179.7330064782
 51
180.2575386269
  0
ARC
  5
630
100
AcDbEntity
  8
RACCORDO
100
AcDbCircle
 62
7
  6
CONTINUOUS
 10
415.7672575082
 20
0.0
 40
500.0
100
AcDbArc
 50
178.9342370431
 51
179.7308978436
  0
ARC
  5
631
100
AcDbEntity
  8
RACCORDO
100
AcDbCircle
 62
7
  6
CONTINUOUS
 10
415.7672575082
 20
0.0
 40
500.0
100
AcDbArc
 50
180.6649119254
 51
180.7403919336
  0
ARC
  5
632
100
AcDbEntity
  8
RACCORDO
100
AcDbCircle
 62
7
  6
CONTINUOUS
 10
415.7672575082
 20
0.0
 40
500.0
100
AcDbArc
 50
181.2831526978
 51
181.9258303552
  0
ARC
  5
633
100
AcDbEntity
  8
0
100
AcDbCircle
 62
7
  6
CONTINUOUS
 10
415.7672575082
 20
0.0
 40
500.0
100
AcDbArc
 50
177.5907686986
 51
182.4092313014
  0
ELLIPSE
  5
634
100
AcDbEntity
  8
COPY-PUBBLISH
100
AcDbEllipse
 62
7
  6
CONTINUOUS
 10
7.2869720439
 20
-6.2587275325
 30
0.0
 11
0.5
 21
0.0
 31
0.0
 40
0.0174550649
 41
0.0174532925
 42
1.5707963268
  0
ELLIPSE
  5
635
100
AcDbEntity
  8
COPY-PUBBLISH
100
AcDbEllipse
 62
7
  6
CONTINUOUS
 10
6.2130279561
 20
-6.2587275325
 30
0.0
 11
0.5
 21
0.0
 31
0.0
 40
0.0174550649
 41
1.5707963268
 42
3.1241393611
  0
ELLIPSE
  5
636
100
AcDbEntity
  8
COPY-PUBBLISH
100
AcDbEllipse
 62
7
  6
CONTINUOUS
 10
-6.2130279561
 20
-6.2587275325
 30
0.0
 11
0.5
 21
-0.0
 31
0.0
 40
0.0174550649
 41
0.0174532925
 42
1.5707963268
  0
ELLIPSE
  5
637
100
AcDbEntity
  8
COPY-PUBBLISH
100
AcDbEllipse
 62
7
  6
CONTINUOUS
 10
-7.2869720439
 20
-6.2587275325
 30
0.0
 11
0.5
 21
0.0
 31
0.0
 40
0.0174550649
 41
1.5707963268
 42
3.1241393611
  0
ELLIPSE
  5
638
100
AcDbEntity
  8
COPY-PUBBLISH
100
AcDbEllipse
 62
7
  6
CONTINUOUS
 10
-6.2130279561
 20
9.2587275325
 30
0.0
 11
0.5
 21
-0.0
 31
0.0
 40
0.0174550649
 41
-1.5707963268
 42
-0.0174532925
  0
ELLIPSE
  5
639
100
AcDbEntity
  8
COPY-PUBBLISH
100
AcDbEllipse
 62
7
  6
CONTINUOUS
 10
-7.2869720439
 20
9.2587275325
 30
0.0
 11
0.5
 21
0.0
 31
0.0
 40
0.0174550649
 41
-3.1241393611
 42
-1.5707963268
  0
ELLIPSE
  5
63A
100
AcDbEntity
  8
COPY-PUBBLISH
100
AcDbEllipse
 62
7
  6
CONTINUOUS
 10
7.2869720439
 20
9.2587275325
 30
0.0
 11
0.5
 21
0.0
 31
0.0
 40
0.0174550649
 41
-1.5707963268
 42
-0.0174532925
  0
ELLIPSE
  5
63B
100
AcDbEntity
  8
COPY-PUBBLISH
100
AcDbEllipse
 62
7
  6
CONTINUOUS
 10
6.2130279561
 20
9.2587275325
 30
0.0
 11
0.5
 21
-0.0
 31
0.0
 40
0.0174550649
 41
-3.1241393611
 42
-1.5707963268
  0
ELLIPSE
  5
63C
100
AcDbEntity
  8
0
100
AcDbEllipse
 62
7
  6
CONTINUOUS
 10
-10.649923836
 20
21.899313827
 30
0.0
 11
-0.1582391023
 21
0.4751033573
 31
0.0
 40
0.9984778551
 41
-0.3210503505
 42
1.2488325878
  0
ELLIPSE
  5
63D
100
AcDbEntity
  8
0
100
AcDbEllipse
 62
7
  6
CONTINUOUS
 10
-10.649923836
 20
-21.899313827
 30
0.0
 11
0.1582391023
 21
0.4751033573
 31
0.0
 40
0.9984778551
 41
-4.3904252414
 42
-2.8205423031
  0
ELLIPSE
  5
63E
100
AcDbEntity
  8
0
100
AcDbEllipse
 62
7
  6
CONTINUOUS
 10
10.649923836
 20
21.899313827
 30
0.0
 11
0.1582391023
 21
0.4751033573
 31
0.0
 40
0.9984778551
 41
-1.2488325878
 42
0.3210503505
  0
ELLIPSE
  5
63F
100
AcDbEntity
  8
0
100
AcDbEllipse
 62
7
  6
CONTINUOUS
 10
10.649923836
 20
-21.899313827
 30
0.0
 11
-0.1582391023
 21
0.4751033573
 31
0.0
 40
0.9984778551
 41
-3.4626430041
 42
-1.8927600658
  0
ELLIPSE
  5
640
100
AcDbEntity
  8
CURVE
100
AcDbEllipse
 62
250
  6
CONTINUOUS
 10
-68.7327364918
 20
0.499994
 30
0.0
 11
0.499999
 21
-0.0
 31
0.0
 40
1.0
 41
0.0
 42
6.2831853072
  0
ELLIPSE
  5
641
100
AcDbEntity
  8
CURVE
100
AcDbEllipse
 62
250
  6
CONTINUOUS
 10
-68.2819537999
 20
15.24541
 30
0.0
 11
-0.0
 21
1.7850001745
 31
0.0
 40
0.9996954135
 41
1.427448772
 42
2.9256321216
  0
ELLIPSE
  5
642
100
AcDbEntity
  8
CURVE
100
AcDbEllipse
 62
250
  6
CONTINUOUS
 10
-68.2819537999
 20
15.24541
 30
0.0
 11
-0.0
 21
1.7849997292
 31
0.0
 40
0.9996954135
 41
-2.9256321216
 42
-1.427448772
  0
ELLIPSE
  5
643
100
AcDbEntity
  8
CURVE
100
AcDbEllipse
 62
250
  6
CONTINUOUS
 10
-68.2819537999
 20
15.24541
 30
0.0
 11
0.0
 21
2.5500000352
 31
0.0
 40
0.9996954135
 41
1.470628907
 42
4.8125564002
  0
ELLIPSE
  5
644
100
AcDbEntity
  8
CURVE
100
AcDbEllipse
 62
250
  6
CONTINUOUS
 10
-68.2819537999
 20
10.91041
 30
0.0
 11
-0.0
 21
2.5500000352
 31
0.0
 40
0.9996954135
 41
1.470628907
 42
4.8125564002
  0
ELLIPSE
  5
645
100
AcDbEntity
  8
CURVE
100
AcDbEllipse
 62
250
  6
CONTINUOUS
 10
-68.2819537999
 20
10.91041
 30
0.0
 11
0.0
 21
1.7850001745
 31
0.0
 40
0.9996954135
 41
1.427448772
 42
4.8557365352
  0
ELLIPSE
  5
646
100
AcDbEntity
  8
CURVE
100
AcDbEllipse
 62
250
  6
CONTINUOUS
 10
-70.9827424918
 20
-13.6
 30
0.0
 11
-0.0
 21
1.0
 31
0.0
 40
1.0
 41
-4.3008721343
 42
1.1592794807
  0
ENDSEC
  0
SECTION
  2
OBJECTS
  0
DICTIONARY
  5
C
100
AcDbDictionary
280
0
281
1
  3
ACAD_GROUP
350
D
  3
ACAD_MLINESTYLE
350
17
  3
ACAD_LAYOUT
350
1A
  3
ACAD_PLOTSETTINGS
350
19
  3
ACAD_PLOTSTYLENAME
350
E
  0
DICTIONARY
  5
D
102
{ACAD_REACTORS
330
C
102
}
100
AcDbDictionary
280
0
281
1
  0
ACDBDICTIONARYWDFLT
  5
E
102
{ACAD_REACTORS
330
C
102
}
100
AcDbDictionary
281
1
  3
Normal
350
F
100
AcDbDictionaryWithDefault
340
F
  0
DICTIONARY
  5
17
102
{ACAD_REACTORS
330
C
102
}
100
AcDbDictionary
280
0
281
1
  3
Standard
350
18
  0
DICTIONARY
  5
19
102
{ACAD_REACTORS
330
C
102
}
100
AcDbDictionary
281
1
  0
DICTIONARY
  5
1A
102
{ACAD_REACTORS
330
C
102
}
100
AcDbDictionary
281
1
  3
Model
350
647
  3
Layout1
350
648
  0
ACDBPLACEHOLDER
  5
F
102
{ACAD_REACTORS
330
E
102
}
  0
MLINESTYLE
  5
18
102
{ACAD_REACTORS
330
17
102
}
100
AcDbMlineStyle
  2
STANDARD
 70
0
  3

 62
256
 51
90.0
 52
90.0
 71
2
 49
0.5
 62
256
  6
BYLAYER
 49
-0.5
 62
256
  6
BYLAYER
  0
LAYOUT
  5
647
102
{ACAD_REACTORS
330
1A
102
}
100
AcDbPlotSettings
  1

  2
none_device
  4
ISO_A4_(297.00_x_210.00_MM)
  6

 40
0.0
 41
0.0
 42
0.0
 43
0.0
 44
297.0
 45
210.0
 46
0.0
 47
0.0
 48
0.0
 49
0.0
140
0.0
141
0.0
142
1.0
143
1.0
 70
1024
 72
1
 73
0
 74
0
  7

 75
0
147
1.0
148
0.0
149
0.0
100
AcDbLayout
  1
Model
 70
0
 71
0
 10
0.0
 20
0.0
 11
297.0
 21
210.0
 12
0.0
 22
0.0
 32
0.0
 14
0.0
 24
0.0
 34
0.0
 15
0.0
 25
0.0
 35
0.0
146
0.0
 13
0.0
 23
0.0
 33
0.0
 16
1.0
 26
0.0
 36
0.0
 17
0.0
 27
1.0
 37
0.0
 76
0
330
221
345
0
346
0
  0
LAYOUT
  5
648
102
{ACAD_REACTORS
330
1A
102
}
100
AcDbPlotSettings
  1

  2
none_device
  4
ISO_A4_(297.00_x_210.00_MM)
  6

 40
0.0
 41
0.0
 42
0.0
 43
0.0
 44
297.0
 45
210.0
 46
0.0
 47
0.0
 48
0.0
 49
0.0
140
0.0
141
0.0
142
1.0
143
1.0
 70
0
 72
1
 73
0
 74
0
  7

 75
0
147
1.0
148
0.0
149
0.0
100
AcDbLayout
  1
Layout1
 70
0
 71
1
 10
0.0
 20
0.0
 11
297.0
 21
210.0
 12
0.0
 22
0.0
 32
0.0
 14
0.0
 24
0.0
 34
0.0
 15
0.0
 25
0.0
 35
0.0
146
0.0
 13
0.0
 23
0.0
 33
0.0
 16
1.0
 26
0.0
 36
0.0
 17
0.0
 27
1.0
 37
0.0
 76
0
330
222
345
0
346
0
  0
ENDSEC
  0
EOF
