0
SECTION
2
HEADER
9
$ACADVER
1
AC1015
9
$DWGCODEPAGE
3
ANSI_1252
9
$EXTMAX
10
431.8000000000
20
558.8000000000
30
0.0000000000
9
$EXTMIN
10
0.0000000000
20
0.0000000000
30
0.0000000000
9
$LIMMIN
10
0.0000000000
20
0.0000000000
9
$LIMMAX
10
431.8000000000
20
558.8000000000
9
$VIEWCTR
10
215.9000000000
20
279.4000000000
9
$VIEWSIZE
40
558.8000000000
9
$CLAYER
8
0
9
$LTSCALE
40
36.4254814815
9
$CELTYPE
6
BYLAYER
9
$DIMSCALE
40
1
9
$DIMASZ
40
3.0000000000
9
$DIMEXO
40
4.1392592593
9
$DIMDLI
40
25.1666962963
9
$DIMEXE
40
11.9210666667
9
$DIMCEN
40
5.9605333333
9
$DIMLFAC
40
1.0000000000
9
$DIMBLK
1
_FILLED
9
$DIMTXT
40
3.0000000000
9
$DIMTOL
70
1
9
$DIMLIM
70
0
9
$DIMTFAC
40
1.0000000000
9
$DIMTP
40
0.0100000000
9
$DIMTM
40
0.0100000000
9
$PDMODE
70
3
9
$PDSIZE
40
3.0000000000
9
$HANDSEED
5
3D9
9
$MEASUREMENT
70
1
9
$INSUNITS
70
4
0
ENDSEC
0
SECTION
2
CLASSES
0
CLASS
1
ACDBDICTIONARYWDFLT
2
AcDbDictionaryWithDefault
3
AutoCAD 2000
90
0
280
0
281
0
0
CLASS
1
ACDBPLACEHOLDER
2
AcDbPlaceHolder
3
AutoCAD 2000
90
0
280
0
281
0
0
CLASS
1
LAYOUT
2
AcDbLayout
3
AutoCAD 2000
90
0
280
0
281
0
0
ENDSEC
0
SECTION
2
TABLES
0
TABLE
2
VPORT
5
8
100
AcDbSymbolTable
70
2
0
VPORT
5
1F4
100
AcDbSymbolTableRecord
100
AcDbViewportTableRecord
2
*ACTIVE
70
0
10
0.0
20
0.0
11
1.0
21
1.0
12
215.9000000000
22
279.4000000000
13
0.0
23
0.0
14
1.0
24
1.0
15
0.0
25
0.0
16
0.0
26
0.0
36
1.0
17
0.0
27
0.0
37
0.0
40
558.8000000000
41
0.7727272727
42
50.0
43
0.0
44
0.0
50
0.0
51
0.0
71
0
72
100
73
1
74
1
75
0
76
0
77
0
78
0
0
ENDTAB
0
TABLE
2
LTYPE
5
5
100
AcDbSymbolTable
70
6
0
LTYPE
5
14
100
AcDbSymbolTableRecord
100
AcDbLinetypeTableRecord
2
BYBLOCK
70
0
3

72
65
73
0
40
0.0
0
LTYPE
5
15
100
AcDbSymbolTableRecord
100
AcDbLinetypeTableRecord
2
BYLAYER
70
0
3

72
65
73
0
40
0.0
0
LTYPE
5
16
100
AcDbSymbolTableRecord
100
AcDbLinetypeTableRecord
2
CONTINUOUS
70
64
3
Solid line
72
65
73
0
40
0
0
LTYPE
5
1F5
100
AcDbSymbolTableRecord
100
AcDbLinetypeTableRecord
2
CENTER
70
64
3
____ _ ____ _ ____ _ ____ _ ____ _ ____ _ ____
72
65
73
4
40
0.6
49
0.375
74
0
49
-0.075
74
0
49
0.075
74
0
49
-0.075
74
0
0
LTYPE
5
1F6
100
AcDbSymbolTableRecord
100
AcDbLinetypeTableRecord
2
HIDDEN
70
64
3
- - - - - - - - - - - - - - - - - - - -
72
65
73
2
40
0.2
49
0.1
74
0
49
-0.1
74
0
0
LTYPE
5
1F7
100
AcDbSymbolTableRecord
100
AcDbLinetypeTableRecord
2
PHANTOM
70
64
3
_____ _ _ _____ _ _ _____ _ _ _____
72
65
73
6
40
0.8
49
0.45
74
0
49
-0.05
74
0
49
0.1
74
0
49
-0.05
74
0
49
0.1
74
0
49
-0.05
74
0
0
LTYPE
5
1F8
100
AcDbSymbolTableRecord
100
AcDbLinetypeTableRecord
2
DOT
70
64
3
. . . . . . . . . . . . . . . . . . . .
72
65
73
2
40
0.2
49
0.1
74
0
49
-0.1
74
0
0
LTYPE
5
1F9
100
AcDbSymbolTableRecord
100
AcDbLinetypeTableRecord
2
DASHED
70
64
3
- - - - - - - - - - - - - - - - - - - -
72
65
73
2
40
0.2
49
0.1
74
0
49
-0.1
74
0
0
ENDTAB
0
TABLE
2
LAYER
5
2
100
AcDbSymbolTable
70
36
0
LAYER
5
10
100
AcDbSymbolTableRecord
100
AcDbLayerTableRecord
2
0
70
0
62
7
6
CONTINUOUS
370
-3
390
F
0
LAYER
5
1FA
100
AcDbSymbolTableRecord
100
AcDbLayerTableRecord
2
DEFAULT_1
70
0
62
7
6
CENTER
370
-3
390
F
0
LAYER
5
1FB
100
AcDbSymbolTableRecord
100
AcDbLayerTableRecord
2
DEFAULT_2
70
0
62
8
6
HIDDEN
370
-3
390
F
0
LAYER
5
1FC
100
AcDbSymbolTableRecord
100
AcDbLayerTableRecord
2
DEFAULT_3
70
0
62
7
6
PHANTOM
370
-3
390
F
0
LAYER
5
1FD
100
AcDbSymbolTableRecord
100
AcDbLayerTableRecord
2
_2D_DELETED_OBJS
70
0
62
7
6
CONTINUOUS
370
-3
390
F
0
LAYER
5
1FE
100
AcDbSymbolTableRecord
100
AcDbLayerTableRecord
2
_BLACK_HOLE
70
0
62
7
6
CONTINUOUS
370
-3
390
F
0
LAYER
5
1FF
100
AcDbSymbolTableRecord
100
AcDbLayerTableRecord
2
ASSI
70
0
62
7
6
CONTINUOUS
370
-3
390
F
0
LAYER
5
200
100
AcDbSymbolTableRecord
100
AcDbLayerTableRecord
2
COORDINATE
70
0
62
7
6
CONTINUOUS
370
-3
390
F
0
LAYER
5
201
100
AcDbSymbolTableRecord
100
AcDbLayerTableRecord
2
COORD_ORIGINE
70
0
62
7
6
CONTINUOUS
370
-3
390
F
0
LAYER
5
202
100
AcDbSymbolTableRecord
100
AcDbLayerTableRecord
2
COSMETICHE
70
0
62
7
6
CONTINUOUS
370
-3
390
F
0
LAYER
5
203
100
AcDbSymbolTableRecord
100
AcDbLayerTableRecord
2
CURVE
70
0
62
7
6
CONTINUOUS
370
-3
390
F
0
LAYER
5
204
100
AcDbSymbolTableRecord
100
AcDbLayerTableRecord
2
DRAFT
70
0
62
7
6
CONTINUOUS
370
-3
390
F
0
LAYER
5
205
100
AcDbSymbolTableRecord
100
AcDbLayerTableRecord
2
IMPORT
70
0
62
7
6
CONTINUOUS
370
-3
390
F
0
LAYER
5
206
100
AcDbSymbolTableRecord
100
AcDbLayerTableRecord
2
IMPORT_FEATURES
70
0
62
7
6
CONTINUOUS
370
-3
390
F
0
LAYER
5
207
100
AcDbSymbolTableRecord
100
AcDbLayerTableRecord
2
INCISIONI
70
0
62
7
6
CONTINUOUS
370
-3
390
F
0
LAYER
5
208
100
AcDbSymbolTableRecord
100
AcDbLayerTableRecord
2
INTF_1
70
0
62
7
6
CONTINUOUS
370
-3
390
F
0
LAYER
5
209
100
AcDbSymbolTableRecord
100
AcDbLayerTableRecord
2
INTF_2
70
0
62
7
6
CONTINUOUS
370
-3
390
F
0
LAYER
5
20A
100
AcDbSymbolTableRecord
100
AcDbLayerTableRecord
2
INTF_YELLOW
70
0
62
7
6
CONTINUOUS
370
-3
390
F
0
LAYER
5
20B
100
AcDbSymbolTableRecord
100
AcDbLayerTableRecord
2
NOTE
70
0
62
7
6
CONTINUOUS
370
-3
390
F
0
LAYER
5
20C
100
AcDbSymbolTableRecord
100
AcDbLayerTableRecord
2
PIANI
70
0
62
7
6
CONTINUOUS
370
-3
390
F
0
LAYER
5
20D
100
AcDbSymbolTableRecord
100
AcDbLayerTableRecord
2
PIANI_ORIGINE
70
0
62
7
6
CONTINUOUS
370
-3
390
F
0
LAYER
5
20E
100
AcDbSymbolTableRecord
100
AcDbLayerTableRecord
2
PIANI_QUOTA
70
0
62
7
6
CONTINUOUS
370
-3
390
F
0
LAYER
5
20F
100
AcDbSymbolTableRecord
100
AcDbLayerTableRecord
2
PUNTI
70
0
62
7
6
CONTINUOUS
370
-3
390
F
0
LAYER
5
210
100
AcDbSymbolTableRecord
100
AcDbLayerTableRecord
2
RACCORDO
70
0
62
7
6
CONTINUOUS
370
-3
390
F
0
LAYER
5
211
100
AcDbSymbolTableRecord
100
AcDbLayerTableRecord
2
RGB__255__255__255__
70
0
62
7
6
CONTINUOUS
370
-3
390
F
0
LAYER
5
212
100
AcDbSymbolTableRecord
100
AcDbLayerTableRecord
2
RGB____0____0____0__
70
0
62
7
6
CONTINUOUS
370
-3
390
F
0
LAYER
5
213
100
AcDbSymbolTableRecord
100
AcDbLayerTableRecord
2
SMUSSO
70
0
62
7
6
CONTINUOUS
370
-3
390
F
0
LAYER
5
214
100
AcDbSymbolTableRecord
100
AcDbLayerTableRecord
2
SNAPLINE
70
0
62
7
6
CONTINUOUS
370
-3
390
F
0
LAYER
5
215
100
AcDbSymbolTableRecord
100
AcDbLayerTableRecord
2
SUPERFICI
70
0
62
7
6
CONTINUOUS
370
-3
390
F
0
LAYER
5
216
100
AcDbSymbolTableRecord
100
AcDbLayerTableRecord
2
TRASH
70
0
62
7
6
CONTINUOUS
370
-3
390
F
0
LAYER
5
217
100
AcDbSymbolTableRecord
100
AcDbLayerTableRecord
2
XSEC_DATUMS
70
0
62
7
6
CONTINUOUS
370
-3
390
F
0
ENDTAB
0
TABLE
2
STYLE
5
3
100
AcDbSymbolTable
70
1
0
STYLE
5
11
100
AcDbSymbolTableRecord
100
AcDbTextStyleTableRecord
2
STANDARD
70
0
40
0.0
41
0.8000000000
50
0.0
71
0
42
0.2
3
txt
4

0
ENDTAB
0
TABLE
2
VIEW
5
6
100
AcDbSymbolTable
70
0
0
ENDTAB
0
TABLE
2
UCS
5
7
100
AcDbSymbolTable
70
0
0
ENDTAB
0
TABLE
2
APPID
5
9
100
AcDbSymbolTable
70
1
0
APPID
5
218
100
AcDbSymbolTableRecord
100
AcDbRegAppTableRecord
2
ACAD
70
0
0
ENDTAB
0
TABLE
2
BLOCK_RECORD
5
1
100
AcDbSymbolTable
70
0
0
BLOCK_RECORD
5
1F
100
AcDbSymbolTableRecord
100
AcDbBlockTableRecord
2
*MODEL_SPACE
0
BLOCK_RECORD
5
1B
100
AcDbSymbolTableRecord
100
AcDbBlockTableRecord
2
*PAPER_SPACE
0
BLOCK_RECORD
5
219
100
AcDbSymbolTableRecord
100
AcDbBlockTableRecord
2
_FILLED
0
BLOCK_RECORD
5
21A
100
AcDbSymbolTableRecord
100
AcDbBlockTableRecord
2
*D0
0
BLOCK_RECORD
5
21B
100
AcDbSymbolTableRecord
100
AcDbBlockTableRecord
2
*D1
0
BLOCK_RECORD
5
21C
100
AcDbSymbolTableRecord
100
AcDbBlockTableRecord
2
*D2
0
BLOCK_RECORD
5
21D
100
AcDbSymbolTableRecord
100
AcDbBlockTableRecord
2
*D3
0
ENDTAB
0
TABLE
2
DIMSTYLE
5
A
100
AcDbSymbolTable
70
1
100
AcDbDimStyleTable
71
0
0
DIMSTYLE
105
21E
100
AcDbSymbolTableRecord
100
AcDbDimStyleTableRecord
2
STANDARD
70
0
3

4

40
1.0
41
3.0000000000
42
0.0625
43
0.38
44
0.18
45
0.0
46
0.0
47
0.0100000000
48
0.0100000000
140
3.0000000000
141
0.09
142
0.0
143
25.4
144
1.0000000000
145
0.0
146
1.0000000000
147
0.09
71
1
72
0
73
0
74
0
75
0
76
0
77
1
78
8
170
0
171
2
172
0
173
0
174
0
175
0
176
0
177
0
178
0
270
2
271
2
272
2
273
2
274
2
275
0
280
0
281
0
282
0
283
1
284
8
285
0
286
0
287
3
288
0
340
11
341
219
342
219
343
219
344
219
0
DIMSTYLE
105
21F
100
AcDbSymbolTableRecord
100
AcDbDimStyleTableRecord
2
DIMSTYLE_1
70
0
3

4

40
1.0
41
3.0000000000
42
0.0625
43
0.38
44
0.18
45
0.0
46
0.0
47
0.0000000000
48
0.0000000000
140
3.0000000000
141
0.09
142
0.0
143
25.4
144
1.0000000000
145
0.0
146
1.0000000000
147
0.09
71
0
72
0
73
0
74
0
75
0
76
0
77
1
78
8
170
0
171
2
172
0
173
0
174
0
175
0
176
0
177
0
178
0
270
2
271
2
272
2
273
2
274
2
275
0
280
0
281
0
282
0
283
1
284
8
285
0
286
0
287
3
288
0
340
11
341
219
342
219
343
219
344
219
0
ENDTAB
0
ENDSEC
0
SECTION
2
BLOCKS
0
BLOCK
5
20
100
AcDbEntity
8
0
100
AcDbBlockBegin
2
*MODEL_SPACE
70
0
10
0.0
20
0.0
30
0.0
3
*MODEL_SPACE
1

0
ENDBLK
5
21
100
AcDbEntity
8
0
100
AcDbBlockEnd
0
BLOCK
5
1C
100
AcDbEntity
8
0
100
AcDbBlockBegin
2
*PAPER_SPACE
70
0
10
0.0
20
0.0
30
0.0
3
*PAPER_SPACE
1

0
ENDBLK
5
1D
100
AcDbEntity
8
0
100
AcDbBlockEnd
0
BLOCK
5
220
100
AcDbEntity
8
0
100
AcDbBlockBegin
62
2
6
CONTINUOUS
2
*D0
70
65
10
0.0000000000
20
0.0000000000
3
*D0
1

0
TEXT
5
221
100
AcDbEntity
8
0
100
AcDbText
62
2
6
CONTINUOUS
10
-4.2857142857
20
32.2500000000
7
STANDARD
40
3.0000000000
1
22,3
41
0.7142857143
72
0
100
AcDbText
0
LINE
5
222
100
AcDbEntity
8
0
100
AcDbLine
62
2
6
CONTINUOUS
10
11.1500000000
20
-21.3997711479
11
11.1500000000
21
33.0000000000
0
LINE
5
223
100
AcDbEntity
8
0
100
AcDbLine
62
2
6
CONTINUOUS
10
-11.1500000000
20
-21.3997711479
11
-11.1500000000
21
33.0000000000
0
LINE
5
224
100
AcDbEntity
8
0
100
AcDbLine
62
2
6
CONTINUOUS
10
11.1500000000
20
31.5000000000
11
0.0000000000
21
31.5000000000
0
LINE
5
225
100
AcDbEntity
8
0
100
AcDbLine
62
2
6
CONTINUOUS
10
-11.1500000000
20
31.5000000000
11
0.0000000000
21
31.5000000000
0
INSERT
5
226
100
AcDbEntity
8
0
100
AcDbBlockReference
62
2
6
CONTINUOUS
2
_FILLED
10
11.1500000000
20
31.5000000000
41
  3.000000
42
  3.000000
43
  3.000000
50
  0.000000
0
INSERT
5
227
100
AcDbEntity
8
0
100
AcDbBlockReference
62
2
6
CONTINUOUS
2
_FILLED
10
-11.1500000000
20
31.5000000000
41
  3.000000
42
  3.000000
43
  3.000000
50
180.000000
0
ENDBLK
5
228
100
AcDbEntity
8
0
6
BYBLOCK
62
0
100
AcDbBlockEnd
0
BLOCK
5
229
100
AcDbEntity
8
0
100
AcDbBlockBegin
62
2
6
CONTINUOUS
2
*D1
70
65
10
0.0000000000
20
0.0000000000
3
*D1
1

0
TEXT
5
22A
100
AcDbEntity
8
0
100
AcDbText
62
2
6
CONTINUOUS
10
18.4000000000
20
-2.3571428571
7
STANDARD
40
3.0000000000
1
47
50
90.0000000000
41
0.7857142857
72
0
100
AcDbText
0
LINE
5
22B
100
AcDbEntity
8
0
100
AcDbLine
62
2
6
CONTINUOUS
10
4.4733373476
20
23.5000000000
11
20.6500000000
21
23.5000000000
0
LINE
5
22C
100
AcDbEntity
8
0
100
AcDbLine
62
2
6
CONTINUOUS
10
4.4733373476
20
-23.5000000000
11
20.6500000000
21
-23.5000000000
0
LINE
5
22D
100
AcDbEntity
8
0
100
AcDbLine
62
2
6
CONTINUOUS
10
19.1500000000
20
23.5000000000
11
19.1500000000
21
-0.0000000000
0
LINE
5
22E
100
AcDbEntity
8
0
100
AcDbLine
62
2
6
CONTINUOUS
10
19.1500000000
20
-23.5000000000
11
19.1500000000
21
-0.0000000000
0
INSERT
5
22F
100
AcDbEntity
8
0
100
AcDbBlockReference
62
2
6
CONTINUOUS
2
_FILLED
10
19.1500000000
20
23.5000000000
41
  3.000000
42
  3.000000
43
  3.000000
50
 90.000000
0
INSERT
5
230
100
AcDbEntity
8
0
100
AcDbBlockReference
62
2
6
CONTINUOUS
2
_FILLED
10
19.1500000000
20
-23.5000000000
41
  3.000000
42
  3.000000
43
  3.000000
50
270.000000
0
ENDBLK
5
231
100
AcDbEntity
8
0
6
BYBLOCK
62
0
100
AcDbBlockEnd
0
BLOCK
5
232
100
AcDbEntity
8
0
100
AcDbBlockBegin
62
2
6
CONTINUOUS
2
*D2
70
65
10
0.0000000000
20
0.0000000000
3
*D2
1

0
TEXT
5
233
100
AcDbEntity
8
0
100
AcDbText
62
2
6
CONTINUOUS
10
-47.6075064272
20
42.2500000000
7
STANDARD
40
3.0000000000
1
32,7
41
0.7142857143
72
0
100
AcDbText
0
LINE
5
234
100
AcDbEntity
8
0
100
AcDbLine
62
2
6
CONTINUOUS
10
-26.9717921415
20
2.4000000000
11
-26.9717921415
21
43.0000000000
0
LINE
5
235
100
AcDbEntity
8
0
100
AcDbLine
62
2
6
CONTINUOUS
10
-59.6717921415
20
0.5000000000
11
-59.6717921415
21
43.0000000000
0
LINE
5
236
100
AcDbEntity
8
0
100
AcDbLine
62
2
6
CONTINUOUS
10
-26.9717921415
20
41.5000000000
11
-43.3217921415
21
41.5000000000
0
LINE
5
237
100
AcDbEntity
8
0
100
AcDbLine
62
2
6
CONTINUOUS
10
-59.6717921415
20
41.5000000000
11
-43.3217921415
21
41.5000000000
0
INSERT
5
238
100
AcDbEntity
8
0
100
AcDbBlockReference
62
2
6
CONTINUOUS
2
_FILLED
10
-26.9717921415
20
41.5000000000
41
  3.000000
42
  3.000000
43
  3.000000
0
INSERT
5
239
100
AcDbEntity
8
0
100
AcDbBlockReference
62
2
6
CONTINUOUS
2
_FILLED
10
-59.6717921415
20
41.5000000000
41
  3.000000
42
  3.000000
43
  3.000000
50
180.000000
0
ENDBLK
5
23A
100
AcDbEntity
8
0
6
BYBLOCK
62
0
100
AcDbBlockEnd
0
BLOCK
5
23B
100
AcDbEntity
8
0
100
AcDbBlockBegin
62
2
6
CONTINUOUS
2
*D3
70
65
10
0.0000000000
20
0.0000000000
3
*D3
1

0
TEXT
5
23C
100
AcDbEntity
8
0
100
AcDbText
62
2
6
CONTINUOUS
10
-42.8575064272
20
32.2500000000
7
STANDARD
40
3.0000000000
1
23,2
41
0.7142857143
72
0
100
AcDbText
0
LINE
5
23D
100
AcDbEntity
8
0
100
AcDbLine
62
2
6
CONTINUOUS
10
-26.9717921415
20
11.6999992740
11
-26.9717921415
21
33.0000000000
0
LINE
5
23E
100
AcDbEntity
8
0
100
AcDbLine
62
2
6
CONTINUOUS
10
-50.1717921415
20
23.1631666220
11
-50.1717921415
21
33.0000000000
0
LINE
5
23F
100
AcDbEntity
8
0
100
AcDbLine
62
2
6
CONTINUOUS
10
-26.9717921415
20
31.5000000000
11
-38.5717921415
21
31.5000000000
0
LINE
5
240
100
AcDbEntity
8
0
100
AcDbLine
62
2
6
CONTINUOUS
10
-50.1717921415
20
31.5000000000
11
-38.5717921415
21
31.5000000000
0
INSERT
5
241
100
AcDbEntity
8
0
100
AcDbBlockReference
62
2
6
CONTINUOUS
2
_FILLED
10
-26.9717921415
20
31.5000000000
41
  3.000000
42
  3.000000
43
  3.000000
0
INSERT
5
242
100
AcDbEntity
8
0
100
AcDbBlockReference
62
2
6
CONTINUOUS
2
_FILLED
10
-50.1717921415
20
31.5000000000
41
  3.000000
42
  3.000000
43
  3.000000
50
180.000000
0
ENDBLK
5
243
100
AcDbEntity
8
0
6
BYBLOCK
62
0
100
AcDbBlockEnd
0
BLOCK
5
244
100
AcDbEntity
8
0
100
AcDbBlockBegin
2
_FILLED
70
64
10
0.0000000000
20
0.0000000000
3
_FILLED
1

0
SOLID
5
245
100
AcDbEntity
8
0
6
BYBLOCK
62
0
100
AcDbTrace
10
0.0000000000
20
0.0000000000
11
-1.0000000000
21
0.3166666667
12
-1.0000000000
22
-0.3166666667
13
-1.0000000000
23
-0.3166666667
0
ENDBLK
5
246
100
AcDbEntity
8
0
6
BYBLOCK
62
0
100
AcDbBlockEnd
0
ENDSEC
0
SECTION
2
ENTITIES
0
DIMENSION
5
247
100
AcDbEntity
8
0
100
AcDbDimension
62
2
6
CONTINUOUS
2
*D0
10
-11.1500000000
20
31.5000000000
11
-0.0000000000
21
33.7500000000
70
160
3
DIMSTYLE_1
100
AcDbAlignedDimension
13
11.1500000000
23
-21.3997711479
14
-11.1500000000
24
-21.3997711479
50
180.000000
100
AcDbRotatedDimension
0
DIMENSION
5
248
100
AcDbEntity
8
0
100
AcDbDimension
62
2
6
CONTINUOUS
2
*D1
10
19.1500000000
20
-23.5000000000
11
16.9000000000
21
-0.0000000000
70
160
3
DIMSTYLE_1
100
AcDbAlignedDimension
13
4.4733373476
23
23.5000000000
14
4.4733373476
24
-23.5000000000
50
270.000000
100
AcDbRotatedDimension
0
DIMENSION
5
249
100
AcDbEntity
8
0
100
AcDbDimension
62
2
6
CONTINUOUS
2
*D2
10
-59.6717921415
20
41.5000000000
11
-43.3217921415
21
43.7500000000
70
160
3
DIMSTYLE_1
100
AcDbAlignedDimension
13
-26.9717921415
23
2.4000000000
14
-59.6717921415
24
0.5000000000
50
180.000000
100
AcDbRotatedDimension
0
DIMENSION
5
24A
100
AcDbEntity
8
0
100
AcDbDimension
62
2
6
CONTINUOUS
2
*D3
10
-50.1717921415
20
31.5000000000
11
-38.5717921415
21
33.7500000000
70
160
3
DIMSTYLE_1
100
AcDbAlignedDimension
13
-26.9717921415
23
11.6999992740
14
-50.1717921415
24
23.1631666220
50
180.000000
100
AcDbRotatedDimension
0
LINE
5
24B
100
AcDbEntity
8
0
100
AcDbLine
62
7
6
CONTINUOUS
10
-3.0000000000
20
-23.5000000000
11
-2.7812783412
21
-23.4563623377
0
LINE
5
24C
100
AcDbEntity
8
0
100
AcDbLine
62
7
6
CONTINUOUS
10
3.9733373476
20
-23.5000000000
11
3.0000000000
21
-23.5000000000
0
LINE
5
24D
100
AcDbEntity
8
0
100
AcDbLine
62
7
6
CONTINUOUS
10
-3.0000000000
20
-23.5000000000
11
-3.9733373476
21
-23.5000000000
0
LINE
5
24E
100
AcDbEntity
8
0
100
AcDbLine
62
7
6
CONTINUOUS
10
2.7812783412
20
-23.4563623377
11
-2.7812783412
21
-23.4563623377
0
LINE
5
24F
100
AcDbEntity
8
0
100
AcDbLine
62
7
6
CONTINUOUS
10
-2.7812783412
20
-22.5310194482
11
2.7812783412
21
-22.5310194482
0
LINE
5
250
100
AcDbEntity
8
0
100
AcDbLine
62
7
6
CONTINUOUS
10
10.6503805997
20
-22.4000000000
11
3.0000000000
21
-22.4000000000
0
LINE
5
251
100
AcDbEntity
8
0
100
AcDbLine
62
7
6
CONTINUOUS
10
-3.0000000000
20
-22.4000000000
11
-10.6503805997
21
-22.4000000000
0
LINE
5
252
100
AcDbEntity
8
0
100
AcDbLine
62
7
6
CONTINUOUS
10
3.0000000000
20
-23.5000000000
11
2.7812783412
21
-23.4563623377
0
LINE
5
253
100
AcDbEntity
8
0
100
AcDbLine
62
7
6
CONTINUOUS
10
-2.7812783412
20
22.5310194482
11
-3.0000000000
21
22.4000000000
0
LINE
5
254
100
AcDbEntity
8
0
100
AcDbLine
62
9
6
CONTINUOUS
10
10.5087981167
20
-21.9749071372
11
-10.5087981167
21
-21.9749071372
0
LINE
5
255
100
AcDbEntity
8
0
100
AcDbLine
62
9
6
CONTINUOUS
10
10.5005350625
20
-21.0183142309
11
-10.5005350625
21
-21.0183142309
0
LINE
5
256
100
AcDbEntity
8
0
100
AcDbLine
62
7
6
CONTINUOUS
10
-3.0000000000
20
-22.4000000000
11
-2.7812783412
21
-22.5310194482
0
LINE
5
257
100
AcDbEntity
8
0
100
AcDbLine
62
7
6
CONTINUOUS
10
-11.1500000000
20
21.8997711479
11
-11.1500000000
21
-21.8997711479
0
LINE
5
258
100
AcDbEntity
8
0
100
AcDbLine
62
9
6
CONTINUOUS
10
-2.2291576973
20
-9.7967323950
11
-2.1839599944
21
-9.7841293427
0
LINE
5
259
100
AcDbEntity
8
0
100
AcDbLine
62
3
6
CONTINUOUS
10
-2.1639142298
20
-9.6500000000
11
-2.2443380920
21
-9.6500000000
0
LINE
5
25A
100
AcDbEntity
8
0
100
AcDbLine
62
7
6
CONTINUOUS
10
-2.0392522144
20
-8.7403835543
11
-2.0396078054
21
-8.7400000000
0
LINE
5
25B
100
AcDbEntity
8
0
100
AcDbLine
62
3
6
CONTINUOUS
10
-2.0949834488
20
-8.6802696857
11
-2.0391974807
21
-8.7404425922
0
LWPOLYLINE
5
25C
100
AcDbEntity
8
0
100
AcDbPolyline
62
3
6
CONTINUOUS
90
3
70
0
10
2.1480228125
20
8.8317051048
10
2.0799794190
20
8.7768719857
10
2.0391974807
20
8.7404425922
0
LINE
5
25D
100
AcDbEntity
8
0
100
AcDbLine
62
9
6
CONTINUOUS
10
-11.0087219643
20
-21.4755923698
11
-11.1500000000
21
-21.8997711479
0
LINE
5
25E
100
AcDbEntity
8
0
100
AcDbLine
62
9
6
CONTINUOUS
10
-11.1500000000
20
21.8997711479
11
-11.0087219643
21
21.4755923698
0
LINE
5
25F
100
AcDbEntity
8
0
100
AcDbLine
62
7
6
CONTINUOUS
10
-3.0000000000
20
23.5000000000
11
-3.0000000000
21
22.4000000000
0
LINE
5
260
100
AcDbEntity
8
0
100
AcDbLine
62
7
6
CONTINUOUS
10
-3.0000000000
20
-22.4000000000
11
-3.0000000000
21
-23.5000000000
0
LINE
5
261
100
AcDbEntity
8
0
100
AcDbLine
62
7
6
CONTINUOUS
10
-2.7812783412
20
23.4563623377
11
-2.7812783412
21
22.5310194482
0
LINE
5
262
100
AcDbEntity
8
0
100
AcDbLine
62
7
6
CONTINUOUS
10
-2.7812783412
20
-22.5310194482
11
-2.7812783412
21
-23.4563623377
0
LINE
5
263
100
AcDbEntity
8
0
100
AcDbLine
62
7
6
CONTINUOUS
10
-1.8285888467
20
8.1911980218
11
-1.8054720197
21
10.8401240326
0
LINE
5
264
100
AcDbEntity
8
0
100
AcDbLine
62
9
6
CONTINUOUS
10
-10.5087981167
20
-21.9749071372
11
-10.6503805997
21
-22.4000000000
0
LINE
5
265
100
AcDbEntity
8
0
100
AcDbLine
62
9
6
CONTINUOUS
10
-10.6503805997
20
22.4000000000
11
-10.5087981167
21
21.9749071372
0
LINE
5
266
100
AcDbEntity
8
0
100
AcDbLine
62
7
6
CONTINUOUS
10
-0.5785418101
20
-1.6422852636
11
-0.5785418101
21
-0.6714581899
0
LINE
5
267
100
AcDbEntity
8
0
100
AcDbLine
62
7
6
CONTINUOUS
10
-0.0785418101
20
-0.6714581899
11
-0.0785418101
21
1.6977703604
0
LINE
5
268
100
AcDbEntity
8
0
100
AcDbLine
62
7
6
CONTINUOUS
10
-2.2062829713
20
-9.9334958693
11
-1.9831254250
21
-8.4403138611
0
LINE
5
269
100
AcDbEntity
8
0
100
AcDbLine
62
7
6
CONTINUOUS
10
-2.2014708799
20
-9.9589963440
11
-1.9710843665
21
-8.4175315303
0
LINE
5
26A
100
AcDbEntity
8
0
100
AcDbLine
62
7
6
CONTINUOUS
10
-1.5546173627
20
-3.8478129965
11
-1.2923927473
21
-3.1987842983
0
LINE
5
26B
100
AcDbEntity
8
0
100
AcDbLine
62
7
6
CONTINUOUS
10
-0.5785418101
20
-0.6714581899
11
-0.0785418101
21
-0.6714581899
0
LINE
5
26C
100
AcDbEntity
8
0
100
AcDbLine
62
7
6
CONTINUOUS
10
0.4201765308
20
-1.6701765308
11
-0.5785418101
21
-0.6714581899
0
LINE
5
26D
100
AcDbEntity
8
0
100
AcDbLine
62
7
6
CONTINUOUS
10
0.8312268042
20
-1.5812268042
11
-0.0785418101
21
-0.6714581899
0
LINE
5
26E
100
AcDbEntity
8
0
100
AcDbLine
62
7
6
CONTINUOUS
10
0.9301847254
20
-1.5516814917
11
0.9301847254
21
1.5516814917
0
LINE
5
26F
100
AcDbEntity
8
0
100
AcDbLine
62
7
6
CONTINUOUS
10
1.0000000000
20
1.5271455442
11
1.0000000000
21
-1.5271455442
0
LINE
5
270
100
AcDbEntity
8
0
100
AcDbLine
62
7
6
CONTINUOUS
10
1.2000000000
20
-1.4480238242
11
1.2000000000
21
1.4480238242
0
LINE
5
271
100
AcDbEntity
8
0
100
AcDbLine
62
7
6
CONTINUOUS
10
1.8285888467
20
-8.1911980218
11
1.8054720197
21
-10.8401240326
0
LINE
5
272
100
AcDbEntity
8
0
100
AcDbLine
62
7
6
CONTINUOUS
10
2.2014708799
20
9.9589963440
11
1.9710843665
21
8.4175315303
0
LINE
5
273
100
AcDbEntity
8
0
100
AcDbLine
62
7
6
CONTINUOUS
10
2.2062829713
20
9.9334958693
11
1.9831254250
21
8.4403138611
0
LINE
5
274
100
AcDbEntity
8
0
100
AcDbLine
62
7
6
CONTINUOUS
10
2.0537013093
20
0.9152018142
11
2.0396084274
21
0.9000000648
0
LINE
5
275
100
AcDbEntity
8
0
100
AcDbLine
62
7
6
CONTINUOUS
10
2.0537013093
20
-0.9152018142
11
2.0396084274
21
-0.9000000648
0
LINE
5
276
100
AcDbEntity
8
0
100
AcDbLine
62
7
6
CONTINUOUS
10
2.7812783412
20
23.4563623377
11
2.7812783412
21
22.5310194482
0
LINE
5
277
100
AcDbEntity
8
0
100
AcDbLine
62
7
6
CONTINUOUS
10
2.7812783412
20
-22.5310194482
11
2.7812783412
21
-23.4563623377
0
LINE
5
278
100
AcDbEntity
8
0
100
AcDbLine
62
7
6
CONTINUOUS
10
3.0000000000
20
23.5000000000
11
3.0000000000
21
22.4000000000
0
LINE
5
279
100
AcDbEntity
8
0
100
AcDbLine
62
7
6
CONTINUOUS
10
3.0000000000
20
-22.4000000000
11
3.0000000000
21
-23.5000000000
0
LINE
5
27A
100
AcDbEntity
8
0
100
AcDbLine
62
9
6
CONTINUOUS
10
10.6503805997
20
22.4000000000
11
10.5087981167
21
21.9749071372
0
LINE
5
27B
100
AcDbEntity
8
0
100
AcDbLine
62
9
6
CONTINUOUS
10
11.1500000000
20
21.8997711479
11
11.0087219643
21
21.4755923698
0
LINE
5
27C
100
AcDbEntity
8
0
100
AcDbLine
62
7
6
CONTINUOUS
10
2.0736010527
20
-0.8694899773
11
2.0396084283
21
-0.9000000658
0
LINE
5
27D
100
AcDbEntity
8
0
100
AcDbLine
62
7
6
CONTINUOUS
10
2.0396084283
20
0.9000000658
11
2.0736010570
21
0.8694899673
0
LINE
5
27E
100
AcDbEntity
8
0
100
AcDbLine
62
9
6
CONTINUOUS
10
10.5087981167
20
-21.9749071372
11
10.6503805997
21
-22.4000000000
0
LINE
5
27F
100
AcDbEntity
8
0
100
AcDbLine
62
9
6
CONTINUOUS
10
11.0087219643
20
-21.4755923698
11
11.1500000000
21
-21.8997711479
0
LWPOLYLINE
5
280
100
AcDbEntity
8
0
100
AcDbPolyline
62
3
6
CONTINUOUS
90
3
70
0
10
-2.1480228125
20
-8.8317051048
10
-2.0799794190
20
-8.7768719857
10
-2.0391974807
20
-8.7404425922
0
LINE
5
281
100
AcDbEntity
8
0
100
AcDbLine
62
9
6
CONTINUOUS
10
2.2291576973
20
9.7967323950
11
2.1839599944
21
9.7841293427
0
LINE
5
282
100
AcDbEntity
8
0
100
AcDbLine
62
3
6
CONTINUOUS
10
2.0949834488
20
8.6802696857
11
2.0391974807
21
8.7404425922
0
LINE
5
283
100
AcDbEntity
8
0
100
AcDbLine
62
3
6
CONTINUOUS
10
2.1639142298
20
9.6500000000
11
2.2443380920
21
9.6500000000
0
LINE
5
284
100
AcDbEntity
8
0
100
AcDbLine
62
7
6
CONTINUOUS
10
11.1500000000
20
-21.8997711479
11
11.1500000000
21
21.8997711479
0
LINE
5
285
100
AcDbEntity
8
0
100
AcDbLine
62
7
6
CONTINUOUS
10
3.0000000000
20
-22.4000000000
11
2.7812783412
21
-22.5310194482
0
LINE
5
286
100
AcDbEntity
8
0
100
AcDbLine
62
9
6
CONTINUOUS
10
-10.5005350625
20
21.0183142309
11
10.5005350625
21
21.0183142309
0
LINE
5
287
100
AcDbEntity
8
0
100
AcDbLine
62
7
6
CONTINUOUS
10
2.7812783412
20
22.5310194482
11
3.0000000000
21
22.4000000000
0
LINE
5
288
100
AcDbEntity
8
0
100
AcDbLine
62
7
6
CONTINUOUS
10
3.0000000000
20
23.5000000000
11
2.7812783412
21
23.4563623377
0
LINE
5
289
100
AcDbEntity
8
0
100
AcDbLine
62
9
6
CONTINUOUS
10
-10.5087981167
20
21.9749071372
11
10.5087981167
21
21.9749071372
0
LINE
5
28A
100
AcDbEntity
8
0
100
AcDbLine
62
7
6
CONTINUOUS
10
-10.6503805997
20
22.4000000000
11
-3.0000000000
21
22.4000000000
0
LINE
5
28B
100
AcDbEntity
8
0
100
AcDbLine
62
7
6
CONTINUOUS
10
3.0000000000
20
22.4000000000
11
10.6503805997
21
22.4000000000
0
LINE
5
28C
100
AcDbEntity
8
0
100
AcDbLine
62
7
6
CONTINUOUS
10
-2.7812783412
20
22.5310194482
11
2.7812783412
21
22.5310194482
0
LINE
5
28D
100
AcDbEntity
8
0
100
AcDbLine
62
7
6
CONTINUOUS
10
-3.0000000000
20
23.5000000000
11
-2.7812783412
21
23.4563623377
0
LINE
5
28E
100
AcDbEntity
8
0
100
AcDbLine
62
7
6
CONTINUOUS
10
2.7812783412
20
23.4563623377
11
-2.7812783412
21
23.4563623377
0
LINE
5
28F
100
AcDbEntity
8
0
100
AcDbLine
62
7
6
CONTINUOUS
10
-3.9733373476
20
23.5000000000
11
-3.0000000000
21
23.5000000000
0
LINE
5
290
100
AcDbEntity
8
0
100
AcDbLine
62
7
6
CONTINUOUS
10
3.0000000000
20
23.5000000000
11
3.9733373476
21
23.5000000000
0
LINE
5
291
100
AcDbEntity
8
0
100
AcDbLine
62
7
6
CONTINUOUS
10
-50.1717921415
20
-23.5000000000
11
-46.1717921415
21
-23.4301797403
0
LINE
5
292
100
AcDbEntity
8
0
100
AcDbLine
62
7
6
CONTINUOUS
10
-58.2830471614
20
-21.9749071372
11
-50.1717921415
21
-22.4000000000
0
LINE
5
293
100
AcDbEntity
8
0
100
AcDbLine
62
7
6
CONTINUOUS
10
-44.5717921415
20
-22.2000000000
11
-44.0641184617
21
-22.1955695989
0
LINE
5
294
100
AcDbEntity
8
0
100
AcDbLine
62
7
6
CONTINUOUS
10
-46.1717921415
20
-21.2139629885
11
-42.3054852476
21
-21.1802222394
0
LINE
5
295
100
AcDbEntity
8
0
100
AcDbLine
62
7
6
CONTINUOUS
10
-41.7052229341
20
-20.8336606310
11
-50.1717921415
21
-20.9000000000
0
LINE
5
296
100
AcDbEntity
8
0
100
AcDbLine
62
9
6
CONTINUOUS
10
-58.2656053865
20
-21.4755923698
11
-50.1717921415
21
-21.8997711479
0
LINE
5
297
100
AcDbEntity
8
0
100
AcDbLine
62
9
6
CONTINUOUS
10
-58.7389954435
20
-20.9972959167
11
-59.2298216059
21
-21.0183139940
0
LINE
5
298
100
AcDbEntity
8
0
100
AcDbLine
62
7
6
CONTINUOUS
10
-38.0034671147
20
-18.8172747070
11
-47.7717921415
21
-18.9877814546
0
LINE
5
299
100
AcDbEntity
8
0
100
AcDbLine
62
7
6
CONTINUOUS
10
-40.1717921415
20
-19.1872686779
11
-50.1717921415
21
-19.1000000000
0
LINE
5
29A
100
AcDbEntity
8
0
100
AcDbLine
62
7
6
CONTINUOUS
10
-48.3559454878
20
19.1158466537
11
-48.4132134977
21
19.0585786438
0
LINE
5
29B
100
AcDbEntity
8
0
100
AcDbLine
62
7
6
CONTINUOUS
10
-50.1717921415
20
-18.3006924199
11
-48.4717921415
21
-18.2203502372
0
LINE
5
29C
100
AcDbEntity
8
0
100
AcDbLine
62
9
6
CONTINUOUS
10
-48.4717921415
20
-17.1575153665
11
-50.1717921415
21
-17.1673849704
0
LINE
5
29D
100
AcDbEntity
8
0
100
AcDbLine
62
7
6
CONTINUOUS
10
-48.4132134977
20
-19.0585786438
11
-48.3559454878
21
-19.1158466537
0
LINE
5
29E
100
AcDbEntity
8
0
100
AcDbLine
62
7
6
CONTINUOUS
10
-59.7575711124
20
-3.6975703825
11
-59.7547672516
21
-3.7237238215
0
LINE
5
29F
100
AcDbEntity
8
0
100
AcDbLine
62
7
6
CONTINUOUS
10
-59.7603576443
20
-3.6695276427
11
-59.7575711124
21
-3.6975703825
0
LINE
5
2A0
100
AcDbEntity
8
0
100
AcDbLine
62
7
6
CONTINUOUS
10
-59.7631384020
20
-3.6394779427
11
-59.7603576443
21
-3.6695276427
0
LINE
5
2A1
100
AcDbEntity
8
0
100
AcDbLine
62
7
6
CONTINUOUS
10
-59.7659226524
20
-3.6073077444
11
-59.7631384020
21
-3.6394779427
0
LINE
5
2A2
100
AcDbEntity
8
0
100
AcDbLine
62
7
6
CONTINUOUS
10
-59.7687158516
20
-3.5729328100
11
-59.7659226524
21
-3.6073077444
0
LINE
5
2A3
100
AcDbEntity
8
0
100
AcDbLine
62
7
6
CONTINUOUS
10
-59.7707660455
20
-3.5463621265
11
-59.7687158516
21
-3.5729328100
0
LINE
5
2A4
100
AcDbEntity
8
0
100
AcDbLine
62
7
6
CONTINUOUS
10
-59.6591019179
20
-3.1100942394
11
-59.6650948876
21
-3.2237690130
0
LINE
5
2A5
100
AcDbEntity
8
0
100
AcDbLine
62
7
6
CONTINUOUS
10
-59.6650948876
20
-3.2237690130
11
-59.6705264414
21
-3.3183952321
0
LINE
5
2A6
100
AcDbEntity
8
0
100
AcDbLine
62
7
6
CONTINUOUS
10
-59.6705264414
20
-3.3183952321
11
-59.6745066640
21
-3.3825358775
0
LINE
5
2A7
100
AcDbEntity
8
0
100
AcDbLine
62
7
6
CONTINUOUS
10
-59.6745066640
20
-3.3825358775
11
-59.6783983441
21
-3.4408817970
0
LINE
5
2A8
100
AcDbEntity
8
0
100
AcDbLine
62
7
6
CONTINUOUS
10
-59.6783983441
20
-3.4408817970
11
-59.6821914585
21
-3.4934937407
0
LINE
5
2A9
100
AcDbEntity
8
0
100
AcDbLine
62
7
6
CONTINUOUS
10
-59.6821914585
20
-3.4934937407
11
-59.6846587687
21
-3.5254108386
0
LINE
5
2AA
100
AcDbEntity
8
0
100
AcDbLine
62
7
6
CONTINUOUS
10
-59.6846587687
20
-3.5254108386
11
-59.6870715279
21
-3.5548283421
0
LINE
5
2AB
100
AcDbEntity
8
0
100
AcDbLine
62
7
6
CONTINUOUS
10
-59.6870715279
20
-3.5548283421
11
-59.6894230939
21
-3.5817591875
0
LINE
5
2AC
100
AcDbEntity
8
0
100
AcDbLine
62
7
6
CONTINUOUS
10
-59.6894230939
20
-3.5817591875
11
-59.6917040598
21
-3.6062031146
0
LINE
5
2AD
100
AcDbEntity
8
0
100
AcDbLine
62
7
6
CONTINUOUS
10
-59.6917040598
20
-3.6062031146
11
-59.6939043286
21
-3.6281745946
0
LWPOLYLINE
5
2AE
100
AcDbEntity
8
0
100
AcDbPolyline
62
7
6
CONTINUOUS
90
13
70
0
10
-59.6939043286
20
-3.6281745946
10
-59.6960091323
20
-3.6476669400
10
-59.6970169293
20
-3.6564538339
10
-59.6979918398
20
-3.6646060907
10
-59.6989309923
20
-3.6721259002
10
-59.6998235232
20
-3.6789580782
10
-59.7006673127
20
-3.6851229605
10
-59.7014578670
20
-3.6906252254
10
-59.7021779749
20
-3.6953908041
10
-59.7028240634
20
-3.6994486839
10
-59.7033877010
20
-3.7028001035
10
-59.7038387388
20
-3.7053337957
10
-59.7039532465
20
-3.7059521846
0
LINE
5
2AF
100
AcDbEntity
8
0
100
AcDbLine
62
9
6
CONTINUOUS
10
-48.0741339244
20
19.1183059859
11
-48.2330285642
21
18.9594113461
0
LINE
5
2B0
100
AcDbEntity
8
0
100
AcDbLine
62
7
6
CONTINUOUS
10
-47.8086547561
20
18.9509188399
11
-47.7717921415
21
18.9877814546
0
LINE
5
2B1
100
AcDbEntity
8
0
100
AcDbLine
62
7
6
CONTINUOUS
10
-28.9543397350
20
-15.8600548477
11
-35.9892445479
21
-15.9828495680
0
LINE
5
2B2
100
AcDbEntity
8
0
100
AcDbLine
62
9
6
CONTINUOUS
10
-38.0034671147
20
-15.3176090846
11
-48.4717921415
21
-15.5005330670
0
LINE
5
2B3
100
AcDbEntity
8
0
100
AcDbLine
62
9
6
CONTINUOUS
10
-48.4717921415
20
-16.5441903035
11
-50.1717921415
21
-16.5543574599
0
LINE
5
2B4
100
AcDbEntity
8
0
100
AcDbLine
62
7
6
CONTINUOUS
10
-36.9717921415
20
-16.7743050000
11
-36.7717921415
21
-16.7743050000
0
LINE
5
2B5
100
AcDbEntity
8
0
100
AcDbLine
62
7
6
CONTINUOUS
10
-36.9717921415
20
-16.7723550000
11
-36.7717921415
21
-16.7723550000
0
LINE
5
2B6
100
AcDbEntity
8
0
100
AcDbLine
62
7
6
CONTINUOUS
10
-36.9717921415
20
-16.7695940000
11
-36.7717921415
21
-16.7695940000
0
LINE
5
2B7
100
AcDbEntity
8
0
100
AcDbLine
62
7
6
CONTINUOUS
10
-36.9717921415
20
-16.7653710000
11
-36.7717921415
21
-16.7653710000
0
LINE
5
2B8
100
AcDbEntity
8
0
100
AcDbLine
62
7
6
CONTINUOUS
10
-36.9717921415
20
-16.7626090000
11
-36.7717921415
21
-16.7626090000
0
LINE
5
2B9
100
AcDbEntity
8
0
100
AcDbLine
62
7
6
CONTINUOUS
10
-36.9717921415
20
-16.7577360000
11
-36.7717921415
21
-16.7577360000
0
LINE
5
2BA
100
AcDbEntity
8
0
100
AcDbLine
62
7
6
CONTINUOUS
10
-36.9717921415
20
-16.7440920000
11
-36.7717921415
21
-16.7440920000
0
LINE
5
2BB
100
AcDbEntity
8
0
100
AcDbLine
62
7
6
CONTINUOUS
10
-36.9717921415
20
-16.7229760000
11
-36.7717921415
21
-16.7229760000
0
LINE
5
2BC
100
AcDbEntity
8
0
100
AcDbLine
62
7
6
CONTINUOUS
10
-36.9717921415
20
-16.6937380000
11
-36.7717921415
21
-16.6937380000
0
LINE
5
2BD
100
AcDbEntity
8
0
100
AcDbLine
62
7
6
CONTINUOUS
10
-36.9717921415
20
-16.1849820000
11
-36.7717921415
21
-16.1849820000
0
LINE
5
2BE
100
AcDbEntity
8
0
100
AcDbLine
62
7
6
CONTINUOUS
10
-36.9717921415
20
-16.1559070000
11
-36.7717921415
21
-16.1559070000
0
LINE
5
2BF
100
AcDbEntity
8
0
100
AcDbLine
62
7
6
CONTINUOUS
10
-36.9717921415
20
-16.1099380000
11
-36.7717921415
21
-16.1099380000
0
LINE
5
2C0
100
AcDbEntity
8
0
100
AcDbLine
62
7
6
CONTINUOUS
10
-36.9717921415
20
-16.0696550000
11
-36.7717921415
21
-16.0696550000
0
LINE
5
2C1
100
AcDbEntity
8
0
100
AcDbLine
62
7
6
CONTINUOUS
10
-36.9717921415
20
-16.0345690000
11
-36.7717921415
21
-16.0345690000
0
LINE
5
2C2
100
AcDbEntity
8
0
100
AcDbLine
62
7
6
CONTINUOUS
10
-36.9717921415
20
-16.0045190000
11
-36.7717921415
21
-16.0045190000
0
LINE
5
2C3
100
AcDbEntity
8
0
100
AcDbLine
62
7
6
CONTINUOUS
10
-36.9717921415
20
-15.9790170000
11
-36.7717921415
21
-15.9790170000
0
LINE
5
2C4
100
AcDbEntity
8
0
100
AcDbLine
62
7
6
CONTINUOUS
10
-36.9717921415
20
-15.9580640000
11
-36.7717921415
21
-15.9580640000
0
LINE
5
2C5
100
AcDbEntity
8
0
100
AcDbLine
62
7
6
CONTINUOUS
10
-36.9717921415
20
-15.9408460000
11
-36.7717921415
21
-15.9408460000
0
LINE
5
2C6
100
AcDbEntity
8
0
100
AcDbLine
62
7
6
CONTINUOUS
10
-36.9717921415
20
-15.9273640000
11
-36.7717921415
21
-15.9273640000
0
LINE
5
2C7
100
AcDbEntity
8
0
100
AcDbLine
62
7
6
CONTINUOUS
10
-36.9717921415
20
-15.9172930000
11
-36.7717921415
21
-15.9172930000
0
LINE
5
2C8
100
AcDbEntity
8
0
100
AcDbLine
62
7
6
CONTINUOUS
10
-36.9717921415
20
-15.9101460000
11
-36.7717921415
21
-15.9101460000
0
LINE
5
2C9
100
AcDbEntity
8
0
100
AcDbLine
62
7
6
CONTINUOUS
10
-36.9717921415
20
-15.9034860000
11
-36.7717921415
21
-15.9034860000
0
LINE
5
2CA
100
AcDbEntity
8
0
100
AcDbLine
62
7
6
CONTINUOUS
10
-36.9717921415
20
-15.7368300000
11
-36.7717921415
21
-15.7368300000
0
LINE
5
2CB
100
AcDbEntity
8
0
100
AcDbLine
62
7
6
CONTINUOUS
10
-36.9717921415
20
-15.3875670000
11
-36.7717921415
21
-15.3875670000
0
LINE
5
2CC
100
AcDbEntity
8
0
100
AcDbLine
62
7
6
CONTINUOUS
10
-36.9717921415
20
-15.3852930000
11
-36.7717921415
21
-15.3852930000
0
LINE
5
2CD
100
AcDbEntity
8
0
100
AcDbLine
62
7
6
CONTINUOUS
10
-36.9717921415
20
-15.3779840000
11
-36.7717921415
21
-15.3779840000
0
LINE
5
2CE
100
AcDbEntity
8
0
100
AcDbLine
62
7
6
CONTINUOUS
10
-36.9717921415
20
-15.3659640000
11
-36.7717921415
21
-15.3659640000
0
LINE
5
2CF
100
AcDbEntity
8
0
100
AcDbLine
62
7
6
CONTINUOUS
10
-36.9717921415
20
-15.3489080000
11
-36.7717921415
21
-15.3489080000
0
LINE
5
2D0
100
AcDbEntity
8
0
100
AcDbLine
62
7
6
CONTINUOUS
10
-36.9717921415
20
-15.3269800000
11
-36.7717921415
21
-15.3269800000
0
LINE
5
2D1
100
AcDbEntity
8
0
100
AcDbLine
62
9
6
CONTINUOUS
10
-38.0034671147
20
-15.3178077739
11
-36.9717921415
21
-15.3178077739
0
LINE
5
2D2
100
AcDbEntity
8
0
100
AcDbLine
62
7
6
CONTINUOUS
10
-36.9717921415
20
-15.3000160000
11
-36.7717921415
21
-15.3000160000
0
LINE
5
2D3
100
AcDbEntity
8
0
100
AcDbLine
62
7
6
CONTINUOUS
10
-36.9717921415
20
-15.2680170000
11
-36.7717921415
21
-15.2680170000
0
LINE
5
2D4
100
AcDbEntity
8
0
100
AcDbLine
62
7
6
CONTINUOUS
10
-36.9717921415
20
-15.2309820000
11
-36.7717921415
21
-15.2309820000
0
LINE
5
2D5
100
AcDbEntity
8
0
100
AcDbLine
62
7
6
CONTINUOUS
10
-36.9717921415
20
-15.1887490000
11
-36.7717921415
21
-15.1887490000
0
LINE
5
2D6
100
AcDbEntity
8
0
100
AcDbLine
62
7
6
CONTINUOUS
10
-36.9717921415
20
-15.1413190000
11
-36.7717921415
21
-15.1413190000
0
LINE
5
2D7
100
AcDbEntity
8
0
100
AcDbLine
62
7
6
CONTINUOUS
10
-36.9717921415
20
-15.0886910000
11
-36.7717921415
21
-15.0886910000
0
LINE
5
2D8
100
AcDbEntity
8
0
100
AcDbLine
62
7
6
CONTINUOUS
10
-36.9717921415
20
-15.0308650000
11
-36.7717921415
21
-15.0308650000
0
LINE
5
2D9
100
AcDbEntity
8
0
100
AcDbLine
62
9
6
CONTINUOUS
10
-48.2330285642
20
-18.9594113461
11
-48.0741339244
21
-19.1183059859
0
LINE
5
2DA
100
AcDbEntity
8
0
100
AcDbLine
62
7
6
CONTINUOUS
10
-47.7717921415
20
-18.9877814546
11
-47.8086547561
21
-18.9509188399
0
LWPOLYLINE
5
2DB
100
AcDbEntity
8
0
100
AcDbPolyline
62
7
6
CONTINUOUS
90
27
70
0
10
-59.7547672516
20
-3.7237238215
10
-59.7533535321
20
-3.7361378612
10
-59.7519291006
20
-3.7481308794
10
-59.7504856601
20
-3.7597648699
10
-59.7490202955
20
-3.7710511836
10
-59.7475301999
20
-3.7819983708
10
-59.7460047554
20
-3.7926668139
10
-59.7444407983
20
-3.8030568603
10
-59.7428310687
20
-3.8131933450
10
-59.7411538813
20
-3.8231791514
10
-59.7394043873
20
-3.8330016928
10
-59.7375673195
20
-3.8427023251
10
-59.7355944816
20
-3.8524686752
10
-59.7334763377
20
-3.8622641646
10
-59.7311801608
20
-3.8721507189
10
-59.7285963661
20
-3.8824621460
10
-59.7257033582
20
-3.8931097934
10
-59.7224247242
20
-3.9041879115
10
-59.7184959413
20
-3.9162938407
10
-59.7138075008
20
-3.9293696368
10
-59.7082108958
20
-3.9434184081
10
-59.7012285752
20
-3.9590842524
10
-59.6924207771
20
-3.9765846683
10
-59.6816362890
20
-3.9954138451
10
-59.6687556588
20
-4.0150748059
10
-59.6533827996
20
-4.0354782792
10
-59.6504229798
20
-4.0388694422
0
LINE
5
2DC
100
AcDbEntity
8
0
100
AcDbLine
62
9
6
CONTINUOUS
10
-28.9543397350
20
-14.3602833050
11
-35.9892445479
21
-14.4830780252
0
LINE
5
2DD
100
AcDbEntity
8
0
100
AcDbLine
62
7
6
CONTINUOUS
10
-36.9717921415
20
-14.9728760000
11
-36.7717921415
21
-14.9728760000
0
LINE
5
2DE
100
AcDbEntity
8
0
100
AcDbLine
62
7
6
CONTINUOUS
10
-36.9717921415
20
-14.9202480000
11
-36.7717921415
21
-14.9202480000
0
LINE
5
2DF
100
AcDbEntity
8
0
100
AcDbLine
62
7
6
CONTINUOUS
10
-36.9717921415
20
-14.8729800000
11
-36.7717921415
21
-14.8729800000
0
LINE
5
2E0
100
AcDbEntity
8
0
100
AcDbLine
62
7
6
CONTINUOUS
10
-36.9717921415
20
-14.8307470000
11
-36.7717921415
21
-14.8307470000
0
LINE
5
2E1
100
AcDbEntity
8
0
100
AcDbLine
62
7
6
CONTINUOUS
10
-36.9717921415
20
-14.7935500000
11
-36.7717921415
21
-14.7935500000
0
LINE
5
2E2
100
AcDbEntity
8
0
100
AcDbLine
62
7
6
CONTINUOUS
10
-36.9717921415
20
-14.7615510000
11
-36.7717921415
21
-14.7615510000
0
LINE
5
2E3
100
AcDbEntity
8
0
100
AcDbLine
62
7
6
CONTINUOUS
10
-36.9717921415
20
-14.7345870000
11
-36.7717921415
21
-14.7345870000
0
LINE
5
2E4
100
AcDbEntity
8
0
100
AcDbLine
62
7
6
CONTINUOUS
10
-36.9717921415
20
-14.7126580000
11
-36.7717921415
21
-14.7126580000
0
LINE
5
2E5
100
AcDbEntity
8
0
100
AcDbLine
62
7
6
CONTINUOUS
10
-36.9717921415
20
-14.6957650000
11
-36.7717921415
21
-14.6957650000
0
LINE
5
2E6
100
AcDbEntity
8
0
100
AcDbLine
62
7
6
CONTINUOUS
10
-36.9717921415
20
-14.6835830000
11
-36.7717921415
21
-14.6835830000
0
LINE
5
2E7
100
AcDbEntity
8
0
100
AcDbLine
62
7
6
CONTINUOUS
10
-36.9717921415
20
-14.6764360000
11
-36.7717921415
21
-14.6764360000
0
LINE
5
2E8
100
AcDbEntity
8
0
100
AcDbLine
62
7
6
CONTINUOUS
10
-36.9717921415
20
-14.6739990000
11
-36.7717921415
21
-14.6739990000
0
LINE
5
2E9
100
AcDbEntity
8
0
100
AcDbLine
62
9
6
CONTINUOUS
10
-35.9892445479
20
-14.4830780252
11
-36.7717921415
21
-14.4830780252
0
LINE
5
2EA
100
AcDbEntity
8
0
100
AcDbLine
62
9
6
CONTINUOUS
10
-27.9717921415
20
-14.3602833050
11
-28.9543397350
21
-14.3602833014
0
LINE
5
2EB
100
AcDbEntity
8
0
100
AcDbLine
62
7
6
CONTINUOUS
10
-36.9717921415
20
-14.0075830000
11
-36.7717921415
21
-14.0075830000
0
LINE
5
2EC
100
AcDbEntity
8
0
100
AcDbLine
62
7
6
CONTINUOUS
10
-36.9717921415
20
-13.6003640000
11
-36.7717921415
21
-13.6003640000
0
LINE
5
2ED
100
AcDbEntity
8
0
100
AcDbLine
62
7
6
CONTINUOUS
10
-36.9717921415
20
-13.5828210000
11
-36.7717921415
21
-13.5828210000
0
LINE
5
2EE
100
AcDbEntity
8
0
100
AcDbLine
62
7
6
CONTINUOUS
10
-36.9717921415
20
-13.5618670000
11
-36.7717921415
21
-13.5618670000
0
LINE
5
2EF
100
AcDbEntity
8
0
100
AcDbLine
62
7
6
CONTINUOUS
10
-36.9717921415
20
-13.5379890000
11
-36.7717921415
21
-13.5379890000
0
LINE
5
2F0
100
AcDbEntity
8
0
100
AcDbLine
62
7
6
CONTINUOUS
10
-36.9717921415
20
-13.5111880000
11
-36.7717921415
21
-13.5111880000
0
LINE
5
2F1
100
AcDbEntity
8
0
100
AcDbLine
62
7
6
CONTINUOUS
10
-36.9717921415
20
-13.4816250000
11
-36.7717921415
21
-13.4816250000
0
LINE
5
2F2
100
AcDbEntity
8
0
100
AcDbLine
62
7
6
CONTINUOUS
10
-36.9717921415
20
-13.4494630000
11
-36.7717921415
21
-13.4494630000
0
LINE
5
2F3
100
AcDbEntity
8
0
100
AcDbLine
62
7
6
CONTINUOUS
10
-36.9717921415
20
-13.4151900000
11
-36.7717921415
21
-13.4151900000
0
LINE
5
2F4
100
AcDbEntity
8
0
100
AcDbLine
62
7
6
CONTINUOUS
10
-36.9717921415
20
-13.3788050000
11
-36.7717921415
21
-13.3788050000
0
LINE
5
2F5
100
AcDbEntity
8
0
100
AcDbLine
62
7
6
CONTINUOUS
10
-36.9717921415
20
-13.3406330000
11
-36.7717921415
21
-13.3406330000
0
LINE
5
2F6
100
AcDbEntity
8
0
100
AcDbLine
62
7
6
CONTINUOUS
10
-36.9717921415
20
-13.3006750000
11
-36.7717921415
21
-13.3006750000
0
LINE
5
2F7
100
AcDbEntity
8
0
100
AcDbLine
62
7
6
CONTINUOUS
10
-36.9717921415
20
-13.2592540000
11
-36.7717921415
21
-13.2592540000
0
LINE
5
2F8
100
AcDbEntity
8
0
100
AcDbLine
62
7
6
CONTINUOUS
10
-36.9717921415
20
-13.2166970000
11
-36.7717921415
21
-13.2166970000
0
LINE
5
2F9
100
AcDbEntity
8
0
100
AcDbLine
62
7
6
CONTINUOUS
10
-36.9717921415
20
-13.1803120000
11
-36.7717921415
21
-13.1803120000
0
LINE
5
2FA
100
AcDbEntity
8
0
100
AcDbLine
62
7
6
CONTINUOUS
10
-36.9717921415
20
-13.1689420000
11
-36.7717921415
21
-13.1689420000
0
LINE
5
2FB
100
AcDbEntity
8
0
100
AcDbLine
62
7
6
CONTINUOUS
10
-36.9717921415
20
-13.1577340000
11
-36.7717921415
21
-13.1577340000
0
LINE
5
2FC
100
AcDbEntity
8
0
100
AcDbLine
62
7
6
CONTINUOUS
10
-36.9717921415
20
-13.1463640000
11
-36.7717921415
21
-13.1463640000
0
LINE
5
2FD
100
AcDbEntity
8
0
100
AcDbLine
62
7
6
CONTINUOUS
10
-36.9717921415
20
-13.1353180000
11
-36.7717921415
21
-13.1353180000
0
LINE
5
2FE
100
AcDbEntity
8
0
100
AcDbLine
62
7
6
CONTINUOUS
10
-36.9717921415
20
-13.1242730000
11
-36.7717921415
21
-13.1242730000
0
LINE
5
2FF
100
AcDbEntity
8
0
100
AcDbLine
62
7
6
CONTINUOUS
10
-36.9717921415
20
-13.1132270000
11
-36.7717921415
21
-13.1132270000
0
LINE
5
300
100
AcDbEntity
8
0
100
AcDbLine
62
7
6
CONTINUOUS
10
-36.9717921415
20
-13.1023440000
11
-36.7717921415
21
-13.1023440000
0
LINE
5
301
100
AcDbEntity
8
0
100
AcDbLine
62
7
6
CONTINUOUS
10
-36.9717921415
20
-13.0916240000
11
-36.7717921415
21
-13.0916240000
0
LINE
5
302
100
AcDbEntity
8
0
100
AcDbLine
62
7
6
CONTINUOUS
10
-36.9717921415
20
-13.0809030000
11
-36.7717921415
21
-13.0809030000
0
LINE
5
303
100
AcDbEntity
8
0
100
AcDbLine
62
7
6
CONTINUOUS
10
-36.9717921415
20
-13.0703450000
11
-36.7717921415
21
-13.0703450000
0
LINE
5
304
100
AcDbEntity
8
0
100
AcDbLine
62
7
6
CONTINUOUS
10
-36.9717921415
20
-13.0597870000
11
-36.7717921415
21
-13.0597870000
0
LINE
5
305
100
AcDbEntity
8
0
100
AcDbLine
62
7
6
CONTINUOUS
10
-36.9717921415
20
-13.0495530000
11
-36.7717921415
21
-13.0495530000
0
LINE
5
306
100
AcDbEntity
8
0
100
AcDbLine
62
7
6
CONTINUOUS
10
-36.9717921415
20
-12.7154290000
11
-36.7717921415
21
-12.7154290000
0
LINE
5
307
100
AcDbEntity
8
0
100
AcDbLine
62
7
6
CONTINUOUS
10
-36.9717921415
20
-12.7081190000
11
-36.7717921415
21
-12.7081190000
0
LINE
5
308
100
AcDbEntity
8
0
100
AcDbLine
62
7
6
CONTINUOUS
10
-36.9717921415
20
-12.7008100000
11
-36.7717921415
21
-12.7008100000
0
LINE
5
309
100
AcDbEntity
8
0
100
AcDbLine
62
7
6
CONTINUOUS
10
-36.9717921415
20
-12.6881400000
11
-36.7717921415
21
-12.6881400000
0
LINE
5
30A
100
AcDbEntity
8
0
100
AcDbLine
62
7
6
CONTINUOUS
10
-36.9717921415
20
-12.6665360000
11
-36.7717921415
21
-12.6665360000
0
LINE
5
30B
100
AcDbEntity
8
0
100
AcDbLine
62
7
6
CONTINUOUS
10
-36.9717921415
20
-12.6455830000
11
-36.7717921415
21
-12.6455830000
0
LINE
5
30C
100
AcDbEntity
8
0
100
AcDbLine
62
7
6
CONTINUOUS
10
-36.9717921415
20
-12.6252780000
11
-36.7717921415
21
-12.6252780000
0
LINE
5
30D
100
AcDbEntity
8
0
100
AcDbLine
62
7
6
CONTINUOUS
10
-36.9717921415
20
-12.6057860000
11
-36.7717921415
21
-12.6057860000
0
LINE
5
30E
100
AcDbEntity
8
0
100
AcDbLine
62
7
6
CONTINUOUS
10
-36.9717921415
20
-12.5872690000
11
-36.7717921415
21
-12.5872690000
0
LINE
5
30F
100
AcDbEntity
8
0
100
AcDbLine
62
7
6
CONTINUOUS
10
-36.9717921415
20
-12.5697260000
11
-36.7717921415
21
-12.5697260000
0
LINE
5
310
100
AcDbEntity
8
0
100
AcDbLine
62
7
6
CONTINUOUS
10
-36.9717921415
20
-12.5533210000
11
-36.7717921415
21
-12.5533210000
0
LINE
5
311
100
AcDbEntity
8
0
100
AcDbLine
62
7
6
CONTINUOUS
10
-36.9717921415
20
-12.5382140000
11
-36.7717921415
21
-12.5382140000
0
LINE
5
312
100
AcDbEntity
8
0
100
AcDbLine
62
7
6
CONTINUOUS
10
-36.9717921415
20
-12.5244080000
11
-36.7717921415
21
-12.5244080000
0
LINE
5
313
100
AcDbEntity
8
0
100
AcDbLine
62
7
6
CONTINUOUS
10
-36.9717921415
20
-12.5119000000
11
-36.7717921415
21
-12.5119000000
0
LINE
5
314
100
AcDbEntity
8
0
100
AcDbLine
62
7
6
CONTINUOUS
10
-36.9717921415
20
-12.5010170000
11
-36.7717921415
21
-12.5010170000
0
LINE
5
315
100
AcDbEntity
8
0
100
AcDbLine
62
7
6
CONTINUOUS
10
-36.9717921415
20
-12.4917590000
11
-36.7717921415
21
-12.4917590000
0
LINE
5
316
100
AcDbEntity
8
0
100
AcDbLine
62
7
6
CONTINUOUS
10
-36.9717921415
20
-12.3704210000
11
-36.7717921415
21
-12.3704210000
0
LINE
5
317
100
AcDbEntity
8
0
100
AcDbLine
62
7
6
CONTINUOUS
10
-27.2717921415
20
-11.5000000000
11
-27.9717921415
21
-11.5000000000
0
LINE
5
318
100
AcDbEntity
8
0
100
AcDbLine
62
7
6
CONTINUOUS
10
-35.9892445479
20
-8.2328495680
11
-28.9543397350
21
-8.1100548477
0
LINE
5
319
100
AcDbEntity
8
0
100
AcDbLine
62
7
6
CONTINUOUS
10
-36.9717639612
20
-9.2251899500
11
-36.7717921415
21
-9.2251899500
0
LINE
5
31A
100
AcDbEntity
8
0
100
AcDbLine
62
9
6
CONTINUOUS
10
-38.0034667932
20
-9.1851879316
11
-36.9717921417
21
-9.1851925970
0
LINE
5
31B
100
AcDbEntity
8
0
100
AcDbLine
62
7
6
CONTINUOUS
10
-50.1717921415
20
22.7070775004
11
-50.1717921415
21
23.5000000000
0
LINE
5
31C
100
AcDbEntity
8
0
100
AcDbLine
62
7
6
CONTINUOUS
10
-50.1717921415
20
22.6631666220
11
-50.1717921415
21
-23.5000000000
0
LINE
5
31D
100
AcDbEntity
8
0
100
AcDbLine
62
9
6
CONTINUOUS
10
-35.9937321226
20
-6.7331563561
11
-28.9543397350
21
-6.6102833050
0
LINE
5
31E
100
AcDbEntity
8
0
100
AcDbLine
62
9
6
CONTINUOUS
10
-27.9717921415
20
-6.6102833050
11
-28.9543397350
21
-6.6102833024
0
LINE
5
31F
100
AcDbEntity
8
0
100
AcDbLine
62
7
6
CONTINUOUS
10
-27.2717921415
20
-5.5000000000
11
-27.9717921415
21
-5.5000000000
0
LINE
5
320
100
AcDbEntity
8
0
100
AcDbLine
62
7
6
CONTINUOUS
10
-48.4717921415
20
-18.9641824510
11
-48.4717921415
21
-18.2843599490
0
LINE
5
321
100
AcDbEntity
8
0
100
AcDbLine
62
7
6
CONTINUOUS
10
-48.4717921415
20
-18.2203195549
11
-48.4717921415
21
18.9641824510
0
LINE
5
322
100
AcDbEntity
8
0
100
AcDbLine
62
9
6
CONTINUOUS
10
-44.7984606877
20
18.9358817610
11
-44.7611964856
21
19.1472175530
0
LINE
5
323
100
AcDbEntity
8
0
100
AcDbLine
62
7
6
CONTINUOUS
10
-43.8035486215
20
18.9185155063
11
-43.7616842484
21
19.1559401641
0
LINE
5
324
100
AcDbEntity
8
0
100
AcDbLine
62
7
6
CONTINUOUS
10
-27.2717921415
20
-3.8000000000
11
-28.0149250720
21
-3.8000000000
0
LINE
5
325
100
AcDbEntity
8
0
100
AcDbLine
62
9
6
CONTINUOUS
10
-44.7961550921
20
-19.1469124738
11
-44.8332584002
21
-18.9364891573
0
LINE
5
326
100
AcDbEntity
8
0
100
AcDbLine
62
7
6
CONTINUOUS
10
-43.7616842484
20
-19.1559401641
11
-43.8035486215
21
-18.9185155063
0
LINE
5
327
100
AcDbEntity
8
0
100
AcDbLine
62
7
6
CONTINUOUS
10
-46.6717921415
20
19.1305440373
11
-46.6717921415
21
18.9685808831
0
LINE
5
328
100
AcDbEntity
8
0
100
AcDbLine
62
7
6
CONTINUOUS
10
-46.1717921415
20
23.4301797403
11
-46.1717921415
21
21.2139629885
0
LINE
5
329
100
AcDbEntity
8
0
100
AcDbLine
62
7
6
CONTINUOUS
10
-46.1717921415
20
-21.2139629885
11
-46.1717921415
21
-23.4301797403
0
LINE
5
32A
100
AcDbEntity
8
0
100
AcDbLine
62
9
6
CONTINUOUS
10
-26.9717921415
20
-3.5000000000
11
-28.1647735964
21
-3.5000000000
0
LINE
5
32B
100
AcDbEntity
8
0
100
AcDbLine
62
7
6
CONTINUOUS
10
-44.5543344172
20
21.1998476487
11
-44.5717921415
21
22.2000000000
0
LINE
5
32C
100
AcDbEntity
8
0
100
AcDbLine
62
7
6
CONTINUOUS
10
-44.5543344172
20
-21.1998476487
11
-44.5717921415
21
-22.2000000000
0
LINE
5
32D
100
AcDbEntity
8
0
100
AcDbLine
62
9
6
CONTINUOUS
10
-26.9717921415
20
1.9000000000
11
-28.1647735964
21
1.9000000000
0
LINE
5
32E
100
AcDbEntity
8
0
100
AcDbLine
62
7
6
CONTINUOUS
10
-40.1717921415
20
19.9483339502
11
-40.1717921415
21
19.1872686779
0
LINE
5
32F
100
AcDbEntity
8
0
100
AcDbLine
62
7
6
CONTINUOUS
10
-40.1717921415
20
-19.1872686779
11
-40.1717921415
21
-19.9483339502
0
LINE
5
330
100
AcDbEntity
8
0
100
AcDbLine
62
7
6
CONTINUOUS
10
-27.2717921415
20
2.2000000000
11
-28.0149250720
21
2.2000000000
0
LINE
5
331
100
AcDbEntity
8
0
100
AcDbLine
62
9
6
CONTINUOUS
10
-38.0034671147
20
-15.3176090846
11
-38.0034667932
21
-9.1851879316
0
LINE
5
332
100
AcDbEntity
8
0
100
AcDbLine
62
7
6
CONTINUOUS
10
-27.2717921415
20
5.5000000000
11
-27.9717921415
21
5.5000000000
0
LINE
5
333
100
AcDbEntity
8
0
100
AcDbLine
62
7
6
CONTINUOUS
10
-36.9717921415
20
-17.7674346271
11
-36.9717921415
21
-9.1852724052
0
LINE
5
334
100
AcDbEntity
8
0
100
AcDbLine
62
7
6
CONTINUOUS
10
-36.9717921415
20
16.9826971015
11
-36.9717921415
21
17.7674346271
0
LINE
5
335
100
AcDbEntity
8
0
100
AcDbLine
62
7
6
CONTINUOUS
10
-36.7717921415
20
17.2436360000
11
-36.7717921415
21
17.0987590000
0
LINE
5
336
100
AcDbEntity
8
0
100
AcDbLine
62
7
6
CONTINUOUS
10
-36.7717921415
20
16.9102745793
11
-36.7717921415
21
16.3828734971
0
LINE
5
337
100
AcDbEntity
8
0
100
AcDbLine
62
7
6
CONTINUOUS
10
-36.7717921415
20
-9.2251899500
11
-36.7717921415
21
-13.6003640000
0
LINE
5
338
100
AcDbEntity
8
0
100
AcDbLine
62
7
6
CONTINUOUS
10
-36.7717921415
20
-14.0075830000
11
-36.7717921415
21
-15.9057600000
0
LINE
5
339
100
AcDbEntity
8
0
100
AcDbLine
62
7
6
CONTINUOUS
10
-36.7717921415
20
-15.9101460000
11
-36.7717921415
21
-16.6937380000
0
LINE
5
33A
100
AcDbEntity
8
0
100
AcDbLine
62
7
6
CONTINUOUS
10
-36.7717921415
20
-16.6956870000
11
-36.7717921415
21
-16.7743050000
0
LINE
5
33B
100
AcDbEntity
8
0
100
AcDbLine
62
9
6
CONTINUOUS
10
-35.9892445479
20
-14.4830780252
11
-35.9892445479
21
-8.2328495680
0
LINE
5
33C
100
AcDbEntity
8
0
100
AcDbLine
62
7
6
CONTINUOUS
10
-27.2717921415
20
11.5000000000
11
-27.9717921415
21
11.5000000000
0
LINE
5
33D
100
AcDbEntity
8
0
100
AcDbLine
62
9
6
CONTINUOUS
10
-28.9543397350
20
14.3602833050
11
-28.9543397350
21
-6.6102833050
0
LINE
5
33E
100
AcDbEntity
8
0
100
AcDbLine
62
9
6
CONTINUOUS
10
-28.9543397350
20
-8.1100548477
11
-28.9543397350
21
-14.3602833050
0
LINE
5
33F
100
AcDbEntity
8
0
100
AcDbLine
62
7
6
CONTINUOUS
10
-28.1647735964
20
1.9000000000
11
-28.1647735964
21
-3.5000000000
0
LINE
5
340
100
AcDbEntity
8
0
100
AcDbLine
62
7
6
CONTINUOUS
10
-27.9717921415
20
14.8602071525
11
-27.9717921415
21
10.2872983794
0
LINE
5
341
100
AcDbEntity
8
0
100
AcDbLine
62
7
6
CONTINUOUS
10
-27.9717921415
20
6.7127016206
11
-27.9717921415
21
2.2000000000
0
LINE
5
342
100
AcDbEntity
8
0
100
AcDbLine
62
7
6
CONTINUOUS
10
-27.9717921415
20
-3.8000000000
11
-27.9717921415
21
-7.1102071525
0
LINE
5
343
100
AcDbEntity
8
0
100
AcDbLine
62
7
6
CONTINUOUS
10
-27.9717921415
20
-9.9787895796
11
-27.9717921415
21
-14.8602071525
0
LINE
5
344
100
AcDbEntity
8
0
100
AcDbLine
62
9
6
CONTINUOUS
10
-27.9717921415
20
14.3602833050
11
-28.9543397350
21
14.3602833050
0
LINE
5
345
100
AcDbEntity
8
0
100
AcDbLine
62
9
6
CONTINUOUS
10
-35.9935543089
20
14.4831532524
11
-28.9543397350
21
14.3602833050
0
LINE
5
346
100
AcDbEntity
8
0
100
AcDbLine
62
9
6
CONTINUOUS
10
-37.2937832252
20
15.3054201956
11
-48.4717921415
21
15.5005330670
0
LINE
5
347
100
AcDbEntity
8
0
100
AcDbLine
62
9
6
CONTINUOUS
10
-27.2717921415
20
11.5000000000
11
-27.2717921415
21
5.5000000000
0
LINE
5
348
100
AcDbEntity
8
0
100
AcDbLine
62
9
6
CONTINUOUS
10
-27.2717921415
20
2.2000000000
11
-27.2717921415
21
-3.8000000000
0
LINE
5
349
100
AcDbEntity
8
0
100
AcDbLine
62
9
6
CONTINUOUS
10
-27.2717921415
20
-5.5000000000
11
-27.2717921415
21
-11.5000000000
0
LINE
5
34A
100
AcDbEntity
8
0
100
AcDbLine
62
7
6
CONTINUOUS
10
-26.9717921415
20
11.2000000000
11
-26.9717921415
21
5.8000000000
0
LINE
5
34B
100
AcDbEntity
8
0
100
AcDbLine
62
7
6
CONTINUOUS
10
-26.9717921415
20
1.9000000000
11
-26.9717921415
21
-3.5000000000
0
LINE
5
34C
100
AcDbEntity
8
0
100
AcDbLine
62
7
6
CONTINUOUS
10
-26.9717921415
20
-5.8000000000
11
-26.9717921415
21
-11.2000000000
0
LINE
5
34D
100
AcDbEntity
8
0
100
AcDbLine
62
9
6
CONTINUOUS
10
-36.8409746566
20
16.4901990000
11
-36.7717921415
21
16.4901990000
0
LINE
5
34E
100
AcDbEntity
8
0
100
AcDbLine
62
7
6
CONTINUOUS
10
-36.9717921415
20
16.9102745793
11
-36.7717921415
21
16.9102745793
0
LINE
5
34F
100
AcDbEntity
8
0
100
AcDbLine
62
7
6
CONTINUOUS
10
-36.9717921415
20
17.0987590000
11
-36.7717921415
21
17.0987590000
0
LINE
5
350
100
AcDbEntity
8
0
100
AcDbLine
62
7
6
CONTINUOUS
10
-36.9717921415
20
17.2436360000
11
-36.7717921415
21
17.2436360000
0
LINE
5
351
100
AcDbEntity
8
0
100
AcDbLine
62
9
6
CONTINUOUS
10
-50.1717921415
20
17.1673849704
11
-48.4717921415
21
17.1575153665
0
LINE
5
352
100
AcDbEntity
8
0
100
AcDbLine
62
9
6
CONTINUOUS
10
-50.1717921415
20
16.5543574599
11
-48.4717921415
21
16.5441903035
0
LINE
5
353
100
AcDbEntity
8
0
100
AcDbLine
62
7
6
CONTINUOUS
10
-35.9892445479
20
15.9828495680
11
-28.9543397350
21
15.8600548477
0
LINE
5
354
100
AcDbEntity
8
0
100
AcDbLine
62
7
6
CONTINUOUS
10
-44.0641184617
20
-22.1955695989
11
-40.1717921415
21
-19.9483339502
0
LINE
5
355
100
AcDbEntity
8
0
100
AcDbLine
62
7
6
CONTINUOUS
10
-40.1717921415
20
19.1872686779
11
-50.1717921415
21
19.1000000000
0
LINE
5
356
100
AcDbEntity
8
0
100
AcDbLine
62
7
6
CONTINUOUS
10
-38.0034671147
20
18.8172747070
11
-47.7717921415
21
18.9877814546
0
LINE
5
357
100
AcDbEntity
8
0
100
AcDbLine
62
7
6
CONTINUOUS
10
-48.4717921415
20
18.2203502372
11
-50.1717921415
21
18.3006924199
0
LINE
5
358
100
AcDbEntity
8
0
100
AcDbLine
62
7
6
CONTINUOUS
10
-44.0641184617
20
22.1955695989
11
-40.1717921415
21
19.9483339502
0
LINE
5
359
100
AcDbEntity
8
0
100
AcDbLine
62
7
6
CONTINUOUS
10
-50.1717921415
20
20.9000000000
11
-41.7052229341
21
20.8336606310
0
LINE
5
35A
100
AcDbEntity
8
0
100
AcDbLine
62
7
6
CONTINUOUS
10
-46.1717921415
20
21.2139629885
11
-42.3054852476
21
21.1802222394
0
LINE
5
35B
100
AcDbEntity
8
0
100
AcDbLine
62
9
6
CONTINUOUS
10
-58.7389954435
20
20.9972959167
11
-59.2298272573
21
21.0183142302
0
LINE
5
35C
100
AcDbEntity
8
0
100
AcDbLine
62
9
6
CONTINUOUS
10
-50.1717921415
20
21.8997711479
11
-58.2656053865
21
21.4755923698
0
LINE
5
35D
100
AcDbEntity
8
0
100
AcDbLine
62
7
6
CONTINUOUS
10
-50.1717921415
20
22.4000000000
11
-58.2830471614
21
21.9749071372
0
LINE
5
35E
100
AcDbEntity
8
0
100
AcDbLine
62
7
6
CONTINUOUS
10
-44.5717921415
20
22.2000000000
11
-44.0641184617
21
22.1955695989
0
LINE
5
35F
100
AcDbEntity
8
0
100
AcDbLine
62
7
6
CONTINUOUS
10
-50.1717921415
20
23.5000000000
11
-46.1717921415
21
23.4301797403
0
ARC
5
360
100
AcDbEntity
8
0
100
AcDbCircle
62
7
6
CONTINUOUS
10
0.0000000000
20
-1.3000000000
40
3.0000001857
100
AcDbArc
50
47.1665719517
51
133.7969081484
0
ARC
5
361
100
AcDbEntity
8
0
100
AcDbCircle
62
7
6
CONTINUOUS
10
0.0000000000
20
1.3000000000
40
3.0000001857
100
AcDbArc
50
226.2030918516
51
312.8334280483
0
ARC
5
362
100
AcDbEntity
8
0
100
AcDbCircle
62
9
6
CONTINUOUS
10
0.0000000000
20
1.3000000000
40
3.2339557425
100
AcDbArc
50
237.4041776169
51
302.5266074564
0
ARC
5
363
100
AcDbEntity
8
0
100
AcDbCircle
62
9
6
CONTINUOUS
10
0.0000000000
20
-1.3000000000
40
3.2339557425
100
AcDbArc
50
57.4733925436
51
122.5958223831
0
ARC
5
364
100
AcDbEntity
8
0
100
AcDbCircle
62
7
6
CONTINUOUS
10
0.0000000000
20
10.9400000000
40
2.9993908270
100
AcDbArc
50
312.5064100202
51
312.8334280663
0
ARC
5
365
100
AcDbEntity
8
0
100
AcDbCircle
62
7
6
CONTINUOUS
10
0.0000000000
20
-10.9400000000
40
2.9993908270
100
AcDbArc
50
132.5064100202
51
132.8334280663
0
ARC
5
366
100
AcDbEntity
8
0
100
AcDbCircle
62
7
6
CONTINUOUS
10
2.7500000000
20
-0.8000000000
40
1.7500000000
100
AcDbArc
50
152.4157031055
51
202.7321089724
0
ARC
5
367
100
AcDbEntity
8
0
100
AcDbCircle
62
7
6
CONTINUOUS
10
11.2500000000
20
-0.0000000000
40
28.0000000000
100
AcDbArc
50
125.9627651514
51
126.8698976458
0
ARC
5
368
100
AcDbEntity
8
0
100
AcDbCircle
62
7
6
CONTINUOUS
10
11.2500000000
20
-0.0000000000
40
28.0000000000
100
AcDbArc
50
122.9352304972
51
124.1210936517
0
ARC
5
369
100
AcDbEntity
8
0
100
AcDbCircle
62
7
6
CONTINUOUS
10
-11.2500000000
20
-0.0000000000
40
28.0000000000
100
AcDbArc
50
53.1301023542
51
54.0372348486
0
ARC
5
36A
100
AcDbEntity
8
0
100
AcDbCircle
62
7
6
CONTINUOUS
10
-11.2500000000
20
-0.0000000000
40
28.0000000000
100
AcDbArc
50
55.8789063483
51
57.0647695028
0
ARC
5
36B
100
AcDbEntity
8
0
100
AcDbCircle
62
7
6
CONTINUOUS
10
-11.2500000000
20
-0.0000000000
40
28.0000000000
100
AcDbArc
50
305.9627651514
51
306.8698976458
0
ARC
5
36C
100
AcDbEntity
8
0
100
AcDbCircle
62
7
6
CONTINUOUS
10
-11.2500000000
20
-0.0000000000
40
28.0000000000
100
AcDbArc
50
302.9352304972
51
304.1210936517
0
ARC
5
36D
100
AcDbEntity
8
0
100
AcDbCircle
62
7
6
CONTINUOUS
10
11.2500000000
20
-0.0000000000
40
28.0000000000
100
AcDbArc
50
233.1301023542
51
234.0372348486
0
ARC
5
36E
100
AcDbEntity
8
0
100
AcDbCircle
62
7
6
CONTINUOUS
10
11.2500000000
20
-0.0000000000
40
28.0000000000
100
AcDbArc
50
235.8789063483
51
237.0647695028
0
ARC
5
36F
100
AcDbEntity
8
0
100
AcDbCircle
62
7
6
CONTINUOUS
10
4.9500000000
20
23.1000000000
40
0.5000000000
100
AcDbArc
50
170.8037184210
51
299.1124227760
0
ARC
5
370
100
AcDbEntity
8
0
100
AcDbCircle
62
7
6
CONTINUOUS
10
4.9500000000
20
-23.1000000000
40
0.5000000000
100
AcDbArc
50
60.8875772240
51
189.1962815790
0
ARC
5
371
100
AcDbEntity
8
0
100
AcDbCircle
62
7
6
CONTINUOUS
10
-4.9500000000
20
23.1000000000
40
0.5000000000
100
AcDbArc
50
240.8875772240
51
9.1962815790
0
ARC
5
372
100
AcDbEntity
8
0
100
AcDbCircle
62
7
6
CONTINUOUS
10
-4.9500000000
20
-23.1000000000
40
0.5000000000
100
AcDbArc
50
350.8037184210
51
119.1124227760
0
CIRCLE
5
373
100
AcDbEntity
8
0
100
AcDbCircle
62
7
6
CONTINUOUS
10
0.0000000000
20
-0.0000000000
40
2.2500000000
0
CIRCLE
5
374
100
AcDbEntity
8
0
100
AcDbCircle
62
7
6
CONTINUOUS
10
0.0000000000
20
9.5000000000
40
2.2500000000
0
CIRCLE
5
375
100
AcDbEntity
8
0
100
AcDbCircle
62
7
6
CONTINUOUS
10
0.0000000000
20
-9.5000000000
40
2.2500000000
0
ARC
5
376
100
AcDbEntity
8
0
100
AcDbCircle
62
7
6
CONTINUOUS
10
-27.2717921415
20
-11.2000000000
40
0.3000000000
100
AcDbArc
50
270.0000000000
51
360.0000000000
0
ARC
5
377
100
AcDbEntity
8
0
100
AcDbCircle
62
7
6
CONTINUOUS
10
-27.2717921415
20
-5.8000000000
40
0.3000000000
100
AcDbArc
50
0.0000000000
51
90.0000000000
0
ARC
5
378
100
AcDbEntity
8
0
100
AcDbCircle
62
7
6
CONTINUOUS
10
-27.2717921415
20
5.8000000000
40
0.3000000000
100
AcDbArc
50
270.0000000000
51
360.0000000000
0
ARC
5
379
100
AcDbEntity
8
0
100
AcDbCircle
62
7
6
CONTINUOUS
10
-27.2717921415
20
11.2000000000
40
0.3000000000
100
AcDbArc
50
0.0000000000
51
90.0000000000
0
ARC
5
37A
100
AcDbEntity
8
0
100
AcDbCircle
62
7
6
CONTINUOUS
10
-48.2717921415
20
-18.9171572875
40
0.2000000000
100
AcDbArc
50
193.5721786347
51
225.0000000000
0
ARC
5
37B
100
AcDbEntity
8
0
100
AcDbCircle
62
7
6
CONTINUOUS
10
-48.2717921415
20
18.9171572875
40
0.2000000000
100
AcDbArc
50
135.0000000000
51
166.4241492511
0
ARC
5
37C
100
AcDbEntity
8
0
100
AcDbCircle
62
7
6
CONTINUOUS
10
-27.2717921415
20
-3.5000000000
40
0.3000000000
100
AcDbArc
50
270.0000000000
51
360.0000000000
0
ARC
5
37D
100
AcDbEntity
8
0
100
AcDbCircle
62
7
6
CONTINUOUS
10
-27.2717921415
20
1.9000000000
40
0.3000000000
100
AcDbArc
50
0.0000000000
51
90.0000000000
0
ARC
5
37E
100
AcDbEntity
8
0
100
AcDbCircle
62
7
6
CONTINUOUS
10
-38.0217921415
20
-17.7674287675
40
1.0500000000
100
AcDbArc
50
270.9999944198
51
359.9996802581
0
ARC
5
37F
100
AcDbEntity
8
0
100
AcDbCircle
62
7
6
CONTINUOUS
10
-38.0217921415
20
17.7674287675
40
1.0500000000
100
AcDbArc
50
0.0003197419
51
89.0000055802
0
ARC
5
380
100
AcDbEntity
8
0
100
AcDbCircle
62
7
6
CONTINUOUS
10
-28.9717921415
20
-7.1102071525
40
1.0000000000
100
AcDbArc
50
271.0000000000
51
360.0000000000
0
ARC
5
381
100
AcDbEntity
8
0
100
AcDbCircle
62
7
6
CONTINUOUS
10
-28.9717921415
20
-14.8602017443
40
1.0000000000
100
AcDbArc
50
270.9999945923
51
359.9996901303
0
ARC
5
382
100
AcDbEntity
8
0
100
AcDbCircle
62
7
6
CONTINUOUS
10
-28.9717921415
20
14.8602071525
40
1.0000000000
100
AcDbArc
50
0.0000000000
51
89.0000000000
0
ARC
5
383
100
AcDbEntity
8
0
100
AcDbCircle
62
7
6
CONTINUOUS
10
-35.9717921415
20
-16.9826791378
40
0.9999927510
100
AcDbArc
50
91.0000181247
51
143.1962549646
0
ARC
5
384
100
AcDbEntity
8
0
100
AcDbCircle
62
7
6
CONTINUOUS
10
-35.9717921415
20
-16.9826791378
40
0.9999927510
100
AcDbArc
50
168.1341807008
51
180.0010385037
0
ARC
5
385
100
AcDbEntity
8
0
100
AcDbCircle
62
7
6
CONTINUOUS
10
-35.9717921415
20
-9.2326972631
40
1.0000000000
100
AcDbArc
50
91.0000000000
51
177.2851845145
0
ARC
5
386
100
AcDbEntity
8
0
100
AcDbCircle
62
7
6
CONTINUOUS
10
-35.9717921415
20
16.9826791378
40
0.9999927510
100
AcDbArc
50
179.9989614963
51
268.9975965216
0
ARC
5
387
100
AcDbEntity
8
0
100
AcDbCircle
62
7
6
CONTINUOUS
10
-58.2307112052
20
20.9762776025
40
1.0000000000
100
AcDbArc
50
93.0000000000
51
177.5907686986
0
ARC
5
388
100
AcDbEntity
8
0
100
AcDbCircle
62
7
6
CONTINUOUS
10
440.3282078585
20
-0.0000000000
40
500.0000000000
100
AcDbArc
50
177.5907686986
51
182.4092313014
0
ARC
5
389
100
AcDbEntity
8
0
100
AcDbCircle
62
7
6
CONTINUOUS
10
-58.2307112052
20
-20.9762776025
40
1.0000000000
100
AcDbArc
50
182.4092313014
51
267.0000000000
0
SPLINE
5
38A
100
AcDbEntity
8
0
100
AcDbSpline
62
9
6
CONTINUOUS
70
0
71
3
72
8
73
4
74
2
42
0.0000001000
43
0.0000001000
44
0.0000000001
12
-0.0292605735
22
0.0257368979
32
0.0000000000
13
-0.0285494516
23
0.0264879541
33
0.0000000000
40
0.0000000000
40
0.0000000000
40
0.0000000000
40
0.0000000000
40
1.0000000000
40
1.0000000000
40
1.0000000000
40
1.0000000000
10
2.0701766806
20
0.8756785133
30
0.0000000000
10
2.0604231561
20
0.8842574793
30
0.0000000000
10
2.0507859341
20
0.8929630127
30
0.0000000000
10
2.0412694502
20
0.9017923308
30
0.0000000000
11
2.0701766806
21
0.8756785133
31
0.0000000000
11
2.0412694502
21
0.9017923308
31
0.0000000000
0
SPLINE
5
38B
100
AcDbEntity
8
0
100
AcDbSpline
62
9
6
CONTINUOUS
70
0
71
3
72
8
73
4
74
2
42
0.0000001000
43
0.0000001000
44
0.0000000001
12
-0.0292605735
22
-0.0257368979
32
0.0000000000
13
-0.0285494516
23
-0.0264879541
33
0.0000000000
40
0.0000000000
40
0.0000000000
40
0.0000000000
40
0.0000000000
40
1.0000000000
40
1.0000000000
40
1.0000000000
40
1.0000000000
10
2.0701766806
20
-0.8756785133
30
0.0000000000
10
2.0604231561
20
-0.8842574793
30
0.0000000000
10
2.0507859341
20
-0.8929630127
30
0.0000000000
10
2.0412694502
20
-0.9017923308
30
0.0000000000
11
2.0701766806
21
-0.8756785133
31
0.0000000000
11
2.0412694502
21
-0.9017923308
31
0.0000000000
0
SPLINE
5
38C
100
AcDbEntity
8
0
100
AcDbSpline
62
9
6
CONTINUOUS
70
0
71
3
72
10
73
6
74
4
42
0.0000001000
43
0.0000001000
44
0.0000000001
12
3.6804913275
22
0.3613022176
32
0.0000000000
13
3.6847032888
23
0.3154763066
33
0.0000000000
40
0.0000000000
40
0.0000000000
40
0.0000000000
40
0.0000000000
40
0.3317015695
40
0.6754806576
40
1.0000000000
40
1.0000000000
40
1.0000000000
40
1.0000000000
10
-1.9598231390
20
-8.3962232017
30
0.0000000000
10
-1.5528815557
20
-8.3562750308
30
0.0000000000
10
-0.7240891644
20
-8.2758540452
30
0.0000000000
10
0.5033145176
20
-8.1613715470
30
0.0000000000
10
1.3239503367
20
-8.0888431651
30
0.0000000000
10
1.7225361660
20
-8.0547171106
30
0.0000000000
11
-1.9598231390
21
-8.3962232017
31
0.0000000000
11
-0.7388367301
21
-8.2780371517
31
0.0000000000
11
0.5270502854
21
-8.1602198439
31
0.0000000000
11
1.7225361660
21
-8.0547171106
31
0.0000000000
0
SPLINE
5
38D
100
AcDbEntity
8
0
100
AcDbSpline
62
9
6
CONTINUOUS
70
0
71
3
72
10
73
6
74
4
42
0.0000001000
43
0.0000001000
44
0.0000000001
12
-3.6804915843
22
-0.3613023173
32
0.0000000000
13
-3.6847035584
23
-0.3154762774
33
0.0000000000
40
0.0000000000
40
0.0000000000
40
0.0000000000
40
0.0000000000
40
0.3314104428
40
0.6751931717
40
1.0000000000
40
1.0000000000
40
1.0000000000
40
1.0000000000
10
1.9598231203
20
8.3962231949
30
0.0000000000
10
1.5532386718
20
8.3563100746
30
0.0000000000
10
0.7247990396
20
8.2759224889
30
0.0000000000
10
-0.5026042976
20
8.1614353780
30
0.0000000000
10
-1.3235974924
20
8.0888733616
30
0.0000000000
10
-1.7225364510
20
8.0547170785
30
0.0000000000
11
1.9598231203
21
8.3962231949
31
0.0000000000
11
0.7399084200
21
8.2781391630
31
0.0000000000
11
-0.5259916576
21
8.1603159225
31
0.0000000000
11
-1.7225364510
21
8.0547170785
31
0.0000000000
0
SPLINE
5
38E
100
AcDbEntity
8
0
100
AcDbSpline
62
7
6
CONTINUOUS
70
0
71
3
72
15
73
11
74
9
42
0.0000001000
43
0.0000001000
44
0.0000000001
12
0.0000000000
22
0.7840504605
32
0.0000000000
13
0.7840504605
23
0.0000000000
33
0.0000000000
40
0.0000000000
40
0.0000000000
40
0.0000000000
40
0.0000000000
40
0.1250035856
40
0.2500003382
40
0.3749971738
40
0.4999931596
40
0.6249941993
40
0.7499962985
40
0.8749988330
40
1.0000000000
40
1.0000000000
40
1.0000000000
40
1.0000000000
10
-11.1500000000
20
21.8997711479
30
0.0000000000
10
-11.1500000000
20
21.9324408542
30
0.0000000000
10
-11.1435720625
20
21.9979588343
30
0.0000000000
10
-11.1150028885
20
22.0923353736
30
0.0000000000
10
-11.0685863853
20
22.1793736183
30
0.0000000000
10
-11.0060858443
20
22.2556795571
30
0.0000000000
10
-10.9298940235
20
22.3183228818
30
0.0000000000
10
-10.8429223671
20
22.3648787971
30
0.0000000000
10
-10.7485697898
20
22.3935479377
30
0.0000000000
10
-10.6830496739
20
22.4000000000
30
0.0000000000
10
-10.6503805997
20
22.4000000000
30
0.0000000000
11
-11.1500000000
21
21.8997711479
31
0.0000000000
11
-11.1404171274
21
21.9973106575
31
0.0000000000
11
-11.1120282390
21
22.0911126206
31
0.0000000000
11
-11.0659057104
21
22.1775849419
31
0.0000000000
11
-11.0038050670
21
22.2534013617
31
0.0000000000
11
-10.9280978412
21
22.3156413172
31
0.0000000000
11
-10.8416923200
21
22.3618976126
31
0.0000000000
11
-10.7479148288
21
22.3903828363
31
0.0000000000
11
-10.6503805997
21
22.4000000000
31
0.0000000000
0
SPLINE
5
38F
100
AcDbEntity
8
0
100
AcDbSpline
62
7
6
CONTINUOUS
70
0
71
3
72
15
73
11
74
9
42
0.0000001000
43
0.0000001000
44
0.0000000001
12
-0.7840504604
22
0.0000000000
32
0.0000000000
13
0.0000000000
23
0.7840504604
33
0.0000000000
40
0.0000000000
40
0.0000000000
40
0.0000000000
40
0.0000000000
40
0.1250026133
40
0.2500082844
40
0.3750136098
40
0.5000160060
40
0.6250106349
40
0.7500042447
40
0.8749978606
40
1.0000000000
40
1.0000000000
40
1.0000000000
40
1.0000000000
10
-10.6503805997
20
-22.4000000000
30
0.0000000000
10
-10.6830500519
20
-22.4000000000
30
0.0000000000
10
-10.7485713718
20
-22.3935477443
30
0.0000000000
10
-10.8429258085
20
-22.3648775487
30
0.0000000000
10
-10.9298988298
20
-22.3183198083
30
0.0000000000
10
-11.0060904776
20
-22.2556749149
30
0.0000000000
10
-11.0685894502
20
-22.1793688070
30
0.0000000000
10
-11.1150041327
20
-22.0923319310
30
0.0000000000
10
-11.1435722551
20
-21.9979572524
30
0.0000000000
10
-11.1500000000
20
-21.9324404763
30
0.0000000000
10
-11.1500000000
20
-21.8997711479
30
0.0000000000
11
-10.6503805997
21
-22.4000000000
31
0.0000000000
11
-10.7479159463
21
-22.3903826137
31
0.0000000000
11
-10.8416956551
21
-22.3618962291
31
0.0000000000
11
-10.9281029540
21
-22.3156378952
31
0.0000000000
11
-11.0038101683
21
-22.2533962508
31
0.0000000000
11
-11.0659091235
21
-22.1775798235
31
0.0000000000
11
-11.1120296181
21
-22.0911092838
31
0.0000000000
11
-11.1404173492
21
-21.9973095399
31
0.0000000000
11
-11.1500000000
21
-21.8997711479
31
0.0000000000
0
SPLINE
5
390
100
AcDbEntity
8
0
100
AcDbSpline
62
7
6
CONTINUOUS
70
0
71
3
72
15
73
11
74
9
42
0.0000001000
43
0.0000001000
44
0.0000000001
12
0.7840504604
22
0.0000000000
32
0.0000000000
13
0.0000000000
23
-0.7840504604
33
0.0000000000
40
0.0000000000
40
0.0000000000
40
0.0000000000
40
0.0000000000
40
0.1250026133
40
0.2500082844
40
0.3750136098
40
0.5000160060
40
0.6250106349
40
0.7500042447
40
0.8749978606
40
1.0000000000
40
1.0000000000
40
1.0000000000
40
1.0000000000
10
10.6503805997
20
22.4000000000
30
0.0000000000
10
10.6830500519
20
22.4000000000
30
0.0000000000
10
10.7485713718
20
22.3935477443
30
0.0000000000
10
10.8429258085
20
22.3648775487
30
0.0000000000
10
10.9298988298
20
22.3183198083
30
0.0000000000
10
11.0060904776
20
22.2556749149
30
0.0000000000
10
11.0685894502
20
22.1793688070
30
0.0000000000
10
11.1150041327
20
22.0923319310
30
0.0000000000
10
11.1435722551
20
21.9979572524
30
0.0000000000
10
11.1500000000
20
21.9324404763
30
0.0000000000
10
11.1500000000
20
21.8997711479
30
0.0000000000
11
10.6503805997
21
22.4000000000
31
0.0000000000
11
10.7479159463
21
22.3903826137
31
0.0000000000
11
10.8416956551
21
22.3618962291
31
0.0000000000
11
10.9281029540
21
22.3156378952
31
0.0000000000
11
11.0038101683
21
22.2533962508
31
0.0000000000
11
11.0659091235
21
22.1775798235
31
0.0000000000
11
11.1120296181
21
22.0911092838
31
0.0000000000
11
11.1404173492
21
21.9973095399
31
0.0000000000
11
11.1500000000
21
21.8997711479
31
0.0000000000
0
SPLINE
5
391
100
AcDbEntity
8
0
100
AcDbSpline
62
7
6
CONTINUOUS
70
0
71
3
72
15
73
11
74
9
42
0.0000001000
43
0.0000001000
44
0.0000000001
12
0.0000000000
22
-0.7840504605
32
0.0000000000
13
-0.7840504605
23
0.0000000000
33
0.0000000000
40
0.0000000000
40
0.0000000000
40
0.0000000000
40
0.0000000000
40
0.1250035856
40
0.2500003382
40
0.3749971738
40
0.4999931596
40
0.6249941993
40
0.7499962985
40
0.8749988330
40
1.0000000000
40
1.0000000000
40
1.0000000000
40
1.0000000000
10
11.1500000000
20
-21.8997711479
30
0.0000000000
10
11.1500000000
20
-21.9324408542
30
0.0000000000
10
11.1435720625
20
-21.9979588343
30
0.0000000000
10
11.1150028885
20
-22.0923353736
30
0.0000000000
10
11.0685863853
20
-22.1793736183
30
0.0000000000
10
11.0060858443
20
-22.2556795571
30
0.0000000000
10
10.9298940235
20
-22.3183228818
30
0.0000000000
10
10.8429223671
20
-22.3648787971
30
0.0000000000
10
10.7485697898
20
-22.3935479377
30
0.0000000000
10
10.6830496739
20
-22.4000000000
30
0.0000000000
10
10.6503805997
20
-22.4000000000
30
0.0000000000
11
11.1500000000
21
-21.8997711479
31
0.0000000000
11
11.1404171274
21
-21.9973106575
31
0.0000000000
11
11.1120282390
21
-22.0911126206
31
0.0000000000
11
11.0659057104
21
-22.1775849419
31
0.0000000000
11
11.0038050670
21
-22.2534013617
31
0.0000000000
11
10.9280978412
21
-22.3156413172
31
0.0000000000
11
10.8416923200
21
-22.3618976126
31
0.0000000000
11
10.7479148288
21
-22.3903828363
31
0.0000000000
11
10.6503805997
21
-22.4000000000
31
0.0000000000
0
SPLINE
5
392
100
AcDbEntity
8
0
100
AcDbSpline
62
9
6
CONTINUOUS
70
0
71
3
72
22
73
18
74
16
42
0.0000001000
43
0.0000001000
44
0.0000000001
12
7.1000978177
22
-0.0006059673
32
0.0000000000
13
-7.1000978226
23
-0.0005450197
33
0.0000000000
40
0.0000000000
40
0.0000000000
40
0.0000000000
40
0.0000000000
40
0.0664364754
40
0.1331977760
40
0.1998726493
40
0.2665301663
40
0.3332134843
40
0.3999137009
40
0.4666093822
40
0.5333178849
40
0.6000160731
40
0.6667175728
40
0.7334035789
40
0.8000584230
40
0.8667226345
40
0.9334926802
40
1.0000000000
40
1.0000000000
40
1.0000000000
40
1.0000000000
10
0.0000000000
20
-7.2350391045
30
0.0000000000
10
0.1572351580
20
-7.2350525240
30
0.0000000000
10
0.4734577275
20
-7.2681059434
30
0.0000000000
10
0.9265783080
20
-7.4150950856
30
0.0000000000
10
1.3398547722
20
-7.6534262558
30
0.0000000000
10
1.6943561888
20
-7.9723400086
30
0.0000000000
10
1.9748520439
20
-8.3580466579
30
0.0000000000
10
2.1690212373
20
-8.7937446061
30
0.0000000000
10
2.2683219634
20
-9.2603607855
30
0.0000000000
10
2.2683766779
20
-9.7374230549
30
0.0000000000
10
2.1691791773
20
-10.2040707309
30
0.0000000000
10
1.9750992642
20
-10.6398254669
30
0.0000000000
10
1.6946836112
20
-11.0255946789
30
0.0000000000
10
1.3402692144
20
-11.3445667421
30
0.0000000000
10
0.9270590044
20
-11.5829887748
30
0.0000000000
10
0.4738169367
20
-11.7301357429
30
0.0000000000
10
0.1574028255
20
-11.7632468898
30
0.0000000000
10
0.0000000000
20
-11.7632589724
30
0.0000000000
11
0.0000000000
21
-7.2350391045
31
0.0000000000
11
0.4691396725
21
-7.2841718183
31
0.0000000000
11
0.9200392864
21
-7.4303795221
31
0.0000000000
11
1.3301199163
21
-7.6668951896
31
0.0000000000
11
1.6819753268
21
-7.9834183232
31
0.0000000000
11
1.9604355822
21
-8.3663314234
31
0.0000000000
11
2.1532099128
21
-8.7988984589
31
0.0000000000
11
2.2517776233
21
-9.2620723901
31
0.0000000000
11
2.2518319339
21
-9.7357092835
31
0.0000000000
11
2.1533649162
21
-10.1989228286
31
0.0000000000
11
1.9606817932
21
-10.6315404719
31
0.0000000000
11
1.6822919405
21
-11.0145283551
31
0.0000000000
11
1.3305181030
21
-11.3311137760
31
0.0000000000
11
0.9205584302
21
-11.5676876206
31
0.0000000000
11
0.4696344424
21
-11.7140214152
31
0.0000000000
11
0.0000000000
21
-11.7632589724
31
0.0000000000
0
SPLINE
5
393
100
AcDbEntity
8
0
100
AcDbSpline
62
9
6
CONTINUOUS
70
0
71
3
72
22
73
18
74
16
42
0.0000001000
43
0.0000001000
44
0.0000000001
12
-7.1000978177
22
0.0006059673
32
0.0000000000
13
7.1000978226
23
0.0005450197
33
0.0000000000
40
0.0000000000
40
0.0000000000
40
0.0000000000
40
0.0000000000
40
0.0664364754
40
0.1331977760
40
0.1998726493
40
0.2665301663
40
0.3332134843
40
0.3999137009
40
0.4666093822
40
0.5333178849
40
0.6000160731
40
0.6667175728
40
0.7334035789
40
0.8000584230
40
0.8667226345
40
0.9334926802
40
1.0000000000
40
1.0000000000
40
1.0000000000
40
1.0000000000
10
0.0000000000
20
7.2350391045
30
0.0000000000
10
-0.1572351580
20
7.2350525240
30
0.0000000000
10
-0.4734577275
20
7.2681059434
30
0.0000000000
10
-0.9265783080
20
7.4150950856
30
0.0000000000
10
-1.3398547722
20
7.6534262558
30
0.0000000000
10
-1.6943561888
20
7.9723400086
30
0.0000000000
10
-1.9748520439
20
8.3580466579
30
0.0000000000
10
-2.1690212373
20
8.7937446061
30
0.0000000000
10
-2.2683219634
20
9.2603607855
30
0.0000000000
10
-2.2683766779
20
9.7374230549
30
0.0000000000
10
-2.1691791773
20
10.2040707309
30
0.0000000000
10
-1.9750992642
20
10.6398254669
30
0.0000000000
10
-1.6946836112
20
11.0255946789
30
0.0000000000
10
-1.3402692144
20
11.3445667421
30
0.0000000000
10
-0.9270590044
20
11.5829887748
30
0.0000000000
10
-0.4738169367
20
11.7301357429
30
0.0000000000
10
-0.1574028255
20
11.7632468898
30
0.0000000000
10
0.0000000000
20
11.7632589724
30
0.0000000000
11
0.0000000000
21
7.2350391045
31
0.0000000000
11
-0.4691396725
21
7.2841718183
31
0.0000000000
11
-0.9200392864
21
7.4303795221
31
0.0000000000
11
-1.3301199163
21
7.6668951896
31
0.0000000000
11
-1.6819753268
21
7.9834183232
31
0.0000000000
11
-1.9604355822
21
8.3663314234
31
0.0000000000
11
-2.1532099128
21
8.7988984589
31
0.0000000000
11
-2.2517776233
21
9.2620723901
31
0.0000000000
11
-2.2518319339
21
9.7357092835
31
0.0000000000
11
-2.1533649162
21
10.1989228286
31
0.0000000000
11
-1.9606817932
21
10.6315404719
31
0.0000000000
11
-1.6822919405
21
11.0145283551
31
0.0000000000
11
-1.3305181030
21
11.3311137760
31
0.0000000000
11
-0.9205584302
21
11.5676876206
31
0.0000000000
11
-0.4696344424
21
11.7140214152
31
0.0000000000
11
0.0000000000
21
11.7632589724
31
0.0000000000
0
SPLINE
5
394
100
AcDbEntity
8
0
100
AcDbSpline
62
9
6
CONTINUOUS
70
0
71
3
72
22
73
18
74
16
42
0.0000001000
43
0.0000001000
44
0.0000000001
12
7.1000978155
22
-0.0006057096
32
0.0000000000
13
-7.1000978205
23
-0.0005450628
33
0.0000000000
40
0.0000000000
40
0.0000000000
40
0.0000000000
40
0.0000000000
40
0.0664226548
40
0.1331719244
40
0.1998392191
40
0.2664937683
40
0.3331781549
40
0.3998807678
40
0.4665784059
40
0.5332868146
40
0.5999828834
40
0.6666818184
40
0.7333666600
40
0.8000242893
40
0.8666960185
40
0.9334782870
40
1.0000000000
40
1.0000000000
40
1.0000000000
40
1.0000000000
10
0.0000000000
20
11.7632589724
30
0.0000000000
10
0.1572024487
20
11.7632455615
30
0.0000000000
10
0.4733632249
20
11.7302055238
30
0.0000000000
10
0.9264160660
20
11.5832697294
30
0.0000000000
10
1.3396674702
20
11.3450044715
30
0.0000000000
10
1.6941869766
20
11.0261450812
30
0.0000000000
10
1.9747272280
20
10.6404690982
30
0.0000000000
10
2.1689486826
20
10.2047800109
30
0.0000000000
10
2.2682985839
20
9.7381636982
30
0.0000000000
10
2.2683999617
20
9.2611020584
30
0.0000000000
10
2.1692521542
20
8.7944557037
30
0.0000000000
10
1.9752253951
20
8.3586928622
30
0.0000000000
10
1.6948553545
20
7.9728934501
30
0.0000000000
10
1.3404602988
20
7.6538669015
30
0.0000000000
10
0.9272257150
20
7.4153780550
30
0.0000000000
10
0.4739146306
20
7.2681762217
30
0.0000000000
10
0.1574368898
20
7.2350511907
30
0.0000000000
10
0.0000000000
20
7.2350391045
30
0.0000000000
11
0.0000000000
21
11.7632589724
31
0.0000000000
11
0.4690431481
21
11.7141466952
31
0.0000000000
11
0.9198706473
21
11.5679935346
31
0.0000000000
11
1.3299267614
21
11.3315430661
31
0.0000000000
11
1.6818013449
21
11.0150727567
31
0.0000000000
11
1.9603093615
21
10.6321850126
31
0.0000000000
11
2.1531371748
21
10.1996231880
31
0.0000000000
11
2.2517544534
21
9.7364456031
31
0.0000000000
11
2.2518551035
21
9.2628093852
31
0.0000000000
11
2.1534381485
21
8.7996005844
31
0.0000000000
11
1.9608094598
21
8.3669786334
31
0.0000000000
11
1.6824683490
21
7.9839655461
31
0.0000000000
11
1.3307152769
21
7.6673274956
31
0.0000000000
11
0.9207320305
21
7.4306877146
31
0.0000000000
11
0.4697349611
21
7.2842979730
31
0.0000000000
11
0.0000000000
21
7.2350391045
31
0.0000000000
0
SPLINE
5
395
100
AcDbEntity
8
0
100
AcDbSpline
62
9
6
CONTINUOUS
70
0
71
3
72
22
73
18
74
16
42
0.0000001000
43
0.0000001000
44
0.0000000001
12
-7.1050404016
22
0.0006081475
32
0.0000000000
13
7.1050404067
23
0.0005454209
33
0.0000000000
40
0.0000000000
40
0.0000000000
40
0.0000000000
40
0.0000000000
40
0.0664997210
40
0.1332831804
40
0.1999518528
40
0.2666035386
40
0.3332731947
40
0.3999658810
40
0.4666586099
40
0.5333493397
40
0.6000201651
40
0.6667023984
40
0.7333826179
40
0.8000301158
40
0.8666950771
40
0.9334739780
40
1.0000000000
40
1.0000000000
40
1.0000000000
40
1.0000000000
10
0.0000000000
20
-2.2656859804
30
0.0000000000
10
-0.1574944015
20
-2.2656724999
30
0.0000000000
10
-0.4741421766
20
-2.2325428291
30
0.0000000000
10
-0.9277251186
20
-2.0852858368
30
0.0000000000
10
-1.3412476318
20
-1.8466697945
30
0.0000000000
10
-1.6958731171
20
-1.5274900492
30
0.0000000000
10
-1.9764444195
20
-1.1415094185
30
0.0000000000
10
-2.1706481759
20
-0.7055272657
30
0.0000000000
10
-2.2699292921
20
-0.2386364814
30
0.0000000000
10
-2.2699232335
20
0.2386412505
30
0.0000000000
10
-2.1706630724
20
0.7054550142
30
0.0000000000
10
-1.9765074541
20
1.1414003916
30
0.0000000000
10
-1.6959643104
20
1.5273912220
30
0.0000000000
10
-1.3413505863
20
1.8465925174
30
0.0000000000
10
-0.9278689706
20
2.0852197035
30
0.0000000000
10
-0.4742571666
20
2.2325233555
30
0.0000000000
10
-0.1575566914
20
2.2656738855
30
0.0000000000
10
0.0000000000
20
2.2656859804
30
0.0000000000
11
0.0000000000
21
-2.2656859804
31
0.0000000000
11
-0.4699082639
21
-2.2164254104
31
0.0000000000
11
-0.9212372188
21
-2.0699616095
31
0.0000000000
11
-1.3315037322
21
-1.8331968472
31
0.0000000000
11
-1.6834970962
21
-1.5163964162
31
0.0000000000
11
-1.9620137334
21
-1.1332368290
31
0.0000000000
11
-2.1548241387
21
-0.7003835266
31
0.0000000000
11
-2.2533820046
21
-0.2368919223
31
0.0000000000
11
-2.2533760645
21
0.2369484092
31
0.0000000000
11
-2.1548549519
21
0.7002887242
31
0.0000000000
11
-1.9621009413
21
1.1330858418
31
0.0000000000
11
-1.6835632848
21
1.5163229360
31
0.0000000000
11
-1.3316079569
21
1.8331211480
31
0.0000000000
11
-0.9213791262
21
2.0698984535
31
0.0000000000
11
-0.4700920714
21
2.2163864377
31
0.0000000000
11
0.0000000000
21
2.2656859804
31
0.0000000000
0
SPLINE
5
396
100
AcDbEntity
8
0
100
AcDbSpline
62
9
6
CONTINUOUS
70
0
71
3
72
22
73
18
74
16
42
0.0000001000
43
0.0000001000
44
0.0000000001
12
7.1050404016
22
-0.0006080967
32
0.0000000000
13
-7.1050404067
23
-0.0005454626
33
0.0000000000
40
0.0000000000
40
0.0000000000
40
0.0000000000
40
0.0000000000
40
0.0664982769
40
0.1332810868
40
0.1999497510
40
0.2666004886
40
0.3332714426
40
0.3999624782
40
0.4666524309
40
0.5333443014
40
0.6000191063
40
0.6667027930
40
0.7333813332
40
0.8000292386
40
0.8666938813
40
0.9334729687
40
1.0000000000
40
1.0000000000
40
1.0000000000
40
1.0000000000
10
0.0000000000
20
2.2656859804
30
0.0000000000
10
0.1574909814
20
2.2656725013
30
0.0000000000
10
0.4741337347
20
2.2325440807
30
0.0000000000
10
0.9277126722
20
2.0852911962
30
0.0000000000
10
1.3412334562
20
1.8466797889
30
0.0000000000
10
1.6958620439
20
1.5275024746
30
0.0000000000
10
1.9764345521
20
1.1415263325
30
0.0000000000
10
2.1706387185
20
0.7055527411
30
0.0000000000
10
2.2699251999
20
0.2386714434
30
0.0000000000
10
2.2699276062
20
-0.2386120073
30
0.0000000000
10
2.1706685783
20
-0.7054425057
30
0.0000000000
10
1.9765096868
20
-1.1413964025
30
0.0000000000
10
1.6959669606
20
-1.5273878007
30
0.0000000000
10
1.3413570940
20
-1.8465878215
30
0.0000000000
10
0.9278757275
20
-2.0852166578
30
0.0000000000
10
0.4742624337
20
-2.2325225463
30
0.0000000000
10
0.1575590818
20
-2.2656738844
30
0.0000000000
10
0.0000000000
20
-2.2656859804
30
0.0000000000
11
0.0000000000
21
2.2656859804
31
0.0000000000
11
0.4698981715
21
2.2164275499
31
0.0000000000
11
0.9212235540
21
2.0699676903
31
0.0000000000
11
1.3314915829
21
1.8332056706
31
0.0000000000
11
1.6834825125
21
1.5164126051
31
0.0000000000
11
1.9620074725
21
1.1332476676
31
0.0000000000
11
2.1548166234
21
0.7004066456
31
0.0000000000
11
2.2533773885
21
0.2369358241
31
0.0000000000
11
2.2533798288
21
-0.2369126121
31
0.0000000000
11
2.1548572900
21
-0.7002815303
31
0.0000000000
11
1.9620995314
21
-1.1330882831
31
0.0000000000
11
1.6835694275
21
-1.5163161165
31
0.0000000000
11
1.3316130275
21
-1.8331174650
31
0.0000000000
11
0.9213869312
21
-2.0698949795
31
0.0000000000
11
0.4700991250
21
-2.2163849418
31
0.0000000000
11
0.0000000000
21
-2.2656859804
31
0.0000000000
0
SPLINE
5
397
100
AcDbEntity
8
0
100
AcDbSpline
62
9
6
CONTINUOUS
70
0
71
3
72
22
73
18
74
16
42
0.0000001000
43
0.0000001000
44
0.0000000001
12
8.0480625880
22
-0.0013659661
32
0.0000000000
13
-8.0480626107
23
-0.0012248383
33
0.0000000000
40
0.0000000000
40
0.0000000000
40
0.0000000000
40
0.0000000000
40
0.0664300473
40
0.1332004336
40
0.1998658021
40
0.2665235011
40
0.3332123220
40
0.3999313447
40
0.4666552319
40
0.5333798511
40
0.6000828510
40
0.6667872545
40
0.7334768367
40
0.8001254304
40
0.8667811032
40
0.9335422242
40
1.0000000000
40
1.0000000000
40
1.0000000000
40
1.0000000000
10
0.0000000000
20
2.5671805973
30
0.0000000000
10
0.1782110595
20
2.5671503503
30
0.0000000000
10
0.5366642579
20
2.5296814667
30
0.0000000000
10
1.0502215571
20
2.3629062771
30
0.0000000000
10
1.5185759058
20
2.0925814109
30
0.0000000000
10
1.9202396241
20
1.7309127376
30
0.0000000000
10
2.2380366104
20
1.2935213879
30
0.0000000000
10
2.4580029686
20
0.7994421283
30
0.0000000000
10
2.5704434304
20
0.2703297944
30
0.0000000000
10
2.5704133033
20
-0.2705545180
30
0.0000000000
10
2.4579518072
20
-0.7995615094
30
0.0000000000
10
2.2380139214
20
-1.2935487680
30
0.0000000000
10
1.9202525067
20
-1.7308894581
30
0.0000000000
10
1.5186320626
20
-2.0925317579
30
0.0000000000
10
1.0503537490
20
-2.3628347395
30
0.0000000000
10
0.5367899338
20
-2.5296582805
30
0.0000000000
10
0.1782854469
20
-2.5671534640
30
0.0000000000
10
0.0000000000
20
-2.5671805973
30
0.0000000000
11
0.0000000000
21
2.5671805973
31
0.0000000000
11
0.5317207215
21
2.5114516269
31
0.0000000000
11
1.0428457684
21
2.3455597118
31
0.0000000000
11
1.5075108095
21
2.0773290418
31
0.0000000000
11
1.9061911104
21
1.7183735017
31
0.0000000000
11
2.2216750256
21
1.2841687545
31
0.0000000000
11
2.4400716719
21
0.7936305384
31
0.0000000000
11
2.5516976365
21
0.2683624865
31
0.0000000000
11
2.5516677841
21
-0.2686414321
31
0.0000000000
11
2.4400356958
21
-0.7937363242
31
0.0000000000
11
2.2216761687
21
-1.2841622767
31
0.0000000000
11
1.9061884508
21
-1.7183718338
31
0.0000000000
11
1.5075677929
21
-2.0772841002
31
0.0000000000
11
1.0429810429
21
-2.3454943122
31
0.0000000000
11
0.5319400879
21
-2.5114037687
31
0.0000000000
11
0.0000000000
21
-2.5671805973
31
0.0000000000
0
SPLINE
5
398
100
AcDbEntity
8
0
100
AcDbSpline
62
9
6
CONTINUOUS
70
0
71
3
72
22
73
18
74
16
42
0.0000001000
43
0.0000001000
44
0.0000000001
12
-8.0480625878
22
0.0013660804
32
0.0000000000
13
8.0480626106
23
0.0012247446
33
0.0000000000
40
0.0000000000
40
0.0000000000
40
0.0000000000
40
0.0000000000
40
0.0664314876
40
0.1332025272
40
0.1998679037
40
0.2665265535
40
0.3332140770
40
0.3999347511
40
0.4666614158
40
0.5333848893
40
0.6000839076
40
0.6667868646
40
0.7334781241
40
0.8001263062
40
0.8667822993
40
0.9335432284
40
1.0000000000
40
1.0000000000
40
1.0000000000
40
1.0000000000
10
0.0000000000
20
-2.5671805973
30
0.0000000000
10
-0.1782149233
20
-2.5671503471
30
0.0000000000
10
-0.5366738097
20
-2.5296800516
30
0.0000000000
10
-1.0502356464
20
-2.3629002122
30
0.0000000000
10
-1.5185919643
20
-2.0925700818
30
0.0000000000
10
-1.9202521757
20
-1.7308986524
30
0.0000000000
10
-2.2380477941
20
-1.2935022052
30
0.0000000000
10
-2.4580136859
20
-0.7994132410
30
0.0000000000
10
-2.5704480622
20
-0.2702901691
30
0.0000000000
10
-2.5704083476
20
0.2705876485
30
0.0000000000
10
-2.4579455723
20
0.7995756842
30
0.0000000000
10
-2.2380113894
20
1.2935533011
30
0.0000000000
10
-1.9202494893
20
1.7308933404
30
0.0000000000
10
-1.5186246919
20
2.0925370841
30
0.0000000000
10
-1.0503461089
20
2.3628381785
30
0.0000000000
10
-0.5367839814
20
2.5296591945
30
0.0000000000
10
-0.1782827530
20
2.5671534665
30
0.0000000000
10
0.0000000000
20
2.5671805973
30
0.0000000000
11
0.0000000000
21
-2.5671805973
31
0.0000000000
11
-0.5317321232
21
-2.5114492106
31
0.0000000000
11
-1.0428612467
21
-2.3455528235
31
0.0000000000
11
-1.5075245677
21
-2.0773190450
31
0.0000000000
11
-1.9062076398
21
-1.7183551470
31
0.0000000000
11
-2.2216821261
21
-1.2841564559
31
0.0000000000
11
-2.4400801891
21
-0.7936043220
31
0.0000000000
11
-2.5517028640
21
-0.2683127180
31
0.0000000000
11
-2.5516635194
21
0.2686819789
31
0.0000000000
11
-2.4400330542
21
0.7937444558
31
0.0000000000
11
-2.2216777477
21
1.2841595436
31
0.0000000000
11
-1.9061814773
21
1.7183795739
31
0.0000000000
11
-1.5075620609
21
2.0772882671
31
0.0000000000
11
-1.0429721997
21
2.3454982469
31
0.0000000000
11
-0.5319321387
21
2.5114054541
31
0.0000000000
11
0.0000000000
21
2.5671805973
31
0.0000000000
0
SPLINE
5
399
100
AcDbEntity
8
0
100
AcDbSpline
62
9
6
CONTINUOUS
70
0
71
3
72
22
73
18
74
16
42
0.0000001000
43
0.0000001000
44
0.0000000001
12
8.0431184598
22
-0.0013594336
32
0.0000000000
13
-8.0431184813
23
-0.0012254816
33
0.0000000000
40
0.0000000000
40
0.0000000000
40
0.0000000000
40
0.0000000000
40
0.0663575220
40
0.1330970021
40
0.1997634507
40
0.2664270961
40
0.3331310512
40
0.3998628410
40
0.4665950390
40
0.5333362302
40
0.6000599107
40
0.6667783739
40
0.7334725512
40
0.8001287101
40
0.8667889186
40
0.9335504070
40
1.0000000000
40
1.0000000000
40
1.0000000000
40
1.0000000000
10
0.0000000000
20
12.0704555543
30
0.0000000000
10
0.1779071367
20
12.0704254848
30
0.0000000000
10
0.5358591703
20
12.0330500509
30
0.0000000000
10
1.0488814727
20
11.8666066393
30
0.0000000000
10
1.5169800921
20
11.5966317912
30
0.0000000000
10
1.9185552659
20
11.2352706818
30
0.0000000000
10
2.2363343022
20
10.7981615128
30
0.0000000000
10
2.4563224097
20
10.3043469037
30
0.0000000000
10
2.5688223508
20
9.7754820943
30
0.0000000000
10
2.5688807111
20
9.2348049979
30
0.0000000000
10
2.4565144195
20
8.7059731867
30
0.0000000000
10
2.2366924502
20
8.2121797916
30
0.0000000000
10
1.9190934552
20
7.7750435362
30
0.0000000000
10
1.5176860860
20
7.4135919206
30
0.0000000000
10
1.0496610948
20
7.1434461362
30
0.0000000000
10
0.5364168641
20
6.9767406914
30
0.0000000000
10
0.1781539832
20
6.9392754892
30
0.0000000000
10
0.0000000000
20
6.9392483450
30
0.0000000000
11
0.0000000000
21
12.0704555543
31
0.0000000000
11
0.5308202782
21
12.0148823221
31
0.0000000000
11
1.0414408774
21
11.8493108229
31
0.0000000000
11
1.5059149510
21
11.5813912988
31
0.0000000000
11
1.9044982644
21
11.2227491373
31
0.0000000000
11
2.2199814386
21
10.7888009748
31
0.0000000000
11
2.4384013790
21
10.2985218244
31
0.0000000000
11
2.5500791005
21
9.7735337035
31
0.0000000000
11
2.5501370496
21
9.2367263920
31
0.0000000000
11
2.4385940047
21
8.7117796771
31
0.0000000000
11
2.2203472158
21
8.2215407519
31
0.0000000000
11
1.9050406067
21
7.7875614855
31
0.0000000000
11
1.5066201851
21
7.4288283584
31
0.0000000000
11
1.0422825548
21
7.1607728035
31
0.0000000000
11
0.5315485646
21
6.9949772030
31
0.0000000000
11
-0.0000000000
21
6.9392483450
31
0.0000000000
0
SPLINE
5
39A
100
AcDbEntity
8
0
100
AcDbSpline
62
9
6
CONTINUOUS
70
0
71
3
72
22
73
18
74
16
42
0.0000001000
43
0.0000001000
44
0.0000000001
12
-8.0431184880
22
0.0013625061
32
0.0000000000
13
8.0431185105
23
0.0012224377
33
0.0000000000
40
0.0000000000
40
0.0000000000
40
0.0000000000
40
0.0000000000
40
0.0663654973
40
0.1331114532
40
0.1997804351
40
0.2664427206
40
0.3331421777
40
0.3998691898
40
0.4665982236
40
0.5333395162
40
0.6000665335
40
0.6667899335
40
0.7334886972
40
0.8001463943
40
0.8668041308
40
0.9335589588
40
1.0000000000
40
1.0000000000
40
1.0000000000
40
1.0000000000
10
0.0000000000
20
6.9392483450
30
0.0000000000
10
-0.1779285195
20
6.9392784861
30
0.0000000000
10
-0.5359197073
20
6.9766623949
30
0.0000000000
10
-1.0489803959
20
7.1431385466
30
0.0000000000
10
-1.5170838269
20
7.4131469909
30
0.0000000000
10
-1.9186336048
20
7.7745226694
30
0.0000000000
10
-2.2363770021
20
8.2116215474
30
0.0000000000
10
-2.4563376071
20
8.7054110027
30
0.0000000000
10
-2.5688251211
20
9.2342564128
30
0.0000000000
10
-2.5688779759
20
9.7749342636
30
0.0000000000
10
-2.4564986514
20
10.3037868472
30
0.0000000000
10
-2.2366481742
20
10.7976062193
30
0.0000000000
10
-1.9190122133
20
11.2347532480
30
0.0000000000
10
-1.5175780657
20
11.5961901324
30
0.0000000000
10
-1.0495571289
20
11.8663013460
30
0.0000000000
10
-0.5363527124
20
12.0329723123
30
0.0000000000
10
-0.1781310562
20
12.0704284810
30
0.0000000000
10
0.0000000000
20
12.0704555543
30
0.0000000000
11
0.0000000000
21
6.9392483450
31
0.0000000000
11
-0.5308833799
21
6.9948349215
31
0.0000000000
11
-1.0415476491
21
7.1604406134
31
0.0000000000
11
-1.5060261099
21
7.4283933123
31
0.0000000000
11
-1.9045828594
21
7.7870486463
31
0.0000000000
11
-2.2200264715
21
8.2209808445
31
0.0000000000
11
-2.4384172717
21
8.7112309100
31
0.0000000000
11
-2.5500818024
21
9.2361958187
31
0.0000000000
11
-2.5501342678
21
9.7730039485
31
0.0000000000
11
-2.4385774445
21
10.2979751750
31
0.0000000000
11
-2.2203004643
21
10.7882441264
31
0.0000000000
11
-1.9049532322
21
11.2222394774
31
0.0000000000
11
-1.5065044847
21
11.5809596359
31
0.0000000000
11
-1.0421701913
21
11.8489812042
31
0.0000000000
11
-0.5314809098
21
12.0147410338
31
0.0000000000
11
0.0000000000
21
12.0704555543
31
0.0000000000
0
SPLINE
5
39B
100
AcDbEntity
8
0
100
AcDbSpline
62
9
6
CONTINUOUS
70
0
71
3
72
13
73
9
74
7
42
0.0000001000
43
0.0000001000
44
0.0000000001
12
0.1577378029
22
-0.9435858985
32
0.0000000000
13
0.0003490202
23
-0.9566793822
33
0.0000000000
40
0.0000000000
40
0.0000000000
40
0.0000000000
40
0.0000000000
40
0.0448208408
40
0.1498261432
40
0.3086281187
40
0.5117190361
40
0.7469352638
40
1.0000000000
40
1.0000000000
40
1.0000000000
40
1.0000000000
10
-10.5087981167
20
21.9749071372
30
0.0000000000
10
-10.5064414697
20
21.9608096994
30
0.0000000000
10
-10.5072295647
20
21.9127248768
30
0.0000000000
10
-10.5036916604
20
21.8145848799
30
0.0000000000
10
-10.5030908201
20
21.6655686219
30
0.0000000000
10
-10.5015010824
20
21.4752101535
30
0.0000000000
10
-10.5008152536
20
21.2547198844
30
0.0000000000
10
-10.5005645041
20
21.0990148361
30
0.0000000000
10
-10.5005350625
20
21.0183142309
30
0.0000000000
11
-10.5087981167
21
21.9749071372
31
0.0000000000
11
-10.5066887591
21
21.9320798744
31
0.0000000000
11
-10.5047336849
21
21.8316424864
31
0.0000000000
11
-10.5030519635
21
21.6797292088
31
0.0000000000
11
-10.5017438026
21
21.4854407064
31
0.0000000000
11
-10.5008871714
21
21.2604158065
31
0.0000000000
11
-10.5005350625
21
21.0183142309
31
0.0000000000
0
SPLINE
5
39C
100
AcDbEntity
8
0
100
AcDbSpline
62
9
6
CONTINUOUS
70
0
71
3
72
13
73
9
74
7
42
0.0000001000
43
0.0000001000
44
0.0000000001
12
0.1518283440
22
-0.4537411951
32
0.0000000000
13
0.0003498850
23
-0.4784692214
33
0.0000000000
40
0.0000000000
40
0.0000000000
40
0.0000000000
40
0.0000000000
40
0.0448720941
40
0.1499620513
40
0.3088769427
40
0.5121305404
40
0.7475203519
40
1.0000000000
40
1.0000000000
40
1.0000000000
40
1.0000000000
10
-11.0087219643
20
21.4755923698
30
0.0000000000
10
-11.0064510124
20
21.4688055973
30
0.0000000000
10
-11.0070644478
20
21.4443203345
30
0.0000000000
10
-11.0036664875
20
21.3955798760
30
0.0000000000
10
-11.0029931518
20
21.3208239670
30
0.0000000000
10
-11.0014301292
20
21.2256234781
30
0.0000000000
10
-11.0007361325
20
21.1153658418
30
0.0000000000
10
-11.0004883564
20
21.0375638302
30
0.0000000000
10
-11.0004589101
20
20.9972959167
30
0.0000000000
11
-11.0087219643
21
21.4755923698
31
0.0000000000
11
-11.0066154888
21
21.4542260342
31
0.0000000000
11
-11.0046585314
21
21.4039818070
31
0.0000000000
11
-11.0029751375
21
21.3279645393
31
0.0000000000
11
-11.0016659628
21
21.2307227351
31
0.0000000000
11
-11.0008096574
21
21.1180991805
31
0.0000000000
11
-11.0004589101
21
20.9972959167
31
0.0000000000
0
SPLINE
5
39D
100
AcDbEntity
8
0
100
AcDbSpline
62
9
6
CONTINUOUS
70
0
71
3
72
12
73
8
74
6
42
0.0000001000
43
0.0000001000
44
0.0000000001
12
-0.7813571085
22
-0.0007128051
32
0.0000000000
13
-0.0007145497
23
-0.7813571069
33
0.0000000000
40
0.0000000000
40
0.0000000000
40
0.0000000000
40
0.0000000000
40
0.2000879484
40
0.4001761228
40
0.6002085985
40
0.8001502331
40
1.0000000000
40
1.0000000000
40
1.0000000000
40
1.0000000000
10
-10.5087981167
20
21.9749071372
30
0.0000000000
10
-10.5609114970
20
21.9748595960
30
0.0000000000
10
-10.6658541434
20
21.9582167171
30
0.0000000000
10
-10.8073215017
20
21.8860919029
30
0.0000000000
10
-10.9197686772
20
21.7737938411
30
0.0000000000
10
-10.9920030345
20
21.6324882152
30
0.0000000000
10
-11.0086743634
20
21.5276437151
30
0.0000000000
10
-11.0087219643
20
21.4755923698
30
0.0000000000
11
-10.5087981167
21
21.9749071372
31
0.0000000000
11
-10.6631985021
21
21.9503555394
31
0.0000000000
11
-10.8025013793
21
21.8793835478
31
0.0000000000
11
-10.9130864355
21
21.7689315022
31
0.0000000000
11
-10.9841419991
21
21.6297997904
31
0.0000000000
11
-11.0087219643
21
21.4755923698
31
0.0000000000
0
SPLINE
5
39E
100
AcDbEntity
8
0
100
AcDbSpline
62
9
6
CONTINUOUS
70
0
71
3
72
10
73
6
74
4
42
0.0000001000
43
0.0000001000
44
0.0000000001
12
0.0308408133
22
-42.0366204979
32
0.0000000000
13
-0.0308408108
23
-42.0366204979
33
0.0000000000
40
0.0000000000
40
0.0000000000
40
0.0000000000
40
0.0000000000
40
0.3332896860
40
0.6667103140
40
1.0000000000
40
1.0000000000
40
1.0000000000
40
1.0000000000
10
-10.5005350625
20
21.0183142309
30
0.0000000000
10
-10.4971087542
20
16.3481902157
30
0.0000000000
10
-10.4925427185
20
7.0061055531
30
0.0000000000
10
-10.4925427181
20
-7.0061055523
30
0.0000000000
10
-10.4971087545
20
-16.3481902153
30
0.0000000000
10
-10.5005350625
20
-21.0183142309
30
0.0000000000
11
-10.5005350625
21
21.0183142309
31
0.0000000000
11
-10.4936846758
21
7.0079400892
31
0.0000000000
11
-10.4936846757
21
-7.0079400882
31
0.0000000000
11
-10.5005350625
21
-21.0183142309
31
0.0000000000
0
SPLINE
5
39F
100
AcDbEntity
8
0
100
AcDbSpline
62
9
6
CONTINUOUS
70
0
71
3
72
10
73
6
74
4
42
0.0000001000
43
0.0000001000
44
0.0000000001
12
0.0308408131
22
-41.9945838615
32
0.0000000000
13
-0.0308408106
23
-41.9945838615
33
0.0000000000
40
0.0000000000
40
0.0000000000
40
0.0000000000
40
0.0000000000
40
0.3332892101
40
0.6667109287
40
1.0000000000
40
1.0000000000
40
1.0000000000
40
1.0000000000
10
-11.0004589101
20
20.9972959167
30
0.0000000000
10
-10.9970326067
20
16.3318486893
30
0.0000000000
10
-10.9924665635
20
6.9990975058
30
0.0000000000
10
-10.9924665646
20
-6.9991013917
30
0.0000000000
10
-10.9970326084
20
-16.3318506322
30
0.0000000000
10
-11.0004589101
20
-20.9972959167
30
0.0000000000
11
-11.0004589101
21
20.9972959167
31
0.0000000000
11
-10.9936085283
21
7.0009521365
31
0.0000000000
11
-10.9936085296
21
-7.0009579653
31
0.0000000000
11
-11.0004589101
21
-20.9972959167
31
0.0000000000
0
SPLINE
5
3A0
100
AcDbEntity
8
0
100
AcDbSpline
62
9
6
CONTINUOUS
70
0
71
3
72
12
73
8
74
6
42
0.0000001000
43
0.0000001000
44
0.0000000001
12
-0.5010580609
22
-0.0003673192
32
0.0000000000
13
-0.1919553163
23
-0.4628309323
33
0.0000000000
40
0.0000000000
40
0.0000000000
40
0.0000000000
40
0.0000000000
40
0.3050607102
40
0.5809725745
40
0.8013959844
40
0.9453902239
40
1.0000000000
40
1.0000000000
40
1.0000000000
40
1.0000000000
10
-10.5005350625
20
21.0183142305
30
0.0000000000
10
-10.5514861052
20
21.0182768789
30
0.0000000000
10
-10.6490214532
20
21.0180276728
30
0.0000000000
10
-10.7809060054
20
21.0135856071
30
0.0000000000
10
-10.8928023060
20
21.0137704023
30
0.0000000000
10
-10.9527896770
20
21.0005048015
30
0.0000000000
10
-10.9969646978
20
21.0057209479
30
0.0000000000
10
-11.0004589101
20
20.9972959167
30
0.0000000000
11
-10.5005350625
21
21.0183142305
31
0.0000000000
11
-10.6533841411
21
21.0171959985
31
0.0000000000
11
-10.7915989752
21
21.0141724692
31
0.0000000000
11
-10.9019464483
21
21.0095331264
31
0.0000000000
11
-10.9738615515
21
21.0037221554
31
0.0000000000
11
-11.0004589101
21
20.9972959167
31
0.0000000000
0
SPLINE
5
3A1
100
AcDbEntity
8
0
100
AcDbSpline
62
9
6
CONTINUOUS
70
0
71
3
72
13
73
9
74
7
42
0.0000001000
43
0.0000001000
44
0.0000000001
12
-0.0003490200
22
-0.9566793822
32
0.0000000000
13
-0.1577378176
23
-0.9435858960
33
0.0000000000
40
0.0000000000
40
0.0000000000
40
0.0000000000
40
0.0000000000
40
0.2530647362
40
0.4882809639
40
0.6913718813
40
0.8501738568
40
0.9551791592
40
1.0000000000
40
1.0000000000
40
1.0000000000
40
1.0000000000
10
-10.5005350625
20
-21.0183142309
30
0.0000000000
10
-10.5005645041
20
-21.0990148361
30
0.0000000000
10
-10.5008152537
20
-21.2547198844
30
0.0000000000
10
-10.5015010823
20
-21.4752101535
30
0.0000000000
10
-10.5030908202
20
-21.6655686219
30
0.0000000000
10
-10.5036916603
20
-21.8145848800
30
0.0000000000
10
-10.5072295650
20
-21.9127248768
30
0.0000000000
10
-10.5064414695
20
-21.9608096995
30
0.0000000000
10
-10.5087981167
20
-21.9749071372
30
0.0000000000
11
-10.5005350625
21
-21.0183142309
31
0.0000000000
11
-10.5008871715
21
-21.2604158065
31
0.0000000000
11
-10.5017438025
21
-21.4854407064
31
0.0000000000
11
-10.5030519635
21
-21.6797292088
31
0.0000000000
11
-10.5047336849
21
-21.8316424864
31
0.0000000000
11
-10.5066887591
21
-21.9320798744
31
0.0000000000
11
-10.5087981167
21
-21.9749071372
31
0.0000000000
0
SPLINE
5
3A2
100
AcDbEntity
8
0
100
AcDbSpline
62
9
6
CONTINUOUS
70
0
71
3
72
13
73
9
74
7
42
0.0000001000
43
0.0000001000
44
0.0000000001
12
-0.0003498847
22
-0.4784692214
32
0.0000000000
13
-0.1518282341
23
-0.4537412319
33
0.0000000000
40
0.0000000000
40
0.0000000000
40
0.0000000000
40
0.0000000000
40
0.2524796480
40
0.4878694598
40
0.6911230573
40
0.8500379483
40
0.9551279064
40
1.0000000000
40
1.0000000000
40
1.0000000000
40
1.0000000000
10
-11.0004589101
20
-20.9972959167
30
0.0000000000
10
-11.0004883564
20
-21.0375638302
30
0.0000000000
10
-11.0007361325
20
-21.1153658418
30
0.0000000000
10
-11.0014301293
20
-21.2256234781
30
0.0000000000
10
-11.0029931514
20
-21.3208239671
30
0.0000000000
10
-11.0036664885
20
-21.3955798757
30
0.0000000000
10
-11.0070644460
20
-21.4443203351
30
0.0000000000
10
-11.0064510140
20
-21.4688055968
30
0.0000000000
10
-11.0087219643
20
-21.4755923698
30
0.0000000000
11
-11.0004589101
21
-20.9972959167
31
0.0000000000
11
-11.0008096574
21
-21.1180991804
31
0.0000000000
11
-11.0016659628
21
-21.2307227352
31
0.0000000000
11
-11.0029751375
21
-21.3279645393
31
0.0000000000
11
-11.0046585314
21
-21.4039818068
31
0.0000000000
11
-11.0066154888
21
-21.4542260345
31
0.0000000000
11
-11.0087219643
21
-21.4755923698
31
0.0000000000
0
SPLINE
5
3A3
100
AcDbEntity
8
0
100
AcDbSpline
62
9
6
CONTINUOUS
70
0
71
3
72
12
73
8
74
6
42
0.0000001000
43
0.0000001000
44
0.0000000001
12
-0.5010578743
22
0.0003674018
32
0.0000000000
13
-0.1921898260
23
0.4627333997
33
0.0000000000
40
0.0000000000
40
0.0000000000
40
0.0000000000
40
0.0000000000
40
0.3050562610
40
0.5809650378
40
0.8013878226
40
0.9453845855
40
1.0000000000
40
1.0000000000
40
1.0000000000
40
1.0000000000
10
-10.5005350626
20
-21.0183132877
30
0.0000000000
10
-10.5514853431
20
-21.0182759283
30
0.0000000000
10
-10.6490189648
20
-21.0180266176
30
0.0000000000
10
-10.7809037669
20
-21.0135851280
30
0.0000000000
10
-10.8927956002
20
-21.0137689630
30
0.0000000000
10
-10.9527922360
20
-21.0005055030
30
0.0000000000
10
-10.9969600676
20
-21.0057200422
30
0.0000000000
10
-11.0004589100
20
-20.9972959167
30
0.0000000000
11
-10.5005350626
21
-21.0183132877
31
0.0000000000
11
-10.6533818551
21
-21.0171950877
31
0.0000000000
11
-10.7915950934
21
-21.0141716956
31
0.0000000000
11
-10.9019422211
21
-21.0095325749
31
0.0000000000
11
-10.9738585879
21
-21.0037218762
31
0.0000000000
11
-11.0004589100
21
-20.9972959167
31
0.0000000000
0
SPLINE
5
3A4
100
AcDbEntity
8
0
100
AcDbSpline
62
9
6
CONTINUOUS
70
0
71
3
72
12
73
8
74
6
42
0.0000001000
43
0.0000001000
44
0.0000000001
12
-0.7813571062
22
0.0007128138
32
0.0000000000
13
-0.0007145531
23
0.7813571046
33
0.0000000000
40
0.0000000000
40
0.0000000000
40
0.0000000000
40
0.0000000000
40
0.2000850064
40
0.4001713425
40
0.6002035309
40
0.8001467217
40
1.0000000000
40
1.0000000000
40
1.0000000000
40
1.0000000000
10
-10.5087981167
20
-21.9749071372
30
0.0000000000
10
-10.5609107306
20
-21.9748595961
30
0.0000000000
10
-10.6658521000
20
-21.9582171671
30
0.0000000000
10
-10.8073186644
20
-21.8860938495
30
0.0000000000
10
-10.9197666024
20
-21.7737967766
30
0.0000000000
10
-10.9920025187
20
-21.6324904868
30
0.0000000000
10
-11.0086743624
20
-21.5276446294
30
0.0000000000
10
-11.0087219643
20
-21.4755923698
30
0.0000000000
11
-10.5087981167
21
-21.9749071372
31
0.0000000000
11
-10.6631962883
21
-21.9503562579
31
0.0000000000
11
-10.8024983178
21
-21.8793857676
31
0.0000000000
11
-10.9130840749
21
-21.7689347421
31
0.0000000000
11
-10.9841411372
21
-21.6298024308
31
0.0000000000
11
-11.0087219643
21
-21.4755923698
31
0.0000000000
0
SPLINE
5
3A5
100
AcDbEntity
8
0
100
AcDbSpline
62
9
6
CONTINUOUS
70
0
71
3
72
13
73
9
74
7
42
0.0000001000
43
0.0000001000
44
0.0000000001
12
-0.1517233705
22
-0.4537763541
32
0.0000000000
13
-0.0003487208
23
-0.4784692666
33
0.0000000000
40
0.0000000000
40
0.0000000000
40
0.0000000000
40
0.0000000000
40
0.0447511791
40
0.1496617630
40
0.3084069250
40
0.5114254892
40
0.7467904150
40
1.0000000000
40
1.0000000000
40
1.0000000000
40
1.0000000000
10
11.0087219643
20
21.4755923698
30
0.0000000000
10
11.0064586977
20
21.4688233609
30
0.0000000000
10
11.0070626629
20
21.4443888060
30
0.0000000000
10
11.0036726327
20
21.3957214402
30
0.0000000000
10
11.0029962005
20
21.3210594969
30
0.0000000000
10
11.0014333211
20
21.2259272635
30
0.0000000000
10
11.0007370348
20
21.1155947072
30
0.0000000000
10
11.0004883433
20
21.0376802515
30
0.0000000000
10
11.0004589101
20
20.9972959167
30
0.0000000000
11
11.0087219643
21
21.4755923698
31
0.0000000000
11
11.0066187988
21
21.4542838406
31
0.0000000000
11
11.0046627389
21
21.4041254635
31
0.0000000000
11
11.0029790226
21
21.3281894262
31
0.0000000000
11
11.0016694038
21
21.2310600855
31
0.0000000000
11
11.0008114400
21
21.1184484404
31
0.0000000000
11
11.0004589101
21
20.9972959167
31
0.0000000000
0
SPLINE
5
3A6
100
AcDbEntity
8
0
100
AcDbSpline
62
9
6
CONTINUOUS
70
0
71
3
72
13
73
9
74
7
42
0.0000001000
43
0.0000001000
44
0.0000000001
12
-0.1577707702
22
-0.9435803750
32
0.0000000000
13
-0.0003449110
23
-0.9566793721
33
0.0000000000
40
0.0000000000
40
0.0000000000
40
0.0000000000
40
0.0000000000
40
0.0448247981
40
0.1498254833
40
0.3086663044
40
0.5117002731
40
0.7469689740
40
1.0000000000
40
1.0000000000
40
1.0000000000
40
1.0000000000
10
10.5087981167
20
21.9749071372
30
0.0000000000
10
10.5064407691
20
21.9608085373
30
0.0000000000
10
10.5072303684
20
21.9127237243
30
0.0000000000
10
10.5036915785
20
21.8145717156
30
0.0000000000
10
10.5030911067
20
21.6655626178
30
0.0000000000
10
10.5015012527
20
21.4751932123
30
0.0000000000
10
10.5008152484
20
21.2547151132
30
0.0000000000
10
10.5005641536
20
21.0990040853
30
0.0000000000
10
10.5005350625
20
21.0183142309
30
0.0000000000
11
10.5087981167
21
21.9749071372
31
0.0000000000
11
10.5066888073
21
21.9320760821
31
0.0000000000
11
10.5047341778
21
21.8316431047
31
0.0000000000
11
10.5030519894
21
21.6796926689
31
0.0000000000
11
10.5017441538
21
21.4854586496
31
0.0000000000
11
10.5008870654
21
21.2603835538
31
0.0000000000
11
10.5005350625
21
21.0183142309
31
0.0000000000
0
SPLINE
5
3A7
100
AcDbEntity
8
0
100
AcDbSpline
62
9
6
CONTINUOUS
70
0
71
3
72
12
73
8
74
6
42
0.0000001000
43
0.0000001000
44
0.0000000001
12
-0.0007145491
22
0.7813571074
32
0.0000000000
13
-0.7813571090
23
0.0007128017
33
0.0000000000
40
0.0000000000
40
0.0000000000
40
0.0000000000
40
0.0000000000
40
0.1998485957
40
0.3997897125
40
0.5998222854
40
0.7999110728
40
1.0000000000
40
1.0000000000
40
1.0000000000
40
1.0000000000
10
11.0087219643
20
21.4755923698
30
0.0000000000
10
11.0086743637
20
21.5276434101
30
0.0000000000
10
10.9920032064
20
21.6324874578
30
0.0000000000
10
10.9197693684
20
21.7737928627
30
0.0000000000
10
10.8073224464
20
21.8860912544
30
0.0000000000
10
10.6658548235
20
21.9582165671
30
0.0000000000
10
10.5609117519
20
21.9748595957
30
0.0000000000
10
10.5087981166
20
21.9749071370
30
0.0000000000
11
11.0087219643
21
21.4755923698
31
0.0000000000
11
10.9841422864
21
21.6297989097
31
0.0000000000
11
10.9130872219
21
21.7689304222
31
0.0000000000
11
10.8025023985
21
21.8793828084
31
0.0000000000
11
10.6631992385
21
21.9503553003
31
0.0000000000
11
10.5087981166
21
21.9749071370
31
0.0000000000
0
SPLINE
5
3A8
100
AcDbEntity
8
0
100
AcDbSpline
62
9
6
CONTINUOUS
70
0
71
3
72
10
73
6
74
4
42
0.0000001000
43
0.0000001000
44
0.0000000001
12
-0.0308407996
22
-41.9945838615
32
0.0000000000
13
0.0308408117
23
-41.9945838615
33
0.0000000000
40
0.0000000000
40
0.0000000000
40
0.0000000000
40
0.0000000000
40
0.3332886949
40
0.6667106342
40
1.0000000000
40
1.0000000000
40
1.0000000000
40
1.0000000000
10
11.0004589101
20
20.9972959167
30
0.0000000000
10
10.9970326135
20
16.3318559011
30
0.0000000000
10
10.9924665659
20
6.9991088406
30
0.0000000000
10
10.9924665607
20
-6.9990900570
30
0.0000000000
10
10.9970326052
20
-16.3318465093
30
0.0000000000
10
11.0004589101
20
-20.9972959167
30
0.0000000000
11
11.0004589101
21
20.9972959167
31
0.0000000000
11
10.9936085333
21
7.0009737718
31
0.0000000000
11
10.9936085267
21
-7.0009455965
31
0.0000000000
11
11.0004589101
21
-20.9972959167
31
0.0000000000
0
SPLINE
5
3A9
100
AcDbEntity
8
0
100
AcDbSpline
62
9
6
CONTINUOUS
70
0
71
3
72
10
73
6
74
4
42
0.0000001000
43
0.0000001000
44
0.0000000001
12
-0.0308407997
22
-42.0366204979
32
0.0000000000
13
0.0308408119
23
-42.0366204979
33
0.0000000000
40
0.0000000000
40
0.0000000000
40
0.0000000000
40
0.0000000000
40
0.3332896861
40
0.6667103140
40
1.0000000000
40
1.0000000000
40
1.0000000000
40
1.0000000000
10
10.5005350625
20
21.0183142309
30
0.0000000000
10
10.4971087557
20
16.3481902144
30
0.0000000000
10
10.4925427171
20
7.0061055510
30
0.0000000000
10
10.4925427189
20
-7.0061055545
30
0.0000000000
10
10.4971087544
20
-16.3481902162
30
0.0000000000
10
10.5005350625
20
-21.0183142309
30
0.0000000000
11
10.5005350625
21
21.0183142309
31
0.0000000000
11
10.4936846755
21
7.0079400855
31
0.0000000000
11
10.4936846759
21
-7.0079400907
31
0.0000000000
11
10.5005350625
21
-21.0183142309
31
0.0000000000
0
SPLINE
5
3AA
100
AcDbEntity
8
0
100
AcDbSpline
62
9
6
CONTINUOUS
70
0
71
3
72
12
73
8
74
6
42
0.0000001000
43
0.0000001000
44
0.0000000001
12
-0.1919554566
22
0.4628308739
32
0.0000000000
13
-0.5010580608
23
0.0003673235
33
0.0000000000
40
0.0000000000
40
0.0000000000
40
0.0000000000
40
0.0000000000
40
0.0546097796
40
0.1986040208
40
0.4190274305
40
0.6949392928
40
1.0000000000
40
1.0000000000
40
1.0000000000
40
1.0000000000
10
11.0004589101
20
20.9972959167
30
0.0000000000
10
10.9969646951
20
21.0057209474
30
0.0000000000
10
10.9527896784
20
21.0005048020
30
0.0000000000
10
10.8928023018
20
21.0137704013
30
0.0000000000
10
10.7809060038
20
21.0135856065
30
0.0000000000
10
10.6490214516
20
21.0180276713
30
0.0000000000
10
10.5514861046
20
21.0182768782
30
0.0000000000
10
10.5005350625
20
21.0183142302
30
0.0000000000
11
11.0004589101
21
20.9972959167
31
0.0000000000
11
10.9738615497
21
21.0037221553
31
0.0000000000
11
10.9019464456
21
21.0095331260
31
0.0000000000
11
10.7915989726
21
21.0141724684
31
0.0000000000
11
10.6533841395
21
21.0171959974
31
0.0000000000
11
10.5005350625
21
21.0183142302
31
0.0000000000
0
SPLINE
5
3AB
100
AcDbEntity
8
0
100
AcDbSpline
62
9
6
CONTINUOUS
70
0
71
3
72
13
73
9
74
7
42
0.0000001000
43
0.0000001000
44
0.0000000001
12
0.0003487206
22
-0.4784692666
32
0.0000000000
13
0.1517232156
23
-0.4537764059
33
0.0000000000
40
0.0000000000
40
0.0000000000
40
0.0000000000
40
0.0000000000
40
0.2532095848
40
0.4885745110
40
0.6915930751
40
0.8503382364
40
0.9552488215
40
1.0000000000
40
1.0000000000
40
1.0000000000
40
1.0000000000
10
11.0004589101
20
-20.9972959167
30
0.0000000000
10
11.0004883432
20
-21.0376802515
30
0.0000000000
10
11.0007370348
20
-21.1155947072
30
0.0000000000
10
11.0014333213
20
-21.2259272634
30
0.0000000000
10
11.0029961999
20
-21.3210594970
30
0.0000000000
10
11.0036726342
20
-21.3957214398
30
0.0000000000
10
11.0070626603
20
-21.4443888068
30
0.0000000000
10
11.0064587001
20
-21.4688233602
30
0.0000000000
10
11.0087219643
20
-21.4755923698
30
0.0000000000
11
11.0004589101
21
-20.9972959167
31
0.0000000000
11
11.0008114400
21
-21.1184484403
31
0.0000000000
11
11.0016694038
21
-21.2310600856
31
0.0000000000
11
11.0029790226
21
-21.3281894263
31
0.0000000000
11
11.0046627389
21
-21.4041254633
31
0.0000000000
11
11.0066187988
21
-21.4542838409
31
0.0000000000
11
11.0087219643
21
-21.4755923698
31
0.0000000000
0
SPLINE
5
3AC
100
AcDbEntity
8
0
100
AcDbSpline
62
9
6
CONTINUOUS
70
0
71
3
72
13
73
9
74
7
42
0.0000001000
43
0.0000001000
44
0.0000000001
12
0.0003449115
22
-0.9566793721
32
0.0000000000
13
0.1577707732
23
-0.9435803745
33
0.0000000000
40
0.0000000000
40
0.0000000000
40
0.0000000000
40
0.0000000000
40
0.2530310260
40
0.4882997269
40
0.6913336956
40
0.8501745167
40
0.9551752019
40
1.0000000000
40
1.0000000000
40
1.0000000000
40
1.0000000000
10
10.5005350625
20
-21.0183142309
30
0.0000000000
10
10.5005641536
20
-21.0990040853
30
0.0000000000
10
10.5008152485
20
-21.2547151132
30
0.0000000000
10
10.5015012526
20
-21.4751932123
30
0.0000000000
10
10.5030911067
20
-21.6655626178
30
0.0000000000
10
10.5036915785
20
-21.8145717156
30
0.0000000000
10
10.5072303685
20
-21.9127237242
30
0.0000000000
10
10.5064407690
20
-21.9608085373
30
0.0000000000
10
10.5087981167
20
-21.9749071372
30
0.0000000000
11
10.5005350625
21
-21.0183142309
31
0.0000000000
11
10.5008870654
21
-21.2603835538
31
0.0000000000
11
10.5017441538
21
-21.4854586496
31
0.0000000000
11
10.5030519894
21
-21.6796926689
31
0.0000000000
11
10.5047341778
21
-21.8316431047
31
0.0000000000
11
10.5066888073
21
-21.9320760821
31
0.0000000000
11
10.5087981167
21
-21.9749071372
31
0.0000000000
0
SPLINE
5
3AD
100
AcDbEntity
8
0
100
AcDbSpline
62
9
6
CONTINUOUS
70
0
71
3
72
12
73
8
74
6
42
0.0000001000
43
0.0000001000
44
0.0000000001
12
-0.1920144796
22
-0.4628063375
32
0.0000000000
13
-0.5010580120
23
-0.0003673725
33
0.0000000000
40
0.0000000000
40
0.0000000000
40
0.0000000000
40
0.0000000000
40
0.0546111894
40
0.1986060630
40
0.4190293170
40
0.6949404067
40
1.0000000000
40
1.0000000000
40
1.0000000000
40
1.0000000000
10
11.0004589101
20
-20.9972959167
30
0.0000000000
10
10.9969635304
20
-21.0057207182
30
0.0000000000
10
10.9527903228
20
-21.0005049635
30
0.0000000000
10
10.8928006189
20
-21.0137700305
30
0.0000000000
10
10.7809054436
20
-21.0135854735
30
0.0000000000
10
10.6490208276
20
-21.0180273997
30
0.0000000000
10
10.5514859137
20
-21.0182766372
30
0.0000000000
10
10.5005350625
20
-21.0183139940
30
0.0000000000
11
11.0004589101
21
-20.9972959167
31
0.0000000000
11
10.9738608069
21
-21.0037220776
31
0.0000000000
11
10.9019453861
21
-21.0095329760
31
0.0000000000
11
10.7915979997
21
-21.0141722630
31
0.0000000000
11
10.6533835666
21
-21.0171957618
31
0.0000000000
11
10.5005350625
21
-21.0183139940
31
0.0000000000
0
SPLINE
5
3AE
100
AcDbEntity
8
0
100
AcDbSpline
62
9
6
CONTINUOUS
70
0
71
3
72
12
73
8
74
6
42
0.0000001000
43
0.0000001000
44
0.0000000001
12
-0.0007145531
22
-0.7813571046
32
0.0000000000
13
-0.7813571062
23
-0.0007128139
33
0.0000000000
40
0.0000000000
40
0.0000000000
40
0.0000000000
40
0.0000000000
40
0.1998532782
40
0.3997964689
40
0.5998286573
40
0.7999149934
40
1.0000000000
40
1.0000000000
40
1.0000000000
40
1.0000000000
10
11.0087219643
20
-21.4755923698
30
0.0000000000
10
11.0086743624
20
-21.5276446294
30
0.0000000000
10
10.9920025187
20
-21.6324904868
30
0.0000000000
10
10.9197666025
20
-21.7737967765
30
0.0000000000
10
10.8073186645
20
-21.8860938494
30
0.0000000000
10
10.6658521001
20
-21.9582171671
30
0.0000000000
10
10.5609107306
20
-21.9748595961
30
0.0000000000
10
10.5087981167
20
-21.9749071372
30
0.0000000000
11
11.0087219643
21
-21.4755923698
31
0.0000000000
11
10.9841411372
21
-21.6298024308
31
0.0000000000
11
10.9130840750
21
-21.7689347420
31
0.0000000000
11
10.8024983179
21
-21.8793857675
31
0.0000000000
11
10.6631962884
21
-21.9503562578
31
0.0000000000
11
10.5087981167
21
-21.9749071372
31
0.0000000000
0
SPLINE
5
3AF
100
AcDbEntity
8
0
100
AcDbSpline
62
9
6
CONTINUOUS
70
0
71
3
72
22
73
18
74
16
42
0.0000001000
43
0.0000001000
44
0.0000000001
12
8.0431184880
22
-0.0013625061
32
0.0000000000
13
-8.0431185105
23
-0.0012224377
33
0.0000000000
40
0.0000000000
40
0.0000000000
40
0.0000000000
40
0.0000000000
40
0.0663654973
40
0.1331114532
40
0.1997804351
40
0.2664427206
40
0.3331421777
40
0.3998691898
40
0.4665982236
40
0.5333395162
40
0.6000665335
40
0.6667899335
40
0.7334886972
40
0.8001463943
40
0.8668041308
40
0.9335589588
40
1.0000000000
40
1.0000000000
40
1.0000000000
40
1.0000000000
10
0.0000000000
20
-6.9392483450
30
0.0000000000
10
0.1779285195
20
-6.9392784861
30
0.0000000000
10
0.5359197073
20
-6.9766623949
30
0.0000000000
10
1.0489803959
20
-7.1431385466
30
0.0000000000
10
1.5170838268
20
-7.4131469909
30
0.0000000000
10
1.9186336048
20
-7.7745226694
30
0.0000000000
10
2.2363770021
20
-8.2116215474
30
0.0000000000
10
2.4563376071
20
-8.7054110027
30
0.0000000000
10
2.5688251211
20
-9.2342564128
30
0.0000000000
10
2.5688779759
20
-9.7749342636
30
0.0000000000
10
2.4564986514
20
-10.3037868472
30
0.0000000000
10
2.2366481742
20
-10.7976062193
30
0.0000000000
10
1.9190122133
20
-11.2347532480
30
0.0000000000
10
1.5175780657
20
-11.5961901324
30
0.0000000000
10
1.0495571289
20
-11.8663013460
30
0.0000000000
10
0.5363527124
20
-12.0329723123
30
0.0000000000
10
0.1781310562
20
-12.0704284810
30
0.0000000000
10
0.0000000000
20
-12.0704555543
30
0.0000000000
11
0.0000000000
21
-6.9392483450
31
0.0000000000
11
0.5308833799
21
-6.9948349215
31
0.0000000000
11
1.0415476491
21
-7.1604406134
31
0.0000000000
11
1.5060261099
21
-7.4283933123
31
0.0000000000
11
1.9045828594
21
-7.7870486463
31
0.0000000000
11
2.2200264715
21
-8.2209808445
31
0.0000000000
11
2.4384172717
21
-8.7112309100
31
0.0000000000
11
2.5500818024
21
-9.2361958187
31
0.0000000000
11
2.5501342678
21
-9.7730039485
31
0.0000000000
11
2.4385774445
21
-10.2979751750
31
0.0000000000
11
2.2203004643
21
-10.7882441264
31
0.0000000000
11
1.9049532322
21
-11.2222394774
31
0.0000000000
11
1.5065044847
21
-11.5809596359
31
0.0000000000
11
1.0421701913
21
-11.8489812042
31
0.0000000000
11
0.5314809098
21
-12.0147410338
31
0.0000000000
11
0.0000000000
21
-12.0704555543
31
0.0000000000
0
SPLINE
5
3B0
100
AcDbEntity
8
0
100
AcDbSpline
62
9
6
CONTINUOUS
70
0
71
3
72
22
73
18
74
16
42
0.0000001000
43
0.0000001000
44
0.0000000001
12
-8.0431184598
22
0.0013594336
32
0.0000000000
13
8.0431184813
23
0.0012254816
33
0.0000000000
40
0.0000000000
40
0.0000000000
40
0.0000000000
40
0.0000000000
40
0.0663575220
40
0.1330970021
40
0.1997634507
40
0.2664270961
40
0.3331310512
40
0.3998628410
40
0.4665950390
40
0.5333362302
40
0.6000599107
40
0.6667783739
40
0.7334725512
40
0.8001287101
40
0.8667889186
40
0.9335504070
40
1.0000000000
40
1.0000000000
40
1.0000000000
40
1.0000000000
10
0.0000000000
20
-12.0704555543
30
0.0000000000
10
-0.1779071367
20
-12.0704254848
30
0.0000000000
10
-0.5358591703
20
-12.0330500509
30
0.0000000000
10
-1.0488814727
20
-11.8666066393
30
0.0000000000
10
-1.5169800921
20
-11.5966317912
30
0.0000000000
10
-1.9185552659
20
-11.2352706818
30
0.0000000000
10
-2.2363343022
20
-10.7981615128
30
0.0000000000
10
-2.4563224097
20
-10.3043469037
30
0.0000000000
10
-2.5688223508
20
-9.7754820943
30
0.0000000000
10
-2.5688807111
20
-9.2348049979
30
0.0000000000
10
-2.4565144195
20
-8.7059731867
30
0.0000000000
10
-2.2366924502
20
-8.2121797916
30
0.0000000000
10
-1.9190934552
20
-7.7750435362
30
0.0000000000
10
-1.5176860860
20
-7.4135919206
30
0.0000000000
10
-1.0496610948
20
-7.1434461362
30
0.0000000000
10
-0.5364168641
20
-6.9767406914
30
0.0000000000
10
-0.1781539832
20
-6.9392754892
30
0.0000000000
10
0.0000000000
20
-6.9392483450
30
0.0000000000
11
0.0000000000
21
-12.0704555543
31
0.0000000000
11
-0.5308202782
21
-12.0148823221
31
0.0000000000
11
-1.0414408774
21
-11.8493108229
31
0.0000000000
11
-1.5059149510
21
-11.5813912988
31
0.0000000000
11
-1.9044982644
21
-11.2227491373
31
0.0000000000
11
-2.2199814386
21
-10.7888009748
31
0.0000000000
11
-2.4384013790
21
-10.2985218244
31
0.0000000000
11
-2.5500791005
21
-9.7735337035
31
0.0000000000
11
-2.5501370496
21
-9.2367263920
31
0.0000000000
11
-2.4385940047
21
-8.7117796771
31
0.0000000000
11
-2.2203472158
21
-8.2215407519
31
0.0000000000
11
-1.9050406067
21
-7.7875614855
31
0.0000000000
11
-1.5066201851
21
-7.4288283584
31
0.0000000000
11
-1.0422825548
21
-7.1607728035
31
0.0000000000
11
-0.5315485646
21
-6.9949772030
31
0.0000000000
11
0.0000000000
21
-6.9392483450
31
0.0000000000
0
SPLINE
5
3B1
100
AcDbEntity
8
0
100
AcDbSpline
62
9
6
CONTINUOUS
70
0
71
3
72
22
73
18
74
16
42
0.0000001000
43
0.0000001000
44
0.0000000001
12
-7.1000978155
22
0.0006057096
32
0.0000000000
13
7.1000978205
23
0.0005450628
33
0.0000000000
40
0.0000000000
40
0.0000000000
40
0.0000000000
40
0.0000000000
40
0.0664226548
40
0.1331719244
40
0.1998392191
40
0.2664937683
40
0.3331781549
40
0.3998807678
40
0.4665784059
40
0.5332868146
40
0.5999828834
40
0.6666818184
40
0.7333666600
40
0.8000242893
40
0.8666960185
40
0.9334782870
40
1.0000000000
40
1.0000000000
40
1.0000000000
40
1.0000000000
10
0.0000000000
20
-11.7632589724
30
0.0000000000
10
-0.1572024487
20
-11.7632455615
30
0.0000000000
10
-0.4733632249
20
-11.7302055238
30
0.0000000000
10
-0.9264160660
20
-11.5832697294
30
0.0000000000
10
-1.3396674702
20
-11.3450044715
30
0.0000000000
10
-1.6941869766
20
-11.0261450812
30
0.0000000000
10
-1.9747272280
20
-10.6404690982
30
0.0000000000
10
-2.1689486826
20
-10.2047800109
30
0.0000000000
10
-2.2682985839
20
-9.7381636982
30
0.0000000000
10
-2.2683999617
20
-9.2611020584
30
0.0000000000
10
-2.1692521542
20
-8.7944557037
30
0.0000000000
10
-1.9752253951
20
-8.3586928622
30
0.0000000000
10
-1.6948553545
20
-7.9728934501
30
0.0000000000
10
-1.3404602988
20
-7.6538669015
30
0.0000000000
10
-0.9272257150
20
-7.4153780550
30
0.0000000000
10
-0.4739146306
20
-7.2681762217
30
0.0000000000
10
-0.1574368898
20
-7.2350511907
30
0.0000000000
10
0.0000000000
20
-7.2350391045
30
0.0000000000
11
0.0000000000
21
-11.7632589724
31
0.0000000000
11
-0.4690431481
21
-11.7141466952
31
0.0000000000
11
-0.9198706473
21
-11.5679935346
31
0.0000000000
11
-1.3299267614
21
-11.3315430661
31
0.0000000000
11
-1.6818013449
21
-11.0150727567
31
0.0000000000
11
-1.9603093615
21
-10.6321850126
31
0.0000000000
11
-2.1531371748
21
-10.1996231880
31
0.0000000000
11
-2.2517544534
21
-9.7364456031
31
0.0000000000
11
-2.2518551035
21
-9.2628093852
31
0.0000000000
11
-2.1534381485
21
-8.7996005844
31
0.0000000000
11
-1.9608094598
21
-8.3669786334
31
0.0000000000
11
-1.6824683490
21
-7.9839655461
31
0.0000000000
11
-1.3307152769
21
-7.6673274956
31
0.0000000000
11
-0.9207320305
21
-7.4306877146
31
0.0000000000
11
-0.4697349611
21
-7.2842979730
31
0.0000000000
11
0.0000000000
21
-7.2350391045
31
0.0000000000
0
SPLINE
5
3B2
100
AcDbEntity
8
0
100
AcDbSpline
62
7
6
CONTINUOUS
70
0
71
3
72
11
73
7
74
5
42
0.0000001000
43
0.0000001000
44
0.0000000001
12
-0.0211812748
22
0.2811304504
32
0.0000000000
13
0.2064761691
23
0.1916551367
33
0.0000000000
40
0.0000000000
40
0.0000000000
40
0.0000000000
40
0.0000000000
40
0.0818790593
40
0.3837794198
40
0.6888833459
40
1.0000000000
40
1.0000000000
40
1.0000000000
40
1.0000000000
10
-59.7707729426
20
-3.5463627501
30
0.0000000000
10
-59.7713510435
20
-3.5386898512
30
0.0000000000
10
-59.7727060624
20
-3.5026195268
30
0.0000000000
10
-59.7637380168
20
-3.4378733592
30
0.0000000000
10
-59.7277794713
20
-3.3585328338
30
0.0000000000
10
-59.6904868785
20
-3.3136399710
30
0.0000000000
10
-59.6690741536
20
-3.2937642694
30
0.0000000000
11
-59.7707729426
21
-3.5463627501
31
0.0000000000
11
-59.7716401370
21
-3.5232986963
31
0.0000000000
11
-59.7598536375
21
-3.4393112543
31
0.0000000000
11
-59.7247893218
21
-3.3611014957
31
0.0000000000
11
-59.6690741536
21
-3.2937642694
31
0.0000000000
0
SPLINE
5
3B3
100
AcDbEntity
8
0
100
AcDbSpline
62
7
6
CONTINUOUS
70
0
71
3
72
9
73
5
74
3
42
0.0000001000
43
0.0000001000
44
0.0000000001
12
-0.6631369901
22
0.0132833622
32
0.0000000000
13
-0.6631377800
23
0.0132438696
33
0.0000000000
40
0.0000000000
40
0.0000000000
40
0.0000000000
40
0.0000000000
40
0.4999084979
40
1.0000000000
40
1.0000000000
40
1.0000000000
40
1.0000000000
10
-47.8086547561
20
18.9509188399
30
0.0000000000
10
-47.9191573616
20
18.9531323285
30
0.0000000000
10
-48.1402030910
20
18.9575568230
30
0.0000000000
10
-48.3612489520
20
18.9619747354
30
0.0000000000
10
-48.4717921415
20
18.9641824510
30
0.0000000000
11
-47.8086547561
21
18.9509188399
31
0.0000000000
11
-48.1401626716
21
18.9575543684
31
0.0000000000
11
-48.4717921415
21
18.9641824510
31
0.0000000000
0
SPLINE
5
3B4
100
AcDbEntity
8
0
100
AcDbSpline
62
7
6
CONTINUOUS
70
0
71
3
72
9
73
5
74
3
42
0.0000001000
43
0.0000001000
44
0.0000000001
12
0.6631377800
22
0.0132438696
32
0.0000000000
13
0.6631369901
23
0.0132833622
33
0.0000000000
40
0.0000000000
40
0.0000000000
40
0.0000000000
40
0.0000000000
40
0.5000915020
40
1.0000000000
40
1.0000000000
40
1.0000000000
40
1.0000000000
10
-48.4717921415
20
-18.9641824510
30
0.0000000000
10
-48.3612489520
20
-18.9619747354
30
0.0000000000
10
-48.1402030910
20
-18.9575568230
30
0.0000000000
10
-47.9191573617
20
-18.9531323285
30
0.0000000000
10
-47.8086547561
20
-18.9509188399
30
0.0000000000
11
-48.4717921415
21
-18.9641824510
31
0.0000000000
11
-48.1401626717
21
-18.9575543684
31
0.0000000000
11
-47.8086547561
21
-18.9509188399
31
0.0000000000
0
SPLINE
5
3B5
100
AcDbEntity
8
0
100
AcDbSpline
62
9
6
CONTINUOUS
70
0
71
3
72
11
73
7
74
5
42
0.0000001000
43
0.0000001000
44
0.0000000001
12
-1.3986895047
22
0.6577320831
32
0.0000000000
13
-1.1006589387
23
1.0851238291
33
0.0000000000
40
0.0000000000
40
0.0000000000
40
0.0000000000
40
0.0000000000
40
0.1968326223
40
0.4226666247
40
0.6949142133
40
1.0000000000
40
1.0000000000
40
1.0000000000
40
1.0000000000
10
-35.9935543089
20
14.4831532524
30
0.0000000000
10
-36.0853235499
20
14.5263076293
30
0.0000000000
10
-36.2811367644
20
14.6215818211
30
0.0000000000
10
-36.5998114546
20
14.7850783390
30
0.0000000000
10
-36.9514786631
20
15.0045167196
30
0.0000000000
10
-37.1818514257
20
15.1950682432
30
0.0000000000
10
-37.2937832252
20
15.3054201956
30
0.0000000000
11
-35.9935543089
21
14.4831532524
31
0.0000000000
11
-36.2672702465
21
14.6159486968
31
0.0000000000
11
-36.5764043150
21
14.7780432484
31
0.0000000000
11
-36.9321164976
21
15.0028417624
31
0.0000000000
11
-37.2937832252
21
15.3054201956
31
0.0000000000
0
SPLINE
5
3B6
100
AcDbEntity
8
0
100
AcDbSpline
62
9
6
CONTINUOUS
70
0
71
3
72
15
73
11
74
9
42
0.0000001000
43
0.0000001000
44
0.0000000001
12
0.0003657835
22
3.3679214675
32
0.0000000000
13
3.0472594268
23
1.4342611795
33
0.0000000000
40
0.0000000000
40
0.0000000000
40
0.0000000000
40
0.0000000000
40
0.1341089189
40
0.2716169791
40
0.4135369515
40
0.5567784665
40
0.6928530764
40
0.8133015805
40
0.9133941341
40
1.0000000000
40
1.0000000000
40
1.0000000000
40
1.0000000000
10
-38.0034667932
20
-9.1851879316
30
0.0000000000
10
-38.0034504416
20
-9.0346318293
30
0.0000000000
10
-37.9708788688
20
-8.7287714552
30
0.0000000000
10
-37.8252287841
20
-8.2845304843
30
0.0000000000
10
-37.5857633316
20
-7.8709487308
30
0.0000000000
10
-37.2708636940
20
-7.5143319181
30
0.0000000000
10
-36.9192932168
20
-7.2326645862
30
0.0000000000
10
-36.5774489002
20
-7.0229587480
30
0.0000000000
10
-36.2701128551
20
-6.8663921344
30
0.0000000000
10
-36.0817023030
20
-6.7745614999
30
0.0000000000
10
-35.9937321226
20
-6.7331563561
30
0.0000000000
11
-38.0034667932
21
-9.1851879316
31
0.0000000000
11
-37.9559054339
21
-8.7360307442
31
0.0000000000
11
-37.8122780134
21
-8.2957491090
31
0.0000000000
11
-37.5737273904
21
-7.8815583181
31
0.0000000000
11
-37.2558180905
21
-7.5186965090
31
0.0000000000
11
-36.8998388019
21
-7.2300666608
31
0.0000000000
11
-36.5551708161
21
-7.0161393090
31
0.0000000000
11
-36.2561587974
21
-6.8604767691
31
0.0000000000
11
-35.9937321226
21
-6.7331563561
31
0.0000000000
0
SPLINE
5
3B7
100
AcDbEntity
8
0
100
AcDbSpline
62
9
6
CONTINUOUS
70
0
71
3
72
12
73
8
74
6
42
0.0000001000
43
0.0000001000
44
0.0000000001
12
0.0004299052
22
1.1212889633
32
0.0000000000
13
-1.1209952560
23
0.0256663223
33
0.0000000000
40
0.0000000000
40
0.0000000000
40
0.0000000000
40
0.0000000000
40
0.3464884396
40
0.6264671603
40
0.8320479065
40
0.9576733817
40
1.0000000000
40
1.0000000000
40
1.0000000000
40
1.0000000000
10
-37.9958994217
20
17.6960892353
30
0.0000000000
10
-37.9958497693
20
17.8255937897
30
0.0000000000
10
-37.9936855879
20
18.0622236868
30
0.0000000000
10
-38.0022355100
20
18.3645965336
30
0.0000000000
10
-37.9856900247
20
18.6128487699
30
0.0000000000
10
-38.0194916110
20
18.7169260819
30
0.0000000000
10
-37.9876523853
20
18.8169126003
30
0.0000000000
10
-38.0034683647
20
18.8172747231
30
0.0000000000
11
-37.9958994217
21
17.6960892353
31
0.0000000000
11
-37.9960870644
21
18.0846028818
31
0.0000000000
11
-37.9969707682
21
18.3985387106
31
0.0000000000
11
-37.9985270944
21
18.6290488954
31
0.0000000000
11
-38.0007129273
21
18.7698944043
31
0.0000000000
11
-38.0034683647
21
18.8172747231
31
0.0000000000
0
SPLINE
5
3B8
100
AcDbEntity
8
0
100
AcDbSpline
62
9
6
CONTINUOUS
70
0
71
3
72
9
73
5
74
3
42
0.0000001000
43
0.0000001000
44
0.0000000001
12
-0.0195882575
22
0.2879746183
32
0.0000000000
13
0.0001115938
23
0.2886400321
33
0.0000000000
40
0.0000000000
40
0.0000000000
40
0.0000000000
40
0.0000000000
40
0.5263610907
40
1.0000000000
40
1.0000000000
40
1.0000000000
40
1.0000000000
10
-37.9861758722
20
17.4076550353
30
0.0000000000
10
-37.9896127044
20
17.4581812467
30
0.0000000000
10
-37.9944097347
20
17.5542992597
30
0.0000000000
10
-37.9959170401
20
17.6505188520
30
0.0000000000
10
-37.9958994217
20
17.6960892353
30
0.0000000000
11
-37.9861758722
21
17.4076550353
31
0.0000000000
11
-37.9937512066
21
17.5593949542
31
0.0000000000
11
-37.9958994217
21
17.6960892353
31
0.0000000000
0
SPLINE
5
3B9
100
AcDbEntity
8
0
100
AcDbSpline
62
9
6
CONTINUOUS
70
0
71
3
72
12
73
8
74
6
42
0.0000001000
43
0.0000001000
44
0.0000000001
12
-1.2933934395
22
1.8268839743
32
0.0000000000
13
-0.1520406124
23
2.2332163569
33
0.0000000000
40
0.0000000000
40
0.0000000000
40
0.0000000000
40
0.0000000000
40
0.1992902993
40
0.4056305399
40
0.6114540965
40
0.8114161869
40
1.0000000000
40
1.0000000000
40
1.0000000000
40
1.0000000000
10
-37.2937832252
20
15.3054201956
30
0.0000000000
10
-37.3797034804
20
15.4267802802
30
0.0000000000
10
-37.5355476248
20
15.6876230156
30
0.0000000000
10
-37.7177430023
20
16.1069576183
30
0.0000000000
10
-37.8531560832
20
16.5440073608
30
0.0000000000
10
-37.9432633368
20
16.9788293703
30
0.0000000000
10
-37.9766184061
20
17.2672722166
30
0.0000000000
10
-37.9861758722
20
17.4076550353
30
0.0000000000
11
-37.2937832252
21
15.3054201956
31
0.0000000000
11
-37.5243958073
21
15.6872747237
31
0.0000000000
11
-37.7099684207
21
16.1102237347
31
0.0000000000
11
-37.8471849211
21
16.5500278861
31
0.0000000000
11
-37.9382214697
21
16.9882644014
31
0.0000000000
11
-37.9861758722
21
17.4076550353
31
0.0000000000
0
SPLINE
5
3BA
100
AcDbEntity
8
0
100
AcDbSpline
62
9
6
CONTINUOUS
70
0
71
3
72
15
73
11
74
9
42
0.0000001000
43
0.0000001000
44
0.0000000001
12
3.4988422886
22
0.0807843234
32
0.0000000000
13
-0.0183349658
23
3.4997267460
33
0.0000000000
40
0.0000000000
40
0.0000000000
40
0.0000000000
40
0.0000000000
40
0.0192366428
40
0.0761414350
40
0.1685527414
40
0.2929124540
40
0.4444464344
40
0.6173405139
40
0.8049282901
40
1.0000000000
40
1.0000000000
40
1.0000000000
40
1.0000000000
10
-38.0034684539
20
-18.8172747243
30
0.0000000000
10
-37.9810331275
20
-18.8167567179
30
0.0000000000
10
-38.0276972006
20
-18.6751702171
30
0.0000000000
10
-37.9796126683
20
-18.5286668475
30
0.0000000000
10
-38.0038908676
20
-18.1817566209
30
0.0000000000
10
-37.9928270604
20
-17.7636836659
30
0.0000000000
10
-37.9972570388
20
-17.2359373332
30
0.0000000000
10
-37.9974800758
20
-16.6400038033
30
0.0000000000
10
-38.0002599057
20
-15.9914768047
30
0.0000000000
10
-38.0022761965
20
-15.5451750008
30
0.0000000000
10
-38.0034684075
20
-15.3176091072
30
0.0000000000
11
-38.0034684539
21
-18.8172747243
31
0.0000000000
11
-38.0002469128
21
-18.7500279288
31
0.0000000000
11
-37.9978524978
21
-18.5508883671
31
0.0000000000
11
-37.9963783822
21
-18.2274729676
31
0.0000000000
11
-37.9958805858
21
-17.7922422673
31
0.0000000000
11
-37.9963783709
21
-17.2619076989
31
0.0000000000
11
-37.9978524778
21
-16.6568191563
31
0.0000000000
11
-38.0002468679
21
-16.0003085558
31
0.0000000000
11
-38.0034684075
21
-15.3176091072
31
0.0000000000
0
SPLINE
5
3BB
100
AcDbEntity
8
0
100
AcDbSpline
62
9
6
CONTINUOUS
70
0
71
3
72
11
73
7
74
5
42
0.0000001000
43
0.0000001000
44
0.0000000001
12
-0.0975771664
22
-0.0961779236
32
0.0000000000
13
0.0956196907
23
-0.0956196907
33
0.0000000000
40
0.0000000000
40
0.0000000000
40
0.0000000000
40
0.0000000000
40
0.0957282675
40
0.5711973220
40
0.8886224914
40
1.0000000000
40
1.0000000000
40
1.0000000000
40
1.0000000000
10
-48.3188856430
20
-18.9613102962
30
0.0000000000
10
-48.3219992741
20
-18.9643792782
30
0.0000000000
10
-48.3408558481
20
-18.9827184694
30
0.0000000000
10
-48.3736929643
20
-19.0115623908
30
0.0000000000
10
-48.3878666402
20
-19.0399045404
30
0.0000000000
10
-48.4167634587
20
-19.0550286828
30
0.0000000000
10
-48.4132134977
20
-19.0585786438
30
0.0000000000
11
-48.3188856430
21
-18.9613102962
31
0.0000000000
11
-48.3283829251
21
-18.9705319486
31
0.0000000000
11
-48.3734661291
21
-19.0163739859
31
0.0000000000
11
-48.4032481882
21
-19.0472856097
31
0.0000000000
11
-48.4132134977
21
-19.0585786438
31
0.0000000000
0
SPLINE
5
3BC
100
AcDbEntity
8
0
100
AcDbSpline
62
9
6
CONTINUOUS
70
0
71
3
72
11
73
7
74
5
42
0.0000001000
43
0.0000001000
44
0.0000000001
12
-0.0956137766
22
-0.0956137766
32
0.0000000000
13
0.0974913263
23
-0.0961671678
33
0.0000000000
40
0.0000000000
40
0.0000000000
40
0.0000000000
40
0.0000000000
40
0.1110658182
40
0.4270533412
40
0.9007312775
40
1.0000000000
40
1.0000000000
40
1.0000000000
40
1.0000000000
10
-48.4132134977
20
19.0585786438
30
0.0000000000
10
-48.4167533052
20
19.0550388363
30
0.0000000000
10
-48.3879748572
20
19.0399750138
30
0.0000000000
10
-48.3738486013
20
19.0117448930
30
0.0000000000
10
-48.3410109159
20
18.9828917174
30
0.0000000000
10
-48.3221063370
20
18.9644976150
30
0.0000000000
10
-48.3188803905
20
18.9613154844
30
0.0000000000
11
-48.4132134977
21
19.0585786438
31
0.0000000000
11
-48.4032777361
21
19.0473169875
31
0.0000000000
11
-48.3736338118
21
19.0165459047
31
0.0000000000
11
-48.3287250046
21
18.9708776231
31
0.0000000000
11
-48.3188803905
21
18.9613154844
31
0.0000000000
0
SPLINE
5
3BD
100
AcDbEntity
8
0
100
AcDbSpline
62
7
6
CONTINUOUS
70
0
71
3
72
12
73
8
74
6
42
0.0000001000
43
0.0000001000
44
0.0000000001
12
-0.3525490945
22
0.0000000000
32
0.0000000000
13
0.0000000000
23
0.3525490945
33
0.0000000000
40
0.0000000000
40
0.0000000000
40
0.0000000000
40
0.0000000000
40
0.1082300508
40
0.2802124190
40
0.5007280433
40
0.7485932746
40
1.0000000000
40
1.0000000000
40
1.0000000000
40
1.0000000000
10
-28.0149250720
20
-3.8000000000
30
0.0000000000
10
-28.0276438742
20
-3.8000000000
30
0.0000000000
10
-28.0579657323
20
-3.7805463634
30
0.0000000000
10
-28.0948939696
20
-3.7357443955
30
0.0000000000
10
-28.1319156794
20
-3.6692183839
30
0.0000000000
10
-28.1582989121
20
-3.5884212165
30
0.0000000000
10
-28.1647735964
20
-3.5295444045
30
0.0000000000
10
-28.1647735964
20
-3.5000000000
30
0.0000000000
11
-28.0149250720
21
-3.8000000000
31
0.0000000000
11
-28.0496264944
21
-3.7841342308
31
0.0000000000
11
-28.0901138174
21
-3.7390006095
31
0.0000000000
11
-28.1281377364
21
-3.6711913852
31
0.0000000000
11
-28.1552544630
21
-3.5881205573
31
0.0000000000
11
-28.1647735964
21
-3.5000000000
31
0.0000000000
0
SPLINE
5
3BE
100
AcDbEntity
8
0
100
AcDbSpline
62
7
6
CONTINUOUS
70
0
71
3
72
12
73
8
74
6
42
0.0000001000
43
0.0000001000
44
0.0000000001
12
0.0000000000
22
0.3525503320
32
0.0000000000
13
0.3525503320
23
0.0000000000
33
0.0000000000
40
0.0000000000
40
0.0000000000
40
0.0000000000
40
0.0000000000
40
0.2517851454
40
0.4992660688
40
0.7195437774
40
0.8919846191
40
1.0000000000
40
1.0000000000
40
1.0000000000
40
1.0000000000
10
-28.1647735964
20
1.9000000000
30
0.0000000000
10
-28.1647735964
20
1.9295889789
30
0.0000000000
10
-28.1582888178
20
1.9884657029
30
0.0000000000
10
-28.1319030953
20
2.0692315569
30
0.0000000000
10
-28.0948968006
20
2.1357379600
30
0.0000000000
10
-28.0579741818
20
2.1805558179
30
0.0000000000
10
-28.0276186915
20
2.2000000000
30
0.0000000000
10
-28.0149250720
20
2.2000000000
30
0.0000000000
11
-28.1647735964
21
1.9000000000
31
0.0000000000
11
-28.1552258910
21
1.9882519708
31
0.0000000000
11
-28.1281383013
21
2.0711901077
31
0.0000000000
11
-28.0901630634
21
2.1389307776
31
0.0000000000
11
-28.0495658154
21
2.1841832155
31
0.0000000000
11
-28.0149250720
21
2.2000000000
31
0.0000000000
0
SPLINE
5
3BF
100
AcDbEntity
8
0
100
AcDbSpline
62
9
6
CONTINUOUS
70
0
71
3
72
12
73
8
74
6
42
0.0000001000
43
0.0000001000
44
0.0000000001
12
1.3661586809
22
-0.0229028468
32
0.0000000000
13
0.0000070308
23
-1.3663506438
33
0.0000000000
40
0.0000000000
40
0.0000000000
40
0.0000000000
40
0.0000000000
40
0.2346519040
40
0.4568697469
40
0.6583045813
40
0.8369351592
40
1.0000000000
40
1.0000000000
40
1.0000000000
40
1.0000000000
10
-37.9958995514
20
17.6960856620
30
0.0000000000
10
-37.8890423062
20
17.6942942631
30
0.0000000000
10
-37.6806257393
20
17.6693131289
30
0.0000000000
10
-37.3952497107
20
17.5691942452
30
0.0000000000
10
-37.1645253465
20
17.4141073248
30
0.0000000000
10
-37.0098241514
20
17.2141878087
30
0.0000000000
10
-36.9717925236
20
17.0569651799
30
0.0000000000
10
-36.9717921415
20
16.9826972631
30
0.0000000000
11
-37.9958995514
21
17.6960856620
31
0.0000000000
11
-37.6776871683
21
17.6568938399
31
0.0000000000
11
-37.3921170260
21
17.5537466242
31
0.0000000000
11
-37.1662786760
21
17.3964286929
31
0.0000000000
11
-37.0215954350
21
17.1998634278
31
0.0000000000
11
-36.9717921415
21
16.9826972631
31
0.0000000000
0
SPLINE
5
3C0
100
AcDbEntity
8
0
100
AcDbSpline
62
9
6
CONTINUOUS
70
0
71
3
72
12
73
8
74
6
42
0.0000001000
43
0.0000001000
44
0.0000000001
12
1.2421678653
22
0.0611596962
32
0.0000000000
13
0.1224928237
23
-1.2376255582
33
0.0000000000
40
0.0000000000
40
0.0000000000
40
0.0000000000
40
0.0000000000
40
0.2459420226
40
0.4746032553
40
0.6762750660
40
0.8484276920
40
1.0000000000
40
1.0000000000
40
1.0000000000
40
1.0000000000
10
-37.9861760976
20
17.4076495241
30
0.0000000000
10
-37.8843423385
20
17.4126634372
30
0.0000000000
10
-37.6864785979
20
17.4054131429
30
0.0000000000
10
-37.4113483962
20
17.3423431479
30
0.0000000000
10
-37.1844751606
20
17.2313767797
30
0.0000000000
10
-37.0232233043
20
17.0778855870
30
0.0000000000
10
-36.9731155247
20
16.9467092954
30
0.0000000000
10
-36.9669266847
20
16.8841793746
30
0.0000000000
11
-37.9861760976
21
17.4076495241
31
0.0000000000
11
-37.6805577953
21
17.3952101663
31
0.0000000000
11
-37.4040460510
21
17.3287791989
31
0.0000000000
11
-37.1809369057
21
17.2141937588
31
0.0000000000
11
-37.0308341237
21
17.0615221891
31
0.0000000000
11
-36.9669266847
21
16.8841793746
31
0.0000000000
0
SPLINE
5
3C1
100
AcDbEntity
8
0
100
AcDbSpline
62
9
6
CONTINUOUS
70
0
71
3
72
11
73
7
74
5
42
0.0000001000
43
0.0000001000
44
0.0000000001
12
0.6739013020
22
0.6833116497
32
0.0000000000
13
0.6528680857
23
0.7034351699
33
0.0000000000
40
0.0000000000
40
0.0000000000
40
0.0000000000
40
0.0000000000
40
0.3153983280
40
0.6027765984
40
0.8376462643
40
1.0000000000
40
1.0000000000
40
1.0000000000
40
1.0000000000
10
-37.2937834283
20
15.3054201945
30
0.0000000000
10
-37.2229343137
20
15.3772586452
30
0.0000000000
10
-37.0877744073
20
15.5147939810
30
0.0000000000
10
-36.9006624767
20
15.7066192381
30
0.0000000000
10
-36.7485602344
20
15.8641909458
30
0.0000000000
10
-36.6609276612
20
15.9562231252
30
0.0000000000
10
-36.6255958037
20
15.9942915677
30
0.0000000000
11
-37.2937834283
21
15.3054201945
31
0.0000000000
11
-37.0816318822
21
15.5213251777
31
0.0000000000
11
-36.8891232705
21
15.7188274836
31
0.0000000000
11
-36.7326660373
21
15.8810931430
31
0.0000000000
11
-36.6255958037
21
15.9942915677
31
0.0000000000
0
SPLINE
5
3C2
100
AcDbEntity
8
0
100
AcDbSpline
62
7
6
CONTINUOUS
70
0
71
3
72
15
73
11
74
9
42
0.0000001000
43
0.0000001000
44
0.0000000001
12
-0.1289633762
22
-2.7735657502
32
0.0000000000
13
0.0000000000
23
-2.7765623571
33
0.0000000000
40
0.0000000000
40
0.0000000000
40
0.0000000000
40
0.0000000000
40
0.1186585473
40
0.2423633576
40
0.3692034005
40
0.4973154849
40
0.6254223767
40
0.7525068404
40
0.8778508496
40
1.0000000000
40
1.0000000000
40
1.0000000000
40
1.0000000000
10
-27.9764979830
20
-7.2071067812
30
0.0000000000
10
-27.9815988519
20
-7.3168092088
30
0.0000000000
10
-27.9986242987
20
-7.5405309689
30
0.0000000000
10
-28.0276145648
20
-7.8809837177
30
0.0000000000
10
-28.0486005272
20
-8.2308948614
30
0.0000000000
10
-28.0534069556
20
-8.5855492518
30
0.0000000000
10
-28.0400709668
20
-8.9401826355
30
0.0000000000
10
-28.0134022758
20
-9.2914110210
30
0.0000000000
10
-27.9837638830
20
-9.6367608897
30
0.0000000000
10
-27.9717921415
20
-9.8657380020
30
0.0000000000
10
-27.9717921415
20
-9.9787895796
30
0.0000000000
11
-27.9764979830
21
-7.2071067812
31
0.0000000000
11
-27.9987504521
21
-7.5358172935
31
0.0000000000
11
-28.0259575312
21
-7.8782121617
31
0.0000000000
11
-28.0458244857
21
-8.2298306414
31
0.0000000000
11
-28.0503745631
21
-8.5855127302
31
0.0000000000
11
-28.0377659057
21
-8.9409859591
31
0.0000000000
11
-28.0127017394
21
-9.2929525940
31
0.0000000000
11
-27.9854633113
21
-9.6399104980
31
0.0000000000
11
-27.9717921415
21
-9.9787895796
31
0.0000000000
0
SPLINE
5
3C3
100
AcDbEntity
8
0
100
AcDbSpline
62
9
6
CONTINUOUS
70
0
71
3
72
15
73
11
74
9
42
0.0000001000
43
0.0000001000
44
0.0000000001
12
0.0001083452
22
2.6434376075
32
0.0000000000
13
0.8366752500
23
2.5075360262
33
0.0000000000
40
0.0000000000
40
0.0000000000
40
0.0000000000
40
0.0000000000
40
0.0873078278
40
0.1798354880
40
0.2813141361
40
0.3956455615
40
0.5267396038
40
0.6782174292
40
0.8389209229
40
1.0000000000
40
1.0000000000
40
1.0000000000
40
1.0000000000
10
-36.9717914973
20
-9.1852788586
30
0.0000000000
10
-36.9717883441
20
-9.1083479267
30
0.0000000000
10
-36.9553525301
20
-8.9495076494
30
0.0000000000
10
-36.8830031048
20
-8.7110961997
30
0.0000000000
10
-36.7625144655
20
-8.4666262272
30
0.0000000000
10
-36.6010181966
20
-8.2070922139
30
0.0000000000
10
-36.4242157993
20
-7.9050414437
30
0.0000000000
10
-36.2621152637
20
-7.5487977119
30
0.0000000000
10
-36.1233284411
20
-7.1553634534
30
0.0000000000
10
-36.0343799391
20
-6.8861681824
30
0.0000000000
10
-35.9894563134
20
-6.7515309861
30
0.0000000000
11
-36.9717914973
21
-9.1852788586
31
0.0000000000
11
-36.9488022702
21
-8.9556338935
31
0.0000000000
11
-36.8794101534
21
-8.7210927696
31
0.0000000000
11
-36.7639692132
21
-8.4789507046
31
0.0000000000
11
-36.6098913421
21
-8.2189473057
31
0.0000000000
11
-36.4381471409
21
-7.9179603396
31
0.0000000000
11
-36.2708127319
21
-7.5541786492
31
0.0000000000
11
-36.1247895294
21
-7.1552545073
31
0.0000000000
11
-35.9894563134
21
-6.7515309861
31
0.0000000000
0
SPLINE
5
3C4
100
AcDbEntity
8
0
100
AcDbSpline
62
9
6
CONTINUOUS
70
0
71
3
72
12
73
8
74
6
42
0.0000001000
43
0.0000001000
44
0.0000000001
12
-0.4991042715
22
0.8206095738
32
0.0000000000
13
-0.0947579981
23
0.9557855765
33
0.0000000000
40
0.0000000000
40
0.0000000000
40
0.0000000000
40
0.0000000000
40
0.2392538987
40
0.4611037923
40
0.6627406379
40
0.8430302831
40
1.0000000000
40
1.0000000000
40
1.0000000000
40
1.0000000000
10
-36.6256018474
20
15.9942855063
30
0.0000000000
10
-36.6654060617
20
16.0597301862
30
0.0000000000
10
-36.7389456522
20
16.1878721598
30
0.0000000000
10
-36.8305609779
20
16.3795104099
30
0.0000000000
10
-36.8987269985
20
16.5606847291
30
0.0000000000
10
-36.9442330889
20
16.7273598541
30
0.0000000000
10
-36.9619565464
20
16.8341470793
30
0.0000000000
10
-36.9669145918
20
16.8841568764
30
0.0000000000
11
-36.6256018474
21
15.9942855063
31
0.0000000000
11
-36.7390834614
21
16.1941063204
31
0.0000000000
11
-36.8304104470
21
16.3866229787
31
0.0000000000
11
-36.8981078121
21
16.5680719898
31
0.0000000000
11
-36.9431286386
21
16.7352801266
31
0.0000000000
11
-36.9669145918
21
16.8841568764
31
0.0000000000
0
SPLINE
5
3C5
100
AcDbEntity
8
0
100
AcDbSpline
62
9
6
CONTINUOUS
70
0
71
3
72
11
73
7
74
5
42
0.0000001000
43
0.0000001000
44
0.0000000001
12
-0.5151655820
22
1.5605575075
32
0.0000000000
13
-0.8581423871
23
1.4015444890
33
0.0000000000
40
0.0000000000
40
0.0000000000
40
0.0000000000
40
0.0000000000
40
0.2666682433
40
0.5344518008
40
0.7850592164
40
1.0000000000
40
1.0000000000
40
1.0000000000
40
1.0000000000
10
-35.9897858099
20
14.4845346673
30
0.0000000000
10
-36.0355785768
20
14.6232517103
30
0.0000000000
10
-36.1204422590
20
14.9034934703
30
0.0000000000
10
-36.2661872305
20
15.3084160548
30
0.0000000000
10
-36.4338172033
20
15.6743347803
30
0.0000000000
10
-36.5641185817
20
15.8938691494
30
0.0000000000
10
-36.6256018474
20
15.9942855063
30
0.0000000000
11
-35.9897858099
21
14.4845346673
31
0.0000000000
11
-36.1238393053
21
14.9017686786
31
0.0000000000
11
-36.2753155456
21
15.3149506810
31
0.0000000000
11
-36.4488908407
21
15.6884326816
31
0.0000000000
11
-36.6256018474
21
15.9942855063
31
0.0000000000
0
SPLINE
5
3C6
100
AcDbEntity
8
0
100
AcDbSpline
62
9
6
CONTINUOUS
70
0
71
3
72
15
73
11
74
9
42
0.0000001000
43
0.0000001000
44
0.0000000001
12
-1.4999060520
22
-0.0170406695
32
0.0000000000
13
0.0174464818
23
1.4999013866
33
0.0000000000
40
0.0000000000
40
0.0000000000
40
0.0000000000
40
0.0000000000
40
0.0191121526
40
0.0760824851
40
0.1684514031
40
0.2928974843
40
0.4445791104
40
0.6175302962
40
0.8057923810
40
1.0000000000
40
1.0000000000
40
1.0000000000
40
1.0000000000
10
-35.9892445479
20
-15.9828495680
30
0.0000000000
10
-35.9988000257
20
-15.9829581293
30
0.0000000000
10
-35.9827804111
20
-15.9218602554
30
0.0000000000
10
-36.0016424435
20
-15.8596500470
30
0.0000000000
10
-35.9933782907
20
-15.7106259356
30
0.0000000000
10
-35.9976905565
20
-15.5314675572
30
0.0000000000
10
-35.9957233053
20
-15.3050846773
30
0.0000000000
10
-35.9947660623
20
-15.0492461777
30
0.0000000000
10
-35.9923487714
20
-14.7713562645
30
0.0000000000
10
-35.9903739611
20
-14.5801754509
30
0.0000000000
10
-35.9892445479
20
-14.4830780252
30
0.0000000000
11
-35.9892445479
21
-15.9828495680
31
0.0000000000
11
-35.9923001453
21
-15.9543445895
31
0.0000000000
11
-35.9945892070
21
-15.8689195920
31
0.0000000000
11
-35.9959948579
21
-15.7303730822
31
0.0000000000
11
-35.9964698128
21
-15.5437042100
31
0.0000000000
11
-35.9959946713
21
-15.3161818347
31
0.0000000000
11
-35.9945887864
21
-15.0567583725
31
0.0000000000
11
-35.9922994815
21
-14.7743739885
31
0.0000000000
11
-35.9892445479
21
-14.4830780252
31
0.0000000000
0
SPLINE
5
3C7
100
AcDbEntity
8
0
100
AcDbSpline
62
9
6
CONTINUOUS
70
0
71
3
72
14
73
10
74
8
42
0.0000001000
43
0.0000001000
44
0.0000000001
12
0.0174252567
22
-1.4998871851
32
0.0000000000
13
-1.4994549170
23
-0.0400019939
33
0.0000000000
40
0.0000000000
40
0.0000000000
40
0.0000000000
40
0.0000000000
40
0.2223521280
40
0.4337297815
40
0.6233467517
40
0.7816962254
40
0.9008431101
40
0.9748232356
40
1.0000000000
40
1.0000000000
40
1.0000000000
40
1.0000000000
10
-28.9543397350
20
-14.3602833050
30
0.0000000000
10
-28.9530482207
20
-14.4714510074
30
0.0000000000
10
-28.9506584405
20
-14.6884723046
30
0.0000000000
10
-28.9488578592
20
-14.9994279593
30
0.0000000000
10
-28.9457525830
20
-15.2812814988
30
0.0000000000
10
-28.9508016157
20
-15.5086561122
30
0.0000000000
10
-28.9392144969
20
-15.6993878407
30
0.0000000000
10
-28.9640132249
20
-15.7810430570
30
0.0000000000
10
-28.9417559273
20
-15.8597191408
30
0.0000000000
10
-28.9543397350
20
-15.8600548477
30
0.0000000000
11
-28.9543397350
21
-14.3602833050
31
0.0000000000
11
-28.9508967687
21
-14.6937911469
31
0.0000000000
11
-28.9484982717
21
-15.0108461036
31
0.0000000000
11
-28.9472695064
21
-15.2952667057
31
0.0000000000
11
-28.9472697607
21
-15.5327890797
31
0.0000000000
11
-28.9484988317
21
-15.7115037988
31
0.0000000000
11
-28.9508974583
21
-15.8224472025
31
0.0000000000
11
-28.9543397350
21
-15.8600548477
31
0.0000000000
0
SPLINE
5
3C8
100
AcDbEntity
8
0
100
AcDbSpline
62
9
6
CONTINUOUS
70
0
71
3
72
15
73
11
74
9
42
0.0000001000
43
0.0000001000
44
0.0000000001
12
-0.0170339678
22
-1.4814800382
32
0.0000000000
13
1.4814509734
23
0.0193977601
33
0.0000000000
40
0.0000000000
40
0.0000000000
40
0.0000000000
40
0.0000000000
40
0.1947992458
40
0.3832988823
40
0.5562417844
40
0.7077271942
40
0.8319194953
40
0.9240727234
40
0.9808909110
40
1.0000000000
40
1.0000000000
40
1.0000000000
40
1.0000000000
10
-35.9894558211
20
-6.7515023454
30
0.0000000000
10
-35.9905618892
20
-6.8476994101
30
0.0000000000
10
-35.9924924964
20
-7.0369413761
30
0.0000000000
10
-35.9948490197
20
-7.3118243179
30
0.0000000000
10
-35.9957642044
20
-7.5645355917
30
0.0000000000
10
-35.9976736965
20
-7.7879121273
30
0.0000000000
10
-35.9934042625
20
-7.9645446026
30
0.0000000000
10
-36.0015022428
20
-8.1114163734
30
0.0000000000
10
-35.9829332874
20
-8.1727066833
30
0.0000000000
10
-35.9986809407
20
-8.2329731258
30
0.0000000000
10
-35.9892445479
20
-8.2328495680
30
0.0000000000
11
-35.9894558211
21
-6.7515023454
31
0.0000000000
11
-35.9924449954
21
-7.0400971352
31
0.0000000000
11
-35.9946738518
21
-7.3193651484
31
0.0000000000
11
-35.9960303965
21
-7.5755899499
31
0.0000000000
11
-35.9964693710
21
-7.8000269654
31
0.0000000000
11
-35.9959733399
21
-7.9840268733
31
0.0000000000
11
-35.9945620216
21
-8.1205517708
31
0.0000000000
11
-35.9922831074
21
-8.2047014927
31
0.0000000000
11
-35.9892445479
21
-8.2328495680
31
0.0000000000
0
SPLINE
5
3C9
100
AcDbEntity
8
0
100
AcDbSpline
62
9
6
CONTINUOUS
70
0
71
3
72
14
73
10
74
8
42
0.0000001000
43
0.0000001000
44
0.0000000001
12
0.0174514175
22
-1.4998868980
32
0.0000000000
13
-1.4994986668
23
-0.0383276286
33
0.0000000000
40
0.0000000000
40
0.0000000000
40
0.0000000000
40
0.0000000000
40
0.2223269569
40
0.4337064608
40
0.6233265231
40
0.7816800860
40
0.9008318632
40
0.9748174688
40
1.0000000000
40
1.0000000000
40
1.0000000000
40
1.0000000000
10
-28.9543397350
20
-6.6102833050
30
0.0000000000
10
-28.9530464282
20
-6.7214384015
30
0.0000000000
10
-28.9506600539
20
-6.9384482454
30
0.0000000000
10
-28.9488582046
20
-7.2493930089
30
0.0000000000
10
-28.9457529873
20
-7.5312535224
30
0.0000000000
10
-28.9508014191
20
-7.7586271553
30
0.0000000000
10
-28.9392136184
20
-7.9493834842
30
0.0000000000
10
-28.9640141100
20
-8.0310136373
30
0.0000000000
10
-28.9417526777
20
-8.1097331188
30
0.0000000000
10
-28.9543397350
20
-8.1100548477
30
0.0000000000
11
-28.9543397350
21
-6.6102833050
31
0.0000000000
11
-28.9508974583
21
-6.9437533996
31
0.0000000000
11
-28.9484988316
21
-7.2608111345
31
0.0000000000
11
-28.9472697607
21
-7.5452363765
31
0.0000000000
11
-28.9472695064
21
-7.7827648870
31
0.0000000000
11
-28.9484982717
21
-7.9614869490
31
0.0000000000
11
-28.9508967687
21
-8.0724385790
31
0.0000000000
11
-28.9543397350
21
-8.1100548477
31
0.0000000000
0
SPLINE
5
3CA
100
AcDbEntity
8
0
100
AcDbSpline
62
9
6
CONTINUOUS
70
0
71
3
72
10
73
6
74
4
42
0.0000001000
43
0.0000001000
44
0.0000000001
12
0.0023168936
22
-0.0182715477
32
0.0000000000
13
-0.0026158514
23
-0.0182311484
33
0.0000000000
40
0.0000000000
40
0.0000000000
40
0.0000000000
40
0.0000000000
40
0.3338092346
40
0.6676280256
40
1.0000000000
40
1.0000000000
40
1.0000000000
40
1.0000000000
10
-35.9897440535
20
-6.7330867441
30
0.0000000000
10
-35.9894862533
20
-6.7351198146
30
0.0000000000
10
-35.9897092496
20
-6.7392443120
30
0.0000000000
10
-35.9896719147
20
-6.7453609158
30
0.0000000000
10
-35.9891660092
20
-6.7494825045
30
0.0000000000
10
-35.9894558211
20
-6.7515023454
30
0.0000000000
11
-35.9897440535
21
-6.7330867441
31
0.0000000000
11
-35.9896472677
21
-6.7392340330
31
0.0000000000
11
-35.9895510795
21
-6.7453815072
31
0.0000000000
11
-35.9894558211
21
-6.7515023454
31
0.0000000000
0
SPLINE
5
3CB
100
AcDbEntity
8
0
100
AcDbSpline
62
9
6
CONTINUOUS
70
0
71
3
72
14
73
10
74
8
42
0.0000001000
43
0.0000001000
44
0.0000000001
12
1.4994549183
22
-0.0400019469
32
0.0000000000
13
-0.0174252567
23
-1.4998871851
33
0.0000000000
40
0.0000000000
40
0.0000000000
40
0.0000000000
40
0.0000000000
40
0.0251767646
40
0.0991568902
40
0.2183037751
40
0.3766532489
40
0.5662702193
40
0.7776478728
40
1.0000000000
40
1.0000000000
40
1.0000000000
40
1.0000000000
10
-28.9543397350
20
15.8600548477
30
0.0000000000
10
-28.9417559272
20
15.8597191412
30
0.0000000000
10
-28.9640132249
20
15.7810430561
30
0.0000000000
10
-28.9392144969
20
15.6993878405
30
0.0000000000
10
-28.9508016157
20
15.5086561114
30
0.0000000000
10
-28.9457525830
20
15.2812814979
30
0.0000000000
10
-28.9488578592
20
14.9994279582
30
0.0000000000
10
-28.9506584406
20
14.6884723038
30
0.0000000000
10
-28.9530482207
20
14.4714510070
30
0.0000000000
10
-28.9543397350
20
14.3602833050
30
0.0000000000
11
-28.9543397350
21
15.8600548477
31
0.0000000000
11
-28.9508974583
21
15.8224472023
31
0.0000000000
11
-28.9484988316
21
15.7115037983
31
0.0000000000
11
-28.9472697607
21
15.5327890790
31
0.0000000000
11
-28.9472695064
21
15.2952667047
31
0.0000000000
11
-28.9484982717
21
15.0108461025
31
0.0000000000
11
-28.9508967687
21
14.6937911457
31
0.0000000000
11
-28.9543397350
21
14.3602833050
31
0.0000000000
0
SPLINE
5
3CC
100
AcDbEntity
8
0
100
AcDbSpline
62
9
6
CONTINUOUS
70
0
71
3
72
15
73
11
74
9
42
0.0000001000
43
0.0000001000
44
0.0000000001
12
-0.0174272389
22
1.4999013876
32
0.0000000000
13
1.4999045394
23
-0.0171538262
33
0.0000000000
40
0.0000000000
40
0.0000000000
40
0.0000000000
40
0.0000000000
40
0.1941719053
40
0.3823893450
40
0.5553549948
40
0.7070323480
40
0.8314818249
40
0.9238750902
40
0.9808573616
40
1.0000000000
40
1.0000000000
40
1.0000000000
40
1.0000000000
10
-35.9892497896
20
14.4830781167
30
0.0000000000
10
-35.9903777497
20
14.5801576868
30
0.0000000000
10
-35.9923463945
20
14.7712983786
30
0.0000000000
10
-35.9947657876
20
15.0491551804
30
0.0000000000
10
-35.9957227702
20
15.3049765846
30
0.0000000000
10
-35.9976903596
20
15.5313656984
30
0.0000000000
10
-35.9933786761
20
15.7105368386
30
0.0000000000
10
-36.0016449957
20
15.8595807732
30
0.0000000000
10
-35.9827769525
20
15.9218201576
30
0.0000000000
10
-35.9988152580
20
15.9829590245
30
0.0000000000
10
-35.9892445479
20
15.9828495680
30
0.0000000000
11
-35.9892497896
21
14.4830781167
31
0.0000000000
11
-35.9922989807
21
14.7743205233
31
0.0000000000
11
-35.9945879559
21
15.0566378981
31
0.0000000000
11
-35.9959942869
21
15.3160830157
31
0.0000000000
11
-35.9964698125
21
15.5435989471
31
0.0000000000
11
-35.9959954302
21
15.7302728866
31
0.0000000000
11
-35.9945902458
21
15.8688559034
31
0.0000000000
11
-35.9923022854
21
15.9542988326
31
0.0000000000
11
-35.9892445479
21
15.9828495680
31
0.0000000000
0
SPLINE
5
3CD
100
AcDbEntity
8
0
100
AcDbSpline
62
7
6
CONTINUOUS
70
0
71
3
72
22
73
18
74
16
42
0.0000001000
43
0.0000001000
44
0.0000000001
12
0.0000000000
22
-3.5992761366
32
0.0000000000
13
0.0000000000
23
-3.5992761366
33
0.0000000000
40
0.0000000000
40
0.0000000000
40
0.0000000000
40
0.0000000000
40
0.0609505192
40
0.1254923078
40
0.1927985466
40
0.2621913020
40
0.3335321020
40
0.4068578503
40
0.4803938758
40
0.5501851751
40
0.6162690802
40
0.6804347288
40
0.7443433672
40
0.8095322028
40
0.8755794888
40
0.9400054794
40
1.0000000000
40
1.0000000000
40
1.0000000000
40
1.0000000000
10
-27.9717921415
20
10.2872983794
30
0.0000000000
10
-27.9717921415
20
10.2141724629
30
0.0000000000
10
-27.9806965716
20
10.0636155704
30
0.0000000000
10
-28.0097827371
20
9.8340887701
30
0.0000000000
10
-28.0479385812
20
9.5956648534
30
0.0000000000
10
-28.0887123001
20
9.3494246840
30
0.0000000000
10
-28.1260667224
20
9.0953020555
30
0.0000000000
10
-28.1538894943
20
8.8348895983
30
0.0000000000
10
-28.1668142881
20
8.5751087558
30
0.0000000000
10
-28.1633726288
20
8.3237275327
30
0.0000000000
10
-28.1461798840
20
8.0842335843
30
0.0000000000
10
-28.1187853231
20
7.8528487212
30
0.0000000000
10
-28.0842647058
20
7.6235433003
30
0.0000000000
10
-28.0460076707
20
7.3925674268
30
0.0000000000
10
-28.0090487524
20
7.1607310914
30
0.0000000000
10
-27.9804880253
20
6.9339531339
30
0.0000000000
10
-27.9717921415
20
6.7846805694
30
0.0000000000
10
-27.9717921415
20
6.7127016206
30
0.0000000000
11
-27.9717921415
21
10.2872983794
31
0.0000000000
11
-27.9828072475
21
10.0681973425
31
0.0000000000
11
-28.0105896444
21
9.8375609263
31
0.0000000000
11
-28.0477546351
21
9.5981749668
31
0.0000000000
11
-28.0875953704
21
9.3516093247
31
0.0000000000
11
-28.1240669702
21
9.0974374424
31
0.0000000000
11
-28.1513785847
21
8.8349347957
31
0.0000000000
11
-28.1641668534
21
8.5705674572
31
0.0000000000
11
-28.1608198740
21
8.3193915979
31
0.0000000000
11
-28.1441659879
21
8.0821211207
31
0.0000000000
11
-28.1175427122
21
7.8527108946
31
0.0000000000
11
-28.0839421044
21
7.6251533749
31
0.0000000000
11
-28.0464075829
21
7.3935424375
31
0.0000000000
11
-28.0100444609
21
7.1586176143
31
0.0000000000
11
-27.9824943300
21
6.9283730948
31
0.0000000000
11
-27.9717921415
21
6.7127016206
31
0.0000000000
0
SPLINE
5
3CE
100
AcDbEntity
8
0
100
AcDbSpline
62
7
6
CONTINUOUS
70
0
71
3
72
10
73
6
74
4
42
0.0000001000
43
0.0000001000
44
0.0000000001
12
3.9999639244
22
-0.0374577365
32
0.0000000000
13
4.0000360299
23
-0.0287443498
33
0.0000000000
40
0.0000000000
40
0.0000000000
40
0.0000000000
40
0.0000000000
40
0.3364612699
40
0.6698019779
40
1.0000000000
40
1.0000000000
40
1.0000000000
40
1.0000000000
10
-50.1717921415
20
22.6631666220
30
0.0000000000
10
-49.7231811610
20
22.6589655961
30
0.0000000000
10
-48.8301171894
20
22.6508896424
30
0.0000000000
10
-47.4967838102
20
22.6397549575
30
0.0000000000
10
-46.6120601366
20
22.6330303785
30
0.0000000000
10
-46.1717921415
20
22.6298666026
30
0.0000000000
11
-50.1717921415
21
22.6631666220
31
0.0000000000
11
-48.8259551118
21
22.6510079398
31
0.0000000000
11
-47.4925922153
21
22.6398874691
31
0.0000000000
11
-46.1717921415
21
22.6298666026
31
0.0000000000
0
SPLINE
5
3CF
100
AcDbEntity
8
0
100
AcDbSpline
62
7
6
CONTINUOUS
70
0
71
3
72
10
73
6
74
4
42
0.0000001000
43
0.0000001000
44
0.0000000001
12
3.9999639244
22
0.0374577365
32
0.0000000000
13
4.0000360299
23
0.0287443498
33
0.0000000000
40
0.0000000000
40
0.0000000000
40
0.0000000000
40
0.0000000000
40
0.3364612699
40
0.6698019779
40
1.0000000000
40
1.0000000000
40
1.0000000000
40
1.0000000000
10
-50.1717921415
20
-22.6631666220
30
0.0000000000
10
-49.7231811610
20
-22.6589655961
30
0.0000000000
10
-48.8301171894
20
-22.6508896424
30
0.0000000000
10
-47.4967838102
20
-22.6397549575
30
0.0000000000
10
-46.6120601366
20
-22.6330303785
30
0.0000000000
10
-46.1717921415
20
-22.6298666026
30
0.0000000000
11
-50.1717921415
21
-22.6631666220
31
0.0000000000
11
-48.8259551118
21
-22.6510079398
31
0.0000000000
11
-47.4925922153
21
-22.6398874691
31
0.0000000000
11
-46.1717921415
21
-22.6298666026
31
0.0000000000
0
SPLINE
5
3D0
100
AcDbEntity
8
0
100
AcDbSpline
62
9
6
CONTINUOUS
70
0
71
3
72
9
73
5
74
3
42
0.0000001000
43
0.0000001000
44
0.0000000001
12
-1.6999914176
22
0.0809633026
32
0.0000000000
13
-1.7000085302
23
0.0806031866
33
0.0000000000
40
0.0000000000
40
0.0000000000
40
0.0000000000
40
0.0000000000
40
0.5000659660
40
1.0000000000
40
1.0000000000
40
1.0000000000
40
1.0000000000
10
-48.4717921415
20
18.1500523430
30
0.0000000000
10
-48.7551614250
20
18.1635480071
30
0.0000000000
10
-49.3218266701
20
18.1905055632
30
0.0000000000
10
-49.8884947674
20
18.2174030963
30
0.0000000000
10
-50.1717921415
20
18.2308351883
30
0.0000000000
11
-48.4717921415
21
18.1500523430
31
0.0000000000
11
-49.3219021446
21
18.1904941101
31
0.0000000000
11
-50.1717921415
21
18.2308351883
31
0.0000000000
0
SPLINE
5
3D1
100
AcDbEntity
8
0
100
AcDbSpline
62
7
6
CONTINUOUS
70
0
71
3
72
10
73
6
74
4
42
0.0000001000
43
0.0000001000
44
0.0000000001
12
4.0000789575
22
-0.0760029924
32
0.0000000000
13
3.9999099472
23
-0.0844306542
33
0.0000000000
40
0.0000000000
40
0.0000000000
40
0.0000000000
40
0.0000000000
40
0.3364546673
40
0.6697952345
40
1.0000000000
40
1.0000000000
40
1.0000000000
40
1.0000000000
10
-50.1717921415
20
23.1799085618
30
0.0000000000
10
-49.7231770631
20
23.1713847079
30
0.0000000000
10
-48.8301043434
20
23.1541394510
30
0.0000000000
10
-47.4967699982
20
23.1275016990
30
0.0000000000
10
-46.6120552502
20
23.1091836096
30
0.0000000000
10
-46.1717921415
20
23.0998904748
30
0.0000000000
11
-50.1717921415
21
23.1799085618
31
0.0000000000
11
-48.8259551118
21
23.1539087364
31
0.0000000000
11
-47.4925922153
21
23.1272559626
31
0.0000000000
11
-46.1717921415
21
23.0998904748
31
0.0000000000
0
SPLINE
5
3D2
100
AcDbEntity
8
0
100
AcDbSpline
62
9
6
CONTINUOUS
70
0
71
3
72
13
73
9
74
7
42
0.0000001000
43
0.0000001000
44
0.0000000001
12
-0.7353260965
22
-0.0383875882
32
0.0000000000
13
-0.0307181493
23
-0.7356863941
33
0.0000000000
40
0.0000000000
40
0.0000000000
40
0.0000000000
40
0.0000000000
40
0.1661760139
40
0.3329167328
40
0.4996404914
40
0.6663226984
40
0.8331932491
40
1.0000000000
40
1.0000000000
40
1.0000000000
40
1.0000000000
10
-58.2656053865
20
21.4755923698
30
0.0000000000
10
-58.3063365730
20
21.4734660044
30
0.0000000000
10
-58.3877602160
20
21.4590758242
30
0.0000000000
10
-58.5007658880
20
21.4084670293
30
0.0000000000
10
-58.5982203879
20
21.3317731277
30
0.0000000000
10
-58.6740372092
20
21.2335934973
30
0.0000000000
10
-58.7236612713
20
21.1199569645
30
0.0000000000
10
-58.7372874453
20
21.0382017357
30
0.0000000000
10
-58.7389954435
20
20.9972959167
30
0.0000000000
11
-58.2656053865
21
21.4755923698
31
0.0000000000
11
-58.3860956577
21
21.4542838406
31
0.0000000000
11
-58.4981582539
21
21.4041254635
31
0.0000000000
11
-58.5946182979
21
21.3281894262
31
0.0000000000
11
-58.6696463054
21
21.2310600855
31
0.0000000000
11
-58.7187990181
21
21.1184484404
31
0.0000000000
11
-58.7389954435
21
20.9972959167
31
0.0000000000
0
SPLINE
5
3D3
100
AcDbEntity
8
0
100
AcDbSpline
62
9
6
CONTINUOUS
70
0
71
3
72
12
73
8
74
6
42
0.0000001000
43
0.0000001000
44
0.0000000001
12
-0.0261470918
22
0.4990710030
32
0.0000000000
13
0.4990705792
23
0.0261551808
33
0.0000000000
40
0.0000000000
40
0.0000000000
40
0.0000000000
40
0.0000000000
40
0.3089436939
40
0.5876060637
40
0.8087537240
40
0.9507915428
40
1.0000000000
40
1.0000000000
40
1.0000000000
40
1.0000000000
10
-58.2656053865
20
21.4755923698
30
0.0000000000
10
-58.2682980462
20
21.5269873162
30
0.0000000000
10
-58.2739541814
20
21.6256520607
30
0.0000000000
10
-58.2768211030
20
21.7567809177
30
0.0000000000
10
-58.2885330780
20
21.8725158008
30
0.0000000000
10
-58.2752052802
20
21.9242212339
30
0.0000000000
10
-58.2912333304
20
21.9744781183
30
0.0000000000
10
-58.2830471660
20
21.9749071370
30
0.0000000000
11
-58.2656053865
21
21.4755923698
31
0.0000000000
11
-58.2732579326
21
21.6297989097
31
0.0000000000
11
-58.2793092173
21
21.7689304222
31
0.0000000000
11
-58.2831675180
21
21.8793828084
31
0.0000000000
11
-58.2844555042
21
21.9503553003
31
0.0000000000
11
-58.2830471660
21
21.9749071370
31
0.0000000000
0
SPLINE
5
3D4
100
AcDbEntity
8
0
100
AcDbSpline
62
9
6
CONTINUOUS
70
0
71
3
72
10
73
6
74
4
42
0.0000001000
43
0.0000001000
44
0.0000000001
12
-1.7657692813
22
-41.9684644010
32
0.0000000000
13
1.7657699770
23
-41.9684643717
33
0.0000000000
40
0.0000000000
40
0.0000000000
40
0.0000000000
40
0.0000000000
40
0.3333323477
40
0.6666669816
40
1.0000000000
40
1.0000000000
40
1.0000000000
40
1.0000000000
10
-58.7389954435
20
20.9972959167
30
0.0000000000
10
-58.9351914502
20
16.3341469941
30
0.0000000000
10
-59.1968744094
20
7.0017671651
30
0.0000000000
10
-59.1968747060
20
-7.0017483769
30
0.0000000000
10
-58.9351919223
20
-16.3341376140
30
0.0000000000
10
-58.7389954435
20
-20.9972959167
30
0.0000000000
11
-58.7389954435
21
20.9972959167
31
0.0000000000
11
-59.1314532703
21
7.0009737718
31
0.0000000000
11
-59.1314536436
21
-7.0009455965
31
0.0000000000
11
-58.7389954435
21
-20.9972959167
31
0.0000000000
0
SPLINE
5
3D5
100
AcDbEntity
8
0
100
AcDbSpline
62
9
6
CONTINUOUS
70
0
71
3
72
9
73
5
74
3
42
0.0000001000
43
0.0000001000
44
0.0000000001
12
1.7000085302
22
0.0806031866
32
0.0000000000
13
1.6999914176
23
0.0809633026
33
0.0000000000
40
0.0000000000
40
0.0000000000
40
0.0000000000
40
0.0000000000
40
0.4999340339
40
1.0000000000
40
1.0000000000
40
1.0000000000
40
1.0000000000
10
-50.1717921415
20
-18.2308351883
30
0.0000000000
10
-49.8884947674
20
-18.2174030963
30
0.0000000000
10
-49.3218266701
20
-18.1905055632
30
0.0000000000
10
-48.7551614250
20
-18.1635480071
30
0.0000000000
10
-48.4717921415
20
-18.1500523430
30
0.0000000000
11
-50.1717921415
21
-18.2308351883
31
0.0000000000
11
-49.3219021447
21
-18.1904941101
31
0.0000000000
11
-48.4717921415
21
-18.1500523430
31
0.0000000000
0
SPLINE
5
3D6
100
AcDbEntity
8
0
100
AcDbSpline
62
9
6
CONTINUOUS
70
0
71
3
72
13
73
9
74
7
42
0.0000001000
43
0.0000001000
44
0.0000000001
12
0.0307181302
22
-0.7356863949
32
0.0000000000
13
0.7353260943
23
-0.0383876317
33
0.0000000000
40
0.0000000000
40
0.0000000000
40
0.0000000000
40
0.0000000000
40
0.1668067509
40
0.3336773015
40
0.5003595086
40
0.6670832671
40
0.8338239861
40
1.0000000000
40
1.0000000000
40
1.0000000000
40
1.0000000000
10
-58.7389954435
20
-20.9972959167
30
0.0000000000
10
-58.7372874463
20
-21.0382017357
30
0.0000000000
10
-58.7236612704
20
-21.1199569644
30
0.0000000000
10
-58.6740372097
20
-21.2335934974
30
0.0000000000
10
-58.5982203879
20
-21.3317731280
30
0.0000000000
10
-58.5007658876
20
-21.4084670284
30
0.0000000000
10
-58.3877602163
20
-21.4590758260
30
0.0000000000
10
-58.3063365729
20
-21.4734660020
30
0.0000000000
10
-58.2656053865
20
-21.4755923698
30
0.0000000000
11
-58.7389954435
21
-20.9972959167
31
0.0000000000
11
-58.7187990179
21
-21.1184484403
31
0.0000000000
11
-58.6696463056
21
-21.2310600856
31
0.0000000000
11
-58.5946182979
21
-21.3281894263
31
0.0000000000
11
-58.4981582537
21
-21.4041254633
31
0.0000000000
11
-58.3860956578
21
-21.4542838409
31
0.0000000000
11
-58.2656053865
21
-21.4755923698
31
0.0000000000
0
SPLINE
5
3D7
100
AcDbEntity
8
0
100
AcDbSpline
62
7
6
CONTINUOUS
70
0
71
3
72
10
73
6
74
4
42
0.0000001000
43
0.0000001000
44
0.0000000001
12
4.0000789575
22
0.0760029924
32
0.0000000000
13
3.9999099472
23
0.0844306542
33
0.0000000000
40
0.0000000000
40
0.0000000000
40
0.0000000000
40
0.0000000000
40
0.3364546673
40
0.6697952345
40
1.0000000000
40
1.0000000000
40
1.0000000000
40
1.0000000000
10
-50.1717921415
20
-23.1799085618
30
0.0000000000
10
-49.7231770631
20
-23.1713847079
30
0.0000000000
10
-48.8301043434
20
-23.1541394510
30
0.0000000000
10
-47.4967699982
20
-23.1275016990
30
0.0000000000
10
-46.6120552502
20
-23.1091836096
30
0.0000000000
10
-46.1717921415
20
-23.0998904748
30
0.0000000000
11
-50.1717921415
21
-23.1799085618
31
0.0000000000
11
-48.8259551118
21
-23.1539087364
31
0.0000000000
11
-47.4925922153
21
-23.1272559626
31
0.0000000000
11
-46.1717921415
21
-23.0998904748
31
0.0000000000
0
SPLINE
5
3D8
100
AcDbEntity
8
0
100
AcDbSpline
62
9
6
CONTINUOUS
70
0
71
3
72
12
73
8
74
6
42
0.0000001000
43
0.0000001000
44
0.0000000001
12
-0.0261472363
22
-0.4990710015
32
0.0000000000
13
0.4990705852
23
-0.0261551811
33
0.0000000000
40
0.0000000000
40
0.0000000000
40
0.0000000000
40
0.0000000000
40
0.3089507471
40
0.5876147125
40
0.8087596427
40
0.9507934516
40
1.0000000000
40
1.0000000000
40
1.0000000000
40
1.0000000000
10
-58.2656053865
20
-21.4755923698
30
0.0000000000
10
-58.2682981226
20
-21.5269884894
30
0.0000000000
10
-58.2739543705
20
-21.6256547081
30
0.0000000000
10
-58.2768212959
20
-21.7567844814
30
0.0000000000
10
-58.2885331151
20
-21.8725184815
30
0.0000000000
10
-58.2752056901
20
-21.9242228489
30
0.0000000000
10
-58.2912330084
20
-21.9744781351
30
0.0000000000
10
-58.2830471614
20
-21.9749071372
30
0.0000000000
11
-58.2656053865
21
-21.4755923698
31
0.0000000000
11
-58.2732581336
21
-21.6298024308
31
0.0000000000
11
-58.2793094439
21
-21.7689347420
31
0.0000000000
11
-58.2831676560
21
-21.8793857675
31
0.0000000000
11
-58.2844555365
21
-21.9503562578
31
0.0000000000
11
-58.2830471614
21
-21.9749071372
31
0.0000000000
0
ENDSEC
0
SECTION
2
OBJECTS
0
DICTIONARY
5
C
100
AcDbDictionary
280
0
281
1
3
ACAD_GROUP
350
D
3
ACAD_MLINESTYLE
350
17
3
ACAD_LAYOUT
350
1A
3
ACAD_PLOTSETTINGS
350
19
3
ACAD_PLOTSTYLENAME
350
E
0
DICTIONARY
5
D
102
{ACAD_REACTORS
330
C
102
}
100
AcDbDictionary
280
0
281
1
0
ACDBDICTIONARYWDFLT
5
E
102
{ACAD_REACTORS
330
C
102
}
100
AcDbDictionary
281
1
3
Normal
350
F
100
AcDbDictionaryWithDefault
340
F
0
DICTIONARY
5
17
102
{ACAD_REACTORS
330
C
102
}
100
AcDbDictionary
280
0
281
1
3
Standard
350
18
0
DICTIONARY
5
19
102
{ACAD_REACTORS
330
C
102
}
100
AcDbDictionary
281
1
0
DICTIONARY
5
1A
102
{ACAD_REACTORS
330
C
102
}
100
AcDbDictionary
281
1
3
Layout1
350
1E
3
Model
350
22
0
ACDBPLACEHOLDER
5
F
102
{ACAD_REACTORS
330
E
102
}
0
MLINESTYLE
5
18
102
{ACAD_REACTORS
330
17
102
}
100
AcDbMlineStyle
2
STANDARD
70
0
3

62
256
51
90.0
52
90.0
71
2
49
0.5
62
256
6
BYLAYER
49
-0.5
62
256
6
BYLAYER
0
LAYOUT
5
1E
102
{ACAD_REACTORS
330
1A
102
}
100
AcDbPlotSettings
1

2

4

6

40
0.0
41
0.0
42
0.0
43
0.0
44
0.0
45
0.0
46
0.0
47
0.0
48
0.0
49
0.0
140
0.0
141
0.0
142
1.0
143
1.0
70
0
72
0
73
0
74
0
7

75
0
147
1.0
148
0.0
149
0.0
100
AcDbLayout
1
Layout1
70
0
71
0
10
0.0
20
0.0
11
0.0
21
0.0
12
0.0
22
0.0
32
0.0
14
0.0
24
0.0
34
0.0
15
0.0
25
0.0
35
0.0
146
0.0
13
0.0
23
0.0
33
0.0
16
0.0
26
0.0
36
0.0
17
0.0
27
0.0
37
0.0
76
0
330
1B
331
0
345
0
346
0
0
LAYOUT
5
22
102
{ACAD_REACTORS
330
1A
102
}
100
AcDbPlotSettings
1

2

4

6

40
0.0
41
0.0
42
0.0
43
0.0
44
0.0
45
0.0
46
0.0
47
0.0
48
0.0
49
0.0
140
0.0
141
0.0
142
1.0
143
1.0
70
0
72
0
73
0
74
0
7

75
0
147
1.0
148
0.0
149
0.0
100
AcDbLayout
1
Model
70
0
71
0
10
0.0
20
0.0
11
0.0
21
0.0
12
0.0
22
0.0
32
0.0
14
0.0
24
0.0
34
0.0
15
0.0
25
0.0
35
0.0
146
0.0
13
0.0
23
0.0
33
0.0
16
0.0
26
0.0
36
0.0
17
0.0
27
0.0
37
0.0
76
0
330
1F
331
0
345
0
346
0
0
ENDSEC
0
EOF
