  0
SECTION
  2
HEADER
  9
$ACADVER
  1
AC1024
  9
$DWGCODEPAGE
  3
ANSI_1252
  9
$EXTMAX
 10
297.0
 20
210.0
 30
0.0
  9
$EXTMIN
 10
0.0
 20
0.0
 30
0.0
  9
$LIMMIN
 10
0.0
 20
0.0
  9
$LIMMAX
 10
297.0
 20
210.0
  9
$VIEWCTR
 10
148.5
 20
105.0
  9
$VIEWSIZE
 40
210.0
  9
$CLAYER
  8
0
  9
$LTSCALE
 40
16.335
  9
$CELTYPE
  6
BYLAYER
  9
$DIMSCALE
 40
1.0
  9
$DIMASZ
 40
3.0
  9
$DIMEXO
 40
0.5
  9
$DIMDLI
 40
11.286
  9
$DIMEXE
 40
1.5
  9
$DIMCEN
 40
2.673
  9
$DIMLFAC
 40
1.0
  9
$DIMBLK
  1
_FILLED
  9
$DIMALT
 70
0
  9
$DIMALTF
 40
0.0393700787
  9
$DIMTXT
 40
3.0
  9
$DIMTOL
 70
1
  9
$DIMLIM
 70
0
  9
$DIMTFAC
 40
1.0
  9
$DIMTP
 40
0.01
  9
$DIMTM
 40
0.01
  9
$DIMGAP
 40
0.625
  9
$DIMDSEP
 70
44
  9
$AUNITS
 70
0
  9
$PDMODE
 70
3
  9
$PDSIZE
 40
3.0
  9
$HANDSEED
  5
4E7
  9
$TILEMODE
 70
1
  9
$MEASUREMENT
 70
1
  9
$INSUNITS
 70
4
  0
ENDSEC
  0
SECTION
  2
CLASSES
  0
CLASS
  1
ACDBDICTIONARYWDFLT
  2
AcDbDictionaryWithDefault
  3
AutoCAD 2000
 90
0
 91
1
280
0
281
0
  0
CLASS
  1
ACDBPLACEHOLDER
  2
AcDbPlaceHolder
  3
AutoCAD 2000
 90
0
 91
1
280
0
281
0
  0
CLASS
  1
LAYOUT
  2
AcDbLayout
  3
AutoCAD 2000
 90
0
 91
0
280
0
281
0
  0
ENDSEC
  0
SECTION
  2
TABLES
  0
TABLE
  2
VPORT
  5
8
100
AcDbSymbolTable
 70
2
  0
VPORT
  5
1F4
100
AcDbSymbolTableRecord
100
AcDbViewportTableRecord
  2
*ACTIVE
 70
0
 10
0.0
 20
0.0
 11
1.0
 21
1.0
 12
148.5
 22
105.0
 13
0.0
 23
0.0
 14
1.0
 24
1.0
 15
0.0
 25
0.0
 16
0.0
 26
0.0
 36
1.0
 17
0.0
 27
0.0
 37
0.0
 40
210.0
 41
1.4142857143
 42
50.0
 43
0.0
 44
0.0
 50
0.0
 51
0.0
 71
0
 72
100
 73
1
 74
1
 75
0
 76
0
 77
0
 78
0
  0
ENDTAB
  0
TABLE
  2
LTYPE
  5
5
100
AcDbSymbolTable
 70
6
  0
LTYPE
  5
14
100
AcDbSymbolTableRecord
100
AcDbLinetypeTableRecord
  2
BYBLOCK
 70
0
  3

 72
65
 73
0
 40
0.0
  0
LTYPE
  5
15
100
AcDbSymbolTableRecord
100
AcDbLinetypeTableRecord
  2
BYLAYER
 70
0
  3

 72
65
 73
0
 40
0.0
  0
LTYPE
  5
16
100
AcDbSymbolTableRecord
100
AcDbLinetypeTableRecord
  2
CONTINUOUS
 70
64
  3
Solid line
 72
65
 73
0
 40
0.0
  0
LTYPE
  5
1F5
100
AcDbSymbolTableRecord
100
AcDbLinetypeTableRecord
  2
CENTER
 70
64
  3
____ _ ____ _ ____ _ ____ _ ____ _ ____ _ ____
 72
65
 73
4
 40
0.6
 49
0.375
 74
0
 49
-0.075
 74
0
 49
0.075
 74
0
 49
-0.075
 74
0
  0
LTYPE
  5
1F6
100
AcDbSymbolTableRecord
100
AcDbLinetypeTableRecord
  2
HIDDEN
 70
64
  3
- - - - - - - - - - - - - - - - - - - -
 72
65
 73
2
 40
0.2
 49
0.1
 74
0
 49
-0.1
 74
0
  0
LTYPE
  5
1F7
100
AcDbSymbolTableRecord
100
AcDbLinetypeTableRecord
  2
PHANTOM
 70
64
  3
_____ _ _ _____ _ _ _____ _ _ _____
 72
65
 73
6
 40
0.8
 49
0.45
 74
0
 49
-0.05
 74
0
 49
0.1
 74
0
 49
-0.05
 74
0
 49
0.1
 74
0
 49
-0.05
 74
0
  0
LTYPE
  5
1F8
100
AcDbSymbolTableRecord
100
AcDbLinetypeTableRecord
  2
DOT
 70
64
  3
. . . . . . . . . . . . . . . . . . . .
 72
65
 73
2
 40
0.2
 49
0.1
 74
0
 49
-0.1
 74
0
  0
LTYPE
  5
1F9
100
AcDbSymbolTableRecord
100
AcDbLinetypeTableRecord
  2
DASHED
 70
64
  3
- - - - - - - - - - - - - - - - - - - -
 72
65
 73
2
 40
0.2
 49
0.1
 74
0
 49
-0.1
 74
0
  0
ENDTAB
  0
TABLE
  2
LAYER
  5
2
100
AcDbSymbolTable
 70
36
  0
LAYER
  5
10
100
AcDbSymbolTableRecord
100
AcDbLayerTableRecord
  2
0
 70
0
 62
7
  6
CONTINUOUS
370
-3
390
F
  0
LAYER
  5
1FA
100
AcDbSymbolTableRecord
100
AcDbLayerTableRecord
  2
DEFAULT_1
 70
0
 62
7
  6
CENTER
370
-3
390
F
  0
LAYER
  5
1FB
100
AcDbSymbolTableRecord
100
AcDbLayerTableRecord
  2
DEFAULT_2
 70
0
 62
7
  6
HIDDEN
370
-3
390
F
  0
LAYER
  5
1FC
100
AcDbSymbolTableRecord
100
AcDbLayerTableRecord
  2
DEFAULT_3
 70
0
 62
7
  6
PHANTOM
370
-3
390
F
  0
LAYER
  5
1FD
100
AcDbSymbolTableRecord
100
AcDbLayerTableRecord
  2
ASSI
 70
0
 62
7
  6
CONTINUOUS
370
-3
390
F
  0
LAYER
  5
1FE
100
AcDbSymbolTableRecord
100
AcDbLayerTableRecord
  2
COORDINATE
 70
0
 62
7
  6
CONTINUOUS
370
-3
390
F
  0
LAYER
  5
1FF
100
AcDbSymbolTableRecord
100
AcDbLayerTableRecord
  2
COORD_ORIGINE
 70
0
 62
7
  6
CONTINUOUS
370
-3
390
F
  0
LAYER
  5
200
100
AcDbSymbolTableRecord
100
AcDbLayerTableRecord
  2
COPY-PUBBLISH
 70
0
 62
7
  6
CONTINUOUS
370
-3
390
F
  0
LAYER
  5
201
100
AcDbSymbolTableRecord
100
AcDbLayerTableRecord
  2
COSMETICHE
 70
0
 62
7
  6
CONTINUOUS
370
-3
390
F
  0
LAYER
  5
202
100
AcDbSymbolTableRecord
100
AcDbLayerTableRecord
  2
CURVE
 70
0
 62
7
  6
CONTINUOUS
370
-3
390
F
  0
LAYER
  5
203
100
AcDbSymbolTableRecord
100
AcDbLayerTableRecord
  2
CURVE1
 70
0
 62
7
  6
CONTINUOUS
370
-3
390
F
  0
LAYER
  5
204
100
AcDbSymbolTableRecord
100
AcDbLayerTableRecord
  2
DRAFT
 70
0
 62
7
  6
CONTINUOUS
370
-3
390
F
  0
LAYER
  5
205
100
AcDbSymbolTableRecord
100
AcDbLayerTableRecord
  2
IGES
 70
0
 62
7
  6
CONTINUOUS
370
-3
390
F
  0
LAYER
  5
206
100
AcDbSymbolTableRecord
100
AcDbLayerTableRecord
  2
IMPORT
 70
0
 62
7
  6
CONTINUOUS
370
-3
390
F
  0
LAYER
  5
207
100
AcDbSymbolTableRecord
100
AcDbLayerTableRecord
  2
IMPORT_FEATURES
 70
0
 62
7
  6
CONTINUOUS
370
-3
390
F
  0
LAYER
  5
208
100
AcDbSymbolTableRecord
100
AcDbLayerTableRecord
  2
INTF_1
 70
0
 62
7
  6
CONTINUOUS
370
-3
390
F
  0
LAYER
  5
209
100
AcDbSymbolTableRecord
100
AcDbLayerTableRecord
  2
INTF_2
 70
0
 62
7
  6
CONTINUOUS
370
-3
390
F
  0
LAYER
  5
20A
100
AcDbSymbolTableRecord
100
AcDbLayerTableRecord
  2
INTF_6
 70
0
 62
7
  6
CONTINUOUS
370
-3
390
F
  0
LAYER
  5
20B
100
AcDbSymbolTableRecord
100
AcDbLayerTableRecord
  2
NOTE
 70
0
 62
7
  6
CONTINUOUS
370
-3
390
F
  0
LAYER
  5
20C
100
AcDbSymbolTableRecord
100
AcDbLayerTableRecord
  2
PIANI
 70
0
 62
7
  6
CONTINUOUS
370
-3
390
F
  0
LAYER
  5
20D
100
AcDbSymbolTableRecord
100
AcDbLayerTableRecord
  2
PIANI_ORIGINE
 70
0
 62
7
  6
CONTINUOUS
370
-3
390
F
  0
LAYER
  5
20E
100
AcDbSymbolTableRecord
100
AcDbLayerTableRecord
  2
PUNTI
 70
0
 62
7
  6
CONTINUOUS
370
-3
390
F
  0
LAYER
  5
20F
100
AcDbSymbolTableRecord
100
AcDbLayerTableRecord
  2
RACCORDO
 70
0
 62
7
  6
CONTINUOUS
370
-3
390
F
  0
LAYER
  5
210
100
AcDbSymbolTableRecord
100
AcDbLayerTableRecord
  2
RGB____0____0____0__
 70
0
 62
7
  6
CONTINUOUS
370
-3
390
F
  0
LAYER
  5
211
100
AcDbSymbolTableRecord
100
AcDbLayerTableRecord
  2
SMUSSO
 70
0
 62
7
  6
CONTINUOUS
370
-3
390
F
  0
LAYER
  5
212
100
AcDbSymbolTableRecord
100
AcDbLayerTableRecord
  2
SNAPLINE
 70
0
 62
7
  6
CONTINUOUS
370
-3
390
F
  0
LAYER
  5
213
100
AcDbSymbolTableRecord
100
AcDbLayerTableRecord
  2
SUPERFICI
 70
0
 62
7
  6
CONTINUOUS
370
-3
390
F
  0
LAYER
  5
214
100
AcDbSymbolTableRecord
100
AcDbLayerTableRecord
  2
TRASH
 70
0
 62
7
  6
CONTINUOUS
370
-3
390
F
  0
LAYER
  5
215
100
AcDbSymbolTableRecord
100
AcDbLayerTableRecord
  2
XSEC_DATUMS
 70
0
 62
7
  6
CONTINUOUS
370
-3
390
F
  0
ENDTAB
  0
TABLE
  2
STYLE
  5
3
100
AcDbSymbolTable
 70
1
  0
STYLE
  5
11
100
AcDbSymbolTableRecord
100
AcDbTextStyleTableRecord
  2
STANDARD
 70
0
 40
0.0
 41
0.8
 50
0.0
 71
0
 42
0.2
  3
txt
  4

  0
STYLE
  5
216
100
AcDbSymbolTableRecord
100
AcDbTextStyleTableRecord
  2
TEXTSTYLE_1
 70
0
 40
0.0
 41
0.8
 50
0.0
 71
0
 42
0.2
  3
gdt
  4

  0
ENDTAB
  0
TABLE
  2
VIEW
  5
6
100
AcDbSymbolTable
 70
0
  0
ENDTAB
  0
TABLE
  2
UCS
  5
7
100
AcDbSymbolTable
 70
0
  0
ENDTAB
  0
TABLE
  2
APPID
  5
9
100
AcDbSymbolTable
 70
1
  0
APPID
  5
217
100
AcDbSymbolTableRecord
100
AcDbRegAppTableRecord
  2
ACAD
 70
0
  0
ENDTAB
  0
TABLE
  2
BLOCK_RECORD
  5
1
100
AcDbSymbolTable
 70
0
  0
BLOCK_RECORD
  5
218
100
AcDbSymbolTableRecord
100
AcDbBlockTableRecord
  2
*Model_Space
  0
BLOCK_RECORD
  5
219
100
AcDbSymbolTableRecord
100
AcDbBlockTableRecord
  2
*Paper_Space
  0
BLOCK_RECORD
  5
21A
100
AcDbSymbolTableRecord
100
AcDbBlockTableRecord
  2
_FILLED
  0
BLOCK_RECORD
  5
21B
100
AcDbSymbolTableRecord
100
AcDbBlockTableRecord
  2
*D0
  0
BLOCK_RECORD
  5
21C
100
AcDbSymbolTableRecord
100
AcDbBlockTableRecord
  2
*D1
  0
BLOCK_RECORD
  5
21D
100
AcDbSymbolTableRecord
100
AcDbBlockTableRecord
  2
*D2
  0
BLOCK_RECORD
  5
21E
100
AcDbSymbolTableRecord
100
AcDbBlockTableRecord
  2
*D3
  0
ENDTAB
  0
TABLE
  2
DIMSTYLE
  5
A
100
AcDbSymbolTable
 70
1
100
AcDbDimStyleTable
 71
0
  0
DIMSTYLE
105
21F
100
AcDbSymbolTableRecord
100
AcDbDimStyleTableRecord
  2
STANDARD
 70
0
  3

  4

 40
1.0
 41
3.0
 42
0.5
 43
0.38
 44
1.5
 45
0.0
 46
0.0
 47
0.01
 48
0.01
140
3.0
141
0.09
142
0.0
143
25.4
144
1.0
145
0.0
146
1.0
147
0.625
 71
1
 72
0
 73
0
 74
0
 75
0
 76
0
 77
1
 78
8
 79
2
170
0
171
1
172
0
173
0
174
0
175
0
176
0
177
0
178
0
270
2
179
2
271
2
272
2
273
2
274
2
275
0
280
0
281
0
282
0
283
1
284
8
285
0
286
0
287
3
288
0
340
11
278
44
341
21A
342
21A
343
21A
344
21A
  0
DIMSTYLE
105
220
100
AcDbSymbolTableRecord
100
AcDbDimStyleTableRecord
  2
DIMSTYLE_1
 70
0
  3

  4

 40
1.0
 41
3.0
 42
0.5
 43
0.38
 44
1.5
 45
0.0
 46
0.0
 47
0.0
 48
0.0
140
3.0
141
0.09
142
0.0
143
25.4
144
1.0
145
0.0
146
1.0
147
0.75
 71
0
 72
0
 73
0
 74
0
 75
0
 76
0
 77
1
 78
8
 79
2
170
0
171
1
172
0
173
0
174
0
175
0
176
0
177
0
178
0
270
2
179
2
271
2
272
2
273
2
274
2
275
0
280
0
281
0
282
0
283
1
284
8
285
0
286
0
287
3
288
0
340
11
278
44
341
21A
342
21A
343
21A
344
21A
  0
ENDTAB
  0
ENDSEC
  0
SECTION
  2
BLOCKS
  0
BLOCK
  5
20
100
AcDbEntity
  8
0
100
AcDbBlockBegin
  2
*Model_Space
 70
0
 10
0.0
 20
0.0
 30
0.0
  3
*Model_Space
  1

  0
ENDBLK
  5
21
100
AcDbEntity
  8
0
100
AcDbBlockEnd
  0
BLOCK
  5
1C
100
AcDbEntity
  8
0
100
AcDbBlockBegin
  2
*Paper_Space
 70
0
 10
0.0
 20
0.0
 30
0.0
  3
*Paper_Space
  1

  0
ENDBLK
  5
1D
100
AcDbEntity
  8
0
100
AcDbBlockEnd
  0
BLOCK
  5
221
100
AcDbEntity
  8
0
100
AcDbBlockBegin
  2
_FILLED
 70
64
 10
0.0
 20
0.0
  3
_FILLED
  1

  0
SOLID
  5
222
100
AcDbEntity
  8
0
  6
BYBLOCK
 62
0
100
AcDbTrace
 10
0.0
 20
0.0
 11
-1.0
 21
0.3166666667
 12
-1.0
 22
-0.3166666667
 13
-1.0
 23
-0.3166666667
  0
ENDBLK
  5
223
100
AcDbEntity
  8
0
  6
BYBLOCK
 62
0
100
AcDbBlockEnd
  0
BLOCK
  5
224
100
AcDbEntity
  8
0
100
AcDbBlockBegin
 62
7
  6
CONTINUOUS
  2
*D0
 70
65
 10
0.0
 20
0.0
  3
*D0
  1

  0
LINE
  5
225
100
AcDbEntity
  8
0
100
AcDbLine
 62
7
  6
CONTINUOUS
 10
4.4733373476
 20
23.5
 11
20.65
 21
23.5
  0
LINE
  5
226
100
AcDbEntity
  8
0
100
AcDbLine
 62
7
  6
CONTINUOUS
 10
4.4733373476
 20
-23.5
 11
20.65
 21
-23.5
  0
LINE
  5
227
100
AcDbEntity
  8
0
100
AcDbLine
 62
7
  6
CONTINUOUS
 10
19.15
 20
23.5
 11
19.15
 21
0.0
  0
LINE
  5
228
100
AcDbEntity
  8
0
100
AcDbLine
 62
7
  6
CONTINUOUS
 10
19.15
 20
-23.5
 11
19.15
 21
0.0
  0
INSERT
  5
229
100
AcDbEntity
  8
0
100
AcDbBlockReference
 62
7
  6
CONTINUOUS
  2
_FILLED
 10
19.15
 20
23.5
 41
3.0
 42
3.0
 43
3.0
 50
90.0
  0
INSERT
  5
22A
100
AcDbEntity
  8
0
100
AcDbBlockReference
 62
7
  6
CONTINUOUS
  2
_FILLED
 10
19.15
 20
-23.5
 41
3.0
 42
3.0
 43
3.0
 50
270.0
  0
ENDBLK
  5
22B
100
AcDbEntity
  8
0
  6
BYBLOCK
 62
0
100
AcDbBlockEnd
  0
BLOCK
  5
22C
100
AcDbEntity
  8
0
100
AcDbBlockBegin
 62
7
  6
CONTINUOUS
  2
*D1
 70
65
 10
0.0
 20
0.0
  3
*D1
  1

  0
LINE
  5
22D
100
AcDbEntity
  8
0
100
AcDbLine
 62
7
  6
CONTINUOUS
 10
11.15
 20
22.3997711479
 11
11.15
 21
33.0
  0
LINE
  5
22E
100
AcDbEntity
  8
0
100
AcDbLine
 62
7
  6
CONTINUOUS
 10
-11.15
 20
22.3997711479
 11
-11.15
 21
33.0
  0
LINE
  5
22F
100
AcDbEntity
  8
0
100
AcDbLine
 62
7
  6
CONTINUOUS
 10
11.15
 20
31.5
 11
0.0
 21
31.5
  0
LINE
  5
230
100
AcDbEntity
  8
0
100
AcDbLine
 62
7
  6
CONTINUOUS
 10
-11.15
 20
31.5
 11
0.0
 21
31.5
  0
INSERT
  5
231
100
AcDbEntity
  8
0
100
AcDbBlockReference
 62
7
  6
CONTINUOUS
  2
_FILLED
 10
11.15
 20
31.5
 41
3.0
 42
3.0
 43
3.0
  0
INSERT
  5
232
100
AcDbEntity
  8
0
100
AcDbBlockReference
 62
7
  6
CONTINUOUS
  2
_FILLED
 10
-11.15
 20
31.5
 41
3.0
 42
3.0
 43
3.0
 50
180.0
  0
ENDBLK
  5
233
100
AcDbEntity
  8
0
  6
BYBLOCK
 62
0
100
AcDbBlockEnd
  0
BLOCK
  5
234
100
AcDbEntity
  8
0
100
AcDbBlockBegin
 62
7
  6
CONTINUOUS
  2
*D2
 70
65
 10
0.0
 20
0.0
  3
*D2
  1

  0
LINE
  5
235
100
AcDbEntity
  8
0
100
AcDbLine
 62
7
  6
CONTINUOUS
 10
-46.6625145134
 20
22.3997711479
 11
-46.6625145134
 21
33.0
  0
LINE
  5
236
100
AcDbEntity
  8
0
100
AcDbLine
 62
7
  6
CONTINUOUS
 10
-23.4625145134
 20
13.9377350466
 11
-23.4625145134
 21
33.0
  0
LINE
  5
237
100
AcDbEntity
  8
0
100
AcDbLine
 62
7
  6
CONTINUOUS
 10
-46.6625145134
 20
31.5
 11
-35.0625145134
 21
31.5
  0
LINE
  5
238
100
AcDbEntity
  8
0
100
AcDbLine
 62
7
  6
CONTINUOUS
 10
-23.4625145134
 20
31.5
 11
-35.0625145134
 21
31.5
  0
INSERT
  5
239
100
AcDbEntity
  8
0
100
AcDbBlockReference
 62
7
  6
CONTINUOUS
  2
_FILLED
 10
-46.6625145134
 20
31.5
 41
3.0
 42
3.0
 43
3.0
 50
180.0
  0
INSERT
  5
23A
100
AcDbEntity
  8
0
100
AcDbBlockReference
 62
7
  6
CONTINUOUS
  2
_FILLED
 10
-23.4625145134
 20
31.5
 41
3.0
 42
3.0
 43
3.0
  0
ENDBLK
  5
23B
100
AcDbEntity
  8
0
  6
BYBLOCK
 62
0
100
AcDbBlockEnd
  0
BLOCK
  5
23C
100
AcDbEntity
  8
0
100
AcDbBlockBegin
 62
7
  6
CONTINUOUS
  2
*D3
 70
65
 10
0.0
 20
0.0
  3
*D3
  1

  0
LINE
  5
23D
100
AcDbEntity
  8
0
100
AcDbLine
 62
7
  6
CONTINUOUS
 10
-23.4625145134
 20
13.9377350466
 11
-23.4625145134
 21
43.0
  0
LINE
  5
23E
100
AcDbEntity
  8
0
100
AcDbLine
 62
7
  6
CONTINUOUS
 10
-56.1625145134
 20
0.5
 11
-56.1625145134
 21
43.0
  0
LINE
  5
23F
100
AcDbEntity
  8
0
100
AcDbLine
 62
7
  6
CONTINUOUS
 10
-23.4625145134
 20
41.5
 11
-39.8125145134
 21
41.5
  0
LINE
  5
240
100
AcDbEntity
  8
0
100
AcDbLine
 62
7
  6
CONTINUOUS
 10
-56.1625145134
 20
41.5
 11
-39.8125145134
 21
41.5
  0
INSERT
  5
241
100
AcDbEntity
  8
0
100
AcDbBlockReference
 62
7
  6
CONTINUOUS
  2
_FILLED
 10
-23.4625145134
 20
41.5
 41
3.0
 42
3.0
 43
3.0
 50
0.0
  0
INSERT
  5
242
100
AcDbEntity
  8
0
100
AcDbBlockReference
 62
7
  6
CONTINUOUS
  2
_FILLED
 10
-56.1625145134
 20
41.5
 41
3.0
 42
3.0
 43
3.0
 50
180.0
  0
ENDBLK
  5
243
100
AcDbEntity
  8
0
  6
BYBLOCK
 62
0
100
AcDbBlockEnd
  0
ENDSEC
  0
SECTION
  2
ENTITIES
  0
DIMENSION
  5
244
100
AcDbEntity
  8
0
100
AcDbDimension
 62
7
  6
CONTINUOUS
  2
*D0
 10
19.15
 20
-23.5
 11
19.15
 21
-2.3571428571
 70
160
 71
2
 72
2
 41
0.9
 42
47.0
  3
DIMSTYLE_1
100
AcDbAlignedDimension
 13
3.9733373476
 23
23.5
 14
3.9733373476
 24
-23.5
 50
270.0
100
AcDbRotatedDimension
  0
DIMENSION
  5
245
100
AcDbEntity
  8
0
100
AcDbDimension
 62
7
  6
CONTINUOUS
  2
*D1
 10
-11.15
 20
31.5
 11
-4.2857142857
 21
31.5
 70
160
 71
2
 72
2
 41
0.9
 42
22.3
  3
DIMSTYLE_1
100
AcDbAlignedDimension
 13
11.15
 23
21.8997711479
 14
-11.15
 24
21.8997711479
 50
180.0
100
AcDbRotatedDimension
  0
DIMENSION
  5
246
100
AcDbEntity
  8
0
100
AcDbDimension
 62
7
  6
CONTINUOUS
  2
*D2
 10
-23.4625145134
 20
31.5
 11
-39.3482287992
 21
31.5
 70
160
 71
2
 72
2
 41
0.9
 42
23.2
  3
DIMSTYLE_1
100
AcDbAlignedDimension
 13
-46.6625145134
 23
21.8997711479
 14
-23.4625145134
 24
13.4377350466
100
AcDbRotatedDimension
  0
DIMENSION
  5
247
100
AcDbEntity
  8
0
100
AcDbDimension
 62
7
  6
CONTINUOUS
  2
*D3
 10
-56.1625145134
 20
41.5
 11
-44.0982287992
 21
41.5
 70
160
 71
2
 72
2
 41
0.9
 42
32.7
  3
DIMSTYLE_1
100
AcDbAlignedDimension
 13
-23.4625145134
 23
13.4377350466
 14
-56.1625145134
 24
0.0
 50
180.0
100
AcDbRotatedDimension
  0
LWPOLYLINE
  5
248
100
AcDbEntity
  8
0
100
AcDbPolyline
 62
7
  6
CONTINUOUS
 90
5
 70
0
 43
0.3500000006
 10
3.0000000658
 20
33.9642854004
 10
3.357142951
 20
34.1785698853
 10
3.357142951
 20
34.8214278717
 10
3.0000000658
 20
35.2500013733
 10
2.1428571696
 20
35.2500013733
  0
LINE
  5
249
100
AcDbEntity
  8
DRAFT
100
AcDbLine
 62
7
  6
CONTINUOUS
 10
-3.0
 20
-23.5
 11
-2.7812783412
 21
-23.4563623377
  0
LINE
  5
24A
100
AcDbEntity
  8
DRAFT
100
AcDbLine
 62
7
  6
CONTINUOUS
 10
3.9733373476
 20
-23.5
 11
3.0
 21
-23.5
  0
LINE
  5
24B
100
AcDbEntity
  8
DRAFT
100
AcDbLine
 62
7
  6
CONTINUOUS
 10
-3.0
 20
-23.5
 11
-3.9733373476
 21
-23.5
  0
LINE
  5
24C
100
AcDbEntity
  8
DRAFT
100
AcDbLine
 62
7
  6
CONTINUOUS
 10
2.7812783412
 20
-23.4563623377
 11
-2.7812783412
 21
-23.4563623377
  0
LINE
  5
24D
100
AcDbEntity
  8
DRAFT
100
AcDbLine
 62
7
  6
CONTINUOUS
 10
-2.7812783412
 20
-22.5310194482
 11
2.7812783412
 21
-22.5310194482
  0
LINE
  5
24E
100
AcDbEntity
  8
DRAFT
100
AcDbLine
 62
7
  6
CONTINUOUS
 10
10.6503805997
 20
-22.4
 11
3.0
 21
-22.4
  0
LINE
  5
24F
100
AcDbEntity
  8
DRAFT
100
AcDbLine
 62
7
  6
CONTINUOUS
 10
-3.0
 20
-22.4
 11
-10.6503805997
 21
-22.4
  0
LWPOLYLINE
  5
250
100
AcDbEntity
  8
0
100
AcDbPolyline
 62
250
  6
CONTINUOUS
 90
16
 70
0
 10
-10.5087981167
 20
-21.9749071372
 10
-10.5610241351
 20
-21.9721273713
 10
-10.6126786189
 20
-21.9639137831
 10
-10.6631962883
 20
-21.9503562579
 10
-10.7120243038
 20
-21.9316031621
 10
-10.7586283171
 20
-21.90785972
 10
-10.8024983178
 20
-21.8793857676
 10
-10.8431542153
 20
-21.846492909
 10
-10.8801510926
 20
-21.8095411067
 10
-10.9130840749
 20
-21.7689347421
 10
-10.9415927608
 20
-21.7251181903
 10
-10.9653651658
 20
-21.6785709569
 10
-10.9841411372
 20
-21.6298024308
 10
-10.9977152003
 20
-21.5793463095
 10
-11.0059388076
 20
-21.5277547588
 10
-11.0087219643
 20
-21.4755923698
  0
LINE
  5
251
100
AcDbEntity
  8
DRAFT
100
AcDbLine
 62
7
  6
CONTINUOUS
 10
3.0
 20
-23.5
 11
2.7812783412
 21
-23.4563623377
  0
LINE
  5
252
100
AcDbEntity
  8
DRAFT
100
AcDbLine
 62
7
  6
CONTINUOUS
 10
-2.7812783412
 20
22.5310194482
 11
-3.0
 21
22.4
  0
LINE
  5
253
100
AcDbEntity
  8
0
100
AcDbLine
 62
250
  6
CONTINUOUS
 10
10.5087981167
 20
-21.9749071372
 11
-10.5087981167
 21
-21.9749071372
  0
LINE
  5
254
100
AcDbEntity
  8
0
100
AcDbLine
 62
250
  6
CONTINUOUS
 10
10.5522209659
 20
-21.0181634993
 11
-10.5005350625
 21
-21.0183142309
  0
LWPOLYLINE
  5
255
100
AcDbEntity
  8
0
100
AcDbPolyline
 62
250
  6
CONTINUOUS
 90
16
 70
0
 10
-10.5005350626
 20
-21.0183132877
 10
-10.5522203681
 20
-21.0181627949
 10
-10.6033519099
 20
-21.0177887256
 10
-10.6533818551
 20
-21.0171950877
 10
-10.7017741735
 20
-21.0163882415
 10
-10.7480103807
 20
-21.0153768319
 10
-10.7915950934
 20
-21.0141716956
 10
-10.8320613367
 20
-21.0127857448
 10
-10.8689755479
 20
-21.0112338287
 10
-10.9019422211
 20
-21.0095325749
 10
-10.9306081453
 20
-21.0077002109
 10
-10.9546661883
 20
-21.0057563691
 10
-10.9738585879
 20
-21.0037218762
 10
-10.987979713
 20
-21.00161853
 10
-10.9968782673
 20
-20.9994688662
 10
-11.00045891
 20
-20.9972959167
  0
LINE
  5
256
100
AcDbEntity
  8
DRAFT
100
AcDbLine
 62
7
  6
CONTINUOUS
 10
-3.0
 20
-22.4
 11
-2.7812783412
 21
-22.5310194482
  0
LWPOLYLINE
  5
257
100
AcDbEntity
  8
RACCORDO
100
AcDbPolyline
 62
250
  6
CONTINUOUS
 90
46
 70
0
 10
0.0
 20
-12.0704555543
 10
-0.1791845015
 20
-12.0641530832
 10
-0.3561245942
 20
-12.0456286834
 10
-0.5308202782
 20
-12.0148823221
 10
-0.7042325477
 20
-11.9716305127
 10
-0.8754004084
 20
-11.9161566109
 10
-1.0414408774
 20
-11.8493108229
 10
-1.2021242282
 20
-11.7709457784
 10
-1.3576801874
 20
-11.6812086152
 10
-1.505914951
 20
-11.5813912988
 10
-1.6467346354
 20
-11.4713532707
 10
-1.7802331243
 20
-11.3512348036
 10
-1.9044982644
 20
-11.2227491373
 10
-2.0194098229
 20
-11.0857643696
 10
-2.1250880327
 20
-10.9404121208
 10
-2.2199814386
 20
-10.7888009748
 10
-2.3039313701
 20
-10.6308328385
 10
-2.3770964978
 20
-10.4666055826
 10
-2.438401379
 20
-10.2985218244
 10
-2.4876681828
 20
-10.126534618
 10
-2.5250747401
 20
-9.950690786
 10
-2.5500791005
 20
-9.7735337035
 10
-2.5624999183
 20
-9.5950341786
 10
-2.5625185392
 20
-9.4152213932
 10
-2.5501370496
 20
-9.236726392
 10
-2.5251747655
 20
-9.0595801248
 10
-2.4878123709
 20
-8.8837517392
 10
-2.4385940047
 20
-8.7117796771
 10
-2.3773438643
 20
-8.5437120497
 10
-2.3042377523
 20
-8.3795009229
 10
-2.2203472158
 20
-8.2215407519
 10
-2.1255129184
 20
-8.0699266897
 10
-2.0198941966
 20
-7.9245638053
 10
-1.9050406067
 20
-7.7875614855
 10
-1.7808317563
 20
-7.6590515199
 10
-1.6473880379
 20
-7.5389023466
 10
-1.5066201851
 20
-7.4288283584
 10
-1.3584421149
 20
-7.3289722024
 10
-1.2029399104
 20
-7.2391914306
 10
-1.0422825548
 20
-7.1607728035
 10
-0.876245569
 20
-7.0938562092
 10
-0.705053432
 20
-7.0383019056
 10
-0.5315485646
 20
-6.994977203
 10
-0.3566784402
 20
-6.9641712322
 10
-0.1794955854
 20
-6.9455949399
 10
0.0
 20
-6.939248345
  0
LINE
  5
258
100
AcDbEntity
  8
0
100
AcDbLine
 62
250
  6
CONTINUOUS
 10
-11.0046585314
 20
21.403981807
 11
-11.0034984168
 21
21.3558303735
  0
LINE
  5
259
100
AcDbEntity
  8
0
100
AcDbLine
 62
250
  6
CONTINUOUS
 10
-11.0034984168
 20
21.3558303735
 11
-11.002494253
 21
21.2976924869
  0
LINE
  5
25A
100
AcDbEntity
  8
0
100
AcDbLine
 62
250
  6
CONTINUOUS
 10
-11.002494253
 20
21.2976924869
 11
-11.0013282574
 21
21.1946238913
  0
LINE
  5
25B
100
AcDbEntity
  8
0
100
AcDbLine
 62
250
  6
CONTINUOUS
 10
-10.5047336849
 20
21.8316424864
 11
-10.5030519635
 21
21.6797292088
  0
LINE
  5
25C
100
AcDbEntity
  8
0
100
AcDbLine
 62
250
  6
CONTINUOUS
 10
-10.5030519635
 20
21.6797292088
 11
-10.5014061262
 21
21.4132060252
  0
LINE
  5
25D
100
AcDbEntity
  8
0
100
AcDbLine
 62
250
  6
CONTINUOUS
 10
-11.0013282574
 20
21.1946238913
 11
-11.0006365685
 21
21.0787402824
  0
LWPOLYLINE
  5
25E
100
AcDbEntity
  8
0
100
AcDbPolyline
 62
250
  6
CONTINUOUS
 90
3
 70
0
 10
-10.5014061262
 20
21.4132060252
 10
-10.5005963741
 20
21.1000229543
 10
-10.5005350625
 20
21.0183142309
  0
LWPOLYLINE
  5
25F
100
AcDbEntity
  8
0
100
AcDbPolyline
 62
250
  6
CONTINUOUS
 90
9
 70
0
 10
-11.0006365685
 20
21.0787402824
 10
-10.9974142958
 20
16.3324664701
 10
-10.9951308352
 20
11.6670185434
 10
-10.9936085283
 20
7.0009521365
 10
-10.9928473752
 20
2.3338547134
 10
-10.9928473758
 20
-2.3338611899
 10
-10.9936085296
 20
-7.0009579653
 10
-10.9951308365
 20
-11.667023077
 10
-10.9974142967
 20
-16.3324690607
  0
LWPOLYLINE
  5
260
100
AcDbEntity
  8
0
100
AcDbPolyline
 62
250
  6
CONTINUOUS
 90
9
 70
0
 10
-10.5005350625
 20
21.0183142309
 10
-10.4974904462
 20
16.3494810548
 10
-10.495206984
 20
11.6792204147
 10
-10.4936846758
 20
7.0079400892
 10
-10.4929235217
 20
2.3360479955
 10
-10.4929235216
 20
-2.3360479943
 10
-10.4936846757
 20
-7.0079400882
 10
-10.4952069839
 20
-11.6792204138
 10
-10.4974904462
 20
-16.3494810544
  0
LINE
  5
261
100
AcDbEntity
  8
0
100
AcDbLine
 62
7
  6
CONTINUOUS
 10
-11.15
 20
21.8997711479
 11
-11.15
 21
-21.8997711479
  0
LINE
  5
262
100
AcDbEntity
  8
0
100
AcDbLine
 62
250
  6
CONTINUOUS
 10
-10.4974904462
 20
-16.3494810544
 11
-10.5011186198
 21
-21.3380251343
  0
LINE
  5
263
100
AcDbEntity
  8
0
100
AcDbLine
 62
250
  6
CONTINUOUS
 10
-10.9974142967
 20
-16.3324690607
 11
-11.0008096574
 21
-21.1180991804
  0
LINE
  5
264
100
AcDbEntity
  8
0
100
AcDbLine
 62
250
  6
CONTINUOUS
 10
-10.5011186198
 20
-21.3380251343
 11
-10.5025715154
 21
-21.6191453064
  0
LINE
  5
265
100
AcDbEntity
  8
0
100
AcDbLine
 62
250
  6
CONTINUOUS
 10
-11.0008096574
 20
-21.1180991804
 11
-11.0016659628
 21
-21.2307227352
  0
LWPOLYLINE
  5
266
100
AcDbEntity
  8
0
100
AcDbPolyline
 62
250
  6
CONTINUOUS
 90
3
 70
0
 10
-10.5025715154
 20
-21.6191453064
 10
-10.5041390272
 20
-21.786331002
 10
-10.5047336849
 20
-21.8316424864
  0
LINE
  5
267
100
AcDbEntity
  8
0
100
AcDbLine
 62
250
  6
CONTINUOUS
 10
-11.0016659628
 20
-21.2307227352
 11
-11.002494253
 21
-21.297692487
  0
LINE
  5
268
100
AcDbEntity
  8
0
100
AcDbLine
 62
250
  6
CONTINUOUS
 10
-11.002494253
 20
-21.297692487
 11
-11.0034984168
 21
-21.3558303734
  0
LWPOLYLINE
  5
269
100
AcDbEntity
  8
0
100
AcDbPolyline
 62
250
  6
CONTINUOUS
 90
8
 70
0
 10
-11.0034984168
 20
-21.3558303734
 10
-11.0046585314
 20
-21.4039818068
 10
-11.0052850488
 20
-21.4237085483
 10
-11.0059419622
 20
-21.4405716188
 10
-11.0066154888
 20
-21.4542260345
 10
-11.0073010341
 20
-21.464556801
 10
-11.0080031927
 20
-21.4716789127
 10
-11.0087219643
 20
-21.4755923698
  0
LWPOLYLINE
  5
26A
100
AcDbEntity
  8
RACCORDO
100
AcDbPolyline
 62
250
  6
CONTINUOUS
 90
46
 70
0
 10
0.0
 20
-11.7632589724
 10
-0.1571031887
 20
-11.7578025016
 10
-0.3137050753
 20
-11.7414232017
 10
-0.4690431481
 20
-11.7141466952
 10
-0.6224590505
 20
-11.6760224663
 10
-0.773084962
 20
-11.627198531
 10
-0.9198706473
 20
-11.5679935346
 10
-1.061992745
 20
-11.4987688253
 10
-1.1988835569
 20
-11.4198307683
 10
-1.3299267614
 20
-11.3315430661
 10
-1.4544910741
 20
-11.2343330466
 10
-1.5719655581
 20
-11.1286793948
 10
-1.6818013449
 20
-11.0150727567
 10
-1.7834689853
 20
-10.8940519206
 10
-1.876459261
 20
-10.766213342
 10
-1.9603093615
 20
-10.6321850126
 10
-2.0346094734
 20
-10.492616241
 10
-2.0989931945
 20
-10.3481887762
 10
-2.1531371748
 20
-10.199623188
 10
-2.1967758164
 20
-10.0476546016
 10
-2.2297013017
 20
-9.8930148294
 10
-2.2517544534
 20
-9.7364456031
 10
-2.2628265201
 20
-9.5787002307
 10
-2.2628602767
 20
-9.4205582675
 10
-2.2518551035
 20
-9.2628093852
 10
-2.2298687101
 20
-9.1062331706
 10
-2.1970103678
 20
-8.9515828703
 10
-2.1534381485
 20
-8.7996005844
 10
-2.0993611247
 20
-8.6510198873
 10
-2.0350450107
 20
-8.5065738568
 10
-1.9608094598
 20
-8.3669786334
 10
-1.8770193549
 20
-8.2329148452
 10
-1.7840851085
 20
-8.1050339829
 10
-1.682468349
 20
-7.9839655461
 10
-1.5726783573
 20
-7.8703067613
 10
-1.4552446334
 20
-7.7645967866
 10
-1.3307152769
 20
-7.6673274956
 10
-1.1997079488
 20
-7.5789822543
 10
-1.0628484622
 20
-7.499983854
 10
-0.9207320305
 20
-7.4306877146
 10
-0.7739276221
 20
-7.3714059901
 10
-0.6232554819
 20
-7.322503521
 10
-0.4697349611
 20
-7.284297973
 10
-0.3142230935
 20
-7.2569474968
 10
-0.1573896562
 20
-7.2405156197
 10
0.0
 20
-7.2350391045
  0
LINE
  5
26B
100
AcDbEntity
  8
0
100
AcDbLine
 62
250
  6
CONTINUOUS
 10
-10.5060155151
 20
21.9047715709
 11
-10.5047336849
 21
21.8316424864
  0
LWPOLYLINE
  5
26C
100
AcDbEntity
  8
0
100
AcDbPolyline
 62
250
  6
CONTINUOUS
 90
6
 70
0
 10
-10.5047336849
 20
-21.8316424864
 10
-10.5060155151
 20
-21.9047715709
 10
-10.5066887591
 20
-21.9320798744
 10
-10.5073747357
 20
-21.9529558612
 10
-10.5080778549
 20
-21.9672631277
 10
-10.5087981167
 20
-21.9749071372
  0
LWPOLYLINE
  5
26D
100
AcDbEntity
  8
0
100
AcDbPolyline
 62
7
  6
CONTINUOUS
 90
3
 70
0
 43
0.3500000006
 10
1.1428571477
 20
32.5357161255
 10
1.0714285848
 20
32.3214271088
 10
0.9285714591
 20
32.0357159729
  0
LINE
  5
26E
100
AcDbEntity
  8
0
100
AcDbLine
 62
250
  6
CONTINUOUS
 10
-2.0966613053
 20
-9.2000001751
 11
-2.2287904522
 21
-9.2000004649
  0
LWPOLYLINE
  5
26F
100
AcDbEntity
  8
0
100
AcDbPolyline
 62
250
  6
CONTINUOUS
 90
5
 70
0
 10
-10.5087981167
 20
21.9749071372
 10
-10.5080778549
 20
21.9672631277
 10
-10.5073747357
 20
21.9529558612
 10
-10.5066887591
 20
21.9320798744
 10
-10.5060155151
 20
21.9047715709
  0
LWPOLYLINE
  5
270
100
AcDbEntity
  8
DRAFT
100
AcDbPolyline
 62
250
  6
CONTINUOUS
 90
10
 70
0
 10
-1.9598230165
 20
-8.3962244498
 10
-1.5623887354
 20
-8.357267661
 10
-1.1526560658
 20
-8.3175972417
 10
-0.7388367301
 20
-8.2780371517
 10
-0.3209519748
 20
-8.2385536897
 10
0.1010004444
 20
-8.199220784
 10
0.5270502854
 20
-8.1602198439
 10
0.9572114051
 20
-8.1216235851
 10
1.3914780942
 20
-8.0833961783
 10
1.7225448428
 20
-8.0548184537
  0
LWPOLYLINE
  5
271
100
AcDbEntity
  8
RACCORDO
100
AcDbPolyline
 62
250
  6
CONTINUOUS
 90
46
 70
0
 10
0.0
 20
-7.2350391045
 10
0.1571364541
 20
-7.2404979873
 10
0.3137708539
 20
-7.2568841692
 10
0.4691396725
 20
-7.2841718183
 10
0.6225836732
 20
-7.3223112902
 10
0.773233978
 20
-7.3711538425
 10
0.9200392864
 20
-7.4303795221
 10
1.0621750213
 20
-7.4996260024
 10
1.199073593
 20
-7.5785860976
 10
1.3301199163
 20
-7.6668951896
 10
1.454682275
 20
-7.7641251835
 10
1.5721497152
 20
-7.8697965623
 10
1.6819753268
 20
-7.9834183232
 10
1.7836292358
 20
-8.1044508435
 10
1.8766026314
 20
-8.2322973882
 10
1.9604355822
 20
-8.3663314234
 10
2.0347180943
 20
-8.5059039363
 10
2.0990833501
 20
-8.6503327073
 10
2.1532099128
 20
-8.7988984589
 10
2.1968316499
 20
-8.9508663661
 10
2.2297401735
 20
-9.1055044724
 10
2.2517776233
 20
-9.2620723901
 10
2.262834425
 20
-9.4198175105
 10
2.2628524341
 20
-9.5779597067
 10
2.2518319339
 20
-9.7357092835
 10
2.2298297233
 20
-9.8922871982
 10
2.1969542552
 20
-10.0469395215
 10
2.1533649162
 20
-10.1989228286
 10
2.0992701987
 20
-10.3475037104
 10
2.0349352913
 20
-10.4919487557
 10
1.9606817932
 20
-10.6315404719
 10
1.8768742206
 20
-10.7655986504
 10
1.7839227912
 20
-10.8934715642
 10
1.6822919405
 20
-11.0145283551
 10
1.5724912789
 20
-11.1281721324
 10
1.4550499368
 20
-11.2338644823
 10
1.330518103
 20
-11.331113776
 10
1.1995134572
 20
-11.4194374818
 10
1.0626613804
 20
-11.4984136062
 10
0.9205584302
 20
-11.5676876206
 10
0.7737737023
 20
-11.6269482221
 10
0.6231262411
 20
-11.6758315947
 10
0.4696344424
 20
-11.7140214152
 10
0.3141543195
 20
-11.7413603186
 10
0.1573547314
 20
-11.7577850022
 10
0.0
 20
-11.7632589724
  0
LWPOLYLINE
  5
272
100
AcDbEntity
  8
RACCORDO
100
AcDbPolyline
 62
250
  6
CONTINUOUS
 90
46
 70
0
 10
0.0
 20
-6.939248345
 10
0.1792076945
 20
-6.9455528047
 10
0.3561688211
 20
-6.9640816699
 10
0.5308833799
 20
-6.9948349215
 10
0.7043131004
 20
-7.0380966248
 10
0.875496253
 20
-7.0935826375
 10
1.0415476491
 20
-7.1604406134
 10
1.2022365186
 20
-7.2388175786
 10
1.3577936316
 20
-7.328566361
 10
1.5060261099
 20
-7.4283933123
 10
1.6468397138
 20
-7.538438375
 10
1.7803286832
 20
-7.6585614076
 10
1.9045828594
 20
-7.7870486463
 10
2.0194818074
 20
-7.9240308449
 10
2.1251459623
 20
-8.069377022
 10
2.2200264715
 20
-8.2209808445
 10
2.3039653268
 20
-8.378940156
 10
2.3771205365
 20
-8.5431568909
 10
2.4384172717
 20
-8.71123091
 10
2.4876782117
 20
-8.8832091578
 10
2.5250806774
 20
-9.0590445128
 10
2.5500818024
 20
-9.2361958187
 10
2.5625005286
 20
-9.4146930358
 10
2.5625179142
 20
-9.5945061065
 10
2.5501342678
 20
-9.7730039485
 10
2.5251686131
 20
-9.9501564635
 10
2.4878019264
 20
-10.12599376
 10
2.4385774445
 20
-10.297975175
 10
2.3773188424
 20
-10.466052912
 10
2.3042024451
 20
-10.6302748907
 10
2.2203004643
 20
-10.7882441264
 10
2.1254529432
 20
-10.93986561
 10
2.0198198385
 20
-11.0852345726
 10
1.9049532322
 20
-11.2222394774
 10
1.7807328562
 20
-11.35074797
 10
1.6472789786
 20
-11.4708926865
 10
1.5065044847
 20
-11.5809596359
 10
1.3583236491
 20
-11.6808059899
 10
1.2028221973
 20
-11.7705748628
 10
1.0421701913
 20
-11.8489812042
 10
0.8761441939
 20
-11.9158851198
 10
0.7049676423
 20
-11.9714267365
 10
0.5314809098
 20
-12.0147410338
 10
0.3566307875
 20
-12.0455397179
 10
0.1794704842
 20
-12.0641112138
 10
0.0
 20
-12.0704555543
  0
LWPOLYLINE
  5
273
100
AcDbEntity
  8
0
100
AcDbPolyline
 62
250
  6
CONTINUOUS
 90
7
 70
0
 10
-11.0087219643
 20
21.4755923698
 10
-11.0080031927
 20
21.4716789126
 10
-11.0073010341
 20
21.4645568007
 10
-11.0066154888
 20
21.4542260342
 10
-11.0059419622
 20
21.4405716186
 10
-11.0052850488
 20
21.4237085484
 10
-11.0046585314
 20
21.403981807
  0
LINE
  5
274
100
AcDbEntity
  8
0
100
AcDbLine
 62
250
  6
CONTINUOUS
 10
-11.0087219643
 20
-21.4755923698
 11
-11.15
 21
-21.8997711479
  0
LINE
  5
275
100
AcDbEntity
  8
0
100
AcDbLine
 62
250
  6
CONTINUOUS
 10
-11.15
 20
21.8997711479
 11
-11.0087219643
 21
21.4755923698
  0
LINE
  5
276
100
AcDbEntity
  8
DRAFT
100
AcDbLine
 62
7
  6
CONTINUOUS
 10
-3.0
 20
23.5
 11
-3.0
 21
22.4
  0
LINE
  5
277
100
AcDbEntity
  8
DRAFT
100
AcDbLine
 62
7
  6
CONTINUOUS
 10
-3.0
 20
-22.4
 11
-3.0
 21
-23.5
  0
LINE
  5
278
100
AcDbEntity
  8
DRAFT
100
AcDbLine
 62
7
  6
CONTINUOUS
 10
-2.7812783412
 20
23.4563623377
 11
-2.7812783412
 21
22.5310194482
  0
LINE
  5
279
100
AcDbEntity
  8
DRAFT
100
AcDbLine
 62
7
  6
CONTINUOUS
 10
-2.7812783412
 20
-22.5310194482
 11
-2.7812783412
 21
-23.4563623377
  0
LINE
  5
27A
100
AcDbEntity
  8
DRAFT
100
AcDbLine
 62
7
  6
CONTINUOUS
 10
-1.8285888467
 20
8.1911980218
 11
-1.8054720197
 21
10.8401240326
  0
LINE
  5
27B
100
AcDbEntity
  8
0
100
AcDbLine
 62
250
  6
CONTINUOUS
 10
-10.5087981167
 20
-21.9749071372
 11
-10.6503805997
 21
-22.4
  0
LINE
  5
27C
100
AcDbEntity
  8
0
100
AcDbLine
 62
250
  6
CONTINUOUS
 10
-2.1311263876
 20
0.572937263
 11
-2.1885546383
 21
0.4948032522
  0
LWPOLYLINE
  5
27D
100
AcDbEntity
  8
0
100
AcDbPolyline
 62
7
  6
CONTINUOUS
 90
7
 70
0
 10
-2.0533697816
 20
0.5948895071
 10
-2.0634543677
 20
0.5818204941
 10
-2.0733994752
 20
0.5687621297
 10
-2.0832061139
 20
0.5557160053
 10
-2.0928753022
 20
0.542683691
 10
-2.1024080665
 20
0.5296667356
 10
-2.1118054414
 20
0.5166666667
  0
LINE
  5
27E
100
AcDbEntity
  8
0
100
AcDbLine
 62
250
  6
CONTINUOUS
 10
-2.1885546383
 20
0.4948032522
 11
-2.1966478593
 21
0.4845547351
  0
LWPOLYLINE
  5
27F
100
AcDbEntity
  8
0
100
AcDbPolyline
 62
250
  6
CONTINUOUS
 90
14
 70
0
 10
0.0
 20
-1.9572123903
 10
-0.1707398747
 20
-1.951412713
 10
-0.3397165347
 20
-1.9360555963
 10
-0.5062248731
 20
-1.9113427962
 10
-0.6696878534
 20
-1.8774495305
 10
-0.8293478884
 20
-1.834595532
 10
-0.9843225633
 20
-1.7831923307
 10
-1.1338404025
 20
-1.7237566014
 10
-1.2776853812
 20
-1.6566025621
 10
-1.415846539
 20
-1.5818556817
 10
-1.5480960175
 20
-1.4997201601
 10
-1.6738263658
 20
-1.410764126
 10
-1.7924757881
 20
-1.3156199093
 10
-1.8769925407
 20
-1.2390173008
  0
LWPOLYLINE
  5
280
100
AcDbEntity
  8
RACCORDO
100
AcDbPolyline
 62
250
  6
CONTINUOUS
 90
46
 70
0
 10
0.0
 20
-2.2656859804
 10
-0.1574290991
 20
-2.260210593
 10
-0.3143202673
 20
-2.2437794203
 10
-0.4699082639
 20
-2.2164254104
 10
-0.6235302226
 20
-2.1782062572
 10
-0.7743205042
 20
-2.1292773053
 10
-0.9212372188
 20
-2.0699616095
 10
-1.0634532648
 20
-2.0006285891
 10
-1.200407073
 20
-1.9215884888
 10
-1.3315037322
 20
-1.8331968472
 10
-1.4561192051
 20
-1.7358757936
 10
-1.5736343345
 20
-1.6301102653
 10
-1.6834970962
 20
-1.5163964162
 10
-1.7851751708
 20
-1.3952797916
 10
-1.8781653148
 20
-1.267353993
 10
-1.9620137334
 20
-1.133236829
 10
-2.0363117469
 20
-0.9935733174
 10
-2.1006896567
 20
-0.8490487631
 10
-2.1548241387
 20
-0.7003835266
 10
-2.1984497874
 20
-0.5483080479
 10
-2.2313560029
 20
-0.3935588269
 10
-2.2533820046
 20
-0.2368919223
 10
-2.2644207894
 20
-0.0790672314
 10
-2.2644181989
 20
0.0791413715
 10
-2.2533760645
 20
0.2369484092
 10
-2.2313537098
 20
0.3935718251
 10
-2.1984613517
 20
0.5482616809
 10
-2.1548549519
 20
0.7002887242
 10
-2.1007406929
 20
0.8489224892
 10
-2.0363834965
 20
0.9934262662
 10
-1.9621009413
 20
1.1330858418
 10
-1.8782528114
 20
1.2672243271
 10
-1.7852501809
 20
1.3951838226
 10
-1.6835632848
 20
1.516322936
 10
-1.5737071365
 20
1.630039988
 10
-1.4562074587
 20
1.7358017655
 10
-1.3316079569
 20
1.833121148
 10
-1.200523842
 20
1.9215155454
 10
-1.0635823309
 20
2.0005599836
 10
-0.9213791262
 20
2.0698984535
 10
-0.7744839321
 20
2.1292178725
 10
-0.623715908
 20
2.1781530999
 10
-0.4700920714
 20
2.2163864377
 10
-0.314468577
 20
2.2437586428
 10
-0.1575160153
 20
2.2602045393
 10
0.0
 20
2.2656859804
  0
LWPOLYLINE
  5
281
100
AcDbEntity
  8
RACCORDO
100
AcDbPolyline
 62
250
  6
CONTINUOUS
 90
46
 70
0
 10
0.0
 20
-2.5671805973
 10
-0.1795332632
 20
-2.5608440054
 10
-0.3567773043
 20
-2.5422668788
 10
-0.5317321232
 20
-2.5114492106
 10
-0.7053556014
 20
-2.4681010605
 10
-0.8766898575
 20
-2.4125123418
 10
-1.0428612467
 20
-2.3455528235
 10
-1.2036346446
 20
-2.2670824939
 10
-1.3592451755
 20
-2.1772413212
 10
-1.5075245677
 20
-2.077319045
 10
-1.6483881504
 20
-1.9671716468
 10
-1.7819205943
 20
-1.8469431017
 10
-1.9062076398
 20
-1.718355147
 10
-2.0211248239
 20
-1.5812823727
 10
-2.1267966096
 20
-1.4358501619
 10
-2.2216821261
 20
-1.2841564559
 10
-2.3056269706
 20
-1.1261000602
 10
-2.3787855458
 20
-0.961782169
 10
-2.4400801891
 20
-0.793604322
 10
-2.4893326658
 20
-0.621513862
 10
-2.5267212104
 20
-0.4455634729
 10
-2.551702864
 20
-0.268312718
 10
-2.5640940143
 20
-0.0897394403
 10
-2.5640782736
 20
0.0901341598
 10
-2.5516635194
 20
0.2686819789
 10
-2.5266721452
 20
0.4458699201
 10
-2.4892817575
 20
0.6217320368
 10
-2.4400330542
 20
0.7937444558
 10
-2.3787513093
 20
0.9618639338
 10
-2.3056112487
 20
1.1261336872
 10
-2.2216777477
 20
1.2841595436
 10
-2.1267865862
 20
1.4358514654
 10
-2.0211019843
 20
1.5812994903
 10
-1.9061814773
 20
1.7183795739
 10
-1.7819089584
 20
1.8469536337
 10
-1.6484005344
 20
1.9671597791
 10
-1.5075620609
 20
2.0772882671
 10
-1.3593058512
 20
2.1771990019
 10
-1.2037195921
 20
2.2670321227
 10
-1.0429721997
 20
2.3454982469
 10
-0.8768400489
 20
2.4124575878
 10
-0.7055467648
 20
2.4680499754
 10
-0.5319321387
 20
2.5114054541
 10
-0.3569427678
 20
2.5422340482
 10
-0.1796320549
 20
2.5608257603
 10
0.0
 20
2.5671805973
  0
LINE
  5
282
100
AcDbEntity
  8
0
100
AcDbLine
 62
7
  6
CONTINUOUS
 10
0.0
 20
-1.6
 11
-0.1949198758
 21
-1.5926157254
  0
LINE
  5
283
100
AcDbEntity
  8
0
100
AcDbLine
 62
7
  6
CONTINUOUS
 10
-0.1949198758
 20
-1.5926157254
 11
-0.2011730218
 21
-1.5921655965
  0
LINE
  5
284
100
AcDbEntity
  8
0
100
AcDbLine
 62
7
  6
CONTINUOUS
 10
-0.1949037394
 20
-1.59245108
 11
-0.3160890516
 21
-1.580574047
  0
LWPOLYLINE
  5
285
100
AcDbEntity
  8
0
100
AcDbPolyline
 62
250
  6
CONTINUOUS
 90
15
 70
0
 10
-0.3160890516
 20
-1.580574047
 10
-0.3537828321
 20
-1.5770188693
 10
-0.526159643
 20
-1.5500941117
 10
-0.6945289468
 20
-1.5132931218
 10
-0.8582036189
 20
-1.4669620459
 10
-1.0165436509
 20
-1.4114895608
 10
-1.1689361175
 20
-1.3472739456
 10
-1.3149083579
 20
-1.2746907358
 10
-1.454133549
 20
-1.1942051556
 10
-1.5861770456
 20
-1.1064127157
 10
-1.7107509446
 20
-1.0118175515
 10
-1.8277809122
 20
-0.9107258353
 10
-1.9370576485
 20
-0.8035397648
 10
-2.0382490834
 20
-0.6907933093
 10
-2.1311263876
 20
-0.572937263
  0
LWPOLYLINE
  5
286
100
AcDbEntity
  8
0
100
AcDbPolyline
 62
7
  6
CONTINUOUS
 90
13
 70
0
 10
-0.3160890516
 20
-1.580574047
 10
-0.4723511913
 20
-1.5565265815
 10
-0.6266682257
 20
-1.5231341867
 10
-0.7785174955
 20
-1.4805478054
 10
-0.9274205864
 20
-1.4288989726
 10
-1.0728703726
 20
-1.3683199912
 10
-1.2143321418
 20
-1.2989631695
 10
-1.3513150443
 20
-1.2210903638
 10
-1.4833699736
 20
-1.1350421309
 10
-1.610024005
 20
-1.0411766452
 10
-1.7307839896
 20
-0.9398783654
 10
-1.8452020951
 20
-0.8315097411
 10
-1.9528690927
 20
-0.7164013268
  0
LINE
  5
287
100
AcDbEntity
  8
0
100
AcDbLine
 62
7
  6
CONTINUOUS
 10
-1.9528690927
 20
-0.7164013268
 11
-2.0533688672
 21
-0.5948906844
  0
LINE
  5
288
100
AcDbEntity
  8
0
100
AcDbLine
 62
250
  6
CONTINUOUS
 10
-2.1885546383
 20
-0.4948032522
 11
-2.1966478593
 21
-0.4845547351
  0
LWPOLYLINE
  5
289
100
AcDbEntity
  8
0
100
AcDbPolyline
 62
7
  6
CONTINUOUS
 90
4
 70
0
 10
-2.1118054414
 20
-0.5166666667
 10
-2.1552699454
 20
-0.4604528062
 10
-2.2023598246
 20
-0.40771707
 10
-2.2131218187
 20
-0.3972551083
  0
LINE
  5
28A
100
AcDbEntity
  8
0
100
AcDbLine
 62
7
  6
CONTINUOUS
 10
-2.0533688672
 20
-0.5948906844
 11
-2.0666556959
 21
-0.5776369988
  0
LINE
  5
28B
100
AcDbEntity
  8
0
100
AcDbLine
 62
7
  6
CONTINUOUS
 10
-2.0666556959
 20
-0.5776369988
 11
-2.0797334041
 21
-0.560358132
  0
LINE
  5
28C
100
AcDbEntity
  8
0
100
AcDbLine
 62
7
  6
CONTINUOUS
 10
-2.0797334041
 20
-0.560358132
 11
-2.0926371637
 21
-0.5430089095
  0
LINE
  5
28D
100
AcDbEntity
  8
0
100
AcDbLine
 62
250
  6
CONTINUOUS
 10
-2.1311263876
 20
-0.572937263
 11
-2.1885546383
 21
-0.4948032522
  0
LWPOLYLINE
  5
28E
100
AcDbEntity
  8
0
100
AcDbPolyline
 62
7
  6
CONTINUOUS
 90
3
 70
0
 10
-2.0926371637
 20
-0.5430089095
 10
-2.1054394753
 20
-0.5254920312
 10
-2.1118054414
 20
-0.5166666667
  0
LINE
  5
28F
100
AcDbEntity
  8
0
100
AcDbLine
 62
250
  6
CONTINUOUS
 10
-10.6503805997
 20
22.4
 11
-10.5087981167
 21
21.9749071372
  0
LINE
  5
290
100
AcDbEntity
  8
0
100
AcDbLine
 62
7
  6
CONTINUOUS
 10
-0.5
 20
-0.5
 11
-0.5
 21
-1.5505437039
  0
LINE
  5
291
100
AcDbEntity
  8
0
100
AcDbLine
 62
250
  6
CONTINUOUS
 10
-0.5
 20
-0.4
 11
-0.5
 21
-0.5
  0
LINE
  5
292
100
AcDbEntity
  8
0
100
AcDbLine
 62
250
  6
CONTINUOUS
 10
0.0
 20
2.25
 11
0.0
 21
1.6
  0
LINE
  5
293
100
AcDbEntity
  8
0
100
AcDbLine
 62
250
  6
CONTINUOUS
 10
0.0
 20
-2.25
 11
0.0
 21
-1.6
  0
LINE
  5
294
100
AcDbEntity
  8
0
100
AcDbLine
 62
7
  6
CONTINUOUS
 10
-2.2062829713
 20
-9.9334958693
 11
-1.983125425
 21
-8.4403138611
  0
LINE
  5
295
100
AcDbEntity
  8
DRAFT
100
AcDbLine
 62
7
  6
CONTINUOUS
 10
-2.2014708799
 20
-9.958996344
 11
-1.9710843665
 21
-8.4175315303
  0
LINE
  5
296
100
AcDbEntity
  8
0
100
AcDbLine
 62
250
  6
CONTINUOUS
 10
-2.1885546383
 20
0.4948032522
 11
-2.1118054414
 21
0.5166666667
  0
LWPOLYLINE
  5
297
100
AcDbEntity
  8
0
100
AcDbPolyline
 62
250
  6
CONTINUOUS
 90
4
 70
0
 10
2.1595329196
 20
-0.6271517767
 10
2.1339391463
 20
-0.6298662146
 10
2.1075742113
 20
-0.6350234772
 10
2.0816613801
 20
-0.6424624211
  0
LWPOLYLINE
  5
298
100
AcDbEntity
  8
0
100
AcDbPolyline
 62
7
  6
CONTINUOUS
 90
2
 70
0
 43
0.3500000006
 10
18.3999999504
 20
-1.3571429443
 10
16.8999994926
 20
-1.3571429443
  0
LINE
  5
299
100
AcDbEntity
  8
0
100
AcDbLine
 62
7
  6
CONTINUOUS
 10
1.6343303518
 20
-1.01
 11
0.7
 21
-1.01
  0
LINE
  5
29A
100
AcDbEntity
  8
0
100
AcDbLine
 62
7
  6
CONTINUOUS
 10
1.6348428827
 20
-1.0
 11
0.9
 21
-1.0
  0
LINE
  5
29B
100
AcDbEntity
  8
0
100
AcDbLine
 62
7
  6
CONTINUOUS
 10
1.6343303518
 20
-0.99
 11
0.7
 21
-0.99
  0
LINE
  5
29C
100
AcDbEntity
  8
0
100
AcDbLine
 62
7
  6
CONTINUOUS
 10
-0.5
 20
-0.5
 11
0.7
 21
-0.5
  0
LINE
  5
29D
100
AcDbEntity
  8
0
100
AcDbLine
 62
250
  6
CONTINUOUS
 10
0.7
 20
-0.44
 11
1.6343303518
 21
-0.44
  0
LINE
  5
29E
100
AcDbEntity
  8
0
100
AcDbLine
 62
250
  6
CONTINUOUS
 10
0.7
 20
-0.4
 11
-0.5
 21
-0.4
  0
LWPOLYLINE
  5
29F
100
AcDbEntity
  8
0
100
AcDbPolyline
 62
7
  6
CONTINUOUS
 90
4
 70
0
 43
0.3500000006
 10
16.0428570213
 20
-0.0000003204
 10
15.4000001678
 20
-0.0000003204
 10
15.4000001678
 20
1.5000001373
 10
18.3999999504
 20
0.642857666
  0
LWPOLYLINE
  5
2A0
100
AcDbEntity
  8
0
100
AcDbPolyline
 62
250
  6
CONTINUOUS
 90
3
 70
0
 10
-2.1758238975
 20
-0.566612775
 10
-2.1536361752
 20
-0.5681876856
 10
-2.1311263876
 20
-0.572937263
  0
LINE
  5
2A1
100
AcDbEntity
  8
0
100
AcDbLine
 62
250
  6
CONTINUOUS
 10
-2.1949814697
 20
-0.4933853504
 11
-2.1885546383
 21
-0.4948032522
  0
LINE
  5
2A2
100
AcDbEntity
  8
0
100
AcDbLine
 62
250
  6
CONTINUOUS
 10
2.0506543031
 20
-0.4969580155
 11
2.1124929019
 21
-0.5142012612
  0
LINE
  5
2A3
100
AcDbEntity
  8
0
100
AcDbLine
 62
250
  6
CONTINUOUS
 10
-2.1311263876
 20
-0.572937263
 11
-2.0533688672
 21
-0.5948906844
  0
LINE
  5
2A4
100
AcDbEntity
  8
0
100
AcDbLine
 62
250
  6
CONTINUOUS
 10
-2.1885546383
 20
-0.4948032522
 11
-2.1118054414
 21
-0.5166666667
  0
LINE
  5
2A5
100
AcDbEntity
  8
SMUSSO
100
AcDbLine
 62
7
  6
CONTINUOUS
 10
0.4368055494
 20
-1.5627530983
 11
0.4368055494
 21
-0.5
  0
LINE
  5
2A6
100
AcDbEntity
  8
SUPERFICI
100
AcDbLine
 62
7
  6
CONTINUOUS
 10
0.4368055494
 20
-1.5627530983
 11
0.4368055494
 21
-0.5
  0
LINE
  5
2A7
100
AcDbEntity
  8
DRAFT
100
AcDbLine
 62
7
  6
CONTINUOUS
 10
0.5
 20
-0.5
 11
0.5
 21
-1.5504607928
  0
LINE
  5
2A8
100
AcDbEntity
  8
SUPERFICI
100
AcDbLine
 62
7
  6
CONTINUOUS
 10
0.5
 20
-0.5
 11
0.5
 21
-1.5504607928
  0
LINE
  5
2A9
100
AcDbEntity
  8
0
100
AcDbLine
 62
7
  6
CONTINUOUS
 10
0.7
 20
-1.5031022876
 11
0.7
 21
-1.01
  0
LINE
  5
2AA
100
AcDbEntity
  8
0
100
AcDbLine
 62
7
  6
CONTINUOUS
 10
0.7
 20
-0.99
 11
0.7
 21
-0.44
  0
LINE
  5
2AB
100
AcDbEntity
  8
0
100
AcDbLine
 62
250
  6
CONTINUOUS
 10
0.7
 20
-0.44
 11
0.7
 21
-0.4
  0
LINE
  5
2AC
100
AcDbEntity
  8
0
100
AcDbLine
 62
250
  6
CONTINUOUS
 10
1.6343303518
 20
-0.44
 11
1.6343303518
 21
-0.99
  0
LINE
  5
2AD
100
AcDbEntity
  8
0
100
AcDbLine
 62
250
  6
CONTINUOUS
 10
1.6343303518
 20
-1.0209172952
 11
1.6343303518
 21
-1.0
  0
LINE
  5
2AE
100
AcDbEntity
  8
DRAFT
100
AcDbLine
 62
7
  6
CONTINUOUS
 10
1.8285888467
 20
-8.1911980218
 11
1.8054720197
 21
-10.8401240326
  0
LINE
  5
2AF
100
AcDbEntity
  8
DRAFT
100
AcDbLine
 62
7
  6
CONTINUOUS
 10
2.2014708799
 20
9.958996344
 11
1.9710843665
 21
8.4175315303
  0
LINE
  5
2B0
100
AcDbEntity
  8
0
100
AcDbLine
 62
7
  6
CONTINUOUS
 10
2.2062829713
 20
9.9334958693
 11
1.983125425
 21
8.4403138611
  0
LWPOLYLINE
  5
2B1
100
AcDbEntity
  8
0
100
AcDbPolyline
 62
7
  6
CONTINUOUS
 90
3
 70
0
 10
2.0185344554
 20
-0.6387649563
 10
2.0045143517
 20
-0.655878264
 10
1.990298123
 20
-0.6729355582
  0
LWPOLYLINE
  5
2B2
100
AcDbEntity
  8
0
100
AcDbPolyline
 62
7
  6
CONTINUOUS
 90
16
 70
0
 10
1.990298123
 20
-0.6729355582
 10
1.8900460075
 20
-0.7854300987
 10
1.7833102673
 20
-0.8920511559
 10
1.67029613
 20
-0.9925186783
 10
1.5508784578
 20
-1.0868110001
 10
1.4256097519
 20
-1.1743250586
 10
1.2958017362
 20
-1.2540979581
 10
1.1618558847
 20
-1.3259631401
 10
1.0239446804
 20
-1.3898850874
 10
0.8831849836
 20
-1.4454126179
 10
0.7400610792
 20
-1.4924607138
 10
0.594680559
 20
-1.5310786834
 10
0.4476438145
 20
-1.5611786563
 10
0.2993669312
 20
-1.5827183902
 10
0.1500532385
 20
-1.5956731838
 10
0.0
 20
-1.6
  0
LWPOLYLINE
  5
2B3
100
AcDbEntity
  8
0
100
AcDbPolyline
 62
7
  6
CONTINUOUS
 90
3
 70
0
 10
2.2132801991
 20
-0.3964158108
 10
2.1602894138
 20
-0.4544245757
 10
2.1118054414
 20
-0.5166666667
  0
LINE
  5
2B4
100
AcDbEntity
  8
0
100
AcDbLine
 62
250
  6
CONTINUOUS
 10
2.1959541052
 20
-0.4882311115
 11
2.1118054414
 21
-0.5166666667
  0
LINE
  5
2B5
100
AcDbEntity
  8
0
100
AcDbLine
 62
250
  6
CONTINUOUS
 10
2.0816613801
 20
-0.6424624211
 11
1.990298123
 21
-0.6729355582
  0
LINE
  5
2B6
100
AcDbEntity
  8
0
100
AcDbLine
 62
250
  6
CONTINUOUS
 10
-2.1311263876
 20
0.572937263
 11
-2.0533688685
 21
0.594890684
  0
LINE
  5
2B7
100
AcDbEntity
  8
0
100
AcDbLine
 62
250
  6
CONTINUOUS
 10
-2.1949814697
 20
0.4933853504
 11
-2.1885546383
 21
0.4948032522
  0
LWPOLYLINE
  5
2B8
100
AcDbEntity
  8
0
100
AcDbPolyline
 62
250
  6
CONTINUOUS
 90
15
 70
0
 10
-0.2011730218
 20
1.5921655965
 10
-0.3537828321
 20
1.5770188693
 10
-0.526159643
 20
1.5500941117
 10
-0.6945289468
 20
1.5132931218
 10
-0.8582036189
 20
1.4669620459
 10
-1.0165436509
 20
1.4114895608
 10
-1.1689361175
 20
1.3472739456
 10
-1.3149083579
 20
1.2746907358
 10
-1.454133549
 20
1.1942051556
 10
-1.5861770456
 20
1.1064127157
 10
-1.7107509446
 20
1.0118175515
 10
-1.8277809122
 20
0.9107258353
 10
-1.9370576485
 20
0.8035397648
 10
-2.0382490834
 20
0.6907933093
 10
-2.1311263876
 20
0.572937263
  0
LWPOLYLINE
  5
2B9
100
AcDbEntity
  8
0
100
AcDbPolyline
 62
7
  6
CONTINUOUS
 90
15
 70
0
 10
-0.1880524013
 20
1.5930854346
 10
-0.2973845497
 20
1.5827979074
 10
-0.4482737231
 20
1.5609100162
 10
-0.6003820325
 20
1.5296080674
 10
-0.7525748167
 20
1.488633188
 10
-0.902729287
 20
1.4382243658
 10
-1.0497453188
 20
1.3786435993
 10
-1.193539783
 20
1.3098441522
 10
-1.3335738419
 20
1.2319280663
 10
-1.4696500832
 20
1.1447743666
 10
-1.6007163244
 20
1.0488155315
 10
-1.7251052872
 20
0.9452430671
 10
-1.8420681632
 20
0.8348750612
 10
-1.9516026049
 20
0.7179182001
 10
-2.0533697816
 20
0.5948895071
  0
LINE
  5
2BA
100
AcDbEntity
  8
0
100
AcDbLine
 62
7
  6
CONTINUOUS
 10
-0.1949198758
 20
1.5926157254
 11
-0.2011730218
 21
1.5921655965
  0
LWPOLYLINE
  5
2BB
100
AcDbEntity
  8
0
100
AcDbPolyline
 62
250
  6
CONTINUOUS
 90
3
 70
0
 10
-2.1758238975
 20
0.566612775
 10
-2.1536361752
 20
0.5681876856
 10
-2.1311263876
 20
0.572937263
  0
LINE
  5
2BC
100
AcDbEntity
  8
0
100
AcDbLine
 62
7
  6
CONTINUOUS
 10
0.0
 20
1.6
 11
-0.1949198758
 21
1.5926157254
  0
LWPOLYLINE
  5
2BD
100
AcDbEntity
  8
0
100
AcDbPolyline
 62
250
  6
CONTINUOUS
 90
14
 70
0
 10
0.0
 20
1.9572123903
 10
-0.1707398747
 20
1.951412713
 10
-0.3397165347
 20
1.9360555963
 10
-0.5062248731
 20
1.9113427962
 10
-0.6696878534
 20
1.8774495305
 10
-0.8293478884
 20
1.834595532
 10
-0.9843225633
 20
1.7831923307
 10
-1.1338404025
 20
1.7237566014
 10
-1.2776853812
 20
1.6566025621
 10
-1.415846539
 20
1.5818556817
 10
-1.5480960175
 20
1.4997201601
 10
-1.6738263658
 20
1.410764126
 10
-1.7924757881
 20
1.3156199093
 10
-1.8769925407
 20
1.2390173008
  0
LWPOLYLINE
  5
2BE
100
AcDbEntity
  8
0
100
AcDbPolyline
 62
250
  6
CONTINUOUS
 90
4
 70
0
 10
2.1595329196
 20
0.6271517767
 10
2.1339391463
 20
0.6298662146
 10
2.1075742113
 20
0.6350234772
 10
2.0816613801
 20
0.6424624211
  0
LINE
  5
2BF
100
AcDbEntity
  8
0
100
AcDbLine
 62
250
  6
CONTINUOUS
 10
2.0816613801
 20
0.6424624211
 11
1.990298123
 21
0.6729355582
  0
LINE
  5
2C0
100
AcDbEntity
  8
0
100
AcDbLine
 62
250
  6
CONTINUOUS
 10
2.1959541052
 20
0.4882311115
 11
2.1118054414
 21
0.5166666667
  0
LWPOLYLINE
  5
2C1
100
AcDbEntity
  8
0
100
AcDbPolyline
 62
7
  6
CONTINUOUS
 90
16
 70
0
 10
1.9902981884
 20
0.6729354803
 10
1.8898618403
 20
0.7856153712
 10
1.7829619682
 20
0.892365403
 10
1.6699436391
 20
0.9928093047
 10
1.5510506389
 20
1.0866824698
 10
1.4267846506
 20
1.173543043
 10
1.2979554228
 20
1.2528466517
 10
1.1653808385
 20
1.3241980667
 10
1.0292042146
 20
1.3876245186
 10
0.8892304465
 20
1.4432117478
 10
0.7454721718
 20
1.4908404638
 10
0.5988105328
 20
1.5301066651
 10
0.4503554573
 20
1.5607013698
 10
0.3008312578
 20
1.5825392799
 10
0.1505428374
 20
1.595638944
 10
0.0
 20
1.6
  0
LINE
  5
2C2
100
AcDbEntity
  8
DRAFT
100
AcDbLine
 62
7
  6
CONTINUOUS
 10
2.7812783412
 20
23.4563623377
 11
2.7812783412
 21
22.5310194482
  0
LINE
  5
2C3
100
AcDbEntity
  8
DRAFT
100
AcDbLine
 62
7
  6
CONTINUOUS
 10
2.7812783412
 20
-22.5310194482
 11
2.7812783412
 21
-23.4563623377
  0
LINE
  5
2C4
100
AcDbEntity
  8
DRAFT
100
AcDbLine
 62
7
  6
CONTINUOUS
 10
3.0
 20
23.5
 11
3.0
 21
22.4
  0
LINE
  5
2C5
100
AcDbEntity
  8
DRAFT
100
AcDbLine
 62
7
  6
CONTINUOUS
 10
3.0
 20
-22.4
 11
3.0
 21
-23.5
  0
LINE
  5
2C6
100
AcDbEntity
  8
0
100
AcDbLine
 62
250
  6
CONTINUOUS
 10
2.0506543031
 20
-0.4969580155
 11
2.0072828285
 21
-0.6524989883
  0
LINE
  5
2C7
100
AcDbEntity
  8
0
100
AcDbLine
 62
250
  6
CONTINUOUS
 10
10.6503805997
 20
22.4
 11
10.5087981167
 21
21.9749071372
  0
LINE
  5
2C8
100
AcDbEntity
  8
0
100
AcDbLine
 62
250
  6
CONTINUOUS
 10
11.15
 20
21.8997711479
 11
11.0087219643
 21
21.4755923698
  0
LWPOLYLINE
  5
2C9
100
AcDbEntity
  8
0
100
AcDbPolyline
 62
7
  6
CONTINUOUS
 90
8
 70
0
 10
2.1118054414
 20
-0.5166666667
 10
2.0989634731
 20
-0.5343929355
 10
2.0859706503
 20
-0.5520166234
 10
2.0728211439
 20
-0.5695418454
 10
2.0595067892
 20
-0.5869762228
 10
2.046022685
 20
-0.6043235498
 10
2.0323671944
 20
-0.6215842378
 10
2.0185344554
 20
-0.6387649563
  0
LINE
  5
2CA
100
AcDbEntity
  8
0
100
AcDbLine
 62
250
  6
CONTINUOUS
 10
2.1944047543
 20
-0.496441509
 11
2.1625138684
 21
-0.5380835875
  0
LINE
  5
2CB
100
AcDbEntity
  8
0
100
AcDbLine
 62
250
  6
CONTINUOUS
 10
2.1625138684
 20
-0.5380835875
 11
2.0816613801
 21
-0.6424624211
  0
LWPOLYLINE
  5
2CC
100
AcDbEntity
  8
0
100
AcDbPolyline
 62
250
  6
CONTINUOUS
 90
16
 70
0
 10
2.0816613801
 20
-0.6424624211
 10
1.9876840865
 20
-0.7558592077
 10
1.8863386633
 20
-0.8635633317
 10
1.7778121856
 20
-0.9652547415
 10
1.662365653
 20
-1.0605597704
 10
1.5401712304
 20
-1.1491988999
 10
1.4112958042
 20
-1.2309676701
 10
1.275955053
 20
-1.3055331541
 10
1.1344637639
 20
-1.3725074112
 10
0.9870537438
 20
-1.4315623668
 10
0.8340698024
 20
-1.48235084
 10
0.6759086655
 20
-1.5245134541
 10
0.5129338764
 20
-1.5576980747
 10
0.3455951727
 20
-1.5815601295
 10
0.1744315546
 20
-1.5957705299
 10
0.0
 20
-1.6
  0
LWPOLYLINE
  5
2CD
100
AcDbEntity
  8
0
100
AcDbPolyline
 62
250
  6
CONTINUOUS
 90
14
 70
0
 10
1.862976172
 20
-1.2613271145
 10
1.7805584219
 20
-1.3357909165
 10
1.6640232937
 20
-1.42886155
 10
1.5410123046
 20
-1.5154850523
 10
1.4115395729
 20
-1.5954543035
 10
1.2761877739
 20
-1.668178592
 10
1.1352108808
 20
-1.7334270041
 10
0.9880133865
 20
-1.7912940259
 10
0.8347675991
 20
-1.8413558298
 10
0.6762828548
 20
-1.8829580099
 10
0.5128880263
 20
-1.9156802958
 10
0.3451635418
 20
-1.9391883559
 10
0.1739327622
 20
-1.9531395924
 10
0.0
 20
-1.9572123903
  0
LWPOLYLINE
  5
2CE
100
AcDbEntity
  8
RACCORDO
100
AcDbPolyline
 62
250
  6
CONTINUOUS
 90
46
 70
0
 10
0.0
 20
2.2656859804
 10
0.1574250392
 20
2.2602108757
 10
0.3143128313
 20
2.2437804618
 10
0.4698981715
 20
2.2164275499
 10
0.6235182499
 20
2.1782096841
 10
0.774307385
 20
2.1292820756
 10
0.921223554
 20
2.0699676903
 10
1.0634399604
 20
2.0006356604
 10
1.2003946324
 20
1.9215962595
 10
1.3314915829
 20
1.8332056706
 10
1.4561058965
 20
1.7358869561
 10
1.5736196056
 20
1.6301244824
 10
1.6834825125
 20
1.5164126051
 10
1.7851634037
 20
1.3952948451
 10
1.8781571243
 20
1.2673661295
 10
1.9620074725
 20
1.1332476676
 10
2.0363053485
 20
0.9935864293
 10
2.1006825351
 20
0.8490663813
 10
2.1548166234
 20
0.7004066456
 10
2.1984421971
 20
0.5483384775
 10
2.2313491745
 20
0.3935975368
 10
2.2533773885
 20
0.2369358241
 10
2.2644192446
 20
0.0791114557
 10
2.2644196395
 20
-0.0791001471
 10
2.2533798288
 20
-0.2369126121
 10
2.231358461
 20
-0.3935448893
 10
2.1984653337
 20
-0.5482457146
 10
2.15485729
 20
-0.7002815303
 10
2.1007414189
 20
-0.8489206929
 10
2.036382758
 20
-0.9934277799
 10
1.9620995314
 20
-1.1330882831
 10
1.878252853
 20
-1.2672242656
 10
1.7852535398
 20
-1.3951795251
 10
1.6835694275
 20
-1.5163161165
 10
1.5737136979
 20
-1.6300336539
 10
1.4562131322
 20
-1.7357970063
 10
1.3316130275
 20
-1.833117465
 10
1.2005295881
 20
-1.9215119557
 10
1.0635892709
 20
-2.0005562943
 10
0.9213869312
 20
-2.0698949795
 10
0.7744919991
 20
-2.1292149384
 10
0.6237238141
 20
-2.1781508362
 10
0.470099125
 20
-2.2163849418
 10
0.3144739842
 20
-2.243757885
 10
0.1575190645
 20
-2.2602043269
 10
0.0
 20
-2.2656859804
  0
LWPOLYLINE
  5
2CF
100
AcDbEntity
  8
RACCORDO
100
AcDbPolyline
 62
250
  6
CONTINUOUS
 90
46
 70
0
 10
0.0
 20
2.5671805973
 10
0.1795286488
 20
2.5608445824
 10
0.3567688893
 20
2.5422682612
 10
0.5317207215
 20
2.5114516269
 10
0.7053420836
 20
2.4681048657
 10
0.8766750374
 20
2.4125177644
 10
1.0428457684
 20
2.3455597118
 10
1.2036194766
 20
2.267090325
 10
1.3592309619
 20
2.1772499435
 10
1.5075108095
 20
2.0773290418
 10
1.6483733493
 20
1.9671845746
 10
1.7819042513
 20
1.8469595437
 10
1.9061911104
 20
1.7183735017
 10
2.0211109355
 20
1.5812990366
 10
2.1267867177
 20
1.4358635335
 10
2.2216750256
 20
1.2841687545
 10
2.305620027
 20
1.1261151616
 10
2.378777554
 20
0.9618022927
 10
2.4400716719
 20
0.7936305384
 10
2.4893246668
 20
0.6215484292
 10
2.5267142525
 20
0.4456074616
 10
2.5516976365
 20
0.2683624865
 10
2.5640919031
 20
0.0897894216
 10
2.5640799678
 20
-0.0900876072
 10
2.5516677841
 20
-0.2686414321
 10
2.5266767884
 20
-0.4458392585
 10
2.4892855442
 20
-0.6217138375
 10
2.4400356958
 20
-0.7937363242
 10
2.3787522633
 20
-0.9618618104
 10
2.3056102266
 20
-1.1261351775
 10
2.2216761687
 20
-1.2841622767
 10
2.1267872746
 20
-1.4358517678
 10
2.0211063594
 20
-1.5812949912
 10
1.9061884508
 20
-1.7183718338
 10
1.7819160823
 20
-1.8469461679
 10
1.6484067205
 20
-1.9671541483
 10
1.5075677929
 20
-2.0772841002
 10
1.3593124462
 20
-2.1771950851
 10
1.2037275337
 20
-2.2670280849
 10
1.0429810429
 20
-2.3454943122
 10
0.8768491521
 20
-2.4124542743
 10
0.7055556829
 20
-2.4680475073
 10
0.5319400879
 20
-2.5114037687
 10
0.3569488512
 20
-2.5422329873
 10
0.1796354885
 20
-2.5608252612
 10
0.0
 20
-2.5671805973
  0
LWPOLYLINE
  5
2D0
100
AcDbEntity
  8
0
100
AcDbPolyline
 62
250
  6
CONTINUOUS
 90
14
 70
0
 10
1.862976172
 20
1.2613271145
 10
1.7805584219
 20
1.3357909165
 10
1.6640232937
 20
1.42886155
 10
1.5410123046
 20
1.5154850523
 10
1.4115395729
 20
1.5954543035
 10
1.2761877739
 20
1.668178592
 10
1.1352108808
 20
1.7334270041
 10
0.9880133865
 20
1.7912940259
 10
0.8347675991
 20
1.8413558298
 10
0.6762828548
 20
1.8829580099
 10
0.5128880263
 20
1.9156802958
 10
0.3451635418
 20
1.9391883559
 10
0.1739327622
 20
1.9531395924
 10
0.0
 20
1.9572123903
  0
LWPOLYLINE
  5
2D1
100
AcDbEntity
  8
0
100
AcDbPolyline
 62
250
  6
CONTINUOUS
 90
16
 70
0
 10
2.0816613801
 20
0.6424624211
 10
1.9876840865
 20
0.7558592077
 10
1.8863386633
 20
0.8635633317
 10
1.7778121856
 20
0.9652547415
 10
1.662365653
 20
1.0605597704
 10
1.5401712304
 20
1.1491988999
 10
1.4112958042
 20
1.2309676701
 10
1.275955053
 20
1.3055331541
 10
1.1344637639
 20
1.3725074112
 10
0.9870537438
 20
1.4315623668
 10
0.8340698024
 20
1.48235084
 10
0.6759086655
 20
1.5245134541
 10
0.5129338764
 20
1.5576980747
 10
0.3455951727
 20
1.5815601295
 10
0.1744315546
 20
1.5957705299
 10
0.0
 20
1.6
  0
LINE
  5
2D2
100
AcDbEntity
  8
0
100
AcDbLine
 62
250
  6
CONTINUOUS
 10
2.1625138684
 20
0.5380835875
 11
2.0816613801
 21
0.6424624211
  0
LINE
  5
2D3
100
AcDbEntity
  8
0
100
AcDbLine
 62
250
  6
CONTINUOUS
 10
2.1944047543
 20
0.496441509
 11
2.1625138684
 21
0.5380835875
  0
LWPOLYLINE
  5
2D4
100
AcDbEntity
  8
0
100
AcDbPolyline
 62
7
  6
CONTINUOUS
 90
7
 70
0
 10
2.1118054414
 20
0.5166666667
 10
2.0927860832
 20
0.542804723
 10
2.0732805858
 20
0.5689192568
 10
2.0532838932
 20
0.5950000968
 10
2.0327910868
 20
0.6210368547
 10
2.0117973925
 20
0.647018924
 10
1.9902981884
 20
0.6729354803
  0
LINE
  5
2D5
100
AcDbEntity
  8
0
100
AcDbLine
 62
250
  6
CONTINUOUS
 10
10.5087981167
 20
-21.9749071372
 11
10.6503805997
 21
-22.4
  0
LINE
  5
2D6
100
AcDbEntity
  8
0
100
AcDbLine
 62
250
  6
CONTINUOUS
 10
11.0087219643
 20
-21.4755923698
 11
11.15
 21
-21.8997711479
  0
LWPOLYLINE
  5
2D7
100
AcDbEntity
  8
0
100
AcDbPolyline
 62
250
  6
CONTINUOUS
 90
9
 70
0
 10
11.0087219643
 20
21.4755923698
 10
11.0080045641
 20
21.4716950654
 10
11.0073035089
 20
21.4645922224
 10
11.0066187988
 20
21.4542838406
 10
11.0059457953
 20
21.4406561355
 10
11.0052891369
 20
21.4238228918
 10
11.0046627389
 20
21.4041254635
 10
11.0040674711
 20
21.3815078446
 10
11.0029790226
 20
21.3281894262
  0
LWPOLYLINE
  5
2D8
100
AcDbEntity
  8
RACCORDO
100
AcDbPolyline
 62
250
  6
CONTINUOUS
 90
46
 70
0
 10
0.0
 20
6.939248345
 10
-0.1792076945
 20
6.9455528047
 10
-0.3561688211
 20
6.9640816699
 10
-0.5308833799
 20
6.9948349215
 10
-0.7043131004
 20
7.0380966249
 10
-0.875496253
 20
7.0935826375
 10
-1.0415476491
 20
7.1604406134
 10
-1.2022365186
 20
7.2388175786
 10
-1.3577936316
 20
7.328566361
 10
-1.5060261099
 20
7.4283933123
 10
-1.6468397138
 20
7.538438375
 10
-1.7803286832
 20
7.6585614076
 10
-1.9045828594
 20
7.7870486463
 10
-2.0194818074
 20
7.9240308449
 10
-2.1251459623
 20
8.069377022
 10
-2.2200264715
 20
8.2209808445
 10
-2.3039653268
 20
8.378940156
 10
-2.3771205365
 20
8.5431568909
 10
-2.4384172717
 20
8.71123091
 10
-2.4876782117
 20
8.8832091578
 10
-2.5250806774
 20
9.0590445128
 10
-2.5500818024
 20
9.2361958187
 10
-2.5625005286
 20
9.4146930358
 10
-2.5625179142
 20
9.5945061065
 10
-2.5501342678
 20
9.7730039485
 10
-2.5251686131
 20
9.9501564635
 10
-2.4878019264
 20
10.12599376
 10
-2.4385774445
 20
10.297975175
 10
-2.3773188424
 20
10.466052912
 10
-2.3042024451
 20
10.6302748908
 10
-2.2203004643
 20
10.7882441264
 10
-2.1254529432
 20
10.93986561
 10
-2.0198198385
 20
11.0852345726
 10
-1.9049532322
 20
11.2222394774
 10
-1.7807328562
 20
11.35074797
 10
-1.6472789786
 20
11.4708926865
 10
-1.5065044847
 20
11.5809596359
 10
-1.3583236491
 20
11.6808059899
 10
-1.2028221973
 20
11.7705748628
 10
-1.0421701913
 20
11.8489812042
 10
-0.8761441939
 20
11.9158851198
 10
-0.7049676423
 20
11.9714267365
 10
-0.5314809098
 20
12.0147410338
 10
-0.3566307875
 20
12.0455397179
 10
-0.1794704842
 20
12.0641112138
 10
0.0
 20
12.0704555543
  0
LWPOLYLINE
  5
2D9
100
AcDbEntity
  8
0
100
AcDbPolyline
 62
250
  6
CONTINUOUS
 90
6
 70
0
 10
10.5087981167
 20
21.9749071372
 10
10.5080778269
 20
21.9672621499
 10
10.5073747238
 20
21.952953371
 10
10.5066888073
 20
21.9320760821
 10
10.5060157159
 20
21.9047687004
 10
10.5047341778
 20
21.8316431047
  0
LWPOLYLINE
  5
2DA
100
AcDbEntity
  8
DRAFT
100
AcDbPolyline
 62
250
  6
CONTINUOUS
 90
10
 70
0
 10
1.9598230002
 20
8.3962244189
 10
1.5628691786
 20
8.357313537
 10
1.1534931932
 20
8.3176771593
 10
0.73990842
 20
8.278139163
 10
0.3221377623
 20
8.2386651149
 10
-0.0998194692
 20
8.1993295701
 10
-0.5259916576
 20
8.1603159225
 10
-0.9563913115
 20
8.1216975806
 10
-1.3910113094
 20
8.0834381157
 10
-1.7225451623
 20
8.054818824
  0
LWPOLYLINE
  5
2DB
100
AcDbEntity
  8
RACCORDO
100
AcDbPolyline
 62
250
  6
CONTINUOUS
 90
46
 70
0
 10
0.0
 20
7.2350391045
 10
-0.1571364541
 20
7.2404979873
 10
-0.3137708539
 20
7.2568841692
 10
-0.4691396725
 20
7.2841718183
 10
-0.6225836732
 20
7.3223112902
 10
-0.773233978
 20
7.3711538425
 10
-0.9200392864
 20
7.4303795221
 10
-1.0621750213
 20
7.4996260024
 10
-1.199073593
 20
7.5785860976
 10
-1.3301199163
 20
7.6668951896
 10
-1.454682275
 20
7.7641251835
 10
-1.5721497152
 20
7.8697965623
 10
-1.6819753268
 20
7.9834183232
 10
-1.7836292358
 20
8.1044508435
 10
-1.8766026314
 20
8.2322973882
 10
-1.9604355822
 20
8.3663314234
 10
-2.0347180943
 20
8.5059039363
 10
-2.0990833501
 20
8.6503327073
 10
-2.1532099128
 20
8.7988984589
 10
-2.1968316499
 20
8.9508663661
 10
-2.2297401735
 20
9.1055044724
 10
-2.2517776233
 20
9.2620723901
 10
-2.262834425
 20
9.4198175105
 10
-2.2628524341
 20
9.5779597067
 10
-2.2518319339
 20
9.7357092835
 10
-2.2298297233
 20
9.8922871982
 10
-2.1969542552
 20
10.0469395215
 10
-2.1533649162
 20
10.1989228286
 10
-2.0992701987
 20
10.3475037104
 10
-2.0349352913
 20
10.4919487557
 10
-1.9606817932
 20
10.6315404719
 10
-1.8768742206
 20
10.7655986504
 10
-1.7839227912
 20
10.8934715642
 10
-1.6822919405
 20
11.0145283551
 10
-1.5724912789
 20
11.1281721324
 10
-1.4550499368
 20
11.2338644823
 10
-1.330518103
 20
11.331113776
 10
-1.1995134572
 20
11.4194374818
 10
-1.0626613804
 20
11.4984136062
 10
-0.9205584302
 20
11.5676876206
 10
-0.7737737023
 20
11.6269482221
 10
-0.6231262411
 20
11.6758315947
 10
-0.4696344424
 20
11.7140214152
 10
-0.3141543195
 20
11.7413603186
 10
-0.1573547314
 20
11.7577850022
 10
0.0
 20
11.7632589724
  0
LWPOLYLINE
  5
2DC
100
AcDbEntity
  8
0
100
AcDbPolyline
 62
250
  6
CONTINUOUS
 90
7
 70
0
 10
11.0046627389
 20
-21.4041254633
 10
11.0052891369
 20
-21.4238228917
 10
11.0059457953
 20
-21.4406561357
 10
11.0066187988
 20
-21.4542838409
 10
11.0073035089
 20
-21.4645922227
 10
11.0080045641
 20
-21.4716950656
 10
11.0087219643
 20
-21.4755923698
  0
LWPOLYLINE
  5
2DD
100
AcDbEntity
  8
0
100
AcDbPolyline
 62
250
  6
CONTINUOUS
 90
5
 70
0
 10
10.5060157159
 20
-21.9047687004
 10
10.5066888073
 20
-21.9320760821
 10
10.5073747238
 20
-21.952953371
 10
10.5080778269
 20
-21.9672621499
 10
10.5087981167
 20
-21.9749071372
  0
LWPOLYLINE
  5
2DE
100
AcDbEntity
  8
0
100
AcDbPolyline
 62
250
  6
CONTINUOUS
 90
3
 70
0
 10
11.0029790226
 20
-21.3281894263
 10
11.0035024636
 20
-21.3560260411
 10
11.0046627389
 20
-21.4041254633
  0
LINE
  5
2DF
100
AcDbEntity
  8
0
100
AcDbLine
 62
250
  6
CONTINUOUS
 10
10.5047341778
 20
-21.8316431047
 11
10.5060157159
 21
-21.9047687004
  0
LINE
  5
2E0
100
AcDbEntity
  8
0
100
AcDbLine
 62
250
  6
CONTINUOUS
 10
10.5030519894
 20
-21.6796926689
 11
10.5047341778
 21
-21.8316431047
  0
LINE
  5
2E1
100
AcDbEntity
  8
0
100
AcDbLine
 62
250
  6
CONTINUOUS
 10
10.5011186535
 20
-21.3380089963
 11
10.5030519894
 21
-21.6796926689
  0
LINE
  5
2E2
100
AcDbEntity
  8
0
100
AcDbLine
 62
250
  6
CONTINUOUS
 10
10.5005350625
 20
-21.0183142309
 11
10.5011186535
 21
-21.3380089963
  0
LWPOLYLINE
  5
2E3
100
AcDbEntity
  8
0
100
AcDbPolyline
 62
250
  6
CONTINUOUS
 90
9
 70
0
 10
10.497490446
 20
16.349481053
 10
10.4952069837
 20
11.6792204116
 10
10.4936846755
 20
7.0079400855
 10
10.4929235215
 20
2.3360479917
 10
10.4929235217
 20
-2.3360479976
 10
10.4936846759
 20
-7.0079400907
 10
10.4952069841
 20
-11.6792204157
 10
10.4974904463
 20
-16.3494810554
 10
10.5005350625
 20
-21.0183142309
  0
LINE
  5
2E4
100
AcDbEntity
  8
0
100
AcDbLine
 62
250
  6
CONTINUOUS
 10
10.5017441538
 20
21.4854586496
 11
10.497490446
 21
16.349481053
  0
LINE
  5
2E5
100
AcDbEntity
  8
0
100
AcDbLine
 62
250
  6
CONTINUOUS
 10
10.5035748986
 20
21.7355556626
 11
10.5017441538
 21
21.4854586496
  0
LINE
  5
2E6
100
AcDbEntity
  8
0
100
AcDbLine
 62
250
  6
CONTINUOUS
 10
10.5047341778
 20
21.8316431047
 11
10.5035748986
 21
21.7355556626
  0
LINE
  5
2E7
100
AcDbEntity
  8
0
100
AcDbLine
 62
250
  6
CONTINUOUS
 10
2.0966613053
 20
9.2000001751
 11
2.2287904522
 21
9.2000004649
  0
LWPOLYLINE
  5
2E8
100
AcDbEntity
  8
0
100
AcDbPolyline
 62
250
  6
CONTINUOUS
 90
16
 70
0
 10
11.0087219643
 20
21.4755923698
 10
11.0059389623
 20
21.5277533032
 10
10.9977157646
 20
21.5793436708
 10
10.9841422864
 20
21.6297989097
 10
10.9653669917
 20
21.6785668706
 10
10.9415952756
 20
21.7251138478
 10
10.9130872219
 20
21.7689304222
 10
10.8801547429
 20
21.8095370623
 10
10.843158184
 20
21.8464893433
 10
10.8025023986
 20
21.8793828084
 10
10.7586322667
 20
21.9078574436
 10
10.7120278628
 20
21.9316015798
 10
10.6631992385
 20
21.9503553003
 10
10.6126807679
 20
21.9639133265
 10
10.5610252917
 20
21.9721272495
 10
10.5087981166
 20
21.974907137
  0
LINE
  5
2E9
100
AcDbEntity
  8
0
100
AcDbLine
 62
250
  6
CONTINUOUS
 10
11.002058632
 20
-21.265368307
 11
11.0029790226
 21
-21.3281894263
  0
LINE
  5
2EA
100
AcDbEntity
  8
0
100
AcDbLine
 62
250
  6
CONTINUOUS
 10
11.0010432605
 20
-21.1571917317
 11
11.002058632
 21
-21.265368307
  0
LINE
  5
2EB
100
AcDbEntity
  8
0
100
AcDbLine
 62
250
  6
CONTINUOUS
 10
11.0005202608
 20
-21.0386290777
 11
11.0010432605
 21
-21.1571917317
  0
LINE
  5
2EC
100
AcDbEntity
  8
0
100
AcDbLine
 62
7
  6
CONTINUOUS
 10
11.15
 20
-21.8997711479
 11
11.15
 21
21.8997711479
  0
LWPOLYLINE
  5
2ED
100
AcDbEntity
  8
0
100
AcDbPolyline
 62
250
  6
CONTINUOUS
 90
9
 70
0
 10
10.9974142989
 20
16.3324771154
 10
10.99513084
 20
11.6670364005
 10
10.9936085333
 20
7.0009737718
 10
10.9928473781
 20
2.3338756638
 10
10.9928473752
 20
-2.3338443579
 10
10.9936085267
 20
-7.0009455965
 10
10.9951308334
 20
-11.6670144863
 10
10.9974142946
 20
-16.3324645931
 10
11.0005202608
 20
-21.0386290777
  0
LINE
  5
2EE
100
AcDbEntity
  8
0
100
AcDbLine
 62
250
  6
CONTINUOUS
 10
11.00081144
 20
21.1184484404
 11
10.9974142989
 21
16.3324771154
  0
LINE
  5
2EF
100
AcDbEntity
  8
0
100
AcDbLine
 62
250
  6
CONTINUOUS
 10
11.0016694038
 20
21.2310600855
 11
11.00081144
 21
21.1184484404
  0
LWPOLYLINE
  5
2F0
100
AcDbEntity
  8
0
100
AcDbPolyline
 62
250
  6
CONTINUOUS
 90
3
 70
0
 10
11.0029790226
 20
21.3281894262
 10
11.0024980441
 20
21.2979562723
 10
11.0016694038
 20
21.2310600855
  0
LWPOLYLINE
  5
2F1
100
AcDbEntity
  8
0
100
AcDbPolyline
 62
250
  6
CONTINUOUS
 90
16
 70
0
 10
11.0087219643
 20
-21.4755923698
 10
11.0059388076
 20
-21.5277547588
 10
10.9977152003
 20
-21.5793463095
 10
10.9841411372
 20
-21.6298024308
 10
10.9653651658
 20
-21.6785709568
 10
10.9415927608
 20
-21.7251181902
 10
10.913084075
 20
-21.768934742
 10
10.8801510927
 20
-21.8095411066
 10
10.8431542155
 20
-21.8464929089
 10
10.8024983179
 20
-21.8793857675
 10
10.7586283172
 20
-21.90785972
 10
10.712024304
 20
-21.931603162
 10
10.6631962884
 20
-21.9503562578
 10
10.612678619
 20
-21.9639137831
 10
10.5610241352
 20
-21.9721273713
 10
10.5087981167
 20
-21.9749071372
  0
LWPOLYLINE
  5
2F2
100
AcDbEntity
  8
RACCORDO
100
AcDbPolyline
 62
250
  6
CONTINUOUS
 90
46
 70
0
 10
0.0
 20
11.7632589724
 10
0.1571031887
 20
11.7578025016
 10
0.3137050753
 20
11.7414232017
 10
0.4690431481
 20
11.7141466952
 10
0.6224590505
 20
11.6760224663
 10
0.7730849621
 20
11.627198531
 10
0.9198706473
 20
11.5679935346
 10
1.061992745
 20
11.4987688253
 10
1.1988835569
 20
11.4198307683
 10
1.3299267614
 20
11.3315430661
 10
1.4544910741
 20
11.2343330466
 10
1.5719655581
 20
11.1286793948
 10
1.6818013449
 20
11.0150727567
 10
1.7834689853
 20
10.8940519206
 10
1.876459261
 20
10.766213342
 10
1.9603093615
 20
10.6321850126
 10
2.0346094734
 20
10.492616241
 10
2.0989931945
 20
10.3481887762
 10
2.1531371748
 20
10.199623188
 10
2.1967758164
 20
10.0476546016
 10
2.2297013017
 20
9.8930148294
 10
2.2517544534
 20
9.7364456031
 10
2.2628265201
 20
9.5787002307
 10
2.2628602767
 20
9.4205582675
 10
2.2518551035
 20
9.2628093852
 10
2.2298687101
 20
9.1062331706
 10
2.1970103678
 20
8.9515828703
 10
2.1534381485
 20
8.7996005844
 10
2.0993611247
 20
8.6510198873
 10
2.0350450107
 20
8.5065738568
 10
1.9608094598
 20
8.3669786334
 10
1.8770193549
 20
8.2329148452
 10
1.7840851085
 20
8.1050339829
 10
1.682468349
 20
7.9839655461
 10
1.5726783574
 20
7.8703067613
 10
1.4552446334
 20
7.7645967866
 10
1.3307152769
 20
7.6673274956
 10
1.1997079488
 20
7.5789822543
 10
1.0628484622
 20
7.499983854
 10
0.9207320305
 20
7.4306877146
 10
0.7739276221
 20
7.3714059901
 10
0.6232554819
 20
7.322503521
 10
0.4697349611
 20
7.284297973
 10
0.3142230935
 20
7.2569474968
 10
0.1573896562
 20
7.2405156197
 10
0.0
 20
7.2350391045
  0
LWPOLYLINE
  5
2F3
100
AcDbEntity
  8
RACCORDO
100
AcDbPolyline
 62
250
  6
CONTINUOUS
 90
46
 70
0
 10
0.0
 20
12.0704555543
 10
0.1791845015
 20
12.0641530832
 10
0.3561245942
 20
12.0456286834
 10
0.5308202782
 20
12.0148823221
 10
0.7042325477
 20
11.9716305127
 10
0.8754004084
 20
11.9161566109
 10
1.0414408774
 20
11.8493108229
 10
1.2021242283
 20
11.7709457784
 10
1.3576801874
 20
11.6812086152
 10
1.505914951
 20
11.5813912988
 10
1.6467346354
 20
11.4713532707
 10
1.7802331243
 20
11.3512348036
 10
1.9044982644
 20
11.2227491373
 10
2.0194098229
 20
11.0857643696
 10
2.1250880327
 20
10.9404121208
 10
2.2199814386
 20
10.7888009748
 10
2.3039313701
 20
10.6308328385
 10
2.3770964978
 20
10.4666055826
 10
2.438401379
 20
10.2985218244
 10
2.4876681828
 20
10.126534618
 10
2.5250747401
 20
9.950690786
 10
2.5500791005
 20
9.7735337035
 10
2.5624999183
 20
9.5950341786
 10
2.5625185392
 20
9.4152213932
 10
2.5501370496
 20
9.236726392
 10
2.5251747655
 20
9.0595801248
 10
2.4878123709
 20
8.8837517392
 10
2.4385940047
 20
8.7117796771
 10
2.3773438643
 20
8.5437120497
 10
2.3042377523
 20
8.3795009229
 10
2.2203472158
 20
8.2215407519
 10
2.1255129184
 20
8.0699266897
 10
2.0198941966
 20
7.9245638053
 10
1.9050406067
 20
7.7875614855
 10
1.7808317563
 20
7.6590515199
 10
1.6473880379
 20
7.5389023466
 10
1.5066201851
 20
7.4288283584
 10
1.3584421149
 20
7.3289722024
 10
1.2029399104
 20
7.2391914306
 10
1.0422825548
 20
7.1607728035
 10
0.876245569
 20
7.0938562092
 10
0.705053432
 20
7.0383019056
 10
0.5315485646
 20
6.994977203
 10
0.3566784402
 20
6.9641712322
 10
0.1794955854
 20
6.9455949399
 10
0.0
 20
6.939248345
  0
LWPOLYLINE
  5
2F4
100
AcDbEntity
  8
0
100
AcDbPolyline
 62
7
  6
CONTINUOUS
 90
10
 70
0
 43
0.3500000006
 10
1.0714285848
 20
32.7500006104
 10
1.1428571477
 20
32.6071427765
 10
1.1428571477
 20
32.5357161255
 10
1.0000000219
 20
32.3928582916
 10
0.9285714591
 20
32.3928582916
 10
0.8571428254
 20
32.4642849426
 10
0.8571428254
 20
32.5357161255
 10
0.9285714591
 20
32.6785694275
 10
1.0000000219
 20
32.7500006104
 10
1.0714285848
 20
32.7500006104
  0
LWPOLYLINE
  5
2F5
100
AcDbEntity
  8
0
100
AcDbPolyline
 62
7
  6
CONTINUOUS
 90
3
 70
0
 43
0.3500000006
 10
17.7571430969
 20
-0.8571427917
 10
17.7571430969
 20
-2.3571432495
 10
15.4000001678
 20
-1.7142852631
  0
LINE
  5
2F6
100
AcDbEntity
  8
DRAFT
100
AcDbLine
 62
7
  6
CONTINUOUS
 10
3.0
 20
-22.4
 11
2.7812783412
 21
-22.5310194482
  0
LINE
  5
2F7
100
AcDbEntity
  8
0
100
AcDbLine
 62
250
  6
CONTINUOUS
 10
-10.5005350625
 20
21.0183142309
 11
10.5005350625
 21
21.0183142309
  0
LINE
  5
2F8
100
AcDbEntity
  8
DRAFT
100
AcDbLine
 62
7
  6
CONTINUOUS
 10
2.7812783412
 20
22.5310194482
 11
3.0
 21
22.4
  0
LINE
  5
2F9
100
AcDbEntity
  8
DRAFT
100
AcDbLine
 62
7
  6
CONTINUOUS
 10
3.0
 20
23.5
 11
2.7812783412
 21
23.4563623377
  0
LWPOLYLINE
  5
2FA
100
AcDbEntity
  8
0
100
AcDbPolyline
 62
250
  6
CONTINUOUS
 90
16
 70
0
 10
-10.5087981167
 20
21.9749071372
 10
-10.5610250031
 20
21.97212728
 10
-10.6126802316
 20
21.9639134406
 10
-10.6631985021
 20
21.9503555394
 10
-10.7120269743
 20
21.931601975
 10
-10.7586312804
 20
21.9078580123
 10
-10.8025013793
 20
21.8793835478
 10
-10.8431571925
 20
21.8464902344
 10
-10.8801538308
 20
21.8095380733
 10
-10.9130864355
 20
21.7689315022
 10
-10.941594647
 20
21.7251149336
 10
-10.9653665353
 20
21.6785678925
 10
-10.9841419991
 20
21.6297997904
 10
-10.9977156235
 20
21.5793443309
 10
-11.0059389237
 20
21.5277536674
 10
-11.0087219643
 20
21.4755923698
  0
LWPOLYLINE
  5
2FB
100
AcDbEntity
  8
0
100
AcDbPolyline
 62
250
  6
CONTINUOUS
 90
16
 70
0
 10
-10.5005350625
 20
21.0183142305
 10
-10.5522211666
 20
21.0181637394
 10
-10.6033534788
 20
21.0177896594
 10
-10.6533841411
 20
21.0171959985
 10
-10.701777099
 20
21.0163891176
 10
-10.7480138452
 20
21.015377662
 10
-10.7915989752
 20
21.0141724692
 10
-10.8320654952
 20
21.0127864523
 10
-10.868979826
 20
21.0112344618
 10
-10.9019464483
 20
21.0095331264
 10
-10.9306121405
 20
21.0077006753
 10
-10.9546697635
 20
21.0057567422
 10
-10.9738615515
 20
21.0037221554
 10
-10.9879818737
 20
21.0016187147
 10
-10.9968794376
 20
20.9994689572
 10
-11.0004589101
 20
20.9972959167
  0
LINE
  5
2FC
100
AcDbEntity
  8
0
100
AcDbLine
 62
250
  6
CONTINUOUS
 10
-10.5087981167
 20
21.9749071372
 11
10.5087981167
 21
21.9749071372
  0
LINE
  5
2FD
100
AcDbEntity
  8
DRAFT
100
AcDbLine
 62
7
  6
CONTINUOUS
 10
3.0
 20
22.4
 11
10.6503805997
 21
22.4
  0
LINE
  5
2FE
100
AcDbEntity
  8
DRAFT
100
AcDbLine
 62
7
  6
CONTINUOUS
 10
-3.0
 20
22.4
 11
-10.6503805997
 21
22.4
  0
LINE
  5
2FF
100
AcDbEntity
  8
DRAFT
100
AcDbLine
 62
7
  6
CONTINUOUS
 10
-2.7812783412
 20
22.5310194482
 11
2.7812783412
 21
22.5310194482
  0
LINE
  5
300
100
AcDbEntity
  8
DRAFT
100
AcDbLine
 62
7
  6
CONTINUOUS
 10
-3.0
 20
23.5
 11
-2.7812783412
 21
23.4563623377
  0
LWPOLYLINE
  5
301
100
AcDbEntity
  8
0
100
AcDbPolyline
 62
250
  6
CONTINUOUS
 90
15
 70
0
 10
11.0004589101
 20
-20.9972959167
 10
10.9968791436
 20
-20.9994689314
 10
10.9879813308
 20
-21.0016186628
 10
10.9738608069
 20
-21.0037220776
 10
10.9546688652
 20
-21.005756639
 10
10.9306111366
 20
-21.0077005477
 10
10.9019453861
 20
-21.009532976
 10
10.868978751
 20
-21.0112342904
 10
10.8320644502
 20
-21.0127862623
 10
10.7915979997
 20
-21.014172263
 10
10.7480129745
 20
-21.0153774425
 10
10.7017763638
 20
-21.0163888878
 10
10.6533835666
 20
-21.0171957618
 10
10.6033530845
 20
-21.0177894192
 10
10.5522209659
 20
-21.0181634993
  0
LINE
  5
302
100
AcDbEntity
  8
DRAFT
100
AcDbLine
 62
7
  6
CONTINUOUS
 10
2.7812783412
 20
23.4563623377
 11
-2.7812783412
 21
23.4563623377
  0
LINE
  5
303
100
AcDbEntity
  8
DRAFT
100
AcDbLine
 62
7
  6
CONTINUOUS
 10
-3.9733373476
 20
23.5
 11
-3.0
 21
23.5
  0
LINE
  5
304
100
AcDbEntity
  8
DRAFT
100
AcDbLine
 62
7
  6
CONTINUOUS
 10
3.0
 20
23.5
 11
3.9733373476
 21
23.5
  0
LWPOLYLINE
  5
305
100
AcDbEntity
  8
0
100
AcDbPolyline
 62
7
  6
CONTINUOUS
 90
7
 70
0
 43
0.3500000006
 10
-0.4285714127
 20
32.2500004578
 10
-1.9285714102
 20
32.2500004578
 10
-0.4285714127
 20
34.392858902
 10
-0.4285714127
 20
34.8214278717
 10
-0.8571428254
 20
35.2500013733
 10
-1.5000000329
 20
35.2500013733
 10
-1.9285714102
 20
34.6071433868
  0
LWPOLYLINE
  5
306
100
AcDbEntity
  8
0
100
AcDbPolyline
 62
7
  6
CONTINUOUS
 90
6
 70
0
 43
0.3500000006
 10
2.1428571696
 20
32.2500004578
 10
3.2142856836
 20
32.2500004578
 10
3.4285713015
 20
32.4642849426
 10
3.4285713015
 20
33.5357164307
 10
3.0000000658
 20
33.9642854004
 10
2.5714285469
 20
33.9642854004
  0
LWPOLYLINE
  5
307
100
AcDbEntity
  8
0
100
AcDbPolyline
 62
7
  6
CONTINUOUS
 90
7
 70
0
 43
0.3500000006
 10
-2.7857141647
 20
32.2500004578
 10
-4.2857143393
 20
32.2500004578
 10
-2.7857141647
 20
34.392858902
 10
-2.7857141647
 20
34.8214278717
 10
-3.2142856836
 20
35.2500013733
 10
-3.8571428204
 20
35.2500013733
 10
-4.2857143393
 20
34.6071433868
  0
LWPOLYLINE
  5
308
100
AcDbEntity
  8
0
100
AcDbPolyline
 62
250
  6
CONTINUOUS
 90
16
 70
0
 10
11.0004589101
 20
20.9972959167
 10
10.9968794369
 20
20.9994689572
 10
10.9879818724
 20
21.0016187146
 10
10.9738615497
 20
21.0037221553
 10
10.9546697613
 20
21.005756742
 10
10.9306121379
 20
21.007700675
 10
10.9019464456
 20
21.009533126
 10
10.8689798232
 20
21.0112344612
 10
10.8320654925
 20
21.0127864516
 10
10.7915989726
 20
21.0141724684
 10
10.7480138429
 20
21.0153776611
 10
10.701777097
 20
21.0163891165
 10
10.6533841395
 20
21.0171959974
 10
10.6033534777
 20
21.0177896584
 10
10.552221166
 20
21.0181637387
 10
10.5005350625
 20
21.0183142302
  0
LWPOLYLINE
  5
309
100
AcDbEntity
  8
0
100
AcDbPolyline
 62
7
  6
CONTINUOUS
 90
5
 70
0
 43
0.3500000006
 10
-43.241085434
 20
43.9642839203
 10
-42.8839431152
 20
44.178572937
 10
-42.8839431152
 20
44.8214263916
 10
-43.241085434
 20
45.2499998932
 10
-44.0982279053
 20
45.2499998932
  0
LWPOLYLINE
  5
30A
100
AcDbEntity
  8
0
100
AcDbPolyline
 62
7
  6
CONTINUOUS
 90
5
 70
0
 43
0.3500000006
 10
-36.1339433212
 20
33.9642854004
 10
-35.7768010025
 20
34.1785698853
 10
-35.7768010025
 20
34.8214278717
 10
-36.1339433212
 20
35.2500013733
 10
-36.9910857925
 20
35.2500013733
  0
LINE
  5
30B
100
AcDbEntity
  8
DRAFT
100
AcDbLine
 62
7
  6
CONTINUOUS
 10
-44.8708338854
 20
-23.1450985437
 11
-42.6625145134
 21
-23.0998904748
  0
LINE
  5
30C
100
AcDbEntity
  8
DRAFT
100
AcDbLine
 62
7
  6
CONTINUOUS
 10
-46.6625145134
 20
-23.1799085618
 11
-44.8708338854
 21
-23.1450985437
  0
LINE
  5
30D
100
AcDbEntity
  8
DRAFT
100
AcDbLine
 62
7
  6
CONTINUOUS
 10
-46.6625145134
 20
-23.5
 11
-42.6625145134
 21
-23.4301797403
  0
LINE
  5
30E
100
AcDbEntity
  8
0
100
AcDbLine
 62
7
  6
CONTINUOUS
 10
-54.7737695334
 20
-21.9749071372
 11
-46.6625145134
 21
-22.4
  0
LINE
  5
30F
100
AcDbEntity
  8
DRAFT
100
AcDbLine
 62
7
  6
CONTINUOUS
 10
-46.6625145134
 20
-22.663166622
 11
-45.3166774838
 21
-22.6510079398
  0
LINE
  5
310
100
AcDbEntity
  8
0
100
AcDbLine
 62
7
  6
CONTINUOUS
 10
-41.0625145134
 20
-22.2
 11
-40.5548408337
 21
-22.1955695989
  0
LINE
  5
311
100
AcDbEntity
  8
DRAFT
100
AcDbLine
 62
7
  6
CONTINUOUS
 10
-42.6625145134
 20
-21.2139629885
 11
-38.7962076196
 21
-21.1802222394
  0
LINE
  5
312
100
AcDbEntity
  8
DRAFT
100
AcDbLine
 62
7
  6
CONTINUOUS
 10
-45.3166774838
 20
-22.6510079398
 11
-43.9833145873
 21
-22.6398874691
  0
LINE
  5
313
100
AcDbEntity
  8
DRAFT
100
AcDbLine
 62
7
  6
CONTINUOUS
 10
-38.195945306
 20
-20.833660631
 11
-46.6625145134
 21
-20.9
  0
LINE
  5
314
100
AcDbEntity
  8
DRAFT
100
AcDbLine
 62
7
  6
CONTINUOUS
 10
-43.9833145873
 20
-22.6398874691
 11
-42.6625145134
 21
-22.6298666026
  0
LINE
  5
315
100
AcDbEntity
  8
0
100
AcDbLine
 62
250
  6
CONTINUOUS
 10
-54.7563277585
 20
-21.4755923698
 11
-46.6625145134
 21
-21.8997711479
  0
LWPOLYLINE
  5
316
100
AcDbEntity
  8
RACCORDO
100
AcDbPolyline
 62
250
  6
CONTINUOUS
 90
4
 70
0
 10
-36.9630523776
 20
-18.852873227
 10
-36.9104061111
 20
-18.849151657
 10
-36.8584358275
 20
-18.8400137029
 10
-36.8076972389
 20
-18.8255603983
  0
LWPOLYLINE
  5
317
100
AcDbEntity
  8
SUPERFICI
100
AcDbPolyline
 62
250
  6
CONTINUOUS
 90
4
 70
0
 10
-36.9630523776
 20
-18.852873227
 10
-36.9104061111
 20
-18.849151657
 10
-36.8584358275
 20
-18.8400137029
 10
-36.8076972389
 20
-18.8255603983
  0
LINE
  5
318
100
AcDbEntity
  8
0
100
AcDbLine
 62
250
  6
CONTINUOUS
 10
-55.7178693594
 20
-21.0181634993
 11
-55.7205439779
 21
-21.018313994
  0
LINE
  5
319
100
AcDbEntity
  8
0
100
AcDbLine
 62
250
  6
CONTINUOUS
 10
-55.381989276
 20
-21.0037220776
 11
-55.7178693594
 21
-21.0181634993
  0
LINE
  5
31A
100
AcDbEntity
  8
0
100
AcDbLine
 62
250
  6
CONTINUOUS
 10
-55.2297178155
 20
-20.9972959167
 11
-55.381989276
 21
-21.0037220776
  0
LWPOLYLINE
  5
31B
100
AcDbEntity
  8
RACCORDO
100
AcDbPolyline
 62
7
  6
CONTINUOUS
 90
17
 70
0
 10
-36.9628693069
 20
-18.8534839371
 10
-36.9540304238
 20
-18.8532385299
 10
-36.8998369101
 20
-18.848372728
 10
-36.8464205545
 20
-18.8377255232
 10
-36.7943970713
 20
-18.8214137486
 10
-36.7443471401
 20
-18.7996159557
 10
-36.6968316438
 20
-18.7725196585
 10
-36.6524153434
 20
-18.740445412
 10
-36.6116787822
 20
-18.7037964793
 10
-36.5751178841
 20
-18.6629680557
 10
-36.5431297476
 20
-18.6184531628
 10
-36.5161166417
 20
-18.57083483
 10
-36.4943995082
 20
-18.5206718814
 10
-36.4781706187
 20
-18.4685216374
 10
-36.4676120157
 20
-18.4149759665
 10
-36.4628433722
 20
-18.3606500513
 10
-36.4626422694
 20
-18.3532608424
  0
LWPOLYLINE
  5
31C
100
AcDbEntity
  8
SUPERFICI
100
AcDbPolyline
 62
7
  6
CONTINUOUS
 90
17
 70
0
 10
-36.9628693069
 20
-18.8534839371
 10
-36.9540304238
 20
-18.8532385299
 10
-36.8998369101
 20
-18.848372728
 10
-36.8464205545
 20
-18.8377255232
 10
-36.7943970713
 20
-18.8214137486
 10
-36.7443471401
 20
-18.7996159557
 10
-36.6968316438
 20
-18.7725196585
 10
-36.6524153434
 20
-18.740445412
 10
-36.6116787822
 20
-18.7037964793
 10
-36.5751178841
 20
-18.6629680557
 10
-36.5431297476
 20
-18.6184531628
 10
-36.5161166417
 20
-18.57083483
 10
-36.4943995082
 20
-18.5206718814
 10
-36.4781706187
 20
-18.4685216374
 10
-36.4676120157
 20
-18.4149759665
 10
-36.4628433722
 20
-18.3606500513
 10
-36.4626422694
 20
-18.3532608424
  0
LINE
  5
31D
100
AcDbEntity
  8
SUPERFICI
100
AcDbLine
 62
250
  6
CONTINUOUS
 10
-39.3945371392
 20
-18.8992058301
 11
-36.9630517842
 21
-18.8529061162
  0
LINE
  5
31E
100
AcDbEntity
  8
RACCORDO
100
AcDbLine
 62
7
  6
CONTINUOUS
 10
-39.467384678
 20
-18.9008723581
 11
-36.9628682193
 21
-18.8535424783
  0
LINE
  5
31F
100
AcDbEntity
  8
RACCORDO
100
AcDbLine
 62
7
  6
CONTINUOUS
 10
-42.0514999995
 20
-18.9482939403
 11
-39.467384678
 21
-18.9008723581
  0
LINE
  5
320
100
AcDbEntity
  8
SUPERFICI
100
AcDbLine
 62
250
  6
CONTINUOUS
 10
-41.8277090633
 20
-18.9441464721
 11
-39.3945371392
 21
-18.8992058301
  0
LINE
  5
321
100
AcDbEntity
  8
RACCORDO
100
AcDbLine
 62
7
  6
CONTINUOUS
 10
-44.2625629301
 20
-18.9877330379
 11
-42.0514999995
 21
-18.9482939403
  0
LINE
  5
322
100
AcDbEntity
  8
SUPERFICI
100
AcDbLine
 62
250
  6
CONTINUOUS
 10
-44.2625674704
 20
-18.9877284951
 11
-41.8277090633
 21
-18.9441464721
  0
LINE
  5
323
100
AcDbEntity
  8
RACCORDO
100
AcDbLine
 62
7
  6
CONTINUOUS
 10
-36.9636137862
 20
-18.8603786685
 11
-44.2625145134
 21
-18.9877814546
  0
LINE
  5
324
100
AcDbEntity
  8
SUPERFICI
100
AcDbLine
 62
7
  6
CONTINUOUS
 10
-36.9636137862
 20
-18.8603786685
 11
-44.2625145134
 21
-18.9877814546
  0
LINE
  5
325
100
AcDbEntity
  8
DRAFT
100
AcDbLine
 62
7
  6
CONTINUOUS
 10
-36.6625145134
 20
-19.1872686779
 11
-46.6625145134
 21
-19.1
  0
LWPOLYLINE
  5
326
100
AcDbEntity
  8
0
100
AcDbPolyline
 62
250
  6
CONTINUOUS
 90
19
 70
0
 10
-55.2297178155
 20
-20.9972959167
 10
-55.2262030388
 20
-21.0386290777
 10
-55.2194708969
 20
-21.0790132523
 10
-55.2095213899
 20
-21.1184484403
 10
-55.1962404068
 20
-21.1571917317
 10
-55.1797420586
 20
-21.1949860367
 10
-55.1603686776
 20
-21.2310600856
 10
-55.1380698094
 20
-21.265368307
 10
-55.1128959083
 20
-21.2979562724
 10
-55.0853406699
 20
-21.3281894263
 10
-55.0553527523
 20
-21.3560260411
 10
-55.0229834974
 20
-21.3815078444
 10
-54.9888806257
 20
-21.4041254633
 10
-54.9529943077
 20
-21.4238228917
 10
-54.915374373
 20
-21.4406561357
 10
-54.8768180298
 20
-21.4542838409
 10
-54.8375910144
 20
-21.4645922227
 10
-54.7974275906
 20
-21.4716950656
 10
-54.7563277585
 20
-21.4755923698
  0
LINE
  5
327
100
AcDbEntity
  8
RACCORDO
100
AcDbLine
 62
7
  6
CONTINUOUS
 10
-44.8466678598
 20
19.1158466537
 11
-44.9097937341
 21
19.0527207794
  0
LINE
  5
328
100
AcDbEntity
  8
SUPERFICI
100
AcDbLine
 62
7
  6
CONTINUOUS
 10
-44.8466678598
 20
19.1158466537
 11
-44.9097937341
 21
19.0527207794
  0
LINE
  5
329
100
AcDbEntity
  8
RACCORDO
100
AcDbLine
 62
7
  6
CONTINUOUS
 10
-34.3343391012
 20
-17.7567509937
 11
-34.317521691
 21
-17.7544150087
  0
LINE
  5
32A
100
AcDbEntity
  8
SUPERFICI
100
AcDbLine
 62
7
  6
CONTINUOUS
 10
-34.3343391012
 20
-17.7567509937
 11
-34.317521691
 21
-17.7544150087
  0
LWPOLYLINE
  5
32B
100
AcDbEntity
  8
RACCORDO
100
AcDbPolyline
 62
7
  6
CONTINUOUS
 90
5
 70
0
 10
-34.3900600786
 20
-17.7623603843
 10
-34.3792103218
 20
-17.7615247131
 10
-34.3653339598
 20
-17.7602697681
 10
-34.3502257461
 20
-17.7586803742
 10
-34.3343391012
 20
-17.7567509937
  0
LWPOLYLINE
  5
32C
100
AcDbEntity
  8
SUPERFICI
100
AcDbPolyline
 62
7
  6
CONTINUOUS
 90
5
 70
0
 10
-34.3900600786
 20
-17.7623603843
 10
-34.3792103218
 20
-17.7615247131
 10
-34.3653339598
 20
-17.7602697681
 10
-34.3502257461
 20
-17.7586803742
 10
-34.3343391012
 20
-17.7567509937
  0
LINE
  5
32D
100
AcDbEntity
  8
RACCORDO
100
AcDbLine
 62
7
  6
CONTINUOUS
 10
-34.3962506574
 20
-17.7627839045
 11
-34.3900600786
 21
-17.7623603843
  0
LINE
  5
32E
100
AcDbEntity
  8
SUPERFICI
100
AcDbLine
 62
7
  6
CONTINUOUS
 10
-34.3900600786
 20
-17.7623603843
 11
-34.3969494681
 21
-17.7628317127
  0
LINE
  5
32F
100
AcDbEntity
  8
SUPERFICI
100
AcDbLine
 62
7
  6
CONTINUOUS
 10
-34.4039241524
 20
-17.7632595656
 11
-34.4110407685
 21
-17.7636452724
  0
LINE
  5
330
100
AcDbEntity
  8
RACCORDO
100
AcDbLine
 62
250
  6
CONTINUOUS
 10
-46.6625145135
 20
-18.2308351883
 11
-44.9625145134
 21
-18.150052343
  0
LINE
  5
331
100
AcDbEntity
  8
RACCORDO
100
AcDbLine
 62
7
  6
CONTINUOUS
 10
-46.6625145134
 20
-18.3006924199
 11
-44.9625145134
 21
-18.2203502372
  0
LINE
  5
332
100
AcDbEntity
  8
SUPERFICI
100
AcDbLine
 62
7
  6
CONTINUOUS
 10
-34.4181980742
 20
-17.7639814788
 11
-34.4250885847
 21
-17.7642562361
  0
LWPOLYLINE
  5
333
100
AcDbEntity
  8
RACCORDO
100
AcDbPolyline
 62
7
  6
CONTINUOUS
 90
4
 70
0
 10
-34.4355019347
 20
-17.7646211116
 10
-34.4217988381
 20
-17.7641740164
 10
-34.4062833702
 20
-17.7634199933
 10
-34.3962506574
 20
-17.7627839045
  0
LWPOLYLINE
  5
334
100
AcDbEntity
  8
SUPERFICI
100
AcDbPolyline
 62
7
  6
CONTINUOUS
 90
4
 70
0
 10
-34.4355019347
 20
-17.7646211116
 10
-34.4217988381
 20
-17.7641740164
 10
-34.4062833702
 20
-17.7634199933
 10
-34.3962506574
 20
-17.7627839045
  0
LWPOLYLINE
  5
335
100
AcDbEntity
  8
RACCORDO
100
AcDbPolyline
 62
250
  6
CONTINUOUS
 90
15
 70
0
 10
-34.4388773499
 20
-16.9759532708
 10
-34.3531412283
 20
-16.9732417374
 10
-34.2682126535
 20
-16.967051056
 10
-34.184718687
 20
-16.9574269349
 10
-34.1032757979
 20
-16.9444404329
 10
-34.0244853117
 20
-16.9281874345
 10
-33.9489289706
 20
-16.9087879422
 10
-33.8771646371
 20
-16.8863851903
 10
-33.8097221758
 20
-16.8611445873
 10
-33.7470995415
 20
-16.8332524949
 10
-33.6897591018
 20
-16.8029148515
 10
-33.638124224
 20
-16.7703556522
 10
-33.5925761487
 20
-16.7358152948
 10
-33.5534511753
 20
-16.6995488044
 10
-33.5210381787
 20
-16.6618239511
  0
LWPOLYLINE
  5
336
100
AcDbEntity
  8
SUPERFICI
100
AcDbPolyline
 62
250
  6
CONTINUOUS
 90
15
 70
0
 10
-34.4388773499
 20
-16.9759532708
 10
-34.3531412283
 20
-16.9732417374
 10
-34.2682126535
 20
-16.967051056
 10
-34.184718687
 20
-16.9574269349
 10
-34.1032757979
 20
-16.9444404329
 10
-34.0244853117
 20
-16.9281874345
 10
-33.9489289706
 20
-16.9087879422
 10
-33.8771646371
 20
-16.8863851903
 10
-33.8097221758
 20
-16.8611445873
 10
-33.7470995415
 20
-16.8332524949
 10
-33.6897591018
 20
-16.8029148515
 10
-33.638124224
 20
-16.7703556522
 10
-33.5925761487
 20
-16.7358152948
 10
-33.5534511753
 20
-16.6995488044
 10
-33.5210381787
 20
-16.6618239511
  0
LINE
  5
337
100
AcDbEntity
  8
SUPERFICI
100
AcDbLine
 62
7
  6
CONTINUOUS
 10
-34.4451626783
 20
-17.7648548061
 11
-34.4317114709
 21
-17.7644751072
  0
LINE
  5
338
100
AcDbEntity
  8
RACCORDO
100
AcDbLine
 62
7
  6
CONTINUOUS
 10
-34.4451626783
 20
-17.7648548061
 11
-34.4349491334
 21
-17.7646087146
  0
LINE
  5
339
100
AcDbEntity
  8
RACCORDO
100
AcDbLine
 62
7
  6
CONTINUOUS
 10
-25.445062107
 20
-17.6076896529
 11
-34.4359075818
 21
-17.7646254444
  0
LINE
  5
33A
100
AcDbEntity
  8
SUPERFICI
100
AcDbLine
 62
7
  6
CONTINUOUS
 10
-25.445062107
 20
-17.6076896529
 11
-34.425240516
 21
-17.7644392501
  0
LINE
  5
33B
100
AcDbEntity
  8
SUPERFICI
100
AcDbLine
 62
7
  6
CONTINUOUS
 10
-34.4349491334
 20
-17.7646087146
 11
-34.4416664857
 21
-17.7647489457
  0
LINE
  5
33C
100
AcDbEntity
  8
SUPERFICI
100
AcDbLine
 62
250
  6
CONTINUOUS
 10
-34.425240516
 20
-17.7644392501
 11
-34.4349491334
 21
-17.7646087146
  0
LINE
  5
33D
100
AcDbEntity
  8
RACCORDO
100
AcDbLine
 62
7
  6
CONTINUOUS
 10
-34.445062107
 20
-17.7647852373
 11
-36.4626927215
 21
-17.8000031106
  0
LINE
  5
33E
100
AcDbEntity
  8
SUPERFICI
100
AcDbLine
 62
7
  6
CONTINUOUS
 10
-34.445062107
 20
-17.7647852373
 11
-36.4626927215
 21
-17.8000031106
  0
LINE
  5
33F
100
AcDbEntity
  8
RACCORDO
100
AcDbLine
 62
250
  6
CONTINUOUS
 10
-36.9604590369
 20
-17.0199676929
 11
-34.4388773538
 21
-16.9759521855
  0
LINE
  5
340
100
AcDbEntity
  8
SUPERFICI
100
AcDbLine
 62
250
  6
CONTINUOUS
 10
-36.9604590369
 20
-17.0199676929
 11
-34.4388773538
 21
-16.9759521855
  0
LINE
  5
341
100
AcDbEntity
  8
RACCORDO
100
AcDbLine
 62
250
  6
CONTINUOUS
 10
-44.9625145134
 20
-17.1575153665
 11
-46.6625145134
 21
-17.1673849704
  0
LINE
  5
342
100
AcDbEntity
  8
RACCORDO
100
AcDbLine
 62
250
  6
CONTINUOUS
 10
-44.9625145134
 20
-18.3
 11
-45.1590240322
 21
-18.3
  0
LINE
  5
343
100
AcDbEntity
  8
RACCORDO
100
AcDbLine
 62
7
  6
CONTINUOUS
 10
-44.9097937341
 20
-19.0527207794
 11
-44.8466678598
 21
-19.1158466537
  0
LINE
  5
344
100
AcDbEntity
  8
SUPERFICI
100
AcDbLine
 62
7
  6
CONTINUOUS
 10
-44.9097937341
 20
-19.0527207794
 11
-44.8466678598
 21
-19.1158466537
  0
LWPOLYLINE
  5
345
100
AcDbEntity
  8
0
100
AcDbPolyline
 62
250
  6
CONTINUOUS
 90
10
 70
0
 10
-55.2297178155
 20
20.9972959167
 10
-55.4041434748
 20
16.3324771154
 10
-55.5349627504
 20
11.6670364005
 10
-55.6221756423
 20
7.0009737718
 10
-55.6657821919
 20
2.3338756638
 10
-55.6657823578
 20
-2.3338443579
 10
-55.6221760156
 20
-7.0009455965
 10
-55.5349631237
 20
-11.6670144863
 10
-55.4041437237
 20
-16.3324645931
 10
-55.2297178155
 20
-20.9972959167
  0
LINE
  5
346
100
AcDbEntity
  8
RACCORDO
100
AcDbLine
 62
250
  6
CONTINUOUS
 10
-44.5930374527
 20
19.1180600527
 11
-44.7511386028
 21
18.9599589026
  0
LINE
  5
347
100
AcDbEntity
  8
SUPERFICI
100
AcDbLine
 62
250
  6
CONTINUOUS
 10
-44.5930374527
 20
19.1180600527
 11
-44.7511386028
 21
18.9599589026
  0
LINE
  5
348
100
AcDbEntity
  8
0
100
AcDbLine
 62
7
  6
CONTINUOUS
 10
-44.2993771281
 20
18.9509188399
 11
-44.2625145134
 21
18.9877814546
  0
LINE
  5
349
100
AcDbEntity
  8
SUPERFICI
100
AcDbLine
 62
7
  6
CONTINUOUS
 10
-44.2993771281
 20
18.9509188399
 11
-44.2625145134
 21
18.9877814546
  0
LWPOLYLINE
  5
34A
100
AcDbEntity
  8
RACCORDO
100
AcDbPolyline
 62
250
  6
CONTINUOUS
 90
72
 70
0
 10
-32.4799658739
 20
-16.23071277
 10
-32.4990243559
 20
-16.2314630961
 10
-32.5177443683
 20
-16.2325451104
 10
-32.5361201739
 20
-16.2339588132
 10
-32.554101755
 20
-16.2357113379
 10
-32.5717297745
 20
-16.2377955509
 10
-32.5891347434
 20
-16.2401900516
 10
-32.6063140016
 20
-16.2428945127
 10
-32.6232622075
 20
-16.2459092613
 10
-32.6401046157
 20
-16.2492138786
 10
-32.6568480777
 20
-16.2528057671
 10
-32.6734769729
 20
-16.2566875241
 10
-32.6900809995
 20
-16.2608465231
 10
-32.7066604195
 20
-16.265274647
 10
-32.7232044331
 20
-16.269980013
 10
-32.7397840532
 20
-16.2749743456
 10
-32.7563980269
 20
-16.2802581907
 10
-32.7730343026
 20
-16.2858310026
 10
-32.7897453905
 20
-16.2917028686
 10
-32.8065433617
 20
-16.2978797491
 10
-32.8233991142
 20
-16.3043556837
 10
-32.8403019619
 20
-16.311122879
 10
-32.8572499087
 20
-16.3181869107
 10
-32.8742261794
 20
-16.3255422032
 10
-32.8911980422
 20
-16.3331642353
 10
-32.9081570695
 20
-16.3410561834
 10
-32.9250923613
 20
-16.3492148711
 10
-32.9419683985
 20
-16.3576062483
 10
-32.9587704469
 20
-16.3662298852
 10
-32.9754941632
 20
-16.3750862116
 10
-32.9921203939
 20
-16.3841424668
 10
-33.008625856
 20
-16.3933920137
 10
-33.025014578
 20
-16.4028414894
 10
-33.0413072224
 20
-16.4124780441
 10
-33.0574887339
 20
-16.4223002441
 10
-33.0735510453
 20
-16.4323095231
 10
-33.0895218561
 20
-16.4424973326
 10
-33.1053869982
 20
-16.452865376
 10
-33.1211319247
 20
-16.4634119499
 10
-33.136779315
 20
-16.4741233961
 10
-33.1523167014
 20
-16.4850064836
 10
-33.1677209687
 20
-16.4960544434
 10
-33.1829946684
 20
-16.5072333111
 10
-33.1981215715
 20
-16.5185509913
 10
-33.2130764068
 20
-16.5299995794
 10
-33.227845355
 20
-16.541521397
 10
-33.2424087171
 20
-16.5531238195
 10
-33.2567400601
 20
-16.5647994715
 10
-33.2708141322
 20
-16.5764685494
 10
-33.2846239149
 20
-16.588149534
 10
-33.2981261723
 20
-16.5998239445
 10
-33.3112462605
 20
-16.6113565348
 10
-33.3239741135
 20
-16.6227553392
 10
-33.3362789039
 20
-16.6340123234
 10
-33.3480699367
 20
-16.6449681384
 10
-33.3593409516
 20
-16.6556164986
 10
-33.3700774757
 20
-16.6659636895
 10
-33.3801986655
 20
-16.6758692186
 10
-33.3896993102
 20
-16.6853133203
 10
-33.3985916266
 20
-16.6943157601
 10
-33.406841537
 20
-16.7027953424
 10
-33.4144523989
 20
-16.710730049
 10
-33.4214467033
 20
-16.7181418981
 10
-33.4278295888
 20
-16.7250157483
 10
-33.433611361
 20
-16.7313526268
 10
-33.4388133985
 20
-16.7371515064
 10
-33.4434577557
 20
-16.7423941636
 10
-33.4475558392
 20
-16.7470621903
 10
-33.4511248375
 20
-16.7511739945
 10
-33.4541887224
 20
-16.7547665769
 10
-33.4567561872
 20
-16.7578728132
 10
-33.4604512578
 20
-16.7624659933
  0
LWPOLYLINE
  5
34B
100
AcDbEntity
  8
SUPERFICI
100
AcDbPolyline
 62
250
  6
CONTINUOUS
 90
72
 70
0
 10
-32.4799658739
 20
-16.23071277
 10
-32.4990243559
 20
-16.2314630961
 10
-32.5177443683
 20
-16.2325451104
 10
-32.5361201739
 20
-16.2339588132
 10
-32.554101755
 20
-16.2357113379
 10
-32.5717297745
 20
-16.2377955509
 10
-32.5891347434
 20
-16.2401900516
 10
-32.6063140016
 20
-16.2428945127
 10
-32.6232622075
 20
-16.2459092613
 10
-32.6401046157
 20
-16.2492138786
 10
-32.6568480777
 20
-16.2528057671
 10
-32.6734769729
 20
-16.2566875241
 10
-32.6900809995
 20
-16.2608465231
 10
-32.7066604195
 20
-16.265274647
 10
-32.7232044331
 20
-16.269980013
 10
-32.7397840532
 20
-16.2749743456
 10
-32.7563980269
 20
-16.2802581907
 10
-32.7730343026
 20
-16.2858310026
 10
-32.7897453905
 20
-16.2917028686
 10
-32.8065433617
 20
-16.2978797491
 10
-32.8233991142
 20
-16.3043556837
 10
-32.8403019619
 20
-16.311122879
 10
-32.8572499087
 20
-16.3181869107
 10
-32.8742261794
 20
-16.3255422032
 10
-32.8911980422
 20
-16.3331642353
 10
-32.9081570695
 20
-16.3410561834
 10
-32.9250923613
 20
-16.3492148711
 10
-32.9419683985
 20
-16.3576062483
 10
-32.9587704469
 20
-16.3662298852
 10
-32.9754941632
 20
-16.3750862116
 10
-32.9921203939
 20
-16.3841424668
 10
-33.008625856
 20
-16.3933920137
 10
-33.025014578
 20
-16.4028414894
 10
-33.0413072224
 20
-16.4124780441
 10
-33.0574887339
 20
-16.4223002441
 10
-33.0735510453
 20
-16.4323095231
 10
-33.0895218561
 20
-16.4424973326
 10
-33.1053869982
 20
-16.452865376
 10
-33.1211319247
 20
-16.4634119499
 10
-33.136779315
 20
-16.4741233961
 10
-33.1523167014
 20
-16.4850064836
 10
-33.1677209687
 20
-16.4960544434
 10
-33.1829946684
 20
-16.5072333111
 10
-33.1981215715
 20
-16.5185509913
 10
-33.2130764068
 20
-16.5299995794
 10
-33.227845355
 20
-16.541521397
 10
-33.2424087171
 20
-16.5531238195
 10
-33.2567400601
 20
-16.5647994715
 10
-33.2708141322
 20
-16.5764685494
 10
-33.2846239149
 20
-16.588149534
 10
-33.2981261723
 20
-16.5998239445
 10
-33.3112462605
 20
-16.6113565348
 10
-33.3239741135
 20
-16.6227553392
 10
-33.3362789039
 20
-16.6340123234
 10
-33.3480699367
 20
-16.6449681384
 10
-33.3593409516
 20
-16.6556164986
 10
-33.3700774757
 20
-16.6659636895
 10
-33.3801986655
 20
-16.6758692186
 10
-33.3896993102
 20
-16.6853133203
 10
-33.3985916266
 20
-16.6943157601
 10
-33.406841537
 20
-16.7027953424
 10
-33.4144523989
 20
-16.710730049
 10
-33.4214467033
 20
-16.7181418981
 10
-33.4278295888
 20
-16.7250157483
 10
-33.433611361
 20
-16.7313526268
 10
-33.4388133985
 20
-16.7371515064
 10
-33.4434577557
 20
-16.7423941636
 10
-33.4475558392
 20
-16.7470621903
 10
-33.4511248375
 20
-16.7511739945
 10
-33.4541887224
 20
-16.7547665769
 10
-33.4567561872
 20
-16.7578728132
 10
-33.4604512578
 20
-16.7624659933
  0
LINE
  5
34C
100
AcDbEntity
  8
RACCORDO
100
AcDbLine
 62
250
  6
CONTINUOUS
 10
-34.445062107
 20
-15.3169502523
 11
-44.9625145134
 21
-15.500533067
  0
LINE
  5
34D
100
AcDbEntity
  8
SUPERFICI
100
AcDbLine
 62
250
  6
CONTINUOUS
 10
-34.445062107
 20
-15.3169502523
 11
-44.9625145134
 21
-15.500533067
  0
LINE
  5
34E
100
AcDbEntity
  8
RACCORDO
100
AcDbLine
 62
250
  6
CONTINUOUS
 10
-25.445062107
 20
-16.1079181127
 11
-32.3335059994
 21
-16.2282642278
  0
LINE
  5
34F
100
AcDbEntity
  8
SUPERFICI
100
AcDbLine
 62
250
  6
CONTINUOUS
 10
-25.445062107
 20
-16.1079181127
 11
-32.3335059994
 21
-16.2282642278
  0
LINE
  5
350
100
AcDbEntity
  8
RACCORDO
100
AcDbLine
 62
250
  6
CONTINUOUS
 10
-32.3335059994
 20
-16.2282642278
 11
-32.4799658739
 21
-16.2307128136
  0
LINE
  5
351
100
AcDbEntity
  8
SUPERFICI
100
AcDbLine
 62
250
  6
CONTINUOUS
 10
-32.3335059994
 20
-16.2282642278
 11
-32.4799658739
 21
-16.2307128136
  0
LINE
  5
352
100
AcDbEntity
  8
RACCORDO
100
AcDbLine
 62
250
  6
CONTINUOUS
 10
-44.9625145134
 20
-16.5441903035
 11
-46.6625145134
 21
-16.5543574599
  0
LINE
  5
353
100
AcDbEntity
  8
RACCORDO
100
AcDbLine
 62
250
  6
CONTINUOUS
 10
-24.4625145134
 20
-16.1079181127
 11
-25.445062107
 21
-16.1079181091
  0
LINE
  5
354
100
AcDbEntity
  8
SUPERFICI
100
AcDbLine
 62
250
  6
CONTINUOUS
 10
-24.4625145134
 20
-16.1079181127
 11
-25.445062107
 21
-16.1079181091
  0
LINE
  5
355
100
AcDbEntity
  8
RACCORDO
100
AcDbLine
 62
250
  6
CONTINUOUS
 10
-34.445062107
 20
-15.3169502523
 11
-33.4625145134
 21
-15.3169502523
  0
LINE
  5
356
100
AcDbEntity
  8
SUPERFICI
100
AcDbLine
 62
250
  6
CONTINUOUS
 10
-34.445062107
 20
-15.3169502523
 11
-33.4625145134
 21
-15.3169502523
  0
LINE
  5
357
100
AcDbEntity
  8
RACCORDO
100
AcDbLine
 62
250
  6
CONTINUOUS
 10
-44.7511386028
 20
-18.9599589026
 11
-44.5930374527
 21
-19.1180600527
  0
LINE
  5
358
100
AcDbEntity
  8
SUPERFICI
100
AcDbLine
 62
250
  6
CONTINUOUS
 10
-44.7511386028
 20
-18.9599589026
 11
-44.5930374527
 21
-19.1180600527
  0
LINE
  5
359
100
AcDbEntity
  8
RACCORDO
100
AcDbLine
 62
7
  6
CONTINUOUS
 10
-44.2625674719
 20
-18.9877284961
 11
-44.2993771281
 21
-18.9509188399
  0
LINE
  5
35A
100
AcDbEntity
  8
SUPERFICI
100
AcDbLine
 62
7
  6
CONTINUOUS
 10
-44.2625674719
 20
-18.9877284961
 11
-44.2993771281
 21
-18.9509188399
  0
LINE
  5
35B
100
AcDbEntity
  8
0
100
AcDbLine
 62
250
  6
CONTINUOUS
 10
-54.7563277585
 20
21.4755923698
 11
-54.7639803045
 21
21.6297989097
  0
LINE
  5
35C
100
AcDbEntity
  8
0
100
AcDbLine
 62
250
  6
CONTINUOUS
 10
-54.7639803045
 20
21.6297989097
 11
-54.7682328737
 21
21.7251138478
  0
LINE
  5
35D
100
AcDbEntity
  8
0
100
AcDbLine
 62
250
  6
CONTINUOUS
 10
-54.7682328737
 20
21.7251138478
 11
-54.7715848529
 21
21.8095370623
  0
LWPOLYLINE
  5
35E
100
AcDbEntity
  8
0
100
AcDbPolyline
 62
250
  6
CONTINUOUS
 90
8
 70
0
 10
-54.7715848529
 20
21.8095370623
 10
-54.77388989
 20
21.8793828084
 10
-54.7746164315
 20
21.9078574436
 10
-54.7750473333
 20
21.9316015798
 10
-54.7751778762
 20
21.9503553003
 10
-54.7750066294
 20
21.9639133265
 10
-54.7745354653
 20
21.9721272495
 10
-54.7737695379
 20
21.974907137
  0
LWPOLYLINE
  5
35F
100
AcDbEntity
  8
0
100
AcDbPolyline
 62
250
  6
CONTINUOUS
 90
7
 70
0
 10
-54.773890028
 20
-21.8793857675
 10
-54.7746165312
 20
-21.90785972
 10
-54.7750473965
 20
-21.931603162
 10
-54.7751779084
 20
-21.9503562578
 10
-54.7750066387
 20
-21.9639137831
 10
-54.7745354615
 20
-21.9721273713
 10
-54.7737695334
 20
-21.9749071372
  0
LINE
  5
360
100
AcDbEntity
  8
0
100
AcDbLine
 62
250
  6
CONTINUOUS
 10
-54.7715850581
 20
-21.8095411066
 11
-54.773890028
 21
-21.8793857675
  0
LINE
  5
361
100
AcDbEntity
  8
0
100
AcDbLine
 62
250
  6
CONTINUOUS
 10
-54.7682331085
 20
-21.7251181902
 11
-54.7715850581
 21
-21.8095411066
  0
LINE
  5
362
100
AcDbEntity
  8
0
100
AcDbLine
 62
250
  6
CONTINUOUS
 10
-54.7615731483
 20
-21.5793463095
 11
-54.7682331085
 21
-21.7251181902
  0
LINE
  5
363
100
AcDbEntity
  8
0
100
AcDbLine
 62
250
  6
CONTINUOUS
 10
-54.7563277585
 20
-21.4755923698
 11
-54.7615731483
 21
-21.5793463095
  0
LWPOLYLINE
  5
364
100
AcDbEntity
  8
RACCORDO
100
AcDbPolyline
 62
7
  6
CONTINUOUS
 90
19
 70
0
 10
-36.4626927498
 20
17.8000031111
 10
-36.4656001889
 20
17.7982777335
 10
-36.4718205409
 20
17.7928387915
 10
-36.4813632744
 20
17.7833583427
 10
-36.4943013574
 20
17.769510406
 10
-36.5105824355
 20
17.7509770428
 10
-36.5300286548
 20
17.7274584842
 10
-36.552736674
 20
17.698623299
 10
-36.5786332384
 20
17.6642339772
 10
-36.6072843481
 20
17.6242338457
 10
-36.638806235
 20
17.5784347337
 10
-36.6731036254
 20
17.526751218
 10
-36.7094205428
 20
17.4694982093
 10
-36.7478056308
 20
17.4067584273
 10
-36.7882233075
 20
17.3386003124
 10
-36.8297850015
 20
17.2655471898
 10
-36.8721948455
 20
17.1879718431
 10
-36.915752494
 20
17.1060140868
 10
-36.9604590161
 20
17.0199676925
  0
LWPOLYLINE
  5
365
100
AcDbEntity
  8
SUPERFICI
100
AcDbPolyline
 62
7
  6
CONTINUOUS
 90
19
 70
0
 10
-36.4626927498
 20
17.8000031111
 10
-36.4656001889
 20
17.7982777335
 10
-36.4718205409
 20
17.7928387915
 10
-36.4813632744
 20
17.7833583427
 10
-36.4943013574
 20
17.769510406
 10
-36.5105824355
 20
17.7509770428
 10
-36.5300286548
 20
17.7274584842
 10
-36.552736674
 20
17.698623299
 10
-36.5786332384
 20
17.6642339772
 10
-36.6072843481
 20
17.6242338457
 10
-36.638806235
 20
17.5784347337
 10
-36.6731036254
 20
17.526751218
 10
-36.7094205428
 20
17.4694982093
 10
-36.7478056308
 20
17.4067584273
 10
-36.7882233075
 20
17.3386003124
 10
-36.8297850015
 20
17.2655471898
 10
-36.8721948455
 20
17.1879718431
 10
-36.915752494
 20
17.1060140868
 10
-36.9604590161
 20
17.0199676925
  0
LINE
  5
366
100
AcDbEntity
  8
RACCORDO
100
AcDbLine
 62
7
  6
CONTINUOUS
 10
-24.4625145134
 20
-13.75
 11
-23.7572787915
 21
-13.7376900647
  0
LINE
  5
367
100
AcDbEntity
  8
SUPERFICI
100
AcDbLine
 62
7
  6
CONTINUOUS
 10
-24.4625145134
 20
-13.75
 11
-23.7572787915
 21
-13.7376900647
  0
LWPOLYLINE
  5
368
100
AcDbEntity
  8
0
100
AcDbPolyline
 62
7
  6
CONTINUOUS
 90
3
 70
0
 43
0.3500000006
 10
-38.8839418945
 20
42.5357146454
 10
-38.9553730774
 20
42.3214301605
 10
-39.0982309113
 20
42.0357144928
  0
LINE
  5
369
100
AcDbEntity
  8
0
100
AcDbLine
 62
7
  6
CONTINUOUS
 10
-33.4625145134
 20
-11.453369
 11
-33.2625145134
 21
-11.453369
  0
LINE
  5
36A
100
AcDbEntity
  8
SUPERFICI
100
AcDbLine
 62
7
  6
CONTINUOUS
 10
-33.4625145134
 20
-11.453369
 11
-33.2625145134
 21
-11.453369
  0
LINE
  5
36B
100
AcDbEntity
  8
RACCORDO
100
AcDbLine
 62
250
  6
CONTINUOUS
 10
-34.4450618328
 20
-7.7326972896
 11
-34.1079558623
 21
-7.7309998413
  0
LINE
  5
36C
100
AcDbEntity
  8
SUPERFICI
100
AcDbLine
 62
250
  6
CONTINUOUS
 10
-34.4450618328
 20
-7.7326972896
 11
-34.1079558623
 21
-7.7309998413
  0
LINE
  5
36D
100
AcDbEntity
  8
RACCORDO
100
AcDbLine
 62
250
  6
CONTINUOUS
 10
-34.1079558623
 20
-7.7309998413
 11
-33.749439619
 21
-7.7303378872
  0
LINE
  5
36E
100
AcDbEntity
  8
SUPERFICI
100
AcDbLine
 62
250
  6
CONTINUOUS
 10
-34.1079558623
 20
-7.7309998413
 11
-33.749439619
 21
-7.7303378872
  0
LWPOLYLINE
  5
36F
100
AcDbEntity
  8
RACCORDO
100
AcDbPolyline
 62
250
  6
CONTINUOUS
 90
7
 70
0
 10
-33.749439619
 20
-7.7303378872
 10
-33.5542440275
 20
-7.7307566671
 10
-33.5215547419
 20
-7.7309981362
 10
-33.4958730162
 20
-7.7313157227
 10
-33.4773901116
 20
-7.7317115715
 10
-33.4662429836
 20
-7.7321736206
 10
-33.4625143952
 20
-7.7326972631
  0
LWPOLYLINE
  5
370
100
AcDbEntity
  8
SUPERFICI
100
AcDbPolyline
 62
250
  6
CONTINUOUS
 90
7
 70
0
 10
-33.749439619
 20
-7.7303378872
 10
-33.5542440275
 20
-7.7307566671
 10
-33.5215547419
 20
-7.7309981362
 10
-33.4958730162
 20
-7.7313157227
 10
-33.4773901116
 20
-7.7317115715
 10
-33.4662429836
 20
-7.7321736206
 10
-33.4625143952
 20
-7.7326972631
  0
LINE
  5
371
100
AcDbEntity
  8
RACCORDO
100
AcDbLine
 62
7
  6
CONTINUOUS
 10
-24.4625145134
 20
-7.75
 11
-23.7572787915
 21
-7.7623099353
  0
LINE
  5
372
100
AcDbEntity
  8
SUPERFICI
100
AcDbLine
 62
7
  6
CONTINUOUS
 10
-24.4625145134
 20
-7.75
 11
-23.7572787915
 21
-7.7623099353
  0
LWPOLYLINE
  5
373
100
AcDbEntity
  8
RACCORDO
100
AcDbPolyline
 62
250
  6
CONTINUOUS
 90
3
 70
0
 10
-45.1657679914
 20
-18.2299741873
 10
-45.1614164606
 20
-18.2574368215
 10
-45.1590240322
 20
-18.3
  0
LINE
  5
374
100
AcDbEntity
  8
DRAFT
100
AcDbLine
 62
7
  6
CONTINUOUS
 10
-46.6625145134
 20
-22.4
 11
-46.6625145134
 21
-23.5
  0
LINE
  5
375
100
AcDbEntity
  8
0
100
AcDbLine
 62
7
  6
CONTINUOUS
 10
-46.6625145134
 20
-22.4
 11
-46.6625145134
 21
22.4
  0
LINE
  5
376
100
AcDbEntity
  8
DRAFT
100
AcDbLine
 62
7
  6
CONTINUOUS
 10
-46.6625145134
 20
22.4
 11
-46.6625145134
 21
23.5
  0
LWPOLYLINE
  5
377
100
AcDbEntity
  8
RACCORDO
100
AcDbPolyline
 62
250
  6
CONTINUOUS
 90
3
 70
0
 10
-45.1590240322
 20
18.3
 10
-45.1614164606
 20
18.2574368216
 10
-45.1657679931
 20
18.2299741764
  0
LINE
  5
378
100
AcDbEntity
  8
RACCORDO
100
AcDbLine
 62
7
  6
CONTINUOUS
 10
-32.479965201
 20
-6.732849538
 11
-25.445062107
 21
-6.6100548477
  0
LINE
  5
379
100
AcDbEntity
  8
SUPERFICI
100
AcDbLine
 62
7
  6
CONTINUOUS
 10
-32.479965201
 20
-6.732849538
 11
-25.445062107
 21
-6.6100548477
  0
LINE
  5
37A
100
AcDbEntity
  8
RACCORDO
100
AcDbLine
 62
250
  6
CONTINUOUS
 10
-45.1590240322
 20
19.1131207627
 11
-45.1590240322
 21
18.3
  0
LINE
  5
37B
100
AcDbEntity
  8
RACCORDO
100
AcDbLine
 62
250
  6
CONTINUOUS
 10
-45.1590240322
 20
-18.3
 11
-45.1590240322
 21
-19.1131207627
  0
LINE
  5
37C
100
AcDbEntity
  8
RACCORDO
100
AcDbLine
 62
7
  6
CONTINUOUS
 10
-44.9625145134
 20
19.1148356752
 11
-44.9625145134
 21
18.964182451
  0
LINE
  5
37D
100
AcDbEntity
  8
RACCORDO
100
AcDbLine
 62
7
  6
CONTINUOUS
 10
-44.9625145134
 20
-18.964182451
 11
-44.9625145134
 21
-19.1148356752
  0
LINE
  5
37E
100
AcDbEntity
  8
0
100
AcDbLine
 62
7
  6
CONTINUOUS
 10
-44.9625145134
 20
-18.964182451
 11
-44.9625145134
 21
-18.1775969751
  0
LINE
  5
37F
100
AcDbEntity
  8
SUPERFICI
100
AcDbLine
 62
7
  6
CONTINUOUS
 10
-44.9625145134
 20
-18.964182451
 11
-44.9625145134
 21
-18.1775969751
  0
LINE
  5
380
100
AcDbEntity
  8
RACCORDO
100
AcDbLine
 62
7
  6
CONTINUOUS
 10
-44.9625145134
 20
-18.2203195549
 11
-44.9625145134
 21
18.2203195549
  0
LINE
  5
381
100
AcDbEntity
  8
0
100
AcDbLine
 62
7
  6
CONTINUOUS
 10
-44.9625145134
 20
18.2203195549
 11
-44.9625145134
 21
18.964182451
  0
LINE
  5
382
100
AcDbEntity
  8
SUPERFICI
100
AcDbLine
 62
7
  6
CONTINUOUS
 10
-44.9625145134
 20
18.2203195549
 11
-44.9625145134
 21
18.964182451
  0
LINE
  5
383
100
AcDbEntity
  8
RACCORDO
100
AcDbLine
 62
250
  6
CONTINUOUS
 10
-41.2891830597
 20
18.935881761
 11
-41.2519153782
 21
19.1472175833
  0
LINE
  5
384
100
AcDbEntity
  8
SUPERFICI
100
AcDbLine
 62
250
  6
CONTINUOUS
 10
-41.2891830597
 20
18.935881761
 11
-41.2519153782
 21
19.1472175833
  0
LINE
  5
385
100
AcDbEntity
  8
RACCORDO
100
AcDbLine
 62
7
  6
CONTINUOUS
 10
-40.2942709935
 20
18.9185155063
 11
-40.2524066204
 21
19.1559401641
  0
LINE
  5
386
100
AcDbEntity
  8
SUPERFICI
100
AcDbLine
 62
7
  6
CONTINUOUS
 10
-40.2942709935
 20
18.9185155063
 11
-40.2524066204
 21
19.1559401641
  0
LWPOLYLINE
  5
387
100
AcDbEntity
  8
0
100
AcDbPolyline
 62
7
  6
CONTINUOUS
 90
3
 70
0
 43
0.3500000006
 10
-34.1339427109
 20
32.5357161255
 10
-34.2053716278
 20
32.3214271088
 10
-34.3482294617
 20
32.0357159729
  0
LINE
  5
388
100
AcDbEntity
  8
RACCORDO
100
AcDbLine
 62
250
  6
CONTINUOUS
 10
-32.4799669199
 20
-5.2330780252
 11
-25.445062107
 21
-5.1102833217
  0
LINE
  5
389
100
AcDbEntity
  8
SUPERFICI
100
AcDbLine
 62
250
  6
CONTINUOUS
 10
-32.4799669199
 20
-5.2330780252
 11
-25.445062107
 21
-5.1102833217
  0
LINE
  5
38A
100
AcDbEntity
  8
RACCORDO
100
AcDbLine
 62
250
  6
CONTINUOUS
 10
-24.4625145134
 20
-5.1102833217
 11
-25.445062107
 21
-5.1102833191
  0
LINE
  5
38B
100
AcDbEntity
  8
SUPERFICI
100
AcDbLine
 62
250
  6
CONTINUOUS
 10
-24.4625145134
 20
-5.1102833217
 11
-25.445062107
 21
-5.1102833191
  0
LWPOLYLINE
  5
38C
100
AcDbEntity
  8
RACCORDO
100
AcDbPolyline
 62
7
  6
CONTINUOUS
 90
16
 70
0
 10
-36.9604590369
 20
-17.0199676929
 10
-36.9066937261
 20
-17.1227060543
 10
-36.8548167341
 20
-17.2194136203
 10
-36.804825347
 20
-17.3096113042
 10
-36.7562066
 20
-17.3931250795
 10
-36.7094649554
 20
-17.4693239372
 10
-36.6661155085
 20
-17.5373299408
 10
-36.6263017659
 20
-17.5971012881
 10
-36.5898511874
 20
-17.6487268166
 10
-36.5577927788
 20
-17.6920036646
 10
-36.5303054079
 20
-17.727228682
 10
-36.5071703765
 20
-17.7549201384
 10
-36.4888152251
 20
-17.7755051135
 10
-36.4753699
 20
-17.7895064141
 10
-36.4666679141
 20
-17.7974864959
 10
-36.4626927215
 20
-17.8000031106
  0
LWPOLYLINE
  5
38D
100
AcDbEntity
  8
SUPERFICI
100
AcDbPolyline
 62
7
  6
CONTINUOUS
 90
16
 70
0
 10
-36.9604590369
 20
-17.0199676929
 10
-36.9066937261
 20
-17.1227060543
 10
-36.8548167341
 20
-17.2194136203
 10
-36.804825347
 20
-17.3096113042
 10
-36.7562066
 20
-17.3931250795
 10
-36.7094649554
 20
-17.4693239372
 10
-36.6661155085
 20
-17.5373299408
 10
-36.6263017659
 20
-17.5971012881
 10
-36.5898511874
 20
-17.6487268166
 10
-36.5577927788
 20
-17.6920036646
 10
-36.5303054079
 20
-17.727228682
 10
-36.5071703765
 20
-17.7549201384
 10
-36.4888152251
 20
-17.7755051135
 10
-36.4753699
 20
-17.7895064141
 10
-36.4666679141
 20
-17.7974864959
 10
-36.4626927215
 20
-17.8000031106
  0
LINE
  5
38E
100
AcDbEntity
  8
RACCORDO
100
AcDbLine
 62
250
  6
CONTINUOUS
 10
-41.2868774641
 20
-19.1469124738
 11
-41.3239807722
 21
-18.9364891573
  0
LINE
  5
38F
100
AcDbEntity
  8
SUPERFICI
100
AcDbLine
 62
250
  6
CONTINUOUS
 10
-41.2868774641
 20
-19.1469124738
 11
-41.3239807722
 21
-18.9364891573
  0
LINE
  5
390
100
AcDbEntity
  8
RACCORDO
100
AcDbLine
 62
7
  6
CONTINUOUS
 10
-40.2524066204
 20
-19.1559401641
 11
-40.2942709935
 21
-18.9185155063
  0
LINE
  5
391
100
AcDbEntity
  8
SUPERFICI
100
AcDbLine
 62
7
  6
CONTINUOUS
 10
-40.2524066204
 20
-19.1559401641
 11
-40.2942709935
 21
-18.9185155063
  0
LINE
  5
392
100
AcDbEntity
  8
RACCORDO
100
AcDbLine
 62
7
  6
CONTINUOUS
 10
-43.1625145134
 20
19.1305440373
 11
-43.1625145134
 21
18.9685808831
  0
LINE
  5
393
100
AcDbEntity
  8
SUPERFICI
100
AcDbLine
 62
7
  6
CONTINUOUS
 10
-43.1625145134
 20
19.1305440373
 11
-43.1625145134
 21
18.9685808831
  0
LINE
  5
394
100
AcDbEntity
  8
DRAFT
100
AcDbLine
 62
7
  6
CONTINUOUS
 10
-42.6625145134
 20
23.4301797403
 11
-42.6625145134
 21
21.2139629885
  0
LINE
  5
395
100
AcDbEntity
  8
DRAFT
100
AcDbLine
 62
7
  6
CONTINUOUS
 10
-42.6625145134
 20
-21.2139629885
 11
-42.6625145134
 21
-23.4301797403
  0
LINE
  5
396
100
AcDbEntity
  8
RACCORDO
100
AcDbLine
 62
7
  6
CONTINUOUS
 10
-24.5058915722
 20
-2.2007571494
 11
-23.7572787915
 21
-2.1876900647
  0
LINE
  5
397
100
AcDbEntity
  8
SUPERFICI
100
AcDbLine
 62
7
  6
CONTINUOUS
 10
-24.5058915722
 20
-2.2007571494
 11
-23.7572787915
 21
-2.1876900647
  0
LINE
  5
398
100
AcDbEntity
  8
RACCORDO
100
AcDbLine
 62
250
  6
CONTINUOUS
 10
-24.6580039751
 20
-1.9034579727
 11
-23.7572787915
 21
-1.8877357561
  0
LINE
  5
399
100
AcDbEntity
  8
SUPERFICI
100
AcDbLine
 62
250
  6
CONTINUOUS
 10
-24.6580039751
 20
-1.9034579727
 11
-23.7572787915
 21
-1.8877357561
  0
LINE
  5
39A
100
AcDbEntity
  8
RACCORDO
100
AcDbLine
 62
250
  6
CONTINUOUS
 10
-23.4625145134
 20
-1.8877357561
 11
-23.7572787915
 21
-1.8877357561
  0
LINE
  5
39B
100
AcDbEntity
  8
SUPERFICI
100
AcDbLine
 62
250
  6
CONTINUOUS
 10
-23.4625145134
 20
-1.8877357561
 11
-23.7572787915
 21
-1.8877357561
  0
LINE
  5
39C
100
AcDbEntity
  8
RACCORDO
100
AcDbLine
 62
250
  6
CONTINUOUS
 10
-36.9630524104
 20
-18.8528476001
 11
-36.9628693684
 21
-18.8534839383
  0
LINE
  5
39D
100
AcDbEntity
  8
SUPERFICI
100
AcDbLine
 62
250
  6
CONTINUOUS
 10
-36.9630524104
 20
-18.8528476001
 11
-36.9628693684
 21
-18.8534839383
  0
LINE
  5
39E
100
AcDbEntity
  8
0
100
AcDbLine
 62
7
  6
CONTINUOUS
 10
-41.0450567892
 20
21.1998476487
 11
-41.0625145134
 21
22.2
  0
LINE
  5
39F
100
AcDbEntity
  8
0
100
AcDbLine
 62
7
  6
CONTINUOUS
 10
-41.0450567892
 20
-21.1998476487
 11
-41.0625145134
 21
-22.2
  0
LWPOLYLINE
  5
3A0
100
AcDbEntity
  8
RACCORDO
100
AcDbPolyline
 62
7
  6
CONTINUOUS
 90
16
 70
0
 10
-24.5058915722
 20
-2.2007571494
 10
-24.5169568327
 20
-2.1991463271
 10
-24.5286869698
 20
-2.1939892783
 10
-24.54108674
 20
-2.1853921153
 10
-24.5544854944
 20
-2.1734765214
 10
-24.5685607251
 20
-2.1584344857
 10
-24.5823362938
 20
-2.1405910941
 10
-24.5957922188
 20
-2.1203228426
 10
-24.6089450165
 20
-2.0978790693
 10
-24.6208713438
 20
-2.0734463126
 10
-24.6315072775
 20
-2.047236185
 10
-24.6409113741
 20
-2.0196413301
 10
-24.6483427833
 20
-1.9911246866
 10
-24.6535500617
 20
-1.9620682025
 10
-24.6567725881
 20
-1.9327447896
 10
-24.6580039751
 20
-1.9034579727
  0
LWPOLYLINE
  5
3A1
100
AcDbEntity
  8
SUPERFICI
100
AcDbPolyline
 62
7
  6
CONTINUOUS
 90
16
 70
0
 10
-24.5058915722
 20
-2.2007571494
 10
-24.5169568327
 20
-2.1991463271
 10
-24.5286869698
 20
-2.1939892783
 10
-24.54108674
 20
-2.1853921153
 10
-24.5544854944
 20
-2.1734765214
 10
-24.5685607251
 20
-2.1584344857
 10
-24.5823362938
 20
-2.1405910941
 10
-24.5957922188
 20
-2.1203228426
 10
-24.6089450165
 20
-2.0978790693
 10
-24.6208713438
 20
-2.0734463126
 10
-24.6315072775
 20
-2.047236185
 10
-24.6409113741
 20
-2.0196413301
 10
-24.6483427833
 20
-1.9911246866
 10
-24.6535500617
 20
-1.9620682025
 10
-24.6567725881
 20
-1.9327447896
 10
-24.6580039751
 20
-1.9034579727
  0
LWPOLYLINE
  5
3A2
100
AcDbEntity
  8
0
100
AcDbPolyline
 62
7
  6
CONTINUOUS
 90
4
 70
0
 43
0.3500000006
 10
-37.8839438553
 20
44.6071419067
 10
-37.8839438553
 20
45.2499998932
 10
-36.3839433975
 20
45.2499998932
 10
-37.2410858688
 20
42.2499989777
  0
LINE
  5
3A3
100
AcDbEntity
  8
RACCORDO
100
AcDbLine
 62
250
  6
CONTINUOUS
 10
-36.9621755532
 20
18.8047454546
 11
-36.9613951058
 21
18.7061078689
  0
LINE
  5
3A4
100
AcDbEntity
  8
SUPERFICI
100
AcDbLine
 62
250
  6
CONTINUOUS
 10
-36.9621755532
 20
18.8047454546
 11
-36.9613951058
 21
18.7061078689
  0
LINE
  5
3A5
100
AcDbEntity
  8
RACCORDO
100
AcDbLine
 62
250
  6
CONTINUOUS
 10
-36.9613951058
 20
18.7061078689
 11
-36.9603130001
 21
18.3667252433
  0
LINE
  5
3A6
100
AcDbEntity
  8
SUPERFICI
100
AcDbLine
 62
250
  6
CONTINUOUS
 10
-36.9613951058
 20
18.7061078689
 11
-36.9603130001
 21
18.3667252433
  0
LINE
  5
3A7
100
AcDbEntity
  8
RACCORDO
100
AcDbLine
 62
250
  6
CONTINUOUS
 10
-36.9603130001
 20
18.3667252433
 11
-36.9599276046
 21
17.8554184815
  0
LINE
  5
3A8
100
AcDbEntity
  8
SUPERFICI
100
AcDbLine
 62
250
  6
CONTINUOUS
 10
-36.9603130001
 20
18.3667252433
 11
-36.9599276046
 21
17.8554184815
  0
LINE
  5
3A9
100
AcDbEntity
  8
DRAFT
100
AcDbLine
 62
7
  6
CONTINUOUS
 10
-36.6625145134
 20
19.9483339502
 11
-36.6625145134
 21
19.1872686779
  0
LINE
  5
3AA
100
AcDbEntity
  8
DRAFT
100
AcDbLine
 62
7
  6
CONTINUOUS
 10
-36.6625145134
 20
-19.1872686779
 11
-36.6625145134
 21
-19.9483339502
  0
LINE
  5
3AB
100
AcDbEntity
  8
RACCORDO
100
AcDbLine
 62
7
  6
CONTINUOUS
 10
-36.4625145134
 20
18.3504563439
 11
-36.4625145134
 21
17.8
  0
LINE
  5
3AC
100
AcDbEntity
  8
SUPERFICI
100
AcDbLine
 62
7
  6
CONTINUOUS
 10
-36.4625145134
 20
18.3504563439
 11
-36.4625145134
 21
17.8
  0
LINE
  5
3AD
100
AcDbEntity
  8
RACCORDO
100
AcDbLine
 62
7
  6
CONTINUOUS
 10
-36.4625145134
 20
-18.3429975431
 11
-36.4625145134
 21
-17.8
  0
LINE
  5
3AE
100
AcDbEntity
  8
SUPERFICI
100
AcDbLine
 62
7
  6
CONTINUOUS
 10
-36.4625145134
 20
-18.3429975431
 11
-36.4625145134
 21
-17.8
  0
LINE
  5
3AF
100
AcDbEntity
  8
RACCORDO
100
AcDbLine
 62
250
  6
CONTINUOUS
 10
-36.9599276046
 20
17.8554184815
 11
-36.9604590161
 21
17.0199676925
  0
LINE
  5
3B0
100
AcDbEntity
  8
SUPERFICI
100
AcDbLine
 62
250
  6
CONTINUOUS
 10
-36.9599276046
 20
17.8554184815
 11
-36.9604590161
 21
17.0199676925
  0
LINE
  5
3B1
100
AcDbEntity
  8
RACCORDO
100
AcDbLine
 62
250
  6
CONTINUOUS
 10
-36.9608432397
 20
-18.5817098351
 11
-36.9604590369
 21
-17.0199676929
  0
LINE
  5
3B2
100
AcDbEntity
  8
SUPERFICI
100
AcDbLine
 62
250
  6
CONTINUOUS
 10
-36.9608432397
 20
-18.5817098351
 11
-36.9604590369
 21
-17.0199676929
  0
LINE
  5
3B3
100
AcDbEntity
  8
RACCORDO
100
AcDbLine
 62
7
  6
CONTINUOUS
 10
-36.4626175428
 20
-18.3532444068
 11
-36.4625145134
 21
-18.3429975542
  0
LINE
  5
3B4
100
AcDbEntity
  8
SUPERFICI
100
AcDbLine
 62
7
  6
CONTINUOUS
 10
-36.4626175428
 20
-18.3532444068
 11
-36.4625145134
 21
-18.3429975542
  0
LWPOLYLINE
  5
3B5
100
AcDbEntity
  8
RACCORDO
100
AcDbPolyline
 62
250
  6
CONTINUOUS
 90
5
 70
0
 10
-36.9630517842
 20
-18.8529061162
 10
-36.9626160163
 20
-18.8346785154
 10
-36.962194977
 20
-18.8055559575
 10
-36.96179841
 20
-18.7655922145
 10
-36.9608432397
 20
-18.5817098351
  0
LWPOLYLINE
  5
3B6
100
AcDbEntity
  8
SUPERFICI
100
AcDbPolyline
 62
250
  6
CONTINUOUS
 90
5
 70
0
 10
-36.9630517842
 20
-18.8529061162
 10
-36.9626160163
 20
-18.8346785154
 10
-36.962194977
 20
-18.8055559575
 10
-36.96179841
 20
-18.7655922145
 10
-36.9608432397
 20
-18.5817098351
  0
LINE
  5
3B7
100
AcDbEntity
  8
RACCORDO
100
AcDbLine
 62
250
  6
CONTINUOUS
 10
-23.4625145134
 20
3.4877357561
 11
-23.7572787915
 21
3.4877357561
  0
LINE
  5
3B8
100
AcDbEntity
  8
SUPERFICI
100
AcDbLine
 62
250
  6
CONTINUOUS
 10
-23.4625145134
 20
3.4877357561
 11
-23.7572787915
 21
3.4877357561
  0
LINE
  5
3B9
100
AcDbEntity
  8
RACCORDO
100
AcDbLine
 62
250
  6
CONTINUOUS
 10
-23.7572787915
 20
3.4877357561
 11
-24.6580039751
 21
3.5034579727
  0
LINE
  5
3BA
100
AcDbEntity
  8
SUPERFICI
100
AcDbLine
 62
250
  6
CONTINUOUS
 10
-23.7572787915
 20
3.4877357561
 11
-24.6580039751
 21
3.5034579727
  0
LINE
  5
3BB
100
AcDbEntity
  8
RACCORDO
100
AcDbLine
 62
7
  6
CONTINUOUS
 10
-23.7572787915
 20
3.7876900647
 11
-24.5058915722
 21
3.8007571494
  0
LINE
  5
3BC
100
AcDbEntity
  8
SUPERFICI
100
AcDbLine
 62
7
  6
CONTINUOUS
 10
-23.7572787915
 20
3.7876900647
 11
-24.5058915722
 21
3.8007571494
  0
LWPOLYLINE
  5
3BD
100
AcDbEntity
  8
RACCORDO
100
AcDbPolyline
 62
250
  6
CONTINUOUS
 90
4
 70
0
 10
-36.9636137862
 20
18.8603786685
 10
-36.963118291
 20
18.8541955185
 10
-36.9626346386
 20
18.8356478778
 10
-36.9621755532
 20
18.8047454546
  0
LWPOLYLINE
  5
3BE
100
AcDbEntity
  8
SUPERFICI
100
AcDbPolyline
 62
250
  6
CONTINUOUS
 90
4
 70
0
 10
-36.9636137862
 20
18.8603786685
 10
-36.963118291
 20
18.8541955185
 10
-36.9626346386
 20
18.8356478778
 10
-36.9621755532
 20
18.8047454546
  0
LINE
  5
3BF
100
AcDbEntity
  8
RACCORDO
100
AcDbLine
 62
250
  6
CONTINUOUS
 10
-34.4441328021
 20
-15.5086396597
 11
-34.445062107
 21
-15.3169502523
  0
LINE
  5
3C0
100
AcDbEntity
  8
SUPERFICI
100
AcDbLine
 62
250
  6
CONTINUOUS
 10
-34.4441328021
 20
-15.5086396597
 11
-34.445062107
 21
-15.3169502523
  0
LINE
  5
3C1
100
AcDbEntity
  8
RACCORDO
100
AcDbLine
 62
250
  6
CONTINUOUS
 10
-34.4432582681
 20
-15.6998409466
 11
-34.4441328021
 21
-15.5086396597
  0
LINE
  5
3C2
100
AcDbEntity
  8
SUPERFICI
100
AcDbLine
 62
250
  6
CONTINUOUS
 10
-34.4432582681
 20
-15.6998409466
 11
-34.4441328021
 21
-15.5086396597
  0
LINE
  5
3C3
100
AcDbEntity
  8
RACCORDO
100
AcDbLine
 62
250
  6
CONTINUOUS
 10
-34.4427070877
 20
-15.8267549324
 11
-34.4432582681
 21
-15.6998409466
  0
LINE
  5
3C4
100
AcDbEntity
  8
SUPERFICI
100
AcDbLine
 62
250
  6
CONTINUOUS
 10
-34.4427070877
 20
-15.8267549324
 11
-34.4432582681
 21
-15.6998409466
  0
LINE
  5
3C5
100
AcDbEntity
  8
RACCORDO
100
AcDbLine
 62
250
  6
CONTINUOUS
 10
-34.4421820519
 20
-15.953013983
 11
-34.4427070877
 21
-15.8267549324
  0
LINE
  5
3C6
100
AcDbEntity
  8
SUPERFICI
100
AcDbLine
 62
250
  6
CONTINUOUS
 10
-34.4421820519
 20
-15.953013983
 11
-34.4427070877
 21
-15.8267549324
  0
LINE
  5
3C7
100
AcDbEntity
  8
RACCORDO
100
AcDbLine
 62
250
  6
CONTINUOUS
 10
-34.4416843483
 20
-16.0784430794
 11
-34.4421820519
 21
-15.953013983
  0
LINE
  5
3C8
100
AcDbEntity
  8
SUPERFICI
100
AcDbLine
 62
250
  6
CONTINUOUS
 10
-34.4416843483
 20
-16.0784430794
 11
-34.4421820519
 21
-15.953013983
  0
LINE
  5
3C9
100
AcDbEntity
  8
RACCORDO
100
AcDbLine
 62
250
  6
CONTINUOUS
 10
-34.4412144435
 20
-16.2028640571
 11
-34.4416843483
 21
-16.0784430794
  0
LINE
  5
3CA
100
AcDbEntity
  8
SUPERFICI
100
AcDbLine
 62
250
  6
CONTINUOUS
 10
-34.4412144435
 20
-16.2028640571
 11
-34.4416843483
 21
-16.0784430794
  0
LINE
  5
3CB
100
AcDbEntity
  8
RACCORDO
100
AcDbLine
 62
250
  6
CONTINUOUS
 10
-34.4405629105
 20
-16.3872765217
 11
-34.4412144435
 21
-16.2028640571
  0
LINE
  5
3CC
100
AcDbEntity
  8
SUPERFICI
100
AcDbLine
 62
250
  6
CONTINUOUS
 10
-34.4405629105
 20
-16.3872765217
 11
-34.4412144435
 21
-16.2028640571
  0
LINE
  5
3CD
100
AcDbEntity
  8
RACCORDO
100
AcDbLine
 62
250
  6
CONTINUOUS
 10
-34.4401648909
 20
-16.5085094459
 11
-34.4405629105
 21
-16.3872765217
  0
LINE
  5
3CE
100
AcDbEntity
  8
SUPERFICI
100
AcDbLine
 62
250
  6
CONTINUOUS
 10
-34.4401648909
 20
-16.5085094459
 11
-34.4405629105
 21
-16.3872765217
  0
LINE
  5
3CF
100
AcDbEntity
  8
RACCORDO
100
AcDbLine
 62
250
  6
CONTINUOUS
 10
-34.439624253
 20
-16.6873510667
 11
-34.4401648909
 21
-16.5085094459
  0
LINE
  5
3D0
100
AcDbEntity
  8
SUPERFICI
100
AcDbLine
 62
250
  6
CONTINUOUS
 10
-34.439624253
 20
-16.6873510667
 11
-34.4401648909
 21
-16.5085094459
  0
LINE
  5
3D1
100
AcDbEntity
  8
RACCORDO
100
AcDbLine
 62
250
  6
CONTINUOUS
 10
-34.4393021558
 20
-16.8043021725
 11
-34.439624253
 21
-16.6873510667
  0
LINE
  5
3D2
100
AcDbEntity
  8
SUPERFICI
100
AcDbLine
 62
250
  6
CONTINUOUS
 10
-34.4393021558
 20
-16.8043021725
 11
-34.439624253
 21
-16.6873510667
  0
LINE
  5
3D3
100
AcDbEntity
  8
RACCORDO
100
AcDbLine
 62
250
  6
CONTINUOUS
 10
-34.4378931611
 20
-17.394614563
 11
-34.4393021558
 21
-16.8043021725
  0
LINE
  5
3D4
100
AcDbEntity
  8
SUPERFICI
100
AcDbLine
 62
250
  6
CONTINUOUS
 10
-34.4378931611
 20
-17.394614563
 11
-34.4393021558
 21
-16.8043021725
  0
LWPOLYLINE
  5
3D5
100
AcDbEntity
  8
RACCORDO
100
AcDbPolyline
 62
250
  6
CONTINUOUS
 90
76
 70
0
 10
-34.445062107
 20
-15.3169502523
 10
-34.4448803254
 20
-7.6874540476
 10
-34.4442962252
 20
-7.6425729301
 10
-34.4433098847
 20
-7.5980539106
 10
-34.4419481966
 20
-7.5540396811
 10
-34.440184268
 20
-7.5103875496
 10
-34.4379374206
 20
-7.4666694402
 10
-34.4352181545
 20
-7.4228696848
 10
-34.4320159695
 20
-7.3790039514
 10
-34.4282186863
 20
-7.3346911682
 10
-34.4238468494
 20
-7.2898994362
 10
-34.4188799143
 20
-7.2446606544
 10
-34.4131440679
 20
-7.1986894474
 10
-34.4066571736
 20
-7.1519544931
 10
-34.3994013681
 20
-7.1044871137
 10
-34.3911492481
 20
-7.0560959007
 10
-34.3818778112
 20
-7.006609752
 10
-34.3716100599
 20
-6.9561997698
 10
-34.3601875987
 20
-6.9051878511
 10
-34.3475556375
 20
-6.8534560909
 10
-34.3337689664
 20
-6.8011223944
 10
-34.3188335605
 20
-6.748862374
 10
-34.3027069672
 20
-6.696701793
 10
-34.2854316391
 20
-6.6446148881
 10
-34.2671409091
 20
-6.5931999822
 10
-34.2478380222
 20
-6.5425734718
 10
-34.2275197335
 20
-6.4926189605
 10
-34.206309641
 20
-6.443585582
 10
-34.1842294906
 20
-6.3955524494
 10
-34.1612575365
 20
-6.3484404496
 10
-34.1374521398
 20
-6.3022613766
 10
-34.1128134517
 20
-6.25701673
 10
-34.087341321
 20
-6.2127050102
 10
-34.0610936547
 20
-6.1693335123
 10
-34.0340692834
 20
-6.1269008433
 10
-34.0062693766
 20
-6.0854083962
 10
-33.9777553492
 20
-6.0448676448
 10
-33.9485261492
 20
-6.0052779666
 10
-33.9185828286
 20
-5.966639984
 10
-33.8879899591
 20
-5.9289670384
 10
-33.8567553366
 20
-5.8922668955
 10
-33.8248711653
 20
-5.8565317895
 10
-33.7923786293
 20
-5.821751765
 10
-33.7592901201
 20
-5.7879333112
 10
-33.7255932462
 20
-5.7550699388
 10
-33.6912920177
 20
-5.7231322248
 10
-33.6563846065
 20
-5.6921111636
 10
-33.6208728406
 20
-5.6620157607
 10
-33.5847662137
 20
-5.6328436096
 10
-33.5480173759
 20
-5.604562263
 10
-33.5106736771
 20
-5.5772041681
 10
-33.4728866604
 20
-5.5508642605
 10
-33.4346284922
 20
-5.5255419551
 10
-33.3959270062
 20
-5.501237837
 10
-33.3570172468
 20
-5.4780485977
 10
-33.3179244364
 20
-5.4560047656
 10
-33.2786233525
 20
-5.4350758123
 10
-33.2392733716
 20
-5.4152668445
 10
-33.1999681681
 20
-5.3966160068
 10
-33.1606140676
 20
-5.3790851547
 10
-33.1210894233
 20
-5.3625649606
 10
-33.0814187885
 20
-5.3470440419
 10
-33.04157761
 20
-5.3325337812
 10
-33.0013705811
 20
-5.3189589996
 10
-32.9607769626
 20
-5.3062850881
 10
-32.9198174937
 20
-5.2945466557
 10
-32.8783590868
 20
-5.2837723495
 10
-32.8363822765
 20
-5.2739487306
 10
-32.7939065281
 20
-5.265089238
 10
-32.7508571495
 20
-5.2572628357
 10
-32.7072239967
 20
-5.2504576686
 10
-32.6630172137
 20
-5.2446855919
 10
-32.6181925405
 20
-5.2400511361
 10
-32.5727352238
 20
-5.2365891449
 10
-32.5266600169
 20
-5.2342647746
 10
-32.4799669199
 20
-5.2330780252
  0
LWPOLYLINE
  5
3D6
100
AcDbEntity
  8
SUPERFICI
100
AcDbPolyline
 62
250
  6
CONTINUOUS
 90
76
 70
0
 10
-34.445062107
 20
-15.3169502523
 10
-34.4448803254
 20
-7.6874540476
 10
-34.4442962252
 20
-7.6425729301
 10
-34.4433098847
 20
-7.5980539106
 10
-34.4419481966
 20
-7.5540396811
 10
-34.440184268
 20
-7.5103875496
 10
-34.4379374206
 20
-7.4666694402
 10
-34.4352181545
 20
-7.4228696848
 10
-34.4320159695
 20
-7.3790039514
 10
-34.4282186863
 20
-7.3346911682
 10
-34.4238468494
 20
-7.2898994362
 10
-34.4188799143
 20
-7.2446606544
 10
-34.4131440679
 20
-7.1986894474
 10
-34.4066571736
 20
-7.1519544931
 10
-34.3994013681
 20
-7.1044871137
 10
-34.3911492481
 20
-7.0560959007
 10
-34.3818778112
 20
-7.006609752
 10
-34.3716100599
 20
-6.9561997698
 10
-34.3601875987
 20
-6.9051878511
 10
-34.3475556375
 20
-6.8534560909
 10
-34.3337689664
 20
-6.8011223944
 10
-34.3188335605
 20
-6.748862374
 10
-34.3027069672
 20
-6.696701793
 10
-34.2854316391
 20
-6.6446148881
 10
-34.2671409091
 20
-6.5931999822
 10
-34.2478380222
 20
-6.5425734718
 10
-34.2275197335
 20
-6.4926189605
 10
-34.206309641
 20
-6.443585582
 10
-34.1842294906
 20
-6.3955524494
 10
-34.1612575365
 20
-6.3484404496
 10
-34.1374521398
 20
-6.3022613766
 10
-34.1128134517
 20
-6.25701673
 10
-34.087341321
 20
-6.2127050102
 10
-34.0610936547
 20
-6.1693335123
 10
-34.0340692834
 20
-6.1269008433
 10
-34.0062693766
 20
-6.0854083962
 10
-33.9777553492
 20
-6.0448676448
 10
-33.9485261492
 20
-6.0052779666
 10
-33.9185828286
 20
-5.966639984
 10
-33.8879899591
 20
-5.9289670384
 10
-33.8567553366
 20
-5.8922668955
 10
-33.8248711653
 20
-5.8565317895
 10
-33.7923786293
 20
-5.821751765
 10
-33.7592901201
 20
-5.7879333112
 10
-33.7255932462
 20
-5.7550699388
 10
-33.6912920177
 20
-5.7231322248
 10
-33.6563846065
 20
-5.6921111636
 10
-33.6208728406
 20
-5.6620157607
 10
-33.5847662137
 20
-5.6328436096
 10
-33.5480173759
 20
-5.604562263
 10
-33.5106736771
 20
-5.5772041681
 10
-33.4728866604
 20
-5.5508642605
 10
-33.4346284922
 20
-5.5255419551
 10
-33.3959270062
 20
-5.501237837
 10
-33.3570172468
 20
-5.4780485977
 10
-33.3179244364
 20
-5.4560047656
 10
-33.2786233525
 20
-5.4350758123
 10
-33.2392733716
 20
-5.4152668445
 10
-33.1999681681
 20
-5.3966160068
 10
-33.1606140676
 20
-5.3790851547
 10
-33.1210894233
 20
-5.3625649606
 10
-33.0814187885
 20
-5.3470440419
 10
-33.04157761
 20
-5.3325337812
 10
-33.0013705811
 20
-5.3189589996
 10
-32.9607769626
 20
-5.3062850881
 10
-32.9198174937
 20
-5.2945466557
 10
-32.8783590868
 20
-5.2837723495
 10
-32.8363822765
 20
-5.2739487306
 10
-32.7939065281
 20
-5.265089238
 10
-32.7508571495
 20
-5.2572628357
 10
-32.7072239967
 20
-5.2504576686
 10
-32.6630172137
 20
-5.2446855919
 10
-32.6181925405
 20
-5.2400511361
 10
-32.5727352238
 20
-5.2365891449
 10
-32.5266600169
 20
-5.2342647746
 10
-32.4799669199
 20
-5.2330780252
  0
LINE
  5
3D7
100
AcDbEntity
  8
RACCORDO
100
AcDbLine
 62
250
  6
CONTINUOUS
 10
-34.4383846427
 20
-17.5241145472
 11
-34.4378931611
 21
-17.394614563
  0
LINE
  5
3D8
100
AcDbEntity
  8
SUPERFICI
100
AcDbLine
 62
250
  6
CONTINUOUS
 10
-34.4383846427
 20
-17.5241145472
 11
-34.4378931611
 21
-17.394614563
  0
LINE
  5
3D9
100
AcDbEntity
  8
RACCORDO
100
AcDbLine
 62
250
  6
CONTINUOUS
 10
-34.4389892201
 20
-17.596224583
 11
-34.4383846427
 21
-17.5241145472
  0
LINE
  5
3DA
100
AcDbEntity
  8
SUPERFICI
100
AcDbLine
 62
250
  6
CONTINUOUS
 10
-34.4389892201
 20
-17.596224583
 11
-34.4383846427
 21
-17.5241145472
  0
LINE
  5
3DB
100
AcDbEntity
  8
RACCORDO
100
AcDbLine
 62
250
  6
CONTINUOUS
 10
-34.4395841752
 20
-17.6423313866
 11
-34.4389892201
 21
-17.596224583
  0
LINE
  5
3DC
100
AcDbEntity
  8
SUPERFICI
100
AcDbLine
 62
250
  6
CONTINUOUS
 10
-34.4395841752
 20
-17.6423313866
 11
-34.4389892201
 21
-17.596224583
  0
LINE
  5
3DD
100
AcDbEntity
  8
RACCORDO
100
AcDbLine
 62
250
  6
CONTINUOUS
 10
-34.4402970022
 20
-17.6813396223
 11
-34.4395841752
 21
-17.6423313866
  0
LINE
  5
3DE
100
AcDbEntity
  8
SUPERFICI
100
AcDbLine
 62
250
  6
CONTINUOUS
 10
-34.4402970022
 20
-17.6813396223
 11
-34.4395841752
 21
-17.6423313866
  0
LWPOLYLINE
  5
3DF
100
AcDbEntity
  8
RACCORDO
100
AcDbPolyline
 62
250
  6
CONTINUOUS
 90
3
 70
0
 10
-36.9636137862
 20
-18.8603786685
 10
-36.9633169957
 20
-18.8578070523
 10
-36.9632046079
 20
-18.8535488976
  0
LWPOLYLINE
  5
3E0
100
AcDbEntity
  8
SUPERFICI
100
AcDbPolyline
 62
250
  6
CONTINUOUS
 90
3
 70
0
 10
-36.9636137862
 20
-18.8603786685
 10
-36.9633169957
 20
-18.8578070523
 10
-36.9632046079
 20
-18.8535488976
  0
LINE
  5
3E1
100
AcDbEntity
  8
RACCORDO
100
AcDbLine
 62
250
  6
CONTINUOUS
 10
-32.4799669345
 20
-5.2330780243
 11
-32.4763647256
 21
-5.4565265888
  0
LINE
  5
3E2
100
AcDbEntity
  8
SUPERFICI
100
AcDbLine
 62
250
  6
CONTINUOUS
 10
-32.4799669345
 20
-5.2330780243
 11
-32.4763647256
 21
-5.4565265888
  0
LINE
  5
3E3
100
AcDbEntity
  8
RACCORDO
100
AcDbLine
 62
250
  6
CONTINUOUS
 10
-32.4747106413
 20
-16.5643917397
 11
-32.4799669206
 21
-16.2307128304
  0
LINE
  5
3E4
100
AcDbEntity
  8
SUPERFICI
100
AcDbLine
 62
250
  6
CONTINUOUS
 10
-32.4747106413
 20
-16.5643917397
 11
-32.4799669206
 21
-16.2307128304
  0
LINE
  5
3E5
100
AcDbEntity
  8
RACCORDO
100
AcDbLine
 62
250
  6
CONTINUOUS
 10
-32.4763647256
 20
-5.4565265888
 11
-32.47342919
 21
-5.6749364478
  0
LINE
  5
3E6
100
AcDbEntity
  8
SUPERFICI
100
AcDbLine
 62
250
  6
CONTINUOUS
 10
-32.4763647256
 20
-5.4565265888
 11
-32.47342919
 21
-5.6749364478
  0
LINE
  5
3E7
100
AcDbEntity
  8
RACCORDO
100
AcDbLine
 62
250
  6
CONTINUOUS
 10
-32.4710555003
 20
-16.8813419287
 11
-32.4747106413
 21
-16.5643917397
  0
LINE
  5
3E8
100
AcDbEntity
  8
SUPERFICI
100
AcDbLine
 62
250
  6
CONTINUOUS
 10
-32.4710555003
 20
-16.8813419287
 11
-32.4747106413
 21
-16.5643917397
  0
LINE
  5
3E9
100
AcDbEntity
  8
RACCORDO
100
AcDbLine
 62
250
  6
CONTINUOUS
 10
-32.47342919
 20
-5.6749364478
 11
-32.4712248921
 21
-5.8834479044
  0
LINE
  5
3EA
100
AcDbEntity
  8
SUPERFICI
100
AcDbLine
 62
250
  6
CONTINUOUS
 10
-32.47342919
 20
-5.6749364478
 11
-32.4712248921
 21
-5.8834479044
  0
LINE
  5
3EB
100
AcDbEntity
  8
RACCORDO
100
AcDbLine
 62
250
  6
CONTINUOUS
 10
-32.4712248921
 20
-5.8834479044
 11
-32.469798392
 21
-6.0774287559
  0
LINE
  5
3EC
100
AcDbEntity
  8
SUPERFICI
100
AcDbLine
 62
250
  6
CONTINUOUS
 10
-32.4712248921
 20
-5.8834479044
 11
-32.469798392
 21
-6.0774287559
  0
LINE
  5
3ED
100
AcDbEntity
  8
RACCORDO
100
AcDbLine
 62
250
  6
CONTINUOUS
 10
-32.4691820216
 20
-17.1656793848
 11
-32.4710555003
 21
-16.8813419287
  0
LINE
  5
3EE
100
AcDbEntity
  8
SUPERFICI
100
AcDbLine
 62
250
  6
CONTINUOUS
 10
-32.4691820216
 20
-17.1656793848
 11
-32.4710555003
 21
-16.8813419287
  0
LINE
  5
3EF
100
AcDbEntity
  8
RACCORDO
100
AcDbLine
 62
250
  6
CONTINUOUS
 10
-32.469798392
 20
-6.0774287559
 11
-32.4691810673
 21
-6.2525693266
  0
LINE
  5
3F0
100
AcDbEntity
  8
SUPERFICI
100
AcDbLine
 62
250
  6
CONTINUOUS
 10
-32.469798392
 20
-6.0774287559
 11
-32.4691810673
 21
-6.2525693266
  0
LINE
  5
3F1
100
AcDbEntity
  8
0
100
AcDbLine
 62
7
  6
CONTINUOUS
 10
-33.2625145134
 20
-7.1326972631
 11
-33.2625145134
 21
-11.453368756
  0
LINE
  5
3F2
100
AcDbEntity
  8
SUPERFICI
100
AcDbLine
 62
7
  6
CONTINUOUS
 10
-33.2625145134
 20
-7.1326972631
 11
-33.2625145134
 21
-11.453368756
  0
LINE
  5
3F3
100
AcDbEntity
  8
RACCORDO
100
AcDbLine
 62
250
  6
CONTINUOUS
 10
-32.4799669199
 20
-6.732849568
 11
-32.4799658739
 21
-16.2307128136
  0
LINE
  5
3F4
100
AcDbEntity
  8
SUPERFICI
100
AcDbLine
 62
250
  6
CONTINUOUS
 10
-32.4799669199
 20
-6.732849568
 11
-32.4799658739
 21
-16.2307128136
  0
LINE
  5
3F5
100
AcDbEntity
  8
RACCORDO
100
AcDbLine
 62
250
  6
CONTINUOUS
 10
-32.4689721083
 20
-17.3299927
 11
-32.4691820216
 21
-17.1656793848
  0
LINE
  5
3F6
100
AcDbEntity
  8
SUPERFICI
100
AcDbLine
 62
250
  6
CONTINUOUS
 10
-32.4689721083
 20
-17.3299927
 11
-32.4691820216
 21
-17.1656793848
  0
LINE
  5
3F7
100
AcDbEntity
  8
RACCORDO
100
AcDbLine
 62
7
  6
CONTINUOUS
 10
-33.4625152649
 20
-16.7661636131
 11
-33.4625145134
 21
-7.7327060702
  0
LINE
  5
3F8
100
AcDbEntity
  8
SUPERFICI
100
AcDbLine
 62
7
  6
CONTINUOUS
 10
-33.4625152649
 20
-16.7661636131
 11
-33.4625145134
 21
-7.7327060702
  0
LINE
  5
3F9
100
AcDbEntity
  8
RACCORDO
100
AcDbLine
 62
250
  6
CONTINUOUS
 10
-32.4691810673
 20
-6.2525693266
 11
-32.4693866196
 21
-6.4049757011
  0
LINE
  5
3FA
100
AcDbEntity
  8
SUPERFICI
100
AcDbLine
 62
250
  6
CONTINUOUS
 10
-32.4691810673
 20
-6.2525693266
 11
-32.4693866196
 21
-6.4049757011
  0
LWPOLYLINE
  5
3FB
100
AcDbEntity
  8
RACCORDO
100
AcDbPolyline
 62
250
  6
CONTINUOUS
 90
9
 70
0
 10
-32.4693866196
 20
-6.4049757011
 10
-32.4704110251
 20
-6.5312594847
 10
-32.4712241418
 20
-6.5837026817
 10
-32.4722323784
 20
-6.6286096402
 10
-32.4734300464
 20
-6.6657291195
 10
-32.4748104896
 20
-6.6948538436
 10
-32.4763660408
 20
-6.715820071
 10
-32.4780880495
 20
-6.7285091296
 10
-32.4799669345
 20
-6.7328487333
  0
LWPOLYLINE
  5
3FC
100
AcDbEntity
  8
SUPERFICI
100
AcDbPolyline
 62
250
  6
CONTINUOUS
 90
9
 70
0
 10
-32.4693866196
 20
-6.4049757011
 10
-32.4704110251
 20
-6.5312594847
 10
-32.4712241418
 20
-6.5837026817
 10
-32.4722323784
 20
-6.6286096402
 10
-32.4734300464
 20
-6.6657291195
 10
-32.4748104896
 20
-6.6948538436
 10
-32.4763660408
 20
-6.715820071
 10
-32.4780880495
 20
-6.7285091296
 10
-32.4799669345
 20
-6.7328487333
  0
LINE
  5
3FD
100
AcDbEntity
  8
RACCORDO
100
AcDbLine
 62
7
  6
CONTINUOUS
 10
-24.4625145134
 20
7.75
 11
-23.7572787915
 21
7.7623099353
  0
LINE
  5
3FE
100
AcDbEntity
  8
SUPERFICI
100
AcDbLine
 62
7
  6
CONTINUOUS
 10
-24.4625145134
 20
7.75
 11
-23.7572787915
 21
7.7623099353
  0
LWPOLYLINE
  5
3FF
100
AcDbEntity
  8
RACCORDO
100
AcDbPolyline
 62
250
  6
CONTINUOUS
 90
7
 70
0
 10
-44.9097937341
 20
19.0527207794
 10
-44.9089252949
 20
19.0514454732
 10
-44.9059277372
 20
19.0480479014
 10
-44.9008515486
 20
19.0425852887
 10
-44.8937822265
 20
19.0351496413
 10
-44.8848388385
 20
19.0258661965
 10
-44.861961421
 20
19.0024098427
  0
LWPOLYLINE
  5
400
100
AcDbEntity
  8
SUPERFICI
100
AcDbPolyline
 62
250
  6
CONTINUOUS
 90
7
 70
0
 10
-44.9097937341
 20
19.0527207794
 10
-44.9089252949
 20
19.0514454732
 10
-44.9059277372
 20
19.0480479014
 10
-44.9008515486
 20
19.0425852887
 10
-44.8937822265
 20
19.0351496413
 10
-44.8848388385
 20
19.0258661965
 10
-44.861961421
 20
19.0024098427
  0
LWPOLYLINE
  5
401
100
AcDbEntity
  8
RACCORDO
100
AcDbPolyline
 62
250
  6
CONTINUOUS
 90
6
 70
0
 10
-44.8847387309
 20
-19.0257627849
 10
-44.8937257978
 20
-19.035090726
 10
-44.9008249555
 20
-19.0425570488
 10
-44.9059179412
 20
-19.0480371518
 10
-44.9089234257
 20
-19.0514432141
 10
-44.9097937341
 20
-19.0527207794
  0
LWPOLYLINE
  5
402
100
AcDbEntity
  8
SUPERFICI
100
AcDbPolyline
 62
250
  6
CONTINUOUS
 90
6
 70
0
 10
-44.8847387309
 20
-19.0257627849
 10
-44.8937257978
 20
-19.035090726
 10
-44.9008249555
 20
-19.0425570488
 10
-44.9059179412
 20
-19.0480371518
 10
-44.9089234257
 20
-19.0514432141
 10
-44.9097937341
 20
-19.0527207794
  0
LINE
  5
403
100
AcDbEntity
  8
RACCORDO
100
AcDbLine
 62
250
  6
CONTINUOUS
 10
-44.8617458223
 20
-19.0021900685
 11
-44.8847387309
 21
-19.0257627849
  0
LINE
  5
404
100
AcDbEntity
  8
SUPERFICI
100
AcDbLine
 62
250
  6
CONTINUOUS
 10
-44.8617458223
 20
-19.0021900685
 11
-44.8847387309
 21
-19.0257627849
  0
LINE
  5
405
100
AcDbEntity
  8
RACCORDO
100
AcDbLine
 62
250
  6
CONTINUOUS
 10
-44.861961421
 20
19.0024098427
 11
-44.8337540902
 21
18.9737898608
  0
LINE
  5
406
100
AcDbEntity
  8
SUPERFICI
100
AcDbLine
 62
250
  6
CONTINUOUS
 10
-44.861961421
 20
19.0024098427
 11
-44.8337540902
 21
18.9737898608
  0
LWPOLYLINE
  5
407
100
AcDbEntity
  8
RACCORDO
100
AcDbPolyline
 62
250
  6
CONTINUOUS
 90
3
 70
0
 10
-44.8214348664
 20
-18.9613638726
 10
-44.8334462187
 20
-18.9734787537
 10
-44.8617458223
 20
-19.0021900685
  0
LWPOLYLINE
  5
408
100
AcDbEntity
  8
SUPERFICI
100
AcDbPolyline
 62
250
  6
CONTINUOUS
 90
3
 70
0
 10
-44.8214348664
 20
-18.9613638726
 10
-44.8334462187
 20
-18.9734787537
 10
-44.8617458223
 20
-19.0021900685
  0
LINE
  5
409
100
AcDbEntity
  8
RACCORDO
100
AcDbLine
 62
250
  6
CONTINUOUS
 10
-44.8337540902
 20
18.9737898608
 11
-44.8214351128
 21
18.9613638775
  0
LINE
  5
40A
100
AcDbEntity
  8
SUPERFICI
100
AcDbLine
 62
250
  6
CONTINUOUS
 10
-44.8337540902
 20
18.9737898608
 11
-44.8214351128
 21
18.9613638775
  0
LWPOLYLINE
  5
40B
100
AcDbEntity
  8
RACCORDO
100
AcDbPolyline
 62
7
  6
CONTINUOUS
 90
5
 70
0
 10
-24.5115579579
 20
-11.4425536261
 10
-24.4843835554
 20
-11.7795899471
 10
-24.4733050698
 20
-11.9360751847
 10
-24.4654927754
 20
-12.0858051571
 10
-24.4625145134
 20
-12.2287798644
  0
LWPOLYLINE
  5
40C
100
AcDbEntity
  8
SUPERFICI
100
AcDbPolyline
 62
7
  6
CONTINUOUS
 90
5
 70
0
 10
-24.5115579579
 20
-11.4425536261
 10
-24.4843835554
 20
-11.7795899471
 10
-24.4733050698
 20
-11.9360751847
 10
-24.4654927754
 20
-12.0858051571
 10
-24.4625145134
 20
-12.2287798644
  0
LINE
  5
40D
100
AcDbEntity
  8
RACCORDO
100
AcDbLine
 62
250
  6
CONTINUOUS
 10
-25.445062107
 20
-16.1079181127
 11
-25.4416182334
 21
-16.4415252695
  0
LINE
  5
40E
100
AcDbEntity
  8
SUPERFICI
100
AcDbLine
 62
250
  6
CONTINUOUS
 10
-25.445062107
 20
-16.1079181127
 11
-25.4416182334
 21
-16.4415252695
  0
LINE
  5
40F
100
AcDbEntity
  8
RACCORDO
100
AcDbLine
 62
250
  6
CONTINUOUS
 10
-25.445062107
 20
-5.1102833217
 11
-25.4416191397
 21
-5.4438340855
  0
LINE
  5
410
100
AcDbEntity
  8
SUPERFICI
100
AcDbLine
 62
250
  6
CONTINUOUS
 10
-25.445062107
 20
-5.1102833217
 11
-25.4416191397
 21
-5.4438340855
  0
LINE
  5
411
100
AcDbEntity
  8
RACCORDO
100
AcDbLine
 62
250
  6
CONTINUOUS
 10
-25.4393713552
 20
17.4705932736
 11
-25.438383623
 21
17.3668892229
  0
LINE
  5
412
100
AcDbEntity
  8
SUPERFICI
100
AcDbLine
 62
250
  6
CONTINUOUS
 10
-25.4393713552
 20
17.4705932736
 11
-25.438383623
 21
17.3668892229
  0
LINE
  5
413
100
AcDbEntity
  8
RACCORDO
100
AcDbLine
 62
250
  6
CONTINUOUS
 10
-25.4416182334
 20
-16.4415252695
 11
-25.439220377
 21
-16.758520537
  0
LINE
  5
414
100
AcDbEntity
  8
SUPERFICI
100
AcDbLine
 62
250
  6
CONTINUOUS
 10
-25.4416182334
 20
-16.4415252695
 11
-25.439220377
 21
-16.758520537
  0
LINE
  5
415
100
AcDbEntity
  8
RACCORDO
100
AcDbLine
 62
250
  6
CONTINUOUS
 10
-25.4416191397
 20
-5.4438340855
 11
-25.4392210771
 21
-5.7608415564
  0
LINE
  5
416
100
AcDbEntity
  8
SUPERFICI
100
AcDbLine
 62
250
  6
CONTINUOUS
 10
-25.4416191397
 20
-5.4438340855
 11
-25.4392210771
 21
-5.7608415564
  0
LINE
  5
417
100
AcDbEntity
  8
RACCORDO
100
AcDbLine
 62
250
  6
CONTINUOUS
 10
-25.439220377
 20
-16.758520537
 11
-25.4379918043
 21
-17.0429177543
  0
LINE
  5
418
100
AcDbEntity
  8
SUPERFICI
100
AcDbLine
 62
250
  6
CONTINUOUS
 10
-25.439220377
 20
-16.758520537
 11
-25.4379918043
 21
-17.0429177543
  0
LINE
  5
419
100
AcDbEntity
  8
RACCORDO
100
AcDbLine
 62
250
  6
CONTINUOUS
 10
-25.4392210771
 20
-5.7608415564
 11
-25.4379921858
 21
-6.0452425383
  0
LINE
  5
41A
100
AcDbEntity
  8
SUPERFICI
100
AcDbLine
 62
250
  6
CONTINUOUS
 10
-25.4392210771
 20
-5.7608415564
 11
-25.4379921858
 21
-6.0452425383
  0
LINE
  5
41B
100
AcDbEntity
  8
RACCORDO
100
AcDbLine
 62
250
  6
CONTINUOUS
 10
-25.438383623
 20
17.3668892229
 11
-25.4378366018
 21
17.1635048146
  0
LINE
  5
41C
100
AcDbEntity
  8
SUPERFICI
100
AcDbLine
 62
250
  6
CONTINUOUS
 10
-25.438383623
 20
17.3668892229
 11
-25.4378366018
 21
17.1635048146
  0
LINE
  5
41D
100
AcDbEntity
  8
RACCORDO
100
AcDbLine
 62
250
  6
CONTINUOUS
 10
-25.445062107
 20
-16.1079181127
 11
-25.445062107
 21
-6.6100548477
  0
LINE
  5
41E
100
AcDbEntity
  8
SUPERFICI
100
AcDbLine
 62
250
  6
CONTINUOUS
 10
-25.445062107
 20
-16.1079181127
 11
-25.445062107
 21
-6.6100548477
  0
LINE
  5
41F
100
AcDbEntity
  8
RACCORDO
100
AcDbLine
 62
250
  6
CONTINUOUS
 10
-25.445062107
 20
-5.1102833217
 11
-25.445062107
 21
15.159649807
  0
LINE
  5
420
100
AcDbEntity
  8
SUPERFICI
100
AcDbLine
 62
250
  6
CONTINUOUS
 10
-25.445062107
 20
-5.1102833217
 11
-25.445062107
 21
15.159649807
  0
LINE
  5
421
100
AcDbEntity
  8
RACCORDO
100
AcDbLine
 62
7
  6
CONTINUOUS
 10
-24.6580039751
 20
3.5034579727
 11
-24.6580039751
 21
-1.9034579727
  0
LINE
  5
422
100
AcDbEntity
  8
SUPERFICI
100
AcDbLine
 62
7
  6
CONTINUOUS
 10
-24.6580039751
 20
3.5034579727
 11
-24.6580039751
 21
-1.9034579727
  0
LINE
  5
423
100
AcDbEntity
  8
RACCORDO
100
AcDbLine
 62
7
  6
CONTINUOUS
 10
-24.4625145134
 20
16.6078419577
 11
-24.4625145134
 21
12.5372983794
  0
LINE
  5
424
100
AcDbEntity
  8
SUPERFICI
100
AcDbLine
 62
7
  6
CONTINUOUS
 10
-24.4625145134
 20
16.6078419577
 11
-24.4625145134
 21
12.5372983794
  0
LINE
  5
425
100
AcDbEntity
  8
RACCORDO
100
AcDbLine
 62
7
  6
CONTINUOUS
 10
-24.4625145134
 20
8.9627016206
 11
-24.4625145134
 21
3.8
  0
LINE
  5
426
100
AcDbEntity
  8
SUPERFICI
100
AcDbLine
 62
7
  6
CONTINUOUS
 10
-24.4625145134
 20
8.9627016206
 11
-24.4625145134
 21
3.8
  0
LINE
  5
427
100
AcDbEntity
  8
RACCORDO
100
AcDbLine
 62
7
  6
CONTINUOUS
 10
-24.4625145134
 20
-2.2
 11
-24.4625145134
 21
-9.2712104204
  0
LINE
  5
428
100
AcDbEntity
  8
SUPERFICI
100
AcDbLine
 62
7
  6
CONTINUOUS
 10
-24.4625145134
 20
-2.2
 11
-24.4625145134
 21
-9.2712104204
  0
LINE
  5
429
100
AcDbEntity
  8
RACCORDO
100
AcDbLine
 62
7
  6
CONTINUOUS
 10
-24.4625145134
 20
-12.2287895796
 11
-24.4625145134
 21
-16.6078419577
  0
LINE
  5
42A
100
AcDbEntity
  8
SUPERFICI
100
AcDbLine
 62
7
  6
CONTINUOUS
 10
-24.4625145134
 20
-12.2287895796
 11
-24.4625145134
 21
-16.6078419577
  0
LINE
  5
42B
100
AcDbEntity
  8
RACCORDO
100
AcDbLine
 62
250
  6
CONTINUOUS
 10
-25.4379921858
 20
-6.0452425383
 11
-25.4379919088
 21
-6.2827519336
  0
LINE
  5
42C
100
AcDbEntity
  8
SUPERFICI
100
AcDbLine
 62
250
  6
CONTINUOUS
 10
-25.4379921858
 20
-6.0452425383
 11
-25.4379919088
 21
-6.2827519336
  0
LINE
  5
42D
100
AcDbEntity
  8
RACCORDO
100
AcDbLine
 62
250
  6
CONTINUOUS
 10
-25.4379918043
 20
-17.0429177543
 11
-25.4379920813
 21
-17.2804189736
  0
LINE
  5
42E
100
AcDbEntity
  8
SUPERFICI
100
AcDbLine
 62
250
  6
CONTINUOUS
 10
-25.4379918043
 20
-17.0429177543
 11
-25.4379920813
 21
-17.2804189736
  0
LWPOLYLINE
  5
42F
100
AcDbEntity
  8
RACCORDO
100
AcDbPolyline
 62
250
  6
CONTINUOUS
 90
3
 70
0
 10
-25.4409897476
 20
16.1079281633
 10
-25.4441431698
 20
15.3515940251
 10
-25.4450633491
 20
15.1596498287
  0
LWPOLYLINE
  5
430
100
AcDbEntity
  8
SUPERFICI
100
AcDbPolyline
 62
250
  6
CONTINUOUS
 90
3
 70
0
 10
-25.4409897476
 20
16.1079281633
 10
-25.4441431698
 20
15.3515940251
 10
-25.4450633491
 20
15.1596498287
  0
LINE
  5
431
100
AcDbEntity
  8
RACCORDO
100
AcDbLine
 62
250
  6
CONTINUOUS
 10
-25.4378366018
 20
17.1635048146
 11
-25.4409897476
 21
16.1079281633
  0
LINE
  5
432
100
AcDbEntity
  8
SUPERFICI
100
AcDbLine
 62
250
  6
CONTINUOUS
 10
-25.4378366018
 20
17.1635048146
 11
-25.4409897476
 21
16.1079281633
  0
LWPOLYLINE
  5
433
100
AcDbEntity
  8
RACCORDO
100
AcDbPolyline
 62
250
  6
CONTINUOUS
 90
9
 70
0
 10
-25.4379919088
 20
-6.2827519336
 10
-25.4386757877
 20
-6.4090496671
 10
-25.4392204629
 20
-6.4614678629
 10
-25.4398948545
 20
-6.5063285212
 10
-25.4406942289
 20
-6.5433806875
 10
-25.4416182834
 20
-6.5724159033
 10
-25.4426613575
 20
-6.5932742664
 10
-25.4438125305
 20
-6.6058430149
 10
-25.445062107
 20
-6.6100548477
  0
LWPOLYLINE
  5
434
100
AcDbEntity
  8
SUPERFICI
100
AcDbPolyline
 62
250
  6
CONTINUOUS
 90
9
 70
0
 10
-25.4379919088
 20
-6.2827519336
 10
-25.4386757877
 20
-6.4090496671
 10
-25.4392204629
 20
-6.4614678629
 10
-25.4398948545
 20
-6.5063285212
 10
-25.4406942289
 20
-6.5433806875
 10
-25.4416182834
 20
-6.5724159033
 10
-25.4426613575
 20
-6.5932742664
 10
-25.4438125305
 20
-6.6058430149
 10
-25.445062107
 20
-6.6100548477
  0
LWPOLYLINE
  5
435
100
AcDbEntity
  8
RACCORDO
100
AcDbPolyline
 62
250
  6
CONTINUOUS
 90
9
 70
0
 10
-25.4379920813
 20
-17.2804189736
 10
-25.438676217
 20
-17.4067090683
 10
-25.4392209912
 20
-17.4591239561
 10
-25.4398954968
 20
-17.5039829179
 10
-25.4406949923
 20
-17.5410330195
 10
-25.4416190897
 20
-17.5700635919
 10
-25.4426620584
 20
-17.5909159333
 10
-25.4438129717
 20
-17.6034798215
 10
-25.445062107
 20
-17.6076896529
  0
LWPOLYLINE
  5
436
100
AcDbEntity
  8
SUPERFICI
100
AcDbPolyline
 62
250
  6
CONTINUOUS
 90
9
 70
0
 10
-25.4379920813
 20
-17.2804189736
 10
-25.438676217
 20
-17.4067090683
 10
-25.4392209912
 20
-17.4591239561
 10
-25.4398954968
 20
-17.5039829179
 10
-25.4406949923
 20
-17.5410330195
 10
-25.4416190897
 20
-17.5700635919
 10
-25.4426620584
 20
-17.5909159333
 10
-25.4438129717
 20
-17.6034798215
 10
-25.445062107
 20
-17.6076896529
  0
LWPOLYLINE
  5
437
100
AcDbEntity
  8
RACCORDO
100
AcDbPolyline
 62
7
  6
CONTINUOUS
 90
22
 70
0
 10
-24.4625145134
 20
12.5373006973
 10
-24.4669901123
 20
12.4050857946
 10
-24.4794714438
 20
12.2621156718
 10
-24.4985616363
 20
12.1083903291
 10
-24.5236258617
 20
11.941635049
 10
-24.5529773526
 20
11.7641245489
 10
-24.582436404
 20
11.5826829812
 10
-24.6093291433
 20
11.397605665
 10
-24.6324780305
 20
11.2085972812
 10
-24.6489497962
 20
11.0215960239
 10
-24.6571584605
 20
10.8399252582
 10
-24.6571634229
 20
10.660261619
 10
-24.6489609155
 20
10.4785732058
 10
-24.6324878505
 20
10.291525594
 10
-24.6093344124
 20
10.1024532082
 10
-24.5824380404
 20
9.9173274214
 10
-24.5529772439
 20
9.7358681258
 10
-24.5236247881
 20
9.5583554293
 10
-24.4985604187
 20
9.3916010291
 10
-24.4794706277
 20
9.2378754907
 10
-24.4669898358
 20
9.0949082486
 10
-24.4625145134
 20
8.9626993027
  0
LWPOLYLINE
  5
438
100
AcDbEntity
  8
SUPERFICI
100
AcDbPolyline
 62
7
  6
CONTINUOUS
 90
22
 70
0
 10
-24.4625145134
 20
12.5373006973
 10
-24.4669901123
 20
12.4050857946
 10
-24.4794714438
 20
12.2621156718
 10
-24.4985616363
 20
12.1083903291
 10
-24.5236258617
 20
11.941635049
 10
-24.5529773526
 20
11.7641245489
 10
-24.582436404
 20
11.5826829812
 10
-24.6093291433
 20
11.397605665
 10
-24.6324780305
 20
11.2085972812
 10
-24.6489497962
 20
11.0215960239
 10
-24.6571584605
 20
10.8399252582
 10
-24.6571634229
 20
10.660261619
 10
-24.6489609155
 20
10.4785732058
 10
-24.6324878505
 20
10.291525594
 10
-24.6093344124
 20
10.1024532082
 10
-24.5824380404
 20
9.9173274214
 10
-24.5529772439
 20
9.7358681258
 10
-24.5236247881
 20
9.5583554293
 10
-24.4985604187
 20
9.3916010291
 10
-24.4794706277
 20
9.2378754907
 10
-24.4669898358
 20
9.0949082486
 10
-24.4625145134
 20
8.9626993027
  0
LWPOLYLINE
  5
439
100
AcDbEntity
  8
RACCORDO
100
AcDbPolyline
 62
7
  6
CONTINUOUS
 90
16
 70
0
 10
-24.6580039751
 20
3.5034579727
 10
-24.6567725881
 20
3.5327447896
 10
-24.6535500617
 20
3.5620682025
 10
-24.6483427833
 20
3.5911246866
 10
-24.6409113741
 20
3.6196413301
 10
-24.6315072775
 20
3.647236185
 10
-24.6208713438
 20
3.6734463126
 10
-24.6089450165
 20
3.6978790693
 10
-24.5957922188
 20
3.7203228426
 10
-24.5823362938
 20
3.7405910941
 10
-24.5685607251
 20
3.7584344857
 10
-24.5544854944
 20
3.7734765214
 10
-24.54108674
 20
3.7853921153
 10
-24.5286869698
 20
3.7939892783
 10
-24.5169568327
 20
3.7991463271
 10
-24.5058915722
 20
3.8007571494
  0
LWPOLYLINE
  5
43A
100
AcDbEntity
  8
SUPERFICI
100
AcDbPolyline
 62
7
  6
CONTINUOUS
 90
16
 70
0
 10
-24.6580039751
 20
3.5034579727
 10
-24.6567725881
 20
3.5327447896
 10
-24.6535500617
 20
3.5620682025
 10
-24.6483427833
 20
3.5911246866
 10
-24.6409113741
 20
3.6196413301
 10
-24.6315072775
 20
3.647236185
 10
-24.6208713438
 20
3.6734463126
 10
-24.6089450165
 20
3.6978790693
 10
-24.5957922188
 20
3.7203228426
 10
-24.5823362938
 20
3.7405910941
 10
-24.5685607251
 20
3.7584344857
 10
-24.5544854944
 20
3.7734765214
 10
-24.54108674
 20
3.7853921153
 10
-24.5286869698
 20
3.7939892783
 10
-24.5169568327
 20
3.7991463271
 10
-24.5058915722
 20
3.8007571494
  0
LWPOLYLINE
  5
43B
100
AcDbEntity
  8
RACCORDO
100
AcDbPolyline
 62
250
  6
CONTINUOUS
 90
10
 70
0
 10
-32.4799658546
 20
-17.7305556031
 10
-32.4780510831
 20
-17.7263236754
 10
-32.4762961816
 20
-17.7137318154
 10
-32.4747109207
 20
-17.6928503565
 10
-32.4733042237
 20
-17.6637959707
 10
-32.4720838164
 20
-17.6267310099
 10
-32.4710562385
 20
-17.581862596
 10
-32.4702272722
 20
-17.5294414673
 10
-32.4696015624
 20
-17.4697606024
 10
-32.4689721083
 20
-17.3299927
  0
LWPOLYLINE
  5
43C
100
AcDbEntity
  8
SUPERFICI
100
AcDbPolyline
 62
250
  6
CONTINUOUS
 90
10
 70
0
 10
-32.4799658546
 20
-17.7305556031
 10
-32.4780510831
 20
-17.7263236754
 10
-32.4762961816
 20
-17.7137318154
 10
-32.4747109207
 20
-17.6928503565
 10
-32.4733042237
 20
-17.6637959707
 10
-32.4720838164
 20
-17.6267310099
 10
-32.4710562385
 20
-17.581862596
 10
-32.4702272722
 20
-17.5294414673
 10
-32.4696015624
 20
-17.4697606024
 10
-32.4689721083
 20
-17.3299927
  0
LWPOLYLINE
  5
43D
100
AcDbEntity
  8
RACCORDO
100
AcDbPolyline
 62
250
  6
CONTINUOUS
 90
5
 70
0
 10
-33.5210381787
 20
-16.6618239511
 10
-33.4955764767
 20
-16.6229192726
 10
-33.4772540628
 20
-16.5831220177
 10
-33.4662062183
 20
-16.5427260253
 10
-33.4625145134
 20
-16.5020295551
  0
LWPOLYLINE
  5
43E
100
AcDbEntity
  8
SUPERFICI
100
AcDbPolyline
 62
250
  6
CONTINUOUS
 90
5
 70
0
 10
-33.5210381787
 20
-16.6618239511
 10
-33.4955764767
 20
-16.6229192726
 10
-33.4772540628
 20
-16.5831220177
 10
-33.4662062183
 20
-16.5427260253
 10
-33.4625145134
 20
-16.5020295551
  0
LINE
  5
43F
100
AcDbEntity
  8
RACCORDO
100
AcDbLine
 62
250
  6
CONTINUOUS
 10
-24.4625145134
 20
15.159854668
 11
-25.445062107
 21
15.159854668
  0
LINE
  5
440
100
AcDbEntity
  8
SUPERFICI
100
AcDbLine
 62
250
  6
CONTINUOUS
 10
-24.4625145134
 20
15.159854668
 11
-25.445062107
 21
15.159854668
  0
LINE
  5
441
100
AcDbEntity
  8
RACCORDO
100
AcDbLine
 62
7
  6
CONTINUOUS
 10
-24.4625145134
 20
13.75
 11
-23.7572787915
 21
13.7376900647
  0
LINE
  5
442
100
AcDbEntity
  8
SUPERFICI
100
AcDbLine
 62
7
  6
CONTINUOUS
 10
-24.4625145134
 20
13.75
 11
-23.7572787915
 21
13.7376900647
  0
LINE
  5
443
100
AcDbEntity
  8
RACCORDO
100
AcDbLine
 62
250
  6
CONTINUOUS
 10
-25.445062107
 20
15.159649807
 11
-44.9625145134
 21
15.500533067
  0
LINE
  5
444
100
AcDbEntity
  8
SUPERFICI
100
AcDbLine
 62
250
  6
CONTINUOUS
 10
-25.445062107
 20
15.159649807
 11
-44.9625145134
 21
15.500533067
  0
LWPOLYLINE
  5
445
100
AcDbEntity
  8
RACCORDO
100
AcDbPolyline
 62
250
  6
CONTINUOUS
 90
10
 70
0
 10
-23.7572787915
 20
3.7876900647
 10
-23.7570362247
 20
3.7873475135
 10
-23.7568018259
 20
3.7863038359
 10
-23.7565768651
 20
3.7845229345
 10
-23.7563622467
 20
3.7819642943
 10
-23.756159787
 20
3.7785976773
 10
-23.755971891
 20
3.774418278
 10
-23.7557996498
 20
3.7694107828
 10
-23.7556441533
 20
3.7635625635
 10
-23.7555071873
 20
3.7569032878
  0
LWPOLYLINE
  5
446
100
AcDbEntity
  8
SUPERFICI
100
AcDbPolyline
 62
250
  6
CONTINUOUS
 90
10
 70
0
 10
-23.7572787915
 20
3.7876900647
 10
-23.7570362247
 20
3.7873475135
 10
-23.7568018259
 20
3.7863038359
 10
-23.7565768651
 20
3.7845229345
 10
-23.7563622467
 20
3.7819642943
 10
-23.756159787
 20
3.7785976773
 10
-23.755971891
 20
3.774418278
 10
-23.7557996498
 20
3.7694107828
 10
-23.7556441533
 20
3.7635625635
 10
-23.7555071873
 20
3.7569032878
  0
LWPOLYLINE
  5
447
100
AcDbEntity
  8
RACCORDO
100
AcDbPolyline
 62
250
  6
CONTINUOUS
 90
4
 70
0
 10
-24.4625145136
 20
16.3449339707
 10
-24.4678305263
 20
16.3937425154
 10
-24.4837190559
 20
16.4420321997
 10
-24.5100112228
 20
16.4892897516
  0
LWPOLYLINE
  5
448
100
AcDbEntity
  8
SUPERFICI
100
AcDbPolyline
 62
250
  6
CONTINUOUS
 90
4
 70
0
 10
-24.4625145136
 20
16.3449339707
 10
-24.4678305263
 20
16.3937425154
 10
-24.4837190559
 20
16.4420321997
 10
-24.5100112228
 20
16.4892897516
  0
LINE
  5
449
100
AcDbEntity
  8
RACCORDO
100
AcDbLine
 62
250
  6
CONTINUOUS
 10
-23.7572787915
 20
-1.8877357561
 11
-23.7560119994
 21
-1.9725781849
  0
LINE
  5
44A
100
AcDbEntity
  8
SUPERFICI
100
AcDbLine
 62
250
  6
CONTINUOUS
 10
-23.7572787915
 20
-1.8877357561
 11
-23.7560119994
 21
-1.9725781849
  0
LINE
  5
44B
100
AcDbEntity
  8
RACCORDO
100
AcDbLine
 62
250
  6
CONTINUOUS
 10
-23.7555071873
 20
3.7569032878
 11
-23.7552916477
 21
3.7411781799
  0
LINE
  5
44C
100
AcDbEntity
  8
SUPERFICI
100
AcDbLine
 62
250
  6
CONTINUOUS
 10
-23.7555071873
 20
3.7569032878
 11
-23.7552916477
 21
3.7411781799
  0
LINE
  5
44D
100
AcDbEntity
  8
RACCORDO
100
AcDbLine
 62
250
  6
CONTINUOUS
 10
-23.7560119994
 20
-1.9725781849
 11
-23.7554180479
 21
-2.0305686044
  0
LINE
  5
44E
100
AcDbEntity
  8
SUPERFICI
100
AcDbLine
 62
250
  6
CONTINUOUS
 10
-23.7560119994
 20
-1.9725781849
 11
-23.7554180479
 21
-2.0305686044
  0
LINE
  5
44F
100
AcDbEntity
  8
RACCORDO
100
AcDbLine
 62
250
  6
CONTINUOUS
 10
-23.7552916477
 20
3.7411781799
 11
-23.7551590153
 21
3.7224980562
  0
LINE
  5
450
100
AcDbEntity
  8
SUPERFICI
100
AcDbLine
 62
250
  6
CONTINUOUS
 10
-23.7552916477
 20
3.7411781799
 11
-23.7551590153
 21
3.7224980562
  0
LINE
  5
451
100
AcDbEntity
  8
RACCORDO
100
AcDbLine
 62
250
  6
CONTINUOUS
 10
-23.7554180479
 20
-2.0305686044
 11
-23.7551305233
 21
-2.083936904
  0
LINE
  5
452
100
AcDbEntity
  8
SUPERFICI
100
AcDbLine
 62
250
  6
CONTINUOUS
 10
-23.7554180479
 20
-2.0305686044
 11
-23.7551305233
 21
-2.083936904
  0
LINE
  5
453
100
AcDbEntity
  8
RACCORDO
100
AcDbLine
 62
250
  6
CONTINUOUS
 10
-23.7572787915
 20
13.7376900647
 11
-23.7572787915
 21
7.7623099353
  0
LINE
  5
454
100
AcDbEntity
  8
SUPERFICI
100
AcDbLine
 62
250
  6
CONTINUOUS
 10
-23.7572787915
 20
13.7376900647
 11
-23.7572787915
 21
7.7623099353
  0
LINE
  5
455
100
AcDbEntity
  8
RACCORDO
100
AcDbLine
 62
250
  6
CONTINUOUS
 10
-23.7572787915
 20
3.4877357561
 11
-23.7572787915
 21
-1.8877357561
  0
LINE
  5
456
100
AcDbEntity
  8
SUPERFICI
100
AcDbLine
 62
250
  6
CONTINUOUS
 10
-23.7572787915
 20
3.4877357561
 11
-23.7572787915
 21
-1.8877357561
  0
LINE
  5
457
100
AcDbEntity
  8
RACCORDO
100
AcDbLine
 62
250
  6
CONTINUOUS
 10
-23.7572787915
 20
-7.7623099353
 11
-23.7572787915
 21
-13.7376900647
  0
LINE
  5
458
100
AcDbEntity
  8
SUPERFICI
100
AcDbLine
 62
250
  6
CONTINUOUS
 10
-23.7572787915
 20
-7.7623099353
 11
-23.7572787915
 21
-13.7376900647
  0
LINE
  5
459
100
AcDbEntity
  8
RACCORDO
100
AcDbLine
 62
7
  6
CONTINUOUS
 10
-23.4625145134
 20
13.4377357561
 11
-23.4625145134
 21
8.0622642439
  0
LINE
  5
45A
100
AcDbEntity
  8
SUPERFICI
100
AcDbLine
 62
7
  6
CONTINUOUS
 10
-23.4625145134
 20
13.4377357561
 11
-23.4625145134
 21
8.0622642439
  0
LINE
  5
45B
100
AcDbEntity
  8
RACCORDO
100
AcDbLine
 62
7
  6
CONTINUOUS
 10
-23.4625145134
 20
3.4877357561
 11
-23.4625145134
 21
-1.8877357561
  0
LINE
  5
45C
100
AcDbEntity
  8
SUPERFICI
100
AcDbLine
 62
7
  6
CONTINUOUS
 10
-23.4625145134
 20
3.4877357561
 11
-23.4625145134
 21
-1.8877357561
  0
LINE
  5
45D
100
AcDbEntity
  8
RACCORDO
100
AcDbLine
 62
7
  6
CONTINUOUS
 10
-23.4625145134
 20
-8.0622642439
 11
-23.4625145134
 21
-13.4377357561
  0
LINE
  5
45E
100
AcDbEntity
  8
SUPERFICI
100
AcDbLine
 62
7
  6
CONTINUOUS
 10
-23.4625145134
 20
-8.0622642439
 11
-23.4625145134
 21
-13.4377357561
  0
LINE
  5
45F
100
AcDbEntity
  8
RACCORDO
100
AcDbLine
 62
250
  6
CONTINUOUS
 10
-23.7551590153
 20
3.7224980562
 11
-23.7551193364
 21
3.6896126869
  0
LINE
  5
460
100
AcDbEntity
  8
SUPERFICI
100
AcDbLine
 62
250
  6
CONTINUOUS
 10
-23.7551590153
 20
3.7224980562
 11
-23.7551193364
 21
3.6896126869
  0
LINE
  5
461
100
AcDbEntity
  8
RACCORDO
100
AcDbLine
 62
250
  6
CONTINUOUS
 10
-23.7551305233
 20
-2.083936904
 11
-23.7551416946
 21
-2.1181637199
  0
LINE
  5
462
100
AcDbEntity
  8
SUPERFICI
100
AcDbLine
 62
250
  6
CONTINUOUS
 10
-23.7551305233
 20
-2.083936904
 11
-23.7551416946
 21
-2.1181637199
  0
LINE
  5
463
100
AcDbEntity
  8
RACCORDO
100
AcDbLine
 62
250
  6
CONTINUOUS
 10
-23.7551193364
 20
3.6896126869
 11
-23.7553579207
 21
3.6384200781
  0
LINE
  5
464
100
AcDbEntity
  8
SUPERFICI
100
AcDbLine
 62
250
  6
CONTINUOUS
 10
-23.7551193364
 20
3.6896126869
 11
-23.7553579207
 21
3.6384200781
  0
LINE
  5
465
100
AcDbEntity
  8
RACCORDO
100
AcDbLine
 62
250
  6
CONTINUOUS
 10
-23.7551416946
 20
-2.1181637199
 11
-23.7552569096
 21
-2.1375118341
  0
LINE
  5
466
100
AcDbEntity
  8
SUPERFICI
100
AcDbLine
 62
250
  6
CONTINUOUS
 10
-23.7551416946
 20
-2.1181637199
 11
-23.7552569096
 21
-2.1375118341
  0
LINE
  5
467
100
AcDbEntity
  8
RACCORDO
100
AcDbLine
 62
250
  6
CONTINUOUS
 10
-23.7553579207
 20
3.6384200781
 11
-23.756097035
 21
3.5657952072
  0
LINE
  5
468
100
AcDbEntity
  8
SUPERFICI
100
AcDbLine
 62
250
  6
CONTINUOUS
 10
-23.7553579207
 20
3.6384200781
 11
-23.756097035
 21
3.5657952072
  0
LWPOLYLINE
  5
469
100
AcDbEntity
  8
RACCORDO
100
AcDbPolyline
 62
250
  6
CONTINUOUS
 90
11
 70
0
 10
-23.7552569096
 20
-2.1375118341
 10
-23.7554550752
 20
-2.1538571336
 10
-23.755584299
 20
-2.160871087
 10
-23.7557329708
 20
-2.1670920141
 10
-23.7559007508
 20
-2.1725131835
 10
-23.7560871068
 20
-2.1771218333
 10
-23.7562914513
 20
-2.1809072574
 10
-23.756513411
 20
-2.1838640218
 10
-23.7567524524
 20
-2.1859843138
 10
-23.7570078196
 20
-2.1872608843
 10
-23.7572787915
 20
-2.1876900647
  0
LWPOLYLINE
  5
46A
100
AcDbEntity
  8
SUPERFICI
100
AcDbPolyline
 62
250
  6
CONTINUOUS
 90
11
 70
0
 10
-23.7552569096
 20
-2.1375118341
 10
-23.7554550752
 20
-2.1538571336
 10
-23.755584299
 20
-2.160871087
 10
-23.7557329708
 20
-2.1670920141
 10
-23.7559007508
 20
-2.1725131835
 10
-23.7560871068
 20
-2.1771218333
 10
-23.7562914513
 20
-2.1809072574
 10
-23.756513411
 20
-2.1838640218
 10
-23.7567524524
 20
-2.1859843138
 10
-23.7570078196
 20
-2.1872608843
 10
-23.7572787915
 20
-2.1876900647
  0
LINE
  5
46B
100
AcDbEntity
  8
RACCORDO
100
AcDbLine
 62
250
  6
CONTINUOUS
 10
-23.756097035
 20
3.5657952072
 11
-23.7572787915
 21
3.4877357561
  0
LINE
  5
46C
100
AcDbEntity
  8
SUPERFICI
100
AcDbLine
 62
250
  6
CONTINUOUS
 10
-23.756097035
 20
3.5657952072
 11
-23.7572787915
 21
3.4877357561
  0
LWPOLYLINE
  5
46D
100
AcDbEntity
  8
RACCORDO
100
AcDbPolyline
 62
7
  6
CONTINUOUS
 90
4
 70
0
 10
-24.4625145134
 20
-9.2712201356
 10
-24.4654926057
 20
-9.4141826109
 10
-24.4733047658
 20
-9.5639129212
 10
-24.4843836345
 20
-9.7204110663
  0
LWPOLYLINE
  5
46E
100
AcDbEntity
  8
SUPERFICI
100
AcDbPolyline
 62
7
  6
CONTINUOUS
 90
4
 70
0
 10
-24.4625145134
 20
-9.2712201356
 10
-24.4654926057
 20
-9.4141826109
 10
-24.4733047658
 20
-9.5639129212
 10
-24.4843836345
 20
-9.7204110663
  0
LWPOLYLINE
  5
46F
100
AcDbEntity
  8
RACCORDO
100
AcDbPolyline
 62
7
  6
CONTINUOUS
 90
10
 70
0
 10
-24.4843836345
 20
-9.7204110663
 10
-24.5115632207
 20
-10.0575187011
 10
-24.5241194982
 20
-10.2305125113
 10
-24.5337818142
 20
-10.4030150248
 10
-24.5400271777
 20
-10.5765736136
 10
-24.5422019366
 20
-10.7501186342
 10
-24.5400237686
 20
-10.9236407459
 10
-24.5337752659
 20
-11.0971492894
 10
-24.5241119956
 20
-11.2696026434
 10
-24.5115579579
 20
-11.4425536261
  0
LWPOLYLINE
  5
470
100
AcDbEntity
  8
SUPERFICI
100
AcDbPolyline
 62
7
  6
CONTINUOUS
 90
10
 70
0
 10
-24.4843836345
 20
-9.7204110663
 10
-24.5115632207
 20
-10.0575187011
 10
-24.5241194982
 20
-10.2305125113
 10
-24.5337818142
 20
-10.4030150248
 10
-24.5400271777
 20
-10.5765736136
 10
-24.5422019366
 20
-10.7501186342
 10
-24.5400237686
 20
-10.9236407459
 10
-24.5337752659
 20
-11.0971492894
 10
-24.5241119956
 20
-11.2696026434
 10
-24.5115579579
 20
-11.4425536261
  0
LWPOLYLINE
  5
471
100
AcDbEntity
  8
RACCORDO
100
AcDbPolyline
 62
250
  6
CONTINUOUS
 90
4
 70
0
 10
-33.4604512578
 20
-16.7624659933
 10
-33.4616004004
 20
-16.7638707682
 10
-33.4622867667
 20
-16.7646946944
 10
-33.4625145134
 20
-16.764937772
  0
LWPOLYLINE
  5
472
100
AcDbEntity
  8
SUPERFICI
100
AcDbPolyline
 62
250
  6
CONTINUOUS
 90
4
 70
0
 10
-33.4604512578
 20
-16.7624659933
 10
-33.4616004004
 20
-16.7638707682
 10
-33.4622867667
 20
-16.7646946944
 10
-33.4625145134
 20
-16.764937772
  0
LWPOLYLINE
  5
473
100
AcDbEntity
  8
RACCORDO
100
AcDbPolyline
 62
250
  6
CONTINUOUS
 90
14
 70
0
 10
-34.445062107
 20
-17.7647852373
 10
-34.4446500805
 20
-17.7643490452
 10
-34.444247975
 20
-17.7630549855
 10
-34.4438561433
 20
-17.7609033715
 10
-34.4434750127
 20
-17.7578947821
 10
-34.4431048377
 20
-17.7540306265
 10
-34.442745688
 20
-17.7493137102
 10
-34.4423978666
 20
-17.7437470288
 10
-34.4420616734
 20
-17.7373337036
 10
-34.4417371448
 20
-17.7300782034
 10
-34.4414245605
 20
-17.7219854579
 10
-34.4411241725
 20
-17.7130600481
 10
-34.4408359588
 20
-17.7033067023
 10
-34.4402970022
 20
-17.6813396223
  0
LWPOLYLINE
  5
474
100
AcDbEntity
  8
SUPERFICI
100
AcDbPolyline
 62
250
  6
CONTINUOUS
 90
14
 70
0
 10
-34.445062107
 20
-17.7647852373
 10
-34.4446500805
 20
-17.7643490452
 10
-34.444247975
 20
-17.7630549855
 10
-34.4438561433
 20
-17.7609033715
 10
-34.4434750127
 20
-17.7578947821
 10
-34.4431048377
 20
-17.7540306265
 10
-34.442745688
 20
-17.7493137102
 10
-34.4423978666
 20
-17.7437470288
 10
-34.4420616734
 20
-17.7373337036
 10
-34.4417371448
 20
-17.7300782034
 10
-34.4414245605
 20
-17.7219854579
 10
-34.4411241725
 20
-17.7130600481
 10
-34.4408359588
 20
-17.7033067023
 10
-34.4402970022
 20
-17.6813396223
  0
LINE
  5
475
100
AcDbEntity
  8
RACCORDO
100
AcDbLine
 62
250
  6
CONTINUOUS
 10
-46.6625145134
 20
17.1673849704
 11
-44.9625145134
 21
17.1575153665
  0
LINE
  5
476
100
AcDbEntity
  8
RACCORDO
100
AcDbLine
 62
250
  6
CONTINUOUS
 10
-46.6625145134
 20
16.5543574599
 11
-44.9625145134
 21
16.5441903035
  0
LINE
  5
477
100
AcDbEntity
  8
RACCORDO
100
AcDbLine
 62
250
  6
CONTINUOUS
 10
-25.4388774972
 20
16.8188341385
 11
-36.9604590161
 21
17.0199676925
  0
LINE
  5
478
100
AcDbEntity
  8
SUPERFICI
100
AcDbLine
 62
250
  6
CONTINUOUS
 10
-25.4388774972
 20
16.8188341385
 11
-36.9604590161
 21
17.0199676925
  0
LINE
  5
479
100
AcDbEntity
  8
DRAFT
100
AcDbLine
 62
7
  6
CONTINUOUS
 10
-36.6625145134
 20
-19.9483339502
 11
-40.5548408337
 21
-22.1955695989
  0
LWPOLYLINE
  5
47A
100
AcDbEntity
  8
RACCORDO
100
AcDbPolyline
 62
250
  6
CONTINUOUS
 90
13
 70
0
 10
-36.8076972389
 20
-18.8255603983
 10
-36.7587374729
 20
-18.8059514457
 10
-36.7120732178
 20
-18.781398628
 10
-36.6681879123
 20
-18.7521582302
 10
-36.6275457476
 20
-18.7185352484
 10
-36.5905896376
 20
-18.6808919066
 10
-36.5577205628
 20
-18.6396371221
 10
-36.5292926045
 20
-18.5952165986
 10
-36.5056057458
 20
-18.548101122
 10
-36.4869100475
 20
-18.4987877404
 10
-36.4734072044
 20
-18.4478001317
 10
-36.4652454119
 20
-18.3956845207
 10
-36.4626175428
 20
-18.3532444068
  0
LWPOLYLINE
  5
47B
100
AcDbEntity
  8
SUPERFICI
100
AcDbPolyline
 62
250
  6
CONTINUOUS
 90
13
 70
0
 10
-36.8076972389
 20
-18.8255603983
 10
-36.7587374729
 20
-18.8059514457
 10
-36.7120732178
 20
-18.781398628
 10
-36.6681879123
 20
-18.7521582302
 10
-36.6275457476
 20
-18.7185352484
 10
-36.5905896376
 20
-18.6808919066
 10
-36.5577205628
 20
-18.6396371221
 10
-36.5292926045
 20
-18.5952165986
 10
-36.5056057458
 20
-18.548101122
 10
-36.4869100475
 20
-18.4987877404
 10
-36.4734072044
 20
-18.4478001317
 10
-36.4652454119
 20
-18.3956845207
 10
-36.4626175428
 20
-18.3532444068
  0
LINE
  5
47C
100
AcDbEntity
  8
DRAFT
100
AcDbLine
 62
7
  6
CONTINUOUS
 10
-36.6625145134
 20
19.1872686779
 11
-46.6625145134
 21
19.1
  0
LINE
  5
47D
100
AcDbEntity
  8
RACCORDO
100
AcDbLine
 62
250
  6
CONTINUOUS
 10
-44.9625145134
 20
18.3
 11
-45.1590240322
 21
18.3
  0
LINE
  5
47E
100
AcDbEntity
  8
RACCORDO
100
AcDbLine
 62
7
  6
CONTINUOUS
 10
-36.4626927498
 20
17.8000031111
 11
-25.445062107
 21
17.6076896529
  0
LINE
  5
47F
100
AcDbEntity
  8
SUPERFICI
100
AcDbLine
 62
7
  6
CONTINUOUS
 10
-36.4626927498
 20
17.8000031111
 11
-25.445062107
 21
17.6076896529
  0
LINE
  5
480
100
AcDbEntity
  8
RACCORDO
100
AcDbLine
 62
7
  6
CONTINUOUS
 10
-36.9636137862
 20
18.8603786685
 11
-44.2625145134
 21
18.9877814546
  0
LINE
  5
481
100
AcDbEntity
  8
SUPERFICI
100
AcDbLine
 62
7
  6
CONTINUOUS
 10
-36.9636137862
 20
18.8603786685
 11
-44.2625145134
 21
18.9877814546
  0
LINE
  5
482
100
AcDbEntity
  8
RACCORDO
100
AcDbLine
 62
7
  6
CONTINUOUS
 10
-44.9625145134
 20
18.2203502372
 11
-46.6625145134
 21
18.3006924199
  0
LINE
  5
483
100
AcDbEntity
  8
RACCORDO
100
AcDbLine
 62
250
  6
CONTINUOUS
 10
-44.9625145134
 20
18.150052343
 11
-46.6625145135
 21
18.2308351883
  0
LINE
  5
484
100
AcDbEntity
  8
DRAFT
100
AcDbLine
 62
7
  6
CONTINUOUS
 10
-40.5548408337
 20
22.1955695989
 11
-36.6625145134
 21
19.9483339502
  0
LWPOLYLINE
  5
485
100
AcDbEntity
  8
RACCORDO
100
AcDbPolyline
 62
250
  6
CONTINUOUS
 90
7
 70
0
 10
-25.445062107
 20
17.6076896529
 10
-25.4438612435
 20
17.6038117293
 10
-25.442750517
 20
17.5922363223
 10
-25.441738636
 20
17.5730156255
 10
-25.4408354175
 20
17.546238054
 10
-25.4400461469
 20
17.5120360278
 10
-25.4393713552
 20
17.4705932736
  0
LWPOLYLINE
  5
486
100
AcDbEntity
  8
SUPERFICI
100
AcDbPolyline
 62
250
  6
CONTINUOUS
 90
7
 70
0
 10
-25.445062107
 20
17.6076896529
 10
-25.4438612435
 20
17.6038117293
 10
-25.442750517
 20
17.5922363223
 10
-25.441738636
 20
17.5730156255
 10
-25.4408354175
 20
17.546238054
 10
-25.4400461469
 20
17.5120360278
 10
-25.4393713552
 20
17.4705932736
  0
LINE
  5
487
100
AcDbEntity
  8
DRAFT
100
AcDbLine
 62
7
  6
CONTINUOUS
 10
-46.6625145134
 20
20.9
 11
-38.195945306
 21
20.833660631
  0
LINE
  5
488
100
AcDbEntity
  8
DRAFT
100
AcDbLine
 62
7
  6
CONTINUOUS
 10
-42.6625145134
 20
21.2139629885
 11
-38.7962076196
 21
21.1802222394
  0
LWPOLYLINE
  5
489
100
AcDbEntity
  8
0
100
AcDbPolyline
 62
250
  6
CONTINUOUS
 90
4
 70
0
 10
-55.2297178155
 20
20.9972959167
 10
-55.7098764273
 20
21.0177896584
 10
-55.7178749615
 20
21.0181637387
 10
-55.7205496293
 20
21.0183142302
  0
LWPOLYLINE
  5
48A
100
AcDbEntity
  8
0
100
AcDbPolyline
 62
7
  6
CONTINUOUS
 90
10
 70
0
 43
0.3500000006
 10
-34.2053716278
 20
32.7500006104
 10
-34.1339427109
 20
32.6071427765
 10
-34.1339427109
 20
32.5357161255
 10
-34.2768005447
 20
32.3928582916
 10
-34.3482294617
 20
32.3928582916
 10
-34.4196583786
 20
32.4642849426
 10
-34.4196583786
 20
32.5357161255
 10
-34.3482294617
 20
32.6785694275
 10
-34.2768005447
 20
32.7500006104
 10
-34.2053716278
 20
32.7500006104
  0
LWPOLYLINE
  5
48B
100
AcDbEntity
  8
0
100
AcDbPolyline
 62
7
  6
CONTINUOUS
 90
10
 70
0
 43
0.3500000006
 10
-38.9553730774
 20
42.7499991302
 10
-38.8839418945
 20
42.6071412964
 10
-38.8839418945
 20
42.5357146454
 10
-39.0267997284
 20
42.3928568115
 10
-39.0982309113
 20
42.3928568115
 10
-39.1696575623
 20
42.4642834625
 10
-39.1696575623
 20
42.5357146454
 10
-39.0982309113
 20
42.6785724792
 10
-39.0267997284
 20
42.7499991302
 10
-38.9553730774
 20
42.7499991302
  0
LWPOLYLINE
  5
48C
100
AcDbEntity
  8
0
100
AcDbPolyline
 62
250
  6
CONTINUOUS
 90
19
 70
0
 10
-54.7563277585
 20
21.4755923698
 10
-54.7974275906
 20
21.4716950654
 10
-54.8375910143
 20
21.4645922224
 10
-54.8768180297
 20
21.4542838406
 10
-54.9153743729
 20
21.4406561355
 10
-54.9529943078
 20
21.4238228918
 10
-54.9888806258
 20
21.4041254635
 10
-55.0229834976
 20
21.3815078446
 10
-55.0553527524
 20
21.3560260412
 10
-55.0853406698
 20
21.3281894262
 10
-55.1128959082
 20
21.2979562723
 10
-55.1380698092
 20
21.2653683069
 10
-55.1603686774
 20
21.2310600855
 10
-55.1797420586
 20
21.1949860366
 10
-55.1962404069
 20
21.1571917318
 10
-55.2095213901
 20
21.1184484404
 10
-55.2194708971
 20
21.0790132523
 10
-55.2262030389
 20
21.0386290778
 10
-55.2297178155
 20
20.9972959167
  0
LINE
  5
48D
100
AcDbEntity
  8
0
100
AcDbLine
 62
250
  6
CONTINUOUS
 10
-46.6625145134
 20
21.8997711479
 11
-54.7563277585
 21
21.4755923698
  0
LINE
  5
48E
100
AcDbEntity
  8
0
100
AcDbLine
 62
7
  6
CONTINUOUS
 10
-46.6625145134
 20
22.4
 11
-54.7737695334
 21
21.9749071372
  0
LINE
  5
48F
100
AcDbEntity
  8
DRAFT
100
AcDbLine
 62
7
  6
CONTINUOUS
 10
-44.4263763018
 20
22.6434763615
 11
-42.6625145134
 21
22.6298666026
  0
LINE
  5
490
100
AcDbEntity
  8
0
100
AcDbLine
 62
7
  6
CONTINUOUS
 10
-41.0625145134
 20
22.2
 11
-40.5548408337
 21
22.1955695989
  0
LINE
  5
491
100
AcDbEntity
  8
DRAFT
100
AcDbLine
 62
7
  6
CONTINUOUS
 10
-46.6625145134
 20
22.663166622
 11
-44.4263763018
 21
22.6434763615
  0
LINE
  5
492
100
AcDbEntity
  8
DRAFT
100
AcDbLine
 62
7
  6
CONTINUOUS
 10
-46.6625145134
 20
23.1799085618
 11
-45.3166774838
 21
23.1539087364
  0
LINE
  5
493
100
AcDbEntity
  8
DRAFT
100
AcDbLine
 62
7
  6
CONTINUOUS
 10
-45.3166774838
 20
23.1539087364
 11
-43.9833145873
 21
23.1272559626
  0
LINE
  5
494
100
AcDbEntity
  8
DRAFT
100
AcDbLine
 62
7
  6
CONTINUOUS
 10
-43.9833145873
 20
23.1272559626
 11
-42.6625145134
 21
23.0998904748
  0
LWPOLYLINE
  5
495
100
AcDbEntity
  8
RACCORDO
100
AcDbPolyline
 62
250
  6
CONTINUOUS
 90
13
 70
0
 10
-24.5100112228
 20
16.4892897516
 10
-24.5464275669
 20
16.5350128697
 10
-24.5925810183
 20
16.5787155619
 10
-24.6479810109
 20
16.6199333115
 10
-24.712038697
 20
16.6582280141
 10
-24.7840732062
 20
16.6931926346
 10
-24.8633188821
 20
16.7244555333
 10
-24.9489334209
 20
16.7516844162
 10
-25.0400068238
 20
16.774589867
 10
-25.1355710698
 20
16.7929284231
 10
-25.2346104044
 20
16.8065051636
 10
-25.3360721365
 20
16.8151757811
 10
-25.4388778272
 20
16.8188481155
  0
LWPOLYLINE
  5
496
100
AcDbEntity
  8
SUPERFICI
100
AcDbPolyline
 62
250
  6
CONTINUOUS
 90
13
 70
0
 10
-24.5100112228
 20
16.4892897516
 10
-24.5464275669
 20
16.5350128697
 10
-24.5925810183
 20
16.5787155619
 10
-24.6479810109
 20
16.6199333115
 10
-24.712038697
 20
16.6582280141
 10
-24.7840732062
 20
16.6931926346
 10
-24.8633188821
 20
16.7244555333
 10
-24.9489334209
 20
16.7516844162
 10
-25.0400068238
 20
16.774589867
 10
-25.1355710698
 20
16.7929284231
 10
-25.2346104044
 20
16.8065051636
 10
-25.3360721365
 20
16.8151757811
 10
-25.4388778272
 20
16.8188481155
  0
LINE
  5
497
100
AcDbEntity
  8
DRAFT
100
AcDbLine
 62
7
  6
CONTINUOUS
 10
-46.6625145134
 20
23.5
 11
-42.6625145134
 21
23.4301797403
  0
LWPOLYLINE
  5
498
100
AcDbEntity
  8
0
100
AcDbPolyline
 62
7
  6
CONTINUOUS
 90
6
 70
0
 43
0.3500000006
 10
-36.9910857925
 20
32.2500004578
 10
-35.9196565704
 20
32.2500004578
 10
-35.7053720856
 20
32.4642849426
 10
-35.7053720856
 20
33.5357164307
 10
-36.1339433212
 20
33.9642854004
 10
-36.5625145569
 20
33.9642854004
  0
LWPOLYLINE
  5
499
100
AcDbEntity
  8
0
100
AcDbPolyline
 62
7
  6
CONTINUOUS
 90
7
 70
0
 43
0.3500000006
 10
-31.6339442139
 20
32.2500004578
 10
-33.1339424057
 20
32.2500004578
 10
-31.6339442139
 20
34.392858902
 10
-31.6339442139
 20
34.8214278717
 10
-32.0625154495
 20
35.2500013733
 10
-32.70537117
 20
35.2500013733
 10
-33.1339424057
 20
34.6071433868
  0
LWPOLYLINE
  5
49A
100
AcDbEntity
  8
0
100
AcDbPolyline
 62
7
  6
CONTINUOUS
 90
7
 70
0
 43
0.3500000006
 10
-37.8482282639
 20
32.2500004578
 10
-39.3482309875
 20
32.2500004578
 10
-37.8482282639
 20
34.392858902
 10
-37.8482282639
 20
34.8214278717
 10
-38.2767994995
 20
35.2500013733
 10
-38.919657486
 20
35.2500013733
 10
-39.3482309875
 20
34.6071433868
  0
LWPOLYLINE
  5
49B
100
AcDbEntity
  8
0
100
AcDbPolyline
 62
7
  6
CONTINUOUS
 90
6
 70
0
 43
0.3500000006
 10
-44.0982279053
 20
42.2499989777
 10
-43.0268009491
 20
42.2499989777
 10
-42.8125164642
 20
42.4642834625
 10
-42.8125164642
 20
43.5357149506
 10
-43.241085434
 20
43.9642839203
 10
-43.6696589355
 20
43.9642839203
  0
LWPOLYLINE
  5
49C
100
AcDbEntity
  8
0
100
AcDbPolyline
 62
7
  6
CONTINUOUS
 90
7
 70
0
 43
0.3500000006
 10
-40.4553735352
 20
42.2499989777
 10
-41.9553694611
 20
42.2499989777
 10
-40.4553735352
 20
44.3928574219
 10
-40.4553735352
 20
44.8214263916
 10
-40.8839425049
 20
45.2499998932
 10
-41.5268004913
 20
45.2499998932
 10
-41.9553694611
 20
44.6071419067
  0
ARC
  5
49D
100
AcDbEntity
  8
DRAFT
100
AcDbCircle
 62
7
  6
CONTINUOUS
 10
11.25
 20
0.0
 40
28.0
100
AcDbArc
 50
125.9627651514
 51
126.8698976458
  0
ARC
  5
49E
100
AcDbEntity
  8
DRAFT
100
AcDbCircle
 62
7
  6
CONTINUOUS
 10
11.25
 20
0.0
 40
28.0
100
AcDbArc
 50
122.9352304972
 51
124.1210936517
  0
ARC
  5
49F
100
AcDbEntity
  8
DRAFT
100
AcDbCircle
 62
7
  6
CONTINUOUS
 10
-11.25
 20
0.0
 40
28.0
100
AcDbArc
 50
53.1301023542
 51
54.0372348486
  0
ARC
  5
4A0
100
AcDbEntity
  8
DRAFT
100
AcDbCircle
 62
7
  6
CONTINUOUS
 10
-11.25
 20
0.0
 40
28.0
100
AcDbArc
 50
55.8789063483
 51
57.0647695028
  0
ARC
  5
4A1
100
AcDbEntity
  8
DRAFT
100
AcDbCircle
 62
7
  6
CONTINUOUS
 10
-11.25
 20
0.0
 40
28.0
100
AcDbArc
 50
305.9627651514
 51
306.8698976458
  0
ARC
  5
4A2
100
AcDbEntity
  8
DRAFT
100
AcDbCircle
 62
7
  6
CONTINUOUS
 10
-11.25
 20
0.0
 40
28.0
100
AcDbArc
 50
302.9352304972
 51
304.1210936517
  0
ARC
  5
4A3
100
AcDbEntity
  8
DRAFT
100
AcDbCircle
 62
7
  6
CONTINUOUS
 10
11.25
 20
0.0
 40
28.0
100
AcDbArc
 50
233.1301023542
 51
234.0372348486
  0
ARC
  5
4A4
100
AcDbEntity
  8
DRAFT
100
AcDbCircle
 62
7
  6
CONTINUOUS
 10
11.25
 20
0.0
 40
28.0
100
AcDbArc
 50
235.8789063483
 51
237.0647695028
  0
ARC
  5
4A5
100
AcDbEntity
  8
0
100
AcDbCircle
 62
7
  6
CONTINUOUS
 10
0.0
 20
1.0
 40
2.6
100
AcDbArc
 50
270.0
 51
324.3146652873
  0
ARC
  5
4A6
100
AcDbEntity
  8
0
100
AcDbCircle
 62
7
  6
CONTINUOUS
 10
0.0
 20
1.0
 40
2.6
100
AcDbArc
 50
215.6853347127
 51
265.5623795422
  0
ARC
  5
4A7
100
AcDbEntity
  8
ASSI
100
AcDbCircle
 62
7
  6
CONTINUOUS
 10
0.0
 20
-9.5
 40
2.25
100
AcDbArc
 50
8.2132107017
 51
171.7867892983
  0
ARC
  5
4A8
100
AcDbEntity
  8
ASSI
100
AcDbCircle
 62
7
  6
CONTINUOUS
 10
0.0
 20
9.5
 40
2.25
100
AcDbArc
 50
188.2132107017
 51
351.7867892983
  0
CIRCLE
  5
4A9
100
AcDbEntity
  8
DRAFT
100
AcDbCircle
 62
7
  6
CONTINUOUS
 10
0.0
 20
0.0
 40
2.25
  0
ARC
  5
4AA
100
AcDbEntity
  8
DRAFT
100
AcDbCircle
 62
7
  6
CONTINUOUS
 10
0.0
 20
9.5
 40
2.25
100
AcDbArc
 50
351.7864990813
 51
188.2135009187
  0
ARC
  5
4AB
100
AcDbEntity
  8
DRAFT
100
AcDbCircle
 62
7
  6
CONTINUOUS
 10
0.0
 20
-9.5
 40
2.25
100
AcDbArc
 50
171.7864990813
 51
8.2135009187
  0
ARC
  5
4AC
100
AcDbEntity
  8
0
100
AcDbCircle
 62
250
  6
CONTINUOUS
 10
1.6343303518
 20
-1.99
 40
1.55
100
AcDbArc
 50
74.419256451
 51
90.0
  0
ARC
  5
4AD
100
AcDbEntity
  8
0
100
AcDbCircle
 62
7
  6
CONTINUOUS
 10
2.9240383034
 20
1.1
 40
1.0
100
AcDbArc
 50
215.6853347127
 51
224.6570501708
  0
ARC
  5
4AE
100
AcDbEntity
  8
0
100
AcDbCircle
 62
7
  6
CONTINUOUS
 10
2.9240383034
 20
-1.1
 40
1.0
100
AcDbArc
 50
135.3072979273
 51
144.3146652873
  0
ARC
  5
4AF
100
AcDbEntity
  8
0
100
AcDbCircle
 62
7
  6
CONTINUOUS
 10
-2.9240383034
 20
-1.1
 40
1.0
100
AcDbArc
 50
35.6853347127
 51
44.6635143452
  0
ARC
  5
4B0
100
AcDbEntity
  8
0
100
AcDbCircle
 62
7
  6
CONTINUOUS
 10
-2.9240383034
 20
1.1
 40
1.0
100
AcDbArc
 50
315.3164782232
 51
324.3146652873
  0
ARC
  5
4B1
100
AcDbEntity
  8
0
100
AcDbCircle
 62
7
  6
CONTINUOUS
 10
1.6343303518
 20
-1.99
 40
1.0
100
AcDbArc
 50
87.8281251387
 51
90.0
  0
ARC
  5
4B2
100
AcDbEntity
  8
0
100
AcDbCircle
 62
7
  6
CONTINUOUS
 10
1.6343303518
 20
-1.99
 40
0.9900694014
100
AcDbArc
 50
88.4948546934
 51
89.9703375206
  0
ARC
  5
4B3
100
AcDbEntity
  8
0
100
AcDbCircle
 62
7
  6
CONTINUOUS
 10
1.6343303518
 20
-1.99
 40
0.98
100
AcDbArc
 50
89.2062953792
 51
90.0
  0
ARC
  5
4B4
100
AcDbEntity
  8
DRAFT
100
AcDbCircle
 62
7
  6
CONTINUOUS
 10
4.95
 20
23.1
 40
0.5
100
AcDbArc
 50
170.803718421
 51
299.112422776
  0
ARC
  5
4B5
100
AcDbEntity
  8
DRAFT
100
AcDbCircle
 62
7
  6
CONTINUOUS
 10
4.95
 20
-23.1
 40
0.5
100
AcDbArc
 50
60.887577224
 51
189.196281579
  0
ARC
  5
4B6
100
AcDbEntity
  8
DRAFT
100
AcDbCircle
 62
7
  6
CONTINUOUS
 10
-4.95
 20
23.1
 40
0.5
100
AcDbArc
 50
240.887577224
 51
9.196281579
  0
ARC
  5
4B7
100
AcDbEntity
  8
DRAFT
100
AcDbCircle
 62
7
  6
CONTINUOUS
 10
-4.95
 20
-23.1
 40
0.5
100
AcDbArc
 50
350.803718421
 51
119.112422776
  0
ARC
  5
4B8
100
AcDbEntity
  8
0
100
AcDbCircle
 62
7
  6
CONTINUOUS
 10
-54.7214335771
 20
-20.9762776025
 40
1.0
100
AcDbArc
 50
182.4092313014
 51
267.0
  0
ARC
  5
4B9
100
AcDbEntity
  8
RACCORDO
100
AcDbCircle
 62
7
  6
CONTINUOUS
 10
-44.7825145134
 20
-18.9254415588
 40
0.18
100
AcDbArc
 50
192.4089769738
 51
225.0
  0
ARC
  5
4BA
100
AcDbEntity
  8
SUPERFICI
100
AcDbCircle
 62
7
  6
CONTINUOUS
 10
-44.7825145134
 20
-18.9254415588
 40
0.18
100
AcDbArc
 50
192.4089769738
 51
225.0
  0
ARC
  5
4BB
100
AcDbEntity
  8
RACCORDO
100
AcDbCircle
 62
7
  6
CONTINUOUS
 10
-36.9725145134
 20
-18.3504563439
 40
0.51
100
AcDbArc
 50
271.0
 51
360.0
  0
ARC
  5
4BC
100
AcDbEntity
  8
SUPERFICI
100
AcDbCircle
 62
7
  6
CONTINUOUS
 10
-36.9725145134
 20
-18.3504449971
 40
0.51
100
AcDbArc
 50
270.9999777532
 51
359.9987252422
  0
ARC
  5
4BD
100
AcDbEntity
  8
RACCORDO
100
AcDbCircle
 62
7
  6
CONTINUOUS
 10
-34.4621496323
 20
-16.7652961098
 40
0.9996351189
100
AcDbArc
 50
271.0
 51
359.9999966478
  0
ARC
  5
4BE
100
AcDbEntity
  8
SUPERFICI
100
AcDbCircle
 62
7
  6
CONTINUOUS
 10
-34.4621496323
 20
-16.7652961098
 40
0.9996351189
100
AcDbArc
 50
271.0
 51
359.9999966478
  0
ARC
  5
4BF
100
AcDbEntity
  8
RACCORDO
100
AcDbCircle
 62
7
  6
CONTINUOUS
 10
-25.4625145134
 20
-16.6078419577
 40
1.0
100
AcDbArc
 50
271.0
 51
360.0
  0
ARC
  5
4C0
100
AcDbEntity
  8
SUPERFICI
100
AcDbCircle
 62
7
  6
CONTINUOUS
 10
-25.4625145134
 20
-16.6078355993
 40
1.0
100
AcDbArc
 50
271.0
 51
359.9996356897
  0
ARC
  5
4C1
100
AcDbEntity
  8
RACCORDO
100
AcDbCircle
 62
7
  6
CONTINUOUS
 10
-23.7625145134
 20
-13.4377357561
 40
0.3
100
AcDbArc
 50
271.0
 51
360.0
  0
ARC
  5
4C2
100
AcDbEntity
  8
SUPERFICI
100
AcDbCircle
 62
7
  6
CONTINUOUS
 10
-23.7625145134
 20
-13.4377357561
 40
0.3
100
AcDbArc
 50
271.0
 51
360.0
  0
ARC
  5
4C3
100
AcDbEntity
  8
RACCORDO
100
AcDbCircle
 62
7
  6
CONTINUOUS
 10
-32.4625145134
 20
-7.7326972631
 40
1.0
100
AcDbArc
 50
90.9999015018
 51
180.0005046105
  0
ARC
  5
4C4
100
AcDbEntity
  8
RACCORDO
100
AcDbCircle
 62
7
  6
CONTINUOUS
 10
-25.4625145134
 20
-5.6102071525
 40
1.0
100
AcDbArc
 50
271.0
 51
360.0
  0
ARC
  5
4C5
100
AcDbEntity
  8
SUPERFICI
100
AcDbCircle
 62
7
  6
CONTINUOUS
 10
-25.4625145134
 20
-5.6102071525
 40
1.0
100
AcDbArc
 50
271.0
 51
360.0
  0
ARC
  5
4C6
100
AcDbEntity
  8
SUPERFICI
100
AcDbCircle
 62
7
  6
CONTINUOUS
 10
-32.4625145134
 20
-7.7326972631
 40
1.0
100
AcDbArc
 50
90.9999015018
 51
180.0005046105
  0
ARC
  5
4C7
100
AcDbEntity
  8
RACCORDO
100
AcDbCircle
 62
7
  6
CONTINUOUS
 10
-23.7625145134
 20
-1.8877357561
 40
0.3
100
AcDbArc
 50
271.0
 51
360.0
  0
ARC
  5
4C8
100
AcDbEntity
  8
RACCORDO
100
AcDbCircle
 62
7
  6
CONTINUOUS
 10
-23.7625145134
 20
-8.0622642439
 40
0.3
100
AcDbArc
 50
0.0
 51
88.9999999976
  0
ARC
  5
4C9
100
AcDbEntity
  8
SUPERFICI
100
AcDbCircle
 62
7
  6
CONTINUOUS
 10
-23.7625145134
 20
-8.0622642439
 40
0.3
100
AcDbArc
 50
0.0
 51
88.9999999976
  0
ARC
  5
4CA
100
AcDbEntity
  8
SUPERFICI
100
AcDbCircle
 62
7
  6
CONTINUOUS
 10
-23.7625145134
 20
-1.8877357561
 40
0.3
100
AcDbArc
 50
271.0
 51
360.0
  0
ARC
  5
4CB
100
AcDbEntity
  8
RACCORDO
100
AcDbCircle
 62
7
  6
CONTINUOUS
 10
-25.4625145134
 20
16.6078368128
 40
1.0
100
AcDbArc
 50
0.0002947833
 51
89.0000051444
  0
ARC
  5
4CC
100
AcDbEntity
  8
0
100
AcDbCircle
 62
7
  6
CONTINUOUS
 10
-54.7214335771
 20
20.9762776025
 40
1.0
100
AcDbArc
 50
93.0
 51
177.5907686986
  0
ARC
  5
4CD
100
AcDbEntity
  8
SUPERFICI
100
AcDbCircle
 62
7
  6
CONTINUOUS
 10
-25.4625145134
 20
16.6078419577
 40
1.0
100
AcDbArc
 50
0.0
 51
89.0
  0
ARC
  5
4CE
100
AcDbEntity
  8
RACCORDO
100
AcDbCircle
 62
7
  6
CONTINUOUS
 10
-36.9725145134
 20
18.3504563439
 40
0.51
100
AcDbArc
 50
0.0
 51
89.0
  0
ARC
  5
4CF
100
AcDbEntity
  8
SUPERFICI
100
AcDbCircle
 62
7
  6
CONTINUOUS
 10
-36.9725145134
 20
18.3504449971
 40
0.51
100
AcDbArc
 50
0.0012747577
 51
89.0000222468
  0
ARC
  5
4D0
100
AcDbEntity
  8
RACCORDO
100
AcDbCircle
 62
7
  6
CONTINUOUS
 10
-23.7625145134
 20
3.4877357561
 40
0.3
100
AcDbArc
 50
0.0
 51
89.0
  0
ARC
  5
4D1
100
AcDbEntity
  8
RACCORDO
100
AcDbCircle
 62
7
  6
CONTINUOUS
 10
-23.7625145134
 20
8.0622642439
 40
0.3
100
AcDbArc
 50
271.0
 51
360.0
  0
ARC
  5
4D2
100
AcDbEntity
  8
RACCORDO
100
AcDbCircle
 62
7
  6
CONTINUOUS
 10
-23.7625145134
 20
13.4377357561
 40
0.3
100
AcDbArc
 50
0.0
 51
88.9999999976
  0
ARC
  5
4D3
100
AcDbEntity
  8
SUPERFICI
100
AcDbCircle
 62
7
  6
CONTINUOUS
 10
-23.7625145134
 20
13.4377357561
 40
0.3
100
AcDbArc
 50
0.0
 51
88.9999999976
  0
ARC
  5
4D4
100
AcDbEntity
  8
SUPERFICI
100
AcDbCircle
 62
7
  6
CONTINUOUS
 10
-23.7625145134
 20
8.0622642439
 40
0.3
100
AcDbArc
 50
271.0
 51
360.0
  0
ARC
  5
4D5
100
AcDbEntity
  8
SUPERFICI
100
AcDbCircle
 62
7
  6
CONTINUOUS
 10
-23.7625145134
 20
3.4877357561
 40
0.3
100
AcDbArc
 50
0.0
 51
89.0
  0
ARC
  5
4D6
100
AcDbEntity
  8
RACCORDO
100
AcDbCircle
 62
7
  6
CONTINUOUS
 10
-44.7825145134
 20
18.9254415588
 40
0.18
100
AcDbArc
 50
135.0
 51
167.5874255472
  0
ARC
  5
4D7
100
AcDbEntity
  8
SUPERFICI
100
AcDbCircle
 62
7
  6
CONTINUOUS
 10
-44.7825145134
 20
18.9254415588
 40
0.18
100
AcDbArc
 50
135.0
 51
167.5874255472
  0
ARC
  5
4D8
100
AcDbEntity
  8
RACCORDO
100
AcDbCircle
 62
7
  6
CONTINUOUS
 10
443.8374854866
 20
0.0
 40
500.0
100
AcDbArc
 50
180.7952048155
 51
181.3833067037
  0
ARC
  5
4D9
100
AcDbEntity
  8
RACCORDO
100
AcDbCircle
 62
7
  6
CONTINUOUS
 10
443.8374854866
 20
0.0
 40
500.0
100
AcDbArc
 50
179.7058214805
 51
180.2677513042
  0
ARC
  5
4DA
100
AcDbEntity
  8
RACCORDO
100
AcDbCircle
 62
7
  6
CONTINUOUS
 10
443.8374854866
 20
0.0
 40
500.0
100
AcDbArc
 50
178.6166932963
 51
179.2047951845
  0
ARC
  5
4DB
100
AcDbEntity
  8
0
100
AcDbCircle
 62
7
  6
CONTINUOUS
 10
443.8374854866
 20
0.0
 40
500.0
100
AcDbArc
 50
177.5907686986
 51
182.4092313014
  0
ELLIPSE
  5
4DC
100
AcDbEntity
  8
0
100
AcDbEllipse
 62
7
  6
CONTINUOUS
 10
-10.649923836
 20
21.899313827
 30
0.0
 11
-0.1582391023
 21
0.4751033573
 31
0.0
 40
0.9984778551
 41
-0.3210503505
 42
1.2488325878
  0
ELLIPSE
  5
4DD
100
AcDbEntity
  8
0
100
AcDbEllipse
 62
7
  6
CONTINUOUS
 10
-10.649923836
 20
-21.899313827
 30
0.0
 11
0.1582391023
 21
0.4751033573
 31
0.0
 40
0.9984778551
 41
-4.3904252414
 42
-2.8205423031
  0
ELLIPSE
  5
4DE
100
AcDbEntity
  8
0
100
AcDbEllipse
 62
7
  6
CONTINUOUS
 10
10.649923836
 20
21.899313827
 30
0.0
 11
0.1582391023
 21
0.4751033573
 31
0.0
 40
0.9984778551
 41
-1.2488325878
 42
0.3210503505
  0
ELLIPSE
  5
4DF
100
AcDbEntity
  8
0
100
AcDbEllipse
 62
7
  6
CONTINUOUS
 10
10.649923836
 20
-21.899313827
 30
0.0
 11
-0.1582391023
 21
0.4751033573
 31
0.0
 40
0.9984778551
 41
-3.4626430041
 42
-1.8927600658
  0
ELLIPSE
  5
4E0
100
AcDbEntity
  8
0
100
AcDbEllipse
 62
7
  6
CONTINUOUS
 10
0.89
 20
-1.0
 30
0.0
 11
0.0
 21
0.01
 31
0.0
 40
1.0
 41
-3.1415926536
 42
-1.5707963268
  0
ELLIPSE
  5
4E1
100
AcDbEntity
  8
0
100
AcDbEllipse
 62
7
  6
CONTINUOUS
 10
-73.6380393661
 20
16.0
 30
0.0
 11
-200.5454004423
 21
3.5005329858
 31
0.0
 40
0.0174497492
 41
-1.7173130233
 42
-1.7139712103
  0
ELLIPSE
  5
4E2
100
AcDbEntity
  8
0
100
AcDbEllipse
 62
7
  6
CONTINUOUS
 10
-73.6380393661
 20
-16.0
 30
0.0
 11
-200.5454004423
 21
-3.5005329858
 31
0.0
 40
0.0174497492
 41
1.7139712103
 42
1.7173130233
  0
ELLIPSE
  5
4E3
100
AcDbEntity
  8
SUPERFICI
100
AcDbEllipse
 62
7
  6
CONTINUOUS
 10
-73.6380393661
 20
-16.0
 30
0.0
 11
-200.5454004423
 21
-3.5005329858
 31
0.0
 40
0.0174497492
 41
1.7139712103
 42
1.7173130233
  0
ELLIPSE
  5
4E4
100
AcDbEntity
  8
SUPERFICI
100
AcDbEllipse
 62
7
  6
CONTINUOUS
 10
-73.6380393661
 20
16.0
 30
0.0
 11
-200.5454004423
 21
3.5005329858
 31
0.0
 40
0.0174497492
 41
-1.7173130233
 42
-1.7139712103
  0
ENDSEC
  0
SECTION
  2
OBJECTS
  0
DICTIONARY
  5
C
100
AcDbDictionary
280
0
281
1
  3
ACAD_GROUP
350
D
  3
ACAD_MLINESTYLE
350
17
  3
ACAD_LAYOUT
350
1A
  3
ACAD_PLOTSETTINGS
350
19
  3
ACAD_PLOTSTYLENAME
350
E
  0
DICTIONARY
  5
D
102
{ACAD_REACTORS
330
C
102
}
100
AcDbDictionary
280
0
281
1
  0
ACDBDICTIONARYWDFLT
  5
E
102
{ACAD_REACTORS
330
C
102
}
100
AcDbDictionary
281
1
  3
Normal
350
F
100
AcDbDictionaryWithDefault
340
F
  0
DICTIONARY
  5
17
102
{ACAD_REACTORS
330
C
102
}
100
AcDbDictionary
280
0
281
1
  3
Standard
350
18
  0
DICTIONARY
  5
19
102
{ACAD_REACTORS
330
C
102
}
100
AcDbDictionary
281
1
  0
DICTIONARY
  5
1A
102
{ACAD_REACTORS
330
C
102
}
100
AcDbDictionary
281
1
  3
Model
350
4E5
  3
Layout1
350
4E6
  0
ACDBPLACEHOLDER
  5
F
102
{ACAD_REACTORS
330
E
102
}
  0
MLINESTYLE
  5
18
102
{ACAD_REACTORS
330
17
102
}
100
AcDbMlineStyle
  2
STANDARD
 70
0
  3

 62
256
 51
90.0
 52
90.0
 71
2
 49
0.5
 62
256
  6
BYLAYER
 49
-0.5
 62
256
  6
BYLAYER
  0
LAYOUT
  5
4E5
102
{ACAD_REACTORS
330
1A
102
}
100
AcDbPlotSettings
  1

  2
none_device
  4
ISO_A4_(297.00_x_210.00_MM)
  6

 40
0.0
 41
0.0
 42
0.0
 43
0.0
 44
297.0
 45
210.0
 46
0.0
 47
0.0
 48
0.0
 49
0.0
140
0.0
141
0.0
142
1.0
143
1.0
 70
1024
 72
1
 73
0
 74
0
  7

 75
0
147
1.0
148
0.0
149
0.0
100
AcDbLayout
  1
Model
 70
0
 71
0
 10
0.0
 20
0.0
 11
297.0
 21
210.0
 12
0.0
 22
0.0
 32
0.0
 14
0.0
 24
0.0
 34
0.0
 15
0.0
 25
0.0
 35
0.0
146
0.0
 13
0.0
 23
0.0
 33
0.0
 16
1.0
 26
0.0
 36
0.0
 17
0.0
 27
1.0
 37
0.0
 76
0
330
218
345
0
346
0
  0
LAYOUT
  5
4E6
102
{ACAD_REACTORS
330
1A
102
}
100
AcDbPlotSettings
  1

  2
none_device
  4
ISO_A4_(297.00_x_210.00_MM)
  6

 40
0.0
 41
0.0
 42
0.0
 43
0.0
 44
297.0
 45
210.0
 46
0.0
 47
0.0
 48
0.0
 49
0.0
140
0.0
141
0.0
142
1.0
143
1.0
 70
0
 72
1
 73
0
 74
0
  7

 75
0
147
1.0
148
0.0
149
0.0
100
AcDbLayout
  1
Layout1
 70
0
 71
1
 10
0.0
 20
0.0
 11
297.0
 21
210.0
 12
0.0
 22
0.0
 32
0.0
 14
0.0
 24
0.0
 34
0.0
 15
0.0
 25
0.0
 35
0.0
146
0.0
 13
0.0
 23
0.0
 33
0.0
 16
1.0
 26
0.0
 36
0.0
 17
0.0
 27
1.0
 37
0.0
 76
0
330
219
345
0
346
0
  0
ENDSEC
  0
EOF
