0
SECTION
2
HEADER
9
$ACADVER
1
AC1015
9
$DWGCODEPAGE
3
ANSI_1252
9
$EXTMAX
10
431.8000000000
20
558.8000000000
30
0.0000000000
9
$EXTMIN
10
0.0000000000
20
0.0000000000
30
0.0000000000
9
$LIMMIN
10
0.0000000000
20
0.0000000000
9
$LIMMAX
10
431.8000000000
20
558.8000000000
9
$VIEWCTR
10
215.9000000000
20
279.4000000000
9
$VIEWSIZE
40
558.8000000000
9
$CLAYER
8
0
9
$LTSCALE
40
36.4254814815
9
$CELTYPE
6
BYLAYER
9
$DIMSCALE
40
1
9
$DIMASZ
40
3.0000000000
9
$DIMEXO
40
4.1392592593
9
$DIMDLI
40
25.1666962963
9
$DIMEXE
40
11.9210666667
9
$DIMCEN
40
5.9605333333
9
$DIMLFAC
40
1.0000000000
9
$DIMBLK
1
_FILLED
9
$DIMTXT
40
3.0000000000
9
$DIMTOL
70
1
9
$DIMLIM
70
0
9
$DIMTFAC
40
1.0000000000
9
$DIMTP
40
0.0100000000
9
$DIMTM
40
0.0100000000
9
$PDMODE
70
3
9
$PDSIZE
40
3.0000000000
9
$HANDSEED
5
41E
9
$MEASUREMENT
70
1
9
$INSUNITS
70
4
0
ENDSEC
0
SECTION
2
CLASSES
0
CLASS
1
ACDBDICTIONARYWDFLT
2
AcDbDictionaryWithDefault
3
AutoCAD 2000
90
0
280
0
281
0
0
CLASS
1
ACDBPLACEHOLDER
2
AcDbPlaceHolder
3
AutoCAD 2000
90
0
280
0
281
0
0
CLASS
1
LAYOUT
2
AcDbLayout
3
AutoCAD 2000
90
0
280
0
281
0
0
ENDSEC
0
SECTION
2
TABLES
0
TABLE
2
VPORT
5
8
100
AcDbSymbolTable
70
2
0
VPORT
5
1F4
100
AcDbSymbolTableRecord
100
AcDbViewportTableRecord
2
*ACTIVE
70
0
10
0.0
20
0.0
11
1.0
21
1.0
12
215.9000000000
22
279.4000000000
13
0.0
23
0.0
14
1.0
24
1.0
15
0.0
25
0.0
16
0.0
26
0.0
36
1.0
17
0.0
27
0.0
37
0.0
40
558.8000000000
41
0.7727272727
42
50.0
43
0.0
44
0.0
50
0.0
51
0.0
71
0
72
100
73
1
74
1
75
0
76
0
77
0
78
0
0
ENDTAB
0
TABLE
2
LTYPE
5
5
100
AcDbSymbolTable
70
6
0
LTYPE
5
14
100
AcDbSymbolTableRecord
100
AcDbLinetypeTableRecord
2
BYBLOCK
70
0
3

72
65
73
0
40
0.0
0
LTYPE
5
15
100
AcDbSymbolTableRecord
100
AcDbLinetypeTableRecord
2
BYLAYER
70
0
3

72
65
73
0
40
0.0
0
LTYPE
5
16
100
AcDbSymbolTableRecord
100
AcDbLinetypeTableRecord
2
CONTINUOUS
70
64
3
Solid line
72
65
73
0
40
0
0
LTYPE
5
1F5
100
AcDbSymbolTableRecord
100
AcDbLinetypeTableRecord
2
CENTER
70
64
3
____ _ ____ _ ____ _ ____ _ ____ _ ____ _ ____
72
65
73
4
40
0.6
49
0.375
74
0
49
-0.075
74
0
49
0.075
74
0
49
-0.075
74
0
0
LTYPE
5
1F6
100
AcDbSymbolTableRecord
100
AcDbLinetypeTableRecord
2
HIDDEN
70
64
3
- - - - - - - - - - - - - - - - - - - -
72
65
73
2
40
0.2
49
0.1
74
0
49
-0.1
74
0
0
LTYPE
5
1F7
100
AcDbSymbolTableRecord
100
AcDbLinetypeTableRecord
2
PHANTOM
70
64
3
_____ _ _ _____ _ _ _____ _ _ _____
72
65
73
6
40
0.8
49
0.45
74
0
49
-0.05
74
0
49
0.1
74
0
49
-0.05
74
0
49
0.1
74
0
49
-0.05
74
0
0
LTYPE
5
1F8
100
AcDbSymbolTableRecord
100
AcDbLinetypeTableRecord
2
DOT
70
64
3
. . . . . . . . . . . . . . . . . . . .
72
65
73
2
40
0.2
49
0.1
74
0
49
-0.1
74
0
0
LTYPE
5
1F9
100
AcDbSymbolTableRecord
100
AcDbLinetypeTableRecord
2
DASHED
70
64
3
- - - - - - - - - - - - - - - - - - - -
72
65
73
2
40
0.2
49
0.1
74
0
49
-0.1
74
0
0
ENDTAB
0
TABLE
2
LAYER
5
2
100
AcDbSymbolTable
70
36
0
LAYER
5
10
100
AcDbSymbolTableRecord
100
AcDbLayerTableRecord
2
0
70
0
62
7
6
CONTINUOUS
370
-3
390
F
0
LAYER
5
1FA
100
AcDbSymbolTableRecord
100
AcDbLayerTableRecord
2
DEFAULT_1
70
0
62
7
6
CENTER
370
-3
390
F
0
LAYER
5
1FB
100
AcDbSymbolTableRecord
100
AcDbLayerTableRecord
2
DEFAULT_2
70
0
62
8
6
HIDDEN
370
-3
390
F
0
LAYER
5
1FC
100
AcDbSymbolTableRecord
100
AcDbLayerTableRecord
2
DEFAULT_3
70
0
62
7
6
PHANTOM
370
-3
390
F
0
LAYER
5
1FD
100
AcDbSymbolTableRecord
100
AcDbLayerTableRecord
2
_2D_DELETED_OBJS
70
0
62
7
6
CONTINUOUS
370
-3
390
F
0
LAYER
5
1FE
100
AcDbSymbolTableRecord
100
AcDbLayerTableRecord
2
_BLACK_HOLE
70
0
62
7
6
CONTINUOUS
370
-3
390
F
0
LAYER
5
1FF
100
AcDbSymbolTableRecord
100
AcDbLayerTableRecord
2
ASSI
70
0
62
7
6
CONTINUOUS
370
-3
390
F
0
LAYER
5
200
100
AcDbSymbolTableRecord
100
AcDbLayerTableRecord
2
COORDINATE
70
0
62
7
6
CONTINUOUS
370
-3
390
F
0
LAYER
5
201
100
AcDbSymbolTableRecord
100
AcDbLayerTableRecord
2
COORD_ORIGINE
70
0
62
7
6
CONTINUOUS
370
-3
390
F
0
LAYER
5
202
100
AcDbSymbolTableRecord
100
AcDbLayerTableRecord
2
COPY-PUBBLISH
70
0
62
7
6
CONTINUOUS
370
-3
390
F
0
LAYER
5
203
100
AcDbSymbolTableRecord
100
AcDbLayerTableRecord
2
COSMETICHE
70
0
62
7
6
CONTINUOUS
370
-3
390
F
0
LAYER
5
204
100
AcDbSymbolTableRecord
100
AcDbLayerTableRecord
2
COSMETICI
70
0
62
7
6
CONTINUOUS
370
-3
390
F
0
LAYER
5
205
100
AcDbSymbolTableRecord
100
AcDbLayerTableRecord
2
CURVE
70
0
62
7
6
CONTINUOUS
370
-3
390
F
0
LAYER
5
206
100
AcDbSymbolTableRecord
100
AcDbLayerTableRecord
2
C_COMP
70
0
62
7
6
CONTINUOUS
370
-3
390
F
0
LAYER
5
207
100
AcDbSymbolTableRecord
100
AcDbLayerTableRecord
2
DRAFT
70
0
62
7
6
CONTINUOUS
370
-3
390
F
0
LAYER
5
208
100
AcDbSymbolTableRecord
100
AcDbLayerTableRecord
2
IMPORT
70
0
62
7
6
CONTINUOUS
370
-3
390
F
0
LAYER
5
209
100
AcDbSymbolTableRecord
100
AcDbLayerTableRecord
2
IMPORT_FEATURES
70
0
62
7
6
CONTINUOUS
370
-3
390
F
0
LAYER
5
20A
100
AcDbSymbolTableRecord
100
AcDbLayerTableRecord
2
INTF_1
70
0
62
7
6
CONTINUOUS
370
-3
390
F
0
LAYER
5
20B
100
AcDbSymbolTableRecord
100
AcDbLayerTableRecord
2
INTF_2
70
0
62
7
6
CONTINUOUS
370
-3
390
F
0
LAYER
5
20C
100
AcDbSymbolTableRecord
100
AcDbLayerTableRecord
2
NOTE
70
0
62
7
6
CONTINUOUS
370
-3
390
F
0
LAYER
5
20D
100
AcDbSymbolTableRecord
100
AcDbLayerTableRecord
2
PIANI
70
0
62
7
6
CONTINUOUS
370
-3
390
F
0
LAYER
5
20E
100
AcDbSymbolTableRecord
100
AcDbLayerTableRecord
2
PIANI_ORIGINE
70
0
62
7
6
CONTINUOUS
370
-3
390
F
0
LAYER
5
20F
100
AcDbSymbolTableRecord
100
AcDbLayerTableRecord
2
PUNTI
70
0
62
7
6
CONTINUOUS
370
-3
390
F
0
LAYER
5
210
100
AcDbSymbolTableRecord
100
AcDbLayerTableRecord
2
RACCORDO
70
0
62
7
6
CONTINUOUS
370
-3
390
F
0
LAYER
5
211
100
AcDbSymbolTableRecord
100
AcDbLayerTableRecord
2
RGB____0____0____0__
70
0
62
7
6
CONTINUOUS
370
-3
390
F
0
LAYER
5
212
100
AcDbSymbolTableRecord
100
AcDbLayerTableRecord
2
SMUSSO
70
0
62
7
6
CONTINUOUS
370
-3
390
F
0
LAYER
5
213
100
AcDbSymbolTableRecord
100
AcDbLayerTableRecord
2
SNAPLINE
70
0
62
7
6
CONTINUOUS
370
-3
390
F
0
LAYER
5
214
100
AcDbSymbolTableRecord
100
AcDbLayerTableRecord
2
SUPERFICI
70
0
62
7
6
CONTINUOUS
370
-3
390
F
0
LAYER
5
215
100
AcDbSymbolTableRecord
100
AcDbLayerTableRecord
2
TRASH
70
0
62
7
6
CONTINUOUS
370
-3
390
F
0
LAYER
5
216
100
AcDbSymbolTableRecord
100
AcDbLayerTableRecord
2
XSEC_DATUMS
70
0
62
7
6
CONTINUOUS
370
-3
390
F
0
ENDTAB
0
TABLE
2
STYLE
5
3
100
AcDbSymbolTable
70
1
0
STYLE
5
11
100
AcDbSymbolTableRecord
100
AcDbTextStyleTableRecord
2
STANDARD
70
0
40
0.0
41
0.8000000000
50
0.0
71
0
42
0.2
3
txt
4

0
ENDTAB
0
TABLE
2
VIEW
5
6
100
AcDbSymbolTable
70
0
0
ENDTAB
0
TABLE
2
UCS
5
7
100
AcDbSymbolTable
70
0
0
ENDTAB
0
TABLE
2
APPID
5
9
100
AcDbSymbolTable
70
1
0
APPID
5
217
100
AcDbSymbolTableRecord
100
AcDbRegAppTableRecord
2
ACAD
70
0
0
ENDTAB
0
TABLE
2
BLOCK_RECORD
5
1
100
AcDbSymbolTable
70
0
0
BLOCK_RECORD
5
1F
100
AcDbSymbolTableRecord
100
AcDbBlockTableRecord
2
*MODEL_SPACE
0
BLOCK_RECORD
5
1B
100
AcDbSymbolTableRecord
100
AcDbBlockTableRecord
2
*PAPER_SPACE
0
BLOCK_RECORD
5
218
100
AcDbSymbolTableRecord
100
AcDbBlockTableRecord
2
_FILLED
0
BLOCK_RECORD
5
219
100
AcDbSymbolTableRecord
100
AcDbBlockTableRecord
2
*D0
0
BLOCK_RECORD
5
21A
100
AcDbSymbolTableRecord
100
AcDbBlockTableRecord
2
*D1
0
BLOCK_RECORD
5
21B
100
AcDbSymbolTableRecord
100
AcDbBlockTableRecord
2
*D2
0
BLOCK_RECORD
5
21C
100
AcDbSymbolTableRecord
100
AcDbBlockTableRecord
2
*D3
0
ENDTAB
0
TABLE
2
DIMSTYLE
5
A
100
AcDbSymbolTable
70
1
100
AcDbDimStyleTable
71
0
0
DIMSTYLE
105
21D
100
AcDbSymbolTableRecord
100
AcDbDimStyleTableRecord
2
STANDARD
70
0
3

4

40
1.0
41
3.0000000000
42
0.0625
43
0.38
44
0.18
45
0.0
46
0.0
47
0.0100000000
48
0.0100000000
140
3.0000000000
141
0.09
142
0.0
143
25.4
144
1.0000000000
145
0.0
146
1.0000000000
147
0.09
71
1
72
0
73
0
74
0
75
0
76
0
77
1
78
8
170
0
171
2
172
0
173
0
174
0
175
0
176
0
177
0
178
0
270
2
271
2
272
2
273
2
274
2
275
0
280
0
281
0
282
0
283
1
284
8
285
0
286
0
287
3
288
0
340
11
341
218
342
218
343
218
344
218
0
DIMSTYLE
105
21E
100
AcDbSymbolTableRecord
100
AcDbDimStyleTableRecord
2
DIMSTYLE_1
70
0
3

4

40
1.0
41
3.0000000000
42
0.0625
43
0.38
44
0.18
45
0.0
46
0.0
47
0.0000000000
48
0.0000000000
140
3.0000000000
141
0.09
142
0.0
143
25.4
144
1.0000000000
145
0.0
146
1.0000000000
147
0.09
71
0
72
0
73
0
74
0
75
0
76
0
77
1
78
8
170
0
171
2
172
0
173
0
174
0
175
0
176
0
177
0
178
0
270
2
271
2
272
2
273
2
274
2
275
0
280
0
281
0
282
0
283
1
284
8
285
0
286
0
287
3
288
0
340
11
341
218
342
218
343
218
344
218
0
DIMSTYLE
105
21F
100
AcDbSymbolTableRecord
100
AcDbDimStyleTableRecord
2
DIMSTYLE_2
70
0
3

4

40
1.0
41
3.0000000000
42
0.0625
43
0.38
44
0.18
45
0.0
46
0.0
47
0.0000000000
48
0.0000000000
140
3.0000000000
141
0.09
142
0.0
143
25.4
144
1.0000000000
145
0.0
146
1.0000000000
147
0.09
71
0
72
0
73
0
74
0
75
0
76
0
77
1
78
8
170
0
171
2
172
0
173
0
174
0
175
0
176
0
177
0
178
0
270
2
271
1
272
1
273
2
274
2
275
0
280
0
281
0
282
0
283
1
284
8
285
0
286
0
287
3
288
0
340
11
341
218
342
218
343
218
344
218
0
ENDTAB
0
ENDSEC
0
SECTION
2
BLOCKS
0
BLOCK
5
20
100
AcDbEntity
8
0
100
AcDbBlockBegin
2
*MODEL_SPACE
70
0
10
0.0
20
0.0
30
0.0
3
*MODEL_SPACE
1

0
ENDBLK
5
21
100
AcDbEntity
8
0
100
AcDbBlockEnd
0
BLOCK
5
1C
100
AcDbEntity
8
0
100
AcDbBlockBegin
2
*PAPER_SPACE
70
0
10
0.0
20
0.0
30
0.0
3
*PAPER_SPACE
1

0
ENDBLK
5
1D
100
AcDbEntity
8
0
100
AcDbBlockEnd
0
BLOCK
5
220
100
AcDbEntity
8
0
100
AcDbBlockBegin
62
2
6
CONTINUOUS
2
*D0
70
65
10
0.0000000000
20
0.0000000000
3
*D0
1

0
TEXT
5
221
100
AcDbEntity
8
0
100
AcDbText
62
2
6
CONTINUOUS
10
3.5615727145
20
16.4132624721
7
STANDARD
40
3.0000000000
1
22,3
41
0.7142857143
72
0
100
AcDbText
0
LINE
5
222
100
AcDbEntity
8
0
100
AcDbLine
62
2
6
CONTINUOUS
10
18.9972870002
20
6.5630336200
11
18.9972870002
21
17.1632624721
0
LINE
5
223
100
AcDbEntity
8
0
100
AcDbLine
62
2
6
CONTINUOUS
10
-3.3027129998
20
6.5630336200
11
-3.3027129998
21
17.1632624721
0
LINE
5
224
100
AcDbEntity
8
0
100
AcDbLine
62
2
6
CONTINUOUS
10
18.9972870002
20
15.6632624721
11
7.8472870002
21
15.6632624721
0
LINE
5
225
100
AcDbEntity
8
0
100
AcDbLine
62
2
6
CONTINUOUS
10
-3.3027129998
20
15.6632624721
11
7.8472870002
21
15.6632624721
0
INSERT
5
226
100
AcDbEntity
8
0
100
AcDbBlockReference
62
2
6
CONTINUOUS
2
_FILLED
10
18.9972870002
20
15.6632624721
41
  3.000000
42
  3.000000
43
  3.000000
0
INSERT
5
227
100
AcDbEntity
8
0
100
AcDbBlockReference
62
2
6
CONTINUOUS
2
_FILLED
10
-3.3027129998
20
15.6632624721
41
  3.000000
42
  3.000000
43
  3.000000
50
180.000000
0
ENDBLK
5
228
100
AcDbEntity
8
0
6
BYBLOCK
62
0
100
AcDbBlockEnd
0
BLOCK
5
229
100
AcDbEntity
8
0
100
AcDbBlockBegin
62
2
6
CONTINUOUS
2
*D1
70
65
10
0.0000000000
20
0.0000000000
3
*D1
1

0
TEXT
5
22A
100
AcDbEntity
8
0
100
AcDbText
62
2
6
CONTINUOUS
10
26.2472870002
20
-18.1938803851
7
STANDARD
40
3.0000000000
1
47
50
90.0000000000
41
0.7857142857
72
0
100
AcDbText
0
LINE
5
22B
100
AcDbEntity
8
0
100
AcDbLine
62
2
6
CONTINUOUS
10
11.3472870002
20
7.6632624721
11
28.4972870002
21
7.6632624721
0
LINE
5
22C
100
AcDbEntity
8
0
100
AcDbLine
62
2
6
CONTINUOUS
10
12.3206243479
20
-39.3367375279
11
28.4972870002
21
-39.3367375279
0
LINE
5
22D
100
AcDbEntity
8
0
100
AcDbLine
62
2
6
CONTINUOUS
10
26.9972870002
20
7.6632624721
11
26.9972870002
21
-15.8367375279
0
LINE
5
22E
100
AcDbEntity
8
0
100
AcDbLine
62
2
6
CONTINUOUS
10
26.9972870002
20
-39.3367375279
11
26.9972870002
21
-15.8367375279
0
INSERT
5
22F
100
AcDbEntity
8
0
100
AcDbBlockReference
62
2
6
CONTINUOUS
2
_FILLED
10
26.9972870002
20
7.6632624721
41
  3.000000
42
  3.000000
43
  3.000000
50
 90.000000
0
INSERT
5
230
100
AcDbEntity
8
0
100
AcDbBlockReference
62
2
6
CONTINUOUS
2
_FILLED
10
26.9972870002
20
-39.3367375279
41
  3.000000
42
  3.000000
43
  3.000000
50
270.000000
0
ENDBLK
5
231
100
AcDbEntity
8
0
6
BYBLOCK
62
0
100
AcDbBlockEnd
0
BLOCK
5
232
100
AcDbEntity
8
0
100
AcDbBlockBegin
62
2
6
CONTINUOUS
2
*D2
70
65
10
0.0000000000
20
0.0000000000
3
*D2
1

0
TEXT
5
233
100
AcDbEntity
8
0
100
AcDbText
62
2
6
CONTINUOUS
10
-45.7011610789
20
26.4132624721
7
STANDARD
40
3.0000000000
1
32,6
41
0.7142857143
72
0
100
AcDbText
0
LINE
5
234
100
AcDbEntity
8
0
100
AcDbLine
62
2
6
CONTINUOUS
10
-25.1221523751
20
-7.2744725745
11
-25.1221523751
21
27.1632624721
0
LINE
5
235
100
AcDbEntity
8
0
100
AcDbLine
62
2
6
CONTINUOUS
10
-57.7087412113
20
-4.6878736572
11
-57.7087412113
21
27.1632624721
0
LINE
5
236
100
AcDbEntity
8
0
100
AcDbLine
62
2
6
CONTINUOUS
10
-25.1221523751
20
25.6632624721
11
-41.4154467932
21
25.6632624721
0
LINE
5
237
100
AcDbEntity
8
0
100
AcDbLine
62
2
6
CONTINUOUS
10
-57.7087412113
20
25.6632624721
11
-41.4154467932
21
25.6632624721
0
INSERT
5
238
100
AcDbEntity
8
0
100
AcDbBlockReference
62
2
6
CONTINUOUS
2
_FILLED
10
-25.1221523751
20
25.6632624721
41
  3.000000
42
  3.000000
43
  3.000000
0
INSERT
5
239
100
AcDbEntity
8
0
100
AcDbBlockReference
62
2
6
CONTINUOUS
2
_FILLED
10
-57.7087412113
20
25.6632624721
41
  3.000000
42
  3.000000
43
  3.000000
50
180.000000
0
ENDBLK
5
23A
100
AcDbEntity
8
0
6
BYBLOCK
62
0
100
AcDbBlockEnd
0
BLOCK
5
23B
100
AcDbEntity
8
0
100
AcDbBlockBegin
62
2
6
CONTINUOUS
2
*D3
70
65
10
0.0000000000
20
0.0000000000
3
*D3
1

0
TEXT
5
23C
100
AcDbEntity
8
0
100
AcDbText
62
2
6
CONTINUOUS
10
-41.0078666609
20
16.4132624721
7
STANDARD
40
3.0000000000
1
23,2
41
0.7142857143
72
0
100
AcDbText
0
LINE
5
23D
100
AcDbEntity
8
0
100
AcDbLine
62
2
6
CONTINUOUS
10
-25.1221523751
20
-7.2744725745
11
-25.1221523751
21
17.1632624721
0
LINE
5
23E
100
AcDbEntity
8
0
100
AcDbLine
62
2
6
CONTINUOUS
10
-48.3221523751
20
6.5630336200
11
-48.3221523751
21
17.1632624721
0
LINE
5
23F
100
AcDbEntity
8
0
100
AcDbLine
62
2
6
CONTINUOUS
10
-25.1221523751
20
15.6632624721
11
-36.7221523751
21
15.6632624721
0
LINE
5
240
100
AcDbEntity
8
0
100
AcDbLine
62
2
6
CONTINUOUS
10
-48.3221523751
20
15.6632624721
11
-36.7221523751
21
15.6632624721
0
INSERT
5
241
100
AcDbEntity
8
0
100
AcDbBlockReference
62
2
6
CONTINUOUS
2
_FILLED
10
-25.1221523751
20
15.6632624721
41
  3.000000
42
  3.000000
43
  3.000000
0
INSERT
5
242
100
AcDbEntity
8
0
100
AcDbBlockReference
62
2
6
CONTINUOUS
2
_FILLED
10
-48.3221523751
20
15.6632624721
41
  3.000000
42
  3.000000
43
  3.000000
50
180.000000
0
ENDBLK
5
243
100
AcDbEntity
8
0
6
BYBLOCK
62
0
100
AcDbBlockEnd
0
BLOCK
5
244
100
AcDbEntity
8
0
100
AcDbBlockBegin
2
_FILLED
70
64
10
0.0000000000
20
0.0000000000
3
_FILLED
1

0
SOLID
5
245
100
AcDbEntity
8
0
6
BYBLOCK
62
0
100
AcDbTrace
10
0.0000000000
20
0.0000000000
11
-1.0000000000
21
0.3166666667
12
-1.0000000000
22
-0.3166666667
13
-1.0000000000
23
-0.3166666667
0
ENDBLK
5
246
100
AcDbEntity
8
0
6
BYBLOCK
62
0
100
AcDbBlockEnd
0
ENDSEC
0
SECTION
2
ENTITIES
0
DIMENSION
5
247
100
AcDbEntity
8
0
100
AcDbDimension
62
2
6
CONTINUOUS
2
*D0
10
-3.3027129998
20
15.6632624721
11
7.8472870002
21
17.9132624721
70
160
3
DIMSTYLE_1
100
AcDbAlignedDimension
13
18.9972870002
23
6.5630336200
14
-3.3027129998
24
6.5630336200
50
180.000000
100
AcDbRotatedDimension
0
DIMENSION
5
248
100
AcDbEntity
8
0
100
AcDbDimension
62
2
6
CONTINUOUS
2
*D1
10
26.9972870002
20
-39.3367375279
11
24.7472870002
21
-15.8367375279
70
160
3
DIMSTYLE_1
100
AcDbAlignedDimension
13
11.3472870002
23
7.6632624721
14
12.3206243479
24
-39.3367375279
50
270.000000
100
AcDbRotatedDimension
0
DIMENSION
5
249
100
AcDbEntity
8
0
100
AcDbDimension
62
2
6
CONTINUOUS
2
*D2
10
-57.7087412113
20
25.6632624721
11
-41.4154467932
21
27.9132624721
70
160
3
DIMSTYLE_2
100
AcDbAlignedDimension
13
-25.1221523751
23
-7.2744725745
14
-57.7087412113
24
-4.6878736572
50
180.000000
100
AcDbRotatedDimension
0
DIMENSION
5
24A
100
AcDbEntity
8
0
100
AcDbDimension
62
2
6
CONTINUOUS
2
*D3
10
-48.3221523751
20
15.6632624721
11
-36.7221523751
21
17.9132624721
70
160
3
DIMSTYLE_1
100
AcDbAlignedDimension
13
-25.1221523751
23
-7.2744725745
14
-48.3221523751
24
6.5630336200
50
180.000000
100
AcDbRotatedDimension
0
LINE
5
24B
100
AcDbEntity
8
0
100
AcDbLine
62
7
6
CONTINUOUS
10
4.8472870002
20
-39.3367375279
11
5.0660086590
21
-39.2930998656
0
LINE
5
24C
100
AcDbEntity
8
0
100
AcDbLine
62
7
6
CONTINUOUS
10
11.8206243479
20
-39.3367375279
11
10.8472870002
21
-39.3367375279
0
LINE
5
24D
100
AcDbEntity
8
0
100
AcDbLine
62
7
6
CONTINUOUS
10
4.8472870002
20
-39.3367375279
11
3.8739496526
21
-39.3367375279
0
LINE
5
24E
100
AcDbEntity
8
0
100
AcDbLine
62
7
6
CONTINUOUS
10
5.0660086590
20
-39.2930998656
11
10.6285653414
21
-39.2930998656
0
LINE
5
24F
100
AcDbEntity
8
0
100
AcDbLine
62
7
6
CONTINUOUS
10
10.6285653414
20
-38.3677569761
11
5.0660086590
21
-38.3677569761
0
LINE
5
250
100
AcDbEntity
8
0
100
AcDbLine
62
7
6
CONTINUOUS
10
-2.8030935995
20
-38.2367375279
11
4.8472870002
21
-38.2367375279
0
LINE
5
251
100
AcDbEntity
8
0
100
AcDbLine
62
7
6
CONTINUOUS
10
10.8472870002
20
-38.2367375279
11
18.4976676000
21
-38.2367375279
0
LINE
5
252
100
AcDbEntity
8
0
100
AcDbLine
62
7
6
CONTINUOUS
10
10.8472870002
20
-39.3367375279
11
10.6285653414
21
-39.2930998656
0
LINE
5
253
100
AcDbEntity
8
0
100
AcDbLine
62
7
6
CONTINUOUS
10
4.8472870002
20
6.5632624721
11
5.0660086590
21
6.6942819203
0
LINE
5
254
100
AcDbEntity
8
0
100
AcDbLine
62
9
6
CONTINUOUS
10
18.3560851169
20
-37.8116446651
11
-2.6615111165
21
-37.8116446651
0
LINE
5
255
100
AcDbEntity
8
0
100
AcDbLine
62
9
6
CONTINUOUS
10
18.3478220627
20
-36.8550517589
11
-2.6532480623
21
-36.8550517589
0
LINE
5
256
100
AcDbEntity
8
0
100
AcDbLine
62
7
6
CONTINUOUS
10
5.0660086590
20
-38.3677569761
11
4.8472870002
21
-38.2367375279
0
LINE
5
257
100
AcDbEntity
8
0
100
AcDbLine
62
9
6
CONTINUOUS
10
5.1528217076
20
-29.0367375817
11
5.1056396963
21
-29.0367376736
0
LINE
5
258
100
AcDbEntity
8
0
100
AcDbLine
62
7
6
CONTINUOUS
10
-3.3027129998
20
6.0630336200
11
-3.3027129998
21
-37.7365086759
0
LINE
5
259
100
AcDbEntity
8
0
100
AcDbLine
62
9
6
CONTINUOUS
10
9.8997909556
20
-26.9120704789
11
9.8841513034
21
-26.9154921478
0
LINE
5
25A
100
AcDbEntity
8
0
100
AcDbLine
62
9
6
CONTINUOUS
10
9.8192019845
20
-26.3429985808
11
9.8033333859
21
-26.3436548717
0
LINE
5
25B
100
AcDbEntity
8
0
100
AcDbLine
62
9
6
CONTINUOUS
10
5.8753151619
20
-26.3428872650
11
5.8912406146
21
-26.3436548717
0
LINE
5
25C
100
AcDbEntity
8
0
100
AcDbLine
62
9
6
CONTINUOUS
10
5.7948760111
20
-26.9119712745
11
5.8104226971
21
-26.9154921478
0
LINE
5
25D
100
AcDbEntity
8
0
100
AcDbLine
62
9
6
CONTINUOUS
10
5.7506256949
20
-25.0367377030
11
5.6684387244
21
-25.0367378833
0
LINE
5
25E
100
AcDbEntity
8
0
100
AcDbLine
62
9
6
CONTINUOUS
10
-3.3027129998
20
-37.7365086759
11
-3.1614349641
21
-37.3123298978
0
LINE
5
25F
100
AcDbEntity
8
0
100
AcDbLine
62
9
6
CONTINUOUS
10
-3.1614349641
20
5.6388548419
11
-3.3027129998
21
6.0630336200
0
LINE
5
260
100
AcDbEntity
8
0
100
AcDbLine
62
7
6
CONTINUOUS
10
4.8472870002
20
-39.3367375279
11
4.8472870002
21
-38.2367375279
0
LINE
5
261
100
AcDbEntity
8
0
100
AcDbLine
62
7
6
CONTINUOUS
10
4.8472870002
20
6.5632624721
11
4.8472870002
21
7.6632624721
0
LINE
5
262
100
AcDbEntity
8
0
100
AcDbLine
62
7
6
CONTINUOUS
10
5.0660086590
20
-39.2930998656
11
5.0660086590
21
-38.3677569761
0
LINE
5
263
100
AcDbEntity
8
0
100
AcDbLine
62
7
6
CONTINUOUS
10
5.0660086590
20
6.6942819203
11
5.0660086590
21
7.6196248097
0
LINE
5
264
100
AcDbEntity
8
0
100
AcDbLine
62
3
6
CONTINUOUS
10
5.3472870002
20
-15.6420678808
11
5.3472870002
21
-16.0315823159
0
LINE
5
265
100
AcDbEntity
8
0
100
AcDbLine
62
7
6
CONTINUOUS
10
5.1088163514
20
-2.6021031259
11
5.1059902056
21
-3.0525865739
0
LINE
5
266
100
AcDbEntity
8
0
100
AcDbLine
62
7
6
CONTINUOUS
10
6.0194427288
20
-7.5602196184
11
6.0790370686
21
-0.7313846720
0
LINE
5
267
100
AcDbEntity
8
0
100
AcDbLine
62
9
6
CONTINUOUS
10
-2.8030935995
20
-38.2367375279
11
-2.6615111165
21
-37.8116446651
0
LINE
5
268
100
AcDbEntity
8
0
100
AcDbLine
62
9
6
CONTINUOUS
10
-2.6615111165
20
6.1381696093
11
-2.8030935995
21
6.5632624721
0
LINE
5
269
100
AcDbEntity
8
0
100
AcDbLine
62
3
6
CONTINUOUS
10
7.3472870002
20
-16.3367375279
11
7.3472870002
21
-17.3872812318
0
LINE
5
26A
100
AcDbEntity
8
0
100
AcDbLine
62
9
6
CONTINUOUS
10
7.3472870002
20
-16.2367375279
11
7.3472870002
21
-16.3367375279
0
LINE
5
26B
100
AcDbEntity
8
0
100
AcDbLine
62
9
6
CONTINUOUS
10
7.8472870002
20
-13.0867375279
11
7.8472870002
21
-14.2367375279
0
LINE
5
26C
100
AcDbEntity
8
0
100
AcDbLine
62
9
6
CONTINUOUS
10
7.8472870002
20
-17.4367375279
11
7.8472870002
21
-18.5867375279
0
LINE
5
26D
100
AcDbEntity
8
0
100
AcDbLine
62
7
6
CONTINUOUS
10
5.1997041947
20
-27.9297292736
11
5.1254928740
21
-28.4438803851
0
LINE
5
26E
100
AcDbEntity
8
0
100
AcDbLine
62
7
6
CONTINUOUS
10
5.1253101371
20
-29.2208217981
11
5.3799287661
21
-27.5171287706
0
LINE
5
26F
100
AcDbEntity
8
0
100
AcDbLine
62
7
6
CONTINUOUS
10
5.6654434248
20
-25.6067055807
11
5.8400489282
21
-24.4383928776
0
LINE
5
270
100
AcDbEntity
8
0
100
AcDbLine
62
7
6
CONTINUOUS
10
5.1297603530
20
-29.2485479952
11
5.3918068692
21
-27.4952531587
0
LINE
5
271
100
AcDbEntity
8
0
100
AcDbLine
62
7
6
CONTINUOUS
10
5.6695434223
20
-25.6369797823
11
5.8532686567
21
-24.4077151870
0
LINE
5
272
100
AcDbEntity
8
0
100
AcDbLine
62
9
6
CONTINUOUS
10
5.3483218135
20
-16.6090745543
11
5.5044127066
21
-16.4773333855
0
LINE
5
273
100
AcDbEntity
8
0
100
AcDbLine
62
9
6
CONTINUOUS
10
5.2956635260
20
-16.4997907828
11
5.4497303047
21
-16.3861748606
0
LINE
5
274
100
AcDbEntity
8
0
100
AcDbLine
62
9
6
CONTINUOUS
10
5.2956635260
20
-16.4997907828
11
5.1945969779
21
-16.5562852174
0
LINE
5
275
100
AcDbEntity
8
0
100
AcDbLine
62
7
6
CONTINUOUS
10
5.3483218135
20
-16.6090745543
11
5.2242393777
21
-16.6598371936
0
LINE
5
276
100
AcDbEntity
8
0
100
AcDbLine
62
9
6
CONTINUOUS
10
5.6587323619
20
-15.3419342757
11
5.7354815588
21
-15.3200708613
0
LINE
5
277
100
AcDbEntity
8
0
100
AcDbLine
62
9
6
CONTINUOUS
10
10.4776312798
20
-15.3167894240
11
10.2959888676
21
-15.3588977985
0
LINE
5
278
100
AcDbEntity
8
0
100
AcDbLine
62
3
6
CONTINUOUS
10
9.4816173520
20
-16.8467375279
11
8.5472870002
21
-16.8467375279
0
LINE
5
279
100
AcDbEntity
8
0
100
AcDbLine
62
3
6
CONTINUOUS
10
9.4821298829
20
-16.8367375279
11
8.7472870002
21
-16.8367375279
0
LINE
5
27A
100
AcDbEntity
8
0
100
AcDbLine
62
3
6
CONTINUOUS
10
9.4816173520
20
-16.8267375279
11
8.5472870002
21
-16.8267375279
0
LINE
5
27B
100
AcDbEntity
8
0
100
AcDbLine
62
3
6
CONTINUOUS
10
7.3472870002
20
-16.3367375279
11
8.5472870002
21
-16.3367375279
0
LINE
5
27C
100
AcDbEntity
8
0
100
AcDbLine
62
9
6
CONTINUOUS
10
8.5472870002
20
-16.2767375279
11
9.4816173520
21
-16.2767375279
0
LINE
5
27D
100
AcDbEntity
8
0
100
AcDbLine
62
9
6
CONTINUOUS
10
8.5472870002
20
-16.2367375279
11
7.3472870002
21
-16.2367375279
0
LINE
5
27E
100
AcDbEntity
8
0
100
AcDbLine
62
9
6
CONTINUOUS
10
10.4776312798
20
-16.3566856319
11
10.2959888676
21
-16.3145772574
0
LINE
5
27F
100
AcDbEntity
8
0
100
AcDbLine
62
9
6
CONTINUOUS
10
9.8979413033
20
-16.3336955434
11
9.9597799021
21
-16.3509387891
0
LINE
5
280
100
AcDbEntity
8
0
100
AcDbLine
62
9
6
CONTINUOUS
10
5.7161606126
20
-16.4096747910
11
5.7939181330
21
-16.4316282123
0
LINE
5
281
100
AcDbEntity
8
0
100
AcDbLine
62
9
6
CONTINUOUS
10
5.6587323619
20
-16.3315407802
11
5.7354815588
21
-16.3534041946
0
LINE
5
282
100
AcDbEntity
8
0
100
AcDbLine
62
7
6
CONTINUOUS
10
5.3483218135
20
-15.0644005016
11
5.2242393777
21
-15.0136378623
0
LINE
5
283
100
AcDbEntity
8
0
100
AcDbLine
62
9
6
CONTINUOUS
10
5.2956635260
20
-15.1736842731
11
5.1945969779
21
-15.1171898385
0
LINE
5
284
100
AcDbEntity
8
0
100
AcDbLine
62
9
6
CONTINUOUS
10
5.2956635260
20
-15.1736842731
11
5.4497303047
21
-15.2873001952
0
LINE
5
285
100
AcDbEntity
8
0
100
AcDbLine
62
9
6
CONTINUOUS
10
5.3483218135
20
-15.0644005016
11
5.5044127066
21
-15.1961416704
0
LINE
5
286
100
AcDbEntity
8
0
100
AcDbLine
62
7
6
CONTINUOUS
10
5.1254928740
20
-3.2295946708
11
5.1997041947
21
-3.7437457822
0
LINE
5
287
100
AcDbEntity
8
0
100
AcDbLine
62
7
6
CONTINUOUS
10
8.2840925496
20
-17.3994906262
11
8.2840925496
21
-16.3367375279
0
LINE
5
288
100
AcDbEntity
8
0
100
AcDbLine
62
7
6
CONTINUOUS
10
8.3472870002
20
-16.3367375279
11
8.3472870002
21
-17.3871983207
0
LINE
5
289
100
AcDbEntity
8
0
100
AcDbLine
62
7
6
CONTINUOUS
10
8.5472870002
20
-17.3398398156
11
8.5472870002
21
-16.8467375279
0
LINE
5
28A
100
AcDbEntity
8
0
100
AcDbLine
62
9
6
CONTINUOUS
10
8.5472870002
20
-16.2767375279
11
8.5472870002
21
-16.2367375279
0
LINE
5
28B
100
AcDbEntity
8
0
100
AcDbLine
62
3
6
CONTINUOUS
10
8.5472870002
20
-16.2767375279
11
8.5472870002
21
-16.8267375279
0
LINE
5
28C
100
AcDbEntity
8
0
100
AcDbLine
62
9
6
CONTINUOUS
10
9.4816173520
20
-16.2767375279
11
9.4816173520
21
-16.8267375279
0
LINE
5
28D
100
AcDbEntity
8
0
100
AcDbLine
62
9
6
CONTINUOUS
10
9.4816173520
20
-16.8367375279
11
9.4816173520
21
-16.8576548232
0
LINE
5
28E
100
AcDbEntity
8
0
100
AcDbLine
62
7
6
CONTINUOUS
10
9.6751312716
20
-24.1132554375
11
9.6155369318
21
-30.9420903839
0
LINE
5
28F
100
AcDbEntity
8
0
100
AcDbLine
62
7
6
CONTINUOUS
10
10.4948698057
20
-3.7437457822
11
10.5690811264
21
-3.2295946708
0
LINE
5
290
100
AcDbEntity
8
0
100
AcDbLine
62
7
6
CONTINUOUS
10
10.5648136474
20
-2.4249270607
11
10.3027671312
21
-4.1782218972
0
LINE
5
291
100
AcDbEntity
8
0
100
AcDbLine
62
7
6
CONTINUOUS
10
10.0250305781
20
-6.0364952736
11
9.8413053438
21
-7.2657598689
0
LINE
5
292
100
AcDbEntity
8
0
100
AcDbLine
62
7
6
CONTINUOUS
10
10.5692638633
20
-2.4526532578
11
10.3146452343
21
-4.1563462853
0
LINE
5
293
100
AcDbEntity
8
0
100
AcDbLine
62
7
6
CONTINUOUS
10
10.0291305756
20
-6.0667694752
11
9.8545250723
21
-7.2350821782
0
LINE
5
294
100
AcDbEntity
8
0
100
AcDbLine
62
9
6
CONTINUOUS
10
10.4776312798
20
-15.3167894240
11
10.5373437015
21
-15.2742689548
0
LINE
5
295
100
AcDbEntity
8
0
100
AcDbLine
62
9
6
CONTINUOUS
10
10.3611503150
20
-15.1016023928
11
10.1777471880
21
-15.1777318382
0
LINE
5
296
100
AcDbEntity
8
0
100
AcDbLine
62
7
6
CONTINUOUS
10
10.3611503150
20
-15.1016023928
11
10.4819625046
21
-15.0542583976
0
LINE
5
297
100
AcDbEntity
8
0
100
AcDbLine
62
9
6
CONTINUOUS
10
10.0495785891
20
-16.3228270740
11
9.9590924416
21
-16.3534041946
0
LINE
5
298
100
AcDbEntity
8
0
100
AcDbLine
62
9
6
CONTINUOUS
10
9.9289483803
20
-16.4791999490
11
9.8375851232
21
-16.5096730861
0
LINE
5
299
100
AcDbEntity
8
0
100
AcDbLine
62
9
6
CONTINUOUS
10
5.7161606126
20
-15.2638002649
11
5.7939181317
21
-15.2418468439
0
LINE
5
29A
100
AcDbEntity
8
0
100
AcDbLine
62
9
6
CONTINUOUS
10
9.9289483803
20
-15.1942751069
11
9.8375851232
21
-15.1638019698
0
LINE
5
29B
100
AcDbEntity
8
0
100
AcDbLine
62
9
6
CONTINUOUS
10
10.0495785891
20
-15.3506479818
11
9.9590924416
21
-15.3200708613
0
LINE
5
29C
100
AcDbEntity
8
0
100
AcDbLine
62
7
6
CONTINUOUS
10
10.3611503150
20
-16.5718726631
11
10.4819625046
21
-16.6192166583
0
LINE
5
29D
100
AcDbEntity
8
0
100
AcDbLine
62
9
6
CONTINUOUS
10
10.3611503150
20
-16.5718726631
11
10.1777471880
21
-16.4957432177
0
LINE
5
29E
100
AcDbEntity
8
0
100
AcDbLine
62
9
6
CONTINUOUS
10
10.4776312798
20
-16.3566856319
11
10.5373437015
21
-16.3992061011
0
LINE
5
29F
100
AcDbEntity
8
0
100
AcDbLine
62
7
6
CONTINUOUS
10
10.5690811264
20
-28.4438803851
11
10.4948698057
21
-27.9297292736
0
LINE
5
2A0
100
AcDbEntity
8
0
100
AcDbLine
62
7
6
CONTINUOUS
10
10.6285653414
20
-39.2930998656
11
10.6285653414
21
-38.3677569761
0
LINE
5
2A1
100
AcDbEntity
8
0
100
AcDbLine
62
7
6
CONTINUOUS
10
10.6285653414
20
6.6942819203
11
10.6285653414
21
7.6196248097
0
LINE
5
2A2
100
AcDbEntity
8
0
100
AcDbLine
62
7
6
CONTINUOUS
10
10.8472870002
20
-39.3367375279
11
10.8472870002
21
-38.2367375279
0
LINE
5
2A3
100
AcDbEntity
8
0
100
AcDbLine
62
7
6
CONTINUOUS
10
10.8472870002
20
6.5632624721
11
10.8472870002
21
7.6632624721
0
LINE
5
2A4
100
AcDbEntity
8
0
100
AcDbLine
62
7
6
CONTINUOUS
10
10.5857576490
20
-29.0713719300
11
10.5885837948
21
-28.6208884820
0
LINE
5
2A5
100
AcDbEntity
8
0
100
AcDbLine
62
9
6
CONTINUOUS
10
9.8979413033
20
-16.3336955434
11
9.8545698287
21
-16.4892365163
0
LINE
5
2A6
100
AcDbEntity
8
0
100
AcDbLine
62
9
6
CONTINUOUS
10
18.3560851169
20
6.1381696093
11
18.4976676000
21
6.5632624721
0
LINE
5
2A7
100
AcDbEntity
8
0
100
AcDbLine
62
9
6
CONTINUOUS
10
18.8560089645
20
5.6388548419
11
18.9972870002
21
6.0630336200
0
LINE
5
2A8
100
AcDbEntity
8
0
100
AcDbLine
62
9
6
CONTINUOUS
10
18.4976676000
20
-38.2367375279
11
18.3560851169
21
-37.8116446651
0
LINE
5
2A9
100
AcDbEntity
8
0
100
AcDbLine
62
9
6
CONTINUOUS
10
18.9972870002
20
-37.7365086759
11
18.8560089645
21
-37.3123298978
0
LINE
5
2AA
100
AcDbEntity
8
0
100
AcDbLine
62
9
6
CONTINUOUS
10
5.8753720159
20
-5.3304764751
11
5.8912406146
21
-5.3298201842
0
LINE
5
2AB
100
AcDbEntity
8
0
100
AcDbLine
62
9
6
CONTINUOUS
10
9.9439483056
20
-6.6367373529
11
10.0261352760
21
-6.6367371726
0
LINE
5
2AC
100
AcDbEntity
8
0
100
AcDbLine
62
9
6
CONTINUOUS
10
9.8192588386
20
-5.3305877909
11
9.8033333859
21
-5.3298201842
0
LINE
5
2AD
100
AcDbEntity
8
0
100
AcDbLine
62
7
6
CONTINUOUS
10
18.9972870002
20
-37.7365086759
11
18.9972870002
21
6.0630336200
0
LINE
5
2AE
100
AcDbEntity
8
0
100
AcDbLine
62
9
6
CONTINUOUS
10
5.7947830448
20
-4.7614045770
11
5.8104226971
21
-4.7579829080
0
LINE
5
2AF
100
AcDbEntity
8
0
100
AcDbLine
62
9
6
CONTINUOUS
10
9.8996979894
20
-4.7615037814
11
9.8841513034
21
-4.7579829080
0
LINE
5
2B0
100
AcDbEntity
8
0
100
AcDbLine
62
9
6
CONTINUOUS
10
10.5417522928
20
-2.6367374742
11
10.5889343041
21
-2.6367373823
0
LINE
5
2B1
100
AcDbEntity
8
0
100
AcDbLine
62
7
6
CONTINUOUS
10
10.6285653414
20
-38.3677569761
11
10.8472870002
21
-38.2367375279
0
LINE
5
2B2
100
AcDbEntity
8
0
100
AcDbLine
62
9
6
CONTINUOUS
10
-2.6532480623
20
5.1815767030
11
18.3478220627
21
5.1815767030
0
LINE
5
2B3
100
AcDbEntity
8
0
100
AcDbLine
62
7
6
CONTINUOUS
10
10.8472870002
20
6.5632624721
11
10.6285653414
21
6.6942819203
0
LINE
5
2B4
100
AcDbEntity
8
0
100
AcDbLine
62
7
6
CONTINUOUS
10
10.8472870002
20
7.6632624721
11
10.6285653414
21
7.6196248097
0
LINE
5
2B5
100
AcDbEntity
8
0
100
AcDbLine
62
9
6
CONTINUOUS
10
-2.6615111165
20
6.1381696093
11
18.3560851169
21
6.1381696093
0
LINE
5
2B6
100
AcDbEntity
8
0
100
AcDbLine
62
7
6
CONTINUOUS
10
-2.8030935995
20
6.5632624721
11
4.8472870002
21
6.5632624721
0
LINE
5
2B7
100
AcDbEntity
8
0
100
AcDbLine
62
7
6
CONTINUOUS
10
10.8472870002
20
6.5632624721
11
18.4976676000
21
6.5632624721
0
LINE
5
2B8
100
AcDbEntity
8
0
100
AcDbLine
62
7
6
CONTINUOUS
10
10.6285653414
20
6.6942819203
11
5.0660086590
21
6.6942819203
0
LINE
5
2B9
100
AcDbEntity
8
0
100
AcDbLine
62
7
6
CONTINUOUS
10
4.8472870002
20
7.6632624721
11
5.0660086590
21
7.6196248097
0
LINE
5
2BA
100
AcDbEntity
8
0
100
AcDbLine
62
7
6
CONTINUOUS
10
5.0660086590
20
7.6196248097
11
10.6285653414
21
7.6196248097
0
LINE
5
2BB
100
AcDbEntity
8
0
100
AcDbLine
62
7
6
CONTINUOUS
10
3.8739496526
20
7.6632624721
11
4.8472870002
21
7.6632624721
0
LINE
5
2BC
100
AcDbEntity
8
0
100
AcDbLine
62
7
6
CONTINUOUS
10
10.8472870002
20
7.6632624721
11
11.8206243479
21
7.6632624721
0
LINE
5
2BD
100
AcDbEntity
8
0
100
AcDbLine
62
7
6
CONTINUOUS
10
-48.3221523751
20
-39.3367375279
11
-44.3221523751
21
-39.2669172682
0
LINE
5
2BE
100
AcDbEntity
8
0
100
AcDbLine
62
7
6
CONTINUOUS
10
-48.3221523751
20
-38.2367375279
11
-56.4334073951
21
-37.8116446651
0
LINE
5
2BF
100
AcDbEntity
8
0
100
AcDbLine
62
7
6
CONTINUOUS
10
-42.2144786954
20
-38.0323071269
11
-42.7221523751
21
-38.0367375279
0
LINE
5
2C0
100
AcDbEntity
8
0
100
AcDbLine
62
7
6
CONTINUOUS
10
-44.3221523751
20
-37.0507005164
11
-40.4558454813
21
-37.0169597673
0
LINE
5
2C1
100
AcDbEntity
8
0
100
AcDbLine
62
7
6
CONTINUOUS
10
-39.8555831677
20
-36.6703981590
11
-48.3221523751
21
-36.7367375279
0
LINE
5
2C2
100
AcDbEntity
8
0
100
AcDbLine
62
9
6
CONTINUOUS
10
-48.3221523751
20
-37.7365086759
11
-56.4159656202
21
-37.3123298978
0
LINE
5
2C3
100
AcDbEntity
8
0
100
AcDbLine
62
9
6
CONTINUOUS
10
-57.3801874984
20
-36.8550517584
11
-56.8893556772
21
-36.8340334446
0
LWPOLYLINE
5
2C4
100
AcDbEntity
8
0
100
AcDbPolyline
62
7
6
CONTINUOUS
90
17
70
0
10
-38.6225071686
20
-34.6902214651
10
-38.6136682855
20
-34.6899760578
10
-38.5594747718
20
-34.6851102560
10
-38.5060584162
20
-34.6744630512
10
-38.4540349330
20
-34.6581512766
10
-38.4039850018
20
-34.6363534836
10
-38.3564695056
20
-34.6092571865
10
-38.3120532051
20
-34.5771829400
10
-38.2713166439
20
-34.5405340073
10
-38.2347557458
20
-34.4997055837
10
-38.2027676093
20
-34.4551906908
10
-38.1757545034
20
-34.4075723579
10
-38.1540373699
20
-34.3574094094
10
-38.1378084804
20
-34.3052591654
10
-38.1272498774
20
-34.2517134945
10
-38.1224812339
20
-34.1973875792
10
-38.1222801311
20
-34.1899983704
0
LINE
5
2C5
100
AcDbEntity
8
0
100
AcDbLine
62
7
6
CONTINUOUS
10
-41.1270225397
20
-34.7376098860
11
-38.6225060810
21
-34.6902800062
0
LINE
5
2C6
100
AcDbEntity
8
0
100
AcDbLine
62
7
6
CONTINUOUS
10
-43.7111378612
20
-34.7850314683
11
-41.1270225397
21
-34.7376098860
0
LINE
5
2C7
100
AcDbEntity
8
0
100
AcDbLine
62
7
6
CONTINUOUS
10
-45.9222007918
20
-34.8244705658
11
-43.7111378612
21
-34.7850314683
0
LINE
5
2C8
100
AcDbEntity
8
0
100
AcDbLine
62
7
6
CONTINUOUS
10
-38.6232516479
20
-34.6971161964
11
-45.9221523751
21
-34.8245189825
0
LINE
5
2C9
100
AcDbEntity
8
0
100
AcDbLine
62
7
6
CONTINUOUS
10
-38.3221523751
20
-35.0240062058
11
-48.3221523751
21
-34.9367375279
0
LINE
5
2CA
100
AcDbEntity
8
0
100
AcDbLine
62
7
6
CONTINUOUS
10
-46.5063057215
20
3.2791091257
11
-46.5694315958
21
3.2159832514
0
LINE
5
2CB
100
AcDbEntity
8
0
100
AcDbLine
62
7
6
CONTINUOUS
10
-48.3221523751
20
-34.1374299478
11
-46.6221523751
21
-34.0570877652
0
LWPOLYLINE
5
2CC
100
AcDbEntity
8
0
100
AcDbPolyline
62
7
6
CONTINUOUS
90
9
70
0
10
-36.0951397730
20
-33.6013586390
10
-36.0814366463
20
-33.6009115421
10
-36.0659211770
20
-33.6001575182
10
-36.0519759410
20
-33.5992733690
10
-36.0388481639
20
-33.5982622394
10
-36.0249718092
20
-33.5970072949
10
-36.0098635826
20
-33.5954178993
10
-35.9939769115
20
-33.5934885150
10
-35.9771594614
20
-33.5911525233
0
LINE
5
2CD
100
AcDbEntity
8
0
100
AcDbLine
62
7
6
CONTINUOUS
10
-36.1048005400
20
-33.6015923340
11
-36.0945869951
21
-33.6013462426
0
LINE
5
2CE
100
AcDbEntity
8
0
100
AcDbLine
62
7
6
CONTINUOUS
10
-27.1046999687
20
-33.4444271808
11
-36.1013231644
21
-33.6014638229
0
LINE
5
2CF
100
AcDbEntity
8
0
100
AcDbLine
62
7
6
CONTINUOUS
10
-36.1046999687
20
-33.6015227652
11
-38.1223305832
21
-33.6367406386
0
LINE
5
2D0
100
AcDbEntity
8
0
100
AcDbLine
62
9
6
CONTINUOUS
10
-38.6200968986
20
-32.8567052208
11
-36.0985152155
21
-32.8126897135
0
LINE
5
2D1
100
AcDbEntity
8
0
100
AcDbLine
62
9
6
CONTINUOUS
10
-46.6221523751
20
-32.9942528944
11
-48.3221523751
21
-33.0041224984
0
LINE
5
2D2
100
AcDbEntity
8
0
100
AcDbLine
62
7
6
CONTINUOUS
10
-46.5694315958
20
-34.8894583073
11
-46.5063057215
21
-34.9525841816
0
LINE
5
2D3
100
AcDbEntity
8
0
100
AcDbLine
62
9
6
CONTINUOUS
10
-46.2526753144
20
3.2813225248
11
-46.4107764645
21
3.1232213746
0
LINE
5
2D4
100
AcDbEntity
8
0
100
AcDbLine
62
7
6
CONTINUOUS
10
-45.9590149898
20
3.1141813120
11
-45.9221523751
21
3.1510439266
0
LINE
5
2D5
100
AcDbEntity
8
0
100
AcDbLine
62
9
6
CONTINUOUS
10
-36.1046999687
20
-31.1536877803
11
-46.6221523751
21
-31.3372705949
0
LINE
5
2D6
100
AcDbEntity
8
0
100
AcDbLine
62
9
6
CONTINUOUS
10
-46.6221523751
20
-32.3809278315
11
-48.3221523751
21
-32.3910949879
0
LINE
5
2D7
100
AcDbEntity
8
0
100
AcDbLine
62
7
6
CONTINUOUS
10
-35.1221523751
20
-31.9761336889
11
-34.9221523751
21
-31.9761335279
0
LINE
5
2D8
100
AcDbEntity
8
0
100
AcDbLine
62
7
6
CONTINUOUS
10
-35.1221523751
20
-31.9630459255
11
-34.9221523751
21
-31.9630455279
0
LINE
5
2D9
100
AcDbEntity
8
0
100
AcDbLine
62
9
6
CONTINUOUS
10
-26.1221523751
20
-31.9446556406
11
-27.1046999687
21
-31.9446556371
0
LINE
5
2DA
100
AcDbEntity
8
0
100
AcDbLine
62
7
6
CONTINUOUS
10
-35.1221523751
20
-31.8859735279
11
-34.9221523751
21
-31.8859735279
0
LINE
5
2DB
100
AcDbEntity
8
0
100
AcDbLine
62
7
6
CONTINUOUS
10
-35.1221523751
20
-31.2637585279
11
-34.9221523751
21
-31.2637585279
0
LINE
5
2DC
100
AcDbEntity
8
0
100
AcDbLine
62
9
6
CONTINUOUS
10
-36.1046999687
20
-31.1536877803
11
-35.1221523751
21
-31.1536877803
0
LINE
5
2DD
100
AcDbEntity
8
0
100
AcDbLine
62
7
6
CONTINUOUS
10
-35.1221523751
20
-30.9487424901
11
-34.9221523751
21
-30.9487425279
0
LINE
5
2DE
100
AcDbEntity
8
0
100
AcDbLine
62
9
6
CONTINUOUS
10
-46.4107764645
20
-34.7966964305
11
-46.2526753144
21
-34.9547975806
0
LINE
5
2DF
100
AcDbEntity
8
0
100
AcDbLine
62
7
6
CONTINUOUS
10
-45.9222053336
20
-34.8244660240
11
-45.9590149898
21
-34.7876563679
0
LINE
5
2E0
100
AcDbEntity
8
0
100
AcDbLine
62
7
6
CONTINUOUS
10
-25.4169166532
20
-29.5744275926
11
-26.1221523751
21
-29.5867375279
0
LINE
5
2E1
100
AcDbEntity
8
0
100
AcDbLine
62
7
6
CONTINUOUS
10
-35.1221523751
20
-30.7622415279
11
-34.9221523751
21
-30.7622415279
0
LINE
5
2E2
100
AcDbEntity
8
0
100
AcDbLine
62
7
6
CONTINUOUS
10
-35.1221523751
20
-30.2971361444
11
-34.9221523751
21
-30.2971361444
0
LINE
5
2E3
100
AcDbEntity
8
0
100
AcDbLine
62
7
6
CONTINUOUS
10
-35.1221523751
20
-29.5263546543
11
-34.9221523751
21
-29.5263545279
0
LINE
5
2E4
100
AcDbEntity
8
0
100
AcDbLine
62
7
6
CONTINUOUS
10
-34.9221523751
20
-29.5031544599
11
-35.1221523751
21
-29.5031544599
0
LINE
5
2E5
100
AcDbEntity
8
0
100
AcDbLine
62
7
6
CONTINUOUS
10
-35.1221523751
20
-28.8799635279
11
-34.9221523751
21
-28.8799635279
0
LINE
5
2E6
100
AcDbEntity
8
0
100
AcDbLine
62
7
6
CONTINUOUS
10
-35.1221523751
20
-28.4242538195
11
-34.9221523751
21
-28.4242535279
0
LINE
5
2E7
100
AcDbEntity
8
0
100
AcDbLine
62
7
6
CONTINUOUS
10
-35.1221523751
20
-27.8078555279
11
-34.9221523751
21
-27.8078555279
0
LINE
5
2E8
100
AcDbEntity
8
0
100
AcDbLine
62
7
6
CONTINUOUS
10
-35.1221523751
20
-27.4339445279
11
-34.9221523751
21
-27.4339445279
0
LINE
5
2E9
100
AcDbEntity
8
0
100
AcDbLine
62
7
6
CONTINUOUS
10
-35.1221523751
20
-27.1836408234
11
-34.9221523751
21
-27.1836405279
0
LINE
5
2EA
100
AcDbEntity
8
0
100
AcDbLine
62
7
6
CONTINUOUS
10
-35.1221523751
20
-27.0478552318
11
-34.9221523751
21
-27.0478555279
0
LINE
5
2EB
100
AcDbEntity
8
0
100
AcDbLine
62
7
6
CONTINUOUS
10
-26.1221523751
20
-23.5867375279
11
-25.4169166532
21
-23.5990474633
0
LINE
5
2EC
100
AcDbEntity
8
0
100
AcDbLine
62
7
6
CONTINUOUS
10
-48.3221523751
20
6.8703399725
11
-48.3221523751
21
7.6632624721
0
LINE
5
2ED
100
AcDbEntity
8
0
100
AcDbLine
62
7
6
CONTINUOUS
10
-48.3221523751
20
6.8264290940
11
-48.3221523751
21
-39.3367375279
0
LINE
5
2EE
100
AcDbEntity
8
0
100
AcDbLine
62
7
6
CONTINUOUS
10
-34.1396030627
20
-22.5695870659
11
-27.1046999687
21
-22.4467923756
0
LINE
5
2EF
100
AcDbEntity
8
0
100
AcDbLine
62
7
6
CONTINUOUS
10
-46.6221523751
20
-34.8009199789
11
-46.6221523751
21
-34.1210974769
0
LINE
5
2F0
100
AcDbEntity
8
0
100
AcDbLine
62
7
6
CONTINUOUS
10
-46.6221523751
20
3.1274449230
11
-46.6221523751
21
-34.0570570829
0
LINE
5
2F1
100
AcDbEntity
8
0
100
AcDbLine
62
9
6
CONTINUOUS
10
-42.9488209214
20
3.0991442330
11
-42.9115532399
21
3.3104800554
0
LINE
5
2F2
100
AcDbEntity
8
0
100
AcDbLine
62
7
6
CONTINUOUS
10
-41.9539088552
20
3.0817779783
11
-41.9120444821
21
3.3192026362
0
LINE
5
2F3
100
AcDbEntity
8
0
100
AcDbLine
62
9
6
CONTINUOUS
10
-26.1221523751
20
-20.9470208496
11
-27.1046999687
21
-20.9470208471
0
LINE
5
2F4
100
AcDbEntity
8
0
100
AcDbLine
62
9
6
CONTINUOUS
10
-42.9465153258
20
-34.9836500018
11
-42.9836186339
21
-34.7732266852
0
LINE
5
2F5
100
AcDbEntity
8
0
100
AcDbLine
62
7
6
CONTINUOUS
10
-41.9120444821
20
-34.9926776920
11
-41.9539088552
21
-34.7552530342
0
LINE
5
2F6
100
AcDbEntity
8
0
100
AcDbLine
62
7
6
CONTINUOUS
10
-44.8221523751
20
3.2938065093
11
-44.8221523751
21
3.1318433552
0
LINE
5
2F7
100
AcDbEntity
8
0
100
AcDbLine
62
7
6
CONTINUOUS
10
-44.3221523751
20
7.5934422123
11
-44.3221523751
21
5.3772254605
0
LINE
5
2F8
100
AcDbEntity
8
0
100
AcDbLine
62
7
6
CONTINUOUS
10
-44.3221523751
20
-37.0507005164
11
-44.3221523751
21
-39.2669172682
0
LINE
5
2F9
100
AcDbEntity
8
0
100
AcDbLine
62
7
6
CONTINUOUS
10
-26.1655294339
20
-18.0374946773
11
-25.4169166532
21
-18.0244275926
0
LINE
5
2FA
100
AcDbEntity
8
0
100
AcDbLine
62
9
6
CONTINUOUS
10
-26.3176418368
20
-17.7401955006
11
-25.4169166532
21
-17.7244732841
0
LINE
5
2FB
100
AcDbEntity
8
0
100
AcDbLine
62
9
6
CONTINUOUS
10
-25.1221523751
20
-17.7244732841
11
-25.4169166532
21
-17.7244732841
0
LINE
5
2FC
100
AcDbEntity
8
0
100
AcDbLine
62
9
6
CONTINUOUS
10
-38.6226902721
20
-34.6895851280
11
-38.6225072301
21
-34.6902214662
0
LINE
5
2FD
100
AcDbEntity
8
0
100
AcDbLine
62
7
6
CONTINUOUS
10
-42.7046946509
20
5.3631101208
11
-42.7221523751
21
6.3632624721
0
LINE
5
2FE
100
AcDbEntity
8
0
100
AcDbLine
62
7
6
CONTINUOUS
10
-42.7046946509
20
-37.0365851767
11
-42.7221523751
21
-38.0367375279
0
LINE
5
2FF
100
AcDbEntity
8
0
100
AcDbLine
62
7
6
CONTINUOUS
10
-38.3221523751
20
4.1115964222
11
-38.3221523751
21
3.3505311500
0
LINE
5
300
100
AcDbEntity
8
0
100
AcDbLine
62
7
6
CONTINUOUS
10
-38.3221523751
20
-35.0240062058
11
-38.3221523751
21
-35.7850714781
0
LINE
5
301
100
AcDbEntity
8
0
100
AcDbLine
62
7
6
CONTINUOUS
10
-38.1221523751
20
-34.1797350710
11
-38.1221523751
21
-33.6367375279
0
LINE
5
302
100
AcDbEntity
8
0
100
AcDbLine
62
7
6
CONTINUOUS
10
-38.1221523751
20
2.5137188160
11
-38.1221523751
21
1.9632624721
0
LINE
5
303
100
AcDbEntity
8
0
100
AcDbLine
62
7
6
CONTINUOUS
10
-38.1222554045
20
-34.1899819347
11
-38.1221523751
21
-34.1797350822
0
LINE
5
304
100
AcDbEntity
8
0
100
AcDbLine
62
9
6
CONTINUOUS
10
-25.1221523751
20
-12.3490017718
11
-25.4169166532
21
-12.3490017718
0
LINE
5
305
100
AcDbEntity
8
0
100
AcDbLine
62
9
6
CONTINUOUS
10
-25.4169166532
20
-12.3490017718
11
-26.3176418368
21
-12.3332795552
0
LINE
5
306
100
AcDbEntity
8
0
100
AcDbLine
62
7
6
CONTINUOUS
10
-25.4169166532
20
-12.0490474633
11
-26.1655294339
21
-12.0359803786
0
LINE
5
307
100
AcDbEntity
8
0
100
AcDbLine
62
7
6
CONTINUOUS
10
-34.9221523751
20
-22.9694347911
11
-34.9221523751
21
-28.4242537746
0
LINE
5
308
100
AcDbEntity
8
0
100
AcDbLine
62
7
6
CONTINUOUS
10
-34.9221523751
20
-28.8799635279
11
-34.9221523751
21
-29.5031633682
0
LINE
5
309
100
AcDbEntity
8
0
100
AcDbLine
62
7
6
CONTINUOUS
10
-34.9221523751
20
-29.5263546618
11
-34.9221523751
21
-31.9630459300
0
LINE
5
30A
100
AcDbEntity
8
0
100
AcDbLine
62
7
6
CONTINUOUS
10
-34.9221523751
20
-31.9735025727
11
-34.9221523751
21
-31.9761336590
0
LINE
5
30B
100
AcDbEntity
8
0
100
AcDbLine
62
9
6
CONTINUOUS
10
-34.1396047816
20
-22.5695870959
11
-34.1396037356
21
-32.0674503415
0
LINE
5
30C
100
AcDbEntity
8
0
100
AcDbLine
62
7
6
CONTINUOUS
10
-35.1221531266
20
-32.6029011411
11
-35.1221523751
21
-23.5694435982
0
LINE
5
30D
100
AcDbEntity
8
0
100
AcDbLine
62
7
6
CONTINUOUS
10
-25.4169166532
20
-8.0744275926
11
-26.1221523751
21
-8.0867375279
0
LINE
5
30E
100
AcDbEntity
8
0
100
AcDbLine
62
9
6
CONTINUOUS
10
-27.1046999687
20
-31.9446556406
11
-27.1046999687
21
-22.4467923756
0
LINE
5
30F
100
AcDbEntity
8
0
100
AcDbLine
62
9
6
CONTINUOUS
10
-27.1046999687
20
-20.9470208496
11
-27.1046999687
21
-0.6770877209
0
LINE
5
310
100
AcDbEntity
8
0
100
AcDbLine
62
7
6
CONTINUOUS
10
-26.3176418368
20
-12.3332795552
11
-26.3176418368
21
-17.7401955006
0
LINE
5
311
100
AcDbEntity
8
0
100
AcDbLine
62
7
6
CONTINUOUS
10
-26.1221523751
20
0.7711044298
11
-26.1221523751
21
-3.2994391485
0
LINE
5
312
100
AcDbEntity
8
0
100
AcDbLine
62
7
6
CONTINUOUS
10
-26.1221523751
20
-6.8740359073
11
-26.1221523751
21
-12.0367375279
0
LINE
5
313
100
AcDbEntity
8
0
100
AcDbLine
62
7
6
CONTINUOUS
10
-26.1221523751
20
-18.0367375279
11
-26.1221523751
21
-25.1079479483
0
LINE
5
314
100
AcDbEntity
8
0
100
AcDbLine
62
7
6
CONTINUOUS
10
-26.1221523751
20
-28.0655271076
11
-26.1221523751
21
-32.4445794857
0
LINE
5
315
100
AcDbEntity
8
0
100
AcDbLine
62
9
6
CONTINUOUS
10
-26.1221523751
20
-0.6768828600
11
-27.1046999687
21
-0.6768828600
0
LINE
5
316
100
AcDbEntity
8
0
100
AcDbLine
62
7
6
CONTINUOUS
10
-26.1221523751
20
-2.0867375279
11
-25.4169166532
21
-2.0990474633
0
LINE
5
317
100
AcDbEntity
8
0
100
AcDbLine
62
9
6
CONTINUOUS
10
-27.1046999687
20
-0.6770877209
11
-46.6221523751
21
-0.3362044610
0
LINE
5
318
100
AcDbEntity
8
0
100
AcDbLine
62
9
6
CONTINUOUS
10
-25.4169166532
20
-12.3490017718
11
-25.4169166532
21
-17.7244732841
0
LINE
5
319
100
AcDbEntity
8
0
100
AcDbLine
62
9
6
CONTINUOUS
10
-25.4169166532
20
-2.0990474633
11
-25.4169166532
21
-8.0744275926
0
LINE
5
31A
100
AcDbEntity
8
0
100
AcDbLine
62
9
6
CONTINUOUS
10
-25.4169166532
20
-23.5990474633
11
-25.4169166532
21
-29.5744275926
0
LINE
5
31B
100
AcDbEntity
8
0
100
AcDbLine
62
7
6
CONTINUOUS
10
-25.1221523751
20
-29.2744732841
11
-25.1221523751
21
-23.8990017718
0
LINE
5
31C
100
AcDbEntity
8
0
100
AcDbLine
62
7
6
CONTINUOUS
10
-25.1221523751
20
-7.7744732841
11
-25.1221523751
21
-2.3990017718
0
LINE
5
31D
100
AcDbEntity
8
0
100
AcDbLine
62
7
6
CONTINUOUS
10
-25.1221523751
20
-12.3490017718
11
-25.1221523751
21
-17.7244732841
0
LINE
5
31E
100
AcDbEntity
8
0
100
AcDbLine
62
9
6
CONTINUOUS
10
-48.3221523751
20
1.3306474425
11
-46.6221523751
21
1.3207778385
0
LINE
5
31F
100
AcDbEntity
8
0
100
AcDbLine
62
9
6
CONTINUOUS
10
-48.3221523751
20
0.7176199320
11
-46.6221523751
21
0.7074527756
0
LINE
5
320
100
AcDbEntity
8
0
100
AcDbLine
62
9
6
CONTINUOUS
10
-27.0985153589
20
0.9820966105
11
-38.6200968778
21
1.1832301646
0
LINE
5
321
100
AcDbEntity
8
0
100
AcDbLine
62
7
6
CONTINUOUS
10
-42.2144786954
20
-38.0323071269
11
-38.3221523751
21
-35.7850714781
0
LINE
5
322
100
AcDbEntity
8
0
100
AcDbLine
62
7
6
CONTINUOUS
10
-38.3221523751
20
3.3505311500
11
-48.3221523751
21
3.2632624721
0
LINE
5
323
100
AcDbEntity
8
0
100
AcDbLine
62
7
6
CONTINUOUS
10
-38.1223306115
20
1.9632655832
11
-27.1046999687
21
1.7709521250
0
LINE
5
324
100
AcDbEntity
8
0
100
AcDbLine
62
7
6
CONTINUOUS
10
-38.6232516479
20
3.0236411405
11
-45.9221523751
21
3.1510439266
0
LINE
5
325
100
AcDbEntity
8
0
100
AcDbLine
62
7
6
CONTINUOUS
10
-46.6221523751
20
2.3836127093
11
-48.3221523751
21
2.4639548919
0
LINE
5
326
100
AcDbEntity
8
0
100
AcDbLine
62
7
6
CONTINUOUS
10
-42.2144786954
20
6.3588320710
11
-38.3221523751
21
4.1115964222
0
LINE
5
327
100
AcDbEntity
8
0
100
AcDbLine
62
7
6
CONTINUOUS
10
-48.3221523751
20
5.0632624721
11
-39.8555831677
21
4.9969231031
0
LINE
5
328
100
AcDbEntity
8
0
100
AcDbLine
62
7
6
CONTINUOUS
10
-44.3221523751
20
5.3772254605
11
-40.4558454813
21
5.3434847114
0
LINE
5
329
100
AcDbEntity
8
0
100
AcDbLine
62
9
6
CONTINUOUS
10
-57.3801650086
20
5.1815757598
11
-56.8893556772
21
5.1605583887
0
LINE
5
32A
100
AcDbEntity
8
0
100
AcDbLine
62
9
6
CONTINUOUS
10
-56.4159656202
20
5.6388548419
11
-48.3221523751
21
6.0630336200
0
LINE
5
32B
100
AcDbEntity
8
0
100
AcDbLine
62
7
6
CONTINUOUS
10
-56.4334073951
20
6.1381696093
11
-48.3221523751
21
6.5632624721
0
LINE
5
32C
100
AcDbEntity
8
0
100
AcDbLine
62
7
6
CONTINUOUS
10
-42.2144786954
20
6.3588320710
11
-42.7221523751
21
6.3632624721
0
LINE
5
32D
100
AcDbEntity
8
0
100
AcDbLine
62
7
6
CONTINUOUS
10
-48.3221523751
20
7.6632624721
11
-44.3221523751
21
7.5934422123
0
ARC
5
32E
100
AcDbEntity
8
0
100
AcDbCircle
62
7
6
CONTINUOUS
10
10.7713253037
20
-14.7367375279
40
1.0000000000
100
AcDbArc
50
215.6853347127
51
259.7910316901
0
ARC
5
32F
100
AcDbEntity
8
0
100
AcDbCircle
62
7
6
CONTINUOUS
10
10.7713253037
20
-16.9367375279
40
1.0000000000
100
AcDbArc
50
100.2162353936
51
144.3146652873
0
ARC
5
330
100
AcDbEntity
8
0
100
AcDbCircle
62
7
6
CONTINUOUS
10
7.8472870002
20
-14.8367375279
40
2.6000000000
100
AcDbArc
50
270.0000000000
51
324.3146652873
0
ARC
5
331
100
AcDbEntity
8
0
100
AcDbCircle
62
7
6
CONTINUOUS
10
7.8472870002
20
-14.8367375279
40
2.6000000000
100
AcDbArc
50
215.6853347127
51
265.5623795422
0
ARC
5
332
100
AcDbEntity
8
0
100
AcDbCircle
62
7
6
CONTINUOUS
10
4.9232486968
20
-16.9367375279
40
1.0000000000
100
AcDbArc
50
35.6853347127
51
79.7939493486
0
ARC
5
333
100
AcDbEntity
8
0
100
AcDbCircle
62
7
6
CONTINUOUS
10
4.9232486968
20
-14.7367375279
40
1.0000000000
100
AcDbArc
50
280.2117734860
51
324.3146652873
0
ARC
5
334
100
AcDbEntity
8
0
100
AcDbCircle
62
7
6
CONTINUOUS
10
7.8472870002
20
-2.8367375279
40
2.7500000000
100
AcDbArc
50
351.7867892983
51
188.2132107017
0
ARC
5
335
100
AcDbEntity
8
0
100
AcDbCircle
62
7
6
CONTINUOUS
10
7.8472870002
20
-28.8367375279
40
2.7500000000
100
AcDbArc
50
171.7867892983
51
8.2132107017
0
CIRCLE
5
336
100
AcDbEntity
8
0
100
AcDbCircle
62
7
6
CONTINUOUS
10
7.8472870002
20
-15.8367375279
40
2.7500000000
0
ARC
5
337
100
AcDbEntity
8
0
100
AcDbCircle
62
7
6
CONTINUOUS
10
-3.4027129998
20
-15.8367375279
40
28.0000000000
100
AcDbArc
50
305.9627651514
51
306.8698976458
0
ARC
5
338
100
AcDbEntity
8
0
100
AcDbCircle
62
7
6
CONTINUOUS
10
-3.4027129998
20
-15.8367375279
40
28.0000000000
100
AcDbArc
50
302.9352304972
51
304.1210936517
0
ARC
5
339
100
AcDbEntity
8
0
100
AcDbCircle
62
7
6
CONTINUOUS
10
19.0972870002
20
-15.8367375279
40
28.0000000000
100
AcDbArc
50
233.1301023542
51
234.0372348486
0
ARC
5
33A
100
AcDbEntity
8
0
100
AcDbCircle
62
7
6
CONTINUOUS
10
19.0972870002
20
-15.8367375279
40
28.0000000000
100
AcDbArc
50
235.8789063483
51
237.0647695028
0
ARC
5
33B
100
AcDbEntity
8
0
100
AcDbCircle
62
7
6
CONTINUOUS
10
19.0972870002
20
-15.8367375279
40
28.0000000000
100
AcDbArc
50
125.9627651514
51
126.8698976458
0
ARC
5
33C
100
AcDbEntity
8
0
100
AcDbCircle
62
7
6
CONTINUOUS
10
19.0972870002
20
-15.8367375279
40
28.0000000000
100
AcDbArc
50
122.9352304972
51
124.1210936517
0
ARC
5
33D
100
AcDbEntity
8
0
100
AcDbCircle
62
7
6
CONTINUOUS
10
-3.4027129998
20
-15.8367375279
40
28.0000000000
100
AcDbArc
50
53.1301023542
51
54.0372348486
0
ARC
5
33E
100
AcDbEntity
8
0
100
AcDbCircle
62
7
6
CONTINUOUS
10
-3.4027129998
20
-15.8367375279
40
28.0000000000
100
AcDbArc
50
55.8789063483
51
57.0647695028
0
ARC
5
33F
100
AcDbEntity
8
0
100
AcDbCircle
62
7
6
CONTINUOUS
10
2.8972870002
20
-38.9367375279
40
0.5000000000
100
AcDbArc
50
350.8037184210
51
119.1124227760
0
ARC
5
340
100
AcDbEntity
8
0
100
AcDbCircle
62
7
6
CONTINUOUS
10
2.8972870002
20
7.2632624721
40
0.5000000000
100
AcDbArc
50
240.8875772240
51
9.1962815790
0
ARC
5
341
100
AcDbEntity
8
0
100
AcDbCircle
62
7
6
CONTINUOUS
10
12.7972870002
20
-38.9367375279
40
0.5000000000
100
AcDbArc
50
60.8875772240
51
189.1962815790
0
ARC
5
342
100
AcDbEntity
8
0
100
AcDbCircle
62
7
6
CONTINUOUS
10
12.7972870002
20
7.2632624721
40
0.5000000000
100
AcDbArc
50
170.8037184210
51
299.1124227760
0
CIRCLE
5
343
100
AcDbEntity
8
0
100
AcDbCircle
62
7
6
CONTINUOUS
10
7.8472870002
20
-15.8367375279
40
2.8000000000
0
ARC
5
344
100
AcDbEntity
8
0
100
AcDbCircle
62
7
6
CONTINUOUS
10
7.8472870002
20
-28.8367375279
40
2.8000000000
100
AcDbArc
50
136.6731707000
51
43.3268293000
0
ARC
5
345
100
AcDbEntity
8
0
100
AcDbCircle
62
7
6
CONTINUOUS
10
7.8472870002
20
-25.3367375279
40
2.2000000000
100
AcDbArc
50
332.7618716362
51
207.2381283638
0
ARC
5
346
100
AcDbEntity
8
0
100
AcDbCircle
62
7
6
CONTINUOUS
10
7.8472870002
20
-6.3367375279
40
2.2000000000
100
AcDbArc
50
152.7618716362
51
27.2381283638
0
ARC
5
347
100
AcDbEntity
8
0
100
AcDbCircle
62
7
6
CONTINUOUS
10
7.8472870002
20
-2.8367375279
40
2.8000000000
100
AcDbArc
50
316.6731707000
51
223.3268293000
0
ARC
5
348
100
AcDbEntity
8
0
100
AcDbCircle
62
3
6
CONTINUOUS
10
9.4816173520
20
-17.8267375279
40
0.9900694014
100
AcDbArc
50
88.4948546934
51
89.9703375206
0
ARC
5
349
100
AcDbEntity
8
0
100
AcDbCircle
62
3
6
CONTINUOUS
10
9.4816173520
20
-17.8267375279
40
0.9800000000
100
AcDbArc
50
89.2062953792
51
90.0000000000
0
ARC
5
34A
100
AcDbEntity
8
0
100
AcDbCircle
62
3
6
CONTINUOUS
10
9.4816173520
20
-17.8267375279
40
1.0000000000
100
AcDbArc
50
87.8281251387
51
90.0000000000
0
ARC
5
34B
100
AcDbEntity
8
0
100
AcDbCircle
62
9
6
CONTINUOUS
10
9.4816173520
20
-17.8267375279
40
1.5500000000
100
AcDbArc
50
74.4192564510
51
90.0000000000
0
ARC
5
34C
100
AcDbEntity
8
0
100
AcDbCircle
62
7
6
CONTINUOUS
10
-25.4221523751
20
-2.3990017718
40
0.3000000000
100
AcDbArc
50
0.0000000000
51
88.9999999976
0
ARC
5
34D
100
AcDbEntity
8
0
100
AcDbCircle
62
7
6
CONTINUOUS
10
-25.4221523751
20
-7.7744732841
40
0.3000000000
100
AcDbArc
50
271.0000000000
51
360.0000000000
0
ARC
5
34E
100
AcDbEntity
8
0
100
AcDbCircle
62
7
6
CONTINUOUS
10
-25.4221523751
20
-23.8990017718
40
0.3000000000
100
AcDbArc
50
0.0000000000
51
88.9999999976
0
ARC
5
34F
100
AcDbEntity
8
0
100
AcDbCircle
62
7
6
CONTINUOUS
10
-25.4221523751
20
-29.2744732841
40
0.3000000000
100
AcDbArc
50
271.0000000000
51
360.0000000000
0
ARC
5
350
100
AcDbEntity
8
0
100
AcDbCircle
62
7
6
CONTINUOUS
10
-25.4221523751
20
-17.7244732841
40
0.3000000000
100
AcDbArc
50
271.0000000000
51
360.0000000000
0
ARC
5
351
100
AcDbEntity
8
0
100
AcDbCircle
62
7
6
CONTINUOUS
10
-25.4221523751
20
-12.3490017718
40
0.3000000000
100
AcDbArc
50
0.0000000000
51
89.0000000000
0
ARC
5
352
100
AcDbEntity
8
0
100
AcDbCircle
62
7
6
CONTINUOUS
10
-46.4421523751
20
-34.7621790867
40
0.1800000000
100
AcDbArc
50
192.4089769738
51
225.0000000000
0
ARC
5
353
100
AcDbEntity
8
0
100
AcDbCircle
62
7
6
CONTINUOUS
10
-46.4421523751
20
3.0887040308
40
0.1800000000
100
AcDbArc
50
135.0000000000
51
167.5874255472
0
ARC
5
354
100
AcDbEntity
8
0
100
AcDbCircle
62
7
6
CONTINUOUS
10
-38.6321523751
20
-34.1871825250
40
0.5100000000
100
AcDbArc
50
270.9999777532
51
360.0000000000
0
ARC
5
355
100
AcDbEntity
8
0
100
AcDbCircle
62
7
6
CONTINUOUS
10
-38.6321523751
20
2.5137074691
40
0.5100000000
100
AcDbArc
50
0.0012747577
51
89.0000222468
0
ARC
5
356
100
AcDbEntity
8
0
100
AcDbCircle
62
7
6
CONTINUOUS
10
-27.1221523751
20
0.7710992849
40
1.0000000000
100
AcDbArc
50
0.0002947833
51
89.0000051444
0
ARC
5
357
100
AcDbEntity
8
0
100
AcDbCircle
62
7
6
CONTINUOUS
10
-27.1221523751
20
-21.4469446805
40
1.0000000000
100
AcDbArc
50
271.0000000000
51
360.0000000000
0
ARC
5
358
100
AcDbEntity
8
0
100
AcDbCircle
62
7
6
CONTINUOUS
10
-27.1221523751
20
-32.4445731273
40
1.0000000000
100
AcDbArc
50
271.0000000000
51
359.9996356897
0
ARC
5
359
100
AcDbEntity
8
0
100
AcDbCircle
62
7
6
CONTINUOUS
10
-36.1221523751
20
-32.6016750115
40
1.0000000000
100
AcDbArc
50
270.9999999415
51
359.9999966478
0
ARC
5
35A
100
AcDbEntity
8
0
100
AcDbCircle
62
7
6
CONTINUOUS
10
-34.1221523751
20
-23.5694347911
40
1.0000000000
100
AcDbArc
50
90.9999015018
51
180.0005046105
0
ARC
5
35B
100
AcDbEntity
8
0
100
AcDbCircle
62
7
6
CONTINUOUS
10
-56.3810714388
20
-36.8130151304
40
1.0000000000
100
AcDbArc
50
182.4092313014
51
267.0000000000
0
ARC
5
35C
100
AcDbEntity
8
0
100
AcDbCircle
62
7
6
CONTINUOUS
10
442.1778476249
20
-15.8367375279
40
500.0000000000
100
AcDbArc
50
177.5907686986
51
182.4092313014
0
ARC
5
35D
100
AcDbEntity
8
0
100
AcDbCircle
62
7
6
CONTINUOUS
10
-56.3810714388
20
5.1395400745
40
1.0000000000
100
AcDbArc
50
93.0000000000
51
177.5907686986
0
SPLINE
5
35E
100
AcDbEntity
8
0
100
AcDbSpline
62
7
6
CONTINUOUS
70
0
71
3
72
8
73
4
74
2
42
0.0000001000
43
0.0000001000
44
0.0000000001
12
-0.0131758357
22
0.0009626234
32
0.0000000000
13
-0.0131725125
23
0.0010298351
33
0.0000000000
40
0.0000000000
40
0.0000000000
40
0.0000000000
40
0.0000000000
40
1.0000000000
40
1.0000000000
40
1.0000000000
40
1.0000000000
10
7.6592972301
20
-17.4298662267
30
0.0000000000
10
7.6549052849
20
-17.4295453523
30
0.0000000000
10
7.6505138660
20
-17.4292132724
30
0.0000000000
10
7.6461230285
20
-17.4288699941
30
0.0000000000
11
7.6592972301
21
-17.4298662267
31
0.0000000000
11
7.6461230285
21
-17.4288699941
31
0.0000000000
0
SPLINE
5
35F
100
AcDbEntity
8
0
100
AcDbSpline
62
7
6
CONTINUOUS
70
0
71
3
72
8
73
4
74
2
42
0.0000001000
43
0.0000001000
44
0.0000000001
12
-0.1186206358
22
0.0092738337
32
0.0000000000
13
-0.1182173267
23
0.0147074893
33
0.0000000000
40
0.0000000000
40
0.0000000000
40
0.0000000000
40
0.0000000000
40
1.0000000000
40
1.0000000000
40
1.0000000000
40
1.0000000000
10
7.6461230285
20
-17.4288699941
30
0.0000000000
10
7.6065828166
20
-17.4257787162
30
0.0000000000
10
7.5670897485
20
-17.4217793178
30
0.0000000000
10
7.5276839730
20
-17.4168768213
30
0.0000000000
11
7.6461230285
21
-17.4288699941
31
0.0000000000
11
7.5276839730
21
-17.4168768213
31
0.0000000000
0
SPLINE
5
360
100
AcDbEntity
8
0
100
AcDbSpline
62
7
6
CONTINUOUS
70
0
71
3
72
11
73
7
74
5
42
0.0000001000
43
0.0000001000
44
0.0000000001
12
-1.9681194221
22
0.2448549313
32
0.0000000000
13
-1.2794149309
23
1.6026780325
33
0.0000000000
40
0.0000000000
40
0.0000000000
40
0.0000000000
40
0.0000000000
40
0.1327991090
40
0.4274214061
40
0.7220437032
40
1.0000000000
40
1.0000000000
40
1.0000000000
40
1.0000000000
10
7.5276839730
20
-17.4168768213
30
0.0000000000
10
7.4405624711
20
-17.4060379824
30
0.0000000000
10
7.1615303251
20
-17.3569447650
30
0.0000000000
10
6.7052203956
20
-17.1977118900
30
0.0000000000
10
6.2100012549
20
-16.8836230770
30
0.0000000000
10
5.9336119488
20
-16.6069825925
30
0.0000000000
10
5.8150714700
20
-16.4584911089
30
0.0000000000
11
7.5276839730
21
-17.4168768213
31
0.0000000000
11
7.2680334007
21
-17.3711715582
31
0.0000000000
11
6.7141938930
21
-17.1768443653
31
0.0000000000
11
6.2138770461
21
-16.8592492246
31
0.0000000000
11
5.8150714700
21
-16.4584911089
31
0.0000000000
0
SPLINE
5
361
100
AcDbEntity
8
0
100
AcDbSpline
62
7
6
CONTINUOUS
70
0
71
3
72
8
73
4
74
2
42
0.0000001000
43
0.0000001000
44
0.0000000001
12
-0.0213227297
22
0.0267102326
32
0.0000000000
13
-0.0209831445
23
0.0270151026
33
0.0000000000
40
0.0000000000
40
0.0000000000
40
0.0000000000
40
0.0000000000
40
1.0000000000
40
1.0000000000
40
1.0000000000
40
1.0000000000
10
5.8150714700
20
-16.4584911089
30
0.0000000000
10
5.8079638935
20
-16.4495876981
30
0.0000000000
10
5.8009125145
20
-16.4406332465
30
0.0000000000
10
5.7939181330
20
-16.4316282123
30
0.0000000000
11
5.8150714700
21
-16.4584911089
31
0.0000000000
11
5.7939181330
21
-16.4316282123
31
0.0000000000
0
SPLINE
5
362
100
AcDbEntity
8
0
100
AcDbSpline
62
7
6
CONTINUOUS
70
0
71
3
72
11
73
7
74
5
42
0.0000001000
43
0.0000001000
44
0.0000000001
12
-2.2442408794
22
0.1638659570
32
0.0000000000
13
-1.3329528554
23
1.8083323923
33
0.0000000000
40
0.0000000000
40
0.0000000000
40
0.0000000000
40
0.0000000000
40
0.1866975863
40
0.4608537488
40
0.7317247350
40
1.0000000000
40
1.0000000000
40
1.0000000000
40
1.0000000000
10
7.6461135171
20
-17.4289094425
30
0.0000000000
10
7.5064487320
20
-17.4187116496
30
0.0000000000
10
7.1630543682
20
-17.3689964365
30
0.0000000000
10
6.6395285203
20
-17.1924565734
30
0.0000000000
10
6.1185681053
20
-16.8662283311
30
0.0000000000
10
5.8353600394
20
-16.5713850749
30
0.0000000000
10
5.7161606126
20
-16.4096747910
30
0.0000000000
11
7.6461135171
21
-17.4289094425
31
0.0000000000
11
7.2304652334
21
-17.3683424630
31
0.0000000000
11
6.6475097133
21
-17.1696199477
31
0.0000000000
11
6.1325908109
21
-16.8453516936
31
0.0000000000
11
5.7161606126
21
-16.4096747910
31
0.0000000000
0
SPLINE
5
363
100
AcDbEntity
8
0
100
AcDbSpline
62
7
6
CONTINUOUS
70
0
71
3
72
8
73
4
74
2
42
0.0000001000
43
0.0000001000
44
0.0000000001
12
-0.3013382193
22
-0.0541860689
32
0.0000000000
13
-0.2542300648
23
-0.1301994930
33
0.0000000000
40
0.0000000000
40
0.0000000000
40
0.0000000000
40
0.0000000000
40
1.0000000000
40
1.0000000000
40
1.0000000000
40
1.0000000000
10
10.5939983343
20
-15.9524816211
30
0.0000000000
10
10.4935522612
20
-15.9705436441
30
0.0000000000
10
10.4000957686
20
-16.0033517683
30
0.0000000000
10
10.3153524136
20
-16.0467515993
30
0.0000000000
11
10.5939983343
21
-15.9524816211
31
0.0000000000
11
10.3153524136
21
-16.0467515993
31
0.0000000000
0
SPLINE
5
364
100
AcDbEntity
8
0
100
AcDbSpline
62
7
6
CONTINUOUS
70
0
71
3
72
8
73
4
74
2
42
0.0000001000
43
0.0000001000
44
0.0000000001
12
-0.0193115603
22
-0.0098900787
32
0.0000000000
13
-0.0190076424
23
-0.0102513068
33
0.0000000000
40
0.0000000000
40
0.0000000000
40
0.0000000000
40
0.0000000000
40
1.0000000000
40
1.0000000000
40
1.0000000000
40
1.0000000000
10
10.3153524136
20
-16.0467515993
30
0.0000000000
10
10.3089152269
20
-16.0500482922
30
0.0000000000
10
10.3025283158
20
-16.0534060995
30
0.0000000000
10
10.2961924350
20
-16.0568232017
30
0.0000000000
11
10.3153524136
21
-16.0467515993
31
0.0000000000
11
10.2961924350
21
-16.0568232017
31
0.0000000000
0
SPLINE
5
365
100
AcDbEntity
8
0
100
AcDbSpline
62
7
6
CONTINUOUS
70
0
71
3
72
9
73
5
74
3
42
0.0000001000
43
0.0000001000
44
0.0000000001
12
-0.4103313034
22
-0.2213021474
32
0.0000000000
13
-0.2612367911
23
-0.3637458969
33
0.0000000000
40
0.0000000000
40
0.0000000000
40
0.0000000000
40
0.0000000000
40
0.4995021322
40
1.0000000000
40
1.0000000000
40
1.0000000000
40
1.0000000000
10
10.2961924350
20
-16.0568232017
30
0.0000000000
10
10.2278719814
20
-16.0936701666
30
0.0000000000
10
10.1029710049
20
-16.1812455299
30
0.0000000000
10
10.0026752606
20
-16.2927195127
30
0.0000000000
10
9.9590924416
20
-16.3534041946
30
0.0000000000
11
10.2961924350
21
-16.0568232017
31
0.0000000000
11
10.1092344372
21
-16.1871210904
31
0.0000000000
11
9.9590924416
21
-16.3534041946
31
0.0000000000
0
SPLINE
5
366
100
AcDbEntity
8
0
100
AcDbSpline
62
7
6
CONTINUOUS
70
0
71
3
72
11
73
7
74
5
42
0.0000001000
43
0.0000001000
44
0.0000000001
12
-2.2442408794
22
-0.1638659570
32
0.0000000000
13
-1.3329528554
23
-1.8083323923
33
0.0000000000
40
0.0000000000
40
0.0000000000
40
0.0000000000
40
0.0000000000
40
0.1866975863
40
0.4608537488
40
0.7317247350
40
1.0000000000
40
1.0000000000
40
1.0000000000
40
1.0000000000
10
7.6461135171
20
-14.2445656134
30
0.0000000000
10
7.5064487320
20
-14.2547634062
30
0.0000000000
10
7.1630543682
20
-14.3044786194
30
0.0000000000
10
6.6395285203
20
-14.4810184825
30
0.0000000000
10
6.1185681053
20
-14.8072467248
30
0.0000000000
10
5.8353600394
20
-15.1020899810
30
0.0000000000
10
5.7161606126
20
-15.2638002649
30
0.0000000000
11
7.6461135171
21
-14.2445656134
31
0.0000000000
11
7.2304652334
21
-14.3051325928
31
0.0000000000
11
6.6475097133
21
-14.5038551081
31
0.0000000000
11
6.1325908109
21
-14.8281233623
31
0.0000000000
11
5.7161606126
21
-15.2638002649
31
0.0000000000
0
SPLINE
5
367
100
AcDbEntity
8
0
100
AcDbSpline
62
7
6
CONTINUOUS
70
0
71
3
72
8
73
4
74
2
42
0.0000001000
43
0.0000001000
44
0.0000000001
12
-0.0131123847
22
-0.0009574889
32
0.0000000000
13
-0.0131081671
23
-0.0010238374
33
0.0000000000
40
0.0000000000
40
0.0000000000
40
0.0000000000
40
0.0000000000
40
1.0000000000
40
1.0000000000
40
1.0000000000
40
1.0000000000
10
7.6592316141
20
-14.2436112186
30
0.0000000000
10
7.6548608192
20
-14.2439303816
30
0.0000000000
10
7.6504906949
20
-14.2442606080
30
0.0000000000
10
7.6461213059
20
-14.2446018871
30
0.0000000000
11
7.6592316141
21
-14.2436112186
31
0.0000000000
11
7.6461213059
21
-14.2446018871
31
0.0000000000
0
SPLINE
5
368
100
AcDbEntity
8
0
100
AcDbSpline
62
7
6
CONTINUOUS
70
0
71
3
72
8
73
4
74
2
42
0.0000001000
43
0.0000001000
44
0.0000000001
12
-0.0611460819
22
-0.0047759267
32
0.0000000000
13
-0.0610303756
23
-0.0062156899
33
0.0000000000
40
0.0000000000
40
0.0000000000
40
0.0000000000
40
0.0000000000
40
1.0000000000
40
1.0000000000
40
1.0000000000
40
1.0000000000
10
7.6461213059
20
-14.2446018871
30
0.0000000000
10
7.6257392786
20
-14.2461938627
30
0.0000000000
10
7.6053732512
20
-14.2480263426
30
0.0000000000
10
7.5850297926
20
-14.2500982392
30
0.0000000000
11
7.6461213059
21
-14.2446018871
31
0.0000000000
11
7.5850297926
21
-14.2500982392
31
0.0000000000
0
SPLINE
5
369
100
AcDbEntity
8
0
100
AcDbSpline
62
7
6
CONTINUOUS
70
0
71
3
72
8
73
4
74
2
42
0.0000001000
43
0.0000001000
44
0.0000000001
12
-0.0391334863
22
-0.0039855828
32
0.0000000000
13
-0.0390726151
23
-0.0045753461
33
0.0000000000
40
0.0000000000
40
0.0000000000
40
0.0000000000
40
0.0000000000
40
1.0000000000
40
1.0000000000
40
1.0000000000
40
1.0000000000
10
7.5850297926
20
-14.2500982392
30
0.0000000000
10
7.5719852972
20
-14.2514267668
30
0.0000000000
10
7.5589500810
20
-14.2528537317
30
0.0000000000
10
7.5459258760
20
-14.2543788471
30
0.0000000000
11
7.5850297926
21
-14.2500982392
31
0.0000000000
11
7.5459258760
21
-14.2543788471
31
0.0000000000
0
SPLINE
5
36A
100
AcDbEntity
8
0
100
AcDbSpline
62
7
6
CONTINUOUS
70
0
71
3
72
12
73
8
74
6
42
0.0000001000
43
0.0000001000
44
0.0000000001
12
-2.0514757115
22
-0.2402248067
32
0.0000000000
13
-1.2648849393
23
-1.6284993393
33
0.0000000000
40
0.0000000000
40
0.0000000000
40
0.0000000000
40
0.0000000000
40
0.0718879197
40
0.3001706754
40
0.5318300940
40
0.7671658973
40
1.0000000000
40
1.0000000000
40
1.0000000000
40
1.0000000000
10
7.5459258760
20
-14.2543788471
30
0.0000000000
10
7.4967671022
20
-14.2601352676
30
0.0000000000
10
7.2921578217
20
-14.2900099591
30
0.0000000000
10
6.9373618508
20
-14.3856582441
30
0.0000000000
10
6.5038597377
20
-14.5933120202
30
0.0000000000
10
6.1135663386
20
-14.8790291202
30
0.0000000000
10
5.8920866685
20
-15.1154579600
30
0.0000000000
10
5.7939172186
20
-15.2418480208
30
0.0000000000
11
7.5459258760
21
-14.2543788471
31
0.0000000000
11
7.3990132771
21
-14.2758275118
31
0.0000000000
11
6.9445577133
21
-14.3985131621
31
0.0000000000
11
6.5137131583
21
-14.6048094617
31
0.0000000000
11
6.1221817131
21
-14.8914944609
31
0.0000000000
11
5.7939172186
21
-15.2418480208
31
0.0000000000
0
SPLINE
5
36B
100
AcDbEntity
8
0
100
AcDbSpline
62
7
6
CONTINUOUS
70
0
71
3
72
8
73
4
74
2
42
0.0000001000
43
0.0000001000
44
0.0000000001
12
-0.1162358214
22
0.1618466638
32
0.0000000000
13
-0.1454149108
23
0.1353277449
33
0.0000000000
40
0.0000000000
40
0.0000000000
40
0.0000000000
40
0.0000000000
40
1.0000000000
40
1.0000000000
40
1.0000000000
40
1.0000000000
10
5.7354815588
20
-16.3534041946
30
0.0000000000
10
5.6967362850
20
-16.2994553067
30
0.0000000000
10
5.6528245317
20
-16.2495836424
30
0.0000000000
10
5.6043528948
20
-16.2044743941
30
0.0000000000
11
5.7354815588
21
-16.3534041946
31
0.0000000000
11
5.6043528948
21
-16.2044743941
31
0.0000000000
0
SPLINE
5
36C
100
AcDbEntity
8
0
100
AcDbSpline
62
7
6
CONTINUOUS
70
0
71
3
72
10
73
6
74
4
42
0.0000001000
43
0.0000001000
44
0.0000000001
12
-0.4093631452
22
0.3809663740
32
0.0000000000
13
-0.5833615256
23
0.1050333358
33
0.0000000000
40
0.0000000000
40
0.0000000000
40
0.0000000000
40
0.0000000000
40
0.0983788189
40
0.5519799202
40
1.0000000000
40
1.0000000000
40
1.0000000000
40
1.0000000000
10
5.6043528948
20
-16.2044743941
30
0.0000000000
10
5.5909286739
20
-16.1919813868
30
0.0000000000
10
5.5136462371
20
-16.1239356422
30
0.0000000000
10
5.3544246655
20
-16.0223229166
30
0.0000000000
10
5.1875630604
20
-15.9682474856
30
0.0000000000
10
5.1004438347
20
-15.9525618045
30
0.0000000000
11
5.6043528948
21
-16.2044743941
31
0.0000000000
11
5.5630438705
21
-16.1681057780
31
0.0000000000
11
5.3476376815
21
-16.0312575504
31
0.0000000000
11
5.1004438347
21
-15.9525618045
31
0.0000000000
0
SPLINE
5
36D
100
AcDbEntity
8
0
100
AcDbSpline
62
7
6
CONTINUOUS
70
0
71
3
72
8
73
4
74
2
42
0.0000001000
43
0.0000001000
44
0.0000000001
12
-0.0133061192
22
0.0171311872
32
0.0000000000
13
-0.0132713065
23
0.0173830848
33
0.0000000000
40
0.0000000000
40
0.0000000000
40
0.0000000000
40
0.0000000000
40
1.0000000000
40
1.0000000000
40
1.0000000000
40
1.0000000000
10
5.7939181330
20
-16.4316282123
30
0.0000000000
10
5.7894827599
20
-16.4259178166
30
0.0000000000
10
5.7850550731
20
-16.4201688883
30
0.0000000000
10
5.7806313043
20
-16.4143745267
30
0.0000000000
11
5.7939181330
21
-16.4316282123
31
0.0000000000
11
5.7806313043
21
-16.4143745267
31
0.0000000000
0
SPLINE
5
36E
100
AcDbEntity
8
0
100
AcDbSpline
62
7
6
CONTINUOUS
70
0
71
3
72
8
73
4
74
2
42
0.0000001000
43
0.0000001000
44
0.0000000001
12
-0.0451374570
22
0.0591221551
32
0.0000000000
13
-0.0453102886
23
0.0630900093
33
0.0000000000
40
0.0000000000
40
0.0000000000
40
0.0000000000
40
0.0000000000
40
1.0000000000
40
1.0000000000
40
1.0000000000
40
1.0000000000
10
5.7806313043
20
-16.4143745267
30
0.0000000000
10
5.7655854853
20
-16.3946671417
30
0.0000000000
10
5.7505849884
20
-16.3744341977
30
0.0000000000
10
5.7354815588
20
-16.3534041946
30
0.0000000000
11
5.7806313043
21
-16.4143745267
31
0.0000000000
11
5.7354815588
21
-16.3534041946
31
0.0000000000
0
SPLINE
5
36F
100
AcDbEntity
8
0
100
AcDbSpline
62
7
6
CONTINUOUS
70
0
71
3
72
8
73
4
74
2
42
0.0000001000
43
0.0000001000
44
0.0000000001
12
-0.2011807191
22
0.0009975451
32
0.0000000000
13
-0.2009795426
23
0.0146747639
33
0.0000000000
40
0.0000000000
40
0.0000000000
40
0.0000000000
40
0.0000000000
40
1.0000000000
40
1.0000000000
40
1.0000000000
40
1.0000000000
10
7.8472870002
20
-17.4367375279
30
0.0000000000
10
7.7802267605
20
-17.4364050129
30
0.0000000000
10
7.7131066980
20
-17.4338010305
30
0.0000000000
10
7.6461135171
20
-17.4289094425
30
0.0000000000
11
7.8472870002
21
-17.4367375279
31
0.0000000000
11
7.6461135171
21
-17.4289094425
31
0.0000000000
0
SPLINE
5
370
100
AcDbEntity
8
0
100
AcDbSpline
62
7
6
CONTINUOUS
70
0
71
3
72
8
73
4
74
2
42
0.0000001000
43
0.0000001000
44
0.0000000001
12
-0.0530595521
22
-0.0631251613
32
0.0000000000
13
-0.0546921237
23
-0.0610472845
33
0.0000000000
40
0.0000000000
40
0.0000000000
40
0.0000000000
40
0.0000000000
40
1.0000000000
40
1.0000000000
40
1.0000000000
40
1.0000000000
10
9.8375851232
20
-16.5096730861
30
0.0000000000
10
9.8198986058
20
-16.5307148065
30
0.0000000000
10
9.8019350474
20
-16.5514106620
30
0.0000000000
10
9.7837043395
20
-16.5717597569
30
0.0000000000
11
9.8375851232
21
-16.5096730861
31
0.0000000000
11
9.7837043395
21
-16.5717597569
31
0.0000000000
0
SPLINE
5
371
100
AcDbEntity
8
0
100
AcDbSpline
62
7
6
CONTINUOUS
70
0
71
3
72
11
73
7
74
5
42
0.0000001000
43
0.0000001000
44
0.0000000001
12
-1.3982123786
22
-1.5606830227
32
0.0000000000
13
-2.0411108209
23
-0.1238504685
33
0.0000000000
40
0.0000000000
40
0.0000000000
40
0.0000000000
40
0.0000000000
40
0.2398634672
40
0.5188426828
40
0.7978218984
40
1.0000000000
40
1.0000000000
40
1.0000000000
40
1.0000000000
10
9.7837043395
20
-16.5717597569
30
0.0000000000
10
9.6719109832
20
-16.6965433705
30
0.0000000000
10
9.4083640069
20
-16.9382546790
30
0.0000000000
10
8.9472435935
20
-17.2146329184
30
0.0000000000
10
8.4648487586
20
-17.3779134666
30
0.0000000000
10
8.1424567920
20
-17.4236163921
30
0.0000000000
10
8.0049008218
20
-17.4319630097
30
0.0000000000
11
9.7837043395
21
-16.5717597569
31
0.0000000000
11
9.4204681153
21
-16.9067861214
31
0.0000000000
11
8.9393426352
21
-17.1962744507
31
0.0000000000
11
8.4103804533
21
-17.3750294267
31
0.0000000000
11
8.0049008218
21
-17.4319630097
31
0.0000000000
0
SPLINE
5
372
100
AcDbEntity
8
0
100
AcDbSpline
62
7
6
CONTINUOUS
70
0
71
3
72
8
73
4
74
2
42
0.0000001000
43
0.0000001000
44
0.0000000001
12
-0.1567595850
22
-0.0095118540
32
0.0000000000
13
-0.1584176703
23
0.0000000000
33
0.0000000000
40
0.0000000000
40
0.0000000000
40
0.0000000000
40
0.0000000000
40
1.0000000000
40
1.0000000000
40
1.0000000000
40
1.0000000000
10
8.0049008218
20
-17.4319630097
30
0.0000000000
10
7.9526476268
20
-17.4351336277
30
0.0000000000
10
7.9000928903
20
-17.4367375279
30
0.0000000000
10
7.8472870002
20
-17.4367375279
30
0.0000000000
11
8.0049008218
21
-17.4319630097
31
0.0000000000
11
7.8472870002
21
-17.4367375279
31
0.0000000000
0
SPLINE
5
373
100
AcDbEntity
8
0
100
AcDbSpline
62
7
6
CONTINUOUS
70
0
71
3
72
8
73
4
74
2
42
0.0000001000
43
0.0000001000
44
0.0000000001
12
-0.0996725700
22
-0.1387840059
32
0.0000000000
13
-0.1000196973
23
-0.1221830938
33
0.0000000000
40
0.0000000000
40
0.0000000000
40
0.0000000000
40
0.0000000000
40
1.0000000000
40
1.0000000000
40
1.0000000000
40
1.0000000000
10
9.9590924416
20
-16.3534041946
30
0.0000000000
10
9.9258682516
20
-16.3996655299
30
0.0000000000
10
9.8928163728
20
-16.4425563144
30
0.0000000000
10
9.8594764737
20
-16.4832840123
30
0.0000000000
11
9.9590924416
21
-16.3534041946
31
0.0000000000
11
9.8594764737
21
-16.4832840123
31
0.0000000000
0
SPLINE
5
374
100
AcDbEntity
8
0
100
AcDbSpline
62
7
6
CONTINUOUS
70
0
71
3
72
8
73
4
74
2
42
0.0000001000
43
0.0000001000
44
0.0000000001
12
-0.0218453361
22
-0.0266860510
32
0.0000000000
13
-0.0219421612
23
-0.0261046769
33
0.0000000000
40
0.0000000000
40
0.0000000000
40
0.0000000000
40
0.0000000000
40
1.0000000000
40
1.0000000000
40
1.0000000000
40
1.0000000000
10
9.8594764737
20
-16.4832840123
30
0.0000000000
10
9.8521946950
20
-16.4921793627
30
0.0000000000
10
9.8448991769
20
-16.5009715271
30
0.0000000000
10
9.8375851232
20
-16.5096730861
30
0.0000000000
11
9.8594764737
21
-16.4832840123
31
0.0000000000
11
9.8375851232
21
-16.5096730861
31
0.0000000000
0
SPLINE
5
375
100
AcDbEntity
8
0
100
AcDbSpline
62
7
6
CONTINUOUS
70
0
71
3
72
11
73
7
74
5
42
0.0000001000
43
0.0000001000
44
0.0000000001
12
-1.5137304139
22
1.8008851745
32
0.0000000000
13
-2.3017843375
23
0.0000028634
33
0.0000000000
40
0.0000000000
40
0.0000000000
40
0.0000000000
40
0.0000000000
40
0.2500061845
40
0.5000041230
40
0.7500020615
40
1.0000000000
40
1.0000000000
40
1.0000000000
40
1.0000000000
10
9.8375761342
20
-15.1638096583
30
0.0000000000
10
9.7114288125
20
-15.0137321812
30
0.0000000000
10
9.4309538532
20
-14.7487707027
30
0.0000000000
10
8.9472250387
20
-14.4588420158
30
0.0000000000
10
8.4160998098
20
-14.2790651967
30
0.0000000000
10
8.0391007800
20
-14.2367377666
30
0.0000000000
10
7.8472870002
20
-14.2367375279
30
0.0000000000
11
9.8375761342
21
-15.1638096583
31
0.0000000000
11
9.4204457088
21
-14.7666855802
31
0.0000000000
11
8.9393247499
21
-14.4772001292
31
0.0000000000
11
8.4103709238
21
-14.2984461424
31
0.0000000000
11
7.8472870002
21
-14.2367375279
31
0.0000000000
0
SPLINE
5
376
100
AcDbEntity
8
0
100
AcDbSpline
62
7
6
CONTINUOUS
70
0
71
3
72
8
73
4
74
2
42
0.0000001000
43
0.0000001000
44
0.0000000001
12
-0.1214399068
22
0.1690975729
32
0.0000000000
13
-0.1224042885
23
0.1456243286
33
0.0000000000
40
0.0000000000
40
0.0000000000
40
0.0000000000
40
0.0000000000
40
1.0000000000
40
1.0000000000
40
1.0000000000
40
1.0000000000
10
9.9590816643
20
-15.3200786012
30
0.0000000000
10
9.9186016953
20
-15.2637127435
30
0.0000000000
10
9.8783774336
20
-15.2123512106
30
0.0000000000
10
9.8375760040
20
-15.1638097677
30
0.0000000000
11
9.9590816643
21
-15.3200786012
31
0.0000000000
11
9.8375760040
21
-15.1638097677
31
0.0000000000
0
SPLINE
5
377
100
AcDbEntity
8
0
100
AcDbSpline
62
7
6
CONTINUOUS
70
0
71
3
72
8
73
4
74
2
42
0.0000001000
43
0.0000001000
44
0.0000000001
12
-0.0100966377
22
-0.0129991010
32
0.0000000000
13
-0.0100750234
23
-0.0131412678
33
0.0000000000
40
0.0000000000
40
0.0000000000
40
0.0000000000
40
0.0000000000
40
1.0000000000
40
1.0000000000
40
1.0000000000
40
1.0000000000
10
5.7939185283
20
-15.2418490381
30
0.0000000000
10
5.7905529824
20
-15.2461820718
30
0.0000000000
10
5.7871918621
20
-15.2505372924
30
0.0000000000
10
5.7838335210
20
-15.2549177150
30
0.0000000000
11
5.7939185283
21
-15.2418490381
31
0.0000000000
11
5.7838335210
21
-15.2549177150
31
0.0000000000
0
SPLINE
5
378
100
AcDbEntity
8
0
100
AcDbSpline
62
7
6
CONTINUOUS
70
0
71
3
72
8
73
4
74
2
42
0.0000001000
43
0.0000001000
44
0.0000000001
12
-0.0483605926
22
-0.0630787119
32
0.0000000000
13
-0.0485226247
23
-0.0675630231
33
0.0000000000
40
0.0000000000
40
0.0000000000
40
0.0000000000
40
0.0000000000
40
1.0000000000
40
1.0000000000
40
1.0000000000
40
1.0000000000
10
5.7838335210
20
-15.2549177150
30
0.0000000000
10
5.7677133234
20
-15.2759439523
30
0.0000000000
10
5.7516571602
20
-15.2975508541
30
0.0000000000
10
5.7354829520
20
-15.3200718618
30
0.0000000000
11
5.7838335210
21
-15.2549177150
31
0.0000000000
11
5.7354829520
21
-15.3200718618
31
0.0000000000
0
SPLINE
5
379
100
AcDbEntity
8
0
100
AcDbSpline
62
7
6
CONTINUOUS
70
0
71
3
72
8
73
4
74
2
42
0.0000001000
43
0.0000001000
44
0.0000000001
12
-0.0032410441
22
-0.0002325935
32
0.0000000000
13
-0.0032408012
23
-0.0002366489
33
0.0000000000
40
0.0000000000
40
0.0000000000
40
0.0000000000
40
0.0000000000
40
1.0000000000
40
1.0000000000
40
1.0000000000
40
1.0000000000
10
7.6624725373
20
-14.2433765974
30
0.0000000000
10
7.6613921893
20
-14.2434541285
30
0.0000000000
10
7.6603118812
20
-14.2435323357
30
0.0000000000
10
7.6592316141
20
-14.2436112186
30
0.0000000000
11
7.6624725373
21
-14.2433765974
31
0.0000000000
11
7.6592316141
21
-14.2436112186
31
0.0000000000
0
SPLINE
5
37A
100
AcDbEntity
8
0
100
AcDbSpline
62
7
6
CONTINUOUS
70
0
71
3
72
8
73
4
74
2
42
0.0000001000
43
0.0000001000
44
0.0000000001
12
-0.2011807191
22
-0.0009975451
32
0.0000000000
13
-0.2009795426
23
-0.0146747639
33
0.0000000000
40
0.0000000000
40
0.0000000000
40
0.0000000000
40
0.0000000000
40
1.0000000000
40
1.0000000000
40
1.0000000000
40
1.0000000000
10
7.8472870002
20
-14.2367375279
30
0.0000000000
10
7.7802267605
20
-14.2370700430
30
0.0000000000
10
7.7131066980
20
-14.2396740254
30
0.0000000000
10
7.6461135171
20
-14.2445656134
30
0.0000000000
11
7.8472870002
21
-14.2367375279
31
0.0000000000
11
7.6461135171
21
-14.2445656134
31
0.0000000000
0
SPLINE
5
37B
100
AcDbEntity
8
0
100
AcDbSpline
62
9
6
CONTINUOUS
70
0
71
3
72
9
73
5
74
3
42
0.0000001000
43
0.0000001000
44
0.0000000001
12
-0.3365774527
22
-0.1881648451
32
0.0000000000
13
-0.2343911752
23
-0.3050582203
33
0.0000000000
40
0.0000000000
40
0.0000000000
40
0.0000000000
40
0.0000000000
40
0.3926930941
40
1.0000000000
40
1.0000000000
40
1.0000000000
40
1.0000000000
10
10.5862389102
20
-16.0645515693
30
0.0000000000
10
10.5421816964
20
-16.0891819143
30
0.0000000000
10
10.4348303039
20
-16.1606670706
30
0.0000000000
10
10.3434379941
20
-16.2528226027
30
0.0000000000
10
10.2959888676
20
-16.3145772574
30
0.0000000000
11
10.5862389102
21
-16.0645515693
31
0.0000000000
11
10.4603304115
21
-16.1485129033
31
0.0000000000
11
10.2959888676
21
-16.3145772574
31
0.0000000000
0
SPLINE
5
37C
100
AcDbEntity
8
0
100
AcDbSpline
62
9
6
CONTINUOUS
70
0
71
3
72
10
73
6
74
4
42
0.0000001000
43
0.0000001000
44
0.0000000001
12
-0.4000614397
22
0.5468344785
32
0.0000000000
13
-0.6619684233
23
0.1538906737
33
0.0000000000
40
0.0000000000
40
0.0000000000
40
0.0000000000
40
0.0000000000
40
0.3707996442
40
0.7488867049
40
1.0000000000
40
1.0000000000
40
1.0000000000
40
1.0000000000
10
5.6587323619
20
-16.3315407802
30
0.0000000000
10
5.6092848154
20
-16.2639521035
30
0.0000000000
10
5.4900471919
20
-16.1405414997
30
0.0000000000
10
5.2930104165
20
-16.0248830869
30
0.0000000000
10
5.1569921742
20
-15.9808247696
30
0.0000000000
10
5.1015824835
20
-15.9679434382
30
0.0000000000
11
5.6587323619
21
-16.3315407802
31
0.0000000000
11
5.4842644672
21
-16.1507631396
31
0.0000000000
11
5.2636435384
21
-16.0205656072
31
0.0000000000
11
5.1015824835
21
-15.9679434382
31
0.0000000000
0
SPLINE
5
37D
100
AcDbEntity
8
0
100
AcDbSpline
62
9
6
CONTINUOUS
70
0
71
3
72
9
73
5
74
3
42
0.0000001000
43
0.0000001000
44
0.0000000001
12
-0.2535806697
22
0.3864859458
32
0.0000000000
13
-0.4098406369
23
0.2170535027
33
0.0000000000
40
0.0000000000
40
0.0000000000
40
0.0000000000
40
0.0000000000
40
0.5838384721
40
1.0000000000
40
1.0000000000
40
1.0000000000
40
1.0000000000
10
5.4497303047
20
-16.3861748606
30
0.0000000000
10
5.4003802544
20
-16.3109597393
30
0.0000000000
10
5.2956917593
20
-16.1942452180
30
0.0000000000
10
5.1663481476
20
-16.1080795343
30
0.0000000000
10
5.1094948457
20
-16.0779697619
30
0.0000000000
11
5.4497303047
21
-16.3861748606
31
0.0000000000
11
5.2697337878
21
-16.1850879854
31
0.0000000000
11
5.1094948457
21
-16.0779697619
31
0.0000000000
0
SPLINE
5
37E
100
AcDbEntity
8
0
100
AcDbSpline
62
9
6
CONTINUOUS
70
0
71
3
72
9
73
5
74
3
42
0.0000001000
43
0.0000001000
44
0.0000000001
12
-0.0575356638
22
0.0780549770
32
0.0000000000
13
-0.0572552778
23
0.0782608792
33
0.0000000000
40
0.0000000000
40
0.0000000000
40
0.0000000000
40
0.0000000000
40
0.2465233112
40
1.0000000000
40
1.0000000000
40
1.0000000000
40
1.0000000000
10
5.7161606126
20
-16.4096747910
30
0.0000000000
10
5.7114326518
20
-16.4032606672
30
0.0000000000
10
5.6922571292
20
-16.3772401163
30
0.0000000000
10
5.6731125343
20
-16.3511966962
30
0.0000000000
10
5.6587323619
20
-16.3315407802
30
0.0000000000
11
5.7161606126
21
-16.4096747910
31
0.0000000000
11
5.7019801047
21
-16.3904299326
31
0.0000000000
11
5.6587323619
21
-16.3315407802
31
0.0000000000
0
SPLINE
5
37F
100
AcDbEntity
8
0
100
AcDbSpline
62
9
6
CONTINUOUS
70
0
71
3
72
11
73
7
74
5
42
0.0000001000
43
0.0000001000
44
0.0000000001
12
0.1800045845
22
0.1327436520
32
0.0000000000
13
0.2150997217
23
-0.0612750954
33
0.0000000000
40
0.0000000000
40
0.0000000000
40
0.0000000000
40
0.0000000000
40
0.2763151829
40
0.5281357834
40
0.7642578610
40
1.0000000000
40
1.0000000000
40
1.0000000000
40
1.0000000000
10
5.4497303047
20
-16.3861748606
30
0.0000000000
10
5.4663096379
20
-16.3739484985
30
0.0000000000
10
5.4995129090
20
-16.3524717535
30
0.0000000000
10
5.5524666680
20
-16.3303673251
30
0.0000000000
10
5.6063787779
20
-16.3218892373
30
0.0000000000
10
5.6418296724
20
-16.3267257395
30
0.0000000000
10
5.6587323619
20
-16.3315407802
30
0.0000000000
11
5.4497303047
21
-16.3861748606
31
0.0000000000
11
5.5019808190
21
-16.3531732281
31
0.0000000000
11
5.5542313333
21
-16.3321495973
31
0.0000000000
11
5.6064818476
21
-16.3244800781
31
0.0000000000
11
5.6587323619
21
-16.3315407802
31
0.0000000000
0
SPLINE
5
380
100
AcDbEntity
8
0
100
AcDbSpline
62
9
6
CONTINUOUS
70
0
71
3
72
9
73
5
74
3
42
0.0000001000
43
0.0000001000
44
0.0000000001
12
-0.0508689189
22
0.0933588008
32
0.0000000000
13
-0.0583238876
23
0.0888922760
33
0.0000000000
40
0.0000000000
40
0.0000000000
40
0.0000000000
40
0.0000000000
40
0.7509788461
40
1.0000000000
40
1.0000000000
40
1.0000000000
40
1.0000000000
10
5.5044127066
20
-16.4773333855
30
0.0000000000
10
5.4916788792
20
-16.4539632240
30
0.0000000000
10
5.4737185787
20
-16.4233760117
30
0.0000000000
10
5.4545715986
20
-16.3935535464
30
0.0000000000
10
5.4497303047
20
-16.3861748606
30
0.0000000000
11
5.5044127066
21
-16.4773333855
31
0.0000000000
11
5.4640340169
21
-16.4084538190
31
0.0000000000
11
5.4497303047
21
-16.3861748606
31
0.0000000000
0
SPLINE
5
381
100
AcDbEntity
8
0
100
AcDbSpline
62
7
6
CONTINUOUS
70
0
71
3
72
8
73
4
74
2
42
0.0000001000
43
0.0000001000
44
0.0000000001
12
-0.0937206530
22
-0.0997077069
32
0.0000000000
13
-0.0778552490
23
-0.1093338234
33
0.0000000000
40
0.0000000000
40
0.0000000000
40
0.0000000000
40
0.0000000000
40
1.0000000000
40
1.0000000000
40
1.0000000000
40
1.0000000000
10
10.5636426180
20
-16.2518453822
30
0.0000000000
10
10.5324024004
20
-16.2850812845
30
0.0000000000
10
10.5035830295
20
-16.3202410241
30
0.0000000000
10
10.4776312798
20
-16.3566856319
30
0.0000000000
11
10.5636426180
21
-16.2518453822
31
0.0000000000
11
10.4776312798
21
-16.3566856319
31
0.0000000000
0
SPLINE
5
382
100
AcDbEntity
8
0
100
AcDbSpline
62
9
6
CONTINUOUS
70
0
71
3
72
11
73
7
74
5
42
0.0000001000
43
0.0000001000
44
0.0000000001
12
0.1767419032
22
0.1491706815
32
0.0000000000
13
0.2225772805
23
-0.0628406461
33
0.0000000000
40
0.0000000000
40
0.0000000000
40
0.0000000000
40
0.0000000000
40
0.2830363457
40
0.5364171655
40
0.7695403472
40
1.0000000000
40
1.0000000000
40
1.0000000000
40
1.0000000000
10
5.5044127066
20
-16.4773333855
30
0.0000000000
10
5.5210875007
20
-16.4632598107
30
0.0000000000
10
5.5543767571
20
-16.4384260174
30
0.0000000000
10
5.6079691716
20
-16.4119428032
30
0.0000000000
10
5.6628261121
20
-16.4005583174
30
0.0000000000
10
5.6990622516
20
-16.4048473798
30
0.0000000000
10
5.7161606126
20
-16.4096747910
30
0.0000000000
11
5.5044127066
21
-16.4773333855
31
0.0000000000
11
5.5573496831
21
-16.4388274777
31
0.0000000000
11
5.6102866596
21
-16.4136917109
31
0.0000000000
11
5.6632236361
21
-16.4034621327
31
0.0000000000
11
5.7161606126
21
-16.4096747910
31
0.0000000000
0
SPLINE
5
383
100
AcDbEntity
8
0
100
AcDbSpline
62
9
6
CONTINUOUS
70
0
71
3
72
14
73
10
74
8
42
0.0000001000
43
0.0000001000
44
0.0000000001
12
-2.8155228415
22
0.0156591201
32
0.0000000000
13
-1.3471363911
23
2.4723748953
33
0.0000000000
40
0.0000000000
40
0.0000000000
40
0.0000000000
40
0.0000000000
40
0.2574915293
40
0.3850685983
40
0.5111953686
40
0.6356951452
40
0.7585566190
40
0.8798891668
40
1.0000000000
40
1.0000000000
40
1.0000000000
40
1.0000000000
10
7.8472870002
20
-17.7939499183
30
0.0000000000
10
7.6056292394
20
-17.7926058880
30
0.0000000000
10
7.2422648906
20
-17.7469822619
30
0.0000000000
10
6.7850808725
20
-17.5984930288
30
0.0000000000
10
6.4633652459
20
-17.4459292038
30
0.0000000000
10
6.1688169413
20
-17.2539587847
30
0.0000000000
10
5.9065135111
20
-17.0265423556
30
0.0000000000
10
5.6815604382
20
-16.7676050115
30
0.0000000000
10
5.5583479314
20
-16.5763197218
30
0.0000000000
10
5.5044127066
20
-16.4773333855
30
0.0000000000
11
7.8472870002
21
-17.7939499183
31
0.0000000000
11
7.1281602641
21
-17.7019757088
31
0.0000000000
11
6.7865874115
21
-17.5908278216
31
0.0000000000
11
6.4659165332
21
-17.4382526230
31
0.0000000000
11
6.1723625611
21
-17.2466735936
31
0.0000000000
11
5.9112335712
21
-17.0197914562
31
0.0000000000
11
5.6873405155
21
-16.7617681687
31
0.0000000000
11
5.5044127066
21
-16.4773333855
31
0.0000000000
0
SPLINE
5
384
100
AcDbEntity
8
0
100
AcDbSpline
62
9
6
CONTINUOUS
70
0
71
3
72
13
73
9
74
7
42
0.0000001000
43
0.0000001000
44
0.0000000001
12
-1.4545968854
22
-1.8721687896
32
0.0000000000
13
-2.3708078545
23
0.0117555387
33
0.0000000000
40
0.0000000000
40
0.0000000000
40
0.0000000000
40
0.0000000000
40
0.1238183401
40
0.2469663865
40
0.3701255649
40
0.4938506601
40
0.7441534451
40
1.0000000000
40
1.0000000000
40
1.0000000000
40
1.0000000000
10
9.9289483803
20
-16.4791999490
30
0.0000000000
10
9.8689131230
20
-16.5564695596
30
0.0000000000
10
9.7393162146
20
-16.7032156606
30
0.0000000000
10
9.5194585589
20
-16.8971979629
30
0.0000000000
10
9.2776966320
20
-17.0630113971
30
0.0000000000
10
8.9290531840
20
-17.2458946910
30
0.0000000000
10
8.4509480193
20
-17.3993166406
30
0.0000000000
10
8.0494746742
20
-17.4377400660
30
0.0000000000
10
7.8472870002
20
-17.4367375279
30
0.0000000000
11
9.9289483803
21
-16.4791999490
31
0.0000000000
11
9.7346654396
21
-16.6992625823
31
0.0000000000
11
9.5158112109
21
-16.8925131234
31
0.0000000000
11
9.2751248017
21
-17.0578261877
31
0.0000000000
11
9.0154472413
21
-17.1942492302
31
0.0000000000
11
8.4509297532
21
-17.3772129776
31
0.0000000000
11
7.8472870002
21
-17.4367375279
31
0.0000000000
0
SPLINE
5
385
100
AcDbEntity
8
0
100
AcDbSpline
62
9
6
CONTINUOUS
70
0
71
3
72
13
73
9
74
7
42
0.0000001000
43
0.0000001000
44
0.0000000001
12
-1.3308684445
22
-2.4611209172
32
0.0000000000
13
-2.7978714842
23
0.0155609484
33
0.0000000000
40
0.0000000000
40
0.0000000000
40
0.0000000000
40
0.0000000000
40
0.1199891312
40
0.2414155476
40
0.4887747441
40
0.6152570218
40
0.7430571271
40
1.0000000000
40
1.0000000000
40
1.0000000000
40
1.0000000000
10
10.1777471880
20
-16.4957432177
30
0.0000000000
10
10.1245172719
20
-16.5941791379
30
0.0000000000
10
10.0028412312
20
-16.7847657642
30
0.0000000000
10
9.7045005125
20
-17.1309920909
30
0.0000000000
10
9.3288601176
20
-17.4121896075
30
0.0000000000
10
8.9039866177
20
-17.6106403498
30
0.0000000000
10
8.4482534889
20
-17.7544475148
30
0.0000000000
10
8.0869180459
20
-17.7952826765
30
0.0000000000
10
7.8472870002
20
-17.7939499183
30
0.0000000000
11
10.1777471880
21
-16.4957432177
31
0.0000000000
11
9.9972217654
21
-16.7787945575
31
0.0000000000
11
9.7754478444
21
-17.0361661054
31
0.0000000000
11
9.2226939602
21
-17.4526413587
31
0.0000000000
11
8.9023039821
21
-17.6029277845
31
0.0000000000
11
8.5613528903
21
-17.7106838789
31
0.0000000000
11
7.8472870002
21
-17.7939499183
31
0.0000000000
0
SPLINE
5
386
100
AcDbEntity
8
0
100
AcDbSpline
62
9
6
CONTINUOUS
70
0
71
3
72
9
73
5
74
3
42
0.0000001000
43
0.0000001000
44
0.0000000001
12
-0.1195124218
22
-0.1572297570
32
0.0000000000
13
-0.1211707634
23
-0.1559553191
33
0.0000000000
40
0.0000000000
40
0.0000000000
40
0.0000000000
40
0.0000000000
40
0.2565483445
40
1.0000000000
40
1.0000000000
40
1.0000000000
40
1.0000000000
10
10.0495785891
20
-16.3228270740
30
0.0000000000
10
10.0393583511
20
-16.3362727520
30
0.0000000000
10
9.9993816118
20
-16.3885769575
30
0.0000000000
10
9.9589765818
20
-16.4405515356
30
0.0000000000
10
9.9289483803
20
-16.4791999490
30
0.0000000000
11
10.0495785891
21
-16.3228270740
31
0.0000000000
11
10.0188182297
21
-16.3630881715
31
0.0000000000
11
9.9289483803
21
-16.4791999490
31
0.0000000000
0
SPLINE
5
387
100
AcDbEntity
8
0
100
AcDbSpline
62
9
6
CONTINUOUS
70
0
71
3
72
10
73
6
74
4
42
0.0000001000
43
0.0000001000
44
0.0000000001
12
-0.2348579498
22
0.0974880077
32
0.0000000000
13
-0.2412235402
23
-0.0804572675
33
0.0000000000
40
0.0000000000
40
0.0000000000
40
0.0000000000
40
0.0000000000
40
0.5046997241
40
0.7493407184
40
1.0000000000
40
1.0000000000
40
1.0000000000
40
1.0000000000
10
10.1777471880
20
-16.4957432177
30
0.0000000000
10
10.1382362739
20
-16.4793424941
30
0.0000000000
10
10.0756523134
20
-16.4619026947
30
0.0000000000
10
9.9904133604
20
-16.4631609534
30
0.0000000000
10
9.9491033534
20
-16.4724774954
30
0.0000000000
10
9.9289483803
20
-16.4791999490
30
0.0000000000
11
10.1777471880
21
-16.4957432177
31
0.0000000000
11
10.0533477841
21
-16.4641892489
31
0.0000000000
11
9.9911480822
21
-16.4652742179
31
0.0000000000
11
9.9289483803
21
-16.4791999490
31
0.0000000000
0
SPLINE
5
388
100
AcDbEntity
8
0
100
AcDbSpline
62
9
6
CONTINUOUS
70
0
71
3
72
9
73
5
74
3
42
0.0000001000
43
0.0000001000
44
0.0000000001
12
-0.1318831318
22
-0.1716448303
32
0.0000000000
13
-0.1029625101
23
-0.1904043848
33
0.0000000000
40
0.0000000000
40
0.0000000000
40
0.0000000000
40
0.0000000000
40
0.2481977719
40
1.0000000000
40
1.0000000000
40
1.0000000000
40
1.0000000000
10
10.2959888676
20
-16.3145772574
30
0.0000000000
10
10.2850778344
20
-16.3287778788
30
0.0000000000
10
10.2421748253
20
-16.3867903974
30
0.0000000000
10
10.2035496695
20
-16.4480277374
30
0.0000000000
10
10.1777471880
20
-16.4957432177
30
0.0000000000
11
10.2959888676
21
-16.3145772574
31
0.0000000000
11
10.2640444968
21
-16.3577736904
31
0.0000000000
11
10.1777471880
21
-16.4957432177
31
0.0000000000
0
SPLINE
5
389
100
AcDbEntity
8
0
100
AcDbSpline
62
9
6
CONTINUOUS
70
0
71
3
72
10
73
6
74
4
42
0.0000001000
43
0.0000001000
44
0.0000000001
12
-0.2429512189
22
0.0563209924
32
0.0000000000
13
-0.2362687386
23
-0.0798400408
33
0.0000000000
40
0.0000000000
40
0.0000000000
40
0.0000000000
40
0.0000000000
40
0.4969417784
40
0.7451187483
40
1.0000000000
40
1.0000000000
40
1.0000000000
40
1.0000000000
10
10.2959888676
20
-16.3145772574
30
0.0000000000
10
10.2557446640
20
-16.3052478393
30
0.0000000000
10
10.1933721840
20
-16.2976639147
30
0.0000000000
10
10.1103736656
20
-16.3056541895
30
0.0000000000
10
10.0696520797
20
-16.3160438309
30
0.0000000000
10
10.0495785891
20
-16.3228270740
30
0.0000000000
11
10.2959888676
21
-16.3145772574
31
0.0000000000
11
10.1727837284
21
-16.3011534224
31
0.0000000000
11
10.1111811587
21
-16.3071509732
31
0.0000000000
11
10.0495785891
21
-16.3228270740
31
0.0000000000
0
SPLINE
5
38A
100
AcDbEntity
8
0
100
AcDbSpline
62
9
6
CONTINUOUS
70
0
71
3
72
9
73
5
74
3
42
0.0000001000
43
0.0000001000
44
0.0000000001
12
-0.3365774527
22
0.1881648451
32
0.0000000000
13
-0.2343911752
23
0.3050582203
33
0.0000000000
40
0.0000000000
40
0.0000000000
40
0.0000000000
40
0.0000000000
40
0.3926930941
40
1.0000000000
40
1.0000000000
40
1.0000000000
40
1.0000000000
10
10.5862389102
20
-15.6089234866
30
0.0000000000
10
10.5421816964
20
-15.5842931415
30
0.0000000000
10
10.4348303039
20
-15.5128079853
30
0.0000000000
10
10.3434379941
20
-15.4206524532
30
0.0000000000
10
10.2959888676
20
-15.3588977985
30
0.0000000000
11
10.5862389102
21
-15.6089234866
31
0.0000000000
11
10.4603304115
21
-15.5249621526
31
0.0000000000
11
10.2959888676
21
-15.3588977985
31
0.0000000000
0
SPLINE
5
38B
100
AcDbEntity
8
0
100
AcDbSpline
62
9
6
CONTINUOUS
70
0
71
3
72
11
73
7
74
5
42
0.0000001000
43
0.0000001000
44
0.0000000001
12
-0.6420915026
22
0.1622757572
32
0.0000000000
13
-0.3995597801
23
0.5256582216
33
0.0000000000
40
0.0000000000
40
0.0000000000
40
0.0000000000
40
0.0000000000
40
0.3185829839
40
0.4926438807
40
0.6639735103
40
1.0000000000
40
1.0000000000
40
1.0000000000
40
1.0000000000
10
10.5928401923
20
-15.7055386015
30
0.0000000000
10
10.5246537167
20
-15.6883058365
30
0.0000000000
10
10.4220299152
20
-15.6508124757
30
0.0000000000
10
10.2943445607
20
-15.5791064206
30
0.0000000000
10
10.1727741185
20
-15.4908665753
30
0.0000000000
10
10.0943328126
20
-15.4095263442
30
0.0000000000
10
10.0495785891
20
-15.3506479818
30
0.0000000000
11
10.5928401923
21
-15.7055386015
31
0.0000000000
11
10.3952220560
21
-15.6332436180
31
0.0000000000
11
10.2950383164
21
-15.5769255687
31
0.0000000000
11
10.2035344050
21
-15.5104103846
31
0.0000000000
11
10.0495785891
21
-15.3506479818
31
0.0000000000
0
SPLINE
5
38C
100
AcDbEntity
8
0
100
AcDbSpline
62
7
6
CONTINUOUS
70
0
71
3
72
8
73
4
74
2
42
0.0000001000
43
0.0000001000
44
0.0000000001
12
-0.0937206530
22
0.0997077069
32
0.0000000000
13
-0.0778552490
23
0.1093338234
33
0.0000000000
40
0.0000000000
40
0.0000000000
40
0.0000000000
40
0.0000000000
40
1.0000000000
40
1.0000000000
40
1.0000000000
40
1.0000000000
10
10.5636426180
20
-15.4216296737
30
0.0000000000
10
10.5324024004
20
-15.3883937714
30
0.0000000000
10
10.5035830295
20
-15.3532340318
30
0.0000000000
10
10.4776312798
20
-15.3167894240
30
0.0000000000
11
10.5636426180
21
-15.4216296737
31
0.0000000000
11
10.4776312798
21
-15.3167894240
31
0.0000000000
0
SPLINE
5
38D
100
AcDbEntity
8
0
100
AcDbSpline
62
9
6
CONTINUOUS
70
0
71
3
72
10
73
6
74
4
42
0.0000001000
43
0.0000001000
44
0.0000000001
12
-0.2429512189
22
-0.0563209924
32
0.0000000000
13
-0.2362687386
23
0.0798400408
33
0.0000000000
40
0.0000000000
40
0.0000000000
40
0.0000000000
40
0.0000000000
40
0.4969417784
40
0.7451187483
40
1.0000000000
40
1.0000000000
40
1.0000000000
40
1.0000000000
10
10.2959888676
20
-15.3588977985
30
0.0000000000
10
10.2557446640
20
-15.3682272166
30
0.0000000000
10
10.1933721840
20
-15.3758111412
30
0.0000000000
10
10.1103736656
20
-15.3678208663
30
0.0000000000
10
10.0696520797
20
-15.3574312250
30
0.0000000000
10
10.0495785891
20
-15.3506479818
30
0.0000000000
11
10.2959888676
21
-15.3588977985
31
0.0000000000
11
10.1727837284
21
-15.3723216335
31
0.0000000000
11
10.1111811587
21
-15.3663240827
31
0.0000000000
11
10.0495785891
21
-15.3506479818
31
0.0000000000
0
SPLINE
5
38E
100
AcDbEntity
8
0
100
AcDbSpline
62
9
6
CONTINUOUS
70
0
71
3
72
9
73
5
74
3
42
0.0000001000
43
0.0000001000
44
0.0000000001
12
-0.1318831318
22
0.1716448303
32
0.0000000000
13
-0.1029625101
23
0.1904043848
33
0.0000000000
40
0.0000000000
40
0.0000000000
40
0.0000000000
40
0.0000000000
40
0.2481977719
40
1.0000000000
40
1.0000000000
40
1.0000000000
40
1.0000000000
10
10.2959888676
20
-15.3588977985
30
0.0000000000
10
10.2850778344
20
-15.3446971770
30
0.0000000000
10
10.2421748253
20
-15.2866846585
30
0.0000000000
10
10.2035496695
20
-15.2254473184
30
0.0000000000
10
10.1777471880
20
-15.1777318382
30
0.0000000000
11
10.2959888676
21
-15.3588977985
31
0.0000000000
11
10.2640444968
21
-15.3157013655
31
0.0000000000
11
10.1777471880
21
-15.1777318382
31
0.0000000000
0
SPLINE
5
38F
100
AcDbEntity
8
0
100
AcDbSpline
62
9
6
CONTINUOUS
70
0
71
3
72
9
73
5
74
3
42
0.0000001000
43
0.0000001000
44
0.0000000001
12
-0.1195124218
22
0.1572297570
32
0.0000000000
13
-0.1211707634
23
0.1559553191
33
0.0000000000
40
0.0000000000
40
0.0000000000
40
0.0000000000
40
0.0000000000
40
0.2565483445
40
1.0000000000
40
1.0000000000
40
1.0000000000
40
1.0000000000
10
10.0495785891
20
-15.3506479818
30
0.0000000000
10
10.0393583511
20
-15.3372023039
30
0.0000000000
10
9.9993816118
20
-15.2848980984
30
0.0000000000
10
9.9589765818
20
-15.2329235203
30
0.0000000000
10
9.9289483803
20
-15.1942751069
30
0.0000000000
11
10.0495785891
21
-15.3506479818
31
0.0000000000
11
10.0188182297
21
-15.3103868843
31
0.0000000000
11
9.9289483803
21
-15.1942751069
31
0.0000000000
0
SPLINE
5
390
100
AcDbEntity
8
0
100
AcDbSpline
62
9
6
CONTINUOUS
70
0
71
3
72
10
73
6
74
4
42
0.0000001000
43
0.0000001000
44
0.0000000001
12
-0.2348579498
22
-0.0974880077
32
0.0000000000
13
-0.2412235402
23
0.0804572675
33
0.0000000000
40
0.0000000000
40
0.0000000000
40
0.0000000000
40
0.0000000000
40
0.5046997241
40
0.7493407184
40
1.0000000000
40
1.0000000000
40
1.0000000000
40
1.0000000000
10
10.1777471880
20
-15.1777318382
30
0.0000000000
10
10.1382362739
20
-15.1941325617
30
0.0000000000
10
10.0756523134
20
-15.2115723611
30
0.0000000000
10
9.9904133604
20
-15.2103141025
30
0.0000000000
10
9.9491033534
20
-15.2009975605
30
0.0000000000
10
9.9289483803
20
-15.1942751069
30
0.0000000000
11
10.1777471880
21
-15.1777318382
31
0.0000000000
11
10.0533477841
21
-15.2092858070
31
0.0000000000
11
9.9911480822
21
-15.2082008380
31
0.0000000000
11
9.9289483803
21
-15.1942751069
31
0.0000000000
0
SPLINE
5
391
100
AcDbEntity
8
0
100
AcDbSpline
62
9
6
CONTINUOUS
70
0
71
3
72
13
73
9
74
7
42
0.0000001000
43
0.0000001000
44
0.0000000001
12
-1.3308684445
22
2.4611209172
32
0.0000000000
13
-2.7978714842
23
-0.0155609484
33
0.0000000000
40
0.0000000000
40
0.0000000000
40
0.0000000000
40
0.0000000000
40
0.1199891312
40
0.2414155476
40
0.4887747441
40
0.6152570218
40
0.7430571271
40
1.0000000000
40
1.0000000000
40
1.0000000000
40
1.0000000000
10
10.1777471880
20
-15.1777318382
30
0.0000000000
10
10.1245172719
20
-15.0792959180
30
0.0000000000
10
10.0028412312
20
-14.8887092917
30
0.0000000000
10
9.7045005125
20
-14.5424829650
30
0.0000000000
10
9.3288601176
20
-14.2612854484
30
0.0000000000
10
8.9039866177
20
-14.0628347061
30
0.0000000000
10
8.4482534889
20
-13.9190275411
30
0.0000000000
10
8.0869180459
20
-13.8781923794
30
0.0000000000
10
7.8472870002
20
-13.8795251376
30
0.0000000000
11
10.1777471880
21
-15.1777318382
31
0.0000000000
11
9.9972217654
21
-14.8946804984
31
0.0000000000
11
9.7754478444
21
-14.6373089505
31
0.0000000000
11
9.2226939602
21
-14.2208336971
31
0.0000000000
11
8.9023039821
21
-14.0705472713
31
0.0000000000
11
8.5613528903
21
-13.9627911770
31
0.0000000000
11
7.8472870002
21
-13.8795251376
31
0.0000000000
0
SPLINE
5
392
100
AcDbEntity
8
0
100
AcDbSpline
62
9
6
CONTINUOUS
70
0
71
3
72
13
73
9
74
7
42
0.0000001000
43
0.0000001000
44
0.0000000001
12
-1.4545968854
22
1.8721687896
32
0.0000000000
13
-2.3708078545
23
-0.0117555387
33
0.0000000000
40
0.0000000000
40
0.0000000000
40
0.0000000000
40
0.0000000000
40
0.1238183401
40
0.2469663865
40
0.3701255649
40
0.4938506601
40
0.7441534451
40
1.0000000000
40
1.0000000000
40
1.0000000000
40
1.0000000000
10
9.9289483803
20
-15.1942751069
30
0.0000000000
10
9.8689131230
20
-15.1170054962
30
0.0000000000
10
9.7393162146
20
-14.9702593953
30
0.0000000000
10
9.5194585589
20
-14.7762770929
30
0.0000000000
10
9.2776966320
20
-14.6104636588
30
0.0000000000
10
8.9290531840
20
-14.4275803648
30
0.0000000000
10
8.4509480193
20
-14.2741584153
30
0.0000000000
10
8.0494746742
20
-14.2357349899
30
0.0000000000
10
7.8472870002
20
-14.2367375279
30
0.0000000000
11
9.9289483803
21
-15.1942751069
31
0.0000000000
11
9.7346654396
21
-14.9742124736
31
0.0000000000
11
9.5158112109
21
-14.7809619325
31
0.0000000000
11
9.2751248017
21
-14.6156488682
31
0.0000000000
11
9.0154472413
21
-14.4792258257
31
0.0000000000
11
8.4509297532
21
-14.2962620783
31
0.0000000000
11
7.8472870002
21
-14.2367375279
31
0.0000000000
0
SPLINE
5
393
100
AcDbEntity
8
0
100
AcDbSpline
62
9
6
CONTINUOUS
70
0
71
3
72
14
73
10
74
8
42
0.0000001000
43
0.0000001000
44
0.0000000001
12
-2.8155228415
22
-0.0156591201
32
0.0000000000
13
-1.3471363911
23
-2.4723748953
33
0.0000000000
40
0.0000000000
40
0.0000000000
40
0.0000000000
40
0.0000000000
40
0.2574915293
40
0.3850685983
40
0.5111953686
40
0.6356951452
40
0.7585566190
40
0.8798891668
40
1.0000000000
40
1.0000000000
40
1.0000000000
40
1.0000000000
10
7.8472870002
20
-13.8795251376
30
0.0000000000
10
7.6056292394
20
-13.8808691679
30
0.0000000000
10
7.2422648906
20
-13.9264927940
30
0.0000000000
10
6.7850808725
20
-14.0749820271
30
0.0000000000
10
6.4633652459
20
-14.2275458521
30
0.0000000000
10
6.1688169413
20
-14.4195162711
30
0.0000000000
10
5.9065135111
20
-14.6469327003
30
0.0000000000
10
5.6815604382
20
-14.9058700443
30
0.0000000000
10
5.5583479314
20
-15.0971553341
30
0.0000000000
10
5.5044127066
20
-15.1961416704
30
0.0000000000
11
7.8472870002
21
-13.8795251376
31
0.0000000000
11
7.1281602641
21
-13.9714993471
31
0.0000000000
11
6.7865874115
21
-14.0826472342
31
0.0000000000
11
6.4659165332
21
-14.2352224329
31
0.0000000000
11
6.1723625611
21
-14.4268014623
31
0.0000000000
11
5.9112335712
21
-14.6536835997
31
0.0000000000
11
5.6873405155
21
-14.9117068872
31
0.0000000000
11
5.5044127066
21
-15.1961416704
31
0.0000000000
0
SPLINE
5
394
100
AcDbEntity
8
0
100
AcDbSpline
62
7
6
CONTINUOUS
70
0
71
3
72
8
73
4
74
2
42
0.0000001000
43
0.0000001000
44
0.0000000001
12
-0.1292948303
22
0.2313038847
32
0.0000000000
13
-0.1879866250
23
0.1913617218
33
0.0000000000
40
0.0000000000
40
0.0000000000
40
0.0000000000
40
0.0000000000
40
1.0000000000
40
1.0000000000
40
1.0000000000
40
1.0000000000
10
5.2956635260
20
-16.4997907828
30
0.0000000000
10
5.2525652492
20
-16.4226894879
30
0.0000000000
10
5.1985204045
20
-16.3504323144
30
0.0000000000
10
5.1358581962
20
-16.2866450738
30
0.0000000000
11
5.2956635260
21
-16.4997907828
31
0.0000000000
11
5.1358581962
21
-16.2866450738
31
0.0000000000
0
SPLINE
5
395
100
AcDbEntity
8
0
100
AcDbSpline
62
9
6
CONTINUOUS
70
0
71
3
72
11
73
7
74
5
42
0.0000001000
43
0.0000001000
44
0.0000000001
12
0.1767419032
22
-0.1491706815
32
0.0000000000
13
0.2225772805
23
0.0628406461
33
0.0000000000
40
0.0000000000
40
0.0000000000
40
0.0000000000
40
0.0000000000
40
0.2830363457
40
0.5364171655
40
0.7695403472
40
1.0000000000
40
1.0000000000
40
1.0000000000
40
1.0000000000
10
5.5044127066
20
-15.1961416704
30
0.0000000000
10
5.5210875007
20
-15.2102152452
30
0.0000000000
10
5.5543767571
20
-15.2350490385
30
0.0000000000
10
5.6079691716
20
-15.2615322527
30
0.0000000000
10
5.6628261121
20
-15.2729167384
30
0.0000000000
10
5.6990622516
20
-15.2686276761
30
0.0000000000
10
5.7161606126
20
-15.2638002649
30
0.0000000000
11
5.5044127066
21
-15.1961416704
31
0.0000000000
11
5.5573496831
21
-15.2346475782
31
0.0000000000
11
5.6102866596
21
-15.2597833450
31
0.0000000000
11
5.6632236361
21
-15.2700129231
31
0.0000000000
11
5.7161606126
21
-15.2638002649
31
0.0000000000
0
SPLINE
5
396
100
AcDbEntity
8
0
100
AcDbSpline
62
9
6
CONTINUOUS
70
0
71
3
72
9
73
5
74
3
42
0.0000001000
43
0.0000001000
44
0.0000000001
12
-0.0508689189
22
-0.0933588008
32
0.0000000000
13
-0.0583238876
23
-0.0888922760
33
0.0000000000
40
0.0000000000
40
0.0000000000
40
0.0000000000
40
0.0000000000
40
0.7509788461
40
1.0000000000
40
1.0000000000
40
1.0000000000
40
1.0000000000
10
5.5044127066
20
-15.1961416704
30
0.0000000000
10
5.4916788792
20
-15.2195118319
30
0.0000000000
10
5.4737185787
20
-15.2500990442
30
0.0000000000
10
5.4545715986
20
-15.2799215095
30
0.0000000000
10
5.4497303047
20
-15.2873001952
30
0.0000000000
11
5.5044127066
21
-15.1961416704
31
0.0000000000
11
5.4640340169
21
-15.2650212369
31
0.0000000000
11
5.4497303047
21
-15.2873001952
31
0.0000000000
0
SPLINE
5
397
100
AcDbEntity
8
0
100
AcDbSpline
62
9
6
CONTINUOUS
70
0
71
3
72
9
73
5
74
3
42
0.0000001000
43
0.0000001000
44
0.0000000001
12
-0.0575356638
22
-0.0780549770
32
0.0000000000
13
-0.0572552778
23
-0.0782608792
33
0.0000000000
40
0.0000000000
40
0.0000000000
40
0.0000000000
40
0.0000000000
40
0.2465233112
40
1.0000000000
40
1.0000000000
40
1.0000000000
40
1.0000000000
10
5.7161606126
20
-15.2638002649
30
0.0000000000
10
5.7114326518
20
-15.2702143887
30
0.0000000000
10
5.6922571292
20
-15.2962349396
30
0.0000000000
10
5.6731125343
20
-15.3222783597
30
0.0000000000
10
5.6587323619
20
-15.3419342757
30
0.0000000000
11
5.7161606126
21
-15.2638002649
31
0.0000000000
11
5.7019801047
21
-15.2830451233
31
0.0000000000
11
5.6587323619
21
-15.3419342757
31
0.0000000000
0
SPLINE
5
398
100
AcDbEntity
8
0
100
AcDbSpline
62
9
6
CONTINUOUS
70
0
71
3
72
11
73
7
74
5
42
0.0000001000
43
0.0000001000
44
0.0000000001
12
0.1800045845
22
-0.1327436520
32
0.0000000000
13
0.2150997217
23
0.0612750954
33
0.0000000000
40
0.0000000000
40
0.0000000000
40
0.0000000000
40
0.0000000000
40
0.2763151829
40
0.5281357834
40
0.7642578610
40
1.0000000000
40
1.0000000000
40
1.0000000000
40
1.0000000000
10
5.4497303047
20
-15.2873001952
30
0.0000000000
10
5.4663096379
20
-15.2995265574
30
0.0000000000
10
5.4995129090
20
-15.3210033024
30
0.0000000000
10
5.5524666680
20
-15.3431077307
30
0.0000000000
10
5.6063787779
20
-15.3515858186
30
0.0000000000
10
5.6418296724
20
-15.3467493164
30
0.0000000000
10
5.6587323619
20
-15.3419342757
30
0.0000000000
11
5.4497303047
21
-15.2873001952
31
0.0000000000
11
5.5019808190
21
-15.3203018278
31
0.0000000000
11
5.5542313333
21
-15.3413254586
31
0.0000000000
11
5.6064818476
21
-15.3489949778
31
0.0000000000
11
5.6587323619
21
-15.3419342757
31
0.0000000000
0
SPLINE
5
399
100
AcDbEntity
8
0
100
AcDbSpline
62
9
6
CONTINUOUS
70
0
71
3
72
9
73
5
74
3
42
0.0000001000
43
0.0000001000
44
0.0000000001
12
-0.2535806697
22
-0.3864859458
32
0.0000000000
13
-0.4098406369
23
-0.2170535027
33
0.0000000000
40
0.0000000000
40
0.0000000000
40
0.0000000000
40
0.0000000000
40
0.5838384721
40
1.0000000000
40
1.0000000000
40
1.0000000000
40
1.0000000000
10
5.4497303047
20
-15.2873001952
30
0.0000000000
10
5.4003802544
20
-15.3625153166
30
0.0000000000
10
5.2956917593
20
-15.4792298379
30
0.0000000000
10
5.1663481476
20
-15.5653955216
30
0.0000000000
10
5.1094948457
20
-15.5955052940
30
0.0000000000
11
5.4497303047
21
-15.2873001952
31
0.0000000000
11
5.2697337878
21
-15.4883870705
31
0.0000000000
11
5.1094948457
21
-15.5955052940
31
0.0000000000
0
SPLINE
5
39A
100
AcDbEntity
8
0
100
AcDbSpline
62
9
6
CONTINUOUS
70
0
71
3
72
10
73
6
74
4
42
0.0000001000
43
0.0000001000
44
0.0000000001
12
-0.4000614397
22
-0.5468344785
32
0.0000000000
13
-0.6619684233
23
-0.1538906737
33
0.0000000000
40
0.0000000000
40
0.0000000000
40
0.0000000000
40
0.0000000000
40
0.3707996442
40
0.7488867049
40
1.0000000000
40
1.0000000000
40
1.0000000000
40
1.0000000000
10
5.6587323619
20
-15.3419342757
30
0.0000000000
10
5.6092848154
20
-15.4095229524
30
0.0000000000
10
5.4900471919
20
-15.5329335562
30
0.0000000000
10
5.2930104165
20
-15.6485919690
30
0.0000000000
10
5.1569921742
20
-15.6926502863
30
0.0000000000
10
5.1015824835
20
-15.7055316177
30
0.0000000000
11
5.6587323619
21
-15.3419342757
31
0.0000000000
11
5.4842644672
21
-15.5227119163
31
0.0000000000
11
5.2636435384
21
-15.6529094487
31
0.0000000000
11
5.1015824835
21
-15.7055316177
31
0.0000000000
0
SPLINE
5
39B
100
AcDbEntity
8
0
100
AcDbSpline
62
7
6
CONTINUOUS
70
0
71
3
72
8
73
4
74
2
42
0.0000001000
43
0.0000001000
44
0.0000000001
12
-0.0468116249
22
0.1144247131
32
0.0000000000
13
-0.0575558632
23
0.1029654064
33
0.0000000000
40
0.0000000000
40
0.0000000000
40
0.0000000000
40
0.0000000000
40
1.0000000000
40
1.0000000000
40
1.0000000000
40
1.0000000000
10
5.3483218135
20
-16.6090745543
30
0.0000000000
10
5.3327179385
20
-16.5709329833
30
0.0000000000
10
5.3148488137
20
-16.5341125849
30
0.0000000000
10
5.2956635260
20
-16.4997907828
30
0.0000000000
11
5.3483218135
21
-16.6090745543
31
0.0000000000
11
5.2956635260
21
-16.4997907828
31
0.0000000000
0
SPLINE
5
39C
100
AcDbEntity
8
0
100
AcDbSpline
62
7
6
CONTINUOUS
70
0
71
3
72
11
73
7
74
5
42
0.0000001000
43
0.0000001000
44
0.0000000001
12
-3.2316933780
22
0.0000000000
32
0.0000000000
13
-1.1860493560
23
2.8991379300
33
0.0000000000
40
0.0000000000
40
0.0000000000
40
0.0000000000
40
0.0000000000
40
0.2500000000
40
0.5000000000
40
0.7500000000
40
1.0000000000
40
1.0000000000
40
1.0000000000
40
1.0000000000
10
7.8472870002
20
-18.2867375279
30
0.0000000000
10
7.5779792187
20
-18.2867375279
30
0.0000000000
10
7.0401915593
20
-18.2054857081
30
0.0000000000
10
6.3088349710
20
-17.8537978951
30
0.0000000000
10
5.7167945240
20
-17.3081973853
30
0.0000000000
10
5.4471592598
20
-16.8506693818
30
0.0000000000
10
5.3483218135
20
-16.6090745543
30
0.0000000000
11
7.8472870002
21
-18.2867375279
31
0.0000000000
11
7.0527457094
21
-18.1671840275
31
0.0000000000
11
6.3320543279
21
-17.8214791123
31
0.0000000000
11
5.7480591158
21
-17.2847488027
31
0.0000000000
11
5.3483218135
21
-16.6090745543
31
0.0000000000
0
SPLINE
5
39D
100
AcDbEntity
8
0
100
AcDbSpline
62
7
6
CONTINUOUS
70
0
71
3
72
11
73
7
74
5
42
0.0000001000
43
0.0000001000
44
0.0000000001
12
-1.1413872921
22
-2.9125868515
32
0.0000000000
13
-3.1926649364
23
0.0000000000
33
0.0000000000
40
0.0000000000
40
0.0000000000
40
0.0000000000
40
0.0000000000
40
0.2500000000
40
0.5000000000
40
0.7500000000
40
1.0000000000
40
1.0000000000
40
1.0000000000
40
1.0000000000
10
10.3611503150
20
-16.5718726631
30
0.0000000000
10
10.2660347073
20
-16.8145882340
30
0.0000000000
10
10.0006558900
20
-17.2820797044
30
0.0000000000
10
9.3996930561
20
-17.8466913108
30
0.0000000000
10
8.6533725867
20
-18.2070283892
30
0.0000000000
10
8.1133424116
20
-18.2867375279
30
0.0000000000
10
7.8472870002
20
-18.2867375279
30
0.0000000000
11
10.3611503150
21
-16.5718726631
31
0.0000000000
11
9.9668401220
21
-17.2593087712
31
0.0000000000
11
9.3754667835
21
-17.8126455561
31
0.0000000000
11
8.6427517878
21
-18.1668994941
31
0.0000000000
11
7.8472870002
21
-18.2867375279
31
0.0000000000
0
SPLINE
5
39E
100
AcDbEntity
8
0
100
AcDbSpline
62
7
6
CONTINUOUS
70
0
71
3
72
8
73
4
74
2
42
0.0000001000
43
0.0000001000
44
0.0000000001
12
-0.1347090176
22
-0.1891748099
32
0.0000000000
13
-0.0922973091
23
-0.2355238497
33
0.0000000000
40
0.0000000000
40
0.0000000000
40
0.0000000000
40
0.0000000000
40
1.0000000000
40
1.0000000000
40
1.0000000000
40
1.0000000000
10
10.4776312798
20
-16.3566856319
30
0.0000000000
10
10.4327282740
20
-16.4197439019
30
0.0000000000
10
10.3919160847
20
-16.4933647132
30
0.0000000000
10
10.3611503150
20
-16.5718726631
30
0.0000000000
11
10.4776312798
21
-16.3566856319
31
0.0000000000
11
10.3611503150
21
-16.5718726631
31
0.0000000000
0
SPLINE
5
39F
100
AcDbEntity
8
0
100
AcDbSpline
62
9
6
CONTINUOUS
70
0
71
3
72
11
73
7
74
5
42
0.0000001000
43
0.0000001000
44
0.0000000001
12
-0.6420915026
22
-0.1622757572
32
0.0000000000
13
-0.3995597801
23
-0.5256582216
33
0.0000000000
40
0.0000000000
40
0.0000000000
40
0.0000000000
40
0.0000000000
40
0.3185829839
40
0.4926438807
40
0.6639735103
40
1.0000000000
40
1.0000000000
40
1.0000000000
40
1.0000000000
10
10.5928401923
20
-15.9679364544
30
0.0000000000
10
10.5246537167
20
-15.9851692194
30
0.0000000000
10
10.4220299152
20
-16.0226625802
30
0.0000000000
10
10.2943445607
20
-16.0943686352
30
0.0000000000
10
10.1727741185
20
-16.1826084805
30
0.0000000000
10
10.0943328126
20
-16.2639487117
30
0.0000000000
10
10.0495785891
20
-16.3228270740
30
0.0000000000
11
10.5928401923
21
-15.9679364544
31
0.0000000000
11
10.3952220560
21
-16.0402314379
31
0.0000000000
11
10.2950383164
21
-16.0965494872
31
0.0000000000
11
10.2035344050
21
-16.1630646713
31
0.0000000000
11
10.0495785891
21
-16.3228270740
31
0.0000000000
0
SPLINE
5
3A0
100
AcDbEntity
8
0
100
AcDbSpline
62
7
6
CONTINUOUS
70
0
71
3
72
8
73
4
74
2
42
0.0000001000
43
0.0000001000
44
0.0000000001
12
-0.1347090176
22
0.1891748099
32
0.0000000000
13
-0.0922973091
23
0.2355238497
33
0.0000000000
40
0.0000000000
40
0.0000000000
40
0.0000000000
40
0.0000000000
40
1.0000000000
40
1.0000000000
40
1.0000000000
40
1.0000000000
10
10.4776312798
20
-15.3167894240
30
0.0000000000
10
10.4327282740
20
-15.2537311540
30
0.0000000000
10
10.3919160847
20
-15.1801103427
30
0.0000000000
10
10.3611503150
20
-15.1016023928
30
0.0000000000
11
10.4776312798
21
-15.3167894240
31
0.0000000000
11
10.3611503150
21
-15.1016023928
31
0.0000000000
0
SPLINE
5
3A1
100
AcDbEntity
8
0
100
AcDbSpline
62
7
6
CONTINUOUS
70
0
71
3
72
11
73
7
74
5
42
0.0000001000
43
0.0000001000
44
0.0000000001
12
-1.1413872921
22
2.9125868515
32
0.0000000000
13
-3.1926649364
23
0.0000000000
33
0.0000000000
40
0.0000000000
40
0.0000000000
40
0.0000000000
40
0.0000000000
40
0.2500000000
40
0.5000000000
40
0.7500000000
40
1.0000000000
40
1.0000000000
40
1.0000000000
40
1.0000000000
10
10.3611503150
20
-15.1016023928
30
0.0000000000
10
10.2660347073
20
-14.8588868218
30
0.0000000000
10
10.0006558900
20
-14.3913953515
30
0.0000000000
10
9.3996930561
20
-13.8267837451
30
0.0000000000
10
8.6533725867
20
-13.4664466667
30
0.0000000000
10
8.1133424116
20
-13.3867375279
30
0.0000000000
10
7.8472870002
20
-13.3867375279
30
0.0000000000
11
10.3611503150
21
-15.1016023928
31
0.0000000000
11
9.9668401220
21
-14.4141662847
31
0.0000000000
11
9.3754667835
21
-13.8608294998
31
0.0000000000
11
8.6427517878
21
-13.5065755618
31
0.0000000000
11
7.8472870002
21
-13.3867375279
31
0.0000000000
0
SPLINE
5
3A2
100
AcDbEntity
8
0
100
AcDbSpline
62
7
6
CONTINUOUS
70
0
71
3
72
11
73
7
74
5
42
0.0000001000
43
0.0000001000
44
0.0000000001
12
-3.2316933780
22
0.0000000000
32
0.0000000000
13
-1.1860493560
23
-2.8991379300
33
0.0000000000
40
0.0000000000
40
0.0000000000
40
0.0000000000
40
0.0000000000
40
0.2500000000
40
0.5000000000
40
0.7500000000
40
1.0000000000
40
1.0000000000
40
1.0000000000
40
1.0000000000
10
7.8472870002
20
-13.3867375279
30
0.0000000000
10
7.5779792187
20
-13.3867375279
30
0.0000000000
10
7.0401915593
20
-13.4679893478
30
0.0000000000
10
6.3088349710
20
-13.8196771608
30
0.0000000000
10
5.7167945240
20
-14.3652776706
30
0.0000000000
10
5.4471592598
20
-14.8228056741
30
0.0000000000
10
5.3483218135
20
-15.0644005016
30
0.0000000000
11
7.8472870002
21
-13.3867375279
31
0.0000000000
11
7.0527457094
21
-13.5062910284
31
0.0000000000
11
6.3320543279
21
-13.8519959436
31
0.0000000000
11
5.7480591158
21
-14.3887262531
31
0.0000000000
11
5.3483218135
21
-15.0644005016
31
0.0000000000
0
SPLINE
5
3A3
100
AcDbEntity
8
0
100
AcDbSpline
62
7
6
CONTINUOUS
70
0
71
3
72
8
73
4
74
2
42
0.0000001000
43
0.0000001000
44
0.0000000001
12
-0.0468116249
22
-0.1144247131
32
0.0000000000
13
-0.0575558632
23
-0.1029654064
33
0.0000000000
40
0.0000000000
40
0.0000000000
40
0.0000000000
40
0.0000000000
40
1.0000000000
40
1.0000000000
40
1.0000000000
40
1.0000000000
10
5.3483218135
20
-15.0644005016
30
0.0000000000
10
5.3327179385
20
-15.1025420726
30
0.0000000000
10
5.3148488137
20
-15.1393624710
30
0.0000000000
10
5.2956635260
20
-15.1736842731
30
0.0000000000
11
5.3483218135
21
-15.0644005016
31
0.0000000000
11
5.2956635260
21
-15.1736842731
31
0.0000000000
0
SPLINE
5
3A4
100
AcDbEntity
8
0
100
AcDbSpline
62
7
6
CONTINUOUS
70
0
71
3
72
8
73
4
74
2
42
0.0000001000
43
0.0000001000
44
0.0000000001
12
-0.1292948303
22
-0.2313038847
32
0.0000000000
13
-0.1879866250
23
-0.1913617218
33
0.0000000000
40
0.0000000000
40
0.0000000000
40
0.0000000000
40
0.0000000000
40
1.0000000000
40
1.0000000000
40
1.0000000000
40
1.0000000000
10
5.2956635260
20
-15.1736842731
30
0.0000000000
10
5.2525652492
20
-15.2507855680
30
0.0000000000
10
5.1985204045
20
-15.3230427415
30
0.0000000000
10
5.1358581962
20
-15.3868299821
30
0.0000000000
11
5.2956635260
21
-15.1736842731
31
0.0000000000
11
5.1358581962
21
-15.3868299821
31
0.0000000000
0
SPLINE
5
3A5
100
AcDbEntity
8
0
100
AcDbSpline
62
7
6
CONTINUOUS
70
0
71
3
72
9
73
5
74
3
42
0.0000001000
43
0.0000001000
44
0.0000000001
12
-0.1774001548
22
-0.7036173765
32
0.0000000000
13
-0.0393220126
23
-0.7244037813
33
0.0000000000
40
0.0000000000
40
0.0000000000
40
0.0000000000
40
0.0000000000
40
0.6162760766
40
1.0000000000
40
1.0000000000
40
1.0000000000
40
1.0000000000
10
5.2934144165
20
-28.0921186687
30
0.0000000000
10
5.2569719260
20
-28.2366595208
30
0.0000000000
10
5.2129146313
20
-28.4748618057
30
0.0000000000
10
5.1916024279
20
-28.7159326193
30
0.0000000000
10
5.1865728289
20
-28.8085896396
30
0.0000000000
11
5.2934144165
21
-28.0921186687
31
0.0000000000
11
5.2113075119
21
-28.5313457163
31
0.0000000000
11
5.1865728289
21
-28.8085896396
31
0.0000000000
0
SPLINE
5
3A6
100
AcDbEntity
8
0
100
AcDbSpline
62
7
6
CONTINUOUS
70
0
71
3
72
9
73
5
74
3
42
0.0000001000
43
0.0000001000
44
0.0000000001
12
0.1774001548
22
0.7036173765
32
0.0000000000
13
0.0393220126
23
0.7244037813
33
0.0000000000
40
0.0000000000
40
0.0000000000
40
0.0000000000
40
0.0000000000
40
0.6162760766
40
1.0000000000
40
1.0000000000
40
1.0000000000
40
1.0000000000
10
10.4011595839
20
-3.5813563872
30
0.0000000000
10
10.4376020744
20
-3.4368155351
30
0.0000000000
10
10.4816593692
20
-3.1986132501
30
0.0000000000
10
10.5029715725
20
-2.9575424366
30
0.0000000000
10
10.5080011715
20
-2.8648854162
30
0.0000000000
11
10.4011595839
21
-3.5813563872
31
0.0000000000
11
10.4832664886
21
-3.1421293396
31
0.0000000000
11
10.5080011715
21
-2.8648854162
31
0.0000000000
0
SPLINE
5
3A7
100
AcDbEntity
8
0
100
AcDbSpline
62
9
6
CONTINUOUS
70
0
71
3
72
10
73
6
74
4
42
0.0000001000
43
0.0000001000
44
0.0000000001
12
-3.5576798637
22
-0.3488310420
32
0.0000000000
13
-3.5616259492
23
-0.3059395660
33
0.0000000000
40
0.0000000000
40
0.0000000000
40
0.0000000000
40
0.0000000000
40
0.3257626701
40
0.6814131141
40
1.0000000000
40
1.0000000000
40
1.0000000000
40
1.0000000000
10
9.7452310745
20
-7.4465852072
30
0.0000000000
10
9.3589113105
20
-7.4844639178
30
0.0000000000
10
8.5507402894
20
-7.5628082338
30
0.0000000000
10
7.3643064590
20
-7.6734693886
30
0.0000000000
10
6.5640224325
20
-7.7442960599
30
0.0000000000
10
6.1857933260
20
-7.7767855044
30
0.0000000000
11
9.7452310745
21
-7.4465852072
31
0.0000000000
11
8.5861237304
21
-7.5587003763
31
0.0000000000
11
7.3202367148
21
-7.6765176840
31
0.0000000000
11
6.1857933260
21
-7.7767855044
31
0.0000000000
0
SPLINE
5
3A8
100
AcDbEntity
8
0
100
AcDbSpline
62
9
6
CONTINUOUS
70
0
71
3
72
10
73
6
74
4
42
0.0000001000
43
0.0000001000
44
0.0000000001
12
3.5576801329
22
0.3488311345
32
0.0000000000
13
3.5616262297
23
0.3059395584
33
0.0000000000
40
0.0000000000
40
0.0000000000
40
0.0000000000
40
0.0000000000
40
0.3254614500
40
0.6811156584
40
1.0000000000
40
1.0000000000
40
1.0000000000
40
1.0000000000
10
5.9493430853
20
-24.2268898269
30
0.0000000000
10
6.3353056635
20
-24.1890461313
30
0.0000000000
10
7.1431238755
20
-24.1107351840
30
0.0000000000
10
8.3295573797
20
-24.0000695698
30
0.0000000000
10
9.1301988342
20
-23.9292092838
30
0.0000000000
10
9.5087811126
20
-23.8966895056
30
0.0000000000
11
5.9493430853
21
-24.2268898269
31
0.0000000000
11
7.1073785802
21
-24.1148766910
31
0.0000000000
11
8.3732786578
21
-23.9970534505
31
0.0000000000
11
9.5087811126
21
-23.8966895056
31
0.0000000000
0
SPLINE
5
3A9
100
AcDbEntity
8
0
100
AcDbSpline
62
7
6
CONTINUOUS
70
0
71
3
72
15
73
11
74
9
42
0.0000001000
43
0.0000001000
44
0.0000000001
12
0.0000000000
22
-0.7840504605
32
0.0000000000
13
-0.7840504605
23
-0.0000000000
33
0.0000000000
40
0.0000000000
40
0.0000000000
40
0.0000000000
40
0.0000000000
40
0.1250035856
40
0.2500003382
40
0.3749971738
40
0.4999931596
40
0.6249941993
40
0.7499962985
40
0.8749988330
40
1.0000000000
40
1.0000000000
40
1.0000000000
40
1.0000000000
10
18.9972870002
20
-37.7365086759
30
0.0000000000
10
18.9972870002
20
-37.7691783822
30
0.0000000000
10
18.9908590627
20
-37.8346963622
30
0.0000000000
10
18.9622898887
20
-37.9290729016
30
0.0000000000
10
18.9158733855
20
-38.0161111462
30
0.0000000000
10
18.8533728446
20
-38.0924170850
30
0.0000000000
10
18.7771810237
20
-38.1550604097
30
0.0000000000
10
18.6902093673
20
-38.2016163251
30
0.0000000000
10
18.5958567901
20
-38.2302854656
30
0.0000000000
10
18.5303366741
20
-38.2367375279
30
0.0000000000
10
18.4976676000
20
-38.2367375279
30
0.0000000000
11
18.9972870002
21
-37.7365086759
31
0.0000000000
11
18.9877041276
21
-37.8340481855
31
0.0000000000
11
18.9593152392
21
-37.9278501486
31
0.0000000000
11
18.9131927107
21
-38.0143224699
31
0.0000000000
11
18.8510920672
21
-38.0901388896
31
0.0000000000
11
18.7753848414
21
-38.1523788451
31
0.0000000000
11
18.6889793202
21
-38.1986351405
31
0.0000000000
11
18.5952018290
21
-38.2271203642
31
0.0000000000
11
18.4976676000
21
-38.2367375279
31
0.0000000000
0
SPLINE
5
3AA
100
AcDbEntity
8
0
100
AcDbSpline
62
7
6
CONTINUOUS
70
0
71
3
72
15
73
11
74
9
42
0.0000001000
43
0.0000001000
44
0.0000000001
12
0.7840504604
22
0.0000000000
32
0.0000000000
13
0.0000000000
23
-0.7840504604
33
0.0000000000
40
0.0000000000
40
0.0000000000
40
0.0000000000
40
0.0000000000
40
0.1250026133
40
0.2500082844
40
0.3750136098
40
0.5000160060
40
0.6250106349
40
0.7500042447
40
0.8749978606
40
1.0000000000
40
1.0000000000
40
1.0000000000
40
1.0000000000
10
18.4976676000
20
6.5632624721
30
0.0000000000
10
18.5303370521
20
6.5632624721
30
0.0000000000
10
18.5958583720
20
6.5568102163
30
0.0000000000
10
18.6902128087
20
6.5281400207
30
0.0000000000
10
18.7771858300
20
6.4815822804
30
0.0000000000
10
18.8533774778
20
6.4189373870
30
0.0000000000
10
18.9158764504
20
6.3426312790
30
0.0000000000
10
18.9622911329
20
6.2555944031
30
0.0000000000
10
18.9908592553
20
6.1612197245
30
0.0000000000
10
18.9972870002
20
6.0957029483
30
0.0000000000
10
18.9972870002
20
6.0630336200
30
0.0000000000
11
18.4976676000
21
6.5632624721
31
0.0000000000
11
18.5952029465
21
6.5536450858
31
0.0000000000
11
18.6889826554
21
6.5251587012
31
0.0000000000
11
18.7753899542
21
6.4789003672
31
0.0000000000
11
18.8510971685
21
6.4166587229
31
0.0000000000
11
18.9131961237
21
6.3408422955
31
0.0000000000
11
18.9593166183
21
6.2543717558
31
0.0000000000
11
18.9877043494
21
6.1605720120
31
0.0000000000
11
18.9972870002
21
6.0630336200
31
0.0000000000
0
SPLINE
5
3AB
100
AcDbEntity
8
0
100
AcDbSpline
62
7
6
CONTINUOUS
70
0
71
3
72
15
73
11
74
9
42
0.0000001000
43
0.0000001000
44
0.0000000001
12
-0.7840504604
22
0.0000000000
32
0.0000000000
13
0.0000000000
23
0.7840504604
33
0.0000000000
40
0.0000000000
40
0.0000000000
40
0.0000000000
40
0.0000000000
40
0.1250026133
40
0.2500082844
40
0.3750136098
40
0.5000160060
40
0.6250106349
40
0.7500042447
40
0.8749978606
40
1.0000000000
40
1.0000000000
40
1.0000000000
40
1.0000000000
10
-2.8030935995
20
-38.2367375279
30
0.0000000000
10
-2.8357630517
20
-38.2367375279
30
0.0000000000
10
-2.9012843716
20
-38.2302852722
30
0.0000000000
10
-2.9956388083
20
-38.2016150766
30
0.0000000000
10
-3.0826118295
20
-38.1550573363
30
0.0000000000
10
-3.1588034774
20
-38.0924124429
30
0.0000000000
10
-3.2213024500
20
-38.0161063349
30
0.0000000000
10
-3.2677171325
20
-37.9290694590
30
0.0000000000
10
-3.2962852549
20
-37.8346947804
30
0.0000000000
10
-3.3027129998
20
-37.7691780042
30
0.0000000000
10
-3.3027129998
20
-37.7365086759
30
0.0000000000
11
-2.8030935995
21
-38.2367375279
31
0.0000000000
11
-2.9006289460
21
-38.2271201416
31
0.0000000000
11
-2.9944086549
21
-38.1986337570
31
0.0000000000
11
-3.0808159538
21
-38.1523754231
31
0.0000000000
11
-3.1565231681
21
-38.0901337788
31
0.0000000000
11
-3.2186221232
21
-38.0143173514
31
0.0000000000
11
-3.2647426179
21
-37.9278468117
31
0.0000000000
11
-3.2931303489
21
-37.8340470679
31
0.0000000000
11
-3.3027129998
21
-37.7365086759
31
0.0000000000
0
SPLINE
5
3AC
100
AcDbEntity
8
0
100
AcDbSpline
62
7
6
CONTINUOUS
70
0
71
3
72
15
73
11
74
9
42
0.0000001000
43
0.0000001000
44
0.0000000001
12
0.0000000000
22
0.7840504605
32
0.0000000000
13
0.7840504605
23
0.0000000000
33
0.0000000000
40
0.0000000000
40
0.0000000000
40
0.0000000000
40
0.0000000000
40
0.1250035856
40
0.2500003382
40
0.3749971738
40
0.4999931596
40
0.6249941993
40
0.7499962985
40
0.8749988330
40
1.0000000000
40
1.0000000000
40
1.0000000000
40
1.0000000000
10
-3.3027129998
20
6.0630336200
30
0.0000000000
10
-3.3027129998
20
6.0957033263
30
0.0000000000
10
-3.2962850622
20
6.1612213064
30
0.0000000000
10
-3.2677158883
20
6.2555978457
30
0.0000000000
10
-3.2212993850
20
6.3426360903
30
0.0000000000
10
-3.1587988441
20
6.4189420291
30
0.0000000000
10
-3.0826070233
20
6.4815853538
30
0.0000000000
10
-2.9956353669
20
6.5281412692
30
0.0000000000
10
-2.9012827896
20
6.5568104097
30
0.0000000000
10
-2.8357626737
20
6.5632624721
30
0.0000000000
10
-2.8030935995
20
6.5632624721
30
0.0000000000
11
-3.3027129998
21
6.0630336200
31
0.0000000000
11
-3.2931301272
21
6.1605731296
31
0.0000000000
11
-3.2647412388
21
6.2543750927
31
0.0000000000
11
-3.2186187102
21
6.3408474140
31
0.0000000000
11
-3.1565180668
21
6.4166638337
31
0.0000000000
11
-3.0808108409
21
6.4789037892
31
0.0000000000
11
-2.9944053198
21
6.5251600846
31
0.0000000000
11
-2.9006278286
21
6.5536453083
31
0.0000000000
11
-2.8030935995
21
6.5632624721
31
0.0000000000
0
SPLINE
5
3AD
100
AcDbEntity
8
0
100
AcDbSpline
62
7
6
CONTINUOUS
70
0
71
3
72
11
73
7
74
5
42
0.0000001000
43
0.0000001000
44
0.0000000001
12
0.2772901579
22
0.5432297331
32
0.0000000000
13
-0.4171226941
23
0.4449685749
33
0.0000000000
40
0.0000000000
40
0.0000000000
40
0.0000000000
40
0.0000000000
40
0.2501707301
40
0.5000290887
40
0.7498460779
40
1.0000000000
40
1.0000000000
40
1.0000000000
40
1.0000000000
10
5.8753719431
20
-5.3304764680
30
0.0000000000
10
5.8984952368
20
-5.2851764083
30
0.0000000000
10
5.9309287897
20
-5.1868414428
30
0.0000000000
10
5.9327701926
20
-5.0320963203
30
0.0000000000
10
5.8880428308
20
-4.8839418282
30
0.0000000000
10
5.8295646708
20
-4.7985081218
30
0.0000000000
10
5.7947830448
20
-4.7614045770
30
0.0000000000
11
5.8753719431
21
-5.3304764680
31
0.0000000000
11
5.9231378940
21
-5.1855645879
31
0.0000000000
11
5.9250108291
21
-5.0331853619
31
0.0000000000
11
5.8809088648
21
-4.8873420773
31
0.0000000000
11
5.7947830448
21
-4.7614045770
31
0.0000000000
0
SPLINE
5
3AE
100
AcDbEntity
8
0
100
AcDbSpline
62
7
6
CONTINUOUS
70
0
71
3
72
11
73
7
74
5
42
0.0000001000
43
0.0000001000
44
0.0000000001
12
-0.4171541601
22
-0.4449241556
32
0.0000000000
13
0.2772217531
23
-0.5432524249
33
0.0000000000
40
0.0000000000
40
0.0000000000
40
0.0000000000
40
0.0000000000
40
0.2501186915
40
0.5000026673
40
0.7498560063
40
1.0000000000
40
1.0000000000
40
1.0000000000
40
1.0000000000
10
9.8996979947
20
-4.7615037937
30
0.0000000000
10
9.8649186438
20
-4.7985984096
30
0.0000000000
10
9.8064782582
20
-4.8840683979
30
0.0000000000
10
9.7617832554
20
-5.0322299603
30
0.0000000000
10
9.7636627114
20
-5.1869857420
30
0.0000000000
10
9.7961437198
20
-5.2852906806
30
0.0000000000
10
9.8192588386
20
-5.3305877909
30
0.0000000000
11
9.8996979947
21
-4.7615037937
31
0.0000000000
11
9.8136170069
21
-4.8874426183
31
0.0000000000
11
9.7695421917
21
-5.0333339484
31
0.0000000000
11
9.7714598705
21
-5.1857068364
31
0.0000000000
11
9.8192588386
21
-5.3305877909
31
0.0000000000
0
SPLINE
5
3AF
100
AcDbEntity
8
0
100
AcDbSpline
62
7
6
CONTINUOUS
70
0
71
3
72
11
73
7
74
5
42
0.0000001000
43
0.0000001000
44
0.0000000001
12
0.4171541601
22
0.4449241556
32
0.0000000000
13
-0.2772217531
23
0.5432524249
33
0.0000000000
40
0.0000000000
40
0.0000000000
40
0.0000000000
40
0.0000000000
40
0.2501186915
40
0.5000026673
40
0.7498560063
40
1.0000000000
40
1.0000000000
40
1.0000000000
40
1.0000000000
10
5.7948760058
20
-26.9119712622
30
0.0000000000
10
5.8296553567
20
-26.8748766463
30
0.0000000000
10
5.8880957422
20
-26.7894066580
30
0.0000000000
10
5.9327907450
20
-26.6412450956
30
0.0000000000
10
5.9309112891
20
-26.4864893139
30
0.0000000000
10
5.8984302807
20
-26.3881843753
30
0.0000000000
10
5.8753151618
20
-26.3428872650
30
0.0000000000
11
5.7948760058
21
-26.9119712622
31
0.0000000000
11
5.8809569935
21
-26.7860324376
31
0.0000000000
11
5.9250318087
21
-26.6401411075
31
0.0000000000
11
5.9231141299
21
-26.4877682195
31
0.0000000000
11
5.8753151618
21
-26.3428872650
31
0.0000000000
0
SPLINE
5
3B0
100
AcDbEntity
8
0
100
AcDbSpline
62
7
6
CONTINUOUS
70
0
71
3
72
11
73
7
74
5
42
0.0000001000
43
0.0000001000
44
0.0000000001
12
-0.2772901579
22
-0.5432297331
32
0.0000000000
13
0.4171226941
23
-0.4449685749
33
0.0000000000
40
0.0000000000
40
0.0000000000
40
0.0000000000
40
0.0000000000
40
0.2501707301
40
0.5000290887
40
0.7498460779
40
1.0000000000
40
1.0000000000
40
1.0000000000
40
1.0000000000
10
9.8192020573
20
-26.3429985879
30
0.0000000000
10
9.7960787636
20
-26.3882986475
30
0.0000000000
10
9.7636452107
20
-26.4866336131
30
0.0000000000
10
9.7618038078
20
-26.6413787356
30
0.0000000000
10
9.8065311697
20
-26.7895332277
30
0.0000000000
10
9.8650093296
20
-26.8749669341
30
0.0000000000
10
9.8997909556
20
-26.9120704789
30
0.0000000000
11
9.8192020573
21
-26.3429985879
31
0.0000000000
11
9.7714361064
21
-26.4879104680
31
0.0000000000
11
9.7695631714
21
-26.6402896940
31
0.0000000000
11
9.8136651356
21
-26.7861329786
31
0.0000000000
11
9.8997909556
21
-26.9120704789
31
0.0000000000
0
SPLINE
5
3B1
100
AcDbEntity
8
0
100
AcDbSpline
62
7
6
CONTINUOUS
70
0
71
3
72
8
73
4
74
2
42
0.0000001000
43
0.0000001000
44
0.0000000001
12
-0.1042523849
22
0.1105262053
32
0.0000000000
13
-0.0665973585
23
0.1373871511
33
0.0000000000
40
0.0000000000
40
0.0000000000
40
0.0000000000
40
0.0000000000
40
1.0000000000
40
1.0000000000
40
1.0000000000
40
1.0000000000
10
9.8841513034
20
-26.9154921478
30
0.0000000000
10
9.8494005084
20
-26.8786500794
30
0.0000000000
10
9.8201024792
20
-26.8362043168
30
0.0000000000
10
9.7979033597
20
-26.7904085997
30
0.0000000000
11
9.8841513034
21
-26.9154921478
31
0.0000000000
11
9.7979033597
21
-26.7904085997
31
0.0000000000
0
SPLINE
5
3B2
100
AcDbEntity
8
0
100
AcDbSpline
62
7
6
CONTINUOUS
70
0
71
3
72
10
73
6
74
4
42
0.0000001000
43
0.0000001000
44
0.0000000001
12
-0.1569656765
22
0.3238126498
32
0.0000000000
13
0.0955182543
23
0.3470924931
33
0.0000000000
40
0.0000000000
40
0.0000000000
40
0.0000000000
40
0.0000000000
40
0.4270491129
40
0.8588001384
40
1.0000000000
40
1.0000000000
40
1.0000000000
40
1.0000000000
10
9.7979033597
20
-26.7904085997
30
0.0000000000
10
9.7755593420
20
-26.7443139648
30
0.0000000000
10
9.7450882467
20
-26.6447921575
30
0.0000000000
10
9.7463968157
20
-26.5235572902
30
0.0000000000
10
9.7612951622
20
-26.4563263862
30
0.0000000000
10
9.7657908837
20
-26.4399899156
30
0.0000000000
11
9.7979033597
21
-26.7904085997
31
0.0000000000
11
9.7530675450
21
-26.6442009025
31
0.0000000000
11
9.7548112740
21
-26.4895990683
31
0.0000000000
11
9.7657908837
21
-26.4399899156
31
0.0000000000
0
SPLINE
5
3B3
100
AcDbEntity
8
0
100
AcDbSpline
62
7
6
CONTINUOUS
70
0
71
3
72
8
73
4
74
2
42
0.0000001000
43
0.0000001000
44
0.0000000001
12
0.0275361496
22
0.1000603590
32
0.0000000000
13
0.0472494615
23
0.0917872146
33
0.0000000000
40
0.0000000000
40
0.0000000000
40
0.0000000000
40
0.0000000000
40
1.0000000000
40
1.0000000000
40
1.0000000000
40
1.0000000000
10
9.7657908837
20
-26.4399899156
30
0.0000000000
10
9.7749696002
20
-26.4066364625
30
0.0000000000
10
9.7875835654
20
-26.3742506099
30
0.0000000000
10
9.8033333859
20
-26.3436548717
30
0.0000000000
11
9.7657908837
21
-26.4399899156
31
0.0000000000
11
9.8033333859
21
-26.3436548717
31
0.0000000000
0
SPLINE
5
3B4
100
AcDbEntity
8
0
100
AcDbSpline
62
7
6
CONTINUOUS
70
0
71
3
72
8
73
4
74
2
42
0.0000001000
43
0.0000001000
44
0.0000000001
12
0.0470180892
22
-0.0913377488
32
0.0000000000
13
0.0275010801
23
-0.0995371468
33
0.0000000000
40
0.0000000000
40
0.0000000000
40
0.0000000000
40
0.0000000000
40
1.0000000000
40
1.0000000000
40
1.0000000000
40
1.0000000000
10
5.8912406146
20
-26.3436548717
30
0.0000000000
10
5.9069133109
20
-26.3741007880
30
0.0000000000
10
5.9194807892
20
-26.4063187796
30
0.0000000000
10
5.9286478158
20
-26.4394978285
30
0.0000000000
11
5.8912406146
21
-26.3436548717
31
0.0000000000
11
5.9286478158
21
-26.4394978285
31
0.0000000000
0
SPLINE
5
3B5
100
AcDbEntity
8
0
100
AcDbSpline
62
7
6
CONTINUOUS
70
0
71
3
72
10
73
6
74
4
42
0.0000001000
43
0.0000001000
44
0.0000000001
12
0.0957451758
22
-0.3465391756
32
0.0000000000
13
-0.1561509017
23
-0.3237299633
33
0.0000000000
40
0.0000000000
40
0.0000000000
40
0.0000000000
40
0.0000000000
40
0.1406033119
40
0.5699331772
40
1.0000000000
40
1.0000000000
40
1.0000000000
40
1.0000000000
10
5.9286478158
20
-26.4394978285
30
0.0000000000
10
5.9331351788
20
-26.4557393471
30
0.0000000000
10
5.9480217679
20
-26.5225075474
30
0.0000000000
10
5.9496526562
20
-26.6435550183
30
0.0000000000
10
5.9194771844
20
-26.7431279800
30
0.0000000000
10
5.8970920770
20
-26.7895364856
30
0.0000000000
11
5.9286478158
21
-26.4394978285
31
0.0000000000
11
5.9396308128
21
-26.4888181234
31
0.0000000000
11
5.9417707247
21
-26.6423540123
31
0.0000000000
11
5.8970920770
21
-26.7895364856
31
0.0000000000
0
SPLINE
5
3B6
100
AcDbEntity
8
0
100
AcDbSpline
62
7
6
CONTINUOUS
70
0
71
3
72
8
73
4
74
2
42
0.0000001000
43
0.0000001000
44
0.0000000001
12
-0.0667532510
22
-0.1383919482
32
0.0000000000
13
-0.1049092338
23
-0.1112225828
33
0.0000000000
40
0.0000000000
40
0.0000000000
40
0.0000000000
40
0.0000000000
40
1.0000000000
40
1.0000000000
40
1.0000000000
40
1.0000000000
10
5.8970920770
20
-26.7895364856
30
0.0000000000
10
5.8748409933
20
-26.8356671350
30
0.0000000000
10
5.8453924417
20
-26.8784179536
30
0.0000000000
10
5.8104226971
20
-26.9154921478
30
0.0000000000
11
5.8970920770
21
-26.7895364856
31
0.0000000000
11
5.8104226971
21
-26.9154921478
31
0.0000000000
0
SPLINE
5
3B7
100
AcDbEntity
8
0
100
AcDbSpline
62
7
6
CONTINUOUS
70
0
71
3
72
8
73
4
74
2
42
0.0000001000
43
0.0000001000
44
0.0000000001
12
-0.0470180892
22
0.0913377488
32
0.0000000000
13
-0.0275010801
23
0.0995371468
33
0.0000000000
40
0.0000000000
40
0.0000000000
40
0.0000000000
40
0.0000000000
40
1.0000000000
40
1.0000000000
40
1.0000000000
40
1.0000000000
10
9.8033333859
20
-5.3298201842
30
0.0000000000
10
9.7876606895
20
-5.2993742679
30
0.0000000000
10
9.7750932113
20
-5.2671562763
30
0.0000000000
10
9.7659261846
20
-5.2339772274
30
0.0000000000
11
9.8033333859
21
-5.3298201842
31
0.0000000000
11
9.7659261846
21
-5.2339772274
31
0.0000000000
0
SPLINE
5
3B8
100
AcDbEntity
8
0
100
AcDbSpline
62
7
6
CONTINUOUS
70
0
71
3
72
10
73
6
74
4
42
0.0000001000
43
0.0000001000
44
0.0000000001
12
-0.0957451758
22
0.3465391756
32
0.0000000000
13
0.1561509017
23
0.3237299633
33
0.0000000000
40
0.0000000000
40
0.0000000000
40
0.0000000000
40
0.0000000000
40
0.1406033119
40
0.5699331772
40
1.0000000000
40
1.0000000000
40
1.0000000000
40
1.0000000000
10
9.7659261846
20
-5.2339772274
30
0.0000000000
10
9.7614388217
20
-5.2177357088
30
0.0000000000
10
9.7465522325
20
-5.1509675085
30
0.0000000000
10
9.7449213442
20
-5.0299200375
30
0.0000000000
10
9.7750968160
20
-4.9303470759
30
0.0000000000
10
9.7974819234
20
-4.8839385703
30
0.0000000000
11
9.7659261846
21
-5.2339772274
31
0.0000000000
11
9.7549431876
21
-5.1846569325
31
0.0000000000
11
9.7528032758
21
-5.0311210436
31
0.0000000000
11
9.7974819234
21
-4.8839385703
31
0.0000000000
0
SPLINE
5
3B9
100
AcDbEntity
8
0
100
AcDbSpline
62
7
6
CONTINUOUS
70
0
71
3
72
8
73
4
74
2
42
0.0000001000
43
0.0000001000
44
0.0000000001
12
0.0667532510
22
0.1383919482
32
0.0000000000
13
0.1049092338
23
0.1112225828
33
0.0000000000
40
0.0000000000
40
0.0000000000
40
0.0000000000
40
0.0000000000
40
1.0000000000
40
1.0000000000
40
1.0000000000
40
1.0000000000
10
9.7974819234
20
-4.8839385703
30
0.0000000000
10
9.8197330071
20
-4.8378079209
30
0.0000000000
10
9.8491815588
20
-4.7950571023
30
0.0000000000
10
9.8841513034
20
-4.7579829080
30
0.0000000000
11
9.7974819234
21
-4.8839385703
31
0.0000000000
11
9.8841513034
21
-4.7579829080
31
0.0000000000
0
SPLINE
5
3BA
100
AcDbEntity
8
0
100
AcDbSpline
62
7
6
CONTINUOUS
70
0
71
3
72
8
73
4
74
2
42
0.0000001000
43
0.0000001000
44
0.0000000001
12
0.1042523849
22
-0.1105262053
32
0.0000000000
13
0.0665973585
23
-0.1373871511
33
0.0000000000
40
0.0000000000
40
0.0000000000
40
0.0000000000
40
0.0000000000
40
1.0000000000
40
1.0000000000
40
1.0000000000
40
1.0000000000
10
5.8104226971
20
-4.7579829080
30
0.0000000000
10
5.8451734920
20
-4.7948249765
30
0.0000000000
10
5.8744715213
20
-4.8372707391
30
0.0000000000
10
5.8966706408
20
-4.8830664561
30
0.0000000000
11
5.8104226971
21
-4.7579829080
31
0.0000000000
11
5.8966706408
21
-4.8830664561
31
0.0000000000
0
SPLINE
5
3BB
100
AcDbEntity
8
0
100
AcDbSpline
62
7
6
CONTINUOUS
70
0
71
3
72
10
73
6
74
4
42
0.0000001000
43
0.0000001000
44
0.0000000001
12
0.1569656765
22
-0.3238126498
32
0.0000000000
13
-0.0955182543
23
-0.3470924931
33
0.0000000000
40
0.0000000000
40
0.0000000000
40
0.0000000000
40
0.0000000000
40
0.4270491129
40
0.8588001384
40
1.0000000000
40
1.0000000000
40
1.0000000000
40
1.0000000000
10
5.8966706408
20
-4.8830664561
30
0.0000000000
10
5.9190146584
20
-4.9291610911
30
0.0000000000
10
5.9494857538
20
-5.0286828984
30
0.0000000000
10
5.9481771848
20
-5.1499177657
30
0.0000000000
10
5.9332788382
20
-5.2171486697
30
0.0000000000
10
5.9287831168
20
-5.2334851403
30
0.0000000000
11
5.8966706408
21
-4.8830664561
31
0.0000000000
11
5.9415064554
21
-5.0292741534
31
0.0000000000
11
5.9397627264
21
-5.1838759876
31
0.0000000000
11
5.9287831168
21
-5.2334851403
31
0.0000000000
0
SPLINE
5
3BC
100
AcDbEntity
8
0
100
AcDbSpline
62
7
6
CONTINUOUS
70
0
71
3
72
8
73
4
74
2
42
0.0000001000
43
0.0000001000
44
0.0000000001
12
-0.0275361496
22
-0.1000603590
32
0.0000000000
13
-0.0472494615
23
-0.0917872146
33
0.0000000000
40
0.0000000000
40
0.0000000000
40
0.0000000000
40
0.0000000000
40
1.0000000000
40
1.0000000000
40
1.0000000000
40
1.0000000000
10
5.9287831168
20
-5.2334851403
30
0.0000000000
10
5.9196044002
20
-5.2668385933
30
0.0000000000
10
5.9069904350
20
-5.2992244460
30
0.0000000000
10
5.8912406146
20
-5.3298201842
30
0.0000000000
11
5.9287831168
21
-5.2334851403
31
0.0000000000
11
5.8912406146
21
-5.3298201842
31
0.0000000000
0
SPLINE
5
3BD
100
AcDbEntity
8
0
100
AcDbSpline
62
9
6
CONTINUOUS
70
0
71
3
72
22
73
18
74
16
42
0.0000001000
43
0.0000001000
44
0.0000000001
12
-9.7732158730
22
0.0016267390
32
0.0000000000
13
9.7732158734
23
0.0016245266
33
0.0000000000
40
0.0000000000
40
0.0000000000
40
0.0000000000
40
0.0000000000
40
0.0665564667
40
0.1332709118
40
0.1999299495
40
0.2665893254
40
0.3332864184
40
0.3999942606
40
0.4667010133
40
0.5333375301
40
0.6000310683
40
0.6667318922
40
0.7334251354
40
0.8000805799
40
0.8667334522
40
0.9334420928
40
1.0000000000
40
1.0000000000
40
1.0000000000
40
1.0000000000
10
7.8472870002
20
-18.9541937210
30
0.0000000000
10
7.6304634279
20
-18.9541576310
30
0.0000000000
10
7.1949360115
20
-18.9085434039
30
0.0000000000
10
6.5711668321
20
-18.7057688639
30
0.0000000000
10
6.0026581263
20
-18.3774785188
30
0.0000000000
10
5.5149732058
20
-17.9381800429
30
0.0000000000
10
5.1291697035
20
-17.4069501842
30
0.0000000000
10
4.8622060461
20
-16.8069676364
30
0.0000000000
10
4.7258514822
20
-16.1647885530
30
0.0000000000
10
4.7258914160
20
-15.5083531056
30
0.0000000000
10
4.8622968564
20
-14.8662548941
30
0.0000000000
10
5.1292689328
20
-14.2663635162
30
0.0000000000
10
5.5150718844
20
-13.7351942260
30
0.0000000000
10
6.0027382738
20
-13.2959438918
30
0.0000000000
10
6.5712111625
20
-12.9676981858
30
0.0000000000
10
7.1949449599
20
-12.7649305561
30
0.0000000000
10
7.6304587353
20
-12.7193173766
30
0.0000000000
10
7.8472870002
20
-12.7192813349
30
0.0000000000
11
7.8472870002
21
-18.9541937210
31
0.0000000000
11
7.2003731818
21
-18.8862623072
31
0.0000000000
11
6.5802665219
21
-18.6847905309
31
0.0000000000
11
6.0161188807
21
-18.3589765716
31
0.0000000000
11
5.5320531087
21
-17.9229697688
31
0.0000000000
11
5.1490086814
21
-17.3955429998
31
0.0000000000
11
4.8839673585
21
-16.7998987289
31
0.0000000000
11
4.7485558616
21
-16.1621771268
31
0.0000000000
11
4.7485954898
21
-15.5109240547
31
0.0000000000
11
4.8840445988
21
-14.8733424691
31
0.0000000000
11
5.1490990364
21
-14.2777791115
31
0.0000000000
11
5.5321488928
21
-13.7504027871
31
0.0000000000
11
6.0162028909
21
-13.3144403230
31
0.0000000000
11
6.5803069591
21
-12.9886714005
31
0.0000000000
11
7.2003594044
21
-12.7872163456
31
0.0000000000
11
7.8472870002
21
-12.7192813349
31
0.0000000000
0
SPLINE
5
3BE
100
AcDbEntity
8
0
100
AcDbSpline
62
9
6
CONTINUOUS
70
0
71
3
72
12
73
8
74
6
42
0.0000001000
43
0.0000001000
44
0.0000000001
12
0.0007145531
22
0.7813571046
32
0.0000000000
13
0.7813571062
23
0.0007128139
33
0.0000000000
40
0.0000000000
40
0.0000000000
40
0.0000000000
40
0.0000000000
40
0.1998532782
40
0.3997964689
40
0.5998286573
40
0.7999149934
40
1.0000000000
40
1.0000000000
40
1.0000000000
40
1.0000000000
10
-3.1614349641
20
5.6388548419
30
0.0000000000
10
-3.1613873622
20
5.6909071015
30
0.0000000000
10
-3.1447155185
20
5.7957529588
30
0.0000000000
10
-3.0724796023
20
5.9370592486
30
0.0000000000
10
-2.9600316643
20
6.0493563215
30
0.0000000000
10
-2.8185650998
20
6.1214796392
30
0.0000000000
10
-2.7136237304
20
6.1381220681
30
0.0000000000
10
-2.6615111165
20
6.1381696093
30
0.0000000000
11
-3.1614349641
21
5.6388548419
31
0.0000000000
11
-3.1368541370
21
5.7930649028
31
0.0000000000
11
-3.0657970748
21
5.9321972141
31
0.0000000000
11
-2.9552113177
21
6.0426482396
31
0.0000000000
11
-2.8159092882
21
6.1136187299
31
0.0000000000
11
-2.6615111165
21
6.1381696093
31
0.0000000000
0
SPLINE
5
3BF
100
AcDbEntity
8
0
100
AcDbSpline
62
9
6
CONTINUOUS
70
0
71
3
72
11
73
7
74
5
42
0.0000001000
43
0.0000001000
44
0.0000000001
12
-0.1111241306
22
-0.2173902796
32
0.0000000000
13
0.1669373541
23
-0.1781545000
33
0.0000000000
40
0.0000000000
40
0.0000000000
40
0.0000000000
40
0.0000000000
40
0.2507890054
40
0.5004599361
40
0.7500120173
40
1.0000000000
40
1.0000000000
40
1.0000000000
40
1.0000000000
10
10.0864444144
20
-26.4856013987
30
0.0000000000
10
10.0771548443
20
-26.5037744293
30
0.0000000000
10
10.0641606302
20
-26.5431783434
30
0.0000000000
10
10.0634487689
20
-26.6051317104
30
0.0000000000
10
10.0813076036
20
-26.6643944994
30
0.0000000000
10
10.1046843561
20
-26.6985746820
30
0.0000000000
10
10.1185951336
20
-26.7134201767
30
0.0000000000
11
10.0864444144
21
-26.4856013987
31
0.0000000000
11
10.0672754028
21
-26.5437524554
31
0.0000000000
11
10.0665435632
21
-26.6047041376
31
0.0000000000
11
10.0841595332
21
-26.6630289532
31
0.0000000000
11
10.1185951336
21
-26.7134201767
31
0.0000000000
0
SPLINE
5
3C0
100
AcDbEntity
8
0
100
AcDbSpline
62
9
6
CONTINUOUS
70
0
71
3
72
22
73
18
74
16
42
0.0000001000
43
0.0000001000
44
0.0000000001
12
-3.5973028059
22
7.0519957843
32
0.0000000000
13
3.5184165308
23
-7.1087417134
33
0.0000000000
40
0.0000000000
40
0.0000000000
40
0.0000000000
40
0.0000000000
40
0.0679459900
40
0.1362796544
40
0.2045272968
40
0.2727346311
40
0.3409539459
40
0.4091555185
40
0.4773336623
40
0.5455021031
40
0.6136564835
40
0.6818059852
40
0.7499560197
40
0.8181176561
40
0.8862900260
40
0.9544848015
40
1.0000000000
40
1.0000000000
40
1.0000000000
40
1.0000000000
10
5.6081295860
20
-26.4856013987
30
0.0000000000
10
5.5266554858
20
-26.3258831203
30
0.0000000000
10
5.3970984549
20
-25.9869300259
30
0.0000000000
10
5.3159271517
20
-25.4493015078
30
0.0000000000
10
5.3513470733
20
-24.9058269791
30
0.0000000000
10
5.5018681637
20
-24.3827851621
30
0.0000000000
10
5.7604476936
20
-23.9039869234
30
0.0000000000
10
6.1152063876
20
-23.4914678963
30
0.0000000000
10
6.5497237759
20
-23.1642476543
30
0.0000000000
10
7.0439596936
20
-22.9373670454
30
0.0000000000
10
7.5751607471
20
-22.8212360490
30
0.0000000000
10
8.1188591273
20
-22.8211779607
30
0.0000000000
10
8.6500562760
20
-22.9371853274
30
0.0000000000
10
9.1443046019
20
-23.1639289355
30
0.0000000000
10
9.5788647024
20
-23.4910055747
30
0.0000000000
10
9.8943362253
20
-23.8576340335
30
0.0000000000
10
10.0470006266
20
-24.1175294613
30
0.0000000000
10
10.1003811023
20
-24.2253813915
30
0.0000000000
11
5.6081295860
21
-26.4856013987
31
0.0000000000
11
5.4162276502
21
-25.9831023796
31
0.0000000000
11
5.3353745991
21
-25.4482141146
31
0.0000000000
11
5.3705529730
21
-24.9090769993
31
0.0000000000
11
5.5198726102
21
-24.3901692168
31
0.0000000000
11
5.7765128257
21
-23.9149851743
31
0.0000000000
11
6.1285607956
21
-23.5056263932
31
0.0000000000
11
6.5597165253
21
-23.1809467461
31
0.0000000000
11
7.0501677005
21
-22.9558093006
31
0.0000000000
11
7.5772644483
21
-22.8405785856
31
0.0000000000
11
8.1167710933
21
-22.8405209296
31
0.0000000000
11
8.6438596434
21
-22.9556279893
31
0.0000000000
11
9.1343155193
21
-23.1806260359
31
0.0000000000
11
9.5655185830
21
-23.5051668124
31
0.0000000000
11
9.9176453692
21
-23.9143868119
31
0.0000000000
11
10.1003811023
21
-24.2253813915
31
0.0000000000
0
SPLINE
5
3C1
100
AcDbEntity
8
0
100
AcDbSpline
62
9
6
CONTINUOUS
70
0
71
3
72
11
73
7
74
5
42
0.0000001000
43
0.0000001000
44
0.0000000001
12
0.1670197327
22
0.1780774989
32
0.0000000000
13
-0.1110136856
23
0.2174468863
33
0.0000000000
40
0.0000000000
40
0.0000000000
40
0.0000000000
40
0.0000000000
40
0.2506876711
40
0.5003647516
40
0.7499910328
40
1.0000000000
40
1.0000000000
40
1.0000000000
40
1.0000000000
10
5.5759788669
20
-26.7134201767
30
0.0000000000
10
5.5899354628
20
-26.6985395655
30
0.0000000000
10
5.6133297567
20
-26.6642799674
30
0.0000000000
10
5.6311533130
20
-26.6049423429
30
0.0000000000
10
5.6303835942
20
-26.5430435216
30
0.0000000000
10
5.6173810583
20
-26.5037226225
30
0.0000000000
10
5.6081295860
20
-26.4856013987
30
0.0000000000
11
5.5759788669
21
-26.7134201767
31
0.0000000000
11
5.6104896000
21
-26.6628733496
31
0.0000000000
11
5.6280591759
21
-26.6045026272
31
0.0000000000
11
5.6272664450
21
-26.5435625672
31
0.0000000000
11
5.6081295860
21
-26.4856013987
31
0.0000000000
0
SPLINE
5
3C2
100
AcDbEntity
8
0
100
AcDbSpline
62
9
6
CONTINUOUS
70
0
71
3
72
22
73
18
74
16
42
0.0000001000
43
0.0000001000
44
0.0000000001
12
6.7304202349
22
-7.1881745839
32
0.0000000000
13
-6.5479826904
23
7.3791347017
33
0.0000000000
40
0.0000000000
40
0.0000000000
40
0.0000000000
40
0.0000000000
40
0.0665060479
40
0.1332981884
40
0.2000304395
40
0.2667348345
40
0.3334714393
40
0.4001831853
40
0.4668815478
40
0.5335543326
40
0.6002030018
40
0.6668309436
40
0.7334461189
40
0.8000603116
40
0.8666853374
40
0.9333305684
40
1.0000000000
40
1.0000000000
40
1.0000000000
40
1.0000000000
10
10.1185951336
20
-26.7134201767
30
0.0000000000
10
10.2677996837
20
-26.8727725377
30
0.0000000000
10
10.5340725227
20
-27.2247723110
30
0.0000000000
10
10.8133818333
20
-27.8241733927
30
0.0000000000
10
10.9610692954
20
-28.4696863961
30
0.0000000000
10
10.9700648156
20
-29.1315683427
30
0.0000000000
10
10.8401216104
20
-29.7805817964
30
0.0000000000
10
10.5769697494
20
-30.3878892833
30
0.0000000000
10
10.1924424591
20
-30.9263433049
30
0.0000000000
10
9.7037030953
20
-31.3720463485
30
0.0000000000
10
9.1325684878
20
-31.7052343278
30
0.0000000000
10
8.5044462772
20
-31.9111928247
30
0.0000000000
10
7.8472155078
20
-31.9808544571
30
0.0000000000
10
7.1899977517
20
-31.9111629149
30
0.0000000000
10
6.5619074264
20
-31.7051864735
30
0.0000000000
10
5.9908112231
20
-31.3719974050
30
0.0000000000
10
5.6650689946
20
-31.0749268517
30
0.0000000000
10
5.5195522332
20
-30.9109392796
30
0.0000000000
11
10.1185951336
21
-26.7134201767
31
0.0000000000
11
10.5135509340
21
-27.2358246849
31
0.0000000000
11
10.7914562482
21
-27.8319481140
31
0.0000000000
11
10.9379738075
21
-28.4725350974
31
0.0000000000
11
10.9469172327
21
-29.1293293274
31
0.0000000000
11
10.8178922393
21
-29.7737111840
31
0.0000000000
11
10.5567016023
21
-30.3764824484
31
0.0000000000
11
10.1749945401
21
-30.9109731668
31
0.0000000000
11
9.6898757152
21
-31.3533638805
31
0.0000000000
11
9.1229798569
21
-31.6840709092
31
0.0000000000
11
8.4995355654
21
-31.8884905659
31
0.0000000000
11
7.8472128472
21
-31.9576302992
31
0.0000000000
11
7.1949030046
21
-31.8884608935
31
0.0000000000
11
6.5714943431
21
-31.6840247375
31
0.0000000000
11
6.0046378747
21
-31.3533173781
31
0.0000000000
11
5.5195522332
21
-30.9109392796
31
0.0000000000
0
SPLINE
5
3C3
100
AcDbEntity
8
0
100
AcDbSpline
62
9
6
CONTINUOUS
70
0
71
3
72
11
73
7
74
5
42
0.0000001000
43
0.0000001000
44
0.0000000001
12
-0.1670197327
22
-0.1780774989
32
0.0000000000
13
0.1110136856
23
-0.2174468863
33
0.0000000000
40
0.0000000000
40
0.0000000000
40
0.0000000000
40
0.0000000000
40
0.2506876711
40
0.5003647516
40
0.7499910328
40
1.0000000000
40
1.0000000000
40
1.0000000000
40
1.0000000000
10
10.1185951336
20
-4.9600548792
30
0.0000000000
10
10.1046385376
20
-4.9749354904
30
0.0000000000
10
10.0812442437
20
-5.0091950884
30
0.0000000000
10
10.0634206875
20
-5.0685327130
30
0.0000000000
10
10.0641904062
20
-5.1304315343
30
0.0000000000
10
10.0771929421
20
-5.1697524334
30
0.0000000000
10
10.0864444144
20
-5.1878736572
30
0.0000000000
11
10.1185951336
21
-4.9600548792
31
0.0000000000
11
10.0840844004
21
-5.0106017063
31
0.0000000000
11
10.0665148246
21
-5.0689724287
31
0.0000000000
11
10.0673075554
21
-5.1299124887
31
0.0000000000
11
10.0864444144
21
-5.1878736572
31
0.0000000000
0
SPLINE
5
3C4
100
AcDbEntity
8
0
100
AcDbSpline
62
9
6
CONTINUOUS
70
0
71
3
72
22
73
18
74
16
42
0.0000001000
43
0.0000001000
44
0.0000000001
12
-6.7304202349
22
7.1881745839
32
0.0000000000
13
6.5479826904
23
-7.3791347017
33
0.0000000000
40
0.0000000000
40
0.0000000000
40
0.0000000000
40
0.0000000000
40
0.0665060479
40
0.1332981884
40
0.2000304395
40
0.2667348345
40
0.3334714393
40
0.4001831853
40
0.4668815478
40
0.5335543326
40
0.6002030018
40
0.6668309436
40
0.7334461189
40
0.8000603116
40
0.8666853374
40
0.9333305684
40
1.0000000000
40
1.0000000000
40
1.0000000000
40
1.0000000000
10
5.5759788669
20
-4.9600548792
30
0.0000000000
10
5.4267743168
20
-4.8007025182
30
0.0000000000
10
5.1605014778
20
-4.4487027449
30
0.0000000000
10
4.8811921672
20
-3.8493016632
30
0.0000000000
10
4.7335047050
20
-3.2037886598
30
0.0000000000
10
4.7245091848
20
-2.5419067132
30
0.0000000000
10
4.8544523900
20
-1.8928932595
30
0.0000000000
10
5.1176042510
20
-1.2855857726
30
0.0000000000
10
5.5021315414
20
-0.7471317510
30
0.0000000000
10
5.9908709052
20
-0.3014287074
30
0.0000000000
10
6.5620055127
20
0.0317592719
30
0.0000000000
10
7.1901277232
20
0.2377177688
30
0.0000000000
10
7.8473584926
20
0.3073794012
30
0.0000000000
10
8.5045762487
20
0.2376878591
30
0.0000000000
10
9.1326665740
20
0.0317114176
30
0.0000000000
10
9.7037627773
20
-0.3014776509
30
0.0000000000
10
10.0295050059
20
-0.5985482042
30
0.0000000000
10
10.1750217672
20
-0.7625357763
30
0.0000000000
11
5.5759788669
21
-4.9600548792
31
0.0000000000
11
5.1810230664
21
-4.4376503710
31
0.0000000000
11
4.9031177522
21
-3.8415269419
31
0.0000000000
11
4.7566001929
21
-3.2009399585
31
0.0000000000
11
4.7476567677
21
-2.5441457284
31
0.0000000000
11
4.8766817611
21
-1.8997638719
31
0.0000000000
11
5.1378723981
21
-1.2969926074
31
0.0000000000
11
5.5195794604
21
-0.7625018890
31
0.0000000000
11
6.0046982853
21
-0.3201111754
31
0.0000000000
11
6.5715941435
21
0.0105958533
31
0.0000000000
11
7.1950384350
21
0.2150155100
31
0.0000000000
11
7.8473611532
21
0.2841552433
31
0.0000000000
11
8.4996709958
21
0.2149858376
31
0.0000000000
11
9.1230796573
21
0.0105496816
31
0.0000000000
11
9.6899361257
21
-0.3201576778
31
0.0000000000
11
10.1750217672
21
-0.7625357763
31
0.0000000000
0
SPLINE
5
3C5
100
AcDbEntity
8
0
100
AcDbSpline
62
9
6
CONTINUOUS
70
0
71
3
72
11
73
7
74
5
42
0.0000001000
43
0.0000001000
44
0.0000000001
12
0.1111241306
22
0.2173902796
32
0.0000000000
13
-0.1669373541
23
0.1781545000
33
0.0000000000
40
0.0000000000
40
0.0000000000
40
0.0000000000
40
0.0000000000
40
0.2507890054
40
0.5004599361
40
0.7500120173
40
1.0000000000
40
1.0000000000
40
1.0000000000
40
1.0000000000
10
5.6081295860
20
-5.1878736572
30
0.0000000000
10
5.6174191561
20
-5.1697006265
30
0.0000000000
10
5.6304133702
20
-5.1302967124
30
0.0000000000
10
5.6311252316
20
-5.0683433455
30
0.0000000000
10
5.6132663968
20
-5.0090805565
30
0.0000000000
10
5.5898896443
20
-4.9749003739
30
0.0000000000
10
5.5759788669
20
-4.9600548792
30
0.0000000000
11
5.6081295860
21
-5.1878736572
31
0.0000000000
11
5.6272985976
21
-5.1297226005
31
0.0000000000
11
5.6280304372
21
-5.0687709183
31
0.0000000000
11
5.6104144673
21
-5.0104461027
31
0.0000000000
11
5.5759788669
21
-4.9600548792
31
0.0000000000
0
SPLINE
5
3C6
100
AcDbEntity
8
0
100
AcDbSpline
62
9
6
CONTINUOUS
70
0
71
3
72
11
73
7
74
5
42
0.0000001000
43
0.0000001000
44
0.0000000001
12
0.2698812138
22
0.1377499935
32
0.0000000000
13
0.0813620118
23
0.2918752359
33
0.0000000000
40
0.0000000000
40
0.0000000000
40
0.0000000000
40
0.0000000000
40
0.3778351198
40
0.7001815895
40
0.9184793606
40
1.0000000000
40
1.0000000000
40
1.0000000000
40
1.0000000000
10
5.6081295863
20
-26.4856013250
30
0.0000000000
10
5.6421197865
20
-26.4682523966
30
0.0000000000
10
5.7037728237
20
-26.4350609009
30
0.0000000000
10
5.7902591627
20
-26.3948650762
30
0.0000000000
10
5.8368031478
20
-26.3591322419
30
0.0000000000
10
5.8731180066
20
-26.3508115433
30
0.0000000000
10
5.8753289010
20
-26.3428802580
30
0.0000000000
11
5.6081295863
21
-26.4856013250
31
0.0000000000
11
5.7099044431
21
-26.4331728041
31
0.0000000000
11
5.7963372067
21
-26.3876843624
31
0.0000000000
11
5.8543965349
21
-26.3559942243
31
0.0000000000
11
5.8753289010
21
-26.3428802580
31
0.0000000000
0
SPLINE
5
3C7
100
AcDbEntity
8
0
100
AcDbSpline
62
9
6
CONTINUOUS
70
0
71
3
72
11
73
7
74
5
42
0.0000001000
43
0.0000001000
44
0.0000000001
12
0.2157062439
22
-0.2020634055
32
0.0000000000
13
0.2955321238
23
-0.0044234924
33
0.0000000000
40
0.0000000000
40
0.0000000000
40
0.0000000000
40
0.0000000000
40
0.3796711379
40
0.7016750667
40
0.9189916012
40
1.0000000000
40
1.0000000000
40
1.0000000000
40
1.0000000000
10
5.5759788669
20
-26.7134201767
30
0.0000000000
10
5.6032780119
20
-26.7389927244
30
0.0000000000
10
5.6542585229
20
-26.7848580566
30
0.0000000000
10
5.7195316181
20
-26.8505469392
30
0.0000000000
10
5.7677214397
20
-26.8825959356
30
0.0000000000
10
5.7867908381
20
-26.9119397546
30
0.0000000000
10
5.7947710329
20
-26.9120592013
30
0.0000000000
11
5.5759788669
21
-26.7134201767
31
0.0000000000
11
5.6581137900
21
-26.7898835080
31
0.0000000000
11
5.7282471565
21
-26.8542204501
31
0.0000000000
11
5.7761317259
21
-26.8970306879
31
0.0000000000
11
5.7947710329
21
-26.9120592013
31
0.0000000000
0
SPLINE
5
3C8
100
AcDbEntity
8
0
100
AcDbSpline
62
9
6
CONTINUOUS
70
0
71
3
72
11
73
7
74
5
42
0.0000001000
43
0.0000001000
44
0.0000000001
12
-0.2157281084
22
-0.2020841902
32
0.0000000000
13
-0.2955616505
23
-0.0044662491
33
0.0000000000
40
0.0000000000
40
0.0000000000
40
0.0000000000
40
0.0000000000
40
0.3796648189
40
0.7016694149
40
0.9189891923
40
1.0000000000
40
1.0000000000
40
1.0000000000
40
1.0000000000
10
10.1185951334
20
-26.7134201266
30
0.0000000000
10
10.0912936757
20
-26.7389948790
30
0.0000000000
10
10.0403083956
20
-26.7848648739
30
0.0000000000
10
9.9750289450
20
-26.8505593192
30
0.0000000000
10
9.9268336702
20
-26.8826140802
30
0.0000000000
10
9.9077622150
20
-26.9119592199
30
0.0000000000
10
9.8997809857
20
-26.9120798247
30
0.0000000000
11
10.1185951334
21
-26.7134201266
31
0.0000000000
11
10.0364532596
21
-26.7898900591
31
0.0000000000
11
9.9663126775
21
-26.8542337968
31
0.0000000000
11
9.9184226192
21
-26.8970491692
31
0.0000000000
11
9.8997809857
21
-26.9120798247
31
0.0000000000
0
SPLINE
5
3C9
100
AcDbEntity
8
0
100
AcDbSpline
62
9
6
CONTINUOUS
70
0
71
3
72
11
73
7
74
5
42
0.0000001000
43
0.0000001000
44
0.0000000001
12
-0.2698509134
22
0.1377352857
32
0.0000000000
13
-0.0813426532
23
0.2918456735
33
0.0000000000
40
0.0000000000
40
0.0000000000
40
0.0000000000
40
0.0000000000
40
0.3778415930
40
0.7001868649
40
0.9184811264
40
1.0000000000
40
1.0000000000
40
1.0000000000
40
1.0000000000
10
10.0864444144
20
-26.4856013986
30
0.0000000000
10
10.0524574481
20
-26.4682540254
30
0.0000000000
10
9.9908109459
20
-26.4350658301
30
0.0000000000
10
9.9043339008
20
-26.3948742390
30
0.0000000000
10
9.8577960822
20
-26.3591456343
30
0.0000000000
10
9.8214854463
20
-26.3508258975
30
0.0000000000
10
9.8192751258
20
-26.3428955873
30
0.0000000000
11
10.0864444144
21
-26.4856013986
31
0.0000000000
11
9.9846792344
21
-26.4331775940
31
0.0000000000
11
9.8982564914
21
-26.3876941986
31
0.0000000000
11
9.8402046303
21
-26.3560079430
31
0.0000000000
11
9.8192751258
21
-26.3428955873
31
0.0000000000
0
SPLINE
5
3CA
100
AcDbEntity
8
0
100
AcDbSpline
62
9
6
CONTINUOUS
70
0
71
3
72
11
73
7
74
5
42
0.0000001000
43
0.0000001000
44
0.0000000001
12
0.2157281084
22
0.2020841902
32
0.0000000000
13
0.2955616505
23
0.0044662491
33
0.0000000000
40
0.0000000000
40
0.0000000000
40
0.0000000000
40
0.0000000000
40
0.3796648189
40
0.7016694149
40
0.9189891923
40
1.0000000000
40
1.0000000000
40
1.0000000000
40
1.0000000000
10
5.5759788670
20
-4.9600549293
30
0.0000000000
10
5.6032803247
20
-4.9344801768
30
0.0000000000
10
5.6542656048
20
-4.8886101820
30
0.0000000000
10
5.7195450554
20
-4.8229157367
30
0.0000000000
10
5.7677403303
20
-4.7908609757
30
0.0000000000
10
5.7868117854
20
-4.7615158360
30
0.0000000000
10
5.7947930148
20
-4.7613952312
30
0.0000000000
11
5.5759788670
21
-4.9600549293
31
0.0000000000
11
5.6581207409
21
-4.8835849968
31
0.0000000000
11
5.7282613229
21
-4.8192412591
31
0.0000000000
11
5.7761513812
21
-4.7764258867
31
0.0000000000
11
5.7947930148
21
-4.7613952312
31
0.0000000000
0
SPLINE
5
3CB
100
AcDbEntity
8
0
100
AcDbSpline
62
9
6
CONTINUOUS
70
0
71
3
72
11
73
7
74
5
42
0.0000001000
43
0.0000001000
44
0.0000000001
12
0.2698509134
22
-0.1377352857
32
0.0000000000
13
0.0813426532
23
-0.2918456735
33
0.0000000000
40
0.0000000000
40
0.0000000000
40
0.0000000000
40
0.0000000000
40
0.3778415930
40
0.7001868649
40
0.9184811264
40
1.0000000000
40
1.0000000000
40
1.0000000000
40
1.0000000000
10
5.6081295860
20
-5.1878736573
30
0.0000000000
10
5.6421165524
20
-5.2052210305
30
0.0000000000
10
5.7037630545
20
-5.2384092258
30
0.0000000000
10
5.7902400996
20
-5.2786008169
30
0.0000000000
10
5.8367779182
20
-5.3143294215
30
0.0000000000
10
5.8730885541
20
-5.3226491584
30
0.0000000000
10
5.8752988746
20
-5.3305794686
30
0.0000000000
11
5.6081295860
21
-5.1878736573
31
0.0000000000
11
5.7098947660
21
-5.2402974619
31
0.0000000000
11
5.7963175091
21
-5.2857808572
31
0.0000000000
11
5.8543693702
21
-5.3174671129
31
0.0000000000
11
5.8752988746
21
-5.3305794686
31
0.0000000000
0
SPLINE
5
3CC
100
AcDbEntity
8
0
100
AcDbSpline
62
9
6
CONTINUOUS
70
0
71
3
72
11
73
7
74
5
42
0.0000001000
43
0.0000001000
44
0.0000000001
12
-0.2698812138
22
-0.1377499935
32
0.0000000000
13
-0.0813620118
23
-0.2918752359
33
0.0000000000
40
0.0000000000
40
0.0000000000
40
0.0000000000
40
0.0000000000
40
0.3778351198
40
0.7001815895
40
0.9184793606
40
1.0000000000
40
1.0000000000
40
1.0000000000
40
1.0000000000
10
10.0864444141
20
-5.1878737309
30
0.0000000000
10
10.0524542139
20
-5.2052226593
30
0.0000000000
10
9.9908011767
20
-5.2384141550
30
0.0000000000
10
9.9043148377
20
-5.2786099796
30
0.0000000000
10
9.8577708526
20
-5.3143428140
30
0.0000000000
10
9.8214559938
20
-5.3226635126
30
0.0000000000
10
9.8192450994
20
-5.3305947979
30
0.0000000000
11
10.0864444141
21
-5.1878737309
31
0.0000000000
11
9.9846695574
21
-5.2403022518
31
0.0000000000
11
9.8982367937
21
-5.2857906935
31
0.0000000000
11
9.8401774655
21
-5.3174808316
31
0.0000000000
11
9.8192450994
21
-5.3305947979
31
0.0000000000
0
SPLINE
5
3CD
100
AcDbEntity
8
0
100
AcDbSpline
62
9
6
CONTINUOUS
70
0
71
3
72
11
73
7
74
5
42
0.0000001000
43
0.0000001000
44
0.0000000001
12
-0.2157062439
22
0.2020634055
32
0.0000000000
13
-0.2955321238
23
0.0044234924
33
0.0000000000
40
0.0000000000
40
0.0000000000
40
0.0000000000
40
0.0000000000
40
0.3796711379
40
0.7016750667
40
0.9189916012
40
1.0000000000
40
1.0000000000
40
1.0000000000
40
1.0000000000
10
10.1185951336
20
-4.9600548792
30
0.0000000000
10
10.0912959885
20
-4.9344823315
30
0.0000000000
10
10.0403154775
20
-4.8886169993
30
0.0000000000
10
9.9750423823
20
-4.8229281167
30
0.0000000000
10
9.9268525608
20
-4.7908791203
30
0.0000000000
10
9.9077831623
20
-4.7615353013
30
0.0000000000
10
9.8998029676
20
-4.7614158546
30
0.0000000000
11
10.1185951336
21
-4.9600548792
31
0.0000000000
11
10.0364602104
21
-4.8835915479
31
0.0000000000
11
9.9663268440
21
-4.8192546058
31
0.0000000000
11
9.9184422745
21
-4.7764443679
31
0.0000000000
11
9.8998029676
21
-4.7614158546
31
0.0000000000
0
SPLINE
5
3CE
100
AcDbEntity
8
0
100
AcDbSpline
62
9
6
CONTINUOUS
70
0
71
3
72
22
73
18
74
16
42
0.0000001000
43
0.0000001000
44
0.0000000001
12
3.5973028059
22
-7.0519957843
32
0.0000000000
13
-3.5184165308
23
7.1087417134
33
0.0000000000
40
0.0000000000
40
0.0000000000
40
0.0000000000
40
0.0000000000
40
0.0679459900
40
0.1362796544
40
0.2045272968
40
0.2727346311
40
0.3409539459
40
0.4091555185
40
0.4773336623
40
0.5455021031
40
0.6136564835
40
0.6818059852
40
0.7499560197
40
0.8181176561
40
0.8862900260
40
0.9544848015
40
1.0000000000
40
1.0000000000
40
1.0000000000
40
1.0000000000
10
10.0864444144
20
-5.1878736572
30
0.0000000000
10
10.1679185146
20
-5.3475919356
30
0.0000000000
10
10.2974755456
20
-5.6865450300
30
0.0000000000
10
10.3786468488
20
-6.2241735481
30
0.0000000000
10
10.3432269272
20
-6.7676480767
30
0.0000000000
10
10.1927058367
20
-7.2906898938
30
0.0000000000
10
9.9341263069
20
-7.7694881325
30
0.0000000000
10
9.5793676128
20
-8.1820071596
30
0.0000000000
10
9.1448502245
20
-8.5092274016
30
0.0000000000
10
8.6506143068
20
-8.7361080105
30
0.0000000000
10
8.1194132533
20
-8.8522390069
30
0.0000000000
10
7.5757148731
20
-8.8522970951
30
0.0000000000
10
7.0445177244
20
-8.7362897285
30
0.0000000000
10
6.5502693985
20
-8.5095461204
30
0.0000000000
10
6.1157092981
20
-8.1824694811
30
0.0000000000
10
5.8002377752
20
-7.8158410224
30
0.0000000000
10
5.6475733738
20
-7.5559455945
30
0.0000000000
10
5.5941928982
20
-7.4480936644
30
0.0000000000
11
10.0864444144
21
-5.1878736572
31
0.0000000000
11
10.2783463502
21
-5.6903726763
31
0.0000000000
11
10.3591994013
21
-6.2252609413
31
0.0000000000
11
10.3240210274
21
-6.7643980566
31
0.0000000000
11
10.1747013902
21
-7.2833058391
31
0.0000000000
11
9.9180611747
21
-7.7584898816
31
0.0000000000
11
9.5660132048
21
-8.1678486626
31
0.0000000000
11
9.1348574751
21
-8.4925283098
31
0.0000000000
11
8.6444062999
21
-8.7176657553
31
0.0000000000
11
8.1173095521
21
-8.8328964703
31
0.0000000000
11
7.5778029071
21
-8.8329541263
31
0.0000000000
11
7.0507143570
21
-8.7178470665
31
0.0000000000
11
6.5602584811
21
-8.4928490200
31
0.0000000000
11
6.1290554175
21
-8.1683082435
31
0.0000000000
11
5.7769286312
21
-7.7590882440
31
0.0000000000
11
5.5941928982
21
-7.4480936644
31
0.0000000000
0
SPLINE
5
3CF
100
AcDbEntity
8
0
100
AcDbSpline
62
9
6
CONTINUOUS
70
0
71
3
72
13
73
9
74
7
42
0.0000001000
43
0.0000001000
44
0.0000000001
12
-0.1577378029
22
0.9435858985
32
0.0000000000
13
-0.0003490202
23
0.9566793822
33
0.0000000000
40
0.0000000000
40
0.0000000000
40
0.0000000000
40
0.0000000000
40
0.0448208408
40
0.1498261432
40
0.3086281187
40
0.5117190361
40
0.7469352638
40
1.0000000000
40
1.0000000000
40
1.0000000000
40
1.0000000000
10
18.3560851169
20
-37.8116446651
30
0.0000000000
10
18.3537284699
20
-37.7975472274
30
0.0000000000
10
18.3545165649
20
-37.7494624048
30
0.0000000000
10
18.3509786607
20
-37.6513224079
30
0.0000000000
10
18.3503778203
20
-37.5023061498
30
0.0000000000
10
18.3487880826
20
-37.3119476814
30
0.0000000000
10
18.3481022538
20
-37.0914574124
30
0.0000000000
10
18.3478515043
20
-36.9357523640
30
0.0000000000
10
18.3478220627
20
-36.8550517589
30
0.0000000000
11
18.3560851169
21
-37.8116446651
31
0.0000000000
11
18.3539757593
21
-37.7688174023
31
0.0000000000
11
18.3520206851
21
-37.6683800143
31
0.0000000000
11
18.3503389637
21
-37.5164667367
31
0.0000000000
11
18.3490308028
21
-37.3221782343
31
0.0000000000
11
18.3481741717
21
-37.0971533344
31
0.0000000000
11
18.3478220627
21
-36.8550517589
31
0.0000000000
0
SPLINE
5
3D0
100
AcDbEntity
8
0
100
AcDbSpline
62
9
6
CONTINUOUS
70
0
71
3
72
13
73
9
74
7
42
0.0000001000
43
0.0000001000
44
0.0000000001
12
-0.1518283440
22
0.4537411951
32
0.0000000000
13
-0.0003498850
23
0.4784692214
33
0.0000000000
40
0.0000000000
40
0.0000000000
40
0.0000000000
40
0.0000000000
40
0.0448720941
40
0.1499620513
40
0.3088769427
40
0.5121305404
40
0.7475203519
40
1.0000000000
40
1.0000000000
40
1.0000000000
40
1.0000000000
10
18.8560089645
20
-37.3123298978
30
0.0000000000
10
18.8537380126
20
-37.3055431252
30
0.0000000000
10
18.8543514480
20
-37.2810578624
30
0.0000000000
10
18.8509534877
20
-37.2323174040
30
0.0000000000
10
18.8502801520
20
-37.1575614949
30
0.0000000000
10
18.8487171294
20
-37.0623610061
30
0.0000000000
10
18.8480231327
20
-36.9521033697
30
0.0000000000
10
18.8477753566
20
-36.8743013582
30
0.0000000000
10
18.8477459103
20
-36.8340334446
30
0.0000000000
11
18.8560089645
21
-37.3123298978
31
0.0000000000
11
18.8539024890
21
-37.2909635622
31
0.0000000000
11
18.8519455316
21
-37.2407193349
31
0.0000000000
11
18.8502621377
21
-37.1647020673
31
0.0000000000
11
18.8489529630
21
-37.0674602630
31
0.0000000000
11
18.8480966576
21
-36.9548367084
31
0.0000000000
11
18.8477459103
21
-36.8340334446
31
0.0000000000
0
SPLINE
5
3D1
100
AcDbEntity
8
0
100
AcDbSpline
62
9
6
CONTINUOUS
70
0
71
3
72
12
73
8
74
6
42
0.0000001000
43
0.0000001000
44
0.0000000001
12
0.7813571085
22
0.0007128051
32
0.0000000000
13
0.0007145497
23
0.7813571069
33
0.0000000000
40
0.0000000000
40
0.0000000000
40
0.0000000000
40
0.0000000000
40
0.2000879484
40
0.4001761228
40
0.6002085985
40
0.8001502331
40
1.0000000000
40
1.0000000000
40
1.0000000000
40
1.0000000000
10
18.3560851169
20
-37.8116446651
30
0.0000000000
10
18.4081984972
20
-37.8115971239
30
0.0000000000
10
18.5131411436
20
-37.7949542450
30
0.0000000000
10
18.6546085019
20
-37.7228294308
30
0.0000000000
10
18.7670556774
20
-37.6105313691
30
0.0000000000
10
18.8392900347
20
-37.4692257432
30
0.0000000000
10
18.8559613636
20
-37.3643812430
30
0.0000000000
10
18.8560089645
20
-37.3123298978
30
0.0000000000
11
18.3560851169
21
-37.8116446651
31
0.0000000000
11
18.5104855024
21
-37.7870930674
31
0.0000000000
11
18.6497883795
21
-37.7161210758
31
0.0000000000
11
18.7603734357
21
-37.6056690301
31
0.0000000000
11
18.8314289993
21
-37.4665373183
31
0.0000000000
11
18.8560089645
21
-37.3123298978
31
0.0000000000
0
SPLINE
5
3D2
100
AcDbEntity
8
0
100
AcDbSpline
62
9
6
CONTINUOUS
70
0
71
3
72
22
73
18
74
16
42
0.0000001000
43
0.0000001000
44
0.0000000001
12
-6.0819430125
22
6.4909934649
32
0.0000000000
13
5.9179593247
23
-6.6628793203
33
0.0000000000
40
0.0000000000
40
0.0000000000
40
0.0000000000
40
0.0000000000
40
0.0665535074
40
0.1333362237
40
0.2000520356
40
0.2667366141
40
0.3334533905
40
0.4001484483
40
0.4668357140
40
0.5335041626
40
0.6001550080
40
0.6667906627
40
0.7334178046
40
0.8000449636
40
0.8666806549
40
0.9333315447
40
1.0000000000
40
1.0000000000
40
1.0000000000
40
1.0000000000
10
5.7947830448
20
-4.7614045770
30
0.0000000000
10
5.6598581651
20
-4.6174051165
30
0.0000000000
10
5.4192222400
20
-4.2993702604
30
0.0000000000
10
5.1668351935
20
-3.7578943525
30
0.0000000000
10
5.0334977489
20
-3.1749132376
30
0.0000000000
10
5.0254667002
20
-2.5771920333
30
0.0000000000
10
5.1429801721
20
-1.9911257348
30
0.0000000000
10
5.3808343909
20
-1.4427553240
30
0.0000000000
10
5.7283271999
20
-0.9565862062
30
0.0000000000
10
6.1699395869
20
-0.5541826711
30
0.0000000000
10
6.6859584992
20
-0.2533717111
30
0.0000000000
10
7.2534394813
20
-0.0674203012
30
0.0000000000
10
7.8472141188
20
-0.0045057971
30
0.0000000000
10
8.4409921032
20
-0.0673897667
30
0.0000000000
10
9.0084829181
20
-0.2533121240
30
0.0000000000
10
9.5245174723
20
-0.5540967828
30
0.0000000000
10
9.8188989091
20
-0.8223138076
30
0.0000000000
10
9.9504126447
20
-0.9703817651
30
0.0000000000
11
5.7947830448
21
-4.7614045770
31
0.0000000000
11
5.4376782128
21
-4.2892380289
31
0.0000000000
11
5.1866462939
21
-3.7508457628
31
0.0000000000
11
5.0543620707
21
-3.1723326323
31
0.0000000000
11
5.0463824284
21
-2.5792194782
31
0.0000000000
11
5.1630578560
21
-1.9973487146
31
0.0000000000
11
5.3991305382
21
-1.4530811615
31
0.0000000000
11
5.7440658333
21
-0.9704893178
31
0.0000000000
11
6.1824033057
21
-0.5710685408
31
0.0000000000
11
6.6945951314
21
-0.2724876632
31
0.0000000000
11
7.2578577827
21
-0.0879179162
31
0.0000000000
11
7.8472146076
21
-0.0254713154
31
0.0000000000
11
8.4365747958
21
-0.0878876134
31
0.0000000000
11
8.9998472348
21
-0.2724285330
31
0.0000000000
11
9.5120546980
21
-0.5709833695
31
0.0000000000
11
9.9504126447
21
-0.9703817651
31
0.0000000000
0
SPLINE
5
3D3
100
AcDbEntity
8
0
100
AcDbSpline
62
9
6
CONTINUOUS
70
0
71
3
72
10
73
6
74
4
42
0.0000001000
43
0.0000001000
44
0.0000000001
12
-0.0308408133
22
42.0366204979
32
0.0000000000
13
0.0308408108
23
42.0366204979
33
0.0000000000
40
0.0000000000
40
0.0000000000
40
0.0000000000
40
0.0000000000
40
0.3332896860
40
0.6667103140
40
1.0000000000
40
1.0000000000
40
1.0000000000
40
1.0000000000
10
18.3478220627
20
-36.8550517589
30
0.0000000000
10
18.3443957544
20
-32.1849277436
30
0.0000000000
10
18.3398297187
20
-22.8428430810
30
0.0000000000
10
18.3398297183
20
-8.8306319756
30
0.0000000000
10
18.3443957547
20
0.5114526874
30
0.0000000000
10
18.3478220627
20
5.1815767030
30
0.0000000000
11
18.3478220627
21
-36.8550517589
31
0.0000000000
11
18.3409716760
21
-22.8446776172
31
0.0000000000
11
18.3409716759
21
-8.8287974398
31
0.0000000000
11
18.3478220627
21
5.1815767030
31
0.0000000000
0
SPLINE
5
3D4
100
AcDbEntity
8
0
100
AcDbSpline
62
9
6
CONTINUOUS
70
0
71
3
72
10
73
6
74
4
42
0.0000001000
43
0.0000001000
44
0.0000000001
12
-0.0308408131
22
41.9945838615
32
0.0000000000
13
0.0308408106
23
41.9945838615
33
0.0000000000
40
0.0000000000
40
0.0000000000
40
0.0000000000
40
0.0000000000
40
0.3332892101
40
0.6667109287
40
1.0000000000
40
1.0000000000
40
1.0000000000
40
1.0000000000
10
18.8477459103
20
-36.8340334446
30
0.0000000000
10
18.8443196069
20
-32.1685862172
30
0.0000000000
10
18.8397535637
20
-22.8358350338
30
0.0000000000
10
18.8397535648
20
-8.8376361362
30
0.0000000000
10
18.8443196086
20
0.4951131043
30
0.0000000000
10
18.8477459103
20
5.1605583887
30
0.0000000000
11
18.8477459103
21
-36.8340334446
31
0.0000000000
11
18.8408955285
21
-22.8376896645
31
0.0000000000
11
18.8408955298
21
-8.8357795626
31
0.0000000000
11
18.8477459103
21
5.1605583887
31
0.0000000000
0
SPLINE
5
3D5
100
AcDbEntity
8
0
100
AcDbSpline
62
9
6
CONTINUOUS
70
0
71
3
72
22
73
18
74
16
42
0.0000001000
43
0.0000001000
44
0.0000000001
12
3.1692875616
22
-6.2071644028
32
0.0000000000
13
-3.1006328504
23
6.2567707330
33
0.0000000000
40
0.0000000000
40
0.0000000000
40
0.0000000000
40
0.0000000000
40
0.0679879390
40
0.1363049759
40
0.2045333763
40
0.2727233545
40
0.3409301151
40
0.4091256693
40
0.4773047247
40
0.5454797594
40
0.6136463240
40
0.6818121915
40
0.7499788210
40
0.8181536771
40
0.8863332316
40
0.9545278995
40
1.0000000000
40
1.0000000000
40
1.0000000000
40
1.0000000000
10
9.8192588386
20
-5.3305877909
30
0.0000000000
10
9.8910832817
20
-5.4712585624
30
0.0000000000
10
10.0051904532
20
-5.7697163070
30
0.0000000000
10
10.0766671229
20
-6.2430406567
30
0.0000000000
10
10.0454027585
20
-6.7213749345
30
0.0000000000
10
9.9128000693
20
-7.1817014163
30
0.0000000000
10
9.6850433496
20
-7.6030674979
30
0.0000000000
10
9.3726150198
20
-7.9660866604
30
0.0000000000
10
8.9899796815
20
-8.2540305852
30
0.0000000000
10
8.5547830534
20
-8.4536800870
30
0.0000000000
10
8.0870450098
20
-8.5558878020
30
0.0000000000
10
7.6082899304
20
-8.5559699223
30
0.0000000000
10
7.1405171111
20
-8.4539226764
30
0.0000000000
10
6.7052512079
20
-8.2544221596
30
0.0000000000
10
6.3225182328
20
-7.9666101068
30
0.0000000000
10
6.0446992585
20
-7.6440285429
30
0.0000000000
10
5.9102419233
20
-7.4153747137
30
0.0000000000
10
5.8632444938
20
-7.3205385446
30
0.0000000000
11
9.8192588386
21
-5.3305877909
31
0.0000000000
11
9.9883766651
21
-5.7732189127
31
0.0000000000
11
10.0595336374
21
-6.2440041284
31
0.0000000000
11
10.0284946462
21
-6.7185046420
31
0.0000000000
11
9.8969520771
21
-7.1751840833
31
0.0000000000
11
9.6709130685
21
-7.5933671931
31
0.0000000000
11
9.3608770444
21
-7.9536090040
31
0.0000000000
11
8.9812019408
21
-8.2393256880
31
0.0000000000
11
8.5493359780
21
-8.4374477940
31
0.0000000000
11
8.0852040238
21
-8.5388677784
31
0.0000000000
11
7.6101252288
21
-8.5389492671
31
0.0000000000
11
7.1459580769
21
-8.4376883673
31
0.0000000000
11
6.7140252880
21
-8.2397149817
31
0.0000000000
11
6.3342495285
21
-7.9541263160
31
0.0000000000
11
6.0240938954
21
-7.5939956307
31
0.0000000000
11
5.8632444938
21
-7.3205385446
31
0.0000000000
0
SPLINE
5
3D6
100
AcDbEntity
8
0
100
AcDbSpline
62
9
6
CONTINUOUS
70
0
71
3
72
12
73
8
74
6
42
0.0000001000
43
0.0000001000
44
0.0000000001
12
0.5010580609
22
0.0003673192
32
0.0000000000
13
0.1919553163
23
0.4628309323
33
0.0000000000
40
0.0000000000
40
0.0000000000
40
0.0000000000
40
0.0000000000
40
0.3050607102
40
0.5809725745
40
0.8013959844
40
0.9453902239
40
1.0000000000
40
1.0000000000
40
1.0000000000
40
1.0000000000
10
18.3478220627
20
-36.8550517584
30
0.0000000000
10
18.3987731054
20
-36.8550144069
30
0.0000000000
10
18.4963084534
20
-36.8547652007
30
0.0000000000
10
18.6281930056
20
-36.8503231350
30
0.0000000000
10
18.7400893062
20
-36.8505079303
30
0.0000000000
10
18.8000766772
20
-36.8372423295
30
0.0000000000
10
18.8442516980
20
-36.8424584758
30
0.0000000000
10
18.8477459103
20
-36.8340334446
30
0.0000000000
11
18.3478220627
21
-36.8550517584
31
0.0000000000
11
18.5006711413
21
-36.8539335265
31
0.0000000000
11
18.6388859754
21
-36.8509099971
31
0.0000000000
11
18.7492334485
21
-36.8462706544
31
0.0000000000
11
18.8211485517
21
-36.8404596834
31
0.0000000000
11
18.8477459103
21
-36.8340334446
31
0.0000000000
0
SPLINE
5
3D7
100
AcDbEntity
8
0
100
AcDbSpline
62
9
6
CONTINUOUS
70
0
71
3
72
13
73
9
74
7
42
0.0000001000
43
0.0000001000
44
0.0000000001
12
0.0003490200
22
0.9566793822
32
0.0000000000
13
0.1577378176
23
0.9435858960
33
0.0000000000
40
0.0000000000
40
0.0000000000
40
0.0000000000
40
0.0000000000
40
0.2530647362
40
0.4882809639
40
0.6913718813
40
0.8501738568
40
0.9551791592
40
1.0000000000
40
1.0000000000
40
1.0000000000
40
1.0000000000
10
18.3478220627
20
5.1815767030
30
0.0000000000
10
18.3478515043
20
5.2622773081
30
0.0000000000
10
18.3481022539
20
5.4179823565
30
0.0000000000
10
18.3487880825
20
5.6384726256
30
0.0000000000
10
18.3503778204
20
5.8288310939
30
0.0000000000
10
18.3509786605
20
5.9778473520
30
0.0000000000
10
18.3545165652
20
6.0759873488
30
0.0000000000
10
18.3537284697
20
6.1240721715
30
0.0000000000
10
18.3560851169
20
6.1381696093
30
0.0000000000
11
18.3478220627
21
5.1815767030
31
0.0000000000
11
18.3481741717
21
5.4236782785
31
0.0000000000
11
18.3490308028
21
5.6487031784
31
0.0000000000
11
18.3503389637
21
5.8429916808
31
0.0000000000
11
18.3520206851
21
5.9949049584
31
0.0000000000
11
18.3539757593
21
6.0953423464
31
0.0000000000
11
18.3560851169
21
6.1381696093
31
0.0000000000
0
SPLINE
5
3D8
100
AcDbEntity
8
0
100
AcDbSpline
62
9
6
CONTINUOUS
70
0
71
3
72
22
73
18
74
16
42
0.0000001000
43
0.0000001000
44
0.0000000001
12
6.0819430125
22
-6.4909934649
32
0.0000000000
13
-5.9179593247
23
6.6628793203
33
0.0000000000
40
0.0000000000
40
0.0000000000
40
0.0000000000
40
0.0000000000
40
0.0665535074
40
0.1333362237
40
0.2000520356
40
0.2667366141
40
0.3334533905
40
0.4001484483
40
0.4668357140
40
0.5335041626
40
0.6001550080
40
0.6667906627
40
0.7334178046
40
0.8000449636
40
0.8666806549
40
0.9333315447
40
1.0000000000
40
1.0000000000
40
1.0000000000
40
1.0000000000
10
9.8997909556
20
-26.9120704789
30
0.0000000000
10
10.0347158353
20
-27.0560699394
30
0.0000000000
10
10.2753517604
20
-27.3741047955
30
0.0000000000
10
10.5277388069
20
-27.9155807034
30
0.0000000000
10
10.6610762515
20
-28.4985618183
30
0.0000000000
10
10.6691073002
20
-29.0962830226
30
0.0000000000
10
10.5515938283
20
-29.6823493210
30
0.0000000000
10
10.3137396095
20
-30.2307197319
30
0.0000000000
10
9.9662468005
20
-30.7168888497
30
0.0000000000
10
9.5246344135
20
-31.1192923848
30
0.0000000000
10
9.0086155012
20
-31.4201033448
30
0.0000000000
10
8.4411345192
20
-31.6060547547
30
0.0000000000
10
7.8473598816
20
-31.6689692588
30
0.0000000000
10
7.2535818972
20
-31.6060852892
30
0.0000000000
10
6.6860910823
20
-31.4201629318
30
0.0000000000
10
6.1700565281
20
-31.1193782731
30
0.0000000000
10
5.8756750914
20
-30.8511612483
30
0.0000000000
10
5.7441613557
20
-30.7030932908
30
0.0000000000
11
9.8997909556
21
-26.9120704789
31
0.0000000000
11
10.2568957877
21
-27.3842370270
31
0.0000000000
11
10.5079277065
21
-27.9226292931
31
0.0000000000
11
10.6402119297
21
-28.5011424236
31
0.0000000000
11
10.6481915720
21
-29.0942555777
31
0.0000000000
11
10.5315161444
21
-29.6761263413
31
0.0000000000
11
10.2954434622
21
-30.2203938943
31
0.0000000000
11
9.9505081671
21
-30.7029857381
31
0.0000000000
11
9.5121706947
21
-31.1024065151
31
0.0000000000
11
8.9999788690
21
-31.4009873927
31
0.0000000000
11
8.4367162178
21
-31.5855571397
31
0.0000000000
11
7.8473593928
21
-31.6480037404
31
0.0000000000
11
7.2579992046
21
-31.5855874424
31
0.0000000000
11
6.6947267656
21
-31.4010465229
31
0.0000000000
11
6.1825193024
21
-31.1024916864
31
0.0000000000
11
5.7441613557
21
-30.7030932908
31
0.0000000000
0
SPLINE
5
3D9
100
AcDbEntity
8
0
100
AcDbSpline
62
9
6
CONTINUOUS
70
0
71
3
72
22
73
18
74
16
42
0.0000001000
43
0.0000001000
44
0.0000000001
12
-3.1692875616
22
6.2071644028
32
0.0000000000
13
3.1006328504
23
-6.2567707330
33
0.0000000000
40
0.0000000000
40
0.0000000000
40
0.0000000000
40
0.0000000000
40
0.0679879390
40
0.1363049759
40
0.2045333763
40
0.2727233545
40
0.3409301151
40
0.4091256693
40
0.4773047247
40
0.5454797594
40
0.6136463240
40
0.6818121915
40
0.7499788210
40
0.8181536771
40
0.8863332316
40
0.9545278995
40
1.0000000000
40
1.0000000000
40
1.0000000000
40
1.0000000000
10
5.8753151619
20
-26.3428872650
30
0.0000000000
10
5.8034907188
20
-26.2022164935
30
0.0000000000
10
5.6893835473
20
-25.9037587488
30
0.0000000000
10
5.6179068775
20
-25.4304343992
30
0.0000000000
10
5.6491712420
20
-24.9521001214
30
0.0000000000
10
5.7817739311
20
-24.4917736396
30
0.0000000000
10
6.0095306509
20
-24.0704075580
30
0.0000000000
10
6.3219589806
20
-23.7073883955
30
0.0000000000
10
6.7045943190
20
-23.4194444707
30
0.0000000000
10
7.1397909470
20
-23.2197949689
30
0.0000000000
10
7.6075289907
20
-23.1175872539
30
0.0000000000
10
8.0862840700
20
-23.1175051336
30
0.0000000000
10
8.5540568893
20
-23.2195523795
30
0.0000000000
10
8.9893227925
20
-23.4190528963
30
0.0000000000
10
9.3720557677
20
-23.7068649491
30
0.0000000000
10
9.6498747419
20
-24.0294465130
30
0.0000000000
10
9.7843320771
20
-24.2581003421
30
0.0000000000
10
9.8313295066
20
-24.3529365113
30
0.0000000000
11
5.8753151619
21
-26.3428872650
31
0.0000000000
11
5.7061973353
21
-25.9002561432
31
0.0000000000
11
5.6350403630
21
-25.4294709275
31
0.0000000000
11
5.6660793542
21
-24.9549704139
31
0.0000000000
11
5.7976219233
21
-24.4982909726
31
0.0000000000
11
6.0236609320
21
-24.0801078628
31
0.0000000000
11
6.3336969560
21
-23.7198660519
31
0.0000000000
11
6.7133720596
21
-23.4341493679
31
0.0000000000
11
7.1452380225
21
-23.2360272619
31
0.0000000000
11
7.6093699766
21
-23.1346072775
31
0.0000000000
11
8.0844487717
21
-23.1345257888
31
0.0000000000
11
8.5486159235
21
-23.2357866886
31
0.0000000000
11
8.9805487124
21
-23.4337600742
31
0.0000000000
11
9.3603244719
21
-23.7193487399
31
0.0000000000
11
9.6704801051
21
-24.0794794252
31
0.0000000000
11
9.8313295066
21
-24.3529365113
31
0.0000000000
0
SPLINE
5
3DA
100
AcDbEntity
8
0
100
AcDbSpline
62
9
6
CONTINUOUS
70
0
71
3
72
13
73
9
74
7
42
0.0000001000
43
0.0000001000
44
0.0000000001
12
0.0003498847
22
0.4784692214
32
0.0000000000
13
0.1518282341
23
0.4537412319
33
0.0000000000
40
0.0000000000
40
0.0000000000
40
0.0000000000
40
0.0000000000
40
0.2524796480
40
0.4878694598
40
0.6911230573
40
0.8500379483
40
0.9551279064
40
1.0000000000
40
1.0000000000
40
1.0000000000
40
1.0000000000
10
18.8477459103
20
5.1605583887
30
0.0000000000
10
18.8477753566
20
5.2008263023
30
0.0000000000
10
18.8480231327
20
5.2786283139
30
0.0000000000
10
18.8487171295
20
5.3888859501
30
0.0000000000
10
18.8502801516
20
5.4840864391
30
0.0000000000
10
18.8509534887
20
5.5588423478
30
0.0000000000
10
18.8543514462
20
5.6075828072
30
0.0000000000
10
18.8537380143
20
5.6320680689
30
0.0000000000
10
18.8560089645
20
5.6388548419
30
0.0000000000
11
18.8477459103
21
5.1605583887
31
0.0000000000
11
18.8480966576
21
5.2813616524
31
0.0000000000
11
18.8489529630
21
5.3939852072
31
0.0000000000
11
18.8502621377
21
5.4912270114
31
0.0000000000
11
18.8519455316
21
5.5672442789
31
0.0000000000
11
18.8539024890
21
5.6174885065
31
0.0000000000
11
18.8560089645
21
5.6388548419
31
0.0000000000
0
SPLINE
5
3DB
100
AcDbEntity
8
0
100
AcDbSpline
62
9
6
CONTINUOUS
70
0
71
3
72
22
73
18
74
16
42
0.0000001000
43
0.0000001000
44
0.0000000001
12
8.8296745156
22
-0.0007384923
32
0.0000000000
13
-8.8296745157
23
-0.0007375804
33
0.0000000000
40
0.0000000000
40
0.0000000000
40
0.0000000000
40
0.0000000000
40
0.0666203400
40
0.1333454040
40
0.2000070341
40
0.2666597294
40
0.3333398634
40
0.4000223618
40
0.4667004806
40
0.5333111463
40
0.5999769279
40
0.6666564998
40
0.7333375707
40
0.7999904925
40
0.8666500280
40
0.9333730815
40
1.0000000000
40
1.0000000000
40
1.0000000000
40
1.0000000000
10
7.8472870002
20
-13.0211061171
30
0.0000000000
10
8.0433656398
20
-13.0211225167
30
0.0000000000
10
8.4370646845
20
-13.0623897818
30
0.0000000000
10
9.0008405179
20
-13.2455986839
30
0.0000000000
10
9.5145209844
20
-13.5421309343
30
0.0000000000
10
9.9551688510
20
-13.9388693085
30
0.0000000000
10
10.3037580441
20
-14.4186102516
30
0.0000000000
10
10.5449814280
20
-14.9604252509
30
0.0000000000
10
10.6682080318
20
-15.5403601687
30
0.0000000000
10
10.6681970995
20
-16.1331818188
30
0.0000000000
10
10.5449703026
20
-16.7130685825
30
0.0000000000
10
10.3037680893
20
-17.2548461886
30
0.0000000000
10
9.9551866756
20
-17.7345864936
30
0.0000000000
10
9.5145440662
20
-18.1313266355
30
0.0000000000
10
9.0008770679
20
-18.4278586847
30
0.0000000000
10
8.4370978665
20
-18.6110796775
30
0.0000000000
10
8.0433850017
20
-18.6523525578
30
0.0000000000
10
7.8472870002
20
-18.6523689388
30
0.0000000000
11
7.8472870002
21
-13.0211061171
31
0.0000000000
11
8.4323055667
21
-13.0825453163
31
0.0000000000
11
8.9926452369
21
-13.2645608798
31
0.0000000000
11
9.5023908242
21
-13.5588566203
31
0.0000000000
11
9.9397651714
21
-13.9526349375
31
0.0000000000
11
10.2858525858
21
-14.4289398921
31
0.0000000000
11
10.5253264054
21
-14.9668244351
31
0.0000000000
11
10.6476931322
21
-15.5427136095
31
0.0000000000
11
10.6476823498
21
-16.1308641086
31
0.0000000000
11
10.5253283531
21
-16.7066446219
31
0.0000000000
11
10.2858687294
21
-17.2445072002
31
0.0000000000
11
9.9397812106
21
-17.7208223054
31
0.0000000000
11
9.5024085893
21
-18.1146055280
31
0.0000000000
11
8.9926822858
21
-18.4088976798
31
0.0000000000
11
8.4323626976
21
-18.5909176061
31
0.0000000000
11
7.8472870002
21
-18.6523689388
31
0.0000000000
0
SPLINE
5
3DC
100
AcDbEntity
8
0
100
AcDbSpline
62
9
6
CONTINUOUS
70
0
71
3
72
12
73
8
74
6
42
0.0000001000
43
0.0000001000
44
0.0000000001
12
0.5010578743
22
-0.0003674018
32
0.0000000000
13
0.1921898260
23
-0.4627333997
33
0.0000000000
40
0.0000000000
40
0.0000000000
40
0.0000000000
40
0.0000000000
40
0.3050562610
40
0.5809650378
40
0.8013878226
40
0.9453845855
40
1.0000000000
40
1.0000000000
40
1.0000000000
40
1.0000000000
10
18.3478220628
20
5.1815757598
30
0.0000000000
10
18.3987723433
20
5.1815384004
30
0.0000000000
10
18.4963059650
20
5.1812890897
30
0.0000000000
10
18.6281907671
20
5.1768476000
30
0.0000000000
10
18.7400826005
20
5.1770314350
30
0.0000000000
10
18.8000792362
20
5.1637679751
30
0.0000000000
10
18.8442470678
20
5.1689825142
30
0.0000000000
10
18.8477459102
20
5.1605583887
30
0.0000000000
11
18.3478220628
21
5.1815757598
31
0.0000000000
11
18.5006688553
21
5.1804575597
31
0.0000000000
11
18.6388820936
21
5.1774341677
31
0.0000000000
11
18.7492292213
21
5.1727950469
31
0.0000000000
11
18.8211455881
21
5.1669843482
31
0.0000000000
11
18.8477459102
21
5.1605583887
31
0.0000000000
0
SPLINE
5
3DD
100
AcDbEntity
8
0
100
AcDbSpline
62
9
6
CONTINUOUS
70
0
71
3
72
22
73
18
74
16
42
0.0000001000
43
0.0000001000
44
0.0000000001
12
-8.8296745152
22
0.0007384679
32
0.0000000000
13
8.8296745152
23
0.0007376032
33
0.0000000000
40
0.0000000000
40
0.0000000000
40
0.0000000000
40
0.0000000000
40
0.0666200110
40
0.1333456593
40
0.2000080086
40
0.2666612185
40
0.3333421447
40
0.4000247488
40
0.4667007405
40
0.5333066718
40
0.5999730985
40
0.6666534610
40
0.7333350901
40
0.7999886398
40
0.8666487864
40
0.9333724523
40
1.0000000000
40
1.0000000000
40
1.0000000000
40
1.0000000000
10
7.8472870002
20
-18.6523689388
30
0.0000000000
10
7.6512093290
20
-18.6523525398
30
0.0000000000
10
7.2575095520
20
-18.6110854055
30
0.0000000000
10
6.6937308671
20
-18.4278756547
30
0.0000000000
10
6.1800462252
20
-18.1313396632
30
0.0000000000
10
5.7393953895
20
-17.7345955187
30
0.0000000000
10
5.3908065212
20
-17.2548490256
30
0.0000000000
10
5.1495886039
20
-16.7130355599
30
0.0000000000
10
5.0263686634
20
-16.1331199654
30
0.0000000000
10
5.0263756418
20
-15.5403174474
30
0.0000000000
10
5.1495928190
20
-14.9604384855
30
0.0000000000
10
5.3907916170
20
-14.4186527877
30
0.0000000000
10
5.7393723415
20
-13.9389046479
30
0.0000000000
10
6.1800162619
20
-13.5421578754
30
0.0000000000
10
6.6936866374
20
-13.2456205368
30
0.0000000000
10
7.2574705928
20
-13.0623961584
30
0.0000000000
10
7.6511871468
20
-13.0211224987
30
0.0000000000
10
7.8472870002
20
-13.0211061171
30
0.0000000000
11
7.8472870002
21
-18.6523689388
31
0.0000000000
11
7.2622712910
21
-18.5909303464
31
0.0000000000
11
6.7019266931
21
-18.4089132543
31
0.0000000000
11
6.1921761764
21
-18.1146133501
31
0.0000000000
11
5.7547999824
21
-17.7208302945
31
0.0000000000
11
5.4087112875
21
-17.2445176236
31
0.0000000000
11
5.1692410472
21
-16.7066304652
31
0.0000000000
11
5.0468806273
21
-16.1307591521
31
0.0000000000
11
5.0468875009
21
-15.5426504552
31
0.0000000000
11
5.1692351430
21
-14.9668627690
31
0.0000000000
11
5.4086917815
21
-14.4289912201
31
0.0000000000
11
5.7547780527
21
-13.9526691159
31
0.0000000000
11
6.1921521037
21
-13.5588791961
31
0.0000000000
11
6.7018816445
21
-13.2645818599
31
0.0000000000
11
7.2622058383
21
-13.0825586105
31
0.0000000000
11
7.8472870002
21
-13.0211061171
31
0.0000000000
0
SPLINE
5
3DE
100
AcDbEntity
8
0
100
AcDbSpline
62
9
6
CONTINUOUS
70
0
71
3
72
22
73
18
74
16
42
0.0000001000
43
0.0000001000
44
0.0000000001
12
9.7732158738
22
-0.0016267928
32
0.0000000000
13
-9.7732158742
23
-0.0016244763
33
0.0000000000
40
0.0000000000
40
0.0000000000
40
0.0000000000
40
0.0000000000
40
0.0665567954
40
0.1332706582
40
0.1999289766
40
0.2665878379
40
0.3332841381
40
0.3999918740
40
0.4667007560
40
0.5333420084
40
0.6000348972
40
0.6667349310
40
0.7334276153
40
0.8000824314
40
0.8667346924
40
0.9334427205
40
1.0000000000
40
1.0000000000
40
1.0000000000
40
1.0000000000
10
7.8472870002
20
-12.7192813349
30
0.0000000000
10
8.0641116433
20
-12.7193174262
30
0.0000000000
10
8.4996382547
20
-12.7649317966
30
0.0000000000
10
9.1234042826
20
-12.9677054012
30
0.0000000000
10
9.6919083711
20
-13.2959916102
30
0.0000000000
10
10.1795900037
20
-13.7352836984
30
0.0000000000
10
10.5653938624
20
-14.2665074130
30
0.0000000000
10
10.8323635686
20
-14.8664916636
30
0.0000000000
10
10.9687255043
20
-15.5086921462
30
0.0000000000
10
10.9686811840
20
-16.1651487659
30
0.0000000000
10
10.8322651048
20
-16.8072556060
30
0.0000000000
10
10.5652892510
20
-17.4071380150
30
0.0000000000
10
10.1794855394
20
-17.9382986333
30
0.0000000000
10
9.6918206032
20
-18.3775416252
30
0.0000000000
10
9.1233514558
20
-18.7057814764
30
0.0000000000
10
8.4996229170
20
-18.9085453609
30
0.0000000000
10
8.0641132204
20
-18.9541576808
30
0.0000000000
10
7.8472870002
20
-18.9541937210
30
0.0000000000
11
7.8472870002
21
-12.7192813349
31
0.0000000000
11
8.4942039782
21
-12.7872134191
31
0.0000000000
11
9.1143052020
21
-12.9886835109
31
0.0000000000
11
9.6784473855
21
-13.3144928631
31
0.0000000000
11
10.1625111122
21
-13.7504944220
31
0.0000000000
11
10.5455541188
21
-14.2779126478
31
0.0000000000
11
10.8105993995
21
-14.8735540201
31
0.0000000000
11
10.9460178754
21
-15.5112954142
31
0.0000000000
11
10.9459739119
21
-16.1625947677
31
0.0000000000
11
10.8105177805
21
-16.8001683732
31
0.0000000000
11
10.5454600366
21
-17.3957218073
31
0.0000000000
11
10.1624088027
21
-17.9230903817
31
0.0000000000
11
9.6783563915
21
-18.3590454291
31
0.0000000000
11
9.1142559084
21
-18.6848086135
31
0.0000000000
11
8.4942085626
21
-18.8862599914
31
0.0000000000
11
7.8472870002
21
-18.9541937210
31
0.0000000000
0
SPLINE
5
3DF
100
AcDbEntity
8
0
100
AcDbSpline
62
9
6
CONTINUOUS
70
0
71
3
72
12
73
8
74
6
42
0.0000001000
43
0.0000001000
44
0.0000000001
12
0.7813571062
22
-0.0007128138
32
0.0000000000
13
0.0007145531
23
-0.7813571046
33
0.0000000000
40
0.0000000000
40
0.0000000000
40
0.0000000000
40
0.0000000000
40
0.2000850064
40
0.4001713425
40
0.6002035309
40
0.8001467217
40
1.0000000000
40
1.0000000000
40
1.0000000000
40
1.0000000000
10
18.3560851169
20
6.1381696093
30
0.0000000000
10
18.4081977308
20
6.1381220681
30
0.0000000000
10
18.5131391002
20
6.1214796392
30
0.0000000000
10
18.6546056646
20
6.0493563216
30
0.0000000000
10
18.7670536027
20
5.9370592487
30
0.0000000000
10
18.8392895189
20
5.7957529589
30
0.0000000000
10
18.8559613626
20
5.6909071015
30
0.0000000000
10
18.8560089645
20
5.6388548419
30
0.0000000000
11
18.3560851169
21
6.1381696093
31
0.0000000000
11
18.5104832885
21
6.1136187299
31
0.0000000000
11
18.6497853180
21
6.0426482397
31
0.0000000000
11
18.7603710752
21
5.9321972142
31
0.0000000000
11
18.8314281374
21
5.7930649029
31
0.0000000000
11
18.8560089645
21
5.6388548419
31
0.0000000000
0
SPLINE
5
3E0
100
AcDbEntity
8
0
100
AcDbSpline
62
9
6
CONTINUOUS
70
0
71
3
72
13
73
9
74
7
42
0.0000001000
43
0.0000001000
44
0.0000000001
12
0.1517233705
22
0.4537763541
32
0.0000000000
13
0.0003487208
23
0.4784692666
33
0.0000000000
40
0.0000000000
40
0.0000000000
40
0.0000000000
40
0.0000000000
40
0.0447511791
40
0.1496617630
40
0.3084069250
40
0.5114254892
40
0.7467904150
40
1.0000000000
40
1.0000000000
40
1.0000000000
40
1.0000000000
10
-3.1614349641
20
-37.3123298978
30
0.0000000000
10
-3.1591716975
20
-37.3055608888
30
0.0000000000
10
-3.1597756627
20
-37.2811263339
30
0.0000000000
10
-3.1563856325
20
-37.2324589682
30
0.0000000000
10
-3.1557092003
20
-37.1577970248
30
0.0000000000
10
-3.1541463209
20
-37.0626647914
30
0.0000000000
10
-3.1534500346
20
-36.9523322351
30
0.0000000000
10
-3.1532013430
20
-36.8744177794
30
0.0000000000
10
-3.1531719099
20
-36.8340334446
30
0.0000000000
11
-3.1614349641
21
-37.3123298978
31
0.0000000000
11
-3.1593317986
21
-37.2910213686
31
0.0000000000
11
-3.1573757387
21
-37.2408629915
31
0.0000000000
11
-3.1556920223
21
-37.1649269542
31
0.0000000000
11
-3.1543824036
21
-37.0677976134
31
0.0000000000
11
-3.1535244398
21
-36.9551859683
31
0.0000000000
11
-3.1531719099
21
-36.8340334446
31
0.0000000000
0
SPLINE
5
3E1
100
AcDbEntity
8
0
100
AcDbSpline
62
9
6
CONTINUOUS
70
0
71
3
72
13
73
9
74
7
42
0.0000001000
43
0.0000001000
44
0.0000000001
12
0.1577707702
22
0.9435803750
32
0.0000000000
13
0.0003449110
23
0.9566793721
33
0.0000000000
40
0.0000000000
40
0.0000000000
40
0.0000000000
40
0.0000000000
40
0.0448247981
40
0.1498254833
40
0.3086663044
40
0.5117002731
40
0.7469689740
40
1.0000000000
40
1.0000000000
40
1.0000000000
40
1.0000000000
10
-2.6615111165
20
-37.8116446651
30
0.0000000000
10
-2.6591537689
20
-37.7975460652
30
0.0000000000
10
-2.6599433682
20
-37.7494612522
30
0.0000000000
10
-2.6564045783
20
-37.6513092435
30
0.0000000000
10
-2.6558041065
20
-37.5023001457
30
0.0000000000
10
-2.6542142524
20
-37.3119307403
30
0.0000000000
10
-2.6535282482
20
-37.0914526412
30
0.0000000000
10
-2.6532771534
20
-36.9357416132
30
0.0000000000
10
-2.6532480623
20
-36.8550517589
30
0.0000000000
11
-2.6615111165
21
-37.8116446651
31
0.0000000000
11
-2.6594018071
21
-37.7688136100
31
0.0000000000
11
-2.6574471775
21
-37.6683806326
31
0.0000000000
11
-2.6557649892
21
-37.5164301969
31
0.0000000000
11
-2.6544571536
21
-37.3221961776
31
0.0000000000
11
-2.6536000652
21
-37.0971210817
31
0.0000000000
11
-2.6532480623
21
-36.8550517589
31
0.0000000000
0
SPLINE
5
3E2
100
AcDbEntity
8
0
100
AcDbSpline
62
9
6
CONTINUOUS
70
0
71
3
72
12
73
8
74
6
42
0.0000001000
43
0.0000001000
44
0.0000000001
12
0.0007145491
22
-0.7813571074
32
0.0000000000
13
0.7813571090
23
-0.0007128017
33
0.0000000000
40
0.0000000000
40
0.0000000000
40
0.0000000000
40
0.0000000000
40
0.1998485957
40
0.3997897125
40
0.5998222854
40
0.7999110728
40
1.0000000000
40
1.0000000000
40
1.0000000000
40
1.0000000000
10
-3.1614349641
20
-37.3123298978
30
0.0000000000
10
-3.1613873635
20
-37.3643809380
30
0.0000000000
10
-3.1447162062
20
-37.4692249858
30
0.0000000000
10
-3.0724823682
20
-37.6105303907
30
0.0000000000
10
-2.9600354462
20
-37.7228287823
30
0.0000000000
10
-2.8185678233
20
-37.7949540951
30
0.0000000000
10
-2.7136247516
20
-37.8115971237
30
0.0000000000
10
-2.6615111164
20
-37.8116446649
30
0.0000000000
11
-3.1614349641
21
-37.3123298978
31
0.0000000000
11
-3.1368552862
21
-37.4665364376
31
0.0000000000
11
-3.0658002217
21
-37.6056679501
31
0.0000000000
11
-2.9552153983
21
-37.7161203364
31
0.0000000000
11
-2.8159122383
21
-37.7870928282
31
0.0000000000
11
-2.6615111164
21
-37.8116446649
31
0.0000000000
0
SPLINE
5
3E3
100
AcDbEntity
8
0
100
AcDbSpline
62
9
6
CONTINUOUS
70
0
71
3
72
10
73
6
74
4
42
0.0000001000
43
0.0000001000
44
0.0000000001
12
0.0308407996
22
41.9945838615
32
0.0000000000
13
-0.0308408117
23
41.9945838615
33
0.0000000000
40
0.0000000000
40
0.0000000000
40
0.0000000000
40
0.0000000000
40
0.3332886949
40
0.6667106342
40
1.0000000000
40
1.0000000000
40
1.0000000000
40
1.0000000000
10
-3.1531719099
20
-36.8340334446
30
0.0000000000
10
-3.1497456133
20
-32.1685934290
30
0.0000000000
10
-3.1451795657
20
-22.8358463685
30
0.0000000000
10
-3.1451795605
20
-8.8376474710
30
0.0000000000
10
-3.1497456050
20
0.4951089813
30
0.0000000000
10
-3.1531719099
20
5.1605583887
30
0.0000000000
11
-3.1531719099
21
-36.8340334446
31
0.0000000000
11
-3.1463215330
21
-22.8377112998
31
0.0000000000
11
-3.1463215265
21
-8.8357919315
31
0.0000000000
11
-3.1531719099
21
5.1605583887
31
0.0000000000
0
SPLINE
5
3E4
100
AcDbEntity
8
0
100
AcDbSpline
62
9
6
CONTINUOUS
70
0
71
3
72
10
73
6
74
4
42
0.0000001000
43
0.0000001000
44
0.0000000001
12
0.0308407997
22
42.0366204979
32
0.0000000000
13
-0.0308408119
23
42.0366204979
33
0.0000000000
40
0.0000000000
40
0.0000000000
40
0.0000000000
40
0.0000000000
40
0.3332896861
40
0.6667103140
40
1.0000000000
40
1.0000000000
40
1.0000000000
40
1.0000000000
10
-2.6532480623
20
-36.8550517589
30
0.0000000000
10
-2.6498217555
20
-32.1849277423
30
0.0000000000
10
-2.6452557169
20
-22.8428430789
30
0.0000000000
10
-2.6452557186
20
-8.8306319735
30
0.0000000000
10
-2.6498217541
20
0.5114526882
30
0.0000000000
10
-2.6532480623
20
5.1815767030
30
0.0000000000
11
-2.6532480623
21
-36.8550517589
31
0.0000000000
11
-2.6463976753
21
-22.8446776134
31
0.0000000000
11
-2.6463976757
21
-8.8287974372
31
0.0000000000
11
-2.6532480623
21
5.1815767030
31
0.0000000000
0
SPLINE
5
3E5
100
AcDbEntity
8
0
100
AcDbSpline
62
9
6
CONTINUOUS
70
0
71
3
72
12
73
8
74
6
42
0.0000001000
43
0.0000001000
44
0.0000000001
12
0.1919554566
22
-0.4628308739
32
0.0000000000
13
0.5010580608
23
-0.0003673235
33
0.0000000000
40
0.0000000000
40
0.0000000000
40
0.0000000000
40
0.0000000000
40
0.0546097796
40
0.1986040208
40
0.4190274305
40
0.6949392928
40
1.0000000000
40
1.0000000000
40
1.0000000000
40
1.0000000000
10
-3.1531719099
20
-36.8340334446
30
0.0000000000
10
-3.1496776948
20
-36.8424584753
30
0.0000000000
10
-3.1055026782
20
-36.8372423300
30
0.0000000000
10
-3.0455153016
20
-36.8505079292
30
0.0000000000
10
-2.9336190036
20
-36.8503231344
30
0.0000000000
10
-2.8017344514
20
-36.8547651993
30
0.0000000000
10
-2.7041991044
20
-36.8550144061
30
0.0000000000
10
-2.6532480623
20
-36.8550517581
30
0.0000000000
11
-3.1531719099
21
-36.8340334446
31
0.0000000000
11
-3.1265745494
21
-36.8404596833
31
0.0000000000
11
-3.0546594453
21
-36.8462706539
31
0.0000000000
11
-2.9443119724
21
-36.8509099963
31
0.0000000000
11
-2.8060971393
21
-36.8539335254
31
0.0000000000
11
-2.6532480623
21
-36.8550517581
31
0.0000000000
0
SPLINE
5
3E6
100
AcDbEntity
8
0
100
AcDbSpline
62
9
6
CONTINUOUS
70
0
71
3
72
13
73
9
74
7
42
0.0000001000
43
0.0000001000
44
0.0000000001
12
-0.0003487206
22
0.4784692666
32
0.0000000000
13
-0.1517232156
23
0.4537764059
33
0.0000000000
40
0.0000000000
40
0.0000000000
40
0.0000000000
40
0.0000000000
40
0.2532095848
40
0.4885745110
40
0.6915930751
40
0.8503382364
40
0.9552488215
40
1.0000000000
40
1.0000000000
40
1.0000000000
40
1.0000000000
10
-3.1531719099
20
5.1605583887
30
0.0000000000
10
-3.1532013430
20
5.2009427235
30
0.0000000000
10
-3.1534500346
20
5.2788571792
30
0.0000000000
10
-3.1541463211
20
5.3891897355
30
0.0000000000
10
-3.1557091997
20
5.4843219691
30
0.0000000000
10
-3.1563856339
20
5.5589839118
30
0.0000000000
10
-3.1597756601
20
5.6076512789
30
0.0000000000
10
-3.1591716998
20
5.6320858322
30
0.0000000000
10
-3.1614349641
20
5.6388548419
30
0.0000000000
11
-3.1531719099
21
5.1605583887
31
0.0000000000
11
-3.1535244398
21
5.2817109124
31
0.0000000000
11
-3.1543824036
21
5.3943225576
31
0.0000000000
11
-3.1556920223
21
5.4914518983
31
0.0000000000
11
-3.1573757387
21
5.5673879353
31
0.0000000000
11
-3.1593317986
21
5.6175463130
31
0.0000000000
11
-3.1614349641
21
5.6388548419
31
0.0000000000
0
SPLINE
5
3E7
100
AcDbEntity
8
0
100
AcDbSpline
62
9
6
CONTINUOUS
70
0
71
3
72
14
73
10
74
8
42
0.0000001000
43
0.0000001000
44
0.0000000001
12
3.0571010597
22
-3.4451466326
32
0.0000000000
13
-3.1422923751
23
-3.3559773102
33
0.0000000000
40
0.0000000000
40
0.0000000000
40
0.0000000000
40
0.0000000000
40
0.1428538664
40
0.2857365373
40
0.4286722445
40
0.5715424450
40
0.7144620867
40
0.8575167629
40
1.0000000000
40
1.0000000000
40
1.0000000000
40
1.0000000000
10
10.1750217672
20
-0.7625357763
30
0.0000000000
10
10.3205946693
20
-0.9265866152
30
0.0000000000
10
10.5769716484
20
-1.2855989571
30
0.0000000000
10
10.8401114314
20
-1.8928767073
30
0.0000000000
10
10.9700552282
20
-2.5418623389
30
0.0000000000
10
10.9610744952
20
-3.2037073912
30
0.0000000000
10
10.8134110054
20
-3.8491866133
30
0.0000000000
10
10.5341263926
20
-4.4486213019
30
0.0000000000
10
10.2678364634
20
-4.8006647090
30
0.0000000000
10
10.1185951336
20
-4.9600548792
30
0.0000000000
11
10.1750217672
21
-0.7625357763
31
0.0000000000
11
10.5567053712
21
-1.2970044088
31
0.0000000000
11
10.8178840930
21
-1.8997470839
31
0.0000000000
11
10.9469094143
21
-2.5440963123
31
0.0000000000
11
10.9379787572
21
-3.2008747997
31
0.0000000000
11
10.7914933712
21
-3.8414046002
31
0.0000000000
11
10.5136321931
21
-4.4375134649
31
0.0000000000
11
10.1185951336
21
-4.9600548792
31
0.0000000000
0
SPLINE
5
3E8
100
AcDbEntity
8
0
100
AcDbSpline
62
9
6
CONTINUOUS
70
0
71
3
72
12
73
8
74
6
42
0.0000001000
43
0.0000001000
44
0.0000000001
12
-1.0397970835
22
2.1008453195
32
0.0000000000
13
1.0631601495
23
2.0840497907
33
0.0000000000
40
0.0000000000
40
0.0000000000
40
0.0000000000
40
0.0000000000
40
0.0768083464
40
0.3075938753
40
0.5384949770
40
0.7697725012
40
1.0000000000
40
1.0000000000
40
1.0000000000
40
1.0000000000
10
5.5941928982
20
-7.4480936644
30
0.0000000000
10
5.5675712000
20
-7.3943061794
30
0.0000000000
10
5.4686560319
20
-7.1750965116
30
0.0000000000
10
5.3514933091
20
-6.7684502533
30
0.0000000000
10
5.3158975094
20
-6.2249803860
30
0.0000000000
10
5.3969322981
20
-5.6870643594
30
0.0000000000
10
5.5265400187
20
-5.3478088474
30
0.0000000000
10
5.6081295860
20
-5.1878736572
30
0.0000000000
11
5.5941928982
21
-7.4480936644
31
0.0000000000
11
5.5201663082
21
-7.2840147835
31
0.0000000000
11
5.3706927337
21
-6.7651787010
31
0.0000000000
11
5.3353430056
21
-6.2261279728
31
0.0000000000
11
5.4160403135
21
-5.6910901260
31
0.0000000000
11
5.6081295860
21
-5.1878736572
31
0.0000000000
0
SPLINE
5
3E9
100
AcDbEntity
8
0
100
AcDbSpline
62
9
6
CONTINUOUS
70
0
71
3
72
12
73
8
74
6
42
0.0000001000
43
0.0000001000
44
0.0000000001
12
1.0397970835
22
-2.1008453195
32
0.0000000000
13
-1.0631601495
23
-2.0840497907
33
0.0000000000
40
0.0000000000
40
0.0000000000
40
0.0000000000
40
0.0000000000
40
0.0768083464
40
0.3075938753
40
0.5384949770
40
0.7697725012
40
1.0000000000
40
1.0000000000
40
1.0000000000
40
1.0000000000
10
10.1003811023
20
-24.2253813915
30
0.0000000000
10
10.1270028005
20
-24.2791688765
30
0.0000000000
10
10.2259179685
20
-24.4983785443
30
0.0000000000
10
10.3430806914
20
-24.9050248026
30
0.0000000000
10
10.3786764910
20
-25.4484946699
30
0.0000000000
10
10.2976417023
20
-25.9864106964
30
0.0000000000
10
10.1680339817
20
-26.3256662085
30
0.0000000000
10
10.0864444144
20
-26.4856013987
30
0.0000000000
11
10.1003811023
21
-24.2253813915
31
0.0000000000
11
10.1744076922
21
-24.3894602723
31
0.0000000000
11
10.3238812667
21
-24.9082963549
31
0.0000000000
11
10.3592309949
21
-25.4473470831
31
0.0000000000
11
10.2785336869
21
-25.9823849299
31
0.0000000000
11
10.0864444144
21
-26.4856013987
31
0.0000000000
0
SPLINE
5
3EA
100
AcDbEntity
8
0
100
AcDbSpline
62
9
6
CONTINUOUS
70
0
71
3
72
14
73
10
74
8
42
0.0000001000
43
0.0000001000
44
0.0000000001
12
-3.0571010597
22
3.4451466326
32
0.0000000000
13
3.1422923751
23
3.3559773102
33
0.0000000000
40
0.0000000000
40
0.0000000000
40
0.0000000000
40
0.0000000000
40
0.1428538664
40
0.2857365373
40
0.4286722445
40
0.5715424450
40
0.7144620867
40
0.8575167629
40
1.0000000000
40
1.0000000000
40
1.0000000000
40
1.0000000000
10
5.5195522332
20
-30.9109392796
30
0.0000000000
10
5.3739793311
20
-30.7468884407
30
0.0000000000
10
5.1176023521
20
-30.3878760988
30
0.0000000000
10
4.8544625690
20
-29.7805983486
30
0.0000000000
10
4.7245187722
20
-29.1316127170
30
0.0000000000
10
4.7334995052
20
-28.4697676646
30
0.0000000000
10
4.8811629951
20
-27.8242884426
30
0.0000000000
10
5.1604476078
20
-27.2248537540
30
0.0000000000
10
5.4267375371
20
-26.8728103469
30
0.0000000000
10
5.5759788669
20
-26.7134201767
30
0.0000000000
11
5.5195522332
21
-30.9109392796
31
0.0000000000
11
5.1378686292
21
-30.3764706471
31
0.0000000000
11
4.8766899074
21
-29.7737279720
31
0.0000000000
11
4.7476645861
21
-29.1293787436
31
0.0000000000
11
4.7565952432
21
-28.4726002562
31
0.0000000000
11
4.9030806292
21
-27.8320704556
31
0.0000000000
11
5.1809418073
21
-27.2359615910
31
0.0000000000
11
5.5759788669
21
-26.7134201767
31
0.0000000000
0
SPLINE
5
3EB
100
AcDbEntity
8
0
100
AcDbSpline
62
9
6
CONTINUOUS
70
0
71
3
72
14
73
10
74
8
42
0.0000001000
43
0.0000001000
44
0.0000000001
12
2.7628998872
22
-3.1106784472
32
0.0000000000
13
-2.8395386588
23
-3.0303554665
33
0.0000000000
40
0.0000000000
40
0.0000000000
40
0.0000000000
40
0.0000000000
40
0.1428400410
40
0.2856966309
40
0.4285993173
40
0.5714361704
40
0.7143293141
40
0.8573726826
40
1.0000000000
40
1.0000000000
40
1.0000000000
40
1.0000000000
10
9.9504126447
20
-0.9703817651
30
0.0000000000
10
10.0819635558
20
-1.1184915774
30
0.0000000000
10
10.3136682973
20
-1.4426292948
30
0.0000000000
10
10.5515502670
20
-1.9909869542
30
0.0000000000
10
10.6690944484
20
-2.5770499616
30
0.0000000000
10
10.6610934753
20
-3.1747638018
30
0.0000000000
10
10.5277889095
20
-3.7577425004
30
0.0000000000
10
10.2753987932
20
-4.2993169191
30
0.0000000000
10
10.0346965832
20
-4.6174332910
30
0.0000000000
10
9.8996979894
20
-4.7615037814
30
0.0000000000
11
9.9504126447
21
-0.9703817651
31
0.0000000000
11
10.2953727740
21
-1.4529562406
31
0.0000000000
11
10.5314731478
21
-1.9972114817
31
0.0000000000
11
10.6481781382
21
-2.5790742427
31
0.0000000000
11
10.6402279433
21
-3.1721987686
31
0.0000000000
11
10.5079822442
21
-3.7506867703
31
0.0000000000
11
10.2569847583
21
-4.2890902935
31
0.0000000000
11
9.8996979894
21
-4.7615037814
31
0.0000000000
0
SPLINE
5
3EC
100
AcDbEntity
8
0
100
AcDbSpline
62
9
6
CONTINUOUS
70
0
71
3
72
12
73
8
74
6
42
0.0000001000
43
0.0000001000
44
0.0000000001
12
-0.9164996736
22
1.8494057862
32
0.0000000000
13
0.9368668868
23
1.8347051638
33
0.0000000000
40
0.0000000000
40
0.0000000000
40
0.0000000000
40
0.0000000000
40
0.0769162916
40
0.3076176676
40
0.5384265684
40
0.7696203268
40
1.0000000000
40
1.0000000000
40
1.0000000000
40
1.0000000000
10
5.8632444938
20
-7.3205385446
30
0.0000000000
10
5.8397465751
20
-7.2731220663
30
0.0000000000
10
5.7525597866
20
-7.0801223934
30
0.0000000000
10
5.6493039969
20
-6.7221305290
30
0.0000000000
10
5.6178726844
20
-6.2437673099
30
0.0000000000
10
5.6892394101
20
-5.7701306302
30
0.0000000000
10
5.8034269868
20
-5.4713694005
30
0.0000000000
10
5.8753720159
20
-5.3304764751
30
0.0000000000
11
5.8632444938
21
-7.3205385446
31
0.0000000000
11
5.7979091165
21
-7.1758864339
31
0.0000000000
11
5.6662078389
21
-6.7192395214
31
0.0000000000
11
5.6350075475
21
-6.2447832351
31
0.0000000000
11
5.7060349358
21
-5.7738353432
31
0.0000000000
11
5.8753720159
21
-5.3304764751
31
0.0000000000
0
SPLINE
5
3ED
100
AcDbEntity
8
0
100
AcDbSpline
62
9
6
CONTINUOUS
70
0
71
3
72
14
73
10
74
8
42
0.0000001000
43
0.0000001000
44
0.0000000001
12
-2.7628998872
22
3.1106784472
32
0.0000000000
13
2.8395386588
23
3.0303554665
33
0.0000000000
40
0.0000000000
40
0.0000000000
40
0.0000000000
40
0.0000000000
40
0.1428400410
40
0.2856966309
40
0.4285993173
40
0.5714361704
40
0.7143293141
40
0.8573726826
40
1.0000000000
40
1.0000000000
40
1.0000000000
40
1.0000000000
10
5.7441613557
20
-30.7030932908
30
0.0000000000
10
5.6126104447
20
-30.5549834785
30
0.0000000000
10
5.3809057032
20
-30.2308457610
30
0.0000000000
10
5.1430237335
20
-29.6824881016
30
0.0000000000
10
5.0254795521
20
-29.0964250943
30
0.0000000000
10
5.0334805251
20
-28.4987112541
30
0.0000000000
10
5.1667850909
20
-27.9157325555
30
0.0000000000
10
5.4191752072
20
-27.3741581368
30
0.0000000000
10
5.6598774172
20
-27.0560417648
30
0.0000000000
10
5.7948760111
20
-26.9119712745
30
0.0000000000
11
5.7441613557
21
-30.7030932908
31
0.0000000000
11
5.3992012264
21
-30.2205188153
31
0.0000000000
11
5.1631008526
21
-29.6762635742
31
0.0000000000
11
5.0463958622
21
-29.0944008132
31
0.0000000000
11
5.0543460572
21
-28.5012762873
31
0.0000000000
11
5.1865917562
21
-27.9227882856
31
0.0000000000
11
5.4375892421
21
-27.3843847624
31
0.0000000000
11
5.7948760111
21
-26.9119712745
31
0.0000000000
0
SPLINE
5
3EE
100
AcDbEntity
8
0
100
AcDbSpline
62
9
6
CONTINUOUS
70
0
71
3
72
12
73
8
74
6
42
0.0000001000
43
0.0000001000
44
0.0000000001
12
0.9164996736
22
-1.8494057862
32
0.0000000000
13
-0.9368668868
23
-1.8347051638
33
0.0000000000
40
0.0000000000
40
0.0000000000
40
0.0000000000
40
0.0000000000
40
0.0769162916
40
0.3076176676
40
0.5384265684
40
0.7696203268
40
1.0000000000
40
1.0000000000
40
1.0000000000
40
1.0000000000
10
9.8313295066
20
-24.3529365113
30
0.0000000000
10
9.8548274253
20
-24.4003529896
30
0.0000000000
10
9.9420142138
20
-24.5933526625
30
0.0000000000
10
10.0452700035
20
-24.9513445269
30
0.0000000000
10
10.0767013160
20
-25.4297077460
30
0.0000000000
10
10.0053345904
20
-25.9033444257
30
0.0000000000
10
9.8911470136
20
-26.2021056554
30
0.0000000000
10
9.8192019845
20
-26.3429985808
30
0.0000000000
11
9.8313295066
21
-24.3529365113
31
0.0000000000
11
9.8966648840
21
-24.4975886219
31
0.0000000000
11
10.0283661615
21
-24.9542355345
31
0.0000000000
11
10.0595664530
21
-25.4286918208
31
0.0000000000
11
9.9885390646
21
-25.8996397127
31
0.0000000000
11
9.8192019845
21
-26.3429985808
31
0.0000000000
0
SPLINE
5
3EF
100
AcDbEntity
8
0
100
AcDbSpline
62
9
6
CONTINUOUS
70
0
71
3
72
13
73
9
74
7
42
0.0000001000
43
0.0000001000
44
0.0000000001
12
-0.0003449115
22
0.9566793721
32
0.0000000000
13
-0.1577707732
23
0.9435803745
33
0.0000000000
40
0.0000000000
40
0.0000000000
40
0.0000000000
40
0.0000000000
40
0.2530310260
40
0.4882997269
40
0.6913336956
40
0.8501745167
40
0.9551752019
40
1.0000000000
40
1.0000000000
40
1.0000000000
40
1.0000000000
10
-2.6532480623
20
5.1815767030
30
0.0000000000
10
-2.6532771534
20
5.2622665573
30
0.0000000000
10
-2.6535282483
20
5.4179775853
30
0.0000000000
10
-2.6542142524
20
5.6384556844
30
0.0000000000
10
-2.6558041065
20
5.8288250899
30
0.0000000000
10
-2.6564045782
20
5.9778341876
30
0.0000000000
10
-2.6599433683
20
6.0759861963
30
0.0000000000
10
-2.6591537688
20
6.1240710093
30
0.0000000000
10
-2.6615111165
20
6.1381696093
30
0.0000000000
11
-2.6532480623
21
5.1815767030
31
0.0000000000
11
-2.6536000652
21
5.4236460259
31
0.0000000000
11
-2.6544571536
21
5.6487211217
31
0.0000000000
11
-2.6557649892
21
5.8429551410
31
0.0000000000
11
-2.6574471775
21
5.9949055767
31
0.0000000000
11
-2.6594018071
21
6.0953385541
31
0.0000000000
11
-2.6615111165
21
6.1381696093
31
0.0000000000
0
SPLINE
5
3F0
100
AcDbEntity
8
0
100
AcDbSpline
62
9
6
CONTINUOUS
70
0
71
3
72
12
73
8
74
6
42
0.0000001000
43
0.0000001000
44
0.0000000001
12
0.1920144796
22
0.4628063375
32
0.0000000000
13
0.5010580120
23
0.0003673725
33
0.0000000000
40
0.0000000000
40
0.0000000000
40
0.0000000000
40
0.0000000000
40
0.0546111894
40
0.1986060630
40
0.4190293170
40
0.6949404067
40
1.0000000000
40
1.0000000000
40
1.0000000000
40
1.0000000000
10
-3.1531719099
20
5.1605583887
30
0.0000000000
10
-3.1496765302
20
5.1689831903
30
0.0000000000
10
-3.1055033226
20
5.1637674356
30
0.0000000000
10
-3.0455136187
20
5.1770325025
30
0.0000000000
10
-2.9336184434
20
5.1768479456
30
0.0000000000
10
-2.8017338274
20
5.1812898718
30
0.0000000000
10
-2.7041989134
20
5.1815391093
30
0.0000000000
10
-2.6532480623
20
5.1815764661
30
0.0000000000
11
-3.1531719099
21
5.1605583887
31
0.0000000000
11
-3.1265738067
21
5.1669845496
31
0.0000000000
11
-3.0546583859
21
5.1727954481
31
0.0000000000
11
-2.9443109994
21
5.1774347351
31
0.0000000000
11
-2.8060965664
21
5.1804582339
31
0.0000000000
11
-2.6532480623
21
5.1815764661
31
0.0000000000
0
SPLINE
5
3F1
100
AcDbEntity
8
0
100
AcDbSpline
62
3
6
CONTINUOUS
70
0
71
3
72
11
73
7
74
5
42
0.0000001000
43
0.0000001000
44
0.0000000001
12
0.0000000000
22
-0.0156071510
32
0.0000000000
13
-0.0156071510
23
0.0000000000
33
0.0000000000
40
0.0000000000
40
0.0000000000
40
0.0000000000
40
0.0000000000
40
0.2549230606
40
0.5063170326
40
0.7504652889
40
1.0000000000
40
1.0000000000
40
1.0000000000
40
1.0000000000
10
8.7472870002
20
-16.8367375279
30
0.0000000000
10
8.7472870002
20
-16.8380637355
30
0.0000000000
10
8.7467490745
20
-16.8407279153
30
0.0000000000
10
8.7444911906
20
-16.8440344601
30
0.0000000000
10
8.7411818354
20
-16.8462243700
30
0.0000000000
10
8.7385851755
20
-16.8467375279
30
0.0000000000
10
8.7372870002
20
-16.8467375279
30
0.0000000000
11
8.7472870002
21
-16.8367375279
31
0.0000000000
11
8.7464955283
21
-16.8406366318
31
0.0000000000
11
8.7442866354
21
-16.8438793139
31
0.0000000000
11
8.7411069756
21
-16.8459791613
31
0.0000000000
11
8.7372870002
21
-16.8467375279
31
0.0000000000
0
SPLINE
5
3F2
100
AcDbEntity
8
0
100
AcDbSpline
62
7
6
CONTINUOUS
70
0
71
3
72
9
73
5
74
3
42
0.0000001000
43
0.0000001000
44
0.0000000001
12
-0.6631369901
22
0.0132833622
32
0.0000000000
13
-0.6631377800
23
0.0132438696
33
0.0000000000
40
0.0000000000
40
0.0000000000
40
0.0000000000
40
0.0000000000
40
0.4999084932
40
1.0000000000
40
1.0000000000
40
1.0000000000
40
1.0000000000
10
-45.9590149898
20
3.1141813120
30
0.0000000000
10
-46.0695175943
20
3.1163948005
30
0.0000000000
10
-46.2905633236
20
3.1208192950
30
0.0000000000
10
-46.5116091846
20
3.1252372075
30
0.0000000000
10
-46.6221523751
20
3.1274449230
30
0.0000000000
11
-45.9590149898
21
3.1141813120
31
0.0000000000
11
-46.2905229022
21
3.1208168404
31
0.0000000000
11
-46.6221523751
21
3.1274449230
31
0.0000000000
0
SPLINE
5
3F3
100
AcDbEntity
8
0
100
AcDbSpline
62
7
6
CONTINUOUS
70
0
71
3
72
9
73
5
74
3
42
0.0000001000
43
0.0000001000
44
0.0000000001
12
0.6631377800
22
0.0132438696
32
0.0000000000
13
0.6631369901
23
0.0132833622
33
0.0000000000
40
0.0000000000
40
0.0000000000
40
0.0000000000
40
0.0000000000
40
0.5000915066
40
1.0000000000
40
1.0000000000
40
1.0000000000
40
1.0000000000
10
-46.6221523751
20
-34.8009199789
30
0.0000000000
10
-46.5116091846
20
-34.7987122634
30
0.0000000000
10
-46.2905633237
20
-34.7942943509
30
0.0000000000
10
-46.0695175943
20
-34.7898698564
30
0.0000000000
10
-45.9590149898
20
-34.7876563679
30
0.0000000000
11
-46.6221523751
21
-34.8009199789
31
0.0000000000
11
-46.2905229023
21
-34.7942918963
31
0.0000000000
11
-45.9590149898
21
-34.7876563679
31
0.0000000000
0
SPLINE
5
3F4
100
AcDbEntity
8
0
100
AcDbSpline
62
7
6
CONTINUOUS
70
0
71
3
72
12
73
8
74
6
42
0.0000001000
43
0.0000001000
44
0.0000000001
12
0.7780177431
22
0.0146274290
32
0.0000000000
13
0.0158991488
23
0.7786651656
33
0.0000000000
40
0.0000000000
40
0.0000000000
40
0.0000000000
40
0.0000000000
40
0.2027073529
40
0.4052905105
40
0.6079278904
40
0.8105189835
40
1.0000000000
40
1.0000000000
40
1.0000000000
40
1.0000000000
10
-38.6226902393
20
-34.6896107549
30
0.0000000000
10
-38.5701202669
20
-34.6886223925
30
0.0000000000
10
-38.4645997584
20
-34.6701147801
30
0.0000000000
10
-38.3229167229
20
-34.5955159434
30
0.0000000000
10
-38.2106462043
20
-34.4811609512
30
0.0000000000
10
-38.1402401602
20
-34.3412312302
30
0.0000000000
10
-38.1232614841
20
-34.2391626520
30
0.0000000000
10
-38.1222572885
20
-34.1899818963
30
0.0000000000
11
-38.6226902393
21
-34.6896107549
31
0.0000000000
11
-38.4673351007
21
-34.6622979263
31
0.0000000000
11
-38.3278257740
21
-34.5888957581
31
0.0000000000
11
-38.2173584245
21
-34.4763746501
31
0.0000000000
11
-38.1465479092
21
-34.3355252683
31
0.0000000000
11
-38.1222572885
21
-34.1899818963
31
0.0000000000
0
SPLINE
5
3F5
100
AcDbEntity
8
0
100
AcDbSpline
62
9
6
CONTINUOUS
70
0
71
3
72
8
73
4
74
2
42
0.0000001000
43
0.0000001000
44
0.0000000001
12
0.0111091180
22
0.0001939104
32
0.0000000000
13
-0.0011367161
23
0.0125692090
33
0.0000000000
40
0.0000000000
40
0.0000000000
40
0.0000000000
40
0.0000000000
40
1.0000000000
40
1.0000000000
40
1.0000000000
40
1.0000000000
10
-38.6232516479
20
-34.6971161964
30
0.0000000000
10
-38.6195486085
20
-34.6970515596
30
0.0000000000
10
-38.6186627367
20
-34.6941324281
30
0.0000000000
10
-38.6190416421
20
-34.6899426917
30
0.0000000000
11
-38.6232516479
21
-34.6971161964
31
0.0000000000
11
-38.6190416421
21
-34.6899426917
31
0.0000000000
0
SPLINE
5
3F6
100
AcDbEntity
8
0
100
AcDbSpline
62
9
6
CONTINUOUS
70
0
71
3
72
17
73
13
74
11
42
0.0000001000
43
0.0000001000
44
0.0000000001
12
7.0269893814
22
0.3555098708
32
0.0000000000
13
7.0349050292
23
0.1227935868
33
0.0000000000
40
0.0000000000
40
0.0000000000
40
0.0000000000
40
0.0000000000
40
0.0685439078
40
0.1433574058
40
0.2249210392
40
0.3133166400
40
0.4086712638
40
0.5112187648
40
0.6212480529
40
0.7391015184
40
0.8651919666
40
1.0000000000
40
1.0000000000
40
1.0000000000
40
1.0000000000
10
-34.1396047816
20
-21.0698155532
30
0.0000000000
10
-33.9790523442
20
-21.0616928746
30
0.0000000000
10
-33.6426067475
20
-21.0640994846
30
0.0000000000
10
-33.1152929188
20
-21.0514132649
30
0.0000000000
10
-32.5412840421
20
-21.0417967564
30
0.0000000000
10
-31.9191317536
20
-21.0312269416
30
0.0000000000
10
-31.2477758345
20
-21.0192344453
30
0.0000000000
10
-30.5256842187
20
-21.0067839923
30
0.0000000000
10
-29.7508368178
20
-20.9931887179
30
0.0000000000
10
-28.9207804150
20
-20.9787283852
30
0.0000000000
10
-28.0326192628
20
-20.9632149315
30
0.0000000000
10
-27.4208205394
20
-20.9525387036
30
0.0000000000
10
-27.1046999687
20
-20.9470208496
30
0.0000000000
11
-34.1396047816
21
-21.0698155532
31
0.0000000000
11
-33.6574015060
21
-21.0615955548
31
0.0000000000
11
-33.1310956931
21
-21.0524065915
31
0.0000000000
11
-32.5573094495
21
-21.0420435837
31
0.0000000000
11
-31.9354508577
21
-21.0314170376
31
0.0000000000
11
-31.2646419845
21
-21.0196026209
31
0.0000000000
11
-30.5432293421
21
-21.0070512976
31
0.0000000000
11
-29.7691839984
21
-20.9935261853
31
0.0000000000
11
-28.9400959877
21
-20.9790587340
31
0.0000000000
11
-28.0530616819
21
-20.9635743386
31
0.0000000000
11
-27.1046999687
21
-20.9470208496
31
0.0000000000
0
SPLINE
5
3F7
100
AcDbEntity
8
0
100
AcDbSpline
62
9
6
CONTINUOUS
70
0
71
3
72
32
73
28
74
26
42
0.0000001000
43
0.0000001000
44
0.0000000001
12
-0.0205948692
22
3.5483882322
32
0.0000000000
13
3.5478535529
23
0.0649489190
33
0.0000000000
40
0.0000000000
40
0.0000000000
40
0.0000000000
40
0.0000000000
40
0.0379475068
40
0.0750043463
40
0.1122982918
40
0.1508601127
40
0.1915201161
40
0.2349338832
40
0.2805039039
40
0.3267272294
40
0.3722424071
40
0.4165452993
40
0.4597468672
40
0.5019596705
40
0.5432727531
40
0.5837565337
40
0.6235554399
40
0.6629083108
40
0.7019957793
40
0.7405618524
40
0.7781659006
40
0.8146331727
40
0.8505398658
40
0.8865964798
40
0.9232966481
40
0.9609966396
40
1.0000000000
40
1.0000000000
40
1.0000000000
40
1.0000000000
10
-36.1047000469
20
-23.5694347911
30
0.0000000000
10
-36.1049605549
20
-23.5245506289
30
0.0000000000
10
-36.1034600932
20
-23.4358288132
30
0.0000000000
10
-36.0983209899
20
-23.3030870743
30
0.0000000000
10
-36.0885285407
20
-23.1698614268
30
0.0000000000
10
-36.0734545258
20
-23.0328375124
30
0.0000000000
10
-36.0514208483
20
-22.8894135453
30
0.0000000000
10
-36.0206879093
20
-22.7391074919
30
0.0000000000
10
-35.9798678178
20
-22.5843812339
30
0.0000000000
10
-35.9287407950
20
-22.4301092099
30
0.0000000000
10
-35.8681652599
20
-22.2809053727
30
0.0000000000
10
-35.7992580597
20
-22.1393255938
30
0.0000000000
10
-35.7228227233
20
-22.0061503972
30
0.0000000000
10
-35.6393998565
20
-21.8814718346
30
0.0000000000
10
-35.5495445524
20
-21.7653875667
30
0.0000000000
10
-35.4537703406
20
-21.6579341042
30
0.0000000000
10
-35.3524232551
20
-21.5590132122
30
0.0000000000
10
-35.2456679075
20
-21.4684868653
30
0.0000000000
10
-35.1339557227
20
-21.3865938192
30
0.0000000000
10
-35.0184453112
20
-21.3139673141
30
0.0000000000
10
-34.9007957437
20
-21.2512118803
30
0.0000000000
10
-34.7819077179
20
-21.1981521741
30
0.0000000000
10
-34.6613027208
20
-21.1542230408
30
0.0000000000
10
-34.5376424364
20
-21.1187681295
30
0.0000000000
10
-34.4096056046
20
-21.0921967666
30
0.0000000000
10
-34.2764645421
20
-21.0747079577
30
0.0000000000
10
-34.1857308519
20
-21.0706599619
30
0.0000000000
10
-34.1396047816
20
-21.0698155532
30
0.0000000000
11
-36.1047000469
21
-23.5694347911
31
0.0000000000
11
-36.1029477464
21
-23.4347914386
31
0.0000000000
11
-36.0975752823
21
-23.3034069681
31
0.0000000000
11
-36.0878565480
21
-23.1714286962
31
0.0000000000
11
-36.0727819296
21
-23.0354269754
31
0.0000000000
11
-36.0507871098
21
-22.8928334286
31
0.0000000000
11
-36.0198254604
21
-22.7419253790
31
0.0000000000
11
-35.9784714222
21
-22.5855999020
31
0.0000000000
11
-35.9267787708
21
-22.4299375101
31
0.0000000000
11
-35.8659475027
21
-22.2803231100
31
0.0000000000
11
-35.7970900015
21
-22.1389989046
31
0.0000000000
11
-35.7207315164
21
-22.0060710402
31
0.0000000000
11
-35.6373932109
21
-21.8816051727
31
0.0000000000
11
-35.5476278208
21
-21.7657045664
31
0.0000000000
11
-35.4520164910
21
-21.6584892929
31
0.0000000000
11
-35.3509298794
21
-21.5598697527
31
0.0000000000
11
-35.2444040754
21
-21.4695811376
31
0.0000000000
11
-35.1325245221
21
-21.3876017885
31
0.0000000000
11
-35.0166551085
21
-21.3147861257
31
0.0000000000
11
-34.8989112333
21
-21.2520043724
31
0.0000000000
11
-34.7807272850
21
-21.1993024886
31
0.0000000000
11
-34.6610084428
21
-21.1556965275
31
0.0000000000
11
-34.5379969485
21
-21.1205098775
31
0.0000000000
11
-34.4104950112
21
-21.0940003637
31
0.0000000000
11
-34.2778304022
21
-21.0767886641
31
0.0000000000
11
-34.1396047816
21
-21.0698155532
31
0.0000000000
0
SPLINE
5
3F8
100
AcDbEntity
8
0
100
AcDbSpline
62
9
6
CONTINUOUS
70
0
71
3
72
12
73
8
74
6
42
0.0000001000
43
0.0000001000
44
0.0000000001
12
-0.0000359059
22
1.1664852147
32
0.0000000000
13
-1.1664119529
23
0.0130733945
33
0.0000000000
40
0.0000000000
40
0.0000000000
40
0.0000000000
40
0.0000000000
40
0.1302792695
40
0.2931694205
40
0.4983707812
40
0.7390346241
40
1.0000000000
40
1.0000000000
40
1.0000000000
40
1.0000000000
10
-26.1221523753
20
0.5081964428
30
0.0000000000
10
-26.1221539345
20
0.5588527233
30
0.0000000000
10
-26.1654441438
20
0.6729157181
30
0.0000000000
10
-26.3166854419
20
0.8007415163
30
0.0000000000
10
-26.5332946672
20
0.9003522251
30
0.0000000000
10
-26.8018691626
20
0.9648812222
30
0.0000000000
10
-26.9970513110
20
0.9809733531
30
0.0000000000
10
-27.0985156889
20
0.9821105875
30
0.0000000000
11
-26.1221523753
21
0.5081964428
31
0.0000000000
11
-26.1696490845
21
0.6525522237
31
0.0000000000
11
-26.3076188726
21
0.7831957835
31
0.0000000000
11
-26.5229567439
21
0.8877180053
31
0.0000000000
11
-26.7952089315
21
0.9561908951
31
0.0000000000
11
-27.0985156889
21
0.9821105875
31
0.0000000000
0
SPLINE
5
3F9
100
AcDbEntity
8
0
100
AcDbSpline
62
9
6
CONTINUOUS
70
0
71
3
72
31
73
27
74
25
42
0.0000001000
43
0.0000001000
44
0.0000000001
12
0.0000000000
22
7.5842531623
32
0.0000000000
13
0.1221685071
23
7.5832691424
33
0.0000000000
40
0.0000000000
40
0.0000000000
40
0.0000000000
40
0.0000000000
40
0.0863347449
40
0.1665081040
40
0.2410543419
40
0.3103407998
40
0.3747169842
40
0.4345194080
40
0.4900549635
40
0.5416075316
40
0.5894447765
40
0.6338178190
40
0.6749713653
40
0.7131100164
40
0.7484129768
40
0.7810569462
40
0.8112282619
40
0.8391361487
40
0.8649993941
40
0.8890424212
40
0.9114784875
40
0.9323685272
40
0.9516618100
40
0.9692789735
40
0.9852970056
40
1.0000000000
40
1.0000000000
40
1.0000000000
40
1.0000000000
10
-36.1046999687
20
-31.1536877803
30
0.0000000000
10
-36.1046999687
20
-30.9354262596
30
0.0000000000
10
-36.1046999687
20
-30.5144797214
30
0.0000000000
10
-36.1046999687
20
-29.9050740032
30
0.0000000000
10
-36.1046999687
20
-29.3387677932
30
0.0000000000
10
-36.1046999687
20
-28.8123981739
30
0.0000000000
10
-36.1046999687
20
-28.3233021608
30
0.0000000000
10
-36.1046999687
20
-27.8689695893
30
0.0000000000
10
-36.1046999687
20
-27.4470562018
30
0.0000000000
10
-36.1046999687
20
-27.0553917965
30
0.0000000000
10
-36.1046999687
20
-26.6919471661
30
0.0000000000
10
-36.1046999686
20
-26.3547921405
30
0.0000000000
10
-36.1046999688
20
-26.0421559783
30
0.0000000000
10
-36.1046999687
20
-25.7524497487
30
0.0000000000
10
-36.1046999678
20
-25.4842564479
30
0.0000000000
10
-36.1046999747
20
-25.2362052433
30
0.0000000000
10
-36.1046999407
20
-25.0068494091
30
0.0000000000
10
-36.1047000834
20
-24.7946358164
30
0.0000000000
10
-36.1046995337
20
-24.5979150574
30
0.0000000000
10
-36.1047015411
20
-24.4150275119
30
0.0000000000
10
-36.1046944896
20
-24.2447126861
30
0.0000000000
10
-36.1047182604
20
-24.0864054938
30
0.0000000000
10
-36.1046411503
20
-23.9402812961
30
0.0000000000
10
-36.1048756887
20
-23.8064726293
30
0.0000000000
10
-36.1041333862
20
-23.6842728806
30
0.0000000000
10
-36.1052987945
20
-23.6066003789
30
0.0000000000
10
-36.1047000469
20
-23.5694347911
30
0.0000000000
11
-36.1046999687
21
-31.1536877803
31
0.0000000000
11
-36.1046999687
21
-30.4989032182
31
0.0000000000
11
-36.1046999687
21
-29.8908481658
31
0.0000000000
11
-36.1046999687
21
-29.3254706255
31
0.0000000000
11
-36.1046999687
21
-28.7999845883
31
0.0000000000
11
-36.1046999687
21
-28.3117393081
31
0.0000000000
11
-36.1046999687
21
-27.8581825861
31
0.0000000000
11
-36.1046999687
21
-27.4369868736
31
0.0000000000
11
-36.1046999687
21
-27.0459991457
31
0.0000000000
11
-36.1046999687
21
-26.6831893701
31
0.0000000000
11
-36.1046999687
21
-26.3466529825
31
0.0000000000
11
-36.1046999688
21
-26.0345340688
31
0.0000000000
11
-36.1046999685
21
-25.7452808835
31
0.0000000000
11
-36.1046999692
21
-25.4775342939
31
0.0000000000
11
-36.1046999673
21
-25.2299541662
31
0.0000000000
11
-36.1046999723
21
-25.0011272699
31
0.0000000000
11
-36.1046999599
21
-24.7894667907
31
0.0000000000
11
-36.1046999875
21
-24.5933133902
31
0.0000000000
11
-36.1046999388
21
-24.4109649857
31
0.0000000000
11
-36.1046999543
21
-24.2408041789
31
0.0000000000
11
-36.1047002559
21
-24.0823688292
31
0.0000000000
11
-36.1046970557
21
-23.9360436887
31
0.0000000000
11
-36.1047001866
21
-23.8024306602
31
0.0000000000
11
-36.1045582756
21
-23.6809459326
31
0.0000000000
11
-36.1047000469
21
-23.5694347911
31
0.0000000000
0
SPLINE
5
3FA
100
AcDbEntity
8
0
100
AcDbSpline
62
9
6
CONTINUOUS
70
0
71
3
72
13
73
9
74
7
42
0.0000001000
43
0.0000001000
44
0.0000000001
12
1.8386327865
22
-0.0814208743
32
0.0000000000
13
-0.0021581556
23
-1.8404334339
33
0.0000000000
40
0.0000000000
40
0.0000000000
40
0.0000000000
40
0.0000000000
40
0.0302384004
40
0.1204757041
40
0.2682392263
40
0.4686455924
40
0.7151728725
40
1.0000000000
40
1.0000000000
40
1.0000000000
40
1.0000000000
10
-38.6232516479
20
3.0236411405
30
0.0000000000
10
-38.6047192097
20
3.0228204615
30
0.0000000000
10
-38.6463393742
20
2.9059127310
30
0.0000000000
10
-38.6047587187
20
2.7825084261
30
0.0000000000
10
-38.6267951204
20
2.4906363011
30
0.0000000000
10
-38.6168753972
20
2.1355299888
30
0.0000000000
10
-38.6205553832
20
1.6829721476
30
0.0000000000
10
-38.6198919774
20
1.3579652874
30
0.0000000000
10
-38.6200968778
20
1.1832301646
30
0.0000000000
11
-38.6232516479
21
3.0236411405
31
0.0000000000
11
-38.6218134149
21
2.9680079267
31
0.0000000000
11
-38.6206992683
21
2.8019357990
31
0.0000000000
11
-38.6199508618
21
2.5299877154
31
0.0000000000
11
-38.6195955608
21
2.1611530563
31
0.0000000000
11
-38.6196447661
21
1.7074356985
31
0.0000000000
11
-38.6200968778
21
1.1832301646
31
0.0000000000
0
SPLINE
5
3FB
100
AcDbEntity
8
0
100
AcDbSpline
62
9
6
CONTINUOUS
70
0
71
3
72
10
73
6
74
4
42
0.0000001000
43
0.0000001000
44
0.0000000001
12
-0.0038148178
22
-1.6591918814
32
0.0000000000
13
-0.0082782462
23
-1.6591756154
33
0.0000000000
40
0.0000000000
40
0.0000000000
40
0.0000000000
40
0.0000000000
40
0.3179468671
40
0.6543196262
40
1.0000000000
40
1.0000000000
40
1.0000000000
40
1.0000000000
10
-27.0985152268
20
0.9820966083
30
0.0000000000
10
-27.0989195299
20
0.8062516547
30
0.0000000000
10
-27.0999488674
20
0.4443714881
30
0.0000000000
10
-27.1020215434
20
-0.1086901088
30
0.0000000000
10
-27.1037473351
20
-0.4859062169
30
0.0000000000
10
-27.1047012108
20
-0.6770876992
30
0.0000000000
11
-27.0985152268
21
0.9820966083
31
0.0000000000
11
-27.0999970572
21
0.4545624345
31
0.0000000000
11
-27.1020781658
21
-0.1035421115
31
0.0000000000
11
-27.1047012108
21
-0.6770876992
31
0.0000000000
0
SPLINE
5
3FC
100
AcDbEntity
8
0
100
AcDbSpline
62
9
6
CONTINUOUS
70
0
71
3
72
10
73
6
74
4
42
0.0000001000
43
0.0000001000
44
0.0000000001
12
7.2996291900
22
0.1285752776
32
0.0000000000
13
7.2993981758
23
0.1410821917
33
0.0000000000
40
0.0000000000
40
0.0000000000
40
0.0000000000
40
0.0000000000
40
0.3335608800
40
0.6668941806
40
1.0000000000
40
1.0000000000
40
1.0000000000
40
1.0000000000
10
-45.9222053321
20
-34.8244660231
30
0.0000000000
10
-45.1105817533
20
-34.8101701288
30
0.0000000000
10
-43.4878964535
20
-34.7811254493
30
0.0000000000
10
-41.0547241592
20
-34.7361854885
30
0.0000000000
10
-39.4331803161
20
-34.7053087439
30
0.0000000000
10
-38.6226896460
20
-34.6896436442
30
0.0000000000
11
-45.9222053321
21
-34.8244660231
31
0.0000000000
11
-43.4873469250
21
-34.7808840001
31
0.0000000000
11
-41.0541750010
21
-34.7359433581
31
0.0000000000
11
-38.6226896460
21
-34.6896436442
31
0.0000000000
0
SPLINE
5
3FD
100
AcDbEntity
8
0
100
AcDbSpline
62
9
6
CONTINUOUS
70
0
71
3
72
16
73
12
74
10
42
0.0000001000
43
0.0000001000
44
0.0000000001
12
0.2999942527
22
-0.0052364192
32
0.0000000000
13
-0.0052348247
23
-0.2999942805
33
0.0000000000
40
0.0000000000
40
0.0000000000
40
0.0000000000
40
0.0000000000
40
0.0444473412
40
0.1028434109
40
0.1852296730
40
0.2886476712
40
0.4093432698
40
0.5439883594
40
0.6894564685
40
0.8425503782
40
1.0000000000
40
1.0000000000
40
1.0000000000
40
1.0000000000
10
-25.4169166532
20
-12.0490474633
30
0.0000000000
10
-25.4124720042
20
-12.0491250449
30
0.0000000000
10
-25.4176403789
20
-12.0663387619
30
0.0000000000
10
-25.4141278748
20
-12.0810961935
30
0.0000000000
10
-25.4151654508
20
-12.1070985202
30
0.0000000000
10
-25.4145926670
20
-12.1371553692
30
0.0000000000
10
-25.4148562789
20
-12.1732390373
30
0.0000000000
10
-25.4150785540
20
-12.2132600143
30
0.0000000000
10
-25.4155399892
20
-12.2566037428
30
0.0000000000
10
-25.4161413557
20
-12.3022012608
30
0.0000000000
10
-25.4166419128
20
-12.3332571098
30
0.0000000000
10
-25.4169166532
20
-12.3490017718
30
0.0000000000
11
-25.4169166532
21
-12.0490474633
31
0.0000000000
11
-25.4156097527
21
-12.0623192499
31
0.0000000000
11
-25.4151450490
21
-12.0798342401
31
0.0000000000
11
-25.4148526092
21
-12.1045516802
31
0.0000000000
11
-25.4147492047
21
-12.1355810390
31
0.0000000000
11
-25.4148357471
21
-12.1717944370
31
0.0000000000
11
-25.4151055983
21
-12.2121924416
31
0.0000000000
11
-25.4155498401
21
-12.2558364250
31
0.0000000000
11
-25.4161577344
21
-12.3017666914
31
0.0000000000
11
-25.4169166532
21
-12.3490017718
31
0.0000000000
0
SPLINE
5
3FE
100
AcDbEntity
8
0
100
AcDbSpline
62
9
6
CONTINUOUS
70
0
71
3
72
14
73
10
74
8
42
0.0000001000
43
0.0000001000
44
0.0000000001
12
0.0174256477
22
-1.4998871579
32
0.0000000000
13
-1.4994552409
23
-0.0399890004
33
0.0000000000
40
0.0000000000
40
0.0000000000
40
0.0000000000
40
0.0000000000
40
0.2224183444
40
0.4337562060
40
0.6233575888
40
0.7816929615
40
0.9008333564
40
0.9748109640
40
1.0000000000
40
1.0000000000
40
1.0000000000
40
1.0000000000
10
-27.1046999687
20
-31.9446556406
30
0.0000000000
10
-27.1034080408
20
-32.0558564468
30
0.0000000000
10
-27.1010181976
20
-32.2728909782
30
0.0000000000
10
-27.0992176574
20
-32.5838522005
30
0.0000000000
10
-27.0961129607
20
-32.8656704875
30
0.0000000000
10
-27.1011612964
20
-33.0930282406
30
0.0000000000
10
-27.0895754816
20
-33.2837458930
30
0.0000000000
10
-27.1143734530
20
-33.3654049807
30
0.0000000000
10
-27.0921100247
20
-33.4440914194
30
0.0000000000
10
-27.1046999687
20
-33.4444271808
30
0.0000000000
11
-27.1046999687
21
-31.9446556406
31
0.0000000000
11
-27.1012560951
21
-32.2782627974
31
0.0000000000
11
-27.0988582387
21
-32.5952580650
31
0.0000000000
11
-27.0976296660
21
-32.8796552823
31
0.0000000000
11
-27.0976299430
21
-33.1171565016
31
0.0000000000
11
-27.0988588529
21
-33.2958614840
31
0.0000000000
11
-27.1012569514
21
-33.4068011198
31
0.0000000000
11
-27.1046999687
21
-33.4444271808
31
0.0000000000
0
SPLINE
5
3FF
100
AcDbEntity
8
0
100
AcDbSpline
62
9
6
CONTINUOUS
70
0
71
3
72
16
73
12
74
10
42
0.0000001000
43
0.0000001000
44
0.0000000001
12
-0.0038168529
22
1.6590095475
32
0.0000000000
13
-0.0082688930
23
1.6589933311
33
0.0000000000
40
0.0000000000
40
0.0000000000
40
0.0000000000
40
0.0000000000
40
0.1034653987
40
0.2096294397
40
0.3181881843
40
0.4287517293
40
0.5409921897
40
0.6545940176
40
0.7692032972
40
0.8844544608
40
1.0000000000
40
1.0000000000
40
1.0000000000
40
1.0000000000
10
-36.0985152111
20
-32.8126897134
30
0.0000000000
10
-36.0986468485
20
-32.7554730186
30
0.0000000000
10
-36.0989343044
20
-32.6395473182
30
0.0000000000
10
-36.0994292770
20
-32.4635884672
30
0.0000000000
10
-36.0999924804
20
-32.2837044938
30
0.0000000000
10
-36.1006221182
20
-32.1004604325
30
0.0000000000
10
-36.1013161732
20
-31.9144277358
30
0.0000000000
10
-36.1020725615
20
-31.7261579539
30
0.0000000000
10
-36.1028889218
20
-31.5362234742
30
0.0000000000
10
-36.1037626922
20
-31.3452143573
30
0.0000000000
10
-36.1043814908
20
-31.2175842066
30
0.0000000000
10
-36.1046999687
20
-31.1536877803
30
0.0000000000
11
-36.0985152111
21
-32.8126897134
31
0.0000000000
11
-36.0989400175
21
-32.6410397005
31
0.0000000000
11
-36.0994347801
21
-32.4649127717
31
0.0000000000
11
-36.0999980845
21
-32.2848131821
31
0.0000000000
11
-36.1006278750
21
-32.1013878011
31
0.0000000000
11
-36.1013222100
21
-31.9151806074
31
0.0000000000
11
-36.1020790961
21
-31.7267151114
31
0.0000000000
11
-36.1028961298
21
-31.5365784745
31
0.0000000000
11
-36.1037706638
21
-31.3453771877
31
0.0000000000
11
-36.1046999687
21
-31.1536877803
31
0.0000000000
0
SPLINE
5
400
100
AcDbEntity
8
0
100
AcDbSpline
62
9
6
CONTINUOUS
70
0
71
3
72
14
73
10
74
8
42
0.0000001000
43
0.0000001000
44
0.0000000001
12
1.5000403394
22
0.0302748590
32
0.0000000000
13
-0.0266360154
23
1.5001093659
33
0.0000000000
40
0.0000000000
40
0.0000000000
40
0.0000000000
40
0.0000000000
40
0.0253739316
40
0.0993888117
40
0.2185072385
40
0.3767868815
40
0.5663056070
40
0.7775710763
40
1.0000000000
40
1.0000000000
40
1.0000000000
40
1.0000000000
10
-34.1396037163
20
-33.5672931310
30
0.0000000000
10
-34.1269164093
20
-33.5670370670
30
0.0000000000
10
-34.1451267753
20
-33.4884196659
30
0.0000000000
10
-34.1222263973
20
-33.4064095075
30
0.0000000000
10
-34.1317403772
20
-33.2158223216
30
0.0000000000
10
-34.1274038924
20
-32.9884239367
30
0.0000000000
10
-34.1309498040
20
-32.7066704142
30
0.0000000000
10
-34.1340784441
20
-32.3957115036
30
0.0000000000
10
-34.1376299088
20
-32.1786729289
30
0.0000000000
10
-34.1396047823
20
-32.0674503584
30
0.0000000000
11
-34.1396037163
21
-33.5672931310
31
0.0000000000
11
-34.1343487824
21
-33.5295878844
31
0.0000000000
11
-34.1306941002
21
-33.4186001239
31
0.0000000000
11
-34.1288202432
21
-33.2398911138
31
0.0000000000
11
-34.1288198833
21
-33.0024169127
31
0.0000000000
11
-34.1306933620
21
-32.7180794566
31
0.0000000000
11
-34.1343485030
21
-32.4011292676
31
0.0000000000
11
-34.1396047823
21
-32.0674503584
31
0.0000000000
0
SPLINE
5
401
100
AcDbEntity
8
0
100
AcDbSpline
62
9
6
CONTINUOUS
70
0
71
3
72
13
73
9
74
7
42
0.0000001000
43
0.0000001000
44
0.0000000001
12
0.0664552569
22
1.8317458212
32
0.0000000000
13
-0.0021492905
23
1.8329496543
33
0.0000000000
40
0.0000000000
40
0.0000000000
40
0.0000000000
40
0.0000000000
40
0.0476406087
40
0.1479623678
40
0.2983522605
40
0.4943895370
40
0.7304702949
40
1.0000000000
40
1.0000000000
40
1.0000000000
40
1.0000000000
10
-38.6226896460
20
-34.6896436442
30
0.0000000000
10
-38.6216343230
20
-34.6605551489
30
0.0000000000
10
-38.6213875392
20
-34.5701319162
30
0.0000000000
10
-38.6201287658
20
-34.3878632817
30
0.0000000000
10
-38.6198140986
20
-34.1148984512
30
0.0000000000
10
-38.6194906957
20
-33.7589992334
30
0.0000000000
10
-38.6196296342
20
-33.3303026193
30
0.0000000000
10
-38.6199037994
20
-33.0213833474
30
0.0000000000
10
-38.6200968986
20
-32.8567052208
30
0.0000000000
11
-38.6226896460
21
-34.6896436442
31
0.0000000000
11
-38.6214362717
21
-34.6023297425
31
0.0000000000
11
-38.6204811014
21
-34.4184473631
31
0.0000000000
11
-38.6198559884
21
-34.1427907806
31
0.0000000000
11
-38.6195799144
21
-33.7834641813
31
0.0000000000
11
-38.6196609555
21
-33.3507397479
31
0.0000000000
11
-38.6200968986
21
-32.8567052208
31
0.0000000000
0
SPLINE
5
402
100
AcDbEntity
8
0
100
AcDbSpline
62
9
6
CONTINUOUS
70
0
71
3
72
13
73
9
74
7
42
0.0000001000
43
0.0000001000
44
0.0000000001
12
1.1678664190
22
0.0130900022
32
0.0000000000
13
0.0000001854
23
1.1679397762
33
0.0000000000
40
0.0000000000
40
0.0000000000
40
0.0000000000
40
0.0000000000
40
0.2181901771
40
0.4243259007
40
0.6088397773
40
0.7652507905
40
0.8926920396
40
1.0000000000
40
1.0000000000
40
1.0000000000
40
1.0000000000
10
-36.0985152116
20
-32.8126907988
30
0.0000000000
10
-36.0135762180
20
-32.8117387621
30
0.0000000000
10
-35.8483012563
20
-32.8000066679
30
0.0000000000
10
-35.6152308479
20
-32.7532780166
30
0.0000000000
10
-35.4139228926
20
-32.6806464778
30
0.0000000000
10
-35.2563743229
20
-32.5859821915
30
0.0000000000
10
-35.1501415095
20
-32.4725473254
30
0.0000000000
10
-35.1221523818
20
-32.3805434948
30
0.0000000000
10
-35.1221523751
20
-32.3387670830
30
0.0000000000
11
-36.0985152116
21
-32.8126907988
31
0.0000000000
11
-35.8443565487
21
-32.7941644629
31
0.0000000000
11
-35.6085668323
21
-32.7455254702
31
0.0000000000
11
-35.4067374032
21
-32.6699900228
31
0.0000000000
11
-35.2522140104
21
-32.5725528227
31
0.0000000000
11
-35.1552143384
21
-32.4596568005
31
0.0000000000
11
-35.1221523751
21
-32.3387670830
31
0.0000000000
0
SPLINE
5
403
100
AcDbEntity
8
0
100
AcDbSpline
62
9
6
CONTINUOUS
70
0
71
3
72
13
73
9
74
7
42
0.0000001000
43
0.0000001000
44
0.0000000001
12
0.9825630226
22
0.0064337468
32
0.0000000000
13
0.0098207129
23
-0.9825350070
33
0.0000000000
40
0.0000000000
40
0.0000000000
40
0.0000000000
40
0.0000000000
40
0.2597579645
40
0.5011132815
40
0.7079569795
40
0.8664615838
40
0.9660210080
40
1.0000000000
40
1.0000000000
40
1.0000000000
40
1.0000000000
10
-36.1046996945
20
-23.5694348175
30
0.0000000000
10
-36.0196235043
20
-23.5688777452
30
0.0000000000
10
-35.8559576656
20
-23.5683996071
30
0.0000000000
10
-35.6222231751
20
-23.5659833235
30
0.0000000000
10
-35.4288714816
20
-23.5706471572
30
0.0000000000
10
-35.2632858996
20
-23.5585659948
30
0.0000000000
10
-35.1923932230
20
-23.5817998208
30
0.0000000000
10
-35.1222634896
20
-23.5583062747
30
0.0000000000
10
-35.1221522569
20
-23.5694347911
30
0.0000000000
11
-36.1046996945
21
-23.5694348175
31
0.0000000000
11
-35.8494694039
21
-23.5680509627
31
0.0000000000
11
-35.6123186735
21
-23.5673082271
31
0.0000000000
11
-35.4090774807
21
-23.5670754151
31
0.0000000000
11
-35.2533335546
21
-23.5673092631
31
0.0000000000
11
-35.1555108779
21
-23.5680532506
31
0.0000000000
11
-35.1221522569
21
-23.5694347911
31
0.0000000000
0
SPLINE
5
404
100
AcDbEntity
8
0
100
AcDbSpline
62
9
6
CONTINUOUS
70
0
71
3
72
14
73
10
74
8
42
0.0000001000
43
0.0000001000
44
0.0000000001
12
0.0261463734
22
-1.5000245345
32
0.0000000000
13
-1.4957091656
23
-0.1166676004
33
0.0000000000
40
0.0000000000
40
0.0000000000
40
0.0000000000
40
0.0000000000
40
0.2223835030
40
0.4335470696
40
0.6229594304
40
0.7811777356
40
0.9003153069
40
0.9744421707
40
1.0000000000
40
1.0000000000
40
1.0000000000
40
1.0000000000
10
-34.1396047962
20
-21.0698155523
30
0.0000000000
10
-34.1376666222
20
-21.1810091225
30
0.0000000000
10
-34.1341789703
20
-21.3979512412
30
0.0000000000
10
-34.1311240963
20
-21.7088075357
30
0.0000000000
10
-34.1276073975
20
-21.9902762004
30
0.0000000000
10
-34.1319701984
20
-22.2179596865
30
0.0000000000
10
-34.1223614709
20
-22.4076744307
30
0.0000000000
10
-34.1453731255
20
-22.4914340985
30
0.0000000000
10
-34.1268624363
20
-22.5685923377
30
0.0000000000
10
-34.1396047962
20
-22.5695862613
30
0.0000000000
11
-34.1396047962
21
-21.0698155523
31
0.0000000000
11
-34.1344469639
21
-21.4034070628
31
0.0000000000
11
-34.1308627538
21
-21.7201854323
31
0.0000000000
11
-34.1290252200
21
-22.0043458383
31
0.0000000000
11
-34.1290244813
21
-22.2417132290
31
0.0000000000
11
-34.1308620035
21
-22.4204402096
31
0.0000000000
11
-34.1344483513
21
-22.5315913716
31
0.0000000000
11
-34.1396047962
21
-22.5695862613
31
0.0000000000
0
SPLINE
5
405
100
AcDbEntity
8
0
100
AcDbSpline
62
9
6
CONTINUOUS
70
0
71
3
72
14
73
10
74
8
42
0.0000001000
43
0.0000001000
44
0.0000000001
12
0.0174514871
22
-1.4998868486
32
0.0000000000
13
-1.4994978373
23
-0.0383581658
33
0.0000000000
40
0.0000000000
40
0.0000000000
40
0.0000000000
40
0.0000000000
40
0.2223807459
40
0.4337267452
40
0.6233306397
40
0.7816714641
40
0.9008191558
40
0.9748023616
40
1.0000000000
40
1.0000000000
40
1.0000000000
40
1.0000000000
10
-27.1046999687
20
-20.9470208496
30
0.0000000000
10
-27.1034063438
20
-21.0582028350
30
0.0000000000
10
-27.1010199555
20
-21.2752228226
30
0.0000000000
10
-27.0992181757
20
-21.5861698168
30
0.0000000000
10
-27.0961135074
20
-21.8679985034
30
0.0000000000
10
-27.1011612283
20
-22.0953571313
30
0.0000000000
10
-27.0895745009
20
-22.2861008206
30
0.0000000000
10
-27.1143745679
20
-22.3677383796
30
0.0000000000
10
-27.0921053673
20
-22.4464701972
30
0.0000000000
10
-27.1046999687
20
-22.4467923756
30
0.0000000000
11
-27.1046999687
21
-20.9470208496
31
0.0000000000
11
-27.1012570014
21
-21.2805716135
31
0.0000000000
11
-27.0988589388
21
-21.5975790844
31
0.0000000000
11
-27.0976300475
21
-21.8819800662
31
0.0000000000
11
-27.0976297705
21
-22.1194894615
31
0.0000000000
11
-27.0988583246
21
-22.2982053908
31
0.0000000000
11
-27.1012561451
21
-22.4091534313
31
0.0000000000
11
-27.1046999687
21
-22.4467923756
31
0.0000000000
0
SPLINE
5
406
100
AcDbEntity
8
0
100
AcDbSpline
62
9
6
CONTINUOUS
70
0
71
3
72
31
73
27
74
25
42
0.0000001000
43
0.0000001000
44
0.0000000001
12
-1.1468517608
22
-0.0527904419
32
0.0000000000
13
-0.0003895434
23
-1.1480669141
33
0.0000000000
40
0.0000000000
40
0.0000000000
40
0.0000000000
40
0.0000000000
40
0.0489937307
40
0.0954888909
40
0.1405755881
40
0.1852701841
40
0.2302779890
40
0.2761704310
40
0.3233437913
40
0.3716544181
40
0.4207347823
40
0.4701567619
40
0.5196006545
40
0.5690718494
40
0.6186017981
40
0.6681214064
40
0.7172960974
40
0.7655390447
40
0.8120550511
40
0.8554820152
40
0.8943101438
40
0.9273043495
40
0.9539277446
40
0.9742854300
40
0.9885509296
40
1.0000000000
40
1.0000000000
40
1.0000000000
40
1.0000000000
10
-34.1396037356
20
-32.0674502980
30
0.0000000000
10
-34.1583332510
20
-32.0683124315
30
0.0000000000
10
-34.1948589975
20
-32.0699267310
30
0.0000000000
10
-34.2483139295
20
-32.0763708403
30
0.0000000000
10
-34.2996901072
20
-32.0854592808
30
0.0000000000
10
-34.3499373172
20
-32.0972225339
30
0.0000000000
10
-34.3998656771
20
-32.1114237739
30
0.0000000000
10
-34.4499755064
20
-32.1282436890
30
0.0000000000
10
-34.5004882205
20
-32.1476696273
30
0.0000000000
10
-34.5512587624
20
-32.1696863165
30
0.0000000000
10
-34.6018845737
20
-32.1940835301
30
0.0000000000
10
-34.6519301097
20
-32.2205869211
30
0.0000000000
10
-34.7011205097
20
-32.2489435712
30
0.0000000000
10
-34.7493474440
20
-32.2789859119
30
0.0000000000
10
-34.7965858158
20
-32.3106106717
30
0.0000000000
10
-34.8427009601
20
-32.3436567832
30
0.0000000000
10
-34.8873763988
20
-32.3778184746
30
0.0000000000
10
-34.9301153255
20
-32.4125797212
30
0.0000000000
10
-34.9701566588
20
-32.4471303217
30
0.0000000000
10
-35.0065726230
20
-32.4803513997
30
0.0000000000
10
-35.0383334745
20
-32.5109276969
30
0.0000000000
10
-35.0649725823
20
-32.5376615851
30
0.0000000000
10
-35.0856627674
20
-32.5599982066
30
0.0000000000
10
-35.1022534350
20
-32.5771246919
30
0.0000000000
10
-35.1116232893
20
-32.5911758672
30
0.0000000000
10
-35.1221508885
20
-32.5972938801
30
0.0000000000
10
-35.1221523751
20
-32.6016753131
30
0.0000000000
11
-34.1396037356
21
-32.0674502980
31
0.0000000000
11
-34.1957580356
21
-32.0706963411
31
0.0000000000
11
-34.2487726051
21
-32.0769275795
31
0.0000000000
11
-34.2997424774
21
-32.0859514066
31
0.0000000000
11
-34.3497188612
21
-32.0975840511
31
0.0000000000
11
-34.3994219150
21
-32.1117118735
31
0.0000000000
11
-34.4493832522
21
-32.1284403966
31
0.0000000000
11
-34.4999398236
21
-32.1478604069
31
0.0000000000
11
-34.5508359039
21
-32.1699017632
31
0.0000000000
11
-34.6016062602
21
-32.1943437762
31
0.0000000000
11
-34.6517582556
21
-32.2208799947
31
0.0000000000
11
-34.7009450841
21
-32.2492155720
31
0.0000000000
11
-34.7491597178
21
-32.2792348606
31
0.0000000000
11
-34.7964171767
21
-32.3108609241
31
0.0000000000
11
-34.8426325301
21
-32.3439708391
31
0.0000000000
11
-34.8874832167
21
-32.3782589250
31
0.0000000000
11
-34.9304519939
21
-32.4132060773
31
0.0000000000
11
-34.9708841222
21
-32.4480940627
31
0.0000000000
11
-35.0077077984
21
-32.4817056663
31
0.0000000000
11
-35.0398365272
21
-32.5126067466
31
0.0000000000
11
-35.0664793987
21
-32.5395328703
31
0.0000000000
11
-35.0874674505
21
-32.5617532762
31
0.0000000000
11
-35.1030956174
21
-32.5791316915
31
0.0000000000
11
-35.1138265841
21
-32.5915041049
31
0.0000000000
11
-35.1221523751
21
-32.6016753131
31
0.0000000000
0
SPLINE
5
407
100
AcDbEntity
8
0
100
AcDbSpline
62
9
6
CONTINUOUS
70
0
71
3
72
22
73
18
74
16
42
0.0000001000
43
0.0000001000
44
0.0000000001
12
0.7890162774
22
0.0135827805
32
0.0000000000
13
-0.0042357208
23
0.7891218135
33
0.0000000000
40
0.0000000000
40
0.0000000000
40
0.0000000000
40
0.0000000000
40
0.0051510667
40
0.0199048989
40
0.0443138691
40
0.0782582847
40
0.1215691566
40
0.1740346292
40
0.2354021006
40
0.3053576404
40
0.3835178305
40
0.4694630234
40
0.5627596514
40
0.6629812393
40
0.7696815242
40
0.8822759614
40
1.0000000000
40
1.0000000000
40
1.0000000000
40
1.0000000000
10
-36.1046999687
20
-33.6015227652
30
0.0000000000
10
-36.1033452102
20
-33.6014994433
30
0.0000000000
10
-36.1038196358
20
-33.5935374743
30
0.0000000000
10
-36.1016594550
20
-33.5845321259
30
0.0000000000
10
-36.1014290768
20
-33.5638489635
30
0.0000000000
10
-36.1002711254
20
-33.5377654754
30
0.0000000000
10
-36.0996286852
20
-33.5034021228
30
0.0000000000
10
-36.0989332421
20
-33.4621602954
30
0.0000000000
10
-36.0984072470
20
-33.4137884830
30
0.0000000000
10
-36.0979806935
20
-33.3586964723
30
0.0000000000
10
-36.0976819369
20
-33.2971256103
30
0.0000000000
10
-36.0975051883
20
-33.2294185992
30
0.0000000000
10
-36.0974542534
20
-33.1559070038
30
0.0000000000
10
-36.0975290010
20
-33.0769363021
30
0.0000000000
10
-36.0977297418
20
-32.9928895160
30
0.0000000000
10
-36.0980555642
20
-32.9042392055
30
0.0000000000
10
-36.0983490001
20
-32.8436559157
30
0.0000000000
10
-36.0985152155
20
-32.8126897135
30
0.0000000000
11
-36.1046999687
21
-33.6015227652
31
0.0000000000
11
-36.1034940050
21
-33.5976408994
31
0.0000000000
11
-36.1023835497
21
-33.5860512381
31
0.0000000000
11
-36.1013750065
21
-33.5668157313
31
0.0000000000
11
-36.1004738205
21
-33.5400442303
31
0.0000000000
11
-36.0996843441
21
-33.5058753034
31
0.0000000000
11
-36.0990104470
21
-33.4644785429
31
0.0000000000
11
-36.0984555056
21
-33.4160546147
31
0.0000000000
11
-36.0980225044
21
-33.3608520752
31
0.0000000000
11
-36.0977138276
21
-33.2991740481
31
0.0000000000
11
-36.0975310228
21
-33.2313520909
31
0.0000000000
11
-36.0974749122
21
-33.1577286475
31
0.0000000000
11
-36.0975457993
21
-33.0786404987
31
0.0000000000
11
-36.0977436130
21
-32.9944399958
31
0.0000000000
11
-36.0980675180
21
-32.9055885798
31
0.0000000000
11
-36.0985152155
21
-32.8126897135
31
0.0000000000
0
SPLINE
5
408
100
AcDbEntity
8
0
100
AcDbSpline
62
9
6
CONTINUOUS
70
0
71
3
72
12
73
8
74
6
42
0.0000001000
43
0.0000001000
44
0.0000000001
12
0.7887719846
22
-0.0208946064
32
0.0000000000
13
-0.0042338776
23
-0.7890373264
33
0.0000000000
40
0.0000000000
40
0.0000000000
40
0.0000000000
40
0.0000000000
40
0.0441454876
40
0.1739850115
40
0.3836549023
40
0.6634811843
40
1.0000000000
40
1.0000000000
40
1.0000000000
40
1.0000000000
10
-27.1046999687
20
1.7709521250
30
0.0000000000
10
-27.0930930608
20
1.7706446574
30
0.0000000000
10
-27.1132923614
20
1.6980580632
30
0.0000000000
10
-27.0904624140
20
1.6225456281
30
0.0000000000
10
-27.1009594386
20
1.4457352853
30
0.0000000000
10
-27.0960399083
20
1.2343612903
30
0.0000000000
10
-27.0980404324
20
1.0706052461
30
0.0000000000
10
-27.0985153589
20
0.9820966105
30
0.0000000000
11
-27.1046999687
21
1.7709521250
31
0.0000000000
11
-27.1013764977
21
1.7362780976
31
0.0000000000
11
-27.0990092169
21
1.6338557456
31
0.0000000000
11
-27.0977133169
21
1.4684210694
31
0.0000000000
11
-27.0975465499
21
1.2476245724
31
0.0000000000
11
-27.0985153589
21
0.9820966105
31
0.0000000000
0
SPLINE
5
409
100
AcDbEntity
8
0
100
AcDbSpline
62
9
6
CONTINUOUS
70
0
71
3
72
18
73
14
74
12
42
0.0000001000
43
0.0000001000
44
0.0000000001
12
-7.0349039302
22
-0.1227953278
32
0.0000000000
13
-7.0274560629
23
-0.3461405545
33
0.0000000000
40
0.0000000000
40
0.0000000000
40
0.0000000000
40
0.0000000000
40
0.1226046006
40
0.2377554923
40
0.3458793656
40
0.4473792623
40
0.5426265009
40
0.6319617264
40
0.7156970723
40
0.7941164967
40
0.8674776512
40
0.9360217521
40
1.0000000000
40
1.0000000000
40
1.0000000000
40
1.0000000000
10
-27.1046999687
20
-31.9446556406
30
0.0000000000
10
-27.3922038309
20
-31.9496740646
30
0.0000000000
10
-27.9497328363
20
-31.9594064439
30
0.0000000000
10
-28.7608089201
20
-31.9735609975
30
0.0000000000
10
-29.5223949672
20
-31.9868628394
30
0.0000000000
10
-30.2373080835
20
-31.9993190471
30
0.0000000000
10
-30.9081611897
20
-32.0110849590
30
0.0000000000
10
-31.5373596262
20
-32.0219452212
30
0.0000000000
10
-32.1270931102
20
-32.0324546777
30
0.0000000000
10
-32.6793698070
20
-32.0418833510
30
0.0000000000
10
-33.1960458717
20
-32.0504778082
30
0.0000000000
10
-33.6787314017
20
-32.0621097363
30
0.0000000000
10
-33.9897356269
20
-32.0600685194
30
0.0000000000
10
-34.1396037356
20
-32.0674503415
30
0.0000000000
11
-27.1046999687
21
-31.9446556406
31
0.0000000000
11
-27.9672115561
21
-31.9597108603
31
0.0000000000
11
-28.7772870214
21
-31.9738505717
31
0.0000000000
11
-29.5379280670
21
-31.9871285706
31
0.0000000000
11
-30.2519701526
21
-31.9995886729
31
0.0000000000
11
-30.9220251256
21
-32.0112960447
31
0.0000000000
11
-31.5504904393
21
-32.0222324429
31
0.0000000000
11
-32.1395590421
21
-32.0326009523
31
0.0000000000
11
-32.6912353780
21
-32.0420442855
31
0.0000000000
11
-33.2073191550
21
-32.0513290134
31
0.0000000000
11
-33.6895190453
21
-32.0598186215
31
0.0000000000
11
-34.1396037356
21
-32.0674503415
31
0.0000000000
0
SPLINE
5
40A
100
AcDbEntity
8
0
100
AcDbSpline
62
9
6
CONTINUOUS
70
0
71
3
72
11
73
7
74
5
42
0.0000001000
43
0.0000001000
44
0.0000000001
12
-0.0896581151
22
-0.0896581151
32
0.0000000000
13
0.0903283217
23
-0.0900677911
33
0.0000000000
40
0.0000000000
40
0.0000000000
40
0.0000000000
40
0.0000000000
40
0.1065991638
40
0.4098788430
40
0.8645072133
40
1.0000000000
40
1.0000000000
40
1.0000000000
40
1.0000000000
10
-46.5694315958
20
3.2159832514
30
0.0000000000
10
-46.5726174225
20
3.2127974247
30
0.0000000000
10
-46.5467168193
20
3.1992399845
30
0.0000000000
10
-46.5340031890
20
3.1738328758
30
0.0000000000
10
-46.5030561988
20
3.1466409792
30
0.0000000000
10
-46.4849574386
20
3.1288899072
30
0.0000000000
10
-46.4808778266
20
3.1248220619
30
0.0000000000
11
-46.5694315958
21
3.2159832514
31
0.0000000000
11
-46.5604894103
21
3.2058477608
31
0.0000000000
11
-46.5338098784
21
3.1781537863
31
0.0000000000
11
-46.4933919519
21
3.1370523329
31
0.0000000000
11
-46.4808778266
21
3.1248220619
31
0.0000000000
0
SPLINE
5
40B
100
AcDbEntity
8
0
100
AcDbSpline
62
9
6
CONTINUOUS
70
0
71
3
72
17
73
13
74
11
42
0.0000001000
43
0.0000001000
44
0.0000000001
12
0.0052352936
22
-0.3000211505
32
0.0000000000
13
-0.3000211227
23
-0.0052368875
33
0.0000000000
40
0.0000000000
40
0.0000000000
40
0.0000000000
40
0.0000000000
40
0.1376843816
40
0.2827768624
40
0.4285589351
40
0.5679213115
40
0.6940899580
40
0.8014411557
40
0.8869232537
40
0.9491139762
40
0.9869967391
40
1.0000000000
40
1.0000000000
40
1.0000000000
40
1.0000000000
10
-25.4169166532
20
-17.7244732841
30
0.0000000000
10
-25.4166763805
20
-17.7382426929
30
0.0000000000
10
-25.4162168155
20
-17.7665225272
30
0.0000000000
10
-25.4156272177
20
-17.8093860722
30
0.0000000000
10
-25.4151642774
20
-17.8524091966
30
0.0000000000
10
-25.4148371716
20
-17.8935751542
30
0.0000000000
10
-25.4147618546
20
-17.9307866385
30
0.0000000000
10
-25.4146608816
20
-17.9629429059
30
0.0000000000
10
-25.4153169324
20
-17.9877894515
30
0.0000000000
10
-25.4147296199
20
-18.0078776706
30
0.0000000000
10
-25.4169637504
20
-18.0164371496
30
0.0000000000
10
-25.4156162356
20
-18.0244048938
30
0.0000000000
10
-25.4169166532
20
-18.0244275926
30
0.0000000000
11
-25.4169166532
21
-17.7244732841
31
0.0000000000
11
-25.4162455757
21
-17.7657823487
31
0.0000000000
11
-25.4156498611
21
-17.8093157129
31
0.0000000000
11
-25.4151782939
21
-17.8530575347
31
0.0000000000
11
-25.4148700740
21
-17.8948744245
31
0.0000000000
11
-25.4147502457
21
-17.9327332599
31
0.0000000000
11
-25.4148266165
21
-17.9649457024
31
0.0000000000
11
-25.4150929370
21
-17.9905946615
31
0.0000000000
11
-25.4155386125
21
-18.0092507115
31
0.0000000000
11
-25.4161512727
21
-18.0206015497
31
0.0000000000
11
-25.4169166532
21
-18.0244275926
31
0.0000000000
0
SPLINE
5
40C
100
AcDbEntity
8
0
100
AcDbSpline
62
7
6
CONTINUOUS
70
0
71
3
72
12
73
8
74
6
42
0.0000001000
43
0.0000001000
44
0.0000000001
12
0.0000000000
22
0.3517003785
32
0.0000000000
13
0.3516468128
23
-0.0061380180
33
0.0000000000
40
0.0000000000
40
0.0000000000
40
0.0000000000
40
0.0000000000
40
0.2507744148
40
0.4975310120
40
0.7176526686
40
0.8908078573
40
1.0000000000
40
1.0000000000
40
1.0000000000
40
1.0000000000
10
-26.3176418368
20
-12.3332795552
30
0.0000000000
10
-26.3176418368
20
-12.3038804030
30
0.0000000000
10
-26.3110868083
20
-12.2453413565
30
0.0000000000
10
-26.2842965155
20
-12.1651283972
30
0.0000000000
10
-26.2466967904
20
-12.0991849099
30
0.0000000000
10
-26.2091706213
20
-12.0547580645
30
0.0000000000
10
-26.1783284569
20
-12.0357569708
30
0.0000000000
10
-26.1655294339
20
-12.0359803786
30
0.0000000000
11
-26.3176418368
21
-12.3332795552
31
0.0000000000
11
-26.3079806450
21
-12.2456128413
31
0.0000000000
11
-26.2805092055
21
-12.1632912153
31
0.0000000000
11
-26.2419741555
21
-12.0961464338
31
0.0000000000
11
-26.2007246017
21
-12.0513454126
31
0.0000000000
11
-26.1655294339
21
-12.0359803786
31
0.0000000000
0
SPLINE
5
40D
100
AcDbEntity
8
0
100
AcDbSpline
62
9
6
CONTINUOUS
70
0
71
3
72
11
73
7
74
5
42
0.0000001000
43
0.0000001000
44
0.0000000001
12
-0.0903932753
22
-0.0900755612
32
0.0000000000
13
0.0896621040
23
-0.0896621040
33
0.0000000000
40
0.0000000000
40
0.0000000000
40
0.0000000000
40
0.0000000000
40
0.1320796463
40
0.5884350261
40
0.8930998248
40
1.0000000000
40
1.0000000000
40
1.0000000000
40
1.0000000000
10
-46.4808811811
20
-34.7982936231
30
0.0000000000
10
-46.4848608851
20
-34.8022593392
30
0.0000000000
10
-46.5029167749
20
-34.8199606038
30
0.0000000000
10
-46.5338631157
20
-34.8471436796
30
0.0000000000
10
-46.5466194240
20
-34.8726516143
30
0.0000000000
10
-46.5726265606
20
-34.8862633425
30
0.0000000000
10
-46.5694315958
20
-34.8894583073
30
0.0000000000
11
-46.4808811811
21
-34.7982936231
31
0.0000000000
11
-46.4930840804
21
-34.8102162817
31
0.0000000000
11
-46.5336589640
21
-34.8514741153
31
0.0000000000
11
-46.5604628172
21
-34.8792945767
31
0.0000000000
11
-46.5694315958
21
-34.8894583073
31
0.0000000000
0
SPLINE
5
40E
100
AcDbEntity
8
0
100
AcDbSpline
62
7
6
CONTINUOUS
70
0
71
3
72
14
73
10
74
8
42
0.0000001000
43
0.0000001000
44
0.0000000001
12
0.0000000000
22
-3.5987808195
32
0.0000000000
13
0.0000000000
23
-3.5987808195
33
0.0000000000
40
0.0000000000
40
0.0000000000
40
0.0000000000
40
0.0000000000
40
0.1196023007
40
0.2675291379
40
0.4245310805
40
0.5754218530
40
0.7324679325
40
0.8804001205
40
1.0000000000
40
1.0000000000
40
1.0000000000
40
1.0000000000
10
-26.1221523751
20
-3.2994368306
30
0.0000000000
10
-26.1221523751
20
-3.4429109859
30
0.0000000000
10
-26.1577342425
20
-3.7632114661
30
0.0000000000
10
-26.2478020068
20
-4.2639200296
30
0.0000000000
10
-26.3203558696
20
-4.8068545831
30
0.0000000000
10
-26.3203689433
20
-5.3665039715
30
0.0000000000
10
-26.2478125170
20
-5.9094991107
30
0.0000000000
10
-26.1577339760
20
-6.4102629228
30
0.0000000000
10
-26.1221523751
20
-6.7305669745
30
0.0000000000
10
-26.1221523751
20
-6.8740382253
30
0.0000000000
11
-26.1221523751
21
-3.2994368306
31
0.0000000000
11
-26.1581994980
21
-3.7283471988
31
0.0000000000
11
-26.2420742657
21
-4.2540545468
31
0.0000000000
11
-26.3085876579
21
-4.8151415040
31
0.0000000000
11
-26.3085987772
21
-5.3581643221
31
0.0000000000
11
-26.2420759021
21
-5.9194101065
31
0.0000000000
11
-26.1581982804
21
-6.4451364989
31
0.0000000000
11
-26.1221523751
21
-6.8740382253
31
0.0000000000
0
SPLINE
5
40F
100
AcDbEntity
8
0
100
AcDbSpline
62
7
6
CONTINUOUS
70
0
71
3
72
12
73
8
74
6
42
0.0000001000
43
0.0000001000
44
0.0000000001
12
0.4194384301
22
-0.8282496024
32
0.0000000000
13
0.9282582989
23
0.0162028089
33
0.0000000000
40
0.0000000000
40
0.0000000000
40
0.0000000000
40
0.0000000000
40
0.3541673499
40
0.6413698351
40
0.8447657035
40
0.9614255298
40
1.0000000000
40
1.0000000000
40
1.0000000000
40
1.0000000000
10
-38.6200968986
20
-32.8567052208
30
0.0000000000
10
-38.5705797662
20
-32.9544848764
30
0.0000000000
10
-38.4773996317
20
-33.1309985735
30
0.0000000000
10
-38.3408146340
20
-33.3501883615
30
0.0000000000
10
-38.2371730466
20
-33.5154599394
30
0.0000000000
10
-38.1622616519
20
-33.5844183030
30
0.0000000000
10
-38.1342662739
20
-33.6369489768
30
0.0000000000
10
-38.1223305832
20
-33.6367406386
30
0.0000000000
11
-38.6200968986
21
-32.8567052208
31
0.0000000000
11
-38.4644632087
21
-33.1463488322
31
0.0000000000
11
-38.3257533702
21
-33.3740674688
31
0.0000000000
11
-38.2174306405
21
-33.5287411925
31
0.0000000000
11
-38.1484530868
21
-33.6122426414
31
0.0000000000
11
-38.1223305832
21
-33.6367406386
31
0.0000000000
0
SPLINE
5
410
100
AcDbEntity
8
0
100
AcDbSpline
62
7
6
CONTINUOUS
70
0
71
3
72
13
73
9
74
7
42
0.0000001000
43
0.0000001000
44
0.0000000001
12
0.0000000000
22
-2.9623436548
32
0.0000000000
13
0.0000000000
23
-2.9623436548
33
0.0000000000
40
0.0000000000
40
0.0000000000
40
0.0000000000
40
0.0000000000
40
0.1518132342
40
0.3245301216
40
0.5000400305
40
0.6755088303
40
0.8481871088
40
1.0000000000
40
1.0000000000
40
1.0000000000
40
1.0000000000
10
-26.1221523751
20
-25.1079576636
30
0.0000000000
10
-26.1221523751
20
-25.2578653206
30
0.0000000000
10
-26.1438630649
20
-25.5780070859
30
0.0000000000
10
-26.1882771824
20
-26.0696132112
30
0.0000000000
10
-26.2086782189
20
-26.5868157043
30
0.0000000000
10
-26.1882663138
20
-27.1039792238
30
0.0000000000
10
-26.1438603731
20
-27.5955067064
30
0.0000000000
10
-26.1221523751
20
-27.9156100740
30
0.0000000000
10
-26.1221523751
20
-28.0655173923
30
0.0000000000
11
-26.1221523751
21
-25.1079576636
31
0.0000000000
11
-26.1440214962
21
-25.5571485943
31
0.0000000000
11
-26.1837573599
21
-26.0672500392
31
0.0000000000
11
-26.2018397983
21
-26.5868561622
31
0.0000000000
11
-26.1837498573
21
-27.1063401714
31
0.0000000000
11
-26.1440214171
21
-27.6163274751
31
0.0000000000
11
-26.1221523751
21
-28.0655173923
31
0.0000000000
0
SPLINE
5
411
100
AcDbEntity
8
0
100
AcDbSpline
62
7
6
CONTINUOUS
70
0
71
3
72
12
73
8
74
6
42
0.0000001000
43
0.0000001000
44
0.0000000001
12
-0.3516468128
22
-0.0061380180
32
0.0000000000
13
0.0000000000
23
0.3517003785
33
0.0000000000
40
0.0000000000
40
0.0000000000
40
0.0000000000
40
0.0000000000
40
0.1091921427
40
0.2823473314
40
0.5024689880
40
0.7492255852
40
1.0000000000
40
1.0000000000
40
1.0000000000
40
1.0000000000
10
-26.1655294339
20
-18.0374946773
30
0.0000000000
10
-26.1783284569
20
-18.0377180851
30
0.0000000000
10
-26.2091706213
20
-18.0187169914
30
0.0000000000
10
-26.2466967904
20
-17.9742901460
30
0.0000000000
10
-26.2842965155
20
-17.9083466587
30
0.0000000000
10
-26.3110868083
20
-17.8281336994
30
0.0000000000
10
-26.3176418368
20
-17.7695946528
30
0.0000000000
10
-26.3176418368
20
-17.7401955006
30
0.0000000000
11
-26.1655294339
21
-18.0374946773
31
0.0000000000
11
-26.2007246017
21
-18.0221296433
31
0.0000000000
11
-26.2419741555
21
-17.9773286221
31
0.0000000000
11
-26.2805092055
21
-17.9101838406
31
0.0000000000
11
-26.3079806450
21
-17.8278622145
31
0.0000000000
11
-26.3176418368
21
-17.7401955006
31
0.0000000000
0
SPLINE
5
412
100
AcDbEntity
8
0
100
AcDbSpline
62
7
6
CONTINUOUS
70
0
71
3
72
13
73
9
74
7
42
0.0000001000
43
0.0000001000
44
0.0000000001
12
-0.9283261819
22
0.0162039938
32
0.0000000000
13
-0.4194764643
23
-0.8283064441
33
0.0000000000
40
0.0000000000
40
0.0000000000
40
0.0000000000
40
0.0000000000
40
0.0269398017
40
0.1067654647
40
0.2456321238
40
0.4453211022
40
0.7003863405
40
1.0000000000
40
1.0000000000
40
1.0000000000
40
1.0000000000
10
-38.1223306115
20
1.9632655832
30
0.0000000000
10
-38.1306669193
20
1.9634110940
30
0.0000000000
10
-38.1508086626
20
1.9282536089
30
0.0000000000
10
-38.2032769590
20
1.8817712146
30
0.0000000000
10
-38.2783011470
20
1.7706797050
30
0.0000000000
10
-38.3798273972
20
1.6200050455
30
0.0000000000
10
-38.4976787625
20
1.4173439826
30
0.0000000000
10
-38.5782032516
20
1.2659541396
30
0.0000000000
10
-38.6200968778
20
1.1832301646
30
0.0000000000
11
-38.1223306115
21
1.9632655832
31
0.0000000000
11
-38.1410011361
21
1.9466208148
31
0.0000000000
11
-38.1896665166
21
1.8907209563
31
0.0000000000
11
-38.2669222098
21
1.7874963178
31
0.0000000000
11
-38.3690584045
21
1.6327606813
31
0.0000000000
11
-38.4894228632
21
1.4288096618
31
0.0000000000
11
-38.6200968778
21
1.1832301646
31
0.0000000000
0
SPLINE
5
413
100
AcDbEntity
8
0
100
AcDbSpline
62
7
6
CONTINUOUS
70
0
71
3
72
10
73
6
74
4
42
0.0000001000
43
0.0000001000
44
0.0000000001
12
3.9999639244
22
0.0374577365
32
0.0000000000
13
4.0000360299
23
0.0287443498
33
0.0000000000
40
0.0000000000
40
0.0000000000
40
0.0000000000
40
0.0000000000
40
0.3364612699
40
0.6698019779
40
1.0000000000
40
1.0000000000
40
1.0000000000
40
1.0000000000
10
-48.3221523751
20
-38.4999041499
30
0.0000000000
10
-47.8735413947
20
-38.4957031240
30
0.0000000000
10
-46.9804774231
20
-38.4876271703
30
0.0000000000
10
-45.6471440439
20
-38.4764924855
30
0.0000000000
10
-44.7624203702
20
-38.4697679064
30
0.0000000000
10
-44.3221523751
20
-38.4666041306
30
0.0000000000
11
-48.3221523751
21
-38.4999041499
31
0.0000000000
11
-46.9763153455
21
-38.4877454677
31
0.0000000000
11
-45.6429524490
21
-38.4766249970
31
0.0000000000
11
-44.3221523751
21
-38.4666041306
31
0.0000000000
0
SPLINE
5
414
100
AcDbEntity
8
0
100
AcDbSpline
62
7
6
CONTINUOUS
70
0
71
3
72
10
73
6
74
4
42
0.0000001000
43
0.0000001000
44
0.0000000001
12
3.9999639244
22
-0.0374577365
32
0.0000000000
13
4.0000360299
23
-0.0287443498
33
0.0000000000
40
0.0000000000
40
0.0000000000
40
0.0000000000
40
0.0000000000
40
0.3364612699
40
0.6698019779
40
1.0000000000
40
1.0000000000
40
1.0000000000
40
1.0000000000
10
-48.3221523751
20
6.8264290940
30
0.0000000000
10
-47.8735413947
20
6.8222280682
30
0.0000000000
10
-46.9804774231
20
6.8141521145
30
0.0000000000
10
-45.6471440439
20
6.8030174296
30
0.0000000000
10
-44.7624203702
20
6.7962928505
30
0.0000000000
10
-44.3221523751
20
6.7931290747
30
0.0000000000
11
-48.3221523751
21
6.8264290940
31
0.0000000000
11
-46.9763153455
21
6.8142704119
31
0.0000000000
11
-45.6429524490
21
6.8031499412
31
0.0000000000
11
-44.3221523751
21
6.7931290747
31
0.0000000000
0
SPLINE
5
415
100
AcDbEntity
8
0
100
AcDbSpline
62
9
6
CONTINUOUS
70
0
71
3
72
9
73
5
74
3
42
0.0000001000
43
0.0000001000
44
0.0000000001
12
-1.6999914176
22
0.0809633026
32
0.0000000000
13
-1.7000085302
23
0.0806031866
33
0.0000000000
40
0.0000000000
40
0.0000000000
40
0.0000000000
40
0.0000000000
40
0.5000659660
40
1.0000000000
40
1.0000000000
40
1.0000000000
40
1.0000000000
10
-46.6221523751
20
2.3133148151
30
0.0000000000
10
-46.9055216586
20
2.3268104791
30
0.0000000000
10
-47.4721869037
20
2.3537680353
30
0.0000000000
10
-48.0388550011
20
2.3806655683
30
0.0000000000
10
-48.3221523752
20
2.3940976604
30
0.0000000000
11
-46.6221523751
21
2.3133148151
31
0.0000000000
11
-47.4722623783
21
2.3537565821
31
0.0000000000
11
-48.3221523752
21
2.3940976604
31
0.0000000000
0
SPLINE
5
416
100
AcDbEntity
8
0
100
AcDbSpline
62
7
6
CONTINUOUS
70
0
71
3
72
10
73
6
74
4
42
0.0000001000
43
0.0000001000
44
0.0000000001
12
4.0000789575
22
-0.0760029924
32
0.0000000000
13
3.9999099472
23
-0.0844306542
33
0.0000000000
40
0.0000000000
40
0.0000000000
40
0.0000000000
40
0.0000000000
40
0.3364546673
40
0.6697952345
40
1.0000000000
40
1.0000000000
40
1.0000000000
40
1.0000000000
10
-48.3221523751
20
7.3431710338
30
0.0000000000
10
-47.8735372968
20
7.3346471800
30
0.0000000000
10
-46.9804645771
20
7.3174019231
30
0.0000000000
10
-45.6471302318
20
7.2907641711
30
0.0000000000
10
-44.7624154838
20
7.2724460817
30
0.0000000000
10
-44.3221523751
20
7.2631529469
30
0.0000000000
11
-48.3221523751
21
7.3431710338
31
0.0000000000
11
-46.9763153455
21
7.3171712085
31
0.0000000000
11
-45.6429524490
21
7.2905184347
31
0.0000000000
11
-44.3221523751
21
7.2631529469
31
0.0000000000
0
SPLINE
5
417
100
AcDbEntity
8
0
100
AcDbSpline
62
9
6
CONTINUOUS
70
0
71
3
72
13
73
9
74
7
42
0.0000001000
43
0.0000001000
44
0.0000000001
12
-0.7353273404
22
0.0383581398
32
0.0000000000
13
-0.0308205180
23
0.7356818199
33
0.0000000000
40
0.0000000000
40
0.0000000000
40
0.0000000000
40
0.0000000000
40
0.1664433564
40
0.3332955287
40
0.5000679105
40
0.6668499789
40
0.8336838494
40
1.0000000000
40
1.0000000000
40
1.0000000000
40
1.0000000000
10
-56.4159656202
20
-37.3123298978
30
0.0000000000
10
-56.4567624037
20
-37.3102017453
30
0.0000000000
10
-56.5382787641
20
-37.2957760147
30
0.0000000000
10
-56.6513593489
20
-37.2450726760
30
0.0000000000
10
-56.7488178529
20
-37.1682775283
30
0.0000000000
10
-56.8245799262
20
-37.0700198273
30
0.0000000000
10
-56.8740800951
20
-36.9564436641
30
0.0000000000
10
-56.8876470272
20
-36.8748187008
30
0.0000000000
10
-56.8893556772
20
-36.8340334446
30
0.0000000000
11
-56.4159656202
21
-37.3123298978
31
0.0000000000
11
-56.5366455229
21
-37.2909635622
31
0.0000000000
11
-56.6487595366
21
-37.2407193349
31
0.0000000000
11
-56.7452011079
21
-37.1647020673
31
0.0000000000
11
-56.8202036740
21
-37.0674602630
31
0.0000000000
11
-56.8692613775
21
-36.9548367084
31
0.0000000000
11
-56.8893556772
21
-36.8340334446
31
0.0000000000
0
SPLINE
5
418
100
AcDbEntity
8
0
100
AcDbSpline
62
9
6
CONTINUOUS
70
0
71
3
72
10
73
6
74
4
42
0.0000001000
43
0.0000001000
44
0.0000000001
12
-1.7657700567
22
41.9684643682
32
0.0000000000
13
1.7657699116
23
41.9684643743
33
0.0000000000
40
0.0000000000
40
0.0000000000
40
0.0000000000
40
0.0000000000
40
0.3333328627
40
0.6666672760
40
1.0000000000
40
1.0000000000
40
1.0000000000
40
1.0000000000
10
-56.8893556772
20
-36.8340334446
30
0.0000000000
10
-57.0855520732
20
-32.1708773204
30
0.0000000000
10
-57.3472347825
20
-22.8384933528
30
0.0000000000
10
-57.3472347212
20
-8.8349778162
30
0.0000000000
10
-57.0855519754
20
0.4974042050
30
0.0000000000
10
-56.8893556772
20
5.1605583887
30
0.0000000000
11
-56.8893556772
21
-36.8340334446
31
0.0000000000
11
-57.2818137906
21
-22.8376896645
31
0.0000000000
11
-57.2818137134
21
-8.8357795626
31
0.0000000000
11
-56.8893556772
21
5.1605583887
31
0.0000000000
0
SPLINE
5
419
100
AcDbEntity
8
0
100
AcDbSpline
62
9
6
CONTINUOUS
70
0
71
3
72
13
73
9
74
7
42
0.0000001000
43
0.0000001000
44
0.0000000001
12
0.0308204848
22
0.7356818212
32
0.0000000000
13
0.7353273388
23
0.0383581706
33
0.0000000000
40
0.0000000000
40
0.0000000000
40
0.0000000000
40
0.0000000000
40
0.1663161506
40
0.3331500210
40
0.4999320895
40
0.6667044713
40
0.8335566435
40
1.0000000000
40
1.0000000000
40
1.0000000000
40
1.0000000000
10
-56.8893556772
20
5.1605583887
30
0.0000000000
10
-56.8876470290
20
5.2013436449
30
0.0000000000
10
-56.8740800938
20
5.2829686080
30
0.0000000000
10
-56.8245799268
20
5.3965447716
30
0.0000000000
10
-56.7488178528
20
5.4948024725
30
0.0000000000
10
-56.6513593487
20
5.5715976195
30
0.0000000000
10
-56.5382787643
20
5.6223009601
30
0.0000000000
10
-56.4567624036
20
5.6367266877
30
0.0000000000
10
-56.4159656202
20
5.6388548419
30
0.0000000000
11
-56.8893556772
21
5.1605583887
31
0.0000000000
11
-56.8692613773
21
5.2813616524
31
0.0000000000
11
-56.8202036742
21
5.3939852072
31
0.0000000000
11
-56.7452011079
21
5.4912270114
31
0.0000000000
11
-56.6487595365
21
5.5672442789
31
0.0000000000
11
-56.5366455230
21
5.6174885065
31
0.0000000000
11
-56.4159656202
21
5.6388548419
31
0.0000000000
0
SPLINE
5
41A
100
AcDbEntity
8
0
100
AcDbSpline
62
9
6
CONTINUOUS
70
0
71
3
72
9
73
5
74
3
42
0.0000001000
43
0.0000001000
44
0.0000000001
12
1.7000085302
22
0.0806031866
32
0.0000000000
13
1.6999914176
23
0.0809633026
33
0.0000000000
40
0.0000000000
40
0.0000000000
40
0.0000000000
40
0.0000000000
40
0.4999340339
40
1.0000000000
40
1.0000000000
40
1.0000000000
40
1.0000000000
10
-48.3221523752
20
-34.0675727163
30
0.0000000000
10
-48.0388550011
20
-34.0541406242
30
0.0000000000
10
-47.4721869038
20
-34.0272430912
30
0.0000000000
10
-46.9055216587
20
-34.0002855350
30
0.0000000000
10
-46.6221523751
20
-33.9867898710
30
0.0000000000
11
-48.3221523752
21
-34.0675727163
31
0.0000000000
11
-47.4722623783
21
-34.0272316380
31
0.0000000000
11
-46.6221523751
21
-33.9867898710
31
0.0000000000
0
SPLINE
5
41B
100
AcDbEntity
8
0
100
AcDbSpline
62
7
6
CONTINUOUS
70
0
71
3
72
10
73
6
74
4
42
0.0000001000
43
0.0000001000
44
0.0000000001
12
4.0000789575
22
0.0760029924
32
0.0000000000
13
3.9999099472
23
0.0844306542
33
0.0000000000
40
0.0000000000
40
0.0000000000
40
0.0000000000
40
0.0000000000
40
0.3364546673
40
0.6697952345
40
1.0000000000
40
1.0000000000
40
1.0000000000
40
1.0000000000
10
-48.3221523751
20
-39.0166460897
30
0.0000000000
10
-47.8735372968
20
-39.0081222359
30
0.0000000000
10
-46.9804645771
20
-38.9908769790
30
0.0000000000
10
-45.6471302318
20
-38.9642392270
30
0.0000000000
10
-44.7624154838
20
-38.9459211375
30
0.0000000000
10
-44.3221523751
20
-38.9366280027
30
0.0000000000
11
-48.3221523751
21
-39.0166460897
31
0.0000000000
11
-46.9763153455
21
-38.9906462643
31
0.0000000000
11
-45.6429524490
21
-38.9639934906
31
0.0000000000
11
-44.3221523751
21
-38.9366280027
31
0.0000000000
0
SPLINE
5
41C
100
AcDbEntity
8
0
100
AcDbSpline
62
9
6
CONTINUOUS
70
0
71
3
72
12
73
8
74
6
42
0.0000001000
43
0.0000001000
44
0.0000000001
12
-0.4990705852
22
-0.0261551811
32
0.0000000000
13
0.0261472363
23
-0.4990710015
33
0.0000000000
40
0.0000000000
40
0.0000000000
40
0.0000000000
40
0.0000000000
40
0.0492065483
40
0.1912403570
40
0.4123852873
40
0.6910492528
40
1.0000000000
40
1.0000000000
40
1.0000000000
40
1.0000000000
10
-56.4334073951
20
6.1381696093
30
0.0000000000
10
-56.4415932420
20
6.1377406072
30
0.0000000000
10
-56.4255659234
20
6.0874853210
30
0.0000000000
10
-56.4388933488
20
6.0357809536
30
0.0000000000
10
-56.4271815295
20
5.9200469535
30
0.0000000000
10
-56.4243146042
20
5.7889171802
30
0.0000000000
10
-56.4186583562
20
5.6902509615
30
0.0000000000
10
-56.4159656202
20
5.6388548419
30
0.0000000000
11
-56.4334073951
21
6.1381696093
31
0.0000000000
11
-56.4348157700
21
6.1136187299
31
0.0000000000
11
-56.4335278896
21
6.0426482397
31
0.0000000000
11
-56.4296696775
21
5.9321972142
31
0.0000000000
11
-56.4236183672
21
5.7930649029
31
0.0000000000
11
-56.4159656202
21
5.6388548419
31
0.0000000000
0
SPLINE
5
41D
100
AcDbEntity
8
0
100
AcDbSpline
62
9
6
CONTINUOUS
70
0
71
3
72
12
73
8
74
6
42
0.0000001000
43
0.0000001000
44
0.0000000001
12
-0.4990705807
22
0.0261551808
32
0.0000000000
13
0.0261471146
23
0.4990710033
33
0.0000000000
40
0.0000000000
40
0.0000000000
40
0.0000000000
40
0.0000000000
40
0.0492079808
40
0.1912447975
40
0.4123917745
40
0.6910545422
40
1.0000000000
40
1.0000000000
40
1.0000000000
40
1.0000000000
10
-56.4334073951
20
-37.8116446651
30
0.0000000000
10
-56.4415934803
20
-37.8112156506
30
0.0000000000
10
-56.4255656142
20
-37.7609591654
30
0.0000000000
10
-56.4388933144
20
-37.7092539987
30
0.0000000000
10
-56.4271813801
20
-37.5935193367
30
0.0000000000
10
-56.4243144587
20
-37.4623902507
30
0.0000000000
10
-56.4186582976
20
-37.3637251376
30
0.0000000000
10
-56.4159656202
20
-37.3123298978
30
0.0000000000
11
-56.4334073951
21
-37.8116446651
31
0.0000000000
11
-56.4348157430
21
-37.7870930674
31
0.0000000000
11
-56.4335277812
21
-37.7161210758
31
0.0000000000
11
-56.4296695025
21
-37.6056690301
31
0.0000000000
11
-56.4236182131
21
-37.4665373183
31
0.0000000000
11
-56.4159656202
21
-37.3123298978
31
0.0000000000
0
ENDSEC
0
SECTION
2
OBJECTS
0
DICTIONARY
5
C
100
AcDbDictionary
280
0
281
1
3
ACAD_GROUP
350
D
3
ACAD_MLINESTYLE
350
17
3
ACAD_LAYOUT
350
1A
3
ACAD_PLOTSETTINGS
350
19
3
ACAD_PLOTSTYLENAME
350
E
0
DICTIONARY
5
D
102
{ACAD_REACTORS
330
C
102
}
100
AcDbDictionary
280
0
281
1
0
ACDBDICTIONARYWDFLT
5
E
102
{ACAD_REACTORS
330
C
102
}
100
AcDbDictionary
281
1
3
Normal
350
F
100
AcDbDictionaryWithDefault
340
F
0
DICTIONARY
5
17
102
{ACAD_REACTORS
330
C
102
}
100
AcDbDictionary
280
0
281
1
3
Standard
350
18
0
DICTIONARY
5
19
102
{ACAD_REACTORS
330
C
102
}
100
AcDbDictionary
281
1
0
DICTIONARY
5
1A
102
{ACAD_REACTORS
330
C
102
}
100
AcDbDictionary
281
1
3
Layout1
350
1E
3
Model
350
22
0
ACDBPLACEHOLDER
5
F
102
{ACAD_REACTORS
330
E
102
}
0
MLINESTYLE
5
18
102
{ACAD_REACTORS
330
17
102
}
100
AcDbMlineStyle
2
STANDARD
70
0
3

62
256
51
90.0
52
90.0
71
2
49
0.5
62
256
6
BYLAYER
49
-0.5
62
256
6
BYLAYER
0
LAYOUT
5
1E
102
{ACAD_REACTORS
330
1A
102
}
100
AcDbPlotSettings
1

2

4

6

40
0.0
41
0.0
42
0.0
43
0.0
44
0.0
45
0.0
46
0.0
47
0.0
48
0.0
49
0.0
140
0.0
141
0.0
142
1.0
143
1.0
70
0
72
0
73
0
74
0
7

75
0
147
1.0
148
0.0
149
0.0
100
AcDbLayout
1
Layout1
70
0
71
0
10
0.0
20
0.0
11
0.0
21
0.0
12
0.0
22
0.0
32
0.0
14
0.0
24
0.0
34
0.0
15
0.0
25
0.0
35
0.0
146
0.0
13
0.0
23
0.0
33
0.0
16
0.0
26
0.0
36
0.0
17
0.0
27
0.0
37
0.0
76
0
330
1B
331
0
345
0
346
0
0
LAYOUT
5
22
102
{ACAD_REACTORS
330
1A
102
}
100
AcDbPlotSettings
1

2

4

6

40
0.0
41
0.0
42
0.0
43
0.0
44
0.0
45
0.0
46
0.0
47
0.0
48
0.0
49
0.0
140
0.0
141
0.0
142
1.0
143
1.0
70
0
72
0
73
0
74
0
7

75
0
147
1.0
148
0.0
149
0.0
100
AcDbLayout
1
Model
70
0
71
0
10
0.0
20
0.0
11
0.0
21
0.0
12
0.0
22
0.0
32
0.0
14
0.0
24
0.0
34
0.0
15
0.0
25
0.0
35
0.0
146
0.0
13
0.0
23
0.0
33
0.0
16
0.0
26
0.0
36
0.0
17
0.0
27
0.0
37
0.0
76
0
330
1F
331
0
345
0
346
0
0
ENDSEC
0
EOF
