  0
SECTION
  2
HEADER
  9
$ACADVER
  1
AC1024
  9
$DWGCODEPAGE
  3
ANSI_1252
  9
$EXTMAX
 10
297.0
 20
210.0
 30
0.0
  9
$EXTMIN
 10
0.0
 20
0.0
 30
0.0
  9
$LIMMIN
 10
0.0
 20
0.0
  9
$LIMMAX
 10
297.0
 20
210.0
  9
$VIEWCTR
 10
148.5
 20
105.0
  9
$VIEWSIZE
 40
210.0
  9
$CLAYER
  8
0
  9
$LTSCALE
 40
16.335
  9
$CELTYPE
  6
BYLAYER
  9
$DIMSCALE
 40
1.0
  9
$DIMASZ
 40
3.0
  9
$DIMEXO
 40
0.5
  9
$DIMDLI
 40
11.286
  9
$DIMEXE
 40
1.5
  9
$DIMCEN
 40
2.673
  9
$DIMLFAC
 40
1.0
  9
$DIMBLK
  1
_FILLED
  9
$DIMALT
 70
0
  9
$DIMALTF
 40
0.0393700787
  9
$DIMTXT
 40
3.0
  9
$DIMTOL
 70
1
  9
$DIMLIM
 70
0
  9
$DIMTFAC
 40
1.0
  9
$DIMTP
 40
0.01
  9
$DIMTM
 40
0.01
  9
$DIMGAP
 40
0.625
  9
$DIMDSEP
 70
44
  9
$AUNITS
 70
0
  9
$PDMODE
 70
3
  9
$PDSIZE
 40
3.0
  9
$HANDSEED
  5
4BD
  9
$TILEMODE
 70
1
  9
$MEASUREMENT
 70
1
  9
$INSUNITS
 70
4
  0
ENDSEC
  0
SECTION
  2
CLASSES
  0
CLASS
  1
ACDBDICTIONARYWDFLT
  2
AcDbDictionaryWithDefault
  3
AutoCAD 2000
 90
0
 91
1
280
0
281
0
  0
CLASS
  1
ACDBPLACEHOLDER
  2
AcDbPlaceHolder
  3
AutoCAD 2000
 90
0
 91
1
280
0
281
0
  0
CLASS
  1
LAYOUT
  2
AcDbLayout
  3
AutoCAD 2000
 90
0
 91
0
280
0
281
0
  0
ENDSEC
  0
SECTION
  2
TABLES
  0
TABLE
  2
VPORT
  5
8
100
AcDbSymbolTable
 70
2
  0
VPORT
  5
1F4
100
AcDbSymbolTableRecord
100
AcDbViewportTableRecord
  2
*ACTIVE
 70
0
 10
0.0
 20
0.0
 11
1.0
 21
1.0
 12
148.5
 22
105.0
 13
0.0
 23
0.0
 14
1.0
 24
1.0
 15
0.0
 25
0.0
 16
0.0
 26
0.0
 36
1.0
 17
0.0
 27
0.0
 37
0.0
 40
210.0
 41
1.4142857143
 42
50.0
 43
0.0
 44
0.0
 50
0.0
 51
0.0
 71
0
 72
100
 73
1
 74
1
 75
0
 76
0
 77
0
 78
0
  0
ENDTAB
  0
TABLE
  2
LTYPE
  5
5
100
AcDbSymbolTable
 70
6
  0
LTYPE
  5
14
100
AcDbSymbolTableRecord
100
AcDbLinetypeTableRecord
  2
BYBLOCK
 70
0
  3

 72
65
 73
0
 40
0.0
  0
LTYPE
  5
15
100
AcDbSymbolTableRecord
100
AcDbLinetypeTableRecord
  2
BYLAYER
 70
0
  3

 72
65
 73
0
 40
0.0
  0
LTYPE
  5
16
100
AcDbSymbolTableRecord
100
AcDbLinetypeTableRecord
  2
CONTINUOUS
 70
64
  3
Solid line
 72
65
 73
0
 40
0.0
  0
LTYPE
  5
1F5
100
AcDbSymbolTableRecord
100
AcDbLinetypeTableRecord
  2
CENTER
 70
64
  3
____ _ ____ _ ____ _ ____ _ ____ _ ____ _ ____
 72
65
 73
4
 40
0.6
 49
0.375
 74
0
 49
-0.075
 74
0
 49
0.075
 74
0
 49
-0.075
 74
0
  0
LTYPE
  5
1F6
100
AcDbSymbolTableRecord
100
AcDbLinetypeTableRecord
  2
HIDDEN
 70
64
  3
- - - - - - - - - - - - - - - - - - - -
 72
65
 73
2
 40
0.2
 49
0.1
 74
0
 49
-0.1
 74
0
  0
LTYPE
  5
1F7
100
AcDbSymbolTableRecord
100
AcDbLinetypeTableRecord
  2
PHANTOM
 70
64
  3
_____ _ _ _____ _ _ _____ _ _ _____
 72
65
 73
6
 40
0.8
 49
0.45
 74
0
 49
-0.05
 74
0
 49
0.1
 74
0
 49
-0.05
 74
0
 49
0.1
 74
0
 49
-0.05
 74
0
  0
LTYPE
  5
1F8
100
AcDbSymbolTableRecord
100
AcDbLinetypeTableRecord
  2
DOT
 70
64
  3
. . . . . . . . . . . . . . . . . . . .
 72
65
 73
2
 40
0.2
 49
0.1
 74
0
 49
-0.1
 74
0
  0
LTYPE
  5
1F9
100
AcDbSymbolTableRecord
100
AcDbLinetypeTableRecord
  2
DASHED
 70
64
  3
- - - - - - - - - - - - - - - - - - - -
 72
65
 73
2
 40
0.2
 49
0.1
 74
0
 49
-0.1
 74
0
  0
ENDTAB
  0
TABLE
  2
LAYER
  5
2
100
AcDbSymbolTable
 70
36
  0
LAYER
  5
10
100
AcDbSymbolTableRecord
100
AcDbLayerTableRecord
  2
0
 70
0
 62
7
  6
CONTINUOUS
370
-3
390
F
  0
LAYER
  5
1FA
100
AcDbSymbolTableRecord
100
AcDbLayerTableRecord
  2
DEFAULT_1
 70
0
 62
7
  6
CENTER
370
-3
390
F
  0
LAYER
  5
1FB
100
AcDbSymbolTableRecord
100
AcDbLayerTableRecord
  2
DEFAULT_2
 70
0
 62
7
  6
HIDDEN
370
-3
390
F
  0
LAYER
  5
1FC
100
AcDbSymbolTableRecord
100
AcDbLayerTableRecord
  2
DEFAULT_3
 70
0
 62
7
  6
PHANTOM
370
-3
390
F
  0
LAYER
  5
1FD
100
AcDbSymbolTableRecord
100
AcDbLayerTableRecord
  2
ASSI
 70
0
 62
7
  6
CONTINUOUS
370
-3
390
F
  0
LAYER
  5
1FE
100
AcDbSymbolTableRecord
100
AcDbLayerTableRecord
  2
COORDINATE
 70
0
 62
7
  6
CONTINUOUS
370
-3
390
F
  0
LAYER
  5
1FF
100
AcDbSymbolTableRecord
100
AcDbLayerTableRecord
  2
COORD_ORIGINE
 70
0
 62
7
  6
CONTINUOUS
370
-3
390
F
  0
LAYER
  5
200
100
AcDbSymbolTableRecord
100
AcDbLayerTableRecord
  2
COPY-PUBBLISH
 70
0
 62
7
  6
CONTINUOUS
370
-3
390
F
  0
LAYER
  5
201
100
AcDbSymbolTableRecord
100
AcDbLayerTableRecord
  2
COSMETICHE
 70
0
 62
7
  6
CONTINUOUS
370
-3
390
F
  0
LAYER
  5
202
100
AcDbSymbolTableRecord
100
AcDbLayerTableRecord
  2
COSMETICI
 70
0
 62
7
  6
CONTINUOUS
370
-3
390
F
  0
LAYER
  5
203
100
AcDbSymbolTableRecord
100
AcDbLayerTableRecord
  2
CURVE
 70
0
 62
7
  6
CONTINUOUS
370
-3
390
F
  0
LAYER
  5
204
100
AcDbSymbolTableRecord
100
AcDbLayerTableRecord
  2
CURVE1
 70
0
 62
7
  6
CONTINUOUS
370
-3
390
F
  0
LAYER
  5
205
100
AcDbSymbolTableRecord
100
AcDbLayerTableRecord
  2
C_COMP
 70
0
 62
7
  6
CONTINUOUS
370
-3
390
F
  0
LAYER
  5
206
100
AcDbSymbolTableRecord
100
AcDbLayerTableRecord
  2
DRAFT
 70
0
 62
7
  6
CONTINUOUS
370
-3
390
F
  0
LAYER
  5
207
100
AcDbSymbolTableRecord
100
AcDbLayerTableRecord
  2
IGES
 70
0
 62
7
  6
CONTINUOUS
370
-3
390
F
  0
LAYER
  5
208
100
AcDbSymbolTableRecord
100
AcDbLayerTableRecord
  2
IMPORT
 70
0
 62
7
  6
CONTINUOUS
370
-3
390
F
  0
LAYER
  5
209
100
AcDbSymbolTableRecord
100
AcDbLayerTableRecord
  2
IMPORT_FEATURES
 70
0
 62
7
  6
CONTINUOUS
370
-3
390
F
  0
LAYER
  5
20A
100
AcDbSymbolTableRecord
100
AcDbLayerTableRecord
  2
INTF_1
 70
0
 62
7
  6
CONTINUOUS
370
-3
390
F
  0
LAYER
  5
20B
100
AcDbSymbolTableRecord
100
AcDbLayerTableRecord
  2
INTF_2
 70
0
 62
7
  6
CONTINUOUS
370
-3
390
F
  0
LAYER
  5
20C
100
AcDbSymbolTableRecord
100
AcDbLayerTableRecord
  2
INTF_6
 70
0
 62
7
  6
CONTINUOUS
370
-3
390
F
  0
LAYER
  5
20D
100
AcDbSymbolTableRecord
100
AcDbLayerTableRecord
  2
NOTE
 70
0
 62
7
  6
CONTINUOUS
370
-3
390
F
  0
LAYER
  5
20E
100
AcDbSymbolTableRecord
100
AcDbLayerTableRecord
  2
PIANI
 70
0
 62
7
  6
CONTINUOUS
370
-3
390
F
  0
LAYER
  5
20F
100
AcDbSymbolTableRecord
100
AcDbLayerTableRecord
  2
PIANI_ORIGINE
 70
0
 62
7
  6
CONTINUOUS
370
-3
390
F
  0
LAYER
  5
210
100
AcDbSymbolTableRecord
100
AcDbLayerTableRecord
  2
PUNTI
 70
0
 62
7
  6
CONTINUOUS
370
-3
390
F
  0
LAYER
  5
211
100
AcDbSymbolTableRecord
100
AcDbLayerTableRecord
  2
RACCORDO
 70
0
 62
7
  6
CONTINUOUS
370
-3
390
F
  0
LAYER
  5
212
100
AcDbSymbolTableRecord
100
AcDbLayerTableRecord
  2
RGB____0____0____0__
 70
0
 62
7
  6
CONTINUOUS
370
-3
390
F
  0
LAYER
  5
213
100
AcDbSymbolTableRecord
100
AcDbLayerTableRecord
  2
SMUSSO
 70
0
 62
7
  6
CONTINUOUS
370
-3
390
F
  0
LAYER
  5
214
100
AcDbSymbolTableRecord
100
AcDbLayerTableRecord
  2
SNAPLINE
 70
0
 62
7
  6
CONTINUOUS
370
-3
390
F
  0
LAYER
  5
215
100
AcDbSymbolTableRecord
100
AcDbLayerTableRecord
  2
SUPERFICI
 70
0
 62
7
  6
CONTINUOUS
370
-3
390
F
  0
LAYER
  5
216
100
AcDbSymbolTableRecord
100
AcDbLayerTableRecord
  2
TRASH
 70
0
 62
7
  6
CONTINUOUS
370
-3
390
F
  0
LAYER
  5
217
100
AcDbSymbolTableRecord
100
AcDbLayerTableRecord
  2
XSEC_DATUMS
 70
0
 62
7
  6
CONTINUOUS
370
-3
390
F
  0
ENDTAB
  0
TABLE
  2
STYLE
  5
3
100
AcDbSymbolTable
 70
1
  0
STYLE
  5
11
100
AcDbSymbolTableRecord
100
AcDbTextStyleTableRecord
  2
STANDARD
 70
0
 40
0.0
 41
0.8
 50
0.0
 71
0
 42
0.2
  3
txt
  4

  0
STYLE
  5
218
100
AcDbSymbolTableRecord
100
AcDbTextStyleTableRecord
  2
TEXTSTYLE_1
 70
0
 40
0.0
 41
0.8
 50
0.0
 71
0
 42
0.2
  3
gdt
  4

  0
ENDTAB
  0
TABLE
  2
VIEW
  5
6
100
AcDbSymbolTable
 70
0
  0
ENDTAB
  0
TABLE
  2
UCS
  5
7
100
AcDbSymbolTable
 70
0
  0
ENDTAB
  0
TABLE
  2
APPID
  5
9
100
AcDbSymbolTable
 70
1
  0
APPID
  5
219
100
AcDbSymbolTableRecord
100
AcDbRegAppTableRecord
  2
ACAD
 70
0
  0
ENDTAB
  0
TABLE
  2
BLOCK_RECORD
  5
1
100
AcDbSymbolTable
 70
0
  0
BLOCK_RECORD
  5
21A
100
AcDbSymbolTableRecord
100
AcDbBlockTableRecord
  2
*Model_Space
  0
BLOCK_RECORD
  5
21B
100
AcDbSymbolTableRecord
100
AcDbBlockTableRecord
  2
*Paper_Space
  0
BLOCK_RECORD
  5
21C
100
AcDbSymbolTableRecord
100
AcDbBlockTableRecord
  2
_FILLED
  0
BLOCK_RECORD
  5
21D
100
AcDbSymbolTableRecord
100
AcDbBlockTableRecord
  2
*D0
  0
BLOCK_RECORD
  5
21E
100
AcDbSymbolTableRecord
100
AcDbBlockTableRecord
  2
*D1
  0
BLOCK_RECORD
  5
21F
100
AcDbSymbolTableRecord
100
AcDbBlockTableRecord
  2
*D2
  0
BLOCK_RECORD
  5
220
100
AcDbSymbolTableRecord
100
AcDbBlockTableRecord
  2
*D3
  0
ENDTAB
  0
TABLE
  2
DIMSTYLE
  5
A
100
AcDbSymbolTable
 70
1
100
AcDbDimStyleTable
 71
0
  0
DIMSTYLE
105
221
100
AcDbSymbolTableRecord
100
AcDbDimStyleTableRecord
  2
STANDARD
 70
0
  3

  4

 40
1.0
 41
3.0
 42
0.5
 43
0.38
 44
1.5
 45
0.0
 46
0.0
 47
0.01
 48
0.01
140
3.0
141
0.09
142
0.0
143
25.4
144
1.0
145
0.0
146
1.0
147
0.625
 71
1
 72
0
 73
0
 74
0
 75
0
 76
0
 77
1
 78
8
 79
2
170
0
171
1
172
0
173
0
174
0
175
0
176
0
177
0
178
0
270
2
179
2
271
2
272
2
273
2
274
2
275
0
280
0
281
0
282
0
283
1
284
8
285
0
286
0
287
3
288
0
340
11
278
44
341
21C
342
21C
343
21C
344
21C
  0
DIMSTYLE
105
222
100
AcDbSymbolTableRecord
100
AcDbDimStyleTableRecord
  2
DIMSTYLE_1
 70
0
  3

  4

 40
1.0
 41
3.0
 42
0.5
 43
0.38
 44
1.5
 45
0.0
 46
0.0
 47
0.0
 48
0.0
140
3.0
141
0.09
142
0.0
143
25.4
144
1.0
145
0.0
146
1.0
147
0.75
 71
0
 72
0
 73
0
 74
0
 75
0
 76
0
 77
1
 78
8
 79
2
170
0
171
1
172
0
173
0
174
0
175
0
176
0
177
0
178
0
270
2
179
2
271
2
272
2
273
2
274
2
275
0
280
0
281
0
282
0
283
1
284
8
285
0
286
0
287
3
288
0
340
11
278
44
341
21C
342
21C
343
21C
344
21C
  0
ENDTAB
  0
ENDSEC
  0
SECTION
  2
BLOCKS
  0
BLOCK
  5
20
100
AcDbEntity
  8
0
100
AcDbBlockBegin
  2
*Model_Space
 70
0
 10
0.0
 20
0.0
 30
0.0
  3
*Model_Space
  1

  0
ENDBLK
  5
21
100
AcDbEntity
  8
0
100
AcDbBlockEnd
  0
BLOCK
  5
1C
100
AcDbEntity
  8
0
100
AcDbBlockBegin
  2
*Paper_Space
 70
0
 10
0.0
 20
0.0
 30
0.0
  3
*Paper_Space
  1

  0
ENDBLK
  5
1D
100
AcDbEntity
  8
0
100
AcDbBlockEnd
  0
BLOCK
  5
223
100
AcDbEntity
  8
0
100
AcDbBlockBegin
  2
_FILLED
 70
64
 10
0.0
 20
0.0
  3
_FILLED
  1

  0
SOLID
  5
224
100
AcDbEntity
  8
0
  6
BYBLOCK
 62
0
100
AcDbTrace
 10
0.0
 20
0.0
 11
-1.0
 21
0.3166666667
 12
-1.0
 22
-0.3166666667
 13
-1.0
 23
-0.3166666667
  0
ENDBLK
  5
225
100
AcDbEntity
  8
0
  6
BYBLOCK
 62
0
100
AcDbBlockEnd
  0
BLOCK
  5
226
100
AcDbEntity
  8
0
100
AcDbBlockBegin
 62
7
  6
CONTINUOUS
  2
*D0
 70
65
 10
0.0
 20
0.0
  3
*D0
  1

  0
LINE
  5
227
100
AcDbEntity
  8
0
100
AcDbLine
 62
7
  6
CONTINUOUS
 10
4.4733373476
 20
23.5
 11
29.2836538168
 21
23.5
  0
LINE
  5
228
100
AcDbEntity
  8
0
100
AcDbLine
 62
7
  6
CONTINUOUS
 10
4.4733373476
 20
-23.5
 11
29.2836538168
 21
-23.5
  0
LINE
  5
229
100
AcDbEntity
  8
0
100
AcDbLine
 62
7
  6
CONTINUOUS
 10
27.7836538168
 20
23.5
 11
27.7836538168
 21
0.0
  0
LINE
  5
22A
100
AcDbEntity
  8
0
100
AcDbLine
 62
7
  6
CONTINUOUS
 10
27.7836538168
 20
-23.5
 11
27.7836538168
 21
0.0
  0
INSERT
  5
22B
100
AcDbEntity
  8
0
100
AcDbBlockReference
 62
7
  6
CONTINUOUS
  2
_FILLED
 10
27.7836538168
 20
23.5
 41
3.0
 42
3.0
 43
3.0
 50
90.0
  0
INSERT
  5
22C
100
AcDbEntity
  8
0
100
AcDbBlockReference
 62
7
  6
CONTINUOUS
  2
_FILLED
 10
27.7836538168
 20
-23.5
 41
3.0
 42
3.0
 43
3.0
 50
270.0
  0
ENDBLK
  5
22D
100
AcDbEntity
  8
0
  6
BYBLOCK
 62
0
100
AcDbBlockEnd
  0
BLOCK
  5
22E
100
AcDbEntity
  8
0
100
AcDbBlockBegin
 62
7
  6
CONTINUOUS
  2
*D1
 70
65
 10
0.0
 20
0.0
  3
*D1
  1

  0
LINE
  5
22F
100
AcDbEntity
  8
0
100
AcDbLine
 62
7
  6
CONTINUOUS
 10
11.15
 20
22.3997711479
 11
11.15
 21
36.7312913828
  0
LINE
  5
230
100
AcDbEntity
  8
0
100
AcDbLine
 62
7
  6
CONTINUOUS
 10
-11.15
 20
22.3997711479
 11
-11.15
 21
36.7312913828
  0
LINE
  5
231
100
AcDbEntity
  8
0
100
AcDbLine
 62
7
  6
CONTINUOUS
 10
11.15
 20
35.2312913828
 11
15.15
 21
35.2312913828
  0
LINE
  5
232
100
AcDbEntity
  8
0
100
AcDbLine
 62
7
  6
CONTINUOUS
 10
15.15
 20
35.2312913828
 11
0.0
 21
35.2312913828
  0
LINE
  5
233
100
AcDbEntity
  8
0
100
AcDbLine
 62
7
  6
CONTINUOUS
 10
-11.15
 20
35.2312913828
 11
-15.15
 21
35.2312913828
  0
LINE
  5
234
100
AcDbEntity
  8
0
100
AcDbLine
 62
7
  6
CONTINUOUS
 10
-15.15
 20
35.2312913828
 11
0.0
 21
35.2312913828
  0
INSERT
  5
235
100
AcDbEntity
  8
0
100
AcDbBlockReference
 62
7
  6
CONTINUOUS
  2
_FILLED
 10
11.15
 20
35.2312913828
 41
3.0
 42
3.0
 43
3.0
 50
180.0
  0
INSERT
  5
236
100
AcDbEntity
  8
0
100
AcDbBlockReference
 62
7
  6
CONTINUOUS
  2
_FILLED
 10
-11.15
 20
35.2312913828
 41
3.0
 42
3.0
 43
3.0
  0
ENDBLK
  5
237
100
AcDbEntity
  8
0
  6
BYBLOCK
 62
0
100
AcDbBlockEnd
  0
BLOCK
  5
238
100
AcDbEntity
  8
0
100
AcDbBlockBegin
 62
7
  6
CONTINUOUS
  2
*D2
 70
65
 10
0.0
 20
0.0
  3
*D2
  1

  0
LINE
  5
239
100
AcDbEntity
  8
0
100
AcDbLine
 62
7
  6
CONTINUOUS
 10
-27.3481162528
 20
13.9377350466
 11
-27.3481162528
 21
36.8006229374
  0
LINE
  5
23A
100
AcDbEntity
  8
0
100
AcDbLine
 62
7
  6
CONTINUOUS
 10
-50.5481162528
 20
22.3997711479
 11
-50.5481162528
 21
36.8006229374
  0
LINE
  5
23B
100
AcDbEntity
  8
0
100
AcDbLine
 62
7
  6
CONTINUOUS
 10
-27.3481162528
 20
35.3006229374
 11
-23.3481162528
 21
35.3006229374
  0
LINE
  5
23C
100
AcDbEntity
  8
0
100
AcDbLine
 62
7
  6
CONTINUOUS
 10
-23.3481162528
 20
35.3006229374
 11
-38.9481162528
 21
35.3006229374
  0
LINE
  5
23D
100
AcDbEntity
  8
0
100
AcDbLine
 62
7
  6
CONTINUOUS
 10
-50.5481162528
 20
35.3006229374
 11
-54.5481162528
 21
35.3006229374
  0
LINE
  5
23E
100
AcDbEntity
  8
0
100
AcDbLine
 62
7
  6
CONTINUOUS
 10
-54.5481162528
 20
35.3006229374
 11
-38.9481162528
 21
35.3006229374
  0
INSERT
  5
23F
100
AcDbEntity
  8
0
100
AcDbBlockReference
 62
7
  6
CONTINUOUS
  2
_FILLED
 10
-27.3481162528
 20
35.3006229374
 41
3.0
 42
3.0
 43
3.0
 50
180.0
  0
INSERT
  5
240
100
AcDbEntity
  8
0
100
AcDbBlockReference
 62
7
  6
CONTINUOUS
  2
_FILLED
 10
-50.5481162528
 20
35.3006229374
 41
3.0
 42
3.0
 43
3.0
  0
ENDBLK
  5
241
100
AcDbEntity
  8
0
  6
BYBLOCK
 62
0
100
AcDbBlockEnd
  0
BLOCK
  5
242
100
AcDbEntity
  8
0
100
AcDbBlockBegin
 62
7
  6
CONTINUOUS
  2
*D3
 70
65
 10
0.0
 20
0.0
  3
*D3
  1

  0
LINE
  5
243
100
AcDbEntity
  8
0
100
AcDbLine
 62
7
  6
CONTINUOUS
 10
-27.3481162528
 20
13.9377350466
 11
-27.3481162528
 21
46.8006229374
  0
LINE
  5
244
100
AcDbEntity
  8
0
100
AcDbLine
 62
7
  6
CONTINUOUS
 10
-60.0481162528
 20
0.5
 11
-60.0481162528
 21
46.8006229374
  0
LINE
  5
245
100
AcDbEntity
  8
0
100
AcDbLine
 62
7
  6
CONTINUOUS
 10
-27.3481162528
 20
45.3006229374
 11
-43.6981162528
 21
45.3006229374
  0
LINE
  5
246
100
AcDbEntity
  8
0
100
AcDbLine
 62
7
  6
CONTINUOUS
 10
-60.0481162528
 20
45.3006229374
 11
-43.6981162528
 21
45.3006229374
  0
INSERT
  5
247
100
AcDbEntity
  8
0
100
AcDbBlockReference
 62
7
  6
CONTINUOUS
  2
_FILLED
 10
-27.3481162528
 20
45.3006229374
 41
3.0
 42
3.0
 43
3.0
  0
INSERT
  5
248
100
AcDbEntity
  8
0
100
AcDbBlockReference
 62
7
  6
CONTINUOUS
  2
_FILLED
 10
-60.0481162528
 20
45.3006229374
 41
3.0
 42
3.0
 43
3.0
 50
180.0
  0
ENDBLK
  5
249
100
AcDbEntity
  8
0
  6
BYBLOCK
 62
0
100
AcDbBlockEnd
  0
ENDSEC
  0
SECTION
  2
ENTITIES
  0
DIMENSION
  5
24A
100
AcDbEntity
  8
0
100
AcDbDimension
 62
7
  6
CONTINUOUS
  2
*D0
 10
27.7836538168
 20
-23.5
 11
27.7836538168
 21
-2.3571428571
 70
160
 71
2
 72
2
 41
0.9
 42
47.0
  3
DIMSTYLE_1
100
AcDbAlignedDimension
 13
3.9733373476
 23
23.5
 14
3.9733373476
 24
-23.5
 50
270.0
100
AcDbRotatedDimension
  0
DIMENSION
  5
24B
100
AcDbEntity
  8
0
100
AcDbDimension
 62
7
  6
CONTINUOUS
  2
*D1
 10
-11.15
 20
35.2312913828
 11
-4.2857142857
 21
35.2312913828
 70
160
 71
2
 72
2
 41
0.9
 42
22.3
  3
DIMSTYLE_1
100
AcDbAlignedDimension
 13
11.15
 23
21.8997711479
 14
-11.15
 24
21.8997711479
 50
180.0
100
AcDbRotatedDimension
  0
DIMENSION
  5
24C
100
AcDbEntity
  8
0
100
AcDbDimension
 62
7
  6
CONTINUOUS
  2
*D2
 10
-50.5481162528
 20
35.3006229374
 11
-43.2338305385
 21
35.3006229374
 70
160
 71
2
 72
2
 41
0.9
 42
23.2
  3
DIMSTYLE_1
100
AcDbAlignedDimension
 13
-27.3481162528
 23
13.4377350466
 14
-50.5481162528
 24
21.8997711479
 50
180.0
100
AcDbRotatedDimension
  0
DIMENSION
  5
24D
100
AcDbEntity
  8
0
100
AcDbDimension
 62
7
  6
CONTINUOUS
  2
*D3
 10
-60.0481162528
 20
45.3006229374
 11
-47.9838305385
 21
45.3006229374
 70
160
 71
2
 72
2
 41
0.9
 42
32.7
  3
DIMSTYLE_1
100
AcDbAlignedDimension
 13
-27.3481162528
 23
13.4377350466
 14
-60.0481162528
 24
0.0
 50
180.0
100
AcDbRotatedDimension
  0
LWPOLYLINE
  5
24E
100
AcDbEntity
  8
0
100
AcDbPolyline
 62
7
  6
CONTINUOUS
 90
5
 70
0
 43
0.3500000006
 10
3.0000000658
 20
37.6955790253
 10
3.357142951
 20
37.9098635101
 10
3.357142951
 20
38.5527214966
 10
3.0000000658
 20
38.9812904663
 10
2.1428571696
 20
38.9812904663
  0
LWPOLYLINE
  5
24F
100
AcDbEntity
  8
0
100
AcDbPolyline
 62
250
  6
CONTINUOUS
 90
15
 70
0
 10
-11.0004589101
 20
20.9972959167
 10
-10.9968791436
 20
20.9994689314
 10
-10.9879813308
 20
21.0016186628
 10
-10.9738608069
 20
21.0037220776
 10
-10.9546688652
 20
21.005756639
 10
-10.9306111366
 20
21.0077005477
 10
-10.9019453861
 20
21.009532976
 10
-10.868978751
 20
21.0112342904
 10
-10.8320644502
 20
21.0127862623
 10
-10.7915979997
 20
21.014172263
 10
-10.7480129745
 20
21.0153774425
 10
-10.7017763638
 20
21.0163888878
 10
-10.6533835666
 20
21.0171957618
 10
-10.6033530845
 20
21.0177894192
 10
-10.5522209659
 20
21.0181634993
  0
LINE
  5
250
100
AcDbEntity
  8
DRAFT
100
AcDbLine
 62
7
  6
CONTINUOUS
 10
-3.0
 20
22.4
 11
-2.7812783412
 21
22.5310194482
  0
LINE
  5
251
100
AcDbEntity
  8
DRAFT
100
AcDbLine
 62
7
  6
CONTINUOUS
 10
-3.0
 20
-23.5
 11
-2.7812783412
 21
-23.4563623377
  0
LWPOLYLINE
  5
252
100
AcDbEntity
  8
0
100
AcDbPolyline
 62
250
  6
CONTINUOUS
 90
16
 70
0
 10
10.5087981167
 20
-21.9749071372
 10
10.5610250031
 20
-21.97212728
 10
10.6126802316
 20
-21.9639134406
 10
10.6631985021
 20
-21.9503555394
 10
10.7120269743
 20
-21.931601975
 10
10.7586312804
 20
-21.9078580123
 10
10.8025013793
 20
-21.8793835478
 10
10.8431571925
 20
-21.8464902344
 10
10.8801538308
 20
-21.8095380733
 10
10.9130864355
 20
-21.7689315022
 10
10.941594647
 20
-21.7251149336
 10
10.9653665353
 20
-21.6785678925
 10
10.9841419991
 20
-21.6297997904
 10
10.9977156235
 20
-21.5793443309
 10
11.0059389237
 20
-21.5277536674
 10
11.0087219643
 20
-21.4755923698
  0
LWPOLYLINE
  5
253
100
AcDbEntity
  8
0
100
AcDbPolyline
 62
250
  6
CONTINUOUS
 90
15
 70
0
 10
10.5522211666
 20
-21.0181637394
 10
10.6033534788
 20
-21.0177896594
 10
10.6533841411
 20
-21.0171959985
 10
10.701777099
 20
-21.0163891176
 10
10.7480138452
 20
-21.015377662
 10
10.7915989752
 20
-21.0141724692
 10
10.8320654952
 20
-21.0127864523
 10
10.868979826
 20
-21.0112344618
 10
10.9019464483
 20
-21.0095331264
 10
10.9306121405
 20
-21.0077006753
 10
10.9546697635
 20
-21.0057567422
 10
10.9738615515
 20
-21.0037221554
 10
10.9879818737
 20
-21.0016187147
 10
10.9968794376
 20
-20.9994689572
 10
11.0004589101
 20
-20.9972959167
  0
LINE
  5
254
100
AcDbEntity
  8
DRAFT
100
AcDbLine
 62
7
  6
CONTINUOUS
 10
3.9733373476
 20
-23.5
 11
3.0
 21
-23.5
  0
LINE
  5
255
100
AcDbEntity
  8
DRAFT
100
AcDbLine
 62
7
  6
CONTINUOUS
 10
-3.0
 20
-23.5
 11
-3.9733373476
 21
-23.5
  0
LINE
  5
256
100
AcDbEntity
  8
DRAFT
100
AcDbLine
 62
7
  6
CONTINUOUS
 10
-2.7812783412
 20
-23.4563623377
 11
2.7812783412
 21
-23.4563623377
  0
LINE
  5
257
100
AcDbEntity
  8
DRAFT
100
AcDbLine
 62
7
  6
CONTINUOUS
 10
2.7812783412
 20
-22.5310194482
 11
-2.7812783412
 21
-22.5310194482
  0
LINE
  5
258
100
AcDbEntity
  8
DRAFT
100
AcDbLine
 62
7
  6
CONTINUOUS
 10
3.0
 20
-22.4
 11
10.6503805997
 21
-22.4
  0
LINE
  5
259
100
AcDbEntity
  8
DRAFT
100
AcDbLine
 62
7
  6
CONTINUOUS
 10
-3.0
 20
-22.4
 11
-10.6503805997
 21
-22.4
  0
LINE
  5
25A
100
AcDbEntity
  8
0
100
AcDbLine
 62
250
  6
CONTINUOUS
 10
10.5087981167
 20
-21.9749071372
 11
-10.5087981167
 21
-21.9749071372
  0
LINE
  5
25B
100
AcDbEntity
  8
0
100
AcDbLine
 62
250
  6
CONTINUOUS
 10
10.5522211666
 20
-21.0181637394
 11
-10.5005350625
 21
-21.0183142309
  0
LINE
  5
25C
100
AcDbEntity
  8
DRAFT
100
AcDbLine
 62
7
  6
CONTINUOUS
 10
3.0
 20
-23.5
 11
2.7812783412
 21
-23.4563623377
  0
LINE
  5
25D
100
AcDbEntity
  8
DRAFT
100
AcDbLine
 62
7
  6
CONTINUOUS
 10
-2.7812783412
 20
-22.5310194482
 11
-3.0
 21
-22.4
  0
LWPOLYLINE
  5
25E
100
AcDbEntity
  8
0
100
AcDbPolyline
 62
250
  6
CONTINUOUS
 90
16
 70
0
 10
-11.0004589101
 20
-20.9972959167
 10
-10.9968794369
 20
-20.9994689572
 10
-10.9879818724
 20
-21.0016187146
 10
-10.9738615497
 20
-21.0037221553
 10
-10.9546697613
 20
-21.005756742
 10
-10.9306121379
 20
-21.007700675
 10
-10.9019464456
 20
-21.009533126
 10
-10.8689798232
 20
-21.0112344612
 10
-10.8320654925
 20
-21.0127864516
 10
-10.7915989726
 20
-21.0141724684
 10
-10.7480138429
 20
-21.0153776611
 10
-10.701777097
 20
-21.0163891165
 10
-10.6533841395
 20
-21.0171959974
 10
-10.6033534777
 20
-21.0177896584
 10
-10.552221166
 20
-21.0181637387
 10
-10.5005350625
 20
-21.0183142302
  0
LWPOLYLINE
  5
25F
100
AcDbEntity
  8
0
100
AcDbPolyline
 62
250
  6
CONTINUOUS
 90
16
 70
0
 10
-11.0087219643
 20
-21.4755923698
 10
-11.0059389623
 20
-21.5277533032
 10
-10.9977157646
 20
-21.5793436708
 10
-10.9841422864
 20
-21.6297989097
 10
-10.9653669917
 20
-21.6785668706
 10
-10.9415952756
 20
-21.7251138478
 10
-10.9130872219
 20
-21.7689304222
 10
-10.8801547429
 20
-21.8095370623
 10
-10.843158184
 20
-21.8464893433
 10
-10.8025023985
 20
-21.8793828084
 10
-10.7586322667
 20
-21.9078574436
 10
-10.7120278628
 20
-21.9316015798
 10
-10.6631992385
 20
-21.9503553003
 10
-10.6126807679
 20
-21.9639133265
 10
-10.5610252917
 20
-21.9721272495
 10
-10.5087981166
 20
-21.974907137
  0
LWPOLYLINE
  5
260
100
AcDbEntity
  8
0
100
AcDbPolyline
 62
250
  6
CONTINUOUS
 90
16
 70
0
 10
-11.0087219643
 20
21.4755923698
 10
-11.0059388076
 20
21.5277547588
 10
-10.9977152003
 20
21.5793463095
 10
-10.9841411372
 20
21.6298024308
 10
-10.9653651658
 20
21.6785709568
 10
-10.9415927608
 20
21.7251181902
 10
-10.913084075
 20
21.768934742
 10
-10.8801510927
 20
21.8095411066
 10
-10.8431542155
 20
21.8464929089
 10
-10.8024983179
 20
21.8793857675
 10
-10.7586283172
 20
21.90785972
 10
-10.712024304
 20
21.931603162
 10
-10.6631962884
 20
21.9503562578
 10
-10.612678619
 20
21.9639137831
 10
-10.5610241352
 20
21.9721273713
 10
-10.5087981167
 20
21.9749071372
  0
LINE
  5
261
100
AcDbEntity
  8
0
100
AcDbLine
 62
250
  6
CONTINUOUS
 10
-2.6944652926
 20
-13.2000000538
 11
-2.7416473039
 21
-13.2000001456
  0
LWPOLYLINE
  5
262
100
AcDbEntity
  8
0
100
AcDbPolyline
 62
250
  6
CONTINUOUS
 90
7
 70
0
 10
-11.0046627389
 20
21.4041254633
 10
-11.0052891369
 20
21.4238228917
 10
-11.0059457953
 20
21.4406561357
 10
-11.0066187988
 20
21.4542838409
 10
-11.0073035089
 20
21.4645922227
 10
-11.0080045641
 20
21.4716950656
 10
-11.0087219643
 20
21.4755923698
  0
LWPOLYLINE
  5
263
100
AcDbEntity
  8
0
100
AcDbPolyline
 62
250
  6
CONTINUOUS
 90
5
 70
0
 10
-10.5060157159
 20
21.9047687004
 10
-10.5066888073
 20
21.9320760821
 10
-10.5073747238
 20
21.952953371
 10
-10.5080778269
 20
21.9672621499
 10
-10.5087981167
 20
21.9749071372
  0
LINE
  5
264
100
AcDbEntity
  8
0
100
AcDbLine
 62
250
  6
CONTINUOUS
 10
-11.0035024636
 20
21.3560260411
 11
-11.0046627389
 21
21.4041254633
  0
LINE
  5
265
100
AcDbEntity
  8
0
100
AcDbLine
 62
250
  6
CONTINUOUS
 10
-11.0024980441
 20
21.2979562724
 11
-11.0035024636
 21
21.3560260411
  0
LINE
  5
266
100
AcDbEntity
  8
0
100
AcDbLine
 62
250
  6
CONTINUOUS
 10
-10.5047341778
 20
21.8316431047
 11
-10.5060157159
 21
21.9047687004
  0
LINE
  5
267
100
AcDbEntity
  8
0
100
AcDbLine
 62
250
  6
CONTINUOUS
 10
-11.0013312402
 20
21.1949860367
 11
-11.0024980441
 21
21.2979562724
  0
LINE
  5
268
100
AcDbEntity
  8
0
100
AcDbLine
 62
250
  6
CONTINUOUS
 10
-10.5030519894
 20
21.6796926689
 11
-10.5047341778
 21
21.8316431047
  0
LINE
  5
269
100
AcDbEntity
  8
0
100
AcDbLine
 62
250
  6
CONTINUOUS
 10
-11.0006377707
 20
21.0790132523
 11
-11.0013312402
 21
21.1949860367
  0
LINE
  5
26A
100
AcDbEntity
  8
0
100
AcDbLine
 62
250
  6
CONTINUOUS
 10
-10.5011186535
 20
21.3380089963
 11
-10.5030519894
 21
21.6796926689
  0
LINE
  5
26B
100
AcDbEntity
  8
0
100
AcDbLine
 62
250
  6
CONTINUOUS
 10
-10.5005350625
 20
21.0183142309
 11
-10.5011186535
 21
21.3380089963
  0
LINE
  5
26C
100
AcDbEntity
  8
0
100
AcDbLine
 62
7
  6
CONTINUOUS
 10
-11.15
 20
21.8997711479
 11
-11.15
 21
-21.8997711479
  0
LWPOLYLINE
  5
26D
100
AcDbEntity
  8
0
100
AcDbPolyline
 62
250
  6
CONTINUOUS
 90
9
 70
0
 10
-10.9974142989
 20
-16.3324771154
 10
-10.99513084
 20
-11.6670364005
 10
-10.9936085333
 20
-7.0009737718
 10
-10.9928473781
 20
-2.3338756638
 10
-10.9928473752
 20
2.3338443579
 10
-10.9936085267
 20
7.0009455965
 10
-10.9951308334
 20
11.6670144863
 10
-10.9974142946
 20
16.3324645931
 10
-11.0006377707
 20
21.0790132523
  0
LWPOLYLINE
  5
26E
100
AcDbEntity
  8
0
100
AcDbPolyline
 62
250
  6
CONTINUOUS
 90
9
 70
0
 10
-10.497490446
 20
-16.349481053
 10
-10.4952069837
 20
-11.6792204116
 10
-10.4936846755
 20
-7.0079400855
 10
-10.4929235215
 20
-2.3360479917
 10
-10.4929235217
 20
2.3360479976
 10
-10.4936846759
 20
7.0079400907
 10
-10.4952069841
 20
11.6792204157
 10
-10.4974904463
 20
16.3494810554
 10
-10.5005350625
 20
21.0183142309
  0
LINE
  5
26F
100
AcDbEntity
  8
0
100
AcDbLine
 62
250
  6
CONTINUOUS
 10
-11.00081144
 20
-21.1184484404
 11
-10.9974142989
 21
-16.3324771154
  0
LINE
  5
270
100
AcDbEntity
  8
0
100
AcDbLine
 62
250
  6
CONTINUOUS
 10
-10.5017441538
 20
-21.4854586496
 11
-10.497490446
 21
-16.349481053
  0
LINE
  5
271
100
AcDbEntity
  8
0
100
AcDbLine
 62
250
  6
CONTINUOUS
 10
-11.0016694038
 20
-21.2310600855
 11
-11.00081144
 21
-21.1184484404
  0
LINE
  5
272
100
AcDbEntity
  8
0
100
AcDbLine
 62
250
  6
CONTINUOUS
 10
-10.5035748986
 20
-21.7355556626
 11
-10.5017441538
 21
-21.4854586496
  0
LINE
  5
273
100
AcDbEntity
  8
0
100
AcDbLine
 62
250
  6
CONTINUOUS
 10
-10.5047341778
 20
-21.8316431047
 11
-10.5035748986
 21
-21.7355556626
  0
LINE
  5
274
100
AcDbEntity
  8
0
100
AcDbLine
 62
250
  6
CONTINUOUS
 10
-11.0024980441
 20
-21.2979562723
 11
-11.0016694038
 21
-21.2310600855
  0
LINE
  5
275
100
AcDbEntity
  8
0
100
AcDbLine
 62
250
  6
CONTINUOUS
 10
-11.0035024636
 20
-21.3560260412
 11
-11.0024980441
 21
-21.2979562723
  0
LWPOLYLINE
  5
276
100
AcDbEntity
  8
0
100
AcDbPolyline
 62
250
  6
CONTINUOUS
 90
6
 70
0
 10
-10.5087981167
 20
-21.9749071372
 10
-10.5080778269
 20
-21.9672621499
 10
-10.5073747238
 20
-21.952953371
 10
-10.5066888073
 20
-21.9320760821
 10
-10.5060157159
 20
-21.9047687004
 10
-10.5047341778
 20
-21.8316431047
  0
LWPOLYLINE
  5
277
100
AcDbEntity
  8
0
100
AcDbPolyline
 62
7
  6
CONTINUOUS
 90
3
 70
0
 43
0.3500000006
 10
1.1428571477
 20
36.2670052185
 10
1.0714285848
 20
36.0527207336
 10
0.9285714591
 20
35.7670050659
  0
LINE
  5
278
100
AcDbEntity
  8
RACCORDO
100
AcDbLine
 62
250
  6
CONTINUOUS
 10
-2.2713081332
 20
10.8766825986
 11
-2.1891662593
 21
10.9531525312
  0
LINE
  5
279
100
AcDbEntity
  8
RACCORDO
100
AcDbLine
 62
250
  6
CONTINUOUS
 10
-2.1891662593
 20
10.9531525312
 11
-2.1403855719
 21
10.9980292333
  0
LWPOLYLINE
  5
27A
100
AcDbEntity
  8
RACCORDO
100
AcDbPolyline
 62
250
  6
CONTINUOUS
 90
7
 70
0
 10
-2.1403855719
 20
10.9980292333
 10
-2.1001653419
 20
11.0345448699
 10
-2.0841141613
 20
11.0488951814
 10
-2.071135619
 20
11.0603116413
 10
-2.0614427602
 20
11.0686068468
 10
-2.0551946947
 20
11.0736446307
 10
-2.0524939854
 20
11.0753422968
  0
LWPOLYLINE
  5
27B
100
AcDbEntity
  8
RACCORDO
100
AcDbPolyline
 62
250
  6
CONTINUOUS
 90
7
 70
0
 10
2.0509497935
 20
10.5509468344
 10
2.0279078492
 20
10.538563031
 10
2.0084448196
 20
10.5279396551
 10
1.9928904653
 20
10.5192566964
 10
1.9815083223
 20
10.5126612691
 10
1.974491237
 20
10.5082651191
 10
1.9719580992
 20
10.5061427301
  0
LINE
  5
27C
100
AcDbEntity
  8
RACCORDO
100
AcDbLine
 62
250
  6
CONTINUOUS
 10
2.1061548138
 20
10.5801301822
 11
2.0509497935
 21
10.5509468344
  0
LINE
  5
27D
100
AcDbEntity
  8
RACCORDO
100
AcDbLine
 62
250
  6
CONTINUOUS
 10
2.1703343967
 20
10.6135202744
 11
2.1061548138
 21
10.5801301822
  0
LINE
  5
27E
100
AcDbEntity
  8
RACCORDO
100
AcDbLine
 62
250
  6
CONTINUOUS
 10
2.2391574139
 20
10.648863797
 11
2.1703343967
 21
10.6135202744
  0
LINE
  5
27F
100
AcDbEntity
  8
RACCORDO
100
AcDbLine
 62
250
  6
CONTINUOUS
 10
2.0525039554
 20
-11.0753329509
 11
2.0368643032
 21
-11.0787546199
  0
LWPOLYLINE
  5
280
100
AcDbEntity
  8
DRAFT
100
AcDbPolyline
 62
250
  6
CONTINUOUS
 90
9
 70
0
 10
-1.8979432834
 20
-8.3901587401
 10
-1.1534931932
 20
-8.3176771593
 10
-0.73990842
 20
-8.278139163
 10
-0.3221377623
 20
-8.2386651149
 10
0.0998194692
 20
-8.1993295701
 10
0.5259916576
 20
-8.1603159225
 10
0.9563913115
 20
-8.1216975806
 10
1.3910113094
 20
-8.0834381157
 10
1.6615057948
 20
-8.0600879796
  0
LINE
  5
281
100
AcDbEntity
  8
RACCORDO
100
AcDbLine
 62
250
  6
CONTINUOUS
 10
1.9719149843
 20
-10.5062610528
 11
1.9560463857
 21
-10.5069173437
  0
LINE
  5
282
100
AcDbEntity
  8
0
100
AcDbLine
 62
250
  6
CONTINUOUS
 10
-2.0966613053
 20
-9.2000001751
 11
-2.1788482758
 21
-9.2000003554
  0
LINE
  5
283
100
AcDbEntity
  8
RACCORDO
100
AcDbLine
 62
250
  6
CONTINUOUS
 10
-1.9719718384
 20
-10.506149737
 11
-1.9560463857
 21
-10.5069173437
  0
LINE
  5
284
100
AcDbEntity
  8
RACCORDO
100
AcDbLine
 62
250
  6
CONTINUOUS
 10
-2.0524109892
 20
-11.0752337466
 11
-2.0368643032
 21
-11.0787546199
  0
LINE
  5
285
100
AcDbEntity
  8
RACCORDO
100
AcDbLine
 62
250
  6
CONTINUOUS
 10
2.2391574142
 20
-10.6488638707
 11
2.1703406543
 21
-10.6135233767
  0
LINE
  5
286
100
AcDbEntity
  8
RACCORDO
100
AcDbLine
 62
250
  6
CONTINUOUS
 10
2.1703406543
 20
-10.6135233767
 11
2.1061679468
 21
-10.5801366959
  0
LWPOLYLINE
  5
287
100
AcDbEntity
  8
RACCORDO
100
AcDbPolyline
 62
250
  6
CONTINUOUS
 90
8
 70
0
 10
2.1061679468
 20
-10.5801366959
 10
2.0509694911
 20
-10.5509566707
 10
2.0279304438
 20
-10.5385743563
 10
2.0084699291
 20
-10.5279522887
 10
1.99291763
 20
-10.5192704151
 10
1.9815370198
 20
-10.5126758148
 10
1.9745208981
 20
-10.5082802075
 10
1.9719881256
 20
-10.5061580594
  0
LWPOLYLINE
  5
288
100
AcDbEntity
  8
RACCORDO
100
AcDbPolyline
 62
250
  6
CONTINUOUS
 90
6
 70
0
 10
-2.1001816157
 20
-11.0345295474
 10
-2.0841322828
 20
-11.0488781304
 10
-2.0711552743
 20
-11.06029316
 10
-2.0614635909
 20
-11.0685872749
 10
-2.0552163083
 20
-11.0736243381
 10
-2.0525159674
 20
-11.0753216733
  0
LINE
  5
289
100
AcDbEntity
  8
RACCORDO
100
AcDbLine
 62
250
  6
CONTINUOUS
 10
-2.1403974342
 20
-10.9980180515
 11
-2.1001816157
 21
-11.0345295474
  0
LINE
  5
28A
100
AcDbEntity
  8
RACCORDO
100
AcDbLine
 62
250
  6
CONTINUOUS
 10
-2.1891732102
 20
-10.95314598
 11
-2.1403974342
 21
-10.9980180515
  0
LINE
  5
28B
100
AcDbEntity
  8
RACCORDO
100
AcDbLine
 62
250
  6
CONTINUOUS
 10
-2.2713081333
 20
-10.8766826487
 11
-2.1891732102
 21
-10.95314598
  0
LWPOLYLINE
  5
28C
100
AcDbEntity
  8
RACCORDO
100
AcDbPolyline
 62
250
  6
CONTINUOUS
 90
22
 70
0
 10
-2.1031256445
 20
-14.8663557629
 10
-2.2293464213
 20
-14.7137479536
 10
-2.3445268735
 20
-14.5526211719
 10
-2.4480857738
 20
-14.3837812873
 10
-2.5395050659
 20
-14.2080724535
 10
-2.6183350944
 20
-14.0263583138
 10
-2.6841861476
 20
-13.8395260463
 10
-2.7367327527
 20
-13.6484799697
 10
-2.7757023665
 20
-13.4541873607
 10
-2.800891138
 20
-13.2576632853
 10
-2.8121800526
 20
-13.0599203242
 10
-2.8095260232
 20
-12.8619037676
 10
-2.7929409431
 20
-12.6645387593
 10
-2.7625011388
 20
-12.4688005008
 10
-2.7183529801
 20
-12.2756651487
 10
-2.660695244
 20
-12.0860507577
 10
-2.5897606873
 20
-11.9008093386
 10
-2.5059152174
 20
-11.7209661371
 10
-2.4096977581
 20
-11.5476472344
 10
-2.3016723214
 20
-11.3817655343
 10
-2.18236916
 20
-11.2240426533
 10
-2.0524109892
 20
-11.0752337466
  0
LWPOLYLINE
  5
28D
100
AcDbEntity
  8
RACCORDO
100
AcDbPolyline
 62
250
  6
CONTINUOUS
 90
22
 70
0
 10
-2.327734767
 20
-15.0742017517
 10
-2.467085189
 20
-14.9053958621
 10
-2.5949464957
 20
-14.7263573902
 10
-2.709418371
 20
-14.5397331191
 10
-2.8102988029
 20
-14.3454173439
 10
-2.8977898035
 20
-14.1435153182
 10
-2.9705970928
 20
-13.936990444
 10
-3.0285041547
 20
-13.7257497842
 10
-3.0717275054
 20
-13.5098860236
 10
-3.0996224141
 20
-13.2926412156
 10
-3.1119591093
 20
-13.0740339979
 10
-3.1089673625
 20
-12.85404572
 10
-3.090691757
 20
-12.6358627283
 10
-3.0569183042
 20
-12.4195039838
 10
-3.0078609928
 20
-12.2049507271
 10
-2.944206371
 20
-11.9953329277
 10
-2.8656573659
 20
-11.7906147881
 10
-2.7725110506
 20
-11.5908324711
 10
-2.6663451929
 20
-11.399224063
 10
-2.5476857154
 20
-11.2168691225
 10
-2.4160066956
 20
-11.0426885806
 10
-2.2713081333
 20
-10.8766826487
  0
LWPOLYLINE
  5
28E
100
AcDbEntity
  8
0
100
AcDbPolyline
 62
250
  6
CONTINUOUS
 90
8
 70
0
 10
-11.0087219643
 20
-21.4755923698
 10
-11.0080045641
 20
-21.4716950654
 10
-11.0073035089
 20
-21.4645922224
 10
-11.0066187988
 20
-21.4542838406
 10
-11.0059457953
 20
-21.4406561355
 10
-11.0052891369
 20
-21.4238228918
 10
-11.0046627389
 20
-21.4041254635
 10
-11.0035024636
 20
-21.3560260412
  0
LINE
  5
28F
100
AcDbEntity
  8
0
100
AcDbLine
 62
250
  6
CONTINUOUS
 10
-11.15
 20
-21.8997711479
 11
-11.0087219643
 21
-21.4755923698
  0
LWPOLYLINE
  5
290
100
AcDbEntity
  8
RACCORDO
100
AcDbPolyline
 62
250
  6
CONTINUOUS
 90
13
 70
0
 10
-2.2391574142
 20
10.6488638707
 10
-2.230719169
 20
10.6679363743
 10
-2.2243294985
 20
10.6873200602
 10
-2.2199884026
 20
10.7070149274
 10
-2.2176991911
 20
10.7272219936
 10
-2.2174585543
 20
10.7477402392
 10
-2.219256563
 20
10.7679666096
 10
-2.2231465067
 20
10.7878966348
 10
-2.2290750959
 20
10.8075347863
 10
-2.2368725329
 20
10.8262914253
 10
-2.2464822186
 20
10.8439700073
 10
-2.257960752
 20
10.8607670811
 10
-2.2713081333
 20
10.8766826487
  0
LWPOLYLINE
  5
291
100
AcDbEntity
  8
RACCORDO
100
AcDbPolyline
 62
250
  6
CONTINUOUS
 90
12
 70
0
 10
-1.9719150571
 20
10.50626106
 10
-1.9510727139
 20
10.5528722513
 10
-1.9350972984
 20
10.601345194
 10
-1.9241491062
 20
10.65117294
 10
-1.9183360955
 20
10.7018292241
 10
-1.9177107721
 20
10.7527926289
 10
-1.9222761711
 20
10.803552166
 10
-1.9319836501
 20
10.8535782702
 10
-1.9467317782
 20
10.9023537564
 10
-1.9663781354
 20
10.9493954506
 10
-1.9907297052
 20
10.9942188138
 10
-2.0011106255
 20
11.0104856068
  0
LWPOLYLINE
  5
292
100
AcDbEntity
  8
RACCORDO
100
AcDbPolyline
 62
7
  6
CONTINUOUS
 90
3
 70
0
 10
1.9501949232
 20
10.9527989577
 10
1.9744190796
 20
10.997142713
 10
2.0033088729
 20
11.0391279337
  0
LWPOLYLINE
  5
293
100
AcDbEntity
  8
RACCORDO
100
AcDbPolyline
 62
250
  6
CONTINUOUS
 90
13
 70
0
 10
2.2713081333
 20
10.8766826487
 10
2.2579222048
 20
10.8607030248
 10
2.2464186271
 20
10.843854083
 10
2.2367974002
 20
10.8261358216
 10
2.229005889
 20
10.8073536241
 10
2.2230967285
 20
10.7877021025
 10
2.2192278244
 20
10.7677650993
 10
2.217452485
 20
10.747531739
 10
2.2177174019
 20
10.7270128958
 10
2.2200205552
 20
10.7068250393
 10
2.2243612717
 20
10.6871736607
 10
2.2307402247
 20
10.6678532709
 10
2.2391574142
 20
10.6488638707
  0
LWPOLYLINE
  5
294
100
AcDbEntity
  8
RACCORDO
100
AcDbPolyline
 62
7
  6
CONTINUOUS
 90
4
 70
0
 10
2.0524109944
 20
11.0752337342
 10
2.0194631973
 20
11.0362495618
 10
1.9906709742
 20
10.9941227156
 10
1.9731171522
 20
10.9629374531
  0
LINE
  5
295
100
AcDbEntity
  8
RACCORDO
100
AcDbLine
 62
7
  6
CONTINUOUS
 10
2.0033088729
 20
11.0391279337
 11
2.0368643031
 21
11.0787546199
  0
LWPOLYLINE
  5
296
100
AcDbEntity
  8
RACCORDO
100
AcDbPolyline
 62
250
  6
CONTINUOUS
 90
46
 70
0
 10
2.0525039554
 20
-11.0753329509
 10
2.1823681482
 20
-11.2240414063
 10
2.3016123016
 20
-11.3816800999
 10
2.4096087875
 20
-11.547499499
 10
2.5058265235
 20
-11.7207922086
 10
2.5896891516
 20
-11.9006406095
 10
2.6606407063
 20
-12.0858917652
 10
2.7183124965
 20
-12.2755129448
 10
2.7624740701
 20
-12.4686593781
 10
2.7929249295
 20
-12.6644048956
 10
2.8095194275
 20
-12.8617682276
 10
2.8121831371
 20
-13.059778853
 10
2.8009045718
 20
-13.2575180498
 10
2.7757260275
 20
-13.4540432124
 10
2.7367662202
 20
-13.6483390432
 10
2.6842291442
 20
-13.8393888133
 10
2.6183875543
 20
-14.0262246757
 10
2.5395667801
 20
-14.2079428828
 10
2.448156462
 20
-14.3836563664
 10
2.3446062165
 20
-14.5525014769
 10
2.2294340735
 20
-14.7136340313
 10
2.1032211669
 20
-14.8662482101
 10
1.9665985569
 20
-15.0095872539
 10
1.8202432869
 20
-15.1429464263
 10
1.6648836945
 20
-15.2656689872
 10
1.5012914968
 20
-15.3771498245
 10
1.3302782446
 20
-15.4768398163
 10
1.1526918688
 20
-15.5642498647
 10
0.969413791
 20
-15.6389497772
 10
0.7813506999
 20
-15.7005731259
 10
0.5894292175
 20
-15.7488196117
 10
0.3945996112
 20
-15.7834523592
 10
0.1978251336
 20
-15.8043016543
 10
0.0000723926
 20
-15.8112662125
 10
-0.1976807285
 20
-15.8043118313
 10
-0.3944563343
 20
-15.783472655
 10
-0.5892877956
 20
-15.7488499145
 10
-0.7812118483
 20
-15.7006132707
 10
-0.9692782115
 20
-15.6389995466
 10
-1.1525602346
 20
-15.5643089949
 10
-1.3301512176
 20
-15.4769079909
 10
-1.5011697038
 20
-15.377226685
 10
-1.6647676978
 20
-15.2657541585
 10
-1.8201335958
 20
-15.143039523
 10
-1.9664956855
 20
-15.0096878379
 10
-2.1031256445
 20
-14.8663557629
  0
LWPOLYLINE
  5
297
100
AcDbEntity
  8
RACCORDO
100
AcDbPolyline
 62
250
  6
CONTINUOUS
 90
46
 70
0
 10
2.2713081333
 20
-10.8766826487
 10
2.4159656764
 20
-11.0426261146
 10
2.5476176099
 20
-11.2167610213
 10
2.6662639338
 20
-11.399087157
 10
2.7724356581
 20
-11.5906876216
 10
2.8656017728
 20
-11.7904788248
 10
2.944169248
 20
-11.995210586
 10
3.007836199
 20
-12.2048458245
 10
3.0569045106
 20
-12.4194212554
 10
3.0906868073
 20
-12.6357975694
 10
3.1089685671
 20
-12.8539882528
 10
3.1119643119
 20
-13.0739796181
 10
3.0996302325
 20
-13.2925917995
 10
3.0717368081
 20
-13.5098463824
 10
3.0285135594
 20
-13.725721794
 10
2.9706052391
 20
-13.9369736561
 10
2.8977953124
 20
-14.1435086001
 10
2.8103003142
 20
-14.3454202468
 10
2.7094146021
 20
-14.5397449205
 10
2.5949361226
 20
-14.726377386
 10
2.4670669292
 20
-14.9054233298
 10
2.3277075399
 20
-15.0742356389
 10
2.1766901745
 20
-15.2326577829
 10
2.0141826132
 20
-15.3808468661
 10
1.842588715
 20
-15.5166263526
 10
1.6617753733
 20
-15.639812093
 10
1.4718756947
 20
-15.7505888207
 10
1.2756928567
 20
-15.8473333813
 10
1.0731364371
 20
-15.9298381383
 10
0.8642968582
 20
-15.9983112031
 10
0.6522485652
 20
-16.0517530379
 10
0.436946325
 20
-16.0899428168
 10
0.2184353707
 20
-16.1131016314
 10
-0.000074153
 20
-16.1208927712
 10
-0.218582135
 20
-16.1130912528
 10
-0.4370886865
 20
-16.0899220594
 10
-0.6523839956
 20
-16.0517233656
 10
-0.8644222367
 20
-15.9982744564
 10
-1.0732492354
 20
-15.9297957809
 10
-1.2757926571
 20
-15.8472872096
 10
-1.4719624137
 20
-15.7505408616
 10
-1.6618485933
 20
-15.639764143
 10
-1.8426491255
 20
-15.5165798501
 10
-2.0142311427
 20
-15.380803259
 10
-2.1767275125
 20
-15.2326185096
 10
-2.327734767
 20
-15.0742017517
  0
LWPOLYLINE
  5
298
100
AcDbEntity
  8
RACCORDO
100
AcDbPolyline
 62
7
  6
CONTINUOUS
 90
4
 70
0
 10
2.0368643031
 20
-11.0787546199
 10
2.0035136409
 20
-11.0394072316
 10
1.9747643263
 20
-10.9977127155
 10
1.9506163595
 20
-10.9536710718
  0
LWPOLYLINE
  5
299
100
AcDbEntity
  8
RACCORDO
100
AcDbPolyline
 62
7
  6
CONTINUOUS
 90
3
 70
0
 10
2.0011106255
 20
-11.0104856068
 10
2.0195363661
 20
-11.0363456684
 10
2.0525039554
 20
-11.0753329509
  0
LWPOLYLINE
  5
29A
100
AcDbEntity
  8
RACCORDO
100
AcDbPolyline
 62
250
  6
CONTINUOUS
 90
45
 70
0
 10
-1.9719718384
 20
-10.506149737
 10
-2.0387516803
 20
-10.3630006854
 10
-2.0952374256
 20
-10.2152118894
 10
-2.1410896649
 20
-10.0635186152
 10
-2.1760415947
 20
-9.9085757046
 10
-2.1998245174
 20
-9.7512709969
 10
-2.2122466372
 20
-9.5927333996
 10
-2.2132624874
 20
-9.4339036132
 10
-2.2028958894
 20
-9.2754784488
 10
-2.181207646
 20
-9.1182328859
 10
-2.1483161517
 20
-8.9629757526
 10
-2.1043969442
 20
-8.8105021553
 10
-2.0496650769
 20
-8.6615534446
 10
-1.9843897303
 20
-8.516876525
 10
-1.9089108897
 20
-8.3772365661
 10
-1.8236260683
 20
-8.2433703349
 10
-1.7289790709
 20
-8.1159695187
 10
-1.6254550692
 20
-7.9956824934
 10
-1.5135900442
 20
-7.8831285239
 10
-1.3939643832
 20
-7.7788867987
 10
-1.267191387
 20
-7.6834871291
 10
-1.1339149406
 20
-7.5974118399
 10
-0.9948159711
 20
-7.5211003645
 10
-0.8506128196
 20
-7.4549463802
 10
-0.7020489777
 20
-7.3992897339
 10
-0.5498908621
 20
-7.3544156218
 10
-0.3949171479
 20
-7.3205517568
 10
-0.2379170236
 20
-7.2978697495
 10
-0.0796948169
 20
-7.2864858523
 10
0.0789356182
 20
-7.2864586411
 10
0.2371617714
 20
-7.2977882608
 10
0.3941698462
 20
-7.3204164396
 10
0.5491553906
 20
-7.3542272082
 10
0.7013289233
 20
-7.3990491606
 10
0.8499114073
 20
-7.4546546888
 10
0.9941366588
 20
-7.5207589031
 10
1.1332617122
 20
-7.5970225463
 10
1.2665686743
 20
-7.6830527312
 10
1.3933756982
 20
-7.7784099955
 10
1.5130374717
 20
-7.882611212
 10
1.6249397838
 20
-7.9951256541
 10
1.7285032321
 20
-8.1153749973
 10
1.8231931049
 20
-8.2427418973
 10
1.9085242411
 20
-8.3765790306
 10
1.9840518639
 20
-8.5161943461
  0
LWPOLYLINE
  5
29B
100
AcDbEntity
  8
RACCORDO
100
AcDbPolyline
 62
250
  6
CONTINUOUS
 90
45
 70
0
 10
-2.2391574142
 20
-10.6488638707
 10
-2.3154634911
 20
-10.4849629103
 10
-2.379430803
 20
-10.3174632561
 10
-2.43105935
 20
-10.1463648516
 10
-2.4705336705
 20
-9.9706253875
 10
-2.4976692261
 20
-9.7912870483
 10
-2.5119124011
 20
-9.6114765866
 10
-2.5130086511
 20
-9.431329735
 10
-2.5012125204
 20
-9.2507107899
 10
-2.4767340272
 20
-9.0723394714
 10
-2.4393905594
 20
-8.8962523439
 10
-2.3893647291
 20
-8.722412975
 10
-2.32741439
 20
-8.5534316888
 10
-2.2533509445
 20
-8.3893602192
 10
-2.1673629903
 20
-8.2301470362
 10
-2.0707741745
 20
-8.0782476464
 10
-1.9634220093
 20
-7.9337824737
 10
-1.8454689825
 20
-7.7966313319
 10
-1.7187262046
 20
-7.6688888653
 10
-1.5830635897
 20
-7.5507029964
 10
-1.4386112237
 20
-7.441926032
 10
-1.2875704749
 20
-7.3442092182
 10
-1.1298362485
 20
-7.2577192447
 10
-0.9655136392
 20
-7.1822896089
 10
-0.7971192997
 20
-7.1190717727
 10
-0.6245944964
 20
-7.0682545912
 10
-0.4479979629
 20
-7.0296493306
 10
-0.2700225519
 20
-7.0038410577
 10
-0.0906463258
 20
-6.9910251184
 10
0.0901087778
 20
-6.9910062088
 10
0.2694840931
 20
-7.0037834017
 10
0.4474569011
 20
-7.0295516573
 10
0.6240499207
 20
-7.0681159736
 10
0.7965726432
 20
-7.1188904614
 10
0.9649660152
 20
-7.1820629779
 10
1.1292890901
 20
-7.2574455447
 10
1.2870285191
 20
-7.3438885079
 10
1.4380807219
 20
-7.4415589891
 10
1.5825492788
 20
-7.5502896796
 10
1.7182315828
 20
-7.6684292845
 10
1.8449966974
 20
-7.7961244395
 10
1.9629755589
 20
-7.9332282796
 10
2.070358369
 20
-8.0776492839
 10
2.1669835017
 20
-8.2295082841
 10
2.2530125829
 20
-8.3886842108
  0
LWPOLYLINE
  5
29C
100
AcDbEntity
  8
RACCORDO
100
AcDbPolyline
 62
7
  6
CONTINUOUS
 90
10
 70
0
 10
-1.9560463857
 20
-10.5069173437
 10
-1.9347773989
 20
-10.5543748013
 10
-1.9186473328
 20
-10.6027625519
 10
-1.9076561874
 20
-10.6520805955
 10
-1.9017829156
 20
-10.7028743414
 10
-1.9010485645
 20
-10.7545983804
 10
-1.9055162755
 20
-10.8056164843
 10
-1.9153859043
 20
-10.8559341103
 10
-1.9304575953
 20
-10.9055458013
 10
-1.9501949232
 20
-10.9527989577
  0
LINE
  5
29D
100
AcDbEntity
  8
0
100
AcDbLine
 62
250
  6
CONTINUOUS
 10
-11.0087219643
 20
21.4755923698
 11
-11.15
 21
21.8997711479
  0
LINE
  5
29E
100
AcDbEntity
  8
DRAFT
100
AcDbLine
 62
7
  6
CONTINUOUS
 10
-3.0
 20
-23.5
 11
-3.0
 21
-22.4
  0
LINE
  5
29F
100
AcDbEntity
  8
DRAFT
100
AcDbLine
 62
7
  6
CONTINUOUS
 10
-3.0
 20
22.4
 11
-3.0
 21
23.5
  0
LINE
  5
2A0
100
AcDbEntity
  8
DRAFT
100
AcDbLine
 62
7
  6
CONTINUOUS
 10
-2.7812783412
 20
-23.4563623377
 11
-2.7812783412
 21
-22.5310194482
  0
LINE
  5
2A1
100
AcDbEntity
  8
DRAFT
100
AcDbLine
 62
7
  6
CONTINUOUS
 10
-2.7812783412
 20
22.5310194482
 11
-2.7812783412
 21
23.4563623377
  0
LINE
  5
2A2
100
AcDbEntity
  8
0
100
AcDbLine
 62
7
  6
CONTINUOUS
 10
-2.5
 20
0.1946696471
 11
-2.5
 21
-0.1948447879
  0
LINE
  5
2A3
100
AcDbEntity
  8
0
100
AcDbLine
 62
7
  6
CONTINUOUS
 10
-0.5
 20
-0.5
 11
-0.5
 21
-1.5505437039
  0
LINE
  5
2A4
100
AcDbEntity
  8
0
100
AcDbLine
 62
250
  6
CONTINUOUS
 10
-0.5
 20
-0.4
 11
-0.5
 21
-0.5
  0
LINE
  5
2A5
100
AcDbEntity
  8
0
100
AcDbLine
 62
250
  6
CONTINUOUS
 10
0.0
 20
-2.75
 11
0.0
 21
-1.6
  0
LINE
  5
2A6
100
AcDbEntity
  8
0
100
AcDbLine
 62
250
  6
CONTINUOUS
 10
0.0
 20
1.6
 11
0.0
 21
2.75
  0
LINE
  5
2A7
100
AcDbEntity
  8
SMUSSO
100
AcDbLine
 62
7
  6
CONTINUOUS
 10
0.4368055494
 20
-1.5627530983
 11
0.4368055494
 21
-0.5
  0
LINE
  5
2A8
100
AcDbEntity
  8
DRAFT
100
AcDbLine
 62
7
  6
CONTINUOUS
 10
0.5
 20
-0.5
 11
0.5
 21
-1.5504607928
  0
LINE
  5
2A9
100
AcDbEntity
  8
DRAFT
100
AcDbLine
 62
7
  6
CONTINUOUS
 10
-2.7384728487
 20
13.2342837424
 11
-2.7412936679
 21
12.7846493531
  0
LINE
  5
2AA
100
AcDbEntity
  8
DRAFT
100
AcDbLine
 62
7
  6
CONTINUOUS
 10
-1.8278442714
 20
8.2765179095
 11
-1.7682568484
 21
15.1045602756
  0
LINE
  5
2AB
100
AcDbEntity
  8
ASSI
100
AcDbLine
 62
7
  6
CONTINUOUS
 10
-2.6475828055
 20
-12.0929917457
 11
-2.7217941262
 21
-12.6071428571
  0
LINE
  5
2AC
100
AcDbEntity
  8
0
100
AcDbLine
 62
7
  6
CONTINUOUS
 10
-2.7223229517
 20
-13.3864000029
 11
-2.4673582341
 21
-11.6803912427
  0
LINE
  5
2AD
100
AcDbEntity
  8
0
100
AcDbLine
 62
7
  6
CONTINUOUS
 10
-2.1818435754
 20
-9.7699680528
 11
-2.007238072
 21
-8.6016553497
  0
LINE
  5
2AE
100
AcDbEntity
  8
DRAFT
100
AcDbLine
 62
7
  6
CONTINUOUS
 10
-2.7180473238
 20
-13.4152941982
 11
-2.455480131
 21
-11.6585156308
  0
LINE
  5
2AF
100
AcDbEntity
  8
DRAFT
100
AcDbLine
 62
7
  6
CONTINUOUS
 10
-2.1777435779
 20
-9.8002422544
 11
-1.9940183436
 21
-8.570977659
  0
LWPOLYLINE
  5
2B0
100
AcDbEntity
  8
0
100
AcDbPolyline
 62
7
  6
CONTINUOUS
 90
8
 70
0
 10
2.5533121669
 20
12.2555224363
 10
2.5659112166
 20
12.3046471076
 10
2.5934544895
 20
12.4312157866
 10
2.6164204245
 20
12.5584817681
 10
2.6349260552
 20
12.6862707038
 10
2.6490905668
 20
12.8144193891
 10
2.6590436159
 20
12.9428188425
 10
2.6603711371
 20
12.9718707323
  0
LINE
  5
2B1
100
AcDbEntity
  8
0
100
AcDbLine
 62
250
  6
CONTINUOUS
 10
-10.6503805997
 20
-22.4
 11
-10.5087981167
 21
-21.9749071372
  0
LWPOLYLINE
  5
2B2
100
AcDbEntity
  8
0
100
AcDbPolyline
 62
7
  6
CONTINUOUS
 90
10
 70
0
 10
-2.4989651867
 20
0.7723370264
 10
-2.5040748532
 20
0.7600834889
 10
-2.5093855982
 20
0.7478144404
 10
-2.5148943891
 20
0.7355419543
 10
-2.520606671
 20
0.7232599382
 10
-2.5265101949
 20
0.7110007229
 10
-2.5325729628
 20
0.6988329125
 10
-2.5387792506
 20
0.6867866723
 10
-2.5451316508
 20
0.6748558928
 10
-2.5516234743
 20
0.6630532548
  0
LWPOLYLINE
  5
2B3
100
AcDbEntity
  8
RACCORDO
100
AcDbPolyline
 62
250
  6
CONTINUOUS
 90
11
 70
0
 10
1.9731171522
 20
10.9629374531
 10
1.9663300067
 20
10.9492949096
 10
1.9466908291
 20
10.902239576
 10
1.9319505064
 20
10.8534441571
 10
1.9222551915
 20
10.8034035795
 10
1.9177049522
 20
10.7526408369
 10
1.9183455513
 20
10.7016807179
 10
1.9241728703
 20
10.6510306915
 10
1.9351341214
 20
10.6012108567
 10
1.9511207116
 20
10.5527483479
 10
1.9719718384
 20
10.506149737
  0
LWPOLYLINE
  5
2B4
100
AcDbEntity
  8
0
100
AcDbPolyline
 62
250
  6
CONTINUOUS
 90
10
 70
0
 10
-2.3428742936
 20
0.6405958576
 10
-2.3484371741
 20
0.6304981075
 10
-2.3541315106
 20
0.6203833775
 10
-2.3599551578
 20
0.6102568539
 10
-2.3659029988
 20
0.6001286685
 10
-2.3719753704
 20
0.5899995032
 10
-2.3781784665
 20
0.57986089
 10
-2.384512881
 20
0.5697143146
 10
-2.3909731973
 20
0.5595709223
 10
-2.3975566956
 20
0.5494373327
  0
LWPOLYLINE
  5
2B5
100
AcDbEntity
  8
0
100
AcDbPolyline
 62
7
  6
CONTINUOUS
 90
5
 70
0
 10
-2.5516234743
 20
0.6630532548
 10
-2.5912757792
 20
0.5981101448
 10
-2.6359825488
 20
0.5360605589
 10
-2.6854156596
 20
0.4774147896
 10
-2.711955858
 20
0.450425304
  0
LWPOLYLINE
  5
2B6
100
AcDbEntity
  8
0
100
AcDbPolyline
 62
250
  6
CONTINUOUS
 90
8
 70
0
 10
-2.3975566956
 20
0.5494373327
 10
-2.4378105218
 20
0.4929865304
 10
-2.4825446175
 20
0.4394745289
 10
-2.5314755805
 20
0.3892823516
 10
-2.5841773304
 20
0.3429059726
 10
-2.6404617915
 20
0.3005452776
 10
-2.7004101345
 20
0.2621479747
 10
-2.7381052375
 20
0.2418233975
  0
LINE
  5
2B7
100
AcDbEntity
  8
0
100
AcDbLine
 62
250
  6
CONTINUOUS
 10
-2.1311263876
 20
0.572937263
 11
-2.1885546383
 21
0.4948032522
  0
LWPOLYLINE
  5
2B8
100
AcDbEntity
  8
0
100
AcDbPolyline
 62
7
  6
CONTINUOUS
 90
7
 70
0
 10
-2.0533697816
 20
0.5948895071
 10
-2.0634543677
 20
0.5818204941
 10
-2.0733994752
 20
0.5687621297
 10
-2.0832061139
 20
0.5557160053
 10
-2.0928753022
 20
0.542683691
 10
-2.1024080665
 20
0.5296667356
 10
-2.1118054414
 20
0.5166666667
  0
LWPOLYLINE
  5
2B9
100
AcDbEntity
  8
0
100
AcDbPolyline
 62
250
  6
CONTINUOUS
 90
11
 70
0
 10
-2.1885546383
 20
0.4948032522
 10
-2.230560762
 20
0.4416105277
 10
-2.2763971331
 20
0.3915845488
 10
-2.3258514718
 20
0.3449457196
 10
-2.3786950879
 20
0.3019255412
 10
-2.4347208959
 20
0.2627063489
 10
-2.4937431303
 20
0.2274224315
 10
-2.5555705327
 20
0.1962276587
 10
-2.6199201206
 20
0.169325164
 10
-2.6864460894
 20
0.1469089714
 10
-2.7457704239
 20
0.1314894136
  0
LINE
  5
2BA
100
AcDbEntity
  8
0
100
AcDbLine
 62
250
  6
CONTINUOUS
 10
-2.4989651867
 20
-0.7723370264
 11
-2.3428742936
 21
-0.6405958576
  0
LWPOLYLINE
  5
2BB
100
AcDbEntity
  8
0
100
AcDbPolyline
 62
250
  6
CONTINUOUS
 90
10
 70
0
 10
-2.3428742936
 20
-0.6405958576
 10
-2.3185623214
 20
-0.6213493173
 10
-2.2944172897
 20
-0.6048522855
 10
-2.2704391984
 20
-0.5911949021
 10
-2.2465891592
 20
-0.5804465504
 10
-2.2229060605
 20
-0.572711234
 10
-2.1995065675
 20
-0.5680785182
 10
-2.1764295685
 20
-0.5665697838
 10
-2.1536361752
 20
-0.5681876856
 10
-2.1311263876
 20
-0.572937263
  0
LINE
  5
2BC
100
AcDbEntity
  8
0
100
AcDbLine
 62
250
  6
CONTINUOUS
 10
-2.5516234743
 20
-0.6630532548
 11
-2.3975566956
 21
-0.5494373327
  0
LWPOLYLINE
  5
2BD
100
AcDbEntity
  8
0
100
AcDbPolyline
 62
250
  6
CONTINUOUS
 90
10
 70
0
 10
-2.3975566956
 20
-0.5494373327
 10
-2.3733415672
 20
-0.532741347
 10
-2.3493515189
 20
-0.5185806207
 10
-2.3255865507
 20
-0.507019798
 10
-2.3020158769
 20
-0.4981068283
 10
-2.2786702832
 20
-0.4919099872
 10
-2.2556421267
 20
-0.488482731
 10
-2.2329621933
 20
-0.4878291494
 10
-2.2105996971
 20
-0.4899396223
 10
-2.1885546383
 20
-0.4948032522
  0
LINE
  5
2BE
100
AcDbEntity
  8
0
100
AcDbLine
 62
250
  6
CONTINUOUS
 10
-2.5516234743
 20
-0.6630532548
 11
-2.6526900224
 21
-0.7195476894
  0
LINE
  5
2BF
100
AcDbEntity
  8
0
100
AcDbLine
 62
250
  6
CONTINUOUS
 10
2.5138633148
 20
0.7351351351
 11
2.3304601878
 21
0.6590056897
  0
LINE
  5
2C0
100
AcDbEntity
  8
0
100
AcDbLine
 62
7
  6
CONTINUOUS
 10
-2.4989651867
 20
-0.7723370264
 11
-2.6230476225
 21
-0.8230996657
  0
LINE
  5
2C1
100
AcDbEntity
  8
0
100
AcDbLine
 62
7
  6
CONTINUOUS
 10
2.5138633148
 20
0.7351351351
 11
2.6346755044
 21
0.7824791303
  0
LWPOLYLINE
  5
2C2
100
AcDbEntity
  8
0
100
AcDbPolyline
 62
250
  6
CONTINUOUS
 90
10
 70
0
 10
2.3304601878
 20
0.6590056897
 10
2.3012382634
 20
0.6479165342
 10
2.2723915086
 20
0.6390920041
 10
2.2439199234
 20
0.6325671696
 10
2.215797863
 20
0.6283662332
 10
2.1880509721
 20
0.6265154826
 10
2.160756185
 20
0.627022039
 10
2.1339391463
 20
0.6298662146
 10
2.1075742113
 20
0.6350234772
 10
2.0816613801
 20
0.6424624211
  0
LINE
  5
2C3
100
AcDbEntity
  8
0
100
AcDbLine
 62
250
  6
CONTINUOUS
 10
-2.1885546383
 20
0.4948032522
 11
-2.1118054414
 21
0.5166666667
  0
LWPOLYLINE
  5
2C4
100
AcDbEntity
  8
0
100
AcDbPolyline
 62
250
  6
CONTINUOUS
 90
10
 70
0
 10
2.7457394144
 20
-0.1319357695
 10
2.7035243114
 20
-0.142784381
 10
2.6284235832
 20
-0.168415809
 10
2.5559631445
 20
-0.1996157846
 10
2.4865256012
 20
-0.2361879607
 10
2.4205207093
 20
-0.2779276121
 10
2.3588535481
 20
-0.3241955963
 10
2.3019115085
 20
-0.3745004866
 10
2.2496691597
 20
-0.428597658
 10
2.2022915889
 20
-0.4860895461
  0
LINE
  5
2C5
100
AcDbEntity
  8
0
100
AcDbLine
 62
250
  6
CONTINUOUS
 10
2.6303442796
 20
0.519948104
 11
2.4487018674
 21
0.4778397294
  0
LWPOLYLINE
  5
2C6
100
AcDbEntity
  8
0
100
AcDbPolyline
 62
250
  6
CONTINUOUS
 90
10
 70
0
 10
2.4487018674
 20
0.4778397294
 10
2.4190847453
 20
0.4717957165
 10
2.3900312065
 20
0.4675282315
 10
2.361541251
 20
0.4650336243
 10
2.3336202555
 20
0.4642993542
 10
2.3062628433
 20
0.4653039102
 10
2.2794528836
 20
0.4680207583
 10
2.2531849995
 20
0.4724181921
 10
2.227464568
 20
0.4784563651
 10
2.2022915889
 20
0.4860895461
  0
LWPOLYLINE
  5
2C7
100
AcDbEntity
  8
0
100
AcDbPolyline
 62
7
  6
CONTINUOUS
 90
5
 70
0
 10
2.7468216655
 20
-0.1163576657
 10
2.6911544711
 20
-0.1273849831
 10
2.6150480776
 20
-0.1488585561
 10
2.5404806916
 20
-0.1764649756
 10
2.4683777516
 20
-0.2098541809
  0
LWPOLYLINE
  5
2C8
100
AcDbEntity
  8
0
100
AcDbPolyline
 62
7
  6
CONTINUOUS
 90
2
 70
0
 43
0.3500000006
 10
27.033652771
 20
-1.3571429443
 10
25.5336545792
 20
-1.3571429443
  0
LINE
  5
2C9
100
AcDbEntity
  8
0
100
AcDbLine
 62
7
  6
CONTINUOUS
 10
1.6343303518
 20
-1.01
 11
0.7
 21
-1.01
  0
LINE
  5
2CA
100
AcDbEntity
  8
0
100
AcDbLine
 62
7
  6
CONTINUOUS
 10
1.6348428827
 20
-1.0
 11
0.9
 21
-1.0
  0
LINE
  5
2CB
100
AcDbEntity
  8
0
100
AcDbLine
 62
7
  6
CONTINUOUS
 10
1.6343303518
 20
-0.99
 11
0.7
 21
-0.99
  0
LINE
  5
2CC
100
AcDbEntity
  8
0
100
AcDbLine
 62
7
  6
CONTINUOUS
 10
-0.5
 20
-0.5
 11
0.7
 21
-0.5
  0
LINE
  5
2CD
100
AcDbEntity
  8
0
100
AcDbLine
 62
250
  6
CONTINUOUS
 10
0.7
 20
-0.44
 11
1.6343303518
 21
-0.44
  0
LINE
  5
2CE
100
AcDbEntity
  8
0
100
AcDbLine
 62
250
  6
CONTINUOUS
 10
0.7
 20
-0.4
 11
-0.5
 21
-0.4
  0
LWPOLYLINE
  5
2CF
100
AcDbEntity
  8
0
100
AcDbPolyline
 62
7
  6
CONTINUOUS
 90
4
 70
0
 43
0.3500000006
 10
24.6765098419
 20
-0.0000003204
 10
24.0336541214
 20
-0.0000003204
 10
24.0336541214
 20
1.5000001373
 10
27.033652771
 20
0.642857666
  0
LWPOLYLINE
  5
2D0
100
AcDbEntity
  8
0
100
AcDbPolyline
 62
7
  6
CONTINUOUS
 90
22
 70
0
 10
0.0
 20
-2.45
 10
-0.1514603813
 20
-2.4457250043
 10
-0.3025060896
 20
-2.4329440546
 10
-0.4526520683
 20
-2.4117236114
 10
-0.6013713511
 20
-2.3821395646
 10
-0.7482130878
 20
-2.3442549013
 10
-0.8927996887
 20
-2.2981058273
 10
-1.0347149936
 20
-2.2438148256
 10
-1.1734563218
 20
-2.1815960495
 10
-1.3085307642
 20
-2.1116730711
 10
-1.439466067
 20
-2.0342676734
 10
-1.5658220277
 20
-1.9495858413
 10
-1.6871942644
 20
-1.857884589
 10
-1.8031791542
 20
-1.7595316075
 10
-1.9134577575
 20
-1.6548348294
 10
-2.0177810348
 20
-1.5440053747
 10
-2.115839641
 20
-1.4272658153
 10
-2.2071770017
 20
-1.305066652
 10
-2.2913986881
 20
-1.1780096693
 10
-2.3682373704
 20
-1.0466029221
 10
-2.4375041915
 20
-0.9112293194
 10
-2.4989651867
 20
-0.7723370264
  0
LWPOLYLINE
  5
2D1
100
AcDbEntity
  8
0
100
AcDbPolyline
 62
250
  6
CONTINUOUS
 90
19
 70
0
 10
0.0
 20
-1.9572123903
 10
-0.1707398747
 20
-1.951412713
 10
-0.3397165347
 20
-1.9360555963
 10
-0.5062248731
 20
-1.9113427962
 10
-0.6696878534
 20
-1.8774495305
 10
-0.8293478884
 20
-1.834595532
 10
-0.9843225633
 20
-1.7831923307
 10
-1.1338404025
 20
-1.7237566014
 10
-1.2776853812
 20
-1.6566025621
 10
-1.415846539
 20
-1.5818556817
 10
-1.5480960175
 20
-1.4997201601
 10
-1.6738263658
 20
-1.410764126
 10
-1.7924757881
 20
-1.3156199093
 10
-1.9036425519
 20
-1.2148627953
 10
-2.0071766525
 20
-1.1088626627
 10
-2.1030009575
 20
-0.9979798637
 10
-2.1910002711
 20
-0.8826477652
 10
-2.2710008938
 20
-0.7633697946
 10
-2.3428742936
 20
-0.6405958576
  0
LWPOLYLINE
  5
2D2
100
AcDbEntity
  8
RACCORDO
100
AcDbPolyline
 62
250
  6
CONTINUOUS
 90
46
 70
0
 10
0.0
 20
-2.8156314108
 10
-0.1961728879
 20
-2.8087900934
 10
-0.3914955478
 20
-2.7882845204
 10
-0.5850157092
 20
-2.7541928185
 10
-0.7758408912
 20
-2.7066443521
 10
-0.962980089
 20
-2.6458574701
 10
-1.1453603071
 20
-2.5721757263
 10
-1.3220318033
 20
-2.4860053061
 10
-1.4922084326
 20
-2.3877526806
 10
-1.6551108238
 20
-2.2778758221
 10
-1.8099511495
 20
-2.1569077766
 10
-1.9559718317
 20
-2.0254420665
 10
-2.0924870178
 20
-1.8840927666
 10
-2.2188403878
 20
-1.7335281687
 10
-2.3343970232
 20
-1.5744927035
 10
-2.4385757127
 20
-1.4077800957
 10
-2.5308656849
 20
-1.2342082094
 10
-2.6108200916
 20
-1.0546182229
 10
-2.678045953
 20
-0.8698929373
 10
-2.7322211382
 20
-0.6809158153
 10
-2.7730761371
 20
-0.488625475
 10
-2.8004063729
 20
-0.2940216241
 10
-2.8140906799
 20
-0.0981182005
 10
-2.8140880564
 20
0.0981933991
 10
-2.8003994993
 20
0.2940870727
 10
-2.7730689543
 20
0.4886662305
 10
-2.7322193181
 20
0.6809231148
 10
-2.6780518573
 20
0.869874759
 10
-2.6108319011
 20
1.0545889866
 10
-2.5308817824
 20
1.2341752003
 10
-2.4385952188
 20
1.4077463078
 10
-2.334418692
 20
1.5744605774
 10
-2.2188622949
 20
1.7335001294
 10
-2.0925089475
 20
1.884068412
 10
-1.9559939101
 20
2.0254207462
 10
-1.8099733417
 20
2.1568891551
 10
-1.6551348965
 20
2.2778583319
 10
-1.4922378382
 20
2.387734305
 10
-1.3220689768
 20
2.4859855389
 10
-1.1454053557
 20
2.5721556681
 10
-0.9630350187
 20
2.6458374796
 10
-0.7759056618
 20
2.7066257878
 10
-0.5850811619
 20
2.7541789174
 10
-0.3915490222
 20
2.7882770137
 10
-0.1962045054
 20
2.8087878861
 10
0.0
 20
2.8156314108
  0
LWPOLYLINE
  5
2D3
100
AcDbEntity
  8
RACCORDO
100
AcDbPolyline
 62
250
  6
CONTINUOUS
 90
46
 70
0
 10
0.0
 20
-3.1174561931
 10
-0.2186165126
 20
-3.1096501732
 10
-0.4342544521
 20
-3.0870063727
 10
-0.6469138184
 20
-3.0495247792
 10
-0.8576743101
 20
-2.9968646678
 10
-1.0654562286
 20
-2.9293667151
 10
-1.2670204783
 20
-2.8480530029
 10
-1.4621807997
 20
-2.752740112
 10
-1.6511234523
 20
-2.6436113838
 10
-1.8311681195
 20
-2.5222390437
 10
-2.0021968984
 20
-2.3884518201
 10
-2.1643276919
 20
-2.2424209067
 10
-2.3152338915
 20
-2.0862322408
 10
-2.4547689152
 20
-1.9197217602
 10
-2.583079345
 20
-1.7430534787
 10
-2.6982783188
 20
-1.5588054718
 10
-2.8001675018
 20
-1.3668689603
 10
-2.8889452288
 20
-1.1673527234
 10
-2.9633196418
 20
-0.963161201
 10
-3.0230757251
 20
-0.7542053373
 10
-3.0684284944
 20
-0.5405742364
 10
-3.0987311386
 20
-0.3254395989
 10
-3.1137665118
 20
-0.1088512086
 10
-3.11375176
 20
0.1092406403
 10
-3.0986915104
 20
0.3258134732
 10
-3.0683723367
 20
0.5409096211
 10
-3.0230076651
 20
0.7544866751
 10
-2.9632424014
 20
0.9633950588
 10
-2.8888615176
 20
1.1675541037
 10
-2.8000800418
 20
1.3670444301
 10
-2.6981879639
 20
1.5589584165
 10
-2.5829859739
 20
1.7431871254
 10
-2.4546733819
 20
1.9198394944
 10
-2.3151381074
 20
2.0863347409
 10
-2.1642333804
 20
2.2425082007
 10
-2.002105971
 20
2.3885245865
 10
-1.8310841093
 20
2.5222972049
 10
-1.6510512168
 20
2.6436535358
 10
-1.4621238721
 20
2.7527661771
 10
-1.2669800411
 20
2.8480661274
 10
-1.0654355928
 20
2.9293714158
 10
-0.8576746582
 20
2.9968640909
 10
-0.6469275958
 20
3.0495211823
 10
-0.4342711917
 20
3.0870017172
 10
-0.2186286598
 20
3.1096467166
 10
0.0
 20
3.1174561931
  0
LINE
  5
2D4
100
AcDbEntity
  8
0
100
AcDbLine
 62
7
  6
CONTINUOUS
 10
0.0
 20
-1.6
 11
-0.1949198758
 21
-1.5926157254
  0
LINE
  5
2D5
100
AcDbEntity
  8
0
100
AcDbLine
 62
7
  6
CONTINUOUS
 10
-0.1949198758
 20
-1.5926157254
 11
-0.2011730218
 21
-1.5921655965
  0
LINE
  5
2D6
100
AcDbEntity
  8
0
100
AcDbLine
 62
7
  6
CONTINUOUS
 10
-0.1949037394
 20
-1.59245108
 11
-0.3160890516
 21
-1.580574047
  0
LWPOLYLINE
  5
2D7
100
AcDbEntity
  8
0
100
AcDbPolyline
 62
250
  6
CONTINUOUS
 90
15
 70
0
 10
-0.3160890516
 20
-1.580574047
 10
-0.3537828321
 20
-1.5770188693
 10
-0.526159643
 20
-1.5500941117
 10
-0.6945289468
 20
-1.5132931218
 10
-0.8582036189
 20
-1.4669620459
 10
-1.0165436509
 20
-1.4114895608
 10
-1.1689361175
 20
-1.3472739456
 10
-1.3149083579
 20
-1.2746907358
 10
-1.454133549
 20
-1.1942051556
 10
-1.5861770456
 20
-1.1064127157
 10
-1.7107509446
 20
-1.0118175515
 10
-1.8277809122
 20
-0.9107258353
 10
-1.9370576485
 20
-0.8035397648
 10
-2.0382490834
 20
-0.6907933093
 10
-2.1311263876
 20
-0.572937263
  0
LWPOLYLINE
  5
2D8
100
AcDbEntity
  8
0
100
AcDbPolyline
 62
7
  6
CONTINUOUS
 90
13
 70
0
 10
-0.3160890516
 20
-1.580574047
 10
-0.4723511913
 20
-1.5565265815
 10
-0.6266682257
 20
-1.5231341867
 10
-0.7785174955
 20
-1.4805478054
 10
-0.9274205864
 20
-1.4288989726
 10
-1.0728703726
 20
-1.3683199912
 10
-1.2143321418
 20
-1.2989631695
 10
-1.3513150443
 20
-1.2210903638
 10
-1.4833699736
 20
-1.1350421309
 10
-1.610024005
 20
-1.0411766452
 10
-1.7307839896
 20
-0.9398783654
 10
-1.8452020951
 20
-0.8315097411
 10
-1.9528690927
 20
-0.7164013268
  0
LWPOLYLINE
  5
2D9
100
AcDbEntity
  8
0
100
AcDbPolyline
 62
250
  6
CONTINUOUS
 90
10
 70
0
 10
2.4487018674
 20
-0.4778397294
 10
2.4190847453
 20
-0.4717957165
 10
2.3900312065
 20
-0.4675282315
 10
2.361541251
 20
-0.4650336243
 10
2.3336202555
 20
-0.4642993542
 10
2.3062628433
 20
-0.4653039102
 10
2.2794528836
 20
-0.4680207583
 10
2.2531849995
 20
-0.4724181921
 10
2.227464568
 20
-0.4784563651
 10
2.2022915889
 20
-0.4860895461
  0
LINE
  5
2DA
100
AcDbEntity
  8
0
100
AcDbLine
 62
250
  6
CONTINUOUS
 10
2.6303442796
 20
-0.519948104
 11
2.4487018674
 21
-0.4778397294
  0
LINE
  5
2DB
100
AcDbEntity
  8
0
100
AcDbLine
 62
250
  6
CONTINUOUS
 10
2.0506543031
 20
-0.4969580155
 11
2.1124929019
 21
-0.5142012612
  0
LINE
  5
2DC
100
AcDbEntity
  8
0
100
AcDbLine
 62
250
  6
CONTINUOUS
 10
-2.1311263876
 20
-0.572937263
 11
-2.0533688672
 21
-0.5948906844
  0
LINE
  5
2DD
100
AcDbEntity
  8
0
100
AcDbLine
 62
250
  6
CONTINUOUS
 10
-2.1885546383
 20
-0.4948032522
 11
-2.1118054414
 21
-0.5166666667
  0
LWPOLYLINE
  5
2DE
100
AcDbEntity
  8
0
100
AcDbPolyline
 62
250
  6
CONTINUOUS
 90
10
 70
0
 10
2.3304601878
 20
-0.6590056897
 10
2.3012382634
 20
-0.6479165342
 10
2.2723915086
 20
-0.6390920041
 10
2.2439199234
 20
-0.6325671696
 10
2.215797863
 20
-0.6283662332
 10
2.1880509721
 20
-0.6265154826
 10
2.160756185
 20
-0.627022039
 10
2.1339391463
 20
-0.6298662146
 10
2.1075742113
 20
-0.6350234772
 10
2.0816613801
 20
-0.6424624211
  0
LINE
  5
2DF
100
AcDbEntity
  8
0
100
AcDbLine
 62
7
  6
CONTINUOUS
 10
2.5138633148
 20
-0.7351351351
 11
2.6346755044
 21
-0.7824791303
  0
LINE
  5
2E0
100
AcDbEntity
  8
0
100
AcDbLine
 62
7
  6
CONTINUOUS
 10
-2.4989651867
 20
0.7723370264
 11
-2.6230476225
 21
0.8230996657
  0
LINE
  5
2E1
100
AcDbEntity
  8
0
100
AcDbLine
 62
250
  6
CONTINUOUS
 10
2.5138633148
 20
-0.7351351351
 11
2.3304601878
 21
-0.6590056897
  0
LINE
  5
2E2
100
AcDbEntity
  8
0
100
AcDbLine
 62
250
  6
CONTINUOUS
 10
-2.5516234743
 20
0.6630532548
 11
-2.6526900224
 21
0.7195476894
  0
LWPOLYLINE
  5
2E3
100
AcDbEntity
  8
0
100
AcDbPolyline
 62
250
  6
CONTINUOUS
 90
10
 70
0
 10
-2.3975566956
 20
0.5494373327
 10
-2.3733415672
 20
0.532741347
 10
-2.3493515189
 20
0.5185806207
 10
-2.3255865507
 20
0.507019798
 10
-2.3020158769
 20
0.4981068283
 10
-2.2786702832
 20
0.4919099872
 10
-2.2556421267
 20
0.488482731
 10
-2.2329621933
 20
0.4878291494
 10
-2.2105996971
 20
0.4899396223
 10
-2.1885546383
 20
0.4948032522
  0
LINE
  5
2E4
100
AcDbEntity
  8
0
100
AcDbLine
 62
250
  6
CONTINUOUS
 10
-2.5516234743
 20
0.6630532548
 11
-2.3975566956
 21
0.5494373327
  0
LWPOLYLINE
  5
2E5
100
AcDbEntity
  8
0
100
AcDbPolyline
 62
250
  6
CONTINUOUS
 90
10
 70
0
 10
-2.3428742936
 20
0.6405958576
 10
-2.3185623214
 20
0.6213493173
 10
-2.2944172897
 20
0.6048522855
 10
-2.2704391984
 20
0.5911949021
 10
-2.2465891592
 20
0.5804465504
 10
-2.2229060605
 20
0.572711234
 10
-2.1995065675
 20
0.5680785182
 10
-2.1764295685
 20
0.5665697838
 10
-2.1536361752
 20
0.5681876856
 10
-2.1311263876
 20
0.572937263
  0
LINE
  5
2E6
100
AcDbEntity
  8
0
100
AcDbLine
 62
250
  6
CONTINUOUS
 10
-2.4989651867
 20
0.7723370264
 11
-2.3428742936
 21
0.6405958576
  0
LWPOLYLINE
  5
2E7
100
AcDbEntity
  8
0
100
AcDbPolyline
 62
7
  6
CONTINUOUS
 90
10
 70
0
 10
-2.2023598246
 20
-0.40771707
 10
-2.2528740707
 20
-0.3586111048
 10
-2.3067046879
 20
-0.3132126513
 10
-2.3635779745
 20
-0.2717490708
 10
-2.4230036778
 20
-0.2345347499
 10
-2.4847137919
 20
-0.2016660753
 10
-2.5485203588
 20
-0.1731931587
 10
-2.613973449
 20
-0.14929073
 10
-2.6807633349
 20
-0.1300440046
 10
-2.7468543903
 20
-0.1158866196
  0
LINE
  5
2E8
100
AcDbEntity
  8
0
100
AcDbLine
 62
7
  6
CONTINUOUS
 10
-1.9528690927
 20
-0.7164013268
 11
-2.0533688672
 21
-0.5948906844
  0
LWPOLYLINE
  5
2E9
100
AcDbEntity
  8
0
100
AcDbPolyline
 62
250
  6
CONTINUOUS
 90
11
 70
0
 10
-2.1885546383
 20
-0.4948032522
 10
-2.230560762
 20
-0.4416105277
 10
-2.2763971331
 20
-0.3915845488
 10
-2.3258514718
 20
-0.3449457196
 10
-2.3786950879
 20
-0.3019255412
 10
-2.4347208959
 20
-0.2627063489
 10
-2.4937431303
 20
-0.2274224315
 10
-2.5555705327
 20
-0.1962276587
 10
-2.6199201206
 20
-0.169325164
 10
-2.6864460894
 20
-0.1469089714
 10
-2.7457704239
 20
-0.1314894136
  0
LWPOLYLINE
  5
2EA
100
AcDbEntity
  8
0
100
AcDbPolyline
 62
7
  6
CONTINUOUS
 90
3
 70
0
 10
-2.1118054414
 20
-0.5166666667
 10
-2.1552699454
 20
-0.4604528062
 10
-2.2023598246
 20
-0.40771707
  0
LINE
  5
2EB
100
AcDbEntity
  8
0
100
AcDbLine
 62
7
  6
CONTINUOUS
 10
-2.0533688672
 20
-0.5948906844
 11
-2.0666556959
 21
-0.5776369988
  0
LINE
  5
2EC
100
AcDbEntity
  8
0
100
AcDbLine
 62
7
  6
CONTINUOUS
 10
-2.0666556959
 20
-0.5776369988
 11
-2.0797334041
 21
-0.560358132
  0
LINE
  5
2ED
100
AcDbEntity
  8
0
100
AcDbLine
 62
7
  6
CONTINUOUS
 10
-2.0797334041
 20
-0.560358132
 11
-2.0926371637
 21
-0.5430089095
  0
LINE
  5
2EE
100
AcDbEntity
  8
0
100
AcDbLine
 62
250
  6
CONTINUOUS
 10
-2.1311263876
 20
-0.572937263
 11
-2.1885546383
 21
-0.4948032522
  0
LWPOLYLINE
  5
2EF
100
AcDbEntity
  8
0
100
AcDbPolyline
 62
7
  6
CONTINUOUS
 90
3
 70
0
 10
-2.0926371637
 20
-0.5430089095
 10
-2.1054394753
 20
-0.5254920312
 10
-2.1118054414
 20
-0.5166666667
  0
LWPOLYLINE
  5
2F0
100
AcDbEntity
  8
0
100
AcDbPolyline
 62
250
  6
CONTINUOUS
 90
8
 70
0
 10
-2.3975566956
 20
-0.5494373327
 10
-2.4378105218
 20
-0.4929865304
 10
-2.4825446175
 20
-0.4394745289
 10
-2.5314755805
 20
-0.3892823516
 10
-2.5841773304
 20
-0.3429059726
 10
-2.6404617915
 20
-0.3005452776
 10
-2.7004101345
 20
-0.2621479747
 10
-2.7381052375
 20
-0.2418233975
  0
LWPOLYLINE
  5
2F1
100
AcDbEntity
  8
0
100
AcDbPolyline
 62
7
  6
CONTINUOUS
 90
5
 70
0
 10
-2.5516234743
 20
-0.6630532548
 10
-2.5912757792
 20
-0.5981101448
 10
-2.6359825488
 20
-0.5360605589
 10
-2.6854156596
 20
-0.4774147896
 10
-2.711955858
 20
-0.450425304
  0
LWPOLYLINE
  5
2F2
100
AcDbEntity
  8
0
100
AcDbPolyline
 62
250
  6
CONTINUOUS
 90
10
 70
0
 10
-2.3428742936
 20
-0.6405958576
 10
-2.3484371741
 20
-0.6304981075
 10
-2.3541315106
 20
-0.6203833775
 10
-2.3599551578
 20
-0.6102568539
 10
-2.3659029988
 20
-0.6001286685
 10
-2.3719753704
 20
-0.5899995032
 10
-2.3781784665
 20
-0.57986089
 10
-2.384512881
 20
-0.5697143146
 10
-2.3909731973
 20
-0.5595709223
 10
-2.3975566956
 20
-0.5494373327
  0
LWPOLYLINE
  5
2F3
100
AcDbEntity
  8
RACCORDO
100
AcDbPolyline
 62
250
  6
CONTINUOUS
 90
14
 70
0
 10
2.2530125829
 20
-8.3886842108
 10
2.327120692
 20
-8.5527227444
 10
2.3891193406
 20
-8.7216777945
 10
2.4391970173
 20
-8.8954952474
 10
2.4765942665
 20
-9.0715588269
 10
2.5011291658
 20
-9.2498936977
 10
2.5129836378
 20
-9.4304745635
 10
2.5119439946
 20
-9.6106095551
 10
2.4977665971
 20
-9.7904313658
 10
2.4706950844
 20
-9.9698072724
 10
2.4312466867
 20
-10.1456474019
 10
2.3795938142
 20
-10.3169218616
 10
2.3155640566
 20
-10.4846606661
 10
2.2391574142
 20
-10.6488638707
  0
LWPOLYLINE
  5
2F4
100
AcDbEntity
  8
RACCORDO
100
AcDbPolyline
 62
250
  6
CONTINUOUS
 90
14
 70
0
 10
1.9840518639
 20
-8.5161943461
 10
2.0493778837
 20
-8.660851094
 10
2.1041624635
 20
-8.8097861291
 10
2.148135082
 20
-8.9622508772
 10
2.1810791613
 20
-9.1174980065
 10
2.2028189357
 20
-9.2747219932
 10
2.2132393597
 20
-9.433124093
 10
2.2122794527
 20
-9.5919542928
 10
2.1999118745
 20
-9.7505076119
 10
2.1761778241
 20
-9.907851028
 10
2.1412520644
 20
-10.0629021848
 10
2.0953836326
 20
-10.2147839711
 10
2.0388289465
 20
-10.3628183276
 10
1.9719149843
 20
-10.5062610528
  0
LWPOLYLINE
  5
2F5
100
AcDbEntity
  8
RACCORDO
100
AcDbPolyline
 62
7
  6
CONTINUOUS
 90
10
 70
0
 10
1.9506163595
 20
-10.9536710718
 10
1.9308783545
 20
-10.9068108185
 10
1.9157416972
 20
-10.8576034374
 10
1.9057805448
 20
-10.8074633745
 10
1.9011789185
 20
-10.7562305645
 10
1.9017527971
 20
-10.7040650726
 10
1.9075242738
 20
-10.6528615404
 10
1.918500713
 20
-10.6032515151
 10
1.9346747503
 20
-10.5546034496
 10
1.9560463857
 20
-10.5069173437
  0
LWPOLYLINE
  5
2F6
100
AcDbEntity
  8
0
100
AcDbPolyline
 62
7
  6
CONTINUOUS
 90
10
 70
0
 10
-2.4989651867
 20
-0.7723370264
 10
-2.5040748532
 20
-0.7600834889
 10
-2.5093855982
 20
-0.7478144404
 10
-2.5148943891
 20
-0.7355419543
 10
-2.520606671
 20
-0.7232599382
 10
-2.5265101949
 20
-0.7110007229
 10
-2.5325729628
 20
-0.6988329125
 10
-2.5387792506
 20
-0.6867866723
 10
-2.5451316508
 20
-0.6748558928
 10
-2.5516234743
 20
-0.6630532548
  0
LINE
  5
2F7
100
AcDbEntity
  8
0
100
AcDbLine
 62
250
  6
CONTINUOUS
 10
-10.5087981167
 20
21.9749071372
 11
-10.6503805997
 21
22.4
  0
LINE
  5
2F8
100
AcDbEntity
  8
ASSI
100
AcDbLine
 62
7
  6
CONTINUOUS
 10
-2.7217941262
 20
12.6071428571
 11
-2.6475828055
 21
12.0929917457
  0
LINE
  5
2F9
100
AcDbEntity
  8
0
100
AcDbLine
 62
7
  6
CONTINUOUS
 10
0.7
 20
-1.5031022876
 11
0.7
 21
-1.01
  0
LINE
  5
2FA
100
AcDbEntity
  8
0
100
AcDbLine
 62
7
  6
CONTINUOUS
 10
0.7
 20
-0.99
 11
0.7
 21
-0.44
  0
LINE
  5
2FB
100
AcDbEntity
  8
0
100
AcDbLine
 62
250
  6
CONTINUOUS
 10
0.7
 20
-0.44
 11
0.7
 21
-0.4
  0
LINE
  5
2FC
100
AcDbEntity
  8
0
100
AcDbLine
 62
250
  6
CONTINUOUS
 10
1.6343303518
 20
-0.44
 11
1.6343303518
 21
-0.99
  0
LINE
  5
2FD
100
AcDbEntity
  8
0
100
AcDbLine
 62
250
  6
CONTINUOUS
 10
1.6343303518
 20
-1.0209172952
 11
1.6343303518
 21
-1.0
  0
LINE
  5
2FE
100
AcDbEntity
  8
DRAFT
100
AcDbLine
 62
7
  6
CONTINUOUS
 10
2.7812783412
 20
-23.4563623377
 11
2.7812783412
 21
-22.5310194482
  0
LINE
  5
2FF
100
AcDbEntity
  8
DRAFT
100
AcDbLine
 62
7
  6
CONTINUOUS
 10
2.7812783412
 20
22.5310194482
 11
2.7812783412
 21
23.4563623377
  0
LINE
  5
300
100
AcDbEntity
  8
DRAFT
100
AcDbLine
 62
7
  6
CONTINUOUS
 10
3.0
 20
-23.5
 11
3.0
 21
-22.4
  0
LINE
  5
301
100
AcDbEntity
  8
DRAFT
100
AcDbLine
 62
7
  6
CONTINUOUS
 10
3.0
 20
22.4
 11
3.0
 21
23.5
  0
LINE
  5
302
100
AcDbEntity
  8
DRAFT
100
AcDbLine
 62
7
  6
CONTINUOUS
 10
2.7384728487
 20
-13.2342837424
 11
2.7412936679
 21
-12.7846493531
  0
LINE
  5
303
100
AcDbEntity
  8
DRAFT
100
AcDbLine
 62
7
  6
CONTINUOUS
 10
1.8278442714
 20
-8.2765179095
 11
1.7682568484
 21
-15.1045602756
  0
LINE
  5
304
100
AcDbEntity
  8
ASSI
100
AcDbLine
 62
7
  6
CONTINUOUS
 10
2.6475828055
 20
12.0929917457
 11
2.7217941262
 21
12.6071428571
  0
LINE
  5
305
100
AcDbEntity
  8
DRAFT
100
AcDbLine
 62
7
  6
CONTINUOUS
 10
2.7180473238
 20
13.4152941982
 11
2.455480131
 21
11.6585156308
  0
LINE
  5
306
100
AcDbEntity
  8
DRAFT
100
AcDbLine
 62
7
  6
CONTINUOUS
 10
2.1777435779
 20
9.8002422544
 11
1.9940183436
 21
8.570977659
  0
LINE
  5
307
100
AcDbEntity
  8
0
100
AcDbLine
 62
7
  6
CONTINUOUS
 10
2.7223229517
 20
13.3864000029
 11
2.4673582341
 21
11.6803912427
  0
LINE
  5
308
100
AcDbEntity
  8
0
100
AcDbLine
 62
7
  6
CONTINUOUS
 10
2.1818435754
 20
9.7699680528
 11
2.007238072
 21
8.6016553497
  0
LWPOLYLINE
  5
309
100
AcDbEntity
  8
0
100
AcDbPolyline
 62
7
  6
CONTINUOUS
 90
8
 70
0
 10
-2.5533121669
 20
-12.2555224363
 10
-2.5659112166
 20
-12.3046471076
 10
-2.5934544895
 20
-12.4312157866
 10
-2.6164204245
 20
-12.5584817681
 10
-2.6349260552
 20
-12.6862707038
 10
-2.6490905668
 20
-12.8144193891
 10
-2.6590436159
 20
-12.9428188425
 10
-2.6603711371
 20
-12.9718707323
  0
LINE
  5
30A
100
AcDbEntity
  8
0
100
AcDbLine
 62
250
  6
CONTINUOUS
 10
2.0506543031
 20
-0.4969580155
 11
2.0072828285
 21
-0.6524989883
  0
LINE
  5
30B
100
AcDbEntity
  8
0
100
AcDbLine
 62
250
  6
CONTINUOUS
 10
10.5087981167
 20
21.9749071372
 11
10.6503805997
 21
22.4
  0
LINE
  5
30C
100
AcDbEntity
  8
0
100
AcDbLine
 62
250
  6
CONTINUOUS
 10
11.0087219643
 20
21.4755923698
 11
11.15
 21
21.8997711479
  0
LWPOLYLINE
  5
30D
100
AcDbEntity
  8
0
100
AcDbPolyline
 62
7
  6
CONTINUOUS
 90
22
 70
0
 10
2.5138633148
 20
-0.7351351351
 10
2.453634323
 20
-0.8767120554
 10
2.3853485915
 20
-1.0147805385
 10
2.309322104
 20
-1.1487814197
 10
2.2258495512
 20
-1.2781981195
 10
2.1352452698
 20
-1.4024915816
 10
2.0378790843
 20
-1.5211176881
 10
1.9344920827
 20
-1.6334118398
 10
1.8253710574
 20
-1.739331152
 10
1.7101888716
 20
-1.8392304774
 10
1.5890723311
 20
-1.9328397208
 10
1.4626230297
 20
-2.0195066352
 10
1.3311553692
 20
-2.098963932
 10
1.1952910056
 20
-2.1708850941
 10
1.0554606022
 20
-2.235057819
 10
0.9117210641
 20
-2.2913764905
 10
0.7643095512
 20
-2.3395608531
 10
0.6140307678
 20
-2.3792056807
 10
0.4618143635
 20
-2.4101205291
 10
0.3083836682
 20
-2.4322434813
 10
0.154238038
 20
-2.4455527949
 10
0.0
 20
-2.45
  0
LWPOLYLINE
  5
30E
100
AcDbEntity
  8
RACCORDO
100
AcDbPolyline
 62
250
  6
CONTINUOUS
 90
11
 70
0
 10
-1.9731171522
 20
-10.9629374531
 10
-1.9663300067
 20
-10.9492949096
 10
-1.9466908291
 20
-10.902239576
 10
-1.9319505064
 20
-10.8534441571
 10
-1.9222551915
 20
-10.8034035795
 10
-1.9177049522
 20
-10.7526408369
 10
-1.9183455513
 20
-10.7016807179
 10
-1.9241728703
 20
-10.6510306915
 10
-1.9351341214
 20
-10.6012108567
 10
-1.9511207116
 20
-10.5527483479
 10
-1.9719718384
 20
-10.506149737
  0
LWPOLYLINE
  5
30F
100
AcDbEntity
  8
RACCORDO
100
AcDbPolyline
 62
7
  6
CONTINUOUS
 90
3
 70
0
 10
-1.9501949232
 20
-10.9527989577
 10
-1.9744190796
 20
-10.997142713
 10
-2.0033088729
 20
-11.0391279337
  0
LWPOLYLINE
  5
310
100
AcDbEntity
  8
0
100
AcDbPolyline
 62
250
  6
CONTINUOUS
 90
19
 70
0
 10
2.3304601878
 20
-0.6590056897
 10
2.2573501744
 20
-0.7846477932
 10
2.1764280595
 20
-0.9057047783
 10
2.0879897018
 20
-1.0217540089
 10
1.992517538
 20
-1.1321736247
 10
1.8901371402
 20
-1.2367873891
 10
1.7805584219
 20
-1.3357909165
 10
1.6640232937
 20
-1.42886155
 10
1.5410123046
 20
-1.5154850523
 10
1.4115395729
 20
-1.5954543035
 10
1.2761877739
 20
-1.668178592
 10
1.1352108808
 20
-1.7334270041
 10
0.9880133865
 20
-1.7912940259
 10
0.8347675991
 20
-1.8413558298
 10
0.6762828548
 20
-1.8829580099
 10
0.5128880263
 20
-1.9156802958
 10
0.3451635418
 20
-1.9391883559
 10
0.1739327622
 20
-1.9531395924
 10
0.0
 20
-1.9572123903
  0
LWPOLYLINE
  5
311
100
AcDbEntity
  8
0
100
AcDbPolyline
 62
7
  6
CONTINUOUS
 90
10
 70
0
 10
2.6303442796
 20
-0.519948104
 10
2.6149357774
 20
-0.5422453264
 10
2.6000513126
 20
-0.5651155169
 10
2.5857330694
 20
-0.5884858036
 10
2.5720131982
 20
-0.6122991355
 10
2.5589357462
 20
-0.6364766875
 10
2.5465539041
 20
-0.6609147614
 10
2.5349018489
 20
-0.6855366621
 10
2.5239976645
 20
-0.7102956361
 10
2.5138633148
 20
-0.7351351351
  0
LWPOLYLINE
  5
312
100
AcDbEntity
  8
0
100
AcDbPolyline
 62
7
  6
CONTINUOUS
 90
8
 70
0
 10
2.1118054414
 20
-0.5166666667
 10
2.0989634731
 20
-0.5343929355
 10
2.0859706503
 20
-0.5520166234
 10
2.0728211439
 20
-0.5695418454
 10
2.0595067892
 20
-0.5869762228
 10
2.046022685
 20
-0.6043235498
 10
2.0323671944
 20
-0.6215842378
 10
2.0185344554
 20
-0.6387649563
  0
LWPOLYLINE
  5
313
100
AcDbEntity
  8
0
100
AcDbPolyline
 62
250
  6
CONTINUOUS
 90
10
 70
0
 10
2.4487018674
 20
-0.4778397294
 10
2.4335609139
 20
-0.497899367
 10
2.4188903568
 20
-0.51804563
 10
2.4047117506
 20
-0.5382365487
 10
2.3910611929
 20
-0.5584067514
 10
2.3779369895
 20
-0.5785443703
 10
2.3653041072
 20
-0.5986942285
 10
2.3531627108
 20
-0.6188529852
 10
2.3415438636
 20
-0.6389658254
 10
2.3304601878
 20
-0.6590056897
  0
LINE
  5
314
100
AcDbEntity
  8
0
100
AcDbLine
 62
250
  6
CONTINUOUS
 10
2.2022915889
 20
-0.4860895461
 11
2.1625138684
 21
-0.5380835875
  0
LINE
  5
315
100
AcDbEntity
  8
0
100
AcDbLine
 62
250
  6
CONTINUOUS
 10
2.1625138684
 20
-0.5380835875
 11
2.0816613801
 21
-0.6424624211
  0
LWPOLYLINE
  5
316
100
AcDbEntity
  8
0
100
AcDbPolyline
 62
7
  6
CONTINUOUS
 90
3
 70
0
 10
2.0185344554
 20
-0.6387649563
 10
2.0045143517
 20
-0.655878264
 10
1.990298123
 20
-0.6729355582
  0
LWPOLYLINE
  5
317
100
AcDbEntity
  8
0
100
AcDbPolyline
 62
250
  6
CONTINUOUS
 90
16
 70
0
 10
2.0816613801
 20
-0.6424624211
 10
1.9876840865
 20
-0.7558592077
 10
1.8863386633
 20
-0.8635633317
 10
1.7778121856
 20
-0.9652547415
 10
1.662365653
 20
-1.0605597704
 10
1.5401712304
 20
-1.1491988999
 10
1.4112958042
 20
-1.2309676701
 10
1.275955053
 20
-1.3055331541
 10
1.1344637639
 20
-1.3725074112
 10
0.9870537438
 20
-1.4315623668
 10
0.8340698024
 20
-1.48235084
 10
0.6759086655
 20
-1.5245134541
 10
0.5129338764
 20
-1.5576980747
 10
0.3455951727
 20
-1.5815601295
 10
0.1744315546
 20
-1.5957705299
 10
0.0
 20
-1.6
  0
LWPOLYLINE
  5
318
100
AcDbEntity
  8
0
100
AcDbPolyline
 62
7
  6
CONTINUOUS
 90
16
 70
0
 10
1.990298123
 20
-0.6729355582
 10
1.8900460075
 20
-0.7854300987
 10
1.7833102673
 20
-0.8920511559
 10
1.67029613
 20
-0.9925186783
 10
1.5508784578
 20
-1.0868110001
 10
1.4256097519
 20
-1.1743250586
 10
1.2958017362
 20
-1.2540979581
 10
1.1618558847
 20
-1.3259631401
 10
1.0239446804
 20
-1.3898850874
 10
0.8831849836
 20
-1.4454126179
 10
0.7400610792
 20
-1.4924607138
 10
0.594680559
 20
-1.5310786834
 10
0.4476438145
 20
-1.5611786563
 10
0.2993669312
 20
-1.5827183902
 10
0.1500532385
 20
-1.5956731838
 10
0.0
 20
-1.6
  0
LWPOLYLINE
  5
319
100
AcDbEntity
  8
0
100
AcDbPolyline
 62
7
  6
CONTINUOUS
 90
3
 70
0
 10
2.7168678007
 20
-0.4155892826
 10
2.6796811792
 20
-0.4563206517
 10
2.6303442796
 20
-0.519948104
  0
LINE
  5
31A
100
AcDbEntity
  8
0
100
AcDbLine
 62
250
  6
CONTINUOUS
 10
2.6303442796
 20
0.519948104
 11
2.6900567013
 21
0.5624685731
  0
LWPOLYLINE
  5
31B
100
AcDbEntity
  8
0
100
AcDbPolyline
 62
7
  6
CONTINUOUS
 90
7
 70
0
 10
2.4683777516
 20
-0.2098541809
 10
2.3990087174
 20
-0.2488590787
 10
2.3328327883
 20
-0.2933257453
 10
2.2708372763
 20
-0.3426215557
 10
2.2133576089
 20
-0.3963310708
 10
2.1602894138
 20
-0.4544245757
 10
2.1118054414
 20
-0.5166666667
  0
LWPOLYLINE
  5
31C
100
AcDbEntity
  8
0
100
AcDbPolyline
 62
250
  6
CONTINUOUS
 90
7
 70
0
 10
2.7390645109
 20
-0.2280154548
 10
2.7343736731
 20
-0.230430842
 10
2.6686179835
 20
-0.2712024038
 10
2.6066891779
 20
-0.3168208987
 10
2.5490686539
 20
-0.3669249869
 10
2.4962858531
 20
-0.4208100069
 10
2.4487018674
 20
-0.4778397294
  0
LINE
  5
31D
100
AcDbEntity
  8
0
100
AcDbLine
 62
250
  6
CONTINUOUS
 10
2.2022915889
 20
-0.4860895461
 11
2.1118054414
 21
-0.5166666667
  0
LINE
  5
31E
100
AcDbEntity
  8
0
100
AcDbLine
 62
250
  6
CONTINUOUS
 10
2.0816613801
 20
-0.6424624211
 11
1.990298123
 21
-0.6729355582
  0
LINE
  5
31F
100
AcDbEntity
  8
0
100
AcDbLine
 62
250
  6
CONTINUOUS
 10
-2.1311263876
 20
0.572937263
 11
-2.0533688685
 21
0.594890684
  0
LWPOLYLINE
  5
320
100
AcDbEntity
  8
0
100
AcDbPolyline
 62
250
  6
CONTINUOUS
 90
15
 70
0
 10
-0.2011730218
 20
1.5921655965
 10
-0.3537828321
 20
1.5770188693
 10
-0.526159643
 20
1.5500941117
 10
-0.6945289468
 20
1.5132931218
 10
-0.8582036189
 20
1.4669620459
 10
-1.0165436509
 20
1.4114895608
 10
-1.1689361175
 20
1.3472739456
 10
-1.3149083579
 20
1.2746907358
 10
-1.454133549
 20
1.1942051556
 10
-1.5861770456
 20
1.1064127157
 10
-1.7107509446
 20
1.0118175515
 10
-1.8277809122
 20
0.9107258353
 10
-1.9370576485
 20
0.8035397648
 10
-2.0382490834
 20
0.6907933093
 10
-2.1311263876
 20
0.572937263
  0
LWPOLYLINE
  5
321
100
AcDbEntity
  8
0
100
AcDbPolyline
 62
7
  6
CONTINUOUS
 90
15
 70
0
 10
-0.1880524013
 20
1.5930854346
 10
-0.2973845497
 20
1.5827979074
 10
-0.4482737231
 20
1.5609100162
 10
-0.6003820325
 20
1.5296080674
 10
-0.7525748167
 20
1.488633188
 10
-0.902729287
 20
1.4382243658
 10
-1.0497453188
 20
1.3786435993
 10
-1.193539783
 20
1.3098441522
 10
-1.3335738419
 20
1.2319280663
 10
-1.4696500832
 20
1.1447743666
 10
-1.6007163244
 20
1.0488155315
 10
-1.7251052872
 20
0.9452430671
 10
-1.8420681632
 20
0.8348750612
 10
-1.9516026049
 20
0.7179182001
 10
-2.0533697816
 20
0.5948895071
  0
LINE
  5
322
100
AcDbEntity
  8
0
100
AcDbLine
 62
7
  6
CONTINUOUS
 10
-0.1949198758
 20
1.5926157254
 11
-0.2011730218
 21
1.5921655965
  0
LINE
  5
323
100
AcDbEntity
  8
0
100
AcDbLine
 62
7
  6
CONTINUOUS
 10
0.0
 20
1.6
 11
-0.1949198758
 21
1.5926157254
  0
LWPOLYLINE
  5
324
100
AcDbEntity
  8
0
100
AcDbPolyline
 62
250
  6
CONTINUOUS
 90
19
 70
0
 10
0.0
 20
1.9572123903
 10
-0.1707398747
 20
1.951412713
 10
-0.3397165347
 20
1.9360555963
 10
-0.5062248731
 20
1.9113427962
 10
-0.6696878534
 20
1.8774495305
 10
-0.8293478884
 20
1.834595532
 10
-0.9843225633
 20
1.7831923307
 10
-1.1338404025
 20
1.7237566014
 10
-1.2776853812
 20
1.6566025621
 10
-1.415846539
 20
1.5818556817
 10
-1.5480960175
 20
1.4997201601
 10
-1.6738263658
 20
1.410764126
 10
-1.7924757881
 20
1.3156199093
 10
-1.9036425519
 20
1.2148627953
 10
-2.0071766525
 20
1.1088626627
 10
-2.1030009575
 20
0.9979798637
 10
-2.1910002711
 20
0.8826477652
 10
-2.2710008938
 20
0.7633697946
 10
-2.3428742936
 20
0.6405958576
  0
LWPOLYLINE
  5
325
100
AcDbEntity
  8
0
100
AcDbPolyline
 62
7
  6
CONTINUOUS
 90
22
 70
0
 10
0.0
 20
2.45
 10
-0.1514603813
 20
2.4457250043
 10
-0.3025060896
 20
2.4329440546
 10
-0.4526520683
 20
2.4117236114
 10
-0.6013713511
 20
2.3821395646
 10
-0.7482130878
 20
2.3442549013
 10
-0.8927996887
 20
2.2981058273
 10
-1.0347149936
 20
2.2438148256
 10
-1.1734563218
 20
2.1815960495
 10
-1.3085307642
 20
2.1116730711
 10
-1.439466067
 20
2.0342676734
 10
-1.5658220277
 20
1.9495858413
 10
-1.6871942644
 20
1.857884589
 10
-1.8031791542
 20
1.7595316075
 10
-1.9134577575
 20
1.6548348294
 10
-2.0177810348
 20
1.5440053747
 10
-2.115839641
 20
1.4272658153
 10
-2.2071770017
 20
1.305066652
 10
-2.2913986881
 20
1.1780096693
 10
-2.3682373704
 20
1.0466029221
 10
-2.4375041915
 20
0.9112293194
 10
-2.4989651867
 20
0.7723370264
  0
LWPOLYLINE
  5
326
100
AcDbEntity
  8
RACCORDO
100
AcDbPolyline
 62
250
  6
CONTINUOUS
 90
46
 70
0
 10
0.0
 20
2.8156314108
 10
0.1961747579
 20
2.8087899628
 10
0.3914983685
 20
2.7882841244
 10
0.5850185665
 20
2.7541922116
 10
0.775842657
 20
2.706643846
 10
0.9629799499
 20
2.6458575208
 10
1.1453582367
 20
2.5721766481
 10
1.3220279418
 20
2.4860073593
 10
1.4922028238
 20
2.3877561854
 10
1.655103824
 20
2.2778809076
 10
1.8099433217
 20
2.1569143444
 10
1.9559634997
 20
2.0254501117
 10
2.0924781712
 20
1.8841025905
 10
2.218830778
 20
1.7335404673
 10
2.3343868065
 20
1.5745078491
 10
2.4385655856
 20
1.4077976358
 10
2.5308561494
 20
1.2342277604
 10
2.6108116359
 20
1.0546391531
 10
2.6780394052
 20
0.8699130928
 10
2.7322169728
 20
0.6809325271
 10
2.7730742192
 20
0.4886363582
 10
2.800406132
 20
0.2940239184
 10
2.8140910895
 20
0.0981064496
 10
2.8140870658
 20
-0.0982217768
 10
2.8003953496
 20
-0.2941265806
 10
2.7730617682
 20
-0.4887070039
 10
2.7322101828
 20
-0.6809597654
 10
2.6780413528
 20
-0.869907094
 10
2.6108200354
 20
-1.0546183583
 10
2.5308689763
 20
-1.2342014577
 10
2.4385817292
 20
-1.4077696723
 10
2.3344046015
 20
-1.5744814664
 10
2.2188477371
 20
-1.7335187607
 10
2.0924942104
 20
-1.8840847774
 10
1.955979375
 20
-2.0254347812
 10
1.8099593085
 20
-2.1569009298
 10
1.6551215891
 20
-2.2778680001
 10
1.4922254317
 20
-2.3877420576
 10
1.3220576513
 20
-2.4859915611
 10
1.1453952856
 20
-2.5721601518
 10
0.9630263572
 20
-2.6458406319
 10
0.7758985385
 20
-2.7066278295
 10
0.5850756974
 20
-2.7541800781
 10
0.3915453176
 20
-2.7882775338
 10
0.1962026312
 20
-2.808788017
 10
0.0
 20
-2.8156314108
  0
LWPOLYLINE
  5
327
100
AcDbEntity
  8
RACCORDO
100
AcDbPolyline
 62
250
  6
CONTINUOUS
 90
46
 70
0
 10
0.0
 20
3.1174561931
 10
0.2186185209
 20
3.109649688
 10
0.4342575136
 20
3.0870056641
 10
0.646916978
 20
3.0495241088
 10
0.8576762951
 20
2.9968642762
 10
1.065456084
 20
2.929366864
 10
1.2670182018
 20
2.848054017
 10
1.4621765792
 20
2.7527424217
 10
1.6511172854
 20
2.6436153139
 10
1.8311603853
 20
2.5222446648
 10
2.0021882066
 20
2.3884590199
 10
2.1643184215
 20
2.2424297558
 10
2.315224112
 20
2.0862431059
 10
2.4547584167
 20
1.9197354377
 10
2.5830681969
 20
1.7430703352
 10
2.6982671186
 20
1.5588248802
 10
2.8001571105
 20
1.3668905933
 10
2.888936244
 20
1.1673759539
 10
2.9633123992
 20
0.9631835078
 10
3.0230710041
 20
0.7542237087
 10
3.0684266307
 20
0.5405861511
 10
3.0987308752
 20
0.3254421137
 10
3.1137657409
 20
0.1088382487
 10
3.1137492246
 20
-0.109272018
 10
3.0986869117
 20
-0.3258572398
 10
3.0683654586
 20
-0.5409548189
 10
3.022998209
 20
-0.7545272752
 10
2.9632307803
 20
-0.9634308453
 10
2.8888484477
 20
-1.1675866457
 10
2.8000659359
 20
-1.3670735118
 10
2.6981730364
 20
-1.5589842793
 10
2.5829703346
 20
-1.7432102316
 10
2.4546572451
 20
-1.9198600854
 10
2.3151218025
 20
-2.0863528538
 10
2.1642173108
 20
-2.2425237546
 10
2.0020904662
 20
-2.3885376183
 10
1.8310693913
 20
-2.5223079012
 10
1.6510374897
 20
-2.6436621187
 10
1.462111358
 20
-2.7527728331
 10
1.2669689082
 20
-2.8480710856
 10
1.065426013
 20
-2.9293749069
 10
0.8576667997
 20
-2.9968663439
 10
0.6469215623
 20
-3.0495224635
 10
0.4342670656
 20
-3.0870023051
 10
0.2186265448
 20
-3.1096468775
 10
0.0
 20
-3.1174561931
  0
LWPOLYLINE
  5
328
100
AcDbEntity
  8
0
100
AcDbPolyline
 62
250
  6
CONTINUOUS
 90
10
 70
0
 10
2.7457394144
 20
0.1319357695
 10
2.7035243114
 20
0.142784381
 10
2.6284235832
 20
0.168415809
 10
2.5559631445
 20
0.1996157846
 10
2.4865256012
 20
0.2361879607
 10
2.4205207093
 20
0.2779276121
 10
2.3588535481
 20
0.3241955963
 10
2.3019115085
 20
0.3745004866
 10
2.2496691597
 20
0.428597658
 10
2.2022915889
 20
0.4860895461
  0
LINE
  5
329
100
AcDbEntity
  8
0
100
AcDbLine
 62
250
  6
CONTINUOUS
 10
2.0816613801
 20
0.6424624211
 11
1.990298123
 21
0.6729355582
  0
LINE
  5
32A
100
AcDbEntity
  8
0
100
AcDbLine
 62
250
  6
CONTINUOUS
 10
2.2022915889
 20
0.4860895461
 11
2.1118054414
 21
0.5166666667
  0
LWPOLYLINE
  5
32B
100
AcDbEntity
  8
0
100
AcDbPolyline
 62
250
  6
CONTINUOUS
 90
7
 70
0
 10
2.7390645109
 20
0.2280154548
 10
2.7343736731
 20
0.230430842
 10
2.6686179835
 20
0.2712024038
 10
2.6066891779
 20
0.3168208987
 10
2.5490686539
 20
0.3669249869
 10
2.4962858531
 20
0.4208100069
 10
2.4487018674
 20
0.4778397294
  0
LINE
  5
32C
100
AcDbEntity
  8
0
100
AcDbLine
 62
250
  6
CONTINUOUS
 10
2.6303442796
 20
-0.519948104
 11
2.6900567013
 21
-0.5624685731
  0
LWPOLYLINE
  5
32D
100
AcDbEntity
  8
0
100
AcDbPolyline
 62
7
  6
CONTINUOUS
 90
3
 70
0
 10
2.7168678007
 20
0.4155892826
 10
2.6796811792
 20
0.4563206517
 10
2.6303442796
 20
0.519948104
  0
LWPOLYLINE
  5
32E
100
AcDbEntity
  8
0
100
AcDbPolyline
 62
7
  6
CONTINUOUS
 90
16
 70
0
 10
1.9902981884
 20
0.6729354803
 10
1.8898618403
 20
0.7856153712
 10
1.7829619682
 20
0.892365403
 10
1.6699436391
 20
0.9928093047
 10
1.5510506389
 20
1.0866824698
 10
1.4267846506
 20
1.173543043
 10
1.2979554228
 20
1.2528466517
 10
1.1653808385
 20
1.3241980667
 10
1.0292042146
 20
1.3876245186
 10
0.8892304465
 20
1.4432117478
 10
0.7454721718
 20
1.4908404638
 10
0.5988105328
 20
1.5301066651
 10
0.4503554573
 20
1.5607013698
 10
0.3008312578
 20
1.5825392799
 10
0.1505428374
 20
1.595638944
 10
0.0
 20
1.6
  0
LWPOLYLINE
  5
32F
100
AcDbEntity
  8
0
100
AcDbPolyline
 62
250
  6
CONTINUOUS
 90
16
 70
0
 10
2.0816613801
 20
0.6424624211
 10
1.9876840865
 20
0.7558592077
 10
1.8863386633
 20
0.8635633317
 10
1.7778121856
 20
0.9652547415
 10
1.662365653
 20
1.0605597704
 10
1.5401712304
 20
1.1491988999
 10
1.4112958042
 20
1.2309676701
 10
1.275955053
 20
1.3055331541
 10
1.1344637639
 20
1.3725074112
 10
0.9870537438
 20
1.4315623668
 10
0.8340698024
 20
1.48235084
 10
0.6759086655
 20
1.5245134541
 10
0.5129338764
 20
1.5576980747
 10
0.3455951727
 20
1.5815601295
 10
0.1744315546
 20
1.5957705299
 10
0.0
 20
1.6
  0
LINE
  5
330
100
AcDbEntity
  8
0
100
AcDbLine
 62
250
  6
CONTINUOUS
 10
2.1625138684
 20
0.5380835875
 11
2.0816613801
 21
0.6424624211
  0
LINE
  5
331
100
AcDbEntity
  8
0
100
AcDbLine
 62
250
  6
CONTINUOUS
 10
2.2022915889
 20
0.4860895461
 11
2.1625138684
 21
0.5380835875
  0
LWPOLYLINE
  5
332
100
AcDbEntity
  8
0
100
AcDbPolyline
 62
250
  6
CONTINUOUS
 90
10
 70
0
 10
2.4487018674
 20
0.4778397294
 10
2.4335609139
 20
0.497899367
 10
2.4188903568
 20
0.51804563
 10
2.4047117506
 20
0.5382365487
 10
2.3910611929
 20
0.5584067514
 10
2.3779369895
 20
0.5785443703
 10
2.3653041072
 20
0.5986942285
 10
2.3531627108
 20
0.6188529852
 10
2.3415438636
 20
0.6389658254
 10
2.3304601878
 20
0.6590056897
  0
LWPOLYLINE
  5
333
100
AcDbEntity
  8
0
100
AcDbPolyline
 62
7
  6
CONTINUOUS
 90
7
 70
0
 10
2.1118054414
 20
0.5166666667
 10
2.0927860832
 20
0.542804723
 10
2.0732805858
 20
0.5689192568
 10
2.0532838932
 20
0.5950000968
 10
2.0327910868
 20
0.6210368547
 10
2.0117973925
 20
0.647018924
 10
1.9902981884
 20
0.6729354803
  0
LWPOLYLINE
  5
334
100
AcDbEntity
  8
0
100
AcDbPolyline
 62
7
  6
CONTINUOUS
 90
10
 70
0
 10
2.6303442796
 20
0.519948104
 10
2.6149357774
 20
0.5422453264
 10
2.6000513126
 20
0.5651155169
 10
2.5857330694
 20
0.5884858036
 10
2.5720131982
 20
0.6122991355
 10
2.5589357462
 20
0.6364766875
 10
2.5465539041
 20
0.6609147614
 10
2.5349018489
 20
0.6855366621
 10
2.5239976645
 20
0.7102956361
 10
2.5138633148
 20
0.7351351351
  0
LWPOLYLINE
  5
335
100
AcDbEntity
  8
0
100
AcDbPolyline
 62
250
  6
CONTINUOUS
 90
19
 70
0
 10
2.3304601878
 20
0.6590056897
 10
2.2573501744
 20
0.7846477932
 10
2.1764280595
 20
0.9057047783
 10
2.0879897018
 20
1.0217540089
 10
1.992517538
 20
1.1321736247
 10
1.8901371402
 20
1.2367873891
 10
1.7805584219
 20
1.3357909165
 10
1.6640232937
 20
1.42886155
 10
1.5410123046
 20
1.5154850523
 10
1.4115395729
 20
1.5954543035
 10
1.2761877739
 20
1.668178592
 10
1.1352108808
 20
1.7334270041
 10
0.9880133865
 20
1.7912940259
 10
0.8347675991
 20
1.8413558298
 10
0.6762828548
 20
1.8829580099
 10
0.5128880263
 20
1.9156802958
 10
0.3451635418
 20
1.9391883559
 10
0.1739327622
 20
1.9531395924
 10
0.0
 20
1.9572123903
  0
LWPOLYLINE
  5
336
100
AcDbEntity
  8
RACCORDO
100
AcDbPolyline
 62
250
  6
CONTINUOUS
 90
14
 70
0
 10
-2.2530125829
 20
8.3886842108
 10
-2.327120692
 20
8.5527227444
 10
-2.3891193406
 20
8.7216777945
 10
-2.4391970173
 20
8.8954952474
 10
-2.4765942665
 20
9.0715588269
 10
-2.5011291658
 20
9.2498936977
 10
-2.5129836378
 20
9.4304745635
 10
-2.5119439946
 20
9.6106095551
 10
-2.4977665971
 20
9.7904313658
 10
-2.4706950844
 20
9.9698072724
 10
-2.4312466867
 20
10.1456474019
 10
-2.3795938142
 20
10.3169218616
 10
-2.3155640566
 20
10.4846606661
 10
-2.2391574142
 20
10.6488638707
  0
LWPOLYLINE
  5
337
100
AcDbEntity
  8
RACCORDO
100
AcDbPolyline
 62
250
  6
CONTINUOUS
 90
14
 70
0
 10
-1.9840518639
 20
8.5161943461
 10
-2.0493778837
 20
8.660851094
 10
-2.1041624635
 20
8.8097861291
 10
-2.148135082
 20
8.9622508772
 10
-2.1810791613
 20
9.1174980065
 10
-2.2028189357
 20
9.2747219932
 10
-2.2132393597
 20
9.433124093
 10
-2.2122794527
 20
9.5919542928
 10
-2.1999118745
 20
9.7505076119
 10
-2.1761778241
 20
9.907851028
 10
-2.1412520644
 20
10.0629021848
 10
-2.0953836326
 20
10.2147839712
 10
-2.0388289465
 20
10.3628183276
 10
-1.9719149843
 20
10.5062610528
  0
LWPOLYLINE
  5
338
100
AcDbEntity
  8
0
100
AcDbPolyline
 62
7
  6
CONTINUOUS
 90
22
 70
0
 10
2.5138633148
 20
0.7351351351
 10
2.453634323
 20
0.8767120554
 10
2.3853485915
 20
1.0147805385
 10
2.309322104
 20
1.1487814197
 10
2.2258495512
 20
1.2781981195
 10
2.1352452698
 20
1.4024915816
 10
2.0378790843
 20
1.5211176881
 10
1.9344920827
 20
1.6334118398
 10
1.8253710574
 20
1.739331152
 10
1.7101888716
 20
1.8392304774
 10
1.5890723311
 20
1.9328397208
 10
1.4626230297
 20
2.0195066352
 10
1.3311553692
 20
2.098963932
 10
1.1952910056
 20
2.1708850941
 10
1.0554606022
 20
2.235057819
 10
0.9117210641
 20
2.2913764905
 10
0.7643095512
 20
2.3395608531
 10
0.6140307678
 20
2.3792056807
 10
0.4618143635
 20
2.4101205291
 10
0.3083836682
 20
2.4322434813
 10
0.154238038
 20
2.4455527949
 10
0.0
 20
2.45
  0
LWPOLYLINE
  5
339
100
AcDbEntity
  8
RACCORDO
100
AcDbPolyline
 62
7
  6
CONTINUOUS
 90
10
 70
0
 10
-1.9506163595
 20
10.9536710718
 10
-1.9308783545
 20
10.9068108185
 10
-1.9157416972
 20
10.8576034374
 10
-1.9057805448
 20
10.8074633745
 10
-1.9011789185
 20
10.7562305645
 10
-1.9017527971
 20
10.7040650726
 10
-1.9075242738
 20
10.6528615404
 10
-1.918500713
 20
10.6032515151
 10
-1.9346747503
 20
10.5546034496
 10
-1.9560463857
 20
10.5069173437
  0
LINE
  5
33A
100
AcDbEntity
  8
0
100
AcDbLine
 62
250
  6
CONTINUOUS
 10
10.6503805997
 20
-22.4
 11
10.5087981167
 21
-21.9749071372
  0
LINE
  5
33B
100
AcDbEntity
  8
0
100
AcDbLine
 62
250
  6
CONTINUOUS
 10
11.15
 20
-21.8997711479
 11
11.0087219643
 21
-21.4755923698
  0
LINE
  5
33C
100
AcDbEntity
  8
ASSI
100
AcDbLine
 62
7
  6
CONTINUOUS
 10
2.7217941262
 20
-12.6071428571
 11
2.6475828055
 21
-12.0929917457
  0
LWPOLYLINE
  5
33D
100
AcDbEntity
  8
0
100
AcDbPolyline
 62
250
  6
CONTINUOUS
 90
5
 70
0
 10
10.5087981167
 20
-21.9749071372
 10
10.5080778549
 20
-21.9672631277
 10
10.5073747357
 20
-21.9529558612
 10
10.5066887591
 20
-21.9320798744
 10
10.5060155151
 20
-21.9047715709
  0
LWPOLYLINE
  5
33E
100
AcDbEntity
  8
RACCORDO
100
AcDbPolyline
 62
250
  6
CONTINUOUS
 90
13
 70
0
 10
2.2391574142
 20
-10.6488638707
 10
2.230719169
 20
-10.6679363743
 10
2.2243294985
 20
-10.6873200602
 10
2.2199884026
 20
-10.7070149274
 10
2.2176991911
 20
-10.7272219936
 10
2.2174585543
 20
-10.7477402392
 10
2.219256563
 20
-10.7679666096
 10
2.2231465067
 20
-10.7878966348
 10
2.2290750959
 20
-10.8075347863
 10
2.2368725329
 20
-10.8262914253
 10
2.2464822186
 20
-10.8439700073
 10
2.257960752
 20
-10.8607670811
 10
2.2713081333
 20
-10.8766826487
  0
LWPOLYLINE
  5
33F
100
AcDbEntity
  8
RACCORDO
100
AcDbPolyline
 62
250
  6
CONTINUOUS
 90
12
 70
0
 10
1.9719150571
 20
-10.50626106
 10
1.9510727139
 20
-10.5528722513
 10
1.9350972984
 20
-10.601345194
 10
1.9241491062
 20
-10.65117294
 10
1.9183360955
 20
-10.7018292241
 10
1.9177107721
 20
-10.7527926289
 10
1.9222761711
 20
-10.803552166
 10
1.9319836501
 20
-10.8535782702
 10
1.9467317782
 20
-10.9023537564
 10
1.9663781354
 20
-10.9493954506
 10
1.9907297052
 20
-10.9942188138
 10
2.0011106255
 20
-11.0104856068
  0
LWPOLYLINE
  5
340
100
AcDbEntity
  8
RACCORDO
100
AcDbPolyline
 62
250
  6
CONTINUOUS
 90
13
 70
0
 10
-2.2713081333
 20
-10.8766826487
 10
-2.2579222048
 20
-10.8607030248
 10
-2.2464186271
 20
-10.843854083
 10
-2.2367974002
 20
-10.8261358216
 10
-2.229005889
 20
-10.8073536241
 10
-2.2230967285
 20
-10.7877021025
 10
-2.2192278244
 20
-10.7677650993
 10
-2.217452485
 20
-10.747531739
 10
-2.2177174019
 20
-10.7270128958
 10
-2.2200205552
 20
-10.7068250393
 10
-2.2243612717
 20
-10.6871736607
 10
-2.2307402247
 20
-10.6678532709
 10
-2.2391574142
 20
-10.6488638707
  0
LWPOLYLINE
  5
341
100
AcDbEntity
  8
RACCORDO
100
AcDbPolyline
 62
7
  6
CONTINUOUS
 90
4
 70
0
 10
-2.0524109944
 20
-11.0752337342
 10
-2.0194631973
 20
-11.0362495618
 10
-1.9906709742
 20
-10.9941227156
 10
-1.9731171522
 20
-10.9629374531
  0
LINE
  5
342
100
AcDbEntity
  8
RACCORDO
100
AcDbLine
 62
7
  6
CONTINUOUS
 10
-2.0033088729
 20
-11.0391279337
 11
-2.0368643031
 21
-11.0787546199
  0
LWPOLYLINE
  5
343
100
AcDbEntity
  8
RACCORDO
100
AcDbPolyline
 62
250
  6
CONTINUOUS
 90
7
 70
0
 10
-2.0509497935
 20
-10.5509468344
 10
-2.0279078492
 20
-10.538563031
 10
-2.0084448196
 20
-10.5279396551
 10
-1.9928904653
 20
-10.5192566964
 10
-1.9815083223
 20
-10.5126612691
 10
-1.974491237
 20
-10.5082651191
 10
-1.9719580992
 20
-10.5061427301
  0
LINE
  5
344
100
AcDbEntity
  8
RACCORDO
100
AcDbLine
 62
250
  6
CONTINUOUS
 10
-2.1061548138
 20
-10.5801301822
 11
-2.0509497935
 21
-10.5509468344
  0
LINE
  5
345
100
AcDbEntity
  8
RACCORDO
100
AcDbLine
 62
250
  6
CONTINUOUS
 10
-2.1703343967
 20
-10.6135202744
 11
-2.1061548138
 21
-10.5801301822
  0
LINE
  5
346
100
AcDbEntity
  8
RACCORDO
100
AcDbLine
 62
250
  6
CONTINUOUS
 10
-2.2391574139
 20
-10.648863797
 11
-2.1703343967
 21
-10.6135202744
  0
LWPOLYLINE
  5
347
100
AcDbEntity
  8
DRAFT
100
AcDbPolyline
 62
250
  6
CONTINUOUS
 90
9
 70
0
 10
1.8979434225
 20
8.3901589683
 10
1.1526560658
 20
8.3175972417
 10
0.7388367301
 20
8.2780371517
 10
0.3209519748
 20
8.2385536897
 10
-0.1010004444
 20
8.199220784
 10
-0.5270502854
 20
8.1602198439
 10
-0.9572114051
 20
8.1216235851
 10
-1.3914780942
 20
8.0833961783
 10
-1.6615053025
 20
8.0600873947
  0
LINE
  5
348
100
AcDbEntity
  8
RACCORDO
100
AcDbLine
 62
250
  6
CONTINUOUS
 10
-2.2391574142
 20
10.6488638707
 11
-2.1703406543
 21
10.6135233767
  0
LINE
  5
349
100
AcDbEntity
  8
RACCORDO
100
AcDbLine
 62
250
  6
CONTINUOUS
 10
-2.1703406543
 20
10.6135233767
 11
-2.1061679468
 21
10.5801366959
  0
LWPOLYLINE
  5
34A
100
AcDbEntity
  8
RACCORDO
100
AcDbPolyline
 62
250
  6
CONTINUOUS
 90
8
 70
0
 10
-2.1061679468
 20
10.5801366959
 10
-2.0509694911
 20
10.5509566707
 10
-2.0279304438
 20
10.5385743563
 10
-2.0084699291
 20
10.5279522887
 10
-1.99291763
 20
10.5192704151
 10
-1.9815370198
 20
10.5126758148
 10
-1.9745208981
 20
10.5082802075
 10
-1.9719881256
 20
10.5061580594
  0
LWPOLYLINE
  5
34B
100
AcDbEntity
  8
RACCORDO
100
AcDbPolyline
 62
250
  6
CONTINUOUS
 90
46
 70
0
 10
-2.0525039554
 20
11.0753329509
 10
-2.1823681482
 20
11.2240414063
 10
-2.3016123016
 20
11.3816800999
 10
-2.4096087875
 20
11.547499499
 10
-2.5058265235
 20
11.7207922086
 10
-2.5896891516
 20
11.9006406095
 10
-2.6606407063
 20
12.0858917652
 10
-2.7183124965
 20
12.2755129448
 10
-2.7624740701
 20
12.4686593781
 10
-2.7929249295
 20
12.6644048956
 10
-2.8095194275
 20
12.8617682276
 10
-2.8121831371
 20
13.059778853
 10
-2.8009045718
 20
13.2575180498
 10
-2.7757260275
 20
13.4540432124
 10
-2.7367662202
 20
13.6483390432
 10
-2.6842291442
 20
13.8393888133
 10
-2.6183875543
 20
14.0262246758
 10
-2.5395667801
 20
14.2079428828
 10
-2.448156462
 20
14.3836563664
 10
-2.3446062165
 20
14.5525014769
 10
-2.2294340735
 20
14.7136340313
 10
-2.1032211669
 20
14.8662482101
 10
-1.9665985569
 20
15.0095872539
 10
-1.8202432869
 20
15.1429464263
 10
-1.6648836945
 20
15.2656689872
 10
-1.5012914968
 20
15.3771498245
 10
-1.3302782446
 20
15.4768398163
 10
-1.1526918688
 20
15.5642498647
 10
-0.969413791
 20
15.6389497772
 10
-0.7813506999
 20
15.7005731259
 10
-0.5894292175
 20
15.7488196117
 10
-0.3945996112
 20
15.7834523592
 10
-0.1978251336
 20
15.8043016543
 10
-0.0000723926
 20
15.8112662125
 10
0.1976807285
 20
15.8043118313
 10
0.3944563343
 20
15.783472655
 10
0.5892877956
 20
15.7488499145
 10
0.7812118483
 20
15.7006132707
 10
0.9692782115
 20
15.6389995466
 10
1.1525602346
 20
15.5643089949
 10
1.3301512176
 20
15.4769079909
 10
1.5011697038
 20
15.377226685
 10
1.6647676978
 20
15.2657541585
 10
1.8201335958
 20
15.143039523
 10
1.9664956855
 20
15.0096878379
 10
2.1031256445
 20
14.8663557629
  0
LWPOLYLINE
  5
34C
100
AcDbEntity
  8
RACCORDO
100
AcDbPolyline
 62
250
  6
CONTINUOUS
 90
46
 70
0
 10
-2.2713081333
 20
10.8766826487
 10
-2.4159656764
 20
11.0426261146
 10
-2.5476176099
 20
11.2167610213
 10
-2.6662639338
 20
11.399087157
 10
-2.7724356581
 20
11.5906876216
 10
-2.8656017728
 20
11.7904788248
 10
-2.944169248
 20
11.995210586
 10
-3.007836199
 20
12.2048458245
 10
-3.0569045106
 20
12.4194212554
 10
-3.0906868073
 20
12.6357975694
 10
-3.1089685671
 20
12.8539882528
 10
-3.1119643119
 20
13.0739796181
 10
-3.0996302325
 20
13.2925917995
 10
-3.0717368081
 20
13.5098463824
 10
-3.0285135594
 20
13.725721794
 10
-2.9706052391
 20
13.9369736561
 10
-2.8977953124
 20
14.1435086001
 10
-2.8103003142
 20
14.3454202468
 10
-2.7094146021
 20
14.5397449205
 10
-2.5949361226
 20
14.726377386
 10
-2.4670669292
 20
14.9054233298
 10
-2.3277075399
 20
15.0742356389
 10
-2.1766901745
 20
15.2326577829
 10
-2.0141826132
 20
15.3808468661
 10
-1.842588715
 20
15.5166263526
 10
-1.6617753733
 20
15.639812093
 10
-1.4718756947
 20
15.7505888207
 10
-1.2756928567
 20
15.8473333813
 10
-1.0731364371
 20
15.9298381383
 10
-0.8642968582
 20
15.9983112031
 10
-0.6522485652
 20
16.0517530379
 10
-0.436946325
 20
16.0899428168
 10
-0.2184353707
 20
16.1131016314
 10
0.000074153
 20
16.1208927712
 10
0.2185821351
 20
16.1130912528
 10
0.4370886865
 20
16.0899220594
 10
0.6523839956
 20
16.0517233656
 10
0.8644222367
 20
15.9982744564
 10
1.0732492354
 20
15.9297957809
 10
1.2757926571
 20
15.8472872096
 10
1.4719624137
 20
15.7505408616
 10
1.6618485933
 20
15.639764143
 10
1.8426491255
 20
15.5165798501
 10
2.0142311427
 20
15.380803259
 10
2.1767275125
 20
15.2326185096
 10
2.327734767
 20
15.0742017517
  0
LWPOLYLINE
  5
34D
100
AcDbEntity
  8
RACCORDO
100
AcDbPolyline
 62
7
  6
CONTINUOUS
 90
4
 70
0
 10
-2.0368643031
 20
11.0787546199
 10
-2.0035136409
 20
11.0394072316
 10
-1.9747643263
 20
10.9977127155
 10
-1.9506163595
 20
10.9536710718
  0
LWPOLYLINE
  5
34E
100
AcDbEntity
  8
RACCORDO
100
AcDbPolyline
 62
7
  6
CONTINUOUS
 90
3
 70
0
 10
-2.0011106255
 20
11.0104856068
 10
-2.0195363661
 20
11.0363456684
 10
-2.0525039554
 20
11.0753329509
  0
LWPOLYLINE
  5
34F
100
AcDbEntity
  8
RACCORDO
100
AcDbPolyline
 62
250
  6
CONTINUOUS
 90
45
 70
0
 10
1.9719718384
 20
10.506149737
 10
2.0387516803
 20
10.3630006854
 10
2.0952374256
 20
10.2152118894
 10
2.1410896649
 20
10.0635186152
 10
2.1760415947
 20
9.9085757046
 10
2.1998245174
 20
9.7512709969
 10
2.2122466372
 20
9.5927333996
 10
2.2132624874
 20
9.4339036132
 10
2.2028958894
 20
9.2754784488
 10
2.181207646
 20
9.1182328859
 10
2.1483161517
 20
8.9629757526
 10
2.1043969442
 20
8.8105021553
 10
2.0496650769
 20
8.6615534446
 10
1.9843897303
 20
8.516876525
 10
1.9089108897
 20
8.3772365661
 10
1.8236260683
 20
8.2433703349
 10
1.7289790709
 20
8.1159695187
 10
1.6254550692
 20
7.9956824934
 10
1.5135900442
 20
7.8831285239
 10
1.3939643832
 20
7.7788867987
 10
1.267191387
 20
7.6834871291
 10
1.1339149406
 20
7.5974118399
 10
0.9948159711
 20
7.5211003645
 10
0.8506128196
 20
7.4549463802
 10
0.7020489777
 20
7.3992897339
 10
0.5498908621
 20
7.3544156218
 10
0.3949171479
 20
7.3205517568
 10
0.2379170236
 20
7.2978697495
 10
0.0796948169
 20
7.2864858523
 10
-0.0789356182
 20
7.2864586411
 10
-0.2371617714
 20
7.2977882608
 10
-0.3941698462
 20
7.3204164396
 10
-0.5491553906
 20
7.3542272082
 10
-0.7013289233
 20
7.3990491606
 10
-0.8499114073
 20
7.4546546888
 10
-0.9941366588
 20
7.5207589031
 10
-1.1332617122
 20
7.5970225463
 10
-1.2665686743
 20
7.6830527312
 10
-1.3933756982
 20
7.7784099955
 10
-1.5130374717
 20
7.882611212
 10
-1.6249397838
 20
7.9951256541
 10
-1.7285032321
 20
8.1153749973
 10
-1.8231931049
 20
8.2427418973
 10
-1.9085242411
 20
8.3765790306
 10
-1.9840518639
 20
8.5161943461
  0
LWPOLYLINE
  5
350
100
AcDbEntity
  8
RACCORDO
100
AcDbPolyline
 62
250
  6
CONTINUOUS
 90
45
 70
0
 10
2.2391574142
 20
10.6488638707
 10
2.3154634911
 20
10.4849629103
 10
2.379430803
 20
10.3174632561
 10
2.43105935
 20
10.1463648516
 10
2.4705336705
 20
9.9706253875
 10
2.4976692261
 20
9.7912870483
 10
2.5119124011
 20
9.6114765866
 10
2.5130086511
 20
9.431329735
 10
2.5012125204
 20
9.2507107899
 10
2.4767340272
 20
9.0723394714
 10
2.4393905594
 20
8.8962523439
 10
2.3893647291
 20
8.722412975
 10
2.32741439
 20
8.5534316888
 10
2.2533509445
 20
8.3893602192
 10
2.1673629903
 20
8.2301470361
 10
2.0707741745
 20
8.0782476464
 10
1.9634220093
 20
7.9337824737
 10
1.8454689825
 20
7.7966313319
 10
1.7187262046
 20
7.6688888653
 10
1.5830635897
 20
7.5507029964
 10
1.4386112237
 20
7.441926032
 10
1.2875704749
 20
7.3442092182
 10
1.1298362485
 20
7.2577192447
 10
0.9655136392
 20
7.1822896089
 10
0.7971192997
 20
7.1190717727
 10
0.6245944964
 20
7.0682545912
 10
0.4479979629
 20
7.0296493306
 10
0.2700225519
 20
7.0038410577
 10
0.0906463258
 20
6.9910251184
 10
-0.0901087778
 20
6.9910062088
 10
-0.2694840931
 20
7.0037834017
 10
-0.4474569011
 20
7.0295516573
 10
-0.6240499207
 20
7.0681159736
 10
-0.7965726432
 20
7.1188904614
 10
-0.9649660152
 20
7.1820629779
 10
-1.1292890901
 20
7.2574455447
 10
-1.2870285191
 20
7.3438885079
 10
-1.4380807219
 20
7.4415589891
 10
-1.5825492788
 20
7.5502896796
 10
-1.7182315828
 20
7.6684292845
 10
-1.8449966974
 20
7.7961244395
 10
-1.9629755589
 20
7.9332282796
 10
-2.070358369
 20
8.0776492839
 10
-2.1669835017
 20
8.2295082841
 10
-2.2530125829
 20
8.3886842108
  0
LWPOLYLINE
  5
351
100
AcDbEntity
  8
RACCORDO
100
AcDbPolyline
 62
7
  6
CONTINUOUS
 90
10
 70
0
 10
1.9560463857
 20
10.5069173437
 10
1.9347773989
 20
10.5543748013
 10
1.9186473328
 20
10.6027625519
 10
1.9076561874
 20
10.6520805955
 10
1.9017829156
 20
10.7028743414
 10
1.9010485645
 20
10.7545983804
 10
1.9055162755
 20
10.8056164843
 10
1.9153859043
 20
10.8559341103
 10
1.9304575953
 20
10.9055458013
 10
1.9501949232
 20
10.9527989577
  0
LWPOLYLINE
  5
352
100
AcDbEntity
  8
0
100
AcDbPolyline
 62
250
  6
CONTINUOUS
 90
7
 70
0
 10
11.0087219643
 20
-21.4755923698
 10
11.0080031927
 20
-21.4716789126
 10
11.0073010341
 20
-21.4645568007
 10
11.0066154888
 20
-21.4542260342
 10
11.0059419622
 20
-21.4405716186
 10
11.0052850488
 20
-21.4237085484
 10
11.0046585314
 20
-21.403981807
  0
LINE
  5
353
100
AcDbEntity
  8
0
100
AcDbLine
 62
250
  6
CONTINUOUS
 10
11.0046585314
 20
-21.403981807
 11
11.0034984168
 21
-21.3558303735
  0
LINE
  5
354
100
AcDbEntity
  8
0
100
AcDbLine
 62
250
  6
CONTINUOUS
 10
11.0034984168
 20
-21.3558303735
 11
11.002494253
 21
-21.2976924869
  0
LINE
  5
355
100
AcDbEntity
  8
0
100
AcDbLine
 62
250
  6
CONTINUOUS
 10
10.5060155151
 20
-21.9047715709
 11
10.5047336849
 21
-21.8316424864
  0
LINE
  5
356
100
AcDbEntity
  8
0
100
AcDbLine
 62
250
  6
CONTINUOUS
 10
10.5047336849
 20
-21.8316424864
 11
10.5030519635
 21
-21.6797292088
  0
LINE
  5
357
100
AcDbEntity
  8
0
100
AcDbLine
 62
250
  6
CONTINUOUS
 10
11.002494253
 20
-21.2976924869
 11
11.0013282574
 21
-21.1946238913
  0
LINE
  5
358
100
AcDbEntity
  8
0
100
AcDbLine
 62
250
  6
CONTINUOUS
 10
10.5030519635
 20
-21.6797292088
 11
10.5014061262
 21
-21.4132060252
  0
LINE
  5
359
100
AcDbEntity
  8
0
100
AcDbLine
 62
250
  6
CONTINUOUS
 10
11.0013282574
 20
-21.1946238913
 11
11.0006365685
 21
-21.0787402824
  0
LWPOLYLINE
  5
35A
100
AcDbEntity
  8
0
100
AcDbPolyline
 62
250
  6
CONTINUOUS
 90
3
 70
0
 10
10.5014061262
 20
-21.4132060252
 10
10.5005963741
 20
-21.1000229543
 10
10.5005350625
 20
-21.0183142309
  0
LWPOLYLINE
  5
35B
100
AcDbEntity
  8
0
100
AcDbPolyline
 62
250
  6
CONTINUOUS
 90
9
 70
0
 10
10.5005350625
 20
-21.0183142309
 10
10.4974904462
 20
-16.3494810548
 10
10.495206984
 20
-11.6792204147
 10
10.4936846758
 20
-7.0079400892
 10
10.4929235217
 20
-2.3360479955
 10
10.4929235216
 20
2.3360479943
 10
10.4936846757
 20
7.0079400882
 10
10.4952069839
 20
11.6792204138
 10
10.4974904462
 20
16.3494810544
  0
LWPOLYLINE
  5
35C
100
AcDbEntity
  8
0
100
AcDbPolyline
 62
250
  6
CONTINUOUS
 90
9
 70
0
 10
11.0006365685
 20
-21.0787402824
 10
10.9974142958
 20
-16.3324664701
 10
10.9951308352
 20
-11.6670185434
 10
10.9936085283
 20
-7.0009521365
 10
10.9928473752
 20
-2.3338547134
 10
10.9928473758
 20
2.3338611899
 10
10.9936085296
 20
7.0009579653
 10
10.9951308365
 20
11.667023077
 10
10.9974142967
 20
16.3324690607
  0
LINE
  5
35D
100
AcDbEntity
  8
0
100
AcDbLine
 62
7
  6
CONTINUOUS
 10
11.15
 20
-21.8997711479
 11
11.15
 21
21.8997711479
  0
LINE
  5
35E
100
AcDbEntity
  8
0
100
AcDbLine
 62
250
  6
CONTINUOUS
 10
10.4974904462
 20
16.3494810544
 11
10.5011186198
 21
21.3380251343
  0
LINE
  5
35F
100
AcDbEntity
  8
0
100
AcDbLine
 62
250
  6
CONTINUOUS
 10
10.9974142967
 20
16.3324690607
 11
11.0008096574
 21
21.1180991804
  0
LINE
  5
360
100
AcDbEntity
  8
0
100
AcDbLine
 62
250
  6
CONTINUOUS
 10
10.5011186198
 20
21.3380251343
 11
10.5025715154
 21
21.6191453064
  0
LINE
  5
361
100
AcDbEntity
  8
0
100
AcDbLine
 62
250
  6
CONTINUOUS
 10
11.0008096574
 20
21.1180991804
 11
11.0016659628
 21
21.2307227352
  0
LINE
  5
362
100
AcDbEntity
  8
0
100
AcDbLine
 62
250
  6
CONTINUOUS
 10
10.5025715154
 20
21.6191453064
 11
10.5041390272
 21
21.786331002
  0
LINE
  5
363
100
AcDbEntity
  8
0
100
AcDbLine
 62
250
  6
CONTINUOUS
 10
11.0016659628
 20
21.2307227352
 11
11.002494253
 21
21.297692487
  0
LWPOLYLINE
  5
364
100
AcDbEntity
  8
0
100
AcDbPolyline
 62
250
  6
CONTINUOUS
 90
7
 70
0
 10
10.5041390272
 20
21.786331002
 10
10.5053594138
 20
21.8712144185
 10
10.5060155151
 20
21.9047715709
 10
10.5066887591
 20
21.9320798744
 10
10.5073747357
 20
21.9529558612
 10
10.5080778549
 20
21.9672631277
 10
10.5087981167
 20
21.9749071372
  0
LINE
  5
365
100
AcDbEntity
  8
0
100
AcDbLine
 62
250
  6
CONTINUOUS
 10
11.002494253
 20
21.297692487
 11
11.0034984168
 21
21.3558303734
  0
LWPOLYLINE
  5
366
100
AcDbEntity
  8
0
100
AcDbPolyline
 62
250
  6
CONTINUOUS
 90
8
 70
0
 10
11.0034984168
 20
21.3558303734
 10
11.0046585314
 20
21.4039818068
 10
11.0052850488
 20
21.4237085483
 10
11.0059419622
 20
21.4405716188
 10
11.0066154888
 20
21.4542260345
 10
11.0073010341
 20
21.464556801
 10
11.0080031927
 20
21.4716789127
 10
11.0087219643
 20
21.4755923698
  0
LINE
  5
367
100
AcDbEntity
  8
RACCORDO
100
AcDbLine
 62
250
  6
CONTINUOUS
 10
2.2713081332
 20
-10.8766825986
 11
2.1891662593
 21
-10.9531525312
  0
LINE
  5
368
100
AcDbEntity
  8
RACCORDO
100
AcDbLine
 62
250
  6
CONTINUOUS
 10
2.1891662593
 20
-10.9531525312
 11
2.1403855719
 21
-10.9980292333
  0
LWPOLYLINE
  5
369
100
AcDbEntity
  8
RACCORDO
100
AcDbPolyline
 62
250
  6
CONTINUOUS
 90
7
 70
0
 10
2.1403855719
 20
-10.9980292333
 10
2.1001653419
 20
-11.0345448699
 10
2.0841141613
 20
-11.0488951814
 10
2.071135619
 20
-11.0603116413
 10
2.0614427602
 20
-11.0686068468
 10
2.0551946947
 20
-11.0736446307
 10
2.0524939854
 20
-11.0753422968
  0
LINE
  5
36A
100
AcDbEntity
  8
RACCORDO
100
AcDbLine
 62
250
  6
CONTINUOUS
 10
-2.0525039554
 20
11.0753329509
 11
-2.0368643032
 21
11.0787546199
  0
LINE
  5
36B
100
AcDbEntity
  8
RACCORDO
100
AcDbLine
 62
250
  6
CONTINUOUS
 10
-1.9719149843
 20
10.5062610528
 11
-1.9560463857
 21
10.5069173437
  0
LINE
  5
36C
100
AcDbEntity
  8
0
100
AcDbLine
 62
250
  6
CONTINUOUS
 10
2.0966613053
 20
9.2000001751
 11
2.1788482758
 21
9.2000003554
  0
LINE
  5
36D
100
AcDbEntity
  8
RACCORDO
100
AcDbLine
 62
250
  6
CONTINUOUS
 10
1.9719718384
 20
10.506149737
 11
1.9560463857
 21
10.5069173437
  0
LINE
  5
36E
100
AcDbEntity
  8
RACCORDO
100
AcDbLine
 62
250
  6
CONTINUOUS
 10
2.0524109892
 20
11.0752337466
 11
2.0368643032
 21
11.0787546199
  0
LWPOLYLINE
  5
36F
100
AcDbEntity
  8
RACCORDO
100
AcDbPolyline
 62
250
  6
CONTINUOUS
 90
6
 70
0
 10
2.1001816157
 20
11.0345295474
 10
2.0841322828
 20
11.0488781304
 10
2.0711552743
 20
11.06029316
 10
2.0614635909
 20
11.0685872749
 10
2.0552163083
 20
11.0736243381
 10
2.0525159674
 20
11.0753216733
  0
LINE
  5
370
100
AcDbEntity
  8
RACCORDO
100
AcDbLine
 62
250
  6
CONTINUOUS
 10
2.1403974342
 20
10.9980180515
 11
2.1001816157
 21
11.0345295474
  0
LINE
  5
371
100
AcDbEntity
  8
RACCORDO
100
AcDbLine
 62
250
  6
CONTINUOUS
 10
2.1891732102
 20
10.95314598
 11
2.1403974342
 21
10.9980180515
  0
LINE
  5
372
100
AcDbEntity
  8
RACCORDO
100
AcDbLine
 62
250
  6
CONTINUOUS
 10
2.2713081333
 20
10.8766826487
 11
2.1891732102
 21
10.95314598
  0
LWPOLYLINE
  5
373
100
AcDbEntity
  8
RACCORDO
100
AcDbPolyline
 62
250
  6
CONTINUOUS
 90
22
 70
0
 10
2.1031256445
 20
14.8663557629
 10
2.2293464213
 20
14.7137479536
 10
2.3445268735
 20
14.5526211719
 10
2.4480857738
 20
14.3837812873
 10
2.5395050659
 20
14.2080724535
 10
2.6183350944
 20
14.0263583138
 10
2.6841861476
 20
13.8395260463
 10
2.7367327527
 20
13.6484799697
 10
2.7757023665
 20
13.4541873607
 10
2.800891138
 20
13.2576632853
 10
2.8121800526
 20
13.0599203242
 10
2.8095260232
 20
12.8619037676
 10
2.7929409431
 20
12.6645387594
 10
2.7625011388
 20
12.4688005008
 10
2.7183529801
 20
12.2756651487
 10
2.660695244
 20
12.0860507577
 10
2.5897606873
 20
11.9008093386
 10
2.5059152174
 20
11.7209661371
 10
2.4096977581
 20
11.5476472344
 10
2.3016723214
 20
11.3817655343
 10
2.18236916
 20
11.2240426533
 10
2.0524109892
 20
11.0752337466
  0
LWPOLYLINE
  5
374
100
AcDbEntity
  8
RACCORDO
100
AcDbPolyline
 62
250
  6
CONTINUOUS
 90
22
 70
0
 10
2.327734767
 20
15.0742017517
 10
2.467085189
 20
14.9053958621
 10
2.5949464957
 20
14.7263573902
 10
2.709418371
 20
14.5397331191
 10
2.8102988029
 20
14.3454173439
 10
2.8977898035
 20
14.1435153182
 10
2.9705970928
 20
13.936990444
 10
3.0285041547
 20
13.7257497842
 10
3.0717275054
 20
13.5098860236
 10
3.0996224141
 20
13.2926412156
 10
3.1119591093
 20
13.0740339979
 10
3.1089673625
 20
12.85404572
 10
3.090691757
 20
12.6358627283
 10
3.0569183042
 20
12.4195039838
 10
3.0078609928
 20
12.2049507271
 10
2.944206371
 20
11.9953329277
 10
2.8656573659
 20
11.7906147881
 10
2.7725110506
 20
11.5908324711
 10
2.6663451929
 20
11.399224063
 10
2.5476857154
 20
11.2168691225
 10
2.4160066956
 20
11.0426885806
 10
2.2713081333
 20
10.8766826487
  0
LINE
  5
375
100
AcDbEntity
  8
0
100
AcDbLine
 62
250
  6
CONTINUOUS
 10
2.6944652926
 20
13.2000000538
 11
2.7416473039
 21
13.2000001456
  0
LINE
  5
376
100
AcDbEntity
  8
DRAFT
100
AcDbLine
 62
7
  6
CONTINUOUS
 10
2.7812783412
 20
-22.5310194482
 11
3.0
 21
-22.4
  0
LINE
  5
377
100
AcDbEntity
  8
DRAFT
100
AcDbLine
 62
7
  6
CONTINUOUS
 10
3.0
 20
22.4
 11
2.7812783412
 21
22.5310194482
  0
LWPOLYLINE
  5
378
100
AcDbEntity
  8
0
100
AcDbPolyline
 62
7
  6
CONTINUOUS
 90
10
 70
0
 43
0.3500000006
 10
1.0714285848
 20
36.4812897034
 10
1.1428571477
 20
36.3384364014
 10
1.1428571477
 20
36.2670052185
 10
1.0000000219
 20
36.1241473846
 10
0.9285714591
 20
36.1241473846
 10
0.8571428254
 20
36.1955785675
 10
0.8571428254
 20
36.2670052185
 10
0.9285714591
 20
36.4098630524
 10
1.0000000219
 20
36.4812897034
 10
1.0714285848
 20
36.4812897034
  0
LINE
  5
379
100
AcDbEntity
  8
DRAFT
100
AcDbLine
 62
7
  6
CONTINUOUS
 10
3.0
 20
23.5
 11
2.7812783412
 21
23.4563623377
  0
LINE
  5
37A
100
AcDbEntity
  8
0
100
AcDbLine
 62
250
  6
CONTINUOUS
 10
-10.5522209659
 20
21.0181634993
 11
10.5005350625
 21
21.0183142309
  0
LINE
  5
37B
100
AcDbEntity
  8
0
100
AcDbLine
 62
250
  6
CONTINUOUS
 10
-10.5087981167
 20
21.9749071372
 11
10.5087981167
 21
21.9749071372
  0
LINE
  5
37C
100
AcDbEntity
  8
DRAFT
100
AcDbLine
 62
7
  6
CONTINUOUS
 10
-10.6503805997
 20
22.4
 11
-3.0
 21
22.4
  0
LINE
  5
37D
100
AcDbEntity
  8
DRAFT
100
AcDbLine
 62
7
  6
CONTINUOUS
 10
3.0
 20
22.4
 11
10.6503805997
 21
22.4
  0
LINE
  5
37E
100
AcDbEntity
  8
DRAFT
100
AcDbLine
 62
7
  6
CONTINUOUS
 10
2.7812783412
 20
22.5310194482
 11
-2.7812783412
 21
22.5310194482
  0
LINE
  5
37F
100
AcDbEntity
  8
DRAFT
100
AcDbLine
 62
7
  6
CONTINUOUS
 10
-2.7812783412
 20
23.4563623377
 11
2.7812783412
 21
23.4563623377
  0
LINE
  5
380
100
AcDbEntity
  8
DRAFT
100
AcDbLine
 62
7
  6
CONTINUOUS
 10
-3.9733373476
 20
23.5
 11
-3.0
 21
23.5
  0
LINE
  5
381
100
AcDbEntity
  8
DRAFT
100
AcDbLine
 62
7
  6
CONTINUOUS
 10
3.0
 20
23.5
 11
3.9733373476
 21
23.5
  0
LWPOLYLINE
  5
382
100
AcDbEntity
  8
0
100
AcDbPolyline
 62
250
  6
CONTINUOUS
 90
16
 70
0
 10
10.5005350626
 20
21.0183132877
 10
10.5522203681
 20
21.0181627949
 10
10.6033519099
 20
21.0177887256
 10
10.6533818551
 20
21.0171950877
 10
10.7017741735
 20
21.0163882415
 10
10.7480103807
 20
21.0153768319
 10
10.7915950934
 20
21.0141716956
 10
10.8320613367
 20
21.0127857448
 10
10.8689755479
 20
21.0112338287
 10
10.9019422211
 20
21.0095325749
 10
10.9306081453
 20
21.0077002109
 10
10.9546661883
 20
21.0057563691
 10
10.9738585879
 20
21.0037218762
 10
10.987979713
 20
21.00161853
 10
10.9968782673
 20
20.9994688662
 10
11.00045891
 20
20.9972959167
  0
LWPOLYLINE
  5
383
100
AcDbEntity
  8
0
100
AcDbPolyline
 62
250
  6
CONTINUOUS
 90
16
 70
0
 10
10.5087981167
 20
21.9749071372
 10
10.5610241351
 20
21.9721273713
 10
10.6126786189
 20
21.9639137831
 10
10.6631962883
 20
21.9503562579
 10
10.7120243038
 20
21.9316031621
 10
10.7586283171
 20
21.90785972
 10
10.8024983178
 20
21.8793857676
 10
10.8431542153
 20
21.846492909
 10
10.8801510926
 20
21.8095411067
 10
10.9130840749
 20
21.7689347421
 10
10.9415927608
 20
21.7251181903
 10
10.9653651658
 20
21.6785709569
 10
10.9841411372
 20
21.6298024308
 10
10.9977152003
 20
21.5793463095
 10
11.0059388076
 20
21.5277547588
 10
11.0087219643
 20
21.4755923698
  0
LINE
  5
384
100
AcDbEntity
  8
DRAFT
100
AcDbLine
 62
7
  6
CONTINUOUS
 10
-3.0
 20
23.5
 11
-2.7812783412
 21
23.4563623377
  0
LWPOLYLINE
  5
385
100
AcDbEntity
  8
0
100
AcDbPolyline
 62
7
  6
CONTINUOUS
 90
3
 70
0
 43
0.3500000006
 10
26.3907970505
 20
-0.8571427917
 10
26.3907970505
 20
-2.3571432495
 10
24.0336541214
 20
-1.7142852631
  0
LWPOLYLINE
  5
386
100
AcDbEntity
  8
0
100
AcDbPolyline
 62
7
  6
CONTINUOUS
 90
7
 70
0
 43
0.3500000006
 10
-0.4285714127
 20
35.9812895508
 10
-1.9285714102
 20
35.9812895508
 10
-0.4285714127
 20
38.124147995
 10
-0.4285714127
 20
38.5527214966
 10
-0.8571428254
 20
38.9812904663
 10
-1.5000000329
 20
38.9812904663
 10
-1.9285714102
 20
38.3384324799
  0
LWPOLYLINE
  5
387
100
AcDbEntity
  8
0
100
AcDbPolyline
 62
7
  6
CONTINUOUS
 90
6
 70
0
 43
0.3500000006
 10
2.1428571696
 20
35.9812895508
 10
3.2142856836
 20
35.9812895508
 10
3.4285713015
 20
36.1955785675
 10
3.4285713015
 20
37.2670055237
 10
3.0000000658
 20
37.6955790253
 10
2.5714285469
 20
37.6955790253
  0
LWPOLYLINE
  5
388
100
AcDbEntity
  8
0
100
AcDbPolyline
 62
7
  6
CONTINUOUS
 90
7
 70
0
 43
0.3500000006
 10
-2.7857141647
 20
35.9812895508
 10
-4.2857143393
 20
35.9812895508
 10
-2.7857141647
 20
38.124147995
 10
-2.7857141647
 20
38.5527214966
 10
-3.2142856836
 20
38.9812904663
 10
-3.8571428204
 20
38.9812904663
 10
-4.2857143393
 20
38.3384324799
  0
LWPOLYLINE
  5
389
100
AcDbEntity
  8
0
100
AcDbPolyline
 62
7
  6
CONTINUOUS
 90
5
 70
0
 43
0.3500000006
 10
-47.1266889038
 20
47.7649104767
 10
-46.7695465851
 20
47.9791949615
 10
-46.7695465851
 20
48.622052948
 10
-47.1266889038
 20
49.0506219177
 10
-47.9838313751
 20
49.0506219177
  0
LWPOLYLINE
  5
38A
100
AcDbEntity
  8
0
100
AcDbPolyline
 62
7
  6
CONTINUOUS
 90
5
 70
0
 43
0.3500000006
 10
-40.0195445251
 20
37.7649074249
 10
-39.6624022064
 20
37.9791964417
 10
-39.6624022064
 20
38.6220498962
 10
-40.0195445251
 20
39.0506233978
 10
-40.8766869965
 20
39.0506233978
  0
LWPOLYLINE
  5
38B
100
AcDbEntity
  8
0
100
AcDbPolyline
 62
250
  6
CONTINUOUS
 90
19
 70
0
 10
-59.1153195548
 20
20.9972959167
 10
-59.1118396108
 20
21.0384725278
 10
-59.1051415108
 20
21.0787402824
 10
-59.0952252549
 20
21.1180991804
 10
-59.0819790453
 20
21.1568159641
 10
-59.0655146798
 20
21.1946238914
 10
-59.0461675518
 20
21.2307227352
 10
-59.0238825753
 20
21.2650621528
 10
-58.9987148362
 20
21.297692487
 10
-58.9711649855
 20
21.3279645393
 10
-58.9411863303
 20
21.3558303734
 10
-58.9088255634
 20
21.3813379257
 10
-58.8747234141
 20
21.4039818068
 10
-58.8388302531
 20
21.4237085483
 10
-58.8011957096
 20
21.4405716188
 10
-58.7626094006
 20
21.4542260345
 10
-58.7233345318
 20
21.464556801
 10
-58.6831078975
 20
21.4716789127
 10
-58.6419294978
 20
21.4755923698
  0
LWPOLYLINE
  5
38C
100
AcDbEntity
  8
0
100
AcDbPolyline
 62
250
  6
CONTINUOUS
 90
8
 70
0
 10
-58.6593712727
 20
21.9749071372
 10
-58.6601372008
 20
21.9721273713
 10
-58.6606083779
 20
21.9639137831
 10
-58.6607796476
 20
21.9503562579
 10
-58.6606491357
 20
21.9316031621
 10
-58.6602182704
 20
21.90785972
 10
-58.6594917672
 20
21.8793857676
 10
-58.6571867974
 20
21.8095411067
  0
LWPOLYLINE
  5
38D
100
AcDbEntity
  8
0
100
AcDbPolyline
 62
250
  6
CONTINUOUS
 90
7
 70
0
 10
-58.6593712727
 20
-21.9749071372
 10
-58.6601372006
 20
-21.97212728
 10
-58.6606083682
 20
-21.9639134406
 10
-58.6607796206
 20
-21.9503555394
 10
-58.6606490849
 20
-21.931601975
 10
-58.6602181914
 20
-21.9078580123
 10
-58.6594916588
 20
-21.8793835478
  0
LINE
  5
38E
100
AcDbEntity
  8
0
100
AcDbLine
 62
250
  6
CONTINUOUS
 10
-58.6495822448
 20
21.6298024308
 11
-58.6419294978
 21
21.4755923698
  0
LINE
  5
38F
100
AcDbEntity
  8
0
100
AcDbLine
 62
250
  6
CONTINUOUS
 10
-58.6538348477
 20
21.7251181903
 11
-58.6495822448
 21
21.6298024308
  0
LINE
  5
390
100
AcDbEntity
  8
0
100
AcDbLine
 62
250
  6
CONTINUOUS
 10
-58.6571867974
 20
21.8095411067
 11
-58.6538348477
 21
21.7251181903
  0
LWPOLYLINE
  5
391
100
AcDbEntity
  8
0
100
AcDbPolyline
 62
250
  6
CONTINUOUS
 90
10
 70
0
 10
-59.1153195548
 20
-20.9972959167
 10
-59.2897453916
 20
-16.3324664701
 10
-59.4205647627
 20
-11.6670185434
 10
-59.5077776683
 20
-7.0009521365
 10
-59.5513840996
 20
-2.3338547134
 10
-59.5513840653
 20
2.3338611899
 10
-59.507777591
 20
7.0009579653
 10
-59.4205646855
 20
11.667023077
 10
-59.2897453401
 20
16.3324690607
 10
-59.1153195548
 20
20.9972959167
  0
LINE
  5
392
100
AcDbEntity
  8
0
100
AcDbLine
 62
250
  6
CONTINUOUS
 10
-58.6594916588
 20
-21.8793835478
 11
-58.6571866383
 21
-21.8095380733
  0
LINE
  5
393
100
AcDbEntity
  8
0
100
AcDbLine
 62
250
  6
CONTINUOUS
 10
-58.6571866383
 20
-21.8095380733
 11
-58.653834667
 21
-21.7251149336
  0
LINE
  5
394
100
AcDbEntity
  8
0
100
AcDbLine
 62
250
  6
CONTINUOUS
 10
-58.653834667
 20
-21.7251149336
 11
-58.6471747692
 21
-21.5793443309
  0
LINE
  5
395
100
AcDbEntity
  8
0
100
AcDbLine
 62
250
  6
CONTINUOUS
 10
-58.6471747692
 20
-21.5793443309
 11
-58.6419294978
 21
-21.4755923698
  0
LWPOLYLINE
  5
396
100
AcDbEntity
  8
0
100
AcDbPolyline
 62
7
  6
CONTINUOUS
 90
3
 70
0
 43
0.3500000006
 10
-42.7695453644
 20
46.3363366699
 10
-42.8409720154
 20
46.1220521851
 10
-42.9838298492
 20
45.8363365173
  0
LINE
  5
397
100
AcDbEntity
  8
RACCORDO
100
AcDbLine
 62
7
  6
CONTINUOUS
 10
-48.7322695991
 20
19.1158466537
 11
-48.7953954734
 21
19.0527207794
  0
LINE
  5
398
100
AcDbEntity
  8
RACCORDO
100
AcDbLine
 62
250
  6
CONTINUOUS
 10
-48.478639192
 20
19.1180600527
 11
-48.6367403421
 21
18.9599589026
  0
LINE
  5
399
100
AcDbEntity
  8
0
100
AcDbLine
 62
7
  6
CONTINUOUS
 10
-48.1849788674
 20
18.9509188399
 11
-48.1481162528
 21
18.9877814546
  0
LINE
  5
39A
100
AcDbEntity
  8
RACCORDO
100
AcDbLine
 62
7
  6
CONTINUOUS
 10
-48.7953954734
 20
-19.0527207794
 11
-48.7322695991
 21
-19.1158466537
  0
LINE
  5
39B
100
AcDbEntity
  8
RACCORDO
100
AcDbLine
 62
250
  6
CONTINUOUS
 10
-48.6367403421
 20
-18.9599589026
 11
-48.478639192
 21
-19.1180600527
  0
LINE
  5
39C
100
AcDbEntity
  8
RACCORDO
100
AcDbLine
 62
7
  6
CONTINUOUS
 10
-48.1481692112
 20
-18.9877284961
 11
-48.1849788674
 21
-18.9509188399
  0
LINE
  5
39D
100
AcDbEntity
  8
DRAFT
100
AcDbLine
 62
7
  6
CONTINUOUS
 10
-50.5481162528
 20
-22.4
 11
-50.5481162528
 21
-23.5
  0
LINE
  5
39E
100
AcDbEntity
  8
0
100
AcDbLine
 62
7
  6
CONTINUOUS
 10
-50.5481162528
 20
-22.4
 11
-50.5481162528
 21
22.4
  0
LINE
  5
39F
100
AcDbEntity
  8
DRAFT
100
AcDbLine
 62
7
  6
CONTINUOUS
 10
-50.5481162528
 20
22.4
 11
-50.5481162528
 21
23.5
  0
LWPOLYLINE
  5
3A0
100
AcDbEntity
  8
RACCORDO
100
AcDbPolyline
 62
7
  6
CONTINUOUS
 90
19
 70
0
 10
-40.3482944892
 20
17.8000031111
 10
-40.3512019282
 20
17.7982777335
 10
-40.3574222802
 20
17.7928387915
 10
-40.3669650137
 20
17.7833583427
 10
-40.3799030967
 20
17.769510406
 10
-40.3961841748
 20
17.7509770428
 10
-40.4156303942
 20
17.7274584842
 10
-40.4383384134
 20
17.698623299
 10
-40.4642349778
 20
17.6642339772
 10
-40.4928860875
 20
17.6242338457
 10
-40.5244079743
 20
17.5784347337
 10
-40.5587053648
 20
17.526751218
 10
-40.5950222821
 20
17.4694982093
 10
-40.6334073702
 20
17.4067584273
 10
-40.6738250469
 20
17.3386003124
 10
-40.7153867408
 20
17.2655471898
 10
-40.7577965848
 20
17.1879718431
 10
-40.8013542333
 20
17.1060140868
 10
-40.8460607554
 20
17.0199676925
  0
LINE
  5
3A1
100
AcDbEntity
  8
DRAFT
100
AcDbLine
 62
7
  6
CONTINUOUS
 10
-48.7564356247
 20
-23.1450985437
 11
-46.5481162528
 21
-23.0998904748
  0
LINE
  5
3A2
100
AcDbEntity
  8
DRAFT
100
AcDbLine
 62
7
  6
CONTINUOUS
 10
-50.5481162528
 20
-23.1799085618
 11
-48.7564356247
 21
-23.1450985437
  0
LINE
  5
3A3
100
AcDbEntity
  8
DRAFT
100
AcDbLine
 62
7
  6
CONTINUOUS
 10
-50.5481162528
 20
-23.5
 11
-46.5481162528
 21
-23.4301797403
  0
LINE
  5
3A4
100
AcDbEntity
  8
DRAFT
100
AcDbLine
 62
7
  6
CONTINUOUS
 10
-50.5481162528
 20
-22.663166622
 11
-49.2022792231
 21
-22.6510079398
  0
LINE
  5
3A5
100
AcDbEntity
  8
0
100
AcDbLine
 62
7
  6
CONTINUOUS
 10
-44.440442573
 20
-22.1955695989
 11
-44.9481162528
 21
-22.2
  0
LINE
  5
3A6
100
AcDbEntity
  8
DRAFT
100
AcDbLine
 62
7
  6
CONTINUOUS
 10
-46.5481162528
 20
-21.2139629885
 11
-42.6818093589
 21
-21.1802222394
  0
LINE
  5
3A7
100
AcDbEntity
  8
DRAFT
100
AcDbLine
 62
7
  6
CONTINUOUS
 10
-49.2022792231
 20
-22.6510079398
 11
-47.8689163266
 21
-22.6398874691
  0
LINE
  5
3A8
100
AcDbEntity
  8
DRAFT
100
AcDbLine
 62
7
  6
CONTINUOUS
 10
-42.0815470454
 20
-20.833660631
 11
-50.5481162528
 21
-20.9
  0
LINE
  5
3A9
100
AcDbEntity
  8
DRAFT
100
AcDbLine
 62
7
  6
CONTINUOUS
 10
-47.8689163266
 20
-22.6398874691
 11
-46.5481162528
 21
-22.6298666026
  0
LINE
  5
3AA
100
AcDbEntity
  8
0
100
AcDbLine
 62
7
  6
CONTINUOUS
 10
-50.5481162528
 20
-22.4
 11
-58.6593712727
 21
-21.9749071372
  0
LINE
  5
3AB
100
AcDbEntity
  8
0
100
AcDbLine
 62
250
  6
CONTINUOUS
 10
-50.5481162528
 20
-21.8997711479
 11
-58.6419294978
 21
-21.4755923698
  0
LWPOLYLINE
  5
3AC
100
AcDbEntity
  8
0
100
AcDbPolyline
 62
250
  6
CONTINUOUS
 90
19
 70
0
 10
-58.6419294978
 20
-21.4755923698
 10
-58.6831078975
 20
-21.4716789126
 10
-58.7233345317
 20
-21.4645568007
 10
-58.7626094005
 20
-21.4542260342
 10
-58.8011957095
 20
-21.4405716186
 10
-58.8388302531
 20
-21.4237085484
 10
-58.8747234142
 20
-21.403981807
 10
-58.9088255635
 20
-21.3813379258
 10
-58.9411863304
 20
-21.3558303735
 10
-58.9711649855
 20
-21.3279645393
 10
-58.9987148362
 20
-21.2976924869
 10
-59.0238825751
 20
-21.2650621527
 10
-59.0461675516
 20
-21.2307227351
 10
-59.0655146798
 20
-21.1946238913
 10
-59.0819790454
 20
-21.1568159642
 10
-59.0952252551
 20
-21.1180991805
 10
-59.105141511
 20
-21.0787402824
 10
-59.1118396109
 20
-21.0384725278
 10
-59.1153195548
 20
-20.9972959167
  0
LWPOLYLINE
  5
3AD
100
AcDbEntity
  8
RACCORDO
100
AcDbPolyline
 62
250
  6
CONTINUOUS
 90
3
 70
0
 10
-49.0513697307
 20
-18.2299741873
 10
-49.0470181999
 20
-18.2574368215
 10
-49.0446257715
 20
-18.3
  0
LINE
  5
3AE
100
AcDbEntity
  8
RACCORDO
100
AcDbLine
 62
250
  6
CONTINUOUS
 10
-49.0446257715
 20
19.1131207627
 11
-49.0446257715
 21
18.3
  0
LINE
  5
3AF
100
AcDbEntity
  8
RACCORDO
100
AcDbLine
 62
250
  6
CONTINUOUS
 10
-49.0446257715
 20
-18.3
 11
-49.0446257715
 21
-19.1131207627
  0
LINE
  5
3B0
100
AcDbEntity
  8
RACCORDO
100
AcDbLine
 62
7
  6
CONTINUOUS
 10
-48.8481162528
 20
19.1148356752
 11
-48.8481162528
 21
18.964182451
  0
LINE
  5
3B1
100
AcDbEntity
  8
RACCORDO
100
AcDbLine
 62
7
  6
CONTINUOUS
 10
-48.8481162528
 20
18.2203195549
 11
-48.8481162528
 21
-18.2203195549
  0
LINE
  5
3B2
100
AcDbEntity
  8
RACCORDO
100
AcDbLine
 62
7
  6
CONTINUOUS
 10
-48.8481162528
 20
-18.964182451
 11
-48.8481162528
 21
-19.1148356752
  0
LINE
  5
3B3
100
AcDbEntity
  8
0
100
AcDbLine
 62
7
  6
CONTINUOUS
 10
-48.8481162528
 20
-18.964182451
 11
-48.8481162528
 21
-18.1775969751
  0
LINE
  5
3B4
100
AcDbEntity
  8
0
100
AcDbLine
 62
7
  6
CONTINUOUS
 10
-48.8481162528
 20
18.2203195549
 11
-48.8481162528
 21
18.964182451
  0
LINE
  5
3B5
100
AcDbEntity
  8
RACCORDO
100
AcDbLine
 62
7
  6
CONTINUOUS
 10
-47.0481162528
 20
19.1305440373
 11
-47.0481162528
 21
18.9685808831
  0
LWPOLYLINE
  5
3B6
100
AcDbEntity
  8
RACCORDO
100
AcDbPolyline
 62
250
  6
CONTINUOUS
 90
3
 70
0
 10
-49.0446257715
 20
18.3
 10
-49.0470181999
 20
18.2574368216
 10
-49.0513697324
 20
18.2299741764
  0
LINE
  5
3B7
100
AcDbEntity
  8
RACCORDO
100
AcDbLine
 62
250
  6
CONTINUOUS
 10
-45.174784799
 20
18.935881761
 11
-45.1375171175
 21
19.1472175833
  0
LINE
  5
3B8
100
AcDbEntity
  8
RACCORDO
100
AcDbLine
 62
7
  6
CONTINUOUS
 10
-44.1798727328
 20
18.9185155063
 11
-44.1380083597
 21
19.1559401641
  0
LINE
  5
3B9
100
AcDbEntity
  8
DRAFT
100
AcDbLine
 62
7
  6
CONTINUOUS
 10
-42.7500400414
 20
19.0
 11
-42.7049048926
 21
19.1684466686
  0
LWPOLYLINE
  5
3BA
100
AcDbEntity
  8
0
100
AcDbPolyline
 62
7
  6
CONTINUOUS
 90
3
 70
0
 43
0.3500000006
 10
-38.0195439148
 20
36.33633815
 10
-38.0909750977
 20
36.1220536652
 10
-38.2338283997
 20
35.8363379974
  0
LWPOLYLINE
  5
3BB
100
AcDbEntity
  8
RACCORDO
100
AcDbPolyline
 62
250
  6
CONTINUOUS
 90
16
 70
0
 10
-40.848654117
 20
-18.852873227
 10
-40.7960078504
 20
-18.849151657
 10
-40.7440375669
 20
-18.8400137029
 10
-40.6932989783
 20
-18.8255603983
 10
-40.6443392122
 20
-18.8059514457
 10
-40.5976749571
 20
-18.781398628
 10
-40.5537896517
 20
-18.7521582302
 10
-40.5131474869
 20
-18.7185352484
 10
-40.4761913769
 20
-18.6808919066
 10
-40.4433223021
 20
-18.6396371221
 10
-40.4148943438
 20
-18.5952165986
 10
-40.3912074852
 20
-18.548101122
 10
-40.3725117868
 20
-18.4987877404
 10
-40.3590089437
 20
-18.4478001317
 10
-40.3508471512
 20
-18.3956845207
 10
-40.3482192821
 20
-18.3532444068
  0
LINE
  5
3BC
100
AcDbEntity
  8
0
100
AcDbLine
 62
250
  6
CONTINUOUS
 10
-59.6061513761
 20
-21.0183142305
 11
-59.6034767082
 21
-21.0181637394
  0
LINE
  5
3BD
100
AcDbEntity
  8
RACCORDO
100
AcDbLine
 62
250
  6
CONTINUOUS
 10
-50.5481162528
 20
-18.2308351883
 11
-48.8481162528
 21
-18.150052343
  0
LINE
  5
3BE
100
AcDbEntity
  8
RACCORDO
100
AcDbLine
 62
7
  6
CONTINUOUS
 10
-50.5481162528
 20
-18.3006924199
 11
-48.8481162528
 21
-18.2203502372
  0
LINE
  5
3BF
100
AcDbEntity
  8
0
100
AcDbLine
 62
250
  6
CONTINUOUS
 10
-59.6034767082
 20
-21.0181637394
 11
-59.2675925287
 21
-21.0037221554
  0
LWPOLYLINE
  5
3C0
100
AcDbEntity
  8
0
100
AcDbPolyline
 62
250
  6
CONTINUOUS
 90
3
 70
0
 10
-59.2675925287
 20
-21.0037221554
 10
-59.1669053581
 20
-20.9994689572
 10
-59.1153195548
 20
-20.9972959167
  0
LWPOLYLINE
  5
3C1
100
AcDbEntity
  8
RACCORDO
100
AcDbPolyline
 62
7
  6
CONTINUOUS
 90
9
 70
0
 10
-38.3211036647
 20
-17.7646211114
 10
-38.3074005562
 20
-17.7641740155
 10
-38.2918850878
 20
-17.7634199921
 10
-38.277939843
 20
-17.7625358427
 10
-38.2648120534
 20
-17.7615247124
 10
-38.2509356943
 20
-17.7602697677
 10
-38.2358274754
 20
-17.7586803731
 10
-38.2199408202
 20
-17.7567509911
 10
-38.2031233942
 20
-17.7544150034
  0
LWPOLYLINE
  5
3C2
100
AcDbEntity
  8
RACCORDO
100
AcDbPolyline
 62
7
  6
CONTINUOUS
 90
17
 70
0
 10
-40.8484710462
 20
-18.8534839371
 10
-40.8396321631
 20
-18.8532385299
 10
-40.7854386494
 20
-18.848372728
 10
-40.7320222938
 20
-18.8377255232
 10
-40.6799988106
 20
-18.8214137486
 10
-40.6299488794
 20
-18.7996159557
 10
-40.5824333832
 20
-18.7725196585
 10
-40.5380170827
 20
-18.740445412
 10
-40.4972805215
 20
-18.7037964793
 10
-40.4607196234
 20
-18.6629680557
 10
-40.428731487
 20
-18.6184531628
 10
-40.401718381
 20
-18.57083483
 10
-40.3800012475
 20
-18.5206718814
 10
-40.363772358
 20
-18.4685216374
 10
-40.3532137551
 20
-18.4149759665
 10
-40.3484451115
 20
-18.3606500513
 10
-40.3482440087
 20
-18.3532608424
  0
LINE
  5
3C3
100
AcDbEntity
  8
RACCORDO
100
AcDbLine
 62
7
  6
CONTINUOUS
 10
-38.3307644177
 20
-17.7648548061
 11
-38.3205508727
 21
-17.7646087146
  0
LINE
  5
3C4
100
AcDbEntity
  8
RACCORDO
100
AcDbLine
 62
250
  6
CONTINUOUS
 10
-43.2801388786
 20
-18.8992058301
 11
-40.8486535236
 21
-18.8529061162
  0
LINE
  5
3C5
100
AcDbEntity
  8
RACCORDO
100
AcDbLine
 62
7
  6
CONTINUOUS
 10
-43.3529864173
 20
-18.9008723581
 11
-40.8484699587
 21
-18.8535424783
  0
LINE
  5
3C6
100
AcDbEntity
  8
RACCORDO
100
AcDbLine
 62
7
  6
CONTINUOUS
 10
-45.9371017388
 20
-18.9482939403
 11
-43.3529864173
 21
-18.9008723581
  0
LINE
  5
3C7
100
AcDbEntity
  8
RACCORDO
100
AcDbLine
 62
250
  6
CONTINUOUS
 10
-45.7133108026
 20
-18.9441464721
 11
-44.9020660994
 21
-18.9293171816
  0
LINE
  5
3C8
100
AcDbEntity
  8
RACCORDO
100
AcDbLine
 62
7
  6
CONTINUOUS
 10
-48.1481646694
 20
-18.9877330379
 11
-45.9371017388
 21
-18.9482939403
  0
LINE
  5
3C9
100
AcDbEntity
  8
RACCORDO
100
AcDbLine
 62
7
  6
CONTINUOUS
 10
-40.8492155255
 20
-18.8603786685
 11
-48.1481162528
 21
-18.9877814546
  0
LINE
  5
3CA
100
AcDbEntity
  8
RACCORDO
100
AcDbLine
 62
7
  6
CONTINUOUS
 10
-29.3306638463
 20
-17.6076896529
 11
-38.3272870421
 21
-17.7647262949
  0
LINE
  5
3CB
100
AcDbEntity
  8
RACCORDO
100
AcDbLine
 62
7
  6
CONTINUOUS
 10
-38.3306638463
 20
-17.7647852373
 11
-40.3482944609
 21
-17.8000031106
  0
LINE
  5
3CC
100
AcDbEntity
  8
DRAFT
100
AcDbLine
 62
7
  6
CONTINUOUS
 10
-42.7500400414
 20
-19.0
 11
-43.8481162528
 21
-19.0
  0
LINE
  5
3CD
100
AcDbEntity
  8
RACCORDO
100
AcDbLine
 62
250
  6
CONTINUOUS
 10
-48.8481162528
 20
-18.3
 11
-49.0446257715
 21
-18.3
  0
LINE
  5
3CE
100
AcDbEntity
  8
DRAFT
100
AcDbLine
 62
7
  6
CONTINUOUS
 10
-40.5481162528
 20
-19.1872686779
 11
-50.5481162528
 21
-19.1
  0
LWPOLYLINE
  5
3CF
100
AcDbEntity
  8
RACCORDO
100
AcDbPolyline
 62
7
  6
CONTINUOUS
 90
16
 70
0
 10
-40.8460607762
 20
-17.0199676929
 10
-40.7922954654
 20
-17.1227060543
 10
-40.7404184734
 20
-17.2194136203
 10
-40.6904270863
 20
-17.3096113042
 10
-40.6418083394
 20
-17.3931250795
 10
-40.5950666948
 20
-17.4693239372
 10
-40.5517172478
 20
-17.5373299408
 10
-40.5119035052
 20
-17.5971012881
 10
-40.4754529267
 20
-17.6487268166
 10
-40.4433945181
 20
-17.6920036646
 10
-40.4159071472
 20
-17.727228682
 10
-40.3927721159
 20
-17.7549201384
 10
-40.3744169644
 20
-17.7755051135
 10
-40.3609716393
 20
-17.7895064141
 10
-40.3522696534
 20
-17.7974864959
 10
-40.3482944609
 20
-17.8000031106
  0
LINE
  5
3D0
100
AcDbEntity
  8
DRAFT
100
AcDbLine
 62
7
  6
CONTINUOUS
 10
-42.7049048926
 20
-19.1684466686
 11
-42.7500400414
 21
-19.0
  0
LINE
  5
3D1
100
AcDbEntity
  8
RACCORDO
100
AcDbLine
 62
250
  6
CONTINUOUS
 10
-45.1724792034
 20
-19.1469124738
 11
-45.2095825115
 21
-18.9364891573
  0
LINE
  5
3D2
100
AcDbEntity
  8
RACCORDO
100
AcDbLine
 62
7
  6
CONTINUOUS
 10
-44.1380083597
 20
-19.1559401641
 11
-44.1798727328
 21
-18.9185155063
  0
LINE
  5
3D3
100
AcDbEntity
  8
0
100
AcDbLine
 62
7
  6
CONTINUOUS
 10
-44.9306585285
 20
21.1998476487
 11
-44.9481162528
 21
22.2
  0
LINE
  5
3D4
100
AcDbEntity
  8
DRAFT
100
AcDbLine
 62
7
  6
CONTINUOUS
 10
-43.5125323332
 20
19.1613986107
 11
-43.5097151099
 21
19.0
  0
LINE
  5
3D5
100
AcDbEntity
  8
DRAFT
100
AcDbLine
 62
7
  6
CONTINUOUS
 10
-46.5481162528
 20
23.4301797403
 11
-46.5481162528
 21
21.2139629885
  0
LINE
  5
3D6
100
AcDbEntity
  8
DRAFT
100
AcDbLine
 62
7
  6
CONTINUOUS
 10
-46.5481162528
 20
-21.2139629885
 11
-46.5481162528
 21
-23.4301797403
  0
LINE
  5
3D7
100
AcDbEntity
  8
ASSI
100
AcDbLine
 62
7
  6
CONTINUOUS
 10
-43.8481162528
 20
19.1584700142
 11
-43.8481162528
 21
19.0
  0
LINE
  5
3D8
100
AcDbEntity
  8
ASSI
100
AcDbLine
 62
7
  6
CONTINUOUS
 10
-43.8481162528
 20
-19.0
 11
-43.8481162528
 21
-19.1584700142
  0
LINE
  5
3D9
100
AcDbEntity
  8
0
100
AcDbLine
 62
7
  6
CONTINUOUS
 10
-44.9306585285
 20
-21.1998476487
 11
-44.9481162528
 21
-22.2
  0
LINE
  5
3DA
100
AcDbEntity
  8
DRAFT
100
AcDbLine
 62
7
  6
CONTINUOUS
 10
-43.5097151099
 20
-19.0
 11
-43.5125323332
 21
-19.1613986107
  0
LWPOLYLINE
  5
3DB
100
AcDbEntity
  8
RACCORDO
100
AcDbPolyline
 62
250
  6
CONTINUOUS
 90
72
 70
0
 10
-36.3655676132
 20
-16.23071277
 10
-36.3846260952
 20
-16.2314630961
 10
-36.4033461076
 20
-16.2325451104
 10
-36.4217219132
 20
-16.2339588132
 10
-36.4397034943
 20
-16.2357113379
 10
-36.4573315138
 20
-16.2377955509
 10
-36.4747364827
 20
-16.2401900516
 10
-36.491915741
 20
-16.2428945127
 10
-36.5088639468
 20
-16.2459092613
 10
-36.525706355
 20
-16.2492138786
 10
-36.542449817
 20
-16.2528057671
 10
-36.5590787122
 20
-16.2566875241
 10
-36.5756827388
 20
-16.2608465231
 10
-36.5922621589
 20
-16.265274647
 10
-36.6088061725
 20
-16.269980013
 10
-36.6253857926
 20
-16.2749743456
 10
-36.6419997662
 20
-16.2802581907
 10
-36.6586360419
 20
-16.2858310026
 10
-36.6753471298
 20
-16.2917028686
 10
-36.692145101
 20
-16.2978797491
 10
-36.7090008535
 20
-16.3043556837
 10
-36.7259037013
 20
-16.311122879
 10
-36.742851648
 20
-16.3181869107
 10
-36.7598279187
 20
-16.3255422032
 10
-36.7767997816
 20
-16.3331642353
 10
-36.7937588088
 20
-16.3410561834
 10
-36.8106941006
 20
-16.3492148711
 10
-36.8275701378
 20
-16.3576062483
 10
-36.8443721863
 20
-16.3662298852
 10
-36.8610959025
 20
-16.3750862116
 10
-36.8777221332
 20
-16.3841424668
 10
-36.8942275953
 20
-16.3933920137
 10
-36.9106163173
 20
-16.4028414894
 10
-36.9269089617
 20
-16.4124780441
 10
-36.9430904733
 20
-16.4223002441
 10
-36.9591527846
 20
-16.4323095231
 10
-36.9751235954
 20
-16.4424973326
 10
-36.9909887375
 20
-16.452865376
 10
-37.006733664
 20
-16.4634119499
 10
-37.0223810543
 20
-16.4741233961
 10
-37.0379184408
 20
-16.4850064836
 10
-37.0533227081
 20
-16.4960544434
 10
-37.0685964077
 20
-16.5072333111
 10
-37.0837233108
 20
-16.5185509913
 10
-37.0986781461
 20
-16.5299995794
 10
-37.1134470943
 20
-16.541521397
 10
-37.1280104564
 20
-16.5531238195
 10
-37.1423417994
 20
-16.5647994715
 10
-37.1564158715
 20
-16.5764685494
 10
-37.1702256542
 20
-16.588149534
 10
-37.1837279116
 20
-16.5998239445
 10
-37.1968479999
 20
-16.6113565348
 10
-37.2095758528
 20
-16.6227553392
 10
-37.2218806432
 20
-16.6340123234
 10
-37.233671676
 20
-16.6449681384
 10
-37.244942691
 20
-16.6556164986
 10
-37.255679215
 20
-16.6659636895
 10
-37.2658004048
 20
-16.6758692186
 10
-37.2753010496
 20
-16.6853133203
 10
-37.2841933659
 20
-16.6943157601
 10
-37.2924432763
 20
-16.7027953424
 10
-37.3000541382
 20
-16.710730049
 10
-37.3070484426
 20
-16.7181418981
 10
-37.3134313282
 20
-16.7250157483
 10
-37.3192131003
 20
-16.7313526268
 10
-37.3244151378
 20
-16.7371515064
 10
-37.329059495
 20
-16.7423941636
 10
-37.3331575785
 20
-16.7470621903
 10
-37.3367265768
 20
-16.7511739945
 10
-37.3397904618
 20
-16.7547665769
 10
-37.3423579265
 20
-16.7578728132
 10
-37.3460529972
 20
-16.7624659933
  0
LWPOLYLINE
  5
3DC
100
AcDbEntity
  8
RACCORDO
100
AcDbPolyline
 62
250
  6
CONTINUOUS
 90
19
 70
0
 10
-38.3244790892
 20
-16.9759532708
 10
-38.2387429676
 20
-16.9732417374
 10
-38.1538143928
 20
-16.967051056
 10
-38.0703204263
 20
-16.9574269349
 10
-37.9888775372
 20
-16.9444404329
 10
-37.910087051
 20
-16.9281874345
 10
-37.8345307099
 20
-16.9087879422
 10
-37.7627663764
 20
-16.8863851903
 10
-37.6953239151
 20
-16.8611445873
 10
-37.6327012808
 20
-16.8332524949
 10
-37.5753608412
 20
-16.8029148515
 10
-37.5237259633
 20
-16.7703556522
 10
-37.478177888
 20
-16.7358152948
 10
-37.4390529146
 20
-16.6995488044
 10
-37.406639918
 20
-16.6618239511
 10
-37.381178216
 20
-16.6229192726
 10
-37.3628558021
 20
-16.5831220177
 10
-37.3518079576
 20
-16.5427260253
 10
-37.3481162528
 20
-16.5020295551
  0
LINE
  5
3DD
100
AcDbEntity
  8
RACCORDO
100
AcDbLine
 62
250
  6
CONTINUOUS
 10
-40.8460607762
 20
-17.0199676929
 11
-38.3244790932
 21
-16.9759521855
  0
LINE
  5
3DE
100
AcDbEntity
  8
RACCORDO
100
AcDbLine
 62
250
  6
CONTINUOUS
 10
-38.3306638463
 20
-15.3169502523
 11
-48.8481162528
 21
-15.500533067
  0
LINE
  5
3DF
100
AcDbEntity
  8
RACCORDO
100
AcDbLine
 62
7
  6
CONTINUOUS
 10
-28.3481162528
 20
-13.75
 11
-27.6428805308
 21
-13.7376900647
  0
LINE
  5
3E0
100
AcDbEntity
  8
RACCORDO
100
AcDbLine
 62
250
  6
CONTINUOUS
 10
-29.3306638463
 20
-16.1079181127
 11
-34.3655229198
 21
-16.1958634244
  0
LINE
  5
3E1
100
AcDbEntity
  8
RACCORDO
100
AcDbLine
 62
250
  6
CONTINUOUS
 10
-34.3655229198
 20
-16.1958634244
 11
-35.915482923
 21
-16.2230810935
  0
LINE
  5
3E2
100
AcDbEntity
  8
RACCORDO
100
AcDbLine
 62
250
  6
CONTINUOUS
 10
-35.915482923
 20
-16.2230810935
 11
-36.3655676132
 21
-16.2307128136
  0
LINE
  5
3E3
100
AcDbEntity
  8
RACCORDO
100
AcDbLine
 62
250
  6
CONTINUOUS
 10
-48.8481162528
 20
-16.5441903035
 11
-50.5481162528
 21
-16.5543574599
  0
LINE
  5
3E4
100
AcDbEntity
  8
RACCORDO
100
AcDbLine
 62
250
  6
CONTINUOUS
 10
-48.8481162528
 20
-17.1575153665
 11
-50.5481162528
 21
-17.1673849704
  0
LINE
  5
3E5
100
AcDbEntity
  8
RACCORDO
100
AcDbLine
 62
250
  6
CONTINUOUS
 10
-28.3481162528
 20
-16.1079181127
 11
-29.3306638463
 21
-16.1079181091
  0
LINE
  5
3E6
100
AcDbEntity
  8
RACCORDO
100
AcDbLine
 62
250
  6
CONTINUOUS
 10
-38.3306638463
 20
-15.3169502523
 11
-37.3481162528
 21
-15.3169502523
  0
LINE
  5
3E7
100
AcDbEntity
  8
RACCORDO
100
AcDbLine
 62
250
  6
CONTINUOUS
 10
-40.8486541498
 20
-18.8528476001
 11
-40.8484711077
 21
-18.8534839383
  0
LINE
  5
3E8
100
AcDbEntity
  8
RACCORDO
100
AcDbLine
 62
250
  6
CONTINUOUS
 10
-40.8477772926
 20
18.8047454546
 11
-40.8469968452
 21
18.7061078689
  0
LINE
  5
3E9
100
AcDbEntity
  8
RACCORDO
100
AcDbLine
 62
250
  6
CONTINUOUS
 10
-40.8469968452
 20
18.7061078689
 11
-40.8459147394
 21
18.3667252433
  0
LINE
  5
3EA
100
AcDbEntity
  8
RACCORDO
100
AcDbLine
 62
250
  6
CONTINUOUS
 10
-40.8459147394
 20
18.3667252433
 11
-40.8455293439
 21
17.8554184815
  0
LWPOLYLINE
  5
3EB
100
AcDbEntity
  8
0
100
AcDbPolyline
 62
7
  6
CONTINUOUS
 90
4
 70
0
 43
0.3500000006
 10
-41.7695450592
 20
48.4077639313
 10
-41.7695450592
 20
49.0506219177
 10
-40.2695446014
 20
49.0506219177
 10
-41.1266870728
 20
46.0506210022
  0
LINE
  5
3EC
100
AcDbEntity
  8
DRAFT
100
AcDbLine
 62
7
  6
CONTINUOUS
 10
-40.5481162528
 20
19.9483339502
 11
-40.5481162528
 21
19.1872686779
  0
LINE
  5
3ED
100
AcDbEntity
  8
DRAFT
100
AcDbLine
 62
7
  6
CONTINUOUS
 10
-40.5481162528
 20
-19.1872686779
 11
-40.5481162528
 21
-19.9483339502
  0
LINE
  5
3EE
100
AcDbEntity
  8
RACCORDO
100
AcDbLine
 62
7
  6
CONTINUOUS
 10
-40.3481162528
 20
18.3504563439
 11
-40.3481162528
 21
17.8
  0
LINE
  5
3EF
100
AcDbEntity
  8
RACCORDO
100
AcDbLine
 62
7
  6
CONTINUOUS
 10
-40.3481162528
 20
-18.3429975431
 11
-40.3481162528
 21
-17.8
  0
LINE
  5
3F0
100
AcDbEntity
  8
RACCORDO
100
AcDbLine
 62
250
  6
CONTINUOUS
 10
-40.8455293439
 20
17.8554184815
 11
-40.8460607554
 21
17.0199676925
  0
LINE
  5
3F1
100
AcDbEntity
  8
RACCORDO
100
AcDbLine
 62
250
  6
CONTINUOUS
 10
-40.846444979
 20
-18.5817098351
 11
-40.8460607762
 21
-17.0199676929
  0
LINE
  5
3F2
100
AcDbEntity
  8
RACCORDO
100
AcDbLine
 62
7
  6
CONTINUOUS
 10
-40.3482192821
 20
-18.3532444068
 11
-40.3481162528
 21
-18.3429975542
  0
LWPOLYLINE
  5
3F3
100
AcDbEntity
  8
RACCORDO
100
AcDbPolyline
 62
250
  6
CONTINUOUS
 90
5
 70
0
 10
-40.8486535236
 20
-18.8529061162
 10
-40.8482177556
 20
-18.8346785154
 10
-40.8477967163
 20
-18.8055559575
 10
-40.8474001493
 20
-18.7655922145
 10
-40.846444979
 20
-18.5817098351
  0
LINE
  5
3F4
100
AcDbEntity
  8
0
100
AcDbLine
 62
7
  6
CONTINUOUS
 10
-37.3481162528
 20
-11.453369
 11
-37.1481162528
 21
-11.453369
  0
LWPOLYLINE
  5
3F5
100
AcDbEntity
  8
RACCORDO
100
AcDbPolyline
 62
250
  6
CONTINUOUS
 90
4
 70
0
 10
-40.8492155255
 20
18.8603786685
 10
-40.8487200303
 20
18.8541955185
 10
-40.8482363779
 20
18.8356478778
 10
-40.8477772926
 20
18.8047454546
  0
LINE
  5
3F6
100
AcDbEntity
  8
RACCORDO
100
AcDbLine
 62
250
  6
CONTINUOUS
 10
-36.3655686738
 20
-5.2330780243
 11
-36.3619664649
 21
-5.4565265888
  0
LINE
  5
3F7
100
AcDbEntity
  8
RACCORDO
100
AcDbLine
 62
250
  6
CONTINUOUS
 10
-36.3603123806
 20
-16.5643917397
 11
-36.3655686599
 21
-16.2307128304
  0
LINE
  5
3F8
100
AcDbEntity
  8
RACCORDO
100
AcDbLine
 62
250
  6
CONTINUOUS
 10
-36.3619664649
 20
-5.4565265888
 11
-36.3590309293
 21
-5.6749364478
  0
LINE
  5
3F9
100
AcDbEntity
  8
RACCORDO
100
AcDbLine
 62
250
  6
CONTINUOUS
 10
-36.3566572396
 20
-16.8813419287
 11
-36.3603123806
 21
-16.5643917397
  0
LINE
  5
3FA
100
AcDbEntity
  8
RACCORDO
100
AcDbLine
 62
250
  6
CONTINUOUS
 10
-36.3590309293
 20
-5.6749364478
 11
-36.3568266314
 21
-5.8834479044
  0
LINE
  5
3FB
100
AcDbEntity
  8
RACCORDO
100
AcDbLine
 62
250
  6
CONTINUOUS
 10
-36.3568266314
 20
-5.8834479044
 11
-36.3554001313
 21
-6.0774287559
  0
LINE
  5
3FC
100
AcDbEntity
  8
RACCORDO
100
AcDbLine
 62
250
  6
CONTINUOUS
 10
-38.3297345414
 20
-15.5086396597
 11
-38.3306638463
 21
-15.3169502523
  0
LINE
  5
3FD
100
AcDbEntity
  8
RACCORDO
100
AcDbLine
 62
250
  6
CONTINUOUS
 10
-36.3547837609
 20
-17.1656793848
 11
-36.3566572396
 21
-16.8813419287
  0
LINE
  5
3FE
100
AcDbEntity
  8
RACCORDO
100
AcDbLine
 62
250
  6
CONTINUOUS
 10
-38.3288600074
 20
-15.6998409466
 11
-38.3297345414
 21
-15.5086396597
  0
LINE
  5
3FF
100
AcDbEntity
  8
RACCORDO
100
AcDbLine
 62
250
  6
CONTINUOUS
 10
-38.328308827
 20
-15.8267549324
 11
-38.3288600074
 21
-15.6998409466
  0
LINE
  5
400
100
AcDbEntity
  8
RACCORDO
100
AcDbLine
 62
250
  6
CONTINUOUS
 10
-38.3277837912
 20
-15.953013983
 11
-38.328308827
 21
-15.8267549324
  0
LINE
  5
401
100
AcDbEntity
  8
RACCORDO
100
AcDbLine
 62
250
  6
CONTINUOUS
 10
-38.3272860876
 20
-16.0784430794
 11
-38.3277837912
 21
-15.953013983
  0
LINE
  5
402
100
AcDbEntity
  8
RACCORDO
100
AcDbLine
 62
250
  6
CONTINUOUS
 10
-38.3268161828
 20
-16.2028640571
 11
-38.3272860876
 21
-16.0784430794
  0
LINE
  5
403
100
AcDbEntity
  8
RACCORDO
100
AcDbLine
 62
250
  6
CONTINUOUS
 10
-38.3261646499
 20
-16.3872765217
 11
-38.3268161828
 21
-16.2028640571
  0
LINE
  5
404
100
AcDbEntity
  8
RACCORDO
100
AcDbLine
 62
250
  6
CONTINUOUS
 10
-38.3257666302
 20
-16.5085094459
 11
-38.3261646499
 21
-16.3872765217
  0
LINE
  5
405
100
AcDbEntity
  8
RACCORDO
100
AcDbLine
 62
250
  6
CONTINUOUS
 10
-38.3252259923
 20
-16.6873510667
 11
-38.3257666302
 21
-16.5085094459
  0
LINE
  5
406
100
AcDbEntity
  8
RACCORDO
100
AcDbLine
 62
250
  6
CONTINUOUS
 10
-38.3249038951
 20
-16.8043021725
 11
-38.3252259923
 21
-16.6873510667
  0
LINE
  5
407
100
AcDbEntity
  8
RACCORDO
100
AcDbLine
 62
250
  6
CONTINUOUS
 10
-36.3554001313
 20
-6.0774287559
 11
-36.3547828066
 21
-6.2525693266
  0
LINE
  5
408
100
AcDbEntity
  8
0
100
AcDbLine
 62
7
  6
CONTINUOUS
 10
-37.1481162528
 20
-7.1326972631
 11
-37.1481162528
 21
-11.453368756
  0
LINE
  5
409
100
AcDbEntity
  8
RACCORDO
100
AcDbLine
 62
250
  6
CONTINUOUS
 10
-36.3655686592
 20
-6.732849568
 11
-36.3655676132
 21
-16.2307128136
  0
LINE
  5
40A
100
AcDbEntity
  8
RACCORDO
100
AcDbLine
 62
250
  6
CONTINUOUS
 10
-36.3545738476
 20
-17.3299927
 11
-36.3547837609
 21
-17.1656793848
  0
LINE
  5
40B
100
AcDbEntity
  8
RACCORDO
100
AcDbLine
 62
7
  6
CONTINUOUS
 10
-37.3481170042
 20
-16.7661636131
 11
-37.3481162528
 21
-7.7327060702
  0
LINE
  5
40C
100
AcDbEntity
  8
RACCORDO
100
AcDbLine
 62
250
  6
CONTINUOUS
 10
-38.3234949005
 20
-17.394614563
 11
-38.3249038951
 21
-16.8043021725
  0
LINE
  5
40D
100
AcDbEntity
  8
RACCORDO
100
AcDbLine
 62
250
  6
CONTINUOUS
 10
-36.3547828066
 20
-6.2525693266
 11
-36.3549883589
 21
-6.4049757011
  0
LWPOLYLINE
  5
40E
100
AcDbEntity
  8
RACCORDO
100
AcDbPolyline
 62
250
  6
CONTINUOUS
 90
76
 70
0
 10
-38.3306638463
 20
-15.3169502523
 10
-38.3304820647
 20
-7.6874540476
 10
-38.3298979646
 20
-7.6425729301
 10
-38.328911624
 20
-7.5980539106
 10
-38.3275499359
 20
-7.5540396811
 10
-38.3257860073
 20
-7.5103875496
 10
-38.3235391599
 20
-7.4666694402
 10
-38.3208198938
 20
-7.4228696848
 10
-38.3176177089
 20
-7.3790039514
 10
-38.3138204256
 20
-7.3346911682
 10
-38.3094485888
 20
-7.2898994362
 10
-38.3044816536
 20
-7.2446606544
 10
-38.2987458072
 20
-7.1986894474
 10
-38.292258913
 20
-7.1519544931
 10
-38.2850031074
 20
-7.1044871137
 10
-38.2767509874
 20
-7.0560959007
 10
-38.2674795505
 20
-7.006609752
 10
-38.2572117992
 20
-6.9561997698
 10
-38.245789338
 20
-6.9051878511
 10
-38.2331573768
 20
-6.8534560909
 10
-38.2193707057
 20
-6.8011223944
 10
-38.2044352999
 20
-6.748862374
 10
-38.1883087066
 20
-6.696701793
 10
-38.1710333784
 20
-6.6446148881
 10
-38.1527426485
 20
-6.5931999822
 10
-38.1334397616
 20
-6.5425734718
 10
-38.1131214728
 20
-6.4926189605
 10
-38.0919113803
 20
-6.443585582
 10
-38.0698312299
 20
-6.3955524494
 10
-38.0468592759
 20
-6.3484404496
 10
-38.0230538791
 20
-6.3022613766
 10
-37.998415191
 20
-6.25701673
 10
-37.9729430603
 20
-6.2127050102
 10
-37.946695394
 20
-6.1693335123
 10
-37.9196710228
 20
-6.1269008433
 10
-37.8918711159
 20
-6.0854083962
 10
-37.8633570886
 20
-6.0448676448
 10
-37.8341278885
 20
-6.0052779666
 10
-37.8041845679
 20
-5.966639984
 10
-37.7735916985
 20
-5.9289670384
 10
-37.742357076
 20
-5.8922668955
 10
-37.7104729046
 20
-5.8565317895
 10
-37.6779803686
 20
-5.821751765
 10
-37.6448918594
 20
-5.7879333112
 10
-37.6111949856
 20
-5.7550699388
 10
-37.576893757
 20
-5.7231322248
 10
-37.5419863458
 20
-5.6921111636
 10
-37.50647458
 20
-5.6620157607
 10
-37.4703679531
 20
-5.6328436096
 10
-37.4336191152
 20
-5.604562263
 10
-37.3962754164
 20
-5.5772041681
 10
-37.3584883997
 20
-5.5508642605
 10
-37.3202302316
 20
-5.5255419551
 10
-37.2815287456
 20
-5.501237837
 10
-37.2426189861
 20
-5.4780485977
 10
-37.2035261757
 20
-5.4560047656
 10
-37.1642250918
 20
-5.4350758123
 10
-37.1248751109
 20
-5.4152668445
 10
-37.0855699074
 20
-5.3966160068
 10
-37.0462158069
 20
-5.3790851547
 10
-37.0066911626
 20
-5.3625649606
 10
-36.9670205278
 20
-5.3470440419
 10
-36.9271793493
 20
-5.3325337812
 10
-36.8869723205
 20
-5.3189589996
 10
-36.8463787019
 20
-5.3062850881
 10
-36.8054192331
 20
-5.2945466557
 10
-36.7639608261
 20
-5.2837723495
 10
-36.7219840158
 20
-5.2739487306
 10
-36.6795082674
 20
-5.265089238
 10
-36.6364588888
 20
-5.2572628357
 10
-36.592825736
 20
-5.2504576686
 10
-36.548618953
 20
-5.2446855919
 10
-36.5037942798
 20
-5.2400511361
 10
-36.4583369631
 20
-5.2365891449
 10
-36.4122617563
 20
-5.2342647746
 10
-36.3655686592
 20
-5.2330780252
  0
LINE
  5
40F
100
AcDbEntity
  8
RACCORDO
100
AcDbLine
 62
250
  6
CONTINUOUS
 10
-38.323986382
 20
-17.5241145472
 11
-38.3234949005
 21
-17.394614563
  0
LINE
  5
410
100
AcDbEntity
  8
RACCORDO
100
AcDbLine
 62
250
  6
CONTINUOUS
 10
-38.3245909594
 20
-17.596224583
 11
-38.323986382
 21
-17.5241145472
  0
LWPOLYLINE
  5
411
100
AcDbEntity
  8
RACCORDO
100
AcDbPolyline
 62
250
  6
CONTINUOUS
 90
9
 70
0
 10
-36.3549883589
 20
-6.4049757011
 10
-36.3560127644
 20
-6.5312594847
 10
-36.3568258812
 20
-6.5837026817
 10
-36.3578341177
 20
-6.6286096402
 10
-36.3590317857
 20
-6.6657291195
 10
-36.3604122289
 20
-6.6948538436
 10
-36.3619677801
 20
-6.715820071
 10
-36.3636897888
 20
-6.7285091296
 10
-36.3655686738
 20
-6.7328487333
  0
LINE
  5
412
100
AcDbEntity
  8
RACCORDO
100
AcDbLine
 62
250
  6
CONTINUOUS
 10
-38.3251859145
 20
-17.6423313866
 11
-38.3245909594
 21
-17.596224583
  0
LINE
  5
413
100
AcDbEntity
  8
RACCORDO
100
AcDbLine
 62
250
  6
CONTINUOUS
 10
-38.3258987415
 20
-17.6813396223
 11
-38.3251859145
 21
-17.6423313866
  0
LINE
  5
414
100
AcDbEntity
  8
RACCORDO
100
AcDbLine
 62
250
  6
CONTINUOUS
 10
-38.3264376981
 20
-17.7033067023
 11
-38.3258987415
 21
-17.6813396223
  0
LWPOLYLINE
  5
415
100
AcDbEntity
  8
RACCORDO
100
AcDbPolyline
 62
250
  6
CONTINUOUS
 90
3
 70
0
 10
-40.8492155255
 20
-18.8603786685
 10
-40.848918735
 20
-18.8578070523
 10
-40.8488063472
 20
-18.8535488976
  0
LINE
  5
416
100
AcDbEntity
  8
RACCORDO
100
AcDbLine
 62
7
  6
CONTINUOUS
 10
-36.3655669404
 20
-6.732849538
 11
-29.3306638463
 21
-6.6100548477
  0
LINE
  5
417
100
AcDbEntity
  8
RACCORDO
100
AcDbLine
 62
250
  6
CONTINUOUS
 10
-38.3306635721
 20
-7.7326972896
 11
-37.9935576016
 21
-7.7309998413
  0
LINE
  5
418
100
AcDbEntity
  8
RACCORDO
100
AcDbLine
 62
250
  6
CONTINUOUS
 10
-37.9935576016
 20
-7.7309998413
 11
-37.6350413584
 21
-7.7303378872
  0
LWPOLYLINE
  5
419
100
AcDbEntity
  8
RACCORDO
100
AcDbPolyline
 62
250
  6
CONTINUOUS
 90
7
 70
0
 10
-37.6350413584
 20
-7.7303378872
 10
-37.4398457669
 20
-7.7307566671
 10
-37.4071564812
 20
-7.7309981362
 10
-37.3814747555
 20
-7.7313157227
 10
-37.3629918509
 20
-7.7317115715
 10
-37.3518447229
 20
-7.7321736206
 10
-37.3481161346
 20
-7.7326972631
  0
LINE
  5
41A
100
AcDbEntity
  8
RACCORDO
100
AcDbLine
 62
7
  6
CONTINUOUS
 10
-28.3481162528
 20
-7.75
 11
-27.6428805308
 21
-7.7623099353
  0
LINE
  5
41B
100
AcDbEntity
  8
RACCORDO
100
AcDbLine
 62
250
  6
CONTINUOUS
 10
-36.3655686592
 20
-5.2330780252
 11
-34.7832733271
 21
-5.2053060558
  0
LINE
  5
41C
100
AcDbEntity
  8
RACCORDO
100
AcDbLine
 62
250
  6
CONTINUOUS
 10
-34.7832733271
 20
-5.2053060558
 11
-29.3306638463
 21
-5.1102833217
  0
LINE
  5
41D
100
AcDbEntity
  8
RACCORDO
100
AcDbLine
 62
250
  6
CONTINUOUS
 10
-28.3481162528
 20
-5.1102833217
 11
-29.3306638463
 21
-5.1102833191
  0
LWPOLYLINE
  5
41E
100
AcDbEntity
  8
RACCORDO
100
AcDbPolyline
 62
250
  6
CONTINUOUS
 90
7
 70
0
 10
-48.7953954734
 20
19.0527207794
 10
-48.7945270342
 20
19.0514454732
 10
-48.7915294766
 20
19.0480479014
 10
-48.7864532879
 20
19.0425852887
 10
-48.7793839658
 20
19.0351496413
 10
-48.7704405778
 20
19.0258661965
 10
-48.7475631603
 20
19.0024098427
  0
LWPOLYLINE
  5
41F
100
AcDbEntity
  8
RACCORDO
100
AcDbPolyline
 62
7
  6
CONTINUOUS
 90
5
 70
0
 10
-28.3971596972
 20
-11.4425536261
 10
-28.3699852948
 20
-11.7795899471
 10
-28.3589068091
 20
-11.9360751847
 10
-28.3510945147
 20
-12.0858051571
 10
-28.3481162528
 20
-12.2287798644
  0
LINE
  5
420
100
AcDbEntity
  8
RACCORDO
100
AcDbLine
 62
250
  6
CONTINUOUS
 10
-29.3306638463
 20
-16.1079181127
 11
-29.3272199727
 21
-16.4415252695
  0
LINE
  5
421
100
AcDbEntity
  8
RACCORDO
100
AcDbLine
 62
250
  6
CONTINUOUS
 10
-29.3306638463
 20
-5.1102833217
 11
-29.327220879
 21
-5.4438340855
  0
LINE
  5
422
100
AcDbEntity
  8
RACCORDO
100
AcDbLine
 62
250
  6
CONTINUOUS
 10
-29.3249730945
 20
17.4705932736
 11
-29.3239853624
 21
17.3668892229
  0
LINE
  5
423
100
AcDbEntity
  8
RACCORDO
100
AcDbLine
 62
250
  6
CONTINUOUS
 10
-29.3272199727
 20
-16.4415252695
 11
-29.3248221164
 21
-16.758520537
  0
LINE
  5
424
100
AcDbEntity
  8
RACCORDO
100
AcDbLine
 62
250
  6
CONTINUOUS
 10
-29.327220879
 20
-5.4438340855
 11
-29.3248228164
 21
-5.7608415564
  0
LINE
  5
425
100
AcDbEntity
  8
RACCORDO
100
AcDbLine
 62
250
  6
CONTINUOUS
 10
-29.3248221164
 20
-16.758520537
 11
-29.3235935436
 21
-17.0429177543
  0
LINE
  5
426
100
AcDbEntity
  8
RACCORDO
100
AcDbLine
 62
250
  6
CONTINUOUS
 10
-29.3248228164
 20
-5.7608415564
 11
-29.3235939251
 21
-6.0452425383
  0
LINE
  5
427
100
AcDbEntity
  8
RACCORDO
100
AcDbLine
 62
250
  6
CONTINUOUS
 10
-29.3239853624
 20
17.3668892229
 11
-29.3234383412
 21
17.1635048146
  0
LINE
  5
428
100
AcDbEntity
  8
RACCORDO
100
AcDbLine
 62
250
  6
CONTINUOUS
 10
-29.3306638463
 20
-16.1079181127
 11
-29.3306638463
 21
-6.6100548477
  0
LINE
  5
429
100
AcDbEntity
  8
RACCORDO
100
AcDbLine
 62
250
  6
CONTINUOUS
 10
-29.3306638463
 20
-5.1102833217
 11
-29.3306638463
 21
15.159649807
  0
LINE
  5
42A
100
AcDbEntity
  8
RACCORDO
100
AcDbLine
 62
250
  6
CONTINUOUS
 10
-29.3235939251
 20
-6.0452425383
 11
-29.3235936482
 21
-6.2827519336
  0
LINE
  5
42B
100
AcDbEntity
  8
RACCORDO
100
AcDbLine
 62
250
  6
CONTINUOUS
 10
-29.3235935436
 20
-17.0429177543
 11
-29.3235938206
 21
-17.2804189736
  0
LWPOLYLINE
  5
42C
100
AcDbEntity
  8
RACCORDO
100
AcDbPolyline
 62
250
  6
CONTINUOUS
 90
3
 70
0
 10
-29.326591487
 20
16.1079281633
 10
-29.3297449091
 20
15.3515940251
 10
-29.3306650885
 20
15.1596498287
  0
LINE
  5
42D
100
AcDbEntity
  8
RACCORDO
100
AcDbLine
 62
250
  6
CONTINUOUS
 10
-29.3234383412
 20
17.1635048146
 11
-29.326591487
 21
16.1079281633
  0
LWPOLYLINE
  5
42E
100
AcDbEntity
  8
RACCORDO
100
AcDbPolyline
 62
250
  6
CONTINUOUS
 90
9
 70
0
 10
-29.3235936482
 20
-6.2827519336
 10
-29.324277527
 20
-6.4090496671
 10
-29.3248222022
 20
-6.4614678629
 10
-29.3254965938
 20
-6.5063285212
 10
-29.3262959682
 20
-6.5433806875
 10
-29.3272200227
 20
-6.5724159033
 10
-29.3282630968
 20
-6.5932742664
 10
-29.3294142698
 20
-6.6058430149
 10
-29.3306638463
 20
-6.6100548477
  0
LWPOLYLINE
  5
42F
100
AcDbEntity
  8
RACCORDO
100
AcDbPolyline
 62
250
  6
CONTINUOUS
 90
9
 70
0
 10
-29.3235938206
 20
-17.2804189736
 10
-29.3242779563
 20
-17.4067090683
 10
-29.3248227305
 20
-17.4591239561
 10
-29.3254972362
 20
-17.5039829179
 10
-29.3262967316
 20
-17.5410330195
 10
-29.327220829
 20
-17.5700635919
 10
-29.3282637978
 20
-17.5909159333
 10
-29.3294147111
 20
-17.6034798215
 10
-29.3306638463
 20
-17.6076896529
  0
LWPOLYLINE
  5
430
100
AcDbEntity
  8
RACCORDO
100
AcDbPolyline
 62
250
  6
CONTINUOUS
 90
6
 70
0
 10
-48.7703404702
 20
-19.0257627849
 10
-48.7793275372
 20
-19.035090726
 10
-48.7864266948
 20
-19.0425570488
 10
-48.7915196806
 20
-19.0480371518
 10
-48.794525165
 20
-19.0514432141
 10
-48.7953954734
 20
-19.0527207794
  0
LINE
  5
431
100
AcDbEntity
  8
RACCORDO
100
AcDbLine
 62
250
  6
CONTINUOUS
 10
-48.7473475616
 20
-19.0021900685
 11
-48.7703404702
 21
-19.0257627849
  0
LINE
  5
432
100
AcDbEntity
  8
RACCORDO
100
AcDbLine
 62
250
  6
CONTINUOUS
 10
-48.7070366057
 20
-18.9613638726
 11
-48.7473475616
 21
-19.0021900685
  0
LINE
  5
433
100
AcDbEntity
  8
RACCORDO
100
AcDbLine
 62
7
  6
CONTINUOUS
 10
-28.3914933116
 20
-2.2007571494
 11
-27.6428805308
 21
-2.1876900647
  0
LINE
  5
434
100
AcDbEntity
  8
RACCORDO
100
AcDbLine
 62
250
  6
CONTINUOUS
 10
-28.5436057145
 20
-1.9034579727
 11
-27.6428805308
 21
-1.8877357561
  0
LINE
  5
435
100
AcDbEntity
  8
RACCORDO
100
AcDbLine
 62
250
  6
CONTINUOUS
 10
-27.3481162528
 20
-1.8877357561
 11
-27.6428805308
 21
-1.8877357561
  0
LWPOLYLINE
  5
436
100
AcDbEntity
  8
RACCORDO
100
AcDbPolyline
 62
7
  6
CONTINUOUS
 90
16
 70
0
 10
-28.3914933116
 20
-2.2007571494
 10
-28.402558572
 20
-2.1991463271
 10
-28.4142887092
 20
-2.1939892783
 10
-28.4266884793
 20
-2.1853921153
 10
-28.4400872337
 20
-2.1734765214
 10
-28.4541624644
 20
-2.1584344857
 10
-28.4679380332
 20
-2.1405910941
 10
-28.4813939581
 20
-2.1203228426
 10
-28.4945467558
 20
-2.0978790693
 10
-28.5064730831
 20
-2.0734463126
 10
-28.5171090168
 20
-2.047236185
 10
-28.5265131134
 20
-2.0196413301
 10
-28.5339445227
 20
-1.9911246866
 10
-28.5391518011
 20
-1.9620682025
 10
-28.5423743274
 20
-1.9327447896
 10
-28.5436057145
 20
-1.9034579727
  0
LINE
  5
437
100
AcDbEntity
  8
RACCORDO
100
AcDbLine
 62
250
  6
CONTINUOUS
 10
-48.7475631603
 20
19.0024098427
 11
-48.7070368521
 21
18.9613638775
  0
LWPOLYLINE
  5
438
100
AcDbEntity
  8
RACCORDO
100
AcDbPolyline
 62
250
  6
CONTINUOUS
 90
16
 70
0
 10
-28.3481162529
 20
16.3449339707
 10
-28.3534322657
 20
16.3937425154
 10
-28.3693207952
 20
16.4420321997
 10
-28.3956129621
 20
16.4892897516
 10
-28.4320293063
 20
16.5350128697
 10
-28.4781827576
 20
16.5787155619
 10
-28.5335827502
 20
16.6199333115
 10
-28.5976404363
 20
16.6582280141
 10
-28.6696749455
 20
16.6931926346
 10
-28.7489206215
 20
16.7244555333
 10
-28.8345351603
 20
16.7516844162
 10
-28.9256085632
 20
16.774589867
 10
-29.0211728091
 20
16.7929284231
 10
-29.1202121437
 20
16.8065051636
 10
-29.2216738758
 20
16.8151757811
 10
-29.3244795665
 20
16.8188481155
  0
LINE
  5
439
100
AcDbEntity
  8
RACCORDO
100
AcDbLine
 62
250
  6
CONTINUOUS
 10
-27.6428805308
 20
-1.8877357561
 11
-27.6416137387
 21
-1.9725781849
  0
LINE
  5
43A
100
AcDbEntity
  8
RACCORDO
100
AcDbLine
 62
250
  6
CONTINUOUS
 10
-27.6411089266
 20
3.7569032878
 11
-27.6408933871
 21
3.7411781799
  0
LINE
  5
43B
100
AcDbEntity
  8
RACCORDO
100
AcDbLine
 62
250
  6
CONTINUOUS
 10
-27.6416137387
 20
-1.9725781849
 11
-27.6410197872
 21
-2.0305686044
  0
LINE
  5
43C
100
AcDbEntity
  8
RACCORDO
100
AcDbLine
 62
250
  6
CONTINUOUS
 10
-27.6408933871
 20
3.7411781799
 11
-27.6407607546
 21
3.7224980562
  0
LINE
  5
43D
100
AcDbEntity
  8
RACCORDO
100
AcDbLine
 62
250
  6
CONTINUOUS
 10
-27.6410197872
 20
-2.0305686044
 11
-27.6407322626
 21
-2.083936904
  0
LINE
  5
43E
100
AcDbEntity
  8
RACCORDO
100
AcDbLine
 62
7
  6
CONTINUOUS
 10
-28.5436057145
 20
3.5034579727
 11
-28.5436057145
 21
-1.9034579727
  0
LINE
  5
43F
100
AcDbEntity
  8
RACCORDO
100
AcDbLine
 62
7
  6
CONTINUOUS
 10
-28.3481162528
 20
16.6078419577
 11
-28.3481162528
 21
12.5372983794
  0
LINE
  5
440
100
AcDbEntity
  8
RACCORDO
100
AcDbLine
 62
7
  6
CONTINUOUS
 10
-28.3481162528
 20
8.9627016206
 11
-28.3481162528
 21
3.8
  0
LINE
  5
441
100
AcDbEntity
  8
RACCORDO
100
AcDbLine
 62
7
  6
CONTINUOUS
 10
-28.3481162528
 20
-2.2
 11
-28.3481162528
 21
-9.2712104204
  0
LINE
  5
442
100
AcDbEntity
  8
RACCORDO
100
AcDbLine
 62
7
  6
CONTINUOUS
 10
-28.3481162528
 20
-12.2287895796
 11
-28.3481162528
 21
-16.6078419577
  0
LINE
  5
443
100
AcDbEntity
  8
RACCORDO
100
AcDbLine
 62
250
  6
CONTINUOUS
 10
-27.6428805308
 20
3.4877357561
 11
-27.6428805308
 21
-1.8877357561
  0
LINE
  5
444
100
AcDbEntity
  8
RACCORDO
100
AcDbLine
 62
250
  6
CONTINUOUS
 10
-27.6428805308
 20
-7.7623099353
 11
-27.6428805308
 21
-13.7376900647
  0
LINE
  5
445
100
AcDbEntity
  8
RACCORDO
100
AcDbLine
 62
250
  6
CONTINUOUS
 10
-27.6428805308
 20
13.7376900647
 11
-27.6428805308
 21
7.7623099353
  0
LINE
  5
446
100
AcDbEntity
  8
RACCORDO
100
AcDbLine
 62
7
  6
CONTINUOUS
 10
-27.3481162528
 20
13.4377357561
 11
-27.3481162528
 21
8.0622642439
  0
LINE
  5
447
100
AcDbEntity
  8
RACCORDO
100
AcDbLine
 62
7
  6
CONTINUOUS
 10
-27.3481162528
 20
3.4877357561
 11
-27.3481162528
 21
-1.8877357561
  0
LINE
  5
448
100
AcDbEntity
  8
RACCORDO
100
AcDbLine
 62
7
  6
CONTINUOUS
 10
-27.3481162528
 20
-8.0622642439
 11
-27.3481162528
 21
-13.4377357561
  0
LINE
  5
449
100
AcDbEntity
  8
RACCORDO
100
AcDbLine
 62
250
  6
CONTINUOUS
 10
-27.6407607546
 20
3.7224980562
 11
-27.6407210758
 21
3.6896126869
  0
LINE
  5
44A
100
AcDbEntity
  8
RACCORDO
100
AcDbLine
 62
250
  6
CONTINUOUS
 10
-27.6407322626
 20
-2.083936904
 11
-27.6407434339
 21
-2.1181637199
  0
LINE
  5
44B
100
AcDbEntity
  8
RACCORDO
100
AcDbLine
 62
250
  6
CONTINUOUS
 10
-27.6407210758
 20
3.6896126869
 11
-27.64095966
 21
3.6384200781
  0
LINE
  5
44C
100
AcDbEntity
  8
RACCORDO
100
AcDbLine
 62
250
  6
CONTINUOUS
 10
-27.6407434339
 20
-2.1181637199
 11
-27.6408586489
 21
-2.1375118341
  0
LINE
  5
44D
100
AcDbEntity
  8
RACCORDO
100
AcDbLine
 62
250
  6
CONTINUOUS
 10
-27.64095966
 20
3.6384200781
 11
-27.6416987744
 21
3.5657952072
  0
LWPOLYLINE
  5
44E
100
AcDbEntity
  8
RACCORDO
100
AcDbPolyline
 62
250
  6
CONTINUOUS
 90
11
 70
0
 10
-27.6408586489
 20
-2.1375118341
 10
-27.6410568146
 20
-2.1538571336
 10
-27.6411860383
 20
-2.160871087
 10
-27.6413347101
 20
-2.1670920141
 10
-27.6415024901
 20
-2.1725131835
 10
-27.6416888461
 20
-2.1771218333
 10
-27.6418931906
 20
-2.1809072574
 10
-27.6421151504
 20
-2.1838640218
 10
-27.6423541917
 20
-2.1859843138
 10
-27.6426095589
 20
-2.1872608843
 10
-27.6428805308
 20
-2.1876900647
  0
LINE
  5
44F
100
AcDbEntity
  8
RACCORDO
100
AcDbLine
 62
250
  6
CONTINUOUS
 10
-27.6416987744
 20
3.5657952072
 11
-27.6428805308
 21
3.4877357561
  0
LWPOLYLINE
  5
450
100
AcDbEntity
  8
RACCORDO
100
AcDbPolyline
 62
7
  6
CONTINUOUS
 90
4
 70
0
 10
-28.3481162528
 20
-9.2712201356
 10
-28.351094345
 20
-9.4141826109
 10
-28.3589065051
 20
-9.5639129212
 10
-28.3699853738
 20
-9.7204110663
  0
LWPOLYLINE
  5
451
100
AcDbEntity
  8
RACCORDO
100
AcDbPolyline
 62
7
  6
CONTINUOUS
 90
22
 70
0
 10
-28.3481162528
 20
12.5373006973
 10
-28.3525918516
 20
12.4050857946
 10
-28.3650731832
 20
12.2621156718
 10
-28.3841633756
 20
12.1083903291
 10
-28.409227601
 20
11.941635049
 10
-28.4385790919
 20
11.7641245489
 10
-28.4680381433
 20
11.5826829812
 10
-28.4949308826
 20
11.397605665
 10
-28.5180797698
 20
11.2085972812
 10
-28.5345515356
 20
11.0215960239
 10
-28.5427601999
 20
10.8399252582
 10
-28.5427651622
 20
10.660261619
 10
-28.5345626548
 20
10.4785732058
 10
-28.5180895899
 20
10.291525594
 10
-28.4949361518
 20
10.1024532082
 10
-28.4680397797
 20
9.9173274214
 10
-28.4385789832
 20
9.7358681258
 10
-28.4092265275
 20
9.5583554293
 10
-28.384162158
 20
9.3916010291
 10
-28.365072367
 20
9.2378754907
 10
-28.3525915751
 20
9.0949082486
 10
-28.3481162528
 20
8.9626993027
  0
LWPOLYLINE
  5
452
100
AcDbEntity
  8
RACCORDO
100
AcDbPolyline
 62
7
  6
CONTINUOUS
 90
16
 70
0
 10
-28.5436057145
 20
3.5034579727
 10
-28.5423743274
 20
3.5327447896
 10
-28.5391518011
 20
3.5620682025
 10
-28.5339445227
 20
3.5911246866
 10
-28.5265131134
 20
3.6196413301
 10
-28.5171090168
 20
3.647236185
 10
-28.5064730831
 20
3.6734463126
 10
-28.4945467558
 20
3.6978790693
 10
-28.4813939581
 20
3.7203228426
 10
-28.4679380332
 20
3.7405910941
 10
-28.4541624644
 20
3.7584344857
 10
-28.4400872337
 20
3.7734765214
 10
-28.4266884793
 20
3.7853921153
 10
-28.4142887092
 20
3.7939892783
 10
-28.402558572
 20
3.7991463271
 10
-28.3914933116
 20
3.8007571494
  0
LWPOLYLINE
  5
453
100
AcDbEntity
  8
RACCORDO
100
AcDbPolyline
 62
7
  6
CONTINUOUS
 90
10
 70
0
 10
-28.3699853738
 20
-9.7204110663
 10
-28.39716496
 20
-10.0575187011
 10
-28.4097212375
 20
-10.2305125113
 10
-28.4193835536
 20
-10.4030150248
 10
-28.4256289171
 20
-10.5765736136
 10
-28.4278036759
 20
-10.7501186342
 10
-28.4256255079
 20
-10.9236407459
 10
-28.4193770052
 20
-11.0971492894
 10
-28.409713735
 20
-11.2696026434
 10
-28.3971596972
 20
-11.4425536261
  0
LWPOLYLINE
  5
454
100
AcDbEntity
  8
RACCORDO
100
AcDbPolyline
 62
250
  6
CONTINUOUS
 90
10
 70
0
 10
-36.3655675939
 20
-17.7305556031
 10
-36.3636528224
 20
-17.7263236754
 10
-36.3618979209
 20
-17.7137318154
 10
-36.36031266
 20
-17.6928503565
 10
-36.358905963
 20
-17.6637959707
 10
-36.3576855558
 20
-17.6267310099
 10
-36.3566579778
 20
-17.581862596
 10
-36.3558290115
 20
-17.5294414673
 10
-36.3552033017
 20
-17.4697606024
 10
-36.3545738476
 20
-17.3299927
  0
LINE
  5
455
100
AcDbEntity
  8
RACCORDO
100
AcDbLine
 62
250
  6
CONTINUOUS
 10
-27.3481162528
 20
3.4877357561
 11
-27.6428805308
 21
3.4877357561
  0
LINE
  5
456
100
AcDbEntity
  8
RACCORDO
100
AcDbLine
 62
250
  6
CONTINUOUS
 10
-27.6428805308
 20
3.4877357561
 11
-28.5436057145
 21
3.5034579727
  0
LINE
  5
457
100
AcDbEntity
  8
RACCORDO
100
AcDbLine
 62
7
  6
CONTINUOUS
 10
-27.6428805308
 20
3.7876900647
 11
-28.3914933116
 21
3.8007571494
  0
LWPOLYLINE
  5
458
100
AcDbEntity
  8
RACCORDO
100
AcDbPolyline
 62
250
  6
CONTINUOUS
 90
10
 70
0
 10
-27.6428805308
 20
3.7876900647
 10
-27.642637964
 20
3.7873475135
 10
-27.6424035652
 20
3.7863038359
 10
-27.6421786044
 20
3.7845229345
 10
-27.6419639861
 20
3.7819642943
 10
-27.6417615263
 20
3.7785976773
 10
-27.6415736304
 20
3.774418278
 10
-27.6414013892
 20
3.7694107828
 10
-27.6412458926
 20
3.7635625635
 10
-27.6411089266
 20
3.7569032878
  0
LWPOLYLINE
  5
459
100
AcDbEntity
  8
RACCORDO
100
AcDbPolyline
 62
250
  6
CONTINUOUS
 90
4
 70
0
 10
-37.3460529972
 20
-16.7624659933
 10
-37.3472021398
 20
-16.7638707682
 10
-37.347888506
 20
-16.7646946944
 10
-37.3481162528
 20
-16.764937772
  0
LWPOLYLINE
  5
45A
100
AcDbEntity
  8
RACCORDO
100
AcDbPolyline
 62
250
  6
CONTINUOUS
 90
12
 70
0
 10
-38.3306638463
 20
-17.7647852373
 10
-38.3302518198
 20
-17.7643490452
 10
-38.3298497143
 20
-17.7630549855
 10
-38.3294578826
 20
-17.7609033715
 10
-38.3290767521
 20
-17.7578947821
 10
-38.328706577
 20
-17.7540306265
 10
-38.3283474274
 20
-17.7493137102
 10
-38.3279996059
 20
-17.7437470288
 10
-38.3276634127
 20
-17.7373337036
 10
-38.3273388842
 20
-17.7300782034
 10
-38.3270262999
 20
-17.7219854579
 10
-38.3264376981
 20
-17.7033067023
  0
LWPOLYLINE
  5
45B
100
AcDbEntity
  8
RACCORDO
100
AcDbPolyline
 62
250
  6
CONTINUOUS
 90
7
 70
0
 10
-29.3306638463
 20
17.6076896529
 10
-29.3294629829
 20
17.6038117293
 10
-29.3283522563
 20
17.5922363223
 10
-29.3273403753
 20
17.5730156255
 10
-29.3264371568
 20
17.546238054
 10
-29.3256478863
 20
17.5120360278
 10
-29.3249730945
 20
17.4705932736
  0
LINE
  5
45C
100
AcDbEntity
  8
RACCORDO
100
AcDbLine
 62
7
  6
CONTINUOUS
 10
-28.3481162528
 20
7.75
 11
-27.6428805308
 21
7.7623099353
  0
LWPOLYLINE
  5
45D
100
AcDbEntity
  8
0
100
AcDbPolyline
 62
7
  6
CONTINUOUS
 90
10
 70
0
 43
0.3500000006
 10
-38.0909750977
 20
36.5506226349
 10
-38.0195439148
 20
36.407764801
 10
-38.0195439148
 20
36.33633815
 10
-38.1624017487
 20
36.1934803162
 10
-38.2338283997
 20
36.1934803162
 10
-38.3052595825
 20
36.2649069672
 10
-38.3052595825
 20
36.33633815
 10
-38.2338283997
 20
36.4791959839
 10
-38.1624017487
 20
36.5506226349
 10
-38.0909750977
 20
36.5506226349
  0
LWPOLYLINE
  5
45E
100
AcDbEntity
  8
0
100
AcDbPolyline
 62
7
  6
CONTINUOUS
 90
10
 70
0
 43
0.3500000006
 10
-42.8409720154
 20
46.5506211548
 10
-42.7695453644
 20
46.4077678528
 10
-42.7695453644
 20
46.3363366699
 10
-42.9124031982
 20
46.1934788361
 10
-42.9838298492
 20
46.1934788361
 10
-43.0552610321
 20
46.2649100189
 10
-43.0552610321
 20
46.3363366699
 10
-42.9838298492
 20
46.4791945038
 10
-42.9124031982
 20
46.5506211548
 10
-42.8409720154
 20
46.5506211548
  0
LINE
  5
45F
100
AcDbEntity
  8
DRAFT
100
AcDbLine
 62
7
  6
CONTINUOUS
 10
-40.5481162528
 20
-19.9483339502
 11
-44.440442573
 21
-22.1955695989
  0
LINE
  5
460
100
AcDbEntity
  8
RACCORDO
100
AcDbLine
 62
7
  6
CONTINUOUS
 10
-28.3481162528
 20
13.75
 11
-27.6428805308
 21
13.7376900647
  0
LINE
  5
461
100
AcDbEntity
  8
DRAFT
100
AcDbLine
 62
7
  6
CONTINUOUS
 10
-40.5481162528
 20
19.9483339502
 11
-44.440442573
 21
22.1955695989
  0
LINE
  5
462
100
AcDbEntity
  8
RACCORDO
100
AcDbLine
 62
250
  6
CONTINUOUS
 10
-28.3481162528
 20
15.159854668
 11
-29.3306638463
 21
15.159854668
  0
LINE
  5
463
100
AcDbEntity
  8
RACCORDO
100
AcDbLine
 62
250
  6
CONTINUOUS
 10
-50.5481162528
 20
17.1673849704
 11
-48.8481162528
 21
17.1575153665
  0
LINE
  5
464
100
AcDbEntity
  8
RACCORDO
100
AcDbLine
 62
250
  6
CONTINUOUS
 10
-50.5481162528
 20
16.5543574599
 11
-48.8481162528
 21
16.5441903035
  0
LINE
  5
465
100
AcDbEntity
  8
RACCORDO
100
AcDbLine
 62
250
  6
CONTINUOUS
 10
-29.3306638463
 20
15.159649807
 11
-48.8481162528
 21
15.500533067
  0
LINE
  5
466
100
AcDbEntity
  8
RACCORDO
100
AcDbLine
 62
250
  6
CONTINUOUS
 10
-29.3244792365
 20
16.8188341385
 11
-40.8460607554
 21
17.0199676925
  0
LINE
  5
467
100
AcDbEntity
  8
RACCORDO
100
AcDbLine
 62
7
  6
CONTINUOUS
 10
-40.3482944892
 20
17.8000031111
 11
-29.3306638463
 21
17.6076896529
  0
LINE
  5
468
100
AcDbEntity
  8
RACCORDO
100
AcDbLine
 62
7
  6
CONTINUOUS
 10
-48.8481162528
 20
18.2203502372
 11
-50.5481162528
 21
18.3006924199
  0
LINE
  5
469
100
AcDbEntity
  8
RACCORDO
100
AcDbLine
 62
250
  6
CONTINUOUS
 10
-48.8481162528
 20
18.150052343
 11
-50.5481162528
 21
18.2308351883
  0
LINE
  5
46A
100
AcDbEntity
  8
DRAFT
100
AcDbLine
 62
7
  6
CONTINUOUS
 10
-40.5481162528
 20
19.1872686779
 11
-50.5481162528
 21
19.1
  0
LINE
  5
46B
100
AcDbEntity
  8
RACCORDO
100
AcDbLine
 62
250
  6
CONTINUOUS
 10
-48.8481162528
 20
18.3
 11
-49.0446257715
 21
18.3
  0
LINE
  5
46C
100
AcDbEntity
  8
DRAFT
100
AcDbLine
 62
7
  6
CONTINUOUS
 10
-42.7500400414
 20
19.0
 11
-43.8481162528
 21
19.0
  0
LINE
  5
46D
100
AcDbEntity
  8
DRAFT
100
AcDbLine
 62
7
  6
CONTINUOUS
 10
-50.5481162528
 20
20.9
 11
-42.0815470454
 21
20.833660631
  0
LINE
  5
46E
100
AcDbEntity
  8
DRAFT
100
AcDbLine
 62
7
  6
CONTINUOUS
 10
-46.5481162528
 20
21.2139629885
 11
-42.6818093589
 21
21.1802222394
  0
LINE
  5
46F
100
AcDbEntity
  8
RACCORDO
100
AcDbLine
 62
7
  6
CONTINUOUS
 10
-40.8492155255
 20
18.8603786685
 11
-48.1481162528
 21
18.9877814546
  0
LWPOLYLINE
  5
470
100
AcDbEntity
  8
0
100
AcDbPolyline
 62
250
  6
CONTINUOUS
 90
4
 70
0
 10
-59.6061288862
 20
21.0183132877
 10
-59.6034544142
 20
21.0181627949
 10
-59.5954563465
 20
21.0177887256
 10
-59.1153195548
 20
20.9972959167
  0
LINE
  5
471
100
AcDbEntity
  8
0
100
AcDbLine
 62
250
  6
CONTINUOUS
 10
-58.6419294978
 20
21.4755923698
 11
-50.5481162528
 21
21.8997711479
  0
LINE
  5
472
100
AcDbEntity
  8
0
100
AcDbLine
 62
7
  6
CONTINUOUS
 10
-58.6593712727
 20
21.9749071372
 11
-50.5481162528
 21
22.4
  0
LINE
  5
473
100
AcDbEntity
  8
DRAFT
100
AcDbLine
 62
7
  6
CONTINUOUS
 10
-48.3119780411
 20
22.6434763615
 11
-46.5481162528
 21
22.6298666026
  0
LINE
  5
474
100
AcDbEntity
  8
0
100
AcDbLine
 62
7
  6
CONTINUOUS
 10
-44.440442573
 20
22.1955695989
 11
-44.9481162528
 21
22.2
  0
LINE
  5
475
100
AcDbEntity
  8
DRAFT
100
AcDbLine
 62
7
  6
CONTINUOUS
 10
-50.5481162528
 20
22.663166622
 11
-48.3119780411
 21
22.6434763615
  0
LINE
  5
476
100
AcDbEntity
  8
DRAFT
100
AcDbLine
 62
7
  6
CONTINUOUS
 10
-50.5481162528
 20
23.5
 11
-46.5481162528
 21
23.4301797403
  0
LINE
  5
477
100
AcDbEntity
  8
DRAFT
100
AcDbLine
 62
7
  6
CONTINUOUS
 10
-50.5481162528
 20
23.1799085618
 11
-49.2022792231
 21
23.1539087364
  0
LINE
  5
478
100
AcDbEntity
  8
DRAFT
100
AcDbLine
 62
7
  6
CONTINUOUS
 10
-49.2022792231
 20
23.1539087364
 11
-47.8689163266
 21
23.1272559626
  0
LINE
  5
479
100
AcDbEntity
  8
DRAFT
100
AcDbLine
 62
7
  6
CONTINUOUS
 10
-47.8689163266
 20
23.1272559626
 11
-46.5481162528
 21
23.0998904748
  0
LWPOLYLINE
  5
47A
100
AcDbEntity
  8
0
100
AcDbPolyline
 62
7
  6
CONTINUOUS
 90
6
 70
0
 43
0.3500000006
 10
-40.8766869965
 20
36.0506224823
 10
-39.8052600403
 20
36.0506224823
 10
-39.5909755554
 20
36.2649069672
 10
-39.5909755554
 20
37.3363384552
 10
-40.0195445251
 20
37.7649074249
 10
-40.4481180267
 20
37.7649074249
  0
LWPOLYLINE
  5
47B
100
AcDbEntity
  8
0
100
AcDbPolyline
 62
7
  6
CONTINUOUS
 90
7
 70
0
 43
0.3500000006
 10
-35.5195454178
 20
36.0506224823
 10
-37.0195458755
 20
36.0506224823
 10
-35.5195454178
 20
38.1934809265
 10
-35.5195454178
 20
38.6220498962
 10
-35.9481166534
 20
39.0506233978
 10
-36.590972374
 20
39.0506233978
 10
-37.0195458755
 20
38.4077654114
  0
LWPOLYLINE
  5
47C
100
AcDbEntity
  8
0
100
AcDbPolyline
 62
7
  6
CONTINUOUS
 90
7
 70
0
 43
0.3500000006
 10
-41.7338294678
 20
36.0506224823
 10
-43.2338299255
 20
36.0506224823
 10
-41.7338294678
 20
38.1934809265
 10
-41.7338294678
 20
38.6220498962
 10
-42.1624029694
 20
39.0506233978
 10
-42.8052609558
 20
39.0506233978
 10
-43.2338299255
 20
38.4077654114
  0
LWPOLYLINE
  5
47D
100
AcDbEntity
  8
0
100
AcDbPolyline
 62
7
  6
CONTINUOUS
 90
6
 70
0
 43
0.3500000006
 10
-47.9838313751
 20
46.0506210022
 10
-46.9123998871
 20
46.0506210022
 10
-46.6981154022
 20
46.2649100189
 10
-46.6981154022
 20
47.3363369751
 10
-47.1266889038
 20
47.7649104767
 10
-47.5552578735
 20
47.7649104767
  0
LWPOLYLINE
  5
47E
100
AcDbEntity
  8
0
100
AcDbPolyline
 62
7
  6
CONTINUOUS
 90
7
 70
0
 43
0.3500000006
 10
-44.3409724731
 20
46.0506210022
 10
-45.8409729309
 20
46.0506210022
 10
-44.3409724731
 20
48.1934794464
 10
-44.3409724731
 20
48.622052948
 10
-44.7695459747
 20
49.0506219177
 10
-45.4124039612
 20
49.0506219177
 10
-45.8409729309
 20
48.4077639313
  0
ARC
  5
47F
100
AcDbEntity
  8
0
100
AcDbCircle
 62
7
  6
CONTINUOUS
 10
-2.9240383034
 20
-1.1
 40
1.0
100
AcDbArc
 50
35.6853347127
 51
79.7939493486
  0
ARC
  5
480
100
AcDbEntity
  8
DRAFT
100
AcDbCircle
 62
7
  6
CONTINUOUS
 10
-4.95
 20
-23.1
 40
0.5
100
AcDbArc
 50
350.803718421
 51
119.112422776
  0
ARC
  5
481
100
AcDbEntity
  8
DRAFT
100
AcDbCircle
 62
7
  6
CONTINUOUS
 10
-11.25
 20
0.0
 40
28.0
100
AcDbArc
 50
55.8789063483
 51
57.0647695028
  0
ARC
  5
482
100
AcDbEntity
  8
DRAFT
100
AcDbCircle
 62
7
  6
CONTINUOUS
 10
-11.25
 20
0.0
 40
28.0
100
AcDbArc
 50
53.1301023542
 51
54.0372348486
  0
ARC
  5
483
100
AcDbEntity
  8
DRAFT
100
AcDbCircle
 62
7
  6
CONTINUOUS
 10
-11.25
 20
0.0
 40
28.0
100
AcDbArc
 50
302.9352304972
 51
304.1210936517
  0
ARC
  5
484
100
AcDbEntity
  8
DRAFT
100
AcDbCircle
 62
7
  6
CONTINUOUS
 10
-11.25
 20
0.0
 40
28.0
100
AcDbArc
 50
305.9627651514
 51
306.8698976458
  0
ARC
  5
485
100
AcDbEntity
  8
0
100
AcDbCircle
 62
7
  6
CONTINUOUS
 10
-2.9240383034
 20
1.1
 40
1.0
100
AcDbArc
 50
280.211773486
 51
324.3146652873
  0
ARC
  5
486
100
AcDbEntity
  8
DRAFT
100
AcDbCircle
 62
7
  6
CONTINUOUS
 10
-4.95
 20
23.1
 40
0.5
100
AcDbArc
 50
240.887577224
 51
9.196281579
  0
ARC
  5
487
100
AcDbEntity
  8
RACCORDO
100
AcDbCircle
 62
7
  6
CONTINUOUS
 10
0.0
 20
-13.0
 40
2.8
100
AcDbArc
 50
136.6731707
 51
43.3268293
  0
ARC
  5
488
100
AcDbEntity
  8
ASSI
100
AcDbCircle
 62
7
  6
CONTINUOUS
 10
0.0
 20
-13.0
 40
2.75
100
AcDbArc
 50
171.7867892983
 51
8.2132107017
  0
ARC
  5
489
100
AcDbEntity
  8
RACCORDO
100
AcDbCircle
 62
7
  6
CONTINUOUS
 10
0.0
 20
-9.5
 40
2.2
100
AcDbArc
 50
332.7618716362
 51
207.2381283638
  0
ARC
  5
48A
100
AcDbEntity
  8
0
100
AcDbCircle
 62
250
  6
CONTINUOUS
 10
1.6343303518
 20
-1.99
 40
1.55
100
AcDbArc
 50
74.419256451
 51
90.0
  0
ARC
  5
48B
100
AcDbEntity
  8
0
100
AcDbCircle
 62
7
  6
CONTINUOUS
 10
2.9240383034
 20
-1.1
 40
1.0
100
AcDbArc
 50
100.2162353936
 51
144.3146652873
  0
ARC
  5
48C
100
AcDbEntity
  8
0
100
AcDbCircle
 62
7
  6
CONTINUOUS
 10
1.6343303518
 20
-1.99
 40
1.0
100
AcDbArc
 50
87.8281251387
 51
90.0
  0
ARC
  5
48D
100
AcDbEntity
  8
0
100
AcDbCircle
 62
7
  6
CONTINUOUS
 10
1.6343303518
 20
-1.99
 40
0.9900694014
100
AcDbArc
 50
88.4948546934
 51
89.9703375206
  0
ARC
  5
48E
100
AcDbEntity
  8
0
100
AcDbCircle
 62
7
  6
CONTINUOUS
 10
1.6343303518
 20
-1.99
 40
0.98
100
AcDbArc
 50
89.2062953792
 51
90.0
  0
ARC
  5
48F
100
AcDbEntity
  8
DRAFT
100
AcDbCircle
 62
7
  6
CONTINUOUS
 10
4.95
 20
-23.1
 40
0.5
100
AcDbArc
 50
60.887577224
 51
189.196281579
  0
ARC
  5
490
100
AcDbEntity
  8
DRAFT
100
AcDbCircle
 62
7
  6
CONTINUOUS
 10
11.25
 20
0.0
 40
28.0
100
AcDbArc
 50
122.9352304972
 51
124.1210936517
  0
ARC
  5
491
100
AcDbEntity
  8
DRAFT
100
AcDbCircle
 62
7
  6
CONTINUOUS
 10
11.25
 20
0.0
 40
28.0
100
AcDbArc
 50
125.9627651514
 51
126.8698976458
  0
ARC
  5
492
100
AcDbEntity
  8
DRAFT
100
AcDbCircle
 62
7
  6
CONTINUOUS
 10
11.25
 20
0.0
 40
28.0
100
AcDbArc
 50
235.8789063483
 51
237.0647695028
  0
ARC
  5
493
100
AcDbEntity
  8
DRAFT
100
AcDbCircle
 62
7
  6
CONTINUOUS
 10
11.25
 20
0.0
 40
28.0
100
AcDbArc
 50
233.1301023542
 51
234.0372348486
  0
ARC
  5
494
100
AcDbEntity
  8
ASSI
100
AcDbCircle
 62
7
  6
CONTINUOUS
 10
0.0
 20
0.0
 40
2.8
100
AcDbArc
 50
265.8963642306
 51
274.1036357694
  0
ARC
  5
495
100
AcDbEntity
  8
ASSI
100
AcDbCircle
 62
7
  6
CONTINUOUS
 10
0.0
 20
0.0
 40
2.8
100
AcDbArc
 50
85.8963642306
 51
94.1036357694
  0
CIRCLE
  5
496
100
AcDbEntity
  8
DRAFT
100
AcDbCircle
 62
7
  6
CONTINUOUS
 10
0.0
 20
0.0
 40
2.8
  0
ARC
  5
497
100
AcDbEntity
  8
RACCORDO
100
AcDbCircle
 62
7
  6
CONTINUOUS
 10
0.0
 20
13.0
 40
2.8
100
AcDbArc
 50
316.6731707
 51
223.3268293
  0
ARC
  5
498
100
AcDbEntity
  8
ASSI
100
AcDbCircle
 62
7
  6
CONTINUOUS
 10
0.0
 20
13.0
 40
2.75
100
AcDbArc
 50
351.7867892983
 51
188.2132107017
  0
CIRCLE
  5
499
100
AcDbEntity
  8
0
100
AcDbCircle
 62
7
  6
CONTINUOUS
 10
0.0
 20
0.0
 40
2.75
  0
ARC
  5
49A
100
AcDbEntity
  8
0
100
AcDbCircle
 62
7
  6
CONTINUOUS
 10
0.0
 20
1.0
 40
2.6
100
AcDbArc
 50
270.0
 51
324.3146652873
  0
ARC
  5
49B
100
AcDbEntity
  8
0
100
AcDbCircle
 62
7
  6
CONTINUOUS
 10
0.0
 20
1.0
 40
2.6
100
AcDbArc
 50
215.6853347127
 51
265.5623795422
  0
ARC
  5
49C
100
AcDbEntity
  8
RACCORDO
100
AcDbCircle
 62
7
  6
CONTINUOUS
 10
0.0
 20
9.5
 40
2.2
100
AcDbArc
 50
152.7618716362
 51
27.2381283638
  0
ARC
  5
49D
100
AcDbEntity
  8
0
100
AcDbCircle
 62
7
  6
CONTINUOUS
 10
2.9240383034
 20
1.1
 40
1.0
100
AcDbArc
 50
215.6853347127
 51
259.7910316901
  0
ARC
  5
49E
100
AcDbEntity
  8
DRAFT
100
AcDbCircle
 62
7
  6
CONTINUOUS
 10
4.95
 20
23.1
 40
0.5
100
AcDbArc
 50
170.803718421
 51
299.112422776
  0
ARC
  5
49F
100
AcDbEntity
  8
0
100
AcDbCircle
 62
7
  6
CONTINUOUS
 10
-58.6070353164
 20
-20.9762776025
 40
1.0
100
AcDbArc
 50
182.4092313014
 51
267.0
  0
ARC
  5
4A0
100
AcDbEntity
  8
RACCORDO
100
AcDbCircle
 62
7
  6
CONTINUOUS
 10
-48.6681162528
 20
-18.9254415588
 40
0.18
100
AcDbArc
 50
192.4089769738
 51
225.0
  0
ARC
  5
4A1
100
AcDbEntity
  8
RACCORDO
100
AcDbCircle
 62
7
  6
CONTINUOUS
 10
-29.3481162528
 20
-16.6078355993
 40
1.0
100
AcDbArc
 50
271.0
 51
359.9996356897
  0
ARC
  5
4A2
100
AcDbEntity
  8
RACCORDO
100
AcDbCircle
 62
7
  6
CONTINUOUS
 10
-38.3477513717
 20
-16.7652961098
 40
0.9996351189
100
AcDbArc
 50
271.0
 51
359.9999966478
  0
ARC
  5
4A3
100
AcDbEntity
  8
RACCORDO
100
AcDbCircle
 62
7
  6
CONTINUOUS
 10
-40.8581162528
 20
-18.3504449971
 40
0.51
100
AcDbArc
 50
270.9999777532
 51
359.9987252422
  0
ARC
  5
4A4
100
AcDbEntity
  8
RACCORDO
100
AcDbCircle
 62
7
  6
CONTINUOUS
 10
-27.6481162528
 20
-13.4377357561
 40
0.3
100
AcDbArc
 50
271.0
 51
360.0
  0
ARC
  5
4A5
100
AcDbEntity
  8
RACCORDO
100
AcDbCircle
 62
7
  6
CONTINUOUS
 10
-29.3481162528
 20
-5.6102071525
 40
1.0
100
AcDbArc
 50
271.0
 51
360.0
  0
ARC
  5
4A6
100
AcDbEntity
  8
RACCORDO
100
AcDbCircle
 62
7
  6
CONTINUOUS
 10
-36.3481162528
 20
-7.7326972631
 40
1.0
100
AcDbArc
 50
90.9999015018
 51
180.0005046105
  0
ARC
  5
4A7
100
AcDbEntity
  8
RACCORDO
100
AcDbCircle
 62
7
  6
CONTINUOUS
 10
-27.6481162528
 20
-8.0622642439
 40
0.3
100
AcDbArc
 50
0.0
 51
88.9999999976
  0
ARC
  5
4A8
100
AcDbEntity
  8
RACCORDO
100
AcDbCircle
 62
7
  6
CONTINUOUS
 10
-27.6481162528
 20
-1.8877357561
 40
0.3
100
AcDbArc
 50
271.0
 51
360.0
  0
ARC
  5
4A9
100
AcDbEntity
  8
RACCORDO
100
AcDbCircle
 62
7
  6
CONTINUOUS
 10
-29.3481162528
 20
16.6078419577
 40
1.0
100
AcDbArc
 50
0.0
 51
89.0
  0
ARC
  5
4AA
100
AcDbEntity
  8
0
100
AcDbCircle
 62
7
  6
CONTINUOUS
 10
-58.6070353164
 20
20.9762776025
 40
1.0
100
AcDbArc
 50
93.0
 51
177.5907686986
  0
ARC
  5
4AB
100
AcDbEntity
  8
RACCORDO
100
AcDbCircle
 62
7
  6
CONTINUOUS
 10
-40.8581162528
 20
18.3504449971
 40
0.51
100
AcDbArc
 50
0.0012747577
 51
89.0000222468
  0
ARC
  5
4AC
100
AcDbEntity
  8
RACCORDO
100
AcDbCircle
 62
7
  6
CONTINUOUS
 10
-27.6481162528
 20
13.4377357561
 40
0.3
100
AcDbArc
 50
0.0
 51
88.9999999976
  0
ARC
  5
4AD
100
AcDbEntity
  8
RACCORDO
100
AcDbCircle
 62
7
  6
CONTINUOUS
 10
-27.6481162528
 20
8.0622642439
 40
0.3
100
AcDbArc
 50
271.0
 51
360.0
  0
ARC
  5
4AE
100
AcDbEntity
  8
RACCORDO
100
AcDbCircle
 62
7
  6
CONTINUOUS
 10
-27.6481162528
 20
3.4877357561
 40
0.3
100
AcDbArc
 50
0.0
 51
89.0
  0
ARC
  5
4AF
100
AcDbEntity
  8
RACCORDO
100
AcDbCircle
 62
7
  6
CONTINUOUS
 10
-48.6681162528
 20
18.9254415588
 40
0.18
100
AcDbArc
 50
135.0
 51
167.5874255472
  0
ARC
  5
4B0
100
AcDbEntity
  8
RACCORDO
100
AcDbCircle
 62
7
  6
CONTINUOUS
 10
439.9518837472
 20
-0.0
 40
500.0
100
AcDbArc
 50
179.6427635201
 51
179.7322788513
  0
ARC
  5
4B1
100
AcDbEntity
  8
RACCORDO
100
AcDbCircle
 62
7
  6
CONTINUOUS
 10
439.9518837472
 20
-0.0
 40
500.0
100
AcDbArc
 50
180.8009541721
 51
181.8476384432
  0
ARC
  5
4B2
100
AcDbEntity
  8
RACCORDO
100
AcDbCircle
 62
7
  6
CONTINUOUS
 10
439.9518837472
 20
-0.0
 40
500.0
100
AcDbArc
 50
178.1523615568
 51
179.1990458279
  0
ARC
  5
4B3
100
AcDbEntity
  8
0
100
AcDbCircle
 62
7
  6
CONTINUOUS
 10
439.9518837472
 20
-0.0
 40
500.0
100
AcDbArc
 50
177.5907686986
 51
182.4092313014
  0
ELLIPSE
  5
4B4
100
AcDbEntity
  8
0
100
AcDbEllipse
 62
7
  6
CONTINUOUS
 10
10.649923836
 20
-21.899313827
 30
0.0
 11
-0.1582391023
 21
0.4751033573
 31
0.0
 40
0.9984778551
 41
-3.4626430041
 42
-1.8927600658
  0
ELLIPSE
  5
4B5
100
AcDbEntity
  8
0
100
AcDbEllipse
 62
7
  6
CONTINUOUS
 10
10.649923836
 20
21.899313827
 30
0.0
 11
0.1582391023
 21
0.4751033573
 31
0.0
 40
0.9984778551
 41
-1.2488325878
 42
0.3210503505
  0
ELLIPSE
  5
4B6
100
AcDbEntity
  8
0
100
AcDbEllipse
 62
7
  6
CONTINUOUS
 10
-10.649923836
 20
-21.899313827
 30
0.0
 11
0.1582391023
 21
0.4751033573
 31
0.0
 40
0.9984778551
 41
-4.3904252414
 42
-2.8205423031
  0
ELLIPSE
  5
4B7
100
AcDbEntity
  8
0
100
AcDbEllipse
 62
7
  6
CONTINUOUS
 10
-10.649923836
 20
21.899313827
 30
0.0
 11
-0.1582391023
 21
0.4751033573
 31
0.0
 40
0.9984778551
 41
-0.3210503505
 42
1.2488325878
  0
ELLIPSE
  5
4B8
100
AcDbEntity
  8
0
100
AcDbEllipse
 62
7
  6
CONTINUOUS
 10
0.89
 20
-1.0
 30
0.0
 11
0.01
 21
-0.0
 31
0.0
 40
1.0
 41
-1.5707963268
 42
0.0
  0
ELLIPSE
  5
4B9
100
AcDbEntity
  8
0
100
AcDbEllipse
 62
7
  6
CONTINUOUS
 10
-77.5236411054
 20
16.0
 30
0.0
 11
-200.5454004423
 21
3.5005329858
 31
0.0
 40
0.0174497492
 41
-1.7173130233
 42
-1.7139712103
  0
ELLIPSE
  5
4BA
100
AcDbEntity
  8
0
100
AcDbEllipse
 62
7
  6
CONTINUOUS
 10
-77.5236411054
 20
-16.0
 30
0.0
 11
-200.5454004423
 21
-3.5005329858
 31
0.0
 40
0.0174497492
 41
1.7139712103
 42
1.7173130233
  0
ENDSEC
  0
SECTION
  2
OBJECTS
  0
DICTIONARY
  5
C
100
AcDbDictionary
280
0
281
1
  3
ACAD_GROUP
350
D
  3
ACAD_MLINESTYLE
350
17
  3
ACAD_LAYOUT
350
1A
  3
ACAD_PLOTSETTINGS
350
19
  3
ACAD_PLOTSTYLENAME
350
E
  0
DICTIONARY
  5
D
102
{ACAD_REACTORS
330
C
102
}
100
AcDbDictionary
280
0
281
1
  0
ACDBDICTIONARYWDFLT
  5
E
102
{ACAD_REACTORS
330
C
102
}
100
AcDbDictionary
281
1
  3
Normal
350
F
100
AcDbDictionaryWithDefault
340
F
  0
DICTIONARY
  5
17
102
{ACAD_REACTORS
330
C
102
}
100
AcDbDictionary
280
0
281
1
  3
Standard
350
18
  0
DICTIONARY
  5
19
102
{ACAD_REACTORS
330
C
102
}
100
AcDbDictionary
281
1
  0
DICTIONARY
  5
1A
102
{ACAD_REACTORS
330
C
102
}
100
AcDbDictionary
281
1
  3
Model
350
4BB
  3
Layout1
350
4BC
  0
ACDBPLACEHOLDER
  5
F
102
{ACAD_REACTORS
330
E
102
}
  0
MLINESTYLE
  5
18
102
{ACAD_REACTORS
330
17
102
}
100
AcDbMlineStyle
  2
STANDARD
 70
0
  3

 62
256
 51
90.0
 52
90.0
 71
2
 49
0.5
 62
256
  6
BYLAYER
 49
-0.5
 62
256
  6
BYLAYER
  0
LAYOUT
  5
4BB
102
{ACAD_REACTORS
330
1A
102
}
100
AcDbPlotSettings
  1

  2
none_device
  4
ISO_A4_(297.00_x_210.00_MM)
  6

 40
0.0
 41
0.0
 42
0.0
 43
0.0
 44
297.0
 45
210.0
 46
0.0
 47
0.0
 48
0.0
 49
0.0
140
0.0
141
0.0
142
1.0
143
1.0
 70
1024
 72
1
 73
0
 74
0
  7

 75
0
147
1.0
148
0.0
149
0.0
100
AcDbLayout
  1
Model
 70
0
 71
0
 10
0.0
 20
0.0
 11
297.0
 21
210.0
 12
0.0
 22
0.0
 32
0.0
 14
0.0
 24
0.0
 34
0.0
 15
0.0
 25
0.0
 35
0.0
146
0.0
 13
0.0
 23
0.0
 33
0.0
 16
1.0
 26
0.0
 36
0.0
 17
0.0
 27
1.0
 37
0.0
 76
0
330
21A
345
0
346
0
  0
LAYOUT
  5
4BC
102
{ACAD_REACTORS
330
1A
102
}
100
AcDbPlotSettings
  1

  2
none_device
  4
ISO_A4_(297.00_x_210.00_MM)
  6

 40
0.0
 41
0.0
 42
0.0
 43
0.0
 44
297.0
 45
210.0
 46
0.0
 47
0.0
 48
0.0
 49
0.0
140
0.0
141
0.0
142
1.0
143
1.0
 70
0
 72
1
 73
0
 74
0
  7

 75
0
147
1.0
148
0.0
149
0.0
100
AcDbLayout
  1
Layout1
 70
0
 71
1
 10
0.0
 20
0.0
 11
297.0
 21
210.0
 12
0.0
 22
0.0
 32
0.0
 14
0.0
 24
0.0
 34
0.0
 15
0.0
 25
0.0
 35
0.0
146
0.0
 13
0.0
 23
0.0
 33
0.0
 16
1.0
 26
0.0
 36
0.0
 17
0.0
 27
1.0
 37
0.0
 76
0
330
21B
345
0
346
0
  0
ENDSEC
  0
EOF
