0
SECTION
2
HEADER
9
$ACADVER
1
AC1015
9
$DWGCODEPAGE
3
ANSI_1252
9
$EXTMAX
10
431.8000000000
20
558.8000000000
30
0.0000000000
9
$EXTMIN
10
0.0000000000
20
0.0000000000
30
0.0000000000
9
$LIMMIN
10
0.0000000000
20
0.0000000000
9
$LIMMAX
10
431.8000000000
20
558.8000000000
9
$VIEWCTR
10
215.9000000000
20
279.4000000000
9
$VIEWSIZE
40
558.8000000000
9
$CLAYER
8
0
9
$LTSCALE
40
36.4254814815
9
$CELTYPE
6
BYLAYER
9
$DIMSCALE
40
1
9
$DIMASZ
40
3.0000000000
9
$DIMEXO
40
4.1392592593
9
$DIMDLI
40
25.1666962963
9
$DIMEXE
40
11.9210666667
9
$DIMCEN
40
5.9605333333
9
$DIMLFAC
40
1.0000000000
9
$DIMBLK
1
_FILLED
9
$DIMTXT
40
3.0000000000
9
$DIMTOL
70
1
9
$DIMLIM
70
0
9
$DIMTFAC
40
1.0000000000
9
$DIMTP
40
0.0100000000
9
$DIMTM
40
0.0100000000
9
$PDMODE
70
3
9
$PDSIZE
40
3.0000000000
9
$HANDSEED
5
3CC
9
$MEASUREMENT
70
1
9
$INSUNITS
70
4
0
ENDSEC
0
SECTION
2
CLASSES
0
CLASS
1
ACDBDICTIONARYWDFLT
2
AcDbDictionaryWithDefault
3
AutoCAD 2000
90
0
280
0
281
0
0
CLASS
1
ACDBPLACEHOLDER
2
AcDbPlaceHolder
3
AutoCAD 2000
90
0
280
0
281
0
0
CLASS
1
LAYOUT
2
AcDbLayout
3
AutoCAD 2000
90
0
280
0
281
0
0
ENDSEC
0
SECTION
2
TABLES
0
TABLE
2
VPORT
5
8
100
AcDbSymbolTable
70
2
0
VPORT
5
1F4
100
AcDbSymbolTableRecord
100
AcDbViewportTableRecord
2
*ACTIVE
70
0
10
0.0
20
0.0
11
1.0
21
1.0
12
215.9000000000
22
279.4000000000
13
0.0
23
0.0
14
1.0
24
1.0
15
0.0
25
0.0
16
0.0
26
0.0
36
1.0
17
0.0
27
0.0
37
0.0
40
558.8000000000
41
0.7727272727
42
50.0
43
0.0
44
0.0
50
0.0
51
0.0
71
0
72
100
73
1
74
1
75
0
76
0
77
0
78
0
0
ENDTAB
0
TABLE
2
LTYPE
5
5
100
AcDbSymbolTable
70
6
0
LTYPE
5
14
100
AcDbSymbolTableRecord
100
AcDbLinetypeTableRecord
2
BYBLOCK
70
0
3

72
65
73
0
40
0.0
0
LTYPE
5
15
100
AcDbSymbolTableRecord
100
AcDbLinetypeTableRecord
2
BYLAYER
70
0
3

72
65
73
0
40
0.0
0
LTYPE
5
16
100
AcDbSymbolTableRecord
100
AcDbLinetypeTableRecord
2
CONTINUOUS
70
64
3
Solid line
72
65
73
0
40
0
0
LTYPE
5
1F5
100
AcDbSymbolTableRecord
100
AcDbLinetypeTableRecord
2
CENTER
70
64
3
____ _ ____ _ ____ _ ____ _ ____ _ ____ _ ____
72
65
73
4
40
0.6
49
0.375
74
0
49
-0.075
74
0
49
0.075
74
0
49
-0.075
74
0
0
LTYPE
5
1F6
100
AcDbSymbolTableRecord
100
AcDbLinetypeTableRecord
2
HIDDEN
70
64
3
- - - - - - - - - - - - - - - - - - - -
72
65
73
2
40
0.2
49
0.1
74
0
49
-0.1
74
0
0
LTYPE
5
1F7
100
AcDbSymbolTableRecord
100
AcDbLinetypeTableRecord
2
PHANTOM
70
64
3
_____ _ _ _____ _ _ _____ _ _ _____
72
65
73
6
40
0.8
49
0.45
74
0
49
-0.05
74
0
49
0.1
74
0
49
-0.05
74
0
49
0.1
74
0
49
-0.05
74
0
0
LTYPE
5
1F8
100
AcDbSymbolTableRecord
100
AcDbLinetypeTableRecord
2
DOT
70
64
3
. . . . . . . . . . . . . . . . . . . .
72
65
73
2
40
0.2
49
0.1
74
0
49
-0.1
74
0
0
LTYPE
5
1F9
100
AcDbSymbolTableRecord
100
AcDbLinetypeTableRecord
2
DASHED
70
64
3
- - - - - - - - - - - - - - - - - - - -
72
65
73
2
40
0.2
49
0.1
74
0
49
-0.1
74
0
0
ENDTAB
0
TABLE
2
LAYER
5
2
100
AcDbSymbolTable
70
36
0
LAYER
5
10
100
AcDbSymbolTableRecord
100
AcDbLayerTableRecord
2
0
70
0
62
7
6
CONTINUOUS
370
-3
390
F
0
LAYER
5
1FA
100
AcDbSymbolTableRecord
100
AcDbLayerTableRecord
2
DEFAULT_1
70
0
62
7
6
CENTER
370
-3
390
F
0
LAYER
5
1FB
100
AcDbSymbolTableRecord
100
AcDbLayerTableRecord
2
DEFAULT_2
70
0
62
9
6
HIDDEN
370
-3
390
F
0
LAYER
5
1FC
100
AcDbSymbolTableRecord
100
AcDbLayerTableRecord
2
DEFAULT_3
70
0
62
7
6
PHANTOM
370
-3
390
F
0
LAYER
5
1FD
100
AcDbSymbolTableRecord
100
AcDbLayerTableRecord
2
_2D_DELETED_OBJS
70
0
62
7
6
CONTINUOUS
370
-3
390
F
0
LAYER
5
1FE
100
AcDbSymbolTableRecord
100
AcDbLayerTableRecord
2
_BLACK_HOLE
70
0
62
7
6
CONTINUOUS
370
-3
390
F
0
LAYER
5
1FF
100
AcDbSymbolTableRecord
100
AcDbLayerTableRecord
2
255013570
70
0
62
7
6
CONTINUOUS
370
-3
390
F
0
LAYER
5
200
100
AcDbSymbolTableRecord
100
AcDbLayerTableRecord
2
261013570
70
0
62
7
6
CONTINUOUS
370
-3
390
F
0
LAYER
5
201
100
AcDbSymbolTableRecord
100
AcDbLayerTableRecord
2
280013570
70
0
62
7
6
CONTINUOUS
370
-3
390
F
0
LAYER
5
202
100
AcDbSymbolTableRecord
100
AcDbLayerTableRecord
2
ASSI
70
0
62
7
6
CONTINUOUS
370
-3
390
F
0
LAYER
5
203
100
AcDbSymbolTableRecord
100
AcDbLayerTableRecord
2
COORDINATE
70
0
62
7
6
CONTINUOUS
370
-3
390
F
0
LAYER
5
204
100
AcDbSymbolTableRecord
100
AcDbLayerTableRecord
2
COORD_ORIGINE
70
0
62
7
6
CONTINUOUS
370
-3
390
F
0
LAYER
5
205
100
AcDbSymbolTableRecord
100
AcDbLayerTableRecord
2
COPY-PUBBLISH
70
0
62
7
6
CONTINUOUS
370
-3
390
F
0
LAYER
5
206
100
AcDbSymbolTableRecord
100
AcDbLayerTableRecord
2
COPY_PUBLISH
70
0
62
7
6
CONTINUOUS
370
-3
390
F
0
LAYER
5
207
100
AcDbSymbolTableRecord
100
AcDbLayerTableRecord
2
COSMETIC
70
0
62
7
6
CONTINUOUS
370
-3
390
F
0
LAYER
5
208
100
AcDbSymbolTableRecord
100
AcDbLayerTableRecord
2
COSMETICHE
70
0
62
7
6
CONTINUOUS
370
-3
390
F
0
LAYER
5
209
100
AcDbSymbolTableRecord
100
AcDbLayerTableRecord
2
COSMETICI
70
0
62
7
6
CONTINUOUS
370
-3
390
F
0
LAYER
5
20A
100
AcDbSymbolTableRecord
100
AcDbLayerTableRecord
2
CURVE
70
0
62
7
6
CONTINUOUS
370
-3
390
F
0
LAYER
5
20B
100
AcDbSymbolTableRecord
100
AcDbLayerTableRecord
2
DRAFT
70
0
62
7
6
CONTINUOUS
370
-3
390
F
0
LAYER
5
20C
100
AcDbSymbolTableRecord
100
AcDbLayerTableRecord
2
IMPORT_IGES
70
0
62
7
6
CONTINUOUS
370
-3
390
F
0
LAYER
5
20D
100
AcDbSymbolTableRecord
100
AcDbLayerTableRecord
2
INTFCLR_1
70
0
62
7
6
CONTINUOUS
370
-3
390
F
0
LAYER
5
20E
100
AcDbSymbolTableRecord
100
AcDbLayerTableRecord
2
INTFCLR_63
70
0
62
7
6
CONTINUOUS
370
-3
390
F
0
LAYER
5
20F
100
AcDbSymbolTableRecord
100
AcDbLayerTableRecord
2
INTF_1
70
0
62
7
6
CONTINUOUS
370
-3
390
F
0
LAYER
5
210
100
AcDbSymbolTableRecord
100
AcDbLayerTableRecord
2
INTF_2
70
0
62
7
6
CONTINUOUS
370
-3
390
F
0
LAYER
5
211
100
AcDbSymbolTableRecord
100
AcDbLayerTableRecord
2
NOTE
70
0
62
7
6
CONTINUOUS
370
-3
390
F
0
LAYER
5
212
100
AcDbSymbolTableRecord
100
AcDbLayerTableRecord
2
PIANI
70
0
62
7
6
CONTINUOUS
370
-3
390
F
0
LAYER
5
213
100
AcDbSymbolTableRecord
100
AcDbLayerTableRecord
2
PIANI_ORIGINE
70
0
62
7
6
CONTINUOUS
370
-3
390
F
0
LAYER
5
214
100
AcDbSymbolTableRecord
100
AcDbLayerTableRecord
2
PUNTI
70
0
62
7
6
CONTINUOUS
370
-3
390
F
0
LAYER
5
215
100
AcDbSymbolTableRecord
100
AcDbLayerTableRecord
2
RACCORDO
70
0
62
7
6
CONTINUOUS
370
-3
390
F
0
LAYER
5
216
100
AcDbSymbolTableRecord
100
AcDbLayerTableRecord
2
RGB__255__255__255__
70
0
62
7
6
CONTINUOUS
370
-3
390
F
0
LAYER
5
217
100
AcDbSymbolTableRecord
100
AcDbLayerTableRecord
2
RGB____0____0____0__
70
0
62
7
6
CONTINUOUS
370
-3
390
F
0
LAYER
5
218
100
AcDbSymbolTableRecord
100
AcDbLayerTableRecord
2
SMUSSO
70
0
62
7
6
CONTINUOUS
370
-3
390
F
0
LAYER
5
219
100
AcDbSymbolTableRecord
100
AcDbLayerTableRecord
2
SNAPLINE
70
0
62
7
6
CONTINUOUS
370
-3
390
F
0
LAYER
5
21A
100
AcDbSymbolTableRecord
100
AcDbLayerTableRecord
2
SUP-SCAVI-INCLINATI
70
0
62
7
6
CONTINUOUS
370
-3
390
F
0
LAYER
5
21B
100
AcDbSymbolTableRecord
100
AcDbLayerTableRecord
2
SUP-SCAVI-INCLINATI-SUP
70
0
62
7
6
CONTINUOUS
370
-3
390
F
0
LAYER
5
21C
100
AcDbSymbolTableRecord
100
AcDbLayerTableRecord
2
SUPERFICI
70
0
62
7
6
CONTINUOUS
370
-3
390
F
0
LAYER
5
21D
100
AcDbSymbolTableRecord
100
AcDbLayerTableRecord
2
SUP_COLORE
70
0
62
7
6
CONTINUOUS
370
-3
390
F
0
LAYER
5
21E
100
AcDbSymbolTableRecord
100
AcDbLayerTableRecord
2
TRASH
70
0
62
7
6
CONTINUOUS
370
-3
390
F
0
LAYER
5
21F
100
AcDbSymbolTableRecord
100
AcDbLayerTableRecord
2
XSEC_DATUMS
70
0
62
7
6
CONTINUOUS
370
-3
390
F
0
ENDTAB
0
TABLE
2
STYLE
5
3
100
AcDbSymbolTable
70
1
0
STYLE
5
11
100
AcDbSymbolTableRecord
100
AcDbTextStyleTableRecord
2
STANDARD
70
0
40
0.0
41
0.8000000000
50
0.0
71
0
42
0.2
3
txt
4

0
ENDTAB
0
TABLE
2
VIEW
5
6
100
AcDbSymbolTable
70
0
0
ENDTAB
0
TABLE
2
UCS
5
7
100
AcDbSymbolTable
70
0
0
ENDTAB
0
TABLE
2
APPID
5
9
100
AcDbSymbolTable
70
1
0
APPID
5
220
100
AcDbSymbolTableRecord
100
AcDbRegAppTableRecord
2
ACAD
70
0
0
ENDTAB
0
TABLE
2
BLOCK_RECORD
5
1
100
AcDbSymbolTable
70
0
0
BLOCK_RECORD
5
1F
100
AcDbSymbolTableRecord
100
AcDbBlockTableRecord
2
*MODEL_SPACE
0
BLOCK_RECORD
5
1B
100
AcDbSymbolTableRecord
100
AcDbBlockTableRecord
2
*PAPER_SPACE
0
BLOCK_RECORD
5
221
100
AcDbSymbolTableRecord
100
AcDbBlockTableRecord
2
_FILLED
0
BLOCK_RECORD
5
222
100
AcDbSymbolTableRecord
100
AcDbBlockTableRecord
2
*D0
0
BLOCK_RECORD
5
223
100
AcDbSymbolTableRecord
100
AcDbBlockTableRecord
2
*D1
0
BLOCK_RECORD
5
224
100
AcDbSymbolTableRecord
100
AcDbBlockTableRecord
2
*D2
0
BLOCK_RECORD
5
225
100
AcDbSymbolTableRecord
100
AcDbBlockTableRecord
2
*D3
0
ENDTAB
0
TABLE
2
DIMSTYLE
5
A
100
AcDbSymbolTable
70
1
100
AcDbDimStyleTable
71
0
0
DIMSTYLE
105
226
100
AcDbSymbolTableRecord
100
AcDbDimStyleTableRecord
2
STANDARD
70
0
3

4

40
1.0
41
3.0000000000
42
0.0625
43
0.38
44
0.18
45
0.0
46
0.0
47
0.0100000000
48
0.0100000000
140
3.0000000000
141
0.09
142
0.0
143
25.4
144
1.0000000000
145
0.0
146
1.0000000000
147
0.09
71
1
72
0
73
0
74
0
75
0
76
0
77
1
78
8
170
0
171
2
172
0
173
0
174
0
175
0
176
0
177
0
178
0
270
2
271
2
272
2
273
2
274
2
275
0
280
0
281
0
282
0
283
1
284
8
285
0
286
0
287
3
288
0
340
11
341
221
342
221
343
221
344
221
0
DIMSTYLE
105
227
100
AcDbSymbolTableRecord
100
AcDbDimStyleTableRecord
2
DIMSTYLE_1
70
0
3

4

40
1.0
41
3.0000000000
42
0.0625
43
0.38
44
0.18
45
0.0
46
0.0
47
0.0000000000
48
0.0000000000
140
3.0000000000
141
0.09
142
0.0
143
25.4
144
1.0000000000
145
0.0
146
1.0000000000
147
0.09
71
0
72
0
73
0
74
0
75
0
76
0
77
1
78
8
170
0
171
2
172
0
173
0
174
0
175
0
176
0
177
0
178
0
270
2
271
2
272
2
273
2
274
2
275
0
280
0
281
0
282
0
283
1
284
8
285
0
286
0
287
3
288
0
340
11
341
221
342
221
343
221
344
221
0
ENDTAB
0
ENDSEC
0
SECTION
2
BLOCKS
0
BLOCK
5
20
100
AcDbEntity
8
0
100
AcDbBlockBegin
2
*MODEL_SPACE
70
0
10
0.0
20
0.0
30
0.0
3
*MODEL_SPACE
1

0
ENDBLK
5
21
100
AcDbEntity
8
0
100
AcDbBlockEnd
0
BLOCK
5
1C
100
AcDbEntity
8
0
100
AcDbBlockBegin
2
*PAPER_SPACE
70
0
10
0.0
20
0.0
30
0.0
3
*PAPER_SPACE
1

0
ENDBLK
5
1D
100
AcDbEntity
8
0
100
AcDbBlockEnd
0
BLOCK
5
228
100
AcDbEntity
8
0
100
AcDbBlockBegin
62
0
6
CONTINUOUS
2
*D0
70
65
10
0.0000000000
20
0.0000000000
3
*D0
1

0
TEXT
5
229
100
AcDbEntity
8
0
100
AcDbText
62
0
6
CONTINUOUS
10
25.8739847154
20
34.6214123043
7
STANDARD
40
3.0000000000
1
44,8
41
0.7321428571
72
0
100
AcDbText
0
LINE
5
22A
100
AcDbEntity
8
0
100
AcDbLine
62
0
6
CONTINUOUS
10
52.0762045692
20
21.2739114656
11
52.0762045692
21
35.3714123043
0
LINE
5
22B
100
AcDbEntity
8
0
100
AcDbLine
62
0
6
CONTINUOUS
10
7.2762045692
20
21.2739114656
11
7.2762045692
21
35.3714123043
0
LINE
5
22C
100
AcDbEntity
8
0
100
AcDbLine
62
0
6
CONTINUOUS
10
52.0762045692
20
33.8714123043
11
29.6762045692
21
33.8714123043
0
LINE
5
22D
100
AcDbEntity
8
0
100
AcDbLine
62
0
6
CONTINUOUS
10
7.2762045692
20
33.8714123043
11
29.6762045692
21
33.8714123043
0
INSERT
5
22E
100
AcDbEntity
8
0
100
AcDbBlockReference
62
0
6
CONTINUOUS
2
_FILLED
10
52.0762045692
20
33.8714123043
41
  3.000000
42
  3.000000
43
  3.000000
50
  0.000000
0
INSERT
5
22F
100
AcDbEntity
8
0
100
AcDbBlockReference
62
0
6
CONTINUOUS
2
_FILLED
10
7.2762045692
20
33.8714123043
41
  3.000000
42
  3.000000
43
  3.000000
50
180.000000
0
ENDBLK
5
230
100
AcDbEntity
8
0
6
BYBLOCK
62
0
100
AcDbBlockEnd
0
BLOCK
5
231
100
AcDbEntity
8
0
100
AcDbBlockBegin
62
0
6
CONTINUOUS
2
*D1
70
65
10
0.0000000000
20
0.0000000000
3
*D1
1

0
TEXT
5
232
100
AcDbEntity
8
0
100
AcDbText
62
0
6
CONTINUOUS
10
63.9262045692
20
-2.8496084956
7
STANDARD
40
3.0000000000
1
47
50
90.0000000000
41
0.7857142857
72
0
100
AcDbText
0
LINE
5
233
100
AcDbEntity
8
0
100
AcDbLine
62
0
6
CONTINUOUS
10
45.1010620473
20
22.3741403177
11
66.1762045692
21
22.3741403177
0
LINE
5
234
100
AcDbEntity
8
0
100
AcDbLine
62
0
6
CONTINUOUS
10
45.1010620473
20
-24.6258596823
11
66.1762045692
21
-24.6258596823
0
LINE
5
235
100
AcDbEntity
8
0
100
AcDbLine
62
0
6
CONTINUOUS
10
64.6762045692
20
22.3741403177
11
64.6762045692
21
-1.1258596823
0
LINE
5
236
100
AcDbEntity
8
0
100
AcDbLine
62
0
6
CONTINUOUS
10
64.6762045692
20
-24.6258596823
11
64.6762045692
21
-1.1258596823
0
INSERT
5
237
100
AcDbEntity
8
0
100
AcDbBlockReference
62
0
6
CONTINUOUS
2
_FILLED
10
64.6762045692
20
22.3741403177
41
  3.000000
42
  3.000000
43
  3.000000
50
 90.000000
0
INSERT
5
238
100
AcDbEntity
8
0
100
AcDbBlockReference
62
0
6
CONTINUOUS
2
_FILLED
10
64.6762045692
20
-24.6258596823
41
  3.000000
42
  3.000000
43
  3.000000
50
270.000000
0
ENDBLK
5
239
100
AcDbEntity
8
0
6
BYBLOCK
62
0
100
AcDbBlockEnd
0
BLOCK
5
23A
100
AcDbEntity
8
0
100
AcDbBlockBegin
62
0
6
CONTINUOUS
2
*D2
70
65
10
0.0000000000
20
0.0000000000
3
*D2
1

0
TEXT
5
23B
100
AcDbEntity
8
0
100
AcDbText
62
0
6
CONTINUOUS
10
-30.8160463538
20
34.6214123043
7
STANDARD
40
3.0000000000
1
26,4
41
0.7321428571
72
0
100
AcDbText
0
LINE
5
23C
100
AcDbEntity
8
0
100
AcDbLine
62
0
6
CONTINUOUS
10
-13.3410920338
20
2.8914430546
11
-13.3410920338
21
35.3714123043
0
LINE
5
23D
100
AcDbEntity
8
0
100
AcDbLine
62
0
6
CONTINUOUS
10
-39.7410920338
20
21.2739114656
11
-39.7410920338
21
35.3714123043
0
LINE
5
23E
100
AcDbEntity
8
0
100
AcDbLine
62
0
6
CONTINUOUS
10
-13.3410920338
20
33.8714123043
11
-26.5410920338
21
33.8714123043
0
LINE
5
23F
100
AcDbEntity
8
0
100
AcDbLine
62
0
6
CONTINUOUS
10
-39.7410920338
20
33.8714123043
11
-26.5410920338
21
33.8714123043
0
INSERT
5
240
100
AcDbEntity
8
0
100
AcDbBlockReference
62
0
6
CONTINUOUS
2
_FILLED
10
-13.3410920338
20
33.8714123043
41
  3.000000
42
  3.000000
43
  3.000000
0
INSERT
5
241
100
AcDbEntity
8
0
100
AcDbBlockReference
62
0
6
CONTINUOUS
2
_FILLED
10
-39.7410920338
20
33.8714123043
41
  3.000000
42
  3.000000
43
  3.000000
50
180.000000
0
ENDBLK
5
242
100
AcDbEntity
8
0
6
BYBLOCK
62
0
100
AcDbBlockEnd
0
BLOCK
5
243
100
AcDbEntity
8
0
100
AcDbBlockBegin
62
0
6
CONTINUOUS
2
*D3
70
65
10
0.0000000000
20
0.0000000000
3
*D3
1

0
TEXT
5
244
100
AcDbEntity
8
0
100
AcDbText
62
0
6
CONTINUOUS
10
-32.8624323894
20
44.6214123043
7
STANDARD
40
3.0000000000
1
35,9
41
0.6964285714
72
0
100
AcDbText
0
LINE
5
245
100
AcDbEntity
8
0
100
AcDbLine
62
0
6
CONTINUOUS
10
-49.2410920338
20
-0.6258596823
11
-49.2410920338
21
45.3714123043
0
LINE
5
246
100
AcDbEntity
8
0
100
AcDbLine
62
0
6
CONTINUOUS
10
-13.3410920338
20
2.8914430546
11
-13.3410920338
21
45.3714123043
0
LINE
5
247
100
AcDbEntity
8
0
100
AcDbLine
62
0
6
CONTINUOUS
10
-49.2410920338
20
43.8714123043
11
-31.2910920338
21
43.8714123043
0
LINE
5
248
100
AcDbEntity
8
0
100
AcDbLine
62
0
6
CONTINUOUS
10
-13.3410920338
20
43.8714123043
11
-31.2910920338
21
43.8714123043
0
INSERT
5
249
100
AcDbEntity
8
0
100
AcDbBlockReference
62
0
6
CONTINUOUS
2
_FILLED
10
-49.2410920338
20
43.8714123043
41
  3.000000
42
  3.000000
43
  3.000000
50
180.000000
0
INSERT
5
24A
100
AcDbEntity
8
0
100
AcDbBlockReference
62
0
6
CONTINUOUS
2
_FILLED
10
-13.3410920338
20
43.8714123043
41
  3.000000
42
  3.000000
43
  3.000000
0
ENDBLK
5
24B
100
AcDbEntity
8
0
6
BYBLOCK
62
0
100
AcDbBlockEnd
0
BLOCK
5
24C
100
AcDbEntity
8
0
100
AcDbBlockBegin
2
_FILLED
70
64
10
0.0000000000
20
0.0000000000
3
_FILLED
1

0
SOLID
5
24D
100
AcDbEntity
8
0
6
BYBLOCK
62
0
100
AcDbTrace
10
0.0000000000
20
0.0000000000
11
-1.0000000000
21
0.3166666667
12
-1.0000000000
22
-0.3166666667
13
-1.0000000000
23
-0.3166666667
0
ENDBLK
5
24E
100
AcDbEntity
8
0
6
BYBLOCK
62
0
100
AcDbBlockEnd
0
ENDSEC
0
SECTION
2
ENTITIES
0
DIMENSION
5
24F
100
AcDbEntity
8
0
100
AcDbDimension
62
0
6
CONTINUOUS
2
*D0
10
7.2762045692
20
33.8714123043
11
30.2668418582
21
36.1214123043
70
160
3
DIMSTYLE_1
100
AcDbAlignedDimension
13
52.0762045692
23
21.2739114656
14
7.2762045692
24
21.2739114656
50
180.000000
100
AcDbRotatedDimension
0
DIMENSION
5
250
100
AcDbEntity
8
0
100
AcDbDimension
62
0
6
CONTINUOUS
2
*D1
10
64.6762045692
20
-24.6258596823
11
62.4262045692
21
-0.4924656384
70
160
3
DIMSTYLE_1
100
AcDbAlignedDimension
13
45.1010620473
23
22.3741403177
14
45.1010620473
24
-24.6258596823
50
270.000000
100
AcDbRotatedDimension
0
DIMENSION
5
251
100
AcDbEntity
8
0
100
AcDbDimension
62
0
6
CONTINUOUS
2
*D2
10
-39.7410920338
20
33.8714123043
11
-26.4231892109
21
36.1214123043
70
160
3
DIMSTYLE_1
100
AcDbAlignedDimension
13
-13.3410920338
23
2.8914430546
14
-39.7410920338
24
21.2739114656
50
180.000000
100
AcDbRotatedDimension
0
DIMENSION
5
252
100
AcDbEntity
8
0
100
AcDbDimension
62
0
6
CONTINUOUS
2
*D3
10
-13.3410920338
20
43.8714123043
11
-28.6838609608
21
46.1214123043
70
160
3
DIMSTYLE_1
100
AcDbAlignedDimension
13
-49.2410920338
23
-0.6258596823
14
-13.3410920338
24
2.8914430546
100
AcDbRotatedDimension
0
LINE
5
253
100
AcDbEntity
8
0
100
AcDbLine
62
0
6
CONTINUOUS
10
15.1928373668
20
21.3741403177
11
15.1262045692
21
21.2741403177
0
LINE
5
254
100
AcDbEntity
8
0
100
AcDbLine
62
0
6
CONTINUOUS
10
15.1262045692
20
-23.5258596823
11
15.1528725282
21
-23.5658819535
0
LINE
5
255
100
AcDbEntity
8
0
100
AcDbLine
62
0
6
CONTINUOUS
10
7.2762045692
20
-23.0256308302
11
7.2762045692
21
20.7739114656
0
LINE
5
256
100
AcDbEntity
8
0
100
AcDbLine
62
9
6
CONTINUOUS
10
7.9256695066
20
-22.1441739132
11
7.9256695066
21
19.8924545486
0
LINE
5
257
100
AcDbEntity
8
0
100
AcDbLine
62
0
6
CONTINUOUS
10
44.6010620473
20
-24.6258596823
11
37.2513470910
21
-24.6258596823
0
LINE
5
258
100
AcDbEntity
8
0
100
AcDbLine
62
0
6
CONTINUOUS
10
22.1010620473
20
-24.6258596823
11
14.7513470910
21
-24.6258596823
0
LINE
5
259
100
AcDbEntity
8
0
100
AcDbLine
62
0
6
CONTINUOUS
10
14.9563843095
20
-23.6258596823
11
21.8960248289
21
-23.6258596823
0
LINE
5
25A
100
AcDbEntity
8
0
100
AcDbLine
62
0
6
CONTINUOUS
10
37.4563843095
20
-23.6258596823
11
44.3960248289
21
-23.6258596823
0
LINE
5
25B
100
AcDbEntity
8
0
100
AcDbLine
62
0
6
CONTINUOUS
10
51.5765851689
20
-23.5258596823
11
44.2262045692
21
-23.5258596823
0
LINE
5
25C
100
AcDbEntity
8
0
100
AcDbLine
62
0
6
CONTINUOUS
10
37.6262045692
20
-23.5258596823
11
21.7262045692
21
-23.5258596823
0
LINE
5
25D
100
AcDbEntity
8
0
100
AcDbLine
62
0
6
CONTINUOUS
10
15.1262045692
20
-23.5258596823
11
7.7758239694
21
-23.5258596823
0
LINE
5
25E
100
AcDbEntity
8
0
100
AcDbLine
62
9
6
CONTINUOUS
10
51.4350026859
20
-23.1007668195
11
7.9174064525
21
-23.1007668195
0
LINE
5
25F
100
AcDbEntity
8
0
100
AcDbLine
62
9
6
CONTINUOUS
10
51.4267396317
20
-22.1441739132
11
7.9256695066
21
-22.1441739132
0
LINE
5
260
100
AcDbEntity
8
0
100
AcDbLine
62
0
6
CONTINUOUS
10
15.0581441356
20
21.3522335504
11
15.0413322921
21
21.2741403177
0
LINE
5
261
100
AcDbEntity
8
0
100
AcDbLine
62
0
6
CONTINUOUS
10
15.0581441356
20
-23.6039529150
11
15.0413322921
21
-23.5258596823
0
LINE
5
262
100
AcDbEntity
8
0
100
AcDbLine
62
0
6
CONTINUOUS
10
14.9563843095
20
21.2741403177
11
14.9563843095
21
21.3741403177
0
LINE
5
263
100
AcDbEntity
8
0
100
AcDbLine
62
0
6
CONTINUOUS
10
14.9563843095
20
-23.5258596823
11
14.9563843095
21
-23.6258596823
0
LINE
5
264
100
AcDbEntity
8
0
100
AcDbLine
62
0
6
CONTINUOUS
10
21.8547047279
20
21.3362570473
11
21.8413322921
21
21.2741403177
0
LINE
5
265
100
AcDbEntity
8
0
100
AcDbLine
62
9
6
CONTINUOUS
10
7.2762045692
20
-23.0256308302
11
7.4174826049
21
-22.6014520521
0
LINE
5
266
100
AcDbEntity
8
0
100
AcDbLine
62
9
6
CONTINUOUS
10
7.7758239694
20
-23.5258596823
11
7.9174064525
21
-23.1007668195
0
LINE
5
267
100
AcDbEntity
8
0
100
AcDbLine
62
9
6
CONTINUOUS
10
7.4174826049
20
20.3497326875
11
7.2762045692
21
20.7739114656
0
LINE
5
268
100
AcDbEntity
8
0
100
AcDbLine
62
9
6
CONTINUOUS
10
7.9174064525
20
20.8490474549
11
7.7758239694
21
21.2741403177
0
LINE
5
269
100
AcDbEntity
8
0
100
AcDbLine
62
0
6
CONTINUOUS
10
21.8547047279
20
-23.5879764119
11
21.8413322921
21
-23.5258596823
0
LINE
5
26A
100
AcDbEntity
8
0
100
AcDbLine
62
0
6
CONTINUOUS
10
21.8960248289
20
-23.6258596823
11
21.8960248289
21
-23.5258596823
0
LINE
5
26B
100
AcDbEntity
8
0
100
AcDbLine
62
0
6
CONTINUOUS
10
21.8960248289
20
21.3741403177
11
21.8960248289
21
21.2741403177
0
LINE
5
26C
100
AcDbEntity
8
0
100
AcDbLine
62
0
6
CONTINUOUS
10
14.9977044105
20
-23.5879764119
11
15.0110768462
21
-23.5258596823
0
LINE
5
26D
100
AcDbEntity
8
0
100
AcDbLine
62
0
6
CONTINUOUS
10
14.9977044105
20
21.3362570473
11
15.0110768462
21
21.2741403177
0
LINE
5
26E
100
AcDbEntity
8
0
100
AcDbLine
62
0
6
CONTINUOUS
10
37.6928373668
20
21.3741403177
11
37.6262045692
21
21.2741403177
0
LINE
5
26F
100
AcDbEntity
8
0
100
AcDbLine
62
0
6
CONTINUOUS
10
37.6262045692
20
-23.5258596823
11
37.6528725282
21
-23.5658819535
0
LINE
5
270
100
AcDbEntity
8
0
100
AcDbLine
62
0
6
CONTINUOUS
10
21.7942650027
20
-23.6039529150
11
21.8110768462
21
-23.5258596823
0
LINE
5
271
100
AcDbEntity
8
0
100
AcDbLine
62
9
6
CONTINUOUS
10
21.9637771157
20
-3.2798332427
11
20.8100610184
21
-3.5889705393
0
LINE
5
272
100
AcDbEntity
8
0
100
AcDbLine
62
9
6
CONTINUOUS
10
37.3886320226
20
1.0281138781
11
38.5423481200
21
1.3372511747
0
LINE
5
273
100
AcDbEntity
8
0
100
AcDbLine
62
9
6
CONTINUOUS
10
21.1869167096
20
-3.1918850861
11
19.1654924287
21
-3.1918850861
0
LINE
5
274
100
AcDbEntity
8
0
100
AcDbLine
62
9
6
CONTINUOUS
10
22.2674139748
20
-2.1918850861
11
18.0849951636
21
-2.1918850861
0
LINE
5
275
100
AcDbEntity
8
0
100
AcDbLine
62
0
6
CONTINUOUS
10
17.7079007684
20
-0.8350652623
11
17.6186315660
21
-0.8188141722
0
LINE
5
276
100
AcDbEntity
8
0
100
AcDbLine
62
0
6
CONTINUOUS
10
21.7942650027
20
21.3522335504
11
21.8110768462
21
21.2741403177
0
LINE
5
277
100
AcDbEntity
8
0
100
AcDbLine
62
0
6
CONTINUOUS
10
37.5581441356
20
21.3522335504
11
37.5413322921
21
21.2741403177
0
LINE
5
278
100
AcDbEntity
8
0
100
AcDbLine
62
9
6
CONTINUOUS
10
37.0849951636
20
-0.0598342785
11
41.2674139748
21
-0.0598342785
0
LINE
5
279
100
AcDbEntity
8
0
100
AcDbLine
62
9
6
CONTINUOUS
10
38.1654924287
20
0.9401657215
11
40.1869167096
21
0.9401657215
0
LINE
5
27A
100
AcDbEntity
8
0
100
AcDbLine
62
0
6
CONTINUOUS
10
41.6445083700
20
-1.4166541023
11
41.7337775702
21
-1.4329051920
0
LINE
5
27B
100
AcDbEntity
8
0
100
AcDbLine
62
0
6
CONTINUOUS
10
37.5581441356
20
-23.6039529150
11
37.5413322921
21
-23.5258596823
0
LINE
5
27C
100
AcDbEntity
8
0
100
AcDbLine
62
0
6
CONTINUOUS
10
37.4563843095
20
21.2741403177
11
37.4563843095
21
21.3741403177
0
LINE
5
27D
100
AcDbEntity
8
0
100
AcDbLine
62
0
6
CONTINUOUS
10
37.4563843095
20
-23.5258596823
11
37.4563843095
21
-23.6258596823
0
LINE
5
27E
100
AcDbEntity
8
0
100
AcDbLine
62
0
6
CONTINUOUS
10
21.7262045692
20
-23.5258596823
11
21.6995366102
21
-23.5658819535
0
LINE
5
27F
100
AcDbEntity
8
0
100
AcDbLine
62
0
6
CONTINUOUS
10
21.6595717716
20
21.3741403177
11
21.7262045692
21
21.2741403177
0
LINE
5
280
100
AcDbEntity
8
0
100
AcDbLine
62
0
6
CONTINUOUS
10
44.3547047279
20
21.3362570473
11
44.3413322921
21
21.2741403177
0
LINE
5
281
100
AcDbEntity
8
0
100
AcDbLine
62
0
6
CONTINUOUS
10
37.4977044105
20
-23.5879764119
11
37.5110768462
21
-23.5258596823
0
LINE
5
282
100
AcDbEntity
8
0
100
AcDbLine
62
0
6
CONTINUOUS
10
44.3547047279
20
-23.5879764119
11
44.3413322921
21
-23.5258596823
0
LINE
5
283
100
AcDbEntity
8
0
100
AcDbLine
62
0
6
CONTINUOUS
10
37.4977044105
20
21.3362570473
11
37.5110768462
21
21.2741403177
0
LINE
5
284
100
AcDbEntity
8
0
100
AcDbLine
62
0
6
CONTINUOUS
10
44.3960248289
20
-23.6258596823
11
44.3960248289
21
-23.5258596823
0
LINE
5
285
100
AcDbEntity
8
0
100
AcDbLine
62
0
6
CONTINUOUS
10
44.3960248289
20
21.3741403177
11
44.3960248289
21
21.2741403177
0
LINE
5
286
100
AcDbEntity
8
0
100
AcDbLine
62
9
6
CONTINUOUS
10
51.4350026859
20
20.8490474549
11
51.5765851689
21
21.2741403177
0
LINE
5
287
100
AcDbEntity
8
0
100
AcDbLine
62
9
6
CONTINUOUS
10
51.9349265335
20
20.3497326875
11
52.0762045692
21
20.7739114656
0
LINE
5
288
100
AcDbEntity
8
0
100
AcDbLine
62
9
6
CONTINUOUS
10
51.5765851689
20
-23.5258596823
11
51.4350026859
21
-23.1007668195
0
LINE
5
289
100
AcDbEntity
8
0
100
AcDbLine
62
9
6
CONTINUOUS
10
52.0762045692
20
-23.0256308302
11
51.9349265335
21
-22.6014520521
0
LINE
5
28A
100
AcDbEntity
8
0
100
AcDbLine
62
0
6
CONTINUOUS
10
44.2942650027
20
-23.6039529150
11
44.3110768462
21
-23.5258596823
0
LINE
5
28B
100
AcDbEntity
8
0
100
AcDbLine
62
0
6
CONTINUOUS
10
44.2942650027
20
21.3522335504
11
44.3110768462
21
21.2741403177
0
LINE
5
28C
100
AcDbEntity
8
0
100
AcDbLine
62
9
6
CONTINUOUS
10
51.4267396317
20
-22.1441739132
11
51.4267396317
21
19.8924545486
0
LINE
5
28D
100
AcDbEntity
8
0
100
AcDbLine
62
0
6
CONTINUOUS
10
52.0762045692
20
20.7739114656
11
52.0762045692
21
-23.0256308302
0
LINE
5
28E
100
AcDbEntity
8
0
100
AcDbLine
62
0
6
CONTINUOUS
10
44.2262045692
20
-23.5258596823
11
44.1995366102
21
-23.5658819535
0
LINE
5
28F
100
AcDbEntity
8
0
100
AcDbLine
62
9
6
CONTINUOUS
10
7.9256695066
20
19.8924545486
11
51.4267396317
21
19.8924545486
0
LINE
5
290
100
AcDbEntity
8
0
100
AcDbLine
62
9
6
CONTINUOUS
10
7.9174064525
20
20.8490474549
11
51.4350026859
21
20.8490474549
0
LINE
5
291
100
AcDbEntity
8
0
100
AcDbLine
62
0
6
CONTINUOUS
10
7.7758239694
20
21.2741403177
11
15.1262045692
21
21.2741403177
0
LINE
5
292
100
AcDbEntity
8
0
100
AcDbLine
62
0
6
CONTINUOUS
10
21.7262045692
20
21.2741403177
11
37.6262045692
21
21.2741403177
0
LINE
5
293
100
AcDbEntity
8
0
100
AcDbLine
62
0
6
CONTINUOUS
10
44.2262045692
20
21.2741403177
11
51.5765851689
21
21.2741403177
0
LINE
5
294
100
AcDbEntity
8
0
100
AcDbLine
62
0
6
CONTINUOUS
10
14.9563843095
20
21.3741403177
11
21.8960248289
21
21.3741403177
0
LINE
5
295
100
AcDbEntity
8
0
100
AcDbLine
62
0
6
CONTINUOUS
10
37.4563843095
20
21.3741403177
11
44.3960248289
21
21.3741403177
0
LINE
5
296
100
AcDbEntity
8
0
100
AcDbLine
62
0
6
CONTINUOUS
10
44.6010620473
20
22.3741403177
11
37.2513470910
21
22.3741403177
0
LINE
5
297
100
AcDbEntity
8
0
100
AcDbLine
62
0
6
CONTINUOUS
10
22.1010620473
20
22.3741403177
11
14.7513470910
21
22.3741403177
0
LINE
5
298
100
AcDbEntity
8
0
100
AcDbLine
62
0
6
CONTINUOUS
10
44.1595717716
20
21.3741403177
11
44.2262045692
21
21.2741403177
0
LINE
5
299
100
AcDbEntity
8
0
100
AcDbLine
62
0
6
CONTINUOUS
10
-35.7410920338
20
-24.5560394226
11
-39.7410920338
21
-24.6258596823
0
LINE
5
29A
100
AcDbEntity
8
0
100
AcDbLine
62
9
6
CONTINUOUS
10
-35.7410920338
20
-24.3889670436
11
-39.7410920338
21
-24.4592193403
0
LINE
5
29B
100
AcDbEntity
8
0
100
AcDbLine
62
0
6
CONTINUOUS
10
-31.7702372359
20
-22.2565481540
11
-35.5445825151
21
-22.3224295959
0
LINE
5
29C
100
AcDbEntity
8
0
100
AcDbLine
62
9
6
CONTINUOUS
10
-31.7702404372
20
-22.1335781217
11
-35.5445825151
21
-22.1997549060
0
LINE
5
29D
100
AcDbEntity
8
0
100
AcDbLine
62
0
6
CONTINUOUS
10
-33.5915965499
20
-23.3258596823
11
-34.1410920338
21
-23.3258596823
0
LINE
5
29E
100
AcDbEntity
8
0
100
AcDbLine
62
0
6
CONTINUOUS
10
-39.7410920338
20
-23.5258596823
11
-47.8523470537
21
-23.1007668195
0
LINE
5
29F
100
AcDbEntity
8
0
100
AcDbLine
62
9
6
CONTINUOUS
10
-39.7410920338
20
-23.0256308302
11
-47.8349052788
21
-22.6014520521
0
LINE
5
2A0
100
AcDbEntity
8
0
100
AcDbLine
62
0
6
CONTINUOUS
10
-39.7410920338
20
-24.6258596823
11
-39.7410920338
21
-23.7260513679
0
LINE
5
2A1
100
AcDbEntity
8
0
100
AcDbLine
62
0
6
CONTINUOUS
10
-39.7410920338
20
22.3741403177
11
-39.7410920338
21
-23.5258596823
0
LINE
5
2A2
100
AcDbEntity
8
0
100
AcDbLine
62
9
6
CONTINUOUS
10
-37.4376015525
20
-11.9374128410
11
-37.4376015525
21
9.6856934764
0
LINE
5
2A3
100
AcDbEntity
8
0
100
AcDbLine
62
0
6
CONTINUOUS
10
-37.2410920338
20
-11.9374128410
11
-37.2410920338
21
9.6856934764
0
LINE
5
2A4
100
AcDbEntity
8
0
100
AcDbLine
62
0
6
CONTINUOUS
10
-37.0410920338
20
10.1241403177
11
-37.0410920338
21
-12.3758596823
0
LINE
5
2A5
100
AcDbEntity
8
0
100
AcDbLine
62
9
6
CONTINUOUS
10
-48.7991271591
20
-22.1441739128
11
-48.3082953359
21
-22.1231555990
0
LINE
5
2A6
100
AcDbEntity
8
0
100
AcDbLine
62
0
6
CONTINUOUS
10
-16.3236396274
20
-20.2899116729
11
-29.5583167503
21
-20.5209238214
0
LINE
5
2A7
100
AcDbEntity
8
0
100
AcDbLine
62
0
6
CONTINUOUS
10
-15.1445825151
20
-19.1073397257
11
-13.5376015525
21
-19.0792897687
0
LINE
5
2A8
100
AcDbEntity
8
0
100
AcDbLine
62
0
6
CONTINUOUS
10
-31.0410920338
20
-21.7258596823
11
-25.2367287661
21
-21.6752057715
0
LINE
5
2A9
100
AcDbEntity
8
0
100
AcDbLine
62
9
6
CONTINUOUS
10
-30.5367093917
20
-21.2214770401
11
-25.2367287661
21
-21.1752248099
0
LINE
5
2AA
100
AcDbEntity
8
0
100
AcDbLine
62
9
6
CONTINUOUS
10
-24.7410920338
20
-21.1752248099
11
-25.2367287661
21
-21.1752248095
0
LINE
5
2AB
100
AcDbEntity
8
0
100
AcDbLine
62
0
6
CONTINUOUS
10
-35.7410920338
20
20.2706797703
11
-35.7410920338
21
22.3043200580
0
LINE
5
2AC
100
AcDbEntity
8
0
100
AcDbLine
62
0
6
CONTINUOUS
10
-35.7410920338
20
-22.5223991349
11
-35.7410920338
21
-24.5560394226
0
LINE
5
2AD
100
AcDbEntity
8
0
100
AcDbLine
62
0
6
CONTINUOUS
10
-34.1410920338
20
-23.3258596823
11
-34.1410920338
21
-22.2979315784
0
LINE
5
2AE
100
AcDbEntity
8
0
100
AcDbLine
62
0
6
CONTINUOUS
10
-34.1410920338
20
21.0741403177
11
-34.1410920338
21
20.0462122138
0
LINE
5
2AF
100
AcDbEntity
8
0
100
AcDbLine
62
0
6
CONTINUOUS
10
-15.1445825151
20
-15.3073397257
11
-13.5376015525
21
-15.2792897687
0
LINE
5
2B0
100
AcDbEntity
8
0
100
AcDbLine
62
9
6
CONTINUOUS
10
-16.3218945914
20
-18.1223016095
11
-15.3410920338
21
-18.1223016095
0
LINE
5
2B1
100
AcDbEntity
8
0
100
AcDbLine
62
9
6
CONTINUOUS
10
-15.3410920338
20
-16.3258596823
11
-13.3410920338
21
-16.3258596823
0
LINE
5
2B2
100
AcDbEntity
8
0
100
AcDbLine
62
0
6
CONTINUOUS
10
-39.7410920338
20
-12.4229883576
11
-37.0410920338
21
-12.3758596823
0
LINE
5
2B3
100
AcDbEntity
8
0
100
AcDbLine
62
0
6
CONTINUOUS
10
-39.7410920338
20
-12.2758596823
11
-37.5358563119
21
-12.2373671496
0
LINE
5
2B4
100
AcDbEntity
8
0
100
AcDbLine
62
9
6
CONTINUOUS
10
-39.7410920338
20
-12.0758901433
11
-37.5358563119
21
-12.0373976106
0
LINE
5
2B5
100
AcDbEntity
8
0
100
AcDbLine
62
9
6
CONTINUOUS
10
-15.3410920338
20
-12.5258596823
11
-13.3410920338
21
-12.5258596823
0
LINE
5
2B6
100
AcDbEntity
8
0
100
AcDbLine
62
9
6
CONTINUOUS
10
-37.4376015525
20
-11.9374128410
11
-37.2410920338
21
-11.9374128410
0
LINE
5
2B7
100
AcDbEntity
8
0
100
AcDbLine
62
9
6
CONTINUOUS
10
-15.3410920338
20
-10.4258596823
11
-13.3410920338
21
-10.4258596823
0
LINE
5
2B8
100
AcDbEntity
8
0
100
AcDbLine
62
9
6
CONTINUOUS
10
-25.2367287661
20
-20.4454902225
11
-25.2367287661
21
-21.1752248099
0
LINE
5
2B9
100
AcDbEntity
8
0
100
AcDbLine
62
0
6
CONTINUOUS
10
-24.7410920338
20
-20.4368388512
11
-24.7410920338
21
-21.1752248099
0
LINE
5
2BA
100
AcDbEntity
8
0
100
AcDbLine
62
0
6
CONTINUOUS
10
-14.3236396274
20
-5.6430101143
11
-15.3410920338
21
-5.6607698122
0
LINE
5
2BB
100
AcDbEntity
8
0
100
AcDbLine
62
9
6
CONTINUOUS
10
-14.3236396274
20
-4.6431624192
11
-15.3410920338
21
-4.6609221170
0
LINE
5
2BC
100
AcDbEntity
8
0
100
AcDbLine
62
9
6
CONTINUOUS
10
-14.3236396274
20
-4.6431624192
11
-13.3410920338
21
-4.6431624192
0
LINE
5
2BD
100
AcDbEntity
8
0
100
AcDbLine
62
0
6
CONTINUOUS
10
-13.3410920338
20
-4.2740244152
11
-13.1410920338
21
-4.2740244152
0
LINE
5
2BE
100
AcDbEntity
8
0
100
AcDbLine
62
9
6
CONTINUOUS
10
-13.3410920338
20
-4.1987780952
11
-13.1410920338
21
-4.1987780952
0
LINE
5
2BF
100
AcDbEntity
8
0
100
AcDbLine
62
0
6
CONTINUOUS
10
-15.1445825151
20
-7.6443796389
11
-13.5376015525
21
-7.6724295959
0
LINE
5
2C0
100
AcDbEntity
8
0
100
AcDbLine
62
0
6
CONTINUOUS
10
-13.3410920338
20
-3.1381825061
11
-13.1410920338
21
-3.1381825061
0
LINE
5
2C1
100
AcDbEntity
8
0
100
AcDbLine
62
9
6
CONTINUOUS
10
-13.3410920338
20
-2.7139285241
11
-13.1410920338
21
-2.7139285241
0
LINE
5
2C2
100
AcDbEntity
8
0
100
AcDbLine
62
0
6
CONTINUOUS
10
-13.3410920338
20
-2.1455954144
11
-13.1410920338
21
-2.1455954144
0
LINE
5
2C3
100
AcDbEntity
8
0
100
AcDbLine
62
0
6
CONTINUOUS
10
-13.3410920338
20
-0.7469898122
11
-13.1410920338
21
-0.7469898122
0
LINE
5
2C4
100
AcDbEntity
8
0
100
AcDbLine
62
0
6
CONTINUOUS
10
-13.3410920338
20
-0.6876497239
11
-13.1410920338
21
-0.6876497239
0
LINE
5
2C5
100
AcDbEntity
8
0
100
AcDbLine
62
9
6
CONTINUOUS
10
-16.3236396274
20
-20.1344022629
11
-16.3236396274
21
-18.7613749124
0
LINE
5
2C6
100
AcDbEntity
8
0
100
AcDbLine
62
9
6
CONTINUOUS
10
-16.3236396274
20
16.5096555478
11
-16.3236396274
21
17.8826828978
0
LINE
5
2C7
100
AcDbEntity
8
0
100
AcDbLine
62
9
6
CONTINUOUS
10
-16.3224527637
20
18.0381715915
11
-16.3224527637
21
18.3557303949
0
LINE
5
2C8
100
AcDbEntity
8
0
100
AcDbLine
62
9
6
CONTINUOUS
10
-16.3218945914
20
-18.1223016095
11
-16.3218945914
21
15.8705822449
0
LINE
5
2C9
100
AcDbEntity
8
0
100
AcDbLine
62
0
6
CONTINUOUS
10
-13.3410920338
20
0.1159993294
11
-13.1410920338
21
0.1159991878
0
LINE
5
2CA
100
AcDbEntity
8
0
100
AcDbLine
62
0
6
CONTINUOUS
10
-13.3410920338
20
0.4071992538
11
-13.1410920338
21
0.4071991878
0
LINE
5
2CB
100
AcDbEntity
8
0
100
AcDbLine
62
0
6
CONTINUOUS
10
-13.1410920338
20
0.5611995096
11
-13.3410920338
21
0.5611995096
0
LINE
5
2CC
100
AcDbEntity
8
0
100
AcDbLine
62
0
6
CONTINUOUS
10
-13.1410920338
20
1.3592019861
11
-13.3410920338
21
1.3592019861
0
LINE
5
2CD
100
AcDbEntity
8
0
100
AcDbLine
62
0
6
CONTINUOUS
10
-13.3410920338
20
1.4760081878
11
-13.1410920338
21
1.4760081878
0
LINE
5
2CE
100
AcDbEntity
8
0
100
AcDbLine
62
0
6
CONTINUOUS
10
-13.3410920338
20
1.6236491878
11
-13.1410920338
21
1.6236491878
0
LINE
5
2CF
100
AcDbEntity
8
0
100
AcDbLine
62
9
6
CONTINUOUS
10
-13.3410920338
20
2.3914430546
11
-14.3236396274
21
2.3914430546
0
LINE
5
2D0
100
AcDbEntity
8
0
100
AcDbLine
62
9
6
CONTINUOUS
10
-14.3236396274
20
2.3914430546
11
-15.3410920338
21
2.4092027524
0
LINE
5
2D1
100
AcDbEntity
8
0
100
AcDbLine
62
0
6
CONTINUOUS
10
-15.3410920338
20
-19.2900639777
11
-15.3410920338
21
18.3557303949
0
LINE
5
2D2
100
AcDbEntity
8
0
100
AcDbLine
62
0
6
CONTINUOUS
10
-15.2210920338
20
8.6063643177
11
-15.2210920338
21
7.0674731280
0
LINE
5
2D3
100
AcDbEntity
8
0
100
AcDbLine
62
0
6
CONTINUOUS
10
-15.2210920338
20
6.3741401902
11
-15.2210920338
21
4.5741404452
0
LINE
5
2D4
100
AcDbEntity
8
0
100
AcDbLine
62
9
6
CONTINUOUS
10
-15.1445825151
20
12.6275453177
11
-15.1445825151
21
12.1556203611
0
LINE
5
2D5
100
AcDbEntity
8
0
100
AcDbLine
62
9
6
CONTINUOUS
10
-15.1445825151
20
-7.6444097771
11
-15.1445825151
21
-19.1073327565
0
LINE
5
2D6
100
AcDbEntity
8
0
100
AcDbLine
62
0
6
CONTINUOUS
10
-15.1410920338
20
17.1195565860
11
-15.1410920338
21
12.6354980494
0
LINE
5
2D7
100
AcDbEntity
8
0
100
AcDbLine
62
9
6
CONTINUOUS
10
-14.3236396274
20
2.3914430546
11
-14.3236396274
21
-4.6431624192
0
LINE
5
2D8
100
AcDbEntity
8
0
100
AcDbLine
62
9
6
CONTINUOUS
10
-13.5376015525
20
-7.6724297071
11
-13.5376015525
21
-19.0792725968
0
LINE
5
2D9
100
AcDbEntity
8
0
100
AcDbLine
62
9
6
CONTINUOUS
10
-13.5376015525
20
13.0275702929
11
-13.5376015525
21
5.1207102313
0
LINE
5
2DA
100
AcDbEntity
8
0
100
AcDbLine
62
0
6
CONTINUOUS
10
-13.3410920338
20
12.8263480103
11
-13.3410920338
21
5.3206797703
0
LINE
5
2DB
100
AcDbEntity
8
0
100
AcDbLine
62
0
6
CONTINUOUS
10
-13.3410920338
20
2.3914430546
11
-13.3410920338
21
-4.6431624192
0
LINE
5
2DC
100
AcDbEntity
8
0
100
AcDbLine
62
0
6
CONTINUOUS
10
-13.3410920338
20
-7.8736519897
11
-13.3410920338
21
-18.8802883508
0
LINE
5
2DD
100
AcDbEntity
8
0
100
AcDbLine
62
0
6
CONTINUOUS
10
-13.1410920338
20
1.3621539622
11
-13.1410920338
21
0.5611995096
0
LINE
5
2DE
100
AcDbEntity
8
0
100
AcDbLine
62
0
6
CONTINUOUS
10
-13.1410920338
20
1.6236491878
11
-13.1410920338
21
1.4760081878
0
LINE
5
2DF
100
AcDbEntity
8
0
100
AcDbLine
62
0
6
CONTINUOUS
10
-13.1410920338
20
0.5590470972
11
-13.1410920338
21
-0.6869225922
0
LINE
5
2E0
100
AcDbEntity
8
0
100
AcDbLine
62
0
6
CONTINUOUS
10
-13.1410920338
20
-0.6876035811
11
-13.1410920338
21
-0.7469898122
0
LINE
5
2E1
100
AcDbEntity
8
0
100
AcDbLine
62
0
6
CONTINUOUS
10
-13.1410920338
20
-2.1455954144
11
-13.1410920338
21
-4.2734909287
0
LINE
5
2E2
100
AcDbEntity
8
0
100
AcDbLine
62
0
6
CONTINUOUS
10
-30.0410748127
20
-20.7258424611
11
-32.0971625355
21
-22.7819301840
0
LINE
5
2E3
100
AcDbEntity
8
0
100
AcDbLine
62
0
6
CONTINUOUS
10
-15.2265975100
20
5.0912286972
11
-13.5376015525
21
5.1207102313
0
LINE
5
2E4
100
AcDbEntity
8
0
100
AcDbLine
62
0
6
CONTINUOUS
10
-15.3410920338
20
4.5741404452
11
-15.2210920338
21
4.5741404452
0
LINE
5
2E5
100
AcDbEntity
8
0
100
AcDbLine
62
0
6
CONTINUOUS
10
-15.3410920338
20
4.7758201784
11
-15.2210920338
21
4.7758201784
0
LINE
5
2E6
100
AcDbEntity
8
0
100
AcDbLine
62
0
6
CONTINUOUS
10
-15.3410920338
20
5.3480985574
11
-15.2210920338
21
5.3480985574
0
LINE
5
2E7
100
AcDbEntity
8
0
100
AcDbLine
62
0
6
CONTINUOUS
10
-15.3410920338
20
5.5497782906
11
-15.2210920338
21
5.5497782906
0
LINE
5
2E8
100
AcDbEntity
8
0
100
AcDbLine
62
0
6
CONTINUOUS
10
-15.3410920338
20
6.1724604570
11
-15.2210920338
21
6.1724604570
0
LINE
5
2E9
100
AcDbEntity
8
0
100
AcDbLine
62
0
6
CONTINUOUS
10
-14.3236396274
20
3.3912907497
11
-15.3410920338
21
3.4090504476
0
LINE
5
2EA
100
AcDbEntity
8
0
100
AcDbLine
62
0
6
CONTINUOUS
10
-32.0971625355
20
20.5302108194
11
-30.0410748127
21
18.4741230965
0
LINE
5
2EB
100
AcDbEntity
8
0
100
AcDbLine
62
0
6
CONTINUOUS
10
-15.3410920338
20
6.3741401902
11
-15.2210920338
21
6.3741401902
0
LINE
5
2EC
100
AcDbEntity
8
0
100
AcDbLine
62
0
6
CONTINUOUS
10
-15.3410920338
20
7.0682802428
11
-15.2210920338
21
7.0682802428
0
LINE
5
2ED
100
AcDbEntity
8
0
100
AcDbLine
62
0
6
CONTINUOUS
10
-15.3410920338
20
7.0808759339
11
-15.2210920338
21
7.0808759339
0
LINE
5
2EE
100
AcDbEntity
8
0
100
AcDbLine
62
0
6
CONTINUOUS
10
-15.3410920338
20
8.4281463177
11
-15.2210920338
21
8.4281463177
0
LINE
5
2EF
100
AcDbEntity
8
0
100
AcDbLine
62
0
6
CONTINUOUS
10
-15.3410920338
20
8.6063643177
11
-15.2210920338
21
8.6063643177
0
LINE
5
2F0
100
AcDbEntity
8
0
100
AcDbLine
62
9
6
CONTINUOUS
10
-37.4376015525
20
9.6856934764
11
-37.2410920338
21
9.6856934763
0
LINE
5
2F1
100
AcDbEntity
8
0
100
AcDbLine
62
9
6
CONTINUOUS
10
-37.5358563119
20
9.7856782460
11
-39.7410920338
21
9.8241707787
0
LINE
5
2F2
100
AcDbEntity
8
0
100
AcDbLine
62
0
6
CONTINUOUS
10
-37.5358563119
20
9.9856477850
11
-39.7410920338
21
10.0241403177
0
LINE
5
2F3
100
AcDbEntity
8
0
100
AcDbLine
62
0
6
CONTINUOUS
10
-39.7410920338
20
10.1712689930
11
-37.0410920338
21
10.1241403177
0
LINE
5
2F4
100
AcDbEntity
8
0
100
AcDbLine
62
0
6
CONTINUOUS
10
-15.3410920338
20
12.6275453177
11
-15.1410920338
21
12.6275453177
0
LINE
5
2F5
100
AcDbEntity
8
0
100
AcDbLine
62
0
6
CONTINUOUS
10
-15.3410920338
20
12.1590504476
11
-13.5376015525
21
12.1275704041
0
LINE
5
2F6
100
AcDbEntity
8
0
100
AcDbLine
62
0
6
CONTINUOUS
10
-15.1445825151
20
13.0556203611
11
-13.5376015525
21
13.0275704041
0
LINE
5
2F7
100
AcDbEntity
8
0
100
AcDbLine
62
0
6
CONTINUOUS
10
-33.5915965499
20
-23.3258596823
11
-32.0971625355
21
-22.7819301840
0
LINE
5
2F8
100
AcDbEntity
8
0
100
AcDbLine
62
9
6
CONTINUOUS
10
-16.3218945914
20
15.8705822449
11
-15.3410920338
21
15.8705822449
0
LINE
5
2F9
100
AcDbEntity
8
0
100
AcDbLine
62
0
6
CONTINUOUS
10
-33.5915965499
20
21.0741403177
11
-32.0971625355
21
20.5302108194
0
LINE
5
2FA
100
AcDbEntity
8
0
100
AcDbLine
62
0
6
CONTINUOUS
10
-15.3410920338
20
17.1275093177
11
-15.1410920338
21
17.1275093177
0
LINE
5
2FB
100
AcDbEntity
8
0
100
AcDbLine
62
9
6
CONTINUOUS
10
-15.3410920338
20
18.3557303949
11
-16.3224527637
21
18.3557303949
0
LINE
5
2FC
100
AcDbEntity
8
0
100
AcDbLine
62
9
6
CONTINUOUS
10
-16.3224527637
20
18.3557303949
11
-30.0428146454
21
18.4754661791
0
LINE
5
2FD
100
AcDbEntity
8
0
100
AcDbLine
62
0
6
CONTINUOUS
10
-16.3224527637
20
19.3456926987
11
-31.0410920338
21
19.4741403177
0
LINE
5
2FE
100
AcDbEntity
8
0
100
AcDbLine
62
0
6
CONTINUOUS
10
-29.5583167503
20
18.2692044568
11
-16.3236396274
21
18.0381923083
0
LINE
5
2FF
100
AcDbEntity
8
0
100
AcDbLine
62
0
6
CONTINUOUS
10
-35.5445825151
20
20.0707102313
11
-31.7702372359
21
20.0048287894
0
LINE
5
300
100
AcDbEntity
8
0
100
AcDbLine
62
9
6
CONTINUOUS
10
-35.5445825151
20
19.9480355414
11
-31.7702404363
21
19.8818587571
0
LINE
5
301
100
AcDbEntity
8
0
100
AcDbLine
62
9
6
CONTINUOUS
10
-48.7990859775
20
19.8924528128
11
-48.3082953358
21
19.8714362344
0
LINE
5
302
100
AcDbEntity
8
0
100
AcDbLine
62
9
6
CONTINUOUS
10
-47.8349052788
20
20.3497326875
11
-39.7410920338
21
20.7739114656
0
LINE
5
303
100
AcDbEntity
8
0
100
AcDbLine
62
0
6
CONTINUOUS
10
-47.8523470537
20
20.8490474549
11
-39.7410920338
21
21.2741403177
0
LINE
5
304
100
AcDbEntity
8
0
100
AcDbLine
62
0
6
CONTINUOUS
10
-33.5915965499
20
21.0741403177
11
-34.1410920338
21
21.0741403177
0
LINE
5
305
100
AcDbEntity
8
0
100
AcDbLine
62
0
6
CONTINUOUS
10
-35.7410920338
20
22.3043200580
11
-39.7410920338
21
22.3741403177
0
LINE
5
306
100
AcDbEntity
8
0
100
AcDbLine
62
9
6
CONTINUOUS
10
-35.7410920338
20
22.1372476790
11
-39.7410920338
21
22.2074999757
0
CIRCLE
5
307
100
AcDbEntity
8
0
100
AcDbCircle
62
0
6
CONTINUOUS
10
29.6762045692
20
8.8741403177
40
2.4000000000
0
ARC
5
308
100
AcDbEntity
8
0
100
AcDbCircle
62
0
6
CONTINUOUS
10
39.1762045692
20
-1.1258596823
40
2.3000000000
100
AcDbArc
50
63.9318397081
51
116.0681602919
0
ARC
5
309
100
AcDbEntity
8
0
100
AcDbCircle
62
0
6
CONTINUOUS
10
20.1762045692
20
-1.1258596823
40
2.3000000000
100
AcDbArc
50
243.9318397081
51
296.0681602919
0
CIRCLE
5
30A
100
AcDbEntity
8
0
100
AcDbCircle
62
0
6
CONTINUOUS
10
39.1762045692
20
-1.1258596823
40
2.8000000000
0
CIRCLE
5
30B
100
AcDbEntity
8
0
100
AcDbCircle
62
0
6
CONTINUOUS
10
20.1762045692
20
-1.1258596823
40
2.8000000000
0
ARC
5
30C
100
AcDbEntity
8
0
100
AcDbCircle
62
0
6
CONTINUOUS
10
29.6762045692
20
-1.1258596823
40
28.0000000000
100
AcDbArc
50
125.9627651514
51
126.8624534027
0
ARC
5
30D
100
AcDbEntity
8
0
100
AcDbCircle
62
0
6
CONTINUOUS
10
29.6762045692
20
-1.1258596823
40
28.0000000000
100
AcDbArc
50
123.5572123136
51
124.1210936517
0
ARC
5
30E
100
AcDbEntity
8
0
100
AcDbCircle
62
0
6
CONTINUOUS
10
7.1762045692
20
-1.1258596823
40
28.0000000000
100
AcDbArc
50
55.8789063483
51
56.4427876864
0
ARC
5
30F
100
AcDbEntity
8
0
100
AcDbCircle
62
0
6
CONTINUOUS
10
7.1762045692
20
-1.1258596823
40
28.0000000000
100
AcDbArc
50
53.1306352597
51
54.0372348486
0
ARC
5
310
100
AcDbEntity
8
0
100
AcDbCircle
62
0
6
CONTINUOUS
10
52.1762045692
20
-1.1258596823
40
28.0000000000
100
AcDbArc
50
125.9627651514
51
126.8693647403
0
ARC
5
311
100
AcDbEntity
8
0
100
AcDbCircle
62
0
6
CONTINUOUS
10
52.1762045692
20
-1.1258596823
40
28.0000000000
100
AcDbArc
50
123.5572123136
51
124.1210936517
0
ARC
5
312
100
AcDbEntity
8
0
100
AcDbCircle
62
0
6
CONTINUOUS
10
29.6762045692
20
-1.1258596823
40
28.0000000000
100
AcDbArc
50
55.8789063483
51
56.4427876864
0
ARC
5
313
100
AcDbEntity
8
0
100
AcDbCircle
62
0
6
CONTINUOUS
10
29.6762045692
20
-1.1258596823
40
28.0000000000
100
AcDbArc
50
53.1375465973
51
54.0372348486
0
ARC
5
314
100
AcDbEntity
8
0
100
AcDbCircle
62
0
6
CONTINUOUS
10
29.6762045692
20
-1.1258596823
40
28.0000000000
100
AcDbArc
50
305.9627651514
51
306.8624534027
0
ARC
5
315
100
AcDbEntity
8
0
100
AcDbCircle
62
0
6
CONTINUOUS
10
29.6762045692
20
-1.1258596823
40
28.0000000000
100
AcDbArc
50
303.5572123136
51
304.1210936517
0
ARC
5
316
100
AcDbEntity
8
0
100
AcDbCircle
62
0
6
CONTINUOUS
10
52.1762045692
20
-1.1258596823
40
28.0000000000
100
AcDbArc
50
235.8789063483
51
236.4427876864
0
ARC
5
317
100
AcDbEntity
8
0
100
AcDbCircle
62
0
6
CONTINUOUS
10
52.1762045692
20
-1.1258596823
40
28.0000000000
100
AcDbArc
50
233.1306352597
51
234.0372348486
0
ARC
5
318
100
AcDbEntity
8
0
100
AcDbCircle
62
0
6
CONTINUOUS
10
7.1762045692
20
-1.1258596823
40
28.0000000000
100
AcDbArc
50
305.9627651514
51
306.8693647403
0
ARC
5
319
100
AcDbEntity
8
0
100
AcDbCircle
62
0
6
CONTINUOUS
10
7.1762045692
20
-1.1258596823
40
28.0000000000
100
AcDbArc
50
303.5572123136
51
304.1210936517
0
ARC
5
31A
100
AcDbEntity
8
0
100
AcDbCircle
62
0
6
CONTINUOUS
10
29.6762045692
20
-1.1258596823
40
28.0000000000
100
AcDbArc
50
235.8789063483
51
236.4427876864
0
ARC
5
31B
100
AcDbEntity
8
0
100
AcDbCircle
62
0
6
CONTINUOUS
10
29.6762045692
20
-1.1258596823
40
28.0000000000
100
AcDbArc
50
233.1375465973
51
234.0372348486
0
ARC
5
31C
100
AcDbEntity
8
0
100
AcDbCircle
62
0
6
CONTINUOUS
10
35.9762045692
20
-24.2258596823
40
0.5000000000
100
AcDbArc
50
350.8037184210
51
119.1124227760
0
ARC
5
31D
100
AcDbEntity
8
0
100
AcDbCircle
62
0
6
CONTINUOUS
10
45.8762045692
20
-24.2258596823
40
0.5000000000
100
AcDbArc
50
60.8875772240
51
189.1962815790
0
ARC
5
31E
100
AcDbEntity
8
0
100
AcDbCircle
62
0
6
CONTINUOUS
10
23.3762045692
20
-24.2258596823
40
0.5000000000
100
AcDbArc
50
60.8875772240
51
189.1962815790
0
ARC
5
31F
100
AcDbEntity
8
0
100
AcDbCircle
62
0
6
CONTINUOUS
10
13.4762045692
20
-24.2258596823
40
0.5000000000
100
AcDbArc
50
350.8037184210
51
119.1124227760
0
ARC
5
320
100
AcDbEntity
8
0
100
AcDbCircle
62
0
6
CONTINUOUS
10
35.9762045692
20
21.9741403177
40
0.5000000000
100
AcDbArc
50
240.8875772240
51
9.1962815790
0
ARC
5
321
100
AcDbEntity
8
0
100
AcDbCircle
62
0
6
CONTINUOUS
10
45.8762045692
20
21.9741403177
40
0.5000000000
100
AcDbArc
50
170.8037184210
51
299.1124227760
0
ARC
5
322
100
AcDbEntity
8
0
100
AcDbCircle
62
0
6
CONTINUOUS
10
23.3762045692
20
21.9741403177
40
0.5000000000
100
AcDbArc
50
170.8037184210
51
299.1124227760
0
ARC
5
323
100
AcDbEntity
8
0
100
AcDbCircle
62
0
6
CONTINUOUS
10
13.4762045692
20
21.9741403177
40
0.5000000000
100
AcDbArc
50
240.8875772240
51
9.1962815790
0
CIRCLE
5
324
100
AcDbEntity
8
0
100
AcDbCircle
62
0
6
CONTINUOUS
10
29.6762045692
20
8.8741403177
40
2.4500000000
0
CIRCLE
5
325
100
AcDbEntity
8
0
100
AcDbCircle
62
9
6
CONTINUOUS
10
29.6762045692
20
8.8741403177
40
2.9499712118
0
CIRCLE
5
326
100
AcDbEntity
8
0
100
AcDbCircle
62
9
6
CONTINUOUS
10
39.1762045692
20
-1.1258596823
40
3.2999682938
0
CIRCLE
5
327
100
AcDbEntity
8
0
100
AcDbCircle
62
9
6
CONTINUOUS
10
20.1762045692
20
-1.1258596823
40
3.2999682938
0
CIRCLE
5
328
100
AcDbEntity
8
0
100
AcDbCircle
62
0
6
CONTINUOUS
10
29.6762045692
20
-1.1258596823
40
19.2000000000
0
ARC
5
329
100
AcDbEntity
8
0
100
AcDbCircle
62
0
6
CONTINUOUS
10
-47.8000110975
20
-22.1021372848
40
1.0000000000
100
AcDbArc
50
182.4092313014
51
267.0000000000
0
ARC
5
32A
100
AcDbEntity
8
0
100
AcDbCircle
62
0
6
CONTINUOUS
10
-47.8000110975
20
19.8504179202
40
1.0000000000
100
AcDbArc
50
93.0000000000
51
177.5907686986
0
ARC
5
32B
100
AcDbEntity
8
0
100
AcDbCircle
62
0
6
CONTINUOUS
10
450.7589079662
20
-1.1258596823
40
500.0000000000
100
AcDbArc
50
177.5907686986
51
182.4092313014
0
ARC
5
32C
100
AcDbEntity
8
0
100
AcDbCircle
62
0
6
CONTINUOUS
10
-37.5410920338
20
-11.9374128410
40
0.3000000000
100
AcDbArc
50
271.0000000000
51
360.0000000000
0
ARC
5
32D
100
AcDbEntity
8
0
100
AcDbCircle
62
0
6
CONTINUOUS
10
-37.5410920338
20
9.6856934764
40
0.3000000000
100
AcDbArc
50
0.0000000000
51
89.0000000000
0
ARC
5
32E
100
AcDbEntity
8
0
100
AcDbCircle
62
0
6
CONTINUOUS
10
-13.5410920338
20
11.9276008651
40
0.2000000000
100
AcDbArc
50
0.0000000000
51
74.1586846021
0
ARC
5
32F
100
AcDbEntity
8
0
100
AcDbCircle
62
0
6
CONTINUOUS
10
-13.5410920338
20
5.3206797703
40
0.2000000000
100
AcDbArc
50
271.0000167582
51
360.0000000000
0
ARC
5
330
100
AcDbEntity
8
0
100
AcDbCircle
62
0
6
CONTINUOUS
10
-13.5410920338
20
12.8276008651
40
0.2000000000
100
AcDbArc
50
0.0000000000
51
89.0000000000
0
ARC
5
331
100
AcDbEntity
8
0
100
AcDbCircle
62
0
6
CONTINUOUS
10
-15.1410920338
20
-19.3073092648
40
0.2000000000
100
AcDbArc
50
91.0000000000
51
180.0000000000
0
ARC
5
332
100
AcDbEntity
8
0
100
AcDbCircle
62
0
6
CONTINUOUS
10
-13.5410920338
20
-18.8793202297
40
0.2000000000
100
AcDbArc
50
271.0000000000
51
360.0000000000
0
ARC
5
333
100
AcDbEntity
8
0
100
AcDbCircle
62
0
6
CONTINUOUS
10
-35.5410920338
20
-22.5223991349
40
0.2000000000
100
AcDbArc
50
169.2157049612
51
180.0000000000
0
ARC
5
334
100
AcDbEntity
8
0
100
AcDbCircle
62
0
6
CONTINUOUS
10
-13.5410920338
20
-7.8723991349
40
0.2000000000
100
AcDbArc
50
0.0000000000
51
89.0000000000
0
ARC
5
335
100
AcDbEntity
8
0
100
AcDbCircle
62
0
6
CONTINUOUS
10
-13.5410920338
20
-15.0793202297
40
0.2000000000
100
AcDbArc
50
271.0000000000
51
360.0000000000
0
ARC
5
336
100
AcDbEntity
8
0
100
AcDbCircle
62
0
6
CONTINUOUS
10
-15.1410920338
20
-15.5073092648
40
0.2000000000
100
AcDbArc
50
91.0000000000
51
180.0000000000
0
ARC
5
337
100
AcDbEntity
8
0
100
AcDbCircle
62
0
6
CONTINUOUS
10
-35.5410920338
20
20.2706797703
40
0.2000000000
100
AcDbArc
50
180.0000000000
51
190.7842950388
0
ARC
5
338
100
AcDbEntity
8
0
100
AcDbCircle
62
0
6
CONTINUOUS
10
-14.3410920338
20
2.3914430546
40
1.0000000000
100
AcDbArc
50
0.0000000000
51
89.0000000000
0
ARC
5
339
100
AcDbEntity
8
0
100
AcDbCircle
62
0
6
CONTINUOUS
10
-14.3410920338
20
-4.6431624192
40
1.0000000000
100
AcDbArc
50
271.0000000000
51
360.0000000000
0
ARC
5
33A
100
AcDbEntity
8
0
100
AcDbCircle
62
0
6
CONTINUOUS
10
-16.3410920338
20
17.0383446131
40
1.0000000000
100
AcDbArc
50
359.9167400057
51
89.0000000000
0
ARC
5
33B
100
AcDbEntity
8
0
100
AcDbCircle
62
0
6
CONTINUOUS
10
-25.2410920338
20
-21.1752248099
40
0.5000000000
100
AcDbArc
50
270.5000000000
51
360.0000000000
0
ARC
5
33C
100
AcDbEntity
8
0
100
AcDbCircle
62
0
6
CONTINUOUS
10
-35.5410920338
20
20.2706797703
40
0.2000000000
100
AcDbArc
50
249.3506258938
51
269.0000000000
0
ARC
5
33D
100
AcDbEntity
8
0
100
AcDbCircle
62
0
6
CONTINUOUS
10
-35.5410920338
20
-22.5223991349
40
0.2000000000
100
AcDbArc
50
91.0000000000
51
119.2584605177
0
ARC
5
33E
100
AcDbEntity
8
0
100
AcDbCircle
62
0
6
CONTINUOUS
10
-31.7789634391
20
-21.7566243064
40
0.5000000000
100
AcDbArc
50
271.0000000000
51
315.0000000000
0
ARC
5
33F
100
AcDbEntity
8
0
100
AcDbCircle
62
0
6
CONTINUOUS
10
-31.7789634391
20
19.5049049418
40
0.5000000000
100
AcDbArc
50
45.0000000000
51
89.0000000000
0
ARC
5
340
100
AcDbEntity
8
0
100
AcDbCircle
62
0
6
CONTINUOUS
10
-29.5461000658
20
18.9690978434
40
0.7000000000
100
AcDbArc
50
225.0000000000
51
269.0000000000
0
ARC
5
341
100
AcDbEntity
8
0
100
AcDbCircle
62
0
6
CONTINUOUS
10
-29.5461000658
20
-21.2208172080
40
0.7000000000
100
AcDbArc
50
91.0000000000
51
135.0000000000
0
ARC
5
342
100
AcDbEntity
8
0
100
AcDbCircle
62
0
6
CONTINUOUS
10
-16.3310920338
20
18.3557303949
40
0.9900000000
100
AcDbArc
50
0.0000000000
51
89.5000000000
0
ARC
5
343
100
AcDbEntity
8
0
100
AcDbCircle
62
0
6
CONTINUOUS
10
-16.3410920338
20
-19.2900639777
40
1.0000000000
100
AcDbArc
50
271.0000000000
51
0.0527280933
0
SPLINE
5
344
100
AcDbEntity
8
0
100
AcDbSpline
62
9
6
CONTINUOUS
70
0
71
3
72
8
73
4
74
2
42
0.0000001000
43
0.0000001000
44
0.0000000001
12
0.0032294443
22
0.0008653270
32
0.0000000000
13
0.0028037436
23
-0.0010731783
33
0.0000000000
40
0.0000000000
40
0.0000000000
40
0.0000000000
40
0.0000000000
40
1.0000000000
40
1.0000000000
40
1.0000000000
40
1.0000000000
10
38.4515112429
20
1.5787326313
30
0.0000000000
10
38.4525877243
20
1.5790210736
30
0.0000000000
10
38.4535868536
20
1.5789416249
30
0.0000000000
10
38.4545214348
20
1.5785838988
30
0.0000000000
11
38.4515112429
21
1.5787326313
31
0.0000000000
11
38.4545214348
21
1.5785838988
31
0.0000000000
0
SPLINE
5
345
100
AcDbEntity
8
0
100
AcDbSpline
62
9
6
CONTINUOUS
70
0
71
3
72
12
73
8
74
6
42
0.0000001000
43
0.0000001000
44
0.0000000001
12
0.2153143977
22
-0.0824150725
32
0.0000000000
13
0.0657748843
23
-0.2481869492
33
0.0000000000
40
0.0000000000
40
0.0000000000
40
0.0000000000
40
0.0000000000
40
0.0451578214
40
0.1907317898
40
0.4138365483
40
0.6928566236
40
1.0000000000
40
1.0000000000
40
1.0000000000
40
1.0000000000
10
38.4545214348
20
1.5785838988
30
0.0000000000
10
38.4577624779
20
1.5773433371
30
0.0000000000
10
38.4681728209
20
1.5579683648
30
0.0000000000
10
38.4813829164
20
1.5310565046
30
0.0000000000
10
38.5012073787
20
1.4761609092
30
0.0000000000
10
38.5219347751
20
1.4112382468
30
0.0000000000
10
38.5356140133
20
1.3626608339
30
0.0000000000
10
38.5423481200
20
1.3372511747
30
0.0000000000
11
38.4545214348
21
1.5785838988
31
0.0000000000
11
38.4624497294
21
1.5685596679
31
0.0000000000
11
38.4788325513
21
1.5349645651
31
0.0000000000
11
38.4990007920
21
1.4813491516
31
0.0000000000
11
38.5209122270
21
1.4131425000
31
0.0000000000
11
38.5423481200
21
1.3372511747
31
0.0000000000
0
SPLINE
5
346
100
AcDbEntity
8
0
100
AcDbSpline
62
9
6
CONTINUOUS
70
0
71
3
72
8
73
4
74
2
42
0.0000001000
43
0.0000001000
44
0.0000000001
12
-0.0032294443
22
-0.0008653270
32
0.0000000000
13
-0.0028037436
23
0.0010731783
33
0.0000000000
40
0.0000000000
40
0.0000000000
40
0.0000000000
40
0.0000000000
40
1.0000000000
40
1.0000000000
40
1.0000000000
40
1.0000000000
10
20.9008978955
20
-3.8304519959
30
0.0000000000
10
20.8998214140
20
-3.8307404382
30
0.0000000000
10
20.8988222847
20
-3.8306609895
30
0.0000000000
10
20.8978877035
20
-3.8303032634
30
0.0000000000
11
20.9008978955
21
-3.8304519959
31
0.0000000000
11
20.8978877035
21
-3.8303032634
31
0.0000000000
0
SPLINE
5
347
100
AcDbEntity
8
0
100
AcDbSpline
62
9
6
CONTINUOUS
70
0
71
3
72
12
73
8
74
6
42
0.0000001000
43
0.0000001000
44
0.0000000001
12
-0.2153143977
22
0.0824150726
32
0.0000000000
13
-0.0657748843
23
0.2481869492
33
0.0000000000
40
0.0000000000
40
0.0000000000
40
0.0000000000
40
0.0000000000
40
0.0451578214
40
0.1907317898
40
0.4138365483
40
0.6928566236
40
1.0000000000
40
1.0000000000
40
1.0000000000
40
1.0000000000
10
20.8978877035
20
-3.8303032634
30
0.0000000000
10
20.8946466605
20
-3.8290627017
30
0.0000000000
10
20.8842363174
20
-3.8096877294
30
0.0000000000
10
20.8710262220
20
-3.7827758692
30
0.0000000000
10
20.8512017597
20
-3.7278802739
30
0.0000000000
10
20.8304743632
20
-3.6629576114
30
0.0000000000
10
20.8167951250
20
-3.6143801985
30
0.0000000000
10
20.8100610184
20
-3.5889705393
30
0.0000000000
11
20.8978877035
21
-3.8303032634
31
0.0000000000
11
20.8899594089
21
-3.8202790325
31
0.0000000000
11
20.8735765871
21
-3.7866839297
31
0.0000000000
11
20.8534083464
21
-3.7330685162
31
0.0000000000
11
20.8314969114
21
-3.6648618646
31
0.0000000000
11
20.8100610184
21
-3.5889705393
31
0.0000000000
0
SPLINE
5
348
100
AcDbEntity
8
0
100
AcDbSpline
62
0
6
CONTINUOUS
70
0
71
3
72
10
73
6
74
4
42
0.0000001000
43
0.0000001000
44
0.0000000001
12
-0.0342142931
22
0.0248262705
32
0.0000000000
13
-0.0314206568
23
0.0282790362
33
0.0000000000
40
0.0000000000
40
0.0000000000
40
0.0000000000
40
0.0000000000
40
0.3359892564
40
0.6692398733
40
1.0000000000
40
1.0000000000
40
1.0000000000
40
1.0000000000
10
22.5140111378
20
-1.6702383553
30
0.0000000000
10
22.5101792595
20
-1.6674579019
30
0.0000000000
10
22.5026437205
20
-1.6617835535
30
0.0000000000
10
22.4917283623
20
-1.6528688546
30
0.0000000000
10
22.4846519253
20
-1.6467448940
30
0.0000000000
10
22.4811876918
20
-1.6436270348
30
0.0000000000
11
22.5140111378
21
-1.6702383553
31
0.0000000000
11
22.5026709931
21
-1.6616868041
31
0.0000000000
11
22.4917443694
21
-1.6527951422
31
0.0000000000
11
22.4811876918
21
-1.6436270348
31
0.0000000000
0
SPLINE
5
349
100
AcDbEntity
8
0
100
AcDbSpline
62
0
6
CONTINUOUS
70
0
71
3
72
10
73
6
74
4
42
0.0000001000
43
0.0000001000
44
0.0000000001
12
0.0283290064
22
0.1030071700
32
0.0000000000
13
0.0317670662
23
0.1019993293
33
0.0000000000
40
0.0000000000
40
0.0000000000
40
0.0000000000
40
0.0000000000
40
0.3395401515
40
0.6750431986
40
1.0000000000
40
1.0000000000
40
1.0000000000
40
1.0000000000
10
22.4841050815
20
-1.7727943647
30
0.0000000000
10
22.4873113599
20
-1.7611360080
30
0.0000000000
10
22.4937988135
20
-1.7379888187
30
0.0000000000
10
22.5037435946
20
-1.7037944977
30
0.0000000000
10
22.5105701631
20
-1.6812868139
30
0.0000000000
10
22.5140111378
20
-1.6702383553
30
0.0000000000
11
22.4841050815
21
-1.7727943647
31
0.0000000000
11
22.4938947146
21
-1.7378667166
31
0.0000000000
11
22.5039151645
21
-1.7034535630
31
0.0000000000
11
22.5140111378
21
-1.6702383553
31
0.0000000000
0
SPLINE
5
34A
100
AcDbEntity
8
0
100
AcDbSpline
62
9
6
CONTINUOUS
70
0
71
3
72
13
73
9
74
7
42
0.0000001000
43
0.0000001000
44
0.0000000001
12
0.5767675202
22
-0.0597657298
32
0.0000000000
13
0.3050067824
23
0.4935706980
33
0.0000000000
40
0.0000000000
40
0.0000000000
40
0.0000000000
40
0.0000000000
40
0.1570765458
40
0.3124325722
40
0.4781284506
40
0.6609950222
40
0.8592381730
40
1.0000000000
40
1.0000000000
40
1.0000000000
40
1.0000000000
10
22.4841050815
20
-1.7727943647
30
0.0000000000
10
22.5143039648
20
-1.7759236295
30
0.0000000000
10
22.5754165672
20
-1.7750760097
30
0.0000000000
10
22.6654304551
20
-1.7505593897
30
0.0000000000
10
22.7516260304
20
-1.7035254995
30
0.0000000000
10
22.8326628889
20
-1.6347275262
30
0.0000000000
10
22.8978701547
20
-1.5572861132
30
0.0000000000
10
22.9344232984
20
-1.5028060564
30
0.0000000000
10
22.9487344024
20
-1.4796474186
30
0.0000000000
11
22.4841050815
21
-1.7727943647
31
0.0000000000
11
22.5751734952
21
-1.7712362645
31
0.0000000000
11
22.6621898831
21
-1.7479276564
31
0.0000000000
11
22.7468891414
21
-1.7025696740
31
0.0000000000
11
22.8283438774
21
-1.6346814608
31
0.0000000000
11
22.9030672123
21
-1.5473288104
31
0.0000000000
11
22.9487344024
21
-1.4796474186
31
0.0000000000
0
SPLINE
5
34B
100
AcDbEntity
8
0
100
AcDbSpline
62
9
6
CONTINUOUS
70
0
71
3
72
8
73
4
74
2
42
0.0000001000
43
0.0000001000
44
0.0000000001
12
0.0060194091
22
0.0097407799
32
0.0000000000
13
0.0059183213
23
0.0098026547
33
0.0000000000
40
0.0000000000
40
0.0000000000
40
0.0000000000
40
0.0000000000
40
1.0000000000
40
1.0000000000
40
1.0000000000
40
1.0000000000
10
22.9487344024
20
-1.4796474186
30
0.0000000000
10
22.9507408720
20
-1.4764004920
30
0.0000000000
10
22.9527303086
20
-1.4731430017
30
0.0000000000
10
22.9547030824
20
-1.4698754501
30
0.0000000000
11
22.9487344024
21
-1.4796474186
31
0.0000000000
11
22.9547030824
21
-1.4698754501
31
0.0000000000
0
SPLINE
5
34C
100
AcDbEntity
8
0
100
AcDbSpline
62
9
6
CONTINUOUS
70
0
71
3
72
12
73
8
74
6
42
0.0000001000
43
0.0000001000
44
0.0000000001
12
0.3218564883
22
-0.0919180717
32
0.0000000000
13
0.1775441460
23
0.2841511441
33
0.0000000000
40
0.0000000000
40
0.0000000000
40
0.0000000000
40
0.0000000000
40
0.1898389616
40
0.3742400699
40
0.5776784821
40
0.8179758307
40
1.0000000000
40
1.0000000000
40
1.0000000000
40
1.0000000000
10
22.4811877614
20
-1.6436273153
30
0.0000000000
10
22.5015547286
20
-1.6494438591
30
0.0000000000
10
22.5439757117
20
-1.6547662850
30
0.0000000000
10
22.6078147328
20
-1.6390958748
30
0.0000000000
10
22.6677215723
20
-1.6008409787
30
0.0000000000
10
22.7157065808
20
-1.5494118193
30
0.0000000000
10
22.7425723432
20
-1.5105909167
30
0.0000000000
10
22.7533447851
20
-1.4933501247
30
0.0000000000
11
22.4811877614
21
-1.6436273153
31
0.0000000000
11
22.5443183545
21
-1.6508618169
31
0.0000000000
11
22.6043837644
21
-1.6366510167
31
0.0000000000
11
22.6624630847
21
-1.6011005592
31
0.0000000000
11
22.7183883387
21
-1.5432913757
31
0.0000000000
11
22.7533447851
21
-1.4933501247
31
0.0000000000
0
SPLINE
5
34D
100
AcDbEntity
8
0
100
AcDbSpline
62
9
6
CONTINUOUS
70
0
71
3
72
12
73
8
74
6
42
0.0000001000
43
0.0000001000
44
0.0000000001
12
0.2203781382
22
0.3527049555
32
0.0000000000
13
0.1026155205
23
0.4026520149
33
0.0000000000
40
0.0000000000
40
0.0000000000
40
0.0000000000
40
0.0000000000
40
0.0784669184
40
0.3339941944
40
0.6208128664
40
0.9402288832
40
1.0000000000
40
1.0000000000
40
1.0000000000
40
1.0000000000
10
22.7533447851
20
-1.4933501247
30
0.0000000000
10
22.7591089162
20
-1.4841249011
30
0.0000000000
10
22.7826605280
20
-1.4442378777
30
0.0000000000
10
22.8197831821
20
-1.3665097922
30
0.0000000000
10
22.8611860799
20
-1.2544429108
30
0.0000000000
10
22.8871073621
20
-1.1658643163
30
0.0000000000
10
22.9003118667
20
-1.1150299907
30
0.0000000000
10
22.9023563481
20
-1.1070076705
30
0.0000000000
11
22.7533447851
21
-1.4933501247
31
0.0000000000
11
22.7699775253
21
-1.4652766457
31
0.0000000000
11
22.8164971611
21
-1.3698448738
31
0.0000000000
11
22.8583818520
21
-1.2582808943
31
0.0000000000
11
22.8961104214
21
-1.1310459778
31
0.0000000000
11
22.9023563481
21
-1.1070076705
31
0.0000000000
0
SPLINE
5
34E
100
AcDbEntity
8
0
100
AcDbSpline
62
9
6
CONTINUOUS
70
0
71
3
72
8
73
4
74
2
42
0.0000001000
43
0.0000001000
44
0.0000000001
12
0.0055585847
22
0.0218112749
32
0.0000000000
13
0.0053802639
23
0.0218557221
33
0.0000000000
40
0.0000000000
40
0.0000000000
40
0.0000000000
40
0.0000000000
40
1.0000000000
40
1.0000000000
40
1.0000000000
40
1.0000000000
10
22.9023563481
20
-1.1070076705
30
0.0000000000
10
22.9042092097
20
-1.0997372456
30
0.0000000000
10
22.9060317317
20
-1.0924591611
30
0.0000000000
10
22.9078251530
20
-1.0851739204
30
0.0000000000
11
22.9023563481
21
-1.1070076705
31
0.0000000000
11
22.9078251530
21
-1.0851739204
31
0.0000000000
0
SPLINE
5
34F
100
AcDbEntity
8
0
100
AcDbSpline
62
9
6
CONTINUOUS
70
0
71
3
72
9
73
5
74
3
42
0.0000001000
43
0.0000001000
44
0.0000000001
12
0.0612484075
22
0.2488034423
32
0.0000000000
13
0.0432598756
23
0.2525456318
33
0.0000000000
40
0.0000000000
40
0.0000000000
40
0.0000000000
40
0.0000000000
40
0.3882360250
40
1.0000000000
40
1.0000000000
40
1.0000000000
40
1.0000000000
10
22.9078251530
20
-1.0851739204
30
0.0000000000
10
22.9157514324
20
-1.0529757672
30
0.0000000000
10
22.9347034303
20
-0.9696812376
30
0.0000000000
10
22.9505937206
20
-0.8857475884
30
0.0000000000
10
22.9594153318
20
-0.8342481485
30
0.0000000000
11
22.9078251530
21
-1.0851739204
31
0.0000000000
11
22.9300056464
21
-0.9882035603
31
0.0000000000
11
22.9594153318
21
-0.8342481485
31
0.0000000000
0
SPLINE
5
350
100
AcDbEntity
8
0
100
AcDbSpline
62
9
6
CONTINUOUS
70
0
71
3
72
22
73
18
74
16
42
0.0000001000
43
0.0000001000
44
0.0000000001
12
-4.8067806828
22
-1.2879451741
32
0.0000000000
13
0.5994553155
23
4.9401008723
33
0.0000000000
40
0.0000000000
40
0.0000000000
40
0.0000000000
40
0.0000000000
40
0.0347805213
40
0.0718196565
40
0.1120212830
40
0.1562271128
40
0.2052766094
40
0.2599966497
40
0.3211938760
40
0.3897301324
40
0.4660319719
40
0.5489534572
40
0.6367252994
40
0.7273761994
40
0.8188021407
40
0.9096782965
40
1.0000000000
40
1.0000000000
40
1.0000000000
40
1.0000000000
10
20.8100610184
20
-3.5889705393
30
0.0000000000
10
20.7543335723
20
-3.6039023409
30
0.0000000000
10
20.6381757835
20
-3.6308385422
30
0.0000000000
10
20.4545117307
20
-3.6600559338
30
0.0000000000
10
20.2535340649
20
-3.6766507171
30
0.0000000000
10
20.0318845254
20
-3.6766499498
30
0.0000000000
10
19.7870687337
20
-3.6543036236
30
0.0000000000
10
19.5179595541
20
-3.6019005852
30
0.0000000000
10
19.2254633860
20
-3.5096598572
30
0.0000000000
10
18.9141891731
20
-3.3660907110
30
0.0000000000
10
18.5956735129
20
-3.1603108615
30
0.0000000000
10
18.2887859416
20
-2.8861575393
30
0.0000000000
10
18.0165781950
20
-2.5460218648
30
0.0000000000
10
17.8006137061
20
-2.1512720558
30
0.0000000000
10
17.6562638479
20
-1.7195496115
30
0.0000000000
10
17.5907575729
20
-1.2698017489
30
0.0000000000
10
17.6005836242
20
-0.9675469476
30
0.0000000000
10
17.6186315660
20
-0.8188141722
30
0.0000000000
11
20.8100610184
21
-3.5889705393
31
0.0000000000
11
20.6414549673
21
-3.6280673680
31
0.0000000000
11
20.4594247035
21
-3.6570255395
31
0.0000000000
11
20.2600462253
21
-3.6734871311
31
0.0000000000
11
20.0400630598
21
-3.6734856196
31
0.0000000000
11
19.7969868421
21
-3.6512963752
31
0.0000000000
11
19.5297023242
21
-3.5992460506
31
0.0000000000
11
19.2392652395
21
-3.5076504375
31
0.0000000000
11
18.9295634970
21
-3.3647991797
31
0.0000000000
11
18.6106346194
21
-3.1587425760
31
0.0000000000
11
18.3029058643
21
-2.8838258400
31
0.0000000000
11
18.0299936032
21
-2.5428012830
31
0.0000000000
11
17.8134861938
21
-2.1470433173
31
0.0000000000
11
17.6692040085
21
-1.7155608821
31
0.0000000000
11
17.6040472253
21
-1.2680488515
31
0.0000000000
11
17.6186315660
21
-0.8188141722
31
0.0000000000
0
SPLINE
5
351
100
AcDbEntity
8
0
100
AcDbSpline
62
0
6
CONTINUOUS
70
0
71
3
72
8
73
4
74
2
42
0.0000001000
43
0.0000001000
44
0.0000000001
12
-0.0082920895
22
-0.0309228501
32
0.0000000000
13
-0.0065624818
23
-0.0313723168
33
0.0000000000
40
0.0000000000
40
0.0000000000
40
0.0000000000
40
0.0000000000
40
1.0000000000
40
1.0000000000
40
1.0000000000
40
1.0000000000
10
17.4717507665
20
-0.4006497811
30
0.0000000000
10
17.4689867366
20
-0.4109573978
30
0.0000000000
10
17.4665031835
20
-0.4213491852
30
0.0000000000
10
17.4643156895
20
-0.4318066241
30
0.0000000000
11
17.4717507665
21
-0.4006497811
31
0.0000000000
11
17.4643156895
21
-0.4318066241
31
0.0000000000
0
SPLINE
5
352
100
AcDbEntity
8
0
100
AcDbSpline
62
0
6
CONTINUOUS
70
0
71
3
72
14
73
10
74
8
42
0.0000001000
43
0.0000001000
44
0.0000000001
12
-0.0939605660
22
-0.4491838200
32
0.0000000000
13
0.4509784301
23
-0.0820987632
33
0.0000000000
40
0.0000000000
40
0.0000000000
40
0.0000000000
40
0.0000000000
40
0.1307893760
40
0.3100061317
40
0.4713523561
40
0.6186399420
40
0.7536917136
40
0.8830579052
40
1.0000000000
40
1.0000000000
40
1.0000000000
40
1.0000000000
10
17.4643156895
20
-0.4318066241
30
0.0000000000
10
17.4602193416
20
-0.4513894480
30
0.0000000000
10
17.4529706913
20
-0.4983517132
30
0.0000000000
10
17.4516919815
20
-0.5706837975
30
0.0000000000
10
17.4632600692
20
-0.6447291403
30
0.0000000000
10
17.4863751258
20
-0.7089609031
30
0.0000000000
10
17.5205927097
20
-0.7624915980
30
0.0000000000
10
17.5650485004
20
-0.8016660800
30
0.0000000000
10
17.6010521119
20
-0.8156139051
30
0.0000000000
10
17.6186315660
20
-0.8188141722
30
0.0000000000
11
17.4643156895
21
-0.4318066241
31
0.0000000000
11
17.4552435544
21
-0.4911241477
31
0.0000000000
11
17.4541356749
21
-0.5732679159
31
0.0000000000
11
17.4659876868
21
-0.6462716568
31
0.0000000000
11
17.4893955522
21
-0.7095991863
31
0.0000000000
11
17.5233732411
21
-0.7613478412
31
0.0000000000
11
17.5685080795
21
-0.7998103212
31
0.0000000000
11
17.6186315660
21
-0.8188141722
31
0.0000000000
0
SPLINE
5
353
100
AcDbEntity
8
0
100
AcDbSpline
62
0
6
CONTINUOUS
70
0
71
3
72
15
73
11
74
9
42
0.0000001000
43
0.0000001000
44
0.0000000001
12
-0.7895679658
22
-1.2652691391
32
0.0000000000
13
-1.3396976727
23
-0.6553882154
33
0.0000000000
40
0.0000000000
40
0.0000000000
40
0.0000000000
40
0.0000000000
40
0.1179257197
40
0.2397705424
40
0.3642758047
40
0.4904001893
40
0.6172826746
40
0.7445867769
40
0.8721457124
40
1.0000000000
40
1.0000000000
40
1.0000000000
40
1.0000000000
10
22.2674139748
20
-2.1918850861
30
0.0000000000
10
22.2363771846
20
-2.2416210107
30
0.0000000000
10
22.1704966451
20
-2.3410485775
30
0.0000000000
10
22.0616137246
20
-2.4858960594
30
0.0000000000
10
21.9409803870
20
-2.6265623230
30
0.0000000000
10
21.8092763109
20
-2.7604789441
30
0.0000000000
10
21.6673183606
20
-2.8856070168
30
0.0000000000
10
21.5159441811
20
-3.0003716213
30
0.0000000000
10
21.3558955811
20
-3.1035825485
30
0.0000000000
10
21.2440120735
20
-3.1639536883
30
0.0000000000
10
21.1869167096
20
-3.1918850861
30
0.0000000000
11
22.2674139748
21
-2.1918850861
31
0.0000000000
11
22.1701735252
21
-2.3384347222
31
0.0000000000
11
22.0609042732
21
-2.4836342263
31
0.0000000000
11
21.9399582834
21
-2.6245333161
31
0.0000000000
11
21.8080070418
21
-2.7585929537
31
0.0000000000
11
21.6660023161
21
-2.8836705703
31
0.0000000000
11
21.5146680032
21
-2.9983268280
31
0.0000000000
11
21.3547539694
21
-3.1013806872
31
0.0000000000
11
21.1869167096
21
-3.1918850861
31
0.0000000000
0
SPLINE
5
354
100
AcDbEntity
8
0
100
AcDbSpline
62
0
6
CONTINUOUS
70
0
71
3
72
15
73
11
74
9
42
0.0000001000
43
0.0000001000
44
0.0000000001
12
-1.3396975965
22
0.6553881781
32
0.0000000000
13
-0.7895679209
23
1.2652690672
33
0.0000000000
40
0.0000000000
40
0.0000000000
40
0.0000000000
40
0.0000000000
40
0.1279130777
40
0.2556011156
40
0.3830343152
40
0.5099728796
40
0.6360367602
40
0.7604115667
40
0.8821303960
40
1.0000000000
40
1.0000000000
40
1.0000000000
40
1.0000000000
10
19.1654924287
20
-3.1918850861
30
0.0000000000
10
19.1083708144
20
-3.1639408464
30
0.0000000000
10
18.9964060027
20
-3.1035231888
30
0.0000000000
10
18.8362322682
20
-3.0002145786
30
0.0000000000
10
18.6847503248
20
-2.8853326974
30
0.0000000000
10
18.5427705099
20
-2.7601354509
30
0.0000000000
10
18.4111390356
20
-2.6262418340
30
0.0000000000
10
18.2906270217
20
-2.4856796895
30
0.0000000000
10
18.1818463545
20
-2.3409501900
30
0.0000000000
10
18.1160171830
20
-2.2415973407
30
0.0000000000
10
18.0849951636
20
-2.1918850861
30
0.0000000000
11
19.1654924287
21
-3.1918850861
31
0.0000000000
11
18.9975796398
21
-3.1013360417
31
0.0000000000
11
18.8375114276
21
-2.9981660000
31
0.0000000000
11
18.6860406882
21
-2.8833710020
31
0.0000000000
11
18.5439978996
21
-2.7582100834
31
0.0000000000
11
18.4121354241
21
-2.6241897097
31
0.0000000000
11
18.2913347654
21
-2.4834222990
31
0.0000000000
11
18.1821873426
21
-2.3383662995
31
0.0000000000
11
18.0849951636
21
-2.1918850861
31
0.0000000000
0
SPLINE
5
355
100
AcDbEntity
8
0
100
AcDbSpline
62
0
6
CONTINUOUS
70
0
71
3
72
15
73
11
74
9
42
0.0000001000
43
0.0000001000
44
0.0000000001
12
0.7895679658
22
1.2652691391
32
0.0000000000
13
1.3396976727
23
0.6553882154
33
0.0000000000
40
0.0000000000
40
0.0000000000
40
0.0000000000
40
0.0000000000
40
0.1179257197
40
0.2397705424
40
0.3642758047
40
0.4904001893
40
0.6172826746
40
0.7445867769
40
0.8721457124
40
1.0000000000
40
1.0000000000
40
1.0000000000
40
1.0000000000
10
37.0849951636
20
-0.0598342785
30
0.0000000000
10
37.1160319538
20
-0.0100983539
30
0.0000000000
10
37.1819124932
20
0.0893292129
30
0.0000000000
10
37.2907954137
20
0.2341766948
30
0.0000000000
10
37.4114287513
20
0.3748429584
30
0.0000000000
10
37.5431328274
20
0.5087595795
30
0.0000000000
10
37.6850907777
20
0.6338876522
30
0.0000000000
10
37.8364649572
20
0.7486522567
30
0.0000000000
10
37.9965135572
20
0.8518631839
30
0.0000000000
10
38.1083970649
20
0.9122343237
30
0.0000000000
10
38.1654924287
20
0.9401657215
30
0.0000000000
11
37.0849951636
21
-0.0598342785
31
0.0000000000
11
37.1822356131
21
0.0867153576
31
0.0000000000
11
37.2915048651
21
0.2319148617
31
0.0000000000
11
37.4124508549
21
0.3728139515
31
0.0000000000
11
37.5444020966
21
0.5068735891
31
0.0000000000
11
37.6864068222
21
0.6319512057
31
0.0000000000
11
37.8377411351
21
0.7466074634
31
0.0000000000
11
37.9976551689
21
0.8496613226
31
0.0000000000
11
38.1654924287
21
0.9401657215
31
0.0000000000
0
SPLINE
5
356
100
AcDbEntity
8
0
100
AcDbSpline
62
0
6
CONTINUOUS
70
0
71
3
72
15
73
11
74
9
42
0.0000001000
43
0.0000001000
44
0.0000000001
12
1.3396975965
22
-0.6553881781
32
0.0000000000
13
0.7895679209
23
-1.2652690672
33
0.0000000000
40
0.0000000000
40
0.0000000000
40
0.0000000000
40
0.0000000000
40
0.1279130777
40
0.2556011156
40
0.3830343152
40
0.5099728796
40
0.6360367602
40
0.7604115667
40
0.8821303960
40
1.0000000000
40
1.0000000000
40
1.0000000000
40
1.0000000000
10
40.1869167096
20
0.9401657215
30
0.0000000000
10
40.2440383239
20
0.9122214818
30
0.0000000000
10
40.3560031356
20
0.8518038242
30
0.0000000000
10
40.5161768701
20
0.7484952140
30
0.0000000000
10
40.6676588136
20
0.6336133328
30
0.0000000000
10
40.8096386284
20
0.5084160863
30
0.0000000000
10
40.9412701027
20
0.3745224694
30
0.0000000000
10
41.0617821167
20
0.2339603249
30
0.0000000000
10
41.1705627838
20
0.0892308254
30
0.0000000000
10
41.2363919554
20
-0.0101220239
30
0.0000000000
10
41.2674139748
20
-0.0598342785
30
0.0000000000
11
40.1869167096
21
0.9401657215
31
0.0000000000
11
40.3548294985
21
0.8496166771
31
0.0000000000
11
40.5148977108
21
0.7464466354
31
0.0000000000
11
40.6663684501
21
0.6316516374
31
0.0000000000
11
40.8084112387
21
0.5064907188
31
0.0000000000
11
40.9402737142
21
0.3724703451
31
0.0000000000
11
41.0610743730
21
0.2317029344
31
0.0000000000
11
41.1702217958
21
0.0866469349
31
0.0000000000
11
41.2674139748
21
-0.0598342785
31
0.0000000000
0
SPLINE
5
357
100
AcDbEntity
8
0
100
AcDbSpline
62
0
6
CONTINUOUS
70
0
71
3
72
23
73
19
74
17
42
0.0000001000
43
0.0000001000
44
0.0000000001
12
-1.9337502221
22
-7.0313139575
32
0.0000000000
13
0.8692209709
23
7.2403881660
33
0.0000000000
40
0.0000000000
40
0.0000000000
40
0.0000000000
40
0.0000000000
40
0.0622550183
40
0.1247237815
40
0.1870530683
40
0.2497516743
40
0.3121578187
40
0.3750140412
40
0.4375533338
40
0.5003535568
40
0.5630636780
40
0.6255722729
40
0.6883013563
40
0.7505579200
40
0.8131522694
40
0.8753197722
40
0.9377508246
40
1.0000000000
40
1.0000000000
40
1.0000000000
40
1.0000000000
10
22.4841050815
20
-1.7727943647
30
0.0000000000
10
22.4439765297
20
-1.9187058911
30
0.0000000000
10
22.3360262315
20
-2.2042347658
30
0.0000000000
10
22.0977041294
20
-2.5944352315
30
0.0000000000
10
21.7902987003
20
-2.9345396673
30
0.0000000000
10
21.4251050549
20
-3.2114266611
30
0.0000000000
10
21.0136414948
20
-3.4160860759
30
0.0000000000
10
20.5715781323
20
-3.5404094512
30
0.0000000000
10
20.1131641853
20
-3.5801886183
30
0.0000000000
10
19.6556945312
20
-3.5338528417
30
0.0000000000
10
19.2149967811
20
-3.4029596658
30
0.0000000000
10
18.8065606336
20
-3.1923709768
30
0.0000000000
10
18.4453552123
20
-2.9100461585
30
0.0000000000
10
18.1428387490
20
-2.5653650159
30
0.0000000000
10
17.9102859576
20
-2.1716452443
30
0.0000000000
10
17.7547433423
20
-1.7412011385
30
0.0000000000
10
17.6818066612
20
-1.2903421943
30
0.0000000000
10
17.6898646721
20
-0.9853013267
30
0.0000000000
10
17.7079007684
20
-0.8350652623
30
0.0000000000
11
22.4841050815
21
-1.7727943647
31
0.0000000000
11
22.3235151595
21
-2.1974296727
31
0.0000000000
11
22.0860994786
21
-2.5862172222
31
0.0000000000
11
21.7813071286
21
-2.9234084703
31
0.0000000000
11
21.4169716368
21
-3.1996538400
31
0.0000000000
11
21.0095031588
21
-3.4023249315
31
0.0000000000
11
20.5682500177
21
-3.5264212732
31
0.0000000000
11
20.1138974092
21
-3.5658488623
31
0.0000000000
11
19.6582658627
21
-3.5196977264
31
0.0000000000
11
19.2198873797
21
-3.3894942084
31
0.0000000000
11
18.8147350239
21
-3.1805964818
31
0.0000000000
11
18.4543228949
21
-2.8988905381
31
0.0000000000
11
18.1548467671
21
-2.5576742582
31
0.0000000000
11
17.9227111284
21
-2.1646472286
31
0.0000000000
11
17.7686278694
21
-1.7382863967
31
0.0000000000
11
17.6959589167
21
-1.2888526293
31
0.0000000000
11
17.7079007684
21
-0.8350652623
31
0.0000000000
0
SPLINE
5
358
100
AcDbEntity
8
0
100
AcDbSpline
62
0
6
CONTINUOUS
70
0
71
3
72
13
73
9
74
7
42
0.0000001000
43
0.0000001000
44
0.0000000001
12
-0.0218401251
22
-1.4269967825
32
0.0000000000
13
0.7555520550
23
-1.2107592248
33
0.0000000000
40
0.0000000000
40
0.0000000000
40
0.0000000000
40
0.0000000000
40
0.1716567435
40
0.3400580459
40
0.5061882243
40
0.6709482298
40
0.8352081414
40
1.0000000000
40
1.0000000000
40
1.0000000000
40
1.0000000000
10
17.7079007684
20
-0.8350652623
30
0.0000000000
10
17.7066511001
20
-0.9167164692
30
0.0000000000
10
17.7121294924
20
-1.0787057729
30
0.0000000000
10
17.7436692974
20
-1.3177933239
30
0.0000000000
10
17.7971886520
20
-1.5495806645
30
0.0000000000
10
17.8717854420
20
-1.7733828970
30
0.0000000000
10
17.9668641347
20
-1.9885609569
30
0.0000000000
10
18.0434922211
20
-2.1253773318
30
0.0000000000
10
18.0849951636
20
-2.1918850861
30
0.0000000000
11
17.7079007684
21
-0.8350652623
31
0.0000000000
11
17.7161850205
21
-1.0799074614
31
0.0000000000
11
17.7476155700
21
-1.3181796556
31
0.0000000000
11
17.8009608379
21
-1.5491954960
31
0.0000000000
11
17.8753165515
21
-1.7722690885
31
0.0000000000
11
17.9700690798
21
-1.9866925525
31
0.0000000000
11
18.0849951636
21
-2.1918850861
31
0.0000000000
0
SPLINE
5
359
100
AcDbEntity
8
0
100
AcDbSpline
62
0
6
CONTINUOUS
70
0
71
3
72
23
73
19
74
17
42
0.0000001000
43
0.0000001000
44
0.0000000001
12
1.9337504373
22
7.0313138134
32
0.0000000000
13
-0.8692209611
23
-7.2403880847
33
0.0000000000
40
0.0000000000
40
0.0000000000
40
0.0000000000
40
0.0000000000
40
0.0622550404
40
0.1247238007
40
0.1870530863
40
0.2497516909
40
0.3121578340
40
0.3750140550
40
0.4375533462
40
0.5003535679
40
0.5630636876
40
0.6255722812
40
0.6883013632
40
0.7505579255
40
0.8131522735
40
0.8753197750
40
0.9377508259
40
1.0000000000
40
1.0000000000
40
1.0000000000
40
1.0000000000
10
36.8683040786
20
-0.4789249206
30
0.0000000000
10
36.9084326492
20
-0.3330133454
30
0.0000000000
10
37.0163829822
20
-0.0474844354
30
0.0000000000
10
37.2547051404
20
0.3427160407
30
0.0000000000
10
37.5621105855
20
0.6828204367
30
0.0000000000
10
37.9273042405
20
0.9597073928
30
0.0000000000
10
38.3387678014
20
1.1643667712
30
0.0000000000
10
38.7808311574
20
1.2886901132
30
0.0000000000
10
39.2392450913
20
1.3284692517
30
0.0000000000
10
39.6967147275
20
1.2821334523
30
0.0000000000
10
40.1374124566
20
1.1512402602
30
0.0000000000
10
40.5458485816
20
0.9406515618
30
0.0000000000
10
40.9070539810
20
0.6583267407
30
0.0000000000
10
41.2095704244
20
0.3136456012
30
0.0000000000
10
41.4421231994
20
-0.0800741621
30
0.0000000000
10
41.5976658028
20
-0.5105182559
30
0.0000000000
10
41.6706024772
20
-0.9613771856
30
0.0000000000
10
41.6625444656
20
-1.2664180429
30
0.0000000000
10
41.6445083700
20
-1.4166541023
30
0.0000000000
11
36.8683040786
21
-0.4789249206
31
0.0000000000
11
37.0288940839
21
-0.0542894771
31
0.0000000000
11
37.2663097872
21
0.3344980281
31
0.0000000000
11
37.5711021560
21
0.6716892400
31
0.0000000000
11
37.9354376569
21
0.9479345716
31
0.0000000000
11
38.3429061365
21
1.1506056275
31
0.0000000000
11
38.7841592708
21
1.2747019360
31
0.0000000000
11
39.2385118666
21
1.3141294967
31
0.0000000000
11
39.6941433957
21
1.2679783381
31
0.0000000000
11
40.1325218576
21
1.1377748039
31
0.0000000000
11
40.5376741915
21
0.9288770678
31
0.0000000000
11
40.8980862987
21
0.6471711213
31
0.0000000000
11
41.1975624069
21
0.3059548443
31
0.0000000000
11
41.4296980293
21
-0.0870721771
31
0.0000000000
11
41.5837812765
21
-0.5134329972
31
0.0000000000
11
41.6564502227
21
-0.9628667504
31
0.0000000000
11
41.6445083700
21
-1.4166541023
31
0.0000000000
0
SPLINE
5
35A
100
AcDbEntity
8
0
100
AcDbSpline
62
0
6
CONTINUOUS
70
0
71
3
72
13
73
9
74
7
42
0.0000001000
43
0.0000001000
44
0.0000000001
12
0.0218401251
22
1.4269967825
32
0.0000000000
13
-0.7555520550
23
1.2107592248
33
0.0000000000
40
0.0000000000
40
0.0000000000
40
0.0000000000
40
0.0000000000
40
0.1716567435
40
0.3400580459
40
0.5061882243
40
0.6709482298
40
0.8352081414
40
1.0000000000
40
1.0000000000
40
1.0000000000
40
1.0000000000
10
41.6445083700
20
-1.4166541023
30
0.0000000000
10
41.6457580382
20
-1.3350028954
30
0.0000000000
10
41.6402796459
20
-1.1730135917
30
0.0000000000
10
41.6087398409
20
-0.9339260407
30
0.0000000000
10
41.5552204863
20
-0.7021387001
30
0.0000000000
10
41.4806236963
20
-0.4783364676
30
0.0000000000
10
41.3855450036
20
-0.2631584077
30
0.0000000000
10
41.3089169172
20
-0.1263420328
30
0.0000000000
10
41.2674139748
20
-0.0598342785
30
0.0000000000
11
41.6445083700
21
-1.4166541023
31
0.0000000000
11
41.6362241178
21
-1.1718119032
31
0.0000000000
11
41.6047935683
21
-0.9335397090
31
0.0000000000
11
41.5514483004
21
-0.7025238686
31
0.0000000000
11
41.4770925868
21
-0.4794502761
31
0.0000000000
11
41.3823400585
21
-0.2650268121
31
0.0000000000
11
41.2674139748
21
-0.0598342785
31
0.0000000000
0
SPLINE
5
35B
100
AcDbEntity
8
0
100
AcDbSpline
62
0
6
CONTINUOUS
70
0
71
3
72
10
73
6
74
4
42
0.0000001000
43
0.0000001000
44
0.0000000001
12
-0.1848245934
22
-0.5478154860
32
0.0000000000
13
-0.3060793293
23
-0.4904868818
33
0.0000000000
40
0.0000000000
40
0.0000000000
40
0.0000000000
40
0.0000000000
40
0.3367811298
40
0.6701940177
40
1.0000000000
40
1.0000000000
40
1.0000000000
40
1.0000000000
10
22.5140111378
20
-1.6702383553
30
0.0000000000
10
22.4932626594
20
-1.7317363281
30
0.0000000000
10
22.4471648254
20
-1.8525576825
30
0.0000000000
10
22.3645913602
20
-2.0268818795
30
0.0000000000
10
22.3010629061
20
-2.1379632501
30
0.0000000000
10
22.2674139748
20
-2.1918850861
30
0.0000000000
11
22.5140111378
21
-1.6702383553
31
0.0000000000
11
22.4445992626
21
-1.8521572705
31
0.0000000000
11
22.3620785853
21
-2.0263648570
31
0.0000000000
11
22.2674139748
21
-2.1918850861
31
0.0000000000
0
SPLINE
5
35C
100
AcDbEntity
8
0
100
AcDbSpline
62
0
6
CONTINUOUS
70
0
71
3
72
10
73
6
74
4
42
0.0000001000
43
0.0000001000
44
0.0000000001
12
0.1848246466
22
0.5478160316
32
0.0000000000
13
0.3060796120
23
0.4904873348
33
0.0000000000
40
0.0000000000
40
0.0000000000
40
0.0000000000
40
0.0000000000
40
0.3367809894
40
0.6701942104
40
1.0000000000
40
1.0000000000
40
1.0000000000
40
1.0000000000
10
36.8383978297
20
-0.5814815156
30
0.0000000000
10
36.8591463055
20
-0.5199835072
30
0.0000000000
10
36.9052441718
20
-0.3991619974
30
0.0000000000
10
36.9878176960
20
-0.2248376304
30
0.0000000000
10
37.0513462208
20
-0.1137561328
30
0.0000000000
10
37.0849951636
20
-0.0598342785
30
0.0000000000
11
36.8383978297
21
-0.5814815156
31
0.0000000000
11
36.9078097046
21
-0.3995624947
31
0.0000000000
11
36.9903305230
21
-0.2253545650
31
0.0000000000
11
37.0849951636
21
-0.0598342785
31
0.0000000000
0
SPLINE
5
35D
100
AcDbEntity
8
0
100
AcDbSpline
62
9
6
CONTINUOUS
70
0
71
3
72
22
73
18
74
16
42
0.0000001000
43
0.0000001000
44
0.0000000001
12
4.8067802592
22
1.2879450557
32
0.0000000000
13
-0.5994553338
23
-4.9401004271
33
0.0000000000
40
0.0000000000
40
0.0000000000
40
0.0000000000
40
0.0000000000
40
0.0347810070
40
0.0718186254
40
0.1120171028
40
0.1562184846
40
0.2052625705
40
0.2599765795
40
0.3211674989
40
0.3896974232
40
0.4659941207
40
0.5489137709
40
0.6366890331
40
0.7273480925
40
0.8187840613
40
0.9096696782
40
1.0000000000
40
1.0000000000
40
1.0000000000
40
1.0000000000
10
38.5423481200
20
1.3372511747
30
0.0000000000
10
38.5980763393
20
1.3521831834
30
0.0000000000
10
38.7142324669
20
1.3791189419
30
0.0000000000
10
38.8978896202
20
1.4083353376
30
0.0000000000
10
39.0988520691
20
1.4249298970
30
0.0000000000
10
39.3204799295
20
1.4249319065
30
0.0000000000
10
39.5652698231
20
1.4025934155
30
0.0000000000
10
39.8343516595
20
1.3502050170
30
0.0000000000
10
40.1268222409
20
1.2579869635
30
0.0000000000
10
40.4380776855
20
1.1144482880
30
0.0000000000
10
40.7565887468
20
0.9087025741
30
0.0000000000
10
41.0634926116
20
0.6345765701
30
0.0000000000
10
41.3357358776
20
0.2944483528
30
0.0000000000
10
41.5517427256
20
-0.1003197954
30
0.0000000000
10
41.6961268815
20
-0.5320799214
30
0.0000000000
10
41.7616517316
20
-0.9818728721
30
0.0000000000
10
41.7518272346
20
-1.2841582383
30
0.0000000000
10
41.7337775702
20
-1.4329051920
30
0.0000000000
11
38.5423481200
21
1.3372511747
31
0.0000000000
11
38.7109565290
21
1.3763484665
31
0.0000000000
11
38.8929793069
21
1.4053055482
31
0.0000000000
11
39.0923420652
21
1.4217668665
31
0.0000000000
11
39.3123030769
21
1.4217681115
31
0.0000000000
11
39.5553529507
21
1.3995867050
31
0.0000000000
11
39.8226097206
21
1.3475510369
31
0.0000000000
11
40.1130210079
21
1.2559780636
31
0.0000000000
11
40.4227023640
21
1.1131579142
31
0.0000000000
11
40.7416239433
21
0.9071372300
31
0.0000000000
11
41.0493667180
21
0.6322499499
31
0.0000000000
11
41.3223149364
21
0.2912324220
31
0.0000000000
11
41.5388667498
21
-0.1045474880
31
0.0000000000
11
41.6831842552
21
-0.5360706860
31
0.0000000000
11
41.7483595113
21
-0.9836275644
31
0.0000000000
11
41.7337775702
21
-1.4329051920
31
0.0000000000
0
SPLINE
5
35E
100
AcDbEntity
8
0
100
AcDbSpline
62
0
6
CONTINUOUS
70
0
71
3
72
8
73
4
74
2
42
0.0000001000
43
0.0000001000
44
0.0000000001
12
0.0082921535
22
0.0309230878
32
0.0000000000
13
0.0065625186
23
0.0313725591
33
0.0000000000
40
0.0000000000
40
0.0000000000
40
0.0000000000
40
0.0000000000
40
1.0000000000
40
1.0000000000
40
1.0000000000
40
1.0000000000
10
41.8806583663
20
-1.8510696049
30
0.0000000000
10
41.8834224175
20
-1.8407619089
30
0.0000000000
10
41.8859059875
20
-1.8303700413
30
0.0000000000
10
41.8880934937
20
-1.8199125216
30
0.0000000000
11
41.8806583663
21
-1.8510696049
31
0.0000000000
11
41.8880934937
21
-1.8199125216
31
0.0000000000
0
SPLINE
5
35F
100
AcDbEntity
8
0
100
AcDbSpline
62
0
6
CONTINUOUS
70
0
71
3
72
14
73
10
74
8
42
0.0000001000
43
0.0000001000
44
0.0000000001
12
0.0939603193
22
0.4491835925
32
0.0000000000
13
-0.4509781859
23
0.0820987187
33
0.0000000000
40
0.0000000000
40
0.0000000000
40
0.0000000000
40
0.0000000000
40
0.1307825795
40
0.3099960486
40
0.4713412616
40
0.6186295489
40
0.7536833039
40
0.8830530625
40
1.0000000000
40
1.0000000000
40
1.0000000000
40
1.0000000000
10
41.8880934937
20
-1.8199125216
30
0.0000000000
10
41.8921896181
20
-1.8003307253
30
0.0000000000
10
41.8994381367
20
-1.7533700432
30
0.0000000000
10
41.9007173506
20
-1.6810397265
30
0.0000000000
10
41.8891501976
20
-1.6069948545
30
0.0000000000
10
41.8660360100
20
-1.5427625583
30
0.0000000000
10
41.8318188450
20
-1.4892305053
30
0.0000000000
10
41.7873625223
20
-1.4500542036
30
0.0000000000
10
41.7513577427
20
-1.4361055899
30
0.0000000000
10
41.7337775702
20
-1.4329051920
30
0.0000000000
11
41.8880934937
21
-1.8199125216
31
0.0000000000
11
41.8971653008
21
-1.7605981372
31
0.0000000000
11
41.8982737886
21
-1.6784559284
31
0.0000000000
11
41.8864227076
21
-1.6054525466
31
0.0000000000
11
41.8630156863
21
-1.5421244014
31
0.0000000000
11
41.8290384045
21
-1.4903744316
31
0.0000000000
11
41.7839029676
21
-1.4519101826
31
0.0000000000
11
41.7337775702
21
-1.4329051920
31
0.0000000000
0
SPLINE
5
360
100
AcDbEntity
8
0
100
AcDbSpline
62
0
6
CONTINUOUS
70
0
71
3
72
10
73
6
74
4
42
0.0000001000
43
0.0000001000
44
0.0000000001
12
0.0342130635
22
-0.0248255242
32
0.0000000000
13
0.0314195043
23
-0.0282781738
33
0.0000000000
40
0.0000000000
40
0.0000000000
40
0.0000000000
40
0.0000000000
40
0.3359897284
40
0.6692410216
40
1.0000000000
40
1.0000000000
40
1.0000000000
40
1.0000000000
10
36.8383978297
20
-0.5814815156
30
0.0000000000
10
36.8422295757
20
-0.5842618893
30
0.0000000000
10
36.8497648011
20
-0.5899361387
30
0.0000000000
10
36.8606800658
20
-0.5988502124
30
0.0000000000
10
36.8677557016
20
-0.6049746030
30
0.0000000000
10
36.8712197959
20
-0.6080923563
30
0.0000000000
11
36.8383978297
21
-0.5814815156
31
0.0000000000
11
36.8497375914
21
-0.5900328079
31
0.0000000000
11
36.8606638933
21
-0.5989241537
31
0.0000000000
11
36.8712197959
21
-0.6080923563
31
0.0000000000
0
SPLINE
5
361
100
AcDbEntity
8
0
100
AcDbSpline
62
9
6
CONTINUOUS
70
0
71
3
72
9
73
5
74
3
42
0.0000001000
43
0.0000001000
44
0.0000000001
12
0.3982380303
22
1.7955840458
32
0.0000000000
13
-0.0683009802
23
1.8364338910
33
0.0000000000
40
0.0000000000
40
0.0000000000
40
0.0000000000
40
0.0000000000
40
0.4742772920
40
1.0000000000
40
1.0000000000
40
1.0000000000
40
1.0000000000
10
36.7054417274
20
-2.4346692592
30
0.0000000000
10
36.7684001456
20
-2.1508010130
30
0.0000000000
10
36.8648138749
20
-1.5444095058
30
0.0000000000
10
36.8831889214
20
-0.9299106890
30
0.0000000000
10
36.8712197959
20
-0.6080923563
30
0.0000000000
11
36.7054417274
21
-2.4346692592
31
0.0000000000
11
36.8422998911
21
-1.5737819194
31
0.0000000000
11
36.8712197959
21
-0.6080923563
31
0.0000000000
0
SPLINE
5
362
100
AcDbEntity
8
0
100
AcDbSpline
62
0
6
CONTINUOUS
70
0
71
3
72
10
73
6
74
4
42
0.0000001000
43
0.0000001000
44
0.0000000001
12
-0.0283291733
22
-0.1030077632
32
0.0000000000
13
-0.0317672949
23
-0.1019999035
33
0.0000000000
40
0.0000000000
40
0.0000000000
40
0.0000000000
40
0.0000000000
40
0.3395403354
40
0.6750434146
40
1.0000000000
40
1.0000000000
40
1.0000000000
40
1.0000000000
10
36.8683040786
20
-0.4789249206
30
0.0000000000
10
36.8650977796
20
-0.4905833507
30
0.0000000000
10
36.8586102848
20
-0.5137306805
30
0.0000000000
10
36.8486654402
20
-0.5479251970
30
0.0000000000
10
36.8418388269
20
-0.5704330021
30
0.0000000000
10
36.8383978297
20
-0.5814815156
30
0.0000000000
11
36.8683040786
21
-0.4789249206
31
0.0000000000
11
36.8585143811
21
-0.5138527883
31
0.0000000000
11
36.8484938659
21
-0.5482661418
31
0.0000000000
11
36.8383978297
21
-0.5814815156
31
0.0000000000
0
SPLINE
5
363
100
AcDbEntity
8
0
100
AcDbSpline
62
9
6
CONTINUOUS
70
0
71
3
72
13
73
9
74
7
42
0.0000001000
43
0.0000001000
44
0.0000000001
12
-0.5767450058
22
0.0597655647
32
0.0000000000
13
-0.3050140148
23
-0.4935399121
33
0.0000000000
40
0.0000000000
40
0.0000000000
40
0.0000000000
40
0.0000000000
40
0.1570725795
40
0.3124266547
40
0.4781213953
40
0.6609883094
40
0.8592347059
40
1.0000000000
40
1.0000000000
40
1.0000000000
40
1.0000000000
10
36.8683040786
20
-0.4789249206
30
0.0000000000
10
36.8381071367
20
-0.4757957435
30
0.0000000000
10
36.7769981473
20
-0.4766426798
30
0.0000000000
10
36.6869884847
20
-0.5011554416
30
0.0000000000
10
36.6007948948
20
-0.5481837999
30
0.0000000000
10
36.5197577100
20
-0.6169757546
30
0.0000000000
10
36.4545486347
20
-0.6944123403
30
0.0000000000
10
36.4179939611
20
-0.7488898926
30
0.0000000000
10
36.4036821653
20
-0.7720476562
30
0.0000000000
11
36.8683040786
21
-0.4789249206
31
0.0000000000
11
36.7772414665
21
-0.4804818860
31
0.0000000000
11
36.6902288977
21
-0.5037869226
31
0.0000000000
11
36.6055317332
21
-0.5491395510
31
0.0000000000
11
36.5240769772
21
-0.6170216491
31
0.0000000000
11
36.4493514587
21
-0.7043690613
31
0.0000000000
11
36.4036821653
21
-0.7720476562
31
0.0000000000
0
SPLINE
5
364
100
AcDbEntity
8
0
100
AcDbSpline
62
9
6
CONTINUOUS
70
0
71
3
72
8
73
4
74
2
42
0.0000001000
43
0.0000001000
44
0.0000000001
12
-0.0060252923
22
-0.0097494609
32
0.0000000000
13
-0.0059240154
23
-0.0098114559
33
0.0000000000
40
0.0000000000
40
0.0000000000
40
0.0000000000
40
0.0000000000
40
1.0000000000
40
1.0000000000
40
1.0000000000
40
1.0000000000
10
36.4036821653
20
-0.7720476562
30
0.0000000000
10
36.4016737345
20
-0.7752974765
30
0.0000000000
10
36.3996823688
20
-0.7785578813
30
0.0000000000
10
36.3977076970
20
-0.7818283666
30
0.0000000000
11
36.4036821653
21
-0.7720476562
31
0.0000000000
11
36.3977076970
21
-0.7818283666
31
0.0000000000
0
SPLINE
5
365
100
AcDbEntity
8
0
100
AcDbSpline
62
9
6
CONTINUOUS
70
0
71
3
72
10
73
6
74
4
42
0.0000001000
43
0.0000001000
44
0.0000000001
12
-0.3986272616
22
-1.7964815644
32
0.0000000000
13
0.0684118619
23
-1.8380456736
33
0.0000000000
40
0.0000000000
40
0.0000000000
40
0.0000000000
40
0.0000000000
40
0.2508907259
40
0.6412697047
40
1.0000000000
40
1.0000000000
40
1.0000000000
40
1.0000000000
10
22.6471803691
20
0.1838838619
30
0.0000000000
10
22.6138430748
20
0.0336436740
30
0.0000000000
10
22.5409501322
20
-0.3530666146
30
0.0000000000
10
22.4769664646
20
-0.9638278028
30
0.0000000000
10
22.4730072226
20
-1.4238394790
30
0.0000000000
10
22.4811876918
20
-1.6436270348
30
0.0000000000
11
22.6471803691
21
0.1838838619
31
0.0000000000
11
22.5616828358
21
-0.2697078882
31
0.0000000000
11
22.4868828300
21
-0.9838323902
31
0.0000000000
11
22.4811876918
21
-1.6436270348
31
0.0000000000
0
SPLINE
5
366
100
AcDbEntity
8
0
100
AcDbSpline
62
9
6
CONTINUOUS
70
0
71
3
72
12
73
8
74
6
42
0.0000001000
43
0.0000001000
44
0.0000000001
12
-0.3218414366
22
0.0919105644
32
0.0000000000
13
-0.1775480596
23
-0.2841292024
33
0.0000000000
40
0.0000000000
40
0.0000000000
40
0.0000000000
40
0.0000000000
40
0.1898356473
40
0.3742360466
40
0.5776745725
40
0.8179731491
40
1.0000000000
40
1.0000000000
40
1.0000000000
40
1.0000000000
10
36.8712197161
20
-0.6080920706
30
0.0000000000
10
36.8508540570
20
-0.6022761034
30
0.0000000000
10
36.8084357427
20
-0.5969541216
30
0.0000000000
10
36.7446001060
20
-0.6126221314
30
0.0000000000
10
36.6846946642
20
-0.6508726800
30
0.0000000000
10
36.6367093304
20
-0.7022973971
30
0.0000000000
10
36.6098428742
20
-0.7411155198
30
0.0000000000
10
36.5990700362
20
-0.7583552345
30
0.0000000000
11
36.8712197161
21
-0.6080920706
31
0.0000000000
11
36.8080933435
21
-0.6008580541
31
0.0000000000
11
36.7480308153
21
-0.6150667605
31
0.0000000000
11
36.6899529503
21
-0.6506132251
31
0.0000000000
11
36.6340275437
21
-0.7084173046
31
0.0000000000
11
36.5990700362
21
-0.7583552345
31
0.0000000000
0
SPLINE
5
367
100
AcDbEntity
8
0
100
AcDbSpline
62
9
6
CONTINUOUS
70
0
71
3
72
12
73
8
74
6
42
0.0000001000
43
0.0000001000
44
0.0000000001
12
-0.2204033030
22
-0.3527102174
32
0.0000000000
13
-0.1026220296
23
-0.4026686986
33
0.0000000000
40
0.0000000000
40
0.0000000000
40
0.0000000000
40
0.0000000000
40
0.0784612657
40
0.3339717116
40
0.6207739187
40
0.9401748916
40
1.0000000000
40
1.0000000000
40
1.0000000000
40
1.0000000000
10
36.5990700362
20
-0.7583552345
30
0.0000000000
10
36.5933056621
20
-0.7675799312
30
0.0000000000
10
36.5697528746
20
-0.8074649422
30
0.0000000000
10
36.5326278029
20
-0.8851899836
30
0.0000000000
10
36.4912216932
20
-0.9972540080
30
0.0000000000
10
36.4652964212
20
-1.0858388162
30
0.0000000000
10
36.4520894566
20
-1.1366803992
30
0.0000000000
10
36.4500429986
20
-1.1447102987
30
0.0000000000
11
36.5990700362
21
-0.7583552345
31
0.0000000000
11
36.5824365492
21
-0.7864271616
31
0.0000000000
11
36.5359141328
21
-0.8818548467
31
0.0000000000
11
36.4940263578
21
-0.9934158014
31
0.0000000000
11
36.4562950929
21
-1.1206493154
31
0.0000000000
11
36.4500429986
21
-1.1447102987
31
0.0000000000
0
SPLINE
5
368
100
AcDbEntity
8
0
100
AcDbSpline
62
9
6
CONTINUOUS
70
0
71
3
72
8
73
4
74
2
42
0.0000001000
43
0.0000001000
44
0.0000000001
12
-0.0055529324
22
-0.0217886166
32
0.0000000000
13
-0.0053749397
23
-0.0218329839
33
0.0000000000
40
0.0000000000
40
0.0000000000
40
0.0000000000
40
0.0000000000
40
1.0000000000
40
1.0000000000
40
1.0000000000
40
1.0000000000
10
36.4500429986
20
-1.1447102987
30
0.0000000000
10
36.4481920212
20
-1.1519731709
30
0.0000000000
10
36.4463713267
20
-1.1592436885
30
0.0000000000
10
36.4445796801
20
-1.1665213498
30
0.0000000000
11
36.4500429986
21
-1.1447102987
31
0.0000000000
11
36.4445796801
21
-1.1665213498
31
0.0000000000
0
SPLINE
5
369
100
AcDbEntity
8
0
100
AcDbSpline
62
9
6
CONTINUOUS
70
0
71
3
72
9
73
5
74
3
42
0.0000001000
43
0.0000001000
44
0.0000000001
12
-0.0612482473
22
-0.2487901384
32
0.0000000000
13
-0.0432558860
23
-0.2525331700
33
0.0000000000
40
0.0000000000
40
0.0000000000
40
0.0000000000
40
0.0000000000
40
0.3882591486
40
1.0000000000
40
1.0000000000
40
1.0000000000
40
1.0000000000
10
36.4445796801
20
-1.1665213498
30
0.0000000000
10
36.4366529493
20
-1.1987196989
30
0.0000000000
10
36.4177013250
20
-1.2820098914
30
0.0000000000
10
36.4018120427
20
-1.3659393424
30
0.0000000000
10
36.3929915785
20
-1.4174342945
30
0.0000000000
11
36.4445796801
21
-1.1665213498
31
0.0000000000
11
36.4223982996
21
-1.2634924225
31
0.0000000000
11
36.3929915785
21
-1.4174342945
31
0.0000000000
0
SPLINE
5
36A
100
AcDbEntity
8
0
100
AcDbSpline
62
0
6
CONTINUOUS
70
0
71
3
72
10
73
6
74
4
42
0.0000001000
43
0.0000001000
44
0.0000000001
12
0.5846651201
22
0.0000000000
32
0.0000000000
13
0.4872214831
23
0.3231849766
33
0.0000000000
40
0.0000000000
40
0.0000000000
40
0.0000000000
40
0.0000000000
40
0.3319973913
40
0.6679012440
40
1.0000000000
40
1.0000000000
40
1.0000000000
40
1.0000000000
10
44.6010620473
20
-24.6258596823
30
0.0000000000
10
44.6657644789
20
-24.6258596823
30
0.0000000000
10
44.7962931376
20
-24.6131388666
30
0.0000000000
10
44.9839863680
20
-24.5565535357
30
0.0000000000
10
45.0998120228
20
-24.4949957827
30
0.0000000000
10
45.1537472389
20
-24.4592193398
30
0.0000000000
11
44.6010620473
21
-24.6258596823
31
0.0000000000
11
44.7942527341
21
-24.6070182282
31
0.0000000000
11
44.9822847926
21
-24.5503307120
31
0.0000000000
11
45.1537472389
21
-24.4592193398
31
0.0000000000
0
SPLINE
5
36B
100
AcDbEntity
8
0
100
AcDbSpline
62
0
6
CONTINUOUS
70
0
71
3
72
10
73
6
74
4
42
0.0000001000
43
0.0000001000
44
0.0000000001
12
0.4872214831
22
-0.3231849766
32
0.0000000000
13
0.5846651201
23
0.0000000000
33
0.0000000000
40
0.0000000000
40
0.0000000000
40
0.0000000000
40
0.0000000000
40
0.3320987560
40
0.6680026087
40
1.0000000000
40
1.0000000000
40
1.0000000000
40
1.0000000000
10
36.6986618994
20
-24.4592193398
30
0.0000000000
10
36.7525971155
20
-24.4949957827
30
0.0000000000
10
36.8684227703
20
-24.5565535357
30
0.0000000000
10
37.0561160007
20
-24.6131388666
30
0.0000000000
10
37.1866446594
20
-24.6258596823
30
0.0000000000
10
37.2513470910
20
-24.6258596823
30
0.0000000000
11
36.6986618994
21
-24.4592193398
31
0.0000000000
11
36.8701243457
21
-24.5503307120
31
0.0000000000
11
37.0581564042
21
-24.6070182282
31
0.0000000000
11
37.2513470910
21
-24.6258596823
31
0.0000000000
0
SPLINE
5
36C
100
AcDbEntity
8
0
100
AcDbSpline
62
0
6
CONTINUOUS
70
0
71
3
72
10
73
6
74
4
42
0.0000001000
43
0.0000001000
44
0.0000000001
12
0.5846651201
22
0.0000000000
32
0.0000000000
13
0.4872214831
23
0.3231849766
33
0.0000000000
40
0.0000000000
40
0.0000000000
40
0.0000000000
40
0.0000000000
40
0.3319973913
40
0.6679012440
40
1.0000000000
40
1.0000000000
40
1.0000000000
40
1.0000000000
10
22.1010620473
20
-24.6258596823
30
0.0000000000
10
22.1657644789
20
-24.6258596823
30
0.0000000000
10
22.2962931376
20
-24.6131388666
30
0.0000000000
10
22.4839863680
20
-24.5565535357
30
0.0000000000
10
22.5998120228
20
-24.4949957827
30
0.0000000000
10
22.6537472389
20
-24.4592193398
30
0.0000000000
11
22.1010620473
21
-24.6258596823
31
0.0000000000
11
22.2942527341
21
-24.6070182282
31
0.0000000000
11
22.4822847926
21
-24.5503307120
31
0.0000000000
11
22.6537472389
21
-24.4592193398
31
0.0000000000
0
SPLINE
5
36D
100
AcDbEntity
8
0
100
AcDbSpline
62
0
6
CONTINUOUS
70
0
71
3
72
10
73
6
74
4
42
0.0000001000
43
0.0000001000
44
0.0000000001
12
0.4872214831
22
-0.3231849766
32
0.0000000000
13
0.5846651201
23
-0.0000000000
33
0.0000000000
40
0.0000000000
40
0.0000000000
40
0.0000000000
40
0.0000000000
40
0.3320987560
40
0.6680026087
40
1.0000000000
40
1.0000000000
40
1.0000000000
40
1.0000000000
10
14.1986618994
20
-24.4592193398
30
0.0000000000
10
14.2525971155
20
-24.4949957827
30
0.0000000000
10
14.3684227703
20
-24.5565535357
30
0.0000000000
10
14.5561160007
20
-24.6131388666
30
0.0000000000
10
14.6866446594
20
-24.6258596823
30
0.0000000000
10
14.7513470910
20
-24.6258596823
30
0.0000000000
11
14.1986618994
21
-24.4592193398
31
0.0000000000
11
14.3701243457
21
-24.5503307120
31
0.0000000000
11
14.5581564042
21
-24.6070182282
31
0.0000000000
11
14.7513470910
21
-24.6258596823
31
0.0000000000
0
SPLINE
5
36E
100
AcDbEntity
8
0
100
AcDbSpline
62
0
6
CONTINUOUS
70
0
71
3
72
10
73
6
74
4
42
0.0000001000
43
0.0000001000
44
0.0000000001
12
0.5846651201
22
0.0000000000
32
0.0000000000
13
0.4872214831
23
-0.3231849766
33
0.0000000000
40
0.0000000000
40
0.0000000000
40
0.0000000000
40
0.0000000000
40
0.3319973913
40
0.6679012440
40
1.0000000000
40
1.0000000000
40
1.0000000000
40
1.0000000000
10
44.6010620473
20
22.3741403177
30
0.0000000000
10
44.6657644789
20
22.3741403177
30
0.0000000000
10
44.7962931376
20
22.3614195020
30
0.0000000000
10
44.9839863680
20
22.3048341712
30
0.0000000000
10
45.0998120228
20
22.2432764181
30
0.0000000000
10
45.1537472389
20
22.2074999752
30
0.0000000000
11
44.6010620473
21
22.3741403177
31
0.0000000000
11
44.7942527341
21
22.3552988636
31
0.0000000000
11
44.9822847926
21
22.2986113474
31
0.0000000000
11
45.1537472389
21
22.2074999752
31
0.0000000000
0
SPLINE
5
36F
100
AcDbEntity
8
0
100
AcDbSpline
62
0
6
CONTINUOUS
70
0
71
3
72
10
73
6
74
4
42
0.0000001000
43
0.0000001000
44
0.0000000001
12
0.4872214831
22
0.3231849766
32
0.0000000000
13
0.5846651201
23
-0.0000000000
33
0.0000000000
40
0.0000000000
40
0.0000000000
40
0.0000000000
40
0.0000000000
40
0.3320987560
40
0.6680026087
40
1.0000000000
40
1.0000000000
40
1.0000000000
40
1.0000000000
10
36.6986618994
20
22.2074999752
30
0.0000000000
10
36.7525971155
20
22.2432764181
30
0.0000000000
10
36.8684227703
20
22.3048341712
30
0.0000000000
10
37.0561160007
20
22.3614195020
30
0.0000000000
10
37.1866446594
20
22.3741403177
30
0.0000000000
10
37.2513470910
20
22.3741403177
30
0.0000000000
11
36.6986618994
21
22.2074999752
31
0.0000000000
11
36.8701243457
21
22.2986113474
31
0.0000000000
11
37.0581564042
21
22.3552988636
31
0.0000000000
11
37.2513470910
21
22.3741403177
31
0.0000000000
0
SPLINE
5
370
100
AcDbEntity
8
0
100
AcDbSpline
62
0
6
CONTINUOUS
70
0
71
3
72
10
73
6
74
4
42
0.0000001000
43
0.0000001000
44
0.0000000001
12
0.5846651201
22
0.0000000000
32
0.0000000000
13
0.4872214831
23
-0.3231849766
33
0.0000000000
40
0.0000000000
40
0.0000000000
40
0.0000000000
40
0.0000000000
40
0.3319973913
40
0.6679012440
40
1.0000000000
40
1.0000000000
40
1.0000000000
40
1.0000000000
10
22.1010620473
20
22.3741403177
30
0.0000000000
10
22.1657644789
20
22.3741403177
30
0.0000000000
10
22.2962931376
20
22.3614195020
30
0.0000000000
10
22.4839863680
20
22.3048341712
30
0.0000000000
10
22.5998120228
20
22.2432764181
30
0.0000000000
10
22.6537472389
20
22.2074999752
30
0.0000000000
11
22.1010620473
21
22.3741403177
31
0.0000000000
11
22.2942527341
21
22.3552988636
31
0.0000000000
11
22.4822847926
21
22.2986113474
31
0.0000000000
11
22.6537472389
21
22.2074999752
31
0.0000000000
0
SPLINE
5
371
100
AcDbEntity
8
0
100
AcDbSpline
62
0
6
CONTINUOUS
70
0
71
3
72
10
73
6
74
4
42
0.0000001000
43
0.0000001000
44
0.0000000001
12
0.4872214831
22
0.3231849766
32
0.0000000000
13
0.5846651201
23
0.0000000000
33
0.0000000000
40
0.0000000000
40
0.0000000000
40
0.0000000000
40
0.0000000000
40
0.3320987560
40
0.6680026087
40
1.0000000000
40
1.0000000000
40
1.0000000000
40
1.0000000000
10
14.1986618994
20
22.2074999752
30
0.0000000000
10
14.2525971155
20
22.2432764181
30
0.0000000000
10
14.3684227703
20
22.3048341712
30
0.0000000000
10
14.5561160007
20
22.3614195020
30
0.0000000000
10
14.6866446594
20
22.3741403177
30
0.0000000000
10
14.7513470910
20
22.3741403177
30
0.0000000000
11
14.1986618994
21
22.2074999752
31
0.0000000000
11
14.3701243457
21
22.2986113474
31
0.0000000000
11
14.5581564042
21
22.3552988636
31
0.0000000000
11
14.7513470910
21
22.3741403177
31
0.0000000000
0
SPLINE
5
372
100
AcDbEntity
8
0
100
AcDbSpline
62
0
6
CONTINUOUS
70
0
71
3
72
15
73
11
74
9
42
0.0000001000
43
0.0000001000
44
0.0000000001
12
0.0000000000
22
-0.7840504605
32
0.0000000000
13
-0.7840504605
23
0.0000000000
33
0.0000000000
40
0.0000000000
40
0.0000000000
40
0.0000000000
40
0.0000000000
40
0.1250036937
40
0.2500007026
40
0.3749978065
40
0.4999939082
40
0.6249948383
40
0.7499966729
40
0.8749989499
40
1.0000000000
40
1.0000000000
40
1.0000000000
40
1.0000000000
10
52.0762045692
20
-23.0256308302
30
0.0000000000
10
52.0762045692
20
-23.0583005648
30
0.0000000000
10
52.0697766167
20
-23.1238186405
30
0.0000000000
10
52.0412073587
20
-23.2181953311
30
0.0000000000
10
51.9947907065
20
-23.3052336904
30
0.0000000000
10
51.9322900359
20
-23.3815396179
30
0.0000000000
10
51.8560981999
20
-23.4441828153
30
0.0000000000
10
51.7691266552
20
-23.4907385813
30
0.0000000000
10
51.6747742301
20
-23.5194076357
30
0.0000000000
10
51.6092542125
20
-23.5258596823
30
0.0000000000
10
51.5765851689
20
-23.5258596823
30
0.0000000000
11
52.0762045692
21
-23.0256308302
31
0.0000000000
11
52.0666216800
21
-23.1231704234
31
0.0000000000
11
52.0382326985
21
-23.2169725682
31
0.0000000000
11
51.9921100030
21
-23.3034450390
31
0.0000000000
11
51.9300092195
21
-23.3792614614
31
0.0000000000
11
51.8543019919
21
-23.4415012795
31
0.0000000000
11
51.7678966168
21
-23.4877574079
31
0.0000000000
11
51.6741193076
21
-23.5162425365
31
0.0000000000
11
51.5765851689
21
-23.5258596823
31
0.0000000000
0
SPLINE
5
373
100
AcDbEntity
8
0
100
AcDbSpline
62
0
6
CONTINUOUS
70
0
71
3
72
15
73
11
74
9
42
0.0000001000
43
0.0000001000
44
0.0000000001
12
0.7840504604
22
0.0000000000
32
0.0000000000
13
-0.0000000000
23
-0.7840504604
33
0.0000000000
40
0.0000000000
40
0.0000000000
40
0.0000000000
40
0.0000000000
40
0.1250024959
40
0.2500079087
40
0.3750129683
40
0.5000152546
40
0.6250099998
40
0.7500038789
40
0.8749977521
40
1.0000000000
40
1.0000000000
40
1.0000000000
40
1.0000000000
10
51.5765851689
20
21.2741403177
30
0.0000000000
10
51.6092545904
20
21.2741403177
30
0.0000000000
10
51.6747758116
20
21.2676880778
30
0.0000000000
10
51.7691300955
20
21.2390179687
30
0.0000000000
10
51.8561030046
20
21.1924603782
30
0.0000000000
10
51.9322946677
20
21.1298156126
30
0.0000000000
10
51.9947937705
20
21.0535095160
30
0.0000000000
10
52.0412086025
20
20.9664725249
30
0.0000000000
10
52.0697768093
20
20.8720976946
30
0.0000000000
10
52.0762045692
20
20.8065808223
30
0.0000000000
10
52.0762045692
20
20.7739114656
30
0.0000000000
11
51.5765851689
21
21.2741403177
31
0.0000000000
11
51.6741204248
21
21.2645229495
31
0.0000000000
11
51.7678999509
21
21.2360366602
31
0.0000000000
11
51.8543071032
21
21.1897784940
31
0.0000000000
11
51.9300143192
21
21.1275369875
31
0.0000000000
11
51.9921134150
21
21.0517205575
31
0.0000000000
11
52.0382340772
21
20.9652498678
31
0.0000000000
11
52.0666219017
21
20.8714499415
31
0.0000000000
11
52.0762045692
21
20.7739114656
31
0.0000000000
0
SPLINE
5
374
100
AcDbEntity
8
0
100
AcDbSpline
62
0
6
CONTINUOUS
70
0
71
3
72
15
73
11
74
9
42
0.0000001000
43
0.0000001000
44
0.0000000001
12
-0.7840504604
22
0.0000000000
32
0.0000000000
13
-0.0000000000
23
0.7840504604
33
0.0000000000
40
0.0000000000
40
0.0000000000
40
0.0000000000
40
0.0000000000
40
0.1250024959
40
0.2500079087
40
0.3750129683
40
0.5000152546
40
0.6250099998
40
0.7500038789
40
0.8749977521
40
1.0000000000
40
1.0000000000
40
1.0000000000
40
1.0000000000
10
7.7758239694
20
-23.5258596823
30
0.0000000000
10
7.7431545479
20
-23.5258596823
30
0.0000000000
10
7.6776333268
20
-23.5194074424
30
0.0000000000
10
7.5832790428
20
-23.4907373333
30
0.0000000000
10
7.4963061337
20
-23.4441797428
30
0.0000000000
10
7.4201144706
20
-23.3815349772
30
0.0000000000
10
7.3576153679
20
-23.3052288806
30
0.0000000000
10
7.3112005358
20
-23.2181918895
30
0.0000000000
10
7.2826323291
20
-23.1238170591
30
0.0000000000
10
7.2762045692
20
-23.0583001869
30
0.0000000000
10
7.2762045692
20
-23.0256308302
30
0.0000000000
11
7.7758239694
21
-23.5258596823
31
0.0000000000
11
7.6782887136
21
-23.5162423141
31
0.0000000000
11
7.5845091875
21
-23.4877560248
31
0.0000000000
11
7.4981020352
21
-23.4414978586
31
0.0000000000
11
7.4223948191
21
-23.3792563521
31
0.0000000000
11
7.3602957233
21
-23.3034399221
31
0.0000000000
11
7.3141750611
21
-23.2169692324
31
0.0000000000
11
7.2857872367
21
-23.1231693061
31
0.0000000000
11
7.2762045692
21
-23.0256308302
31
0.0000000000
0
SPLINE
5
375
100
AcDbEntity
8
0
100
AcDbSpline
62
0
6
CONTINUOUS
70
0
71
3
72
15
73
11
74
9
42
0.0000001000
43
0.0000001000
44
0.0000000001
12
0.0000000000
22
0.7840504605
32
0.0000000000
13
0.7840504605
23
-0.0000000000
33
0.0000000000
40
0.0000000000
40
0.0000000000
40
0.0000000000
40
0.0000000000
40
0.1250036937
40
0.2500007026
40
0.3749978065
40
0.4999939082
40
0.6249948383
40
0.7499966729
40
0.8749989499
40
1.0000000000
40
1.0000000000
40
1.0000000000
40
1.0000000000
10
7.2762045692
20
20.7739114656
30
0.0000000000
10
7.2762045692
20
20.8065812002
30
0.0000000000
10
7.2826325217
20
20.8720992760
30
0.0000000000
10
7.3112017796
20
20.9664759665
30
0.0000000000
10
7.3576184318
20
21.0535143258
30
0.0000000000
10
7.4201191024
20
21.1298202533
30
0.0000000000
10
7.4963109385
20
21.1924634507
30
0.0000000000
10
7.5832824831
20
21.2390192167
30
0.0000000000
10
7.6776349082
20
21.2676882711
30
0.0000000000
10
7.7431549258
20
21.2741403177
30
0.0000000000
10
7.7758239694
20
21.2741403177
30
0.0000000000
11
7.2762045692
21
20.7739114656
31
0.0000000000
11
7.2857874583
21
20.8714510588
31
0.0000000000
11
7.3141764398
21
20.9652532036
31
0.0000000000
11
7.3602991353
21
21.0517256744
31
0.0000000000
11
7.4223999188
21
21.1275420968
31
0.0000000000
11
7.4981071464
21
21.1897819149
31
0.0000000000
11
7.5845125216
21
21.2360380433
31
0.0000000000
11
7.6782898307
21
21.2645231719
31
0.0000000000
11
7.7758239694
21
21.2741403177
31
0.0000000000
0
SPLINE
5
376
100
AcDbEntity
8
0
100
AcDbSpline
62
9
6
CONTINUOUS
70
0
71
3
72
18
73
14
74
12
42
0.0000001000
43
0.0000001000
44
0.0000000001
12
-0.0238777378
22
-62.4868237036
32
0.0000000000
13
-0.0210878161
23
62.4868247074
33
0.0000000000
40
0.0000000000
40
0.0000000000
40
0.0000000000
40
0.0000000000
40
0.0908562853
40
0.1818387126
40
0.2727951046
40
0.3637122007
40
0.4545707260
40
0.5454037913
40
0.6362654765
40
0.7271866315
40
0.8181442693
40
0.9091301382
40
1.0000000000
40
1.0000000000
40
1.0000000000
40
1.0000000000
10
49.6276336682
20
-1.1258596823
30
0.0000000000
10
49.6269105206
20
-3.0182999091
30
0.0000000000
10
49.0826369256
20
-6.8278730365
30
0.0000000000
10
46.6914953711
20
-12.0643907651
30
0.0000000000
10
42.9206244760
20
-16.4208705366
30
0.0000000000
10
38.0768813427
20
-19.5350296459
30
0.0000000000
10
32.5543396464
20
-21.1573916762
30
0.0000000000
10
26.7996060055
20
-21.1576213564
30
0.0000000000
10
21.2767809316
20
-19.5356482664
30
0.0000000000
10
16.4327070524
20
-16.4216768188
30
0.0000000000
10
12.6613969776
20
-12.0653099866
30
0.0000000000
10
10.2699883757
20
-6.8285068948
30
0.0000000000
10
9.7254142192
20
-3.0185827239
30
0.0000000000
10
9.7247754702
20
-1.1258596823
30
0.0000000000
11
49.6276336682
21
-1.1258596823
31
0.0000000000
11
48.8209773318
21
-6.7455821283
31
0.0000000000
11
46.4612912345
21
-11.9179527863
31
0.0000000000
11
42.7408551917
21
-16.2146255547
31
0.0000000000
11
37.9622470158
21
-19.2870902660
31
0.0000000000
11
32.5149294994
21
-20.8871827686
31
0.0000000000
11
26.8390593530
21
-20.8874125112
31
0.0000000000
11
21.3914296898
21
-19.2876821236
31
0.0000000000
11
16.6124142101
21
-16.2153819439
31
0.0000000000
11
12.8916670845
21
-11.9188755804
31
0.0000000000
11
10.5316874100
21
-6.7464024857
31
0.0000000000
11
9.7247754702
21
-1.1258596823
31
0.0000000000
0
SPLINE
5
377
100
AcDbEntity
8
0
100
AcDbSpline
62
9
6
CONTINUOUS
70
0
71
3
72
18
73
14
74
12
42
0.0000001000
43
0.0000001000
44
0.0000000001
12
0.0238787870
22
62.4868237140
32
0.0000000000
13
0.0210886226
23
-62.4868247179
33
0.0000000000
40
0.0000000000
40
0.0000000000
40
0.0000000000
40
0.0000000000
40
0.0908574402
40
0.1818400197
40
0.2727958720
40
0.3637125329
40
0.4545705722
40
0.5454030350
40
0.6362643114
40
0.7271849843
40
0.8181431330
40
0.9091285055
40
1.0000000000
40
1.0000000000
40
1.0000000000
40
1.0000000000
10
9.7247754702
20
-1.1258596823
30
0.0000000000
10
9.7254986587
20
0.7666046007
30
0.0000000000
10
10.2697832877
20
4.5762057895
30
0.0000000000
10
12.6609521896
20
9.8127290069
30
0.0000000000
10
16.4318253444
20
14.1691825081
30
0.0000000000
10
21.2755473325
20
17.2833161326
30
0.0000000000
10
26.7980578307
20
18.9056672739
30
0.0000000000
10
32.5527587635
20
18.9059052705
30
0.0000000000
10
38.0755579004
20
17.2839580010
30
0.0000000000
10
42.9196380840
20
14.1700131254
30
0.0000000000
10
46.6909616116
20
9.8136693161
30
0.0000000000
10
49.0824071157
20
4.5768464453
30
0.0000000000
10
49.6269948833
20
0.7668973671
30
0.0000000000
10
49.6276336682
20
-1.1258596823
30
0.0000000000
11
9.7247754702
21
-1.1258596823
31
0.0000000000
11
10.5314523098
21
4.4939327290
31
0.0000000000
11
12.8911624862
21
9.6663028563
31
0.0000000000
11
16.6115905482
21
13.9629379229
31
0.0000000000
11
21.3901811946
21
17.0353796149
31
0.0000000000
11
26.8374700258
21
18.6354620218
31
0.0000000000
11
32.5133025298
21
18.6356999394
31
0.0000000000
11
37.9609125462
21
17.0359933166
31
0.0000000000
11
42.7399163551
21
13.9637306980
31
0.0000000000
11
46.4607032860
21
9.6672165686
31
0.0000000000
11
48.8206927432
21
4.4947820291
31
0.0000000000
11
49.6276336682
21
-1.1258596823
31
0.0000000000
0
SPLINE
5
378
100
AcDbEntity
8
0
100
AcDbSpline
62
9
6
CONTINUOUS
70
0
71
3
72
18
73
14
74
12
42
0.0000001000
43
0.0000001000
44
0.0000000001
12
-0.0116812426
22
-60.8903473685
32
0.0000000000
13
-0.0103151056
23
60.8903476153
33
0.0000000000
40
0.0000000000
40
0.0000000000
40
0.0000000000
40
0.0000000000
40
0.0909023331
40
0.1818433470
40
0.2727796116
40
0.3636995795
40
0.4545781271
40
0.5454362558
40
0.6363143006
40
0.7272343145
40
0.8181678498
40
0.9091084859
40
1.0000000000
40
1.0000000000
40
1.0000000000
40
1.0000000000
10
49.1277098206
20
-1.1258596823
30
0.0000000000
10
49.1273558698
20
-2.9708845621
30
0.0000000000
10
48.5951665169
20
-6.6832710873
30
0.0000000000
10
46.2622314983
20
-11.7843042639
30
0.0000000000
10
42.5850158573
20
-16.0256411656
30
0.0000000000
10
37.8630652573
20
-19.0570525958
30
0.0000000000
10
32.4801472260
20
-20.6359058644
30
0.0000000000
10
26.8713845330
20
-20.6357782315
30
0.0000000000
10
21.4885466209
20
-19.0566875754
30
0.0000000000
10
16.7667858156
20
-16.0251032378
30
0.0000000000
10
13.0897768923
20
-11.7836725473
30
0.0000000000
10
10.7571629933
20
-6.6828164080
30
0.0000000000
10
10.2250118363
20
-2.9706649785
30
0.0000000000
10
10.2246993178
20
-1.1258596823
30
0.0000000000
11
49.1277098206
21
-1.1258596823
31
0.0000000000
11
48.3396341488
21
-6.6045446637
31
0.0000000000
11
46.0381422141
21
-11.6410381032
31
0.0000000000
11
42.4104704409
21
-15.8243294200
31
0.0000000000
11
37.7518944625
21
-18.8154179209
31
0.0000000000
11
32.4419582421
21
-20.3728513206
31
0.0000000000
11
26.9095751240
21
-20.3727255233
31
0.0000000000
11
21.5997378730
21
-18.8150634764
31
0.0000000000
11
16.9412910525
21
-15.8237686395
31
0.0000000000
11
13.3138943483
21
-11.6404587735
31
0.0000000000
11
11.0125874009
21
-6.6039060928
31
0.0000000000
11
10.2246993178
21
-1.1258596823
31
0.0000000000
0
SPLINE
5
379
100
AcDbEntity
8
0
100
AcDbSpline
62
9
6
CONTINUOUS
70
0
71
3
72
12
73
8
74
6
42
0.0000001000
43
0.0000001000
44
0.0000000001
12
-0.1576774712
22
0.9435927454
32
0.0000000000
13
-0.0003539836
23
0.9566761881
33
0.0000000000
40
0.0000000000
40
0.0000000000
40
0.0000000000
40
0.0000000000
40
0.0611681961
40
0.2073534027
40
0.4258979096
40
0.6979541170
40
1.0000000000
40
1.0000000000
40
1.0000000000
40
1.0000000000
10
51.4350026859
20
-23.1007668195
30
0.0000000000
10
51.4317877371
20
-23.0815275308
30
0.0000000000
10
51.4335819845
20
-23.0149474334
30
0.0000000000
10
51.4287611481
20
-22.8795356907
30
0.0000000000
10
51.4285826435
20
-22.6762824328
30
0.0000000000
10
51.4269254563
20
-22.4235896900
30
0.0000000000
10
51.4267752715
20
-22.2404939479
30
0.0000000000
10
51.4267396317
20
-22.1441739132
30
0.0000000000
11
51.4350026859
21
-23.1007668195
31
0.0000000000
11
51.4324859381
21
-23.0423028040
31
0.0000000000
11
51.4302269875
21
-22.9024691331
31
0.0000000000
11
51.4284213971
21
-22.6934005898
31
0.0000000000
11
51.4272239678
21
-22.4331336311
31
0.0000000000
11
51.4267396317
21
-22.1441739132
31
0.0000000000
0
SPLINE
5
37A
100
AcDbEntity
8
0
100
AcDbSpline
62
9
6
CONTINUOUS
70
0
71
3
72
12
73
8
74
6
42
0.0000001000
43
0.0000001000
44
0.0000000001
12
-0.1513051382
22
0.4539093204
32
0.0000000000
13
-0.0003517924
23
0.4784629476
33
0.0000000000
40
0.0000000000
40
0.0000000000
40
0.0000000000
40
0.0000000000
40
0.0610106859
40
0.2073905423
40
0.4263824265
40
0.6990486358
40
1.0000000000
40
1.0000000000
40
1.0000000000
40
1.0000000000
10
51.9349265335
20
-22.6014520521
30
0.0000000000
10
51.9318494567
20
-22.5922209458
30
0.0000000000
10
51.9333666797
20
-22.5583019823
30
0.0000000000
10
51.9287612724
20
-22.4910504779
30
0.0000000000
10
51.9284731596
20
-22.3889440379
30
0.0000000000
10
51.9268597547
20
-22.2626739193
30
0.0000000000
10
51.9266987701
20
-22.1711536246
30
0.0000000000
10
51.9266634793
20
-22.1231555990
30
0.0000000000
11
51.9349265335
21
-22.6014520521
31
0.0000000000
11
51.9324169707
21
-22.5723687644
31
0.0000000000
11
51.9301525088
21
-22.5023680251
31
0.0000000000
11
51.9283428898
21
-22.3976041222
31
0.0000000000
11
51.9271447860
21
-22.2671489103
31
0.0000000000
11
51.9266634793
21
-22.1231555990
31
0.0000000000
0
SPLINE
5
37B
100
AcDbEntity
8
0
100
AcDbSpline
62
9
6
CONTINUOUS
70
0
71
3
72
18
73
14
74
12
42
0.0000001000
43
0.0000001000
44
0.0000000001
12
0.0116817556
22
60.8903473665
32
0.0000000000
13
0.0103155000
23
-60.8903476133
33
0.0000000000
40
0.0000000000
40
0.0000000000
40
0.0000000000
40
0.0000000000
40
0.0909034895
40
0.1818446526
40
0.2727803772
40
0.3636999106
40
0.4545779725
40
0.5454354994
40
0.6363131363
40
0.7272326684
40
0.8181667153
40
0.9091068541
40
1.0000000000
40
1.0000000000
40
1.0000000000
40
1.0000000000
10
10.2246993178
20
-1.1258596823
30
0.0000000000
10
10.2250532885
20
0.7191886684
30
0.0000000000
10
10.7572534586
20
4.4316025074
30
0.0000000000
10
13.0902151133
20
9.5326409673
30
0.0000000000
10
16.7674328766
20
13.7739522483
30
0.0000000000
10
21.4893628522
20
16.8053388956
30
0.0000000000
10
26.8722505090
20
18.3841815948
30
0.0000000000
10
32.4809813717
20
18.3840620639
30
0.0000000000
10
37.8637940367
20
16.8049965255
30
0.0000000000
10
42.5855609713
20
13.7734380223
30
0.0000000000
10
46.2625829984
20
9.5320297776
30
0.0000000000
10
48.5952328008
20
4.4311543907
30
0.0000000000
10
49.1273972845
20
0.7189787341
30
0.0000000000
10
49.1277098206
20
-1.1258596823
30
0.0000000000
11
10.2246993178
21
-1.1258596823
31
0.0000000000
11
11.0127950399
21
4.3528935526
31
0.0000000000
11
13.3143103687
21
9.3893862908
31
0.0000000000
11
16.9419743034
21
13.5726408811
31
0.0000000000
11
21.6005332044
21
16.5637070089
31
0.0000000000
11
26.9104414866
21
18.1211306048
31
0.0000000000
11
32.4427879610
21
18.1210127738
31
0.0000000000
11
37.7526061028
21
16.5633738421
31
0.0000000000
11
42.4110415321
21
13.5721155566
31
0.0000000000
11
46.0384770418
21
9.3887981087
31
0.0000000000
11
48.3397934473
21
4.3522830424
31
0.0000000000
11
49.1277098206
21
-1.1258596823
31
0.0000000000
0
SPLINE
5
37C
100
AcDbEntity
8
0
100
AcDbSpline
62
9
6
CONTINUOUS
70
0
71
3
72
11
73
7
74
5
42
0.0000001000
43
0.0000001000
44
0.0000000001
12
0.7795522246
22
0.0007111487
32
0.0000000000
13
0.0007128965
23
0.7795522230
33
0.0000000000
40
0.0000000000
40
0.0000000000
40
0.0000000000
40
0.0000000000
40
0.2501172078
40
0.5002097125
40
0.7501801225
40
1.0000000000
40
1.0000000000
40
1.0000000000
40
1.0000000000
10
51.4350026859
20
-23.1007668195
30
0.0000000000
10
51.4999958278
20
-23.1007075293
30
0.0000000000
10
51.6313673101
20
-23.0746328320
30
0.0000000000
10
51.7974468124
20
-22.9635126751
30
0.0000000000
10
51.9087414200
20
-22.7976335645
30
0.0000000000
10
51.9348671682
20
-22.6663679324
30
0.0000000000
10
51.9349265335
20
-22.6014520521
30
0.0000000000
11
51.4350026859
21
-23.1007668195
31
0.0000000000
11
51.6262152957
21
-23.0626256876
31
0.0000000000
11
51.7883469691
21
-22.9543537182
31
0.0000000000
11
51.8967437417
21
-22.7924199808
31
0.0000000000
11
51.9349265335
21
-22.6014520521
31
0.0000000000
0
SPLINE
5
37D
100
AcDbEntity
8
0
100
AcDbSpline
62
9
6
CONTINUOUS
70
0
71
3
72
10
73
6
74
4
42
0.0000001000
43
0.0000001000
44
0.0000000001
12
-0.0308408174
22
41.9945838615
32
0.0000000000
13
0.0308408152
23
41.9945838615
33
0.0000000000
40
0.0000000000
40
0.0000000000
40
0.0000000000
40
0.0000000000
40
0.3332892780
40
0.6667108413
40
1.0000000000
40
1.0000000000
40
1.0000000000
40
1.0000000000
10
51.9266634793
20
-22.1231555990
30
0.0000000000
10
51.9232371747
20
-17.4577074208
30
0.0000000000
10
51.9186711332
20
-8.1249574609
30
0.0000000000
10
51.9186711341
20
5.8732414367
30
0.0000000000
10
51.9232371762
20
15.2059897264
30
0.0000000000
10
51.9266634793
20
19.8714362344
30
0.0000000000
11
51.9266634793
21
-22.1231555990
31
0.0000000000
11
51.9198130968
21
-8.1268089664
31
0.0000000000
11
51.9198130979
21
5.8750946124
31
0.0000000000
11
51.9266634793
21
19.8714362344
31
0.0000000000
0
SPLINE
5
37E
100
AcDbEntity
8
0
100
AcDbSpline
62
9
6
CONTINUOUS
70
0
71
3
72
11
73
7
74
5
42
0.0000001000
43
0.0000001000
44
0.0000000001
12
0.5009812035
22
0.0003672761
32
0.0000000000
13
0.1919258349
23
0.4627599541
33
0.0000000000
40
0.0000000000
40
0.0000000000
40
0.0000000000
40
0.0000000000
40
0.3779256707
40
0.6996868143
40
0.9175610119
40
1.0000000000
40
1.0000000000
40
1.0000000000
40
1.0000000000
10
51.4267396317
20
-22.1441739128
30
0.0000000000
10
51.4898508508
20
-22.1441276452
30
0.0000000000
10
51.6045484456
20
-22.1410844711
30
0.0000000000
10
51.7653464122
20
-22.1444199335
30
0.0000000000
10
51.8537554263
20
-22.1242833022
30
0.0000000000
10
51.9213894221
20
-22.1358720864
30
0.0000000000
10
51.9266634793
20
-22.1231555990
30
0.0000000000
11
51.4267396317
21
-22.1441739128
31
0.0000000000
11
51.6160656732
21
-22.1424700724
31
0.0000000000
11
51.7771969183
21
-22.1378898851
31
0.0000000000
11
51.8861373947
21
-22.1311154396
31
0.0000000000
11
51.9266634793
21
-22.1231555990
31
0.0000000000
0
SPLINE
5
37F
100
AcDbEntity
8
0
100
AcDbSpline
62
9
6
CONTINUOUS
70
0
71
3
72
12
73
8
74
6
42
0.0000001000
43
0.0000001000
44
0.0000000001
12
0.0003539836
22
0.9566761881
32
0.0000000000
13
0.1576774780
23
0.9435927443
33
0.0000000000
40
0.0000000000
40
0.0000000000
40
0.0000000000
40
0.0000000000
40
0.3020458830
40
0.5741020904
40
0.7926465973
40
0.9388318039
40
1.0000000000
40
1.0000000000
40
1.0000000000
40
1.0000000000
10
51.4267396317
20
19.8924545486
30
0.0000000000
10
51.4267752715
20
19.9887745833
30
0.0000000000
10
51.4269254562
20
20.1718703254
30
0.0000000000
10
51.4285826436
20
20.4245630682
30
0.0000000000
10
51.4287611480
20
20.6278163261
30
0.0000000000
10
51.4335819846
20
20.7632280688
30
0.0000000000
10
51.4317877369
20
20.8298081662
30
0.0000000000
10
51.4350026859
20
20.8490474549
30
0.0000000000
11
51.4267396317
21
19.8924545486
31
0.0000000000
11
51.4272239678
21
20.1814142665
31
0.0000000000
11
51.4284213971
21
20.4416812252
31
0.0000000000
11
51.4302269875
21
20.6507497685
31
0.0000000000
11
51.4324859381
21
20.7905834394
31
0.0000000000
11
51.4350026859
21
20.8490474549
31
0.0000000000
0
SPLINE
5
380
100
AcDbEntity
8
0
100
AcDbSpline
62
9
6
CONTINUOUS
70
0
71
3
72
12
73
8
74
6
42
0.0000001000
43
0.0000001000
44
0.0000000001
12
0.0003517925
22
0.4784629476
32
0.0000000000
13
0.1513051432
23
0.4539093187
33
0.0000000000
40
0.0000000000
40
0.0000000000
40
0.0000000000
40
0.0000000000
40
0.3009513641
40
0.5736175735
40
0.7926094576
40
0.9389893144
40
1.0000000000
40
1.0000000000
40
1.0000000000
40
1.0000000000
10
51.9266634793
20
19.8714362344
30
0.0000000000
10
51.9266987701
20
19.9194342600
30
0.0000000000
10
51.9268597547
20
20.0109545547
30
0.0000000000
10
51.9284731596
20
20.1372246733
30
0.0000000000
10
51.9287612724
20
20.2393311134
30
0.0000000000
10
51.9333666798
20
20.3065826177
30
0.0000000000
10
51.9318494566
20
20.3405015813
30
0.0000000000
10
51.9349265335
20
20.3497326875
30
0.0000000000
11
51.9266634793
21
19.8714362344
31
0.0000000000
11
51.9271447860
21
20.0154295457
31
0.0000000000
11
51.9283428898
21
20.1458847576
31
0.0000000000
11
51.9301525088
21
20.2506486604
31
0.0000000000
11
51.9324169707
21
20.3206494000
31
0.0000000000
11
51.9349265335
21
20.3497326875
31
0.0000000000
0
SPLINE
5
381
100
AcDbEntity
8
0
100
AcDbSpline
62
9
6
CONTINUOUS
70
0
71
3
72
11
73
7
74
5
42
0.0000001000
43
0.0000001000
44
0.0000000001
12
0.5009809102
22
-0.0003673931
32
0.0000000000
13
0.1923635848
23
-0.4625778405
33
0.0000000000
40
0.0000000000
40
0.0000000000
40
0.0000000000
40
0.0000000000
40
0.3779155372
40
0.6996713829
40
0.9175486095
40
1.0000000000
40
1.0000000000
40
1.0000000000
40
1.0000000000
10
51.4267396318
20
19.8924528128
30
0.0000000000
10
51.4898491217
20
19.8924065316
30
0.0000000000
10
51.6045474318
20
19.8893645179
30
0.0000000000
10
51.7653314434
20
19.8926964776
30
0.0000000000
10
51.8537652154
20
19.8725672105
30
0.0000000000
10
51.9213765970
20
19.8841496298
30
0.0000000000
10
51.9266634787
20
19.8714362344
30
0.0000000000
11
51.4267396318
21
19.8924528128
31
0.0000000000
11
51.6160604866
21
19.8907490884
31
0.0000000000
11
51.7771889934
21
19.8861693011
31
0.0000000000
11
51.8861309628
21
19.8793954437
31
0.0000000000
11
51.9266634787
21
19.8714362344
31
0.0000000000
0
SPLINE
5
382
100
AcDbEntity
8
0
100
AcDbSpline
62
9
6
CONTINUOUS
70
0
71
3
72
11
73
7
74
5
42
0.0000001000
43
0.0000001000
44
0.0000000001
12
0.7795522203
22
-0.0007111666
32
0.0000000000
13
0.0007129025
23
-0.7795522187
33
0.0000000000
40
0.0000000000
40
0.0000000000
40
0.0000000000
40
0.0000000000
40
0.2501098187
40
0.5001989223
40
0.7501715422
40
1.0000000000
40
1.0000000000
40
1.0000000000
40
1.0000000000
10
51.4350026859
20
20.8490474549
30
0.0000000000
10
51.4999939074
20
20.8489881650
30
0.0000000000
10
51.6313624629
20
20.8229148419
30
0.0000000000
10
51.7974415705
20
20.7117984453
30
0.0000000000
10
51.9087398987
20
20.5459193733
30
0.0000000000
10
51.9348671657
20
20.4146507971
30
0.0000000000
10
51.9349265335
20
20.3497326875
30
0.0000000000
11
51.4350026859
21
20.8490474549
31
0.0000000000
11
51.6262098688
21
20.8109085679
31
0.0000000000
11
51.7883408985
21
20.7026404107
31
0.0000000000
11
51.8967411238
21
20.5407069128
31
0.0000000000
11
51.9349265335
21
20.3497326875
31
0.0000000000
0
SPLINE
5
383
100
AcDbEntity
8
0
100
AcDbSpline
62
9
6
CONTINUOUS
70
0
71
3
72
13
73
9
74
7
42
0.0000001000
43
0.0000001000
44
0.0000000001
12
0.1514175279
22
0.4538785052
32
0.0000000000
13
0.0003487501
23
0.4784692713
33
0.0000000000
40
0.0000000000
40
0.0000000000
40
0.0000000000
40
0.0000000000
40
0.0447393873
40
0.1496912263
40
0.3085216489
40
0.5116483853
40
0.7470339087
40
1.0000000000
40
1.0000000000
40
1.0000000000
40
1.0000000000
10
7.4174826049
20
-22.6014520521
30
0.0000000000
10
7.4197407140
20
-22.5946833034
30
0.0000000000
10
7.4191469596
20
-22.5702472700
30
0.0000000000
10
7.4225301822
20
-22.5215592012
30
0.0000000000
10
7.4232103925
20
-22.4468609749
30
0.0000000000
10
7.4247718059
20
-22.3516941440
30
0.0000000000
10
7.4254679615
20
-22.2413800579
30
0.0000000000
10
7.4257162517
20
-22.1635010994
30
0.0000000000
10
7.4257456591
20
-22.1231555990
30
0.0000000000
11
7.4174826049
21
-22.6014520521
31
0.0000000000
11
7.4195854648
21
-22.5801491620
31
0.0000000000
11
7.4215422787
21
-22.5299710595
31
0.0000000000
11
7.4232265054
21
-22.4539942281
31
0.0000000000
11
7.4245362620
21
-22.3568131265
31
0.0000000000
11
7.4253937226
21
-22.2441916208
31
0.0000000000
11
7.4257456591
21
-22.1231555990
31
0.0000000000
0
SPLINE
5
384
100
AcDbEntity
8
0
100
AcDbSpline
62
9
6
CONTINUOUS
70
0
71
3
72
13
73
9
74
7
42
0.0000001000
43
0.0000001000
44
0.0000000001
12
0.1576341305
22
0.9436032094
32
0.0000000000
13
0.0003456835
23
0.9566793697
33
0.0000000000
40
0.0000000000
40
0.0000000000
40
0.0000000000
40
0.0000000000
40
0.0448270314
40
0.1498225927
40
0.3086597101
40
0.5117110612
40
0.7469567150
40
1.0000000000
40
1.0000000000
40
1.0000000000
40
1.0000000000
10
7.9174064525
20
-23.1007668195
30
0.0000000000
10
7.9197618758
20
-23.0866671759
30
0.0000000000
10
7.9189763158
20
-23.0385839941
30
0.0000000000
10
7.9225117674
20
-22.9404334988
30
0.0000000000
10
7.9231140120
20
-22.7914219638
30
0.0000000000
10
7.9247032260
20
-22.6010554357
30
0.0000000000
10
7.9253893125
20
-22.3805752733
30
0.0000000000
10
7.9256403490
20
-22.2248676767
30
0.0000000000
10
7.9256695066
20
-22.1441739132
30
0.0000000000
11
7.9174064525
21
-23.1007668195
31
0.0000000000
11
7.9195157467
21
-23.0579336245
31
0.0000000000
11
7.9214703476
21
-22.9575055497
31
0.0000000000
11
7.9231525924
21
-22.8055586584
31
0.0000000000
11
7.9244605439
21
-22.6113080106
31
0.0000000000
11
7.9253174433
21
-22.3862549634
31
0.0000000000
11
7.9256695066
21
-22.1441739132
31
0.0000000000
0
SPLINE
5
385
100
AcDbEntity
8
0
100
AcDbSpline
62
9
6
CONTINUOUS
70
0
71
3
72
11
73
7
74
5
42
0.0000001000
43
0.0000001000
44
0.0000000001
12
0.0007128996
22
-0.7795522208
32
0.0000000000
13
0.7795522224
23
-0.0007111579
33
0.0000000000
40
0.0000000000
40
0.0000000000
40
0.0000000000
40
0.0000000000
40
0.2498232422
40
0.4997945166
40
0.7498856864
40
1.0000000000
40
1.0000000000
40
1.0000000000
40
1.0000000000
10
7.4174826049
20
-22.6014520521
30
0.0000000000
10
7.4175419712
20
-22.6663688066
30
0.0000000000
10
7.4436683150
20
-22.7976355925
30
0.0000000000
10
7.5549643810
20
-22.9635146870
30
0.0000000000
10
7.7210437277
20
-23.0746333700
30
0.0000000000
10
7.8524140628
20
-23.1007075292
30
0.0000000000
10
7.9174064525
20
-23.1007668194
30
0.0000000000
11
7.4174826049
21
-22.6014520521
31
0.0000000000
11
7.4556664234
21
-22.7924224497
31
0.0000000000
11
7.5640645488
21
-22.9543560917
31
0.0000000000
11
7.7261959685
21
-23.0626265664
31
0.0000000000
11
7.9174064525
21
-23.1007668194
31
0.0000000000
0
SPLINE
5
386
100
AcDbEntity
8
0
100
AcDbSpline
62
9
6
CONTINUOUS
70
0
71
3
72
10
73
6
74
4
42
0.0000001000
43
0.0000001000
44
0.0000000001
12
0.0308408056
22
41.9945838615
32
0.0000000000
13
-0.0308408162
23
41.9945838615
33
0.0000000000
40
0.0000000000
40
0.0000000000
40
0.0000000000
40
0.0000000000
40
0.3332888351
40
0.6667105879
40
1.0000000000
40
1.0000000000
40
1.0000000000
40
1.0000000000
10
7.4257456591
20
-22.1231555990
30
0.0000000000
10
7.4291719578
20
-17.4577136210
30
0.0000000000
10
7.4337380030
20
-8.1249672086
30
0.0000000000
10
7.4337380075
20
5.8732316890
30
0.0000000000
10
7.4291719649
20
15.2059861789
30
0.0000000000
10
7.4257456591
20
19.8714362344
30
0.0000000000
11
7.4257456591
21
-22.1231555990
31
0.0000000000
11
7.4325960373
21
-8.1268275671
31
0.0000000000
11
7.4325960429
21
5.8750839699
31
0.0000000000
11
7.4257456591
21
19.8714362344
31
0.0000000000
0
SPLINE
5
387
100
AcDbEntity
8
0
100
AcDbSpline
62
9
6
CONTINUOUS
70
0
71
3
72
11
73
7
74
5
42
0.0000001000
43
0.0000001000
44
0.0000000001
12
0.1919259466
22
-0.4627599078
32
0.0000000000
13
0.5009812036
23
-0.0003672644
33
0.0000000000
40
0.0000000000
40
0.0000000000
40
0.0000000000
40
0.0000000000
40
0.0824389917
40
0.3003131910
40
0.6220743335
40
1.0000000000
40
1.0000000000
40
1.0000000000
40
1.0000000000
10
7.4257456591
20
-22.1231555990
30
0.0000000000
10
7.4310197196
20
-22.1358720857
30
0.0000000000
10
7.4986537098
20
-22.1242833038
30
0.0000000000
10
7.5870627304
20
-22.1444199340
30
0.0000000000
10
7.7478606934
20
-22.1410844747
30
0.0000000000
10
7.8625582882
20
-22.1441276464
30
0.0000000000
10
7.9256695066
20
-22.1441739126
30
0.0000000000
11
7.4257456591
21
-22.1231555990
31
0.0000000000
11
7.4662717454
21
-22.1311154398
31
0.0000000000
11
7.5752122226
21
-22.1378898863
31
0.0000000000
11
7.7363434671
21
-22.1424700748
31
0.0000000000
11
7.9256695066
21
-22.1441739126
31
0.0000000000
0
SPLINE
5
388
100
AcDbEntity
8
0
100
AcDbSpline
62
9
6
CONTINUOUS
70
0
71
3
72
13
73
9
74
7
42
0.0000001000
43
0.0000001000
44
0.0000000001
12
-0.0003487498
22
0.4784692713
32
0.0000000000
13
-0.1514174029
23
0.4538785469
33
0.0000000000
40
0.0000000000
40
0.0000000000
40
0.0000000000
40
0.0000000000
40
0.2529660912
40
0.4883516149
40
0.6914783512
40
0.8503087732
40
0.9552606132
40
1.0000000000
40
1.0000000000
40
1.0000000000
40
1.0000000000
10
7.4257456591
20
19.8714362344
30
0.0000000000
10
7.4257162518
20
19.9117817348
30
0.0000000000
10
7.4254679616
20
19.9896606933
30
0.0000000000
10
7.4247718057
20
20.0999747793
30
0.0000000000
10
7.4232103930
20
20.1951416104
30
0.0000000000
10
7.4225301810
20
20.2698398362
30
0.0000000000
10
7.4191469617
20
20.3185279061
30
0.0000000000
10
7.4197407121
20
20.3429639382
30
0.0000000000
10
7.4174826049
20
20.3497326875
30
0.0000000000
11
7.4257456591
21
19.8714362344
31
0.0000000000
11
7.4253937226
21
19.9924722562
31
0.0000000000
11
7.4245362620
21
20.1050937620
31
0.0000000000
11
7.4232265054
21
20.2022748636
31
0.0000000000
11
7.4215422787
21
20.2782516947
31
0.0000000000
11
7.4195854648
21
20.3284297976
31
0.0000000000
11
7.4174826049
21
20.3497326875
31
0.0000000000
0
SPLINE
5
389
100
AcDbEntity
8
0
100
AcDbSpline
62
9
6
CONTINUOUS
70
0
71
3
72
13
73
9
74
7
42
0.0000001000
43
0.0000001000
44
0.0000000001
12
-0.0003456837
22
0.9566793697
32
0.0000000000
13
-0.1576341168
23
0.9436032117
33
0.0000000000
40
0.0000000000
40
0.0000000000
40
0.0000000000
40
0.0000000000
40
0.2530432850
40
0.4882889388
40
0.6913402899
40
0.8501774073
40
0.9551729686
40
1.0000000000
40
1.0000000000
40
1.0000000000
40
1.0000000000
10
7.9256695066
20
19.8924545486
30
0.0000000000
10
7.9256403490
20
19.9731483121
30
0.0000000000
10
7.9253893124
20
20.1288559088
30
0.0000000000
10
7.9247032261
20
20.3493360711
30
0.0000000000
10
7.9231140121
20
20.5397025992
30
0.0000000000
10
7.9225117673
20
20.6887141342
30
0.0000000000
10
7.9189763160
20
20.7868646296
30
0.0000000000
10
7.9197618756
20
20.8349478113
30
0.0000000000
10
7.9174064525
20
20.8490474549
30
0.0000000000
11
7.9256695066
21
19.8924545486
31
0.0000000000
11
7.9253174433
21
20.1345355988
31
0.0000000000
11
7.9244605439
21
20.3595886460
31
0.0000000000
11
7.9231525924
21
20.5538392938
31
0.0000000000
11
7.9214703476
21
20.7057861852
31
0.0000000000
11
7.9195157467
21
20.8062142599
31
0.0000000000
11
7.9174064525
21
20.8490474549
31
0.0000000000
0
SPLINE
5
38A
100
AcDbEntity
8
0
100
AcDbSpline
62
9
6
CONTINUOUS
70
0
71
3
72
11
73
7
74
5
42
0.0000001000
43
0.0000001000
44
0.0000000001
12
0.1920583414
22
0.4627048763
32
0.0000000000
13
0.5009811116
23
0.0003673423
33
0.0000000000
40
0.0000000000
40
0.0000000000
40
0.0000000000
40
0.0000000000
40
0.0824427228
40
0.3003178355
40
0.6220773841
40
1.0000000000
40
1.0000000000
40
1.0000000000
40
1.0000000000
10
7.4257456591
20
19.8714362344
30
0.0000000000
10
7.4310235966
20
19.8841517843
30
0.0000000000
10
7.4986507482
20
19.8725648922
30
0.0000000000
10
7.5870672485
20
19.8926993147
30
0.0000000000
10
7.7478609960
20
19.8893649067
30
0.0000000000
10
7.8625588092
20
19.8924077391
30
0.0000000000
10
7.9256695066
20
19.8924540148
30
0.0000000000
11
7.4257456591
21
19.8714362344
31
0.0000000000
11
7.4662736835
21
19.8793958671
31
0.0000000000
11
7.5752146107
21
19.8861701284
31
0.0000000000
11
7.7363450300
21
19.8907501993
31
0.0000000000
11
7.9256695066
21
19.8924540148
31
0.0000000000
0
SPLINE
5
38B
100
AcDbEntity
8
0
100
AcDbSpline
62
9
6
CONTINUOUS
70
0
71
3
72
11
73
7
74
5
42
0.0000001000
43
0.0000001000
44
0.0000000001
12
0.0007129025
22
0.7795522187
32
0.0000000000
13
0.7795522203
23
0.0007111667
33
0.0000000000
40
0.0000000000
40
0.0000000000
40
0.0000000000
40
0.0000000000
40
0.2498284581
40
0.4998010784
40
0.7498901819
40
1.0000000000
40
1.0000000000
40
1.0000000000
40
1.0000000000
10
7.4174826049
20
20.3497326875
30
0.0000000000
10
7.4175419727
20
20.4146507971
30
0.0000000000
10
7.4436692397
20
20.5459193736
30
0.0000000000
10
7.5549675681
20
20.7117984456
30
0.0000000000
10
7.7210466758
20
20.8229148420
30
0.0000000000
10
7.8524152311
20
20.8489881650
30
0.0000000000
10
7.9174064525
20
20.8490474549
30
0.0000000000
11
7.4174826049
21
20.3497326875
31
0.0000000000
11
7.4556680146
21
20.5407069130
31
0.0000000000
11
7.5640682402
21
20.7026404111
31
0.0000000000
11
7.7261992701
21
20.8109085680
31
0.0000000000
11
7.9174064525
21
20.8490474549
31
0.0000000000
0
SPLINE
5
38C
100
AcDbEntity
8
0
100
AcDbSpline
62
9
6
CONTINUOUS
70
0
71
3
72
11
73
7
74
5
42
0.0000001000
43
0.0000001000
44
0.0000000001
12
-0.4990532997
22
0.0261542752
32
0.0000000000
13
0.0261461109
23
0.4990537275
33
0.0000000000
40
0.0000000000
40
0.0000000000
40
0.0000000000
40
0.0000000000
40
0.0763692249
40
0.2931013628
40
0.6174071002
40
1.0000000000
40
1.0000000000
40
1.0000000000
40
1.0000000000
10
-47.8523470537
20
-23.1007668195
30
0.0000000000
10
-47.8650511583
20
-23.1001010256
30
0.0000000000
10
-47.8385152454
20
-23.0229029708
30
0.0000000000
10
-47.8590318220
20
-22.9457218311
30
0.0000000000
10
-47.8406202712
20
-22.7790281185
30
0.0000000000
10
-47.8382397176
20
-22.6650968564
30
0.0000000000
10
-47.8349052788
20
-22.6014520521
30
0.0000000000
11
-47.8523470537
21
-23.1007668195
31
0.0000000000
11
-47.8536857257
21
-23.0626256876
31
0.0000000000
11
-47.8508414277
21
-22.9543537182
31
0.0000000000
11
-47.8442469355
21
-22.7924199808
31
0.0000000000
11
-47.8349052788
21
-22.6014520521
31
0.0000000000
0
SPLINE
5
38D
100
AcDbEntity
8
0
100
AcDbSpline
62
9
6
CONTINUOUS
70
0
71
3
72
10
73
6
74
4
42
0.0000001000
43
0.0000001000
44
0.0000000001
12
0.0034895681
22
-0.1999776420
32
0.0000000000
13
-0.1999776236
23
-0.0034906224
33
0.0000000000
40
0.0000000000
40
0.0000000000
40
0.0000000000
40
0.0000000000
40
0.4998531649
40
0.8657959584
40
1.0000000000
40
1.0000000000
40
1.0000000000
40
1.0000000000
10
-37.5358563119
20
-12.0373976106
30
0.0000000000
10
-37.5352748880
20
-12.0707174296
30
0.0000000000
10
-37.5288997273
20
-12.1346444207
30
0.0000000000
10
-37.5446343877
20
-12.1836428325
30
0.0000000000
10
-37.5269103773
20
-12.2372109977
30
0.0000000000
10
-37.5358563124
20
-12.2373671496
30
0.0000000000
11
-37.5358563119
21
-12.0373976106
31
0.0000000000
11
-37.5345793703
21
-12.1373641299
31
0.0000000000
11
-37.5345793609
21
-12.2105556476
31
0.0000000000
11
-37.5358563124
21
-12.2373671496
31
0.0000000000
0
SPLINE
5
38E
100
AcDbEntity
8
0
100
AcDbSpline
62
9
6
CONTINUOUS
70
0
71
3
72
10
73
6
74
4
42
0.0000001000
43
0.0000001000
44
0.0000000001
12
0.0034895595
22
0.1999776422
32
0.0000000000
13
-0.1999776236
23
0.0034906224
33
0.0000000000
40
0.0000000000
40
0.0000000000
40
0.0000000000
40
0.0000000000
40
0.4998565226
40
0.8657977858
40
1.0000000000
40
1.0000000000
40
1.0000000000
40
1.0000000000
10
-37.5358563119
20
9.7856782460
30
0.0000000000
10
-37.5352748855
20
9.8189982889
30
0.0000000000
10
-37.5288996793
20
9.8829254584
30
0.0000000000
10
-37.5446343421
20
9.9319238610
30
0.0000000000
10
-37.5269104986
20
9.9854916352
30
0.0000000000
10
-37.5358563119
20
9.9856477850
30
0.0000000000
11
-37.5358563119
21
9.7856782460
31
0.0000000000
11
-37.5345793682
21
9.8856454370
31
0.0000000000
11
-37.5345793682
21
9.9588366485
31
0.0000000000
11
-37.5358563119
21
9.9856477850
31
0.0000000000
0
SPLINE
5
38F
100
AcDbEntity
8
0
100
AcDbSpline
62
9
6
CONTINUOUS
70
0
71
3
72
12
73
8
74
6
42
0.0000001000
43
0.0000001000
44
0.0000000001
12
-0.7344998223
22
0.0384617099
32
0.0000000000
13
-0.0309540931
23
0.7348545000
33
0.0000000000
40
0.0000000000
40
0.0000000000
40
0.0000000000
40
0.0000000000
40
0.1994338728
40
0.3998560386
40
0.6002475210
40
0.8006682986
40
1.0000000000
40
1.0000000000
40
1.0000000000
40
1.0000000000
10
-47.8349052788
20
-22.6014520521
30
0.0000000000
10
-47.8837333269
20
-22.5988951962
30
0.0000000000
10
-47.9814736563
20
-22.5791596560
30
0.0000000000
10
-48.1127852207
20
-22.5082599649
30
0.0000000000
10
-48.2180183136
20
-22.4019183982
30
0.0000000000
10
-48.2875316540
20
-22.2698954925
30
0.0000000000
10
-48.3062386252
20
-22.1719821982
30
0.0000000000
10
-48.3082953359
20
-22.1231555990
30
0.0000000000
11
-47.8349052788
21
-22.6014520521
31
0.0000000000
11
-47.9786780317
21
-22.5723687644
31
0.0000000000
11
-48.1084089689
21
-22.5023680251
31
0.0000000000
11
-48.2120819704
21
-22.3976041222
31
0.0000000000
11
-48.2807212905
21
-22.2671489103
31
0.0000000000
11
-48.3082953359
21
-22.1231555990
31
0.0000000000
0
SPLINE
5
390
100
AcDbEntity
8
0
100
AcDbSpline
62
9
6
CONTINUOUS
70
0
71
3
72
10
73
6
74
4
42
0.0000001000
43
0.0000001000
44
0.0000000001
12
-1.7657702978
22
41.9684643579
32
0.0000000000
13
1.7657701723
23
41.9684643632
33
0.0000000000
40
0.0000000000
40
0.0000000000
40
0.0000000000
40
0.0000000000
40
0.3333329306
40
0.6666671886
40
1.0000000000
40
1.0000000000
40
1.0000000000
40
1.0000000000
10
-48.3082953359
20
-22.1231555990
30
0.0000000000
10
-48.5044917986
20
-17.4599985259
30
0.0000000000
10
-48.7661744090
20
-8.1276157781
30
0.0000000000
10
-48.7661743563
20
5.8758997548
30
0.0000000000
10
-48.5044917144
20
15.2082808294
30
0.0000000000
10
-48.3082953359
20
19.8714362344
30
0.0000000000
11
-48.3082953359
21
-22.1231555990
31
0.0000000000
11
-48.7007534871
21
-8.1268089664
31
0.0000000000
11
-48.7007534207
21
5.8750946124
31
0.0000000000
11
-48.3082953359
21
19.8714362344
31
0.0000000000
0
SPLINE
5
391
100
AcDbEntity
8
0
100
AcDbSpline
62
9
6
CONTINUOUS
70
0
71
3
72
12
73
8
74
6
42
0.0000001000
43
0.0000001000
44
0.0000000001
12
0.0309540944
22
0.7348545000
32
0.0000000000
13
0.7344998224
23
0.0384617085
33
0.0000000000
40
0.0000000000
40
0.0000000000
40
0.0000000000
40
0.0000000000
40
0.1993317014
40
0.3997524790
40
0.6001439614
40
0.8005661272
40
1.0000000000
40
1.0000000000
40
1.0000000000
40
1.0000000000
10
-48.3082953359
20
19.8714362344
30
0.0000000000
10
-48.3062386251
20
19.9202628336
30
0.0000000000
10
-48.2875316538
20
20.0181761278
30
0.0000000000
10
-48.2180183138
20
20.1501990337
30
0.0000000000
10
-48.1127852206
20
20.2565406002
30
0.0000000000
10
-47.9814736564
20
20.3274402917
30
0.0000000000
10
-47.8837333269
20
20.3471758317
30
0.0000000000
10
-47.8349052788
20
20.3497326875
30
0.0000000000
11
-48.3082953359
21
19.8714362344
31
0.0000000000
11
-48.2807212904
21
20.0154295457
31
0.0000000000
11
-48.2120819704
21
20.1458847576
31
0.0000000000
11
-48.1084089689
21
20.2506486604
31
0.0000000000
11
-47.9786780318
21
20.3206494000
31
0.0000000000
11
-47.8349052788
21
20.3497326875
31
0.0000000000
0
SPLINE
5
392
100
AcDbEntity
8
0
100
AcDbSpline
62
9
6
CONTINUOUS
70
0
71
3
72
11
73
7
74
5
42
0.0000001000
43
0.0000001000
44
0.0000000001
12
-0.4990533076
22
-0.0261542756
32
0.0000000000
13
0.0261463312
23
-0.4990537239
33
0.0000000000
40
0.0000000000
40
0.0000000000
40
0.0000000000
40
0.0000000000
40
0.0763647405
40
0.2930892379
40
0.6173944873
40
1.0000000000
40
1.0000000000
40
1.0000000000
40
1.0000000000
10
-47.8523470537
20
20.8490474549
30
0.0000000000
10
-47.8650504125
20
20.8483817001
30
0.0000000000
10
-47.8385160713
20
20.7711869574
30
0.0000000000
10
-47.8590320470
20
20.6940073709
30
0.0000000000
10
-47.8406203953
20
20.5273126794
30
0.0000000000
10
-47.8382398557
20
20.4133795895
30
0.0000000000
10
-47.8349052788
20
20.3497326875
30
0.0000000000
11
-47.8523470537
21
20.8490474549
31
0.0000000000
11
-47.8536858135
21
20.8109085679
31
0.0000000000
11
-47.8508417273
21
20.7026404107
31
0.0000000000
11
-47.8442472852
21
20.5407069128
31
0.0000000000
11
-47.8349052788
21
20.3497326875
31
0.0000000000
0
SPLINE
5
393
100
AcDbEntity
8
0
100
AcDbSpline
62
9
6
CONTINUOUS
70
0
71
3
72
12
73
8
74
6
42
0.0000001000
43
0.0000001000
44
0.0000000001
12
0.1546588122
22
0.0027178577
32
0.0000000000
13
0.0000285171
23
0.1546826886
33
0.0000000000
40
0.0000000000
40
0.0000000000
40
0.0000000000
40
0.0000000000
40
0.1673019678
40
0.3501330502
40
0.5500224510
40
0.7669364542
40
1.0000000000
40
1.0000000000
40
1.0000000000
40
1.0000000000
10
-37.5358563119
20
-12.0373976106
30
0.0000000000
10
-37.5272314040
20
-12.0372460429
30
0.0000000000
10
-37.5091390581
20
-12.0345677691
30
0.0000000000
10
-37.4828937053
20
-12.0228856988
30
0.0000000000
10
-37.4591797236
20
-12.0022611196
30
0.0000000000
10
-37.4418856246
20
-11.9728530824
30
0.0000000000
10
-37.4376037680
20
-11.9494298063
30
0.0000000000
10
-37.4376015525
20
-11.9374128410
30
0.0000000000
11
-37.5358563119
21
-12.0373976106
31
0.0000000000
11
-37.5102577286
21
-12.0336001627
31
0.0000000000
11
-37.4844212059
21
-12.0220989469
31
0.0000000000
11
-37.4610930438
21
-12.0018058931
31
0.0000000000
11
-37.4441030316
21
-11.9728726480
31
0.0000000000
11
-37.4376015525
21
-11.9374128410
31
0.0000000000
0
SPLINE
5
394
100
AcDbEntity
8
0
100
AcDbSpline
62
9
6
CONTINUOUS
70
0
71
3
72
12
73
8
74
6
42
0.0000001000
43
0.0000001000
44
0.0000000001
12
-0.0000055420
22
0.1546756539
32
0.0000000000
13
-0.1546520434
23
0.0027024834
33
0.0000000000
40
0.0000000000
40
0.0000000000
40
0.0000000000
40
0.0000000000
40
0.1653391254
40
0.3460071935
40
0.5445904911
40
0.7622902754
40
1.0000000000
40
1.0000000000
40
1.0000000000
40
1.0000000000
10
-37.4376015525
20
9.6856934764
30
0.0000000000
10
-37.4376018580
20
9.6942181222
30
0.0000000000
10
-37.4399084016
20
9.7121382670
30
0.0000000000
10
-37.4508929275
20
9.7383645204
30
0.0000000000
10
-37.4708250522
20
9.7624704953
30
0.0000000000
10
-37.4999674719
20
9.7806227039
30
0.0000000000
10
-37.5236022137
20
9.7854641104
30
0.0000000000
10
-37.5358563119
20
9.7856782460
30
0.0000000000
11
-37.4376015525
21
9.6856934764
31
0.0000000000
11
-37.4408731342
21
9.7110572897
31
0.0000000000
11
-37.4516693438
21
9.7368325138
31
0.0000000000
11
-37.4712449957
21
9.7605024652
31
0.0000000000
11
-37.4998393562
21
9.7782851482
31
0.0000000000
11
-37.5358563119
21
9.7856782460
31
0.0000000000
0
SPLINE
5
395
100
AcDbEntity
8
0
100
AcDbSpline
62
0
6
CONTINUOUS
70
0
71
3
72
10
73
6
74
4
42
0.0000001000
43
0.0000001000
44
0.0000000001
12
-4.0000360299
22
-0.0287443498
32
0.0000000000
13
-3.9999639243
23
-0.0374577365
33
0.0000000000
40
0.0000000000
40
0.0000000000
40
0.0000000000
40
0.0000000000
40
0.3305872676
40
0.6639286658
40
1.0000000000
40
1.0000000000
40
1.0000000000
40
1.0000000000
10
-35.7410920338
20
-23.7557262849
30
0.0000000000
10
-36.1818790276
20
-23.7588937903
30
0.0000000000
10
-37.0671226157
20
-23.7656227517
30
0.0000000000
10
-38.4004559854
20
-23.7767585553
30
0.0000000000
10
-39.2930009629
20
-23.7848301471
30
0.0000000000
10
-39.7410920338
20
-23.7890263043
30
0.0000000000
11
-35.7410920338
21
-23.7557262849
31
0.0000000000
11
-37.0634490946
21
-23.7657595676
31
0.0000000000
11
-38.3968147424
21
-23.7768811852
31
0.0000000000
11
-39.7410920338
21
-23.7890263043
31
0.0000000000
0
SPLINE
5
396
100
AcDbEntity
8
0
100
AcDbSpline
62
0
6
CONTINUOUS
70
0
71
3
72
10
73
6
74
4
42
0.0000001000
43
0.0000001000
44
0.0000000001
12
-4.0000360299
22
0.0287443498
32
0.0000000000
13
-3.9999639243
23
0.0374577365
33
0.0000000000
40
0.0000000000
40
0.0000000000
40
0.0000000000
40
0.0000000000
40
0.3305872676
40
0.6639286658
40
1.0000000000
40
1.0000000000
40
1.0000000000
40
1.0000000000
10
-35.7410920338
20
21.5040069203
30
0.0000000000
10
-36.1818790276
20
21.5071744257
30
0.0000000000
10
-37.0671226157
20
21.5139033871
30
0.0000000000
10
-38.4004559854
20
21.5250391907
30
0.0000000000
10
-39.2930009629
20
21.5331107825
30
0.0000000000
10
-39.7410920338
20
21.5373069397
30
0.0000000000
11
-35.7410920338
21
21.5040069203
31
0.0000000000
11
-37.0634490946
21
21.5140402030
31
0.0000000000
11
-38.3968147424
21
21.5251618206
31
0.0000000000
11
-39.7410920338
21
21.5373069397
31
0.0000000000
0
SPLINE
5
397
100
AcDbEntity
8
0
100
AcDbSpline
62
9
6
CONTINUOUS
70
0
71
3
72
8
73
4
74
2
42
0.0000001000
43
0.0000001000
44
0.0000000001
12
-0.2394944484
22
-0.2438203961
32
0.0000000000
13
-0.2394950065
23
-0.2438198479
33
0.0000000000
40
0.0000000000
40
0.0000000000
40
0.0000000000
40
0.0000000000
40
1.0000000000
40
1.0000000000
40
1.0000000000
40
1.0000000000
10
-30.3859020000
20
-20.7242598873
30
0.0000000000
10
-30.4657334828
20
-20.8055333527
30
0.0000000000
10
-30.5455650359
20
-20.8868067491
30
0.0000000000
10
-30.6253967047
20
-20.9680800317
30
0.0000000000
11
-30.3859020000
21
-20.7242598873
31
0.0000000000
11
-30.6253967047
21
-20.9680800317
31
0.0000000000
0
SPLINE
5
398
100
AcDbEntity
8
0
100
AcDbSpline
62
9
6
CONTINUOUS
70
0
71
3
72
8
73
4
74
2
42
0.0000001000
43
0.0000001000
44
0.0000000001
12
-0.4684844589
22
-0.4769444306
32
0.0000000000
13
-0.4684881403
23
-0.4769408145
33
0.0000000000
40
0.0000000000
40
0.0000000000
40
0.0000000000
40
0.0000000000
40
1.0000000000
40
1.0000000000
40
1.0000000000
40
1.0000000000
10
-30.6253967047
20
-20.9680800317
30
0.0000000000
10
-30.7815581910
20
-21.1270615085
30
0.0000000000
10
-30.9377201204
20
-21.2860425502
30
0.0000000000
10
-31.0938828339
20
-21.4450228217
30
0.0000000000
11
-30.6253967047
21
-20.9680800317
31
0.0000000000
11
-31.0938828339
21
-21.4450228217
31
0.0000000000
0
SPLINE
5
399
100
AcDbEntity
8
0
100
AcDbSpline
62
9
6
CONTINUOUS
70
0
71
3
72
8
73
4
74
2
42
0.0000001000
43
0.0000001000
44
0.0000000001
12
-0.4953144862
22
-0.5042511735
32
0.0000000000
13
-0.4953171798
23
-0.5042485277
33
0.0000000000
40
0.0000000000
40
0.0000000000
40
0.0000000000
40
0.0000000000
40
1.0000000000
40
1.0000000000
40
1.0000000000
40
1.0000000000
10
-31.0938828339
20
-21.4450228217
30
0.0000000000
10
-31.2589876626
20
-21.6131065462
30
0.0000000000
10
-31.4240933677
20
-21.7811894098
30
0.0000000000
10
-31.5891990943
20
-21.9492722523
30
0.0000000000
11
-31.0938828339
21
-21.4450228217
31
0.0000000000
11
-31.5891990943
21
-21.9492722523
31
0.0000000000
0
SPLINE
5
39A
100
AcDbEntity
8
0
100
AcDbSpline
62
9
6
CONTINUOUS
70
0
71
3
72
8
73
4
74
2
42
0.0000001000
43
0.0000001000
44
0.0000000001
12
-0.1810413760
22
-0.1843058368
32
0.0000000000
13
-0.1810412680
23
-0.1843059430
33
0.0000000000
40
0.0000000000
40
0.0000000000
40
0.0000000000
40
0.0000000000
40
1.0000000000
40
1.0000000000
40
1.0000000000
40
1.0000000000
10
-31.5891990943
20
-21.9492722523
30
0.0000000000
10
-31.6495462197
20
-22.0107075313
30
0.0000000000
10
-31.7098933479
20
-22.0721428074
30
0.0000000000
10
-31.7702404372
20
-22.1335781217
30
0.0000000000
11
-31.5891990943
21
-21.9492722523
31
0.0000000000
11
-31.7702404372
21
-22.1335781217
31
0.0000000000
0
SPLINE
5
39B
100
AcDbEntity
8
0
100
AcDbSpline
62
9
6
CONTINUOUS
70
0
71
3
72
10
73
6
74
4
42
0.0000001000
43
0.0000001000
44
0.0000000001
12
-23.4174474566
22
-0.0923702499
32
0.0000000000
13
-23.4174572809
23
-0.0898451083
33
0.0000000000
40
0.0000000000
40
0.0000000000
40
0.0000000000
40
0.0000000000
40
0.3340170586
40
0.6673503920
40
1.0000000000
40
1.0000000000
40
1.0000000000
40
1.0000000000
10
-16.3236396274
20
-18.7613749124
30
0.0000000000
10
-18.9309152672
20
-18.7716593255
30
0.0000000000
10
-24.1401298875
20
-18.7921124953
30
0.0000000000
10
-31.9459473665
20
-18.8224791863
30
0.0000000000
10
-37.1444893722
20
-18.8425167500
30
0.0000000000
10
-39.7410920338
20
-18.8524790634
30
0.0000000000
11
-16.3236396274
21
-18.7613749124
31
0.0000000000
11
-24.1454671049
21
-18.7920863673
31
0.0000000000
11
-31.9512845827
21
-18.8224533196
31
0.0000000000
11
-39.7410920338
21
-18.8524790634
31
0.0000000000
0
SPLINE
5
39C
100
AcDbEntity
8
0
100
AcDbSpline
62
0
6
CONTINUOUS
70
0
71
3
72
10
73
6
74
4
42
0.0000001000
43
0.0000001000
44
0.0000000001
12
-3.9999099472
22
0.0844306542
32
0.0000000000
13
-4.0000789575
23
0.0760029924
33
0.0000000000
40
0.0000000000
40
0.0000000000
40
0.0000000000
40
0.0000000000
40
0.3305940148
40
0.6639352644
40
1.0000000000
40
1.0000000000
40
1.0000000000
40
1.0000000000
10
-35.7410920338
20
21.9740307925
30
0.0000000000
10
-36.1818741299
20
21.9833348822
30
0.0000000000
10
-37.0671087885
20
22.0016633180
30
0.0000000000
10
-38.4004431553
20
22.0282999883
30
0.0000000000
10
-39.2929968747
20
22.0455349043
30
0.0000000000
10
-39.7410920338
20
22.0540488795
30
0.0000000000
11
-35.7410920338
21
21.9740307925
31
0.0000000000
11
-37.0634490946
21
22.0014279542
31
0.0000000000
11
-38.3968147424
21
22.0280796957
31
0.0000000000
11
-39.7410920338
21
22.0540488795
31
0.0000000000
0
SPLINE
5
39D
100
AcDbEntity
8
0
100
AcDbSpline
62
9
6
CONTINUOUS
70
0
71
3
72
10
73
6
74
4
42
0.0000001000
43
0.0000001000
44
0.0000000001
12
-23.4191919784
22
-0.0984978975
32
0.0000000000
13
-23.4192028242
23
-0.0958844976
33
0.0000000000
40
0.0000000000
40
0.0000000000
40
0.0000000000
40
0.0000000000
40
0.3340171146
40
0.6673504481
40
1.0000000000
40
1.0000000000
40
1.0000000000
40
1.0000000000
10
-16.3218945914
20
-18.1223016095
30
0.0000000000
10
-18.9293649015
20
-18.1332682707
30
0.0000000000
10
-24.1389680672
20
-18.1550812153
30
0.0000000000
10
-31.9453672258
20
-18.1874756162
30
0.0000000000
10
-37.1442962584
20
-18.2088571036
30
0.0000000000
10
-39.7410920338
20
-18.2194890819
30
0.0000000000
11
-16.3218945914
21
-18.1223016095
31
0.0000000000
11
-24.1443061374
21
-18.1550548339
31
0.0000000000
11
-31.9507052970
21
-18.1874495106
31
0.0000000000
11
-39.7410920338
21
-18.2194890819
31
0.0000000000
0
SPLINE
5
39E
100
AcDbEntity
8
0
100
AcDbSpline
62
9
6
CONTINUOUS
70
0
71
3
72
10
73
6
74
4
42
0.0000001000
43
0.0000001000
44
0.0000000001
12
23.4174572809
22
-0.0898451083
32
0.0000000000
13
23.4174474566
23
-0.0923702499
33
0.0000000000
40
0.0000000000
40
0.0000000000
40
0.0000000000
40
0.0000000000
40
0.3326495965
40
0.6659829299
40
1.0000000000
40
1.0000000000
40
1.0000000000
40
1.0000000000
10
-39.7410920338
20
16.6007596988
30
0.0000000000
10
-37.1444894618
20
16.5907973858
30
0.0000000000
10
-31.9459475457
20
16.5707598224
30
0.0000000000
10
-24.1401300667
20
16.5403931314
30
0.0000000000
10
-18.9309153568
20
16.5199399613
30
0.0000000000
10
-16.3236396274
20
16.5096555478
30
0.0000000000
11
-39.7410920338
21
16.6007596988
31
0.0000000000
11
-31.9512848516
21
16.5707339560
31
0.0000000000
11
-24.1454673737
21
16.5403670038
31
0.0000000000
11
-16.3236396274
21
16.5096555478
31
0.0000000000
0
SPLINE
5
39F
100
AcDbEntity
8
0
100
AcDbSpline
62
9
6
CONTINUOUS
70
0
71
3
72
10
73
6
74
4
42
0.0000001000
43
0.0000001000
44
0.0000000001
12
23.4192028242
22
-0.0958844976
32
0.0000000000
13
23.4191919784
23
-0.0984978975
33
0.0000000000
40
0.0000000000
40
0.0000000000
40
0.0000000000
40
0.0000000000
40
0.3326495405
40
0.6659828739
40
1.0000000000
40
1.0000000000
40
1.0000000000
40
1.0000000000
10
-39.7410920338
20
15.9677697173
30
0.0000000000
10
-37.1442963481
20
15.9571377393
30
0.0000000000
10
-31.9453674051
20
15.9357562523
30
0.0000000000
10
-24.1389682465
20
15.9033618515
30
0.0000000000
10
-18.9293649911
20
15.8815489064
30
0.0000000000
10
-16.3218945914
20
15.8705822449
30
0.0000000000
11
-39.7410920338
21
15.9677697173
31
0.0000000000
11
-31.9507055659
21
15.9357301471
31
0.0000000000
11
-24.1443064063
21
15.9033354704
31
0.0000000000
11
-16.3218945914
21
15.8705822449
31
0.0000000000
0
SPLINE
5
3A0
100
AcDbEntity
8
0
100
AcDbSpline
62
9
6
CONTINUOUS
70
0
71
3
72
8
73
4
74
2
42
0.0000001000
43
0.0000001000
44
0.0000000001
12
0.2219264497
22
-0.2259283988
32
0.0000000000
13
0.2219265696
23
-0.2259282810
33
0.0000000000
40
0.0000000000
40
0.0000000000
40
0.0000000000
40
0.0000000000
40
1.0000000000
40
1.0000000000
40
1.0000000000
40
1.0000000000
10
-31.7702404363
20
19.8818587571
30
0.0000000000
10
-31.6962649531
20
19.8065492908
30
0.0000000000
10
-31.6222894115
20
19.7312398820
30
0.0000000000
10
-31.5483138883
20
19.6559304549
30
0.0000000000
11
-31.7702404363
21
19.8818587571
31
0.0000000000
11
-31.5483138883
21
19.6559304549
31
0.0000000000
0
SPLINE
5
3A1
100
AcDbEntity
8
0
100
AcDbSpline
62
9
6
CONTINUOUS
70
0
71
3
72
8
73
4
74
2
42
0.0000001000
43
0.0000001000
44
0.0000000001
12
0.4544319452
22
-0.4626261218
32
0.0000000000
13
0.4544295012
23
-0.4626285225
33
0.0000000000
40
0.0000000000
40
0.0000000000
40
0.0000000000
40
0.0000000000
40
1.0000000000
40
1.0000000000
40
1.0000000000
40
1.0000000000
10
-31.5483138883
20
19.6559304549
30
0.0000000000
10
-31.3968365732
20
19.5017217477
30
0.0000000000
10
-31.2453593355
20
19.3475129645
30
0.0000000000
10
-31.0938828351
20
19.1933034570
30
0.0000000000
11
-31.5483138883
21
19.6559304549
31
0.0000000000
11
-31.0938828351
21
19.1933034570
31
0.0000000000
0
SPLINE
5
3A2
100
AcDbEntity
8
0
100
AcDbSpline
62
9
6
CONTINUOUS
70
0
71
3
72
8
73
4
74
2
42
0.0000001000
43
0.0000001000
44
0.0000000001
12
0.4684881408
22
-0.4769408144
32
0.0000000000
13
0.4684844596
23
-0.4769444303
33
0.0000000000
40
0.0000000000
40
0.0000000000
40
0.0000000000
40
0.0000000000
40
1.0000000000
40
1.0000000000
40
1.0000000000
40
1.0000000000
10
-31.0938828351
20
19.1933034570
30
0.0000000000
10
-30.9377201215
20
19.0343231855
30
0.0000000000
10
-30.7815581916
20
18.8753421442
30
0.0000000000
10
-30.6253967050
20
18.7163606675
30
0.0000000000
11
-31.0938828351
21
19.1933034570
31
0.0000000000
11
-30.6253967050
21
18.7163606675
31
0.0000000000
0
SPLINE
5
3A3
100
AcDbEntity
8
0
100
AcDbSpline
62
9
6
CONTINUOUS
70
0
71
3
72
8
73
4
74
2
42
0.0000001000
43
0.0000001000
44
0.0000000001
12
0.2394950071
22
-0.2438198480
32
0.0000000000
13
0.2394944483
23
-0.2438203969
33
0.0000000000
40
0.0000000000
40
0.0000000000
40
0.0000000000
40
0.0000000000
40
1.0000000000
40
1.0000000000
40
1.0000000000
40
1.0000000000
10
-30.6253967050
20
18.7163606675
30
0.0000000000
10
-30.5455650360
20
18.6350873848
30
0.0000000000
10
-30.4657334828
20
18.5538139883
30
0.0000000000
10
-30.3859020000
20
18.4725405227
30
0.0000000000
11
-30.6253967050
21
18.7163606675
31
0.0000000000
11
-30.3859020000
21
18.4725405227
31
0.0000000000
0
SPLINE
5
3A4
100
AcDbEntity
8
0
100
AcDbSpline
62
9
6
CONTINUOUS
70
0
71
3
72
8
73
4
74
2
42
0.0000001000
43
0.0000001000
44
0.0000000001
12
0.0337802364
22
-0.0343878050
32
0.0000000000
13
0.0351418564
23
-0.0330334279
33
0.0000000000
40
0.0000000000
40
0.0000000000
40
0.0000000000
40
0.0000000000
40
1.0000000000
40
1.0000000000
40
1.0000000000
40
1.0000000000
10
-30.3859020000
20
18.4725405227
30
0.0000000000
10
-30.3746419213
20
18.4610779210
30
0.0000000000
10
-30.3631496265
20
18.4498355051
30
0.0000000000
10
-30.3514356744
20
18.4388243624
30
0.0000000000
11
-30.3859020000
21
18.4725405227
31
0.0000000000
11
-30.3514356744
21
18.4388243624
31
0.0000000000
0
SPLINE
5
3A5
100
AcDbEntity
8
0
100
AcDbSpline
62
9
6
CONTINUOUS
70
0
71
3
72
13
73
9
74
7
42
0.0000001000
43
0.0000001000
44
0.0000000001
12
0.5488660053
22
-0.5159353407
32
0.0000000000
13
0.7482738710
23
-0.0918455019
33
0.0000000000
40
0.0000000000
40
0.0000000000
40
0.0000000000
40
0.0000000000
40
0.1255618655
40
0.3091063868
40
0.4966495786
40
0.6990864075
40
0.9218918806
40
1.0000000000
40
1.0000000000
40
1.0000000000
40
1.0000000000
10
-30.3514356744
20
18.4388243624
30
0.0000000000
10
-30.3284634612
20
18.4172304278
30
0.0000000000
10
-30.2698121911
20
18.3662604406
30
0.0000000000
10
-30.1680501766
20
18.2938408504
30
0.0000000000
10
-30.0415614300
20
18.2244584678
30
0.0000000000
10
-29.8982447365
20
18.1675121149
30
0.0000000000
10
-29.7752403283
20
18.1370589826
30
0.0000000000
10
-29.7004096965
20
18.1259752193
30
0.0000000000
10
-29.6809276082
20
18.1235839261
30
0.0000000000
11
-30.3514356744
21
18.4388243624
31
0.0000000000
11
-30.2800412483
21
18.3767945505
31
0.0000000000
11
-30.1674487923
21
18.2966790562
31
0.0000000000
11
-30.0436438328
21
18.2287896319
31
0.0000000000
11
-29.9019972040
21
18.1725302122
31
0.0000000000
11
-29.7391699412
21
18.1322090827
31
0.0000000000
11
-29.6809276082
21
18.1235839261
31
0.0000000000
0
SPLINE
5
3A6
100
AcDbEntity
8
0
100
AcDbSpline
62
9
6
CONTINUOUS
70
0
71
3
72
8
73
4
74
2
42
0.0000001000
43
0.0000001000
44
0.0000000001
12
0.0601403770
22
-0.0073818201
32
0.0000000000
13
0.0604159653
23
-0.0042768995
33
0.0000000000
40
0.0000000000
40
0.0000000000
40
0.0000000000
40
0.0000000000
40
1.0000000000
40
1.0000000000
40
1.0000000000
40
1.0000000000
10
-29.6809276082
20
18.1235839261
30
0.0000000000
10
-29.6608808159
20
18.1211233194
30
0.0000000000
10
-29.6407722878
20
18.1191769972
30
0.0000000000
10
-29.6206336327
20
18.1177513640
30
0.0000000000
11
-29.6809276082
21
18.1235839261
31
0.0000000000
11
-29.6206336327
21
18.1177513640
31
0.0000000000
0
SPLINE
5
3A7
100
AcDbEntity
8
0
100
AcDbSpline
62
9
6
CONTINUOUS
70
0
71
3
72
8
73
4
74
2
42
0.0000001000
43
0.0000001000
44
0.0000000001
12
0.0622554983
22
-0.0044071216
32
0.0000000000
13
0.0623436818
23
-0.0010688223
33
0.0000000000
40
0.0000000000
40
0.0000000000
40
0.0000000000
40
0.0000000000
40
1.0000000000
40
1.0000000000
40
1.0000000000
40
1.0000000000
10
-29.6206336327
20
18.1177513640
30
0.0000000000
10
-29.5998818000
20
18.1162823235
30
0.0000000000
10
-29.5790979776
20
18.1153661624
30
0.0000000000
10
-29.5583167503
20
18.1150098883
30
0.0000000000
11
-29.6206336327
21
18.1177513640
31
0.0000000000
11
-29.5583167503
21
18.1150098883
31
0.0000000000
0
SPLINE
5
3A8
100
AcDbEntity
8
0
100
AcDbSpline
62
9
6
CONTINUOUS
70
0
71
3
72
10
73
6
74
4
42
0.0000001000
43
0.0000001000
44
0.0000000001
12
13.2346773180
22
-0.2323158772
32
0.0000000000
13
13.2346769262
23
-0.2323381992
33
0.0000000000
40
0.0000000000
40
0.0000000000
40
0.0000000000
40
0.0000000000
40
0.3329600273
40
0.6662926785
40
1.0000000000
40
1.0000000000
40
1.0000000000
40
1.0000000000
10
-29.5583167503
20
18.1150098883
30
0.0000000000
10
-28.0894439098
20
18.0892259214
30
0.0000000000
10
-25.1500543911
20
18.0376283172
30
0.0000000000
10
-20.7384953499
20
17.9601860000
30
0.0000000000
10
-17.7958091568
20
17.9085272172
30
0.0000000000
10
-16.3236396274
20
17.8826828978
30
0.0000000000
11
-29.5583167503
21
18.1150098883
31
0.0000000000
11
-25.1516982502
21
18.0376567624
31
0.0000000000
11
-20.7401482376
21
17.9602146004
31
0.0000000000
11
-16.3236396274
21
17.8826828978
31
0.0000000000
0
SPLINE
5
3A9
100
AcDbEntity
8
0
100
AcDbSpline
62
9
6
CONTINUOUS
70
0
71
3
72
8
73
4
74
2
42
0.0000001000
43
0.0000001000
44
0.0000000001
12
0.0014629717
22
0.1676527248
32
0.0000000000
13
0.0069966249
23
0.1737363538
33
0.0000000000
40
0.0000000000
40
0.0000000000
40
0.0000000000
40
0.0000000000
40
1.0000000000
40
1.0000000000
40
1.0000000000
40
1.0000000000
10
-16.3224527637
20
18.3557303949
30
0.0000000000
10
-16.3219651064
20
18.4116146365
30
0.0000000000
10
-16.3195568504
20
18.4695597564
30
0.0000000000
10
-16.3172246421
20
18.5274718743
30
0.0000000000
11
-16.3224527637
21
18.3557303949
31
0.0000000000
11
-16.3172246421
21
18.5274718743
31
0.0000000000
0
SPLINE
5
3AA
100
AcDbEntity
8
0
100
AcDbSpline
62
9
6
CONTINUOUS
70
0
71
3
72
10
73
6
74
4
42
0.0000001000
43
0.0000001000
44
0.0000000001
12
0.0343177374
22
0.8521592465
32
0.0000000000
13
-0.8223196566
23
0.0071762749
33
0.0000000000
40
0.0000000000
40
0.0000000000
40
0.0000000000
40
0.0000000000
40
0.3980178702
40
0.8386423711
40
1.0000000000
40
1.0000000000
40
1.0000000000
40
1.0000000000
10
-16.3172246421
20
18.5274718743
30
0.0000000000
10
-16.3126716178
20
18.6405300771
30
0.0000000000
10
-16.3036888790
20
18.8784840075
30
0.0000000000
10
-16.3731571108
20
19.0790804112
30
0.0000000000
10
-16.2782235803
20
19.3453067165
30
0.0000000000
10
-16.3224527637
20
19.3456926987
30
0.0000000000
11
-16.3172246421
21
18.5274718743
31
0.0000000000
11
-16.3192909805
21
18.8506897854
31
0.0000000000
11
-16.3192909805
21
19.2130377708
31
0.0000000000
11
-16.3224527637
21
19.3456926987
31
0.0000000000
0
SPLINE
5
3AB
100
AcDbEntity
8
0
100
AcDbSpline
62
9
6
CONTINUOUS
70
0
71
3
72
10
73
6
74
4
42
0.0000001000
43
0.0000001000
44
0.0000000001
12
0.0174477673
22
0.9998864720
32
0.0000000000
13
-0.9998863793
23
0.0174530817
33
0.0000000000
40
0.0000000000
40
0.0000000000
40
0.0000000000
40
0.0000000000
40
0.4895288635
40
0.8627065822
40
1.0000000000
40
1.0000000000
40
1.0000000000
40
1.0000000000
10
-14.3236396274
20
2.3914430546
30
0.0000000000
10
-14.3207925655
20
2.5546008173
30
0.0000000000
10
-14.2894848608
20
2.8725227331
30
0.0000000000
10
-14.3686479550
20
3.1170189342
30
0.0000000000
10
-14.2778803546
20
3.3904920187
30
0.0000000000
10
-14.3236396274
20
3.3912907497
30
0.0000000000
11
-14.3236396274
21
2.3914430546
31
0.0000000000
11
-14.3173325015
21
2.8809502271
31
0.0000000000
11
-14.3172160780
21
3.2541423659
31
0.0000000000
11
-14.3236396274
21
3.3912907497
31
0.0000000000
0
SPLINE
5
3AC
100
AcDbEntity
8
0
100
AcDbSpline
62
9
6
CONTINUOUS
70
0
71
3
72
10
73
6
74
4
42
0.0000001000
43
0.0000001000
44
0.0000000001
12
0.9998913290
22
0.0174531681
32
0.0000000000
13
-0.0174478537
23
0.9998914217
33
0.0000000000
40
0.0000000000
40
0.0000000000
40
0.0000000000
40
0.0000000000
40
0.1283216623
40
0.4948279259
40
1.0000000000
40
1.0000000000
40
1.0000000000
40
1.0000000000
10
-14.3236396274
20
-5.6430101143
30
0.0000000000
10
-14.2808703882
20
-5.6422635745
30
0.0000000000
10
-14.3674821256
20
-5.3779750987
30
0.0000000000
10
-14.2883112600
20
-5.1338028835
30
0.0000000000
10
-14.3207015712
20
-4.8115348270
30
0.0000000000
10
-14.3236396274
20
-4.6431624192
30
0.0000000000
11
-14.3236396274
21
-5.6430101143
31
0.0000000000
11
-14.3173325015
21
-5.5148379395
31
0.0000000000
11
-14.3172160780
21
-5.1483156998
31
0.0000000000
11
-14.3236396274
21
-4.6431624192
31
0.0000000000
0
SPLINE
5
3AD
100
AcDbEntity
8
0
100
AcDbSpline
62
9
6
CONTINUOUS
70
0
71
3
72
9
73
5
74
3
42
0.0000001000
43
0.0000001000
44
0.0000000001
12
0.3106723181
22
0.0045873728
32
0.0000000000
13
0.2986890674
23
0.0867116779
33
0.0000000000
40
0.0000000000
40
0.0000000000
40
0.0000000000
40
0.0000000000
40
0.6013753803
40
1.0000000000
40
1.0000000000
40
1.0000000000
40
1.0000000000
10
-16.3236396274
20
-20.1344022621
30
0.0000000000
10
-16.2613627329
20
-20.1334826844
30
0.0000000000
10
-16.1577345439
20
-20.1237363835
30
0.0000000000
10
-16.0565804003
20
-20.1003018503
30
0.0000000000
10
-16.0168921284
20
-20.0887800471
30
0.0000000000
11
-16.3236396274
21
-20.1344022621
31
0.0000000000
11
-16.1376185941
21
-20.1168099322
31
0.0000000000
11
-16.0168921284
21
-20.0887800471
31
0.0000000000
0
SPLINE
5
3AE
100
AcDbEntity
8
0
100
AcDbSpline
62
9
6
CONTINUOUS
70
0
71
3
72
14
73
10
74
8
42
0.0000001000
43
0.0000001000
44
0.0000000001
12
1.0777967351
22
0.3128924812
32
0.0000000000
13
-0.0000135777
23
1.1211595872
33
0.0000000000
40
0.0000000000
40
0.0000000000
40
0.0000000000
40
0.0000000000
40
0.0553344338
40
0.2220771770
40
0.3862263467
40
0.5436586010
40
0.6921829985
40
0.8381462981
40
1.0000000000
40
1.0000000000
40
1.0000000000
40
1.0000000000
10
-16.0168921284
20
-20.0887800471
30
0.0000000000
10
-15.9970123710
20
-20.0830088044
30
0.0000000000
10
-15.9178663513
20
-20.0576513460
30
0.0000000000
10
-15.7855259453
20
-19.9982094012
30
0.0000000000
10
-15.6342023264
20
-19.8943233631
30
0.0000000000
10
-15.5101006057
20
-19.7683643848
30
0.0000000000
10
-15.4173166676
20
-19.6258125161
30
0.0000000000
10
-15.3558635541
20
-19.4653743135
30
0.0000000000
10
-15.3410917249
20
-19.3497789011
30
0.0000000000
10
-15.3410924574
20
-19.2892909579
30
0.0000000000
11
-16.0168921284
21
-20.0887800471
31
0.0000000000
11
-15.9577605646
21
-20.0698246312
31
0.0000000000
11
-15.7873904437
21
-19.9928665965
31
0.0000000000
11
-15.6359665032
21
-19.8882694623
31
0.0000000000
11
-15.5125022881
21
-19.7621298723
31
0.0000000000
11
-15.4220827843
21
-19.6222975635
31
0.0000000000
11
-15.3640026201
21
-19.4693027517
31
0.0000000000
11
-15.3410924574
21
-19.2892909579
31
0.0000000000
0
SPLINE
5
3AF
100
AcDbEntity
8
0
100
AcDbSpline
62
9
6
CONTINUOUS
70
0
71
3
72
15
73
11
74
9
42
0.0000001000
43
0.0000001000
44
0.0000000001
12
0.0000375090
22
1.4320312262
32
0.0000000000
13
-1.4318748873
23
0.0211598978
33
0.0000000000
40
0.0000000000
40
0.0000000000
40
0.0000000000
40
0.0000000000
40
0.1455848150
40
0.2818933230
40
0.4147780552
40
0.5437757299
40
0.6679372045
40
0.7863733679
40
0.8974934313
40
1.0000000000
40
1.0000000000
40
1.0000000000
40
1.0000000000
10
-15.3410930905
20
17.0371244115
30
0.0000000000
10
-15.3410912702
20
17.1066184119
30
0.0000000000
10
-15.3609343362
20
17.2420189542
30
0.0000000000
10
-15.4430927864
20
17.4244123961
30
0.0000000000
10
-15.5610003761
20
17.5755535952
30
0.0000000000
10
-15.7030027192
20
17.6948312448
30
0.0000000000
10
-15.8581097231
20
17.7826738060
30
0.0000000000
10
-16.0171659419
20
17.8412895020
30
0.0000000000
10
-16.1727353509
20
17.8741034444
30
0.0000000000
10
-16.2747141002
20
17.8819598880
30
0.0000000000
10
-16.3236396274
20
17.8826828975
30
0.0000000000
11
-15.3410930905
21
17.0371244115
31
0.0000000000
11
-15.3711877437
21
17.2434228765
31
0.0000000000
11
-15.4505371042
21
17.4217651144
31
0.0000000000
11
-15.5669881315
21
17.5722688619
31
0.0000000000
11
-15.7080398526
21
17.6915546696
31
0.0000000000
11
-15.8625496033
21
17.7795358179
31
0.0000000000
11
-16.0216060203
21
17.8384142475
31
0.0000000000
11
-16.1772837060
21
17.8713685769
31
0.0000000000
11
-16.3236396274
21
17.8826828975
31
0.0000000000
0
SPLINE
5
3B0
100
AcDbEntity
8
0
100
AcDbSpline
62
9
6
CONTINUOUS
70
0
71
3
72
10
73
6
74
4
42
0.0000001000
43
0.0000001000
44
0.0000000001
12
1.2710626558
22
0.0141809476
32
0.0000000000
13
0.0000000000
23
1.2711417600
33
0.0000000000
40
0.0000000000
40
0.0000000000
40
0.0000000000
40
0.0000000000
40
0.3924033764
40
0.7300450918
40
1.0000000000
40
1.0000000000
40
1.0000000000
40
1.0000000000
10
-16.3236396274
20
-18.7613749122
30
0.0000000000
10
-16.1573832015
20
-18.7595200283
30
0.0000000000
10
-15.8468376662
20
-18.7065261973
30
0.0000000000
10
-15.4652425780
20
-18.4925849093
30
0.0000000000
10
-15.3410920338
20
-18.2366852619
30
0.0000000000
10
-15.3410920338
20
-18.1223016095
30
0.0000000000
11
-16.3236396274
21
-18.7613749122
31
0.0000000000
11
-15.8327779987
21
-18.6727373400
31
0.0000000000
11
-15.4726733564
21
-18.4392226327
31
0.0000000000
11
-15.3410920338
21
-18.1223016095
31
0.0000000000
0
SPLINE
5
3B1
100
AcDbEntity
8
0
100
AcDbSpline
62
9
6
CONTINUOUS
70
0
71
3
72
10
73
6
74
4
42
0.0000001000
43
0.0000001000
44
0.0000000001
12
1.2710626541
22
-0.0141809476
32
0.0000000000
13
0.0000000000
23
-1.2711417584
33
0.0000000000
40
0.0000000000
40
0.0000000000
40
0.0000000000
40
0.0000000000
40
0.3924035468
40
0.7300449787
40
1.0000000000
40
1.0000000000
40
1.0000000000
40
1.0000000000
10
-16.3236396274
20
16.5096555478
30
0.0000000000
10
-16.1573831295
20
16.5078006631
30
0.0000000000
10
-15.8468376299
20
16.4548068162
30
0.0000000000
10
-15.4652425979
20
16.2408655155
30
0.0000000000
10
-15.3410920338
20
15.9849659450
30
0.0000000000
10
-15.3410920338
20
15.8705822449
30
0.0000000000
11
-16.3236396274
21
16.5096555478
31
0.0000000000
11
-15.8327777933
21
16.4210178979
31
0.0000000000
11
-15.4726734576
21
16.1875033813
31
0.0000000000
11
-15.3410920338
21
15.8705822449
31
0.0000000000
0
SPLINE
5
3B2
100
AcDbEntity
8
0
100
AcDbSpline
62
0
6
CONTINUOUS
70
0
71
3
72
10
73
6
74
4
42
0.0000001000
43
0.0000001000
44
0.0000000001
12
-3.9999099472
22
-0.0844306542
32
0.0000000000
13
-4.0000789575
23
-0.0760029924
33
0.0000000000
40
0.0000000000
40
0.0000000000
40
0.0000000000
40
0.0000000000
40
0.3305940148
40
0.6639352644
40
1.0000000000
40
1.0000000000
40
1.0000000000
40
1.0000000000
10
-35.7410920338
20
-24.2257501571
30
0.0000000000
10
-36.1818741299
20
-24.2350542468
30
0.0000000000
10
-37.0671087885
20
-24.2533826826
30
0.0000000000
10
-38.4004431553
20
-24.2800193529
30
0.0000000000
10
-39.2929968747
20
-24.2972542689
30
0.0000000000
10
-39.7410920338
20
-24.3057682441
30
0.0000000000
11
-35.7410920338
21
-24.2257501571
31
0.0000000000
11
-37.0634490946
21
-24.2531473188
31
0.0000000000
11
-38.3968147424
21
-24.2797990603
31
0.0000000000
11
-39.7410920338
21
-24.3057682441
31
0.0000000000
0
SPLINE
5
3B3
100
AcDbEntity
8
0
100
AcDbSpline
62
9
6
CONTINUOUS
70
0
71
3
72
9
73
5
74
3
42
0.0000001000
43
0.0000001000
44
0.0000000001
12
0.1229558675
22
0.0021462027
32
0.0000000000
13
-0.0004145560
23
0.1229738984
33
0.0000000000
40
0.0000000000
40
0.0000000000
40
0.0000000000
40
0.0000000000
40
0.4552800547
40
1.0000000000
40
1.0000000000
40
1.0000000000
40
1.0000000000
10
-31.7702372359
20
-22.2565481540
30
0.0000000000
10
-31.7515774512
20
-22.2562224462
30
0.0000000000
10
-31.7803724678
20
-22.1859275187
30
0.0000000000
10
-31.7701619636
20
-22.1559068584
30
0.0000000000
10
-31.7702372359
20
-22.1335780800
30
0.0000000000
11
-31.7702372359
21
-22.2565481540
31
0.0000000000
11
-31.7697119831
21
-22.2005627366
31
0.0000000000
11
-31.7702372359
21
-22.1335780800
31
0.0000000000
0
SPLINE
5
3B4
100
AcDbEntity
8
0
100
AcDbSpline
62
9
6
CONTINUOUS
70
0
71
3
72
12
73
8
74
6
42
0.0000001000
43
0.0000001000
44
0.0000000001
12
0.0043630374
22
-0.4999926404
32
0.0000000000
13
-0.4999926374
23
-0.0043633836
33
0.0000000000
40
0.0000000000
40
0.0000000000
40
0.0000000000
40
0.0000000000
40
0.2537057957
40
0.5123313376
40
0.7500065191
40
0.9287127615
40
1.0000000000
40
1.0000000000
40
1.0000000000
40
1.0000000000
10
-25.2367287661
20
-21.1752248099
30
0.0000000000
10
-25.2363597901
20
-21.2175084868
30
0.0000000000
10
-25.2350981025
20
-21.3035534131
30
0.0000000000
10
-25.2371547656
20
-21.4256341407
30
0.0000000000
10
-25.2284721680
20
-21.5472612083
30
0.0000000000
10
-25.2481521323
20
-21.6076150748
30
0.0000000000
10
-25.2248477346
20
-21.6751020869
30
0.0000000000
10
-25.2367287661
20
-21.6752057715
30
0.0000000000
11
-25.2367287661
21
-21.1752248099
31
0.0000000000
11
-25.2357641261
21
-21.3020770024
31
0.0000000000
11
-25.2351090843
21
-21.4313911341
31
0.0000000000
11
-25.2349336365
21
-21.5502313706
31
0.0000000000
11
-25.2354232119
21
-21.6395852372
31
0.0000000000
11
-25.2367287661
21
-21.6752057715
31
0.0000000000
0
SPLINE
5
3B5
100
AcDbEntity
8
0
100
AcDbSpline
62
0
6
CONTINUOUS
70
0
71
3
72
10
73
6
74
4
42
0.0000001000
43
0.0000001000
44
0.0000000001
12
-0.2159686154
22
0.2290503491
32
0.0000000000
13
-0.1010290276
23
0.2990257533
33
0.0000000000
40
0.0000000000
40
0.0000000000
40
0.0000000000
40
0.0000000000
40
0.4072756332
40
0.7790423255
40
1.0000000000
40
1.0000000000
40
1.0000000000
40
1.0000000000
10
-35.5445825151
20
19.9480355414
30
0.0000000000
10
-35.5739021000
20
19.9791310834
30
0.0000000000
10
-35.6299850997
20
20.0387148343
30
0.0000000000
10
-35.6938729431
20
20.1221880888
30
0.0000000000
10
-35.7215745214
20
20.1790356804
30
0.0000000000
10
-35.7290155677
20
20.2010596921
30
0.0000000000
11
-35.5445825151
21
19.9480355414
31
0.0000000000
11
-35.6308163383
21
20.0429189689
31
0.0000000000
11
-35.6995083728
21
20.1376763508
31
0.0000000000
11
-35.7290155677
21
20.2010596921
31
0.0000000000
0
SPLINE
5
3B6
100
AcDbEntity
8
0
100
AcDbSpline
62
0
6
CONTINUOUS
70
0
71
3
72
8
73
4
74
2
42
0.0000001000
43
0.0000001000
44
0.0000000001
12
-0.0106919555
22
0.0316460538
32
0.0000000000
13
-0.0062345748
23
0.0327281675
33
0.0000000000
40
0.0000000000
40
0.0000000000
40
0.0000000000
40
0.0000000000
40
1.0000000000
40
1.0000000000
40
1.0000000000
40
1.0000000000
10
-35.7290155677
20
20.2010596921
30
0.0000000000
10
-35.7325795529
20
20.2116083767
30
0.0000000000
10
-35.7354815573
20
20.2223479693
30
0.0000000000
10
-35.7375597490
20
20.2332573584
30
0.0000000000
11
-35.7290155677
21
20.2010596921
31
0.0000000000
11
-35.7375597490
21
20.2332573584
31
0.0000000000
0
SPLINE
5
3B7
100
AcDbEntity
8
0
100
AcDbSpline
62
0
6
CONTINUOUS
70
0
71
3
72
10
73
6
74
4
42
0.0000001000
43
0.0000001000
44
0.0000000001
12
0.0568241409
22
0.2983268918
32
0.0000000000
13
0.2068745488
23
0.2224421923
33
0.0000000000
40
0.0000000000
40
0.0000000000
40
0.0000000000
40
0.0000000000
40
0.3365196394
40
0.7214672677
40
1.0000000000
40
1.0000000000
40
1.0000000000
40
1.0000000000
10
-35.7375597490
20
-22.4849767230
30
0.0000000000
10
-35.7311856025
20
-22.4515124370
30
0.0000000000
10
-35.7008931479
20
-22.3831872746
30
0.0000000000
10
-35.6393312129
20
-22.3025984378
30
0.0000000000
10
-35.5942161692
20
-22.2528147757
30
0.0000000000
10
-35.5750090581
20
-22.2321622985
30
0.0000000000
11
-35.7375597490
21
-22.4849767230
31
0.0000000000
11
-35.6998539638
21
-22.3899890007
31
0.0000000000
11
-35.6313427453
21
-22.2952632015
31
0.0000000000
11
-35.5750090581
21
-22.2321622985
31
0.0000000000
0
SPLINE
5
3B8
100
AcDbEntity
8
0
100
AcDbSpline
62
0
6
CONTINUOUS
70
0
71
3
72
8
73
4
74
2
42
0.0000001000
43
0.0000001000
44
0.0000000001
12
0.0302752884
22
0.0325535527
32
0.0000000000
13
0.0305074561
23
0.0323196191
33
0.0000000000
40
0.0000000000
40
0.0000000000
40
0.0000000000
40
0.0000000000
40
1.0000000000
40
1.0000000000
40
1.0000000000
40
1.0000000000
10
-35.5750090581
20
-22.2321622985
30
0.0000000000
10
-35.5649172953
20
-22.2213111143
30
0.0000000000
10
-35.5547516671
20
-22.2105281124
30
0.0000000000
10
-35.5445825151
20
-22.1997549060
30
0.0000000000
11
-35.5750090581
21
-22.2321622985
31
0.0000000000
11
-35.5445825151
21
-22.1997549060
31
0.0000000000
0
SPLINE
5
3B9
100
AcDbEntity
8
0
100
AcDbSpline
62
9
6
CONTINUOUS
70
0
71
3
72
10
73
6
74
4
42
0.0000001000
43
0.0000001000
44
0.0000000001
12
-13.2346769262
22
-0.2323381992
32
0.0000000000
13
-13.2346773180
23
-0.2323158772
33
0.0000000000
40
0.0000000000
40
0.0000000000
40
0.0000000000
40
0.0000000000
40
0.3337093825
40
0.6670409966
40
1.0000000000
40
1.0000000000
40
1.0000000000
40
1.0000000000
10
-16.3236396274
20
-20.1344022629
30
0.0000000000
10
-17.7958182488
20
-20.1602467419
30
0.0000000000
10
-20.7385089589
20
-20.2119056033
30
0.0000000000
10
-25.1500680001
20
-20.2893479207
30
0.0000000000
10
-28.0894484268
20
-20.3409453653
30
0.0000000000
10
-29.5583167503
20
-20.3667292529
30
0.0000000000
11
-16.3236396274
21
-20.1344022629
31
0.0000000000
11
-20.7401755138
21
-20.2119344438
31
0.0000000000
11
-25.1517118012
21
-20.2893763649
31
0.0000000000
11
-29.5583167503
21
-20.3667292529
31
0.0000000000
0
SPLINE
5
3BA
100
AcDbEntity
8
0
100
AcDbSpline
62
9
6
CONTINUOUS
70
0
71
3
72
10
73
6
74
4
42
0.0000001000
43
0.0000001000
44
0.0000000001
12
0.0075067523
22
0.6390371554
32
0.0000000000
13
-0.0026868734
23
0.6390755964
33
0.0000000000
40
0.0000000000
40
0.0000000000
40
0.0000000000
40
0.0000000000
40
0.2745596653
40
0.6114117316
40
1.0000000000
40
1.0000000000
40
1.0000000000
40
1.0000000000
10
-16.3236396274
20
-18.7613749122
30
0.0000000000
10
-16.3229526102
20
-18.7028903031
30
0.0000000000
10
-16.3218876774
20
-18.5726465006
30
0.0000000000
10
-16.3212580110
20
-18.3596196221
30
0.0000000000
10
-16.3215465623
20
-18.2050807026
30
0.0000000000
10
-16.3218945914
20
-18.1223016094
30
0.0000000000
11
-16.3236396274
21
-18.7613749122
31
0.0000000000
11
-16.3221332897
21
-18.5859154455
31
0.0000000000
11
-16.3214512918
21
-18.3706406880
31
0.0000000000
11
-16.3218945914
21
-18.1223016094
31
0.0000000000
0
SPLINE
5
3BB
100
AcDbEntity
8
0
100
AcDbSpline
62
9
6
CONTINUOUS
70
0
71
3
72
10
73
6
74
4
42
0.0000001000
43
0.0000001000
44
0.0000000001
12
0.0026868732
22
0.6390755499
32
0.0000000000
13
-0.0075067518
23
0.6390371088
33
0.0000000000
40
0.0000000000
40
0.0000000000
40
0.0000000000
40
0.0000000000
40
0.3269798839
40
0.6687885811
40
1.0000000000
40
1.0000000000
40
1.0000000000
40
1.0000000000
10
-16.3218945914
20
15.8705822448
30
0.0000000000
10
-16.3216017403
20
15.9402371944
30
0.0000000000
10
-16.3212847818
20
16.0827074009
30
0.0000000000
10
-16.3217356310
20
16.2957345857
30
0.0000000000
10
-16.3228108534
20
16.4391034186
30
0.0000000000
10
-16.3236396274
20
16.5096555478
30
0.0000000000
11
-16.3218945914
21
15.8705822448
31
0.0000000000
11
-16.3214396493
21
16.0795484454
31
0.0000000000
11
-16.3219394808
21
16.2979913854
31
0.0000000000
11
-16.3236396274
21
16.5096555478
31
0.0000000000
0
SPLINE
5
3BC
100
AcDbEntity
8
0
100
AcDbSpline
62
9
6
CONTINUOUS
70
0
71
3
72
10
73
6
74
4
42
0.0000001000
43
0.0000001000
44
0.0000000001
12
0.3058599512
22
-0.1219410035
32
0.0000000000
13
0.2738302481
23
0.1878895148
33
0.0000000000
40
0.0000000000
40
0.0000000000
40
0.0000000000
40
0.0000000000
40
0.4247202885
40
0.7877649987
40
1.0000000000
40
1.0000000000
40
1.0000000000
40
1.0000000000
10
-31.7702372359
20
-22.1335780800
30
0.0000000000
10
-31.7269355937
20
-22.1508416861
30
0.0000000000
10
-31.6433552274
20
-22.1769601351
30
0.0000000000
10
-31.5308686044
20
-22.1729395015
30
0.0000000000
10
-31.4716263512
20
-22.1456817184
30
0.0000000000
10
-31.4522542302
20
-22.1323894746
30
0.0000000000
11
-31.7702372359
21
-22.1335780800
31
0.0000000000
11
-31.6353486813
21
-22.1704922600
31
0.0000000000
11
-31.5160825980
21
-22.1623987419
31
0.0000000000
11
-31.4522542302
21
-22.1323894746
31
0.0000000000
0
SPLINE
5
3BD
100
AcDbEntity
8
0
100
AcDbSpline
62
9
6
CONTINUOUS
70
0
71
3
72
8
73
4
74
2
42
0.0000001000
43
0.0000001000
44
0.0000000001
12
0.0289008482
22
0.0198304109
32
0.0000000000
13
0.0245735957
23
0.0245735957
33
0.0000000000
40
0.0000000000
40
0.0000000000
40
0.0000000000
40
0.0000000000
40
1.0000000000
40
1.0000000000
40
1.0000000000
40
1.0000000000
10
-31.4522542302
20
-22.1323894746
30
0.0000000000
10
-31.4426206141
20
-22.1257793376
30
0.0000000000
10
-31.4336012471
20
-22.1183688956
30
0.0000000000
10
-31.4254100486
20
-22.1101776970
30
0.0000000000
11
-31.4522542302
21
-22.1323894746
31
0.0000000000
11
-31.4254100486
21
-22.1101776970
31
0.0000000000
0
SPLINE
5
3BE
100
AcDbEntity
8
0
100
AcDbSpline
62
9
6
CONTINUOUS
70
0
71
3
72
10
73
6
74
4
42
0.0000001000
43
0.0000001000
44
0.0000000001
12
-0.2577161865
22
-0.2577162450
32
0.0000000000
13
-0.3261892769
23
0.1625910554
33
0.0000000000
40
0.0000000000
40
0.0000000000
40
0.0000000000
40
0.0000000000
40
0.2741764905
40
0.6024602046
40
1.0000000000
40
1.0000000000
40
1.0000000000
40
1.0000000000
10
-30.0410748127
20
-20.7258424611
30
0.0000000000
10
-30.0646280525
20
-20.7493957063
30
0.0000000000
10
-30.1347545547
20
-20.7834196333
30
0.0000000000
10
-30.2590381159
20
-20.7768911279
30
0.0000000000
10
-30.3426775925
20
-20.7458054171
30
0.0000000000
10
-30.3859019986
20
-20.7242599454
30
0.0000000000
11
-30.0410748127
21
-20.7258424611
31
0.0000000000
11
-30.1294401155
21
-20.7725025882
31
0.0000000000
11
-30.2490870313
21
-20.7719534926
31
0.0000000000
11
-30.3859019986
21
-20.7242599454
31
0.0000000000
0
SPLINE
5
3BF
100
AcDbEntity
8
0
100
AcDbSpline
62
9
6
CONTINUOUS
70
0
71
3
72
9
73
5
74
3
42
0.0000001000
43
0.0000001000
44
0.0000000001
12
0.1541804765
22
0.0028339933
32
0.0000000000
13
-0.0015905789
23
0.1541983169
33
0.0000000000
40
0.0000000000
40
0.0000000000
40
0.0000000000
40
0.0000000000
40
0.4582429607
40
1.0000000000
40
1.0000000000
40
1.0000000000
40
1.0000000000
10
-29.5583167112
20
-20.5209260704
30
0.0000000000
10
-29.5347660052
20
-20.5204931845
30
0.0000000000
10
-29.5709978418
20
-20.4323059729
30
0.0000000000
10
-29.5580296092
20
-20.3945715294
30
0.0000000000
10
-29.5583168450
20
-20.3667255215
30
0.0000000000
11
-29.5583167112
21
-20.5209260704
31
0.0000000000
11
-29.5576406176
21
-20.4502652524
31
0.0000000000
11
-29.5583168450
21
-20.3667255215
31
0.0000000000
0
SPLINE
5
3C0
100
AcDbEntity
8
0
100
AcDbSpline
62
9
6
CONTINUOUS
70
0
71
3
72
9
73
5
74
3
42
0.0000001000
43
0.0000001000
44
0.0000000001
12
0.1554913750
22
0.0027362841
32
0.0000000000
13
-0.0016503147
23
0.1555066925
33
0.0000000000
40
0.0000000000
40
0.0000000000
40
0.0000000000
40
0.0000000000
40
0.4583635751
40
1.0000000000
40
1.0000000000
40
1.0000000000
40
1.0000000000
10
-16.3236396278
20
-20.2899116729
30
0.0000000000
10
-16.2998824336
20
-20.2894936019
30
0.0000000000
10
-16.3364271097
20
-20.2005252248
30
0.0000000000
10
-16.3233416716
20
-20.1624782918
30
0.0000000000
10
-16.3236396285
20
-20.1344022621
30
0.0000000000
11
-16.3236396278
21
-20.2899116729
31
0.0000000000
11
-16.3229567840
21
-20.2186323263
31
0.0000000000
11
-16.3236396285
21
-20.1344022621
31
0.0000000000
0
SPLINE
5
3C1
100
AcDbEntity
8
0
100
AcDbSpline
62
9
6
CONTINUOUS
70
0
71
3
72
10
73
6
74
4
42
0.0000001000
43
0.0000001000
44
0.0000000001
12
-0.1226573476
22
-0.0021448578
32
0.0000000000
13
0.0004872803
23
0.1226751315
33
0.0000000000
40
0.0000000000
40
0.0000000000
40
0.0000000000
40
0.0000000000
40
0.2069370766
40
0.5133641901
40
1.0000000000
40
1.0000000000
40
1.0000000000
40
1.0000000000
10
-35.5445825151
20
-22.3224295959
30
0.0000000000
10
-35.5530432994
20
-22.3225775461
30
0.0000000000
10
-35.5391305390
20
-22.2870222536
30
0.0000000000
10
-35.5478620978
20
-22.2553042147
30
0.0000000000
10
-35.5446615578
20
-22.2196542766
30
0.0000000000
10
-35.5445825151
20
-22.1997549060
30
0.0000000000
11
-35.5445825151
21
-22.3224295959
31
0.0000000000
11
-35.5448158665
21
-22.2970444351
31
0.0000000000
11
-35.5447769724
21
-22.2594531722
31
0.0000000000
11
-35.5445825151
21
-22.1997549060
31
0.0000000000
0
SPLINE
5
3C2
100
AcDbEntity
8
0
100
AcDbSpline
62
9
6
CONTINUOUS
70
0
71
3
72
10
73
6
74
4
42
0.0000001000
43
0.0000001000
44
0.0000000001
12
-0.2259719334
22
0.2259719333
32
0.0000000000
13
-0.3037125161
23
-0.1022145559
33
0.0000000000
40
0.0000000000
40
0.0000000000
40
0.0000000000
40
0.0000000000
40
0.3274227070
40
0.7014860506
40
1.0000000000
40
1.0000000000
40
1.0000000000
40
1.0000000000
10
-31.4254100486
20
19.8584583324
30
0.0000000000
10
-31.4500728293
20
19.8831211131
30
0.0000000000
10
-31.5190678200
20
19.9209642930
30
0.0000000000
10
-31.6279067017
20
19.9240774334
30
0.0000000000
10
-31.6985852324
20
19.9082617884
30
0.0000000000
10
-31.7288060400
20
19.8980909648
30
0.0000000000
11
-31.4254100486
21
19.8584583324
31
0.0000000000
11
-31.5160826008
21
19.9106793800
31
0.0000000000
11
-31.6353486842
21
19.9187728980
31
0.0000000000
11
-31.7288060400
21
19.8980909648
31
0.0000000000
0
SPLINE
5
3C3
100
AcDbEntity
8
0
100
AcDbSpline
62
9
6
CONTINUOUS
70
0
71
3
72
8
73
4
74
2
42
0.0000001000
43
0.0000001000
44
0.0000000001
12
-0.0422454568
22
-0.0142177236
32
0.0000000000
13
-0.0405510064
23
-0.0182086618
33
0.0000000000
40
0.0000000000
40
0.0000000000
40
0.0000000000
40
0.0000000000
40
1.0000000000
40
1.0000000000
40
1.0000000000
40
1.0000000000
10
-31.7288060400
20
19.8980909648
30
0.0000000000
10
-31.7428878589
20
19.8933517236
30
0.0000000000
10
-31.7567202338
20
19.8879282694
30
0.0000000000
10
-31.7702372359
20
19.8818587154
30
0.0000000000
11
-31.7288060400
21
19.8980909648
31
0.0000000000
11
-31.7702372359
21
19.8818587154
31
0.0000000000
0
SPLINE
5
3C4
100
AcDbEntity
8
0
100
AcDbSpline
62
9
6
CONTINUOUS
70
0
71
3
72
9
73
5
74
3
42
0.0000001000
43
0.0000001000
44
0.0000000001
12
0.0012235377
22
0.1229685102
32
0.0000000000
13
-0.1229558675
23
0.0021462027
33
0.0000000000
40
0.0000000000
40
0.0000000000
40
0.0000000000
40
0.0000000000
40
0.5447199453
40
1.0000000000
40
1.0000000000
40
1.0000000000
40
1.0000000000
10
-31.7702372359
20
19.8818587154
30
0.0000000000
10
-31.7700150741
20
19.9041865155
30
0.0000000000
10
-31.7804338532
20
19.9342085630
30
0.0000000000
10
-31.7515774512
20
20.0045030816
30
0.0000000000
10
-31.7702372359
20
20.0048287894
30
0.0000000000
11
-31.7702372359
21
19.8818587154
31
0.0000000000
11
-31.7697119831
21
19.9488433720
31
0.0000000000
11
-31.7702372359
21
20.0048287894
31
0.0000000000
0
SPLINE
5
3C5
100
AcDbEntity
8
0
100
AcDbSpline
62
9
6
CONTINUOUS
70
0
71
3
72
11
73
7
74
5
42
0.0000001000
43
0.0000001000
44
0.0000000001
12
-0.0004881091
22
0.1226751175
32
0.0000000000
13
0.1226759299
23
0.0001973264
33
0.0000000000
40
0.0000000000
40
0.0000000000
40
0.0000000000
40
0.0000000000
40
0.2964657322
40
0.5651891906
40
0.7879326126
40
1.0000000000
40
1.0000000000
40
1.0000000000
40
1.0000000000
10
-35.5445825151
20
19.9480355414
30
0.0000000000
10
-35.5446307510
20
19.9601585309
30
0.0000000000
10
-35.5442409451
20
19.9827852420
30
0.0000000000
10
-35.5461863669
20
20.0169066712
30
0.0000000000
10
-35.5407257478
20
20.0400596226
30
0.0000000000
10
-35.5532543698
20
20.0706962825
30
0.0000000000
10
-35.5445825151
20
20.0707102313
30
0.0000000000
11
-35.5445825151
21
19.9480355414
31
0.0000000000
11
-35.5447130191
21
19.9844045637
31
0.0000000000
11
-35.5447966711
21
20.0173704003
31
0.0000000000
11
-35.5448163949
21
20.0446956850
31
0.0000000000
11
-35.5445825151
21
20.0707102313
31
0.0000000000
0
SPLINE
5
3C6
100
AcDbEntity
8
0
100
AcDbSpline
62
9
6
CONTINUOUS
70
0
71
3
72
10
73
6
74
4
42
0.0000001000
43
0.0000001000
44
0.0000000001
12
-0.2577150240
22
0.2577163144
32
0.0000000000
13
-0.3261895744
23
-0.1625887261
33
0.0000000000
40
0.0000000000
40
0.0000000000
40
0.0000000000
40
0.0000000000
40
0.2741775180
40
0.6024611519
40
1.0000000000
40
1.0000000000
40
1.0000000000
40
1.0000000000
10
-30.0410754446
20
18.4741224646
30
0.0000000000
10
-30.0646286665
20
18.4976758044
30
0.0000000000
10
-30.1347548458
20
18.5317001371
30
0.0000000000
10
-30.2590382084
20
18.5251726743
30
0.0000000000
10
-30.3426776083
20
18.4940876162
30
0.0000000000
10
-30.3859019508
20
18.4725425046
30
0.0000000000
11
-30.0410754446
21
18.4741224646
31
0.0000000000
11
-30.1294406451
21
18.5207831335
31
0.0000000000
11
-30.2490872821
21
18.5202349259
31
0.0000000000
11
-30.3859019508
21
18.4725425046
31
0.0000000000
0
SPLINE
5
3C7
100
AcDbEntity
8
0
100
AcDbSpline
62
9
6
CONTINUOUS
70
0
71
3
72
9
73
5
74
3
42
0.0000001000
43
0.0000001000
44
0.0000000001
12
0.1541770571
22
-0.0026911705
32
0.0000000000
13
-0.0015908059
23
-0.1541923367
33
0.0000000000
40
0.0000000000
40
0.0000000000
40
0.0000000000
40
0.0000000000
40
0.4582385414
40
1.0000000000
40
1.0000000000
40
1.0000000000
40
1.0000000000
10
-29.5583167503
20
18.2692044568
30
0.0000000000
10
-29.5347667938
20
18.2687933908
30
0.0000000000
10
-29.5709973298
20
18.1805750277
30
0.0000000000
10
-29.5580294712
20
18.1428550434
30
0.0000000000
10
-29.5583167503
20
18.1150098883
30
0.0000000000
11
-29.5583167503
21
18.2692044568
31
0.0000000000
11
-29.5576404448
21
18.1985470616
31
0.0000000000
11
-29.5583167503
21
18.1150098883
31
0.0000000000
0
SPLINE
5
3C8
100
AcDbEntity
8
0
100
AcDbSpline
62
9
6
CONTINUOUS
70
0
71
3
72
9
73
5
74
3
42
0.0000001000
43
0.0000001000
44
0.0000000001
12
0.1554916968
22
-0.0027179431
32
0.0000000000
13
-0.0016254835
23
-0.1555069542
33
0.0000000000
40
0.0000000000
40
0.0000000000
40
0.0000000000
40
0.0000000000
40
0.4583648551
40
1.0000000000
40
1.0000000000
40
1.0000000000
40
1.0000000000
10
-16.3236396274
20
18.0381923083
30
0.0000000000
10
-16.2998823177
20
18.0377770384
30
0.0000000000
10
-16.3364252011
20
17.9488041508
30
0.0000000000
10
-16.3233461545
20
17.9107589081
30
0.0000000000
10
-16.3236396275
20
17.8826828975
30
0.0000000000
11
-16.3236396274
21
18.0381923083
31
0.0000000000
11
-16.3229567795
21
17.9669127626
31
0.0000000000
11
-16.3236396275
21
17.8826828975
31
0.0000000000
0
SPLINE
5
3C9
100
AcDbEntity
8
0
100
AcDbSpline
62
9
6
CONTINUOUS
70
0
71
3
72
10
73
6
74
4
42
0.0000001000
43
0.0000001000
44
0.0000000001
12
-0.3411405671
22
-0.0059511592
32
0.0000000000
13
-0.3254935757
23
-0.1030946866
33
0.0000000000
40
0.0000000000
40
0.0000000000
40
0.0000000000
40
0.0000000000
40
0.4147349526
40
0.8506047480
40
1.0000000000
40
1.0000000000
40
1.0000000000
40
1.0000000000
10
-29.5583167503
20
-20.3667292529
30
0.0000000000
10
-29.6054777227
20
-20.3675519708
30
0.0000000000
10
-29.7021967028
20
-20.3751023009
30
0.0000000000
10
-29.8139274206
20
-20.3978285349
30
0.0000000000
10
-29.8778588589
20
-20.4165732577
30
0.0000000000
10
-29.8940679239
20
-20.4217072099
30
0.0000000000
11
-29.5583167503
21
-20.3667292529
31
0.0000000000
11
-29.6993940819
21
-20.3777153387
31
0.0000000000
11
-29.8451252998
21
-20.4073583811
31
0.0000000000
11
-29.8940679239
21
-20.4217072099
31
0.0000000000
0
SPLINE
5
3CA
100
AcDbEntity
8
0
100
AcDbSpline
62
9
6
CONTINUOUS
70
0
71
3
72
11
73
7
74
5
42
0.0000001000
43
0.0000001000
44
0.0000000001
12
-0.5046850464
22
-0.1598506103
32
0.0000000000
13
-0.3873908218
23
-0.3608002140
33
0.0000000000
40
0.0000000000
40
0.0000000000
40
0.0000000000
40
0.0000000000
40
0.1961283882
40
0.4955872575
40
0.7981447714
40
1.0000000000
40
1.0000000000
40
1.0000000000
40
1.0000000000
10
-29.8940679239
20
-20.4217072099
30
0.0000000000
10
-29.9270622788
20
-20.4321576241
30
0.0000000000
10
-30.0092810722
20
-20.4622199238
30
0.0000000000
10
-30.1357053557
20
-20.5250304751
30
0.0000000000
10
-30.2534731656
20
-20.6046575067
30
0.0000000000
10
-30.3213164710
20
-20.6624768225
30
0.0000000000
10
-30.3473820920
20
-20.6867532924
30
0.0000000000
11
-29.8940679239
21
-20.4217072099
31
0.0000000000
11
-29.9915559162
21
-20.4573517940
31
0.0000000000
11
-30.1334423879
21
-20.5278192359
31
0.0000000000
11
-30.2660481479
21
-20.6174586310
31
0.0000000000
11
-30.3473820920
21
-20.6867532924
31
0.0000000000
0
SPLINE
5
3CB
100
AcDbEntity
8
0
100
AcDbSpline
62
9
6
CONTINUOUS
70
0
71
3
72
8
73
4
74
2
42
0.0000001000
43
0.0000001000
44
0.0000000001
12
-0.0393581988
22
-0.0366566417
32
0.0000000000
13
-0.0376670316
23
-0.0383413095
33
0.0000000000
40
0.0000000000
40
0.0000000000
40
0.0000000000
40
0.0000000000
40
1.0000000000
40
1.0000000000
40
1.0000000000
40
1.0000000000
10
-30.3473820920
20
-20.6867532924
30
0.0000000000
10
-30.3605014916
20
-20.6989721729
30
0.0000000000
10
-30.3733463228
20
-20.7114794508
30
0.0000000000
10
-30.3859020000
20
-20.7242598873
30
0.0000000000
11
-30.3473820920
21
-20.6867532924
31
0.0000000000
11
-30.3859020000
21
-20.7242598873
31
0.0000000000
0
ENDSEC
0
SECTION
2
OBJECTS
0
DICTIONARY
5
C
100
AcDbDictionary
280
0
281
1
3
ACAD_GROUP
350
D
3
ACAD_MLINESTYLE
350
17
3
ACAD_LAYOUT
350
1A
3
ACAD_PLOTSETTINGS
350
19
3
ACAD_PLOTSTYLENAME
350
E
0
DICTIONARY
5
D
102
{ACAD_REACTORS
330
C
102
}
100
AcDbDictionary
280
0
281
1
0
ACDBDICTIONARYWDFLT
5
E
102
{ACAD_REACTORS
330
C
102
}
100
AcDbDictionary
281
1
3
Normal
350
F
100
AcDbDictionaryWithDefault
340
F
0
DICTIONARY
5
17
102
{ACAD_REACTORS
330
C
102
}
100
AcDbDictionary
280
0
281
1
3
Standard
350
18
0
DICTIONARY
5
19
102
{ACAD_REACTORS
330
C
102
}
100
AcDbDictionary
281
1
0
DICTIONARY
5
1A
102
{ACAD_REACTORS
330
C
102
}
100
AcDbDictionary
281
1
3
Layout1
350
1E
3
Model
350
22
0
ACDBPLACEHOLDER
5
F
102
{ACAD_REACTORS
330
E
102
}
0
MLINESTYLE
5
18
102
{ACAD_REACTORS
330
17
102
}
100
AcDbMlineStyle
2
STANDARD
70
0
3

62
256
51
90.0
52
90.0
71
2
49
0.5
62
256
6
BYLAYER
49
-0.5
62
256
6
BYLAYER
0
LAYOUT
5
1E
102
{ACAD_REACTORS
330
1A
102
}
100
AcDbPlotSettings
1

2

4

6

40
0.0
41
0.0
42
0.0
43
0.0
44
0.0
45
0.0
46
0.0
47
0.0
48
0.0
49
0.0
140
0.0
141
0.0
142
1.0
143
1.0
70
0
72
0
73
0
74
0
7

75
0
147
1.0
148
0.0
149
0.0
100
AcDbLayout
1
Layout1
70
0
71
0
10
0.0
20
0.0
11
0.0
21
0.0
12
0.0
22
0.0
32
0.0
14
0.0
24
0.0
34
0.0
15
0.0
25
0.0
35
0.0
146
0.0
13
0.0
23
0.0
33
0.0
16
0.0
26
0.0
36
0.0
17
0.0
27
0.0
37
0.0
76
0
330
1B
331
0
345
0
346
0
0
LAYOUT
5
22
102
{ACAD_REACTORS
330
1A
102
}
100
AcDbPlotSettings
1

2

4

6

40
0.0
41
0.0
42
0.0
43
0.0
44
0.0
45
0.0
46
0.0
47
0.0
48
0.0
49
0.0
140
0.0
141
0.0
142
1.0
143
1.0
70
0
72
0
73
0
74
0
7

75
0
147
1.0
148
0.0
149
0.0
100
AcDbLayout
1
Model
70
0
71
0
10
0.0
20
0.0
11
0.0
21
0.0
12
0.0
22
0.0
32
0.0
14
0.0
24
0.0
34
0.0
15
0.0
25
0.0
35
0.0
146
0.0
13
0.0
23
0.0
33
0.0
16
0.0
26
0.0
36
0.0
17
0.0
27
0.0
37
0.0
76
0
330
1F
331
0
345
0
346
0
0
ENDSEC
0
EOF
