  0
SECTION
  2
HEADER
  9
$ACADVER
  1
AC1024
  9
$DWGCODEPAGE
  3
ANSI_1252
  9
$EXTMAX
 10
420.0
 20
297.0
 30
0.0
  9
$EXTMIN
 10
0.0
 20
0.0
 30
0.0
  9
$LIMMIN
 10
0.0
 20
0.0
  9
$LIMMAX
 10
420.0
 20
297.0
  9
$VIEWCTR
 10
210.0
 20
148.5
  9
$VIEWSIZE
 40
297.0
  9
$CLAYER
  8
0
  9
$LTSCALE
 40
23.1
  9
$CELTYPE
  6
BYLAYER
  9
$DIMSCALE
 40
1.0
  9
$DIMASZ
 40
3.0
  9
$DIMEXO
 40
0.5
  9
$DIMDLI
 40
15.96
  9
$DIMEXE
 40
1.5
  9
$DIMCEN
 40
3.78
  9
$DIMLFAC
 40
1.0
  9
$DIMBLK
  1
_FILLED
  9
$DIMALT
 70
0
  9
$DIMALTF
 40
0.0393700787
  9
$DIMTXT
 40
3.0
  9
$DIMTOL
 70
1
  9
$DIMLIM
 70
0
  9
$DIMTFAC
 40
1.0
  9
$DIMTP
 40
0.01
  9
$DIMTM
 40
0.01
  9
$DIMGAP
 40
0.625
  9
$DIMDSEP
 70
44
  9
$AUNITS
 70
0
  9
$PDMODE
 70
3
  9
$PDSIZE
 40
3.0
  9
$HANDSEED
  5
422
  9
$TILEMODE
 70
1
  9
$MEASUREMENT
 70
1
  9
$INSUNITS
 70
4
  0
ENDSEC
  0
SECTION
  2
CLASSES
  0
CLASS
  1
ACDBDICTIONARYWDFLT
  2
AcDbDictionaryWithDefault
  3
AutoCAD 2000
 90
0
 91
1
280
0
281
0
  0
CLASS
  1
ACDBPLACEHOLDER
  2
AcDbPlaceHolder
  3
AutoCAD 2000
 90
0
 91
1
280
0
281
0
  0
CLASS
  1
LAYOUT
  2
AcDbLayout
  3
AutoCAD 2000
 90
0
 91
0
280
0
281
0
  0
ENDSEC
  0
SECTION
  2
TABLES
  0
TABLE
  2
VPORT
  5
8
100
AcDbSymbolTable
 70
2
  0
VPORT
  5
1F4
100
AcDbSymbolTableRecord
100
AcDbViewportTableRecord
  2
*ACTIVE
 70
0
 10
0.0
 20
0.0
 11
1.0
 21
1.0
 12
210.0
 22
148.5
 13
0.0
 23
0.0
 14
1.0
 24
1.0
 15
0.0
 25
0.0
 16
0.0
 26
0.0
 36
1.0
 17
0.0
 27
0.0
 37
0.0
 40
297.0
 41
1.4141414141
 42
50.0
 43
0.0
 44
0.0
 50
0.0
 51
0.0
 71
0
 72
100
 73
1
 74
1
 75
0
 76
0
 77
0
 78
0
  0
ENDTAB
  0
TABLE
  2
LTYPE
  5
5
100
AcDbSymbolTable
 70
6
  0
LTYPE
  5
14
100
AcDbSymbolTableRecord
100
AcDbLinetypeTableRecord
  2
BYBLOCK
 70
0
  3

 72
65
 73
0
 40
0.0
  0
LTYPE
  5
15
100
AcDbSymbolTableRecord
100
AcDbLinetypeTableRecord
  2
BYLAYER
 70
0
  3

 72
65
 73
0
 40
0.0
  0
LTYPE
  5
16
100
AcDbSymbolTableRecord
100
AcDbLinetypeTableRecord
  2
CONTINUOUS
 70
64
  3
Solid line
 72
65
 73
0
 40
0.0
  0
LTYPE
  5
1F5
100
AcDbSymbolTableRecord
100
AcDbLinetypeTableRecord
  2
CENTER
 70
64
  3
____ _ ____ _ ____ _ ____ _ ____ _ ____ _ ____
 72
65
 73
4
 40
0.6
 49
0.375
 74
0
 49
-0.075
 74
0
 49
0.075
 74
0
 49
-0.075
 74
0
  0
LTYPE
  5
1F6
100
AcDbSymbolTableRecord
100
AcDbLinetypeTableRecord
  2
HIDDEN
 70
64
  3
- - - - - - - - - - - - - - - - - - - -
 72
65
 73
2
 40
0.2
 49
0.1
 74
0
 49
-0.1
 74
0
  0
LTYPE
  5
1F7
100
AcDbSymbolTableRecord
100
AcDbLinetypeTableRecord
  2
PHANTOM
 70
64
  3
_____ _ _ _____ _ _ _____ _ _ _____
 72
65
 73
6
 40
0.8
 49
0.45
 74
0
 49
-0.05
 74
0
 49
0.1
 74
0
 49
-0.05
 74
0
 49
0.1
 74
0
 49
-0.05
 74
0
  0
LTYPE
  5
1F8
100
AcDbSymbolTableRecord
100
AcDbLinetypeTableRecord
  2
DOT
 70
64
  3
. . . . . . . . . . . . . . . . . . . .
 72
65
 73
2
 40
0.2
 49
0.1
 74
0
 49
-0.1
 74
0
  0
LTYPE
  5
1F9
100
AcDbSymbolTableRecord
100
AcDbLinetypeTableRecord
  2
DASHED
 70
64
  3
- - - - - - - - - - - - - - - - - - - -
 72
65
 73
2
 40
0.2
 49
0.1
 74
0
 49
-0.1
 74
0
  0
ENDTAB
  0
TABLE
  2
LAYER
  5
2
100
AcDbSymbolTable
 70
36
  0
LAYER
  5
10
100
AcDbSymbolTableRecord
100
AcDbLayerTableRecord
  2
0
 70
0
 62
7
  6
CONTINUOUS
370
-3
390
F
  0
LAYER
  5
1FA
100
AcDbSymbolTableRecord
100
AcDbLayerTableRecord
  2
DEFAULT_1
 70
0
 62
7
  6
CENTER
370
-3
390
F
  0
LAYER
  5
1FB
100
AcDbSymbolTableRecord
100
AcDbLayerTableRecord
  2
DEFAULT_2
 70
0
 62
7
  6
HIDDEN
370
-3
390
F
  0
LAYER
  5
1FC
100
AcDbSymbolTableRecord
100
AcDbLayerTableRecord
  2
DEFAULT_3
 70
0
 62
7
  6
PHANTOM
370
-3
390
F
  0
LAYER
  5
1FD
100
AcDbSymbolTableRecord
100
AcDbLayerTableRecord
  2
255013570
 70
0
 62
7
  6
CONTINUOUS
370
-3
390
F
  0
LAYER
  5
1FE
100
AcDbSymbolTableRecord
100
AcDbLayerTableRecord
  2
261013570
 70
0
 62
7
  6
CONTINUOUS
370
-3
390
F
  0
LAYER
  5
1FF
100
AcDbSymbolTableRecord
100
AcDbLayerTableRecord
  2
280013570
 70
0
 62
7
  6
CONTINUOUS
370
-3
390
F
  0
LAYER
  5
200
100
AcDbSymbolTableRecord
100
AcDbLayerTableRecord
  2
ASSI
 70
0
 62
7
  6
CONTINUOUS
370
-3
390
F
  0
LAYER
  5
201
100
AcDbSymbolTableRecord
100
AcDbLayerTableRecord
  2
COORDINATE
 70
0
 62
7
  6
CONTINUOUS
370
-3
390
F
  0
LAYER
  5
202
100
AcDbSymbolTableRecord
100
AcDbLayerTableRecord
  2
COORD_ORIGINE
 70
0
 62
7
  6
CONTINUOUS
370
-3
390
F
  0
LAYER
  5
203
100
AcDbSymbolTableRecord
100
AcDbLayerTableRecord
  2
COPY-PUBBLISH
 70
0
 62
7
  6
CONTINUOUS
370
-3
390
F
  0
LAYER
  5
204
100
AcDbSymbolTableRecord
100
AcDbLayerTableRecord
  2
COPY_PUBLISH
 70
0
 62
7
  6
CONTINUOUS
370
-3
390
F
  0
LAYER
  5
205
100
AcDbSymbolTableRecord
100
AcDbLayerTableRecord
  2
COSMETIC
 70
0
 62
7
  6
CONTINUOUS
370
-3
390
F
  0
LAYER
  5
206
100
AcDbSymbolTableRecord
100
AcDbLayerTableRecord
  2
COSMETICHE
 70
0
 62
7
  6
CONTINUOUS
370
-3
390
F
  0
LAYER
  5
207
100
AcDbSymbolTableRecord
100
AcDbLayerTableRecord
  2
COSMETICI
 70
0
 62
7
  6
CONTINUOUS
370
-3
390
F
  0
LAYER
  5
208
100
AcDbSymbolTableRecord
100
AcDbLayerTableRecord
  2
CURVE
 70
0
 62
7
  6
CONTINUOUS
370
-3
390
F
  0
LAYER
  5
209
100
AcDbSymbolTableRecord
100
AcDbLayerTableRecord
  2
DRAFT
 70
0
 62
7
  6
CONTINUOUS
370
-3
390
F
  0
LAYER
  5
20A
100
AcDbSymbolTableRecord
100
AcDbLayerTableRecord
  2
IMPORT_IGES
 70
0
 62
7
  6
CONTINUOUS
370
-3
390
F
  0
LAYER
  5
20B
100
AcDbSymbolTableRecord
100
AcDbLayerTableRecord
  2
INTFCLR_1
 70
0
 62
7
  6
CONTINUOUS
370
-3
390
F
  0
LAYER
  5
20C
100
AcDbSymbolTableRecord
100
AcDbLayerTableRecord
  2
INTFCLR_63
 70
0
 62
7
  6
CONTINUOUS
370
-3
390
F
  0
LAYER
  5
20D
100
AcDbSymbolTableRecord
100
AcDbLayerTableRecord
  2
INTF_1
 70
0
 62
7
  6
CONTINUOUS
370
-3
390
F
  0
LAYER
  5
20E
100
AcDbSymbolTableRecord
100
AcDbLayerTableRecord
  2
INTF_2
 70
0
 62
7
  6
CONTINUOUS
370
-3
390
F
  0
LAYER
  5
20F
100
AcDbSymbolTableRecord
100
AcDbLayerTableRecord
  2
INTF_9
 70
0
 62
7
  6
CONTINUOUS
370
-3
390
F
  0
LAYER
  5
210
100
AcDbSymbolTableRecord
100
AcDbLayerTableRecord
  2
NOTE
 70
0
 62
7
  6
CONTINUOUS
370
-3
390
F
  0
LAYER
  5
211
100
AcDbSymbolTableRecord
100
AcDbLayerTableRecord
  2
PIANI
 70
0
 62
7
  6
CONTINUOUS
370
-3
390
F
  0
LAYER
  5
212
100
AcDbSymbolTableRecord
100
AcDbLayerTableRecord
  2
PIANI_ORIGINE
 70
0
 62
7
  6
CONTINUOUS
370
-3
390
F
  0
LAYER
  5
213
100
AcDbSymbolTableRecord
100
AcDbLayerTableRecord
  2
PUNTI
 70
0
 62
7
  6
CONTINUOUS
370
-3
390
F
  0
LAYER
  5
214
100
AcDbSymbolTableRecord
100
AcDbLayerTableRecord
  2
RACCORDO
 70
0
 62
7
  6
CONTINUOUS
370
-3
390
F
  0
LAYER
  5
215
100
AcDbSymbolTableRecord
100
AcDbLayerTableRecord
  2
RGB__255__255__255__
 70
0
 62
7
  6
CONTINUOUS
370
-3
390
F
  0
LAYER
  5
216
100
AcDbSymbolTableRecord
100
AcDbLayerTableRecord
  2
RGB____0____0____0__
 70
0
 62
7
  6
CONTINUOUS
370
-3
390
F
  0
LAYER
  5
217
100
AcDbSymbolTableRecord
100
AcDbLayerTableRecord
  2
SMUSSO
 70
0
 62
7
  6
CONTINUOUS
370
-3
390
F
  0
LAYER
  5
218
100
AcDbSymbolTableRecord
100
AcDbLayerTableRecord
  2
SNAPLINE
 70
0
 62
7
  6
CONTINUOUS
370
-3
390
F
  0
LAYER
  5
219
100
AcDbSymbolTableRecord
100
AcDbLayerTableRecord
  2
SUP-SCAVI-INCLINATI
 70
0
 62
7
  6
CONTINUOUS
370
-3
390
F
  0
LAYER
  5
21A
100
AcDbSymbolTableRecord
100
AcDbLayerTableRecord
  2
SUP-SCAVI-INCLINATI-SUP
 70
0
 62
7
  6
CONTINUOUS
370
-3
390
F
  0
LAYER
  5
21B
100
AcDbSymbolTableRecord
100
AcDbLayerTableRecord
  2
SUPERFICI
 70
0
 62
7
  6
CONTINUOUS
370
-3
390
F
  0
LAYER
  5
21C
100
AcDbSymbolTableRecord
100
AcDbLayerTableRecord
  2
SUP_COLORE
 70
0
 62
7
  6
CONTINUOUS
370
-3
390
F
  0
LAYER
  5
21D
100
AcDbSymbolTableRecord
100
AcDbLayerTableRecord
  2
TRASH
 70
0
 62
7
  6
CONTINUOUS
370
-3
390
F
  0
LAYER
  5
21E
100
AcDbSymbolTableRecord
100
AcDbLayerTableRecord
  2
XSEC_DATUMS
 70
0
 62
7
  6
CONTINUOUS
370
-3
390
F
  0
ENDTAB
  0
TABLE
  2
STYLE
  5
3
100
AcDbSymbolTable
 70
1
  0
STYLE
  5
11
100
AcDbSymbolTableRecord
100
AcDbTextStyleTableRecord
  2
STANDARD
 70
0
 40
0.0
 41
0.8
 50
0.0
 71
0
 42
0.2
  3
txt
  4

  0
STYLE
  5
21F
100
AcDbSymbolTableRecord
100
AcDbTextStyleTableRecord
  2
TEXTSTYLE_1
 70
0
 40
0.0
 41
0.8
 50
0.0
 71
0
 42
0.2
  3
gdt
  4

  0
ENDTAB
  0
TABLE
  2
VIEW
  5
6
100
AcDbSymbolTable
 70
0
  0
ENDTAB
  0
TABLE
  2
UCS
  5
7
100
AcDbSymbolTable
 70
0
  0
ENDTAB
  0
TABLE
  2
APPID
  5
9
100
AcDbSymbolTable
 70
1
  0
APPID
  5
220
100
AcDbSymbolTableRecord
100
AcDbRegAppTableRecord
  2
ACAD
 70
0
  0
ENDTAB
  0
TABLE
  2
BLOCK_RECORD
  5
1
100
AcDbSymbolTable
 70
0
  0
BLOCK_RECORD
  5
221
100
AcDbSymbolTableRecord
100
AcDbBlockTableRecord
  2
*Model_Space
  0
BLOCK_RECORD
  5
222
100
AcDbSymbolTableRecord
100
AcDbBlockTableRecord
  2
*Paper_Space
  0
BLOCK_RECORD
  5
223
100
AcDbSymbolTableRecord
100
AcDbBlockTableRecord
  2
_FILLED
  0
BLOCK_RECORD
  5
224
100
AcDbSymbolTableRecord
100
AcDbBlockTableRecord
  2
*D0
  0
BLOCK_RECORD
  5
225
100
AcDbSymbolTableRecord
100
AcDbBlockTableRecord
  2
*D1
  0
BLOCK_RECORD
  5
226
100
AcDbSymbolTableRecord
100
AcDbBlockTableRecord
  2
*D2
  0
BLOCK_RECORD
  5
227
100
AcDbSymbolTableRecord
100
AcDbBlockTableRecord
  2
*D3
  0
ENDTAB
  0
TABLE
  2
DIMSTYLE
  5
A
100
AcDbSymbolTable
 70
1
100
AcDbDimStyleTable
 71
0
  0
DIMSTYLE
105
228
100
AcDbSymbolTableRecord
100
AcDbDimStyleTableRecord
  2
STANDARD
 70
0
  3

  4

 40
1.0
 41
3.0
 42
0.5
 43
0.38
 44
1.5
 45
0.0
 46
0.0
 47
0.01
 48
0.01
140
3.0
141
0.09
142
0.0
143
25.4
144
1.0
145
0.0
146
1.0
147
0.625
 71
1
 72
0
 73
0
 74
0
 75
0
 76
0
 77
1
 78
8
 79
2
170
0
171
1
172
0
173
0
174
0
175
0
176
0
177
0
178
0
270
2
179
2
271
2
272
2
273
2
274
2
275
0
280
0
281
0
282
0
283
1
284
8
285
0
286
0
287
3
288
0
340
11
278
44
341
223
342
223
343
223
344
223
  0
DIMSTYLE
105
229
100
AcDbSymbolTableRecord
100
AcDbDimStyleTableRecord
  2
DIMSTYLE_1
 70
0
  3

  4

 40
1.0
 41
3.0
 42
0.5
 43
0.38
 44
1.5
 45
0.0
 46
0.0
 47
0.0
 48
0.0
140
3.0
141
0.09
142
0.0
143
25.4
144
1.0
145
0.0
146
1.0
147
0.75
 71
0
 72
0
 73
0
 74
0
 75
0
 76
0
 77
1
 78
8
 79
2
170
0
171
1
172
0
173
0
174
0
175
0
176
0
177
0
178
0
270
2
179
2
271
2
272
2
273
2
274
2
275
0
280
0
281
0
282
0
283
1
284
8
285
0
286
0
287
3
288
0
340
11
278
44
341
223
342
223
343
223
344
223
  0
ENDTAB
  0
ENDSEC
  0
SECTION
  2
BLOCKS
  0
BLOCK
  5
20
100
AcDbEntity
  8
0
100
AcDbBlockBegin
  2
*Model_Space
 70
0
 10
0.0
 20
0.0
 30
0.0
  3
*Model_Space
  1

  0
ENDBLK
  5
21
100
AcDbEntity
  8
0
100
AcDbBlockEnd
  0
BLOCK
  5
1C
100
AcDbEntity
  8
0
100
AcDbBlockBegin
  2
*Paper_Space
 70
0
 10
0.0
 20
0.0
 30
0.0
  3
*Paper_Space
  1

  0
ENDBLK
  5
1D
100
AcDbEntity
  8
0
100
AcDbBlockEnd
  0
BLOCK
  5
22A
100
AcDbEntity
  8
0
100
AcDbBlockBegin
  2
_FILLED
 70
64
 10
0.0
 20
0.0
  3
_FILLED
  1

  0
SOLID
  5
22B
100
AcDbEntity
  8
0
  6
BYBLOCK
 62
0
100
AcDbTrace
 10
0.0
 20
0.0
 11
-1.0
 21
0.3166666667
 12
-1.0
 22
-0.3166666667
 13
-1.0
 23
-0.3166666667
  0
ENDBLK
  5
22C
100
AcDbEntity
  8
0
  6
BYBLOCK
 62
0
100
AcDbBlockEnd
  0
BLOCK
  5
22D
100
AcDbEntity
  8
0
100
AcDbBlockBegin
 62
7
  6
CONTINUOUS
  2
*D0
 70
65
 10
0.0
 20
0.0
  3
*D0
  1

  0
LINE
  5
22E
100
AcDbEntity
  8
0
100
AcDbLine
 62
7
  6
CONTINUOUS
 10
15.4248574782
 20
23.5
 11
37.178277185
 21
23.5
  0
LINE
  5
22F
100
AcDbEntity
  8
0
100
AcDbLine
 62
7
  6
CONTINUOUS
 10
15.4248574782
 20
-23.5
 11
37.178277185
 21
-23.5
  0
LINE
  5
230
100
AcDbEntity
  8
0
100
AcDbLine
 62
7
  6
CONTINUOUS
 10
35.678277185
 20
23.5
 11
35.678277185
 21
-0.0
  0
LINE
  5
231
100
AcDbEntity
  8
0
100
AcDbLine
 62
7
  6
CONTINUOUS
 10
35.678277185
 20
-23.5
 11
35.678277185
 21
-0.0
  0
INSERT
  5
232
100
AcDbEntity
  8
0
100
AcDbBlockReference
 62
7
  6
CONTINUOUS
  2
_FILLED
 10
35.678277185
 20
23.5
 41
3.0
 42
3.0
 43
3.0
 50
90.0
  0
INSERT
  5
233
100
AcDbEntity
  8
0
100
AcDbBlockReference
 62
7
  6
CONTINUOUS
  2
_FILLED
 10
35.678277185
 20
-23.5
 41
3.0
 42
3.0
 43
3.0
 50
270.0
  0
ENDBLK
  5
234
100
AcDbEntity
  8
0
  6
BYBLOCK
 62
0
100
AcDbBlockEnd
  0
BLOCK
  5
235
100
AcDbEntity
  8
0
100
AcDbBlockBegin
 62
7
  6
CONTINUOUS
  2
*D1
 70
65
 10
0.0
 20
0.0
  3
*D1
  1

  0
LINE
  5
236
100
AcDbEntity
  8
0
100
AcDbLine
 62
7
  6
CONTINUOUS
 10
22.4
 20
22.3997711479
 11
22.4
 21
37.9178654967
  0
LINE
  5
237
100
AcDbEntity
  8
0
100
AcDbLine
 62
7
  6
CONTINUOUS
 10
-22.4
 20
22.3997711479
 11
-22.4
 21
37.9178654967
  0
LINE
  5
238
100
AcDbEntity
  8
0
100
AcDbLine
 62
7
  6
CONTINUOUS
 10
22.4
 20
36.4178654967
 11
-0.0
 21
36.4178654967
  0
LINE
  5
239
100
AcDbEntity
  8
0
100
AcDbLine
 62
7
  6
CONTINUOUS
 10
-22.4
 20
36.4178654967
 11
-0.0
 21
36.4178654967
  0
INSERT
  5
23A
100
AcDbEntity
  8
0
100
AcDbBlockReference
 62
7
  6
CONTINUOUS
  2
_FILLED
 10
22.4
 20
36.4178654967
 41
3.0
 42
3.0
 43
3.0
  0
INSERT
  5
23B
100
AcDbEntity
  8
0
100
AcDbBlockReference
 62
7
  6
CONTINUOUS
  2
_FILLED
 10
-22.4
 20
36.4178654967
 41
3.0
 42
3.0
 43
3.0
 50
180.0
  0
ENDBLK
  5
23C
100
AcDbEntity
  8
0
  6
BYBLOCK
 62
0
100
AcDbBlockEnd
  0
BLOCK
  5
23D
100
AcDbEntity
  8
0
100
AcDbBlockBegin
 62
7
  6
CONTINUOUS
  2
*D2
 70
65
 10
0.0
 20
0.0
  3
*D2
  1

  0
LINE
  5
23E
100
AcDbEntity
  8
0
100
AcDbLine
 62
7
  6
CONTINUOUS
 10
-42.8626151316
 20
13.5534583114
 11
-42.8626151316
 21
38.1665497072
  0
LINE
  5
23F
100
AcDbEntity
  8
0
100
AcDbLine
 62
7
  6
CONTINUOUS
 10
-69.2626151316
 20
21.5
 11
-69.2626151316
 21
38.1665497072
  0
LINE
  5
240
100
AcDbEntity
  8
0
100
AcDbLine
 62
7
  6
CONTINUOUS
 10
-42.8626151316
 20
36.6665497072
 11
-56.0626151316
 21
36.6665497072
  0
LINE
  5
241
100
AcDbEntity
  8
0
100
AcDbLine
 62
7
  6
CONTINUOUS
 10
-69.2626151316
 20
36.6665497072
 11
-56.0626151316
 21
36.6665497072
  0
INSERT
  5
242
100
AcDbEntity
  8
0
100
AcDbBlockReference
 62
7
  6
CONTINUOUS
  2
_FILLED
 10
-42.8626151316
 20
36.6665497072
 41
3.0
 42
3.0
 43
3.0
  0
INSERT
  5
243
100
AcDbEntity
  8
0
100
AcDbBlockReference
 62
7
  6
CONTINUOUS
  2
_FILLED
 10
-69.2626151316
 20
36.6665497072
 41
3.0
 42
3.0
 43
3.0
 50
180.0
  0
ENDBLK
  5
244
100
AcDbEntity
  8
0
  6
BYBLOCK
 62
0
100
AcDbBlockEnd
  0
BLOCK
  5
245
100
AcDbEntity
  8
0
100
AcDbBlockBegin
 62
7
  6
CONTINUOUS
  2
*D3
 70
65
 10
0.0
 20
0.0
  3
*D3
  1

  0
LINE
  5
246
100
AcDbEntity
  8
0
100
AcDbLine
 62
7
  6
CONTINUOUS
 10
-42.8626151316
 20
13.5534583114
 11
-42.8626151316
 21
48.1665497072
  0
LINE
  5
247
100
AcDbEntity
  8
0
100
AcDbLine
 62
7
  6
CONTINUOUS
 10
-78.7626151316
 20
0.5
 11
-78.7626151316
 21
48.1665497072
  0
LINE
  5
248
100
AcDbEntity
  8
0
100
AcDbLine
 62
7
  6
CONTINUOUS
 10
-42.8626151316
 20
46.6665497072
 11
-60.8126151316
 21
46.6665497072
  0
LINE
  5
249
100
AcDbEntity
  8
0
100
AcDbLine
 62
7
  6
CONTINUOUS
 10
-78.7626151316
 20
46.6665497072
 11
-60.8126151316
 21
46.6665497072
  0
INSERT
  5
24A
100
AcDbEntity
  8
0
100
AcDbBlockReference
 62
7
  6
CONTINUOUS
  2
_FILLED
 10
-42.8626151316
 20
46.6665497072
 41
3.0
 42
3.0
 43
3.0
  0
INSERT
  5
24B
100
AcDbEntity
  8
0
100
AcDbBlockReference
 62
7
  6
CONTINUOUS
  2
_FILLED
 10
-78.7626151316
 20
46.6665497072
 41
3.0
 42
3.0
 43
3.0
 50
180.0
  0
ENDBLK
  5
24C
100
AcDbEntity
  8
0
  6
BYBLOCK
 62
0
100
AcDbBlockEnd
  0
ENDSEC
  0
SECTION
  2
ENTITIES
  0
DIMENSION
  5
24D
100
AcDbEntity
  8
0
100
AcDbDimension
 62
7
  6
CONTINUOUS
  2
*D0
 10
35.678277185
 20
-23.5
 11
35.678277185
 21
-2.3571428571
 70
160
 71
2
 72
2
 41
0.9
 42
47.0
  3
DIMSTYLE_1
100
AcDbAlignedDimension
 13
14.9248574782
 23
23.5
 14
14.9248574782
 24
-23.5
 50
270.0
100
AcDbRotatedDimension
  0
DIMENSION
  5
24E
100
AcDbEntity
  8
0
100
AcDbDimension
 62
7
  6
CONTINUOUS
  2
*D1
 10
-22.4
 20
36.4178654967
 11
-4.3928571429
 21
36.4178654967
 70
160
 71
2
 72
2
 41
0.9
 42
44.8
  3
DIMSTYLE_1
100
AcDbAlignedDimension
 13
22.4
 23
21.8997711479
 14
-22.4
 24
21.8997711479
 50
180.0
100
AcDbRotatedDimension
  0
DIMENSION
  5
24F
100
AcDbEntity
  8
0
100
AcDbDimension
 62
7
  6
CONTINUOUS
  2
*D2
 10
-69.2626151316
 20
36.6665497072
 11
-60.4554722744
 21
36.6665497072
 70
160
 71
2
 72
2
 41
0.9
 42
26.4
  3
DIMSTYLE_1
100
AcDbAlignedDimension
 13
-42.8626151316
 23
13.0534583114
 14
-69.2626151316
 24
21.0
 50
180.0
100
AcDbRotatedDimension
  0
DIMENSION
  5
250
100
AcDbEntity
  8
0
100
AcDbDimension
 62
7
  6
CONTINUOUS
  2
*D3
 10
-78.7626151316
 20
46.6665497072
 11
-64.9911865602
 21
46.6665497072
 70
160
 71
2
 72
2
 41
0.9
 42
35.9
  3
DIMSTYLE_1
100
AcDbAlignedDimension
 13
-42.8626151316
 23
13.0534583114
 14
-78.7626151316
 24
0.0
 50
180.0
100
AcDbRotatedDimension
  0
LWPOLYLINE
  5
251
100
AcDbEntity
  8
0
100
AcDbPolyline
 62
7
  6
CONTINUOUS
 90
10
 70
0
 10
-15.4775426698
 20
23.3333596575
 10
-15.422229589
 20
23.3675549878
 10
-15.3650754402
 20
23.3979254452
 10
-15.3060802234
 20
23.4244710297
 10
-15.2448213096
 20
23.4473184897
 10
-15.1817213277
 20
23.4663410768
 10
-15.1180481649
 20
23.4811585459
 10
-15.0542244503
 20
23.4916441486
 10
-14.9898275547
 20
23.4979246333
 10
-14.9248574782
 20
23.5
  0
LWPOLYLINE
  5
252
100
AcDbEntity
  8
0
100
AcDbPolyline
 62
250
  6
CONTINUOUS
 90
12
 70
0
 10
-22.2504589101
 20
20.9972959167
 10
-22.2451500529
 20
21.0000094166
 10
-22.2315649394
 20
21.002677509
 10
-22.2099308856
 20
21.0052555494
 10
-22.1806098884
 20
21.0077004004
 10
-22.1440925679
 20
21.0099711528
 10
-22.1009899585
 20
21.0120298107
 10
-22.0520232846
 20
21.0138419273
 10
-21.9980118921
 20
21.0153771806
 10
-21.9398595391
 20
21.0166098816
 10
-21.8785392731
 20
21.0175194035
 10
-21.8150771494
 20
21.0180905275
  0
LWPOLYLINE
  5
253
100
AcDbEntity
  8
0
100
AcDbPolyline
 62
250
  6
CONTINUOUS
 90
13
 70
0
 10
-22.2504589101
 20
-20.9972959167
 10
-22.2451508613
 20
-21.0000094853
 10
-22.2315663962
 20
-21.0026776477
 10
-22.2099328238
 20
-21.0052557575
 10
-22.1806121391
 20
-21.0077006752
 10
-22.1440949658
 20
-21.0099714899
 10
-22.1009923465
 20
-21.012030204
 10
-22.0520255182
 20
-21.0138423691
 10
-21.9980138439
 20
-21.015377662
 10
-21.939861102
 20
-21.0166103925
 10
-21.8785403636
 20
-21.0175199331
 10
-21.8150777098
 20
-21.0180910647
 10
-21.7505350625
 20
-21.0183142303
  0
LWPOLYLINE
  5
254
100
AcDbEntity
  8
0
100
AcDbPolyline
 62
7
  6
CONTINUOUS
 90
10
 70
0
 10
-15.4775426698
 20
-23.3333596575
 10
-15.422229589
 20
-23.3675549878
 10
-15.3650754402
 20
-23.3979254452
 10
-15.3060802234
 20
-23.4244710297
 10
-15.2448213096
 20
-23.4473184897
 10
-15.1817213277
 20
-23.4663410768
 10
-15.1180481649
 20
-23.4811585459
 10
-15.0542244503
 20
-23.4916441486
 10
-14.9898275547
 20
-23.4979246333
 10
-14.9248574782
 20
-23.5
  0
LINE
  5
255
100
AcDbEntity
  8
0
100
AcDbLine
 62
7
  6
CONTINUOUS
 10
-14.4833672024
 20
22.5
 11
-14.55
 21
22.4
  0
LWPOLYLINE
  5
256
100
AcDbEntity
  8
0
100
AcDbPolyline
 62
7
  6
CONTINUOUS
 90
10
 70
0
 10
14.9248574782
 20
-23.5
 10
14.9898275547
 20
-23.4979246333
 10
15.0542244503
 20
-23.4916441486
 10
15.1180481649
 20
-23.4811585459
 10
15.1817213277
 20
-23.4663410768
 10
15.2448213096
 20
-23.4473184897
 10
15.3060802234
 20
-23.4244710297
 10
15.3650754402
 20
-23.3979254452
 10
15.422229589
 20
-23.3675549878
 10
15.4775426698
 20
-23.3333596575
  0
LINE
  5
257
100
AcDbEntity
  8
0
100
AcDbLine
 62
7
  6
CONTINUOUS
 10
-14.55
 20
-22.4
 11
-14.4833672024
 21
-22.5
  0
LWPOLYLINE
  5
258
100
AcDbEntity
  8
0
100
AcDbPolyline
 62
250
  6
CONTINUOUS
 90
13
 70
0
 10
-22.2587219643
 20
-21.4755923698
 10
-22.2543906717
 20
-21.5407266633
 10
-22.2415898552
 20
-21.6047481738
 10
-22.2205381458
 20
-21.6665627674
 10
-22.1915951811
 20
-21.72511401
 10
-22.1552554819
 20
-21.7794011852
 10
-22.1121400203
 20
-21.8284964094
 10
-22.062985556
 20
-21.871560558
 10
-22.0086320979
 20
-21.9078575403
 10
-21.9500086007
 20
-21.9367668841
 10
-21.8881169794
 20
-21.9577944226
 10
-21.8240149669
 20
-21.9705807112
 10
-21.7587981167
 20
-21.9749071371
  0
LWPOLYLINE
  5
259
100
AcDbEntity
  8
0
100
AcDbPolyline
 62
250
  6
CONTINUOUS
 90
7
 70
0
 10
-22.2546622904
 20
21.404111377
 10
-22.255288961
 20
21.4238178805
 10
-22.255945919
 20
21.4406578587
 10
-22.2566191044
 20
21.4542894799
 10
-22.2573038303
 20
21.4645988002
 10
-22.2580047836
 20
21.4716997635
 10
-22.2587219643
 20
21.4755923698
  0
LWPOLYLINE
  5
25A
100
AcDbEntity
  8
0
100
AcDbPolyline
 62
250
  6
CONTINUOUS
 90
5
 70
0
 10
-21.7560157428
 20
21.9047671365
 10
-21.7566888224
 20
21.9320739422
 10
-21.7573747324
 20
21.9529518547
 10
-21.7580778305
 20
21.9672615288
 10
-21.7587981167
 20
21.9749071372
  0
LINE
  5
25B
100
AcDbEntity
  8
0
100
AcDbLine
 62
250
  6
CONTINUOUS
 10
-22.2535016383
 20
21.3559863514
 11
-22.2546622904
 21
21.404111377
  0
LINE
  5
25C
100
AcDbEntity
  8
0
100
AcDbLine
 62
250
  6
CONTINUOUS
 10
-22.252496988
 20
21.2978833989
 11
-22.2535016383
 21
21.3559863514
  0
LINE
  5
25D
100
AcDbEntity
  8
0
100
AcDbLine
 62
250
  6
CONTINUOUS
 10
-21.7547342215
 20
21.8316458675
 11
-21.7560157428
 21
21.9047671365
  0
LINE
  5
25E
100
AcDbEntity
  8
0
100
AcDbLine
 62
250
  6
CONTINUOUS
 10
-22.2513302604
 20
21.1948683247
 11
-22.252496988
 21
21.2978833989
  0
LINE
  5
25F
100
AcDbEntity
  8
0
100
AcDbLine
 62
250
  6
CONTINUOUS
 10
-21.7530519768
 20
21.6796989761
 11
-21.7547342215
 21
21.8316458675
  0
LINE
  5
260
100
AcDbEntity
  8
0
100
AcDbLine
 62
250
  6
CONTINUOUS
 10
-22.2506373651
 20
21.0789215441
 11
-22.2513302604
 21
21.1948683247
  0
LINE
  5
261
100
AcDbEntity
  8
0
100
AcDbLine
 62
250
  6
CONTINUOUS
 10
-21.7511186581
 20
21.3380138322
 11
-21.7530519768
 21
21.6796989761
  0
LINE
  5
262
100
AcDbEntity
  8
0
100
AcDbLine
 62
250
  6
CONTINUOUS
 10
-21.7505350625
 20
21.0183142309
 11
-21.7511186581
 21
21.3380138322
  0
LINE
  5
263
100
AcDbEntity
  8
0
100
AcDbLine
 62
7
  6
CONTINUOUS
 10
-22.4
 20
-21.8997711479
 11
-22.4
 21
21.8997711479
  0
LWPOLYLINE
  5
264
100
AcDbEntity
  8
0
100
AcDbPolyline
 62
250
  6
CONTINUOUS
 90
9
 70
0
 10
-22.2474142982
 20
-16.3324736288
 10
-22.2451308388
 20
-11.6670309515
 10
-22.2436085319
 20
-7.0009678848
 10
-22.2428473769
 20
-2.3338717331
 10
-22.2428473744
 20
2.333844808
 10
-22.2436085263
 20
7.0009436522
 10
-22.2451308332
 20
11.667012104
 10
-22.2474142945
 20
16.3324628588
 10
-22.2506373651
 20
21.0789215441
  0
LWPOLYLINE
  5
265
100
AcDbEntity
  8
0
100
AcDbPolyline
 62
250
  6
CONTINUOUS
 90
9
 70
0
 10
-21.7474904461
 20
-16.3494810535
 10
-21.7452069838
 20
-11.6792204124
 10
-21.7436846756
 20
-7.0079400863
 10
-21.7429235216
 20
-2.3360479924
 10
-21.7429235217
 20
2.3360479974
 10
-21.7436846759
 20
7.0079400909
 10
-21.7452069841
 20
11.6792204159
 10
-21.7474904463
 20
16.3494810555
 10
-21.7505350625
 20
21.0183142309
  0
LINE
  5
266
100
AcDbEntity
  8
0
100
AcDbLine
 62
250
  6
CONTINUOUS
 10
-22.2508108466
 20
-21.1183319385
 11
-22.2474142982
 21
-16.3324736288
  0
LINE
  5
267
100
AcDbEntity
  8
0
100
AcDbLine
 62
250
  6
CONTINUOUS
 10
-21.7517440253
 20
-21.4854483283
 11
-21.7474904461
 21
-16.3494810535
  0
LINE
  5
268
100
AcDbEntity
  8
0
100
AcDbLine
 62
250
  6
CONTINUOUS
 10
-22.2516683071
 20
-21.2309534442
 11
-22.2508108466
 21
-21.1183319385
  0
LINE
  5
269
100
AcDbEntity
  8
0
100
AcDbLine
 62
250
  6
CONTINUOUS
 10
-21.7535749124
 20
-21.7355620644
 11
-21.7517440253
 21
-21.4854483283
  0
LINE
  5
26A
100
AcDbEntity
  8
0
100
AcDbLine
 62
250
  6
CONTINUOUS
 10
-21.7547342215
 20
-21.8316458675
 11
-21.7535749124
 21
-21.7355620644
  0
LINE
  5
26B
100
AcDbEntity
  8
0
100
AcDbLine
 62
250
  6
CONTINUOUS
 10
-22.252496988
 20
-21.2978833988
 11
-22.2516683071
 21
-21.2309534442
  0
LINE
  5
26C
100
AcDbEntity
  8
0
100
AcDbLine
 62
250
  6
CONTINUOUS
 10
-22.2535016383
 20
-21.3559863515
 11
-22.252496988
 21
-21.2978833988
  0
LWPOLYLINE
  5
26D
100
AcDbEntity
  8
RACCORDO
100
AcDbPolyline
 62
250
  6
CONTINUOUS
 90
34
 70
0
 10
-19.951429099
 20
0.0
 10
-19.8550960787
 20
1.9229455941
 10
-19.5862037988
 20
3.7962174417
 10
-19.1447522593
 20
5.6197924113
 10
-18.5236186657
 20
7.4095081546
 10
-17.7299258124
 20
9.1494905526
 10
-16.7850420829
 20
10.7921625386
 10
-15.6848845199
 20
12.3345914235
 10
-14.4335360807
 20
13.7797176203
 10
-13.064614021
 20
15.0887976052
 10
-11.5748994853
 20
16.2581524658
 10
-9.9676113291
 20
17.2915067813
 10
-8.2860233746
 20
18.1612392972
 10
-6.5282582102
 20
18.8629035222
 10
-4.6961932475
 20
19.400998009
 10
-2.8387345434
 20
19.7613217041
 10
-0.9552668516
 20
19.9391530061
 10
0.9535945816
 20
19.9392360192
 10
2.8370979606
 20
19.7615596217
 10
4.6946365284
 20
19.4013758801
 10
6.526817042
 20
18.8634102356
 10
8.284707977
 20
18.1618529989
 10
9.9664288501
 20
17.2921968993
 10
11.5738601445
 20
16.2588971412
 10
13.0637117859
 20
15.0895903803
 10
14.4327604381
 20
13.7805618782
 10
15.6842294371
 20
12.3354807025
 10
16.7844987169
 20
10.7930762509
 10
17.7294819981
 20
9.1504255939
 10
18.5232655601
 20
7.4104439266
 10
19.144488174
 20
5.6206417114
 10
19.5860294303
 20
3.7968708567
 10
19.8550097387
 20
1.9233159073
 10
19.951429099
 20
0.0
  0
LWPOLYLINE
  5
26E
100
AcDbEntity
  8
0
100
AcDbPolyline
 62
250
  6
CONTINUOUS
 90
13
 70
0
 10
-22.2587219643
 20
21.4755923698
 10
-22.2543904448
 20
21.5407283715
 10
-22.2415890478
 20
21.604751172
 10
-22.2205365546
 20
21.6665665953
 10
-22.1915927608
 20
21.7251181902
 10
-22.155252328
 20
21.7794052859
 10
-22.112136329
 20
21.8285000934
 10
-22.062981634
 20
21.8715635623
 10
-22.0086283172
 20
21.90785972
 10
-21.9500052991
 20
21.9367682503
 10
-21.8881144713
 20
21.9577950945
 10
-21.8240135736
 20
21.970580895
 10
-21.7587981167
 20
21.9749071372
  0
LWPOLYLINE
  5
26F
100
AcDbEntity
  8
0
100
AcDbPolyline
 62
250
  6
CONTINUOUS
 90
13
 70
0
 10
21.7587981167
 20
-21.9749071372
 10
21.8240158637
 20
-21.9705805934
 10
21.8881185939
 20
-21.9577939908
 10
21.9500107266
 20
-21.9367660053
 10
22.0086345332
 20
-21.9078561372
 10
22.0629880834
 20
-21.8715586231
 10
22.1121424
 20
-21.8284940359
 10
22.1552575158
 20
-21.7793985422
 10
22.1915967425
 20
-21.7251113146
 10
22.2205391726
 20
-21.6665602985
 10
22.2415903763
 20
-21.6047462395
 10
22.2543908182
 20
-21.5407255611
 10
22.2587219643
 20
-21.4755923698
  0
LWPOLYLINE
  5
270
100
AcDbEntity
  8
0
100
AcDbPolyline
 62
7
  6
CONTINUOUS
 90
10
 70
0
 10
-7.5751425218
 20
-23.5
 10
-7.5101724453
 20
-23.4979246333
 10
-7.4457755497
 20
-23.4916441486
 10
-7.3819518351
 20
-23.4811585459
 10
-7.3182786723
 20
-23.4663410768
 10
-7.2551786904
 20
-23.4473184897
 10
-7.1939197766
 20
-23.4244710297
 10
-7.1349245598
 20
-23.3979254452
 10
-7.077770411
 20
-23.3675549878
 10
-7.0224573302
 20
-23.3333596575
  0
LWPOLYLINE
  5
271
100
AcDbEntity
  8
0
100
AcDbPolyline
 62
250
  6
CONTINUOUS
 90
12
 70
0
 10
21.8150777106
 20
-21.0180910636
 10
21.8785403651
 20
-21.0175199312
 10
21.939861104
 20
-21.0166103901
 10
21.9980138463
 20
-21.0153776597
 10
22.0520255208
 20
-21.0138423673
 10
22.1009923491
 20
-21.0120302028
 10
22.1440949683
 20
-21.0099714891
 10
22.1806121413
 20
-21.0077006747
 10
22.2099328256
 20
-21.0052557573
 10
22.2315663975
 20
-21.0026776476
 10
22.2451508621
 20
-21.0000094853
 10
22.2504589101
 20
-20.9972959167
  0
LINE
  5
272
100
AcDbEntity
  8
0
100
AcDbLine
 62
7
  6
CONTINUOUS
 10
14.9248574782
 20
-23.5
 11
7.5751425218
 21
-23.5
  0
LINE
  5
273
100
AcDbEntity
  8
0
100
AcDbLine
 62
7
  6
CONTINUOUS
 10
-7.5751425218
 20
-23.5
 11
-14.9248574782
 21
-23.5
  0
LINE
  5
274
100
AcDbEntity
  8
0
100
AcDbLine
 62
7
  6
CONTINUOUS
 10
-14.7198202597
 20
-22.5
 11
-7.7801797403
 21
-22.5
  0
LINE
  5
275
100
AcDbEntity
  8
0
100
AcDbLine
 62
7
  6
CONTINUOUS
 10
7.7801797403
 20
-22.5
 11
14.7198202597
 21
-22.5
  0
LINE
  5
276
100
AcDbEntity
  8
0
100
AcDbLine
 62
7
  6
CONTINUOUS
 10
21.9003805997
 20
-22.4
 11
14.55
 21
-22.4
  0
LINE
  5
277
100
AcDbEntity
  8
0
100
AcDbLine
 62
7
  6
CONTINUOUS
 10
7.95
 20
-22.4
 11
-7.95
 21
-22.4
  0
LINE
  5
278
100
AcDbEntity
  8
0
100
AcDbLine
 62
7
  6
CONTINUOUS
 10
-14.55
 20
-22.4
 11
-21.9003805997
 21
-22.4
  0
LINE
  5
279
100
AcDbEntity
  8
0
100
AcDbLine
 62
250
  6
CONTINUOUS
 10
21.7587981167
 20
-21.9749071372
 11
-21.7587981167
 21
-21.9749071372
  0
LINE
  5
27A
100
AcDbEntity
  8
0
100
AcDbLine
 62
250
  6
CONTINUOUS
 10
21.8150777106
 20
-21.0180910636
 11
-21.7505350625
 21
-21.0183142309
  0
LWPOLYLINE
  5
27B
100
AcDbEntity
  8
RACCORDO
100
AcDbPolyline
 62
250
  6
CONTINUOUS
 90
34
 70
0
 10
-19.4515052514
 20
0.0
 10
-19.3634146617
 20
1.8482670797
 10
-19.0999458454
 20
3.6800587578
 10
-18.6634095292
 20
5.4787532349
 10
-18.057640326
 20
7.2280946152
 10
-17.2880985471
 20
8.9120980661
 10
-16.3618942005
 20
10.5152459731
 10
-15.2874696948
 20
12.0229445747
 10
-14.0745476362
 20
13.4215871014
 10
-12.7342302658
 20
14.6985005634
 10
-11.2786454578
 20
15.8421620429
 10
-9.7210197785
 20
16.8422029554
 10
-8.0756713648
 20
17.6895666912
 10
-6.3576163883
 20
18.3766325375
 10
-4.5823265998
 20
18.8973011637
 10
-2.7657630825
 20
19.2469902871
 10
-0.9243858195
 20
19.422590432
 10
0.9252165126
 20
19.4225509006
 10
2.7665833918
 20
19.2468724561
 10
4.5831244837
 20
18.8971077758
 10
6.3583822318
 20
18.3763677146
 10
8.0764015336
 20
17.6892335244
 10
9.7217165989
 20
16.8418009751
 10
11.2793047979
 20
15.8416928875
 10
12.734836963
 20
14.6979752389
 10
14.0750821483
 20
13.4210269219
 10
15.2879239745
 20
12.0223673256
 10
16.3622724726
 20
10.514657791
 10
17.2884178959
 20
8.9114790136
 10
18.0578999707
 20
7.227446394
 10
18.6635888781
 20
5.4781427247
 10
19.1000382406
 20
3.6795796794
 10
19.363440915
 20
1.8479925287
 10
19.4515052514
 20
0.0
  0
LWPOLYLINE
  5
27C
100
AcDbEntity
  8
0
100
AcDbPolyline
 62
250
  6
CONTINUOUS
 90
6
 70
0
 10
-21.7587981167
 20
-21.9749071372
 10
-21.7580778305
 20
-21.9672615288
 10
-21.7573747324
 20
-21.9529518547
 10
-21.7566888224
 20
-21.9320739422
 10
-21.7560157428
 20
-21.9047671365
 10
-21.7547342215
 20
-21.8316458675
  0
LWPOLYLINE
  5
27D
100
AcDbEntity
  8
0
100
AcDbPolyline
 62
250
  6
CONTINUOUS
 90
8
 70
0
 10
-22.2587219643
 20
-21.4755923698
 10
-22.2580047836
 20
-21.4716997634
 10
-22.2573038303
 20
-21.4645988
 10
-22.2566191044
 20
-21.4542894797
 10
-22.255945919
 20
-21.4406578586
 10
-22.255288961
 20
-21.4238178806
 10
-22.2546622904
 20
-21.4041113772
 10
-22.2535016383
 20
-21.3559863515
  0
LINE
  5
27E
100
AcDbEntity
  8
0
100
AcDbLine
 62
7
  6
CONTINUOUS
 10
-14.6133443637
 20
22.5
 11
-14.6348722771
 21
22.4
  0
LWPOLYLINE
  5
27F
100
AcDbEntity
  8
0
100
AcDbPolyline
 62
7
  6
CONTINUOUS
 90
10
 70
0
 10
7.0224573302
 20
23.3333596575
 10
7.077770411
 20
23.3675549878
 10
7.1349245598
 20
23.3979254452
 10
7.1939197766
 20
23.4244710297
 10
7.2551786904
 20
23.4473184897
 10
7.3182786723
 20
23.4663410768
 10
7.3819518351
 20
23.4811585459
 10
7.4457755497
 20
23.4916441486
 10
7.5101724453
 20
23.4979246333
 10
7.5751425218
 20
23.5
  0
LWPOLYLINE
  5
280
100
AcDbEntity
  8
0
100
AcDbPolyline
 62
7
  6
CONTINUOUS
 90
10
 70
0
 10
7.0224573302
 20
-23.3333596575
 10
7.077770411
 20
-23.3675549878
 10
7.1349245598
 20
-23.3979254452
 10
7.1939197766
 20
-23.4244710297
 10
7.2551786904
 20
-23.4473184897
 10
7.3182786723
 20
-23.4663410768
 10
7.3819518351
 20
-23.4811585459
 10
7.4457755497
 20
-23.4916441486
 10
7.5101724453
 20
-23.4979246333
 10
7.5751425218
 20
-23.5
  0
LINE
  5
281
100
AcDbEntity
  8
0
100
AcDbLine
 62
7
  6
CONTINUOUS
 10
-14.6133443637
 20
-22.5
 11
-14.6348722771
 21
-22.4
  0
LINE
  5
282
100
AcDbEntity
  8
0
100
AcDbLine
 62
7
  6
CONTINUOUS
 10
-14.7198202597
 20
-22.4
 11
-14.7198202597
 21
-22.5
  0
LINE
  5
283
100
AcDbEntity
  8
0
100
AcDbLine
 62
7
  6
CONTINUOUS
 10
-14.7198202597
 20
22.4
 11
-14.7198202597
 21
22.5
  0
LWPOLYLINE
  5
284
100
AcDbEntity
  8
RACCORDO
100
AcDbPolyline
 62
7
  6
CONTINUOUS
 90
21
 70
0
 10
-12.2116882383
 20
0.6940110879
 10
-12.2171696477
 20
0.6639680348
 10
-12.2209610148
 20
0.6347355346
 10
-12.2229509953
 20
0.6063986776
 10
-12.2232299387
 20
0.5789874427
 10
-12.2220688943
 20
0.5525917664
 10
-12.2195062102
 20
0.5272217688
 10
-12.2155035381
 20
0.5028673299
 10
-12.2102168824
 20
0.4795880255
 10
-12.2036617246
 20
0.4573332454
 10
-12.1958225832
 20
0.4361535999
 10
-12.186809017
 20
0.416260496
 10
-12.1766792983
 20
0.3976611694
 10
-12.1653751548
 20
0.3803483845
 10
-12.152831328
 20
0.3645118411
 10
-12.1387976021
 20
0.3499861634
 10
-12.123524193
 20
0.3369367273
 10
-12.1076964896
 20
0.3260493611
 10
-12.0915429551
 20
0.3175526742
 10
-12.0748351262
 20
0.3112180572
 10
-12.0575730032
 20
0.3070455101
  0
LINE
  5
285
100
AcDbEntity
  8
0
100
AcDbLine
 62
7
  6
CONTINUOUS
 10
-7.8133443637
 20
22.5
 11
-7.8348722771
 21
22.4
  0
LINE
  5
286
100
AcDbEntity
  8
RACCORDO
100
AcDbLine
 62
7
  6
CONTINUOUS
 10
-12.2044538027
 20
0.7252099012
 11
-12.2116882383
 21
0.6940110879
  0
LINE
  5
287
100
AcDbEntity
  8
0
100
AcDbLine
 62
250
  6
CONTINUOUS
 10
-22.4
 20
-21.8997711479
 11
-22.2587219643
 21
-21.4755923698
  0
LINE
  5
288
100
AcDbEntity
  8
0
100
AcDbLine
 62
250
  6
CONTINUOUS
 10
-21.9003805997
 20
-22.4
 11
-21.7587981167
 21
-21.9749071372
  0
LINE
  5
289
100
AcDbEntity
  8
0
100
AcDbLine
 62
250
  6
CONTINUOUS
 10
-22.2587219643
 20
21.4755923698
 11
-22.4
 21
21.8997711479
  0
LINE
  5
28A
100
AcDbEntity
  8
0
100
AcDbLine
 62
250
  6
CONTINUOUS
 10
-21.7587981167
 20
21.9749071372
 11
-21.9003805997
 21
22.4
  0
LINE
  5
28B
100
AcDbEntity
  8
0
100
AcDbLine
 62
7
  6
CONTINUOUS
 10
-7.8133443637
 20
-22.5
 11
-7.8348722771
 21
-22.4
  0
LINE
  5
28C
100
AcDbEntity
  8
0
100
AcDbLine
 62
7
  6
CONTINUOUS
 10
-7.7801797403
 20
22.5
 11
-7.7801797403
 21
22.4
  0
LINE
  5
28D
100
AcDbEntity
  8
0
100
AcDbLine
 62
7
  6
CONTINUOUS
 10
-7.7801797403
 20
-22.5
 11
-7.7801797403
 21
-22.4
  0
LWPOLYLINE
  5
28E
100
AcDbEntity
  8
0
100
AcDbPolyline
 62
7
  6
CONTINUOUS
 90
3
 70
0
 43
0.3499999917
 10
1.0357143259
 20
37.4535791016
 10
0.9642857552
 20
37.239291687
 10
0.8214285636
 20
36.9535794067
  0
LWPOLYLINE
  5
28F
100
AcDbEntity
  8
RACCORDO
100
AcDbPolyline
 62
250
  6
CONTINUOUS
 90
9
 70
0
 10
-7.0283496252
 20
1.3095938606
 10
-7.0719097299
 20
1.1005699555
 10
-7.1145217334
 20
0.8561517941
 10
-7.1479303614
 20
0.6143399113
 10
-7.1724652096
 20
0.3751652763
 10
-7.1893217391
 20
0.1420272921
 10
-7.1988984372
 20
-0.0839409069
 10
-7.2007968166
 20
-0.3038724551
 10
-7.1950168774
 20
-0.5177673525
  0
LWPOLYLINE
  5
290
100
AcDbEntity
  8
RACCORDO
100
AcDbPolyline
 62
250
  6
CONTINUOUS
 90
6
 70
0
 10
-6.7683836658
 20
0.0406868081
 10
-6.7570944771
 20
0.0882637202
 10
-6.7461989228
 20
0.137656122
 10
-6.7357057474
 20
0.1888533219
 10
-6.7256183309
 20
0.2418275667
 10
-6.7168188926
 20
0.2916166136
  0
LINE
  5
291
100
AcDbEntity
  8
RACCORDO
100
AcDbLine
 62
250
  6
CONTINUOUS
 10
-6.7800941478
 20
-0.0051862955
 11
-6.7683836658
 21
0.0406868081
  0
LINE
  5
292
100
AcDbEntity
  8
RACCORDO
100
AcDbLine
 62
250
  6
CONTINUOUS
 10
-6.7274758927
 20
-0.353784198
 11
-6.7216388519
 21
-0.343932834
  0
LWPOLYLINE
  5
293
100
AcDbEntity
  8
RACCORDO
100
AcDbPolyline
 62
250
  6
CONTINUOUS
 90
11
 70
0
 10
-6.92286789
 20
-0.3674853777
 10
-6.9062270439
 20
-0.3394169634
 10
-6.8901724253
 20
-0.3094426294
 10
-6.8746790117
 20
-0.2776404918
 10
-6.8597074081
 20
-0.2439851915
 10
-6.8452548436
 20
-0.2085381832
 10
-6.8313058184
 20
-0.1713693256
 10
-6.8178227172
 20
-0.132421212
 10
-6.8048029811
 20
-0.0917267149
 10
-6.7922358583
 20
-0.0493362029
 10
-6.7800941478
 20
-0.0051862955
  0
LWPOLYLINE
  5
294
100
AcDbEntity
  8
COPY-PUBBLISH
100
AcDbPolyline
 62
7
  6
CONTINUOUS
 90
25
 70
0
 10
-7.4087905944
 20
-1.0660254038
 10
-7.439867544
 20
-1.1149144802
 10
-7.4722810272
 20
-1.1637876536
 10
-7.506031044
 20
-1.2125750399
 10
-7.5411306338
 20
-1.2612573714
 10
-7.5775667572
 20
-1.3097253964
 10
-7.6153002959
 20
-1.357774544
 10
-7.6543430804
 20
-1.405335313
 10
-7.6946832802
 20
-1.4523597298
 10
-7.7362462858
 20
-1.4986736338
 10
-7.7790424779
 20
-1.544219638
 10
-7.8230614758
 20
-1.5889559943
 10
-7.8681975274
 20
-1.6327332714
 10
-7.9144421932
 20
-1.6754941696
 10
-7.9618039127
 20
-1.7172173913
 10
-8.0102022531
 20
-1.757810888
 10
-8.0596381761
 20
-1.7972444049
 10
-8.1101107199
 20
-1.8354908716
 10
-8.161536566
 20
-1.8724671457
 10
-8.2139122562
 20
-1.9081521161
 10
-8.2672412488
 20
-1.9425281252
 10
-8.3214505998
 20
-1.9755210049
 10
-8.3765159946
 20
-2.0070982842
 10
-8.4324617478
 20
-2.0372691846
 10
-8.4892878595
 20
-2.0660254038
  0
LINE
  5
295
100
AcDbEntity
  8
0
100
AcDbLine
 62
7
  6
CONTINUOUS
 10
8.0166327976
 20
22.5
 11
7.95
 21
22.4
  0
LWPOLYLINE
  5
296
100
AcDbEntity
  8
RACCORDO
100
AcDbPolyline
 62
250
  6
CONTINUOUS
 90
16
 70
0
 10
-8.778127933
 20
-2.703949983
 10
-8.778266694
 20
-2.7039183906
 10
-8.7819266868
 20
-2.7005145401
 10
-8.7862451602
 20
-2.6944193502
 10
-8.7911731578
 20
-2.6857019197
 10
-8.7966548128
 20
-2.6744610744
 10
-8.8026279821
 20
-2.6608242474
 10
-8.8090249503
 20
-2.6449460337
 10
-8.8157731979
 20
-2.6270064379
 10
-8.8227962228
 20
-2.6072088339
 10
-8.8300144081
 20
-2.5857776585
 10
-8.8373459245
 20
-2.5629558677
 10
-8.8447076578
 20
-2.5390021823
 10
-8.8520161514
 20
-2.5141881545
 10
-8.8591885525
 20
-2.4887950896
 10
-8.8661435508
 20
-2.463110857
  0
LWPOLYLINE
  5
297
100
AcDbEntity
  8
COPY-PUBBLISH
100
AcDbPolyline
 62
7
  6
CONTINUOUS
 90
25
 70
0
 10
-10.5107121405
 20
-2.0660254038
 10
-10.5675546897
 20
-2.037262311
 10
-10.6235256193
 20
-2.0070765222
 10
-10.6786249293
 20
-1.9754763594
 10
-10.7328805048
 20
-1.9424508801
 10
-10.7862644606
 20
-1.9080343677
 10
-10.8386931416
 20
-1.8723063177
 10
-10.8901694213
 20
-1.835283358
 10
-10.9406904262
 20
-1.7969877833
 10
-10.990163881
 20
-1.7575113197
 10
-11.0385868925
 20
-1.7168813199
 10
-11.085962354
 20
-1.675127792
 10
-11.1322066695
 20
-1.6323504011
 10
-11.1773246222
 20
-1.5885737337
 10
-11.221311429
 20
-1.5438514371
 10
-11.2640691451
 20
-1.4983300274
 10
-11.3055870265
 20
-1.4520528976
 10
-11.3458758171
 20
-1.4050752168
 10
-11.3848698038
 20
-1.3575626167
 10
-11.4225582675
 20
-1.3095634556
 10
-11.4589519273
 20
-1.2611464982
 10
-11.4940172266
 20
-1.2125066172
 10
-11.52774298
 20
-1.1637501064
 10
-11.560140373
 20
-1.1148996555
 10
-11.5912094056
 20
-1.0660254038
  0
LWPOLYLINE
  5
298
100
AcDbEntity
  8
RACCORDO
100
AcDbPolyline
 62
7
  6
CONTINUOUS
 90
10
 70
0
 10
-7.1621934313
 20
-0.544378673
 10
-7.1660194264
 20
-0.541565946
 10
-7.1697994746
 20
-0.538715429
 10
-7.1735335761
 20
-0.5358271218
 10
-7.1772201169
 20
-0.5328986666
 10
-7.1808607109
 20
-0.5299324213
 10
-7.1844601998
 20
-0.5269354599
 10
-7.1880201974
 20
-0.5239101402
 10
-7.19153909
 20
-0.5208541044
 10
-7.1950168774
 20
-0.5177673525
  0
LINE
  5
299
100
AcDbEntity
  8
0
100
AcDbLine
 62
7
  6
CONTINUOUS
 10
7.95
 20
-22.4
 11
8.0166327976
 21
-22.5
  0
LWPOLYLINE
  5
29A
100
AcDbEntity
  8
0
100
AcDbPolyline
 62
7
  6
CONTINUOUS
 90
2
 70
0
 43
0.3499999917
 10
-3.3928569603
 20
37.1678668213
 10
-3.3928569603
 20
38.6678659058
  0
LWPOLYLINE
  5
29B
100
AcDbEntity
  8
0
100
AcDbPolyline
 62
7
  6
CONTINUOUS
 90
2
 70
0
 43
0.3499999917
 10
-1.0357143259
 20
37.1678668213
 10
-1.0357143259
 20
38.6678659058
  0
LINE
  5
29C
100
AcDbEntity
  8
RACCORDO
100
AcDbLine
 62
250
  6
CONTINUOUS
 10
-7.7124274534
 20
-2.1539735604
 11
-8.8661435508
 21
-2.463110857
  0
LINE
  5
29D
100
AcDbEntity
  8
RACCORDO
100
AcDbLine
 62
250
  6
CONTINUOUS
 10
7.7124274534
 20
2.1539735604
 11
8.8661435508
 21
2.463110857
  0
LWPOLYLINE
  5
29E
100
AcDbEntity
  8
RACCORDO
100
AcDbPolyline
 62
250
  6
CONTINUOUS
 90
46
 70
0
 10
-8.8661435508
 20
-2.463110857
 10
-8.9208539886
 20
-2.4772696507
 10
-8.9770560056
 20
-2.490301927
 10
-9.0347496018
 20
-2.5022076857
 10
-9.0937894439
 20
-2.5130742575
 10
-9.1543208651
 20
-2.5228143118
 10
-9.2167798657
 20
-2.5311658572
 10
-9.2811911689
 20
-2.5381884715
 10
-9.3475300515
 20
-2.543822577
 10
-9.4161583439
 20
-2.5476274488
 10
-9.4871044943
 20
-2.549668202
 10
-9.5603400545
 20
-2.5498797215
 10
-9.6361415094
 20
-2.5476259373
 10
-9.7145597151
 20
-2.5429790242
 10
-9.7955438155
 20
-2.5358668075
 10
-9.8792177271
 20
-2.5254366929
 10
-9.9656618565
 20
-2.5117631569
 10
-10.054795797
 20
-2.4947717231
 10
-10.146502245
 20
-2.4733863683
 10
-10.2408860957
 20
-2.4476821351
 10
-10.3378424539
 20
-2.417583981
 10
-10.4369393296
 20
-2.3817907552
 10
-10.5384044864
 20
-2.3403113224
 10
-10.6420101607
 20
-2.293136818
 10
-10.7466410722
 20
-2.2389394974
 10
-10.8526820259
 20
-2.1774862155
 10
-10.9597482169
 20
-2.1090101175
 10
-11.0655699498
 20
-2.0328828937
 10
-11.1702653399
 20
-1.9487931701
 10
-11.273716272
 20
-1.8570523206
 10
-11.3732987048
 20
-1.7579661577
 10
-11.4689375266
 20
-1.6512153443
 10
-11.5607078491
 20
-1.5371192174
 10
-11.6462109659
 20
-1.4169416007
 10
-11.7252332479
 20
-1.2903997339
 10
-11.7979883241
 20
-1.1577763772
 10
-11.8627183754
 20
-1.021183635
 10
-11.9190930242
 20
-0.8805961024
 10
-11.9674426481
 20
-0.7360391842
 10
-12.0070005607
 20
-0.5897011998
 10
-12.0375340042
 20
-0.4417817022
 10
-12.0592757365
 20
-0.2920811384
 10
-12.0721573438
 20
-0.1421891692
 10
-12.0761560218
 20
0.0073643185
 10
-12.0712945749
 20
0.1571092116
 10
-12.0575730032
 20
0.3070455101
  0
LWPOLYLINE
  5
29F
100
AcDbEntity
  8
RACCORDO
100
AcDbPolyline
 62
250
  6
CONTINUOUS
 90
46
 70
0
 10
8.8661435508
 20
2.463110857
 10
8.9208558684
 20
2.4772699776
 10
8.9770586714
 20
2.4903024082
 10
9.0347519598
 20
2.5022081488
 10
9.0937903406
 20
2.5130744421
 10
9.1543192069
 20
2.5228140454
 10
9.2167747377
 20
2.5311652305
 10
9.2811816492
 20
2.538187581
 10
9.3475152252
 20
2.5438215134
 10
9.416137496
 20
2.5476265488
 10
9.4870768936
 20
2.5496678082
 10
9.5603049861
 20
2.5498801705
 10
9.6360985077
 20
2.5476277938
 10
9.7145082945
 20
2.5429828644
 10
9.7954835105
 20
2.5358731959
 10
9.8791483815
 20
2.5254463873
 10
9.9655832934
 20
2.511776936
 10
10.0547078603
 20
2.4947903446
 10
10.1464051514
 20
2.4734107192
 10
10.2407800582
 20
2.4477131276
 10
10.337727689
 20
2.417622502
 10
10.4368164387
 20
2.3818377459
 10
10.5382739144
 20
2.3403678771
 10
10.6418725089
 20
2.2932038776
 10
10.7464977949
 20
2.2390175965
 10
10.8525345568
 20
2.1775761709
 10
10.9595980102
 20
2.1091124636
 10
11.0654193741
 20
2.0329969123
 10
11.1701170459
 20
1.9489183167
 10
11.2735726282
 20
1.8571878771
 10
11.3731621488
 20
1.7581096322
 10
11.4688110186
 20
1.6513638961
 10
11.5605938265
 20
1.5372703548
 10
11.6461103673
 20
1.4170921043
 10
11.7251471613
 20
1.2905457659
 10
11.7979176881
 20
1.1579147183
 10
11.8626621806
 20
1.0213121943
 10
11.9190498997
 20
0.8807126192
 10
11.9674115845
 20
0.7361415678
 10
12.006979686
 20
0.5897889963
 10
12.0375211305
 20
0.4418547816
 10
12.0592689918
 20
0.2921390469
 10
12.0721549422
 20
0.1422321179
 10
12.0761562059
 20
-0.007335897
 10
12.0712955589
 20
-0.1570951062
 10
12.057573001
 20
-0.3070455097
  0
LINE
  5
2A0
100
AcDbEntity
  8
COPY-PUBBLISH
100
AcDbLine
 62
250
  6
CONTINUOUS
 10
-8.4892878595
 20
-2.0660254038
 11
-10.5107121405
 21
-2.0660254038
  0
LWPOLYLINE
  5
2A1
100
AcDbEntity
  8
0
100
AcDbPolyline
 62
7
  6
CONTINUOUS
 90
2
 70
0
 43
0.3499999917
 10
34.9282781982
 20
-1.3571420288
 10
33.4282759094
 20
-1.3571420288
  0
LINE
  5
2A2
100
AcDbEntity
  8
COPY-PUBBLISH
100
AcDbLine
 62
250
  6
CONTINUOUS
 10
-7.4087905944
 20
-1.0660254038
 11
-11.5912094056
 21
-1.0660254038
  0
LWPOLYLINE
  5
2A3
100
AcDbEntity
  8
0
100
AcDbPolyline
 62
7
  6
CONTINUOUS
 90
4
 70
0
 43
0.3499999917
 10
32.5711358643
 20
0.0000009155
 10
31.928276825
 20
0.0000009155
 10
31.928276825
 20
1.5
 10
34.9282781982
 20
0.6428567505
  0
LWPOLYLINE
  5
2A4
100
AcDbEntity
  8
RACCORDO
100
AcDbPolyline
 62
250
  6
CONTINUOUS
 90
18
 70
0
 10
-7.1920994876
 20
-0.6469346824
 10
-7.1612931247
 20
-0.6488320388
 10
-7.1309369868
 20
-0.6483126721
 10
-7.101031074
 20
-0.6453765822
 10
-7.0716396417
 20
-0.6400348384
 10
-7.0426984344
 20
-0.6322763715
 10
-7.014014686
 20
-0.6220679741
 10
-6.9854897932
 20
-0.6094163866
 10
-6.9572223593
 20
-0.5943148686
 10
-6.9293154278
 20
-0.5767099917
 10
-6.901674203
 20
-0.5564703983
 10
-6.8743934806
 20
-0.533727446
 10
-6.8478606917
 20
-0.5088217785
 10
-6.8221797426
 20
-0.4817708572
 10
-6.797246727
 20
-0.4525572207
 10
-6.7731373569
 20
-0.4214691281
 10
-6.749894802
 20
-0.3885638911
 10
-6.7274758927
 20
-0.353784198
  0
LINE
  5
2A5
100
AcDbEntity
  8
RACCORDO
100
AcDbLine
 62
7
  6
CONTINUOUS
 10
-11.9683038008
 20
0.29079442
 11
-12.0575730032
 21
0.3070455101
  0
LWPOLYLINE
  5
2A6
100
AcDbEntity
  8
RACCORDO
100
AcDbPolyline
 62
250
  6
CONTINUOUS
 90
15
 70
0
 10
-7.1950168077
 20
-0.517767633
 10
-7.1739149807
 20
-0.522596474
 10
-7.1528106167
 20
-0.5250139929
 10
-7.1318862146
 20
-0.5250021346
 10
-7.1115151103
 20
-0.5225875486
 10
-7.0916423834
 20
-0.5178685388
 10
-7.0718208047
 20
-0.5107913344
 10
-7.0521760479
 20
-0.5013278938
 10
-7.03291011
 20
-0.4895394668
 10
-7.0137414845
 20
-0.4752408769
 10
-6.9947019692
 20
-0.4583684155
 10
-6.9760419254
 20
-0.4390806516
 10
-6.9578162305
 20
-0.4174316934
 10
-6.9400741749
 20
-0.3935206747
 10
-6.92286789
 20
-0.3674853777
  0
LWPOLYLINE
  5
2A7
100
AcDbEntity
  8
0
100
AcDbPolyline
 62
7
  6
CONTINUOUS
 90
4
 70
0
 43
0.3499999917
 10
2.0357142162
 20
37.5964352417
 10
2.0357142162
 20
38.4535784912
 10
2.4642856407
 20
38.8821533203
 10
3.1071428776
 20
38.8821533203
  0
LINE
  5
2A8
100
AcDbEntity
  8
0
100
AcDbLine
 62
7
  6
CONTINUOUS
 10
7.8866556363
 20
22.5
 11
7.8651277229
 21
22.4
  0
LINE
  5
2A9
100
AcDbEntity
  8
COPY-PUBBLISH
100
AcDbLine
 62
250
  6
CONTINUOUS
 10
7.4087905944
 20
1.0660254038
 11
11.5912094056
 21
1.0660254038
  0
LINE
  5
2AA
100
AcDbEntity
  8
COPY-PUBBLISH
100
AcDbLine
 62
250
  6
CONTINUOUS
 10
8.4892878595
 20
2.0660254038
 11
10.5107121405
 21
2.0660254038
  0
LWPOLYLINE
  5
2AB
100
AcDbEntity
  8
RACCORDO
100
AcDbPolyline
 62
250
  6
CONTINUOUS
 90
18
 70
0
 10
7.1920995094
 20
0.6469347617
 10
7.1612953006
 20
0.6488322256
 10
7.1309410966
 20
0.6483132371
 10
7.1010368974
 20
0.6453777963
 10
7.0716469488
 20
0.6400369965
 10
7.0427070051
 20
0.6322797443
 10
7.0140243285
 20
0.6220727597
 10
6.9855003397
 20
0.6094227967
 10
6.9572336181
 20
0.5943231012
 10
6.929327164
 20
0.5767201313
 10
6.9016861693
 20
0.5564825524
 10
6.8744054421
 20
0.5337416992
 10
6.8478724081
 20
0.5088380332
 10
6.8221909319
 20
0.4817889718
 10
6.7972571487
 20
0.4525770978
 10
6.7731468895
 20
0.421490621
 10
6.7499033389
 20
0.3885868586
 10
6.7274833121
 20
0.3538084935
  0
LINE
  5
2AC
100
AcDbEntity
  8
RACCORDO
100
AcDbLine
 62
7
  6
CONTINUOUS
 10
11.9683038008
 20
-0.29079442
 11
12.057573001
 21
-0.3070455097
  0
LWPOLYLINE
  5
2AD
100
AcDbEntity
  8
RACCORDO
100
AcDbPolyline
 62
250
  6
CONTINUOUS
 90
16
 70
0
 10
8.778127933
 20
2.703949983
 10
8.778266694
 20
2.7039183906
 10
8.7819266868
 20
2.7005145401
 10
8.7862451602
 20
2.6944193502
 10
8.7911731578
 20
2.6857019197
 10
8.7966548128
 20
2.6744610744
 10
8.8026279821
 20
2.6608242474
 10
8.8090249503
 20
2.6449460337
 10
8.8157731979
 20
2.6270064379
 10
8.8227962228
 20
2.6072088339
 10
8.8300144081
 20
2.5857776585
 10
8.8373459245
 20
2.5629558677
 10
8.8447076578
 20
2.5390021823
 10
8.8520161514
 20
2.5141881545
 10
8.8591885525
 20
2.4887950896
 10
8.8661435508
 20
2.463110857
  0
LWPOLYLINE
  5
2AE
100
AcDbEntity
  8
RACCORDO
100
AcDbPolyline
 62
250
  6
CONTINUOUS
 90
15
 70
0
 10
7.195015147
 20
0.5177676117
 10
7.1739148203
 20
0.5225959676
 10
7.1528118765
 20
0.5250133298
 10
7.1318887743
 20
0.5250016282
 10
7.111518795
 20
0.5225874867
 10
7.0916470152
 20
0.5178691814
 10
7.0718262461
 20
0.5107929218
 10
7.052182155
 20
0.5013306407
 10
7.0329167023
 20
0.4895435495
 10
7.0137483811
 20
0.4752464572
 10
6.994709006
 20
0.4583756395
 10
6.9760489221
 20
0.439089603
 10
6.9578229745
 20
0.4174423777
 10
6.9400804666
 20
0.3935330493
 10
6.9228735712
 20
0.3674993836
  0
LINE
  5
2AF
100
AcDbEntity
  8
0
100
AcDbLine
 62
7
  6
CONTINUOUS
 10
7.8866556363
 20
-22.5
 11
7.8651277229
 21
-22.4
  0
LINE
  5
2B0
100
AcDbEntity
  8
0
100
AcDbLine
 62
7
  6
CONTINUOUS
 10
7.7801797403
 20
-22.4
 11
7.7801797403
 21
-22.5
  0
LINE
  5
2B1
100
AcDbEntity
  8
0
100
AcDbLine
 62
7
  6
CONTINUOUS
 10
7.7801797403
 20
22.4
 11
7.7801797403
 21
22.5
  0
LWPOLYLINE
  5
2B2
100
AcDbEntity
  8
RACCORDO
100
AcDbPolyline
 62
250
  6
CONTINUOUS
 90
7
 70
0
 10
7.0276947844
 20
-1.3084674978
 10
7.074329903
 20
-1.0885698734
 10
7.1274260559
 20
-0.768753547
 10
7.166095322
 20
-0.4479222371
 10
7.190162177
 20
-0.1270406996
 10
7.1998021453
 20
0.1948558215
 10
7.1950152268
 20
0.517767326
  0
LWPOLYLINE
  5
2B3
100
AcDbEntity
  8
RACCORDO
100
AcDbPolyline
 62
250
  6
CONTINUOUS
 90
6
 70
0
 10
6.7683793622
 20
-0.0406627141
 10
6.7570896463
 20
-0.0882398362
 10
6.7461937304
 20
-0.1376327402
 10
6.7357003785
 20
-0.188830766
 10
6.7256129974
 20
-0.2418061423
 10
6.7168167641
 20
-0.2915797089
  0
LINE
  5
2B4
100
AcDbEntity
  8
RACCORDO
100
AcDbLine
 62
250
  6
CONTINUOUS
 10
6.7800905238
 20
0.0052103669
 11
6.7683793622
 21
-0.0406627141
  0
LINE
  5
2B5
100
AcDbEntity
  8
RACCORDO
100
AcDbLine
 62
250
  6
CONTINUOUS
 10
6.7274833121
 20
0.3538084935
 11
6.7216405662
 21
0.3439483325
  0
LWPOLYLINE
  5
2B6
100
AcDbEntity
  8
RACCORDO
100
AcDbPolyline
 62
250
  6
CONTINUOUS
 90
11
 70
0
 10
6.9228735712
 20
0.3674993836
 10
6.90623198
 20
0.3394325207
 10
6.8901765099
 20
0.3094596528
 10
6.8746821633
 20
0.2776588841
 10
6.8597095636
 20
0.2440048356
 10
6.8452559715
 20
0.2085589697
 10
6.8313059135
 20
0.1713911366
 10
6.8178217887
 20
0.1324438809
 10
6.8048010701
 20
0.0917500583
 10
6.7922330418
 20
0.0493600265
 10
6.7800905238
 20
0.0052103669
  0
LWPOLYLINE
  5
2B7
100
AcDbEntity
  8
COPY-PUBBLISH
100
AcDbPolyline
 62
7
  6
CONTINUOUS
 90
25
 70
0
 10
7.4087905944
 20
1.0660254038
 10
7.439867544
 20
1.1149144802
 10
7.4722810272
 20
1.1637876536
 10
7.506031044
 20
1.2125750399
 10
7.5411306338
 20
1.2612573714
 10
7.5775667572
 20
1.3097253964
 10
7.6153002959
 20
1.357774544
 10
7.6543430804
 20
1.405335313
 10
7.6946832802
 20
1.4523597298
 10
7.7362462858
 20
1.4986736338
 10
7.7790424779
 20
1.544219638
 10
7.8230614758
 20
1.5889559943
 10
7.8681975274
 20
1.6327332714
 10
7.9144421932
 20
1.6754941696
 10
7.9618039127
 20
1.7172173913
 10
8.0102022531
 20
1.757810888
 10
8.0596381761
 20
1.7972444049
 10
8.1101107199
 20
1.8354908716
 10
8.161536566
 20
1.8724671457
 10
8.2139122562
 20
1.9081521161
 10
8.2672412488
 20
1.9425281252
 10
8.3214505998
 20
1.9755210049
 10
8.3765159946
 20
2.0070982842
 10
8.4324617478
 20
2.0372691846
 10
8.4892878595
 20
2.0660254038
  0
LINE
  5
2B8
100
AcDbEntity
  8
0
100
AcDbLine
 62
7
  6
CONTINUOUS
 10
-7.95
 20
-22.4
 11
-8.0166327976
 21
-22.5
  0
LWPOLYLINE
  5
2B9
100
AcDbEntity
  8
COPY-PUBBLISH
100
AcDbPolyline
 62
7
  6
CONTINUOUS
 90
25
 70
0
 10
10.5107121405
 20
2.0660254038
 10
10.5675546897
 20
2.037262311
 10
10.6235256193
 20
2.0070765222
 10
10.6786249293
 20
1.9754763594
 10
10.7328805048
 20
1.9424508801
 10
10.7862644606
 20
1.9080343677
 10
10.8386931416
 20
1.8723063177
 10
10.8901694213
 20
1.835283358
 10
10.9406904262
 20
1.7969877833
 10
10.990163881
 20
1.7575113197
 10
11.0385868925
 20
1.7168813199
 10
11.085962354
 20
1.675127792
 10
11.1322066695
 20
1.6323504011
 10
11.1773246222
 20
1.5885737337
 10
11.221311429
 20
1.5438514371
 10
11.2640691451
 20
1.4983300274
 10
11.3055870265
 20
1.4520528976
 10
11.3458758171
 20
1.4050752168
 10
11.3848698038
 20
1.3575626167
 10
11.4225582675
 20
1.3095634556
 10
11.4589519273
 20
1.2611464982
 10
11.4940172266
 20
1.2125066172
 10
11.52774298
 20
1.1637501064
 10
11.560140373
 20
1.1148996555
 10
11.5912094056
 20
1.0660254038
  0
LWPOLYLINE
  5
2BA
100
AcDbEntity
  8
RACCORDO
100
AcDbPolyline
 62
7
  6
CONTINUOUS
 90
10
 70
0
 10
7.1621932605
 20
0.5443781667
 10
7.1660191211
 20
0.5415655196
 10
7.1697990417
 20
0.5387150889
 10
7.1735330223
 20
0.5358268744
 10
7.177219468
 20
0.5328985355
 10
7.1808599738
 20
0.529932413
 10
7.1844593241
 20
0.5269355286
 10
7.1880191138
 20
0.5239102229
 10
7.191537748
 20
0.5208541554
 10
7.1950152268
 20
0.517767326
  0
LINE
  5
2BB
100
AcDbEntity
  8
0
100
AcDbLine
 62
7
  6
CONTINUOUS
 10
-8.0166327976
 20
22.5
 11
-7.95
 21
22.4
  0
LWPOLYLINE
  5
2BC
100
AcDbEntity
  8
RACCORDO
100
AcDbPolyline
 62
7
  6
CONTINUOUS
 90
21
 70
0
 10
12.2116882891
 20
-0.6940108704
 10
12.2171693586
 20
-0.6639701376
 10
12.2209607316
 20
-0.6347384549
 10
12.2229508373
 20
-0.6064022614
 10
12.2232300044
 20
-0.5789915411
 10
12.2220692194
 20
-0.5525962461
 10
12.219506825
 20
-0.5272264933
 10
12.2155044784
 20
-0.5028721657
 10
12.2102181384
 20
-0.4795928643
 10
12.2036632847
 20
-0.4573379771
 10
12.1958244376
 20
-0.4361581161
 10
12.1868111171
 20
-0.4162647191
 10
12.1766816038
 20
-0.3976650228
 10
12.165377617
 20
-0.3803517905
 10
12.1528338353
 20
-0.3645147493
 10
12.138800033
 20
-0.3499884922
 10
12.1235264358
 20
-0.3369384263
 10
12.1076983984
 20
-0.3260505003
 10
12.0915443727
 20
-0.3175533636
 10
12.0748359069
 20
-0.3112183667
 10
12.057573001
 20
-0.3070455097
  0
LINE
  5
2BD
100
AcDbEntity
  8
0
100
AcDbLine
 62
7
  6
CONTINUOUS
 10
14.6866556363
 20
22.5
 11
14.6651277229
 21
22.4
  0
LINE
  5
2BE
100
AcDbEntity
  8
RACCORDO
100
AcDbLine
 62
7
  6
CONTINUOUS
 10
12.2044537971
 20
-0.7252099226
 11
12.2116882891
 21
-0.6940108704
  0
LINE
  5
2BF
100
AcDbEntity
  8
0
100
AcDbLine
 62
7
  6
CONTINUOUS
 10
14.6866556363
 20
-22.5
 11
14.6651277229
 21
-22.4
  0
LINE
  5
2C0
100
AcDbEntity
  8
0
100
AcDbLine
 62
7
  6
CONTINUOUS
 10
14.7198202597
 20
22.5
 11
14.7198202597
 21
22.4
  0
LINE
  5
2C1
100
AcDbEntity
  8
0
100
AcDbLine
 62
7
  6
CONTINUOUS
 10
14.7198202597
 20
-22.5
 11
14.7198202597
 21
-22.4
  0
LINE
  5
2C2
100
AcDbEntity
  8
0
100
AcDbLine
 62
250
  6
CONTINUOUS
 10
21.7587981167
 20
21.9749071372
 11
21.9003805997
 21
22.4
  0
LINE
  5
2C3
100
AcDbEntity
  8
0
100
AcDbLine
 62
250
  6
CONTINUOUS
 10
22.2587219643
 20
21.4755923698
 11
22.4
 21
21.8997711479
  0
LINE
  5
2C4
100
AcDbEntity
  8
0
100
AcDbLine
 62
250
  6
CONTINUOUS
 10
21.9003805997
 20
-22.4
 11
21.7587981167
 21
-21.9749071372
  0
LINE
  5
2C5
100
AcDbEntity
  8
0
100
AcDbLine
 62
250
  6
CONTINUOUS
 10
22.4
 20
-21.8997711479
 11
22.2587219643
 21
-21.4755923698
  0
LWPOLYLINE
  5
2C6
100
AcDbEntity
  8
0
100
AcDbPolyline
 62
250
  6
CONTINUOUS
 90
5
 70
0
 10
21.7587981167
 20
-21.9749071372
 10
21.7579305567
 20
-21.9649279068
 10
21.7570916407
 20
-21.9453762272
 10
21.7562813689
 20
-21.9164431217
 10
21.7554924982
 20
-21.8784105381
  0
LWPOLYLINE
  5
2C7
100
AcDbEntity
  8
RACCORDO
100
AcDbPolyline
 62
250
  6
CONTINUOUS
 90
34
 70
0
 10
19.4515052514
 20
0.0
 10
19.3634175737
 20
-1.8482366217
 10
19.0999561295
 20
-3.6800054309
 10
18.6634295796
 20
-5.4786849814
 10
18.0576702051
 20
-7.2280200196
 10
17.2881364581
 20
-8.9120245759
 10
16.3619376449
 20
-10.5151784209
 10
15.2875143114
 20
-12.0228878832
 10
14.0745885466
 20
-13.4215442306
 10
12.7342658717
 20
-14.6984697377
 10
11.2786762759
 20
-15.8421401182
 10
9.7210451315
 20
-16.8421883324
 10
8.0756898933
 20
-17.6895582386
 10
6.3576266955
 20
-18.3766289743
 10
4.5823276658
 20
-18.8973009053
 10
2.765753673
 20
-19.2469916383
 10
0.924364086
 20
-19.422591466
 10
-0.9252512777
 20
-19.4225492461
 10
-2.7666294452
 20
-19.246865841
 10
-4.5831785263
 20
-18.8970946779
 10
-6.3584421169
 20
-18.3763470086
 10
-8.0764666962
 20
-17.6892037941
 10
-9.7217888676
 20
-16.8417592885
 10
-11.2793828073
 20
-15.8416373843
 10
-12.7349135166
 20
-14.6979089572
 10
-14.0751463501
 20
-13.4209596392
 10
-15.287972179
 20
-12.0223060717
 10
-16.3623102209
 20
-10.5145990912
 10
-17.2884546787
 20
-8.9114077009
 10
-18.057936252
 20
-7.2273558014
 10
-18.6636171682
 20
-5.4780464105
 10
-19.1000536675
 20
-3.6794996776
 10
-19.3634454848
 20
-1.8479447321
 10
-19.4515052514
 20
0.0
  0
LWPOLYLINE
  5
2C8
100
AcDbEntity
  8
RACCORDO
100
AcDbPolyline
 62
250
  6
CONTINUOUS
 90
34
 70
0
 10
19.951429099
 20
0.0
 10
19.8551025159
 20
-1.922914439
 10
19.5862170704
 20
-3.7961629648
 10
19.1447727626
 20
-5.619722446
 10
18.5236481179
 20
-7.4094317677
 10
17.7299646108
 20
-9.1494155763
 10
16.7850866653
 20
-10.792093104
 10
15.6849291705
 20
-12.3345323476
 10
14.4335772373
 20
-13.779673032
 10
13.0646506226
 20
-15.0887658724
 10
11.5749313642
 20
-16.2581299723
 10
9.9676374243
 20
-17.291491896
 10
8.2860424466
 20
-18.1612305837
 10
6.5282688786
 20
-18.8628998077
 10
4.6961942727
 20
-19.400997858
 10
2.8387249302
 20
-19.7613230863
 10
0.955244688
 20
-19.9391535938
 10
-0.9536302909
 20
-19.9392337825
 10
-2.8371452162
 20
-19.7615528289
 10
-4.6946919613
 20
-19.4013628315
 10
-6.5268786527
 20
-18.8633891987
 10
-8.2847748793
 20
-18.1618224413
 10
-9.96650214
 20
-17.2921531656
 10
-11.5739389359
 20
-16.2588386975
 10
-13.0637903591
 20
-15.0895222616
 10
-14.4328284439
 20
-13.7804947045
 10
-15.684281156
 20
-12.335419512
 10
-16.7845374847
 20
-10.7930158981
 10
-17.7295159924
 20
-9.1503507311
 10
-18.5232981166
 20
-7.4103494054
 10
-19.1445171592
 20
-5.6205428034
 10
-19.5860508874
 20
-3.7967896427
 10
-19.855021534
 20
-1.9232676627
 10
-19.951429099
 20
0.0
  0
LWPOLYLINE
  5
2C9
100
AcDbEntity
  8
0
100
AcDbPolyline
 62
7
  6
CONTINUOUS
 90
10
 70
0
 43
0.3499999917
 10
0.9642857552
 20
37.6678665161
 10
1.0357143259
 20
37.525010376
 10
1.0357143259
 20
37.4535791016
 10
0.8928571844
 20
37.3107229614
 10
0.8214285636
 20
37.3107229614
 10
0.7499999928
 20
37.3821542358
 10
0.7499999928
 20
37.4535791016
 10
0.8214285636
 20
37.5964352417
 10
0.8928571844
 20
37.6678665161
 10
0.9642857552
 20
37.6678665161
  0
LWPOLYLINE
  5
2CA
100
AcDbEntity
  8
0
100
AcDbPolyline
 62
250
  6
CONTINUOUS
 90
7
 70
0
 10
22.2587219643
 20
-21.4755923698
 10
22.25785821
 20
-21.4704443241
 10
22.257021689
 20
-21.4607498949
 10
22.2562124016
 20
-21.4465090821
 10
22.2554225793
 20
-21.4274939493
 10
22.2546599904
 20
-21.4039324329
 10
22.2539479396
 20
-21.3765083428
  0
LINE
  5
2CB
100
AcDbEntity
  8
0
100
AcDbLine
 62
250
  6
CONTINUOUS
 10
22.2539479396
 20
-21.3765083428
 11
22.2526793835
 21
-21.3098563253
  0
LINE
  5
2CC
100
AcDbEntity
  8
0
100
AcDbLine
 62
250
  6
CONTINUOUS
 10
21.7554924982
 20
-21.8784105381
 11
21.7540224183
 21
-21.7766094508
  0
LINE
  5
2CD
100
AcDbEntity
  8
0
100
AcDbLine
 62
250
  6
CONTINUOUS
 10
22.2526793835
 20
-21.3098563253
 11
22.2516671073
 21
-21.2306638403
  0
LINE
  5
2CE
100
AcDbEntity
  8
0
100
AcDbLine
 62
250
  6
CONTINUOUS
 10
21.7540224183
 20
-21.7766094508
 11
21.752216828
 21
-21.5675409075
  0
LINE
  5
2CF
100
AcDbEntity
  8
0
100
AcDbLine
 62
250
  6
CONTINUOUS
 10
22.2516671073
 20
-21.2306638403
 11
22.2507001372
 21
-21.0947956908
  0
LINE
  5
2D0
100
AcDbEntity
  8
0
100
AcDbLine
 62
250
  6
CONTINUOUS
 10
21.752216828
 20
-21.5675409075
 11
21.7510193986
 21
-21.3072739488
  0
LWPOLYLINE
  5
2D1
100
AcDbEntity
  8
0
100
AcDbPolyline
 62
250
  6
CONTINUOUS
 90
9
 70
0
 10
21.7510193986
 20
-21.3072739488
 10
21.7474904462
 20
-16.3494810551
 10
21.745206984
 20
-11.679220415
 10
21.7436846758
 20
-7.0079400896
 10
21.7429235217
 20
-2.3360479956
 10
21.7429235217
 20
2.3360479946
 10
21.7436846758
 20
7.0079400886
 10
21.7452069839
 20
11.6792204143
 10
21.7474904462
 20
16.3494810547
  0
LWPOLYLINE
  5
2D2
100
AcDbEntity
  8
0
100
AcDbPolyline
 62
250
  6
CONTINUOUS
 90
9
 70
0
 10
22.2507001372
 20
-21.0947956908
 10
22.2474142955
 20
-16.3324644776
 10
22.2451308347
 20
-11.6670156001
 10
22.2436085276
 20
-7.0009492841
 10
22.2428473744
 20
-2.3338537184
 10
22.2428473749
 20
2.3338592858
 10
22.2436085288
 20
7.0009542947
 10
22.2451308359
 20
11.6670194972
 10
22.2474142963
 20
16.3324667046
  0
LINE
  5
2D3
100
AcDbEntity
  8
0
100
AcDbLine
 62
7
  6
CONTINUOUS
 10
22.4
 20
21.8997711479
 11
22.4
 21
-21.8997711479
  0
LINE
  5
2D4
100
AcDbEntity
  8
0
100
AcDbLine
 62
250
  6
CONTINUOUS
 10
21.7474904462
 20
16.3494810547
 11
21.7510193986
 21
21.3072739488
  0
LINE
  5
2D5
100
AcDbEntity
  8
0
100
AcDbLine
 62
250
  6
CONTINUOUS
 10
22.2474142963
 20
16.3324667046
 11
22.2507001372
 21
21.0947956908
  0
LINE
  5
2D6
100
AcDbEntity
  8
0
100
AcDbLine
 62
250
  6
CONTINUOUS
 10
21.7510193986
 20
21.3072739488
 11
21.752216828
 21
21.5675409075
  0
LINE
  5
2D7
100
AcDbEntity
  8
0
100
AcDbLine
 62
250
  6
CONTINUOUS
 10
22.2507001372
 20
21.0947956908
 11
22.2516671073
 21
21.2306638403
  0
LINE
  5
2D8
100
AcDbEntity
  8
0
100
AcDbLine
 62
250
  6
CONTINUOUS
 10
21.752216828
 20
21.5675409075
 11
21.7540224183
 21
21.7766094508
  0
LINE
  5
2D9
100
AcDbEntity
  8
0
100
AcDbLine
 62
250
  6
CONTINUOUS
 10
22.2516671073
 20
21.2306638403
 11
22.2526793835
 21
21.3098563253
  0
LWPOLYLINE
  5
2DA
100
AcDbEntity
  8
0
100
AcDbPolyline
 62
250
  6
CONTINUOUS
 90
6
 70
0
 10
21.7540224183
 20
21.7766094508
 10
21.7554924982
 20
21.8784105381
 10
21.7562813689
 20
21.9164431217
 10
21.7570916407
 20
21.9453762272
 10
21.7579305567
 20
21.9649279068
 10
21.7587981167
 20
21.9749071372
  0
LWPOLYLINE
  5
2DB
100
AcDbEntity
  8
0
100
AcDbPolyline
 62
250
  6
CONTINUOUS
 90
8
 70
0
 10
22.2526793835
 20
21.3098563253
 10
22.2539479396
 20
21.3765083427
 10
22.2546599904
 20
21.4039324329
 10
22.2554225793
 20
21.4274939494
 10
22.2562124016
 20
21.4465090823
 10
22.257021689
 20
21.460749895
 10
22.25785821
 20
21.4704443242
 10
22.2587219643
 20
21.4755923698
  0
LINE
  5
2DC
100
AcDbEntity
  8
0
100
AcDbLine
 62
7
  6
CONTINUOUS
 10
14.55
 20
-22.4
 11
14.4833672024
 21
-22.5
  0
LINE
  5
2DD
100
AcDbEntity
  8
0
100
AcDbLine
 62
250
  6
CONTINUOUS
 10
-21.8150771494
 20
21.0180905275
 11
21.7505350625
 21
21.0183142309
  0
LINE
  5
2DE
100
AcDbEntity
  8
0
100
AcDbLine
 62
250
  6
CONTINUOUS
 10
-21.7587981167
 20
21.9749071372
 11
21.7587981167
 21
21.9749071372
  0
LINE
  5
2DF
100
AcDbEntity
  8
0
100
AcDbLine
 62
7
  6
CONTINUOUS
 10
-21.9003805997
 20
22.4
 11
-14.55
 21
22.4
  0
LINE
  5
2E0
100
AcDbEntity
  8
0
100
AcDbLine
 62
7
  6
CONTINUOUS
 10
-7.95
 20
22.4
 11
7.95
 21
22.4
  0
LINE
  5
2E1
100
AcDbEntity
  8
0
100
AcDbLine
 62
7
  6
CONTINUOUS
 10
14.55
 20
22.4
 11
21.9003805997
 21
22.4
  0
LINE
  5
2E2
100
AcDbEntity
  8
0
100
AcDbLine
 62
7
  6
CONTINUOUS
 10
-14.7198202597
 20
22.5
 11
-7.7801797403
 21
22.5
  0
LINE
  5
2E3
100
AcDbEntity
  8
0
100
AcDbLine
 62
7
  6
CONTINUOUS
 10
7.7801797403
 20
22.5
 11
14.7198202597
 21
22.5
  0
LINE
  5
2E4
100
AcDbEntity
  8
0
100
AcDbLine
 62
7
  6
CONTINUOUS
 10
14.9248574782
 20
23.5
 11
7.5751425218
 21
23.5
  0
LINE
  5
2E5
100
AcDbEntity
  8
0
100
AcDbLine
 62
7
  6
CONTINUOUS
 10
-7.5751425218
 20
23.5
 11
-14.9248574782
 21
23.5
  0
LWPOLYLINE
  5
2E6
100
AcDbEntity
  8
0
100
AcDbPolyline
 62
250
  6
CONTINUOUS
 90
13
 70
0
 10
21.7505350626
 20
21.0183124951
 10
21.815075851
 20
21.0180893321
 10
21.8785367462
 20
21.0175182387
 10
21.9398559175
 20
21.0166087707
 10
21.9980073691
 20
21.0153761456
 10
22.0520181082
 20
21.0138409877
 10
22.1009844243
 20
21.0120289834
 10
22.1440870104
 20
21.0099704512
 10
22.1806046719
 20
21.0076998347
 10
22.2099263936
 20
21.005255126
 10
22.2315615628
 20
21.00267723
 10
22.2451481788
 20
21.0000092802
 10
22.2504589096
 20
20.9972959167
  0
LWPOLYLINE
  5
2E7
100
AcDbEntity
  8
0
100
AcDbPolyline
 62
7
  6
CONTINUOUS
 90
10
 70
0
 10
-7.5751425218
 20
23.5
 10
-7.5101724453
 20
23.4979246333
 10
-7.4457755497
 20
23.4916441486
 10
-7.3819518351
 20
23.4811585459
 10
-7.3182786723
 20
23.4663410768
 10
-7.2551786904
 20
23.4473184897
 10
-7.1939197766
 20
23.4244710297
 10
-7.1349245598
 20
23.3979254452
 10
-7.077770411
 20
23.3675549878
 10
-7.0224573302
 20
23.3333596575
  0
LWPOLYLINE
  5
2E8
100
AcDbEntity
  8
0
100
AcDbPolyline
 62
7
  6
CONTINUOUS
 90
10
 70
0
 10
14.9248574782
 20
23.5
 10
14.9898275547
 20
23.4979246333
 10
15.0542244503
 20
23.4916441486
 10
15.1180481649
 20
23.4811585459
 10
15.1817213277
 20
23.4663410768
 10
15.2448213096
 20
23.4473184897
 10
15.3060802234
 20
23.4244710297
 10
15.3650754402
 20
23.3979254452
 10
15.422229589
 20
23.3675549878
 10
15.4775426698
 20
23.3333596575
  0
LWPOLYLINE
  5
2E9
100
AcDbEntity
  8
0
100
AcDbPolyline
 62
250
  6
CONTINUOUS
 90
13
 70
0
 10
21.7587981167
 20
21.9749071372
 10
21.8240135738
 20
21.9705808949
 10
21.8881144717
 20
21.9577950944
 10
21.9500052996
 20
21.9367682502
 10
22.0086283177
 20
21.9078597198
 10
22.0629816345
 20
21.8715635619
 10
22.1121363294
 20
21.828500093
 10
22.1552523283
 20
21.7794052855
 10
22.191592761
 20
21.7251181899
 10
22.2205365547
 20
21.6665665951
 10
22.2415890479
 20
21.6047511719
 10
22.2543904448
 20
21.5407283714
 10
22.2587219643
 20
21.4755923698
  0
LINE
  5
2EA
100
AcDbEntity
  8
0
100
AcDbLine
 62
7
  6
CONTINUOUS
 10
14.4833672024
 20
22.5
 11
14.55
 21
22.4
  0
LWPOLYLINE
  5
2EB
100
AcDbEntity
  8
0
100
AcDbPolyline
 62
7
  6
CONTINUOUS
 90
13
 70
0
 43
0.3499999917
 10
2.4642856407
 20
38.8821533203
 10
2.1785713577
 20
39.0964343262
 10
2.1785713577
 20
39.7392965698
 10
2.4642856407
 20
40.1678649902
 10
3.1071428776
 20
40.1678649902
 10
3.3928569603
 20
39.7392965698
 10
3.3928569603
 20
39.0964343262
 10
3.1071428776
 20
38.8821533203
 10
3.5357143021
 20
38.4535784912
 10
3.5357143021
 20
37.5964352417
 10
3.1071428776
 20
37.1678668213
 10
2.4642856407
 20
37.1678668213
 10
2.0357142162
 20
37.5964352417
  0
LWPOLYLINE
  5
2EC
100
AcDbEntity
  8
0
100
AcDbPolyline
 62
7
  6
CONTINUOUS
 90
3
 70
0
 43
0.3499999917
 10
34.2854191589
 20
-0.857142334
 10
34.2854191589
 20
-2.3571430206
 10
31.928276825
 20
-1.7142855835
  0
LWPOLYLINE
  5
2ED
100
AcDbEntity
  8
0
100
AcDbPolyline
 62
7
  6
CONTINUOUS
 90
3
 70
0
 43
0.3499999917
 10
-0.5357142806
 20
37.8107226562
 10
-2.0357142162
 20
37.8107226562
 10
-1.3928571796
 20
40.1678649902
  0
LWPOLYLINE
  5
2EE
100
AcDbEntity
  8
0
100
AcDbPolyline
 62
7
  6
CONTINUOUS
 90
3
 70
0
 43
0.3499999917
 10
-2.8928570652
 20
37.8107226562
 10
-4.392857151
 20
37.8107226562
 10
-3.7500001144
 20
40.1678649902
  0
LWPOLYLINE
  5
2EF
100
AcDbEntity
  8
0
100
AcDbPolyline
 62
7
  6
CONTINUOUS
 90
5
 70
0
 43
0.3499999917
 10
-64.1340435791
 20
49.1308364868
 10
-63.7769000244
 20
49.3451239014
 10
-63.7769000244
 20
49.9879797363
 10
-64.1340435791
 20
50.4165481567
 10
-64.9911868286
 20
50.4165481567
  0
LWPOLYLINE
  5
2F0
100
AcDbEntity
  8
0
100
AcDbPolyline
 62
7
  6
CONTINUOUS
 90
10
 70
0
 43
0.3499999917
 10
-58.5626156616
 20
47.4165499878
 10
-57.7054724121
 20
48.2736932373
 10
-57.4911849976
 20
49.1308364868
 10
-57.4911849976
 20
49.9879797363
 10
-57.9197598267
 20
50.4165481567
 10
-58.5626156616
 20
50.4165481567
 10
-58.991184082
 20
49.9879797363
 10
-58.991184082
 20
49.1308364868
 10
-58.5626156616
 20
48.7022616577
 10
-57.6340411377
 20
48.7022616577
  0
LWPOLYLINE
  5
2F1
100
AcDbEntity
  8
0
100
AcDbPolyline
 62
250
  6
CONTINUOUS
 90
8
 70
0
 10
-77.3738701515
 20
21.9749071372
 10
-77.374781763
 20
21.9705808949
 10
-77.375230573
 20
21.9577950944
 10
-77.3752089113
 20
21.9367682502
 10
-77.374717148
 20
21.9078597198
 10
-77.3737636875
 20
21.8715635619
 10
-77.3723648251
 20
21.828500093
 10
-77.3683337262
 20
21.7251181899
  0
LWPOLYLINE
  5
2F2
100
AcDbEntity
  8
0
100
AcDbPolyline
 62
7
  6
CONTINUOUS
 90
10
 70
0
 43
0.3499999917
 10
-57.0269009399
 20
40.4165478516
 10
-57.6697567749
 20
39.7736920166
 10
-58.098331604
 20
38.9165487671
 10
-58.098331604
 20
37.845118103
 10
-57.6697567749
 20
37.4165496826
 10
-57.0269009399
 20
37.4165496826
 10
-56.5983325195
 20
37.845118103
 10
-56.5983325195
 20
38.7022613525
 10
-57.0269009399
 20
39.1308361816
 10
-57.9554754639
 20
39.1308361816
  0
LWPOLYLINE
  5
2F3
100
AcDbEntity
  8
0
100
AcDbPolyline
 62
250
  6
CONTINUOUS
 90
7
 70
0
 10
-77.3738701515
 20
-21.9749071372
 10
-77.3747817608
 20
-21.9705805934
 10
-77.3752305392
 20
-21.9577939908
 10
-77.3752088234
 20
-21.9367660053
 10
-77.3747169912
 20
-21.9078561372
 10
-77.3737634559
 20
-21.8715586231
 10
-77.3723645255
 20
-21.8284940359
  0
LWPOLYLINE
  5
2F4
100
AcDbEntity
  8
0
100
AcDbPolyline
 62
250
  6
CONTINUOUS
 90
10
 70
0
 10
-77.8298184336
 20
-20.9972959167
 10
-78.004244286
 20
-16.3324644776
 10
-78.1350636697
 20
-11.6670156001
 10
-78.2222765849
 20
-7.0009492841
 10
-78.265883024
 20
-2.3338537184
 10
-78.2658829945
 20
2.3338592858
 10
-78.2222765185
 20
7.0009542947
 10
-78.1350636033
 20
11.6670194972
 10
-78.0042442417
 20
16.3324667046
 10
-77.8298184336
 20
20.9972959167
  0
LWPOLYLINE
  5
2F5
100
AcDbEntity
  8
0
100
AcDbPolyline
 62
250
  6
CONTINUOUS
 90
16
 70
0
 10
-77.8298184336
 20
20.9972959167
 10
-77.8251898934
 20
21.0467979204
 10
-77.8159985449
 20
21.0947956908
 10
-77.8022443881
 20
21.141289228
 10
-77.7837040308
 20
21.1867286508
 10
-77.7606008651
 20
21.2306638403
 10
-77.7336050682
 20
21.2717444399
 10
-77.7026075973
 20
21.3098563253
 10
-77.667717495
 20
21.3451136209
 10
-77.6299320666
 20
21.3765083427
 10
-77.5891387056
 20
21.4039324329
 10
-77.5454500185
 20
21.4274939494
 10
-77.5002011295
 20
21.4465090823
 10
-77.4538370803
 20
21.460749895
 10
-77.4059128293
 20
21.4704443242
 10
-77.3564283766
 20
21.4755923698
  0
LINE
  5
2F6
100
AcDbEntity
  8
0
100
AcDbLine
 62
250
  6
CONTINUOUS
 10
-77.3628982465
 20
21.6047511719
 11
-77.3564283766
 21
21.4755923698
  0
LINE
  5
2F7
100
AcDbEntity
  8
0
100
AcDbLine
 62
250
  6
CONTINUOUS
 10
-77.3683337262
 20
21.7251181899
 11
-77.3628982465
 21
21.6047511719
  0
LINE
  5
2F8
100
AcDbEntity
  8
0
100
AcDbLine
 62
250
  6
CONTINUOUS
 10
-77.3723645255
 20
-21.8284940359
 11
-77.3683333576
 21
-21.7251113146
  0
LINE
  5
2F9
100
AcDbEntity
  8
0
100
AcDbLine
 62
250
  6
CONTINUOUS
 10
-77.3683333576
 20
-21.7251113146
 11
-77.3628979629
 21
-21.6047462395
  0
LINE
  5
2FA
100
AcDbEntity
  8
0
100
AcDbLine
 62
250
  6
CONTINUOUS
 10
-77.3628979629
 20
-21.6047462395
 11
-77.3564283766
 21
-21.4755923698
  0
LWPOLYLINE
  5
2FB
100
AcDbEntity
  8
0
100
AcDbPolyline
 62
7
  6
CONTINUOUS
 90
3
 70
0
 43
0.3499999917
 10
-59.9911834717
 20
47.7022622681
 10
-60.0626147461
 20
47.4879812622
 10
-60.2054708862
 20
47.2022625732
  0
LWPOLYLINE
  5
2FC
100
AcDbEntity
  8
0
100
AcDbPolyline
 62
250
  6
CONTINUOUS
 90
16
 70
0
 10
-77.3564283766
 20
-21.4755923698
 10
-77.4059128293
 20
-21.4704443241
 10
-77.4538370803
 20
-21.4607498949
 10
-77.5002011295
 20
-21.4465090821
 10
-77.5454500184
 20
-21.4274939493
 10
-77.5891387057
 20
-21.4039324329
 10
-77.6299320667
 20
-21.3765083428
 10
-77.667717495
 20
-21.3451136209
 10
-77.7026075972
 20
-21.3098563253
 10
-77.7336050681
 20
-21.2717444399
 10
-77.7606008651
 20
-21.2306638403
 10
-77.7837040308
 20
-21.1867286508
 10
-77.8022443882
 20
-21.141289228
 10
-77.815998545
 20
-21.0947956908
 10
-77.8251898935
 20
-21.0467979204
 10
-77.8298184336
 20
-20.9972959167
  0
LINE
  5
2FD
100
AcDbEntity
  8
0
100
AcDbLine
 62
7
  6
CONTINUOUS
 10
-65.2626151316
 20
-23.0998904748
 11
-66.5849721924
 21
-23.1272876365
  0
LINE
  5
2FE
100
AcDbEntity
  8
0
100
AcDbLine
 62
7
  6
CONTINUOUS
 10
-66.5849721924
 20
-23.1272876365
 11
-67.9183378402
 21
-23.153939378
  0
LINE
  5
2FF
100
AcDbEntity
  8
0
100
AcDbLine
 62
7
  6
CONTINUOUS
 10
-67.9183378402
 20
-23.153939378
 11
-69.2626151316
 21
-23.1799085618
  0
LINE
  5
300
100
AcDbEntity
  8
0
100
AcDbLine
 62
7
  6
CONTINUOUS
 10
-65.2626151316
 20
-23.4301797403
 11
-69.2626151316
 21
-23.5
  0
LINE
  5
301
100
AcDbEntity
  8
0
100
AcDbLine
 62
250
  6
CONTINUOUS
 10
-65.2626151316
 20
-23.2631073613
 11
-69.2626151316
 21
-23.333359658
  0
LINE
  5
302
100
AcDbEntity
  8
RACCORDO
100
AcDbLine
 62
7
  6
CONTINUOUS
 10
-61.2917603337
 20
-21.1306884717
 11
-65.0661056129
 21
-21.1965699136
  0
LINE
  5
303
100
AcDbEntity
  8
RACCORDO
100
AcDbLine
 62
250
  6
CONTINUOUS
 10
-61.2918053994
 20
-21.0077191796
 11
-65.0661055573
 21
-21.0739727269
  0
LINE
  5
304
100
AcDbEntity
  8
0
100
AcDbLine
 62
7
  6
CONTINUOUS
 10
-67.0282078225
 20
-22.6434906154
 11
-69.2626151316
 21
-22.663166622
  0
LINE
  5
305
100
AcDbEntity
  8
0
100
AcDbLine
 62
7
  6
CONTINUOUS
 10
-65.2626151316
 20
-22.6298666026
 11
-67.0282078225
 21
-22.6434906154
  0
LINE
  5
306
100
AcDbEntity
  8
0
100
AcDbLine
 62
7
  6
CONTINUOUS
 10
-63.1131196477
 20
-22.2
 11
-63.6626151316
 21
-22.2
  0
LINE
  5
307
100
AcDbEntity
  8
0
100
AcDbLine
 62
7
  6
CONTINUOUS
 10
-69.2626151316
 20
-22.4
 11
-77.3738701515
 21
-21.9749071372
  0
LINE
  5
308
100
AcDbEntity
  8
0
100
AcDbLine
 62
250
  6
CONTINUOUS
 10
-69.2626151316
 20
-21.8997711479
 11
-77.3564283766
 21
-21.4755923698
  0
LWPOLYLINE
  5
309
100
AcDbEntity
  8
RACCORDO
100
AcDbPolyline
 62
250
  6
CONTINUOUS
 90
10
 70
0
 10
-61.2917603337
 20
-21.0077183978
 10
-61.2457239579
 20
-21.024334828
 10
-61.2006157317
 20
-21.0368181879
 10
-61.1568742032
 20
-21.0446350586
 10
-61.114738333
 20
-21.0470841403
 10
-61.0747099764
 20
-21.0441892374
 10
-61.0376081262
 20
-21.0365415219
 10
-61.0038980699
 20
-21.0241763687
 10
-60.9736279913
 20
-21.0067500163
 10
-60.9469331463
 20
-20.9843180147
  0
LWPOLYLINE
  5
30A
100
AcDbEntity
  8
RACCORDO
100
AcDbPolyline
 62
250
  6
CONTINUOUS
 90
3
 70
0
 10
-65.0661055738
 20
-21.196569902
 10
-65.0662001655
 20
-21.1949892091
 10
-65.0662695689
 20
-21.1902645603
  0
LWPOLYLINE
  5
30B
100
AcDbEntity
  8
RACCORDO
100
AcDbPolyline
 62
250
  6
CONTINUOUS
 90
16
 70
0
 10
-66.9591246503
 20
10.8115531587
 10
-66.9593791077
 20
10.8199620509
 10
-66.960469635
 20
10.8284166553
 10
-66.962396232
 20
10.836916972
 10
-66.9651124241
 20
10.8455562116
 10
-66.9686646861
 20
10.8542411635
 10
-66.9731924416
 20
10.8626921961
 10
-66.9787333036
 20
10.870956173
 10
-66.9852496591
 20
10.8789862307
 10
-66.9927680935
 20
10.8863621475
 10
-67.0013565835
 20
10.8931106019
 10
-67.0109471523
 20
10.8992049153
 10
-67.021362454
 20
10.9041448305
 10
-67.032543373
 20
10.9077635947
 10
-67.0445490249
 20
10.9102279607
 10
-67.0573794096
 20
10.9115379283
  0
LINE
  5
30C
100
AcDbEntity
  8
RACCORDO
100
AcDbLine
 62
250
  6
CONTINUOUS
 10
-67.0573794096
 20
-10.9115379283
 11
-67.0563966053
 21
-10.9799182514
  0
LWPOLYLINE
  5
30D
100
AcDbEntity
  8
RACCORDO
100
AcDbPolyline
 62
250
  6
CONTINUOUS
 90
7
 70
0
 10
-67.0563966053
 20
-10.9799182514
 10
-67.0559531291
 20
-11.0400544893
 10
-67.0559531257
 20
-11.0647012052
 10
-67.0561024587
 20
-11.0846959653
 10
-67.0563965935
 20
-11.0994314366
 10
-67.0568265972
 20
-11.1084600256
 10
-67.0573794101
 20
-11.1115074673
  0
LINE
  5
30E
100
AcDbEntity
  8
0
100
AcDbLine
 62
7
  6
CONTINUOUS
 10
-69.2626151316
 20
23.5
 11
-69.2626151316
 21
22.6034567859
  0
LINE
  5
30F
100
AcDbEntity
  8
RACCORDO
100
AcDbLine
 62
7
  6
CONTINUOUS
 10
-69.2626151316
 20
22.663166622
 11
-69.2626151316
 21
22.4
  0
LINE
  5
310
100
AcDbEntity
  8
0
100
AcDbLine
 62
7
  6
CONTINUOUS
 10
-69.2626151316
 20
22.4
 11
-69.2626151316
 21
-22.4
  0
LINE
  5
311
100
AcDbEntity
  8
0
100
AcDbLine
 62
7
  6
CONTINUOUS
 10
-69.2626151316
 20
-23.5
 11
-69.2626151316
 21
-22.663166622
  0
LINE
  5
312
100
AcDbEntity
  8
RACCORDO
100
AcDbLine
 62
7
  6
CONTINUOUS
 10
-69.2626151316
 20
-22.663166622
 11
-69.2626151316
 21
-22.1823523873
  0
LWPOLYLINE
  5
313
100
AcDbEntity
  8
RACCORDO
100
AcDbPolyline
 62
250
  6
CONTINUOUS
 90
6
 70
0
 10
-67.0559531305
 20
11.040055138
 10
-67.0559531305
 20
11.0647017368
 10
-67.056102466
 20
11.0846963308
 10
-67.0563966012
 20
11.0994316294
 10
-67.0568266026
 20
11.1084600812
 10
-67.0573794096
 20
11.1115074673
  0
LINE
  5
314
100
AcDbEntity
  8
RACCORDO
100
AcDbLine
 62
250
  6
CONTINUOUS
 10
-66.9591246503
 20
-10.8115531587
 11
-66.9591246503
 21
10.8115531587
  0
LINE
  5
315
100
AcDbEntity
  8
RACCORDO
100
AcDbLine
 62
7
  6
CONTINUOUS
 10
-66.7626151316
 20
-10.8115531587
 11
-66.7626151316
 21
10.8115531587
  0
LINE
  5
316
100
AcDbEntity
  8
DRAFT
100
AcDbLine
 62
7
  6
CONTINUOUS
 10
-66.5626151316
 20
11.25
 11
-66.5626151316
 21
-11.25
  0
LINE
  5
317
100
AcDbEntity
  8
RACCORDO
100
AcDbLine
 62
250
  6
CONTINUOUS
 10
-67.0563966012
 20
10.9799188228
 11
-67.0559531305
 21
11.040055138
  0
LINE
  5
318
100
AcDbEntity
  8
RACCORDO
100
AcDbLine
 62
250
  6
CONTINUOUS
 10
-67.0573794096
 20
10.9115379283
 11
-67.0563966012
 21
10.9799188228
  0
LWPOLYLINE
  5
319
100
AcDbEntity
  8
0
100
AcDbPolyline
 62
7
  6
CONTINUOUS
 90
3
 70
0
 43
0.3499999917
 10
-55.0269021606
 20
37.7022619629
 10
-55.0983270264
 20
37.487980957
 10
-55.2411895752
 20
37.2022622681
  0
LWPOLYLINE
  5
31A
100
AcDbEntity
  8
RACCORDO
100
AcDbPolyline
 62
250
  6
CONTINUOUS
 90
12
 70
0
 10
-59.1513997028
 20
-19.2440414259
 10
-59.2231332256
 20
-19.2519616839
 10
-59.2950404165
 20
-19.2646261967
 10
-59.3674779143
 20
-19.2819030064
 10
-59.4400890801
 20
-19.3039063393
 10
-59.5118039974
 20
-19.3309952933
 10
-59.5827737069
 20
-19.3633251314
 10
-59.6528471677
 20
-19.4006985593
 10
-59.7205013412
 20
-19.4429394341
 10
-59.7852285475
 20
-19.489968138
 10
-59.8475364664
 20
-19.5418008996
 10
-59.9074250978
 20
-19.598400205
  0
LINE
  5
31B
100
AcDbEntity
  8
0
100
AcDbLine
 62
250
  6
CONTINUOUS
 10
-78.3206502568
 20
-21.0183142305
 11
-78.3164726901
 21
-21.0180910636
  0
LWPOLYLINE
  5
31C
100
AcDbEntity
  8
RACCORDO
100
AcDbPolyline
 62
250
  6
CONTINUOUS
 90
19
 70
0
 10
-45.8453145539
 20
-19.008547862
 10
-45.7603830026
 20
-19.0042123858
 10
-45.676091252
 20
-18.9937888904
 10
-45.5930547388
 20
-18.9773238754
 10
-45.5119096984
 20
-18.9548802822
 10
-45.4332279343
 20
-18.9266042849
 10
-45.3575216826
 20
-18.8927091821
 10
-45.2853488617
 20
-18.853341839
 10
-45.2172893395
 20
-18.8087517186
 10
-45.1538682732
 20
-18.7593434086
 10
-45.0955834527
 20
-18.7053751423
 10
-45.0429184602
 20
-18.6471855716
 10
-44.9963236307
 20
-18.5853463675
 10
-44.9561674497
 20
-18.5201693335
 10
-44.9228202196
 20
-18.4521089997
 10
-44.896620215
 20
-18.3819973537
 10
-44.8777764429
 20
-18.3104122039
 10
-44.8664126618
 20
-18.2376635096
 10
-44.8626151316
 20
-18.1642042968
  0
LWPOLYLINE
  5
31D
100
AcDbEntity
  8
RACCORDO
100
AcDbPolyline
 62
250
  6
CONTINUOUS
 90
16
 70
0
 10
-45.8451627251
 20
-17.6355152295
 10
-45.7416461407
 20
-17.6307490988
 10
-45.6398484991
 20
-17.6194110536
 10
-45.5406030149
 20
-17.601567504
 10
-45.4445831839
 20
-17.5770791682
 10
-45.3527903479
 20
-17.5461974157
 10
-45.2665435879
 20
-17.5096520663
 10
-45.1867840425
 20
-17.467588436
 10
-45.1141769295
 20
-17.4202302977
 10
-45.0495810895
 20
-17.3685774039
 10
-44.9937574963
 20
-17.3129468249
 10
-44.9472427737
 20
-17.2536675843
 10
-44.9105032037
 20
-17.1918681598
 10
-44.8839698421
 20
-17.1282223906
 10
-44.867958707
 20
-17.0629256564
 10
-44.8626151316
 20
-16.9964419272
  0
LINE
  5
31E
100
AcDbEntity
  8
RACCORDO
100
AcDbLine
 62
250
  6
CONTINUOUS
 10
-59.0798398481
 20
-19.2408695706
 11
-59.1513997028
 21
-19.2440414259
  0
LINE
  5
31F
100
AcDbEntity
  8
0
100
AcDbLine
 62
250
  6
CONTINUOUS
 10
-78.3164726901
 20
-21.0180910636
 11
-77.8298184336
 21
-20.9972959167
  0
LINE
  5
320
100
AcDbEntity
  8
RACCORDO
100
AcDbLine
 62
7
  6
CONTINUOUS
 10
-45.8451627251
 20
-19.1640519906
 11
-59.0800469921
 21
-19.3950677548
  0
LINE
  5
321
100
AcDbEntity
  8
RACCORDO
100
AcDbLine
 62
250
  6
CONTINUOUS
 10
-45.8451627251
 20
-19.0085425807
 11
-59.0798398481
 21
-19.2408695706
  0
LINE
  5
322
100
AcDbEntity
  8
DRAFT
100
AcDbLine
 62
7
  6
CONTINUOUS
 10
-44.6660227191
 20
-17.9814785965
 11
-43.0591246503
 21
-17.9534300864
  0
LINE
  5
323
100
AcDbEntity
  8
RACCORDO
100
AcDbLine
 62
7
  6
CONTINUOUS
 10
-60.5626151316
 20
-20.6
 11
-54.7582518638
 21
-20.5493460892
  0
LINE
  5
324
100
AcDbEntity
  8
RACCORDO
100
AcDbLine
 62
250
  6
CONTINUOUS
 10
-60.0582324894
 20
-20.0956173578
 11
-54.7582518638
 21
-20.0493651276
  0
LINE
  5
325
100
AcDbEntity
  8
RACCORDO
100
AcDbLine
 62
250
  6
CONTINUOUS
 10
-45.8434176892
 20
-16.9964419272
 11
-58.8753554871
 21
-17.0508456058
  0
LINE
  5
326
100
AcDbEntity
  8
RACCORDO
100
AcDbLine
 62
250
  6
CONTINUOUS
 10
-58.8753554871
 20
-17.0508456058
 11
-69.2626151316
 21
-17.0936293996
  0
LINE
  5
327
100
AcDbEntity
  8
RACCORDO
100
AcDbLine
 62
250
  6
CONTINUOUS
 10
-45.8451627251
 20
-17.6355152301
 11
-69.2626151316
 21
-17.7266193811
  0
LINE
  5
328
100
AcDbEntity
  8
RACCORDO
100
AcDbLine
 62
250
  6
CONTINUOUS
 10
-54.7582518638
 20
-20.0493651276
 11
-54.2626151316
 21
-20.0493651276
  0
LINE
  5
329
100
AcDbEntity
  8
RACCORDO
100
AcDbLine
 62
250
  6
CONTINUOUS
 10
-65.0662695689
 20
-21.1902645603
 11
-65.0663373253
 21
-21.1714806109
  0
LINE
  5
32A
100
AcDbEntity
  8
0
100
AcDbLine
 62
7
  6
CONTINUOUS
 10
-65.2626151316
 20
-23.4301797403
 11
-65.2626151316
 21
-22.6298666026
  0
LINE
  5
32B
100
AcDbEntity
  8
RACCORDO
100
AcDbLine
 62
7
  6
CONTINUOUS
 10
-65.2626151316
 20
-22.6298666026
 11
-65.2626151316
 21
-21.3965394526
  0
LINE
  5
32C
100
AcDbEntity
  8
RACCORDO
100
AcDbLine
 62
7
  6
CONTINUOUS
 10
-65.2626151316
 20
21.3965394526
 11
-65.2626151316
 21
22.6298666026
  0
LINE
  5
32D
100
AcDbEntity
  8
0
100
AcDbLine
 62
7
  6
CONTINUOUS
 10
-65.2626151316
 20
22.6906374644
 11
-65.2626151316
 21
23.4301797403
  0
LINE
  5
32E
100
AcDbEntity
  8
RACCORDO
100
AcDbLine
 62
250
  6
CONTINUOUS
 10
-65.0661055256
 20
21.0740499126
 11
-65.0663373253
 21
21.1714806492
  0
LINE
  5
32F
100
AcDbEntity
  8
0
100
AcDbLine
 62
7
  6
CONTINUOUS
 10
-63.6626151316
 20
22.2
 11
-63.6626151316
 21
21.1720718961
  0
LINE
  5
330
100
AcDbEntity
  8
0
100
AcDbLine
 62
7
  6
CONTINUOUS
 10
-63.6626151316
 20
-22.2
 11
-63.6626151316
 21
-21.1720718961
  0
LINE
  5
331
100
AcDbEntity
  8
RACCORDO
100
AcDbLine
 62
250
  6
CONTINUOUS
 10
-65.0663373253
 20
-21.1714806109
 11
-65.0661055255
 21
-21.0740501888
  0
LWPOLYLINE
  5
332
100
AcDbEntity
  8
RACCORDO
100
AcDbPolyline
 62
250
  6
CONTINUOUS
 90
4
 70
0
 10
-65.0663373253
 20
21.1714806492
 10
-65.0662695682
 20
21.1902645763
 10
-65.066200165
 20
21.1949892177
 10
-65.0661055738
 20
21.1965699021
  0
LINE
  5
333
100
AcDbEntity
  8
DRAFT
100
AcDbLine
 62
7
  6
CONTINUOUS
 10
-44.6661056129
 20
-14.1814800434
 11
-43.0591246503
 21
-14.1534300864
  0
LINE
  5
334
100
AcDbEntity
  8
RACCORDO
100
AcDbLine
 62
250
  6
CONTINUOUS
 10
-45.8434176892
 20
-16.9964419272
 11
-44.8626151316
 21
-16.9964419272
  0
LINE
  5
335
100
AcDbEntity
  8
RACCORDO
100
AcDbLine
 62
250
  6
CONTINUOUS
 10
-42.8626151316
 20
-15.2
 11
-44.8626151316
 21
-15.2
  0
LINE
  5
336
100
AcDbEntity
  8
RACCORDO
100
AcDbLine
 62
250
  6
CONTINUOUS
 10
-61.291235096
 20
-21.0747030545
 11
-61.2917603337
 21
-21.0077183978
  0
LWPOLYLINE
  5
337
100
AcDbEntity
  8
RACCORDO
100
AcDbPolyline
 62
250
  6
CONTINUOUS
 90
5
 70
0
 10
-61.2911761154
 20
21.1055350074
 10
-61.291235096
 20
21.1164837585
 10
-61.2913526836
 20
21.1243555295
 10
-61.2915281333
 20
21.1291004534
 10
-61.2917603337
 20
21.1306884717
  0
LINE
  5
338
100
AcDbEntity
  8
RACCORDO
100
AcDbLine
 62
250
  6
CONTINUOUS
 10
-61.2911456571
 20
-21.0915768211
 11
-61.291235096
 21
-21.0747030545
  0
LINE
  5
339
100
AcDbEntity
  8
RACCORDO
100
AcDbLine
 62
250
  6
CONTINUOUS
 10
-61.291235096
 20
21.0747030545
 11
-61.2911761154
 21
21.1055350074
  0
LINE
  5
33A
100
AcDbEntity
  8
RACCORDO
100
AcDbLine
 62
250
  6
CONTINUOUS
 10
-61.2917603337
 20
21.0077183978
 11
-61.291235096
 21
21.0747030545
  0
LWPOLYLINE
  5
33B
100
AcDbEntity
  8
RACCORDO
100
AcDbPolyline
 62
7
  6
CONTINUOUS
 90
3
 70
0
 10
-65.2590828467
 20
-21.3591170407
 10
-65.2534894134
 20
-21.3367842353
 10
-65.2457435771
 20
-21.314173276
  0
LWPOLYLINE
  5
33C
100
AcDbEntity
  8
RACCORDO
100
AcDbPolyline
 62
250
  6
CONTINUOUS
 90
16
 70
0
 10
-67.0573794096
 20
-10.9115379283
 10
-67.0488729863
 20
-10.9111280865
 10
-67.0403401252
 20
-10.9098622705
 10
-67.0317808264
 20
-10.9077404804
 10
-67.023093375
 20
-10.9048030149
 10
-67.014379486
 20
-10.9010095752
 10
-67.0059443037
 20
-10.8962392646
 10
-66.9977476989
 20
-10.8904461677
 10
-66.9898298008
 20
-10.8836761999
 10
-66.9826161416
 20
-10.8759462108
 10
-66.9760948474
 20
-10.8671835345
 10
-66.9702777921
 20
-10.8574608368
 10
-66.9656261294
 20
-10.8470129657
 10
-66.9622935771
 20
-10.8359182036
 10
-66.9601264174
 20
-10.8240982679
 10
-66.9591246503
 20
-10.8115531587
  0
LINE
  5
33D
100
AcDbEntity
  8
DRAFT
100
AcDbLine
 62
7
  6
CONTINUOUS
 10
-69.2626151316
 20
-11.2971286753
 11
-66.5626151316
 21
-11.25
  0
LINE
  5
33E
100
AcDbEntity
  8
RACCORDO
100
AcDbLine
 62
7
  6
CONTINUOUS
 10
-69.2626151316
 20
-11.15
 11
-67.0573794096
 21
-11.1115074673
  0
LINE
  5
33F
100
AcDbEntity
  8
RACCORDO
100
AcDbLine
 62
250
  6
CONTINUOUS
 10
-69.2626151316
 20
-10.950030461
 11
-67.0573794096
 21
-10.9115379283
  0
LINE
  5
340
100
AcDbEntity
  8
RACCORDO
100
AcDbLine
 62
250
  6
CONTINUOUS
 10
-42.8626151316
 20
-11.4
 11
-44.8626151316
 21
-11.4
  0
LINE
  5
341
100
AcDbEntity
  8
RACCORDO
100
AcDbLine
 62
250
  6
CONTINUOUS
 10
-66.9591246503
 20
-10.8115531587
 11
-66.7626151316
 21
-10.8115531587
  0
LINE
  5
342
100
AcDbEntity
  8
RACCORDO
100
AcDbLine
 62
250
  6
CONTINUOUS
 10
-59.0791653958
 20
-19.3244041127
 11
-59.0798401191
 21
-19.2408592228
  0
LINE
  5
343
100
AcDbEntity
  8
RACCORDO
100
AcDbLine
 62
250
  6
CONTINUOUS
 10
-59.0790873813
 20
19.3632278846
 11
-59.0791635427
 21
19.3244067439
  0
LINE
  5
344
100
AcDbEntity
  8
RACCORDO
100
AcDbLine
 62
250
  6
CONTINUOUS
 10
-59.0791635427
 20
19.3244067439
 11
-59.0798398481
 21
19.2408695706
  0
LWPOLYLINE
  5
345
100
AcDbEntity
  8
RACCORDO
100
AcDbPolyline
 62
250
  6
CONTINUOUS
 90
6
 70
0
 10
-59.0798396989
 20
-19.3950729894
 10
-59.0795418389
 20
-19.3930573457
 10
-59.0793163774
 20
-19.3870407512
 10
-59.0791651075
 20
-19.3770715527
 10
-59.0790892269
 20
-19.3632298586
 10
-59.0791653958
 20
-19.3244041127
  0
LWPOLYLINE
  5
346
100
AcDbEntity
  8
RACCORDO
100
AcDbPolyline
 62
250
  6
CONTINUOUS
 90
5
 70
0
 10
-61.2917603337
 20
-21.1306884717
 10
-61.2914803584
 20
-21.1290901269
 10
-61.2913138906
 20
-21.1243398671
 10
-61.291235096
 20
-21.1164837585
 10
-61.2911456571
 20
-21.0915768211
  0
LINE
  5
347
100
AcDbEntity
  8
RACCORDO
100
AcDbLine
 62
250
  6
CONTINUOUS
 10
-42.8626151316
 20
-9.3
 11
-44.8626151316
 21
-9.3
  0
LWPOLYLINE
  5
348
100
AcDbEntity
  8
RACCORDO
100
AcDbPolyline
 62
250
  6
CONTINUOUS
 90
5
 70
0
 10
-59.0798398481
 20
19.3950641391
 10
-59.0795412934
 20
19.393049869
 10
-59.0793152527
 20
19.3870348901
 10
-59.0791635423
 20
19.3770675327
 10
-59.0790873813
 20
19.3632278846
  0
LINE
  5
349
100
AcDbEntity
  8
RACCORDO
100
AcDbLine
 62
250
  6
CONTINUOUS
 10
-54.756732115
 20
-20.2797776486
 11
-54.7582518638
 21
-20.0493651276
  0
LINE
  5
34A
100
AcDbEntity
  8
RACCORDO
100
AcDbLine
 62
250
  6
CONTINUOUS
 10
-54.756445594
 20
-20.4086519474
 11
-54.756732115
 21
-20.2797776486
  0
LINE
  5
34B
100
AcDbEntity
  8
RACCORDO
100
AcDbLine
 62
250
  6
CONTINUOUS
 10
-54.7582518638
 20
-20.0493651276
 11
-54.7582518638
 21
-19.3196305402
  0
LINE
  5
34C
100
AcDbEntity
  8
RACCORDO
100
AcDbLine
 62
7
  6
CONTINUOUS
 10
-54.2626151316
 20
-20.0493651276
 11
-54.2626151316
 21
-19.3109791689
  0
LWPOLYLINE
  5
34D
100
AcDbEntity
  8
0
100
AcDbPolyline
 62
7
  6
CONTINUOUS
 90
2
 70
0
 43
0.3499999917
 10
-53.026900177
 20
37.4165496826
 10
-53.026900177
 20
38.9165487671
  0
LINE
  5
34E
100
AcDbEntity
  8
RACCORDO
100
AcDbLine
 62
250
  6
CONTINUOUS
 10
-54.7566129149
 20
-20.4752225783
 11
-54.756445594
 21
-20.4086519474
  0
LINE
  5
34F
100
AcDbEntity
  8
RACCORDO
100
AcDbLine
 62
250
  6
CONTINUOUS
 10
-54.75680115
 20
-20.5008824544
 11
-54.7566129149
 21
-20.4752225783
  0
LWPOLYLINE
  5
350
100
AcDbEntity
  8
RACCORDO
100
AcDbPolyline
 62
7
  6
CONTINUOUS
 90
10
 70
0
 10
-65.2457435771
 20
-21.314173276
 10
-65.2358453377
 20
-21.2912833321
 10
-65.2236564462
 20
-21.2680912766
 10
-65.2093151517
 20
-21.2446185029
 10
-65.1932362009
 20
-21.220931212
 10
-65.1753724967
 20
-21.1970670324
 10
-65.1557711362
 20
-21.1729872725
 10
-65.1349881582
 20
-21.148643635
 10
-65.1132089088
 20
-21.1240193155
 10
-65.0902480418
 20
-21.0991293071
  0
LINE
  5
351
100
AcDbEntity
  8
RACCORDO
100
AcDbLine
 62
7
  6
CONTINUOUS
 10
-43.8451627251
 20
-4.517150432
 11
-44.8626151316
 21
-4.5349101299
  0
LINE
  5
352
100
AcDbEntity
  8
RACCORDO
100
AcDbLine
 62
250
  6
CONTINUOUS
 10
-43.8451627251
 20
-3.5173027369
 11
-44.8626151316
 21
-3.5350624347
  0
LINE
  5
353
100
AcDbEntity
  8
RACCORDO
100
AcDbLine
 62
250
  6
CONTINUOUS
 10
-43.8451627251
 20
-3.5173027369
 11
-42.8626151316
 21
-3.5173027369
  0
LINE
  5
354
100
AcDbEntity
  8
0
100
AcDbLine
 62
7
  6
CONTINUOUS
 10
-42.8626151316
 20
-3.1481647329
 11
-42.6626151316
 21
-3.1481647329
  0
LINE
  5
355
100
AcDbEntity
  8
0
100
AcDbLine
 62
250
  6
CONTINUOUS
 10
-42.8626151316
 20
-3.0729184129
 11
-42.6626151316
 21
-3.0729184129
  0
LINE
  5
356
100
AcDbEntity
  8
DRAFT
100
AcDbLine
 62
7
  6
CONTINUOUS
 10
-44.6661056129
 20
-6.5185199566
 11
-43.0591246503
 21
-6.5465699136
  0
LINE
  5
357
100
AcDbEntity
  8
0
100
AcDbLine
 62
7
  6
CONTINUOUS
 10
-42.8626151316
 20
-2.0123228238
 11
-42.6626151316
 21
-2.0123228238
  0
LINE
  5
358
100
AcDbEntity
  8
0
100
AcDbLine
 62
7
  6
CONTINUOUS
 10
-42.8626151316
 20
-1.9999146978
 11
-42.6626151316
 21
-1.9999146978
  0
LINE
  5
359
100
AcDbEntity
  8
0
100
AcDbLine
 62
250
  6
CONTINUOUS
 10
-42.8626151316
 20
-1.5880688418
 11
-42.6626151316
 21
-1.5880688418
  0
LINE
  5
35A
100
AcDbEntity
  8
0
100
AcDbLine
 62
7
  6
CONTINUOUS
 10
-42.8626151316
 20
-1.0197357321
 11
-42.6626151316
 21
-1.0197357321
  0
LWPOLYLINE
  5
35B
100
AcDbEntity
  8
RACCORDO
100
AcDbPolyline
 62
250
  6
CONTINUOUS
 90
5
 70
0
 10
-45.8412092143
 20
20.3859431581
 10
-45.8417293039
 20
20.4230815412
 10
-45.8423686493
 20
20.449905746
 10
-45.8431202464
 20
20.4661219095
 10
-45.8439758614
 20
20.471552381
  0
LINE
  5
35C
100
AcDbEntity
  8
RACCORDO
100
AcDbLine
 62
250
  6
CONTINUOUS
 10
-45.8435566325
 20
17.4422826849
 11
-45.8451627251
 21
17.6355152295
  0
LINE
  5
35D
100
AcDbEntity
  8
RACCORDO
100
AcDbLine
 62
250
  6
CONTINUOUS
 10
-45.8444798685
 20
-19.0927738306
 11
-45.8451627339
 21
-19.00854258
  0
LINE
  5
35E
100
AcDbEntity
  8
RACCORDO
100
AcDbLine
 62
250
  6
CONTINUOUS
 10
-45.8405482245
 20
20.2824598191
 11
-45.8412092143
 21
20.3859431581
  0
LINE
  5
35F
100
AcDbEntity
  8
RACCORDO
100
AcDbLine
 62
250
  6
CONTINUOUS
 10
-45.8429648716
 20
17.2255133772
 11
-45.8435566325
 21
17.4422826849
  0
LINE
  5
360
100
AcDbEntity
  8
RACCORDO
100
AcDbLine
 62
250
  6
CONTINUOUS
 10
-45.8429648716
 20
-17.2255133772
 11
-45.8434176892
 21
-16.9964419273
  0
LINE
  5
361
100
AcDbEntity
  8
RACCORDO
100
AcDbLine
 62
250
  6
CONTINUOUS
 10
-45.8451627251
 20
-19.0085425807
 11
-45.8451627251
 21
-17.6355152301
  0
LINE
  5
362
100
AcDbEntity
  8
RACCORDO
100
AcDbLine
 62
250
  6
CONTINUOUS
 10
-45.8451627251
 20
17.6355171167
 11
-45.8451627251
 21
19.008532405
  0
LINE
  5
363
100
AcDbEntity
  8
RACCORDO
100
AcDbLine
 62
250
  6
CONTINUOUS
 10
-45.8439758614
 20
19.1640312738
 11
-45.8439758614
 21
19.4815900772
  0
LINE
  5
364
100
AcDbEntity
  8
RACCORDO
100
AcDbLine
 62
250
  6
CONTINUOUS
 10
-45.8405482245
 20
20.0634509251
 11
-45.8405482245
 21
20.2824598191
  0
LWPOLYLINE
  5
365
100
AcDbEntity
  8
RACCORDO
100
AcDbPolyline
 62
250
  6
CONTINUOUS
 90
3
 70
0
 10
-45.8434176892
 20
-16.9964419272
 10
-45.8431509205
 20
17.0734217881
 10
-45.8429648716
 20
17.2255133772
  0
LINE
  5
366
100
AcDbEntity
  8
RACCORDO
100
AcDbLine
 62
250
  6
CONTINUOUS
 10
-45.8444029779
 20
19.1319326713
 11
-45.844479879
 21
19.092773694
  0
LINE
  5
367
100
AcDbEntity
  8
RACCORDO
100
AcDbLine
 62
250
  6
CONTINUOUS
 10
-45.8435566325
 20
-17.4422826849
 11
-45.8429648716
 21
-17.2255133772
  0
LWPOLYLINE
  5
368
100
AcDbEntity
  8
RACCORDO
100
AcDbPolyline
 62
250
  6
CONTINUOUS
 90
3
 70
0
 10
-45.8439758614
 20
19.4815900772
 10
-45.8431202464
 20
19.5850643175
 10
-45.8405482245
 20
20.0634509251
  0
LINE
  5
369
100
AcDbEntity
  8
RACCORDO
100
AcDbLine
 62
250
  6
CONTINUOUS
 10
-45.844479879
 20
19.092773694
 11
-45.8451628445
 21
19.0085324054
  0
LINE
  5
36A
100
AcDbEntity
  8
RACCORDO
100
AcDbLine
 62
250
  6
CONTINUOUS
 10
-45.8451627251
 20
-17.6355152295
 11
-45.8435566325
 21
-17.4422826849
  0
LWPOLYLINE
  5
36B
100
AcDbEntity
  8
RACCORDO
100
AcDbPolyline
 62
250
  6
CONTINUOUS
 90
9
 70
0
 10
-54.7582518638
 20
-20.5493460892
 10
-54.7580611963
 20
-20.5488448148
 10
-54.7578747348
 20
-20.5472895098
 10
-54.7576936686
 20
-20.544598115
 10
-54.7575188412
 20
-20.5406782978
 10
-54.7573520362
 20
-20.5354555117
 10
-54.7571956654
 20
-20.5289027625
 10
-54.7570508482
 20
-20.5209722706
 10
-54.75680115
 20
-20.5008824544
  0
LINE
  5
36C
100
AcDbEntity
  8
RACCORDO
100
AcDbLine
 62
7
  6
CONTINUOUS
 10
-65.0902480418
 20
-21.0991293071
 11
-65.0661055573
 21
-21.0739727269
  0
LINE
  5
36D
100
AcDbEntity
  8
ASSI
100
AcDbLine
 62
7
  6
CONTINUOUS
 10
-42.8626151316
 20
0.7
 11
-42.6626151316
 21
0.7
  0
LINE
  5
36E
100
AcDbEntity
  8
ASSI
100
AcDbLine
 62
7
  6
CONTINUOUS
 10
-42.8626151316
 20
1.413369751
 11
-42.6626151316
 21
1.413369751
  0
LINE
  5
36F
100
AcDbEntity
  8
ASSI
100
AcDbLine
 62
7
  6
CONTINUOUS
 10
-42.8626151316
 20
1.6736698747
 11
-42.6626151316
 21
1.6736698747
  0
LINE
  5
370
100
AcDbEntity
  8
ASSI
100
AcDbLine
 62
250
  6
CONTINUOUS
 10
-42.8626151316
 20
1.7804912828
 11
-42.6626151316
 21
1.7804912828
  0
LINE
  5
371
100
AcDbEntity
  8
ASSI
100
AcDbLine
 62
7
  6
CONTINUOUS
 10
-42.8626151316
 20
1.8136425614
 11
-42.6626151316
 21
1.8136425614
  0
LINE
  5
372
100
AcDbEntity
  8
ASSI
100
AcDbLine
 62
7
  6
CONTINUOUS
 10
-42.8626151316
 20
1.8160982311
 11
-42.6626151316
 21
1.8160982311
  0
LINE
  5
373
100
AcDbEntity
  8
ASSI
100
AcDbLine
 62
7
  6
CONTINUOUS
 10
-42.8626151316
 20
2.5
 11
-42.6626151316
 21
2.5
  0
LINE
  5
374
100
AcDbEntity
  8
ASSI
100
AcDbLine
 62
7
  6
CONTINUOUS
 10
-42.8626151316
 20
2.5306957699
 11
-42.6626151316
 21
2.5306957699
  0
LINE
  5
375
100
AcDbEntity
  8
RACCORDO
100
AcDbLine
 62
250
  6
CONTINUOUS
 10
-42.8626151316
 20
3.5173027369
 11
-43.8451627251
 21
3.5173027369
  0
LINE
  5
376
100
AcDbEntity
  8
RACCORDO
100
AcDbLine
 62
250
  6
CONTINUOUS
 10
-43.8451627251
 20
3.5173027369
 11
-44.8626151316
 21
3.5350624347
  0
LWPOLYLINE
  5
377
100
AcDbEntity
  8
RACCORDO
100
AcDbPolyline
 62
7
  6
CONTINUOUS
 90
4
 70
0
 10
-65.0661055573
 20
21.0739725887
 10
-65.09011403
 20
21.0989877372
 10
-65.1129690942
 20
21.1237576581
 10
-65.1346707499
 20
21.1482831372
  0
LWPOLYLINE
  5
378
100
AcDbEntity
  8
RACCORDO
100
AcDbPolyline
 62
7
  6
CONTINUOUS
 90
10
 70
0
 10
-65.1346707499
 20
21.1482831372
 10
-65.1554033623
 20
21.1725426246
 10
-65.1749825662
 20
21.1965593104
 10
-65.1928552658
 20
21.2204007246
 10
-65.2089876823
 20
21.2441195649
 10
-65.2234135946
 20
21.2676637989
 10
-65.2356812431
 20
21.2909438598
 10
-65.2456400413
 20
21.3139305623
 10
-65.2534405759
 20
21.3366547028
 10
-65.2590828467
 20
21.3591170407
  0
LWPOLYLINE
  5
379
100
AcDbEntity
  8
RACCORDO
100
AcDbPolyline
 62
250
  6
CONTINUOUS
 90
19
 70
0
 10
-44.8626151316
 20
18.1642042968
 10
-44.8663871877
 20
18.2374191288
 10
-44.8776980535
 20
18.3100377078
 10
-44.8964966877
 20
18.381606721
 10
-44.9227137997
 20
18.4518591197
 10
-44.9561627095
 20
18.5201586283
 10
-44.9964469283
 20
18.5855265616
 10
-45.043150945
 20
18.6474660331
 10
-45.0959187498
 20
18.7057126762
 10
-45.1542852004
 20
18.759697123
 10
-45.2177452169
 20
18.8090780166
 10
-45.2858014441
 20
18.8536125205
 10
-45.3579536758
 20
18.8929226638
 10
-45.4336292645
 20
18.9267653003
 10
-45.5122627705
 20
18.9549909918
 10
-45.5933524514
 20
18.9773929971
 10
-45.6763313295
 20
18.9938268831
 10
-45.7605611386
 20
19.0042285414
 10
-45.8454278169
 20
19.0085517873
  0
LINE
  5
37A
100
AcDbEntity
  8
RACCORDO
100
AcDbLine
 62
250
  6
CONTINUOUS
 10
-43.8406151012
 20
-3.8271527394
 11
-43.8451627251
 21
-3.5173027369
  0
LWPOLYLINE
  5
37B
100
AcDbEntity
  8
RACCORDO
100
AcDbPolyline
 62
250
  6
CONTINUOUS
 90
7
 70
0
 10
-43.8382336094
 20
4.3249296023
 10
-43.8387673904
 20
4.3822595448
 10
-43.839564196
 20
4.4300773908
 10
-43.8406151012
 20
4.4678336278
 10
-43.841908355
 20
4.4951093186
 10
-43.8434298181
 20
4.5116089034
 10
-43.8451627251
 20
4.517150432
  0
LINE
  5
37C
100
AcDbEntity
  8
RACCORDO
100
AcDbLine
 62
250
  6
CONTINUOUS
 10
-43.8387673904
 20
-4.0185821057
 11
-43.8406151012
 21
-3.8271527394
  0
LINE
  5
37D
100
AcDbEntity
  8
RACCORDO
100
AcDbLine
 62
250
  6
CONTINUOUS
 10
-44.6661056129
 20
-17.9653914193
 11
-44.6660227154
 21
-17.9814785965
  0
LINE
  5
37E
100
AcDbEntity
  8
RACCORDO
100
AcDbLine
 62
250
  6
CONTINUOUS
 10
-43.8379684733
 20
-4.1878662925
 11
-43.8387673904
 21
-4.0185821057
  0
LINE
  5
37F
100
AcDbEntity
  8
RACCORDO
100
AcDbLine
 62
7
  6
CONTINUOUS
 10
-44.8626151316
 20
-18.1642042954
 11
-44.8626151316
 21
19.4815900772
  0
LINE
  5
380
100
AcDbEntity
  8
0
100
AcDbLine
 62
7
  6
CONTINUOUS
 10
-44.7426151316
 20
14.625
 11
-44.7426151316
 21
13.375
  0
LINE
  5
381
100
AcDbEntity
  8
0
100
AcDbLine
 62
7
  6
CONTINUOUS
 10
-44.7426151316
 20
9.7748756532
 11
-44.7426151316
 21
8.1943641366
  0
LINE
  5
382
100
AcDbEntity
  8
0
100
AcDbLine
 62
7
  6
CONTINUOUS
 10
-44.7426151316
 20
7.5449042092
 11
-44.7426151316
 21
5.6983101757
  0
LINE
  5
383
100
AcDbEntity
  8
RACCORDO
100
AcDbLine
 62
250
  6
CONTINUOUS
 10
-44.6661056129
 20
13.753405
 11
-44.6661056129
 21
13.2814800434
  0
LINE
  5
384
100
AcDbEntity
  8
RACCORDO
100
AcDbLine
 62
250
  6
CONTINUOUS
 10
-44.6661056129
 20
-6.5185199566
 11
-44.6661056129
 21
-17.9653914193
  0
LINE
  5
385
100
AcDbEntity
  8
ASSI
100
AcDbLine
 62
7
  6
CONTINUOUS
 10
-44.6626151316
 20
18.253369
 11
-44.6626151316
 21
13.753405
  0
LINE
  5
386
100
AcDbEntity
  8
RACCORDO
100
AcDbLine
 62
250
  6
CONTINUOUS
 10
-43.8451627251
 20
3.5173027369
 11
-43.8451627251
 21
-3.5173027369
  0
LINE
  5
387
100
AcDbEntity
  8
RACCORDO
100
AcDbLine
 62
250
  6
CONTINUOUS
 10
-43.0591246503
 20
-6.5465699136
 11
-43.0591246503
 21
-17.9534300864
  0
LINE
  5
388
100
AcDbEntity
  8
RACCORDO
100
AcDbLine
 62
250
  6
CONTINUOUS
 10
-43.0591246503
 20
14.1534300864
 11
-43.0591246503
 21
6.2465699136
  0
LINE
  5
389
100
AcDbEntity
  8
RACCORDO
100
AcDbLine
 62
7
  6
CONTINUOUS
 10
-42.8626151316
 20
13.953331818
 11
-42.8626151316
 21
6.4465394526
  0
LINE
  5
38A
100
AcDbEntity
  8
RACCORDO
100
AcDbLine
 62
7
  6
CONTINUOUS
 10
-42.8626151316
 20
3.5173027369
 11
-42.8626151316
 21
-3.5173027369
  0
LINE
  5
38B
100
AcDbEntity
  8
RACCORDO
100
AcDbLine
 62
7
  6
CONTINUOUS
 10
-42.8626151316
 20
-6.746668182
 11
-42.8626151316
 21
-17.7533318157
  0
LINE
  5
38C
100
AcDbEntity
  8
ASSI
100
AcDbLine
 62
7
  6
CONTINUOUS
 10
-42.6626151316
 20
2.5306957699
 11
-42.6626151316
 21
0.7
  0
LINE
  5
38D
100
AcDbEntity
  8
0
100
AcDbLine
 62
7
  6
CONTINUOUS
 10
-42.6626151316
 20
-1.0197357321
 11
-42.6626151316
 21
-3.1481978544
  0
LINE
  5
38E
100
AcDbEntity
  8
RACCORDO
100
AcDbLine
 62
250
  6
CONTINUOUS
 10
-43.8379744518
 20
4.1844319633
 11
-43.8382336094
 21
4.3249296023
  0
LINE
  5
38F
100
AcDbEntity
  8
RACCORDO
100
AcDbLine
 62
250
  6
CONTINUOUS
 10
-43.838796985
 20
4.014577108
 11
-43.8379744518
 21
4.1844319633
  0
LINE
  5
390
100
AcDbEntity
  8
RACCORDO
100
AcDbLine
 62
250
  6
CONTINUOUS
 10
-43.8419517822
 20
3.7226300204
 11
-43.838796985
 21
4.014577108
  0
LINE
  5
391
100
AcDbEntity
  8
RACCORDO
100
AcDbLine
 62
250
  6
CONTINUOUS
 10
-43.8451627251
 20
3.5173027369
 11
-43.8419517822
 21
3.7226300204
  0
LWPOLYLINE
  5
392
100
AcDbEntity
  8
RACCORDO
100
AcDbPolyline
 62
250
  6
CONTINUOUS
 90
10
 70
0
 10
-44.8626151316
 20
-18.1642042951
 10
-44.8596436175
 20
-18.1300551025
 10
-44.850817382
 20
-18.0969206801
 10
-44.8363987088
 20
-18.0657856175
 10
-44.816816025
 20
-18.0375750479
 10
-44.7926512606
 20
-18.0131272968
 10
-44.7646226236
 20
-17.9931689064
 10
-44.7335630854
 20
-17.9782928772
 10
-44.7003955596
 20
-17.9689411193
 10
-44.6661056129
 20
-17.9653914192
  0
LWPOLYLINE
  5
393
100
AcDbEntity
  8
RACCORDO
100
AcDbPolyline
 62
250
  6
CONTINUOUS
 90
6
 70
0
 10
-45.8451627607
 20
-19.1640519912
 10
-45.8448613227
 20
-19.1620198981
 10
-45.8446330789
 20
-19.1559510957
 10
-45.8444798795
 20
-19.1458948005
 10
-45.8444029668
 20
-19.1319325947
 10
-45.8444798685
 20
-19.0927738306
  0
LWPOLYLINE
  5
394
100
AcDbEntity
  8
RACCORDO
100
AcDbPolyline
 62
250
  6
CONTINUOUS
 90
8
 70
0
 10
-43.8451627251
 20
-4.517150432
 10
-43.8434581922
 20
-4.511799201
 10
-43.8419517822
 20
-4.4957779449
 10
-43.84066228
 20
-4.4691286428
 10
-43.8396052002
 20
-4.4319552599
 10
-43.838796985
 20
-4.3845690718
 10
-43.8382513195
 20
-4.327620272
 10
-43.8379684733
 20
-4.1878662925
  0
LINE
  5
395
100
AcDbEntity
  8
RACCORDO
100
AcDbLine
 62
250
  6
CONTINUOUS
 10
-59.9074250978
 20
-19.598400205
 11
-61.0622939324
 21
-20.7743083835
  0
LINE
  5
396
100
AcDbEntity
  8
RACCORDO
100
AcDbLine
 62
250
  6
CONTINUOUS
 10
-61.0622939324
 20
-20.7743083835
 11
-61.2918053994
 21
-21.0077191796
  0
LINE
  5
397
100
AcDbEntity
  8
RACCORDO
100
AcDbLine
 62
7
  6
CONTINUOUS
 10
-59.5625979104
 20
-19.5999827788
 11
-61.6186856332
 21
-21.6560705017
  0
LINE
  5
398
100
AcDbEntity
  8
RACCORDO
100
AcDbLine
 62
7
  6
CONTINUOUS
 10
-44.7426151316
 20
6.2171844779
 11
-43.0591246503
 21
6.2465699136
  0
LINE
  5
399
100
AcDbEntity
  8
0
100
AcDbLine
 62
7
  6
CONTINUOUS
 10
-44.8626151316
 20
5.6983049682
 11
-44.7426151316
 21
5.6983049682
  0
LINE
  5
39A
100
AcDbEntity
  8
0
100
AcDbLine
 62
250
  6
CONTINUOUS
 10
-44.8626151316
 20
6.2034206098
 11
-44.7426151316
 21
6.2034206098
  0
LINE
  5
39B
100
AcDbEntity
  8
0
100
AcDbLine
 62
7
  6
CONTINUOUS
 10
-44.8626151316
 20
6.6984805457
 11
-44.7426151316
 21
6.6984805457
  0
LINE
  5
39C
100
AcDbEntity
  8
RACCORDO
100
AcDbLine
 62
7
  6
CONTINUOUS
 10
-43.8451627251
 20
4.517150432
 11
-44.8626151316
 21
4.5349101299
  0
LWPOLYLINE
  5
39D
100
AcDbEntity
  8
RACCORDO
100
AcDbPolyline
 62
250
  6
CONTINUOUS
 90
13
 70
0
 10
-59.9074250978
 20
19.598400205
 10
-59.8475190861
 20
19.5417827401
 10
-59.7851864301
 20
19.4899331705
 10
-59.72042713
 20
19.4428890345
 10
-59.6527284755
 20
19.4006321128
 10
-59.5826031767
 20
19.3632440484
 10
-59.5115893646
 20
19.3309070581
 10
-59.4398324946
 20
19.3038219522
 10
-59.3671871113
 20
19.2818300211
 10
-59.2947549785
 20
19.2645677964
 10
-59.2229033511
 20
19.2519195847
 10
-59.1512649743
 20
19.2440187967
 10
-59.0798398481
 20
19.2408695706
  0
LINE
  5
39E
100
AcDbEntity
  8
RACCORDO
100
AcDbLine
 62
7
  6
CONTINUOUS
 10
-61.6186856332
 20
21.6560705017
 11
-59.562644897
 21
19.6000297654
  0
LINE
  5
39F
100
AcDbEntity
  8
RACCORDO
100
AcDbLine
 62
250
  6
CONTINUOUS
 10
-61.29180556
 20
21.0077191824
 11
-59.9074250978
 21
19.598400205
  0
LWPOLYLINE
  5
3A0
100
AcDbEntity
  8
RACCORDO
100
AcDbPolyline
 62
250
  6
CONTINUOUS
 90
5
 70
0
 10
-45.845162761
 20
19.1640519912
 10
-45.844861327
 20
19.1620198713
 10
-45.8446330863
 20
19.1559510413
 10
-45.8444798891
 20
19.1458947197
 10
-45.8444029779
 20
19.1319326713
  0
LWPOLYLINE
  5
3A1
100
AcDbEntity
  8
RACCORDO
100
AcDbPolyline
 62
250
  6
CONTINUOUS
 90
10
 70
0
 10
-59.5625979104
 20
-19.5999827788
 10
-59.5878421871
 20
-19.6205520258
 10
-59.6174276906
 20
-19.6361742543
 10
-59.6509632123
 20
-19.6466428919
 10
-59.6880053124
 20
-19.6518195119
 10
-59.7280641838
 20
-19.6516356641
 10
-59.7706101287
 20
-19.6460937793
 10
-59.8150805625
 20
-19.635267138
 10
-59.8608874534
 20
-19.6192989006
 10
-59.9074250976
 20
-19.5984002149
  0
LINE
  5
3A2
100
AcDbEntity
  8
0
100
AcDbLine
 62
7
  6
CONTINUOUS
 10
-44.8626151316
 20
7.5016137648
 11
-44.7426151316
 21
7.5016137648
  0
LINE
  5
3A3
100
AcDbEntity
  8
0
100
AcDbLine
 62
7
  6
CONTINUOUS
 10
-44.7426151316
 20
7.5445421501
 11
-44.8626151316
 21
7.5445421501
  0
LINE
  5
3A4
100
AcDbEntity
  8
0
100
AcDbLine
 62
7
  6
CONTINUOUS
 10
-44.8626151316
 20
8.1941399251
 11
-44.7426151316
 21
8.1941399251
  0
LINE
  5
3A5
100
AcDbEntity
  8
0
100
AcDbLine
 62
7
  6
CONTINUOUS
 10
-44.8626151316
 20
8.2067356162
 11
-44.7426151316
 21
8.2067356162
  0
LINE
  5
3A6
100
AcDbEntity
  8
0
100
AcDbLine
 62
7
  6
CONTINUOUS
 10
-44.8626151316
 20
9.554006
 11
-44.7426151316
 21
9.554006
  0
LINE
  5
3A7
100
AcDbEntity
  8
0
100
AcDbLine
 62
7
  6
CONTINUOUS
 10
-44.8626151316
 20
9.732224
 11
-44.7426151316
 21
9.732224
  0
LINE
  5
3A8
100
AcDbEntity
  8
0
100
AcDbLine
 62
7
  6
CONTINUOUS
 10
-44.8626151316
 20
9.75
 11
-44.7426151316
 21
9.75
  0
LINE
  5
3A9
100
AcDbEntity
  8
0
100
AcDbLine
 62
7
  6
CONTINUOUS
 10
-44.7426151316
 20
9.7750352061
 11
-44.8626151316
 21
9.7750352061
  0
LINE
  5
3AA
100
AcDbEntity
  8
RACCORDO
100
AcDbLine
 62
250
  6
CONTINUOUS
 10
-66.9591246503
 20
10.8115531587
 11
-66.7626151316
 21
10.8115531586
  0
LINE
  5
3AB
100
AcDbEntity
  8
RACCORDO
100
AcDbLine
 62
250
  6
CONTINUOUS
 10
-67.0573794096
 20
10.9115379283
 11
-69.2626151316
 21
10.950030461
  0
LINE
  5
3AC
100
AcDbEntity
  8
RACCORDO
100
AcDbLine
 62
7
  6
CONTINUOUS
 10
-67.0573794096
 20
11.1115074673
 11
-69.2626151316
 21
11.15
  0
LINE
  5
3AD
100
AcDbEntity
  8
DRAFT
100
AcDbLine
 62
7
  6
CONTINUOUS
 10
-69.2626151316
 20
11.2971286753
 11
-66.5626151316
 21
11.25
  0
LWPOLYLINE
  5
3AE
100
AcDbEntity
  8
RACCORDO
100
AcDbPolyline
 62
250
  6
CONTINUOUS
 90
10
 70
0
 10
-59.5626006084
 20
19.5999800803
 10
-59.587844954
 20
19.6205499659
 10
-59.6174303997
 20
19.6361729703
 10
-59.6509657448
 20
19.6466425115
 10
-59.6880075611
 20
19.6518201496
 10
-59.7280660562
 20
19.6516374173
 10
-59.77061155
 20
19.646096725
 10
-59.8150814784
 20
19.6352713295
 10
-59.8608878314
 20
19.6193043647
 10
-59.9074249286
 20
19.5984069498
  0
LWPOLYLINE
  5
3AF
100
AcDbEntity
  8
RACCORDO
100
AcDbPolyline
 62
250
  6
CONTINUOUS
 90
10
 70
0
 10
-60.9469331463
 20
20.9843180147
 10
-60.9727285781
 20
21.0058475027
 10
-61.0031749503
 20
21.0234489661
 10
-61.0376081251
 20
21.0365415208
 10
-61.0748968246
 20
21.0443753236
 10
-61.114563632
 20
21.0469030825
 10
-61.1568742021
 20
21.0446350575
 10
-61.2013279473
 20
21.0375466388
 10
-61.2466096018
 20
21.0252425953
 10
-61.2917603337
 20
21.0077183978
  0
LWPOLYLINE
  5
3B0
100
AcDbEntity
  8
RACCORDO
100
AcDbPolyline
 62
7
  6
CONTINUOUS
 90
4
 70
0
 10
-44.8449032266
 20
-18.0994126071
 10
-44.8313900942
 20
-18.0743257813
 10
-44.8144495063
 20
-18.0514144493
 10
-44.7944252171
 20
-18.0311433706
  0
LINE
  5
3B1
100
AcDbEntity
  8
0
100
AcDbLine
 62
7
  6
CONTINUOUS
 10
-44.8626151316
 20
13.375
 11
-44.7426151316
 21
13.375
  0
LINE
  5
3B2
100
AcDbEntity
  8
ASSI
100
AcDbLine
 62
7
  6
CONTINUOUS
 10
-44.7426151316
 20
13.753405
 11
-44.6626151316
 21
13.753405
  0
LINE
  5
3B3
100
AcDbEntity
  8
0
100
AcDbLine
 62
7
  6
CONTINUOUS
 10
-44.8626151316
 20
14.121866
 11
-44.7426151316
 21
14.121866
  0
LINE
  5
3B4
100
AcDbEntity
  8
RACCORDO
100
AcDbLine
 62
7
  6
CONTINUOUS
 10
-44.8626151316
 20
13.2849101299
 11
-43.0591246503
 21
13.2534300864
  0
LINE
  5
3B5
100
AcDbEntity
  8
DRAFT
100
AcDbLine
 62
7
  6
CONTINUOUS
 10
-44.6661056129
 20
14.1814800434
 11
-43.0591246503
 21
14.1534300864
  0
LWPOLYLINE
  5
3B6
100
AcDbEntity
  8
0
100
AcDbPolyline
 62
7
  6
CONTINUOUS
 90
10
 70
0
 43
0.3499999917
 10
-55.0983270264
 20
37.9165493774
 10
-55.0269021606
 20
37.7736932373
 10
-55.0269021606
 20
37.7022619629
 10
-55.1697583008
 20
37.5594058228
 10
-55.2411895752
 20
37.5594058228
 10
-55.3126144409
 20
37.6308370972
 10
-55.3126144409
 20
37.7022619629
 10
-55.2411895752
 20
37.845118103
 10
-55.1697583008
 20
37.9165493774
 10
-55.0983270264
 20
37.9165493774
  0
LWPOLYLINE
  5
3B7
100
AcDbEntity
  8
0
100
AcDbPolyline
 62
7
  6
CONTINUOUS
 90
10
 70
0
 43
0.3499999917
 10
-60.0626147461
 20
47.9165496826
 10
-59.9911834717
 20
47.7736935425
 10
-59.9911834717
 20
47.7022622681
 10
-60.1340460205
 20
47.5594061279
 10
-60.2054708862
 20
47.5594061279
 10
-60.2769021606
 20
47.6308374023
 10
-60.2769021606
 20
47.7022622681
 10
-60.2054708862
 20
47.8451184082
 10
-60.1340460205
 20
47.9165496826
 10
-60.0626147461
 20
47.9165496826
  0
LWPOLYLINE
  5
3B8
100
AcDbEntity
  8
RACCORDO
100
AcDbPolyline
 62
7
  6
CONTINUOUS
 90
6
 70
0
 10
-44.7944252171
 20
-18.0311433706
 10
-44.7717236211
 20
-18.0139239502
 10
-44.7468056111
 20
-18.0001057822
 10
-44.7201769817
 20
-17.9899693336
 10
-44.6923782307
 20
-17.9837203436
 10
-44.6660221548
 20
-17.9815109193
  0
LINE
  5
3B9
100
AcDbEntity
  8
0
100
AcDbLine
 62
7
  6
CONTINUOUS
 10
-63.1131196477
 20
-22.2
 11
-61.6186856332
 21
-21.6560705017
  0
LINE
  5
3BA
100
AcDbEntity
  8
0
100
AcDbLine
 62
7
  6
CONTINUOUS
 10
-44.8626151316
 20
14.625
 11
-44.7426151316
 21
14.625
  0
LINE
  5
3BB
100
AcDbEntity
  8
RACCORDO
100
AcDbLine
 62
250
  6
CONTINUOUS
 10
-45.8434176892
 20
16.9964419272
 11
-44.8626151316
 21
16.9964419272
  0
LINE
  5
3BC
100
AcDbEntity
  8
RACCORDO
100
AcDbLine
 62
250
  6
CONTINUOUS
 10
-69.2626151316
 20
17.7266193811
 11
-45.8451627251
 21
17.6355171167
  0
LINE
  5
3BD
100
AcDbEntity
  8
RACCORDO
100
AcDbLine
 62
250
  6
CONTINUOUS
 10
-69.2626151316
 20
17.0936293996
 11
-45.8434176892
 21
16.9964419272
  0
LWPOLYLINE
  5
3BE
100
AcDbEntity
  8
RACCORDO
100
AcDbPolyline
 62
250
  6
CONTINUOUS
 90
16
 70
0
 10
-45.8451627251
 20
17.6355152301
 10
-45.7420273179
 20
17.6309483359
 10
-45.6401434486
 20
17.6195944204
 10
-45.5406028852
 20
17.6015674758
 10
-45.4444627363
 20
17.577049776
 10
-45.3527698893
 20
17.5462987955
 10
-45.266543695
 20
17.5096521171
 10
-45.186717542
 20
17.4675078565
 10
-45.1141368252
 20
17.4203138736
 10
-45.04958089
 20
17.3685772257
 10
-44.9937419288
 20
17.3128535811
 10
-44.9472169072
 20
17.2537397462
 10
-44.9105032079
 20
17.1918681682
 10
-44.8839941819
 20
17.1279015347
 10
-44.8679742544
 20
17.0625258837
 10
-44.8626151316
 20
16.9964419272
  0
LINE
  5
3BF
100
AcDbEntity
  8
0
100
AcDbLine
 62
7
  6
CONTINUOUS
 10
-63.1131196477
 20
22.2
 11
-61.6186856332
 21
21.6560705017
  0
LINE
  5
3C0
100
AcDbEntity
  8
ASSI
100
AcDbLine
 62
7
  6
CONTINUOUS
 10
-44.8626151316
 20
18.253369
 11
-44.6626151316
 21
18.253369
  0
LINE
  5
3C1
100
AcDbEntity
  8
RACCORDO
100
AcDbLine
 62
250
  6
CONTINUOUS
 10
-44.8626151316
 20
19.4815900772
 11
-45.8439758614
 21
19.4815900772
  0
LINE
  5
3C2
100
AcDbEntity
  8
RACCORDO
100
AcDbLine
 62
250
  6
CONTINUOUS
 10
-45.8439758614
 20
19.4815900772
 11
-59.5643377432
 21
19.6013258614
  0
LINE
  5
3C3
100
AcDbEntity
  8
RACCORDO
100
AcDbLine
 62
7
  6
CONTINUOUS
 10
-45.8439758614
 20
20.471552381
 11
-60.5626151316
 21
20.6
  0
LINE
  5
3C4
100
AcDbEntity
  8
RACCORDO
100
AcDbLine
 62
7
  6
CONTINUOUS
 10
-59.0800429128
 20
19.3950676836
 11
-45.8451627251
 21
19.1640519906
  0
LINE
  5
3C5
100
AcDbEntity
  8
RACCORDO
100
AcDbLine
 62
7
  6
CONTINUOUS
 10
-65.0661056129
 20
21.1965699136
 11
-61.2917603337
 21
21.1306884717
  0
LINE
  5
3C6
100
AcDbEntity
  8
RACCORDO
100
AcDbLine
 62
250
  6
CONTINUOUS
 10
-59.0798398481
 20
19.2408695706
 11
-45.8451627251
 21
19.008532405
  0
LINE
  5
3C7
100
AcDbEntity
  8
RACCORDO
100
AcDbLine
 62
250
  6
CONTINUOUS
 10
-65.0661055573
 20
21.0739725887
 11
-61.29180556
 21
21.0077191824
  0
LWPOLYLINE
  5
3C8
100
AcDbEntity
  8
0
100
AcDbPolyline
 62
250
  6
CONTINUOUS
 90
3
 70
0
 10
-78.3206090753
 20
21.0183124951
 10
-78.3164320348
 20
21.0180893321
 10
-77.8298184336
 20
20.9972959167
  0
LINE
  5
3C9
100
AcDbEntity
  8
0
100
AcDbLine
 62
250
  6
CONTINUOUS
 10
-77.3564283766
 20
21.4755923698
 11
-69.2626151316
 21
21.8997711479
  0
LINE
  5
3CA
100
AcDbEntity
  8
0
100
AcDbLine
 62
7
  6
CONTINUOUS
 10
-77.3738701515
 20
21.9749071372
 11
-69.2626151316
 21
22.4
  0
LINE
  5
3CB
100
AcDbEntity
  8
0
100
AcDbLine
 62
7
  6
CONTINUOUS
 10
-63.1131196477
 20
22.2
 11
-63.6626151316
 21
22.2
  0
LINE
  5
3CC
100
AcDbEntity
  8
0
100
AcDbLine
 62
7
  6
CONTINUOUS
 10
-65.2626151316
 20
22.6298666026
 11
-66.5849721924
 21
22.6398998853
  0
LINE
  5
3CD
100
AcDbEntity
  8
0
100
AcDbLine
 62
7
  6
CONTINUOUS
 10
-66.5849721924
 20
22.6398998853
 11
-67.9183378402
 21
22.6510215029
  0
LINE
  5
3CE
100
AcDbEntity
  8
0
100
AcDbLine
 62
7
  6
CONTINUOUS
 10
-67.9183378402
 20
22.6510215029
 11
-69.2626151316
 21
22.663166622
  0
LINE
  5
3CF
100
AcDbEntity
  8
0
100
AcDbLine
 62
7
  6
CONTINUOUS
 10
-65.2626151316
 20
23.4301797403
 11
-69.2626151316
 21
23.5
  0
LINE
  5
3D0
100
AcDbEntity
  8
0
100
AcDbLine
 62
250
  6
CONTINUOUS
 10
-65.2626151316
 20
23.2631073613
 11
-69.2626151316
 21
23.333359658
  0
LINE
  5
3D1
100
AcDbEntity
  8
0
100
AcDbLine
 62
7
  6
CONTINUOUS
 10
-67.0282078225
 20
23.1362530689
 11
-69.2626151316
 21
23.1799085618
  0
LINE
  5
3D2
100
AcDbEntity
  8
0
100
AcDbLine
 62
7
  6
CONTINUOUS
 10
-65.2626151316
 20
23.0998904748
 11
-67.0282078225
 21
23.1362530689
  0
LWPOLYLINE
  5
3D3
100
AcDbEntity
  8
0
100
AcDbPolyline
 62
7
  6
CONTINUOUS
 90
7
 70
0
 43
0.3499999917
 10
-58.9554748535
 20
37.4165496826
 10
-60.455473938
 20
37.4165496826
 10
-58.9554748535
 20
39.5594046021
 10
-58.9554748535
 20
39.9879794312
 10
-59.3840432739
 20
40.4165478516
 10
-60.0268991089
 20
40.4165478516
 10
-60.455473938
 20
39.7736920166
  0
LWPOLYLINE
  5
3D4
100
AcDbEntity
  8
0
100
AcDbPolyline
 62
7
  6
CONTINUOUS
 90
3
 70
0
 43
0.3499999917
 10
-52.5269004822
 20
38.0594055176
 10
-54.026902771
 20
38.0594055176
 10
-53.3840437317
 20
40.4165478516
  0
LWPOLYLINE
  5
3D5
100
AcDbEntity
  8
0
100
AcDbPolyline
 62
7
  6
CONTINUOUS
 90
6
 70
0
 43
0.3499999917
 10
-64.9911868286
 20
47.4165499878
 10
-63.9197561646
 20
47.4165499878
 10
-63.7054751587
 20
47.6308374023
 10
-63.7054751587
 20
48.7022616577
 10
-64.1340435791
 20
49.1308364868
 10
-64.5626119995
 20
49.1308364868
  0
LWPOLYLINE
  5
3D6
100
AcDbEntity
  8
0
100
AcDbPolyline
 62
7
  6
CONTINUOUS
 90
8
 70
0
 43
0.3499999917
 10
-62.8483319092
 20
47.4165499878
 10
-61.9911886597
 20
47.4165499878
 10
-61.5626138306
 20
47.8451184082
 10
-61.5626138306
 20
48.7022616577
 10
-61.9911886597
 20
49.1308364868
 10
-62.8483319092
 20
49.1308364868
 10
-62.8483319092
 20
50.4165481567
 10
-61.5626138306
 20
50.4165481567
  0
ARC
  5
3D7
100
AcDbEntity
  8
0
100
AcDbCircle
 62
7
  6
CONTINUOUS
 10
-6.3
 20
-23.1
 40
0.5
100
AcDbArc
 50
60.887577224
 51
189.196281579
  0
ARC
  5
3D8
100
AcDbEntity
  8
0
100
AcDbCircle
 62
7
  6
CONTINUOUS
 10
-16.2
 20
-23.1
 40
0.5
100
AcDbArc
 50
350.803718421
 51
119.112422776
  0
ARC
  5
3D9
100
AcDbEntity
  8
0
100
AcDbCircle
 62
7
  6
CONTINUOUS
 10
-22.5
 20
-0.0
 40
28.0
100
AcDbArc
 50
55.8789063483
 51
56.4427876864
  0
ARC
  5
3DA
100
AcDbEntity
  8
0
100
AcDbCircle
 62
7
  6
CONTINUOUS
 10
-22.5
 20
-0.0
 40
28.0
100
AcDbArc
 50
53.1306352597
 51
54.0372348486
  0
ARC
  5
3DB
100
AcDbEntity
  8
0
100
AcDbCircle
 62
7
  6
CONTINUOUS
 10
-22.5
 20
-0.0
 40
28.0
100
AcDbArc
 50
305.9627651514
 51
306.8693647403
  0
ARC
  5
3DC
100
AcDbEntity
  8
0
100
AcDbCircle
 62
7
  6
CONTINUOUS
 10
-22.5
 20
-0.0
 40
28.0
100
AcDbArc
 50
303.5572123136
 51
304.1210936517
  0
CIRCLE
  5
3DD
100
AcDbEntity
  8
RACCORDO
100
AcDbCircle
 62
250
  6
CONTINUOUS
 10
-9.5
 20
-0.0
 40
3.2999682938
  0
CIRCLE
  5
3DE
100
AcDbEntity
  8
RACCORDO
100
AcDbCircle
 62
7
  6
CONTINUOUS
 10
-9.5
 20
-0.0
 40
2.8
  0
ARC
  5
3DF
100
AcDbEntity
  8
COPY-PUBBLISH
100
AcDbCircle
 62
7
  6
CONTINUOUS
 10
-9.5
 20
-0.0
 40
2.3
100
AcDbArc
 50
243.9318397081
 51
296.0681602919
  0
ARC
  5
3E0
100
AcDbEntity
  8
0
100
AcDbCircle
 62
7
  6
CONTINUOUS
 10
-6.3
 20
23.1
 40
0.5
100
AcDbArc
 50
170.803718421
 51
299.112422776
  0
ARC
  5
3E1
100
AcDbEntity
  8
0
100
AcDbCircle
 62
7
  6
CONTINUOUS
 10
-16.2
 20
23.1
 40
0.5
100
AcDbArc
 50
240.887577224
 51
9.196281579
  0
ARC
  5
3E2
100
AcDbEntity
  8
0
100
AcDbCircle
 62
7
  6
CONTINUOUS
 10
6.3
 20
-23.1
 40
0.5
100
AcDbArc
 50
350.803718421
 51
119.112422776
  0
ARC
  5
3E3
100
AcDbEntity
  8
0
100
AcDbCircle
 62
7
  6
CONTINUOUS
 10
16.2
 20
-23.1
 40
0.5
100
AcDbArc
 50
60.887577224
 51
189.196281579
  0
ARC
  5
3E4
100
AcDbEntity
  8
RACCORDO
100
AcDbCircle
 62
7
  6
CONTINUOUS
 10
0.0
 20
-0.0
 40
28.0
100
AcDbArc
 50
125.9627651514
 51
126.8624534027
  0
ARC
  5
3E5
100
AcDbEntity
  8
0
100
AcDbCircle
 62
7
  6
CONTINUOUS
 10
0.0
 20
-0.0
 40
28.0
100
AcDbArc
 50
123.5572123136
 51
124.1210936517
  0
ARC
  5
3E6
100
AcDbEntity
  8
0
100
AcDbCircle
 62
7
  6
CONTINUOUS
 10
22.5
 20
0.0
 40
28.0
100
AcDbArc
 50
125.9627651514
 51
126.8693647403
  0
ARC
  5
3E7
100
AcDbEntity
  8
0
100
AcDbCircle
 62
7
  6
CONTINUOUS
 10
22.5
 20
0.0
 40
28.0
100
AcDbArc
 50
123.5572123136
 51
124.1210936517
  0
ARC
  5
3E8
100
AcDbEntity
  8
0
100
AcDbCircle
 62
7
  6
CONTINUOUS
 10
0.0
 20
-0.0
 40
28.0
100
AcDbArc
 50
55.8789063483
 51
56.4427876864
  0
ARC
  5
3E9
100
AcDbEntity
  8
RACCORDO
100
AcDbCircle
 62
7
  6
CONTINUOUS
 10
0.0
 20
-0.0
 40
28.0
100
AcDbArc
 50
53.1375465973
 51
54.0372348486
  0
ARC
  5
3EA
100
AcDbEntity
  8
RACCORDO
100
AcDbCircle
 62
7
  6
CONTINUOUS
 10
0.0
 20
-0.0
 40
28.0
100
AcDbArc
 50
305.9627651514
 51
306.8624534027
  0
ARC
  5
3EB
100
AcDbEntity
  8
0
100
AcDbCircle
 62
7
  6
CONTINUOUS
 10
0.0
 20
-0.0
 40
28.0
100
AcDbArc
 50
303.5572123136
 51
304.1210936517
  0
ARC
  5
3EC
100
AcDbEntity
  8
0
100
AcDbCircle
 62
7
  6
CONTINUOUS
 10
22.5
 20
0.0
 40
28.0
100
AcDbArc
 50
235.8789063483
 51
236.4427876864
  0
ARC
  5
3ED
100
AcDbEntity
  8
0
100
AcDbCircle
 62
7
  6
CONTINUOUS
 10
22.5
 20
0.0
 40
28.0
100
AcDbArc
 50
233.1306352597
 51
234.0372348486
  0
ARC
  5
3EE
100
AcDbEntity
  8
0
100
AcDbCircle
 62
7
  6
CONTINUOUS
 10
0.0
 20
-0.0
 40
28.0
100
AcDbArc
 50
235.8789063483
 51
236.4427876864
  0
ARC
  5
3EF
100
AcDbEntity
  8
RACCORDO
100
AcDbCircle
 62
7
  6
CONTINUOUS
 10
0.0
 20
-0.0
 40
28.0
100
AcDbArc
 50
233.1375465973
 51
234.0372348486
  0
CIRCLE
  5
3F0
100
AcDbEntity
  8
DRAFT
100
AcDbCircle
 62
7
  6
CONTINUOUS
 10
0.0
 20
-0.0
 40
19.2
  0
CIRCLE
  5
3F1
100
AcDbEntity
  8
RACCORDO
100
AcDbCircle
 62
250
  6
CONTINUOUS
 10
9.5
 20
-0.0
 40
3.2999682938
  0
CIRCLE
  5
3F2
100
AcDbEntity
  8
RACCORDO
100
AcDbCircle
 62
250
  6
CONTINUOUS
 10
-0.0
 20
10.0
 40
2.9499712118
  0
CIRCLE
  5
3F3
100
AcDbEntity
  8
RACCORDO
100
AcDbCircle
 62
7
  6
CONTINUOUS
 10
9.5
 20
-0.0
 40
2.8
  0
CIRCLE
  5
3F4
100
AcDbEntity
  8
RACCORDO
100
AcDbCircle
 62
7
  6
CONTINUOUS
 10
-0.0
 20
10.0
 40
2.45
  0
CIRCLE
  5
3F5
100
AcDbEntity
  8
0
100
AcDbCircle
 62
7
  6
CONTINUOUS
 10
-0.0
 20
10.0
 40
2.4
  0
ARC
  5
3F6
100
AcDbEntity
  8
COPY-PUBBLISH
100
AcDbCircle
 62
7
  6
CONTINUOUS
 10
9.5
 20
-0.0
 40
2.3
100
AcDbArc
 50
63.9318397081
 51
116.0681602919
  0
ARC
  5
3F7
100
AcDbEntity
  8
0
100
AcDbCircle
 62
7
  6
CONTINUOUS
 10
6.3
 20
23.1
 40
0.5
100
AcDbArc
 50
240.887577224
 51
9.196281579
  0
ARC
  5
3F8
100
AcDbEntity
  8
0
100
AcDbCircle
 62
7
  6
CONTINUOUS
 10
16.2
 20
23.1
 40
0.5
100
AcDbArc
 50
170.803718421
 51
299.112422776
  0
ARC
  5
3F9
100
AcDbEntity
  8
0
100
AcDbCircle
 62
7
  6
CONTINUOUS
 10
-77.3215341953
 20
-20.9762776025
 40
1.0
100
AcDbArc
 50
182.4092313014
 51
267.0
  0
ARC
  5
3FA
100
AcDbEntity
  8
RACCORDO
100
AcDbCircle
 62
7
  6
CONTINUOUS
 10
-43.8626151316
 20
-3.5173027369
 40
1.0
100
AcDbArc
 50
271.0
 51
360.0
  0
ARC
  5
3FB
100
AcDbEntity
  8
RACCORDO
100
AcDbCircle
 62
7
  6
CONTINUOUS
 10
-45.8626151316
 20
-18.1642042954
 40
1.0
100
AcDbArc
 50
271.0
 51
360.0
  0
ARC
  5
3FC
100
AcDbEntity
  8
RACCORDO
100
AcDbCircle
 62
7
  6
CONTINUOUS
 10
-59.0676231636
 20
-20.0949575257
 40
0.7
100
AcDbArc
 50
91.0169575202
 51
135.0054106369
  0
ARC
  5
3FD
100
AcDbEntity
  8
RACCORDO
100
AcDbCircle
 62
7
  6
CONTINUOUS
 10
-54.7626151316
 20
-20.0493651276
 40
0.5
100
AcDbArc
 50
270.5
 51
360.0
  0
ARC
  5
3FE
100
AcDbEntity
  8
RACCORDO
100
AcDbCircle
 62
7
  6
CONTINUOUS
 10
-61.3004865369
 20
-20.6307646241
 40
0.5
100
AcDbArc
 50
271.0
 51
315.0
  0
ARC
  5
3FF
100
AcDbEntity
  8
RACCORDO
100
AcDbCircle
 62
7
  6
CONTINUOUS
 10
-67.0626151316
 20
-10.8115531587
 40
0.3
100
AcDbArc
 50
271.0
 51
360.0
  0
ARC
  5
400
100
AcDbEntity
  8
RACCORDO
100
AcDbCircle
 62
7
  6
CONTINUOUS
 10
-44.6625317064
 20
-18.1814829141
 40
0.200002414
100
AcDbArc
 50
98.582691686
 51
131.261552169
  0
ARC
  5
401
100
AcDbEntity
  8
RACCORDO
100
AcDbCircle
 62
7
  6
CONTINUOUS
 10
-65.0626151316
 20
-21.3965394526
 40
0.2
100
AcDbArc
 50
169.2157049612
 51
180.0
  0
ARC
  5
402
100
AcDbEntity
  8
RACCORDO
100
AcDbCircle
 62
7
  6
CONTINUOUS
 10
-43.0626151316
 20
-17.7534605474
 40
0.2
100
AcDbArc
 50
271.0
 51
360.0
  0
ARC
  5
403
100
AcDbEntity
  8
RACCORDO
100
AcDbCircle
 62
7
  6
CONTINUOUS
 10
-43.0626151316
 20
-6.7465394526
 40
0.2
100
AcDbArc
 50
0.0
 51
89.0
  0
ARC
  5
404
100
AcDbEntity
  8
RACCORDO
100
AcDbCircle
 62
7
  6
CONTINUOUS
 10
-43.0626151316
 20
-13.9534605474
 40
0.2
100
AcDbArc
 50
271.0
 51
360.0
  0
ARC
  5
405
100
AcDbEntity
  8
RACCORDO
100
AcDbCircle
 62
7
  6
CONTINUOUS
 10
-44.6626151316
 20
-6.3185504175
 40
0.2
100
AcDbArc
 50
180.0
 51
269.0
  0
ARC
  5
406
100
AcDbEntity
  8
RACCORDO
100
AcDbCircle
 62
7
  6
CONTINUOUS
 10
-44.6626151316
 20
-14.3814495825
 40
0.2
100
AcDbArc
 50
91.0
 51
180.0
  0
ARC
  5
407
100
AcDbEntity
  8
RACCORDO
100
AcDbCircle
 62
7
  6
CONTINUOUS
 10
-65.0626151316
 20
-21.3965394526
 40
0.2
100
AcDbArc
 50
91.0
 51
156.1795637506
  0
ARC
  5
408
100
AcDbEntity
  8
0
100
AcDbCircle
 62
7
  6
CONTINUOUS
 10
-77.3215341953
 20
20.9762776025
 40
1.0
100
AcDbArc
 50
93.0
 51
177.5907686986
  0
ARC
  5
409
100
AcDbEntity
  8
RACCORDO
100
AcDbCircle
 62
7
  6
CONTINUOUS
 10
-43.8626151316
 20
3.5173027369
 40
1.0
100
AcDbArc
 50
0.0
 51
89.0
  0
ARC
  5
40A
100
AcDbEntity
  8
RACCORDO
100
AcDbCircle
 62
7
  6
CONTINUOUS
 10
-45.8626151316
 20
18.1642042954
 40
1.0
100
AcDbArc
 50
0.0
 51
89.0095690207
  0
ARC
  5
40B
100
AcDbEntity
  8
RACCORDO
100
AcDbCircle
 62
7
  6
CONTINUOUS
 10
-45.8526151316
 20
19.4815900772
 40
0.99
100
AcDbArc
 50
0.0
 51
89.5
  0
ARC
  5
40C
100
AcDbEntity
  8
RACCORDO
100
AcDbCircle
 62
7
  6
CONTINUOUS
 10
-59.0676231636
 20
20.0949575257
 40
0.7
100
AcDbArc
 50
224.9945610786
 51
268.9833764285
  0
ARC
  5
40D
100
AcDbEntity
  8
RACCORDO
100
AcDbCircle
 62
7
  6
CONTINUOUS
 10
-61.3004865369
 20
20.6307646241
 40
0.5
100
AcDbArc
 50
45.0
 51
89.0
  0
ARC
  5
40E
100
AcDbEntity
  8
RACCORDO
100
AcDbCircle
 62
7
  6
CONTINUOUS
 10
-67.0626151316
 20
10.8115531587
 40
0.3
100
AcDbArc
 50
0.0
 51
89.0
  0
ARC
  5
40F
100
AcDbEntity
  8
RACCORDO
100
AcDbCircle
 62
7
  6
CONTINUOUS
 10
-43.0626151316
 20
13.9534605474
 40
0.2
100
AcDbArc
 50
0.0
 51
89.0
  0
ARC
  5
410
100
AcDbEntity
  8
RACCORDO
100
AcDbCircle
 62
7
  6
CONTINUOUS
 10
-43.0626151316
 20
6.4465394526
 40
0.2
100
AcDbArc
 50
271.0000000115
 51
360.0
  0
ARC
  5
411
100
AcDbEntity
  8
RACCORDO
100
AcDbCircle
 62
7
  6
CONTINUOUS
 10
-43.0626151316
 20
13.0534605474
 40
0.2
100
AcDbArc
 50
0.0
 51
88.9999999885
  0
ARC
  5
412
100
AcDbEntity
  8
RACCORDO
100
AcDbCircle
 62
7
  6
CONTINUOUS
 10
-65.0626151316
 20
21.3965394526
 40
0.2
100
AcDbArc
 50
180.0
 51
269.0
  0
ARC
  5
413
100
AcDbEntity
  8
RACCORDO
100
AcDbCircle
 62
7
  6
CONTINUOUS
 10
421.2373848684
 20
-0.0
 40
500.0
100
AcDbArc
 50
177.7119824363
 51
180.0
  0
ARC
  5
414
100
AcDbEntity
  8
RACCORDO
100
AcDbCircle
 62
7
  6
CONTINUOUS
 10
421.2373848684
 20
-0.0
 40
500.0
100
AcDbArc
 50
180.7860770184
 51
182.288017496
  0
ARC
  5
415
100
AcDbEntity
  8
0
100
AcDbCircle
 62
7
  6
CONTINUOUS
 10
421.2373848684
 20
-0.0
 40
500.0
100
AcDbArc
 50
177.5907686986
 51
182.4092313014
  0
ELLIPSE
  5
416
100
AcDbEntity
  8
RACCORDO
100
AcDbEllipse
 62
7
  6
CONTINUOUS
 10
-9.545228493
 20
-0.0
 30
0.0
 11
2.440468069
 21
0.0
 31
0.0
 40
0.9998282545
 41
3.0221330787
 42
6.0148446455
  0
ELLIPSE
  5
417
100
AcDbEntity
  8
COPY-PUBBLISH
100
AcDbEllipse
 62
7
  6
CONTINUOUS
 10
-9.5
 20
0.2526215214
 30
0.0
 11
-0.0
 21
2.4814881331
 31
0.0
 40
0.9948046367
 41
1.5554126529
 42
2.1310411446
  0
ELLIPSE
  5
418
100
AcDbEntity
  8
RACCORDO
100
AcDbEllipse
 62
7
  6
CONTINUOUS
 10
9.545228493
 20
-0.0
 30
0.0
 11
2.440468069
 21
-0.0
 31
0.0
 40
0.9998282545
 41
-0.1194595749
 42
2.8732519582
  0
ELLIPSE
  5
419
100
AcDbEntity
  8
COPY-PUBBLISH
100
AcDbEllipse
 62
7
  6
CONTINUOUS
 10
9.5
 20
-0.2526215214
 30
0.0
 11
0.0
 21
2.4814881331
 31
0.0
 40
0.9948046367
 41
-1.5861800007
 42
-1.010551509
  0
ELLIPSE
  5
41A
100
AcDbEntity
  8
RACCORDO
100
AcDbEllipse
 62
7
  6
CONTINUOUS
 10
-9.5
 20
0.2526215214
 30
0.0
 11
-0.0
 21
2.4814881331
 31
0.0
 40
0.9948046367
 41
-2.1310411446
 42
-1.8977697955
  0
ELLIPSE
  5
41B
100
AcDbEntity
  8
RACCORDO
100
AcDbEllipse
 62
7
  6
CONTINUOUS
 10
9.5
 20
-0.2526215214
 30
0.0
 11
0.0
 21
2.4814881331
 31
0.0
 40
0.9948046367
 41
1.010551509
 42
1.2438230735
  0
ELLIPSE
  5
41C
100
AcDbEntity
  8
0
100
AcDbEllipse
 62
7
  6
CONTINUOUS
 10
21.899923836
 20
-21.899313827
 30
0.0
 11
-0.1582391023
 21
0.4751033573
 31
0.0
 40
0.9984778551
 41
-3.4626430041
 42
-1.8927600658
  0
ELLIPSE
  5
41D
100
AcDbEntity
  8
0
100
AcDbEllipse
 62
7
  6
CONTINUOUS
 10
21.899923836
 20
21.899313827
 30
0.0
 11
0.1582391023
 21
0.4751033573
 31
0.0
 40
0.9984778551
 41
-1.2488325878
 42
0.3210503505
  0
ELLIPSE
  5
41E
100
AcDbEntity
  8
0
100
AcDbEllipse
 62
7
  6
CONTINUOUS
 10
-21.899923836
 20
-21.899313827
 30
0.0
 11
0.1582391023
 21
0.4751033573
 31
0.0
 40
0.9984778551
 41
-4.3904252414
 42
-2.8205423031
  0
ELLIPSE
  5
41F
100
AcDbEntity
  8
0
100
AcDbEllipse
 62
7
  6
CONTINUOUS
 10
-21.899923836
 20
21.899313827
 30
0.0
 11
-0.1582391023
 21
0.4751033573
 31
0.0
 40
0.9984778551
 41
-0.3210503505
 42
1.2488325878
  0
ENDSEC
  0
SECTION
  2
OBJECTS
  0
DICTIONARY
  5
C
100
AcDbDictionary
280
0
281
1
  3
ACAD_GROUP
350
D
  3
ACAD_MLINESTYLE
350
17
  3
ACAD_LAYOUT
350
1A
  3
ACAD_PLOTSETTINGS
350
19
  3
ACAD_PLOTSTYLENAME
350
E
  0
DICTIONARY
  5
D
102
{ACAD_REACTORS
330
C
102
}
100
AcDbDictionary
280
0
281
1
  0
ACDBDICTIONARYWDFLT
  5
E
102
{ACAD_REACTORS
330
C
102
}
100
AcDbDictionary
281
1
  3
Normal
350
F
100
AcDbDictionaryWithDefault
340
F
  0
DICTIONARY
  5
17
102
{ACAD_REACTORS
330
C
102
}
100
AcDbDictionary
280
0
281
1
  3
Standard
350
18
  0
DICTIONARY
  5
19
102
{ACAD_REACTORS
330
C
102
}
100
AcDbDictionary
281
1
  0
DICTIONARY
  5
1A
102
{ACAD_REACTORS
330
C
102
}
100
AcDbDictionary
281
1
  3
Model
350
420
  3
Layout1
350
421
  0
ACDBPLACEHOLDER
  5
F
102
{ACAD_REACTORS
330
E
102
}
  0
MLINESTYLE
  5
18
102
{ACAD_REACTORS
330
17
102
}
100
AcDbMlineStyle
  2
STANDARD
 70
0
  3

 62
256
 51
90.0
 52
90.0
 71
2
 49
0.5
 62
256
  6
BYLAYER
 49
-0.5
 62
256
  6
BYLAYER
  0
LAYOUT
  5
420
102
{ACAD_REACTORS
330
1A
102
}
100
AcDbPlotSettings
  1

  2
none_device
  4
ISO_A3_(420.00_x_297.00_MM)
  6

 40
0.0
 41
0.0
 42
0.0
 43
0.0
 44
420.0
 45
297.0
 46
0.0
 47
0.0
 48
0.0
 49
0.0
140
0.0
141
0.0
142
1.0
143
1.0
 70
1024
 72
1
 73
0
 74
0
  7

 75
0
147
1.0
148
0.0
149
0.0
100
AcDbLayout
  1
Model
 70
0
 71
0
 10
0.0
 20
0.0
 11
420.0
 21
297.0
 12
0.0
 22
0.0
 32
0.0
 14
0.0
 24
0.0
 34
0.0
 15
0.0
 25
0.0
 35
0.0
146
0.0
 13
0.0
 23
0.0
 33
0.0
 16
1.0
 26
0.0
 36
0.0
 17
0.0
 27
1.0
 37
0.0
 76
0
330
221
345
0
346
0
  0
LAYOUT
  5
421
102
{ACAD_REACTORS
330
1A
102
}
100
AcDbPlotSettings
  1

  2
none_device
  4
ISO_A3_(420.00_x_297.00_MM)
  6

 40
0.0
 41
0.0
 42
0.0
 43
0.0
 44
420.0
 45
297.0
 46
0.0
 47
0.0
 48
0.0
 49
0.0
140
0.0
141
0.0
142
1.0
143
1.0
 70
0
 72
1
 73
0
 74
0
  7

 75
0
147
1.0
148
0.0
149
0.0
100
AcDbLayout
  1
Layout1
 70
0
 71
1
 10
0.0
 20
0.0
 11
420.0
 21
297.0
 12
0.0
 22
0.0
 32
0.0
 14
0.0
 24
0.0
 34
0.0
 15
0.0
 25
0.0
 35
0.0
146
0.0
 13
0.0
 23
0.0
 33
0.0
 16
1.0
 26
0.0
 36
0.0
 17
0.0
 27
1.0
 37
0.0
 76
0
330
222
345
0
346
0
  0
ENDSEC
  0
EOF
