  0
SECTION
  2
HEADER
  9
$ACADVER
  1
AC1024
  9
$DWGCODEPAGE
  3
ANSI_1252
  9
$EXTMAX
 10
297.0
 20
210.0
 30
0.0
  9
$EXTMIN
 10
0.0
 20
0.0
 30
0.0
  9
$LIMMIN
 10
0.0
 20
0.0
  9
$LIMMAX
 10
297.0
 20
210.0
  9
$VIEWCTR
 10
148.5
 20
105.0
  9
$VIEWSIZE
 40
210.0
  9
$CLAYER
  8
0
  9
$LTSCALE
 40
16.335
  9
$CELTYPE
  6
BYLAYER
  9
$DIMSCALE
 40
1.0
  9
$DIMASZ
 40
3.0
  9
$DIMEXO
 40
0.5
  9
$DIMDLI
 40
11.286
  9
$DIMEXE
 40
1.5
  9
$DIMCEN
 40
2.673
  9
$DIMLFAC
 40
1.0
  9
$DIMBLK
  1
_FILLED
  9
$DIMALT
 70
0
  9
$DIMALTF
 40
0.0393700787
  9
$DIMTXT
 40
3.0
  9
$DIMTOL
 70
1
  9
$DIMLIM
 70
0
  9
$DIMTFAC
 40
1.0
  9
$DIMTP
 40
0.01
  9
$DIMTM
 40
0.01
  9
$DIMGAP
 40
0.625
  9
$DIMDSEP
 70
44
  9
$AUNITS
 70
0
  9
$PDMODE
 70
3
  9
$PDSIZE
 40
3.0
  9
$HANDSEED
  5
426
  9
$TILEMODE
 70
1
  9
$MEASUREMENT
 70
1
  9
$INSUNITS
 70
4
  0
ENDSEC
  0
SECTION
  2
CLASSES
  0
CLASS
  1
ACDBDICTIONARYWDFLT
  2
AcDbDictionaryWithDefault
  3
AutoCAD 2000
 90
0
 91
1
280
0
281
0
  0
CLASS
  1
ACDBPLACEHOLDER
  2
AcDbPlaceHolder
  3
AutoCAD 2000
 90
0
 91
1
280
0
281
0
  0
CLASS
  1
LAYOUT
  2
AcDbLayout
  3
AutoCAD 2000
 90
0
 91
0
280
0
281
0
  0
ENDSEC
  0
SECTION
  2
TABLES
  0
TABLE
  2
VPORT
  5
8
100
AcDbSymbolTable
 70
2
  0
VPORT
  5
1F4
100
AcDbSymbolTableRecord
100
AcDbViewportTableRecord
  2
*ACTIVE
 70
0
 10
0.0
 20
0.0
 11
1.0
 21
1.0
 12
148.5
 22
105.0
 13
0.0
 23
0.0
 14
1.0
 24
1.0
 15
0.0
 25
0.0
 16
0.0
 26
0.0
 36
1.0
 17
0.0
 27
0.0
 37
0.0
 40
210.0
 41
1.4142857143
 42
50.0
 43
0.0
 44
0.0
 50
0.0
 51
0.0
 71
0
 72
100
 73
1
 74
1
 75
0
 76
0
 77
0
 78
0
  0
ENDTAB
  0
TABLE
  2
LTYPE
  5
5
100
AcDbSymbolTable
 70
6
  0
LTYPE
  5
14
100
AcDbSymbolTableRecord
100
AcDbLinetypeTableRecord
  2
BYBLOCK
 70
0
  3

 72
65
 73
0
 40
0.0
  0
LTYPE
  5
15
100
AcDbSymbolTableRecord
100
AcDbLinetypeTableRecord
  2
BYLAYER
 70
0
  3

 72
65
 73
0
 40
0.0
  0
LTYPE
  5
16
100
AcDbSymbolTableRecord
100
AcDbLinetypeTableRecord
  2
CONTINUOUS
 70
64
  3
Solid line
 72
65
 73
0
 40
0.0
  0
LTYPE
  5
1F5
100
AcDbSymbolTableRecord
100
AcDbLinetypeTableRecord
  2
CENTER
 70
64
  3
____ _ ____ _ ____ _ ____ _ ____ _ ____ _ ____
 72
65
 73
4
 40
0.6
 49
0.375
 74
0
 49
-0.075
 74
0
 49
0.075
 74
0
 49
-0.075
 74
0
  0
LTYPE
  5
1F6
100
AcDbSymbolTableRecord
100
AcDbLinetypeTableRecord
  2
HIDDEN
 70
64
  3
- - - - - - - - - - - - - - - - - - - -
 72
65
 73
2
 40
0.2
 49
0.1
 74
0
 49
-0.1
 74
0
  0
LTYPE
  5
1F7
100
AcDbSymbolTableRecord
100
AcDbLinetypeTableRecord
  2
PHANTOM
 70
64
  3
_____ _ _ _____ _ _ _____ _ _ _____
 72
65
 73
6
 40
0.8
 49
0.45
 74
0
 49
-0.05
 74
0
 49
0.1
 74
0
 49
-0.05
 74
0
 49
0.1
 74
0
 49
-0.05
 74
0
  0
LTYPE
  5
1F8
100
AcDbSymbolTableRecord
100
AcDbLinetypeTableRecord
  2
DOT
 70
64
  3
. . . . . . . . . . . . . . . . . . . .
 72
65
 73
2
 40
0.2
 49
0.1
 74
0
 49
-0.1
 74
0
  0
LTYPE
  5
1F9
100
AcDbSymbolTableRecord
100
AcDbLinetypeTableRecord
  2
DASHED
 70
64
  3
- - - - - - - - - - - - - - - - - - - -
 72
65
 73
2
 40
0.2
 49
0.1
 74
0
 49
-0.1
 74
0
  0
ENDTAB
  0
TABLE
  2
LAYER
  5
2
100
AcDbSymbolTable
 70
36
  0
LAYER
  5
10
100
AcDbSymbolTableRecord
100
AcDbLayerTableRecord
  2
0
 70
0
 62
7
  6
CONTINUOUS
370
-3
390
F
  0
LAYER
  5
1FA
100
AcDbSymbolTableRecord
100
AcDbLayerTableRecord
  2
DEFAULT_1
 70
0
 62
7
  6
CENTER
370
-3
390
F
  0
LAYER
  5
1FB
100
AcDbSymbolTableRecord
100
AcDbLayerTableRecord
  2
DEFAULT_2
 70
0
 62
7
  6
HIDDEN
370
-3
390
F
  0
LAYER
  5
1FC
100
AcDbSymbolTableRecord
100
AcDbLayerTableRecord
  2
DEFAULT_3
 70
0
 62
7
  6
PHANTOM
370
-3
390
F
  0
LAYER
  5
1FD
100
AcDbSymbolTableRecord
100
AcDbLayerTableRecord
  2
ASSI
 70
0
 62
7
  6
CONTINUOUS
370
-3
390
F
  0
LAYER
  5
1FE
100
AcDbSymbolTableRecord
100
AcDbLayerTableRecord
  2
COORDINATE
 70
0
 62
7
  6
CONTINUOUS
370
-3
390
F
  0
LAYER
  5
1FF
100
AcDbSymbolTableRecord
100
AcDbLayerTableRecord
  2
COORD_ORIGINE
 70
0
 62
7
  6
CONTINUOUS
370
-3
390
F
  0
LAYER
  5
200
100
AcDbSymbolTableRecord
100
AcDbLayerTableRecord
  2
COSMETICHE
 70
0
 62
7
  6
CONTINUOUS
370
-3
390
F
  0
LAYER
  5
201
100
AcDbSymbolTableRecord
100
AcDbLayerTableRecord
  2
CURVE
 70
0
 62
7
  6
CONTINUOUS
370
-3
390
F
  0
LAYER
  5
202
100
AcDbSymbolTableRecord
100
AcDbLayerTableRecord
  2
DRAFT
 70
0
 62
7
  6
CONTINUOUS
370
-3
390
F
  0
LAYER
  5
203
100
AcDbSymbolTableRecord
100
AcDbLayerTableRecord
  2
IMPORT_IGES
 70
0
 62
7
  6
CONTINUOUS
370
-3
390
F
  0
LAYER
  5
204
100
AcDbSymbolTableRecord
100
AcDbLayerTableRecord
  2
INTF_1
 70
0
 62
7
  6
CONTINUOUS
370
-3
390
F
  0
LAYER
  5
205
100
AcDbSymbolTableRecord
100
AcDbLayerTableRecord
  2
INTF_11
 70
0
 62
7
  6
CONTINUOUS
370
-3
390
F
  0
LAYER
  5
206
100
AcDbSymbolTableRecord
100
AcDbLayerTableRecord
  2
INTF_12
 70
0
 62
7
  6
CONTINUOUS
370
-3
390
F
  0
LAYER
  5
207
100
AcDbSymbolTableRecord
100
AcDbLayerTableRecord
  2
INTF_2
 70
0
 62
7
  6
CONTINUOUS
370
-3
390
F
  0
LAYER
  5
208
100
AcDbSymbolTableRecord
100
AcDbLayerTableRecord
  2
INTF_7
 70
0
 62
7
  6
CONTINUOUS
370
-3
390
F
  0
LAYER
  5
209
100
AcDbSymbolTableRecord
100
AcDbLayerTableRecord
  2
INTF_9
 70
0
 62
7
  6
CONTINUOUS
370
-3
390
F
  0
LAYER
  5
20A
100
AcDbSymbolTableRecord
100
AcDbLayerTableRecord
  2
NOTE
 70
0
 62
7
  6
CONTINUOUS
370
-3
390
F
  0
LAYER
  5
20B
100
AcDbSymbolTableRecord
100
AcDbLayerTableRecord
  2
PIANI
 70
0
 62
7
  6
CONTINUOUS
370
-3
390
F
  0
LAYER
  5
20C
100
AcDbSymbolTableRecord
100
AcDbLayerTableRecord
  2
PIANI_ORIGINE
 70
0
 62
7
  6
CONTINUOUS
370
-3
390
F
  0
LAYER
  5
20D
100
AcDbSymbolTableRecord
100
AcDbLayerTableRecord
  2
PIANI_SFORMI
 70
0
 62
7
  6
CONTINUOUS
370
-3
390
F
  0
LAYER
  5
20E
100
AcDbSymbolTableRecord
100
AcDbLayerTableRecord
  2
PUNTI
 70
0
 62
7
  6
CONTINUOUS
370
-3
390
F
  0
LAYER
  5
20F
100
AcDbSymbolTableRecord
100
AcDbLayerTableRecord
  2
RACCORDO
 70
0
 62
7
  6
CONTINUOUS
370
-3
390
F
  0
LAYER
  5
210
100
AcDbSymbolTableRecord
100
AcDbLayerTableRecord
  2
RGB__255__255__255__
 70
0
 62
7
  6
CONTINUOUS
370
-3
390
F
  0
LAYER
  5
211
100
AcDbSymbolTableRecord
100
AcDbLayerTableRecord
  2
RGB____0____0____0__
 70
0
 62
7
  6
CONTINUOUS
370
-3
390
F
  0
LAYER
  5
212
100
AcDbSymbolTableRecord
100
AcDbLayerTableRecord
  2
SMUSSO
 70
0
 62
7
  6
CONTINUOUS
370
-3
390
F
  0
LAYER
  5
213
100
AcDbSymbolTableRecord
100
AcDbLayerTableRecord
  2
SNAPLINE
 70
0
 62
7
  6
CONTINUOUS
370
-3
390
F
  0
LAYER
  5
214
100
AcDbSymbolTableRecord
100
AcDbLayerTableRecord
  2
SUPERFICI
 70
0
 62
7
  6
CONTINUOUS
370
-3
390
F
  0
LAYER
  5
215
100
AcDbSymbolTableRecord
100
AcDbLayerTableRecord
  2
TRASH
 70
0
 62
7
  6
CONTINUOUS
370
-3
390
F
  0
LAYER
  5
216
100
AcDbSymbolTableRecord
100
AcDbLayerTableRecord
  2
XSEC_DATUMS
 70
0
 62
7
  6
CONTINUOUS
370
-3
390
F
  0
ENDTAB
  0
TABLE
  2
STYLE
  5
3
100
AcDbSymbolTable
 70
1
  0
STYLE
  5
11
100
AcDbSymbolTableRecord
100
AcDbTextStyleTableRecord
  2
STANDARD
 70
0
 40
0.0
 41
0.8
 50
0.0
 71
0
 42
0.2
  3
txt
  4

  0
STYLE
  5
217
100
AcDbSymbolTableRecord
100
AcDbTextStyleTableRecord
  2
TEXTSTYLE_1
 70
0
 40
0.0
 41
0.8
 50
0.0
 71
0
 42
0.2
  3
gdt
  4

  0
ENDTAB
  0
TABLE
  2
VIEW
  5
6
100
AcDbSymbolTable
 70
0
  0
ENDTAB
  0
TABLE
  2
UCS
  5
7
100
AcDbSymbolTable
 70
0
  0
ENDTAB
  0
TABLE
  2
APPID
  5
9
100
AcDbSymbolTable
 70
1
  0
APPID
  5
218
100
AcDbSymbolTableRecord
100
AcDbRegAppTableRecord
  2
ACAD
 70
0
  0
ENDTAB
  0
TABLE
  2
BLOCK_RECORD
  5
1
100
AcDbSymbolTable
 70
0
  0
BLOCK_RECORD
  5
219
100
AcDbSymbolTableRecord
100
AcDbBlockTableRecord
  2
*Model_Space
  0
BLOCK_RECORD
  5
21A
100
AcDbSymbolTableRecord
100
AcDbBlockTableRecord
  2
*Paper_Space
  0
BLOCK_RECORD
  5
21B
100
AcDbSymbolTableRecord
100
AcDbBlockTableRecord
  2
_FILLED
  0
BLOCK_RECORD
  5
21C
100
AcDbSymbolTableRecord
100
AcDbBlockTableRecord
  2
*D0
  0
BLOCK_RECORD
  5
21D
100
AcDbSymbolTableRecord
100
AcDbBlockTableRecord
  2
*D1
  0
BLOCK_RECORD
  5
21E
100
AcDbSymbolTableRecord
100
AcDbBlockTableRecord
  2
*D2
  0
BLOCK_RECORD
  5
21F
100
AcDbSymbolTableRecord
100
AcDbBlockTableRecord
  2
*D3
  0
ENDTAB
  0
TABLE
  2
DIMSTYLE
  5
A
100
AcDbSymbolTable
 70
1
100
AcDbDimStyleTable
 71
0
  0
DIMSTYLE
105
220
100
AcDbSymbolTableRecord
100
AcDbDimStyleTableRecord
  2
STANDARD
 70
0
  3

  4

 40
1.0
 41
3.0
 42
0.5
 43
0.38
 44
1.5
 45
0.0
 46
0.0
 47
0.01
 48
0.01
140
3.0
141
0.09
142
0.0
143
25.4
144
1.0
145
0.0
146
1.0
147
0.625
 71
1
 72
0
 73
0
 74
0
 75
0
 76
0
 77
1
 78
8
 79
2
170
0
171
1
172
0
173
0
174
0
175
0
176
0
177
0
178
0
270
2
179
2
271
2
272
2
273
2
274
2
275
0
280
0
281
0
282
0
283
1
284
8
285
0
286
0
287
3
288
0
340
11
278
44
341
21B
342
21B
343
21B
344
21B
  0
DIMSTYLE
105
221
100
AcDbSymbolTableRecord
100
AcDbDimStyleTableRecord
  2
DIMSTYLE_1
 70
0
  3

  4

 40
1.0
 41
3.0
 42
0.5
 43
0.38
 44
1.5
 45
0.0
 46
0.0
 47
0.0
 48
0.0
140
3.0
141
0.09
142
0.0
143
25.4
144
1.0
145
0.0
146
1.0
147
0.75
 71
0
 72
0
 73
0
 74
0
 75
0
 76
0
 77
1
 78
8
 79
2
170
0
171
1
172
0
173
0
174
0
175
0
176
0
177
0
178
0
270
2
179
2
271
2
272
2
273
2
274
2
275
0
280
0
281
0
282
0
283
1
284
8
285
0
286
0
287
3
288
0
340
11
278
44
341
21B
342
21B
343
21B
344
21B
  0
ENDTAB
  0
ENDSEC
  0
SECTION
  2
BLOCKS
  0
BLOCK
  5
20
100
AcDbEntity
  8
0
100
AcDbBlockBegin
  2
*Model_Space
 70
0
 10
0.0
 20
0.0
 30
0.0
  3
*Model_Space
  1

  0
ENDBLK
  5
21
100
AcDbEntity
  8
0
100
AcDbBlockEnd
  0
BLOCK
  5
1C
100
AcDbEntity
  8
0
100
AcDbBlockBegin
  2
*Paper_Space
 70
0
 10
0.0
 20
0.0
 30
0.0
  3
*Paper_Space
  1

  0
ENDBLK
  5
1D
100
AcDbEntity
  8
0
100
AcDbBlockEnd
  0
BLOCK
  5
222
100
AcDbEntity
  8
0
100
AcDbBlockBegin
  2
_FILLED
 70
64
 10
0.0
 20
0.0
  3
_FILLED
  1

  0
SOLID
  5
223
100
AcDbEntity
  8
0
  6
BYBLOCK
 62
0
100
AcDbTrace
 10
0.0
 20
0.0
 11
-1.0
 21
0.3166666667
 12
-1.0
 22
-0.3166666667
 13
-1.0
 23
-0.3166666667
  0
ENDBLK
  5
224
100
AcDbEntity
  8
0
  6
BYBLOCK
 62
0
100
AcDbBlockEnd
  0
BLOCK
  5
225
100
AcDbEntity
  8
0
100
AcDbBlockBegin
 62
7
  6
CONTINUOUS
  2
*D0
 70
65
 10
0.0
 20
0.0
  3
*D0
  1

  0
LINE
  5
226
100
AcDbEntity
  8
0
100
AcDbLine
 62
7
  6
CONTINUOUS
 10
4.1748574782
 20
23.5
 11
22.65
 21
23.5
  0
LINE
  5
227
100
AcDbEntity
  8
0
100
AcDbLine
 62
7
  6
CONTINUOUS
 10
4.1748574782
 20
-23.5
 11
22.65
 21
-23.5
  0
LINE
  5
228
100
AcDbEntity
  8
0
100
AcDbLine
 62
7
  6
CONTINUOUS
 10
21.15
 20
23.5
 11
21.15
 21
0.0
  0
LINE
  5
229
100
AcDbEntity
  8
0
100
AcDbLine
 62
7
  6
CONTINUOUS
 10
21.15
 20
-23.5
 11
21.15
 21
0.0
  0
INSERT
  5
22A
100
AcDbEntity
  8
0
100
AcDbBlockReference
 62
7
  6
CONTINUOUS
  2
_FILLED
 10
21.15
 20
23.5
 41
3.0
 42
3.0
 43
3.0
 50
90.0
  0
INSERT
  5
22B
100
AcDbEntity
  8
0
100
AcDbBlockReference
 62
7
  6
CONTINUOUS
  2
_FILLED
 10
21.15
 20
-23.5
 41
3.0
 42
3.0
 43
3.0
 50
270.0
  0
ENDBLK
  5
22C
100
AcDbEntity
  8
0
  6
BYBLOCK
 62
0
100
AcDbBlockEnd
  0
BLOCK
  5
22D
100
AcDbEntity
  8
0
100
AcDbBlockBegin
 62
7
  6
CONTINUOUS
  2
*D1
 70
65
 10
0.0
 20
0.0
  3
*D1
  1

  0
LINE
  5
22E
100
AcDbEntity
  8
0
100
AcDbLine
 62
7
  6
CONTINUOUS
 10
11.15
 20
16.619659166
 11
11.15
 21
35.0
  0
LINE
  5
22F
100
AcDbEntity
  8
0
100
AcDbLine
 62
7
  6
CONTINUOUS
 10
-11.15
 20
16.619659166
 11
-11.15
 21
35.0
  0
LINE
  5
230
100
AcDbEntity
  8
0
100
AcDbLine
 62
7
  6
CONTINUOUS
 10
11.15
 20
33.5
 11
0.0
 21
33.5
  0
LINE
  5
231
100
AcDbEntity
  8
0
100
AcDbLine
 62
7
  6
CONTINUOUS
 10
-11.15
 20
33.5
 11
0.0
 21
33.5
  0
INSERT
  5
232
100
AcDbEntity
  8
0
100
AcDbBlockReference
 62
7
  6
CONTINUOUS
  2
_FILLED
 10
11.15
 20
33.5
 41
3.0
 42
3.0
 43
3.0
  0
INSERT
  5
233
100
AcDbEntity
  8
0
100
AcDbBlockReference
 62
7
  6
CONTINUOUS
  2
_FILLED
 10
-11.15
 20
33.5
 41
3.0
 42
3.0
 43
3.0
 50
180.0
  0
ENDBLK
  5
234
100
AcDbEntity
  8
0
  6
BYBLOCK
 62
0
100
AcDbBlockEnd
  0
BLOCK
  5
235
100
AcDbEntity
  8
0
100
AcDbBlockBegin
 62
7
  6
CONTINUOUS
  2
*D2
 70
65
 10
0.0
 20
0.0
  3
*D2
  1

  0
LINE
  5
236
100
AcDbEntity
  8
0
100
AcDbLine
 62
7
  6
CONTINUOUS
 10
-49.8304950166
 20
22.3997711479
 11
-49.8304950166
 21
35.0
  0
LINE
  5
237
100
AcDbEntity
  8
0
100
AcDbLine
 62
7
  6
CONTINUOUS
 10
-19.8304950166
 20
17.069413527
 11
-19.8304950166
 21
35.0
  0
LINE
  5
238
100
AcDbEntity
  8
0
100
AcDbLine
 62
7
  6
CONTINUOUS
 10
-49.8304950166
 20
33.5
 11
-34.8304950166
 21
33.5
  0
LINE
  5
239
100
AcDbEntity
  8
0
100
AcDbLine
 62
7
  6
CONTINUOUS
 10
-19.8304950166
 20
33.5
 11
-34.8304950166
 21
33.5
  0
INSERT
  5
23A
100
AcDbEntity
  8
0
100
AcDbBlockReference
 62
7
  6
CONTINUOUS
  2
_FILLED
 10
-49.8304950166
 20
33.5
 41
3.0
 42
3.0
 43
3.0
 50
180.0
  0
INSERT
  5
23B
100
AcDbEntity
  8
0
100
AcDbBlockReference
 62
7
  6
CONTINUOUS
  2
_FILLED
 10
-19.8304950166
 20
33.5
 41
3.0
 42
3.0
 43
3.0
  0
ENDBLK
  5
23C
100
AcDbEntity
  8
0
  6
BYBLOCK
 62
0
100
AcDbBlockEnd
  0
BLOCK
  5
23D
100
AcDbEntity
  8
0
100
AcDbBlockBegin
 62
7
  6
CONTINUOUS
  2
*D3
 70
65
 10
0.0
 20
0.0
  3
*D3
  1

  0
LINE
  5
23E
100
AcDbEntity
  8
0
100
AcDbLine
 62
7
  6
CONTINUOUS
 10
-19.8304950166
 20
17.069413527
 11
-19.8304950166
 21
43.0
  0
LINE
  5
23F
100
AcDbEntity
  8
0
100
AcDbLine
 62
7
  6
CONTINUOUS
 10
-59.3304950166
 20
0.5
 11
-59.3304950166
 21
43.0
  0
LINE
  5
240
100
AcDbEntity
  8
0
100
AcDbLine
 62
7
  6
CONTINUOUS
 10
-19.8304950166
 20
41.5
 11
-39.5804950166
 21
41.5
  0
LINE
  5
241
100
AcDbEntity
  8
0
100
AcDbLine
 62
7
  6
CONTINUOUS
 10
-59.3304950166
 20
41.5
 11
-39.5804950166
 21
41.5
  0
INSERT
  5
242
100
AcDbEntity
  8
0
100
AcDbBlockReference
 62
7
  6
CONTINUOUS
  2
_FILLED
 10
-19.8304950166
 20
41.5
 41
3.0
 42
3.0
 43
3.0
  0
INSERT
  5
243
100
AcDbEntity
  8
0
100
AcDbBlockReference
 62
7
  6
CONTINUOUS
  2
_FILLED
 10
-59.3304950166
 20
41.5
 41
3.0
 42
3.0
 43
3.0
 50
180.0
  0
ENDBLK
  5
244
100
AcDbEntity
  8
0
  6
BYBLOCK
 62
0
100
AcDbBlockEnd
  0
ENDSEC
  0
SECTION
  2
ENTITIES
  0
DIMENSION
  5
245
100
AcDbEntity
  8
0
100
AcDbDimension
 62
7
  6
CONTINUOUS
  2
*D0
 10
21.15
 20
-23.5
 11
21.15
 21
-2.3571428571
 70
160
 71
2
 72
2
 41
0.9
 42
47.0
  3
DIMSTYLE_1
100
AcDbAlignedDimension
 13
3.6748574782
 23
23.5
 14
3.6748574782
 24
-23.5
 50
270.0
100
AcDbRotatedDimension
  0
DIMENSION
  5
246
100
AcDbEntity
  8
0
100
AcDbDimension
 62
7
  6
CONTINUOUS
  2
*D1
 10
-11.15
 20
33.5
 11
-4.2857142857
 21
33.5
 70
160
 71
2
 72
2
 41
0.9
 42
22.3
  3
DIMSTYLE_1
100
AcDbAlignedDimension
 13
11.15
 23
16.119659166
 14
-11.15
 24
16.119659166
 50
180.0
100
AcDbRotatedDimension
  0
DIMENSION
  5
247
100
AcDbEntity
  8
0
100
AcDbDimension
 62
7
  6
CONTINUOUS
  2
*D2
 10
-19.8304950166
 20
33.5
 11
-37.0804950166
 21
33.5
 70
160
 71
2
 72
2
 41
0.9
 42
30.0
  3
DIMSTYLE_1
100
AcDbAlignedDimension
 13
-49.8304950166
 23
21.8997711479
 14
-19.8304950166
 24
16.569413527
100
AcDbRotatedDimension
  0
DIMENSION
  5
248
100
AcDbEntity
  8
0
100
AcDbDimension
 62
7
  6
CONTINUOUS
  2
*D3
 10
-59.3304950166
 20
41.5
 11
-43.7590664451
 21
41.5
 70
160
 71
2
 72
2
 41
0.9
 42
39.5
  3
DIMSTYLE_1
100
AcDbAlignedDimension
 13
-19.8304950166
 23
16.569413527
 14
-59.3304950166
 24
0.0
 50
180.0
100
AcDbRotatedDimension
  0
LWPOLYLINE
  5
249
100
AcDbEntity
  8
0
100
AcDbPolyline
 62
7
  6
CONTINUOUS
 90
5
 70
0
 43
0.3500000006
 10
3.0000000658
 20
35.9642860107
 10
3.357142951
 20
36.1785704956
 10
3.357142951
 20
36.8214284821
 10
3.0000000658
 20
37.2500019836
 10
2.1428571696
 20
37.2500019836
  0
LWPOLYLINE
  5
24A
100
AcDbEntity
  8
TRASH
100
AcDbPolyline
 62
250
  6
CONTINUOUS
 90
16
 70
0
 10
-11.0004589101
 20
20.9972959167
 10
-10.9968787779
 20
20.9994689024
 10
-10.9879806557
 20
21.001618604
 10
-10.9738598809
 20
21.0037219888
 10
-10.9546677482
 20
21.0057565204
 10
-10.9306098884
 20
21.0077004004
 10
-10.9019440654
 20
21.0095328012
 10
-10.8689774144
 20
21.01123409
 10
-10.832063151
 20
21.0127860385
 10
-10.7915967869
 20
21.0141720186
 10
-10.7480118921
 20
21.0153771806
 10
-10.7017754498
 20
21.0163886117
 10
-10.6533828524
 20
21.017195475
 10
-10.6033525943
 20
21.0177891252
 10
-10.5522207164
 20
21.018163202
 10
-10.5005350625
 20
21.0183136971
  0
LWPOLYLINE
  5
24B
100
AcDbEntity
  8
TRASH
100
AcDbPolyline
 62
250
  6
CONTINUOUS
 90
16
 70
0
 10
10.5087981167
 20
-21.9749071372
 10
10.5610250585
 20
-21.9721272741
 10
10.6126803347
 20
-21.9639134185
 10
10.6631986439
 20
-21.9503554931
 10
10.7120271457
 20
-21.9316018984
 10
10.758631471
 20
-21.9078579019
 10
10.8025015766
 20
-21.8793834041
 10
10.8431573848
 20
-21.8464900609
 10
10.880154008
 20
-21.8095378762
 10
10.9130865885
 20
-21.7689312914
 10
10.9415947695
 20
-21.7251147213
 10
10.9653666243
 20
-21.6785676924
 10
10.9841420552
 20
-21.6297996177
 10
10.9977156511
 20
-21.5793442013
 10
11.0059389312
 20
-21.5277535958
 10
11.0087219643
 20
-21.4755923698
  0
LINE
  5
24C
100
AcDbEntity
  8
TRASH
100
AcDbLine
 62
7
  6
CONTINUOUS
 10
-3.6748574782
 20
-23.5
 11
3.6748574782
 21
-23.5
  0
LINE
  5
24D
100
AcDbEntity
  8
TRASH
100
AcDbLine
 62
7
  6
CONTINUOUS
 10
3.4698202597
 20
-22.5
 11
-3.4698202597
 21
-22.5
  0
LINE
  5
24E
100
AcDbEntity
  8
TRASH
100
AcDbLine
 62
7
  6
CONTINUOUS
 10
10.6503805997
 20
-22.4
 11
3.3
 21
-22.4
  0
LINE
  5
24F
100
AcDbEntity
  8
TRASH
100
AcDbLine
 62
7
  6
CONTINUOUS
 10
-3.3
 20
-22.4
 11
-10.6503805997
 21
-22.4
  0
LWPOLYLINE
  5
250
100
AcDbEntity
  8
TRASH
100
AcDbPolyline
 62
7
  6
CONTINUOUS
 90
10
 70
0
 10
-3.6748574782
 20
-23.5
 10
-3.7403303995
 20
-23.497809388
 10
-3.8049842417
 20
-23.491478198
 10
-3.8688190046
 20
-23.4810064299
 10
-3.9320970679
 20
-23.4663149736
 10
-3.994556052
 20
-23.4474829393
 10
-4.0554088181
 20
-23.4247476575
 10
-4.1143929866
 20
-23.3981882383
 10
-4.1717709372
 20
-23.3677255716
 10
-4.2275426698
 20
-23.3333596575
  0
LWPOLYLINE
  5
251
100
AcDbEntity
  8
TRASH
100
AcDbPolyline
 62
250
  6
CONTINUOUS
 90
16
 70
0
 10
-11.0004589101
 20
-20.9972959167
 10
-10.9968794372
 20
-20.9994689572
 10
-10.987981873
 20
-21.0016187146
 10
-10.9738615505
 20
-21.0037221554
 10
-10.9546697623
 20
-21.0057567422
 10
-10.9306121391
 20
-21.0077006752
 10
-10.9019464468
 20
-21.0095331264
 10
-10.8689798245
 20
-21.0112344617
 10
-10.8320654937
 20
-21.0127864522
 10
-10.7915989738
 20
-21.0141724691
 10
-10.7480138439
 20
-21.0153776619
 10
-10.7017770979
 20
-21.0163891175
 10
-10.6533841403
 20
-21.0171959985
 10
-10.6033534782
 20
-21.0177896593
 10
-10.5522211662
 20
-21.0181637392
 10
-10.5005350625
 20
-21.0183142303
  0
LWPOLYLINE
  5
252
100
AcDbEntity
  8
TRASH
100
AcDbPolyline
 62
250
  6
CONTINUOUS
 90
15
 70
0
 10
10.5522211667
 20
-21.018163739
 10
10.603353479
 20
-21.0177896586
 10
10.6533841415
 20
-21.0171959976
 10
10.7017770995
 20
-21.0163891167
 10
10.7480138458
 20
-21.0153776612
 10
10.7915989758
 20
-21.0141724686
 10
10.8320654959
 20
-21.0127864518
 10
10.8689798267
 20
-21.0112344614
 10
10.9019464489
 20
-21.0095331261
 10
10.9306121411
 20
-21.0077006751
 10
10.954669764
 20
-21.0057567421
 10
10.973861552
 20
-21.0037221554
 10
10.987981874
 20
-21.0016187146
 10
10.9968794378
 20
-20.9994689572
 10
11.0004589101
 20
-20.9972959167
  0
LINE
  5
253
100
AcDbEntity
  8
TRASH
100
AcDbLine
 62
250
  6
CONTINUOUS
 10
10.5087981167
 20
-21.9749071372
 11
-10.5087981167
 21
-21.9749071372
  0
LINE
  5
254
100
AcDbEntity
  8
TRASH
100
AcDbLine
 62
250
  6
CONTINUOUS
 10
10.5522211667
 20
-21.018163739
 11
-10.5005350625
 21
-21.0183142309
  0
LINE
  5
255
100
AcDbEntity
  8
0
100
AcDbLine
 62
7
  6
CONTINUOUS
 10
-3.3
 20
22.4
 11
-3.2333672024
 21
22.5
  0
LINE
  5
256
100
AcDbEntity
  8
0
100
AcDbLine
 62
7
  6
CONTINUOUS
 10
-3.2333672024
 20
-22.5
 11
-3.3
 21
-22.4
  0
LWPOLYLINE
  5
257
100
AcDbEntity
  8
TRASH
100
AcDbPolyline
 62
250
  6
CONTINUOUS
 90
16
 70
0
 10
-11.0087219643
 20
-21.4755923698
 10
-11.0059389565
 20
-21.5277533572
 10
-10.9977157435
 20
-21.5793437688
 10
-10.9841422433
 20
-21.6297990407
 10
-10.9653669231
 20
-21.6785670232
 10
-10.9415951808
 20
-21.7251140105
 10
-10.913087103
 20
-21.7689305846
 10
-10.8801546044
 20
-21.8095372149
 10
-10.8431580328
 20
-21.8464894782
 10
-10.8025022426
 20
-21.8793829208
 10
-10.7586321152
 20
-21.9078575303
 10
-10.7120277256
 20
-21.9316016403
 10
-10.6631991243
 20
-21.950355337
 10
-10.6126806845
 20
-21.963913344
 10
-10.5610252467
 20
-21.9721272542
 10
-10.5087981167
 20
-21.9749071371
  0
LWPOLYLINE
  5
258
100
AcDbEntity
  8
TRASH
100
AcDbPolyline
 62
250
  6
CONTINUOUS
 90
16
 70
0
 10
-11.0087219643
 20
21.4755923698
 10
-11.0059388076
 20
21.5277547588
 10
-10.9977152003
 20
21.5793463095
 10
-10.9841411372
 20
21.6298024308
 10
-10.9653651658
 20
21.6785709569
 10
-10.9415927608
 20
21.7251181902
 10
-10.913084075
 20
21.7689347421
 10
-10.8801510927
 20
21.8095411067
 10
-10.8431542154
 20
21.846492909
 10
-10.8024983179
 20
21.8793857676
 10
-10.7586283172
 20
21.90785972
 10
-10.712024304
 20
21.9316031621
 10
-10.6631962884
 20
21.9503562579
 10
-10.612678619
 20
21.9639137831
 10
-10.5610241352
 20
21.9721273713
 10
-10.5087981167
 20
21.9749071372
  0
LWPOLYLINE
  5
259
100
AcDbEntity
  8
TRASH
100
AcDbPolyline
 62
250
  6
CONTINUOUS
 90
7
 70
0
 10
-11.0046622904
 20
21.404111377
 10
-11.005288961
 20
21.4238178805
 10
-11.005945919
 20
21.4406578587
 10
-11.0066191044
 20
21.4542894799
 10
-11.0073038303
 20
21.4645988002
 10
-11.0080047836
 20
21.4716997635
 10
-11.0087219643
 20
21.4755923698
  0
LINE
  5
25A
100
AcDbEntity
  8
TRASH
100
AcDbLine
 62
250
  6
CONTINUOUS
 10
-11.0035016383
 20
21.3559863514
 11
-11.0046622904
 21
21.404111377
  0
LINE
  5
25B
100
AcDbEntity
  8
TRASH
100
AcDbLine
 62
250
  6
CONTINUOUS
 10
-11.002496988
 20
21.2978833989
 11
-11.0035016383
 21
21.3559863514
  0
LINE
  5
25C
100
AcDbEntity
  8
TRASH
100
AcDbLine
 62
250
  6
CONTINUOUS
 10
-11.0013302604
 20
21.1948683247
 11
-11.002496988
 21
21.2978833989
  0
LINE
  5
25D
100
AcDbEntity
  8
TRASH
100
AcDbLine
 62
250
  6
CONTINUOUS
 10
-10.5030519768
 20
21.6796989761
 11
-10.5047342215
 21
21.8316458675
  0
LINE
  5
25E
100
AcDbEntity
  8
TRASH
100
AcDbLine
 62
250
  6
CONTINUOUS
 10
-11.0006373651
 20
21.0789215441
 11
-11.0013302604
 21
21.1948683247
  0
LINE
  5
25F
100
AcDbEntity
  8
TRASH
100
AcDbLine
 62
250
  6
CONTINUOUS
 10
-10.5011186581
 20
21.3380138322
 11
-10.5030519768
 21
21.6796989761
  0
LINE
  5
260
100
AcDbEntity
  8
TRASH
100
AcDbLine
 62
250
  6
CONTINUOUS
 10
-10.5005350625
 20
21.0183142309
 11
-10.5011186581
 21
21.3380138322
  0
LINE
  5
261
100
AcDbEntity
  8
TRASH
100
AcDbLine
 62
7
  6
CONTINUOUS
 10
-11.15
 20
-21.8997711479
 11
-11.15
 21
21.8997711479
  0
LWPOLYLINE
  5
262
100
AcDbEntity
  8
TRASH
100
AcDbPolyline
 62
250
  6
CONTINUOUS
 90
9
 70
0
 10
-10.9974142982
 20
-16.3324736288
 10
-10.9951308388
 20
-11.6670309515
 10
-10.9936085319
 20
-7.0009678848
 10
-10.9928473769
 20
-2.3338717331
 10
-10.9928473744
 20
2.333844808
 10
-10.9936085263
 20
7.0009436522
 10
-10.9951308332
 20
11.667012104
 10
-10.9974142945
 20
16.3324628588
 10
-11.0006373651
 20
21.0789215441
  0
LWPOLYLINE
  5
263
100
AcDbEntity
  8
TRASH
100
AcDbPolyline
 62
250
  6
CONTINUOUS
 90
9
 70
0
 10
-10.4974904461
 20
-16.3494810535
 10
-10.4952069838
 20
-11.6792204124
 10
-10.4936846756
 20
-7.0079400863
 10
-10.4929235216
 20
-2.3360479924
 10
-10.4929235217
 20
2.3360479974
 10
-10.4936846759
 20
7.0079400909
 10
-10.4952069841
 20
11.6792204159
 10
-10.4974904463
 20
16.3494810555
 10
-10.5005350625
 20
21.0183142309
  0
LINE
  5
264
100
AcDbEntity
  8
TRASH
100
AcDbLine
 62
250
  6
CONTINUOUS
 10
-11.0008108466
 20
-21.1183319385
 11
-10.9974142982
 21
-16.3324736288
  0
LINE
  5
265
100
AcDbEntity
  8
TRASH
100
AcDbLine
 62
250
  6
CONTINUOUS
 10
-10.5017440253
 20
-21.4854483283
 11
-10.4974904461
 21
-16.3494810535
  0
LINE
  5
266
100
AcDbEntity
  8
TRASH
100
AcDbLine
 62
250
  6
CONTINUOUS
 10
-11.0016683071
 20
-21.2309534442
 11
-11.0008108466
 21
-21.1183319385
  0
LINE
  5
267
100
AcDbEntity
  8
TRASH
100
AcDbLine
 62
250
  6
CONTINUOUS
 10
-10.5035749124
 20
-21.7355620644
 11
-10.5017440253
 21
-21.4854483283
  0
LINE
  5
268
100
AcDbEntity
  8
TRASH
100
AcDbLine
 62
250
  6
CONTINUOUS
 10
-10.5047342215
 20
-21.8316458675
 11
-10.5035749124
 21
-21.7355620644
  0
LINE
  5
269
100
AcDbEntity
  8
TRASH
100
AcDbLine
 62
250
  6
CONTINUOUS
 10
-11.002496988
 20
-21.2978833988
 11
-11.0016683071
 21
-21.2309534442
  0
LINE
  5
26A
100
AcDbEntity
  8
TRASH
100
AcDbLine
 62
250
  6
CONTINUOUS
 10
-11.0035016383
 20
-21.3559863515
 11
-11.002496988
 21
-21.2978833988
  0
LWPOLYLINE
  5
26B
100
AcDbEntity
  8
TRASH
100
AcDbPolyline
 62
250
  6
CONTINUOUS
 90
5
 70
0
 10
-10.5060157428
 20
21.9047671365
 10
-10.5066888224
 20
21.9320739422
 10
-10.5073747324
 20
21.9529518547
 10
-10.5080778305
 20
21.9672615288
 10
-10.5087981167
 20
21.9749071372
  0
LINE
  5
26C
100
AcDbEntity
  8
TRASH
100
AcDbLine
 62
250
  6
CONTINUOUS
 10
-10.5047342215
 20
21.8316458675
 11
-10.5060157428
 21
21.9047671365
  0
LWPOLYLINE
  5
26D
100
AcDbEntity
  8
0
100
AcDbPolyline
 62
7
  6
CONTINUOUS
 90
3
 70
0
 43
0.3500000006
 10
1.1428571477
 20
34.535712204
 10
1.0714285848
 20
34.3214277191
 10
0.9285714591
 20
34.0357120514
  0
LINE
  5
26E
100
AcDbEntity
  8
RACCORDO
100
AcDbLine
 62
7
  6
CONTINUOUS
 10
-2.7535314331
 20
-9.0
 11
2.7535351241
 21
-9.0
  0
LWPOLYLINE
  5
26F
100
AcDbEntity
  8
TRASH
100
AcDbPolyline
 62
250
  6
CONTINUOUS
 90
6
 70
0
 10
-10.5087981167
 20
-21.9749071372
 10
-10.5080778305
 20
-21.9672615288
 10
-10.5073747324
 20
-21.9529518547
 10
-10.5066888224
 20
-21.9320739422
 10
-10.5060157428
 20
-21.9047671365
 10
-10.5047342215
 20
-21.8316458675
  0
LWPOLYLINE
  5
270
100
AcDbEntity
  8
TRASH
100
AcDbPolyline
 62
250
  6
CONTINUOUS
 90
8
 70
0
 10
-11.0087219643
 20
-21.4755923698
 10
-11.0080047836
 20
-21.4716997634
 10
-11.0073038303
 20
-21.4645988
 10
-11.0066191044
 20
-21.4542894797
 10
-11.005945919
 20
-21.4406578586
 10
-11.005288961
 20
-21.4238178806
 10
-11.0046622904
 20
-21.4041113772
 10
-11.0035016383
 20
-21.3559863515
  0
LINE
  5
271
100
AcDbEntity
  8
TRASH
100
AcDbLine
 62
7
  6
CONTINUOUS
 10
-3.3848722771
 20
22.4
 11
-3.3633443637
 21
22.5
  0
LWPOLYLINE
  5
272
100
AcDbEntity
  8
RACCORDO
100
AcDbPolyline
 62
250
  6
CONTINUOUS
 90
3
 70
0
 10
-2.5238858928
 20
7.7046227785
 10
-2.5089393665
 20
7.7167018988
 10
-2.4930829565
 20
7.7282871476
  0
LWPOLYLINE
  5
273
100
AcDbEntity
  8
RACCORDO
100
AcDbPolyline
 62
250
  6
CONTINUOUS
 90
4
 70
0
 10
-2.4072553587
 20
7.7869523421
 10
-2.3737352198
 20
7.8107339862
 10
-2.3579084622
 20
7.8216790084
 10
-2.3285572305
 20
7.8425879126
  0
LWPOLYLINE
  5
274
100
AcDbEntity
  8
RACCORDO
100
AcDbPolyline
 62
250
  6
CONTINUOUS
 90
3
 70
0
 10
-2.4930829565
 20
7.7282871476
 10
-2.4593028113
 20
7.7513546831
 10
-2.4418750046
 20
7.7634233274
  0
LINE
  5
275
100
AcDbEntity
  8
RACCORDO
100
AcDbLine
 62
250
  6
CONTINUOUS
 10
-2.4418750046
 20
7.7634233274
 11
-2.4072553587
 21
7.7869523421
  0
LWPOLYLINE
  5
276
100
AcDbEntity
  8
RACCORDO
100
AcDbPolyline
 62
250
  6
CONTINUOUS
 90
7
 70
0
 10
-2.3285572305
 20
7.8425879126
 10
-2.3154945864
 20
7.8513934026
 10
-2.3037522116
 20
7.8590815283
 10
-2.2940328704
 20
7.8656775835
 10
-2.286715313
 20
7.8708333938
 10
-2.2818668647
 20
7.8738704477
 10
-2.2796388685
 20
7.874193545
  0
LINE
  5
277
100
AcDbEntity
  8
RACCORDO
100
AcDbLine
 62
250
  6
CONTINUOUS
 10
4.0
 20
-7.7046227737
 11
2.5238534335
 21
-7.7046227737
  0
LINE
  5
278
100
AcDbEntity
  8
RACCORDO
100
AcDbLine
 62
250
  6
CONTINUOUS
 10
-2.5238180187
 20
-7.7046227737
 11
-4.0
 21
-7.7046227737
  0
LINE
  5
279
100
AcDbEntity
  8
RACCORDO
100
AcDbLine
 62
7
  6
CONTINUOUS
 10
3.7
 20
-7.4
 11
2.5238858928
 21
-7.4
  0
LINE
  5
27A
100
AcDbEntity
  8
RACCORDO
100
AcDbLine
 62
7
  6
CONTINUOUS
 10
-2.5238858928
 20
-7.4
 11
-3.7
 21
-7.4
  0
LWPOLYLINE
  5
27B
100
AcDbEntity
  8
RACCORDO
100
AcDbPolyline
 62
250
  6
CONTINUOUS
 90
7
 70
0
 10
-2.3272332915
 20
-7.8433379593
 10
-2.3132534439
 20
-7.8528746368
 10
-2.3015503999
 20
-7.860748758
 10
-2.2922487109
 20
-7.8668719245
 10
-2.2854498058
 20
-7.8711787509
 10
-2.2812304786
 20
-7.8736269941
 10
-2.2796388694
 20
-7.8741935462
  0
LINE
  5
27C
100
AcDbEntity
  8
RACCORDO
100
AcDbLine
 62
250
  6
CONTINUOUS
 10
-2.3613949733
 20
-7.8197074683
 11
-2.3272332915
 21
-7.8433379593
  0
LINE
  5
27D
100
AcDbEntity
  8
RACCORDO
100
AcDbLine
 62
250
  6
CONTINUOUS
 10
-2.4025568897
 20
-7.790874971
 11
-2.3613949733
 21
-7.8197074683
  0
LINE
  5
27E
100
AcDbEntity
  8
RACCORDO
100
AcDbLine
 62
250
  6
CONTINUOUS
 10
-2.473469206
 20
-7.740644375
 11
-2.4025568897
 21
-7.790874971
  0
LINE
  5
27F
100
AcDbEntity
  8
RACCORDO
100
AcDbLine
 62
250
  6
CONTINUOUS
 10
-2.5238858931
 20
-7.7046227767
 11
-2.473469206
 21
-7.740644375
  0
LWPOLYLINE
  5
280
100
AcDbEntity
  8
RACCORDO
100
AcDbPolyline
 62
250
  6
CONTINUOUS
 90
18
 70
0
 10
-2.6211210632
 20
-11.1616921356
 10
-2.730112212
 20
-10.9748287191
 10
-2.8254781762
 20
-10.7818697281
 10
-2.9070106685
 20
-10.5827356214
 10
-2.9749179763
 20
-10.3775056901
 10
-3.0282560598
 20
-10.1691501202
 10
-3.0668169261
 20
-9.9576590459
 10
-3.0908085681
 20
-9.7430422467
 10
-3.0999109246
 20
-9.5282995321
 10
-3.0939414957
 20
-9.3134484974
 10
-3.0730827814
 20
-9.0984716207
 10
-3.0375622202
 20
-8.8863161813
 10
-2.9872029185
 20
-8.6769984816
 10
-2.9221817699
 20
-8.4705024212
 10
-2.8432568936
 20
-8.2697268009
 10
-2.7506809963
 20
-8.0756380097
 10
-2.6442013713
 20
-7.8872699573
 10
-2.5238180187
 20
-7.7046227737
  0
LINE
  5
281
100
AcDbEntity
  8
TRASH
100
AcDbLine
 62
7
  6
CONTINUOUS
 10
-3.3848722771
 20
-22.4
 11
-3.3633443637
 21
-22.5
  0
LWPOLYLINE
  5
282
100
AcDbEntity
  8
RACCORDO
100
AcDbPolyline
 62
7
  6
CONTINUOUS
 90
3
 70
0
 10
-3.9782149692
 20
5.0245576483
 10
-3.9127999652
 20
5.0901270707
 10
-3.8485464298
 20
5.1541087015
  0
LWPOLYLINE
  5
283
100
AcDbEntity
  8
RACCORDO
100
AcDbPolyline
 62
7
  6
CONTINUOUS
 90
3
 70
0
 10
-3.8280411508
 20
5.1743513774
 10
-3.7896915004
 20
5.2125104231
 10
-3.7718471291
 20
5.2299780512
  0
LINE
  5
284
100
AcDbEntity
  8
RACCORDO
100
AcDbLine
 62
7
  6
CONTINUOUS
 10
-4.0
 20
5.0030018011
 11
-3.9782149692
 21
5.0245576483
  0
LWPOLYLINE
  5
285
100
AcDbEntity
  8
RACCORDO
100
AcDbPolyline
 62
7
  6
CONTINUOUS
 90
7
 70
0
 10
-3.7718471291
 20
5.2299780512
 10
-3.7406003981
 20
5.2609920326
 10
-3.7271980385
 20
5.273883311
 10
-3.7163353229
 20
5.2846543977
 10
-3.7083505712
 20
5.2929005927
 10
-3.7029054635
 20
5.2981568011
 10
-3.7
 20
5.3
  0
LINE
  5
286
100
AcDbEntity
  8
RACCORDO
100
AcDbLine
 62
7
  6
CONTINUOUS
 10
-3.8485464298
 20
5.1541087015
 11
-3.8280411508
 21
5.1743513774
  0
LINE
  5
287
100
AcDbEntity
  8
RACCORDO
100
AcDbLine
 62
7
  6
CONTINUOUS
 10
-3.7
 20
-5.3
 11
3.7
 21
-5.3
  0
LINE
  5
288
100
AcDbEntity
  8
RACCORDO
100
AcDbLine
 62
250
  6
CONTINUOUS
 10
-4.0
 20
-5.0030018011
 11
4.0
 21
-5.0030018011
  0
LWPOLYLINE
  5
289
100
AcDbEntity
  8
RACCORDO
100
AcDbPolyline
 62
7
  6
CONTINUOUS
 90
6
 70
0
 10
-3.7406003981
 20
-5.2609920326
 10
-3.7271980385
 20
-5.273883311
 10
-3.7163353229
 20
-5.2846543977
 10
-3.7083505712
 20
-5.2929005927
 10
-3.7029054635
 20
-5.2981568011
 10
-3.7
 20
-5.3
  0
LWPOLYLINE
  5
28A
100
AcDbEntity
  8
RACCORDO
100
AcDbPolyline
 62
7
  6
CONTINUOUS
 90
3
 70
0
 10
-3.7896915004
 20
-5.2125104231
 10
-3.7718471291
 20
-5.2299780512
 10
-3.7406003981
 20
-5.2609920326
  0
LWPOLYLINE
  5
28B
100
AcDbEntity
  8
RACCORDO
100
AcDbPolyline
 62
7
  6
CONTINUOUS
 90
3
 70
0
 10
-3.8485464298
 20
-5.1541087015
 10
-3.8280411508
 20
-5.1743513774
 10
-3.7896915004
 20
-5.2125104231
  0
LINE
  5
28C
100
AcDbEntity
  8
RACCORDO
100
AcDbLine
 62
7
  6
CONTINUOUS
 10
-4.0
 20
-5.0030018011
 11
-3.9782149692
 21
-5.0245576483
  0
LINE
  5
28D
100
AcDbEntity
  8
RACCORDO
100
AcDbLine
 62
7
  6
CONTINUOUS
 10
-3.9346886863
 20
-5.0682569346
 11
-3.8485464298
 21
-5.1541087015
  0
LINE
  5
28E
100
AcDbEntity
  8
RACCORDO
100
AcDbLine
 62
7
  6
CONTINUOUS
 10
-3.9782149692
 20
-5.0245576483
 11
-3.9346886863
 21
-5.0682569346
  0
LINE
  5
28F
100
AcDbEntity
  8
RACCORDO
100
AcDbLine
 62
250
  6
CONTINUOUS
 10
-4.0
 20
-7.7046227737
 11
-4.0
 21
-5.0030018011
  0
LINE
  5
290
100
AcDbEntity
  8
RACCORDO
100
AcDbLine
 62
250
  6
CONTINUOUS
 10
-4.0
 20
5.0030018011
 11
-4.0
 21
7.7046227737
  0
LINE
  5
291
100
AcDbEntity
  8
RACCORDO
100
AcDbLine
 62
7
  6
CONTINUOUS
 10
-3.7
 20
-7.4
 11
-3.7
 21
-5.3
  0
LINE
  5
292
100
AcDbEntity
  8
RACCORDO
100
AcDbLine
 62
7
  6
CONTINUOUS
 10
-3.7
 20
5.3
 11
-3.7
 21
7.4
  0
LINE
  5
293
100
AcDbEntity
  8
TRASH
100
AcDbLine
 62
7
  6
CONTINUOUS
 10
-3.4698202597
 20
22.5
 11
-3.4698202597
 21
22.4
  0
LINE
  5
294
100
AcDbEntity
  8
TRASH
100
AcDbLine
 62
7
  6
CONTINUOUS
 10
-3.4698202597
 20
-22.5
 11
-3.4698202597
 21
-22.4
  0
LINE
  5
295
100
AcDbEntity
  8
TRASH
100
AcDbLine
 62
250
  6
CONTINUOUS
 10
-11.15
 20
-21.8997711479
 11
-11.0087219643
 21
-21.4755923698
  0
LWPOLYLINE
  5
296
100
AcDbEntity
  8
RACCORDO
100
AcDbPolyline
 62
7
  6
CONTINUOUS
 90
7
 70
0
 10
3.7
 20
7.4
 10
3.7024394938
 20
7.4020367476
 10
3.7075071315
 20
7.4077779123
 10
3.715202913
 20
7.4166615616
 10
3.7258672401
 20
7.4280418966
 10
3.7391597111
 20
7.4414320376
 10
3.7704473968
 20
7.4735640098
  0
LINE
  5
297
100
AcDbEntity
  8
TRASH
100
AcDbLine
 62
250
  6
CONTINUOUS
 10
-11.0087219643
 20
21.4755923698
 11
-11.15
 21
21.8997711479
  0
LWPOLYLINE
  5
298
100
AcDbEntity
  8
RACCORDO
100
AcDbPolyline
 62
250
  6
CONTINUOUS
 90
9
 70
0
 10
-2.5238858928
 20
-7.7046227737
 10
-2.5244260897
 20
-7.6852534786
 10
-2.5247419843
 20
-7.6651738172
 10
-2.5248335766
 20
-7.6444874879
 10
-2.5245926819
 20
-7.6233134438
 10
-2.5241274849
 20
-7.601806415
 10
-2.5237625398
 20
-7.5801563597
 10
-2.52361761
 20
-7.5585731894
 10
-2.5235937704
 20
-7.5164204888
  0
LINE
  5
299
100
AcDbEntity
  8
RACCORDO
100
AcDbLine
 62
250
  6
CONTINUOUS
 10
-2.5238564773
 20
-7.4020293129
 11
-2.5238858928
 21
-7.4
  0
LINE
  5
29A
100
AcDbEntity
  8
RACCORDO
100
AcDbLine
 62
250
  6
CONTINUOUS
 10
-2.5235937704
 20
-7.5164204888
 11
-2.5240146468
 21
-7.4595496128
  0
LINE
  5
29B
100
AcDbEntity
  8
RACCORDO
100
AcDbLine
 62
250
  6
CONTINUOUS
 10
-2.5238858928
 20
7.4
 11
-2.5238858928
 21
7.7046227737
  0
LWPOLYLINE
  5
29C
100
AcDbEntity
  8
RACCORDO
100
AcDbPolyline
 62
250
  6
CONTINUOUS
 90
3
 70
0
 10
-2.5240146468
 20
-7.4595496128
 10
-2.5239986078
 20
-7.4432341369
 10
-2.5238586957
 20
-7.4169423393
  0
LINE
  5
29D
100
AcDbEntity
  8
RACCORDO
100
AcDbLine
 62
250
  6
CONTINUOUS
 10
-2.5238586957
 20
-7.4169423393
 11
-2.5238564773
 21
-7.4020293129
  0
LINE
  5
29E
100
AcDbEntity
  8
TRASH
100
AcDbLine
 62
250
  6
CONTINUOUS
 10
-10.6503805997
 20
-22.4
 11
-10.5087981167
 21
-21.9749071372
  0
LWPOLYLINE
  5
29F
100
AcDbEntity
  8
RACCORDO
100
AcDbPolyline
 62
7
  6
CONTINUOUS
 90
3
 70
0
 10
3.7704473968
 20
7.4735640098
 10
3.7884426116
 20
7.4916644393
 10
3.8271992044
 20
7.5310610426
  0
LWPOLYLINE
  5
2A0
100
AcDbEntity
  8
RACCORDO
100
AcDbPolyline
 62
7
  6
CONTINUOUS
 90
3
 70
0
 10
3.912839406
 20
7.6172134308
 10
3.9783381834
 20
7.6831781362
 10
4.0
 20
7.7046227737
  0
LINE
  5
2A1
100
AcDbEntity
  8
RACCORDO
100
AcDbLine
 62
7
  6
CONTINUOUS
 10
3.8271992044
 20
7.5310610426
 11
3.8907806832
 21
7.595144369
  0
LINE
  5
2A2
100
AcDbEntity
  8
RACCORDO
100
AcDbLine
 62
7
  6
CONTINUOUS
 10
3.8907806832
 20
7.595144369
 11
3.912839406
 21
7.6172134308
  0
LINE
  5
2A3
100
AcDbEntity
  8
RACCORDO
100
AcDbLine
 62
7
  6
CONTINUOUS
 10
4.0
 20
-7.7046227737
 11
3.9783381834
 21
-7.6831781362
  0
LWPOLYLINE
  5
2A4
100
AcDbEntity
  8
RACCORDO
100
AcDbPolyline
 62
7
  6
CONTINUOUS
 90
3
 70
0
 10
3.7884426116
 20
-7.4916644393
 10
3.7704473968
 20
-7.4735640098
 10
3.7391597111
 20
-7.4414320376
  0
LWPOLYLINE
  5
2A5
100
AcDbEntity
  8
RACCORDO
100
AcDbPolyline
 62
7
  6
CONTINUOUS
 90
6
 70
0
 10
3.7391597111
 20
-7.4414320376
 10
3.7258672401
 20
-7.4280418966
 10
3.715202913
 20
-7.4166615616
 10
3.7075071315
 20
-7.4077779123
 10
3.7024394938
 20
-7.4020367476
 10
3.7
 20
-7.4
  0
LINE
  5
2A6
100
AcDbEntity
  8
RACCORDO
100
AcDbLine
 62
7
  6
CONTINUOUS
 10
3.9783381834
 20
-7.6831781362
 11
3.8271992044
 21
-7.5310610426
  0
LINE
  5
2A7
100
AcDbEntity
  8
RACCORDO
100
AcDbLine
 62
7
  6
CONTINUOUS
 10
3.8271992044
 20
-7.5310610426
 11
3.7884426116
 21
-7.4916644393
  0
LINE
  5
2A8
100
AcDbEntity
  8
RACCORDO
100
AcDbLine
 62
7
  6
CONTINUOUS
 10
2.2796388709
 20
-7.8741935484
 11
2.275307649
 21
-7.8679549246
  0
LWPOLYLINE
  5
2A9
100
AcDbEntity
  8
RACCORDO
100
AcDbPolyline
 62
250
  6
CONTINUOUS
 90
47
 70
0
 10
2.5238534335
 20
-7.7046227737
 10
2.6442637361
 20
-7.8873416015
 10
2.7507624097
 20
-8.0757775148
 10
2.8433494541
 20
-8.2699303835
 10
2.9222773512
 20
-8.4707683876
 10
2.9872936191
 20
-8.6773230484
 10
3.0376408127
 20
-8.8866892968
 10
3.0731403934
 20
-9.0988811143
 10
3.0939708999
 20
-9.3138843178
 10
3.0999105032
 20
-9.5287517167
 10
3.0907776196
 20
-9.7434988071
 10
3.0667538328
 20
-9.95811002
 10
3.0281620651
 20
-10.1695917126
 10
2.9747952503
 20
-10.3779353251
 10
2.9068604545
 20
-10.5831495036
 10
2.8253017981
 20
-10.7822665701
 10
2.7299119581
 20
-10.97520712
 10
2.6208982574
 20
-11.162050808
 10
2.4998267858
 20
-11.3400686899
 10
2.3665012809
 20
-11.5091362949
 10
2.2211180051
 20
-11.6693784706
 10
2.0658318353
 20
-11.8184403629
 10
1.9005242735
 20
-11.9561294828
 10
1.7253138177
 20
-12.0826387529
 10
1.5427108386
 20
-12.1961915028
 10
1.3526122011
 20
-12.2966074304
 10
1.1551210403
 20
-12.3840672354
 10
0.9530571322
 20
-12.457335768
 10
0.746360551
 20
-12.5162145917
 10
0.5350912225
 20
-12.5609024221
 10
0.3222486996
 20
-12.5907598151
 10
0.1077835712
 20
-12.6055736694
 10
-0.1082547516
 20
-12.6055571867
 10
-0.3227184823
 20
-12.5907103325
 10
-0.5355591086
 20
-12.5608194143
 10
-0.7468251429
 20
-12.516098024
 10
-0.9535143349
 20
-12.4571870082
 10
-1.1555655181
 20
-12.3838876678
 10
-1.3530398591
 20
-12.2963984228
 10
-1.5431186077
 20
-12.195955776
 10
-1.7256981998
 20
-12.082379638
 10
-1.9008821995
 20
-11.9558497008
 10
-2.0661625484
 20
-11.8181421561
 10
-2.2214207709
 20
-11.6690651897
 10
-2.3667753427
 20
-11.5088101825
 10
-2.5000736323
 20
-11.3397281858
 10
-2.6211210632
 20
-11.1616921356
  0
LINE
  5
2AA
100
AcDbEntity
  8
TRASH
100
AcDbLine
 62
250
  6
CONTINUOUS
 10
-10.5087981167
 20
21.9749071372
 11
-10.6503805997
 21
22.4
  0
LINE
  5
2AB
100
AcDbEntity
  8
TRASH
100
AcDbLine
 62
7
  6
CONTINUOUS
 10
3.4151277229
 20
22.4
 11
3.4366556363
 21
22.5
  0
LWPOLYLINE
  5
2AC
100
AcDbEntity
  8
0
100
AcDbPolyline
 62
7
  6
CONTINUOUS
 90
2
 70
0
 43
0.3500000006
 10
20.3999994278
 20
-1.3571429443
 10
18.900000103
 20
-1.3571429443
  0
LWPOLYLINE
  5
2AD
100
AcDbEntity
  8
0
100
AcDbPolyline
 62
7
  6
CONTINUOUS
 90
4
 70
0
 43
0.3500000006
 10
18.0428576317
 20
-0.0000003204
 10
17.3999996452
 20
-0.0000003204
 10
17.3999996452
 20
1.5000001373
 10
20.3999994278
 20
0.642857666
  0
LINE
  5
2AE
100
AcDbEntity
  8
TRASH
100
AcDbLine
 62
7
  6
CONTINUOUS
 10
3.4151277229
 20
-22.4
 11
3.4366556363
 21
-22.5
  0
LINE
  5
2AF
100
AcDbEntity
  8
TRASH
100
AcDbLine
 62
7
  6
CONTINUOUS
 10
-3.4151277229
 20
-22.4
 11
-3.4366556363
 21
-22.5
  0
LINE
  5
2B0
100
AcDbEntity
  8
TRASH
100
AcDbLine
 62
7
  6
CONTINUOUS
 10
-3.4151277229
 20
22.4
 11
-3.4366556363
 21
22.5
  0
LWPOLYLINE
  5
2B1
100
AcDbEntity
  8
RACCORDO
100
AcDbPolyline
 62
250
  6
CONTINUOUS
 90
4
 70
0
 10
2.5239986078
 20
-7.4432341369
 10
2.5238474116
 20
-7.4078276886
 10
2.5238564773
 20
-7.4020293129
 10
2.5238858928
 20
-7.4
  0
LINE
  5
2B2
100
AcDbEntity
  8
RACCORDO
100
AcDbLine
 62
250
  6
CONTINUOUS
 10
2.5240146468
 20
-7.4595496128
 11
2.5239986078
 21
-7.4432341369
  0
LINE
  5
2B3
100
AcDbEntity
  8
RACCORDO
100
AcDbLine
 62
250
  6
CONTINUOUS
 10
2.5238858928
 20
7.4
 11
2.5238858928
 21
7.7046227737
  0
LINE
  5
2B4
100
AcDbEntity
  8
TRASH
100
AcDbLine
 62
7
  6
CONTINUOUS
 10
3.4698202597
 20
-22.4
 11
3.4698202597
 21
-22.5
  0
LINE
  5
2B5
100
AcDbEntity
  8
TRASH
100
AcDbLine
 62
7
  6
CONTINUOUS
 10
3.4698202597
 20
22.4
 11
3.4698202597
 21
22.5
  0
LINE
  5
2B6
100
AcDbEntity
  8
RACCORDO
100
AcDbLine
 62
7
  6
CONTINUOUS
 10
3.7
 20
7.4
 11
3.7
 21
5.3
  0
LINE
  5
2B7
100
AcDbEntity
  8
RACCORDO
100
AcDbLine
 62
7
  6
CONTINUOUS
 10
3.7
 20
-5.3
 11
3.7
 21
-7.4
  0
LINE
  5
2B8
100
AcDbEntity
  8
RACCORDO
100
AcDbLine
 62
250
  6
CONTINUOUS
 10
2.52361761
 20
-7.5585731894
 11
2.5235937704
 21
-7.5164204888
  0
LINE
  5
2B9
100
AcDbEntity
  8
RACCORDO
100
AcDbLine
 62
250
  6
CONTINUOUS
 10
2.5235937704
 20
-7.5164204888
 11
2.5240146468
 21
-7.4595496128
  0
LWPOLYLINE
  5
2BA
100
AcDbEntity
  8
RACCORDO
100
AcDbPolyline
 62
250
  6
CONTINUOUS
 90
8
 70
0
 10
2.5238858928
 20
-7.7046227737
 10
2.5244260897
 20
-7.6852534786
 10
2.5247419843
 20
-7.6651738172
 10
2.5248335766
 20
-7.6444874879
 10
2.5245926819
 20
-7.6233134438
 10
2.5241274849
 20
-7.601806415
 10
2.5237625398
 20
-7.5801563597
 10
2.52361761
 20
-7.5585731894
  0
LINE
  5
2BB
100
AcDbEntity
  8
TRASH
100
AcDbLine
 62
250
  6
CONTINUOUS
 10
10.5087981167
 20
21.9749071372
 11
10.6503805997
 21
22.4
  0
LINE
  5
2BC
100
AcDbEntity
  8
TRASH
100
AcDbLine
 62
250
  6
CONTINUOUS
 10
11.0087219643
 20
21.4755923698
 11
11.15
 21
21.8997711479
  0
LINE
  5
2BD
100
AcDbEntity
  8
RACCORDO
100
AcDbLine
 62
7
  6
CONTINUOUS
 10
-2.2753076604
 20
-7.8679549415
 11
-2.2796388709
 21
-7.8741935484
  0
LWPOLYLINE
  5
2BE
100
AcDbEntity
  8
RACCORDO
100
AcDbPolyline
 62
7
  6
CONTINUOUS
 90
7
 70
0
 10
-3.7706883221
 20
-7.4738175952
 10
-3.7394976443
 20
-7.4417921709
 10
-3.7261730402
 20
-7.4283863617
 10
-3.715456196
 20
-7.4169263596
 10
-3.7076963707
 20
-7.4079258513
 10
-3.7025443054
 20
-7.402081582
 10
-3.7
 20
-7.4
  0
LWPOLYLINE
  5
2BF
100
AcDbEntity
  8
RACCORDO
100
AcDbPolyline
 62
7
  6
CONTINUOUS
 90
3
 70
0
 10
-3.8270103187
 20
-7.5308697153
 10
-3.7885543958
 20
-7.4917858261
 10
-3.7706883221
 20
-7.4738175952
  0
LINE
  5
2C0
100
AcDbEntity
  8
RACCORDO
100
AcDbLine
 62
7
  6
CONTINUOUS
 10
-3.890196639
 20
-7.5945530017
 11
-3.8270103187
 21
-7.5308697153
  0
LINE
  5
2C1
100
AcDbEntity
  8
RACCORDO
100
AcDbLine
 62
7
  6
CONTINUOUS
 10
-3.9122032607
 20
-7.6165734468
 11
-3.890196639
 21
-7.5945530017
  0
LWPOLYLINE
  5
2C2
100
AcDbEntity
  8
RACCORDO
100
AcDbPolyline
 62
7
  6
CONTINUOUS
 90
3
 70
0
 10
-4.0
 20
-7.7046227737
 10
-3.9780552345
 20
-7.6828933425
 10
-3.9122032607
 20
-7.6165734468
  0
LINE
  5
2C3
100
AcDbEntity
  8
RACCORDO
100
AcDbLine
 62
7
  6
CONTINUOUS
 10
-4.0
 20
7.7046227737
 11
-3.9780552345
 21
7.6828933425
  0
LWPOLYLINE
  5
2C4
100
AcDbEntity
  8
RACCORDO
100
AcDbPolyline
 62
7
  6
CONTINUOUS
 90
3
 70
0
 10
-3.7885543958
 20
7.4917858261
 10
-3.7706883221
 20
7.4738175952
 10
-3.7394976443
 20
7.4417921709
  0
LWPOLYLINE
  5
2C5
100
AcDbEntity
  8
RACCORDO
100
AcDbPolyline
 62
7
  6
CONTINUOUS
 90
6
 70
0
 10
-3.7394976443
 20
7.4417921709
 10
-3.7261730402
 20
7.4283863617
 10
-3.715456196
 20
7.4169263596
 10
-3.7076963707
 20
7.4079258513
 10
-3.7025443054
 20
7.402081582
 10
-3.7
 20
7.4
  0
LINE
  5
2C6
100
AcDbEntity
  8
RACCORDO
100
AcDbLine
 62
7
  6
CONTINUOUS
 10
-3.9780552345
 20
7.6828933425
 11
-3.890196639
 21
7.5945530017
  0
LINE
  5
2C7
100
AcDbEntity
  8
RACCORDO
100
AcDbLine
 62
7
  6
CONTINUOUS
 10
-3.890196639
 20
7.5945530017
 11
-3.7885543958
 21
7.4917858261
  0
LWPOLYLINE
  5
2C8
100
AcDbEntity
  8
RACCORDO
100
AcDbPolyline
 62
250
  6
CONTINUOUS
 90
47
 70
0
 10
-2.5238477309
 20
7.7046227737
 10
-2.6442571154
 20
7.8873351349
 10
-2.7507552768
 20
8.0757654909
 10
-2.8433422151
 20
8.2699137115
 10
-2.9222704271
 20
8.4707482307
 10
-2.987287416
 20
8.6773003159
 10
-3.0376356911
 20
8.8866641355
 10
-3.0731367316
 20
9.0988533485
 10
-3.0939690584
 20
9.3138540942
 10
-3.0999107436
 20
9.5287193869
 10
-3.0907801824
 20
9.7434648674
 10
-3.0667589797
 20
9.9580748219
 10
-3.0281700214
 20
10.1695553799
 10
-2.9748062876
 20
10.3778977971
 10
-2.9068747982
 20
10.5831109041
 10
-2.8253194993
 20
10.7822273476
 10
-2.7299329811
 20
10.9751679165
 10
-2.6209226535
 20
11.1620120721
 10
-2.4998546919
 20
11.340030615
 10
-2.3665330099
 20
11.5090988794
 10
-2.2211536941
 20
11.6693419077
 10
-2.06587118
 20
11.8184051767
 10
-1.900566804
 20
11.9560963949
 10
-1.7253592297
 20
12.082608287
 10
-1.5427588844
 20
12.1961639206
 10
-1.3526627124
 20
12.2965829303
 10
-1.1551737693
 20
12.384046079
 10
-0.953111649
 20
12.4573181434
 10
-0.7464163175
 20
12.5162007137
 10
-0.5351478088
 20
12.5608924788
 10
-0.3223058188
 20
12.5907538407
 10
-0.1078410116
 20
12.6055716778
 10
0.1081972768
 20
12.605559212
 10
0.3226613432
 20
12.5907163156
 10
0.5355026988
 20
12.5608293121
 10
0.7467698323
 20
12.5161117776
 10
0.9534605057
 20
12.4572044175
 10
1.1555135973
 20
12.3839085182
 10
1.3529902288
 20
12.2964225143
 10
1.5430715273
 20
12.1959828115
 10
1.7256539024
 20
12.0824093425
 10
1.9008409447
 20
11.9558817771
 10
2.0661245524
 20
11.8181761442
 10
2.2213863454
 20
11.669100497
 10
2.366744704
 20
11.508846349
 10
2.5000466668
 20
11.3397649861
 10
2.6210975332
 20
11.1617294859
  0
LINE
  5
2C9
100
AcDbEntity
  8
TRASH
100
AcDbLine
 62
250
  6
CONTINUOUS
 10
10.6503805997
 20
-22.4
 11
10.5087981167
 21
-21.9749071372
  0
LINE
  5
2CA
100
AcDbEntity
  8
TRASH
100
AcDbLine
 62
250
  6
CONTINUOUS
 10
11.15
 20
-21.8997711479
 11
11.0087219643
 21
-21.4755923698
  0
LINE
  5
2CB
100
AcDbEntity
  8
RACCORDO
100
AcDbLine
 62
250
  6
CONTINUOUS
 10
4.0
 20
7.7046227737
 11
4.0
 21
5.0030018011
  0
LINE
  5
2CC
100
AcDbEntity
  8
RACCORDO
100
AcDbLine
 62
250
  6
CONTINUOUS
 10
4.0
 20
-5.0030018011
 11
4.0
 21
-7.7046227737
  0
LINE
  5
2CD
100
AcDbEntity
  8
RACCORDO
100
AcDbLine
 62
250
  6
CONTINUOUS
 10
4.0
 20
5.0030018011
 11
-4.0
 21
5.0030018011
  0
LINE
  5
2CE
100
AcDbEntity
  8
RACCORDO
100
AcDbLine
 62
7
  6
CONTINUOUS
 10
3.7
 20
5.3
 11
-3.7
 21
5.3
  0
LWPOLYLINE
  5
2CF
100
AcDbEntity
  8
RACCORDO
100
AcDbPolyline
 62
7
  6
CONTINUOUS
 90
3
 70
0
 10
3.9784084377
 20
-5.0243632585
 10
3.9132347008
 20
-5.0896930706
 10
3.8487923164
 20
-5.1538666538
  0
LWPOLYLINE
  5
2D0
100
AcDbEntity
  8
RACCORDO
100
AcDbPolyline
 62
7
  6
CONTINUOUS
 90
3
 70
0
 10
3.8281697634
 20
-5.1742234091
 10
3.7896140458
 20
-5.2125922892
 10
3.7716808812
 20
-5.2301477543
  0
LINE
  5
2D1
100
AcDbEntity
  8
RACCORDO
100
AcDbLine
 62
7
  6
CONTINUOUS
 10
4.0
 20
-5.0030018011
 11
3.9784084377
 21
-5.0243632585
  0
LWPOLYLINE
  5
2D2
100
AcDbEntity
  8
RACCORDO
100
AcDbPolyline
 62
7
  6
CONTINUOUS
 90
7
 70
0
 10
3.7716808812
 20
-5.2301477543
 10
3.7403661809
 20
-5.2612304334
 10
3.7269846453
 20
-5.2741095302
 10
3.7161574886
 20
-5.2848269075
 10
3.7082172801
 20
-5.2929963351
 10
3.7028314505
 20
-5.2981856387
 10
3.7
 20
-5.3
  0
LINE
  5
2D3
100
AcDbEntity
  8
RACCORDO
100
AcDbLine
 62
7
  6
CONTINUOUS
 10
3.8487923164
 20
-5.1538666538
 11
3.8281697634
 21
-5.1742234091
  0
LWPOLYLINE
  5
2D4
100
AcDbEntity
  8
RACCORDO
100
AcDbPolyline
 62
7
  6
CONTINUOUS
 90
6
 70
0
 10
3.7
 20
5.3
 10
3.7028314505
 20
5.2981856387
 10
3.7082172801
 20
5.2929963351
 10
3.7161574886
 20
5.2848269075
 10
3.7269846453
 20
5.2741095302
 10
3.7403661809
 20
5.2612304334
  0
LINE
  5
2D5
100
AcDbEntity
  8
RACCORDO
100
AcDbLine
 62
7
  6
CONTINUOUS
 10
3.9784084377
 20
5.0243632585
 11
4.0
 21
5.0030018011
  0
LWPOLYLINE
  5
2D6
100
AcDbEntity
  8
RACCORDO
100
AcDbPolyline
 62
7
  6
CONTINUOUS
 90
3
 70
0
 10
3.7403661809
 20
5.2612304334
 10
3.7716808812
 20
5.2301477543
 10
3.7896140458
 20
5.2125922892
  0
LWPOLYLINE
  5
2D7
100
AcDbEntity
  8
RACCORDO
100
AcDbPolyline
 62
7
  6
CONTINUOUS
 90
3
 70
0
 10
3.7896140458
 20
5.2125922892
 10
3.8281697634
 20
5.1742234091
 10
3.8487923164
 20
5.1538666538
  0
LWPOLYLINE
  5
2D8
100
AcDbEntity
  8
RACCORDO
100
AcDbPolyline
 62
7
  6
CONTINUOUS
 90
3
 70
0
 10
3.8487923164
 20
5.1538666538
 10
3.9351042683
 20
5.0678421827
 10
3.9784084377
 20
5.0243632585
  0
LWPOLYLINE
  5
2D9
100
AcDbEntity
  8
TRASH
100
AcDbPolyline
 62
250
  6
CONTINUOUS
 90
7
 70
0
 10
11.0087219643
 20
-21.4755923698
 10
11.0080037303
 20
-21.4716869154
 10
11.0073019424
 20
-21.4645713157
 10
11.0066166007
 20
-21.4542455707
 10
11.0059430608
 20
-21.4405949624
 10
11.005285967
 20
-21.4237342087
 10
11.0046592521
 20
-21.4040074642
  0
LWPOLYLINE
  5
2DA
100
AcDbEntity
  8
TRASH
100
AcDbPolyline
 62
250
  6
CONTINUOUS
 90
5
 70
0
 10
10.5087981167
 20
-21.9749071372
 10
10.5080778515
 20
-21.9672624094
 10
10.50737474
 20
-21.9529541156
 10
10.5066887822
 20
-21.9320774319
 10
10.5060155824
 20
-21.9047700276
  0
LINE
  5
2DB
100
AcDbEntity
  8
TRASH
100
AcDbLine
 62
7
  6
CONTINUOUS
 10
3.3848722771
 20
-22.4
 11
3.3633443637
 21
-22.5
  0
LINE
  5
2DC
100
AcDbEntity
  8
RACCORDO
100
AcDbLine
 62
250
  6
CONTINUOUS
 10
2.5238858933
 20
-7.7046227785
 11
2.4489406744
 21
-7.7580866679
  0
LINE
  5
2DD
100
AcDbEntity
  8
RACCORDO
100
AcDbLine
 62
250
  6
CONTINUOUS
 10
2.4489406744
 20
-7.7580866679
 11
2.3812051311
 21
-7.8058673197
  0
LWPOLYLINE
  5
2DE
100
AcDbEntity
  8
RACCORDO
100
AcDbPolyline
 62
250
  6
CONTINUOUS
 90
9
 70
0
 10
2.3812051311
 20
-7.8058673197
 10
2.343338918
 20
-7.8322425935
 10
2.3272331197
 20
-7.8433377186
 10
2.3132532851
 20
-7.8528744143
 10
2.3015502601
 20
-7.8607485624
 10
2.2922485983
 20
-7.8668717669
 10
2.2854497276
 20
-7.8711786413
 10
2.2812304385
 20
-7.8736269379
 10
2.2796388685
 20
-7.874193545
  0
LINE
  5
2DF
100
AcDbEntity
  8
RACCORDO
100
AcDbLine
 62
7
  6
CONTINUOUS
 10
-3.7
 20
7.4
 11
-2.5238858928
 21
7.4
  0
LINE
  5
2E0
100
AcDbEntity
  8
RACCORDO
100
AcDbLine
 62
7
  6
CONTINUOUS
 10
2.5238858928
 20
7.4
 11
3.7
 21
7.4
  0
LINE
  5
2E1
100
AcDbEntity
  8
RACCORDO
100
AcDbLine
 62
250
  6
CONTINUOUS
 10
-4.0
 20
7.7046227737
 11
-2.5238477309
 21
7.7046227737
  0
LINE
  5
2E2
100
AcDbEntity
  8
RACCORDO
100
AcDbLine
 62
250
  6
CONTINUOUS
 10
2.5238221313
 20
7.7046227737
 11
4.0
 21
7.7046227737
  0
LINE
  5
2E3
100
AcDbEntity
  8
RACCORDO
100
AcDbLine
 62
250
  6
CONTINUOUS
 10
2.3737354103
 20
7.8107342146
 11
2.3579086509
 21
7.8216792447
  0
LWPOLYLINE
  5
2E4
100
AcDbEntity
  8
RACCORDO
100
AcDbPolyline
 62
250
  6
CONTINUOUS
 90
3
 70
0
 10
2.4593029407
 20
7.7513548135
 10
2.4418751545
 20
7.7634234836
 10
2.4072555359
 20
7.7869525388
  0
LINE
  5
2E5
100
AcDbEntity
  8
RACCORDO
100
AcDbLine
 62
250
  6
CONTINUOUS
 10
2.4072555359
 20
7.7869525388
 11
2.3737354103
 21
7.8107342146
  0
LWPOLYLINE
  5
2E6
100
AcDbEntity
  8
RACCORDO
100
AcDbPolyline
 62
250
  6
CONTINUOUS
 90
8
 70
0
 10
2.3579086509
 20
7.8216792447
 10
2.3285574028
 20
7.8425881559
 10
2.3154947435
 20
7.851393632
 10
2.3037523468
 20
7.8590817327
 10
2.2940329819
 20
7.8656777544
 10
2.2867153979
 20
7.8708335218
 10
2.2818669138
 20
7.8738705195
 10
2.2796388694
 20
7.8741935462
  0
LWPOLYLINE
  5
2E7
100
AcDbEntity
  8
RACCORDO
100
AcDbPolyline
 62
250
  6
CONTINUOUS
 90
4
 70
0
 10
2.5238858928
 20
7.7046227767
 10
2.5089394105
 20
7.7167019364
 10
2.4930830351
 20
7.7282872195
 10
2.4593029407
 20
7.7513548135
  0
LWPOLYLINE
  5
2E8
100
AcDbEntity
  8
RACCORDO
100
AcDbPolyline
 62
250
  6
CONTINUOUS
 90
18
 70
0
 10
2.6210975332
 20
11.1617294859
 10
2.7300920039
 20
10.9748663941
 10
2.82546122
 20
10.7819073122
 10
2.9069969599
 20
10.5827725439
 10
2.9749074453
 20
10.3775415355
 10
3.0282484817
 20
10.1691847475
 10
3.0668120391
 20
9.9576924693
 10
3.0908061475
 20
9.7430743253
 10
3.0999107027
 20
9.5283299342
 10
3.093943229
 20
9.3134767794
 10
3.0730862019
 20
9.098497451
 10
3.037566944
 20
8.8863393735
 10
2.9872085279
 20
8.6770190367
 10
2.9221878808
 20
8.470520153
 10
2.8432631072
 20
8.2697411071
 10
2.7506869085
 20
8.0756481494
 10
2.6442065832
 20
7.8872753283
 10
2.5238221313
 20
7.7046227737
  0
LINE
  5
2E9
100
AcDbEntity
  8
TRASH
100
AcDbLine
 62
7
  6
CONTINUOUS
 10
3.3848722771
 20
22.4
 11
3.3633443637
 21
22.5
  0
LWPOLYLINE
  5
2EA
100
AcDbEntity
  8
TRASH
100
AcDbPolyline
 62
250
  6
CONTINUOUS
 90
3
 70
0
 10
11.0046592521
 20
-21.4040074642
 10
11.0034987657
 20
-21.3558477932
 10
11.0029753137
 20
-21.3279754394
  0
LINE
  5
2EB
100
AcDbEntity
  8
TRASH
100
AcDbLine
 62
250
  6
CONTINUOUS
 10
10.5060155824
 20
-21.9047700276
 11
10.5047338308
 21
-21.8316459638
  0
LINE
  5
2EC
100
AcDbEntity
  8
TRASH
100
AcDbLine
 62
250
  6
CONTINUOUS
 10
10.5047338308
 20
-21.8316459638
 11
10.5030519449
 21
-21.6797279079
  0
LINE
  5
2ED
100
AcDbEntity
  8
TRASH
100
AcDbLine
 62
250
  6
CONTINUOUS
 10
10.5030519449
 20
-21.6797279079
 11
10.5014060365
 21
-21.4132040417
  0
LWPOLYLINE
  5
2EE
100
AcDbEntity
  8
TRASH
100
AcDbPolyline
 62
250
  6
CONTINUOUS
 90
3
 70
0
 10
10.5014060365
 20
-21.4132040417
 10
10.5005963782
 20
-21.1000274003
 10
10.5005350625
 20
-21.0183142309
  0
LWPOLYLINE
  5
2EF
100
AcDbEntity
  8
TRASH
100
AcDbPolyline
 62
250
  6
CONTINUOUS
 90
9
 70
0
 10
10.5005350625
 20
-21.0183142309
 10
10.4974904462
 20
-16.3494810551
 10
10.495206984
 20
-11.679220415
 10
10.4936846758
 20
-7.0079400896
 10
10.4929235217
 20
-2.3360479956
 10
10.4929235217
 20
2.3360479946
 10
10.4936846758
 20
7.0079400886
 10
10.4952069839
 20
11.6792204143
 10
10.4974904462
 20
16.3494810547
  0
LINE
  5
2F0
100
AcDbEntity
  8
TRASH
100
AcDbLine
 62
250
  6
CONTINUOUS
 10
10.4974904462
 20
16.3494810547
 11
10.501118572
 21
21.338028331
  0
LINE
  5
2F1
100
AcDbEntity
  8
TRASH
100
AcDbLine
 62
250
  6
CONTINUOUS
 10
10.501118572
 20
21.338028331
 11
10.5025714538
 21
21.6191421195
  0
LINE
  5
2F2
100
AcDbEntity
  8
TRASH
100
AcDbLine
 62
250
  6
CONTINUOUS
 10
10.5025714538
 20
21.6191421195
 11
10.5041391368
 21
21.7863341959
  0
LWPOLYLINE
  5
2F3
100
AcDbEntity
  8
TRASH
100
AcDbPolyline
 62
250
  6
CONTINUOUS
 90
7
 70
0
 10
10.5041391368
 20
21.7863341959
 10
10.5053595363
 20
21.8712155731
 10
10.5060155824
 20
21.9047700276
 10
10.5066887822
 20
21.9320774319
 10
10.50737474
 20
21.9529541156
 10
10.5080778515
 20
21.9672624094
 10
10.5087981167
 20
21.9749071372
  0
LWPOLYLINE
  5
2F4
100
AcDbEntity
  8
TRASH
100
AcDbPolyline
 62
250
  6
CONTINUOUS
 90
9
 70
0
 10
11.0029753137
 20
21.3279754394
 10
11.0040638194
 20
21.381360624
 10
11.0046592521
 20
21.404007464
 10
11.005285967
 20
21.4237342087
 10
11.0059430608
 20
21.4405949624
 10
11.0066166007
 20
21.4542455709
 10
11.0073019424
 20
21.4645713159
 10
11.0080037303
 20
21.4716869155
 10
11.0087219643
 20
21.4755923698
  0
LINE
  5
2F5
100
AcDbEntity
  8
RACCORDO
100
AcDbLine
 62
7
  6
CONTINUOUS
 10
-2.7535350832
 20
9.0
 11
2.7535314713
 21
9.0
  0
LINE
  5
2F6
100
AcDbEntity
  8
TRASH
100
AcDbLine
 62
250
  6
CONTINUOUS
 10
11.0029753137
 20
-21.3279754394
 11
11.0020548624
 21
-21.2650560508
  0
LINE
  5
2F7
100
AcDbEntity
  8
TRASH
100
AcDbLine
 62
250
  6
CONTINUOUS
 10
11.0020548624
 20
-21.2650560508
 11
11.0010406481
 21
-21.1567800769
  0
LINE
  5
2F8
100
AcDbEntity
  8
TRASH
100
AcDbLine
 62
250
  6
CONTINUOUS
 10
11.0010406481
 20
-21.1567800769
 11
11.0005195581
 21
-21.0384524298
  0
LWPOLYLINE
  5
2F9
100
AcDbEntity
  8
TRASH
100
AcDbPolyline
 62
250
  6
CONTINUOUS
 90
9
 70
0
 10
11.0005195581
 20
-21.0384524298
 10
10.9974142955
 20
-16.3324644776
 10
10.9951308347
 20
-11.6670156001
 10
10.9936085276
 20
-7.0009492841
 10
10.9928473744
 20
-2.3338537184
 10
10.9928473749
 20
2.3338592858
 10
10.9936085288
 20
7.0009542947
 10
10.9951308359
 20
11.6670194972
 10
10.9974142963
 20
16.3324667046
  0
LINE
  5
2FA
100
AcDbEntity
  8
TRASH
100
AcDbLine
 62
7
  6
CONTINUOUS
 10
11.15
 20
21.8997711479
 11
11.15
 21
-21.8997711479
  0
LINE
  5
2FB
100
AcDbEntity
  8
TRASH
100
AcDbLine
 62
250
  6
CONTINUOUS
 10
10.9974142963
 20
16.3324667046
 11
11.0008094528
 21
21.1180599986
  0
LINE
  5
2FC
100
AcDbEntity
  8
TRASH
100
AcDbLine
 62
250
  6
CONTINUOUS
 10
11.0008094528
 20
21.1180599986
 11
11.0016657915
 21
21.2307077086
  0
LWPOLYLINE
  5
2FD
100
AcDbEntity
  8
TRASH
100
AcDbPolyline
 62
250
  6
CONTINUOUS
 90
3
 70
0
 10
11.0016657915
 20
21.2307077086
 10
11.0024942872
 20
21.2976955066
 10
11.0029753137
 20
21.3279754394
  0
LINE
  5
2FE
100
AcDbEntity
  8
0
100
AcDbLine
 62
7
  6
CONTINUOUS
 10
3.3
 20
-22.4
 11
3.2333672024
 21
-22.5
  0
LINE
  5
2FF
100
AcDbEntity
  8
0
100
AcDbLine
 62
7
  6
CONTINUOUS
 10
3.2333672024
 20
22.5
 11
3.3
 21
22.4
  0
LWPOLYLINE
  5
300
100
AcDbEntity
  8
0
100
AcDbPolyline
 62
7
  6
CONTINUOUS
 90
10
 70
0
 43
0.3500000006
 10
1.0714285848
 20
34.7500012207
 10
1.1428571477
 20
34.6071433868
 10
1.1428571477
 20
34.535712204
 10
1.0000000219
 20
34.392858902
 10
0.9285714591
 20
34.392858902
 10
0.8571428254
 20
34.464285553
 10
0.8571428254
 20
34.535712204
 10
0.9285714591
 20
34.6785700378
 10
1.0000000219
 20
34.7500012207
 10
1.0714285848
 20
34.7500012207
  0
LWPOLYLINE
  5
301
100
AcDbEntity
  8
0
100
AcDbPolyline
 62
7
  6
CONTINUOUS
 90
3
 70
0
 43
0.3500000006
 10
19.7571437073
 20
-0.8571427917
 10
19.7571437073
 20
-2.3571432495
 10
17.3999996452
 20
-1.7142852631
  0
LINE
  5
302
100
AcDbEntity
  8
TRASH
100
AcDbLine
 62
250
  6
CONTINUOUS
 10
-10.5005350625
 20
21.0183142309
 11
10.5005350625
 21
21.0183142309
  0
LWPOLYLINE
  5
303
100
AcDbEntity
  8
TRASH
100
AcDbPolyline
 62
7
  6
CONTINUOUS
 90
10
 70
0
 10
4.2275426698
 20
-23.3333596575
 10
4.1717709372
 20
-23.3677255716
 10
4.1143929866
 20
-23.3981882383
 10
4.0554088181
 20
-23.4247476575
 10
3.994556052
 20
-23.4474829393
 10
3.9320970679
 20
-23.4663149736
 10
3.8688190046
 20
-23.4810064299
 10
3.8049842417
 20
-23.491478198
 10
3.7403303995
 20
-23.497809388
 10
3.6748574782
 20
-23.5
  0
LINE
  5
304
100
AcDbEntity
  8
TRASH
100
AcDbLine
 62
250
  6
CONTINUOUS
 10
-10.5087981167
 20
21.9749071372
 11
10.5087981167
 21
21.9749071372
  0
LINE
  5
305
100
AcDbEntity
  8
TRASH
100
AcDbLine
 62
7
  6
CONTINUOUS
 10
-10.6503805997
 20
22.4
 11
-3.3
 21
22.4
  0
LINE
  5
306
100
AcDbEntity
  8
TRASH
100
AcDbLine
 62
7
  6
CONTINUOUS
 10
3.3
 20
22.4
 11
10.6503805997
 21
22.4
  0
LINE
  5
307
100
AcDbEntity
  8
TRASH
100
AcDbLine
 62
7
  6
CONTINUOUS
 10
3.4698202597
 20
22.5
 11
-3.4698202597
 21
22.5
  0
LWPOLYLINE
  5
308
100
AcDbEntity
  8
TRASH
100
AcDbPolyline
 62
250
  6
CONTINUOUS
 90
16
 70
0
 10
10.5005350626
 20
21.0183133038
 10
10.5522203773
 20
21.0181628131
 10
10.603351928
 20
21.0177887456
 10
10.6533818814
 20
21.0171951092
 10
10.7017742072
 20
21.0163882642
 10
10.7480104206
 20
21.0153768553
 10
10.7915951381
 20
21.0141717192
 10
10.8320613846
 20
21.0127857679
 10
10.8689755972
 20
21.0112338507
 10
10.9019422698
 20
21.0095325952
 10
10.9306081913
 20
21.0077002291
 10
10.9546662295
 20
21.0057563845
 10
10.9738586221
 20
21.0037218884
 10
10.9879797379
 20
21.0016185385
 10
10.9968782808
 20
20.9994688706
 10
11.00045891
 20
20.9972959167
  0
LWPOLYLINE
  5
309
100
AcDbEntity
  8
TRASH
100
AcDbPolyline
 62
250
  6
CONTINUOUS
 90
16
 70
0
 10
10.5087981167
 20
21.9749071372
 10
10.5610241351
 20
21.9721273713
 10
10.612678619
 20
21.9639137831
 10
10.6631962883
 20
21.9503562579
 10
10.7120243039
 20
21.9316031621
 10
10.7586283171
 20
21.9078597201
 10
10.8024983178
 20
21.8793857676
 10
10.8431542154
 20
21.846492909
 10
10.8801510926
 20
21.8095411067
 10
10.913084075
 20
21.7689347421
 10
10.9415927608
 20
21.7251181903
 10
10.9653651658
 20
21.6785709569
 10
10.9841411372
 20
21.6298024308
 10
10.9977152003
 20
21.5793463095
 10
11.0059388076
 20
21.5277547588
 10
11.0087219643
 20
21.4755923698
  0
LWPOLYLINE
  5
30A
100
AcDbEntity
  8
TRASH
100
AcDbPolyline
 62
7
  6
CONTINUOUS
 90
10
 70
0
 10
4.2275426698
 20
23.3333596575
 10
4.1717709372
 20
23.3677255716
 10
4.1143929866
 20
23.3981882383
 10
4.0554088181
 20
23.4247476575
 10
3.994556052
 20
23.4474829393
 10
3.9320970679
 20
23.4663149736
 10
3.8688190046
 20
23.4810064299
 10
3.8049842417
 20
23.491478198
 10
3.7403303995
 20
23.497809388
 10
3.6748574782
 20
23.5
  0
LWPOLYLINE
  5
30B
100
AcDbEntity
  8
TRASH
100
AcDbPolyline
 62
7
  6
CONTINUOUS
 90
10
 70
0
 10
-3.6748574782
 20
23.5
 10
-3.7403303995
 20
23.497809388
 10
-3.8049842417
 20
23.491478198
 10
-3.8688190046
 20
23.4810064299
 10
-3.9320970679
 20
23.4663149736
 10
-3.994556052
 20
23.4474829393
 10
-4.0554088181
 20
23.4247476575
 10
-4.1143929866
 20
23.3981882383
 10
-4.1717709372
 20
23.3677255716
 10
-4.2275426698
 20
23.3333596575
  0
LINE
  5
30C
100
AcDbEntity
  8
TRASH
100
AcDbLine
 62
7
  6
CONTINUOUS
 10
-3.6748574782
 20
23.5
 11
3.6748574782
 21
23.5
  0
LWPOLYLINE
  5
30D
100
AcDbEntity
  8
0
100
AcDbPolyline
 62
7
  6
CONTINUOUS
 90
7
 70
0
 43
0.3500000006
 10
-0.4285714127
 20
34.2500010681
 10
-1.9285714102
 20
34.2500010681
 10
-0.4285714127
 20
36.3928549805
 10
-0.4285714127
 20
36.8214284821
 10
-0.8571428254
 20
37.2500019836
 10
-1.5000000329
 20
37.2500019836
 10
-1.9285714102
 20
36.6071439972
  0
LWPOLYLINE
  5
30E
100
AcDbEntity
  8
0
100
AcDbPolyline
 62
7
  6
CONTINUOUS
 90
6
 70
0
 43
0.3500000006
 10
2.1428571696
 20
34.2500010681
 10
3.2142856836
 20
34.2500010681
 10
3.4285713015
 20
34.464285553
 10
3.4285713015
 20
35.5357125092
 10
3.0000000658
 20
35.9642860107
 10
2.5714285469
 20
35.9642860107
  0
LWPOLYLINE
  5
30F
100
AcDbEntity
  8
0
100
AcDbPolyline
 62
7
  6
CONTINUOUS
 90
7
 70
0
 43
0.3500000006
 10
-2.7857141647
 20
34.2500010681
 10
-4.2857143393
 20
34.2500010681
 10
-2.7857141647
 20
36.3928549805
 10
-2.7857141647
 20
36.8214284821
 10
-3.2142856836
 20
37.2500019836
 10
-3.8571428204
 20
37.2500019836
 10
-4.2857143393
 20
36.6071439972
  0
LWPOLYLINE
  5
310
100
AcDbEntity
  8
0
100
AcDbPolyline
 62
7
  6
CONTINUOUS
 90
10
 70
0
 43
0.3500000006
 10
-41.1876360626
 20
42.2499989777
 10
-40.3304935913
 20
43.107141449
 10
-40.1162091064
 20
43.9642839203
 10
-40.1162091064
 20
44.8214263916
 10
-40.544782608
 20
45.2499998932
 10
-41.1876360626
 20
45.2499998932
 10
-41.6162095642
 20
44.8214263916
 10
-41.6162095642
 20
43.9642839203
 10
-41.1876360626
 20
43.5357149506
 10
-40.2590669403
 20
43.5357149506
  0
LWPOLYLINE
  5
311
100
AcDbEntity
  8
0
100
AcDbPolyline
 62
7
  6
CONTINUOUS
 90
5
 70
0
 43
0.3500000006
 10
-42.9019255371
 20
43.9642839203
 10
-42.5447786865
 20
44.178572937
 10
-42.5447786865
 20
44.8214263916
 10
-42.9019255371
 20
45.2499998932
 10
-43.7590680084
 20
45.2499998932
  0
LWPOLYLINE
  5
312
100
AcDbEntity
  8
0
100
AcDbPolyline
 62
7
  6
CONTINUOUS
 90
5
 70
0
 43
0.3500000006
 10
-36.2233523941
 20
35.9642860107
 10
-35.8662100754
 20
36.1785704956
 10
-35.8662100754
 20
36.8214284821
 10
-36.2233523941
 20
37.2500019836
 10
-37.0804948654
 20
37.2500019836
  0
LWPOLYLINE
  5
313
100
AcDbEntity
  8
TRASH
100
AcDbPolyline
 62
250
  6
CONTINUOUS
 90
8
 70
0
 10
-57.9417500365
 20
21.9749071372
 10
-57.9425159642
 20
21.9721273713
 10
-57.942987141
 20
21.9639137831
 10
-57.9431584106
 20
21.9503562579
 10
-57.9430278987
 20
21.9316031621
 10
-57.9425970335
 20
21.9078597201
 10
-57.9418705304
 20
21.8793857676
 10
-57.9395655608
 20
21.8095411067
  0
LINE
  5
314
100
AcDbEntity
  8
TRASH
100
AcDbLine
 62
7
  6
CONTINUOUS
 10
-45.8304950166
 20
-23.0998904748
 11
-47.1517149926
 21
-23.1272645049
  0
LINE
  5
315
100
AcDbEntity
  8
TRASH
100
AcDbLine
 62
7
  6
CONTINUOUS
 10
-47.1517149926
 20
-23.1272645049
 11
-48.485078808
 21
-23.1539170037
  0
LINE
  5
316
100
AcDbEntity
  8
TRASH
100
AcDbLine
 62
7
  6
CONTINUOUS
 10
-48.485078808
 20
-23.1539170037
 11
-49.8304950166
 21
-23.1799085618
  0
LINE
  5
317
100
AcDbEntity
  8
TRASH
100
AcDbLine
 62
7
  6
CONTINUOUS
 10
-49.8304950166
 20
-23.5
 11
-45.8304950166
 21
-23.4301797403
  0
LINE
  5
318
100
AcDbEntity
  8
TRASH
100
AcDbLine
 62
250
  6
CONTINUOUS
 10
-49.8304950166
 20
-23.3333596575
 11
-45.8304950166
 21
-23.2631073618
  0
LINE
  5
319
100
AcDbEntity
  8
TRASH
100
AcDbLine
 62
7
  6
CONTINUOUS
 10
-47.5948236691
 20
-22.6434802059
 11
-49.8304950166
 21
-22.663166622
  0
LINE
  5
31A
100
AcDbEntity
  8
TRASH
100
AcDbLine
 62
7
  6
CONTINUOUS
 10
-45.8304950166
 20
-22.6298666026
 11
-47.5948236691
 21
-22.6434802059
  0
LINE
  5
31B
100
AcDbEntity
  8
TRASH
100
AcDbLine
 62
7
  6
CONTINUOUS
 10
-49.8304950166
 20
-22.4
 11
-57.9417500365
 21
-21.9749071372
  0
LINE
  5
31C
100
AcDbEntity
  8
TRASH
100
AcDbLine
 62
250
  6
CONTINUOUS
 10
-49.8304950166
 20
-21.8997711479
 11
-57.9243082616
 21
-21.4755923698
  0
LWPOLYLINE
  5
31D
100
AcDbEntity
  8
TRASH
100
AcDbPolyline
 62
250
  6
CONTINUOUS
 90
19
 70
0
 10
-57.9243082616
 20
-21.4755923698
 10
-57.96545586
 20
-21.4716869154
 10
-58.0056612607
 20
-21.4645713157
 10
-58.0449244636
 20
-21.4542455707
 10
-58.083511538
 20
-21.4405949624
 10
-58.1211564146
 20
-21.4237342087
 10
-58.1570608854
 20
-21.4040074642
 10
-58.1911732011
 20
-21.3813606241
 10
-58.2235451109
 20
-21.3558477932
 10
-58.253533655
 20
-21.3279754394
 10
-58.2810916457
 20
-21.2976955065
 10
-58.3062662707
 20
-21.2650560508
 10
-58.3285561324
 20
-21.2307077085
 10
-58.347905734
 20
-21.194598336
 10
-58.3643705724
 20
-21.1567800769
 10
-58.3776157407
 20
-21.1180599987
 10
-58.3875296034
 20
-21.0787071238
 10
-58.394223796
 20
-21.0384524298
 10
-58.3976983186
 20
-20.9972959167
  0
LWPOLYLINE
  5
31E
100
AcDbEntity
  8
TRASH
100
AcDbPolyline
 62
250
  6
CONTINUOUS
 90
7
 70
0
 10
-57.9417500365
 20
-21.9749071372
 10
-57.9425159662
 20
-21.9721272741
 10
-57.9429871349
 20
-21.9639134185
 10
-57.9431583879
 20
-21.9503554931
 10
-57.9430278524
 20
-21.9316018984
 10
-57.9425969588
 20
-21.9078579019
 10
-57.9418704257
 20
-21.8793834041
  0
LWPOLYLINE
  5
31F
100
AcDbEntity
  8
TRASH
100
AcDbPolyline
 62
250
  6
CONTINUOUS
 90
19
 70
0
 10
-58.3976983186
 20
20.9972959167
 10
-58.3942237959
 20
21.0384524298
 10
-58.3875296033
 20
21.0787071238
 10
-58.3776157406
 20
21.1180599986
 10
-58.3643705723
 20
21.1567800769
 10
-58.3479057341
 20
21.194598336
 10
-58.3285561325
 20
21.2307077086
 10
-58.3062662708
 20
21.2650560509
 10
-58.2810916458
 20
21.2976955066
 10
-58.253533655
 20
21.3279754394
 10
-58.2235451109
 20
21.3558477932
 10
-58.191173201
 20
21.381360624
 10
-58.1570608853
 20
21.404007464
 10
-58.1211564145
 20
21.4237342087
 10
-58.083511538
 20
21.4405949624
 10
-58.0449244636
 20
21.4542455709
 10
-58.0056612607
 20
21.4645713159
 10
-57.9654558601
 20
21.4716869155
 10
-57.9243082616
 20
21.4755923698
  0
LINE
  5
320
100
AcDbEntity
  8
RACCORDO
100
AcDbLine
 62
7
  6
CONTINUOUS
 10
-41.8596402186
 20
-21.1306884717
 11
-45.6339854978
 21
-21.1965699136
  0
LINE
  5
321
100
AcDbEntity
  8
RACCORDO
100
AcDbLine
 62
250
  6
CONTINUOUS
 10
-41.8595640566
 20
-21.0077172818
 11
-45.6339854898
 21
-21.0738952235
  0
LINE
  5
322
100
AcDbEntity
  8
TRASH
100
AcDbLine
 62
7
  6
CONTINUOUS
 10
-43.6809995327
 20
-22.2
 11
-44.2304950166
 21
-22.2
  0
LWPOLYLINE
  5
323
100
AcDbEntity
  8
TRASH
100
AcDbPolyline
 62
250
  6
CONTINUOUS
 90
10
 70
0
 10
-58.3976983186
 20
-20.9972959167
 10
-58.572124171
 20
-16.3324644776
 10
-58.7029435547
 20
-11.6670156001
 10
-58.7901564698
 20
-7.0009492841
 10
-58.833762909
 20
-2.3338537184
 10
-58.8337628794
 20
2.3338592858
 10
-58.7901564034
 20
7.0009542947
 10
-58.7029434883
 20
11.6670194972
 10
-58.5721241267
 20
16.3324667046
 10
-58.3976983186
 20
20.9972959167
  0
LINE
  5
324
100
AcDbEntity
  8
RACCORDO
100
AcDbLine
 62
7
  6
CONTINUOUS
 10
-59.2815306205
 20
-6.9972850858
 11
-59.2812291601
 21
-7.0187911603
  0
LINE
  5
325
100
AcDbEntity
  8
RACCORDO
100
AcDbLine
 62
7
  6
CONTINUOUS
 10
-59.2812291601
 20
7.0187911586
 11
-59.2815306205
 21
6.9972850841
  0
LWPOLYLINE
  5
326
100
AcDbEntity
  8
RACCORDO
100
AcDbPolyline
 62
250
  6
CONTINUOUS
 90
15
 70
0
 10
-39.7056423293
 20
-19.2432045692
 10
-39.7635756722
 20
-19.2485330045
 10
-39.821519762
 20
-19.2568532209
 10
-39.8795886834
 20
-19.2680991024
 10
-39.9376683516
 20
-19.2823296814
 10
-39.9954165119
 20
-19.2997287308
 10
-40.0529415166
 20
-19.3203332922
 10
-40.1101350134
 20
-19.3440901122
 10
-40.1663296915
 20
-19.3710447026
 10
-40.2215210013
 20
-19.401235134
 10
-40.2757134924
 20
-19.4345973977
 10
-40.3282535023
 20
-19.4710216556
 10
-40.3789231436
 20
-19.510459997
 10
-40.4279403038
 20
-19.5529260186
 10
-40.4753049828
 20
-19.598400205
  0
LINE
  5
327
100
AcDbEntity
  8
TRASH
100
AcDbLine
 62
250
  6
CONTINUOUS
 10
-58.8885301418
 20
-21.0183142305
 11
-58.8858554739
 21
-21.018163739
  0
LINE
  5
328
100
AcDbEntity
  8
TRASH
100
AcDbLine
 62
250
  6
CONTINUOUS
 10
-58.8858554739
 20
-21.018163739
 11
-58.549971293
 21
-21.0037221554
  0
LWPOLYLINE
  5
329
100
AcDbEntity
  8
TRASH
100
AcDbPolyline
 62
250
  6
CONTINUOUS
 90
3
 70
0
 10
-58.549971293
 20
-21.0037221554
 10
-58.4492841221
 20
-20.9994689572
 10
-58.3976983186
 20
-20.9972959167
  0
LINE
  5
32A
100
AcDbEntity
  8
RACCORDO
100
AcDbLine
 62
250
  6
CONTINUOUS
 10
-39.6477197331
 20
-19.2408695706
 11
-39.7056423293
 21
-19.2432045692
  0
LINE
  5
32B
100
AcDbEntity
  8
RACCORDO
100
AcDbLine
 62
7
  6
CONTINUOUS
 10
-22.3217688133
 20
-19.0926385408
 11
-39.6477197331
 21
-19.3950641391
  0
LINE
  5
32C
100
AcDbEntity
  8
RACCORDO
100
AcDbLine
 62
250
  6
CONTINUOUS
 10
-22.3217688133
 20
-18.9367180248
 11
-39.6477197331
 21
-19.2408695706
  0
LINE
  5
32D
100
AcDbEntity
  8
TRASH
100
AcDbLine
 62
250
  6
CONTINUOUS
 10
-57.9319610086
 20
21.6298024308
 11
-57.9243082616
 21
21.4755923698
  0
LINE
  5
32E
100
AcDbEntity
  8
TRASH
100
AcDbLine
 62
250
  6
CONTINUOUS
 10
-57.9362136114
 20
21.7251181903
 11
-57.9319610086
 21
21.6298024308
  0
LINE
  5
32F
100
AcDbEntity
  8
TRASH
100
AcDbLine
 62
250
  6
CONTINUOUS
 10
-57.9395655608
 20
21.8095411067
 11
-57.9362136114
 21
21.7251181903
  0
LINE
  5
330
100
AcDbEntity
  8
TRASH
100
AcDbLine
 62
250
  6
CONTINUOUS
 10
-57.9418704257
 20
-21.8793834041
 11
-57.9395654028
 21
-21.8095378762
  0
LINE
  5
331
100
AcDbEntity
  8
TRASH
100
AcDbLine
 62
250
  6
CONTINUOUS
 10
-57.9395654028
 20
-21.8095378762
 11
-57.9362134292
 21
-21.7251147213
  0
LINE
  5
332
100
AcDbEntity
  8
TRASH
100
AcDbLine
 62
250
  6
CONTINUOUS
 10
-57.9362134292
 20
-21.7251147213
 11
-57.9295535306
 21
-21.5793442013
  0
LINE
  5
333
100
AcDbEntity
  8
TRASH
100
AcDbLine
 62
250
  6
CONTINUOUS
 10
-57.9295535306
 20
-21.5793442013
 11
-57.9243082616
 21
-21.4755923698
  0
LINE
  5
334
100
AcDbEntity
  8
DRAFT
100
AcDbLine
 62
7
  6
CONTINUOUS
 10
-21.5848581182
 20
-16.845712392
 11
-20.076131915
 21
-16.8193774782
  0
LWPOLYLINE
  5
335
100
AcDbEntity
  8
RACCORDO
100
AcDbPolyline
 62
250
  6
CONTINUOUS
 90
3
 70
0
 10
-22.3217688133
 20
-17.2019339448
 10
-45.2624653034
 20
-17.3333780501
 10
-49.8304950166
 20
-17.3594295692
  0
LINE
  5
336
100
AcDbEntity
  8
0
100
AcDbLine
 62
7
  6
CONTINUOUS
 10
-21.8304950166
 20
-16.7
 11
-21.6304950166
 21
-16.7
  0
LWPOLYLINE
  5
337
100
AcDbEntity
  8
RACCORDO
100
AcDbPolyline
 62
250
  6
CONTINUOUS
 90
3
 70
0
 10
-22.3217688133
 20
-15.9519762322
 10
-40.6877323653
 20
-16.0641231154
 10
-49.8304950166
 20
-16.119659166
  0
LINE
  5
338
100
AcDbEntity
  8
RACCORDO
100
AcDbLine
 62
250
  6
CONTINUOUS
 10
-21.8304950166
 20
-15.9519762322
 11
-22.3217688133
 21
-15.9519762314
  0
LINE
  5
339
100
AcDbEntity
  8
0
100
AcDbLine
 62
7
  6
CONTINUOUS
 10
-21.8304950166
 20
-15.693211
 11
-21.6304950166
 21
-15.693211
  0
LINE
  5
33A
100
AcDbEntity
  8
0
100
AcDbLine
 62
7
  6
CONTINUOUS
 10
-21.8304950166
 20
-14.6822600513
 11
-21.6304950166
 21
-14.6822600513
  0
LINE
  5
33B
100
AcDbEntity
  8
0
100
AcDbLine
 62
7
  6
CONTINUOUS
 10
-21.8304950166
 20
-14.5999676142
 11
-21.6304950166
 21
-14.5999676142
  0
LINE
  5
33C
100
AcDbEntity
  8
RACCORDO
100
AcDbLine
 62
250
  6
CONTINUOUS
 10
-19.8304950166
 20
-14.1
 11
-21.6304950166
 21
-14.099999998
  0
LWPOLYLINE
  5
33D
100
AcDbEntity
  8
0
100
AcDbPolyline
 62
7
  6
CONTINUOUS
 90
3
 70
0
 43
0.3500000006
 10
-38.5447819977
 20
42.5357146454
 10
-38.6162086487
 20
42.3214301605
 10
-38.7590664825
 20
42.0357144928
  0
LINE
  5
33E
100
AcDbEntity
  8
0
100
AcDbLine
 62
7
  6
CONTINUOUS
 10
-21.8304950166
 20
-13.1025503981
 11
-21.6304950166
 21
-13.1025503981
  0
LINE
  5
33F
100
AcDbEntity
  8
TRASH
100
AcDbLine
 62
7
  6
CONTINUOUS
 10
-49.8304950166
 20
-22.7421305417
 11
-49.8304950166
 21
-23.5
  0
LINE
  5
340
100
AcDbEntity
  8
TRASH
100
AcDbLine
 62
7
  6
CONTINUOUS
 10
-49.8304950166
 20
-22.663166622
 11
-49.8304950166
 21
23.5
  0
LINE
  5
341
100
AcDbEntity
  8
RACCORDO
100
AcDbLine
 62
250
  6
CONTINUOUS
 10
-19.8304950166
 20
-12.0
 11
-21.6304950166
 21
-12.0
  0
LINE
  5
342
100
AcDbEntity
  8
0
100
AcDbLine
 62
7
  6
CONTINUOUS
 10
-21.8304950166
 20
-11.2584702029
 11
-21.6304950166
 21
-11.2584702029
  0
LINE
  5
343
100
AcDbEntity
  8
0
100
AcDbLine
 62
7
  6
CONTINUOUS
 10
-21.8304950166
 20
-9.7817812422
 11
-21.6304950166
 21
-9.7817812422
  0
LINE
  5
344
100
AcDbEntity
  8
0
100
AcDbLine
 62
7
  6
CONTINUOUS
 10
-21.8304950166
 20
-9.6191575609
 11
-21.6304950166
 21
-9.6191575609
  0
LINE
  5
345
100
AcDbEntity
  8
0
100
AcDbLine
 62
7
  6
CONTINUOUS
 10
-21.8304950166
 20
-9.6000000018
 11
-21.6304950166
 21
-9.6000000018
  0
LINE
  5
346
100
AcDbEntity
  8
DRAFT
100
AcDbLine
 62
7
  6
CONTINUOUS
 10
-21.5848581182
 20
-9.254287608
 11
-20.076131915
 21
-9.2806225218
  0
LWPOLYLINE
  5
347
100
AcDbEntity
  8
RACCORDO
100
AcDbPolyline
 62
250
  6
CONTINUOUS
 90
5
 70
0
 10
-45.6339854978
 20
-21.1965699136
 10
-45.6340287006
 20
-21.1963004832
 10
-45.6340664281
 20
-21.1954612554
 10
-45.6340995942
 20
-21.1940079082
 10
-45.6341304745
 20
-21.1918942849
  0
LINE
  5
348
100
AcDbEntity
  8
RACCORDO
100
AcDbLine
 62
250
  6
CONTINUOUS
 10
-45.6341304745
 20
-21.1918942849
 11
-45.6341812401
 21
-21.1855166078
  0
LINE
  5
349
100
AcDbEntity
  8
RACCORDO
100
AcDbLine
 62
250
  6
CONTINUOUS
 10
-45.6339854978
 20
21.0738952237
 11
-45.6342218189
 21
21.1659396677
  0
LINE
  5
34A
100
AcDbEntity
  8
RACCORDO
100
AcDbLine
 62
250
  6
CONTINUOUS
 10
-45.6341812401
 20
-21.1855166078
 11
-45.634220809
 21
-21.1631016724
  0
LINE
  5
34B
100
AcDbEntity
  8
RACCORDO
100
AcDbLine
 62
7
  6
CONTINUOUS
 10
-45.8304950166
 20
-22.6298666026
 11
-45.8304950166
 21
-21.3965394526
  0
LINE
  5
34C
100
AcDbEntity
  8
TRASH
100
AcDbLine
 62
7
  6
CONTINUOUS
 10
-45.8304950166
 20
-22.6016383059
 11
-45.8304950166
 21
-23.4301797403
  0
LINE
  5
34D
100
AcDbEntity
  8
RACCORDO
100
AcDbLine
 62
7
  6
CONTINUOUS
 10
-45.8304950166
 20
21.3965394526
 11
-45.8304950166
 21
22.6298666026
  0
LINE
  5
34E
100
AcDbEntity
  8
TRASH
100
AcDbLine
 62
7
  6
CONTINUOUS
 10
-45.8304950166
 20
22.6298666026
 11
-45.8304950166
 21
23.4301797403
  0
LINE
  5
34F
100
AcDbEntity
  8
RACCORDO
100
AcDbLine
 62
250
  6
CONTINUOUS
 10
-45.6342218189
 20
21.1659396677
 11
-45.6341817658
 21
21.1855363252
  0
LINE
  5
350
100
AcDbEntity
  8
RACCORDO
100
AcDbLine
 62
250
  6
CONTINUOUS
 10
-45.634220809
 20
-21.1631016724
 11
-45.6339854978
 21
-21.0738952237
  0
LWPOLYLINE
  5
351
100
AcDbEntity
  8
RACCORDO
100
AcDbPolyline
 62
250
  6
CONTINUOUS
 90
5
 70
0
 10
-45.6341817658
 20
21.1855363252
 10
-45.6341185855
 20
21.1928402372
 10
-45.634081962
 20
21.1949653584
 10
-45.6340381425
 20
21.1961822964
 10
-45.6339854978
 20
21.1965699136
  0
LINE
  5
352
100
AcDbEntity
  8
0
100
AcDbLine
 62
7
  6
CONTINUOUS
 10
-21.8304950166
 20
-6.8576170774
 11
-21.6504950166
 21
-6.8576170774
  0
LINE
  5
353
100
AcDbEntity
  8
0
100
AcDbLine
 62
250
  6
CONTINUOUS
 10
-21.8304950166
 20
-6.2918948494
 11
-21.6504950166
 21
-6.2918948494
  0
LINE
  5
354
100
AcDbEntity
  8
TRASH
100
AcDbLine
 62
7
  6
CONTINUOUS
 10
-44.2304950166
 20
22.2
 11
-44.2304950166
 21
21.1720718961
  0
LINE
  5
355
100
AcDbEntity
  8
TRASH
100
AcDbLine
 62
7
  6
CONTINUOUS
 10
-44.2304950166
 20
-22.2
 11
-44.2304950166
 21
-21.1720718961
  0
LINE
  5
356
100
AcDbEntity
  8
0
100
AcDbLine
 62
7
  6
CONTINUOUS
 10
-21.8304950166
 20
-5.7941669846
 11
-21.7504950166
 21
-5.7941669846
  0
LINE
  5
357
100
AcDbEntity
  8
0
100
AcDbLine
 62
7
  6
CONTINUOUS
 10
-21.7504950166
 20
-5.6756639214
 11
-21.6504950166
 21
-5.6756639214
  0
LINE
  5
358
100
AcDbEntity
  8
0
100
AcDbLine
 62
7
  6
CONTINUOUS
 10
-21.8304950166
 20
-5.6691669846
 11
-21.7504950166
 21
-5.6691669846
  0
LINE
  5
359
100
AcDbEntity
  8
0
100
AcDbLine
 62
7
  6
CONTINUOUS
 10
-21.8304950166
 20
-5.5858330154
 11
-21.7504950166
 21
-5.5858330154
  0
LINE
  5
35A
100
AcDbEntity
  8
0
100
AcDbLine
 62
7
  6
CONTINUOUS
 10
-21.7504950166
 20
-5.5644741674
 11
-21.6504950166
 21
-5.5644741674
  0
LINE
  5
35B
100
AcDbEntity
  8
0
100
AcDbLine
 62
7
  6
CONTINUOUS
 10
-21.7504950166
 20
-5.2464024613
 11
-21.6504950166
 21
-5.2464024613
  0
LINE
  5
35C
100
AcDbEntity
  8
0
100
AcDbLine
 62
7
  6
CONTINUOUS
 10
-21.8304950166
 20
-5.1691669846
 11
-21.7504950166
 21
-5.1691669846
  0
LINE
  5
35D
100
AcDbEntity
  8
0
100
AcDbLine
 62
7
  6
CONTINUOUS
 10
-21.8304950166
 20
-5.0858330154
 11
-21.7504950166
 21
-5.0858330154
  0
LINE
  5
35E
100
AcDbEntity
  8
0
100
AcDbLine
 62
7
  6
CONTINUOUS
 10
-21.8304950166
 20
-5.056105338
 11
-21.6504950166
 21
-5.056105338
  0
LINE
  5
35F
100
AcDbEntity
  8
0
100
AcDbLine
 62
250
  6
CONTINUOUS
 10
-21.8304950166
 20
-4.9230899873
 11
-21.6504950166
 21
-4.9230899873
  0
LINE
  5
360
100
AcDbEntity
  8
0
100
AcDbLine
 62
250
  6
CONTINUOUS
 10
-21.8304950166
 20
-4.7726809606
 11
-21.6504950166
 21
-4.7726809606
  0
LINE
  5
361
100
AcDbEntity
  8
0
100
AcDbLine
 62
250
  6
CONTINUOUS
 10
-21.8304950166
 20
-4.6548842168
 11
-21.6504950166
 21
-4.6548842168
  0
LINE
  5
362
100
AcDbEntity
  8
0
100
AcDbLine
 62
250
  6
CONTINUOUS
 10
-21.8304950166
 20
-4.4778089942
 11
-21.6504950166
 21
-4.4778089942
  0
LINE
  5
363
100
AcDbEntity
  8
ASSI
100
AcDbLine
 62
7
  6
CONTINUOUS
 10
-21.8304950166
 20
-4.369462
 11
-21.7304950166
 21
-4.369462
  0
LINE
  5
364
100
AcDbEntity
  8
0
100
AcDbLine
 62
250
  6
CONTINUOUS
 10
-21.7304950166
 20
-4.2764329538
 11
-21.6504950166
 21
-4.2764329538
  0
LINE
  5
365
100
AcDbEntity
  8
0
100
AcDbLine
 62
250
  6
CONTINUOUS
 10
-21.7304950166
 20
-4.1526264772
 11
-21.6504950166
 21
-4.1526264772
  0
LINE
  5
366
100
AcDbEntity
  8
0
100
AcDbLine
 62
7
  6
CONTINUOUS
 10
-21.7304950166
 20
-4.0093793496
 11
-21.6504950166
 21
-4.0093793496
  0
LINE
  5
367
100
AcDbEntity
  8
ASSI
100
AcDbLine
 62
7
  6
CONTINUOUS
 10
-21.8304950166
 20
-3.907643
 11
-21.7304950166
 21
-3.907643
  0
LINE
  5
368
100
AcDbEntity
  8
0
100
AcDbLine
 62
7
  6
CONTINUOUS
 10
-21.7304950166
 20
-3.9039907083
 11
-21.6504950166
 21
-3.9039907083
  0
LINE
  5
369
100
AcDbEntity
  8
RACCORDO
100
AcDbLine
 62
250
  6
CONTINUOUS
 10
-41.8591149143
 20
-21.074714627
 11
-41.8596402186
 21
-21.0077183978
  0
LINE
  5
36A
100
AcDbEntity
  8
RACCORDO
100
AcDbLine
 62
250
  6
CONTINUOUS
 10
-41.8590250534
 20
-21.0915909028
 11
-41.8591149143
 21
-21.074714627
  0
LWPOLYLINE
  5
36B
100
AcDbEntity
  8
RACCORDO
100
AcDbPolyline
 62
250
  6
CONTINUOUS
 90
4
 70
0
 10
-41.8591151033
 20
21.1164956603
 10
-41.8590250533
 20
21.0915909028
 10
-41.8591149143
 20
21.074714627
 10
-41.8596402186
 20
21.0077183978
  0
LINE
  5
36C
100
AcDbEntity
  8
ASSI
100
AcDbLine
 62
7
  6
CONTINUOUS
 10
-21.8304950166
 20
-3.496757
 11
-21.7304950166
 21
-3.496757
  0
LINE
  5
36D
100
AcDbEntity
  8
0
100
AcDbLine
 62
7
  6
CONTINUOUS
 10
-21.7304950166
 20
-3.3166784868
 11
-21.6504950166
 21
-3.3166784868
  0
LINE
  5
36E
100
AcDbEntity
  8
ASSI
100
AcDbLine
 62
7
  6
CONTINUOUS
 10
-21.8304950166
 20
-3.138858
 11
-21.7304950166
 21
-3.138858
  0
LINE
  5
36F
100
AcDbEntity
  8
0
100
AcDbLine
 62
7
  6
CONTINUOUS
 10
-21.7304950166
 20
-3.1130630597
 11
-21.6504950166
 21
-3.1130630597
  0
LINE
  5
370
100
AcDbEntity
  8
ASSI
100
AcDbLine
 62
7
  6
CONTINUOUS
 10
-21.8304950166
 20
-2.728837
 11
-21.7304950166
 21
-2.728837
  0
LINE
  5
371
100
AcDbEntity
  8
0
100
AcDbLine
 62
7
  6
CONTINUOUS
 10
-21.8304950166
 20
-2.5318898782
 11
-21.6504950166
 21
-2.5318898782
  0
LINE
  5
372
100
AcDbEntity
  8
ASSI
100
AcDbLine
 62
7
  6
CONTINUOUS
 10
-21.8304950166
 20
-2.455495
 11
-21.7304950166
 21
-2.455495
  0
LINE
  5
373
100
AcDbEntity
  8
0
100
AcDbLine
 62
7
  6
CONTINUOUS
 10
-21.7304950166
 20
-2.4224078283
 11
-21.6504950166
 21
-2.4224078283
  0
LINE
  5
374
100
AcDbEntity
  8
0
100
AcDbLine
 62
250
  6
CONTINUOUS
 10
-21.7304950166
 20
-2.3677187313
 11
-21.6504950166
 21
-2.3677187313
  0
LINE
  5
375
100
AcDbEntity
  8
0
100
AcDbLine
 62
250
  6
CONTINUOUS
 10
-21.7304950166
 20
-2.2054915053
 11
-21.6504950166
 21
-2.2054915053
  0
LINE
  5
376
100
AcDbEntity
  8
ASSI
100
AcDbLine
 62
7
  6
CONTINUOUS
 10
-21.8304950166
 20
-2.045475
 11
-21.7304950166
 21
-2.045475
  0
LINE
  5
377
100
AcDbEntity
  8
0
100
AcDbLine
 62
250
  6
CONTINUOUS
 10
-21.7304950166
 20
-1.9333223924
 11
-21.6504950166
 21
-1.9333223924
  0
LINE
  5
378
100
AcDbEntity
  8
ASSI
100
AcDbLine
 62
7
  6
CONTINUOUS
 10
-21.8304950166
 20
-1.916038
 11
-21.7304950166
 21
-1.916038
  0
LINE
  5
379
100
AcDbEntity
  8
RACCORDO
100
AcDbLine
 62
250
  6
CONTINUOUS
 10
-39.6470429876
 20
-19.3244056028
 11
-39.6477198082
 21
-19.2408665386
  0
LINE
  5
37A
100
AcDbEntity
  8
RACCORDO
100
AcDbLine
 62
250
  6
CONTINUOUS
 10
-39.6469672658
 20
19.3632278846
 11
-39.6470434269
 21
19.3244067438
  0
LINE
  5
37B
100
AcDbEntity
  8
RACCORDO
100
AcDbLine
 62
250
  6
CONTINUOUS
 10
-39.6470434269
 20
19.3244067438
 11
-39.6477197331
 21
19.2408695706
  0
LWPOLYLINE
  5
37C
100
AcDbEntity
  8
RACCORDO
100
AcDbPolyline
 62
7
  6
CONTINUOUS
 90
3
 70
0
 10
-45.8269627317
 20
-21.3591170407
 10
-45.8227697638
 20
-21.3413939131
 10
-45.8171575261
 20
-21.3234660937
  0
LINE
  5
37D
100
AcDbEntity
  8
0
100
AcDbLine
 62
250
  6
CONTINUOUS
 10
-21.7304950166
 20
-1.5922215121
 11
-21.6504950166
 21
-1.5922215121
  0
LINE
  5
37E
100
AcDbEntity
  8
0
100
AcDbLine
 62
7
  6
CONTINUOUS
 10
-21.7304950166
 20
-1.4442362413
 11
-21.6504950166
 21
-1.4442362413
  0
LINE
  5
37F
100
AcDbEntity
  8
0
100
AcDbLine
 62
7
  6
CONTINUOUS
 10
-21.7304950166
 20
-1.2733630762
 11
-21.6504950166
 21
-1.2733630762
  0
LINE
  5
380
100
AcDbEntity
  8
ASSI
100
AcDbLine
 62
7
  6
CONTINUOUS
 10
-21.8304950166
 20
-1.268489
 11
-21.7304950166
 21
-1.268489
  0
LINE
  5
381
100
AcDbEntity
  8
0
100
AcDbLine
 62
250
  6
CONTINUOUS
 10
-21.7304950166
 20
-1.1550771188
 11
-21.6504950166
 21
-1.1550771188
  0
LINE
  5
382
100
AcDbEntity
  8
ASSI
100
AcDbLine
 62
7
  6
CONTINUOUS
 10
-21.8304950166
 20
-1.139047
 11
-21.7304950166
 21
-1.139047
  0
LINE
  5
383
100
AcDbEntity
  8
0
100
AcDbLine
 62
250
  6
CONTINUOUS
 10
-21.7304950166
 20
-0.7607435808
 11
-21.6504950166
 21
-0.7607435808
  0
LINE
  5
384
100
AcDbEntity
  8
ASSI
100
AcDbLine
 62
7
  6
CONTINUOUS
 10
-21.8304950166
 20
-0.729031
 11
-21.7304950166
 21
-0.729031
  0
LINE
  5
385
100
AcDbEntity
  8
ASSI
100
AcDbLine
 62
7
  6
CONTINUOUS
 10
-21.8304950166
 20
-0.455689
 11
-21.7304950166
 21
-0.455689
  0
LINE
  5
386
100
AcDbEntity
  8
0
100
AcDbLine
 62
250
  6
CONTINUOUS
 10
-21.7304950166
 20
-0.4259053002
 11
-21.6504950166
 21
-0.4259053002
  0
LINE
  5
387
100
AcDbEntity
  8
0
100
AcDbLine
 62
7
  6
CONTINUOUS
 10
-21.7304950166
 20
-0.2788200006
 11
-21.6504950166
 21
-0.2788200006
  0
LINE
  5
388
100
AcDbEntity
  8
0
100
AcDbLine
 62
7
  6
CONTINUOUS
 10
-21.7304950166
 20
-0.0813439712
 11
-21.6504950166
 21
-0.0813439712
  0
LINE
  5
389
100
AcDbEntity
  8
ASSI
100
AcDbLine
 62
7
  6
CONTINUOUS
 10
-21.8304950166
 20
-0.045674
 11
-21.7304950166
 21
-0.045674
  0
LWPOLYLINE
  5
38A
100
AcDbEntity
  8
RACCORDO
100
AcDbPolyline
 62
250
  6
CONTINUOUS
 90
5
 70
0
 10
-41.8596402186
 20
-21.1306884717
 10
-41.8593617172
 20
-21.1290921506
 10
-41.8591950047
 20
-21.1243465294
 10
-41.8591151033
 20
-21.1164956603
 10
-41.8590250534
 20
-21.0915909028
  0
LWPOLYLINE
  5
38B
100
AcDbEntity
  8
RACCORDO
100
AcDbPolyline
 62
7
  6
CONTINUOUS
 90
13
 70
0
 10
-45.8171575261
 20
-21.3234660937
 10
-45.8101260186
 20
-21.3053330686
 10
-45.8016155022
 20
-21.2869779731
 10
-45.7916857159
 20
-21.2684165983
 10
-45.7805158776
 20
-21.2496975693
 10
-45.7680845735
 20
-21.2308342423
 10
-45.7544132172
 20
-21.2118125643
 10
-45.7397452675
 20
-21.1926402138
 10
-45.7240622673
 20
-21.1733394756
 10
-45.7073826736
 20
-21.1538874004
 10
-45.690005316
 20
-21.1342235792
 10
-45.6720298045
 20
-21.1143273589
 10
-45.6533565291
 20
-21.0942181133
  0
LINE
  5
38C
100
AcDbEntity
  8
ASSI
100
AcDbLine
 62
7
  6
CONTINUOUS
 10
-21.8304950166
 20
0.341976
 11
-21.7304950166
 21
0.341976
  0
LINE
  5
38D
100
AcDbEntity
  8
ASSI
100
AcDbLine
 62
7
  6
CONTINUOUS
 10
-21.8304950166
 20
0.751981
 11
-21.7304950166
 21
0.751981
  0
LINE
  5
38E
100
AcDbEntity
  8
0
100
AcDbLine
 62
7
  6
CONTINUOUS
 10
-21.7304950166
 20
0.9101295844
 11
-21.6504950166
 21
0.9101295844
  0
LINE
  5
38F
100
AcDbEntity
  8
ASSI
100
AcDbLine
 62
7
  6
CONTINUOUS
 10
-21.8304950166
 20
1.139626
 11
-21.7304950166
 21
1.139626
  0
LINE
  5
390
100
AcDbEntity
  8
ASSI
100
AcDbLine
 62
7
  6
CONTINUOUS
 10
-21.8304950166
 20
1.549641
 11
-21.7304950166
 21
1.549641
  0
LINE
  5
391
100
AcDbEntity
  8
0
100
AcDbLine
 62
7
  6
CONTINUOUS
 10
-21.7304950166
 20
1.5526942387
 11
-21.6504950166
 21
1.5526942387
  0
LINE
  5
392
100
AcDbEntity
  8
0
100
AcDbLine
 62
7
  6
CONTINUOUS
 10
-21.8304950166
 20
1.7788198367
 11
-21.6504950166
 21
1.7788198367
  0
LINE
  5
393
100
AcDbEntity
  8
0
100
AcDbLine
 62
7
  6
CONTINUOUS
 10
-21.7304950166
 20
1.9537856951
 11
-21.6504950166
 21
1.9537856951
  0
LINE
  5
394
100
AcDbEntity
  8
ASSI
100
AcDbLine
 62
7
  6
CONTINUOUS
 10
-21.8304950166
 20
1.959646
 11
-21.7304950166
 21
1.959646
  0
LWPOLYLINE
  5
395
100
AcDbEntity
  8
RACCORDO
100
AcDbPolyline
 62
250
  6
CONTINUOUS
 90
4
 70
0
 10
-41.8596402186
 20
21.1306884717
 10
-41.8593617172
 20
21.1290921506
 10
-41.8591950047
 20
21.1243465294
 10
-41.8591151033
 20
21.1164956603
  0
LWPOLYLINE
  5
396
100
AcDbEntity
  8
RACCORDO
100
AcDbPolyline
 62
250
  6
CONTINUOUS
 90
6
 70
0
 10
-39.6477197141
 20
-19.3950652145
 10
-39.6474209853
 20
-19.3930507626
 10
-39.6471948045
 20
-19.3870355212
 10
-39.6470429941
 20
-19.3770678238
 10
-39.6469667787
 20
-19.3632277629
 10
-39.6470429876
 20
-19.3244056028
  0
LINE
  5
397
100
AcDbEntity
  8
ASSI
100
AcDbLine
 62
7
  6
CONTINUOUS
 10
-21.8304950166
 20
2.369662
 11
-21.7304950166
 21
2.369662
  0
LINE
  5
398
100
AcDbEntity
  8
0
100
AcDbLine
 62
7
  6
CONTINUOUS
 10
-21.8304950166
 20
2.5810025707
 11
-21.6504950166
 21
2.5810025707
  0
LINE
  5
399
100
AcDbEntity
  8
ASSI
100
AcDbLine
 62
7
  6
CONTINUOUS
 10
-21.8304950166
 20
2.642998
 11
-21.7304950166
 21
2.642998
  0
LINE
  5
39A
100
AcDbEntity
  8
0
100
AcDbLine
 62
7
  6
CONTINUOUS
 10
-21.7304950166
 20
2.745736517
 11
-21.6504950166
 21
2.745736517
  0
LINE
  5
39B
100
AcDbEntity
  8
0
100
AcDbLine
 62
7
  6
CONTINUOUS
 10
-21.7304950166
 20
2.9565141574
 11
-21.6504950166
 21
2.9565141574
  0
LINE
  5
39C
100
AcDbEntity
  8
0
100
AcDbLine
 62
7
  6
CONTINUOUS
 10
-21.7304950166
 20
3.0496247187
 11
-21.6504950166
 21
3.0496247187
  0
LINE
  5
39D
100
AcDbEntity
  8
0
100
AcDbLine
 62
250
  6
CONTINUOUS
 10
-21.7304950166
 20
3.111016196
 11
-21.6504950166
 21
3.111016196
  0
LINE
  5
39E
100
AcDbEntity
  8
0
100
AcDbLine
 62
250
  6
CONTINUOUS
 10
-21.7304950166
 20
3.2779337226
 11
-21.6504950166
 21
3.2779337226
  0
LINE
  5
39F
100
AcDbEntity
  8
ASSI
100
AcDbLine
 62
7
  6
CONTINUOUS
 10
-21.8304950166
 20
3.301218
 11
-21.7304950166
 21
3.301218
  0
LINE
  5
3A0
100
AcDbEntity
  8
0
100
AcDbLine
 62
250
  6
CONTINUOUS
 10
-21.7304950166
 20
3.5192698613
 11
-21.6504950166
 21
3.5192698613
  0
LINE
  5
3A1
100
AcDbEntity
  8
ASSI
100
AcDbLine
 62
7
  6
CONTINUOUS
 10
-21.8304950166
 20
3.711248
 11
-21.7304950166
 21
3.711248
  0
LINE
  5
3A2
100
AcDbEntity
  8
0
100
AcDbLine
 62
250
  6
CONTINUOUS
 10
-21.7304950166
 20
3.8950762134
 11
-21.6504950166
 21
3.8950762134
  0
LINE
  5
3A3
100
AcDbEntity
  8
0
100
AcDbLine
 62
7
  6
CONTINUOUS
 10
-21.7304950166
 20
4.0400748327
 11
-21.6504950166
 21
4.0400748327
  0
LWPOLYLINE
  5
3A4
100
AcDbEntity
  8
RACCORDO
100
AcDbPolyline
 62
250
  6
CONTINUOUS
 90
5
 70
0
 10
-39.6477197331
 20
19.3950641391
 10
-39.6474211783
 20
19.393049869
 10
-39.6471951376
 20
19.3870348901
 10
-39.6470434271
 20
19.3770675327
 10
-39.6469672658
 20
19.3632278846
  0
LWPOLYLINE
  5
3A5
100
AcDbEntity
  8
0
100
AcDbPolyline
 62
7
  6
CONTINUOUS
 90
13
 70
0
 43
0.3500000006
 10
-34.9376386871
 20
35.1071435394
 10
-34.9376386871
 20
36.3928549805
 10
-34.7233519363
 20
36.8214284821
 10
-34.2947807007
 20
37.2500019836
 10
-34.0804939499
 20
37.2500019836
 10
-33.6519227142
 20
36.8214284821
 10
-33.4376382294
 20
36.3928549805
 10
-33.4376382294
 20
35.1071435394
 10
-33.6519227142
 20
34.6785700378
 10
-34.0804939499
 20
34.2500010681
 10
-34.2947807007
 20
34.2500010681
 10
-34.7233519363
 20
34.6785700378
 10
-34.9376386871
 20
35.1071435394
  0
LINE
  5
3A6
100
AcDbEntity
  8
ASSI
100
AcDbLine
 62
7
  6
CONTINUOUS
 10
-21.8304950166
 20
4.369462
 11
-21.7304950166
 21
4.369462
  0
LINE
  5
3A7
100
AcDbEntity
  8
0
100
AcDbLine
 62
7
  6
CONTINUOUS
 10
-21.8304950166
 20
4.5035810247
 11
-21.6504950166
 21
4.5035810247
  0
LINE
  5
3A8
100
AcDbEntity
  8
0
100
AcDbLine
 62
7
  6
CONTINUOUS
 10
-21.8304950166
 20
4.687755622
 11
-21.6504950166
 21
4.687755622
  0
LINE
  5
3A9
100
AcDbEntity
  8
0
100
AcDbLine
 62
250
  6
CONTINUOUS
 10
-21.8304950166
 20
4.8624980873
 11
-21.6504950166
 21
4.8624980873
  0
LINE
  5
3AA
100
AcDbEntity
  8
0
100
AcDbLine
 62
7
  6
CONTINUOUS
 10
-21.8304950166
 20
5.0561048612
 11
-21.6504950166
 21
5.0561048612
  0
LINE
  5
3AB
100
AcDbEntity
  8
0
100
AcDbLine
 62
7
  6
CONTINUOUS
 10
-21.8304950166
 20
7.5695900352
 11
-21.6504950166
 21
7.5695900352
  0
LINE
  5
3AC
100
AcDbEntity
  8
RACCORDO
100
AcDbLine
 62
7
  6
CONTINUOUS
 10
-45.6533565291
 20
-21.0942181133
 11
-45.6339854898
 21
-21.0738952235
  0
LINE
  5
3AD
100
AcDbEntity
  8
DRAFT
100
AcDbLine
 62
7
  6
CONTINUOUS
 10
-21.5848581182
 20
9.254287608
 11
-20.076131915
 21
9.2806225218
  0
LWPOLYLINE
  5
3AE
100
AcDbEntity
  8
RACCORDO
100
AcDbPolyline
 62
7
  6
CONTINUOUS
 90
4
 70
0
 10
-45.6339855183
 20
21.073895224
 10
-45.6583039813
 20
21.0992828118
 10
-45.6814027004
 20
21.1243614226
 10
-45.7032816756
 20
21.1491321353
  0
LWPOLYLINE
  5
3AF
100
AcDbEntity
  8
RACCORDO
100
AcDbPolyline
 62
7
  6
CONTINUOUS
 90
10
 70
0
 10
-45.7032816756
 20
21.1491321353
 10
-45.7241241348
 20
21.173577712
 10
-45.7437468501
 20
21.1977175927
 10
-45.7616001381
 20
21.2216075534
 10
-45.7776303928
 20
21.2452938186
 10
-45.7918912202
 20
21.268731507
 10
-45.8039937544
 20
21.2918397508
 10
-45.8138083734
 20
21.3145924398
 10
-45.8214646991
 20
21.3370178574
 10
-45.8269627317
 20
21.3591170407
  0
LINE
  5
3B0
100
AcDbEntity
  8
RACCORDO
100
AcDbLine
 62
250
  6
CONTINUOUS
 10
-19.8304950166
 20
12.0
 11
-21.8304950166
 21
12.0
  0
LWPOLYLINE
  5
3B1
100
AcDbEntity
  8
RACCORDO
100
AcDbPolyline
 62
250
  6
CONTINUOUS
 90
3
 70
0
 10
-40.4753049828
 20
-19.598400205
 10
-41.1994481858
 20
-20.3356174622
 10
-41.8595640566
 20
-21.0077172818
  0
LINE
  5
3B2
100
AcDbEntity
  8
RACCORDO
100
AcDbLine
 62
7
  6
CONTINUOUS
 10
-40.1304777954
 20
-19.5999827788
 11
-42.1865655182
 21
-21.6560705017
  0
LINE
  5
3B3
100
AcDbEntity
  8
RACCORDO
100
AcDbLine
 62
250
  6
CONTINUOUS
 10
-19.8304950166
 20
14.1
 11
-21.8304950166
 21
14.1
  0
LWPOLYLINE
  5
3B4
100
AcDbEntity
  8
RACCORDO
100
AcDbPolyline
 62
250
  6
CONTINUOUS
 90
15
 70
0
 10
-40.4753049828
 20
19.598400205
 10
-40.4279402612
 20
19.5529260494
 10
-40.3789230778
 20
19.510460044
 10
-40.3282534324
 20
19.4710217043
 10
-40.2757134495
 20
19.4345974239
 10
-40.2215210046
 20
19.4012351228
 10
-40.1663297249
 20
19.3710446684
 10
-40.1101350419
 20
19.3440900864
 10
-40.052941524
 20
19.3203332894
 10
-39.9954165039
 20
19.299728744
 10
-39.937668343
 20
19.2823296935
 10
-39.87958868
 20
19.2680991062
 10
-39.8215197627
 20
19.2568532185
 10
-39.7635756738
 20
19.2485330009
 10
-39.7056423306
 20
19.2432045664
  0
LINE
  5
3B5
100
AcDbEntity
  8
RACCORDO
100
AcDbLine
 62
7
  6
CONTINUOUS
 10
-42.1865655182
 20
21.6560705017
 11
-40.1304777954
 21
19.5999827788
  0
LINE
  5
3B6
100
AcDbEntity
  8
RACCORDO
100
AcDbLine
 62
250
  6
CONTINUOUS
 10
-41.8595657496
 20
21.0077172998
 11
-40.4753049828
 21
19.598400205
  0
LWPOLYLINE
  5
3B7
100
AcDbEntity
  8
RACCORDO
100
AcDbPolyline
 62
250
  6
CONTINUOUS
 90
3
 70
0
 10
-22.3217688133
 20
19.0926385408
 10
-22.3220409115
 20
19.0905768239
 10
-22.3210811496
 20
19.074262642
  0
LWPOLYLINE
  5
3B8
100
AcDbEntity
  8
RACCORDO
100
AcDbPolyline
 62
250
  6
CONTINUOUS
 90
10
 70
0
 10
-41.5148130313
 20
-20.9843180147
 10
-41.5414991461
 20
-21.0067434008
 10
-41.571761984
 20
-21.024167489
 10
-41.6054671979
 20
-21.0365334172
 10
-41.6425685956
 20
-21.0441836337
 10
-41.6826006373
 20
-21.047080882
 10
-41.7247410528
 20
-21.0446332126
 10
-41.7684865191
 20
-21.0368172724
 10
-41.8135991431
 20
-21.0243344732
 10
-41.8596402186
 20
-21.0077183978
  0
LWPOLYLINE
  5
3B9
100
AcDbEntity
  8
RACCORDO
100
AcDbPolyline
 62
250
  6
CONTINUOUS
 90
10
 70
0
 10
-40.1304777954
 20
-19.5999827788
 10
-40.1557220738
 20
-19.6205520223
 10
-40.1853075787
 20
-19.6361742476
 10
-40.2188431012
 20
-19.6466428822
 10
-40.2558852018
 20
-19.6518194995
 10
-40.2959440732
 20
-19.6516356493
 10
-40.3384900176
 20
-19.6460937626
 10
-40.3829604507
 20
-19.6352671196
 10
-40.4287673404
 20
-19.6192988809
 10
-40.475304983
 20
-19.5984001942
  0
LINE
  5
3BA
100
AcDbEntity
  8
RACCORDO
100
AcDbLine
 62
250
  6
CONTINUOUS
 10
-21.8304950166
 20
15.9519762322
 11
-22.3217688133
 21
15.9519762322
  0
LINE
  5
3BB
100
AcDbEntity
  8
RACCORDO
100
AcDbLine
 62
250
  6
CONTINUOUS
 10
-22.3217688133
 20
15.9519762322
 11
-49.8304950166
 21
16.119659166
  0
LWPOLYLINE
  5
3BC
100
AcDbEntity
  8
RACCORDO
100
AcDbPolyline
 62
250
  6
CONTINUOUS
 90
10
 70
0
 10
-40.1304783755
 20
19.5999821987
 10
-40.1557226803
 20
19.6205515886
 10
-40.1853081817
 20
19.6361739901
 10
-40.2188436725
 20
19.6466428286
 10
-40.2558857153
 20
19.6518196741
 10
-40.2959445058
 20
19.6516360723
 10
-40.3384903502
 20
19.6460944495
 10
-40.3829606681
 20
19.6352680807
 10
-40.4287674327
 20
19.6193001203
 10
-40.4753049453
 20
19.5984017095
  0
LWPOLYLINE
  5
3BD
100
AcDbEntity
  8
RACCORDO
100
AcDbPolyline
 62
250
  6
CONTINUOUS
 90
10
 70
0
 10
-41.5148130313
 20
20.9843180147
 10
-41.5414991512
 20
21.006743406
 10
-41.5717619932
 20
21.0241674983
 10
-41.6054672099
 20
21.0365334293
 10
-41.642568609
 20
21.0441836472
 10
-41.6826006508
 20
21.0470808954
 10
-41.7247410649
 20
21.0446332246
 10
-41.7684865284
 20
21.0368172818
 10
-41.8135991483
 20
21.0243344786
 10
-41.8596402186
 20
21.0077183978
  0
LWPOLYLINE
  5
3BE
100
AcDbEntity
  8
RACCORDO
100
AcDbPolyline
 62
250
  6
CONTINUOUS
 90
3
 70
0
 10
-22.3210811496
 20
19.074262642
 10
-22.3207718716
 20
19.0600621474
 10
-22.3210890397
 20
19.0205284475
  0
LWPOLYLINE
  5
3BF
100
AcDbEntity
  8
RACCORDO
100
AcDbPolyline
 62
250
  6
CONTINUOUS
 90
5
 70
0
 10
-22.3207849209
 20
-19.0429139992
 10
-22.3210822374
 20
-19.0213590832
 10
-22.3216900135
 20
-18.9964567698
 10
-22.3220393607
 20
-18.968191353
 10
-22.3217688133
 20
-18.9367181196
  0
LWPOLYLINE
  5
3C0
100
AcDbEntity
  8
RACCORDO
100
AcDbPolyline
 62
250
  6
CONTINUOUS
 90
4
 70
0
 10
-22.3210890397
 20
19.0205284475
 10
-22.3210428569
 20
18.9959779624
 10
-22.3211922248
 20
18.968111112
 10
-22.3217688133
 20
18.9367181196
  0
LINE
  5
3C1
100
AcDbEntity
  8
RACCORDO
100
AcDbLine
 62
250
  6
CONTINUOUS
 10
-22.3217688133
 20
17.2019339451
 11
-22.3212612099
 21
16.7193837852
  0
LINE
  5
3C2
100
AcDbEntity
  8
RACCORDO
100
AcDbLine
 62
250
  6
CONTINUOUS
 10
-22.3217688133
 20
-15.9519762322
 11
-22.3212468927
 21
-16.6143366337
  0
LINE
  5
3C3
100
AcDbEntity
  8
RACCORDO
100
AcDbLine
 62
250
  6
CONTINUOUS
 10
-22.3217688133
 20
18.9367180268
 11
-22.3217688133
 21
17.2019339448
  0
LINE
  5
3C4
100
AcDbEntity
  8
RACCORDO
100
AcDbLine
 62
7
  6
CONTINUOUS
 10
-21.8304950166
 20
18.5927146932
 11
-21.8304950166
 21
-18.5927146932
  0
LINE
  5
3C5
100
AcDbEntity
  8
0
100
AcDbLine
 62
7
  6
CONTINUOUS
 10
-21.7504950166
 20
4.5035810247
 11
-21.7504950166
 21
4.369462
  0
LINE
  5
3C6
100
AcDbEntity
  8
0
100
AcDbLine
 62
7
  6
CONTINUOUS
 10
-21.7504950166
 20
-2.455495
 11
-21.7504950166
 21
-2.5318898782
  0
LINE
  5
3C7
100
AcDbEntity
  8
0
100
AcDbLine
 62
7
  6
CONTINUOUS
 10
-21.7504950166
 20
-5.056105338
 11
-21.7504950166
 21
-5.7941669846
  0
LINE
  5
3C8
100
AcDbEntity
  8
ASSI
100
AcDbLine
 62
7
  6
CONTINUOUS
 10
-21.7304950166
 20
4.369462
 11
-21.7304950166
 21
2.642998
  0
LINE
  5
3C9
100
AcDbEntity
  8
ASSI
100
AcDbLine
 62
7
  6
CONTINUOUS
 10
-21.7304950166
 20
2.369662
 11
-21.7304950166
 21
1.959646
  0
LINE
  5
3CA
100
AcDbEntity
  8
ASSI
100
AcDbLine
 62
7
  6
CONTINUOUS
 10
-21.7304950166
 20
1.549641
 11
-21.7304950166
 21
-0.455689
  0
LINE
  5
3CB
100
AcDbEntity
  8
ASSI
100
AcDbLine
 62
7
  6
CONTINUOUS
 10
-21.7304950166
 20
-0.729031
 11
-21.7304950166
 21
-2.455495
  0
LINE
  5
3CC
100
AcDbEntity
  8
ASSI
100
AcDbLine
 62
7
  6
CONTINUOUS
 10
-21.7304950166
 20
-2.728837
 11
-21.7304950166
 21
-4.369462
  0
LINE
  5
3CD
100
AcDbEntity
  8
0
100
AcDbLine
 62
7
  6
CONTINUOUS
 10
-21.6504950166
 20
7.5695900352
 11
-21.6504950166
 21
4.5035810247
  0
LINE
  5
3CE
100
AcDbEntity
  8
0
100
AcDbLine
 62
7
  6
CONTINUOUS
 10
-21.6504950166
 20
4.0400748327
 11
-21.6504950166
 21
-5.2464024613
  0
LINE
  5
3CF
100
AcDbEntity
  8
0
100
AcDbLine
 62
7
  6
CONTINUOUS
 10
-21.6504950166
 20
-5.5644741674
 11
-21.6504950166
 21
-6.8576170774
  0
LINE
  5
3D0
100
AcDbEntity
  8
0
100
AcDbLine
 62
7
  6
CONTINUOUS
 10
-21.6304950166
 20
-9.6000000018
 11
-21.6304950166
 21
-14.6822600513
  0
LINE
  5
3D1
100
AcDbEntity
  8
0
100
AcDbLine
 62
7
  6
CONTINUOUS
 10
-21.6304950166
 20
-15.693211
 11
-21.6304950166
 21
-16.7
  0
LINE
  5
3D2
100
AcDbEntity
  8
RACCORDO
100
AcDbLine
 62
250
  6
CONTINUOUS
 10
-21.5848581165
 20
16.845712392
 11
-21.5848580566
 21
9.2542876091
  0
LINE
  5
3D3
100
AcDbEntity
  8
RACCORDO
100
AcDbLine
 62
250
  6
CONTINUOUS
 10
-21.5848581165
 20
-9.254287608
 11
-21.5848580566
 21
-16.8457123909
  0
LINE
  5
3D4
100
AcDbEntity
  8
RACCORDO
100
AcDbLine
 62
250
  6
CONTINUOUS
 10
-22.3212612099
 20
16.7193837852
 11
-22.3217688133
 21
-15.9519762322
  0
LINE
  5
3D5
100
AcDbEntity
  8
RACCORDO
100
AcDbLine
 62
250
  6
CONTINUOUS
 10
-22.3212468927
 20
-16.6143366337
 11
-22.3217688133
 21
-18.9367180248
  0
LINE
  5
3D6
100
AcDbEntity
  8
RACCORDO
100
AcDbLine
 62
250
  6
CONTINUOUS
 10
-22.3217688133
 20
17.2019339448
 11
-49.8304950166
 21
17.3594295692
  0
LINE
  5
3D7
100
AcDbEntity
  8
DRAFT
100
AcDbLine
 62
7
  6
CONTINUOUS
 10
-21.5848581182
 20
16.845712392
 11
-20.076131915
 21
16.8193774782
  0
LWPOLYLINE
  5
3D8
100
AcDbEntity
  8
RACCORDO
100
AcDbPolyline
 62
250
  6
CONTINUOUS
 90
13
 70
0
 10
-21.8304950166
 20
16.8894445167
 10
-21.8346779971
 20
16.9297871473
 10
-21.8471570274
 20
16.969454952
 10
-21.8677234231
 20
17.0077841919
 10
-21.8960331834
 20
17.0441335198
 10
-21.9316127192
 20
17.0778946804
 10
-21.9738667533
 20
17.1085026979
 10
-22.0220883449
 20
17.135445383
 10
-22.0754706672
 20
17.1582718572
 10
-22.1331204455
 20
17.1766000936
 10
-22.1940730218
 20
17.1901233658
 10
-22.2573085172
 20
17.1986153615
 10
-22.3217688133
 20
17.2019339455
  0
LWPOLYLINE
  5
3D9
100
AcDbEntity
  8
RACCORDO
100
AcDbPolyline
 62
250
  6
CONTINUOUS
 90
16
 70
0
 10
-21.8304950166
 20
18.5927146932
 10
-21.8331735933
 20
18.6282801618
 10
-21.8411806244
 20
18.6634645711
 10
-21.8544303202
 20
18.6978909444
 10
-21.8727807192
 20
18.7311904271
 10
-21.8960352098
 20
18.7630062383
 10
-21.923944636
 20
18.7929974936
 10
-21.9562099679
 20
18.8208428575
 10
-21.9924855046
 20
18.8462439862
 10
-22.0323825791
 20
18.8689287242
 10
-22.0754737217
 20
18.8886540203
 10
-22.1212972407
 20
18.9052085316
 10
-22.1693621689
 20
18.918414888
 10
-22.219153524
 20
18.9281315926
 10
-22.2701378259
 20
18.9342545375
 10
-22.3217688133
 20
18.9367181196
  0
LINE
  5
3DA
100
AcDbEntity
  8
RACCORDO
100
AcDbLine
 62
250
  6
CONTINUOUS
 10
-20.0761319129
 20
16.8193774781
 11
-20.0761318519
 21
9.2806225229
  0
LINE
  5
3DB
100
AcDbEntity
  8
RACCORDO
100
AcDbLine
 62
250
  6
CONTINUOUS
 10
-20.0761319129
 20
-9.2806225219
 11
-20.0761318519
 21
-16.8193774771
  0
LINE
  5
3DC
100
AcDbEntity
  8
RACCORDO
100
AcDbLine
 62
7
  6
CONTINUOUS
 10
-19.8304950166
 20
16.569300184
 11
-19.8304950166
 21
9.5307012078
  0
LINE
  5
3DD
100
AcDbEntity
  8
RACCORDO
100
AcDbLine
 62
7
  6
CONTINUOUS
 10
-19.8304950166
 20
-9.530699816
 11
-19.8304950166
 21
-16.5692987922
  0
LWPOLYLINE
  5
3DE
100
AcDbEntity
  8
RACCORDO
100
AcDbPolyline
 62
250
  6
CONTINUOUS
 90
16
 70
0
 10
-21.8304950166
 20
-18.5927146932
 10
-21.8331319153
 20
-18.628003119
 10
-21.8410393089
 20
-18.663000205
 10
-21.8541699078
 20
-18.6973311819
 10
-21.8724350801
 20
-18.7306482058
 10
-21.8956661023
 20
-18.7625595737
 10
-21.9235794837
 20
-18.7926460636
 10
-21.9558520678
 20
-18.8205645173
 10
-21.9921560898
 20
-18.8460358481
 10
-22.0320975792
 20
-18.8687829707
 10
-22.0752506378
 20
-18.8885629417
 10
-22.1211478871
 20
-18.9051611689
 10
-22.1692777772
 20
-18.9183951133
 10
-22.2191147333
 20
-18.9281254944
 10
-22.2701278263
 20
-18.9342537007
 10
-22.3217688133
 20
-18.9367181196
  0
LWPOLYLINE
  5
3DF
100
AcDbEntity
  8
RACCORDO
100
AcDbPolyline
 62
250
  6
CONTINUOUS
 90
13
 70
0
 10
-21.8304950166
 20
-16.8894445167
 10
-21.8346781875
 20
-16.9297880575
 10
-21.8471577053
 20
-16.969456544
 10
-21.8677247548
 20
-17.0077862158
 10
-21.8960351951
 20
-17.0441357144
 10
-21.9316153172
 20
-17.0778968147
 10
-21.9738697703
 20
-17.1085046023
 10
-22.0220915244
 20
-17.1354469262
 10
-22.0754737002
 20
-17.1582729685
 10
-22.1331230699
 20
-17.1766007875
 10
-22.1940750044
 20
-17.190123709
 10
-22.2573096139
 20
-17.1986154582
 10
-22.3217688133
 20
-17.2019339448
  0
LINE
  5
3E0
100
AcDbEntity
  8
TRASH
100
AcDbLine
 62
7
  6
CONTINUOUS
 10
-42.1865655182
 20
-21.6560705017
 11
-43.6809995327
 21
-22.2
  0
LINE
  5
3E1
100
AcDbEntity
  8
RACCORDO
100
AcDbLine
 62
7
  6
CONTINUOUS
 10
-39.6477197331
 20
19.3950641391
 11
-22.3217688133
 21
19.0926385408
  0
LINE
  5
3E2
100
AcDbEntity
  8
RACCORDO
100
AcDbLine
 62
250
  6
CONTINUOUS
 10
-39.6477197331
 20
19.2408695706
 11
-22.3217688133
 21
18.9367180268
  0
LINE
  5
3E3
100
AcDbEntity
  8
RACCORDO
100
AcDbLine
 62
250
  6
CONTINUOUS
 10
-39.7056423306
 20
19.2432045664
 11
-39.6477197331
 21
19.2408695706
  0
LWPOLYLINE
  5
3E4
100
AcDbEntity
  8
TRASH
100
AcDbPolyline
 62
250
  6
CONTINUOUS
 90
4
 70
0
 10
-58.8885080862
 20
21.0183133038
 10
-58.8858336104
 20
21.0181628131
 10
-58.8778355338
 20
21.0177887456
 10
-58.3976983186
 20
20.9972959167
  0
LINE
  5
3E5
100
AcDbEntity
  8
TRASH
100
AcDbLine
 62
7
  6
CONTINUOUS
 10
-42.1865655182
 20
21.6560705017
 11
-43.6809995327
 21
22.2
  0
LWPOLYLINE
  5
3E6
100
AcDbEntity
  8
0
100
AcDbPolyline
 62
7
  6
CONTINUOUS
 90
10
 70
0
 43
0.3500000006
 10
-38.6162086487
 20
42.7499991302
 10
-38.5447819977
 20
42.6071412964
 10
-38.5447819977
 20
42.5357146454
 10
-38.6876398315
 20
42.3928568115
 10
-38.7590664825
 20
42.3928568115
 10
-38.8304931335
 20
42.4642834625
 10
-38.8304931335
 20
42.5357146454
 10
-38.7590664825
 20
42.6785724792
 10
-38.6876398315
 20
42.7499991302
 10
-38.6162086487
 20
42.7499991302
  0
LWPOLYLINE
  5
3E7
100
AcDbEntity
  8
RACCORDO
100
AcDbPolyline
 62
250
  6
CONTINUOUS
 90
5
 70
0
 10
-22.3217688133
 20
-19.0926385408
 10
-22.3211556775
 20
-19.0905570238
 10
-22.3210127837
 20
-19.0845115381
 10
-22.3210870214
 20
-19.0746295528
 10
-22.3207849209
 20
-19.0429139992
  0
LINE
  5
3E8
100
AcDbEntity
  8
TRASH
100
AcDbLine
 62
250
  6
CONTINUOUS
 10
-57.9243082616
 20
21.4755923698
 11
-49.8304950166
 21
21.8997711479
  0
LINE
  5
3E9
100
AcDbEntity
  8
TRASH
100
AcDbLine
 62
7
  6
CONTINUOUS
 10
-43.6809995327
 20
22.2
 11
-44.2304950166
 21
22.2
  0
LINE
  5
3EA
100
AcDbEntity
  8
TRASH
100
AcDbLine
 62
7
  6
CONTINUOUS
 10
-45.8304950166
 20
22.6298666026
 11
-47.1517149926
 21
22.6398908175
  0
LINE
  5
3EB
100
AcDbEntity
  8
TRASH
100
AcDbLine
 62
7
  6
CONTINUOUS
 10
-47.1517149926
 20
22.6398908175
 11
-48.485078808
 21
22.651011599
  0
LINE
  5
3EC
100
AcDbEntity
  8
TRASH
100
AcDbLine
 62
7
  6
CONTINUOUS
 10
-48.485078808
 20
22.651011599
 11
-49.8304950166
 21
22.663166622
  0
LINE
  5
3ED
100
AcDbEntity
  8
RACCORDO
100
AcDbLine
 62
7
  6
CONTINUOUS
 10
-45.6339854978
 20
21.1965699136
 11
-41.8596402186
 21
21.1306884717
  0
LINE
  5
3EE
100
AcDbEntity
  8
RACCORDO
100
AcDbLine
 62
250
  6
CONTINUOUS
 10
-45.6339855183
 20
21.073895224
 11
-41.8595657496
 21
21.0077172998
  0
LINE
  5
3EF
100
AcDbEntity
  8
TRASH
100
AcDbLine
 62
7
  6
CONTINUOUS
 10
-57.9417500365
 20
21.9749071372
 11
-49.8304950166
 21
22.4
  0
LINE
  5
3F0
100
AcDbEntity
  8
TRASH
100
AcDbLine
 62
7
  6
CONTINUOUS
 10
-49.8304950166
 20
23.5
 11
-45.8304950166
 21
23.4301797403
  0
LINE
  5
3F1
100
AcDbEntity
  8
TRASH
100
AcDbLine
 62
250
  6
CONTINUOUS
 10
-49.8304950166
 20
23.3333596575
 11
-45.8304950166
 21
23.2631073618
  0
LINE
  5
3F2
100
AcDbEntity
  8
TRASH
100
AcDbLine
 62
7
  6
CONTINUOUS
 10
-47.5948236691
 20
23.136227616
 11
-49.8304950166
 21
23.1799085618
  0
LINE
  5
3F3
100
AcDbEntity
  8
TRASH
100
AcDbLine
 62
7
  6
CONTINUOUS
 10
-45.8304950166
 20
23.0998904748
 11
-47.5948236691
 21
23.136227616
  0
LWPOLYLINE
  5
3F4
100
AcDbEntity
  8
0
100
AcDbPolyline
 62
7
  6
CONTINUOUS
 90
6
 70
0
 43
0.3500000006
 10
-37.0804948654
 20
34.2500010681
 10
-36.0090656433
 20
34.2500010681
 10
-35.7947811584
 20
34.464285553
 10
-35.7947811584
 20
35.5357125092
 10
-36.2233523941
 20
35.9642860107
 10
-36.6519236298
 20
35.9642860107
  0
LWPOLYLINE
  5
3F5
100
AcDbEntity
  8
0
100
AcDbPolyline
 62
7
  6
CONTINUOUS
 90
6
 70
0
 43
0.3500000006
 10
-43.7590680084
 20
42.2499989777
 10
-42.6876365204
 20
42.2499989777
 10
-42.4733520355
 20
42.4642834625
 10
-42.4733520355
 20
43.5357149506
 10
-42.9019255371
 20
43.9642839203
 10
-43.3304945068
 20
43.9642839203
  0
LWPOLYLINE
  5
3F6
100
AcDbEntity
  8
0
100
AcDbPolyline
 62
7
  6
CONTINUOUS
 90
8
 70
0
 43
0.3500000006
 10
-37.5447816925
 20
42.2499989777
 10
-36.6876369553
 20
42.2499989777
 10
-36.2590657196
 20
42.6785724792
 10
-36.2590657196
 20
43.5357149506
 10
-36.6876369553
 20
43.9642839203
 10
-37.5447816925
 20
43.9642839203
 10
-37.5447816925
 20
45.2499998932
 10
-36.2590657196
 20
45.2499998932
  0
ARC
  5
3F7
100
AcDbEntity
  8
TRASH
100
AcDbCircle
 62
7
  6
CONTINUOUS
 10
-11.25
 20
0.0
 40
28.0
100
AcDbArc
 50
305.9627651514
 51
306.8614108051
  0
ARC
  5
3F8
100
AcDbEntity
  8
TRASH
100
AcDbCircle
 62
7
  6
CONTINUOUS
 10
-11.25
 20
0.0
 40
28.0
100
AcDbArc
 50
303.5572123136
 51
304.1210936517
  0
ARC
  5
3F9
100
AcDbEntity
  8
TRASH
100
AcDbCircle
 62
7
  6
CONTINUOUS
 10
11.25
 20
0.0
 40
28.0
100
AcDbArc
 50
235.8789063483
 51
236.4427876864
  0
ARC
  5
3FA
100
AcDbEntity
  8
TRASH
100
AcDbCircle
 62
7
  6
CONTINUOUS
 10
11.25
 20
0.0
 40
28.0
100
AcDbArc
 50
233.1385891949
 51
234.0372348486
  0
ARC
  5
3FB
100
AcDbEntity
  8
TRASH
100
AcDbCircle
 62
7
  6
CONTINUOUS
 10
11.25
 20
0.0
 40
28.0
100
AcDbArc
 50
125.9627651514
 51
126.8614108051
  0
ARC
  5
3FC
100
AcDbEntity
  8
TRASH
100
AcDbCircle
 62
7
  6
CONTINUOUS
 10
11.25
 20
0.0
 40
28.0
100
AcDbArc
 50
123.5572123136
 51
124.1210936517
  0
ARC
  5
3FD
100
AcDbEntity
  8
TRASH
100
AcDbCircle
 62
7
  6
CONTINUOUS
 10
-11.25
 20
0.0
 40
28.0
100
AcDbArc
 50
55.8789063483
 51
56.4427876864
  0
ARC
  5
3FE
100
AcDbEntity
  8
TRASH
100
AcDbCircle
 62
7
  6
CONTINUOUS
 10
-11.25
 20
0.0
 40
28.0
100
AcDbArc
 50
53.1385891949
 51
54.0372348486
  0
ARC
  5
3FF
100
AcDbEntity
  8
RACCORDO
100
AcDbCircle
 62
7
  6
CONTINUOUS
 10
0.0
 20
-9.5
 40
2.8
100
AcDbArc
 50
144.5040673497
 51
35.4959326503
  0
ARC
  5
400
100
AcDbEntity
  8
RACCORDO
100
AcDbCircle
 62
7
  6
CONTINUOUS
 10
0.0
 20
9.5
 40
2.8
100
AcDbArc
 50
324.5040673497
 51
215.4959326503
  0
ARC
  5
401
100
AcDbEntity
  8
TRASH
100
AcDbCircle
 62
7
  6
CONTINUOUS
 10
4.95
 20
23.1
 40
0.5
100
AcDbArc
 50
170.803718421
 51
299.112422776
  0
ARC
  5
402
100
AcDbEntity
  8
TRASH
100
AcDbCircle
 62
7
  6
CONTINUOUS
 10
-4.95
 20
23.1
 40
0.5
100
AcDbArc
 50
240.887577224
 51
9.196281579
  0
ARC
  5
403
100
AcDbEntity
  8
TRASH
100
AcDbCircle
 62
7
  6
CONTINUOUS
 10
4.95
 20
-23.1
 40
0.5
100
AcDbArc
 50
60.887577224
 51
189.196281579
  0
ARC
  5
404
100
AcDbEntity
  8
TRASH
100
AcDbCircle
 62
7
  6
CONTINUOUS
 10
-4.95
 20
-23.1
 40
0.5
100
AcDbArc
 50
350.803718421
 51
119.112422776
  0
ARC
  5
405
100
AcDbEntity
  8
RACCORDO
100
AcDbCircle
 62
7
  6
CONTINUOUS
 10
-2.5238858928
 20
-7.7
 40
0.3
100
AcDbArc
 50
325.9545886155
 51
90.0
  0
ARC
  5
406
100
AcDbEntity
  8
RACCORDO
100
AcDbCircle
 62
7
  6
CONTINUOUS
 10
2.5238858928
 20
-7.7
 40
0.3
100
AcDbArc
 50
90.0
 51
214.0454074994
  0
ARC
  5
407
100
AcDbEntity
  8
RACCORDO
100
AcDbCircle
 62
7
  6
CONTINUOUS
 10
2.5238858928
 20
7.7
 40
0.3
100
AcDbArc
 50
144.5040673497
 51
270.0
  0
ARC
  5
408
100
AcDbEntity
  8
RACCORDO
100
AcDbCircle
 62
7
  6
CONTINUOUS
 10
-2.5238858928
 20
7.7
 40
0.3
100
AcDbArc
 50
270.0
 51
35.4959326503
  0
ARC
  5
409
100
AcDbEntity
  8
TRASH
100
AcDbCircle
 62
7
  6
CONTINUOUS
 10
-57.8894140802
 20
-20.9762776025
 40
1.0
100
AcDbArc
 50
182.4092313014
 51
267.0
  0
ARC
  5
40A
100
AcDbEntity
  8
RACCORDO
100
AcDbCircle
 62
7
  6
CONTINUOUS
 10
-39.6355030486
 20
-20.0949575257
 40
0.7
100
AcDbArc
 50
91.0
 51
135.0
  0
ARC
  5
40B
100
AcDbEntity
  8
RACCORDO
100
AcDbCircle
 62
7
  6
CONTINUOUS
 10
-41.8683664218
 20
-20.6307646241
 40
0.5
100
AcDbArc
 50
271.0
 51
315.0
  0
ARC
  5
40C
100
AcDbEntity
  8
RACCORDO
100
AcDbCircle
 62
7
  6
CONTINUOUS
 10
-22.3304950166
 20
-18.5927146932
 40
0.5
100
AcDbArc
 50
271.0
 51
360.0
  0
ARC
  5
40D
100
AcDbEntity
  8
RACCORDO
100
AcDbCircle
 62
7
  6
CONTINUOUS
 10
-20.0804950166
 20
-16.5694155544
 40
0.25
100
AcDbArc
 50
271.0
 51
360.0
  0
ARC
  5
40E
100
AcDbEntity
  8
RACCORDO
100
AcDbCircle
 62
7
  6
CONTINUOUS
 10
-20.0804950166
 20
-9.5305844456
 40
0.25
100
AcDbArc
 50
0.0
 51
89.0
  0
ARC
  5
40F
100
AcDbEntity
  8
RACCORDO
100
AcDbCircle
 62
7
  6
CONTINUOUS
 10
-21.5804950166
 20
-17.0956743158
 40
0.25
100
AcDbArc
 50
91.0
 51
180.0
  0
ARC
  5
410
100
AcDbEntity
  8
RACCORDO
100
AcDbCircle
 62
7
  6
CONTINUOUS
 10
-21.5804950166
 20
-9.0043256842
 40
0.25
100
AcDbArc
 50
180.0
 51
269.0
  0
ARC
  5
411
100
AcDbEntity
  8
RACCORDO
100
AcDbCircle
 62
7
  6
CONTINUOUS
 10
-45.6304950166
 20
-21.3965394526
 40
0.2
100
AcDbArc
 50
91.0
 51
180.0
  0
ARC
  5
412
100
AcDbEntity
  8
TRASH
100
AcDbCircle
 62
7
  6
CONTINUOUS
 10
-57.8894140802
 20
20.9762776025
 40
1.0
100
AcDbArc
 50
93.0
 51
177.5907686986
  0
ARC
  5
413
100
AcDbEntity
  8
RACCORDO
100
AcDbCircle
 62
7
  6
CONTINUOUS
 10
-39.6355030486
 20
20.0949575257
 40
0.7
100
AcDbArc
 50
225.0
 51
269.0
  0
ARC
  5
414
100
AcDbEntity
  8
RACCORDO
100
AcDbCircle
 62
7
  6
CONTINUOUS
 10
-41.8683664218
 20
20.6307646241
 40
0.5
100
AcDbArc
 50
45.0
 51
89.0
  0
ARC
  5
415
100
AcDbEntity
  8
RACCORDO
100
AcDbCircle
 62
7
  6
CONTINUOUS
 10
-22.3304950166
 20
18.5927146932
 40
0.5
100
AcDbArc
 50
0.0
 51
89.0
  0
ARC
  5
416
100
AcDbEntity
  8
RACCORDO
100
AcDbCircle
 62
7
  6
CONTINUOUS
 10
-20.0804950166
 20
9.5305844456
 40
0.25
100
AcDbArc
 50
271.0
 51
360.0
  0
ARC
  5
417
100
AcDbEntity
  8
RACCORDO
100
AcDbCircle
 62
7
  6
CONTINUOUS
 10
-20.0804950166
 20
16.5694155544
 40
0.25
100
AcDbArc
 50
0.0
 51
89.0
  0
ARC
  5
418
100
AcDbEntity
  8
RACCORDO
100
AcDbCircle
 62
7
  6
CONTINUOUS
 10
-21.5804950166
 20
9.0043256842
 40
0.25
100
AcDbArc
 50
91.0
 51
180.0
  0
ARC
  5
419
100
AcDbEntity
  8
RACCORDO
100
AcDbCircle
 62
7
  6
CONTINUOUS
 10
-21.5804950166
 20
17.0956743158
 40
0.25
100
AcDbArc
 50
180.0
 51
269.0
  0
ARC
  5
41A
100
AcDbEntity
  8
RACCORDO
100
AcDbCircle
 62
7
  6
CONTINUOUS
 10
-45.6304950166
 20
21.3965394526
 40
0.2
100
AcDbArc
 50
180.0
 51
269.0
  0
ARC
  5
41B
100
AcDbEntity
  8
RACCORDO
100
AcDbCircle
 62
7
  6
CONTINUOUS
 10
440.6695049834
 20
0.0
 40
500.0
100
AcDbArc
 50
178.555143042
 51
179.1956793614
  0
ARC
  5
41C
100
AcDbEntity
  8
RACCORDO
100
AcDbCircle
 62
7
  6
CONTINUOUS
 10
440.6695049834
 20
0.0
 40
500.0
100
AcDbArc
 50
179.1981440181
 51
179.4266886569
  0
ARC
  5
41D
100
AcDbEntity
  8
RACCORDO
100
AcDbCircle
 62
7
  6
CONTINUOUS
 10
440.6695049834
 20
0.0
 40
500.0
100
AcDbArc
 50
180.5733113431
 51
180.801855982
  0
ARC
  5
41E
100
AcDbEntity
  8
RACCORDO
100
AcDbCircle
 62
7
  6
CONTINUOUS
 10
440.6695049834
 20
0.0
 40
500.0
100
AcDbArc
 50
180.8043206387
 51
181.4448569563
  0
ARC
  5
41F
100
AcDbEntity
  8
TRASH
100
AcDbCircle
 62
7
  6
CONTINUOUS
 10
440.6695049834
 20
-0.0
 40
500.0
100
AcDbArc
 50
177.5907686986
 51
182.4092313014
  0
ELLIPSE
  5
420
100
AcDbEntity
  8
TRASH
100
AcDbEllipse
 62
7
  6
CONTINUOUS
 10
10.649923836
 20
-21.899313827
 30
0.0
 11
-0.1582391023
 21
0.4751033573
 31
0.0
 40
0.9984778551
 41
-3.4626430041
 42
-1.8927600658
  0
ELLIPSE
  5
421
100
AcDbEntity
  8
TRASH
100
AcDbEllipse
 62
7
  6
CONTINUOUS
 10
10.649923836
 20
21.899313827
 30
0.0
 11
0.1582391023
 21
0.4751033573
 31
0.0
 40
0.9984778551
 41
-1.2488325878
 42
0.3210503505
  0
ELLIPSE
  5
422
100
AcDbEntity
  8
TRASH
100
AcDbEllipse
 62
7
  6
CONTINUOUS
 10
-10.649923836
 20
-21.899313827
 30
0.0
 11
0.1582391023
 21
0.4751033573
 31
0.0
 40
0.9984778551
 41
-4.3904252414
 42
-2.8205423031
  0
ELLIPSE
  5
423
100
AcDbEntity
  8
TRASH
100
AcDbEllipse
 62
7
  6
CONTINUOUS
 10
-10.649923836
 20
21.899313827
 30
0.0
 11
-0.1582391023
 21
0.4751033573
 31
0.0
 40
0.9984778551
 41
-0.3210503505
 42
1.2488325878
  0
ENDSEC
  0
SECTION
  2
OBJECTS
  0
DICTIONARY
  5
C
100
AcDbDictionary
280
0
281
1
  3
ACAD_GROUP
350
D
  3
ACAD_MLINESTYLE
350
17
  3
ACAD_LAYOUT
350
1A
  3
ACAD_PLOTSETTINGS
350
19
  3
ACAD_PLOTSTYLENAME
350
E
  0
DICTIONARY
  5
D
102
{ACAD_REACTORS
330
C
102
}
100
AcDbDictionary
280
0
281
1
  0
ACDBDICTIONARYWDFLT
  5
E
102
{ACAD_REACTORS
330
C
102
}
100
AcDbDictionary
281
1
  3
Normal
350
F
100
AcDbDictionaryWithDefault
340
F
  0
DICTIONARY
  5
17
102
{ACAD_REACTORS
330
C
102
}
100
AcDbDictionary
280
0
281
1
  3
Standard
350
18
  0
DICTIONARY
  5
19
102
{ACAD_REACTORS
330
C
102
}
100
AcDbDictionary
281
1
  0
DICTIONARY
  5
1A
102
{ACAD_REACTORS
330
C
102
}
100
AcDbDictionary
281
1
  3
Model
350
424
  3
Layout1
350
425
  0
ACDBPLACEHOLDER
  5
F
102
{ACAD_REACTORS
330
E
102
}
  0
MLINESTYLE
  5
18
102
{ACAD_REACTORS
330
17
102
}
100
AcDbMlineStyle
  2
STANDARD
 70
0
  3

 62
256
 51
90.0
 52
90.0
 71
2
 49
0.5
 62
256
  6
BYLAYER
 49
-0.5
 62
256
  6
BYLAYER
  0
LAYOUT
  5
424
102
{ACAD_REACTORS
330
1A
102
}
100
AcDbPlotSettings
  1

  2
none_device
  4
ISO_A4_(297.00_x_210.00_MM)
  6

 40
0.0
 41
0.0
 42
0.0
 43
0.0
 44
297.0
 45
210.0
 46
0.0
 47
0.0
 48
0.0
 49
0.0
140
0.0
141
0.0
142
1.0
143
1.0
 70
1024
 72
1
 73
0
 74
0
  7

 75
0
147
1.0
148
0.0
149
0.0
100
AcDbLayout
  1
Model
 70
0
 71
0
 10
0.0
 20
0.0
 11
297.0
 21
210.0
 12
0.0
 22
0.0
 32
0.0
 14
0.0
 24
0.0
 34
0.0
 15
0.0
 25
0.0
 35
0.0
146
0.0
 13
0.0
 23
0.0
 33
0.0
 16
1.0
 26
0.0
 36
0.0
 17
0.0
 27
1.0
 37
0.0
 76
0
330
219
345
0
346
0
  0
LAYOUT
  5
425
102
{ACAD_REACTORS
330
1A
102
}
100
AcDbPlotSettings
  1

  2
none_device
  4
ISO_A4_(297.00_x_210.00_MM)
  6

 40
0.0
 41
0.0
 42
0.0
 43
0.0
 44
297.0
 45
210.0
 46
0.0
 47
0.0
 48
0.0
 49
0.0
140
0.0
141
0.0
142
1.0
143
1.0
 70
0
 72
1
 73
0
 74
0
  7

 75
0
147
1.0
148
0.0
149
0.0
100
AcDbLayout
  1
Layout1
 70
0
 71
1
 10
0.0
 20
0.0
 11
297.0
 21
210.0
 12
0.0
 22
0.0
 32
0.0
 14
0.0
 24
0.0
 34
0.0
 15
0.0
 25
0.0
 35
0.0
146
0.0
 13
0.0
 23
0.0
 33
0.0
 16
1.0
 26
0.0
 36
0.0
 17
0.0
 27
1.0
 37
0.0
 76
0
330
21A
345
0
346
0
  0
ENDSEC
  0
EOF
