  0
SECTION
  2
HEADER
  9
$ACADVER
  1
AC1015
  9
$DWGCODEPAGE
  3
ANSI_1252
  9
$EXTMAX
 10
297.0
 20
210.0
 30
0.0
  9
$EXTMIN
 10
0.0
 20
0.0
 30
0.0
  9
$LIMMIN
 10
0.0
 20
0.0
  9
$LIMMAX
 10
297.0
 20
210.0
  9
$VIEWCTR
 10
148.5
 20
105.0
  9
$VIEWSIZE
 40
210.0
  9
$CLAYER
  8
0
  9
$LTSCALE
 40
16.335
  9
$CELTYPE
  6
BYLAYER
  9
$DIMSCALE
 40
1.0
  9
$DIMASZ
 40
3.0
  9
$DIMEXO
 40
1.85625
  9
$DIMDLI
 40
11.286
  9
$DIMEXE
 40
5.346
  9
$DIMCEN
 40
2.673
  9
$DIMLFAC
 40
1.0
  9
$DIMBLK
  1
_FILLED
  9
$DIMTXT
 40
3.0
  9
$DIMTOL
 70
1
  9
$DIMLIM
 70
0
  9
$DIMTFAC
 40
1.0
  9
$DIMTP
 40
0.01
  9
$DIMTM
 40
0.01
  9
$PDMODE
 70
3
  9
$PDSIZE
 40
3.0
  9
$HANDSEED
  5
454
  9
$TILEMODE
 70
1
  9
$MEASUREMENT
 70
1
  9
$INSUNITS
 70
4
  0
ENDSEC
  0
SECTION
  2
CLASSES
  0
CLASS
  1
ACDBDICTIONARYWDFLT
  2
AcDbDictionaryWithDefault
  3
AutoCAD 2000
 90
0
280
0
281
0
  0
CLASS
  1
ACDBPLACEHOLDER
  2
AcDbPlaceHolder
  3
AutoCAD 2000
 90
0
280
0
281
0
  0
CLASS
  1
LAYOUT
  2
AcDbLayout
  3
AutoCAD 2000
 90
0
280
0
281
0
  0
ENDSEC
  0
SECTION
  2
TABLES
  0
TABLE
  2
VPORT
  5
8
100
AcDbSymbolTable
 70
2
  0
VPORT
  5
1F4
100
AcDbSymbolTableRecord
100
AcDbViewportTableRecord
  2
*ACTIVE
 70
0
 10
0.0
 20
0.0
 11
1.0
 21
1.0
 12
148.5
 22
105.0
 13
0.0
 23
0.0
 14
1.0
 24
1.0
 15
0.0
 25
0.0
 16
0.0
 26
0.0
 36
1.0
 17
0.0
 27
0.0
 37
0.0
 40
210.0
 41
1.4142857143
 42
50.0
 43
0.0
 44
0.0
 50
0.0
 51
0.0
 71
0
 72
100
 73
1
 74
1
 75
0
 76
0
 77
0
 78
0
  0
ENDTAB
  0
TABLE
  2
LTYPE
  5
5
100
AcDbSymbolTable
 70
6
  0
LTYPE
  5
14
100
AcDbSymbolTableRecord
100
AcDbLinetypeTableRecord
  2
BYBLOCK
 70
0
  3

 72
65
 73
0
 40
0.0
  0
LTYPE
  5
15
100
AcDbSymbolTableRecord
100
AcDbLinetypeTableRecord
  2
BYLAYER
 70
0
  3

 72
65
 73
0
 40
0.0
  0
LTYPE
  5
16
100
AcDbSymbolTableRecord
100
AcDbLinetypeTableRecord
  2
CONTINUOUS
 70
64
  3
Solid line
 72
65
 73
0
 40
0.0
  0
LTYPE
  5
1F5
100
AcDbSymbolTableRecord
100
AcDbLinetypeTableRecord
  2
CENTER
 70
64
  3
____ _ ____ _ ____ _ ____ _ ____ _ ____ _ ____
 72
65
 73
4
 40
0.6
 49
0.375
 74
0
 49
-0.075
 74
0
 49
0.075
 74
0
 49
-0.075
 74
0
  0
LTYPE
  5
1F6
100
AcDbSymbolTableRecord
100
AcDbLinetypeTableRecord
  2
HIDDEN
 70
64
  3
- - - - - - - - - - - - - - - - - - - -
 72
65
 73
2
 40
0.2
 49
0.1
 74
0
 49
-0.1
 74
0
  0
LTYPE
  5
1F7
100
AcDbSymbolTableRecord
100
AcDbLinetypeTableRecord
  2
PHANTOM
 70
64
  3
_____ _ _ _____ _ _ _____ _ _ _____
 72
65
 73
6
 40
0.8
 49
0.45
 74
0
 49
-0.05
 74
0
 49
0.1
 74
0
 49
-0.05
 74
0
 49
0.1
 74
0
 49
-0.05
 74
0
  0
LTYPE
  5
1F8
100
AcDbSymbolTableRecord
100
AcDbLinetypeTableRecord
  2
DOT
 70
64
  3
. . . . . . . . . . . . . . . . . . . .
 72
65
 73
2
 40
0.2
 49
0.1
 74
0
 49
-0.1
 74
0
  0
LTYPE
  5
1F9
100
AcDbSymbolTableRecord
100
AcDbLinetypeTableRecord
  2
DASHED
 70
64
  3
- - - - - - - - - - - - - - - - - - - -
 72
65
 73
2
 40
0.2
 49
0.1
 74
0
 49
-0.1
 74
0
  0
ENDTAB
  0
TABLE
  2
LAYER
  5
2
100
AcDbSymbolTable
 70
36
  0
LAYER
  5
10
100
AcDbSymbolTableRecord
100
AcDbLayerTableRecord
  2
0
 70
0
 62
7
  6
CONTINUOUS
370
-3
390
F
  0
LAYER
  5
1FA
100
AcDbSymbolTableRecord
100
AcDbLayerTableRecord
  2
DEFAULT_1
 70
0
 62
7
  6
CENTER
370
-3
390
F
  0
LAYER
  5
1FB
100
AcDbSymbolTableRecord
100
AcDbLayerTableRecord
  2
DEFAULT_2
 70
0
 62
7
  6
HIDDEN
370
-3
390
F
  0
LAYER
  5
1FC
100
AcDbSymbolTableRecord
100
AcDbLayerTableRecord
  2
DEFAULT_3
 70
0
 62
7
  6
PHANTOM
370
-3
390
F
  0
LAYER
  5
1FD
100
AcDbSymbolTableRecord
100
AcDbLayerTableRecord
  2
ASSI
 70
0
 62
7
  6
CONTINUOUS
370
-3
390
F
  0
LAYER
  5
1FE
100
AcDbSymbolTableRecord
100
AcDbLayerTableRecord
  2
COORDINATE
 70
0
 62
7
  6
CONTINUOUS
370
-3
390
F
  0
LAYER
  5
1FF
100
AcDbSymbolTableRecord
100
AcDbLayerTableRecord
  2
COORD_ORIGINE
 70
0
 62
7
  6
CONTINUOUS
370
-3
390
F
  0
LAYER
  5
200
100
AcDbSymbolTableRecord
100
AcDbLayerTableRecord
  2
COPY_PUBLISH
 70
0
 62
7
  6
CONTINUOUS
370
-3
390
F
  0
LAYER
  5
201
100
AcDbSymbolTableRecord
100
AcDbLayerTableRecord
  2
COSMETIC
 70
0
 62
7
  6
CONTINUOUS
370
-3
390
F
  0
LAYER
  5
202
100
AcDbSymbolTableRecord
100
AcDbLayerTableRecord
  2
COSMETICHE
 70
0
 62
7
  6
CONTINUOUS
370
-3
390
F
  0
LAYER
  5
203
100
AcDbSymbolTableRecord
100
AcDbLayerTableRecord
  2
CURVE
 70
0
 62
7
  6
CONTINUOUS
370
-3
390
F
  0
LAYER
  5
204
100
AcDbSymbolTableRecord
100
AcDbLayerTableRecord
  2
C_COPY
 70
0
 62
7
  6
CONTINUOUS
370
-3
390
F
  0
LAYER
  5
205
100
AcDbSymbolTableRecord
100
AcDbLayerTableRecord
  2
DRAFT
 70
0
 62
7
  6
CONTINUOUS
370
-3
390
F
  0
LAYER
  5
206
100
AcDbSymbolTableRecord
100
AcDbLayerTableRecord
  2
IMPORT_IGES
 70
0
 62
7
  6
CONTINUOUS
370
-3
390
F
  0
LAYER
  5
207
100
AcDbSymbolTableRecord
100
AcDbLayerTableRecord
  2
INTFCLR_1
 70
0
 62
7
  6
CONTINUOUS
370
-3
390
F
  0
LAYER
  5
208
100
AcDbSymbolTableRecord
100
AcDbLayerTableRecord
  2
INTFCLR_63
 70
0
 62
7
  6
CONTINUOUS
370
-3
390
F
  0
LAYER
  5
209
100
AcDbSymbolTableRecord
100
AcDbLayerTableRecord
  2
INTF_1
 70
0
 62
7
  6
CONTINUOUS
370
-3
390
F
  0
LAYER
  5
20A
100
AcDbSymbolTableRecord
100
AcDbLayerTableRecord
  2
NOTE
 70
0
 62
7
  6
CONTINUOUS
370
-3
390
F
  0
LAYER
  5
20B
100
AcDbSymbolTableRecord
100
AcDbLayerTableRecord
  2
PIANI
 70
0
 62
7
  6
CONTINUOUS
370
-3
390
F
  0
LAYER
  5
20C
100
AcDbSymbolTableRecord
100
AcDbLayerTableRecord
  2
PIANI_ORIGINE
 70
0
 62
7
  6
CONTINUOUS
370
-3
390
F
  0
LAYER
  5
20D
100
AcDbSymbolTableRecord
100
AcDbLayerTableRecord
  2
PUNTI
 70
0
 62
7
  6
CONTINUOUS
370
-3
390
F
  0
LAYER
  5
20E
100
AcDbSymbolTableRecord
100
AcDbLayerTableRecord
  2
RACCORDO
 70
0
 62
7
  6
CONTINUOUS
370
-3
390
F
  0
LAYER
  5
20F
100
AcDbSymbolTableRecord
100
AcDbLayerTableRecord
  2
SMUSSO
 70
0
 62
7
  6
CONTINUOUS
370
-3
390
F
  0
LAYER
  5
210
100
AcDbSymbolTableRecord
100
AcDbLayerTableRecord
  2
SNAPLINE
 70
0
 62
7
  6
CONTINUOUS
370
-3
390
F
  0
LAYER
  5
211
100
AcDbSymbolTableRecord
100
AcDbLayerTableRecord
  2
SUPERFICI
 70
0
 62
7
  6
CONTINUOUS
370
-3
390
F
  0
LAYER
  5
212
100
AcDbSymbolTableRecord
100
AcDbLayerTableRecord
  2
TRASH
 70
0
 62
7
  6
CONTINUOUS
370
-3
390
F
  0
LAYER
  5
213
100
AcDbSymbolTableRecord
100
AcDbLayerTableRecord
  2
XSEC_DATUMS
 70
0
 62
7
  6
CONTINUOUS
370
-3
390
F
  0
ENDTAB
  0
TABLE
  2
STYLE
  5
3
100
AcDbSymbolTable
 70
1
  0
STYLE
  5
11
100
AcDbSymbolTableRecord
100
AcDbTextStyleTableRecord
  2
STANDARD
 70
0
 40
0.0
 41
0.8
 50
0.0
 71
0
 42
0.2
  3
txt
  4

  0
STYLE
  5
214
100
AcDbSymbolTableRecord
100
AcDbTextStyleTableRecord
  2
TEXTSTYLE_1
 70
0
 40
0.0
 41
0.8
 50
0.0
 71
0
 42
0.2
  3
gdt
  4

  0
ENDTAB
  0
TABLE
  2
VIEW
  5
6
100
AcDbSymbolTable
 70
0
  0
ENDTAB
  0
TABLE
  2
UCS
  5
7
100
AcDbSymbolTable
 70
0
  0
ENDTAB
  0
TABLE
  2
APPID
  5
9
100
AcDbSymbolTable
 70
1
  0
APPID
  5
215
100
AcDbSymbolTableRecord
100
AcDbRegAppTableRecord
  2
ACAD
 70
0
  0
ENDTAB
  0
TABLE
  2
BLOCK_RECORD
  5
1
100
AcDbSymbolTable
 70
0
  0
BLOCK_RECORD
  5
216
100
AcDbSymbolTableRecord
100
AcDbBlockTableRecord
  2
*Model_Space
  0
BLOCK_RECORD
  5
217
100
AcDbSymbolTableRecord
100
AcDbBlockTableRecord
  2
*Paper_Space
  0
BLOCK_RECORD
  5
218
100
AcDbSymbolTableRecord
100
AcDbBlockTableRecord
  2
_FILLED
  0
BLOCK_RECORD
  5
219
100
AcDbSymbolTableRecord
100
AcDbBlockTableRecord
  2
*D0
  0
BLOCK_RECORD
  5
21A
100
AcDbSymbolTableRecord
100
AcDbBlockTableRecord
  2
*D1
  0
BLOCK_RECORD
  5
21B
100
AcDbSymbolTableRecord
100
AcDbBlockTableRecord
  2
*D2
  0
BLOCK_RECORD
  5
21C
100
AcDbSymbolTableRecord
100
AcDbBlockTableRecord
  2
*D3
  0
ENDTAB
  0
TABLE
  2
DIMSTYLE
  5
A
100
AcDbSymbolTable
 70
1
100
AcDbDimStyleTable
 71
0
  0
DIMSTYLE
105
21D
100
AcDbSymbolTableRecord
100
AcDbDimStyleTableRecord
  2
STANDARD
 70
0
  3

  4

 40
1.0
 41
3.0
 42
0.0625
 43
0.38
 44
0.18
 45
0.0
 46
0.0
 47
0.01
 48
0.01
140
3.0
141
0.09
142
0.0
143
25.4
144
1.0
145
0.0
146
1.0
147
0.09
 71
1.0
 72
0.0
 73
0
 74
0
 75
0
 76
0
 77
1
 78
8
170
0
171
2
172
0
173
0
174
0
175
0
176
0
177
0
178
0
270
2
271
2
272
2
273
2
274
2
275
0
280
0
281
0
282
0
283
1
284
8
285
0
286
0
287
3
288
0
340
11
341
218
342
218
343
218
344
218
  0
DIMSTYLE
105
21E
100
AcDbSymbolTableRecord
100
AcDbDimStyleTableRecord
  2
DIMSTYLE_1
 70
0
  3

  4

 40
1.0
 41
3.0
 42
0.0625
 43
0.38
 44
0.18
 45
0.0
 46
0.0
 47
0.0
 48
0.0
140
3.0
141
0.09
142
0.0
143
25.4
144
1.0
145
0.0
146
1.0
147
0.09
 71
0.0
 72
0.0
 73
0
 74
0
 75
0
 76
0
 77
1
 78
8
170
0
171
2
172
0
173
0
174
0
175
0
176
0
177
0
178
0
270
2
271
2
272
2
273
2
274
2
275
0
280
0
281
0
282
0
283
1
284
8
285
0
286
0
287
3
288
0
340
11
341
218
342
218
343
218
344
218
  0
ENDTAB
  0
ENDSEC
  0
SECTION
  2
BLOCKS
  0
BLOCK
  5
20
100
AcDbEntity
  8
0
100
AcDbBlockBegin
  2
*Model_Space
 70
0
 10
0.0
 20
0.0
 30
0.0
  3
*Model_Space
  1

  0
ENDBLK
  5
21
100
AcDbEntity
  8
0
100
AcDbBlockEnd
  0
BLOCK
  5
1C
100
AcDbEntity
  8
0
100
AcDbBlockBegin
  2
*Paper_Space
 70
0
 10
0.0
 20
0.0
 30
0.0
  3
*Paper_Space
  1

  0
ENDBLK
  5
1D
100
AcDbEntity
  8
0
100
AcDbBlockEnd
  0
BLOCK
  5
21F
100
AcDbEntity
  8
0
100
AcDbBlockBegin
  2
_FILLED
 70
64
 10
0.0
 20
0.0
  3
_FILLED
  1

  0
SOLID
  5
220
100
AcDbEntity
  8
0
  6
BYBLOCK
 62
0
100
AcDbTrace
 10
0.0
 20
0.0
 11
-1.0
 21
0.3166666667
 12
-1.0
 22
-0.3166666667
 13
-1.0
 23
-0.3166666667
  0
ENDBLK
  5
221
100
AcDbEntity
  8
0
  6
BYBLOCK
 62
0
100
AcDbBlockEnd
  0
BLOCK
  5
222
100
AcDbEntity
  8
0
100
AcDbBlockBegin
 62
7
  6
CONTINUOUS
  2
*D0
 70
65
 10
0.0
 20
0.0
  3
*D0
  1

  0
MTEXT
  5
223
100
AcDbEntity
  8
0
100
AcDbMText
 62
7
  6
CONTINUOUS
  7
STANDARD
 71
2
 72
1
 10
26.65
 20
-0.0
 30
0.0
 11
0.0
 21
1.0
 31
0.0
 44
0.9
  1
47
 40
3.0
 41
4.7142857143
  0
LINE
  5
224
100
AcDbEntity
  8
0
100
AcDbLine
 62
7
  6
CONTINUOUS
 10
15.4248575397
 20
23.5
 11
31.9
 21
23.5
  0
LINE
  5
225
100
AcDbEntity
  8
0
100
AcDbLine
 62
7
  6
CONTINUOUS
 10
15.4248574885
 20
-23.5
 11
31.9
 21
-23.5
  0
LINE
  5
226
100
AcDbEntity
  8
0
100
AcDbLine
 62
7
  6
CONTINUOUS
 10
30.4
 20
23.5
 11
30.4
 21
-0.0
  0
LINE
  5
227
100
AcDbEntity
  8
0
100
AcDbLine
 62
7
  6
CONTINUOUS
 10
30.4
 20
-23.5
 11
30.4
 21
-0.0
  0
INSERT
  5
228
100
AcDbEntity
  8
0
100
AcDbBlockReference
 62
7
  6
CONTINUOUS
  2
_FILLED
 10
30.4
 20
23.5
 41
3.0
 42
3.0
 43
3.0
 50
90.0
  0
INSERT
  5
229
100
AcDbEntity
  8
0
100
AcDbBlockReference
 62
7
  6
CONTINUOUS
  2
_FILLED
 10
30.4
 20
-23.5
 41
3.0
 42
3.0
 43
3.0
 50
270.0
  0
ENDBLK
  5
22A
100
AcDbEntity
  8
0
  6
BYBLOCK
 62
0
100
AcDbBlockEnd
  0
BLOCK
  5
22B
100
AcDbEntity
  8
0
100
AcDbBlockBegin
 62
7
  6
CONTINUOUS
  2
*D1
 70
65
 10
0.0
 20
0.0
  3
*D1
  1

  0
MTEXT
  5
22C
100
AcDbEntity
  8
0
100
AcDbMText
 62
7
  6
CONTINUOUS
  7
STANDARD
 71
2
 72
1
 10
-0.0
 20
35.25
 30
0.0
 11
1.0
 21
0.0
 31
0.0
 44
0.9
  1
44,8
 40
3.0
 41
8.7857142857
  0
LINE
  5
22D
100
AcDbEntity
  8
0
100
AcDbLine
 62
7
  6
CONTINUOUS
 10
22.4
 20
16.619659167
 11
22.4
 21
33.0
  0
LINE
  5
22E
100
AcDbEntity
  8
0
100
AcDbLine
 62
7
  6
CONTINUOUS
 10
-22.4
 20
16.619659167
 11
-22.4
 21
33.0
  0
LINE
  5
22F
100
AcDbEntity
  8
0
100
AcDbLine
 62
7
  6
CONTINUOUS
 10
22.4
 20
31.5
 11
-0.0
 21
31.5
  0
LINE
  5
230
100
AcDbEntity
  8
0
100
AcDbLine
 62
7
  6
CONTINUOUS
 10
-22.4
 20
31.5
 11
-0.0
 21
31.5
  0
INSERT
  5
231
100
AcDbEntity
  8
0
100
AcDbBlockReference
 62
7
  6
CONTINUOUS
  2
_FILLED
 10
22.4
 20
31.5
 41
3.0
 42
3.0
 43
3.0
 50
0.0
  0
INSERT
  5
232
100
AcDbEntity
  8
0
100
AcDbBlockReference
 62
7
  6
CONTINUOUS
  2
_FILLED
 10
-22.4
 20
31.5
 41
3.0
 42
3.0
 43
3.0
 50
180.0
  0
ENDBLK
  5
233
100
AcDbEntity
  8
0
  6
BYBLOCK
 62
0
100
AcDbBlockEnd
  0
BLOCK
  5
234
100
AcDbEntity
  8
0
100
AcDbBlockBegin
 62
7
  6
CONTINUOUS
  2
*D2
 70
65
 10
0.0
 20
0.0
  3
*D2
  1

  0
MTEXT
  5
235
100
AcDbEntity
  8
0
100
AcDbMText
 62
7
  6
CONTINUOUS
  7
STANDARD
 71
2
 72
1
 10
-56.5452848054
 20
35.25
 30
0.0
 11
1.0
 21
0.0
 31
0.0
 44
0.9
  1
29,7
 40
3.0
 41
8.7857142857
  0
LINE
  5
236
100
AcDbEntity
  8
0
100
AcDbLine
 62
7
  6
CONTINUOUS
 10
-71.3952848054
 20
22.3997711479
 11
-71.3952848054
 21
33.0
  0
LINE
  5
237
100
AcDbEntity
  8
0
100
AcDbLine
 62
7
  6
CONTINUOUS
 10
-41.6952848054
 20
1.5163534593
 11
-41.6952848054
 21
33.0
  0
LINE
  5
238
100
AcDbEntity
  8
0
100
AcDbLine
 62
7
  6
CONTINUOUS
 10
-71.3952848054
 20
31.5
 11
-56.5452848054
 21
31.5
  0
LINE
  5
239
100
AcDbEntity
  8
0
100
AcDbLine
 62
7
  6
CONTINUOUS
 10
-41.6952848054
 20
31.5
 11
-56.5452848054
 21
31.5
  0
INSERT
  5
23A
100
AcDbEntity
  8
0
100
AcDbBlockReference
 62
7
  6
CONTINUOUS
  2
_FILLED
 10
-71.3952848054
 20
31.5
 41
3.0
 42
3.0
 43
3.0
 50
180.0
  0
INSERT
  5
23B
100
AcDbEntity
  8
0
100
AcDbBlockReference
 62
7
  6
CONTINUOUS
  2
_FILLED
 10
-41.6952848054
 20
31.5
 41
3.0
 42
3.0
 43
3.0
  0
ENDBLK
  5
23C
100
AcDbEntity
  8
0
  6
BYBLOCK
 62
0
100
AcDbBlockEnd
  0
BLOCK
  5
23D
100
AcDbEntity
  8
0
100
AcDbBlockBegin
 62
7
  6
CONTINUOUS
  2
*D3
 70
65
 10
0.0
 20
0.0
  3
*D3
  1

  0
MTEXT
  5
23E
100
AcDbEntity
  8
0
100
AcDbMText
 62
7
  6
CONTINUOUS
  7
STANDARD
 71
2
 72
1
 10
-61.2952848054
 20
45.25
 30
0.0
 11
1.0
 21
0.0
 31
0.0
 44
0.9
  1
39,2
 40
3.0
 41
8.5714285714
  0
LINE
  5
23F
100
AcDbEntity
  8
0
100
AcDbLine
 62
7
  6
CONTINUOUS
 10
-80.8952848054
 20
0.5
 11
-80.8952848054
 21
43.0
  0
LINE
  5
240
100
AcDbEntity
  8
0
100
AcDbLine
 62
7
  6
CONTINUOUS
 10
-41.6952848054
 20
0.4805671164
 11
-41.6952848054
 21
43.0
  0
LINE
  5
241
100
AcDbEntity
  8
0
100
AcDbLine
 62
7
  6
CONTINUOUS
 10
-80.8952848054
 20
41.5
 11
-61.2952848054
 21
41.5
  0
LINE
  5
242
100
AcDbEntity
  8
0
100
AcDbLine
 62
7
  6
CONTINUOUS
 10
-41.6952848054
 20
41.5
 11
-61.2952848054
 21
41.5
  0
INSERT
  5
243
100
AcDbEntity
  8
0
100
AcDbBlockReference
 62
7
  6
CONTINUOUS
  2
_FILLED
 10
-80.8952848054
 20
41.5
 41
3.0
 42
3.0
 43
3.0
 50
180.0
  0
INSERT
  5
244
100
AcDbEntity
  8
0
100
AcDbBlockReference
 62
7
  6
CONTINUOUS
  2
_FILLED
 10
-41.6952848054
 20
41.5
 41
3.0
 42
3.0
 43
3.0
  0
ENDBLK
  5
245
100
AcDbEntity
  8
0
  6
BYBLOCK
 62
0
100
AcDbBlockEnd
  0
ENDSEC
  0
SECTION
  2
ENTITIES
  0
DIMENSION
  5
246
100
AcDbEntity
  8
0
100
AcDbDimension
 62
7
  6
CONTINUOUS
  2
*D0
 10
30.4
 20
-23.5
 11
29.2061735237
 21
-2.1072778499
 70
160
 71
2
 42
47.0
  3
DIMSTYLE_1
100
AcDbAlignedDimension
 13
15.4248575397
 23
23.5
 14
15.4248574885
 24
-23.5
 50
270.0
100
AcDbRotatedDimension
  0
DIMENSION
  5
247
100
AcDbEntity
  8
0
100
AcDbDimension
 62
7
  6
CONTINUOUS
  2
*D1
 10
-22.4
 20
31.5
 11
-4.3928571429
 21
33.75
 70
160
 71
2
 42
44.8
  3
DIMSTYLE_1
100
AcDbAlignedDimension
 13
22.4
 23
16.619659167
 14
-22.4
 24
16.619659167
 50
180.0
100
AcDbRotatedDimension
  0
DIMENSION
  5
248
100
AcDbEntity
  8
0
100
AcDbDimension
 62
7
  6
CONTINUOUS
  2
*D2
 10
-41.6952848054
 20
31.5
 11
-60.9381419483
 21
33.75
 70
160
 71
2
 42
29.7
  3
DIMSTYLE_1
100
AcDbAlignedDimension
 13
-71.3952848054
 23
22.3997711479
 14
-41.6952848054
 24
1.5163534593
100
AcDbRotatedDimension
  0
DIMENSION
  5
249
100
AcDbEntity
  8
0
100
AcDbDimension
 62
7
  6
CONTINUOUS
  2
*D3
 10
-41.6952848054
 20
41.5
 11
-65.5809990911
 21
43.75
 70
160
 71
2
 42
39.2
  3
DIMSTYLE_1
100
AcDbAlignedDimension
 13
-80.8952848054
 23
0.5
 14
-41.6952848054
 24
0.4805671164
100
AcDbRotatedDimension
  0
LINE
  5
24A
100
AcDbEntity
  8
DRAFT
100
AcDbLine
 62
7
  6
CONTINUOUS
 10
-14.4165716943
 20
22.5
 11
-14.55
 21
22.4
  0
LINE
  5
24B
100
AcDbEntity
  8
DRAFT
100
AcDbLine
 62
7
  6
CONTINUOUS
 10
-14.4165716943
 20
-22.5
 11
-14.55
 21
-22.4
  0
LINE
  5
24C
100
AcDbEntity
  8
0
100
AcDbLine
 62
7
  6
CONTINUOUS
 10
-22.4
 20
16.119659167
 11
-22.4
 21
-16.1196591662
  0
LINE
  5
24D
100
AcDbEntity
  8
SUPERFICI
100
AcDbLine
 62
7
  6
CONTINUOUS
 10
-22.4
 20
-21.8997711479
 11
-22.4
 21
21.8997711479
  0
LINE
  5
24E
100
AcDbEntity
  8
0
100
AcDbLine
 62
7
  6
CONTINUOUS
 10
-14.9248574885
 20
-23.5
 11
-7.5751425115
 21
-23.5
  0
LINE
  5
24F
100
AcDbEntity
  8
0
100
AcDbLine
 62
7
  6
CONTINUOUS
 10
7.5751425115
 20
-23.5
 11
14.9248574885
 21
-23.5
  0
LINE
  5
250
100
AcDbEntity
  8
0
100
AcDbLine
 62
7
  6
CONTINUOUS
 10
-14.7198202597
 20
-22.5
 11
-7.7801797403
 21
-22.5
  0
LINE
  5
251
100
AcDbEntity
  8
0
100
AcDbLine
 62
7
  6
CONTINUOUS
 10
7.7801797403
 20
-22.5
 11
14.7198202597
 21
-22.5
  0
LINE
  5
252
100
AcDbEntity
  8
DRAFT
100
AcDbLine
 62
7
  6
CONTINUOUS
 10
21.9003805997
 20
-22.4
 11
14.55
 21
-22.4
  0
LINE
  5
253
100
AcDbEntity
  8
DRAFT
100
AcDbLine
 62
7
  6
CONTINUOUS
 10
7.95
 20
-22.4
 11
-7.95
 21
-22.4
  0
LINE
  5
254
100
AcDbEntity
  8
DRAFT
100
AcDbLine
 62
7
  6
CONTINUOUS
 10
-14.55
 20
-22.4
 11
-21.9003805997
 21
-22.4
  0
LINE
  5
255
100
AcDbEntity
  8
SUPERFICI
100
AcDbLine
 62
253
  6
CONTINUOUS
 10
21.7587981167
 20
-21.9749071372
 11
-21.7587981167
 21
-21.9749071372
  0
LINE
  5
256
100
AcDbEntity
  8
SUPERFICI
100
AcDbLine
 62
253
  6
CONTINUOUS
 10
21.7505350625
 20
-21.0183142309
 11
-21.7505350625
 21
-21.0183142309
  0
LINE
  5
257
100
AcDbEntity
  8
SUPERFICI
100
AcDbLine
 62
7
  6
CONTINUOUS
 10
-14.6133443637
 20
22.5
 11
-14.6348722771
 21
22.4
  0
LINE
  5
258
100
AcDbEntity
  8
SUPERFICI
100
AcDbLine
 62
7
  6
CONTINUOUS
 10
-14.6133443637
 20
-22.5
 11
-14.6348722771
 21
-22.4
  0
LINE
  5
259
100
AcDbEntity
  8
DRAFT
100
AcDbLine
 62
7
  6
CONTINUOUS
 10
-14.7198202597
 20
22.5
 11
-14.7198202597
 21
22.4
  0
LINE
  5
25A
100
AcDbEntity
  8
DRAFT
100
AcDbLine
 62
7
  6
CONTINUOUS
 10
-14.7198202597
 20
-22.5
 11
-14.7198202597
 21
-22.4
  0
LINE
  5
25B
100
AcDbEntity
  8
SUPERFICI
100
AcDbLine
 62
253
  6
CONTINUOUS
 10
-22.4
 20
-21.8997711479
 11
-22.2587219643
 21
-21.4755923698
  0
LINE
  5
25C
100
AcDbEntity
  8
SUPERFICI
100
AcDbLine
 62
253
  6
CONTINUOUS
 10
-21.9003805997
 20
-22.4
 11
-21.7587981167
 21
-21.9749071372
  0
LINE
  5
25D
100
AcDbEntity
  8
DRAFT
100
AcDbLine
 62
7
  6
CONTINUOUS
 10
8.0834283057
 20
22.5
 11
7.95
 21
22.4
  0
LINE
  5
25E
100
AcDbEntity
  8
DRAFT
100
AcDbLine
 62
7
  6
CONTINUOUS
 10
8.0834283057
 20
-22.5
 11
7.95
 21
-22.4
  0
LINE
  5
25F
100
AcDbEntity
  8
SUPERFICI
100
AcDbLine
 62
253
  6
CONTINUOUS
 10
-22.2587219643
 20
21.4755923698
 11
-22.4
 21
21.8997711479
  0
LINE
  5
260
100
AcDbEntity
  8
SUPERFICI
100
AcDbLine
 62
253
  6
CONTINUOUS
 10
-21.7587981167
 20
21.9749071372
 11
-21.9003805997
 21
22.4
  0
LINE
  5
261
100
AcDbEntity
  8
RACCORDO
100
AcDbLine
 62
7
  6
CONTINUOUS
 10
-11.1067248995
 20
-0.8364323951
 11
-11.021514712
 21
0.7894748401
  0
LINE
  5
262
100
AcDbEntity
  8
DRAFT
100
AcDbLine
 62
7
  6
CONTINUOUS
 10
-11.021514712
 20
0.7894748401
 11
-11.0
 21
1.2
  0
LINE
  5
263
100
AcDbEntity
  8
DRAFT
100
AcDbLine
 62
7
  6
CONTINUOUS
 10
-11.0
 20
1.2
 11
-10.9142649198
 21
2.1799564509
  0
LINE
  5
264
100
AcDbEntity
  8
SUPERFICI
100
AcDbLine
 62
7
  6
CONTINUOUS
 10
-7.8133443637
 20
22.5
 11
-7.8348722771
 21
22.4
  0
LINE
  5
265
100
AcDbEntity
  8
0
100
AcDbLine
 62
7
  6
CONTINUOUS
 10
-0.8629122457
 20
-11.7408409107
 11
-1.1720275372
 21
-11.8193585955
  0
LINE
  5
266
100
AcDbEntity
  8
0
100
AcDbLine
 62
7
  6
CONTINUOUS
 10
0.8629122439
 20
-11.7408409124
 11
1.172027535
 21
-11.8193585966
  0
LINE
  5
267
100
AcDbEntity
  8
SUPERFICI
100
AcDbLine
 62
7
  6
CONTINUOUS
 10
-7.8133443637
 20
-22.5
 11
-7.8348722771
 21
-22.4
  0
LINE
  5
268
100
AcDbEntity
  8
RACCORDO
100
AcDbLine
 62
253
  6
CONTINUOUS
 10
-11.1067248995
 20
-0.8364323951
 11
-10.8535720709
 21
-2.2180874427
  0
LINE
  5
269
100
AcDbEntity
  8
RACCORDO
100
AcDbLine
 62
253
  6
CONTINUOUS
 10
-10.9850917851
 20
0.2937098684
 11
-10.5115593571
 21
-2.2907308147
  0
LINE
  5
26A
100
AcDbEntity
  8
RACCORDO
100
AcDbLine
 62
253
  6
CONTINUOUS
 10
-10.5115593571
 20
-2.2907308147
 11
-10.3255954244
 21
1.2576724046
  0
LINE
  5
26B
100
AcDbEntity
  8
RACCORDO
100
AcDbLine
 62
253
  6
CONTINUOUS
 10
-10.2020932489
 20
-2.2399526006
 11
-10.0065732245
 21
1.4907917116
  0
LINE
  5
26C
100
AcDbEntity
  8
SUPERFICI
100
AcDbLine
 62
7
  6
CONTINUOUS
 10
-14.6866556363
 20
-22.5
 11
-14.6651277229
 21
-22.4
  0
LINE
  5
26D
100
AcDbEntity
  8
RACCORDO
100
AcDbLine
 62
7
  6
CONTINUOUS
 10
-10.9850917851
 20
0.2937098684
 11
-10.3255954244
 21
1.2576724046
  0
LINE
  5
26E
100
AcDbEntity
  8
0
100
AcDbLine
 62
253
  6
CONTINUOUS
 10
-1.2970439392
 20
-9.5
 11
-2.2977419102
 21
-9.5000706484
  0
LINE
  5
26F
100
AcDbEntity
  8
0
100
AcDbLine
 62
253
  6
CONTINUOUS
 10
1.2970439392
 20
-9.5
 11
2.2977419102
 21
-9.5000706159
  0
LWPOLYLINE
  5
270
100
AcDbEntity
  8
0
100
AcDbPolyline
 62
7
  6
CONTINUOUS
 90
16
 70
0
 10
-0.5039970559
 20
-11.3688913717
 10
-0.56611292
 20
-11.3069178478
 10
-0.6662803485
 20
-11.1974672756
 10
-0.7593652373
 20
-11.0832101108
 10
-0.845439245
 20
-10.9642958511
 10
-0.9243961434
 20
-10.8412616449
 10
-0.9959253411
 20
-10.7147229865
 10
-1.0602324301
 20
-10.5842643618
 10
-1.1172493108
 20
-10.4501052212
 10
-1.1665314838
 20
-10.3135844633
 10
-1.2081617618
 20
-10.1742010797
 10
-1.2421088842
 20
-10.031632683
 10
-1.2680478996
 20
-9.8873922314
 10
-1.285838179
 20
-9.7417667257
 10
-1.2953753923
 20
-9.5937312745
 10
-1.2970439392
 20
-9.5
  0
LINE
  5
271
100
AcDbEntity
  8
SUPERFICI
100
AcDbLine
 62
7
  6
CONTINUOUS
 10
-14.6866556363
 20
22.5
 11
-14.6651277229
 21
22.4
  0
LINE
  5
272
100
AcDbEntity
  8
DRAFT
100
AcDbLine
 62
7
  6
CONTINUOUS
 10
-7.7801797403
 20
-22.4
 11
-7.7801797403
 21
-22.5
  0
LINE
  5
273
100
AcDbEntity
  8
DRAFT
100
AcDbLine
 62
7
  6
CONTINUOUS
 10
-7.7801797403
 20
22.4
 11
-7.7801797403
 21
22.5
  0
LINE
  5
274
100
AcDbEntity
  8
0
100
AcDbLine
 62
7
  6
CONTINUOUS
 10
0.8654929938
 20
-7.2603474052
 11
1.1670624703
 21
-7.1780172322
  0
LINE
  5
275
100
AcDbEntity
  8
0
100
AcDbLine
 62
7
  6
CONTINUOUS
 10
0.1197125025
 20
-7.0
 11
-0.1192318221
 21
-7.0
  0
LINE
  5
276
100
AcDbEntity
  8
0
100
AcDbLine
 62
7
  6
CONTINUOUS
 10
-0.8654929922
 20
-7.2603474036
 11
-1.1670624684
 21
-7.1780172312
  0
LINE
  5
277
100
AcDbEntity
  8
0
100
AcDbLine
 62
7
  6
CONTINUOUS
 10
-0.4931435258
 20
-11.3800038689
 11
-0.5040044589
 21
-11.3689054999
  0
LINE
  5
278
100
AcDbEntity
  8
0
100
AcDbLine
 62
7
  6
CONTINUOUS
 10
0.504006254
 20
-11.3689071668
 11
0.8628506036
 21
-11.7409003246
  0
LWPOLYLINE
  5
279
100
AcDbEntity
  8
0
100
AcDbPolyline
 62
7
  6
CONTINUOUS
 90
4
 70
0
 10
-0.3668121615
 20
-11.5248227383
 10
-0.4061269321
 20
-11.476289567
 10
-0.4482625408
 20
-11.4279315809
 10
-0.4931435258
 20
-11.3800038689
  0
LINE
  5
27A
100
AcDbEntity
  8
0
100
AcDbLine
 62
7
  6
CONTINUOUS
 10
-0.3564751342
 20
-11.53820115
 11
-0.3668121615
 21
-11.5248227383
  0
LINE
  5
27B
100
AcDbEntity
  8
0
100
AcDbLine
 62
7
  6
CONTINUOUS
 10
-0.5070472287
 20
-7.6312281349
 11
-0.5056491423
 21
-7.6326007044
  0
LWPOLYLINE
  5
27C
100
AcDbEntity
  8
0
100
AcDbPolyline
 62
7
  6
CONTINUOUS
 90
16
 70
0
 10
0.5056389371
 20
-7.6326167448
 10
0.5677061028
 20
-7.6946503676
 10
0.6676851118
 20
-7.8040824966
 10
0.7605794448
 20
-7.9182931316
 10
0.8464778482
 20
-8.0371515815
 10
0.9252747885
 20
-8.1601216956
 10
0.9966473627
 20
-8.2865710077
 10
1.060810003
 20
-8.4169268585
 10
1.1177034788
 20
-8.5509848827
 10
1.1668742538
 20
-8.6873908338
 10
1.2084047475
 20
-8.8266454804
 10
1.2422710434
 20
-8.9690896859
 10
1.2681477436
 20
-9.1132126743
 10
1.2858890581
 20
-9.2587232153
 10
1.2953904678
 20
-9.4066413922
 10
1.2970439392
 20
-9.5
  0
LINE
  5
27D
100
AcDbEntity
  8
0
100
AcDbLine
 62
7
  6
CONTINUOUS
 10
-0.5056491423
 20
-7.6326007044
 11
-0.8654379991
 21
-7.2602942989
  0
LWPOLYLINE
  5
27E
100
AcDbEntity
  8
0
100
AcDbPolyline
 62
7
  6
CONTINUOUS
 90
5
 70
0
 10
0.3726751594
 20
-7.4816019631
 10
0.4125514063
 20
-7.5303876973
 10
0.4521285718
 20
-7.5756333336
 10
0.4935824316
 20
-7.6201434001
 10
0.505646551
 20
-7.63260317
  0
LINE
  5
27F
100
AcDbEntity
  8
0
100
AcDbLine
 62
7
  6
CONTINUOUS
 10
-0.795246433
 20
-11.9741059474
 11
-0.8629122457
 21
-11.7408409107
  0
LINE
  5
280
100
AcDbEntity
  8
SUPERFICI
100
AcDbLine
 62
7
  6
CONTINUOUS
 10
-7.8866556363
 20
-22.5
 11
-7.8651277229
 21
-22.4
  0
LINE
  5
281
100
AcDbEntity
  8
SUPERFICI
100
AcDbLine
 62
7
  6
CONTINUOUS
 10
-7.8866556363
 20
22.5
 11
-7.8651277229
 21
22.4
  0
LWPOLYLINE
  5
282
100
AcDbEntity
  8
0
100
AcDbPolyline
 62
7
  6
CONTINUOUS
 90
16
 70
0
 10
-1.2970439392
 20
-9.5
 10
-1.2952200317
 20
-9.4019668862
 10
-1.2854571
 20
-9.2541322858
 10
-1.2674628441
 20
-9.1086989232
 10
-1.2413412631
 20
-8.9646460609
 10
-1.2072277661
 20
-8.8222652078
 10
-1.1654465901
 20
-8.6830670285
 10
-1.1160237251
 20
-8.5467122761
 10
-1.0588718845
 20
-8.4127021941
 10
-0.9944374102
 20
-8.2823930971
 10
-0.9227816121
 20
-8.1559894275
 10
-0.843690704
 20
-8.0330651593
 10
-0.7574816186
 20
-7.9142617446
 10
-0.6642590356
 20
-7.800116956
 10
-0.5639359726
 20
-7.6907618518
 10
-0.5056389371
 20
-7.6326167448
  0
LINE
  5
283
100
AcDbEntity
  8
0
100
AcDbLine
 62
7
  6
CONTINUOUS
 10
0.8654929938
 20
-7.2603474052
 11
0.7920306221
 21
-7.0247677312
  0
LWPOLYLINE
  5
284
100
AcDbEntity
  8
0
100
AcDbPolyline
 62
7
  6
CONTINUOUS
 90
16
 70
0
 10
1.2970439392
 20
-9.5
 10
1.2952048676
 20
-9.5983876113
 10
1.2854066912
 20
-9.7463423245
 10
1.2673637336
 20
-9.8918934836
 10
1.2411797492
 20
-10.0360665418
 10
1.2069849728
 20
-10.1785741122
 10
1.1651033635
 20
-10.3179033971
 10
1.1155682667
 20
-10.4543751672
 10
1.0582918938
 20
-10.5884882096
 10
0.993711733
 20
-10.7189016274
 10
0.9218979702
 20
-10.8453959927
 10
0.8426456662
 20
-10.9683854211
 10
0.7562595339
 20
-11.0872452656
 10
0.6628450241
 20
-11.2014368493
 10
0.5623322408
 20
-11.3108103829
 10
0.5039970559
 20
-11.3688913717
  0
LINE
  5
285
100
AcDbEntity
  8
0
100
AcDbLine
 62
7
  6
CONTINUOUS
 10
-0.8654929922
 20
-7.2603474036
 11
-0.7920306213
 21
-7.0247677309
  0
LINE
  5
286
100
AcDbEntity
  8
DRAFT
100
AcDbLine
 62
7
  6
CONTINUOUS
 10
11.9761274537
 20
0.7894748401
 11
11.021514712
 21
0.7894748401
  0
LINE
  5
287
100
AcDbEntity
  8
DRAFT
100
AcDbLine
 62
7
  6
CONTINUOUS
 10
-11.021514712
 20
0.7894748401
 11
-11.9761274537
 21
0.7894748401
  0
LINE
  5
288
100
AcDbEntity
  8
DRAFT
100
AcDbLine
 62
7
  6
CONTINUOUS
 10
11.8045743439
 20
1.2
 11
11.0
 21
1.2
  0
LINE
  5
289
100
AcDbEntity
  8
DRAFT
100
AcDbLine
 62
7
  6
CONTINUOUS
 10
-11.0
 20
1.2
 11
-11.8045743439
 21
1.2
  0
LINE
  5
28A
100
AcDbEntity
  8
SUPERFICI
100
AcDbLine
 62
7
  6
CONTINUOUS
 10
7.8866556363
 20
22.5
 11
7.8651277229
 21
22.4
  0
LINE
  5
28B
100
AcDbEntity
  8
0
100
AcDbLine
 62
7
  6
CONTINUOUS
 10
0.8629122439
 20
-11.7408409124
 11
0.795246432
 21
-11.9741059478
  0
LINE
  5
28C
100
AcDbEntity
  8
0
100
AcDbLine
 62
7
  6
CONTINUOUS
 10
-0.3939939403
 20
-7.5085448888
 11
-0.3518241281
 21
-7.4548137815
  0
LINE
  5
28D
100
AcDbEntity
  8
RACCORDO
100
AcDbLine
 62
7
  6
CONTINUOUS
 10
-10.0065732245
 20
1.4907917116
 11
-7.6224493924
 21
1.7963258365
  0
LINE
  5
28E
100
AcDbEntity
  8
RACCORDO
100
AcDbLine
 62
7
  6
CONTINUOUS
 10
7.6224493924
 20
1.7963258365
 11
10.0065732245
 21
1.4907917116
  0
LINE
  5
28F
100
AcDbEntity
  8
SUPERFICI
100
AcDbLine
 62
7
  6
CONTINUOUS
 10
7.8866556363
 20
-22.5
 11
7.8651277229
 21
-22.4
  0
LWPOLYLINE
  5
290
100
AcDbEntity
  8
0
100
AcDbPolyline
 62
7
  6
CONTINUOUS
 90
3
 70
0
 10
-0.4918370273
 20
-7.618467901
 10
-0.4412215165
 20
-7.5638960208
 10
-0.3939939403
 20
-7.5085448888
  0
LINE
  5
291
100
AcDbEntity
  8
0
100
AcDbLine
 62
7
  6
CONTINUOUS
 10
0.8654929938
 20
-7.2603474052
 11
0.505646551
 21
-7.63260317
  0
LINE
  5
292
100
AcDbEntity
  8
0
100
AcDbLine
 62
7
  6
CONTINUOUS
 10
-0.5056465692
 20
-7.6326031619
 11
-0.4918370273
 21
-7.618467901
  0
LINE
  5
293
100
AcDbEntity
  8
DRAFT
100
AcDbLine
 62
7
  6
CONTINUOUS
 10
7.7801797403
 20
22.5
 11
7.7801797403
 21
22.4
  0
LINE
  5
294
100
AcDbEntity
  8
DRAFT
100
AcDbLine
 62
7
  6
CONTINUOUS
 10
7.7801797403
 20
-22.5
 11
7.7801797403
 21
-22.4
  0
LINE
  5
295
100
AcDbEntity
  8
0
100
AcDbLine
 62
7
  6
CONTINUOUS
 10
0.4155066625
 20
-11.4654430302
 11
0.3763921997
 21
-11.5125984318
  0
LWPOLYLINE
  5
296
100
AcDbEntity
  8
0
100
AcDbPolyline
 62
7
  6
CONTINUOUS
 90
3
 70
0
 10
0.4933170739
 20
-11.379943012
 10
0.4536466477
 20
-11.4223162149
 10
0.4155066625
 20
-11.4654430302
  0
LINE
  5
297
100
AcDbEntity
  8
0
100
AcDbLine
 62
7
  6
CONTINUOUS
 10
-0.5040044589
 20
-11.3689054999
 11
-0.8629122457
 21
-11.7408409107
  0
LINE
  5
298
100
AcDbEntity
  8
0
100
AcDbLine
 62
7
  6
CONTINUOUS
 10
0.5040044597
 20
-11.3689055003
 11
0.4933170739
 21
-11.379943012
  0
LINE
  5
299
100
AcDbEntity
  8
0
100
AcDbLine
 62
7
  6
CONTINUOUS
 10
-0.5040074101
 20
-11.3689083052
 11
-0.5043421015
 21
-11.3692384351
  0
LINE
  5
29A
100
AcDbEntity
  8
DRAFT
100
AcDbLine
 62
7
  6
CONTINUOUS
 10
10.9142649198
 20
2.1799564509
 11
11.0
 21
1.2
  0
LINE
  5
29B
100
AcDbEntity
  8
RACCORDO
100
AcDbLine
 62
253
  6
CONTINUOUS
 10
10.0065732245
 20
1.4907917116
 11
10.2020932489
 21
-2.2399526006
  0
LINE
  5
29C
100
AcDbEntity
  8
RACCORDO
100
AcDbLine
 62
253
  6
CONTINUOUS
 10
10.3255954244
 20
1.2576724046
 11
10.5115593571
 21
-2.2907308147
  0
LINE
  5
29D
100
AcDbEntity
  8
RACCORDO
100
AcDbLine
 62
7
  6
CONTINUOUS
 10
11.021514712
 20
0.7894748401
 11
11.1067248995
 21
-0.8364323951
  0
LINE
  5
29E
100
AcDbEntity
  8
DRAFT
100
AcDbLine
 62
7
  6
CONTINUOUS
 10
11.021514712
 20
0.7894748401
 11
11.0
 21
1.2
  0
LINE
  5
29F
100
AcDbEntity
  8
RACCORDO
100
AcDbLine
 62
253
  6
CONTINUOUS
 10
10.5115593571
 20
-2.2907308147
 11
10.9850917851
 21
0.2937098684
  0
LINE
  5
2A0
100
AcDbEntity
  8
RACCORDO
100
AcDbLine
 62
253
  6
CONTINUOUS
 10
10.8535720709
 20
-2.2180874427
 11
11.1067248995
 21
-0.8364323951
  0
LINE
  5
2A1
100
AcDbEntity
  8
SUPERFICI
100
AcDbLine
 62
7
  6
CONTINUOUS
 10
14.6866556363
 20
22.5
 11
14.6651277229
 21
22.4
  0
LINE
  5
2A2
100
AcDbEntity
  8
RACCORDO
100
AcDbLine
 62
7
  6
CONTINUOUS
 10
10.3255954244
 20
1.2576724046
 11
10.9850917851
 21
0.2937098684
  0
LINE
  5
2A3
100
AcDbEntity
  8
SUPERFICI
100
AcDbLine
 62
7
  6
CONTINUOUS
 10
14.6866556363
 20
-22.5
 11
14.6651277229
 21
-22.4
  0
LINE
  5
2A4
100
AcDbEntity
  8
SUPERFICI
100
AcDbLine
 62
7
  6
CONTINUOUS
 10
7.8133443637
 20
-22.5
 11
7.8348722771
 21
-22.4
  0
LINE
  5
2A5
100
AcDbEntity
  8
DRAFT
100
AcDbLine
 62
7
  6
CONTINUOUS
 10
-8.0834283057
 20
-22.5
 11
-7.95
 21
-22.4
  0
LINE
  5
2A6
100
AcDbEntity
  8
DRAFT
100
AcDbLine
 62
7
  6
CONTINUOUS
 10
-8.0834283057
 20
22.5
 11
-7.95
 21
22.4
  0
LINE
  5
2A7
100
AcDbEntity
  8
SUPERFICI
100
AcDbLine
 62
7
  6
CONTINUOUS
 10
7.8133443637
 20
22.5
 11
7.8348722771
 21
22.4
  0
LINE
  5
2A8
100
AcDbEntity
  8
DRAFT
100
AcDbLine
 62
7
  6
CONTINUOUS
 10
14.7198202597
 20
-22.4
 11
14.7198202597
 21
-22.5
  0
LINE
  5
2A9
100
AcDbEntity
  8
DRAFT
100
AcDbLine
 62
7
  6
CONTINUOUS
 10
14.7198202597
 20
22.4
 11
14.7198202597
 21
22.5
  0
LINE
  5
2AA
100
AcDbEntity
  8
SUPERFICI
100
AcDbLine
 62
253
  6
CONTINUOUS
 10
21.7587981167
 20
21.9749071372
 11
21.9003805997
 21
22.4
  0
LINE
  5
2AB
100
AcDbEntity
  8
SUPERFICI
100
AcDbLine
 62
253
  6
CONTINUOUS
 10
22.2587219643
 20
21.4755923698
 11
22.4
 21
21.8997711479
  0
LINE
  5
2AC
100
AcDbEntity
  8
SUPERFICI
100
AcDbLine
 62
253
  6
CONTINUOUS
 10
21.9003805997
 20
-22.4
 11
21.7587981167
 21
-21.9749071372
  0
LINE
  5
2AD
100
AcDbEntity
  8
SUPERFICI
100
AcDbLine
 62
253
  6
CONTINUOUS
 10
22.4
 20
-21.8997711479
 11
22.2587219643
 21
-21.4755923698
  0
LINE
  5
2AE
100
AcDbEntity
  8
SUPERFICI
100
AcDbLine
 62
7
  6
CONTINUOUS
 10
14.6133443637
 20
-22.5
 11
14.6348722771
 21
-22.4
  0
LINE
  5
2AF
100
AcDbEntity
  8
SUPERFICI
100
AcDbLine
 62
7
  6
CONTINUOUS
 10
14.6133443637
 20
22.5
 11
14.6348722771
 21
22.4
  0
LINE
  5
2B0
100
AcDbEntity
  8
SUPERFICI
100
AcDbLine
 62
253
  6
CONTINUOUS
 10
-21.7505350625
 20
21.0183142309
 11
21.7505350625
 21
21.0183142309
  0
LINE
  5
2B1
100
AcDbEntity
  8
SUPERFICI
100
AcDbLine
 62
7
  6
CONTINUOUS
 10
22.4
 20
21.8997711479
 11
22.4
 21
-21.8997711479
  0
LINE
  5
2B2
100
AcDbEntity
  8
0
100
AcDbLine
 62
7
  6
CONTINUOUS
 10
22.4
 20
-16.1196591662
 11
22.4
 21
16.119659167
  0
LINE
  5
2B3
100
AcDbEntity
  8
SUPERFICI
100
AcDbLine
 62
253
  6
CONTINUOUS
 10
-21.7587981167
 20
21.9749071372
 11
21.7587981167
 21
21.9749071372
  0
LINE
  5
2B4
100
AcDbEntity
  8
DRAFT
100
AcDbLine
 62
7
  6
CONTINUOUS
 10
-21.9003805997
 20
22.4
 11
-14.55
 21
22.4
  0
LINE
  5
2B5
100
AcDbEntity
  8
DRAFT
100
AcDbLine
 62
7
  6
CONTINUOUS
 10
-7.95
 20
22.4
 11
7.95
 21
22.4
  0
LINE
  5
2B6
100
AcDbEntity
  8
DRAFT
100
AcDbLine
 62
7
  6
CONTINUOUS
 10
14.55
 20
22.4
 11
21.9003805997
 21
22.4
  0
LINE
  5
2B7
100
AcDbEntity
  8
0
100
AcDbLine
 62
7
  6
CONTINUOUS
 10
-14.7198202597
 20
22.5
 11
-7.7801797403
 21
22.5
  0
LINE
  5
2B8
100
AcDbEntity
  8
0
100
AcDbLine
 62
7
  6
CONTINUOUS
 10
7.7801797403
 20
22.5
 11
14.7198202597
 21
22.5
  0
LINE
  5
2B9
100
AcDbEntity
  8
0
100
AcDbLine
 62
7
  6
CONTINUOUS
 10
-14.9248575397
 20
23.5
 11
-7.5751424603
 21
23.5
  0
LINE
  5
2BA
100
AcDbEntity
  8
0
100
AcDbLine
 62
7
  6
CONTINUOUS
 10
7.5751424603
 20
23.5
 11
14.9248575397
 21
23.5
  0
LINE
  5
2BB
100
AcDbEntity
  8
DRAFT
100
AcDbLine
 62
7
  6
CONTINUOUS
 10
14.4165716943
 20
-22.5
 11
14.55
 21
-22.4
  0
LINE
  5
2BC
100
AcDbEntity
  8
DRAFT
100
AcDbLine
 62
7
  6
CONTINUOUS
 10
14.4165716943
 20
22.5
 11
14.55
 21
22.4
  0
LINE
  5
2BD
100
AcDbEntity
  8
SUPERFICI
100
AcDbLine
 62
7
  6
CONTINUOUS
 10
-67.3952848054
 20
-23.4301797403
 11
-69.4952848054
 21
-23.4668353766
  0
LINE
  5
2BE
100
AcDbEntity
  8
0
100
AcDbLine
 62
7
  6
CONTINUOUS
 10
-67.3952848054
 20
-23.4301797403
 11
-71.3952848054
 21
-23.5
  0
LINE
  5
2BF
100
AcDbEntity
  8
SUPERFICI
100
AcDbLine
 62
7
  6
CONTINUOUS
 10
-71.3952848054
 20
-22.4
 11
-79.5065398253
 21
-21.9749071372
  0
LINE
  5
2C0
100
AcDbEntity
  8
SUPERFICI
100
AcDbLine
 62
253
  6
CONTINUOUS
 10
-71.3952848054
 20
-21.8997711479
 11
-79.4890980504
 21
-21.4755923698
  0
LINE
  5
2C1
100
AcDbEntity
  8
0
100
AcDbLine
 62
7
  6
CONTINUOUS
 10
-71.3952848054
 20
22.663166622
 11
-71.3952848054
 21
22.4
  0
LINE
  5
2C2
100
AcDbEntity
  8
0
100
AcDbLine
 62
7
  6
CONTINUOUS
 10
-71.3952848054
 20
-22.663166622
 11
-71.3952848054
 21
-22.4
  0
LINE
  5
2C3
100
AcDbEntity
  8
SUPERFICI
100
AcDbLine
 62
7
  6
CONTINUOUS
 10
-71.3952848054
 20
22.4
 11
-71.3952848054
 21
-22.4
  0
LINE
  5
2C4
100
AcDbEntity
  8
0
100
AcDbLine
 62
7
  6
CONTINUOUS
 10
-71.3952848054
 20
-22.6906339609
 11
-71.3952848054
 21
-23.5
  0
LINE
  5
2C5
100
AcDbEntity
  8
0
100
AcDbLine
 62
7
  6
CONTINUOUS
 10
-71.3952848054
 20
-16.1196591662
 11
-71.3952848054
 21
16.119659167
  0
LINE
  5
2C6
100
AcDbEntity
  8
0
100
AcDbLine
 62
7
  6
CONTINUOUS
 10
-71.3952848054
 20
22.6906339609
 11
-71.3952848054
 21
23.5
  0
LINE
  5
2C7
100
AcDbEntity
  8
RACCORDO
100
AcDbLine
 62
7
  6
CONTINUOUS
 10
-63.4244300075
 20
-21.1306884717
 11
-67.1987752867
 21
-21.1965699136
  0
LINE
  5
2C8
100
AcDbEntity
  8
RACCORDO
100
AcDbLine
 62
7
  6
CONTINUOUS
 10
-62.2077204152
 20
-20.1124356098
 11
-44.1865586022
 21
-19.7978750603
  0
LINE
  5
2C9
100
AcDbEntity
  8
SUPERFICI
100
AcDbLine
 62
7
  6
CONTINUOUS
 10
-65.2457893215
 20
-22.2
 11
-65.7952848054
 21
-22.2
  0
LINE
  5
2CA
100
AcDbEntity
  8
SUPERFICI
100
AcDbLine
 62
253
  6
CONTINUOUS
 10
-80.4533199287
 20
-21.0183142305
 11
-79.9624881074
 21
-20.9972959167
  0
LINE
  5
2CB
100
AcDbEntity
  8
RACCORDO
100
AcDbLine
 62
253
  6
CONTINUOUS
 10
-61.6989153421
 20
-19.6036305367
 11
-44.1865586022
 21
-19.2979512127
  0
LINE
  5
2CC
100
AcDbEntity
  8
RACCORDO
100
AcDbLine
 62
7
  6
CONTINUOUS
 10
-61.2933024601
 20
-19.396474385
 11
-44.1865586022
 21
-19.0978750603
  0
LINE
  5
2CD
100
AcDbEntity
  8
RACCORDO
100
AcDbLine
 62
253
  6
CONTINUOUS
 10
-53.7952848054
 20
-18.4657178439
 11
-44.1865586022
 21
-18.2979969042
  0
LINE
  5
2CE
100
AcDbEntity
  8
DRAFT
100
AcDbLine
 62
7
  6
CONTINUOUS
 10
-43.6952848054
 20
-17.65
 11
-41.9900490835
 21
-17.6202349998
  0
LINE
  5
2CF
100
AcDbEntity
  8
RACCORDO
100
AcDbLine
 62
253
  6
CONTINUOUS
 10
-43.6952848054
 20
-19.2979512127
 11
-44.1865586022
 21
-19.2979512132
  0
LINE
  5
2D0
100
AcDbEntity
  8
RACCORDO
100
AcDbLine
 62
253
  6
CONTINUOUS
 10
-43.6952848054
 20
-18.2979969042
 11
-44.1865586022
 21
-18.2979969014
  0
LINE
  5
2D1
100
AcDbEntity
  8
RACCORDO
100
AcDbLine
 62
7
  6
CONTINUOUS
 10
-67.3952848054
 20
-22.6298666026
 11
-67.3952848054
 21
-21.3965394526
  0
LINE
  5
2D2
100
AcDbEntity
  8
SUPERFICI
100
AcDbLine
 62
7
  6
CONTINUOUS
 10
-67.3952848054
 20
-22.6298666026
 11
-67.3952848054
 21
-23.4301797403
  0
LINE
  5
2D3
100
AcDbEntity
  8
RACCORDO
100
AcDbLine
 62
7
  6
CONTINUOUS
 10
-67.3952848054
 20
21.3965394526
 11
-67.3952848054
 21
22.6298666026
  0
LINE
  5
2D4
100
AcDbEntity
  8
SUPERFICI
100
AcDbLine
 62
7
  6
CONTINUOUS
 10
-67.3952848054
 20
22.6626216462
 11
-67.3952848054
 21
23.4301797403
  0
LINE
  5
2D5
100
AcDbEntity
  8
RACCORDO
100
AcDbLine
 62
253
  6
CONTINUOUS
 10
-54.2865586022
 20
-16.0155771563
 11
-53.7952848054
 21
-16.0155771563
  0
LINE
  5
2D6
100
AcDbEntity
  8
RACCORDO
100
AcDbLine
 62
253
  6
CONTINUOUS
 10
-41.6952848054
 20
-14.9
 11
-43.6952848054
 21
-14.9
  0
LINE
  5
2D7
100
AcDbEntity
  8
SUPERFICI
100
AcDbLine
 62
7
  6
CONTINUOUS
 10
-65.7952848054
 20
22.2
 11
-65.7952848054
 21
21.1720718961
  0
LINE
  5
2D8
100
AcDbEntity
  8
SUPERFICI
100
AcDbLine
 62
7
  6
CONTINUOUS
 10
-65.7952848054
 20
-22.2
 11
-65.7952848054
 21
-21.1720718961
  0
LINE
  5
2D9
100
AcDbEntity
  8
RACCORDO
100
AcDbLine
 62
253
  6
CONTINUOUS
 10
-41.6952848054
 20
-12.8
 11
-43.6952848054
 21
-12.8
  0
LINE
  5
2DA
100
AcDbEntity
  8
RACCORDO
100
AcDbLine
 62
7
  6
CONTINUOUS
 10
-43.5855146752
 20
-11.2590496763
 11
-53.7951873941
 21
-11.5072485155
  0
LINE
  5
2DB
100
AcDbEntity
  8
RACCORDO
100
AcDbLine
 62
253
  6
CONTINUOUS
 10
-43.5883038428
 20
-11.1144423662
 11
-53.7952848054
 21
-11.3625757683
  0
LINE
  5
2DC
100
AcDbEntity
  8
RACCORDO
100
AcDbLine
 62
7
  6
CONTINUOUS
 10
-49.4432789231
 20
-10.3536991549
 11
-43.5883038428
 21
-10.3286015807
  0
LINE
  5
2DD
100
AcDbEntity
  8
DRAFT
100
AcDbLine
 62
7
  6
CONTINUOUS
 10
-43.1952848054
 20
-10.0587275325
 11
-41.9900490835
 21
-10.0797650002
  0
LINE
  5
2DE
100
AcDbEntity
  8
RACCORDO
100
AcDbLine
 62
253
  6
CONTINUOUS
 10
-60.8865586022
 20
17.2994419903
 11
-60.8865586022
 21
19.2351479606
  0
LINE
  5
2DF
100
AcDbEntity
  8
RACCORDO
100
AcDbLine
 62
253
  6
CONTINUOUS
 10
-60.8863090724
 20
-8.0172340468
 11
-60.8865586022
 21
16.0558086086
  0
LINE
  5
2E0
100
AcDbEntity
  8
RACCORDO
100
AcDbLine
 62
7
  6
CONTINUOUS
 10
-60.3952848054
 20
-6.3042018488
 11
-60.3952848054
 21
18.889450797
  0
LINE
  5
2E1
100
AcDbEntity
  8
0
100
AcDbLine
 62
7
  6
CONTINUOUS
 10
-60.2952848054
 20
14.92982
 11
-60.2952848054
 21
14.881593
  0
LINE
  5
2E2
100
AcDbEntity
  8
0
100
AcDbLine
 62
7
  6
CONTINUOUS
 10
-60.1952848054
 20
19.2893746446
 11
-60.1952848054
 21
13.457912986
  0
LINE
  5
2E3
100
AcDbEntity
  8
0
100
AcDbLine
 62
7
  6
CONTINUOUS
 10
-60.1952848054
 20
13.0384
 11
-60.1952848054
 21
8.6501834289
  0
LINE
  5
2E4
100
AcDbEntity
  8
RACCORDO
100
AcDbLine
 62
253
  6
CONTINUOUS
 10
-59.9040110086
 20
8.1233646446
 11
-59.9040110086
 21
-6.5909463877
  0
LINE
  5
2E5
100
AcDbEntity
  8
DRAFT
100
AcDbLine
 62
7
  6
CONTINUOUS
 10
-43.1952848054
 20
-8.463968021
 11
-41.9900490835
 21
-8.4429305532
  0
LINE
  5
2E6
100
AcDbEntity
  8
DRAFT
100
AcDbLine
 62
7
  6
CONTINUOUS
 10
-51.1288809389
 20
-8.4785802948
 11
-48.3464180674
 21
-8.4308319922
  0
LINE
  5
2E7
100
AcDbEntity
  8
SMUSSO
100
AcDbLine
 62
7
  6
CONTINUOUS
 10
-45.691411469
 20
-7.2213250913
 11
-45.8183249344
 21
-7.2228676175
  0
LINE
  5
2E8
100
AcDbEntity
  8
SMUSSO
100
AcDbLine
 62
7
  6
CONTINUOUS
 10
-51.8986419966
 20
-7.2967687477
 11
-51.972493167
 21
-7.2976663464
  0
LINE
  5
2E9
100
AcDbEntity
  8
SMUSSO
100
AcDbLine
 62
7
  6
CONTINUOUS
 10
-49.4432789231
 20
-9.3786407575
 11
-43.1952848054
 21
-9.3518584922
  0
LINE
  5
2EA
100
AcDbEntity
  8
RACCORDO
100
AcDbLine
 62
253
  6
CONTINUOUS
 10
-54.2865586022
 20
-8.0538057447
 11
-53.7952848054
 21
-8.0538057447
  0
LINE
  5
2EB
100
AcDbEntity
  8
DRAFT
100
AcDbLine
 62
7
  6
CONTINUOUS
 10
-48.0269447786
 20
-8.4144909388
 11
-51.2734265017
 21
-8.4075333848
  0
LINE
  5
2EC
100
AcDbEntity
  8
DRAFT
100
AcDbLine
 62
7
  6
CONTINUOUS
 10
-46.9430766256
 20
-8.1873832085
 11
-47.6242964502
 21
-8.1859232823
  0
LINE
  5
2ED
100
AcDbEntity
  8
DRAFT
100
AcDbLine
 62
7
  6
CONTINUOUS
 10
-50.1811606617
 20
-8.1804436516
 11
-51.6286959997
 21
-8.1773414301
  0
LINE
  5
2EE
100
AcDbEntity
  8
DRAFT
100
AcDbLine
 62
7
  6
CONTINUOUS
 10
-48.017963979
 20
-8.8236555512
 11
-49.4432789231
 21
-8.8195746147
  0
LINE
  5
2EF
100
AcDbEntity
  8
RACCORDO
100
AcDbLine
 62
253
  6
CONTINUOUS
 10
-54.2865586022
 20
-8.0538057447
 11
-60.8863090724
 21
-8.0172340468
  0
LINE
  5
2F0
100
AcDbEntity
  8
RACCORDO
100
AcDbLine
 62
253
  6
CONTINUOUS
 10
-54.2865586022
 20
-7.7670612058
 11
-60.3163893928
 21
-7.7339857308
  0
LINE
  5
2F1
100
AcDbEntity
  8
DRAFT
100
AcDbLine
 62
7
  6
CONTINUOUS
 10
-43.1952848054
 20
-8.8481867085
 11
-48.017963979
 21
-8.7999029419
  0
LINE
  5
2F2
100
AcDbEntity
  8
RACCORDO
100
AcDbLine
 62
7
  6
CONTINUOUS
 10
-43.5883038428
 20
-6.254044516
 11
-49.4432789231
 21
-6.3963799324
  0
LINE
  5
2F3
100
AcDbEntity
  8
DRAFT
100
AcDbLine
 62
7
  6
CONTINUOUS
 10
-43.1952848054
 20
-5.8828740574
 11
-41.9900490835
 21
-5.8618365896
  0
LINE
  5
2F4
100
AcDbEntity
  8
RACCORDO
100
AcDbLine
 62
253
  6
CONTINUOUS
 10
-43.5883038428
 20
-5.5342817024
 11
-53.7952848054
 21
-5.578034316
  0
LINE
  5
2F5
100
AcDbEntity
  8
0
100
AcDbLine
 62
7
  6
CONTINUOUS
 10
-48.7702892846
 20
-7.5011028858
 11
-48.7047513634
 21
-7.5137829379
  0
LINE
  5
2F6
100
AcDbEntity
  8
0
100
AcDbLine
 62
7
  6
CONTINUOUS
 10
-49.0202803262
 20
-6.6702274804
 11
-49.0858182474
 21
-6.6575474283
  0
LINE
  5
2F7
100
AcDbEntity
  8
0
100
AcDbLine
 62
7
  6
CONTINUOUS
 10
-48.7047513634
 20
-6.6946308936
 11
-48.2063258275
 21
-6.7910645565
  0
LINE
  5
2F8
100
AcDbEntity
  8
0
100
AcDbLine
 62
7
  6
CONTINUOUS
 10
-50.3862545786
 20
-7.9493900044
 11
-49.8143135804
 21
-8.1808787282
  0
LINE
  5
2F9
100
AcDbEntity
  8
RACCORDO
100
AcDbLine
 62
7
  6
CONTINUOUS
 10
-47.4078960462
 20
-8.0386751614
 11
-48.7047513634
 21
-7.5137829379
  0
LINE
  5
2FA
100
AcDbEntity
  8
RACCORDO
100
AcDbLine
 62
7
  6
CONTINUOUS
 10
-49.6623729239
 20
-7.1261929705
 11
-50.9085649879
 21
-6.6218063094
  0
LINE
  5
2FB
100
AcDbEntity
  8
RACCORDO
100
AcDbLine
 62
7
  6
CONTINUOUS
 10
-46.8313691896
 20
-7.5700183593
 11
-48.1281966868
 21
-7.0451373957
  0
LINE
  5
2FC
100
AcDbEntity
  8
RACCORDO
100
AcDbLine
 62
7
  6
CONTINUOUS
 10
-49.0858182474
 20
-6.6575474283
 11
-49.7006721256
 21
-6.4086900461
  0
LINE
  5
2FD
100
AcDbEntity
  8
0
100
AcDbLine
 62
7
  6
CONTINUOUS
 10
-48.7047513634
 20
-6.6946308936
 11
-48.1709912739
 21
-6.910666188
  0
LINE
  5
2FE
100
AcDbEntity
  8
0
100
AcDbLine
 62
7
  6
CONTINUOUS
 10
-48.1709912739
 20
-6.8053659455
 11
-48.2063258275
 21
-6.7910645565
  0
LINE
  5
2FF
100
AcDbEntity
  8
0
100
AcDbLine
 62
7
  6
CONTINUOUS
 10
-49.6623729239
 20
-7.1261929705
 11
-49.6195783369
 21
-7.1573596685
  0
LINE
  5
300
100
AcDbEntity
  8
RACCORDO
100
AcDbLine
 62
253
  6
CONTINUOUS
 10
-54.2865586022
 20
-19.1192913519
 11
-54.2865586022
 21
-17.2616547443
  0
LINE
  5
301
100
AcDbEntity
  8
RACCORDO
100
AcDbLine
 62
253
  6
CONTINUOUS
 10
-54.2865586022
 20
-16.0155771563
 11
-54.2865586022
 21
-8.0538057447
  0
LINE
  5
302
100
AcDbEntity
  8
RACCORDO
100
AcDbLine
 62
253
  6
CONTINUOUS
 10
-54.2865586022
 20
-7.7670612058
 11
-54.2865586022
 21
-4.4661270908
  0
LINE
  5
303
100
AcDbEntity
  8
RACCORDO
100
AcDbLine
 62
7
  6
CONTINUOUS
 10
-53.7952848054
 20
-18.7742473685
 11
-53.7952848054
 21
-5.3503753947
  0
LINE
  5
304
100
AcDbEntity
  8
RACCORDO
100
AcDbLine
 62
253
  6
CONTINUOUS
 10
-43.5883038428
 20
-4.4202686133
 11
-54.2865586022
 21
-4.4661270908
  0
LINE
  5
305
100
AcDbEntity
  8
0
100
AcDbLine
 62
7
  6
CONTINUOUS
 10
-48.1281966868
 20
-7.0451373957
 11
-48.1709912739
 21
-7.0139706977
  0
LINE
  5
306
100
AcDbEntity
  8
0
100
AcDbLine
 62
7
  6
CONTINUOUS
 10
-51.345530656
 20
-6.7754469088
 11
-51.319207738
 21
-7.0214441981
  0
LINE
  5
307
100
AcDbEntity
  8
RACCORDO
100
AcDbLine
 62
253
  6
CONTINUOUS
 10
-43.1952848054
 20
-1.5555388574
 11
-41.9900490835
 21
-1.5676054532
  0
LINE
  5
308
100
AcDbEntity
  8
RACCORDO
100
AcDbLine
 62
253
  6
CONTINUOUS
 10
-43.1952848054
 20
0.1646804356
 11
-41.9900490835
 21
0.1526138398
  0
LINE
  5
309
100
AcDbEntity
  8
0
100
AcDbLine
 62
7
  6
CONTINUOUS
 10
-49.6623729239
 20
-7.1261929705
 11
-49.6623729239
 21
-6.4241913537
  0
LINE
  5
30A
100
AcDbEntity
  8
0
100
AcDbLine
 62
7
  6
CONTINUOUS
 10
-49.6195783369
 20
-7.1573596685
 11
-49.6195783369
 21
-6.4415121339
  0
LINE
  5
30B
100
AcDbEntity
  8
SMUSSO
100
AcDbLine
 62
7
  6
CONTINUOUS
 10
-49.4432789231
 20
-9.3786407575
 11
-49.4432789231
 21
-10.3536991549
  0
LINE
  5
30C
100
AcDbEntity
  8
DRAFT
100
AcDbLine
 62
253
  6
CONTINUOUS
 10
-49.4432789231
 20
-9.3786407575
 11
-49.4432789231
 21
-8.8195746147
  0
LINE
  5
30D
100
AcDbEntity
  8
0
100
AcDbLine
 62
7
  6
CONTINUOUS
 10
-49.2378712955
 20
-6.5960051256
 11
-49.2378712955
 21
-7.7123245422
  0
LINE
  5
30E
100
AcDbEntity
  8
0
100
AcDbLine
 62
7
  6
CONTINUOUS
 10
-48.7702892846
 20
-7.5011028858
 11
-48.7702892846
 21
-6.5572985809
  0
LINE
  5
30F
100
AcDbEntity
  8
0
100
AcDbLine
 62
7
  6
CONTINUOUS
 10
-48.7047513634
 20
-7.5137829379
 11
-48.7047513634
 21
-6.6946308936
  0
LINE
  5
310
100
AcDbEntity
  8
DRAFT
100
AcDbLine
 62
253
  6
CONTINUOUS
 10
-48.3464180674
 20
-8.8227151273
 11
-48.3464180674
 21
-8.4308319922
  0
LINE
  5
311
100
AcDbEntity
  8
DRAFT
100
AcDbLine
 62
7
  6
CONTINUOUS
 10
-43.1952848054
 20
1.3373452356
 11
-41.9900490835
 21
1.3163077679
  0
LINE
  5
312
100
AcDbEntity
  8
0
100
AcDbLine
 62
7
  6
CONTINUOUS
 10
-48.2063258275
 20
-6.7910645565
 11
-48.2063258275
 21
-6.3663093973
  0
LINE
  5
313
100
AcDbEntity
  8
0
100
AcDbLine
 62
7
  6
CONTINUOUS
 10
-48.1709912739
 20
-7.0139706977
 11
-48.1709912739
 21
-6.3654504084
  0
LINE
  5
314
100
AcDbEntity
  8
DRAFT
100
AcDbLine
 62
7
  6
CONTINUOUS
 10
-48.017963979
 20
-8.8236555512
 11
-48.017963979
 21
-8.7999029419
  0
LINE
  5
315
100
AcDbEntity
  8
0
100
AcDbLine
 62
7
  6
CONTINUOUS
 10
-47.9807573172
 20
-6.6904945478
 11
-47.9807573172
 21
-6.3608257893
  0
LINE
  5
316
100
AcDbEntity
  8
0
100
AcDbLine
 62
7
  6
CONTINUOUS
 10
-49.8143135804
 20
-8.1808787282
 11
-49.3672783573
 21
-6.5436286117
  0
LINE
  5
317
100
AcDbEntity
  8
0
100
AcDbLine
 62
7
  6
CONTINUOUS
 10
-49.6195783369
 20
-7.1573596685
 11
-49.8098122936
 21
-7.4808358184
  0
LINE
  5
318
100
AcDbEntity
  8
0
100
AcDbLine
 62
7
  6
CONTINUOUS
 10
-43.1952848054
 20
3.6886623489
 11
-42.9952848054
 21
3.6886623489
  0
LINE
  5
319
100
AcDbEntity
  8
0
100
AcDbLine
 62
7
  6
CONTINUOUS
 10
-43.1952848054
 20
3.79919413
 11
-42.9952848054
 21
3.79919413
  0
LINE
  5
31A
100
AcDbEntity
  8
0
100
AcDbLine
 62
7
  6
CONTINUOUS
 10
-43.1952848054
 20
4.0543209289
 11
-42.9952848054
 21
4.0543209289
  0
LINE
  5
31B
100
AcDbEntity
  8
RACCORDO
100
AcDbLine
 62
253
  6
CONTINUOUS
 10
-44.1865586022
 20
-11.273661154
 11
-44.1865586022
 21
-18.2979969042
  0
LINE
  5
31C
100
AcDbEntity
  8
RACCORDO
100
AcDbLine
 62
253
  6
CONTINUOUS
 10
-44.1865586022
 20
-19.0978750603
 11
-44.1865586022
 21
-19.2979512127
  0
LINE
  5
31D
100
AcDbEntity
  8
RACCORDO
100
AcDbLine
 62
7
  6
CONTINUOUS
 10
-43.6952848054
 20
-11.2617182064
 11
-43.6952848054
 21
-19.2979512127
  0
LINE
  5
31E
100
AcDbEntity
  8
RACCORDO
100
AcDbLine
 62
253
  6
CONTINUOUS
 10
-43.5883038428
 20
7.7267270941
 11
-43.5883038428
 21
-4.4202686133
  0
LINE
  5
31F
100
AcDbEntity
  8
RACCORDO
100
AcDbLine
 62
253
  6
CONTINUOUS
 10
-43.5883038428
 20
-5.5342817024
 11
-43.5883038428
 21
-6.254044516
  0
LINE
  5
320
100
AcDbEntity
  8
RACCORDO
100
AcDbLine
 62
253
  6
CONTINUOUS
 10
-43.5883038428
 20
-10.3286015807
 11
-43.5883038428
 21
-11.1144423662
  0
LINE
  5
321
100
AcDbEntity
  8
0
100
AcDbLine
 62
7
  6
CONTINUOUS
 10
-46.3999802333
 20
-6.354356688
 11
-46.4713618728
 21
-7.0214441981
  0
LINE
  5
322
100
AcDbEntity
  8
0
100
AcDbLine
 62
7
  6
CONTINUOUS
 10
-48.1709912739
 20
-7.0139706977
 11
-47.9807573172
 21
-6.6904945478
  0
LINE
  5
323
100
AcDbEntity
  8
RACCORDO
100
AcDbLine
 62
7
  6
CONTINUOUS
 10
-61.6381296474
 20
-19.542844842
 11
-63.7513553071
 21
-21.6560705017
  0
LINE
  5
324
100
AcDbEntity
  8
0
100
AcDbLine
 62
7
  6
CONTINUOUS
 10
-50.3862545786
 20
-7.9493900044
 11
-49.8098122936
 21
-7.4808358184
  0
LINE
  5
325
100
AcDbEntity
  8
0
100
AcDbLine
 62
7
  6
CONTINUOUS
 10
-48.5526983153
 20
-6.459005824
 11
-48.4458205972
 21
-6.3721315549
  0
LINE
  5
326
100
AcDbEntity
  8
0
100
AcDbLine
 62
7
  6
CONTINUOUS
 10
-49.8143135804
 20
-8.1808787282
 11
-49.2378712955
 21
-7.7123245422
  0
LINE
  5
327
100
AcDbEntity
  8
0
100
AcDbLine
 62
7
  6
CONTINUOUS
 10
-47.9807573172
 20
-6.6904945478
 11
-47.5626759888
 21
-6.3506621628
  0
LINE
  5
328
100
AcDbEntity
  8
0
100
AcDbLine
 62
7
  6
CONTINUOUS
 10
-48.5526983153
 20
-6.459005824
 11
-49.0202803262
 21
-6.6702274804
  0
LINE
  5
329
100
AcDbEntity
  8
0
100
AcDbLine
 62
7
  6
CONTINUOUS
 10
-49.2378712955
 20
-7.7123245422
 11
-48.7702892846
 21
-7.5011028858
  0
LINE
  5
32A
100
AcDbEntity
  8
RACCORDO
100
AcDbLine
 62
253
  6
CONTINUOUS
 10
-43.5883038428
 20
7.7267270941
 11
-59.9040110086
 21
8.1233646446
  0
LINE
  5
32B
100
AcDbEntity
  8
RACCORDO
100
AcDbLine
 62
7
  6
CONTINUOUS
 10
-63.7513553071
 20
21.6560705017
 11
-61.6381296474
 21
19.542844842
  0
LINE
  5
32C
100
AcDbEntity
  8
RACCORDO
100
AcDbLine
 62
7
  6
CONTINUOUS
 10
-43.1952848054
 20
7.7531562295
 11
-43.1952848054
 21
-6.1479595668
  0
LINE
  5
32D
100
AcDbEntity
  8
ASSI
100
AcDbLine
 62
7
  6
CONTINUOUS
 10
-43.1952848054
 20
-6.1479595668
 11
-43.1952848054
 21
-8.8481867085
  0
LINE
  5
32E
100
AcDbEntity
  8
SMUSSO
100
AcDbLine
 62
7
  6
CONTINUOUS
 10
-43.1952848054
 20
-8.8481867085
 11
-43.1952848054
 21
-9.3518584922
  0
LINE
  5
32F
100
AcDbEntity
  8
RACCORDO
100
AcDbLine
 62
7
  6
CONTINUOUS
 10
-43.1952848054
 20
-9.3518584922
 11
-43.1952848054
 21
-10.8591533056
  0
LINE
  5
330
100
AcDbEntity
  8
0
100
AcDbLine
 62
7
  6
CONTINUOUS
 10
-42.9952848054
 20
4.0543209289
 11
-42.9952848054
 21
1.3338542226
  0
LINE
  5
331
100
AcDbEntity
  8
RACCORDO
100
AcDbLine
 62
253
  6
CONTINUOUS
 10
-41.9900490835
 20
1.3163076301
 11
-41.9900490835
 21
-8.4429304155
  0
LINE
  5
332
100
AcDbEntity
  8
RACCORDO
100
AcDbLine
 62
253
  6
CONTINUOUS
 10
-41.9900490835
 20
-10.0797650013
 11
-41.9900490835
 21
-17.6202349208
  0
LINE
  5
333
100
AcDbEntity
  8
RACCORDO
100
AcDbLine
 62
7
  6
CONTINUOUS
 10
-41.6952848054
 20
1.0163437338
 11
-41.6952848054
 21
-8.1429665191
  0
LINE
  5
334
100
AcDbEntity
  8
RACCORDO
100
AcDbLine
 62
7
  6
CONTINUOUS
 10
-41.6952848054
 20
-10.3798314475
 11
-41.6952848054
 21
-17.3201913833
  0
LINE
  5
335
100
AcDbEntity
  8
0
100
AcDbLine
 62
7
  6
CONTINUOUS
 10
-60.3873274989
 20
8.9624994422
 11
-60.1952848054
 21
8.9625
  0
LINE
  5
336
100
AcDbEntity
  8
0
100
AcDbLine
 62
7
  6
CONTINUOUS
 10
-60.1952848054
 20
8.9976955754
 11
-60.3952848054
 21
8.9976955754
  0
LINE
  5
337
100
AcDbEntity
  8
0
100
AcDbLine
 62
7
  6
CONTINUOUS
 10
-60.3952848054
 20
9.123393
 11
-60.1952848054
 21
9.123393
  0
LINE
  5
338
100
AcDbEntity
  8
0
100
AcDbLine
 62
7
  6
CONTINUOUS
 10
-60.3952848054
 20
10.073672
 11
-60.1952848054
 21
10.073672
  0
LINE
  5
339
100
AcDbEntity
  8
0
100
AcDbLine
 62
7
  6
CONTINUOUS
 10
-60.3952848054
 20
10.24127
 11
-60.1952848054
 21
10.24127
  0
LINE
  5
33A
100
AcDbEntity
  8
RACCORDO
100
AcDbLine
 62
7
  6
CONTINUOUS
 10
-43.5855355529
 20
8.1530418961
 11
-59.9073663273
 21
8.5498283126
  0
LWPOLYLINE
  5
33B
100
AcDbEntity
  8
RACCORDO
100
AcDbPolyline
 62
7
  6
CONTINUOUS
 90
14
 70
0
 10
-59.9074361075
 20
8.5498279296
 10
-59.9216952393
 20
8.5503782539
 10
-59.9688703315
 20
8.555124753
 10
-60.0153837254
 20
8.5643183584
 10
-60.0608171645
 20
8.5778763974
 10
-60.1047621013
 20
8.5956769501
 10
-60.1468233761
 20
8.617559947
 10
-60.1866227722
 20
8.643328611
 10
-60.2238024112
 20
8.6727512248
 10
-60.25802797
 20
8.7055632129
 10
-60.2889916917
 20
8.7414695247
 10
-60.3164151532
 20
8.7801472905
 10
-60.3400517678
 20
8.8212487289
 10
-60.359688982
 20
8.864404235
  0
LWPOLYLINE
  5
33C
100
AcDbEntity
  8
RACCORDO
100
AcDbPolyline
 62
7
  6
CONTINUOUS
 90
18
 70
0
 10
-59.9074360887
 20
8.5498264725
 10
-59.9276446721
 20
8.550727063
 10
-59.9744111428
 20
8.5559795276
 10
-60.0204766413
 20
8.5656056043
 10
-60.0654330759
 20
8.5795200156
 10
-60.1088821763
 20
8.5975994912
 10
-60.1504390312
 20
8.6196838633
 10
-60.1897354967
 20
8.6455774872
 10
-60.2264234513
 20
8.6750509716
 10
-60.260177881
 20
8.7078432098
 10
-60.2906997644
 20
8.7436636992
 10
-60.3177187194
 20
8.782195116
 10
-60.3409953963
 20
8.823096129
 10
-60.3603235802
 20
8.8660043862
 10
-60.3755320361
 20
8.9105397338
 10
-60.3864860456
 20
8.9563076263
 10
-60.3930885873
 20
9.0029026183
 10
-60.395281239
 20
9.0496770347
  0
LINE
  5
33D
100
AcDbEntity
  8
0
100
AcDbLine
 62
7
  6
CONTINUOUS
 10
-60.3952848054
 20
10.9663995874
 11
-60.1952848054
 21
10.9663995874
  0
LINE
  5
33E
100
AcDbEntity
  8
0
100
AcDbLine
 62
7
  6
CONTINUOUS
 10
-60.3952848054
 20
11.0
 11
-60.1952848054
 21
11.0
  0
LINE
  5
33F
100
AcDbEntity
  8
0
100
AcDbLine
 62
7
  6
CONTINUOUS
 10
-60.3952848054
 20
12.2719437613
 11
-60.1952848054
 21
12.271944
  0
LINE
  5
340
100
AcDbEntity
  8
0
100
AcDbLine
 62
7
  6
CONTINUOUS
 10
-60.3952848054
 20
12.5099000107
 11
-60.1952848054
 21
12.5099
  0
LINE
  5
341
100
AcDbEntity
  8
0
100
AcDbLine
 62
253
  6
CONTINUOUS
 10
-60.3952848054
 20
12.7451437827
 11
-60.1952848054
 21
12.7451437827
  0
LINE
  5
342
100
AcDbEntity
  8
0
100
AcDbLine
 62
7
  6
CONTINUOUS
 10
-60.3952848054
 20
13.0132
 11
-60.1952848054
 21
13.0132
  0
LINE
  5
343
100
AcDbEntity
  8
0
100
AcDbLine
 62
7
  6
CONTINUOUS
 10
-60.3952848054
 20
13.0384
 11
-60.1952848054
 21
13.0384
  0
LINE
  5
344
100
AcDbEntity
  8
0
100
AcDbLine
 62
7
  6
CONTINUOUS
 10
-60.3952848054
 20
13.4574714597
 11
-60.1952848054
 21
13.4574714597
  0
LINE
  5
345
100
AcDbEntity
  8
0
100
AcDbLine
 62
7
  6
CONTINUOUS
 10
-60.3952848054
 20
14.5489258439
 11
-60.1952848054
 21
14.548926
  0
LINE
  5
346
100
AcDbEntity
  8
0
100
AcDbLine
 62
7
  6
CONTINUOUS
 10
-60.3952848054
 20
14.566968
 11
-60.1952848054
 21
14.566968
  0
LINE
  5
347
100
AcDbEntity
  8
0
100
AcDbLine
 62
7
  6
CONTINUOUS
 10
-60.3952848054
 20
14.669989
 11
-60.1952848054
 21
14.669989
  0
LINE
  5
348
100
AcDbEntity
  8
0
100
AcDbLine
 62
7
  6
CONTINUOUS
 10
-60.3952848054
 20
14.8759321014
 11
-60.2952848054
 21
14.8759321014
  0
LINE
  5
349
100
AcDbEntity
  8
0
100
AcDbLine
 62
7
  6
CONTINUOUS
 10
-60.3952848054
 20
14.881593
 11
-60.2952848054
 21
14.881593
  0
LINE
  5
34A
100
AcDbEntity
  8
0
100
AcDbLine
 62
7
  6
CONTINUOUS
 10
-60.3952848054
 20
14.8840518321
 11
-60.2952848054
 21
14.8840518321
  0
LINE
  5
34B
100
AcDbEntity
  8
0
100
AcDbLine
 62
7
  6
CONTINUOUS
 10
-60.3952848054
 20
14.92982
 11
-60.1952848054
 21
14.92982
  0
LINE
  5
34C
100
AcDbEntity
  8
SUPERFICI
100
AcDbLine
 62
7
  6
CONTINUOUS
 10
-65.2457893215
 20
-22.2
 11
-63.7513553071
 21
-21.6560705017
  0
LINE
  5
34D
100
AcDbEntity
  8
RACCORDO
100
AcDbLine
 62
253
  6
CONTINUOUS
 10
-60.8865586022
 20
16.0558086086
 11
-60.3952848054
 21
16.0558086086
  0
LINE
  5
34E
100
AcDbEntity
  8
0
100
AcDbLine
 62
7
  6
CONTINUOUS
 10
-60.3952848054
 20
17.429556
 11
-60.1952848054
 21
17.429556
  0
LINE
  5
34F
100
AcDbEntity
  8
0
100
AcDbLine
 62
7
  6
CONTINUOUS
 10
-60.1952848054
 20
17.4577809316
 11
-60.3952848054
 21
17.4577809316
  0
LINE
  5
350
100
AcDbEntity
  8
SUPERFICI
100
AcDbLine
 62
7
  6
CONTINUOUS
 10
-65.2457893215
 20
22.2
 11
-63.7513553071
 21
21.6560705017
  0
LINE
  5
351
100
AcDbEntity
  8
0
100
AcDbLine
 62
7
  6
CONTINUOUS
 10
-60.3952848054
 20
18.093226
 11
-60.1952848054
 21
18.093226
  0
LINE
  5
352
100
AcDbEntity
  8
0
100
AcDbLine
 62
7
  6
CONTINUOUS
 10
-60.3952848054
 20
18.121717
 11
-60.1952848054
 21
18.121717
  0
LINE
  5
353
100
AcDbEntity
  8
0
100
AcDbLine
 62
7
  6
CONTINUOUS
 10
-60.3952848054
 20
18.2893746446
 11
-60.1952848054
 21
18.2893746446
  0
LINE
  5
354
100
AcDbEntity
  8
0
100
AcDbLine
 62
7
  6
CONTINUOUS
 10
-60.5951832957
 20
19.2893746446
 11
-60.1952848054
 21
19.2893746446
  0
LINE
  5
355
100
AcDbEntity
  8
RACCORDO
100
AcDbLine
 62
7
  6
CONTINUOUS
 10
-61.2933024601
 20
19.396474385
 11
-60.8865586022
 21
19.3893746446
  0
LINE
  5
356
100
AcDbEntity
  8
RACCORDO
100
AcDbLine
 62
253
  6
CONTINUOUS
 10
-61.2933024615
 20
19.2422877751
 11
-60.8865586022
 21
19.2351479606
  0
LINE
  5
357
100
AcDbEntity
  8
SUPERFICI
100
AcDbLine
 62
253
  6
CONTINUOUS
 10
-80.4532974388
 20
21.0183132877
 11
-79.9624881074
 21
20.9972959167
  0
LINE
  5
358
100
AcDbEntity
  8
SUPERFICI
100
AcDbLine
 62
253
  6
CONTINUOUS
 10
-79.4890980504
 20
21.4755923698
 11
-71.3952848054
 21
21.8997711479
  0
LINE
  5
359
100
AcDbEntity
  8
SUPERFICI
100
AcDbLine
 62
7
  6
CONTINUOUS
 10
-65.2457893215
 20
22.2
 11
-65.7952848054
 21
22.2
  0
LINE
  5
35A
100
AcDbEntity
  8
RACCORDO
100
AcDbLine
 62
7
  6
CONTINUOUS
 10
-67.1987752867
 20
21.1965699136
 11
-63.4244300075
 21
21.1306884717
  0
LINE
  5
35B
100
AcDbEntity
  8
SUPERFICI
100
AcDbLine
 62
7
  6
CONTINUOUS
 10
-79.5065398253
 20
21.9749071372
 11
-71.3952848054
 21
22.4
  0
LINE
  5
35C
100
AcDbEntity
  8
SUPERFICI
100
AcDbLine
 62
7
  6
CONTINUOUS
 10
-67.3952848054
 20
23.4301797403
 11
-69.4952848054
 21
23.4668353766
  0
LINE
  5
35D
100
AcDbEntity
  8
0
100
AcDbLine
 62
7
  6
CONTINUOUS
 10
-67.3952848054
 20
23.4301797403
 11
-71.3952848054
 21
23.5
  0
ARC
  5
35E
100
AcDbEntity
  8
RACCORDO
100
AcDbCircle
 62
253
  6
CONTINUOUS
 10
-24.0311814576
 20
-3.0594610234
 40
13.5414595917
100
AcDbArc
 50
2.8099798174
 51
3.2543528827
  0
ARC
  5
35F
100
AcDbEntity
  8
RACCORDO
100
AcDbCircle
 62
253
  6
CONTINUOUS
 10
-17.4734126209
 20
-1.8650814578
 40
7.2809761559
100
AcDbArc
 50
355.0229542508
 51
357.0487425577
  0
CIRCLE
  5
360
100
AcDbEntity
  8
RACCORDO
100
AcDbCircle
 62
253
  6
CONTINUOUS
 10
0.0
 20
-9.5
 40
3.0140249832
  0
CIRCLE
  5
361
100
AcDbEntity
  8
RACCORDO
100
AcDbCircle
 62
253
  6
CONTINUOUS
 10
0.0
 20
-9.5
 40
2.6140859051
  0
CIRCLE
  5
362
100
AcDbEntity
  8
DRAFT
100
AcDbCircle
 62
7
  6
CONTINUOUS
 10
0.0
 20
-9.5
 40
2.6
  0
ARC
  5
363
100
AcDbEntity
  8
0
100
AcDbCircle
 62
253
  6
CONTINUOUS
 10
-2.4382860955
 20
-6.2375394073
 40
2.2230387653
100
AcDbArc
 50
324.9182025464
 51
342.0653857109
  0
ARC
  5
364
100
AcDbEntity
  8
0
100
AcDbCircle
 62
253
  6
CONTINUOUS
 10
-2.3891251525
 20
-6.2530003107
 40
2.1879150377
100
AcDbArc
 50
324.4395037857
 51
342.2494925019
  0
ARC
  5
365
100
AcDbEntity
  8
0
100
AcDbCircle
 62
7
  6
CONTINUOUS
 10
-1.5685689916
 20
-6.5378263696
 40
1.523415957
100
AcDbArc
 50
325.6477908303
 51
326.6934252442
  0
ARC
  5
366
100
AcDbEntity
  8
0
100
AcDbCircle
 62
7
  6
CONTINUOUS
 10
-1.5584103777
 20
-6.5467702549
 40
1.5100971571
100
AcDbArc
 50
323.0358901498
 51
326.7652295823
  0
ARC
  5
367
100
AcDbEntity
  8
0
100
AcDbCircle
 62
7
  6
CONTINUOUS
 10
-1.5556736922
 20
-12.4552960846
 40
1.5096821853
100
AcDbArc
 50
36.0478792038
 51
37.4071878982
  0
ARC
  5
368
100
AcDbEntity
  8
0
100
AcDbCircle
 62
7
  6
CONTINUOUS
 10
-1.5573533986
 20
-6.5474484036
 40
1.5088414547
100
AcDbArc
 50
326.7649594208
 51
329.4021380112
  0
ARC
  5
369
100
AcDbEntity
  8
0
100
AcDbCircle
 62
7
  6
CONTINUOUS
 10
-1.5510924712
 20
-12.4533975513
 40
1.5049995768
100
AcDbArc
 50
38.7919223283
 51
39.1626737198
  0
ARC
  5
36A
100
AcDbEntity
  8
0
100
AcDbCircle
 62
7
  6
CONTINUOUS
 10
-1.5524736173
 20
-6.5482359664
 40
1.5042482407
100
AcDbArc
 50
326.688149508
 51
329.3333463181
  0
ARC
  5
36B
100
AcDbEntity
  8
0
100
AcDbCircle
 62
7
  6
CONTINUOUS
 10
-1.5523943018
 20
-6.550362811
 40
1.503089397
100
AcDbArc
 50
329.401542669
 51
332.6987608614
  0
ARC
  5
36C
100
AcDbEntity
  8
0
100
AcDbCircle
 62
7
  6
CONTINUOUS
 10
-1.547133527
 20
-12.449601659
 40
1.499554085
100
AcDbArc
 50
13.6207839064
 51
35.6882966525
  0
ARC
  5
36D
100
AcDbEntity
  8
0
100
AcDbCircle
 62
7
  6
CONTINUOUS
 10
-1.5494359517
 20
-6.5532312556
 40
1.499193192
100
AcDbArc
 50
335.3732983569
 51
346.4795953171
  0
ARC
  5
36E
100
AcDbEntity
  8
0
100
AcDbCircle
 62
7
  6
CONTINUOUS
 10
-1.54722577
 20
-6.5530863072
 40
1.4972474201
100
AcDbArc
 50
332.7006541223
 51
333.1575616382
  0
ARC
  5
36F
100
AcDbEntity
  8
0
100
AcDbCircle
 62
7
  6
CONTINUOUS
 10
-1.5434500787
 20
-12.4481039464
 40
1.4955674231
100
AcDbArc
 50
13.5969545574
 51
36.1006745255
  0
ARC
  5
370
100
AcDbEntity
  8
0
100
AcDbCircle
 62
7
  6
CONTINUOUS
 10
-1.5422421159
 20
-12.4463434702
 40
1.493682039
100
AcDbArc
 50
36.0734120044
 51
38.7937082187
  0
ARC
  5
371
100
AcDbEntity
  8
0
100
AcDbCircle
 62
7
  6
CONTINUOUS
 10
-1.5428711763
 20
-6.5552630991
 40
1.4923791216
100
AcDbArc
 50
333.1566394242
 51
335.3391853041
  0
ARC
  5
372
100
AcDbEntity
  8
0
100
AcDbCircle
 62
7
  6
CONTINUOUS
 10
-1.5267912669
 20
-12.4348868291
 40
1.4744477801
100
AcDbArc
 50
35.6850226864
 51
36.067109369
  0
ARC
  5
373
100
AcDbEntity
  8
0
100
AcDbCircle
 62
7
  6
CONTINUOUS
 10
-1.5218955207
 20
-6.566083767
 40
1.4688433988
100
AcDbArc
 50
329.3238147342
 51
332.6980170076
  0
ARC
  5
374
100
AcDbEntity
  8
0
100
AcDbCircle
 62
7
  6
CONTINUOUS
 10
-1.5035193554
 20
-6.5756816667
 40
1.4481119492
100
AcDbArc
 50
332.7019704895
 51
333.1744023738
  0
ARC
  5
375
100
AcDbEntity
  8
0
100
AcDbCircle
 62
7
  6
CONTINUOUS
 10
-1.487923822
 20
-6.5834694124
 40
1.430680318
100
AcDbArc
 50
333.1708688588
 51
335.4476675007
  0
ARC
  5
376
100
AcDbEntity
  8
0
100
AcDbCircle
 62
7
  6
CONTINUOUS
 10
-7.5751404806
 20
-22.5001590747
 40
0.9998409253
100
AcDbArc
 50
269.9998836207
 51
303.5573285949
  0
ARC
  5
377
100
AcDbEntity
  8
0
100
AcDbCircle
 62
7
  6
CONTINUOUS
 10
-14.9248595194
 20
-22.5001590746
 40
0.9998409254
100
AcDbArc
 50
236.4426714032
 51
270.0001163789
  0
ARC
  5
378
100
AcDbEntity
  8
SUPERFICI
100
AcDbCircle
 62
253
  6
CONTINUOUS
 10
-21.7585829367
 20
-21.4747252343
 40
0.5001617663
100
AcDbArc
 50
180.0993386924
 51
269.9753511675
  0
ARC
  5
379
100
AcDbEntity
  8
0
100
AcDbCircle
 62
7
  6
CONTINUOUS
 10
-6.3
 20
-23.1
 40
0.5
100
AcDbArc
 50
60.887577224
 51
189.196281579
  0
ARC
  5
37A
100
AcDbEntity
  8
0
100
AcDbCircle
 62
7
  6
CONTINUOUS
 10
-16.2
 20
-23.1
 40
0.5
100
AcDbArc
 50
350.803718421
 51
119.112422776
  0
ARC
  5
37B
100
AcDbEntity
  8
0
100
AcDbCircle
 62
7
  6
CONTINUOUS
 10
0.0
 20
-0.0
 40
28.0
100
AcDbArc
 50
125.9627651514
 51
126.8614161516
  0
ARC
  5
37C
100
AcDbEntity
  8
0
100
AcDbCircle
 62
7
  6
CONTINUOUS
 10
0.0
 20
-0.0
 40
28.0
100
AcDbArc
 50
123.5572122925
 51
124.1210936517
  0
ARC
  5
37D
100
AcDbEntity
  8
0
100
AcDbCircle
 62
7
  6
CONTINUOUS
 10
-22.5
 20
-0.0
 40
28.0
100
AcDbArc
 50
55.8789063483
 51
56.4427877076
  0
ARC
  5
37E
100
AcDbEntity
  8
0
100
AcDbCircle
 62
7
  6
CONTINUOUS
 10
-22.5
 20
-0.0
 40
28.0
100
AcDbArc
 50
53.1311022167
 51
54.0372348486
  0
ARC
  5
37F
100
AcDbEntity
  8
0
100
AcDbCircle
 62
7
  6
CONTINUOUS
 10
0.0
 20
-0.0
 40
28.0
100
AcDbArc
 50
55.8789063483
 51
56.4427877075
  0
ARC
  5
380
100
AcDbEntity
  8
0
100
AcDbCircle
 62
7
  6
CONTINUOUS
 10
0.0
 20
-0.0
 40
28.0
100
AcDbArc
 50
53.1385838484
 51
54.0372348486
  0
ARC
  5
381
100
AcDbEntity
  8
0
100
AcDbCircle
 62
7
  6
CONTINUOUS
 10
0.0
 20
-0.0
 40
28.0
100
AcDbArc
 50
305.9627651514
 51
306.8614161516
  0
ARC
  5
382
100
AcDbEntity
  8
0
100
AcDbCircle
 62
7
  6
CONTINUOUS
 10
0.0
 20
-0.0
 40
28.0
100
AcDbArc
 50
303.5572122892
 51
304.1210936517
  0
ARC
  5
383
100
AcDbEntity
  8
0
100
AcDbCircle
 62
7
  6
CONTINUOUS
 10
-22.5
 20
-0.0
 40
28.0
100
AcDbArc
 50
305.9627651514
 51
306.8688977833
  0
ARC
  5
384
100
AcDbEntity
  8
0
100
AcDbCircle
 62
7
  6
CONTINUOUS
 10
-22.5
 20
-0.0
 40
28.0
100
AcDbArc
 50
303.5572122891
 51
304.1210936517
  0
ARC
  5
385
100
AcDbEntity
  8
0
100
AcDbCircle
 62
7
  6
CONTINUOUS
 10
0.0
 20
-0.0
 40
28.0
100
AcDbArc
 50
235.8789063483
 51
236.4427877108
  0
ARC
  5
386
100
AcDbEntity
  8
0
100
AcDbCircle
 62
7
  6
CONTINUOUS
 10
0.0
 20
-0.0
 40
28.0
100
AcDbArc
 50
233.1385838484
 51
234.0372348486
  0
CIRCLE
  5
387
100
AcDbEntity
  8
DRAFT
100
AcDbCircle
 62
7
  6
CONTINUOUS
 10
0.0
 20
-0.0
 40
19.25
  0
CIRCLE
  5
388
100
AcDbEntity
  8
RACCORDO
100
AcDbCircle
 62
253
  6
CONTINUOUS
 10
-9.5
 20
-0.0
 40
3.0044246974
  0
CIRCLE
  5
389
100
AcDbEntity
  8
RACCORDO
100
AcDbCircle
 62
253
  6
CONTINUOUS
 10
-9.5
 20
-0.0
 40
2.6044856194
  0
CIRCLE
  5
38A
100
AcDbEntity
  8
DRAFT
100
AcDbCircle
 62
7
  6
CONTINUOUS
 10
-9.5
 20
-0.0
 40
2.6
  0
ARC
  5
38B
100
AcDbEntity
  8
0
100
AcDbCircle
 62
7
  6
CONTINUOUS
 10
-14.9248595156
 20
22.5001590621
 40
0.9998409379
100
AcDbArc
 50
89.9998867716
 51
123.5573284716
  0
ARC
  5
38C
100
AcDbEntity
  8
0
100
AcDbCircle
 62
7
  6
CONTINUOUS
 10
-7.5751404844
 20
22.5001590621
 40
0.9998409379
100
AcDbArc
 50
56.4426715303
 51
90.0001132288
  0
ARC
  5
38D
100
AcDbEntity
  8
SUPERFICI
100
AcDbCircle
 62
253
  6
CONTINUOUS
 10
-21.7585829287
 20
21.474725228
 40
0.5001617736
100
AcDbArc
 50
90.0246497577
 51
179.9006605861
  0
ARC
  5
38E
100
AcDbEntity
  8
0
100
AcDbCircle
 62
7
  6
CONTINUOUS
 10
-16.2
 20
23.1
 40
0.5
100
AcDbArc
 50
240.887577224
 51
9.196281579
  0
ARC
  5
38F
100
AcDbEntity
  8
0
100
AcDbCircle
 62
7
  6
CONTINUOUS
 10
-6.3
 20
23.1
 40
0.5
100
AcDbArc
 50
170.803718421
 51
299.112422776
  0
ARC
  5
390
100
AcDbEntity
  8
RACCORDO
100
AcDbCircle
 62
253
  6
CONTINUOUS
 10
24.0371286596
 20
-3.0597799387
 40
13.5474153075
100
AcDbArc
 50
176.7457283767
 51
177.1899252422
  0
ARC
  5
391
100
AcDbEntity
  8
RACCORDO
100
AcDbCircle
 62
253
  6
CONTINUOUS
 10
17.4724716867
 20
-1.8651493368
 40
7.2800329749
100
AcDbArc
 50
182.9511052022
 51
184.977153004
  0
ARC
  5
392
100
AcDbEntity
  8
0
100
AcDbCircle
 62
7
  6
CONTINUOUS
 10
1.5802168846
 20
-6.5297345171
 40
1.5375983392
100
AcDbArc
 50
214.3562280478
 51
218.2475369575
  0
ARC
  5
393
100
AcDbEntity
  8
0
100
AcDbCircle
 62
7
  6
CONTINUOUS
 10
1.547133527
 20
-12.449601659
 40
1.499554085
100
AcDbArc
 50
144.0606839598
 51
166.3792160937
  0
ARC
  5
394
100
AcDbEntity
  8
0
100
AcDbCircle
 62
7
  6
CONTINUOUS
 10
1.5413876212
 20
-12.4456832851
 40
1.4926023167
100
AcDbArc
 50
141.3075636685
 51
144.0521202958
  0
ARC
  5
395
100
AcDbEntity
  8
0
100
AcDbCircle
 62
7
  6
CONTINUOUS
 10
1.5387493559
 20
-12.4436499615
 40
1.4892728479
100
AcDbArc
 50
140.9872058216
 51
144.0558632165
  0
ARC
  5
396
100
AcDbEntity
  8
0
100
AcDbCircle
 62
7
  6
CONTINUOUS
 10
1.5261767618
 20
-12.4344437733
 40
1.4736902097
100
AcDbArc
 50
144.0587080142
 51
144.3150320257
  0
ARC
  5
397
100
AcDbEntity
  8
0
100
AcDbCircle
 62
7
  6
CONTINUOUS
 10
14.9248595194
 20
-22.5001590746
 40
0.9998409254
100
AcDbArc
 50
269.9998836211
 51
303.557328597
  0
ARC
  5
398
100
AcDbEntity
  8
0
100
AcDbCircle
 62
7
  6
CONTINUOUS
 10
7.5751404806
 20
-22.5001590747
 40
0.9998409253
100
AcDbArc
 50
236.4426714052
 51
270.0001163793
  0
ARC
  5
399
100
AcDbEntity
  8
SUPERFICI
100
AcDbCircle
 62
253
  6
CONTINUOUS
 10
21.758582938
 20
-21.4747252304
 40
0.5001617677
100
AcDbArc
 50
270.0246487002
 51
359.9006608639
  0
ARC
  5
39A
100
AcDbEntity
  8
0
100
AcDbCircle
 62
7
  6
CONTINUOUS
 10
16.2
 20
-23.1
 40
0.5
100
AcDbArc
 50
60.887577224
 51
189.196281579
  0
ARC
  5
39B
100
AcDbEntity
  8
0
100
AcDbCircle
 62
7
  6
CONTINUOUS
 10
6.3
 20
-23.1
 40
0.5
100
AcDbArc
 50
350.803718421
 51
119.112422776
  0
ARC
  5
39C
100
AcDbEntity
  8
0
100
AcDbCircle
 62
7
  6
CONTINUOUS
 10
22.5
 20
-0.0
 40
28.0
100
AcDbArc
 50
125.9627651514
 51
126.8688977833
  0
ARC
  5
39D
100
AcDbEntity
  8
0
100
AcDbCircle
 62
7
  6
CONTINUOUS
 10
22.5
 20
-0.0
 40
28.0
100
AcDbArc
 50
123.5572122924
 51
124.1210936517
  0
ARC
  5
39E
100
AcDbEntity
  8
0
100
AcDbCircle
 62
7
  6
CONTINUOUS
 10
22.5
 20
-0.0
 40
28.0
100
AcDbArc
 50
235.8789063483
 51
236.4427877109
  0
ARC
  5
39F
100
AcDbEntity
  8
0
100
AcDbCircle
 62
7
  6
CONTINUOUS
 10
22.5
 20
-0.0
 40
28.0
100
AcDbArc
 50
233.1311022167
 51
234.0372348486
  0
CIRCLE
  5
3A0
100
AcDbEntity
  8
RACCORDO
100
AcDbCircle
 62
253
  6
CONTINUOUS
 10
9.5
 20
-0.0
 40
3.0044246974
  0
CIRCLE
  5
3A1
100
AcDbEntity
  8
RACCORDO
100
AcDbCircle
 62
253
  6
CONTINUOUS
 10
9.5
 20
-0.0
 40
2.6044856194
  0
CIRCLE
  5
3A2
100
AcDbEntity
  8
DRAFT
100
AcDbCircle
 62
7
  6
CONTINUOUS
 10
9.5
 20
-0.0
 40
2.6
  0
ARC
  5
3A3
100
AcDbEntity
  8
0
100
AcDbCircle
 62
7
  6
CONTINUOUS
 10
7.5751404844
 20
22.5001590621
 40
0.9998409379
100
AcDbArc
 50
89.9998867712
 51
123.5573284696
  0
ARC
  5
3A4
100
AcDbEntity
  8
0
100
AcDbCircle
 62
7
  6
CONTINUOUS
 10
14.9248595156
 20
22.5001590621
 40
0.9998409379
100
AcDbArc
 50
56.4426715282
 51
90.0001132284
  0
ARC
  5
3A5
100
AcDbEntity
  8
SUPERFICI
100
AcDbCircle
 62
253
  6
CONTINUOUS
 10
21.7585829316
 20
21.4747252251
 40
0.5001617735
100
AcDbArc
 50
0.0993397389
 51
89.9753505696
  0
ARC
  5
3A6
100
AcDbEntity
  8
0
100
AcDbCircle
 62
7
  6
CONTINUOUS
 10
6.3
 20
23.1
 40
0.5
100
AcDbArc
 50
240.887577224
 51
9.196281579
  0
ARC
  5
3A7
100
AcDbEntity
  8
0
100
AcDbCircle
 62
7
  6
CONTINUOUS
 10
16.2
 20
23.1
 40
0.5
100
AcDbArc
 50
170.803718421
 51
299.112422776
  0
ARC
  5
3A8
100
AcDbEntity
  8
0
100
AcDbCircle
 62
7
  6
CONTINUOUS
 10
-107.3740267807
 20
-1875.3679716258
 40
1898.8887601012
100
AcDbArc
 50
88.7936194629
 51
88.9143369151
  0
ARC
  5
3A9
100
AcDbEntity
  8
0
100
AcDbCircle
 62
7
  6
CONTINUOUS
 10
-54.1084485188
 20
-1858.9020618953
 40
1836.3202648839
100
AcDbArc
 50
90.4145716298
 51
90.539381615
  0
ARC
  5
3AA
100
AcDbEntity
  8
RACCORDO
100
AcDbCircle
 62
253
  6
CONTINUOUS
 10
-402.7967780431
 20
-16.6386159464
 40
348.5107763501
100
AcDbArc
 50
359.8975712803
 51
0.1024287184
  0
ARC
  5
3AB
100
AcDbEntity
  8
RACCORDO
100
AcDbCircle
 62
253
  6
CONTINUOUS
 10
-77.1912249518
 20
-7.9104334752
 40
22.9051150662
100
AcDbArc
 50
359.6413604752
 51
0.3586395248
  0
ARC
  5
3AC
100
AcDbEntity
  8
RACCORDO
100
AcDbCircle
 62
7
  6
CONTINUOUS
 10
-60.0550057031
 20
-27.8078946614
 40
9.8173414064
100
AcDbArc
 50
136.6912862824
 51
136.8978681763
  0
ARC
  5
3AD
100
AcDbEntity
  8
0
100
AcDbCircle
 62
7
  6
CONTINUOUS
 10
-48.6785912056
 20
-3.3596769279
 40
4.8919625686
100
AcDbArc
 50
285.8368792001
 51
286.4882703864
  0
ARC
  5
3AE
100
AcDbEntity
  8
SMUSSO
100
AcDbCircle
 62
7
  6
CONTINUOUS
 10
-50.5698500948
 20
-8.2480665705
 40
1.6973163609
100
AcDbArc
 50
135.6273858898
 51
136.1537150144
  0
ARC
  5
3AF
100
AcDbEntity
  8
SUPERFICI
100
AcDbCircle
 62
7
  6
CONTINUOUS
 10
-79.4542038691
 20
-20.9762776025
 40
1.0
100
AcDbArc
 50
182.4092313014
 51
267.0
  0
ARC
  5
3B0
100
AcDbEntity
  8
0
100
AcDbCircle
 62
7
  6
CONTINUOUS
 10
-47.2251577637
 20
-6.2660845159
 40
0.829881421
100
AcDbArc
 50
353.8893548677
 51
356.1109390123
  0
ARC
  5
3B1
100
AcDbEntity
  8
SUPERFICI
100
AcDbCircle
 62
253
  6
CONTINUOUS
 10
-79.4629162317
 20
-20.9762639039
 40
0.5000132837
100
AcDbArc
 50
182.4107329424
 51
266.9984983588
  0
ARC
  5
3B2
100
AcDbEntity
  8
RACCORDO
100
AcDbCircle
 62
7
  6
CONTINUOUS
 10
-44.1952848054
 20
-18.5979512127
 40
0.5
100
AcDbArc
 50
271.0
 51
360.0
  0
ARC
  5
3B3
100
AcDbEntity
  8
RACCORDO
100
AcDbCircle
 62
7
  6
CONTINUOUS
 10
-54.2952848054
 20
-18.7742473685
 40
0.5
100
AcDbArc
 50
271.0
 51
360.0
  0
ARC
  5
3B4
100
AcDbEntity
  8
RACCORDO
100
AcDbCircle
 62
7
  6
CONTINUOUS
 10
-61.2845762568
 20
-19.8963982326
 40
0.5
100
AcDbArc
 50
91.0111191162
 51
135.0056947707
  0
ARC
  5
3B5
100
AcDbEntity
  8
RACCORDO
100
AcDbCircle
 62
7
  6
CONTINUOUS
 10
-63.4331562107
 20
-20.6307646241
 40
0.5
100
AcDbArc
 50
271.0
 51
315.0
  0
ARC
  5
3B6
100
AcDbEntity
  8
RACCORDO
100
AcDbCircle
 62
7
  6
CONTINUOUS
 10
-44.1952848054
 20
-19.2979512127
 40
0.5
100
AcDbArc
 50
271.0
 51
360.0
  0
ARC
  5
3B7
100
AcDbEntity
  8
RACCORDO
100
AcDbCircle
 62
7
  6
CONTINUOUS
 10
-43.5952848054
 20
-10.8591680193
 40
0.4
100
AcDbArc
 50
271.3926372617
 51
360.0
  0
ARC
  5
3B8
100
AcDbEntity
  8
RACCORDO
100
AcDbCircle
 62
7
  6
CONTINUOUS
 10
-41.9952848054
 20
-8.1429762446
 40
0.3
100
AcDbArc
 50
271.0
 51
360.0
  0
ARC
  5
3B9
100
AcDbEntity
  8
RACCORDO
100
AcDbCircle
 62
7
  6
CONTINUOUS
 10
-41.9952848054
 20
-5.561882281
 40
0.3
100
AcDbArc
 50
271.0
 51
360.0
  0
ARC
  5
3BA
100
AcDbEntity
  8
RACCORDO
100
AcDbCircle
 62
7
  6
CONTINUOUS
 10
-41.9952848054
 20
-17.3202806912
 40
0.3
100
AcDbArc
 50
271.0
 51
360.0
  0
ARC
  5
3BB
100
AcDbEntity
  8
RACCORDO
100
AcDbCircle
 62
7
  6
CONTINUOUS
 10
-41.9952848054
 20
-10.3797193088
 40
0.3
100
AcDbArc
 50
0.0
 51
89.0
  0
ARC
  5
3BC
100
AcDbEntity
  8
RACCORDO
100
AcDbCircle
 62
7
  6
CONTINUOUS
 10
-67.1952848054
 20
-21.3965394526
 40
0.2
100
AcDbArc
 50
91.0
 51
180.0
  0
ARC
  5
3BD
100
AcDbEntity
  8
0
100
AcDbCircle
 62
7
  6
CONTINUOUS
 10
-107.374026781
 20
1875.3679716429
 40
1898.8887601183
100
AcDbArc
 50
271.0856630849
 51
271.2063805371
  0
ARC
  5
3BE
100
AcDbEntity
  8
0
100
AcDbCircle
 62
7
  6
CONTINUOUS
 10
-54.1084485188
 20
1858.9020618953
 40
1836.3202648839
100
AcDbArc
 50
269.460618385
 51
269.5854283702
  0
ARC
  5
3BF
100
AcDbEntity
  8
RACCORDO
100
AcDbCircle
 62
253
  6
CONTINUOUS
 10
-454.8161261037
 20
16.6776253089
 40
393.9300582692
100
AcDbArc
 50
359.9095588503
 51
0.090441147
  0
ARC
  5
3C0
100
AcDbEntity
  8
RACCORDO
100
AcDbCircle
 62
253
  6
CONTINUOUS
 10
-160.0606349039
 20
192.1065414246
 40
223.3497737063
100
AcDbArc
 50
296.3614583633
 51
296.5246310297
  0
ARC
  5
3C1
100
AcDbEntity
  8
RACCORDO
100
AcDbCircle
 62
253
  6
CONTINUOUS
 10
-178.3809538496
 20
51.0759513408
 40
131.5179350214
100
AcDbArc
 50
333.3002759176
 51
333.5778278567
  0
ARC
  5
3C2
100
AcDbEntity
  8
RACCORDO
100
AcDbCircle
 62
7
  6
CONTINUOUS
 10
-60.0746279182
 20
27.7894787301
 40
9.790430918
100
AcDbArc
 50
223.1018082427
 51
223.3090575632
  0
ARC
  5
3C3
100
AcDbEntity
  8
SUPERFICI
100
AcDbCircle
 62
7
  6
CONTINUOUS
 10
-79.4542038691
 20
20.9762776025
 40
1.0
100
AcDbArc
 50
93.0
 51
177.5907686986
  0
ARC
  5
3C4
100
AcDbEntity
  8
SUPERFICI
100
AcDbCircle
 62
253
  6
CONTINUOUS
 10
-79.4629162317
 20
20.9762639039
 40
0.5000132837
100
AcDbArc
 50
93.0015016419
 51
177.589267057
  0
ARC
  5
3C5
100
AcDbEntity
  8
ASSI
100
AcDbCircle
 62
7
  6
CONTINUOUS
 10
-60.8952848054
 20
18.889450797
 40
0.5
100
AcDbArc
 50
64.3261196806
 51
66.4218055963
  0
ARC
  5
3C6
100
AcDbEntity
  8
RACCORDO
100
AcDbCircle
 62
7
  6
CONTINUOUS
 10
-60.8952848054
 20
18.889450797
 40
0.5
100
AcDbArc
 50
0.0
 51
89.0
  0
ARC
  5
3C7
100
AcDbEntity
  8
RACCORDO
100
AcDbCircle
 62
7
  6
CONTINUOUS
 10
-61.2845762568
 20
19.8963982326
 40
0.5
100
AcDbArc
 50
224.9943245584
 51
268.9889109912
  0
ARC
  5
3C8
100
AcDbEntity
  8
RACCORDO
100
AcDbCircle
 62
7
  6
CONTINUOUS
 10
-63.4331562107
 20
20.6307646241
 40
0.5
100
AcDbArc
 50
45.0
 51
89.0
  0
ARC
  5
3C9
100
AcDbEntity
  8
RACCORDO
100
AcDbCircle
 62
7
  6
CONTINUOUS
 10
-43.5952848054
 20
7.7531601735
 40
0.4
100
AcDbArc
 50
0.0
 51
88.6074180659
  0
ARC
  5
3CA
100
AcDbEntity
  8
RACCORDO
100
AcDbCircle
 62
7
  6
CONTINUOUS
 10
-41.9952848054
 20
1.0163534593
 40
0.3
100
AcDbArc
 50
0.0
 51
89.0
  0
ARC
  5
3CB
100
AcDbEntity
  8
RACCORDO
100
AcDbCircle
 62
7
  6
CONTINUOUS
 10
-67.1952848054
 20
21.3965394526
 40
0.2
100
AcDbArc
 50
180.0
 51
269.0
  0
ARC
  5
3CC
100
AcDbEntity
  8
RACCORDO
100
AcDbCircle
 62
7
  6
CONTINUOUS
 10
419.1047151946
 20
-0.0
 40
500.0
100
AcDbArc
 50
177.7261236757
 51
182.2738763243
  0
ARC
  5
3CD
100
AcDbEntity
  8
SUPERFICI
100
AcDbCircle
 62
7
  6
CONTINUOUS
 10
419.1047151946
 20
-0.0
 40
500.0
100
AcDbArc
 50
177.5907686986
 51
182.4092313014
  0
ARC
  5
3CE
100
AcDbEntity
  8
SUPERFICI
100
AcDbCircle
 62
253
  6
CONTINUOUS
 10
419.0984576146
 20
-0.0
 40
499.5024664412
100
AcDbArc
 50
177.5907806019
 51
182.4092193981
  0
SPLINE
  5
3CF
100
AcDbEntity
  8
0
100
AcDbSpline
 62
7
  6
CONTINUOUS
 70
0
 71
3
 72
9
 73
5
 74
3
 42
0.0000001
 43
0.0000001
 44
0.0000000001
 12
0.0001654308
 22
-2.0261859819
 32
0.0
 13
1.0811600222
 23
-1.7136285091
 33
0.0
 40
0.0
 40
0.0
 40
0.0
 40
0.0
 40
0.4957262961
 40
1.0
 40
1.0
 40
1.0
 40
1.0
 10
-2.2977419102
 20
-9.5000706159
 30
0.0
 10
-2.2977145741
 20
-9.8348818399
 30
0.0
 10
-2.2033233329
 20
-10.513385759
 30
0.0
 10
-1.9246790013
 20
-11.1400832789
 30
0.0
 10
-1.7429454783
 20
-11.4281292107
 30
0.0
 11
-2.2977419102
 21
-9.5000706159
 31
0.0
 11
-2.1588509386
 21
-10.4948551685
 31
0.0
 11
-1.7429454783
 21
-11.4281292107
 31
0.0
  0
SPLINE
  5
3D0
100
AcDbEntity
  8
0
100
AcDbSpline
 62
7
  6
CONTINUOUS
 70
0
 71
3
 72
9
 73
5
 74
3
 42
0.0000001
 43
0.0000001
 44
0.0000000001
 12
-1.079340466
 22
-1.7133017236
 32
0.0
 13
0.0001654084
 23
-2.0249391621
 33
0.0
 40
0.0
 40
0.0
 40
0.0
 40
0.0
 40
0.5035922491
 40
1.0
 40
1.0
 40
1.0
 40
1.0
 10
-1.7441324822
 20
-7.5729137922
 30
0.0
 10
-1.9253149798
 20
-7.860515615
 30
0.0
 10
-2.203493603
 20
-8.4868990899
 30
0.0
 10
-2.2977692802
 20
-9.1650054833
 30
0.0
 10
-2.2977419102
 20
-9.5000706484
 30
0.0
 11
-1.7441324822
 21
-7.5729137922
 31
0.0
 11
-2.158853442
 21
-8.5045165395
 31
0.0
 11
-2.2977419102
 21
-9.5000706484
 31
0.0
  0
SPLINE
  5
3D1
100
AcDbEntity
  8
0
100
AcDbSpline
 62
7
  6
CONTINUOUS
 70
0
 71
3
 72
9
 73
5
 74
3
 42
0.0000001
 43
0.0000001
 44
0.0000000001
 12
0.0001654021
 22
2.0249415059
 32
0.0
 13
-1.0793336039
 23
1.7133088166
 33
0.0
 40
0.0
 40
0.0
 40
0.0
 40
0.0
 40
0.496418393
 40
1.0
 40
1.0
 40
1.0
 40
1.0
 10
2.2977419102
 20
-9.5000706484
 30
0.0
 10
2.2977692797
 20
-9.1649979123
 30
0.0
 10
2.2034949451
 20
-8.4868893348
 30
0.0
 10
1.9253085911
 20
-7.8605092349
 30
0.0
 10
1.7441310742
 20
-7.5729122991
 30
0.0
 11
2.2977419102
 21
-9.5000706484
 31
0.0
 11
2.1588485889
 21
-8.5044942835
 31
0.0
 11
1.7441310742
 21
-7.5729122991
 31
0.0
  0
SPLINE
  5
3D2
100
AcDbEntity
  8
0
100
AcDbSpline
 62
7
  6
CONTINUOUS
 70
0
 71
3
 72
9
 73
5
 74
3
 42
0.0000001
 43
0.0000001
 44
0.0000000001
 12
1.0811671857
 22
1.7136212739
 32
0.0
 13
0.0001654372
 23
2.0261836853
 33
0.0
 40
0.0
 40
0.0
 40
0.0
 40
0.0
 40
0.5042839354
 40
1.0
 40
1.0
 40
1.0
 40
1.0
 10
1.7429468637
 20
-11.4281277606
 30
0.0
 10
1.9246852781
 20
-11.1400772007
 30
0.0
 10
2.2033218899
 20
-10.513376298
 30
0.0
 10
2.2977145736
 20
-9.83487455
 30
0.0
 10
2.2977419102
 20
-9.5000706159
 30
0.0
 11
1.7429468637
 21
-11.4281277606
 31
0.0
 11
2.15885556
 21
-10.4948337322
 31
0.0
 11
2.2977419102
 21
-9.5000706159
 31
0.0
  0
LINE
  5
3D3
100
AcDbEntity
  8
0
100
AcDbLine
 62
253
  6
CONTINUOUS
 10
-2.5996197611
 20
-9.4897081354
 11
-2.2976588078
 21
-9.4939662298
  0
LINE
  5
3D4
100
AcDbEntity
  8
0
100
AcDbLine
 62
253
  6
CONTINUOUS
 10
2.2976588074
 20
-9.4939662298
 11
2.5996197611
 21
-9.4897081354
  0
SPLINE
  5
3D5
100
AcDbEntity
  8
RACCORDO
100
AcDbSpline
 62
253
  6
CONTINUOUS
 70
0
 71
3
 72
9
 73
5
 74
3
 42
0.0000001
 43
0.0000001
 44
0.0000000001
 12
-0.3151568431
 22
0.0110828521
 32
0.0
 13
-0.29096566
 23
-0.1215962584
 33
0.0
 40
0.0
 40
0.0
 40
0.0
 40
0.0
 40
0.5203672492
 40
1.0
 40
1.0
 40
1.0
 40
1.0
 10
-10.2020932489
 20
-2.2399526006
 30
0.0
 10
-10.2567590155
 20
-2.2380302162
 30
0.0
 10
-10.3623810757
 20
-2.2440565131
 30
0.0
 10
-10.4650404704
 20
-2.2712902987
 30
0.0
 10
-10.5115593571
 20
-2.2907308147
 30
0.0
 11
-10.2020932489
 21
-2.2399526006
 31
0.0
 11
-10.3658813006
 21
-2.250044599
 31
0.0
 11
-10.5115593571
 21
-2.2907308147
 31
0.0
  0
SPLINE
  5
3D6
100
AcDbEntity
  8
RACCORDO
100
AcDbSpline
 62
253
  6
CONTINUOUS
 70
0
 71
3
 72
9
 73
5
 74
3
 42
0.0000001
 43
0.0000001
 44
0.0000000001
 12
-0.29096566
 22
0.1215962584
 32
0.0
 13
-0.3151568431
 23
-0.0110828521
 33
0.0
 40
0.0
 40
0.0
 40
0.0
 40
0.0
 40
0.4796327508
 40
1.0
 40
1.0
 40
1.0
 40
1.0
 10
10.5115593571
 20
-2.2907308147
 30
0.0
 10
10.4650404704
 20
-2.2712902987
 30
0.0
 10
10.3623810757
 20
-2.2440565131
 30
0.0
 10
10.2567590155
 20
-2.2380302162
 30
0.0
 10
10.2020932489
 20
-2.2399526006
 30
0.0
 11
10.5115593571
 21
-2.2907308147
 31
0.0
 11
10.3658813006
 21
-2.250044599
 31
0.0
 11
10.2020932489
 21
-2.2399526006
 31
0.0
  0
SPLINE
  5
3D7
100
AcDbEntity
  8
SUPERFICI
100
AcDbSpline
 62
253
  6
CONTINUOUS
 70
0
 71
3
 72
18
 73
14
 74
12
 42
0.0000001
 43
0.0000001
 44
0.0000000001
 12
0.1920596514
 22
-0.4630821022
 32
0.0
 13
0.501330039
 23
-0.0003675238
 33
0.0
 40
0.0
 40
0.0
 40
0.0
 40
0.0
 40
0.0075786615
 40
0.0238216269
 40
0.0490086414
 40
0.0830468016
 40
0.1257249957
 40
0.1765887903
 40
0.300791143
 40
0.4512073183
 40
0.6223339353
 40
0.8079467503
 40
1.0
 40
1.0
 40
1.0
 40
1.0
 10
-22.2504589101
 20
-20.9972959167
 30
0.0
 10
-22.2499737251
 20
-20.9984657642
 30
0.0
 10
-22.2455638945
 20
-20.9999005065
 30
0.0
 10
-22.2381033364
 20
-21.0017751185
 30
0.0
 10
-22.2253492312
 20
-21.0036054098
 30
0.0
 10
-22.2085354275
 20
-21.0054801724
 30
0.0
 10
-22.1872468866
 20
-21.0072743323
 30
0.0
 10
-22.1509615085
 20
-21.0097391409
 30
0.0
 10
-22.0966181213
 20
-21.0123829265
 30
0.0
 10
-22.0221754579
 20
-21.0148942546
 30
0.0
 10
-21.937442663
 20
-21.0167937349
 30
0.0
 10
-21.8457410923
 20
-21.0179861665
 30
0.0
 10
-21.7826290836
 20
-21.0182907021
 30
0.0
 10
-21.7505350625
 20
-21.0183142302
 30
0.0
 11
-22.2504589101
 21
-20.9972959167
 31
0.0
 11
-22.2472471191
 21
-20.9993256772
 31
0.0
 11
-22.2393580868
 21
-21.0013438601
 31
0.0
 11
-22.2268879442
 21
-21.0033280315
 31
0.0
 11
-22.2099328228
 21
-21.0052557574
 31
0.0
 11
-22.1886170906
 21
-21.007105802
 31
0.0
 11
-22.1631780645
 21
-21.0088617216
 31
0.0
 11
-22.1009923453
 21
-21.0120302035
 31
0.0
 11
-22.0256295148
 21
-21.0146446798
 31
0.0
 11
-21.9398611012
 21
-21.0166103915
 31
0.0
 11
-21.8468160204
 21
-21.0178475185
 31
0.0
 11
-21.7505350625
 21
-21.0183142302
 31
0.0
  0
SPLINE
  5
3D8
100
AcDbEntity
  8
SUPERFICI
100
AcDbSpline
 62
253
  6
CONTINUOUS
 70
0
 71
3
 72
16
 73
12
 74
10
 42
0.0000001
 43
0.0000001
 44
0.0000000001
 12
-0.0003487348
 22
0.4784888509
 32
0.0
 13
-0.1517294258
 23
0.4537949795
 33
0.0
 40
0.0
 40
0.0
 40
0.0
 40
0.0
 40
0.3737468212
 40
0.5424031696
 40
0.6911963156
 40
0.8150095851
 40
0.9096756665
 40
0.9450551809
 40
0.9720291161
 40
0.9903824903
 40
1.0
 40
1.0
 40
1.0
 40
1.0
 10
-22.2504589101
 20
20.9972959167
 30
0.0
 10
-22.2505023563
 20
21.0569071457
 30
0.0
 10
-22.2508231488
 20
21.1434190071
 30
0.0
 10
-22.2518608611
 20
21.2536571038
 30
0.0
 10
-22.252838614
 20
21.3240316828
 30
0.0
 10
-22.2540233018
 20
21.3825953076
 30
0.0
 10
-22.2551704431
 20
21.4230770906
 30
0.0
 10
-22.2562676413
 20
21.4480877497
 30
0.0
 10
-22.256956604
 20
21.4609600584
 30
0.0
 10
-22.2577706547
 20
21.4696529353
 30
0.0
 10
-22.2582355445
 20
21.4741375773
 30
0.0
 10
-22.2587219643
 20
21.4755923698
 30
0.0
 11
-22.2504589101
 21
20.9972959167
 31
0.0
 11
-22.2511787742
 21
21.1761282023
 31
0.0
 11
-22.2519547029
 21
21.2568246758
 31
0.0
 11
-22.2529759768
 21
21.3280132309
 31
0.0
 11
-22.2542080566
 21
21.3872437026
 31
0.0
 11
-22.2556084801
 21
21.4325187257
 31
0.0
 11
-22.256357471
 21
21.4494308561
 31
0.0
 11
-22.2571309876
 21
21.4623143871
 31
0.0
 11
-22.257921817
 21
21.4710605938
 31
0.0
 11
-22.2587219643
 21
21.4755923698
 31
0.0
  0
SPLINE
  5
3D9
100
AcDbEntity
  8
SUPERFICI
100
AcDbSpline
 62
253
  6
CONTINUOUS
 70
0
 71
3
 72
16
 73
12
 74
10
 42
0.0000001
 43
0.0000001
 44
0.0000000001
 12
-0.0003449152
 22
0.9566893721
 32
0.0
 13
-0.1577724223
 23
0.9435902375
 33
0.0
 40
0.0
 40
0.0
 40
0.0
 40
0.0
 40
0.3738433557
 40
0.5425438255
 40
0.691371271
 40
0.8152153956
 40
0.9098790784
 40
0.945239375
 40
0.9721806474
 40
0.9904827618
 40
1.0
 40
1.0
 40
1.0
 40
1.0
 10
-21.7505350625
 20
21.0183142309
 30
0.0
 10
-21.7505780439
 20
21.1375315526
 30
0.0
 10
-21.7508995599
 20
21.3105471542
 30
0.0
 10
-21.7519376942
 20
21.5310203978
 30
0.0
 10
-21.7529147032
 20
21.6717698543
 30
0.0
 10
-21.7541002376
 20
21.7889040808
 30
0.0
 10
-21.7552445944
 20
21.86985829
 30
0.0
 10
-21.7563458948
 20
21.9198966107
 30
0.0
 10
-21.7570265526
 20
21.9456019785
 30
0.0
 10
-21.7578544818
 20
21.9630272143
 30
0.0
 10
-21.7582975975
 20
21.9719136795
 30
0.0
 10
-21.7587981167
 20
21.9749071372
 30
0.0
 11
-21.7505350625
 21
21.0183142309
 31
0.0
 11
-21.751255274
 21
21.3759654942
 31
0.0
 11
-21.7520313521
 21
21.5373575853
 31
0.0
 11
-21.7530523599
 21
21.6797355691
 31
0.0
 11
-21.7542842797
 21
21.7982095299
 31
0.0
 11
-21.7556848019
 21
21.8887624452
 31
0.0
 11
-21.7564336293
 21
21.9225829784
 31
0.0
 11
-21.7572065848
 21
21.9483458162
 31
0.0
 11
-21.757997045
 21
21.965837404
 31
0.0
 11
-21.7587981167
 21
21.9749071372
 31
0.0
  0
SPLINE
  5
3DA
100
AcDbEntity
  8
SUPERFICI
100
AcDbSpline
 62
253
  6
CONTINUOUS
 70
0
 71
3
 72
18
 73
14
 74
12
 42
0.0000001
 43
0.0000001
 44
0.0000000001
 12
0.1921186918
 22
0.4630575173
 32
0.0
 13
0.5013299522
 23
0.0003675727
 33
0.0
 40
0.0
 40
0.0
 40
0.0
 40
0.0
 40
0.0075791314
 40
0.0238226199
 40
0.0490101292
 40
0.0830487343
 40
0.1257273067
 40
0.1765913985
 40
0.3007940536
 40
0.4512100785
 40
0.6223360984
 40
0.8079479295
 40
1.0
 40
1.0
 40
1.0
 40
1.0
 10
-22.2504589101
 20
20.9972959167
 30
0.0
 10
-22.2499735458
 20
20.9984657746
 30
0.0
 10
-22.2455636496
 20
20.9999004249
 30
0.0
 10
-22.2381027357
 20
21.0017750872
 30
0.0
 10
-22.22534844
 20
21.0036053338
 30
0.0
 10
-22.2085343911
 20
21.0054800906
 30
0.0
 10
-22.187245674
 20
21.0072742266
 30
0.0
 10
-22.1509601319
 20
21.0097390057
 30
0.0
 10
-22.0966166803
 20
21.0123827562
 30
0.0
 10
-22.022174102
 20
21.014894052
 30
0.0
 10
-21.937441611
 20
21.0167935074
 30
0.0
 10
-21.8457405172
 20
21.0179859267
 30
0.0
 10
-21.782628881
 20
21.018290463
 30
0.0
 10
-21.7505350625
 20
21.018313994
 30
0.0
 11
-22.2504589101
 21
20.9972959167
 31
0.0
 11
-22.2472468293
 21
20.9993256583
 31
0.0
 11
-22.2393575227
 21
21.0013438216
 31
0.0
 11
-22.226887128
 21
21.0033279729
 31
0.0
 11
-22.2099317827
 21
21.0052556782
 31
0.0
 11
-22.1886158621
 21
21.0071057018
 31
0.0
 11
-22.1631766896
 21
21.0088616005
 31
0.0
 11
-22.1009908273
 21
21.0120300423
 31
0.0
 11
-22.0256280841
 21
21.0146444832
 31
0.0
 11
-21.9398599841
 21
21.0166101683
 31
0.0
 11
-21.8468154126
 21
21.0178472814
 31
0.0
 11
-21.7505350625
 21
21.018313994
 31
0.0
  0
SPLINE
  5
3DB
100
AcDbEntity
  8
RACCORDO
100
AcDbSpline
 62
253
  6
CONTINUOUS
 70
0
 71
3
 72
31
 73
27
 74
25
 42
0.0000001
 43
0.0000001
 44
0.0000000001
 12
60.6402200205
 22
-0.0001256834
 32
0.0
 13
-60.6402200204
 23
-0.0001455565
 33
0.0
 40
0.0
 40
0.0
 40
0.0
 40
0.0
 40
0.0312700562
 40
0.0625398685
 40
0.0938097055
 40
0.1250789304
 40
0.1875385034
 40
0.2499969426
 40
0.2812640686
 40
0.3125315781
 40
0.343799575
 40
0.3750680188
 40
0.4375320794
 40
0.499999642
 40
0.5624672058
 40
0.6249312591
 40
0.6561996874
 40
0.687467675
 40
0.7187351823
 40
0.7500023105
 40
0.8124607783
 40
0.874920355
 40
0.9061895809
 40
0.9374596381
 40
0.9687297464
 40
1.0
 40
1.0
 40
1.0
 40
1.0
 10
-0.0
 20
19.3183438137
 30
0.0
 10
0.6320743631
 20
19.3183425037
 30
0.0
 10
1.8971028128
 20
19.2562427393
 30
0.0
 10
3.7756447549
 20
18.9777184052
 30
0.0
 10
5.6181799144
 20
18.5163813936
 30
0.0
 10
8.0004978696
 20
17.6645721943
 30
0.0
 10
10.8045225073
 20
16.1672770935
 30
0.0
 10
13.2618531088
 20
14.1509232776
 30
0.0
 10
14.9612492319
 20
12.2767199689
 30
0.0
 10
16.0930799342
 20
10.7516052488
 30
0.0
 10
17.069851861
 20
9.1227753148
 30
0.0
 10
18.1522964446
 20
6.8359913527
 30
0.0
 10
19.0761703747
 20
3.793683387
 30
0.0
 10
19.44972973
 20
0.0000218452
 30
0.0
 10
19.0761790433
 20
-3.7936404067
 30
0.0
 10
18.1523119005
 20
-6.8359500184
 30
0.0
 10
17.069872361
 20
-9.1227356196
 30
0.0
 10
16.0931049967
 20
-10.7515676304
 30
0.0
 10
14.9612783316
 20
-12.2766851122
 30
0.0
 10
13.2618865939
 20
-14.1508932439
 30
0.0
 10
10.8045588725
 20
-16.1672516976
 30
0.0
 10
8.0005377533
 20
-17.6645544782
 30
0.0
 10
5.6182174468
 20
-18.5163709012
 30
0.0
 10
3.7756726448
 20
-18.9777125606
 30
0.0
 10
1.8971168298
 20
-19.2562421305
 30
0.0
 10
0.6320783526
 20
-19.3183422965
 30
0.0
 10
0.0
 20
-19.3183438137
 30
0.0
 11
-0.0
 21
19.3183438137
 31
0.0
 11
1.8939412584
 21
19.2253464266
 31
0.0
 11
3.7696458694
 21
18.9472491171
 31
0.0
 11
5.6090826009
 21
18.4867232141
 31
0.0
 11
7.3945134137
 21
17.84820333
 31
0.0
 11
10.7352270326
 21
16.0634735819
 31
0.0
 11
13.6636316717
 21
13.6614841439
 31
0.0
 11
14.937327385
 21
12.2569602449
 31
0.0
 11
16.0672288677
 21
10.7343312709
 31
0.0
 11
17.0424349637
 21
9.1082434848
 31
0.0
 11
17.8535261446
 21
7.3943525007
 31
0.0
 11
18.9536830909
 21
3.7698050859
 31
0.0
 11
19.3252090599
 21
0.0000217252
 31
0.0
 11
18.9536916214
 21
-3.7697625455
 31
0.0
 11
17.853542693
 21
-7.3943119301
 31
0.0
 11
17.042455652
 21
-9.1082038292
 31
0.0
 11
16.0672539554
 21
-10.7342935975
 31
0.0
 11
14.937356485
 21
-12.2569253826
 31
0.0
 11
13.6636641563
 21
-13.6614525377
 31
0.0
 11
10.7352631021
 21
-16.0634490706
 31
0.0
 11
7.3945536122
 21
-17.8481870365
 31
0.0
 11
5.6091241872
 21
-18.4867109696
 31
0.0
 11
3.769675199
 21
-18.9472428904
 31
0.0
 11
1.8939531825
 21
-19.2253452281
 31
0.0
 11
0.0
 21
-19.3183438137
 31
0.0
  0
SPLINE
  5
3DC
100
AcDbEntity
  8
RACCORDO
100
AcDbSpline
 62
253
  6
CONTINUOUS
 70
0
 71
3
 72
31
 73
27
 74
25
 42
0.0000001
 43
0.0000001
 44
0.0000000001
 12
-60.6402200197
 22
0.0001256277
 32
0.0
 13
60.6402200196
 23
0.0001456057
 33
0.0
 40
0.0
 40
0.0
 40
0.0
 40
0.0
 40
0.0312700543
 40
0.0625398654
 40
0.0938097015
 40
0.1250789261
 40
0.1875384983
 40
0.2499969367
 40
0.2812640622
 40
0.3125315712
 40
0.3437995677
 40
0.3750680113
 40
0.4375320706
 40
0.4999996391
 40
0.5624672084
 40
0.6249312605
 40
0.6561996885
 40
0.6874676757
 40
0.7187351825
 40
0.7500023102
 40
0.8124607771
 40
0.8749203531
 40
0.9061895786
 40
0.937459636
 40
0.9687297451
 40
1.0
 40
1.0
 40
1.0
 40
1.0
 10
0.0
 20
-19.3183438137
 30
0.0
 10
-0.6320743248
 20
-19.3183425042
 30
0.0
 10
-1.8971027113
 20
-19.2562427439
 30
0.0
 10
-3.7756445762
 20
-18.9777184438
 30
0.0
 10
-5.6181796901
 20
-18.5163814557
 30
0.0
 10
-8.0004976196
 20
-17.664572305
 30
0.0
 10
-10.8045222494
 20
-16.1672772689
 30
0.0
 10
-13.2618528456
 20
-14.150923512
 30
0.0
 10
-14.9612489838
 20
-12.2767202666
 30
0.0
 10
-16.0930797036
 20
-10.7516055952
 30
0.0
 10
-17.0698516589
 20
-9.1227757054
 30
0.0
 10
-18.1522962713
 20
-6.8359918006
 30
0.0
 10
-19.0761703089
 20
-3.7936837768
 30
0.0
 10
-19.4497297512
 20
-0.0000220322
 30
0.0
 10
-19.0761790482
 20
3.7936404303
 30
0.0
 10
-18.1523118621
 20
6.8359501137
 30
0.0
 10
-17.06987233
 20
9.1227356765
 30
0.0
 10
-16.0931049733
 20
10.7515676642
 30
0.0
 10
-14.9612783233
 20
12.2766851217
 30
0.0
 10
-13.2618866111
 20
14.1508932268
 30
0.0
 10
-10.8045589248
 20
16.1672516563
 30
0.0
 10
-8.0005378498
 20
17.6645544339
 30
0.0
 10
-5.6182175662
 20
18.5163708668
 30
0.0
 10
-3.7756727561
 20
18.977712536
 30
0.0
 10
-1.8971168985
 20
19.2562421275
 30
0.0
 10
-0.63207838
 20
19.318342296
 30
0.0
 10
-0.0
 20
19.3183438137
 30
0.0
 11
0.0
 21
-19.3183438137
 31
0.0
 11
-1.893941144
 21
-19.2253464376
 31
0.0
 11
-3.7696456845
 21
-18.9472491562
 31
0.0
 11
-5.6090823673
 21
-18.4867232825
 31
0.0
 11
-7.3945131685
 21
-17.84820343
 31
0.0
 11
-10.7352267772
 21
-16.0634737548
 31
0.0
 11
-13.6636314158
 21
-13.6614843935
 31
0.0
 11
-14.9373271384
 21
-12.2569605422
 31
0.0
 11
-16.0672286376
 21
-10.7343316186
 31
0.0
 11
-17.0424347588
 21
-9.1082438781
 31
0.0
 11
-17.8535259709
 21
-7.3943529234
 31
0.0
 11
-18.9536829871
 21
-3.7698056123
 31
0.0
 11
-19.3252090593
 21
-0.0000219033
 31
0.0
 11
-18.9536915911
 21
3.7697626993
 31
0.0
 11
-17.8535426613
 21
7.3943120068
 31
0.0
 11
-17.04245562
 21
9.1082038894
 31
0.0
 11
-16.0672539319
 21
10.7342936332
 31
0.0
 11
-14.9373564776
 21
12.2569253925
 31
0.0
 11
-13.6636641692
 21
13.661452526
 31
0.0
 11
-10.7352631579
 21
16.0634490324
 31
0.0
 11
-7.3945537173
 21
17.8481869943
 31
0.0
 11
-5.6091243175
 21
18.4867109311
 31
0.0
 11
-3.7696753196
 21
18.9472428648
 31
0.0
 11
-1.8939532644
 21
19.2253452203
 31
0.0
 11
-0.0
 21
19.3183438137
 31
0.0
  0
SPLINE
  5
3DD
100
AcDbEntity
  8
RACCORDO
100
AcDbSpline
 62
253
  6
CONTINUOUS
 70
0
 71
3
 72
31
 73
27
 74
25
 42
0.0000001
 43
0.0000001
 44
0.0000000001
 12
62.2403618881
 22
-0.000258888
 32
0.0
 13
-62.2403618879
 23
-0.0002998735
 33
0.0
 40
0.0
 40
0.0
 40
0.0
 40
0.0
 40
0.0312698598
 40
0.0625395033
 40
0.093809216
 40
0.125078375
 40
0.1875378781
 40
0.2499965186
 40
0.2812637875
 40
0.3125314215
 40
0.3437995038
 40
0.3750679804
 40
0.4375321256
 40
0.4999996419
 40
0.5624671594
 40
0.6249312973
 40
0.6561997584
 40
0.6874678315
 40
0.7187354632
 40
0.7500027342
 40
0.8124614031
 40
0.8749209102
 40
0.9061900699
 40
0.9374600027
 40
0.9687299432
 40
1.0
 40
1.0
 40
1.0
 40
1.0
 10
0.0
 20
19.838105767
 30
0.0
 10
0.6487491298
 20
19.8381030686
 30
0.0
 10
1.9471536126
 20
19.7742704116
 30
0.0
 10
3.8752009155
 20
19.4879707875
 30
0.0
 10
5.7661874552
 20
19.0137834165
 30
0.0
 10
8.2109511219
 20
18.1383192424
 30
0.0
 10
11.0880191499
 20
16.5996509847
 30
0.0
 10
13.6086370844
 20
14.5281712451
 30
0.0
 10
15.3514233311
 20
12.6031861078
 30
0.0
 10
16.5119818482
 20
11.0369772495
 30
0.0
 10
17.5134048116
 20
9.364493272
 30
0.0
 10
18.6230270155
 20
7.0167133739
 30
0.0
 10
19.5699191612
 20
3.8937713793
 30
0.0
 10
19.9527409972
 20
0.00002249
 30
0.0
 10
19.5699280323
 20
-3.8937271198
 30
0.0
 10
18.6230428978
 20
-7.0166708184
 30
0.0
 10
17.5134258374
 20
-9.364452384
 30
0.0
 10
16.5120075294
 20
-11.03693847
 30
0.0
 10
15.3514531514
 20
-12.6031501485
 30
0.0
 10
13.6086714092
 20
-14.528140226
 30
0.0
 10
11.0880564492
 20
-16.5996247376
 30
0.0
 10
8.210992064
 20
-18.1383009092
 30
0.0
 10
5.7662259895
 20
-19.0137725198
 30
0.0
 10
3.8752295282
 20
-19.4879645592
 30
0.0
 10
1.9471680075
 20
-19.774269874
 30
0.0
 10
0.648753218
 20
-19.8381026414
 30
0.0
 10
0.0
 20
-19.838105767
 30
0.0
 11
0.0
 21
19.838105767
 31
0.0
 11
1.9438983099
 21
19.7425115116
 31
0.0
 11
3.8690250814
 21
19.4566559134
 31
0.0
 11
5.756824222
 21
18.983308625
 31
0.0
 11
7.5890503668
 21
18.3270644052
 31
0.0
 11
11.0167682239
 21
16.4931007387
 31
0.0
 11
14.0206365303
 21
14.0255047139
 31
0.0
 11
15.3268624484
 21
12.5829288677
 31
0.0
 11
16.4854517731
 21
11.019275948
 31
0.0
 11
17.4852791089
 21
9.3496072382
 31
0.0
 11
18.3167434953
 21
7.5900019479
 31
0.0
 11
19.4443732505
 21
3.8693339967
 31
0.0
 11
19.8251328987
 21
0.0000223676
 31
0.0
 11
19.4443819938
 21
-3.8692901904
 31
0.0
 11
18.3167604848
 21
-7.5899601703
 31
0.0
 11
17.4853003262
 21
-9.3495663911
 31
0.0
 11
16.4854774829
 21
-11.0192371148
 31
0.0
 11
15.3268922705
 21
-12.5828929032
 31
0.0
 11
14.02066983
 21
-14.0254720828
 31
0.0
 11
11.016805223
 21
-16.4930754033
 31
0.0
 11
7.5890916259
 21
-18.3270475391
 31
0.0
 11
5.7568669183
 21
-18.9832959062
 31
0.0
 11
3.8690551955
 21
-19.4566493585
 31
0.0
 11
1.943910527
 21
-19.7425102429
 31
0.0
 11
0.0
 21
-19.838105767
 31
0.0
  0
SPLINE
  5
3DE
100
AcDbEntity
  8
RACCORDO
100
AcDbSpline
 62
253
  6
CONTINUOUS
 70
0
 71
3
 72
31
 73
27
 74
25
 42
0.0000001
 43
0.0000001
 44
0.0000000001
 12
-62.2403618873
 22
0.0002587733
 32
0.0
 13
62.2403618871
 23
0.0002999747
 33
0.0
 40
0.0
 40
0.0
 40
0.0
 40
0.0
 40
0.0312698579
 40
0.0625395002
 40
0.093809212
 40
0.1250783706
 40
0.1875378731
 40
0.2499965127
 40
0.2812637811
 40
0.3125314146
 40
0.3437994965
 40
0.3750679729
 40
0.4375321168
 40
0.499999639
 40
0.5624671619
 40
0.6249312987
 40
0.6561997595
 40
0.6874678322
 40
0.7187354634
 40
0.7500027339
 40
0.812461402
 40
0.8749209083
 40
0.9061900677
 40
0.9374600007
 40
0.9687299418
 40
1.0
 40
1.0
 40
1.0
 40
1.0
 10
0.0
 20
-19.838105767
 30
0.0
 10
-0.6487490905
 20
-19.8381030698
 30
0.0
 10
-1.9471535082
 20
-19.7742704156
 30
0.0
 10
-3.875200732
 20
-19.4879708277
 30
0.0
 10
-5.7661872246
 20
-19.0137834801
 30
0.0
 10
-8.2109508652
 20
-18.1383193565
 30
0.0
 10
-11.088018885
 20
-16.5996511648
 30
0.0
 10
-13.6086368143
 20
-14.528171486
 30
0.0
 10
-15.3514230767
 20
-12.6031864137
 30
0.0
 10
-16.5119816117
 20
-11.0369776053
 30
0.0
 10
-17.5134046045
 20
-9.3644936731
 30
0.0
 10
-18.6230268378
 20
-7.0167138335
 30
0.0
 10
-19.5699190939
 20
-3.8937717792
 30
0.0
 10
-19.9527410188
 20
-0.0000226821
 30
0.0
 10
-19.5699280374
 20
3.8937271436
 30
0.0
 10
-18.6230428586
 20
7.0166709157
 30
0.0
 10
-17.5134258059
 20
9.3644524421
 30
0.0
 10
-16.5120075056
 20
11.0369385045
 30
0.0
 10
-15.3514531432
 20
12.603150158
 30
0.0
 10
-13.6086714271
 20
14.5281402084
 30
0.0
 10
-11.0880565031
 20
16.5996246951
 30
0.0
 10
-8.2109921632
 20
18.1383008635
 30
0.0
 10
-5.7662261124
 20
19.0137724846
 30
0.0
 10
-3.8752296427
 20
19.4879645335
 30
0.0
 10
-1.9471680783
 20
19.7742698717
 30
0.0
 10
-0.6487532462
 20
19.8381026403
 30
0.0
 10
0.0
 20
19.838105767
 30
0.0
 11
0.0
 21
-19.838105767
 31
0.0
 11
-1.9438981924
 21
-19.7425115226
 31
0.0
 11
-3.8690248914
 21
-19.4566559537
 31
0.0
 11
-5.756823982
 21
-18.9833086953
 31
0.0
 11
-7.5890501149
 21
-18.327064508
 31
0.0
 11
-11.0167679616
 21
-16.4931009163
 31
0.0
 11
-14.0206362677
 21
-14.0255049704
 31
0.0
 11
-15.3268621955
 21
-12.5829291732
 31
0.0
 11
-16.4854515372
 21
-11.0192763051
 31
0.0
 11
-17.4852788989
 21
-9.3496076419
 31
0.0
 11
-18.3167433172
 21
-7.5900023816
 31
0.0
 11
-19.4443731441
 21
-3.8693345368
 31
0.0
 11
-19.825132898
 21
-0.0000225506
 31
0.0
 11
-19.4443819628
 21
3.8692903476
 31
0.0
 11
-18.3167604526
 21
7.5899602486
 31
0.0
 11
-17.4853002936
 21
9.3495664526
 31
0.0
 11
-16.485477459
 21
11.0192371512
 31
0.0
 11
-15.3268922632
 21
12.5828929132
 31
0.0
 11
-14.0206698435
 21
14.0254720706
 31
0.0
 11
-11.0168052805
 21
16.4930753641
 31
0.0
 11
-7.5890917339
 21
18.3270474957
 31
0.0
 11
-5.7568670523
 21
18.9832958666
 31
0.0
 11
-3.8690553195
 21
19.4566493321
 31
0.0
 11
-1.9439106112
 21
19.7425102351
 31
0.0
 11
0.0
 21
19.838105767
 31
0.0
  0
SPLINE
  5
3DF
100
AcDbEntity
  8
SUPERFICI
100
AcDbSpline
 62
253
  6
CONTINUOUS
 70
0
 71
3
 72
16
 73
12
 74
10
 42
0.0000001
 43
0.0000001
 44
0.0000000001
 12
-0.1577394502
 22
0.9435957528
 32
0.0
 13
-0.0003490238
 23
0.9566893734
 33
0.0
 40
0.0
 40
0.0
 40
0.0
 40
0.0
 40
0.009516323
 40
0.027818877
 40
0.0547607558
 40
0.0901211737
 40
0.1847844843
 40
0.30862854
 40
0.4574562602
 40
0.6261565798
 40
1.0
 40
1.0
 40
1.0
 40
1.0
 10
21.7587981167
 20
-21.9749071372
 30
0.0
 10
21.7582977502
 20
-21.9719139499
 30
0.0
 10
21.7578547024
 20
-21.9630276484
 30
0.0
 10
21.7570265244
 20
-21.9456023734
 30
0.0
 10
21.7563456215
 20
-21.919896643
 30
0.0
 10
21.7552440926
 20
-21.8698582114
 30
0.0
 10
21.7540997522
 20
-21.7889041041
 30
0.0
 10
21.7529144017
 20
-21.6717699283
 30
0.0
 10
21.7519374017
 20
-21.5310204539
 30
0.0
 10
21.75089938
 20
-21.3105471481
 30
0.0
 10
21.750578556
 20
-21.1375315734
 30
0.0
 10
21.7505350625
 20
-21.0183142309
 30
0.0
 11
21.7587981167
 21
-21.9749071372
 31
0.0
 11
21.757997246
 21
-21.9658382652
 31
0.0
 11
21.7572066111
 21
-21.9483462642
 31
0.0
 11
21.7564333943
 21
-21.9225828538
 31
0.0
 11
21.7556843966
 21
-21.8887622082
 31
0.0
 11
21.7542838117
 21
-21.7982096497
 31
0.0
 11
21.75305202
 21
-21.6797357531
 31
0.0
 11
21.7520310684
 21
-21.5373575057
 31
0.0
 11
21.7512551192
 21
-21.3759655573
 31
0.0
 11
21.7505350625
 21
-21.0183142309
 31
0.0
  0
SPLINE
  5
3E0
100
AcDbEntity
  8
SUPERFICI
100
AcDbSpline
 62
253
  6
CONTINUOUS
 70
0
 71
3
 72
16
 73
12
 74
10
 42
0.0000001
 43
0.0000001
 44
0.0000000001
 12
-0.1518345762
 22
0.4537598201
 32
0.0
 13
-0.0003498994
 23
0.4784888614
 33
0.0
 40
0.0
 40
0.0
 40
0.0
 40
0.0
 40
0.0096159036
 40
0.0279701207
 40
0.0549445032
 40
0.0903232102
 40
0.184988416
 40
0.3088051173
 40
0.4576013364
 40
0.6262585176
 40
1.0
 40
1.0
 40
1.0
 40
1.0
 10
22.2587219643
 20
-21.4755923698
 30
0.0
 10
22.2582352887
 20
-21.4741379329
 30
0.0
 10
22.2577707891
 20
-21.4696532467
 30
0.0
 10
22.2569565246
 20
-21.4609605371
 30
0.0
 10
22.2562676687
 20
-21.4480880954
 30
0.0
 10
22.2551703645
 20
-21.4230776648
 30
0.0
 10
22.2540232599
 20
-21.3825955807
 30
0.0
 10
22.252838607
 20
-21.3240310648
 30
0.0
 10
22.2518609028
 20
-21.25365531
 30
0.0
 10
22.2508231219
 20
-21.143417441
 30
0.0
 10
22.2505025008
 20
-21.0569062955
 30
0.0
 10
22.2504589101
 20
-20.9972959167
 30
0.0
 11
22.2587219643
 21
-21.4755923698
 31
0.0
 11
22.2579218146
 21
-21.4710613745
 31
0.0
 11
22.2571309793
 21
-21.4623147631
 31
0.0
 11
22.2563574523
 21
-21.4494310181
 31
0.0
 11
22.2556084523
 21
-21.4325192744
 31
0.0
 11
22.2542080262
 21
-21.3872446694
 31
0.0
 11
22.2529759669
 21
-21.3280125535
 31
0.0
 11
22.2519547207
 21
-21.2568225257
 31
0.0
 11
22.2511787816
 21
-21.176125652
 31
0.0
 11
22.2504589101
 21
-20.9972959167
 31
0.0
  0
SPLINE
  5
3E1
100
AcDbEntity
  8
SUPERFICI
100
AcDbSpline
 62
253
  6
CONTINUOUS
 70
0
 71
3
 72
9
 73
5
 74
3
 42
0.0000001
 43
0.0000001
 44
0.0000000001
 12
-0.0308408124
 22
42.0366192679
 32
0.0
 13
0.0308408099
 23
42.0366192679
 33
0.0
 40
0.0
 40
0.0
 40
0.0
 40
0.0
 40
0.2499439267
 40
1.0
 40
1.0
 40
1.0
 40
1.0
 10
21.7505350625
 20
-21.0183142309
 30
0.0
 10
21.7479655713
 20
-17.5160483361
 30
0.0
 10
21.740259949
 20
-3.5038401436
 30
0.0
 10
21.7428242836
 20
10.5083737031
 30
0.0
 10
21.7505350625
 20
21.0183142309
 30
0.0
 11
21.7505350625
 21
-21.0183142309
 31
0.0
 11
21.7447552087
 21
-10.5115153085
 31
0.0
 11
21.7505350625
 21
21.0183142309
 31
0.0
  0
SPLINE
  5
3E2
100
AcDbEntity
  8
SUPERFICI
100
AcDbSpline
 62
253
  6
CONTINUOUS
 70
0
 71
3
 72
9
 73
5
 74
3
 42
0.0000001
 43
0.0000001
 44
0.0000000001
 12
-0.0308408122
 22
41.9945826303
 32
0.0
 13
0.0308408097
 23
41.9945826303
 33
0.0
 40
0.0
 40
0.0
 40
0.0
 40
0.0
 40
0.2499439267
 40
1.0
 40
1.0
 40
1.0
 40
1.0
 10
22.2504589101
 20
-20.9972959167
 30
0.0
 10
22.2478894189
 20
-17.4985322889
 30
0.0
 10
22.2401837966
 20
-3.5003363071
 30
0.0
 10
22.2427481312
 20
10.4978653344
 30
0.0
 10
22.2504589101
 20
20.9972959167
 30
0.0
 11
22.2504589101
 21
-20.9972959167
 31
0.0
 11
22.2446790563
 21
-10.501003794
 31
0.0
 11
22.2504589101
 21
20.9972959167
 31
0.0
  0
SPLINE
  5
3E3
100
AcDbEntity
  8
SUPERFICI
100
AcDbSpline
 62
253
  6
CONTINUOUS
 70
0
 71
3
 72
18
 73
14
 74
12
 42
0.0000001
 43
0.0000001
 44
0.0000000001
 12
0.5013300392
 22
0.0003675204
 32
0.0
 13
0.1920595109
 23
0.4630821607
 33
0.0
 40
0.0
 40
0.0
 40
0.0
 40
0.0
 40
0.1920532514
 40
0.377666068
 40
0.548792686
 40
0.6992088619
 40
0.8234112144
 40
0.8742750087
 40
0.9169532022
 40
0.9509913617
 40
0.9761783753
 40
0.9924213396
 40
1.0
 40
1.0
 40
1.0
 40
1.0
 10
21.7505350625
 20
-21.0183142305
 30
0.0
 10
21.7826290839
 20
-21.0182907026
 30
0.0
 10
21.8457410932
 20
-21.0179861674
 30
0.0
 10
21.9374426647
 20
-21.0167937361
 30
0.0
 10
22.0221754601
 20
-21.0148942555
 30
0.0
 10
22.0966181238
 20
-21.0123829272
 30
0.0
 10
22.150961511
 20
-21.0097391414
 30
0.0
 10
22.187246889
 20
-21.0072743326
 30
0.0
 10
22.2085354296
 20
-21.0054801726
 30
0.0
 10
22.2253492328
 20
-21.00360541
 30
0.0
 10
22.2381033377
 20
-21.0017751185
 30
0.0
 10
22.245563895
 20
-20.9999005067
 30
0.0
 10
22.2499737255
 20
-20.9984657642
 30
0.0
 10
22.2504589101
 20
-20.9972959167
 30
0.0
 11
21.7505350625
 21
-21.0183142305
 31
0.0
 11
21.8468160213
 21
-21.0178475193
 31
0.0
 11
21.9398611029
 21
-21.0166103926
 31
0.0
 11
22.0256295171
 21
-21.0146446807
 31
0.0
 11
22.1009923478
 21
-21.0120302041
 31
0.0
 11
22.163178067
 21
-21.0088617219
 31
0.0
 11
22.188617093
 21
-21.0071058022
 31
0.0
 11
22.2099328249
 21
-21.0052557576
 31
0.0
 11
22.226887946
 21
-21.0033280316
 31
0.0
 11
22.239358088
 21
-21.0013438601
 31
0.0
 11
22.2472471198
 21
-20.9993256772
 31
0.0
 11
22.2504589101
 21
-20.9972959167
 31
0.0
  0
SPLINE
  5
3E4
100
AcDbEntity
  8
SUPERFICI
100
AcDbSpline
 62
253
  6
CONTINUOUS
 70
0
 71
3
 72
16
 73
12
 74
10
 42
0.0000001
 43
0.0000001
 44
0.0000000001
 12
0.0003490237
 22
0.9566893734
 32
0.0
 13
0.157739465
 23
0.9435957504
 33
0.0
 40
0.0
 40
0.0
 40
0.0
 40
0.0
 40
0.3738434202
 40
0.5425437398
 40
0.69137146
 40
0.8152155157
 40
0.9098788264
 40
0.9452392442
 40
0.9721811228
 40
0.9904836768
 40
1.0
 40
1.0
 40
1.0
 40
1.0
 10
21.7505350625
 20
21.0183142309
 30
0.0
 10
21.7505785559
 20
21.1375315734
 30
0.0
 10
21.75089938
 20
21.3105471481
 30
0.0
 10
21.7519374016
 20
21.5310204539
 30
0.0
 10
21.7529144017
 20
21.6717699283
 30
0.0
 10
21.7540997522
 20
21.7889041042
 30
0.0
 10
21.7552440926
 20
21.8698582114
 30
0.0
 10
21.7563456216
 20
21.919896643
 30
0.0
 10
21.7570265244
 20
21.9456023733
 30
0.0
 10
21.7578547023
 20
21.9630276482
 30
0.0
 10
21.7582977501
 20
21.9719139498
 30
0.0
 10
21.7587981167
 20
21.9749071372
 30
0.0
 11
21.7505350625
 21
21.0183142309
 31
0.0
 11
21.7512551192
 21
21.3759655573
 31
0.0
 11
21.7520310683
 21
21.5373575057
 31
0.0
 11
21.75305202
 21
21.6797357531
 31
0.0
 11
21.7542838117
 21
21.7982096497
 31
0.0
 11
21.7556843966
 21
21.8887622083
 31
0.0
 11
21.7564333943
 21
21.9225828538
 31
0.0
 11
21.7572066111
 21
21.9483462641
 31
0.0
 11
21.7579972459
 21
21.965838265
 31
0.0
 11
21.7587981167
 21
21.9749071372
 31
0.0
  0
SPLINE
  5
3E5
100
AcDbEntity
  8
SUPERFICI
100
AcDbSpline
 62
253
  6
CONTINUOUS
 70
0
 71
3
 72
16
 73
12
 74
10
 42
0.0000001
 43
0.0000001
 44
0.0000000001
 12
0.000349899
 22
0.4784888614
 32
0.0
 13
0.1518344663
 23
0.4537598569
 33
0.0
 40
0.0
 40
0.0
 40
0.0
 40
0.0
 40
0.3737414825
 40
0.5423986639
 40
0.6911948827
 40
0.8150115835
 40
0.9096767904
 40
0.9450554975
 40
0.9720298788
 40
0.9903840948
 40
1.0
 40
1.0
 40
1.0
 40
1.0
 10
22.2504589101
 20
20.9972959167
 30
0.0
 10
22.2505025007
 20
21.0569062955
 30
0.0
 10
22.2508231219
 20
21.143417441
 30
0.0
 10
22.2518609027
 20
21.25365531
 30
0.0
 10
22.252838607
 20
21.3240310648
 30
0.0
 10
22.2540232599
 20
21.3825955807
 30
0.0
 10
22.2551703645
 20
21.4230776649
 30
0.0
 10
22.2562676686
 20
21.4480880956
 30
0.0
 10
22.2569565247
 20
21.4609605368
 30
0.0
 10
22.257770789
 20
21.4696532464
 30
0.0
 10
22.258235289
 20
21.4741379326
 30
0.0
 10
22.2587219643
 20
21.4755923698
 30
0.0
 11
22.2504589101
 21
20.9972959167
 31
0.0
 11
22.2511787816
 21
21.176125652
 31
0.0
 11
22.2519547207
 21
21.2568225259
 31
0.0
 11
22.2529759669
 21
21.3280125535
 31
0.0
 11
22.2542080262
 21
21.3872446691
 31
0.0
 11
22.2556084523
 21
21.4325192746
 31
0.0
 11
22.2563574523
 21
21.4494310184
 31
0.0
 11
22.2571309793
 21
21.4623147629
 31
0.0
 11
22.2579218146
 21
21.4710613737
 31
0.0
 11
22.2587219643
 21
21.4755923698
 31
0.0
  0
SPLINE
  5
3E6
100
AcDbEntity
  8
SUPERFICI
100
AcDbSpline
 62
253
  6
CONTINUOUS
 70
0
 71
3
 72
18
 73
14
 74
12
 42
0.0000001
 43
0.0000001
 44
0.0000000001
 12
0.5013297037
 22
-0.0003676029
 32
0.0
 13
0.1922940907
 23
-0.4629844377
 33
0.0
 40
0.0
 40
0.0
 40
0.0
 40
0.0
 40
0.1920485531
 40
0.3776574477
 40
0.548781683
 40
0.6991972535
 40
0.8234008048
 40
0.8742657808
 40
0.9169454802
 40
0.9509854124
 40
0.9761743999
 40
0.9924194537
 40
1.0
 40
1.0
 40
1.0
 40
1.0
 10
21.7505350626
 20
21.0183132877
 30
0.0
 10
21.7826282773
 20
21.0182897552
 30
0.0
 10
21.8457388037
 20
21.01798523
 30
0.0
 10
21.9374384761
 20
21.0167928632
 30
0.0
 10
22.0221700605
 20
21.0148934921
 30
0.0
 10
22.0966123841
 20
21.0123822965
 30
0.0
 10
22.1509560264
 20
21.0097386488
 30
0.0
 10
22.1872420566
 20
21.0072739529
 30
0.0
 10
22.2085312987
 20
21.0054798831
 30
0.0
 10
22.2253460793
 20
21.0036051378
 30
0.0
 10
22.2381009424
 20
21.0017750147
 30
0.0
 10
22.2455629217
 20
20.9999001976
 30
0.0
 10
22.2499730119
 20
20.9984658083
 30
0.0
 10
22.25045891
 20
20.9972959167
 30
0.0
 11
21.7505350626
 21
21.0183132877
 31
0.0
 11
21.8468136016
 21
21.0178465926
 31
0.0
 11
21.9398566554
 21
21.0166095366
 31
0.0
 11
22.02562382
 21
21.0146439406
 31
0.0
 11
22.1009863016
 21
21.0120296088
 31
0.0
 11
22.1631725888
 21
21.0088612842
 31
0.0
 11
22.188612197
 21
21.007105444
 31
0.0
 11
22.2099286791
 21
21.0052554774
 31
0.0
 11
22.2268846917
 21
21.0033278268
 31
0.0
 11
22.2393558387
 21
21.0013437274
 31
0.0
 11
22.2472459635
 21
20.9993256128
 31
0.0
 11
22.25045891
 21
20.9972959167
 31
0.0
  0
SPLINE
  5
3E7
100
AcDbEntity
  8
SUPERFICI
100
AcDbSpline
 62
253
  6
CONTINUOUS
 70
0
 71
3
 72
16
 73
12
 74
10
 42
0.0000001
 43
0.0000001
 44
0.0000000001
 12
0.1517295808
 22
0.4537949277
 32
0.0
 13
0.0003487351
 23
0.4784888509
 33
0.0
 40
0.0
 40
0.0
 40
0.0
 40
0.0
 40
0.0096175074
 40
0.0279708833
 40
0.0549448201
 40
0.0903243343
 40
0.1849904142
 40
0.3088036845
 40
0.4575968307
 40
0.6262531789
 40
1.0
 40
1.0
 40
1.0
 40
1.0
 10
-22.2587219643
 20
-21.4755923698
 30
0.0
 10
-22.2582355442
 20
-21.4741375778
 30
0.0
 10
-22.2577706549
 20
-21.4696529356
 30
0.0
 10
-22.2569566039
 20
-21.4609600588
 30
0.0
 10
-22.2562676414
 20
-21.4480877495
 30
0.0
 10
-22.255170443
 20
-21.4230770904
 30
0.0
 10
-22.2540233018
 20
-21.3825953076
 30
0.0
 10
-22.252838614
 20
-21.3240316829
 30
0.0
 10
-22.2518608611
 20
-21.2536571037
 30
0.0
 10
-22.2508231488
 20
-21.143419007
 30
0.0
 10
-22.2505023563
 20
-21.0569071457
 30
0.0
 10
-22.2504589101
 20
-20.9972959167
 30
0.0
 11
-22.2587219643
 21
-21.4755923698
 31
0.0
 11
-22.257921817
 21
-21.4710605949
 31
0.0
 11
-22.2571309876
 21
-21.4623143874
 31
0.0
 11
-22.256357471
 21
-21.4494308557
 31
0.0
 11
-22.2556084801
 21
-21.4325187253
 31
0.0
 11
-22.2542080566
 21
-21.3872437029
 31
0.0
 11
-22.2529759768
 21
-21.3280132309
 31
0.0
 11
-22.2519547029
 21
-21.2568246756
 31
0.0
 11
-22.2511787742
 21
-21.1761282023
 31
0.0
 11
-22.2504589101
 21
-20.9972959167
 31
0.0
  0
SPLINE
  5
3E8
100
AcDbEntity
  8
SUPERFICI
100
AcDbSpline
 62
253
  6
CONTINUOUS
 70
0
 71
3
 72
16
 73
12
 74
10
 42
0.0000001
 43
0.0000001
 44
0.0000000001
 12
0.1577724193
 22
0.943590238
 32
0.0
 13
0.0003449146
 23
0.9566893721
 33
0.0
 40
0.0
 40
0.0
 40
0.0
 40
0.0
 40
0.0095172377
 40
0.0278193524
 40
0.054760625
 40
0.0901209217
 40
0.1847846043
 40
0.308628729
 40
0.4574561745
 40
0.6261566443
 40
1.0
 40
1.0
 40
1.0
 40
1.0
 10
-21.7587981167
 20
-21.9749071372
 30
0.0
 10
-21.7582975975
 20
-21.9719136797
 30
0.0
 10
-21.7578544819
 20
-21.9630272145
 30
0.0
 10
-21.7570265526
 20
-21.9456019787
 30
0.0
 10
-21.7563458948
 20
-21.9198966107
 30
0.0
 10
-21.7552445944
 20
-21.8698582899
 30
0.0
 10
-21.7541002376
 20
-21.7889040807
 30
0.0
 10
-21.7529147032
 20
-21.6717698543
 30
0.0
 10
-21.7519376942
 20
-21.5310203978
 30
0.0
 10
-21.7508995598
 20
-21.3105471542
 30
0.0
 10
-21.7505780439
 20
-21.1375315526
 30
0.0
 10
-21.7505350625
 20
-21.0183142309
 30
0.0
 11
-21.7587981167
 21
-21.9749071372
 31
0.0
 11
-21.7579970451
 21
-21.9658374045
 31
0.0
 11
-21.7572065849
 21
-21.9483458164
 31
0.0
 11
-21.7564336293
 21
-21.9225829783
 31
0.0
 11
-21.7556848018
 21
-21.8887624451
 31
0.0
 11
-21.7542842797
 21
-21.7982095299
 31
0.0
 11
-21.7530523599
 21
-21.6797355691
 31
0.0
 11
-21.7520313521
 21
-21.5373575853
 31
0.0
 11
-21.751255274
 21
-21.3759654942
 31
0.0
 11
-21.7505350625
 21
-21.0183142309
 31
0.0
  0
SPLINE
  5
3E9
100
AcDbEntity
  8
SUPERFICI
100
AcDbSpline
 62
253
  6
CONTINUOUS
 70
0
 71
3
 72
9
 73
5
 74
3
 42
0.0000001
 43
0.0000001
 44
0.0000000001
 12
0.0308407987
 22
41.9945826303
 32
0.0
 13
-0.0308408108
 23
41.9945826303
 33
0.0
 40
0.0
 40
0.0
 40
0.0
 40
0.0
 40
0.2499439267
 40
1.0
 40
1.0
 40
1.0
 40
1.0
 10
-22.2504589101
 20
-20.9972959167
 30
0.0
 10
-22.24788942
 20
-17.4985322889
 30
0.0
 10
-22.2401837953
 20
-3.5003363072
 30
0.0
 10
-22.242748131
 20
10.4978653344
 30
0.0
 10
-22.2504589101
 20
20.9972959167
 30
0.0
 11
-22.2504589101
 21
-20.9972959167
 31
0.0
 11
-22.2446790564
 21
-10.5010037942
 31
0.0
 11
-22.2504589101
 21
20.9972959167
 31
0.0
  0
SPLINE
  5
3EA
100
AcDbEntity
  8
SUPERFICI
100
AcDbSpline
 62
253
  6
CONTINUOUS
 70
0
 71
3
 72
9
 73
5
 74
3
 42
0.0000001
 43
0.0000001
 44
0.0000000001
 12
0.0308407988
 22
42.036619268
 32
0.0
 13
-0.030840811
 23
42.0366192679
 33
0.0
 40
0.0
 40
0.0
 40
0.0
 40
0.0
 40
0.2499439267
 40
1.0
 40
1.0
 40
1.0
 40
1.0
 10
-21.7505350625
 20
-21.0183142309
 30
0.0
 10
-21.7479655724
 20
-17.516048336
 30
0.0
 10
-21.7402599477
 20
-3.5038401435
 30
0.0
 10
-21.7428242833
 20
10.5083737032
 30
0.0
 10
-21.7505350625
 20
21.0183142309
 30
0.0
 11
-21.7505350625
 21
-21.0183142309
 31
0.0
 11
-21.7447552088
 21
-10.5115153081
 31
0.0
 11
-21.7505350625
 21
21.0183142309
 31
0.0
  0
SPLINE
  5
3EB
100
AcDbEntity
  8
0
100
AcDbSpline
 62
7
  6
CONTINUOUS
 70
0
 71
3
 72
9
 73
5
 74
3
 42
0.0000001
 43
0.0000001
 44
0.0000000001
 12
-0.0679124004
 22
-0.2821216996
 32
0.0
 13
-0.1205589635
 23
-0.2639512907
 33
0.0
 40
0.0
 40
0.0
 40
0.0
 40
0.0
 40
0.2547458888
 40
1.0
 40
1.0
 40
1.0
 40
1.0
 10
-0.0924134089
 20
-6.9037461163
 30
0.0
 10
-0.0981802105
 20
-6.927702564
 30
0.0
 10
-0.123047124
 20
-7.021188381
 30
0.0
 10
-0.1566535626
 20
-7.1123814525
 30
0.0
 10
-0.1866025836
 20
-7.1779517141
 30
0.0
 11
-0.0924134089
 21
-6.9037461163
 31
0.0
 11
-0.111416854
 21
-6.9751840303
 31
0.0
 11
-0.1866025836
 21
-7.1779517141
 31
0.0
  0
LINE
  5
3EC
100
AcDbEntity
  8
0
100
AcDbLine
 62
7
  6
CONTINUOUS
 10
0.3815762894
 20
-11.5061617698
 11
0.3841819137
 21
-11.5029537196
  0
SPLINE
  5
3ED
100
AcDbEntity
  8
0
100
AcDbSpline
 62
7
  6
CONTINUOUS
 70
0
 71
3
 72
9
 73
5
 74
3
 42
0.0000001
 43
0.0000001
 44
0.0000000001
 12
-0.3059334339
 22
0.4476126712
 32
0.0
 13
-0.1268876267
 23
0.5271165901
 33
0.0
 40
0.0
 40
0.0
 40
0.0
 40
0.0
 40
0.483499163
 40
1.0
 40
1.0
 40
1.0
 40
1.0
 10
0.31086046
 20
-7.3974573531
 30
0.0
 10
0.2615542736
 20
-7.3253172358
 30
0.0
 10
0.1722209711
 20
-7.1669669026
 30
0.0
 10
0.114259264
 20
-6.9944981696
 30
0.0
 10
0.0924134089
 20
-6.9037461163
 30
0.0
 11
0.31086046
 21
-7.3974573531
 31
0.0
 11
0.1825029027
 21
-7.16889225
 31
0.0
 11
0.0924134089
 21
-6.9037461163
 31
0.0
  0
SPLINE
  5
3EE
100
AcDbEntity
  8
0
100
AcDbSpline
 62
7
  6
CONTINUOUS
 70
0
 71
3
 72
15
 73
11
 74
9
 42
0.0000001
 43
0.0000001
 44
0.0000000001
 12
0.0002680499
 22
-2.497089923
 32
0.0
 13
1.8003795192
 23
-1.7303443999
 33
0.0
 40
0.0
 40
0.0
 40
0.0
 40
0.0
 40
0.1222528693
 40
0.2412365014
 40
0.3589359474
 40
0.477445813
 40
0.5988144348
 40
0.7249811762
 40
0.8580834826
 40
1.0
 40
1.0
 40
1.0
 40
1.0
 10
-1.8066895184
 20
-9.5
 30
0.0
 10
-1.8066785952
 20
-9.6017588027
 30
0.0
 10
-1.7970182598
 20
-9.8027036727
 30
0.0
 10
-1.7538189111
 20
-10.0987445209
 30
0.0
 10
-1.6844819953
 20
-10.3865895608
 30
0.0
 10
-1.5875646111
 20
-10.6684645454
 30
0.0
 10
-1.461653617
 20
-10.9464411754
 30
0.0
 10
-1.3019997713
 20
-11.2207628525
 30
0.0
 10
-1.1042786801
 20
-11.4906584223
 30
0.0
 10
-0.948141748
 20
-11.6589266832
 30
0.0
 10
-0.8629738842
 20
-11.7407815002
 30
0.0
 11
-1.8066895184
 21
-9.5
 31
0.0
 11
-1.7919118232
 21
-9.8049185237
 31
0.0
 11
-1.7491869178
 21
-10.0989433806
 31
0.0
 11
-1.680192972
 21
-10.3846366292
 31
0.0
 11
-1.5840690082
 21
-10.6645198653
 31
0.0
 11
-1.4588135075
 21
-10.9404935834
 31
0.0
 11
-1.3004020995
 21
-11.2128208488
 31
0.0
 11
-1.1037984247
 21
-11.4808054907
 31
0.0
 11
-0.8629738842
 21
-11.7407815002
 31
0.0
  0
SPLINE
  5
3EF
100
AcDbEntity
  8
0
100
AcDbSpline
 62
253
  6
CONTINUOUS
 70
0
 71
3
 72
13
 73
9
 74
7
 42
0.0000001
 43
0.0000001
 44
0.0000000001
 12
0.0001347841
 22
-2.2017767684
 32
0.0
 13
1.5860452088
 23
-1.5271809165
 33
0.0
 40
0.0
 40
0.0
 40
0.0
 40
0.0
 40
0.2412106427
 40
0.4773524029
 40
0.5987612974
 40
0.7249726116
 40
0.8580876887
 40
1.0
 40
1.0
 40
1.0
 40
1.0
 10
-1.4423074121
 20
-9.5
 30
0.0
 10
-1.442296575
 20
-9.6770306631
 30
0.0
 10
-1.4083757174
 20
-10.0282490334
 30
0.0
 10
-1.2835379136
 20
-10.4523629281
 30
0.0
 10
-1.13587914
 20
-10.7757869772
 30
0.0
 10
-0.9945093224
 20
-11.0174068896
 30
0.0
 10
-0.8198904572
 20
-11.2552028772
 30
0.0
 10
-0.6822800349
 20
-11.4036203764
 30
0.0
 10
-0.6072535878
 20
-11.475862301
 30
0.0
 11
-1.4423074121
 21
-9.5
 31
0.0
 11
-1.3912643583
 21
-10.0286334352
 31
0.0
 11
-1.2445299762
 21
-10.5274297126
 31
0.0
 11
-1.1334116009
 21
-10.7705555393
 31
0.0
 11
-0.9931481266
 21
-11.0104482902
 31
0.0
 11
-0.819521342
 21
-11.2465738989
 31
0.0
 11
-0.6072535878
 21
-11.475862301
 31
0.0
  0
SPLINE
  5
3F0
100
AcDbEntity
  8
0
100
AcDbSpline
 62
253
  6
CONTINUOUS
 70
0
 71
3
 72
13
 73
9
 74
7
 42
0.0000001
 43
0.0000001
 44
0.0000000001
 12
-1.5829685181
 22
-1.5272431143
 32
0.0
 13
0.0001347112
 23
-2.1996047012
 33
0.0
 40
0.0
 40
0.0
 40
0.0
 40
0.0
 40
0.1416113922
 40
0.2744875109
 40
0.4005295227
 40
0.5218507896
 40
0.7581346353
 40
1.0
 40
1.0
 40
1.0
 40
1.0
 10
-0.6092778112
 20
-7.525433911
 30
0.0
 10
-0.6839999365
 20
-7.5975255856
 30
0.0
 10
-0.8210803914
 20
-7.7456173129
 30
0.0
 10
-0.9950758856
 20
-7.9828603669
 30
0.0
 10
-1.1360467033
 20
-8.2239689688
 30
0.0
 10
-1.2834816319
 20
-8.547015157
 30
0.0
 10
-1.4083685962
 20
-8.9711986552
 30
0.0
 10
-1.4423182728
 20
-9.3226639356
 30
0.0
 10
-1.4423074121
 20
-9.5
 30
0.0
 11
-0.6092778112
 21
-7.525433911
 31
0.0
 11
-0.8206946227
 21
-7.7541878874
 31
0.0
 11
-0.9937028561
 21
-7.9897569628
 31
0.0
 11
-1.1335643862
 21
-8.2291357691
 31
0.0
 11
-1.2444641057
 21
-8.4718596599
 31
0.0
 11
-1.39117117
 21
-8.9704550977
 31
0.0
 11
-1.4423074121
 21
-9.5
 31
0.0
  0
SPLINE
  5
3F1
100
AcDbEntity
  8
0
100
AcDbSpline
 62
7
  6
CONTINUOUS
 70
0
 71
3
 72
15
 73
11
 74
9
 42
0.0000001
 43
0.0000001
 44
0.0000000001
 12
-1.7968305061
 22
-1.7307065141
 32
0.0
 13
0.0002679256
 23
-2.4947835244
 33
0.0
 40
0.0
 40
0.0
 40
0.0
 40
0.0
 40
0.1416175453
 40
0.2744931083
 40
0.4004968997
 40
0.5217750968
 40
0.6403015978
 40
0.7581206209
 40
0.8773472493
 40
1.0
 40
1.0
 40
1.0
 40
1.0
 10
-0.8655479852
 20
-7.2604005083
 30
0.0
 10
-0.9503688937
 20
-7.3420999777
 30
0.0
 10
-1.1059059703
 20
-7.5100345504
 30
0.0
 10
-1.3028877943
 20
-7.7793740768
 30
0.0
 10
-1.4620572463
 20
-8.053172529
 30
0.0
 10
-1.5876707684
 20
-8.3307564609
 30
0.0
 10
-1.6844671542
 20
-8.6124200951
 30
0.0
 10
-1.7538085805
 20
-8.9003076033
 30
0.0
 10
-1.7970355359
 20
-9.1967066655
 30
0.0
 10
-1.8067004724
 20
-9.3980026461
 30
0.0
 10
-1.8066895184
 20
-9.5
 30
0.0
 11
-0.8655479852
 21
-7.2604005083
 31
0.0
 11
-1.1053950083
 21
-7.5198189231
 31
0.0
 11
-1.3012786915
 21
-7.7872493371
 31
0.0
 11
-1.4592006465
 21
-8.0590543261
 31
0.0
 11
-1.5841553522
 21
-8.3346094016
 31
0.0
 11
-1.6801618523
 21
-8.6142878556
 31
0.0
 11
-1.7491515814
 21
-8.9000097516
 31
0.0
 11
-1.7919094816
 21
-9.1943650979
 31
0.0
 11
-1.8066895184
 21
-9.5
 31
0.0
  0
SPLINE
  5
3F2
100
AcDbEntity
  8
0
100
AcDbSpline
 62
253
  6
CONTINUOUS
 70
0
 71
3
 72
13
 73
9
 74
7
 42
0.0000001
 43
0.0000001
 44
0.0000000001
 12
0.0001347111
 22
2.1996044536
 32
0.0
 13
-1.58296834
 23
1.5272429424
 33
0.0
 40
0.0
 40
0.0
 40
0.0
 40
0.0
 40
0.241865392
 40
0.4781492642
 40
0.5994720777
 40
0.7255124793
 40
0.8583855116
 40
1.0
 40
1.0
 40
1.0
 40
1.0
 10
1.4423074121
 20
-9.5
 30
0.0
 10
1.4423182728
 20
-9.3226639356
 30
0.0
 10
1.4083679617
 20
-8.9711989617
 30
0.0
 10
1.2834830277
 20
-8.5470132439
 30
0.0
 10
1.1360431133
 20
-8.223969524
 30
0.0
 10
0.9950773297
 20
-7.9828607811
 30
0.0
 10
0.8210810133
 20
-7.7456197023
 30
0.0
 10
0.6840015617
 20
-7.5975271537
 30
0.0
 10
0.6092778112
 20
-7.525433911
 30
0.0
 11
1.4423074121
 21
-9.5
 31
0.0
 11
1.39117117
 21
-8.9704550977
 31
0.0
 11
1.2444641057
 21
-8.4718596599
 31
0.0
 11
1.1335610015
 21
-8.2291336085
 31
0.0
 11
0.9937028561
 21
-7.9897569628
 31
0.0
 11
0.8206986378
 21
-7.7541934023
 31
0.0
 11
0.6092778112
 21
-7.525433911
 31
0.0
  0
SPLINE
  5
3F3
100
AcDbEntity
  8
0
100
AcDbSpline
 62
7
  6
CONTINUOUS
 70
0
 71
3
 72
15
 73
11
 74
9
 42
0.0000001
 43
0.0000001
 44
0.0000000001
 12
0.0002679256
 22
2.4947835246
 32
0.0
 13
-1.7968305062
 23
1.7307065142
 33
0.0
 40
0.0
 40
0.0
 40
0.0
 40
0.0
 40
0.1226444857
 40
0.2418796184
 40
0.3597030174
 40
0.4782252482
 40
0.5995083138
 40
0.7255070172
 40
0.8583730811
 40
1.0
 40
1.0
 40
1.0
 40
1.0
 10
1.8066895184
 20
-9.5
 30
0.0
 10
1.8067004716
 20
-9.3980095192
 30
0.0
 10
1.7970480003
 20
-9.1967124992
 30
0.0
 10
1.7538056185
 20
-8.9003114976
 30
0.0
 10
1.6844710112
 20
-8.6124154464
 30
0.0
 10
1.5876687465
 20
-8.3307487332
 30
0.0
 10
1.4620471082
 20
-8.0531732017
 30
0.0
 10
1.3028925064
 20
-7.779375456
 30
0.0
 10
1.1059064511
 20
-7.5100442702
 30
0.0
 10
0.950374508
 20
-7.3421053854
 30
0.0
 10
0.8655479852
 20
-7.2604005083
 30
0.0
 11
1.8066895184
 21
-9.5
 31
0.0
 11
1.7919176909
 21
-9.1943853444
 31
0.0
 11
1.7491515814
 21
-8.9000097516
 31
0.0
 11
1.6801615303
 21
-8.6142767028
 31
0.0
 11
1.5841553522
 21
-8.3346094016
 31
0.0
 11
1.4591901079
 21
-8.0590457689
 31
0.0
 11
1.3012786915
 21
-7.7872493371
 31
0.0
 11
1.105407883
 21
-7.5198388681
 31
0.0
 11
0.8655479852
 21
-7.2604005083
 31
0.0
  0
SPLINE
  5
3F4
100
AcDbEntity
  8
0
100
AcDbSpline
 62
253
  6
CONTINUOUS
 70
0
 71
3
 72
13
 73
9
 74
7
 42
0.0000001
 43
0.0000001
 44
0.0000000001
 12
1.5860453898
 22
1.5271810908
 32
0.0
 13
0.0001347841
 23
2.2017770197
 33
0.0
 40
0.0
 40
0.0
 40
0.0
 40
0.0
 40
0.1419092495
 40
0.275027382
 40
0.4012402938
 40
0.5226476515
 40
0.7587893849
 40
1.0
 40
1.0
 40
1.0
 40
1.0
 10
0.6072535878
 20
-11.475862301
 30
0.0
 10
0.6822784247
 20
-11.4036219268
 30
0.0
 10
0.8198899496
 20
-11.2552053354
 30
0.0
 10
0.9945078789
 20
-11.0174072835
 30
0.0
 10
1.135882653
 20
-10.775787503
 30
0.0
 10
1.2835365602
 20
-10.4523610409
 30
0.0
 10
1.4083763339
 20
-10.0282493317
 30
0.0
 10
1.442296575
 20
-9.6770306631
 30
0.0
 10
1.4423074121
 20
-9.5
 30
0.0
 11
0.6072535878
 21
-11.475862301
 31
0.0
 11
0.8195174232
 21
-11.2465794091
 31
0.0
 11
0.9931481266
 21
-11.0104482902
 31
0.0
 11
1.1334149287
 21
-10.7705533736
 31
0.0
 11
1.2445299762
 21
-10.5274297126
 31
0.0
 11
1.3912643583
 21
-10.0286334352
 31
0.0
 11
1.4423074121
 21
-9.5
 31
0.0
  0
SPLINE
  5
3F5
100
AcDbEntity
  8
0
100
AcDbSpline
 62
7
  6
CONTINUOUS
 70
0
 71
3
 72
15
 73
11
 74
9
 42
0.0000001
 43
0.0000001
 44
0.0000000001
 12
1.8003795332
 22
1.7303444133
 32
0.0
 13
0.0002680499
 23
2.4970899424
 33
0.0
 40
0.0
 40
0.0
 40
0.0
 40
0.0
 40
0.1419072314
 40
0.2750189543
 40
0.4011907515
 40
0.5225545307
 40
0.6410686152
 40
0.7587637338
 40
0.8777389366
 40
1.0
 40
1.0
 40
1.0
 40
1.0
 10
0.8629738842
 20
-11.7407815002
 30
0.0
 10
0.9481361759
 20
-11.6589320385
 30
0.0
 10
1.1042784369
 20
-11.4906682655
 30
0.0
 10
1.3019950718
 20
-11.22076418
 30
0.0
 10
1.4616635783
 20
-10.9464417881
 30
0.0
 10
1.5875666661
 20
-10.6684568944
 30
0.0
 10
1.6844780945
 20
-10.3865849345
 30
0.0
 10
1.7538218289
 20
-10.0987483938
 30
0.0
 10
1.7970060589
 20
-9.802709475
 30
0.0
 10
1.8066785944
 20
-9.6017656239
 30
0.0
 10
1.8066895184
 20
-9.5
 30
0.0
 11
0.8629738842
 21
-11.7407815002
 31
0.0
 11
1.1037857729
 21
-11.480825375
 31
0.0
 11
1.3004020995
 21
-11.2128208488
 31
0.0
 11
1.4588239185
 21
-10.9404850313
 31
0.0
 11
1.5840690082
 21
-10.6645198653
 31
0.0
 11
1.6801932417
 21
-10.3846255804
 31
0.0
 11
1.7491869178
 21
-10.0989433806
 31
0.0
 11
1.7919037698
 21
-9.8049386211
 31
0.0
 11
1.8066895184
 21
-9.5
 31
0.0
  0
SPLINE
  5
3F6
100
AcDbEntity
  8
0
100
AcDbSpline
 62
253
  6
CONTINUOUS
 70
0
 71
3
 72
9
 73
5
 74
3
 42
0.0000001
 43
0.0000001
 44
0.0000000001
 12
-0.2011376755
 22
0.6433468373
 32
0.0
 13
-0.3880593459
 23
0.5511455902
 33
0.0
 40
0.0
 40
0.0
 40
0.0
 40
0.0
 40
0.2524190358
 40
1.0
 40
1.0
 40
1.0
 40
1.0
 10
-0.310196968
 20
-12.0792844776
 30
0.0
 10
-0.3271206274
 20
-12.0251534815
 30
0.0
 10
-0.402473418
 20
-11.8133955772
 30
0.0
 10
-0.510522796
 20
-11.6132321066
 30
0.0
 10
-0.6072247227
 20
-11.4758901227
 30
0.0
 11
-0.310196968
 21
-12.0792844776
 31
0.0
 11
-0.36724486
 21
-11.9189887731
 31
0.0
 11
-0.6072247227
 21
-11.4758901227
 31
0.0
  0
SPLINE
  5
3F7
100
AcDbEntity
  8
0
100
AcDbSpline
 62
253
  6
CONTINUOUS
 70
0
 71
3
 72
9
 73
5
 74
3
 42
0.0000001
 43
0.0000001
 44
0.0000000001
 12
-0.1985315517
 22
0.6288047937
 32
0.0
 13
-0.3748946248
 23
0.5424613036
 33
0.0
 40
0.0
 40
0.0
 40
0.0
 40
0.0
 40
0.2524554465
 40
1.0
 40
1.0
 40
1.0
 40
1.0
 10
-0.3281614377
 20
-12.0772942818
 30
0.0
 10
-0.3448682282
 20
-12.0243792168
 30
0.0
 10
-0.4188761883
 20
-11.8173358577
 30
0.0
 10
-0.5236361346
 20
-11.6212457425
 30
0.0
 10
-0.6170529463
 20
-11.4860744115
 30
0.0
 11
-0.3281614377
 21
-12.0772942818
 31
0.0
 11
-0.3841955929
 21
-11.9205388608
 31
0.0
 11
-0.6170529463
 21
-11.4860744115
 31
0.0
  0
SPLINE
  5
3F8
100
AcDbEntity
  8
0
100
AcDbSpline
 62
253
  6
CONTINUOUS
 70
0
 71
3
 72
9
 73
5
 74
3
 42
0.0000001
 43
0.0000001
 44
0.0000000001
 12
-0.3726098963
 22
-0.5620807574
 32
0.0
 13
-0.2040687661
 23
-0.6427510026
 33
0.0
 40
0.0
 40
0.0
 40
0.0
 40
0.0
 40
0.4752517223
 40
1.0
 40
1.0
 40
1.0
 40
1.0
 10
0.6072247219
 20
-11.4758901235
 30
0.0
 10
0.5481968902
 20
-11.5649334061
 30
0.0
 10
0.4322218874
 20
-11.7580913225
 30
0.0
 10
0.3456832078
 20
-11.9669060032
 30
0.0
 10
0.3099882966
 20
-12.0793334971
 30
0.0
 11
0.6072247219
 21
-11.4758901235
 31
0.0
 11
0.4446108622
 21
-11.7520669735
 31
0.0
 11
0.3099882966
 21
-12.0793334971
 31
0.0
  0
SPLINE
  5
3F9
100
AcDbEntity
  8
0
100
AcDbSpline
 62
253
  6
CONTINUOUS
 70
0
 71
3
 72
9
 73
5
 74
3
 42
0.0000001
 43
0.0000001
 44
0.0000000001
 12
-0.3594537513
 22
-0.5531267081
 32
0.0
 13
-0.2015122934
 23
-0.628131316
 33
0.0
 40
0.0
 40
0.0
 40
0.0
 40
0.0
 40
0.475805157
 40
1.0
 40
1.0
 40
1.0
 40
1.0
 10
0.6170529454
 20
-11.4860744123
 30
0.0
 10
0.5600429625
 20
-11.573801259
 30
0.0
 10
0.4478177788
 20
-11.7634159797
 30
0.0
 10
0.363206736
 20
-11.9675942338
 30
0.0
 10
0.3279961676
 20
-12.0773486326
 30
0.0
 11
0.6170529454
 21
-11.4860744123
 31
0.0
 11
0.4594999007
 21
-11.7575376292
 31
0.0
 11
0.3279961676
 21
-12.0773486326
 31
0.0
  0
SPLINE
  5
3FA
100
AcDbEntity
  8
0
100
AcDbSpline
 62
253
  6
CONTINUOUS
 70
0
 71
3
 72
10
 73
6
 74
4
 42
0.0000001
 43
0.0000001
 44
0.0000000001
 12
-0.3680173588
 22
0.5534591434
 32
0.0
 13
-0.207637217
 23
0.6313799061
 33
0.0
 40
0.0
 40
0.0
 40
0.0
 40
0.0
 40
0.4765353927
 40
0.7339084652
 40
1.0
 40
1.0
 40
1.0
 40
1.0
 10
0.6191015548
 20
-7.5152204934
 30
0.0
 10
0.5606437893
 20
-7.4273062033
 30
0.0
 10
0.4767904315
 20
-7.2874744098
 30
0.0
 10
0.3822726207
 20
-7.0869023807
 30
0.0
 10
0.3415611491
 20
-6.978133586
 30
0.0
 10
0.3231443138
 20
-6.9221319699
 30
0.0
 11
0.6191015548
 21
-7.5152204934
 31
0.0
 11
0.4578572018
 21
-7.2426102342
 31
0.0
 11
0.3852155988
 21
-7.0877381383
 31
0.0
 11
0.3231443138
 21
-6.9221319699
 31
0.0
  0
SPLINE
  5
3FB
100
AcDbEntity
  8
0
100
AcDbSpline
 62
253
  6
CONTINUOUS
 70
0
 71
3
 72
10
 73
6
 74
4
 42
0.0000001
 43
0.0000001
 44
0.0000000001
 12
-0.3811234555
 22
0.5624162699
 32
0.0
 13
-0.2100524203
 23
0.6460999379
 33
0.0
 40
0.0
 40
0.0
 40
0.0
 40
0.0
 40
0.4759149253
 40
0.7335081967
 40
1.0
 40
1.0
 40
1.0
 40
1.0
 10
0.609252059
 20
-7.5254090431
 30
0.0
 10
0.5487912787
 20
-7.4361882774
 30
0.0
 10
0.462249077
 20
-7.2938065337
 30
0.0
 10
0.365329264
 20
-7.0889129028
 30
0.0
 10
0.323878763
 20
-6.9775057971
 30
0.0
 10
0.3052196802
 20
-6.9201123512
 30
0.0
 11
0.609252059
 21
-7.5254090431
 31
0.0
 11
0.4429948787
 21
-7.248098371
 31
0.0
 11
0.3684489887
 21
-7.0897636863
 31
0.0
 11
0.3052196802
 21
-6.9201123512
 31
0.0
  0
SPLINE
  5
3FC
100
AcDbEntity
  8
RACCORDO
100
AcDbSpline
 62
7
  6
CONTINUOUS
 70
0
 71
3
 72
10
 73
6
 74
4
 42
0.0000001
 43
0.0000001
 44
0.0000000001
 12
0.0900777793
 22
0.0475284216
 32
0.0
 13
0.0093823543
 23
0.1014146371
 33
0.0
 40
0.0
 40
0.0
 40
0.0
 40
0.0
 40
0.2386927958
 40
0.4798773627
 40
1.0
 40
1.0
 40
1.0
 40
1.0
 10
-47.2931468179
 20
-8.039988364
 30
0.0
 10
-47.2859798456
 20
-8.0362068001
 30
0.0
 10
-47.2724969986
 20
-8.0266396587
 30
0.0
 10
-47.2509330386
 20
-7.9999644431
 30
0.0
 10
-47.2434865045
 20
-7.9739080724
 30
0.0
 10
-47.2418598462
 20
-7.9563253895
 30
0.0
 11
-47.2931468179
 21
-8.039988364
 31
0.0
 11
-47.2733425886
 21
-8.0258892873
 31
0.0
 11
-47.257848342
 21
-8.0068282486
 31
0.0
 11
-47.2418598462
 21
-7.9563253895
 31
0.0
  0
SPLINE
  5
3FD
100
AcDbEntity
  8
RACCORDO
100
AcDbSpline
 62
7
  6
CONTINUOUS
 70
0
 71
3
 72
23
 73
19
 74
17
 42
0.0000001
 43
0.0000001
 44
0.0000000001
 12
0.4974115133
 22
-4.648492389
 32
0.0
 13
4.1352426585
 23
2.1807493804
 33
0.0
 40
0.0
 40
0.0
 40
0.0
 40
0.0
 40
0.0478303908
 40
0.0969282587
 40
0.1481636726
 40
0.2022391601
 40
0.2596063819
 40
0.3203990182
 40
0.3844570297
 40
0.4513687384
 40
0.5205268619
 40
0.5911837644
 40
0.6625046037
 40
0.7336165448
 40
0.8036612886
 40
0.8718330857
 40
0.9374583758
 40
1.0
 40
1.0
 40
1.0
 40
1.0
 10
-51.319207738
 20
-7.0214441981
 30
0.0
 10
-51.3112772757
 20
-7.0955572673
 30
0.0
 10
-51.2770393734
 20
-7.2443244696
 30
0.0
 10
-51.1759373843
 20
-7.4537018464
 30
0.0
 10
-51.0300690906
 20
-7.6467861904
 30
0.0
 10
-50.844508071
 20
-7.8210134814
 30
0.0
 10
-50.6237357309
 20
-7.9750578997
 30
0.0
 10
-50.3719041879
 20
-8.1076314331
 30
0.0
 10
-50.0933966867
 20
-8.2174005731
 30
0.0
 10
-49.7930353347
 20
-8.3030024277
 30
0.0
 10
-49.476150706
 20
-8.3632275904
 30
0.0
 10
-49.1485019119
 20
-8.3971509114
 30
0.0
 10
-48.8161440384
 20
-8.404224927
 30
0.0
 10
-48.4852571238
 20
-8.3843395643
 30
0.0
 10
-48.1619971778
 20
-8.3378087113
 30
0.0
 10
-47.8522612163
 20
-8.2653826983
 30
0.0
 10
-47.5616912261
 20
-8.1681312738
 30
0.0
 10
-47.3793551104
 20
-8.085450989
 30
0.0
 10
-47.2931468462
 20
-8.0399884529
 30
0.0
 11
-51.319207738
 21
-7.0214441981
 31
0.0
 11
-51.2697186231
 21
-7.2395074477
 31
0.0
 11
-51.1710934383
 21
-7.4467727812
 31
0.0
 11
-51.027867054
 21
-7.6387608486
 31
0.0
 11
-50.8445593754
 21
-7.8128539456
 31
0.0
 11
-50.6253348582
 21
-7.967347752
 31
0.0
 11
-50.3743354233
 21
-8.1006635716
 31
0.0
 11
-50.096022033
 21
-8.2112338478
 31
0.0
 11
-49.7953532964
 21
-8.2975532369
 31
0.0
 11
-49.4777991525
 21
-8.3583213961
 31
0.0
 11
-49.149255491
 21
-8.3925618647
 31
0.0
 11
-48.8159049746
 21
-8.3997040089
 31
0.0
 11
-48.4840612226
 21
-8.379629101
 31
0.0
 11
-48.1599844382
 21
-8.3326706237
 31
0.0
 11
-47.8497655483
 21
-8.2596143741
 31
0.0
 11
-47.5590528677
 21
-8.1615711439
 31
0.0
 11
-47.2931468462
 21
-8.0399884529
 31
0.0
  0
SPLINE
  5
3FE
100
AcDbEntity
  8
RACCORDO
100
AcDbSpline
 62
7
  6
CONTINUOUS
 70
0
 71
3
 72
11
 73
7
 74
5
 42
0.0000001
 43
0.0000001
 44
0.0000000001
 12
-0.0950307855
 22
-0.1271969395
 32
0.0
 13
-0.1471781827
 23
0.0595692384
 33
0.0
 40
0.0
 40
0.0
 40
0.0
 40
0.0
 40
0.2263449695
 40
0.4599649856
 40
0.7158441655
 40
1.0
 40
1.0
 40
1.0
 40
1.0
 10
-46.6861277213
 20
-7.5453056519
 30
0.0
 10
-46.6932976348
 20
-7.5549024477
 30
0.0
 10
-46.7120074865
 20
-7.5716934298
 30
0.0
 10
-46.7487434306
 20
-7.5840479263
 30
0.0
 10
-46.7902935435
 20
-7.5834449856
 30
0.0
 10
-46.8180490589
 20
-7.5754095798
 30
0.0
 10
-46.831989572
 20
-7.5697672643
 30
0.0
 11
-46.6861277213
 21
-7.5453056519
 31
0.0
 11
-46.7128968571
 21
-7.5692841569
 31
0.0
 11
-46.7478673736
 21
-7.5816525599
 31
0.0
 11
-46.788494786
 21
-7.5817575215
 31
0.0
 11
-46.831989572
 21
-7.5697672643
 31
0.0
  0
SPLINE
  5
3FF
100
AcDbEntity
  8
RACCORDO
100
AcDbSpline
 62
7
  6
CONTINUOUS
 70
0
 71
3
 72
11
 73
7
 74
5
 42
0.0000001
 43
0.0000001
 44
0.0000000001
 12
0.3427902179
 22
0.4586993463
 32
0.0
 13
0.060926884
 23
0.5693839993
 33
0.0
 40
0.0
 40
0.0
 40
0.0
 40
0.0
 40
0.2579831822
 40
0.5095029568
 40
0.7561902742
 40
1.0
 40
1.0
 40
1.0
 40
1.0
 10
-46.6861273607
 20
-7.5453059463
 30
0.0
 10
-46.6566493236
 20
-7.505860374
 30
0.0
 10
-46.6027631254
 20
-7.4245742775
 30
0.0
 10
-46.5385454772
 20
-7.2948588195
 30
0.0
 10
-46.4932271467
 20
-7.1602051797
 30
0.0
 10
-46.4763133951
 20
-7.0677179837
 30
0.0
 10
-46.4713618728
 20
-7.0214441981
 30
0.0
 11
-46.6861273607
 21
-7.5453059463
 31
0.0
 11
-46.6048017854
 21
-7.4219758145
 31
0.0
 11
-46.5411633139
 21
-7.2927687475
 31
0.0
 11
-46.4963505529
 21
-7.1588035557
 31
0.0
 11
-46.4713618728
 21
-7.0214441981
 31
0.0
  0
SPLINE
  5
400
100
AcDbEntity
  8
0
100
AcDbSpline
 62
7
  6
CONTINUOUS
 70
0
 71
3
 72
11
 73
7
 74
5
 42
0.0000001
 43
0.0000001
 44
0.0000000001
 12
-1.1377223392
 22
0.4604843736
 32
0.0
 13
-0.8609914779
 23
0.8747294749
 33
0.0
 40
0.0
 40
0.0
 40
0.0
 40
0.0
 40
0.2713503413
 40
0.5289380735
 40
0.7718671654
 40
1.0
 40
1.0
 40
1.0
 40
1.0
 10
-50.9132261735
 20
-7.9067725365
 30
0.0
 10
-51.0161332885
 20
-7.8651216725
 30
0.0
 10
-51.2136237648
 20
-7.7759091434
 30
0.0
 10
-51.4890457762
 20
-7.6204740634
 30
0.0
 10
-51.7331606386
 20
-7.4484619933
 30
0.0
 10
-51.8775963157
 20
-7.3200158909
 30
0.0
 10
-51.9430697912
 20
-7.2534977194
 30
0.0
 11
-50.9132261735
 21
-7.9067725365
 31
0.0
 11
-51.2164590439
 21
-7.7690342143
 31
0.0
 11
-51.491386152
 21
-7.6129229042
 31
0.0
 11
-51.7345589781
 21
-7.4403833235
 31
0.0
 11
-51.9430697912
 21
-7.2534977194
 31
0.0
  0
LINE
  5
401
100
AcDbEntity
  8
RACCORDO
100
AcDbLine
 62
7
  6
CONTINUOUS
 10
-47.2418598462
 20
-7.9563253895
 11
-47.1926206036
 21
-7.4238046348
  0
SPLINE
  5
402
100
AcDbEntity
  8
0
100
AcDbSpline
 62
7
  6
CONTINUOUS
 70
0
 71
3
 72
12
 73
8
 74
6
 42
0.0000001
 43
0.0000001
 44
0.0000000001
 12
-1.1119829477
 22
-1.674003001
 32
0.0
 13
-1.9263367425
 23
-0.5727293232
 33
0.0
 40
0.0
 40
0.0
 40
0.0
 40
0.0
 40
0.2145181128
 40
0.3307818335
 40
0.4531914242
 40
0.7157919878
 40
1.0
 40
1.0
 40
1.0
 40
1.0
 10
-45.6246594242
 20
-6.9812989235
 30
0.0
 10
-45.7041729186
 20
-7.101000245
 30
0.0
 10
-45.8515944079
 20
-7.2697659681
 30
0.0
 10
-46.0831828948
 20
-7.4663511518
 30
0.0
 10
-46.3584183942
 20
-7.6595573777
 30
0.0
 10
-46.7566140812
 20
-7.8694947845
 30
0.0
 10
-47.1020858411
 20
-7.9945581331
 30
0.0
 10
-47.2845792866
 20
-8.0488162206
 30
0.0
 11
-45.6246594242
 21
-6.9812989235
 31
0.0
 11
-45.9044741971
 21
-7.3092637271
 31
0.0
 11
-46.0821975046
 21
-7.4609469495
 31
0.0
 11
-46.2832315306
 21
-7.6027320591
 31
0.0
 11
-46.7483957274
 21
-7.8519981061
 31
0.0
 11
-47.2845792866
 21
-8.0488162206
 31
0.0
  0
LINE
  5
403
100
AcDbEntity
  8
0
100
AcDbLine
 62
7
  6
CONTINUOUS
 10
-47.2845792866
 20
-8.0488162206
 11
-47.2901590425
 21
-8.0504715196
  0
SPLINE
  5
404
100
AcDbEntity
  8
0
100
AcDbSpline
 62
7
  6
CONTINUOUS
 70
0
 71
3
 72
9
 73
5
 74
3
 42
0.0000001
 43
0.0000001
 44
0.0000000001
 12
-0.4739147308
 22
0.134466858
 32
0.0
 13
-0.4566375727
 23
0.1848205484
 33
0.0
 40
0.0
 40
0.0
 40
0.0
 40
0.0
 40
0.2551931036
 40
1.0
 40
1.0
 40
1.0
 40
1.0
 10
-50.4471555921
 20
-8.0659078507
 30
0.0
 10
-50.4874688491
 20
-8.0544695125
 30
0.0
 10
-50.6448576467
 20
-8.007632344
 30
0.0
 10
-50.7998572357
 20
-7.9526577429
 30
0.0
 10
-50.9132261735
 20
-7.9067725365
 30
0.0
 11
-50.4471555921
 21
-8.0659078507
 31
0.0
 11
-50.5676423269
 21
-8.0300345294
 31
0.0
 11
-50.9132261735
 21
-7.9067725365
 31
0.0
  0
SPLINE
  5
405
100
AcDbEntity
  8
RACCORDO
100
AcDbSpline
 62
253
  6
CONTINUOUS
 70
0
 71
3
 72
9
 73
5
 74
3
 42
0.0000001
 43
0.0000001
 44
0.0000000001
 12
-0.0282446048
 22
0.2639390486
 32
0.0
 13
0.0584206172
 23
0.2589374646
 33
0.0
 40
0.0
 40
0.0
 40
0.0
 40
0.0
 40
0.4983994603
 40
1.0
 40
1.0
 40
1.0
 40
1.0
 10
-51.3192077694
 20
-7.0214441992
 30
0.0
 10
-51.3239001347
 20
-6.9775951727
 30
0.0
 10
-51.3260586806
 20
-6.888679427
 30
0.0
 10
-51.3134562815
 20
-6.8006499971
 30
0.0
 10
-51.3036883438
 20
-6.7573556065
 30
0.0
 11
-51.3192077694
 21
-7.0214441992
 31
0.0
 11
-51.3223851223
 21
-6.889184216
 31
0.0
 11
-51.3036883438
 21
-6.7573556065
 31
0.0
  0
SPLINE
  5
406
100
AcDbEntity
  8
RACCORDO
100
AcDbSpline
 62
253
  6
CONTINUOUS
 70
0
 71
3
 72
15
 73
11
 74
9
 42
0.0000001
 43
0.0000001
 44
0.0000000001
 12
1.0981922024
 22
-0.8755539004
 32
0.0
 13
-0.8155040126
 23
-1.1434919988
 33
0.0
 40
0.0
 40
0.0
 40
0.0
 40
0.0
 40
0.1445050932
 40
0.2787556609
 40
0.4041430031
 40
0.522978603
 40
0.638429925
 40
0.7541298468
 40
0.8736953663
 40
1.0
 40
1.0
 40
1.0
 40
1.0
 10
-47.0857037717
 20
-6.3389247354
 30
0.0
 10
-47.0328056495
 20
-6.3810987347
 30
0.0
 10
-46.9356553828
 20
-6.4689708786
 30
0.0
 10
-46.815394081
 20
-6.6160684373
 30
0.0
 10
-46.7281572118
 20
-6.771476672
 30
0.0
 10
-46.6759241159
 20
-6.9328436063
 30
0.0
 10
-46.6600250196
 20
-7.0972648054
 30
0.0
 10
-46.6810641639
 20
-7.2615017277
 30
0.0
 10
-46.738554089
 20
-7.4218676582
 30
0.0
 10
-46.7970352111
 20
-7.5218755799
 30
0.0
 10
-46.8313691896
 20
-7.5700183593
 30
0.0
 11
-47.0857037717
 21
-6.3389247354
 31
0.0
 11
-46.9358976939
 21
-6.4758548525
 31
0.0
 11
-46.8174127351
 21
-6.6225323295
 31
0.0
 11
-46.7321365725
 21
-6.7766150702
 31
0.0
 11
-46.6814479307
 21
-6.9356364969
 31
0.0
 11
-46.6661150162
 21
-7.0970613368
 31
0.0
 11
-46.6864659862
 21
-7.2582825209
 31
0.0
 11
-46.7420674003
 21
-7.4167403961
 31
0.0
 11
-46.8313691896
 21
-7.5700183593
 31
0.0
  0
SPLINE
  5
407
100
AcDbEntity
  8
RACCORDO
100
AcDbSpline
 62
253
  6
CONTINUOUS
 70
0
 71
3
 72
11
 73
7
 74
5
 42
0.0000001
 43
0.0000001
 44
0.0000000001
 12
0.4840378299
 22
-0.574185556
 32
0.0
 13
-0.0799138833
 23
-0.7467231379
 33
0.0
 40
0.0
 40
0.0
 40
0.0
 40
0.0
 40
0.2692799423
 40
0.5217049934
 40
0.7628866799
 40
1.0
 40
1.0
 40
1.0
 40
1.0
 10
-46.7089937912
 20
-6.3297311263
 30
0.0
 10
-46.6655465649
 20
-6.3812700108
 30
0.0
 10
-46.5888742486
 20
-6.4879190997
 30
0.0
 10
-46.5074236664
 20
-6.6620010667
 30
0.0
 10
-46.4656065287
 20
-6.8415078404
 30
0.0
 10
-46.4650497221
 20
-6.9624247208
 30
0.0
 10
-46.4713659375
 20
-7.021444055
 30
0.0
 11
-46.7089937912
 21
-6.3297311263
 31
0.0
 11
-46.5919843674
 21
-6.494667652
 31
0.0
 11
-46.512618113
 21
-6.6668216852
 31
0.0
 11
-46.4721919164
 21
-6.8433769183
 31
0.0
 11
-46.4713659375
 21
-7.021444055
 31
0.0
  0
SPLINE
  5
408
100
AcDbEntity
  8
RACCORDO
100
AcDbSpline
 62
253
  6
CONTINUOUS
 70
0
 71
3
 72
29
 73
25
 74
23
 42
0.0000001
 43
0.0000001
 44
0.0000000001
 12
-4.2751651265
 22
-2.1947891832
 32
0.0
 13
2.5872714745
 23
4.0497114384
 33
0.0
 40
0.0
 40
0.0
 40
0.0
 40
0.0
 40
0.0328387157
 40
0.0668694184
 40
0.1019273498
 40
0.1379377141
 40
0.1747667601
 40
0.2122462498
 40
0.2884753812
 40
0.3652768233
 40
0.4412397178
 40
0.5150025088
 40
0.5853292535
 40
0.651200395
 40
0.7119173513
 40
0.767230422
 40
0.8174921965
 40
0.8410885533
 40
0.8639027646
 40
0.8861932305
 40
0.9082505777
 40
0.930379803
 40
0.9528830044
 40
1.0
 40
1.0
 40
1.0
 40
1.0
 10
-47.4078960462
 20
-8.0386751614
 30
0.0
 10
-47.4546930237
 20
-8.0626998474
 30
0.0
 10
-47.5518512283
 20
-8.1080344172
 30
0.0
 10
-47.7038315746
 20
-8.1679278154
 30
0.0
 10
-47.8637526677
 20
-8.2208374474
 30
0.0
 10
-48.0307184795
 20
-8.2658410277
 30
0.0
 10
-48.2036244788
 20
-8.302737514
 30
0.0
 10
-48.4417833564
 20
-8.3410892693
 30
0.0
 10
-48.7463534125
 20
-8.3672629914
 30
0.0
 10
-49.1136877714
 20
-8.3639791894
 30
0.0
 10
-49.4751652024
 20
-8.3262931561
 30
0.0
 10
-49.8210458648
 20
-8.2552080751
 30
0.0
 10
-50.1420887704
 20
-8.1526080606
 30
0.0
 10
-50.4297686672
 20
-8.0211701121
 30
0.0
 10
-50.6765335202
 20
-7.8641308167
 30
0.0
 10
-50.8758208051
 20
-7.6853073203
 30
0.0
 10
-51.000246173
 20
-7.5175876872
 30
0.0
 10
-51.0681333061
 20
-7.3779773677
 30
0.0
 10
-51.1030102672
 20
-7.2732399565
 30
0.0
 10
-51.1225907905
 20
-7.1670831564
 30
0.0
 10
-51.1266625255
 20
-7.0603018581
 30
0.0
 10
-51.1152098245
 20
-6.9537003644
 30
0.0
 10
-51.0789094392
 20
-6.8108860956
 30
0.0
 10
-51.0290406831
 20
-6.7093526689
 30
0.0
 10
-50.9884058635
 20
-6.6457492569
 30
0.0
 11
-47.4078960462
 21
-8.0386751614
 31
0.0
 11
-47.5507339324
 21
-8.1057692892
 31
0.0
 11
-47.702812133
 21
-8.165913116
 31
0.0
 11
-47.8627500817
 21
-8.2188649666
 31
0.0
 11
-48.0298054985
 21
-8.2640282756
 31
0.0
 11
-48.2028738211
 21
-8.3010654027
 31
0.0
 11
-48.38068502
 21
-8.3297671731
 31
0.0
 11
-48.7456441654
 21
-8.3614229528
 31
0.0
 11
-49.1147089491
 21
-8.3580972819
 31
0.0
 11
-49.4777539083
 21
-8.3198890415
 31
0.0
 11
-49.8248324683
 21
-8.2478439202
 31
0.0
 11
-50.1464277382
 21
-8.1439370362
 31
0.0
 11
-50.433721905
 21
-8.0110171813
 31
0.0
 11
-50.6788389816
 21
-7.8527285866
 31
0.0
 11
-50.8750594951
 21
-7.6734108603
 31
0.0
 11
-51.0170039527
 21
-7.4779799514
 31
0.0
 11
-51.0663482218
 21
-7.3758835144
 31
0.0
 11
-51.1007822087
 21
-7.2717944812
 31
0.0
 11
-51.1200786118
 21
-7.1664269627
 31
0.0
 11
-51.1240928287
 21
-7.0605034199
 31
0.0
 11
-51.1128172631
 21
-6.9547578735
 31
0.0
 11
-51.0863155107
 21
-6.84991327
 31
0.0
 11
-50.9884058635
 21
-6.6457492569
 31
0.0
  0
SPLINE
  5
409
100
AcDbEntity
  8
RACCORDO
100
AcDbSpline
 62
7
  6
CONTINUOUS
 70
0
 71
3
 72
11
 73
7
 74
5
 42
0.0000001
 43
0.0000001
 44
0.0000000001
 12
0.110169333
 22
-0.0445901909
 32
0.0
 13
0.1051161205
 23
0.0554632156
 33
0.0
 40
0.0
 40
0.0
 40
0.0
 40
0.0
 40
0.2777376624
 40
0.5358173137
 40
0.7750424599
 40
1.0
 40
1.0
 40
1.0
 40
1.0
 10
-47.4085442486
 20
-8.0384128065
 30
0.0
 10
-47.3983448576
 20
-8.0425409316
 30
0.0
 10
-47.3780088986
 20
-8.0490219171
 30
0.0
 10
-47.3473546621
 20
-8.0529256264
 30
0.0
 10
-47.3186074008
 20
-8.0503885253
 30
0.0
 10
-47.3010290392
 20
-8.0441473202
 30
0.0
 10
-47.2931468179
 20
-8.039988364
 30
0.0
 11
-47.4085442486
 21
-8.0384128065
 31
0.0
 11
-47.3770326849
 21
-8.0482434882
 31
0.0
 11
-47.3465754512
 21
-8.0518755415
 31
0.0
 11
-47.3182777451
 21
-8.0491137932
 31
0.0
 11
-47.2931468179
 21
-8.039988364
 31
0.0
  0
SPLINE
  5
40A
100
AcDbEntity
  8
SUPERFICI
100
AcDbSpline
 62
253
  6
CONTINUOUS
 70
0
 71
3
 72
21
 73
17
 74
15
 42
0.0000001
 43
0.0000001
 44
0.0000000001
 12
-0.4991929813
 22
-0.0261615956
 32
0.0
 13
0.0261536489
 23
-0.4991933977
 33
0.0
 40
0.0
 40
0.0
 40
0.0
 40
0.0
 40
0.0014828945
 40
0.0052103314
 40
0.0112905954
 40
0.0197227547
 40
0.0435770743
 40
0.076617183
 40
0.1186095741
 40
0.1690774451
 40
0.2274824475
 40
0.2932854284
 40
0.4446539976
 40
0.6175009388
 40
0.8053941667
 40
1.0
 40
1.0
 40
1.0
 40
1.0
 10
-79.5065398253
 20
21.9749071372
 30
0.0
 10
-79.5067865755
 20
21.9748942056
 30
0.0
 10
-79.5070652264
 20
21.9737553564
 30
0.0
 10
-79.5073327516
 20
21.9721579606
 30
0.0
 10
-79.5075744052
 20
21.9689821893
 30
0.0
 10
-79.5078528743
 20
21.9626813814
 30
0.0
 10
-79.5079833159
 20
21.9517314523
 30
0.0
 10
-79.5078985177
 20
21.935284905
 30
0.0
 10
-79.5075527497
 20
21.914364025
 30
0.0
 10
-79.5069549272
 20
21.8892370891
 30
0.0
 10
-79.5061064928
 20
21.8601424193
 30
0.0
 10
-79.5045768157
 20
21.8142501496
 30
0.0
 10
-79.5020739586
 20
21.7493103998
 30
0.0
 10
-79.4983865907
 20
21.6640593701
 30
0.0
 10
-79.4940199484
 20
21.571627115
 30
0.0
 10
-79.4907946013
 20
21.5079743522
 30
0.0
 10
-79.4890980504
 20
21.4755923698
 30
0.0
 11
-79.5065398253
 21
21.9749071372
 31
0.0
 11
-79.5069326163
 21
21.9742784949
 31
0.0
 11
-79.5072622047
 21
21.9724446128
 31
0.0
 11
-79.5075279851
 21
21.9694168652
 31
0.0
 11
-79.5077293525
 21
21.9652066266
 31
0.0
 11
-79.507936427
 21
21.9532841741
 31
0.0
 11
-79.5078785865
 21
21.9367682504
 31
0.0
 11
-79.5075530716
 21
21.9157797
 31
0.0
 11
-79.5069654513
 21
21.8905587638
 31
0.0
 11
-79.5061233769
 21
21.8613755316
 31
0.0
 11
-79.5050344997
 21
21.8285000936
 31
0.0
 11
-79.5021564505
 21
21.7528890239
 31
0.0
 11
-79.4984400569
 21
21.6665665955
 31
0.0
 11
-79.4940201766
 21
21.5727469492
 31
0.0
 11
-79.4890980504
 21
21.4755923698
 31
0.0
  0
SPLINE
  5
40B
100
AcDbEntity
  8
SUPERFICI
100
AcDbSpline
 62
253
  6
CONTINUOUS
 70
0
 71
3
 72
21
 73
17
 74
15
 42
0.0000001
 43
0.0000001
 44
0.0000000001
 12
-0.4991929749
 22
0.0261615952
 32
0.0
 13
0.0261535259
 23
0.4991933977
 33
0.0
 40
0.0
 40
0.0
 40
0.0
 40
0.0
 40
0.0014828893
 40
0.0052103265
 40
0.0112905931
 40
0.0197227561
 40
0.0435770841
 40
0.0766171986
 40
0.1186095988
 40
0.169077486
 40
0.2274825052
 40
0.2932854973
 40
0.4446540791
 40
0.6175010007
 40
0.8053941838
 40
1.0
 40
1.0
 40
1.0
 40
1.0
 10
-79.5065398253
 20
-21.9749071372
 30
0.0
 10
-79.5067865746
 20
-21.9748942056
 30
0.0
 10
-79.5070652173
 20
-21.9737553524
 30
0.0
 10
-79.5073327416
 20
-21.9721579603
 30
0.0
 10
-79.5075743889
 20
-21.9689821855
 30
0.0
 10
-79.5078528527
 20
-21.9626813763
 30
0.0
 10
-79.5079832871
 20
-21.9517314433
 30
0.0
 10
-79.5078984829
 20
-21.9352848928
 30
0.0
 10
-79.5075527094
 20
-21.9143640078
 30
0.0
 10
-79.5069548823
 20
-21.8892370654
 30
0.0
 10
-79.5061064447
 20
-21.8601423887
 30
0.0
 10
-79.5045767656
 20
-21.8142501129
 30
0.0
 10
-79.502073911
 20
-21.7493103632
 30
0.0
 10
-79.4983865529
 20
-21.6640593427
 30
0.0
 10
-79.4940199263
 20
-21.5716271017
 30
0.0
 10
-79.4907945932
 20
-21.5079743494
 30
0.0
 10
-79.4890980504
 20
-21.4755923698
 30
0.0
 11
-79.5065398253
 21
-21.9749071372
 31
0.0
 11
-79.5069326111
 21
-21.9742784947
 31
0.0
 11
-79.5072621944
 21
-21.9724446115
 31
0.0
 11
-79.5075279702
 21
-21.9694168623
 31
0.0
 11
-79.5077293331
 21
-21.9652066217
 31
0.0
 11
-79.5079363997
 21
-21.953284165
 31
0.0
 11
-79.5078785525
 21
-21.9367682386
 31
0.0
 11
-79.5075530319
 21
-21.915779684
 31
0.0
 11
-79.5069654069
 21
-21.8905587401
 31
0.0
 11
-79.5061233292
 21
-21.8613755
 31
0.0
 11
-79.5050344504
 21
-21.828500057
 31
0.0
 11
-79.5021564034
 21
-21.7528889818
 31
0.0
 11
-79.4984400194
 21
-21.6665665639
 31
0.0
 11
-79.4940201553
 21
-21.5727469404
 31
0.0
 11
-79.4890980504
 21
-21.4755923698
 31
0.0
  0
SPLINE
  5
40C
100
AcDbEntity
  8
SMUSSO
100
AcDbSpline
 62
7
  6
CONTINUOUS
 70
0
 71
3
 72
9
 73
5
 74
3
 42
0.0000001
 43
0.0000001
 44
0.0000000001
 12
-0.2229478926
 22
-0.1697547812
 32
0.0
 13
-0.1959609036
 23
-0.2003042007
 33
0.0
 40
0.0
 40
0.0
 40
0.0
 40
0.0
 40
0.2574348085
 40
1.0
 40
1.0
 40
1.0
 40
1.0
 10
-51.5726544347
 20
-6.8762793377
 30
0.0
 10
-51.5917859507
 20
-6.8908462675
 30
0.0
 10
-51.6651523636
 20
-6.9486581083
 30
0.0
 10
-51.7345991607
 20
-7.0115166612
 30
0.0
 10
-51.7831037427
 20
-7.0610963036
 30
0.0
 11
-51.5726544347
 21
-6.8762793377
 31
0.0
 11
-51.6293003242
 21
-6.920946287
 31
0.0
 11
-51.7831037427
 21
-7.0610963036
 31
0.0
  0
SPLINE
  5
40D
100
AcDbEntity
  8
SMUSSO
100
AcDbSpline
 62
7
  6
CONTINUOUS
 70
0
 71
3
 72
11
 73
7
 74
5
 42
0.0000001
 43
0.0000001
 44
0.0000000001
 12
-0.6051743926
 22
-0.630063316
 32
0.0
 13
0.000002812
 23
-0.8736222453
 33
0.0
 40
0.0
 40
0.0
 40
0.0
 40
0.0
 40
0.2731917387
 40
0.5279538966
 40
0.7682124719
 40
1.0
 40
1.0
 40
1.0
 40
1.0
 10
-51.793956117
 20
-7.07229139
 30
0.0
 10
-51.8490656652
 20
-7.1296674209
 30
0.0
 10
-51.9480103217
 20
-7.2483034803
 30
0.0
 10
-52.0606736912
 20
-7.4429905972
 30
0.0
 10
-52.1296479611
 20
-7.6446107681
 30
0.0
 10
-52.1452850196
 20
-7.7825189415
 30
0.0
 10
-52.1452848023
 20
-7.8500171884
 30
0.0
 11
-51.793956117
 21
-7.07229139
 31
0.0
 11
-51.9457029407
 21
-7.2565046971
 31
0.0
 11
-52.0560148024
 21
-7.449809813
 31
0.0
 11
-52.122897816
 21
-7.648763759
 31
0.0
 11
-52.1452848023
 21
-7.8500171884
 31
0.0
  0
SPLINE
  5
40E
100
AcDbEntity
  8
DRAFT
100
AcDbSpline
 62
7
  6
CONTINUOUS
 70
0
 71
3
 72
11
 73
7
 74
5
 42
0.0000001
 43
0.0000001
 44
0.0000000001
 12
0.0
 22
1.042999512
 32
0.0
 13
-0.7925650177
 23
0.6780034474
 33
0.0
 40
0.0
 40
0.0
 40
0.0
 40
0.0
 40
0.2284053284
 40
0.4664677894
 40
0.7219980047
 40
1.0
 40
1.0
 40
1.0
 40
1.0
 10
-45.5952848054
 20
-7.2085379897
 30
0.0
 10
-45.5952848054
 20
-7.1291291077
 30
0.0
 10
-45.6167360798
 20
-6.9662546306
 30
0.0
 10
-45.7110199476
 20
-6.7312090843
 30
0.0
 10
-45.8638752177
 20
-6.5085531658
 30
0.0
 10
-45.9961540284
 20
-6.3770366787
 30
0.0
 10
-46.0695989139
 20
-6.3142079083
 30
0.0
 11
-45.5952848054
 21
-7.2085379897
 31
0.0
 11
-45.6257535983
 21
-6.9722678318
 31
0.0
 11
-45.7164909443
 21
-6.7411420161
 31
0.0
 11
-45.8655215369
 21
-6.5201857578
 31
0.0
 11
-46.0695989139
 21
-6.3142079083
 31
0.0
  0
SPLINE
  5
40F
100
AcDbEntity
  8
SMUSSO
100
AcDbSpline
 62
7
  6
CONTINUOUS
 70
0
 71
3
 72
11
 73
7
 74
5
 42
0.0000001
 43
0.0000001
 44
0.0000000001
 12
-2.5077371683
 22
-0.0596520932
 32
0.0
 13
-2.1516434245
 23
-1.2894706865
 33
0.0
 40
0.0
 40
0.0
 40
0.0
 40
0.0
 40
0.2610153509
 40
0.5209644261
 40
0.7700948889
 40
1.0
 40
1.0
 40
1.0
 40
1.0
 10
-49.4432814506
 20
-6.3962923111
 30
0.0
 10
-49.6614674162
 20
-6.4014823485
 30
0.0
 10
-50.0967226907
 20
-6.4360309155
 30
0.0
 10
-50.7304272061
 20
-6.5580747019
 30
0.0
 10
-51.3197825313
 20
-6.7490339611
 30
0.0
 10
-51.6816760609
 20
-6.9250452333
 30
0.0
 10
-51.8465673345
 20
-7.0238638671
 30
0.0
 11
-49.4432814506
 21
-6.3962923111
 31
0.0
 11
-50.0959673014
 21
-6.4481541376
 31
0.0
 11
-50.7359620773
 21
-6.5730534289
 31
0.0
 11
-51.329665965
 21
-6.7681271575
 31
0.0
 11
-51.8465673345
 21
-7.0238638671
 31
0.0
  0
SPLINE
  5
410
100
AcDbEntity
  8
RACCORDO
100
AcDbSpline
 62
253
  6
CONTINUOUS
 70
0
 71
3
 72
13
 73
9
 74
7
 42
0.0000001
 43
0.0000001
 44
0.0000000001
 12
0.0
 22
0.3713238803
 32
0.0
 13
-0.3713052716
 23
0.0037174393
 33
0.0
 40
0.0
 40
0.0
 40
0.0
 40
0.0
 40
0.0906239199
 40
0.1878000315
 40
0.2957397348
 40
0.4164635056
 40
0.6928381331
 40
1.0
 40
1.0
 40
1.0
 40
1.0
 10
-41.6952848054
 20
-1.7396521766
 30
0.0
 10
-41.6952848054
 20
-1.7284352347
 30
0.0
 10
-41.6994328498
 20
-1.7050407492
 30
0.0
 10
-41.7170618257
 20
-1.6724004666
 30
0.0
 10
-41.7450168131
 20
-1.6428162062
 30
0.0
 10
-41.7966637052
 20
-1.6070033804
 30
0.0
 10
-41.8796761587
 20
-1.576430046
 30
0.0
 10
-41.9520321433
 20
-1.5679860717
 30
0.0
 10
-41.9900490835
 20
-1.5676054532
 30
0.0
 11
-41.6952848054
 21
-1.7396521766
 31
0.0
 11
-41.7009290137
 21
-1.7064780756
 31
0.0
 11
-41.7176256766
 21
-1.6744895956
 31
0.0
 11
-41.7447591904
 21
-1.644990001
 31
0.0
 11
-41.7813191854
 21
-1.6190500282
 31
0.0
 11
-41.8768487954
 21
-1.5815549427
 31
0.0
 11
-41.9900490835
 21
-1.5676054532
 31
0.0
  0
SPLINE
  5
411
100
AcDbEntity
  8
RACCORDO
100
AcDbSpline
 62
253
  6
CONTINUOUS
 70
0
 71
3
 72
13
 73
9
 74
7
 42
0.0000001
 43
0.0000001
 44
0.0000000001
 12
0.0
 22
0.3713238803
 32
0.0
 13
-0.3713052716
 23
0.0037174393
 33
0.0
 40
0.0
 40
0.0
 40
0.0
 40
0.0
 40
0.0906239199
 40
0.1878000315
 40
0.2957397348
 40
0.4164635056
 40
0.6928381331
 40
1.0
 40
1.0
 40
1.0
 40
1.0
 10
-41.6952848054
 20
-0.0194328836
 30
0.0
 10
-41.6952848054
 20
-0.0082159417
 30
0.0
 10
-41.6994328498
 20
0.0151785438
 30
0.0
 10
-41.7170618257
 20
0.0478188264
 30
0.0
 10
-41.7450168131
 20
0.0774030868
 30
0.0
 10
-41.7966637052
 20
0.1132159126
 30
0.0
 10
-41.8796761587
 20
0.143789247
 30
0.0
 10
-41.9520321433
 20
0.1522332213
 30
0.0
 10
-41.9900490835
 20
0.1526138398
 30
0.0
 11
-41.6952848054
 21
-0.0194328836
 31
0.0
 11
-41.7009290137
 21
0.0137412174
 31
0.0
 11
-41.7176256766
 21
0.0457296974
 31
0.0
 11
-41.7447591904
 21
0.075229292
 31
0.0
 11
-41.7813191854
 21
0.1011692648
 31
0.0
 11
-41.8768487954
 21
0.1386643503
 31
0.0
 11
-41.9900490835
 21
0.1526138398
 31
0.0
  0
SPLINE
  5
412
100
AcDbEntity
  8
RACCORDO
100
AcDbSpline
 62
253
  6
CONTINUOUS
 70
0
 71
3
 72
11
 73
7
 74
5
 42
0.0000001
 43
0.0000001
 44
0.0000000001
 12
0.0
 22
-0.5623671465
 32
0.0
 13
-0.5623096689
 23
-0.0080401333
 33
0.0
 40
0.0
 40
0.0
 40
0.0
 40
0.0
 40
0.2269119016
 40
0.4678348868
 40
0.7274853575
 40
1.0
 40
1.0
 40
1.0
 40
1.0
 10
-43.1952848054
 20
-10.7868314528
 30
0.0
 10
-43.1952848054
 20
-10.8293673857
 30
0.0
 10
-43.2173251036
 20
-10.9181946167
 30
0.0
 10
-43.3071721879
 20
-11.0257796679
 30
0.0
 10
-43.4369072167
 20
-11.0965827294
 30
0.0
 10
-43.5372246367
 20
-11.113712015
 30
0.0
 10
-43.5883038428
 20
-11.1144423663
 30
0.0
 11
-43.1952848054
 21
-10.7868314528
 31
0.0
 11
-43.22507262
 21
-10.9109138302
 31
0.0
 11
-43.3099972777
 21
-11.0164817051
 31
0.0
 11
-43.4373700932
 21
-11.0878797679
 31
0.0
 11
-43.5883038428
 21
-11.1144423663
 31
0.0
  0
SPLINE
  5
413
100
AcDbEntity
  8
RACCORDO
100
AcDbSpline
 62
253
  6
CONTINUOUS
 70
0
 71
3
 72
13
 73
9
 74
7
 42
0.0000001
 43
0.0000001
 44
0.0000000001
 12
0.0
 22
0.4950985071
 32
0.0
 13
-0.4950736955
 23
0.0049565857
 33
0.0
 40
0.0
 40
0.0
 40
0.0
 40
0.0
 40
0.0906239199
 40
0.1878000315
 40
0.2957397348
 40
0.4164635056
 40
0.6928381331
 40
1.0
 40
1.0
 40
1.0
 40
1.0
 10
-43.1952848054
 20
7.4973314629
 30
0.0
 10
-43.1952848054
 20
7.5122873854
 30
0.0
 10
-43.2008155312
 20
7.5434800327
 30
0.0
 10
-43.2243208324
 20
7.5870004095
 30
0.0
 10
-43.261594149
 20
7.6264460901
 30
0.0
 10
-43.3304566718
 20
7.6741965244
 30
0.0
 10
-43.4411399432
 20
7.7149609703
 30
0.0
 10
-43.5376145893
 20
7.7262196027
 30
0.0
 10
-43.5883038428
 20
7.7267270941
 30
0.0
 11
-43.1952848054
 21
7.4973314629
 31
0.0
 11
-43.2028104165
 21
7.5415635975
 31
0.0
 11
-43.2250726337
 21
7.5842149042
 31
0.0
 11
-43.2612506521
 21
7.6235476969
 31
0.0
 11
-43.3099973121
 21
7.6581343274
 31
0.0
 11
-43.4373701254
 21
7.7081277747
 31
0.0
 11
-43.5883038428
 21
7.7267270941
 31
0.0
  0
SPLINE
  5
414
100
AcDbEntity
  8
RACCORDO
100
AcDbSpline
 62
253
  6
CONTINUOUS
 70
0
 71
3
 72
13
 73
9
 74
7
 42
0.0000001
 43
0.0000001
 44
0.0000000001
 12
0.0
 22
0.4950985168
 32
0.0
 13
-0.4950737057
 23
0.0049565442
 33
0.0
 40
0.0
 40
0.0
 40
0.0
 40
0.0
 40
0.0906239196
 40
0.187800016
 40
0.2957397069
 40
0.4164634729
 40
0.6928381004
 40
1.0
 40
1.0
 40
1.0
 40
1.0
 10
-43.1952848054
 20
-4.6496642445
 30
0.0
 10
-43.1952848054
 20
-4.6347083217
 30
0.0
 10
-43.200815525
 20
-4.6035156753
 30
0.0
 10
-43.2243208252
 20
-4.5599953019
 30
0.0
 10
-43.2615941317
 20
-4.5205496185
 30
0.0
 10
-43.3304566505
 20
-4.4727991793
 30
0.0
 10
-43.441139928
 20
-4.4320347283
 30
0.0
 10
-43.5376145828
 20
-4.4207761007
 30
0.0
 10
-43.5883038428
 20
-4.4202686135
 30
0.0
 11
-43.1952848054
 21
-4.6496642445
 31
0.0
 11
-43.2028104126
 21
-4.6054321084
 31
0.0
 11
-43.2250726248
 21
-4.5627808066
 31
0.0
 11
-43.2612506348
 21
-4.523448013
 31
0.0
 11
-43.3099972909
 21
-4.488861379
 31
0.0
 11
-43.4373701054
 21
-4.4388679275
 31
0.0
 11
-43.5883038428
 21
-4.4202686135
 31
0.0
  0
SPLINE
  5
415
100
AcDbEntity
  8
RACCORDO
100
AcDbSpline
 62
253
  6
CONTINUOUS
 70
0
 71
3
 72
11
 73
7
 74
5
 42
0.0000001
 43
0.0000001
 44
0.0000000001
 12
0.0
 22
-0.5623671537
 32
0.0
 13
-0.5623096767
 23
-0.0080400856
 33
0.0
 40
0.0
 40
0.0
 40
0.0
 40
0.0
 40
0.2269119674
 40
0.4678349764
 40
0.7274854235
 40
1.0
 40
1.0
 40
1.0
 40
1.0
 10
-43.1952848054
 20
-5.206670789
 30
0.0
 10
-43.1952848054
 20
-5.2492067347
 30
0.0
 10
-43.2173251108
 20
-5.3380339849
 30
0.0
 10
-43.3071722167
 20
-5.4456190379
 30
0.0
 10
-43.4369072428
 20
-5.5164220809
 30
0.0
 10
-43.5372246483
 20
-5.5335513555
 30
0.0
 10
-43.5883038428
 20
-5.5342817024
 30
0.0
 11
-43.1952848054
 21
-5.206670789
 31
0.0
 11
-43.2250726337
 21
-5.3307532028
 31
0.0
 11
-43.3099973121
 21
-5.4363210804
 31
0.0
 11
-43.4373701254
 21
-5.5077191237
 31
0.0
 11
-43.5883038428
 21
-5.5342817024
 31
0.0
  0
SPLINE
  5
416
100
AcDbEntity
  8
RACCORDO
100
AcDbSpline
 62
253
  6
CONTINUOUS
 70
0
 71
3
 72
23
 73
19
 74
17
 42
0.0000001
 43
0.0000001
 44
0.0000000001
 12
0.0087058932
 22
-0.799999626
 32
0.0
 13
-0.7999299907
 23
-0.0136822592
 33
0.0
 40
0.0
 40
0.0
 40
0.0
 40
0.0
 40
0.1950212224
 40
0.3825897046
 40
0.5554108656
 40
0.6342198741
 40
0.7069113191
 40
0.7728031249
 40
0.831245816
 40
0.8816948149
 40
0.9236517459
 40
0.9567194929
 40
0.9698222128
 40
0.9805870784
 40
0.9889906487
 40
0.9950222333
 40
0.9986773029
 40
1.0
 40
1.0
 40
1.0
 40
1.0
 10
-44.1865586022
 20
-18.2979969042
 30
0.0
 10
-44.1859926575
 20
-18.3500025392
 30
0.0
 10
-44.1849861444
 20
-18.4520275796
 30
0.0
 10
-44.1838504132
 20
-18.6001416125
 30
0.0
 10
-44.1832398012
 20
-18.7172666907
 30
0.0
 10
-44.1829906739
 20
-18.8037572453
 30
0.0
 10
-44.1829268006
 20
-18.8617318336
 30
0.0
 10
-44.1829788675
 20
-18.9142754734
 30
0.0
 10
-44.1831472783
 20
-18.9608860306
 30
0.0
 10
-44.1834260507
 20
-19.0011164377
 30
0.0
 10
-44.1838163742
 20
-19.0345685638
 30
0.0
 10
-44.1842405502
 20
-19.0580841384
 30
0.0
 10
-44.1846705371
 20
-19.0732357292
 30
0.0
 10
-44.1849682925
 20
-19.0818919411
 30
0.0
 10
-44.1853457569
 20
-19.0884598766
 30
0.0
 10
-44.1855911247
 20
-19.0936016135
 30
0.0
 10
-44.1861040792
 20
-19.0959321218
 30
0.0
 10
-44.1862059138
 20
-19.0978690278
 30
0.0
 10
-44.1865586022
 20
-19.0978750603
 30
0.0
 11
-44.1865586022
 21
-18.2979969042
 31
0.0
 11
-44.1850247863
 21
-18.4540155078
 31
0.0
 11
-44.1838841568
 21
-18.6040747734
 31
0.0
 11
-44.1831829417
 21
-18.7423380457
 31
0.0
 11
-44.1830054203
 21
-18.8053887063
 31
0.0
 11
-44.1829460818
 21
-18.8635452482
 31
0.0
 11
-44.1830052546
 21
-18.9162617562
 31
0.0
 11
-44.1831827238
 21
-18.9630183188
 31
0.0
 11
-44.1834765244
 21
-19.0033788194
 31
0.0
 11
-44.1838839723
 21
-19.0369438631
 31
0.0
 11
-44.1844015147
 21
-19.0633945519
 31
0.0
 11
-44.1847002377
 21
-19.0738730864
 31
0.0
 11
-44.1850248534
 21
-19.082479365
 31
0.0
 11
-44.1853743629
 21
-19.0891935254
 31
0.0
 11
-44.1857474054
 21
-19.0940046358
 31
0.0
 11
-44.1861426091
 21
-19.0969020346
 31
0.0
 11
-44.1865586022
 21
-19.0978750603
 31
0.0
  0
SPLINE
  5
417
100
AcDbEntity
  8
RACCORDO
100
AcDbSpline
 62
253
  6
CONTINUOUS
 70
0
 71
3
 72
10
 73
6
 74
4
 42
0.0000001
 43
0.0000001
 44
0.0000000001
 12
-0.0000264916
 22
-1.2389311675
 32
0.0
 13
-0.8730594918
 23
-0.8790435497
 33
0.0
 40
0.0
 40
0.0
 40
0.0
 40
0.0
 40
0.2454438864
 40
0.492474086
 40
1.0
 40
1.0
 40
1.0
 40
1.0
 10
-59.9040110086
 20
-6.5909463877
 30
0.0
 10
-59.904013176
 20
-6.6923090813
 30
0.0
 10
-59.9192175178
 20
-6.8963124981
 30
0.0
 10
-60.0131507155
 20
-7.2984372953
 30
0.0
 10
-60.1686892873
 20
-7.5852732705
 30
0.0
 10
-60.3163893928
 20
-7.7339857308
 30
0.0
 11
-59.9040110086
 21
-6.5909463877
 31
0.0
 11
-59.9268824382
 21
-6.8941731322
 31
0.0
 11
-59.9977555224
 21
-7.1919074063
 31
0.0
 11
-60.3163893928
 21
-7.7339857308
 31
0.0
  0
SPLINE
  5
418
100
AcDbEntity
  8
RACCORDO
100
AcDbSpline
 62
253
  6
CONTINUOUS
 70
0
 71
3
 72
18
 73
14
 74
12
 42
0.0000001
 43
0.0000001
 44
0.0000000001
 12
0.0021945137
 22
-0.1446177029
 32
0.0
 13
0.1445722103
 23
-0.004239327
 33
0.0
 40
0.0
 40
0.0
 40
0.0
 40
0.0
 40
0.2284725841
 40
0.4295801844
 40
0.6018877466
 40
0.744126409
 40
0.8555808491
 40
0.8995765134
 40
0.9356513783
 40
0.9637487862
 40
0.9838478027
 40
0.9959329049
 40
1.0
 40
1.0
 40
1.0
 40
1.0
 10
-43.5883038428
 20
-11.1144423662
 30
0.0
 10
-43.5881367141
 20
-11.125456093
 30
0.0
 10
-43.5878174031
 20
-11.1461644941
 30
0.0
 10
-43.5873504971
 20
-11.1751779353
 30
0.0
 10
-43.5869322783
 20
-11.2000368289
 30
0.0
 10
-43.5865576539
 20
-11.2205659713
 30
0.0
 10
-43.586286059
 20
-11.2349282428
 30
0.0
 10
-43.5860666129
 20
-11.2441397155
 30
0.0
 10
-43.5859742861
 20
-11.2493952242
 30
0.0
 10
-43.5857749421
 20
-11.2533476474
 30
0.0
 10
-43.5858776572
 20
-11.2564991747
 30
0.0
 10
-43.5854513697
 20
-11.2578110572
 30
0.0
 10
-43.5857594391
 20
-11.2590399652
 30
0.0
 10
-43.5855634428
 20
-11.2590457124
 30
0.0
 11
-43.5883038428
 21
-11.1144423662
 31
0.0
 11
-43.5877931221
 21
-11.1474834035
 31
0.0
 11
-43.5873243315
 21
-11.1765666931
 31
0.0
 11
-43.5869014392
 21
-11.2014846975
 31
0.0
 11
-43.5865279548
 21
-11.2220539038
 31
0.0
 11
-43.5862058592
 21
-11.2381708263
 31
0.0
 11
-43.5860646018
 21
-11.2445325427
 31
0.0
 11
-43.5859368149
 21
-11.2497486423
 31
0.0
 11
-43.5858226797
 21
-11.2538108897
 31
0.0
 11
-43.5857223243
 21
-11.2567161651
 31
0.0
 11
-43.5856358713
 21
-11.2584619468
 31
0.0
 11
-43.5855634428
 21
-11.2590457124
 31
0.0
  0
SPLINE
  5
419
100
AcDbEntity
  8
RACCORDO
100
AcDbSpline
 62
7
  6
CONTINUOUS
 70
0
 71
3
 72
12
 73
8
 74
6
 42
0.0000001
 43
0.0000001
 44
0.0000000001
 12
0.0
 22
1.0304816091
 32
0.0
 13
-0.717030859
 23
0.740107488
 33
0.0
 40
0.0
 40
0.0
 40
0.0
 40
0.0
 40
0.1155879864
 40
0.2397552477
 40
0.4987108123
 40
0.7559683458
 40
1.0
 40
1.0
 40
1.0
 40
1.0
 10
-53.7952848054
 20
-5.3503753947
 30
0.0
 10
-53.7952848054
 20
-5.31067163
 30
0.0
 10
-53.8067537894
 20
-5.2282921503
 30
0.0
 10
-53.8594042194
 20
-5.0648359805
 30
0.0
 10
-53.962795809
 20
-4.8690610213
 30
0.0
 10
-54.1143961582
 20
-4.6559871392
 30
0.0
 10
-54.2282325266
 20
-4.526330309
 30
0.0
 10
-54.2865586022
 20
-4.4661270908
 30
0.0
 11
-53.7952848054
 21
-5.3503753947
 31
0.0
 11
-53.8095608286
 21
-5.232122718
 31
0.0
 11
-53.8474229239
 21
-5.1099008037
 31
0.0
 11
-53.9680006538
 21
-4.8718475082
 31
0.0
 11
-54.1206875548
 21
-4.6551350874
 31
0.0
 11
-54.2865586022
 21
-4.4661270908
 31
0.0
  0
SPLINE
  5
41A
100
AcDbEntity
  8
DRAFT
100
AcDbSpline
 62
7
  6
CONTINUOUS
 70
0
 71
3
 72
14
 73
10
 74
8
 42
0.0000001
 43
0.0000001
 44
0.0000000001
 12
3.1310620471
 22
0.2442391414
 32
0.0
 13
0.0
 23
3.1405735624
 33
0.0
 40
0.0
 40
0.0
 40
0.0
 40
0.0
 40
0.3078761981
 40
0.4504394364
 40
0.5821338615
 40
0.7017716277
 40
0.8095753257
 40
0.9076073113
 40
1.0
 40
1.0
 40
1.0
 40
1.0
 10
-48.017963979
 20
-8.7999029419
 30
0.0
 10
-47.696637486
 20
-8.7748378025
 30
0.0
 10
-47.2272589167
 20
-8.6914047968
 30
0.0
 10
-46.6551661769
 20
-8.4776264869
 30
0.0
 10
-46.2909538745
 20
-8.2809109548
 30
0.0
 10
-45.9921400404
 20
-8.0494390965
 30
0.0
 10
-45.7681439833
 20
-7.788861145
 30
0.0
 10
-45.6277497993
 20
-7.5057982885
 30
0.0
 10
-45.5952848054
 20
-7.3052600016
 30
0.0
 10
-45.5952848054
 20
-7.2085379897
 30
0.0
 11
-48.017963979
 21
-8.7999029419
 31
0.0
 11
-47.0674728473
 21
-8.6224842405
 31
0.0
 11
-46.6487910978
 21
-8.4638398346
 31
0.0
 11
-46.2861961844
 21
-8.2648760072
 31
0.0
 11
-45.9913444281
 21
-8.0319889514
 31
0.0
 11
-45.7736966296
 21
-7.7726513422
 31
0.0
 11
-45.6402491048
 21
-7.495199009
 31
0.0
 11
-45.5952848054
 21
-7.2085379897
 31
0.0
  0
SPLINE
  5
41B
100
AcDbEntity
  8
RACCORDO
100
AcDbSpline
 62
253
  6
CONTINUOUS
 70
0
 71
3
 72
9
 73
5
 74
3
 42
0.0000001
 43
0.0000001
 44
0.0000000001
 12
0.0118326021
 22
-1.1139653227
 32
0.0
 13
-0.0169079351
 23
-1.1138998484
 33
0.0
 40
0.0
 40
0.0
 40
0.0
 40
0.0
 40
0.5365091171
 40
1.0
 40
1.0
 40
1.0
 40
1.0
 10
-43.5883038428
 20
-4.4202686133
 30
0.0
 10
-43.5861877432
 20
-4.6194861305
 30
0.0
 10
-43.5849187512
 20
-4.9908281467
 30
0.0
 10
-43.5856916182
 20
-5.362187561
 30
0.0
 10
-43.5883038428
 20
-5.5342817024
 30
0.0
 11
-43.5883038428
 21
-4.4202686133
 31
0.0
 11
-43.5854138245
 21
-5.0179478929
 31
0.0
 11
-43.5883038428
 21
-5.5342817024
 31
0.0
  0
SPLINE
  5
41C
100
AcDbEntity
  8
RACCORDO
100
AcDbSpline
 62
253
  6
CONTINUOUS
 70
0
 71
3
 72
9
 73
5
 74
3
 42
0.0000001
 43
0.0000001
 44
0.0000000001
 12
0.2235834277
 22
-0.3391862769
 32
0.0
 13
0.3374833843
 23
-0.2261456276
 33
0.0
 40
0.0
 40
0.0
 40
0.0
 40
0.0
 40
0.4988496015
 40
1.0
 40
1.0
 40
1.0
 40
1.0
 10
-60.6014261619
 20
-7.4471316005
 30
0.0
 10
-60.564247994
 20
-7.5035325801
 30
0.0
 10
-60.4770890156
 20
-7.6084184517
 30
0.0
 10
-60.3726803472
 20
-7.6961063742
 30
0.0
 10
-60.316303703
 20
-7.7338840314
 30
0.0
 11
-60.6014261619
 21
-7.4471316005
 31
0.0
 11
-60.4729969494
 21
-7.6038974051
 31
0.0
 11
-60.316303703
 21
-7.7338840314
 31
0.0
  0
SPLINE
  5
41D
100
AcDbEntity
  8
RACCORDO
100
AcDbSpline
 62
253
  6
CONTINUOUS
 70
0
 71
3
 72
21
 73
17
 74
15
 42
0.0000001
 43
0.0000001
 44
0.0000000001
 12
0.0087267742
 22
-0.5001088868
 32
0.0
 13
-0.5001088392
 23
-0.0087295005
 33
0.0
 40
0.0
 40
0.0
 40
0.0
 40
0.0
 40
0.1949123654
 40
0.3824779272
 40
0.5552160595
 40
0.7066743631
 40
0.7725362712
 40
0.830971326
 40
0.8814083208
 40
0.9233546232
 40
0.9564397977
 40
0.9803199383
 40
0.9887423171
 40
0.9948069533
 40
0.9985204751
 40
1.0
 40
1.0
 40
1.0
 40
1.0
 10
-44.1865586022
 20
-19.2979512127
 30
0.0
 10
-44.1859916168
 20
-19.3304436814
 30
0.0
 10
-44.1849868514
 20
-19.3942058101
 30
0.0
 10
-44.1838509046
 20
-19.4867693419
 30
0.0
 10
-44.1831400983
 20
-19.5720917081
 30
0.0
 10
-44.1829058856
 20
-19.6371258026
 30
0.0
 10
-44.1829792899
 20
-19.6831014998
 30
0.0
 10
-44.1831472982
 20
-19.712235602
 30
0.0
 10
-44.1834275507
 20
-19.7373757474
 30
0.0
 10
-44.183814267
 20
-19.7583033171
 30
0.0
 10
-44.1843011027
 20
-19.774757343
 30
0.0
 10
-44.1848128833
 20
-19.7857125386
 30
0.0
 10
-44.1853118087
 20
-19.7920045267
 30
0.0
 10
-44.1856668038
 20
-19.7951633019
 30
0.0
 10
-44.1859889122
 20
-19.7967493257
 30
0.0
 10
-44.186311961
 20
-19.7978707551
 30
0.0
 10
-44.1865586022
 20
-19.7978750603
 30
0.0
 11
-44.1865586022
 21
-19.2979512127
 31
0.0
 11
-44.1850252645
 21
-19.3954313995
 31
0.0
 11
-44.1838847208
 21
-19.4892419509
 31
0.0
 11
-44.1831831125
 21
-19.5756401285
 31
0.0
 11
-44.1829459694
 21
-19.6513969321
 31
0.0
 11
-44.1830055324
 21
-19.6843400182
 31
0.0
 11
-44.1831831125
 21
-19.7135678179
 31
0.0
 11
-44.1834770317
 21
-19.7387939349
 31
0.0
 11
-44.1838847208
 21
-19.7597708857
 31
0.0
 11
-44.1844022296
 21
-19.7763115007
 31
0.0
 11
-44.1850252645
 21
-19.7882397292
 31
0.0
 11
-44.1853742996
 21
-19.7924379929
 31
0.0
 11
-44.1857469193
 21
-19.7954484603
 31
0.0
 11
-44.1861420459
 21
-19.797263395
 31
0.0
 11
-44.1865586022
 21
-19.7978750603
 31
0.0
  0
SPLINE
  5
41E
100
AcDbEntity
  8
RACCORDO
100
AcDbSpline
 62
253
  6
CONTINUOUS
 70
0
 71
3
 72
13
 73
9
 74
7
 42
0.0000001
 43
0.0000001
 44
0.0000000001
 12
0.0
 22
0.6188793391
 32
0.0
 13
-0.6188483244
 23
0.0061957943
 33
0.0
 40
0.0
 40
0.0
 40
0.0
 40
0.0
 40
0.0906657827
 40
0.1878001661
 40
0.2957363641
 40
0.4164521344
 40
0.6928557464
 40
1.0
 40
1.0
 40
1.0
 40
1.0
 10
-53.7952848054
 20
-8.0538057447
 30
0.0
 10
-53.7952848054
 20
-8.0351020182
 30
0.0
 10
-53.8021711328
 20
-7.9961035729
 30
0.0
 10
-53.8315946527
 20
-7.9417213974
 30
0.0
 10
-53.8781729421
 20
-7.8924246509
 30
0.0
 10
-53.9642298619
 20
-7.8326928455
 30
0.0
 10
-54.1026109143
 20
-7.7817865292
 30
0.0
 10
-54.2232000333
 20
-7.76769554
 30
0.0
 10
-54.2865586022
 20
-7.7670612058
 30
0.0
 11
-53.7952848054
 21
-8.0538057447
 31
0.0
 11
-53.8046838377
 21
-7.9984873692
 31
0.0
 11
-53.8325204012
 21
-7.9452062806
 31
0.0
 11
-53.8777428744
 21
-7.8960422812
 31
0.0
 11
-53.9386597751
 21
-7.8527931123
 31
0.0
 11
-54.0979005463
 21
-7.7903105851
 31
0.0
 11
-54.2865586022
 21
-7.7670612058
 31
0.0
  0
SPLINE
  5
41F
100
AcDbEntity
  8
RACCORDO
100
AcDbSpline
 62
253
  6
CONTINUOUS
 70
0
 71
3
 72
11
 73
7
 74
5
 42
0.0000001
 43
0.0000001
 44
0.0000000001
 12
-0.0000134739
 22
-1.1695523896
 32
0.0
 13
-0.5206651725
 23
-1.047263372
 33
0.0
 40
0.0
 40
0.0
 40
0.0
 40
0.0
 40
0.2496759953
 40
0.4993980566
 40
0.7493098015
 40
1.0
 40
1.0
 40
1.0
 40
1.0
 10
-60.3952848054
 20
-6.3042018488
 30
0.0
 10
-60.3952859268
 20
-6.4015382344
 30
0.0
 10
-60.4021952144
 20
-6.5962887725
 30
0.0
 10
-60.4346670845
 20
-6.8869849788
 30
0.0
 10
-60.4938292311
 20
-7.1737205221
 30
0.0
 10
-60.5579224787
 20
-7.3596187117
 30
0.0
 10
-60.6014310305
 20
-7.4471315992
 30
0.0
 11
-60.3952848054
 21
-6.3042018488
 31
0.0
 11
-60.4058770177
 21
-6.5960188339
 31
0.0
 11
-60.4390913822
 21
-6.886187098
 31
0.0
 11
-60.4999040687
 21
-7.1720756556
 31
0.0
 11
-60.6014310305
 21
-7.4471315992
 31
0.0
  0
SPLINE
  5
420
100
AcDbEntity
  8
RACCORDO
100
AcDbSpline
 62
253
  6
CONTINUOUS
 70
0
 71
3
 72
13
 73
9
 74
7
 42
0.0000001
 43
0.0000001
 44
0.0000000001
 12
0.6349649626
 22
-0.0068928647
 32
0.0
 13
0.0000000005
 23
-0.6350023742
 33
0.0
 40
0.0
 40
0.0
 40
0.0
 40
0.0
 40
0.299752856
 40
0.5722468529
 40
0.6933146559
 40
0.803403522
 40
0.9044365666
 40
1.0
 40
1.0
 40
1.0
 40
1.0
 10
-60.8865586022
 20
17.2994419902
 30
0.0
 10
-60.8231144152
 20
17.2987532715
 30
0.0
 10
-60.7017053076
 20
17.2833519761
 30
0.0
 10
-60.5633064285
 20
17.2276690753
 30
0.0
 10
-60.4777081273
 20
17.1631087116
 30
0.0
 10
-60.4312039693
 20
17.1095138149
 30
0.0
 10
-60.4020717395
 20
17.050616135
 30
0.0
 10
-60.3952848054
 20
17.0087613139
 30
0.0
 10
-60.3952848054
 20
16.9885336449
 30
0.0
 11
-60.8865586022
 21
17.2994419902
 31
0.0
 11
-60.6978914554
 21
17.2742336479
 31
0.0
 11
-60.5386754388
 21
17.2064756879
 31
0.0
 11
-60.4777421138
 21
17.1595991541
 31
0.0
 11
-60.4325195908
 21
17.1062899719
 31
0.0
 11
-60.4046918193
 21
17.0484830855
 31
0.0
 11
-60.3952848054
 21
16.9885336449
 31
0.0
  0
SPLINE
  5
421
100
AcDbEntity
  8
RACCORDO
100
AcDbSpline
 62
253
  6
CONTINUOUS
 70
0
 71
3
 72
13
 73
9
 74
7
 42
0.0000001
 43
0.0000001
 44
0.0000000001
 12
0.6589357363
 22
-0.0079534671
 32
0.0
 13
-0.0
 23
-0.6589837344
 33
0.0
 40
0.0
 40
0.0
 40
0.0
 40
0.0
 40
0.2894279083
 40
0.5567475718
 40
0.6784265971
 40
0.7915606649
 40
0.8977963599
 40
1.0
 40
1.0
 40
1.0
 40
1.0
 10
-60.8865586022
 20
19.2351479606
 30
0.0
 10
-60.8229871383
 20
19.2343806422
 30
0.0
 10
-60.7003072092
 20
19.2169707375
 30
0.0
 10
-60.5619320515
 20
19.1544508336
 30
0.0
 10
-60.4771001493
 20
19.0829230082
 30
0.0
 10
-60.4307678644
 20
19.0232188619
 30
0.0
 10
-60.4019060754
 20
18.9579206741
 30
0.0
 10
-60.3952848054
 20
18.9119009758
 30
0.0
 10
-60.3952848054
 20
18.889450797
 30
0.0
 11
-60.8865586022
 21
19.2351479606
 31
0.0
 11
-60.6979011187
 21
19.2071188304
 31
0.0
 11
-60.538660028
 21
19.1317903656
 31
0.0
 11
-60.477743028
 21
19.0796494708
 31
0.0
 11
-60.4325204818
 21
19.0203776627
 31
0.0
 11
-60.4046838564
 21
18.9561422702
 31
0.0
 11
-60.3952848054
 21
18.889450797
 31
0.0
  0
LINE
  5
422
100
AcDbEntity
  8
RACCORDO
100
AcDbLine
 62
253
  6
CONTINUOUS
 10
-67.1987752867
 20
21.0738952237
 11
-63.424487791
 21
21.007719469
  0
LINE
  5
423
100
AcDbEntity
  8
RACCORDO
100
AcDbLine
 62
253
  6
CONTINUOUS
 10
-63.424487791
 20
21.007719469
 11
-61.9828548285
 21
19.5401425452
  0
SPLINE
  5
424
100
AcDbEntity
  8
RACCORDO
100
AcDbSpline
 62
253
  6
CONTINUOUS
 70
0
 71
3
 72
9
 73
5
 74
3
 42
0.0000001
 43
0.0000001
 44
0.0000000001
 12
0.5365302331
 22
-0.5460015821
 32
0.0
 13
0.765380359
 23
-0.0132410215
 33
0.0
 40
0.0
 40
0.0
 40
0.0
 40
0.0
 40
0.4738020273
 40
1.0
 40
1.0
 40
1.0
 40
1.0
 10
-61.9828548285
 20
19.5401425452
 30
0.0
 10
-61.8981184578
 20
19.4539103263
 30
0.0
 10
-61.6846935344
 20
19.302989604
 30
0.0
 10
-61.4275496592
 20
19.2446102413
 30
0.0
 10
-61.2933024615
 20
19.2422877751
 30
0.0
 11
-61.9828548285
 21
19.5401425452
 31
0.0
 11
-61.6860617392
 21
19.3316716961
 31
0.0
 11
-61.2933024615
 21
19.2422877751
 31
0.0
  0
SPLINE
  5
425
100
AcDbEntity
  8
RACCORDO
100
AcDbSpline
 62
253
  6
CONTINUOUS
 70
0
 71
3
 72
13
 73
9
 74
7
 42
0.0000001
 43
0.0000001
 44
0.0000000001
 12
0.6353784793
 22
0.0069109083
 32
0.0
 13
0.0
 23
0.6354160626
 33
0.0
 40
0.0
 40
0.0
 40
0.0
 40
0.0
 40
0.2995680482
 40
0.5719667773
 40
0.6930442215
 40
0.803187202
 40
0.904315597
 40
1.0
 40
1.0
 40
1.0
 40
1.0
 10
-54.2865586022
 20
-17.2616547443
 30
0.0
 10
-54.2231122385
 20
-17.2609646486
 30
0.0
 10
-54.101681714
 20
-17.2455292239
 30
0.0
 10
-53.9632825737
 20
-17.1897260998
 30
0.0
 10
-53.8776967991
 20
-17.1250432011
 30
0.0
 10
-53.8311951733
 20
-17.0713402453
 30
0.0
 10
-53.8020689126
 20
-17.0123293373
 30
0.0
 10
-53.7952848054
 20
-16.9704018162
 30
0.0
 10
-53.7952848054
 20
-16.9501353473
 30
0.0
 11
-54.2865586022
 21
-17.2616547443
 31
0.0
 11
-54.0978914489
 21
-17.2363968566
 31
0.0
 11
-53.9386754316
 21
-17.1685057235
 31
0.0
 11
-53.8777421078
 21
-17.1215370586
 31
0.0
 11
-53.8325195876
 21
-17.0681231044
 31
0.0
 11
-53.8046918179
 21
-17.0102026093
 31
0.0
 11
-53.7952848054
 21
-16.9501353473
 31
0.0
  0
SPLINE
  5
426
100
AcDbEntity
  8
RACCORDO
100
AcDbSpline
 62
253
  6
CONTINUOUS
 70
0
 71
3
 72
13
 73
9
 74
7
 42
0.0000001
 43
0.0000001
 44
0.0000000001
 12
0.6584782053
 22
0.0079329274
 32
0.0
 13
0.0
 23
0.658525989
 33
0.0
 40
0.0
 40
0.0
 40
0.0
 40
0.0
 40
0.2896172733
 40
0.5570304067
 40
0.678696786
 40
0.7917743363
 40
0.897914793
 40
1.0
 40
1.0
 40
1.0
 40
1.0
 10
-54.2865586022
 20
-19.1192913519
 30
0.0
 10
-54.2229897147
 20
-19.1185255143
 30
0.0
 10
-54.100334818
 20
-19.1011539006
 30
0.0
 10
-53.9619572269
 20
-19.038764079
 30
0.0
 10
-53.8771110041
 20
-18.9673651551
 30
0.0
 10
-53.8307754792
 20
-18.9077754108
 30
0.0
 10
-53.8019082882
 20
-18.8425972406
 30
0.0
 10
-53.7952848054
 20
-18.7966559558
 30
0.0
 10
-53.7952848054
 20
-18.7742473685
 30
0.0
 11
-54.2865586022
 21
-19.1192913519
 31
0.0
 11
-54.0979011252
 21
-19.0913151835
 31
0.0
 11
-53.9386600307
 21
-19.0161290486
 31
0.0
 11
-53.8777430291
 21
-18.964086671
 31
0.0
 11
-53.8325204823
 21
-18.9049268547
 31
0.0
 11
-53.8046838569
 21
-18.8408128317
 31
0.0
 11
-53.7952848054
 21
-18.7742473685
 31
0.0
  0
SPLINE
  5
427
100
AcDbEntity
  8
SMUSSO
100
AcDbSpline
 62
7
  6
CONTINUOUS
 70
0
 71
3
 72
16
 73
12
 74
10
 42
0.0000001
 43
0.0000001
 44
0.0000000001
 12
0.0000109158
 22
-3.3912717117
 32
0.0
 13
3.3911491831
 23
0.028827779
 33
0.0
 40
0.0
 40
0.0
 40
0.0
 40
0.0
 40
0.0452631519
 40
0.0912781917
 40
0.1883580711
 40
0.295955043
 40
0.4161595427
 40
0.5497808052
 40
0.6949704339
 40
0.8469252015
 40
1.0
 40
1.0
 40
1.0
 40
1.0
 10
-52.1452848023
 20
-7.8500171884
 30
0.0
 10
-52.1452846376
 20
-7.9011837373
 30
0.0
 10
-52.1364276754
 20
-8.0045832626
 30
0.0
 10
-52.0827614657
 20
-8.2115238894
 30
0.0
 10
-51.9447528943
 20
-8.4643561152
 30
0.0
 10
-51.6874914705
 20
-8.7309795022
 30
0.0
 10
-51.346904914
 20
-8.9609643514
 30
0.0
 10
-50.9342498269
 20
-9.1474199789
 30
0.0
 10
-50.4652493117
 20
-9.2836599356
 30
0.0
 10
-49.9615650366
 20
-9.3640204809
 30
0.0
 10
-49.6163139811
 20
-9.3801779423
 30
0.0
 10
-49.4432808218
 20
-9.3787070068
 30
0.0
 11
-52.1452848023
 21
-7.8500171884
 31
0.0
 11
-52.1322835642
 21
-8.0029652493
 31
0.0
 11
-52.0933806286
 21
-8.1540877457
 31
0.0
 11
-51.9394294284
 21
-8.4450991442
 31
0.0
 11
-51.6898270021
 21
-8.7112640453
 31
0.0
 11
-51.3543205219
 21
-8.9428040212
 31
0.0
 11
-50.9427186179
 21
-9.1323434021
 31
0.0
 11
-50.4704871458
 21
-9.2717457696
 31
0.0
 11
-49.9618258575
 21
-9.3543187569
 31
0.0
 11
-49.4432808218
 21
-9.3787070068
 31
0.0
  0
SPLINE
  5
428
100
AcDbEntity
  8
RACCORDO
100
AcDbSpline
 62
7
  6
CONTINUOUS
 70
0
 71
3
 72
9
 73
5
 74
3
 42
0.0000001
 43
0.0000001
 44
0.0000000001
 12
0.058379205
 22
-0.3066159973
 32
0.0
 13
0.2131164417
 23
-0.2280414078
 33
0.0
 40
0.0
 40
0.0
 40
0.0
 40
0.0
 40
0.4763253681
 40
1.0
 40
1.0
 40
1.0
 40
1.0
 10
-67.3917525205
 20
21.3591170407
 30
0.0
 10
-67.3824833551
 20
21.3104340481
 30
0.0
 10
-67.3298729112
 20
21.2160565693
 30
0.0
 10
-67.2602213469
 20
21.1395149458
 30
0.0
 10
-67.2230201221
 20
21.0997084457
 30
0.0
 11
-67.3917525205
 21
21.3591170407
 31
0.0
 11
-67.3284975878
 21
21.2245719767
 31
0.0
 11
-67.2230201221
 21
21.0997084457
 31
0.0
  0
SPLINE
  5
429
100
AcDbEntity
  8
RACCORDO
100
AcDbSpline
 62
7
  6
CONTINUOUS
 70
0
 71
3
 72
9
 73
5
 74
3
 42
0.0000001
 43
0.0000001
 44
0.0000000001
 12
0.0583820928
 22
0.3066326419
 32
0.0
 13
0.2131292835
 23
0.2280525254
 33
0.0
 40
0.0
 40
0.0
 40
0.0
 40
0.0
 40
0.4763295929
 40
1.0
 40
1.0
 40
1.0
 40
1.0
 10
-67.3917525205
 20
-21.3591170407
 30
0.0
 10
-67.3824828144
 20
-21.3104309735
 30
0.0
 10
-67.3298676958
 20
-21.2160490284
 30
0.0
 10
-67.2602116317
 20
-21.1395041637
 30
0.0
 10
-67.2230084655
 20
-21.0996960441
 30
0.0
 11
-67.3917525205
 21
-21.3591170407
 31
0.0
 11
-67.3284921202
 21
-21.2245641996
 31
0.0
 11
-67.2230084655
 21
-21.0996960441
 31
0.0
  0
SPLINE
  5
42A
100
AcDbEntity
  8
RACCORDO
100
AcDbSpline
 62
253
  6
CONTINUOUS
 70
0
 71
3
 72
18
 73
14
 74
12
 42
0.0000001
 43
0.0000001
 44
0.0000000001
 12
0.1542018022
 22
0.0027555349
 32
0.0
 13
-0.0015904078
 23
0.15421822
 33
0.0
 40
0.0
 40
0.0
 40
0.0
 40
0.0
 40
0.0043178317
 40
0.0167655845
 40
0.0373736817
 40
0.066094657
 40
0.1028721033
 40
0.147642819
 40
0.2606721734
 40
0.4040308621
 40
0.5764639556
 40
0.7759557771
 40
1.0
 40
1.0
 40
1.0
 40
1.0
 10
-61.2933024459
 20
-19.3964752057
 30
0.0
 10
-61.2930805067
 20
-19.3964712397
 30
0.0
 10
-61.2932061058
 20
-19.3951467998
 30
0.0
 10
-61.292848622
 20
-19.3936723378
 30
0.0
 10
-61.2928603379
 20
-19.3902485407
 30
0.0
 10
-61.2927021754
 20
-19.3859327778
 30
0.0
 10
-61.2926442385
 20
-19.3802221939
 30
0.0
 10
-61.2925511234
 20
-19.3702395041
 30
0.0
 10
-61.2925284944
 20
-19.3547442277
 30
0.0
 10
-61.2925815091
 20
-19.3327046603
 30
0.0
 10
-61.2927325129
 20
-19.30621296
 30
0.0
 10
-61.2929739201
 20
-19.2755765068
 30
0.0
 10
-61.2931837158
 20
-19.2538038514
 30
0.0
 10
-61.2933024897
 20
-19.2422866177
 30
0.0
 11
-61.2933024459
 21
-19.3964752057
 31
0.0
 11
-61.2931262334
 21
-19.3958330191
 31
0.0
 11
-61.2929724014
 21
-19.39391942
 31
0.0
 11
-61.2928413526
 21
-19.3907438098
 31
0.0
 11
-61.2927334898
 21
-19.38631559
 31
0.0
 11
-61.2926492156
 21
-19.3806441622
 31
0.0
 11
-61.2925889128
 21
-19.3737395983
 31
0.0
 11
-61.2925406778
 21
-19.3563075523
 31
0.0
 11
-61.2925889406
 21
-19.3341979076
 31
0.0
 11
-61.2927335384
 21
-19.3076045619
 31
0.0
 11
-61.2929724575
 21
-19.27683858
 31
0.0
 11
-61.2933024897
 21
-19.2422866177
 31
0.0
  0
SPLINE
  5
42B
100
AcDbEntity
  8
RACCORDO
100
AcDbSpline
 62
253
  6
CONTINUOUS
 70
0
 71
3
 72
17
 73
13
 74
11
 42
0.0000001
 43
0.0000001
 44
0.0000000001
 12
0.0004146341
 22
-0.1230073942
 32
0.0
 13
-0.1229893583
 23
-0.0021467872
 33
0.0
 40
0.0
 40
0.0
 40
0.0
 40
0.0
 40
0.2262276838
 40
0.426481072
 40
0.5987802074
 40
0.7415372406
 40
0.8537680729
 40
0.9345652197
 40
0.9629831233
 40
0.983357223
 40
0.9956615799
 40
1.0
 40
1.0
 40
1.0
 40
1.0
 10
-63.4244300075
 20
-21.0077183978
 30
0.0
 10
-63.4243987402
 20
-21.0169942904
 30
0.0
 10
-63.4242841624
 20
-21.0344804164
 30
0.0
 10
-63.4240332934
 20
-21.0590325769
 30
0.0
 10
-63.4238520442
 20
-21.0801555173
 30
0.0
 10
-63.4238057511
 20
-21.0976907522
 30
0.0
 10
-63.4238735009
 20
-21.1114191998
 30
0.0
 10
-63.4239088843
 20
-21.1205817273
 30
0.0
 10
-63.4240474142
 20
-21.1257825148
 30
0.0
 10
-63.4240545009
 20
-21.1284717977
 30
0.0
 10
-63.4242876803
 20
-21.1296554485
 30
0.0
 10
-63.4242521476
 20
-21.1306853671
 30
0.0
 10
-63.4244300075
 20
-21.1306884717
 30
0.0
 11
-63.4244300075
 21
-21.0077183978
 31
0.0
 11
-63.4242591467
 21
-21.0355457092
 31
0.0
 11
-63.424028819
 21
-21.0601774198
 31
0.0
 11
-63.4238645871
 21
-21.0813709715
 31
0.0
 11
-63.4238272287
 21
-21.0989312022
 31
0.0
 11
-63.4238771037
 21
-21.1127364128
 31
0.0
 11
-63.4239716004
 21
-21.1226746665
 31
0.0
 11
-63.4240402394
 21
-21.1261696246
 31
0.0
 11
-63.4241339811
 21
-21.12867405
 31
0.0
 11
-63.4242611342
 21
-21.1301822349
 31
0.0
 11
-63.4244300075
 21
-21.1306884717
 31
0.0
  0
SPLINE
  5
42C
100
AcDbEntity
  8
RACCORDO
100
AcDbSpline
 62
253
  6
CONTINUOUS
 70
0
 71
3
 72
18
 73
14
 74
12
 42
0.0000001
 43
0.0000001
 44
0.0000000001
 12
-0.122619761
 22
-0.0038248264
 32
0.0
 13
0.0004881236
 23
0.1226784285
 33
0.0
 40
0.0
 40
0.0
 40
0.0
 40
0.0
 40
0.0041019374
 40
0.0163397942
 40
0.0366823862
 40
0.0650859245
 40
0.1015052187
 40
0.1458857694
 40
0.2581254791
 40
0.4009286059
 40
0.5733298056
 40
0.7736869008
 40
1.0
 40
1.0
 40
1.0
 40
1.0
 10
-67.1987752787
 20
-21.1965699122
 30
0.0
 10
-67.1989429382
 20
-21.1965751419
 30
0.0
 10
-67.1986639851
 20
-21.1954943464
 30
0.0
 10
-67.1990067508
 20
-21.1943926352
 30
0.0
 10
-67.1988708288
 20
-21.1916729467
 30
0.0
 10
-67.1989780279
 20
-21.1882899974
 30
0.0
 10
-67.1989733502
 20
-21.1837859503
 30
0.0
 10
-67.1990127684
 20
-21.1759102137
 30
0.0
 10
-67.199012799
 20
-21.1636540011
 30
0.0
 10
-67.1989993989
 20
-21.1461795871
 30
0.0
 10
-67.1989516287
 20
-21.1250948949
 30
0.0
 10
-67.1988771907
 20
-21.1005977236
 30
0.0
 10
-67.1988121096
 20
-21.0831498021
 30
0.0
 10
-67.1987752867
 20
-21.0738952237
 30
0.0
 11
-67.1987752787
 21
-21.1965699122
 31
0.0
 11
-67.1988300836
 21
-21.1960696822
 31
0.0
 11
-67.1988778206
 21
-21.1945691084
 31
0.0
 11
-67.1989184019
 21
-21.1920738214
 31
0.0
 11
-67.1989517397
 21
-21.1885894518
 31
0.0
 11
-67.1989777464
 21
-21.1841216304
 31
0.0
 11
-67.198996345
 21
-21.1786770828
 31
0.0
 11
-67.1990112424
 21
-21.1649075907
 31
0.0
 11
-67.1989963604
 21
-21.1473885952
 31
0.0
 11
-67.1989516994
 21
-21.1262385667
 31
0.0
 11
-67.1988777555
 21
-21.1016589897
 31
0.0
 11
-67.1987752867
 21
-21.0738952237
 31
0.0
  0
SPLINE
  5
42D
100
AcDbEntity
  8
RACCORDO
100
AcDbSpline
 62
253
  6
CONTINUOUS
 70
0
 71
3
 72
11
 73
7
 74
5
 42
0.0000001
 43
0.0000001
 44
0.0000000001
 12
0.3268805651
 22
-0.1639031583
 32
0.0
 13
0.2585699906
 23
0.2585666434
 33
0.0
 40
0.0
 40
0.0
 40
0.0
 40
0.0
 40
0.3042849623
 40
0.5701197955
 40
0.7976991698
 40
1.0
 40
1.0
 40
1.0
 40
1.0
 10
-61.9829569337
 20
-19.5402301202
 30
0.0
 10
-61.9498019869
 20
-19.5568545423
 30
0.0
 10
-61.8848845108
 20
-19.5830137544
 30
0.0
 10
-61.7880388647
 20
-19.5992361084
 30
0.0
 10
-61.7022497437
 20
-19.5883652698
 30
0.0
 10
-61.655566687
 20
-19.5602816559
 30
0.0
 10
-61.6381303791
 20
-19.5428455737
 30
0.0
 11
-61.9829569337
 21
-19.5402301202
 31
0.0
 11
-61.8792818376
 21
-19.5806290262
 31
0.0
 11
-61.7831216472
 21
-19.5948635315
 31
0.0
 11
-61.7009055313
 21
-19.5819819561
 31
0.0
 11
-61.6381303791
 21
-19.5428455737
 31
0.0
  0
SPLINE
  5
42E
100
AcDbEntity
  8
RACCORDO
100
AcDbSpline
 62
253
  6
CONTINUOUS
 70
0
 71
3
 72
18
 73
14
 74
12
 42
0.0000001
 43
0.0000001
 44
0.0000000001
 12
0.154894335
 22
0.0027036917
 32
0.0
 13
-0.0015995043
 23
0.1549096722
 33
0.0
 40
0.0
 40
0.0
 40
0.0
 40
0.0
 40
0.0043187858
 40
0.0167694944
 40
0.037382394
 40
0.0661097392
 40
0.1028948298
 40
0.1476741464
 40
0.2607211413
 40
0.4040931849
 40
0.576529208
 40
0.7760041063
 40
1.0
 40
1.0
 40
1.0
 40
1.0
 10
-54.2865586022
 20
-19.2741712161
 30
0.0
 10
-54.286335617
 20
-19.2741673239
 30
0.0
 10
-54.2864615376
 20
-19.2728364943
 30
0.0
 10
-54.2861024513
 20
-19.2713552266
 30
0.0
 10
-54.2861140291
 20
-19.2679152131
 30
0.0
 10
-54.285955081
 20
-19.2635791894
 30
0.0
 10
-54.2858967822
 20
-19.2578418119
 30
0.0
 10
-54.2858031603
 20
-19.2478126231
 30
0.0
 10
-54.2857803796
 20
-19.2322458195
 30
0.0
 10
-54.2858336761
 20
-19.2101056829
 30
0.0
 10
-54.2859854998
 20
-19.1834952342
 30
0.0
 10
-54.2862282246
 20
-19.1527246358
 30
0.0
 10
-54.2864391747
 20
-19.1308577295
 30
0.0
 10
-54.2865586022
 20
-19.1192913527
 30
0.0
 11
-54.2865586022
 21
-19.2741712161
 31
0.0
 11
-54.2863814399
 21
-19.2735260407
 31
0.0
 11
-54.2862267708
 21
-19.271603414
 31
0.0
 11
-54.2860950023
 21
-19.268412826
 31
0.0
 11
-54.2859865416
 21
-19.263963767
 31
0.0
 11
-54.2859017961
 21
-19.2582657271
 31
0.0
 11
-54.285841153
 21
-19.2513288732
 31
0.0
 11
-54.2857926365
 21
-19.233815934
 31
0.0
 11
-54.285841153
 21
-19.2116050868
 31
0.0
 11
-54.2859865416
 21
-19.1848920507
 31
0.0
 11
-54.2862267708
 21
-19.1539907462
 31
0.0
 11
-54.2865586022
 21
-19.1192913527
 31
0.0
  0
LINE
  5
42F
100
AcDbEntity
  8
RACCORDO
100
AcDbLine
 62
253
  6
CONTINUOUS
 10
-71.3952848054
 20
16.1196592168
 11
-60.8865586022
 21
16.0558086086
  0
LINE
  5
430
100
AcDbEntity
  8
RACCORDO
100
AcDbLine
 62
253
  6
CONTINUOUS
 10
-71.3952848054
 20
17.3594294128
 11
-60.8865586022
 21
17.2994419903
  0
LINE
  5
431
100
AcDbEntity
  8
0
100
AcDbLine
 62
253
  6
CONTINUOUS
 10
-67.3952848054
 20
23.2631073613
 11
-71.3952848054
 21
23.333359658
  0
LINE
  5
432
100
AcDbEntity
  8
RACCORDO
100
AcDbLine
 62
253
  6
CONTINUOUS
 10
-61.29330246
 20
-19.242287775
 11
-54.2865586022
 21
-19.1192913519
  0
SPLINE
  5
433
100
AcDbEntity
  8
RACCORDO
100
AcDbSpline
 62
253
  6
CONTINUOUS
 70
0
 71
3
 72
9
 73
5
 74
3
 42
0.0000001
 43
0.0000001
 44
0.0000000001
 12
-0.7659796715
 22
-0.0132512214
 32
0.0
 13
-0.5369546967
 23
-0.5464248399
 33
0.0
 40
0.0
 40
0.0
 40
0.0
 40
0.0
 40
0.5262122362
 40
1.0
 40
1.0
 40
1.0
 40
1.0
 10
-61.29330246
 20
-19.242287775
 30
0.0
 10
-61.4276584187
 20
-19.2446120932
 30
0.0
 10
-61.6850207836
 20
-19.3030773897
 30
0.0
 10
-61.898511802
 20
-19.4542392959
 30
0.0
 10
-61.983312657
 20
-19.5405357635
 30
0.0
 11
-61.29330246
 21
-19.242287775
 31
0.0
 11
-61.6863649239
 21
-19.33181003
 31
0.0
 11
-61.983312657
 21
-19.5405357635
 31
0.0
  0
LINE
  5
434
100
AcDbEntity
  8
RACCORDO
100
AcDbLine
 62
253
  6
CONTINUOUS
 10
-61.983312657
 20
-19.5405357635
 11
-63.4242903526
 21
-21.0077160734
  0
LINE
  5
435
100
AcDbEntity
  8
RACCORDO
100
AcDbLine
 62
253
  6
CONTINUOUS
 10
-63.4242903526
 20
-21.0077160734
 11
-67.1987752867
 21
-21.0738952237
  0
SPLINE
  5
436
100
AcDbEntity
  8
RACCORDO
100
AcDbSpline
 62
253
  6
CONTINUOUS
 70
0
 71
3
 72
11
 73
7
 74
5
 42
0.0000001
 43
0.0000001
 44
0.0000000001
 12
-0.2585670632
 22
0.2585690974
 32
0.0
 13
-0.3268822347
 23
-0.1638990814
 33
0.0
 40
0.0
 40
0.0
 40
0.0
 40
0.0
 40
0.2023018711
 40
0.4298810966
 40
0.6957152319
 40
1.0
 40
1.0
 40
1.0
 40
1.0
 10
-61.6381305741
 20
19.5428439152
 30
0.0
 10
-61.6555667743
 20
19.5602802526
 30
0.0
 10
-61.7022493522
 20
19.5883646494
 30
0.0
 10
-61.7880382048
 20
19.5992372306
 30
0.0
 10
-61.8848839479
 20
19.5830165779
 30
0.0
 10
-61.9498016357
 20
19.5568583072
 30
0.0
 10
-61.9829567307
 20
19.5402343092
 30
0.0
 11
-61.6381305741
 21
19.5428439152
 31
0.0
 11
-61.7009054019
 21
19.5819814095
 31
0.0
 11
-61.7831211445
 21
19.5948645238
 31
0.0
 11
-61.8792812396
 21
19.5806317254
 31
0.0
 11
-61.9829567307
 21
19.5402343092
 31
0.0
  0
SPLINE
  5
437
100
AcDbEntity
  8
RACCORDO
100
AcDbSpline
 62
253
  6
CONTINUOUS
 70
0
 71
3
 72
18
 73
14
 74
12
 42
0.0000001
 43
0.0000001
 44
0.0000000001
 12
0.1229803838
 22
-0.0021466306
 32
0.0
 13
-0.0012237479
 23
-0.1229930294
 33
0.0
 40
0.0
 40
0.0
 40
0.0
 40
0.0
 40
0.0042599986
 40
0.016559176
 40
0.0369384245
 40
0.0653631912
 40
0.1017902676
 40
0.1461706764
 40
0.2584077908
 40
0.4011751498
 40
0.5734908442
 40
0.7737616292
 40
1.0
 40
1.0
 40
1.0
 40
1.0
 10
-63.4244300075
 20
21.1306884717
 30
0.0
 10
-63.4242553754
 20
21.1306854235
 30
0.0
 10
-63.4243574594
 20
21.1296411638
 30
0.0
 10
-63.4240750827
 20
21.1284798171
 30
0.0
 10
-63.4240869697
 20
21.1257783813
 30
0.0
 10
-63.4239630154
 20
21.122371717
 30
0.0
 10
-63.4239186846
 20
21.1178600803
 30
0.0
 10
-63.4238462502
 20
21.1099614298
 30
0.0
 10
-63.4238289721
 20
21.09767634
 30
0.0
 10
-63.4238700576
 20
21.0801608245
 30
0.0
 10
-63.4239872262
 20
21.0590301774
 30
0.0
 10
-63.4241748122
 20
21.0344797845
 30
0.0
 10
-63.4243377212
 20
21.0169936453
 30
0.0
 10
-63.4244300075
 20
21.0077183978
 30
0.0
 11
-63.4244300075
 21
21.1306884717
 31
0.0
 11
-63.4242927655
 21
21.1301827884
 31
0.0
 11
-63.4241731383
 21
21.1286747378
 31
0.0
 11
-63.4240713729
 21
21.1261701748
 31
0.0
 11
-63.4239877162
 21
21.1226749546
 31
0.0
 11
-63.4239224152
 21
21.1181949323
 31
0.0
 11
-63.4238757045
 21
21.112736381
 31
0.0
 11
-63.4238383347
 21
21.0989313656
 31
0.0
 11
-63.4238757045
 21
21.0813711462
 31
0.0
 11
-63.4239877162
 21
21.0601767639
 31
0.0
 11
-63.4241731383
 21
21.0355443321
 31
0.0
 11
-63.4244300075
 21
21.0077183978
 31
0.0
  0
SPLINE
  5
438
100
AcDbEntity
  8
RACCORDO
100
AcDbSpline
 62
253
  6
CONTINUOUS
 70
0
 71
3
 72
11
 73
7
 74
5
 42
0.0000001
 43
0.0000001
 44
0.0000000001
 12
0.3330331546
 22
0.1495573332
 32
0.0
 13
0.2581457708
 23
-0.2581457708
 33
0.0
 40
0.0
 40
0.0
 40
0.0
 40
0.0
 40
0.2923895778
 40
0.5546222277
 40
0.7873032413
 40
1.0
 40
1.0
 40
1.0
 40
1.0
 10
-63.4244300075
 20
21.0077183978
 30
0.0
 10
-63.391971533
 20
21.0222947329
 30
0.0
 10
-63.3269176243
 20
21.0425821062
 30
0.0
 10
-63.2305259518
 20
21.0509974504
 30
0.0
 10
-63.1447751766
 20
21.0329618568
 30
0.0
 10
-63.0979050763
 20
21.0026202709
 30
0.0
 10
-63.0796028201
 20
20.9843180147
 30
0.0
 11
-63.4244300075
 21
21.0077183978
 31
0.0
 11
-63.3225883069
 21
21.0396944362
 31
0.0
 11
-63.227081424
 21
21.0462867168
 31
0.0
 11
-63.1442919257
 21
21.0272694539
 31
0.0
 11
-63.0796028201
 21
20.9843180147
 31
0.0
  0
SPLINE
  5
439
100
AcDbEntity
  8
RACCORDO
100
AcDbSpline
 62
253
  6
CONTINUOUS
 70
0
 71
3
 72
18
 73
14
 74
12
 42
0.0000001
 43
0.0000001
 44
0.0000000001
 12
-0.0004881167
 22
0.1226784284
 32
0.0
 13
0.1226193423
 23
-0.0038382231
 33
0.0
 40
0.0
 40
0.0
 40
0.0
 40
0.0
 40
0.2263128884
 40
0.426669887
 40
0.5990710309
 40
0.741874108
 40
0.8541138351
 40
0.8984944431
 40
0.9349138307
 40
0.9633174759
 40
0.9836601618
 40
0.9958980735
 40
1.0
 40
1.0
 40
1.0
 40
1.0
 10
-67.1987752867
 20
21.0738952237
 30
0.0
 10
-67.198812109
 20
21.0831497935
 30
0.0
 10
-67.19887719
 20
21.1005977024
 30
0.0
 10
-67.1989516292
 20
21.1250948587
 30
0.0
 10
-67.1989994004
 20
21.1461795428
 30
0.0
 10
-67.1990127997
 20
21.1636539527
 30
0.0
 10
-67.1990127679
 20
21.1759101676
 30
0.0
 10
-67.198973349
 20
21.1837859091
 30
0.0
 10
-67.1989780265
 20
21.188289971
 30
0.0
 10
-67.1988708271
 20
21.1916729211
 30
0.0
 10
-67.19900675
 20
21.1943926457
 30
0.0
 10
-67.1986639837
 20
21.1954943176
 30
0.0
 10
-67.1989429371
 20
21.1965751602
 30
0.0
 10
-67.1987752786
 20
21.1965699121
 30
0.0
 11
-67.1987752867
 21
21.0738952237
 31
0.0
 11
-67.198877755
 21
21.1016589638
 31
0.0
 11
-67.1989517
 21
21.1262385289
 31
0.0
 11
-67.1989963616
 21
21.1473885505
 31
0.0
 11
-67.1990112428
 21
21.16490754
 31
0.0
 11
-67.1989963443
 21
21.1786770342
 31
0.0
 11
-67.1989777452
 21
21.1841215888
 31
0.0
 11
-67.1989517383
 21
21.1885894217
 31
0.0
 11
-67.1989184005
 21
21.1920738044
 31
0.0
 11
-67.1988778194
 21
21.1945691029
 31
0.0
 11
-67.1988300828
 21
21.1960696834
 31
0.0
 11
-67.1987752786
 21
21.1965699121
 31
0.0
  0
SPLINE
  5
43A
100
AcDbEntity
  8
RACCORDO
100
AcDbSpline
 62
253
  6
CONTINUOUS
 70
0
 71
3
 72
18
 73
14
 74
12
 42
0.0000001
 43
0.0000001
 44
0.0000000001
 12
0.0015915284
 22
0.1542563483
 32
0.0
 13
-0.1542410627
 23
0.0026923098
 33
0.0
 40
0.0
 40
0.0
 40
0.0
 40
0.0
 40
0.2240424801
 40
0.4235339962
 40
0.5959675878
 40
0.7393270713
 40
0.8523572015
 40
0.8971282051
 40
0.9339058326
 40
0.9626268687
 40
0.9832348952
 40
0.9956824425
 40
1.0
 40
1.0
 40
1.0
 40
1.0
 10
-60.8865586022
 20
19.2351479606
 30
0.0
 10
-60.8864397456
 20
19.2466679523
 30
0.0
 10
-60.8862298063
 20
19.2684458856
 30
0.0
 10
-60.8859882408
 20
19.2990898339
 30
0.0
 10
-60.8858371467
 20
19.3255881365
 30
0.0
 10
-60.8857841075
 20
19.3476332581
 30
0.0
 10
-60.8858067707
 20
19.363132467
 30
0.0
 10
-60.8858999475
 20
19.3731176812
 30
0.0
 10
-60.8859579485
 20
19.3788297205
 30
0.0
 10
-60.886116167
 20
19.383146516
 30
0.0
 10
-60.8861045662
 20
19.3865712417
 30
0.0
 10
-60.886462067
 20
19.3880458764
 30
0.0
 10
-60.8863366206
 20
19.3893707699
 30
0.0
 10
-60.8865586022
 20
19.3893746446
 30
0.0
 11
-60.8865586022
 21
19.2351479606
 31
0.0
 11
-60.8862283447
 21
19.2697081969
 31
0.0
 11
-60.8859892692
 21
19.3004817389
 31
0.0
 11
-60.8858445844
 21
19.3270817373
 31
0.0
 11
-60.8857963029
 21
19.3491969719
 31
0.0
 11
-60.8858445843
 21
19.3666334482
 31
0.0
 11
-60.8859049336
 21
19.3735397636
 31
0.0
 11
-60.8859892692
 21
19.3792126212
 31
0.0
 11
-60.8860972074
 21
19.3836419442
 31
0.0
 11
-60.8862283447
 21
19.3868183265
 31
0.0
 11
-60.8863822774
 21
19.388732362
 31
0.0
 11
-60.8865586022
 21
19.3893746446
 31
0.0
  0
SPLINE
  5
43B
100
AcDbEntity
  8
RACCORDO
100
AcDbSpline
 62
253
  6
CONTINUOUS
 70
0
 71
3
 72
18
 73
14
 74
12
 42
0.0000001
 43
0.0000001
 44
0.0000000001
 12
0.0015903888
 22
0.154216249
 32
0.0
 13
-0.1542020333
 23
0.0026293929
 33
0.0
 40
0.0
 40
0.0
 40
0.0
 40
0.0
 40
0.2240461645
 40
0.423539333
 40
0.595973186
 40
0.7393320669
 40
0.8523610765
 40
0.8971314281
 40
0.9339083894
 40
0.9626287625
 40
0.9832361435
 40
0.9956830708
 40
1.0
 40
1.0
 40
1.0
 40
1.0
 10
-61.2933024604
 20
19.242287775
 30
0.0
 10
-61.2931836869
 20
19.2538049613
 30
0.0
 10
-61.2929738941
 20
19.2755775077
 30
0.0
 10
-61.2927324946
 20
19.3062137768
 30
0.0
 10
-61.292581499
 20
19.3327052586
 30
0.0
 10
-61.2925284893
 20
19.3547445704
 30
0.0
 10
-61.2925511254
 20
19.3702396341
 30
0.0
 10
-61.2926442445
 20
19.3802221166
 30
0.0
 10
-61.2927021924
 20
19.3859325911
 30
0.0
 10
-61.292860344
 20
19.3902481078
 30
0.0
 10
-61.2928486703
 20
19.3936719693
 30
0.0
 10
-61.2932060754
 20
19.3951459186
 30
0.0
 10
-61.2930805783
 20
19.3964706016
 30
0.0
 10
-61.2933024714
 20
19.3964743852
 30
0.0
 11
-61.2933024604
 21
19.242287775
 31
0.0
 11
-61.2929724321
 21
19.2768395952
 31
0.0
 11
-61.2927335206
 21
19.3076053916
 31
0.0
 11
-61.2925889304
 21
19.3341985146
 31
0.0
 11
-61.292540674
 21
19.3563079064
 31
0.0
 11
-61.2925889164
 21
19.3737396764
 31
0.0
 11
-61.2926492238
 21
19.3806440959
 31
0.0
 11
-61.2927335034
 21
19.3863153763
 31
0.0
 11
-61.2928413715
 21
19.3907434464
 31
0.0
 11
-61.2929724246
 21
19.3939189052
 31
0.0
 11
-61.2931262591
 21
19.3958323518
 31
0.0
 11
-61.2933024714
 21
19.3964743852
 31
0.0
  0
LINE
  5
43C
100
AcDbEntity
  8
RACCORDO
100
AcDbLine
 62
253
  6
CONTINUOUS
 10
-71.3952848054
 20
-17.3594294128
 11
-54.2865586022
 21
-17.2616547443
  0
LINE
  5
43D
100
AcDbEntity
  8
RACCORDO
100
AcDbLine
 62
253
  6
CONTINUOUS
 10
-71.3952848054
 20
-16.1196592168
 11
-54.2865586022
 21
-16.0155771563
  0
LINE
  5
43E
100
AcDbEntity
  8
0
100
AcDbLine
 62
253
  6
CONTINUOUS
 10
-67.3952848054
 20
-23.2631073613
 11
-71.3952848054
 21
-23.333359658
  0
SPLINE
  5
43F
100
AcDbEntity
  8
RACCORDO
100
AcDbSpline
 62
253
  6
CONTINUOUS
 70
0
 71
3
 72
13
 73
9
 74
7
 42
0.0000001
 43
0.0000001
 44
0.0000000001
 12
0.0
 22
-0.6188731501
 32
0.0
 13
0.6188421365
 23
-0.0061956492
 33
0.0
 40
0.0
 40
0.0
 40
0.0
 40
0.0
 40
0.0906239481
 40
0.1878001
 40
0.2957398321
 40
0.4164636128
 40
0.692838227
 40
1.0
 40
1.0
 40
1.0
 40
1.0
 10
-60.3952848054
 20
-6.3042018488
 30
0.0
 10
-60.3952848054
 20
-6.3228967582
 30
0.0
 10
-60.3883713887
 20
-6.3618875809
 30
0.0
 10
-60.3589897598
 20
-6.4162880751
 30
0.0
 10
-60.3123980937
 20
-6.4655951835
 30
0.0
 10
-60.2263199287
 20
-6.5252832227
 30
0.0
 10
-60.087965848
 20
-6.5762387578
 30
0.0
 10
-59.9673725579
 20
-6.5903120322
 30
0.0
 10
-59.9040110086
 20
-6.5909463877
 30
0.0
 11
-60.3952848054
 21
-6.3042018488
 31
0.0
 11
-60.3858777848
 21
-6.3594920351
 31
0.0
 11
-60.3580500034
 21
-6.4128061932
 31
0.0
 11
-60.3128274626
 21
-6.4619721944
 31
0.0
 11
-60.2518941263
 21
-6.5052054806
 31
0.0
 11
-60.0926781056
 21
-6.5676972691
 31
0.0
 11
-59.9040110086
 21
-6.5909463877
 31
0.0
  0
SPLINE
  5
440
100
AcDbEntity
  8
RACCORDO
100
AcDbSpline
 62
253
  6
CONTINUOUS
 70
0
 71
3
 72
13
 73
9
 74
7
 42
0.0000001
 43
0.0000001
 44
0.0000000001
 12
0.0
 22
-0.6188731338
 32
0.0
 13
0.6188421194
 23
-0.0061957322
 33
0.0
 40
0.0
 40
0.0
 40
0.0
 40
0.0
 40
0.0906239199
 40
0.1878000315
 40
0.2957397348
 40
0.4164635056
 40
0.6928381331
 40
1.0
 40
1.0
 40
1.0
 40
1.0
 10
-60.3952848054
 20
8.4101091835
 30
0.0
 10
-60.3952848054
 20
8.3914142804
 30
0.0
 10
-60.3883713981
 20
8.3524234713
 30
0.0
 10
-60.3589897716
 20
8.2980230003
 30
0.0
 10
-60.3123981259
 20
8.2487158995
 30
0.0
 10
-60.2263199724
 20
8.1890278566
 30
0.0
 10
-60.0879658832
 20
8.1380722993
 30
0.0
 10
-59.9673725755
 20
8.1239990088
 30
0.0
 10
-59.9040110086
 20
8.1233646446
 30
0.0
 11
-60.3952848054
 21
8.4101091835
 31
0.0
 11
-60.3858777915
 21
8.3548190153
 31
0.0
 11
-60.35805002
 21
8.3015048819
 31
0.0
 11
-60.312827497
 21
8.252338891
 31
0.0
 11
-60.251894172
 21
8.2091056029
 31
0.0
 11
-60.0926781554
 21
8.1466137937
 31
0.0
 11
-59.9040110086
 21
8.1233646446
 31
0.0
  0
SPLINE
  5
441
100
AcDbEntity
  8
RACCORDO
100
AcDbSpline
 62
253
  6
CONTINUOUS
 70
0
 71
3
 72
22
 73
18
 74
16
 42
0.0000001
 43
0.0000001
 44
0.0000000001
 12
-0.4264704003
 22
0.0037378246
 32
0.0
 13
0.0045450937
 23
-0.4264625608
 33
0.0
 40
0.0
 40
0.0
 40
0.0
 40
0.0
 40
0.0010638365
 40
0.0042297516
 40
0.0094984675
 40
0.0168658225
 40
0.0263271093
 40
0.0378774605
 40
0.0672051531
 40
0.1047257783
 40
0.1503039913
 40
0.2037953832
 40
0.2649920613
 40
0.4095588723
 40
0.5819652295
 40
0.7798312723
 40
1.0
 40
1.0
 40
1.0
 40
1.0
 10
-59.9074361419
 20
8.5498296468
 30
0.0
 10
-59.9075873735
 20
8.5498309723
 30
0.0
 10
-59.9073582282
 20
8.5488691418
 30
0.0
 10
-59.907653637
 20
8.5478669116
 30
0.0
 10
-59.9075398271
 20
8.5454229155
 30
0.0
 10
-59.9076277419
 20
8.5423688578
 30
0.0
 10
-59.9076159513
 20
8.538300691
 30
0.0
 10
-59.9076313846
 20
8.5311603964
 30
0.0
 10
-59.9075955532
 20
8.5200045903
 30
0.0
 10
-59.9075257251
 20
8.5040264985
 30
0.0
 10
-59.9074079994
 20
8.4846072339
 30
0.0
 10
-59.9072488651
 20
8.4618245257
 30
0.0
 10
-59.9069626324
 20
8.4249691402
 30
0.0
 10
-59.9064964791
 20
8.3712098122
 30
0.0
 10
-59.9058059726
 20
8.2980223034
 30
0.0
 10
-59.904966346
 20
8.2140880729
 30
0.0
 10
-59.9043445711
 20
8.1546625511
 30
0.0
 10
-59.9040110086
 20
8.1233646446
 30
0.0
 11
-59.9074361419
 21
8.5498296468
 31
0.0
 11
-59.9074949245
 21
8.5493797586
 31
0.0
 11
-59.9075427224
 21
8.548030384
 31
0.0
 11
-59.9075795044
 21
8.5457836474
 31
0.0
 11
-59.9076052391
 21
8.5426416732
 31
0.0
 11
-59.9076198954
 21
8.5386065861
 31
0.0
 11
-59.9076234421
 21
8.5336805153
 31
0.0
 11
-59.9075971868
 21
8.5211726697
 31
0.0
 11
-59.9075266504
 21
8.5051707745
 31
0.0
 11
-59.9074120718
 21
8.4857326069
 31
0.0
 11
-59.9072537436
 21
8.4629197848
 31
0.0
 11
-59.9070523374
 21
8.4368209877
 31
0.0
 11
-59.9065236383
 21
8.3751674208
 31
0.0
 11
-59.905833631
 21
8.3016416263
 31
0.0
 11
-59.9049919414
 21
8.2172585725
 31
0.0
 11
-59.9040110086
 21
8.1233646446
 31
0.0
  0
SPLINE
  5
442
100
AcDbEntity
  8
RACCORDO
100
AcDbSpline
 62
253
  6
CONTINUOUS
 70
0
 71
3
 72
22
 73
18
 74
16
 42
0.0000001
 43
0.0000001
 44
0.0000000001
 12
0.4258512838
 22
-0.0201781255
 32
0.0
 13
-0.0036294233
 23
-0.4263136169
 33
0.0
 40
0.0
 40
0.0
 40
0.0
 40
0.0
 40
0.0010672724
 40
0.0042384874
 40
0.0095122564
 40
0.016884091
 40
0.0263491549
 40
0.0379025055
 40
0.067233723
 40
0.1047549327
 40
0.1503313574
 40
0.2038190334
 40
0.2650102454
 40
0.4095622594
 40
0.581954722
 40
0.7798196829
 40
1.0
 40
1.0
 40
1.0
 40
1.0
 10
-43.5855635146
 20
8.1530422356
 30
0.0
 10
-43.5854120148
 20
8.1530350571
 30
0.0
 10
-43.5856691554
 20
8.1520887493
 30
0.0
 10
-43.5853621822
 20
8.1510682945
 30
0.0
 10
-43.5854933284
 20
8.1486325437
 30
0.0
 10
-43.5854053696
 20
8.145573453
 30
0.0
 10
-43.5854216441
 20
8.1415068374
 30
0.0
 10
-43.585406087
 20
8.1343669314
 30
0.0
 10
-43.585436897
 20
8.1232147521
 30
0.0
 10
-43.5854918404
 20
8.1072419552
 30
0.0
 10
-43.5855862873
 20
8.0878305279
 30
0.0
 10
-43.585713328
 20
8.0650575756
 30
0.0
 10
-43.5859420724
 20
8.0282188386
 30
0.0
 10
-43.5863146877
 20
7.9744835129
 30
0.0
 10
-43.5868672242
 20
7.9013261344
 30
0.0
 10
-43.5875399231
 20
7.817421923
 30
0.0
 10
-43.588037467
 20
7.7580157165
 30
0.0
 10
-43.5883038428
 20
7.7267270941
 30
0.0
 11
-43.5855635146
 21
8.1530422356
 31
0.0
 11
-43.5855165365
 21
8.152589658
 31
0.0
 11
-43.5854783382
 21
8.1512382166
 31
0.0
 11
-43.5854489463
 21
8.1489900477
 31
0.0
 11
-43.585428387
 21
8.1458472876
 31
0.0
 11
-43.5854166867
 21
8.1418120727
 31
0.0
 11
-43.5854138717
 21
8.1368865443
 31
0.0
 11
-43.5854349108
 21
8.1243818115
 31
0.0
 11
-43.5854913395
 21
8.1083855287
 31
0.0
 11
-43.5855829399
 21
8.0889551901
 31
0.0
 11
-43.5857094578
 21
8.0661521901
 31
0.0
 11
-43.5858703897
 21
8.0400650942
 31
0.0
 11
-43.5862930476
 21
7.9784398185
 31
0.0
 11
-43.5868451857
 21
7.9049459748
 31
0.0
 11
-43.5875192604
 21
7.8205930841
 31
0.0
 11
-43.5883038428
 21
7.7267270941
 31
0.0
  0
SPLINE
  5
443
100
AcDbEntity
  8
RACCORDO
100
AcDbSpline
 62
253
  6
CONTINUOUS
 70
0
 71
3
 72
11
 73
7
 74
5
 42
0.0000001
 43
0.0000001
 44
0.0000000001
 12
-0.2581251661
 22
-0.2581251661
 32
0.0
 13
-0.3390843923
 23
0.1351997696
 33
0.0
 40
0.0
 40
0.0
 40
0.0
 40
0.0
 40
0.2141085939
 40
0.4455962601
 40
0.7069333379
 40
1.0
 40
1.0
 40
1.0
 40
1.0
 10
-63.0796028201
 20
-20.9843180147
 30
0.0
 10
-63.0980250922
 20
-21.0027402868
 30
0.0
 10
-63.144804164
 20
-21.0333404111
 30
0.0
 10
-63.2305595085
 20
-21.0508947943
 30
0.0
 10
-63.3269087328
 20
-21.0424471786
 30
0.0
 10
-63.3913052305
 20
-21.0209259128
 30
0.0
 10
-63.4244300075
 20
-21.0077183978
 30
0.0
 11
-63.0796028201
 21
-20.9843180147
 31
0.0
 11
-63.1446592226
 21
-21.0276366766
 31
0.0
 11
-63.2270791325
 21
-21.0462847553
 31
0.0
 11
-63.322224875
 21
-21.0393303362
 31
0.0
 11
-63.4244300075
 21
-21.0077183978
 31
0.0
  0
SPLINE
  5
444
100
AcDbEntity
  8
SMUSSO
100
AcDbSpline
 62
7
  6
CONTINUOUS
 70
0
 71
3
 72
9
 73
5
 74
3
 42
0.0000001
 43
0.0000001
 44
0.0000000001
 12
-0.3278555841
 22
-0.196482447
 32
0.0
 13
-0.2994590222
 23
-0.2375266932
 33
0.0
 40
0.0
 40
0.0
 40
0.0
 40
0.0
 40
0.2573584879
 40
1.0
 40
1.0
 40
1.0
 40
1.0
 10
-51.8465673345
 20
-7.0238638671
 30
0.0
 10
-51.8746928069
 20
-7.0407193423
 30
0.0
 10
-51.9829813891
 20
-7.1078508189
 30
0.0
 10
-52.0871765144
 20
-7.1816733831
 30
0.0
 10
-52.1613067481
 20
-7.240472444
 30
0.0
 11
-51.8465673345
 21
-7.0238638671
 31
0.0
 11
-51.9301596549
 21
-7.0757162263
 31
0.0
 11
-52.1613067481
 21
-7.240472444
 31
0.0
  0
SPLINE
  5
445
100
AcDbEntity
  8
SMUSSO
100
AcDbSpline
 62
7
  6
CONTINUOUS
 70
0
 71
3
 72
21
 73
17
 74
15
 42
0.0000001
 43
0.0000001
 44
0.0000000001
 12
-4.4389061253
 22
-3.520878034
 32
0.0
 13
5.6656607271
 23
0.027536236
 33
0.0
 40
0.0
 40
0.0
 40
0.0
 40
0.0
 40
0.0605219867
 40
0.1165401235
 40
0.1686005708
 40
0.2177563302
 40
0.2655843864
 40
0.3139328771
 40
0.3645366992
 40
0.4186740389
 40
0.4771015437
 40
0.5402634149
 40
0.6084101651
 40
0.6814535365
 40
0.8382061077
 40
1.0
 40
1.0
 40
1.0
 40
1.0
 10
-52.1613067481
 20
-7.240472444
 30
0.0
 10
-52.2508572206
 20
-7.3115026219
 30
0.0
 10
-52.4146765768
 20
-7.4598641169
 30
0.0
 10
-52.6147090212
 20
-7.7095809412
 30
0.0
 10
-52.7547228703
 20
-7.9737591839
 30
0.0
 10
-52.8306930487
 20
-8.2473369884
 30
0.0
 10
-52.8398976516
 20
-8.5243413046
 30
0.0
 10
-52.7819070591
 20
-8.7980625953
 30
0.0
 10
-52.6587734084
 20
-9.0621175609
 30
0.0
 10
-52.4742973427
 20
-9.3111686461
 30
0.0
 10
-52.2331260673
 20
-9.5411508326
 30
0.0
 10
-51.9397178678
 20
-9.7487215422
 30
0.0
 10
-51.5985432296
 20
-9.9310098615
 30
0.0
 10
-51.0753259028
 20
-10.1405722382
 30
0.0
 10
-50.351542671
 20
-10.3119657821
 30
0.0
 10
-49.7488377395
 20
-10.355267329
 30
0.0
 10
-49.4432813057
 20
-10.3537822641
 30
0.0
 11
-52.1613067481
 21
-7.240472444
 31
0.0
 11
-52.4141160709
 21
-7.472137301
 31
0.0
 11
-52.610811731
 21
-7.7212218392
 31
0.0
 11
-52.7471136463
 21
-7.9828004614
 31
0.0
 11
-52.8202485154
 21
-8.2515294932
 31
0.0
 11
-52.8289613669
 21
-8.5223701249
 31
0.0
 11
-52.7731305279
 21
-8.7905495847
 31
0.0
 11
-52.6536389554
 21
-9.0511698824
 31
0.0
 11
-52.4728510214
 21
-9.2989549394
 31
0.0
 11
-52.2347389412
 21
-9.5289252945
 31
0.0
 11
-51.9436851685
 21
-9.7371319724
 31
0.0
 11
-51.6038713633
 21
-9.9204363722
 31
0.0
 11
-51.2201865563
 21
-10.0755257004
 31
0.0
 11
-50.3574876925
 21
-10.2864833823
 31
0.0
 11
-49.4432813057
 21
-10.3537822641
 31
0.0
  0
ELLIPSE
  5
446
100
AcDbEntity
  8
RACCORDO
100
AcDbEllipse
 62
7
  6
CONTINUOUS
 10
11.3518175871
 20
0.842231273
 30
0.0
 11
0.0750461588
 21
0.7399977203
 31
0.0
 40
0.6695946412
 41
-3.8121937215
 42
-3.633373982
  0
ELLIPSE
  5
447
100
AcDbEntity
  8
RACCORDO
100
AcDbEllipse
 62
7
  6
CONTINUOUS
 10
-10.0386161349
 20
0.5925883393
 30
0.0
 11
0.0979422776
 21
0.8989029185
 31
0.0
 40
0.5509726814
 41
0.131724625
 42
0.7998331443
  0
ELLIPSE
  5
448
100
AcDbEntity
  8
RACCORDO
100
AcDbEllipse
 62
7
  6
CONTINUOUS
 10
10.0386161349
 20
0.5925883393
 30
0.0
 11
-0.0979422776
 21
0.8989029185
 31
0.0
 40
0.5509726814
 41
-0.7998331443
 42
-0.131724625
  0
ELLIPSE
  5
449
100
AcDbEntity
  8
RACCORDO
100
AcDbEllipse
 62
7
  6
CONTINUOUS
 10
-11.3518175871
 20
0.842231273
 30
0.0
 11
-0.0750461588
 21
0.7399977203
 31
0.0
 40
0.6695946412
 41
-2.6498113252
 42
-2.4709915856
  0
ELLIPSE
  5
44A
100
AcDbEntity
  8
SUPERFICI
100
AcDbEllipse
 62
7
  6
CONTINUOUS
 10
21.899923836
 20
-21.899313827
 30
0.0
 11
-0.1582391023
 21
0.4751033573
 31
0.0
 40
0.9984778551
 41
-3.4626430041
 42
-1.8927600658
  0
ELLIPSE
  5
44B
100
AcDbEntity
  8
SUPERFICI
100
AcDbEllipse
 62
7
  6
CONTINUOUS
 10
21.899923836
 20
21.899313827
 30
0.0
 11
0.1582391023
 21
0.4751033573
 31
0.0
 40
0.9984778551
 41
-1.2488325878
 42
0.3210503505
  0
ELLIPSE
  5
44C
100
AcDbEntity
  8
SUPERFICI
100
AcDbEllipse
 62
7
  6
CONTINUOUS
 10
-21.899923836
 20
-21.899313827
 30
0.0
 11
0.1582391023
 21
0.4751033573
 31
0.0
 40
0.9984778551
 41
-4.3904252414
 42
-2.8205423031
  0
ELLIPSE
  5
44D
100
AcDbEntity
  8
SUPERFICI
100
AcDbEllipse
 62
7
  6
CONTINUOUS
 10
-21.899923836
 20
21.899313827
 30
0.0
 11
-0.1582391023
 21
0.4751033573
 31
0.0
 40
0.9984778551
 41
-0.3210503505
 42
1.2488325878
  0
ELLIPSE
  5
44E
100
AcDbEntity
  8
DRAFT
100
AcDbEllipse
 62
7
  6
CONTINUOUS
 10
-49.3952848054
 20
-7.2421365582
 30
0.0
 11
2.7499486711
 21
0.0292955901
 31
0.0
 40
0.5735327587
 41
-2.9607287688
 42
-1.5943594685
  0
ELLIPSE
  5
44F
100
AcDbEntity
  8
RACCORDO
100
AcDbEllipse
 62
7
  6
CONTINUOUS
 10
-43.5952848054
 20
-6.1559690179
 30
0.0
 11
0.3999945284
 21
0.00852313
 31
0.0
 40
0.2454708739
 41
-1.5585735086
 42
-0.0052304743
  0
ELLIPSE
  5
450
100
AcDbEntity
  8
DRAFT
100
AcDbEllipse
 62
7
  6
CONTINUOUS
 10
-48.3952848054
 20
-6.8254119045
 30
0.0
 11
2.7999477378
 21
0.0298282372
 31
0.0
 40
0.5735327587
 41
4.7237324238
 42
6.1523273366
  0
ELLIPSE
  5
451
100
AcDbEntity
  8
RACCORDO
100
AcDbEllipse
 62
7
  6
CONTINUOUS
 10
-43.5952848054
 20
-9.7714552519
 30
0.0
 11
-0.0118602932
 21
0.5570839366
 31
0.0
 40
0.7177089517
 41
-3.1537944405
 42
-1.6004514063
  0
ENDSEC
  0
SECTION
  2
OBJECTS
  0
DICTIONARY
  5
C
100
AcDbDictionary
280
0
281
1
  3
ACAD_GROUP
350
D
  3
ACAD_MLINESTYLE
350
17
  3
ACAD_LAYOUT
350
1A
  3
ACAD_PLOTSETTINGS
350
19
  3
ACAD_PLOTSTYLENAME
350
E
  0
DICTIONARY
  5
D
102
{ACAD_REACTORS
330
C
102
}
100
AcDbDictionary
280
0
281
1
  0
ACDBDICTIONARYWDFLT
  5
E
102
{ACAD_REACTORS
330
C
102
}
100
AcDbDictionary
281
1
  3
Normal
350
F
100
AcDbDictionaryWithDefault
340
F
  0
DICTIONARY
  5
17
102
{ACAD_REACTORS
330
C
102
}
100
AcDbDictionary
280
0
281
1
  3
Standard
350
18
  0
DICTIONARY
  5
19
102
{ACAD_REACTORS
330
C
102
}
100
AcDbDictionary
281
1
  0
DICTIONARY
  5
1A
102
{ACAD_REACTORS
330
C
102
}
100
AcDbDictionary
281
1
  3
Model
350
452
  3
Layout1
350
453
  0
ACDBPLACEHOLDER
  5
F
102
{ACAD_REACTORS
330
E
102
}
  0
MLINESTYLE
  5
18
102
{ACAD_REACTORS
330
17
102
}
100
AcDbMlineStyle
  2
STANDARD
 70
0
  3

 62
256
 51
90.0
 52
90.0
 71
2
 49
0.5
 62
256
  6
BYLAYER
 49
-0.5
 62
256
  6
BYLAYER
  0
LAYOUT
  5
452
102
{ACAD_REACTORS
330
1A
102
}
100
AcDbPlotSettings
  1

  2
none_device
  4
ISO_A4_(297.00_x_210.00_MM)
  6

 40
0.0
 41
0.0
 42
0.0
 43
0.0
 44
297.0
 45
210.0
 46
0.0
 47
0.0
 48
0.0
 49
0.0
140
0.0
141
0.0
142
1.0
143
1.0
 70
1024
 72
1
 73
0
 74
0
  7

 75
0
147
1.0
148
0.0
149
0.0
100
AcDbLayout
  1
Model
 70
0
 71
0
 10
0.0
 20
0.0
 11
297.0
 21
210.0
 12
0.0
 22
0.0
 32
0.0
 14
0.0
 24
0.0
 34
0.0
 15
0.0
 25
0.0
 35
0.0
146
0.0
 13
0.0
 23
0.0
 33
0.0
 16
1.0
 26
0.0
 36
0.0
 17
0.0
 27
1.0
 37
0.0
 76
0
330
216
345
0
346
0
  0
LAYOUT
  5
453
102
{ACAD_REACTORS
330
1A
102
}
100
AcDbPlotSettings
  1

  2
none_device
  4
ISO_A4_(297.00_x_210.00_MM)
  6

 40
0.0
 41
0.0
 42
0.0
 43
0.0
 44
297.0
 45
210.0
 46
0.0
 47
0.0
 48
0.0
 49
0.0
140
0.0
141
0.0
142
1.0
143
1.0
 70
0
 72
1
 73
0
 74
0
  7

 75
0
147
1.0
148
0.0
149
0.0
100
AcDbLayout
  1
Layout1
 70
0
 71
1
 10
0.0
 20
0.0
 11
297.0
 21
210.0
 12
0.0
 22
0.0
 32
0.0
 14
0.0
 24
0.0
 34
0.0
 15
0.0
 25
0.0
 35
0.0
146
0.0
 13
0.0
 23
0.0
 33
0.0
 16
1.0
 26
0.0
 36
0.0
 17
0.0
 27
1.0
 37
0.0
 76
0
330
217
345
0
346
0
  0
ENDSEC
  0
EOF
