  0
SECTION
  2
HEADER
  9
$ACADVER
  1
AC1024
  9
$DWGCODEPAGE
  3
ANSI_1252
  9
$EXTMAX
 10
297.0
 20
210.0
 30
0.0
  9
$EXTMIN
 10
0.0
 20
0.0
 30
0.0
  9
$LIMMIN
 10
0.0
 20
0.0
  9
$LIMMAX
 10
297.0
 20
210.0
  9
$VIEWCTR
 10
148.5
 20
105.0
  9
$VIEWSIZE
 40
210.0
  9
$CLAYER
  8
0
  9
$LTSCALE
 40
16.335
  9
$CELTYPE
  6
BYLAYER
  9
$DIMSCALE
 40
1.0
  9
$DIMASZ
 40
3.0
  9
$DIMEXO
 40
0.5
  9
$DIMDLI
 40
11.286
  9
$DIMEXE
 40
1.5
  9
$DIMCEN
 40
2.673
  9
$DIMLFAC
 40
1.0
  9
$DIMBLK
  1
_FILLED
  9
$DIMALT
 70
0
  9
$DIMALTF
 40
0.0393700787
  9
$DIMTXT
 40
3.0
  9
$DIMTOL
 70
1
  9
$DIMLIM
 70
0
  9
$DIMTFAC
 40
1.0
  9
$DIMTP
 40
0.01
  9
$DIMTM
 40
0.01
  9
$DIMGAP
 40
0.625
  9
$DIMDSEP
 70
44
  9
$AUNITS
 70
0
  9
$PDMODE
 70
3
  9
$PDSIZE
 40
3.0
  9
$HANDSEED
  5
47F
  9
$TILEMODE
 70
1
  9
$MEASUREMENT
 70
1
  9
$INSUNITS
 70
4
  0
ENDSEC
  0
SECTION
  2
CLASSES
  0
CLASS
  1
ACDBDICTIONARYWDFLT
  2
AcDbDictionaryWithDefault
  3
AutoCAD 2000
 90
0
 91
1
280
0
281
0
  0
CLASS
  1
ACDBPLACEHOLDER
  2
AcDbPlaceHolder
  3
AutoCAD 2000
 90
0
 91
1
280
0
281
0
  0
CLASS
  1
LAYOUT
  2
AcDbLayout
  3
AutoCAD 2000
 90
0
 91
0
280
0
281
0
  0
ENDSEC
  0
SECTION
  2
TABLES
  0
TABLE
  2
VPORT
  5
8
100
AcDbSymbolTable
 70
2
  0
VPORT
  5
1F4
100
AcDbSymbolTableRecord
100
AcDbViewportTableRecord
  2
*ACTIVE
 70
0
 10
0.0
 20
0.0
 11
1.0
 21
1.0
 12
148.5
 22
105.0
 13
0.0
 23
0.0
 14
1.0
 24
1.0
 15
0.0
 25
0.0
 16
0.0
 26
0.0
 36
1.0
 17
0.0
 27
0.0
 37
0.0
 40
210.0
 41
1.4142857143
 42
50.0
 43
0.0
 44
0.0
 50
0.0
 51
0.0
 71
0
 72
100
 73
1
 74
1
 75
0
 76
0
 77
0
 78
0
  0
ENDTAB
  0
TABLE
  2
LTYPE
  5
5
100
AcDbSymbolTable
 70
6
  0
LTYPE
  5
14
100
AcDbSymbolTableRecord
100
AcDbLinetypeTableRecord
  2
BYBLOCK
 70
0
  3

 72
65
 73
0
 40
0.0
  0
LTYPE
  5
15
100
AcDbSymbolTableRecord
100
AcDbLinetypeTableRecord
  2
BYLAYER
 70
0
  3

 72
65
 73
0
 40
0.0
  0
LTYPE
  5
16
100
AcDbSymbolTableRecord
100
AcDbLinetypeTableRecord
  2
CONTINUOUS
 70
64
  3
Solid line
 72
65
 73
0
 40
0.0
  0
LTYPE
  5
1F5
100
AcDbSymbolTableRecord
100
AcDbLinetypeTableRecord
  2
CENTER
 70
64
  3
____ _ ____ _ ____ _ ____ _ ____ _ ____ _ ____
 72
65
 73
4
 40
0.6
 49
0.375
 74
0
 49
-0.075
 74
0
 49
0.075
 74
0
 49
-0.075
 74
0
  0
LTYPE
  5
1F6
100
AcDbSymbolTableRecord
100
AcDbLinetypeTableRecord
  2
HIDDEN
 70
64
  3
- - - - - - - - - - - - - - - - - - - -
 72
65
 73
2
 40
0.2
 49
0.1
 74
0
 49
-0.1
 74
0
  0
LTYPE
  5
1F7
100
AcDbSymbolTableRecord
100
AcDbLinetypeTableRecord
  2
PHANTOM
 70
64
  3
_____ _ _ _____ _ _ _____ _ _ _____
 72
65
 73
6
 40
0.8
 49
0.45
 74
0
 49
-0.05
 74
0
 49
0.1
 74
0
 49
-0.05
 74
0
 49
0.1
 74
0
 49
-0.05
 74
0
  0
LTYPE
  5
1F8
100
AcDbSymbolTableRecord
100
AcDbLinetypeTableRecord
  2
DOT
 70
64
  3
. . . . . . . . . . . . . . . . . . . .
 72
65
 73
2
 40
0.2
 49
0.1
 74
0
 49
-0.1
 74
0
  0
LTYPE
  5
1F9
100
AcDbSymbolTableRecord
100
AcDbLinetypeTableRecord
  2
DASHED
 70
64
  3
- - - - - - - - - - - - - - - - - - - -
 72
65
 73
2
 40
0.2
 49
0.1
 74
0
 49
-0.1
 74
0
  0
ENDTAB
  0
TABLE
  2
LAYER
  5
2
100
AcDbSymbolTable
 70
36
  0
LAYER
  5
10
100
AcDbSymbolTableRecord
100
AcDbLayerTableRecord
  2
0
 70
0
 62
7
  6
CONTINUOUS
370
-3
390
F
  0
LAYER
  5
1FA
100
AcDbSymbolTableRecord
100
AcDbLayerTableRecord
  2
DEFAULT_1
 70
0
 62
7
  6
CENTER
370
-3
390
F
  0
LAYER
  5
1FB
100
AcDbSymbolTableRecord
100
AcDbLayerTableRecord
  2
DEFAULT_2
 70
0
 62
7
  6
HIDDEN
370
-3
390
F
  0
LAYER
  5
1FC
100
AcDbSymbolTableRecord
100
AcDbLayerTableRecord
  2
DEFAULT_3
 70
0
 62
7
  6
PHANTOM
370
-3
390
F
  0
LAYER
  5
1FD
100
AcDbSymbolTableRecord
100
AcDbLayerTableRecord
  2
ASSI
 70
0
 62
7
  6
CONTINUOUS
370
-3
390
F
  0
LAYER
  5
1FE
100
AcDbSymbolTableRecord
100
AcDbLayerTableRecord
  2
COORDINATE
 70
0
 62
7
  6
CONTINUOUS
370
-3
390
F
  0
LAYER
  5
1FF
100
AcDbSymbolTableRecord
100
AcDbLayerTableRecord
  2
COORD_ORIGINE
 70
0
 62
7
  6
CONTINUOUS
370
-3
390
F
  0
LAYER
  5
200
100
AcDbSymbolTableRecord
100
AcDbLayerTableRecord
  2
COSMETICHE
 70
0
 62
7
  6
CONTINUOUS
370
-3
390
F
  0
LAYER
  5
201
100
AcDbSymbolTableRecord
100
AcDbLayerTableRecord
  2
COSMETICI
 70
0
 62
7
  6
CONTINUOUS
370
-3
390
F
  0
LAYER
  5
202
100
AcDbSymbolTableRecord
100
AcDbLayerTableRecord
  2
CURVE
 70
0
 62
7
  6
CONTINUOUS
370
-3
390
F
  0
LAYER
  5
203
100
AcDbSymbolTableRecord
100
AcDbLayerTableRecord
  2
DRAFT
 70
0
 62
7
  6
CONTINUOUS
370
-3
390
F
  0
LAYER
  5
204
100
AcDbSymbolTableRecord
100
AcDbLayerTableRecord
  2
INTF_1
 70
0
 62
7
  6
CONTINUOUS
370
-3
390
F
  0
LAYER
  5
205
100
AcDbSymbolTableRecord
100
AcDbLayerTableRecord
  2
INTF_11
 70
0
 62
7
  6
CONTINUOUS
370
-3
390
F
  0
LAYER
  5
206
100
AcDbSymbolTableRecord
100
AcDbLayerTableRecord
  2
INTF_12
 70
0
 62
7
  6
CONTINUOUS
370
-3
390
F
  0
LAYER
  5
207
100
AcDbSymbolTableRecord
100
AcDbLayerTableRecord
  2
INTF_2
 70
0
 62
7
  6
CONTINUOUS
370
-3
390
F
  0
LAYER
  5
208
100
AcDbSymbolTableRecord
100
AcDbLayerTableRecord
  2
INTF_8
 70
0
 62
7
  6
CONTINUOUS
370
-3
390
F
  0
LAYER
  5
209
100
AcDbSymbolTableRecord
100
AcDbLayerTableRecord
  2
INTF_9
 70
0
 62
7
  6
CONTINUOUS
370
-3
390
F
  0
LAYER
  5
20A
100
AcDbSymbolTableRecord
100
AcDbLayerTableRecord
  2
NOTE
 70
0
 62
7
  6
CONTINUOUS
370
-3
390
F
  0
LAYER
  5
20B
100
AcDbSymbolTableRecord
100
AcDbLayerTableRecord
  2
PIANI
 70
0
 62
7
  6
CONTINUOUS
370
-3
390
F
  0
LAYER
  5
20C
100
AcDbSymbolTableRecord
100
AcDbLayerTableRecord
  2
PIANI_ORIGINE
 70
0
 62
7
  6
CONTINUOUS
370
-3
390
F
  0
LAYER
  5
20D
100
AcDbSymbolTableRecord
100
AcDbLayerTableRecord
  2
PUNTI
 70
0
 62
7
  6
CONTINUOUS
370
-3
390
F
  0
LAYER
  5
20E
100
AcDbSymbolTableRecord
100
AcDbLayerTableRecord
  2
RACCORDO
 70
0
 62
7
  6
CONTINUOUS
370
-3
390
F
  0
LAYER
  5
20F
100
AcDbSymbolTableRecord
100
AcDbLayerTableRecord
  2
RGB__255__255__255__
 70
0
 62
7
  6
CONTINUOUS
370
-3
390
F
  0
LAYER
  5
210
100
AcDbSymbolTableRecord
100
AcDbLayerTableRecord
  2
RGB____0____0____0__
 70
0
 62
7
  6
CONTINUOUS
370
-3
390
F
  0
LAYER
  5
211
100
AcDbSymbolTableRecord
100
AcDbLayerTableRecord
  2
SMUSSO
 70
0
 62
7
  6
CONTINUOUS
370
-3
390
F
  0
LAYER
  5
212
100
AcDbSymbolTableRecord
100
AcDbLayerTableRecord
  2
SNAPLINE
 70
0
 62
7
  6
CONTINUOUS
370
-3
390
F
  0
LAYER
  5
213
100
AcDbSymbolTableRecord
100
AcDbLayerTableRecord
  2
SUPERFICI
 70
0
 62
7
  6
CONTINUOUS
370
-3
390
F
  0
LAYER
  5
214
100
AcDbSymbolTableRecord
100
AcDbLayerTableRecord
  2
TRASH
 70
0
 62
7
  6
CONTINUOUS
370
-3
390
F
  0
LAYER
  5
215
100
AcDbSymbolTableRecord
100
AcDbLayerTableRecord
  2
XSEC_DATUMS
 70
0
 62
7
  6
CONTINUOUS
370
-3
390
F
  0
ENDTAB
  0
TABLE
  2
STYLE
  5
3
100
AcDbSymbolTable
 70
1
  0
STYLE
  5
11
100
AcDbSymbolTableRecord
100
AcDbTextStyleTableRecord
  2
STANDARD
 70
0
 40
0.0
 41
0.8
 50
0.0
 71
0
 42
0.2
  3
txt
  4

  0
STYLE
  5
216
100
AcDbSymbolTableRecord
100
AcDbTextStyleTableRecord
  2
TEXTSTYLE_1
 70
0
 40
0.0
 41
0.8
 50
0.0
 71
0
 42
0.2
  3
gdt
  4

  0
ENDTAB
  0
TABLE
  2
VIEW
  5
6
100
AcDbSymbolTable
 70
0
  0
ENDTAB
  0
TABLE
  2
UCS
  5
7
100
AcDbSymbolTable
 70
0
  0
ENDTAB
  0
TABLE
  2
APPID
  5
9
100
AcDbSymbolTable
 70
1
  0
APPID
  5
217
100
AcDbSymbolTableRecord
100
AcDbRegAppTableRecord
  2
ACAD
 70
0
  0
ENDTAB
  0
TABLE
  2
BLOCK_RECORD
  5
1
100
AcDbSymbolTable
 70
0
  0
BLOCK_RECORD
  5
218
100
AcDbSymbolTableRecord
100
AcDbBlockTableRecord
  2
*Model_Space
  0
BLOCK_RECORD
  5
219
100
AcDbSymbolTableRecord
100
AcDbBlockTableRecord
  2
*Paper_Space
  0
BLOCK_RECORD
  5
21A
100
AcDbSymbolTableRecord
100
AcDbBlockTableRecord
  2
_FILLED
  0
BLOCK_RECORD
  5
21B
100
AcDbSymbolTableRecord
100
AcDbBlockTableRecord
  2
*D0
  0
BLOCK_RECORD
  5
21C
100
AcDbSymbolTableRecord
100
AcDbBlockTableRecord
  2
*D1
  0
BLOCK_RECORD
  5
21D
100
AcDbSymbolTableRecord
100
AcDbBlockTableRecord
  2
*D2
  0
BLOCK_RECORD
  5
21E
100
AcDbSymbolTableRecord
100
AcDbBlockTableRecord
  2
*D3
  0
ENDTAB
  0
TABLE
  2
DIMSTYLE
  5
A
100
AcDbSymbolTable
 70
1
100
AcDbDimStyleTable
 71
0
  0
DIMSTYLE
105
21F
100
AcDbSymbolTableRecord
100
AcDbDimStyleTableRecord
  2
STANDARD
 70
0
  3

  4

 40
1.0
 41
3.0
 42
0.5
 43
0.38
 44
1.5
 45
0.0
 46
0.0
 47
0.01
 48
0.01
140
3.0
141
0.09
142
0.0
143
25.4
144
1.0
145
0.0
146
1.0
147
0.625
 71
1
 72
0
 73
0
 74
0
 75
0
 76
0
 77
1
 78
8
 79
2
170
0
171
1
172
0
173
0
174
0
175
0
176
0
177
0
178
0
270
2
179
2
271
2
272
2
273
2
274
2
275
0
280
0
281
0
282
0
283
1
284
8
285
0
286
0
287
3
288
0
340
11
278
44
341
21A
342
21A
343
21A
344
21A
  0
DIMSTYLE
105
220
100
AcDbSymbolTableRecord
100
AcDbDimStyleTableRecord
  2
DIMSTYLE_1
 70
0
  3

  4

 40
1.0
 41
3.0
 42
0.5
 43
0.38
 44
1.5
 45
0.0
 46
0.0
 47
0.0
 48
0.0
140
3.0
141
0.09
142
0.0
143
25.4
144
1.0
145
0.0
146
1.0
147
0.75
 71
0
 72
0
 73
0
 74
0
 75
0
 76
0
 77
1
 78
8
 79
2
170
0
171
1
172
0
173
0
174
0
175
0
176
0
177
0
178
0
270
2
179
2
271
2
272
2
273
2
274
2
275
0
280
0
281
0
282
0
283
1
284
8
285
0
286
0
287
3
288
0
340
11
278
44
341
21A
342
21A
343
21A
344
21A
  0
ENDTAB
  0
ENDSEC
  0
SECTION
  2
BLOCKS
  0
BLOCK
  5
20
100
AcDbEntity
  8
0
100
AcDbBlockBegin
  2
*Model_Space
 70
0
 10
0.0
 20
0.0
 30
0.0
  3
*Model_Space
  1

  0
ENDBLK
  5
21
100
AcDbEntity
  8
0
100
AcDbBlockEnd
  0
BLOCK
  5
1C
100
AcDbEntity
  8
0
100
AcDbBlockBegin
  2
*Paper_Space
 70
0
 10
0.0
 20
0.0
 30
0.0
  3
*Paper_Space
  1

  0
ENDBLK
  5
1D
100
AcDbEntity
  8
0
100
AcDbBlockEnd
  0
BLOCK
  5
221
100
AcDbEntity
  8
0
100
AcDbBlockBegin
  2
_FILLED
 70
64
 10
0.0
 20
0.0
  3
_FILLED
  1

  0
SOLID
  5
222
100
AcDbEntity
  8
0
  6
BYBLOCK
 62
0
100
AcDbTrace
 10
0.0
 20
0.0
 11
-1.0
 21
0.3166666667
 12
-1.0
 22
-0.3166666667
 13
-1.0
 23
-0.3166666667
  0
ENDBLK
  5
223
100
AcDbEntity
  8
0
  6
BYBLOCK
 62
0
100
AcDbBlockEnd
  0
BLOCK
  5
224
100
AcDbEntity
  8
0
100
AcDbBlockBegin
 62
7
  6
CONTINUOUS
  2
*D0
 70
65
 10
0.0
 20
0.0
  3
*D0
  1

  0
LINE
  5
225
100
AcDbEntity
  8
0
100
AcDbLine
 62
7
  6
CONTINUOUS
 10
4.1748574782
 20
23.5
 11
24.7253760786
 21
23.5
  0
LINE
  5
226
100
AcDbEntity
  8
0
100
AcDbLine
 62
7
  6
CONTINUOUS
 10
4.1748574782
 20
-23.5
 11
24.7253760786
 21
-23.5
  0
LINE
  5
227
100
AcDbEntity
  8
0
100
AcDbLine
 62
7
  6
CONTINUOUS
 10
23.2253760786
 20
23.5
 11
23.2253760786
 21
0.0
  0
LINE
  5
228
100
AcDbEntity
  8
0
100
AcDbLine
 62
7
  6
CONTINUOUS
 10
23.2253760786
 20
-23.5
 11
23.2253760786
 21
0.0
  0
INSERT
  5
229
100
AcDbEntity
  8
0
100
AcDbBlockReference
 62
7
  6
CONTINUOUS
  2
_FILLED
 10
23.2253760786
 20
23.5
 41
3.0
 42
3.0
 43
3.0
 50
90.0
  0
INSERT
  5
22A
100
AcDbEntity
  8
0
100
AcDbBlockReference
 62
7
  6
CONTINUOUS
  2
_FILLED
 10
23.2253760786
 20
-23.5
 41
3.0
 42
3.0
 43
3.0
 50
270.0
  0
ENDBLK
  5
22B
100
AcDbEntity
  8
0
  6
BYBLOCK
 62
0
100
AcDbBlockEnd
  0
BLOCK
  5
22C
100
AcDbEntity
  8
0
100
AcDbBlockBegin
 62
7
  6
CONTINUOUS
  2
*D1
 70
65
 10
0.0
 20
0.0
  3
*D1
  1

  0
LINE
  5
22D
100
AcDbEntity
  8
0
100
AcDbLine
 62
7
  6
CONTINUOUS
 10
11.15
 20
22.3997711479
 11
11.15
 21
36.1058523882
  0
LINE
  5
22E
100
AcDbEntity
  8
0
100
AcDbLine
 62
7
  6
CONTINUOUS
 10
-11.15
 20
22.3997711479
 11
-11.15
 21
36.1058523882
  0
LINE
  5
22F
100
AcDbEntity
  8
0
100
AcDbLine
 62
7
  6
CONTINUOUS
 10
11.15
 20
34.6058523882
 11
0.0
 21
34.6058523882
  0
LINE
  5
230
100
AcDbEntity
  8
0
100
AcDbLine
 62
7
  6
CONTINUOUS
 10
-11.15
 20
34.6058523882
 11
0.0
 21
34.6058523882
  0
INSERT
  5
231
100
AcDbEntity
  8
0
100
AcDbBlockReference
 62
7
  6
CONTINUOUS
  2
_FILLED
 10
11.15
 20
34.6058523882
 41
3.0
 42
3.0
 43
3.0
  0
INSERT
  5
232
100
AcDbEntity
  8
0
100
AcDbBlockReference
 62
7
  6
CONTINUOUS
  2
_FILLED
 10
-11.15
 20
34.6058523882
 41
3.0
 42
3.0
 43
3.0
 50
180.0
  0
ENDBLK
  5
233
100
AcDbEntity
  8
0
  6
BYBLOCK
 62
0
100
AcDbBlockEnd
  0
BLOCK
  5
234
100
AcDbEntity
  8
0
100
AcDbBlockBegin
 62
7
  6
CONTINUOUS
  2
*D2
 70
65
 10
0.0
 20
0.0
  3
*D2
  1

  0
LINE
  5
235
100
AcDbEntity
  8
0
100
AcDbLine
 62
7
  6
CONTINUOUS
 10
-31.3409808872
 20
13.5604923561
 11
-31.3409808872
 21
36.1058523882
  0
LINE
  5
236
100
AcDbEntity
  8
0
100
AcDbLine
 62
7
  6
CONTINUOUS
 10
-58.3409808872
 20
22.3997711479
 11
-58.3409808872
 21
36.1058523882
  0
LINE
  5
237
100
AcDbEntity
  8
0
100
AcDbLine
 62
7
  6
CONTINUOUS
 10
-31.3409808872
 20
34.6058523882
 11
-44.8409808872
 21
34.6058523882
  0
LINE
  5
238
100
AcDbEntity
  8
0
100
AcDbLine
 62
7
  6
CONTINUOUS
 10
-58.3409808872
 20
34.6058523882
 11
-44.8409808872
 21
34.6058523882
  0
INSERT
  5
239
100
AcDbEntity
  8
0
100
AcDbBlockReference
 62
7
  6
CONTINUOUS
  2
_FILLED
 10
-31.3409808872
 20
34.6058523882
 41
3.0
 42
3.0
 43
3.0
  0
INSERT
  5
23A
100
AcDbEntity
  8
0
100
AcDbBlockReference
 62
7
  6
CONTINUOUS
  2
_FILLED
 10
-58.3409808872
 20
34.6058523882
 41
3.0
 42
3.0
 43
3.0
 50
180.0
  0
ENDBLK
  5
23B
100
AcDbEntity
  8
0
  6
BYBLOCK
 62
0
100
AcDbBlockEnd
  0
BLOCK
  5
23C
100
AcDbEntity
  8
0
100
AcDbBlockBegin
 62
7
  6
CONTINUOUS
  2
*D3
 70
65
 10
0.0
 20
0.0
  3
*D3
  1

  0
LINE
  5
23D
100
AcDbEntity
  8
0
100
AcDbLine
 62
7
  6
CONTINUOUS
 10
-31.3409808872
 20
13.5604923561
 11
-31.3409808872
 21
44.1058523882
  0
LINE
  5
23E
100
AcDbEntity
  8
0
100
AcDbLine
 62
7
  6
CONTINUOUS
 10
-67.8409808872
 20
0.5
 11
-67.8409808872
 21
44.1058523882
  0
LINE
  5
23F
100
AcDbEntity
  8
0
100
AcDbLine
 62
7
  6
CONTINUOUS
 10
-31.3409808872
 20
42.6058523882
 11
-49.5909808872
 21
42.6058523882
  0
LINE
  5
240
100
AcDbEntity
  8
0
100
AcDbLine
 62
7
  6
CONTINUOUS
 10
-67.8409808872
 20
42.6058523882
 11
-49.5909808872
 21
42.6058523882
  0
INSERT
  5
241
100
AcDbEntity
  8
0
100
AcDbBlockReference
 62
7
  6
CONTINUOUS
  2
_FILLED
 10
-31.3409808872
 20
42.6058523882
 41
3.0
 42
3.0
 43
3.0
  0
INSERT
  5
242
100
AcDbEntity
  8
0
100
AcDbBlockReference
 62
7
  6
CONTINUOUS
  2
_FILLED
 10
-67.8409808872
 20
42.6058523882
 41
3.0
 42
3.0
 43
3.0
 50
180.0
  0
ENDBLK
  5
243
100
AcDbEntity
  8
0
  6
BYBLOCK
 62
0
100
AcDbBlockEnd
  0
ENDSEC
  0
SECTION
  2
ENTITIES
  0
DIMENSION
  5
244
100
AcDbEntity
  8
0
100
AcDbDimension
 62
7
  6
CONTINUOUS
  2
*D0
 10
23.2253760786
 20
-23.5
 11
23.2253760786
 21
-2.3571428571
 70
160
 71
2
 72
2
 41
0.9
 42
47.0
  3
DIMSTYLE_1
100
AcDbAlignedDimension
 13
3.6748574782
 23
23.5
 14
3.6748574782
 24
-23.5
 50
270.0
100
AcDbRotatedDimension
  0
DIMENSION
  5
245
100
AcDbEntity
  8
0
100
AcDbDimension
 62
7
  6
CONTINUOUS
  2
*D1
 10
-11.15
 20
34.6058523882
 11
-4.2857142857
 21
34.6058523882
 70
160
 71
2
 72
2
 41
0.9
 42
22.3
  3
DIMSTYLE_1
100
AcDbAlignedDimension
 13
11.15
 23
21.8997711479
 14
-11.15
 24
21.8997711479
 50
180.0
100
AcDbRotatedDimension
  0
DIMENSION
  5
246
100
AcDbEntity
  8
0
100
AcDbDimension
 62
7
  6
CONTINUOUS
  2
*D2
 10
-58.3409808872
 20
34.6058523882
 11
-47.1981237444
 21
34.6058523882
 70
160
 71
2
 72
2
 41
0.9
 42
27.0
  3
DIMSTYLE_1
100
AcDbAlignedDimension
 13
-31.3409808872
 23
13.0604923561
 14
-58.3409808872
 24
21.8997711479
 50
180.0
100
AcDbRotatedDimension
  0
DIMENSION
  5
247
100
AcDbEntity
  8
0
100
AcDbDimension
 62
7
  6
CONTINUOUS
  2
*D3
 10
-67.8409808872
 20
42.6058523882
 11
-53.7695523158
 21
42.6058523882
 70
160
 71
2
 72
2
 41
0.9
 42
36.5
  3
DIMSTYLE_1
100
AcDbAlignedDimension
 13
-31.3409808872
 23
13.0604923561
 14
-67.8409808872
 24
0.0
 50
180.0
100
AcDbRotatedDimension
  0
LWPOLYLINE
  5
248
100
AcDbEntity
  8
0
100
AcDbPolyline
 62
7
  6
CONTINUOUS
 90
5
 70
0
 43
0.3500000006
 10
3.0000000658
 20
37.0701369781
 10
3.357142951
 20
37.2844259949
 10
3.357142951
 20
37.9272794495
 10
3.0000000658
 20
38.355852951
 10
2.1428571696
 20
38.355852951
  0
LWPOLYLINE
  5
249
100
AcDbEntity
  8
0
100
AcDbPolyline
 62
250
  6
CONTINUOUS
 90
15
 70
0
 10
-11.0004589101
 20
20.9972959167
 10
-10.9968787779
 20
20.9994689024
 10
-10.9879806557
 20
21.001618604
 10
-10.9738598809
 20
21.0037219888
 10
-10.9546677482
 20
21.0057565204
 10
-10.9306098884
 20
21.0077004004
 10
-10.9019440654
 20
21.0095328012
 10
-10.8689774144
 20
21.01123409
 10
-10.832063151
 20
21.0127860385
 10
-10.7915967869
 20
21.0141720186
 10
-10.7480118921
 20
21.0153771806
 10
-10.7017754498
 20
21.0163886117
 10
-10.6533828524
 20
21.017195475
 10
-10.6033525943
 20
21.0177891252
 10
-10.5522207164
 20
21.018163202
  0
LWPOLYLINE
  5
24A
100
AcDbEntity
  8
0
100
AcDbPolyline
 62
250
  6
CONTINUOUS
 90
16
 70
0
 10
10.5087981167
 20
-21.9749071372
 10
10.5610250585
 20
-21.9721272741
 10
10.6126803347
 20
-21.9639134185
 10
10.6631986439
 20
-21.9503554931
 10
10.7120271457
 20
-21.9316018984
 10
10.758631471
 20
-21.9078579019
 10
10.8025015766
 20
-21.8793834041
 10
10.8431573848
 20
-21.8464900609
 10
10.880154008
 20
-21.8095378762
 10
10.9130865885
 20
-21.7689312914
 10
10.9415947695
 20
-21.7251147213
 10
10.9653666243
 20
-21.6785676924
 10
10.9841420552
 20
-21.6297996177
 10
10.9977156511
 20
-21.5793442013
 10
11.0059389312
 20
-21.5277535958
 10
11.0087219643
 20
-21.4755923698
  0
LWPOLYLINE
  5
24B
100
AcDbEntity
  8
0
100
AcDbPolyline
 62
250
  6
CONTINUOUS
 90
15
 70
0
 10
10.5522211667
 20
-21.018163739
 10
10.603353479
 20
-21.0177896586
 10
10.6533841415
 20
-21.0171959976
 10
10.7017770995
 20
-21.0163891167
 10
10.7480138458
 20
-21.0153776612
 10
10.7915989758
 20
-21.0141724686
 10
10.8320654959
 20
-21.0127864518
 10
10.8689798267
 20
-21.0112344614
 10
10.9019464489
 20
-21.0095331261
 10
10.9306121411
 20
-21.0077006751
 10
10.954669764
 20
-21.0057567421
 10
10.973861552
 20
-21.0037221554
 10
10.987981874
 20
-21.0016187146
 10
10.9968794378
 20
-20.9994689572
 10
11.0004589101
 20
-20.9972959167
  0
LINE
  5
24C
100
AcDbEntity
  8
0
100
AcDbLine
 62
7
  6
CONTINUOUS
 10
-3.6748574782
 20
-23.5
 11
3.6748574782
 21
-23.5
  0
LINE
  5
24D
100
AcDbEntity
  8
0
100
AcDbLine
 62
7
  6
CONTINUOUS
 10
3.4698202597
 20
-22.5
 11
-3.4698202597
 21
-22.5
  0
LINE
  5
24E
100
AcDbEntity
  8
0
100
AcDbLine
 62
7
  6
CONTINUOUS
 10
10.6503805997
 20
-22.4
 11
3.3
 21
-22.4
  0
LINE
  5
24F
100
AcDbEntity
  8
0
100
AcDbLine
 62
7
  6
CONTINUOUS
 10
-3.3
 20
-22.4
 11
-10.6503805997
 21
-22.4
  0
LINE
  5
250
100
AcDbEntity
  8
0
100
AcDbLine
 62
250
  6
CONTINUOUS
 10
10.5087981167
 20
-21.9749071372
 11
-10.5087981167
 21
-21.9749071372
  0
LINE
  5
251
100
AcDbEntity
  8
0
100
AcDbLine
 62
250
  6
CONTINUOUS
 10
10.5522211667
 20
-21.018163739
 11
-10.5005350625
 21
-21.0183142309
  0
LWPOLYLINE
  5
252
100
AcDbEntity
  8
0
100
AcDbPolyline
 62
7
  6
CONTINUOUS
 90
10
 70
0
 10
-3.6748574782
 20
-23.5
 10
-3.7403303995
 20
-23.497809388
 10
-3.8049842417
 20
-23.491478198
 10
-3.8688190046
 20
-23.4810064299
 10
-3.9320970679
 20
-23.4663149736
 10
-3.994556052
 20
-23.4474829393
 10
-4.0554088181
 20
-23.4247476575
 10
-4.1143929866
 20
-23.3981882383
 10
-4.1717709372
 20
-23.3677255716
 10
-4.2275426698
 20
-23.3333596575
  0
LWPOLYLINE
  5
253
100
AcDbEntity
  8
0
100
AcDbPolyline
 62
250
  6
CONTINUOUS
 90
16
 70
0
 10
-11.0004589101
 20
-20.9972959167
 10
-10.9968794372
 20
-20.9994689572
 10
-10.987981873
 20
-21.0016187146
 10
-10.9738615505
 20
-21.0037221554
 10
-10.9546697623
 20
-21.0057567422
 10
-10.9306121391
 20
-21.0077006752
 10
-10.9019464468
 20
-21.0095331264
 10
-10.8689798245
 20
-21.0112344617
 10
-10.8320654937
 20
-21.0127864522
 10
-10.7915989738
 20
-21.0141724691
 10
-10.7480138439
 20
-21.0153776619
 10
-10.7017770979
 20
-21.0163891175
 10
-10.6533841403
 20
-21.0171959985
 10
-10.6033534782
 20
-21.0177896593
 10
-10.5522211662
 20
-21.0181637392
 10
-10.5005350625
 20
-21.0183142303
  0
LWPOLYLINE
  5
254
100
AcDbEntity
  8
0
100
AcDbPolyline
 62
250
  6
CONTINUOUS
 90
16
 70
0
 10
-11.0087219643
 20
-21.4755923698
 10
-11.0059389565
 20
-21.5277533572
 10
-10.9977157435
 20
-21.5793437688
 10
-10.9841422433
 20
-21.6297990407
 10
-10.9653669231
 20
-21.6785670232
 10
-10.9415951808
 20
-21.7251140105
 10
-10.913087103
 20
-21.7689305846
 10
-10.8801546044
 20
-21.8095372149
 10
-10.8431580328
 20
-21.8464894782
 10
-10.8025022426
 20
-21.8793829208
 10
-10.7586321152
 20
-21.9078575303
 10
-10.7120277256
 20
-21.9316016403
 10
-10.6631991243
 20
-21.950355337
 10
-10.6126806845
 20
-21.963913344
 10
-10.5610252467
 20
-21.9721272542
 10
-10.5087981167
 20
-21.9749071371
  0
LWPOLYLINE
  5
255
100
AcDbEntity
  8
0
100
AcDbPolyline
 62
250
  6
CONTINUOUS
 90
16
 70
0
 10
-11.0087219643
 20
21.4755923698
 10
-11.0059388076
 20
21.5277547588
 10
-10.9977152003
 20
21.5793463095
 10
-10.9841411372
 20
21.6298024308
 10
-10.9653651658
 20
21.6785709569
 10
-10.9415927608
 20
21.7251181902
 10
-10.913084075
 20
21.7689347421
 10
-10.8801510927
 20
21.8095411067
 10
-10.8431542154
 20
21.846492909
 10
-10.8024983179
 20
21.8793857676
 10
-10.7586283172
 20
21.90785972
 10
-10.712024304
 20
21.9316031621
 10
-10.6631962884
 20
21.9503562579
 10
-10.612678619
 20
21.9639137831
 10
-10.5610241352
 20
21.9721273713
 10
-10.5087981167
 20
21.9749071372
  0
LINE
  5
256
100
AcDbEntity
  8
0
100
AcDbLine
 62
7
  6
CONTINUOUS
 10
-3.3
 20
22.4
 11
-3.2333672024
 21
22.5
  0
LINE
  5
257
100
AcDbEntity
  8
0
100
AcDbLine
 62
7
  6
CONTINUOUS
 10
-3.2333672024
 20
-22.5
 11
-3.3
 21
-22.4
  0
LWPOLYLINE
  5
258
100
AcDbEntity
  8
0
100
AcDbPolyline
 62
250
  6
CONTINUOUS
 90
7
 70
0
 10
-11.0046622904
 20
21.404111377
 10
-11.005288961
 20
21.4238178805
 10
-11.005945919
 20
21.4406578587
 10
-11.0066191044
 20
21.4542894799
 10
-11.0073038303
 20
21.4645988002
 10
-11.0080047836
 20
21.4716997635
 10
-11.0087219643
 20
21.4755923698
  0
LWPOLYLINE
  5
259
100
AcDbEntity
  8
0
100
AcDbPolyline
 62
250
  6
CONTINUOUS
 90
5
 70
0
 10
-10.5060157428
 20
21.9047671365
 10
-10.5066888224
 20
21.9320739422
 10
-10.5073747324
 20
21.9529518547
 10
-10.5080778305
 20
21.9672615288
 10
-10.5087981167
 20
21.9749071372
  0
LINE
  5
25A
100
AcDbEntity
  8
0
100
AcDbLine
 62
250
  6
CONTINUOUS
 10
-11.0035016383
 20
21.3559863514
 11
-11.0046622904
 21
21.404111377
  0
LINE
  5
25B
100
AcDbEntity
  8
0
100
AcDbLine
 62
250
  6
CONTINUOUS
 10
-11.002496988
 20
21.2978833989
 11
-11.0035016383
 21
21.3559863514
  0
LINE
  5
25C
100
AcDbEntity
  8
0
100
AcDbLine
 62
250
  6
CONTINUOUS
 10
-10.5047342215
 20
21.8316458675
 11
-10.5060157428
 21
21.9047671365
  0
LINE
  5
25D
100
AcDbEntity
  8
0
100
AcDbLine
 62
250
  6
CONTINUOUS
 10
-11.0013302604
 20
21.1948683247
 11
-11.002496988
 21
21.2978833989
  0
LINE
  5
25E
100
AcDbEntity
  8
0
100
AcDbLine
 62
250
  6
CONTINUOUS
 10
-10.5030519768
 20
21.6796989761
 11
-10.5047342215
 21
21.8316458675
  0
LINE
  5
25F
100
AcDbEntity
  8
0
100
AcDbLine
 62
250
  6
CONTINUOUS
 10
-11.0006373651
 20
21.0789215441
 11
-11.0013302604
 21
21.1948683247
  0
LINE
  5
260
100
AcDbEntity
  8
0
100
AcDbLine
 62
250
  6
CONTINUOUS
 10
-10.5011186581
 20
21.3380138322
 11
-10.5030519768
 21
21.6796989761
  0
LINE
  5
261
100
AcDbEntity
  8
0
100
AcDbLine
 62
250
  6
CONTINUOUS
 10
-10.5005350625
 20
21.0183142309
 11
-10.5011186581
 21
21.3380138322
  0
LINE
  5
262
100
AcDbEntity
  8
0
100
AcDbLine
 62
7
  6
CONTINUOUS
 10
-11.15
 20
-21.8997711479
 11
-11.15
 21
21.8997711479
  0
LINE
  5
263
100
AcDbEntity
  8
RACCORDO
100
AcDbLine
 62
250
  6
CONTINUOUS
 10
-7.75
 20
1.3007804683
 11
-7.75
 21
10.6063638183
  0
LWPOLYLINE
  5
264
100
AcDbEntity
  8
0
100
AcDbPolyline
 62
250
  6
CONTINUOUS
 90
9
 70
0
 10
-10.9974142982
 20
-16.3324736288
 10
-10.9951308388
 20
-11.6670309515
 10
-10.9936085319
 20
-7.0009678848
 10
-10.9928473769
 20
-2.3338717331
 10
-10.9928473744
 20
2.333844808
 10
-10.9936085263
 20
7.0009436522
 10
-10.9951308332
 20
11.667012104
 10
-10.9974142945
 20
16.3324628588
 10
-11.0006373651
 20
21.0789215441
  0
LWPOLYLINE
  5
265
100
AcDbEntity
  8
0
100
AcDbPolyline
 62
250
  6
CONTINUOUS
 90
9
 70
0
 10
-10.4974904461
 20
-16.3494810535
 10
-10.4952069838
 20
-11.6792204124
 10
-10.4936846756
 20
-7.0079400863
 10
-10.4929235216
 20
-2.3360479924
 10
-10.4929235217
 20
2.3360479974
 10
-10.4936846759
 20
7.0079400909
 10
-10.4952069841
 20
11.6792204159
 10
-10.4974904463
 20
16.3494810555
 10
-10.5005350625
 20
21.0183142309
  0
LINE
  5
266
100
AcDbEntity
  8
0
100
AcDbLine
 62
250
  6
CONTINUOUS
 10
-11.0008108466
 20
-21.1183319385
 11
-10.9974142982
 21
-16.3324736288
  0
LINE
  5
267
100
AcDbEntity
  8
0
100
AcDbLine
 62
250
  6
CONTINUOUS
 10
-10.5017440253
 20
-21.4854483283
 11
-10.4974904461
 21
-16.3494810535
  0
LINE
  5
268
100
AcDbEntity
  8
0
100
AcDbLine
 62
250
  6
CONTINUOUS
 10
-11.0016683071
 20
-21.2309534442
 11
-11.0008108466
 21
-21.1183319385
  0
LINE
  5
269
100
AcDbEntity
  8
0
100
AcDbLine
 62
250
  6
CONTINUOUS
 10
-10.5035749124
 20
-21.7355620644
 11
-10.5017440253
 21
-21.4854483283
  0
LINE
  5
26A
100
AcDbEntity
  8
0
100
AcDbLine
 62
250
  6
CONTINUOUS
 10
-10.5047342215
 20
-21.8316458675
 11
-10.5035749124
 21
-21.7355620644
  0
LINE
  5
26B
100
AcDbEntity
  8
0
100
AcDbLine
 62
250
  6
CONTINUOUS
 10
-11.002496988
 20
-21.2978833988
 11
-11.0016683071
 21
-21.2309534442
  0
LINE
  5
26C
100
AcDbEntity
  8
0
100
AcDbLine
 62
250
  6
CONTINUOUS
 10
-11.0035016383
 20
-21.3559863515
 11
-11.002496988
 21
-21.2978833988
  0
LWPOLYLINE
  5
26D
100
AcDbEntity
  8
0
100
AcDbPolyline
 62
250
  6
CONTINUOUS
 90
6
 70
0
 10
-10.5087981167
 20
-21.9749071372
 10
-10.5080778305
 20
-21.9672615288
 10
-10.5073747324
 20
-21.9529518547
 10
-10.5066888224
 20
-21.9320739422
 10
-10.5060157428
 20
-21.9047671365
 10
-10.5047342215
 20
-21.8316458675
  0
LINE
  5
26E
100
AcDbEntity
  8
0
100
AcDbLine
 62
7
  6
CONTINUOUS
 10
-3.3848722771
 20
22.4
 11
-3.3633443637
 21
22.5
  0
LWPOLYLINE
  5
26F
100
AcDbEntity
  8
0
100
AcDbPolyline
 62
7
  6
CONTINUOUS
 90
3
 70
0
 43
0.3500000006
 10
1.1428571477
 20
35.6415677032
 10
1.0714285848
 20
35.4272832184
 10
0.9285714591
 20
35.1415675507
  0
LWPOLYLINE
  5
270
100
AcDbEntity
  8
RACCORDO
100
AcDbPolyline
 62
7
  6
CONTINUOUS
 90
4
 70
0
 10
-5.2341269884
 20
10.3179504583
 10
-5.2233443203
 20
10.3295473699
 10
-5.2099855147
 20
10.3431706847
 10
-5.1787205945
 20
10.3755644468
  0
LWPOLYLINE
  5
271
100
AcDbEntity
  8
RACCORDO
100
AcDbPolyline
 62
7
  6
CONTINUOUS
 90
3
 70
0
 10
-5.1787205945
 20
10.3755644468
 10
-5.16081448
 20
10.3936836692
 10
-5.1222989048
 20
10.4330104307
  0
LINE
  5
272
100
AcDbEntity
  8
RACCORDO
100
AcDbLine
 62
7
  6
CONTINUOUS
 10
-5.1222989048
 20
10.4330104307
 11
-5.0591310105
 21
10.4968637251
  0
LWPOLYLINE
  5
273
100
AcDbEntity
  8
RACCORDO
100
AcDbPolyline
 62
7
  6
CONTINUOUS
 90
3
 70
0
 10
-5.0371820375
 20
10.5188669737
 10
-4.9717342756
 20
10.5848408153
 10
-4.95
 20
10.6063638183
  0
LINE
  5
274
100
AcDbEntity
  8
RACCORDO
100
AcDbLine
 62
7
  6
CONTINUOUS
 10
-5.0591310105
 20
10.4968637251
 11
-5.0371820375
 21
10.5188669737
  0
LWPOLYLINE
  5
275
100
AcDbEntity
  8
RACCORDO
100
AcDbPolyline
 62
7
  6
CONTINUOUS
 90
3
 70
0
 10
-5.25
 20
10.3000656078
 10
-5.2472851336
 20
10.3026948169
 10
-5.2341269884
 20
10.3179504583
  0
LINE
  5
276
100
AcDbEntity
  8
RACCORDO
100
AcDbLine
 62
250
  6
CONTINUOUS
 10
3.0
 20
-8.9553732239
 11
-3.0
 21
-8.9553732239
  0
LINE
  5
277
100
AcDbEntity
  8
RACCORDO
100
AcDbLine
 62
7
  6
CONTINUOUS
 10
2.7
 20
-8.65
 11
-2.7
 21
-8.65
  0
LINE
  5
278
100
AcDbEntity
  8
0
100
AcDbLine
 62
7
  6
CONTINUOUS
 10
-3.3848722771
 20
-22.4
 11
-3.3633443637
 21
-22.5
  0
LINE
  5
279
100
AcDbEntity
  8
RACCORDO
100
AcDbLine
 62
7
  6
CONTINUOUS
 10
-7.45
 20
1.6
 11
-7.45
 21
10.3000655731
  0
LINE
  5
27A
100
AcDbEntity
  8
RACCORDO
100
AcDbLine
 62
7
  6
CONTINUOUS
 10
-5.25
 20
10.3000655731
 11
-5.25
 21
1.6
  0
LINE
  5
27B
100
AcDbEntity
  8
RACCORDO
100
AcDbLine
 62
250
  6
CONTINUOUS
 10
-4.95
 20
10.6063638183
 11
-4.95
 21
1.3007804683
  0
LWPOLYLINE
  5
27C
100
AcDbEntity
  8
0
100
AcDbPolyline
 62
250
  6
CONTINUOUS
 90
8
 70
0
 10
-11.0087219643
 20
-21.4755923698
 10
-11.0080047836
 20
-21.4716997634
 10
-11.0073038303
 20
-21.4645988
 10
-11.0066191044
 20
-21.4542894797
 10
-11.005945919
 20
-21.4406578586
 10
-11.005288961
 20
-21.4238178806
 10
-11.0046622904
 20
-21.4041113772
 10
-11.0035016383
 20
-21.3559863515
  0
LINE
  5
27D
100
AcDbEntity
  8
0
100
AcDbLine
 62
250
  6
CONTINUOUS
 10
-11.15
 20
-21.8997711479
 11
-11.0087219643
 21
-21.4755923698
  0
LWPOLYLINE
  5
27E
100
AcDbEntity
  8
RACCORDO
100
AcDbPolyline
 62
7
  6
CONTINUOUS
 90
3
 70
0
 10
-7.7283059759
 20
1.322250001
 10
-7.6629355045
 20
1.3878702635
 10
-7.5984464267
 20
1.4523002757
  0
LWPOLYLINE
  5
27F
100
AcDbEntity
  8
RACCORDO
100
AcDbPolyline
 62
7
  6
CONTINUOUS
 90
3
 70
0
 10
-7.5778332575
 20
1.4727455484
 10
-7.5393063368
 20
1.5113244018
 10
-7.5213925852
 20
1.5290008647
  0
LWPOLYLINE
  5
280
100
AcDbEntity
  8
RACCORDO
100
AcDbPolyline
 62
7
  6
CONTINUOUS
 90
7
 70
0
 10
-7.5213925852
 20
1.5290008647
 10
-7.4901135796
 20
1.5603590788
 10
-7.4767483256
 20
1.5733919043
 10
-7.4659530978
 20
1.5843242721
 10
-7.4580653723
 20
1.5927326452
 10
-7.4527476731
 20
1.5981094195
 10
-7.45
 20
1.6
  0
LINE
  5
281
100
AcDbEntity
  8
RACCORDO
100
AcDbLine
 62
7
  6
CONTINUOUS
 10
-7.5984464267
 20
1.4523002757
 11
-7.5778332575
 21
1.4727455484
  0
LINE
  5
282
100
AcDbEntity
  8
RACCORDO
100
AcDbLine
 62
7
  6
CONTINUOUS
 10
-7.75
 20
1.3007804683
 11
-7.7283059759
 21
1.322250001
  0
LWPOLYLINE
  5
283
100
AcDbEntity
  8
RACCORDO
100
AcDbPolyline
 62
250
  6
CONTINUOUS
 90
5
 70
0
 10
-2.7401923442
 20
-5.9517860709
 10
-2.7228361189
 20
-5.9513669994
 10
-2.7102222417
 20
-5.9509245383
 10
-2.7025665388
 20
-5.950466258
 10
-2.7
 20
-5.95
  0
LINE
  5
284
100
AcDbEntity
  8
RACCORDO
100
AcDbLine
 62
250
  6
CONTINUOUS
 10
-2.7878679051
 20
-5.952525886
 11
-2.7401923442
 21
-5.9517860709
  0
LINE
  5
285
100
AcDbEntity
  8
RACCORDO
100
AcDbLine
 62
250
  6
CONTINUOUS
 10
-2.84999993
 20
-5.9530935663
 11
-2.7878679051
 21
-5.952525886
  0
LWPOLYLINE
  5
286
100
AcDbEntity
  8
RACCORDO
100
AcDbPolyline
 62
250
  6
CONTINUOUS
 90
3
 70
0
 10
-3.0
 20
-5.9535721433
 10
-2.9608421132
 20
-5.9535415831
 10
-2.84999993
 20
-5.9530935663
  0
LINE
  5
287
100
AcDbEntity
  8
RACCORDO
100
AcDbLine
 62
250
  6
CONTINUOUS
 10
3.0
 20
-5.9535721433
 11
2.8851949703
 21
-5.9533002301
  0
LINE
  5
288
100
AcDbEntity
  8
RACCORDO
100
AcDbLine
 62
250
  6
CONTINUOUS
 10
2.8851949703
 20
-5.9533002301
 11
2.8173715713
 21
-5.9528339718
  0
LWPOLYLINE
  5
289
100
AcDbEntity
  8
RACCORDO
100
AcDbPolyline
 62
250
  6
CONTINUOUS
 90
7
 70
0
 10
2.8173715713
 20
-5.9528339718
 10
2.7619939979
 20
-5.9521745831
 10
2.7401923789
 20
-5.9517860716
 10
2.7228361402
 20
-5.9513670001
 10
2.7102222521
 20
-5.9509245387
 10
2.7025665416
 20
-5.9504662583
 10
2.7
 20
-5.95
  0
LINE
  5
28A
100
AcDbEntity
  8
RACCORDO
100
AcDbLine
 62
7
  6
CONTINUOUS
 10
3.0
 20
-8.9553732239
 11
2.9780202365
 21
-8.9336080362
  0
LWPOLYLINE
  5
28B
100
AcDbEntity
  8
RACCORDO
100
AcDbPolyline
 62
7
  6
CONTINUOUS
 90
3
 70
0
 10
2.7884495778
 20
-8.7422207518
 10
2.7705901795
 20
-8.7242122823
 10
2.7394119418
 20
-8.6920945127
  0
LWPOLYLINE
  5
28C
100
AcDbEntity
  8
RACCORDO
100
AcDbPolyline
 62
7
  6
CONTINUOUS
 90
6
 70
0
 10
2.7394119418
 20
-8.6920945127
 10
2.7260931024
 20
-8.6786369934
 10
2.7153872252
 20
-8.6671031793
 10
2.707645188
 20
-8.6580192126
 10
2.7025161129
 20
-8.6521087339
 10
2.7
 20
-8.65
  0
LINE
  5
28D
100
AcDbEntity
  8
RACCORDO
100
AcDbLine
 62
7
  6
CONTINUOUS
 10
2.9780202365
 20
-8.9336080362
 11
2.8268955275
 21
-8.7813741446
  0
LINE
  5
28E
100
AcDbEntity
  8
RACCORDO
100
AcDbLine
 62
7
  6
CONTINUOUS
 10
2.8268955275
 20
-8.7813741446
 11
2.7884495778
 21
-8.7422207518
  0
LINE
  5
28F
100
AcDbEntity
  8
0
100
AcDbLine
 62
250
  6
CONTINUOUS
 10
-11.0087219643
 20
21.4755923698
 11
-11.15
 21
21.8997711479
  0
LINE
  5
290
100
AcDbEntity
  8
0
100
AcDbLine
 62
7
  6
CONTINUOUS
 10
-3.4698202597
 20
22.5
 11
-3.4698202597
 21
22.4
  0
LINE
  5
291
100
AcDbEntity
  8
0
100
AcDbLine
 62
7
  6
CONTINUOUS
 10
-3.4698202597
 20
-22.5
 11
-3.4698202597
 21
-22.4
  0
LINE
  5
292
100
AcDbEntity
  8
RACCORDO
100
AcDbLine
 62
250
  6
CONTINUOUS
 10
-3.0
 20
-8.9553732239
 11
-3.0
 21
-5.9535721433
  0
LINE
  5
293
100
AcDbEntity
  8
RACCORDO
100
AcDbLine
 62
7
  6
CONTINUOUS
 10
-2.7
 20
-8.65
 11
-2.7
 21
-5.95
  0
LINE
  5
294
100
AcDbEntity
  8
0
100
AcDbLine
 62
7
  6
CONTINUOUS
 10
-2.6
 20
-5.2222320385
 11
-2.6
 21
-8.65
  0
LINE
  5
295
100
AcDbEntity
  8
0
100
AcDbLine
 62
7
  6
CONTINUOUS
 10
-2.1050252532
 20
-4.2601708878
 11
-2.1050252532
 21
-8.65
  0
LINE
  5
296
100
AcDbEntity
  8
0
100
AcDbLine
 62
250
  6
CONTINUOUS
 10
-0.5035980258
 20
-3.2975089598
 11
-0.5035980258
 21
-8.65
  0
LINE
  5
297
100
AcDbEntity
  8
0
100
AcDbLine
 62
7
  6
CONTINUOUS
 10
-0.0935475195
 20
-8.65
 11
-0.0935475195
 21
-3.2526812518
  0
LINE
  5
298
100
AcDbEntity
  8
0
100
AcDbLine
 62
7
  6
CONTINUOUS
 10
0.0935475195
 20
-3.2526464413
 11
0.0935475195
 21
-8.65
  0
LINE
  5
299
100
AcDbEntity
  8
0
100
AcDbLine
 62
250
  6
CONTINUOUS
 10
0.5035980258
 20
-8.65
 11
0.5035980258
 21
-3.2989420203
  0
LWPOLYLINE
  5
29A
100
AcDbEntity
  8
RACCORDO
100
AcDbPolyline
 62
250
  6
CONTINUOUS
 90
76
 70
0
 10
-3.0
 20
-5.9535721433
 10
-2.9994026956
 20
-5.8871827123
 10
-2.997125546
 20
-5.8196952277
 10
-2.9931685512
 20
-5.7511096856
 10
-2.9876679359
 20
-5.68162913
 10
-2.9804874754
 20
-5.6110505097
 10
-2.9712184958
 20
-5.5387646752
 10
-2.9599170997
 20
-5.4646568711
 10
-2.9465271845
 20
-5.388841839
 10
-2.9304717688
 20
-5.3110546705
 10
-2.9118225841
 20
-5.2312733709
 10
-2.8905078988
 20
-5.149519919
 10
-2.865735537
 20
-5.0655953642
 10
-2.8375771094
 20
-4.9794191056
 10
-2.8059610052
 20
-4.8910717262
 10
-2.7698802155
 20
-4.8005960507
 10
-2.7294025335
 20
-4.7078784782
 10
-2.684460166
 20
-4.6130325928
 10
-2.6338427253
 20
-4.5164419983
 10
-2.5776045409
 20
-4.4179529691
 10
-2.5156912832
 20
-4.3177192191
 10
-2.4467295757
 20
-4.2165855187
 10
-2.3707443856
 20
-4.1143498317
 10
-2.2877107457
 20
-4.0112141926
 10
-2.1961803773
 20
-3.9086294891
 10
-2.0961159298
 20
-3.806334251
 10
-1.9875547537
 20
-3.7045899615
 10
-1.8691606227
 20
-3.6056319564
 10
-1.7407306112
 20
-3.509127683
 10
-1.6024676447
 20
-3.4154097239
 10
-1.4536442733
 20
-3.3277111393
 10
-1.2934476888
 20
-3.2456936923
 10
-1.1226906993
 20
-3.1696956646
 10
-0.9430842797
 20
-3.1039649153
 10
-0.7534744409
 20
-3.0487946495
 10
-0.5550151719
 20
-3.0038917107
 10
-0.3528794145
 20
-2.9726244252
 10
-0.1466853203
 20
-2.9560173307
 10
0.0631852623
 20
-2.9530459135
 10
0.2704138462
 20
-2.9640049185
 10
0.4747281402
 20
-2.989963978
 10
0.6764004355
 20
-3.0298534407
 10
0.8699291192
 20
-3.080759119
 10
1.0543163569
 20
-3.1431704374
 10
1.2305599831
 20
-3.2165979229
 10
1.3961518882
 20
-3.29665905
 10
1.5500717443
 20
-3.3830388754
 10
1.6933398793
 20
-3.4760522947
 10
1.826509168
 20
-3.5722615628
 10
1.9493262138
 20
-3.6713180653
 10
2.0620444133
 20
-3.7735703833
 10
2.1659768299
 20
-3.8766265868
 10
2.2610723493
 20
-3.980212669
 10
2.3473820859
 20
-4.084602621
 10
2.4263724461
 20
-4.1882265277
 10
2.4980622612
 20
-4.2908714331
 10
2.5624326999
 20
-4.3927502931
 10
2.6208936742
 20
-4.4929320732
 10
2.6734978492
 20
-4.5912556593
 10
2.7201925598
 20
-4.6878821764
 10
2.7622297223
 20
-4.7823639561
 10
2.7996767602
 20
-4.8745805793
 10
2.8324662499
 20
-4.9646524821
 10
2.8616478372
 20
-5.0524932818
 10
2.8872942876
 20
-5.138018425
 10
2.9093328356
 20
-5.2213124838
 10
2.9285948309
 20
-5.3025427633
 10
2.9451520144
 20
-5.3816653158
 10
2.9589326451
 20
-5.458724106
 10
2.9705528494
 20
-5.5340183057
 10
2.9800749425
 20
-5.6074903701
 10
2.9874366092
 20
-5.6791978583
 10
2.9930670302
 20
-5.7496125934
 10
2.9971092658
 20
-5.8188918522
 10
2.9994202557
 20
-5.8868783672
 10
3.0
 20
-5.9535721433
  0
LINE
  5
29B
100
AcDbEntity
  8
0
100
AcDbLine
 62
7
  6
CONTINUOUS
 10
3.4151277229
 20
22.4
 11
3.4366556363
 21
22.5
  0
LINE
  5
29C
100
AcDbEntity
  8
0
100
AcDbLine
 62
250
  6
CONTINUOUS
 10
-10.6503805997
 20
-22.4
 11
-10.5087981167
 21
-21.9749071372
  0
LWPOLYLINE
  5
29D
100
AcDbEntity
  8
RACCORDO
100
AcDbPolyline
 62
7
  6
CONTINUOUS
 90
4
 70
0
 10
7.4658730116
 20
9.4677769594
 10
7.4766556797
 20
9.4793268751
 10
7.4900144853
 20
9.4929072684
 10
7.5212794055
 20
9.5252260801
  0
LWPOLYLINE
  5
29E
100
AcDbEntity
  8
RACCORDO
100
AcDbPolyline
 62
7
  6
CONTINUOUS
 90
3
 70
0
 10
7.5212794055
 20
9.5252260801
 10
7.53918552
 20
9.5433134216
 10
7.5777010952
 20
9.582586643
  0
LINE
  5
29F
100
AcDbEntity
  8
RACCORDO
100
AcDbLine
 62
7
  6
CONTINUOUS
 10
7.5777010952
 20
9.582586643
 11
7.6408689895
 21
9.6463845735
  0
LWPOLYLINE
  5
2A0
100
AcDbEntity
  8
RACCORDO
100
AcDbPolyline
 62
7
  6
CONTINUOUS
 90
3
 70
0
 10
7.6628179625
 20
9.6683756994
 10
7.7282657244
 20
9.7343310775
 10
7.75
 20
9.7558535121
  0
LINE
  5
2A1
100
AcDbEntity
  8
RACCORDO
100
AcDbLine
 62
7
  6
CONTINUOUS
 10
7.6408689895
 20
9.6463845735
 11
7.6628179625
 21
9.6683756994
  0
LWPOLYLINE
  5
2A2
100
AcDbEntity
  8
RACCORDO
100
AcDbPolyline
 62
7
  6
CONTINUOUS
 90
3
 70
0
 10
7.45
 20
9.4500553678
 10
7.4527148664
 20
9.4526269878
 10
7.4658730116
 20
9.4677769594
  0
LWPOLYLINE
  5
2A3
100
AcDbEntity
  8
0
100
AcDbPolyline
 62
7
  6
CONTINUOUS
 90
2
 70
0
 43
0.3500000006
 10
22.4753762054
 20
-1.3571429443
 10
20.9753757477
 20
-1.3571429443
  0
LWPOLYLINE
  5
2A4
100
AcDbEntity
  8
0
100
AcDbPolyline
 62
7
  6
CONTINUOUS
 90
4
 70
0
 43
0.3500000006
 10
20.1182332764
 20
-0.0000003204
 10
19.4753752899
 20
-0.0000003204
 10
19.4753752899
 20
1.5000001373
 10
22.4753762054
 20
0.642857666
  0
LWPOLYLINE
  5
2A5
100
AcDbEntity
  8
RACCORDO
100
AcDbPolyline
 62
7
  6
CONTINUOUS
 90
6
 70
0
 10
-5.2098207793
 20
1.5602913581
 10
-5.2231919852
 20
1.5733274902
 10
-5.2339972459
 20
1.5842750325
 10
-5.2418974424
 20
1.5927052627
 10
-5.2472316938
 20
1.5981011565
 10
-5.25
 20
1.6
  0
LWPOLYLINE
  5
2A6
100
AcDbEntity
  8
RACCORDO
100
AcDbPolyline
 62
7
  6
CONTINUOUS
 90
3
 70
0
 10
-5.1606719543
 20
1.5113012735
 10
-5.1785607639
 20
1.5289528134
 10
-5.2098207793
 20
1.5602913581
  0
LINE
  5
2A7
100
AcDbEntity
  8
RACCORDO
100
AcDbLine
 62
7
  6
CONTINUOUS
 10
-4.95
 20
1.3007804683
 11
-4.971748457
 21
1.3223047245
  0
LINE
  5
2A8
100
AcDbEntity
  8
RACCORDO
100
AcDbLine
 62
7
  6
CONTINUOUS
 10
-4.971748457
 20
1.3223047245
 11
-5.1606719543
 21
1.5113012735
  0
LINE
  5
2A9
100
AcDbEntity
  8
0
100
AcDbLine
 62
250
  6
CONTINUOUS
 10
-10.5087981167
 20
21.9749071372
 11
-10.6503805997
 21
22.4
  0
LINE
  5
2AA
100
AcDbEntity
  8
0
100
AcDbLine
 62
7
  6
CONTINUOUS
 10
3.4151277229
 20
-22.4
 11
3.4366556363
 21
-22.5
  0
LINE
  5
2AB
100
AcDbEntity
  8
0
100
AcDbLine
 62
7
  6
CONTINUOUS
 10
2.1050252532
 20
-8.65
 11
2.1050252532
 21
-4.2595761095
  0
LINE
  5
2AC
100
AcDbEntity
  8
0
100
AcDbLine
 62
7
  6
CONTINUOUS
 10
2.6
 20
-8.65
 11
2.6
 21
-5.222281875
  0
LINE
  5
2AD
100
AcDbEntity
  8
RACCORDO
100
AcDbLine
 62
7
  6
CONTINUOUS
 10
2.7
 20
-5.95
 11
2.7
 21
-8.65
  0
LINE
  5
2AE
100
AcDbEntity
  8
RACCORDO
100
AcDbLine
 62
250
  6
CONTINUOUS
 10
3.0
 20
-5.9535721433
 11
3.0
 21
-8.9553732239
  0
LINE
  5
2AF
100
AcDbEntity
  8
0
100
AcDbLine
 62
7
  6
CONTINUOUS
 10
3.4698202597
 20
-22.4
 11
3.4698202597
 21
-22.5
  0
LINE
  5
2B0
100
AcDbEntity
  8
0
100
AcDbLine
 62
7
  6
CONTINUOUS
 10
3.4698202597
 20
22.4
 11
3.4698202597
 21
22.5
  0
LINE
  5
2B1
100
AcDbEntity
  8
0
100
AcDbLine
 62
7
  6
CONTINUOUS
 10
-3.4151277229
 20
-22.4
 11
-3.4366556363
 21
-22.5
  0
LINE
  5
2B2
100
AcDbEntity
  8
0
100
AcDbLine
 62
250
  6
CONTINUOUS
 10
10.5087981167
 20
21.9749071372
 11
10.6503805997
 21
22.4
  0
LINE
  5
2B3
100
AcDbEntity
  8
0
100
AcDbLine
 62
250
  6
CONTINUOUS
 10
11.0087219643
 20
21.4755923698
 11
11.15
 21
21.8997711479
  0
LWPOLYLINE
  5
2B4
100
AcDbEntity
  8
RACCORDO
100
AcDbPolyline
 62
7
  6
CONTINUOUS
 90
3
 70
0
 10
-2.7705901795
 20
-8.7242122823
 10
-2.7884495778
 20
-8.7422207518
 10
-2.8268955275
 20
-8.7813741446
  0
LINE
  5
2B5
100
AcDbEntity
  8
RACCORDO
100
AcDbLine
 62
7
  6
CONTINUOUS
 10
-2.8268955275
 20
-8.7813741446
 11
-2.8900848408
 21
-8.8451432673
  0
LWPOLYLINE
  5
2B6
100
AcDbEntity
  8
RACCORDO
100
AcDbPolyline
 62
7
  6
CONTINUOUS
 90
3
 70
0
 10
-2.9121010512
 20
-8.8671917461
 10
-2.9780202365
 20
-8.9336080362
 10
-3.0
 20
-8.9553732239
  0
LINE
  5
2B7
100
AcDbEntity
  8
RACCORDO
100
AcDbLine
 62
7
  6
CONTINUOUS
 10
-2.8900848408
 20
-8.8451432673
 11
-2.9121010512
 21
-8.8671917461
  0
LWPOLYLINE
  5
2B8
100
AcDbEntity
  8
RACCORDO
100
AcDbPolyline
 62
7
  6
CONTINUOUS
 90
3
 70
0
 10
4.9716704541
 20
2.1727355417
 10
5.0369956676
 20
2.2382892238
 10
5.1014740086
 20
2.302660485
  0
LWPOLYLINE
  5
2B9
100
AcDbEntity
  8
RACCORDO
100
AcDbPolyline
 62
7
  6
CONTINUOUS
 90
3
 70
0
 10
5.1220893435
 20
2.3230854887
 10
5.1606228991
 20
2.361616226
 10
5.1785411198
 20
2.3792649464
  0
LWPOLYLINE
  5
2BA
100
AcDbEntity
  8
RACCORDO
100
AcDbPolyline
 62
7
  6
CONTINUOUS
 90
7
 70
0
 10
5.1785411198
 20
2.3792649464
 10
5.2098283569
 20
2.4105599277
 10
5.2231973732
 20
2.4235574591
 10
5.2339999513
 20
2.4344403384
 10
5.2418997391
 20
2.4427935865
 10
5.2472330887
 20
2.4481270486
 10
5.25
 20
2.45
  0
LINE
  5
2BB
100
AcDbEntity
  8
RACCORDO
100
AcDbLine
 62
7
  6
CONTINUOUS
 10
5.1014740086
 20
2.302660485
 11
5.1220893435
 21
2.3230854887
  0
LINE
  5
2BC
100
AcDbEntity
  8
RACCORDO
100
AcDbLine
 62
7
  6
CONTINUOUS
 10
4.95
 20
2.1512907745
 11
4.9716704541
 21
2.1727355417
  0
LINE
  5
2BD
100
AcDbEntity
  8
RACCORDO
100
AcDbLine
 62
250
  6
CONTINUOUS
 10
-4.95
 20
1.3007804683
 11
-7.75
 21
1.3007804683
  0
LINE
  5
2BE
100
AcDbEntity
  8
RACCORDO
100
AcDbLine
 62
7
  6
CONTINUOUS
 10
-5.25
 20
1.6
 11
-7.45
 21
1.6
  0
LINE
  5
2BF
100
AcDbEntity
  8
RACCORDO
100
AcDbLine
 62
250
  6
CONTINUOUS
 10
7.75
 20
2.1512907745
 11
4.95
 21
2.1512907745
  0
LINE
  5
2C0
100
AcDbEntity
  8
RACCORDO
100
AcDbLine
 62
7
  6
CONTINUOUS
 10
7.45
 20
2.45
 11
5.25
 21
2.45
  0
LINE
  5
2C1
100
AcDbEntity
  8
RACCORDO
100
AcDbLine
 62
7
  6
CONTINUOUS
 10
-7.45
 20
10.3000656078
 11
-7.4527148664
 21
10.3026948169
  0
LINE
  5
2C2
100
AcDbEntity
  8
RACCORDO
100
AcDbLine
 62
7
  6
CONTINUOUS
 10
-7.7282657244
 20
10.5848408153
 11
-7.75
 21
10.6063638183
  0
LINE
  5
2C3
100
AcDbEntity
  8
RACCORDO
100
AcDbLine
 62
7
  6
CONTINUOUS
 10
-7.6408689895
 20
10.4968637251
 11
-7.7282657244
 21
10.5848408153
  0
LINE
  5
2C4
100
AcDbEntity
  8
RACCORDO
100
AcDbLine
 62
7
  6
CONTINUOUS
 10
-7.5212794055
 20
10.3755644468
 11
-7.6408689895
 21
10.4968637251
  0
LINE
  5
2C5
100
AcDbEntity
  8
RACCORDO
100
AcDbLine
 62
7
  6
CONTINUOUS
 10
-7.4900144853
 20
10.3431706847
 11
-7.5212794055
 21
10.3755644468
  0
LWPOLYLINE
  5
2C6
100
AcDbEntity
  8
RACCORDO
100
AcDbPolyline
 62
7
  6
CONTINUOUS
 90
4
 70
0
 10
-7.4527148664
 20
10.3026948169
 10
-7.4658730116
 20
10.3179504583
 10
-7.4766556797
 20
10.3295473699
 10
-7.4900144853
 20
10.3431706847
  0
LINE
  5
2C7
100
AcDbEntity
  8
0
100
AcDbLine
 62
250
  6
CONTINUOUS
 10
10.6503805997
 20
-22.4
 11
10.5087981167
 21
-21.9749071372
  0
LINE
  5
2C8
100
AcDbEntity
  8
0
100
AcDbLine
 62
250
  6
CONTINUOUS
 10
11.15
 20
-21.8997711479
 11
11.0087219643
 21
-21.4755923698
  0
LINE
  5
2C9
100
AcDbEntity
  8
0
100
AcDbLine
 62
7
  6
CONTINUOUS
 10
-3.4151277229
 20
22.4
 11
-3.4366556363
 21
22.5
  0
LWPOLYLINE
  5
2CA
100
AcDbEntity
  8
0
100
AcDbPolyline
 62
7
  6
CONTINUOUS
 90
34
 70
0
 10
7.0544443942
 20
5.2187484282
 10
7.0550677907
 20
5.2129332475
 10
7.0556965061
 20
5.2073283756
 10
7.0563318916
 20
5.2019249765
 10
7.0569779405
 20
5.1966945987
 10
7.0576350561
 20
5.191640964
 10
7.0583062947
 20
5.1867481554
 10
7.0590015608
 20
5.1819574672
 10
7.0597235117
 20
5.177269196
 10
7.0604768354
 20
5.1726727493
 10
7.0612789592
 20
5.1680905872
 10
7.0621343562
 20
5.163533484
 10
7.0630549539
 20
5.1589767317
 10
7.064080155
 20
5.1542839466
 10
7.0652177909
 20
5.1494921665
 10
7.0664987626
 20
5.1445490554
 10
7.0680260744
 20
5.139183955
 10
7.0698434803
 20
5.1334162756
 10
7.0720122875
 20
5.1272364975
 10
7.0747266806
 20
5.1203457938
 10
7.0781576119
 20
5.1126626227
 10
7.0823896527
 20
5.1043721495
 10
7.0875381485
 20
5.0956055663
 10
7.0938009346
 20
5.086403348
 10
7.1012878031
 20
5.076996097
 10
7.1099266982
 20
5.0678034992
 10
7.1197670719
 20
5.0590220219
 10
7.1308696675
 20
5.0507858991
 10
7.1430635736
 20
5.0433722459
 10
7.1562446744
 20
5.0369568092
 10
7.1703907802
 20
5.031672281
 10
7.1853817766
 20
5.0277040831
 10
7.2010869618
 20
5.0252400592
 10
7.2159875645
 20
5.0244716614
  0
LWPOLYLINE
  5
2CB
100
AcDbEntity
  8
0
100
AcDbPolyline
 62
7
  6
CONTINUOUS
 90
34
 70
0
 10
7.2277387684
 20
8.6876290622
 10
7.2271103116
 20
8.6936077217
 10
7.2264768122
 20
8.6993679104
 10
7.2258370308
 20
8.7049177931
 10
7.2251870741
 20
8.7102857901
 10
7.2245262142
 20
8.715470873
 10
7.2238518309
 20
8.7204859615
 10
7.2231553713
 20
8.7253820269
 10
7.22243571
 20
8.7301507826
 10
7.2216870696
 20
8.7348131467
 10
7.2208894213
 20
8.7394649975
 10
7.220040132
 20
8.7440844793
 10
7.2191258053
 20
8.7487046926
 10
7.2180978604
 20
8.7535048239
 10
7.2169402756
 20
8.7584689583
 10
7.2156254002
 20
8.7636182526
 10
7.214055873
 20
8.769192204
 10
7.2121824253
 20
8.7751786288
 10
7.2099401568
 20
8.7815847086
 10
7.2071448807
 20
8.788672266
 10
7.2036164305
 20
8.7965386068
 10
7.1992731251
 20
8.8049856628
 10
7.1940445887
 20
8.8138092084
 10
7.1877658879
 20
8.8229516792
 10
7.1803293071
 20
8.8322233261
 10
7.17182096
 20
8.8412279354
 10
7.1622377536
 20
8.8497666639
 10
7.1515072464
 20
8.8577579526
 10
7.1397035257
 20
8.8650093692
 10
7.1269192691
 20
8.8713453222
 10
7.1131632161
 20
8.8766347155
 10
7.0984230284
 20
8.8807190251
 10
7.0827703234
 20
8.8833767413
 10
7.0659793125
 20
8.8843518583
  0
LINE
  5
2CC
100
AcDbEntity
  8
0
100
AcDbLine
 62
7
  6
CONTINUOUS
 10
6.9287808122
 20
8.6636113029
 11
6.9296773581
 21
8.6549987843
  0
LINE
  5
2CD
100
AcDbEntity
  8
0
100
AcDbLine
 62
7
  6
CONTINUOUS
 10
7.3530708895
 20
5.2459064069
 11
7.3521795245
 21
5.2545059069
  0
LINE
  5
2CE
100
AcDbEntity
  8
0
100
AcDbLine
 62
7
  6
CONTINUOUS
 10
7.053210241
 20
5.2310306715
 11
7.0544443942
 21
5.2187484282
  0
LINE
  5
2CF
100
AcDbEntity
  8
0
100
AcDbLine
 62
7
  6
CONTINUOUS
 10
7.2289841402
 20
8.6749915902
 11
7.2277387684
 21
8.6876290622
  0
LINE
  5
2D0
100
AcDbEntity
  8
0
100
AcDbLine
 62
7
  6
CONTINUOUS
 10
6.9296773581
 20
8.6549987843
 11
6.9306159205
 21
8.6452537291
  0
LINE
  5
2D1
100
AcDbEntity
  8
0
100
AcDbLine
 62
7
  6
CONTINUOUS
 10
7.3521795245
 20
5.2545059069
 11
7.3512505171
 21
5.2641802693
  0
LWPOLYLINE
  5
2D2
100
AcDbEntity
  8
0
100
AcDbPolyline
 62
250
  6
CONTINUOUS
 90
5
 70
0
 10
10.5087981167
 20
-21.9749071372
 10
10.5080778515
 20
-21.9672624094
 10
10.50737474
 20
-21.9529541156
 10
10.5066887822
 20
-21.9320774319
 10
10.5060155824
 20
-21.9047700276
  0
LINE
  5
2D3
100
AcDbEntity
  8
0
100
AcDbLine
 62
7
  6
CONTINUOUS
 10
7.0519855074
 20
5.2442460524
 11
7.053210241
 21
5.2310306715
  0
LINE
  5
2D4
100
AcDbEntity
  8
0
100
AcDbLine
 62
7
  6
CONTINUOUS
 10
7.2302215513
 20
8.6613802378
 11
7.2289841402
 21
8.6749915902
  0
LINE
  5
2D5
100
AcDbEntity
  8
0
100
AcDbLine
 62
7
  6
CONTINUOUS
 10
6.9306159205
 20
8.6452537291
 11
6.9315887384
 21
8.6343906065
  0
LINE
  5
2D6
100
AcDbEntity
  8
0
100
AcDbLine
 62
7
  6
CONTINUOUS
 10
7.3512505171
 20
5.2641802693
 11
7.3502915272
 21
5.2749058017
  0
LINE
  5
2D7
100
AcDbEntity
  8
0
100
AcDbLine
 62
7
  6
CONTINUOUS
 10
7.0507658879
 20
5.258435313
 11
7.0519855074
 21
5.2442460524
  0
LINE
  5
2D8
100
AcDbEntity
  8
0
100
AcDbLine
 62
7
  6
CONTINUOUS
 10
7.2314575366
 20
8.646723644
 11
7.2302215513
 21
8.6613802378
  0
LINE
  5
2D9
100
AcDbEntity
  8
0
100
AcDbLine
 62
7
  6
CONTINUOUS
 10
6.9315887384
 20
8.6343906065
 11
6.9325913224
 21
8.6224035671
  0
LINE
  5
2DA
100
AcDbEntity
  8
0
100
AcDbLine
 62
7
  6
CONTINUOUS
 10
7.3502915272
 20
5.2749058017
 11
7.3493076244
 21
5.2866710112
  0
LINE
  5
2DB
100
AcDbEntity
  8
0
100
AcDbLine
 62
7
  6
CONTINUOUS
 10
7.0495482323
 20
5.2736331135
 11
7.0507658879
 21
5.258435313
  0
LINE
  5
2DC
100
AcDbEntity
  8
0
100
AcDbLine
 62
7
  6
CONTINUOUS
 10
7.3493076244
 20
5.2866710112
 11
7.3483018661
 21
5.2994776946
  0
LINE
  5
2DD
100
AcDbEntity
  8
0
100
AcDbLine
 62
7
  6
CONTINUOUS
 10
7.2326960929
 20
8.6309669628
 11
7.2314575366
 21
8.646723644
  0
LINE
  5
2DE
100
AcDbEntity
  8
0
100
AcDbLine
 62
7
  6
CONTINUOUS
 10
6.9325913224
 20
8.6224035671
 11
6.9336206442
 21
8.6092788407
  0
LINE
  5
2DF
100
AcDbEntity
  8
0
100
AcDbLine
 62
7
  6
CONTINUOUS
 10
7.0483299928
 20
5.289872182
 11
7.0495482323
 21
5.2736331135
  0
LINE
  5
2E0
100
AcDbEntity
  8
0
100
AcDbLine
 62
7
  6
CONTINUOUS
 10
7.2339407134
 20
8.6140528629
 11
7.2326960929
 21
8.6309669628
  0
LINE
  5
2E1
100
AcDbEntity
  8
0
100
AcDbLine
 62
7
  6
CONTINUOUS
 10
7.3483018661
 20
5.2994776946
 11
7.3467573093
 21
5.3206483654
  0
LINE
  5
2E2
100
AcDbEntity
  8
0
100
AcDbLine
 62
7
  6
CONTINUOUS
 10
6.9336206442
 20
8.6092788407
 11
6.9352089436
 21
8.58743596
  0
LINE
  5
2E3
100
AcDbEntity
  8
0
100
AcDbLine
 62
7
  6
CONTINUOUS
 10
7.046496798
 20
5.3162553612
 11
7.0483299928
 21
5.289872182
  0
LINE
  5
2E4
100
AcDbEntity
  8
0
100
AcDbLine
 62
7
  6
CONTINUOUS
 10
7.2358237368
 20
8.5864092418
 11
7.2339407134
 21
8.6140528629
  0
LINE
  5
2E5
100
AcDbEntity
  8
0
100
AcDbLine
 62
7
  6
CONTINUOUS
 10
7.3467573093
 20
5.3206483654
 11
7.3451733502
 21
5.3442092267
  0
LINE
  5
2E6
100
AcDbEntity
  8
0
100
AcDbLine
 62
7
  6
CONTINUOUS
 10
6.9352089436
 20
8.58743596
 11
6.9368453523
 21
8.5629577391
  0
LINE
  5
2E7
100
AcDbEntity
  8
0
100
AcDbLine
 62
7
  6
CONTINUOUS
 10
7.0446524707
 20
5.3451461427
 11
7.046496798
 21
5.3162553612
  0
LINE
  5
2E8
100
AcDbEntity
  8
0
100
AcDbLine
 62
7
  6
CONTINUOUS
 10
7.3451733502
 20
5.3442092267
 11
7.3435527121
 21
5.3702104151
  0
LINE
  5
2E9
100
AcDbEntity
  8
0
100
AcDbLine
 62
7
  6
CONTINUOUS
 10
7.2377306724
 20
8.5559115611
 11
7.2358237368
 21
8.5864092418
  0
LINE
  5
2EA
100
AcDbEntity
  8
0
100
AcDbLine
 62
7
  6
CONTINUOUS
 10
6.9368453523
 20
8.5629577391
 11
6.9385256951
 21
8.5357871399
  0
LINE
  5
2EB
100
AcDbEntity
  8
0
100
AcDbLine
 62
7
  6
CONTINUOUS
 10
7.0421711871
 20
5.3876849144
 11
7.0446524707
 21
5.3451461427
  0
LINE
  5
2EC
100
AcDbEntity
  8
0
100
AcDbLine
 62
7
  6
CONTINUOUS
 10
7.3435527121
 20
5.3702104151
 11
7.3413373267
 21
5.4087772053
  0
LINE
  5
2ED
100
AcDbEntity
  8
0
100
AcDbLine
 62
7
  6
CONTINUOUS
 10
7.2403164207
 20
8.5105894582
 11
7.2377306724
 21
8.5559115611
  0
LINE
  5
2EE
100
AcDbEntity
  8
0
100
AcDbLine
 62
7
  6
CONTINUOUS
 10
6.9385256951
 20
8.5357871399
 11
6.9408295002
 21
8.4952702822
  0
LINE
  5
2EF
100
AcDbEntity
  8
0
100
AcDbLine
 62
7
  6
CONTINUOUS
 10
7.0396613394
 20
5.4349180788
 11
7.0421711871
 21
5.3876849144
  0
LINE
  5
2F0
100
AcDbEntity
  8
0
100
AcDbLine
 62
7
  6
CONTINUOUS
 10
7.3413373267
 20
5.4087772053
 11
7.3384823814
 21
5.4634714138
  0
LINE
  5
2F1
100
AcDbEntity
  8
0
100
AcDbLine
 62
7
  6
CONTINUOUS
 10
7.2429562021
 20
8.4597061159
 11
7.2403164207
 21
8.5105894582
  0
LINE
  5
2F2
100
AcDbEntity
  8
0
100
AcDbLine
 62
7
  6
CONTINUOUS
 10
6.9408295002
 20
8.4952702822
 11
6.9438045752
 21
8.4375398284
  0
LINE
  5
2F3
100
AcDbEntity
  8
0
100
AcDbLine
 62
7
  6
CONTINUOUS
 10
7.0364817751
 20
5.5006565162
 11
7.0396613394
 21
5.4349180788
  0
LINE
  5
2F4
100
AcDbEntity
  8
0
100
AcDbLine
 62
7
  6
CONTINUOUS
 10
7.2463367897
 20
8.3879491735
 11
7.2429562021
 21
8.4597061159
  0
LINE
  5
2F5
100
AcDbEntity
  8
0
100
AcDbLine
 62
7
  6
CONTINUOUS
 10
7.3384823814
 20
5.4634714138
 11
7.3349303895
 21
5.5390499872
  0
LINE
  5
2F6
100
AcDbEntity
  8
0
100
AcDbLine
 62
7
  6
CONTINUOUS
 10
6.9438045752
 20
8.4375398284
 11
6.9475055706
 21
8.3575817687
  0
LINE
  5
2F7
100
AcDbEntity
  8
0
100
AcDbLine
 62
7
  6
CONTINUOUS
 10
7.0326045588
 20
5.5893865087
 11
7.0364817751
 21
5.5006565162
  0
LINE
  5
2F8
100
AcDbEntity
  8
0
100
AcDbLine
 62
7
  6
CONTINUOUS
 10
7.2505197913
 20
8.2893750749
 11
7.2463367897
 21
8.3879491735
  0
LINE
  5
2F9
100
AcDbEntity
  8
0
100
AcDbLine
 62
7
  6
CONTINUOUS
 10
7.3349303895
 20
5.5390499872
 11
7.3306119457
 21
5.6415627987
  0
LINE
  5
2FA
100
AcDbEntity
  8
0
100
AcDbLine
 62
7
  6
CONTINUOUS
 10
6.9475055706
 20
8.3575817687
 11
6.9519855248
 21
8.249427235
  0
LINE
  5
2FB
100
AcDbEntity
  8
0
100
AcDbLine
 62
7
  6
CONTINUOUS
 10
7.0273359008
 20
5.7241010042
 11
7.0326045588
 21
5.5893865087
  0
LINE
  5
2FC
100
AcDbEntity
  8
0
100
AcDbLine
 62
7
  6
CONTINUOUS
 10
7.2563251485
 20
8.1359323621
 11
7.2505197913
 21
8.2893750749
  0
LINE
  5
2FD
100
AcDbEntity
  8
0
100
AcDbLine
 62
7
  6
CONTINUOUS
 10
7.3306119457
 20
5.6415627987
 11
7.324803249
 21
5.7963663543
  0
LINE
  5
2FE
100
AcDbEntity
  8
0
100
AcDbLine
 62
7
  6
CONTINUOUS
 10
6.9519855248
 20
8.249427235
 11
6.9586450204
 21
8.067712424
  0
LINE
  5
2FF
100
AcDbEntity
  8
0
100
AcDbLine
 62
7
  6
CONTINUOUS
 10
7.0192482303
 20
5.9591529844
 11
7.0273359008
 21
5.7241010042
  0
LINE
  5
300
100
AcDbEntity
  8
0
100
AcDbLine
 62
7
  6
CONTINUOUS
 10
7.324803249
 20
5.7963663543
 11
7.3173502559
 21
6.0199055703
  0
LINE
  5
301
100
AcDbEntity
  8
0
100
AcDbLine
 62
7
  6
CONTINUOUS
 10
7.2655441794
 20
7.8576795858
 11
7.2563251485
 21
8.1359323621
  0
LINE
  5
302
100
AcDbEntity
  8
0
100
AcDbLine
 62
7
  6
CONTINUOUS
 10
6.9586450204
 20
8.067712424
 11
6.9662758059
 21
7.8329470067
  0
LINE
  5
303
100
AcDbEntity
  8
0
100
AcDbLine
 62
7
  6
CONTINUOUS
 10
7.3173502559
 20
6.0199055703
 11
7.3086960131
 21
6.3077923712
  0
LINE
  5
304
100
AcDbEntity
  8
0
100
AcDbLine
 62
7
  6
CONTINUOUS
 10
6.9662758059
 20
7.8329470067
 11
6.9757800546
 21
7.5097808635
  0
LINE
  5
305
100
AcDbEntity
  8
0
100
AcDbLine
 62
7
  6
CONTINUOUS
 10
7.3086960131
 20
6.3077923712
 11
7.2923669977
 21
6.9010227522
  0
LINE
  5
306
100
AcDbEntity
  8
0
100
AcDbLine
 62
7
  6
CONTINUOUS
 10
6.9757800546
 20
7.5097808635
 11
7.0192482303
 21
5.9591529844
  0
LINE
  5
307
100
AcDbEntity
  8
0
100
AcDbLine
 62
7
  6
CONTINUOUS
 10
7.2923669977
 20
6.9010227522
 11
7.2655441794
 21
7.8576795858
  0
LINE
  5
308
100
AcDbEntity
  8
RACCORDO
100
AcDbLine
 62
250
  6
CONTINUOUS
 10
4.95
 20
2.1512907745
 11
4.95
 21
9.7558535121
  0
LINE
  5
309
100
AcDbEntity
  8
RACCORDO
100
AcDbLine
 62
7
  6
CONTINUOUS
 10
5.25
 20
2.45
 11
5.25
 21
9.4500553905
  0
LINE
  5
30A
100
AcDbEntity
  8
0
100
AcDbLine
 62
7
  6
CONTINUOUS
 10
5.2562157899
 20
9.4500553905
 11
5.2562157899
 21
7.7818924569
  0
LINE
  5
30B
100
AcDbEntity
  8
0
100
AcDbLine
 62
7
  6
CONTINUOUS
 10
5.2562157899
 20
6.4574435216
 11
5.2562157899
 21
2.45
  0
LINE
  5
30C
100
AcDbEntity
  8
RACCORDO
100
AcDbLine
 62
7
  6
CONTINUOUS
 10
7.45
 20
9.4500553501
 11
7.45
 21
2.45
  0
LINE
  5
30D
100
AcDbEntity
  8
RACCORDO
100
AcDbLine
 62
250
  6
CONTINUOUS
 10
7.75
 20
9.7558535121
 11
7.75
 21
2.1512907745
  0
LINE
  5
30E
100
AcDbEntity
  8
0
100
AcDbLine
 62
7
  6
CONTINUOUS
 10
3.3848722771
 20
-22.4
 11
3.3633443637
 21
-22.5
  0
LWPOLYLINE
  5
30F
100
AcDbEntity
  8
RACCORDO
100
AcDbPolyline
 62
7
  6
CONTINUOUS
 90
7
 70
0
 10
-2.7
 20
-8.65
 10
-2.7025161129
 20
-8.6521087339
 10
-2.707645188
 20
-8.6580192126
 10
-2.7153872252
 20
-8.6671031793
 10
-2.7260931024
 20
-8.6786369934
 10
-2.7394119418
 20
-8.6920945127
 10
-2.7705901795
 20
-8.7242122823
  0
LWPOLYLINE
  5
310
100
AcDbEntity
  8
0
100
AcDbPolyline
 62
7
  6
CONTINUOUS
 90
27
 70
0
 10
5.9630416894
 20
5.2470850314
 10
5.9644202941
 20
5.2464894846
 10
5.9625696019
 20
5.2478543731
 10
5.9580181948
 20
5.2517305706
 10
5.9507341386
 20
5.2589990793
 10
5.9412979878
 20
5.2699389851
 10
5.930400931
 20
5.2843785303
 10
5.9182339259
 20
5.3025196222
 10
5.9048937051
 20
5.3246344766
 10
5.890725769
 20
5.3504831303
 10
5.8758273753
 20
5.3801294523
 10
5.8602686064
 20
5.4136467298
 10
5.8442733819
 20
5.4507003324
 10
5.8278960184
 20
5.4912480337
 10
5.8111607757
 20
5.5352951599
 10
5.7942005049
 20
5.5825188636
 10
5.7770567069
 20
5.6327877089
 10
5.7597259987
 20
5.6860836353
 10
5.7422517582
 20
5.7422320494
 10
5.7246784544
 20
5.8010257671
 10
5.706980876
 20
5.862475864
 10
5.6890867128
 20
5.9267721376
 10
5.6710054512
 20
5.9938223328
 10
5.6527372062
 20
6.0635566328
 10
5.6341896182
 20
6.1362621572
 10
5.6153653563
 20
6.2118637219
 10
5.5962666566
 20
6.2902720089
  0
LWPOLYLINE
  5
311
100
AcDbEntity
  8
RACCORDO
100
AcDbPolyline
 62
7
  6
CONTINUOUS
 90
6
 70
0
 10
7.4901716431
 20
2.4105599277
 10
7.4768026268
 20
2.4235574591
 10
7.4660000487
 20
2.4344403384
 10
7.4581002609
 20
2.4427935865
 10
7.4527669113
 20
2.4481270486
 10
7.45
 20
2.45
  0
LWPOLYLINE
  5
312
100
AcDbEntity
  8
RACCORDO
100
AcDbPolyline
 62
7
  6
CONTINUOUS
 90
3
 70
0
 10
7.5393771009
 20
2.361616226
 10
7.5214588802
 20
2.3792649464
 10
7.4901716431
 20
2.4105599277
  0
LINE
  5
313
100
AcDbEntity
  8
RACCORDO
100
AcDbLine
 62
7
  6
CONTINUOUS
 10
7.75
 20
2.1512907745
 11
7.7283295459
 21
2.1727355417
  0
LWPOLYLINE
  5
314
100
AcDbEntity
  8
RACCORDO
100
AcDbPolyline
 62
7
  6
CONTINUOUS
 90
3
 70
0
 10
7.5985259914
 20
2.302660485
 10
7.5779106565
 20
2.3230854887
 10
7.5393771009
 20
2.361616226
  0
LINE
  5
315
100
AcDbEntity
  8
RACCORDO
100
AcDbLine
 62
7
  6
CONTINUOUS
 10
7.6849094343
 20
2.2163690417
 11
7.5985259914
 21
2.302660485
  0
LINE
  5
316
100
AcDbEntity
  8
RACCORDO
100
AcDbLine
 62
7
  6
CONTINUOUS
 10
7.7283295459
 20
2.1727355417
 11
7.6849094343
 21
2.2163690417
  0
LWPOLYLINE
  5
317
100
AcDbEntity
  8
0
100
AcDbPolyline
 62
7
  6
CONTINUOUS
 90
3
 70
0
 10
5.2925676166
 20
7.629067172
 10
5.2691908656
 20
7.7281166689
 10
5.25
 20
7.8076540791
  0
LINE
  5
318
100
AcDbEntity
  8
0
100
AcDbLine
 62
7
  6
CONTINUOUS
 10
5.5962666566
 20
6.2902720089
 11
5.5569468995
 21
6.4563919448
  0
LINE
  5
319
100
AcDbEntity
  8
0
100
AcDbLine
 62
7
  6
CONTINUOUS
 10
5.5569468995
 20
6.4563919448
 11
5.5160748542
 21
6.6344391883
  0
LINE
  5
31A
100
AcDbEntity
  8
0
100
AcDbLine
 62
7
  6
CONTINUOUS
 10
5.3388336802
 20
7.4278719473
 11
5.2925676166
 21
7.629067172
  0
LINE
  5
31B
100
AcDbEntity
  8
0
100
AcDbLine
 62
7
  6
CONTINUOUS
 10
5.5160748542
 20
6.6344391883
 11
5.4733077167
 21
6.8247644798
  0
LINE
  5
31C
100
AcDbEntity
  8
0
100
AcDbLine
 62
7
  6
CONTINUOUS
 10
5.4733077167
 20
6.8247644798
 11
5.3388336802
 21
7.4278719473
  0
LINE
  5
31D
100
AcDbEntity
  8
0
100
AcDbLine
 62
7
  6
CONTINUOUS
 10
3.3848722771
 20
22.4
 11
3.3633443637
 21
22.5
  0
LWPOLYLINE
  5
31E
100
AcDbEntity
  8
0
100
AcDbPolyline
 62
7
  6
CONTINUOUS
 90
13
 70
0
 10
6.9253239955
 20
8.6895061623
 10
6.9253425953
 20
8.6894112466
 10
6.9254600893
 20
8.6887847548
 10
6.9256469409
 20
8.6877228022
 10
6.9258793318
 20
8.6863180483
 10
6.926150375
 20
8.6845819534
 10
6.9264588123
 20
8.6824937032
 10
6.926794063
 20
8.6801000772
 10
6.9271532555
 20
8.6774022037
 10
6.9275354062
 20
8.674388686
 10
6.927934899
 20
8.6710874676
 10
6.9283502163
 20
8.6674977615
 10
6.9287808122
 20
8.6636113029
  0
LWPOLYLINE
  5
31F
100
AcDbEntity
  8
0
100
AcDbPolyline
 62
7
  6
CONTINUOUS
 90
13
 70
0
 10
7.3565929243
 20
5.219419515
 10
7.3565704806
 20
5.2195349915
 10
7.3564416718
 20
5.2202275616
 10
7.3562441249
 20
5.2213598616
 10
7.356002282
 20
5.2228341275
 10
7.3557228622
 20
5.2246388162
 10
7.3554070892
 20
5.2267941618
 10
7.3550659343
 20
5.2292491086
 10
7.3547024181
 20
5.2319998857
 10
7.3543173394
 20
5.2350577735
 10
7.3539162245
 20
5.2383938643
 10
7.3535005711
 20
5.2420076812
 10
7.3530708895
 20
5.2459064069
  0
LWPOLYLINE
  5
320
100
AcDbEntity
  8
0
100
AcDbPolyline
 62
250
  6
CONTINUOUS
 90
7
 70
0
 10
11.0087219643
 20
-21.4755923698
 10
11.0080037303
 20
-21.4716869154
 10
11.0073019424
 20
-21.4645713157
 10
11.0066166007
 20
-21.4542455707
 10
11.0059430608
 20
-21.4405949624
 10
11.005285967
 20
-21.4237342087
 10
11.0046592521
 20
-21.4040074642
  0
LINE
  5
321
100
AcDbEntity
  8
0
100
AcDbLine
 62
250
  6
CONTINUOUS
 10
11.0046592521
 20
-21.4040074642
 11
11.0034987657
 21
-21.3558477932
  0
LINE
  5
322
100
AcDbEntity
  8
0
100
AcDbLine
 62
250
  6
CONTINUOUS
 10
11.0034987657
 20
-21.3558477932
 11
11.0024942872
 21
-21.2976955065
  0
LINE
  5
323
100
AcDbEntity
  8
0
100
AcDbLine
 62
250
  6
CONTINUOUS
 10
10.5060155824
 20
-21.9047700276
 11
10.5047338308
 21
-21.8316459638
  0
LINE
  5
324
100
AcDbEntity
  8
0
100
AcDbLine
 62
250
  6
CONTINUOUS
 10
10.5047338308
 20
-21.8316459638
 11
10.5030519449
 21
-21.6797279079
  0
LINE
  5
325
100
AcDbEntity
  8
0
100
AcDbLine
 62
250
  6
CONTINUOUS
 10
11.0024942872
 20
-21.2976955065
 11
11.0013280429
 21
-21.194598336
  0
LINE
  5
326
100
AcDbEntity
  8
0
100
AcDbLine
 62
250
  6
CONTINUOUS
 10
10.5030519449
 20
-21.6797279079
 11
10.5017436919
 21
-21.4854355808
  0
LINE
  5
327
100
AcDbEntity
  8
0
100
AcDbLine
 62
250
  6
CONTINUOUS
 10
11.0013280429
 20
-21.194598336
 11
11.0006364057
 21
-21.0787071238
  0
LINE
  5
328
100
AcDbEntity
  8
0
100
AcDbLine
 62
250
  6
CONTINUOUS
 10
10.5017436919
 20
-21.4854355808
 11
10.5007137428
 21
-21.1809114446
  0
LINE
  5
329
100
AcDbEntity
  8
0
100
AcDbLine
 62
250
  6
CONTINUOUS
 10
10.5007137428
 20
-21.1809114446
 11
10.5005350625
 21
-21.0183142309
  0
LWPOLYLINE
  5
32A
100
AcDbEntity
  8
0
100
AcDbPolyline
 62
250
  6
CONTINUOUS
 90
9
 70
0
 10
10.5005350625
 20
-21.0183142309
 10
10.4974904462
 20
-16.3494810551
 10
10.495206984
 20
-11.679220415
 10
10.4936846758
 20
-7.0079400896
 10
10.4929235217
 20
-2.3360479956
 10
10.4929235217
 20
2.3360479946
 10
10.4936846758
 20
7.0079400886
 10
10.4952069839
 20
11.6792204143
 10
10.4974904462
 20
16.3494810547
  0
LWPOLYLINE
  5
32B
100
AcDbEntity
  8
0
100
AcDbPolyline
 62
250
  6
CONTINUOUS
 90
9
 70
0
 10
11.0006364057
 20
-21.0787071238
 10
10.9974142955
 20
-16.3324644776
 10
10.9951308347
 20
-11.6670156001
 10
10.9936085276
 20
-7.0009492841
 10
10.9928473744
 20
-2.3338537184
 10
10.9928473749
 20
2.3338592858
 10
10.9936085288
 20
7.0009542947
 10
10.9951308359
 20
11.6670194972
 10
10.9974142963
 20
16.3324667046
  0
LINE
  5
32C
100
AcDbEntity
  8
0
100
AcDbLine
 62
7
  6
CONTINUOUS
 10
11.15
 20
21.8997711479
 11
11.15
 21
-21.8997711479
  0
LINE
  5
32D
100
AcDbEntity
  8
0
100
AcDbLine
 62
250
  6
CONTINUOUS
 10
10.4974904462
 20
16.3494810547
 11
10.5008871566
 21
21.2604223969
  0
LINE
  5
32E
100
AcDbEntity
  8
0
100
AcDbLine
 62
250
  6
CONTINUOUS
 10
10.9974142963
 20
16.3324667046
 11
11.0008094528
 21
21.1180599986
  0
LINE
  5
32F
100
AcDbEntity
  8
0
100
AcDbLine
 62
250
  6
CONTINUOUS
 10
10.5008871566
 20
21.2604223969
 11
10.5021324774
 21
21.5542340681
  0
LINE
  5
330
100
AcDbEntity
  8
0
100
AcDbLine
 62
250
  6
CONTINUOUS
 10
10.5021324774
 20
21.5542340681
 11
10.5035747835
 21
21.7355831352
  0
LINE
  5
331
100
AcDbEntity
  8
0
100
AcDbLine
 62
250
  6
CONTINUOUS
 10
11.0008094528
 20
21.1180599986
 11
11.0016657915
 21
21.2307077086
  0
LINE
  5
332
100
AcDbEntity
  8
0
100
AcDbLine
 62
250
  6
CONTINUOUS
 10
10.5035747835
 20
21.7355831352
 11
10.5047338308
 21
21.8316459638
  0
LINE
  5
333
100
AcDbEntity
  8
0
100
AcDbLine
 62
250
  6
CONTINUOUS
 10
11.0016657915
 20
21.2307077086
 11
11.0024942872
 21
21.2976955066
  0
LINE
  5
334
100
AcDbEntity
  8
0
100
AcDbLine
 62
250
  6
CONTINUOUS
 10
11.0024942872
 20
21.2976955066
 11
11.0034987657
 21
21.3558477932
  0
LWPOLYLINE
  5
335
100
AcDbEntity
  8
0
100
AcDbPolyline
 62
250
  6
CONTINUOUS
 90
6
 70
0
 10
10.5047338308
 20
21.8316459638
 10
10.5060155824
 20
21.9047700276
 10
10.5066887822
 20
21.9320774319
 10
10.50737474
 20
21.9529541156
 10
10.5080778515
 20
21.9672624094
 10
10.5087981167
 20
21.9749071372
  0
LWPOLYLINE
  5
336
100
AcDbEntity
  8
0
100
AcDbPolyline
 62
250
  6
CONTINUOUS
 90
8
 70
0
 10
11.0034987657
 20
21.3558477932
 10
11.0046592521
 20
21.404007464
 10
11.005285967
 20
21.4237342087
 10
11.0059430608
 20
21.4405949624
 10
11.0066166007
 20
21.4542455709
 10
11.0073019424
 20
21.4645713159
 10
11.0080037303
 20
21.4716869155
 10
11.0087219643
 20
21.4755923698
  0
LINE
  5
337
100
AcDbEntity
  8
RACCORDO
100
AcDbLine
 62
7
  6
CONTINUOUS
 10
5.25
 20
9.45
 11
7.45
 21
9.45
  0
LINE
  5
338
100
AcDbEntity
  8
RACCORDO
100
AcDbLine
 62
250
  6
CONTINUOUS
 10
4.95
 20
9.7558535121
 11
7.75
 21
9.7558535121
  0
LINE
  5
339
100
AcDbEntity
  8
RACCORDO
100
AcDbLine
 62
7
  6
CONTINUOUS
 10
-7.45
 20
10.3
 11
-5.25
 21
10.3
  0
LINE
  5
33A
100
AcDbEntity
  8
RACCORDO
100
AcDbLine
 62
250
  6
CONTINUOUS
 10
-7.75
 20
10.6063638183
 11
-4.95
 21
10.6063638183
  0
LINE
  5
33B
100
AcDbEntity
  8
RACCORDO
100
AcDbLine
 62
7
  6
CONTINUOUS
 10
5.25
 20
9.4500553678
 11
5.2472851336
 21
9.4526269878
  0
LINE
  5
33C
100
AcDbEntity
  8
RACCORDO
100
AcDbLine
 62
7
  6
CONTINUOUS
 10
4.9717342756
 20
9.7343310775
 11
4.95
 21
9.7558535121
  0
LINE
  5
33D
100
AcDbEntity
  8
RACCORDO
100
AcDbLine
 62
7
  6
CONTINUOUS
 10
5.0591310105
 20
9.6463845735
 11
4.9717342756
 21
9.7343310775
  0
LINE
  5
33E
100
AcDbEntity
  8
RACCORDO
100
AcDbLine
 62
7
  6
CONTINUOUS
 10
5.16081448
 20
9.5433134216
 11
5.0591310105
 21
9.6463845735
  0
LWPOLYLINE
  5
33F
100
AcDbEntity
  8
RACCORDO
100
AcDbPolyline
 62
7
  6
CONTINUOUS
 90
3
 70
0
 10
5.2099855147
 20
9.4929072684
 10
5.1787205945
 20
9.5252260801
 10
5.16081448
 20
9.5433134216
  0
LWPOLYLINE
  5
340
100
AcDbEntity
  8
RACCORDO
100
AcDbPolyline
 62
7
  6
CONTINUOUS
 90
4
 70
0
 10
5.2472851336
 20
9.4526269878
 10
5.2341269884
 20
9.4677769594
 10
5.2233443203
 20
9.4793268751
 10
5.2099855147
 20
9.4929072684
  0
LINE
  5
341
100
AcDbEntity
  8
0
100
AcDbLine
 62
7
  6
CONTINUOUS
 10
3.3
 20
-22.4
 11
3.2333672024
 21
-22.5
  0
LINE
  5
342
100
AcDbEntity
  8
0
100
AcDbLine
 62
7
  6
CONTINUOUS
 10
3.2333672024
 20
22.5
 11
3.3
 21
22.4
  0
LWPOLYLINE
  5
343
100
AcDbEntity
  8
0
100
AcDbPolyline
 62
7
  6
CONTINUOUS
 90
10
 70
0
 43
0.3500000006
 10
1.0714285848
 20
35.8558521881
 10
1.1428571477
 20
35.7129943542
 10
1.1428571477
 20
35.6415677032
 10
1.0000000219
 20
35.4987098694
 10
0.9285714591
 20
35.4987098694
 10
0.8571428254
 20
35.5701365204
 10
0.8571428254
 20
35.6415677032
 10
0.9285714591
 20
35.7844255371
 10
1.0000000219
 20
35.8558521881
 10
1.0714285848
 20
35.8558521881
  0
LWPOLYLINE
  5
344
100
AcDbEntity
  8
0
100
AcDbPolyline
 62
7
  6
CONTINUOUS
 90
3
 70
0
 43
0.3500000006
 10
21.832518219
 20
-0.8571427917
 10
21.832518219
 20
-2.3571432495
 10
19.4753752899
 20
-1.7142852631
  0
LWPOLYLINE
  5
345
100
AcDbEntity
  8
0
100
AcDbPolyline
 62
7
  6
CONTINUOUS
 90
10
 70
0
 10
4.2275426698
 20
-23.3333596575
 10
4.1717709372
 20
-23.3677255716
 10
4.1143929866
 20
-23.3981882383
 10
4.0554088181
 20
-23.4247476575
 10
3.994556052
 20
-23.4474829393
 10
3.9320970679
 20
-23.4663149736
 10
3.8688190046
 20
-23.4810064299
 10
3.8049842417
 20
-23.491478198
 10
3.7403303995
 20
-23.497809388
 10
3.6748574782
 20
-23.5
  0
LWPOLYLINE
  5
346
100
AcDbEntity
  8
0
100
AcDbPolyline
 62
7
  6
CONTINUOUS
 90
10
 70
0
 10
-3.6748574782
 20
23.5
 10
-3.7403303995
 20
23.497809388
 10
-3.8049842417
 20
23.491478198
 10
-3.8688190046
 20
23.4810064299
 10
-3.9320970679
 20
23.4663149736
 10
-3.994556052
 20
23.4474829393
 10
-4.0554088181
 20
23.4247476575
 10
-4.1143929866
 20
23.3981882383
 10
-4.1717709372
 20
23.3677255716
 10
-4.2275426698
 20
23.3333596575
  0
LINE
  5
347
100
AcDbEntity
  8
0
100
AcDbLine
 62
250
  6
CONTINUOUS
 10
-10.5522207164
 20
21.018163202
 11
10.5005350625
 21
21.0183142309
  0
LINE
  5
348
100
AcDbEntity
  8
0
100
AcDbLine
 62
250
  6
CONTINUOUS
 10
-10.5087981167
 20
21.9749071372
 11
10.5087981167
 21
21.9749071372
  0
LINE
  5
349
100
AcDbEntity
  8
0
100
AcDbLine
 62
7
  6
CONTINUOUS
 10
-10.6503805997
 20
22.4
 11
-3.3
 21
22.4
  0
LINE
  5
34A
100
AcDbEntity
  8
0
100
AcDbLine
 62
7
  6
CONTINUOUS
 10
3.3
 20
22.4
 11
10.6503805997
 21
22.4
  0
LINE
  5
34B
100
AcDbEntity
  8
0
100
AcDbLine
 62
7
  6
CONTINUOUS
 10
3.4698202597
 20
22.5
 11
-3.4698202597
 21
22.5
  0
LINE
  5
34C
100
AcDbEntity
  8
0
100
AcDbLine
 62
7
  6
CONTINUOUS
 10
-3.6748574782
 20
23.5
 11
3.6748574782
 21
23.5
  0
LWPOLYLINE
  5
34D
100
AcDbEntity
  8
0
100
AcDbPolyline
 62
250
  6
CONTINUOUS
 90
16
 70
0
 10
10.5005350626
 20
21.0183133038
 10
10.5522203773
 20
21.0181628131
 10
10.603351928
 20
21.0177887456
 10
10.6533818814
 20
21.0171951092
 10
10.7017742072
 20
21.0163882642
 10
10.7480104206
 20
21.0153768553
 10
10.7915951381
 20
21.0141717192
 10
10.8320613846
 20
21.0127857679
 10
10.8689755972
 20
21.0112338507
 10
10.9019422698
 20
21.0095325952
 10
10.9306081913
 20
21.0077002291
 10
10.9546662295
 20
21.0057563845
 10
10.9738586221
 20
21.0037218884
 10
10.9879797379
 20
21.0016185385
 10
10.9968782808
 20
20.9994688706
 10
11.00045891
 20
20.9972959167
  0
LWPOLYLINE
  5
34E
100
AcDbEntity
  8
0
100
AcDbPolyline
 62
250
  6
CONTINUOUS
 90
16
 70
0
 10
10.5087981167
 20
21.9749071372
 10
10.5610241351
 20
21.9721273713
 10
10.612678619
 20
21.9639137831
 10
10.6631962883
 20
21.9503562579
 10
10.7120243039
 20
21.9316031621
 10
10.7586283171
 20
21.9078597201
 10
10.8024983178
 20
21.8793857676
 10
10.8431542154
 20
21.846492909
 10
10.8801510926
 20
21.8095411067
 10
10.913084075
 20
21.7689347421
 10
10.9415927608
 20
21.7251181903
 10
10.9653651658
 20
21.6785709569
 10
10.9841411372
 20
21.6298024308
 10
10.9977152003
 20
21.5793463095
 10
11.0059388076
 20
21.5277547588
 10
11.0087219643
 20
21.4755923698
  0
LWPOLYLINE
  5
34F
100
AcDbEntity
  8
0
100
AcDbPolyline
 62
7
  6
CONTINUOUS
 90
10
 70
0
 10
4.2275426698
 20
23.3333596575
 10
4.1717709372
 20
23.3677255716
 10
4.1143929866
 20
23.3981882383
 10
4.0554088181
 20
23.4247476575
 10
3.994556052
 20
23.4474829393
 10
3.9320970679
 20
23.4663149736
 10
3.8688190046
 20
23.4810064299
 10
3.8049842417
 20
23.491478198
 10
3.7403303995
 20
23.497809388
 10
3.6748574782
 20
23.5
  0
LWPOLYLINE
  5
350
100
AcDbEntity
  8
0
100
AcDbPolyline
 62
7
  6
CONTINUOUS
 90
7
 70
0
 43
0.3500000006
 10
-0.4285714127
 20
35.3558520355
 10
-1.9285714102
 20
35.3558520355
 10
-0.4285714127
 20
37.4987104797
 10
-0.4285714127
 20
37.9272794495
 10
-0.8571428254
 20
38.355852951
 10
-1.5000000329
 20
38.355852951
 10
-1.9285714102
 20
37.7129949646
  0
LWPOLYLINE
  5
351
100
AcDbEntity
  8
0
100
AcDbPolyline
 62
7
  6
CONTINUOUS
 90
6
 70
0
 43
0.3500000006
 10
2.1428571696
 20
35.3558520355
 10
3.2142856836
 20
35.3558520355
 10
3.4285713015
 20
35.5701365204
 10
3.4285713015
 20
36.6415680084
 10
3.0000000658
 20
37.0701369781
 10
2.5714285469
 20
37.0701369781
  0
LWPOLYLINE
  5
352
100
AcDbEntity
  8
0
100
AcDbPolyline
 62
7
  6
CONTINUOUS
 90
7
 70
0
 43
0.3500000006
 10
-2.7857141647
 20
35.3558520355
 10
-4.2857143393
 20
35.3558520355
 10
-2.7857141647
 20
37.4987104797
 10
-2.7857141647
 20
37.9272794495
 10
-3.2142856836
 20
38.355852951
 10
-3.8571428204
 20
38.355852951
 10
-4.2857143393
 20
37.7129949646
  0
LWPOLYLINE
  5
353
100
AcDbEntity
  8
0
100
AcDbPolyline
 62
7
  6
CONTINUOUS
 90
5
 70
0
 43
0.3500000006
 10
-52.9124107819
 20
45.0701394196
 10
-52.5552684631
 20
45.2844239044
 10
-52.5552684631
 20
45.9272818909
 10
-52.9124107819
 20
46.3558508606
 10
-53.7695532532
 20
46.3558508606
  0
LWPOLYLINE
  5
354
100
AcDbEntity
  8
0
100
AcDbPolyline
 62
7
  6
CONTINUOUS
 90
10
 70
0
 43
0.3500000006
 10
-50.5552678528
 20
46.3558508606
 10
-51.1981258392
 20
45.712997406
 10
-51.626694809
 20
44.8558504028
 10
-51.626694809
 20
43.7844234467
 10
-51.1981258392
 20
43.3558544769
 10
-50.5552678528
 20
43.3558544769
 10
-50.1266943512
 20
43.7844234467
 10
-50.1266943512
 20
44.641565918
 10
-50.5552678528
 20
45.0701394196
 10
-51.4838369751
 20
45.0701394196
  0
LWPOLYLINE
  5
355
100
AcDbEntity
  8
0
100
AcDbPolyline
 62
250
  6
CONTINUOUS
 90
8
 70
0
 10
-66.4522359071
 20
21.9749071372
 10
-66.4530018348
 20
21.9721273713
 10
-66.4534730116
 20
21.9639137831
 10
-66.4536442812
 20
21.9503562579
 10
-66.4535137693
 20
21.9316031621
 10
-66.4530829042
 20
21.9078597201
 10
-66.4523564011
 20
21.8793857676
 10
-66.4500514315
 20
21.8095411067
  0
LWPOLYLINE
  5
356
100
AcDbEntity
  8
0
100
AcDbPolyline
 62
250
  6
CONTINUOUS
 90
7
 70
0
 10
-66.4522359071
 20
-21.9749071372
 10
-66.4530018369
 20
-21.9721272741
 10
-66.4534730056
 20
-21.9639134185
 10
-66.4536442585
 20
-21.9503554931
 10
-66.453513723
 20
-21.9316018984
 10
-66.4530828295
 20
-21.9078579019
 10
-66.4523562963
 20
-21.8793834041
  0
LWPOLYLINE
  5
357
100
AcDbEntity
  8
0
100
AcDbPolyline
 62
250
  6
CONTINUOUS
 90
10
 70
0
 10
-66.9081841892
 20
-20.9972959167
 10
-67.0826100416
 20
-16.3324644776
 10
-67.2134294254
 20
-11.6670156001
 10
-67.3006423405
 20
-7.0009492841
 10
-67.3442487796
 20
-2.3338537184
 10
-67.3442487501
 20
2.3338592858
 10
-67.3006422741
 20
7.0009542947
 10
-67.213429359
 20
11.6670194972
 10
-67.0826099973
 20
16.3324667046
 10
-66.9081841892
 20
20.9972959167
  0
LINE
  5
358
100
AcDbEntity
  8
RACCORDO
100
AcDbLine
 62
7
  6
CONTINUOUS
 10
-67.7919336481
 20
-7.0032016614
 11
-67.7917886037
 21
-7.0135485754
  0
LWPOLYLINE
  5
359
100
AcDbEntity
  8
0
100
AcDbPolyline
 62
250
  6
CONTINUOUS
 90
19
 70
0
 10
-66.9081841892
 20
20.9972959167
 10
-66.9047096666
 20
21.0384524298
 10
-66.8980154739
 20
21.0787071238
 10
-66.8881016112
 20
21.1180599986
 10
-66.874856443
 20
21.1567800769
 10
-66.8583916047
 20
21.194598336
 10
-66.8390420032
 20
21.2307077086
 10
-66.8167521415
 20
21.2650560509
 10
-66.7915775164
 20
21.2976955066
 10
-66.7640195256
 20
21.3279754394
 10
-66.7340309815
 20
21.3558477932
 10
-66.7016590716
 20
21.381360624
 10
-66.667546756
 20
21.404007464
 10
-66.6316422852
 20
21.4237342087
 10
-66.5939974086
 20
21.4405949624
 10
-66.5554103343
 20
21.4542455709
 10
-66.5161471314
 20
21.4645713159
 10
-66.4759417307
 20
21.4716869155
 10
-66.4347941322
 20
21.4755923698
  0
LINE
  5
35A
100
AcDbEntity
  8
0
100
AcDbLine
 62
250
  6
CONTINUOUS
 10
-66.4424468792
 20
21.6298024308
 11
-66.4347941322
 21
21.4755923698
  0
LINE
  5
35B
100
AcDbEntity
  8
0
100
AcDbLine
 62
250
  6
CONTINUOUS
 10
-66.446699482
 20
21.7251181903
 11
-66.4424468792
 21
21.6298024308
  0
LINE
  5
35C
100
AcDbEntity
  8
0
100
AcDbLine
 62
250
  6
CONTINUOUS
 10
-66.4500514315
 20
21.8095411067
 11
-66.446699482
 21
21.7251181903
  0
LINE
  5
35D
100
AcDbEntity
  8
0
100
AcDbLine
 62
250
  6
CONTINUOUS
 10
-66.4523562963
 20
-21.8793834041
 11
-66.4500512734
 21
-21.8095378762
  0
LINE
  5
35E
100
AcDbEntity
  8
0
100
AcDbLine
 62
250
  6
CONTINUOUS
 10
-66.4500512734
 20
-21.8095378762
 11
-66.4466992998
 21
-21.7251147213
  0
LINE
  5
35F
100
AcDbEntity
  8
0
100
AcDbLine
 62
250
  6
CONTINUOUS
 10
-66.4466992998
 20
-21.7251147213
 11
-66.4400394012
 21
-21.5793442013
  0
LINE
  5
360
100
AcDbEntity
  8
0
100
AcDbLine
 62
250
  6
CONTINUOUS
 10
-66.4400394012
 20
-21.5793442013
 11
-66.4347941322
 21
-21.4755923698
  0
LWPOLYLINE
  5
361
100
AcDbEntity
  8
0
100
AcDbPolyline
 62
250
  6
CONTINUOUS
 90
19
 70
0
 10
-66.4347941322
 20
-21.4755923698
 10
-66.4759417307
 20
-21.4716869154
 10
-66.5161471313
 20
-21.4645713157
 10
-66.5554103342
 20
-21.4542455707
 10
-66.5939974086
 20
-21.4405949624
 10
-66.6316422852
 20
-21.4237342087
 10
-66.6675467561
 20
-21.4040074642
 10
-66.7016590717
 20
-21.3813606241
 10
-66.7340309816
 20
-21.3558477932
 10
-66.7640195256
 20
-21.3279754394
 10
-66.7915775164
 20
-21.2976955065
 10
-66.8167521413
 20
-21.2650560508
 10
-66.839042003
 20
-21.2307077085
 10
-66.8583916047
 20
-21.194598336
 10
-66.874856443
 20
-21.1567800769
 10
-66.8881016114
 20
-21.1180599987
 10
-66.8980154741
 20
-21.0787071238
 10
-66.9047096667
 20
-21.0384524298
 10
-66.9081841892
 20
-20.9972959167
  0
LWPOLYLINE
  5
362
100
AcDbEntity
  8
0
100
AcDbPolyline
 62
7
  6
CONTINUOUS
 90
3
 70
0
 43
0.3500000006
 10
-48.5552672424
 20
43.6415656128
 10
-48.6266938934
 20
43.4272811279
 10
-48.7695517273
 20
43.1415654602
  0
LINE
  5
363
100
AcDbEntity
  8
0
100
AcDbLine
 62
7
  6
CONTINUOUS
 10
-54.3409808872
 20
-23.0998904748
 11
-55.6622008632
 21
-23.1272645049
  0
LINE
  5
364
100
AcDbEntity
  8
0
100
AcDbLine
 62
7
  6
CONTINUOUS
 10
-55.6622008632
 20
-23.1272645049
 11
-56.9955646786
 21
-23.1539170037
  0
LINE
  5
365
100
AcDbEntity
  8
0
100
AcDbLine
 62
7
  6
CONTINUOUS
 10
-56.9955646786
 20
-23.1539170037
 11
-58.3409808872
 21
-23.1799085618
  0
LINE
  5
366
100
AcDbEntity
  8
0
100
AcDbLine
 62
7
  6
CONTINUOUS
 10
-58.3409808872
 20
-23.5
 11
-54.3409808872
 21
-23.4301797403
  0
LINE
  5
367
100
AcDbEntity
  8
0
100
AcDbLine
 62
250
  6
CONTINUOUS
 10
-58.3409808872
 20
-23.3333596575
 11
-54.3409808872
 21
-23.2631073618
  0
LINE
  5
368
100
AcDbEntity
  8
RACCORDO
100
AcDbLine
 62
7
  6
CONTINUOUS
 10
-50.3701260893
 20
-21.1306884717
 11
-54.1444713685
 21
-21.1965699136
  0
LINE
  5
369
100
AcDbEntity
  8
RACCORDO
100
AcDbLine
 62
250
  6
CONTINUOUS
 10
-50.3700704466
 20
-21.0077173985
 11
-54.1444711178
 21
-21.0738952193
  0
LINE
  5
36A
100
AcDbEntity
  8
0
100
AcDbLine
 62
7
  6
CONTINUOUS
 10
-56.5497675318
 20
-22.6471865624
 11
-58.3409808872
 21
-22.663166622
  0
LWPOLYLINE
  5
36B
100
AcDbEntity
  8
0
100
AcDbPolyline
 62
7
  6
CONTINUOUS
 90
3
 70
0
 10
-54.3409808872
 20
-22.6298666026
 10
-54.7800382304
 20
-22.6330782892
 10
-56.5497675318
 20
-22.6471865624
  0
LINE
  5
36C
100
AcDbEntity
  8
0
100
AcDbLine
 62
7
  6
CONTINUOUS
 10
-52.1914854033
 20
-22.2
 11
-52.7409808872
 21
-22.2
  0
LINE
  5
36D
100
AcDbEntity
  8
0
100
AcDbLine
 62
7
  6
CONTINUOUS
 10
-58.3409808872
 20
-22.4
 11
-66.4522359071
 21
-21.9749071372
  0
LINE
  5
36E
100
AcDbEntity
  8
0
100
AcDbLine
 62
250
  6
CONTINUOUS
 10
-58.3409808872
 20
-21.8997711479
 11
-66.4347941322
 21
-21.4755923698
  0
LINE
  5
36F
100
AcDbEntity
  8
0
100
AcDbLine
 62
7
  6
CONTINUOUS
 10
-58.3409808872
 20
-22.7070705734
 11
-58.3409808872
 21
-23.5
  0
LINE
  5
370
100
AcDbEntity
  8
0
100
AcDbLine
 62
7
  6
CONTINUOUS
 10
-58.3409808872
 20
-22.663166622
 11
-58.3409808872
 21
23.5
  0
LWPOLYLINE
  5
371
100
AcDbEntity
  8
RACCORDO
100
AcDbPolyline
 62
250
  6
CONTINUOUS
 90
4
 70
0
 10
-48.3478370073
 20
16.2131338494
 10
-48.3285112853
 20
16.2202578825
 10
-48.3168337541
 20
16.2247229872
 10
-48.3130000673
 20
16.226454387
  0
LINE
  5
372
100
AcDbEntity
  8
RACCORDO
100
AcDbLine
 62
250
  6
CONTINUOUS
 10
-48.4080151553
 20
16.1914288494
 11
-48.3478370073
 21
16.2131338494
  0
LINE
  5
373
100
AcDbEntity
  8
RACCORDO
100
AcDbLine
 62
250
  6
CONTINUOUS
 10
-48.5981530648
 20
16.1240427816
 11
-48.4080151553
 21
16.1914288494
  0
LINE
  5
374
100
AcDbEntity
  8
RACCORDO
100
AcDbLine
 62
250
  6
CONTINUOUS
 10
-48.776308485
 20
16.0615550082
 11
-48.5981530648
 21
16.1240427816
  0
LINE
  5
375
100
AcDbEntity
  8
0
100
AcDbLine
 62
250
  6
CONTINUOUS
 10
-67.3990160125
 20
-21.0183142305
 11
-67.3963413445
 21
-21.018163739
  0
LWPOLYLINE
  5
376
100
AcDbEntity
  8
RACCORDO
100
AcDbPolyline
 62
250
  6
CONTINUOUS
 90
5
 70
0
 10
-48.832254684
 20
-19.4420904629
 10
-48.7806289802
 20
-19.4395901339
 10
-48.7296265189
 20
-19.4333722406
 10
-48.6797954165
 20
-19.4234983707
 10
-48.6316655661
 20
-19.4100673031
  0
LINE
  5
377
100
AcDbEntity
  8
0
100
AcDbLine
 62
250
  6
CONTINUOUS
 10
-67.3963413445
 20
-21.018163739
 11
-67.0604571637
 21
-21.0037221554
  0
LWPOLYLINE
  5
378
100
AcDbEntity
  8
0
100
AcDbPolyline
 62
250
  6
CONTINUOUS
 90
3
 70
0
 10
-67.0604571637
 20
-21.0037221554
 10
-66.9597699927
 20
-20.9994689572
 10
-66.9081841892
 20
-20.9972959167
  0
LINE
  5
379
100
AcDbEntity
  8
RACCORDO
100
AcDbLine
 62
250
  6
CONTINUOUS
 10
-48.832254684
 20
-17.3051597608
 11
-58.3409808872
 21
-17.3594295692
  0
LINE
  5
37A
100
AcDbEntity
  8
RACCORDO
100
AcDbLine
 62
250
  6
CONTINUOUS
 10
-48.7763080726
 20
-16.0615550071
 11
-48.5437246316
 21
-16.1432301386
  0
LINE
  5
37B
100
AcDbEntity
  8
RACCORDO
100
AcDbLine
 62
250
  6
CONTINUOUS
 10
-48.5437246316
 20
-16.1432301386
 11
-48.4080066464
 21
-16.1914256553
  0
LWPOLYLINE
  5
37C
100
AcDbEntity
  8
RACCORDO
100
AcDbPolyline
 62
250
  6
CONTINUOUS
 90
5
 70
0
 10
-48.4080066464
 20
-16.1914256553
 10
-48.3478294792
 20
-16.213132046
 10
-48.3285049278
 20
-16.2202569575
 10
-48.3168290068
 20
-16.2247229967
 10
-48.3129973418
 20
-16.226455337
  0
LWPOLYLINE
  5
37D
100
AcDbEntity
  8
RACCORDO
100
AcDbPolyline
 62
250
  6
CONTINUOUS
 90
4
 70
0
 10
-54.1444713685
 20
-21.1965699136
 10
-54.1445371221
 20
-21.1959912486
 10
-54.1445881558
 20
-21.1941614708
 10
-54.1446273559
 20
-21.1909425755
  0
LINE
  5
37E
100
AcDbEntity
  8
RACCORDO
100
AcDbLine
 62
250
  6
CONTINUOUS
 10
-54.1446273559
 20
-21.1909425755
 11
-54.1446916461
 21
-21.1798117182
  0
LINE
  5
37F
100
AcDbEntity
  8
RACCORDO
100
AcDbLine
 62
7
  6
CONTINUOUS
 10
-54.3409808872
 20
-22.6298666026
 11
-54.3409808872
 21
-21.3965394526
  0
LINE
  5
380
100
AcDbEntity
  8
0
100
AcDbLine
 62
7
  6
CONTINUOUS
 10
-54.3409808872
 20
-22.6016383059
 11
-54.3409808872
 21
-23.4301797403
  0
LINE
  5
381
100
AcDbEntity
  8
RACCORDO
100
AcDbLine
 62
7
  6
CONTINUOUS
 10
-54.3409808872
 20
21.3965394526
 11
-54.3409808872
 21
22.6298666026
  0
LINE
  5
382
100
AcDbEntity
  8
0
100
AcDbLine
 62
7
  6
CONTINUOUS
 10
-54.3409808872
 20
22.6298666026
 11
-54.3409808872
 21
23.4301797403
  0
LINE
  5
383
100
AcDbEntity
  8
0
100
AcDbLine
 62
7
  6
CONTINUOUS
 10
-52.7409808872
 20
22.2
 11
-52.7409808872
 21
21.1720718961
  0
LINE
  5
384
100
AcDbEntity
  8
0
100
AcDbLine
 62
7
  6
CONTINUOUS
 10
-52.7409808872
 20
-22.2
 11
-52.7409808872
 21
-21.1720718961
  0
LINE
  5
385
100
AcDbEntity
  8
RACCORDO
100
AcDbLine
 62
250
  6
CONTINUOUS
 10
-54.1444713685
 20
21.0738952237
 11
-54.1447043153
 21
21.1715730242
  0
LINE
  5
386
100
AcDbEntity
  8
RACCORDO
100
AcDbLine
 62
250
  6
CONTINUOUS
 10
-54.1446916461
 20
-21.1798117182
 11
-54.1446671374
 21
-21.1341649973
  0
LINE
  5
387
100
AcDbEntity
  8
RACCORDO
100
AcDbLine
 62
250
  6
CONTINUOUS
 10
-54.1446671374
 20
-21.1341649973
 11
-54.1444713685
 21
-21.0738952237
  0
LWPOLYLINE
  5
388
100
AcDbEntity
  8
RACCORDO
100
AcDbPolyline
 62
250
  6
CONTINUOUS
 90
6
 70
0
 10
-54.1447043153
 20
21.1715730242
 10
-54.1446624316
 20
21.1862075084
 10
-54.1446273523
 20
21.1909429247
 10
-54.1445881529
 20
21.1941616336
 10
-54.1445371205
 20
21.1959912911
 10
-54.1444713685
 20
21.1965699136
  0
LINE
  5
389
100
AcDbEntity
  8
DRAFT
100
AcDbLine
 62
7
  6
CONTINUOUS
 10
-33.1361504224
 20
-13.4067486607
 11
-31.6252801003
 21
-13.3275673023
  0
LWPOLYLINE
  5
38A
100
AcDbEntity
  8
RACCORDO
100
AcDbPolyline
 62
250
  6
CONTINUOUS
 90
13
 70
0
 10
-48.832254684
 20
-17.3051597608
 10
-48.7677946287
 20
-17.3018589608
 10
-48.7045593305
 20
-17.2934124868
 10
-48.6436069001
 20
-17.2799617038
 10
-48.5859572172
 20
-17.2617317041
 10
-48.5325749338
 20
-17.2390275609
 10
-48.4843533159
 20
-17.2122292391
 10
-48.4420992068
 20
-17.1817851964
 10
-48.4065195545
 20
-17.1482048662
 10
-48.3782096372
 20
-17.112050167
 10
-48.3576430764
 20
-17.0739260804
 10
-48.3451639186
 20
-17.0344705261
 10
-48.3409808872
 20
-16.9943436938
  0
LWPOLYLINE
  5
38B
100
AcDbEntity
  8
RACCORDO
100
AcDbPolyline
 62
250
  6
CONTINUOUS
 90
13
 70
0
 10
-48.8318009936
 20
-16.5011476521
 10
-48.7673848149
 20
-16.4999706645
 10
-48.7041984796
 20
-16.4969781605
 10
-48.6432980246
 20
-16.4922201553
 10
-48.585701283
 20
-16.4857761696
 10
-48.5323708723
 20
-16.4777539053
 10
-48.4841981068
 20
-16.4682874436
 10
-48.4419881005
 20
-16.4575349996
 10
-48.4064463119
 20
-16.4456762796
 10
-48.3781667529
 20
-16.4329094802
 10
-48.3576220616
 20
-16.4194479749
 10
-48.3451556025
 20
-16.4055167476
 10
-48.3409757285
 20
-16.3913486329
  0
LINE
  5
38C
100
AcDbEntity
  8
RACCORDO
100
AcDbLine
 62
7
  6
CONTINUOUS
 10
-47.8497070904
 20
-15.891424784
 11
-33.832254684
 21
-15.6467492421
  0
LINE
  5
38D
100
AcDbEntity
  8
RACCORDO
100
AcDbLine
 62
250
  6
CONTINUOUS
 10
-47.8497070904
 20
-15.3915009364
 11
-33.832254684
 21
-15.1468253945
  0
LINE
  5
38E
100
AcDbEntity
  8
RACCORDO
100
AcDbLine
 62
250
  6
CONTINUOUS
 10
-48.7763077373
 20
-16.0615550106
 11
-58.3409808872
 21
-16.119659166
  0
LINE
  5
38F
100
AcDbEntity
  8
RACCORDO
100
AcDbLine
 62
250
  6
CONTINUOUS
 10
-33.832254684
 20
-15.1468253945
 11
-33.3409808872
 21
-15.1468253945
  0
LINE
  5
390
100
AcDbEntity
  8
ASSI
100
AcDbLine
 62
7
  6
CONTINUOUS
 10
-33.3409808872
 20
-14.869462
 11
-33.1409808872
 21
-14.869462
  0
LINE
  5
391
100
AcDbEntity
  8
ASSI
100
AcDbLine
 62
7
  6
CONTINUOUS
 10
-33.3409808872
 20
-14.459442
 11
-33.1409808872
 21
-14.459442
  0
LINE
  5
392
100
AcDbEntity
  8
ASSI
100
AcDbLine
 62
7
  6
CONTINUOUS
 10
-33.3409808872
 20
-14.006228
 11
-33.1409808872
 21
-14.006228
  0
LINE
  5
393
100
AcDbEntity
  8
ASSI
100
AcDbLine
 62
7
  6
CONTINUOUS
 10
-33.3409808872
 20
-13.553019
 11
-33.1409808872
 21
-13.553019
  0
LINE
  5
394
100
AcDbEntity
  8
RACCORDO
100
AcDbLine
 62
250
  6
CONTINUOUS
 10
-50.3696006529
 20
-21.0747030511
 11
-50.3701260893
 21
-21.0077183972
  0
LWPOLYLINE
  5
395
100
AcDbEntity
  8
RACCORDO
100
AcDbPolyline
 62
250
  6
CONTINUOUS
 90
4
 70
0
 10
-50.3696007979
 20
21.1164956559
 10
-50.3695107286
 20
21.0915908979
 10
-50.3696006089
 20
21.0747146226
 10
-50.3701260893
 20
21.0077183973
  0
LINE
  5
396
100
AcDbEntity
  8
RACCORDO
100
AcDbLine
 62
250
  6
CONTINUOUS
 10
-48.832254684
 20
17.3051597608
 11
-48.832254684
 21
19.4417173837
  0
LINE
  5
397
100
AcDbEntity
  8
RACCORDO
100
AcDbLine
 62
250
  6
CONTINUOUS
 10
-48.8317996571
 20
16.5011635755
 11
-48.832254684
 21
17.3051597612
  0
LWPOLYLINE
  5
398
100
AcDbEntity
  8
RACCORDO
100
AcDbPolyline
 62
250
  6
CONTINUOUS
 90
3
 70
0
 10
-48.832254684
 20
-19.4416938666
 10
-48.8321148924
 20
-17.225404363
 10
-48.8317996571
 20
-16.5011635755
  0
LWPOLYLINE
  5
399
100
AcDbEntity
  8
RACCORDO
100
AcDbPolyline
 62
250
  6
CONTINUOUS
 90
7
 70
0
 10
-48.8317996571
 20
-16.5011635755
 10
-48.8296336075
 20
-16.4218601256
 10
-48.8246428717
 20
-16.3447676731
 10
-48.816821005
 20
-16.2700574506
 10
-48.8061617929
 20
-16.1978747529
 10
-48.7926592705
 20
-16.1283408656
 10
-48.7763077374
 20
-16.0615550107
  0
LINE
  5
39A
100
AcDbEntity
  8
RACCORDO
100
AcDbLine
 62
7
  6
CONTINUOUS
 10
-54.3374486023
 20
-21.3591170407
 11
-54.3332640292
 21
-21.3414072032
  0
LINE
  5
39B
100
AcDbEntity
  8
ASSI
100
AcDbLine
 62
7
  6
CONTINUOUS
 10
-33.3409808872
 20
-13.142998
 11
-33.1409808872
 21
-13.142998
  0
LINE
  5
39C
100
AcDbEntity
  8
ASSI
100
AcDbLine
 62
7
  6
CONTINUOUS
 10
-33.3409808872
 20
-12.869657
 11
-33.1409808872
 21
-12.869657
  0
LINE
  5
39D
100
AcDbEntity
  8
ASSI
100
AcDbLine
 62
7
  6
CONTINUOUS
 10
-33.3409808872
 20
-12.459641
 11
-33.1409808872
 21
-12.459641
  0
LINE
  5
39E
100
AcDbEntity
  8
0
100
AcDbLine
 62
7
  6
CONTINUOUS
 10
-33.3409808872
 20
-12.317531
 11
-33.1409808872
 21
-12.317531
  0
LINE
  5
39F
100
AcDbEntity
  8
0
100
AcDbLine
 62
7
  6
CONTINUOUS
 10
-33.3409808872
 20
-12.288
 11
-33.1409808872
 21
-12.288
  0
LINE
  5
3A0
100
AcDbEntity
  8
ASSI
100
AcDbLine
 62
7
  6
CONTINUOUS
 10
-33.3409808872
 20
-12.049641
 11
-33.1409808872
 21
-12.049641
  0
LINE
  5
3A1
100
AcDbEntity
  8
ASSI
100
AcDbLine
 62
7
  6
CONTINUOUS
 10
-33.3409808872
 20
-11.429808
 11
-33.1409808872
 21
-11.429808
  0
LINE
  5
3A2
100
AcDbEntity
  8
ASSI
100
AcDbLine
 62
7
  6
CONTINUOUS
 10
-33.3409808872
 20
-11.046976
 11
-33.1409808872
 21
-11.046976
  0
LINE
  5
3A3
100
AcDbEntity
  8
RACCORDO
100
AcDbLine
 62
250
  6
CONTINUOUS
 10
-31.3409808872
 20
-10.6674833705
 11
-33.1409808872
 21
-10.6674833705
  0
LINE
  5
3A4
100
AcDbEntity
  8
ASSI
100
AcDbLine
 62
7
  6
CONTINUOUS
 10
-33.3409808872
 20
-10.664144
 11
-33.1409808872
 21
-10.664144
  0
LINE
  5
3A5
100
AcDbEntity
  8
ASSI
100
AcDbLine
 62
7
  6
CONTINUOUS
 10
-33.3409808872
 20
-10.044311
 11
-33.1409808872
 21
-10.044311
  0
LINE
  5
3A6
100
AcDbEntity
  8
0
100
AcDbLine
 62
7
  6
CONTINUOUS
 10
-33.3409808872
 20
-10.0312
 11
-33.1409808872
 21
-10.0312
  0
LINE
  5
3A7
100
AcDbEntity
  8
RACCORDO
100
AcDbLine
 62
250
  6
CONTINUOUS
 10
-47.8497070904
 20
-15.3915009364
 11
-47.8477469219
 21
-15.5208662415
  0
LINE
  5
3A8
100
AcDbEntity
  8
RACCORDO
100
AcDbLine
 62
7
  6
CONTINUOUS
 10
-48.3411404504
 20
19.1055240427
 11
-48.3409808872
 21
19.0928932188
  0
LINE
  5
3A9
100
AcDbEntity
  8
RACCORDO
100
AcDbLine
 62
250
  6
CONTINUOUS
 10
-47.8477469219
 20
-15.5208662415
 11
-47.8465147312
 21
-15.6414189139
  0
LWPOLYLINE
  5
3AA
100
AcDbEntity
  8
RACCORDO
100
AcDbPolyline
 62
250
  6
CONTINUOUS
 90
7
 70
0
 10
-47.8460944577
 20
15.7449467427
 10
-47.8461999776
 20
15.7880632006
 10
-47.8465147319
 20
15.8243969936
 10
-47.8470333369
 20
15.8533266846
 10
-47.8477469227
 20
15.8743574723
 10
-47.8486432842
 20
15.8871296551
 10
-47.8497070904
 20
15.891424784
  0
LWPOLYLINE
  5
3AB
100
AcDbEntity
  8
RACCORDO
100
AcDbPolyline
 62
250
  6
CONTINUOUS
 90
8
 70
0
 10
-47.8465147312
 20
-15.6414189139
 10
-47.8460944577
 20
-15.7449466558
 10
-47.8461999773
 20
-15.7880631302
 10
-47.8465147312
 20
-15.8243969428
 10
-47.8470333361
 20
-15.8533266529
 10
-47.8477469219
 20
-15.8743574568
 10
-47.8486432837
 20
-15.8871296509
 10
-47.8497070904
 20
-15.891424784
  0
LINE
  5
3AC
100
AcDbEntity
  8
RACCORDO
100
AcDbLine
 62
7
  6
CONTINUOUS
 10
-48.3409808872
 20
-19.0928932188
 11
-48.3409808872
 21
-16.3913486316
  0
LINE
  5
3AD
100
AcDbEntity
  8
RACCORDO
100
AcDbLine
 62
7
  6
CONTINUOUS
 10
-48.3409808872
 20
16.3913486316
 11
-48.3409808872
 21
19.0928932188
  0
LINE
  5
3AE
100
AcDbEntity
  8
RACCORDO
100
AcDbLine
 62
250
  6
CONTINUOUS
 10
-47.8465147305
 20
15.6414190136
 11
-47.8460944577
 21
15.7449467427
  0
LINE
  5
3AF
100
AcDbEntity
  8
RACCORDO
100
AcDbLine
 62
250
  6
CONTINUOUS
 10
-47.847746921
 20
15.5208663135
 11
-47.8465147305
 21
15.6414190136
  0
LINE
  5
3B0
100
AcDbEntity
  8
RACCORDO
100
AcDbLine
 62
7
  6
CONTINUOUS
 10
-48.3409808872
 20
-19.0928932188
 11
-48.3411404504
 21
-19.1055240427
  0
LINE
  5
3B1
100
AcDbEntity
  8
RACCORDO
100
AcDbLine
 62
250
  6
CONTINUOUS
 10
-47.8497070904
 20
15.3915009364
 11
-47.847746921
 21
15.5208663135
  0
LWPOLYLINE
  5
3B2
100
AcDbEntity
  8
RACCORDO
100
AcDbPolyline
 62
250
  6
CONTINUOUS
 90
6
 70
0
 10
-50.3701260893
 20
-21.1306884717
 10
-50.3698938034
 20
-21.1291004519
 10
-50.3697182867
 20
-21.1243555268
 10
-50.3696006529
 20
-21.1164837551
 10
-50.3695416488
 20
-21.1055350036
 10
-50.3696006529
 20
-21.0747030511
  0
LWPOLYLINE
  5
3B3
100
AcDbEntity
  8
RACCORDO
100
AcDbPolyline
 62
7
  6
CONTINUOUS
 90
14
 70
0
 10
-54.3332640292
 20
-21.3414072032
 10
-54.3276517265
 20
-21.3234793006
 10
-54.3206116944
 20
-21.3053327729
 10
-54.3120843922
 20
-21.2869481413
 10
-54.3021293606
 20
-21.2683437101
 10
-54.2909252212
 20
-21.2495757757
 10
-54.2784442134
 20
-21.230653346
 10
-54.2647140978
 20
-21.2115666646
 10
-54.2499967783
 20
-21.1923441508
 10
-54.2342689737
 20
-21.1730062138
 10
-54.2175539652
 20
-21.1535318817
 10
-54.2001835006
 20
-21.1338874338
 10
-54.1822681624
 20
-21.1140612558
 10
-54.1636973682
 20
-21.0940640058
  0
LINE
  5
3B4
100
AcDbEntity
  8
ASSI
100
AcDbLine
 62
7
  6
CONTINUOUS
 10
-33.3409808872
 20
-9.770969
 11
-33.1409808872
 21
-9.770969
  0
LINE
  5
3B5
100
AcDbEntity
  8
ASSI
100
AcDbLine
 62
7
  6
CONTINUOUS
 10
-33.3409808872
 20
-9.11276
 11
-33.1409808872
 21
-9.11276
  0
LINE
  5
3B6
100
AcDbEntity
  8
ASSI
100
AcDbLine
 62
7
  6
CONTINUOUS
 10
-33.3409808872
 20
-8.702724
 11
-33.1409808872
 21
-8.702724
  0
LINE
  5
3B7
100
AcDbEntity
  8
RACCORDO
100
AcDbLine
 62
250
  6
CONTINUOUS
 10
-31.3409808872
 20
-8.6
 11
-33.1409808872
 21
-8.6
  0
LINE
  5
3B8
100
AcDbEntity
  8
ASSI
100
AcDbLine
 62
7
  6
CONTINUOUS
 10
-33.3409808872
 20
-8.044505
 11
-33.1409808872
 21
-8.044505
  0
LINE
  5
3B9
100
AcDbEntity
  8
ASSI
100
AcDbLine
 62
7
  6
CONTINUOUS
 10
-33.3409808872
 20
-7.771163
 11
-33.1409808872
 21
-7.771163
  0
LINE
  5
3BA
100
AcDbEntity
  8
ASSI
100
AcDbLine
 62
7
  6
CONTINUOUS
 10
-33.3409808872
 20
-6.811045
 11
-33.1409808872
 21
-6.811045
  0
LWPOLYLINE
  5
3BB
100
AcDbEntity
  8
RACCORDO
100
AcDbPolyline
 62
250
  6
CONTINUOUS
 90
4
 70
0
 10
-50.3701260893
 20
21.1306884717
 10
-50.3698475094
 20
21.1290921493
 10
-50.3696807382
 20
21.1243465266
 10
-50.3696007979
 20
21.1164956559
  0
LWPOLYLINE
  5
3BC
100
AcDbEntity
  8
0
100
AcDbPolyline
 62
7
  6
CONTINUOUS
 90
4
 70
0
 43
0.3500000006
 10
-44.8409816895
 20
37.7129949646
 10
-44.8409816895
 20
38.355852951
 10
-43.3409812317
 20
38.355852951
 10
-44.198123703
 20
35.3558520355
  0
LWPOLYLINE
  5
3BD
100
AcDbEntity
  8
RACCORDO
100
AcDbPolyline
 62
250
  6
CONTINUOUS
 90
19
 70
0
 10
-48.7763077373
 20
-16.0615550106
 10
-48.7446288926
 20
-15.9836127184
 10
-48.7083932937
 20
-15.9103044034
 10
-48.6676009408
 20
-15.8416300654
 10
-48.6214756161
 20
-15.7773014797
 10
-48.5707935374
 20
-15.7176068711
 10
-48.5178833575
 20
-15.6634109141
 10
-48.4629588281
 20
-15.6151524356
 10
-48.4058061975
 20
-15.5723926087
 10
-48.3481128632
 20
-15.5346796281
 10
-48.2899766472
 20
-15.5021158725
 10
-48.2312997276
 20
-15.4745989631
 10
-48.1734760353
 20
-15.4513699582
 10
-48.1168788227
 20
-15.4325100662
 10
-48.0611348374
 20
-15.4179380787
 10
-48.0065182541
 20
-15.4066514286
 10
-47.9531204643
 20
-15.3983159271
 10
-47.9008500764
 20
-15.393265763
 10
-47.8497070904
 20
-15.3915009364
  0
LINE
  5
3BE
100
AcDbEntity
  8
ASSI
100
AcDbLine
 62
7
  6
CONTINUOUS
 10
-33.3409808872
 20
-6.1823385478
 11
-33.1409808872
 21
-6.1823385478
  0
LINE
  5
3BF
100
AcDbEntity
  8
ASSI
100
AcDbLine
 62
7
  6
CONTINUOUS
 10
-33.3409808872
 20
-6.130538
 11
-33.1409808872
 21
-6.130538
  0
LINE
  5
3C0
100
AcDbEntity
  8
0
100
AcDbLine
 62
7
  6
CONTINUOUS
 10
-33.3409808872
 20
-5.45
 11
-33.1409808872
 21
-5.45
  0
LINE
  5
3C1
100
AcDbEntity
  8
0
100
AcDbLine
 62
7
  6
CONTINUOUS
 10
-33.3409808872
 20
-5.15625
 11
-33.1909808872
 21
-5.15625
  0
LINE
  5
3C2
100
AcDbEntity
  8
0
100
AcDbLine
 62
7
  6
CONTINUOUS
 10
-33.3409808872
 20
-5.047564
 11
-33.1909808872
 21
-5.047564
  0
LINE
  5
3C3
100
AcDbEntity
  8
0
100
AcDbLine
 62
7
  6
CONTINUOUS
 10
-33.3409808872
 20
-4.792935
 11
-33.1909808872
 21
-4.792935
  0
LINE
  5
3C4
100
AcDbEntity
  8
0
100
AcDbLine
 62
7
  6
CONTINUOUS
 10
-33.1909808872
 20
-4.6999999982
 11
-33.1409808872
 21
-4.6999999982
  0
LINE
  5
3C5
100
AcDbEntity
  8
0
100
AcDbLine
 62
7
  6
CONTINUOUS
 10
-33.1909808872
 20
-4.5372935723
 11
-33.1409808872
 21
-4.5372935723
  0
LINE
  5
3C6
100
AcDbEntity
  8
0
100
AcDbLine
 62
7
  6
CONTINUOUS
 10
-33.3409808872
 20
-3.839981
 11
-33.1909808872
 21
-3.839981
  0
LINE
  5
3C7
100
AcDbEntity
  8
0
100
AcDbLine
 62
7
  6
CONTINUOUS
 10
-33.3409808872
 20
-3.613081
 11
-33.1909808872
 21
-3.613081
  0
LINE
  5
3C8
100
AcDbEntity
  8
0
100
AcDbLine
 62
7
  6
CONTINUOUS
 10
-33.3409808872
 20
-3.4895833731
 11
-33.1909808872
 21
-3.4895833731
  0
LINE
  5
3C9
100
AcDbEntity
  8
0
100
AcDbLine
 62
7
  6
CONTINUOUS
 10
-33.1909808872
 20
-3.4252369661
 11
-33.1409808872
 21
-3.4252369661
  0
LINE
  5
3CA
100
AcDbEntity
  8
0
100
AcDbLine
 62
7
  6
CONTINUOUS
 10
-33.3409808872
 20
-3.15625
 11
-33.1909808872
 21
-3.15625
  0
LINE
  5
3CB
100
AcDbEntity
  8
0
100
AcDbLine
 62
7
  6
CONTINUOUS
 10
-33.3409808872
 20
-3.111453
 11
-33.1909808872
 21
-3.111453
  0
LINE
  5
3CC
100
AcDbEntity
  8
DRAFT
100
AcDbLine
 62
7
  6
CONTINUOUS
 10
-33.1514480785
 20
-5.8599329936
 11
-31.6252801003
 21
-5.9399160682
  0
LWPOLYLINE
  5
3CD
100
AcDbEntity
  8
RACCORDO
100
AcDbPolyline
 62
250
  6
CONTINUOUS
 90
7
 70
0
 10
-48.7763077374
 20
16.0615550107
 10
-48.7929399709
 20
16.1305261682
 10
-48.8066130904
 20
16.2013649279
 10
-48.8173312726
 20
16.2739714717
 10
-48.8250988125
 20
16.3482305802
 10
-48.8299201103
 20
16.4240107877
 10
-48.8317996571
 20
16.5011635755
  0
LWPOLYLINE
  5
3CE
100
AcDbEntity
  8
RACCORDO
100
AcDbPolyline
 62
250
  6
CONTINUOUS
 90
5
 70
0
 10
-48.3829291645
 20
-19.232922383
 10
-48.364661313
 20
-19.1991013348
 10
-48.3515279798
 20
-19.1642492847
 10
-48.3436185696
 20
-19.1287197433
 10
-48.3409808872
 20
-19.0928932188
  0
LINE
  5
3CF
100
AcDbEntity
  8
0
100
AcDbLine
 62
7
  6
CONTINUOUS
 10
-33.1909808872
 20
-2.9276521382
 11
-33.1409808872
 21
-2.9276521382
  0
LINE
  5
3D0
100
AcDbEntity
  8
0
100
AcDbLine
 62
7
  6
CONTINUOUS
 10
-33.3409808872
 20
-1.868581
 11
-33.1909808872
 21
-1.868581
  0
LINE
  5
3D1
100
AcDbEntity
  8
0
100
AcDbLine
 62
7
  6
CONTINUOUS
 10
-33.3409808872
 20
-1.861022
 11
-33.1909808872
 21
-1.861022
  0
LINE
  5
3D2
100
AcDbEntity
  8
0
100
AcDbLine
 62
7
  6
CONTINUOUS
 10
-33.3409808872
 20
-1.6703677703
 11
-33.1909808872
 21
-1.6703677703
  0
LINE
  5
3D3
100
AcDbEntity
  8
0
100
AcDbLine
 62
7
  6
CONTINUOUS
 10
-33.3409808872
 20
-1.656848
 11
-33.1909808872
 21
-1.656848
  0
LINE
  5
3D4
100
AcDbEntity
  8
0
100
AcDbLine
 62
7
  6
CONTINUOUS
 10
-33.3409808872
 20
-1.397219
 11
-33.1909808872
 21
-1.397219
  0
LINE
  5
3D5
100
AcDbEntity
  8
0
100
AcDbLine
 62
7
  6
CONTINUOUS
 10
-33.1909808872
 20
-1.0655074839
 11
-33.1409808872
 21
-1.0655074839
  0
LINE
  5
3D6
100
AcDbEntity
  8
0
100
AcDbLine
 62
7
  6
CONTINUOUS
 10
-33.3409808872
 20
-0.8803695
 11
-33.1909808872
 21
-0.8803695
  0
LINE
  5
3D7
100
AcDbEntity
  8
0
100
AcDbLine
 62
7
  6
CONTINUOUS
 10
-33.3409808872
 20
-0.358535
 11
-33.1909808872
 21
-0.358535
  0
LINE
  5
3D8
100
AcDbEntity
  8
0
100
AcDbLine
 62
7
  6
CONTINUOUS
 10
-33.3409808872
 20
-0.108941
 11
-33.1909808872
 21
-0.108941
  0
LINE
  5
3D9
100
AcDbEntity
  8
0
100
AcDbLine
 62
7
  6
CONTINUOUS
 10
-33.3409808872
 20
0.196091
 11
-33.1909808872
 21
0.196091
  0
LINE
  5
3DA
100
AcDbEntity
  8
0
100
AcDbLine
 62
7
  6
CONTINUOUS
 10
-33.1909808872
 20
0.2865535485
 11
-33.1409808872
 21
0.2865535485
  0
LINE
  5
3DB
100
AcDbEntity
  8
0
100
AcDbLine
 62
7
  6
CONTINUOUS
 10
-33.1909808872
 20
0.3673834379
 11
-33.1409808872
 21
0.3673834379
  0
LINE
  5
3DC
100
AcDbEntity
  8
0
100
AcDbLine
 62
7
  6
CONTINUOUS
 10
-33.1909808872
 20
0.3822600513
 11
-33.1409808872
 21
0.3822600513
  0
LWPOLYLINE
  5
3DD
100
AcDbEntity
  8
RACCORDO
100
AcDbPolyline
 62
250
  6
CONTINUOUS
 90
5
 70
0
 10
-48.3829291645
 20
19.232922383
 10
-48.364661313
 20
19.1991013348
 10
-48.3515279798
 20
19.1642492847
 10
-48.3436185696
 20
19.1287197433
 10
-48.3409808872
 20
19.0928932188
  0
LWPOLYLINE
  5
3DE
100
AcDbEntity
  8
RACCORDO
100
AcDbPolyline
 62
250
  6
CONTINUOUS
 90
7
 70
0
 10
-33.4195265162
 20
11.4483473403
 10
-33.4334517496
 20
11.3317006738
 10
-33.4469956128
 20
11.2102357553
 10
-33.4584455545
 20
11.0861168065
 10
-33.4669121835
 20
10.9600652346
 10
-33.4725829178
 20
10.8313596324
 10
-33.4752863372
 20
10.7
  0
LWPOLYLINE
  5
3DF
100
AcDbEntity
  8
RACCORDO
100
AcDbPolyline
 62
250
  6
CONTINUOUS
 90
10
 70
0
 10
-33.3409808872
 20
7.0093271998
 10
-33.338141132
 20
7.0274985608
 10
-33.3297025193
 20
7.0451538826
 10
-33.315904701
 20
7.0617918006
 10
-33.2971395172
 20
7.0769398425
 10
-33.2739398628
 20
7.0901678506
 10
-33.2469645474
 20
7.1011001947
 10
-33.2169795996
 20
7.1094264311
 10
-33.1848365175
 20
7.1149101212
 10
-33.1514480785
 20
7.1173955491
  0
LINE
  5
3E0
100
AcDbEntity
  8
RACCORDO
100
AcDbLine
 62
7
  6
CONTINUOUS
 10
-54.1636973682
 20
-21.0940640058
 11
-54.1444711178
 21
-21.0738952193
  0
LINE
  5
3E1
100
AcDbEntity
  8
0
100
AcDbLine
 62
7
  6
CONTINUOUS
 10
-33.1909808872
 20
1.393211
 11
-33.1409808872
 21
1.393211
  0
LINE
  5
3E2
100
AcDbEntity
  8
0
100
AcDbLine
 62
7
  6
CONTINUOUS
 10
-33.3409808872
 20
1.438946
 11
-33.1909808872
 21
1.438946
  0
LINE
  5
3E3
100
AcDbEntity
  8
0
100
AcDbLine
 62
7
  6
CONTINUOUS
 10
-33.3409808872
 20
1.44654
 11
-33.1909808872
 21
1.44654
  0
LINE
  5
3E4
100
AcDbEntity
  8
0
100
AcDbLine
 62
7
  6
CONTINUOUS
 10
-33.3409808872
 20
1.4717821782
 11
-33.1909808872
 21
1.4717821782
  0
LINE
  5
3E5
100
AcDbEntity
  8
0
100
AcDbLine
 62
7
  6
CONTINUOUS
 10
-33.3409808872
 20
1.6775813296
 11
-33.1909808872
 21
1.6775813296
  0
LINE
  5
3E6
100
AcDbEntity
  8
0
100
AcDbLine
 62
7
  6
CONTINUOUS
 10
-33.3409808872
 20
1.8020834923
 11
-33.1909808872
 21
1.8020834923
  0
LINE
  5
3E7
100
AcDbEntity
  8
0
100
AcDbLine
 62
7
  6
CONTINUOUS
 10
-33.3409808872
 20
1.8091012226
 11
-33.1909808872
 21
1.8091012226
  0
LINE
  5
3E8
100
AcDbEntity
  8
0
100
AcDbLine
 62
7
  6
CONTINUOUS
 10
-33.3409808872
 20
1.8453102754
 11
-33.1909808872
 21
1.84531
  0
LINE
  5
3E9
100
AcDbEntity
  8
0
100
AcDbLine
 62
7
  6
CONTINUOUS
 10
-33.3409808872
 20
2.0630591791
 11
-33.1909808872
 21
2.0630591791
  0
LINE
  5
3EA
100
AcDbEntity
  8
0
100
AcDbLine
 62
7
  6
CONTINUOUS
 10
-33.3409808872
 20
2.1741801938
 11
-33.1909808872
 21
2.1741801938
  0
LINE
  5
3EB
100
AcDbEntity
  8
0
100
AcDbLine
 62
7
  6
CONTINUOUS
 10
-33.1909808872
 20
2.4
 11
-33.1409808872
 21
2.4
  0
LINE
  5
3EC
100
AcDbEntity
  8
0
100
AcDbLine
 62
250
  6
CONTINUOUS
 10
-33.3409808872
 20
2.739952414
 11
-33.1909808872
 21
2.739952414
  0
LINE
  5
3ED
100
AcDbEntity
  8
0
100
AcDbLine
 62
7
  6
CONTINUOUS
 10
-33.1909808872
 20
3.099459
 11
-33.1409808872
 21
3.099459
  0
LINE
  5
3EE
100
AcDbEntity
  8
0
100
AcDbLine
 62
7
  6
CONTINUOUS
 10
-33.3409808872
 20
3.3309300335
 11
-33.1909808872
 21
3.3309300335
  0
LINE
  5
3EF
100
AcDbEntity
  8
0
100
AcDbLine
 62
7
  6
CONTINUOUS
 10
-33.3409808872
 20
3.4420500068
 11
-33.1909808872
 21
3.4420500068
  0
LINE
  5
3F0
100
AcDbEntity
  8
0
100
AcDbLine
 62
7
  6
CONTINUOUS
 10
-33.3409808872
 20
3.53125
 11
-33.1909808872
 21
3.53125
  0
LINE
  5
3F1
100
AcDbEntity
  8
0
100
AcDbLine
 62
7
  6
CONTINUOUS
 10
-33.3409808872
 20
3.6354169846
 11
-33.1909808872
 21
3.6354169846
  0
LINE
  5
3F2
100
AcDbEntity
  8
0
100
AcDbLine
 62
7
  6
CONTINUOUS
 10
-33.3409808872
 20
3.71875
 11
-33.1909808872
 21
3.71875
  0
LINE
  5
3F3
100
AcDbEntity
  8
0
100
AcDbLine
 62
7
  6
CONTINUOUS
 10
-33.3409808872
 20
3.7601217129
 11
-33.1909808872
 21
3.7601217129
  0
LWPOLYLINE
  5
3F4
100
AcDbEntity
  8
RACCORDO
100
AcDbPolyline
 62
7
  6
CONTINUOUS
 90
4
 70
0
 10
-54.1444711178
 20
21.0738952193
 10
-54.1638423433
 20
21.094221747
 10
-54.1825131096
 20
21.1143298147
 10
-54.2004834167
 20
21.1342200592
  0
LWPOLYLINE
  5
3F5
100
AcDbEntity
  8
RACCORDO
100
AcDbPolyline
 62
7
  6
CONTINUOUS
 90
13
 70
0
 10
-54.2004834167
 20
21.1342200592
 10
-54.2178539528
 20
21.1538753255
 10
-54.2345240297
 20
21.1733140769
 10
-54.2501915828
 20
21.1925901503
 10
-54.2648320896
 20
21.2117188611
 10
-54.2784700726
 20
21.230685657
 10
-54.2908770345
 20
21.2494993009
 10
-54.3020346526
 20
21.2681660394
 10
-54.3119612495
 20
21.2866803051
 10
-54.3204832959
 20
21.3050331072
 10
-54.3275429486
 20
21.3232216992
 10
-54.3331980508
 20
21.3412495569
 10
-54.3374486023
 20
21.3591170407
  0
LWPOLYLINE
  5
3F6
100
AcDbEntity
  8
RACCORDO
100
AcDbPolyline
 62
250
  6
CONTINUOUS
 90
16
 70
0
 10
-33.3394757085
 20
8.6
 10
-33.336428987
 20
8.4915416665
 10
-33.329823898
 20
8.3819815021
 10
-33.3196604415
 20
8.2715261382
 10
-33.3050063505
 20
8.1595350609
 10
-33.2867938919
 20
8.047116819
 10
-33.2678198664
 20
7.9370400939
 10
-33.2481531535
 20
7.829677976
 10
-33.2277248736
 20
7.7249423111
 10
-33.2091251891
 20
7.6247206644
 10
-33.1928345183
 20
7.5297100018
 10
-33.1783724429
 20
7.4391816674
 10
-33.1668878704
 20
7.3527708855
 10
-33.1587637701
 20
7.2703239868
 10
-33.1536171728
 20
7.1918901692
 10
-33.1514480785
 20
7.1173955492
  0
LWPOLYLINE
  5
3F7
100
AcDbEntity
  8
RACCORDO
100
AcDbPolyline
 62
250
  6
CONTINUOUS
 90
16
 70
0
 10
-33.4752863372
 20
8.6
 10
-33.4735366022
 20
8.4835179264
 10
-33.4687883799
 20
8.3662417667
 10
-33.4611835364
 20
8.248171521
 10
-33.4506413761
 20
8.1281652107
 10
-33.4378578347
 20
8.0073648144
 10
-33.4241484922
 20
7.8891962676
 10
-33.4098619341
 20
7.7740731269
 10
-33.3954822629
 20
7.6615818357
 10
-33.3822061384
 20
7.5539076593
 10
-33.3704240208
 20
7.4519295878
 10
-33.3602299119
 20
7.354768631
 10
-33.3520202372
 20
7.2619730843
 10
-33.3459920453
 20
7.1733923794
 10
-33.3422592098
 20
7.0891770846
 10
-33.3409808872
 20
7.0093271998
  0
LINE
  5
3F8
100
AcDbEntity
  8
RACCORDO
100
AcDbLine
 62
250
  6
CONTINUOUS
 10
-33.832254684
 20
-15.1468253945
 11
-33.8300056141
 21
-15.2996541259
  0
LWPOLYLINE
  5
3F9
100
AcDbEntity
  8
RACCORDO
100
AcDbPolyline
 62
250
  6
CONTINUOUS
 90
7
 70
0
 10
-33.8287991728
 20
15.5520127583
 10
-33.8290722648
 20
15.5804932978
 10
-33.8294767661
 20
15.6041898853
 10
-33.8300056141
 20
15.6227696373
 10
-33.8306503656
 20
15.636080563
 10
-33.8314032168
 20
15.6440789313
 10
-33.832254684
 20
15.6467492421
  0
LINE
  5
3FA
100
AcDbEntity
  8
RACCORDO
100
AcDbLine
 62
250
  6
CONTINUOUS
 10
-33.8300056141
 20
-15.2996541259
 11
-33.8290722648
 21
-15.3954020112
  0
LINE
  5
3FB
100
AcDbEntity
  8
RACCORDO
100
AcDbLine
 62
250
  6
CONTINUOUS
 10
-33.8290722648
 20
-15.3954020112
 11
-33.8286606016
 21
-15.4803600707
  0
LINE
  5
3FC
100
AcDbEntity
  8
RACCORDO
100
AcDbLine
 62
250
  6
CONTINUOUS
 10
-33.832254684
 20
-15.1468253945
 11
-33.832254684
 21
15.1468253945
  0
LINE
  5
3FD
100
AcDbEntity
  8
RACCORDO
100
AcDbLine
 62
250
  6
CONTINUOUS
 10
-33.8286575143
 20
15.482133444
 11
-33.8287991728
 21
15.5520127583
  0
LINE
  5
3FE
100
AcDbEntity
  8
RACCORDO
100
AcDbLine
 62
250
  6
CONTINUOUS
 10
-33.4752863372
 20
10.7
 11
-33.4752863372
 21
8.6
  0
LINE
  5
3FF
100
AcDbEntity
  8
RACCORDO
100
AcDbLine
 62
7
  6
CONTINUOUS
 10
-33.3409808872
 20
-15.1468253945
 11
-33.3409808872
 21
7.0093271998
  0
LINE
  5
400
100
AcDbEntity
  8
RACCORDO
100
AcDbLine
 62
7
  6
CONTINUOUS
 10
-33.3409808872
 20
12.2906728002
 11
-33.3409808872
 21
15.1468253945
  0
LINE
  5
401
100
AcDbEntity
  8
RACCORDO
100
AcDbLine
 62
250
  6
CONTINUOUS
 10
-33.3394757085
 20
10.7
 11
-33.3394757085
 21
8.6
  0
LINE
  5
402
100
AcDbEntity
  8
0
100
AcDbLine
 62
7
  6
CONTINUOUS
 10
-33.1909808872
 20
5.15625
 11
-33.1909808872
 21
1.44654
  0
LINE
  5
403
100
AcDbEntity
  8
0
100
AcDbLine
 62
7
  6
CONTINUOUS
 10
-33.1909808872
 20
1.438946
 11
-33.1909808872
 21
-1.8613154991
  0
LINE
  5
404
100
AcDbEntity
  8
0
100
AcDbLine
 62
7
  6
CONTINUOUS
 10
-33.1909808872
 20
-1.868581
 11
-33.1909808872
 21
-5.15625
  0
LINE
  5
405
100
AcDbEntity
  8
RACCORDO
100
AcDbLine
 62
250
  6
CONTINUOUS
 10
-33.1514479437
 20
13.4400669993
 11
-33.1514480785
 21
12.1826044508
  0
LINE
  5
406
100
AcDbEntity
  8
RACCORDO
100
AcDbLine
 62
250
  6
CONTINUOUS
 10
-33.1514480779
 20
-5.8599329936
 11
-33.151448052
 21
-6.1305380022
  0
LINE
  5
407
100
AcDbEntity
  8
RACCORDO
100
AcDbLine
 62
250
  6
CONTINUOUS
 10
-33.1514480785
 20
7.1173955492
 11
-33.1514477143
 21
5.8599330127
  0
LINE
  5
408
100
AcDbEntity
  8
RACCORDO
100
AcDbLine
 62
250
  6
CONTINUOUS
 10
-33.1514480557
 20
-12.2879999935
 11
-33.1514480657
 21
-12.317531
  0
LINE
  5
409
100
AcDbEntity
  8
0
100
AcDbLine
 62
7
  6
CONTINUOUS
 10
-33.1409808872
 20
4.9
 11
-33.1409808872
 21
3.099459
  0
LINE
  5
40A
100
AcDbEntity
  8
0
100
AcDbLine
 62
7
  6
CONTINUOUS
 10
-33.1409808872
 20
2.4
 11
-33.1409808872
 21
1.393211
  0
LINE
  5
40B
100
AcDbEntity
  8
0
100
AcDbLine
 62
7
  6
CONTINUOUS
 10
-33.1409808872
 20
0.3822600513
 11
-33.1409808872
 21
-4.6999999982
  0
LINE
  5
40C
100
AcDbEntity
  8
0
100
AcDbLine
 62
7
  6
CONTINUOUS
 10
-33.1409808872
 20
-5.45
 11
-33.1409808872
 21
-5.8599329936
  0
LINE
  5
40D
100
AcDbEntity
  8
ASSI
100
AcDbLine
 62
7
  6
CONTINUOUS
 10
-33.1409808872
 20
-6.130538
 11
-33.1409808872
 21
-7.771163
  0
LINE
  5
40E
100
AcDbEntity
  8
0
100
AcDbLine
 62
7
  6
CONTINUOUS
 10
-33.1409808872
 20
-7.771163
 11
-33.1409808872
 21
-8.044505
  0
LINE
  5
40F
100
AcDbEntity
  8
ASSI
100
AcDbLine
 62
7
  6
CONTINUOUS
 10
-33.1409808872
 20
-8.044505
 11
-33.1409808872
 21
-9.770969
  0
LINE
  5
410
100
AcDbEntity
  8
0
100
AcDbLine
 62
7
  6
CONTINUOUS
 10
-33.1409808872
 20
-9.770969
 11
-33.1409808872
 21
-10.0312
  0
LINE
  5
411
100
AcDbEntity
  8
ASSI
100
AcDbLine
 62
7
  6
CONTINUOUS
 10
-33.1409808872
 20
-10.044311
 11
-33.1409808872
 21
-12.049641
  0
LINE
  5
412
100
AcDbEntity
  8
0
100
AcDbLine
 62
7
  6
CONTINUOUS
 10
-33.1409808872
 20
-12.049641
 11
-33.1409808872
 21
-12.288
  0
LINE
  5
413
100
AcDbEntity
  8
0
100
AcDbLine
 62
7
  6
CONTINUOUS
 10
-33.1409808872
 20
-12.317531
 11
-33.1409808872
 21
-12.459641
  0
LINE
  5
414
100
AcDbEntity
  8
ASSI
100
AcDbLine
 62
7
  6
CONTINUOUS
 10
-33.1409808872
 20
-12.459641
 11
-33.1409808872
 21
-12.869657
  0
LINE
  5
415
100
AcDbEntity
  8
0
100
AcDbLine
 62
7
  6
CONTINUOUS
 10
-33.1409808872
 20
-12.871559
 11
-33.1409808872
 21
-13.142998
  0
LINE
  5
416
100
AcDbEntity
  8
ASSI
100
AcDbLine
 62
7
  6
CONTINUOUS
 10
-33.1409808872
 20
-13.142998
 11
-33.1409808872
 21
-14.869462
  0
LINE
  5
417
100
AcDbEntity
  8
RACCORDO
100
AcDbLine
 62
250
  6
CONTINUOUS
 10
-31.6252797802
 20
13.3600839151
 11
-31.6252798268
 21
5.9399160825
  0
LINE
  5
418
100
AcDbEntity
  8
RACCORDO
100
AcDbLine
 62
250
  6
CONTINUOUS
 10
-31.6252797801
 20
-5.9399160849
 11
-31.6252798268
 21
-13.327567288
  0
LINE
  5
419
100
AcDbEntity
  8
RACCORDO
100
AcDbLine
 62
7
  6
CONTINUOUS
 10
-31.3409808872
 20
13.0608476377
 11
-31.3409808872
 21
6.2391686047
  0
LINE
  5
41A
100
AcDbEntity
  8
RACCORDO
100
AcDbLine
 62
7
  6
CONTINUOUS
 10
-31.3409808872
 20
-6.2391524393
 11
-31.3409808872
 21
-13.0283147485
  0
LWPOLYLINE
  5
41B
100
AcDbEntity
  8
RACCORDO
100
AcDbPolyline
 62
250
  6
CONTINUOUS
 90
8
 70
0
 10
-33.8286606016
 20
-15.4803600707
 10
-33.8287900114
 20
-15.5506210762
 10
-33.8290568771
 20
-15.5792927685
 10
-33.829455302
 20
-15.6032072815
 10
-33.8299807987
 20
-15.6220888062
 10
-33.8306274656
 20
-15.635728167
 10
-33.8313882259
 20
-15.6439784466
 10
-33.832254684
 20
-15.6467492421
  0
LINE
  5
41C
100
AcDbEntity
  8
RACCORDO
100
AcDbLine
 62
250
  6
CONTINUOUS
 10
-33.8290568771
 20
15.3974841035
 11
-33.8286575143
 21
15.482133444
  0
LINE
  5
41D
100
AcDbEntity
  8
RACCORDO
100
AcDbLine
 62
250
  6
CONTINUOUS
 10
-33.8306274656
 20
15.2510697504
 11
-33.8290568771
 21
15.3974841035
  0
LWPOLYLINE
  5
41E
100
AcDbEntity
  8
RACCORDO
100
AcDbPolyline
 62
250
  6
CONTINUOUS
 90
9
 70
0
 10
-33.3409808872
 20
12.2906728002
 10
-33.3421835653
 20
12.2132041715
 10
-33.3456929507
 20
12.1318257146
 10
-33.3513560845
 20
12.0465374297
 10
-33.3590527334
 20
11.9575005755
 10
-33.368601492
 20
11.8645538933
 10
-33.3796748255
 20
11.7672136063
 10
-33.3921464792
 20
11.6654600048
 10
-33.4195265162
 20
11.4483473403
  0
LINE
  5
41F
100
AcDbEntity
  8
RACCORDO
100
AcDbLine
 62
250
  6
CONTINUOUS
 10
-33.832254684
 20
15.1468253945
 11
-33.8306274656
 21
15.2510697504
  0
LWPOLYLINE
  5
420
100
AcDbEntity
  8
RACCORDO
100
AcDbPolyline
 62
250
  6
CONTINUOUS
 90
16
 70
0
 10
-33.1514480785
 20
12.1826044508
 10
-33.1534944952
 20
12.1103503196
 10
-33.1583312333
 20
12.0345555051
 10
-33.1659582929
 20
11.9551611368
 10
-33.1767077815
 20
11.8722448264
 10
-33.1902475916
 20
11.7856482903
 10
-33.2055813999
 20
11.6949652838
 10
-33.2230237371
 20
11.6002068517
 10
-33.2422600725
 20
11.501347284
 10
-33.2613504917
 20
11.3979364734
 10
-33.2807399576
 20
11.2893618913
 10
-33.2999835073
 20
11.1763444713
 10
-33.3158063376
 20
11.0605354012
 10
-33.3271168473
 20
10.9426480136
 10
-33.3350066376
 20
10.8223903477
 10
-33.3394757085
 20
10.7
  0
LINE
  5
421
100
AcDbEntity
  8
RACCORDO
100
AcDbLine
 62
250
  6
CONTINUOUS
 10
-48.832254684
 20
-19.4416938666
 11
-49.6201648907
 21
-20.2442288083
  0
LINE
  5
422
100
AcDbEntity
  8
RACCORDO
100
AcDbLine
 62
250
  6
CONTINUOUS
 10
-49.6201648907
 20
-20.2442288083
 11
-50.3700704466
 21
-21.0077173985
  0
LINE
  5
423
100
AcDbEntity
  8
RACCORDO
100
AcDbLine
 62
7
  6
CONTINUOUS
 10
-48.4874274966
 20
-19.4464466094
 11
-50.6970513889
 21
-21.6560705017
  0
LINE
  5
424
100
AcDbEntity
  8
DRAFT
100
AcDbLine
 62
7
  6
CONTINUOUS
 10
-33.1514480785
 20
5.8599329936
 11
-31.6252801003
 21
5.9399160682
  0
LINE
  5
425
100
AcDbEntity
  8
0
100
AcDbLine
 62
250
  6
CONTINUOUS
 10
-33.3409808872
 20
4.5279328992
 11
-33.1909808872
 21
4.5279328992
  0
LINE
  5
426
100
AcDbEntity
  8
0
100
AcDbLine
 62
7
  6
CONTINUOUS
 10
-33.1909808872
 20
4.9
 11
-33.1409808872
 21
4.9
  0
LINE
  5
427
100
AcDbEntity
  8
0
100
AcDbLine
 62
7
  6
CONTINUOUS
 10
-33.3409808872
 20
5.0532646229
 11
-33.1909808872
 21
5.0532646229
  0
LINE
  5
428
100
AcDbEntity
  8
0
100
AcDbLine
 62
7
  6
CONTINUOUS
 10
-33.3409808872
 20
5.15625
 11
-33.1909808872
 21
5.15625
  0
LINE
  5
429
100
AcDbEntity
  8
RACCORDO
100
AcDbLine
 62
7
  6
CONTINUOUS
 10
-50.6970513889
 20
21.6560705017
 11
-48.4874274966
 21
19.4464466094
  0
LINE
  5
42A
100
AcDbEntity
  8
RACCORDO
100
AcDbLine
 62
250
  6
CONTINUOUS
 10
-50.3700704267
 20
21.0077173972
 11
-48.832254684
 21
19.4417173837
  0
LWPOLYLINE
  5
42B
100
AcDbEntity
  8
RACCORDO
100
AcDbPolyline
 62
250
  6
CONTINUOUS
 90
10
 70
0
 10
-33.3409808872
 20
12.2906728002
 10
-33.3381411155
 20
12.2725013235
 10
-33.329702463
 20
12.2548459203
 10
-33.315904596
 20
12.2382079562
 10
-33.2971393702
 20
12.223059902
 10
-33.2739396921
 20
12.2098319109
 10
-33.2469643771
 20
12.1988996069
 10
-33.2169794567
 20
12.1905734279
 10
-33.1848364321
 20
12.185089806
 10
-33.1514480785
 20
12.1826044509
  0
LWPOLYLINE
  5
42C
100
AcDbEntity
  8
RACCORDO
100
AcDbPolyline
 62
250
  6
CONTINUOUS
 90
4
 70
0
 10
-48.4663541341
 20
-19.3241959542
 10
-48.4340782796
 20
-19.2958558279
 10
-48.406162439
 20
-19.265315322
 10
-48.3829291645
 20
-19.232922383
  0
LWPOLYLINE
  5
42D
100
AcDbEntity
  8
RACCORDO
100
AcDbPolyline
 62
250
  6
CONTINUOUS
 90
10
 70
0
 10
-50.0252989025
 20
-20.9843180153
 10
-50.0510955841
 20
-21.0058476623
 10
-50.0815449914
 20
-21.0234488727
 10
-50.11598271
 20
-21.036540543
 10
-50.1532788645
 20
-21.0443729522
 10
-50.1929541546
 20
-21.0468979841
 10
-50.2352681362
 20
-21.0446263772
 10
-50.279717696
 20
-21.0375361167
 10
-50.3249896223
 20
-21.0252342692
 10
-50.3701260893
 20
-21.0077183972
  0
LWPOLYLINE
  5
42E
100
AcDbEntity
  8
RACCORDO
100
AcDbPolyline
 62
250
  6
CONTINUOUS
 90
10
 70
0
 10
-48.4874274966
 20
-19.4464466094
 10
-48.512549835
 20
-19.4668527439
 10
-48.5420525592
 20
-19.4822697694
 10
-48.5755418932
 20
-19.4924918072
 10
-48.6125709571
 20
-19.4973823491
 10
-48.6526457232
 20
-19.4968760806
 10
-48.6952316057
 20
-19.4909797583
 10
-48.7397606052
 20
-19.4797721195
 10
-48.7856388862
 20
-19.4634028254
 10
-48.8322546841
 20
-19.4420904628
  0
LINE
  5
42F
100
AcDbEntity
  8
RACCORDO
100
AcDbLine
 62
250
  6
CONTINUOUS
 10
-31.3409808872
 20
8.6
 11
-33.4752863372
 21
8.6
  0
LINE
  5
430
100
AcDbEntity
  8
RACCORDO
100
AcDbLine
 62
250
  6
CONTINUOUS
 10
-31.3409808872
 20
10.7
 11
-33.4752863372
 21
10.7
  0
LWPOLYLINE
  5
431
100
AcDbEntity
  8
RACCORDO
100
AcDbPolyline
 62
250
  6
CONTINUOUS
 90
10
 70
0
 10
-48.4874274966
 20
19.4464466094
 10
-48.5125499054
 20
19.4668528152
 10
-48.5420526871
 20
19.4822699003
 10
-48.575542061
 20
19.4924919813
 10
-48.6125711442
 20
19.4973825465
 10
-48.6526459078
 20
19.4968762796
 10
-48.6952317676
 20
19.4909799368
 10
-48.7397607267
 20
19.4797722561
 10
-48.7856389521
 20
19.4634029012
 10
-48.8322546841
 20
19.4420904628
  0
LWPOLYLINE
  5
432
100
AcDbEntity
  8
RACCORDO
100
AcDbPolyline
 62
250
  6
CONTINUOUS
 90
10
 70
0
 10
-50.0252989025
 20
20.9843180153
 10
-50.0519841395
 20
21.0067425258
 10
-50.0822462801
 20
21.0241659292
 10
-50.1159509992
 20
21.0365313897
 10
-50.1530521131
 20
21.0441813769
 10
-50.1930841021
 20
21.0470786428
 10
-50.2352247315
 20
21.0446312217
 10
-50.2789706864
 20
21.0368157422
 10
-50.3240840496
 20
21.0243336097
 10
-50.3701260893
 20
21.0077183973
  0
LWPOLYLINE
  5
433
100
AcDbEntity
  8
RACCORDO
100
AcDbPolyline
 62
250
  6
CONTINUOUS
 90
4
 70
0
 10
-48.4663541341
 20
19.3241959542
 10
-48.4340782796
 20
19.2958558279
 10
-48.406162439
 20
19.265315322
 10
-48.3829291645
 20
19.232922383
  0
LWPOLYLINE
  5
434
100
AcDbEntity
  8
0
100
AcDbPolyline
 62
7
  6
CONTINUOUS
 90
10
 70
0
 43
0.3500000006
 10
-48.6266938934
 20
43.8558546295
 10
-48.5552672424
 20
43.7129967957
 10
-48.5552672424
 20
43.6415656128
 10
-48.6981250763
 20
43.4987077789
 10
-48.7695517273
 20
43.4987077789
 10
-48.8409829102
 20
43.5701389618
 10
-48.8409829102
 20
43.6415656128
 10
-48.7695517273
 20
43.7844234467
 10
-48.6981250763
 20
43.8558546295
 10
-48.6266938934
 20
43.8558546295
  0
LINE
  5
435
100
AcDbEntity
  8
DRAFT
100
AcDbLine
 62
7
  6
CONTINUOUS
 10
-33.1514480785
 20
13.4400670064
 11
-31.6252801003
 21
13.3600839318
  0
LWPOLYLINE
  5
436
100
AcDbEntity
  8
RACCORDO
100
AcDbPolyline
 62
250
  6
CONTINUOUS
 90
5
 70
0
 10
-48.6316655661
 20
-19.4100673031
 10
-48.5857642678
 20
-19.3932197409
 10
-48.5426069128
 20
-19.3731418072
 10
-48.502661838
 20
-19.350051816
 10
-48.4663541341
 20
-19.3241959542
  0
LINE
  5
437
100
AcDbEntity
  8
0
100
AcDbLine
 62
7
  6
CONTINUOUS
 10
-50.6970513889
 20
-21.6560705017
 11
-52.1914854033
 21
-22.2
  0
LINE
  5
438
100
AcDbEntity
  8
RACCORDO
100
AcDbLine
 62
250
  6
CONTINUOUS
 10
-33.832254684
 20
15.1468253945
 11
-33.3409808872
 21
15.1468253945
  0
LINE
  5
439
100
AcDbEntity
  8
RACCORDO
100
AcDbLine
 62
250
  6
CONTINUOUS
 10
-48.832254684
 20
17.3051597608
 11
-58.3409808872
 21
17.3594295692
  0
LINE
  5
43A
100
AcDbEntity
  8
RACCORDO
100
AcDbLine
 62
250
  6
CONTINUOUS
 10
-48.7763077373
 20
16.0615550106
 11
-58.3409808872
 21
16.119659166
  0
LINE
  5
43B
100
AcDbEntity
  8
RACCORDO
100
AcDbLine
 62
250
  6
CONTINUOUS
 10
-33.832254684
 20
15.1468253945
 11
-47.8497070904
 21
15.3915009364
  0
LINE
  5
43C
100
AcDbEntity
  8
RACCORDO
100
AcDbLine
 62
7
  6
CONTINUOUS
 10
-33.832254684
 20
15.6467492421
 11
-47.8497070904
 21
15.891424784
  0
LWPOLYLINE
  5
43D
100
AcDbEntity
  8
RACCORDO
100
AcDbPolyline
 62
250
  6
CONTINUOUS
 90
13
 70
0
 10
-48.8317999154
 20
16.5011604851
 10
-48.7673839834
 20
16.499982671
 10
-48.7041980505
 20
16.4969892532
 10
-48.6432981209
 20
16.4922302598
 10
-48.5857019938
 20
16.4857852261
 10
-48.532372253
 20
16.4777618658
 10
-48.4842001795
 20
16.4682942702
 10
-48.4419908562
 20
16.4575406679
 10
-48.4064497128
 20
16.4456807802
 10
-48.3781707358
 20
16.4329128171
 10
-48.3576265418
 20
16.4194501653
 10
-48.3451604787
 20
16.4055178213
 10
-48.3409808873
 20
16.3913486316
  0
LWPOLYLINE
  5
43E
100
AcDbEntity
  8
RACCORDO
100
AcDbPolyline
 62
250
  6
CONTINUOUS
 90
19
 70
0
 10
-47.8497070904
 20
15.3915009364
 10
-47.9009799968
 20
15.3932142868
 10
-47.9535644577
 20
15.3983195729
 10
-48.0074604732
 20
15.4068167949
 10
-48.0629110605
 20
15.4184137638
 10
-48.1196732024
 20
15.4334026685
 10
-48.1770178467
 20
15.4526600756
 10
-48.235072483
 20
15.4761973559
 10
-48.2937096217
 20
15.5040031386
 10
-48.3518177414
 20
15.5369198786
 10
-48.4096466087
 20
15.5751374893
 10
-48.4669464571
 20
15.6184660573
 10
-48.5218564651
 20
15.6671782971
 10
-48.5745378586
 20
15.7217910119
 10
-48.6248294117
 20
15.7817873985
 10
-48.6703866259
 20
15.8458897613
 10
-48.7104280019
 20
15.9136722016
 10
-48.745735039
 20
15.985560618
 10
-48.7763077373
 20
16.0615550106
  0
LWPOLYLINE
  5
43F
100
AcDbEntity
  8
RACCORDO
100
AcDbPolyline
 62
250
  6
CONTINUOUS
 90
13
 70
0
 10
-48.832254684
 20
17.3051597608
 10
-48.7677954878
 20
17.3018590446
 10
-48.704560881
 20
17.2934127689
 10
-48.6436089485
 20
17.2799622628
 10
-48.58595958
 20
17.2617325894
 10
-48.5325774047
 20
17.2390287805
 10
-48.4843556502
 20
17.2122307322
 10
-48.4421011959
 20
17.1817868482
 10
-48.406521072
 20
17.1482065366
 10
-48.3782106296
 20
17.1120516868
 10
-48.357643578
 20
17.0739272667
 10
-48.3451640588
 20
17.0344712003
 10
-48.3409808872
 20
16.9943436938
  0
LINE
  5
440
100
AcDbEntity
  8
0
100
AcDbLine
 62
7
  6
CONTINUOUS
 10
-50.6970513889
 20
21.6560705017
 11
-52.1914854033
 21
22.2
  0
LWPOLYLINE
  5
441
100
AcDbEntity
  8
RACCORDO
100
AcDbPolyline
 62
250
  6
CONTINUOUS
 90
5
 70
0
 10
-48.6316655661
 20
19.4100673031
 10
-48.5857642678
 20
19.3932197409
 10
-48.5426069128
 20
19.3731418072
 10
-48.502661838
 20
19.350051816
 10
-48.4663541341
 20
19.3241959542
  0
LINE
  5
442
100
AcDbEntity
  8
RACCORDO
100
AcDbLine
 62
7
  6
CONTINUOUS
 10
-54.1444713685
 20
21.1965699136
 11
-50.3701260893
 21
21.1306884717
  0
LINE
  5
443
100
AcDbEntity
  8
RACCORDO
100
AcDbLine
 62
250
  6
CONTINUOUS
 10
-54.1444711178
 20
21.0738952193
 11
-50.3700704267
 21
21.0077173972
  0
LWPOLYLINE
  5
444
100
AcDbEntity
  8
RACCORDO
100
AcDbPolyline
 62
250
  6
CONTINUOUS
 90
5
 70
0
 10
-48.832254684
 20
19.4420904629
 10
-48.7806289802
 20
19.4395901339
 10
-48.7296265189
 20
19.4333722406
 10
-48.6797954165
 20
19.4234983707
 10
-48.6316655661
 20
19.4100673031
  0
LWPOLYLINE
  5
445
100
AcDbEntity
  8
0
100
AcDbPolyline
 62
250
  6
CONTINUOUS
 90
4
 70
0
 10
-67.3989939569
 20
21.0183133038
 10
-67.396319481
 20
21.0181628131
 10
-67.3883214044
 20
21.0177887456
 10
-66.9081841892
 20
20.9972959167
  0
LINE
  5
446
100
AcDbEntity
  8
0
100
AcDbLine
 62
250
  6
CONTINUOUS
 10
-66.4347941322
 20
21.4755923698
 11
-58.3409808872
 21
21.8997711479
  0
LINE
  5
447
100
AcDbEntity
  8
0
100
AcDbLine
 62
7
  6
CONTINUOUS
 10
-66.4522359071
 20
21.9749071372
 11
-58.3409808872
 21
22.4
  0
LINE
  5
448
100
AcDbEntity
  8
0
100
AcDbLine
 62
7
  6
CONTINUOUS
 10
-52.1914854033
 20
22.2
 11
-52.7409808872
 21
22.2
  0
LINE
  5
449
100
AcDbEntity
  8
0
100
AcDbLine
 62
7
  6
CONTINUOUS
 10
-54.3409808872
 20
22.6298666026
 11
-55.6622008632
 21
22.6398908175
  0
LINE
  5
44A
100
AcDbEntity
  8
0
100
AcDbLine
 62
7
  6
CONTINUOUS
 10
-55.6622008632
 20
22.6398908175
 11
-56.9955646786
 21
22.651011599
  0
LINE
  5
44B
100
AcDbEntity
  8
0
100
AcDbLine
 62
7
  6
CONTINUOUS
 10
-56.9955646786
 20
22.651011599
 11
-58.3409808872
 21
22.663166622
  0
LINE
  5
44C
100
AcDbEntity
  8
0
100
AcDbLine
 62
7
  6
CONTINUOUS
 10
-58.3409808872
 20
23.5
 11
-54.3409808872
 21
23.4301797403
  0
LINE
  5
44D
100
AcDbEntity
  8
0
100
AcDbLine
 62
250
  6
CONTINUOUS
 10
-58.3409808872
 20
23.3333596575
 11
-54.3409808872
 21
23.2631073618
  0
LINE
  5
44E
100
AcDbEntity
  8
0
100
AcDbLine
 62
7
  6
CONTINUOUS
 10
-56.5497675318
 20
23.1451078252
 11
-58.3409808872
 21
23.1799085618
  0
LWPOLYLINE
  5
44F
100
AcDbEntity
  8
0
100
AcDbPolyline
 62
7
  6
CONTINUOUS
 90
3
 70
0
 10
-54.3409808872
 20
23.0998904748
 10
-54.7800382304
 20
23.1090906657
 10
-56.5497675318
 20
23.1451078252
  0
LWPOLYLINE
  5
450
100
AcDbEntity
  8
0
100
AcDbPolyline
 62
7
  6
CONTINUOUS
 90
7
 70
0
 43
0.3500000006
 10
-45.6981241608
 20
35.3558520355
 10
-47.1981246185
 20
35.3558520355
 10
-45.6981241608
 20
37.4987104797
 10
-45.6981241608
 20
37.9272794495
 10
-46.1266931305
 20
38.355852951
 10
-46.7695511169
 20
38.355852951
 10
-47.1981246185
 20
37.7129949646
  0
LWPOLYLINE
  5
451
100
AcDbEntity
  8
0
100
AcDbPolyline
 62
7
  6
CONTINUOUS
 90
6
 70
0
 43
0.3500000006
 10
-53.7695532532
 20
43.3558544769
 10
-52.6981217651
 20
43.3558544769
 10
-52.4838372803
 20
43.5701389618
 10
-52.4838372803
 20
44.641565918
 10
-52.9124107819
 20
45.0701394196
 10
-53.3409797516
 20
45.0701394196
  0
LWPOLYLINE
  5
452
100
AcDbEntity
  8
0
100
AcDbPolyline
 62
7
  6
CONTINUOUS
 90
8
 70
0
 43
0.3500000006
 10
-47.5552669373
 20
43.3558544769
 10
-46.6981244659
 20
43.3558544769
 10
-46.2695509644
 20
43.7844234467
 10
-46.2695509644
 20
44.641565918
 10
-46.6981244659
 20
45.0701394196
 10
-47.5552669373
 20
45.0701394196
 10
-47.5552669373
 20
46.3558508606
 10
-46.2695509644
 20
46.3558508606
  0
ARC
  5
453
100
AcDbEntity
  8
0
100
AcDbCircle
 62
7
  6
CONTINUOUS
 10
-11.25
 20
0.0
 40
28.0
100
AcDbArc
 50
305.9627651514
 51
306.8614108051
  0
ARC
  5
454
100
AcDbEntity
  8
0
100
AcDbCircle
 62
7
  6
CONTINUOUS
 10
-11.25
 20
0.0
 40
28.0
100
AcDbArc
 50
303.5572123136
 51
304.1210936517
  0
ARC
  5
455
100
AcDbEntity
  8
0
100
AcDbCircle
 62
7
  6
CONTINUOUS
 10
11.25
 20
0.0
 40
28.0
100
AcDbArc
 50
235.8789063483
 51
236.4427876864
  0
ARC
  5
456
100
AcDbEntity
  8
0
100
AcDbCircle
 62
7
  6
CONTINUOUS
 10
11.25
 20
0.0
 40
28.0
100
AcDbArc
 50
233.1385891949
 51
234.0372348486
  0
ARC
  5
457
100
AcDbEntity
  8
0
100
AcDbCircle
 62
7
  6
CONTINUOUS
 10
11.25
 20
0.0
 40
28.0
100
AcDbArc
 50
125.9627651514
 51
126.8614108051
  0
ARC
  5
458
100
AcDbEntity
  8
0
100
AcDbCircle
 62
7
  6
CONTINUOUS
 10
11.25
 20
0.0
 40
28.0
100
AcDbArc
 50
123.5572123136
 51
124.1210936517
  0
ARC
  5
459
100
AcDbEntity
  8
0
100
AcDbCircle
 62
7
  6
CONTINUOUS
 10
-11.25
 20
0.0
 40
28.0
100
AcDbArc
 50
55.8789063483
 51
56.4427876864
  0
ARC
  5
45A
100
AcDbEntity
  8
0
100
AcDbCircle
 62
7
  6
CONTINUOUS
 10
-11.25
 20
0.0
 40
28.0
100
AcDbArc
 50
53.1385891949
 51
54.0372348486
  0
ARC
  5
45B
100
AcDbEntity
  8
RACCORDO
100
AcDbCircle
 62
7
  6
CONTINUOUS
 10
0.0
 20
-5.95
 40
2.7
100
AcDbArc
 50
0.0
 51
180.0
  0
ARC
  5
45C
100
AcDbEntity
  8
0
100
AcDbCircle
 62
7
  6
CONTINUOUS
 10
1.8567206159
 20
-5.95
 40
1.8
100
AcDbArc
 50
168.4197916511
 51
191.5809951195
  0
ARC
  5
45D
100
AcDbEntity
  8
0
100
AcDbCircle
 62
7
  6
CONTINUOUS
 10
-1.8567206159
 20
-5.95
 40
1.8
100
AcDbArc
 50
348.4197917147
 51
11.5809950494
  0
ARC
  5
45E
100
AcDbEntity
  8
0
100
AcDbCircle
 62
7
  6
CONTINUOUS
 10
4.95
 20
23.1
 40
0.5
100
AcDbArc
 50
170.803718421
 51
299.112422776
  0
ARC
  5
45F
100
AcDbEntity
  8
0
100
AcDbCircle
 62
7
  6
CONTINUOUS
 10
-4.95
 20
23.1
 40
0.5
100
AcDbArc
 50
240.887577224
 51
9.196281579
  0
ARC
  5
460
100
AcDbEntity
  8
0
100
AcDbCircle
 62
7
  6
CONTINUOUS
 10
4.95
 20
-23.1
 40
0.5
100
AcDbArc
 50
60.887577224
 51
189.196281579
  0
ARC
  5
461
100
AcDbEntity
  8
0
100
AcDbCircle
 62
7
  6
CONTINUOUS
 10
-4.95
 20
-23.1
 40
0.5
100
AcDbArc
 50
350.803718421
 51
119.112422776
  0
ARC
  5
462
100
AcDbEntity
  8
0
100
AcDbCircle
 62
7
  6
CONTINUOUS
 10
-66.3998999509
 20
-20.9762776025
 40
1.0
100
AcDbArc
 50
182.4092313014
 51
267.0
  0
ARC
  5
463
100
AcDbEntity
  8
RACCORDO
100
AcDbCircle
 62
7
  6
CONTINUOUS
 10
-48.8409808872
 20
-19.0928932188
 40
0.5
100
AcDbArc
 50
315.0
 51
358.5534903769
  0
ARC
  5
464
100
AcDbEntity
  8
RACCORDO
100
AcDbCircle
 62
7
  6
CONTINUOUS
 10
-50.3788522925
 20
-20.6307646241
 40
0.5
100
AcDbArc
 50
271.0
 51
315.0
  0
ARC
  5
465
100
AcDbEntity
  8
RACCORDO
100
AcDbCircle
 62
7
  6
CONTINUOUS
 10
-47.8409808872
 20
-16.3913486316
 40
0.5
100
AcDbArc
 50
91.0
 51
180.0
  0
ARC
  5
466
100
AcDbEntity
  8
RACCORDO
100
AcDbCircle
 62
7
  6
CONTINUOUS
 10
-33.8409808872
 20
-15.1468253945
 40
0.5
100
AcDbArc
 50
271.0
 51
360.0
  0
ARC
  5
467
100
AcDbEntity
  8
RACCORDO
100
AcDbCircle
 62
7
  6
CONTINUOUS
 10
-31.6409808872
 20
-6.2395049286
 40
0.3
100
AcDbArc
 50
0.0
 51
87.0
  0
ARC
  5
468
100
AcDbEntity
  8
RACCORDO
100
AcDbCircle
 62
7
  6
CONTINUOUS
 10
-31.6409808872
 20
-13.0279784419
 40
0.3
100
AcDbArc
 50
273.0
 51
360.0
  0
ARC
  5
469
100
AcDbEntity
  8
RACCORDO
100
AcDbCircle
 62
7
  6
CONTINUOUS
 10
-33.1409808872
 20
-5.6602070867
 40
0.2
100
AcDbArc
 50
180.0
 51
267.0
  0
ARC
  5
46A
100
AcDbEntity
  8
RACCORDO
100
AcDbCircle
 62
7
  6
CONTINUOUS
 10
-54.1409808872
 20
-21.3965394526
 40
0.2
100
AcDbArc
 50
91.0
 51
180.0
  0
ARC
  5
46B
100
AcDbEntity
  8
0
100
AcDbCircle
 62
7
  6
CONTINUOUS
 10
-66.3998999509
 20
20.9762776025
 40
1.0
100
AcDbArc
 50
93.0
 51
177.5907686986
  0
ARC
  5
46C
100
AcDbEntity
  8
RACCORDO
100
AcDbCircle
 62
7
  6
CONTINUOUS
 10
-50.3788522925
 20
20.6307646241
 40
0.5
100
AcDbArc
 50
45.0
 51
89.0
  0
ARC
  5
46D
100
AcDbEntity
  8
RACCORDO
100
AcDbCircle
 62
7
  6
CONTINUOUS
 10
-48.8409808872
 20
19.0928932188
 40
0.5
100
AcDbArc
 50
1.4475397873
 51
45.0
  0
ARC
  5
46E
100
AcDbEntity
  8
RACCORDO
100
AcDbCircle
 62
7
  6
CONTINUOUS
 10
-47.8409808872
 20
16.3913486316
 40
0.5
100
AcDbArc
 50
180.0
 51
269.0
  0
ARC
  5
46F
100
AcDbEntity
  8
RACCORDO
100
AcDbCircle
 62
7
  6
CONTINUOUS
 10
-33.8409808872
 20
15.1468253945
 40
0.5
100
AcDbArc
 50
0.0
 51
89.0
  0
ARC
  5
470
100
AcDbEntity
  8
RACCORDO
100
AcDbCircle
 62
7
  6
CONTINUOUS
 10
-31.6409808872
 20
6.2395049286
 40
0.3
100
AcDbArc
 50
273.0
 51
360.0
  0
ARC
  5
471
100
AcDbEntity
  8
RACCORDO
100
AcDbCircle
 62
7
  6
CONTINUOUS
 10
-31.6409808872
 20
13.0604950714
 40
0.3
100
AcDbArc
 50
0.0
 51
87.0
  0
ARC
  5
472
100
AcDbEntity
  8
RACCORDO
100
AcDbCircle
 62
7
  6
CONTINUOUS
 10
-33.1409808872
 20
5.6602070867
 40
0.2
100
AcDbArc
 50
93.0
 51
180.0
  0
ARC
  5
473
100
AcDbEntity
  8
RACCORDO
100
AcDbCircle
 62
7
  6
CONTINUOUS
 10
-33.1409808872
 20
13.6397929133
 40
0.2
100
AcDbArc
 50
180.0
 51
267.0
  0
ARC
  5
474
100
AcDbEntity
  8
RACCORDO
100
AcDbCircle
 62
7
  6
CONTINUOUS
 10
-54.1409808872
 20
21.3965394526
 40
0.2
100
AcDbArc
 50
180.0
 51
269.0
  0
ARC
  5
475
100
AcDbEntity
  8
RACCORDO
100
AcDbCircle
 62
7
  6
CONTINUOUS
 10
432.1590191128
 20
0.0
 40
500.0
100
AcDbArc
 50
178.7845090651
 51
179.85094137
  0
ARC
  5
476
100
AcDbEntity
  8
RACCORDO
100
AcDbCircle
 62
7
  6
CONTINUOUS
 10
432.1590191128
 20
0.0
 40
500.0
100
AcDbArc
 50
180.6822452358
 51
180.8025340381
  0
ARC
  5
477
100
AcDbEntity
  8
RACCORDO
100
AcDbCircle
 62
7
  6
CONTINUOUS
 10
432.1590191128
 20
0.0
 40
500.0
100
AcDbArc
 50
180.8037198237
 51
181.0262650545
  0
ARC
  5
478
100
AcDbEntity
  8
0
100
AcDbCircle
 62
7
  6
CONTINUOUS
 10
432.1590191128
 20
-0.0
 40
500.0
100
AcDbArc
 50
177.5907686986
 51
182.4092313014
  0
ELLIPSE
  5
479
100
AcDbEntity
  8
0
100
AcDbEllipse
 62
7
  6
CONTINUOUS
 10
10.649923836
 20
-21.899313827
 30
0.0
 11
-0.1582391023
 21
0.4751033573
 31
0.0
 40
0.9984778551
 41
-3.4626430041
 42
-1.8927600658
  0
ELLIPSE
  5
47A
100
AcDbEntity
  8
0
100
AcDbEllipse
 62
7
  6
CONTINUOUS
 10
10.649923836
 20
21.899313827
 30
0.0
 11
0.1582391023
 21
0.4751033573
 31
0.0
 40
0.9984778551
 41
-1.2488325878
 42
0.3210503505
  0
ELLIPSE
  5
47B
100
AcDbEntity
  8
0
100
AcDbEllipse
 62
7
  6
CONTINUOUS
 10
-10.649923836
 20
-21.899313827
 30
0.0
 11
0.1582391023
 21
0.4751033573
 31
0.0
 40
0.9984778551
 41
-4.3904252414
 42
-2.8205423031
  0
ELLIPSE
  5
47C
100
AcDbEntity
  8
0
100
AcDbEllipse
 62
7
  6
CONTINUOUS
 10
-10.649923836
 20
21.899313827
 30
0.0
 11
-0.1582391023
 21
0.4751033573
 31
0.0
 40
0.9984778551
 41
-0.3210503505
 42
1.2488325878
  0
ENDSEC
  0
SECTION
  2
OBJECTS
  0
DICTIONARY
  5
C
100
AcDbDictionary
280
0
281
1
  3
ACAD_GROUP
350
D
  3
ACAD_MLINESTYLE
350
17
  3
ACAD_LAYOUT
350
1A
  3
ACAD_PLOTSETTINGS
350
19
  3
ACAD_PLOTSTYLENAME
350
E
  0
DICTIONARY
  5
D
102
{ACAD_REACTORS
330
C
102
}
100
AcDbDictionary
280
0
281
1
  0
ACDBDICTIONARYWDFLT
  5
E
102
{ACAD_REACTORS
330
C
102
}
100
AcDbDictionary
281
1
  3
Normal
350
F
100
AcDbDictionaryWithDefault
340
F
  0
DICTIONARY
  5
17
102
{ACAD_REACTORS
330
C
102
}
100
AcDbDictionary
280
0
281
1
  3
Standard
350
18
  0
DICTIONARY
  5
19
102
{ACAD_REACTORS
330
C
102
}
100
AcDbDictionary
281
1
  0
DICTIONARY
  5
1A
102
{ACAD_REACTORS
330
C
102
}
100
AcDbDictionary
281
1
  3
Model
350
47D
  3
Layout1
350
47E
  0
ACDBPLACEHOLDER
  5
F
102
{ACAD_REACTORS
330
E
102
}
  0
MLINESTYLE
  5
18
102
{ACAD_REACTORS
330
17
102
}
100
AcDbMlineStyle
  2
STANDARD
 70
0
  3

 62
256
 51
90.0
 52
90.0
 71
2
 49
0.5
 62
256
  6
BYLAYER
 49
-0.5
 62
256
  6
BYLAYER
  0
LAYOUT
  5
47D
102
{ACAD_REACTORS
330
1A
102
}
100
AcDbPlotSettings
  1

  2
none_device
  4
ISO_A4_(297.00_x_210.00_MM)
  6

 40
0.0
 41
0.0
 42
0.0
 43
0.0
 44
297.0
 45
210.0
 46
0.0
 47
0.0
 48
0.0
 49
0.0
140
0.0
141
0.0
142
1.0
143
1.0
 70
1024
 72
1
 73
0
 74
0
  7

 75
0
147
1.0
148
0.0
149
0.0
100
AcDbLayout
  1
Model
 70
0
 71
0
 10
0.0
 20
0.0
 11
297.0
 21
210.0
 12
0.0
 22
0.0
 32
0.0
 14
0.0
 24
0.0
 34
0.0
 15
0.0
 25
0.0
 35
0.0
146
0.0
 13
0.0
 23
0.0
 33
0.0
 16
1.0
 26
0.0
 36
0.0
 17
0.0
 27
1.0
 37
0.0
 76
0
330
218
345
0
346
0
  0
LAYOUT
  5
47E
102
{ACAD_REACTORS
330
1A
102
}
100
AcDbPlotSettings
  1

  2
none_device
  4
ISO_A4_(297.00_x_210.00_MM)
  6

 40
0.0
 41
0.0
 42
0.0
 43
0.0
 44
297.0
 45
210.0
 46
0.0
 47
0.0
 48
0.0
 49
0.0
140
0.0
141
0.0
142
1.0
143
1.0
 70
0
 72
1
 73
0
 74
0
  7

 75
0
147
1.0
148
0.0
149
0.0
100
AcDbLayout
  1
Layout1
 70
0
 71
1
 10
0.0
 20
0.0
 11
297.0
 21
210.0
 12
0.0
 22
0.0
 32
0.0
 14
0.0
 24
0.0
 34
0.0
 15
0.0
 25
0.0
 35
0.0
146
0.0
 13
0.0
 23
0.0
 33
0.0
 16
1.0
 26
0.0
 36
0.0
 17
0.0
 27
1.0
 37
0.0
 76
0
330
219
345
0
346
0
  0
ENDSEC
  0
EOF
