0
SECTION
2
HEADER
9
$ACADVER
1
AC1015
9
$DWGCODEPAGE
3
ANSI_1252
9
$EXTMAX
10
297.0000000000
20
210.0000000000
30
0.0000000000
9
$EXTMIN
10
0.0000000000
20
0.0000000000
30
0.0000000000
9
$LIMMIN
10
0.0000000000
20
0.0000000000
9
$LIMMAX
10
297.0000000000
20
210.0000000000
9
$VIEWCTR
10
148.5000000000
20
105.0000000000
9
$VIEWSIZE
40
210.0000000000
9
$CLAYER
8
0
9
$LTSCALE
40
16.3350000000
9
$CELTYPE
6
BYLAYER
9
$DIMSCALE
40
1
9
$DIMASZ
40
3.0000000000
9
$DIMEXO
40
1.8562500000
9
$DIMDLI
40
11.2860000000
9
$DIMEXE
40
5.3460000000
9
$DIMCEN
40
2.6730000000
9
$DIMLFAC
40
1.0000000000
9
$DIMBLK
1
_FILLED
9
$DIMTXT
40
3.0000000000
9
$DIMTOL
70
1
9
$DIMLIM
70
0
9
$DIMTFAC
40
1.0000000000
9
$DIMTP
40
0.0100000000
9
$DIMTM
40
0.0100000000
9
$PDMODE
70
3
9
$PDSIZE
40
3.0000000000
9
$HANDSEED
5
390
9
$MEASUREMENT
70
1
9
$INSUNITS
70
4
0
ENDSEC
0
SECTION
2
CLASSES
0
CLASS
1
ACDBDICTIONARYWDFLT
2
AcDbDictionaryWithDefault
3
AutoCAD 2000
90
0
280
0
281
0
0
CLASS
1
ACDBPLACEHOLDER
2
AcDbPlaceHolder
3
AutoCAD 2000
90
0
280
0
281
0
0
CLASS
1
LAYOUT
2
AcDbLayout
3
AutoCAD 2000
90
0
280
0
281
0
0
ENDSEC
0
SECTION
2
TABLES
0
TABLE
2
VPORT
5
8
100
AcDbSymbolTable
70
2
0
VPORT
5
1F4
100
AcDbSymbolTableRecord
100
AcDbViewportTableRecord
2
*ACTIVE
70
0
10
0.0
20
0.0
11
1.0
21
1.0
12
148.5000000000
22
105.0000000000
13
0.0
23
0.0
14
1.0
24
1.0
15
0.0
25
0.0
16
0.0
26
0.0
36
1.0
17
0.0
27
0.0
37
0.0
40
210.0000000000
41
1.4142857143
42
50.0
43
0.0
44
0.0
50
0.0
51
0.0
71
0
72
100
73
1
74
1
75
0
76
0
77
0
78
0
0
ENDTAB
0
TABLE
2
LTYPE
5
5
100
AcDbSymbolTable
70
6
0
LTYPE
5
14
100
AcDbSymbolTableRecord
100
AcDbLinetypeTableRecord
2
BYBLOCK
70
0
3

72
65
73
0
40
0.0
0
LTYPE
5
15
100
AcDbSymbolTableRecord
100
AcDbLinetypeTableRecord
2
BYLAYER
70
0
3

72
65
73
0
40
0.0
0
LTYPE
5
16
100
AcDbSymbolTableRecord
100
AcDbLinetypeTableRecord
2
CONTINUOUS
70
64
3
Solid line
72
65
73
0
40
0
0
LTYPE
5
1F5
100
AcDbSymbolTableRecord
100
AcDbLinetypeTableRecord
2
CENTER
70
64
3
____ _ ____ _ ____ _ ____ _ ____ _ ____ _ ____
72
65
73
4
40
0.6
49
0.375
74
0
49
-0.075
74
0
49
0.075
74
0
49
-0.075
74
0
0
LTYPE
5
1F6
100
AcDbSymbolTableRecord
100
AcDbLinetypeTableRecord
2
HIDDEN
70
64
3
- - - - - - - - - - - - - - - - - - - -
72
65
73
2
40
0.2
49
0.1
74
0
49
-0.1
74
0
0
LTYPE
5
1F7
100
AcDbSymbolTableRecord
100
AcDbLinetypeTableRecord
2
PHANTOM
70
64
3
_____ _ _ _____ _ _ _____ _ _ _____
72
65
73
6
40
0.8
49
0.45
74
0
49
-0.05
74
0
49
0.1
74
0
49
-0.05
74
0
49
0.1
74
0
49
-0.05
74
0
0
LTYPE
5
1F8
100
AcDbSymbolTableRecord
100
AcDbLinetypeTableRecord
2
DOT
70
64
3
. . . . . . . . . . . . . . . . . . . .
72
65
73
2
40
0.2
49
0.1
74
0
49
-0.1
74
0
0
LTYPE
5
1F9
100
AcDbSymbolTableRecord
100
AcDbLinetypeTableRecord
2
DASHED
70
64
3
- - - - - - - - - - - - - - - - - - - -
72
65
73
2
40
0.2
49
0.1
74
0
49
-0.1
74
0
0
ENDTAB
0
TABLE
2
LAYER
5
2
100
AcDbSymbolTable
70
36
0
LAYER
5
10
100
AcDbSymbolTableRecord
100
AcDbLayerTableRecord
2
0
70
0
62
7
6
CONTINUOUS
370
-3
390
F
0
LAYER
5
1FA
100
AcDbSymbolTableRecord
100
AcDbLayerTableRecord
2
DEFAULT_1
70
0
62
7
6
CENTER
370
-3
390
F
0
LAYER
5
1FB
100
AcDbSymbolTableRecord
100
AcDbLayerTableRecord
2
DEFAULT_2
70
0
62
8
6
HIDDEN
370
-3
390
F
0
LAYER
5
1FC
100
AcDbSymbolTableRecord
100
AcDbLayerTableRecord
2
DEFAULT_3
70
0
62
7
6
PHANTOM
370
-3
390
F
0
LAYER
5
1FD
100
AcDbSymbolTableRecord
100
AcDbLayerTableRecord
2
_2D_DELETED_OBJS
70
0
62
7
6
CONTINUOUS
370
-3
390
F
0
LAYER
5
1FE
100
AcDbSymbolTableRecord
100
AcDbLayerTableRecord
2
_BLACK_HOLE
70
0
62
7
6
CONTINUOUS
370
-3
390
F
0
LAYER
5
1FF
100
AcDbSymbolTableRecord
100
AcDbLayerTableRecord
2
ASSI
70
0
62
7
6
CONTINUOUS
370
-3
390
F
0
LAYER
5
200
100
AcDbSymbolTableRecord
100
AcDbLayerTableRecord
2
COORDINATE
70
0
62
7
6
CONTINUOUS
370
-3
390
F
0
LAYER
5
201
100
AcDbSymbolTableRecord
100
AcDbLayerTableRecord
2
COORD_ORIGINE
70
0
62
7
6
CONTINUOUS
370
-3
390
F
0
LAYER
5
202
100
AcDbSymbolTableRecord
100
AcDbLayerTableRecord
2
COSMETICHE
70
0
62
7
6
CONTINUOUS
370
-3
390
F
0
LAYER
5
203
100
AcDbSymbolTableRecord
100
AcDbLayerTableRecord
2
CURVE
70
0
62
7
6
CONTINUOUS
370
-3
390
F
0
LAYER
5
204
100
AcDbSymbolTableRecord
100
AcDbLayerTableRecord
2
DRAFT
70
0
62
7
6
CONTINUOUS
370
-3
390
F
0
LAYER
5
205
100
AcDbSymbolTableRecord
100
AcDbLayerTableRecord
2
INTF_1
70
0
62
7
6
CONTINUOUS
370
-3
390
F
0
LAYER
5
206
100
AcDbSymbolTableRecord
100
AcDbLayerTableRecord
2
INTF_2
70
0
62
7
6
CONTINUOUS
370
-3
390
F
0
LAYER
5
207
100
AcDbSymbolTableRecord
100
AcDbLayerTableRecord
2
NOTE
70
0
62
7
6
CONTINUOUS
370
-3
390
F
0
LAYER
5
208
100
AcDbSymbolTableRecord
100
AcDbLayerTableRecord
2
PIANI
70
0
62
7
6
CONTINUOUS
370
-3
390
F
0
LAYER
5
209
100
AcDbSymbolTableRecord
100
AcDbLayerTableRecord
2
PIANI_ORIGINE
70
0
62
7
6
CONTINUOUS
370
-3
390
F
0
LAYER
5
20A
100
AcDbSymbolTableRecord
100
AcDbLayerTableRecord
2
PUNTI
70
0
62
7
6
CONTINUOUS
370
-3
390
F
0
LAYER
5
20B
100
AcDbSymbolTableRecord
100
AcDbLayerTableRecord
2
RACCORDO
70
0
62
7
6
CONTINUOUS
370
-3
390
F
0
LAYER
5
20C
100
AcDbSymbolTableRecord
100
AcDbLayerTableRecord
2
RGB__255__255__255__
70
0
62
7
6
CONTINUOUS
370
-3
390
F
0
LAYER
5
20D
100
AcDbSymbolTableRecord
100
AcDbLayerTableRecord
2
RGB____0____0____0__
70
0
62
7
6
CONTINUOUS
370
-3
390
F
0
LAYER
5
20E
100
AcDbSymbolTableRecord
100
AcDbLayerTableRecord
2
SMUSSO
70
0
62
7
6
CONTINUOUS
370
-3
390
F
0
LAYER
5
20F
100
AcDbSymbolTableRecord
100
AcDbLayerTableRecord
2
SNAPLINE
70
0
62
7
6
CONTINUOUS
370
-3
390
F
0
LAYER
5
210
100
AcDbSymbolTableRecord
100
AcDbLayerTableRecord
2
SUPERFICI
70
0
62
7
6
CONTINUOUS
370
-3
390
F
0
LAYER
5
211
100
AcDbSymbolTableRecord
100
AcDbLayerTableRecord
2
TRASH
70
0
62
7
6
CONTINUOUS
370
-3
390
F
0
LAYER
5
212
100
AcDbSymbolTableRecord
100
AcDbLayerTableRecord
2
XSEC_DATUMS
70
0
62
7
6
CONTINUOUS
370
-3
390
F
0
ENDTAB
0
TABLE
2
STYLE
5
3
100
AcDbSymbolTable
70
1
0
STYLE
5
11
100
AcDbSymbolTableRecord
100
AcDbTextStyleTableRecord
2
STANDARD
70
0
40
0.0
41
0.8000000000
50
0.0
71
0
42
0.2
3
txt
4

0
ENDTAB
0
TABLE
2
VIEW
5
6
100
AcDbSymbolTable
70
0
0
ENDTAB
0
TABLE
2
UCS
5
7
100
AcDbSymbolTable
70
0
0
ENDTAB
0
TABLE
2
APPID
5
9
100
AcDbSymbolTable
70
1
0
APPID
5
213
100
AcDbSymbolTableRecord
100
AcDbRegAppTableRecord
2
ACAD
70
0
0
ENDTAB
0
TABLE
2
BLOCK_RECORD
5
1
100
AcDbSymbolTable
70
0
0
BLOCK_RECORD
5
1F
100
AcDbSymbolTableRecord
100
AcDbBlockTableRecord
2
*MODEL_SPACE
0
BLOCK_RECORD
5
1B
100
AcDbSymbolTableRecord
100
AcDbBlockTableRecord
2
*PAPER_SPACE
0
BLOCK_RECORD
5
214
100
AcDbSymbolTableRecord
100
AcDbBlockTableRecord
2
_FILLED
0
BLOCK_RECORD
5
215
100
AcDbSymbolTableRecord
100
AcDbBlockTableRecord
2
*D0
0
BLOCK_RECORD
5
216
100
AcDbSymbolTableRecord
100
AcDbBlockTableRecord
2
*D1
0
BLOCK_RECORD
5
217
100
AcDbSymbolTableRecord
100
AcDbBlockTableRecord
2
*D2
0
BLOCK_RECORD
5
218
100
AcDbSymbolTableRecord
100
AcDbBlockTableRecord
2
*D3
0
ENDTAB
0
TABLE
2
DIMSTYLE
5
A
100
AcDbSymbolTable
70
1
100
AcDbDimStyleTable
71
0
0
DIMSTYLE
105
219
100
AcDbSymbolTableRecord
100
AcDbDimStyleTableRecord
2
STANDARD
70
0
3

4

40
1.0
41
3.0000000000
42
0.0625
43
0.38
44
0.18
45
0.0
46
0.0
47
0.0100000000
48
0.0100000000
140
3.0000000000
141
0.09
142
0.0
143
25.4
144
1.0000000000
145
0.0
146
1.0000000000
147
0.09
71
1
72
0
73
0
74
0
75
0
76
0
77
1
78
8
170
0
171
2
172
0
173
0
174
0
175
0
176
0
177
0
178
0
270
2
271
2
272
2
273
2
274
2
275
0
280
0
281
0
282
0
283
1
284
8
285
0
286
0
287
3
288
0
340
11
341
214
342
214
343
214
344
214
0
DIMSTYLE
105
21A
100
AcDbSymbolTableRecord
100
AcDbDimStyleTableRecord
2
DIMSTYLE_1
70
0
3

4

40
1.0
41
3.0000000000
42
0.0625
43
0.38
44
0.18
45
0.0
46
0.0
47
0.0000000000
48
0.0000000000
140
3.0000000000
141
0.09
142
0.0
143
25.4
144
1.0000000000
145
0.0
146
1.0000000000
147
0.09
71
0
72
0
73
0
74
0
75
0
76
0
77
1
78
8
170
0
171
2
172
0
173
0
174
0
175
0
176
0
177
0
178
0
270
2
271
2
272
2
273
2
274
2
275
0
280
0
281
0
282
0
283
1
284
8
285
0
286
0
287
3
288
0
340
11
341
214
342
214
343
214
344
214
0
ENDTAB
0
ENDSEC
0
SECTION
2
BLOCKS
0
BLOCK
5
20
100
AcDbEntity
8
0
100
AcDbBlockBegin
2
*MODEL_SPACE
70
0
10
0.0
20
0.0
30
0.0
3
*MODEL_SPACE
1

0
ENDBLK
5
21
100
AcDbEntity
8
0
100
AcDbBlockEnd
0
BLOCK
5
1C
100
AcDbEntity
8
0
100
AcDbBlockBegin
2
*PAPER_SPACE
70
0
10
0.0
20
0.0
30
0.0
3
*PAPER_SPACE
1

0
ENDBLK
5
1D
100
AcDbEntity
8
0
100
AcDbBlockEnd
0
BLOCK
5
21B
100
AcDbEntity
8
0
100
AcDbBlockBegin
62
2
6
CONTINUOUS
2
*D0
70
65
10
0.0000000000
20
0.0000000000
3
*D0
1

0
TEXT
5
21C
100
AcDbEntity
8
0
100
AcDbText
62
2
6
CONTINUOUS
10
18.3702857143
20
33.0180000000
7
STANDARD
40
3.0000000000
1
22,3
41
0.7142857143
72
0
100
AcDbText
0
LINE
5
21D
100
AcDbEntity
8
0
100
AcDbLine
62
2
6
CONTINUOUS
10
11.5060000000
20
23.1677711479
11
11.5060000000
21
33.7680000000
0
LINE
5
21E
100
AcDbEntity
8
0
100
AcDbLine
62
2
6
CONTINUOUS
10
33.8060000000
20
23.1677711479
11
33.8060000000
21
33.7680000000
0
LINE
5
21F
100
AcDbEntity
8
0
100
AcDbLine
62
2
6
CONTINUOUS
10
11.5060000000
20
32.2680000000
11
22.6560000000
21
32.2680000000
0
LINE
5
220
100
AcDbEntity
8
0
100
AcDbLine
62
2
6
CONTINUOUS
10
33.8060000000
20
32.2680000000
11
22.6560000000
21
32.2680000000
0
INSERT
5
221
100
AcDbEntity
8
0
100
AcDbBlockReference
62
2
6
CONTINUOUS
2
_FILLED
10
11.5060000000
20
32.2680000000
41
  3.000000
42
  3.000000
43
  3.000000
50
180.000000
0
INSERT
5
222
100
AcDbEntity
8
0
100
AcDbBlockReference
62
2
6
CONTINUOUS
2
_FILLED
10
33.8060000000
20
32.2680000000
41
  3.000000
42
  3.000000
43
  3.000000
0
ENDBLK
5
223
100
AcDbEntity
8
0
6
BYBLOCK
62
0
100
AcDbBlockEnd
0
BLOCK
5
224
100
AcDbEntity
8
0
100
AcDbBlockBegin
62
2
6
CONTINUOUS
2
*D1
70
65
10
0.0000000000
20
0.0000000000
3
*D1
1

0
TEXT
5
225
100
AcDbEntity
8
0
100
AcDbText
62
2
6
CONTINUOUS
10
41.0560000000
20
-1.5891428571
7
STANDARD
40
3.0000000000
1
47
50
90.0000000000
41
0.7857142857
72
0
100
AcDbText
0
LINE
5
226
100
AcDbEntity
8
0
100
AcDbLine
62
2
6
CONTINUOUS
10
26.8308574782
20
24.2680000000
11
43.3060000000
21
24.2680000000
0
LINE
5
227
100
AcDbEntity
8
0
100
AcDbLine
62
2
6
CONTINUOUS
10
26.8308574782
20
-22.7320000000
11
43.3060000000
21
-22.7320000000
0
LINE
5
228
100
AcDbEntity
8
0
100
AcDbLine
62
2
6
CONTINUOUS
10
41.8060000000
20
24.2680000000
11
41.8060000000
21
0.7680000000
0
LINE
5
229
100
AcDbEntity
8
0
100
AcDbLine
62
2
6
CONTINUOUS
10
41.8060000000
20
-22.7320000000
11
41.8060000000
21
0.7680000000
0
INSERT
5
22A
100
AcDbEntity
8
0
100
AcDbBlockReference
62
2
6
CONTINUOUS
2
_FILLED
10
41.8060000000
20
24.2680000000
41
  3.000000
42
  3.000000
43
  3.000000
50
 90.000000
0
INSERT
5
22B
100
AcDbEntity
8
0
100
AcDbBlockReference
62
2
6
CONTINUOUS
2
_FILLED
10
41.8060000000
20
-22.7320000000
41
  3.000000
42
  3.000000
43
  3.000000
50
270.000000
0
ENDBLK
5
22C
100
AcDbEntity
8
0
6
BYBLOCK
62
0
100
AcDbBlockEnd
0
BLOCK
5
22D
100
AcDbEntity
8
0
100
AcDbBlockBegin
62
2
6
CONTINUOUS
2
*D2
70
65
10
0.0000000000
20
0.0000000000
3
*D2
1

0
TEXT
5
22E
100
AcDbEntity
8
0
100
AcDbText
62
2
6
CONTINUOUS
10
-11.2507954558
20
33.0180000000
7
STANDARD
40
3.0000000000
1
27
41
0.7857142857
72
0
100
AcDbText
0
LINE
5
22F
100
AcDbEntity
8
0
100
AcDbLine
62
2
6
CONTINUOUS
10
4.6063474013
20
13.6388203770
11
4.6063474013
21
33.7680000000
0
LINE
5
230
100
AcDbEntity
8
0
100
AcDbLine
62
2
6
CONTINUOUS
10
-22.3936525987
20
26.0509577848
11
-22.3936525987
21
33.7680000000
0
LINE
5
231
100
AcDbEntity
8
0
100
AcDbLine
62
2
6
CONTINUOUS
10
4.6063474013
20
32.2680000000
11
-8.8936525987
21
32.2680000000
0
LINE
5
232
100
AcDbEntity
8
0
100
AcDbLine
62
2
6
CONTINUOUS
10
-22.3936525987
20
32.2680000000
11
-8.8936525987
21
32.2680000000
0
INSERT
5
233
100
AcDbEntity
8
0
100
AcDbBlockReference
62
2
6
CONTINUOUS
2
_FILLED
10
4.6063474013
20
32.2680000000
41
  3.000000
42
  3.000000
43
  3.000000
0
INSERT
5
234
100
AcDbEntity
8
0
100
AcDbBlockReference
62
2
6
CONTINUOUS
2
_FILLED
10
-22.3936525987
20
32.2680000000
41
  3.000000
42
  3.000000
43
  3.000000
50
180.000000
0
ENDBLK
5
235
100
AcDbEntity
8
0
6
BYBLOCK
62
0
100
AcDbBlockEnd
0
BLOCK
5
236
100
AcDbEntity
8
0
100
AcDbBlockBegin
62
2
6
CONTINUOUS
2
*D3
70
65
10
0.0000000000
20
0.0000000000
3
*D3
1

0
TEXT
5
237
100
AcDbEntity
8
0
100
AcDbText
62
2
6
CONTINUOUS
10
-17.8222240272
20
43.0180000000
7
STANDARD
40
3.0000000000
1
36,5
41
0.6964285714
72
0
100
AcDbText
0
LINE
5
238
100
AcDbEntity
8
0
100
AcDbLine
62
2
6
CONTINUOUS
10
-31.8936525987
20
1.2680000000
11
-31.8936525987
21
43.7680000000
0
LINE
5
239
100
AcDbEntity
8
0
100
AcDbLine
62
2
6
CONTINUOUS
10
4.6063474013
20
11.9354833705
11
4.6063474013
21
43.7680000000
0
LINE
5
23A
100
AcDbEntity
8
0
100
AcDbLine
62
2
6
CONTINUOUS
10
-31.8936525987
20
42.2680000000
11
-13.6436525987
21
42.2680000000
0
LINE
5
23B
100
AcDbEntity
8
0
100
AcDbLine
62
2
6
CONTINUOUS
10
4.6063474013
20
42.2680000000
11
-13.6436525987
21
42.2680000000
0
INSERT
5
23C
100
AcDbEntity
8
0
100
AcDbBlockReference
62
2
6
CONTINUOUS
2
_FILLED
10
-31.8936525987
20
42.2680000000
41
  3.000000
42
  3.000000
43
  3.000000
50
180.000000
0
INSERT
5
23D
100
AcDbEntity
8
0
100
AcDbBlockReference
62
2
6
CONTINUOUS
2
_FILLED
10
4.6063474013
20
42.2680000000
41
  3.000000
42
  3.000000
43
  3.000000
0
ENDBLK
5
23E
100
AcDbEntity
8
0
6
BYBLOCK
62
0
100
AcDbBlockEnd
0
BLOCK
5
23F
100
AcDbEntity
8
0
100
AcDbBlockBegin
2
_FILLED
70
64
10
0.0000000000
20
0.0000000000
3
_FILLED
1

0
SOLID
5
240
100
AcDbEntity
8
0
6
BYBLOCK
62
0
100
AcDbTrace
10
0.0000000000
20
0.0000000000
11
-1.0000000000
21
0.3166666667
12
-1.0000000000
22
-0.3166666667
13
-1.0000000000
23
-0.3166666667
0
ENDBLK
5
241
100
AcDbEntity
8
0
6
BYBLOCK
62
0
100
AcDbBlockEnd
0
ENDSEC
0
SECTION
2
ENTITIES
0
DIMENSION
5
242
100
AcDbEntity
8
0
100
AcDbDimension
62
2
6
CONTINUOUS
2
*D0
10
33.8060000000
20
32.2680000000
11
22.6560000000
21
34.5180000000
70
160
3
DIMSTYLE_1
100
AcDbAlignedDimension
13
11.5060000000
23
23.1677711479
14
33.8060000000
24
23.1677711479
100
AcDbRotatedDimension
0
DIMENSION
5
243
100
AcDbEntity
8
0
100
AcDbDimension
62
2
6
CONTINUOUS
2
*D1
10
41.8060000000
20
-22.7320000000
11
39.5560000000
21
0.7680000000
70
160
3
DIMSTYLE_1
100
AcDbAlignedDimension
13
26.8308574782
23
24.2680000000
14
26.8308574782
24
-22.7320000000
50
270.000000
100
AcDbRotatedDimension
0
DIMENSION
5
244
100
AcDbEntity
8
0
100
AcDbDimension
62
2
6
CONTINUOUS
2
*D2
10
-22.3936525987
20
32.2680000000
11
-8.8936525987
21
34.5180000000
70
160
3
DIMSTYLE_1
100
AcDbAlignedDimension
13
4.6063474013
23
13.6388203770
14
-22.3936525987
24
26.0509577848
50
180.000000
100
AcDbRotatedDimension
0
DIMENSION
5
245
100
AcDbEntity
8
0
100
AcDbDimension
62
2
6
CONTINUOUS
2
*D3
10
4.6063474013
20
42.2680000000
11
-13.6436525987
21
44.5180000000
70
160
3
DIMSTYLE_1
100
AcDbAlignedDimension
13
-31.8936525987
23
1.2680000000
14
4.6063474013
24
11.9354833705
100
AcDbRotatedDimension
0
LINE
5
246
100
AcDbEntity
8
0
100
AcDbLine
62
7
6
CONTINUOUS
10
26.3308574782
20
-22.7320000000
11
18.9811425218
21
-22.7320000000
0
LINE
5
247
100
AcDbEntity
8
0
100
AcDbLine
62
7
6
CONTINUOUS
10
19.1861797403
20
-21.7320000000
11
26.1258202597
21
-21.7320000000
0
LINE
5
248
100
AcDbEntity
8
0
100
AcDbLine
62
7
6
CONTINUOUS
10
33.3063805997
20
-21.6320000000
11
25.9560000000
21
-21.6320000000
0
LINE
5
249
100
AcDbEntity
8
0
100
AcDbLine
62
7
6
CONTINUOUS
10
19.3560000000
20
-21.6320000000
11
12.0056194003
21
-21.6320000000
0
LINE
5
24A
100
AcDbEntity
8
0
100
AcDbLine
62
9
6
CONTINUOUS
10
33.1647981167
20
-21.2069071372
11
12.1472018833
21
-21.2069071372
0
LINE
5
24B
100
AcDbEntity
8
0
100
AcDbLine
62
9
6
CONTINUOUS
10
33.1565350625
20
-20.2503142309
11
12.1554649375
21
-20.2503142309
0
LINE
5
24C
100
AcDbEntity
8
0
100
AcDbLine
62
7
6
CONTINUOUS
10
19.3560000000
20
23.1680000000
11
19.4226327976
21
23.2680000000
0
LINE
5
24D
100
AcDbEntity
8
0
100
AcDbLine
62
7
6
CONTINUOUS
10
19.4226327976
20
-21.7320000000
11
19.3560000000
21
-21.6320000000
0
LINE
5
24E
100
AcDbEntity
8
0
100
AcDbLine
62
7
6
CONTINUOUS
10
11.5060000000
20
-21.1317711479
11
11.5060000000
21
22.6677711479
0
LINE
5
24F
100
AcDbEntity
8
0
100
AcDbLine
62
9
6
CONTINUOUS
10
29.6665194800
20
-9.4496338750
11
30.1060000000
21
-9.3318754246
0
LINE
5
250
100
AcDbEntity
8
0
100
AcDbLine
62
9
6
CONTINUOUS
10
30.4060000000
20
-9.8383638183
11
27.6060000000
21
-9.8383638183
0
LINE
5
251
100
AcDbEntity
8
0
100
AcDbLine
62
7
6
CONTINUOUS
10
30.1060000000
20
-9.5320000000
11
27.9060000000
21
-9.5320000000
0
LINE
5
252
100
AcDbEntity
8
0
100
AcDbLine
62
7
6
CONTINUOUS
10
30.1060000000
20
-9.0820000000
11
29.6665194800
21
-9.0820000000
0
LINE
5
253
100
AcDbEntity
8
0
100
AcDbLine
62
7
6
CONTINUOUS
10
28.2728225658
20
-9.0820000000
11
28.0391774342
21
-9.0820000000
0
LINE
5
254
100
AcDbEntity
8
0
100
AcDbLine
62
9
6
CONTINUOUS
10
17.7060000000
20
-8.9878535121
11
14.9060000000
21
-8.9878535121
0
LINE
5
255
100
AcDbEntity
8
0
100
AcDbLine
62
9
6
CONTINUOUS
10
28.2495475195
20
-8.6820000000
11
28.0624524805
21
-8.6820000000
0
LINE
5
256
100
AcDbEntity
8
0
100
AcDbLine
62
7
6
CONTINUOUS
10
17.4060000000
20
-8.6820000000
11
15.2060000000
21
-8.6820000000
0
LINE
5
257
100
AcDbEntity
8
0
100
AcDbLine
62
7
6
CONTINUOUS
10
27.9060000000
20
-8.6820000000
11
28.0624186221
21
-8.6820000000
0
LINE
5
258
100
AcDbEntity
8
0
100
AcDbLine
62
7
6
CONTINUOUS
10
28.2495483089
20
-8.6820000000
11
30.1060000000
21
-8.6820000000
0
LINE
5
259
100
AcDbEntity
8
0
100
AcDbLine
62
9
6
CONTINUOUS
10
14.9060000000
20
-8.9878535121
11
14.9060000000
21
-1.3832907745
0
LINE
5
25A
100
AcDbEntity
8
0
100
AcDbLine
62
7
6
CONTINUOUS
10
15.2060000000
20
-8.6820553678
11
15.2060000000
21
-1.6820000000
0
LINE
5
25B
100
AcDbEntity
8
0
100
AcDbLine
62
7
6
CONTINUOUS
10
19.2711277229
20
23.1680000000
11
19.2926556363
21
23.2680000000
0
LINE
5
25C
100
AcDbEntity
8
0
100
AcDbLine
62
7
6
CONTINUOUS
10
19.2711277229
20
-21.6320000000
11
19.2926556363
21
-21.7320000000
0
LWPOLYLINE
5
25D
100
AcDbEntity
8
0
100
AcDbPolyline
62
7
6
CONTINUOUS
90
11
70
0
10
17.0992793841
20
-5.1820000000
10
17.0989118380
20
-5.1456271093
10
17.0978452703
20
-5.1101617268
10
17.0960946134
20
-5.0749718177
10
17.0936234183
20
-5.0394184957
10
17.0903641865
20
-5.0030719976
10
17.0862425634
20
-4.9657533909
10
17.0811715353
20
-4.9273230253
10
17.0750152894
20
-4.8874461099
10
17.0675999236
20
-4.8457821099
10
17.0624524805
20
-4.8204203264
0
LWPOLYLINE
5
25E
100
AcDbEntity
8
0
100
AcDbPolyline
62
7
6
CONTINUOUS
90
11
70
0
10
17.2127206159
20
-5.1820000000
10
17.2130881618
20
-5.2183728811
10
17.2141547290
20
-5.2538382545
10
17.2159053850
20
-5.2890281546
10
17.2183765788
20
-5.3245814671
10
17.2216358087
20
-5.3609279552
10
17.2257574296
20
-5.3982465508
10
17.2308284546
20
-5.4366769041
10
17.2369846967
20
-5.4765538061
10
17.2444000576
20
-5.5182177913
10
17.2495475195
20
-5.5435796752
0
LINE
5
25F
100
AcDbEntity
8
0
100
AcDbLine
62
9
6
CONTINUOUS
10
16.6524019742
20
-1.6820000000
11
16.6524019742
21
-8.6820000000
0
LINE
5
260
100
AcDbEntity
8
0
100
AcDbLine
62
7
6
CONTINUOUS
10
17.0624524805
20
-8.6820000000
11
17.0624524805
21
-1.6820000000
0
LINE
5
261
100
AcDbEntity
8
0
100
AcDbLine
62
7
6
CONTINUOUS
10
17.2495475195
20
-1.6820000000
11
17.2495475195
21
-8.6820000000
0
LINE
5
262
100
AcDbEntity
8
0
100
AcDbLine
62
7
6
CONTINUOUS
10
17.4060000000
20
-1.6820000000
11
17.4060000000
21
-8.6820553905
0
LINE
5
263
100
AcDbEntity
8
0
100
AcDbLine
62
9
6
CONTINUOUS
10
17.7060000000
20
-1.3832907745
11
17.7060000000
21
-8.9878535121
0
LINE
5
264
100
AcDbEntity
8
0
100
AcDbLine
62
7
6
CONTINUOUS
10
19.1861797403
20
-21.6320000000
11
19.1861797403
21
-21.7320000000
0
LINE
5
265
100
AcDbEntity
8
0
100
AcDbLine
62
7
6
CONTINUOUS
10
19.1861797403
20
23.1680000000
11
19.1861797403
21
23.2680000000
0
LWPOLYLINE
5
266
100
AcDbEntity
8
0
100
AcDbPolyline
62
7
6
CONTINUOUS
90
11
70
0
10
17.0624524805
20
-5.5435570780
10
17.0675440467
20
-5.5185116386
10
17.0750694656
20
-5.4762270919
10
17.0813092358
20
-5.4357116539
10
17.0864122965
20
-5.3968393661
10
17.0905262061
20
-5.3592986804
10
17.0937586420
20
-5.3228694183
10
17.0961888781
20
-5.2874337240
10
17.0978947354
20
-5.2525890680
10
17.0989261421
20
-5.2176586040
10
17.0992793841
20
-5.1820000000
0
LWPOLYLINE
5
267
100
AcDbEntity
8
0
100
AcDbPolyline
62
7
6
CONTINUOUS
90
11
70
0
10
17.2495475195
20
-4.8204429205
10
17.2444559339
20
-4.8454884631
10
17.2369305201
20
-4.8877729944
10
17.2306907539
20
-4.9282884184
10
17.2255876963
20
-4.9671606933
10
17.2214737892
20
-5.0047013675
10
17.2182413551
20
-5.0411306191
10
17.2158111202
20
-5.0765663038
10
17.2141052639
20
-5.1114109506
10
17.2130738577
20
-5.1463414054
10
17.2127206159
20
-5.1820000000
0
LINE
5
268
100
AcDbEntity
8
0
100
AcDbLine
62
9
6
CONTINUOUS
10
11.6472780357
20
-20.7075923698
11
11.5060000000
21
-21.1317711479
0
LINE
5
269
100
AcDbEntity
8
0
100
AcDbLine
62
9
6
CONTINUOUS
10
11.5060000000
20
22.6677711479
11
11.6472780357
21
22.2435923698
0
LINE
5
26A
100
AcDbEntity
8
0
100
AcDbLine
62
9
6
CONTINUOUS
10
19.6560000000
20
6.7215721433
11
19.6560000000
21
9.7233732239
0
LINE
5
26B
100
AcDbEntity
8
0
100
AcDbLine
62
7
6
CONTINUOUS
10
19.9560000000
20
6.7180000000
11
19.9560000000
21
9.4180000000
0
LINE
5
26C
100
AcDbEntity
8
0
100
AcDbLine
62
3
6
CONTINUOUS
10
20.0560000000
20
9.4180000000
11
20.0560000000
21
5.9902818750
0
LINE
5
26D
100
AcDbEntity
8
0
100
AcDbLine
62
7
6
CONTINUOUS
10
20.5509747468
20
9.4180000000
11
20.5509747468
21
5.0275761095
0
LINE
5
26E
100
AcDbEntity
8
0
100
AcDbLine
62
9
6
CONTINUOUS
10
12.1472018833
20
-21.2069071372
11
12.0056194003
21
-21.6320000000
0
LINE
5
26F
100
AcDbEntity
8
0
100
AcDbLine
62
7
6
CONTINUOUS
10
15.2060000000
20
-1.6820000000
11
17.4060000000
21
-1.6820000000
0
LINE
5
270
100
AcDbEntity
8
0
100
AcDbLine
62
7
6
CONTINUOUS
10
27.9060000000
20
-1.6820000000
11
30.1060000000
21
-1.6820000000
0
LINE
5
271
100
AcDbEntity
8
0
100
AcDbLine
62
9
6
CONTINUOUS
10
14.9060000000
20
-1.3832907745
11
17.7060000000
21
-1.3832907745
0
LINE
5
272
100
AcDbEntity
8
0
100
AcDbLine
62
7
6
CONTINUOUS
10
27.9060000000
20
-0.8320000000
11
30.1060000000
21
-0.8320000000
0
LINE
5
273
100
AcDbEntity
8
0
100
AcDbLine
62
9
6
CONTINUOUS
10
12.0056194003
20
23.1680000000
11
12.1472018833
21
22.7429071372
0
LWPOLYLINE
5
274
100
AcDbEntity
8
0
100
AcDbPolyline
62
7
6
CONTINUOUS
90
11
70
0
10
22.5992793841
20
6.7180000000
10
22.5989118382
20
6.7543728811
10
22.5978452710
20
6.7898382545
10
22.5960946150
20
6.8250281546
10
22.5936234212
20
6.8605814671
10
22.5903641913
20
6.8969279552
10
22.5862425704
20
6.9342465508
10
22.5811715454
20
6.9726769041
10
22.5750153033
20
7.0125538061
10
22.5675999424
20
7.0542177913
10
22.5624524805
20
7.0795796752
0
LWPOLYLINE
5
275
100
AcDbEntity
8
0
100
AcDbPolyline
62
7
6
CONTINUOUS
90
11
70
0
10
22.7127206159
20
6.7180000000
10
22.7130881620
20
6.6816271093
10
22.7141547297
20
6.6461617268
10
22.7159053866
20
6.6109718177
10
22.7183765817
20
6.5754184957
10
22.7216358135
20
6.5390719976
10
22.7257574366
20
6.5017533909
10
22.7308284647
20
6.4633230253
10
22.7369847106
20
6.4234461099
10
22.7444000764
20
6.3817821099
10
22.7495475195
20
6.3564203264
0
LINE
5
276
100
AcDbEntity
8
0
100
AcDbLine
62
9
6
CONTINUOUS
10
22.1524019742
20
9.4180000000
11
22.1524019742
21
4.0669420203
0
LINE
5
277
100
AcDbEntity
8
0
100
AcDbLine
62
7
6
CONTINUOUS
10
22.5624524805
20
4.0206464413
11
22.5624524805
21
9.4180000000
0
LINE
5
278
100
AcDbEntity
8
0
100
AcDbLine
62
7
6
CONTINUOUS
10
22.7495475195
20
9.4180000000
11
22.7495475195
21
4.0206812518
0
LWPOLYLINE
5
279
100
AcDbEntity
8
0
100
AcDbPolyline
62
7
6
CONTINUOUS
90
11
70
0
10
22.5624524805
20
6.3564429205
10
22.5675440661
20
6.3814884631
10
22.5750694799
20
6.4237729944
10
22.5813092461
20
6.4642884184
10
22.5864123037
20
6.5031606933
10
22.5905262108
20
6.5407013675
10
22.5937586449
20
6.5771306191
10
22.5961888798
20
6.6125663038
10
22.5978947361
20
6.6474109506
10
22.5989261423
20
6.6823414054
10
22.5992793841
20
6.7180000000
0
LWPOLYLINE
5
27A
100
AcDbEntity
8
0
100
AcDbPolyline
62
7
6
CONTINUOUS
90
11
70
0
10
22.7495475195
20
7.0795570780
10
22.7444559533
20
7.0545116386
10
22.7369305344
20
7.0122270919
10
22.7306907642
20
6.9717116539
10
22.7255877035
20
6.9328393661
10
22.7214737939
20
6.8952986804
10
22.7182413580
20
6.8588694183
10
22.7158111219
20
6.8234337240
10
22.7141052646
20
6.7885890680
10
22.7130738579
20
6.7536586040
10
22.7127206159
20
6.7180000000
0
LINE
5
27B
100
AcDbEntity
8
0
100
AcDbLine
62
7
6
CONTINUOUS
10
26.0711277229
20
23.1680000000
11
26.0926556363
21
23.2680000000
0
LINE
5
27C
100
AcDbEntity
8
0
100
AcDbLine
62
9
6
CONTINUOUS
10
27.6060000000
20
-0.5327804683
11
30.4060000000
21
-0.5327804683
0
LINE
5
27D
100
AcDbEntity
8
0
100
AcDbLine
62
7
6
CONTINUOUS
10
26.0711277229
20
-21.6320000000
11
26.0926556363
21
-21.7320000000
0
LINE
5
27E
100
AcDbEntity
8
0
100
AcDbLine
62
9
6
CONTINUOUS
10
23.1595980258
20
4.0655089598
11
23.1595980258
21
9.4180000000
0
LINE
5
27F
100
AcDbEntity
8
0
100
AcDbLine
62
7
6
CONTINUOUS
10
19.2408722771
20
-21.6320000000
11
19.2193443637
21
-21.7320000000
0
LINE
5
280
100
AcDbEntity
8
0
100
AcDbLine
62
7
6
CONTINUOUS
10
19.2408722771
20
23.1680000000
11
19.2193443637
21
23.2680000000
0
LINE
5
281
100
AcDbEntity
8
0
100
AcDbLine
62
7
6
CONTINUOUS
10
24.7610252532
20
5.0281708878
11
24.7610252532
21
9.4180000000
0
LINE
5
282
100
AcDbEntity
8
0
100
AcDbLine
62
3
6
CONTINUOUS
10
25.2560000000
20
5.9902320385
11
25.2560000000
21
9.4180000000
0
LINE
5
283
100
AcDbEntity
8
0
100
AcDbLine
62
7
6
CONTINUOUS
10
25.3560000000
20
9.4180000000
11
25.3560000000
21
6.7180000000
0
LINE
5
284
100
AcDbEntity
8
0
100
AcDbLine
62
9
6
CONTINUOUS
10
25.6560000000
20
9.7233732239
11
25.6560000000
21
6.7215721433
0
LINE
5
285
100
AcDbEntity
8
0
100
AcDbLine
62
7
6
CONTINUOUS
10
26.1258202597
20
23.2680000000
11
26.1258202597
21
23.1680000000
0
LINE
5
286
100
AcDbEntity
8
0
100
AcDbLine
62
7
6
CONTINUOUS
10
26.1258202597
20
-21.7320000000
11
26.1258202597
21
-21.6320000000
0
LINE
5
287
100
AcDbEntity
8
0
100
AcDbLine
62
9
6
CONTINUOUS
10
33.3063805997
20
23.1680000000
11
33.1647981167
21
22.7429071372
0
LINE
5
288
100
AcDbEntity
8
0
100
AcDbLine
62
9
6
CONTINUOUS
10
33.8060000000
20
22.6677711479
11
33.6647219643
21
22.2435923698
0
LINE
5
289
100
AcDbEntity
8
0
100
AcDbLine
62
9
6
CONTINUOUS
10
33.1647981167
20
-21.2069071372
11
33.3063805997
21
-21.6320000000
0
LINE
5
28A
100
AcDbEntity
8
0
100
AcDbLine
62
9
6
CONTINUOUS
10
33.6647219643
20
-20.7075923698
11
33.8060000000
21
-21.1317711479
0
LWPOLYLINE
5
28B
100
AcDbEntity
8
0
100
AcDbPolyline
62
7
6
CONTINUOUS
90
11
70
0
10
28.0992793841
20
-5.1820000000
10
28.0989118380
20
-5.1456271093
10
28.0978452703
20
-5.1101617268
10
28.0960946134
20
-5.0749718177
10
28.0936234183
20
-5.0394184957
10
28.0903641865
20
-5.0030719976
10
28.0862425634
20
-4.9657533909
10
28.0811715353
20
-4.9273230253
10
28.0750152894
20
-4.8874461099
10
28.0675999236
20
-4.8457821099
10
28.0624524805
20
-4.8204203264
0
LINE
5
28C
100
AcDbEntity
8
0
100
AcDbLine
62
9
6
CONTINUOUS
10
27.6060000000
20
-9.8383638183
11
27.6060000000
21
-0.5327804683
0
LINE
5
28D
100
AcDbEntity
8
0
100
AcDbLine
62
7
6
CONTINUOUS
10
27.9060000000
20
-9.5320656078
11
27.9060000000
21
-0.8320000000
0
LINE
5
28E
100
AcDbEntity
8
0
100
AcDbLine
62
7
6
CONTINUOUS
10
28.0391774342
20
-9.5320000000
11
28.0391774342
21
-8.6820000000
0
LINE
5
28F
100
AcDbEntity
8
0
100
AcDbLine
62
7
6
CONTINUOUS
10
28.0624524805
20
-8.6820000000
11
28.0624524805
21
-1.6820000000
0
LWPOLYLINE
5
290
100
AcDbEntity
8
0
100
AcDbPolyline
62
7
6
CONTINUOUS
90
11
70
0
10
28.2127206159
20
-5.1820000000
10
28.2130881618
20
-5.2183728811
10
28.2141547290
20
-5.2538382545
10
28.2159053850
20
-5.2890281546
10
28.2183765788
20
-5.3245814671
10
28.2216358087
20
-5.3609279552
10
28.2257574296
20
-5.3982465508
10
28.2308284546
20
-5.4366769041
10
28.2369846967
20
-5.4765538061
10
28.2444000576
20
-5.5182177913
10
28.2495475195
20
-5.5435796752
0
LINE
5
291
100
AcDbEntity
8
0
100
AcDbLine
62
7
6
CONTINUOUS
10
28.2495475195
20
-1.6820000000
11
28.2495475195
21
-8.6820000000
0
LINE
5
292
100
AcDbEntity
8
0
100
AcDbLine
62
7
6
CONTINUOUS
10
28.2728225658
20
-8.6820000000
11
28.2728225658
21
-9.5320000000
0
LINE
5
293
100
AcDbEntity
8
0
100
AcDbLine
62
9
6
CONTINUOUS
10
28.6595980258
20
-8.6820000000
11
28.6595980258
21
-1.6820000000
0
LINE
5
294
100
AcDbEntity
8
0
100
AcDbLine
62
3
6
CONTINUOUS
10
28.9611850426
20
-8.6820000000
11
28.9611850426
21
-9.5320000000
0
LINE
5
295
100
AcDbEntity
8
0
100
AcDbLine
62
3
6
CONTINUOUS
10
29.6665194800
20
-8.6820000000
11
29.6665194800
21
-9.5320000000
0
LWPOLYLINE
5
296
100
AcDbEntity
8
0
100
AcDbPolyline
62
7
6
CONTINUOUS
90
11
70
0
10
28.0624524805
20
-5.5435570780
10
28.0675440467
20
-5.5185116386
10
28.0750694656
20
-5.4762270919
10
28.0813092358
20
-5.4357116539
10
28.0864122965
20
-5.3968393661
10
28.0905262061
20
-5.3592986804
10
28.0937586420
20
-5.3228694183
10
28.0961888781
20
-5.2874337240
10
28.0978947354
20
-5.2525890680
10
28.0989261421
20
-5.2176586040
10
28.0992793841
20
-5.1820000000
0
LWPOLYLINE
5
297
100
AcDbEntity
8
0
100
AcDbPolyline
62
7
6
CONTINUOUS
90
11
70
0
10
28.2495475195
20
-4.8204429205
10
28.2444559339
20
-4.8454884631
10
28.2369305201
20
-4.8877729944
10
28.2306907539
20
-4.9282884184
10
28.2255876963
20
-4.9671606933
10
28.2214737892
20
-5.0047013675
10
28.2182413551
20
-5.0411306191
10
28.2158111202
20
-5.0765663038
10
28.2141052639
20
-5.1114109506
10
28.2130738577
20
-5.1463414054
10
28.2127206159
20
-5.1820000000
0
LINE
5
298
100
AcDbEntity
8
0
100
AcDbLine
62
7
6
CONTINUOUS
10
30.1060000000
20
-0.8320000000
11
30.1060000000
21
-9.5320655731
0
LINE
5
299
100
AcDbEntity
8
0
100
AcDbLine
62
9
6
CONTINUOUS
10
30.4060000000
20
-0.5327804683
11
30.4060000000
21
-9.8383638183
0
LINE
5
29A
100
AcDbEntity
8
0
100
AcDbLine
62
7
6
CONTINUOUS
10
26.0408722771
20
-21.6320000000
11
26.0193443637
21
-21.7320000000
0
LINE
5
29B
100
AcDbEntity
8
0
100
AcDbLine
62
7
6
CONTINUOUS
10
19.9560000000
20
9.4180000000
11
25.3560000000
21
9.4180000000
0
LINE
5
29C
100
AcDbEntity
8
0
100
AcDbLine
62
7
6
CONTINUOUS
10
26.0408722771
20
23.1680000000
11
26.0193443637
21
23.2680000000
0
LINE
5
29D
100
AcDbEntity
8
0
100
AcDbLine
62
9
6
CONTINUOUS
10
19.6560000000
20
9.7233732239
11
25.6560000000
21
9.7233732239
0
LINE
5
29E
100
AcDbEntity
8
0
100
AcDbLine
62
7
6
CONTINUOUS
10
33.8060000000
20
22.6677711479
11
33.8060000000
21
-21.1317711479
0
LINE
5
29F
100
AcDbEntity
8
0
100
AcDbLine
62
7
6
CONTINUOUS
10
25.8893672024
20
-21.7320000000
11
25.9560000000
21
-21.6320000000
0
LINE
5
2A0
100
AcDbEntity
8
0
100
AcDbLine
62
7
6
CONTINUOUS
10
25.9560000000
20
23.1680000000
11
25.8893672024
21
23.2680000000
0
LINE
5
2A1
100
AcDbEntity
8
0
100
AcDbLine
62
9
6
CONTINUOUS
10
12.1554649375
20
21.7863142309
11
33.1565350625
21
21.7863142309
0
LINE
5
2A2
100
AcDbEntity
8
0
100
AcDbLine
62
9
6
CONTINUOUS
10
12.1472018833
20
22.7429071372
11
33.1647981167
21
22.7429071372
0
LINE
5
2A3
100
AcDbEntity
8
0
100
AcDbLine
62
7
6
CONTINUOUS
10
12.0056194003
20
23.1680000000
11
19.3560000000
21
23.1680000000
0
LINE
5
2A4
100
AcDbEntity
8
0
100
AcDbLine
62
7
6
CONTINUOUS
10
25.9560000000
20
23.1680000000
11
33.3063805997
21
23.1680000000
0
LINE
5
2A5
100
AcDbEntity
8
0
100
AcDbLine
62
7
6
CONTINUOUS
10
19.1861797403
20
23.2680000000
11
26.1258202597
21
23.2680000000
0
LINE
5
2A6
100
AcDbEntity
8
0
100
AcDbLine
62
7
6
CONTINUOUS
10
26.3308574782
20
24.2680000000
11
18.9811425218
21
24.2680000000
0
LINE
5
2A7
100
AcDbEntity
8
0
100
AcDbLine
62
7
6
CONTINUOUS
10
-18.3936525987
20
-22.6621797403
11
-22.3936525987
21
-22.7320000000
0
LINE
5
2A8
100
AcDbEntity
8
0
100
AcDbLine
62
7
6
CONTINUOUS
10
-16.2441571148
20
-21.4320000000
11
-16.7936525987
21
-21.4320000000
0
LINE
5
2A9
100
AcDbEntity
8
0
100
AcDbLine
62
7
6
CONTINUOUS
10
-30.5049076186
20
-21.2069071372
11
-22.3936525987
21
-21.6320000000
0
LINE
5
2AA
100
AcDbEntity
8
0
100
AcDbLine
62
9
6
CONTINUOUS
10
-30.4874658437
20
-20.7075923698
11
-22.3936525987
21
-21.1317711479
0
LINE
5
2AB
100
AcDbEntity
8
0
100
AcDbLine
62
9
6
CONTINUOUS
10
-30.9608559007
20
-20.2292959167
11
-31.4516749577
21
-20.2503136971
0
LINE
5
2AC
100
AcDbEntity
8
0
100
AcDbLine
62
7
6
CONTINUOUS
10
-14.4227978007
20
-20.3626884717
11
-18.1971430800
21
-20.4285699136
0
LINE
5
2AD
100
AcDbEntity
8
0
100
AcDbLine
62
7
6
CONTINUOUS
10
-11.9023788019
20
-15.1234247840
11
2.1150736045
21
-14.8787492421
0
LINE
5
2AE
100
AcDbEntity
8
0
100
AcDbLine
62
7
6
CONTINUOUS
10
2.7958802847
20
-12.6720670025
11
4.3220484636
21
-12.5920839174
0
LINE
5
2AF
100
AcDbEntity
8
0
100
AcDbLine
62
9
6
CONTINUOUS
10
-11.9023788019
20
-14.6235009364
11
2.1150736045
21
-14.3788253945
0
LINE
5
2B0
100
AcDbEntity
8
0
100
AcDbLine
62
9
6
CONTINUOUS
10
2.1150736045
20
-14.3788253945
11
2.6063474013
21
-14.3788253945
0
LINE
5
2B1
100
AcDbEntity
8
0
100
AcDbLine
62
9
6
CONTINUOUS
10
2.4720419513
20
-9.9320000000
11
4.6063474013
21
-9.9320000000
0
LINE
5
2B2
100
AcDbEntity
8
0
100
AcDbLine
62
7
6
CONTINUOUS
10
-22.3936525987
20
24.2680000000
11
-22.3936525987
21
-22.7320000000
0
LINE
5
2B3
100
AcDbEntity
8
0
100
AcDbLine
62
9
6
CONTINUOUS
10
2.4720419513
20
-7.8320000000
11
4.6063474013
21
-7.8320000000
0
LINE
5
2B4
100
AcDbEntity
8
0
100
AcDbLine
62
7
6
CONTINUOUS
10
-18.3936525987
20
-20.6285394526
11
-18.3936525987
21
-22.6621797403
0
LINE
5
2B5
100
AcDbEntity
8
0
100
AcDbLine
62
7
6
CONTINUOUS
10
-18.3936525987
20
22.1645394526
11
-18.3936525987
21
24.1981797403
0
LINE
5
2B6
100
AcDbEntity
8
0
100
AcDbLine
62
7
6
CONTINUOUS
10
2.6063474013
20
-4.1448570000
11
2.7563474013
21
-4.1448570000
0
LINE
5
2B7
100
AcDbEntity
8
0
100
AcDbLine
62
7
6
CONTINUOUS
10
2.6063474013
20
-4.1320000000
11
2.8063474013
21
-4.1320000000
0
LINE
5
2B8
100
AcDbEntity
8
0
100
AcDbLine
62
7
6
CONTINUOUS
10
2.7958803693
20
-5.0919330020
11
4.3220485082
21
-5.1719160849
0
LINE
5
2B9
100
AcDbEntity
8
0
100
AcDbLine
62
7
6
CONTINUOUS
10
-16.7936525987
20
22.9680000000
11
-16.7936525987
21
21.9400718961
0
LINE
5
2BA
100
AcDbEntity
8
0
100
AcDbLine
62
7
6
CONTINUOUS
10
-16.7936525987
20
-21.4320000000
11
-16.7936525987
21
-20.4040718961
0
LINE
5
2BB
100
AcDbEntity
8
0
100
AcDbLine
62
7
6
CONTINUOUS
10
2.6063474013
20
-2.3314590000
11
2.8063474013
21
-2.3314590000
0
LINE
5
2BC
100
AcDbEntity
8
0
100
AcDbLine
62
7
6
CONTINUOUS
10
2.6063474013
20
-1.7879330000
11
2.7563474013
21
-1.7879330000
0
LINE
5
2BD
100
AcDbEntity
8
0
100
AcDbLine
62
7
6
CONTINUOUS
10
2.6063474013
20
-1.5996110000
11
2.7563474013
21
-1.5996110000
0
LINE
5
2BE
100
AcDbEntity
8
0
100
AcDbLine
62
7
6
CONTINUOUS
10
2.6063474013
20
-1.0537130537
11
2.7563474013
21
-1.0537130000
0
LINE
5
2BF
100
AcDbEntity
8
0
100
AcDbLine
62
7
6
CONTINUOUS
10
2.6063474013
20
-0.8730489934
11
2.7563474013
21
-0.8730490000
0
LINE
5
2C0
100
AcDbEntity
8
0
100
AcDbLine
62
7
6
CONTINUOUS
10
2.6063474013
20
-0.6728540000
11
2.7563474013
21
-0.6728540000
0
LINE
5
2C1
100
AcDbEntity
8
0
100
AcDbLine
62
7
6
CONTINUOUS
10
2.6063474013
20
-0.5170777935
11
2.7563474013
21
-0.5170777935
0
LINE
5
2C2
100
AcDbEntity
8
0
100
AcDbLine
62
7
6
CONTINUOUS
10
2.6063474013
20
-0.4726580000
11
2.7563474013
21
-0.4726580000
0
LINE
5
2C3
100
AcDbEntity
8
0
100
AcDbLine
62
7
6
CONTINUOUS
10
2.6063474013
20
0.4736307849
11
2.7563474013
21
0.4736310000
0
LINE
5
2C4
100
AcDbEntity
8
0
100
AcDbLine
62
7
6
CONTINUOUS
10
2.6063474013
20
0.9013650000
11
2.7563474013
21
0.9013650000
0
LINE
5
2C5
100
AcDbEntity
8
0
100
AcDbLine
62
9
6
CONTINUOUS
10
-12.8849263955
20
-18.6737252764
11
-12.8849263955
21
-16.5371597608
0
LINE
5
2C6
100
AcDbEntity
8
0
100
AcDbLine
62
9
6
CONTINUOUS
10
-12.8849263955
20
18.0731597608
11
-12.8849263955
21
20.2099576861
0
LINE
5
2C7
100
AcDbEntity
8
0
100
AcDbLine
62
7
6
CONTINUOUS
10
-12.3936525987
20
-18.3248932188
11
-12.3936525987
21
-15.6233486316
0
LINE
5
2C8
100
AcDbEntity
8
0
100
AcDbLine
62
7
6
CONTINUOUS
10
-12.3936525987
20
17.1593486316
11
-12.3936525987
21
19.8608932188
0
LINE
5
2C9
100
AcDbEntity
8
0
100
AcDbLine
62
7
6
CONTINUOUS
10
2.6063474013
20
1.0771460000
11
2.7563474013
21
1.0771460000
0
LINE
5
2CA
100
AcDbEntity
8
0
100
AcDbLine
62
7
6
CONTINUOUS
10
2.6063474013
20
1.4287090000
11
2.7563474013
21
1.4287090000
0
LINE
5
2CB
100
AcDbEntity
8
0
100
AcDbLine
62
7
6
CONTINUOUS
10
2.6063474013
20
1.4411959435
11
2.7563474013
21
1.4411959435
0
LINE
5
2CC
100
AcDbEntity
8
0
100
AcDbLine
62
7
6
CONTINUOUS
10
2.6063474013
20
1.5671351084
11
2.7563474013
21
1.5671351084
0
LINE
5
2CD
100
AcDbEntity
8
0
100
AcDbLine
62
7
6
CONTINUOUS
10
2.6063474013
20
1.9811976084
11
2.7563474013
21
1.9811976084
0
LINE
5
2CE
100
AcDbEntity
8
0
100
AcDbLine
62
7
6
CONTINUOUS
10
2.6063474013
20
2.1227991709
11
2.7563474013
21
2.1227991709
0
LINE
5
2CF
100
AcDbEntity
8
0
100
AcDbLine
62
7
6
CONTINUOUS
10
2.6063474013
20
2.4041725255
11
2.7563474013
21
2.4041725255
0
LINE
5
2D0
100
AcDbEntity
8
0
100
AcDbLine
62
7
6
CONTINUOUS
10
2.6063474013
20
2.6199928380
11
2.7563474013
21
2.6199928380
0
LINE
5
2D1
100
AcDbEntity
8
0
100
AcDbLine
62
7
6
CONTINUOUS
10
2.6063474013
20
2.7869850255
11
2.7563474013
21
2.7869850255
0
LINE
5
2D2
100
AcDbEntity
8
0
100
AcDbLine
62
7
6
CONTINUOUS
10
2.6063474013
20
3.3856178380
11
2.7563474013
21
3.3856178380
0
LINE
5
2D3
100
AcDbEntity
8
0
100
AcDbLine
62
7
6
CONTINUOUS
10
2.6063474013
20
3.5428444005
11
2.7563474013
21
3.5428444005
0
LINE
5
2D4
100
AcDbEntity
8
0
100
AcDbLine
62
7
6
CONTINUOUS
10
2.6063474013
20
3.7440162755
11
2.7563474013
21
3.7440162755
0
LINE
5
2D5
100
AcDbEntity
8
0
100
AcDbLine
62
7
6
CONTINUOUS
10
2.6063474013
20
3.7843215779
11
2.7563474013
21
3.7843215779
0
LINE
5
2D6
100
AcDbEntity
8
0
100
AcDbLine
62
7
6
CONTINUOUS
10
2.6063474013
20
3.7953408065
11
2.7563474013
21
3.7953408065
0
LINE
5
2D7
100
AcDbEntity
8
0
100
AcDbLine
62
7
6
CONTINUOUS
10
2.6063474013
20
4.7445597131
11
2.7563474013
21
4.7445600000
0
LINE
5
2D8
100
AcDbEntity
8
0
100
AcDbLine
62
7
6
CONTINUOUS
10
2.7958803545
20
6.6279330012
11
4.3220484636
21
6.7079160826
0
LINE
5
2D9
100
AcDbEntity
8
0
100
AcDbLine
62
7
6
CONTINUOUS
10
2.6063474013
20
5.1947550000
11
2.7563474013
21
5.1947550000
0
LINE
5
2DA
100
AcDbEntity
8
0
100
AcDbLine
62
7
6
CONTINUOUS
10
2.6063474013
20
5.3705360000
11
2.7563474013
21
5.3705360000
0
LINE
5
2DB
100
AcDbEntity
8
0
100
AcDbLine
62
7
6
CONTINUOUS
10
2.6063474013
20
5.7220990000
11
2.7563474013
21
5.7220990000
0
LINE
5
2DC
100
AcDbEntity
8
0
100
AcDbLine
62
9
6
CONTINUOUS
10
2.6063474013
20
9.3680000000
11
4.6063474013
21
9.3680000000
0
LINE
5
2DD
100
AcDbEntity
8
0
100
AcDbLine
62
9
6
CONTINUOUS
10
2.6063474013
20
11.4354833705
11
4.6063474013
21
11.4354833705
0
LINE
5
2DE
100
AcDbEntity
8
0
100
AcDbLine
62
7
6
CONTINUOUS
10
2.6063474013
20
11.8684289860
11
2.8063474013
21
11.8684289860
0
LINE
5
2DF
100
AcDbEntity
8
0
100
AcDbLine
62
7
6
CONTINUOUS
10
2.6063474013
20
12.3852449644
11
2.8063474013
21
12.3852450000
0
LINE
5
2E0
100
AcDbEntity
8
0
100
AcDbLine
62
7
6
CONTINUOUS
10
2.6063474013
20
12.4422549797
11
2.8063474013
21
12.4422550000
0
LINE
5
2E1
100
AcDbEntity
8
0
100
AcDbLine
62
7
6
CONTINUOUS
10
2.6063474013
20
12.7514020000
11
2.8063474013
21
12.7514020000
0
LINE
5
2E2
100
AcDbEntity
8
0
100
AcDbLine
62
7
6
CONTINUOUS
10
2.6063474013
20
13.3967564615
11
2.8063474013
21
13.3967570000
0
LINE
5
2E3
100
AcDbEntity
8
0
100
AcDbLine
62
7
6
CONTINUOUS
10
2.8063474013
20
13.6684289863
11
2.6063474013
21
13.6684289863
0
LINE
5
2E4
100
AcDbEntity
8
0
100
AcDbLine
62
7
6
CONTINUOUS
10
2.6063474013
20
14.7150000000
11
2.8063474013
21
14.7150000000
0
LINE
5
2E5
100
AcDbEntity
8
0
100
AcDbLine
62
7
6
CONTINUOUS
10
2.6063474013
20
14.8480000000
11
2.8063474013
21
14.8480000000
0
LINE
5
2E6
100
AcDbEntity
8
0
100
AcDbLine
62
9
6
CONTINUOUS
10
2.1150736045
20
-14.3788253945
11
2.1150736045
21
15.9148253945
0
LINE
5
2E7
100
AcDbEntity
8
0
100
AcDbLine
62
9
6
CONTINUOUS
10
2.4720419513
20
-7.8320000000
11
2.4720419513
21
-9.9320000000
0
LINE
5
2E8
100
AcDbEntity
8
0
100
AcDbLine
62
7
6
CONTINUOUS
10
-12.5400992081
20
-18.6784466094
11
-14.7497231003
21
-20.8880705017
0
LINE
5
2E9
100
AcDbEntity
8
0
100
AcDbLine
62
7
6
CONTINUOUS
10
2.6063474013
20
14.9792480000
11
2.8063474013
21
14.9792480000
0
LINE
5
2EA
100
AcDbEntity
8
0
100
AcDbLine
62
7
6
CONTINUOUS
10
2.6063474013
20
15.6374620000
11
2.8063474013
21
15.6374620000
0
LINE
5
2EB
100
AcDbEntity
8
0
100
AcDbLine
62
9
6
CONTINUOUS
10
2.1150736045
20
15.9148253945
11
2.6063474013
21
15.9148253945
0
LINE
5
2EC
100
AcDbEntity
8
0
100
AcDbLine
62
9
6
CONTINUOUS
10
2.1150736045
20
15.9148253945
11
-11.9023788019
21
16.1595009364
0
LINE
5
2ED
100
AcDbEntity
8
0
100
AcDbLine
62
7
6
CONTINUOUS
10
2.1150736045
20
16.4147492421
11
-11.9023788019
21
16.6594247840
0
LINE
5
2EE
100
AcDbEntity
8
0
100
AcDbLine
62
7
6
CONTINUOUS
10
2.7958802233
20
14.1755503762
11
4.3220485083
21
14.0955672856
0
LINE
5
2EF
100
AcDbEntity
8
0
100
AcDbLine
62
7
6
CONTINUOUS
10
-14.7497231003
20
22.4240705017
11
-12.5400992081
21
20.2144466094
0
LINE
5
2F0
100
AcDbEntity
8
0
100
AcDbLine
62
7
6
CONTINUOUS
10
2.6063474013
20
-14.3788253945
11
2.6063474013
21
-11.5226728002
0
LINE
5
2F1
100
AcDbEntity
8
0
100
AcDbLine
62
7
6
CONTINUOUS
10
2.6063474013
20
-6.2413271998
11
2.6063474013
21
15.9148253945
0
LINE
5
2F2
100
AcDbEntity
8
0
100
AcDbLine
62
9
6
CONTINUOUS
10
2.6078525800
20
-7.8320000000
11
2.6078525800
21
-9.9320000000
0
LINE
5
2F3
100
AcDbEntity
8
0
100
AcDbLine
62
7
6
CONTINUOUS
10
2.7563474013
20
5.7220990000
11
2.7563474013
21
5.1947550000
0
LINE
5
2F4
100
AcDbEntity
8
0
100
AcDbLine
62
7
6
CONTINUOUS
10
2.7563474013
20
4.7445596043
11
2.7563474013
21
1.4412966209
0
LINE
5
2F5
100
AcDbEntity
8
0
100
AcDbLine
62
7
6
CONTINUOUS
10
2.7563474013
20
1.4287090000
11
2.7563474013
21
-2.3314590000
0
LINE
5
2F6
100
AcDbEntity
8
0
100
AcDbLine
62
7
6
CONTINUOUS
10
2.7563474013
20
-4.1320000000
11
2.7563474013
21
-4.1448570000
0
LINE
5
2F7
100
AcDbEntity
8
0
100
AcDbLine
62
9
6
CONTINUOUS
10
2.7958802101
20
-11.4146044508
11
2.7958802768
21
-12.6720661724
0
LINE
5
2F8
100
AcDbEntity
8
0
100
AcDbLine
62
9
6
CONTINUOUS
10
2.7958803585
20
-5.0919335352
11
2.7958802101
21
-6.3493955492
0
LINE
5
2F9
100
AcDbEntity
8
0
100
AcDbLine
62
9
6
CONTINUOUS
10
2.7958802106
20
14.1755503769
11
2.7958803054
21
13.6684289863
0
LINE
5
2FA
100
AcDbEntity
8
0
100
AcDbLine
62
9
6
CONTINUOUS
10
2.7958800098
20
11.8684289885
11
2.7958803410
21
6.6279330005
0
LINE
5
2FB
100
AcDbEntity
8
0
100
AcDbLine
62
7
6
CONTINUOUS
10
2.8063474013
20
15.6374620000
11
2.8063474013
21
14.1750018146
0
LINE
5
2FC
100
AcDbEntity
8
0
100
AcDbLine
62
7
6
CONTINUOUS
10
2.8063474013
20
13.6681884791
11
2.8063474013
21
12.7514020000
0
LINE
5
2FD
100
AcDbEntity
8
0
100
AcDbLine
62
7
6
CONTINUOUS
10
2.8063474013
20
12.7348242910
11
2.8063474013
21
11.8680990810
0
LINE
5
2FE
100
AcDbEntity
8
0
100
AcDbLine
62
7
6
CONTINUOUS
10
2.8063474013
20
-2.3314590000
11
2.8063474013
21
-4.1320000000
0
LINE
5
2FF
100
AcDbEntity
8
0
100
AcDbLine
62
9
6
CONTINUOUS
10
4.3220485072
20
14.0955649342
11
4.3220484598
21
6.7079208487
0
LINE
5
300
100
AcDbEntity
8
0
100
AcDbLine
62
9
6
CONTINUOUS
10
4.3220485071
20
-5.1719184384
11
4.3220484599
21
-12.5920791516
0
LINE
5
301
100
AcDbEntity
8
0
100
AcDbLine
62
7
6
CONTINUOUS
10
4.6063474013
20
13.7963366758
11
4.6063474013
21
7.0075049286
0
LINE
5
302
100
AcDbEntity
8
0
100
AcDbLine
62
7
6
CONTINUOUS
10
4.6063474013
20
-5.4711466947
11
4.6063474013
21
-12.2924950714
0
LINE
5
303
100
AcDbEntity
8
0
100
AcDbLine
62
7
6
CONTINUOUS
10
-14.7497231003
20
-20.8880705017
11
-16.2441571148
21
-21.4320000000
0
LINE
5
304
100
AcDbEntity
8
0
100
AcDbLine
62
7
6
CONTINUOUS
10
-14.7497231003
20
22.4240705017
11
-16.2441571148
21
22.9680000000
0
LINE
5
305
100
AcDbEntity
8
0
100
AcDbLine
62
7
6
CONTINUOUS
10
-18.1971430800
20
21.9645699136
11
-14.4227978007
21
21.8986884717
0
LINE
5
306
100
AcDbEntity
8
0
100
AcDbLine
62
9
6
CONTINUOUS
10
-30.9608559007
20
21.7652959167
11
-31.4516877180
21
21.7863142303
0
LINE
5
307
100
AcDbEntity
8
0
100
AcDbLine
62
9
6
CONTINUOUS
10
-22.3936525987
20
22.6677711479
11
-30.4874658437
21
22.2435923698
0
LINE
5
308
100
AcDbEntity
8
0
100
AcDbLine
62
7
6
CONTINUOUS
10
-22.3936525987
20
23.1680000000
11
-30.5049076186
21
22.7429071372
0
LINE
5
309
100
AcDbEntity
8
0
100
AcDbLine
62
7
6
CONTINUOUS
10
-16.2441571148
20
22.9680000000
11
-16.7936525987
21
22.9680000000
0
LINE
5
30A
100
AcDbEntity
8
0
100
AcDbLine
62
7
6
CONTINUOUS
10
-18.3936525987
20
24.1981797403
11
-22.3936525987
21
24.2680000000
0
ARC
5
30B
100
AcDbEntity
8
0
100
AcDbCircle
62
7
6
CONTINUOUS
10
33.9060000000
20
0.7680000000
40
28.0000000000
100
AcDbArc
50
125.9627651514
51
126.8614108051
0
ARC
5
30C
100
AcDbEntity
8
0
100
AcDbCircle
62
7
6
CONTINUOUS
10
33.9060000000
20
0.7680000000
40
28.0000000000
100
AcDbArc
50
123.5572123136
51
124.1210936517
0
ARC
5
30D
100
AcDbEntity
8
0
100
AcDbCircle
62
7
6
CONTINUOUS
10
11.4060000000
20
0.7680000000
40
28.0000000000
100
AcDbArc
50
55.8789063483
51
56.4427876864
0
ARC
5
30E
100
AcDbEntity
8
0
100
AcDbCircle
62
7
6
CONTINUOUS
10
11.4060000000
20
0.7680000000
40
28.0000000000
100
AcDbArc
50
53.1385891949
51
54.0372348486
0
ARC
5
30F
100
AcDbEntity
8
0
100
AcDbCircle
62
7
6
CONTINUOUS
10
11.4060000000
20
0.7680000000
40
28.0000000000
100
AcDbArc
50
305.9627651514
51
306.8614108051
0
ARC
5
310
100
AcDbEntity
8
0
100
AcDbCircle
62
7
6
CONTINUOUS
10
11.4060000000
20
0.7680000000
40
28.0000000000
100
AcDbArc
50
303.5572123136
51
304.1210936517
0
ARC
5
311
100
AcDbEntity
8
0
100
AcDbCircle
62
7
6
CONTINUOUS
10
33.9060000000
20
0.7680000000
40
28.0000000000
100
AcDbArc
50
235.8789063483
51
236.4427876864
0
ARC
5
312
100
AcDbEntity
8
0
100
AcDbCircle
62
7
6
CONTINUOUS
10
33.9060000000
20
0.7680000000
40
28.0000000000
100
AcDbArc
50
233.1385891949
51
234.0372348486
0
ARC
5
313
100
AcDbEntity
8
0
100
AcDbCircle
62
7
6
CONTINUOUS
10
17.7060000000
20
-22.3320000000
40
0.5000000000
100
AcDbArc
50
350.8037184210
51
119.1124227760
0
ARC
5
314
100
AcDbEntity
8
0
100
AcDbCircle
62
7
6
CONTINUOUS
10
27.6060000000
20
-22.3320000000
40
0.5000000000
100
AcDbArc
50
60.8875772240
51
189.1962815790
0
ARC
5
315
100
AcDbEntity
8
0
100
AcDbCircle
62
7
6
CONTINUOUS
10
17.7060000000
20
23.8680000000
40
0.5000000000
100
AcDbArc
50
240.8875772240
51
9.1962815790
0
ARC
5
316
100
AcDbEntity
8
0
100
AcDbCircle
62
7
6
CONTINUOUS
10
27.6060000000
20
23.8680000000
40
0.5000000000
100
AcDbArc
50
170.8037184210
51
299.1124227760
0
ARC
5
317
100
AcDbEntity
8
0
100
AcDbCircle
62
7
6
CONTINUOUS
10
22.6560000000
20
6.7180000000
40
2.7000000000
100
AcDbArc
50
180.0000000000
51
360.0000000000
0
ARC
5
318
100
AcDbEntity
8
0
100
AcDbCircle
62
7
6
CONTINUOUS
10
-30.4525716624
20
21.7442776025
40
1.0000000000
100
AcDbArc
50
93.0000000000
51
177.5907686986
0
ARC
5
319
100
AcDbEntity
8
0
100
AcDbCircle
62
7
6
CONTINUOUS
10
468.1063474013
20
0.7680000000
40
500.0000000000
100
AcDbArc
50
177.5907686986
51
182.4092313014
0
ARC
5
31A
100
AcDbEntity
8
0
100
AcDbCircle
62
7
6
CONTINUOUS
10
-30.4525716624
20
-20.2082776025
40
1.0000000000
100
AcDbArc
50
182.4092313014
51
267.0000000000
0
ARC
5
31B
100
AcDbEntity
8
0
100
AcDbCircle
62
7
6
CONTINUOUS
10
2.8063474013
20
6.4282070867
40
0.2000000000
100
AcDbArc
50
92.9999585593
51
179.9992241803
0
ARC
5
31C
100
AcDbEntity
8
0
100
AcDbCircle
62
7
6
CONTINUOUS
10
2.8063474013
20
14.3752762838
40
0.2000000000
100
AcDbArc
50
180.0000688952
51
267.0000038059
0
ARC
5
31D
100
AcDbEntity
8
0
100
AcDbCircle
62
7
6
CONTINUOUS
10
2.8063474013
20
-12.8717929133
40
0.2000000000
100
AcDbArc
50
92.9999785877
51
179.9995765310
0
ARC
5
31E
100
AcDbEntity
8
0
100
AcDbCircle
62
7
6
CONTINUOUS
10
2.8063474013
20
-4.8922070867
40
0.2000000000
100
AcDbArc
50
180.0008861905
51
267.0000456789
0
ARC
5
31F
100
AcDbEntity
8
0
100
AcDbCircle
62
7
6
CONTINUOUS
10
4.3063474013
20
7.0075049286
40
0.3000000000
100
AcDbArc
50
273.0000526623
51
360.0000000000
0
ARC
5
320
100
AcDbEntity
8
0
100
AcDbCircle
62
7
6
CONTINUOUS
10
4.3063474013
20
13.7959784419
40
0.3000000000
100
AcDbArc
50
0.0000000000
51
86.9999387780
0
ARC
5
321
100
AcDbEntity
8
0
100
AcDbCircle
62
7
6
CONTINUOUS
10
4.3063474013
20
-12.2924950714
40
0.3000000000
100
AcDbArc
50
273.0000526752
51
360.0000000000
0
ARC
5
322
100
AcDbEntity
8
0
100
AcDbCircle
62
7
6
CONTINUOUS
10
4.3063474013
20
-5.4715049286
40
0.3000000000
100
AcDbArc
50
0.0000000000
51
86.9999387960
0
ARC
5
323
100
AcDbEntity
8
0
100
AcDbCircle
62
7
6
CONTINUOUS
10
-18.1936525987
20
22.1645394526
40
0.2000000000
100
AcDbArc
50
180.0000000000
51
269.0000000000
0
ARC
5
324
100
AcDbEntity
8
0
100
AcDbCircle
62
7
6
CONTINUOUS
10
-18.1936525987
20
-20.6285394526
40
0.2000000000
100
AcDbArc
50
91.0000000000
51
180.0000000000
0
ARC
5
325
100
AcDbEntity
8
0
100
AcDbCircle
62
7
6
CONTINUOUS
10
-12.8936525987
20
-18.3248932188
40
0.5000000000
100
AcDbArc
50
315.0000000000
51
360.0000000000
0
ARC
5
326
100
AcDbEntity
8
0
100
AcDbCircle
62
7
6
CONTINUOUS
10
-14.4315240040
20
21.3987646241
40
0.5000000000
100
AcDbArc
50
45.0000000000
51
89.0000000000
0
ARC
5
327
100
AcDbEntity
8
0
100
AcDbCircle
62
7
6
CONTINUOUS
10
-12.8936525987
20
19.8608932188
40
0.5000000000
100
AcDbArc
50
0.0000000000
51
45.0000000000
0
ARC
5
328
100
AcDbEntity
8
0
100
AcDbCircle
62
7
6
CONTINUOUS
10
-14.4315240040
20
-19.8627646241
40
0.5000000000
100
AcDbArc
50
271.0000000000
51
315.0000000000
0
ARC
5
329
100
AcDbEntity
8
0
100
AcDbCircle
62
7
6
CONTINUOUS
10
-11.8936525987
20
-15.6233486316
40
0.5000000000
100
AcDbArc
50
91.0000000000
51
180.0000000000
0
ARC
5
32A
100
AcDbEntity
8
0
100
AcDbCircle
62
7
6
CONTINUOUS
10
-11.8936525987
20
17.1593486316
40
0.5000000000
100
AcDbArc
50
180.0000000000
51
269.0000000000
0
ARC
5
32B
100
AcDbEntity
8
0
100
AcDbCircle
62
7
6
CONTINUOUS
10
2.1063474013
20
15.9148253945
40
0.5000000000
100
AcDbArc
50
0.0000000000
51
89.0000000000
0
ARC
5
32C
100
AcDbEntity
8
0
100
AcDbCircle
62
7
6
CONTINUOUS
10
2.1063474013
20
-14.3788253945
40
0.5000000000
100
AcDbArc
50
271.0000000000
51
360.0000000000
0
SPLINE
5
32D
100
AcDbEntity
8
0
100
AcDbSpline
62
7
6
CONTINUOUS
70
0
71
3
72
10
73
6
74
4
42
0.0000001000
43
0.0000001000
44
0.0000000001
12
0.4872215529
22
-0.3231850228
32
0.0000000000
13
0.5846652038
23
-0.0000000000
33
0.0000000000
40
0.0000000000
40
0.0000000000
40
0.0000000000
40
0.0000000000
40
0.3333348274
40
0.6666651726
40
1.0000000000
40
1.0000000000
40
1.0000000000
40
1.0000000000
10
18.4284573302
20
-22.5653596575
30
0.0000000000
10
18.4825933010
20
-22.6012692654
30
0.0000000000
10
18.5982189252
20
-22.6626658790
30
0.0000000000
10
18.7858864665
20
-22.7192495977
30
0.0000000000
10
18.9161794302
20
-22.7320000000
30
0.0000000000
10
18.9811425218
20
-22.7320000000
30
0.0000000000
11
18.4284573302
21
-22.5653596575
31
0.0000000000
11
18.6005911819
21
-22.6567476575
31
0.0000000000
11
18.7871809954
21
-22.7130064299
31
0.0000000000
11
18.9811425218
21
-22.7320000000
31
0.0000000000
0
SPLINE
5
32E
100
AcDbEntity
8
0
100
AcDbSpline
62
7
6
CONTINUOUS
70
0
71
3
72
10
73
6
74
4
42
0.0000001000
43
0.0000001000
44
0.0000000001
12
0.5846652038
22
0.0000000000
32
0.0000000000
13
0.4872215529
23
0.3231850228
33
0.0000000000
40
0.0000000000
40
0.0000000000
40
0.0000000000
40
0.0000000000
40
0.3333348274
40
0.6666651726
40
1.0000000000
40
1.0000000000
40
1.0000000000
40
1.0000000000
10
26.3308574782
20
-22.7320000000
30
0.0000000000
10
26.3958205698
20
-22.7320000000
30
0.0000000000
10
26.5261135335
20
-22.7192495977
30
0.0000000000
10
26.7137810748
20
-22.6626658790
30
0.0000000000
10
26.8294066990
20
-22.6012692654
30
0.0000000000
10
26.8835426698
20
-22.5653596575
30
0.0000000000
11
26.3308574782
21
-22.7320000000
31
0.0000000000
11
26.5248190046
21
-22.7130064299
31
0.0000000000
11
26.7114088181
21
-22.6567476575
31
0.0000000000
11
26.8835426698
21
-22.5653596575
31
0.0000000000
0
SPLINE
5
32F
100
AcDbEntity
8
0
100
AcDbSpline
62
7
6
CONTINUOUS
70
0
71
3
72
10
73
6
74
4
42
0.0000001000
43
0.0000001000
44
0.0000000001
12
0.4872215529
22
0.3231850228
32
0.0000000000
13
0.5846652038
23
0.0000000000
33
0.0000000000
40
0.0000000000
40
0.0000000000
40
0.0000000000
40
0.0000000000
40
0.3333348274
40
0.6666651726
40
1.0000000000
40
1.0000000000
40
1.0000000000
40
1.0000000000
10
18.4284573302
20
24.1013596575
30
0.0000000000
10
18.4825933010
20
24.1372692654
30
0.0000000000
10
18.5982189252
20
24.1986658790
30
0.0000000000
10
18.7858864665
20
24.2552495977
30
0.0000000000
10
18.9161794302
20
24.2680000000
30
0.0000000000
10
18.9811425218
20
24.2680000000
30
0.0000000000
11
18.4284573302
21
24.1013596575
31
0.0000000000
11
18.6005911819
21
24.1927476575
31
0.0000000000
11
18.7871809954
21
24.2490064299
31
0.0000000000
11
18.9811425218
21
24.2680000000
31
0.0000000000
0
SPLINE
5
330
100
AcDbEntity
8
0
100
AcDbSpline
62
7
6
CONTINUOUS
70
0
71
3
72
10
73
6
74
4
42
0.0000001000
43
0.0000001000
44
0.0000000001
12
0.5846652038
22
0.0000000000
32
0.0000000000
13
0.4872215529
23
-0.3231850228
33
0.0000000000
40
0.0000000000
40
0.0000000000
40
0.0000000000
40
0.0000000000
40
0.3333348274
40
0.6666651726
40
1.0000000000
40
1.0000000000
40
1.0000000000
40
1.0000000000
10
26.3308574782
20
24.2680000000
30
0.0000000000
10
26.3958205698
20
24.2680000000
30
0.0000000000
10
26.5261135335
20
24.2552495977
30
0.0000000000
10
26.7137810748
20
24.1986658790
30
0.0000000000
10
26.8294066990
20
24.1372692654
30
0.0000000000
10
26.8835426698
20
24.1013596575
30
0.0000000000
11
26.3308574782
21
24.2680000000
31
0.0000000000
11
26.5248190046
21
24.2490064299
31
0.0000000000
11
26.7114088181
21
24.1927476575
31
0.0000000000
11
26.8835426698
21
24.1013596575
31
0.0000000000
0
SPLINE
5
331
100
AcDbEntity
8
0
100
AcDbSpline
62
7
6
CONTINUOUS
70
0
71
3
72
15
73
11
74
9
42
0.0000001000
43
0.0000001000
44
0.0000000001
12
0.0000000000
22
0.7840504605
32
0.0000000000
13
0.7840504605
23
0.0000000000
33
0.0000000000
40
0.0000000000
40
0.0000000000
40
0.0000000000
40
0.0000000000
40
0.1250035856
40
0.2500003382
40
0.3749971738
40
0.4999931596
40
0.6249941993
40
0.7499962985
40
0.8749988330
40
1.0000000000
40
1.0000000000
40
1.0000000000
40
1.0000000000
10
11.5060000000
20
22.6677711479
30
0.0000000000
10
11.5060000000
20
22.7004408542
30
0.0000000000
10
11.5124279375
20
22.7659588343
30
0.0000000000
10
11.5409971115
20
22.8603353736
30
0.0000000000
10
11.5874136147
20
22.9473736183
30
0.0000000000
10
11.6499141557
20
23.0236795571
30
0.0000000000
10
11.7261059765
20
23.0863228818
30
0.0000000000
10
11.8130776329
20
23.1328787971
30
0.0000000000
10
11.9074302102
20
23.1615479377
30
0.0000000000
10
11.9729503261
20
23.1680000000
30
0.0000000000
10
12.0056194003
20
23.1680000000
30
0.0000000000
11
11.5060000000
21
22.6677711479
31
0.0000000000
11
11.5155828726
21
22.7653106575
31
0.0000000000
11
11.5439717610
21
22.8591126206
31
0.0000000000
11
11.5900942896
21
22.9455849419
31
0.0000000000
11
11.6521949330
21
23.0214013617
31
0.0000000000
11
11.7279021588
21
23.0836413172
31
0.0000000000
11
11.8143076800
21
23.1298976126
31
0.0000000000
11
11.9080851712
21
23.1583828363
31
0.0000000000
11
12.0056194003
21
23.1680000000
31
0.0000000000
0
SPLINE
5
332
100
AcDbEntity
8
0
100
AcDbSpline
62
7
6
CONTINUOUS
70
0
71
3
72
15
73
11
74
9
42
0.0000001000
43
0.0000001000
44
0.0000000001
12
-0.7840504604
22
-0.0000000000
32
0.0000000000
13
0.0000000000
23
0.7840504604
33
0.0000000000
40
0.0000000000
40
0.0000000000
40
0.0000000000
40
0.0000000000
40
0.1250026133
40
0.2500082844
40
0.3750136098
40
0.5000160060
40
0.6250106349
40
0.7500042447
40
0.8749978606
40
1.0000000000
40
1.0000000000
40
1.0000000000
40
1.0000000000
10
12.0056194003
20
-21.6320000000
30
0.0000000000
10
11.9729499481
20
-21.6320000000
30
0.0000000000
10
11.9074286282
20
-21.6255477443
30
0.0000000000
10
11.8130741915
20
-21.5968775487
30
0.0000000000
10
11.7261011702
20
-21.5503198083
30
0.0000000000
10
11.6499095224
20
-21.4876749149
30
0.0000000000
10
11.5874105498
20
-21.4113688070
30
0.0000000000
10
11.5409958673
20
-21.3243319310
30
0.0000000000
10
11.5124277449
20
-21.2299572524
30
0.0000000000
10
11.5060000000
20
-21.1644404763
30
0.0000000000
10
11.5060000000
20
-21.1317711479
30
0.0000000000
11
12.0056194003
21
-21.6320000000
31
0.0000000000
11
11.9080840537
21
-21.6223826137
31
0.0000000000
11
11.8143043449
21
-21.5938962291
31
0.0000000000
11
11.7278970460
21
-21.5476378952
31
0.0000000000
11
11.6521898317
21
-21.4853962508
31
0.0000000000
11
11.5900908765
21
-21.4095798235
31
0.0000000000
11
11.5439703819
21
-21.3231092838
31
0.0000000000
11
11.5155826508
21
-21.2293095399
31
0.0000000000
11
11.5060000000
21
-21.1317711479
31
0.0000000000
0
SPLINE
5
333
100
AcDbEntity
8
0
100
AcDbSpline
62
7
6
CONTINUOUS
70
0
71
3
72
15
73
11
74
9
42
0.0000001000
43
0.0000001000
44
0.0000000001
12
0.7840504604
22
0.0000000000
32
0.0000000000
13
0.0000000000
23
-0.7840504604
33
0.0000000000
40
0.0000000000
40
0.0000000000
40
0.0000000000
40
0.0000000000
40
0.1250026133
40
0.2500082844
40
0.3750136098
40
0.5000160060
40
0.6250106349
40
0.7500042447
40
0.8749978606
40
1.0000000000
40
1.0000000000
40
1.0000000000
40
1.0000000000
10
33.3063805997
20
23.1680000000
30
0.0000000000
10
33.3390500519
20
23.1680000000
30
0.0000000000
10
33.4045713718
20
23.1615477443
30
0.0000000000
10
33.4989258085
20
23.1328775487
30
0.0000000000
10
33.5858988298
20
23.0863198083
30
0.0000000000
10
33.6620904776
20
23.0236749149
30
0.0000000000
10
33.7245894502
20
22.9473688070
30
0.0000000000
10
33.7710041327
20
22.8603319310
30
0.0000000000
10
33.7995722551
20
22.7659572524
30
0.0000000000
10
33.8060000000
20
22.7004404763
30
0.0000000000
10
33.8060000000
20
22.6677711479
30
0.0000000000
11
33.3063805997
21
23.1680000000
31
0.0000000000
11
33.4039159463
21
23.1583826137
31
0.0000000000
11
33.4976956551
21
23.1298962291
31
0.0000000000
11
33.5841029540
21
23.0836378952
31
0.0000000000
11
33.6598101683
21
23.0213962508
31
0.0000000000
11
33.7219091235
21
22.9455798235
31
0.0000000000
11
33.7680296181
21
22.8591092838
31
0.0000000000
11
33.7964173492
21
22.7653095399
31
0.0000000000
11
33.8060000000
21
22.6677711479
31
0.0000000000
0
SPLINE
5
334
100
AcDbEntity
8
0
100
AcDbSpline
62
7
6
CONTINUOUS
70
0
71
3
72
15
73
11
74
9
42
0.0000001000
43
0.0000001000
44
0.0000000001
12
0.0000000000
22
-0.7840504605
32
0.0000000000
13
-0.7840504605
23
0.0000000000
33
0.0000000000
40
0.0000000000
40
0.0000000000
40
0.0000000000
40
0.0000000000
40
0.1250035856
40
0.2500003382
40
0.3749971738
40
0.4999931596
40
0.6249941993
40
0.7499962985
40
0.8749988330
40
1.0000000000
40
1.0000000000
40
1.0000000000
40
1.0000000000
10
33.8060000000
20
-21.1317711479
30
0.0000000000
10
33.8060000000
20
-21.1644408542
30
0.0000000000
10
33.7995720625
20
-21.2299588343
30
0.0000000000
10
33.7710028885
20
-21.3243353736
30
0.0000000000
10
33.7245863853
20
-21.4113736183
30
0.0000000000
10
33.6620858443
20
-21.4876795571
30
0.0000000000
10
33.5858940235
20
-21.5503228818
30
0.0000000000
10
33.4989223671
20
-21.5968787971
30
0.0000000000
10
33.4045697898
20
-21.6255479377
30
0.0000000000
10
33.3390496739
20
-21.6320000000
30
0.0000000000
10
33.3063805997
20
-21.6320000000
30
0.0000000000
11
33.8060000000
21
-21.1317711479
31
0.0000000000
11
33.7964171274
21
-21.2293106575
31
0.0000000000
11
33.7680282390
21
-21.3231126206
31
0.0000000000
11
33.7219057104
21
-21.4095849419
31
0.0000000000
11
33.6598050670
21
-21.4854013617
31
0.0000000000
11
33.5840978412
21
-21.5476413172
31
0.0000000000
11
33.4976923200
21
-21.5938976126
31
0.0000000000
11
33.4039148288
21
-21.6223828363
31
0.0000000000
11
33.3063805997
21
-21.6320000000
31
0.0000000000
0
SPLINE
5
335
100
AcDbEntity
8
0
100
AcDbSpline
62
7
6
CONTINUOUS
70
0
71
3
72
13
73
9
74
7
42
0.0000001000
43
0.0000001000
44
0.0000000001
12
0.2995661455
22
-0.2996550417
32
0.0000000000
13
0.3030721846
23
-0.2961157707
33
0.0000000000
40
0.0000000000
40
0.0000000000
40
0.0000000000
40
0.0000000000
40
0.2178354398
40
0.4358020850
40
0.6401608257
40
0.8169168619
40
0.9470497072
40
1.0000000000
40
1.0000000000
40
1.0000000000
40
1.0000000000
10
27.6060000000
20
-0.5327804683
30
0.0000000000
10
27.6277520410
20
-0.5545389642
30
0.0000000000
10
27.6712747312
20
-0.5980635659
30
0.0000000000
10
27.7352303180
20
-0.6619739163
30
0.0000000000
10
27.7950957480
20
-0.7217693436
30
0.0000000000
10
27.8462464789
20
-0.7727349760
30
0.0000000000
10
27.8822126880
20
-0.8086438132
30
0.0000000000
10
27.9006507464
20
-0.8267735277
30
0.0000000000
10
27.9060000000
20
-0.8320000000
30
0.0000000000
11
27.6060000000
21
-0.5327804683
31
0.0000000000
11
27.6712657092
21
-0.5980463714
31
0.0000000000
11
27.7365924329
21
-0.6633298739
31
0.0000000000
11
27.7978674292
21
-0.7245109302
31
0.0000000000
11
27.8509009851
21
-0.7773932293
31
0.0000000000
11
27.8899972459
21
-0.8162750325
31
0.0000000000
11
27.9060000000
21
-0.8320000000
31
0.0000000000
0
SPLINE
5
336
100
AcDbEntity
8
0
100
AcDbSpline
62
9
6
CONTINUOUS
70
0
71
3
72
13
73
9
74
7
42
0.0000001000
43
0.0000001000
44
0.0000000001
12
0.1576584633
22
-0.9435991544
32
0.0000000000
13
0.0003511227
23
-0.9566793779
33
0.0000000000
40
0.0000000000
40
0.0000000000
40
0.0000000000
40
0.0000000000
40
0.0448233898
40
0.1498225033
40
0.3086294756
40
0.5117243922
40
0.7469283740
40
1.0000000000
40
1.0000000000
40
1.0000000000
40
1.0000000000
10
12.1472018833
20
22.7429071372
30
0.0000000000
10
12.1495574789
20
22.7288086996
30
0.0000000000
10
12.1487715791
20
22.6807254437
30
0.0000000000
10
12.1523075870
20
22.5825846744
30
0.0000000000
10
12.1529094866
20
22.4335676863
30
0.0000000000
10
12.1544989125
20
22.2432101910
30
0.0000000000
10
12.1551848688
20
22.0227203781
30
0.0000000000
10
12.1554353177
20
21.8670170328
30
0.0000000000
10
12.1554649375
20
21.7863142309
30
0.0000000000
11
12.1472018833
21
22.7429071372
31
0.0000000000
11
12.1493112178
21
22.7000774319
31
0.0000000000
11
12.1512661692
21
22.5996459638
31
0.0000000000
11
12.1529480551
21
22.4477279079
31
0.0000000000
11
12.1542563081
21
22.2534355808
31
0.0000000000
11
12.1551128435
21
22.0284223969
31
0.0000000000
11
12.1554649375
21
21.7863142309
31
0.0000000000
0
SPLINE
5
337
100
AcDbEntity
8
0
100
AcDbSpline
62
9
6
CONTINUOUS
70
0
71
3
72
13
73
9
74
7
42
0.0000001000
43
0.0000001000
44
0.0000000001
12
0.1515510170
22
-0.4538339143
32
0.0000000000
13
0.0003507750
23
-0.4784692357
33
0.0000000000
40
0.0000000000
40
0.0000000000
40
0.0000000000
40
0.0000000000
40
0.0448312305
40
0.1499084338
40
0.3088541801
40
0.5121619630
40
0.7476022504
40
1.0000000000
40
1.0000000000
40
1.0000000000
40
1.0000000000
10
11.6472780357
20
22.2435923698
30
0.0000000000
10
11.6495427752
20
22.2368103922
30
0.0000000000
10
11.6489401347
20
22.2123370483
30
0.0000000000
10
11.6523305448
20
22.1635977724
30
0.0000000000
10
11.6530077910
20
22.0888314651
30
0.0000000000
10
11.6545697229
20
21.9936089323
30
0.0000000000
10
11.6552641004
20
21.8833478128
30
0.0000000000
10
11.6555115783
20
21.8055507695
30
0.0000000000
10
11.6555410899
20
21.7652959167
30
0.0000000000
11
11.6472780357
21
22.2435923698
31
0.0000000000
11
11.6493833993
21
22.2222455707
31
0.0000000000
11
11.6513407479
21
22.1720074642
31
0.0000000000
11
11.6530246863
21
22.0959754394
31
0.0000000000
11
11.6543342085
21
21.9987077085
31
0.0000000000
11
11.6551905472
21
21.8860599987
31
0.0000000000
11
11.6555410899
21
21.7652959167
31
0.0000000000
0
SPLINE
5
338
100
AcDbEntity
8
0
100
AcDbSpline
62
9
6
CONTINUOUS
70
0
71
3
72
12
73
8
74
6
42
0.0000001000
43
0.0000001000
44
0.0000000001
12
-0.7813571081
22
-0.0007128060
32
0.0000000000
13
-0.0007145503
23
-0.7813571065
33
0.0000000000
40
0.0000000000
40
0.0000000000
40
0.0000000000
40
0.0000000000
40
0.2000881370
40
0.4001764314
40
0.6002089278
40
0.8001504626
40
1.0000000000
40
1.0000000000
40
1.0000000000
40
1.0000000000
10
12.1472018833
20
22.7429071372
30
0.0000000000
10
12.0950884539
20
22.7428595959
30
0.0000000000
10
11.9901457252
20
22.7262166878
30
0.0000000000
10
11.8486783152
20
22.6540917768
30
0.0000000000
10
11.7362311884
20
22.5417936503
30
0.0000000000
10
11.6639969321
20
22.4004880671
30
0.0000000000
10
11.6473256366
20
22.2956436553
30
0.0000000000
10
11.6472780357
20
22.2435923698
30
0.0000000000
11
12.1472018833
21
22.7429071372
31
0.0000000000
11
11.9928013561
21
22.7183554931
31
0.0000000000
11
11.8534984234
21
22.6473834041
31
0.0000000000
11
11.7429134115
21
22.5369312914
31
0.0000000000
11
11.6718579448
21
22.3977996177
31
0.0000000000
11
11.6472780357
21
22.2435923698
31
0.0000000000
0
SPLINE
5
339
100
AcDbEntity
8
0
100
AcDbSpline
62
9
6
CONTINUOUS
70
0
71
3
72
10
73
6
74
4
42
0.0000001000
43
0.0000001000
44
0.0000000001
12
0.0308408175
22
-42.0366204979
32
0.0000000000
13
-0.0308408153
23
-42.0366204979
33
0.0000000000
40
0.0000000000
40
0.0000000000
40
0.0000000000
40
0.0000000000
40
0.3332896860
40
0.6667103140
40
1.0000000000
40
1.0000000000
40
1.0000000000
40
1.0000000000
10
12.1554649375
20
21.7863142309
30
0.0000000000
10
12.1588912463
20
17.1161902158
30
0.0000000000
10
12.1634572813
20
7.7741055530
30
0.0000000000
10
12.1634572816
20
-6.2381055524
30
0.0000000000
10
12.1588912460
20
-15.5801902155
30
0.0000000000
10
12.1554649375
20
-20.2503142309
30
0.0000000000
11
12.1554649375
21
21.7863142309
31
0.0000000000
11
12.1623153242
21
7.7759400896
31
0.0000000000
11
12.1623153242
21
-6.2399400886
31
0.0000000000
11
12.1554649375
21
-20.2503142309
31
0.0000000000
0
SPLINE
5
33A
100
AcDbEntity
8
0
100
AcDbSpline
62
9
6
CONTINUOUS
70
0
71
3
72
10
73
6
74
4
42
0.0000001000
43
0.0000001000
44
0.0000000001
12
0.0308408174
22
-41.9945838615
32
0.0000000000
13
-0.0308408152
23
-41.9945838615
33
0.0000000000
40
0.0000000000
40
0.0000000000
40
0.0000000000
40
0.0000000000
40
0.3332892780
40
0.6667108413
40
1.0000000000
40
1.0000000000
40
1.0000000000
40
1.0000000000
10
11.6555410899
20
21.7652959167
30
0.0000000000
10
11.6589673945
20
17.0998477385
30
0.0000000000
10
11.6635334360
20
7.7670977786
30
0.0000000000
10
11.6635334350
20
-6.2311011190
30
0.0000000000
10
11.6589673930
20
-15.5638494087
30
0.0000000000
10
11.6555410899
20
-20.2292959167
30
0.0000000000
11
11.6555410899
21
21.7652959167
31
0.0000000000
11
11.6623914724
21
7.7689492841
31
0.0000000000
11
11.6623914712
21
-6.2329542947
31
0.0000000000
11
11.6555410899
21
-20.2292959167
31
0.0000000000
0
SPLINE
5
33B
100
AcDbEntity
8
0
100
AcDbSpline
62
9
6
CONTINUOUS
70
0
71
3
72
12
73
8
74
6
42
0.0000001000
43
0.0000001000
44
0.0000000001
12
-0.5010580609
22
-0.0003673245
32
0.0000000000
13
-0.1919552794
23
-0.4628309475
33
0.0000000000
40
0.0000000000
40
0.0000000000
40
0.0000000000
40
0.0000000000
40
0.3050607110
40
0.5809725757
40
0.8013959858
40
0.9453902249
40
1.0000000000
40
1.0000000000
40
1.0000000000
40
1.0000000000
10
12.1554649375
20
21.7863142305
30
0.0000000000
10
12.1045138947
20
21.7862768785
30
0.0000000000
10
12.0069785464
20
21.7860276716
30
0.0000000000
10
11.8750939943
20
21.7815856064
30
0.0000000000
10
11.7631976929
20
21.7817704021
30
0.0000000000
10
11.7032103235
20
21.7685048012
30
0.0000000000
10
11.6590353014
20
21.7737209480
30
0.0000000000
10
11.6555410899
20
21.7652959167
30
0.0000000000
11
12.1554649375
21
21.7863142305
31
0.0000000000
11
12.0026158585
21
21.7851959976
31
0.0000000000
11
11.8644010242
21
21.7821724686
31
0.0000000000
11
11.7540535511
21
21.7775331261
31
0.0000000000
11
11.6821384480
21
21.7717221554
31
0.0000000000
11
11.6555410899
21
21.7652959167
31
0.0000000000
0
SPLINE
5
33C
100
AcDbEntity
8
0
100
AcDbSpline
62
9
6
CONTINUOUS
70
0
71
3
72
13
73
9
74
7
42
0.0000001000
43
0.0000001000
44
0.0000000001
12
-0.0003511224
22
-0.9566793779
32
0.0000000000
13
-0.1576584620
23
-0.9435991547
33
0.0000000000
40
0.0000000000
40
0.0000000000
40
0.0000000000
40
0.0000000000
40
0.2530716260
40
0.4882756078
40
0.6913705244
40
0.8501774967
40
0.9551766102
40
1.0000000000
40
1.0000000000
40
1.0000000000
40
1.0000000000
10
12.1554649375
20
-20.2503142309
30
0.0000000000
10
12.1554353178
20
-20.3310170328
30
0.0000000000
10
12.1551848687
20
-20.4867203781
30
0.0000000000
10
12.1544989126
20
-20.7072101910
30
0.0000000000
10
12.1529094866
20
-20.8975676863
30
0.0000000000
10
12.1523075870
20
-21.0465846744
30
0.0000000000
10
12.1487715791
20
-21.1447254438
30
0.0000000000
10
12.1495574789
20
-21.1928086996
30
0.0000000000
10
12.1472018833
20
-21.2069071372
30
0.0000000000
11
12.1554649375
21
-20.2503142309
31
0.0000000000
11
12.1551128434
21
-20.4924223969
31
0.0000000000
11
12.1542563081
21
-20.7174355808
31
0.0000000000
11
12.1529480551
21
-20.9117279079
31
0.0000000000
11
12.1512661692
21
-21.0636459638
31
0.0000000000
11
12.1493112178
21
-21.1640774319
31
0.0000000000
11
12.1472018833
21
-21.2069071372
31
0.0000000000
0
SPLINE
5
33D
100
AcDbEntity
8
0
100
AcDbSpline
62
9
6
CONTINUOUS
70
0
71
3
72
13
73
9
74
7
42
0.0000001000
43
0.0000001000
44
0.0000000001
12
-0.0003507747
22
-0.4784692357
32
0.0000000000
13
-0.1515509188
23
-0.4538339471
33
0.0000000000
40
0.0000000000
40
0.0000000000
40
0.0000000000
40
0.0000000000
40
0.2523977495
40
0.4878380372
40
0.6911458199
40
0.8500915659
40
0.9551687699
40
1.0000000000
40
1.0000000000
40
1.0000000000
40
1.0000000000
10
11.6555410899
20
-20.2292959167
30
0.0000000000
10
11.6555115783
20
-20.2695507694
30
0.0000000000
10
11.6552641004
20
-20.3473478129
30
0.0000000000
10
11.6545697228
20
-20.4576089323
30
0.0000000000
10
11.6530077914
20
-20.5528314652
30
0.0000000000
10
11.6523305439
20
-20.6275977721
30
0.0000000000
10
11.6489401364
20
-20.6763370488
30
0.0000000000
10
11.6495427737
20
-20.7008103918
30
0.0000000000
10
11.6472780357
20
-20.7075923698
30
0.0000000000
11
11.6555410899
21
-20.2292959167
31
0.0000000000
11
11.6551905472
21
-20.3500599986
31
0.0000000000
11
11.6543342085
21
-20.4627077086
31
0.0000000000
11
11.6530246863
21
-20.5599754394
31
0.0000000000
11
11.6513407479
21
-20.6360074640
31
0.0000000000
11
11.6493833993
21
-20.6862455709
31
0.0000000000
11
11.6472780357
21
-20.7075923698
31
0.0000000000
0
SPLINE
5
33E
100
AcDbEntity
8
0
100
AcDbSpline
62
9
6
CONTINUOUS
70
0
71
3
72
12
73
8
74
6
42
0.0000001000
43
0.0000001000
44
0.0000000001
12
-0.5010578789
22
0.0003673793
32
0.0000000000
13
-0.1921868604
23
0.4627346364
33
0.0000000000
40
0.0000000000
40
0.0000000000
40
0.0000000000
40
0.0000000000
40
0.3050563107
40
0.5809651216
40
0.8013879126
40
0.9453846466
40
1.0000000000
40
1.0000000000
40
1.0000000000
40
1.0000000000
10
12.1554649374
20
-20.2503133038
30
0.0000000000
10
12.1045146481
20
-20.2502759467
30
0.0000000000
10
12.0069810063
20
-20.2500266405
30
0.0000000000
10
11.8750962081
20
-20.2455851497
30
0.0000000000
10
11.7632043202
20
-20.2457689918
30
0.0000000000
10
11.7032077965
20
-20.2325055113
30
0.0000000000
10
11.6590398745
20
-20.2377200553
30
0.0000000000
10
11.6555410900
20
-20.2292959167
30
0.0000000000
11
12.1554649374
21
-20.2503133038
31
0.0000000000
11
12.0026181186
21
-20.2491951092
31
0.0000000000
11
11.8644048619
21
-20.2461717192
31
0.0000000000
11
11.7540577302
21
-20.2415325952
31
0.0000000000
11
11.6821413779
21
-20.2357218884
31
0.0000000000
11
11.6555410900
21
-20.2292959167
31
0.0000000000
0
SPLINE
5
33F
100
AcDbEntity
8
0
100
AcDbSpline
62
9
6
CONTINUOUS
70
0
71
3
72
12
73
8
74
6
42
0.0000001000
43
0.0000001000
44
0.0000000001
12
-0.7813571062
22
0.0007128135
32
0.0000000000
13
-0.0007145531
23
0.7813571046
33
0.0000000000
40
0.0000000000
40
0.0000000000
40
0.0000000000
40
0.0000000000
40
0.2000850064
40
0.4001713425
40
0.6002035310
40
0.8001467218
40
1.0000000000
40
1.0000000000
40
1.0000000000
40
1.0000000000
10
12.1472018833
20
-21.2069071372
30
0.0000000000
10
12.0950892694
20
-21.2068595961
30
0.0000000000
10
11.9901479000
20
-21.1902171672
30
0.0000000000
10
11.8486813356
20
-21.1180938495
30
0.0000000000
10
11.7362333975
20
-21.0057967766
30
0.0000000000
10
11.6639974813
20
-20.8644904868
30
0.0000000000
10
11.6473256376
20
-20.7596446294
30
0.0000000000
10
11.6472780357
20
-20.7075923698
30
0.0000000000
11
12.1472018833
21
-21.2069071372
31
0.0000000000
11
11.9928037117
21
-21.1823562579
31
0.0000000000
11
11.8535016822
21
-21.1113857676
31
0.0000000000
11
11.7429159250
21
-21.0009347421
31
0.0000000000
11
11.6718588628
21
-20.8618024308
31
0.0000000000
11
11.6472780357
21
-20.7075923698
31
0.0000000000
0
SPLINE
5
340
100
AcDbEntity
8
0
100
AcDbSpline
62
9
6
CONTINUOUS
70
0
71
3
72
13
73
9
74
7
42
0.0000001000
43
0.0000001000
44
0.0000000001
12
-0.1514175279
22
-0.4538785052
32
0.0000000000
13
-0.0003487501
23
-0.4784692713
33
0.0000000000
40
0.0000000000
40
0.0000000000
40
0.0000000000
40
0.0000000000
40
0.0447393873
40
0.1496912263
40
0.3085216489
40
0.5116483853
40
0.7470339087
40
1.0000000000
40
1.0000000000
40
1.0000000000
40
1.0000000000
10
33.6647219643
20
22.2435923698
30
0.0000000000
10
33.6624638552
20
22.2368236211
30
0.0000000000
10
33.6630576095
20
22.2123875877
30
0.0000000000
10
33.6596743870
20
22.1636995189
30
0.0000000000
10
33.6589941766
20
22.0890012926
30
0.0000000000
10
33.6574327633
20
21.9938344617
30
0.0000000000
10
33.6567366076
20
21.8835203756
30
0.0000000000
10
33.6564883174
20
21.8056414171
30
0.0000000000
10
33.6564589101
20
21.7652959167
30
0.0000000000
11
33.6647219643
21
22.2435923698
31
0.0000000000
11
33.6626191044
21
22.2222894797
31
0.0000000000
11
33.6606622904
21
22.1721113772
31
0.0000000000
11
33.6589780638
21
22.0961345459
31
0.0000000000
11
33.6576683071
21
21.9989534442
31
0.0000000000
11
33.6568108466
21
21.8863319385
31
0.0000000000
11
33.6564589101
21
21.7652959167
31
0.0000000000
0
SPLINE
5
341
100
AcDbEntity
8
0
100
AcDbSpline
62
9
6
CONTINUOUS
70
0
71
3
72
13
73
9
74
7
42
0.0000001000
43
0.0000001000
44
0.0000000001
12
-0.1576341305
22
-0.9436032094
32
0.0000000000
13
-0.0003456835
23
-0.9566793697
33
0.0000000000
40
0.0000000000
40
0.0000000000
40
0.0000000000
40
0.0000000000
40
0.0448270314
40
0.1498225927
40
0.3086597101
40
0.5117110612
40
0.7469567150
40
1.0000000000
40
1.0000000000
40
1.0000000000
40
1.0000000000
10
33.1647981167
20
22.7429071372
30
0.0000000000
10
33.1624426933
20
22.7288074936
30
0.0000000000
10
33.1632282534
20
22.6807243118
30
0.0000000000
10
33.1596928017
20
22.5825738165
30
0.0000000000
10
33.1590905571
20
22.4335622815
30
0.0000000000
10
33.1575013431
20
22.2431957534
30
0.0000000000
10
33.1568152567
20
22.0227155910
30
0.0000000000
10
33.1565642202
20
21.8670079944
30
0.0000000000
10
33.1565350625
20
21.7863142309
30
0.0000000000
11
33.1647981167
21
22.7429071372
31
0.0000000000
11
33.1626888224
21
22.7000739422
31
0.0000000000
11
33.1607342215
21
22.5996458675
31
0.0000000000
11
33.1590519768
21
22.4476989761
31
0.0000000000
11
33.1577440253
21
22.2534483283
31
0.0000000000
11
33.1568871259
21
22.0283952811
31
0.0000000000
11
33.1565350625
21
21.7863142309
31
0.0000000000
0
SPLINE
5
342
100
AcDbEntity
8
0
100
AcDbSpline
62
9
6
CONTINUOUS
70
0
71
3
72
12
73
8
74
6
42
0.0000001000
43
0.0000001000
44
0.0000000001
12
-0.0007145502
22
0.7813571067
32
0.0000000000
13
-0.7813571083
23
0.0007128045
33
0.0000000000
40
0.0000000000
40
0.0000000000
40
0.0000000000
40
0.0000000000
40
0.1998487703
40
0.3997899671
40
0.5998225284
40
0.7999112244
40
1.0000000000
40
1.0000000000
40
1.0000000000
40
1.0000000000
10
33.6647219643
20
22.2435923698
30
0.0000000000
10
33.6646743636
20
22.2956434555
30
0.0000000000
10
33.6480031804
20
22.4004875713
30
0.0000000000
10
33.5757692638
20
22.5417930102
30
0.0000000000
10
33.4633223022
20
22.6540913529
30
0.0000000000
10
33.3218547189
20
22.7262165899
30
0.0000000000
10
33.2169117124
20
22.7428595957
30
0.0000000000
10
33.1647981167
20
22.7429071371
30
0.0000000000
11
33.6647219643
21
22.2435923698
31
0.0000000000
11
33.6401422433
21
22.3977990407
31
0.0000000000
11
33.5690871030
21
22.5369305846
31
0.0000000000
11
33.4585022426
21
22.6473829208
31
0.0000000000
11
33.3191991243
21
22.7183553370
31
0.0000000000
11
33.1647981167
21
22.7429071371
31
0.0000000000
0
SPLINE
5
343
100
AcDbEntity
8
0
100
AcDbSpline
62
9
6
CONTINUOUS
70
0
71
3
72
10
73
6
74
4
42
0.0000001000
43
0.0000001000
44
0.0000000001
12
-0.0308408056
22
-41.9945838615
32
0.0000000000
13
0.0308408162
23
-41.9945838615
33
0.0000000000
40
0.0000000000
40
0.0000000000
40
0.0000000000
40
0.0000000000
40
0.3332888351
40
0.6667105879
40
1.0000000000
40
1.0000000000
40
1.0000000000
40
1.0000000000
10
33.6564589101
20
21.7652959167
30
0.0000000000
10
33.6530326114
20
17.0998539387
30
0.0000000000
10
33.6484665661
20
7.7671075263
30
0.0000000000
10
33.6484665617
20
-6.2310913713
30
0.0000000000
10
33.6530326043
20
-15.5638458612
30
0.0000000000
10
33.6564589101
20
-20.2292959167
30
0.0000000000
11
33.6564589101
21
21.7652959167
31
0.0000000000
11
33.6496085319
21
7.7689678848
31
0.0000000000
11
33.6496085263
21
-6.2329436522
31
0.0000000000
11
33.6564589101
21
-20.2292959167
31
0.0000000000
0
SPLINE
5
344
100
AcDbEntity
8
0
100
AcDbSpline
62
9
6
CONTINUOUS
70
0
71
3
72
10
73
6
74
4
42
0.0000001000
43
0.0000001000
44
0.0000000001
12
-0.0308408058
22
-42.0366204979
32
0.0000000000
13
0.0308408163
23
-42.0366204979
33
0.0000000000
40
0.0000000000
40
0.0000000000
40
0.0000000000
40
0.0000000000
40
0.3332896861
40
0.6667103140
40
1.0000000000
40
1.0000000000
40
1.0000000000
40
1.0000000000
10
33.1565350625
20
21.7863142309
30
0.0000000000
10
33.1531087550
20
17.1161902147
30
0.0000000000
10
33.1485427175
20
7.7741055512
30
0.0000000000
10
33.1485427190
20
-6.2381055542
30
0.0000000000
10
33.1531087539
20
-15.5801902162
30
0.0000000000
10
33.1565350625
20
-20.2503142309
30
0.0000000000
11
33.1565350625
21
21.7863142309
31
0.0000000000
11
33.1496846756
21
7.7759400863
31
0.0000000000
11
33.1496846759
21
-6.2399400909
31
0.0000000000
11
33.1565350625
21
-20.2503142309
31
0.0000000000
0
SPLINE
5
345
100
AcDbEntity
8
0
100
AcDbSpline
62
9
6
CONTINUOUS
70
0
71
3
72
12
73
8
74
6
42
0.0000001000
43
0.0000001000
44
0.0000000001
12
-0.1919553909
22
0.4628309013
32
0.0000000000
13
-0.5010580608
23
0.0003673188
33
0.0000000000
40
0.0000000000
40
0.0000000000
40
0.0000000000
40
0.0000000000
40
0.0546097780
40
0.1986040184
40
0.4190274283
40
0.6949392915
40
1.0000000000
40
1.0000000000
40
1.0000000000
40
1.0000000000
10
33.6564589101
20
21.7652959167
30
0.0000000000
10
33.6529646964
20
21.7737209476
30
0.0000000000
10
33.6087896777
20
21.7685048019
30
0.0000000000
10
33.5488023038
20
21.7817704020
30
0.0000000000
10
33.4369060045
20
21.7815856071
30
0.0000000000
10
33.3050214523
20
21.7860276727
30
0.0000000000
10
33.2074861049
20
21.7862768788
30
0.0000000000
10
33.1565350625
20
21.7863142303
30
0.0000000000
11
33.6564589101
21
21.7652959167
31
0.0000000000
11
33.6298615505
21
21.7717221554
31
0.0000000000
11
33.5579464468
21
21.7775331264
31
0.0000000000
11
33.4475989738
21
21.7821724691
31
0.0000000000
11
33.3093841403
21
21.7851959985
31
0.0000000000
11
33.1565350625
21
21.7863142303
31
0.0000000000
0
SPLINE
5
346
100
AcDbEntity
8
0
100
AcDbSpline
62
9
6
CONTINUOUS
70
0
71
3
72
13
73
9
74
7
42
0.0000001000
43
0.0000001000
44
0.0000000001
12
0.0003487498
22
-0.4784692713
32
0.0000000000
13
0.1514174029
23
-0.4538785469
33
0.0000000000
40
0.0000000000
40
0.0000000000
40
0.0000000000
40
0.0000000000
40
0.2529660912
40
0.4883516149
40
0.6914783512
40
0.8503087732
40
0.9552606132
40
1.0000000000
40
1.0000000000
40
1.0000000000
40
1.0000000000
10
33.6564589101
20
-20.2292959167
30
0.0000000000
10
33.6564883174
20
-20.2696414171
30
0.0000000000
10
33.6567366076
20
-20.3475203756
30
0.0000000000
10
33.6574327634
20
-20.4578344616
30
0.0000000000
10
33.6589941762
20
-20.5530012927
30
0.0000000000
10
33.6596743882
20
-20.6276995185
30
0.0000000000
10
33.6630576074
20
-20.6763875884
30
0.0000000000
10
33.6624638570
20
-20.7008236205
30
0.0000000000
10
33.6647219643
20
-20.7075923698
30
0.0000000000
11
33.6564589101
21
-20.2292959167
31
0.0000000000
11
33.6568108466
21
-20.3503319385
31
0.0000000000
11
33.6576683071
21
-20.4629534443
31
0.0000000000
11
33.6589780638
21
-20.5601345459
31
0.0000000000
11
33.6606622904
21
-20.6361113770
31
0.0000000000
11
33.6626191044
21
-20.6862894799
31
0.0000000000
11
33.6647219643
21
-20.7075923698
31
0.0000000000
0
SPLINE
5
347
100
AcDbEntity
8
0
100
AcDbSpline
62
9
6
CONTINUOUS
70
0
71
3
72
13
73
9
74
7
42
0.0000001000
43
0.0000001000
44
0.0000000001
12
0.0003456837
22
-0.9566793697
32
0.0000000000
13
0.1576341168
23
-0.9436032117
33
0.0000000000
40
0.0000000000
40
0.0000000000
40
0.0000000000
40
0.0000000000
40
0.2530432850
40
0.4882889388
40
0.6913402899
40
0.8501774073
40
0.9551729686
40
1.0000000000
40
1.0000000000
40
1.0000000000
40
1.0000000000
10
33.1565350625
20
-20.2503142309
30
0.0000000000
10
33.1565642202
20
-20.3310079944
30
0.0000000000
10
33.1568152568
20
-20.4867155910
30
0.0000000000
10
33.1575013431
20
-20.7071957534
30
0.0000000000
10
33.1590905571
20
-20.8975622815
30
0.0000000000
10
33.1596928019
20
-21.0465738165
30
0.0000000000
10
33.1632282531
20
-21.1447243119
30
0.0000000000
10
33.1624426935
20
-21.1928074936
30
0.0000000000
10
33.1647981167
20
-21.2069071372
30
0.0000000000
11
33.1565350625
21
-20.2503142309
31
0.0000000000
11
33.1568871259
21
-20.4923952811
31
0.0000000000
11
33.1577440252
21
-20.7174483283
31
0.0000000000
11
33.1590519768
21
-20.9116989761
31
0.0000000000
11
33.1607342215
21
-21.0636458675
31
0.0000000000
11
33.1626888224
21
-21.1640739422
31
0.0000000000
11
33.1647981167
21
-21.2069071372
31
0.0000000000
0
SPLINE
5
348
100
AcDbEntity
8
0
100
AcDbSpline
62
9
6
CONTINUOUS
70
0
71
3
72
12
73
8
74
6
42
0.0000001000
43
0.0000001000
44
0.0000000001
12
-0.1920878002
22
-0.4627758470
32
0.0000000000
13
-0.5010579533
23
-0.0003673968
33
0.0000000000
40
0.0000000000
40
0.0000000000
40
0.0000000000
40
0.0000000000
40
0.0546129504
40
0.1986086123
40
0.4190316711
40
0.6949417965
40
1.0000000000
40
1.0000000000
40
1.0000000000
40
1.0000000000
10
33.6564589101
20
-20.2292959167
30
0.0000000000
10
33.6529620829
20
-20.2377204348
30
0.0000000000
10
33.6087911230
20
-20.2325051797
30
0.0000000000
10
33.5487985233
20
-20.2457695786
30
0.0000000000
10
33.4369047444
20
-20.2455853208
30
0.0000000000
10
33.3050200501
20
-20.2500270680
30
0.0000000000
10
33.2074856756
20
-20.2502763380
30
0.0000000000
10
33.1565350625
20
-20.2503136971
30
0.0000000000
11
33.6564589101
21
-20.2292959167
31
0.0000000000
11
33.6298598809
21
-20.2357219888
31
0.0000000000
11
33.5579440654
21
-20.2415328012
31
0.0000000000
11
33.4475967869
21
-20.2461720186
31
0.0000000000
11
33.3093828524
21
-20.2491954750
31
0.0000000000
11
33.1565350625
21
-20.2503136971
31
0.0000000000
0
SPLINE
5
349
100
AcDbEntity
8
0
100
AcDbSpline
62
9
6
CONTINUOUS
70
0
71
3
72
12
73
8
74
6
42
0.0000001000
43
0.0000001000
44
0.0000000001
12
-0.0007145531
22
-0.7813571046
32
0.0000000000
13
-0.7813571062
23
-0.0007128133
33
0.0000000000
40
0.0000000000
40
0.0000000000
40
0.0000000000
40
0.0000000000
40
0.1998532782
40
0.3997964689
40
0.5998286573
40
0.7999149935
40
1.0000000000
40
1.0000000000
40
1.0000000000
40
1.0000000000
10
33.6647219643
20
-20.7075923698
30
0.0000000000
10
33.6646743624
20
-20.7596446294
30
0.0000000000
10
33.6480025187
20
-20.8644904868
30
0.0000000000
10
33.5757666025
20
-21.0057967766
30
0.0000000000
10
33.4633186645
20
-21.1180938495
30
0.0000000000
10
33.3218521001
20
-21.1902171672
30
0.0000000000
10
33.2169107306
20
-21.2068595961
30
0.0000000000
10
33.1647981167
20
-21.2069071372
30
0.0000000000
11
33.6647219643
21
-20.7075923698
31
0.0000000000
11
33.6401411372
21
-20.8618024308
31
0.0000000000
11
33.5690840750
21
-21.0009347421
31
0.0000000000
11
33.4584983179
21
-21.1113857676
31
0.0000000000
11
33.3191962884
21
-21.1823562579
31
0.0000000000
11
33.1647981167
21
-21.2069071372
31
0.0000000000
0
SPLINE
5
34A
100
AcDbEntity
8
0
100
AcDbSpline
62
9
6
CONTINUOUS
70
0
71
3
72
32
73
28
74
26
42
0.0000001000
43
0.0000001000
44
0.0000000001
12
-0.0000117171
22
-9.4186803783
32
0.0000000000
13
0.0000284419
23
9.4186803782
33
0.0000000000
40
0.0000000000
40
0.0000000000
40
0.0000000000
40
0.0000000000
40
0.0215080743
40
0.0441732964
40
0.0687337344
40
0.0956857499
40
0.1256053242
40
0.1590536662
40
0.1965799048
40
0.2387305598
40
0.2860634344
40
0.3391381525
40
0.3983221431
40
0.4625181989
40
0.5287008097
40
0.5935483525
40
0.6539380207
40
0.7081963863
40
0.7566038684
40
0.7997181144
40
0.8380995410
40
0.8722972547
40
0.9028581585
40
0.9303414580
40
0.9553181558
40
0.9783327027
40
1.0000000000
40
1.0000000000
40
1.0000000000
40
1.0000000000
10
25.6560000000
20
6.7215721433
30
0.0000000000
10
25.6559999160
20
6.6540462508
30
0.0000000000
10
25.6513198866
20
6.5153170560
30
0.0000000000
10
25.6291131032
20
6.3004946502
30
0.0000000000
10
25.5880523517
20
6.0710215387
30
0.0000000000
10
25.5227785430
20
5.8235199633
30
0.0000000000
10
25.4261845351
20
5.5564714153
30
0.0000000000
10
25.2891548474
20
5.2702363871
30
0.0000000000
10
25.1007036233
20
4.9682241909
30
0.0000000000
10
24.8483215931
20
4.6580000891
30
0.0000000000
10
24.5188119320
20
4.3526756501
30
0.0000000000
10
24.1004152103
20
4.0728003717
30
0.0000000000
10
23.5900795566
20
3.8491210079
30
0.0000000000
10
23.0051698353
20
3.7189344953
30
0.0000000000
10
22.3878376495
20
3.7103953996
30
0.0000000000
10
21.7938234922
20
3.8260987041
30
0.0000000000
10
21.2693198956
20
4.0413248290
30
0.0000000000
10
20.8361419938
20
4.3187638473
30
0.0000000000
10
20.4940662056
20
4.6254884786
30
0.0000000000
10
20.2317510417
20
4.9394018917
30
0.0000000000
10
20.0358347853
20
5.2463048911
30
0.0000000000
10
19.8934762764
20
5.5378397756
30
0.0000000000
10
19.7933009790
20
5.8100339871
30
0.0000000000
10
19.7258082569
20
6.0621263633
30
0.0000000000
10
19.6835031587
20
6.2955246697
30
0.0000000000
10
19.6607692297
20
6.5132195936
30
0.0000000000
10
19.6559997946
20
6.6535463606
30
0.0000000000
10
19.6560000000
20
6.7215721433
30
0.0000000000
11
25.6560000000
21
6.7215721433
31
0.0000000000
11
25.6491685512
21
6.5191096856
31
0.0000000000
11
25.6272184958
21
6.3067646752
31
0.0000000000
11
25.5864717688
21
6.0790546705
31
0.0000000000
11
25.5217355370
21
5.8335953642
31
0.0000000000
11
25.4258802155
21
5.5685960507
31
0.0000000000
11
25.2898427253
21
5.2844419983
31
0.0000000000
11
25.1027295757
21
4.9845855187
31
0.0000000000
11
24.8521803773
21
4.6766294891
31
0.0000000000
11
24.5251606227
21
4.3736319564
31
0.0000000000
11
24.1096442733
21
4.0957111393
31
0.0000000000
11
23.5990842797
21
3.8719649153
31
0.0000000000
11
23.0088794145
21
3.7406244252
31
0.0000000000
11
22.3855861538
21
3.7320049185
31
0.0000000000
11
21.7860708808
21
3.8487591190
31
0.0000000000
11
21.2598481118
21
4.0646590500
31
0.0000000000
11
20.8294908320
21
4.3402615628
31
0.0000000000
11
20.4900231701
21
4.6446265868
31
0.0000000000
11
20.2296275539
21
4.9562265277
31
0.0000000000
11
20.0351063258
21
5.2609320732
31
0.0000000000
11
19.8937702777
21
5.5503639561
31
0.0000000000
11
19.7943521628
21
5.8204932818
31
0.0000000000
11
19.7274051691
21
6.0705427633
31
0.0000000000
11
19.6854471506
21
6.3020183057
31
0.0000000000
11
19.6629329698
21
6.5176125934
31
0.0000000000
11
19.6560000000
21
6.7215721433
31
0.0000000000
0
SPLINE
5
34B
100
AcDbEntity
8
0
100
AcDbSpline
62
7
6
CONTINUOUS
70
0
71
3
72
13
73
9
74
7
42
0.0000001000
43
0.0000001000
44
0.0000000001
12
0.0000000000
22
-0.4287788272
32
0.0000000000
13
-0.3031810389
23
-0.3032037934
33
0.0000000000
40
0.0000000000
40
0.0000000000
40
0.0000000000
40
0.0000000000
40
0.0557694653
40
0.1872655180
40
0.3643359906
40
0.5680843212
40
0.7845372909
40
1.0000000000
40
1.0000000000
40
1.0000000000
40
1.0000000000
10
27.9060000000
20
-9.5320656078
30
0.0000000000
10
27.9060000000
20
-9.5400365298
30
0.0000000000
10
27.8771977399
20
-9.5559696653
30
0.0000000000
10
27.8492874795
20
-9.5962662373
30
0.0000000000
10
27.7944076157
20
-9.6473317502
30
0.0000000000
10
27.7356747380
20
-9.7085105169
30
0.0000000000
10
27.6712902285
20
-9.7728558211
30
0.0000000000
10
27.6277747360
20
-9.8165874481
30
0.0000000000
10
27.6060000000
20
-9.8383638183
30
0.0000000000
11
27.9060000000
21
-9.5320656078
31
0.0000000000
11
27.8901269884
21
-9.5499504583
31
0.0000000000
11
27.8510687400
21
-9.5906132756
31
0.0000000000
11
27.7979887696
21
-9.6448993796
31
0.0000000000
11
27.7366324368
21
-9.7070901264
31
0.0000000000
11
27.6712481834
21
-9.7729587771
31
0.0000000000
11
27.6060000000
21
-9.8383638183
31
0.0000000000
0
SPLINE
5
34C
100
AcDbEntity
8
0
100
AcDbSpline
62
7
6
CONTINUOUS
70
0
71
3
72
13
73
9
74
7
42
0.0000001000
43
0.0000001000
44
0.0000000001
12
0.0000000000
22
-0.4284159352
32
0.0000000000
13
-0.3029191964
23
-0.3029524286
33
0.0000000000
40
0.0000000000
40
0.0000000000
40
0.0000000000
40
0.0000000000
40
0.0555322668
40
0.1869223292
40
0.3639826637
40
0.5677953175
40
0.7843712437
40
1.0000000000
40
1.0000000000
40
1.0000000000
40
1.0000000000
10
15.2060000000
20
-8.6820553678
30
0.0000000000
10
15.2060000000
20
-8.6899856705
30
0.0000000000
10
15.1771171776
20
-8.7057330579
30
0.0000000000
10
15.1493012020
20
-8.7459850311
30
0.0000000000
10
15.0943865396
20
-8.7969244117
30
0.0000000000
10
15.0356703211
20
-8.8580512899
30
0.0000000000
10
14.9712826554
20
-8.9223569994
30
0.0000000000
10
14.9277726965
20
-8.9660784270
30
0.0000000000
10
14.9060000000
20
-8.9878535121
30
0.0000000000
11
15.2060000000
21
-8.6820553678
31
0.0000000000
11
15.1901269884
21
-8.6997769594
31
0.0000000000
11
15.1510687400
21
-8.7403105492
31
0.0000000000
11
15.0979887696
21
-8.7945006672
31
0.0000000000
11
15.0366324368
21
-8.8566262423
31
0.0000000000
11
14.9712481834
21
-8.9224584329
31
0.0000000000
11
14.9060000000
21
-8.9878535121
31
0.0000000000
0
SPLINE
5
34D
100
AcDbEntity
8
0
100
AcDbSpline
62
7
6
CONTINUOUS
70
0
71
3
72
13
73
9
74
7
42
0.0000001000
43
0.0000001000
44
0.0000000001
12
0.2809868014
22
0.3232322937
32
0.0000000000
13
0.3026978278
23
0.3027401076
33
0.0000000000
40
0.0000000000
40
0.0000000000
40
0.0000000000
40
0.0000000000
40
0.0537390942
40
0.1845245422
40
0.3611286694
40
0.5648313580
40
0.7822256547
40
1.0000000000
40
1.0000000000
40
1.0000000000
40
1.0000000000
10
25.3560000000
20
9.4180000000
30
0.0000000000
10
25.3610333254
20
9.4237900702
30
0.0000000000
10
25.3786827686
20
9.4433309963
30
0.0000000000
10
25.4149270577
20
9.4799888299
30
0.0000000000
10
25.4658787164
20
9.5321652323
30
0.0000000000
10
25.5259072096
20
9.5927630800
30
0.0000000000
10
25.5901575952
20
9.6574431545
30
0.0000000000
10
25.6340267262
20
9.7013968810
30
0.0000000000
10
25.6560000000
20
9.7233732239
30
0.0000000000
11
25.3560000000
21
9.4180000000
31
0.0000000000
11
25.3713872252
21
9.4351031793
31
0.0000000000
11
25.4102911096
21
9.4753700354
31
0.0000000000
11
25.4632379504
21
9.5293411271
31
0.0000000000
11
25.5245455601
21
9.5913607973
31
0.0000000000
11
25.5901455376
21
9.6573789101
31
0.0000000000
11
25.6560000000
21
9.7233732239
31
0.0000000000
0
SPLINE
5
34E
100
AcDbEntity
8
0
100
AcDbSpline
62
7
6
CONTINUOUS
70
0
71
3
72
13
73
9
74
7
42
0.0000001000
43
0.0000001000
44
0.0000000001
12
-0.0000000000
22
-0.4287788272
32
0.0000000000
13
0.3031810389
23
-0.3032037934
33
0.0000000000
40
0.0000000000
40
0.0000000000
40
0.0000000000
40
0.0000000000
40
0.0557694653
40
0.1872655180
40
0.3643359906
40
0.5680843212
40
0.7845372909
40
1.0000000000
40
1.0000000000
40
1.0000000000
40
1.0000000000
10
30.1060000000
20
-9.5320656078
30
0.0000000000
10
30.1060000000
20
-9.5400365298
30
0.0000000000
10
30.1348022601
20
-9.5559696653
30
0.0000000000
10
30.1627125205
20
-9.5962662373
30
0.0000000000
10
30.2175923843
20
-9.6473317502
30
0.0000000000
10
30.2763252620
20
-9.7085105169
30
0.0000000000
10
30.3407097715
20
-9.7728558211
30
0.0000000000
10
30.3842252640
20
-9.8165874481
30
0.0000000000
10
30.4060000000
20
-9.8383638183
30
0.0000000000
11
30.1060000000
21
-9.5320656078
31
0.0000000000
11
30.1218730116
21
-9.5499504583
31
0.0000000000
11
30.1609312600
21
-9.5906132756
31
0.0000000000
11
30.2140112304
21
-9.6448993796
31
0.0000000000
11
30.2753675632
21
-9.7070901264
31
0.0000000000
11
30.3407518166
21
-9.7729587771
31
0.0000000000
11
30.4060000000
21
-9.8383638183
31
0.0000000000
0
SPLINE
5
34F
100
AcDbEntity
8
0
100
AcDbSpline
62
9
6
CONTINUOUS
70
0
71
3
72
11
73
7
74
5
42
0.0000001000
43
0.0000001000
44
0.0000000001
12
-0.3000546060
22
-0.0000000000
32
0.0000000000
13
0.0000000000
23
-0.3000546060
33
0.0000000000
40
0.0000000000
40
0.0000000000
40
0.0000000000
40
0.0000000000
40
0.3826150776
40
0.7069896379
40
0.9237572196
40
1.0000000000
40
1.0000000000
40
1.0000000000
40
1.0000000000
10
25.6560000000
20
6.7215721433
30
0.0000000000
10
25.6177315279
20
6.7215721433
30
0.0000000000
10
25.5493479785
20
6.7193609790
30
0.0000000000
10
25.4487565638
20
6.7259357500
30
0.0000000000
10
25.4032109911
20
6.7107205808
30
0.0000000000
10
25.3560000000
20
6.7256256658
30
0.0000000000
10
25.3560000000
20
6.7180000000
30
0.0000000000
11
25.6560000000
21
6.7215721433
31
0.0000000000
11
25.5411949057
21
6.7213002297
31
0.0000000000
11
25.4438679051
21
6.7205258860
31
0.0000000000
11
25.3788361189
21
6.7193669994
31
0.0000000000
11
25.3560000000
21
6.7180000000
31
0.0000000000
0
SPLINE
5
350
100
AcDbEntity
8
0
100
AcDbSpline
62
7
6
CONTINUOUS
70
0
71
3
72
13
73
9
74
7
42
0.0000001000
43
0.0000001000
44
0.0000000001
12
0.3026978278
22
-0.3027401076
32
0.0000000000
13
0.2809868014
23
-0.3232322937
33
0.0000000000
40
0.0000000000
40
0.0000000000
40
0.0000000000
40
0.0000000000
40
0.2177743453
40
0.4351686420
40
0.6388713306
40
0.8154754578
40
0.9462609058
40
1.0000000000
40
1.0000000000
40
1.0000000000
40
1.0000000000
10
19.6560000000
20
9.7233732239
30
0.0000000000
10
19.6779732738
20
9.7013968810
30
0.0000000000
10
19.7218424048
20
9.6574431545
30
0.0000000000
10
19.7860927904
20
9.5927630800
30
0.0000000000
10
19.8461212836
20
9.5321652323
30
0.0000000000
10
19.8970729423
20
9.4799888299
30
0.0000000000
10
19.9333172314
20
9.4433309963
30
0.0000000000
10
19.9509666746
20
9.4237900702
30
0.0000000000
10
19.9560000000
20
9.4180000000
30
0.0000000000
11
19.6560000000
21
9.7233732239
31
0.0000000000
11
19.7218544624
21
9.6573789101
31
0.0000000000
11
19.7874544399
21
9.5913607973
31
0.0000000000
11
19.8487620496
21
9.5293411271
31
0.0000000000
11
19.9017088904
21
9.4753700354
31
0.0000000000
11
19.9406127748
21
9.4351031793
31
0.0000000000
11
19.9560000000
21
9.4180000000
31
0.0000000000
0
SPLINE
5
351
100
AcDbEntity
8
0
100
AcDbSpline
62
9
6
CONTINUOUS
70
0
71
3
72
11
73
7
74
5
42
0.0000001000
43
0.0000001000
44
0.0000000001
12
0.3000546060
22
0.0000000000
32
0.0000000000
13
0.0000000000
23
-0.3000546060
33
0.0000000000
40
0.0000000000
40
0.0000000000
40
0.0000000000
40
0.0000000000
40
0.3826148622
40
0.7069894362
40
0.9237571483
40
1.0000000000
40
1.0000000000
40
1.0000000000
40
1.0000000000
10
19.6560000000
20
6.7215721433
30
0.0000000000
10
19.6942684506
20
6.7215721433
30
0.0000000000
10
19.7626519818
20
6.7193609807
30
0.0000000000
10
19.8632433871
20
6.7259357506
30
0.0000000000
10
19.9087889753
20
6.7107205753
30
0.0000000000
10
19.9560000000
20
6.7256256729
30
0.0000000000
10
19.9560000000
20
6.7180000000
30
0.0000000000
11
19.6560000000
21
6.7215721433
31
0.0000000000
11
19.7708050297
21
6.7213002301
31
0.0000000000
11
19.8681320344
21
6.7205258867
31
0.0000000000
11
19.9331638598
21
6.7193670001
31
0.0000000000
11
19.9560000000
21
6.7180000000
31
0.0000000000
0
SPLINE
5
352
100
AcDbEntity
8
0
100
AcDbSpline
62
7
6
CONTINUOUS
70
0
71
3
72
13
73
9
74
7
42
0.0000001000
43
0.0000001000
44
0.0000000001
12
-0.2993132098
22
-0.2994002729
32
0.0000000000
13
-0.3048433200
23
-0.2937859574
33
0.0000000000
40
0.0000000000
40
0.0000000000
40
0.0000000000
40
0.0000000000
40
0.2174142321
40
0.4355056813
40
0.6402382905
40
0.8172506823
40
0.9472823258
40
1.0000000000
40
1.0000000000
40
1.0000000000
40
1.0000000000
10
17.7060000000
20
-1.3832907745
30
0.0000000000
10
17.6843083494
20
-1.4049887346
30
0.0000000000
10
17.6408483741
20
-1.4484431595
30
0.0000000000
10
17.5769192626
20
-1.5122870373
30
0.0000000000
10
17.5170025147
20
-1.5720805763
30
0.0000000000
10
17.4657835217
20
-1.6229963068
30
0.0000000000
10
17.4298360744
20
-1.6588484930
30
0.0000000000
10
17.4113568769
20
-1.6768374292
30
0.0000000000
10
17.4060000000
20
-1.6820000000
30
0.0000000000
11
17.7060000000
21
-1.3832907745
31
0.0000000000
11
17.6409094343
21
-1.4483690417
31
0.0000000000
11
17.5755812585
21
-1.5136151325
31
0.0000000000
11
17.5142124722
21
-1.5748224145
31
0.0000000000
11
17.4610980415
21
-1.6276873970
31
0.0000000000
11
17.4220000487
21
-1.6664403384
31
0.0000000000
11
17.4060000000
21
-1.6820000000
31
0.0000000000
0
SPLINE
5
353
100
AcDbEntity
8
0
100
AcDbSpline
62
7
6
CONTINUOUS
70
0
71
3
72
13
73
9
74
7
42
0.0000001000
43
0.0000001000
44
0.0000000001
12
0.2993132098
22
-0.2994002729
32
0.0000000000
13
0.3048433200
23
-0.2937859574
33
0.0000000000
40
0.0000000000
40
0.0000000000
40
0.0000000000
40
0.0000000000
40
0.2174142321
40
0.4355056813
40
0.6402382905
40
0.8172506823
40
0.9472823258
40
1.0000000000
40
1.0000000000
40
1.0000000000
40
1.0000000000
10
14.9060000000
20
-1.3832907745
30
0.0000000000
10
14.9276916506
20
-1.4049887346
30
0.0000000000
10
14.9711516259
20
-1.4484431595
30
0.0000000000
10
15.0350807374
20
-1.5122870373
30
0.0000000000
10
15.0949974853
20
-1.5720805763
30
0.0000000000
10
15.1462164783
20
-1.6229963068
30
0.0000000000
10
15.1821639256
20
-1.6588484930
30
0.0000000000
10
15.2006431231
20
-1.6768374292
30
0.0000000000
10
15.2060000000
20
-1.6820000000
30
0.0000000000
11
14.9060000000
21
-1.3832907745
31
0.0000000000
11
14.9710905657
21
-1.4483690417
31
0.0000000000
11
15.0364187415
21
-1.5136151325
31
0.0000000000
11
15.0977875278
21
-1.5748224145
31
0.0000000000
11
15.1509019585
21
-1.6276873970
31
0.0000000000
11
15.1899999513
21
-1.6664403384
31
0.0000000000
11
15.2060000000
21
-1.6820000000
31
0.0000000000
0
SPLINE
5
354
100
AcDbEntity
8
0
100
AcDbSpline
62
7
6
CONTINUOUS
70
0
71
3
72
13
73
9
74
7
42
0.0000001000
43
0.0000001000
44
0.0000000001
12
0.0000000000
22
-0.4284159352
32
0.0000000000
13
0.3029191964
23
-0.3029524286
33
0.0000000000
40
0.0000000000
40
0.0000000000
40
0.0000000000
40
0.0000000000
40
0.0555322668
40
0.1869223292
40
0.3639826637
40
0.5677953175
40
0.7843712437
40
1.0000000000
40
1.0000000000
40
1.0000000000
40
1.0000000000
10
17.4060000000
20
-8.6820553678
30
0.0000000000
10
17.4060000000
20
-8.6899856705
30
0.0000000000
10
17.4348828224
20
-8.7057330579
30
0.0000000000
10
17.4626987980
20
-8.7459850311
30
0.0000000000
10
17.5176134604
20
-8.7969244117
30
0.0000000000
10
17.5763296789
20
-8.8580512899
30
0.0000000000
10
17.6407173446
20
-8.9223569994
30
0.0000000000
10
17.6842273035
20
-8.9660784270
30
0.0000000000
10
17.7060000000
20
-8.9878535121
30
0.0000000000
11
17.4060000000
21
-8.6820553678
31
0.0000000000
11
17.4218730116
21
-8.6997769594
31
0.0000000000
11
17.4609312600
21
-8.7403105492
31
0.0000000000
11
17.5140112304
21
-8.7945006672
31
0.0000000000
11
17.5753675632
21
-8.8566262423
31
0.0000000000
11
17.6407518166
21
-8.9224584329
31
0.0000000000
11
17.7060000000
21
-8.9878535121
31
0.0000000000
0
SPLINE
5
355
100
AcDbEntity
8
0
100
AcDbSpline
62
7
6
CONTINUOUS
70
0
71
3
72
13
73
9
74
7
42
0.0000001000
43
0.0000001000
44
0.0000000001
12
-0.2995661460
22
-0.2996550422
32
0.0000000000
13
-0.3030762127
23
-0.2961116563
33
0.0000000000
40
0.0000000000
40
0.0000000000
40
0.0000000000
40
0.0000000000
40
0.2174452139
40
0.4354859338
40
0.6401422486
40
0.8171253418
40
0.9472147478
40
1.0000000000
40
1.0000000000
40
1.0000000000
40
1.0000000000
10
30.4060000000
20
-0.5327804683
30
0.0000000000
10
30.3842869251
20
-0.5544999865
30
0.0000000000
10
30.3407958203
20
-0.5979930255
30
0.0000000000
10
30.2768421167
20
-0.6619015485
30
0.0000000000
10
30.2169169239
20
-0.7217567999
30
0.0000000000
10
30.1657179360
20
-0.7727702865
30
0.0000000000
10
30.1297499847
20
-0.8086810957
30
0.0000000000
10
30.1113326514
20
-0.8267898905
30
0.0000000000
10
30.1060000000
20
-0.8320000000
30
0.0000000000
11
30.4060000000
21
-0.5327804683
31
0.0000000000
11
30.3408512244
21
-0.5979294735
31
0.0000000000
11
30.2755023391
21
-0.6632352018
31
0.0000000000
11
30.2141381423
21
-0.7245053704
31
0.0000000000
11
30.1610364312
21
-0.7774555717
31
0.0000000000
11
30.1219530978
21
-0.8163242721
31
0.0000000000
11
30.1060000000
21
-0.8320000000
31
0.0000000000
0
SPLINE
5
356
100
AcDbEntity
8
0
100
AcDbSpline
62
9
6
CONTINUOUS
70
0
71
3
72
12
73
8
74
6
42
0.0000001000
43
0.0000001000
44
0.0000000001
12
-0.0261472364
22
-0.4990710014
32
0.0000000000
13
0.4990705851
23
-0.0261551811
33
0.0000000000
40
0.0000000000
40
0.0000000000
40
0.0000000000
40
0.0000000000
40
0.3089507472
40
0.5876147127
40
0.8087596430
40
0.9507934519
40
1.0000000000
40
1.0000000000
40
1.0000000000
40
1.0000000000
10
-30.4874658437
20
-20.7075923698
30
0.0000000000
10
-30.4901585798
20
-20.7589884894
30
0.0000000000
10
-30.4958148278
20
-20.8576547081
30
0.0000000000
10
-30.4986817523
20
-20.9887844814
30
0.0000000000
10
-30.5103935727
20
-21.1045184816
30
0.0000000000
10
-30.4970661442
20
-21.1562228488
30
0.0000000000
10
-30.5130934655
20
-21.2064781351
30
0.0000000000
10
-30.5049076186
20
-21.2069071372
30
0.0000000000
11
-30.4874658437
21
-20.7075923698
31
0.0000000000
11
-30.4951185907
21
-20.8618024308
31
0.0000000000
11
-30.5011699007
21
-21.0009347421
31
0.0000000000
11
-30.5050281123
21
-21.1113857676
31
0.0000000000
11
-30.5063159924
21
-21.1823562579
31
0.0000000000
11
-30.5049076186
21
-21.2069071372
31
0.0000000000
0
SPLINE
5
357
100
AcDbEntity
8
0
100
AcDbSpline
62
9
6
CONTINUOUS
70
0
71
3
72
13
73
9
74
7
42
0.0000001000
43
0.0000001000
44
0.0000000001
12
-0.7353218734
22
-0.0384735639
32
0.0000000000
13
-0.0307207369
23
-0.7356865561
33
0.0000000000
40
0.0000000000
40
0.0000000000
40
0.0000000000
40
0.0000000000
40
0.1661512074
40
0.3329563582
40
0.4997455220
40
0.6664898634
40
0.8333569675
40
1.0000000000
40
1.0000000000
40
1.0000000000
40
1.0000000000
10
-30.4874658437
20
22.2435923698
30
0.0000000000
10
-30.5281907161
20
22.2414615601
30
0.0000000000
10
-30.6096241840
20
22.2270781956
30
0.0000000000
10
-30.7226548447
20
22.1764559894
30
0.0000000000
10
-30.8201384745
20
22.0997209919
30
0.0000000000
10
-30.8959544984
20
22.0015005264
30
0.0000000000
10
-30.9455397705
20
21.8878753319
30
0.0000000000
10
-30.9591494351
20
21.8061615962
30
0.0000000000
10
-30.9608559007
20
21.7652959167
30
0.0000000000
11
-30.4874658437
21
22.2435923698
31
0.0000000000
11
-30.6079386086
21
22.2222894797
31
0.0000000000
11
-30.7200444035
21
22.1721113772
31
0.0000000000
11
-30.8165336817
21
22.0961345459
31
0.0000000000
11
-30.8915695913
21
21.9989534442
31
0.0000000000
11
-30.9406934721
21
21.8863319385
31
0.0000000000
11
-30.9608559007
21
21.7652959167
31
0.0000000000
0
SPLINE
5
358
100
AcDbEntity
8
0
100
AcDbSpline
62
9
6
CONTINUOUS
70
0
71
3
72
12
73
8
74
6
42
0.0000001000
43
0.0000001000
44
0.0000000001
12
-0.0261471310
22
0.4990710022
32
0.0000000000
13
0.4990705804
23
0.0261551808
33
0.0000000000
40
0.0000000000
40
0.0000000000
40
0.0000000000
40
0.0000000000
40
0.3089439567
40
0.5876063888
40
0.8087539482
40
0.9507916150
40
1.0000000000
40
1.0000000000
40
1.0000000000
40
1.0000000000
10
-30.4874658437
20
22.2435923698
30
0.0000000000
10
-30.4901585097
20
22.2949873599
30
0.0000000000
10
-30.4958146537
20
22.3936521596
30
0.0000000000
10
-30.4986815820
20
22.5247810517
30
0.0000000000
10
-30.5103935446
20
22.6405159018
30
0.0000000000
10
-30.4970657688
20
22.6922212962
30
0.0000000000
10
-30.5130937727
20
22.7424781191
30
0.0000000000
10
-30.5049076202
20
22.7429071371
30
0.0000000000
11
-30.4874658437
21
22.2435923698
31
0.0000000000
11
-30.4951184056
21
22.3977990407
31
0.0000000000
11
-30.5011696951
21
22.5369305846
31
0.0000000000
11
-30.5050279915
21
22.6473829208
31
0.0000000000
11
-30.5063159680
21
22.7183553370
31
0.0000000000
11
-30.5049076202
21
22.7429071371
31
0.0000000000
0
SPLINE
5
359
100
AcDbEntity
8
0
100
AcDbSpline
62
9
6
CONTINUOUS
70
0
71
3
72
10
73
6
74
4
42
0.0000001000
43
0.0000001000
44
0.0000000001
12
-1.7657696272
22
-41.9684643863
32
0.0000000000
13
1.7657702297
23
-41.9684643609
33
0.0000000000
40
0.0000000000
40
0.0000000000
40
0.0000000000
40
0.0000000000
40
0.3333324878
40
0.6666669353
40
1.0000000000
40
1.0000000000
40
1.0000000000
40
1.0000000000
10
-30.9608559007
20
21.7652959167
30
0.0000000000
10
-31.1570520283
20
17.1021450351
30
0.0000000000
10
-31.4187348540
20
7.7697658482
30
0.0000000000
10
-31.4187351090
20
-6.2337496892
30
0.0000000000
10
-31.1570524348
20
-15.5661369677
30
0.0000000000
10
-30.9608559007
20
-20.2292959167
30
0.0000000000
11
-30.9608559007
21
21.7652959167
31
0.0000000000
11
-31.3533138055
21
7.7689678848
31
0.0000000000
11
-31.3533141266
21
-6.2329436522
31
0.0000000000
11
-30.9608559007
21
-20.2292959167
31
0.0000000000
0
SPLINE
5
35A
100
AcDbEntity
8
0
100
AcDbSpline
62
9
6
CONTINUOUS
70
0
71
3
72
13
73
9
74
7
42
0.0000001000
43
0.0000001000
44
0.0000000001
12
0.0307207121
22
-0.7356865572
32
0.0000000000
13
0.7353218715
23
-0.0384735991
33
0.0000000000
40
0.0000000000
40
0.0000000000
40
0.0000000000
40
0.0000000000
40
0.1666430324
40
0.3335101365
40
0.5002544780
40
0.6670436418
40
0.8338487925
40
1.0000000000
40
1.0000000000
40
1.0000000000
40
1.0000000000
10
-30.9608559007
20
-20.2292959167
30
0.0000000000
10
-30.9591494365
20
-20.2701615963
30
0.0000000000
10
-30.9455397694
20
-20.3518753317
30
0.0000000000
10
-30.8959544989
20
-20.4655005266
30
0.0000000000
10
-30.8201384745
20
-20.5637209921
30
0.0000000000
10
-30.7226548445
20
-20.6404559887
30
0.0000000000
10
-30.6096241842
20
-20.6910781970
30
0.0000000000
10
-30.5281907160
20
-20.7054615582
30
0.0000000000
10
-30.4874658437
20
-20.7075923698
30
0.0000000000
11
-30.9608559007
21
-20.2292959167
31
0.0000000000
11
-30.9406934719
21
-20.3503319385
31
0.0000000000
11
-30.8915695914
21
-20.4629534443
31
0.0000000000
11
-30.8165336817
21
-20.5601345459
31
0.0000000000
11
-30.7200444034
21
-20.6361113770
31
0.0000000000
11
-30.6079386087
21
-20.6862894799
31
0.0000000000
11
-30.4874658437
21
-20.7075923698
31
0.0000000000
0
SPLINE
5
35B
100
AcDbEntity
8
0
100
AcDbSpline
62
7
6
CONTINUOUS
70
0
71
3
72
10
73
6
74
4
42
0.0000001000
43
0.0000001000
44
0.0000000001
12
-4.0000360299
22
-0.0287443498
32
0.0000000000
13
-3.9999639243
23
-0.0374577365
33
0.0000000000
40
0.0000000000
40
0.0000000000
40
0.0000000000
40
0.0000000000
40
0.3303029973
40
0.6636439357
40
1.0000000000
40
1.0000000000
40
1.0000000000
40
1.0000000000
10
-18.3936525987
20
-21.8618666026
30
0.0000000000
10
-18.8340605620
20
-21.8650313843
30
0.0000000000
10
-19.7189245097
20
-21.8717571456
30
0.0000000000
10
-21.0522578864
20
-21.8828921323
30
0.0000000000
10
-21.9451818910
20
-21.8909669097
30
0.0000000000
10
-22.3936525987
20
-21.8951666220
30
0.0000000000
11
-18.3936525987
21
-21.8618666026
31
0.0000000000
11
-19.7148725747
21
-21.8718908175
31
0.0000000000
11
-21.0482363901
21
-21.8830115990
31
0.0000000000
11
-22.3936525987
21
-21.8951666220
31
0.0000000000
0
SPLINE
5
35C
100
AcDbEntity
8
0
100
AcDbSpline
62
7
6
CONTINUOUS
70
0
71
3
72
10
73
6
74
4
42
0.0000001000
43
0.0000001000
44
0.0000000001
12
-4.0000360299
22
0.0287443498
32
0.0000000000
13
-3.9999639243
23
0.0374577365
33
0.0000000000
40
0.0000000000
40
0.0000000000
40
0.0000000000
40
0.0000000000
40
0.3303029973
40
0.6636439357
40
1.0000000000
40
1.0000000000
40
1.0000000000
40
1.0000000000
10
-18.3936525987
20
23.3978666026
30
0.0000000000
10
-18.8340605620
20
23.4010313843
30
0.0000000000
10
-19.7189245097
20
23.4077571456
30
0.0000000000
10
-21.0522578864
20
23.4188921323
30
0.0000000000
10
-21.9451818910
20
23.4269669097
30
0.0000000000
10
-22.3936525987
20
23.4311666220
30
0.0000000000
11
-18.3936525987
21
23.3978666026
31
0.0000000000
11
-19.7148725747
21
23.4078908175
31
0.0000000000
11
-21.0482363901
21
23.4190115990
31
0.0000000000
11
-22.3936525987
21
23.4311666220
31
0.0000000000
0
SPLINE
5
35D
100
AcDbEntity
8
0
100
AcDbSpline
62
9
6
CONTINUOUS
70
0
71
3
72
13
73
9
74
7
42
0.0000001000
43
0.0000001000
44
0.0000000001
12
0.4005020527
22
1.1471287760
32
0.0000000000
13
1.2148477661
23
0.0212421355
33
0.0000000000
40
0.0000000000
40
0.0000000000
40
0.0000000000
40
0.0000000000
40
0.1980260105
40
0.3892760870
40
0.5655623461
40
0.7252072555
40
0.8696689846
40
1.0000000000
40
1.0000000000
40
1.0000000000
40
1.0000000000
10
-12.8289794488
20
-15.2935550106
30
0.0000000000
10
-12.8025428409
20
-15.2178345656
30
0.0000000000
10
-12.7322216010
20
-15.0746889378
30
0.0000000000
10
-12.5844431646
20
-14.8970871271
30
0.0000000000
10
-12.4135870401
20
-14.7662803883
30
0.0000000000
10
-12.2371772715
20
-14.6813339462
30
0.0000000000
10
-12.0664701696
20
-14.6352111882
30
0.0000000000
10
-11.9551562495
20
-14.6244237728
30
0.0000000000
10
-11.9023788019
20
-14.6235009364
30
0.0000000000
11
-12.8289794488
21
-15.2935550106
31
0.0000000000
11
-12.7228733085
21
-15.0776063888
31
0.0000000000
11
-12.5742835467
21
-14.8989465544
31
0.0000000000
11
-12.4042041104
21
-14.7687469832
31
0.0000000000
11
-12.2294463126
21
-14.6845710431
31
0.0000000000
11
-12.0599953123
21
-14.6387924742
31
0.0000000000
11
-11.9023788019
21
-14.6235009364
31
0.0000000000
0
SPLINE
5
35E
100
AcDbEntity
8
0
100
AcDbSpline
62
9
6
CONTINUOUS
70
0
71
3
72
9
73
5
74
3
42
0.0000001000
43
0.0000001000
44
0.0000000001
12
-1.5380045650
22
-1.5658040921
32
0.0000000000
13
-1.5380425628
23
-1.5657667680
33
0.0000000000
40
0.0000000000
40
0.0000000000
40
0.0000000000
40
0.0000000000
40
0.5123933296
40
1.0000000000
40
1.0000000000
40
1.0000000000
40
1.0000000000
10
-12.8849263955
20
-18.6737252764
30
0.0000000000
10
-13.1476141555
20
-18.9411611338
30
0.0000000000
10
-13.6600342203
20
-19.4633394937
30
0.0000000000
10
-14.1727529363
20
-19.9852245782
30
0.0000000000
10
-14.4227395406
20
-20.2397173517
30
0.0000000000
11
-12.8849263955
21
-18.6737252764
31
0.0000000000
11
-13.6728138118
21
-19.4762055522
31
0.0000000000
11
-14.4227395406
21
-20.2397173517
31
0.0000000000
0
SPLINE
5
35F
100
AcDbEntity
8
0
100
AcDbSpline
62
9
6
CONTINUOUS
70
0
71
3
72
13
73
9
74
7
42
0.0000001000
43
0.0000001000
44
0.0000000001
12
-1.2148361017
22
0.0211991931
32
0.0000000000
13
-0.4005279026
23
1.1471066031
33
0.0000000000
40
0.0000000000
40
0.0000000000
40
0.0000000000
40
0.0000000000
40
0.1298337316
40
0.2724323647
40
0.4319093797
40
0.6073511331
40
0.7987871446
40
1.0000000000
40
1.0000000000
40
1.0000000000
40
1.0000000000
10
-11.9023788019
20
16.1595009364
30
0.0000000000
10
-11.9549543700
20
16.1604183932
30
0.0000000000
10
-12.0653114186
20
16.1710849748
30
0.0000000000
10
-12.2350772469
20
16.2166348431
30
0.0000000000
10
-12.4106818369
20
16.3005473712
30
0.0000000000
10
-12.5817279849
20
16.4305159715
30
0.0000000000
10
-12.7308801410
20
16.6083115674
30
0.0000000000
10
-12.8021156611
20
16.7526174789
30
0.0000000000
10
-12.8289794488
20
16.8295550106
30
0.0000000000
11
-11.9023788019
21
16.1595009364
31
0.0000000000
11
-12.0593967650
21
16.1746880381
31
0.0000000000
11
-12.2267390240
21
16.2195847447
31
0.0000000000
11
-12.4015621781
21
16.3031483479
31
0.0000000000
11
-12.5712941363
21
16.4321078778
31
0.0000000000
11
-12.7207412731
21
16.6103429691
31
0.0000000000
11
-12.8289794488
21
16.8295550106
31
0.0000000000
0
SPLINE
5
360
100
AcDbEntity
8
0
100
AcDbSpline
62
9
6
CONTINUOUS
70
0
71
3
72
10
73
6
74
4
42
0.0000001000
43
0.0000001000
44
0.0000000001
12
0.0000000000
22
0.2344051604
32
0.0000000000
13
0.2343109725
23
0.0066443491
33
0.0000000000
40
0.0000000000
40
0.0000000000
40
0.0000000000
40
0.0000000000
40
0.2480721802
40
0.5866282078
40
1.0000000000
40
1.0000000000
40
1.0000000000
40
1.0000000000
10
2.6063474013
20
-11.5226728002
30
0.0000000000
10
2.6063474013
20
-11.5032896672
30
0.0000000000
10
2.6325689893
20
-11.4590112874
30
0.0000000000
10
2.7049038618
20
-11.4251623518
30
0.0000000000
10
2.7635943612
20
-11.4155199797
30
0.0000000000
10
2.7958802101
20
-11.4146044509
30
0.0000000000
11
2.6063474013
21
-11.5226728002
31
0.0000000000
11
2.6314236084
21
-11.4702081791
31
0.0000000000
11
2.7003637725
21
-11.4308997947
31
0.0000000000
11
2.7958802101
21
-11.4146044509
31
0.0000000000
0
SPLINE
5
361
100
AcDbEntity
8
0
100
AcDbSpline
62
9
6
CONTINUOUS
70
0
71
3
72
10
73
6
74
4
42
0.0000001000
43
0.0000001000
44
0.0000000001
12
0.0000000000
22
-0.2344052601
32
0.0000000000
13
0.2343110862
23
-0.0066438601
33
0.0000000000
40
0.0000000000
40
0.0000000000
40
0.0000000000
40
0.0000000000
40
0.2480731024
40
0.5866291174
40
1.0000000000
40
1.0000000000
40
1.0000000000
40
1.0000000000
10
2.6063474013
20
-6.2413271998
30
0.0000000000
10
2.6063474013
20
-6.2607104131
30
0.0000000000
10
2.6325689979
20
-6.3049889132
30
0.0000000000
10
2.7049039468
20
-6.3388378257
30
0.0000000000
10
2.7635944166
20
-6.3484800897
30
0.0000000000
10
2.7958802101
20
-6.3493955491
30
0.0000000000
11
2.6063474013
21
-6.2413271998
31
0.0000000000
11
2.6314236945
21
-6.2937920467
31
0.0000000000
11
2.7003639146
21
-6.3331003952
31
0.0000000000
11
2.7958802101
21
-6.3493955491
31
0.0000000000
0
SPLINE
5
362
100
AcDbEntity
8
0
100
AcDbSpline
62
7
6
CONTINUOUS
70
0
71
3
72
9
73
5
74
3
42
0.0000001000
43
0.0000001000
44
0.0000000001
12
-0.0631106267
22
0.0668407208
32
0.0000000000
13
-0.0611705844
23
0.0686380711
33
0.0000000000
40
0.0000000000
40
0.0000000000
40
0.0000000000
40
0.0000000000
40
0.8934446807
40
1.0000000000
40
1.0000000000
40
1.0000000000
40
1.0000000000
10
-18.1971430466
20
21.8418952231
30
0.0000000000
10
-18.2159383311
20
21.8618013853
30
0.0000000000
10
-18.2369407554
20
21.8841170067
30
0.0000000000
10
-18.2573983871
20
21.9069357813
30
0.0000000000
10
-18.2595710708
20
21.9093736985
30
0.0000000000
11
-18.1971430466
21
21.8418952231
31
0.0000000000
11
-18.2530324626
21
21.9020785705
31
0.0000000000
11
-18.2595710708
21
21.9093736985
31
0.0000000000
0
SPLINE
5
363
100
AcDbEntity
8
0
100
AcDbSpline
62
7
6
CONTINUOUS
70
0
71
3
72
11
73
7
74
5
42
0.0000001000
43
0.0000001000
44
0.0000000001
12
-0.1707669975
22
0.1916136231
32
0.0000000000
13
-0.0480168319
23
0.2520969850
33
0.0000000000
40
0.0000000000
40
0.0000000000
40
0.0000000000
40
0.0000000000
40
0.2586596452
40
0.5299681559
40
0.7758891023
40
1.0000000000
40
1.0000000000
40
1.0000000000
40
1.0000000000
10
-18.2595710708
20
21.9093736985
30
0.0000000000
10
-18.2742945812
20
21.9258946024
30
0.0000000000
10
-18.3037854849
20
21.9603517052
30
0.0000000000
10
-18.3430199414
20
22.0140401594
30
0.0000000000
10
-18.3737581856
20
22.0697456227
30
0.0000000000
10
-18.3865332820
20
22.1082844802
30
0.0000000000
10
-18.3901203138
20
22.1271170407
30
0.0000000000
11
-18.2595710708
21
21.9093736985
31
0.0000000000
11
-18.3024403718
21
21.9600568462
31
0.0000000000
11
-18.3430080983
21
22.0166429996
31
0.0000000000
11
-18.3728246512
21
22.0722658853
31
0.0000000000
11
-18.3901203138
21
22.1271170407
31
0.0000000000
0
SPLINE
5
364
100
AcDbEntity
8
0
100
AcDbSpline
62
7
6
CONTINUOUS
70
0
71
3
72
8
73
4
74
2
42
0.0000001000
43
0.0000001000
44
0.0000000001
12
0.0034016176
22
0.0178590919
32
0.0000000000
13
0.0048103203
23
0.0175587703
33
0.0000000000
40
0.0000000000
40
0.0000000000
40
0.0000000000
40
0.0000000000
40
1.0000000000
40
1.0000000000
40
1.0000000000
40
1.0000000000
10
-18.3901203138
20
-20.5911170407
30
0.0000000000
10
-18.3889864413
20
-20.5851640101
30
0.0000000000
10
-18.3876022801
20
-20.5792566256
30
0.0000000000
10
-18.3859988400
20
-20.5734037021
30
0.0000000000
11
-18.3901203138
21
-20.5911170407
31
0.0000000000
11
-18.3859988400
21
-20.5734037021
31
0.0000000000
0
SPLINE
5
365
100
AcDbEntity
8
0
100
AcDbSpline
62
7
6
CONTINUOUS
70
0
71
3
72
12
73
8
74
6
42
0.0000001000
43
0.0000001000
44
0.0000000001
12
0.0800392868
22
0.2921617191
32
0.0000000000
13
0.2069300208
23
0.2206572842
33
0.0000000000
40
0.0000000000
40
0.0000000000
40
0.0000000000
40
0.0000000000
40
0.1260904880
40
0.3348305689
40
0.5674220767
40
0.8213816944
40
1.0000000000
40
1.0000000000
40
1.0000000000
40
1.0000000000
10
-18.3859988400
20
-20.5734037021
30
0.0000000000
10
-18.3826347757
20
-20.5611240976
30
0.0000000000
10
-18.3711384926
20
-20.5291524517
30
0.0000000000
10
-18.3435442454
20
-20.4788090454
30
0.0000000000
10
-18.3021564116
20
-20.4220530426
30
0.0000000000
10
-18.2582378505
20
-20.3713111295
30
0.0000000000
10
-18.2285766547
20
-20.3393286620
30
0.0000000000
10
-18.2162561582
20
-20.3261908519
30
0.0000000000
11
-18.3859988400
21
-20.5734037021
31
0.0000000000
11
-18.3732974035
21
-20.5373654633
31
0.0000000000
11
-18.3436285048
21
-20.4816255950
31
0.0000000000
11
-18.3027056180
21
-20.4243915949
31
0.0000000000
11
-18.2528843068
21
-20.3659140952
31
0.0000000000
11
-18.2162561582
21
-20.3261908519
31
0.0000000000
0
SPLINE
5
366
100
AcDbEntity
8
0
100
AcDbSpline
62
7
6
CONTINUOUS
70
0
71
3
72
8
73
4
74
2
42
0.0000001000
43
0.0000001000
44
0.0000000001
12
0.0190706156
22
0.0203357166
32
0.0000000000
13
0.0191398660
23
0.0202699680
33
0.0000000000
40
0.0000000000
40
0.0000000000
40
0.0000000000
40
0.0000000000
40
1.0000000000
40
1.0000000000
40
1.0000000000
40
1.0000000000
10
-18.2162561582
20
-20.3261908519
30
0.0000000000
10
-18.2098992863
20
-20.3194122797
30
0.0000000000
10
-18.2035230029
20
-20.3126518791
30
0.0000000000
10
-18.1971430476
20
-20.3058952231
30
0.0000000000
11
-18.2162561582
21
-20.3261908519
31
0.0000000000
11
-18.1971430476
21
-20.3058952231
31
0.0000000000
0
SPLINE
5
367
100
AcDbEntity
8
0
100
AcDbSpline
62
9
6
CONTINUOUS
70
0
71
3
72
11
73
7
74
5
42
0.0000001000
43
0.0000001000
44
0.0000000001
12
0.0087242968
22
-0.4999669137
32
0.0000000000
13
-0.4999668673
23
-0.0087269541
33
0.0000000000
40
0.0000000000
40
0.0000000000
40
0.0000000000
40
0.0000000000
40
0.3825592777
40
0.7068734192
40
0.9236228949
40
1.0000000000
40
1.0000000000
40
1.0000000000
40
1.0000000000
10
-11.9023788019
20
-14.6235009364
30
0.0000000000
10
-11.9012662817
20
-14.6872565969
30
0.0000000000
10
-11.9028627353
20
-14.8012673373
30
0.0000000000
10
-11.8902752201
20
-14.9686023260
30
0.0000000000
10
-11.9134858304
20
-15.0450714952
30
0.0000000000
10
-11.8896501279
20
-15.1232026041
30
0.0000000000
10
-11.9023788019
20
-15.1234247840
30
0.0000000000
11
-11.9023788019
21
-14.6235009364
31
0.0000000000
11
-11.8997050476
21
-14.8147783488
31
0.0000000000
11
-11.8987661692
21
-14.9769466558
31
0.0000000000
11
-11.8997050476
21
-15.0853266529
31
0.0000000000
11
-11.9023788019
21
-15.1234247840
31
0.0000000000
0
SPLINE
5
368
100
AcDbEntity
8
0
100
AcDbSpline
62
9
6
CONTINUOUS
70
0
71
3
72
12
73
8
74
6
42
0.0000001000
43
0.0000001000
44
0.0000000001
12
0.0087246128
22
-0.4999850185
32
0.0000000000
13
-0.4999849721
23
-0.0087272702
33
0.0000000000
40
0.0000000000
40
0.0000000000
40
0.0000000000
40
0.0000000000
40
0.3098579557
40
0.5892097349
40
0.8103191748
40
0.9518361988
40
1.0000000000
40
1.0000000000
40
1.0000000000
40
1.0000000000
10
2.1150736045
20
-14.3788253945
30
0.0000000000
10
2.1159747348
20
-14.4304668398
30
0.0000000000
10
2.1181936644
20
-14.5296050022
30
0.0000000000
10
2.1164661277
20
-14.6610667573
30
0.0000000000
10
2.1241398655
20
-14.7772760496
30
0.0000000000
10
2.1090556535
20
-14.8282634056
30
0.0000000000
10
2.1231006635
20
-14.8786091293
30
0.0000000000
10
2.1150736045
20
-14.8787492421
30
0.0000000000
11
2.1150736045
21
-14.3788253945
31
0.0000000000
11
2.1173474898
21
-14.5337566295
31
0.0000000000
11
2.1185382772
21
-14.6734445215
31
0.0000000000
11
2.1185291158
21
-14.7840127583
31
0.0000000000
11
2.1173226744
21
-14.8547696373
31
0.0000000000
11
2.1150736045
21
-14.8787492421
31
0.0000000000
0
SPLINE
5
369
100
AcDbEntity
8
0
100
AcDbSpline
62
9
6
CONTINUOUS
70
0
71
3
72
11
73
7
74
5
42
0.0000001000
43
0.0000001000
44
0.0000000001
12
0.4642686781
22
-0.1622359463
32
0.0000000000
13
-0.1621131936
23
-0.4643115551
33
0.0000000000
40
0.0000000000
40
0.0000000000
40
0.0000000000
40
0.0000000000
40
0.3838992151
40
0.7080668718
40
0.9241685776
40
1.0000000000
40
1.0000000000
40
1.0000000000
40
1.0000000000
10
-12.8289799130
20
-15.2935550061
30
0.0000000000
10
-12.7695691193
20
-15.3143157569
30
0.0000000000
10
-12.6648596532
20
-15.3548746316
30
0.0000000000
10
-12.5050686794
20
-15.3977938625
30
0.0000000000
10
-12.4433219270
20
-15.4466661094
30
0.0000000000
10
-12.3615673636
20
-15.4467202410
30
0.0000000000
10
-12.3656651217
20
-15.4584567095
30
0.0000000000
11
-12.8289799130
21
-15.2935550061
31
0.0000000000
11
-12.6508184432
21
-15.3560398148
31
0.0000000000
11
-12.5005204940
21
-15.4092086541
31
0.0000000000
11
-12.4004977543
21
-15.4451332514
31
0.0000000000
11
-12.3656651217
21
-15.4584567095
31
0.0000000000
0
SPLINE
5
36A
100
AcDbEntity
8
0
100
AcDbSpline
62
9
6
CONTINUOUS
70
0
71
3
72
11
73
7
74
5
42
0.0000001000
43
0.0000001000
44
0.0000000001
12
0.5171496650
22
0.0020874375
32
0.0000000000
13
0.0000009495
23
0.5171538779
33
0.0000000000
40
0.0000000000
40
0.0000000000
40
0.0000000000
40
0.0000000000
40
0.3649120303
40
0.6760182751
40
0.8921561569
40
1.0000000000
40
1.0000000000
40
1.0000000000
40
1.0000000000
10
-12.8844713525
20
-15.7331637679
30
0.0000000000
10
-12.8215666411
20
-15.7329098576
30
0.0000000000
10
-12.7057855320
20
-15.7285244404
30
0.0000000000
10
-12.5502549341
20
-15.7048805169
30
0.0000000000
10
-12.4505026440
20
-15.6808961311
30
0.0000000000
10
-12.3936525415
20
-15.6419392521
30
0.0000000000
10
-12.3936525074
20
-15.6233486316
30
0.0000000000
11
-12.8844713525
21
-15.7331637679
31
0.0000000000
11
-12.6959671235
21
-15.7242329039
31
0.0000000000
11
-12.5368679300
21
-15.7002960141
31
0.0000000000
11
-12.4308392526
21
-15.6649135991
31
0.0000000000
11
-12.3936525074
21
-15.6233486316
31
0.0000000000
0
SPLINE
5
36B
100
AcDbEntity
8
0
100
AcDbSpline
62
9
6
CONTINUOUS
70
0
71
3
72
11
73
7
74
5
42
0.0000001000
43
0.0000001000
44
0.0000000001
12
0.6327516485
22
0.0068668343
32
0.0000000000
13
0.0000000006
23
0.6327889080
33
0.0000000000
40
0.0000000000
40
0.0000000000
40
0.0000000000
40
0.0000000000
40
0.3007675182
40
0.5742531529
40
0.8049044750
40
1.0000000000
40
1.0000000000
40
1.0000000000
40
1.0000000000
10
-12.8849263955
20
-16.5371597608
30
0.0000000000
10
-12.8214893478
20
-16.5364713206
30
0.0000000000
10
-12.6998849970
20
-16.5210430498
30
0.0000000000
10
-12.5405342056
20
-16.4567623768
30
0.0000000000
10
-12.4255365261
20
-16.3579768677
30
0.0000000000
10
-12.3936525987
20
-16.2674951218
30
0.0000000000
10
-12.3936525987
20
-16.2263436938
30
0.0000000000
11
-12.8849263955
21
-16.5371597608
31
0.0000000000
11
-12.6962794602
21
-16.5119619335
31
0.0000000000
11
-12.5370259832
21
-16.4442298478
31
0.0000000000
11
-12.4308817329
21
-16.3440507533
31
0.0000000000
11
-12.3936525987
21
-16.2263436938
31
0.0000000000
0
SPLINE
5
36C
100
AcDbEntity
8
0
100
AcDbSpline
62
9
6
CONTINUOUS
70
0
71
3
72
9
73
5
74
3
42
0.0000001000
43
0.0000001000
44
0.0000000001
12
0.2034168933
22
0.0024801357
32
0.0000000000
13
0.1941526526
23
0.0624537137
33
0.0000000000
40
0.0000000000
40
0.0000000000
40
0.0000000000
40
0.0000000000
40
0.7549879484
40
1.0000000000
40
1.0000000000
40
1.0000000000
40
1.0000000000
10
-12.8849263955
20
-18.6740904629
30
0.0000000000
10
-12.8337339611
20
-18.6734663053
30
0.0000000000
10
-12.7657672158
20
-18.6653930358
30
0.0000000000
10
-12.7001887122
20
-18.6471839360
30
0.0000000000
10
-12.6843321323
20
-18.6420832985
30
0.0000000000
11
-12.8849263955
21
-18.6740904629
31
0.0000000000
11
-12.7324671279
21
-18.6554983707
31
0.0000000000
11
-12.6843321323
21
-18.6420832985
31
0.0000000000
0
SPLINE
5
36D
100
AcDbEntity
8
0
100
AcDbSpline
62
9
6
CONTINUOUS
70
0
71
3
72
11
73
7
74
5
42
0.0000001000
43
0.0000001000
44
0.0000000001
12
0.4365616671
22
0.1404302080
32
0.0000000000
13
0.0000000000
23
0.4574267576
33
0.0000000000
40
0.0000000000
40
0.0000000000
40
0.0000000000
40
0.0000000000
40
0.2105150838
40
0.5017859350
40
0.7621126893
40
1.0000000000
40
1.0000000000
40
1.0000000000
40
1.0000000000
10
-12.6843321323
20
-18.6420832985
30
0.0000000000
10
-12.6536978603
20
-18.6322290728
30
0.0000000000
10
-12.5825544062
20
-18.6030537376
30
0.0000000000
10
-12.4855007190
20
-18.5362431707
30
0.0000000000
10
-12.4116012826
20
-18.4379050818
30
0.0000000000
10
-12.3936525987
20
-18.3611652259
30
0.0000000000
10
-12.3936525987
20
-18.3248932188
30
0.0000000000
11
-12.6843321323
21
-18.6420832985
31
0.0000000000
11
-12.5952786242
21
-18.6051418072
31
0.0000000000
11
-12.4867499911
21
-18.5278558279
31
0.0000000000
11
-12.4173330245
21
-18.4311013348
31
0.0000000000
11
-12.3936525987
21
-18.3248932188
31
0.0000000000
0
SPLINE
5
36E
100
AcDbEntity
8
0
100
AcDbSpline
62
9
6
CONTINUOUS
70
0
71
3
72
10
73
6
74
4
42
0.0000001000
43
0.0000001000
44
0.0000000001
12
0.0015620506
22
0.8039949727
32
0.0000000000
13
-0.0004335923
23
0.8039963732
33
0.0000000000
40
0.0000000000
40
0.0000000000
40
0.0000000000
40
0.0000000000
40
0.3081467738
40
0.6439223688
40
1.0000000000
40
1.0000000000
40
1.0000000000
40
1.0000000000
10
-12.8849263954
20
-16.5371597612
30
0.0000000000
10
-12.8847659485
20
-16.4545769422
30
0.0000000000
10
-12.8845262666
20
-16.2820066352
30
0.0000000000
10
-12.8843820706
20
-16.0140078205
30
0.0000000000
10
-12.8844199044
20
-15.8285919501
30
0.0000000000
10
-12.8844713686
20
-15.7331635755
30
0.0000000000
11
-12.8849263954
21
-16.5371597612
31
0.0000000000
11
-12.8845701759
21
-16.2894110926
31
0.0000000000
11
-12.8844174079
21
-16.0194487360
31
0.0000000000
11
-12.8844713686
21
-15.7331635755
31
0.0000000000
0
SPLINE
5
36F
100
AcDbEntity
8
0
100
AcDbSpline
62
9
6
CONTINUOUS
70
0
71
3
72
12
73
8
74
6
42
0.0000001000
43
0.0000001000
44
0.0000000001
12
0.0005442493
22
-1.5972713136
32
0.0000000000
13
0.0000275414
23
-1.5972714061
33
0.0000000000
40
0.0000000000
40
0.0000000000
40
0.0000000000
40
0.0000000000
40
0.2204383830
40
0.4463735426
40
0.6579245322
40
0.8416733041
40
1.0000000000
40
1.0000000000
40
1.0000000000
40
1.0000000000
10
2.4720419513
20
-9.9320000000
30
0.0000000000
10
2.4720819424
20
-10.0493666352
30
0.0000000000
10
2.4823938728
20
-10.2871002156
30
0.0000000000
10
2.5210243256
20
-10.6353563096
30
0.0000000000
10
2.5644722513
20
-10.9632421145
30
0.0000000000
10
2.5968559508
20
-11.2562609659
30
0.0000000000
10
2.6063459478
20
-11.4383758988
30
0.0000000000
10
2.6063474013
20
-11.5226728002
30
0.0000000000
11
2.4720419513
21
-9.9320000000
31
0.0000000000
11
2.4861439033
21
-10.2838174141
31
0.0000000000
11
2.5231783479
21
-10.6427918677
31
0.0000000000
11
2.5651210260
21
-10.9780830237
31
0.0000000000
11
2.5953077557
21
-11.2700231722
31
0.0000000000
11
2.6063474013
21
-11.5226728002
31
0.0000000000
0
SPLINE
5
370
100
AcDbEntity
8
0
100
AcDbSpline
62
9
6
CONTINUOUS
70
0
71
3
72
12
73
8
74
6
42
0.0000001000
43
0.0000001000
44
0.0000000001
12
-0.0000185993
22
-1.5972577256
32
0.0000000000
13
-0.0006050285
23
-1.5972576111
33
0.0000000000
40
0.0000000000
40
0.0000000000
40
0.0000000000
40
0.0000000000
40
0.1530390233
40
0.3288936761
40
0.5301949725
40
0.7582699627
40
1.0000000000
40
1.0000000000
40
1.0000000000
40
1.0000000000
10
2.6063474013
20
-6.2413271998
30
0.0000000000
10
2.6063464525
20
-6.3228081205
30
0.0000000000
10
2.5975143904
20
-6.4979081010
30
0.0000000000
10
2.5671829277
20
-6.7786015628
30
0.0000000000
10
2.5250976322
20
-7.0980737864
30
0.0000000000
10
2.4840717821
20
-7.4530871339
30
0.0000000000
10
2.4720907025
20
-7.7032982860
30
0.0000000000
10
2.4720419513
20
-7.8320000000
30
0.0000000000
11
2.6063474013
21
-6.2413271998
31
0.0000000000
11
2.5959655107
21
-6.4855493945
31
0.0000000000
11
2.5676278661
21
-6.7650014924
31
0.0000000000
11
2.5277525144
21
-7.0840493415
31
0.0000000000
11
2.4888515339
21
-7.4462609173
31
0.0000000000
11
2.4720419513
21
-7.8320000000
31
0.0000000000
0
SPLINE
5
371
100
AcDbEntity
8
0
100
AcDbSpline
62
9
6
CONTINUOUS
70
0
71
3
72
9
73
5
74
3
42
0.0000001000
43
0.0000001000
44
0.0000000001
12
0.2520019435
22
-0.0030725030
32
0.0000000000
13
0.2333104261
23
-0.0967156919
33
0.0000000000
40
0.0000000000
40
0.0000000000
40
0.0000000000
40
0.0000000000
40
0.6092157615
40
1.0000000000
40
1.0000000000
40
1.0000000000
40
1.0000000000
10
-12.8849263955
20
20.2100904629
30
0.0000000000
10
-12.8337518768
20
20.2094665238
30
0.0000000000
10
-12.7495515218
20
20.1994679073
30
0.0000000000
10
-12.6690161637
20
20.1739146530
30
0.0000000000
10
-12.6386248179
20
20.1613163303
30
0.0000000000
11
-12.8849263955
21
20.2100904629
31
0.0000000000
11
-12.7325197511
21
20.1915108862
31
0.0000000000
11
-12.6386248179
21
20.1613163303
31
0.0000000000
0
SPLINE
5
372
100
AcDbEntity
8
0
100
AcDbSpline
62
9
6
CONTINUOUS
70
0
71
3
72
11
73
7
74
5
42
0.0000001000
43
0.0000001000
44
0.0000000001
12
0.3784818543
22
-0.1568945504
32
0.0000000000
13
0.0000000000
23
-0.4088340730
33
0.0000000000
40
0.0000000000
40
0.0000000000
40
0.0000000000
40
0.0000000000
40
0.1159742811
40
0.4413884859
40
0.7323747107
40
1.0000000000
40
1.0000000000
40
1.0000000000
40
1.0000000000
10
-12.6386248179
20
20.1613163303
30
0.0000000000
10
-12.6239934309
20
20.1552510861
30
0.0000000000
10
-12.5692608142
20
20.1298627048
30
0.0000000000
10
-12.4858622408
20
20.0725477626
30
0.0000000000
10
-12.4117492187
20
19.9742726350
30
0.0000000000
10
-12.3936525987
20
19.8973646645
30
0.0000000000
10
-12.3936525987
20
19.8608932188
30
0.0000000000
11
-12.6386248179
21
20.1613163303
31
0.0000000000
11
-12.5955401612
21
20.1412775725
31
0.0000000000
11
-12.4871022182
21
20.0641999203
31
0.0000000000
11
-12.4175879023
21
19.9676574375
31
0.0000000000
11
-12.3936525987
21
19.8608932188
31
0.0000000000
0
SPLINE
5
373
100
AcDbEntity
8
0
100
AcDbSpline
62
9
6
CONTINUOUS
70
0
71
3
72
11
73
7
74
5
42
0.0000001000
43
0.0000001000
44
0.0000000001
12
0.6327516351
22
-0.0068667891
32
0.0000000000
13
0.0000000006
23
-0.6327888942
33
0.0000000000
40
0.0000000000
40
0.0000000000
40
0.0000000000
40
0.0000000000
40
0.3007655836
40
0.5742506238
40
0.8049027806
40
1.0000000000
40
1.0000000000
40
1.0000000000
40
1.0000000000
10
-12.8849263955
20
18.0731597608
30
0.0000000000
10
-12.8214897572
20
18.0724713295
30
0.0000000000
10
-12.6998859506
20
18.0570432247
30
0.0000000000
10
-12.5405353833
20
17.9927630455
30
0.0000000000
10
-12.4255370176
20
17.8939777443
30
0.0000000000
10
-12.3936525987
20
17.8034954783
30
0.0000000000
10
-12.3936525987
20
17.7623436938
30
0.0000000000
11
-12.8849263955
21
18.0731597608
31
0.0000000000
11
-12.6962806554
21
18.0479622630
31
0.0000000000
11
-12.5370273564
21
17.9802307296
31
0.0000000000
11
-12.4308823387
21
17.8800516834
31
0.0000000000
11
-12.3936525987
21
17.7623436938
31
0.0000000000
0
SPLINE
5
374
100
AcDbEntity
8
0
100
AcDbSpline
62
9
6
CONTINUOUS
70
0
71
3
72
11
73
7
74
5
42
0.0000001000
43
0.0000001000
44
0.0000000001
12
0.5171467947
22
-0.0020860735
32
0.0000000000
13
0.0000765947
23
-0.5171509964
33
0.0000000000
40
0.0000000000
40
0.0000000000
40
0.0000000000
40
0.0000000000
40
0.3649070603
40
0.6760111618
40
0.8921514541
40
1.0000000000
40
1.0000000000
40
1.0000000000
40
1.0000000000
10
-12.8844717515
20
17.2691589955
30
0.0000000000
10
-12.8215682459
20
17.2689052545
30
0.0000000000
10
-12.7057889713
20
17.2645199334
30
0.0000000000
10
-12.5502600141
20
17.2408782706
30
0.0000000000
10
-12.4505071985
20
17.2168923247
30
0.0000000000
10
-12.3936553525
20
17.1779399592
30
0.0000000000
10
-12.3936525989
20
17.1593486316
30
0.0000000000
11
-12.8844717515
21
17.2691589955
31
0.0000000000
11
-12.6959711077
21
17.2602289422
31
0.0000000000
11
-12.5368737508
21
17.2362933091
31
0.0000000000
11
-12.4308439313
21
17.2009123422
31
0.0000000000
11
-12.3936525989
21
17.1593486316
31
0.0000000000
0
SPLINE
5
375
100
AcDbEntity
8
0
100
AcDbSpline
62
9
6
CONTINUOUS
70
0
71
3
72
11
73
7
74
5
42
0.0000001000
43
0.0000001000
44
0.0000000001
12
0.4642573625
22
0.1622524880
32
0.0000000000
13
-0.1594216784
23
0.4652370331
33
0.0000000000
40
0.0000000000
40
0.0000000000
40
0.0000000000
40
0.0000000000
40
0.3838931780
40
0.7080565638
40
0.9241596819
40
1.0000000000
40
1.0000000000
40
1.0000000000
40
1.0000000000
10
-12.8289804073
20
16.8295549967
30
0.0000000000
10
-12.7695719959
20
16.8503175378
30
0.0000000000
10
-12.6648455168
20
16.8908870068
30
0.0000000000
10
-12.5051313961
20
16.9337779099
30
0.0000000000
10
-12.4432407868
20
16.9827062542
30
0.0000000000
10
-12.3616401566
20
16.9826936424
30
0.0000000000
10
-12.3656703536
20
16.9944548839
30
0.0000000000
11
-12.8289804073
21
16.8295549967
31
0.0000000000
11
-12.6508255038
21
16.8920434957
31
0.0000000000
11
-12.5005316277
21
16.9452124722
31
0.0000000000
11
-12.4005085110
21
16.9811347339
31
0.0000000000
11
-12.3656703536
21
16.9944548839
31
0.0000000000
0
SPLINE
5
376
100
AcDbEntity
8
0
100
AcDbSpline
62
9
6
CONTINUOUS
70
0
71
3
72
11
73
7
74
5
42
0.0000001000
43
0.0000001000
44
0.0000000001
12
0.0087242968
22
0.4999669138
32
0.0000000000
13
-0.4999668674
23
0.0087269541
33
0.0000000000
40
0.0000000000
40
0.0000000000
40
0.0000000000
40
0.0000000000
40
0.3825599174
40
0.7068740278
40
0.9236231174
40
1.0000000000
40
1.0000000000
40
1.0000000000
40
1.0000000000
10
-11.9023788019
20
16.1595009364
30
0.0000000000
10
-11.9012662798
20
16.2232567035
30
0.0000000000
10
-11.9028627401
20
16.3372675355
30
0.0000000000
10
-11.8902752204
20
16.5046025729
30
0.0000000000
10
-11.9134858022
20
16.5810716642
30
0.0000000000
10
-11.8896501650
20
16.6592026048
30
0.0000000000
10
-11.9023788019
20
16.6594247840
30
0.0000000000
11
-11.9023788019
21
16.1595009364
31
0.0000000000
11
-11.8997050443
21
16.3507786687
31
0.0000000000
11
-11.8987661692
21
16.5129469602
31
0.0000000000
11
-11.8997050503
21
16.6213267643
31
0.0000000000
11
-11.9023788019
21
16.6594247840
31
0.0000000000
0
SPLINE
5
377
100
AcDbEntity
8
0
100
AcDbSpline
62
9
6
CONTINUOUS
70
0
71
3
72
12
73
8
74
6
42
0.0000001000
43
0.0000001000
44
0.0000000001
12
0.0087246128
22
0.4999850185
32
0.0000000000
13
-0.4999849721
23
0.0087272702
33
0.0000000000
40
0.0000000000
40
0.0000000000
40
0.0000000000
40
0.0000000000
40
0.3098579557
40
0.5892097349
40
0.8103191748
40
0.9518361988
40
1.0000000000
40
1.0000000000
40
1.0000000000
40
1.0000000000
10
2.1150736045
20
15.9148253945
30
0.0000000000
10
2.1159747348
20
15.9664668398
30
0.0000000000
10
2.1181936644
20
16.0656050022
30
0.0000000000
10
2.1164661277
20
16.1970667573
30
0.0000000000
10
2.1241398655
20
16.3132760496
30
0.0000000000
10
2.1090556535
20
16.3642634056
30
0.0000000000
10
2.1231006635
20
16.4146091293
30
0.0000000000
10
2.1150736045
20
16.4147492421
30
0.0000000000
11
2.1150736045
21
15.9148253945
31
0.0000000000
11
2.1173474898
21
16.0697566295
31
0.0000000000
11
2.1185382772
21
16.2094445215
31
0.0000000000
11
2.1185291158
21
16.3200127583
31
0.0000000000
11
2.1173226744
21
16.3907696373
31
0.0000000000
11
2.1150736045
21
16.4147492421
31
0.0000000000
0
SPLINE
5
378
100
AcDbEntity
8
0
100
AcDbSpline
62
9
6
CONTINUOUS
70
0
71
3
72
10
73
6
74
4
42
0.0000001000
43
0.0000001000
44
0.0000000001
12
-0.2578087340
22
0.2578087340
32
0.0000000000
13
-0.3326989893
23
-0.1491377523
33
0.0000000000
40
0.0000000000
40
0.0000000000
40
0.0000000000
40
0.0000000000
40
0.2730088286
40
0.6030022523
40
1.0000000000
40
1.0000000000
40
1.0000000000
40
1.0000000000
10
-12.5400992080
20
20.2144466094
30
0.0000000000
10
-12.5635605615
20
20.2379079629
30
0.0000000000
10
-12.6340153511
20
20.2714094323
30
0.0000000000
10
-12.7587530017
20
20.2644634647
30
0.0000000000
10
-12.8408994791
20
20.2298262468
30
0.0000000000
10
-12.8849263956
20
20.2100904629
30
0.0000000000
11
-12.5400992080
21
20.2144466094
31
0.0000000000
11
-12.6283334546
21
20.2605177464
31
0.0000000000
11
-12.7486361364
21
20.2588326430
31
0.0000000000
11
-12.8849263956
21
20.2100904629
31
0.0000000000
0
SPLINE
5
379
100
AcDbEntity
8
0
100
AcDbSpline
62
9
6
CONTINUOUS
70
0
71
3
72
9
73
5
74
3
42
0.0000001000
43
0.0000001000
44
0.0000000001
12
9.5087267117
22
0.0541806592
32
0.0000000000
13
9.5087256923
23
0.0543592681
33
0.0000000000
40
0.0000000000
40
0.0000000000
40
0.0000000000
40
0.0000000000
40
0.4996187759
40
1.0000000000
40
1.0000000000
40
1.0000000000
40
1.0000000000
10
-22.3936525987
20
-16.5914295692
30
0.0000000000
10
-20.8100731319
20
-16.5824063443
30
0.0000000000
10
-17.6404976457
20
-16.5643313293
30
0.0000000000
10
-14.4709223293
20
-16.5462265465
30
0.0000000000
10
-12.8849263955
20
-16.5371597608
30
0.0000000000
11
-22.3936525987
21
-16.5914295692
31
0.0000000000
11
-17.6429143251
21
-16.5643376800
31
0.0000000000
11
-12.8849263955
21
-16.5371597608
31
0.0000000000
0
SPLINE
5
37A
100
AcDbEntity
8
0
100
AcDbSpline
62
9
6
CONTINUOUS
70
0
71
3
72
10
73
6
74
4
42
0.0000001000
43
0.0000001000
44
0.0000000001
12
-0.2574025963
22
0.2574025953
32
0.0000000000
13
-0.3320884835
23
-0.1490953781
33
0.0000000000
40
0.0000000000
40
0.0000000000
40
0.0000000000
40
0.0000000000
40
0.2874709695
40
0.6159101402
40
1.0000000000
40
1.0000000000
40
1.0000000000
40
1.0000000000
10
-14.0779706140
20
21.7523180153
30
0.0000000000
10
-14.1026358720
20
21.7769832732
30
0.0000000000
10
-14.1716428491
20
21.8148277572
30
0.0000000000
10
-14.2956208531
20
21.8183636057
30
0.0000000000
10
-14.3802805277
20
21.7948070715
30
0.0000000000
10
-14.4227978008
20
21.7757183972
30
0.0000000000
11
-14.0779706140
21
21.7523180153
31
0.0000000000
11
-14.1686544348
21
21.8045405556
31
0.0000000000
11
-14.2879398606
21
21.8126263895
31
0.0000000000
11
-14.4227978008
21
21.7757183972
31
0.0000000000
0
SPLINE
5
37B
100
AcDbEntity
8
0
100
AcDbSpline
62
9
6
CONTINUOUS
70
0
71
3
72
9
73
5
74
3
42
0.0000001000
43
0.0000001000
44
0.0000000001
12
-0.1121309264
22
0.4296003119
32
0.0000000000
13
0.0002283982
23
0.4439929284
33
0.0000000000
40
0.0000000000
40
0.0000000000
40
0.0000000000
40
0.0000000000
40
0.4783300190
40
1.0000000000
40
1.0000000000
40
1.0000000000
40
1.0000000000
10
-12.8289794488
20
16.8295550107
30
0.0000000000
10
-12.8468579782
20
16.8980519191
30
0.0000000000
10
-12.8749434151
20
17.0437924449
30
0.0000000000
10
-12.8845110847
20
17.1919576480
30
0.0000000000
10
-12.8844713686
20
17.2691635755
30
0.0000000000
11
-12.8289794488
21
16.8295550107
31
0.0000000000
11
-12.8694893355
21
17.0380308213
31
0.0000000000
11
-12.8844713686
21
17.2691635755
31
0.0000000000
0
SPLINE
5
37C
100
AcDbEntity
8
0
100
AcDbSpline
62
9
6
CONTINUOUS
70
0
71
3
72
10
73
6
74
4
42
0.0000001000
43
0.0000001000
44
0.0000000001
12
0.1229631192
22
-0.0021463292
32
0.0000000000
13
-0.0012240177
23
-0.1229757586
33
0.0000000000
40
0.0000000000
40
0.0000000000
40
0.0000000000
40
0.0000000000
40
0.1155815377
40
0.4553121892
40
1.0000000000
40
1.0000000000
40
1.0000000000
40
1.0000000000
10
-14.4227978007
20
21.8986884717
30
0.0000000000
10
-14.4180603786
20
21.8986057797
30
0.0000000000
10
-14.4282171884
20
21.8687450855
30
0.0000000000
10
-14.4183284105
20
21.8385508140
30
0.0000000000
10
-14.4225755649
20
21.7980461961
30
0.0000000000
10
-14.4227978008
20
21.7757183972
30
0.0000000000
11
-14.4227978007
21
21.8986884717
31
0.0000000000
11
-14.4222723641
21
21.8844837551
31
0.0000000000
11
-14.4222723641
21
21.8427030510
31
0.0000000000
11
-14.4227978008
21
21.7757183972
31
0.0000000000
0
SPLINE
5
37D
100
AcDbEntity
8
0
100
AcDbSpline
62
9
6
CONTINUOUS
70
0
71
3
72
12
73
8
74
6
42
0.0000001000
43
0.0000001000
44
0.0000000001
12
-0.0004870579
22
0.1226767699
32
0.0000000000
13
0.1226541986
23
-0.0024030515
33
0.0000000000
40
0.0000000000
40
0.0000000000
40
0.0000000000
40
0.0000000000
40
0.4075219798
40
0.6925340481
40
0.8741496657
40
0.9710172522
40
1.0000000000
40
1.0000000000
40
1.0000000000
40
1.0000000000
10
-18.1971430800
20
21.8418952237
30
0.0000000000
10
-18.1972092422
20
21.8585597171
30
0.0000000000
10
-18.1976533434
20
21.8872594998
30
0.0000000000
10
-18.1966882977
20
21.9218537353
30
0.0000000000
10
-18.1986651724
20
21.9470922813
30
0.0000000000
10
-18.1955763094
20
21.9563088955
30
0.0000000000
10
-18.1983280319
20
21.9645931293
30
0.0000000000
10
-18.1971430800
20
21.9645699136
30
0.0000000000
11
-18.1971430800
21
21.8418952237
31
0.0000000000
11
-18.1973133825
21
21.8918888078
31
0.0000000000
11
-18.1973770580
21
21.9268533853
31
0.0000000000
11
-18.1973570685
21
21.9491335692
31
0.0000000000
11
-18.1972736085
21
21.9610167724
31
0.0000000000
11
-18.1971430800
21
21.9645699136
31
0.0000000000
0
SPLINE
5
37E
100
AcDbEntity
8
0
100
AcDbSpline
62
9
6
CONTINUOUS
70
0
71
3
72
10
73
6
74
4
42
0.0000001000
43
0.0000001000
44
0.0000000001
12
-9.5646725110
22
0.0582092509
32
0.0000000000
13
-9.5646737856
23
0.0579994404
33
0.0000000000
40
0.0000000000
40
0.0000000000
40
0.0000000000
40
0.0000000000
40
0.3329836790
40
0.6663177791
40
1.0000000000
40
1.0000000000
40
1.0000000000
40
1.0000000000
10
-12.8289794488
20
16.8295550106
30
0.0000000000
10
-13.8906060624
20
16.8360159207
30
0.0000000000
10
-16.0149765584
20
16.8489367399
30
0.0000000000
10
-19.2032009419
20
16.8683047736
30
0.0000000000
10
-21.3297987351
20
16.8812080387
30
0.0000000000
10
-22.3936525987
20
16.8876591660
30
0.0000000000
11
-12.8289794488
21
16.8295550106
31
0.0000000000
11
-16.0138593606
21
16.8489260604
31
0.0000000000
11
-19.2020910785
21
16.8682941529
31
0.0000000000
11
-22.3936525987
21
16.8876591660
31
0.0000000000
0
SPLINE
5
37F
100
AcDbEntity
8
0
100
AcDbSpline
62
9
6
CONTINUOUS
70
0
71
3
72
9
73
5
74
3
42
0.0000001000
43
0.0000001000
44
0.0000000001
12
9.5087267117
22
-0.0541806592
32
0.0000000000
13
9.5087256923
23
-0.0543592681
33
0.0000000000
40
0.0000000000
40
0.0000000000
40
0.0000000000
40
0.0000000000
40
0.4996187776
40
1.0000000000
40
1.0000000000
40
1.0000000000
40
1.0000000000
10
-22.3936525987
20
18.1274295692
30
0.0000000000
10
-20.8100731266
20
18.1184063442
30
0.0000000000
10
-17.6404976403
20
18.1003313293
30
0.0000000000
10
-14.4709223239
20
18.0822265465
30
0.0000000000
10
-12.8849263955
20
18.0731597608
30
0.0000000000
11
-22.3936525987
21
18.1274295692
31
0.0000000000
11
-17.6429143090
21
18.1003376799
31
0.0000000000
11
-12.8849263955
21
18.0731597608
31
0.0000000000
0
SPLINE
5
380
100
AcDbEntity
8
0
100
AcDbSpline
62
9
6
CONTINUOUS
70
0
71
3
72
10
73
6
74
4
42
0.0000001000
43
0.0000001000
44
0.0000000001
12
0.0004328580
22
0.8039963735
32
0.0000000000
13
-0.0015621788
23
0.8039949724
33
0.0000000000
40
0.0000000000
40
0.0000000000
40
0.0000000000
40
0.0000000000
40
0.3560923527
40
0.6918646503
40
1.0000000000
40
1.0000000000
40
1.0000000000
40
1.0000000000
10
-12.8844713686
20
17.2691635755
30
0.0000000000
10
-12.8844199894
20
17.3645958956
30
0.0000000000
10
-12.8843820912
20
17.5500148275
30
0.0000000000
10
-12.8845262674
20
17.8180136423
30
0.0000000000
10
-12.8847659413
20
17.9905800038
30
0.0000000000
10
-12.8849263954
20
18.0731597612
30
0.0000000000
11
-12.8844713686
21
17.2691635755
31
0.0000000000
11
-12.8844174413
21
17.5554605721
31
0.0000000000
11
-12.8845701802
21
17.8254202777
31
0.0000000000
11
-12.8849263954
21
18.0731597612
31
0.0000000000
0
SPLINE
5
381
100
AcDbEntity
8
0
100
AcDbSpline
62
9
6
CONTINUOUS
70
0
71
3
72
10
73
6
74
4
42
0.0000001000
43
0.0000001000
44
0.0000000001
12
-0.2578131423
22
-0.2578131424
32
0.0000000000
13
-0.3252564373
23
0.1647527927
33
0.0000000000
40
0.0000000000
40
0.0000000000
40
0.0000000000
40
0.0000000000
40
0.2726803122
40
0.6009807063
40
1.0000000000
40
1.0000000000
40
1.0000000000
40
1.0000000000
10
-12.5400992080
20
-18.6784466094
30
0.0000000000
10
-12.5635327308
20
-18.7018801321
30
0.0000000000
10
-12.6338124375
20
-18.7354682394
30
0.0000000000
10
-12.7580737244
20
-18.7277647892
30
0.0000000000
10
-12.8416651976
20
-18.6960036438
30
0.0000000000
10
-12.8849263955
20
-18.6740904628
30
0.0000000000
11
-12.5400992080
21
-18.6784466094
31
0.0000000000
11
-12.6282137243
21
-18.7244919325
31
0.0000000000
11
-12.7479034307
21
-18.7229798878
31
0.0000000000
11
-12.8849263955
21
-18.6740904628
31
0.0000000000
0
SPLINE
5
382
100
AcDbEntity
8
0
100
AcDbSpline
62
9
6
CONTINUOUS
70
0
71
3
72
12
73
8
74
6
42
0.0000001000
43
0.0000001000
44
0.0000000001
12
-0.1226542600
22
-0.0023999178
32
0.0000000000
13
0.0004870415
23
0.1226767699
33
0.0000000000
40
0.0000000000
40
0.0000000000
40
0.0000000000
40
0.0000000000
40
0.0289826542
40
0.1258501080
40
0.3074649907
40
0.5924770019
40
1.0000000000
40
1.0000000000
40
1.0000000000
40
1.0000000000
10
-18.1971430800
20
-20.4285699136
30
0.0000000000
10
-18.1983280286
20
-20.4285930989
30
0.0000000000
10
-18.1955763111
20
-20.4203089596
30
0.0000000000
10
-18.1986651669
20
-20.4110922923
30
0.0000000000
10
-18.1966882990
20
-20.3858538452
30
0.0000000000
10
-18.1976533453
20
-20.3512595725
30
0.0000000000
10
-18.1972092402
20
-20.3225597587
30
0.0000000000
10
-18.1971430800
20
-20.3058952237
30
0.0000000000
11
-18.1971430800
21
-20.4285699136
31
0.0000000000
11
-18.1972736084
21
-20.4250167839
31
0.0000000000
11
-18.1973570681
21
-20.4131335970
31
0.0000000000
11
-18.1973770585
21
-20.3908535032
31
0.0000000000
11
-18.1973133829
21
-20.3558889327
31
0.0000000000
11
-18.1971430800
21
-20.3058952237
31
0.0000000000
0
SPLINE
5
383
100
AcDbEntity
8
0
100
AcDbSpline
62
9
6
CONTINUOUS
70
0
71
3
72
10
73
6
74
4
42
0.0000001000
43
0.0000001000
44
0.0000000001
12
9.5646737856
22
0.0579994404
32
0.0000000000
13
9.5646725110
23
0.0582092509
33
0.0000000000
40
0.0000000000
40
0.0000000000
40
0.0000000000
40
0.0000000000
40
0.3336823154
40
0.6670165099
40
1.0000000000
40
1.0000000000
40
1.0000000000
40
1.0000000000
10
-22.3936525987
20
-15.3516591660
30
0.0000000000
10
-21.3297984337
20
-15.3452080368
30
0.0000000000
10
-19.2032000382
20
-15.3323047682
30
0.0000000000
10
-16.0149756548
20
-15.3129367344
30
0.0000000000
10
-13.8906054601
20
-15.3000159171
30
0.0000000000
10
-12.8289794488
20
-15.2935550106
30
0.0000000000
11
-22.3936525987
21
-15.3516591660
31
0.0000000000
11
-19.2020901744
21
-15.3322941474
31
0.0000000000
11
-16.0138575538
21
-15.3129260494
31
0.0000000000
11
-12.8289794488
21
-15.2935550106
31
0.0000000000
0
SPLINE
5
384
100
AcDbEntity
8
0
100
AcDbSpline
62
9
6
CONTINUOUS
70
0
71
3
72
9
73
5
74
3
42
0.0000001000
43
0.0000001000
44
0.0000000001
12
-0.0002696160
22
0.4439938263
32
0.0000000000
13
0.1121305288
23
0.4296013675
33
0.0000000000
40
0.0000000000
40
0.0000000000
40
0.0000000000
40
0.0000000000
40
0.5127399862
40
1.0000000000
40
1.0000000000
40
1.0000000000
40
1.0000000000
10
-12.8844713686
20
-15.7331635755
30
0.0000000000
10
-12.8845174495
20
-15.6572791127
30
0.0000000000
10
-12.8751079107
20
-15.5091248232
30
0.0000000000
10
-12.8471916898
20
-15.3633308667
30
0.0000000000
10
-12.8289794488
20
-15.2935550107
30
0.0000000000
11
-12.8844713686
21
-15.7331635755
31
0.0000000000
11
-12.8700027067
21
-15.5059703930
31
0.0000000000
11
-12.8289794488
21
-15.2935550107
31
0.0000000000
0
SPLINE
5
385
100
AcDbEntity
8
0
100
AcDbSpline
62
9
6
CONTINUOUS
70
0
71
3
72
10
73
6
74
4
42
0.0000001000
43
0.0000001000
44
0.0000000001
12
-3.9999999803
22
0.0702534154
32
0.0000000000
13
-4.0000000196
23
0.0702511788
33
0.0000000000
40
0.0000000000
40
0.0000000000
40
0.0000000000
40
0.0000000000
40
0.3334720350
40
0.6668053684
40
1.0000000000
40
1.0000000000
40
1.0000000000
40
1.0000000000
10
-18.3936525987
20
24.0311073618
30
0.0000000000
10
-18.8382819765
20
24.0389165449
30
0.0000000000
10
-19.7273557981
20
24.0545315799
30
0.0000000000
10
-21.0606891314
20
24.0779490114
30
0.0000000000
10
-21.9493930876
20
24.0935572189
30
0.0000000000
10
-22.3936525987
20
24.1013596575
30
0.0000000000
11
-18.3936525987
21
24.0311073618
31
0.0000000000
11
-19.7275407344
21
24.0545347865
31
0.0000000000
11
-21.0608740677
21
24.0779522181
31
0.0000000000
11
-22.3936525987
21
24.1013596575
31
0.0000000000
0
SPLINE
5
386
100
AcDbEntity
8
0
100
AcDbSpline
62
9
6
CONTINUOUS
70
0
71
3
72
10
73
6
74
4
42
0.0000001000
43
0.0000001000
44
0.0000000001
12
-3.9999999803
22
-0.0702534154
32
0.0000000000
13
-4.0000000196
23
-0.0702511788
33
0.0000000000
40
0.0000000000
40
0.0000000000
40
0.0000000000
40
0.0000000000
40
0.3334720350
40
0.6668053684
40
1.0000000000
40
1.0000000000
40
1.0000000000
40
1.0000000000
10
-18.3936525987
20
-22.4951073618
30
0.0000000000
10
-18.8382819765
20
-22.5029165449
30
0.0000000000
10
-19.7273557981
20
-22.5185315799
30
0.0000000000
10
-21.0606891314
20
-22.5419490114
30
0.0000000000
10
-21.9493930876
20
-22.5575572189
30
0.0000000000
10
-22.3936525987
20
-22.5653596575
30
0.0000000000
11
-18.3936525987
21
-22.4951073618
31
0.0000000000
11
-19.7275407344
21
-22.5185347865
31
0.0000000000
11
-21.0608740677
21
-22.5419522181
31
0.0000000000
11
-22.3936525987
21
-22.5653596575
31
0.0000000000
0
SPLINE
5
387
100
AcDbEntity
8
0
100
AcDbSpline
62
9
6
CONTINUOUS
70
0
71
3
72
10
73
6
74
4
42
0.0000001000
43
0.0000001000
44
0.0000000001
12
0.1229631218
22
0.0021463293
32
0.0000000000
13
-0.0004147264
23
0.1229811533
33
0.0000000000
40
0.0000000000
40
0.0000000000
40
0.0000000000
40
0.0000000000
40
0.1154847882
40
0.4552181097
40
1.0000000000
40
1.0000000000
40
1.0000000000
40
1.0000000000
10
-14.4227978007
20
-20.3626884717
30
0.0000000000
10
-14.4180643441
20
-20.3626058489
30
0.0000000000
10
-14.4282202461
20
-20.3327527310
30
0.0000000000
10
-14.4182831460
20
-20.3025598835
30
0.0000000000
10
-14.4227224890
20
-20.2620510323
30
0.0000000000
10
-14.4227978008
20
-20.2397183973
30
0.0000000000
11
-14.4227978007
21
-20.3626884717
31
0.0000000000
11
-14.4222725108
21
-20.3484956559
31
0.0000000000
11
-14.4222723219
21
-20.3067146226
31
0.0000000000
11
-14.4227978008
21
-20.2397183973
31
0.0000000000
0
SPLINE
5
388
100
AcDbEntity
8
0
100
AcDbSpline
62
9
6
CONTINUOUS
70
0
71
3
72
10
73
6
74
4
42
0.0000001000
43
0.0000001000
44
0.0000000001
12
-0.2574028650
22
-0.2574028642
32
0.0000000000
13
-0.3381446842
23
0.1347985235
33
0.0000000000
40
0.0000000000
40
0.0000000000
40
0.0000000000
40
0.0000000000
40
0.2873826483
40
0.6157920328
40
1.0000000000
40
1.0000000000
40
1.0000000000
40
1.0000000000
10
-14.0779706140
20
-20.2163180153
30
0.0000000000
10
-14.1026283196
20
-20.2409757209
30
0.0000000000
10
-14.1715455287
20
-20.2786499238
30
0.0000000000
10
-14.2959043974
20
-20.2831001111
30
0.0000000000
10
-14.3794918402
20
-20.2569819528
30
0.0000000000
10
-14.4227978008
20
-20.2397183973
30
0.0000000000
11
-14.0779706140
21
-20.2163180153
31
0.0000000000
11
-14.1686227281
21
-20.2685314067
31
0.0000000000
11
-14.2878964616
21
-20.2766312384
31
0.0000000000
11
-14.4227978008
21
-20.2397183973
31
0.0000000000
0
SPLINE
5
389
100
AcDbEntity
8
0
100
AcDbSpline
62
9
6
CONTINUOUS
70
0
71
3
72
12
73
8
74
6
42
0.0000001000
43
0.0000001000
44
0.0000000001
12
-0.0000471250
22
-1.4963993977
32
0.0000000000
13
-0.0007105229
23
-1.4963992297
33
0.0000000000
40
0.0000000000
40
0.0000000000
40
0.0000000000
40
0.0000000000
40
0.1523569532
40
0.3283243424
40
0.5304033418
40
0.7587829521
40
1.0000000000
40
1.0000000000
40
1.0000000000
40
1.0000000000
10
2.7958802101
20
-6.3493955492
30
0.0000000000
10
2.7958778168
20
-6.4253911668
30
0.0000000000
10
2.7834494802
20
-6.5891353068
30
0.0000000000
10
2.7409961880
20
-6.8503564982
30
0.0000000000
10
2.6822777057
20
-7.1470799082
30
0.0000000000
10
2.6249210163
20
-7.4772966780
30
0.0000000000
10
2.6079097101
20
-7.7116809984
30
0.0000000000
10
2.6078525800
20
-7.8320000000
30
0.0000000000
11
2.7958802101
21
-6.3493955492
31
0.0000000000
11
2.7813606755
21
-6.5769195881
31
0.0000000000
11
2.7417111452
21
-6.8372348165
31
0.0000000000
11
2.6859089872
21
-7.1344323457
31
0.0000000000
11
2.6314782578
21
-7.4718169688
31
0.0000000000
11
2.6078525800
21
-7.8320000000
31
0.0000000000
0
SPLINE
5
38A
100
AcDbEntity
8
0
100
AcDbSpline
62
9
6
CONTINUOUS
70
0
71
3
72
12
73
8
74
6
42
0.0000001000
43
0.0000001000
44
0.0000000001
12
0.0006569414
22
-1.4964286326
32
0.0000000000
13
0.0000706322
23
-1.4964287751
33
0.0000000000
40
0.0000000000
40
0.0000000000
40
0.0000000000
40
0.0000000000
40
0.2198973028
40
0.4460882342
40
0.6584533568
40
0.8423682492
40
1.0000000000
40
1.0000000000
40
1.0000000000
40
1.0000000000
10
2.6078525800
20
-9.9320000000
30
0.0000000000
10
2.6079007332
20
-10.0416868734
30
0.0000000000
10
2.6225270497
20
-10.2643449923
30
0.0000000000
10
2.6765901145
20
-10.5885064854
30
0.0000000000
10
2.7372022651
20
-10.8930104820
30
0.0000000000
10
2.7825186548
20
-11.1656444613
30
0.0000000000
10
2.7958764988
20
-11.3359762216
30
0.0000000000
10
2.7958802101
20
-11.4146044508
30
0.0000000000
11
2.6078525800
21
-9.9320000000
31
0.0000000000
11
2.6276666610
21
-10.2604635670
31
0.0000000000
11
2.6795063973
21
-10.5949488687
31
0.0000000000
11
2.7382015294
21
-10.9072706713
31
0.0000000000
11
2.7804400050
21
-11.1792256367
31
0.0000000000
11
2.7958802101
21
-11.4146044508
31
0.0000000000
0
SPLINE
5
38B
100
AcDbEntity
8
0
100
AcDbSpline
62
7
6
CONTINUOUS
70
0
71
3
72
10
73
6
74
4
42
0.0000001000
43
0.0000001000
44
0.0000000001
12
-3.9999099472
22
-0.0844306542
32
0.0000000000
13
-4.0000789575
23
-0.0760029924
33
0.0000000000
40
0.0000000000
40
0.0000000000
40
0.0000000000
40
0.0000000000
40
0.3303097417
40
0.6636505372
40
1.0000000000
40
1.0000000000
40
1.0000000000
40
1.0000000000
10
-18.3936525987
20
-22.3318904748
30
0.0000000000
10
-18.8340556725
20
-22.3411865640
30
0.0000000000
10
-19.7189106936
20
-22.3595074450
30
0.0000000000
10
-21.0522450447
20
-22.3861449052
30
0.0000000000
10
-21.9451777958
20
-22.4033873732
30
0.0000000000
10
-22.3936525987
20
-22.4119085618
30
0.0000000000
11
-18.3936525987
21
-22.3318904748
31
0.0000000000
11
-19.7148725747
21
-22.3592645049
31
0.0000000000
11
-21.0482363901
21
-22.3859170037
31
0.0000000000
11
-22.3936525987
21
-22.4119085618
31
0.0000000000
0
SPLINE
5
38C
100
AcDbEntity
8
0
100
AcDbSpline
62
9
6
CONTINUOUS
70
0
71
3
72
9
73
5
74
3
42
0.0000001000
43
0.0000001000
44
0.0000000001
12
-3.7744034950
22
-0.0661785581
32
0.0000000000
13
-3.7744035199
23
-0.0661771375
33
0.0000000000
40
0.0000000000
40
0.0000000000
40
0.0000000000
40
0.0000000000
40
0.5001543741
40
1.0000000000
40
1.0000000000
40
1.0000000000
40
1.0000000000
10
-14.4227395406
20
-20.2397173517
30
0.0000000000
10
-15.0520010131
20
-20.2507505168
30
0.0000000000
10
-16.3101355129
20
-20.2728099541
30
0.0000000000
10
-17.5682700177
20
-20.2948691056
30
0.0000000000
10
-18.1971430476
20
-20.3058952231
30
0.0000000000
11
-14.4227395406
21
-20.2397173517
31
0.0000000000
11
-16.3105239610
21
-20.2728166934
31
0.0000000000
11
-18.1971430476
21
-20.3058952231
31
0.0000000000
0
SPLINE
5
38D
100
AcDbEntity
8
0
100
AcDbSpline
62
7
6
CONTINUOUS
70
0
71
3
72
10
73
6
74
4
42
0.0000001000
43
0.0000001000
44
0.0000000001
12
-3.9999099472
22
0.0844306542
32
0.0000000000
13
-4.0000789575
23
0.0760029924
33
0.0000000000
40
0.0000000000
40
0.0000000000
40
0.0000000000
40
0.0000000000
40
0.3303097417
40
0.6636505372
40
1.0000000000
40
1.0000000000
40
1.0000000000
40
1.0000000000
10
-18.3936525987
20
23.8678904748
30
0.0000000000
10
-18.8340556725
20
23.8771865640
30
0.0000000000
10
-19.7189106936
20
23.8955074450
30
0.0000000000
10
-21.0522450447
20
23.9221449052
30
0.0000000000
10
-21.9451777958
20
23.9393873732
30
0.0000000000
10
-22.3936525987
20
23.9479085618
30
0.0000000000
11
-18.3936525987
21
23.8678904748
31
0.0000000000
11
-19.7148725747
21
23.8952645049
31
0.0000000000
11
-21.0482363901
21
23.9219170037
31
0.0000000000
11
-22.3936525987
21
23.9479085618
31
0.0000000000
0
SPLINE
5
38E
100
AcDbEntity
8
0
100
AcDbSpline
62
9
6
CONTINUOUS
70
0
71
3
72
9
73
5
74
3
42
0.0000001000
43
0.0000001000
44
0.0000000001
12
3.7744667007
22
-0.0661782453
32
0.0000000000
13
3.7744666758
23
-0.0661796660
33
0.0000000000
40
0.0000000000
40
0.0000000000
40
0.0000000000
40
0.0000000000
40
0.4998380553
40
1.0000000000
40
1.0000000000
40
1.0000000000
40
1.0000000000
10
-18.1971430466
20
21.8418952231
30
0.0000000000
10
-17.5682690148
20
21.8308690880
30
0.0000000000
10
-16.3101134497
20
21.8088095666
30
0.0000000000
10
-15.0519578897
20
21.7867497619
30
0.0000000000
10
-14.4226763587
20
21.7757162451
30
0.0000000000
11
-18.1971430466
21
21.8418952231
31
0.0000000000
11
-16.3105209543
21
21.8088166407
31
0.0000000000
11
-14.4226763587
21
21.7757162451
31
0.0000000000
0
SPLINE
5
38F
100
AcDbEntity
8
0
100
AcDbSpline
62
9
6
CONTINUOUS
70
0
71
3
72
9
73
5
74
3
42
0.0000001000
43
0.0000001000
44
0.0000000001
12
1.5378945802
22
-1.5656165158
32
0.0000000000
13
1.5378610820
23
-1.5656494202
33
0.0000000000
40
0.0000000000
40
0.0000000000
40
0.0000000000
40
0.0000000000
40
0.4877275253
40
1.0000000000
40
1.0000000000
40
1.0000000000
40
1.0000000000
10
-14.4226763587
20
21.7757162451
30
0.0000000000
10
-14.1726518527
20
21.5211848221
30
0.0000000000
10
-13.6600854125
20
20.9992487210
30
0.0000000000
10
-13.1475276962
20
20.4773040538
30
0.0000000000
10
-12.8849263955
20
20.2099576861
30
0.0000000000
11
-14.4226763587
21
21.7757162451
31
0.0000000000
11
-13.6726684051
21
21.0120575785
31
0.0000000000
11
-12.8849263955
21
20.2099576861
31
0.0000000000
0
ENDSEC
0
SECTION
2
OBJECTS
0
DICTIONARY
5
C
100
AcDbDictionary
280
0
281
1
3
ACAD_GROUP
350
D
3
ACAD_MLINESTYLE
350
17
3
ACAD_LAYOUT
350
1A
3
ACAD_PLOTSETTINGS
350
19
3
ACAD_PLOTSTYLENAME
350
E
0
DICTIONARY
5
D
102
{ACAD_REACTORS
330
C
102
}
100
AcDbDictionary
280
0
281
1
0
ACDBDICTIONARYWDFLT
5
E
102
{ACAD_REACTORS
330
C
102
}
100
AcDbDictionary
281
1
3
Normal
350
F
100
AcDbDictionaryWithDefault
340
F
0
DICTIONARY
5
17
102
{ACAD_REACTORS
330
C
102
}
100
AcDbDictionary
280
0
281
1
3
Standard
350
18
0
DICTIONARY
5
19
102
{ACAD_REACTORS
330
C
102
}
100
AcDbDictionary
281
1
0
DICTIONARY
5
1A
102
{ACAD_REACTORS
330
C
102
}
100
AcDbDictionary
281
1
3
Layout1
350
1E
3
Model
350
22
0
ACDBPLACEHOLDER
5
F
102
{ACAD_REACTORS
330
E
102
}
0
MLINESTYLE
5
18
102
{ACAD_REACTORS
330
17
102
}
100
AcDbMlineStyle
2
STANDARD
70
0
3

62
256
51
90.0
52
90.0
71
2
49
0.5
62
256
6
BYLAYER
49
-0.5
62
256
6
BYLAYER
0
LAYOUT
5
1E
102
{ACAD_REACTORS
330
1A
102
}
100
AcDbPlotSettings
1

2

4

6

40
0.0
41
0.0
42
0.0
43
0.0
44
0.0
45
0.0
46
0.0
47
0.0
48
0.0
49
0.0
140
0.0
141
0.0
142
1.0
143
1.0
70
0
72
0
73
0
74
0
7

75
0
147
1.0
148
0.0
149
0.0
100
AcDbLayout
1
Layout1
70
0
71
0
10
0.0
20
0.0
11
0.0
21
0.0
12
0.0
22
0.0
32
0.0
14
0.0
24
0.0
34
0.0
15
0.0
25
0.0
35
0.0
146
0.0
13
0.0
23
0.0
33
0.0
16
0.0
26
0.0
36
0.0
17
0.0
27
0.0
37
0.0
76
0
330
1B
331
0
345
0
346
0
0
LAYOUT
5
22
102
{ACAD_REACTORS
330
1A
102
}
100
AcDbPlotSettings
1

2

4

6

40
0.0
41
0.0
42
0.0
43
0.0
44
0.0
45
0.0
46
0.0
47
0.0
48
0.0
49
0.0
140
0.0
141
0.0
142
1.0
143
1.0
70
0
72
0
73
0
74
0
7

75
0
147
1.0
148
0.0
149
0.0
100
AcDbLayout
1
Model
70
0
71
0
10
0.0
20
0.0
11
0.0
21
0.0
12
0.0
22
0.0
32
0.0
14
0.0
24
0.0
34
0.0
15
0.0
25
0.0
35
0.0
146
0.0
13
0.0
23
0.0
33
0.0
16
0.0
26
0.0
36
0.0
17
0.0
27
0.0
37
0.0
76
0
330
1F
331
0
345
0
346
0
0
ENDSEC
0
EOF
