  0
SECTION
  2
HEADER
  9
$ACADVER
  1
AC1024
  9
$DWGCODEPAGE
  3
ANSI_1252
  9
$EXTMAX
 10
297.0
 20
210.0
 30
0.0
  9
$EXTMIN
 10
0.0
 20
0.0
 30
0.0
  9
$LIMMIN
 10
0.0
 20
0.0
  9
$LIMMAX
 10
297.0
 20
210.0
  9
$VIEWCTR
 10
148.5
 20
105.0
  9
$VIEWSIZE
 40
210.0
  9
$CLAYER
  8
0
  9
$LTSCALE
 40
16.335
  9
$CELTYPE
  6
BYLAYER
  9
$DIMSCALE
 40
1.0
  9
$DIMASZ
 40
3.0
  9
$DIMEXO
 40
0.5
  9
$DIMDLI
 40
11.286
  9
$DIMEXE
 40
1.5
  9
$DIMCEN
 40
2.673
  9
$DIMLFAC
 40
1.0
  9
$DIMBLK
  1
_FILLED
  9
$DIMALT
 70
0
  9
$DIMALTF
 40
0.0393700787
  9
$DIMTXT
 40
3.0
  9
$DIMTOL
 70
1
  9
$DIMLIM
 70
0
  9
$DIMTFAC
 40
1.0
  9
$DIMTP
 40
0.01
  9
$DIMTM
 40
0.01
  9
$DIMGAP
 40
0.625
  9
$DIMDSEP
 70
44
  9
$AUNITS
 70
0
  9
$PDMODE
 70
3
  9
$PDSIZE
 40
3.0
  9
$HANDSEED
  5
44C
  9
$TILEMODE
 70
1
  9
$MEASUREMENT
 70
1
  9
$INSUNITS
 70
4
  0
ENDSEC
  0
SECTION
  2
CLASSES
  0
CLASS
  1
ACDBDICTIONARYWDFLT
  2
AcDbDictionaryWithDefault
  3
AutoCAD 2000
 90
0
 91
1
280
0
281
0
  0
CLASS
  1
ACDBPLACEHOLDER
  2
AcDbPlaceHolder
  3
AutoCAD 2000
 90
0
 91
1
280
0
281
0
  0
CLASS
  1
LAYOUT
  2
AcDbLayout
  3
AutoCAD 2000
 90
0
 91
0
280
0
281
0
  0
ENDSEC
  0
SECTION
  2
TABLES
  0
TABLE
  2
VPORT
  5
8
100
AcDbSymbolTable
 70
2
  0
VPORT
  5
1F4
100
AcDbSymbolTableRecord
100
AcDbViewportTableRecord
  2
*ACTIVE
 70
0
 10
0.0
 20
0.0
 11
1.0
 21
1.0
 12
148.5
 22
105.0
 13
0.0
 23
0.0
 14
1.0
 24
1.0
 15
0.0
 25
0.0
 16
0.0
 26
0.0
 36
1.0
 17
0.0
 27
0.0
 37
0.0
 40
210.0
 41
1.4142857143
 42
50.0
 43
0.0
 44
0.0
 50
0.0
 51
0.0
 71
0
 72
100
 73
1
 74
1
 75
0
 76
0
 77
0
 78
0
  0
ENDTAB
  0
TABLE
  2
LTYPE
  5
5
100
AcDbSymbolTable
 70
6
  0
LTYPE
  5
14
100
AcDbSymbolTableRecord
100
AcDbLinetypeTableRecord
  2
BYBLOCK
 70
0
  3

 72
65
 73
0
 40
0.0
  0
LTYPE
  5
15
100
AcDbSymbolTableRecord
100
AcDbLinetypeTableRecord
  2
BYLAYER
 70
0
  3

 72
65
 73
0
 40
0.0
  0
LTYPE
  5
16
100
AcDbSymbolTableRecord
100
AcDbLinetypeTableRecord
  2
CONTINUOUS
 70
64
  3
Solid line
 72
65
 73
0
 40
0.0
  0
LTYPE
  5
1F5
100
AcDbSymbolTableRecord
100
AcDbLinetypeTableRecord
  2
CENTER
 70
64
  3
____ _ ____ _ ____ _ ____ _ ____ _ ____ _ ____
 72
65
 73
4
 40
0.6
 49
0.375
 74
0
 49
-0.075
 74
0
 49
0.075
 74
0
 49
-0.075
 74
0
  0
LTYPE
  5
1F6
100
AcDbSymbolTableRecord
100
AcDbLinetypeTableRecord
  2
HIDDEN
 70
64
  3
- - - - - - - - - - - - - - - - - - - -
 72
65
 73
2
 40
0.2
 49
0.1
 74
0
 49
-0.1
 74
0
  0
LTYPE
  5
1F7
100
AcDbSymbolTableRecord
100
AcDbLinetypeTableRecord
  2
PHANTOM
 70
64
  3
_____ _ _ _____ _ _ _____ _ _ _____
 72
65
 73
6
 40
0.8
 49
0.45
 74
0
 49
-0.05
 74
0
 49
0.1
 74
0
 49
-0.05
 74
0
 49
0.1
 74
0
 49
-0.05
 74
0
  0
LTYPE
  5
1F8
100
AcDbSymbolTableRecord
100
AcDbLinetypeTableRecord
  2
DOT
 70
64
  3
. . . . . . . . . . . . . . . . . . . .
 72
65
 73
2
 40
0.2
 49
0.1
 74
0
 49
-0.1
 74
0
  0
LTYPE
  5
1F9
100
AcDbSymbolTableRecord
100
AcDbLinetypeTableRecord
  2
DASHED
 70
64
  3
- - - - - - - - - - - - - - - - - - - -
 72
65
 73
2
 40
0.2
 49
0.1
 74
0
 49
-0.1
 74
0
  0
ENDTAB
  0
TABLE
  2
LAYER
  5
2
100
AcDbSymbolTable
 70
36
  0
LAYER
  5
10
100
AcDbSymbolTableRecord
100
AcDbLayerTableRecord
  2
0
 70
0
 62
7
  6
CONTINUOUS
370
-3
390
F
  0
LAYER
  5
1FA
100
AcDbSymbolTableRecord
100
AcDbLayerTableRecord
  2
DEFAULT_1
 70
0
 62
7
  6
CENTER
370
-3
390
F
  0
LAYER
  5
1FB
100
AcDbSymbolTableRecord
100
AcDbLayerTableRecord
  2
DEFAULT_2
 70
0
 62
7
  6
HIDDEN
370
-3
390
F
  0
LAYER
  5
1FC
100
AcDbSymbolTableRecord
100
AcDbLayerTableRecord
  2
DEFAULT_3
 70
0
 62
7
  6
PHANTOM
370
-3
390
F
  0
LAYER
  5
1FD
100
AcDbSymbolTableRecord
100
AcDbLayerTableRecord
  2
ASSI
 70
0
 62
7
  6
CONTINUOUS
370
-3
390
F
  0
LAYER
  5
1FE
100
AcDbSymbolTableRecord
100
AcDbLayerTableRecord
  2
COORDINATE
 70
0
 62
7
  6
CONTINUOUS
370
-3
390
F
  0
LAYER
  5
1FF
100
AcDbSymbolTableRecord
100
AcDbLayerTableRecord
  2
COORD_ORIGINE
 70
0
 62
7
  6
CONTINUOUS
370
-3
390
F
  0
LAYER
  5
200
100
AcDbSymbolTableRecord
100
AcDbLayerTableRecord
  2
COSMETICHE
 70
0
 62
7
  6
CONTINUOUS
370
-3
390
F
  0
LAYER
  5
201
100
AcDbSymbolTableRecord
100
AcDbLayerTableRecord
  2
COSMETICI
 70
0
 62
7
  6
CONTINUOUS
370
-3
390
F
  0
LAYER
  5
202
100
AcDbSymbolTableRecord
100
AcDbLayerTableRecord
  2
CURVE
 70
0
 62
7
  6
CONTINUOUS
370
-3
390
F
  0
LAYER
  5
203
100
AcDbSymbolTableRecord
100
AcDbLayerTableRecord
  2
DRAFT
 70
0
 62
7
  6
CONTINUOUS
370
-3
390
F
  0
LAYER
  5
204
100
AcDbSymbolTableRecord
100
AcDbLayerTableRecord
  2
INTF_1
 70
0
 62
7
  6
CONTINUOUS
370
-3
390
F
  0
LAYER
  5
205
100
AcDbSymbolTableRecord
100
AcDbLayerTableRecord
  2
INTF_11
 70
0
 62
7
  6
CONTINUOUS
370
-3
390
F
  0
LAYER
  5
206
100
AcDbSymbolTableRecord
100
AcDbLayerTableRecord
  2
INTF_12
 70
0
 62
7
  6
CONTINUOUS
370
-3
390
F
  0
LAYER
  5
207
100
AcDbSymbolTableRecord
100
AcDbLayerTableRecord
  2
INTF_2
 70
0
 62
7
  6
CONTINUOUS
370
-3
390
F
  0
LAYER
  5
208
100
AcDbSymbolTableRecord
100
AcDbLayerTableRecord
  2
INTF_8
 70
0
 62
7
  6
CONTINUOUS
370
-3
390
F
  0
LAYER
  5
209
100
AcDbSymbolTableRecord
100
AcDbLayerTableRecord
  2
INTF_9
 70
0
 62
7
  6
CONTINUOUS
370
-3
390
F
  0
LAYER
  5
20A
100
AcDbSymbolTableRecord
100
AcDbLayerTableRecord
  2
NOTE
 70
0
 62
7
  6
CONTINUOUS
370
-3
390
F
  0
LAYER
  5
20B
100
AcDbSymbolTableRecord
100
AcDbLayerTableRecord
  2
PIANI
 70
0
 62
7
  6
CONTINUOUS
370
-3
390
F
  0
LAYER
  5
20C
100
AcDbSymbolTableRecord
100
AcDbLayerTableRecord
  2
PIANI_ORIGINE
 70
0
 62
7
  6
CONTINUOUS
370
-3
390
F
  0
LAYER
  5
20D
100
AcDbSymbolTableRecord
100
AcDbLayerTableRecord
  2
PUNTI
 70
0
 62
7
  6
CONTINUOUS
370
-3
390
F
  0
LAYER
  5
20E
100
AcDbSymbolTableRecord
100
AcDbLayerTableRecord
  2
RACCORDO
 70
0
 62
7
  6
CONTINUOUS
370
-3
390
F
  0
LAYER
  5
20F
100
AcDbSymbolTableRecord
100
AcDbLayerTableRecord
  2
RGB__255__255__255__
 70
0
 62
7
  6
CONTINUOUS
370
-3
390
F
  0
LAYER
  5
210
100
AcDbSymbolTableRecord
100
AcDbLayerTableRecord
  2
RGB____0____0____0__
 70
0
 62
7
  6
CONTINUOUS
370
-3
390
F
  0
LAYER
  5
211
100
AcDbSymbolTableRecord
100
AcDbLayerTableRecord
  2
SMUSSO
 70
0
 62
7
  6
CONTINUOUS
370
-3
390
F
  0
LAYER
  5
212
100
AcDbSymbolTableRecord
100
AcDbLayerTableRecord
  2
SNAPLINE
 70
0
 62
7
  6
CONTINUOUS
370
-3
390
F
  0
LAYER
  5
213
100
AcDbSymbolTableRecord
100
AcDbLayerTableRecord
  2
SUPERFICI
 70
0
 62
7
  6
CONTINUOUS
370
-3
390
F
  0
LAYER
  5
214
100
AcDbSymbolTableRecord
100
AcDbLayerTableRecord
  2
TRASH
 70
0
 62
7
  6
CONTINUOUS
370
-3
390
F
  0
LAYER
  5
215
100
AcDbSymbolTableRecord
100
AcDbLayerTableRecord
  2
XSEC_DATUMS
 70
0
 62
7
  6
CONTINUOUS
370
-3
390
F
  0
ENDTAB
  0
TABLE
  2
STYLE
  5
3
100
AcDbSymbolTable
 70
1
  0
STYLE
  5
11
100
AcDbSymbolTableRecord
100
AcDbTextStyleTableRecord
  2
STANDARD
 70
0
 40
0.0
 41
0.8
 50
0.0
 71
0
 42
0.2
  3
txt
  4

  0
STYLE
  5
216
100
AcDbSymbolTableRecord
100
AcDbTextStyleTableRecord
  2
TEXTSTYLE_1
 70
0
 40
0.0
 41
0.8
 50
0.0
 71
0
 42
0.2
  3
gdt
  4

  0
ENDTAB
  0
TABLE
  2
VIEW
  5
6
100
AcDbSymbolTable
 70
0
  0
ENDTAB
  0
TABLE
  2
UCS
  5
7
100
AcDbSymbolTable
 70
0
  0
ENDTAB
  0
TABLE
  2
APPID
  5
9
100
AcDbSymbolTable
 70
1
  0
APPID
  5
217
100
AcDbSymbolTableRecord
100
AcDbRegAppTableRecord
  2
ACAD
 70
0
  0
ENDTAB
  0
TABLE
  2
BLOCK_RECORD
  5
1
100
AcDbSymbolTable
 70
0
  0
BLOCK_RECORD
  5
218
100
AcDbSymbolTableRecord
100
AcDbBlockTableRecord
  2
*Model_Space
  0
BLOCK_RECORD
  5
219
100
AcDbSymbolTableRecord
100
AcDbBlockTableRecord
  2
*Paper_Space
  0
BLOCK_RECORD
  5
21A
100
AcDbSymbolTableRecord
100
AcDbBlockTableRecord
  2
_FILLED
  0
BLOCK_RECORD
  5
21B
100
AcDbSymbolTableRecord
100
AcDbBlockTableRecord
  2
*D0
  0
BLOCK_RECORD
  5
21C
100
AcDbSymbolTableRecord
100
AcDbBlockTableRecord
  2
*D1
  0
BLOCK_RECORD
  5
21D
100
AcDbSymbolTableRecord
100
AcDbBlockTableRecord
  2
*D2
  0
BLOCK_RECORD
  5
21E
100
AcDbSymbolTableRecord
100
AcDbBlockTableRecord
  2
*D3
  0
ENDTAB
  0
TABLE
  2
DIMSTYLE
  5
A
100
AcDbSymbolTable
 70
1
100
AcDbDimStyleTable
 71
0
  0
DIMSTYLE
105
21F
100
AcDbSymbolTableRecord
100
AcDbDimStyleTableRecord
  2
STANDARD
 70
0
  3

  4

 40
1.0
 41
3.0
 42
0.5
 43
0.38
 44
1.5
 45
0.0
 46
0.0
 47
0.01
 48
0.01
140
3.0
141
0.09
142
0.0
143
25.4
144
1.0
145
0.0
146
1.0
147
0.625
 71
1
 72
0
 73
0
 74
0
 75
0
 76
0
 77
1
 78
8
 79
2
170
0
171
1
172
0
173
0
174
0
175
0
176
0
177
0
178
0
270
2
179
2
271
2
272
2
273
2
274
2
275
0
280
0
281
0
282
0
283
1
284
8
285
0
286
0
287
3
288
0
340
11
278
44
341
21A
342
21A
343
21A
344
21A
  0
DIMSTYLE
105
220
100
AcDbSymbolTableRecord
100
AcDbDimStyleTableRecord
  2
DIMSTYLE_1
 70
0
  3

  4

 40
1.0
 41
3.0
 42
0.5
 43
0.38
 44
1.5
 45
0.0
 46
0.0
 47
0.0
 48
0.0
140
3.0
141
0.09
142
0.0
143
25.4
144
1.0
145
0.0
146
1.0
147
0.75
 71
0
 72
0
 73
0
 74
0
 75
0
 76
0
 77
1
 78
8
 79
2
170
0
171
1
172
0
173
0
174
0
175
0
176
0
177
0
178
0
270
2
179
2
271
2
272
2
273
2
274
2
275
0
280
0
281
0
282
0
283
1
284
8
285
0
286
0
287
3
288
0
340
11
278
44
341
21A
342
21A
343
21A
344
21A
  0
ENDTAB
  0
ENDSEC
  0
SECTION
  2
BLOCKS
  0
BLOCK
  5
20
100
AcDbEntity
  8
0
100
AcDbBlockBegin
  2
*Model_Space
 70
0
 10
0.0
 20
0.0
 30
0.0
  3
*Model_Space
  1

  0
ENDBLK
  5
21
100
AcDbEntity
  8
0
100
AcDbBlockEnd
  0
BLOCK
  5
1C
100
AcDbEntity
  8
0
100
AcDbBlockBegin
  2
*Paper_Space
 70
0
 10
0.0
 20
0.0
 30
0.0
  3
*Paper_Space
  1

  0
ENDBLK
  5
1D
100
AcDbEntity
  8
0
100
AcDbBlockEnd
  0
BLOCK
  5
221
100
AcDbEntity
  8
0
100
AcDbBlockBegin
  2
_FILLED
 70
64
 10
0.0
 20
0.0
  3
_FILLED
  1

  0
SOLID
  5
222
100
AcDbEntity
  8
0
  6
BYBLOCK
 62
0
100
AcDbTrace
 10
0.0
 20
0.0
 11
-1.0
 21
0.3166666667
 12
-1.0
 22
-0.3166666667
 13
-1.0
 23
-0.3166666667
  0
ENDBLK
  5
223
100
AcDbEntity
  8
0
  6
BYBLOCK
 62
0
100
AcDbBlockEnd
  0
BLOCK
  5
224
100
AcDbEntity
  8
0
100
AcDbBlockBegin
 62
7
  6
CONTINUOUS
  2
*D0
 70
65
 10
0.0
 20
0.0
  3
*D0
  1

  0
LINE
  5
225
100
AcDbEntity
  8
0
100
AcDbLine
 62
7
  6
CONTINUOUS
 10
4.1748574782
 20
23.5
 11
28.6849553932
 21
23.5
  0
LINE
  5
226
100
AcDbEntity
  8
0
100
AcDbLine
 62
7
  6
CONTINUOUS
 10
4.1748574782
 20
-23.5
 11
28.6849553932
 21
-23.5
  0
LINE
  5
227
100
AcDbEntity
  8
0
100
AcDbLine
 62
7
  6
CONTINUOUS
 10
27.1849553932
 20
23.5
 11
27.1849553932
 21
0.0
  0
LINE
  5
228
100
AcDbEntity
  8
0
100
AcDbLine
 62
7
  6
CONTINUOUS
 10
27.1849553932
 20
-23.5
 11
27.1849553932
 21
0.0
  0
INSERT
  5
229
100
AcDbEntity
  8
0
100
AcDbBlockReference
 62
7
  6
CONTINUOUS
  2
_FILLED
 10
27.1849553932
 20
23.5
 41
3.0
 42
3.0
 43
3.0
 50
90.0
  0
INSERT
  5
22A
100
AcDbEntity
  8
0
100
AcDbBlockReference
 62
7
  6
CONTINUOUS
  2
_FILLED
 10
27.1849553932
 20
-23.5
 41
3.0
 42
3.0
 43
3.0
 50
270.0
  0
ENDBLK
  5
22B
100
AcDbEntity
  8
0
  6
BYBLOCK
 62
0
100
AcDbBlockEnd
  0
BLOCK
  5
22C
100
AcDbEntity
  8
0
100
AcDbBlockBegin
 62
7
  6
CONTINUOUS
  2
*D1
 70
65
 10
0.0
 20
0.0
  3
*D1
  1

  0
LINE
  5
22D
100
AcDbEntity
  8
0
100
AcDbLine
 62
7
  6
CONTINUOUS
 10
11.15
 20
22.3997711479
 11
11.15
 21
37.326937992
  0
LINE
  5
22E
100
AcDbEntity
  8
0
100
AcDbLine
 62
7
  6
CONTINUOUS
 10
-11.15
 20
22.3997711479
 11
-11.15
 21
37.326937992
  0
LINE
  5
22F
100
AcDbEntity
  8
0
100
AcDbLine
 62
7
  6
CONTINUOUS
 10
11.15
 20
35.826937992
 11
0.0
 21
35.826937992
  0
LINE
  5
230
100
AcDbEntity
  8
0
100
AcDbLine
 62
7
  6
CONTINUOUS
 10
-11.15
 20
35.826937992
 11
0.0
 21
35.826937992
  0
INSERT
  5
231
100
AcDbEntity
  8
0
100
AcDbBlockReference
 62
7
  6
CONTINUOUS
  2
_FILLED
 10
11.15
 20
35.826937992
 41
3.0
 42
3.0
 43
3.0
  0
INSERT
  5
232
100
AcDbEntity
  8
0
100
AcDbBlockReference
 62
7
  6
CONTINUOUS
  2
_FILLED
 10
-11.15
 20
35.826937992
 41
3.0
 42
3.0
 43
3.0
 50
180.0
  0
ENDBLK
  5
233
100
AcDbEntity
  8
0
  6
BYBLOCK
 62
0
100
AcDbBlockEnd
  0
BLOCK
  5
234
100
AcDbEntity
  8
0
100
AcDbBlockBegin
 62
7
  6
CONTINUOUS
  2
*D2
 70
65
 10
0.0
 20
0.0
  3
*D2
  1

  0
LINE
  5
235
100
AcDbEntity
  8
0
100
AcDbLine
 62
7
  6
CONTINUOUS
 10
-42.9341117434
 20
13.5604923561
 11
-42.9341117434
 21
37.1581169394
  0
LINE
  5
236
100
AcDbEntity
  8
0
100
AcDbLine
 62
7
  6
CONTINUOUS
 10
-69.9341117434
 20
22.3997711479
 11
-69.9341117434
 21
37.1581169394
  0
LINE
  5
237
100
AcDbEntity
  8
0
100
AcDbLine
 62
7
  6
CONTINUOUS
 10
-42.9341117434
 20
35.6581169394
 11
-56.4341117434
 21
35.6581169394
  0
LINE
  5
238
100
AcDbEntity
  8
0
100
AcDbLine
 62
7
  6
CONTINUOUS
 10
-69.9341117434
 20
35.6581169394
 11
-56.4341117434
 21
35.6581169394
  0
INSERT
  5
239
100
AcDbEntity
  8
0
100
AcDbBlockReference
 62
7
  6
CONTINUOUS
  2
_FILLED
 10
-42.9341117434
 20
35.6581169394
 41
3.0
 42
3.0
 43
3.0
  0
INSERT
  5
23A
100
AcDbEntity
  8
0
100
AcDbBlockReference
 62
7
  6
CONTINUOUS
  2
_FILLED
 10
-69.9341117434
 20
35.6581169394
 41
3.0
 42
3.0
 43
3.0
 50
180.0
  0
ENDBLK
  5
23B
100
AcDbEntity
  8
0
  6
BYBLOCK
 62
0
100
AcDbBlockEnd
  0
BLOCK
  5
23C
100
AcDbEntity
  8
0
100
AcDbBlockBegin
 62
7
  6
CONTINUOUS
  2
*D3
 70
65
 10
0.0
 20
0.0
  3
*D3
  1

  0
LINE
  5
23D
100
AcDbEntity
  8
0
100
AcDbLine
 62
7
  6
CONTINUOUS
 10
-42.9341117434
 20
13.5604923561
 11
-42.9341117434
 21
45.1581169394
  0
LINE
  5
23E
100
AcDbEntity
  8
0
100
AcDbLine
 62
7
  6
CONTINUOUS
 10
-79.4341117434
 20
0.5
 11
-79.4341117434
 21
45.1581169394
  0
LINE
  5
23F
100
AcDbEntity
  8
0
100
AcDbLine
 62
7
  6
CONTINUOUS
 10
-42.9341117434
 20
43.6581169394
 11
-61.1841117434
 21
43.6581169394
  0
LINE
  5
240
100
AcDbEntity
  8
0
100
AcDbLine
 62
7
  6
CONTINUOUS
 10
-79.4341117434
 20
43.6581169394
 11
-61.1841117434
 21
43.6581169394
  0
INSERT
  5
241
100
AcDbEntity
  8
0
100
AcDbBlockReference
 62
7
  6
CONTINUOUS
  2
_FILLED
 10
-42.9341117434
 20
43.6581169394
 41
3.0
 42
3.0
 43
3.0
  0
INSERT
  5
242
100
AcDbEntity
  8
0
100
AcDbBlockReference
 62
7
  6
CONTINUOUS
  2
_FILLED
 10
-79.4341117434
 20
43.6581169394
 41
3.0
 42
3.0
 43
3.0
 50
180.0
  0
ENDBLK
  5
243
100
AcDbEntity
  8
0
  6
BYBLOCK
 62
0
100
AcDbBlockEnd
  0
ENDSEC
  0
SECTION
  2
ENTITIES
  0
DIMENSION
  5
244
100
AcDbEntity
  8
0
100
AcDbDimension
 62
7
  6
CONTINUOUS
  2
*D0
 10
27.1849553932
 20
-23.5
 11
27.1849553932
 21
-2.3571428571
 70
160
 71
2
 72
2
 41
0.9
 42
47.0
  3
DIMSTYLE_1
100
AcDbAlignedDimension
 13
3.6748574782
 23
23.5
 14
3.6748574782
 24
-23.5
 50
270.0
100
AcDbRotatedDimension
  0
DIMENSION
  5
245
100
AcDbEntity
  8
0
100
AcDbDimension
 62
7
  6
CONTINUOUS
  2
*D1
 10
-11.15
 20
35.826937992
 11
-4.2857142857
 21
35.826937992
 70
160
 71
2
 72
2
 41
0.9
 42
22.3
  3
DIMSTYLE_1
100
AcDbAlignedDimension
 13
11.15
 23
21.8997711479
 14
-11.15
 24
21.8997711479
 50
180.0
100
AcDbRotatedDimension
  0
DIMENSION
  5
246
100
AcDbEntity
  8
0
100
AcDbDimension
 62
7
  6
CONTINUOUS
  2
*D2
 10
-69.9341117434
 20
35.6581169394
 11
-58.7912546006
 21
35.6581169394
 70
160
 71
2
 72
2
 41
0.9
 42
27.0
  3
DIMSTYLE_1
100
AcDbAlignedDimension
 13
-42.9341117434
 23
13.0604923561
 14
-69.9341117434
 24
21.8997711479
 50
180.0
100
AcDbRotatedDimension
  0
DIMENSION
  5
247
100
AcDbEntity
  8
0
100
AcDbDimension
 62
7
  6
CONTINUOUS
  2
*D3
 10
-79.4341117434
 20
43.6581169394
 11
-65.362683172
 21
43.6581169394
 70
160
 71
2
 72
2
 41
0.9
 42
36.5
  3
DIMSTYLE_1
100
AcDbAlignedDimension
 13
-42.9341117434
 23
13.0604923561
 14
-79.4341117434
 24
0.0
 50
180.0
100
AcDbRotatedDimension
  0
LWPOLYLINE
  5
248
100
AcDbEntity
  8
0
100
AcDbPolyline
 62
7
  6
CONTINUOUS
 90
5
 70
0
 43
0.3500000006
 10
3.0000000658
 20
38.2912240906
 10
3.357142951
 20
38.5055085754
 10
3.357142951
 20
39.1483665619
 10
3.0000000658
 20
39.5769400635
 10
2.1428571696
 20
39.5769400635
  0
LWPOLYLINE
  5
249
100
AcDbEntity
  8
0
100
AcDbPolyline
 62
250
  6
CONTINUOUS
 90
15
 70
0
 10
-11.0004589101
 20
20.9972959167
 10
-10.9968787779
 20
20.9994689024
 10
-10.9879806557
 20
21.001618604
 10
-10.9738598809
 20
21.0037219888
 10
-10.9546677482
 20
21.0057565204
 10
-10.9306098884
 20
21.0077004004
 10
-10.9019440654
 20
21.0095328012
 10
-10.8689774144
 20
21.01123409
 10
-10.832063151
 20
21.0127860385
 10
-10.7915967869
 20
21.0141720186
 10
-10.7480118921
 20
21.0153771806
 10
-10.7017754498
 20
21.0163886117
 10
-10.6533828524
 20
21.017195475
 10
-10.6033525943
 20
21.0177891252
 10
-10.5522207164
 20
21.018163202
  0
LWPOLYLINE
  5
24A
100
AcDbEntity
  8
0
100
AcDbPolyline
 62
250
  6
CONTINUOUS
 90
16
 70
0
 10
10.5087981167
 20
-21.9749071372
 10
10.5610250585
 20
-21.9721272741
 10
10.6126803347
 20
-21.9639134185
 10
10.6631986439
 20
-21.9503554931
 10
10.7120271457
 20
-21.9316018984
 10
10.758631471
 20
-21.9078579019
 10
10.8025015766
 20
-21.8793834041
 10
10.8431573848
 20
-21.8464900609
 10
10.880154008
 20
-21.8095378762
 10
10.9130865885
 20
-21.7689312914
 10
10.9415947695
 20
-21.7251147213
 10
10.9653666243
 20
-21.6785676924
 10
10.9841420552
 20
-21.6297996177
 10
10.9977156511
 20
-21.5793442013
 10
11.0059389312
 20
-21.5277535958
 10
11.0087219643
 20
-21.4755923698
  0
LWPOLYLINE
  5
24B
100
AcDbEntity
  8
0
100
AcDbPolyline
 62
250
  6
CONTINUOUS
 90
15
 70
0
 10
10.5522211667
 20
-21.018163739
 10
10.603353479
 20
-21.0177896586
 10
10.6533841415
 20
-21.0171959976
 10
10.7017770995
 20
-21.0163891167
 10
10.7480138458
 20
-21.0153776612
 10
10.7915989758
 20
-21.0141724686
 10
10.8320654959
 20
-21.0127864518
 10
10.8689798267
 20
-21.0112344614
 10
10.9019464489
 20
-21.0095331261
 10
10.9306121411
 20
-21.0077006751
 10
10.954669764
 20
-21.0057567421
 10
10.973861552
 20
-21.0037221554
 10
10.987981874
 20
-21.0016187146
 10
10.9968794378
 20
-20.9994689572
 10
11.0004589101
 20
-20.9972959167
  0
LINE
  5
24C
100
AcDbEntity
  8
0
100
AcDbLine
 62
7
  6
CONTINUOUS
 10
-3.6748574782
 20
-23.5
 11
3.6748574782
 21
-23.5
  0
LINE
  5
24D
100
AcDbEntity
  8
0
100
AcDbLine
 62
7
  6
CONTINUOUS
 10
3.4698202597
 20
-22.5
 11
-3.4698202597
 21
-22.5
  0
LINE
  5
24E
100
AcDbEntity
  8
0
100
AcDbLine
 62
7
  6
CONTINUOUS
 10
10.6503805997
 20
-22.4
 11
3.3
 21
-22.4
  0
LINE
  5
24F
100
AcDbEntity
  8
0
100
AcDbLine
 62
7
  6
CONTINUOUS
 10
-3.3
 20
-22.4
 11
-10.6503805997
 21
-22.4
  0
LINE
  5
250
100
AcDbEntity
  8
0
100
AcDbLine
 62
250
  6
CONTINUOUS
 10
10.5087981167
 20
-21.9749071372
 11
-10.5087981167
 21
-21.9749071372
  0
LINE
  5
251
100
AcDbEntity
  8
0
100
AcDbLine
 62
250
  6
CONTINUOUS
 10
10.5522211667
 20
-21.018163739
 11
-10.5005350625
 21
-21.0183142309
  0
LWPOLYLINE
  5
252
100
AcDbEntity
  8
0
100
AcDbPolyline
 62
7
  6
CONTINUOUS
 90
10
 70
0
 10
-3.6748574782
 20
-23.5
 10
-3.7403303995
 20
-23.497809388
 10
-3.8049842417
 20
-23.491478198
 10
-3.8688190046
 20
-23.4810064299
 10
-3.9320970679
 20
-23.4663149736
 10
-3.994556052
 20
-23.4474829393
 10
-4.0554088181
 20
-23.4247476575
 10
-4.1143929866
 20
-23.3981882383
 10
-4.1717709372
 20
-23.3677255716
 10
-4.2275426698
 20
-23.3333596575
  0
LWPOLYLINE
  5
253
100
AcDbEntity
  8
0
100
AcDbPolyline
 62
250
  6
CONTINUOUS
 90
16
 70
0
 10
-11.0004589101
 20
-20.9972959167
 10
-10.9968794372
 20
-20.9994689572
 10
-10.987981873
 20
-21.0016187146
 10
-10.9738615505
 20
-21.0037221554
 10
-10.9546697623
 20
-21.0057567422
 10
-10.9306121391
 20
-21.0077006752
 10
-10.9019464468
 20
-21.0095331264
 10
-10.8689798245
 20
-21.0112344617
 10
-10.8320654937
 20
-21.0127864522
 10
-10.7915989738
 20
-21.0141724691
 10
-10.7480138439
 20
-21.0153776619
 10
-10.7017770979
 20
-21.0163891175
 10
-10.6533841403
 20
-21.0171959985
 10
-10.6033534782
 20
-21.0177896593
 10
-10.5522211662
 20
-21.0181637392
 10
-10.5005350625
 20
-21.0183142303
  0
LWPOLYLINE
  5
254
100
AcDbEntity
  8
0
100
AcDbPolyline
 62
250
  6
CONTINUOUS
 90
16
 70
0
 10
-11.0087219643
 20
-21.4755923698
 10
-11.0059389565
 20
-21.5277533572
 10
-10.9977157435
 20
-21.5793437688
 10
-10.9841422433
 20
-21.6297990407
 10
-10.9653669231
 20
-21.6785670232
 10
-10.9415951808
 20
-21.7251140105
 10
-10.913087103
 20
-21.7689305846
 10
-10.8801546044
 20
-21.8095372149
 10
-10.8431580328
 20
-21.8464894782
 10
-10.8025022426
 20
-21.8793829208
 10
-10.7586321152
 20
-21.9078575303
 10
-10.7120277256
 20
-21.9316016403
 10
-10.6631991243
 20
-21.950355337
 10
-10.6126806845
 20
-21.963913344
 10
-10.5610252467
 20
-21.9721272542
 10
-10.5087981167
 20
-21.9749071371
  0
LWPOLYLINE
  5
255
100
AcDbEntity
  8
0
100
AcDbPolyline
 62
250
  6
CONTINUOUS
 90
16
 70
0
 10
-11.0087219643
 20
21.4755923698
 10
-11.0059388076
 20
21.5277547588
 10
-10.9977152003
 20
21.5793463095
 10
-10.9841411372
 20
21.6298024308
 10
-10.9653651658
 20
21.6785709569
 10
-10.9415927608
 20
21.7251181902
 10
-10.913084075
 20
21.7689347421
 10
-10.8801510927
 20
21.8095411067
 10
-10.8431542154
 20
21.846492909
 10
-10.8024983179
 20
21.8793857676
 10
-10.7586283172
 20
21.90785972
 10
-10.712024304
 20
21.9316031621
 10
-10.6631962884
 20
21.9503562579
 10
-10.612678619
 20
21.9639137831
 10
-10.5610241352
 20
21.9721273713
 10
-10.5087981167
 20
21.9749071372
  0
LINE
  5
256
100
AcDbEntity
  8
0
100
AcDbLine
 62
7
  6
CONTINUOUS
 10
-3.3
 20
22.4
 11
-3.2333672024
 21
22.5
  0
LINE
  5
257
100
AcDbEntity
  8
0
100
AcDbLine
 62
7
  6
CONTINUOUS
 10
-3.2333672024
 20
-22.5
 11
-3.3
 21
-22.4
  0
LWPOLYLINE
  5
258
100
AcDbEntity
  8
0
100
AcDbPolyline
 62
250
  6
CONTINUOUS
 90
7
 70
0
 10
-11.0046622904
 20
21.404111377
 10
-11.005288961
 20
21.4238178805
 10
-11.005945919
 20
21.4406578587
 10
-11.0066191044
 20
21.4542894799
 10
-11.0073038303
 20
21.4645988002
 10
-11.0080047836
 20
21.4716997635
 10
-11.0087219643
 20
21.4755923698
  0
LWPOLYLINE
  5
259
100
AcDbEntity
  8
0
100
AcDbPolyline
 62
250
  6
CONTINUOUS
 90
5
 70
0
 10
-10.5060157428
 20
21.9047671365
 10
-10.5066888224
 20
21.9320739422
 10
-10.5073747324
 20
21.9529518547
 10
-10.5080778305
 20
21.9672615288
 10
-10.5087981167
 20
21.9749071372
  0
LINE
  5
25A
100
AcDbEntity
  8
0
100
AcDbLine
 62
250
  6
CONTINUOUS
 10
-11.0035016383
 20
21.3559863514
 11
-11.0046622904
 21
21.404111377
  0
LINE
  5
25B
100
AcDbEntity
  8
0
100
AcDbLine
 62
250
  6
CONTINUOUS
 10
-11.002496988
 20
21.2978833989
 11
-11.0035016383
 21
21.3559863514
  0
LINE
  5
25C
100
AcDbEntity
  8
0
100
AcDbLine
 62
250
  6
CONTINUOUS
 10
-10.5047342215
 20
21.8316458675
 11
-10.5060157428
 21
21.9047671365
  0
LINE
  5
25D
100
AcDbEntity
  8
0
100
AcDbLine
 62
250
  6
CONTINUOUS
 10
-11.0013302604
 20
21.1948683247
 11
-11.002496988
 21
21.2978833989
  0
LINE
  5
25E
100
AcDbEntity
  8
0
100
AcDbLine
 62
250
  6
CONTINUOUS
 10
-10.5030519768
 20
21.6796989761
 11
-10.5047342215
 21
21.8316458675
  0
LINE
  5
25F
100
AcDbEntity
  8
0
100
AcDbLine
 62
250
  6
CONTINUOUS
 10
-11.0006373651
 20
21.0789215441
 11
-11.0013302604
 21
21.1948683247
  0
LINE
  5
260
100
AcDbEntity
  8
0
100
AcDbLine
 62
250
  6
CONTINUOUS
 10
-10.5011186581
 20
21.3380138322
 11
-10.5030519768
 21
21.6796989761
  0
LINE
  5
261
100
AcDbEntity
  8
0
100
AcDbLine
 62
250
  6
CONTINUOUS
 10
-10.5005350625
 20
21.0183142309
 11
-10.5011186581
 21
21.3380138322
  0
LINE
  5
262
100
AcDbEntity
  8
0
100
AcDbLine
 62
7
  6
CONTINUOUS
 10
-11.15
 20
-21.8997711479
 11
-11.15
 21
21.8997711479
  0
LINE
  5
263
100
AcDbEntity
  8
RACCORDO
100
AcDbLine
 62
250
  6
CONTINUOUS
 10
-7.75
 20
1.3007804683
 11
-7.75
 21
10.6063638183
  0
LWPOLYLINE
  5
264
100
AcDbEntity
  8
0
100
AcDbPolyline
 62
250
  6
CONTINUOUS
 90
9
 70
0
 10
-10.9974142982
 20
-16.3324736288
 10
-10.9951308388
 20
-11.6670309515
 10
-10.9936085319
 20
-7.0009678848
 10
-10.9928473769
 20
-2.3338717331
 10
-10.9928473744
 20
2.333844808
 10
-10.9936085263
 20
7.0009436522
 10
-10.9951308332
 20
11.667012104
 10
-10.9974142945
 20
16.3324628588
 10
-11.0006373651
 20
21.0789215441
  0
LWPOLYLINE
  5
265
100
AcDbEntity
  8
0
100
AcDbPolyline
 62
250
  6
CONTINUOUS
 90
9
 70
0
 10
-10.4974904461
 20
-16.3494810535
 10
-10.4952069838
 20
-11.6792204124
 10
-10.4936846756
 20
-7.0079400863
 10
-10.4929235216
 20
-2.3360479924
 10
-10.4929235217
 20
2.3360479974
 10
-10.4936846759
 20
7.0079400909
 10
-10.4952069841
 20
11.6792204159
 10
-10.4974904463
 20
16.3494810555
 10
-10.5005350625
 20
21.0183142309
  0
LINE
  5
266
100
AcDbEntity
  8
0
100
AcDbLine
 62
250
  6
CONTINUOUS
 10
-11.0008108466
 20
-21.1183319385
 11
-10.9974142982
 21
-16.3324736288
  0
LINE
  5
267
100
AcDbEntity
  8
0
100
AcDbLine
 62
250
  6
CONTINUOUS
 10
-10.5017440253
 20
-21.4854483283
 11
-10.4974904461
 21
-16.3494810535
  0
LINE
  5
268
100
AcDbEntity
  8
0
100
AcDbLine
 62
250
  6
CONTINUOUS
 10
-11.0016683071
 20
-21.2309534442
 11
-11.0008108466
 21
-21.1183319385
  0
LINE
  5
269
100
AcDbEntity
  8
0
100
AcDbLine
 62
250
  6
CONTINUOUS
 10
-10.5035749124
 20
-21.7355620644
 11
-10.5017440253
 21
-21.4854483283
  0
LINE
  5
26A
100
AcDbEntity
  8
0
100
AcDbLine
 62
250
  6
CONTINUOUS
 10
-10.5047342215
 20
-21.8316458675
 11
-10.5035749124
 21
-21.7355620644
  0
LINE
  5
26B
100
AcDbEntity
  8
0
100
AcDbLine
 62
250
  6
CONTINUOUS
 10
-11.002496988
 20
-21.2978833988
 11
-11.0016683071
 21
-21.2309534442
  0
LINE
  5
26C
100
AcDbEntity
  8
0
100
AcDbLine
 62
250
  6
CONTINUOUS
 10
-11.0035016383
 20
-21.3559863515
 11
-11.002496988
 21
-21.2978833988
  0
LWPOLYLINE
  5
26D
100
AcDbEntity
  8
0
100
AcDbPolyline
 62
250
  6
CONTINUOUS
 90
6
 70
0
 10
-10.5087981167
 20
-21.9749071372
 10
-10.5080778305
 20
-21.9672615288
 10
-10.5073747324
 20
-21.9529518547
 10
-10.5066888224
 20
-21.9320739422
 10
-10.5060157428
 20
-21.9047671365
 10
-10.5047342215
 20
-21.8316458675
  0
LINE
  5
26E
100
AcDbEntity
  8
0
100
AcDbLine
 62
7
  6
CONTINUOUS
 10
-3.3848722771
 20
22.4
 11
-3.3633443637
 21
22.5
  0
LWPOLYLINE
  5
26F
100
AcDbEntity
  8
0
100
AcDbPolyline
 62
7
  6
CONTINUOUS
 90
3
 70
0
 43
0.3500000006
 10
1.1428571477
 20
36.8626502838
 10
1.0714285848
 20
36.648365799
 10
0.9285714591
 20
36.3626501312
  0
LWPOLYLINE
  5
270
100
AcDbEntity
  8
RACCORDO
100
AcDbPolyline
 62
7
  6
CONTINUOUS
 90
4
 70
0
 10
-5.2341269884
 20
10.3179504583
 10
-5.2233443203
 20
10.3295473699
 10
-5.2099855147
 20
10.3431706847
 10
-5.1787205945
 20
10.3755644468
  0
LWPOLYLINE
  5
271
100
AcDbEntity
  8
RACCORDO
100
AcDbPolyline
 62
7
  6
CONTINUOUS
 90
3
 70
0
 10
-5.1787205945
 20
10.3755644468
 10
-5.16081448
 20
10.3936836692
 10
-5.1222989048
 20
10.4330104307
  0
LINE
  5
272
100
AcDbEntity
  8
RACCORDO
100
AcDbLine
 62
7
  6
CONTINUOUS
 10
-5.1222989048
 20
10.4330104307
 11
-5.0591310105
 21
10.4968637251
  0
LWPOLYLINE
  5
273
100
AcDbEntity
  8
RACCORDO
100
AcDbPolyline
 62
7
  6
CONTINUOUS
 90
3
 70
0
 10
-5.0371820375
 20
10.5188669737
 10
-4.9717342756
 20
10.5848408153
 10
-4.95
 20
10.6063638183
  0
LINE
  5
274
100
AcDbEntity
  8
RACCORDO
100
AcDbLine
 62
7
  6
CONTINUOUS
 10
-5.0591310105
 20
10.4968637251
 11
-5.0371820375
 21
10.5188669737
  0
LWPOLYLINE
  5
275
100
AcDbEntity
  8
RACCORDO
100
AcDbPolyline
 62
7
  6
CONTINUOUS
 90
3
 70
0
 10
-5.25
 20
10.3000656078
 10
-5.2472851336
 20
10.3026948169
 10
-5.2341269884
 20
10.3179504583
  0
LINE
  5
276
100
AcDbEntity
  8
RACCORDO
100
AcDbLine
 62
250
  6
CONTINUOUS
 10
3.0
 20
-8.9553732239
 11
-3.0
 21
-8.9553732239
  0
LINE
  5
277
100
AcDbEntity
  8
RACCORDO
100
AcDbLine
 62
7
  6
CONTINUOUS
 10
2.7
 20
-8.65
 11
-2.7
 21
-8.65
  0
LINE
  5
278
100
AcDbEntity
  8
0
100
AcDbLine
 62
7
  6
CONTINUOUS
 10
-3.3848722771
 20
-22.4
 11
-3.3633443637
 21
-22.5
  0
LINE
  5
279
100
AcDbEntity
  8
RACCORDO
100
AcDbLine
 62
7
  6
CONTINUOUS
 10
-7.45
 20
1.6
 11
-7.45
 21
10.3000655731
  0
LINE
  5
27A
100
AcDbEntity
  8
0
100
AcDbLine
 62
7
  6
CONTINUOUS
 10
-7.01051948
 20
9.45
 11
-7.01051948
 21
10.3
  0
LINE
  5
27B
100
AcDbEntity
  8
0
100
AcDbLine
 62
7
  6
CONTINUOUS
 10
-6.3051850426
 20
9.45
 11
-6.3051850426
 21
10.3
  0
LINE
  5
27C
100
AcDbEntity
  8
0
100
AcDbLine
 62
250
  6
CONTINUOUS
 10
-6.0035980258
 20
9.45
 11
-6.0035980258
 21
2.45
  0
LINE
  5
27D
100
AcDbEntity
  8
0
100
AcDbLine
 62
7
  6
CONTINUOUS
 10
-5.6168225658
 20
9.45
 11
-5.6168225658
 21
10.3
  0
LINE
  5
27E
100
AcDbEntity
  8
0
100
AcDbLine
 62
7
  6
CONTINUOUS
 10
-5.5935475195
 20
2.45
 11
-5.5935475195
 21
9.45
  0
LINE
  5
27F
100
AcDbEntity
  8
0
100
AcDbLine
 62
7
  6
CONTINUOUS
 10
-5.4064524805
 20
9.45
 11
-5.4064524805
 21
2.45
  0
LINE
  5
280
100
AcDbEntity
  8
0
100
AcDbLine
 62
7
  6
CONTINUOUS
 10
-5.3831774342
 20
10.3
 11
-5.3831774342
 21
9.45
  0
LINE
  5
281
100
AcDbEntity
  8
RACCORDO
100
AcDbLine
 62
7
  6
CONTINUOUS
 10
-5.25
 20
10.3000655731
 11
-5.25
 21
1.6
  0
LINE
  5
282
100
AcDbEntity
  8
RACCORDO
100
AcDbLine
 62
250
  6
CONTINUOUS
 10
-4.95
 20
10.6063638183
 11
-4.95
 21
1.3007804683
  0
LWPOLYLINE
  5
283
100
AcDbEntity
  8
0
100
AcDbPolyline
 62
250
  6
CONTINUOUS
 90
8
 70
0
 10
-11.0087219643
 20
-21.4755923698
 10
-11.0080047836
 20
-21.4716997634
 10
-11.0073038303
 20
-21.4645988
 10
-11.0066191044
 20
-21.4542894797
 10
-11.005945919
 20
-21.4406578586
 10
-11.005288961
 20
-21.4238178806
 10
-11.0046622904
 20
-21.4041113772
 10
-11.0035016383
 20
-21.3559863515
  0
LINE
  5
284
100
AcDbEntity
  8
0
100
AcDbLine
 62
250
  6
CONTINUOUS
 10
-11.15
 20
-21.8997711479
 11
-11.0087219643
 21
-21.4755923698
  0
LWPOLYLINE
  5
285
100
AcDbEntity
  8
RACCORDO
100
AcDbPolyline
 62
7
  6
CONTINUOUS
 90
3
 70
0
 10
-7.7283059759
 20
1.322250001
 10
-7.6629355045
 20
1.3878702635
 10
-7.5984464267
 20
1.4523002757
  0
LWPOLYLINE
  5
286
100
AcDbEntity
  8
RACCORDO
100
AcDbPolyline
 62
7
  6
CONTINUOUS
 90
3
 70
0
 10
-7.5778332575
 20
1.4727455484
 10
-7.5393063368
 20
1.5113244018
 10
-7.5213925852
 20
1.5290008647
  0
LWPOLYLINE
  5
287
100
AcDbEntity
  8
RACCORDO
100
AcDbPolyline
 62
7
  6
CONTINUOUS
 90
7
 70
0
 10
-7.5213925852
 20
1.5290008647
 10
-7.4901135796
 20
1.5603590788
 10
-7.4767483256
 20
1.5733919043
 10
-7.4659530978
 20
1.5843242721
 10
-7.4580653723
 20
1.5927326452
 10
-7.4527476731
 20
1.5981094195
 10
-7.45
 20
1.6
  0
LINE
  5
288
100
AcDbEntity
  8
RACCORDO
100
AcDbLine
 62
7
  6
CONTINUOUS
 10
-7.5984464267
 20
1.4523002757
 11
-7.5778332575
 21
1.4727455484
  0
LINE
  5
289
100
AcDbEntity
  8
RACCORDO
100
AcDbLine
 62
7
  6
CONTINUOUS
 10
-7.75
 20
1.3007804683
 11
-7.7283059759
 21
1.322250001
  0
LWPOLYLINE
  5
28A
100
AcDbEntity
  8
RACCORDO
100
AcDbPolyline
 62
250
  6
CONTINUOUS
 90
5
 70
0
 10
-2.7401923442
 20
-5.9517860709
 10
-2.7228361189
 20
-5.9513669994
 10
-2.7102222417
 20
-5.9509245383
 10
-2.7025665388
 20
-5.950466258
 10
-2.7
 20
-5.95
  0
LINE
  5
28B
100
AcDbEntity
  8
RACCORDO
100
AcDbLine
 62
250
  6
CONTINUOUS
 10
-2.7878679051
 20
-5.952525886
 11
-2.7401923442
 21
-5.9517860709
  0
LINE
  5
28C
100
AcDbEntity
  8
RACCORDO
100
AcDbLine
 62
250
  6
CONTINUOUS
 10
-2.84999993
 20
-5.9530935663
 11
-2.7878679051
 21
-5.952525886
  0
LWPOLYLINE
  5
28D
100
AcDbEntity
  8
RACCORDO
100
AcDbPolyline
 62
250
  6
CONTINUOUS
 90
3
 70
0
 10
-3.0
 20
-5.9535721433
 10
-2.9608421132
 20
-5.9535415831
 10
-2.84999993
 20
-5.9530935663
  0
LINE
  5
28E
100
AcDbEntity
  8
RACCORDO
100
AcDbLine
 62
250
  6
CONTINUOUS
 10
3.0
 20
-5.9535721433
 11
2.8851949703
 21
-5.9533002301
  0
LINE
  5
28F
100
AcDbEntity
  8
RACCORDO
100
AcDbLine
 62
250
  6
CONTINUOUS
 10
2.8851949703
 20
-5.9533002301
 11
2.8173715713
 21
-5.9528339718
  0
LWPOLYLINE
  5
290
100
AcDbEntity
  8
RACCORDO
100
AcDbPolyline
 62
250
  6
CONTINUOUS
 90
7
 70
0
 10
2.8173715713
 20
-5.9528339718
 10
2.7619939979
 20
-5.9521745831
 10
2.7401923789
 20
-5.9517860716
 10
2.7228361402
 20
-5.9513670001
 10
2.7102222521
 20
-5.9509245387
 10
2.7025665416
 20
-5.9504662583
 10
2.7
 20
-5.95
  0
LINE
  5
291
100
AcDbEntity
  8
RACCORDO
100
AcDbLine
 62
7
  6
CONTINUOUS
 10
3.0
 20
-8.9553732239
 11
2.9780202365
 21
-8.9336080362
  0
LWPOLYLINE
  5
292
100
AcDbEntity
  8
RACCORDO
100
AcDbPolyline
 62
7
  6
CONTINUOUS
 90
3
 70
0
 10
2.7884495778
 20
-8.7422207518
 10
2.7705901795
 20
-8.7242122823
 10
2.7394119418
 20
-8.6920945127
  0
LWPOLYLINE
  5
293
100
AcDbEntity
  8
RACCORDO
100
AcDbPolyline
 62
7
  6
CONTINUOUS
 90
6
 70
0
 10
2.7394119418
 20
-8.6920945127
 10
2.7260931024
 20
-8.6786369934
 10
2.7153872252
 20
-8.6671031793
 10
2.707645188
 20
-8.6580192126
 10
2.7025161129
 20
-8.6521087339
 10
2.7
 20
-8.65
  0
LINE
  5
294
100
AcDbEntity
  8
RACCORDO
100
AcDbLine
 62
7
  6
CONTINUOUS
 10
2.9780202365
 20
-8.9336080362
 11
2.8268955275
 21
-8.7813741446
  0
LINE
  5
295
100
AcDbEntity
  8
RACCORDO
100
AcDbLine
 62
7
  6
CONTINUOUS
 10
2.8268955275
 20
-8.7813741446
 11
2.7884495778
 21
-8.7422207518
  0
LINE
  5
296
100
AcDbEntity
  8
0
100
AcDbLine
 62
250
  6
CONTINUOUS
 10
-11.0087219643
 20
21.4755923698
 11
-11.15
 21
21.8997711479
  0
LINE
  5
297
100
AcDbEntity
  8
0
100
AcDbLine
 62
7
  6
CONTINUOUS
 10
-3.4698202597
 20
22.5
 11
-3.4698202597
 21
22.4
  0
LINE
  5
298
100
AcDbEntity
  8
0
100
AcDbLine
 62
7
  6
CONTINUOUS
 10
-3.4698202597
 20
-22.5
 11
-3.4698202597
 21
-22.4
  0
LINE
  5
299
100
AcDbEntity
  8
RACCORDO
100
AcDbLine
 62
250
  6
CONTINUOUS
 10
-3.0
 20
-8.9553732239
 11
-3.0
 21
-5.9535721433
  0
LINE
  5
29A
100
AcDbEntity
  8
RACCORDO
100
AcDbLine
 62
7
  6
CONTINUOUS
 10
-2.7
 20
-8.65
 11
-2.7
 21
-5.95
  0
LINE
  5
29B
100
AcDbEntity
  8
0
100
AcDbLine
 62
7
  6
CONTINUOUS
 10
-2.6
 20
-5.2222320385
 11
-2.6
 21
-8.65
  0
LINE
  5
29C
100
AcDbEntity
  8
0
100
AcDbLine
 62
7
  6
CONTINUOUS
 10
-2.1050252532
 20
-4.2601708878
 11
-2.1050252532
 21
-8.65
  0
LINE
  5
29D
100
AcDbEntity
  8
0
100
AcDbLine
 62
250
  6
CONTINUOUS
 10
-0.5035980258
 20
-3.2975089598
 11
-0.5035980258
 21
-8.65
  0
LINE
  5
29E
100
AcDbEntity
  8
0
100
AcDbLine
 62
7
  6
CONTINUOUS
 10
-0.0935475195
 20
-8.65
 11
-0.0935475195
 21
-3.2526812518
  0
LINE
  5
29F
100
AcDbEntity
  8
0
100
AcDbLine
 62
7
  6
CONTINUOUS
 10
0.0935475195
 20
-3.2526464413
 11
0.0935475195
 21
-8.65
  0
LINE
  5
2A0
100
AcDbEntity
  8
0
100
AcDbLine
 62
250
  6
CONTINUOUS
 10
0.5035980258
 20
-8.65
 11
0.5035980258
 21
-3.2989420203
  0
LWPOLYLINE
  5
2A1
100
AcDbEntity
  8
RACCORDO
100
AcDbPolyline
 62
250
  6
CONTINUOUS
 90
76
 70
0
 10
-3.0
 20
-5.9535721433
 10
-2.9994026956
 20
-5.8871827123
 10
-2.997125546
 20
-5.8196952277
 10
-2.9931685512
 20
-5.7511096856
 10
-2.9876679359
 20
-5.68162913
 10
-2.9804874754
 20
-5.6110505097
 10
-2.9712184958
 20
-5.5387646752
 10
-2.9599170997
 20
-5.4646568711
 10
-2.9465271845
 20
-5.388841839
 10
-2.9304717688
 20
-5.3110546705
 10
-2.9118225841
 20
-5.2312733709
 10
-2.8905078988
 20
-5.149519919
 10
-2.865735537
 20
-5.0655953642
 10
-2.8375771094
 20
-4.9794191056
 10
-2.8059610052
 20
-4.8910717262
 10
-2.7698802155
 20
-4.8005960507
 10
-2.7294025335
 20
-4.7078784782
 10
-2.684460166
 20
-4.6130325928
 10
-2.6338427253
 20
-4.5164419983
 10
-2.5776045409
 20
-4.4179529691
 10
-2.5156912832
 20
-4.3177192191
 10
-2.4467295757
 20
-4.2165855187
 10
-2.3707443856
 20
-4.1143498317
 10
-2.2877107457
 20
-4.0112141926
 10
-2.1961803773
 20
-3.9086294891
 10
-2.0961159298
 20
-3.806334251
 10
-1.9875547537
 20
-3.7045899615
 10
-1.8691606227
 20
-3.6056319564
 10
-1.7407306112
 20
-3.509127683
 10
-1.6024676447
 20
-3.4154097239
 10
-1.4536442733
 20
-3.3277111393
 10
-1.2934476888
 20
-3.2456936923
 10
-1.1226906993
 20
-3.1696956646
 10
-0.9430842797
 20
-3.1039649153
 10
-0.7534744409
 20
-3.0487946495
 10
-0.5550151719
 20
-3.0038917107
 10
-0.3528794145
 20
-2.9726244252
 10
-0.1466853203
 20
-2.9560173307
 10
0.0631852623
 20
-2.9530459135
 10
0.2704138462
 20
-2.9640049185
 10
0.4747281402
 20
-2.989963978
 10
0.6764004355
 20
-3.0298534407
 10
0.8699291192
 20
-3.080759119
 10
1.0543163569
 20
-3.1431704374
 10
1.2305599831
 20
-3.2165979229
 10
1.3961518882
 20
-3.29665905
 10
1.5500717443
 20
-3.3830388754
 10
1.6933398793
 20
-3.4760522947
 10
1.826509168
 20
-3.5722615628
 10
1.9493262138
 20
-3.6713180653
 10
2.0620444133
 20
-3.7735703833
 10
2.1659768299
 20
-3.8766265868
 10
2.2610723493
 20
-3.980212669
 10
2.3473820859
 20
-4.084602621
 10
2.4263724461
 20
-4.1882265277
 10
2.4980622612
 20
-4.2908714331
 10
2.5624326999
 20
-4.3927502931
 10
2.6208936742
 20
-4.4929320732
 10
2.6734978492
 20
-4.5912556593
 10
2.7201925598
 20
-4.6878821764
 10
2.7622297223
 20
-4.7823639561
 10
2.7996767602
 20
-4.8745805793
 10
2.8324662499
 20
-4.9646524821
 10
2.8616478372
 20
-5.0524932818
 10
2.8872942876
 20
-5.138018425
 10
2.9093328356
 20
-5.2213124838
 10
2.9285948309
 20
-5.3025427633
 10
2.9451520144
 20
-5.3816653158
 10
2.9589326451
 20
-5.458724106
 10
2.9705528494
 20
-5.5340183057
 10
2.9800749425
 20
-5.6074903701
 10
2.9874366092
 20
-5.6791978583
 10
2.9930670302
 20
-5.7496125934
 10
2.9971092658
 20
-5.8188918522
 10
2.9994202557
 20
-5.8868783672
 10
3.0
 20
-5.9535721433
  0
LINE
  5
2A2
100
AcDbEntity
  8
0
100
AcDbLine
 62
7
  6
CONTINUOUS
 10
3.4151277229
 20
22.4
 11
3.4366556363
 21
22.5
  0
LINE
  5
2A3
100
AcDbEntity
  8
0
100
AcDbLine
 62
250
  6
CONTINUOUS
 10
-10.6503805997
 20
-22.4
 11
-10.5087981167
 21
-21.9749071372
  0
LWPOLYLINE
  5
2A4
100
AcDbEntity
  8
RACCORDO
100
AcDbPolyline
 62
7
  6
CONTINUOUS
 90
4
 70
0
 10
7.4658730116
 20
9.4677769594
 10
7.4766556797
 20
9.4793268751
 10
7.4900144853
 20
9.4929072684
 10
7.5212794055
 20
9.5252260801
  0
LWPOLYLINE
  5
2A5
100
AcDbEntity
  8
RACCORDO
100
AcDbPolyline
 62
7
  6
CONTINUOUS
 90
3
 70
0
 10
7.5212794055
 20
9.5252260801
 10
7.53918552
 20
9.5433134216
 10
7.5777010952
 20
9.582586643
  0
LINE
  5
2A6
100
AcDbEntity
  8
RACCORDO
100
AcDbLine
 62
7
  6
CONTINUOUS
 10
7.5777010952
 20
9.582586643
 11
7.6408689895
 21
9.6463845735
  0
LWPOLYLINE
  5
2A7
100
AcDbEntity
  8
RACCORDO
100
AcDbPolyline
 62
7
  6
CONTINUOUS
 90
3
 70
0
 10
7.6628179625
 20
9.6683756994
 10
7.7282657244
 20
9.7343310775
 10
7.75
 20
9.7558535121
  0
LINE
  5
2A8
100
AcDbEntity
  8
RACCORDO
100
AcDbLine
 62
7
  6
CONTINUOUS
 10
7.6408689895
 20
9.6463845735
 11
7.6628179625
 21
9.6683756994
  0
LWPOLYLINE
  5
2A9
100
AcDbEntity
  8
RACCORDO
100
AcDbPolyline
 62
7
  6
CONTINUOUS
 90
3
 70
0
 10
7.45
 20
9.4500553678
 10
7.4527148664
 20
9.4526269878
 10
7.4658730116
 20
9.4677769594
  0
LWPOLYLINE
  5
2AA
100
AcDbEntity
  8
0
100
AcDbPolyline
 62
7
  6
CONTINUOUS
 90
2
 70
0
 43
0.3500000006
 10
26.4349554977
 20
-1.3571429443
 10
24.93495504
 20
-1.3571429443
  0
LWPOLYLINE
  5
2AB
100
AcDbEntity
  8
0
100
AcDbPolyline
 62
7
  6
CONTINUOUS
 90
4
 70
0
 43
0.3500000006
 10
24.0778125687
 20
-0.0000003204
 10
23.4349545822
 20
-0.0000003204
 10
23.4349545822
 20
1.5000001373
 10
26.4349554977
 20
0.642857666
  0
LWPOLYLINE
  5
2AC
100
AcDbEntity
  8
RACCORDO
100
AcDbPolyline
 62
7
  6
CONTINUOUS
 90
6
 70
0
 10
-5.2098207793
 20
1.5602913581
 10
-5.2231919852
 20
1.5733274902
 10
-5.2339972459
 20
1.5842750325
 10
-5.2418974424
 20
1.5927052627
 10
-5.2472316938
 20
1.5981011565
 10
-5.25
 20
1.6
  0
LWPOLYLINE
  5
2AD
100
AcDbEntity
  8
RACCORDO
100
AcDbPolyline
 62
7
  6
CONTINUOUS
 90
3
 70
0
 10
-5.1606719543
 20
1.5113012735
 10
-5.1785607639
 20
1.5289528134
 10
-5.2098207793
 20
1.5602913581
  0
LINE
  5
2AE
100
AcDbEntity
  8
RACCORDO
100
AcDbLine
 62
7
  6
CONTINUOUS
 10
-4.95
 20
1.3007804683
 11
-4.971748457
 21
1.3223047245
  0
LINE
  5
2AF
100
AcDbEntity
  8
RACCORDO
100
AcDbLine
 62
7
  6
CONTINUOUS
 10
-4.971748457
 20
1.3223047245
 11
-5.1606719543
 21
1.5113012735
  0
LINE
  5
2B0
100
AcDbEntity
  8
0
100
AcDbLine
 62
250
  6
CONTINUOUS
 10
-10.5087981167
 20
21.9749071372
 11
-10.6503805997
 21
22.4
  0
LINE
  5
2B1
100
AcDbEntity
  8
0
100
AcDbLine
 62
7
  6
CONTINUOUS
 10
3.4151277229
 20
-22.4
 11
3.4366556363
 21
-22.5
  0
LINE
  5
2B2
100
AcDbEntity
  8
0
100
AcDbLine
 62
7
  6
CONTINUOUS
 10
2.1050252532
 20
-8.65
 11
2.1050252532
 21
-4.2595761095
  0
LINE
  5
2B3
100
AcDbEntity
  8
0
100
AcDbLine
 62
7
  6
CONTINUOUS
 10
2.6
 20
-8.65
 11
2.6
 21
-5.222281875
  0
LINE
  5
2B4
100
AcDbEntity
  8
RACCORDO
100
AcDbLine
 62
7
  6
CONTINUOUS
 10
2.7
 20
-5.95
 11
2.7
 21
-8.65
  0
LINE
  5
2B5
100
AcDbEntity
  8
RACCORDO
100
AcDbLine
 62
250
  6
CONTINUOUS
 10
3.0
 20
-5.9535721433
 11
3.0
 21
-8.9553732239
  0
LINE
  5
2B6
100
AcDbEntity
  8
0
100
AcDbLine
 62
7
  6
CONTINUOUS
 10
3.4698202597
 20
-22.4
 11
3.4698202597
 21
-22.5
  0
LINE
  5
2B7
100
AcDbEntity
  8
0
100
AcDbLine
 62
7
  6
CONTINUOUS
 10
3.4698202597
 20
22.4
 11
3.4698202597
 21
22.5
  0
LINE
  5
2B8
100
AcDbEntity
  8
0
100
AcDbLine
 62
7
  6
CONTINUOUS
 10
-3.4151277229
 20
-22.4
 11
-3.4366556363
 21
-22.5
  0
LINE
  5
2B9
100
AcDbEntity
  8
0
100
AcDbLine
 62
250
  6
CONTINUOUS
 10
10.5087981167
 20
21.9749071372
 11
10.6503805997
 21
22.4
  0
LINE
  5
2BA
100
AcDbEntity
  8
0
100
AcDbLine
 62
250
  6
CONTINUOUS
 10
11.0087219643
 20
21.4755923698
 11
11.15
 21
21.8997711479
  0
LWPOLYLINE
  5
2BB
100
AcDbEntity
  8
RACCORDO
100
AcDbPolyline
 62
7
  6
CONTINUOUS
 90
3
 70
0
 10
-2.7705901795
 20
-8.7242122823
 10
-2.7884495778
 20
-8.7422207518
 10
-2.8268955275
 20
-8.7813741446
  0
LINE
  5
2BC
100
AcDbEntity
  8
RACCORDO
100
AcDbLine
 62
7
  6
CONTINUOUS
 10
-2.8268955275
 20
-8.7813741446
 11
-2.8900848408
 21
-8.8451432673
  0
LWPOLYLINE
  5
2BD
100
AcDbEntity
  8
RACCORDO
100
AcDbPolyline
 62
7
  6
CONTINUOUS
 90
3
 70
0
 10
-2.9121010512
 20
-8.8671917461
 10
-2.9780202365
 20
-8.9336080362
 10
-3.0
 20
-8.9553732239
  0
LINE
  5
2BE
100
AcDbEntity
  8
RACCORDO
100
AcDbLine
 62
7
  6
CONTINUOUS
 10
-2.8900848408
 20
-8.8451432673
 11
-2.9121010512
 21
-8.8671917461
  0
LWPOLYLINE
  5
2BF
100
AcDbEntity
  8
RACCORDO
100
AcDbPolyline
 62
7
  6
CONTINUOUS
 90
3
 70
0
 10
4.9716704541
 20
2.1727355417
 10
5.0369956676
 20
2.2382892238
 10
5.1014740086
 20
2.302660485
  0
LWPOLYLINE
  5
2C0
100
AcDbEntity
  8
RACCORDO
100
AcDbPolyline
 62
7
  6
CONTINUOUS
 90
3
 70
0
 10
5.1220893435
 20
2.3230854887
 10
5.1606228991
 20
2.361616226
 10
5.1785411198
 20
2.3792649464
  0
LWPOLYLINE
  5
2C1
100
AcDbEntity
  8
RACCORDO
100
AcDbPolyline
 62
7
  6
CONTINUOUS
 90
7
 70
0
 10
5.1785411198
 20
2.3792649464
 10
5.2098283569
 20
2.4105599277
 10
5.2231973732
 20
2.4235574591
 10
5.2339999513
 20
2.4344403384
 10
5.2418997391
 20
2.4427935865
 10
5.2472330887
 20
2.4481270486
 10
5.25
 20
2.45
  0
LINE
  5
2C2
100
AcDbEntity
  8
RACCORDO
100
AcDbLine
 62
7
  6
CONTINUOUS
 10
5.1014740086
 20
2.302660485
 11
5.1220893435
 21
2.3230854887
  0
LINE
  5
2C3
100
AcDbEntity
  8
RACCORDO
100
AcDbLine
 62
7
  6
CONTINUOUS
 10
4.95
 20
2.1512907745
 11
4.9716704541
 21
2.1727355417
  0
LINE
  5
2C4
100
AcDbEntity
  8
RACCORDO
100
AcDbLine
 62
250
  6
CONTINUOUS
 10
-4.95
 20
1.3007804683
 11
-7.75
 21
1.3007804683
  0
LINE
  5
2C5
100
AcDbEntity
  8
RACCORDO
100
AcDbLine
 62
7
  6
CONTINUOUS
 10
-5.25
 20
1.6
 11
-7.45
 21
1.6
  0
LINE
  5
2C6
100
AcDbEntity
  8
RACCORDO
100
AcDbLine
 62
250
  6
CONTINUOUS
 10
7.75
 20
2.1512907745
 11
4.95
 21
2.1512907745
  0
LINE
  5
2C7
100
AcDbEntity
  8
RACCORDO
100
AcDbLine
 62
7
  6
CONTINUOUS
 10
7.45
 20
2.45
 11
5.25
 21
2.45
  0
LINE
  5
2C8
100
AcDbEntity
  8
0
100
AcDbLine
 62
7
  6
CONTINUOUS
 10
-5.25
 20
2.45
 11
-7.45
 21
2.45
  0
LINE
  5
2C9
100
AcDbEntity
  8
RACCORDO
100
AcDbLine
 62
7
  6
CONTINUOUS
 10
-7.45
 20
10.3000656078
 11
-7.4527148664
 21
10.3026948169
  0
LINE
  5
2CA
100
AcDbEntity
  8
RACCORDO
100
AcDbLine
 62
7
  6
CONTINUOUS
 10
-7.7282657244
 20
10.5848408153
 11
-7.75
 21
10.6063638183
  0
LINE
  5
2CB
100
AcDbEntity
  8
RACCORDO
100
AcDbLine
 62
7
  6
CONTINUOUS
 10
-7.6408689895
 20
10.4968637251
 11
-7.7282657244
 21
10.5848408153
  0
LINE
  5
2CC
100
AcDbEntity
  8
RACCORDO
100
AcDbLine
 62
7
  6
CONTINUOUS
 10
-7.5212794055
 20
10.3755644468
 11
-7.6408689895
 21
10.4968637251
  0
LINE
  5
2CD
100
AcDbEntity
  8
RACCORDO
100
AcDbLine
 62
7
  6
CONTINUOUS
 10
-7.4900144853
 20
10.3431706847
 11
-7.5212794055
 21
10.3755644468
  0
LWPOLYLINE
  5
2CE
100
AcDbEntity
  8
RACCORDO
100
AcDbPolyline
 62
7
  6
CONTINUOUS
 90
4
 70
0
 10
-7.4527148664
 20
10.3026948169
 10
-7.4658730116
 20
10.3179504583
 10
-7.4766556797
 20
10.3295473699
 10
-7.4900144853
 20
10.3431706847
  0
LINE
  5
2CF
100
AcDbEntity
  8
0
100
AcDbLine
 62
250
  6
CONTINUOUS
 10
10.6503805997
 20
-22.4
 11
10.5087981167
 21
-21.9749071372
  0
LINE
  5
2D0
100
AcDbEntity
  8
0
100
AcDbLine
 62
250
  6
CONTINUOUS
 10
11.15
 20
-21.8997711479
 11
11.0087219643
 21
-21.4755923698
  0
LINE
  5
2D1
100
AcDbEntity
  8
0
100
AcDbLine
 62
7
  6
CONTINUOUS
 10
-3.4151277229
 20
22.4
 11
-3.4366556363
 21
22.5
  0
LWPOLYLINE
  5
2D2
100
AcDbEntity
  8
0
100
AcDbPolyline
 62
250
  6
CONTINUOUS
 90
5
 70
0
 10
10.5087981167
 20
-21.9749071372
 10
10.5080778515
 20
-21.9672624094
 10
10.50737474
 20
-21.9529541156
 10
10.5066887822
 20
-21.9320774319
 10
10.5060155824
 20
-21.9047700276
  0
LINE
  5
2D3
100
AcDbEntity
  8
RACCORDO
100
AcDbLine
 62
250
  6
CONTINUOUS
 10
4.95
 20
2.1512907745
 11
4.95
 21
9.7558535121
  0
LINE
  5
2D4
100
AcDbEntity
  8
RACCORDO
100
AcDbLine
 62
7
  6
CONTINUOUS
 10
5.25
 20
2.45
 11
5.25
 21
9.4500553905
  0
LINE
  5
2D5
100
AcDbEntity
  8
0
100
AcDbLine
 62
7
  6
CONTINUOUS
 10
5.4064524805
 20
2.45
 11
5.4064524805
 21
9.45
  0
LINE
  5
2D6
100
AcDbEntity
  8
0
100
AcDbLine
 62
7
  6
CONTINUOUS
 10
5.5935475195
 20
9.45
 11
5.5935475195
 21
2.45
  0
LINE
  5
2D7
100
AcDbEntity
  8
0
100
AcDbLine
 62
250
  6
CONTINUOUS
 10
6.0035980258
 20
2.45
 11
6.0035980258
 21
9.45
  0
LINE
  5
2D8
100
AcDbEntity
  8
RACCORDO
100
AcDbLine
 62
7
  6
CONTINUOUS
 10
7.45
 20
9.4500553501
 11
7.45
 21
2.45
  0
LINE
  5
2D9
100
AcDbEntity
  8
RACCORDO
100
AcDbLine
 62
250
  6
CONTINUOUS
 10
7.75
 20
9.7558535121
 11
7.75
 21
2.1512907745
  0
LINE
  5
2DA
100
AcDbEntity
  8
0
100
AcDbLine
 62
7
  6
CONTINUOUS
 10
3.3848722771
 20
-22.4
 11
3.3633443637
 21
-22.5
  0
LWPOLYLINE
  5
2DB
100
AcDbEntity
  8
RACCORDO
100
AcDbPolyline
 62
7
  6
CONTINUOUS
 90
7
 70
0
 10
-2.7
 20
-8.65
 10
-2.7025161129
 20
-8.6521087339
 10
-2.707645188
 20
-8.6580192126
 10
-2.7153872252
 20
-8.6671031793
 10
-2.7260931024
 20
-8.6786369934
 10
-2.7394119418
 20
-8.6920945127
 10
-2.7705901795
 20
-8.7242122823
  0
LWPOLYLINE
  5
2DC
100
AcDbEntity
  8
RACCORDO
100
AcDbPolyline
 62
7
  6
CONTINUOUS
 90
6
 70
0
 10
7.4901716431
 20
2.4105599277
 10
7.4768026268
 20
2.4235574591
 10
7.4660000487
 20
2.4344403384
 10
7.4581002609
 20
2.4427935865
 10
7.4527669113
 20
2.4481270486
 10
7.45
 20
2.45
  0
LWPOLYLINE
  5
2DD
100
AcDbEntity
  8
RACCORDO
100
AcDbPolyline
 62
7
  6
CONTINUOUS
 90
3
 70
0
 10
7.5393771009
 20
2.361616226
 10
7.5214588802
 20
2.3792649464
 10
7.4901716431
 20
2.4105599277
  0
LINE
  5
2DE
100
AcDbEntity
  8
RACCORDO
100
AcDbLine
 62
7
  6
CONTINUOUS
 10
7.75
 20
2.1512907745
 11
7.7283295459
 21
2.1727355417
  0
LWPOLYLINE
  5
2DF
100
AcDbEntity
  8
RACCORDO
100
AcDbPolyline
 62
7
  6
CONTINUOUS
 90
3
 70
0
 10
7.5985259914
 20
2.302660485
 10
7.5779106565
 20
2.3230854887
 10
7.5393771009
 20
2.361616226
  0
LINE
  5
2E0
100
AcDbEntity
  8
RACCORDO
100
AcDbLine
 62
7
  6
CONTINUOUS
 10
7.6849094343
 20
2.2163690417
 11
7.5985259914
 21
2.302660485
  0
LINE
  5
2E1
100
AcDbEntity
  8
RACCORDO
100
AcDbLine
 62
7
  6
CONTINUOUS
 10
7.7283295459
 20
2.1727355417
 11
7.6849094343
 21
2.2163690417
  0
LINE
  5
2E2
100
AcDbEntity
  8
0
100
AcDbLine
 62
7
  6
CONTINUOUS
 10
3.3848722771
 20
22.4
 11
3.3633443637
 21
22.5
  0
LWPOLYLINE
  5
2E3
100
AcDbEntity
  8
0
100
AcDbPolyline
 62
250
  6
CONTINUOUS
 90
7
 70
0
 10
11.0087219643
 20
-21.4755923698
 10
11.0080037303
 20
-21.4716869154
 10
11.0073019424
 20
-21.4645713157
 10
11.0066166007
 20
-21.4542455707
 10
11.0059430608
 20
-21.4405949624
 10
11.005285967
 20
-21.4237342087
 10
11.0046592521
 20
-21.4040074642
  0
LINE
  5
2E4
100
AcDbEntity
  8
0
100
AcDbLine
 62
250
  6
CONTINUOUS
 10
11.0046592521
 20
-21.4040074642
 11
11.0034987657
 21
-21.3558477932
  0
LINE
  5
2E5
100
AcDbEntity
  8
0
100
AcDbLine
 62
250
  6
CONTINUOUS
 10
11.0034987657
 20
-21.3558477932
 11
11.0024942872
 21
-21.2976955065
  0
LINE
  5
2E6
100
AcDbEntity
  8
0
100
AcDbLine
 62
250
  6
CONTINUOUS
 10
10.5060155824
 20
-21.9047700276
 11
10.5047338308
 21
-21.8316459638
  0
LINE
  5
2E7
100
AcDbEntity
  8
0
100
AcDbLine
 62
250
  6
CONTINUOUS
 10
10.5047338308
 20
-21.8316459638
 11
10.5030519449
 21
-21.6797279079
  0
LINE
  5
2E8
100
AcDbEntity
  8
0
100
AcDbLine
 62
250
  6
CONTINUOUS
 10
11.0024942872
 20
-21.2976955065
 11
11.0013280429
 21
-21.194598336
  0
LINE
  5
2E9
100
AcDbEntity
  8
0
100
AcDbLine
 62
250
  6
CONTINUOUS
 10
10.5030519449
 20
-21.6797279079
 11
10.5014060365
 21
-21.4132040417
  0
LINE
  5
2EA
100
AcDbEntity
  8
0
100
AcDbLine
 62
250
  6
CONTINUOUS
 10
11.0013280429
 20
-21.194598336
 11
11.0006364057
 21
-21.0787071238
  0
LWPOLYLINE
  5
2EB
100
AcDbEntity
  8
0
100
AcDbPolyline
 62
250
  6
CONTINUOUS
 90
3
 70
0
 10
10.5014060365
 20
-21.4132040417
 10
10.5005963782
 20
-21.1000274003
 10
10.5005350625
 20
-21.0183142309
  0
LWPOLYLINE
  5
2EC
100
AcDbEntity
  8
0
100
AcDbPolyline
 62
250
  6
CONTINUOUS
 90
9
 70
0
 10
10.5005350625
 20
-21.0183142309
 10
10.4974904462
 20
-16.3494810551
 10
10.495206984
 20
-11.679220415
 10
10.4936846758
 20
-7.0079400896
 10
10.4929235217
 20
-2.3360479956
 10
10.4929235217
 20
2.3360479946
 10
10.4936846758
 20
7.0079400886
 10
10.4952069839
 20
11.6792204143
 10
10.4974904462
 20
16.3494810547
  0
LWPOLYLINE
  5
2ED
100
AcDbEntity
  8
0
100
AcDbPolyline
 62
250
  6
CONTINUOUS
 90
9
 70
0
 10
11.0006364057
 20
-21.0787071238
 10
10.9974142955
 20
-16.3324644776
 10
10.9951308347
 20
-11.6670156001
 10
10.9936085276
 20
-7.0009492841
 10
10.9928473744
 20
-2.3338537184
 10
10.9928473749
 20
2.3338592858
 10
10.9936085288
 20
7.0009542947
 10
10.9951308359
 20
11.6670194972
 10
10.9974142963
 20
16.3324667046
  0
LINE
  5
2EE
100
AcDbEntity
  8
0
100
AcDbLine
 62
7
  6
CONTINUOUS
 10
11.15
 20
21.8997711479
 11
11.15
 21
-21.8997711479
  0
LINE
  5
2EF
100
AcDbEntity
  8
0
100
AcDbLine
 62
250
  6
CONTINUOUS
 10
10.4974904462
 20
16.3494810547
 11
10.501118572
 21
21.338028331
  0
LINE
  5
2F0
100
AcDbEntity
  8
0
100
AcDbLine
 62
250
  6
CONTINUOUS
 10
10.9974142963
 20
16.3324667046
 11
11.0008094528
 21
21.1180599986
  0
LINE
  5
2F1
100
AcDbEntity
  8
0
100
AcDbLine
 62
250
  6
CONTINUOUS
 10
10.501118572
 20
21.338028331
 11
10.5025714538
 21
21.6191421195
  0
LINE
  5
2F2
100
AcDbEntity
  8
0
100
AcDbLine
 62
250
  6
CONTINUOUS
 10
11.0008094528
 20
21.1180599986
 11
11.0016657915
 21
21.2307077086
  0
LINE
  5
2F3
100
AcDbEntity
  8
0
100
AcDbLine
 62
250
  6
CONTINUOUS
 10
10.5025714538
 20
21.6191421195
 11
10.5041391368
 21
21.7863341959
  0
LINE
  5
2F4
100
AcDbEntity
  8
0
100
AcDbLine
 62
250
  6
CONTINUOUS
 10
11.0016657915
 20
21.2307077086
 11
11.0024942872
 21
21.2976955066
  0
LWPOLYLINE
  5
2F5
100
AcDbEntity
  8
0
100
AcDbPolyline
 62
250
  6
CONTINUOUS
 90
7
 70
0
 10
10.5041391368
 20
21.7863341959
 10
10.5053595363
 20
21.8712155731
 10
10.5060155824
 20
21.9047700276
 10
10.5066887822
 20
21.9320774319
 10
10.50737474
 20
21.9529541156
 10
10.5080778515
 20
21.9672624094
 10
10.5087981167
 20
21.9749071372
  0
LINE
  5
2F6
100
AcDbEntity
  8
0
100
AcDbLine
 62
250
  6
CONTINUOUS
 10
11.0024942872
 20
21.2976955066
 11
11.0034987657
 21
21.3558477932
  0
LWPOLYLINE
  5
2F7
100
AcDbEntity
  8
0
100
AcDbPolyline
 62
250
  6
CONTINUOUS
 90
8
 70
0
 10
11.0034987657
 20
21.3558477932
 10
11.0046592521
 20
21.404007464
 10
11.005285967
 20
21.4237342087
 10
11.0059430608
 20
21.4405949624
 10
11.0066166007
 20
21.4542455709
 10
11.0073019424
 20
21.4645713159
 10
11.0080037303
 20
21.4716869155
 10
11.0087219643
 20
21.4755923698
  0
LINE
  5
2F8
100
AcDbEntity
  8
0
100
AcDbLine
 62
250
  6
CONTINUOUS
 10
-7.01051948
 20
10.217633875
 11
-7.45
 21
10.0998754246
  0
LINE
  5
2F9
100
AcDbEntity
  8
0
100
AcDbLine
 62
250
  6
CONTINUOUS
 10
-5.5935475195
 20
9.45
 11
-5.4064524805
 21
9.45
  0
LINE
  5
2FA
100
AcDbEntity
  8
RACCORDO
100
AcDbLine
 62
7
  6
CONTINUOUS
 10
5.25
 20
9.45
 11
7.45
 21
9.45
  0
LINE
  5
2FB
100
AcDbEntity
  8
0
100
AcDbLine
 62
7
  6
CONTINUOUS
 10
-5.25
 20
9.45
 11
-5.4064182462
 21
9.45
  0
LINE
  5
2FC
100
AcDbEntity
  8
0
100
AcDbLine
 62
7
  6
CONTINUOUS
 10
-5.5935483155
 20
9.45
 11
-7.45
 21
9.45
  0
LINE
  5
2FD
100
AcDbEntity
  8
RACCORDO
100
AcDbLine
 62
250
  6
CONTINUOUS
 10
4.95
 20
9.7558535121
 11
7.75
 21
9.7558535121
  0
LINE
  5
2FE
100
AcDbEntity
  8
0
100
AcDbLine
 62
7
  6
CONTINUOUS
 10
-7.45
 20
9.85
 11
-7.01051948
 21
9.85
  0
LINE
  5
2FF
100
AcDbEntity
  8
0
100
AcDbLine
 62
7
  6
CONTINUOUS
 10
-5.6168225658
 20
9.85
 11
-5.3831774342
 21
9.85
  0
LINE
  5
300
100
AcDbEntity
  8
RACCORDO
100
AcDbLine
 62
7
  6
CONTINUOUS
 10
-7.45
 20
10.3
 11
-5.25
 21
10.3
  0
LINE
  5
301
100
AcDbEntity
  8
RACCORDO
100
AcDbLine
 62
250
  6
CONTINUOUS
 10
-7.75
 20
10.6063638183
 11
-4.95
 21
10.6063638183
  0
LINE
  5
302
100
AcDbEntity
  8
RACCORDO
100
AcDbLine
 62
7
  6
CONTINUOUS
 10
5.25
 20
9.4500553678
 11
5.2472851336
 21
9.4526269878
  0
LINE
  5
303
100
AcDbEntity
  8
RACCORDO
100
AcDbLine
 62
7
  6
CONTINUOUS
 10
4.9717342756
 20
9.7343310775
 11
4.95
 21
9.7558535121
  0
LINE
  5
304
100
AcDbEntity
  8
RACCORDO
100
AcDbLine
 62
7
  6
CONTINUOUS
 10
5.0591310105
 20
9.6463845735
 11
4.9717342756
 21
9.7343310775
  0
LINE
  5
305
100
AcDbEntity
  8
RACCORDO
100
AcDbLine
 62
7
  6
CONTINUOUS
 10
5.16081448
 20
9.5433134216
 11
5.0591310105
 21
9.6463845735
  0
LWPOLYLINE
  5
306
100
AcDbEntity
  8
RACCORDO
100
AcDbPolyline
 62
7
  6
CONTINUOUS
 90
3
 70
0
 10
5.2099855147
 20
9.4929072684
 10
5.1787205945
 20
9.5252260801
 10
5.16081448
 20
9.5433134216
  0
LWPOLYLINE
  5
307
100
AcDbEntity
  8
RACCORDO
100
AcDbPolyline
 62
7
  6
CONTINUOUS
 90
4
 70
0
 10
5.2472851336
 20
9.4526269878
 10
5.2341269884
 20
9.4677769594
 10
5.2233443203
 20
9.4793268751
 10
5.2099855147
 20
9.4929072684
  0
LINE
  5
308
100
AcDbEntity
  8
0
100
AcDbLine
 62
7
  6
CONTINUOUS
 10
3.3
 20
-22.4
 11
3.2333672024
 21
-22.5
  0
LINE
  5
309
100
AcDbEntity
  8
0
100
AcDbLine
 62
7
  6
CONTINUOUS
 10
3.2333672024
 20
22.5
 11
3.3
 21
22.4
  0
LWPOLYLINE
  5
30A
100
AcDbEntity
  8
0
100
AcDbPolyline
 62
7
  6
CONTINUOUS
 90
10
 70
0
 43
0.3500000006
 10
1.0714285848
 20
37.0769393005
 10
1.1428571477
 20
36.9340814667
 10
1.1428571477
 20
36.8626502838
 10
1.0000000219
 20
36.7197969818
 10
0.9285714591
 20
36.7197969818
 10
0.8571428254
 20
36.7912236328
 10
0.8571428254
 20
36.8626502838
 10
0.9285714591
 20
37.0055081177
 10
1.0000000219
 20
37.0769393005
 10
1.0714285848
 20
37.0769393005
  0
LWPOLYLINE
  5
30B
100
AcDbEntity
  8
0
100
AcDbPolyline
 62
7
  6
CONTINUOUS
 90
10
 70
0
 10
4.2275426698
 20
-23.3333596575
 10
4.1717709372
 20
-23.3677255716
 10
4.1143929866
 20
-23.3981882383
 10
4.0554088181
 20
-23.4247476575
 10
3.994556052
 20
-23.4474829393
 10
3.9320970679
 20
-23.4663149736
 10
3.8688190046
 20
-23.4810064299
 10
3.8049842417
 20
-23.491478198
 10
3.7403303995
 20
-23.497809388
 10
3.6748574782
 20
-23.5
  0
LWPOLYLINE
  5
30C
100
AcDbEntity
  8
0
100
AcDbPolyline
 62
7
  6
CONTINUOUS
 90
10
 70
0
 10
-3.6748574782
 20
23.5
 10
-3.7403303995
 20
23.497809388
 10
-3.8049842417
 20
23.491478198
 10
-3.8688190046
 20
23.4810064299
 10
-3.9320970679
 20
23.4663149736
 10
-3.994556052
 20
23.4474829393
 10
-4.0554088181
 20
23.4247476575
 10
-4.1143929866
 20
23.3981882383
 10
-4.1717709372
 20
23.3677255716
 10
-4.2275426698
 20
23.3333596575
  0
LINE
  5
30D
100
AcDbEntity
  8
0
100
AcDbLine
 62
250
  6
CONTINUOUS
 10
-10.5522207164
 20
21.018163202
 11
10.5005350625
 21
21.0183142309
  0
LINE
  5
30E
100
AcDbEntity
  8
0
100
AcDbLine
 62
250
  6
CONTINUOUS
 10
-10.5087981167
 20
21.9749071372
 11
10.5087981167
 21
21.9749071372
  0
LINE
  5
30F
100
AcDbEntity
  8
0
100
AcDbLine
 62
7
  6
CONTINUOUS
 10
-10.6503805997
 20
22.4
 11
-3.3
 21
22.4
  0
LINE
  5
310
100
AcDbEntity
  8
0
100
AcDbLine
 62
7
  6
CONTINUOUS
 10
3.3
 20
22.4
 11
10.6503805997
 21
22.4
  0
LINE
  5
311
100
AcDbEntity
  8
0
100
AcDbLine
 62
7
  6
CONTINUOUS
 10
3.4698202597
 20
22.5
 11
-3.4698202597
 21
22.5
  0
LINE
  5
312
100
AcDbEntity
  8
0
100
AcDbLine
 62
7
  6
CONTINUOUS
 10
-3.6748574782
 20
23.5
 11
3.6748574782
 21
23.5
  0
LWPOLYLINE
  5
313
100
AcDbEntity
  8
0
100
AcDbPolyline
 62
250
  6
CONTINUOUS
 90
16
 70
0
 10
10.5005350626
 20
21.0183133038
 10
10.5522203773
 20
21.0181628131
 10
10.603351928
 20
21.0177887456
 10
10.6533818814
 20
21.0171951092
 10
10.7017742072
 20
21.0163882642
 10
10.7480104206
 20
21.0153768553
 10
10.7915951381
 20
21.0141717192
 10
10.8320613846
 20
21.0127857679
 10
10.8689755972
 20
21.0112338507
 10
10.9019422698
 20
21.0095325952
 10
10.9306081913
 20
21.0077002291
 10
10.9546662295
 20
21.0057563845
 10
10.9738586221
 20
21.0037218884
 10
10.9879797379
 20
21.0016185385
 10
10.9968782808
 20
20.9994688706
 10
11.00045891
 20
20.9972959167
  0
LWPOLYLINE
  5
314
100
AcDbEntity
  8
0
100
AcDbPolyline
 62
250
  6
CONTINUOUS
 90
16
 70
0
 10
10.5087981167
 20
21.9749071372
 10
10.5610241351
 20
21.9721273713
 10
10.612678619
 20
21.9639137831
 10
10.6631962883
 20
21.9503562579
 10
10.7120243039
 20
21.9316031621
 10
10.7586283171
 20
21.9078597201
 10
10.8024983178
 20
21.8793857676
 10
10.8431542154
 20
21.846492909
 10
10.8801510926
 20
21.8095411067
 10
10.913084075
 20
21.7689347421
 10
10.9415927608
 20
21.7251181903
 10
10.9653651658
 20
21.6785709569
 10
10.9841411372
 20
21.6298024308
 10
10.9977152003
 20
21.5793463095
 10
11.0059388076
 20
21.5277547588
 10
11.0087219643
 20
21.4755923698
  0
LWPOLYLINE
  5
315
100
AcDbEntity
  8
0
100
AcDbPolyline
 62
7
  6
CONTINUOUS
 90
10
 70
0
 10
4.2275426698
 20
23.3333596575
 10
4.1717709372
 20
23.3677255716
 10
4.1143929866
 20
23.3981882383
 10
4.0554088181
 20
23.4247476575
 10
3.994556052
 20
23.4474829393
 10
3.9320970679
 20
23.4663149736
 10
3.8688190046
 20
23.4810064299
 10
3.8049842417
 20
23.491478198
 10
3.7403303995
 20
23.497809388
 10
3.6748574782
 20
23.5
  0
LWPOLYLINE
  5
316
100
AcDbEntity
  8
0
100
AcDbPolyline
 62
7
  6
CONTINUOUS
 90
3
 70
0
 43
0.3500000006
 10
25.7920975113
 20
-0.8571427917
 10
25.7920975113
 20
-2.3571432495
 10
23.4349545822
 20
-1.7142852631
  0
LWPOLYLINE
  5
317
100
AcDbEntity
  8
0
100
AcDbPolyline
 62
7
  6
CONTINUOUS
 90
7
 70
0
 43
0.3500000006
 10
-0.4285714127
 20
36.5769391479
 10
-1.9285714102
 20
36.5769391479
 10
-0.4285714127
 20
38.7197930603
 10
-0.4285714127
 20
39.1483665619
 10
-0.8571428254
 20
39.5769400635
 10
-1.5000000329
 20
39.5769400635
 10
-1.9285714102
 20
38.934082077
  0
LWPOLYLINE
  5
318
100
AcDbEntity
  8
0
100
AcDbPolyline
 62
7
  6
CONTINUOUS
 90
6
 70
0
 43
0.3500000006
 10
2.1428571696
 20
36.5769391479
 10
3.2142856836
 20
36.5769391479
 10
3.4285713015
 20
36.7912236328
 10
3.4285713015
 20
37.862650589
 10
3.0000000658
 20
38.2912240906
 10
2.5714285469
 20
38.2912240906
  0
LWPOLYLINE
  5
319
100
AcDbEntity
  8
0
100
AcDbPolyline
 62
7
  6
CONTINUOUS
 90
7
 70
0
 43
0.3500000006
 10
-2.7857141647
 20
36.5769391479
 10
-4.2857143393
 20
36.5769391479
 10
-2.7857141647
 20
38.7197930603
 10
-2.7857141647
 20
39.1483665619
 10
-3.2142856836
 20
39.5769400635
 10
-3.8571428204
 20
39.5769400635
 10
-4.2857143393
 20
38.934082077
  0
LWPOLYLINE
  5
31A
100
AcDbEntity
  8
0
100
AcDbPolyline
 62
7
  6
CONTINUOUS
 90
5
 70
0
 43
0.3500000006
 10
-64.5055394897
 20
46.1224011383
 10
-64.148397171
 20
46.336690155
 10
-64.148397171
 20
46.9795436096
 10
-64.5055394897
 20
47.4081171112
 10
-65.3626819611
 20
47.4081171112
  0
LWPOLYLINE
  5
31B
100
AcDbEntity
  8
0
100
AcDbPolyline
 62
7
  6
CONTINUOUS
 90
10
 70
0
 43
0.3500000006
 10
-62.1483965607
 20
47.4081171112
 10
-62.7912545471
 20
46.7652591248
 10
-63.2198280487
 20
45.9081166534
 10
-63.2198280487
 20
44.8366896973
 10
-62.7912545471
 20
44.4081161957
 10
-62.1483965607
 20
44.4081161957
 10
-61.7198275909
 20
44.8366896973
 10
-61.7198275909
 20
45.6938321686
 10
-62.1483965607
 20
46.1224011383
 10
-63.0769702148
 20
46.1224011383
  0
LWPOLYLINE
  5
31C
100
AcDbEntity
  8
0
100
AcDbPolyline
 62
250
  6
CONTINUOUS
 90
8
 70
0
 10
-78.0453667633
 20
21.9749071372
 10
-78.046132691
 20
21.9721273713
 10
-78.0466038679
 20
21.9639137831
 10
-78.0467751375
 20
21.9503562579
 10
-78.0466446255
 20
21.9316031621
 10
-78.0462137604
 20
21.9078597201
 10
-78.0454872573
 20
21.8793857676
 10
-78.0431822877
 20
21.8095411067
  0
LWPOLYLINE
  5
31D
100
AcDbEntity
  8
0
100
AcDbPolyline
 62
250
  6
CONTINUOUS
 90
7
 70
0
 10
-78.0453667633
 20
-21.9749071372
 10
-78.0461326931
 20
-21.9721272741
 10
-78.0466038618
 20
-21.9639134185
 10
-78.0467751147
 20
-21.9503554931
 10
-78.0466445793
 20
-21.9316018984
 10
-78.0462136857
 20
-21.9078579019
 10
-78.0454871525
 20
-21.8793834041
  0
LWPOLYLINE
  5
31E
100
AcDbEntity
  8
0
100
AcDbPolyline
 62
250
  6
CONTINUOUS
 90
10
 70
0
 10
-78.5013150455
 20
-20.9972959167
 10
-78.6757408978
 20
-16.3324644776
 10
-78.8065602816
 20
-11.6670156001
 10
-78.8937731967
 20
-7.0009492841
 10
-78.9373796358
 20
-2.3338537184
 10
-78.9373796063
 20
2.3338592858
 10
-78.8937731303
 20
7.0009542947
 10
-78.8065602152
 20
11.6670194972
 10
-78.6757408536
 20
16.3324667046
 10
-78.5013150455
 20
20.9972959167
  0
LINE
  5
31F
100
AcDbEntity
  8
RACCORDO
100
AcDbLine
 62
7
  6
CONTINUOUS
 10
-79.3850645043
 20
-7.0032016614
 11
-79.3849194599
 21
-7.0135485754
  0
LWPOLYLINE
  5
320
100
AcDbEntity
  8
0
100
AcDbPolyline
 62
250
  6
CONTINUOUS
 90
19
 70
0
 10
-78.5013150455
 20
20.9972959167
 10
-78.4978405228
 20
21.0384524298
 10
-78.4911463301
 20
21.0787071238
 10
-78.4812324674
 20
21.1180599986
 10
-78.4679872992
 20
21.1567800769
 10
-78.4515224609
 20
21.194598336
 10
-78.4321728594
 20
21.2307077086
 10
-78.4098829977
 20
21.2650560509
 10
-78.3847083727
 20
21.2976955066
 10
-78.3571503819
 20
21.3279754394
 10
-78.3271618378
 20
21.3558477932
 10
-78.2947899279
 20
21.381360624
 10
-78.2606776122
 20
21.404007464
 10
-78.2247731414
 20
21.4237342087
 10
-78.1871282648
 20
21.4405949624
 10
-78.1485411905
 20
21.4542455709
 10
-78.1092779876
 20
21.4645713159
 10
-78.0690725869
 20
21.4716869155
 10
-78.0279249884
 20
21.4755923698
  0
LINE
  5
321
100
AcDbEntity
  8
0
100
AcDbLine
 62
250
  6
CONTINUOUS
 10
-78.0355777354
 20
21.6298024308
 11
-78.0279249884
 21
21.4755923698
  0
LINE
  5
322
100
AcDbEntity
  8
0
100
AcDbLine
 62
250
  6
CONTINUOUS
 10
-78.0398303382
 20
21.7251181903
 11
-78.0355777354
 21
21.6298024308
  0
LINE
  5
323
100
AcDbEntity
  8
0
100
AcDbLine
 62
250
  6
CONTINUOUS
 10
-78.0431822877
 20
21.8095411067
 11
-78.0398303382
 21
21.7251181903
  0
LINE
  5
324
100
AcDbEntity
  8
0
100
AcDbLine
 62
250
  6
CONTINUOUS
 10
-78.0454871525
 20
-21.8793834041
 11
-78.0431821296
 21
-21.8095378762
  0
LINE
  5
325
100
AcDbEntity
  8
0
100
AcDbLine
 62
250
  6
CONTINUOUS
 10
-78.0431821296
 20
-21.8095378762
 11
-78.039830156
 21
-21.7251147213
  0
LINE
  5
326
100
AcDbEntity
  8
0
100
AcDbLine
 62
250
  6
CONTINUOUS
 10
-78.039830156
 20
-21.7251147213
 11
-78.0331702574
 21
-21.5793442013
  0
LINE
  5
327
100
AcDbEntity
  8
0
100
AcDbLine
 62
250
  6
CONTINUOUS
 10
-78.0331702574
 20
-21.5793442013
 11
-78.0279249884
 21
-21.4755923698
  0
LWPOLYLINE
  5
328
100
AcDbEntity
  8
0
100
AcDbPolyline
 62
250
  6
CONTINUOUS
 90
19
 70
0
 10
-78.0279249884
 20
-21.4755923698
 10
-78.0690725869
 20
-21.4716869154
 10
-78.1092779875
 20
-21.4645713157
 10
-78.1485411904
 20
-21.4542455707
 10
-78.1871282648
 20
-21.4405949624
 10
-78.2247731415
 20
-21.4237342087
 10
-78.2606776123
 20
-21.4040074642
 10
-78.2947899279
 20
-21.3813606241
 10
-78.3271618378
 20
-21.3558477932
 10
-78.3571503819
 20
-21.3279754394
 10
-78.3847083726
 20
-21.2976955065
 10
-78.4098829975
 20
-21.2650560508
 10
-78.4321728593
 20
-21.2307077085
 10
-78.4515224609
 20
-21.194598336
 10
-78.4679872993
 20
-21.1567800769
 10
-78.4812324676
 20
-21.1180599987
 10
-78.4911463303
 20
-21.0787071238
 10
-78.4978405229
 20
-21.0384524298
 10
-78.5013150455
 20
-20.9972959167
  0
LWPOLYLINE
  5
329
100
AcDbEntity
  8
0
100
AcDbPolyline
 62
7
  6
CONTINUOUS
 90
3
 70
0
 43
0.3500000006
 10
-60.1483959503
 20
44.6938318634
 10
-60.2198271332
 20
44.4795473785
 10
-60.362684967
 20
44.1938317108
  0
LINE
  5
32A
100
AcDbEntity
  8
0
100
AcDbLine
 62
7
  6
CONTINUOUS
 10
-65.9341117434
 20
-23.0998904748
 11
-67.2553317194
 21
-23.1272645049
  0
LINE
  5
32B
100
AcDbEntity
  8
0
100
AcDbLine
 62
7
  6
CONTINUOUS
 10
-67.2553317194
 20
-23.1272645049
 11
-68.5886955348
 21
-23.1539170037
  0
LINE
  5
32C
100
AcDbEntity
  8
0
100
AcDbLine
 62
7
  6
CONTINUOUS
 10
-68.5886955348
 20
-23.1539170037
 11
-69.9341117434
 21
-23.1799085618
  0
LINE
  5
32D
100
AcDbEntity
  8
0
100
AcDbLine
 62
7
  6
CONTINUOUS
 10
-69.9341117434
 20
-23.5
 11
-65.9341117434
 21
-23.4301797403
  0
LINE
  5
32E
100
AcDbEntity
  8
0
100
AcDbLine
 62
250
  6
CONTINUOUS
 10
-69.9341117434
 20
-23.3333596575
 11
-65.9341117434
 21
-23.2631073618
  0
LINE
  5
32F
100
AcDbEntity
  8
RACCORDO
100
AcDbLine
 62
7
  6
CONTINUOUS
 10
-61.9632569455
 20
-21.1306884717
 11
-65.7376022247
 21
-21.1965699136
  0
LINE
  5
330
100
AcDbEntity
  8
RACCORDO
100
AcDbLine
 62
250
  6
CONTINUOUS
 10
-61.9632013029
 20
-21.0077173985
 11
-65.737601974
 21
-21.0738952193
  0
LINE
  5
331
100
AcDbEntity
  8
0
100
AcDbLine
 62
7
  6
CONTINUOUS
 10
-67.698440396
 20
-22.6434802059
 11
-69.9341117434
 21
-22.663166622
  0
LINE
  5
332
100
AcDbEntity
  8
0
100
AcDbLine
 62
7
  6
CONTINUOUS
 10
-65.9341117434
 20
-22.6298666026
 11
-67.698440396
 21
-22.6434802059
  0
LINE
  5
333
100
AcDbEntity
  8
0
100
AcDbLine
 62
7
  6
CONTINUOUS
 10
-63.7846162595
 20
-22.2
 11
-64.3341117434
 21
-22.2
  0
LINE
  5
334
100
AcDbEntity
  8
0
100
AcDbLine
 62
7
  6
CONTINUOUS
 10
-69.9341117434
 20
-22.4
 11
-78.0453667633
 21
-21.9749071372
  0
LINE
  5
335
100
AcDbEntity
  8
0
100
AcDbLine
 62
250
  6
CONTINUOUS
 10
-69.9341117434
 20
-21.8997711479
 11
-78.0279249884
 21
-21.4755923698
  0
LINE
  5
336
100
AcDbEntity
  8
0
100
AcDbLine
 62
7
  6
CONTINUOUS
 10
-69.9341117434
 20
-22.7070705734
 11
-69.9341117434
 21
-23.5
  0
LINE
  5
337
100
AcDbEntity
  8
0
100
AcDbLine
 62
7
  6
CONTINUOUS
 10
-69.9341117434
 20
-22.663166622
 11
-69.9341117434
 21
23.5
  0
LWPOLYLINE
  5
338
100
AcDbEntity
  8
RACCORDO
100
AcDbPolyline
 62
250
  6
CONTINUOUS
 90
4
 70
0
 10
-59.9409678635
 20
16.2131338494
 10
-59.9216421416
 20
16.2202578825
 10
-59.9099646103
 20
16.2247229872
 10
-59.9061309235
 20
16.226454387
  0
LINE
  5
339
100
AcDbEntity
  8
RACCORDO
100
AcDbLine
 62
250
  6
CONTINUOUS
 10
-60.0011460116
 20
16.1914288494
 11
-59.9409678635
 21
16.2131338494
  0
LINE
  5
33A
100
AcDbEntity
  8
RACCORDO
100
AcDbLine
 62
250
  6
CONTINUOUS
 10
-60.191283921
 20
16.1240427816
 11
-60.0011460116
 21
16.1914288494
  0
LINE
  5
33B
100
AcDbEntity
  8
RACCORDO
100
AcDbLine
 62
250
  6
CONTINUOUS
 10
-60.3694393412
 20
16.0615550082
 11
-60.191283921
 21
16.1240427816
  0
LINE
  5
33C
100
AcDbEntity
  8
0
100
AcDbLine
 62
250
  6
CONTINUOUS
 10
-78.9921468687
 20
-21.0183142305
 11
-78.9894722008
 21
-21.018163739
  0
LWPOLYLINE
  5
33D
100
AcDbEntity
  8
RACCORDO
100
AcDbPolyline
 62
250
  6
CONTINUOUS
 90
5
 70
0
 10
-60.4253855402
 20
-19.4420904629
 10
-60.3737598365
 20
-19.4395901339
 10
-60.3227573751
 20
-19.4333722406
 10
-60.2729262727
 20
-19.4234983707
 10
-60.2247964223
 20
-19.4100673031
  0
LINE
  5
33E
100
AcDbEntity
  8
0
100
AcDbLine
 62
250
  6
CONTINUOUS
 10
-78.9894722008
 20
-21.018163739
 11
-78.6535880199
 21
-21.0037221554
  0
LWPOLYLINE
  5
33F
100
AcDbEntity
  8
0
100
AcDbPolyline
 62
250
  6
CONTINUOUS
 90
3
 70
0
 10
-78.6535880199
 20
-21.0037221554
 10
-78.5529008489
 20
-20.9994689572
 10
-78.5013150455
 20
-20.9972959167
  0
LINE
  5
340
100
AcDbEntity
  8
RACCORDO
100
AcDbLine
 62
250
  6
CONTINUOUS
 10
-60.4253855402
 20
-17.3051597608
 11
-69.9341117434
 21
-17.3594295692
  0
LINE
  5
341
100
AcDbEntity
  8
RACCORDO
100
AcDbLine
 62
250
  6
CONTINUOUS
 10
-60.3694389288
 20
-16.0615550071
 11
-60.1368554878
 21
-16.1432301386
  0
LINE
  5
342
100
AcDbEntity
  8
RACCORDO
100
AcDbLine
 62
250
  6
CONTINUOUS
 10
-60.1368554878
 20
-16.1432301386
 11
-60.0011375026
 21
-16.1914256553
  0
LWPOLYLINE
  5
343
100
AcDbEntity
  8
RACCORDO
100
AcDbPolyline
 62
250
  6
CONTINUOUS
 90
5
 70
0
 10
-60.0011375026
 20
-16.1914256553
 10
-59.9409603354
 20
-16.213132046
 10
-59.921635784
 20
-16.2202569575
 10
-59.909959863
 20
-16.2247229967
 10
-59.906128198
 20
-16.226455337
  0
LWPOLYLINE
  5
344
100
AcDbEntity
  8
RACCORDO
100
AcDbPolyline
 62
250
  6
CONTINUOUS
 90
4
 70
0
 10
-65.7376022247
 20
-21.1965699136
 10
-65.7376679783
 20
-21.1959912486
 10
-65.737719012
 20
-21.1941614708
 10
-65.7377582121
 20
-21.1909425755
  0
LINE
  5
345
100
AcDbEntity
  8
RACCORDO
100
AcDbLine
 62
250
  6
CONTINUOUS
 10
-65.7377582121
 20
-21.1909425755
 11
-65.7378225023
 21
-21.1798117182
  0
LINE
  5
346
100
AcDbEntity
  8
RACCORDO
100
AcDbLine
 62
7
  6
CONTINUOUS
 10
-65.9341117434
 20
-22.6298666026
 11
-65.9341117434
 21
-21.3965394526
  0
LINE
  5
347
100
AcDbEntity
  8
0
100
AcDbLine
 62
7
  6
CONTINUOUS
 10
-65.9341117434
 20
-22.6016383059
 11
-65.9341117434
 21
-23.4301797403
  0
LINE
  5
348
100
AcDbEntity
  8
RACCORDO
100
AcDbLine
 62
7
  6
CONTINUOUS
 10
-65.9341117434
 20
21.3965394526
 11
-65.9341117434
 21
22.6298666026
  0
LINE
  5
349
100
AcDbEntity
  8
0
100
AcDbLine
 62
7
  6
CONTINUOUS
 10
-65.9341117434
 20
22.6298666026
 11
-65.9341117434
 21
23.4301797403
  0
LINE
  5
34A
100
AcDbEntity
  8
0
100
AcDbLine
 62
7
  6
CONTINUOUS
 10
-64.3341117434
 20
22.2
 11
-64.3341117434
 21
21.1720718961
  0
LINE
  5
34B
100
AcDbEntity
  8
0
100
AcDbLine
 62
7
  6
CONTINUOUS
 10
-64.3341117434
 20
-22.2
 11
-64.3341117434
 21
-21.1720718961
  0
LINE
  5
34C
100
AcDbEntity
  8
RACCORDO
100
AcDbLine
 62
250
  6
CONTINUOUS
 10
-65.7376022247
 20
21.0738952237
 11
-65.7378351715
 21
21.1715730242
  0
LINE
  5
34D
100
AcDbEntity
  8
RACCORDO
100
AcDbLine
 62
250
  6
CONTINUOUS
 10
-65.7378225023
 20
-21.1798117182
 11
-65.7377979936
 21
-21.1341649973
  0
LINE
  5
34E
100
AcDbEntity
  8
RACCORDO
100
AcDbLine
 62
250
  6
CONTINUOUS
 10
-65.7377979936
 20
-21.1341649973
 11
-65.7376022247
 21
-21.0738952237
  0
LWPOLYLINE
  5
34F
100
AcDbEntity
  8
RACCORDO
100
AcDbPolyline
 62
250
  6
CONTINUOUS
 90
6
 70
0
 10
-65.7378351715
 20
21.1715730242
 10
-65.7377932878
 20
21.1862075084
 10
-65.7377582085
 20
21.1909429247
 10
-65.7377190091
 20
21.1941616336
 10
-65.7376679767
 20
21.1959912911
 10
-65.7376022247
 20
21.1965699136
  0
LINE
  5
350
100
AcDbEntity
  8
DRAFT
100
AcDbLine
 62
7
  6
CONTINUOUS
 10
-44.7292812786
 20
-13.4067486607
 11
-43.2184109565
 21
-13.3275673023
  0
LWPOLYLINE
  5
351
100
AcDbEntity
  8
RACCORDO
100
AcDbPolyline
 62
250
  6
CONTINUOUS
 90
13
 70
0
 10
-60.4253855402
 20
-17.3051597608
 10
-60.3609254849
 20
-17.3018589608
 10
-60.2976901867
 20
-17.2934124868
 10
-60.2367377564
 20
-17.2799617038
 10
-60.1790880734
 20
-17.2617317041
 10
-60.12570579
 20
-17.2390275609
 10
-60.0774841721
 20
-17.2122292391
 10
-60.035230063
 20
-17.1817851964
 10
-59.9996504107
 20
-17.1482048662
 10
-59.9713404935
 20
-17.112050167
 10
-59.9507739326
 20
-17.0739260804
 10
-59.9382947748
 20
-17.0344705261
 10
-59.9341117434
 20
-16.9943436938
  0
LWPOLYLINE
  5
352
100
AcDbEntity
  8
RACCORDO
100
AcDbPolyline
 62
250
  6
CONTINUOUS
 90
13
 70
0
 10
-60.4249318498
 20
-16.5011476521
 10
-60.3605156711
 20
-16.4999706645
 10
-60.2973293358
 20
-16.4969781605
 10
-60.2364288808
 20
-16.4922201553
 10
-60.1788321392
 20
-16.4857761696
 10
-60.1255017286
 20
-16.4777539053
 10
-60.077328963
 20
-16.4682874436
 10
-60.0351189567
 20
-16.4575349996
 10
-59.9995771681
 20
-16.4456762796
 10
-59.9712976092
 20
-16.4329094802
 10
-59.9507529178
 20
-16.4194479749
 10
-59.9382864587
 20
-16.4055167476
 10
-59.9341065847
 20
-16.3913486329
  0
LINE
  5
353
100
AcDbEntity
  8
RACCORDO
100
AcDbLine
 62
7
  6
CONTINUOUS
 10
-59.4428379466
 20
-15.891424784
 11
-45.4253855402
 21
-15.6467492421
  0
LINE
  5
354
100
AcDbEntity
  8
RACCORDO
100
AcDbLine
 62
250
  6
CONTINUOUS
 10
-59.4428379466
 20
-15.3915009364
 11
-45.4253855402
 21
-15.1468253945
  0
LINE
  5
355
100
AcDbEntity
  8
RACCORDO
100
AcDbLine
 62
250
  6
CONTINUOUS
 10
-60.3694385935
 20
-16.0615550106
 11
-69.9341117434
 21
-16.119659166
  0
LINE
  5
356
100
AcDbEntity
  8
RACCORDO
100
AcDbLine
 62
250
  6
CONTINUOUS
 10
-45.4253855402
 20
-15.1468253945
 11
-44.9341117434
 21
-15.1468253945
  0
LINE
  5
357
100
AcDbEntity
  8
ASSI
100
AcDbLine
 62
7
  6
CONTINUOUS
 10
-44.9341117434
 20
-14.869462
 11
-44.7341117434
 21
-14.869462
  0
LINE
  5
358
100
AcDbEntity
  8
ASSI
100
AcDbLine
 62
7
  6
CONTINUOUS
 10
-44.9341117434
 20
-14.459442
 11
-44.7341117434
 21
-14.459442
  0
LINE
  5
359
100
AcDbEntity
  8
ASSI
100
AcDbLine
 62
7
  6
CONTINUOUS
 10
-44.9341117434
 20
-14.006228
 11
-44.7341117434
 21
-14.006228
  0
LINE
  5
35A
100
AcDbEntity
  8
ASSI
100
AcDbLine
 62
7
  6
CONTINUOUS
 10
-44.9341117434
 20
-13.553019
 11
-44.7341117434
 21
-13.553019
  0
LINE
  5
35B
100
AcDbEntity
  8
RACCORDO
100
AcDbLine
 62
250
  6
CONTINUOUS
 10
-61.9627315091
 20
-21.0747030511
 11
-61.9632569455
 21
-21.0077183972
  0
LWPOLYLINE
  5
35C
100
AcDbEntity
  8
RACCORDO
100
AcDbPolyline
 62
250
  6
CONTINUOUS
 90
4
 70
0
 10
-61.9627316541
 20
21.1164956559
 10
-61.9626415848
 20
21.0915908979
 10
-61.9627314651
 20
21.0747146226
 10
-61.9632569455
 20
21.0077183973
  0
LINE
  5
35D
100
AcDbEntity
  8
RACCORDO
100
AcDbLine
 62
250
  6
CONTINUOUS
 10
-60.4253855402
 20
17.3051597608
 11
-60.4253855402
 21
19.4417173837
  0
LINE
  5
35E
100
AcDbEntity
  8
RACCORDO
100
AcDbLine
 62
250
  6
CONTINUOUS
 10
-60.4249305133
 20
16.5011635755
 11
-60.4253855402
 21
17.3051597612
  0
LWPOLYLINE
  5
35F
100
AcDbEntity
  8
RACCORDO
100
AcDbPolyline
 62
250
  6
CONTINUOUS
 90
3
 70
0
 10
-60.4253855402
 20
-19.4416938666
 10
-60.4252457486
 20
-17.225404363
 10
-60.4249305133
 20
-16.5011635755
  0
LWPOLYLINE
  5
360
100
AcDbEntity
  8
RACCORDO
100
AcDbPolyline
 62
250
  6
CONTINUOUS
 90
7
 70
0
 10
-60.4249305133
 20
-16.5011635755
 10
-60.4227644637
 20
-16.4218601256
 10
-60.4177737279
 20
-16.3447676731
 10
-60.4099518612
 20
-16.2700574506
 10
-60.3992926491
 20
-16.1978747529
 10
-60.3857901268
 20
-16.1283408656
 10
-60.3694385936
 20
-16.0615550107
  0
LINE
  5
361
100
AcDbEntity
  8
RACCORDO
100
AcDbLine
 62
7
  6
CONTINUOUS
 10
-65.9305794586
 20
-21.3591170407
 11
-65.9263948854
 21
-21.3414072032
  0
LINE
  5
362
100
AcDbEntity
  8
ASSI
100
AcDbLine
 62
7
  6
CONTINUOUS
 10
-44.9341117434
 20
-13.142998
 11
-44.7341117434
 21
-13.142998
  0
LINE
  5
363
100
AcDbEntity
  8
ASSI
100
AcDbLine
 62
7
  6
CONTINUOUS
 10
-44.9341117434
 20
-12.869657
 11
-44.7341117434
 21
-12.869657
  0
LINE
  5
364
100
AcDbEntity
  8
ASSI
100
AcDbLine
 62
7
  6
CONTINUOUS
 10
-44.9341117434
 20
-12.459641
 11
-44.7341117434
 21
-12.459641
  0
LINE
  5
365
100
AcDbEntity
  8
0
100
AcDbLine
 62
7
  6
CONTINUOUS
 10
-44.9341117434
 20
-12.317531
 11
-44.7341117434
 21
-12.317531
  0
LINE
  5
366
100
AcDbEntity
  8
0
100
AcDbLine
 62
7
  6
CONTINUOUS
 10
-44.9341117434
 20
-12.288
 11
-44.7341117434
 21
-12.288
  0
LINE
  5
367
100
AcDbEntity
  8
ASSI
100
AcDbLine
 62
7
  6
CONTINUOUS
 10
-44.9341117434
 20
-12.049641
 11
-44.7341117434
 21
-12.049641
  0
LINE
  5
368
100
AcDbEntity
  8
ASSI
100
AcDbLine
 62
7
  6
CONTINUOUS
 10
-44.9341117434
 20
-11.429808
 11
-44.7341117434
 21
-11.429808
  0
LINE
  5
369
100
AcDbEntity
  8
ASSI
100
AcDbLine
 62
7
  6
CONTINUOUS
 10
-44.9341117434
 20
-11.046976
 11
-44.7341117434
 21
-11.046976
  0
LINE
  5
36A
100
AcDbEntity
  8
RACCORDO
100
AcDbLine
 62
250
  6
CONTINUOUS
 10
-42.9341117434
 20
-10.6674833705
 11
-44.7341117434
 21
-10.6674833705
  0
LINE
  5
36B
100
AcDbEntity
  8
ASSI
100
AcDbLine
 62
7
  6
CONTINUOUS
 10
-44.9341117434
 20
-10.664144
 11
-44.7341117434
 21
-10.664144
  0
LINE
  5
36C
100
AcDbEntity
  8
ASSI
100
AcDbLine
 62
7
  6
CONTINUOUS
 10
-44.9341117434
 20
-10.044311
 11
-44.7341117434
 21
-10.044311
  0
LINE
  5
36D
100
AcDbEntity
  8
0
100
AcDbLine
 62
7
  6
CONTINUOUS
 10
-44.9341117434
 20
-10.0312
 11
-44.7341117434
 21
-10.0312
  0
LINE
  5
36E
100
AcDbEntity
  8
RACCORDO
100
AcDbLine
 62
250
  6
CONTINUOUS
 10
-59.4428379466
 20
-15.3915009364
 11
-59.4408777781
 21
-15.5208662415
  0
LINE
  5
36F
100
AcDbEntity
  8
RACCORDO
100
AcDbLine
 62
7
  6
CONTINUOUS
 10
-59.9342713066
 20
19.1055240427
 11
-59.9341117434
 21
19.0928932188
  0
LINE
  5
370
100
AcDbEntity
  8
RACCORDO
100
AcDbLine
 62
250
  6
CONTINUOUS
 10
-59.4408777781
 20
-15.5208662415
 11
-59.4396455874
 21
-15.6414189139
  0
LWPOLYLINE
  5
371
100
AcDbEntity
  8
RACCORDO
100
AcDbPolyline
 62
250
  6
CONTINUOUS
 90
7
 70
0
 10
-59.4392253139
 20
15.7449467427
 10
-59.4393308338
 20
15.7880632006
 10
-59.4396455881
 20
15.8243969936
 10
-59.4401641931
 20
15.8533266846
 10
-59.4408777789
 20
15.8743574723
 10
-59.4417741404
 20
15.8871296551
 10
-59.4428379466
 20
15.891424784
  0
LWPOLYLINE
  5
372
100
AcDbEntity
  8
RACCORDO
100
AcDbPolyline
 62
250
  6
CONTINUOUS
 90
8
 70
0
 10
-59.4396455874
 20
-15.6414189139
 10
-59.4392253139
 20
-15.7449466558
 10
-59.4393308335
 20
-15.7880631302
 10
-59.4396455874
 20
-15.8243969428
 10
-59.4401641923
 20
-15.8533266529
 10
-59.4408777781
 20
-15.8743574568
 10
-59.4417741399
 20
-15.8871296509
 10
-59.4428379466
 20
-15.891424784
  0
LINE
  5
373
100
AcDbEntity
  8
RACCORDO
100
AcDbLine
 62
7
  6
CONTINUOUS
 10
-59.9341117434
 20
-19.0928932188
 11
-59.9341117434
 21
-16.3913486316
  0
LINE
  5
374
100
AcDbEntity
  8
RACCORDO
100
AcDbLine
 62
7
  6
CONTINUOUS
 10
-59.9341117434
 20
16.3913486316
 11
-59.9341117434
 21
19.0928932188
  0
LINE
  5
375
100
AcDbEntity
  8
RACCORDO
100
AcDbLine
 62
250
  6
CONTINUOUS
 10
-59.4396455867
 20
15.6414190136
 11
-59.4392253139
 21
15.7449467427
  0
LINE
  5
376
100
AcDbEntity
  8
RACCORDO
100
AcDbLine
 62
250
  6
CONTINUOUS
 10
-59.4408777772
 20
15.5208663135
 11
-59.4396455867
 21
15.6414190136
  0
LINE
  5
377
100
AcDbEntity
  8
RACCORDO
100
AcDbLine
 62
7
  6
CONTINUOUS
 10
-59.9341117434
 20
-19.0928932188
 11
-59.9342713066
 21
-19.1055240427
  0
LINE
  5
378
100
AcDbEntity
  8
RACCORDO
100
AcDbLine
 62
250
  6
CONTINUOUS
 10
-59.4428379466
 20
15.3915009364
 11
-59.4408777772
 21
15.5208663135
  0
LWPOLYLINE
  5
379
100
AcDbEntity
  8
RACCORDO
100
AcDbPolyline
 62
250
  6
CONTINUOUS
 90
6
 70
0
 10
-61.9632569455
 20
-21.1306884717
 10
-61.9630246597
 20
-21.1291004519
 10
-61.9628491429
 20
-21.1243555268
 10
-61.9627315091
 20
-21.1164837551
 10
-61.962672505
 20
-21.1055350036
 10
-61.9627315091
 20
-21.0747030511
  0
LWPOLYLINE
  5
37A
100
AcDbEntity
  8
RACCORDO
100
AcDbPolyline
 62
7
  6
CONTINUOUS
 90
14
 70
0
 10
-65.9263948854
 20
-21.3414072032
 10
-65.9207825827
 20
-21.3234793006
 10
-65.9137425506
 20
-21.3053327729
 10
-65.9052152485
 20
-21.2869481413
 10
-65.8952602168
 20
-21.2683437101
 10
-65.8840560775
 20
-21.2495757757
 10
-65.8715750696
 20
-21.230653346
 10
-65.857844954
 20
-21.2115666646
 10
-65.8431276345
 20
-21.1923441508
 10
-65.8273998299
 20
-21.1730062138
 10
-65.8106848214
 20
-21.1535318817
 10
-65.7933143568
 20
-21.1338874338
 10
-65.7753990187
 20
-21.1140612558
 10
-65.7568282244
 20
-21.0940640058
  0
LINE
  5
37B
100
AcDbEntity
  8
ASSI
100
AcDbLine
 62
7
  6
CONTINUOUS
 10
-44.9341117434
 20
-9.770969
 11
-44.7341117434
 21
-9.770969
  0
LINE
  5
37C
100
AcDbEntity
  8
ASSI
100
AcDbLine
 62
7
  6
CONTINUOUS
 10
-44.9341117434
 20
-9.11276
 11
-44.7341117434
 21
-9.11276
  0
LINE
  5
37D
100
AcDbEntity
  8
ASSI
100
AcDbLine
 62
7
  6
CONTINUOUS
 10
-44.9341117434
 20
-8.702724
 11
-44.7341117434
 21
-8.702724
  0
LINE
  5
37E
100
AcDbEntity
  8
RACCORDO
100
AcDbLine
 62
250
  6
CONTINUOUS
 10
-42.9341117434
 20
-8.6
 11
-44.7341117434
 21
-8.6
  0
LINE
  5
37F
100
AcDbEntity
  8
ASSI
100
AcDbLine
 62
7
  6
CONTINUOUS
 10
-44.9341117434
 20
-8.044505
 11
-44.7341117434
 21
-8.044505
  0
LINE
  5
380
100
AcDbEntity
  8
ASSI
100
AcDbLine
 62
7
  6
CONTINUOUS
 10
-44.9341117434
 20
-7.771163
 11
-44.7341117434
 21
-7.771163
  0
LINE
  5
381
100
AcDbEntity
  8
ASSI
100
AcDbLine
 62
7
  6
CONTINUOUS
 10
-44.9341117434
 20
-6.811045
 11
-44.7341117434
 21
-6.811045
  0
LWPOLYLINE
  5
382
100
AcDbEntity
  8
RACCORDO
100
AcDbPolyline
 62
250
  6
CONTINUOUS
 90
4
 70
0
 10
-61.9632569455
 20
21.1306884717
 10
-61.9629783656
 20
21.1290921493
 10
-61.9628115945
 20
21.1243465266
 10
-61.9627316541
 20
21.1164956559
  0
LWPOLYLINE
  5
383
100
AcDbEntity
  8
0
100
AcDbPolyline
 62
7
  6
CONTINUOUS
 90
4
 70
0
 43
0.3500000006
 10
-56.4341103973
 20
38.7652612152
 10
-56.4341103973
 20
39.4081192017
 10
-54.9341099396
 20
39.4081192017
 10
-55.7912524109
 20
36.4081182861
  0
LWPOLYLINE
  5
384
100
AcDbEntity
  8
RACCORDO
100
AcDbPolyline
 62
250
  6
CONTINUOUS
 90
19
 70
0
 10
-60.3694385935
 20
-16.0615550106
 10
-60.3377597488
 20
-15.9836127184
 10
-60.3015241499
 20
-15.9103044034
 10
-60.260731797
 20
-15.8416300654
 10
-60.2146064724
 20
-15.7773014797
 10
-60.1639243936
 20
-15.7176068711
 10
-60.1110142137
 20
-15.6634109141
 10
-60.0560896843
 20
-15.6151524356
 10
-59.9989370537
 20
-15.5723926087
 10
-59.9412437194
 20
-15.5346796281
 10
-59.8831075035
 20
-15.5021158725
 10
-59.8244305838
 20
-15.4745989631
 10
-59.7666068915
 20
-15.4513699582
 10
-59.7100096789
 20
-15.4325100662
 10
-59.6542656937
 20
-15.4179380787
 10
-59.5996491104
 20
-15.4066514286
 10
-59.5462513205
 20
-15.3983159271
 10
-59.4939809326
 20
-15.393265763
 10
-59.4428379466
 20
-15.3915009364
  0
LINE
  5
385
100
AcDbEntity
  8
ASSI
100
AcDbLine
 62
7
  6
CONTINUOUS
 10
-44.9341117434
 20
-6.1823385478
 11
-44.7341117434
 21
-6.1823385478
  0
LINE
  5
386
100
AcDbEntity
  8
ASSI
100
AcDbLine
 62
7
  6
CONTINUOUS
 10
-44.9341117434
 20
-6.130538
 11
-44.7341117434
 21
-6.130538
  0
LINE
  5
387
100
AcDbEntity
  8
0
100
AcDbLine
 62
7
  6
CONTINUOUS
 10
-44.9341117434
 20
-5.45
 11
-44.7341117434
 21
-5.45
  0
LINE
  5
388
100
AcDbEntity
  8
0
100
AcDbLine
 62
7
  6
CONTINUOUS
 10
-44.9341117434
 20
-5.15625
 11
-44.7841117434
 21
-5.15625
  0
LINE
  5
389
100
AcDbEntity
  8
0
100
AcDbLine
 62
7
  6
CONTINUOUS
 10
-44.9341117434
 20
-5.047564
 11
-44.7841117434
 21
-5.047564
  0
LINE
  5
38A
100
AcDbEntity
  8
0
100
AcDbLine
 62
7
  6
CONTINUOUS
 10
-44.9341117434
 20
-4.792935
 11
-44.7841117434
 21
-4.792935
  0
LINE
  5
38B
100
AcDbEntity
  8
0
100
AcDbLine
 62
7
  6
CONTINUOUS
 10
-44.7841117434
 20
-4.6999999982
 11
-44.7341117434
 21
-4.6999999982
  0
LINE
  5
38C
100
AcDbEntity
  8
0
100
AcDbLine
 62
7
  6
CONTINUOUS
 10
-44.7841117434
 20
-4.5372935723
 11
-44.7341117434
 21
-4.5372935723
  0
LINE
  5
38D
100
AcDbEntity
  8
0
100
AcDbLine
 62
7
  6
CONTINUOUS
 10
-44.9341117434
 20
-3.839981
 11
-44.7841117434
 21
-3.839981
  0
LINE
  5
38E
100
AcDbEntity
  8
0
100
AcDbLine
 62
7
  6
CONTINUOUS
 10
-44.9341117434
 20
-3.613081
 11
-44.7841117434
 21
-3.613081
  0
LINE
  5
38F
100
AcDbEntity
  8
0
100
AcDbLine
 62
7
  6
CONTINUOUS
 10
-44.9341117434
 20
-3.4895833731
 11
-44.7841117434
 21
-3.4895833731
  0
LINE
  5
390
100
AcDbEntity
  8
0
100
AcDbLine
 62
7
  6
CONTINUOUS
 10
-44.7841117434
 20
-3.4252369661
 11
-44.7341117434
 21
-3.4252369661
  0
LINE
  5
391
100
AcDbEntity
  8
0
100
AcDbLine
 62
7
  6
CONTINUOUS
 10
-44.9341117434
 20
-3.15625
 11
-44.7841117434
 21
-3.15625
  0
LINE
  5
392
100
AcDbEntity
  8
0
100
AcDbLine
 62
7
  6
CONTINUOUS
 10
-44.9341117434
 20
-3.111453
 11
-44.7841117434
 21
-3.111453
  0
LINE
  5
393
100
AcDbEntity
  8
DRAFT
100
AcDbLine
 62
7
  6
CONTINUOUS
 10
-44.7445789347
 20
-5.8599329936
 11
-43.2184109565
 21
-5.9399160682
  0
LWPOLYLINE
  5
394
100
AcDbEntity
  8
RACCORDO
100
AcDbPolyline
 62
250
  6
CONTINUOUS
 90
7
 70
0
 10
-60.3694385936
 20
16.0615550107
 10
-60.3860708271
 20
16.1305261682
 10
-60.3997439467
 20
16.2013649279
 10
-60.4104621289
 20
16.2739714717
 10
-60.4182296687
 20
16.3482305802
 10
-60.4230509666
 20
16.4240107877
 10
-60.4249305133
 20
16.5011635755
  0
LWPOLYLINE
  5
395
100
AcDbEntity
  8
RACCORDO
100
AcDbPolyline
 62
250
  6
CONTINUOUS
 90
5
 70
0
 10
-59.9760600207
 20
-19.232922383
 10
-59.9577921692
 20
-19.1991013348
 10
-59.9446588361
 20
-19.1642492847
 10
-59.9367494258
 20
-19.1287197433
 10
-59.9341117434
 20
-19.0928932188
  0
LINE
  5
396
100
AcDbEntity
  8
0
100
AcDbLine
 62
7
  6
CONTINUOUS
 10
-44.7841117434
 20
-2.9276521382
 11
-44.7341117434
 21
-2.9276521382
  0
LINE
  5
397
100
AcDbEntity
  8
0
100
AcDbLine
 62
7
  6
CONTINUOUS
 10
-44.9341117434
 20
-1.868581
 11
-44.7841117434
 21
-1.868581
  0
LINE
  5
398
100
AcDbEntity
  8
0
100
AcDbLine
 62
7
  6
CONTINUOUS
 10
-44.9341117434
 20
-1.861022
 11
-44.7841117434
 21
-1.861022
  0
LINE
  5
399
100
AcDbEntity
  8
0
100
AcDbLine
 62
7
  6
CONTINUOUS
 10
-44.9341117434
 20
-1.6703677525
 11
-44.7841117434
 21
-1.6703677525
  0
LINE
  5
39A
100
AcDbEntity
  8
0
100
AcDbLine
 62
7
  6
CONTINUOUS
 10
-44.9341117434
 20
-1.656848
 11
-44.7841117434
 21
-1.656848
  0
LINE
  5
39B
100
AcDbEntity
  8
0
100
AcDbLine
 62
7
  6
CONTINUOUS
 10
-44.9341117434
 20
-1.397219
 11
-44.7841117434
 21
-1.397219
  0
LINE
  5
39C
100
AcDbEntity
  8
0
100
AcDbLine
 62
7
  6
CONTINUOUS
 10
-44.7841117434
 20
-1.0655074839
 11
-44.7341117434
 21
-1.0655074839
  0
LINE
  5
39D
100
AcDbEntity
  8
0
100
AcDbLine
 62
7
  6
CONTINUOUS
 10
-44.9341117434
 20
-0.8803695
 11
-44.7841117434
 21
-0.8803695
  0
LINE
  5
39E
100
AcDbEntity
  8
0
100
AcDbLine
 62
7
  6
CONTINUOUS
 10
-44.9341117434
 20
-0.358535
 11
-44.7841117434
 21
-0.358535
  0
LINE
  5
39F
100
AcDbEntity
  8
0
100
AcDbLine
 62
7
  6
CONTINUOUS
 10
-44.9341117434
 20
-0.108941
 11
-44.7841117434
 21
-0.108941
  0
LINE
  5
3A0
100
AcDbEntity
  8
0
100
AcDbLine
 62
7
  6
CONTINUOUS
 10
-44.9341117434
 20
0.196091
 11
-44.7841117434
 21
0.196091
  0
LINE
  5
3A1
100
AcDbEntity
  8
0
100
AcDbLine
 62
7
  6
CONTINUOUS
 10
-44.7841117434
 20
0.2865535485
 11
-44.7341117434
 21
0.2865535485
  0
LINE
  5
3A2
100
AcDbEntity
  8
0
100
AcDbLine
 62
7
  6
CONTINUOUS
 10
-44.7841117434
 20
0.3673834379
 11
-44.7341117434
 21
0.3673834379
  0
LINE
  5
3A3
100
AcDbEntity
  8
0
100
AcDbLine
 62
7
  6
CONTINUOUS
 10
-44.7841117434
 20
0.3822600513
 11
-44.7341117434
 21
0.3822600513
  0
LWPOLYLINE
  5
3A4
100
AcDbEntity
  8
RACCORDO
100
AcDbPolyline
 62
250
  6
CONTINUOUS
 90
5
 70
0
 10
-59.9760600207
 20
19.232922383
 10
-59.9577921692
 20
19.1991013348
 10
-59.9446588361
 20
19.1642492847
 10
-59.9367494258
 20
19.1287197433
 10
-59.9341117434
 20
19.0928932188
  0
LWPOLYLINE
  5
3A5
100
AcDbEntity
  8
RACCORDO
100
AcDbPolyline
 62
250
  6
CONTINUOUS
 90
7
 70
0
 10
-45.0126573724
 20
11.4483473403
 10
-45.0265826058
 20
11.3317006738
 10
-45.040126469
 20
11.2102357553
 10
-45.0515764108
 20
11.0861168065
 10
-45.0600430397
 20
10.9600652346
 10
-45.065713774
 20
10.8313596324
 10
-45.0684171935
 20
10.7
  0
LWPOLYLINE
  5
3A6
100
AcDbEntity
  8
RACCORDO
100
AcDbPolyline
 62
250
  6
CONTINUOUS
 90
10
 70
0
 10
-44.9341117434
 20
7.0093271998
 10
-44.9312719882
 20
7.0274985608
 10
-44.9228333756
 20
7.0451538826
 10
-44.9090355572
 20
7.0617918006
 10
-44.8902703735
 20
7.0769398425
 10
-44.867070719
 20
7.0901678506
 10
-44.8400954036
 20
7.1011001947
 10
-44.8101104558
 20
7.1094264311
 10
-44.7779673737
 20
7.1149101212
 10
-44.7445789347
 20
7.1173955491
  0
LINE
  5
3A7
100
AcDbEntity
  8
RACCORDO
100
AcDbLine
 62
7
  6
CONTINUOUS
 10
-65.7568282244
 20
-21.0940640058
 11
-65.737601974
 21
-21.0738952193
  0
LINE
  5
3A8
100
AcDbEntity
  8
0
100
AcDbLine
 62
7
  6
CONTINUOUS
 10
-44.7841117434
 20
1.393211
 11
-44.7341117434
 21
1.393211
  0
LINE
  5
3A9
100
AcDbEntity
  8
0
100
AcDbLine
 62
7
  6
CONTINUOUS
 10
-44.9341117434
 20
1.438946
 11
-44.7841117434
 21
1.438946
  0
LINE
  5
3AA
100
AcDbEntity
  8
0
100
AcDbLine
 62
7
  6
CONTINUOUS
 10
-44.9341117434
 20
1.44654
 11
-44.7841117434
 21
1.44654
  0
LINE
  5
3AB
100
AcDbEntity
  8
0
100
AcDbLine
 62
7
  6
CONTINUOUS
 10
-44.9341117434
 20
1.4717821782
 11
-44.7841117434
 21
1.4717821782
  0
LINE
  5
3AC
100
AcDbEntity
  8
0
100
AcDbLine
 62
7
  6
CONTINUOUS
 10
-44.9341117434
 20
1.6775813296
 11
-44.7841117434
 21
1.6775813296
  0
LINE
  5
3AD
100
AcDbEntity
  8
0
100
AcDbLine
 62
7
  6
CONTINUOUS
 10
-44.9341117434
 20
1.8020834923
 11
-44.7841117434
 21
1.8020834923
  0
LINE
  5
3AE
100
AcDbEntity
  8
0
100
AcDbLine
 62
7
  6
CONTINUOUS
 10
-44.9341117434
 20
1.8685289958
 11
-44.7841117434
 21
1.8685289958
  0
LINE
  5
3AF
100
AcDbEntity
  8
0
100
AcDbLine
 62
7
  6
CONTINUOUS
 10
-44.9341117434
 20
1.9024752475
 11
-44.7841117434
 21
1.9024752475
  0
LINE
  5
3B0
100
AcDbEntity
  8
0
100
AcDbLine
 62
7
  6
CONTINUOUS
 10
-44.9341117434
 20
2.0488684583
 11
-44.7841117434
 21
2.0488684583
  0
LINE
  5
3B1
100
AcDbEntity
  8
0
100
AcDbLine
 62
7
  6
CONTINUOUS
 10
-44.9341117434
 20
2.0630591791
 11
-44.7841117434
 21
2.0630591791
  0
LINE
  5
3B2
100
AcDbEntity
  8
0
100
AcDbLine
 62
7
  6
CONTINUOUS
 10
-44.9341117434
 20
2.1741801938
 11
-44.7841117434
 21
2.1741801938
  0
LINE
  5
3B3
100
AcDbEntity
  8
0
100
AcDbLine
 62
7
  6
CONTINUOUS
 10
-44.7841117434
 20
2.4
 11
-44.7341117434
 21
2.4
  0
LINE
  5
3B4
100
AcDbEntity
  8
0
100
AcDbLine
 62
250
  6
CONTINUOUS
 10
-44.9341117434
 20
2.739952414
 11
-44.7841117434
 21
2.739952414
  0
LINE
  5
3B5
100
AcDbEntity
  8
0
100
AcDbLine
 62
7
  6
CONTINUOUS
 10
-44.7841117434
 20
3.099459
 11
-44.7341117434
 21
3.099459
  0
LINE
  5
3B6
100
AcDbEntity
  8
0
100
AcDbLine
 62
7
  6
CONTINUOUS
 10
-44.9341117434
 20
3.3309300335
 11
-44.7841117434
 21
3.3309300335
  0
LINE
  5
3B7
100
AcDbEntity
  8
0
100
AcDbLine
 62
7
  6
CONTINUOUS
 10
-44.9341117434
 20
3.4420500068
 11
-44.7841117434
 21
3.4420500068
  0
LINE
  5
3B8
100
AcDbEntity
  8
0
100
AcDbLine
 62
7
  6
CONTINUOUS
 10
-44.9341117434
 20
3.53125
 11
-44.7841117434
 21
3.53125
  0
LINE
  5
3B9
100
AcDbEntity
  8
0
100
AcDbLine
 62
7
  6
CONTINUOUS
 10
-44.9341117434
 20
3.6354169846
 11
-44.7841117434
 21
3.6354169846
  0
LINE
  5
3BA
100
AcDbEntity
  8
0
100
AcDbLine
 62
7
  6
CONTINUOUS
 10
-44.9341117434
 20
3.71875
 11
-44.7841117434
 21
3.71875
  0
LINE
  5
3BB
100
AcDbEntity
  8
0
100
AcDbLine
 62
7
  6
CONTINUOUS
 10
-44.9341117434
 20
3.7601217129
 11
-44.7841117434
 21
3.7601217129
  0
LWPOLYLINE
  5
3BC
100
AcDbEntity
  8
RACCORDO
100
AcDbPolyline
 62
7
  6
CONTINUOUS
 90
4
 70
0
 10
-65.737601974
 20
21.0738952193
 10
-65.7569731995
 20
21.094221747
 10
-65.7756439658
 20
21.1143298147
 10
-65.7936142729
 20
21.1342200592
  0
LWPOLYLINE
  5
3BD
100
AcDbEntity
  8
RACCORDO
100
AcDbPolyline
 62
7
  6
CONTINUOUS
 90
13
 70
0
 10
-65.7936142729
 20
21.1342200592
 10
-65.810984809
 20
21.1538753255
 10
-65.827654886
 20
21.1733140769
 10
-65.8433224391
 20
21.1925901503
 10
-65.8579629459
 20
21.2117188611
 10
-65.8716009288
 20
21.230685657
 10
-65.8840078907
 20
21.2494993009
 10
-65.8951655088
 20
21.2681660394
 10
-65.9050921057
 20
21.2866803051
 10
-65.9136141521
 20
21.3050331072
 10
-65.9206738048
 20
21.3232216992
 10
-65.926328907
 20
21.3412495569
 10
-65.9305794586
 20
21.3591170407
  0
LWPOLYLINE
  5
3BE
100
AcDbEntity
  8
RACCORDO
100
AcDbPolyline
 62
250
  6
CONTINUOUS
 90
16
 70
0
 10
-44.9326065647
 20
8.6
 10
-44.9295598433
 20
8.4915416665
 10
-44.9229547542
 20
8.3819815021
 10
-44.9127912977
 20
8.2715261382
 10
-44.8981372067
 20
8.1595350609
 10
-44.8799247481
 20
8.047116819
 10
-44.8609507227
 20
7.9370400939
 10
-44.8412840097
 20
7.829677976
 10
-44.8208557298
 20
7.7249423111
 10
-44.8022560454
 20
7.6247206644
 10
-44.7859653745
 20
7.5297100018
 10
-44.7715032991
 20
7.4391816674
 10
-44.7600187266
 20
7.3527708855
 10
-44.7518946263
 20
7.2703239868
 10
-44.746748029
 20
7.1918901692
 10
-44.7445789347
 20
7.1173955492
  0
LWPOLYLINE
  5
3BF
100
AcDbEntity
  8
RACCORDO
100
AcDbPolyline
 62
250
  6
CONTINUOUS
 90
8
 70
0
 10
-45.0684171935
 20
8.6
 10
-45.0666674584
 20
8.4835179264
 10
-45.0619192361
 20
8.3662417667
 10
-45.0543143926
 20
8.248171521
 10
-45.0437722323
 20
8.1281652107
 10
-45.030988691
 20
8.0073648144
 10
-45.0172793484
 20
7.8891962676
 10
-44.9886131191
 20
7.6615818357
  0
LINE
  5
3C0
100
AcDbEntity
  8
RACCORDO
100
AcDbLine
 62
250
  6
CONTINUOUS
 10
-45.4253855402
 20
-15.1468253945
 11
-45.4231364703
 21
-15.2996541259
  0
LWPOLYLINE
  5
3C1
100
AcDbEntity
  8
RACCORDO
100
AcDbPolyline
 62
250
  6
CONTINUOUS
 90
7
 70
0
 10
-45.421930029
 20
15.5520127583
 10
-45.422203121
 20
15.5804932978
 10
-45.4226076223
 20
15.6041898853
 10
-45.4231364703
 20
15.6227696373
 10
-45.4237812218
 20
15.636080563
 10
-45.424534073
 20
15.6440789313
 10
-45.4253855402
 20
15.6467492421
  0
LINE
  5
3C2
100
AcDbEntity
  8
RACCORDO
100
AcDbLine
 62
250
  6
CONTINUOUS
 10
-45.4231364703
 20
-15.2996541259
 11
-45.422203121
 21
-15.3954020112
  0
LINE
  5
3C3
100
AcDbEntity
  8
RACCORDO
100
AcDbLine
 62
250
  6
CONTINUOUS
 10
-45.422203121
 20
-15.3954020112
 11
-45.4217914579
 21
-15.4803600707
  0
LINE
  5
3C4
100
AcDbEntity
  8
RACCORDO
100
AcDbLine
 62
250
  6
CONTINUOUS
 10
-45.4253855402
 20
-15.1468253945
 11
-45.4253855402
 21
15.1468253945
  0
LINE
  5
3C5
100
AcDbEntity
  8
RACCORDO
100
AcDbLine
 62
250
  6
CONTINUOUS
 10
-45.4217883705
 20
15.482133444
 11
-45.421930029
 21
15.5520127583
  0
LINE
  5
3C6
100
AcDbEntity
  8
RACCORDO
100
AcDbLine
 62
250
  6
CONTINUOUS
 10
-45.0684171935
 20
10.7
 11
-45.0684171935
 21
8.6
  0
LINE
  5
3C7
100
AcDbEntity
  8
RACCORDO
100
AcDbLine
 62
7
  6
CONTINUOUS
 10
-44.9341117434
 20
-15.1468253945
 11
-44.9341117434
 21
7.0093271998
  0
LINE
  5
3C8
100
AcDbEntity
  8
RACCORDO
100
AcDbLine
 62
7
  6
CONTINUOUS
 10
-44.9341117434
 20
12.2906728002
 11
-44.9341117434
 21
15.1468253945
  0
LINE
  5
3C9
100
AcDbEntity
  8
RACCORDO
100
AcDbLine
 62
250
  6
CONTINUOUS
 10
-44.9326065647
 20
10.7
 11
-44.9326065647
 21
8.6
  0
LINE
  5
3CA
100
AcDbEntity
  8
0
100
AcDbLine
 62
7
  6
CONTINUOUS
 10
-44.7841117434
 20
5.15625
 11
-44.7841117434
 21
1.44654
  0
LINE
  5
3CB
100
AcDbEntity
  8
0
100
AcDbLine
 62
7
  6
CONTINUOUS
 10
-44.7841117434
 20
1.438946
 11
-44.7841117434
 21
-1.8613154991
  0
LINE
  5
3CC
100
AcDbEntity
  8
0
100
AcDbLine
 62
7
  6
CONTINUOUS
 10
-44.7841117434
 20
-1.868581
 11
-44.7841117434
 21
-5.15625
  0
LINE
  5
3CD
100
AcDbEntity
  8
RACCORDO
100
AcDbLine
 62
250
  6
CONTINUOUS
 10
-44.7445787999
 20
13.4400669993
 11
-44.7445789347
 21
12.1826044508
  0
LINE
  5
3CE
100
AcDbEntity
  8
RACCORDO
100
AcDbLine
 62
250
  6
CONTINUOUS
 10
-44.7445789341
 20
-5.8599329936
 11
-44.7445789083
 21
-6.1305380022
  0
LINE
  5
3CF
100
AcDbEntity
  8
RACCORDO
100
AcDbLine
 62
250
  6
CONTINUOUS
 10
-44.7445789347
 20
7.1173955492
 11
-44.7445785705
 21
5.8599330127
  0
LINE
  5
3D0
100
AcDbEntity
  8
RACCORDO
100
AcDbLine
 62
250
  6
CONTINUOUS
 10
-44.744578912
 20
-12.2879999935
 11
-44.744578922
 21
-12.317531
  0
LINE
  5
3D1
100
AcDbEntity
  8
0
100
AcDbLine
 62
7
  6
CONTINUOUS
 10
-44.7341117434
 20
4.9
 11
-44.7341117434
 21
3.099459
  0
LINE
  5
3D2
100
AcDbEntity
  8
0
100
AcDbLine
 62
7
  6
CONTINUOUS
 10
-44.7341117434
 20
2.4
 11
-44.7341117434
 21
1.393211
  0
LINE
  5
3D3
100
AcDbEntity
  8
0
100
AcDbLine
 62
7
  6
CONTINUOUS
 10
-44.7341117434
 20
0.3822600513
 11
-44.7341117434
 21
-4.6999999982
  0
LINE
  5
3D4
100
AcDbEntity
  8
0
100
AcDbLine
 62
7
  6
CONTINUOUS
 10
-44.7341117434
 20
-5.45
 11
-44.7341117434
 21
-5.8599329936
  0
LINE
  5
3D5
100
AcDbEntity
  8
ASSI
100
AcDbLine
 62
7
  6
CONTINUOUS
 10
-44.7341117434
 20
-6.130538
 11
-44.7341117434
 21
-7.771163
  0
LINE
  5
3D6
100
AcDbEntity
  8
0
100
AcDbLine
 62
7
  6
CONTINUOUS
 10
-44.7341117434
 20
-7.771163
 11
-44.7341117434
 21
-8.044505
  0
LINE
  5
3D7
100
AcDbEntity
  8
ASSI
100
AcDbLine
 62
7
  6
CONTINUOUS
 10
-44.7341117434
 20
-8.044505
 11
-44.7341117434
 21
-9.770969
  0
LINE
  5
3D8
100
AcDbEntity
  8
0
100
AcDbLine
 62
7
  6
CONTINUOUS
 10
-44.7341117434
 20
-9.770969
 11
-44.7341117434
 21
-10.0312
  0
LINE
  5
3D9
100
AcDbEntity
  8
ASSI
100
AcDbLine
 62
7
  6
CONTINUOUS
 10
-44.7341117434
 20
-10.044311
 11
-44.7341117434
 21
-12.049641
  0
LINE
  5
3DA
100
AcDbEntity
  8
0
100
AcDbLine
 62
7
  6
CONTINUOUS
 10
-44.7341117434
 20
-12.049641
 11
-44.7341117434
 21
-12.288
  0
LINE
  5
3DB
100
AcDbEntity
  8
0
100
AcDbLine
 62
7
  6
CONTINUOUS
 10
-44.7341117434
 20
-12.317531
 11
-44.7341117434
 21
-12.459641
  0
LINE
  5
3DC
100
AcDbEntity
  8
ASSI
100
AcDbLine
 62
7
  6
CONTINUOUS
 10
-44.7341117434
 20
-12.459641
 11
-44.7341117434
 21
-12.869657
  0
LINE
  5
3DD
100
AcDbEntity
  8
0
100
AcDbLine
 62
7
  6
CONTINUOUS
 10
-44.7341117434
 20
-12.871559
 11
-44.7341117434
 21
-13.142998
  0
LINE
  5
3DE
100
AcDbEntity
  8
ASSI
100
AcDbLine
 62
7
  6
CONTINUOUS
 10
-44.7341117434
 20
-13.142998
 11
-44.7341117434
 21
-14.869462
  0
LINE
  5
3DF
100
AcDbEntity
  8
RACCORDO
100
AcDbLine
 62
250
  6
CONTINUOUS
 10
-43.2184106364
 20
13.3600839151
 11
-43.218410683
 21
5.9399160825
  0
LINE
  5
3E0
100
AcDbEntity
  8
RACCORDO
100
AcDbLine
 62
250
  6
CONTINUOUS
 10
-43.2184106363
 20
-5.9399160849
 11
-43.2184106831
 21
-13.327567288
  0
LINE
  5
3E1
100
AcDbEntity
  8
RACCORDO
100
AcDbLine
 62
7
  6
CONTINUOUS
 10
-42.9341117434
 20
13.0608476377
 11
-42.9341117434
 21
6.2391686047
  0
LINE
  5
3E2
100
AcDbEntity
  8
RACCORDO
100
AcDbLine
 62
7
  6
CONTINUOUS
 10
-42.9341117434
 20
-6.2391524393
 11
-42.9341117434
 21
-13.0283147485
  0
LWPOLYLINE
  5
3E3
100
AcDbEntity
  8
RACCORDO
100
AcDbPolyline
 62
250
  6
CONTINUOUS
 90
8
 70
0
 10
-45.4217914579
 20
-15.4803600707
 10
-45.4219208676
 20
-15.5506210762
 10
-45.4221877333
 20
-15.5792927685
 10
-45.4225861582
 20
-15.6032072815
 10
-45.4231116549
 20
-15.6220888062
 10
-45.4237583218
 20
-15.635728167
 10
-45.4245190821
 20
-15.6439784466
 10
-45.4253855402
 20
-15.6467492421
  0
LINE
  5
3E4
100
AcDbEntity
  8
RACCORDO
100
AcDbLine
 62
250
  6
CONTINUOUS
 10
-45.4221877333
 20
15.3974841035
 11
-45.4217883705
 21
15.482133444
  0
LINE
  5
3E5
100
AcDbEntity
  8
RACCORDO
100
AcDbLine
 62
250
  6
CONTINUOUS
 10
-45.4237583218
 20
15.2510697504
 11
-45.4221877333
 21
15.3974841035
  0
LWPOLYLINE
  5
3E6
100
AcDbEntity
  8
RACCORDO
100
AcDbPolyline
 62
250
  6
CONTINUOUS
 90
9
 70
0
 10
-44.9341117434
 20
12.2906728002
 10
-44.9353144215
 20
12.2132041715
 10
-44.9388238069
 20
12.1318257146
 10
-44.9444869407
 20
12.0465374297
 10
-44.9521835896
 20
11.9575005755
 10
-44.9617323482
 20
11.8645538933
 10
-44.9728056817
 20
11.7672136063
 10
-44.9852773354
 20
11.6654600048
 10
-45.0126573724
 20
11.4483473403
  0
LINE
  5
3E7
100
AcDbEntity
  8
RACCORDO
100
AcDbLine
 62
250
  6
CONTINUOUS
 10
-45.4253855402
 20
15.1468253945
 11
-45.4237583218
 21
15.2510697504
  0
LWPOLYLINE
  5
3E8
100
AcDbEntity
  8
RACCORDO
100
AcDbPolyline
 62
250
  6
CONTINUOUS
 90
16
 70
0
 10
-44.7445789347
 20
12.1826044508
 10
-44.7466253514
 20
12.1103503196
 10
-44.7514620896
 20
12.0345555051
 10
-44.7590891491
 20
11.9551611368
 10
-44.7698386378
 20
11.8722448264
 10
-44.7833784478
 20
11.7856482903
 10
-44.7987122562
 20
11.6949652838
 10
-44.8161545933
 20
11.6002068517
 10
-44.8353909287
 20
11.501347284
 10
-44.8544813479
 20
11.3979364734
 10
-44.8738708138
 20
11.2893618913
 10
-44.8931143635
 20
11.1763444713
 10
-44.9089371938
 20
11.0605354012
 10
-44.9202477035
 20
10.9426480136
 10
-44.9281374938
 20
10.8223903477
 10
-44.9326065647
 20
10.7
  0
LINE
  5
3E9
100
AcDbEntity
  8
RACCORDO
100
AcDbLine
 62
250
  6
CONTINUOUS
 10
-60.4253855402
 20
-19.4416938666
 11
-61.2132957469
 21
-20.2442288083
  0
LINE
  5
3EA
100
AcDbEntity
  8
RACCORDO
100
AcDbLine
 62
250
  6
CONTINUOUS
 10
-61.2132957469
 20
-20.2442288083
 11
-61.9632013029
 21
-21.0077173985
  0
LINE
  5
3EB
100
AcDbEntity
  8
RACCORDO
100
AcDbLine
 62
7
  6
CONTINUOUS
 10
-60.0805583528
 20
-19.4464466094
 11
-62.2901822451
 21
-21.6560705017
  0
LINE
  5
3EC
100
AcDbEntity
  8
DRAFT
100
AcDbLine
 62
7
  6
CONTINUOUS
 10
-44.7445789347
 20
5.8599329936
 11
-43.2184109565
 21
5.9399160682
  0
LINE
  5
3ED
100
AcDbEntity
  8
0
100
AcDbLine
 62
250
  6
CONTINUOUS
 10
-44.9341117434
 20
4.5279328992
 11
-44.7841117434
 21
4.5279328992
  0
LINE
  5
3EE
100
AcDbEntity
  8
0
100
AcDbLine
 62
7
  6
CONTINUOUS
 10
-44.7841117434
 20
4.9
 11
-44.7341117434
 21
4.9
  0
LINE
  5
3EF
100
AcDbEntity
  8
0
100
AcDbLine
 62
7
  6
CONTINUOUS
 10
-44.9341117434
 20
5.0532646229
 11
-44.7841117434
 21
5.0532646229
  0
LINE
  5
3F0
100
AcDbEntity
  8
0
100
AcDbLine
 62
7
  6
CONTINUOUS
 10
-44.9341117434
 20
5.15625
 11
-44.7841117434
 21
5.15625
  0
LINE
  5
3F1
100
AcDbEntity
  8
RACCORDO
100
AcDbLine
 62
7
  6
CONTINUOUS
 10
-62.2901822451
 20
21.6560705017
 11
-60.0805583528
 21
19.4464466094
  0
LINE
  5
3F2
100
AcDbEntity
  8
RACCORDO
100
AcDbLine
 62
250
  6
CONTINUOUS
 10
-61.9632012829
 20
21.0077173972
 11
-60.4253855402
 21
19.4417173837
  0
LWPOLYLINE
  5
3F3
100
AcDbEntity
  8
RACCORDO
100
AcDbPolyline
 62
250
  6
CONTINUOUS
 90
10
 70
0
 10
-44.9341117434
 20
12.2906728002
 10
-44.9312719717
 20
12.2725013235
 10
-44.9228333192
 20
12.2548459203
 10
-44.9090354522
 20
12.2382079562
 10
-44.8902702264
 20
12.223059902
 10
-44.8670705484
 20
12.2098319109
 10
-44.8400952333
 20
12.1988996069
 10
-44.8101103129
 20
12.1905734279
 10
-44.7779672883
 20
12.185089806
 10
-44.7445789347
 20
12.1826044509
  0
LWPOLYLINE
  5
3F4
100
AcDbEntity
  8
RACCORDO
100
AcDbPolyline
 62
250
  6
CONTINUOUS
 90
8
 70
0
 10
-44.9886131191
 20
7.6615818357
 10
-44.9753369946
 20
7.5539076593
 10
-44.963554877
 20
7.4519295878
 10
-44.9533607681
 20
7.354768631
 10
-44.9451510934
 20
7.2619730843
 10
-44.9391229015
 20
7.1733923794
 10
-44.9353900661
 20
7.0891770846
 10
-44.9341117434
 20
7.0093271998
  0
LWPOLYLINE
  5
3F5
100
AcDbEntity
  8
RACCORDO
100
AcDbPolyline
 62
250
  6
CONTINUOUS
 90
4
 70
0
 10
-60.0594849904
 20
-19.3241959542
 10
-60.0272091358
 20
-19.2958558279
 10
-59.9992932952
 20
-19.265315322
 10
-59.9760600207
 20
-19.232922383
  0
LWPOLYLINE
  5
3F6
100
AcDbEntity
  8
RACCORDO
100
AcDbPolyline
 62
250
  6
CONTINUOUS
 90
10
 70
0
 10
-61.6184297587
 20
-20.9843180153
 10
-61.6442264403
 20
-21.0058476623
 10
-61.6746758476
 20
-21.0234488727
 10
-61.7091135663
 20
-21.036540543
 10
-61.7464097207
 20
-21.0443729522
 10
-61.7860850109
 20
-21.0468979841
 10
-61.8283989924
 20
-21.0446263772
 10
-61.8728485522
 20
-21.0375361167
 10
-61.9181204785
 20
-21.0252342692
 10
-61.9632569455
 20
-21.0077183972
  0
LWPOLYLINE
  5
3F7
100
AcDbEntity
  8
RACCORDO
100
AcDbPolyline
 62
250
  6
CONTINUOUS
 90
10
 70
0
 10
-60.0805583528
 20
-19.4464466094
 10
-60.1056806912
 20
-19.4668527439
 10
-60.1351834154
 20
-19.4822697694
 10
-60.1686727494
 20
-19.4924918072
 10
-60.2057018133
 20
-19.4973823491
 10
-60.2457765794
 20
-19.4968760806
 10
-60.2883624619
 20
-19.4909797583
 10
-60.3328914614
 20
-19.4797721195
 10
-60.3787697424
 20
-19.4634028254
 10
-60.4253855403
 20
-19.4420904628
  0
LINE
  5
3F8
100
AcDbEntity
  8
RACCORDO
100
AcDbLine
 62
250
  6
CONTINUOUS
 10
-42.9341117434
 20
8.6
 11
-45.0684171935
 21
8.6
  0
LINE
  5
3F9
100
AcDbEntity
  8
RACCORDO
100
AcDbLine
 62
250
  6
CONTINUOUS
 10
-42.9341117434
 20
10.7
 11
-45.0684171935
 21
10.7
  0
LWPOLYLINE
  5
3FA
100
AcDbEntity
  8
RACCORDO
100
AcDbPolyline
 62
250
  6
CONTINUOUS
 90
10
 70
0
 10
-60.0805583528
 20
19.4464466094
 10
-60.1056807617
 20
19.4668528152
 10
-60.1351835433
 20
19.4822699003
 10
-60.1686729173
 20
19.4924919813
 10
-60.2057020004
 20
19.4973825465
 10
-60.2457767641
 20
19.4968762796
 10
-60.2883626239
 20
19.4909799368
 10
-60.3328915829
 20
19.4797722561
 10
-60.3787698083
 20
19.4634029012
 10
-60.4253855403
 20
19.4420904628
  0
LWPOLYLINE
  5
3FB
100
AcDbEntity
  8
RACCORDO
100
AcDbPolyline
 62
250
  6
CONTINUOUS
 90
10
 70
0
 10
-61.6184297587
 20
20.9843180153
 10
-61.6451149957
 20
21.0067425258
 10
-61.6753771363
 20
21.0241659292
 10
-61.7090818555
 20
21.0365313897
 10
-61.7461829693
 20
21.0441813769
 10
-61.7862149584
 20
21.0470786428
 10
-61.8283555878
 20
21.0446312217
 10
-61.8721015426
 20
21.0368157422
 10
-61.9172149058
 20
21.0243336097
 10
-61.9632569455
 20
21.0077183973
  0
LWPOLYLINE
  5
3FC
100
AcDbEntity
  8
RACCORDO
100
AcDbPolyline
 62
250
  6
CONTINUOUS
 90
4
 70
0
 10
-60.0594849904
 20
19.3241959542
 10
-60.0272091358
 20
19.2958558279
 10
-59.9992932952
 20
19.265315322
 10
-59.9760600207
 20
19.232922383
  0
LWPOLYLINE
  5
3FD
100
AcDbEntity
  8
0
100
AcDbPolyline
 62
7
  6
CONTINUOUS
 90
10
 70
0
 43
0.3500000006
 10
-60.2198271332
 20
44.9081163483
 10
-60.1483959503
 20
44.7652585144
 10
-60.1483959503
 20
44.6938318634
 10
-60.2912537842
 20
44.5509740295
 10
-60.362684967
 20
44.5509740295
 10
-60.434111618
 20
44.6224006805
 10
-60.434111618
 20
44.6938318634
 10
-60.362684967
 20
44.8366896973
 10
-60.2912537842
 20
44.9081163483
 10
-60.2198271332
 20
44.9081163483
  0
LINE
  5
3FE
100
AcDbEntity
  8
DRAFT
100
AcDbLine
 62
7
  6
CONTINUOUS
 10
-44.7445789347
 20
13.4400670064
 11
-43.2184109565
 21
13.3600839318
  0
LWPOLYLINE
  5
3FF
100
AcDbEntity
  8
RACCORDO
100
AcDbPolyline
 62
250
  6
CONTINUOUS
 90
5
 70
0
 10
-60.2247964223
 20
-19.4100673031
 10
-60.178895124
 20
-19.3932197409
 10
-60.135737769
 20
-19.3731418072
 10
-60.0957926942
 20
-19.350051816
 10
-60.0594849904
 20
-19.3241959542
  0
LINE
  5
400
100
AcDbEntity
  8
0
100
AcDbLine
 62
7
  6
CONTINUOUS
 10
-62.2901822451
 20
-21.6560705017
 11
-63.7846162595
 21
-22.2
  0
LINE
  5
401
100
AcDbEntity
  8
RACCORDO
100
AcDbLine
 62
250
  6
CONTINUOUS
 10
-45.4253855402
 20
15.1468253945
 11
-44.9341117434
 21
15.1468253945
  0
LINE
  5
402
100
AcDbEntity
  8
RACCORDO
100
AcDbLine
 62
250
  6
CONTINUOUS
 10
-60.4253855402
 20
17.3051597608
 11
-69.9341117434
 21
17.3594295692
  0
LINE
  5
403
100
AcDbEntity
  8
RACCORDO
100
AcDbLine
 62
250
  6
CONTINUOUS
 10
-60.3694385935
 20
16.0615550106
 11
-69.9341117434
 21
16.119659166
  0
LINE
  5
404
100
AcDbEntity
  8
RACCORDO
100
AcDbLine
 62
250
  6
CONTINUOUS
 10
-45.4253855402
 20
15.1468253945
 11
-59.4428379466
 21
15.3915009364
  0
LINE
  5
405
100
AcDbEntity
  8
RACCORDO
100
AcDbLine
 62
7
  6
CONTINUOUS
 10
-45.4253855402
 20
15.6467492421
 11
-59.4428379466
 21
15.891424784
  0
LWPOLYLINE
  5
406
100
AcDbEntity
  8
RACCORDO
100
AcDbPolyline
 62
250
  6
CONTINUOUS
 90
13
 70
0
 10
-60.4249307716
 20
16.5011604851
 10
-60.3605148396
 20
16.499982671
 10
-60.2973289067
 20
16.4969892532
 10
-60.2364289772
 20
16.4922302598
 10
-60.1788328501
 20
16.4857852261
 10
-60.1255031092
 20
16.4777618658
 10
-60.0773310357
 20
16.4682942702
 10
-60.0351217125
 20
16.4575406679
 10
-59.999580569
 20
16.4456807802
 10
-59.971301592
 20
16.4329128171
 10
-59.950757398
 20
16.4194501653
 10
-59.9382913349
 20
16.4055178213
 10
-59.9341117435
 20
16.3913486316
  0
LWPOLYLINE
  5
407
100
AcDbEntity
  8
RACCORDO
100
AcDbPolyline
 62
250
  6
CONTINUOUS
 90
19
 70
0
 10
-59.4428379466
 20
15.3915009364
 10
-59.494110853
 20
15.3932142868
 10
-59.5466953139
 20
15.3983195729
 10
-59.6005913294
 20
15.4068167949
 10
-59.6560419167
 20
15.4184137638
 10
-59.7128040586
 20
15.4334026685
 10
-59.7701487029
 20
15.4526600756
 10
-59.8282033392
 20
15.4761973559
 10
-59.8868404779
 20
15.5040031386
 10
-59.9449485976
 20
15.5369198786
 10
-60.0027774649
 20
15.5751374893
 10
-60.0600773133
 20
15.6184660573
 10
-60.1149873214
 20
15.6671782971
 10
-60.1676687148
 20
15.7217910119
 10
-60.2179602679
 20
15.7817873985
 10
-60.2635174822
 20
15.8458897613
 10
-60.3035588581
 20
15.9136722016
 10
-60.3388658952
 20
15.985560618
 10
-60.3694385935
 20
16.0615550106
  0
LWPOLYLINE
  5
408
100
AcDbEntity
  8
RACCORDO
100
AcDbPolyline
 62
250
  6
CONTINUOUS
 90
13
 70
0
 10
-60.4253855402
 20
17.3051597608
 10
-60.360926344
 20
17.3018590446
 10
-60.2976917372
 20
17.2934127689
 10
-60.2367398047
 20
17.2799622628
 10
-60.1790904362
 20
17.2617325894
 10
-60.125708261
 20
17.2390287805
 10
-60.0774865064
 20
17.2122307322
 10
-60.0352320521
 20
17.1817868482
 10
-59.9996519282
 20
17.1482065366
 10
-59.9713414859
 20
17.1120516868
 10
-59.9507744343
 20
17.0739272667
 10
-59.938294915
 20
17.0344712003
 10
-59.9341117434
 20
16.9943436938
  0
LINE
  5
409
100
AcDbEntity
  8
0
100
AcDbLine
 62
7
  6
CONTINUOUS
 10
-62.2901822451
 20
21.6560705017
 11
-63.7846162595
 21
22.2
  0
LWPOLYLINE
  5
40A
100
AcDbEntity
  8
RACCORDO
100
AcDbPolyline
 62
250
  6
CONTINUOUS
 90
5
 70
0
 10
-60.2247964223
 20
19.4100673031
 10
-60.178895124
 20
19.3932197409
 10
-60.135737769
 20
19.3731418072
 10
-60.0957926942
 20
19.350051816
 10
-60.0594849904
 20
19.3241959542
  0
LINE
  5
40B
100
AcDbEntity
  8
RACCORDO
100
AcDbLine
 62
7
  6
CONTINUOUS
 10
-65.7376022247
 20
21.1965699136
 11
-61.9632569455
 21
21.1306884717
  0
LINE
  5
40C
100
AcDbEntity
  8
RACCORDO
100
AcDbLine
 62
250
  6
CONTINUOUS
 10
-65.737601974
 20
21.0738952193
 11
-61.9632012829
 21
21.0077173972
  0
LWPOLYLINE
  5
40D
100
AcDbEntity
  8
RACCORDO
100
AcDbPolyline
 62
250
  6
CONTINUOUS
 90
5
 70
0
 10
-60.4253855402
 20
19.4420904629
 10
-60.3737598365
 20
19.4395901339
 10
-60.3227573751
 20
19.4333722406
 10
-60.2729262727
 20
19.4234983707
 10
-60.2247964223
 20
19.4100673031
  0
LWPOLYLINE
  5
40E
100
AcDbEntity
  8
0
100
AcDbPolyline
 62
250
  6
CONTINUOUS
 90
4
 70
0
 10
-78.9921248131
 20
21.0183133038
 10
-78.9894503372
 20
21.0181628131
 10
-78.9814522607
 20
21.0177887456
 10
-78.5013150455
 20
20.9972959167
  0
LINE
  5
40F
100
AcDbEntity
  8
0
100
AcDbLine
 62
250
  6
CONTINUOUS
 10
-78.0279249884
 20
21.4755923698
 11
-69.9341117434
 21
21.8997711479
  0
LINE
  5
410
100
AcDbEntity
  8
0
100
AcDbLine
 62
7
  6
CONTINUOUS
 10
-78.0453667633
 20
21.9749071372
 11
-69.9341117434
 21
22.4
  0
LINE
  5
411
100
AcDbEntity
  8
0
100
AcDbLine
 62
7
  6
CONTINUOUS
 10
-63.7846162595
 20
22.2
 11
-64.3341117434
 21
22.2
  0
LINE
  5
412
100
AcDbEntity
  8
0
100
AcDbLine
 62
7
  6
CONTINUOUS
 10
-65.9341117434
 20
22.6298666026
 11
-67.2553317194
 21
22.6398908175
  0
LINE
  5
413
100
AcDbEntity
  8
0
100
AcDbLine
 62
7
  6
CONTINUOUS
 10
-67.2553317194
 20
22.6398908175
 11
-68.5886955348
 21
22.651011599
  0
LINE
  5
414
100
AcDbEntity
  8
0
100
AcDbLine
 62
7
  6
CONTINUOUS
 10
-68.5886955348
 20
22.651011599
 11
-69.9341117434
 21
22.663166622
  0
LINE
  5
415
100
AcDbEntity
  8
0
100
AcDbLine
 62
7
  6
CONTINUOUS
 10
-69.9341117434
 20
23.5
 11
-65.9341117434
 21
23.4301797403
  0
LINE
  5
416
100
AcDbEntity
  8
0
100
AcDbLine
 62
250
  6
CONTINUOUS
 10
-69.9341117434
 20
23.3333596575
 11
-65.9341117434
 21
23.2631073618
  0
LINE
  5
417
100
AcDbEntity
  8
0
100
AcDbLine
 62
7
  6
CONTINUOUS
 10
-67.698440396
 20
23.136227616
 11
-69.9341117434
 21
23.1799085618
  0
LINE
  5
418
100
AcDbEntity
  8
0
100
AcDbLine
 62
7
  6
CONTINUOUS
 10
-65.9341117434
 20
23.0998904748
 11
-67.698440396
 21
23.136227616
  0
LWPOLYLINE
  5
419
100
AcDbEntity
  8
0
100
AcDbPolyline
 62
7
  6
CONTINUOUS
 90
7
 70
0
 43
0.3500000006
 10
-57.2912528687
 20
36.4081182861
 10
-58.7912533264
 20
36.4081182861
 10
-57.2912528687
 20
38.5509721985
 10
-57.2912528687
 20
38.9795457001
 10
-57.7198263702
 20
39.4081192017
 10
-58.3626843567
 20
39.4081192017
 10
-58.7912533264
 20
38.7652612152
  0
LWPOLYLINE
  5
41A
100
AcDbEntity
  8
0
100
AcDbPolyline
 62
7
  6
CONTINUOUS
 90
6
 70
0
 43
0.3500000006
 10
-65.3626819611
 20
44.4081161957
 10
-64.2912550049
 20
44.4081161957
 10
-64.07697052
 20
44.6224006805
 10
-64.07697052
 20
45.6938321686
 10
-64.5055394897
 20
46.1224011383
 10
-64.9341129913
 20
46.1224011383
  0
LWPOLYLINE
  5
41B
100
AcDbEntity
  8
0
100
AcDbPolyline
 62
7
  6
CONTINUOUS
 90
8
 70
0
 43
0.3500000006
 10
-59.1483956451
 20
44.4081161957
 10
-58.2912531738
 20
44.4081161957
 10
-57.8626842041
 20
44.8366896973
 10
-57.8626842041
 20
45.6938321686
 10
-58.2912531738
 20
46.1224011383
 10
-59.1483956451
 20
46.1224011383
 10
-59.1483956451
 20
47.4081171112
 10
-57.8626842041
 20
47.4081171112
  0
ARC
  5
41C
100
AcDbEntity
  8
0
100
AcDbCircle
 62
7
  6
CONTINUOUS
 10
-11.25
 20
0.0
 40
28.0
100
AcDbArc
 50
305.9627651514
 51
306.8614108051
  0
ARC
  5
41D
100
AcDbEntity
  8
0
100
AcDbCircle
 62
7
  6
CONTINUOUS
 10
-11.25
 20
0.0
 40
28.0
100
AcDbArc
 50
303.5572123136
 51
304.1210936517
  0
ARC
  5
41E
100
AcDbEntity
  8
0
100
AcDbCircle
 62
7
  6
CONTINUOUS
 10
11.25
 20
0.0
 40
28.0
100
AcDbArc
 50
235.8789063483
 51
236.4427876864
  0
ARC
  5
41F
100
AcDbEntity
  8
0
100
AcDbCircle
 62
7
  6
CONTINUOUS
 10
11.25
 20
0.0
 40
28.0
100
AcDbArc
 50
233.1385891949
 51
234.0372348486
  0
ARC
  5
420
100
AcDbEntity
  8
0
100
AcDbCircle
 62
7
  6
CONTINUOUS
 10
11.25
 20
0.0
 40
28.0
100
AcDbArc
 50
125.9627651514
 51
126.8614108051
  0
ARC
  5
421
100
AcDbEntity
  8
0
100
AcDbCircle
 62
7
  6
CONTINUOUS
 10
11.25
 20
0.0
 40
28.0
100
AcDbArc
 50
123.5572123136
 51
124.1210936517
  0
ARC
  5
422
100
AcDbEntity
  8
0
100
AcDbCircle
 62
7
  6
CONTINUOUS
 10
-11.25
 20
0.0
 40
28.0
100
AcDbArc
 50
55.8789063483
 51
56.4427876864
  0
ARC
  5
423
100
AcDbEntity
  8
0
100
AcDbCircle
 62
7
  6
CONTINUOUS
 10
-11.25
 20
0.0
 40
28.0
100
AcDbArc
 50
53.1385891949
 51
54.0372348486
  0
ARC
  5
424
100
AcDbEntity
  8
RACCORDO
100
AcDbCircle
 62
7
  6
CONTINUOUS
 10
0.0
 20
-5.95
 40
2.7
100
AcDbArc
 50
0.0
 51
180.0
  0
ARC
  5
425
100
AcDbEntity
  8
0
100
AcDbCircle
 62
7
  6
CONTINUOUS
 10
1.8567206159
 20
-5.95
 40
1.8
100
AcDbArc
 50
168.4197916511
 51
191.5809951195
  0
ARC
  5
426
100
AcDbEntity
  8
0
100
AcDbCircle
 62
7
  6
CONTINUOUS
 10
-1.8567206159
 20
-5.95
 40
1.8
100
AcDbArc
 50
348.4197917147
 51
11.5809950494
  0
ARC
  5
427
100
AcDbEntity
  8
0
100
AcDbCircle
 62
7
  6
CONTINUOUS
 10
-7.3567206159
 20
5.95
 40
1.8
100
AcDbArc
 50
348.4197916511
 51
11.5809951195
  0
ARC
  5
428
100
AcDbEntity
  8
0
100
AcDbCircle
 62
7
  6
CONTINUOUS
 10
-3.6432793841
 20
5.95
 40
1.8
100
AcDbArc
 50
168.4197917147
 51
191.5809950494
  0
ARC
  5
429
100
AcDbEntity
  8
0
100
AcDbCircle
 62
7
  6
CONTINUOUS
 10
3.6432793841
 20
5.95
 40
1.8
100
AcDbArc
 50
348.4197916511
 51
11.5809951195
  0
ARC
  5
42A
100
AcDbEntity
  8
0
100
AcDbCircle
 62
7
  6
CONTINUOUS
 10
7.3567206159
 20
5.95
 40
1.8
100
AcDbArc
 50
168.4197917147
 51
191.5809950494
  0
ARC
  5
42B
100
AcDbEntity
  8
0
100
AcDbCircle
 62
7
  6
CONTINUOUS
 10
4.95
 20
23.1
 40
0.5
100
AcDbArc
 50
170.803718421
 51
299.112422776
  0
ARC
  5
42C
100
AcDbEntity
  8
0
100
AcDbCircle
 62
7
  6
CONTINUOUS
 10
-4.95
 20
23.1
 40
0.5
100
AcDbArc
 50
240.887577224
 51
9.196281579
  0
ARC
  5
42D
100
AcDbEntity
  8
0
100
AcDbCircle
 62
7
  6
CONTINUOUS
 10
4.95
 20
-23.1
 40
0.5
100
AcDbArc
 50
60.887577224
 51
189.196281579
  0
ARC
  5
42E
100
AcDbEntity
  8
0
100
AcDbCircle
 62
7
  6
CONTINUOUS
 10
-4.95
 20
-23.1
 40
0.5
100
AcDbArc
 50
350.803718421
 51
119.112422776
  0
ARC
  5
42F
100
AcDbEntity
  8
0
100
AcDbCircle
 62
7
  6
CONTINUOUS
 10
-77.9930308071
 20
-20.9762776025
 40
1.0
100
AcDbArc
 50
182.4092313014
 51
267.0
  0
ARC
  5
430
100
AcDbEntity
  8
RACCORDO
100
AcDbCircle
 62
7
  6
CONTINUOUS
 10
-60.4341117434
 20
-19.0928932188
 40
0.5
100
AcDbArc
 50
315.0
 51
358.5534903769
  0
ARC
  5
431
100
AcDbEntity
  8
RACCORDO
100
AcDbCircle
 62
7
  6
CONTINUOUS
 10
-61.9719831487
 20
-20.6307646241
 40
0.5
100
AcDbArc
 50
271.0
 51
315.0
  0
ARC
  5
432
100
AcDbEntity
  8
RACCORDO
100
AcDbCircle
 62
7
  6
CONTINUOUS
 10
-59.4341117434
 20
-16.3913486316
 40
0.5
100
AcDbArc
 50
91.0
 51
180.0
  0
ARC
  5
433
100
AcDbEntity
  8
RACCORDO
100
AcDbCircle
 62
7
  6
CONTINUOUS
 10
-45.4341117434
 20
-15.1468253945
 40
0.5
100
AcDbArc
 50
271.0
 51
360.0
  0
ARC
  5
434
100
AcDbEntity
  8
RACCORDO
100
AcDbCircle
 62
7
  6
CONTINUOUS
 10
-43.2341117434
 20
-6.2395049286
 40
0.3
100
AcDbArc
 50
0.0
 51
87.0
  0
ARC
  5
435
100
AcDbEntity
  8
RACCORDO
100
AcDbCircle
 62
7
  6
CONTINUOUS
 10
-43.2341117434
 20
-13.0279784419
 40
0.3
100
AcDbArc
 50
273.0
 51
360.0
  0
ARC
  5
436
100
AcDbEntity
  8
RACCORDO
100
AcDbCircle
 62
7
  6
CONTINUOUS
 10
-44.7341117434
 20
-5.6602070867
 40
0.2
100
AcDbArc
 50
180.0
 51
267.0
  0
ARC
  5
437
100
AcDbEntity
  8
RACCORDO
100
AcDbCircle
 62
7
  6
CONTINUOUS
 10
-65.7341117434
 20
-21.3965394526
 40
0.2
100
AcDbArc
 50
91.0
 51
180.0
  0
ARC
  5
438
100
AcDbEntity
  8
0
100
AcDbCircle
 62
7
  6
CONTINUOUS
 10
-77.9930308071
 20
20.9762776025
 40
1.0
100
AcDbArc
 50
93.0
 51
177.5907686986
  0
ARC
  5
439
100
AcDbEntity
  8
RACCORDO
100
AcDbCircle
 62
7
  6
CONTINUOUS
 10
-61.9719831487
 20
20.6307646241
 40
0.5
100
AcDbArc
 50
45.0
 51
89.0
  0
ARC
  5
43A
100
AcDbEntity
  8
RACCORDO
100
AcDbCircle
 62
7
  6
CONTINUOUS
 10
-60.4341117434
 20
19.0928932188
 40
0.5
100
AcDbArc
 50
1.4475397873
 51
45.0
  0
ARC
  5
43B
100
AcDbEntity
  8
RACCORDO
100
AcDbCircle
 62
7
  6
CONTINUOUS
 10
-59.4341117434
 20
16.3913486316
 40
0.5
100
AcDbArc
 50
180.0
 51
269.0
  0
ARC
  5
43C
100
AcDbEntity
  8
RACCORDO
100
AcDbCircle
 62
7
  6
CONTINUOUS
 10
-45.4341117434
 20
15.1468253945
 40
0.5
100
AcDbArc
 50
0.0
 51
89.0
  0
ARC
  5
43D
100
AcDbEntity
  8
RACCORDO
100
AcDbCircle
 62
7
  6
CONTINUOUS
 10
-43.2341117434
 20
6.2395049286
 40
0.3
100
AcDbArc
 50
273.0
 51
360.0
  0
ARC
  5
43E
100
AcDbEntity
  8
RACCORDO
100
AcDbCircle
 62
7
  6
CONTINUOUS
 10
-43.2341117434
 20
13.0604950714
 40
0.3
100
AcDbArc
 50
0.0
 51
87.0
  0
ARC
  5
43F
100
AcDbEntity
  8
RACCORDO
100
AcDbCircle
 62
7
  6
CONTINUOUS
 10
-44.7341117434
 20
5.6602070867
 40
0.2
100
AcDbArc
 50
93.0
 51
180.0
  0
ARC
  5
440
100
AcDbEntity
  8
RACCORDO
100
AcDbCircle
 62
7
  6
CONTINUOUS
 10
-44.7341117434
 20
13.6397929133
 40
0.2
100
AcDbArc
 50
180.0
 51
267.0
  0
ARC
  5
441
100
AcDbEntity
  8
RACCORDO
100
AcDbCircle
 62
7
  6
CONTINUOUS
 10
-65.7341117434
 20
21.3965394526
 40
0.2
100
AcDbArc
 50
180.0
 51
269.0
  0
ARC
  5
442
100
AcDbEntity
  8
RACCORDO
100
AcDbCircle
 62
7
  6
CONTINUOUS
 10
420.5658882566
 20
0.0
 40
500.0
100
AcDbArc
 50
178.7845090651
 51
179.85094137
  0
ARC
  5
443
100
AcDbEntity
  8
RACCORDO
100
AcDbCircle
 62
7
  6
CONTINUOUS
 10
420.5658882566
 20
0.0
 40
500.0
100
AcDbArc
 50
180.6822452358
 51
180.8025340381
  0
ARC
  5
444
100
AcDbEntity
  8
RACCORDO
100
AcDbCircle
 62
7
  6
CONTINUOUS
 10
420.5658882566
 20
0.0
 40
500.0
100
AcDbArc
 50
180.8037198237
 51
181.0262650545
  0
ARC
  5
445
100
AcDbEntity
  8
0
100
AcDbCircle
 62
7
  6
CONTINUOUS
 10
420.5658882566
 20
0.0
 40
500.0
100
AcDbArc
 50
177.5907686986
 51
182.4092313014
  0
ELLIPSE
  5
446
100
AcDbEntity
  8
0
100
AcDbEllipse
 62
7
  6
CONTINUOUS
 10
10.649923836
 20
-21.899313827
 30
0.0
 11
-0.1582391023
 21
0.4751033573
 31
0.0
 40
0.9984778551
 41
-3.4626430041
 42
-1.8927600658
  0
ELLIPSE
  5
447
100
AcDbEntity
  8
0
100
AcDbEllipse
 62
7
  6
CONTINUOUS
 10
10.649923836
 20
21.899313827
 30
0.0
 11
0.1582391023
 21
0.4751033573
 31
0.0
 40
0.9984778551
 41
-1.2488325878
 42
0.3210503505
  0
ELLIPSE
  5
448
100
AcDbEntity
  8
0
100
AcDbEllipse
 62
7
  6
CONTINUOUS
 10
-10.649923836
 20
-21.899313827
 30
0.0
 11
0.1582391023
 21
0.4751033573
 31
0.0
 40
0.9984778551
 41
-4.3904252414
 42
-2.8205423031
  0
ELLIPSE
  5
449
100
AcDbEntity
  8
0
100
AcDbEllipse
 62
7
  6
CONTINUOUS
 10
-10.649923836
 20
21.899313827
 30
0.0
 11
-0.1582391023
 21
0.4751033573
 31
0.0
 40
0.9984778551
 41
-0.3210503505
 42
1.2488325878
  0
ENDSEC
  0
SECTION
  2
OBJECTS
  0
DICTIONARY
  5
C
100
AcDbDictionary
280
0
281
1
  3
ACAD_GROUP
350
D
  3
ACAD_MLINESTYLE
350
17
  3
ACAD_LAYOUT
350
1A
  3
ACAD_PLOTSETTINGS
350
19
  3
ACAD_PLOTSTYLENAME
350
E
  0
DICTIONARY
  5
D
102
{ACAD_REACTORS
330
C
102
}
100
AcDbDictionary
280
0
281
1
  0
ACDBDICTIONARYWDFLT
  5
E
102
{ACAD_REACTORS
330
C
102
}
100
AcDbDictionary
281
1
  3
Normal
350
F
100
AcDbDictionaryWithDefault
340
F
  0
DICTIONARY
  5
17
102
{ACAD_REACTORS
330
C
102
}
100
AcDbDictionary
280
0
281
1
  3
Standard
350
18
  0
DICTIONARY
  5
19
102
{ACAD_REACTORS
330
C
102
}
100
AcDbDictionary
281
1
  0
DICTIONARY
  5
1A
102
{ACAD_REACTORS
330
C
102
}
100
AcDbDictionary
281
1
  3
Model
350
44A
  3
Layout1
350
44B
  0
ACDBPLACEHOLDER
  5
F
102
{ACAD_REACTORS
330
E
102
}
  0
MLINESTYLE
  5
18
102
{ACAD_REACTORS
330
17
102
}
100
AcDbMlineStyle
  2
STANDARD
 70
0
  3

 62
256
 51
90.0
 52
90.0
 71
2
 49
0.5
 62
256
  6
BYLAYER
 49
-0.5
 62
256
  6
BYLAYER
  0
LAYOUT
  5
44A
102
{ACAD_REACTORS
330
1A
102
}
100
AcDbPlotSettings
  1

  2
none_device
  4
ISO_A4_(297.00_x_210.00_MM)
  6

 40
0.0
 41
0.0
 42
0.0
 43
0.0
 44
297.0
 45
210.0
 46
0.0
 47
0.0
 48
0.0
 49
0.0
140
0.0
141
0.0
142
1.0
143
1.0
 70
1024
 72
1
 73
0
 74
0
  7

 75
0
147
1.0
148
0.0
149
0.0
100
AcDbLayout
  1
Model
 70
0
 71
0
 10
0.0
 20
0.0
 11
297.0
 21
210.0
 12
0.0
 22
0.0
 32
0.0
 14
0.0
 24
0.0
 34
0.0
 15
0.0
 25
0.0
 35
0.0
146
0.0
 13
0.0
 23
0.0
 33
0.0
 16
1.0
 26
0.0
 36
0.0
 17
0.0
 27
1.0
 37
0.0
 76
0
330
218
345
0
346
0
  0
LAYOUT
  5
44B
102
{ACAD_REACTORS
330
1A
102
}
100
AcDbPlotSettings
  1

  2
none_device
  4
ISO_A4_(297.00_x_210.00_MM)
  6

 40
0.0
 41
0.0
 42
0.0
 43
0.0
 44
297.0
 45
210.0
 46
0.0
 47
0.0
 48
0.0
 49
0.0
140
0.0
141
0.0
142
1.0
143
1.0
 70
0
 72
1
 73
0
 74
0
  7

 75
0
147
1.0
148
0.0
149
0.0
100
AcDbLayout
  1
Layout1
 70
0
 71
1
 10
0.0
 20
0.0
 11
297.0
 21
210.0
 12
0.0
 22
0.0
 32
0.0
 14
0.0
 24
0.0
 34
0.0
 15
0.0
 25
0.0
 35
0.0
146
0.0
 13
0.0
 23
0.0
 33
0.0
 16
1.0
 26
0.0
 36
0.0
 17
0.0
 27
1.0
 37
0.0
 76
0
330
219
345
0
346
0
  0
ENDSEC
  0
EOF
