0
SECTION
2
HEADER
9
$ACADVER
1
AC1015
9
$DWGCODEPAGE
3
ANSI_1252
9
$EXTMAX
10
297.0000000000
20
210.0000000000
30
0.0000000000
9
$EXTMIN
10
0.0000000000
20
0.0000000000
30
0.0000000000
9
$LIMMIN
10
0.0000000000
20
0.0000000000
9
$LIMMAX
10
297.0000000000
20
210.0000000000
9
$VIEWCTR
10
148.5000000000
20
105.0000000000
9
$VIEWSIZE
40
210.0000000000
9
$CLAYER
8
0
9
$LTSCALE
40
16.3350000000
9
$CELTYPE
6
BYLAYER
9
$DIMSCALE
40
1
9
$DIMASZ
40
3.0000000000
9
$DIMEXO
40
1.8562500000
9
$DIMDLI
40
11.2860000000
9
$DIMEXE
40
5.3460000000
9
$DIMCEN
40
2.6730000000
9
$DIMLFAC
40
1.0000000000
9
$DIMBLK
1
_FILLED
9
$DIMTXT
40
3.0000000000
9
$DIMTOL
70
1
9
$DIMLIM
70
0
9
$DIMTFAC
40
1.0000000000
9
$DIMTP
40
0.0100000000
9
$DIMTM
40
0.0100000000
9
$PDMODE
70
3
9
$PDSIZE
40
3.0000000000
9
$HANDSEED
5
41E
9
$MEASUREMENT
70
1
9
$INSUNITS
70
4
0
ENDSEC
0
SECTION
2
CLASSES
0
CLASS
1
ACDBDICTIONARYWDFLT
2
AcDbDictionaryWithDefault
3
AutoCAD 2000
90
0
280
0
281
0
0
CLASS
1
ACDBPLACEHOLDER
2
AcDbPlaceHolder
3
AutoCAD 2000
90
0
280
0
281
0
0
CLASS
1
LAYOUT
2
AcDbLayout
3
AutoCAD 2000
90
0
280
0
281
0
0
ENDSEC
0
SECTION
2
TABLES
0
TABLE
2
VPORT
5
8
100
AcDbSymbolTable
70
2
0
VPORT
5
1F4
100
AcDbSymbolTableRecord
100
AcDbViewportTableRecord
2
*ACTIVE
70
0
10
0.0
20
0.0
11
1.0
21
1.0
12
148.5000000000
22
105.0000000000
13
0.0
23
0.0
14
1.0
24
1.0
15
0.0
25
0.0
16
0.0
26
0.0
36
1.0
17
0.0
27
0.0
37
0.0
40
210.0000000000
41
1.4142857143
42
50.0
43
0.0
44
0.0
50
0.0
51
0.0
71
0
72
100
73
1
74
1
75
0
76
0
77
0
78
0
0
ENDTAB
0
TABLE
2
LTYPE
5
5
100
AcDbSymbolTable
70
6
0
LTYPE
5
14
100
AcDbSymbolTableRecord
100
AcDbLinetypeTableRecord
2
BYBLOCK
70
0
3

72
65
73
0
40
0.0
0
LTYPE
5
15
100
AcDbSymbolTableRecord
100
AcDbLinetypeTableRecord
2
BYLAYER
70
0
3

72
65
73
0
40
0.0
0
LTYPE
5
16
100
AcDbSymbolTableRecord
100
AcDbLinetypeTableRecord
2
CONTINUOUS
70
64
3
Solid line
72
65
73
0
40
0
0
LTYPE
5
1F5
100
AcDbSymbolTableRecord
100
AcDbLinetypeTableRecord
2
CENTER
70
64
3
____ _ ____ _ ____ _ ____ _ ____ _ ____ _ ____
72
65
73
4
40
0.6
49
0.375
74
0
49
-0.075
74
0
49
0.075
74
0
49
-0.075
74
0
0
LTYPE
5
1F6
100
AcDbSymbolTableRecord
100
AcDbLinetypeTableRecord
2
HIDDEN
70
64
3
- - - - - - - - - - - - - - - - - - - -
72
65
73
2
40
0.2
49
0.1
74
0
49
-0.1
74
0
0
LTYPE
5
1F7
100
AcDbSymbolTableRecord
100
AcDbLinetypeTableRecord
2
PHANTOM
70
64
3
_____ _ _ _____ _ _ _____ _ _ _____
72
65
73
6
40
0.8
49
0.45
74
0
49
-0.05
74
0
49
0.1
74
0
49
-0.05
74
0
49
0.1
74
0
49
-0.05
74
0
0
LTYPE
5
1F8
100
AcDbSymbolTableRecord
100
AcDbLinetypeTableRecord
2
DOT
70
64
3
. . . . . . . . . . . . . . . . . . . .
72
65
73
2
40
0.2
49
0.1
74
0
49
-0.1
74
0
0
LTYPE
5
1F9
100
AcDbSymbolTableRecord
100
AcDbLinetypeTableRecord
2
DASHED
70
64
3
- - - - - - - - - - - - - - - - - - - -
72
65
73
2
40
0.2
49
0.1
74
0
49
-0.1
74
0
0
ENDTAB
0
TABLE
2
LAYER
5
2
100
AcDbSymbolTable
70
36
0
LAYER
5
10
100
AcDbSymbolTableRecord
100
AcDbLayerTableRecord
2
0
70
0
62
7
6
CONTINUOUS
370
-3
390
F
0
LAYER
5
1FA
100
AcDbSymbolTableRecord
100
AcDbLayerTableRecord
2
DEFAULT_1
70
0
62
7
6
CENTER
370
-3
390
F
0
LAYER
5
1FB
100
AcDbSymbolTableRecord
100
AcDbLayerTableRecord
2
DEFAULT_2
70
0
62
8
6
HIDDEN
370
-3
390
F
0
LAYER
5
1FC
100
AcDbSymbolTableRecord
100
AcDbLayerTableRecord
2
DEFAULT_3
70
0
62
7
6
PHANTOM
370
-3
390
F
0
LAYER
5
1FD
100
AcDbSymbolTableRecord
100
AcDbLayerTableRecord
2
_BLACK_HOLE
70
0
62
7
6
CONTINUOUS
370
-3
390
F
0
LAYER
5
1FE
100
AcDbSymbolTableRecord
100
AcDbLayerTableRecord
2
ASSI
70
0
62
7
6
CONTINUOUS
370
-3
390
F
0
LAYER
5
1FF
100
AcDbSymbolTableRecord
100
AcDbLayerTableRecord
2
COORDINATE
70
0
62
7
6
CONTINUOUS
370
-3
390
F
0
LAYER
5
200
100
AcDbSymbolTableRecord
100
AcDbLayerTableRecord
2
COORD_ORIGINE
70
0
62
7
6
CONTINUOUS
370
-3
390
F
0
LAYER
5
201
100
AcDbSymbolTableRecord
100
AcDbLayerTableRecord
2
COSMETICHE
70
0
62
7
6
CONTINUOUS
370
-3
390
F
0
LAYER
5
202
100
AcDbSymbolTableRecord
100
AcDbLayerTableRecord
2
CURVE
70
0
62
7
6
CONTINUOUS
370
-3
390
F
0
LAYER
5
203
100
AcDbSymbolTableRecord
100
AcDbLayerTableRecord
2
DRAFT
70
0
62
7
6
CONTINUOUS
370
-3
390
F
0
LAYER
5
204
100
AcDbSymbolTableRecord
100
AcDbLayerTableRecord
2
INTF_1
70
0
62
7
6
CONTINUOUS
370
-3
390
F
0
LAYER
5
205
100
AcDbSymbolTableRecord
100
AcDbLayerTableRecord
2
NOTE
70
0
62
7
6
CONTINUOUS
370
-3
390
F
0
LAYER
5
206
100
AcDbSymbolTableRecord
100
AcDbLayerTableRecord
2
PIANI
70
0
62
7
6
CONTINUOUS
370
-3
390
F
0
LAYER
5
207
100
AcDbSymbolTableRecord
100
AcDbLayerTableRecord
2
PIANI_ORIGINE
70
0
62
7
6
CONTINUOUS
370
-3
390
F
0
LAYER
5
208
100
AcDbSymbolTableRecord
100
AcDbLayerTableRecord
2
PUNTI
70
0
62
7
6
CONTINUOUS
370
-3
390
F
0
LAYER
5
209
100
AcDbSymbolTableRecord
100
AcDbLayerTableRecord
2
RACCORDO
70
0
62
7
6
CONTINUOUS
370
-3
390
F
0
LAYER
5
20A
100
AcDbSymbolTableRecord
100
AcDbLayerTableRecord
2
RGB____0____0____0__
70
0
62
7
6
CONTINUOUS
370
-3
390
F
0
LAYER
5
20B
100
AcDbSymbolTableRecord
100
AcDbLayerTableRecord
2
SMUSSO
70
0
62
7
6
CONTINUOUS
370
-3
390
F
0
LAYER
5
20C
100
AcDbSymbolTableRecord
100
AcDbLayerTableRecord
2
SNAPLINE
70
0
62
7
6
CONTINUOUS
370
-3
390
F
0
LAYER
5
20D
100
AcDbSymbolTableRecord
100
AcDbLayerTableRecord
2
SUPERFICI
70
0
62
7
6
CONTINUOUS
370
-3
390
F
0
LAYER
5
20E
100
AcDbSymbolTableRecord
100
AcDbLayerTableRecord
2
TRASH
70
0
62
7
6
CONTINUOUS
370
-3
390
F
0
LAYER
5
20F
100
AcDbSymbolTableRecord
100
AcDbLayerTableRecord
2
XSEC_DATUMS
70
0
62
7
6
CONTINUOUS
370
-3
390
F
0
ENDTAB
0
TABLE
2
STYLE
5
3
100
AcDbSymbolTable
70
1
0
STYLE
5
11
100
AcDbSymbolTableRecord
100
AcDbTextStyleTableRecord
2
STANDARD
70
0
40
0.0
41
0.8000000000
50
0.0
71
0
42
0.2
3
txt
4

0
ENDTAB
0
TABLE
2
VIEW
5
6
100
AcDbSymbolTable
70
0
0
ENDTAB
0
TABLE
2
UCS
5
7
100
AcDbSymbolTable
70
0
0
ENDTAB
0
TABLE
2
APPID
5
9
100
AcDbSymbolTable
70
1
0
APPID
5
210
100
AcDbSymbolTableRecord
100
AcDbRegAppTableRecord
2
ACAD
70
0
0
ENDTAB
0
TABLE
2
BLOCK_RECORD
5
1
100
AcDbSymbolTable
70
0
0
BLOCK_RECORD
5
1F
100
AcDbSymbolTableRecord
100
AcDbBlockTableRecord
2
*MODEL_SPACE
0
BLOCK_RECORD
5
1B
100
AcDbSymbolTableRecord
100
AcDbBlockTableRecord
2
*PAPER_SPACE
0
BLOCK_RECORD
5
211
100
AcDbSymbolTableRecord
100
AcDbBlockTableRecord
2
_FILLED
0
BLOCK_RECORD
5
212
100
AcDbSymbolTableRecord
100
AcDbBlockTableRecord
2
*D0
0
BLOCK_RECORD
5
213
100
AcDbSymbolTableRecord
100
AcDbBlockTableRecord
2
*D1
0
BLOCK_RECORD
5
214
100
AcDbSymbolTableRecord
100
AcDbBlockTableRecord
2
*D2
0
BLOCK_RECORD
5
215
100
AcDbSymbolTableRecord
100
AcDbBlockTableRecord
2
*D3
0
ENDTAB
0
TABLE
2
DIMSTYLE
5
A
100
AcDbSymbolTable
70
1
100
AcDbDimStyleTable
71
0
0
DIMSTYLE
105
216
100
AcDbSymbolTableRecord
100
AcDbDimStyleTableRecord
2
STANDARD
70
0
3

4

40
1.0
41
3.0000000000
42
0.0625
43
0.38
44
0.18
45
0.0
46
0.0
47
0.0100000000
48
0.0100000000
140
3.0000000000
141
0.09
142
0.0
143
25.4
144
1.0000000000
145
0.0
146
1.0000000000
147
0.09
71
1
72
0
73
0
74
0
75
0
76
0
77
1
78
8
170
0
171
2
172
0
173
0
174
0
175
0
176
0
177
0
178
0
270
2
271
2
272
2
273
2
274
2
275
0
280
0
281
0
282
0
283
1
284
8
285
0
286
0
287
3
288
0
340
11
341
211
342
211
343
211
344
211
0
DIMSTYLE
105
217
100
AcDbSymbolTableRecord
100
AcDbDimStyleTableRecord
2
DIMSTYLE_1
70
0
3

4

40
1.0
41
3.0000000000
42
0.0625
43
0.38
44
0.18
45
0.0
46
0.0
47
0.0000000000
48
0.0000000000
140
3.0000000000
141
0.09
142
0.0
143
25.4
144
1.0000000000
145
0.0
146
1.0000000000
147
0.09
71
0
72
0
73
0
74
0
75
0
76
0
77
1
78
8
170
0
171
2
172
0
173
0
174
0
175
0
176
0
177
0
178
0
270
2
271
2
272
2
273
2
274
2
275
0
280
0
281
0
282
0
283
1
284
8
285
0
286
0
287
3
288
0
340
11
341
211
342
211
343
211
344
211
0
ENDTAB
0
ENDSEC
0
SECTION
2
BLOCKS
0
BLOCK
5
20
100
AcDbEntity
8
0
100
AcDbBlockBegin
2
*MODEL_SPACE
70
0
10
0.0
20
0.0
30
0.0
3
*MODEL_SPACE
1

0
ENDBLK
5
21
100
AcDbEntity
8
0
100
AcDbBlockEnd
0
BLOCK
5
1C
100
AcDbEntity
8
0
100
AcDbBlockBegin
2
*PAPER_SPACE
70
0
10
0.0
20
0.0
30
0.0
3
*PAPER_SPACE
1

0
ENDBLK
5
1D
100
AcDbEntity
8
0
100
AcDbBlockEnd
0
BLOCK
5
218
100
AcDbEntity
8
0
100
AcDbBlockBegin
62
2
6
CONTINUOUS
2
*D0
70
65
10
0.0000000000
20
0.0000000000
3
*D0
1

0
TEXT
5
219
100
AcDbEntity
8
0
100
AcDbText
62
2
6
CONTINUOUS
10
-4.4544642857
20
36.2437500000
7
STANDARD
40
3.0000000000
1
67,3
41
0.7142857143
72
0
100
AcDbText
0
LINE
5
21A
100
AcDbEntity
8
0
100
AcDbLine
62
2
6
CONTINUOUS
10
-33.8187500000
20
26.3935211479
11
-33.8187500000
21
36.9937500000
0
LINE
5
21B
100
AcDbEntity
8
0
100
AcDbLine
62
2
6
CONTINUOUS
10
33.4812500000
20
26.3935211479
11
33.4812500000
21
36.9937500000
0
LINE
5
21C
100
AcDbEntity
8
0
100
AcDbLine
62
2
6
CONTINUOUS
10
-33.8187500000
20
35.4937500000
11
-0.1687500000
21
35.4937500000
0
LINE
5
21D
100
AcDbEntity
8
0
100
AcDbLine
62
2
6
CONTINUOUS
10
33.4812500000
20
35.4937500000
11
-0.1687500000
21
35.4937500000
0
INSERT
5
21E
100
AcDbEntity
8
0
100
AcDbBlockReference
62
2
6
CONTINUOUS
2
_FILLED
10
-33.8187500000
20
35.4937500000
41
  3.000000
42
  3.000000
43
  3.000000
50
180.000000
0
INSERT
5
21F
100
AcDbEntity
8
0
100
AcDbBlockReference
62
2
6
CONTINUOUS
2
_FILLED
10
33.4812500000
20
35.4937500000
41
  3.000000
42
  3.000000
43
  3.000000
50
360.000000
0
ENDBLK
5
220
100
AcDbEntity
8
0
6
BYBLOCK
62
0
100
AcDbBlockEnd
0
BLOCK
5
221
100
AcDbEntity
8
0
100
AcDbBlockBegin
62
2
6
CONTINUOUS
2
*D1
70
65
10
0.0000000000
20
0.0000000000
3
*D1
1

0
TEXT
5
222
100
AcDbEntity
8
0
100
AcDbText
62
2
6
CONTINUOUS
10
40.7312500000
20
1.6366071429
7
STANDARD
40
3.0000000000
1
47
50
90.0000000000
41
0.7857142857
72
0
100
AcDbText
0
LINE
5
223
100
AcDbEntity
8
0
100
AcDbLine
62
2
6
CONTINUOUS
10
26.5061074782
20
27.4937500000
11
42.9812500000
21
27.4937500000
0
LINE
5
224
100
AcDbEntity
8
0
100
AcDbLine
62
2
6
CONTINUOUS
10
26.5061074782
20
-19.5062500000
11
42.9812500000
21
-19.5062500000
0
LINE
5
225
100
AcDbEntity
8
0
100
AcDbLine
62
2
6
CONTINUOUS
10
41.4812500000
20
27.4937500000
11
41.4812500000
21
3.9937500000
0
LINE
5
226
100
AcDbEntity
8
0
100
AcDbLine
62
2
6
CONTINUOUS
10
41.4812500000
20
-19.5062500000
11
41.4812500000
21
3.9937500000
0
INSERT
5
227
100
AcDbEntity
8
0
100
AcDbBlockReference
62
2
6
CONTINUOUS
2
_FILLED
10
41.4812500000
20
27.4937500000
41
  3.000000
42
  3.000000
43
  3.000000
50
 90.000000
0
INSERT
5
228
100
AcDbEntity
8
0
100
AcDbBlockReference
62
2
6
CONTINUOUS
2
_FILLED
10
41.4812500000
20
-19.5062500000
41
  3.000000
42
  3.000000
43
  3.000000
50
270.000000
0
ENDBLK
5
229
100
AcDbEntity
8
0
6
BYBLOCK
62
0
100
AcDbBlockEnd
0
BLOCK
5
22A
100
AcDbEntity
8
0
100
AcDbBlockBegin
62
2
6
CONTINUOUS
2
*D2
70
65
10
0.0000000000
20
0.0000000000
3
*D2
1

0
TEXT
5
22B
100
AcDbEntity
8
0
100
AcDbText
62
2
6
CONTINUOUS
10
-57.6424632971
20
36.2437500000
7
STANDARD
40
3.0000000000
1
26
41
0.7857142857
72
0
100
AcDbText
0
LINE
5
22C
100
AcDbEntity
8
0
100
AcDbLine
62
2
6
CONTINUOUS
10
-42.2853204400
20
18.4470869444
11
-42.2853204400
21
36.9937500000
0
LINE
5
22D
100
AcDbEntity
8
0
100
AcDbLine
62
2
6
CONTINUOUS
10
-68.2853204400
20
26.3935211479
11
-68.2853204400
21
36.9937500000
0
LINE
5
22E
100
AcDbEntity
8
0
100
AcDbLine
62
2
6
CONTINUOUS
10
-42.2853204400
20
35.4937500000
11
-55.2853204400
21
35.4937500000
0
LINE
5
22F
100
AcDbEntity
8
0
100
AcDbLine
62
2
6
CONTINUOUS
10
-68.2853204400
20
35.4937500000
11
-55.2853204400
21
35.4937500000
0
INSERT
5
230
100
AcDbEntity
8
0
100
AcDbBlockReference
62
2
6
CONTINUOUS
2
_FILLED
10
-42.2853204400
20
35.4937500000
41
  3.000000
42
  3.000000
43
  3.000000
0
INSERT
5
231
100
AcDbEntity
8
0
100
AcDbBlockReference
62
2
6
CONTINUOUS
2
_FILLED
10
-68.2853204400
20
35.4937500000
41
  3.000000
42
  3.000000
43
  3.000000
50
180.000000
0
ENDBLK
5
232
100
AcDbEntity
8
0
6
BYBLOCK
62
0
100
AcDbBlockEnd
0
BLOCK
5
233
100
AcDbEntity
8
0
100
AcDbBlockBegin
62
2
6
CONTINUOUS
2
*D3
70
65
10
0.0000000000
20
0.0000000000
3
*D3
1

0
TEXT
5
234
100
AcDbEntity
8
0
100
AcDbText
62
2
6
CONTINUOUS
10
-64.1067490114
20
46.2437500000
7
STANDARD
40
3.0000000000
1
35,5
41
0.6785714286
72
0
100
AcDbText
0
LINE
5
235
100
AcDbEntity
8
0
100
AcDbLine
62
2
6
CONTINUOUS
10
-42.2853204400
20
18.8864493856
11
-42.2853204400
21
46.9937500000
0
LINE
5
236
100
AcDbEntity
8
0
100
AcDbLine
62
2
6
CONTINUOUS
10
-77.7853204400
20
4.4937500000
11
-77.7853204400
21
46.9937500000
0
LINE
5
237
100
AcDbEntity
8
0
100
AcDbLine
62
2
6
CONTINUOUS
10
-42.2853204400
20
45.4937500000
11
-60.0353204400
21
45.4937500000
0
LINE
5
238
100
AcDbEntity
8
0
100
AcDbLine
62
2
6
CONTINUOUS
10
-77.7853204400
20
45.4937500000
11
-60.0353204400
21
45.4937500000
0
INSERT
5
239
100
AcDbEntity
8
0
100
AcDbBlockReference
62
2
6
CONTINUOUS
2
_FILLED
10
-42.2853204400
20
45.4937500000
41
  3.000000
42
  3.000000
43
  3.000000
0
INSERT
5
23A
100
AcDbEntity
8
0
100
AcDbBlockReference
62
2
6
CONTINUOUS
2
_FILLED
10
-77.7853204400
20
45.4937500000
41
  3.000000
42
  3.000000
43
  3.000000
50
180.000000
0
ENDBLK
5
23B
100
AcDbEntity
8
0
6
BYBLOCK
62
0
100
AcDbBlockEnd
0
BLOCK
5
23C
100
AcDbEntity
8
0
100
AcDbBlockBegin
2
_FILLED
70
64
10
0.0000000000
20
0.0000000000
3
_FILLED
1

0
SOLID
5
23D
100
AcDbEntity
8
0
6
BYBLOCK
62
0
100
AcDbTrace
10
0.0000000000
20
0.0000000000
11
-1.0000000000
21
0.3166666667
12
-1.0000000000
22
-0.3166666667
13
-1.0000000000
23
-0.3166666667
0
ENDBLK
5
23E
100
AcDbEntity
8
0
6
BYBLOCK
62
0
100
AcDbBlockEnd
0
ENDSEC
0
SECTION
2
ENTITIES
0
DIMENSION
5
23F
100
AcDbEntity
8
0
100
AcDbDimension
62
2
6
CONTINUOUS
2
*D0
10
33.4812500000
20
35.4937500000
11
-0.1687500000
21
37.7437500000
70
160
3
DIMSTYLE_1
100
AcDbAlignedDimension
13
-33.8187500000
23
26.3935211479
14
33.4812500000
24
26.3935211479
100
AcDbRotatedDimension
0
DIMENSION
5
240
100
AcDbEntity
8
0
100
AcDbDimension
62
2
6
CONTINUOUS
2
*D1
10
41.4812500000
20
-19.5062500000
11
39.2312500000
21
3.9937500000
70
160
3
DIMSTYLE_1
100
AcDbAlignedDimension
13
26.5061074782
23
27.4937500000
14
26.5061074782
24
-19.5062500000
50
270.000000
100
AcDbRotatedDimension
0
DIMENSION
5
241
100
AcDbEntity
8
0
100
AcDbDimension
62
2
6
CONTINUOUS
2
*D2
10
-68.2853204400
20
35.4937500000
11
-55.2853204400
21
37.7437500000
70
160
3
DIMSTYLE_1
100
AcDbAlignedDimension
13
-42.2853204400
23
18.4470869444
14
-68.2853204400
24
26.3935211479
50
180.000000
100
AcDbRotatedDimension
0
DIMENSION
5
242
100
AcDbEntity
8
0
100
AcDbDimension
62
2
6
CONTINUOUS
2
*D3
10
-77.7853204400
20
45.4937500000
11
-60.0353204400
21
47.7437500000
70
160
3
DIMSTYLE_1
100
AcDbAlignedDimension
13
-42.2853204400
23
18.8864493856
14
-77.7853204400
24
4.4937500000
50
180.000000
100
AcDbRotatedDimension
0
LINE
5
243
100
AcDbEntity
8
0
100
AcDbLine
62
7
6
CONTINUOUS
10
-33.8187500000
20
-17.9060211479
11
-33.8187500000
21
25.8935211479
0
LINE
5
244
100
AcDbEntity
8
0
100
AcDbLine
62
9
6
CONTINUOUS
10
-33.1692850625
20
25.0120642309
11
-33.1692850625
21
-17.0245642309
0
LINE
5
245
100
AcDbEntity
8
0
100
AcDbLine
62
7
6
CONTINUOUS
10
-25.9687500000
20
26.3937500000
11
-25.9021172024
21
26.4937500000
0
LINE
5
246
100
AcDbEntity
8
0
100
AcDbLine
62
7
6
CONTINUOUS
10
-25.9021172024
20
-18.5062500000
11
-25.9687500000
21
-18.4062500000
0
LINE
5
247
100
AcDbEntity
8
0
100
AcDbLine
62
9
6
CONTINUOUS
10
-30.8187500000
20
-3.7609027917
11
-30.8187500000
21
-0.9592217831
0
LINE
5
248
100
AcDbEntity
8
0
100
AcDbLine
62
7
6
CONTINUOUS
10
-30.5187500000
20
-3.4562500000
11
-30.5187500000
21
-1.2562500000
0
LINE
5
249
100
AcDbEntity
8
0
100
AcDbLine
62
9
6
CONTINUOUS
10
-29.9687500000
20
8.9467217831
11
-29.9687500000
21
11.7484027917
0
LINE
5
24A
100
AcDbEntity
8
0
100
AcDbLine
62
7
6
CONTINUOUS
10
-26.0320943637
20
26.4937500000
11
-26.0536222771
21
26.3937500000
0
LINE
5
24B
100
AcDbEntity
8
0
100
AcDbLine
62
7
6
CONTINUOUS
10
-26.0320943637
20
-18.5062500000
11
-26.0536222771
21
-18.4062500000
0
LINE
5
24C
100
AcDbEntity
8
0
100
AcDbLine
62
7
6
CONTINUOUS
10
-29.6687500000
20
9.2437500000
11
-29.6687500000
21
11.4437500000
0
LINE
5
24D
100
AcDbEntity
8
0
100
AcDbLine
62
7
6
CONTINUOUS
10
-26.1385702597
20
26.4937500000
11
-26.1385702597
21
26.3937500000
0
LINE
5
24E
100
AcDbEntity
8
0
100
AcDbLine
62
7
6
CONTINUOUS
10
-26.1385702597
20
-18.5062500000
11
-26.1385702597
21
-18.4062500000
0
LINE
5
24F
100
AcDbEntity
8
0
100
AcDbLine
62
9
6
CONTINUOUS
10
-24.6687500000
20
9.2437500000
11
-24.6687500000
21
10.3662500000
0
LINE
5
250
100
AcDbEntity
8
0
100
AcDbLine
62
9
6
CONTINUOUS
10
-24.6687500000
20
10.4162500000
11
-24.6687500000
21
11.4437500000
0
LINE
5
251
100
AcDbEntity
8
0
100
AcDbLine
62
9
6
CONTINUOUS
10
-24.4687500000
20
-3.4562500000
11
-24.4687500000
21
-2.4287500000
0
LINE
5
252
100
AcDbEntity
8
0
100
AcDbLine
62
9
6
CONTINUOUS
10
-24.4687500000
20
-2.3787500000
11
-24.4687500000
21
-1.2562500000
0
LINE
5
253
100
AcDbEntity
8
0
100
AcDbLine
62
9
6
CONTINUOUS
10
-33.6774719643
20
-17.4818423698
11
-33.8187500000
21
-17.9060211479
0
LINE
5
254
100
AcDbEntity
8
0
100
AcDbLine
62
9
6
CONTINUOUS
10
-33.1775481167
20
-17.9811571372
11
-33.3191305997
21
-18.4062500000
0
LINE
5
255
100
AcDbEntity
8
0
100
AcDbLine
62
9
6
CONTINUOUS
10
-33.8187500000
20
25.8935211479
11
-33.6774719643
21
25.4693423698
0
LINE
5
256
100
AcDbEntity
8
0
100
AcDbLine
62
9
6
CONTINUOUS
10
-33.3191305997
20
26.3937500000
11
-33.1775481167
21
25.9686571372
0
LINE
5
257
100
AcDbEntity
8
0
100
AcDbLine
62
9
6
CONTINUOUS
10
-23.0687500000
20
10.3662500000
11
-23.0687500000
21
10.4162500000
0
LINE
5
258
100
AcDbEntity
8
0
100
AcDbLine
62
9
6
CONTINUOUS
10
-22.8687500000
20
-2.3787500000
11
-22.8687500000
21
-2.4287500000
0
LINE
5
259
100
AcDbEntity
8
0
100
AcDbLine
62
7
6
CONTINUOUS
10
-22.6687500000
20
11.4437500000
11
-22.6687500000
21
9.2437500000
0
LINE
5
25A
100
AcDbEntity
8
0
100
AcDbLine
62
7
6
CONTINUOUS
10
-22.4687500000
20
-1.2562500000
11
-22.4687500000
21
-1.6053359981
0
LINE
5
25B
100
AcDbEntity
8
0
100
AcDbLine
62
3
6
CONTINUOUS
10
-22.4687500000
20
-1.6053359981
11
-22.4687500000
21
-2.3785445238
0
LINE
5
25C
100
AcDbEntity
8
0
100
AcDbLine
62
3
6
CONTINUOUS
10
-22.4687500000
20
-2.4287542117
11
-22.4687500000
21
-3.2021640019
0
LINE
5
25D
100
AcDbEntity
8
0
100
AcDbLine
62
7
6
CONTINUOUS
10
-22.4687500000
20
-3.4562500000
11
-22.4687500000
21
-3.2021640019
0
LINE
5
25E
100
AcDbEntity
8
0
100
AcDbLine
62
9
6
CONTINUOUS
10
-22.3687500000
20
11.7484027917
11
-22.3687500000
21
8.9467217831
0
LINE
5
25F
100
AcDbEntity
8
0
100
AcDbLine
62
3
6
CONTINUOUS
10
-22.2687500000
20
-1.6037500000
11
-22.2687500000
21
-3.4562500000
0
LINE
5
260
100
AcDbEntity
8
0
100
AcDbLine
62
9
6
CONTINUOUS
10
-22.1687500000
20
-1.5037500000
11
-22.1687500000
21
-1.2562500000
0
LINE
5
261
100
AcDbEntity
8
0
100
AcDbLine
62
7
6
CONTINUOUS
10
-22.0935239475
20
-2.7764620003
11
-22.0935239475
21
-3.4562500000
0
LINE
5
262
100
AcDbEntity
8
0
100
AcDbLine
62
7
6
CONTINUOUS
10
-21.8187500000
20
-1.2562500000
11
-21.8187500000
21
-3.4562500000
0
LINE
5
263
100
AcDbEntity
8
0
100
AcDbLine
62
7
6
CONTINUOUS
10
-19.2320943637
20
26.4937500000
11
-19.2536222771
21
26.3937500000
0
LINE
5
264
100
AcDbEntity
8
0
100
AcDbLine
62
7
6
CONTINUOUS
10
-26.3436074782
20
-19.5062500000
11
-18.9938925218
21
-19.5062500000
0
LINE
5
265
100
AcDbEntity
8
0
100
AcDbLine
62
7
6
CONTINUOUS
10
18.6563925218
20
-19.5062500000
11
26.0061074782
21
-19.5062500000
0
LINE
5
266
100
AcDbEntity
8
0
100
AcDbLine
62
7
6
CONTINUOUS
10
25.8010702597
20
-18.5062500000
11
18.8614297403
21
-18.5062500000
0
LINE
5
267
100
AcDbEntity
8
0
100
AcDbLine
62
7
6
CONTINUOUS
10
-19.1989297403
20
-18.5062500000
11
-26.1385702597
21
-18.5062500000
0
LINE
5
268
100
AcDbEntity
8
0
100
AcDbLine
62
7
6
CONTINUOUS
10
32.9816305997
20
-18.4062500000
11
25.6312500000
21
-18.4062500000
0
LINE
5
269
100
AcDbEntity
8
0
100
AcDbLine
62
7
6
CONTINUOUS
10
19.0312500000
20
-18.4062500000
11
-19.3687500000
21
-18.4062500000
0
LINE
5
26A
100
AcDbEntity
8
0
100
AcDbLine
62
7
6
CONTINUOUS
10
-25.9687500000
20
-18.4062500000
11
-33.3191305997
21
-18.4062500000
0
LINE
5
26B
100
AcDbEntity
8
0
100
AcDbLine
62
9
6
CONTINUOUS
10
32.8400481167
20
-17.9811571372
11
-33.1775481167
21
-17.9811571372
0
LINE
5
26C
100
AcDbEntity
8
0
100
AcDbLine
62
7
6
CONTINUOUS
10
-19.2320943637
20
-18.5062500000
11
-19.2536222771
21
-18.4062500000
0
LINE
5
26D
100
AcDbEntity
8
0
100
AcDbLine
62
9
6
CONTINUOUS
10
-21.5187500000
20
-0.9592217831
11
-21.5187500000
21
-3.7609027917
0
LINE
5
26E
100
AcDbEntity
8
0
100
AcDbLine
62
7
6
CONTINUOUS
10
-19.1989297403
20
-18.4062500000
11
-19.1989297403
21
-18.5062500000
0
LINE
5
26F
100
AcDbEntity
8
0
100
AcDbLine
62
7
6
CONTINUOUS
10
-19.1989297403
20
26.3937500000
11
-19.1989297403
21
26.4937500000
0
LINE
5
270
100
AcDbEntity
8
0
100
AcDbLine
62
7
6
CONTINUOUS
10
-26.1054056363
20
-18.5062500000
11
-26.0838777229
21
-18.4062500000
0
LINE
5
271
100
AcDbEntity
8
0
100
AcDbLine
62
3
6
CONTINUOUS
10
-22.6687500000
20
9.5928359981
11
-22.9537775239
21
9.2437500000
0
LINE
5
272
100
AcDbEntity
8
0
100
AcDbLine
62
9
6
CONTINUOUS
10
32.8317850625
20
-17.0245642309
11
-33.1692850625
21
-17.0245642309
0
LINE
5
273
100
AcDbEntity
8
0
100
AcDbLine
62
3
6
CONTINUOUS
10
-22.7537775239
20
-1.2562500000
11
-22.4687500000
21
-1.6053359981
0
LINE
5
274
100
AcDbEntity
8
0
100
AcDbLine
62
7
6
CONTINUOUS
10
-26.1054056363
20
26.4937500000
11
-26.0838777229
21
26.3937500000
0
LINE
5
275
100
AcDbEntity
8
0
100
AcDbLine
62
9
6
CONTINUOUS
10
-14.2687500000
20
6.9955510806
11
-14.2687500000
21
6.6937500000
0
LINE
5
276
100
AcDbEntity
8
0
100
AcDbLine
62
9
6
CONTINUOUS
10
-14.2687500000
20
0.9919489194
11
-14.2687499949
21
1.2937500000
0
LINE
5
277
100
AcDbEntity
8
0
100
AcDbLine
62
7
6
CONTINUOUS
10
-19.3054056363
20
-18.5062500000
11
-19.2838777229
21
-18.4062500000
0
LWPOLYLINE
5
278
100
AcDbEntity
8
0
100
AcDbPolyline
62
3
6
CONTINUOUS
90
5
70
0
10
-27.5546317684
20
-2.3787500000
10
-27.5421704235
20
-2.3834650524
10
-27.4872078474
20
-2.4021060396
10
-27.4335891286
20
-2.4183074603
10
-27.3945137275
20
-2.4287500000
0
LINE
5
279
100
AcDbEntity
8
0
100
AcDbLine
62
7
6
CONTINUOUS
10
-19.3054056363
20
26.4937500000
11
-19.2838777229
21
26.3937500000
0
LINE
5
27A
100
AcDbEntity
8
0
100
AcDbLine
62
9
6
CONTINUOUS
10
-12.8687500000
20
1.2937500000
11
-12.8687500000
21
2.9662500000
0
LINE
5
27B
100
AcDbEntity
8
0
100
AcDbLine
62
9
6
CONTINUOUS
10
-12.8687500000
20
3.0162500000
11
-12.8687500000
21
5.7137618922
0
LINE
5
27C
100
AcDbEntity
8
0
100
AcDbLine
62
7
6
CONTINUOUS
10
-12.8687500000
20
5.7137618922
11
-12.8687500000
21
6.6937500000
0
LINE
5
27D
100
AcDbEntity
8
0
100
AcDbLine
62
7
6
CONTINUOUS
10
-11.5687500000
20
6.6937500000
11
-11.5687500000
21
1.2937500000
0
LINE
5
27E
100
AcDbEntity
8
0
100
AcDbLine
62
9
6
CONTINUOUS
10
-11.2687500000
20
6.9955510806
11
-11.2687500000
21
0.9919489194
0
LINE
5
27F
100
AcDbEntity
8
0
100
AcDbLine
62
3
6
CONTINUOUS
10
-22.4687500000
20
-3.2021640019
11
-22.6762103487
21
-3.4562500000
0
LINE
5
280
100
AcDbEntity
8
0
100
AcDbLine
62
3
6
CONTINUOUS
10
-22.8762103487
20
11.4437500000
11
-22.6687500000
21
11.1896640019
0
LWPOLYLINE
5
281
100
AcDbEntity
8
0
100
AcDbPolyline
62
3
6
CONTINUOUS
90
6
70
0
10
15.4573207943
20
-2.4287500000
10
15.4636143153
20
-2.4271924143
10
15.5133385032
20
-2.4133053881
10
15.5647239810
20
-2.3972204014
10
15.6174805425
20
-2.3788171160
10
15.6176540359
20
-2.3787500000
0
LWPOLYLINE
5
282
100
AcDbEntity
8
0
100
AcDbPolyline
62
3
6
CONTINUOUS
90
6
70
0
10
26.2051792057
20
3.0162500000
10
26.1988856847
20
3.0146924143
10
26.1491614968
20
3.0008053881
10
26.0977760190
20
2.9847204014
10
26.0450194575
20
2.9663171160
10
26.0448459641
20
2.9662500000
0
LINE
5
283
100
AcDbEntity
8
0
100
AcDbLine
62
9
6
CONTINUOUS
10
20.4812500000
20
-3.7609027917
11
11.1812500000
21
-3.7609027917
0
LINE
5
284
100
AcDbEntity
8
0
100
AcDbLine
62
9
6
CONTINUOUS
10
-21.5187500000
20
-3.7609027917
11
-30.8187500000
21
-3.7609027917
0
LINE
5
285
100
AcDbEntity
8
0
100
AcDbLine
62
7
6
CONTINUOUS
10
20.1812500000
20
-3.4562500000
11
11.4812500000
21
-3.4562500000
0
LINE
5
286
100
AcDbEntity
8
0
100
AcDbLine
62
7
6
CONTINUOUS
10
-21.8187500000
20
-3.4562500000
11
-30.5187500000
21
-3.4562500000
0
LINE
5
287
100
AcDbEntity
8
0
100
AcDbLine
62
7
6
CONTINUOUS
10
19.5312500000
20
-2.9847918101
11
19.7097918101
21
-2.9847918101
0
LINE
5
288
100
AcDbEntity
8
0
100
AcDbLine
62
7
6
CONTINUOUS
10
19.5312500000
20
-2.9062500000
11
19.6312500000
21
-2.9062500000
0
LINE
5
289
100
AcDbEntity
8
0
100
AcDbLine
62
9
6
CONTINUOUS
10
-22.0935239475
20
-2.7764620003
11
-21.8187500000
21
-2.7764620012
0
LINE
5
28A
100
AcDbEntity
8
0
100
AcDbLine
62
9
6
CONTINUOUS
10
-30.5187500000
20
-2.7216432188
11
-22.4687500000
21
-2.7216432188
0
LINE
5
28B
100
AcDbEntity
8
0
100
AcDbLine
62
9
6
CONTINUOUS
10
19.5312500000
20
-2.7216432188
11
11.4812500000
21
-2.7216432188
0
LINE
5
28C
100
AcDbEntity
8
0
100
AcDbLine
62
3
6
CONTINUOUS
10
11.4812500000
20
-2.4287500000
11
19.5312500000
21
-2.4287500000
0
LINE
5
28D
100
AcDbEntity
8
0
100
AcDbLine
62
3
6
CONTINUOUS
10
-22.4687500000
20
-2.4287500000
11
-30.5187500000
21
-2.4287500000
0
LINE
5
28E
100
AcDbEntity
8
0
100
AcDbLine
62
3
6
CONTINUOUS
10
11.4812500000
20
-2.3787500000
11
19.5312500000
21
-2.3787500000
0
LINE
5
28F
100
AcDbEntity
8
0
100
AcDbLine
62
3
6
CONTINUOUS
10
-22.4687500000
20
-2.3787500000
11
-30.5187500000
21
-2.3787500000
0
LINE
5
290
100
AcDbEntity
8
0
100
AcDbLine
62
9
6
CONTINUOUS
10
-22.2687500000
20
-2.2062500000
11
-22.0984999228
21
-2.2062500000
0
LINE
5
291
100
AcDbEntity
8
0
100
AcDbLine
62
9
6
CONTINUOUS
10
-30.5187500000
20
-2.0858567812
11
-22.4687500000
21
-2.0858567812
0
LINE
5
292
100
AcDbEntity
8
0
100
AcDbLine
62
9
6
CONTINUOUS
10
19.5312500000
20
-2.0858567812
11
11.4812500000
21
-2.0858567812
0
LINE
5
293
100
AcDbEntity
8
0
100
AcDbLine
62
3
6
CONTINUOUS
10
-22.4687500000
20
-1.6037500000
11
-22.2687500000
21
-1.6037500000
0
LINE
5
294
100
AcDbEntity
8
0
100
AcDbLine
62
3
6
CONTINUOUS
10
-21.8187500000
20
-1.5037500000
11
-22.1687500000
21
-1.5037500000
0
LINE
5
295
100
AcDbEntity
8
0
100
AcDbLine
62
7
6
CONTINUOUS
10
-30.5187500000
20
-1.2562500000
11
-21.8187500000
21
-1.2562500000
0
LINE
5
296
100
AcDbEntity
8
0
100
AcDbLine
62
7
6
CONTINUOUS
10
11.4812500000
20
-1.2562500000
11
20.1812500000
21
-1.2562500000
0
LWPOLYLINE
5
297
100
AcDbEntity
8
0
100
AcDbPolyline
62
3
6
CONTINUOUS
90
5
70
0
10
-14.7828682316
20
2.9662500000
10
-14.7953295765
20
2.9709650524
10
-14.8502921526
20
2.9896060396
10
-14.9039108714
20
3.0058074603
10
-14.9429862725
20
3.0162500000
0
LINE
5
298
100
AcDbEntity
8
0
100
AcDbLine
62
7
6
CONTINUOUS
10
-19.4353827976
20
-18.5062500000
11
-19.3687500000
21
-18.4062500000
0
LINE
5
299
100
AcDbEntity
8
0
100
AcDbLine
62
9
6
CONTINUOUS
10
-30.8187500000
20
-0.9592217831
11
-21.5187500000
21
-0.9592217831
0
LINE
5
29A
100
AcDbEntity
8
0
100
AcDbLine
62
9
6
CONTINUOUS
10
11.1812500000
20
-0.9592217831
11
20.4812500000
21
-0.9592217831
0
LINE
5
29B
100
AcDbEntity
8
0
100
AcDbLine
62
9
6
CONTINUOUS
10
30.7312500000
20
0.9919489194
11
27.7312500000
21
0.9919489194
0
LINE
5
29C
100
AcDbEntity
8
0
100
AcDbLine
62
9
6
CONTINUOUS
10
-11.2687500000
20
0.9919489194
11
-14.2687500000
21
0.9919489194
0
LINE
5
29D
100
AcDbEntity
8
0
100
AcDbLine
62
7
6
CONTINUOUS
10
30.4312500000
20
1.2937500000
11
27.7312500000
21
1.2937500000
0
LINE
5
29E
100
AcDbEntity
8
0
100
AcDbLine
62
7
6
CONTINUOUS
10
-11.5687500000
20
1.2937500000
11
-14.2687500000
21
1.2937500000
0
LINE
5
29F
100
AcDbEntity
8
0
100
AcDbLine
62
3
6
CONTINUOUS
10
30.4312500000
20
1.5804635624
11
26.5228619804
21
1.5804635624
0
LINE
5
2A0
100
AcDbEntity
8
0
100
AcDbLine
62
3
6
CONTINUOUS
10
-15.4771380195
20
1.5804635624
11
-11.5687500000
21
1.5804635624
0
LWPOLYLINE
5
2A1
100
AcDbEntity
8
0
100
AcDbPolyline
62
3
6
CONTINUOUS
90
5
70
0
10
-26.5828682316
20
10.3662500000
10
-26.5953295765
20
10.3709650524
10
-26.6502921526
20
10.3896060396
10
-26.7039108714
20
10.4058074603
10
-26.7429862725
20
10.4162500000
0
LINE
5
2A2
100
AcDbEntity
8
0
100
AcDbLine
62
7
6
CONTINUOUS
10
-11.5687500000
20
5.2095700457
11
-12.8687500000
21
5.7137618922
0
LINE
5
2A3
100
AcDbEntity
8
0
100
AcDbLine
62
7
6
CONTINUOUS
10
-19.3687500000
20
26.3937500000
11
-19.4353827976
21
26.4937500000
0
LWPOLYLINE
5
2A4
100
AcDbEntity
8
0
100
AcDbPolyline
62
3
6
CONTINUOUS
90
6
70
0
10
-26.5426792057
20
-2.4287500000
10
-26.5363856847
20
-2.4271924143
10
-26.4866614968
20
-2.4133053881
10
-26.4352760190
20
-2.3972204014
10
-26.3825194575
20
-2.3788171160
10
-26.3823459641
20
-2.3787500000
0
LINE
5
2A5
100
AcDbEntity
8
0
100
AcDbLine
62
9
6
CONTINUOUS
10
30.4312500000
20
2.6733567812
11
25.3773736824
21
2.6733567812
0
LINE
5
2A6
100
AcDbEntity
8
0
100
AcDbLine
62
9
6
CONTINUOUS
10
-16.6226263176
20
2.6733567812
11
-11.5687500000
21
2.6733567812
0
LINE
5
2A7
100
AcDbEntity
8
0
100
AcDbLine
62
3
6
CONTINUOUS
10
-11.5687500000
20
2.9662500000
11
-16.7642719741
21
2.9662500000
0
LINE
5
2A8
100
AcDbEntity
8
0
100
AcDbLine
62
3
6
CONTINUOUS
10
25.2357280259
20
2.9662500000
11
30.4312500000
21
2.9662500000
0
LINE
5
2A9
100
AcDbEntity
8
0
100
AcDbLine
62
3
6
CONTINUOUS
10
-11.5687500000
20
3.0162500000
11
-16.7851106168
21
3.0162500000
0
LINE
5
2AA
100
AcDbEntity
8
0
100
AcDbLine
62
3
6
CONTINUOUS
10
25.2148893832
20
3.0162500000
11
30.4312500000
21
3.0162500000
0
LINE
5
2AB
100
AcDbEntity
8
0
100
AcDbLine
62
9
6
CONTINUOUS
10
30.4312500000
20
3.3091432188
11
25.1213799639
21
3.3091432188
0
LINE
5
2AC
100
AcDbEntity
8
0
100
AcDbLine
62
9
6
CONTINUOUS
10
-16.8786200361
20
3.3091432188
11
-11.5687500000
21
3.3091432188
0
LWPOLYLINE
5
2AD
100
AcDbEntity
8
0
100
AcDbPolyline
62
3
6
CONTINUOUS
90
5
70
0
10
14.4453682316
20
-2.3787500000
10
14.4578295765
20
-2.3834650524
10
14.5127921526
20
-2.4021060396
10
14.5664108714
20
-2.4183074603
10
14.6054862725
20
-2.4287500000
0
LWPOLYLINE
5
2AE
100
AcDbEntity
8
0
100
AcDbPolyline
62
3
6
CONTINUOUS
90
6
70
0
10
14.4051792057
20
10.4162500000
10
14.3988856847
20
10.4146924143
10
14.3491614968
20
10.4008053881
10
14.2977760190
20
10.3847204014
10
14.2450194575
20
10.3663171160
10
14.2448459641
20
10.3662500000
0
LWPOLYLINE
5
2AF
100
AcDbEntity
8
0
100
AcDbPolyline
62
3
6
CONTINUOUS
90
6
70
0
10
-15.7948207943
20
3.0162500000
10
-15.8011143153
20
3.0146924143
10
-15.8508385032
20
3.0008053881
10
-15.9022239810
20
2.9847204014
10
-15.9549805425
20
2.9663171160
10
-15.9551540359
20
2.9662500000
0
LINE
5
2B0
100
AcDbEntity
8
0
100
AcDbLine
62
3
6
CONTINUOUS
10
30.4312500000
20
4.4020364376
11
25.0624180893
21
4.4020364376
0
LINE
5
2B1
100
AcDbEntity
8
0
100
AcDbLine
62
3
6
CONTINUOUS
10
-16.9375819107
20
4.4020364376
11
-11.5687500000
21
4.4020364376
0
LINE
5
2B2
100
AcDbEntity
8
0
100
AcDbLine
62
7
6
CONTINUOUS
10
30.4312500000
20
4.8263005063
11
25.1639473949
21
4.8263005063
0
LINE
5
2B3
100
AcDbEntity
8
0
100
AcDbLine
62
7
6
CONTINUOUS
10
-16.8360526051
20
4.8263005063
11
-11.5687500000
21
4.8263005063
0
LINE
5
2B4
100
AcDbEntity
8
0
100
AcDbLine
62
7
6
CONTINUOUS
10
-14.2687500000
20
6.6937500000
11
-11.5687500000
21
6.6937500000
0
LINE
5
2B5
100
AcDbEntity
8
0
100
AcDbLine
62
7
6
CONTINUOUS
10
27.7312500000
20
6.6937500000
11
30.4312500000
21
6.6937500000
0
LINE
5
2B6
100
AcDbEntity
8
0
100
AcDbLine
62
9
6
CONTINUOUS
10
-14.2687500000
20
6.9955510806
11
-11.2687500000
21
6.9955510806
0
LINE
5
2B7
100
AcDbEntity
8
0
100
AcDbLine
62
9
6
CONTINUOUS
10
27.7312500000
20
6.9955510806
11
30.7312500000
21
6.9955510806
0
LINE
5
2B8
100
AcDbEntity
8
0
100
AcDbLine
62
7
6
CONTINUOUS
10
19.0312500000
20
26.3937500000
11
19.0978827976
21
26.4937500000
0
LINE
5
2B9
100
AcDbEntity
8
0
100
AcDbLine
62
9
6
CONTINUOUS
10
19.6312500000
20
8.9467217831
11
12.0312500000
21
8.9467217831
0
LINE
5
2BA
100
AcDbEntity
8
0
100
AcDbLine
62
9
6
CONTINUOUS
10
-22.3687500000
20
8.9467217831
11
-29.9687500000
21
8.9467217831
0
LINE
5
2BB
100
AcDbEntity
8
0
100
AcDbLine
62
7
6
CONTINUOUS
10
19.3312500000
20
9.2437500000
11
12.3312500000
21
9.2437500000
0
LINE
5
2BC
100
AcDbEntity
8
0
100
AcDbLine
62
7
6
CONTINUOUS
10
-22.6687500000
20
9.2437500000
11
-29.6687500000
21
9.2437500000
0
LINE
5
2BD
100
AcDbEntity
8
0
100
AcDbLine
62
7
6
CONTINUOUS
10
19.0978827976
20
-18.5062500000
11
19.0312500000
21
-18.4062500000
0
LINE
5
2BE
100
AcDbEntity
8
0
100
AcDbLine
62
9
6
CONTINUOUS
10
-29.6687500000
20
10.0733567812
11
-22.6687500000
21
10.0733567812
0
LINE
5
2BF
100
AcDbEntity
8
0
100
AcDbLine
62
9
6
CONTINUOUS
10
19.3312500000
20
10.0733567812
11
12.3312500000
21
10.0733567812
0
LINE
5
2C0
100
AcDbEntity
8
0
100
AcDbLine
62
3
6
CONTINUOUS
10
12.3312500000
20
10.3662500000
11
19.3312500000
21
10.3662500000
0
LINE
5
2C1
100
AcDbEntity
8
0
100
AcDbLine
62
3
6
CONTINUOUS
10
-22.6687500000
20
10.3662500000
11
-29.6687500000
21
10.3662500000
0
LINE
5
2C2
100
AcDbEntity
8
0
100
AcDbLine
62
3
6
CONTINUOUS
10
12.3312500000
20
10.4162500000
11
19.3312500000
21
10.4162500000
0
LINE
5
2C3
100
AcDbEntity
8
0
100
AcDbLine
62
3
6
CONTINUOUS
10
-22.6687500000
20
10.4162500000
11
-29.6687500000
21
10.4162500000
0
LINE
5
2C4
100
AcDbEntity
8
0
100
AcDbLine
62
9
6
CONTINUOUS
10
-29.6687500000
20
10.7091432188
11
-22.6687500000
21
10.7091432188
0
LINE
5
2C5
100
AcDbEntity
8
0
100
AcDbLine
62
9
6
CONTINUOUS
10
19.3312500000
20
10.7091432188
11
12.3312500000
21
10.7091432188
0
LINE
5
2C6
100
AcDbEntity
8
0
100
AcDbLine
62
7
6
CONTINUOUS
10
-29.6687500000
20
11.4437500000
11
-22.6687500000
21
11.4437500000
0
LINE
5
2C7
100
AcDbEntity
8
0
100
AcDbLine
62
7
6
CONTINUOUS
10
12.3312500000
20
11.4437500000
11
19.3312500000
21
11.4437500000
0
LINE
5
2C8
100
AcDbEntity
8
0
100
AcDbLine
62
9
6
CONTINUOUS
10
-29.9687500000
20
11.7484027917
11
-22.3687500000
21
11.7484027917
0
LINE
5
2C9
100
AcDbEntity
8
0
100
AcDbLine
62
9
6
CONTINUOUS
10
12.0312500000
20
11.7484027917
11
19.6312500000
21
11.7484027917
0
LWPOLYLINE
5
2CA
100
AcDbEntity
8
0
100
AcDbPolyline
62
3
6
CONTINUOUS
90
5
70
0
10
27.2171317684
20
2.9662500000
10
27.2046704235
20
2.9709650524
10
27.1497078474
20
2.9896060396
10
27.0960891286
20
3.0058074603
10
27.0570137275
20
3.0162500000
0
LINE
5
2CB
100
AcDbEntity
8
0
100
AcDbLine
62
7
6
CONTINUOUS
10
19.6312500000
20
-2.9062500000
11
19.7097918101
21
-2.9847918101
0
LINE
5
2CC
100
AcDbEntity
8
0
100
AcDbLine
62
9
6
CONTINUOUS
10
11.1812500000
20
-3.7609027917
11
11.1812500000
21
-0.9592217831
0
LINE
5
2CD
100
AcDbEntity
8
0
100
AcDbLine
62
7
6
CONTINUOUS
10
11.4812500000
20
-3.4562500000
11
11.4812500000
21
-1.2562500000
0
LINE
5
2CE
100
AcDbEntity
8
0
100
AcDbLine
62
9
6
CONTINUOUS
10
12.0312500000
20
8.9467217831
11
12.0312500000
21
11.7484027917
0
LINE
5
2CF
100
AcDbEntity
8
0
100
AcDbLine
62
7
6
CONTINUOUS
10
12.3312500000
20
9.2437500000
11
12.3312500000
21
11.4437500000
0
LINE
5
2D0
100
AcDbEntity
8
0
100
AcDbLine
62
9
6
CONTINUOUS
10
12.5312500000
20
-1.2562500000
11
12.5312500000
21
-2.3787500000
0
LINE
5
2D1
100
AcDbEntity
8
0
100
AcDbLine
62
9
6
CONTINUOUS
10
12.5312500000
20
-2.4287500000
11
12.5312500000
21
-3.4562500000
0
LINE
5
2D2
100
AcDbEntity
8
0
100
AcDbLine
62
7
6
CONTINUOUS
10
18.9679056363
20
26.4937500000
11
18.9463777229
21
26.3937500000
0
LINE
5
2D3
100
AcDbEntity
8
0
100
AcDbLine
62
3
6
CONTINUOUS
10
19.3312500000
20
9.5928359981
11
19.0462224761
21
9.2437500000
0
LWPOLYLINE
5
2D4
100
AcDbEntity
8
0
100
AcDbPolyline
62
3
6
CONTINUOUS
90
6
70
0
10
-27.5948207943
20
10.4162500000
10
-27.6011143153
20
10.4146924143
10
-27.6508385032
20
10.4008053881
10
-27.7022239810
20
10.3847204014
10
-27.7549805425
20
10.3663171160
10
-27.7551540359
20
10.3662500000
0
LWPOLYLINE
5
2D5
100
AcDbEntity
8
0
100
AcDbPolyline
62
3
6
CONTINUOUS
90
5
70
0
10
15.4171317684
20
10.3662500000
10
15.4046704235
20
10.3709650524
10
15.3497078474
20
10.3896060396
10
15.2960891286
20
10.4058074603
10
15.2570137275
20
10.4162500000
0
LINE
5
2D6
100
AcDbEntity
8
0
100
AcDbLine
62
3
6
CONTINUOUS
10
19.2462224761
20
-1.2562500000
11
19.5312500000
21
-1.6053359981
0
LINE
5
2D7
100
AcDbEntity
8
0
100
AcDbLine
62
7
6
CONTINUOUS
10
18.9679056363
20
-18.5062500000
11
18.9463777229
21
-18.4062500000
0
LINE
5
2D8
100
AcDbEntity
8
0
100
AcDbLine
62
7
6
CONTINUOUS
10
18.8614297403
20
26.4937500000
11
18.8614297403
21
26.3937500000
0
LINE
5
2D9
100
AcDbEntity
8
0
100
AcDbLine
62
7
6
CONTINUOUS
10
18.8614297403
20
-18.5062500000
11
18.8614297403
21
-18.4062500000
0
LINE
5
2DA
100
AcDbEntity
8
0
100
AcDbLine
62
7
6
CONTINUOUS
10
19.3312500000
20
11.4437500000
11
19.3312500000
21
9.2437500000
0
LINE
5
2DB
100
AcDbEntity
8
0
100
AcDbLine
62
7
6
CONTINUOUS
10
19.5312500000
20
-1.2562500000
11
19.5312500000
21
-1.6053359981
0
LINE
5
2DC
100
AcDbEntity
8
0
100
AcDbLine
62
7
6
CONTINUOUS
10
19.5312500000
20
-3.4562500000
11
19.5312500000
21
-3.2021640019
0
LINE
5
2DD
100
AcDbEntity
8
0
100
AcDbLine
62
3
6
CONTINUOUS
10
19.5312500000
20
-3.2021640019
11
19.5312500000
21
-1.6053359981
0
LINE
5
2DE
100
AcDbEntity
8
0
100
AcDbLine
62
9
6
CONTINUOUS
10
19.6312500000
20
11.7484027917
11
19.6312500000
21
8.9467217831
0
LINE
5
2DF
100
AcDbEntity
8
0
100
AcDbLine
62
7
6
CONTINUOUS
10
19.6312500000
20
-2.9062500000
11
19.6312500000
21
-1.2562500000
0
LINE
5
2E0
100
AcDbEntity
8
0
100
AcDbLine
62
7
6
CONTINUOUS
10
19.7097918101
20
-2.9847918101
11
19.7097918101
21
-3.4562500000
0
LINE
5
2E1
100
AcDbEntity
8
0
100
AcDbLine
62
7
6
CONTINUOUS
10
19.8101507897
20
-3.4562500000
11
19.8101507897
21
-1.2562500000
0
LINE
5
2E2
100
AcDbEntity
8
0
100
AcDbLine
62
7
6
CONTINUOUS
10
20.1812500000
20
-1.2562500000
11
20.1812500000
21
-3.4562500000
0
LINE
5
2E3
100
AcDbEntity
8
0
100
AcDbLine
62
9
6
CONTINUOUS
10
20.4812500000
20
-0.9592217831
11
20.4812500000
21
-3.7609027917
0
LINE
5
2E4
100
AcDbEntity
8
0
100
AcDbLine
62
7
6
CONTINUOUS
10
25.7679056363
20
26.4937500000
11
25.7463777229
21
26.3937500000
0
LINE
5
2E5
100
AcDbEntity
8
0
100
AcDbLine
62
3
6
CONTINUOUS
10
19.5312500000
20
-3.2021640019
11
19.3237896513
21
-3.4562500000
0
LINE
5
2E6
100
AcDbEntity
8
0
100
AcDbLine
62
9
6
CONTINUOUS
10
-33.1692850625
20
25.0120642309
11
32.8317850625
21
25.0120642309
0
LINE
5
2E7
100
AcDbEntity
8
0
100
AcDbLine
62
9
6
CONTINUOUS
10
-33.1775481167
20
25.9686571372
11
32.8400481167
21
25.9686571372
0
LINE
5
2E8
100
AcDbEntity
8
0
100
AcDbLine
62
3
6
CONTINUOUS
10
19.1237896513
20
11.4437500000
11
19.3312500000
21
11.1896640019
0
LINE
5
2E9
100
AcDbEntity
8
0
100
AcDbLine
62
7
6
CONTINUOUS
10
25.7679056363
20
-18.5062500000
11
25.7463777229
21
-18.4062500000
0
LINE
5
2EA
100
AcDbEntity
8
0
100
AcDbLine
62
7
6
CONTINUOUS
10
18.8945943637
20
-18.5062500000
11
18.9161222771
21
-18.4062500000
0
LINE
5
2EB
100
AcDbEntity
8
0
100
AcDbLine
62
9
6
CONTINUOUS
10
32.9816305997
20
26.3937500000
11
32.8400481167
21
25.9686571372
0
LINE
5
2EC
100
AcDbEntity
8
0
100
AcDbLine
62
7
6
CONTINUOUS
10
-33.3191305997
20
26.3937500000
11
-25.9687500000
21
26.3937500000
0
LINE
5
2ED
100
AcDbEntity
8
0
100
AcDbLine
62
7
6
CONTINUOUS
10
-19.3687500000
20
26.3937500000
11
19.0312500000
21
26.3937500000
0
LINE
5
2EE
100
AcDbEntity
8
0
100
AcDbLine
62
7
6
CONTINUOUS
10
25.6312500000
20
26.3937500000
11
32.9816305997
21
26.3937500000
0
LINE
5
2EF
100
AcDbEntity
8
0
100
AcDbLine
62
7
6
CONTINUOUS
10
25.8010702597
20
26.4937500000
11
18.8614297403
21
26.4937500000
0
LINE
5
2F0
100
AcDbEntity
8
0
100
AcDbLine
62
7
6
CONTINUOUS
10
-19.1989297403
20
26.4937500000
11
-26.1385702597
21
26.4937500000
0
LINE
5
2F1
100
AcDbEntity
8
0
100
AcDbLine
62
7
6
CONTINUOUS
10
-26.3436074782
20
27.4937500000
11
-18.9938925218
21
27.4937500000
0
LINE
5
2F2
100
AcDbEntity
8
0
100
AcDbLine
62
7
6
CONTINUOUS
10
18.6563925218
20
27.4937500000
11
26.0061074782
21
27.4937500000
0
LINE
5
2F3
100
AcDbEntity
8
0
100
AcDbLine
62
9
6
CONTINUOUS
10
32.8400481167
20
-17.9811571372
11
32.9816305997
21
-18.4062500000
0
LINE
5
2F4
100
AcDbEntity
8
0
100
AcDbLine
62
7
6
CONTINUOUS
10
18.8945943637
20
26.4937500000
11
18.9161222771
21
26.3937500000
0
LINE
5
2F5
100
AcDbEntity
8
0
100
AcDbLine
62
7
6
CONTINUOUS
10
25.8010702597
20
-18.4062500000
11
25.8010702597
21
-18.5062500000
0
LINE
5
2F6
100
AcDbEntity
8
0
100
AcDbLine
62
7
6
CONTINUOUS
10
25.8010702597
20
26.3937500000
11
25.8010702597
21
26.4937500000
0
LINE
5
2F7
100
AcDbEntity
8
0
100
AcDbLine
62
9
6
CONTINUOUS
10
33.4812500000
20
25.8935211479
11
33.3399719643
21
25.4693423698
0
LINE
5
2F8
100
AcDbEntity
8
0
100
AcDbLine
62
9
6
CONTINUOUS
10
33.3399719643
20
-17.4818423698
11
33.4812500000
21
-17.9060211479
0
LINE
5
2F9
100
AcDbEntity
8
0
100
AcDbLine
62
9
6
CONTINUOUS
10
27.7312500000
20
6.9955510806
11
27.7312500000
21
6.6937500000
0
LINE
5
2FA
100
AcDbEntity
8
0
100
AcDbLine
62
9
6
CONTINUOUS
10
27.7312500000
20
0.9919489194
11
27.7312500051
21
1.2937500000
0
LINE
5
2FB
100
AcDbEntity
8
0
100
AcDbLine
62
7
6
CONTINUOUS
10
25.6945943637
20
-18.5062500000
11
25.7161222771
21
-18.4062500000
0
LINE
5
2FC
100
AcDbEntity
8
0
100
AcDbLine
62
7
6
CONTINUOUS
10
25.6945943637
20
26.4937500000
11
25.7161222771
21
26.3937500000
0
LINE
5
2FD
100
AcDbEntity
8
0
100
AcDbLine
62
7
6
CONTINUOUS
10
30.4312500000
20
6.6937500000
11
30.4312500000
21
1.2937500000
0
LINE
5
2FE
100
AcDbEntity
8
0
100
AcDbLine
62
9
6
CONTINUOUS
10
30.7312500000
20
6.9955510806
11
30.7312500000
21
0.9919489194
0
LINE
5
2FF
100
AcDbEntity
8
0
100
AcDbLine
62
9
6
CONTINUOUS
10
32.8317850625
20
25.0120642309
11
32.8317850625
21
-17.0245642309
0
LINE
5
300
100
AcDbEntity
8
0
100
AcDbLine
62
7
6
CONTINUOUS
10
33.4812500000
20
25.8935211479
11
33.4812500000
21
-17.9060211479
0
LINE
5
301
100
AcDbEntity
8
0
100
AcDbLine
62
7
6
CONTINUOUS
10
25.5646172024
20
-18.5062500000
11
25.6312500000
21
-18.4062500000
0
LINE
5
302
100
AcDbEntity
8
0
100
AcDbLine
62
7
6
CONTINUOUS
10
25.6312500000
20
26.3937500000
11
25.5646172024
21
26.4937500000
0
LINE
5
303
100
AcDbEntity
8
0
100
AcDbLine
62
7
6
CONTINUOUS
10
-68.2853204400
20
-19.5062500000
11
-64.2853204400
21
-19.4364297403
0
LINE
5
304
100
AcDbEntity
8
0
100
AcDbLine
62
7
6
CONTINUOUS
10
-62.1358249561
20
-18.2062500000
11
-62.6853204400
21
-18.2062500000
0
LINE
5
305
100
AcDbEntity
8
0
100
AcDbLine
62
7
6
CONTINUOUS
10
-76.3965754599
20
-17.9811571372
11
-68.2853204400
21
-18.4062500000
0
LINE
5
306
100
AcDbEntity
8
0
100
AcDbLine
62
9
6
CONTINUOUS
10
-76.3791336850
20
-17.4818423698
11
-68.2853204400
21
-17.9060211479
0
LINE
5
307
100
AcDbEntity
8
0
100
AcDbLine
62
9
6
CONTINUOUS
10
-76.8525237420
20
-17.0035459167
11
-77.3433247887
21
-17.0245629507
0
LINE
5
308
100
AcDbEntity
8
0
100
AcDbLine
62
7
6
CONTINUOUS
10
-60.3144656420
20
-17.1369384717
11
-64.0888109212
21
-17.2028199136
0
LINE
5
309
100
AcDbEntity
8
0
100
AcDbLine
62
7
6
CONTINUOUS
10
-58.0090794142
20
-13.5014281950
11
-44.7765942367
21
-13.2704543070
0
LINE
5
30A
100
AcDbEntity
8
0
100
AcDbLine
62
7
6
CONTINUOUS
10
-44.0957873885
20
-10.9963169937
11
-42.5696193743
21
-10.9163339172
0
LINE
5
30B
100
AcDbEntity
8
0
100
AcDbLine
62
9
6
CONTINUOUS
10
-58.7765942367
20
-13.3259791142
11
-57.5479170809
21
-13.3043841874
0
LINE
5
30C
100
AcDbEntity
8
0
100
AcDbLine
62
9
6
CONTINUOUS
10
-44.2853204400
20
-11.9827180899
11
-44.7765942367
21
-11.9827180897
0
LINE
5
30D
100
AcDbEntity
8
0
100
AcDbLine
62
9
6
CONTINUOUS
10
-42.2853204400
20
-8.2562500000
11
-44.2853204400
21
-8.2562500000
0
LINE
5
30E
100
AcDbEntity
8
0
100
AcDbLine
62
7
6
CONTINUOUS
10
-44.2853204400
20
-8.2062500000
11
-44.0853204400
21
-8.2062500000
0
LINE
5
30F
100
AcDbEntity
8
0
100
AcDbLine
62
7
6
CONTINUOUS
10
-44.2853204400
20
-7.9062500000
11
-44.0853204400
21
-7.9062500000
0
LINE
5
310
100
AcDbEntity
8
0
100
AcDbLine
62
7
6
CONTINUOUS
10
-44.2853204400
20
-7.5564003682
11
-44.0853204400
21
-7.5564003682
0
LINE
5
311
100
AcDbEntity
8
0
100
AcDbLine
62
7
6
CONTINUOUS
10
-44.2853204400
20
-7.5312610000
11
-44.0853204400
21
-7.5312610000
0
LINE
5
312
100
AcDbEntity
8
0
100
AcDbLine
62
7
6
CONTINUOUS
10
-44.0853204400
20
-7.1027589870
11
-42.4818299587
21
-7.0747699566
0
LINE
5
313
100
AcDbEntity
8
0
100
AcDbLine
62
7
6
CONTINUOUS
10
-44.2853204400
20
-7.3552830000
11
-44.0853204400
21
-7.3552830000
0
LINE
5
314
100
AcDbEntity
8
0
100
AcDbLine
62
7
6
CONTINUOUS
10
-44.2853204400
20
-6.8943890000
11
-44.0853204400
21
-6.8943890000
0
LINE
5
315
100
AcDbEntity
8
0
100
AcDbLine
62
7
6
CONTINUOUS
10
-44.2853204400
20
-6.7184120000
11
-44.0853204400
21
-6.7184120000
0
LINE
5
316
100
AcDbEntity
8
0
100
AcDbLine
62
7
6
CONTINUOUS
10
-44.2853204400
20
-6.2072380000
11
-44.0853204400
21
-6.2072380000
0
LINE
5
317
100
AcDbEntity
8
0
100
AcDbLine
62
7
6
CONTINUOUS
10
-44.2853204400
20
-6.0312610000
11
-44.0853204400
21
-6.0312610000
0
LINE
5
318
100
AcDbEntity
8
0
100
AcDbLine
62
7
6
CONTINUOUS
10
-44.0853204400
20
-6.0061210383
11
-44.2853204400
21
-6.0061210383
0
LINE
5
319
100
AcDbEntity
8
0
100
AcDbLine
62
7
6
CONTINUOUS
10
-68.2853204400
20
-18.7355917812
11
-68.2853204400
21
-19.5062500000
0
LINE
5
31A
100
AcDbEntity
8
0
100
AcDbLine
62
7
6
CONTINUOUS
10
-68.2853204400
20
-18.6694166220
11
-68.2853204400
21
27.4937500000
0
LINE
5
31B
100
AcDbEntity
8
0
100
AcDbLine
62
7
6
CONTINUOUS
10
-44.2853204400
20
-5.5062500000
11
-44.0853204400
21
-5.5062500000
0
LINE
5
31C
100
AcDbEntity
8
0
100
AcDbLine
62
7
6
CONTINUOUS
10
-44.2853204400
20
-5.2062500000
11
-44.0853204400
21
-5.2062500000
0
LINE
5
31D
100
AcDbEntity
8
0
100
AcDbLine
62
7
6
CONTINUOUS
10
-44.2853204400
20
-5.0067910000
11
-44.0853204400
21
-5.0067910000
0
LINE
5
31E
100
AcDbEntity
8
0
100
AcDbLine
62
7
6
CONTINUOUS
10
-44.2853204400
20
-3.2062500000
11
-44.0853204400
21
-3.2062500000
0
LINE
5
31F
100
AcDbEntity
8
0
100
AcDbLine
62
7
6
CONTINUOUS
10
-64.2853204400
20
-19.4364297403
11
-64.2853204400
21
-17.4027894526
0
LINE
5
320
100
AcDbEntity
8
0
100
AcDbLine
62
7
6
CONTINUOUS
10
-64.2853204400
20
25.3902894526
11
-64.2853204400
21
27.4239297403
0
LINE
5
321
100
AcDbEntity
8
0
100
AcDbLine
62
9
6
CONTINUOUS
10
-44.2853204400
20
-0.4546942159
11
-44.7765942367
21
-0.4546942159
0
LINE
5
322
100
AcDbEntity
8
0
100
AcDbLine
62
7
6
CONTINUOUS
10
-44.2853204400
20
-0.3062500000
11
-44.0853204400
21
-0.3062500000
0
LINE
5
323
100
AcDbEntity
8
0
100
AcDbLine
62
7
6
CONTINUOUS
10
-44.2853204400
20
-1.1062500000
11
-42.4818299587
21
-1.1377300434
0
LINE
5
324
100
AcDbEntity
8
0
100
AcDbLine
62
9
6
CONTINUOUS
10
-44.7765942367
20
-0.4546942159
11
-53.7765942367
21
-0.2975986316
0
LINE
5
325
100
AcDbEntity
8
0
100
AcDbLine
62
7
6
CONTINUOUS
10
-44.7765942367
20
0.0452296317
11
-53.2853204400
21
0.1937500000
0
LINE
5
326
100
AcDbEntity
8
0
100
AcDbLine
62
7
6
CONTINUOUS
10
-62.6853204400
20
26.1937500000
11
-62.6853204400
21
25.1658218961
0
LINE
5
327
100
AcDbEntity
8
0
100
AcDbLine
62
7
6
CONTINUOUS
10
-62.6853204400
20
-18.2062500000
11
-62.6853204400
21
-17.1783218961
0
LINE
5
328
100
AcDbEntity
8
0
100
AcDbLine
62
7
6
CONTINUOUS
10
-44.0853204400
20
1.6972410130
11
-42.4818299587
21
1.7252300434
0
LINE
5
329
100
AcDbEntity
8
0
100
AcDbLine
62
7
6
CONTINUOUS
10
-44.2853204400
20
0.5937501275
11
-44.0853204400
21
0.5941789860
0
LINE
5
32A
100
AcDbEntity
8
0
100
AcDbLine
62
7
6
CONTINUOUS
10
-44.2853204400
20
1.1109949644
11
-44.0853204400
21
1.1109950000
0
LINE
5
32B
100
AcDbEntity
8
0
100
AcDbLine
62
7
6
CONTINUOUS
10
-44.2853204400
20
1.1680049797
11
-44.0853204400
21
1.1680050000
0
LINE
5
32C
100
AcDbEntity
8
0
100
AcDbLine
62
7
6
CONTINUOUS
10
-44.2853204400
20
1.4771520000
11
-44.0853204400
21
1.4771520000
0
LINE
5
32D
100
AcDbEntity
8
0
100
AcDbLine
62
7
6
CONTINUOUS
10
-44.2853204400
20
2.1225064615
11
-44.0853204400
21
2.1225070000
0
LINE
5
32E
100
AcDbEntity
8
0
100
AcDbLine
62
7
6
CONTINUOUS
10
-44.0957873885
20
4.0036830063
11
-42.5696193743
21
4.0836660828
0
LINE
5
32F
100
AcDbEntity
8
0
100
AcDbLine
62
7
6
CONTINUOUS
10
-44.0853204400
20
2.3941789863
11
-44.2853204400
21
2.3941789863
0
LINE
5
330
100
AcDbEntity
8
0
100
AcDbLine
62
7
6
CONTINUOUS
10
-44.2853204400
20
3.2182896318
11
-44.1353204400
21
3.2182896318
0
LINE
5
331
100
AcDbEntity
8
0
100
AcDbLine
62
7
6
CONTINUOUS
10
-44.2853204400
20
3.5959423621
11
-44.1353204400
21
3.5959423621
0
LINE
5
332
100
AcDbEntity
8
0
100
AcDbLine
62
7
6
CONTINUOUS
10
-44.2853204400
20
3.6107938472
11
-44.1353204400
21
3.6107938472
0
LINE
5
333
100
AcDbEntity
8
0
100
AcDbLine
62
7
6
CONTINUOUS
10
-44.2853204400
20
3.7571402369
11
-44.1353204400
21
3.7571402369
0
LINE
5
334
100
AcDbEntity
8
0
100
AcDbLine
62
9
6
CONTINUOUS
10
-58.7765942367
20
-15.4483643208
11
-58.7765942367
21
-13.3259791142
0
LINE
5
335
100
AcDbEntity
8
0
100
AcDbLine
62
9
6
CONTINUOUS
10
-58.7765942367
20
13.5024013684
11
-58.7765942367
21
20.0556454923
0
LINE
5
336
100
AcDbEntity
8
0
100
AcDbLine
62
9
6
CONTINUOUS
10
-58.7765942367
20
21.2989097608
11
-58.7765942367
21
23.4360321763
0
LINE
5
337
100
AcDbEntity
8
0
100
AcDbLine
62
7
6
CONTINUOUS
10
-58.2853204400
20
-15.0991432188
11
-58.2853204400
21
-13.9975986316
0
LINE
5
338
100
AcDbEntity
8
0
100
AcDbLine
62
7
6
CONTINUOUS
10
-58.2853204400
20
14.4849515737
11
-58.2853204400
21
23.0866432188
0
LINE
5
339
100
AcDbEntity
8
0
100
AcDbLine
62
9
6
CONTINUOUS
10
-44.2853204400
20
5.2510523576
11
-44.7765942367
21
5.2510523576
0
LINE
5
33A
100
AcDbEntity
8
0
100
AcDbLine
62
9
6
CONTINUOUS
10
-57.7940466432
20
20.9852509364
11
-57.7940466432
21
13.9851747840
0
LINE
5
33B
100
AcDbEntity
8
0
100
AcDbLine
62
9
6
CONTINUOUS
10
-42.2853204400
20
6.7437500000
11
-44.6443412179
21
6.7437500019
0
LINE
5
33C
100
AcDbEntity
8
0
100
AcDbLine
62
7
6
CONTINUOUS
10
-53.2853204400
20
9.1937500000
11
-44.7765942367
21
9.3422703683
0
LINE
5
33D
100
AcDbEntity
8
0
100
AcDbLine
62
9
6
CONTINUOUS
10
-53.7765942367
20
9.6850986316
11
-44.7765942367
21
9.8421942159
0
LINE
5
33E
100
AcDbEntity
8
0
100
AcDbLine
62
9
6
CONTINUOUS
10
-42.2853204400
20
8.8437500000
11
-44.6443412179
21
8.8437500000
0
LINE
5
33F
100
AcDbEntity
8
0
100
AcDbLine
62
9
6
CONTINUOUS
10
-44.2853204400
20
9.8421942159
11
-44.7765942367
21
9.8421942159
0
LINE
5
340
100
AcDbEntity
8
0
100
AcDbLine
62
9
6
CONTINUOUS
10
-53.7765942367
20
-0.2975986316
11
-53.7765942367
21
9.6850986316
0
LINE
5
341
100
AcDbEntity
8
0
100
AcDbLine
62
7
6
CONTINUOUS
10
-53.2853204400
20
0.1937500000
11
-53.2853204400
21
9.1937500000
0
LINE
5
342
100
AcDbEntity
8
0
100
AcDbLine
62
9
6
CONTINUOUS
10
-44.2853204400
20
13.2580304594
11
-44.7765942367
21
13.2580304594
0
LINE
5
343
100
AcDbEntity
8
0
100
AcDbLine
62
9
6
CONTINUOUS
10
-44.7765942367
20
13.2580304594
11
-58.7765942367
21
13.5024013684
0
LINE
5
344
100
AcDbEntity
8
0
100
AcDbLine
62
7
6
CONTINUOUS
10
-44.7765942367
20
13.7579543070
11
-57.7940466432
21
13.9851747840
0
LINE
5
345
100
AcDbEntity
8
0
100
AcDbLine
62
7
6
CONTINUOUS
10
-44.0957876039
20
11.5838170050
11
-42.5696196328
21
11.5038339308
0
LINE
5
346
100
AcDbEntity
8
0
100
AcDbLine
62
9
6
CONTINUOUS
10
-42.2853204400
20
14.1437500000
11
-44.2853204400
21
14.1437500000
0
LINE
5
347
100
AcDbEntity
8
0
100
AcDbLine
62
9
6
CONTINUOUS
10
-42.2853204400
20
16.2437500000
11
-44.2853204400
21
16.2437500000
0
LINE
5
348
100
AcDbEntity
8
0
100
AcDbLine
62
9
6
CONTINUOUS
10
-44.7765942367
20
20.7580304594
11
-44.7765942367
21
13.7579543070
0
LINE
5
349
100
AcDbEntity
8
0
100
AcDbLine
62
9
6
CONTINUOUS
10
-44.7765942367
20
13.2580304594
11
-44.7765942367
21
9.8421942159
0
LINE
5
34A
100
AcDbEntity
8
0
100
AcDbLine
62
9
6
CONTINUOUS
10
-44.7765942367
20
5.2510523576
11
-44.7765942367
21
0.0452296317
0
LINE
5
34B
100
AcDbEntity
8
0
100
AcDbLine
62
9
6
CONTINUOUS
10
-44.7765942367
20
-0.4546942159
11
-44.7765942367
21
-11.9827180899
0
LINE
5
34C
100
AcDbEntity
8
0
100
AcDbLine
62
9
6
CONTINUOUS
10
-44.6443412179
20
8.8437500000
11
-44.6443412179
21
6.7437500019
0
LINE
5
34D
100
AcDbEntity
8
0
100
AcDbLine
62
7
6
CONTINUOUS
10
-44.2853204400
20
20.7580304594
11
-44.2853204400
21
9.8421942159
0
LINE
5
34E
100
AcDbEntity
8
0
100
AcDbLine
62
7
6
CONTINUOUS
10
-44.2853204400
20
5.2510523576
11
-44.2853204400
21
-12.7705304594
0
LINE
5
34F
100
AcDbEntity
8
0
100
AcDbLine
62
9
6
CONTINUOUS
10
-44.2475338631
20
8.8437500001
11
-44.2475338631
21
6.7437500019
0
LINE
5
350
100
AcDbEntity
8
0
100
AcDbLine
62
7
6
CONTINUOUS
10
-44.1353204400
20
3.9972054510
11
-44.1353204400
21
3.2179245402
0
LINE
5
351
100
AcDbEntity
8
0
100
AcDbLine
62
9
6
CONTINUOUS
10
-44.0957876312
20
-8.2062500000
11
-44.0957874065
21
-10.9963169894
0
LINE
5
352
100
AcDbEntity
8
0
100
AcDbLine
62
9
6
CONTINUOUS
10
-44.0957876229
20
18.9838170001
11
-44.0957874065
21
4.0036830106
0
LINE
5
353
100
AcDbEntity
8
0
100
AcDbLine
62
7
6
CONTINUOUS
10
-44.0853204400
20
2.3941951165
11
-44.0853204400
21
1.4771520000
0
LINE
5
354
100
AcDbEntity
8
0
100
AcDbLine
62
7
6
CONTINUOUS
10
-44.0853204400
20
1.4317554112
11
-44.0853204400
21
-1.1097410130
0
LINE
5
355
100
AcDbEntity
8
0
100
AcDbLine
62
7
6
CONTINUOUS
10
-44.0853204400
20
-3.2062500000
11
-44.0853204400
21
-5.0067910000
0
LINE
5
356
100
AcDbEntity
8
0
100
AcDbLine
62
7
6
CONTINUOUS
10
-44.0853204400
20
-5.2062500000
11
-44.0853204400
21
-6.0059447232
0
LINE
5
357
100
AcDbEntity
8
0
100
AcDbLine
62
7
6
CONTINUOUS
10
-44.0853204400
20
-6.0312610000
11
-44.0853204400
21
-8.2062500000
0
LINE
5
358
100
AcDbEntity
8
0
100
AcDbLine
62
7
6
CONTINUOUS
10
-58.4317670494
20
-15.4526966094
11
-60.6413909416
21
-17.6623205017
0
LINE
5
359
100
AcDbEntity
8
0
100
AcDbLine
62
7
6
CONTINUOUS
10
-44.0957876039
20
18.9838170050
11
-42.5696196328
21
18.9038339308
0
LINE
5
35A
100
AcDbEntity
8
0
100
AcDbLine
62
7
6
CONTINUOUS
10
-60.6413909416
20
25.6498205017
11
-58.4317670494
21
23.4401966094
0
LINE
5
35B
100
AcDbEntity
8
0
100
AcDbLine
62
9
6
CONTINUOUS
10
-42.5696196531
20
-7.0747699566
11
-42.5696194206
21
-10.9163339187
0
LINE
5
35C
100
AcDbEntity
8
0
100
AcDbLine
62
9
6
CONTINUOUS
10
-42.5696196676
20
18.9038339319
11
-42.5696194206
21
4.0836660813
0
LINE
5
35D
100
AcDbEntity
8
0
100
AcDbLine
62
9
6
CONTINUOUS
10
-42.4818299225
20
11.5022703487
11
-42.4818299218
21
11.4852296510
0
LINE
5
35E
100
AcDbEntity
8
0
100
AcDbLine
62
9
6
CONTINUOUS
10
-42.4818299225
20
4.1022703487
11
-42.4818299587
21
1.7252300434
0
LINE
5
35F
100
AcDbEntity
8
0
100
AcDbLine
62
9
6
CONTINUOUS
10
-42.4818299587
20
-1.1377300434
11
-42.4818299587
21
-7.0747699566
0
LINE
5
360
100
AcDbEntity
8
0
100
AcDbLine
62
7
6
CONTINUOUS
10
-42.2853204400
20
18.6041263816
11
-42.2853204400
21
1.9251995825
0
LINE
5
361
100
AcDbEntity
8
0
100
AcDbLine
62
7
6
CONTINUOUS
10
-42.2853204400
20
-1.3376995825
11
-42.2853204400
21
-10.6166268089
0
LINE
5
362
100
AcDbEntity
8
0
100
AcDbLine
62
9
6
CONTINUOUS
10
-58.7765942367
20
20.0556454923
11
-58.2853204400
21
20.0556454923
0
LINE
5
363
100
AcDbEntity
8
0
100
AcDbLine
62
9
6
CONTINUOUS
10
-44.7765942367
20
20.7580304594
11
-44.2853204400
21
20.7580304594
0
LINE
5
364
100
AcDbEntity
8
0
100
AcDbLine
62
9
6
CONTINUOUS
10
-58.2853204400
20
20.9852509364
11
-57.7940466432
21
20.9852509364
0
LINE
5
365
100
AcDbEntity
8
0
100
AcDbLine
62
9
6
CONTINUOUS
10
-44.7765942367
20
20.7580304594
11
-57.7940466432
21
20.9852509364
0
LINE
5
366
100
AcDbEntity
8
0
100
AcDbLine
62
7
6
CONTINUOUS
10
-44.7765942367
20
21.2579543070
11
-57.7940466432
21
21.4851747840
0
LINE
5
367
100
AcDbEntity
8
0
100
AcDbLine
62
7
6
CONTINUOUS
10
-62.1358249561
20
-18.2062500000
11
-60.6413909416
21
-17.6623205017
0
LINE
5
368
100
AcDbEntity
8
0
100
AcDbLine
62
7
6
CONTINUOUS
10
-64.0888109212
20
25.1903199136
11
-60.3144656420
21
25.1244384717
0
LINE
5
369
100
AcDbEntity
8
0
100
AcDbLine
62
9
6
CONTINUOUS
10
-76.8525237420
20
24.9910459167
11
-77.3433555558
21
25.0120642302
0
LINE
5
36A
100
AcDbEntity
8
0
100
AcDbLine
62
7
6
CONTINUOUS
10
-62.1358249561
20
26.1937500000
11
-60.6413909416
21
25.6498205017
0
LINE
5
36B
100
AcDbEntity
8
0
100
AcDbLine
62
9
6
CONTINUOUS
10
-68.2853204400
20
25.8935211479
11
-76.3791336850
21
25.4693423698
0
LINE
5
36C
100
AcDbEntity
8
0
100
AcDbLine
62
7
6
CONTINUOUS
10
-68.2853204400
20
26.3937500000
11
-76.3965754639
21
25.9686571370
0
LINE
5
36D
100
AcDbEntity
8
0
100
AcDbLine
62
7
6
CONTINUOUS
10
-62.1358249561
20
26.1937500000
11
-62.6853204400
21
26.1937500000
0
LINE
5
36E
100
AcDbEntity
8
0
100
AcDbLine
62
7
6
CONTINUOUS
10
-68.2853204400
20
27.4937500000
11
-64.2853204400
21
27.4239297403
0
ARC
5
36F
100
AcDbEntity
8
0
100
AcDbCircle
62
7
6
CONTINUOUS
10
11.0812500000
20
3.9937500000
40
28.0000000000
100
AcDbArc
50
305.9627651514
51
306.8614108133
0
ARC
5
370
100
AcDbEntity
8
0
100
AcDbCircle
62
7
6
CONTINUOUS
10
11.0812500000
20
3.9937500000
40
28.0000000000
100
AcDbArc
50
303.5572123136
51
304.1210936517
0
ARC
5
371
100
AcDbEntity
8
0
100
AcDbCircle
62
7
6
CONTINUOUS
10
33.5812500000
20
3.9937500000
40
28.0000000000
100
AcDbArc
50
235.8789063483
51
236.4427876864
0
ARC
5
372
100
AcDbEntity
8
0
100
AcDbCircle
62
7
6
CONTINUOUS
10
33.5812500000
20
3.9937500000
40
28.0000000000
100
AcDbArc
50
233.1306352597
51
234.0372348486
0
ARC
5
373
100
AcDbEntity
8
0
100
AcDbCircle
62
7
6
CONTINUOUS
10
-33.9187500000
20
3.9937500000
40
28.0000000000
100
AcDbArc
50
305.9627651514
51
306.8693647403
0
ARC
5
374
100
AcDbEntity
8
0
100
AcDbCircle
62
7
6
CONTINUOUS
10
-33.9187500000
20
3.9937500000
40
28.0000000000
100
AcDbArc
50
303.5572123136
51
304.1210936517
0
ARC
5
375
100
AcDbEntity
8
0
100
AcDbCircle
62
7
6
CONTINUOUS
10
-11.4187500000
20
3.9937500000
40
28.0000000000
100
AcDbArc
50
235.8789063483
51
236.4427876864
0
ARC
5
376
100
AcDbEntity
8
0
100
AcDbCircle
62
7
6
CONTINUOUS
10
-11.4187500000
20
3.9937500000
40
28.0000000000
100
AcDbArc
50
233.1385891867
51
234.0372348486
0
ARC
5
377
100
AcDbEntity
8
0
100
AcDbCircle
62
7
6
CONTINUOUS
10
-11.4187500000
20
3.9937500000
40
28.0000000000
100
AcDbArc
50
125.9627651514
51
126.8614108133
0
ARC
5
378
100
AcDbEntity
8
0
100
AcDbCircle
62
7
6
CONTINUOUS
10
-11.4187500000
20
3.9937500000
40
28.0000000000
100
AcDbArc
50
123.5572123136
51
124.1210936517
0
ARC
5
379
100
AcDbEntity
8
0
100
AcDbCircle
62
7
6
CONTINUOUS
10
-33.9187500000
20
3.9937500000
40
28.0000000000
100
AcDbArc
50
55.8789063483
51
56.4427876864
0
ARC
5
37A
100
AcDbEntity
8
0
100
AcDbCircle
62
7
6
CONTINUOUS
10
-33.9187500000
20
3.9937500000
40
28.0000000000
100
AcDbArc
50
53.1306352597
51
54.0372348486
0
ARC
5
37B
100
AcDbEntity
8
0
100
AcDbCircle
62
7
6
CONTINUOUS
10
33.5812500000
20
3.9937500000
40
28.0000000000
100
AcDbArc
50
125.9627651514
51
126.8693647403
0
ARC
5
37C
100
AcDbEntity
8
0
100
AcDbCircle
62
7
6
CONTINUOUS
10
33.5812500000
20
3.9937500000
40
28.0000000000
100
AcDbArc
50
123.5572123136
51
124.1210936517
0
ARC
5
37D
100
AcDbEntity
8
0
100
AcDbCircle
62
7
6
CONTINUOUS
10
11.0812500000
20
3.9937500000
40
28.0000000000
100
AcDbArc
50
55.8789063483
51
56.4427876864
0
ARC
5
37E
100
AcDbEntity
8
0
100
AcDbCircle
62
7
6
CONTINUOUS
10
11.0812500000
20
3.9937500000
40
28.0000000000
100
AcDbArc
50
53.1385891867
51
54.0372348486
0
ARC
5
37F
100
AcDbEntity
8
0
100
AcDbCircle
62
7
6
CONTINUOUS
10
-17.7187500000
20
27.0937500000
40
0.5000000000
100
AcDbArc
50
170.8037184210
51
299.1124227760
0
ARC
5
380
100
AcDbEntity
8
0
100
AcDbCircle
62
7
6
CONTINUOUS
10
-27.6187500000
20
27.0937500000
40
0.5000000000
100
AcDbArc
50
240.8875772240
51
9.1962815790
0
ARC
5
381
100
AcDbEntity
8
0
100
AcDbCircle
62
7
6
CONTINUOUS
10
17.3812500000
20
27.0937500000
40
0.5000000000
100
AcDbArc
50
240.8875772240
51
9.1962815790
0
ARC
5
382
100
AcDbEntity
8
0
100
AcDbCircle
62
7
6
CONTINUOUS
10
27.2812500000
20
27.0937500000
40
0.5000000000
100
AcDbArc
50
170.8037184210
51
299.1124227760
0
ARC
5
383
100
AcDbEntity
8
0
100
AcDbCircle
62
7
6
CONTINUOUS
10
-17.7187500000
20
-19.1062500000
40
0.5000000000
100
AcDbArc
50
60.8875772240
51
189.1962815790
0
ARC
5
384
100
AcDbEntity
8
0
100
AcDbCircle
62
7
6
CONTINUOUS
10
-27.6187500000
20
-19.1062500000
40
0.5000000000
100
AcDbArc
50
350.8037184210
51
119.1124227760
0
ARC
5
385
100
AcDbEntity
8
0
100
AcDbCircle
62
7
6
CONTINUOUS
10
17.3812500000
20
-19.1062500000
40
0.5000000000
100
AcDbArc
50
350.8037184210
51
119.1124227760
0
ARC
5
386
100
AcDbEntity
8
0
100
AcDbCircle
62
7
6
CONTINUOUS
10
27.2812500000
20
-19.1062500000
40
0.5000000000
100
AcDbArc
50
60.8875772240
51
189.1962815790
0
ARC
5
387
100
AcDbEntity
8
0
100
AcDbCircle
62
7
6
CONTINUOUS
10
-21.6687500000
20
-2.2062500000
40
0.6000000000
100
AcDbArc
50
104.5157437541
51
180.0000000000
0
ARC
5
388
100
AcDbEntity
8
0
100
AcDbCircle
62
9
6
CONTINUOUS
10
-21.6687500000
20
-2.2063095519
40
0.4297504618
100
AcDbArc
50
110.4611929195
51
179.9961696695
0
ARC
5
389
100
AcDbEntity
8
0
100
AcDbCircle
62
7
6
CONTINUOUS
10
27.7312500000
20
3.9937500000
40
2.7000000000
100
AcDbArc
50
90.0000000000
51
270.0000000000
0
ARC
5
38A
100
AcDbEntity
8
0
100
AcDbCircle
62
7
6
CONTINUOUS
10
-14.2687500000
20
3.9937500000
40
2.7000000000
100
AcDbArc
50
90.0000000000
51
270.0000000000
0
ARC
5
38B
100
AcDbEntity
8
0
100
AcDbCircle
62
3
6
CONTINUOUS
10
-22.1687500000
20
-1.6037500000
40
0.1000000000
100
AcDbArc
50
90.0000000000
51
180.0000000000
0
ARC
5
38C
100
AcDbEntity
8
0
100
AcDbCircle
62
7
6
CONTINUOUS
10
-76.3442395036
20
24.9700276025
40
1.0000000000
100
AcDbArc
50
93.0000000000
51
177.5907686986
0
ARC
5
38D
100
AcDbEntity
8
0
100
AcDbCircle
62
7
6
CONTINUOUS
10
422.2146795600
20
3.9937500000
40
500.0000000000
100
AcDbArc
50
177.5907686986
51
182.4092313014
0
ARC
5
38E
100
AcDbEntity
8
0
100
AcDbCircle
62
7
6
CONTINUOUS
10
-76.3442395036
20
-16.9825276025
40
1.0000000000
100
AcDbArc
50
182.4092313014
51
267.0000000000
0
ARC
5
38F
100
AcDbEntity
8
0
100
AcDbCircle
62
7
6
CONTINUOUS
10
-42.4853204400
20
-1.3376995825
40
0.2000000000
100
AcDbArc
50
0.0000000000
51
88.9999999831
0
ARC
5
390
100
AcDbEntity
8
0
100
AcDbCircle
62
7
6
CONTINUOUS
10
-42.4853204400
20
-6.8748004175
40
0.2000000000
100
AcDbArc
50
271.0000000291
51
360.0000000000
0
ARC
5
391
100
AcDbEntity
8
0
100
AcDbCircle
62
7
6
CONTINUOUS
10
-42.4853204400
20
1.9251995825
40
0.2000000000
100
AcDbArc
50
271.0000000291
51
360.0000000000
0
ARC
5
392
100
AcDbEntity
8
0
100
AcDbCircle
62
7
6
CONTINUOUS
10
-44.0853204400
20
-11.1960429133
40
0.2000000000
100
AcDbArc
50
92.9999303762
51
179.9986900138
0
ARC
5
393
100
AcDbEntity
8
0
100
AcDbCircle
62
7
6
CONTINUOUS
10
-44.0853204400
20
19.1835429133
40
0.2000000000
100
AcDbArc
50
180.0001430017
51
267.0000078456
0
ARC
5
394
100
AcDbEntity
8
0
100
AcDbCircle
62
7
6
CONTINUOUS
10
-44.0853204400
20
3.8039570867
40
0.2000000000
100
AcDbArc
50
92.9999303762
51
180.0000000000
0
ARC
5
395
100
AcDbEntity
8
0
100
AcDbCircle
62
7
6
CONTINUOUS
10
-44.0853204400
20
11.7835429133
40
0.2000000000
100
AcDbArc
50
180.0000000000
51
267.0000078456
0
ARC
5
396
100
AcDbEntity
8
0
100
AcDbCircle
62
7
6
CONTINUOUS
10
-42.5853204400
20
4.3832549286
40
0.3000000000
100
AcDbArc
50
273.0000533236
51
360.0000000000
0
ARC
5
397
100
AcDbEntity
8
0
100
AcDbCircle
62
7
6
CONTINUOUS
10
-42.5853204400
20
11.2042450714
40
0.3000000000
100
AcDbArc
50
0.0000000000
51
86.9999961251
0
ARC
5
398
100
AcDbEntity
8
0
100
AcDbCircle
62
7
6
CONTINUOUS
10
-42.5853204400
20
11.7832549286
40
0.3000000000
100
AcDbArc
50
284.7983920523
51
360.0000000000
0
ARC
5
399
100
AcDbEntity
8
0
100
AcDbCircle
62
7
6
CONTINUOUS
10
-42.5853204400
20
18.6042450714
40
0.3000000000
100
AcDbArc
50
0.0000000000
51
86.9999961251
0
ARC
5
39A
100
AcDbEntity
8
0
100
AcDbCircle
62
7
6
CONTINUOUS
10
-42.5853204400
20
-10.6167450714
40
0.3000000000
100
AcDbArc
50
273.0000533236
51
360.0000000000
0
ARC
5
39B
100
AcDbEntity
8
0
100
AcDbCircle
62
7
6
CONTINUOUS
10
-64.0853204400
20
25.3902894526
40
0.2000000000
100
AcDbArc
50
180.0000000000
51
269.0000000000
0
ARC
5
39C
100
AcDbEntity
8
0
100
AcDbCircle
62
7
6
CONTINUOUS
10
-64.0853204400
20
-17.4027894526
40
0.2000000000
100
AcDbArc
50
91.0000000000
51
180.0000000000
0
ARC
5
39D
100
AcDbEntity
8
0
100
AcDbCircle
62
7
6
CONTINUOUS
10
-57.7853204400
20
14.4850952390
40
0.4999983040
100
AcDbArc
50
179.9996112472
51
268.9999932153
0
ARC
5
39E
100
AcDbEntity
8
0
100
AcDbCircle
62
7
6
CONTINUOUS
10
-57.7853204400
20
21.9850986316
40
0.5000000000
100
AcDbArc
50
179.9999680526
51
269.0000000000
0
ARC
5
39F
100
AcDbEntity
8
0
100
AcDbCircle
62
7
6
CONTINUOUS
10
-57.7853208319
20
-13.9975986384
40
0.4999998040
100
AcDbArc
50
90.9999550833
51
180.0000000000
0
ARC
5
3A0
100
AcDbEntity
8
0
100
AcDbCircle
62
7
6
CONTINUOUS
10
-44.7853204400
20
9.8421942159
40
0.5000000000
100
AcDbArc
50
271.0000000000
51
360.0000000000
0
ARC
5
3A1
100
AcDbEntity
8
0
100
AcDbCircle
62
7
6
CONTINUOUS
10
-44.7853204400
20
-0.4546942159
40
0.5000000000
100
AcDbArc
50
0.0000000000
51
89.0000000000
0
ARC
5
3A2
100
AcDbEntity
8
0
100
AcDbCircle
62
7
6
CONTINUOUS
10
-60.3231918452
20
24.6245146241
40
0.5000000000
100
AcDbArc
50
45.0000000000
51
89.0000000000
0
ARC
5
3A3
100
AcDbEntity
8
0
100
AcDbCircle
62
7
6
CONTINUOUS
10
-58.7853204400
20
23.0866432188
40
0.5000000000
100
AcDbArc
50
0.0000000000
51
45.0000000000
0
ARC
5
3A4
100
AcDbEntity
8
0
100
AcDbCircle
62
7
6
CONTINUOUS
10
-58.7853204400
20
-15.0991432188
40
0.5000000000
100
AcDbArc
50
315.0000000000
51
360.0000000000
0
ARC
5
3A5
100
AcDbEntity
8
0
100
AcDbCircle
62
7
6
CONTINUOUS
10
-60.3231918452
20
-16.6370146241
40
0.5000000000
100
AcDbArc
50
271.0000000000
51
315.0000000000
0
ARC
5
3A6
100
AcDbEntity
8
0
100
AcDbCircle
62
7
6
CONTINUOUS
10
-44.7853204400
20
13.2580304594
40
0.5000000000
100
AcDbArc
50
0.0000000000
51
89.0000000000
0
ARC
5
3A7
100
AcDbEntity
8
0
100
AcDbCircle
62
7
6
CONTINUOUS
10
-44.7853204400
20
20.7580304594
40
0.5000000000
100
AcDbArc
50
0.0000000000
51
89.0000000000
0
ARC
5
3A8
100
AcDbEntity
8
0
100
AcDbCircle
62
7
6
CONTINUOUS
10
-44.7853204400
20
-12.7705304594
40
0.5000000000
100
AcDbArc
50
271.0000000000
51
360.0000000000
0
SPLINE
5
3A9
100
AcDbEntity
8
0
100
AcDbSpline
62
7
6
CONTINUOUS
70
0
71
3
72
10
73
6
74
4
42
0.0000001000
43
0.0000001000
44
0.0000000001
12
-0.4872214542
22
0.3231849574
32
0.0000000000
13
-0.5846650855
23
0.0000000000
33
0.0000000000
40
0.0000000000
40
0.0000000000
40
0.0000000000
40
0.0000000000
40
0.3318282329
40
0.6682190999
40
1.0000000000
40
1.0000000000
40
1.0000000000
40
1.0000000000
10
-18.4412073302
20
27.3271096575
30
0.0000000000
10
-18.4950986083
20
27.3628569553
30
0.0000000000
10
-18.6109548892
20
27.4244429805
30
0.0000000000
10
-18.7986517787
20
27.4810326839
30
0.0000000000
10
-18.9292322857
20
27.4937500000
30
0.0000000000
10
-18.9938925218
20
27.4937500000
30
0.0000000000
11
-18.4412073302
21
27.3271096575
31
0.0000000000
11
-18.6125228597
21
27.4181604220
31
0.0000000000
11
-18.8008266264
21
27.4749331128
31
0.0000000000
11
-18.9938925218
21
27.4937500000
31
0.0000000000
0
SPLINE
5
3AA
100
AcDbEntity
8
0
100
AcDbSpline
62
7
6
CONTINUOUS
70
0
71
3
72
10
73
6
74
4
42
0.0000001000
43
0.0000001000
44
0.0000000001
12
-0.5846650855
22
0.0000000000
32
0.0000000000
13
-0.4872214542
23
-0.3231849574
33
0.0000000000
40
0.0000000000
40
0.0000000000
40
0.0000000000
40
0.0000000000
40
0.3317809001
40
0.6681717671
40
1.0000000000
40
1.0000000000
40
1.0000000000
40
1.0000000000
10
18.6563925218
20
27.4937500000
30
0.0000000000
10
18.5917322857
20
27.4937500000
30
0.0000000000
10
18.4611517787
20
27.4810326839
30
0.0000000000
10
18.2734548892
20
27.4244429805
30
0.0000000000
10
18.1575986083
20
27.3628569553
30
0.0000000000
10
18.1037073302
20
27.3271096575
30
0.0000000000
11
18.6563925218
21
27.4937500000
31
0.0000000000
11
18.4633266264
21
27.4749331128
31
0.0000000000
11
18.2750228597
21
27.4181604220
31
0.0000000000
11
18.1037073302
21
27.3271096575
31
0.0000000000
0
SPLINE
5
3AB
100
AcDbEntity
8
0
100
AcDbSpline
62
7
6
CONTINUOUS
70
0
71
3
72
10
73
6
74
4
42
0.0000001000
43
0.0000001000
44
0.0000000001
12
-0.4872214542
22
-0.3231849574
32
0.0000000000
13
-0.5846650855
23
0.0000000000
33
0.0000000000
40
0.0000000000
40
0.0000000000
40
0.0000000000
40
0.0000000000
40
0.3318282329
40
0.6682190999
40
1.0000000000
40
1.0000000000
40
1.0000000000
40
1.0000000000
10
-18.4412073302
20
-19.3396096575
30
0.0000000000
10
-18.4950986083
20
-19.3753569553
30
0.0000000000
10
-18.6109548892
20
-19.4369429805
30
0.0000000000
10
-18.7986517787
20
-19.4935326839
30
0.0000000000
10
-18.9292322857
20
-19.5062500000
30
0.0000000000
10
-18.9938925218
20
-19.5062500000
30
0.0000000000
11
-18.4412073302
21
-19.3396096575
31
0.0000000000
11
-18.6125228597
21
-19.4306604220
31
0.0000000000
11
-18.8008266264
21
-19.4874331128
31
0.0000000000
11
-18.9938925218
21
-19.5062500000
31
0.0000000000
0
SPLINE
5
3AC
100
AcDbEntity
8
0
100
AcDbSpline
62
7
6
CONTINUOUS
70
0
71
3
72
10
73
6
74
4
42
0.0000001000
43
0.0000001000
44
0.0000000001
12
-0.5846650855
22
0.0000000000
32
0.0000000000
13
-0.4872214542
23
0.3231849574
33
0.0000000000
40
0.0000000000
40
0.0000000000
40
0.0000000000
40
0.0000000000
40
0.3317809001
40
0.6681717671
40
1.0000000000
40
1.0000000000
40
1.0000000000
40
1.0000000000
10
18.6563925218
20
-19.5062500000
30
0.0000000000
10
18.5917322857
20
-19.5062500000
30
0.0000000000
10
18.4611517787
20
-19.4935326839
30
0.0000000000
10
18.2734548892
20
-19.4369429805
30
0.0000000000
10
18.1575986083
20
-19.3753569553
30
0.0000000000
10
18.1037073302
20
-19.3396096575
30
0.0000000000
11
18.6563925218
21
-19.5062500000
31
0.0000000000
11
18.4633266264
21
-19.4874331128
31
0.0000000000
11
18.2750228597
21
-19.4306604220
31
0.0000000000
11
18.1037073302
21
-19.3396096575
31
0.0000000000
0
SPLINE
5
3AD
100
AcDbEntity
8
0
100
AcDbSpline
62
7
6
CONTINUOUS
70
0
71
3
72
10
73
6
74
4
42
0.0000001000
43
0.0000001000
44
0.0000000001
12
-0.5846650855
22
0.0000000000
32
0.0000000000
13
-0.4872214542
23
-0.3231849574
33
0.0000000000
40
0.0000000000
40
0.0000000000
40
0.0000000000
40
0.0000000000
40
0.3317809001
40
0.6681717671
40
1.0000000000
40
1.0000000000
40
1.0000000000
40
1.0000000000
10
-26.3436074782
20
27.4937500000
30
0.0000000000
10
-26.4082677143
20
27.4937500000
30
0.0000000000
10
-26.5388482213
20
27.4810326839
30
0.0000000000
10
-26.7265451108
20
27.4244429805
30
0.0000000000
10
-26.8424013917
20
27.3628569553
30
0.0000000000
10
-26.8962926698
20
27.3271096575
30
0.0000000000
11
-26.3436074782
21
27.4937500000
31
0.0000000000
11
-26.5366733736
21
27.4749331128
31
0.0000000000
11
-26.7249771403
21
27.4181604220
31
0.0000000000
11
-26.8962926698
21
27.3271096575
31
0.0000000000
0
SPLINE
5
3AE
100
AcDbEntity
8
0
100
AcDbSpline
62
7
6
CONTINUOUS
70
0
71
3
72
10
73
6
74
4
42
0.0000001000
43
0.0000001000
44
0.0000000001
12
-0.4872214542
22
0.3231849574
32
0.0000000000
13
-0.5846650855
23
-0.0000000000
33
0.0000000000
40
0.0000000000
40
0.0000000000
40
0.0000000000
40
0.0000000000
40
0.3318282329
40
0.6682190999
40
1.0000000000
40
1.0000000000
40
1.0000000000
40
1.0000000000
10
26.5587926698
20
27.3271096575
30
0.0000000000
10
26.5049013917
20
27.3628569553
30
0.0000000000
10
26.3890451108
20
27.4244429805
30
0.0000000000
10
26.2013482213
20
27.4810326839
30
0.0000000000
10
26.0707677143
20
27.4937500000
30
0.0000000000
10
26.0061074782
20
27.4937500000
30
0.0000000000
11
26.5587926698
21
27.3271096575
31
0.0000000000
11
26.3874771403
21
27.4181604220
31
0.0000000000
11
26.1991733736
21
27.4749331128
31
0.0000000000
11
26.0061074782
21
27.4937500000
31
0.0000000000
0
SPLINE
5
3AF
100
AcDbEntity
8
0
100
AcDbSpline
62
7
6
CONTINUOUS
70
0
71
3
72
10
73
6
74
4
42
0.0000001000
43
0.0000001000
44
0.0000000001
12
-0.5846650855
22
0.0000000000
32
0.0000000000
13
-0.4872214542
23
0.3231849574
33
0.0000000000
40
0.0000000000
40
0.0000000000
40
0.0000000000
40
0.0000000000
40
0.3317809001
40
0.6681717671
40
1.0000000000
40
1.0000000000
40
1.0000000000
40
1.0000000000
10
-26.3436074782
20
-19.5062500000
30
0.0000000000
10
-26.4082677143
20
-19.5062500000
30
0.0000000000
10
-26.5388482213
20
-19.4935326839
30
0.0000000000
10
-26.7265451108
20
-19.4369429805
30
0.0000000000
10
-26.8424013917
20
-19.3753569553
30
0.0000000000
10
-26.8962926698
20
-19.3396096575
30
0.0000000000
11
-26.3436074782
21
-19.5062500000
31
0.0000000000
11
-26.5366733736
21
-19.4874331128
31
0.0000000000
11
-26.7249771403
21
-19.4306604220
31
0.0000000000
11
-26.8962926698
21
-19.3396096575
31
0.0000000000
0
SPLINE
5
3B0
100
AcDbEntity
8
0
100
AcDbSpline
62
7
6
CONTINUOUS
70
0
71
3
72
10
73
6
74
4
42
0.0000001000
43
0.0000001000
44
0.0000000001
12
-0.4872214542
22
-0.3231849574
32
0.0000000000
13
-0.5846650855
23
0.0000000000
33
0.0000000000
40
0.0000000000
40
0.0000000000
40
0.0000000000
40
0.0000000000
40
0.3318282329
40
0.6682190999
40
1.0000000000
40
1.0000000000
40
1.0000000000
40
1.0000000000
10
26.5587926698
20
-19.3396096575
30
0.0000000000
10
26.5049013917
20
-19.3753569553
30
0.0000000000
10
26.3890451108
20
-19.4369429805
30
0.0000000000
10
26.2013482213
20
-19.4935326839
30
0.0000000000
10
26.0707677143
20
-19.5062500000
30
0.0000000000
10
26.0061074782
20
-19.5062500000
30
0.0000000000
11
26.5587926698
21
-19.3396096575
31
0.0000000000
11
26.3874771403
21
-19.4306604220
31
0.0000000000
11
26.1991733736
21
-19.4874331128
31
0.0000000000
11
26.0061074782
21
-19.5062500000
31
0.0000000000
0
SPLINE
5
3B1
100
AcDbEntity
8
0
100
AcDbSpline
62
9
6
CONTINUOUS
70
0
71
3
72
12
73
8
74
6
42
0.0000001000
43
0.0000001000
44
0.0000000001
12
0.5684392149
22
0.0456949243
32
0.0000000000
13
0.0000013620
23
-0.5702728884
33
0.0000000000
40
0.0000000000
40
0.0000000000
40
0.0000000000
40
0.0000000000
40
0.0484075401
40
0.1903189822
40
0.4120599937
40
0.6917523464
40
1.0000000000
40
1.0000000000
40
1.0000000000
40
1.0000000000
10
-22.0984999228
20
-2.2062500000
30
0.0000000000
10
-22.0893276747
20
-2.2055126737
30
0.0000000000
10
-22.1078450136
20
-2.2654728891
30
0.0000000000
10
-22.0884882470
20
-2.3216241428
30
0.0000000000
10
-22.0970936752
20
-2.4555706198
30
0.0000000000
10
-22.0927045896
20
-2.6049303969
30
0.0000000000
10
-22.0935240874
20
-2.7178669071
30
0.0000000000
10
-22.0935239475
20
-2.7764620003
30
0.0000000000
11
-22.0984999228
21
-2.2062500000
31
0.0000000000
11
-22.0969710882
21
-2.2338131406
31
0.0000000000
11
-22.0955805293
21
-2.3147294410
31
0.0000000000
11
-22.0944753517
21
-2.4411774985
31
0.0000000000
11
-22.0937660919
21
-2.6006768874
31
0.0000000000
11
-22.0935239475
21
-2.7764620003
31
0.0000000000
0
SPLINE
5
3B2
100
AcDbEntity
8
0
100
AcDbSpline
62
7
6
CONTINUOUS
70
0
71
3
72
15
73
11
74
9
42
0.0000001000
43
0.0000001000
44
0.0000000001
12
0.0000000000
22
-0.7840504605
32
0.0000000000
13
-0.7840504605
23
-0.0000000000
33
0.0000000000
40
0.0000000000
40
0.0000000000
40
0.0000000000
40
0.0000000000
40
0.1250038016
40
0.2500010661
40
0.3749984375
40
0.4999946546
40
0.6249954755
40
0.7499970461
40
0.8749990664
40
1.0000000000
40
1.0000000000
40
1.0000000000
40
1.0000000000
10
33.4812500000
20
-17.9060211479
30
0.0000000000
10
33.4812500000
20
-17.9386909107
30
0.0000000000
10
33.4748220326
20
-18.0042090819
30
0.0000000000
10
33.4462526909
20
-18.0985859231
30
0.0000000000
10
33.3998358901
20
-18.1856243968
30
0.0000000000
10
33.3373350902
20
-18.2619303131
30
0.0000000000
10
33.2611432390
20
-18.3245733834
30
0.0000000000
10
33.1741718058
20
-18.3711290007
30
0.0000000000
10
33.0798195325
20
-18.3997979691
30
0.0000000000
10
33.0142996129
20
-18.4062500000
30
0.0000000000
10
32.9816305997
20
-18.4062500000
30
0.0000000000
11
33.4812500000
21
-17.9060211479
31
0.0000000000
11
33.4716670943
21
-18.0035608244
31
0.0000000000
11
33.4432780200
21
-18.0973631505
31
0.0000000000
11
33.3971551581
21
-18.1838357703
31
0.0000000000
11
33.3350542349
21
-18.2596521953
31
0.0000000000
11
33.2593470056
21
-18.3218918764
31
0.0000000000
11
33.1729417760
21
-18.3681478382
31
0.0000000000
11
33.0791646484
21
-18.3966328722
31
0.0000000000
11
32.9816305997
21
-18.4062500000
31
0.0000000000
0
SPLINE
5
3B3
100
AcDbEntity
8
0
100
AcDbSpline
62
7
6
CONTINUOUS
70
0
71
3
72
15
73
11
74
9
42
0.0000001000
43
0.0000001000
44
0.0000000001
12
0.7840504604
22
0.0000000000
32
0.0000000000
13
0.0000000000
23
-0.7840504604
33
0.0000000000
40
0.0000000000
40
0.0000000000
40
0.0000000000
40
0.0000000000
40
0.1250023789
40
0.2500075340
40
0.3750123286
40
0.5000145052
40
0.6250093663
40
0.7500035140
40
0.8749976437
40
1.0000000000
40
1.0000000000
40
1.0000000000
40
1.0000000000
10
32.9816305997
20
26.3937500000
30
0.0000000000
10
33.0142999907
20
26.3937500000
30
0.0000000000
10
33.0798211134
20
26.3872977758
30
0.0000000000
10
33.1741752450
20
26.3586277530
30
0.0000000000
10
33.2611480422
20
26.3120703120
30
0.0000000000
10
33.3373397205
20
26.2494256739
30
0.0000000000
10
33.3998389531
20
26.1731195886
30
0.0000000000
10
33.4462539342
20
26.0860824827
30
0.0000000000
10
33.4748222251
20
25.9917075010
30
0.0000000000
10
33.4812500000
20
25.9261905329
30
0.0000000000
10
33.4812500000
20
25.8935211479
30
0.0000000000
11
32.9816305997
21
26.3937500000
31
0.0000000000
11
33.0791657652
21
26.3841326498
31
0.0000000000
11
33.1729451090
21
26.3556464556
31
0.0000000000
11
33.2593521152
21
26.3093884566
31
0.0000000000
11
33.3350593330
21
26.2471470877
31
0.0000000000
11
33.3971585690
21
26.1713306551
31
0.0000000000
11
33.4432793982
21
26.0848598158
31
0.0000000000
11
33.4716673159
21
25.9910597075
31
0.0000000000
11
33.4812500000
21
25.8935211479
31
0.0000000000
0
SPLINE
5
3B4
100
AcDbEntity
8
0
100
AcDbSpline
62
7
6
CONTINUOUS
70
0
71
3
72
15
73
11
74
9
42
0.0000001000
43
0.0000001000
44
0.0000000001
12
-0.7840504604
22
0.0000000000
32
0.0000000000
13
0.0000000000
23
0.7840504604
33
0.0000000000
40
0.0000000000
40
0.0000000000
40
0.0000000000
40
0.0000000000
40
0.1250023789
40
0.2500075340
40
0.3750123286
40
0.5000145052
40
0.6250093663
40
0.7500035140
40
0.8749976437
40
1.0000000000
40
1.0000000000
40
1.0000000000
40
1.0000000000
10
-33.3191305997
20
-18.4062500000
30
0.0000000000
10
-33.3517999907
20
-18.4062500000
30
0.0000000000
10
-33.4173211134
20
-18.3997977758
30
0.0000000000
10
-33.5116752450
20
-18.3711277530
30
0.0000000000
10
-33.5986480422
20
-18.3245703120
30
0.0000000000
10
-33.6748397205
20
-18.2619256739
30
0.0000000000
10
-33.7373389531
20
-18.1856195886
30
0.0000000000
10
-33.7837539342
20
-18.0985824827
30
0.0000000000
10
-33.8123222251
20
-18.0042075010
30
0.0000000000
10
-33.8187500000
20
-17.9386905329
30
0.0000000000
10
-33.8187500000
20
-17.9060211479
30
0.0000000000
11
-33.3191305997
21
-18.4062500000
31
0.0000000000
11
-33.4166657652
21
-18.3966326498
31
0.0000000000
11
-33.5104451090
21
-18.3681464556
31
0.0000000000
11
-33.5968521152
21
-18.3218884566
31
0.0000000000
11
-33.6725593330
21
-18.2596470877
31
0.0000000000
11
-33.7346585690
21
-18.1838306551
31
0.0000000000
11
-33.7807793982
21
-18.0973598158
31
0.0000000000
11
-33.8091673159
21
-18.0035597075
31
0.0000000000
11
-33.8187500000
21
-17.9060211479
31
0.0000000000
0
SPLINE
5
3B5
100
AcDbEntity
8
0
100
AcDbSpline
62
7
6
CONTINUOUS
70
0
71
3
72
15
73
11
74
9
42
0.0000001000
43
0.0000001000
44
0.0000000001
12
0.0000000000
22
0.7840504605
32
0.0000000000
13
0.7840504605
23
0.0000000000
33
0.0000000000
40
0.0000000000
40
0.0000000000
40
0.0000000000
40
0.0000000000
40
0.1250038016
40
0.2500010661
40
0.3749984375
40
0.4999946546
40
0.6249954755
40
0.7499970461
40
0.8749990664
40
1.0000000000
40
1.0000000000
40
1.0000000000
40
1.0000000000
10
-33.8187500000
20
25.8935211479
30
0.0000000000
10
-33.8187500000
20
25.9261909107
30
0.0000000000
10
-33.8123220326
20
25.9917090819
30
0.0000000000
10
-33.7837526909
20
26.0860859231
30
0.0000000000
10
-33.7373358901
20
26.1731243968
30
0.0000000000
10
-33.6748350902
20
26.2494303131
30
0.0000000000
10
-33.5986432390
20
26.3120733834
30
0.0000000000
10
-33.5116718058
20
26.3586290007
30
0.0000000000
10
-33.4173195325
20
26.3872979691
30
0.0000000000
10
-33.3517996129
20
26.3937500000
30
0.0000000000
10
-33.3191305997
20
26.3937500000
30
0.0000000000
11
-33.8187500000
21
25.8935211479
31
0.0000000000
11
-33.8091670943
21
25.9910608244
31
0.0000000000
11
-33.7807780200
21
26.0848631505
31
0.0000000000
11
-33.7346551581
21
26.1713357703
31
0.0000000000
11
-33.6725542349
21
26.2471521953
31
0.0000000000
11
-33.5968470056
21
26.3093918764
31
0.0000000000
11
-33.5104417760
21
26.3556478382
31
0.0000000000
11
-33.4166646484
21
26.3841328722
31
0.0000000000
11
-33.3191305997
21
26.3937500000
31
0.0000000000
0
SPLINE
5
3B6
100
AcDbEntity
8
0
100
AcDbSpline
62
7
6
CONTINUOUS
70
0
71
3
72
12
73
8
74
6
42
0.0000001000
43
0.0000001000
44
0.0000000001
12
0.3023219609
22
-0.3023763252
32
0.0000000000
13
0.2864434709
23
-0.3175951085
33
0.0000000000
40
0.0000000000
40
0.0000000000
40
0.0000000000
40
0.0000000000
40
0.2594744949
40
0.5178669927
40
0.7499043871
40
0.9260888396
40
1.0000000000
40
1.0000000000
40
1.0000000000
40
1.0000000000
10
12.0312500000
20
11.7484027917
30
0.0000000000
10
12.0573982794
20
11.7222498103
30
0.0000000000
10
12.1095227107
20
11.6699904729
30
0.0000000000
10
12.1849028269
20
11.5942129938
30
0.0000000000
10
12.2515335238
20
11.5264880391
30
0.0000000000
10
12.2999432791
20
11.4777001755
30
0.0000000000
10
12.3241928769
20
11.4515746077
30
0.0000000000
10
12.3312500000
20
11.4437500000
30
0.0000000000
11
12.0312500000
21
11.7484027917
31
0.0000000000
11
12.1096143869
21
11.6698634930
31
0.0000000000
11
12.1874750121
21
11.5914755070
31
0.0000000000
11
12.2571760663
21
11.5208668812
31
0.0000000000
11
12.3097845565
21
11.4669450300
31
0.0000000000
11
12.3312500000
21
11.4437500000
31
0.0000000000
0
SPLINE
5
3B7
100
AcDbEntity
8
0
100
AcDbSpline
62
7
6
CONTINUOUS
70
0
71
3
72
12
73
8
74
6
42
0.0000001000
43
0.0000001000
44
0.0000000001
12
0.3023219609
22
0.3023763252
32
0.0000000000
13
0.2864434709
23
0.3175951085
33
0.0000000000
40
0.0000000000
40
0.0000000000
40
0.0000000000
40
0.0000000000
40
0.2594744949
40
0.5178669927
40
0.7499043871
40
0.9260888396
40
1.0000000000
40
1.0000000000
40
1.0000000000
40
1.0000000000
10
11.1812500000
20
-3.7609027917
30
0.0000000000
10
11.2073982794
20
-3.7347498103
30
0.0000000000
10
11.2595227107
20
-3.6824904729
30
0.0000000000
10
11.3349028269
20
-3.6067129938
30
0.0000000000
10
11.4015335238
20
-3.5389880391
30
0.0000000000
10
11.4499432791
20
-3.4902001755
30
0.0000000000
10
11.4741928769
20
-3.4640746077
30
0.0000000000
10
11.4812500000
20
-3.4562500000
30
0.0000000000
11
11.1812500000
21
-3.7609027917
31
0.0000000000
11
11.2596143869
21
-3.6823634930
31
0.0000000000
11
11.3374750121
21
-3.6039755070
31
0.0000000000
11
11.4071760663
21
-3.5333668812
31
0.0000000000
11
11.4597845565
21
-3.4794450300
31
0.0000000000
11
11.4812500000
21
-3.4562500000
31
0.0000000000
0
SPLINE
5
3B8
100
AcDbEntity
8
0
100
AcDbSpline
62
7
6
CONTINUOUS
70
0
71
3
72
12
73
8
74
6
42
0.0000001000
43
0.0000001000
44
0.0000000001
12
-0.3023219609
22
0.3023763252
32
0.0000000000
13
-0.2864434709
23
0.3175951085
33
0.0000000000
40
0.0000000000
40
0.0000000000
40
0.0000000000
40
0.0000000000
40
0.2594744949
40
0.5178669927
40
0.7499043871
40
0.9260888396
40
1.0000000000
40
1.0000000000
40
1.0000000000
40
1.0000000000
10
20.4812500000
20
-3.7609027917
30
0.0000000000
10
20.4551017206
20
-3.7347498103
30
0.0000000000
10
20.4029772893
20
-3.6824904729
30
0.0000000000
10
20.3275971731
20
-3.6067129938
30
0.0000000000
10
20.2609664762
20
-3.5389880391
30
0.0000000000
10
20.2125567209
20
-3.4902001755
30
0.0000000000
10
20.1883071231
20
-3.4640746077
30
0.0000000000
10
20.1812500000
20
-3.4562500000
30
0.0000000000
11
20.4812500000
21
-3.7609027917
31
0.0000000000
11
20.4028856131
21
-3.6823634930
31
0.0000000000
11
20.3250249879
21
-3.6039755070
31
0.0000000000
11
20.2553239337
21
-3.5333668812
31
0.0000000000
11
20.2027154435
21
-3.4794450300
31
0.0000000000
11
20.1812500000
21
-3.4562500000
31
0.0000000000
0
SPLINE
5
3B9
100
AcDbEntity
8
0
100
AcDbSpline
62
7
6
CONTINUOUS
70
0
71
3
72
12
73
8
74
6
42
0.0000001000
43
0.0000001000
44
0.0000000001
12
-0.2984866379
22
-0.2985615746
32
0.0000000000
13
-0.3087745876
23
-0.2879766155
33
0.0000000000
40
0.0000000000
40
0.0000000000
40
0.0000000000
40
0.0000000000
40
0.2612345032
40
0.5197799551
40
0.7510894526
40
0.9264313226
40
1.0000000000
40
1.0000000000
40
1.0000000000
40
1.0000000000
10
20.4812500000
20
-0.9592217831
30
0.0000000000
10
20.4552583305
20
-0.9852199779
30
0.0000000000
10
20.4035027064
20
-1.0369086297
30
0.0000000000
10
20.3286492244
20
-1.1115351406
30
0.0000000000
10
20.2621103914
20
-1.1773762468
30
0.0000000000
10
20.2142045525
20
-1.2250492260
30
0.0000000000
10
20.1888220460
20
-1.2491879804
30
0.0000000000
10
20.1812500000
20
-1.2562500000
30
0.0000000000
11
20.4812500000
21
-0.9592217831
31
0.0000000000
11
20.4032234380
21
-1.0371647931
31
0.0000000000
11
20.3258845505
21
-1.1141896873
31
0.0000000000
11
20.2565476328
21
-1.1829545077
31
0.0000000000
11
20.2037780993
21
-1.2348690336
31
0.0000000000
11
20.1812500000
21
-1.2562500000
31
0.0000000000
0
SPLINE
5
3BA
100
AcDbEntity
8
0
100
AcDbSpline
62
7
6
CONTINUOUS
70
0
71
3
72
12
73
8
74
6
42
0.0000001000
43
0.0000001000
44
0.0000000001
12
0.2984866203
22
-0.2985615569
32
0.0000000000
13
0.3087416567
23
-0.2880117646
33
0.0000000000
40
0.0000000000
40
0.0000000000
40
0.0000000000
40
0.0000000000
40
0.2626563802
40
0.5204949386
40
0.7505695636
40
0.9257261620
40
1.0000000000
40
1.0000000000
40
1.0000000000
40
1.0000000000
10
11.1812500000
20
-0.9592217831
30
0.0000000000
10
11.2073831384
20
-0.9853614823
30
0.0000000000
10
11.2592100621
20
-1.0371211255
30
0.0000000000
10
11.3340126598
20
-1.1116950184
30
0.0000000000
10
11.4003375973
20
-1.1773267870
30
0.0000000000
10
11.4481740366
20
-1.2249267108
30
0.0000000000
10
11.4736061907
20
-1.2491194203
30
0.0000000000
10
11.4812500000
20
-1.2562500000
30
0.0000000000
11
11.1812500000
21
-0.9592217831
31
0.0000000000
11
11.2597015440
21
-1.0375887305
31
0.0000000000
11
11.3368295099
21
-1.1144024864
31
0.0000000000
11
11.4057962751
21
-1.1828001791
31
0.0000000000
11
11.4585087649
21
-1.2346611511
31
0.0000000000
11
11.4812500000
21
-1.2562500000
31
0.0000000000
0
SPLINE
5
3BB
100
AcDbEntity
8
0
100
AcDbSpline
62
7
6
CONTINUOUS
70
0
71
3
72
12
73
8
74
6
42
0.0000001000
43
0.0000001000
44
0.0000000001
12
-0.3008613642
22
0.3009462395
32
0.0000000000
13
-0.2950216293
23
0.3066928348
33
0.0000000000
40
0.0000000000
40
0.0000000000
40
0.0000000000
40
0.0000000000
40
0.2606714862
40
0.5188761122
40
0.7501951184
40
0.9259980428
40
1.0000000000
40
1.0000000000
40
1.0000000000
40
1.0000000000
10
-11.2687500000
20
0.9919489194
30
0.0000000000
10
-11.2948919930
20
1.0180982872
30
0.0000000000
10
-11.3469044321
20
1.0701736139
30
0.0000000000
10
-11.4220663865
20
1.1455030016
30
0.0000000000
10
-11.4885871162
20
1.2124468616
30
0.0000000000
10
-11.5367706783
20
1.2607801721
30
0.0000000000
10
-11.5614726073
20
1.2861847100
30
0.0000000000
10
-11.5687500000
20
1.2937500000
30
0.0000000000
11
-11.2687500000
21
0.9919489194
31
0.0000000000
11
-11.3471450722
21
1.0704279087
31
0.0000000000
11
-11.4247317526
21
1.1482305870
31
0.0000000000
11
-11.4941595279
21
1.2180119009
31
0.0000000000
11
-11.5468095674
21
1.2711602257
31
0.0000000000
11
-11.5687500000
21
1.2937500000
31
0.0000000000
0
SPLINE
5
3BC
100
AcDbEntity
8
0
100
AcDbSpline
62
9
6
CONTINUOUS
70
0
71
3
72
21
73
17
74
15
42
0.0000001000
43
0.0000001000
44
0.0000000001
12
-9.4078293165
22
0.0020655499
32
0.0000000000
13
9.4078293680
23
0.0018159687
33
0.0000000000
40
0.0000000000
40
0.0000000000
40
0.0000000000
40
0.0000000000
40
0.0716955866
40
0.1434077278
40
0.2146961889
40
0.2856986365
40
0.3567236281
40
0.4281298847
40
0.5000418125
40
0.5719763112
40
0.6434139517
40
0.7144536837
40
0.7854479298
40
0.8567010726
40
0.9283606811
40
1.0000000000
40
1.0000000000
40
1.0000000000
40
1.0000000000
10
-14.2687500000
20
0.9919489194
30
0.0000000000
10
-14.4935832804
20
0.9919982830
30
0.0000000000
10
-14.9449442959
20
1.0429295869
30
0.0000000000
10
-15.5852047098
20
1.2682632892
30
0.0000000000
10
-16.1575986519
20
1.6293942485
30
0.0000000000
10
-16.6340108841
20
2.1068737802
30
0.0000000000
10
-16.9932338617
20
2.6782155573
30
0.0000000000
10
-17.2177892382
20
3.3177578116
30
0.0000000000
10
-17.2943723951
20
3.9942173353
30
0.0000000000
10
-17.2175744657
20
4.6707563455
30
0.0000000000
10
-16.9926998917
20
5.3104223435
30
0.0000000000
10
-16.6331492465
20
5.8817021042
30
0.0000000000
10
-16.1565811086
20
6.3588961663
30
0.0000000000
10
-15.5843010087
20
6.7196276199
30
0.0000000000
10
-14.9444234289
20
6.9446465658
30
0.0000000000
10
-14.4934068295
20
6.9955077157
30
0.0000000000
10
-14.2687500000
20
6.9955510806
30
0.0000000000
11
-14.2687500000
21
0.9919489194
31
0.0000000000
11
-14.9389698416
21
1.0678134153
31
0.0000000000
11
-15.5754108831
21
1.2916503643
31
0.0000000000
11
-16.1426009824
21
1.6495515038
31
0.0000000000
11
-16.6144273506
21
2.1223894479
31
0.0000000000
11
-16.9700871592
21
2.6880619080
31
0.0000000000
11
-17.1926450073
21
3.3219022178
31
0.0000000000
11
-17.2687493672
21
3.9941432068
31
0.0000000000
11
-17.1924191457
21
4.6665722951
31
0.0000000000
11
-16.9695196955
21
5.3006055329
31
0.0000000000
11
-16.6135270656
21
5.8662324612
31
0.0000000000
11
-16.1415348532
21
6.3387958110
31
0.0000000000
11
-15.5744815110
21
6.6962909396
31
0.0000000000
11
-14.9384503543
21
6.9198036596
31
0.0000000000
11
-14.2687500000
21
6.9955510806
31
0.0000000000
0
SPLINE
5
3BD
100
AcDbEntity
8
0
100
AcDbSpline
62
9
6
CONTINUOUS
70
0
71
3
72
21
73
17
74
15
42
0.0000001000
43
0.0000001000
44
0.0000000001
12
-9.4078293165
22
0.0020655499
32
0.0000000000
13
9.4078293680
23
0.0018159687
33
0.0000000000
40
0.0000000000
40
0.0000000000
40
0.0000000000
40
0.0000000000
40
0.0716955866
40
0.1434077278
40
0.2146961889
40
0.2856986365
40
0.3567236281
40
0.4281298847
40
0.5000418125
40
0.5719763112
40
0.6434139517
40
0.7144536837
40
0.7854479298
40
0.8567010726
40
0.9283606811
40
1.0000000000
40
1.0000000000
40
1.0000000000
40
1.0000000000
10
27.7312500000
20
0.9919489194
30
0.0000000000
10
27.5064167196
20
0.9919982830
30
0.0000000000
10
27.0550557041
20
1.0429295869
30
0.0000000000
10
26.4147952902
20
1.2682632892
30
0.0000000000
10
25.8424013481
20
1.6293942485
30
0.0000000000
10
25.3659891159
20
2.1068737802
30
0.0000000000
10
25.0067661383
20
2.6782155573
30
0.0000000000
10
24.7822107618
20
3.3177578116
30
0.0000000000
10
24.7056276049
20
3.9942173353
30
0.0000000000
10
24.7824255343
20
4.6707563455
30
0.0000000000
10
25.0073001083
20
5.3104223435
30
0.0000000000
10
25.3668507535
20
5.8817021042
30
0.0000000000
10
25.8434188914
20
6.3588961663
30
0.0000000000
10
26.4156989913
20
6.7196276199
30
0.0000000000
10
27.0555765711
20
6.9446465658
30
0.0000000000
10
27.5065931705
20
6.9955077157
30
0.0000000000
10
27.7312500000
20
6.9955510806
30
0.0000000000
11
27.7312500000
21
0.9919489194
31
0.0000000000
11
27.0610301584
21
1.0678134153
31
0.0000000000
11
26.4245891168
21
1.2916503643
31
0.0000000000
11
25.8573990176
21
1.6495515038
31
0.0000000000
11
25.3855726494
21
2.1223894479
31
0.0000000000
11
25.0299128408
21
2.6880619080
31
0.0000000000
11
24.8073549927
21
3.3219022178
31
0.0000000000
11
24.7312506328
21
3.9941432068
31
0.0000000000
11
24.8075808543
21
4.6665722951
31
0.0000000000
11
25.0304803045
21
5.3006055329
31
0.0000000000
11
25.3864729344
21
5.8662324612
31
0.0000000000
11
25.8584651468
21
6.3387958110
31
0.0000000000
11
26.4255184890
21
6.6962909396
31
0.0000000000
11
27.0615496457
21
6.9198036596
31
0.0000000000
11
27.7312500000
21
6.9955510806
31
0.0000000000
0
SPLINE
5
3BE
100
AcDbEntity
8
0
100
AcDbSpline
62
7
6
CONTINUOUS
70
0
71
3
72
12
73
8
74
6
42
0.0000001000
43
0.0000001000
44
0.0000000001
12
-0.3008613642
22
-0.3009462395
32
0.0000000000
13
-0.2950216293
23
-0.3066928348
33
0.0000000000
40
0.0000000000
40
0.0000000000
40
0.0000000000
40
0.0000000000
40
0.2606714862
40
0.5188761122
40
0.7501951184
40
0.9259980428
40
1.0000000000
40
1.0000000000
40
1.0000000000
40
1.0000000000
10
-11.2687500000
20
6.9955510806
30
0.0000000000
10
-11.2948919930
20
6.9694017128
30
0.0000000000
10
-11.3469044321
20
6.9173263861
30
0.0000000000
10
-11.4220663865
20
6.8419969984
30
0.0000000000
10
-11.4885871162
20
6.7750531384
30
0.0000000000
10
-11.5367706783
20
6.7267198279
30
0.0000000000
10
-11.5614726073
20
6.7013152900
30
0.0000000000
10
-11.5687500000
20
6.6937500000
30
0.0000000000
11
-11.2687500000
21
6.9955510806
31
0.0000000000
11
-11.3471450722
21
6.9170720913
31
0.0000000000
11
-11.4247317526
21
6.8392694130
31
0.0000000000
11
-11.4941595279
21
6.7694880991
31
0.0000000000
11
-11.5468095674
21
6.7163397743
31
0.0000000000
11
-11.5687500000
21
6.6937500000
31
0.0000000000
0
SPLINE
5
3BF
100
AcDbEntity
8
0
100
AcDbSpline
62
7
6
CONTINUOUS
70
0
71
3
72
12
73
8
74
6
42
0.0000001000
43
0.0000001000
44
0.0000000001
12
0.2984866379
22
-0.2985615746
32
0.0000000000
13
0.3087745876
23
-0.2879766155
33
0.0000000000
40
0.0000000000
40
0.0000000000
40
0.0000000000
40
0.0000000000
40
0.2612345032
40
0.5197799551
40
0.7510894526
40
0.9264313226
40
1.0000000000
40
1.0000000000
40
1.0000000000
40
1.0000000000
10
-30.8187500000
20
-0.9592217831
30
0.0000000000
10
-30.7927583305
20
-0.9852199779
30
0.0000000000
10
-30.7410027064
20
-1.0369086297
30
0.0000000000
10
-30.6661492244
20
-1.1115351406
30
0.0000000000
10
-30.5996103914
20
-1.1773762468
30
0.0000000000
10
-30.5517045525
20
-1.2250492260
30
0.0000000000
10
-30.5263220460
20
-1.2491879804
30
0.0000000000
10
-30.5187500000
20
-1.2562500000
30
0.0000000000
11
-30.8187500000
21
-0.9592217831
31
0.0000000000
11
-30.7407234380
21
-1.0371647931
31
0.0000000000
11
-30.6633845505
21
-1.1141896873
31
0.0000000000
11
-30.5940476328
21
-1.1829545077
31
0.0000000000
11
-30.5412780993
21
-1.2348690336
31
0.0000000000
11
-30.5187500000
21
-1.2562500000
31
0.0000000000
0
SPLINE
5
3C0
100
AcDbEntity
8
0
100
AcDbSpline
62
7
6
CONTINUOUS
70
0
71
3
72
12
73
8
74
6
42
0.0000001000
43
0.0000001000
44
0.0000000001
12
0.3023219035
22
0.3023762678
32
0.0000000000
13
0.2865218633
23
0.3175239186
33
0.0000000000
40
0.0000000000
40
0.0000000000
40
0.0000000000
40
0.0000000000
40
0.2615692142
40
0.5189265639
40
0.7491360411
40
0.9250418547
40
1.0000000000
40
1.0000000000
40
1.0000000000
40
1.0000000000
10
-30.8187500000
20
-3.7609027917
30
0.0000000000
10
-30.7923906324
20
-3.7345386841
30
0.0000000000
10
-30.7401598231
20
-3.6821721586
30
0.0000000000
10
-30.6648590771
20
-3.6064702996
30
0.0000000000
10
-30.5985397301
20
-3.5390669894
30
0.0000000000
10
-30.5502410489
20
-3.4903821521
30
0.0000000000
10
-30.5259090492
20
-3.4641836680
30
0.0000000000
10
-30.5187500000
20
-3.4562500000
30
0.0000000000
11
-30.8187500000
21
-3.7609027917
31
0.0000000000
11
-30.7397536721
21
-3.6817287932
31
0.0000000000
11
-30.6622061780
21
-3.6036536624
31
0.0000000000
11
-30.5930542556
21
-3.5336012470
31
0.0000000000
11
-30.5405261128
21
-3.4797674787
31
0.0000000000
11
-30.5187500000
21
-3.4562500000
31
0.0000000000
0
SPLINE
5
3C1
100
AcDbEntity
8
0
100
AcDbSpline
62
7
6
CONTINUOUS
70
0
71
3
72
12
73
8
74
6
42
0.0000001000
43
0.0000001000
44
0.0000000001
12
-0.3023219609
22
0.3023763252
32
0.0000000000
13
-0.2864434709
23
0.3175951085
33
0.0000000000
40
0.0000000000
40
0.0000000000
40
0.0000000000
40
0.0000000000
40
0.2594744949
40
0.5178669927
40
0.7499043871
40
0.9260888396
40
1.0000000000
40
1.0000000000
40
1.0000000000
40
1.0000000000
10
-21.5187500000
20
-3.7609027917
30
0.0000000000
10
-21.5448982794
20
-3.7347498103
30
0.0000000000
10
-21.5970227107
20
-3.6824904729
30
0.0000000000
10
-21.6724028269
20
-3.6067129938
30
0.0000000000
10
-21.7390335238
20
-3.5389880391
30
0.0000000000
10
-21.7874432791
20
-3.4902001755
30
0.0000000000
10
-21.8116928769
20
-3.4640746077
30
0.0000000000
10
-21.8187500000
20
-3.4562500000
30
0.0000000000
11
-21.5187500000
21
-3.7609027917
31
0.0000000000
11
-21.5971143869
21
-3.6823634930
31
0.0000000000
11
-21.6749750121
21
-3.6039755070
31
0.0000000000
11
-21.7446760663
21
-3.5333668812
31
0.0000000000
11
-21.7972845565
21
-3.4794450300
31
0.0000000000
11
-21.8187500000
21
-3.4562500000
31
0.0000000000
0
SPLINE
5
3C2
100
AcDbEntity
8
0
100
AcDbSpline
62
7
6
CONTINUOUS
70
0
71
3
72
12
73
8
74
6
42
0.0000001000
43
0.0000001000
44
0.0000000001
12
-0.2984866203
22
-0.2985615569
32
0.0000000000
13
-0.3087416567
23
-0.2880117646
33
0.0000000000
40
0.0000000000
40
0.0000000000
40
0.0000000000
40
0.0000000000
40
0.2626563802
40
0.5204949386
40
0.7505695636
40
0.9257261620
40
1.0000000000
40
1.0000000000
40
1.0000000000
40
1.0000000000
10
-21.5187500000
20
-0.9592217831
30
0.0000000000
10
-21.5448831384
20
-0.9853614823
30
0.0000000000
10
-21.5967100621
20
-1.0371211255
30
0.0000000000
10
-21.6715126598
20
-1.1116950184
30
0.0000000000
10
-21.7378375973
20
-1.1773267870
30
0.0000000000
10
-21.7856740366
20
-1.2249267108
30
0.0000000000
10
-21.8111061907
20
-1.2491194203
30
0.0000000000
10
-21.8187500000
20
-1.2562500000
30
0.0000000000
11
-21.5187500000
21
-0.9592217831
31
0.0000000000
11
-21.5972015440
21
-1.0375887305
31
0.0000000000
11
-21.6743295099
21
-1.1144024864
31
0.0000000000
11
-21.7432962751
21
-1.1828001791
31
0.0000000000
11
-21.7960087649
21
-1.2346611511
31
0.0000000000
11
-21.8187500000
21
-1.2562500000
31
0.0000000000
0
SPLINE
5
3C3
100
AcDbEntity
8
0
100
AcDbSpline
62
7
6
CONTINUOUS
70
0
71
3
72
12
73
8
74
6
42
0.0000001000
43
0.0000001000
44
0.0000000001
12
-0.3008613642
22
0.3009462395
32
0.0000000000
13
-0.2950216293
23
0.3066928348
33
0.0000000000
40
0.0000000000
40
0.0000000000
40
0.0000000000
40
0.0000000000
40
0.2606714862
40
0.5188761122
40
0.7501951184
40
0.9259980428
40
1.0000000000
40
1.0000000000
40
1.0000000000
40
1.0000000000
10
30.7312500000
20
0.9919489194
30
0.0000000000
10
30.7051080070
20
1.0180982872
30
0.0000000000
10
30.6530955679
20
1.0701736139
30
0.0000000000
10
30.5779336135
20
1.1455030016
30
0.0000000000
10
30.5114128838
20
1.2124468616
30
0.0000000000
10
30.4632293217
20
1.2607801721
30
0.0000000000
10
30.4385273927
20
1.2861847100
30
0.0000000000
10
30.4312500000
20
1.2937500000
30
0.0000000000
11
30.7312500000
21
0.9919489194
31
0.0000000000
11
30.6528549278
21
1.0704279087
31
0.0000000000
11
30.5752682474
21
1.1482305870
31
0.0000000000
11
30.5058404721
21
1.2180119009
31
0.0000000000
11
30.4531904326
21
1.2711602257
31
0.0000000000
11
30.4312500000
21
1.2937500000
31
0.0000000000
0
SPLINE
5
3C4
100
AcDbEntity
8
0
100
AcDbSpline
62
7
6
CONTINUOUS
70
0
71
3
72
12
73
8
74
6
42
0.0000001000
43
0.0000001000
44
0.0000000001
12
-0.3008613642
22
-0.3009462395
32
0.0000000000
13
-0.2950216293
23
-0.3066928348
33
0.0000000000
40
0.0000000000
40
0.0000000000
40
0.0000000000
40
0.0000000000
40
0.2606714862
40
0.5188761122
40
0.7501951184
40
0.9259980428
40
1.0000000000
40
1.0000000000
40
1.0000000000
40
1.0000000000
10
30.7312500000
20
6.9955510806
30
0.0000000000
10
30.7051080070
20
6.9694017128
30
0.0000000000
10
30.6530955679
20
6.9173263861
30
0.0000000000
10
30.5779336135
20
6.8419969984
30
0.0000000000
10
30.5114128838
20
6.7750531384
30
0.0000000000
10
30.4632293217
20
6.7267198279
30
0.0000000000
10
30.4385273927
20
6.7013152900
30
0.0000000000
10
30.4312500000
20
6.6937500000
30
0.0000000000
11
30.7312500000
21
6.9955510806
31
0.0000000000
11
30.6528549278
21
6.9170720913
31
0.0000000000
11
30.5752682474
21
6.8392694130
31
0.0000000000
11
30.5058404721
21
6.7694880991
31
0.0000000000
11
30.4531904326
21
6.7163397743
31
0.0000000000
11
30.4312500000
21
6.6937500000
31
0.0000000000
0
SPLINE
5
3C5
100
AcDbEntity
8
0
100
AcDbSpline
62
7
6
CONTINUOUS
70
0
71
3
72
12
73
8
74
6
42
0.0000001000
43
0.0000001000
44
0.0000000001
12
0.2984866203
22
0.2985615569
32
0.0000000000
13
0.3087416567
23
0.2880117646
33
0.0000000000
40
0.0000000000
40
0.0000000000
40
0.0000000000
40
0.0000000000
40
0.2626563802
40
0.5204949386
40
0.7505695636
40
0.9257261620
40
1.0000000000
40
1.0000000000
40
1.0000000000
40
1.0000000000
10
12.0312500000
20
8.9467217831
30
0.0000000000
10
12.0573831384
20
8.9728614823
30
0.0000000000
10
12.1092100621
20
9.0246211255
30
0.0000000000
10
12.1840126598
20
9.0991950184
30
0.0000000000
10
12.2503375973
20
9.1648267870
30
0.0000000000
10
12.2981740366
20
9.2124267108
30
0.0000000000
10
12.3236061907
20
9.2366194203
30
0.0000000000
10
12.3312500000
20
9.2437500000
30
0.0000000000
11
12.0312500000
21
8.9467217831
31
0.0000000000
11
12.1097015440
21
9.0250887305
31
0.0000000000
11
12.1868295099
21
9.1019024864
31
0.0000000000
11
12.2557962751
21
9.1703001791
31
0.0000000000
11
12.3085087649
21
9.2221611511
31
0.0000000000
11
12.3312500000
21
9.2437500000
31
0.0000000000
0
SPLINE
5
3C6
100
AcDbEntity
8
0
100
AcDbSpline
62
7
6
CONTINUOUS
70
0
71
3
72
12
73
8
74
6
42
0.0000001000
43
0.0000001000
44
0.0000000001
12
-0.2984866203
22
0.2985615569
32
0.0000000000
13
-0.3087416567
23
0.2880117646
33
0.0000000000
40
0.0000000000
40
0.0000000000
40
0.0000000000
40
0.0000000000
40
0.2626563802
40
0.5204949386
40
0.7505695636
40
0.9257261620
40
1.0000000000
40
1.0000000000
40
1.0000000000
40
1.0000000000
10
19.6312500000
20
8.9467217831
30
0.0000000000
10
19.6051168616
20
8.9728614823
30
0.0000000000
10
19.5532899379
20
9.0246211255
30
0.0000000000
10
19.4784873402
20
9.0991950184
30
0.0000000000
10
19.4121624027
20
9.1648267870
30
0.0000000000
10
19.3643259634
20
9.2124267108
30
0.0000000000
10
19.3388938093
20
9.2366194203
30
0.0000000000
10
19.3312500000
20
9.2437500000
30
0.0000000000
11
19.6312500000
21
8.9467217831
31
0.0000000000
11
19.5527984560
21
9.0250887305
31
0.0000000000
11
19.4756704901
21
9.1019024864
31
0.0000000000
11
19.4067037249
21
9.1703001791
31
0.0000000000
11
19.3539912351
21
9.2221611511
31
0.0000000000
11
19.3312500000
21
9.2437500000
31
0.0000000000
0
SPLINE
5
3C7
100
AcDbEntity
8
0
100
AcDbSpline
62
7
6
CONTINUOUS
70
0
71
3
72
12
73
8
74
6
42
0.0000001000
43
0.0000001000
44
0.0000000001
12
-0.3023219035
22
-0.3023762678
32
0.0000000000
13
-0.2865218633
23
-0.3175239186
33
0.0000000000
40
0.0000000000
40
0.0000000000
40
0.0000000000
40
0.0000000000
40
0.2615692142
40
0.5189265639
40
0.7491360411
40
0.9250418547
40
1.0000000000
40
1.0000000000
40
1.0000000000
40
1.0000000000
10
-22.3687500000
20
11.7484027917
30
0.0000000000
10
-22.3951093676
20
11.7220386841
30
0.0000000000
10
-22.4473401769
20
11.6696721586
30
0.0000000000
10
-22.5226409229
20
11.5939702996
30
0.0000000000
10
-22.5889602699
20
11.5265669894
30
0.0000000000
10
-22.6372589511
20
11.4778821521
30
0.0000000000
10
-22.6615909508
20
11.4516836680
30
0.0000000000
10
-22.6687500000
20
11.4437500000
30
0.0000000000
11
-22.3687500000
21
11.7484027917
31
0.0000000000
11
-22.4477463279
21
11.6692287932
31
0.0000000000
11
-22.5252938220
21
11.5911536624
31
0.0000000000
11
-22.5944457444
21
11.5211012470
31
0.0000000000
11
-22.6469738872
21
11.4672674787
31
0.0000000000
11
-22.6687500000
21
11.4437500000
31
0.0000000000
0
SPLINE
5
3C8
100
AcDbEntity
8
0
100
AcDbSpline
62
9
6
CONTINUOUS
70
0
71
3
72
11
73
7
74
5
42
0.0000001000
43
0.0000001000
44
0.0000000001
12
-0.0007129025
22
-0.7795522187
32
0.0000000000
13
-0.7795522203
23
-0.0007111670
33
0.0000000000
40
0.0000000000
40
0.0000000000
40
0.0000000000
40
0.0000000000
40
0.2498284575
40
0.4998010769
40
0.7498901806
40
1.0000000000
40
1.0000000000
40
1.0000000000
40
1.0000000000
10
33.3399719643
20
-17.4818423698
30
0.0000000000
10
33.3399125965
20
-17.5467604793
30
0.0000000000
10
33.3137853296
20
-17.6780290553
30
0.0000000000
10
33.2024870016
20
-17.8439081272
30
0.0000000000
10
33.0364078941
20
-17.9550245240
30
0.0000000000
10
32.9050393384
20
-17.9810978473
30
0.0000000000
10
32.8400481167
20
-17.9811571372
30
0.0000000000
11
33.3399719643
21
-17.4818423698
31
0.0000000000
11
33.3017865548
21
-17.6728165948
31
0.0000000000
11
33.1933863298
21
-17.8347500926
31
0.0000000000
11
33.0312553001
21
-17.9430182499
31
0.0000000000
11
32.8400481167
21
-17.9811571372
31
0.0000000000
0
SPLINE
5
3C9
100
AcDbEntity
8
0
100
AcDbSpline
62
7
6
CONTINUOUS
70
0
71
3
72
12
73
8
74
6
42
0.0000001000
43
0.0000001000
44
0.0000000001
12
-0.2984866203
22
0.2985615569
32
0.0000000000
13
-0.3087416567
23
0.2880117646
33
0.0000000000
40
0.0000000000
40
0.0000000000
40
0.0000000000
40
0.0000000000
40
0.2626563802
40
0.5204949386
40
0.7505695636
40
0.9257261620
40
1.0000000000
40
1.0000000000
40
1.0000000000
40
1.0000000000
10
-22.3687500000
20
8.9467217831
30
0.0000000000
10
-22.3948831384
20
8.9728614823
30
0.0000000000
10
-22.4467100621
20
9.0246211255
30
0.0000000000
10
-22.5215126598
20
9.0991950184
30
0.0000000000
10
-22.5878375973
20
9.1648267870
30
0.0000000000
10
-22.6356740366
20
9.2124267108
30
0.0000000000
10
-22.6611061907
20
9.2366194203
30
0.0000000000
10
-22.6687500000
20
9.2437500000
30
0.0000000000
11
-22.3687500000
21
8.9467217831
31
0.0000000000
11
-22.4472015440
21
9.0250887305
31
0.0000000000
11
-22.5243295099
21
9.1019024864
31
0.0000000000
11
-22.5932962751
21
9.1703001791
31
0.0000000000
11
-22.6460087649
21
9.2221611511
31
0.0000000000
11
-22.6687500000
21
9.2437500000
31
0.0000000000
0
SPLINE
5
3CA
100
AcDbEntity
8
0
100
AcDbSpline
62
9
6
CONTINUOUS
70
0
71
3
72
11
73
7
74
5
42
0.0000001000
43
0.0000001000
44
0.0000000001
12
-0.1922459025
22
-0.4626268347
32
0.0000000000
13
-0.5009809778
23
-0.0003675008
33
0.0000000000
40
0.0000000000
40
0.0000000000
40
0.0000000000
40
0.0000000000
40
0.0824479891
40
0.3003243933
40
0.6220816919
40
1.0000000000
40
1.0000000000
40
1.0000000000
40
1.0000000000
10
33.3317089098
20
-17.0035459167
30
0.0000000000
10
33.3264254805
20
-17.0162601341
30
0.0000000000
10
33.2588080164
20
-17.0046758890
30
0.0000000000
10
33.1703809292
20
-17.0248072046
30
0.0000000000
10
33.0095931481
20
-17.0214742901
30
0.0000000000
10
32.8948950238
20
-17.0245166556
30
0.0000000000
10
32.8317850626
20
-17.0245629507
30
0.0000000000
11
33.3317089098
21
-17.0035459167
31
0.0000000000
11
33.2911781464
21
-17.0115052362
31
0.0000000000
11
33.1822365837
21
-17.0182792323
31
0.0000000000
11
33.0211073306
21
-17.0228591491
31
0.0000000000
11
32.8317850626
21
-17.0245629507
31
0.0000000000
0
SPLINE
5
3CB
100
AcDbEntity
8
0
100
AcDbSpline
62
9
6
CONTINUOUS
70
0
71
3
72
12
73
8
74
6
42
0.0000001000
43
0.0000001000
44
0.0000000001
12
0.0003419055
22
-0.9566761795
32
0.0000000000
13
0.1578266193
23
-0.9435677970
33
0.0000000000
40
0.0000000000
40
0.0000000000
40
0.0000000000
40
0.0000000000
40
0.3020546674
40
0.5740920651
40
0.7926325096
40
0.9388264459
40
1.0000000000
40
1.0000000000
40
1.0000000000
40
1.0000000000
10
32.8317850625
20
-17.0245642309
30
0.0000000000
10
32.8318194872
20
-17.1208870660
30
0.0000000000
10
32.8319712577
20
-17.3039796517
30
0.0000000000
10
32.8336293122
20
-17.5566677330
30
0.0000000000
10
32.8338054040
20
-17.7599169111
30
0.0000000000
10
32.8386312061
20
-17.8953309407
30
0.0000000000
10
32.8368298450
20
-17.9619166720
30
0.0000000000
10
32.8400481167
20
-17.9811571372
30
0.0000000000
11
32.8317850625
21
-17.0245642309
31
0.0000000000
11
32.8322696216
21
-17.3135323483
31
0.0000000000
11
32.8334673792
21
-17.5737813070
31
0.0000000000
11
32.8352728811
21
-17.7828459617
31
0.0000000000
11
32.8375314112
21
-17.9226879900
31
0.0000000000
11
32.8400481167
21
-17.9811571372
31
0.0000000000
0
SPLINE
5
3CC
100
AcDbEntity
8
0
100
AcDbSpline
62
9
6
CONTINUOUS
70
0
71
3
72
12
73
8
74
6
42
0.0000001000
43
0.0000001000
44
0.0000000001
12
0.0003468854
22
-0.4784629974
32
0.0000000000
13
0.1514757109
23
-0.4538524752
33
0.0000000000
40
0.0000000000
40
0.0000000000
40
0.0000000000
40
0.0000000000
40
0.3019350757
40
0.5743181479
40
0.7930026116
40
0.9391435730
40
1.0000000000
40
1.0000000000
40
1.0000000000
40
1.0000000000
10
33.3317089101
20
-17.0035459167
30
0.0000000000
10
33.3317438224
20
-17.0517008371
30
0.0000000000
10
33.3319058847
20
-17.1433330956
30
0.0000000000
10
33.3335228025
20
-17.2696655321
30
0.0000000000
10
33.3338112201
20
-17.3716401257
30
0.0000000000
10
33.3384150606
20
-17.4387792355
30
0.0000000000
10
33.3368992074
20
-17.4726357565
30
0.0000000000
10
33.3399719643
20
-17.4818423698
30
0.0000000000
11
33.3317089101
21
-17.0035459167
31
0.0000000000
11
33.3321930905
21
-17.1480099046
31
0.0000000000
11
33.3333926198
21
-17.2783296396
31
0.0000000000
11
33.3352024280
21
-17.3829464379
31
0.0000000000
11
33.3374659955
21
-17.4528328508
31
0.0000000000
11
33.3399719643
21
-17.4818423698
31
0.0000000000
0
SPLINE
5
3CD
100
AcDbEntity
8
0
100
AcDbSpline
62
9
6
CONTINUOUS
70
0
71
3
72
11
73
7
74
5
42
0.0000001000
43
0.0000001000
44
0.0000000001
12
-0.1919260126
22
0.4627598807
32
0.0000000000
13
-0.5009812039
23
0.0003672436
33
0.0000000000
40
0.0000000000
40
0.0000000000
40
0.0000000000
40
0.0000000000
40
0.0824389936
40
0.3003131931
40
0.6220743346
40
1.0000000000
40
1.0000000000
40
1.0000000000
40
1.0000000000
10
33.3317089101
20
24.9910459167
30
0.0000000000
10
33.3264348477
20
25.0037624030
30
0.0000000000
10
33.2588008611
20
24.9921736233
30
0.0000000000
10
33.1703918367
20
25.0123102537
30
0.0000000000
10
33.0095938759
20
25.0089747986
30
0.0000000000
10
32.8948962808
20
25.0120179666
30
0.0000000000
10
32.8317850625
20
25.0120642302
30
0.0000000000
11
33.3317089101
21
24.9910459167
31
0.0000000000
11
33.2911828229
21
24.9990057581
31
0.0000000000
11
33.1822423456
21
25.0057802064
31
0.0000000000
11
33.0211111016
21
25.0103603970
31
0.0000000000
11
32.8317850625
21
25.0120642302
31
0.0000000000
0
SPLINE
5
3CE
100
AcDbEntity
8
0
100
AcDbSpline
62
9
6
CONTINUOUS
70
0
71
3
72
10
73
6
74
4
42
0.0000001000
43
0.0000001000
44
0.0000000001
12
-0.0308407996
22
-41.9945838615
32
0.0000000000
13
0.0308408117
23
-41.9945838615
33
0.0000000000
40
0.0000000000
40
0.0000000000
40
0.0000000000
40
0.0000000000
40
0.3332886949
40
0.6667106342
40
1.0000000000
40
1.0000000000
40
1.0000000000
40
1.0000000000
10
33.3317089101
20
24.9910459167
30
0.0000000000
10
33.3282826135
20
20.3256059011
30
0.0000000000
10
33.3237165659
20
10.9928588406
30
0.0000000000
10
33.3237165607
20
-3.0053400570
30
0.0000000000
10
33.3282826052
20
-12.3380965093
30
0.0000000000
10
33.3317089101
20
-17.0035459167
30
0.0000000000
11
33.3317089101
21
24.9910459167
31
0.0000000000
11
33.3248585333
21
10.9947237718
31
0.0000000000
11
33.3248585267
21
-3.0071955965
31
0.0000000000
11
33.3317089101
21
-17.0035459167
31
0.0000000000
0
SPLINE
5
3CF
100
AcDbEntity
8
0
100
AcDbSpline
62
9
6
CONTINUOUS
70
0
71
3
72
11
73
7
74
5
42
0.0000001000
43
0.0000001000
44
0.0000000001
12
-0.0007128936
22
0.7795522250
32
0.0000000000
13
-0.7795522266
23
0.0007111401
33
0.0000000000
40
0.0000000000
40
0.0000000000
40
0.0000000000
40
0.0000000000
40
0.2498173425
40
0.4997870953
40
0.7498806029
40
1.0000000000
40
1.0000000000
40
1.0000000000
40
1.0000000000
10
33.3399719643
20
25.4693423698
30
0.0000000000
10
33.3399125999
20
25.5342575915
30
0.0000000000
10
33.3137873009
20
25.6655223528
30
0.0000000000
10
33.2024937943
20
25.8314014741
30
0.0000000000
10
33.0364141761
20
25.9425227432
30
0.0000000000
10
32.9050418276
20
25.9685978470
30
0.0000000000
10
32.8400481166
20
25.9686571370
30
0.0000000000
11
33.3399719643
21
25.4693423698
31
0.0000000000
11
33.3017899464
21
25.6603084383
31
0.0000000000
11
33.1933941964
21
25.8222422444
31
0.0000000000
11
33.0312623347
21
25.9305153406
31
0.0000000000
11
32.8400481166
21
25.9686571370
31
0.0000000000
0
SPLINE
5
3D0
100
AcDbEntity
8
0
100
AcDbSpline
62
9
6
CONTINUOUS
70
0
71
3
72
12
73
8
74
6
42
0.0000001000
43
0.0000001000
44
0.0000000001
12
-0.1578266087
22
-0.9435677988
32
0.0000000000
13
-0.0003419054
23
-0.9566761795
33
0.0000000000
40
0.0000000000
40
0.0000000000
40
0.0000000000
40
0.0000000000
40
0.0611735541
40
0.2073674904
40
0.4259079349
40
0.6979453326
40
1.0000000000
40
1.0000000000
40
1.0000000000
40
1.0000000000
10
32.8400481167
20
25.9686571372
30
0.0000000000
10
32.8368298452
20
25.9494166719
30
0.0000000000
10
32.8386312059
20
25.8828309407
30
0.0000000000
10
32.8338054041
20
25.7474169110
30
0.0000000000
10
32.8336293122
20
25.5441677330
30
0.0000000000
10
32.8319712577
20
25.2914796517
30
0.0000000000
10
32.8318194872
20
25.1083870660
30
0.0000000000
10
32.8317850625
20
25.0120642309
30
0.0000000000
11
32.8400481167
21
25.9686571372
31
0.0000000000
11
32.8375314112
21
25.9101879900
31
0.0000000000
11
32.8352728810
21
25.7703459617
31
0.0000000000
11
32.8334673792
21
25.5612813070
31
0.0000000000
11
32.8322696216
21
25.3010323483
31
0.0000000000
11
32.8317850625
21
25.0120642309
31
0.0000000000
0
SPLINE
5
3D1
100
AcDbEntity
8
0
100
AcDbSpline
62
9
6
CONTINUOUS
70
0
71
3
72
12
73
8
74
6
42
0.0000001000
43
0.0000001000
44
0.0000000001
12
-0.1514757040
22
-0.4538524775
32
0.0000000000
13
-0.0003468853
23
-0.4784629974
33
0.0000000000
40
0.0000000000
40
0.0000000000
40
0.0000000000
40
0.0000000000
40
0.0608564275
40
0.2069973882
40
0.4256818522
40
0.6980649242
40
1.0000000000
40
1.0000000000
40
1.0000000000
40
1.0000000000
10
33.3399719643
20
25.4693423698
30
0.0000000000
10
33.3368992076
20
25.4601357564
30
0.0000000000
10
33.3384150605
20
25.4262792355
30
0.0000000000
10
33.3338112201
20
25.3591401256
30
0.0000000000
10
33.3335228025
20
25.2571655322
30
0.0000000000
10
33.3319058847
20
25.1308330956
30
0.0000000000
10
33.3317438224
20
25.0392008372
30
0.0000000000
10
33.3317089101
20
24.9910459167
30
0.0000000000
11
33.3399719643
21
25.4693423698
31
0.0000000000
11
33.3374659955
21
25.4403328505
31
0.0000000000
11
33.3352024280
21
25.3704464381
31
0.0000000000
11
33.3333926198
21
25.2658296396
31
0.0000000000
11
33.3321930905
21
25.1355099047
31
0.0000000000
11
33.3317089101
21
24.9910459167
31
0.0000000000
0
SPLINE
5
3D2
100
AcDbEntity
8
0
100
AcDbSpline
62
7
6
CONTINUOUS
70
0
71
3
72
12
73
8
74
6
42
0.0000001000
43
0.0000001000
44
0.0000000001
12
0.3023219035
22
-0.3023762678
32
0.0000000000
13
0.2865218633
23
-0.3175239186
33
0.0000000000
40
0.0000000000
40
0.0000000000
40
0.0000000000
40
0.0000000000
40
0.2615692142
40
0.5189265639
40
0.7491360411
40
0.9250418547
40
1.0000000000
40
1.0000000000
40
1.0000000000
40
1.0000000000
10
-29.9687500000
20
11.7484027917
30
0.0000000000
10
-29.9423906324
20
11.7220386841
30
0.0000000000
10
-29.8901598231
20
11.6696721586
30
0.0000000000
10
-29.8148590771
20
11.5939702996
30
0.0000000000
10
-29.7485397301
20
11.5265669894
30
0.0000000000
10
-29.7002410489
20
11.4778821521
30
0.0000000000
10
-29.6759090492
20
11.4516836680
30
0.0000000000
10
-29.6687500000
20
11.4437500000
30
0.0000000000
11
-29.9687500000
21
11.7484027917
31
0.0000000000
11
-29.8897536721
21
11.6692287932
31
0.0000000000
11
-29.8122061780
21
11.5911536624
31
0.0000000000
11
-29.7430542556
21
11.5211012470
31
0.0000000000
11
-29.6905261128
21
11.4672674787
31
0.0000000000
11
-29.6687500000
21
11.4437500000
31
0.0000000000
0
SPLINE
5
3D3
100
AcDbEntity
8
0
100
AcDbSpline
62
9
6
CONTINUOUS
70
0
71
3
72
11
73
7
74
5
42
0.0000001000
43
0.0000001000
44
0.0000000001
12
-0.7795522202
22
0.0007111676
32
0.0000000000
13
-0.0007129025
23
0.7795522186
33
0.0000000000
40
0.0000000000
40
0.0000000000
40
0.0000000000
40
0.0000000000
40
0.2501098189
40
0.5001989225
40
0.7501715422
40
1.0000000000
40
1.0000000000
40
1.0000000000
40
1.0000000000
10
-33.1775481167
20
-17.9811571372
30
0.0000000000
10
-33.2425393382
20
-17.9810978472
30
0.0000000000
10
-33.3739078937
20
-17.9550245240
30
0.0000000000
10
-33.5399870014
20
-17.8439081275
30
0.0000000000
10
-33.6512853296
20
-17.6780290555
30
0.0000000000
10
-33.6774125965
20
-17.5467604793
30
0.0000000000
10
-33.6774719643
20
-17.4818423698
30
0.0000000000
11
-33.1775481167
21
-17.9811571372
31
0.0000000000
11
-33.3687552996
21
-17.9430182500
31
0.0000000000
11
-33.5308863294
21
-17.8347500929
31
0.0000000000
11
-33.6392865547
21
-17.6728165950
31
0.0000000000
11
-33.6774719643
21
-17.4818423698
31
0.0000000000
0
SPLINE
5
3D4
100
AcDbEntity
8
0
100
AcDbSpline
62
7
6
CONTINUOUS
70
0
71
3
72
12
73
8
74
6
42
0.0000001000
43
0.0000001000
44
0.0000000001
12
0.2984866379
22
0.2985615746
32
0.0000000000
13
0.3087745876
23
0.2879766155
33
0.0000000000
40
0.0000000000
40
0.0000000000
40
0.0000000000
40
0.0000000000
40
0.2612345032
40
0.5197799551
40
0.7510894526
40
0.9264313226
40
1.0000000000
40
1.0000000000
40
1.0000000000
40
1.0000000000
10
-29.9687500000
20
8.9467217831
30
0.0000000000
10
-29.9427583305
20
8.9727199779
30
0.0000000000
10
-29.8910027064
20
9.0244086297
30
0.0000000000
10
-29.8161492244
20
9.0990351406
30
0.0000000000
10
-29.7496103914
20
9.1648762468
30
0.0000000000
10
-29.7017045525
20
9.2125492260
30
0.0000000000
10
-29.6763220460
20
9.2366879804
30
0.0000000000
10
-29.6687500000
20
9.2437500000
30
0.0000000000
11
-29.9687500000
21
8.9467217831
31
0.0000000000
11
-29.8907234380
21
9.0246647931
31
0.0000000000
11
-29.8133845505
21
9.1016896873
31
0.0000000000
11
-29.7440476328
21
9.1704545077
31
0.0000000000
11
-29.6912780993
21
9.2223690336
31
0.0000000000
11
-29.6687500000
21
9.2437500000
31
0.0000000000
0
SPLINE
5
3D5
100
AcDbEntity
8
0
100
AcDbSpline
62
9
6
CONTINUOUS
70
0
71
3
72
11
73
7
74
5
42
0.0000001000
43
0.0000001000
44
0.0000000001
12
-0.5009808733
22
0.0003674558
32
0.0000000000
13
-0.1924113408
23
0.4625579384
33
0.0000000000
40
0.0000000000
40
0.0000000000
40
0.0000000000
40
0.0000000000
40
0.3779144499
40
0.6996697282
40
0.9175472819
40
1.0000000000
40
1.0000000000
40
1.0000000000
40
1.0000000000
10
-33.1692850626
20
-17.0245622942
30
0.0000000000
10
-33.2323943663
20
-17.0245160052
30
0.0000000000
10
-33.3470927568
20
-17.0214741041
30
0.0000000000
10
-33.5078752529
20
-17.0248056884
30
0.0000000000
10
-33.5963117144
20
-17.0046772016
30
0.0000000000
10
-33.6639206301
20
-17.0162589698
30
0.0000000000
10
-33.6692089094
20
-17.0035459167
30
0.0000000000
11
-33.1692850626
21
-17.0245622942
31
0.0000000000
11
-33.3586053588
21
-17.0228585666
31
0.0000000000
11
-33.5197335705
21
-17.0182788169
31
0.0000000000
11
-33.6286757005
21
-17.0115050331
31
0.0000000000
11
-33.6692089094
21
-17.0035459167
31
0.0000000000
0
SPLINE
5
3D6
100
AcDbEntity
8
0
100
AcDbSpline
62
9
6
CONTINUOUS
70
0
71
3
72
12
73
8
74
6
42
0.0000001000
43
0.0000001000
44
0.0000000001
12
-0.0003505835
22
-0.4784629338
32
0.0000000000
13
-0.1517262814
23
-0.4537687048
33
0.0000000000
40
0.0000000000
40
0.0000000000
40
0.0000000000
40
0.0000000000
40
0.3009963327
40
0.5736078059
40
0.7925656777
40
0.9389455800
40
1.0000000000
40
1.0000000000
40
1.0000000000
40
1.0000000000
10
-33.6692089101
20
-17.0035459167
30
0.0000000000
10
-33.6692440849
20
-17.0515511128
30
0.0000000000
10
-33.6694045101
20
-17.1430700931
30
0.0000000000
10
-33.6710207137
20
-17.2693323047
30
0.0000000000
10
-33.6713011607
20
-17.3714269970
30
0.0000000000
10
-33.6759219475
20
-17.4386750199
30
0.0000000000
10
-33.6743841109
20
-17.4726075081
30
0.0000000000
10
-33.6774719643
20
-17.4818423698
30
0.0000000000
11
-33.6692089101
21
-17.0035459167
31
0.0000000000
11
-33.6696903581
21
-17.1475607390
31
0.0000000000
11
-33.6708882921
21
-17.2779897581
31
0.0000000000
11
-33.6726974879
21
-17.3827373889
31
0.0000000000
11
-33.6749614114
21
-17.4527381656
31
0.0000000000
11
-33.6774719643
21
-17.4818423698
31
0.0000000000
0
SPLINE
5
3D7
100
AcDbEntity
8
0
100
AcDbSpline
62
9
6
CONTINUOUS
70
0
71
3
72
12
73
8
74
6
42
0.0000001000
43
0.0000001000
44
0.0000000001
12
-0.0003513638
22
-0.9566761918
32
0.0000000000
13
-0.1578961237
23
-0.9435561846
33
0.0000000000
40
0.0000000000
40
0.0000000000
40
0.0000000000
40
0.0000000000
40
0.3020508962
40
0.5741045971
40
0.7926457225
40
0.9388301530
40
1.0000000000
40
1.0000000000
40
1.0000000000
40
1.0000000000
10
-33.1692850625
20
-17.0245642309
30
0.0000000000
10
-33.1693204391
20
-17.1208858646
30
0.0000000000
10
-33.1694706815
20
-17.3039824702
30
0.0000000000
10
-33.1711292887
20
-17.5566746895
30
0.0000000000
10
-33.1713038630
20
-17.7599264609
30
0.0000000000
10
-33.1761322220
20
-17.8953361096
30
0.0000000000
10
-33.1743286228
20
-17.9619180747
30
0.0000000000
10
-33.1775481167
20
-17.9811571372
30
0.0000000000
11
-33.1692850625
21
-17.0245642309
31
0.0000000000
11
-33.1697694756
21
-17.3135287454
31
0.0000000000
11
-33.1709669406
21
-17.5737933068
31
0.0000000000
11
-33.1727723565
21
-17.7828586172
31
0.0000000000
11
-33.1750312145
21
-17.9226915474
31
0.0000000000
11
-33.1775481167
21
-17.9811571372
31
0.0000000000
0
SPLINE
5
3D8
100
AcDbEntity
8
0
100
AcDbSpline
62
9
6
CONTINUOUS
70
0
71
3
72
11
73
7
74
5
42
0.0000001000
43
0.0000001000
44
0.0000000001
12
-0.5009812037
22
-0.0003672654
32
0.0000000000
13
-0.1919258715
23
-0.4627599390
33
0.0000000000
40
0.0000000000
40
0.0000000000
40
0.0000000000
40
0.0000000000
40
0.3779256700
40
0.6996868131
40
0.9175610108
40
1.0000000000
40
1.0000000000
40
1.0000000000
40
1.0000000000
10
-33.1692850625
20
25.0120642305
30
0.0000000000
10
-33.2323962816
20
25.0120179641
30
0.0000000000
10
-33.3470938765
20
25.0089747920
30
0.0000000000
10
-33.5078918419
20
25.0123102522
30
0.0000000000
10
-33.5963008581
20
24.9921736208
30
0.0000000000
10
-33.6639348518
20
25.0037624039
30
0.0000000000
10
-33.6692089101
20
24.9910459167
30
0.0000000000
11
-33.1692850625
21
25.0120642305
31
0.0000000000
11
-33.3586111038
21
25.0103603924
31
0.0000000000
11
-33.5197423486
21
25.0057802040
31
0.0000000000
11
-33.6286828251
21
24.9990057576
31
0.0000000000
11
-33.6692089101
21
24.9910459167
31
0.0000000000
0
SPLINE
5
3D9
100
AcDbEntity
8
0
100
AcDbSpline
62
9
6
CONTINUOUS
70
0
71
3
72
10
73
6
74
4
42
0.0000001000
43
0.0000001000
44
0.0000000001
12
0.0308408131
22
-41.9945838615
32
0.0000000000
13
-0.0308408106
23
-41.9945838615
33
0.0000000000
40
0.0000000000
40
0.0000000000
40
0.0000000000
40
0.0000000000
40
0.3332892101
40
0.6667109287
40
1.0000000000
40
1.0000000000
40
1.0000000000
40
1.0000000000
10
-33.6692089101
20
24.9910459167
30
0.0000000000
10
-33.6657826067
20
20.3255986893
30
0.0000000000
10
-33.6612165635
20
10.9928475058
30
0.0000000000
10
-33.6612165646
20
-3.0053513917
30
0.0000000000
10
-33.6657826084
20
-12.3381006322
30
0.0000000000
10
-33.6692089101
20
-17.0035459167
30
0.0000000000
11
-33.6692089101
21
24.9910459167
31
0.0000000000
11
-33.6623585283
21
10.9947021365
31
0.0000000000
11
-33.6623585296
21
-3.0072079653
31
0.0000000000
11
-33.6692089101
21
-17.0035459167
31
0.0000000000
0
SPLINE
5
3DA
100
AcDbEntity
8
0
100
AcDbSpline
62
9
6
CONTINUOUS
70
0
71
3
72
11
73
7
74
5
42
0.0000001000
43
0.0000001000
44
0.0000000001
12
-0.7795522259
22
-0.0007111449
32
0.0000000000
13
-0.0007128944
23
-0.7795522243
33
0.0000000000
40
0.0000000000
40
0.0000000000
40
0.0000000000
40
0.0000000000
40
0.2501177144
40
0.5002104435
40
0.7501806978
40
1.0000000000
40
1.0000000000
40
1.0000000000
40
1.0000000000
10
-33.1775481167
20
25.9686571372
30
0.0000000000
10
-33.2425413904
20
25.9685978472
30
0.0000000000
10
-33.3739130713
20
25.9425230565
30
0.0000000000
10
-33.5399925988
20
25.8314026454
30
0.0000000000
10
-33.6512869538
20
25.6655235337
30
0.0000000000
10
-33.6774125994
20
25.5342581007
30
0.0000000000
10
-33.6774719643
20
25.4693423698
30
0.0000000000
11
-33.1775481167
21
25.9686571372
31
0.0000000000
11
-33.3687610990
21
25.9305158519
31
0.0000000000
11
-33.5308928120
21
25.8222436262
31
0.0000000000
11
-33.6392893487
21
25.6603098766
31
0.0000000000
11
-33.6774719643
21
25.4693423698
31
0.0000000000
0
SPLINE
5
3DB
100
AcDbEntity
8
0
100
AcDbSpline
62
9
6
CONTINUOUS
70
0
71
3
72
12
73
8
74
6
42
0.0000001000
43
0.0000001000
44
0.0000000001
12
0.1517262712
22
-0.4537687082
32
0.0000000000
13
0.0003505835
23
-0.4784629338
33
0.0000000000
40
0.0000000000
40
0.0000000000
40
0.0000000000
40
0.0000000000
40
0.0610544204
40
0.2074343222
40
0.4263921941
40
0.6990036671
40
1.0000000000
40
1.0000000000
40
1.0000000000
40
1.0000000000
10
-33.6774719643
20
25.4693423698
30
0.0000000000
10
-33.6743841111
20
25.4601075080
30
0.0000000000
10
-33.6759219473
20
25.4261750199
30
0.0000000000
10
-33.6713011608
20
25.3589269969
30
0.0000000000
10
-33.6710207137
20
25.2568323048
30
0.0000000000
10
-33.6694045101
20
25.1305700931
30
0.0000000000
10
-33.6692440849
20
25.0390511128
30
0.0000000000
10
-33.6692089101
20
24.9910459167
30
0.0000000000
11
-33.6774719643
21
25.4693423698
31
0.0000000000
11
-33.6749614114
21
25.4402381654
31
0.0000000000
11
-33.6726974879
21
25.3702373890
31
0.0000000000
11
-33.6708882921
21
25.2654897581
31
0.0000000000
11
-33.6696903581
21
25.1350607391
31
0.0000000000
11
-33.6692089101
21
24.9910459167
31
0.0000000000
0
SPLINE
5
3DC
100
AcDbEntity
8
0
100
AcDbSpline
62
9
6
CONTINUOUS
70
0
71
3
72
12
73
8
74
6
42
0.0000001000
43
0.0000001000
44
0.0000000001
12
0.1578961138
22
-0.9435561863
32
0.0000000000
13
0.0003513638
23
-0.9566761918
33
0.0000000000
40
0.0000000000
40
0.0000000000
40
0.0000000000
40
0.0000000000
40
0.0611698470
40
0.2073542775
40
0.4258954029
40
0.6979491038
40
1.0000000000
40
1.0000000000
40
1.0000000000
40
1.0000000000
10
-33.1775481167
20
25.9686571372
30
0.0000000000
10
-33.1743286230
20
25.9494180747
30
0.0000000000
10
-33.1761322217
20
25.8828361096
30
0.0000000000
10
-33.1713038631
20
25.7474264609
30
0.0000000000
10
-33.1711292887
20
25.5441746895
30
0.0000000000
10
-33.1694706815
20
25.2914824702
30
0.0000000000
10
-33.1693204391
20
25.1083858646
30
0.0000000000
10
-33.1692850625
20
25.0120642309
30
0.0000000000
11
-33.1775481167
21
25.9686571372
31
0.0000000000
11
-33.1750312145
21
25.9101915474
31
0.0000000000
11
-33.1727723565
21
25.7703586172
31
0.0000000000
11
-33.1709669406
21
25.5612933068
31
0.0000000000
11
-33.1697694756
21
25.3010287454
31
0.0000000000
11
-33.1692850625
21
25.0120642309
31
0.0000000000
0
SPLINE
5
3DD
100
AcDbEntity
8
0
100
AcDbSpline
62
7
6
CONTINUOUS
70
0
71
3
72
12
73
8
74
6
42
0.0000001000
43
0.0000001000
44
0.0000000001
12
-0.3023219609
22
-0.3023763252
32
0.0000000000
13
-0.2864434709
23
-0.3175951085
33
0.0000000000
40
0.0000000000
40
0.0000000000
40
0.0000000000
40
0.0000000000
40
0.2594744949
40
0.5178669927
40
0.7499043871
40
0.9260888396
40
1.0000000000
40
1.0000000000
40
1.0000000000
40
1.0000000000
10
19.6312500000
20
11.7484027917
30
0.0000000000
10
19.6051017206
20
11.7222498103
30
0.0000000000
10
19.5529772893
20
11.6699904729
30
0.0000000000
10
19.4775971731
20
11.5942129938
30
0.0000000000
10
19.4109664762
20
11.5264880391
30
0.0000000000
10
19.3625567209
20
11.4777001755
30
0.0000000000
10
19.3383071231
20
11.4515746077
30
0.0000000000
10
19.3312500000
20
11.4437500000
30
0.0000000000
11
19.6312500000
21
11.7484027917
31
0.0000000000
11
19.5528856131
21
11.6698634930
31
0.0000000000
11
19.4750249879
21
11.5914755070
31
0.0000000000
11
19.4053239337
21
11.5208668812
31
0.0000000000
11
19.3527154435
21
11.4669450300
31
0.0000000000
11
19.3312500000
21
11.4437500000
31
0.0000000000
0
SPLINE
5
3DE
100
AcDbEntity
8
0
100
AcDbSpline
62
9
6
CONTINUOUS
70
0
71
3
72
12
73
8
74
6
42
0.0000001000
43
0.0000001000
44
0.0000000001
12
-0.7345010954
22
-0.0384136564
32
0.0000000000
13
-0.0305230107
23
-0.7348712908
33
0.0000000000
40
0.0000000000
40
0.0000000000
40
0.0000000000
40
0.0000000000
40
0.1991399452
40
0.3994273482
40
0.5996874293
40
0.7999973228
40
1.0000000000
40
1.0000000000
40
1.0000000000
40
1.0000000000
10
-76.3791336850
20
25.4693423698
30
0.0000000000
10
-76.4278898543
20
25.4667924720
30
0.0000000000
10
-76.5255249672
20
25.4470961964
30
0.0000000000
10
-76.6567454532
20
25.3763316135
30
0.0000000000
10
-76.7619967580
20
25.2701399563
30
0.0000000000
10
-76.8316623108
20
25.1380896308
30
0.0000000000
10
-76.8504888474
20
25.0400379919
30
0.0000000000
10
-76.8525237420
20
24.9910459167
30
0.0000000000
11
-76.3791336850
21
25.4693423698
31
0.0000000000
11
-76.5227005405
21
25.4403328505
31
0.0000000000
11
-76.6523802345
21
25.3704464381
31
0.0000000000
11
-76.7560640758
21
25.2658296396
31
0.0000000000
11
-76.8247850646
21
25.1355099047
31
0.0000000000
11
-76.8525237420
21
24.9910459167
31
0.0000000000
0
SPLINE
5
3DF
100
AcDbEntity
8
0
100
AcDbSpline
62
9
6
CONTINUOUS
70
0
71
3
72
11
73
7
74
5
42
0.0000001000
43
0.0000001000
44
0.0000000001
12
-0.0261460054
22
0.4990537295
32
0.0000000000
13
0.4990532961
23
0.0261542750
33
0.0000000000
40
0.0000000000
40
0.0000000000
40
0.0000000000
40
0.0000000000
40
0.3825891735
40
0.7068950514
40
0.9236294484
40
1.0000000000
40
1.0000000000
40
1.0000000000
40
1.0000000000
10
-76.3791336850
20
25.4693423698
30
0.0000000000
10
-76.3824680778
20
25.5329865545
30
0.0000000000
10
-76.3848486256
20
25.6469172759
30
0.0000000000
10
-76.4032601527
20
25.8136106992
30
0.0000000000
10
-76.3827433820
20
25.8907922962
30
0.0000000000
10
-76.4092797891
20
25.9679913315
30
0.0000000000
10
-76.3965754639
20
25.9686571370
30
0.0000000000
11
-76.3791336850
21
25.4693423698
31
0.0000000000
11
-76.3884752268
21
25.6603084383
31
0.0000000000
11
-76.3950697307
21
25.8222422444
31
0.0000000000
11
-76.3979140971
21
25.9305153406
31
0.0000000000
11
-76.3965754639
21
25.9686571370
31
0.0000000000
0
SPLINE
5
3E0
100
AcDbEntity
8
0
100
AcDbSpline
62
9
6
CONTINUOUS
70
0
71
3
72
10
73
6
74
4
42
0.0000001000
43
0.0000001000
44
0.0000000001
12
-1.7657692813
22
-41.9684644010
32
0.0000000000
13
1.7657699770
23
-41.9684643717
33
0.0000000000
40
0.0000000000
40
0.0000000000
40
0.0000000000
40
0.0000000000
40
0.3333323477
40
0.6666669816
40
1.0000000000
40
1.0000000000
40
1.0000000000
40
1.0000000000
10
-76.8525237420
20
24.9910459167
30
0.0000000000
10
-77.0487197487
20
20.3278969941
30
0.0000000000
10
-77.3104027078
20
10.9955171651
30
0.0000000000
10
-77.3104030045
20
-3.0079983769
30
0.0000000000
10
-77.0487202207
20
-12.3403876140
30
0.0000000000
10
-76.8525237420
20
-17.0035459167
30
0.0000000000
11
-76.8525237420
21
24.9910459167
31
0.0000000000
11
-77.2449815688
21
10.9947237718
31
0.0000000000
11
-77.2449819421
21
-3.0071955965
31
0.0000000000
11
-76.8525237420
21
-17.0035459167
31
0.0000000000
0
SPLINE
5
3E1
100
AcDbEntity
8
0
100
AcDbSpline
62
9
6
CONTINUOUS
70
0
71
3
72
12
73
8
74
6
42
0.0000001000
43
0.0000001000
44
0.0000000001
12
0.0305230167
22
-0.7348712906
32
0.0000000000
13
0.7345010956
23
-0.0384136544
33
0.0000000000
40
0.0000000000
40
0.0000000000
40
0.0000000000
40
0.0000000000
40
0.2000026772
40
0.4003125706
40
0.6005726517
40
0.8008600548
40
1.0000000000
40
1.0000000000
40
1.0000000000
40
1.0000000000
10
-76.8525237420
20
-17.0035459167
30
0.0000000000
10
-76.8504888470
20
-17.0525379919
30
0.0000000000
10
-76.8316623107
20
-17.1505896307
30
0.0000000000
10
-76.7619967582
20
-17.2826399565
30
0.0000000000
10
-76.6567454530
20
-17.3888316132
30
0.0000000000
10
-76.5255249674
20
-17.4595961970
30
0.0000000000
10
-76.4278898543
20
-17.4792924721
30
0.0000000000
10
-76.3791336850
20
-17.4818423698
30
0.0000000000
11
-76.8525237420
21
-17.0035459167
31
0.0000000000
11
-76.8247850644
21
-17.1480099046
31
0.0000000000
11
-76.7560640759
21
-17.2783296396
31
0.0000000000
11
-76.6523802344
21
-17.3829464379
31
0.0000000000
11
-76.5227005406
21
-17.4528328508
31
0.0000000000
11
-76.3791336850
21
-17.4818423698
31
0.0000000000
0
SPLINE
5
3E2
100
AcDbEntity
8
0
100
AcDbSpline
62
9
6
CONTINUOUS
70
0
71
3
72
11
73
7
74
5
42
0.0000001000
43
0.0000001000
44
0.0000000001
12
-0.0261463313
22
-0.4990537240
32
0.0000000000
13
0.4990533077
23
-0.0261542756
33
0.0000000000
40
0.0000000000
40
0.0000000000
40
0.0000000000
40
0.0000000000
40
0.3826055122
40
0.7069107611
40
0.9236352589
40
1.0000000000
40
1.0000000000
40
1.0000000000
40
1.0000000000
10
-76.3791336850
20
-17.4818423698
30
0.0000000000
10
-76.3824682618
20
-17.5454892717
30
0.0000000000
10
-76.3848488019
20
-17.6594223615
30
0.0000000000
10
-76.4032604526
20
-17.8261170528
30
0.0000000000
10
-76.3827444807
20
-17.9032966395
30
0.0000000000
10
-76.4092788188
20
-17.9804913824
30
0.0000000000
10
-76.3965754599
20
-17.9811571372
30
0.0000000000
11
-76.3791336850
21
-17.4818423698
31
0.0000000000
11
-76.3884756915
21
-17.6728165948
31
0.0000000000
11
-76.3950701342
21
-17.8347500926
31
0.0000000000
11
-76.3979142210
21
-17.9430182499
31
0.0000000000
11
-76.3965754599
21
-17.9811571372
31
0.0000000000
0
SPLINE
5
3E3
100
AcDbEntity
8
0
100
AcDbSpline
62
7
6
CONTINUOUS
70
0
71
3
72
10
73
6
74
4
42
0.0000001000
43
0.0000001000
44
0.0000000001
12
-4.0000360299
22
0.0287443498
32
0.0000000000
13
-3.9999639243
23
0.0374577365
33
0.0000000000
40
0.0000000000
40
0.0000000000
40
0.0000000000
40
0.0000000000
40
0.3308206703
40
0.6641622673
40
1.0000000000
40
1.0000000000
40
1.0000000000
40
1.0000000000
10
-64.2853204400
20
26.6236166026
30
0.0000000000
10
-64.7264186402
20
26.6267863443
30
0.0000000000
10
-65.6119736970
20
26.6335179315
30
0.0000000000
10
-66.9453070611
20
26.6446544056
30
0.0000000000
10
-67.8375408349
20
26.6527233815
30
0.0000000000
10
-68.2853204400
20
26.6569166220
30
0.0000000000
11
-64.2853204400
21
26.6236166026
31
0.0000000000
11
-65.6086111146
21
26.6336573311
31
0.0000000000
11
-66.9419775517
21
26.6447796289
31
0.0000000000
11
-68.2853204400
21
26.6569166220
31
0.0000000000
0
SPLINE
5
3E4
100
AcDbEntity
8
0
100
AcDbSpline
62
7
6
CONTINUOUS
70
0
71
3
72
10
73
6
74
4
42
0.0000001000
43
0.0000001000
44
0.0000000001
12
-4.0000360299
22
-0.0287443498
32
0.0000000000
13
-3.9999639243
23
-0.0374577365
33
0.0000000000
40
0.0000000000
40
0.0000000000
40
0.0000000000
40
0.0000000000
40
0.3308206703
40
0.6641622673
40
1.0000000000
40
1.0000000000
40
1.0000000000
40
1.0000000000
10
-64.2853204400
20
-18.6361166026
30
0.0000000000
10
-64.7264186402
20
-18.6392863443
30
0.0000000000
10
-65.6119736970
20
-18.6460179315
30
0.0000000000
10
-66.9453070611
20
-18.6571544056
30
0.0000000000
10
-67.8375408349
20
-18.6652233815
30
0.0000000000
10
-68.2853204400
20
-18.6694166220
30
0.0000000000
11
-64.2853204400
21
-18.6361166026
31
0.0000000000
11
-65.6086111146
21
-18.6461573311
31
0.0000000000
11
-66.9419775517
21
-18.6572796289
31
0.0000000000
11
-68.2853204400
21
-18.6694166220
31
0.0000000000
0
SPLINE
5
3E5
100
AcDbEntity
8
0
100
AcDbSpline
62
7
6
CONTINUOUS
70
0
71
3
72
11
73
7
74
5
42
0.0000001000
43
0.0000001000
44
0.0000000001
12
-0.0000020634
22
-0.7715629570
32
0.0000000000
13
0.7714454213
23
-0.0134669416
33
0.0000000000
40
0.0000000000
40
0.0000000000
40
0.0000000000
40
0.0000000000
40
0.2499687714
40
0.4999744278
40
0.7499927878
40
1.0000000000
40
1.0000000000
40
1.0000000000
40
1.0000000000
10
-58.2853219578
20
14.4849515737
30
0.0000000000
10
-58.2853221298
20
14.4206626923
30
0.0000000000
10
-58.2598911686
20
14.2906996663
30
0.0000000000
10
-58.1510186685
20
14.1257527358
30
0.0000000000
10
-57.9879956116
20
14.0140013652
30
0.0000000000
10
-57.8584826560
20
13.9862993799
30
0.0000000000
10
-57.7941936830
20
13.9851771024
30
0.0000000000
11
-58.2853219578
21
14.4849515737
31
0.0000000000
11
-58.2481078610
21
14.2957092595
31
0.0000000000
11
-58.1419967506
21
14.1346224715
31
0.0000000000
11
-57.9827854852
21
14.0257001350
31
0.0000000000
11
-57.7941936830
21
13.9851771024
31
0.0000000000
0
SPLINE
5
3E6
100
AcDbEntity
8
0
100
AcDbSpline
62
7
6
CONTINUOUS
70
0
71
3
72
9
73
5
74
3
42
0.0000001000
43
0.0000001000
44
0.0000000001
12
-0.0909879567
22
0.0965086673
32
0.0000000000
13
-0.0851759510
23
0.1017571125
33
0.0000000000
40
0.0000000000
40
0.0000000000
40
0.0000000000
40
0.0000000000
40
0.7599781924
40
1.0000000000
40
1.0000000000
40
1.0000000000
40
1.0000000000
10
-64.0888109346
20
25.0676452239
30
0.0000000000
10
-64.1118605555
20
25.0920933848
30
0.0000000000
10
-64.1421816764
20
25.1242729343
30
0.0000000000
10
-64.1710804323
20
25.1577721809
30
0.0000000000
10
-64.1778951276
20
25.1659134896
30
0.0000000000
11
-64.0888109346
21
25.0676452239
31
0.0000000000
11
-64.1571258260
21
25.1417671098
31
0.0000000000
11
-64.1778951276
21
25.1659134896
31
0.0000000000
0
SPLINE
5
3E7
100
AcDbEntity
8
0
100
AcDbSpline
62
7
6
CONTINUOUS
70
0
71
3
72
10
73
6
74
4
42
0.0000001000
43
0.0000001000
44
0.0000000001
12
-0.1385755119
22
0.1655519404
32
0.0000000000
13
-0.0403780746
23
0.2119810568
33
0.0000000000
40
0.0000000000
40
0.0000000000
40
0.0000000000
40
0.0000000000
40
0.2813217412
40
0.6643777341
40
1.0000000000
40
1.0000000000
40
1.0000000000
40
1.0000000000
10
-64.1778951276
20
25.1659134896
30
0.0000000000
10
-64.1908898957
20
25.1814379430
30
0.0000000000
10
-64.2205341973
20
25.2189661967
30
0.0000000000
10
-64.2591304980
20
25.2799676550
30
0.0000000000
10
-64.2772708948
20
25.3291518532
30
0.0000000000
10
-64.2817881551
20
25.3528670407
30
0.0000000000
11
-64.1778951276
21
25.1659134896
31
0.0000000000
11
-64.2152773381
21
25.2137574548
31
0.0000000000
11
-64.2582345925
21
25.2843792934
31
0.0000000000
11
-64.2817881551
21
25.3528670407
31
0.0000000000
0
SPLINE
5
3E8
100
AcDbEntity
8
0
100
AcDbSpline
62
7
6
CONTINUOUS
70
0
71
3
72
8
73
4
74
2
42
0.0000001000
43
0.0000001000
44
0.0000000001
12
0.0087933774
22
0.0461640984
32
0.0000000000
13
0.0172563027
23
0.0439341043
33
0.0000000000
40
0.0000000000
40
0.0000000000
40
0.0000000000
40
0.0000000000
40
1.0000000000
40
1.0000000000
40
1.0000000000
40
1.0000000000
10
-64.2817881551
20
-17.3653670407
30
0.0000000000
10
-64.2788570293
20
-17.3499790079
30
0.0000000000
10
-64.2742607037
20
-17.3349047968
30
0.0000000000
10
-64.2685086028
20
-17.3202600954
30
0.0000000000
11
-64.2817881551
21
-17.3653670407
31
0.0000000000
11
-64.2685086028
21
-17.3202600954
31
0.0000000000
0
SPLINE
5
3E9
100
AcDbEntity
8
0
100
AcDbSpline
62
7
6
CONTINUOUS
70
0
71
3
72
11
73
7
74
5
42
0.0000001000
43
0.0000001000
44
0.0000000001
12
0.0978545767
22
0.2491352432
32
0.0000000000
13
0.1819972212
23
0.1946602868
33
0.0000000000
40
0.0000000000
40
0.0000000000
40
0.0000000000
40
0.0000000000
40
0.0933166462
40
0.4017514305
40
0.7493797926
40
1.0000000000
40
1.0000000000
40
1.0000000000
40
1.0000000000
10
-64.2685086028
20
-17.3202600954
30
0.0000000000
10
-64.2654647825
20
-17.3125106070
30
0.0000000000
10
-64.2509670382
20
-17.2796649200
30
0.0000000000
10
-64.2153451857
20
-17.2231492471
30
0.0000000000
10
-64.1639457798
20
-17.1609735170
30
0.0000000000
10
-64.1279557410
20
-17.1218726358
30
0.0000000000
10
-64.1127516806
20
-17.1056107020
30
0.0000000000
11
-64.2685086028
21
-17.3202600954
31
0.0000000000
11
-64.2584817147
21
-17.2973895828
31
0.0000000000
11
-64.2158808339
21
-17.2270971674
31
0.0000000000
11
-64.1577455979
21
-17.1549708174
31
0.0000000000
11
-64.1127516806
21
-17.1056107020
31
0.0000000000
0
SPLINE
5
3EA
100
AcDbEntity
8
0
100
AcDbSpline
62
7
6
CONTINUOUS
70
0
71
3
72
8
73
4
74
2
42
0.0000001000
43
0.0000001000
44
0.0000000001
12
0.0238704064
22
0.0255312697
32
0.0000000000
13
0.0239770750
23
0.0254311208
33
0.0000000000
40
0.0000000000
40
0.0000000000
40
0.0000000000
40
0.0000000000
40
1.0000000000
40
1.0000000000
40
1.0000000000
40
1.0000000000
10
-64.1127516806
20
-17.1056107020
30
0.0000000000
10
-64.1047948785
20
-17.0971002787
30
0.0000000000
10
-64.0968032943
20
-17.0886222642
30
0.0000000000
10
-64.0888109359
20
-17.0801452240
30
0.0000000000
11
-64.1127516806
21
-17.1056107020
31
0.0000000000
11
-64.0888109359
21
-17.0801452240
31
0.0000000000
0
SPLINE
5
3EB
100
AcDbEntity
8
0
100
AcDbSpline
62
9
6
CONTINUOUS
70
0
71
3
72
10
73
6
74
4
42
0.0000001000
43
0.0000001000
44
0.0000000001
12
0.1772409418
22
0.4833331789
32
0.0000000000
13
0.5147278306
23
0.0089762836
33
0.0000000000
40
0.0000000000
40
0.0000000000
40
0.0000000000
40
0.0000000000
40
0.3515861400
40
0.6831092364
40
1.0000000000
40
1.0000000000
40
1.0000000000
40
1.0000000000
10
-58.3928422222
20
-13.8019363170
30
0.0000000000
10
-58.3720704027
20
-13.7452919015
30
0.0000000000
10
-58.3127580212
20
-13.6407807638
30
0.0000000000
10
-58.1756244952
20
-13.5304758666
30
0.0000000000
10
-58.0634502826
20
-13.5023742433
30
0.0000000000
10
-58.0090794509
20
-13.5014260762
30
0.0000000000
11
-58.3928422222
21
-13.8019363170
31
0.0000000000
11
-58.3019127455
21
-13.6454359817
31
0.0000000000
11
-58.1675388283
21
-13.5402127103
31
0.0000000000
11
-58.0090794509
21
-13.5014260762
31
0.0000000000
0
SPLINE
5
3EC
100
AcDbEntity
8
0
100
AcDbSpline
62
7
6
CONTINUOUS
70
0
71
3
72
10
73
6
74
4
42
0.0000001000
43
0.0000001000
44
0.0000000001
12
-3.9999099472
22
0.0844306542
32
0.0000000000
13
-4.0000789575
23
0.0760029924
33
0.0000000000
40
0.0000000000
40
0.0000000000
40
0.0000000000
40
0.0000000000
40
0.3308274198
40
0.6641688634
40
1.0000000000
40
1.0000000000
40
1.0000000000
40
1.0000000000
10
-64.2853204400
20
27.0936404748
30
0.0000000000
10
-64.7264137357
20
27.1029511333
30
0.0000000000
10
-65.6119598607
20
27.1212857671
30
0.0000000000
10
-66.9452942404
20
27.1479217891
30
0.0000000000
10
-67.8375367524
20
27.1651505046
30
0.0000000000
10
-68.2853204400
20
27.1736585618
30
0.0000000000
11
-64.2853204400
21
27.0936404748
31
0.0000000000
11
-65.6086111146
21
27.1210566283
31
0.0000000000
11
-66.9419775517
21
27.1477077341
31
0.0000000000
11
-68.2853204400
21
27.1736585618
31
0.0000000000
0
SPLINE
5
3ED
100
AcDbEntity
8
0
100
AcDbSpline
62
9
6
CONTINUOUS
70
0
71
3
72
9
73
5
74
3
42
0.0000001000
43
0.0000001000
44
0.0000000001
12
3.7743089266
22
-0.0661754790
32
0.0000000000
13
3.7743089017
23
-0.0661768993
33
0.0000000000
40
0.0000000000
40
0.0000000000
40
0.0000000000
40
0.0000000000
40
0.4998571096
40
1.0000000000
40
1.0000000000
40
1.0000000000
40
1.0000000000
10
-64.0888109346
20
25.0676452239
30
0.0000000000
10
-63.4599392177
20
25.0566191294
30
0.0000000000
10
-62.2018362442
20
25.0345605229
30
0.0000000000
10
-60.9437332751
20
25.0125016619
30
0.0000000000
10
-60.3145020206
20
25.0014690267
30
0.0000000000
11
-64.0888109346
21
25.0676452239
31
0.0000000000
11
-62.2021957871
21
25.0345667633
31
0.0000000000
11
-60.3145020206
21
25.0014690267
31
0.0000000000
0
SPLINE
5
3EE
100
AcDbEntity
8
0
100
AcDbSpline
62
9
6
CONTINUOUS
70
0
71
3
72
9
73
5
74
3
42
0.0000001000
43
0.0000001000
44
0.0000000001
12
1.5378121665
22
-1.5655307834
32
0.0000000000
13
1.5377844696
23
-1.5655579894
33
0.0000000000
40
0.0000000000
40
0.0000000000
40
0.0000000000
40
0.0000000000
40
0.4853273431
40
1.0000000000
40
1.0000000000
40
1.0000000000
40
1.0000000000
10
-60.3145020206
20
25.0014690267
30
0.0000000000
10
-60.0657212562
20
24.7482040615
30
0.0000000000
10
-59.5531386168
20
24.2263394266
30
0.0000000000
10
-59.0404127763
20
23.7046154729
30
0.0000000000
10
-58.7765942367
20
23.4360321763
30
0.0000000000
11
-60.3145020206
21
25.0014690267
31
0.0000000000
11
-59.5681467852
21
24.2416868445
31
0.0000000000
11
-58.7765942367
21
23.4360321763
31
0.0000000000
0
SPLINE
5
3EF
100
AcDbEntity
8
0
100
AcDbSpline
62
7
6
CONTINUOUS
70
0
71
3
72
13
73
9
74
7
42
0.0000001000
43
0.0000001000
44
0.0000000001
12
0.4955760330
22
0.4870766900
32
0.0000000000
13
0.4600647808
23
0.5211500402
33
0.0000000000
40
0.0000000000
40
0.0000000000
40
0.0000000000
40
0.0000000000
40
0.2179821607
40
0.4369715270
40
0.6424732538
40
0.8194446517
40
0.9483227042
40
1.0000000000
40
1.0000000000
40
1.0000000000
40
1.0000000000
10
-53.7765942367
20
-0.2975986316
30
0.0000000000
10
-53.7405853252
20
-0.2622072885
30
0.0000000000
10
-53.6684610823
20
-0.1911994961
30
0.0000000000
10
-53.5626643105
20
-0.0865508302
30
0.0000000000
10
-53.4637477238
20
0.0115549296
30
0.0000000000
10
-53.3802794929
20
0.0955690639
30
0.0000000000
10
-53.3215135190
20
0.1539541715
30
0.0000000000
10
-53.2932454079
20
0.1847727917
30
0.0000000000
10
-53.2853204400
20
0.1937500000
30
0.0000000000
11
-53.7765942367
21
-0.2975986316
31
0.0000000000
11
-53.6686690496
21
-0.1913213817
31
0.0000000000
11
-53.5604671217
21
-0.0843281578
31
0.0000000000
11
-53.4591913642
21
0.0163395543
31
0.0000000000
11
-53.3723127204
21
0.1033687762
31
0.0000000000
11
-53.3095422688
21
0.1672406415
31
0.0000000000
11
-53.2853204400
21
0.1937500000
31
0.0000000000
0
SPLINE
5
3F0
100
AcDbEntity
8
0
100
AcDbSpline
62
9
6
CONTINUOUS
70
0
71
3
72
12
73
8
74
6
42
0.0000001000
43
0.0000001000
44
0.0000000001
12
0.0087245994
22
0.4999842547
32
0.0000000000
13
-0.4999842083
23
0.0087272568
33
0.0000000000
40
0.0000000000
40
0.0000000000
40
0.0000000000
40
0.0000000000
40
0.3089080285
40
0.5875697730
40
0.8087322672
40
0.9507851324
40
1.0000000000
40
1.0000000000
40
1.0000000000
40
1.0000000000
10
-44.7765942367
20
-0.4546942159
30
0.0000000000
10
-44.7756958705
20
-0.4032111658
30
0.0000000000
10
-44.7734849582
20
-0.3043550859
30
0.0000000000
10
-44.7751964882
20
-0.1731293128
30
0.0000000000
10
-44.7675285989
20
-0.0569803745
30
0.0000000000
10
-44.7826614961
20
-0.0057354374
30
0.0000000000
10
-44.7683920179
20
0.0450864614
30
0.0000000000
10
-44.7765942367
20
0.0452296317
30
0.0000000000
11
-44.7765942367
21
-0.4546942159
31
0.0000000000
11
-44.7743259448
21
-0.3002382077
31
0.0000000000
11
-44.7731334568
21
-0.1608956152
31
0.0000000000
11
-44.7731334568
21
-0.0503010166
31
0.0000000000
11
-44.7743259448
21
0.0207239817
31
0.0000000000
11
-44.7765942367
21
0.0452296317
31
0.0000000000
0
SPLINE
5
3F1
100
AcDbEntity
8
0
100
AcDbSpline
62
9
6
CONTINUOUS
70
0
71
3
72
12
73
8
74
6
42
0.0000001000
43
0.0000001000
44
0.0000000001
12
0.0087246128
22
-0.4999850185
32
0.0000000000
13
-0.4999849721
23
-0.0087272702
33
0.0000000000
40
0.0000000000
40
0.0000000000
40
0.0000000000
40
0.0000000000
40
0.3098579557
40
0.5892097349
40
0.8103191748
40
0.9518361988
40
1.0000000000
40
1.0000000000
40
1.0000000000
40
1.0000000000
10
-44.7765942367
20
9.8421942159
30
0.0000000000
10
-44.7756931065
20
9.7905527707
30
0.0000000000
10
-44.7734741769
20
9.6914146082
30
0.0000000000
10
-44.7752017136
20
9.5599528531
30
0.0000000000
10
-44.7675279758
20
9.4437435608
30
0.0000000000
10
-44.7826121878
20
9.3927562049
30
0.0000000000
10
-44.7685671778
20
9.3424104812
30
0.0000000000
10
-44.7765942367
20
9.3422703683
30
0.0000000000
11
-44.7765942367
21
9.8421942159
31
0.0000000000
11
-44.7743203515
21
9.6872629810
31
0.0000000000
11
-44.7731295641
21
9.5475750889
31
0.0000000000
11
-44.7731387255
21
9.4370068521
31
0.0000000000
11
-44.7743451669
21
9.3662499731
31
0.0000000000
11
-44.7765942367
21
9.3422703683
31
0.0000000000
0
SPLINE
5
3F2
100
AcDbEntity
8
0
100
AcDbSpline
62
9
6
CONTINUOUS
70
0
71
3
72
12
73
8
74
6
42
0.0000001000
43
0.0000001000
44
0.0000000001
12
0.0000000001
22
-0.6020568053
32
0.0000000000
13
-0.6017227206
23
-0.0200540364
33
0.0000000000
40
0.0000000000
40
0.0000000000
40
0.0000000000
40
0.0000000000
40
0.1383805049
40
0.3049109167
40
0.5094028417
40
0.7455387051
40
1.0000000000
40
1.0000000000
40
1.0000000000
40
1.0000000000
10
-44.2853204400
20
-12.7705304594
30
0.0000000000
10
-44.2853204399
20
-12.7983014343
30
0.0000000000
10
-44.3057020635
20
-12.8599100319
30
0.0000000000
10
-44.3815671191
20
-12.9319530227
30
0.0000000000
10
-44.4909890724
20
-12.9878274866
30
0.0000000000
10
-44.6266604717
20
-13.0242888707
30
0.0000000000
10
-44.7252501403
20
-13.0314317202
30
0.0000000000
10
-44.7762885212
20
-13.0331327122
30
0.0000000000
11
-44.2853204400
21
-12.7705304594
31
0.0000000000
11
-44.3089755308
21
-12.8504146262
31
0.0000000000
11
-44.3782523649
21
-12.9228918074
31
0.0000000000
11
-44.4867065068
21
-12.9811600513
31
0.0000000000
11
-44.6237397421
21
-13.0190204025
31
0.0000000000
11
-44.7762885212
21
-13.0331327122
31
0.0000000000
0
SPLINE
5
3F3
100
AcDbEntity
8
0
100
AcDbSpline
62
9
6
CONTINUOUS
70
0
71
3
72
11
73
7
74
5
42
0.0000001000
43
0.0000001000
44
0.0000000001
12
0.0087242968
22
0.4999669137
32
0.0000000000
13
-0.4999668673
23
0.0087269541
33
0.0000000000
40
0.0000000000
40
0.0000000000
40
0.0000000000
40
0.0000000000
40
0.3825592777
40
0.7068734192
40
0.9236228949
40
1.0000000000
40
1.0000000000
40
1.0000000000
40
1.0000000000
10
-44.7765942367
20
20.7580304594
30
0.0000000000
10
-44.7754817165
20
20.8217861199
30
0.0000000000
10
-44.7770781701
20
20.9357968604
30
0.0000000000
10
-44.7644906549
20
21.1031318490
30
0.0000000000
10
-44.7877012652
20
21.1796010183
30
0.0000000000
10
-44.7638655627
20
21.2577321272
30
0.0000000000
10
-44.7765942367
20
21.2579543070
30
0.0000000000
11
-44.7765942367
21
20.7580304594
31
0.0000000000
11
-44.7739204824
21
20.9493078719
31
0.0000000000
11
-44.7729816040
21
21.1114761788
31
0.0000000000
11
-44.7739204824
21
21.2198561760
31
0.0000000000
11
-44.7765942367
21
21.2579543070
31
0.0000000000
0
SPLINE
5
3F4
100
AcDbEntity
8
0
100
AcDbSpline
62
9
6
CONTINUOUS
70
0
71
3
72
17
73
13
74
11
42
0.0000001000
43
0.0000001000
44
0.0000000001
12
-0.5000489844
22
0.0083928209
32
0.0000000000
13
0.0087202097
23
-0.5000433823
33
0.0000000000
40
0.0000000000
40
0.0000000000
40
0.0000000000
40
0.0000000000
40
0.0105279052
40
0.0445654007
40
0.1051170291
40
0.1922628768
40
0.3034771958
40
0.4341865679
40
0.5775411777
40
0.7251185863
40
0.8683904324
40
1.0000000000
40
1.0000000000
40
1.0000000000
40
1.0000000000
10
-57.7940466432
20
21.4851747840
30
0.0000000000
10
-57.7958014659
20
21.4852042369
30
0.0000000000
10
-57.7941832459
20
21.4735522873
30
0.0000000000
10
-57.7975119150
20
21.4604285032
30
0.0000000000
10
-57.7966765588
20
21.4274702861
30
0.0000000000
10
-57.7978002659
20
21.3855303507
30
0.0000000000
10
-57.7976413578
20
21.3302005776
30
0.0000000000
10
-57.7975092578
20
21.2661337499
30
0.0000000000
10
-57.7969423685
20
21.1957953308
30
0.0000000000
10
-57.7961527439
20
21.1234291413
30
0.0000000000
10
-57.7951751586
20
21.0530054847
30
0.0000000000
10
-57.7944291975
20
21.0071877675
30
0.0000000000
10
-57.7940466432
20
20.9852509364
30
0.0000000000
11
-57.7940466432
21
21.4851747840
31
0.0000000000
11
-57.7952059696
21
21.4800387937
31
0.0000000000
11
-57.7962281533
21
21.4630466992
31
0.0000000000
11
-57.7970206484
21
21.4327740258
31
0.0000000000
11
-57.7975111524
21
21.3891934559
31
0.0000000000
11
-57.7976579313
21
21.3335732098
31
0.0000000000
11
-57.7974511536
21
21.2682032425
31
0.0000000000
11
-57.7969145588
21
21.1965108274
31
0.0000000000
11
-57.7961078120
21
21.1227089099
31
0.0000000000
11
-57.7951183226
21
21.0510627109
31
0.0000000000
11
-57.7940466432
21
20.9852509364
31
0.0000000000
0
SPLINE
5
3F5
100
AcDbEntity
8
0
100
AcDbSpline
62
9
6
CONTINUOUS
70
0
71
3
72
11
73
7
74
5
42
0.0000001000
43
0.0000001000
44
0.0000000001
12
0.0087242968
22
0.4999669137
32
0.0000000000
13
-0.4999668673
23
0.0087269541
33
0.0000000000
40
0.0000000000
40
0.0000000000
40
0.0000000000
40
0.0000000000
40
0.3825592777
40
0.7068734192
40
0.9236228949
40
1.0000000000
40
1.0000000000
40
1.0000000000
40
1.0000000000
10
-44.7765942367
20
13.2580304594
30
0.0000000000
10
-44.7754817165
20
13.3217861199
30
0.0000000000
10
-44.7770781701
20
13.4357968604
30
0.0000000000
10
-44.7644906549
20
13.6031318490
30
0.0000000000
10
-44.7877012652
20
13.6796010183
30
0.0000000000
10
-44.7638655627
20
13.7577321272
30
0.0000000000
10
-44.7765942367
20
13.7579543070
30
0.0000000000
11
-44.7765942367
21
13.2580304594
31
0.0000000000
11
-44.7739204824
21
13.4493078719
31
0.0000000000
11
-44.7729816040
21
13.6114761788
31
0.0000000000
11
-44.7739204824
21
13.7198561760
31
0.0000000000
11
-44.7765942367
21
13.7579543070
31
0.0000000000
0
SPLINE
5
3F6
100
AcDbEntity
8
0
100
AcDbSpline
62
9
6
CONTINUOUS
70
0
71
3
72
17
73
13
74
11
42
0.0000001000
43
0.0000001000
44
0.0000000001
12
1.0945283329
22
-0.0153258305
32
0.0000000000
13
-0.9843854256
23
-0.4787614086
33
0.0000000000
40
0.0000000000
40
0.0000000000
40
0.0000000000
40
0.0000000000
40
0.0095827981
40
0.0421009554
40
0.0971896162
40
0.1739188034
40
0.2699198099
40
0.3825333000
40
0.5110384691
40
0.6562288186
40
0.8185623465
40
1.0000000000
40
1.0000000000
40
1.0000000000
40
1.0000000000
10
-57.7941936786
20
13.9851773505
30
0.0000000000
10
-57.7906974639
20
13.9851283957
30
0.0000000000
10
-57.8212760594
20
13.9731795525
30
0.0000000000
10
-57.8354867480
20
13.9622906653
30
0.0000000000
10
-57.8993917901
20
13.9326739809
30
0.0000000000
10
-57.9694183806
20
13.8970899451
30
0.0000000000
10
-58.0645089392
20
13.8506141590
30
0.0000000000
10
-58.1743515811
20
13.7965738907
30
0.0000000000
10
-58.3011262401
20
13.7345139796
30
0.0000000000
10
-58.4439870519
20
13.6646354166
30
0.0000000000
10
-58.6043398585
20
13.5863739409
30
0.0000000000
10
-58.7170593761
20
13.5313564840
30
0.0000000000
10
-58.7765942367
20
13.5024013684
30
0.0000000000
11
-57.7941936786
21
13.9851773505
31
0.0000000000
11
-57.8033524365
21
13.9800636065
31
0.0000000000
11
-57.8351154318
21
13.9639964310
31
0.0000000000
11
-57.8891003892
21
13.9371271758
31
0.0000000000
11
-57.9643764263
21
13.8998723422
31
0.0000000000
11
-58.0586449365
21
13.8534337701
31
0.0000000000
11
-58.1692968341
21
13.7991030014
31
0.0000000000
11
-58.2956187954
21
13.7372177830
31
0.0000000000
11
-58.4383911625
21
13.6673968390
31
0.0000000000
11
-58.5980705636
21
13.5894328754
31
0.0000000000
11
-58.7765942367
21
13.5024013684
31
0.0000000000
0
SPLINE
5
3F7
100
AcDbEntity
8
0
100
AcDbSpline
62
9
6
CONTINUOUS
70
0
71
3
72
16
73
12
74
10
42
0.0000001000
43
0.0000001000
44
0.0000000001
12
-0.0046983746
22
-1.0985718156
32
0.0000000000
13
-0.4975329151
23
-0.9794606205
33
0.0000000000
40
0.0000000000
40
0.0000000000
40
0.0000000000
40
0.0000000000
40
0.0152712591
40
0.0581711174
40
0.1276713629
40
0.2223717780
40
0.3382742268
40
0.4730433761
40
0.6276576410
40
0.8024749463
40
1.0000000000
40
1.0000000000
40
1.0000000000
40
1.0000000000
10
-58.2853204400
20
14.4849515737
30
0.0000000000
10
-58.2853443567
20
14.4793593821
30
0.0000000000
10
-58.2983610654
20
14.4606323406
30
0.0000000000
10
-58.3147342543
20
14.4178763797
30
0.0000000000
10
-58.3502716123
20
14.3501296861
30
0.0000000000
10
-58.3949661302
20
14.2581062571
30
0.0000000000
10
-58.4518369451
20
14.1450275069
30
0.0000000000
10
-58.5183377372
20
14.0123852321
30
0.0000000000
10
-58.5949294116
20
13.8606178269
30
0.0000000000
10
-58.6820346871
20
13.6884317760
30
0.0000000000
10
-58.7438358315
20
13.5668913053
30
0.0000000000
10
-58.7765942367
20
13.5024019681
30
0.0000000000
11
-58.2853204400
21
14.4849515737
31
0.0000000000
11
-58.2917957795
21
14.4694748625
31
0.0000000000
11
-58.3120326886
21
14.4269118417
31
0.0000000000
11
-58.3455935037
21
14.3583315590
31
0.0000000000
11
-58.3918002496
21
14.2651196559
31
0.0000000000
11
-58.4486990789
21
14.1512116827
31
0.0000000000
11
-58.5151387946
21
14.0189013265
31
0.0000000000
11
-58.5916178783
21
13.8672367111
31
0.0000000000
11
-58.6783369864
21
13.6958791046
31
0.0000000000
11
-58.7765942367
21
13.5024019681
31
0.0000000000
0
SPLINE
5
3F8
100
AcDbEntity
8
0
100
AcDbSpline
62
9
6
CONTINUOUS
70
0
71
3
72
8
73
4
74
2
42
0.0000001000
43
0.0000001000
44
0.0000000001
12
0.1535773030
22
-0.0018724725
32
0.0000000000
13
0.1498582787
23
-0.0356181402
33
0.0000000000
40
0.0000000000
40
0.0000000000
40
0.0000000000
40
0.0000000000
40
1.0000000000
40
1.0000000000
40
1.0000000000
40
1.0000000000
10
-58.7765942367
20
23.4358404628
30
0.0000000000
10
-58.7254018024
20
23.4352163053
30
0.0000000000
10
-58.6740877288
20
23.4291210841
30
0.0000000000
10
-58.6241349692
20
23.4172483707
30
0.0000000000
11
-58.7765942367
21
23.4358404628
31
0.0000000000
11
-58.6241349692
21
23.4172483707
31
0.0000000000
0
SPLINE
5
3F9
100
AcDbEntity
8
0
100
AcDbSpline
62
9
6
CONTINUOUS
70
0
71
3
72
11
73
7
74
5
42
0.0000001000
43
0.0000001000
44
0.0000000001
12
0.4949492261
22
-0.1176389525
32
0.0000000000
13
0.0000000000
23
-0.5072700522
33
0.0000000000
40
0.0000000000
40
0.0000000000
40
0.0000000000
40
0.0000000000
40
0.2880882209
40
0.5507394072
40
0.7854869990
40
1.0000000000
40
1.0000000000
40
1.0000000000
40
1.0000000000
10
-58.6241349692
20
23.4172483707
30
0.0000000000
10
-58.5766052885
20
23.4059515719
30
0.0000000000
10
-58.4880986862
20
23.3743561076
30
0.0000000000
10
-58.3771685603
20
23.2979931707
30
0.0000000000
10
-58.3032691239
20
23.1996550818
30
0.0000000000
10
-58.2853204400
20
23.1229152259
30
0.0000000000
10
-58.2853204400
20
23.0866432188
30
0.0000000000
11
-58.6241349692
21
23.4172483707
31
0.0000000000
11
-58.4869464655
21
23.3668918072
31
0.0000000000
11
-58.3784178323
21
23.2896058279
31
0.0000000000
11
-58.3090008657
21
23.1928513348
31
0.0000000000
11
-58.2853204400
21
23.0866432188
31
0.0000000000
0
SPLINE
5
3FA
100
AcDbEntity
8
0
100
AcDbSpline
62
9
6
CONTINUOUS
70
0
71
3
72
11
73
7
74
5
42
0.0000001000
43
0.0000001000
44
0.0000000001
12
0.6327516344
22
-0.0068667963
32
0.0000000000
13
0.0000000006
23
-0.6327888935
33
0.0000000000
40
0.0000000000
40
0.0000000000
40
0.0000000000
40
0.0000000000
40
0.3007655812
40
0.5742506203
40
0.8049027779
40
1.0000000000
40
1.0000000000
40
1.0000000000
40
1.0000000000
10
-58.7765942367
20
21.2989097608
30
0.0000000000
10
-58.7131575990
20
21.2982213288
30
0.0000000000
10
-58.5915537936
20
21.2827932233
30
0.0000000000
10
-58.4322032266
20
21.2185130459
30
0.0000000000
10
-58.3172048596
20
21.1197277455
30
0.0000000000
10
-58.2853204400
20
21.0292454789
30
0.0000000000
10
-58.2853204400
20
20.9880936938
30
0.0000000000
11
-58.7765942367
21
21.2989097608
31
0.0000000000
11
-58.5879484986
21
21.2737122622
31
0.0000000000
11
-58.4286951998
21
21.2059807303
31
0.0000000000
11
-58.3225501810
21
21.1058016847
31
0.0000000000
11
-58.2853204400
21
20.9880936938
31
0.0000000000
0
SPLINE
5
3FB
100
AcDbEntity
8
0
100
AcDbSpline
62
9
6
CONTINUOUS
70
0
71
3
72
10
73
6
74
4
42
0.0000001000
43
0.0000001000
44
0.0000000001
12
-0.2232059739
22
0.2232059731
32
0.0000000000
13
-0.3009210028
23
-0.0983834182
33
0.0000000000
40
0.0000000000
40
0.0000000000
40
0.0000000000
40
0.0000000000
40
0.3315122396
40
0.7102705037
40
1.0000000000
40
1.0000000000
40
1.0000000000
40
1.0000000000
10
-59.9696384552
20
24.9780680153
30
0.0000000000
10
-59.9943036260
20
25.0027331860
30
0.0000000000
10
-60.0633105600
20
25.0405774995
30
0.0000000000
10
-60.1708177245
20
25.0436435776
30
0.0000000000
10
-60.2402504916
20
25.0284346988
30
0.0000000000
10
-60.2693123885
20
25.0189331727
30
0.0000000000
11
-59.9696384552
21
24.9780680153
31
0.0000000000
11
-60.0603219945
21
25.0302903032
31
0.0000000000
11
-60.1796074362
21
25.0383761518
31
0.0000000000
11
-60.2693123885
21
25.0189331727
31
0.0000000000
0
SPLINE
5
3FC
100
AcDbEntity
8
0
100
AcDbSpline
62
9
6
CONTINUOUS
70
0
71
3
72
8
73
4
74
2
42
0.0000001000
43
0.0000001000
44
0.0000000001
12
-0.0461029234
22
-0.0150729366
32
0.0000000000
13
-0.0441187593
23
-0.0198075136
33
0.0000000000
40
0.0000000000
40
0.0000000000
40
0.0000000000
40
0.0000000000
40
1.0000000000
40
1.0000000000
40
1.0000000000
40
1.0000000000
10
-60.2693123885
20
25.0189331727
30
0.0000000000
10
-60.2846800296
20
25.0139088605
30
0.0000000000
10
-60.2997593889
20
25.0080709018
30
0.0000000000
10
-60.3144656420
20
25.0014683973
30
0.0000000000
11
-60.2693123885
21
25.0189331727
31
0.0000000000
11
-60.3144656420
21
25.0014683973
31
0.0000000000
0
SPLINE
5
3FD
100
AcDbEntity
8
0
100
AcDbSpline
62
9
6
CONTINUOUS
70
0
71
3
72
10
73
6
74
4
42
0.0000001000
43
0.0000001000
44
0.0000000001
12
-0.2578131151
22
0.2578131151
32
0.0000000000
13
-0.3252564995
23
-0.1647525848
33
0.0000000000
40
0.0000000000
40
0.0000000000
40
0.0000000000
40
0.0000000000
40
0.2726801341
40
0.6009805692
40
1.0000000000
40
1.0000000000
40
1.0000000000
40
1.0000000000
10
-58.4317670493
20
23.4401966094
30
0.0000000000
10
-58.4552005543
20
23.4636301143
30
0.0000000000
10
-58.5254802536
20
23.4972181809
30
0.0000000000
10
-58.6497415160
20
23.4895147257
30
0.0000000000
10
-58.7333330157
20
23.4577536237
30
0.0000000000
10
-58.7765942368
20
23.4358404628
30
0.0000000000
11
-58.4317670493
21
23.4401966094
31
0.0000000000
11
-58.5198815082
21
23.4862418795
31
0.0000000000
11
-58.6395712170
21
23.4847298365
31
0.0000000000
11
-58.7765942368
21
23.4358404628
31
0.0000000000
0
SPLINE
5
3FE
100
AcDbEntity
8
0
100
AcDbSpline
62
9
6
CONTINUOUS
70
0
71
3
72
10
73
6
74
4
42
0.0000001000
43
0.0000001000
44
0.0000000001
12
0.1229631181
22
-0.0021463292
32
0.0000000000
13
-0.0012239657
23
-0.1229757580
33
0.0000000000
40
0.0000000000
40
0.0000000000
40
0.0000000000
40
0.0000000000
40
0.1155815283
40
0.4553121829
40
1.0000000000
40
1.0000000000
40
1.0000000000
40
1.0000000000
10
-60.3144656420
20
25.1244384717
30
0.0000000000
10
-60.3097282203
20
25.1243557797
30
0.0000000000
10
-60.3198850858
20
25.0944950843
30
0.0000000000
10
-60.3099962580
20
25.0643008153
30
0.0000000000
10
-60.3142434156
20
25.0237961963
30
0.0000000000
10
-60.3144656420
20
25.0014683973
30
0.0000000000
11
-60.3144656420
21
25.1244384717
31
0.0000000000
11
-60.3139402288
21
25.1102337555
31
0.0000000000
11
-60.3139402288
21
25.0684530515
31
0.0000000000
11
-60.3144656420
21
25.0014683973
31
0.0000000000
0
SPLINE
5
3FF
100
AcDbEntity
8
0
100
AcDbSpline
62
9
6
CONTINUOUS
70
0
71
3
72
12
73
8
74
6
42
0.0000001000
43
0.0000001000
44
0.0000000001
12
-0.0004884282
22
0.1226767656
32
0.0000000000
13
0.1226630173
23
-0.0019004143
33
0.0000000000
40
0.0000000000
40
0.0000000000
40
0.0000000000
40
0.0000000000
40
0.4005516542
40
0.6875810840
40
0.8727158483
40
0.9711114101
40
1.0000000000
40
1.0000000000
40
1.0000000000
40
1.0000000000
10
-64.0888109212
20
25.0676452237
30
0.0000000000
10
-64.0888761348
20
25.0840246842
30
0.0000000000
10
-64.0893133673
20
25.1125137834
30
0.0000000000
10
-64.0883473871
20
25.1470515265
30
0.0000000000
10
-64.0903640760
20
25.1726128424
30
0.0000000000
10
-64.0872166107
20
25.1819803545
30
0.0000000000
10
-64.0899921084
20
25.1903382137
30
0.0000000000
10
-64.0888109212
20
25.1903199136
30
0.0000000000
11
-64.0888109212
21
25.0676452237
31
0.0000000000
11
-64.0889788953
21
25.1167837075
31
0.0000000000
11
-64.0890444692
21
25.1519957676
31
0.0000000000
11
-64.0890255135
21
25.1747076737
31
0.0000000000
11
-64.0889412712
21
25.1867783247
31
0.0000000000
11
-64.0888109212
21
25.1903199136
31
0.0000000000
0
SPLINE
5
400
100
AcDbEntity
8
0
100
AcDbSpline
62
7
6
CONTINUOUS
70
0
71
3
72
13
73
9
74
7
42
0.0000001000
43
0.0000001000
44
0.0000000001
12
-0.4600647807
22
0.5211500402
32
0.0000000000
13
-0.4955760330
23
0.4870766900
33
0.0000000000
40
0.0000000000
40
0.0000000000
40
0.0000000000
40
0.0000000000
40
0.0516772958
40
0.1805553483
40
0.3575267462
40
0.5630284730
40
0.7820178393
40
1.0000000000
40
1.0000000000
40
1.0000000000
40
1.0000000000
10
-53.2853204400
20
9.1937500000
30
0.0000000000
10
-53.2932454079
20
9.2027272083
30
0.0000000000
10
-53.3215135190
20
9.2335458285
30
0.0000000000
10
-53.3802794929
20
9.2919309361
30
0.0000000000
10
-53.4637477238
20
9.3759450704
30
0.0000000000
10
-53.5626643105
20
9.4740508302
30
0.0000000000
10
-53.6684610823
20
9.5786994961
30
0.0000000000
10
-53.7405853252
20
9.6497072885
30
0.0000000000
10
-53.7765942367
20
9.6850986316
30
0.0000000000
11
-53.2853204400
21
9.1937500000
31
0.0000000000
11
-53.3095422688
21
9.2202593585
31
0.0000000000
11
-53.3723127204
21
9.2841312238
31
0.0000000000
11
-53.4591913642
21
9.3711604457
31
0.0000000000
11
-53.5604671217
21
9.4718281578
31
0.0000000000
11
-53.6686690496
21
9.5788213817
31
0.0000000000
11
-53.7765942367
21
9.6850986316
31
0.0000000000
0
SPLINE
5
401
100
AcDbEntity
8
0
100
AcDbSpline
62
9
6
CONTINUOUS
70
0
71
3
72
14
73
10
74
8
42
0.0000001000
43
0.0000001000
44
0.0000000001
12
0.3337672763
22
-0.5147704296
32
0.0000000000
13
0.4869245093
23
-0.3732207284
33
0.0000000000
40
0.0000000000
40
0.0000000000
40
0.0000000000
40
0.0000000000
40
0.1371581372
40
0.2833865809
40
0.4350418399
40
0.5878977838
40
0.7371383944
40
0.8774518185
40
1.0000000000
40
1.0000000000
40
1.0000000000
40
1.0000000000
10
-58.7765942367
20
-13.3259791235
30
0.0000000000
10
-58.7613346041
20
-13.3495141079
30
0.0000000000
10
-58.7293750489
20
-13.3978625761
30
0.0000000000
10
-58.6788704956
20
-13.4711124710
30
0.0000000000
10
-58.6247445529
20
-13.5457387634
30
0.0000000000
10
-58.5680575356
20
-13.6192229339
30
0.0000000000
10
-58.5100463562
20
-13.6886995101
30
0.0000000000
10
-58.4526361003
20
-13.7504371532
30
0.0000000000
10
-58.4127273965
20
-13.7866932189
30
0.0000000000
10
-58.3928368254
20
-13.8019390594
30
0.0000000000
11
-58.7765942367
21
-13.3259791235
31
0.0000000000
11
-58.7301779749
21
-13.3961667117
31
0.0000000000
11
-58.6792140011
21
-13.4699970052
31
0.0000000000
11
-58.6245226416
21
-13.5452668512
31
0.0000000000
11
-58.5671266726
21
-13.6194289266
31
0.0000000000
11
-58.5082461522
21
-13.6895453323
31
0.0000000000
11
-58.4492239885
21
-13.7522085651
31
0.0000000000
11
-58.3928368254
21
-13.8019390594
31
0.0000000000
0
SPLINE
5
402
100
AcDbEntity
8
0
100
AcDbSpline
62
9
6
CONTINUOUS
70
0
71
3
72
8
73
4
74
2
42
0.0000001000
43
0.0000001000
44
0.0000000001
12
0.1535773030
22
0.0018724726
32
0.0000000000
13
0.1498582787
23
0.0356181402
33
0.0000000000
40
0.0000000000
40
0.0000000000
40
0.0000000000
40
0.0000000000
40
1.0000000000
40
1.0000000000
40
1.0000000000
40
1.0000000000
10
-58.7765942367
20
-15.4483404629
30
0.0000000000
10
-58.7254018024
20
-15.4477163053
30
0.0000000000
10
-58.6740877288
20
-15.4416210841
30
0.0000000000
10
-58.6241349692
20
-15.4297483707
30
0.0000000000
11
-58.7765942367
21
-15.4483404629
31
0.0000000000
11
-58.6241349692
21
-15.4297483707
31
0.0000000000
0
SPLINE
5
403
100
AcDbEntity
8
0
100
AcDbSpline
62
9
6
CONTINUOUS
70
0
71
3
72
11
73
7
74
5
42
0.0000001000
43
0.0000001000
44
0.0000000001
12
0.4949492261
22
0.1176389524
32
0.0000000000
13
0.0000000000
23
0.5072700522
33
0.0000000000
40
0.0000000000
40
0.0000000000
40
0.0000000000
40
0.0000000000
40
0.2880882209
40
0.5507394072
40
0.7854869990
40
1.0000000000
40
1.0000000000
40
1.0000000000
40
1.0000000000
10
-58.6241349692
20
-15.4297483707
30
0.0000000000
10
-58.5766052885
20
-15.4184515719
30
0.0000000000
10
-58.4880986862
20
-15.3868561076
30
0.0000000000
10
-58.3771685603
20
-15.3104931707
30
0.0000000000
10
-58.3032691239
20
-15.2121550818
30
0.0000000000
10
-58.2853204400
20
-15.1354152259
30
0.0000000000
10
-58.2853204400
20
-15.0991432188
30
0.0000000000
11
-58.6241349692
21
-15.4297483707
31
0.0000000000
11
-58.4869464655
21
-15.3793918072
31
0.0000000000
11
-58.3784178323
21
-15.3021058279
31
0.0000000000
11
-58.3090008657
21
-15.2053513348
31
0.0000000000
11
-58.2853204400
21
-15.0991432188
31
0.0000000000
0
SPLINE
5
404
100
AcDbEntity
8
0
100
AcDbSpline
62
9
6
CONTINUOUS
70
0
71
3
72
10
73
6
74
4
42
0.0000001000
43
0.0000001000
44
0.0000000001
12
0.1833039588
22
-0.1400510756
32
0.0000000000
13
0.0000155318
23
-0.2306829965
33
0.0000000000
40
0.0000000000
40
0.0000000000
40
0.0000000000
40
0.0000000000
40
0.3437066464
40
0.6705819336
40
1.0000000000
40
1.0000000000
40
1.0000000000
40
1.0000000000
10
-58.3928368254
20
-13.8019390594
30
0.0000000000
10
-58.3718358958
20
-13.8179845546
30
0.0000000000
10
-58.3339222335
20
-13.8538637968
30
0.0000000000
10
-58.2946016920
20
-13.9213335275
30
0.0000000000
10
-58.2853221454
20
-13.9722682493
30
0.0000000000
10
-58.2853204400
20
-13.9975986316
30
0.0000000000
11
-58.3928368254
21
-13.8019390594
31
0.0000000000
11
-58.3360038378
21
-13.8572245383
31
0.0000000000
11
-58.2988012882
21
-13.9228127965
31
0.0000000000
11
-58.2853204400
21
-13.9975986316
31
0.0000000000
0
SPLINE
5
405
100
AcDbEntity
8
0
100
AcDbSpline
62
9
6
CONTINUOUS
70
0
71
3
72
14
73
10
74
8
42
0.0000001000
43
0.0000001000
44
0.0000000001
12
0.7390242183
22
-0.2827556453
32
0.0000000000
13
0.7911489286
23
0.0138174912
33
0.0000000000
40
0.0000000000
40
0.0000000000
40
0.0000000000
40
0.0000000000
40
0.1245160168
40
0.2599875166
40
0.4039834828
40
0.5536140253
40
0.7055978393
40
0.8565607998
40
1.0000000000
40
1.0000000000
40
1.0000000000
40
1.0000000000
10
-58.7765942208
20
-13.3259791139
30
0.0000000000
10
-58.7459207702
20
-13.3377149828
30
0.0000000000
10
-58.6815601496
20
-13.3614061777
30
0.0000000000
10
-58.5805465359
20
-13.3953656078
30
0.0000000000
10
-58.4721145529
20
-13.4278809940
30
0.0000000000
10
-58.3582604665
20
-13.4571948572
30
0.0000000000
10
-58.2412921020
20
-13.4813475772
30
0.0000000000
10
-58.1246455771
20
-13.4978856451
30
0.0000000000
10
-58.0469066707
20
-13.5020888516
30
0.0000000000
10
-58.0090794141
20
-13.5014281950
30
0.0000000000
11
-58.7765942208
21
-13.3259791139
31
0.0000000000
11
-58.6841236486
21
-13.3599866721
31
0.0000000000
11
-58.5825037689
21
-13.3941049361
31
0.0000000000
11
-58.4733403891
21
-13.4267483934
31
0.0000000000
11
-58.3586428957
21
-13.4561183494
31
0.0000000000
11
-58.2408099127
21
-13.4801578235
31
0.0000000000
11
-58.1224671286
21
-13.4964016218
31
0.0000000000
11
-58.0090794141
21
-13.5014281950
31
0.0000000000
0
SPLINE
5
406
100
AcDbEntity
8
0
100
AcDbSpline
62
9
6
CONTINUOUS
70
0
71
3
72
10
73
6
74
4
42
0.0000001000
43
0.0000001000
44
0.0000000001
12
0.2373168288
22
0.0041423807
32
0.0000000000
13
-0.0025699411
23
0.2373390653
33
0.0000000000
40
0.0000000000
40
0.0000000000
40
0.0000000000
40
0.0000000000
40
0.1202449330
40
0.4666937285
40
1.0000000000
40
1.0000000000
40
1.0000000000
40
1.0000000000
10
-44.7765942367
20
-13.2704543070
30
0.0000000000
10
-44.7670821880
20
-13.2702882736
30
0.0000000000
10
-44.7868093260
20
-13.2111627571
30
0.0000000000
10
-44.7679063462
20
-13.1529094728
30
0.0000000000
10
-44.7758316659
20
-13.0753241829
30
0.0000000000
10
-44.7762885212
20
-13.0331327122
30
0.0000000000
11
-44.7765942367
21
-13.2704543070
31
0.0000000000
11
-44.7753524650
21
-13.2419408410
31
0.0000000000
11
-44.7752465363
21
-13.1597102556
31
0.0000000000
11
-44.7762885212
21
-13.0331327122
31
0.0000000000
0
SPLINE
5
407
100
AcDbEntity
8
0
100
AcDbSpline
62
9
6
CONTINUOUS
70
0
71
3
72
10
73
6
74
4
42
0.0000001000
43
0.0000001000
44
0.0000000001
12
0.0020336255
22
-0.1890033532
32
0.0000000000
13
-0.1889855771
23
-0.0032946630
33
0.0000000000
40
0.0000000000
40
0.0000000000
40
0.0000000000
40
0.0000000000
40
0.5383075063
40
0.8818207874
40
1.0000000000
40
1.0000000000
40
1.0000000000
40
1.0000000000
10
-57.5479170820
20
-13.3043842320
30
0.0000000000
10
-57.5475521767
20
-13.3382982066
30
0.0000000000
10
-57.5411019573
20
-13.4002912165
30
0.0000000000
10
-57.5562615116
20
-13.4466824892
30
0.0000000000
10
-57.5404723610
20
-13.4932487896
30
0.0000000000
10
-57.5479170832
20
-13.4933785765
30
0.0000000000
11
-57.5479170820
21
-13.3043842320
31
0.0000000000
11
-57.5470623514
21
-13.4061284549
31
0.0000000000
11
-57.5470623518
21
-13.4710573750
31
0.0000000000
11
-57.5479170832
21
-13.4933785765
31
0.0000000000
0
SPLINE
5
408
100
AcDbEntity
8
0
100
AcDbSpline
62
9
6
CONTINUOUS
70
0
71
3
72
10
73
6
74
4
42
0.0000001000
43
0.0000001000
44
0.0000000001
12
-0.2232068871
22
-0.2232068849
32
0.0000000000
13
-0.3009210615
23
0.0983876561
33
0.0000000000
40
0.0000000000
40
0.0000000000
40
0.0000000000
40
0.0000000000
40
0.3315187371
40
0.7102743336
40
1.0000000000
40
1.0000000000
40
1.0000000000
40
1.0000000000
10
-59.9696384563
20
-16.9905680164
30
0.0000000000
10
-59.9943042115
20
-17.0152337713
30
0.0000000000
10
-60.0633115833
20
-17.0530788847
30
0.0000000000
10
-60.1708193105
20
-17.0561449167
30
0.0000000000
10
-60.2402515860
20
-17.0409354390
30
0.0000000000
10
-60.2693131043
20
-17.0314336293
30
0.0000000000
11
-59.9696384563
21
-16.9905680164
31
0.0000000000
11
-60.0603240307
21
-17.0427917375
31
0.0000000000
11
-60.1796091388
21
-17.0508772847
31
0.0000000000
11
-60.2693131043
21
-17.0314336293
31
0.0000000000
0
SPLINE
5
409
100
AcDbEntity
8
0
100
AcDbSpline
62
9
6
CONTINUOUS
70
0
71
3
72
8
73
4
74
2
42
0.0000001000
43
0.0000001000
44
0.0000000001
12
-0.0461022600
22
0.0150733660
32
0.0000000000
13
-0.0441179867
23
0.0198079947
33
0.0000000000
40
0.0000000000
40
0.0000000000
40
0.0000000000
40
0.0000000000
40
1.0000000000
40
1.0000000000
40
1.0000000000
40
1.0000000000
10
-60.2693131043
20
-17.0314336293
30
0.0000000000
10
-60.2846805243
20
-17.0264091739
30
0.0000000000
10
-60.2997596465
20
-17.0205710611
30
0.0000000000
10
-60.3144656420
20
-17.0139683962
30
0.0000000000
11
-60.2693131043
21
-17.0314336293
31
0.0000000000
11
-60.3144656420
21
-17.0139683962
31
0.0000000000
0
SPLINE
5
40A
100
AcDbEntity
8
0
100
AcDbSpline
62
9
6
CONTINUOUS
70
0
71
3
72
10
73
6
74
4
42
0.0000001000
43
0.0000001000
44
0.0000000001
12
-0.2578119801
22
-0.2578119800
32
0.0000000000
13
-0.3252590837
23
0.1647439304
33
0.0000000000
40
0.0000000000
40
0.0000000000
40
0.0000000000
40
0.0000000000
40
0.2726732427
40
0.6009750139
40
1.0000000000
40
1.0000000000
40
1.0000000000
40
1.0000000000
10
-58.4317670495
20
-15.4526966095
30
0.0000000000
10
-58.4551998590
20
-15.4761294190
30
0.0000000000
10
-58.5254793042
20
-15.5097157553
30
0.0000000000
10
-58.6497395218
20
-15.5020120553
30
0.0000000000
10
-58.7333320694
20
-15.4702527777
30
0.0000000000
10
-58.7765942365
20
-15.4483404629
30
0.0000000000
11
-58.4317670495
21
-15.4526966095
31
0.0000000000
11
-58.5198793120
21
-15.4987397124
31
0.0000000000
11
-58.6395689811
21
-15.4972276924
31
0.0000000000
11
-58.7765942365
21
-15.4483404629
31
0.0000000000
0
SPLINE
5
40B
100
AcDbEntity
8
0
100
AcDbSpline
62
9
6
CONTINUOUS
70
0
71
3
72
10
73
6
74
4
42
0.0000001000
43
0.0000001000
44
0.0000000001
12
0.1229631387
22
0.0021463296
32
0.0000000000
13
-0.0012249368
23
0.1229757690
33
0.0000000000
40
0.0000000000
40
0.0000000000
40
0.0000000000
40
0.0000000000
40
0.1155817026
40
0.4553123002
40
1.0000000000
40
1.0000000000
40
1.0000000000
40
1.0000000000
10
-60.3144656420
20
-17.1369384717
30
0.0000000000
10
-60.3097282124
20
-17.1368557795
30
0.0000000000
10
-60.3198840377
20
-17.1069951078
30
0.0000000000
10
-60.3099961433
20
-17.0768007916
30
0.0000000000
10
-60.3142432394
20
-17.0362961925
30
0.0000000000
10
-60.3144656420
20
-17.0139683962
30
0.0000000000
11
-60.3144656420
21
-17.1369384717
31
0.0000000000
11
-60.3139397912
21
-17.1227337478
31
0.0000000000
11
-60.3139397912
21
-17.0809530438
31
0.0000000000
11
-60.3144656420
21
-17.0139683962
31
0.0000000000
0
SPLINE
5
40C
100
AcDbEntity
8
0
100
AcDbSpline
62
9
6
CONTINUOUS
70
0
71
3
72
12
73
8
74
6
42
0.0000001000
43
0.0000001000
44
0.0000000001
12
-0.1226636181
22
-0.0018610637
32
0.0000000000
13
0.0004884134
23
0.1226767632
33
0.0000000000
40
0.0000000000
40
0.0000000000
40
0.0000000000
40
0.0000000000
40
0.0289913482
40
0.1272169634
40
0.3117130660
40
0.5982645003
40
1.0000000000
40
1.0000000000
40
1.0000000000
40
1.0000000000
10
-64.0888109212
20
-17.2028199136
30
0.0000000000
10
-64.0899963158
20
-17.2028378985
30
0.0000000000
10
-64.0872195559
20
-17.1944831889
30
0.0000000000
10
-64.0903581574
20
-17.1851330892
30
0.0000000000
10
-64.0883496146
20
-17.1596343211
30
0.0000000000
10
-64.0893144352
20
-17.1250917470
30
0.0000000000
10
-64.0888763256
20
-17.0965730939
30
0.0000000000
10
-64.0888109212
20
-17.0801452237
30
0.0000000000
11
-64.0888109212
21
-17.2028199136
31
0.0000000000
11
-64.0889414594
21
-17.1992657170
31
0.0000000000
11
-64.0890254890
21
-17.1872159140
31
0.0000000000
11
-64.0890445332
21
-17.1645823579
31
0.0000000000
11
-64.0889792893
21
-17.1294289374
31
0.0000000000
11
-64.0888109212
21
-17.0801452237
31
0.0000000000
0
SPLINE
5
40D
100
AcDbEntity
8
0
100
AcDbSpline
62
9
6
CONTINUOUS
70
0
71
3
72
14
73
10
74
8
42
0.0000001000
43
0.0000001000
44
0.0000000001
12
-0.0000299392
22
-1.4932667311
32
0.0000000000
13
-0.0000040611
23
-1.4932667314
33
0.0000000000
40
0.0000000000
40
0.0000000000
40
0.0000000000
40
0.0000000000
40
0.2002920286
40
0.3781788424
40
0.5352232087
40
0.6738960830
40
0.7964238050
40
0.9045389266
40
1.0000000000
40
1.0000000000
40
1.0000000000
40
1.0000000000
10
-44.2475338631
20
6.7437500019
30
0.0000000000
10
-44.2475358620
20
6.6440535276
30
0.0000000000
10
-44.2494415133
20
6.4558083246
30
0.0000000000
10
-44.2565824974
20
6.1894869669
30
0.0000000000
10
-44.2651822060
20
5.9539034683
30
0.0000000000
10
-44.2733554535
20
5.7458805356
30
0.0000000000
10
-44.2799233449
20
5.5621675885
30
0.0000000000
10
-44.2841918994
20
5.3999004088
30
0.0000000000
10
-44.2853203107
20
5.2985686393
30
0.0000000000
10
-44.2853204400
20
5.2510523576
30
0.0000000000
11
-44.2475338631
21
6.7437500019
31
0.0000000000
11
-44.2504351938
21
6.4446746516
31
0.0000000000
11
-44.2573155809
21
6.1791313131
31
0.0000000000
11
-44.2656312018
21
5.9447696667
31
0.0000000000
11
-44.2735415435
21
5.7378452206
31
0.0000000000
11
-44.2798740895
21
5.5549882685
31
0.0000000000
11
-44.2839242262
21
5.3935943648
31
0.0000000000
11
-44.2853204400
21
5.2510523576
31
0.0000000000
0
SPLINE
5
40E
100
AcDbEntity
8
0
100
AcDbSpline
62
9
6
CONTINUOUS
70
0
71
3
72
9
73
5
74
3
42
0.0000001000
43
0.0000001000
44
0.0000000001
12
0.0114017723
22
-0.3690148219
32
0.0000000000
13
0.0140895023
23
-0.3689199317
33
0.0000000000
40
0.0000000000
40
0.0000000000
40
0.0000000000
40
0.0000000000
40
0.4776266848
40
1.0000000000
40
1.0000000000
40
1.0000000000
40
1.0000000000
10
-44.2797583549
20
10.0286540985
30
0.0000000000
10
-44.2779430913
20
9.9699036565
30
0.0000000000
10
-44.2735399717
20
9.8469192448
30
0.0000000000
10
-44.2687354263
20
9.7239502846
30
0.0000000000
10
-44.2662820996
20
9.6597123087
30
0.0000000000
11
-44.2797583549
21
10.0286540985
31
0.0000000000
11
-44.2736454203
21
9.8524259077
31
0.0000000000
11
-44.2662820996
21
9.6597123087
31
0.0000000000
0
SPLINE
5
40F
100
AcDbEntity
8
0
100
AcDbSpline
62
9
6
CONTINUOUS
70
0
71
3
72
10
73
6
74
4
42
0.0000001000
43
0.0000001000
44
0.0000000001
12
0.0311497710
22
-0.8156264946
32
0.0000000000
13
0.0001551493
23
-0.8162208939
33
0.0000000000
40
0.0000000000
40
0.0000000000
40
0.0000000000
40
0.0000000000
40
0.1261068673
40
0.5377606966
40
1.0000000000
40
1.0000000000
40
1.0000000000
40
1.0000000000
10
-44.2662820996
20
9.6597123087
30
0.0000000000
10
-44.2649726996
20
9.6254269413
30
0.0000000000
10
-44.2594575517
20
9.4792202235
30
0.0000000000
10
-44.2505987722
20
9.2072843410
30
0.0000000000
10
-44.2475577685
20
8.9695131259
30
0.0000000000
10
-44.2475338631
20
8.8437500001
30
0.0000000000
11
-44.2662820996
21
9.6597123087
31
0.0000000000
11
-44.2624273670
21
9.5568532780
31
0.0000000000
11
-44.2520899429
21
9.2210118741
31
0.0000000000
11
-44.2475338631
21
8.8437500001
31
0.0000000000
0
SPLINE
5
410
100
AcDbEntity
8
0
100
AcDbSpline
62
9
6
CONTINUOUS
70
0
71
3
72
11
73
7
74
5
42
0.0000001000
43
0.0000001000
44
0.0000000001
12
0.0018907391
22
1.2432633731
32
0.0000000000
13
-0.0024142917
23
1.2432624666
33
0.0000000000
40
0.0000000000
40
0.0000000000
40
0.0000000000
40
0.0000000000
40
0.2685835766
40
0.5295148218
40
0.7755931888
40
1.0000000000
40
1.0000000000
40
1.0000000000
40
1.0000000000
10
-58.7765942367
20
20.0556454923
30
0.0000000000
10
-58.7764249629
20
20.1669522001
30
0.0000000000
10
-58.7761705365
20
20.3863944570
30
0.0000000000
10
-58.7760368419
20
20.7078170339
30
0.0000000000
10
-58.7761556664
20
21.0109318110
30
0.0000000000
10
-58.7764136422
20
21.2059109060
30
0.0000000000
10
-58.7765942367
20
21.2989097612
30
0.0000000000
11
-58.7765942367
21
20.0556454923
31
0.0000000000
11
-58.7762088345
21
20.3895657794
31
0.0000000000
11
-58.7760792458
21
20.7139723887
31
0.0000000000
11
-58.7762088500
21
21.0199129357
31
0.0000000000
11
-58.7765942367
21
21.2989097612
31
0.0000000000
0
SPLINE
5
411
100
AcDbEntity
8
0
100
AcDbSpline
62
9
6
CONTINUOUS
70
0
71
3
72
9
73
5
74
3
42
0.0000001000
43
0.0000001000
44
0.0000000001
12
-9.5087255722
22
0.0578675390
32
0.0000000000
13
-9.5087268319
23
0.0576601824
33
0.0000000000
40
0.0000000000
40
0.0000000000
40
0.0000000000
40
0.0000000000
40
0.5003812202
40
1.0000000000
40
1.0000000000
40
1.0000000000
40
1.0000000000
10
-58.7765942367
20
20.0556454923
30
0.0000000000
10
-60.3625901383
20
20.0652974356
30
0.0000000000
10
-63.5321654350
20
20.0845691987
30
0.0000000000
10
-66.7017409410
20
20.1038065232
30
0.0000000000
10
-68.2853204400
20
20.1134092265
30
0.0000000000
11
-58.7765942367
21
20.0556454923
31
0.0000000000
11
-63.5345820998
21
20.0845752695
31
0.0000000000
11
-68.2853204400
21
20.1134092265
31
0.0000000000
0
SPLINE
5
412
100
AcDbEntity
8
0
100
AcDbSpline
62
9
6
CONTINUOUS
70
0
71
3
72
9
73
5
74
3
42
0.0000001000
43
0.0000001000
44
0.0000000001
12
-9.5087256913
22
0.0543592681
32
0.0000000000
13
-9.5087267107
23
0.0541806591
33
0.0000000000
40
0.0000000000
40
0.0000000000
40
0.0000000000
40
0.0000000000
40
0.5003812190
40
1.0000000000
40
1.0000000000
40
1.0000000000
40
1.0000000000
10
-58.7765942367
20
21.2989097608
30
0.0000000000
10
-60.3625901541
20
21.3079765464
30
0.0000000000
10
-63.5321654696
20
21.3260814225
30
0.0000000000
10
-66.7017409572
20
21.3441561580
30
0.0000000000
10
-68.2853204400
20
21.3531793829
30
0.0000000000
11
-58.7765942367
21
21.2989097608
31
0.0000000000
11
-63.5345821171
21
21.3260876797
31
0.0000000000
11
-68.2853204400
21
21.3531793829
31
0.0000000000
0
SPLINE
5
413
100
AcDbEntity
8
0
100
AcDbSpline
62
9
6
CONTINUOUS
70
0
71
3
72
14
73
10
74
8
42
0.0000001000
43
0.0000001000
44
0.0000000001
12
-0.0000234856
22
-1.4996625360
32
0.0000000000
13
-0.0000187441
23
-1.4996625361
33
0.0000000000
40
0.0000000000
40
0.0000000000
40
0.0000000000
40
0.0000000000
40
0.1799404086
40
0.3437525224
40
0.4946746988
40
0.6347450645
40
0.7652114124
40
0.8867149766
40
1.0000000000
40
1.0000000000
40
1.0000000000
40
1.0000000000
10
-44.6443412179
20
6.7437500019
30
0.0000000000
10
-44.6443426265
20
6.6538000387
30
0.0000000000
10
-44.6512739495
20
6.4819075917
30
0.0000000000
10
-44.6766659491
20
6.2358600489
30
0.0000000000
10
-44.7068899702
20
6.0105203889
30
0.0000000000
10
-44.7354268508
20
5.8017806822
30
0.0000000000
10
-44.7582288284
20
5.6071089744
30
0.0000000000
10
-44.7729273801
20
5.4250649279
30
0.0000000000
10
-44.7765935289
20
5.3076821261
30
0.0000000000
10
-44.7765942367
20
5.2510523576
30
0.0000000000
11
-44.6443412179
21
6.7437500019
31
0.0000000000
11
-44.6545348209
21
6.4740927132
31
0.0000000000
11
-44.6786171000
21
6.2296130629
31
0.0000000000
11
-44.7077093473
21
6.0051582423
31
0.0000000000
11
-44.7353847436
21
5.7969310746
31
0.0000000000
11
-44.7575395353
21
5.6025339615
31
0.0000000000
11
-44.7717095913
21
5.4208714271
31
0.0000000000
11
-44.7765942367
21
5.2510523576
31
0.0000000000
0
SPLINE
5
414
100
AcDbEntity
8
0
100
AcDbSpline
62
9
6
CONTINUOUS
70
0
71
3
72
13
73
9
74
7
42
0.0000001000
43
0.0000001000
44
0.0000000001
12
0.0602629064
22
-0.5079200137
32
0.0000000000
13
0.0001446699
23
-0.5114824897
33
0.0000000000
40
0.0000000000
40
0.0000000000
40
0.0000000000
40
0.0000000000
40
0.1383614019
40
0.2863187894
40
0.4451657017
40
0.6161958213
40
0.8007086871
40
1.0000000000
40
1.0000000000
40
1.0000000000
40
1.0000000000
10
-44.6781701228
20
9.3538104382
30
0.0000000000
10
-44.6753907694
20
9.3303849299
30
0.0000000000
10
-44.6698482862
20
9.2818839678
30
0.0000000000
10
-44.6621357886
20
9.2063763815
30
0.0000000000
10
-44.6551214576
20
9.1252066664
30
0.0000000000
10
-44.6493434540
20
9.0376891420
30
0.0000000000
10
-44.6453807790
20
8.9431672100
30
0.0000000000
10
-44.6443508284
20
8.8777280056
30
0.0000000000
10
-44.6443412179
20
8.8437500000
30
0.0000000000
11
-44.6781701228
21
9.3538104382
31
0.0000000000
11
-44.6701699554
21
9.2834946466
31
0.0000000000
11
-44.6625132200
21
9.2082053647
31
0.0000000000
11
-44.6555639375
21
9.1272556871
31
0.0000000000
11
-44.6498314484
21
9.0399647991
31
0.0000000000
11
-44.6458818201
21
8.9456723782
31
0.0000000000
11
-44.6443412179
21
8.8437500000
31
0.0000000000
0
SPLINE
5
415
100
AcDbEntity
8
0
100
AcDbSpline
62
9
6
CONTINUOUS
70
0
71
3
72
10
73
6
74
4
42
0.0000001000
43
0.0000001000
44
0.0000000001
12
4.0000000196
22
-0.0702511788
32
0.0000000000
13
3.9999999804
23
-0.0702534154
33
0.0000000000
40
0.0000000000
40
0.0000000000
40
0.0000000000
40
0.0000000000
40
0.3331946315
40
0.6665279648
40
1.0000000000
40
1.0000000000
40
1.0000000000
40
1.0000000000
10
-68.2853204400
20
27.3271096581
30
0.0000000000
10
-67.8410609291
20
27.3193072196
30
0.0000000000
10
-66.9523569731
20
27.3036990110
30
0.0000000000
10
-65.6190236397
20
27.2802815803
30
0.0000000000
10
-64.7299498180
20
27.2646665444
30
0.0000000000
10
-64.2853204400
20
27.2568573612
30
0.0000000000
11
-68.2853204400
21
27.3271096581
31
0.0000000000
11
-66.9525419096
21
27.3037022181
31
0.0000000000
11
-65.6192085762
21
27.2802847865
31
0.0000000000
11
-64.2853204400
21
27.2568573612
31
0.0000000000
0
SPLINE
5
416
100
AcDbEntity
8
0
100
AcDbSpline
62
7
6
CONTINUOUS
70
0
71
3
72
10
73
6
74
4
42
0.0000001000
43
0.0000001000
44
0.0000000001
12
-3.9999099472
22
-0.0844306542
32
0.0000000000
13
-4.0000789575
23
-0.0760029924
33
0.0000000000
40
0.0000000000
40
0.0000000000
40
0.0000000000
40
0.0000000000
40
0.3308274198
40
0.6641688634
40
1.0000000000
40
1.0000000000
40
1.0000000000
40
1.0000000000
10
-64.2853204400
20
-19.1061404748
30
0.0000000000
10
-64.7264137357
20
-19.1154511333
30
0.0000000000
10
-65.6119598607
20
-19.1337857671
30
0.0000000000
10
-66.9452942404
20
-19.1604217891
30
0.0000000000
10
-67.8375367524
20
-19.1776505046
30
0.0000000000
10
-68.2853204400
20
-19.1861585618
30
0.0000000000
11
-64.2853204400
21
-19.1061404748
31
0.0000000000
11
-65.6086111146
21
-19.1335566283
31
0.0000000000
11
-66.9419775517
21
-19.1602077341
31
0.0000000000
11
-68.2853204400
21
-19.1861585618
31
0.0000000000
0
SPLINE
5
417
100
AcDbEntity
8
0
100
AcDbSpline
62
9
6
CONTINUOUS
70
0
71
3
72
9
73
5
74
3
42
0.0000001000
43
0.0000001000
44
0.0000000001
12
-3.7743001865
22
-0.0661767464
32
0.0000000000
13
-3.7743002114
23
-0.0661753262
33
0.0000000000
40
0.0000000000
40
0.0000000000
40
0.0000000000
40
0.0000000000
40
0.5001418491
40
1.0000000000
40
1.0000000000
40
1.0000000000
40
1.0000000000
10
-60.3145107372
20
-17.0139691795
30
0.0000000000
10
-60.9437392286
20
-17.0250017663
30
0.0000000000
10
-62.2018392926
20
-17.0470605764
30
0.0000000000
10
-63.4599393610
20
-17.0691191319
30
0.0000000000
10
-64.0888109359
20
-17.0801452240
30
0.0000000000
11
-60.3145107372
21
-17.0139691795
31
0.0000000000
11
-62.2021962143
21
-17.0470667707
31
0.0000000000
11
-64.0888109359
21
-17.0801452240
31
0.0000000000
0
SPLINE
5
418
100
AcDbEntity
8
0
100
AcDbSpline
62
9
6
CONTINUOUS
70
0
71
3
72
9
73
5
74
3
42
0.0000001000
43
0.0000001000
44
0.0000000001
12
-1.5378713506
22
-1.5656492089
32
0.0000000000
13
-1.5378860222
23
-1.5656347975
33
0.0000000000
40
0.0000000000
40
0.0000000000
40
0.0000000000
40
0.0000000000
40
0.5145964123
40
1.0000000000
40
1.0000000000
40
1.0000000000
40
1.0000000000
10
-58.7765942367
20
-15.4483643208
30
0.0000000000
10
-59.0403885966
20
-15.7169234760
30
0.0000000000
10
-59.5530359815
20
-16.2387833623
30
0.0000000000
10
-60.0656789396
20
-16.7606475970
30
0.0000000000
10
-60.3145107372
20
-17.0139691795
30
0.0000000000
11
-58.7765942367
21
-15.4483643208
31
0.0000000000
11
-59.5680004344
21
-16.2540190779
31
0.0000000000
11
-60.3145107372
21
-17.0139691795
31
0.0000000000
0
SPLINE
5
419
100
AcDbEntity
8
0
100
AcDbSpline
62
9
6
CONTINUOUS
70
0
71
3
72
10
73
6
74
4
42
0.0000001000
43
0.0000001000
44
0.0000000001
12
0.0016047938
22
-1.0504136887
32
0.0000000000
13
-0.0012244493
23
-1.0504142009
33
0.0000000000
40
0.0000000000
40
0.0000000000
40
0.0000000000
40
0.0000000000
40
0.3488010561
40
0.6858896427
40
1.0000000000
40
1.0000000000
40
1.0000000000
40
1.0000000000
10
-44.7765942367
20
-11.9827180899
30
0.0000000000
10
-44.7764076521
20
-12.1048465579
30
0.0000000000
10
-44.7761341109
20
-12.3450026712
30
0.0000000000
10
-44.7760266448
20
-12.6951409949
30
0.0000000000
10
-44.7761582965
20
-12.9231506976
30
0.0000000000
10
-44.7762865006
20
-13.0331326909
30
0.0000000000
11
-44.7765942367
21
-11.9827180899
31
0.0000000000
11
-44.7761811184
21
-12.3491036886
31
0.0000000000
11
-44.7760782040
21
-12.7031865525
31
0.0000000000
11
-44.7762865006
21
-13.0331326909
31
0.0000000000
0
SPLINE
5
41A
100
AcDbEntity
8
0
100
AcDbSpline
62
9
6
CONTINUOUS
70
0
71
3
72
10
73
6
74
4
42
0.0000001000
43
0.0000001000
44
0.0000000001
12
12.7716292503
22
0.2713142163
32
0.0000000000
13
12.7716319121
23
0.2711888873
33
0.0000000000
40
0.0000000000
40
0.0000000000
40
0.0000000000
40
0.0000000000
40
0.3296423035
40
0.6629755451
40
1.0000000000
40
1.0000000000
40
1.0000000000
40
1.0000000000
10
-57.5479170831
20
-13.3043841878
30
0.0000000000
10
-56.1445606547
20
-13.2745719734
30
0.0000000000
10
-53.3221345982
20
-13.2146185389
30
0.0000000000
10
-49.0649244093
20
-13.1242011272
30
0.0000000000
10
-46.2110705952
20
-13.0635984532
30
0.0000000000
10
-44.7762865006
20
-13.0331326909
30
0.0000000000
11
-57.5479170831
21
-13.3043841878
31
0.0000000000
11
-53.3378476498
21
-13.2149545142
31
0.0000000000
11
-49.0806386313
21
-13.1245371850
31
0.0000000000
11
-44.7762865006
21
-13.0331326909
31
0.0000000000
0
SPLINE
5
41B
100
AcDbEntity
8
0
100
AcDbSpline
62
9
6
CONTINUOUS
70
0
71
3
72
9
73
5
74
3
42
0.0000001000
43
0.0000001000
44
0.0000000001
12
-10.7374027058
22
-0.0614095568
32
0.0000000000
13
-10.7374040068
23
-0.0611816538
33
0.0000000000
40
0.0000000000
40
0.0000000000
40
0.0000000000
40
0.0000000000
40
0.5004304080
40
1.0000000000
40
1.0000000000
40
1.0000000000
40
1.0000000000
10
-57.5479170809
20
-13.3043841874
30
0.0000000000
10
-59.3390246864
20
-13.3146279239
30
0.0000000000
10
-62.9181590305
20
-13.3350787492
30
0.0000000000
10
-66.4972935936
20
-13.3554912183
30
0.0000000000
10
-68.2853204400
20
-13.3656793829
30
0.0000000000
11
-57.5479170809
21
-13.3043841874
31
0.0000000000
11
-62.9212400613
21
-13.3350867480
31
0.0000000000
11
-68.2853204400
21
-13.3656793829
31
0.0000000000
0
SPLINE
5
41C
100
AcDbEntity
8
0
100
AcDbSpline
62
9
6
CONTINUOUS
70
0
71
3
72
9
73
5
74
3
42
0.0000001000
43
0.0000001000
44
0.0000000001
12
-23.5087222887
22
-0.1438327370
32
0.0000000000
13
-23.5087300708
23
-0.1425551168
33
0.0000000000
40
0.0000000000
40
0.0000000000
40
0.0000000000
40
0.0000000000
40
0.5009383230
40
1.0000000000
40
1.0000000000
40
1.0000000000
40
1.0000000000
10
-44.7765942367
20
-11.9827180899
30
0.0000000000
10
-48.7020675431
20
-12.0067351999
30
0.0000000000
10
-56.5383089679
20
-12.0545713114
30
0.0000000000
10
-64.3745516888
20
-12.1021946280
30
0.0000000000
10
-68.2853204400
20
-12.1259092265
30
0.0000000000
11
-44.7765942367
21
-11.9827180899
31
0.0000000000
11
-56.5530151443
21
-12.0546076842
31
0.0000000000
11
-68.2853204400
21
-12.1259092265
31
0.0000000000
0
SPLINE
5
41D
100
AcDbEntity
8
0
100
AcDbSpline
62
9
6
CONTINUOUS
70
0
71
3
72
10
73
6
74
4
42
0.0000001000
43
0.0000001000
44
0.0000000001
12
4.0000000196
22
0.0702511788
32
0.0000000000
13
3.9999999804
23
0.0702534154
33
0.0000000000
40
0.0000000000
40
0.0000000000
40
0.0000000000
40
0.0000000000
40
0.3331946315
40
0.6665279648
40
1.0000000000
40
1.0000000000
40
1.0000000000
40
1.0000000000
10
-68.2853204400
20
-19.3396096581
30
0.0000000000
10
-67.8410609291
20
-19.3318072196
30
0.0000000000
10
-66.9523569731
20
-19.3161990110
30
0.0000000000
10
-65.6190236397
20
-19.2927815803
30
0.0000000000
10
-64.7299498180
20
-19.2771665444
30
0.0000000000
10
-64.2853204400
20
-19.2693573612
30
0.0000000000
11
-68.2853204400
21
-19.3396096581
31
0.0000000000
11
-66.9525419096
21
-19.3162022181
31
0.0000000000
11
-65.6192085762
21
-19.2927847865
31
0.0000000000
11
-64.2853204400
21
-19.2693573612
31
0.0000000000
0
ENDSEC
0
SECTION
2
OBJECTS
0
DICTIONARY
5
C
100
AcDbDictionary
280
0
281
1
3
ACAD_GROUP
350
D
3
ACAD_MLINESTYLE
350
17
3
ACAD_LAYOUT
350
1A
3
ACAD_PLOTSETTINGS
350
19
3
ACAD_PLOTSTYLENAME
350
E
0
DICTIONARY
5
D
102
{ACAD_REACTORS
330
C
102
}
100
AcDbDictionary
280
0
281
1
0
ACDBDICTIONARYWDFLT
5
E
102
{ACAD_REACTORS
330
C
102
}
100
AcDbDictionary
281
1
3
Normal
350
F
100
AcDbDictionaryWithDefault
340
F
0
DICTIONARY
5
17
102
{ACAD_REACTORS
330
C
102
}
100
AcDbDictionary
280
0
281
1
3
Standard
350
18
0
DICTIONARY
5
19
102
{ACAD_REACTORS
330
C
102
}
100
AcDbDictionary
281
1
0
DICTIONARY
5
1A
102
{ACAD_REACTORS
330
C
102
}
100
AcDbDictionary
281
1
3
Layout1
350
1E
3
Model
350
22
0
ACDBPLACEHOLDER
5
F
102
{ACAD_REACTORS
330
E
102
}
0
MLINESTYLE
5
18
102
{ACAD_REACTORS
330
17
102
}
100
AcDbMlineStyle
2
STANDARD
70
0
3

62
256
51
90.0
52
90.0
71
2
49
0.5
62
256
6
BYLAYER
49
-0.5
62
256
6
BYLAYER
0
LAYOUT
5
1E
102
{ACAD_REACTORS
330
1A
102
}
100
AcDbPlotSettings
1

2

4

6

40
0.0
41
0.0
42
0.0
43
0.0
44
0.0
45
0.0
46
0.0
47
0.0
48
0.0
49
0.0
140
0.0
141
0.0
142
1.0
143
1.0
70
0
72
0
73
0
74
0
7

75
0
147
1.0
148
0.0
149
0.0
100
AcDbLayout
1
Layout1
70
0
71
0
10
0.0
20
0.0
11
0.0
21
0.0
12
0.0
22
0.0
32
0.0
14
0.0
24
0.0
34
0.0
15
0.0
25
0.0
35
0.0
146
0.0
13
0.0
23
0.0
33
0.0
16
0.0
26
0.0
36
0.0
17
0.0
27
0.0
37
0.0
76
0
330
1B
331
0
345
0
346
0
0
LAYOUT
5
22
102
{ACAD_REACTORS
330
1A
102
}
100
AcDbPlotSettings
1

2

4

6

40
0.0
41
0.0
42
0.0
43
0.0
44
0.0
45
0.0
46
0.0
47
0.0
48
0.0
49
0.0
140
0.0
141
0.0
142
1.0
143
1.0
70
0
72
0
73
0
74
0
7

75
0
147
1.0
148
0.0
149
0.0
100
AcDbLayout
1
Model
70
0
71
0
10
0.0
20
0.0
11
0.0
21
0.0
12
0.0
22
0.0
32
0.0
14
0.0
24
0.0
34
0.0
15
0.0
25
0.0
35
0.0
146
0.0
13
0.0
23
0.0
33
0.0
16
0.0
26
0.0
36
0.0
17
0.0
27
0.0
37
0.0
76
0
330
1F
331
0
345
0
346
0
0
ENDSEC
0
EOF
