  0
SECTION
  2
HEADER
  9
$ACADVER
  1
AC1024
  9
$DWGCODEPAGE
  3
ANSI_1252
  9
$EXTMAX
 10
297.0
 20
210.0
 30
0.0
  9
$EXTMIN
 10
0.0
 20
0.0
 30
0.0
  9
$LIMMIN
 10
0.0
 20
0.0
  9
$LIMMAX
 10
297.0
 20
210.0
  9
$VIEWCTR
 10
148.5
 20
105.0
  9
$VIEWSIZE
 40
210.0
  9
$CLAYER
  8
0
  9
$LTSCALE
 40
16.335
  9
$CELTYPE
  6
BYLAYER
  9
$DIMSCALE
 40
1.0
  9
$DIMASZ
 40
3.0
  9
$DIMEXO
 40
0.5
  9
$DIMDLI
 40
11.286
  9
$DIMEXE
 40
1.5
  9
$DIMCEN
 40
2.673
  9
$DIMLFAC
 40
1.0
  9
$DIMBLK
  1
_FILLED
  9
$DIMALT
 70
0
  9
$DIMALTF
 40
0.0393700787
  9
$DIMTXT
 40
3.0
  9
$DIMTOL
 70
1
  9
$DIMLIM
 70
0
  9
$DIMTFAC
 40
1.0
  9
$DIMTP
 40
0.01
  9
$DIMTM
 40
0.01
  9
$DIMGAP
 40
0.625
  9
$DIMDSEP
 70
44
  9
$AUNITS
 70
0
  9
$PDMODE
 70
3
  9
$PDSIZE
 40
3.0
  9
$HANDSEED
  5
4AD
  9
$TILEMODE
 70
1
  9
$MEASUREMENT
 70
1
  9
$INSUNITS
 70
4
  0
ENDSEC
  0
SECTION
  2
CLASSES
  0
CLASS
  1
ACDBDICTIONARYWDFLT
  2
AcDbDictionaryWithDefault
  3
AutoCAD 2000
 90
0
 91
1
280
0
281
0
  0
CLASS
  1
ACDBPLACEHOLDER
  2
AcDbPlaceHolder
  3
AutoCAD 2000
 90
0
 91
1
280
0
281
0
  0
CLASS
  1
LAYOUT
  2
AcDbLayout
  3
AutoCAD 2000
 90
0
 91
0
280
0
281
0
  0
ENDSEC
  0
SECTION
  2
TABLES
  0
TABLE
  2
VPORT
  5
8
100
AcDbSymbolTable
 70
2
  0
VPORT
  5
1F4
100
AcDbSymbolTableRecord
100
AcDbViewportTableRecord
  2
*ACTIVE
 70
0
 10
0.0
 20
0.0
 11
1.0
 21
1.0
 12
148.5
 22
105.0
 13
0.0
 23
0.0
 14
1.0
 24
1.0
 15
0.0
 25
0.0
 16
0.0
 26
0.0
 36
1.0
 17
0.0
 27
0.0
 37
0.0
 40
210.0
 41
1.4142857143
 42
50.0
 43
0.0
 44
0.0
 50
0.0
 51
0.0
 71
0
 72
100
 73
1
 74
1
 75
0
 76
0
 77
0
 78
0
  0
ENDTAB
  0
TABLE
  2
LTYPE
  5
5
100
AcDbSymbolTable
 70
6
  0
LTYPE
  5
14
100
AcDbSymbolTableRecord
100
AcDbLinetypeTableRecord
  2
BYBLOCK
 70
0
  3

 72
65
 73
0
 40
0.0
  0
LTYPE
  5
15
100
AcDbSymbolTableRecord
100
AcDbLinetypeTableRecord
  2
BYLAYER
 70
0
  3

 72
65
 73
0
 40
0.0
  0
LTYPE
  5
16
100
AcDbSymbolTableRecord
100
AcDbLinetypeTableRecord
  2
CONTINUOUS
 70
64
  3
Solid line
 72
65
 73
0
 40
0.0
  0
LTYPE
  5
1F5
100
AcDbSymbolTableRecord
100
AcDbLinetypeTableRecord
  2
CENTER
 70
64
  3
____ _ ____ _ ____ _ ____ _ ____ _ ____ _ ____
 72
65
 73
4
 40
0.6
 49
0.375
 74
0
 49
-0.075
 74
0
 49
0.075
 74
0
 49
-0.075
 74
0
  0
LTYPE
  5
1F6
100
AcDbSymbolTableRecord
100
AcDbLinetypeTableRecord
  2
HIDDEN
 70
64
  3
- - - - - - - - - - - - - - - - - - - -
 72
65
 73
2
 40
0.2
 49
0.1
 74
0
 49
-0.1
 74
0
  0
LTYPE
  5
1F7
100
AcDbSymbolTableRecord
100
AcDbLinetypeTableRecord
  2
PHANTOM
 70
64
  3
_____ _ _ _____ _ _ _____ _ _ _____
 72
65
 73
6
 40
0.8
 49
0.45
 74
0
 49
-0.05
 74
0
 49
0.1
 74
0
 49
-0.05
 74
0
 49
0.1
 74
0
 49
-0.05
 74
0
  0
LTYPE
  5
1F8
100
AcDbSymbolTableRecord
100
AcDbLinetypeTableRecord
  2
DOT
 70
64
  3
. . . . . . . . . . . . . . . . . . . .
 72
65
 73
2
 40
0.2
 49
0.1
 74
0
 49
-0.1
 74
0
  0
LTYPE
  5
1F9
100
AcDbSymbolTableRecord
100
AcDbLinetypeTableRecord
  2
DASHED
 70
64
  3
- - - - - - - - - - - - - - - - - - - -
 72
65
 73
2
 40
0.2
 49
0.1
 74
0
 49
-0.1
 74
0
  0
ENDTAB
  0
TABLE
  2
LAYER
  5
2
100
AcDbSymbolTable
 70
36
  0
LAYER
  5
10
100
AcDbSymbolTableRecord
100
AcDbLayerTableRecord
  2
0
 70
0
 62
7
  6
CONTINUOUS
370
-3
390
F
  0
LAYER
  5
1FA
100
AcDbSymbolTableRecord
100
AcDbLayerTableRecord
  2
DEFAULT_1
 70
0
 62
7
  6
CENTER
370
-3
390
F
  0
LAYER
  5
1FB
100
AcDbSymbolTableRecord
100
AcDbLayerTableRecord
  2
DEFAULT_2
 70
0
 62
7
  6
HIDDEN
370
-3
390
F
  0
LAYER
  5
1FC
100
AcDbSymbolTableRecord
100
AcDbLayerTableRecord
  2
DEFAULT_3
 70
0
 62
7
  6
PHANTOM
370
-3
390
F
  0
LAYER
  5
1FD
100
AcDbSymbolTableRecord
100
AcDbLayerTableRecord
  2
ASSI
 70
0
 62
7
  6
CONTINUOUS
370
-3
390
F
  0
LAYER
  5
1FE
100
AcDbSymbolTableRecord
100
AcDbLayerTableRecord
  2
COORDINATE
 70
0
 62
7
  6
CONTINUOUS
370
-3
390
F
  0
LAYER
  5
1FF
100
AcDbSymbolTableRecord
100
AcDbLayerTableRecord
  2
COORD_ORIGINE
 70
0
 62
7
  6
CONTINUOUS
370
-3
390
F
  0
LAYER
  5
200
100
AcDbSymbolTableRecord
100
AcDbLayerTableRecord
  2
COSMETICHE
 70
0
 62
7
  6
CONTINUOUS
370
-3
390
F
  0
LAYER
  5
201
100
AcDbSymbolTableRecord
100
AcDbLayerTableRecord
  2
CURVE
 70
0
 62
7
  6
CONTINUOUS
370
-3
390
F
  0
LAYER
  5
202
100
AcDbSymbolTableRecord
100
AcDbLayerTableRecord
  2
DRAFT
 70
0
 62
7
  6
CONTINUOUS
370
-3
390
F
  0
LAYER
  5
203
100
AcDbSymbolTableRecord
100
AcDbLayerTableRecord
  2
IGES
 70
0
 62
7
  6
CONTINUOUS
370
-3
390
F
  0
LAYER
  5
204
100
AcDbSymbolTableRecord
100
AcDbLayerTableRecord
  2
INTF_1
 70
0
 62
7
  6
CONTINUOUS
370
-3
390
F
  0
LAYER
  5
205
100
AcDbSymbolTableRecord
100
AcDbLayerTableRecord
  2
INTF_11
 70
0
 62
7
  6
CONTINUOUS
370
-3
390
F
  0
LAYER
  5
206
100
AcDbSymbolTableRecord
100
AcDbLayerTableRecord
  2
INTF_12
 70
0
 62
7
  6
CONTINUOUS
370
-3
390
F
  0
LAYER
  5
207
100
AcDbSymbolTableRecord
100
AcDbLayerTableRecord
  2
INTF_9
 70
0
 62
7
  6
CONTINUOUS
370
-3
390
F
  0
LAYER
  5
208
100
AcDbSymbolTableRecord
100
AcDbLayerTableRecord
  2
NOTE
 70
0
 62
7
  6
CONTINUOUS
370
-3
390
F
  0
LAYER
  5
209
100
AcDbSymbolTableRecord
100
AcDbLayerTableRecord
  2
PIANI
 70
0
 62
7
  6
CONTINUOUS
370
-3
390
F
  0
LAYER
  5
20A
100
AcDbSymbolTableRecord
100
AcDbLayerTableRecord
  2
PIANI_ORIGINE
 70
0
 62
7
  6
CONTINUOUS
370
-3
390
F
  0
LAYER
  5
20B
100
AcDbSymbolTableRecord
100
AcDbLayerTableRecord
  2
PUNTI
 70
0
 62
7
  6
CONTINUOUS
370
-3
390
F
  0
LAYER
  5
20C
100
AcDbSymbolTableRecord
100
AcDbLayerTableRecord
  2
RACCORDO
 70
0
 62
7
  6
CONTINUOUS
370
-3
390
F
  0
LAYER
  5
20D
100
AcDbSymbolTableRecord
100
AcDbLayerTableRecord
  2
RGB____0____0____0__
 70
0
 62
7
  6
CONTINUOUS
370
-3
390
F
  0
LAYER
  5
20E
100
AcDbSymbolTableRecord
100
AcDbLayerTableRecord
  2
SMUSSO
 70
0
 62
7
  6
CONTINUOUS
370
-3
390
F
  0
LAYER
  5
20F
100
AcDbSymbolTableRecord
100
AcDbLayerTableRecord
  2
SNAPLINE
 70
0
 62
7
  6
CONTINUOUS
370
-3
390
F
  0
LAYER
  5
210
100
AcDbSymbolTableRecord
100
AcDbLayerTableRecord
  2
SUPERFICI
 70
0
 62
7
  6
CONTINUOUS
370
-3
390
F
  0
LAYER
  5
211
100
AcDbSymbolTableRecord
100
AcDbLayerTableRecord
  2
TRASH
 70
0
 62
7
  6
CONTINUOUS
370
-3
390
F
  0
LAYER
  5
212
100
AcDbSymbolTableRecord
100
AcDbLayerTableRecord
  2
XSEC_DATUMS
 70
0
 62
7
  6
CONTINUOUS
370
-3
390
F
  0
ENDTAB
  0
TABLE
  2
STYLE
  5
3
100
AcDbSymbolTable
 70
1
  0
STYLE
  5
11
100
AcDbSymbolTableRecord
100
AcDbTextStyleTableRecord
  2
STANDARD
 70
0
 40
0.0
 41
0.8
 50
0.0
 71
0
 42
0.2
  3
txt
  4

  0
STYLE
  5
213
100
AcDbSymbolTableRecord
100
AcDbTextStyleTableRecord
  2
TEXTSTYLE_1
 70
0
 40
0.0
 41
0.8
 50
0.0
 71
0
 42
0.2
  3
gdt
  4

  0
ENDTAB
  0
TABLE
  2
VIEW
  5
6
100
AcDbSymbolTable
 70
0
  0
ENDTAB
  0
TABLE
  2
UCS
  5
7
100
AcDbSymbolTable
 70
0
  0
ENDTAB
  0
TABLE
  2
APPID
  5
9
100
AcDbSymbolTable
 70
1
  0
APPID
  5
214
100
AcDbSymbolTableRecord
100
AcDbRegAppTableRecord
  2
ACAD
 70
0
  0
ENDTAB
  0
TABLE
  2
BLOCK_RECORD
  5
1
100
AcDbSymbolTable
 70
0
  0
BLOCK_RECORD
  5
215
100
AcDbSymbolTableRecord
100
AcDbBlockTableRecord
  2
*Model_Space
  0
BLOCK_RECORD
  5
216
100
AcDbSymbolTableRecord
100
AcDbBlockTableRecord
  2
*Paper_Space
  0
BLOCK_RECORD
  5
217
100
AcDbSymbolTableRecord
100
AcDbBlockTableRecord
  2
_FILLED
  0
BLOCK_RECORD
  5
218
100
AcDbSymbolTableRecord
100
AcDbBlockTableRecord
  2
*D0
  0
BLOCK_RECORD
  5
219
100
AcDbSymbolTableRecord
100
AcDbBlockTableRecord
  2
*D1
  0
BLOCK_RECORD
  5
21A
100
AcDbSymbolTableRecord
100
AcDbBlockTableRecord
  2
*D2
  0
BLOCK_RECORD
  5
21B
100
AcDbSymbolTableRecord
100
AcDbBlockTableRecord
  2
*D3
  0
ENDTAB
  0
TABLE
  2
DIMSTYLE
  5
A
100
AcDbSymbolTable
 70
1
100
AcDbDimStyleTable
 71
0
  0
DIMSTYLE
105
21C
100
AcDbSymbolTableRecord
100
AcDbDimStyleTableRecord
  2
STANDARD
 70
0
  3

  4

 40
1.0
 41
3.0
 42
0.5
 43
0.38
 44
1.5
 45
0.0
 46
0.0
 47
0.01
 48
0.01
140
3.0
141
0.09
142
0.0
143
25.4
144
1.0
145
0.0
146
1.0
147
0.625
 71
1
 72
0
 73
0
 74
0
 75
0
 76
0
 77
1
 78
8
 79
2
170
0
171
1
172
0
173
0
174
0
175
0
176
0
177
0
178
0
270
2
179
2
271
2
272
2
273
2
274
2
275
0
280
0
281
0
282
0
283
1
284
8
285
0
286
0
287
3
288
0
340
11
278
44
341
217
342
217
343
217
344
217
  0
DIMSTYLE
105
21D
100
AcDbSymbolTableRecord
100
AcDbDimStyleTableRecord
  2
DIMSTYLE_1
 70
0
  3

  4

 40
1.0
 41
3.0
 42
0.5
 43
0.38
 44
1.5
 45
0.0
 46
0.0
 47
0.0
 48
0.0
140
3.0
141
0.09
142
0.0
143
25.4
144
1.0
145
0.0
146
1.0
147
0.75
 71
0
 72
0
 73
0
 74
0
 75
0
 76
0
 77
1
 78
8
 79
2
170
0
171
1
172
0
173
0
174
0
175
0
176
0
177
0
178
0
270
2
179
2
271
2
272
2
273
2
274
2
275
0
280
0
281
0
282
0
283
1
284
8
285
0
286
0
287
3
288
0
340
11
278
44
341
217
342
217
343
217
344
217
  0
ENDTAB
  0
ENDSEC
  0
SECTION
  2
BLOCKS
  0
BLOCK
  5
20
100
AcDbEntity
  8
0
100
AcDbBlockBegin
  2
*Model_Space
 70
0
 10
0.0
 20
0.0
 30
0.0
  3
*Model_Space
  1

  0
ENDBLK
  5
21
100
AcDbEntity
  8
0
100
AcDbBlockEnd
  0
BLOCK
  5
1C
100
AcDbEntity
  8
0
100
AcDbBlockBegin
  2
*Paper_Space
 70
0
 10
0.0
 20
0.0
 30
0.0
  3
*Paper_Space
  1

  0
ENDBLK
  5
1D
100
AcDbEntity
  8
0
100
AcDbBlockEnd
  0
BLOCK
  5
21E
100
AcDbEntity
  8
0
100
AcDbBlockBegin
  2
_FILLED
 70
64
 10
0.0
 20
0.0
  3
_FILLED
  1

  0
SOLID
  5
21F
100
AcDbEntity
  8
0
  6
BYBLOCK
 62
0
100
AcDbTrace
 10
0.0
 20
0.0
 11
-1.0
 21
0.3166666667
 12
-1.0
 22
-0.3166666667
 13
-1.0
 23
-0.3166666667
  0
ENDBLK
  5
220
100
AcDbEntity
  8
0
  6
BYBLOCK
 62
0
100
AcDbBlockEnd
  0
BLOCK
  5
221
100
AcDbEntity
  8
0
100
AcDbBlockBegin
 62
7
  6
CONTINUOUS
  2
*D0
 70
65
 10
0.0
 20
0.0
  3
*D0
  1

  0
LINE
  5
222
100
AcDbEntity
  8
0
100
AcDbLine
 62
7
  6
CONTINUOUS
 10
-33.65
 20
22.3997711479
 11
-33.65
 21
35.0
  0
LINE
  5
223
100
AcDbEntity
  8
0
100
AcDbLine
 62
7
  6
CONTINUOUS
 10
33.65
 20
22.3997711479
 11
33.65
 21
35.0
  0
LINE
  5
224
100
AcDbEntity
  8
0
100
AcDbLine
 62
7
  6
CONTINUOUS
 10
-33.65
 20
33.5
 11
0.0
 21
33.5
  0
LINE
  5
225
100
AcDbEntity
  8
0
100
AcDbLine
 62
7
  6
CONTINUOUS
 10
33.65
 20
33.5
 11
0.0
 21
33.5
  0
INSERT
  5
226
100
AcDbEntity
  8
0
100
AcDbBlockReference
 62
7
  6
CONTINUOUS
  2
_FILLED
 10
-33.65
 20
33.5
 41
3.0
 42
3.0
 43
3.0
 50
180.0
  0
INSERT
  5
227
100
AcDbEntity
  8
0
100
AcDbBlockReference
 62
7
  6
CONTINUOUS
  2
_FILLED
 10
33.65
 20
33.5
 41
3.0
 42
3.0
 43
3.0
  0
ENDBLK
  5
228
100
AcDbEntity
  8
0
  6
BYBLOCK
 62
0
100
AcDbBlockEnd
  0
BLOCK
  5
229
100
AcDbEntity
  8
0
100
AcDbBlockBegin
 62
7
  6
CONTINUOUS
  2
*D1
 70
65
 10
0.0
 20
0.0
  3
*D1
  1

  0
LINE
  5
22A
100
AcDbEntity
  8
0
100
AcDbLine
 62
7
  6
CONTINUOUS
 10
26.6748574782
 20
23.5
 11
45.15
 21
23.5
  0
LINE
  5
22B
100
AcDbEntity
  8
0
100
AcDbLine
 62
7
  6
CONTINUOUS
 10
26.6748574782
 20
-23.5
 11
45.15
 21
-23.5
  0
LINE
  5
22C
100
AcDbEntity
  8
0
100
AcDbLine
 62
7
  6
CONTINUOUS
 10
43.65
 20
23.5
 11
43.65
 21
0.0
  0
LINE
  5
22D
100
AcDbEntity
  8
0
100
AcDbLine
 62
7
  6
CONTINUOUS
 10
43.65
 20
-23.5
 11
43.65
 21
0.0
  0
INSERT
  5
22E
100
AcDbEntity
  8
0
100
AcDbBlockReference
 62
7
  6
CONTINUOUS
  2
_FILLED
 10
43.65
 20
23.5
 41
3.0
 42
3.0
 43
3.0
 50
90.0
  0
INSERT
  5
22F
100
AcDbEntity
  8
0
100
AcDbBlockReference
 62
7
  6
CONTINUOUS
  2
_FILLED
 10
43.65
 20
-23.5
 41
3.0
 42
3.0
 43
3.0
 50
270.0
  0
ENDBLK
  5
230
100
AcDbEntity
  8
0
  6
BYBLOCK
 62
0
100
AcDbBlockEnd
  0
BLOCK
  5
231
100
AcDbEntity
  8
0
100
AcDbBlockBegin
 62
7
  6
CONTINUOUS
  2
*D2
 70
65
 10
0.0
 20
0.0
  3
*D2
  1

  0
LINE
  5
232
100
AcDbEntity
  8
0
100
AcDbLine
 62
7
  6
CONTINUOUS
 10
-89.6750280085
 20
22.3997711479
 11
-89.6750280085
 21
35.0
  0
LINE
  5
233
100
AcDbEntity
  8
0
100
AcDbLine
 62
7
  6
CONTINUOUS
 10
-63.6750280085
 20
15.1104922689
 11
-63.6750280085
 21
35.0
  0
LINE
  5
234
100
AcDbEntity
  8
0
100
AcDbLine
 62
7
  6
CONTINUOUS
 10
-89.6750280085
 20
33.5
 11
-76.6750280085
 21
33.5
  0
LINE
  5
235
100
AcDbEntity
  8
0
100
AcDbLine
 62
7
  6
CONTINUOUS
 10
-63.6750280085
 20
33.5
 11
-76.6750280085
 21
33.5
  0
INSERT
  5
236
100
AcDbEntity
  8
0
100
AcDbBlockReference
 62
7
  6
CONTINUOUS
  2
_FILLED
 10
-89.6750280085
 20
33.5
 41
3.0
 42
3.0
 43
3.0
 50
180.0
  0
INSERT
  5
237
100
AcDbEntity
  8
0
100
AcDbBlockReference
 62
7
  6
CONTINUOUS
  2
_FILLED
 10
-63.6750280085
 20
33.5
 41
3.0
 42
3.0
 43
3.0
  0
ENDBLK
  5
238
100
AcDbEntity
  8
0
  6
BYBLOCK
 62
0
100
AcDbBlockEnd
  0
BLOCK
  5
239
100
AcDbEntity
  8
0
100
AcDbBlockBegin
 62
7
  6
CONTINUOUS
  2
*D3
 70
65
 10
0.0
 20
0.0
  3
*D3
  1

  0
LINE
  5
23A
100
AcDbEntity
  8
0
100
AcDbLine
 62
7
  6
CONTINUOUS
 10
-63.6750280085
 20
15.1104922689
 11
-63.6750280085
 21
43.0
  0
LINE
  5
23B
100
AcDbEntity
  8
0
100
AcDbLine
 62
7
  6
CONTINUOUS
 10
-99.1750280085
 20
0.5
 11
-99.1750280085
 21
43.0
  0
LINE
  5
23C
100
AcDbEntity
  8
0
100
AcDbLine
 62
7
  6
CONTINUOUS
 10
-63.6750280085
 20
41.5
 11
-81.4250280085
 21
41.5
  0
LINE
  5
23D
100
AcDbEntity
  8
0
100
AcDbLine
 62
7
  6
CONTINUOUS
 10
-99.1750280085
 20
41.5
 11
-81.4250280085
 21
41.5
  0
INSERT
  5
23E
100
AcDbEntity
  8
0
100
AcDbBlockReference
 62
7
  6
CONTINUOUS
  2
_FILLED
 10
-63.6750280085
 20
41.5
 41
3.0
 42
3.0
 43
3.0
  0
INSERT
  5
23F
100
AcDbEntity
  8
0
100
AcDbBlockReference
 62
7
  6
CONTINUOUS
  2
_FILLED
 10
-99.1750280085
 20
41.5
 41
3.0
 42
3.0
 43
3.0
 50
180.0
  0
ENDBLK
  5
240
100
AcDbEntity
  8
0
  6
BYBLOCK
 62
0
100
AcDbBlockEnd
  0
ENDSEC
  0
SECTION
  2
ENTITIES
  0
DIMENSION
  5
241
100
AcDbEntity
  8
0
100
AcDbDimension
 62
7
  6
CONTINUOUS
  2
*D0
 10
33.65
 20
33.5
 11
-4.2857142857
 21
33.5
 70
160
 71
2
 72
2
 41
0.9
 42
67.3
  3
DIMSTYLE_1
100
AcDbAlignedDimension
 13
-33.65
 23
21.8997711479
 14
33.65
 24
21.8997711479
100
AcDbRotatedDimension
  0
DIMENSION
  5
242
100
AcDbEntity
  8
0
100
AcDbDimension
 62
7
  6
CONTINUOUS
  2
*D1
 10
43.65
 20
-23.5
 11
43.65
 21
-2.3571428571
 70
160
 71
2
 72
2
 41
0.9
 42
47.0
  3
DIMSTYLE_1
100
AcDbAlignedDimension
 13
26.1748574782
 23
23.5
 14
26.1748574782
 24
-23.5
 50
270.0
100
AcDbRotatedDimension
  0
DIMENSION
  5
243
100
AcDbEntity
  8
0
100
AcDbDimension
 62
7
  6
CONTINUOUS
  2
*D2
 10
-63.6750280085
 20
33.5
 11
-79.0321708657
 21
33.5
 70
160
 71
2
 72
2
 41
0.9
 42
26.0
  3
DIMSTYLE_1
100
AcDbAlignedDimension
 13
-89.6750280085
 23
21.8997711479
 14
-63.6750280085
 24
14.6104922689
100
AcDbRotatedDimension
  0
DIMENSION
  5
244
100
AcDbEntity
  8
0
100
AcDbDimension
 62
7
  6
CONTINUOUS
  2
*D3
 10
-99.1750280085
 20
41.5
 11
-85.49645658
 21
41.5
 70
160
 71
2
 72
2
 41
0.9
 42
35.5
  3
DIMSTYLE_1
100
AcDbAlignedDimension
 13
-63.6750280085
 23
14.6104922689
 14
-99.1750280085
 24
0.0
 50
180.0
100
AcDbRotatedDimension
  0
LWPOLYLINE
  5
245
100
AcDbEntity
  8
0
100
AcDbPolyline
 62
250
  6
CONTINUOUS
 90
13
 70
0
 10
-33.5087219643
 20
-21.4755923698
 10
-33.5043909286
 20
-21.5407247312
 10
-33.4915907689
 20
-21.6047447827
 10
-33.4705399464
 20
-21.6665584383
 10
-33.4415979197
 20
-21.7251092828
 10
-33.4052590504
 20
-21.7793965485
 10
-33.3621441964
 20
-21.8284922444
 10
-33.3129899925
 20
-21.8715571619
 10
-33.2586363742
 20
-21.9078550768
 10
-33.2000123347
 20
-21.9367653406
 10
-33.1381198158
 20
-21.9577936639
 10
-33.0740165426
 20
-21.970580504
 10
-33.0087981166
 20
-21.974907137
  0
LWPOLYLINE
  5
246
100
AcDbEntity
  8
0
100
AcDbPolyline
 62
250
  6
CONTINUOUS
 90
7
 70
0
 10
-33.503952428
 20
21.3766964379
 10
-33.5046643609
 20
21.4040784891
 10
-33.5054267115
 20
21.4276016085
 10
-33.5062159955
 20
21.4465828508
 10
-33.507024385
 20
21.4607945676
 10
-33.5078597079
 20
21.4704644072
 10
-33.5087219643
 20
21.4755923698
  0
LWPOLYLINE
  5
247
100
AcDbEntity
  8
0
100
AcDbPolyline
 62
250
  6
CONTINUOUS
 90
5
 70
0
 10
-33.0054926649
 20
21.8784024384
 10
-33.0062814112
 20
21.91643799
 10
-33.0070916269
 20
21.9453735414
 10
-33.0079305287
 20
21.9649270253
 10
-33.0087981167
 20
21.9749071372
  0
LINE
  5
248
100
AcDbEntity
  8
0
100
AcDbLine
 62
250
  6
CONTINUOUS
 10
-33.5026838775
 20
21.3101421375
 11
-33.503952428
 21
21.3766964379
  0
LINE
  5
249
100
AcDbEntity
  8
0
100
AcDbLine
 62
250
  6
CONTINUOUS
 10
-33.0040228811
 20
21.7765959617
 11
-33.0054926649
 21
21.8784024384
  0
LINE
  5
24A
100
AcDbEntity
  8
0
100
AcDbLine
 62
250
  6
CONTINUOUS
 10
-33.5016710765
 20
21.2310675104
 11
-33.5026838775
 21
21.3101421375
  0
LINE
  5
24B
100
AcDbEntity
  8
0
100
AcDbLine
 62
250
  6
CONTINUOUS
 10
-33.0022173792
 20
21.567531307
 11
-33.0040228811
 21
21.7765959617
  0
LINE
  5
24C
100
AcDbEntity
  8
0
100
AcDbLine
 62
250
  6
CONTINUOUS
 10
-33.5007022138
 20
21.0951768256
 11
-33.5016710765
 21
21.2310675104
  0
LINE
  5
24D
100
AcDbEntity
  8
0
100
AcDbLine
 62
250
  6
CONTINUOUS
 10
-33.0006173379
 20
21.1163128736
 11
-33.0022173792
 21
21.567531307
  0
LINE
  5
24E
100
AcDbEntity
  8
TRASH
100
AcDbLine
 62
7
  6
CONTINUOUS
 10
-33.65
 20
16.1196592265
 11
-33.65
 21
-16.1196592265
  0
LINE
  5
24F
100
AcDbEntity
  8
0
100
AcDbLine
 62
7
  6
CONTINUOUS
 10
-33.65
 20
-21.8997711479
 11
-33.65
 21
21.8997711479
  0
LWPOLYLINE
  5
250
100
AcDbEntity
  8
0
100
AcDbPolyline
 62
250
  6
CONTINUOUS
 90
9
 70
0
 10
-33.4974142989
 20
-16.3324771154
 10
-33.49513084
 20
-11.6670364005
 10
-33.4936085333
 20
-7.0009737718
 10
-33.4928473781
 20
-2.3338756638
 10
-33.4928473752
 20
2.3338443579
 10
-33.4936085267
 20
7.0009455965
 10
-33.4951308334
 20
11.6670144863
 10
-33.4974142946
 20
16.3324645931
 10
-33.5007022138
 20
21.0951768256
  0
LWPOLYLINE
  5
251
100
AcDbEntity
  8
0
100
AcDbPolyline
 62
250
  6
CONTINUOUS
 90
9
 70
0
 10
-32.997490446
 20
-16.349481053
 10
-32.9952069837
 20
-11.6792204116
 10
-32.9936846755
 20
-7.0079400855
 10
-32.9929235215
 20
-2.3360479917
 10
-32.9929235217
 20
2.3360479976
 10
-32.9936846759
 20
7.0079400907
 10
-32.9952069841
 20
11.6792204157
 10
-32.9974904463
 20
16.3494810554
 10
-33.0006173379
 20
21.1163128736
  0
LINE
  5
252
100
AcDbEntity
  8
0
100
AcDbLine
 62
250
  6
CONTINUOUS
 10
-33.5007022138
 20
-21.0951768257
 11
-33.4974142989
 21
-16.3324771154
  0
LINE
  5
253
100
AcDbEntity
  8
0
100
AcDbLine
 62
250
  6
CONTINUOUS
 10
-33.0017466938
 20
-21.4854326371
 11
-32.997490446
 21
-16.349481053
  0
LINE
  5
254
100
AcDbEntity
  8
0
100
AcDbLine
 62
250
  6
CONTINUOUS
 10
-33.0033649804
 20
-21.7138161431
 11
-33.0017466938
 21
-21.4854326371
  0
LINE
  5
255
100
AcDbEntity
  8
0
100
AcDbLine
 62
250
  6
CONTINUOUS
 10
-33.5016710765
 20
-21.2310675104
 11
-33.5007022138
 21
-21.0951768257
  0
LINE
  5
256
100
AcDbEntity
  8
0
100
AcDbLine
 62
250
  6
CONTINUOUS
 10
-33.5026838775
 20
-21.3101421375
 11
-33.5016710765
 21
-21.2310675104
  0
LWPOLYLINE
  5
257
100
AcDbEntity
  8
0
100
AcDbPolyline
 62
250
  6
CONTINUOUS
 90
13
 70
0
 10
-33.5087219643
 20
21.4755923698
 10
-33.5043904448
 20
21.5407283714
 10
-33.4915890479
 20
21.6047511717
 10
-33.4705365548
 20
21.6665665948
 10
-33.4415927612
 20
21.7251181896
 10
-33.4052523286
 20
21.7794052851
 10
-33.3621363298
 20
21.8285000926
 10
-33.312981635
 20
21.8715635615
 10
-33.2586283182
 20
21.9078597194
 10
-33.2000053001
 20
21.9367682499
 10
-33.1381144721
 20
21.9577950942
 10
-33.074013574
 20
21.9705808949
 10
-33.0087981167
 20
21.9749071372
  0
LINE
  5
258
100
AcDbEntity
  8
0
100
AcDbLine
 62
7
  6
CONTINUOUS
 10
-25.8
 20
22.4
 11
-25.7333672024
 21
22.5
  0
LWPOLYLINE
  5
259
100
AcDbEntity
  8
TRASH
100
AcDbPolyline
 62
7
  6
CONTINUOUS
 90
10
 70
0
 10
-26.7275426698
 20
23.3333596575
 10
-26.6723250752
 20
23.3675185871
 10
-26.6152198987
 20
23.397868842
 10
-26.5562271403
 20
23.424410422
 10
-26.4948939811
 20
23.4472795393
 10
-26.4316732401
 20
23.4663399818
 10
-26.3679233736
 20
23.4811831128
 10
-26.3040972005
 20
23.4916727201
 10
-26.239741902
 20
23.4979450158
 10
-26.1748574782
 20
23.5
  0
LWPOLYLINE
  5
25A
100
AcDbEntity
  8
0
100
AcDbPolyline
 62
250
  6
CONTINUOUS
 90
12
 70
0
 10
-33.5004589098
 20
20.9972959167
 10
-33.4951489101
 20
21.0000093116
 10
-33.4815628804
 20
21.0026772986
 10
-33.4599281464
 20
21.0052552362
 10
-33.4306067074
 20
21.0076999898
 10
-33.3940891789
 20
21.0099706531
 10
-33.3509865837
 20
21.0120292323
 10
-33.302020128
 20
21.013841283
 10
-33.2480091339
 20
21.0153764848
 10
-33.1898573306
 20
21.0166091491
 10
-33.1285377322
 20
21.01751865
 10
-33.0650763576
 20
21.0180897694
  0
LWPOLYLINE
  5
25B
100
AcDbEntity
  8
0
100
AcDbPolyline
 62
250
  6
CONTINUOUS
 90
13
 70
0
 10
-33.5004589101
 20
-20.9972959167
 10
-33.4951508609
 20
-21.0000094853
 10
-33.4815663955
 20
-21.0026776479
 10
-33.4599328229
 20
-21.0052557581
 10
-33.4306121381
 20
-21.0077006763
 10
-33.3940949648
 20
-21.0099714916
 10
-33.3509923456
 20
-21.0120302064
 10
-33.3020255175
 20
-21.0138423724
 10
-33.2480138433
 20
-21.0153776663
 10
-33.1898611016
 20
-21.016610397
 10
-33.1285403633
 20
-21.0175199368
 10
-33.0650777097
 20
-21.0180910668
 10
-33.0005350625
 20
-21.0183142302
  0
LWPOLYLINE
  5
25C
100
AcDbEntity
  8
TRASH
100
AcDbPolyline
 62
7
  6
CONTINUOUS
 90
10
 70
0
 10
-26.7275426698
 20
-23.3333596575
 10
-26.6723250752
 20
-23.3675185871
 10
-26.6152198987
 20
-23.397868842
 10
-26.5562271403
 20
-23.424410422
 10
-26.4948939811
 20
-23.4472795393
 10
-26.4316732401
 20
-23.4663399818
 10
-26.3679233736
 20
-23.4811831128
 10
-26.3040972005
 20
-23.4916727201
 10
-26.239741902
 20
-23.4979450158
 10
-26.1748574782
 20
-23.5
  0
LINE
  5
25D
100
AcDbEntity
  8
0
100
AcDbLine
 62
7
  6
CONTINUOUS
 10
-25.7333672024
 20
-22.5
 11
-25.8
 21
-22.4
  0
LINE
  5
25E
100
AcDbEntity
  8
RACCORDO
100
AcDbLine
 62
250
  6
CONTINUOUS
 10
-30.9
 20
-3.0018010806
 11
-30.9
 21
3.0018010806
  0
LINE
  5
25F
100
AcDbEntity
  8
RACCORDO
100
AcDbLine
 62
7
  6
CONTINUOUS
 10
-30.6
 20
-2.7
 11
-30.6
 21
2.7
  0
LWPOLYLINE
  5
260
100
AcDbEntity
  8
0
100
AcDbPolyline
 62
250
  6
CONTINUOUS
 90
7
 70
0
 10
-33.0087981167
 20
-21.9749071372
 10
-33.0079305287
 20
-21.9649270253
 10
-33.0070916269
 20
-21.9453735414
 10
-33.0062814112
 20
-21.91643799
 10
-33.0054926649
 20
-21.8784024384
 10
-33.0047326047
 20
-21.8316369491
 10
-33.0033649804
 20
-21.7138161431
  0
LINE
  5
261
100
AcDbEntity
  8
TRASH
100
AcDbLine
 62
7
  6
CONTINUOUS
 10
-25.8633443637
 20
22.5
 11
-25.8848722771
 21
22.4
  0
LINE
  5
262
100
AcDbEntity
  8
TRASH
100
AcDbLine
 62
7
  6
CONTINUOUS
 10
-25.8633443637
 20
-22.5
 11
-25.8848722771
 21
-22.4
  0
LINE
  5
263
100
AcDbEntity
  8
RACCORDO
100
AcDbLine
 62
250
  6
CONTINUOUS
 10
-27.9
 20
3.0018010806
 11
-27.9000000051
 21
2.7
  0
LINE
  5
264
100
AcDbEntity
  8
RACCORDO
100
AcDbLine
 62
250
  6
CONTINUOUS
 10
-27.9
 20
-3.0018010806
 11
-27.9
 21
-2.7
  0
LWPOLYLINE
  5
265
100
AcDbEntity
  8
0
100
AcDbPolyline
 62
250
  6
CONTINUOUS
 90
8
 70
0
 10
-33.5087219643
 20
-21.4755923698
 10
-33.5078597079
 20
-21.4704644071
 10
-33.507024385
 20
-21.4607945673
 10
-33.5062159955
 20
-21.4465828505
 10
-33.5054267115
 20
-21.4276016083
 10
-33.5046643609
 20
-21.4040784891
 10
-33.503952428
 20
-21.3766964381
 10
-33.5026838775
 20
-21.3101421375
  0
LWPOLYLINE
  5
266
100
AcDbEntity
  8
0
100
AcDbPolyline
 62
7
  6
CONTINUOUS
 90
10
 70
0
 43
0.3500000006
 10
-3.2142856836
 20
37.2500019836
 10
-3.8571428204
 20
36.6071439972
 10
-4.2857143393
 20
35.7500015259
 10
-4.2857143393
 20
34.6785700378
 10
-3.8571428204
 20
34.2500010681
 10
-3.2142856836
 20
34.2500010681
 10
-2.7857141647
 20
34.6785700378
 10
-2.7857141647
 20
35.5357125092
 10
-3.2142856836
 20
35.9642860107
 10
-4.1428570719
 20
35.9642860107
  0
LWPOLYLINE
  5
267
100
AcDbEntity
  8
0
100
AcDbPolyline
 62
7
  6
CONTINUOUS
 90
5
 70
0
 43
0.3500000006
 10
3.0000000658
 20
35.9642860107
 10
3.357142951
 20
36.1785704956
 10
3.357142951
 20
36.8214284821
 10
3.0000000658
 20
37.2500019836
 10
2.1428571696
 20
37.2500019836
  0
LINE
  5
268
100
AcDbEntity
  8
TRASH
100
AcDbLine
 62
7
  6
CONTINUOUS
 10
-25.9698202597
 20
-22.4
 11
-25.9698202597
 21
-22.5
  0
LINE
  5
269
100
AcDbEntity
  8
TRASH
100
AcDbLine
 62
7
  6
CONTINUOUS
 10
-25.9698202597
 20
22.4
 11
-25.9698202597
 21
22.5
  0
LINE
  5
26A
100
AcDbEntity
  8
0
100
AcDbLine
 62
250
  6
CONTINUOUS
 10
-33.65
 20
-21.8997711479
 11
-33.5087219643
 21
-21.4755923698
  0
LINE
  5
26B
100
AcDbEntity
  8
0
100
AcDbLine
 62
250
  6
CONTINUOUS
 10
-33.1503805997
 20
-22.4
 11
-33.0087981167
 21
-21.9749071372
  0
LWPOLYLINE
  5
26C
100
AcDbEntity
  8
TRASH
100
AcDbPolyline
 62
7
  6
CONTINUOUS
 90
10
 70
0
 10
26.1748574782
 20
-23.5
 10
26.239741902
 20
-23.4979450158
 10
26.3040972005
 20
-23.4916727201
 10
26.3679233736
 20
-23.4811831128
 10
26.4316732401
 20
-23.4663399818
 10
26.4948939811
 20
-23.4472795393
 10
26.5562271403
 20
-23.424410422
 10
26.6152198987
 20
-23.397868842
 10
26.6723250752
 20
-23.3675185871
 10
26.7275426698
 20
-23.3333596575
  0
LINE
  5
26D
100
AcDbEntity
  8
0
100
AcDbLine
 62
250
  6
CONTINUOUS
 10
-33.5087219643
 20
21.4755923698
 11
-33.65
 21
21.8997711479
  0
LINE
  5
26E
100
AcDbEntity
  8
0
100
AcDbLine
 62
250
  6
CONTINUOUS
 10
-33.0087981167
 20
21.9749071372
 11
-33.1503805997
 21
22.4
  0
LINE
  5
26F
100
AcDbEntity
  8
TRASH
100
AcDbLine
 62
7
  6
CONTINUOUS
 10
-19.0633443637
 20
22.5
 11
-19.0848722771
 21
22.4
  0
LWPOLYLINE
  5
270
100
AcDbEntity
  8
0
100
AcDbPolyline
 62
250
  6
CONTINUOUS
 90
13
 70
0
 10
33.0087981167
 20
-21.9749071372
 10
33.0740160216
 20
-21.9705805728
 10
33.1381188775
 20
-21.9577939153
 10
33.200011099
 20
-21.9367658519
 10
33.2586349582
 20
-21.9078558933
 10
33.3129885225
 20
-21.8715582881
 10
33.362142812
 20
-21.8284936262
 10
33.4052578669
 20
-21.7793980875
 10
33.4415970109
 20
-21.7251108527
 10
33.4705393487
 20
-21.6665598766
 10
33.4915904656
 20
-21.6047459097
 10
33.5043908434
 20
-21.5407253734
 10
33.5087219643
 20
-21.4755923698
  0
LWPOLYLINE
  5
271
100
AcDbEntity
  8
TRASH
100
AcDbPolyline
 62
7
  6
CONTINUOUS
 90
10
 70
0
 10
-18.8251425218
 20
-23.5
 10
-18.760258098
 20
-23.4979450158
 10
-18.6959027995
 20
-23.4916727201
 10
-18.6320766264
 20
-23.4811831128
 10
-18.5683267599
 20
-23.4663399818
 10
-18.5051060189
 20
-23.4472795393
 10
-18.4437728597
 20
-23.424410422
 10
-18.3847801013
 20
-23.397868842
 10
-18.3276749248
 20
-23.3675185871
 10
-18.2724573302
 20
-23.3333596575
  0
LINE
  5
272
100
AcDbEntity
  8
TRASH
100
AcDbLine
 62
7
  6
CONTINUOUS
 10
26.1748574782
 20
-23.5
 11
18.8251425218
 21
-23.5
  0
LINE
  5
273
100
AcDbEntity
  8
TRASH
100
AcDbLine
 62
7
  6
CONTINUOUS
 10
-18.8251425218
 20
-23.5
 11
-26.1748574782
 21
-23.5
  0
LINE
  5
274
100
AcDbEntity
  8
TRASH
100
AcDbLine
 62
7
  6
CONTINUOUS
 10
-25.9698202597
 20
-22.5
 11
-19.0301797403
 21
-22.5
  0
LINE
  5
275
100
AcDbEntity
  8
TRASH
100
AcDbLine
 62
7
  6
CONTINUOUS
 10
19.0301797403
 20
-22.5
 11
25.9698202597
 21
-22.5
  0
LINE
  5
276
100
AcDbEntity
  8
0
100
AcDbLine
 62
7
  6
CONTINUOUS
 10
33.1503805997
 20
-22.4
 11
25.8
 21
-22.4
  0
LINE
  5
277
100
AcDbEntity
  8
0
100
AcDbLine
 62
7
  6
CONTINUOUS
 10
19.2
 20
-22.4
 11
-19.2
 21
-22.4
  0
LINE
  5
278
100
AcDbEntity
  8
0
100
AcDbLine
 62
7
  6
CONTINUOUS
 10
-25.8
 20
-22.4
 11
-33.1503805997
 21
-22.4
  0
LINE
  5
279
100
AcDbEntity
  8
0
100
AcDbLine
 62
250
  6
CONTINUOUS
 10
33.0087981167
 20
-21.9749071372
 11
-33.0087981167
 21
-21.9749071372
  0
LINE
  5
27A
100
AcDbEntity
  8
TRASH
100
AcDbLine
 62
7
  6
CONTINUOUS
 10
-19.0633443637
 20
-22.5
 11
-19.0848722771
 21
-22.4
  0
LINE
  5
27B
100
AcDbEntity
  8
RACCORDO
100
AcDbLine
 62
250
  6
CONTINUOUS
 10
-20.65
 20
4.9529717831
 11
-20.65
 21
7.7546527917
  0
LINE
  5
27C
100
AcDbEntity
  8
RACCORDO
100
AcDbLine
 62
7
  6
CONTINUOUS
 10
-20.35
 20
5.25
 11
-20.35
 21
7.45
  0
LINE
  5
27D
100
AcDbEntity
  8
RACCORDO
100
AcDbLine
 62
7
  6
CONTINUOUS
 10
-19.9789007897
 20
7.45
 11
-19.9789007897
 21
5.25
  0
LINE
  5
27E
100
AcDbEntity
  8
DRAFT
100
AcDbLine
 62
7
  6
CONTINUOUS
 10
-19.8785418101
 20
6.9785418101
 11
-19.8785418101
 21
7.45
  0
LINE
  5
27F
100
AcDbEntity
  8
DRAFT
100
AcDbLine
 62
7
  6
CONTINUOUS
 10
-19.8
 20
6.9
 11
-19.8
 21
5.25
  0
LINE
  5
280
100
AcDbEntity
  8
RACCORDO
100
AcDbLine
 62
250
  6
CONTINUOUS
 10
-19.8
 20
-7.7546527917
 11
-19.8
 21
-4.9529717831
  0
LINE
  5
281
100
AcDbEntity
  8
0
100
AcDbLine
 62
7
  6
CONTINUOUS
 10
-19.7
 20
7.45
 11
-19.7
 21
7.1959140019
  0
LINE
  5
282
100
AcDbEntity
  8
0
100
AcDbLine
 62
7
  6
CONTINUOUS
 10
-19.7
 20
7.1959140019
 11
-19.7
 21
5.5990859981
  0
LINE
  5
283
100
AcDbEntity
  8
0
100
AcDbLine
 62
7
  6
CONTINUOUS
 10
-19.7
 20
5.25
 11
-19.7
 21
5.5990859981
  0
LINE
  5
284
100
AcDbEntity
  8
RACCORDO
100
AcDbLine
 62
7
  6
CONTINUOUS
 10
-19.5
 20
-7.45
 11
-19.5
 21
-5.25
  0
LINE
  5
285
100
AcDbEntity
  8
TRASH
100
AcDbLine
 62
7
  6
CONTINUOUS
 10
-19.0301797403
 20
22.5
 11
-19.0301797403
 21
22.4
  0
LINE
  5
286
100
AcDbEntity
  8
TRASH
100
AcDbLine
 62
7
  6
CONTINUOUS
 10
-19.0301797403
 20
-22.5
 11
-19.0301797403
 21
-22.4
  0
LINE
  5
287
100
AcDbEntity
  8
TRASH
100
AcDbLine
 62
7
  6
CONTINUOUS
 10
-25.9366556363
 20
-22.5
 11
-25.9151277229
 21
-22.4
  0
LINE
  5
288
100
AcDbEntity
  8
0
100
AcDbLine
 62
7
  6
CONTINUOUS
 10
-19.7
 20
7.1959140019
 11
-19.4925396513
 21
7.45
  0
LWPOLYLINE
  5
289
100
AcDbEntity
  8
RACCORDO
100
AcDbPolyline
 62
7
  6
CONTINUOUS
 90
10
 70
0
 10
-30.7692461704
 20
-2.870982715
 10
-30.7196498947
 20
-2.8210057823
 10
-30.6961880869
 20
-2.7977071833
 10
-30.6745904721
 20
-2.7757380991
 10
-30.6546602708
 20
-2.7556465964
 10
-30.6365942624
 20
-2.7378499479
 10
-30.6219404326
 20
-2.7225897743
 10
-30.6112147765
 20
-2.7105854684
 10
-30.603901299
 20
-2.7027804926
 10
-30.6
 20
-2.7
  0
LWPOLYLINE
  5
28A
100
AcDbEntity
  8
RACCORDO
100
AcDbPolyline
 62
7
  6
CONTINUOUS
 90
6
 70
0
 10
-30.9
 20
-3.0018010806
 10
-30.8737784879
 20
-2.9759805721
 10
-30.8476467972
 20
-2.9497464057
 10
-30.8216049278
 20
-2.9233220913
 10
-30.7953806384
 20
-2.8969873781
 10
-30.7692461704
 20
-2.870982715
  0
LWPOLYLINE
  5
28B
100
AcDbEntity
  8
0
100
AcDbPolyline
 62
250
  6
CONTINUOUS
 90
12
 70
0
 10
33.0650777105
 20
-21.0180910647
 10
33.1285403649
 20
-21.0175199331
 10
33.1898611038
 20
-21.0166103924
 10
33.248013846
 20
-21.0153776619
 10
33.3020255204
 20
-21.013842369
 10
33.3509923486
 20
-21.012030204
 10
33.3940949677
 20
-21.0099714899
 10
33.4306121407
 20
-21.0077006753
 10
33.4599328251
 20
-21.0052557576
 10
33.4815663971
 20
-21.0026776477
 10
33.4951508618
 20
-21.0000094853
 10
33.5004589101
 20
-20.9972959167
  0
LINE
  5
28C
100
AcDbEntity
  8
0
100
AcDbLine
 62
250
  6
CONTINUOUS
 10
33.0650777105
 20
-21.0180910647
 11
-33.0005350625
 21
-21.0183142309
  0
LWPOLYLINE
  5
28D
100
AcDbEntity
  8
RACCORDO
100
AcDbPolyline
 62
7
  6
CONTINUOUS
 90
7
 70
0
 10
-30.9
 20
3.0018010806
 10
-30.8737784879
 20
2.9759805721
 10
-30.8476467972
 20
2.9497464057
 10
-30.8216049278
 20
2.9233220913
 10
-30.7953806384
 20
2.8969873781
 10
-30.7692461704
 20
2.870982715
 10
-30.7196498947
 20
2.8210057823
  0
LWPOLYLINE
  5
28E
100
AcDbEntity
  8
RACCORDO
100
AcDbPolyline
 62
7
  6
CONTINUOUS
 90
9
 70
0
 10
-30.7196498947
 20
2.8210057823
 10
-30.6961880869
 20
2.7977071833
 10
-30.6745904721
 20
2.7757380991
 10
-30.6546602708
 20
2.7556465964
 10
-30.6365942624
 20
2.7378499479
 10
-30.6219404326
 20
2.7225897743
 10
-30.6112147765
 20
2.7105854684
 10
-30.603901299
 20
2.7027804926
 10
-30.6
 20
2.7
  0
LINE
  5
28F
100
AcDbEntity
  8
0
100
AcDbLine
 62
7
  6
CONTINUOUS
 10
-19.2925396513
 20
-7.45
 11
-19.5
 21
-7.1959140019
  0
LINE
  5
290
100
AcDbEntity
  8
TRASH
100
AcDbLine
 62
7
  6
CONTINUOUS
 10
-25.9366556363
 20
22.5
 11
-25.9151277229
 21
22.4
  0
LWPOLYLINE
  5
291
100
AcDbEntity
  8
RACCORDO
100
AcDbPolyline
 62
7
  6
CONTINUOUS
 90
10
 70
0
 10
-20.5197959717
 20
5.0827639916
 10
-20.4703158992
 20
5.1321416398
 10
-20.4468863558
 20
5.1551044706
 10
-20.4252976328
 20
5.1767045077
 10
-20.4053605215
 20
5.1964542742
 10
-20.3872642307
 20
5.2138751901
 10
-20.3725280993
 20
5.2286190336
 10
-20.3616585735
 20
5.2400495117
 10
-20.3541492071
 20
5.2474032714
 10
-20.35
 20
5.25
  0
LWPOLYLINE
  5
292
100
AcDbEntity
  8
RACCORDO
100
AcDbPolyline
 62
7
  6
CONTINUOUS
 90
6
 70
0
 10
-20.65
 20
4.9529717831
 10
-20.6239147377
 20
4.9786423991
 10
-20.5979058837
 20
5.0046976159
 10
-20.571973438
 20
5.0309147931
 10
-20.5458465007
 20
5.0570172726
 10
-20.5197959717
 20
5.0827639916
  0
LWPOLYLINE
  5
293
100
AcDbEntity
  8
RACCORDO
100
AcDbPolyline
 62
7
  6
CONTINUOUS
 90
9
 70
0
 10
-19.6202250248
 20
-5.1322245156
 10
-19.5969363595
 20
-5.1550500147
 10
-19.5754537249
 20
-5.1765501791
 10
-19.5555688281
 20
-5.1962327208
 10
-19.5374899619
 20
-5.2136260394
 10
-19.5227412351
 20
-5.2284111511
 10
-19.511830684
 20
-5.2399288369
 10
-19.5042502723
 20
-5.2473657725
 10
-19.5
 20
-5.25
  0
LWPOLYLINE
  5
294
100
AcDbEntity
  8
RACCORDO
100
AcDbPolyline
 62
7
  6
CONTINUOUS
 90
7
 70
0
 10
-19.8
 20
-4.9529717831
 10
-19.7737024211
 20
-4.978858219
 10
-19.7475519064
 20
-5.0050550803
 10
-19.721548456
 20
-5.0313387305
 10
-19.6954388245
 20
-5.0574232293
 10
-19.6694762572
 20
-5.0830857847
 10
-19.6202250248
 20
-5.1322245156
  0
LINE
  5
295
100
AcDbEntity
  8
TRASH
100
AcDbLine
 62
7
  6
CONTINUOUS
 10
-19.1366556363
 20
-22.5
 11
-19.1151277229
 21
-22.4
  0
LWPOLYLINE
  5
296
100
AcDbEntity
  8
RACCORDO
100
AcDbPolyline
 62
7
  6
CONTINUOUS
 90
7
 70
0
 10
-11.5542607038
 20
7.5493670167
 10
-11.5958817918
 20
7.5067799549
 10
-11.6139383434
 20
7.4887411256
 10
-11.6285345565
 20
7.47319503
 10
-11.6391500429
 20
7.4608969239
 10
-11.6463051907
 20
7.4528691918
 10
-11.65
 20
7.45
  0
LWPOLYLINE
  5
297
100
AcDbEntity
  8
RACCORDO
100
AcDbPolyline
 62
7
  6
CONTINUOUS
 90
3
 70
0
 10
-11.4808945409
 20
7.6234245202
 10
-11.5306961674
 20
7.5729485309
 10
-11.5542607038
 20
7.5493670167
  0
LINE
  5
298
100
AcDbEntity
  8
RACCORDO
100
AcDbLine
 62
7
  6
CONTINUOUS
 10
-11.4283643869
 20
7.676113493
 11
-11.4808945409
 21
7.6234245202
  0
LWPOLYLINE
  5
299
100
AcDbEntity
  8
RACCORDO
100
AcDbPolyline
 62
7
  6
CONTINUOUS
 90
4
 70
0
 10
-11.35
 20
7.7546527917
 10
-11.3761774358
 20
7.7288735484
 10
-11.4022988981
 20
7.7026193956
 10
-11.4283643869
 20
7.676113493
  0
LWPOLYLINE
  5
29A
100
AcDbEntity
  8
RACCORDO
100
AcDbPolyline
 62
7
  6
CONTINUOUS
 90
5
 70
0
 10
-12.2
 20
-7.7546527917
 10
-12.2261774358
 20
-7.7288735484
 10
-12.2522988981
 20
-7.7026193956
 10
-12.2783643869
 20
-7.676113493
 10
-12.3308945409
 20
-7.6234245202
  0
LWPOLYLINE
  5
29B
100
AcDbEntity
  8
RACCORDO
100
AcDbPolyline
 62
7
  6
CONTINUOUS
 90
6
 70
0
 10
-12.4458817918
 20
-7.5067799549
 10
-12.4639383434
 20
-7.4887411256
 10
-12.4785345565
 20
-7.47319503
 10
-12.4891500429
 20
-7.4608969239
 10
-12.4963051907
 20
-7.4528691918
 10
-12.5
 20
-7.45
  0
LWPOLYLINE
  5
29C
100
AcDbEntity
  8
RACCORDO
100
AcDbPolyline
 62
7
  6
CONTINUOUS
 90
3
 70
0
 10
-12.3806961674
 20
-7.5729485309
 10
-12.4042607038
 20
-7.5493670167
 10
-12.4458817918
 20
-7.5067799549
  0
LINE
  5
29D
100
AcDbEntity
  8
RACCORDO
100
AcDbLine
 62
7
  6
CONTINUOUS
 10
-12.3308945409
 20
-7.6234245202
 11
-12.3806961674
 21
-7.5729485309
  0
LINE
  5
29E
100
AcDbEntity
  8
TRASH
100
AcDbLine
 62
7
  6
CONTINUOUS
 10
-19.1366556363
 20
22.5
 11
-19.1151277229
 21
22.4
  0
LINE
  5
29F
100
AcDbEntity
  8
0
100
AcDbLine
 62
250
  6
CONTINUOUS
 10
-12.7
 20
5.25
 11
-12.7
 21
6.3725
  0
LINE
  5
2A0
100
AcDbEntity
  8
0
100
AcDbLine
 62
250
  6
CONTINUOUS
 10
-12.7
 20
6.4225
 11
-12.7
 21
7.45
  0
LINE
  5
2A1
100
AcDbEntity
  8
RACCORDO
100
AcDbLine
 62
7
  6
CONTINUOUS
 10
-12.5
 20
-5.25
 11
-12.5
 21
-7.45
  0
LINE
  5
2A2
100
AcDbEntity
  8
RACCORDO
100
AcDbLine
 62
250
  6
CONTINUOUS
 10
-12.2
 20
-4.9529717831
 11
-12.2
 21
-7.7546527917
  0
LINE
  5
2A3
100
AcDbEntity
  8
RACCORDO
100
AcDbLine
 62
7
  6
CONTINUOUS
 10
-11.65
 20
7.45
 11
-11.65
 21
5.25
  0
LINE
  5
2A4
100
AcDbEntity
  8
RACCORDO
100
AcDbLine
 62
250
  6
CONTINUOUS
 10
-11.35
 20
7.7546527917
 11
-11.35
 21
4.9529717831
  0
LINE
  5
2A5
100
AcDbEntity
  8
0
100
AcDbLine
 62
7
  6
CONTINUOUS
 10
-19.5
 20
-5.5990859981
 11
-19.2149724761
 21
-5.25
  0
LINE
  5
2A6
100
AcDbEntity
  8
0
100
AcDbLine
 62
7
  6
CONTINUOUS
 10
-19.4149724761
 20
5.25
 11
-19.7
 21
5.5990859981
  0
LWPOLYLINE
  5
2A7
100
AcDbEntity
  8
0
100
AcDbPolyline
 62
7
  6
CONTINUOUS
 90
3
 70
0
 43
0.3500000006
 10
1.1428571477
 20
34.535712204
 10
1.0714285848
 20
34.3214277191
 10
0.9285714591
 20
34.0357120514
  0
LWPOLYLINE
  5
2A8
100
AcDbEntity
  8
RACCORDO
100
AcDbPolyline
 62
7
  6
CONTINUOUS
 90
7
 70
0
 10
-19.5957392962
 20
-7.5493670167
 10
-19.5541182082
 20
-7.5067799549
 10
-19.5360616566
 20
-7.4887411256
 10
-19.5214654435
 20
-7.47319503
 10
-19.5108499571
 20
-7.4608969239
 10
-19.5036948093
 20
-7.4528691918
 10
-19.5
 20
-7.45
  0
LWPOLYLINE
  5
2A9
100
AcDbEntity
  8
RACCORDO
100
AcDbPolyline
 62
7
  6
CONTINUOUS
 90
3
 70
0
 10
-19.6691054591
 20
-7.6234245202
 10
-19.6193038326
 20
-7.5729485309
 10
-19.5957392962
 20
-7.5493670167
  0
LINE
  5
2AA
100
AcDbEntity
  8
RACCORDO
100
AcDbLine
 62
7
  6
CONTINUOUS
 10
-19.7216356131
 20
-7.676113493
 11
-19.6691054591
 21
-7.6234245202
  0
LWPOLYLINE
  5
2AB
100
AcDbEntity
  8
RACCORDO
100
AcDbPolyline
 62
7
  6
CONTINUOUS
 90
4
 70
0
 10
-19.8
 20
-7.7546527917
 10
-19.7738225642
 20
-7.7288735484
 10
-19.7477011019
 20
-7.7026193956
 10
-19.7216356131
 20
-7.676113493
  0
LWPOLYLINE
  5
2AC
100
AcDbEntity
  8
TRASH
100
AcDbPolyline
 62
7
  6
CONTINUOUS
 90
10
 70
0
 10
18.2724573302
 20
23.3333596575
 10
18.3276749248
 20
23.3675185871
 10
18.3847801013
 20
23.397868842
 10
18.4437728597
 20
23.424410422
 10
18.5051060189
 20
23.4472795393
 10
18.5683267599
 20
23.4663399818
 10
18.6320766264
 20
23.4811831128
 10
18.6959027995
 20
23.4916727201
 10
18.760258098
 20
23.4979450158
 10
18.8251425218
 20
23.5
  0
LWPOLYLINE
  5
2AD
100
AcDbEntity
  8
TRASH
100
AcDbPolyline
 62
7
  6
CONTINUOUS
 90
10
 70
0
 10
18.2724573302
 20
-23.3333596575
 10
18.3276749248
 20
-23.3675185871
 10
18.3847801013
 20
-23.397868842
 10
18.4437728597
 20
-23.424410422
 10
18.5051060189
 20
-23.4472795393
 10
18.5683267599
 20
-23.4663399818
 10
18.6320766264
 20
-23.4811831128
 10
18.6959027995
 20
-23.4916727201
 10
18.760258098
 20
-23.4979450158
 10
18.8251425218
 20
-23.5
  0
LWPOLYLINE
  5
2AE
100
AcDbEntity
  8
RACCORDO
100
AcDbPolyline
 62
7
  6
CONTINUOUS
 90
5
 70
0
 10
-20.65
 20
7.7546527917
 10
-20.6238225642
 20
7.7288735484
 10
-20.5977011019
 20
7.7026193956
 10
-20.5716356131
 20
7.676113493
 10
-20.5191054591
 20
7.6234245202
  0
LWPOLYLINE
  5
2AF
100
AcDbEntity
  8
RACCORDO
100
AcDbPolyline
 62
7
  6
CONTINUOUS
 90
6
 70
0
 10
-20.4041182082
 20
7.5067799549
 10
-20.3860616566
 20
7.4887411256
 10
-20.3714654435
 20
7.47319503
 10
-20.3608499571
 20
7.4608969239
 10
-20.3536948093
 20
7.4528691918
 10
-20.35
 20
7.45
  0
LINE
  5
2B0
100
AcDbEntity
  8
DRAFT
100
AcDbLine
 62
7
  6
CONTINUOUS
 10
-19.8
 20
6.9
 11
-19.8785418101
 21
6.9785418101
  0
LWPOLYLINE
  5
2B1
100
AcDbEntity
  8
RACCORDO
100
AcDbPolyline
 62
7
  6
CONTINUOUS
 90
3
 70
0
 10
-20.4693038326
 20
7.5729485309
 10
-20.4457392962
 20
7.5493670167
 10
-20.4041182082
 20
7.5067799549
  0
LINE
  5
2B2
100
AcDbEntity
  8
RACCORDO
100
AcDbLine
 62
7
  6
CONTINUOUS
 10
-20.5191054591
 20
7.6234245202
 11
-20.4693038326
 21
7.5729485309
  0
LINE
  5
2B3
100
AcDbEntity
  8
RACCORDO
100
AcDbLine
 62
250
  6
CONTINUOUS
 10
29.8
 20
-7.7546527917
 11
22.2
 21
-7.7546527917
  0
LINE
  5
2B4
100
AcDbEntity
  8
RACCORDO
100
AcDbLine
 62
250
  6
CONTINUOUS
 10
-12.2
 20
-7.7546527917
 11
-19.8
 21
-7.7546527917
  0
LINE
  5
2B5
100
AcDbEntity
  8
RACCORDO
100
AcDbLine
 62
7
  6
CONTINUOUS
 10
29.5
 20
-7.45
 11
22.5
 21
-7.45
  0
LINE
  5
2B6
100
AcDbEntity
  8
RACCORDO
100
AcDbLine
 62
7
  6
CONTINUOUS
 10
-12.5
 20
-7.45
 11
-19.5
 21
-7.45
  0
LINE
  5
2B7
100
AcDbEntity
  8
0
100
AcDbLine
 62
250
  6
CONTINUOUS
 10
29.5
 20
-6.7153932188
 11
22.5
 21
-6.7153932188
  0
LINE
  5
2B8
100
AcDbEntity
  8
0
100
AcDbLine
 62
250
  6
CONTINUOUS
 10
-19.5
 20
-6.7153932188
 11
-12.5
 21
-6.7153932188
  0
LINE
  5
2B9
100
AcDbEntity
  8
0
100
AcDbLine
 62
7
  6
CONTINUOUS
 10
-12.5
 20
-6.4225
 11
-19.5
 21
-6.4225
  0
LINE
  5
2BA
100
AcDbEntity
  8
0
100
AcDbLine
 62
7
  6
CONTINUOUS
 10
22.5
 20
-6.4225
 11
29.5
 21
-6.4225
  0
LINE
  5
2BB
100
AcDbEntity
  8
0
100
AcDbLine
 62
7
  6
CONTINUOUS
 10
-12.5
 20
-6.3725
 11
-19.5
 21
-6.3725
  0
LINE
  5
2BC
100
AcDbEntity
  8
0
100
AcDbLine
 62
7
  6
CONTINUOUS
 10
22.5
 20
-6.3725
 11
29.5
 21
-6.3725
  0
LINE
  5
2BD
100
AcDbEntity
  8
0
100
AcDbLine
 62
250
  6
CONTINUOUS
 10
29.5
 20
-6.0796067812
 11
22.5
 21
-6.0796067812
  0
LINE
  5
2BE
100
AcDbEntity
  8
0
100
AcDbLine
 62
250
  6
CONTINUOUS
 10
-19.5
 20
-6.0796067812
 11
-12.5
 21
-6.0796067812
  0
LINE
  5
2BF
100
AcDbEntity
  8
RACCORDO
100
AcDbLine
 62
7
  6
CONTINUOUS
 10
-19.5
 20
-5.25
 11
-12.5
 21
-5.25
  0
LINE
  5
2C0
100
AcDbEntity
  8
RACCORDO
100
AcDbLine
 62
7
  6
CONTINUOUS
 10
22.5
 20
-5.25
 11
29.5
 21
-5.25
  0
LINE
  5
2C1
100
AcDbEntity
  8
0
100
AcDbLine
 62
7
  6
CONTINUOUS
 10
-19.2
 20
-22.4
 11
-19.2666327976
 21
-22.5
  0
LWPOLYLINE
  5
2C2
100
AcDbEntity
  8
RACCORDO
100
AcDbPolyline
 62
7
  6
CONTINUOUS
 90
16
 70
0
 10
-12.2
 20
-4.9529717831
 10
-12.2262975789
 20
-4.978858219
 10
-12.2524480936
 20
-5.0050550803
 10
-12.278451544
 20
-5.0313387305
 10
-12.3045611755
 20
-5.0574232293
 10
-12.3305237428
 20
-5.0830857847
 10
-12.3555795099
 20
-5.1081524864
 10
-12.3797749752
 20
-5.1322245156
 10
-12.4030636405
 20
-5.1550500147
 10
-12.4245462751
 20
-5.1765501791
 10
-12.4444311719
 20
-5.1962327208
 10
-12.4625100381
 20
-5.2136260394
 10
-12.4772587649
 20
-5.2284111511
 10
-12.488169316
 20
-5.2399288369
 10
-12.4957497277
 20
-5.2473657725
 10
-12.5
 20
-5.25
  0
LINE
  5
2C3
100
AcDbEntity
  8
RACCORDO
100
AcDbLine
 62
250
  6
CONTINUOUS
 10
-19.8
 20
-4.9529717831
 11
-12.2
 21
-4.9529717831
  0
LINE
  5
2C4
100
AcDbEntity
  8
RACCORDO
100
AcDbLine
 62
250
  6
CONTINUOUS
 10
22.2
 20
-4.9529717831
 11
29.8
 21
-4.9529717831
  0
LINE
  5
2C5
100
AcDbEntity
  8
RACCORDO
100
AcDbLine
 62
250
  6
CONTINUOUS
 10
14.1
 20
-3.0018010806
 11
11.1
 21
-3.0018010806
  0
LINE
  5
2C6
100
AcDbEntity
  8
RACCORDO
100
AcDbLine
 62
250
  6
CONTINUOUS
 10
-27.9
 20
-3.0018010806
 11
-30.9
 21
-3.0018010806
  0
LINE
  5
2C7
100
AcDbEntity
  8
RACCORDO
100
AcDbLine
 62
7
  6
CONTINUOUS
 10
14.1
 20
-2.7
 11
11.4
 21
-2.7
  0
LINE
  5
2C8
100
AcDbEntity
  8
RACCORDO
100
AcDbLine
 62
7
  6
CONTINUOUS
 10
-27.9
 20
-2.7
 11
-30.6
 21
-2.7
  0
LWPOLYLINE
  5
2C9
100
AcDbEntity
  8
RACCORDO
100
AcDbPolyline
 62
7
  6
CONTINUOUS
 90
9
 70
0
 10
-11.5297749752
 20
5.1322245156
 10
-11.5530636405
 20
5.1550500147
 10
-11.5745462751
 20
5.1765501791
 10
-11.5944311719
 20
5.1962327208
 10
-11.6125100381
 20
5.2136260394
 10
-11.6272587649
 20
5.2284111511
 10
-11.638169316
 20
5.2399288369
 10
-11.6457497277
 20
5.2473657725
 10
-11.65
 20
5.25
  0
LWPOLYLINE
  5
2CA
100
AcDbEntity
  8
RACCORDO
100
AcDbPolyline
 62
7
  6
CONTINUOUS
 90
7
 70
0
 10
-11.35
 20
4.9529717831
 10
-11.3762975789
 20
4.978858219
 10
-11.4024480936
 20
5.0050550803
 10
-11.428451544
 20
5.0313387305
 10
-11.4545611755
 20
5.0574232293
 10
-11.4805237428
 20
5.0830857847
 10
-11.5297749752
 20
5.1322245156
  0
LINE
  5
2CB
100
AcDbEntity
  8
0
100
AcDbLine
 62
7
  6
CONTINUOUS
 10
-19.2666327976
 20
22.5
 11
-19.2
 21
22.4
  0
LWPOLYLINE
  5
2CC
100
AcDbEntity
  8
0
100
AcDbPolyline
 62
7
  6
CONTINUOUS
 90
4
 70
0
 43
0.3500000006
 10
-1.9285714102
 20
36.6071439972
 10
-1.9285714102
 20
37.2500019836
 10
-0.4285714127
 20
37.2500019836
 10
-1.2857142735
 20
34.2500010681
  0
LWPOLYLINE
  5
2CD
100
AcDbEntity
  8
0
100
AcDbPolyline
 62
7
  6
CONTINUOUS
 90
2
 70
0
 43
0.3500000006
 10
42.8999994965
 20
-1.3571429443
 10
41.3999990387
 20
-1.3571429443
  0
LINE
  5
2CE
100
AcDbEntity
  8
0
100
AcDbLine
 62
7
  6
CONTINUOUS
 10
-30.6
 20
-0.8325505063
 11
-25.3326973949
 21
-0.8325505063
  0
LINE
  5
2CF
100
AcDbEntity
  8
0
100
AcDbLine
 62
7
  6
CONTINUOUS
 10
16.6673026051
 20
-0.8325505063
 11
11.4
 21
-0.8325505063
  0
LINE
  5
2D0
100
AcDbEntity
  8
0
100
AcDbLine
 62
7
  6
CONTINUOUS
 10
-30.6
 20
-0.4082864376
 11
-25.2311680893
 21
-0.4082864376
  0
LINE
  5
2D1
100
AcDbEntity
  8
0
100
AcDbLine
 62
7
  6
CONTINUOUS
 10
16.7688319107
 20
-0.4082864376
 11
11.4
 21
-0.4082864376
  0
LWPOLYLINE
  5
2D2
100
AcDbEntity
  8
0
100
AcDbPolyline
 62
7
  6
CONTINUOUS
 90
4
 70
0
 43
0.3500000006
 10
40.5428565674
 20
-0.0000003204
 10
39.8999985809
 20
-0.0000003204
 10
39.8999985809
 20
1.5000001373
 10
42.8999994965
 20
0.642857666
  0
LINE
  5
2D3
100
AcDbEntity
  8
0
100
AcDbLine
 62
250
  6
CONTINUOUS
 10
-30.6
 20
0.6846067812
 11
-25.2901299639
 21
0.6846067812
  0
LINE
  5
2D4
100
AcDbEntity
  8
0
100
AcDbLine
 62
250
  6
CONTINUOUS
 10
16.7098700361
 20
0.6846067812
 11
11.4
 21
0.6846067812
  0
LINE
  5
2D5
100
AcDbEntity
  8
0
100
AcDbLine
 62
7
  6
CONTINUOUS
 10
11.4
 20
0.9775
 11
16.6163606168
 21
0.9775
  0
LINE
  5
2D6
100
AcDbEntity
  8
0
100
AcDbLine
 62
7
  6
CONTINUOUS
 10
-25.3836393832
 20
0.9775
 11
-30.6
 21
0.9775
  0
LINE
  5
2D7
100
AcDbEntity
  8
0
100
AcDbLine
 62
7
  6
CONTINUOUS
 10
11.4
 20
1.0275
 11
16.5955219741
 21
1.0275
  0
LINE
  5
2D8
100
AcDbEntity
  8
0
100
AcDbLine
 62
7
  6
CONTINUOUS
 10
-25.4044780259
 20
1.0275
 11
-30.6
 21
1.0275
  0
LINE
  5
2D9
100
AcDbEntity
  8
0
100
AcDbLine
 62
250
  6
CONTINUOUS
 10
-30.6
 20
1.3203932188
 11
-25.5461236824
 21
1.3203932188
  0
LINE
  5
2DA
100
AcDbEntity
  8
0
100
AcDbLine
 62
250
  6
CONTINUOUS
 10
16.4538763176
 20
1.3203932188
 11
11.4
 21
1.3203932188
  0
LINE
  5
2DB
100
AcDbEntity
  8
0
100
AcDbLine
 62
7
  6
CONTINUOUS
 10
-30.6
 20
2.4132864376
 11
-26.6916119804
 21
2.4132864376
  0
LINE
  5
2DC
100
AcDbEntity
  8
0
100
AcDbLine
 62
7
  6
CONTINUOUS
 10
15.3083880195
 20
2.4132864376
 11
11.4
 21
2.4132864376
  0
LINE
  5
2DD
100
AcDbEntity
  8
RACCORDO
100
AcDbLine
 62
7
  6
CONTINUOUS
 10
-30.6
 20
2.7
 11
-27.9
 21
2.7
  0
LINE
  5
2DE
100
AcDbEntity
  8
RACCORDO
100
AcDbLine
 62
7
  6
CONTINUOUS
 10
11.4
 20
2.7
 11
14.1
 21
2.7
  0
LINE
  5
2DF
100
AcDbEntity
  8
RACCORDO
100
AcDbLine
 62
250
  6
CONTINUOUS
 10
-30.9
 20
3.0018010806
 11
-27.9
 21
3.0018010806
  0
LINE
  5
2E0
100
AcDbEntity
  8
RACCORDO
100
AcDbLine
 62
250
  6
CONTINUOUS
 10
11.1
 20
3.0018010806
 11
14.1
 21
3.0018010806
  0
LWPOLYLINE
  5
2E1
100
AcDbEntity
  8
RACCORDO
100
AcDbPolyline
 62
250
  6
CONTINUOUS
 90
43
 70
0
 10
-27.9
 20
3.0018010806
 10
-27.6728401861
 20
2.9929542596
 10
-27.4494335723
 20
2.9676660993
 10
-27.2297801584
 20
2.9259365847
 10
-27.0125661615
 20
2.8672505354
 10
-26.7991053646
 20
2.7921230749
 10
-26.5933391168
 20
2.7020996357
 10
-26.395614061
 20
2.5969868724
 10
-26.2055835542
 20
2.4769780439
 10
-26.0261490176
 20
2.3441984962
 10
-25.8575071163
 20
2.1985380231
 10
-25.6994611851
 20
2.0401067527
 10
-25.5543226494
 20
1.8713605521
 10
-25.4222347473
 20
1.69220445
 10
-25.3030542407
 20
1.5027333796
 10
-25.1986628408
 20
1.305688092
 10
-25.1091932837
 20
1.100879715
 10
-25.0345128333
 20
0.8884971379
 10
-24.9761049927
 20
0.6718477822
 10
-24.934242741
 20
0.4506189078
 10
-24.9086530991
 20
0.2251233234
 10
-24.9000006328
 20
-0.0003932068
 10
-24.9087240996
 20
-0.2259443914
 10
-24.934384742
 20
-0.45151643
 10
-24.9763308543
 20
-0.6728222951
 10
-25.0348443141
 20
-0.8895444344
 10
-25.1096432437
 20
-1.1020003315
 10
-25.1992303045
 20
-1.3068555329
 10
-25.3037394796
 20
-1.5039117907
 10
-25.4230367857
 20
-1.6933673359
 10
-25.5552229344
 20
-1.8724824612
 10
-25.7004403276
 20
-2.0411589651
 10
-25.8585465633
 20
-2.1994950876
 10
-26.0272151468
 20
-2.345045811
 10
-26.2066366285
 20
-2.4776967272
 10
-26.396620458
 20
-2.5975623225
 10
-26.594268489
 20
-2.7025409396
 10
-26.7999223995
 20
-2.7924425721
 10
-27.0132405117
 20
-2.8674573129
 10
-27.2302996457
 20
-2.9260536596
 10
-27.4497920752
 20
-2.9677211322
 10
-27.6730255266
 20
-2.9929702676
 10
-27.9
 20
-3.0018010806
  0
LINE
  5
2E2
100
AcDbEntity
  8
0
100
AcDbLine
 62
7
  6
CONTINUOUS
 10
11.4
 20
-1.2158200457
 11
12.7
 21
-1.7200118922
  0
LINE
  5
2E3
100
AcDbEntity
  8
0
100
AcDbLine
 62
7
  6
CONTINUOUS
 10
19.2
 20
22.4
 11
19.2666327976
 21
22.5
  0
LINE
  5
2E4
100
AcDbEntity
  8
RACCORDO
100
AcDbLine
 62
250
  6
CONTINUOUS
 10
30.65
 20
4.9529717831
 11
21.35
 21
4.9529717831
  0
LINE
  5
2E5
100
AcDbEntity
  8
RACCORDO
100
AcDbLine
 62
250
  6
CONTINUOUS
 10
-11.35
 20
4.9529717831
 11
-20.65
 21
4.9529717831
  0
LINE
  5
2E6
100
AcDbEntity
  8
RACCORDO
100
AcDbLine
 62
7
  6
CONTINUOUS
 10
30.35
 20
5.25
 11
21.65
 21
5.25
  0
LINE
  5
2E7
100
AcDbEntity
  8
RACCORDO
100
AcDbLine
 62
7
  6
CONTINUOUS
 10
-11.65
 20
5.25
 11
-20.35
 21
5.25
  0
LINE
  5
2E8
100
AcDbEntity
  8
ASSI
100
AcDbLine
 62
7
  6
CONTINUOUS
 10
21.65
 20
5.4975
 11
22.0
 21
5.4975
  0
LINE
  5
2E9
100
AcDbEntity
  8
0
100
AcDbLine
 62
7
  6
CONTINUOUS
 10
22.3
 20
5.5975
 11
22.1
 21
5.5975
  0
LWPOLYLINE
  5
2EA
100
AcDbEntity
  8
RACCORDO
100
AcDbPolyline
 62
250
  6
CONTINUOUS
 90
43
 70
0
 10
14.1
 20
3.0018010806
 10
14.3271598139
 20
2.9929542596
 10
14.5505664277
 20
2.9676660993
 10
14.7702198416
 20
2.9259365847
 10
14.9874338385
 20
2.8672505354
 10
15.2008946354
 20
2.7921230749
 10
15.4066608831
 20
2.7020996357
 10
15.604385939
 20
2.5969868724
 10
15.7944164458
 20
2.4769780439
 10
15.9738509824
 20
2.3441984962
 10
16.1424928837
 20
2.1985380231
 10
16.3005388149
 20
2.0401067527
 10
16.4456773506
 20
1.8713605521
 10
16.5777652527
 20
1.69220445
 10
16.6969457593
 20
1.5027333796
 10
16.8013371592
 20
1.305688092
 10
16.8908067163
 20
1.100879715
 10
16.9654871667
 20
0.8884971379
 10
17.0238950073
 20
0.6718477822
 10
17.065757259
 20
0.4506189078
 10
17.0913469009
 20
0.2251233234
 10
17.0999993672
 20
-0.0003932068
 10
17.0912759004
 20
-0.2259443914
 10
17.065615258
 20
-0.45151643
 10
17.0236691457
 20
-0.6728222951
 10
16.9651556859
 20
-0.8895444344
 10
16.8903567563
 20
-1.1020003315
 10
16.8007696955
 20
-1.3068555329
 10
16.6962605204
 20
-1.5039117907
 10
16.5769632143
 20
-1.6933673359
 10
16.4447770656
 20
-1.8724824612
 10
16.2995596724
 20
-2.0411589651
 10
16.1414534367
 20
-2.1994950876
 10
15.9727848532
 20
-2.345045811
 10
15.7933633715
 20
-2.4776967272
 10
15.603379542
 20
-2.5975623225
 10
15.405731511
 20
-2.7025409396
 10
15.2000776005
 20
-2.7924425721
 10
14.9867594883
 20
-2.8674573129
 10
14.7697003543
 20
-2.9260536596
 10
14.5502079248
 20
-2.9677211322
 10
14.3269744734
 20
-2.9929702676
 10
14.1
 20
-3.0018010806
  0
LINE
  5
2EB
100
AcDbEntity
  8
0
100
AcDbLine
 62
7
  6
CONTINUOUS
 10
19.2666327976
 20
-22.5
 11
19.2
 21
-22.4
  0
LINE
  5
2EC
100
AcDbEntity
  8
0
100
AcDbLine
 62
250
  6
CONTINUOUS
 10
30.35
 20
6.0796067812
 11
22.3
 21
6.0796067812
  0
LINE
  5
2ED
100
AcDbEntity
  8
0
100
AcDbLine
 62
250
  6
CONTINUOUS
 10
-19.7
 20
6.0796067812
 11
-11.65
 21
6.0796067812
  0
LINE
  5
2EE
100
AcDbEntity
  8
RACCORDO
100
AcDbLine
 62
250
  6
CONTINUOUS
 10
22.1
 20
6.2
 11
21.9297499228
 21
6.2
  0
LINE
  5
2EF
100
AcDbEntity
  8
0
100
AcDbLine
 62
7
  6
CONTINUOUS
 10
-11.65
 20
6.3725
 11
-19.7
 21
6.3725
  0
LINE
  5
2F0
100
AcDbEntity
  8
0
100
AcDbLine
 62
7
  6
CONTINUOUS
 10
22.3
 20
6.3725
 11
30.35
 21
6.3725
  0
LINE
  5
2F1
100
AcDbEntity
  8
0
100
AcDbLine
 62
7
  6
CONTINUOUS
 10
-11.65
 20
6.4225
 11
-19.7
 21
6.4225
  0
LINE
  5
2F2
100
AcDbEntity
  8
0
100
AcDbLine
 62
7
  6
CONTINUOUS
 10
22.3
 20
6.4225
 11
30.35
 21
6.4225
  0
LINE
  5
2F3
100
AcDbEntity
  8
0
100
AcDbLine
 62
250
  6
CONTINUOUS
 10
30.35
 20
6.7153932188
 11
22.3
 21
6.7153932188
  0
LINE
  5
2F4
100
AcDbEntity
  8
0
100
AcDbLine
 62
250
  6
CONTINUOUS
 10
-19.7
 20
6.7153932188
 11
-11.65
 21
6.7153932188
  0
LINE
  5
2F5
100
AcDbEntity
  8
RACCORDO
100
AcDbLine
 62
250
  6
CONTINUOUS
 10
21.9247739475
 20
6.7702120003
 11
21.65
 21
6.7702120012
  0
LINE
  5
2F6
100
AcDbEntity
  8
RACCORDO
100
AcDbLine
 62
7
  6
CONTINUOUS
 10
-19.7
 20
6.9
 11
-19.8
 21
6.9
  0
LINE
  5
2F7
100
AcDbEntity
  8
RACCORDO
100
AcDbLine
 62
7
  6
CONTINUOUS
 10
-19.7
 20
6.9785418101
 11
-19.8785418101
 21
6.9785418101
  0
LINE
  5
2F8
100
AcDbEntity
  8
RACCORDO
100
AcDbLine
 62
7
  6
CONTINUOUS
 10
-20.35
 20
7.45
 11
-11.65
 21
7.45
  0
LINE
  5
2F9
100
AcDbEntity
  8
RACCORDO
100
AcDbLine
 62
7
  6
CONTINUOUS
 10
21.65
 20
7.45
 11
30.35
 21
7.45
  0
LINE
  5
2FA
100
AcDbEntity
  8
RACCORDO
100
AcDbLine
 62
250
  6
CONTINUOUS
 10
-20.65
 20
7.7546527917
 11
-11.35
 21
7.7546527917
  0
LINE
  5
2FB
100
AcDbEntity
  8
RACCORDO
100
AcDbLine
 62
250
  6
CONTINUOUS
 10
21.35
 20
7.7546527917
 11
30.65
 21
7.7546527917
  0
LINE
  5
2FC
100
AcDbEntity
  8
RACCORDO
100
AcDbLine
 62
250
  6
CONTINUOUS
 10
11.1
 20
-3.0018010806
 11
11.1
 21
3.0018010806
  0
LWPOLYLINE
  5
2FD
100
AcDbEntity
  8
RACCORDO
100
AcDbPolyline
 62
7
  6
CONTINUOUS
 90
10
 70
0
 10
11.2307538296
 20
-2.870982715
 10
11.2803501053
 20
-2.8210057823
 10
11.3038119131
 20
-2.7977071833
 10
11.3254095279
 20
-2.7757380991
 10
11.3453397292
 20
-2.7556465964
 10
11.3634057376
 20
-2.7378499479
 10
11.3780595674
 20
-2.7225897743
 10
11.3887852235
 20
-2.7105854684
 10
11.396098701
 20
-2.7027804926
 10
11.4
 20
-2.7
  0
LWPOLYLINE
  5
2FE
100
AcDbEntity
  8
RACCORDO
100
AcDbPolyline
 62
7
  6
CONTINUOUS
 90
6
 70
0
 10
11.1
 20
-3.0018010806
 10
11.1262215121
 20
-2.9759805721
 10
11.1523532028
 20
-2.9497464057
 10
11.1783950722
 20
-2.9233220913
 10
11.2046193616
 20
-2.8969873781
 10
11.2307538296
 20
-2.870982715
  0
LWPOLYLINE
  5
2FF
100
AcDbEntity
  8
RACCORDO
100
AcDbPolyline
 62
7
  6
CONTINUOUS
 90
7
 70
0
 10
11.1
 20
3.0018010806
 10
11.1262215121
 20
2.9759805721
 10
11.1523532028
 20
2.9497464057
 10
11.1783950722
 20
2.9233220913
 10
11.2046193616
 20
2.8969873781
 10
11.2307538296
 20
2.870982715
 10
11.2803501053
 20
2.8210057823
  0
LWPOLYLINE
  5
300
100
AcDbEntity
  8
RACCORDO
100
AcDbPolyline
 62
7
  6
CONTINUOUS
 90
9
 70
0
 10
11.2803501053
 20
2.8210057823
 10
11.3038119131
 20
2.7977071833
 10
11.3254095279
 20
2.7757380991
 10
11.3453397292
 20
2.7556465964
 10
11.3634057376
 20
2.7378499479
 10
11.3780595674
 20
2.7225897743
 10
11.3887852235
 20
2.7105854684
 10
11.396098701
 20
2.7027804926
 10
11.4
 20
2.7
  0
LINE
  5
301
100
AcDbEntity
  8
RACCORDO
100
AcDbLine
 62
7
  6
CONTINUOUS
 10
11.4
 20
-2.7
 11
11.4
 21
2.7
  0
LINE
  5
302
100
AcDbEntity
  8
0
100
AcDbLine
 62
250
  6
CONTINUOUS
 10
12.7
 20
0.9775
 11
12.7
 21
-1.7200118922
  0
LINE
  5
303
100
AcDbEntity
  8
0
100
AcDbLine
 62
7
  6
CONTINUOUS
 10
12.7
 20
-2.7
 11
12.7
 21
-1.7200118922
  0
LINE
  5
304
100
AcDbEntity
  8
0
100
AcDbLine
 62
250
  6
CONTINUOUS
 10
12.7
 20
1.0275
 11
12.7
 21
2.7
  0
LINE
  5
305
100
AcDbEntity
  8
TRASH
100
AcDbLine
 62
7
  6
CONTINUOUS
 10
19.1366556363
 20
22.5
 11
19.1151277229
 21
22.4
  0
LINE
  5
306
100
AcDbEntity
  8
0
100
AcDbLine
 62
7
  6
CONTINUOUS
 10
22.3
 20
7.1959140019
 11
22.5074603487
 21
7.45
  0
LWPOLYLINE
  5
307
100
AcDbEntity
  8
RACCORDO
100
AcDbPolyline
 62
7
  6
CONTINUOUS
 90
10
 70
0
 10
21.4805237428
 20
5.0830857847
 10
21.5297749752
 20
5.1322245156
 10
21.5530636405
 20
5.1550500147
 10
21.5745462751
 20
5.1765501791
 10
21.5944311719
 20
5.1962327208
 10
21.6125100381
 20
5.2136260394
 10
21.6272587649
 20
5.2284111511
 10
21.638169316
 20
5.2399288369
 10
21.6457497277
 20
5.2473657725
 10
21.65
 20
5.25
  0
LWPOLYLINE
  5
308
100
AcDbEntity
  8
RACCORDO
100
AcDbPolyline
 62
7
  6
CONTINUOUS
 90
6
 70
0
 10
21.35
 20
4.9529717831
 10
21.3762975789
 20
4.978858219
 10
21.4024480936
 20
5.0050550803
 10
21.428451544
 20
5.0313387305
 10
21.4545611755
 20
5.0574232293
 10
21.4805237428
 20
5.0830857847
  0
LWPOLYLINE
  5
309
100
AcDbEntity
  8
RACCORDO
100
AcDbPolyline
 62
7
  6
CONTINUOUS
 90
9
 70
0
 10
22.3797749752
 20
-5.1322245156
 10
22.4030636405
 20
-5.1550500147
 10
22.4245462751
 20
-5.1765501791
 10
22.4444311719
 20
-5.1962327208
 10
22.4625100381
 20
-5.2136260394
 10
22.4772587649
 20
-5.2284111511
 10
22.488169316
 20
-5.2399288369
 10
22.4957497277
 20
-5.2473657725
 10
22.5
 20
-5.25
  0
LWPOLYLINE
  5
30A
100
AcDbEntity
  8
RACCORDO
100
AcDbPolyline
 62
7
  6
CONTINUOUS
 90
7
 70
0
 10
22.2
 20
-4.9529717831
 10
22.2262975789
 20
-4.978858219
 10
22.2524480936
 20
-5.0050550803
 10
22.278451544
 20
-5.0313387305
 10
22.3045611755
 20
-5.0574232293
 10
22.3305237428
 20
-5.0830857847
 10
22.3797749752
 20
-5.1322245156
  0
LINE
  5
30B
100
AcDbEntity
  8
0
100
AcDbLine
 62
7
  6
CONTINUOUS
 10
22.7074603487
 20
-7.45
 11
22.5
 21
-7.1959140019
  0
LINE
  5
30C
100
AcDbEntity
  8
TRASH
100
AcDbLine
 62
7
  6
CONTINUOUS
 10
19.1366556363
 20
-22.5
 11
19.1151277229
 21
-22.4
  0
LINE
  5
30D
100
AcDbEntity
  8
RACCORDO
100
AcDbLine
 62
250
  6
CONTINUOUS
 10
14.1
 20
3.0018010806
 11
14.0999999949
 21
2.7
  0
LINE
  5
30E
100
AcDbEntity
  8
RACCORDO
100
AcDbLine
 62
250
  6
CONTINUOUS
 10
14.1
 20
-3.0018010806
 11
14.1
 21
-2.7
  0
LWPOLYLINE
  5
30F
100
AcDbEntity
  8
RACCORDO
100
AcDbPolyline
 62
7
  6
CONTINUOUS
 90
10
 70
0
 10
30.518629788
 20
7.6229397545
 10
30.4691679475
 20
7.572822336
 10
30.4458125582
 20
7.5494488935
 10
30.4243042556
 20
7.527351247
 10
30.4044245195
 20
7.5071185891
 10
30.3863918701
 20
7.4891248008
 10
30.3717761128
 20
7.4735174787
 10
30.3611005164
 20
7.4610852123
 10
30.3538418121
 20
7.452928017
 10
30.35
 20
7.45
  0
LINE
  5
310
100
AcDbEntity
  8
RACCORDO
100
AcDbLine
 62
7
  6
CONTINUOUS
 10
30.5710036721
 20
7.6754787932
 11
30.518629788
 21
7.6229397545
  0
LWPOLYLINE
  5
311
100
AcDbEntity
  8
RACCORDO
100
AcDbPolyline
 62
7
  6
CONTINUOUS
 90
4
 70
0
 10
30.65
 20
7.7546527917
 10
30.6235069092
 20
7.7285519619
 10
30.5971747999
 20
7.7020855089
 10
30.5710036721
 20
7.6754787932
  0
LWPOLYLINE
  5
312
100
AcDbEntity
  8
RACCORDO
100
AcDbPolyline
 62
7
  6
CONTINUOUS
 90
5
 70
0
 10
29.8
 20
-7.7546527917
 10
29.7735069092
 20
-7.7285519619
 10
29.7471747999
 20
-7.7020855089
 10
29.7210036721
 20
-7.6754787932
 10
29.668629788
 20
-7.6229397545
  0
LWPOLYLINE
  5
313
100
AcDbEntity
  8
RACCORDO
100
AcDbPolyline
 62
7
  6
CONTINUOUS
 90
9
 70
0
 10
29.6191679475
 20
-7.572822336
 10
29.5958125582
 20
-7.5494488935
 10
29.5743042556
 20
-7.527351247
 10
29.5544245195
 20
-7.5071185891
 10
29.5363918701
 20
-7.4891248008
 10
29.5217761128
 20
-7.4735174787
 10
29.5111005164
 20
-7.4610852123
 10
29.5038418121
 20
-7.452928017
 10
29.5
 20
-7.45
  0
LINE
  5
314
100
AcDbEntity
  8
RACCORDO
100
AcDbLine
 62
7
  6
CONTINUOUS
 10
29.668629788
 20
-7.6229397545
 11
29.6191679475
 21
-7.572822336
  0
LWPOLYLINE
  5
315
100
AcDbEntity
  8
0
100
AcDbPolyline
 62
7
  6
CONTINUOUS
 90
10
 70
0
 43
0.3500000006
 10
1.0714285848
 20
34.7500012207
 10
1.1428571477
 20
34.6071433868
 10
1.1428571477
 20
34.535712204
 10
1.0000000219
 20
34.392858902
 10
0.9285714591
 20
34.392858902
 10
0.8571428254
 20
34.464285553
 10
0.8571428254
 20
34.535712204
 10
0.9285714591
 20
34.6785700378
 10
1.0000000219
 20
34.7500012207
 10
1.0714285848
 20
34.7500012207
  0
LINE
  5
316
100
AcDbEntity
  8
TRASH
100
AcDbLine
 62
7
  6
CONTINUOUS
 10
19.0301797403
 20
-22.4
 11
19.0301797403
 21
-22.5
  0
LINE
  5
317
100
AcDbEntity
  8
TRASH
100
AcDbLine
 62
7
  6
CONTINUOUS
 10
19.0301797403
 20
22.4
 11
19.0301797403
 21
22.5
  0
LINE
  5
318
100
AcDbEntity
  8
RACCORDO
100
AcDbLine
 62
250
  6
CONTINUOUS
 10
21.9277367563
 20
6.2488967934
 11
21.9268305293
 21
6.308479441
  0
LINE
  5
319
100
AcDbEntity
  8
RACCORDO
100
AcDbLine
 62
250
  6
CONTINUOUS
 10
21.9268305293
 20
6.308479441
 11
21.9257253517
 21
6.4349274985
  0
LINE
  5
31A
100
AcDbEntity
  8
RACCORDO
100
AcDbLine
 62
250
  6
CONTINUOUS
 10
21.9257253517
 20
6.4349274985
 11
21.9248834754
 21
6.6512124001
  0
LINE
  5
31B
100
AcDbEntity
  8
RACCORDO
100
AcDbLine
 62
250
  6
CONTINUOUS
 10
21.9248834754
 20
6.6512124001
 11
21.9247739475
 21
6.7702120003
  0
LINE
  5
31C
100
AcDbEntity
  8
RACCORDO
100
AcDbLine
 62
250
  6
CONTINUOUS
 10
21.35
 20
4.9529717831
 11
21.35
 21
7.7546527917
  0
LINE
  5
31D
100
AcDbEntity
  8
RACCORDO
100
AcDbLine
 62
7
  6
CONTINUOUS
 10
21.65
 20
5.25
 11
21.65
 21
7.45
  0
LINE
  5
31E
100
AcDbEntity
  8
RACCORDO
100
AcDbLine
 62
7
  6
CONTINUOUS
 10
21.9247739475
 20
6.7702120003
 11
21.9247739475
 21
7.45
  0
LINE
  5
31F
100
AcDbEntity
  8
0
100
AcDbLine
 62
250
  6
CONTINUOUS
 10
22.0
 20
5.4975
 11
22.0
 21
5.25
  0
LINE
  5
320
100
AcDbEntity
  8
0
100
AcDbLine
 62
7
  6
CONTINUOUS
 10
22.1
 20
5.5975
 11
22.1
 21
7.45
  0
LINE
  5
321
100
AcDbEntity
  8
RACCORDO
100
AcDbLine
 62
250
  6
CONTINUOUS
 10
22.2
 20
-7.7546527917
 11
22.2
 21
-4.9529717831
  0
LINE
  5
322
100
AcDbEntity
  8
TRASH
100
AcDbLine
 62
7
  6
CONTINUOUS
 10
25.9366556363
 20
22.5
 11
25.9151277229
 21
22.4
  0
LINE
  5
323
100
AcDbEntity
  8
0
100
AcDbLine
 62
7
  6
CONTINUOUS
 10
22.5
 20
-5.5990859981
 11
22.7850275239
 21
-5.25
  0
LWPOLYLINE
  5
324
100
AcDbEntity
  8
RACCORDO
100
AcDbPolyline
 62
7
  6
CONTINUOUS
 90
10
 70
0
 10
22.331370212
 20
-7.6229397545
 10
22.3808320525
 20
-7.572822336
 10
22.4041874418
 20
-7.5494488935
 10
22.4256957444
 20
-7.527351247
 10
22.4455754805
 20
-7.5071185891
 10
22.4636081299
 20
-7.4891248008
 10
22.4782238872
 20
-7.4735174787
 10
22.4888994836
 20
-7.4610852123
 10
22.4961581879
 20
-7.452928017
 10
22.5
 20
-7.45
  0
LINE
  5
325
100
AcDbEntity
  8
RACCORDO
100
AcDbLine
 62
7
  6
CONTINUOUS
 10
22.2789963279
 20
-7.6754787932
 11
22.331370212
 21
-7.6229397545
  0
LWPOLYLINE
  5
326
100
AcDbEntity
  8
RACCORDO
100
AcDbPolyline
 62
7
  6
CONTINUOUS
 90
4
 70
0
 10
22.2
 20
-7.7546527917
 10
22.2264930908
 20
-7.7285519619
 10
22.2528252001
 20
-7.7020855089
 10
22.2789963279
 20
-7.6754787932
  0
LINE
  5
327
100
AcDbEntity
  8
0
100
AcDbLine
 62
250
  6
CONTINUOUS
 10
-33.0650763576
 20
21.0180897694
 11
33.0005350625
 21
21.0183142309
  0
LINE
  5
328
100
AcDbEntity
  8
0
100
AcDbLine
 62
250
  6
CONTINUOUS
 10
-33.0087981167
 20
21.9749071372
 11
33.0087981167
 21
21.9749071372
  0
LWPOLYLINE
  5
329
100
AcDbEntity
  8
0
100
AcDbPolyline
 62
250
  6
CONTINUOUS
 90
13
 70
0
 10
33.0005350626
 20
21.0183122942
 10
33.0650756507
 20
21.0180891254
 10
33.1285363564
 20
21.017518031
 10
33.1898553588
 20
21.0166085666
 10
33.2480066714
 20
21.0153759495
 10
33.3020173096
 20
21.0138408042
 10
33.3509835705
 20
21.0120288169
 10
33.394086153
 20
21.0099703059
 10
33.4306038671
 20
21.0076997142
 10
33.4599257005
 20
21.0052550331
 10
33.4815610418
 20
21.002677167
 10
33.4951478896
 20
21.0000092484
 10
33.5004589094
 20
20.9972959167
  0
LWPOLYLINE
  5
32A
100
AcDbEntity
  8
RACCORDO
100
AcDbPolyline
 62
7
  6
CONTINUOUS
 90
5
 70
0
 10
21.35
 20
7.7546527917
 10
21.3761774358
 20
7.7288735484
 10
21.4022988981
 20
7.7026193956
 10
21.4283643869
 20
7.676113493
 10
21.4808945409
 20
7.6234245202
  0
LWPOLYLINE
  5
32B
100
AcDbEntity
  8
RACCORDO
100
AcDbPolyline
 62
7
  6
CONTINUOUS
 90
6
 70
0
 10
21.5958817918
 20
7.5067799549
 10
21.6139383434
 20
7.4887411256
 10
21.6285345565
 20
7.47319503
 10
21.6391500429
 20
7.4608969239
 10
21.6463051907
 20
7.4528691918
 10
21.65
 20
7.45
  0
LWPOLYLINE
  5
32C
100
AcDbEntity
  8
RACCORDO
100
AcDbPolyline
 62
7
  6
CONTINUOUS
 90
3
 70
0
 10
21.5306961674
 20
7.5729485309
 10
21.5542607038
 20
7.5493670167
 10
21.5958817918
 20
7.5067799549
  0
LINE
  5
32D
100
AcDbEntity
  8
RACCORDO
100
AcDbLine
 62
7
  6
CONTINUOUS
 10
21.4808945409
 20
7.6234245202
 11
21.5306961674
 21
7.5729485309
  0
LINE
  5
32E
100
AcDbEntity
  8
0
100
AcDbLine
 62
7
  6
CONTINUOUS
 10
22.5850275239
 20
5.25
 11
22.3
 21
5.5990859981
  0
LINE
  5
32F
100
AcDbEntity
  8
TRASH
100
AcDbLine
 62
7
  6
CONTINUOUS
 10
25.9366556363
 20
-22.5
 11
25.9151277229
 21
-22.4
  0
LINE
  5
330
100
AcDbEntity
  8
0
100
AcDbLine
 62
7
  6
CONTINUOUS
 10
22.3
 20
7.45
 11
22.3
 21
7.1959140019
  0
LINE
  5
331
100
AcDbEntity
  8
0
100
AcDbLine
 62
7
  6
CONTINUOUS
 10
22.3
 20
5.25
 11
22.3
 21
5.5990859981
  0
LINE
  5
332
100
AcDbEntity
  8
0
100
AcDbLine
 62
7
  6
CONTINUOUS
 10
22.3
 20
5.5990859981
 11
22.3
 21
6.3722920446
  0
LINE
  5
333
100
AcDbEntity
  8
0
100
AcDbLine
 62
7
  6
CONTINUOUS
 10
22.3
 20
6.4225043532
 11
22.3
 21
7.1959140019
  0
LINE
  5
334
100
AcDbEntity
  8
RACCORDO
100
AcDbLine
 62
7
  6
CONTINUOUS
 10
22.5
 20
-7.45
 11
22.5
 21
-5.25
  0
LINE
  5
335
100
AcDbEntity
  8
0
100
AcDbLine
 62
250
  6
CONTINUOUS
 10
22.7
 20
6.3725
 11
22.7
 21
6.4225
  0
LINE
  5
336
100
AcDbEntity
  8
0
100
AcDbLine
 62
250
  6
CONTINUOUS
 10
22.9
 20
-6.3725
 11
22.9
 21
-6.4225
  0
LINE
  5
337
100
AcDbEntity
  8
0
100
AcDbLine
 62
250
  6
CONTINUOUS
 10
24.3
 20
7.45
 11
24.3
 21
6.4225
  0
LINE
  5
338
100
AcDbEntity
  8
0
100
AcDbLine
 62
250
  6
CONTINUOUS
 10
24.3
 20
6.3725
 11
24.3
 21
5.25
  0
LINE
  5
339
100
AcDbEntity
  8
0
100
AcDbLine
 62
250
  6
CONTINUOUS
 10
24.5
 20
-5.25
 11
24.5
 21
-6.3725
  0
LINE
  5
33A
100
AcDbEntity
  8
0
100
AcDbLine
 62
250
  6
CONTINUOUS
 10
24.5
 20
-6.4225
 11
24.5
 21
-7.45
  0
LINE
  5
33B
100
AcDbEntity
  8
TRASH
100
AcDbLine
 62
7
  6
CONTINUOUS
 10
19.0633443637
 20
-22.5
 11
19.0848722771
 21
-22.4
  0
LINE
  5
33C
100
AcDbEntity
  8
0
100
AcDbLine
 62
250
  6
CONTINUOUS
 10
33.0087981167
 20
21.9749071372
 11
33.1503805997
 21
22.4
  0
LWPOLYLINE
  5
33D
100
AcDbEntity
  8
RACCORDO
100
AcDbPolyline
 62
7
  6
CONTINUOUS
 90
10
 70
0
 10
29.6697959717
 20
-5.0827639916
 10
29.6203158992
 20
-5.1321416398
 10
29.5968863558
 20
-5.1551044706
 10
29.5752976328
 20
-5.1767045077
 10
29.5553605215
 20
-5.1964542742
 10
29.5372642307
 20
-5.2138751901
 10
29.5225280993
 20
-5.2286190336
 10
29.5116585735
 20
-5.2400495117
 10
29.5041492071
 20
-5.2474032714
 10
29.5
 20
-5.25
  0
LWPOLYLINE
  5
33E
100
AcDbEntity
  8
RACCORDO
100
AcDbPolyline
 62
7
  6
CONTINUOUS
 90
6
 70
0
 10
29.8
 20
-4.9529717831
 10
29.7739147377
 20
-4.9786423991
 10
29.7479058837
 20
-5.0046976159
 10
29.721973438
 20
-5.0309147931
 10
29.6958465007
 20
-5.0570172726
 10
29.6697959717
 20
-5.0827639916
  0
LINE
  5
33F
100
AcDbEntity
  8
0
100
AcDbLine
 62
7
  6
CONTINUOUS
 10
-33.1503805997
 20
22.4
 11
-25.8
 21
22.4
  0
LINE
  5
340
100
AcDbEntity
  8
0
100
AcDbLine
 62
7
  6
CONTINUOUS
 10
-19.2
 20
22.4
 11
19.2
 21
22.4
  0
LINE
  5
341
100
AcDbEntity
  8
0
100
AcDbLine
 62
7
  6
CONTINUOUS
 10
25.8
 20
22.4
 11
33.1503805997
 21
22.4
  0
LINE
  5
342
100
AcDbEntity
  8
TRASH
100
AcDbLine
 62
7
  6
CONTINUOUS
 10
-25.9698202597
 20
22.5
 11
-19.0301797403
 21
22.5
  0
LINE
  5
343
100
AcDbEntity
  8
TRASH
100
AcDbLine
 62
7
  6
CONTINUOUS
 10
19.0301797403
 20
22.5
 11
25.9698202597
 21
22.5
  0
LINE
  5
344
100
AcDbEntity
  8
TRASH
100
AcDbLine
 62
7
  6
CONTINUOUS
 10
26.1748574782
 20
23.5
 11
18.8251425218
 21
23.5
  0
LINE
  5
345
100
AcDbEntity
  8
TRASH
100
AcDbLine
 62
7
  6
CONTINUOUS
 10
-18.8251425218
 20
23.5
 11
-26.1748574782
 21
23.5
  0
LWPOLYLINE
  5
346
100
AcDbEntity
  8
TRASH
100
AcDbPolyline
 62
7
  6
CONTINUOUS
 90
10
 70
0
 10
-18.8251425218
 20
23.5
 10
-18.760258098
 20
23.4979450158
 10
-18.6959027995
 20
23.4916727201
 10
-18.6320766264
 20
23.4811831128
 10
-18.5683267599
 20
23.4663399818
 10
-18.5051060189
 20
23.4472795393
 10
-18.4437728597
 20
23.424410422
 10
-18.3847801013
 20
23.397868842
 10
-18.3276749248
 20
23.3675185871
 10
-18.2724573302
 20
23.3333596575
  0
LWPOLYLINE
  5
347
100
AcDbEntity
  8
TRASH
100
AcDbPolyline
 62
7
  6
CONTINUOUS
 90
10
 70
0
 10
26.1748574782
 20
23.5
 10
26.239741902
 20
23.4979450158
 10
26.3040972005
 20
23.4916727201
 10
26.3679233736
 20
23.4811831128
 10
26.4316732401
 20
23.4663399818
 10
26.4948939811
 20
23.4472795393
 10
26.5562271403
 20
23.424410422
 10
26.6152198987
 20
23.397868842
 10
26.6723250752
 20
23.3675185871
 10
26.7275426698
 20
23.3333596575
  0
LWPOLYLINE
  5
348
100
AcDbEntity
  8
0
100
AcDbPolyline
 62
250
  6
CONTINUOUS
 90
13
 70
0
 10
33.0087981167
 20
21.9749071372
 10
33.0740135738
 20
21.9705808949
 10
33.1381144717
 20
21.9577950942
 10
33.2000052996
 20
21.93676825
 10
33.2586283178
 20
21.9078597196
 10
33.3129816346
 20
21.8715635618
 10
33.3621363294
 20
21.8285000929
 10
33.4052523283
 20
21.7794052854
 10
33.441592761
 20
21.7251181898
 10
33.4705365547
 20
21.666566595
 10
33.4915890479
 20
21.6047511719
 10
33.5043904448
 20
21.5407283714
 10
33.5087219643
 20
21.4755923698
  0
LWPOLYLINE
  5
349
100
AcDbEntity
  8
RACCORDO
100
AcDbPolyline
 62
7
  6
CONTINUOUS
 90
9
 70
0
 10
30.4703158992
 20
5.1321416398
 10
30.4468863558
 20
5.1551044706
 10
30.4252976328
 20
5.1767045077
 10
30.4053605215
 20
5.1964542742
 10
30.3872642307
 20
5.2138751901
 10
30.3725280993
 20
5.2286190336
 10
30.3616585735
 20
5.2400495117
 10
30.3541492071
 20
5.2474032714
 10
30.35
 20
5.25
  0
LINE
  5
34A
100
AcDbEntity
  8
0
100
AcDbLine
 62
250
  6
CONTINUOUS
 10
33.1503805997
 20
-22.4
 11
33.0087981167
 21
-21.9749071372
  0
LINE
  5
34B
100
AcDbEntity
  8
TRASH
100
AcDbLine
 62
7
  6
CONTINUOUS
 10
19.0633443637
 20
22.5
 11
19.0848722771
 21
22.4
  0
LWPOLYLINE
  5
34C
100
AcDbEntity
  8
RACCORDO
100
AcDbPolyline
 62
250
  6
CONTINUOUS
 90
5
 70
0
 10
21.9297499228
 20
6.2
 10
21.9292249473
 20
6.2032595847
 10
21.9287153358
 20
6.2124472982
 10
21.9282210882
 20
6.2275631406
 10
21.9277367563
 20
6.2488967934
  0
LINE
  5
34D
100
AcDbEntity
  8
TRASH
100
AcDbLine
 62
7
  6
CONTINUOUS
 10
25.9698202597
 20
22.5
 11
25.9698202597
 21
22.4
  0
LINE
  5
34E
100
AcDbEntity
  8
TRASH
100
AcDbLine
 62
7
  6
CONTINUOUS
 10
25.9698202597
 20
-22.5
 11
25.9698202597
 21
-22.4
  0
LINE
  5
34F
100
AcDbEntity
  8
0
100
AcDbLine
 62
250
  6
CONTINUOUS
 10
33.5087219643
 20
21.4755923698
 11
33.65
 21
21.8997711479
  0
LWPOLYLINE
  5
350
100
AcDbEntity
  8
RACCORDO
100
AcDbPolyline
 62
7
  6
CONTINUOUS
 90
7
 70
0
 10
30.65
 20
4.9529717831
 10
30.6239147377
 20
4.9786423991
 10
30.5979058837
 20
5.0046976159
 10
30.571973438
 20
5.0309147931
 10
30.5458465007
 20
5.0570172726
 10
30.5197959717
 20
5.0827639916
 10
30.4703158992
 20
5.1321416398
  0
LINE
  5
351
100
AcDbEntity
  8
0
100
AcDbLine
 62
250
  6
CONTINUOUS
 10
33.65
 20
-21.8997711479
 11
33.5087219643
 21
-21.4755923698
  0
LINE
  5
352
100
AcDbEntity
  8
RACCORDO
100
AcDbLine
 62
7
  6
CONTINUOUS
 10
29.5
 20
-5.25
 11
29.5
 21
-7.45
  0
LINE
  5
353
100
AcDbEntity
  8
RACCORDO
100
AcDbLine
 62
250
  6
CONTINUOUS
 10
29.8
 20
-4.9529717831
 11
29.8
 21
-7.7546527917
  0
LINE
  5
354
100
AcDbEntity
  8
RACCORDO
100
AcDbLine
 62
7
  6
CONTINUOUS
 10
30.35
 20
7.45
 11
30.35
 21
5.25
  0
LINE
  5
355
100
AcDbEntity
  8
TRASH
100
AcDbLine
 62
7
  6
CONTINUOUS
 10
25.8633443637
 20
-22.5
 11
25.8848722771
 21
-22.4
  0
LINE
  5
356
100
AcDbEntity
  8
TRASH
100
AcDbLine
 62
7
  6
CONTINUOUS
 10
25.8633443637
 20
22.5
 11
25.8848722771
 21
22.4
  0
LWPOLYLINE
  5
357
100
AcDbEntity
  8
0
100
AcDbPolyline
 62
250
  6
CONTINUOUS
 90
7
 70
0
 10
33.5087219643
 20
-21.4755923698
 10
33.5078577101
 20
-21.4704350319
 10
33.5070208591
 20
-21.4607336304
 10
33.5062114114
 20
-21.4464881654
 10
33.5054216596
 20
-21.4274708695
 10
33.5046593111
 20
-21.4039095101
 10
33.5039474879
 20
-21.376487389
  0
LWPOLYLINE
  5
358
100
AcDbEntity
  8
0
100
AcDbPolyline
 62
250
  6
CONTINUOUS
 90
5
 70
0
 10
33.0087981167
 20
-21.9749071372
 10
33.0079304777
 20
-21.9649275443
 10
33.0070915103
 20
-21.9453752521
 10
33.0062812145
 20
-21.9164415474
 10
33.0054923533
 20
-21.87840874
  0
LWPOLYLINE
  5
359
100
AcDbEntity
  8
0
100
AcDbPolyline
 62
250
  6
CONTINUOUS
 90
3
 70
0
 10
33.5039474879
 20
-21.376487389
 10
33.502679237
 20
-21.3098448807
 10
33.5021382921
 20
-21.2717397581
  0
LINE
  5
35A
100
AcDbEntity
  8
0
100
AcDbLine
 62
250
  6
CONTINUOUS
 10
33.0054923533
 20
-21.87840874
 11
33.0040223565
 21
-21.7766086172
  0
LINE
  5
35B
100
AcDbEntity
  8
0
100
AcDbLine
 62
250
  6
CONTINUOUS
 10
33.0040223565
 20
-21.7766086172
 11
33.0022169406
 21
-21.5675433068
  0
LINE
  5
35C
100
AcDbEntity
  8
0
100
AcDbLine
 62
250
  6
CONTINUOUS
 10
33.0022169406
 20
-21.5675433068
 11
33.0010194756
 21
-21.3072787454
  0
LWPOLYLINE
  5
35D
100
AcDbEntity
  8
0
100
AcDbPolyline
 62
250
  6
CONTINUOUS
 90
9
 70
0
 10
33.0010194756
 20
-21.3072787454
 10
32.9974904462
 20
-16.3494810548
 10
32.995206984
 20
-11.6792204147
 10
32.9936846758
 20
-7.0079400892
 10
32.9929235217
 20
-2.3360479955
 10
32.9929235216
 20
2.3360479943
 10
32.9936846757
 20
7.0079400882
 10
32.9952069839
 20
11.6792204138
 10
32.9974904462
 20
16.3494810544
  0
LINE
  5
35E
100
AcDbEntity
  8
RACCORDO
100
AcDbLine
 62
250
  6
CONTINUOUS
 10
30.65
 20
7.7546527917
 11
30.65
 21
4.9529717831
  0
LINE
  5
35F
100
AcDbEntity
  8
0
100
AcDbLine
 62
250
  6
CONTINUOUS
 10
32.9974904462
 20
16.3494810544
 11
33.0010194756
 21
21.3072787454
  0
LINE
  5
360
100
AcDbEntity
  8
0
100
AcDbLine
 62
250
  6
CONTINUOUS
 10
33.0010194756
 20
21.3072787454
 11
33.0022169406
 21
21.5675433068
  0
LINE
  5
361
100
AcDbEntity
  8
0
100
AcDbLine
 62
250
  6
CONTINUOUS
 10
33.0022169406
 20
21.5675433068
 11
33.0040223565
 21
21.7766086172
  0
LWPOLYLINE
  5
362
100
AcDbEntity
  8
0
100
AcDbPolyline
 62
250
  6
CONTINUOUS
 90
6
 70
0
 10
33.0040223565
 20
21.7766086172
 10
33.0054923533
 20
21.87840874
 10
33.0062812145
 20
21.9164415474
 10
33.0070915103
 20
21.9453752521
 10
33.0079304777
 20
21.9649275443
 10
33.0087981167
 20
21.9749071372
  0
LWPOLYLINE
  5
363
100
AcDbEntity
  8
0
100
AcDbPolyline
 62
250
  6
CONTINUOUS
 90
9
 70
0
 10
33.5021382921
 20
21.2717397581
 10
33.5032880998
 20
21.3450965156
 10
33.5039474879
 20
21.3764873889
 10
33.5046593111
 20
21.4039095101
 10
33.5054216596
 20
21.4274708696
 10
33.5062114114
 20
21.4464881656
 10
33.5070208591
 20
21.4607336306
 10
33.5078577101
 20
21.470435032
 10
33.5087219643
 20
21.4755923698
  0
LINE
  5
364
100
AcDbEntity
  8
0
100
AcDbLine
 62
250
  6
CONTINUOUS
 10
33.5021382921
 20
-21.2717397581
 11
33.5009403581
 21
-21.1413107391
  0
LINE
  5
365
100
AcDbEntity
  8
0
100
AcDbLine
 62
250
  6
CONTINUOUS
 10
33.5009403581
 20
-21.1413107391
 11
33.5004589101
 21
-20.9972959167
  0
LWPOLYLINE
  5
366
100
AcDbEntity
  8
0
100
AcDbPolyline
 62
250
  6
CONTINUOUS
 90
9
 70
0
 10
33.5004589101
 20
-20.9972959167
 10
33.4974142958
 20
-16.3324664701
 10
33.4951308352
 20
-11.6670185434
 10
33.4936085283
 20
-7.0009521365
 10
33.4928473752
 20
-2.3338547134
 10
33.4928473758
 20
2.3338611899
 10
33.4936085296
 20
7.0009579653
 10
33.4951308365
 20
11.667023077
 10
33.4974142967
 20
16.3324690607
  0
LINE
  5
367
100
AcDbEntity
  8
0
100
AcDbLine
 62
7
  6
CONTINUOUS
 10
33.65
 20
21.8997711479
 11
33.65
 21
-21.8997711479
  0
LINE
  5
368
100
AcDbEntity
  8
TRASH
100
AcDbLine
 62
7
  6
CONTINUOUS
 10
33.65
 20
-16.1196592268
 11
33.65
 21
16.1196592268
  0
LINE
  5
369
100
AcDbEntity
  8
0
100
AcDbLine
 62
250
  6
CONTINUOUS
 10
33.4974142967
 20
16.3324690607
 11
33.5007002659
 21
21.0948153319
  0
LWPOLYLINE
  5
36A
100
AcDbEntity
  8
0
100
AcDbPolyline
 62
250
  6
CONTINUOUS
 90
3
 70
0
 10
33.5007002659
 20
21.0948153319
 10
33.5016671656
 20
21.2306689214
 10
33.5021382921
 20
21.2717397581
  0
LINE
  5
36B
100
AcDbEntity
  8
0
100
AcDbLine
 62
7
  6
CONTINUOUS
 10
25.8
 20
-22.4
 11
25.7333672024
 21
-22.5
  0
LWPOLYLINE
  5
36C
100
AcDbEntity
  8
0
100
AcDbPolyline
 62
7
  6
CONTINUOUS
 90
6
 70
0
 43
0.3500000006
 10
2.1428571696
 20
34.2500010681
 10
3.2142856836
 20
34.2500010681
 10
3.4285713015
 20
34.464285553
 10
3.4285713015
 20
35.5357125092
 10
3.0000000658
 20
35.9642860107
 10
2.5714285469
 20
35.9642860107
  0
LINE
  5
36D
100
AcDbEntity
  8
0
100
AcDbLine
 62
7
  6
CONTINUOUS
 10
25.7333672024
 20
22.5
 11
25.8
 21
22.4
  0
LWPOLYLINE
  5
36E
100
AcDbEntity
  8
0
100
AcDbPolyline
 62
7
  6
CONTINUOUS
 90
3
 70
0
 43
0.3500000006
 10
42.25714151
 20
-0.8571427917
 10
42.25714151
 20
-2.3571432495
 10
39.8999985809
 20
-1.7142852631
  0
LWPOLYLINE
  5
36F
100
AcDbEntity
  8
0
100
AcDbPolyline
 62
7
  6
CONTINUOUS
 90
5
 70
0
 43
0.3500000006
 10
-84.6393170471
 20
43.9642839203
 10
-84.2821701965
 20
44.178572937
 10
-84.2821701965
 20
44.8214263916
 10
-84.6393170471
 20
45.2499998932
 10
-85.4964549866
 20
45.2499998932
  0
LWPOLYLINE
  5
370
100
AcDbEntity
  8
0
100
AcDbPolyline
 62
250
  6
CONTINUOUS
 90
16
 70
0
 10
-98.2422313106
 20
20.9972959167
 10
-98.2375980925
 20
21.0468103912
 10
-98.2284040462
 20
21.0948153319
 10
-98.2146491716
 20
21.141310739
 10
-98.1961101988
 20
21.186744597
 10
-98.1730103976
 20
21.2306689214
 10
-98.1460195785
 20
21.2717397581
 10
-98.1150288698
 20
21.3098448807
 10
-98.0801471431
 20
21.3450965156
 10
-98.0423708236
 20
21.3764873889
 10
-98.0015904995
 20
21.4039095101
 10
-97.9579155827
 20
21.4274708696
 10
-97.9126707337
 20
21.4464881656
 10
-97.8662975059
 20
21.4607336306
 10
-97.8183543459
 20
21.470435032
 10
-97.7688412536
 20
21.4755923698
  0
LWPOLYLINE
  5
371
100
AcDbEntity
  8
0
100
AcDbPolyline
 62
250
  6
CONTINUOUS
 90
10
 70
0
 10
-97.7862830285
 20
21.9749071372
 10
-97.7871946413
 20
21.9705808949
 10
-97.7876434522
 20
21.9577950942
 10
-97.787621791
 20
21.93676825
 10
-97.7871300275
 20
21.9078597196
 10
-97.7861765665
 20
21.8715635618
 10
-97.7847777035
 20
21.8285000929
 10
-97.7829573458
 20
21.7794052854
 10
-97.7807466038
 20
21.7251181898
 10
-97.7753111236
 20
21.6047511719
  0
LWPOLYLINE
  5
372
100
AcDbEntity
  8
0
100
AcDbPolyline
 62
7
  6
CONTINUOUS
 90
10
 70
0
 43
0.3500000006
 10
-75.6035987091
 20
37.2500019836
 10
-76.2464566956
 20
36.6071439972
 10
-76.6750256653
 20
35.7500015259
 10
-76.6750256653
 20
34.6785700378
 10
-76.2464566956
 20
34.2500010681
 10
-75.6035987091
 20
34.2500010681
 10
-75.1750297394
 20
34.6785700378
 10
-75.1750297394
 20
35.5357125092
 10
-75.6035987091
 20
35.9642860107
 10
-76.5321723633
 20
35.9642860107
  0
LWPOLYLINE
  5
373
100
AcDbEntity
  8
0
100
AcDbPolyline
 62
250
  6
CONTINUOUS
 90
8
 70
0
 10
-97.7862830285
 20
-21.9749071372
 10
-97.7871946335
 20
-21.9705805728
 10
-97.7876434057
 20
-21.9577939153
 10
-97.7876216824
 20
-21.9367658519
 10
-97.7871298416
 20
-21.9078558933
 10
-97.7861762974
 20
-21.8715582881
 10
-97.7847773601
 20
-21.8284936262
 10
-97.7829569506
 20
-21.7793980875
  0
LWPOLYLINE
  5
374
100
AcDbEntity
  8
0
100
AcDbPolyline
 62
250
  6
CONTINUOUS
 90
10
 70
0
 10
-98.2422313106
 20
-20.9972959167
 10
-98.4166571474
 20
-16.3324664701
 10
-98.5474765185
 20
-11.6670185434
 10
-98.634689424
 20
-7.0009521365
 10
-98.6782958553
 20
-2.3338547134
 10
-98.678295821
 20
2.3338611899
 10
-98.6346893468
 20
7.0009579653
 10
-98.5474764413
 20
11.667023077
 10
-98.4166570959
 20
16.3324690607
 10
-98.2422313106
 20
20.9972959167
  0
LINE
  5
375
100
AcDbEntity
  8
RACCORDO
100
AcDbLine
 62
7
  6
CONTINUOUS
 10
-99.1260683112
 20
-6.9969493567
 11
-99.1257539488
 21
-7.0193754583
  0
LINE
  5
376
100
AcDbEntity
  8
RACCORDO
100
AcDbLine
 62
7
  6
CONTINUOUS
 10
-99.1740494188
 20
0.9892364455
 11
-99.174004452
 21
1.0117091669
  0
LINE
  5
377
100
AcDbEntity
  8
RACCORDO
100
AcDbLine
 62
7
  6
CONTINUOUS
 10
-99.1710453547
 20
1.9956547656
 11
-99.1710046193
 21
2.0058347438
  0
LINE
  5
378
100
AcDbEntity
  8
0
100
AcDbLine
 62
7
  6
CONTINUOUS
 10
-99.1697770552
 20
2.2914898587
 11
-99.1695720112
 21
2.3358012758
  0
LINE
  5
379
100
AcDbEntity
  8
RACCORDO
100
AcDbLine
 62
7
  6
CONTINUOUS
 10
-99.1257539488
 20
7.019375457
 11
-99.1260683112
 21
6.9969493553
  0
LINE
  5
37A
100
AcDbEntity
  8
0
100
AcDbLine
 62
250
  6
CONTINUOUS
 10
-97.7753111236
 20
21.6047511719
 11
-97.7688412536
 21
21.4755923698
  0
LINE
  5
37B
100
AcDbEntity
  8
0
100
AcDbLine
 62
250
  6
CONTINUOUS
 10
-97.7829569506
 20
-21.7793980875
 11
-97.7781828688
 21
-21.6665598766
  0
LWPOLYLINE
  5
37C
100
AcDbEntity
  8
0
100
AcDbPolyline
 62
250
  6
CONTINUOUS
 90
3
 70
0
 10
-97.7781828688
 20
-21.6665598766
 10
-97.7721790938
 20
-21.5407253734
 10
-97.7688412536
 20
-21.4755923698
  0
LWPOLYLINE
  5
37D
100
AcDbEntity
  8
0
100
AcDbPolyline
 62
7
  6
CONTINUOUS
 90
3
 70
0
 43
0.3500000006
 10
-80.4964534607
 20
42.5357146454
 10
-80.5678846436
 20
42.3214301605
 10
-80.7107379456
 20
42.0357144928
  0
LINE
  5
37E
100
AcDbEntity
  8
RACCORDO
100
AcDbLine
 62
250
  6
CONTINUOUS
 10
-81.6590373664
 20
21.0252346574
 11
-81.7041732106
 21
21.0077183963
  0
LINE
  5
37F
100
AcDbEntity
  8
TRASH
100
AcDbLine
 62
7
  6
CONTINUOUS
 10
-85.6750280085
 20
-23.0998904748
 11
-86.9983186832
 21
-23.1273066283
  0
LINE
  5
380
100
AcDbEntity
  8
TRASH
100
AcDbLine
 62
7
  6
CONTINUOUS
 10
-86.9983186832
 20
-23.1273066283
 11
-88.3316851203
 21
-23.1539577341
  0
LINE
  5
381
100
AcDbEntity
  8
TRASH
100
AcDbLine
 62
7
  6
CONTINUOUS
 10
-88.3316851203
 20
-23.1539577341
 11
-89.6750280085
 21
-23.1799085618
  0
LINE
  5
382
100
AcDbEntity
  8
TRASH
100
AcDbLine
 62
7
  6
CONTINUOUS
 10
-85.6750280085
 20
-23.4301797403
 11
-89.6750280085
 21
-23.5
  0
LINE
  5
383
100
AcDbEntity
  8
TRASH
100
AcDbLine
 62
250
  6
CONTINUOUS
 10
-85.6750280085
 20
-23.2631073612
 11
-89.6750280085
 21
-23.3333596581
  0
LINE
  5
384
100
AcDbEntity
  8
TRASH
100
AcDbLine
 62
7
  6
CONTINUOUS
 10
-87.4416583113
 20
-22.6434991609
 11
-89.6750280085
 21
-22.663166622
  0
LINE
  5
385
100
AcDbEntity
  8
TRASH
100
AcDbLine
 62
7
  6
CONTINUOUS
 10
-85.6750280085
 20
-22.6298666026
 11
-87.4416583113
 21
-22.6434991609
  0
LINE
  5
386
100
AcDbEntity
  8
0
100
AcDbLine
 62
7
  6
CONTINUOUS
 10
-89.6750280085
 20
-22.4
 11
-97.7862830285
 21
-21.9749071372
  0
LINE
  5
387
100
AcDbEntity
  8
0
100
AcDbLine
 62
250
  6
CONTINUOUS
 10
-89.6750280085
 20
-21.8997711479
 11
-97.7688412536
 21
-21.4755923698
  0
LWPOLYLINE
  5
388
100
AcDbEntity
  8
0
100
AcDbPolyline
 62
250
  6
CONTINUOUS
 90
16
 70
0
 10
-97.7688412536
 20
-21.4755923698
 10
-97.8183543458
 20
-21.4704350319
 10
-97.8662975058
 20
-21.4607336304
 10
-97.9126707336
 20
-21.4464881654
 10
-97.9579155827
 20
-21.4274708695
 10
-98.0015904996
 20
-21.4039095101
 10
-98.0423708236
 20
-21.376487389
 10
-98.0801471431
 20
-21.3450965156
 10
-98.1150288698
 20
-21.3098448807
 10
-98.1460195785
 20
-21.2717397581
 10
-98.1730103976
 20
-21.2306689214
 10
-98.1961101989
 20
-21.1867445971
 10
-98.2146491718
 20
-21.1413107391
 10
-98.2284040463
 20
-21.094815332
 10
-98.2375980926
 20
-21.0468103912
 10
-98.2422313106
 20
-20.9972959167
  0
LINE
  5
389
100
AcDbEntity
  8
RACCORDO
100
AcDbLine
 62
250
  6
CONTINUOUS
 10
-81.659037354
 20
-21.025234649
 11
-81.7041732106
 21
-21.0077183963
  0
LINE
  5
38A
100
AcDbEntity
  8
TRASH
100
AcDbLine
 62
7
  6
CONTINUOUS
 10
-89.6750280085
 20
23.5
 11
-89.6750280085
 21
22.4
  0
LINE
  5
38B
100
AcDbEntity
  8
TRASH
100
AcDbLine
 62
7
  6
CONTINUOUS
 10
-89.6750280085
 20
-23.5
 11
-89.6750280085
 21
-22.4
  0
LINE
  5
38C
100
AcDbEntity
  8
0
100
AcDbLine
 62
7
  6
CONTINUOUS
 10
-89.6750280085
 20
22.4
 11
-89.6750280085
 21
-22.4
  0
LINE
  5
38D
100
AcDbEntity
  8
TRASH
100
AcDbLine
 62
7
  6
CONTINUOUS
 10
-89.6750280085
 20
-16.1196592268
 11
-89.6750280085
 21
16.1196592268
  0
LWPOLYLINE
  5
38E
100
AcDbEntity
  8
RACCORDO
100
AcDbPolyline
 62
250
  6
CONTINUOUS
 90
25
 70
0
 10
-79.782544394
 20
17.7956890594
 10
-79.7980530827
 20
17.7830539511
 10
-79.8140603722
 20
17.7692029721
 10
-79.8304708496
 20
17.7541468445
 10
-79.8471893501
 20
17.7377868838
 10
-79.8641343912
 20
17.7202538251
 10
-79.8812399663
 20
17.701907772
 10
-79.898416706
 20
17.6828167725
 10
-79.9156096353
 20
17.6629622971
 10
-79.9328178981
 20
17.6425738467
 10
-79.9499988309
 20
17.6216844797
 10
-79.9670881773
 20
17.6003100473
 10
-79.9840647473
 20
17.5786505643
 10
-80.0008933605
 20
17.5567386781
 10
-80.0175267515
 20
17.5345932129
 10
-80.0339322784
 20
17.5123932508
 10
-80.0500823075
 20
17.4901720912
 10
-80.0659416124
 20
17.4679501567
 10
-80.0814705998
 20
17.445888751
 10
-80.0966479213
 20
17.4240228509
 10
-80.1114489111
 20
17.4023725618
 10
-80.1258325574
 20
17.3810790587
 10
-80.1397747766
 20
17.3602083872
 10
-80.1532685529
 20
17.3397496636
 10
-80.1663018053
 20
17.3197291193
  0
LINE
  5
38F
100
AcDbEntity
  8
RACCORDO
100
AcDbLine
 62
7
  6
CONTINUOUS
 10
-81.7041732106
 20
-21.1306884717
 11
-85.4785184898
 21
-21.1965699136
  0
LINE
  5
390
100
AcDbEntity
  8
RACCORDO
100
AcDbLine
 62
250
  6
CONTINUOUS
 10
-81.7039280078
 20
-21.0077140908
 11
-85.4785184898
 21
-21.0738952237
  0
LINE
  5
391
100
AcDbEntity
  8
TRASH
100
AcDbLine
 62
7
  6
CONTINUOUS
 10
-83.5255325246
 20
-22.2
 11
-84.0750280085
 21
-22.2
  0
LWPOLYLINE
  5
392
100
AcDbEntity
  8
RACCORDO
100
AcDbPolyline
 62
250
  6
CONTINUOUS
 90
16
 70
0
 10
-80.1663011894
 20
-17.3197291034
 10
-80.0999519465
 20
-17.3442848419
 10
-80.0357898927
 20
-17.3668239863
 10
-79.9738132905
 20
-17.3873464184
 10
-79.9140286942
 20
-17.4058174797
 10
-79.856425244
 20
-17.4223307827
 10
-79.8009757334
 20
-17.4370622463
 10
-79.7476742272
 20
-17.4500375044
 10
-79.696523616
 20
-17.4612738791
 10
-79.6475113951
 20
-17.4708763447
 10
-79.6006136978
 20
-17.4788577949
 10
-79.5558521664
 20
-17.4852301197
 10
-79.5132836882
 20
-17.4900455315
 10
-79.4729269167
 20
-17.493310768
 10
-79.4347616644
 20
-17.4950181432
 10
-79.3987869827
 20
-17.495178195
  0
LWPOLYLINE
  5
393
100
AcDbEntity
  8
RACCORDO
100
AcDbPolyline
 62
250
  6
CONTINUOUS
 90
10
 70
0
 10
-80.1663018051
 20
-19.4420904628
 10
-80.1194380923
 20
-19.4620666102
 10
-80.0739101842
 20
-19.4786789225
 10
-80.0300096242
 20
-19.4908304691
 10
-79.9875190682
 20
-19.4971489226
 10
-79.9469336799
 20
-19.4973908843
 10
-79.9097066862
 20
-19.4925155993
 10
-79.8765185655
 20
-19.4827205431
 10
-79.8470822062
 20
-19.4673698235
 10
-79.821474618
 20
-19.4464466095
  0
LWPOLYLINE
  5
394
100
AcDbEntity
  8
RACCORDO
100
AcDbPolyline
 62
250
  6
CONTINUOUS
 90
10
 70
0
 10
-79.782544394
 20
-17.7956890594
 10
-79.7616822995
 20
-17.8130778548
 10
-79.7426743982
 20
-17.8315001717
 10
-79.7256904357
 20
-17.8510007238
 10
-79.7109238626
 20
-17.8717468972
 10
-79.6984954827
 20
-17.8936938645
 10
-79.6885041151
 20
-17.9165735448
 10
-79.6811301582
 20
-17.940351439
 10
-79.6765805839
 20
-17.9652385319
 10
-79.6750280085
 20
-17.9913486316
  0
LINE
  5
395
100
AcDbEntity
  8
0
100
AcDbLine
 62
250
  6
CONTINUOUS
 10
-98.7330631318
 20
-21.0183142305
 11
-98.728885565
 21
-21.0180910647
  0
LWPOLYLINE
  5
396
100
AcDbEntity
  8
RACCORDO
100
AcDbPolyline
 62
250
  6
CONTINUOUS
 90
4
 70
0
 10
-80.1663018053
 20
-19.4420904629
 10
-80.1146708179
 20
-19.4395896851
 10
-80.0636865159
 20
-19.433374295
 10
-80.0138951609
 20
-19.4235108862
  0
LINE
  5
397
100
AcDbEntity
  8
0
100
AcDbLine
 62
250
  6
CONTINUOUS
 10
-98.728885565
 20
-21.0180910647
 11
-98.2422313106
 21
-20.9972959167
  0
LWPOLYLINE
  5
398
100
AcDbEntity
  8
RACCORDO
100
AcDbPolyline
 62
250
  6
CONTINUOUS
 90
16
 70
0
 10
-80.1663018053
 20
-17.3197295787
 10
-80.1331677716
 20
-17.3703691855
 10
-80.1009375389
 20
-17.4179598594
 10
-80.0697305462
 20
-17.4625980214
 10
-80.039731244
 20
-17.5043869819
 10
-80.010936082
 20
-17.5434311695
 10
-79.9831701564
 20
-17.5798028632
 10
-79.9564863974
 20
-17.6135774429
 10
-79.930958922
 20
-17.644830405
 10
-79.9064591662
 20
-17.6735865397
 10
-79.8830347741
 20
-17.6999214699
 10
-79.8607463648
 20
-17.7238775128
 10
-79.8395090011
 20
-17.7453960023
 10
-79.8193391195
 20
-17.7644840223
 10
-79.8003347434
 20
-17.7812308196
 10
-79.782544394
 20
-17.7956890594
  0
LWPOLYLINE
  5
399
100
AcDbEntity
  8
RACCORDO
100
AcDbPolyline
 62
250
  6
CONTINUOUS
 90
4
 70
0
 10
-85.4785184898
 20
-21.1965699136
 10
-85.4785669007
 20
-21.1962192632
 10
-85.4786086975
 20
-21.1951410879
 10
-85.4786447076
 20
-21.1932991568
  0
LINE
  5
39A
100
AcDbEntity
  8
RACCORDO
100
AcDbLine
 62
250
  6
CONTINUOUS
 10
-85.4786447076
 20
-21.1932991568
 11
-85.4787047127
 21
-21.1871612924
  0
LINE
  5
39B
100
AcDbEntity
  8
RACCORDO
100
AcDbLine
 62
250
  6
CONTINUOUS
 10
-85.4787047127
 20
-21.1871612924
 11
-85.4787510545
 21
-21.1716465287
  0
LINE
  5
39C
100
AcDbEntity
  8
RACCORDO
100
AcDbLine
 62
250
  6
CONTINUOUS
 10
-85.4785184898
 20
21.0738952237
 11
-85.4787544894
 21
21.164455767
  0
LINE
  5
39D
100
AcDbEntity
  8
RACCORDO
100
AcDbLine
 62
7
  6
CONTINUOUS
 10
-85.6750280085
 20
-22.6298666026
 11
-85.6750280085
 21
-21.3965394526
  0
LINE
  5
39E
100
AcDbEntity
  8
TRASH
100
AcDbLine
 62
7
  6
CONTINUOUS
 10
-85.6750280085
 20
-22.6298666026
 11
-85.6750280085
 21
-23.4301797403
  0
LINE
  5
39F
100
AcDbEntity
  8
RACCORDO
100
AcDbLine
 62
7
  6
CONTINUOUS
 10
-85.6750280085
 20
21.3965394526
 11
-85.6750280085
 21
22.6298666026
  0
LINE
  5
3A0
100
AcDbEntity
  8
TRASH
100
AcDbLine
 62
7
  6
CONTINUOUS
 10
-85.6750280085
 20
22.7150476404
 11
-85.6750280085
 21
23.4301797403
  0
LINE
  5
3A1
100
AcDbEntity
  8
RACCORDO
100
AcDbLine
 62
250
  6
CONTINUOUS
 10
-85.4787544894
 20
21.164455767
 11
-85.4787272077
 21
21.1826286012
  0
LWPOLYLINE
  5
3A2
100
AcDbEntity
  8
RACCORDO
100
AcDbPolyline
 62
250
  6
CONTINUOUS
 90
3
 70
0
 10
-85.4787510545
 20
-21.1716465287
 10
-85.4785667132
 20
-21.0858663167
 10
-85.4785184898
 20
-21.0738952237
  0
LWPOLYLINE
  5
3A3
100
AcDbEntity
  8
RACCORDO
100
AcDbPolyline
 62
250
  6
CONTINUOUS
 90
6
 70
0
 10
-85.4787272077
 20
21.1826286012
 10
-85.4786777946
 20
21.1905415363
 10
-85.478645716
 20
21.1932347254
 10
-85.4786094447
 20
21.1951108074
 10
-85.4785672987
 20
21.1962112953
 10
-85.4785184898
 20
21.1965699136
  0
LWPOLYLINE
  5
3A4
100
AcDbEntity
  8
RACCORDO
100
AcDbPolyline
 62
250
  6
CONTINUOUS
 90
13
 70
0
 10
-80.0138951609
 20
-19.4235108862
 10
-79.9658302327
 20
-19.4101051381
 10
-79.9200067137
 20
-19.3933006842
 10
-79.8769155711
 20
-19.3732775725
 10
-79.8370184966
 20
-19.3502503368
 10
-79.8007429599
 20
-19.3244656978
 10
-79.768477628
 20
-19.2961999203
 10
-79.7405682017
 20
-19.2657558523
 10
-79.7173137112
 20
-19.233459681
 10
-79.6989633122
 20
-19.1996574375
 10
-79.6857136164
 20
-19.1647112894
 10
-79.6777065853
 20
-19.1289956604
 10
-79.6750280085
 20
-19.0928932188
  0
LINE
  5
3A5
100
AcDbEntity
  8
DRAFT
100
AcDbLine
 62
7
  6
CONTINUOUS
 10
-65.4854951998
 20
-14.9900670064
 11
-63.9593272217
 21
-14.9100839318
  0
LINE
  5
3A6
100
AcDbEntity
  8
RACCORDO
100
AcDbLine
 62
250
  6
CONTINUOUS
 10
-78.9376246517
 20
-17.2981341878
 11
-66.1659948416
 21
-17.0268827074
  0
LINE
  5
3A7
100
AcDbEntity
  8
RACCORDO
100
AcDbLine
 62
7
  6
CONTINUOUS
 10
-79.3987869827
 20
-17.495178195
 11
-66.1663018053
 21
-17.264204307
  0
LINE
  5
3A8
100
AcDbEntity
  8
RACCORDO
100
AcDbLine
 62
250
  6
CONTINUOUS
 10
-80.1663018053
 20
-17.3197291141
 11
-78.9376246495
 21
-17.2981341874
  0
LWPOLYLINE
  5
3A9
100
AcDbEntity
  8
RACCORDO
100
AcDbPolyline
 62
250
  6
CONTINUOUS
 90
3
 70
0
 10
-89.6750280085
 20
-16.1196592268
 10
-70.096677135
 20
-16.0004966268
 10
-66.1663018053
 20
-15.9764680899
  0
LINE
  5
3AA
100
AcDbEntity
  8
RACCORDO
100
AcDbLine
 62
250
  6
CONTINUOUS
 10
-89.6750280085
 20
-17.359429382
 11
-78.9376246495
 21
-17.2981341874
  0
LINE
  5
3AB
100
AcDbEntity
  8
RACCORDO
100
AcDbLine
 62
250
  6
CONTINUOUS
 10
-65.6750280085
 20
-15.9764680899
 11
-66.1663018053
 21
-15.9764680878
  0
LINE
  5
3AC
100
AcDbEntity
  8
0
100
AcDbLine
 62
7
  6
CONTINUOUS
 10
-65.6750280085
 20
-14.97
 11
-65.4750280085
 21
-14.97
  0
LINE
  5
3AD
100
AcDbEntity
  8
TRASH
100
AcDbLine
 62
7
  6
CONTINUOUS
 10
-84.0750280085
 20
22.2
 11
-84.0750280085
 21
21.1720718961
  0
LINE
  5
3AE
100
AcDbEntity
  8
TRASH
100
AcDbLine
 62
7
  6
CONTINUOUS
 10
-84.0750280085
 20
-22.2
 11
-84.0750280085
 21
-21.1720718961
  0
LWPOLYLINE
  5
3AF
100
AcDbEntity
  8
RACCORDO
100
AcDbPolyline
 62
250
  6
CONTINUOUS
 90
3
 70
0
 10
-81.7035883357
 20
21.091578624
 10
-81.7039407576
 20
21.0326396971
 10
-81.7041732106
 20
21.0077183963
  0
LINE
  5
3B0
100
AcDbEntity
  8
0
100
AcDbLine
 62
7
  6
CONTINUOUS
 10
-65.6750280085
 20
-13.9676
 11
-65.4750280085
 21
-13.9676
  0
LINE
  5
3B1
100
AcDbEntity
  8
RACCORDO
100
AcDbLine
 62
7
  6
CONTINUOUS
 10
-79.6750280085
 20
19.0928932188
 11
-79.6751875717
 21
19.1055240427
  0
LINE
  5
3B2
100
AcDbEntity
  8
RACCORDO
100
AcDbLine
 62
250
  6
CONTINUOUS
 10
-80.1663018053
 20
-19.4420813055
 11
-80.1663018053
 21
-17.3197291141
  0
LINE
  5
3B3
100
AcDbEntity
  8
RACCORDO
100
AcDbLine
 62
250
  6
CONTINUOUS
 10
-80.1663018053
 20
17.3197291113
 11
-80.1663018053
 21
19.4421024555
  0
LINE
  5
3B4
100
AcDbEntity
  8
RACCORDO
100
AcDbLine
 62
7
  6
CONTINUOUS
 10
-79.6750280085
 20
-19.0928932188
 11
-79.6750280085
 21
-17.9913486316
  0
LINE
  5
3B5
100
AcDbEntity
  8
RACCORDO
100
AcDbLine
 62
7
  6
CONTINUOUS
 10
-79.6750280085
 20
17.9913486316
 11
-79.6750280085
 21
19.0928932188
  0
LWPOLYLINE
  5
3B6
100
AcDbEntity
  8
RACCORDO
100
AcDbPolyline
 62
250
  6
CONTINUOUS
 90
10
 70
0
 10
-79.6750280085
 20
17.9913486316
 10
-79.6765806289
 20
17.9652365445
 10
-79.681130683
 20
17.9403490428
 10
-79.6885060509
 20
17.9165722391
 10
-79.6985011766
 20
17.8936964118
 10
-79.7109355622
 20
17.8717543979
 10
-79.7257065908
 20
17.8510102694
 10
-79.7426903738
 20
17.8315080908
 10
-79.7616932874
 20
17.8130823712
 10
-79.782544394
 20
17.7956890594
  0
LWPOLYLINE
  5
3B7
100
AcDbEntity
  8
RACCORDO
100
AcDbPolyline
 62
7
  6
CONTINUOUS
 90
3
 70
0
 10
-85.6714957237
 20
-21.3591170407
 10
-85.6658862945
 20
-21.3367359667
 10
-85.6581179966
 20
-21.3140781558
  0
LINE
  5
3B8
100
AcDbEntity
  8
RACCORDO
100
AcDbLine
 62
7
  6
CONTINUOUS
 10
-65.4754919627
 20
-11.0965170854
 11
-63.8715375272
 21
-11.0685199566
  0
LINE
  5
3B9
100
AcDbEntity
  8
ASSI
100
AcDbLine
 62
7
  6
CONTINUOUS
 10
-65.6750280085
 20
-12.295056
 11
-65.4750280085
 21
-12.295056
  0
LINE
  5
3BA
100
AcDbEntity
  8
RACCORDO
100
AcDbLine
 62
250
  6
CONTINUOUS
 10
-63.6750280085
 20
-12.25
 11
-65.4854951998
 21
-12.25
  0
LINE
  5
3BB
100
AcDbEntity
  8
ASSI
100
AcDbLine
 62
7
  6
CONTINUOUS
 10
-65.6750280085
 20
-10.244959
 11
-65.4750280085
 21
-10.244959
  0
LINE
  5
3BC
100
AcDbEntity
  8
RACCORDO
100
AcDbLine
 62
250
  6
CONTINUOUS
 10
-78.9376246505
 20
-17.2981342321
 11
-78.9367699199
 21
-17.3998784549
  0
LWPOLYLINE
  5
3BD
100
AcDbEntity
  8
RACCORDO
100
AcDbPolyline
 62
250
  6
CONTINUOUS
 90
5
 70
0
 10
-78.9366733524
 20
17.4476871482
 10
-78.936769921
 20
17.4648073514
 10
-78.9369620947
 20
17.4771617128
 10
-78.9372479558
 20
17.4846269523
 10
-78.9376246518
 20
17.4871285765
  0
LWPOLYLINE
  5
3BE
100
AcDbEntity
  8
RACCORDO
100
AcDbPolyline
 62
250
  6
CONTINUOUS
 90
6
 70
0
 10
-78.9367699199
 20
-17.3998784549
 10
-78.9366733516
 20
-17.4476871778
 10
-78.9367699204
 20
-17.464807375
 10
-78.9369620943
 20
-17.4771617295
 10
-78.9372479556
 20
-17.484626961
 10
-78.9376246518
 20
-17.4871285765
  0
LINE
  5
3BF
100
AcDbEntity
  8
RACCORDO
100
AcDbLine
 62
250
  6
CONTINUOUS
 10
-78.936769921
 20
17.3998784163
 11
-78.9366733524
 21
17.4476871482
  0
LINE
  5
3C0
100
AcDbEntity
  8
RACCORDO
100
AcDbLine
 62
250
  6
CONTINUOUS
 10
-78.9376246518
 20
17.2981341875
 11
-78.936769921
 21
17.3998784163
  0
LWPOLYLINE
  5
3C1
100
AcDbEntity
  8
RACCORDO
100
AcDbPolyline
 62
250
  6
CONTINUOUS
 90
8
 70
0
 10
-81.7041732106
 20
-21.1306884717
 10
-81.7039407602
 20
-21.129100449
 10
-81.7037651144
 20
-21.1243555217
 10
-81.7036473919
 20
-21.1164837484
 10
-81.7035883426
 20
-21.1055349961
 10
-81.7035883426
 20
-21.0915786241
 10
-81.7036473919
 20
-21.0747030444
 10
-81.7041732106
 20
-21.0077183963
  0
LINE
  5
3C2
100
AcDbEntity
  8
0
100
AcDbLine
 62
7
  6
CONTINUOUS
 10
-65.6750280085
 20
-8.8500120352
 11
-65.4750280085
 21
-8.8500120352
  0
LWPOLYLINE
  5
3C3
100
AcDbEntity
  8
RACCORDO
100
AcDbPolyline
 62
250
  6
CONTINUOUS
 90
6
 70
0
 10
-81.7041732106
 20
21.1306884717
 10
-81.7039407576
 20
21.129100449
 10
-81.7037651096
 20
21.1243555216
 10
-81.7036473857
 20
21.1164837483
 10
-81.7035883357
 20
21.105534996
 10
-81.7035883357
 20
21.091578624
  0
LINE
  5
3C4
100
AcDbEntity
  8
RACCORDO
100
AcDbLine
 62
250
  6
CONTINUOUS
 10
-75.1663018053
 20
3.3086513684
 11
-75.1663018053
 21
13.2913486316
  0
LINE
  5
3C5
100
AcDbEntity
  8
RACCORDO
100
AcDbLine
 62
7
  6
CONTINUOUS
 10
-74.6750280085
 20
3.8
 11
-74.6750280085
 21
12.8
  0
LWPOLYLINE
  5
3C6
100
AcDbEntity
  8
RACCORDO
100
AcDbPolyline
 62
7
  6
CONTINUOUS
 90
10
 70
0
 10
-85.6581179966
 20
-21.3140781558
 10
-85.6481908297
 20
-21.2911427837
 10
-85.6359598837
 20
-21.267900194
 10
-85.6215700688
 20
-21.2443783025
 10
-85.6054561159
 20
-21.2206629792
 10
-85.5875746563
 20
-21.1968032467
 10
-85.5679690587
 20
-21.1727492418
 10
-85.5472041597
 20
-21.1484385107
 10
-85.5254682379
 20
-21.1238495221
 10
-85.5025730146
 20
-21.0990020435
  0
LWPOLYLINE
  5
3C7
100
AcDbEntity
  8
RACCORDO
100
AcDbPolyline
 62
7
  6
CONTINUOUS
 90
7
 70
0
 10
-74.7886641125
 20
3.6825862051
 10
-74.7378830568
 20
3.7340064696
 10
-74.7164306543
 20
3.7553565986
 10
-74.6992498374
 20
3.7734906415
 10
-74.6868797738
 20
3.7876447649
 10
-74.6788036693
 20
3.7967787862
 10
-74.6750280085
 20
3.8
  0
LWPOLYLINE
  5
3C8
100
AcDbEntity
  8
RACCORDO
100
AcDbPolyline
 62
7
  6
CONTINUOUS
 90
3
 70
0
 10
-74.8813371879
 20
3.5901115639
 10
-74.8179786373
 20
3.6535274867
 10
-74.7886641125
 20
3.6825862051
  0
LINE
  5
3C9
100
AcDbEntity
  8
RACCORDO
100
AcDbLine
 62
7
  6
CONTINUOUS
 10
-74.9857411867
 20
3.4865769762
 11
-74.8813371879
 21
3.5901115639
  0
LINE
  5
3CA
100
AcDbEntity
  8
RACCORDO
100
AcDbLine
 62
7
  6
CONTINUOUS
 10
-75.0220712269
 20
3.4508308403
 11
-74.9857411867
 21
3.4865769762
  0
LWPOLYLINE
  5
3CB
100
AcDbEntity
  8
RACCORDO
100
AcDbPolyline
 62
7
  6
CONTINUOUS
 90
3
 70
0
 10
-75.1663018053
 20
3.3086513684
 10
-75.1303676078
 20
3.3436164998
 10
-75.0220712269
 20
3.4508308403
  0
LINE
  5
3CC
100
AcDbEntity
  8
RACCORDO
100
AcDbLine
 62
250
  6
CONTINUOUS
 10
-63.6750280085
 20
-4.85
 11
-65.4854951998
 21
-4.85
  0
LINE
  5
3CD
100
AcDbEntity
  8
RACCORDO
100
AcDbLine
 62
7
  6
CONTINUOUS
 10
-65.4750280085
 20
-5.103491013
 11
-63.8715375272
 21
-5.1314800434
  0
LWPOLYLINE
  5
3CE
100
AcDbEntity
  8
RACCORDO
100
AcDbPolyline
 62
250
  6
CONTINUOUS
 90
10
 70
0
 10
-79.7825494522
 20
-17.7956864891
 10
-79.7580295781
 20
-17.7390941732
 10
-79.7275554325
 20
-17.6866445645
 10
-79.6916201319
 20
-17.6391863992
 10
-79.6508051657
 20
-17.5974876422
 10
-79.6057709863
 20
-17.5622230601
 10
-79.5572463218
 20
-17.533963302
 10
-79.5060163841
 20
-17.5131656655
 10
-79.4529101622
 20
-17.5001666965
 10
-79.3987870079
 20
-17.4951767433
  0
LINE
  5
3CF
100
AcDbEntity
  8
RACCORDO
100
AcDbLine
 62
7
  6
CONTINUOUS
 10
-65.4759696478
 20
-3.6965254234
 11
-63.8715375272
 21
-3.6685199566
  0
LINE
  5
3D0
100
AcDbEntity
  8
0
100
AcDbLine
 62
7
  6
CONTINUOUS
 10
-65.6750280085
 20
-3.7500119648
 11
-65.4750280085
 21
-3.7500119648
  0
LINE
  5
3D1
100
AcDbEntity
  8
0
100
AcDbLine
 62
7
  6
CONTINUOUS
 10
-65.6750280085
 20
-2.75
 11
-65.4750280085
 21
-2.75
  0
LWPOLYLINE
  5
3D2
100
AcDbEntity
  8
RACCORDO
100
AcDbPolyline
 62
250
  6
CONTINUOUS
 90
10
 70
0
 10
-79.7825495944
 20
17.7956864174
 10
-79.7580294605
 20
17.7390957035
 10
-79.7275551567
 20
17.6866475287
 10
-79.6916197901
 20
17.6391905618
 10
-79.6508048341
 20
17.5974927085
 10
-79.6057707191
 20
17.5622286855
 10
-79.5572461461
 20
17.5339691034
 10
-79.5060162954
 20
17.513171233
 10
-79.4529101219
 20
17.5001716067
 10
-79.3987869413
 20
17.4951805728
  0
LWPOLYLINE
  5
3D3
100
AcDbEntity
  8
RACCORDO
100
AcDbPolyline
 62
250
  6
CONTINUOUS
 90
5
 70
0
 10
-66.1663018053
 20
12.9485203683
 10
-66.167365612
 20
12.9442252352
 10
-66.1682619738
 20
12.9314530412
 10
-66.1689755596
 20
12.9104222373
 10
-66.1694941645
 20
12.8814925272
  0
LINE
  5
3D4
100
AcDbEntity
  8
RACCORDO
100
AcDbLine
 62
250
  6
CONTINUOUS
 10
-66.1654503381
 20
12.9511906791
 11
-66.1663018053
 21
12.9485203683
  0
LINE
  5
3D5
100
AcDbEntity
  8
0
100
AcDbLine
 62
7
  6
CONTINUOUS
 10
-65.6750280085
 20
-1.4801263923
 11
-65.4750280085
 21
-1.4801263923
  0
LWPOLYLINE
  5
3D6
100
AcDbEntity
  8
RACCORDO
100
AcDbPolyline
 62
250
  6
CONTINUOUS
 90
5
 70
0
 10
-66.103266679
 20
12.9536197205
 10
-66.1037684732
 20
12.9492385884
 10
-66.1030377826
 20
12.9364927
 10
-66.1010870678
 20
12.9155994431
 10
-66.0979495976
 20
12.8869151628
  0
LWPOLYLINE
  5
3D7
100
AcDbEntity
  8
RACCORDO
100
AcDbPolyline
 62
250
  6
CONTINUOUS
 90
12
 70
0
 10
-66.0777038718
 20
9.5589571323
 10
-66.1163290498
 20
9.2709611536
 10
-66.1250927397
 20
9.2031776979
 10
-66.1331822837
 20
9.1368827792
 10
-66.1406584122
 20
9.0721246178
 10
-66.1472473463
 20
9.0087814954
 10
-66.1529059933
 20
8.9468459053
 10
-66.1576774458
 20
8.8863253542
 10
-66.1614172033
 20
8.8271206437
 10
-66.164077099
 20
8.7691987077
 10
-66.1657052996
 20
8.7125926124
 10
-66.1663018053
 20
8.6573023576
  0
LINE
  5
3D8
100
AcDbEntity
  8
RACCORDO
100
AcDbLine
 62
7
  6
CONTINUOUS
 10
-65.4759289916
 20
2.2965247137
 11
-63.8715375272
 21
2.2685199566
  0
LWPOLYLINE
  5
3D9
100
AcDbEntity
  8
RACCORDO
100
AcDbPolyline
 62
7
  6
CONTINUOUS
 90
11
 70
0
 10
-85.5682257623
 20
21.1728965618
 10
-85.5839011545
 20
21.19216407
 10
-85.5985685717
 20
21.2113034553
 10
-85.6122511431
 20
21.2302997758
 10
-85.6247053131
 20
21.2491528016
 10
-85.6359110469
 20
21.2678686453
 10
-85.6458883793
 20
21.286441804
 10
-85.6544538584
 20
21.3048546532
 10
-85.6615463335
 20
21.3231015788
 10
-85.6672269552
 20
21.3411889226
 10
-85.6714957237
 20
21.3591170407
  0
LWPOLYLINE
  5
3DA
100
AcDbEntity
  8
RACCORDO
100
AcDbPolyline
 62
250
  6
CONTINUOUS
 90
6
 70
0
 10
-79.7402095603
 20
19.265315322
 10
-79.7169762859
 20
19.232922383
 10
-79.6987084343
 20
19.1991013348
 10
-79.6855751012
 20
19.1642492847
 10
-79.6776656909
 20
19.1287197433
 10
-79.6750280085
 20
19.0928932188
  0
LWPOLYLINE
  5
3DB
100
AcDbEntity
  8
RACCORDO
100
AcDbPolyline
 62
250
  6
CONTINUOUS
 90
7
 70
0
 10
-66.0402443774
 20
12.4588024278
 10
-66.0383939651
 20
12.4250248948
 10
-66.0368706784
 20
12.3908382131
 10
-66.0356745171
 20
12.3562423828
 10
-66.0348054814
 20
12.3212374039
 10
-66.0342635712
 20
12.2858232763
 10
-66.0340487865
 20
12.25
  0
LINE
  5
3DC
100
AcDbEntity
  8
RACCORDO
100
AcDbLine
 62
250
  6
CONTINUOUS
 10
-65.6603073647
 20
13.1784384769
 11
-65.6503368443
 21
12.9128961961
  0
LINE
  5
3DD
100
AcDbEntity
  8
RACCORDO
100
AcDbLine
 62
250
  6
CONTINUOUS
 10
-65.6503368443
 20
12.9128961961
 11
-65.6454779658
 21
12.7647349595
  0
LWPOLYLINE
  5
3DE
100
AcDbEntity
  8
RACCORDO
100
AcDbPolyline
 62
250
  6
CONTINUOUS
 90
5
 70
0
 10
-65.6454779658
 20
12.7647349595
 10
-65.6412745477
 20
12.60516422
 10
-65.6396314389
 20
12.5209401124
 10
-65.6384228218
 20
12.4336341784
 10
-65.6376220253
 20
12.3433127057
  0
LWPOLYLINE
  5
3DF
100
AcDbEntity
  8
RACCORDO
100
AcDbPolyline
 62
7
  6
CONTINUOUS
 90
5
 70
0
 10
-65.67497324
 20
13.4704770449
 10
-65.6747202258
 20
13.4553923604
 10
-65.6746177191
 20
13.4462743227
 10
-65.6745693649
 20
13.4361752588
 10
-65.6745819832
 20
13.4253779124
  0
LWPOLYLINE
  5
3E0
100
AcDbEntity
  8
RACCORDO
100
AcDbPolyline
 62
250
  6
CONTINUOUS
 90
10
 70
0
 10
-66.1659960897
 20
17.0268827122
 10
-66.1667398406
 20
17.0732208851
 10
-66.1661373688
 20
17.1155977518
 10
-66.1649541034
 20
17.1534602556
 10
-66.1644764265
 20
17.186540891
 10
-66.1649008282
 20
17.2141484309
 10
-66.165060032
 20
17.2356908409
 10
-66.1647224372
 20
17.2512316414
 10
-66.1649326643
 20
17.2608458505
 10
-66.1663018053
 20
17.264204307
  0
LWPOLYLINE
  5
3E1
100
AcDbEntity
  8
RACCORDO
100
AcDbPolyline
 62
250
  6
CONTINUOUS
 90
31
 70
0
 10
-65.6750280085
 20
3.1515557841
 10
-65.6758663376
 20
3.2096462875
 10
-65.6782850663
 20
3.2656655678
 10
-65.682139698
 20
3.319613625
 10
-65.6872883345
 20
3.3715767676
 10
-65.6935886303
 20
3.421468687
 10
-65.700895049
 20
3.4690304577
 10
-65.70904085
 20
3.5140585036
 10
-65.7179161465
 20
3.5567564007
 10
-65.7274929727
 20
3.5974759518
 10
-65.7376664868
 20
3.6361804888
 10
-65.7483541414
 20
3.6729066797
 10
-65.7596261417
 20
3.7081163315
 10
-65.7713981343
 20
3.7417738422
 10
-65.7836425627
 20
3.7739148139
 10
-65.7965896929
 20
3.8051078587
 10
-65.8100932343
 20
3.8352253582
 10
-65.8242621964
 20
3.864394931
 10
-65.8398387916
 20
3.8935680446
 10
-65.8570192036
 20
3.923238375
 10
-65.8757508639
 20
3.9529122462
 10
-65.8965300579
 20
3.9820600976
 10
-65.9197137436
 20
4.0111556727
 10
-65.9451291383
 20
4.0397252279
 10
-65.9724666236
 20
4.0658179732
 10
-66.0018606183
 20
4.089339992
 10
-66.033152668
 20
4.1103852008
 10
-66.0654705655
 20
4.1272845584
 10
-66.0984165092
 20
4.1394817176
 10
-66.1321245481
 20
4.1475330256
 10
-66.1664494168
 20
4.1514384824
  0
LINE
  5
3E2
100
AcDbEntity
  8
RACCORDO
100
AcDbLine
 62
250
  6
CONTINUOUS
 10
-66.1682619738
 20
12.5779618259
 11
-66.1663018053
 21
12.4485965208
  0
LINE
  5
3E3
100
AcDbEntity
  8
RACCORDO
100
AcDbLine
 62
250
  6
CONTINUOUS
 10
-66.1663018053
 20
13.4484442159
 11
-66.1640279201
 21
13.293512981
  0
LWPOLYLINE
  5
3E4
100
AcDbEntity
  8
RACCORDO
100
AcDbPolyline
 62
250
  6
CONTINUOUS
 90
7
 70
0
 10
-66.1628462941
 20
3.5567431479
 10
-66.1631193861
 20
3.5852236874
 10
-66.1635238874
 20
3.6089202749
 10
-66.1640527354
 20
3.6275000269
 10
-66.1646974869
 20
3.6408109525
 10
-66.1654503381
 20
3.6488093209
 10
-66.1663018053
 20
3.6514796317
  0
LWPOLYLINE
  5
3E5
100
AcDbEntity
  8
RACCORDO
100
AcDbPolyline
 62
7
  6
CONTINUOUS
 90
10
 70
0
 10
-65.6749985217
 20
13.3515173414
 10
-65.6748812619
 20
13.3388732191
 10
-65.6746564043
 20
13.3261920061
 10
-65.6743118321
 20
13.3134991519
 10
-65.6738316916
 20
13.3007372075
 10
-65.67320197
 20
13.2879716252
 10
-65.6724300812
 20
13.2754091113
 10
-65.6715124721
 20
13.2630604282
 10
-65.6704441896
 20
13.2509188721
 10
-65.6692514306
 20
13.2391605643
  0
LINE
  5
3E6
100
AcDbEntity
  8
RACCORDO
100
AcDbLine
 62
7
  6
CONTINUOUS
 10
-65.6750280085
 20
13.4765253366
 11
-65.67497324
 21
13.4704770449
  0
LINE
  5
3E7
100
AcDbEntity
  8
RACCORDO
100
AcDbLine
 62
250
  6
CONTINUOUS
 10
-66.1694941645
 20
12.6985144983
 11
-66.1682619738
 21
12.5779618259
  0
LINE
  5
3E8
100
AcDbEntity
  8
RACCORDO
100
AcDbLine
 62
250
  6
CONTINUOUS
 10
-66.1640279201
 20
13.293512981
 11
-66.1631039984
 21
13.1977855069
  0
LINE
  5
3E9
100
AcDbEntity
  8
RACCORDO
100
AcDbLine
 62
250
  6
CONTINUOUS
 10
-66.1631039984
 20
13.1977855069
 11
-66.1627046356
 21
13.1131361664
  0
LWPOLYLINE
  5
3EA
100
AcDbEntity
  8
RACCORDO
100
AcDbPolyline
 62
250
  6
CONTINUOUS
 90
7
 70
0
 10
-66.1699144407
 20
3.7979577615
 10
-66.1698089415
 20
3.7548412892
 10
-66.1694942161
 20
3.7185074782
 10
-66.1689756255
 20
3.6895777679
 10
-66.1682620321
 20
3.6685469622
 10
-66.1673656484
 20
3.6557747661
 10
-66.1663018053
 20
3.6514796317
  0
LINE
  5
3EB
100
AcDbEntity
  8
RACCORDO
100
AcDbLine
 62
250
  6
CONTINUOUS
 10
-66.1663018053
 20
-15.9764680899
 11
-66.1657850565
 21
-16.581030976
  0
LINE
  5
3EC
100
AcDbEntity
  8
RACCORDO
100
AcDbLine
 62
250
  6
CONTINUOUS
 10
-66.1663018053
 20
8.6573023576
 11
-66.1664494175
 21
4.1514060558
  0
LINE
  5
3ED
100
AcDbEntity
  8
RACCORDO
100
AcDbLine
 62
250
  6
CONTINUOUS
 10
-66.1663018053
 20
3.1515557841
 11
-66.1663018053
 21
-15.9764680899
  0
LINE
  5
3EE
100
AcDbEntity
  8
RACCORDO
100
AcDbLine
 62
250
  6
CONTINUOUS
 10
-66.1627046356
 20
3.4868638336
 11
-66.1628462941
 21
3.5567431479
  0
LINE
  5
3EF
100
AcDbEntity
  8
RACCORDO
100
AcDbLine
 62
250
  6
CONTINUOUS
 10
-66.0340487865
 20
12.25
 11
-66.0340487865
 21
10.1500000019
  0
LINE
  5
3F0
100
AcDbEntity
  8
RACCORDO
100
AcDbLine
 62
7
  6
CONTINUOUS
 10
-65.6750280085
 20
8.6573022066
 11
-65.6750280085
 21
-16.7642804594
  0
LINE
  5
3F1
100
AcDbEntity
  8
RACCORDO
100
AcDbLine
 62
7
  6
CONTINUOUS
 10
-65.6750280085
 20
13.4484442159
 11
-65.6750280085
 21
16.7642804594
  0
LINE
  5
3F2
100
AcDbEntity
  8
RACCORDO
100
AcDbLine
 62
250
  6
CONTINUOUS
 10
-65.6376220253
 20
12.3433127057
 11
-65.6372414317
 21
10.1500000019
  0
LINE
  5
3F3
100
AcDbEntity
  8
RACCORDO
100
AcDbLine
 62
250
  6
CONTINUOUS
 10
-65.4854949927
 20
-14.9700000051
 11
-65.4854949714
 21
-14.9897250751
  0
LINE
  5
3F4
100
AcDbEntity
  8
RACCORDO
100
AcDbLine
 62
250
  6
CONTINUOUS
 10
-65.4854951915
 20
14.990067006
 11
-65.4854949751
 21
7.4099330054
  0
LINE
  5
3F5
100
AcDbEntity
  8
RACCORDO
100
AcDbLine
 62
250
  6
CONTINUOUS
 10
-65.485495238
 20
-12.2950459911
 11
-65.4854951781
 21
-13.9676
  0
LINE
  5
3F6
100
AcDbEntity
  8
0
100
AcDbLine
 62
7
  6
CONTINUOUS
 10
-65.4750280085
 20
7.3500533865
 11
-65.4750280085
 21
7.3300268904
  0
LINE
  5
3F7
100
AcDbEntity
  8
0
100
AcDbLine
 62
7
  6
CONTINUOUS
 10
-65.4750280085
 20
7.325010703
 11
-65.4750280085
 21
-8.8495520984
  0
LINE
  5
3F8
100
AcDbEntity
  8
ASSI
100
AcDbLine
 62
7
  6
CONTINUOUS
 10
-65.4750280085
 20
-10.244959
 11
-65.4750280085
 21
-12.295056
  0
LINE
  5
3F9
100
AcDbEntity
  8
0
100
AcDbLine
 62
7
  6
CONTINUOUS
 10
-65.4750280085
 20
-13.9676
 11
-65.4750280085
 21
-14.97
  0
LINE
  5
3FA
100
AcDbEntity
  8
RACCORDO
100
AcDbLine
 62
7
  6
CONTINUOUS
 10
-65.6750273078
 20
13.3641455854
 11
-65.6749985217
 21
13.3515173414
  0
LINE
  5
3FB
100
AcDbEntity
  8
RACCORDO
100
AcDbLine
 62
250
  6
CONTINUOUS
 10
-66.1657850565
 20
-16.581030976
 11
-66.1659948416
 21
-17.0268827074
  0
LINE
  5
3FC
100
AcDbEntity
  8
RACCORDO
100
AcDbLine
 62
250
  6
CONTINUOUS
 10
-66.1663018053
 20
13.4484442159
 11
-66.1659940498
 21
17.0268826905
  0
LWPOLYLINE
  5
3FD
100
AcDbEntity
  8
RACCORDO
100
AcDbPolyline
 62
250
  6
CONTINUOUS
 90
7
 70
0
 10
-66.1627046356
 20
13.1131361664
 10
-66.1628462941
 20
13.0432568521
 10
-66.1631193861
 20
13.0147763126
 10
-66.1635238874
 20
12.9910797251
 10
-66.1640527354
 20
12.9724999731
 10
-66.1646974869
 20
12.9591890475
 10
-66.1654503381
 20
12.9511906791
  0
LWPOLYLINE
  5
3FE
100
AcDbEntity
  8
RACCORDO
100
AcDbPolyline
 62
250
  6
CONTINUOUS
 90
5
 70
0
 10
-65.6372414317
 20
10.1500000019
 10
-65.6377206794
 20
10.0466013909
 10
-65.638693749
 20
9.9468978209
 10
-65.6401428042
 20
9.8509224527
 10
-65.6421001827
 20
9.7587654727
  0
LINE
  5
3FF
100
AcDbEntity
  8
RACCORDO
100
AcDbLine
 62
250
  6
CONTINUOUS
 10
-66.1694941726
 20
3.9014855008
 11
-66.1699144407
 21
3.7979577615
  0
LINE
  5
400
100
AcDbEntity
  8
RACCORDO
100
AcDbLine
 62
250
  6
CONTINUOUS
 10
-66.1631039984
 20
3.4022144931
 11
-66.1627046356
 21
3.4868638336
  0
LINE
  5
401
100
AcDbEntity
  8
RACCORDO
100
AcDbLine
 62
7
  6
CONTINUOUS
 10
-65.6748939244
 20
13.3891591508
 11
-65.6750273078
 21
13.3641455854
  0
LWPOLYLINE
  5
402
100
AcDbEntity
  8
RACCORDO
100
AcDbPolyline
 62
250
  6
CONTINUOUS
 90
4
 70
0
 10
-66.1694941645
 20
12.8814925272
 10
-66.1698089185
 20
12.8451587145
 10
-66.1699144381
 20
12.8020422402
 10
-66.1694941645
 20
12.6985144983
  0
LINE
  5
403
100
AcDbEntity
  8
RACCORDO
100
AcDbLine
 62
7
  6
CONTINUOUS
 10
-65.6745819832
 20
13.4253779124
 11
-65.6748939244
 21
13.3891591508
  0
LINE
  5
404
100
AcDbEntity
  8
RACCORDO
100
AcDbLine
 62
250
  6
CONTINUOUS
 10
-66.1682619845
 20
4.0220381723
 11
-66.1694941726
 21
3.9014855008
  0
LINE
  5
405
100
AcDbEntity
  8
RACCORDO
100
AcDbLine
 62
250
  6
CONTINUOUS
 10
-66.1646745869
 20
3.25580014
 11
-66.1631039984
 21
3.4022144931
  0
LINE
  5
406
100
AcDbEntity
  8
RACCORDO
100
AcDbLine
 62
250
  6
CONTINUOUS
 10
-66.1663018053
 20
4.1514034792
 11
-66.1682619845
 21
4.0220381723
  0
LINE
  5
407
100
AcDbEntity
  8
RACCORDO
100
AcDbLine
 62
250
  6
CONTINUOUS
 10
-66.1663018053
 20
3.1515557841
 11
-66.1646745869
 21
3.25580014
  0
LWPOLYLINE
  5
408
100
AcDbEntity
  8
RACCORDO
100
AcDbPolyline
 62
250
  6
CONTINUOUS
 90
8
 70
0
 10
-66.0340487865
 20
10.1500000019
 10
-66.0359035079
 20
10.0573159605
 10
-66.0393014243
 20
9.9674295333
 10
-66.0442425355
 20
9.8803407201
 10
-66.0510556898
 20
9.7962403736
 10
-66.0594120389
 20
9.7149376412
 10
-66.0683250383
 20
9.6358599651
 10
-66.0777038718
 20
9.5589571323
  0
LWPOLYLINE
  5
409
100
AcDbEntity
  8
RACCORDO
100
AcDbPolyline
 62
250
  6
CONTINUOUS
 90
5
 70
0
 10
-65.672563455
 20
8.8514460858
 10
-65.673631807
 20
8.799843692
 10
-65.6744025957
 20
8.7502621775
 10
-65.67487047
 20
8.7027553167
 10
-65.6750280085
 20
8.6573023576
  0
LINE
  5
40A
100
AcDbEntity
  8
RACCORDO
100
AcDbLine
 62
250
  6
CONTINUOUS
 10
-65.6695817273
 20
8.9612360159
 11
-65.672563455
 21
8.8514460858
  0
LINE
  5
40B
100
AcDbEntity
  8
RACCORDO
100
AcDbLine
 62
250
  6
CONTINUOUS
 10
-65.6421001827
 20
9.7587654727
 11
-65.6470232551
 21
9.5853780099
  0
LINE
  5
40C
100
AcDbEntity
  8
RACCORDO
100
AcDbLine
 62
250
  6
CONTINUOUS
 10
-65.6655733805
 20
9.0805737902
 11
-65.6695817273
 21
8.9612360159
  0
LINE
  5
40D
100
AcDbEntity
  8
RACCORDO
100
AcDbLine
 62
250
  6
CONTINUOUS
 10
-65.6470232551
 20
9.5853780099
 11
-65.6525392052
 21
9.4259418158
  0
LINE
  5
40E
100
AcDbEntity
  8
RACCORDO
100
AcDbLine
 62
250
  6
CONTINUOUS
 10
-65.6525392052
 20
9.4259418158
 11
-65.6655733805
 21
9.0805737902
  0
LWPOLYLINE
  5
40F
100
AcDbEntity
  8
RACCORDO
100
AcDbPolyline
 62
250
  6
CONTINUOUS
 90
46
 70
0
 10
-65.6603074475
 20
13.1784382306
 10
-65.660773412
 20
13.1676183636
 10
-65.6613218228
 20
13.1565731538
 10
-65.6619574108
 20
13.1453009984
 10
-65.662683164
 20
13.1337995652
 10
-65.663505779
 20
13.1220680653
 10
-65.6644361347
 20
13.1101072118
 10
-65.665479406
 20
13.0979153412
 10
-65.6666416183
 20
13.0854911593
 10
-65.6679360542
 20
13.0728359201
 10
-65.6693682314
 20
13.0599505804
 10
-65.670945408
 20
13.0468315828
 10
-65.6726849915
 20
13.0334733714
 10
-65.6745921482
 20
13.0198829373
 10
-65.6766764735
 20
13.0060511703
 10
-65.6789645342
 20
12.9919481074
 10
-65.6814619463
 20
12.9775810547
 10
-65.6841812731
 20
12.9629409814
 10
-65.6871638053
 20
12.9479729399
 10
-65.6904185508
 20
12.9326726179
 10
-65.6939602757
 20
12.9170433895
 10
-65.6978450665
 20
12.9010413696
 10
-65.7020843172
 20
12.8846621259
 10
-65.7066972829
 20
12.8679108355
 10
-65.7117597677
 20
12.8507579826
 10
-65.7172863637
 20
12.8331964928
 10
-65.723301493
 20
12.8152374789
 10
-65.7299057491
 20
12.796879357
 10
-65.7371198193
 20
12.7781060167
 10
-65.744971551
 20
12.7589432369
 10
-65.7535839465
 20
12.7394538703
 10
-65.7629662279
 20
12.7196416174
 10
-65.7731647504
 20
12.6995208044
 10
-65.7843739243
 20
12.6791727612
 10
-65.7965748592
 20
12.6585983505
 10
-65.8098502515
 20
12.6378253779
 10
-65.824575398
 20
12.6169793271
 10
-65.8407946179
 20
12.595919328
 10
-65.8585470363
 20
12.5748297476
 10
-65.8782327483
 20
12.5543237522
 10
-65.8999602193
 20
12.5341202143
 10
-65.9236855042
 20
12.5145459046
 10
-65.9495862349
 20
12.4970967487
 10
-65.977709207
 20
12.4822505489
 10
-66.0079548907
 20
12.4694948692
 10
-66.0402443278
 20
12.4588056109
  0
LWPOLYLINE
  5
410
100
AcDbEntity
  8
RACCORDO
100
AcDbPolyline
 62
250
  6
CONTINUOUS
 90
16
 70
0
 10
-65.6750280085
 20
-16.7642804568
 10
-65.677636189
 20
-16.7921840819
 10
-65.6855227263
 20
-16.818743829
 10
-65.6986828536
 20
-16.8441634422
 10
-65.7169307319
 20
-16.8692145055
 10
-65.7400629444
 20
-16.8937943298
 10
-65.7679586613
 20
-16.9166396844
 10
-65.8002411954
 20
-16.9377745414
 10
-65.8364628385
 20
-16.9575546233
 10
-65.8764123054
 20
-16.9749081705
 10
-65.9195567412
 20
-16.9898879652
 10
-65.9653151349
 20
-17.0027866318
 10
-66.0134465086
 20
-17.012769482
 10
-66.0634578252
 20
-17.0197209405
 10
-66.1145456856
 20
-17.0243029965
 10
-66.1659960895
 20
-17.0268827139
  0
LINE
  5
411
100
AcDbEntity
  8
RACCORDO
100
AcDbLine
 62
7
  6
CONTINUOUS
 10
-85.5025730146
 20
-21.0990020435
 11
-85.4785184898
 21
-21.0738952237
  0
LINE
  5
412
100
AcDbEntity
  8
RACCORDO
100
AcDbLine
 62
7
  6
CONTINUOUS
 10
-65.473343951
 20
5.1035204083
 11
-63.8715375272
 21
5.1314800434
  0
LINE
  5
413
100
AcDbEntity
  8
RACCORDO
100
AcDbLine
 62
250
  6
CONTINUOUS
 10
-65.6750280085
 20
3.1515557841
 11
-66.1663018053
 21
3.1515557841
  0
LINE
  5
414
100
AcDbEntity
  8
0
100
AcDbLine
 62
7
  6
CONTINUOUS
 10
-65.6750280085
 20
3.3499999985
 11
-65.4750280085
 21
3.3499999985
  0
LINE
  5
415
100
AcDbEntity
  8
0
100
AcDbLine
 62
7
  6
CONTINUOUS
 10
-65.6750280085
 20
4.099459
 11
-65.4750280085
 21
4.099459
  0
LINE
  5
416
100
AcDbEntity
  8
RACCORDO
100
AcDbLine
 62
250
  6
CONTINUOUS
 10
-66.1663018053
 20
3.1515557841
 11
-75.1663018053
 21
3.3086513684
  0
LINE
  5
417
100
AcDbEntity
  8
RACCORDO
100
AcDbLine
 62
7
  6
CONTINUOUS
 10
-66.1663018053
 20
3.6514796317
 11
-74.6750280085
 21
3.8
  0
LINE
  5
418
100
AcDbEntity
  8
RACCORDO
100
AcDbLine
 62
250
  6
CONTINUOUS
 10
-66.1664494175
 20
4.1514060558
 11
-74.6750280085
 21
4.2999238476
  0
LINE
  5
419
100
AcDbEntity
  8
RACCORDO
100
AcDbLine
 62
7
  6
CONTINUOUS
 10
-74.9857411867
 20
13.1134230238
 11
-74.9153682665
 21
13.0434874494
  0
LWPOLYLINE
  5
41A
100
AcDbEntity
  8
RACCORDO
100
AcDbPolyline
 62
7
  6
CONTINUOUS
 90
6
 70
0
 10
-74.7378830568
 20
12.8659935304
 10
-74.7164306543
 20
12.8446434014
 10
-74.6992498374
 20
12.8265093585
 10
-74.6868797738
 20
12.8123552351
 10
-74.6788036693
 20
12.8032212138
 10
-74.6750280085
 20
12.8
  0
LWPOLYLINE
  5
41B
100
AcDbEntity
  8
RACCORDO
100
AcDbPolyline
 62
7
  6
CONTINUOUS
 90
6
 70
0
 10
-85.4785184891
 20
21.0738952237
 10
-85.4977620233
 20
21.0940826247
 10
-85.5163336548
 20
21.1140789441
 10
-85.5342333837
 20
21.1338847175
 10
-85.5515655243
 20
21.1534853605
 10
-85.5682257623
 20
21.1728965618
  0
LINE
  5
41C
100
AcDbEntity
  8
RACCORDO
100
AcDbLine
 62
250
  6
CONTINUOUS
 10
-79.7681254009
 20
19.2958558279
 11
-79.7402095603
 21
19.265315322
  0
LINE
  5
41D
100
AcDbEntity
  8
RACCORDO
100
AcDbLine
 62
250
  6
CONTINUOUS
 10
-66.0584744179
 20
12.5866731378
 11
-66.0402322364
 21
12.4588038035
  0
LINE
  5
41E
100
AcDbEntity
  8
RACCORDO
100
AcDbLine
 62
250
  6
CONTINUOUS
 10
-66.0748845075
 20
12.7058555916
 11
-66.0584744179
 21
12.5866731378
  0
LWPOLYLINE
  5
41F
100
AcDbEntity
  8
RACCORDO
100
AcDbPolyline
 62
250
  6
CONTINUOUS
 90
4
 70
0
 10
-66.0979495976
 20
12.8869151628
 10
-66.0936788813
 20
12.8509290841
 10
-66.0883477563
 20
12.8082549679
 10
-66.0748845075
 20
12.7058555916
  0
LWPOLYLINE
  5
420
100
AcDbEntity
  8
RACCORDO
100
AcDbPolyline
 62
7
  6
CONTINUOUS
 90
7
 70
0
 10
-65.6692514306
 20
13.2391605643
 10
-65.6679405829
 20
13.2277873615
 10
-65.6665168447
 20
13.2167965512
 10
-65.6650234457
 20
13.2063528402
 10
-65.6634877864
 20
13.196508224
 10
-65.6619115513
 20
13.1872044247
 10
-65.6603073647
 20
13.1784384769
  0
LINE
  5
421
100
AcDbEntity
  8
RACCORDO
100
AcDbLine
 62
250
  6
CONTINUOUS
 10
-63.9593272217
 20
-11.0685199566
 11
-63.9593269892
 21
-14.9100839197
  0
LINE
  5
422
100
AcDbEntity
  8
RACCORDO
100
AcDbLine
 62
250
  6
CONTINUOUS
 10
-63.9593272362
 20
14.9100839326
 11
-63.9593269892
 21
7.4899160803
  0
LINE
  5
423
100
AcDbEntity
  8
RACCORDO
100
AcDbLine
 62
250
  6
CONTINUOUS
 10
-63.9593272217
 20
-3.6685199566
 11
-63.9593274624
 21
-5.1299476644
  0
LINE
  5
424
100
AcDbEntity
  8
RACCORDO
100
AcDbLine
 62
250
  6
CONTINUOUS
 10
-63.8715374911
 20
7.5085203487
 11
-63.8715375272
 21
5.1314800434
  0
LINE
  5
425
100
AcDbEntity
  8
RACCORDO
100
AcDbLine
 62
250
  6
CONTINUOUS
 10
-63.8715375272
 20
2.2685199566
 11
-63.8715375272
 21
-3.6685199566
  0
LINE
  5
426
100
AcDbEntity
  8
RACCORDO
100
AcDbLine
 62
250
  6
CONTINUOUS
 10
-63.8715375272
 20
-5.1314800434
 11
-63.8715375272
 21
-11.0685199566
  0
LINE
  5
427
100
AcDbEntity
  8
RACCORDO
100
AcDbLine
 62
7
  6
CONTINUOUS
 10
-63.6750280085
 20
14.6103760064
 11
-63.6750280085
 21
5.3314495825
  0
LINE
  5
428
100
AcDbEntity
  8
RACCORDO
100
AcDbLine
 62
7
  6
CONTINUOUS
 10
-63.6750280085
 20
2.0685504175
 11
-63.6750280085
 21
-14.6103764515
  0
LINE
  5
429
100
AcDbEntity
  8
RACCORDO
100
AcDbLine
 62
250
  6
CONTINUOUS
 10
-80.1663018053
 20
-19.4420813055
 11
-81.7039280078
 21
-21.0077140908
  0
LINE
  5
42A
100
AcDbEntity
  8
RACCORDO
100
AcDbLine
 62
7
  6
CONTINUOUS
 10
-79.8214746179
 20
-19.4464466094
 11
-82.0310985102
 21
-21.6560705017
  0
LINE
  5
42B
100
AcDbEntity
  8
DRAFT
100
AcDbLine
 62
7
  6
CONTINUOUS
 10
-65.4854951998
 20
7.4099329936
 11
-63.9593272217
 21
7.4899160682
  0
LINE
  5
42C
100
AcDbEntity
  8
0
100
AcDbLine
 62
7
  6
CONTINUOUS
 10
-65.6750280085
 20
5.9
 11
-65.4750280085
 21
5.9
  0
LINE
  5
42D
100
AcDbEntity
  8
0
100
AcDbLine
 62
7
  6
CONTINUOUS
 10
-65.6385308234
 20
7.3250107572
 11
-65.4750280085
 21
7.325011
  0
LINE
  5
42E
100
AcDbEntity
  8
0
100
AcDbLine
 62
7
  6
CONTINUOUS
 10
-65.4750280085
 20
7.3501503732
 11
-65.6176552381
 21
7.3501503732
  0
LWPOLYLINE
  5
42F
100
AcDbEntity
  8
RACCORDO
100
AcDbPolyline
 62
7
  6
CONTINUOUS
 90
5
 70
0
 10
-75.1663018053
 20
13.2913486316
 10
-75.1303676078
 20
13.2563835002
 10
-75.0943905529
 20
13.220888566
 10
-75.0583766182
 20
13.1850713817
 10
-74.9857411867
 20
13.1134230238
  0
LWPOLYLINE
  5
430
100
AcDbEntity
  8
RACCORDO
100
AcDbPolyline
 62
7
  6
CONTINUOUS
 90
3
 70
0
 10
-74.9153682665
 20
13.0434874494
 10
-74.8813371879
 20
13.0098884361
 10
-74.8179786373
 20
12.9464725133
  0
LWPOLYLINE
  5
431
100
AcDbEntity
  8
RACCORDO
100
AcDbPolyline
 62
7
  6
CONTINUOUS
 90
3
 70
0
 10
-74.8179786373
 20
12.9464725133
 10
-74.7886641125
 20
12.9174137949
 10
-74.7378830568
 20
12.8659935304
  0
LINE
  5
432
100
AcDbEntity
  8
RACCORDO
100
AcDbLine
 62
7
  6
CONTINUOUS
 10
-82.0310985102
 20
21.6560705017
 11
-79.8214746179
 21
19.4464466094
  0
LINE
  5
433
100
AcDbEntity
  8
RACCORDO
100
AcDbLine
 62
250
  6
CONTINUOUS
 10
-81.7042188635
 20
21.0077191893
 11
-80.1663018053
 21
19.4421024555
  0
LWPOLYLINE
  5
434
100
AcDbEntity
  8
RACCORDO
100
AcDbPolyline
 62
250
  6
CONTINUOUS
 90
10
 70
0
 10
-66.1663018053
 20
-17.264204307
 10
-66.1649326748
 20
-17.2608458505
 10
-66.1647224556
 20
-17.2512316415
 10
-66.1650600556
 20
-17.2356908414
 10
-66.1649008541
 20
-17.2141484316
 10
-66.1644764524
 20
-17.1865408915
 10
-66.1649541269
 20
-17.153460256
 10
-66.1661373874
 20
-17.1155977525
 10
-66.1667398513
 20
-17.0732208863
 10
-66.1659960895
 20
-17.0268827139
  0
LWPOLYLINE
  5
435
100
AcDbEntity
  8
RACCORDO
100
AcDbPolyline
 62
250
  6
CONTINUOUS
 90
9
 70
0
 10
-81.3593460248
 20
-20.9843180163
 10
-81.3851434392
 20
-21.0058483073
 10
-81.41559345
 20
-21.0234499133
 10
-81.4500315825
 20
-21.0365417628
 10
-81.4873278679
 20
-21.0443741767
 10
-81.5270030141
 20
-21.0468991091
 10
-81.5693167141
 20
-21.044627331
 10
-81.6137659132
 20
-21.0375368183
 10
-81.659037354
 20
-21.025234649
  0
LINE
  5
436
100
AcDbEntity
  8
RACCORDO
100
AcDbLine
 62
250
  6
CONTINUOUS
 10
-65.6750280085
 20
8.6573023576
 11
-66.1663018053
 21
8.6573023576
  0
LINE
  5
437
100
AcDbEntity
  8
RACCORDO
100
AcDbLine
 62
250
  6
CONTINUOUS
 10
-63.6750280085
 20
10.15
 11
-66.0340487865
 21
10.1500000019
  0
LWPOLYLINE
  5
438
100
AcDbEntity
  8
RACCORDO
100
AcDbPolyline
 62
250
  6
CONTINUOUS
 90
10
 70
0
 10
-79.821474618
 20
19.4464466095
 10
-79.8465960446
 20
19.4668518375
 10
-79.8760980119
 20
19.4822681204
 10
-79.9095868024
 20
19.4924896353
 10
-79.9466155737
 20
19.4973799115
 10
-79.9866903217
 20
19.4968736539
 10
-80.0292764721
 20
19.4909776156
 10
-80.0738060115
 20
19.4797705079
 10
-80.1196850631
 20
19.4634019484
 10
-80.1663018052
 20
19.4420904629
  0
LWPOLYLINE
  5
439
100
AcDbEntity
  8
RACCORDO
100
AcDbPolyline
 62
250
  6
CONTINUOUS
 90
9
 70
0
 10
-81.3593460248
 20
20.9843180163
 10
-81.3851434537
 20
21.0058483203
 10
-81.4155934762
 20
21.0234499344
 10
-81.4500316168
 20
21.036541788
 10
-81.4873279049
 20
21.0443742025
 10
-81.5270030486
 20
21.0468991332
 10
-81.5693167433
 20
21.0446273517
 10
-81.6137659353
 20
21.0375368337
 10
-81.6590373664
 20
21.0252346574
  0
LWPOLYLINE
  5
43A
100
AcDbEntity
  8
0
100
AcDbPolyline
 62
7
  6
CONTINUOUS
 90
10
 70
0
 43
0.3500000006
 10
-80.5678846436
 20
42.7499991302
 10
-80.4964534607
 20
42.6071412964
 10
-80.4964534607
 20
42.5357146454
 10
-80.6393158264
 20
42.3928568115
 10
-80.7107379456
 20
42.3928568115
 10
-80.7821691284
 20
42.4642834625
 10
-80.7821691284
 20
42.5357146454
 10
-80.7107379456
 20
42.6785724792
 10
-80.6393158264
 20
42.7499991302
 10
-80.5678846436
 20
42.7499991302
  0
LWPOLYLINE
  5
43B
100
AcDbEntity
  8
RACCORDO
100
AcDbPolyline
 62
250
  6
CONTINUOUS
 90
7
 70
0
 10
-66.0402443774
 20
12.4588024278
 10
-66.0611432892
 20
12.4559913264
 10
-66.0820864648
 20
12.4536242718
 10
-66.1030739042
 20
12.4517012639
 10
-66.1241056074
 20
12.4502223028
 10
-66.1451815745
 20
12.4491873884
 10
-66.1663018053
 20
12.4485965208
  0
LINE
  5
43C
100
AcDbEntity
  8
RACCORDO
100
AcDbLine
 62
250
  6
CONTINUOUS
 10
-66.1663018053
 20
12.4485965208
 11
-74.6750280085
 21
12.3000761524
  0
LINE
  5
43D
100
AcDbEntity
  8
RACCORDO
100
AcDbLine
 62
7
  6
CONTINUOUS
 10
-74.6750280085
 20
12.8
 11
-66.1663018053
 21
12.9485203683
  0
LINE
  5
43E
100
AcDbEntity
  8
RACCORDO
100
AcDbLine
 62
250
  6
CONTINUOUS
 10
-63.6750280085
 20
12.25
 11
-66.0340487865
 21
12.25
  0
LINE
  5
43F
100
AcDbEntity
  8
RACCORDO
100
AcDbLine
 62
250
  6
CONTINUOUS
 10
-75.1663018053
 20
13.2913486316
 11
-66.1663018053
 21
13.4484442159
  0
LINE
  5
440
100
AcDbEntity
  8
RACCORDO
100
AcDbLine
 62
250
  6
CONTINUOUS
 10
-66.1663018053
 20
13.4484442159
 11
-65.6750280085
 21
13.4484442159
  0
LINE
  5
441
100
AcDbEntity
  8
DRAFT
100
AcDbLine
 62
7
  6
CONTINUOUS
 10
-65.4854951998
 20
14.9900670064
 11
-63.9593272217
 21
14.9100839318
  0
LINE
  5
442
100
AcDbEntity
  8
TRASH
100
AcDbLine
 62
7
  6
CONTINUOUS
 10
-83.5255325246
 20
-22.2
 11
-82.0310985102
 21
-21.6560705017
  0
LWPOLYLINE
  5
443
100
AcDbEntity
  8
RACCORDO
100
AcDbPolyline
 62
250
  6
CONTINUOUS
 90
25
 70
0
 10
-79.3987869827
 20
17.495178195
 10
-79.4303064458
 20
17.4951236341
 10
-79.4624357547
 20
17.4939266363
 10
-79.4951738448
 20
17.4916720548
 10
-79.5286679838
 20
17.488448253
 10
-79.5627685903
 20
17.4843362435
 10
-79.5970292905
 20
17.479406885
 10
-79.6313822397
 20
17.4737443426
 10
-79.6658928271
 20
17.4674232486
 10
-79.7003147102
 20
17.4604872222
 10
-79.7346407049
 20
17.4529956222
 10
-79.7688758728
 20
17.445017721
 10
-79.8027924661
 20
17.4365981812
 10
-79.8363822661
 20
17.4277897451
 10
-79.869651501
 20
17.4186515369
 10
-79.9023941707
 20
17.4092317523
 10
-79.9346018557
 20
17.3995774767
 10
-79.9662810795
 20
17.3897403424
 10
-79.9972482644
 20
17.3797729309
 10
-80.0274927653
 20
17.3697179049
 10
-80.0570234204
 20
17.3596196601
 10
-80.0856858527
 20
17.3495324034
 10
-80.113428022
 20
17.3394999737
 10
-80.1403002687
 20
17.3295542122
 10
-80.166301802
 20
17.3197291113
  0
LINE
  5
444
100
AcDbEntity
  8
RACCORDO
100
AcDbLine
 62
250
  6
CONTINUOUS
 10
-66.1663018053
 20
15.9764680899
 11
-65.6750280085
 21
15.9764680899
  0
LINE
  5
445
100
AcDbEntity
  8
RACCORDO
100
AcDbLine
 62
250
  6
CONTINUOUS
 10
-89.6750280085
 20
17.359429382
 11
-78.9376246495
 21
17.2981341874
  0
LINE
  5
446
100
AcDbEntity
  8
RACCORDO
100
AcDbLine
 62
250
  6
CONTINUOUS
 10
-89.6750280085
 20
16.1196592268
 11
-66.1663018053
 21
15.9764680899
  0
LINE
  5
447
100
AcDbEntity
  8
RACCORDO
100
AcDbLine
 62
7
  6
CONTINUOUS
 10
-66.1663018053
 20
17.264204307
 11
-79.3987869827
 21
17.495178195
  0
LINE
  5
448
100
AcDbEntity
  8
RACCORDO
100
AcDbLine
 62
250
  6
CONTINUOUS
 10
-78.9376246495
 20
17.2981341874
 11
-80.1663018053
 21
17.3197291113
  0
LINE
  5
449
100
AcDbEntity
  8
RACCORDO
100
AcDbLine
 62
250
  6
CONTINUOUS
 10
-66.1659940498
 20
17.0268826905
 11
-78.9376246517
 21
17.2981341878
  0
LWPOLYLINE
  5
44A
100
AcDbEntity
  8
RACCORDO
100
AcDbPolyline
 62
250
  6
CONTINUOUS
 90
16
 70
0
 10
-66.1659960897
 20
17.0268827122
 10
-66.114544569
 20
17.0243264923
 10
-66.0634562513
 20
17.0197652693
 10
-66.0134449332
 20
17.0128316151
 10
-65.9653138231
 20
17.0028633225
 10
-65.9195557534
 20
16.9899757421
 10
-65.8764115777
 20
16.9750032673
 10
-65.8364622295
 20
16.9576533726
 10
-65.8002405341
 20
16.9378732307
 10
-65.7679578858
 20
16.9167342164
 10
-65.7400620557
 20
16.89388107
 10
-65.7169297423
 20
16.8692901104
 10
-65.6986819292
 20
16.8442241534
 10
-65.6855221002
 20
16.8187862686
 10
-65.6776359611
 20
16.7922059806
 10
-65.6750280085
 20
16.7642804594
  0
LWPOLYLINE
  5
44B
100
AcDbEntity
  8
RACCORDO
100
AcDbPolyline
 62
250
  6
CONTINUOUS
 90
7
 70
0
 10
-80.0138425378
 20
19.4234983707
 10
-79.9657126875
 20
19.4100673031
 10
-79.9198113891
 20
19.3932197409
 10
-79.8766540341
 20
19.3731418072
 10
-79.8367089593
 20
19.350051816
 10
-79.8004012555
 20
19.3241959542
 10
-79.7681254009
 20
19.2958558279
  0
LINE
  5
44C
100
AcDbEntity
  8
TRASH
100
AcDbLine
 62
7
  6
CONTINUOUS
 10
-83.5255325246
 20
22.2
 11
-82.0310985102
 21
21.6560705017
  0
LWPOLYLINE
  5
44D
100
AcDbEntity
  8
RACCORDO
100
AcDbPolyline
 62
250
  6
CONTINUOUS
 90
4
 70
0
 10
-80.1663018053
 20
19.4420904629
 10
-80.1146761016
 20
19.4395901339
 10
-80.0636736402
 20
19.4333722406
 10
-80.0138425378
 20
19.4234983707
  0
LWPOLYLINE
  5
44E
100
AcDbEntity
  8
0
100
AcDbPolyline
 62
250
  6
CONTINUOUS
 90
3
 70
0
 10
-98.7330170376
 20
21.0183122942
 10
-98.7288400601
 20
21.0180891254
 10
-98.2422313106
 20
20.9972959167
  0
LINE
  5
44F
100
AcDbEntity
  8
0
100
AcDbLine
 62
250
  6
CONTINUOUS
 10
-97.7688412536
 20
21.4755923698
 11
-89.6750280085
 21
21.8997711479
  0
LINE
  5
450
100
AcDbEntity
  8
TRASH
100
AcDbLine
 62
7
  6
CONTINUOUS
 10
-83.5255325246
 20
22.2
 11
-84.0750280085
 21
22.2
  0
LINE
  5
451
100
AcDbEntity
  8
TRASH
100
AcDbLine
 62
7
  6
CONTINUOUS
 10
-85.6750280085
 20
22.6298666026
 11
-86.9983186832
 21
22.6399073311
  0
LINE
  5
452
100
AcDbEntity
  8
TRASH
100
AcDbLine
 62
7
  6
CONTINUOUS
 10
-86.9983186832
 20
22.6399073311
 11
-88.3316851203
 21
22.6510296289
  0
LINE
  5
453
100
AcDbEntity
  8
TRASH
100
AcDbLine
 62
7
  6
CONTINUOUS
 10
-88.3316851203
 20
22.6510296289
 11
-89.6750280085
 21
22.663166622
  0
LINE
  5
454
100
AcDbEntity
  8
RACCORDO
100
AcDbLine
 62
7
  6
CONTINUOUS
 10
-85.4785184898
 20
21.1965699136
 11
-81.7041732106
 21
21.1306884717
  0
LINE
  5
455
100
AcDbEntity
  8
RACCORDO
100
AcDbLine
 62
250
  6
CONTINUOUS
 10
-85.4785184891
 20
21.0738952237
 11
-81.7042188635
 21
21.0077191893
  0
LINE
  5
456
100
AcDbEntity
  8
TRASH
100
AcDbLine
 62
250
  6
CONTINUOUS
 10
-85.6750280085
 20
23.2631073612
 11
-89.6750280085
 21
23.3333596581
  0
LINE
  5
457
100
AcDbEntity
  8
TRASH
100
AcDbLine
 62
7
  6
CONTINUOUS
 10
-87.4416583113
 20
23.1362739618
 11
-89.6750280085
 21
23.1799085618
  0
LINE
  5
458
100
AcDbEntity
  8
TRASH
100
AcDbLine
 62
7
  6
CONTINUOUS
 10
-85.6750280085
 20
23.0998904748
 11
-87.4416583113
 21
23.1362739618
  0
LINE
  5
459
100
AcDbEntity
  8
0
100
AcDbLine
 62
7
  6
CONTINUOUS
 10
-97.7862830285
 20
21.9749071372
 11
-89.6750280085
 21
22.4
  0
LINE
  5
45A
100
AcDbEntity
  8
TRASH
100
AcDbLine
 62
7
  6
CONTINUOUS
 10
-85.6750280085
 20
23.4301797403
 11
-89.6750280085
 21
23.5
  0
LWPOLYLINE
  5
45B
100
AcDbEntity
  8
0
100
AcDbPolyline
 62
7
  6
CONTINUOUS
 90
7
 70
0
 43
0.3500000006
 10
-77.5321726685
 20
34.2500010681
 10
-79.0321731262
 20
34.2500010681
 10
-77.5321726685
 20
36.3928549805
 10
-77.5321726685
 20
36.8214284821
 10
-77.9607416382
 20
37.2500019836
 10
-78.6035950928
 20
37.2500019836
 10
-79.0321731262
 20
36.6071439972
  0
LWPOLYLINE
  5
45C
100
AcDbEntity
  8
0
100
AcDbPolyline
 62
7
  6
CONTINUOUS
 90
6
 70
0
 43
0.3500000006
 10
-85.4964549866
 20
42.2499989777
 10
-84.4250234985
 20
42.2499989777
 10
-84.2107390137
 20
42.4642834625
 10
-84.2107390137
 20
43.5357149506
 10
-84.6393170471
 20
43.9642839203
 10
-85.0678860168
 20
43.9642839203
  0
LWPOLYLINE
  5
45D
100
AcDbEntity
  8
0
100
AcDbPolyline
 62
7
  6
CONTINUOUS
 90
8
 70
0
 43
0.3500000006
 10
-83.3536010742
 20
42.2499989777
 10
-82.496454071
 20
42.2499989777
 10
-82.0678851013
 20
42.6785724792
 10
-82.0678851013
 20
43.5357149506
 10
-82.496454071
 20
43.9642839203
 10
-83.3536010742
 20
43.9642839203
 10
-83.3536010742
 20
45.2499998932
 10
-82.0678851013
 20
45.2499998932
  0
LWPOLYLINE
  5
45E
100
AcDbEntity
  8
0
100
AcDbPolyline
 62
7
  6
CONTINUOUS
 90
8
 70
0
 43
0.3500000006
 10
-79.4964531555
 20
42.2499989777
 10
-78.6393152161
 20
42.2499989777
 10
-78.2107462463
 20
42.6785724792
 10
-78.2107462463
 20
43.5357149506
 10
-78.6393152161
 20
43.9642839203
 10
-79.4964531555
 20
43.9642839203
 10
-79.4964531555
 20
45.2499998932
 10
-78.2107462463
 20
45.2499998932
  0
ARC
  5
45F
100
AcDbEntity
  8
0
100
AcDbCircle
 62
7
  6
CONTINUOUS
 10
-15.0
 20
-4.7768435441
 40
1.7
100
AcDbArc
 50
249.8442919957
 51
255.5015598151
  0
ARC
  5
460
100
AcDbEntity
  8
0
100
AcDbCircle
 62
7
  6
CONTINUOUS
 10
-15.0
 20
-4.7768435441
 40
1.7
100
AcDbArc
 50
284.5113303336
 51
290.1782710151
  0
ARC
  5
461
100
AcDbEntity
  8
TRASH
100
AcDbCircle
 62
7
  6
CONTINUOUS
 10
-17.55
 20
-23.1
 40
0.5
100
AcDbArc
 50
60.887577224
 51
189.196281579
  0
ARC
  5
462
100
AcDbEntity
  8
TRASH
100
AcDbCircle
 62
7
  6
CONTINUOUS
 10
-27.45
 20
-23.1
 40
0.5
100
AcDbArc
 50
350.803718421
 51
119.112422776
  0
ARC
  5
463
100
AcDbEntity
  8
TRASH
100
AcDbCircle
 62
7
  6
CONTINUOUS
 10
-11.25
 20
0.0
 40
28.0
100
AcDbArc
 50
125.9627651514
 51
126.8614108133
  0
ARC
  5
464
100
AcDbEntity
  8
TRASH
100
AcDbCircle
 62
7
  6
CONTINUOUS
 10
-11.25
 20
0.0
 40
28.0
100
AcDbArc
 50
123.5572123136
 51
124.1210936517
  0
ARC
  5
465
100
AcDbEntity
  8
TRASH
100
AcDbCircle
 62
7
  6
CONTINUOUS
 10
-33.75
 20
0.0
 40
28.0
100
AcDbArc
 50
55.8789063483
 51
56.4427876864
  0
ARC
  5
466
100
AcDbEntity
  8
TRASH
100
AcDbCircle
 62
7
  6
CONTINUOUS
 10
-33.75
 20
0.0
 40
28.0
100
AcDbArc
 50
53.1306352597
 51
54.0372348486
  0
ARC
  5
467
100
AcDbEntity
  8
TRASH
100
AcDbCircle
 62
7
  6
CONTINUOUS
 10
-33.75
 20
0.0
 40
28.0
100
AcDbArc
 50
305.9627651514
 51
306.8693647403
  0
ARC
  5
468
100
AcDbEntity
  8
TRASH
100
AcDbCircle
 62
7
  6
CONTINUOUS
 10
-33.75
 20
0.0
 40
28.0
100
AcDbArc
 50
303.5572123136
 51
304.1210936517
  0
ARC
  5
469
100
AcDbEntity
  8
TRASH
100
AcDbCircle
 62
7
  6
CONTINUOUS
 10
-11.25
 20
0.0
 40
28.0
100
AcDbArc
 50
235.8789063483
 51
236.4427876864
  0
ARC
  5
46A
100
AcDbEntity
  8
TRASH
100
AcDbCircle
 62
7
  6
CONTINUOUS
 10
-11.25
 20
0.0
 40
28.0
100
AcDbArc
 50
233.1385891867
 51
234.0372348486
  0
ARC
  5
46B
100
AcDbEntity
  8
RACCORDO
100
AcDbCircle
 62
7
  6
CONTINUOUS
 10
-27.9
 20
-0.0
 40
2.7
100
AcDbArc
 50
270.0
 51
90.0
  0
ARC
  5
46C
100
AcDbEntity
  8
0
100
AcDbCircle
 62
7
  6
CONTINUOUS
 10
-15.2
 20
4.7768435441
 40
1.7
100
AcDbArc
 50
69.8442919957
 51
75.5015598151
  0
ARC
  5
46D
100
AcDbEntity
  8
0
100
AcDbCircle
 62
7
  6
CONTINUOUS
 10
-15.2
 20
4.7768435441
 40
1.7
100
AcDbArc
 50
104.5113303336
 51
110.1782710151
  0
ARC
  5
46E
100
AcDbEntity
  8
0
100
AcDbCircle
 62
7
  6
CONTINUOUS
 10
-26.8
 20
2.6231564559
 40
1.7
100
AcDbArc
 50
249.8442919957
 51
255.5015598151
  0
ARC
  5
46F
100
AcDbEntity
  8
0
100
AcDbCircle
 62
7
  6
CONTINUOUS
 10
-26.8
 20
2.6231564559
 40
1.7
100
AcDbArc
 50
284.5113303336
 51
290.1782710151
  0
ARC
  5
470
100
AcDbEntity
  8
TRASH
100
AcDbCircle
 62
7
  6
CONTINUOUS
 10
-17.55
 20
23.1
 40
0.5
100
AcDbArc
 50
170.803718421
 51
299.112422776
  0
ARC
  5
471
100
AcDbEntity
  8
TRASH
100
AcDbCircle
 62
7
  6
CONTINUOUS
 10
-27.45
 20
23.1
 40
0.5
100
AcDbArc
 50
240.887577224
 51
9.196281579
  0
ARC
  5
472
100
AcDbEntity
  8
0
100
AcDbCircle
 62
7
  6
CONTINUOUS
 10
27.0
 20
-4.7768435441
 40
1.7
100
AcDbArc
 50
249.8442919957
 51
255.5015598151
  0
ARC
  5
473
100
AcDbEntity
  8
0
100
AcDbCircle
 62
7
  6
CONTINUOUS
 10
27.0
 20
-4.7768435441
 40
1.7
100
AcDbArc
 50
284.5113303336
 51
290.1782710151
  0
ARC
  5
474
100
AcDbEntity
  8
TRASH
100
AcDbCircle
 62
7
  6
CONTINUOUS
 10
17.55
 20
-23.1
 40
0.5
100
AcDbArc
 50
350.803718421
 51
119.112422776
  0
ARC
  5
475
100
AcDbEntity
  8
TRASH
100
AcDbCircle
 62
7
  6
CONTINUOUS
 10
27.45
 20
-23.1
 40
0.5
100
AcDbArc
 50
60.887577224
 51
189.196281579
  0
ARC
  5
476
100
AcDbEntity
  8
TRASH
100
AcDbCircle
 62
7
  6
CONTINUOUS
 10
33.75
 20
0.0
 40
28.0
100
AcDbArc
 50
125.9627651514
 51
126.8693647403
  0
ARC
  5
477
100
AcDbEntity
  8
TRASH
100
AcDbCircle
 62
7
  6
CONTINUOUS
 10
33.75
 20
0.0
 40
28.0
100
AcDbArc
 50
123.5572123136
 51
124.1210936517
  0
ARC
  5
478
100
AcDbEntity
  8
TRASH
100
AcDbCircle
 62
7
  6
CONTINUOUS
 10
11.25
 20
0.0
 40
28.0
100
AcDbArc
 50
55.8789063483
 51
56.4427876864
  0
ARC
  5
479
100
AcDbEntity
  8
TRASH
100
AcDbCircle
 62
7
  6
CONTINUOUS
 10
11.25
 20
0.0
 40
28.0
100
AcDbArc
 50
53.1385891867
 51
54.0372348486
  0
ARC
  5
47A
100
AcDbEntity
  8
TRASH
100
AcDbCircle
 62
7
  6
CONTINUOUS
 10
11.25
 20
0.0
 40
28.0
100
AcDbArc
 50
305.9627651514
 51
306.8614108133
  0
ARC
  5
47B
100
AcDbEntity
  8
TRASH
100
AcDbCircle
 62
7
  6
CONTINUOUS
 10
11.25
 20
0.0
 40
28.0
100
AcDbArc
 50
303.5572123136
 51
304.1210936517
  0
ARC
  5
47C
100
AcDbEntity
  8
TRASH
100
AcDbCircle
 62
7
  6
CONTINUOUS
 10
33.75
 20
0.0
 40
28.0
100
AcDbArc
 50
235.8789063483
 51
236.4427876864
  0
ARC
  5
47D
100
AcDbEntity
  8
TRASH
100
AcDbCircle
 62
7
  6
CONTINUOUS
 10
33.75
 20
0.0
 40
28.0
100
AcDbArc
 50
233.1306352597
 51
234.0372348486
  0
ARC
  5
47E
100
AcDbEntity
  8
RACCORDO
100
AcDbCircle
 62
7
  6
CONTINUOUS
 10
14.1
 20
-0.0
 40
2.7
100
AcDbArc
 50
270.0
 51
90.0
  0
ARC
  5
47F
100
AcDbEntity
  8
0
100
AcDbCircle
 62
7
  6
CONTINUOUS
 10
26.8
 20
4.7768435441
 40
1.7
100
AcDbArc
 50
69.8442919957
 51
75.5015598151
  0
ARC
  5
480
100
AcDbEntity
  8
0
100
AcDbCircle
 62
7
  6
CONTINUOUS
 10
26.8
 20
4.7768435441
 40
1.7
100
AcDbArc
 50
104.5113303336
 51
110.1782710151
  0
ARC
  5
481
100
AcDbEntity
  8
0
100
AcDbCircle
 62
7
  6
CONTINUOUS
 10
15.2
 20
2.6231564559
 40
1.7
100
AcDbArc
 50
249.8442919957
 51
255.5015598151
  0
ARC
  5
482
100
AcDbEntity
  8
0
100
AcDbCircle
 62
7
  6
CONTINUOUS
 10
15.2
 20
2.6231564559
 40
1.7
100
AcDbArc
 50
284.5113303336
 51
290.1782710151
  0
ARC
  5
483
100
AcDbEntity
  8
RACCORDO
100
AcDbCircle
 62
7
  6
CONTINUOUS
 10
21.5
 20
6.2
 40
0.6
100
AcDbArc
 50
284.5157437541
 51
360.0
  0
ARC
  5
484
100
AcDbEntity
  8
TRASH
100
AcDbCircle
 62
7
  6
CONTINUOUS
 10
17.55
 20
23.1
 40
0.5
100
AcDbArc
 50
240.887577224
 51
9.196281579
  0
ARC
  5
485
100
AcDbEntity
  8
TRASH
100
AcDbCircle
 62
7
  6
CONTINUOUS
 10
27.45
 20
23.1
 40
0.5
100
AcDbArc
 50
170.803718421
 51
299.112422776
  0
ARC
  5
486
100
AcDbEntity
  8
RACCORDO
100
AcDbCircle
 62
250
  6
CONTINUOUS
 10
21.5
 20
6.2000595519
 40
0.4297504618
100
AcDbArc
 50
290.4611927963
 51
359.9961692008
  0
ARC
  5
487
100
AcDbEntity
  8
0
100
AcDbCircle
 62
7
  6
CONTINUOUS
 10
22.0
 20
5.5975
 40
0.1
100
AcDbArc
 50
270.0
 51
360.0
  0
ARC
  5
488
100
AcDbEntity
  8
0
100
AcDbCircle
 62
7
  6
CONTINUOUS
 10
-97.7339470722
 20
-20.9762776025
 40
1.0
100
AcDbArc
 50
182.4092313014
 51
267.0
  0
ARC
  5
489
100
AcDbEntity
  8
RACCORDO
100
AcDbCircle
 62
7
  6
CONTINUOUS
 10
-80.1750280085
 20
-19.0928932188
 40
0.5
100
AcDbArc
 50
315.0
 51
360.0
  0
ARC
  5
48A
100
AcDbEntity
  8
RACCORDO
100
AcDbCircle
 62
7
  6
CONTINUOUS
 10
-81.7128994138
 20
-20.6307646241
 40
0.5
100
AcDbArc
 50
271.0
 51
315.0
  0
ARC
  5
48B
100
AcDbEntity
  8
RACCORDO
100
AcDbCircle
 62
7
  6
CONTINUOUS
 10
-66.1750280085
 20
-16.7642804594
 40
0.5
100
AcDbArc
 50
271.0
 51
360.0
  0
ARC
  5
48C
100
AcDbEntity
  8
RACCORDO
100
AcDbCircle
 62
7
  6
CONTINUOUS
 10
-79.1750280085
 20
-17.9913483535
 40
0.499999861
100
AcDbArc
 50
91.0000005561
 51
180.0
  0
ARC
  5
48D
100
AcDbEntity
  8
RACCORDO
100
AcDbCircle
 62
7
  6
CONTINUOUS
 10
-63.9750280085
 20
-14.6104950714
 40
0.3
100
AcDbArc
 50
273.0
 51
360.0
  0
ARC
  5
48E
100
AcDbEntity
  8
RACCORDO
100
AcDbCircle
 62
7
  6
CONTINUOUS
 10
-65.4750280085
 20
-15.1897929133
 40
0.2
100
AcDbArc
 50
93.0
 51
180.0
  0
ARC
  5
48F
100
AcDbEntity
  8
RACCORDO
100
AcDbCircle
 62
7
  6
CONTINUOUS
 10
-85.4750280085
 20
-21.3965394526
 40
0.2
100
AcDbArc
 50
91.0
 51
180.0
  0
ARC
  5
490
100
AcDbEntity
  8
RACCORDO
100
AcDbCircle
 62
7
  6
CONTINUOUS
 10
-63.8750280085
 20
-3.4685504175
 40
0.2
100
AcDbArc
 50
271.0000000168
 51
360.0
  0
ARC
  5
491
100
AcDbEntity
  8
RACCORDO
100
AcDbCircle
 62
7
  6
CONTINUOUS
 10
-63.8750280085
 20
-5.3314495825
 40
0.2
100
AcDbArc
 50
0.0
 51
88.9999999831
  0
ARC
  5
492
100
AcDbEntity
  8
RACCORDO
100
AcDbCircle
 62
7
  6
CONTINUOUS
 10
-63.8750280085
 20
-10.8685504175
 40
0.2
100
AcDbArc
 50
271.0000000168
 51
360.0
  0
ARC
  5
493
100
AcDbEntity
  8
0
100
AcDbCircle
 62
7
  6
CONTINUOUS
 10
-97.7339470722
 20
20.9762776025
 40
1.0
100
AcDbArc
 50
93.0
 51
177.5907686986
  0
ARC
  5
494
100
AcDbEntity
  8
RACCORDO
100
AcDbCircle
 62
7
  6
CONTINUOUS
 10
-80.1750280085
 20
19.0928932188
 40
0.5
100
AcDbArc
 50
1.4475397873
 51
45.0
  0
ARC
  5
495
100
AcDbEntity
  8
RACCORDO
100
AcDbCircle
 62
7
  6
CONTINUOUS
 10
-66.1750280085
 20
3.1515557841
 40
0.5
100
AcDbArc
 50
0.0
 51
89.0
  0
ARC
  5
496
100
AcDbEntity
  8
RACCORDO
100
AcDbCircle
 62
7
  6
CONTINUOUS
 10
-66.1750280085
 20
13.4484442159
 40
0.5
100
AcDbArc
 50
271.0
 51
360.0
  0
ARC
  5
497
100
AcDbEntity
  8
RACCORDO
100
AcDbCircle
 62
7
  6
CONTINUOUS
 10
-81.7128994138
 20
20.6307646241
 40
0.5
100
AcDbArc
 50
45.0
 51
89.0
  0
ARC
  5
498
100
AcDbEntity
  8
RACCORDO
100
AcDbCircle
 62
7
  6
CONTINUOUS
 10
-66.1750280085
 20
16.7642804594
 40
0.5
100
AcDbArc
 50
0.0
 51
89.0
  0
ARC
  5
499
100
AcDbEntity
  8
RACCORDO
100
AcDbCircle
 62
7
  6
CONTINUOUS
 10
-79.1750283999
 20
17.9913486384
 40
0.4999998043
100
AcDbArc
 50
180.0000007829
 51
269.000044857
  0
ARC
  5
49A
100
AcDbEntity
  8
RACCORDO
100
AcDbCircle
 62
7
  6
CONTINUOUS
 10
-63.9750280085
 20
14.6104950714
 40
0.3
100
AcDbArc
 50
0.0
 51
87.0
  0
ARC
  5
49B
100
AcDbEntity
  8
RACCORDO
100
AcDbCircle
 62
7
  6
CONTINUOUS
 10
-63.9750280085
 20
7.7895049286
 40
0.3
100
AcDbArc
 50
273.0
 51
360.0
  0
ARC
  5
49C
100
AcDbEntity
  8
RACCORDO
100
AcDbCircle
 62
7
  6
CONTINUOUS
 10
-65.4750280085
 20
7.2102070867
 40
0.2
100
AcDbArc
 50
93.0
 51
180.0
  0
ARC
  5
49D
100
AcDbEntity
  8
RACCORDO
100
AcDbCircle
 62
7
  6
CONTINUOUS
 10
-65.4750280085
 20
15.1897929133
 40
0.2
100
AcDbArc
 50
180.0
 51
267.0
  0
ARC
  5
49E
100
AcDbEntity
  8
RACCORDO
100
AcDbCircle
 62
7
  6
CONTINUOUS
 10
-85.4750280085
 20
21.3965394526
 40
0.2
100
AcDbArc
 50
180.0
 51
269.0
  0
ARC
  5
49F
100
AcDbEntity
  8
RACCORDO
100
AcDbCircle
 62
7
  6
CONTINUOUS
 10
-63.8750280085
 20
5.3314495825
 40
0.2
100
AcDbArc
 50
271.0000000169
 51
360.0
  0
ARC
  5
4A0
100
AcDbEntity
  8
RACCORDO
100
AcDbCircle
 62
7
  6
CONTINUOUS
 10
-63.8750280085
 20
2.0685504175
 40
0.2
100
AcDbArc
 50
0.0
 51
88.9999999831
  0
ARC
  5
4A1
100
AcDbEntity
  8
RACCORDO
100
AcDbCircle
 62
7
  6
CONTINUOUS
 10
400.8249719915
 20
0.0
 40
500.0
100
AcDbArc
 50
179.1113466186
 51
179.1956123992
  0
ARC
  5
4A2
100
AcDbEntity
  8
RACCORDO
100
AcDbCircle
 62
7
  6
CONTINUOUS
 10
400.8249719915
 20
0.0
 40
500.0
100
AcDbArc
 50
179.1981824936
 51
179.4324219588
  0
ARC
  5
4A3
100
AcDbEntity
  8
RACCORDO
100
AcDbCircle
 62
7
  6
CONTINUOUS
 10
400.8249719915
 20
0.0
 40
500.0
100
AcDbArc
 50
180.8043876009
 51
180.8886533814
  0
ARC
  5
4A4
100
AcDbEntity
  8
RACCORDO
100
AcDbCircle
 62
7
  6
CONTINUOUS
 10
400.8249719915
 20
0.0
 40
500.0
100
AcDbArc
 50
180.6746031546
 51
180.8018175065
  0
ARC
  5
4A5
100
AcDbEntity
  8
RACCORDO
100
AcDbCircle
 62
7
  6
CONTINUOUS
 10
400.8249719915
 20
-0.0
 40
500.0
100
AcDbArc
 50
179.6560168679
 51
180.2677681591
  0
ARC
  5
4A6
100
AcDbEntity
  8
0
100
AcDbCircle
 62
7
  6
CONTINUOUS
 10
400.8249719915
 20
0.0
 40
500.0
100
AcDbArc
 50
177.5907686986
 51
182.4092313014
  0
ELLIPSE
  5
4A7
100
AcDbEntity
  8
0
100
AcDbEllipse
 62
7
  6
CONTINUOUS
 10
-33.149923836
 20
21.899313827
 30
0.0
 11
-0.1582391023
 21
0.4751033573
 31
0.0
 40
0.9984778551
 41
-0.3210503505
 42
1.2488325878
  0
ELLIPSE
  5
4A8
100
AcDbEntity
  8
0
100
AcDbEllipse
 62
7
  6
CONTINUOUS
 10
33.149923836
 20
-21.899313827
 30
0.0
 11
-0.1582391023
 21
0.4751033573
 31
0.0
 40
0.9984778551
 41
-3.4626430041
 42
-1.8927600658
  0
ELLIPSE
  5
4A9
100
AcDbEntity
  8
0
100
AcDbEllipse
 62
7
  6
CONTINUOUS
 10
33.149923836
 20
21.899313827
 30
0.0
 11
0.1582391023
 21
0.4751033573
 31
0.0
 40
0.9984778551
 41
-1.2488325878
 42
0.3210503505
  0
ELLIPSE
  5
4AA
100
AcDbEntity
  8
0
100
AcDbEllipse
 62
7
  6
CONTINUOUS
 10
-33.149923836
 20
-21.899313827
 30
0.0
 11
0.1582391023
 21
0.4751033573
 31
0.0
 40
0.9984778551
 41
-4.3904252414
 42
-2.8205423031
  0
ENDSEC
  0
SECTION
  2
OBJECTS
  0
DICTIONARY
  5
C
100
AcDbDictionary
280
0
281
1
  3
ACAD_GROUP
350
D
  3
ACAD_MLINESTYLE
350
17
  3
ACAD_LAYOUT
350
1A
  3
ACAD_PLOTSETTINGS
350
19
  3
ACAD_PLOTSTYLENAME
350
E
  0
DICTIONARY
  5
D
102
{ACAD_REACTORS
330
C
102
}
100
AcDbDictionary
280
0
281
1
  0
ACDBDICTIONARYWDFLT
  5
E
102
{ACAD_REACTORS
330
C
102
}
100
AcDbDictionary
281
1
  3
Normal
350
F
100
AcDbDictionaryWithDefault
340
F
  0
DICTIONARY
  5
17
102
{ACAD_REACTORS
330
C
102
}
100
AcDbDictionary
280
0
281
1
  3
Standard
350
18
  0
DICTIONARY
  5
19
102
{ACAD_REACTORS
330
C
102
}
100
AcDbDictionary
281
1
  0
DICTIONARY
  5
1A
102
{ACAD_REACTORS
330
C
102
}
100
AcDbDictionary
281
1
  3
Model
350
4AB
  3
Layout1
350
4AC
  0
ACDBPLACEHOLDER
  5
F
102
{ACAD_REACTORS
330
E
102
}
  0
MLINESTYLE
  5
18
102
{ACAD_REACTORS
330
17
102
}
100
AcDbMlineStyle
  2
STANDARD
 70
0
  3

 62
256
 51
90.0
 52
90.0
 71
2
 49
0.5
 62
256
  6
BYLAYER
 49
-0.5
 62
256
  6
BYLAYER
  0
LAYOUT
  5
4AB
102
{ACAD_REACTORS
330
1A
102
}
100
AcDbPlotSettings
  1

  2
none_device
  4
ISO_A4_(297.00_x_210.00_MM)
  6

 40
0.0
 41
0.0
 42
0.0
 43
0.0
 44
297.0
 45
210.0
 46
0.0
 47
0.0
 48
0.0
 49
0.0
140
0.0
141
0.0
142
1.0
143
1.0
 70
1024
 72
1
 73
0
 74
0
  7

 75
0
147
1.0
148
0.0
149
0.0
100
AcDbLayout
  1
Model
 70
0
 71
0
 10
0.0
 20
0.0
 11
297.0
 21
210.0
 12
0.0
 22
0.0
 32
0.0
 14
0.0
 24
0.0
 34
0.0
 15
0.0
 25
0.0
 35
0.0
146
0.0
 13
0.0
 23
0.0
 33
0.0
 16
1.0
 26
0.0
 36
0.0
 17
0.0
 27
1.0
 37
0.0
 76
0
330
215
345
0
346
0
  0
LAYOUT
  5
4AC
102
{ACAD_REACTORS
330
1A
102
}
100
AcDbPlotSettings
  1

  2
none_device
  4
ISO_A4_(297.00_x_210.00_MM)
  6

 40
0.0
 41
0.0
 42
0.0
 43
0.0
 44
297.0
 45
210.0
 46
0.0
 47
0.0
 48
0.0
 49
0.0
140
0.0
141
0.0
142
1.0
143
1.0
 70
0
 72
1
 73
0
 74
0
  7

 75
0
147
1.0
148
0.0
149
0.0
100
AcDbLayout
  1
Layout1
 70
0
 71
1
 10
0.0
 20
0.0
 11
297.0
 21
210.0
 12
0.0
 22
0.0
 32
0.0
 14
0.0
 24
0.0
 34
0.0
 15
0.0
 25
0.0
 35
0.0
146
0.0
 13
0.0
 23
0.0
 33
0.0
 16
1.0
 26
0.0
 36
0.0
 17
0.0
 27
1.0
 37
0.0
 76
0
330
216
345
0
346
0
  0
ENDSEC
  0
EOF
