  0
SECTION
  2
HEADER
  9
$ACADVER
  1
AC1015
  9
$DWGCODEPAGE
  3
ANSI_1252
  9
$EXTMAX
 10
297.0
 20
210.0
 30
0.0
  9
$EXTMIN
 10
0.0
 20
0.0
 30
0.0
  9
$LIMMIN
 10
0.0
 20
0.0
  9
$LIMMAX
 10
297.0
 20
210.0
  9
$VIEWCTR
 10
148.5
 20
105.0
  9
$VIEWSIZE
 40
210.0
  9
$CLAYER
  8
0
  9
$LTSCALE
 40
16.335
  9
$CELTYPE
  6
BYLAYER
  9
$DIMSCALE
 40
1.0
  9
$DIMASZ
 40
3.0
  9
$DIMEXO
 40
1.85625
  9
$DIMDLI
 40
11.286
  9
$DIMEXE
 40
5.346
  9
$DIMCEN
 40
2.673
  9
$DIMLFAC
 40
1.0
  9
$DIMBLK
  1
_FILLED
  9
$DIMTXT
 40
3.0
  9
$DIMTOL
 70
1
  9
$DIMLIM
 70
0
  9
$DIMTFAC
 40
1.0
  9
$DIMTP
 40
0.01
  9
$DIMTM
 40
0.01
  9
$PDMODE
 70
3
  9
$PDSIZE
 40
3.0
  9
$HANDSEED
  5
47D
  9
$TILEMODE
 70
1
  9
$MEASUREMENT
 70
1
  9
$INSUNITS
 70
4
  0
ENDSEC
  0
SECTION
  2
CLASSES
  0
CLASS
  1
ACDBDICTIONARYWDFLT
  2
AcDbDictionaryWithDefault
  3
AutoCAD 2000
 90
0
280
0
281
0
  0
CLASS
  1
ACDBPLACEHOLDER
  2
AcDbPlaceHolder
  3
AutoCAD 2000
 90
0
280
0
281
0
  0
CLASS
  1
LAYOUT
  2
AcDbLayout
  3
AutoCAD 2000
 90
0
280
0
281
0
  0
ENDSEC
  0
SECTION
  2
TABLES
  0
TABLE
  2
VPORT
  5
8
100
AcDbSymbolTable
 70
2
  0
VPORT
  5
1F4
100
AcDbSymbolTableRecord
100
AcDbViewportTableRecord
  2
*ACTIVE
 70
0
 10
0.0
 20
0.0
 11
1.0
 21
1.0
 12
148.5
 22
105.0
 13
0.0
 23
0.0
 14
1.0
 24
1.0
 15
0.0
 25
0.0
 16
0.0
 26
0.0
 36
1.0
 17
0.0
 27
0.0
 37
0.0
 40
210.0
 41
1.4142857143
 42
50.0
 43
0.0
 44
0.0
 50
0.0
 51
0.0
 71
0
 72
100
 73
1
 74
1
 75
0
 76
0
 77
0
 78
0
  0
ENDTAB
  0
TABLE
  2
LTYPE
  5
5
100
AcDbSymbolTable
 70
6
  0
LTYPE
  5
14
100
AcDbSymbolTableRecord
100
AcDbLinetypeTableRecord
  2
BYBLOCK
 70
0
  3

 72
65
 73
0
 40
0.0
  0
LTYPE
  5
15
100
AcDbSymbolTableRecord
100
AcDbLinetypeTableRecord
  2
BYLAYER
 70
0
  3

 72
65
 73
0
 40
0.0
  0
LTYPE
  5
16
100
AcDbSymbolTableRecord
100
AcDbLinetypeTableRecord
  2
CONTINUOUS
 70
64
  3
Solid line
 72
65
 73
0
 40
0.0
  0
LTYPE
  5
1F5
100
AcDbSymbolTableRecord
100
AcDbLinetypeTableRecord
  2
CENTER
 70
64
  3
____ _ ____ _ ____ _ ____ _ ____ _ ____ _ ____
 72
65
 73
4
 40
0.6
 49
0.375
 74
0
 49
-0.075
 74
0
 49
0.075
 74
0
 49
-0.075
 74
0
  0
LTYPE
  5
1F6
100
AcDbSymbolTableRecord
100
AcDbLinetypeTableRecord
  2
HIDDEN
 70
64
  3
- - - - - - - - - - - - - - - - - - - -
 72
65
 73
2
 40
0.2
 49
0.1
 74
0
 49
-0.1
 74
0
  0
LTYPE
  5
1F7
100
AcDbSymbolTableRecord
100
AcDbLinetypeTableRecord
  2
PHANTOM
 70
64
  3
_____ _ _ _____ _ _ _____ _ _ _____
 72
65
 73
6
 40
0.8
 49
0.45
 74
0
 49
-0.05
 74
0
 49
0.1
 74
0
 49
-0.05
 74
0
 49
0.1
 74
0
 49
-0.05
 74
0
  0
LTYPE
  5
1F8
100
AcDbSymbolTableRecord
100
AcDbLinetypeTableRecord
  2
DOT
 70
64
  3
. . . . . . . . . . . . . . . . . . . .
 72
65
 73
2
 40
0.2
 49
0.1
 74
0
 49
-0.1
 74
0
  0
LTYPE
  5
1F9
100
AcDbSymbolTableRecord
100
AcDbLinetypeTableRecord
  2
DASHED
 70
64
  3
- - - - - - - - - - - - - - - - - - - -
 72
65
 73
2
 40
0.2
 49
0.1
 74
0
 49
-0.1
 74
0
  0
ENDTAB
  0
TABLE
  2
LAYER
  5
2
100
AcDbSymbolTable
 70
36
  0
LAYER
  5
10
100
AcDbSymbolTableRecord
100
AcDbLayerTableRecord
  2
0
 70
0
 62
7
  6
CONTINUOUS
370
-3
390
F
  0
LAYER
  5
1FA
100
AcDbSymbolTableRecord
100
AcDbLayerTableRecord
  2
DEFAULT_1
 70
0
 62
7
  6
CENTER
370
-3
390
F
  0
LAYER
  5
1FB
100
AcDbSymbolTableRecord
100
AcDbLayerTableRecord
  2
DEFAULT_2
 70
0
 62
7
  6
HIDDEN
370
-3
390
F
  0
LAYER
  5
1FC
100
AcDbSymbolTableRecord
100
AcDbLayerTableRecord
  2
DEFAULT_3
 70
0
 62
7
  6
PHANTOM
370
-3
390
F
  0
LAYER
  5
1FD
100
AcDbSymbolTableRecord
100
AcDbLayerTableRecord
  2
ASSI
 70
0
 62
7
  6
CONTINUOUS
370
-3
390
F
  0
LAYER
  5
1FE
100
AcDbSymbolTableRecord
100
AcDbLayerTableRecord
  2
COORDINATE
 70
0
 62
7
  6
CONTINUOUS
370
-3
390
F
  0
LAYER
  5
1FF
100
AcDbSymbolTableRecord
100
AcDbLayerTableRecord
  2
COORD_ORIGINE
 70
0
 62
7
  6
CONTINUOUS
370
-3
390
F
  0
LAYER
  5
200
100
AcDbSymbolTableRecord
100
AcDbLayerTableRecord
  2
COPY_PUBLISH
 70
0
 62
7
  6
CONTINUOUS
370
-3
390
F
  0
LAYER
  5
201
100
AcDbSymbolTableRecord
100
AcDbLayerTableRecord
  2
COSMETICHE
 70
0
 62
7
  6
CONTINUOUS
370
-3
390
F
  0
LAYER
  5
202
100
AcDbSymbolTableRecord
100
AcDbLayerTableRecord
  2
COSMETICI
 70
0
 62
7
  6
CONTINUOUS
370
-3
390
F
  0
LAYER
  5
203
100
AcDbSymbolTableRecord
100
AcDbLayerTableRecord
  2
CURVE
 70
0
 62
7
  6
CONTINUOUS
370
-3
390
F
  0
LAYER
  5
204
100
AcDbSymbolTableRecord
100
AcDbLayerTableRecord
  2
DRAFT
 70
0
 62
7
  6
CONTINUOUS
370
-3
390
F
  0
LAYER
  5
205
100
AcDbSymbolTableRecord
100
AcDbLayerTableRecord
  2
IMPORT_IGES
 70
0
 62
7
  6
CONTINUOUS
370
-3
390
F
  0
LAYER
  5
206
100
AcDbSymbolTableRecord
100
AcDbLayerTableRecord
  2
INTF_1
 70
0
 62
7
  6
CONTINUOUS
370
-3
390
F
  0
LAYER
  5
207
100
AcDbSymbolTableRecord
100
AcDbLayerTableRecord
  2
INTF_2
 70
0
 62
7
  6
CONTINUOUS
370
-3
390
F
  0
LAYER
  5
208
100
AcDbSymbolTableRecord
100
AcDbLayerTableRecord
  2
INTF_YELLOW
 70
0
 62
7
  6
CONTINUOUS
370
-3
390
F
  0
LAYER
  5
209
100
AcDbSymbolTableRecord
100
AcDbLayerTableRecord
  2
NOTE
 70
0
 62
7
  6
CONTINUOUS
370
-3
390
F
  0
LAYER
  5
20A
100
AcDbSymbolTableRecord
100
AcDbLayerTableRecord
  2
PIANI
 70
0
 62
7
  6
CONTINUOUS
370
-3
390
F
  0
LAYER
  5
20B
100
AcDbSymbolTableRecord
100
AcDbLayerTableRecord
  2
PIANI_ORIGINE
 70
0
 62
7
  6
CONTINUOUS
370
-3
390
F
  0
LAYER
  5
20C
100
AcDbSymbolTableRecord
100
AcDbLayerTableRecord
  2
PUNTI
 70
0
 62
7
  6
CONTINUOUS
370
-3
390
F
  0
LAYER
  5
20D
100
AcDbSymbolTableRecord
100
AcDbLayerTableRecord
  2
RACCORDO
 70
0
 62
7
  6
CONTINUOUS
370
-3
390
F
  0
LAYER
  5
20E
100
AcDbSymbolTableRecord
100
AcDbLayerTableRecord
  2
RGB__255__255__255__
 70
0
 62
7
  6
CONTINUOUS
370
-3
390
F
  0
LAYER
  5
20F
100
AcDbSymbolTableRecord
100
AcDbLayerTableRecord
  2
RGB____0____0____0__
 70
0
 62
7
  6
CONTINUOUS
370
-3
390
F
  0
LAYER
  5
210
100
AcDbSymbolTableRecord
100
AcDbLayerTableRecord
  2
SIMBOLI
 70
0
 62
7
  6
CONTINUOUS
370
-3
390
F
  0
LAYER
  5
211
100
AcDbSymbolTableRecord
100
AcDbLayerTableRecord
  2
SMUSSO
 70
0
 62
7
  6
CONTINUOUS
370
-3
390
F
  0
LAYER
  5
212
100
AcDbSymbolTableRecord
100
AcDbLayerTableRecord
  2
SNAPLINE
 70
0
 62
7
  6
CONTINUOUS
370
-3
390
F
  0
LAYER
  5
213
100
AcDbSymbolTableRecord
100
AcDbLayerTableRecord
  2
SUPERFICI
 70
0
 62
7
  6
CONTINUOUS
370
-3
390
F
  0
LAYER
  5
214
100
AcDbSymbolTableRecord
100
AcDbLayerTableRecord
  2
TRASH
 70
0
 62
7
  6
CONTINUOUS
370
-3
390
F
  0
LAYER
  5
215
100
AcDbSymbolTableRecord
100
AcDbLayerTableRecord
  2
XSEC_DATUMS
 70
0
 62
7
  6
CONTINUOUS
370
-3
390
F
  0
ENDTAB
  0
TABLE
  2
STYLE
  5
3
100
AcDbSymbolTable
 70
1
  0
STYLE
  5
11
100
AcDbSymbolTableRecord
100
AcDbTextStyleTableRecord
  2
STANDARD
 70
0
 40
0.0
 41
0.8
 50
0.0
 71
0
 42
0.2
  3
txt
  4

  0
STYLE
  5
216
100
AcDbSymbolTableRecord
100
AcDbTextStyleTableRecord
  2
TEXTSTYLE_1
 70
0
 40
0.0
 41
0.8
 50
0.0
 71
0
 42
0.2
  3
gdt
  4

  0
ENDTAB
  0
TABLE
  2
VIEW
  5
6
100
AcDbSymbolTable
 70
0
  0
ENDTAB
  0
TABLE
  2
UCS
  5
7
100
AcDbSymbolTable
 70
0
  0
ENDTAB
  0
TABLE
  2
APPID
  5
9
100
AcDbSymbolTable
 70
1
  0
APPID
  5
217
100
AcDbSymbolTableRecord
100
AcDbRegAppTableRecord
  2
ACAD
 70
0
  0
ENDTAB
  0
TABLE
  2
BLOCK_RECORD
  5
1
100
AcDbSymbolTable
 70
0
  0
BLOCK_RECORD
  5
218
100
AcDbSymbolTableRecord
100
AcDbBlockTableRecord
  2
*Model_Space
  0
BLOCK_RECORD
  5
219
100
AcDbSymbolTableRecord
100
AcDbBlockTableRecord
  2
*Paper_Space
  0
BLOCK_RECORD
  5
21A
100
AcDbSymbolTableRecord
100
AcDbBlockTableRecord
  2
_FILLED
  0
BLOCK_RECORD
  5
21B
100
AcDbSymbolTableRecord
100
AcDbBlockTableRecord
  2
*D0
  0
BLOCK_RECORD
  5
21C
100
AcDbSymbolTableRecord
100
AcDbBlockTableRecord
  2
*D1
  0
BLOCK_RECORD
  5
21D
100
AcDbSymbolTableRecord
100
AcDbBlockTableRecord
  2
*D2
  0
BLOCK_RECORD
  5
21E
100
AcDbSymbolTableRecord
100
AcDbBlockTableRecord
  2
*D3
  0
ENDTAB
  0
TABLE
  2
DIMSTYLE
  5
A
100
AcDbSymbolTable
 70
1
100
AcDbDimStyleTable
 71
0
  0
DIMSTYLE
105
21F
100
AcDbSymbolTableRecord
100
AcDbDimStyleTableRecord
  2
STANDARD
 70
0
  3

  4

 40
1.0
 41
3.0
 42
0.0625
 43
0.38
 44
0.18
 45
0.0
 46
0.0
 47
0.01
 48
0.01
140
3.0
141
0.09
142
0.0
143
25.4
144
1.0
145
0.0
146
1.0
147
0.09
 71
1.0
 72
0.0
 73
0
 74
0
 75
0
 76
0
 77
1
 78
8
170
0
171
2
172
0
173
0
174
0
175
0
176
0
177
0
178
0
270
2
271
2
272
2
273
2
274
2
275
0
280
0
281
0
282
0
283
1
284
8
285
0
286
0
287
3
288
0
340
11
341
21A
342
21A
343
21A
344
21A
  0
DIMSTYLE
105
220
100
AcDbSymbolTableRecord
100
AcDbDimStyleTableRecord
  2
DIMSTYLE_1
 70
0
  3

  4

 40
1.0
 41
3.0
 42
0.0625
 43
0.38
 44
0.18
 45
0.0
 46
0.0
 47
0.0
 48
0.0
140
3.0
141
0.09
142
0.0
143
25.4
144
1.0
145
0.0
146
1.0
147
0.09
 71
0.0
 72
0.0
 73
0
 74
0
 75
0
 76
0
 77
1
 78
8
170
0
171
2
172
0
173
0
174
0
175
0
176
0
177
0
178
0
270
2
271
2
272
2
273
2
274
2
275
0
280
0
281
0
282
0
283
1
284
8
285
0
286
0
287
3
288
0
340
11
341
21A
342
21A
343
21A
344
21A
  0
DIMSTYLE
105
221
100
AcDbSymbolTableRecord
100
AcDbDimStyleTableRecord
  2
DIMSTYLE_2
 70
0
  3

  4

 40
1.0
 41
3.0
 42
0.0625
 43
0.38
 44
0.18
 45
0.0
 46
0.0
 47
0.0
 48
0.0
140
3.0
141
0.09
142
0.0
143
25.4
144
1.0
145
0.0
146
1.0
147
0.09
 71
0.0
 72
0.0
 73
0
 74
0
 75
0
 76
0
 77
1
 78
8
170
0
171
2
172
0
173
0
174
0
175
0
176
0
177
0
178
0
270
2
271
1
272
1
273
2
274
2
275
0
280
0
281
0
282
0
283
1
284
8
285
0
286
0
287
3
288
0
340
11
341
21A
342
21A
343
21A
344
21A
  0
ENDTAB
  0
ENDSEC
  0
SECTION
  2
BLOCKS
  0
BLOCK
  5
20
100
AcDbEntity
  8
0
100
AcDbBlockBegin
  2
*Model_Space
 70
0
 10
0.0
 20
0.0
 30
0.0
  3
*Model_Space
  1

  0
ENDBLK
  5
21
100
AcDbEntity
  8
0
100
AcDbBlockEnd
  0
BLOCK
  5
1C
100
AcDbEntity
  8
0
100
AcDbBlockBegin
  2
*Paper_Space
 70
0
 10
0.0
 20
0.0
 30
0.0
  3
*Paper_Space
  1

  0
ENDBLK
  5
1D
100
AcDbEntity
  8
0
100
AcDbBlockEnd
  0
BLOCK
  5
222
100
AcDbEntity
  8
0
100
AcDbBlockBegin
  2
_FILLED
 70
64
 10
0.0
 20
0.0
  3
_FILLED
  1

  0
SOLID
  5
223
100
AcDbEntity
  8
0
  6
BYBLOCK
 62
0
100
AcDbTrace
 10
0.0
 20
0.0
 11
-1.0
 21
0.3166666667
 12
-1.0
 22
-0.3166666667
 13
-1.0
 23
-0.3166666667
  0
ENDBLK
  5
224
100
AcDbEntity
  8
0
  6
BYBLOCK
 62
0
100
AcDbBlockEnd
  0
BLOCK
  5
225
100
AcDbEntity
  8
0
100
AcDbBlockBegin
 62
7
  6
CONTINUOUS
  2
*D0
 70
65
 10
0.0
 20
0.0
  3
*D0
  1

  0
LINE
  5
226
100
AcDbEntity
  8
0
100
AcDbLine
 62
7
  6
CONTINUOUS
 10
170.6924696408
 20
146.7889473684
 11
187.1676121011
 21
146.7889473684
  0
LINE
  5
227
100
AcDbEntity
  8
0
100
AcDbLine
 62
7
  6
CONTINUOUS
 10
170.6924695896
 20
99.7889473684
 11
187.1676121011
 21
99.7889473684
  0
LINE
  5
228
100
AcDbEntity
  8
0
100
AcDbLine
 62
7
  6
CONTINUOUS
 10
185.6676121011
 20
146.7889473684
 11
185.6676121011
 21
123.2889473684
  0
LINE
  5
229
100
AcDbEntity
  8
0
100
AcDbLine
 62
7
  6
CONTINUOUS
 10
185.6676121011
 20
99.7889473684
 11
185.6676121011
 21
123.2889473684
  0
INSERT
  5
22A
100
AcDbEntity
  8
0
100
AcDbBlockReference
 62
7
  6
CONTINUOUS
  2
_FILLED
 10
185.6676121011
 20
146.7889473684
 41
3.0
 42
3.0
 43
3.0
 50
90.0
  0
INSERT
  5
22B
100
AcDbEntity
  8
0
100
AcDbBlockReference
 62
7
  6
CONTINUOUS
  2
_FILLED
 10
185.6676121011
 20
99.7889473684
 41
3.0
 42
3.0
 43
3.0
 50
270.0
  0
ENDBLK
  5
22C
100
AcDbEntity
  8
0
  6
BYBLOCK
 62
0
100
AcDbBlockEnd
  0
BLOCK
  5
22D
100
AcDbEntity
  8
0
100
AcDbBlockBegin
 62
7
  6
CONTINUOUS
  2
*D1
 70
65
 10
0.0
 20
0.0
  3
*D1
  1

  0
LINE
  5
22E
100
AcDbEntity
  8
0
100
AcDbLine
 62
7
  6
CONTINUOUS
 10
177.6676121011
 20
145.6887185164
 11
177.6676121011
 21
156.2889473684
  0
LINE
  5
22F
100
AcDbEntity
  8
0
100
AcDbLine
 62
7
  6
CONTINUOUS
 10
132.8676121011
 20
145.6887185164
 11
132.8676121011
 21
156.2889473684
  0
LINE
  5
230
100
AcDbEntity
  8
0
100
AcDbLine
 62
7
  6
CONTINUOUS
 10
177.6676121011
 20
154.7889473684
 11
155.2676121011
 21
154.7889473684
  0
LINE
  5
231
100
AcDbEntity
  8
0
100
AcDbLine
 62
7
  6
CONTINUOUS
 10
132.8676121011
 20
154.7889473684
 11
155.2676121011
 21
154.7889473684
  0
INSERT
  5
232
100
AcDbEntity
  8
0
100
AcDbBlockReference
 62
7
  6
CONTINUOUS
  2
_FILLED
 10
177.6676121011
 20
154.7889473684
 41
3.0
 42
3.0
 43
3.0
  0
INSERT
  5
233
100
AcDbEntity
  8
0
100
AcDbBlockReference
 62
7
  6
CONTINUOUS
  2
_FILLED
 10
132.8676121011
 20
154.7889473684
 41
3.0
 42
3.0
 43
3.0
 50
180.0
  0
ENDBLK
  5
234
100
AcDbEntity
  8
0
  6
BYBLOCK
 62
0
100
AcDbBlockEnd
  0
BLOCK
  5
235
100
AcDbEntity
  8
0
100
AcDbBlockBegin
 62
7
  6
CONTINUOUS
  2
*D2
 70
65
 10
0.0
 20
0.0
  3
*D2
  1

  0
LINE
  5
236
100
AcDbEntity
  8
0
100
AcDbLine
 62
7
  6
CONTINUOUS
 10
114.2496180337
 20
137.0113571805
 11
114.2496180337
 21
156.2889473684
  0
LINE
  5
237
100
AcDbEntity
  8
0
100
AcDbLine
 62
7
  6
CONTINUOUS
 10
87.7496180337
 20
145.6887185164
 11
87.7496180337
 21
156.2889473684
  0
LINE
  5
238
100
AcDbEntity
  8
0
100
AcDbLine
 62
7
  6
CONTINUOUS
 10
114.2496180337
 20
154.7889473684
 11
100.9996180337
 21
154.7889473684
  0
LINE
  5
239
100
AcDbEntity
  8
0
100
AcDbLine
 62
7
  6
CONTINUOUS
 10
87.7496180337
 20
154.7889473684
 11
100.9996180337
 21
154.7889473684
  0
INSERT
  5
23A
100
AcDbEntity
  8
0
100
AcDbBlockReference
 62
7
  6
CONTINUOUS
  2
_FILLED
 10
114.2496180337
 20
154.7889473684
 41
3.0
 42
3.0
 43
3.0
  0
INSERT
  5
23B
100
AcDbEntity
  8
0
100
AcDbBlockReference
 62
7
  6
CONTINUOUS
  2
_FILLED
 10
87.7496180337
 20
154.7889473684
 41
3.0
 42
3.0
 43
3.0
 50
180.0
  0
ENDBLK
  5
23C
100
AcDbEntity
  8
0
  6
BYBLOCK
 62
0
100
AcDbBlockEnd
  0
BLOCK
  5
23D
100
AcDbEntity
  8
0
100
AcDbBlockBegin
 62
7
  6
CONTINUOUS
  2
*D3
 70
65
 10
0.0
 20
0.0
  3
*D3
  1

  0
LINE
  5
23E
100
AcDbEntity
  8
0
100
AcDbLine
 62
7
  6
CONTINUOUS
 10
78.2496180337
 20
123.7889473684
 11
78.2496180337
 21
166.2889473684
  0
LINE
  5
23F
100
AcDbEntity
  8
0
100
AcDbLine
 62
7
  6
CONTINUOUS
 10
114.2496180337
 20
137.2494424398
 11
114.2496180337
 21
166.2889473684
  0
LINE
  5
240
100
AcDbEntity
  8
0
100
AcDbLine
 62
7
  6
CONTINUOUS
 10
78.2496180337
 20
164.7889473684
 11
96.2496180337
 21
164.7889473684
  0
LINE
  5
241
100
AcDbEntity
  8
0
100
AcDbLine
 62
7
  6
CONTINUOUS
 10
114.2496180337
 20
164.7889473684
 11
96.2496180337
 21
164.7889473684
  0
INSERT
  5
242
100
AcDbEntity
  8
0
100
AcDbBlockReference
 62
7
  6
CONTINUOUS
  2
_FILLED
 10
78.2496180337
 20
164.7889473684
 41
3.0
 42
3.0
 43
3.0
 50
180.0
  0
INSERT
  5
243
100
AcDbEntity
  8
0
100
AcDbBlockReference
 62
7
  6
CONTINUOUS
  2
_FILLED
 10
114.2496180337
 20
164.7889473684
 41
3.0
 42
3.0
 43
3.0
  0
ENDBLK
  5
244
100
AcDbEntity
  8
0
  6
BYBLOCK
 62
0
100
AcDbBlockEnd
  0
ENDSEC
  0
SECTION
  2
ENTITIES
  0
DIMENSION
  5
245
100
AcDbEntity
  8
0
100
AcDbDimension
 62
7
  6
CONTINUOUS
  2
*D0
 10
185.6676121011
 20
99.7889473684
 11
184.9176121011
 21
120.9318045113
 70
160
 71
2
 42
47.0
  3
DIMSTYLE_1
100
AcDbAlignedDimension
 13
170.6924696408
 23
146.7889473684
 14
170.6924695896
 24
99.7889473684
 50
270.0
100
AcDbRotatedDimension
  0
DIMENSION
  5
246
100
AcDbEntity
  8
0
100
AcDbDimension
 62
7
  6
CONTINUOUS
  2
*D1
 10
132.8676121011
 20
154.7889473684
 11
150.8747549583
 21
155.5389473684
 70
160
 71
2
 42
44.8
  3
DIMSTYLE_2
100
AcDbAlignedDimension
 13
177.6676121011
 23
145.6887185164
 14
132.8676121011
 24
145.6887185164
 50
180.0
100
AcDbRotatedDimension
  0
DIMENSION
  5
247
100
AcDbEntity
  8
0
100
AcDbDimension
 62
7
  6
CONTINUOUS
  2
*D2
 10
87.7496180337
 20
154.7889473684
 11
96.713903748
 21
155.5389473684
 70
160
 71
2
 42
26.5
  3
DIMSTYLE_1
100
AcDbAlignedDimension
 13
114.2496180337
 23
137.0113571805
 14
87.7496180337
 24
145.6887185164
 50
180.0
100
AcDbRotatedDimension
  0
DIMENSION
  5
248
100
AcDbEntity
  8
0
100
AcDbDimension
 62
7
  6
CONTINUOUS
  2
*D3
 10
114.2496180337
 20
164.7889473684
 11
93.9996180337
 21
165.5389473684
 70
160
 71
2
 42
36.0
  3
DIMSTYLE_1
100
AcDbAlignedDimension
 13
78.2496180337
 23
123.7889473684
 14
114.2496180337
 24
137.2494424398
100
AcDbRotatedDimension
  0
LWPOLYLINE
  5
249
100
AcDbEntity
  8
COPY_PUBLISH
100
AcDbPolyline
 62
253
  6
CONTINUOUS
 90
12
 70
0
 10
133.017153191
 20
144.2862432851
 10
133.0224615999
 20
144.2889568214
 10
133.0360463538
 20
144.2916249512
 10
133.0576801406
 20
144.294203029
 10
133.0870009645
 20
144.2966479162
 10
133.1235182034
 20
144.2989187026
 10
133.1666208183
 20
144.3009773915
 10
133.2155875778
 20
144.3027895351
 10
133.2695991266
 20
144.3043248109
 10
133.3277516953
 20
144.3055575292
 10
133.3890722233
 20
144.3064670629
 10
133.452534641
 20
144.3070381929
  0
LWPOLYLINE
  5
24A
100
AcDbEntity
  8
COPY_PUBLISH
100
AcDbPolyline
 62
253
  6
CONTINUOUS
 90
13
 70
0
 10
133.017153191
 20
102.2916514517
 10
133.0224612402
 20
102.2889378832
 10
133.0360457057
 20
102.2862697208
 10
133.0576792783
 20
102.283691611
 10
133.0869999632
 20
102.2812466934
 10
133.1235171366
 20
102.2789758789
 10
133.1666197559
 20
102.2769171649
 10
133.2155865841
 20
102.2751050001
 10
133.2695982582
 20
102.2735697073
 10
133.3277509999
 20
102.2723369769
 10
133.3890717381
 20
102.2714274361
 10
133.4525343916
 20
102.2708563043
 10
133.5170770386
 20
102.2706331383
  0
LWPOLYLINE
  5
24B
100
AcDbEntity
  8
0
100
AcDbPolyline
 62
7
  6
CONTINUOUS
 90
13
 70
0
 10
139.7900694412
 20
99.9555877043
 10
139.8314134257
 20
99.9295948502
 10
139.8738194141
 20
99.9057287287
 10
139.9172874063
 20
99.8839893399
 10
139.9619353132
 20
99.8643254916
 10
140.0076452239
 20
99.8467883759
 10
140.0540634059
 20
99.8315315697
 10
140.1012195082
 20
99.8185780063
 10
140.1490838818
 20
99.8079047522
 10
140.197213847
 20
99.7995965838
 10
140.2454618439
 20
99.7936817597
 10
140.2939754325
 20
99.7901320213
 10
140.3427546126
 20
99.7889473684
  0
LWPOLYLINE
  5
24C
100
AcDbEntity
  8
COPY_PUBLISH
100
AcDbPolyline
 62
253
  6
CONTINUOUS
 90
13
 70
0
 10
133.0088901368
 20
101.8133549986
 10
133.0132214206
 20
101.7482207711
 10
133.0260222145
 20
101.6841993106
 10
133.0470738933
 20
101.6223847494
 10
133.0760168252
 20
101.5638335211
 10
133.1123564951
 20
101.5095463436
 10
133.1554719349
 20
101.4604511037
 10
133.2046263895
 20
101.4173869289
 10
133.2589798523
 20
101.3810899146
 10
133.317603368
 20
101.3521805387
 10
133.3794950208
 20
101.3311529726
 10
133.443597078
 20
101.3183666646
 10
133.5088139845
 20
101.3140402315
  0
LWPOLYLINE
  5
24D
100
AcDbEntity
  8
COPY_PUBLISH
100
AcDbPolyline
 62
253
  6
CONTINUOUS
 90
13
 70
0
 10
133.0088901368
 20
144.7645397383
 10
133.0132216563
 20
144.8296757399
 10
133.0260230533
 20
144.8936985405
 10
133.0470755465
 20
144.9555139637
 10
133.0760193403
 20
145.0140655586
 10
133.1123597732
 20
145.0683526543
 10
133.1554757722
 20
145.1174474618
 10
133.2046304671
 20
145.1605109306
 10
133.2589837839
 20
145.1968070884
 10
133.317606802
 20
145.2257156187
 10
133.3794976298
 20
145.2467424628
 10
133.4435985276
 20
145.2595282633
 10
133.5088139844
 20
145.2638545056
  0
LINE
  5
24E
100
AcDbEntity
  8
0
100
AcDbLine
 62
7
  6
CONTINUOUS
 10
140.7176121011
 20
145.6889473684
 11
140.7842448987
 21
145.7889473684
  0
LWPOLYLINE
  5
24F
100
AcDbEntity
  8
0
100
AcDbPolyline
 62
7
  6
CONTINUOUS
 90
13
 70
0
 10
170.1924695896
 20
99.7889473684
 10
170.2412487698
 20
99.7901320213
 10
170.2897623583
 20
99.7936817597
 10
170.3380103552
 20
99.7995965838
 10
170.3861403204
 20
99.8079047522
 10
170.434004694
 20
99.8185780063
 10
170.4811607963
 20
99.8315315697
 10
170.5275789783
 20
99.8467883759
 10
170.5732888891
 20
99.8643254916
 10
170.617936796
 20
99.8839893399
 10
170.6614047882
 20
99.9057287287
 10
170.7038107765
 20
99.9295948502
 10
170.745154761
 20
99.9555877043
  0
LINE
  5
250
100
AcDbEntity
  8
0
100
AcDbLine
 62
7
  6
CONTINUOUS
 10
140.7842448987
 20
100.7889473684
 11
140.7176121011
 21
100.8889473684
  0
LWPOLYLINE
  5
251
100
AcDbEntity
  8
COPY_PUBLISH
100
AcDbPolyline
 62
253
  6
CONTINUOUS
 90
7
 70
0
 10
133.0129493622
 20
144.6930728317
 10
133.0123229642
 20
144.7127702601
 10
133.0116663058
 20
144.7296035041
 10
133.0109933023
 20
144.7432312094
 10
133.0103085922
 20
144.7535395911
 10
133.0096075371
 20
144.760642434
 10
133.0088901368
 20
144.7645397383
  0
LINE
  5
252
100
AcDbEntity
  8
COPY_PUBLISH
100
AcDbLine
 62
253
  6
CONTINUOUS
 10
133.0141096375
 20
144.6449734095
 11
133.0129493622
 21
144.6930728317
  0
LINE
  5
253
100
AcDbEntity
  8
COPY_PUBLISH
100
AcDbLine
 62
253
  6
CONTINUOUS
 10
133.015114057
 20
144.5869036408
 11
133.0141096375
 21
144.6449734095
  0
LINE
  5
254
100
AcDbEntity
  8
COPY_PUBLISH
100
AcDbLine
 62
253
  6
CONTINUOUS
 10
133.5134726986
 20
145.0752689741
 11
133.5122522899
 21
145.160161982
  0
LINE
  5
255
100
AcDbEntity
  8
COPY_PUBLISH
100
AcDbLine
 62
253
  6
CONTINUOUS
 10
133.0162808609
 20
144.4839334051
 11
133.015114057
 21
144.5869036408
  0
LINE
  5
256
100
AcDbEntity
  8
COPY_PUBLISH
100
AcDbLine
 62
253
  6
CONTINUOUS
 10
133.5154792557
 20
144.8431875783
 11
133.5134726986
 21
145.0752689741
  0
LINE
  5
257
100
AcDbEntity
  8
COPY_PUBLISH
100
AcDbLine
 62
253
  6
CONTINUOUS
 10
133.0169743304
 20
144.3679606207
 11
133.0162808609
 21
144.4839334051
  0
LWPOLYLINE
  5
258
100
AcDbEntity
  8
COPY_PUBLISH
100
AcDbPolyline
 62
253
  6
CONTINUOUS
 90
3
 70
0
 10
133.5170770386
 20
144.3072615993
 10
133.5170158249
 20
144.3889494793
 10
133.5154792557
 20
144.8431875783
  0
LINE
  5
259
100
AcDbEntity
  8
0
100
AcDbLine
 62
7
  6
CONTINUOUS
 10
132.8676121011
 20
139.4086065354
 11
132.8676121011
 21
107.1692882022
  0
LINE
  5
25A
100
AcDbEntity
  8
COPY_PUBLISH
100
AcDbLine
 62
7
  6
CONTINUOUS
 10
132.8676121011
 20
101.3891762205
 11
132.8676121011
 21
145.1887185164
  0
LWPOLYLINE
  5
25B
100
AcDbEntity
  8
COPY_PUBLISH
100
AcDbPolyline
 62
253
  6
CONTINUOUS
 90
9
 70
0
 10
133.0201978022
 20
106.956470253
 10
133.0224812612
 20
111.6219109679
 10
133.0240035679
 20
116.2879735966
 10
133.024764723
 20
120.9550717046
 10
133.0247647259
 20
125.6227917263
 10
133.0240035744
 20
130.2898929649
 10
133.0224812677
 20
134.9559618547
 10
133.0201978066
 20
139.6214119615
 10
133.0169743304
 20
144.3679606207
  0
LWPOLYLINE
  5
25C
100
AcDbEntity
  8
COPY_PUBLISH
100
AcDbPolyline
 62
253
  6
CONTINUOUS
 90
9
 70
0
 10
133.5201216551
 20
106.9394663154
 10
133.5224051174
 20
111.6097269568
 10
133.5239274256
 20
116.2810072829
 10
133.5246885796
 20
120.9528993767
 10
133.5246885794
 20
125.624995366
 10
133.5239274252
 20
130.2968874592
 10
133.5224051171
 20
134.9681677841
 10
133.5201216548
 20
139.6384284238
 10
133.5170770386
 20
144.3072615993
  0
LINE
  5
25D
100
AcDbEntity
  8
COPY_PUBLISH
100
AcDbLine
 62
253
  6
CONTINUOUS
 10
133.0168006611
 20
102.170498928
 11
133.0201978022
 21
106.956470253
  0
LINE
  5
25E
100
AcDbEntity
  8
COPY_PUBLISH
100
AcDbLine
 62
253
  6
CONTINUOUS
 10
133.5158679473
 20
101.8034887188
 11
133.5201216551
 21
106.9394663154
  0
LINE
  5
25F
100
AcDbEntity
  8
COPY_PUBLISH
100
AcDbLine
 62
253
  6
CONTINUOUS
 10
133.0159426973
 20
102.0578872829
 11
133.0168006611
 21
102.170498928
  0
LINE
  5
260
100
AcDbEntity
  8
COPY_PUBLISH
100
AcDbLine
 62
253
  6
CONTINUOUS
 10
133.5140372025
 20
101.5533917058
 11
133.5158679473
 21
101.8034887188
  0
LINE
  5
261
100
AcDbEntity
  8
COPY_PUBLISH
100
AcDbLine
 62
253
  6
CONTINUOUS
 10
133.015114057
 20
101.9909910961
 11
133.0159426973
 21
102.0578872829
  0
LINE
  5
262
100
AcDbEntity
  8
COPY_PUBLISH
100
AcDbLine
 62
253
  6
CONTINUOUS
 10
133.0141096375
 20
101.9329213273
 11
133.015114057
 21
101.9909910961
  0
LWPOLYLINE
  5
263
100
AcDbEntity
  8
COPY_PUBLISH
100
AcDbPolyline
 62
253
  6
CONTINUOUS
 90
13
 70
0
 10
177.0264102178
 20
101.3140402312
 10
177.0916267625
 20
101.3183666167
 10
177.1557285302
 20
101.331152798
 10
177.217619977
 20
101.3521801838
 10
177.2762433681
 20
101.3810893484
 10
177.3305967942
 20
101.4173861486
 10
177.3797513086
 20
101.4604501467
 10
177.4228668879
 20
101.5095452783
 10
177.4592067483
 20
101.5638324352
 10
177.4881498956
 20
101.6223837549
 10
177.509201778
 20
101.6841985316
 10
177.5220027227
 20
101.7482203272
 10
177.5263340654
 20
101.8133549986
  0
LWPOLYLINE
  5
264
100
AcDbEntity
  8
0
100
AcDbPolyline
 62
7
  6
CONTINUOUS
 90
13
 70
0
 10
147.6924695896
 20
99.7889473684
 10
147.7412487698
 20
99.7901320213
 10
147.7897623583
 20
99.7936817597
 10
147.8380103552
 20
99.7995965838
 10
147.8861403204
 20
99.8079047522
 10
147.934004694
 20
99.8185780063
 10
147.9811607963
 20
99.8315315697
 10
148.0275789783
 20
99.8467883759
 10
148.0732888891
 20
99.8643254916
 10
148.117936796
 20
99.8839893399
 10
148.1614047881
 20
99.9057287287
 10
148.2038107765
 20
99.9295948502
 10
148.2451547609
 20
99.9555877043
  0
LINE
  5
265
100
AcDbEntity
  8
0
100
AcDbLine
 62
7
  6
CONTINUOUS
 10
140.3427546126
 20
99.7889473684
 11
147.6924695896
 21
99.7889473684
  0
LINE
  5
266
100
AcDbEntity
  8
0
100
AcDbLine
 62
7
  6
CONTINUOUS
 10
162.8427546126
 20
99.7889473684
 11
170.1924695896
 21
99.7889473684
  0
LINE
  5
267
100
AcDbEntity
  8
0
100
AcDbLine
 62
7
  6
CONTINUOUS
 10
140.5477918414
 20
100.7889473684
 11
147.4874323608
 21
100.7889473684
  0
LINE
  5
268
100
AcDbEntity
  8
0
100
AcDbLine
 62
7
  6
CONTINUOUS
 10
163.0477918414
 20
100.7889473684
 11
169.9874323608
 21
100.7889473684
  0
LINE
  5
269
100
AcDbEntity
  8
COPY_PUBLISH
100
AcDbLine
 62
7
  6
CONTINUOUS
 10
177.1679927009
 20
100.8889473684
 11
169.8176121011
 21
100.8889473684
  0
LINE
  5
26A
100
AcDbEntity
  8
COPY_PUBLISH
100
AcDbLine
 62
7
  6
CONTINUOUS
 10
163.2176121011
 20
100.8889473684
 11
147.3176121011
 21
100.8889473684
  0
LINE
  5
26B
100
AcDbEntity
  8
COPY_PUBLISH
100
AcDbLine
 62
7
  6
CONTINUOUS
 10
140.7176121011
 20
100.8889473684
 11
133.3672315014
 21
100.8889473684
  0
LINE
  5
26C
100
AcDbEntity
  8
COPY_PUBLISH
100
AcDbLine
 62
253
  6
CONTINUOUS
 10
177.0264102178
 20
101.3140402312
 11
133.5088139844
 21
101.3140402312
  0
LWPOLYLINE
  5
26D
100
AcDbEntity
  8
COPY_PUBLISH
100
AcDbPolyline
 62
253
  6
CONTINUOUS
 90
6
 70
0
 10
133.5122522899
 20
145.160161982
 10
133.5115963852
 20
145.1937160688
 10
133.5109232938
 20
145.2210234505
 10
133.5102373773
 20
145.2419007395
 10
133.5095342742
 20
145.2562095183
 10
133.5088139844
 20
145.2638545056
  0
LWPOLYLINE
  5
26E
100
AcDbEntity
  8
COPY_PUBLISH
100
AcDbPolyline
 62
253
  6
CONTINUOUS
 90
8
 70
0
 10
133.5088139844
 20
101.3140402312
 10
133.5095342742
 20
101.3216852185
 10
133.5102373773
 20
101.3359939974
 10
133.5109232938
 20
101.3568712863
 10
133.5115963852
 20
101.384178668
 10
133.5122522899
 20
101.4177327549
 10
133.5128779234
 20
101.4573042637
 10
133.5140372025
 20
101.5533917058
  0
LWPOLYLINE
  5
26F
100
AcDbEntity
  8
COPY_PUBLISH
100
AcDbPolyline
 62
253
  6
CONTINUOUS
 90
12
 70
0
 10
177.0826898113
 20
102.2708563036
 10
177.1461524655
 20
102.2714274352
 10
177.2074732042
 20
102.2723369758
 10
177.2656259463
 20
102.2735697063
 10
177.3196376208
 20
102.2751049993
 10
177.3686044491
 20
102.2769171643
 10
177.4117070684
 20
102.2789758784
 10
177.4482242416
 20
102.2812466931
 10
177.477544926
 20
102.2836916108
 10
177.4991784982
 20
102.2862697207
 10
177.5127629629
 20
102.2889378831
 10
177.5180710112
 20
102.2916514517
  0
LINE
  5
270
100
AcDbEntity
  8
COPY_PUBLISH
100
AcDbLine
 62
253
  6
CONTINUOUS
 10
177.0826898113
 20
102.2708563036
 11
133.5170770386
 21
102.2706331375
  0
LWPOLYLINE
  5
271
100
AcDbEntity
  8
COPY_PUBLISH
100
AcDbPolyline
 62
253
  6
CONTINUOUS
 90
8
 70
0
 10
133.0088901368
 20
101.8133549986
 10
133.0096075371
 20
101.817252303
 10
133.0103085922
 20
101.8243551461
 10
133.0109933023
 20
101.8346635278
 10
133.0116663058
 20
101.8482912329
 10
133.0123229642
 20
101.8651244766
 10
133.0129493622
 20
101.8848219049
 10
133.0141096375
 20
101.9329213273
  0
LINE
  5
272
100
AcDbEntity
  8
COPY_PUBLISH
100
AcDbLine
 62
7
  6
CONTINUOUS
 10
140.6542677375
 20
145.7889473684
 11
140.6327398241
 21
145.6889473684
  0
LINE
  5
273
100
AcDbEntity
  8
COPY_PUBLISH
100
AcDbLine
 62
7
  6
CONTINUOUS
 10
140.6542677375
 20
100.7889473684
 11
140.6327398241
 21
100.8889473684
  0
LWPOLYLINE
  5
274
100
AcDbEntity
  8
0
100
AcDbPolyline
 62
7
  6
CONTINUOUS
 90
13
 70
0
 10
162.2900694413
 20
99.9555877043
 10
162.3314134258
 20
99.9295948502
 10
162.3738194141
 20
99.9057287287
 10
162.4172874063
 20
99.8839893399
 10
162.4619353132
 20
99.8643254916
 10
162.5076452239
 20
99.8467883759
 10
162.5540634059
 20
99.8315315697
 10
162.6012195082
 20
99.8185780063
 10
162.6490838818
 20
99.8079047522
 10
162.697213847
 20
99.7995965838
 10
162.7454618439
 20
99.7936817597
 10
162.7939754325
 20
99.7901320213
 10
162.8427546126
 20
99.7889473684
  0
LINE
  5
275
100
AcDbEntity
  8
0
100
AcDbLine
 62
7
  6
CONTINUOUS
 10
140.5477918414
 20
145.7889473684
 11
140.5477918414
 21
145.6889473684
  0
LINE
  5
276
100
AcDbEntity
  8
0
100
AcDbLine
 62
7
  6
CONTINUOUS
 10
140.5477918414
 20
100.7889473684
 11
140.5477918414
 21
100.8889473684
  0
LINE
  5
277
100
AcDbEntity
  8
COPY_PUBLISH
100
AcDbLine
 62
253
  6
CONTINUOUS
 10
132.8676121011
 20
101.3891762205
 11
133.0088901368
 21
101.8133549986
  0
LINE
  5
278
100
AcDbEntity
  8
COPY_PUBLISH
100
AcDbLine
 62
253
  6
CONTINUOUS
 10
133.3672315014
 20
100.8889473684
 11
133.5088139844
 21
101.3140402312
  0
LINE
  5
279
100
AcDbEntity
  8
COPY_PUBLISH
100
AcDbLine
 62
253
  6
CONTINUOUS
 10
133.0088901368
 20
144.7645397383
 11
132.8676121011
 21
145.1887185164
  0
LINE
  5
27A
100
AcDbEntity
  8
COPY_PUBLISH
100
AcDbLine
 62
253
  6
CONTINUOUS
 10
133.5088139844
 20
145.2638545056
 11
133.3672315014
 21
145.6889473684
  0
LINE
  5
27B
100
AcDbEntity
  8
COPY_PUBLISH
100
AcDbLine
 62
7
  6
CONTINUOUS
 10
147.4542677375
 20
145.7889473684
 11
147.4327398241
 21
145.6889473684
  0
LINE
  5
27C
100
AcDbEntity
  8
COPY_PUBLISH
100
AcDbLine
 62
7
  6
CONTINUOUS
 10
147.4542677375
 20
100.7889473684
 11
147.4327398241
 21
100.8889473684
  0
LINE
  5
27D
100
AcDbEntity
  8
RACCORDO
100
AcDbLine
 62
7
  6
CONTINUOUS
 10
146.2676121011
 20
120.9419586945
 11
146.2676121011
 21
115.6359360423
  0
LINE
  5
27E
100
AcDbEntity
  8
COPY_PUBLISH
100
AcDbLine
 62
7
  6
CONTINUOUS
 10
140.5809564648
 20
100.7889473684
 11
140.6024843782
 21
100.8889473684
  0
LWPOLYLINE
  5
27F
100
AcDbEntity
  8
0
100
AcDbPolyline
 62
7
  6
CONTINUOUS
 90
3
 70
0
 43
0.3500000006
 10
156.3033197021
 20
155.8246688232
 10
156.231897583
 20
155.6103843384
 10
156.0890352173
 20
155.3246596069
  0
LINE
  5
280
100
AcDbEntity
  8
RACCORDO
100
AcDbLine
 62
253
  6
CONTINUOUS
 10
162.9777195635
 20
113.6490199423
 11
160.2575046388
 21
113.6490199423
  0
LINE
  5
281
100
AcDbEntity
  8
RACCORDO
100
AcDbLine
 62
7
  6
CONTINUOUS
 10
162.7277290827
 20
113.9038303868
 11
160.5074951195
 21
113.9038303868
  0
LINE
  5
282
100
AcDbEntity
  8
DRAFT
100
AcDbLine
 62
7
  6
CONTINUOUS
 10
160.5176121011
 20
113.9139473684
 11
162.7176121011
 21
113.9139473684
  0
LINE
  5
283
100
AcDbEntity
  8
RACCORDO
100
AcDbLine
 62
253
  6
CONTINUOUS
 10
150.2778524315
 20
114.4742997142
 11
147.5573717707
 21
114.4742997142
  0
LINE
  5
284
100
AcDbEntity
  8
RACCORDO
100
AcDbLine
 62
7
  6
CONTINUOUS
 10
150.0278619508
 20
114.7286975188
 11
147.8073622515
 21
114.7286975188
  0
LINE
  5
285
100
AcDbEntity
  8
DRAFT
100
AcDbLine
 62
7
  6
CONTINUOUS
 10
147.8176121011
 20
114.7389473684
 11
150.0176121011
 21
114.7389473684
  0
LWPOLYLINE
  5
286
100
AcDbEntity
  8
RACCORDO
100
AcDbPolyline
 62
253
  6
CONTINUOUS
 90
13
 70
0
 10
147.4060504429
 20
116.1297611175
 10
147.4094332172
 20
116.1291238216
 10
147.4128014461
 20
116.1232425803
 10
147.4172665519
 20
116.113244333
 10
147.4251481408
 20
116.1009828035
 10
147.4368602291
 20
116.0867064252
 10
147.4499391787
 20
116.068877724
 10
147.4642682248
 20
116.0484118009
 10
147.4811761044
 20
116.0269400555
 10
147.4990755352
 20
116.0034410777
 10
147.5173457653
 20
115.9780095817
 10
147.5367109322
 20
115.9522317704
 10
147.5571667792
 20
115.9269341984
  0
LWPOLYLINE
  5
287
100
AcDbEntity
  8
RACCORDO
100
AcDbPolyline
 62
7
  6
CONTINUOUS
 90
6
 70
0
 10
150.0278619508
 20
114.7286975188
 10
150.0301872905
 20
114.7267088582
 10
150.0346459002
 20
114.7216109289
 10
150.04123778
 20
114.71391995
 10
150.0502488262
 20
114.7042311762
 10
150.0613931425
 20
114.692974044
  0
LINE
  5
288
100
AcDbEntity
  8
RACCORDO
100
AcDbLine
 62
7
  6
CONTINUOUS
 10
150.2596059087
 20
114.4923719215
 11
150.2778524315
 21
114.4742997142
  0
LINE
  5
289
100
AcDbEntity
  8
RACCORDO
100
AcDbLine
 62
7
  6
CONTINUOUS
 10
150.0176121011
 20
114.7389473684
 11
150.0278998658
 21
114.7286596037
  0
LINE
  5
28A
100
AcDbEntity
  8
RACCORDO
100
AcDbLine
 62
7
  6
CONTINUOUS
 10
150.1341973949
 20
114.6186984117
 11
150.2596059087
 21
114.4923719215
  0
LINE
  5
28B
100
AcDbEntity
  8
RACCORDO
100
AcDbLine
 62
7
  6
CONTINUOUS
 10
150.1022512345
 20
114.6512249015
 11
150.1341973949
 21
114.6186984117
  0
LWPOLYLINE
  5
28C
100
AcDbEntity
  8
RACCORDO
100
AcDbPolyline
 62
7
  6
CONTINUOUS
 90
3
 70
0
 10
150.0613931425
 20
114.692974044
 10
150.0873943466
 20
114.6662039959
 10
150.1022512345
 20
114.6512249015
  0
LINE
  5
28D
100
AcDbEntity
  8
COPY_PUBLISH
100
AcDbLine
 62
7
  6
CONTINUOUS
 10
140.5809564648
 20
145.7889473684
 11
140.6024843782
 21
145.6889473684
  0
LWPOLYLINE
  5
28E
100
AcDbEntity
  8
RACCORDO
100
AcDbPolyline
 62
7
  6
CONTINUOUS
 90
19
 70
0
 10
147.8176121011
 20
115.9517675364
 10
147.81546588
 20
115.9833604842
 10
147.8097934126
 20
116.013583571
 10
147.8005946991
 20
116.0424367965
 10
147.7876242628
 20
116.0703161328
 10
147.7711275803
 20
116.0968256079
 10
147.7518410814
 20
116.1207773065
 10
147.729637458
 20
116.1420549125
 10
147.7046440182
 20
116.160774742
 10
147.6779791152
 20
116.1760978281
 10
147.6495655712
 20
116.1878691895
 10
147.6194805641
 20
116.1962438074
 10
147.5890739803
 20
116.2008476581
 10
147.5583327222
 20
116.2015082847
 10
147.5272698874
 20
116.198398144
 10
147.4972746555
 20
116.1916605826
 10
147.4688100864
 20
116.1813433828
 10
147.4414131202
 20
116.1673987623
 10
147.4150837569
 20
116.1498267212
  0
LWPOLYLINE
  5
28F
100
AcDbEntity
  8
RACCORDO
100
AcDbPolyline
 62
253
  6
CONTINUOUS
 90
19
 70
0
 10
147.8071572563
 20
115.9306152049
 10
147.8052540318
 20
115.9613624603
 10
147.7995826978
 20
115.9916427065
 10
147.7902293942
 20
116.0209960277
 10
147.7773361849
 20
116.0489765864
 10
147.7610989004
 20
116.075159396
 10
147.741764163
 20
116.0991467751
 10
147.7196256412
 20
116.1205743878
 10
147.6950195893
 20
116.1391167777
 10
147.6683197397
 20
116.154492311
 10
147.6399316271
 20
116.1664674541
 10
147.6102864284
 20
116.1748603209
 10
147.5798344141
 20
116.1795434351
 10
147.5490381093
 20
116.1804456665
 10
147.5183652678
 20
116.1775533115
 10
147.4882817684
 20
116.1709103008
 10
147.4592445385
 20
116.1606175328
 10
147.4316946146
 20
116.1468313405
 10
147.4060504429
 20
116.1297611175
  0
LINE
  5
290
100
AcDbEntity
  8
RACCORDO
100
AcDbLine
 62
253
  6
CONTINUOUS
 10
147.5573717707
 20
114.4742997142
 11
147.5571667785
 21
115.927104466
  0
LINE
  5
291
100
AcDbEntity
  8
RACCORDO
100
AcDbLine
 62
253
  6
CONTINUOUS
 10
147.8073243364
 20
114.7286596037
 11
147.8071572321
 21
115.9306152962
  0
LINE
  5
292
100
AcDbEntity
  8
0
100
AcDbLine
 62
7
  6
CONTINUOUS
 10
147.4874323608
 20
100.8889473684
 11
147.4874323608
 21
100.7889473684
  0
LINE
  5
293
100
AcDbEntity
  8
0
100
AcDbLine
 62
7
  6
CONTINUOUS
 10
147.4874323608
 20
145.6889473684
 11
147.4874323608
 21
145.7889473684
  0
LINE
  5
294
100
AcDbEntity
  8
RACCORDO
100
AcDbLine
 62
253
  6
CONTINUOUS
 10
147.5567548754
 20
120.6459212966
 11
147.5567063423
 21
122.0992582827
  0
LINE
  5
295
100
AcDbEntity
  8
RACCORDO
100
AcDbLine
 62
253
  6
CONTINUOUS
 10
147.8067453686
 20
120.6481088011
 11
147.8067025598
 21
121.8498569097
  0
LINE
  5
296
100
AcDbEntity
  8
RACCORDO
100
AcDbLine
 62
7
  6
CONTINUOUS
 10
147.8176121011
 20
121.8389473684
 11
147.8176121011
 21
120.6261272005
  0
LINE
  5
297
100
AcDbEntity
  8
RACCORDO
100
AcDbLine
 62
7
  6
CONTINUOUS
 10
147.8176121011
 20
115.9517675364
 11
147.8176121011
 21
114.7389473684
  0
LWPOLYLINE
  5
298
100
AcDbEntity
  8
RACCORDO
100
AcDbPolyline
 62
253
  6
CONTINUOUS
 90
13
 70
0
 10
147.5571667792
 20
115.9269341984
 10
147.5894211597
 20
115.9260299897
 10
147.6213589462
 20
115.9262917532
 10
147.6523335621
 20
115.9272231083
 10
147.6815361831
 20
115.9272954109
 10
147.7085278871
 20
115.9269405096
 10
147.7331705392
 20
115.9280230111
 10
147.7549865966
 20
115.9285328426
 10
147.7731860737
 20
115.9279857705
 10
147.7875056189
 20
115.929213461
 10
147.7980095832
 20
115.9317673668
 10
147.8046357472
 20
115.9327486027
 10
147.8071572563
 20
115.9306152049
  0
LWPOLYLINE
  5
299
100
AcDbEntity
  8
RACCORDO
100
AcDbPolyline
 62
253
  6
CONTINUOUS
 90
19
 70
0
 10
147.4056943532
 20
120.448920741
 10
147.4313399432
 20
120.4318596501
 10
147.4588899362
 20
120.4180822666
 10
147.4879259902
 20
120.4077977973
 10
147.518007198
 20
120.4011624101
 10
147.5486767818
 20
120.3982768616
 10
147.5794690303
 20
120.3991849684
 10
147.6099163688
 20
120.4038729409
 10
147.6395564599
 20
120.4122695933
 10
147.6679392243
 20
120.4242474239
 10
147.6946336747
 20
120.4396245514
 10
147.7192344609
 20
120.4581674771
 10
147.7413680244
 20
120.4795946299
 10
147.7606982711
 20
120.5035806424
 10
147.7769316745
 20
120.5297612915
 10
147.7898217336
 20
120.5577390287
 10
147.7991727151
 20
120.5870890171
 10
147.804842626
 20
120.6173655826
 10
147.8067453698
 20
120.648108981
  0
LWPOLYLINE
  5
29A
100
AcDbEntity
  8
RACCORDO
100
AcDbPolyline
 62
7
  6
CONTINUOUS
 90
19
 70
0
 10
147.4150837569
 20
120.4280680156
 10
147.4414394721
 20
120.410481812
 10
147.4688624267
 20
120.396529573
 10
147.4973526209
 20
120.3862112986
 10
147.5273745984
 20
120.3794798548
 10
147.5584638154
 20
120.3763823757
 10
147.5892266403
 20
120.3770602632
 10
147.6196483848
 20
120.3816860136
 10
147.6497437373
 20
120.3900871307
 10
147.6781631316
 20
120.4018875279
 10
147.7048325778
 20
120.4172491104
 10
147.7298260657
 20
120.436009973
 10
147.7520159991
 20
120.4573083144
 10
147.7712640552
 20
120.4812470383
 10
147.7877085566
 20
120.5077232409
 10
147.8006368747
 20
120.5355664096
 10
147.8098114668
 20
120.5643863737
 10
147.8154698756
 20
120.594573304
 10
147.8176121011
 20
120.6261272005
  0
LINE
  5
29B
100
AcDbEntity
  8
RACCORDO
100
AcDbLine
 62
7
  6
CONTINUOUS
 10
147.5747222324
 20
122.0814278882
 11
147.5567063423
 21
122.0992582827
  0
LINE
  5
29C
100
AcDbEntity
  8
RACCORDO
100
AcDbLine
 62
7
  6
CONTINUOUS
 10
147.8176121011
 20
121.8389473684
 11
147.8067025598
 21
121.8498569097
  0
LWPOLYLINE
  5
29D
100
AcDbEntity
  8
RACCORDO
100
AcDbPolyline
 62
7
  6
CONTINUOUS
 90
3
 70
0
 10
147.772626406
 20
121.8835758577
 10
147.7465390178
 20
121.9097348379
 10
147.7316356201
 20
121.9244467313
  0
LINE
  5
29E
100
AcDbEntity
  8
RACCORDO
100
AcDbLine
 62
7
  6
CONTINUOUS
 10
147.7316356201
 20
121.9244467313
 11
147.5747222324
 21
122.0814278882
  0
LINE
  5
29F
100
AcDbEntity
  8
RACCORDO
100
AcDbLine
 62
253
  6
CONTINUOUS
 10
147.8176121011
 20
120.6261272005
 11
147.8067453686
 21
120.6481088011
  0
LINE
  5
2A0
100
AcDbEntity
  8
RACCORDO
100
AcDbLine
 62
253
  6
CONTINUOUS
 10
147.4150837569
 20
120.4280680156
 11
147.4056945565
 21
120.4489205672
  0
LINE
  5
2A1
100
AcDbEntity
  8
DRAFT
100
AcDbLine
 62
7
  6
CONTINUOUS
 10
150.0176121011
 20
114.7389473684
 11
150.0176121011
 21
121.8389473684
  0
LINE
  5
2A2
100
AcDbEntity
  8
RACCORDO
100
AcDbLine
 62
253
  6
CONTINUOUS
 10
150.0285216424
 20
121.8498569097
 11
150.0278998658
 21
114.7286596037
  0
LWPOLYLINE
  5
2A3
100
AcDbEntity
  8
RACCORDO
100
AcDbPolyline
 62
253
  6
CONTINUOUS
 90
3
 70
0
 10
150.27851786
 20
122.0992582827
 10
150.2779559432
 20
115.1813323238
 10
150.2778524315
 20
114.4742997142
  0
LINE
  5
2A4
100
AcDbEntity
  8
RACCORDO
100
AcDbLine
 62
253
  6
CONTINUOUS
 10
147.4150837569
 20
116.1498267212
 11
147.4060505401
 21
116.129761122
  0
LINE
  5
2A5
100
AcDbEntity
  8
0
100
AcDbLine
 62
7
  6
CONTINUOUS
 10
163.2176121011
 20
145.6889473684
 11
163.2842448987
 21
145.7889473684
  0
LWPOLYLINE
  5
2A6
100
AcDbEntity
  8
RACCORDO
100
AcDbPolyline
 62
253
  6
CONTINUOUS
 90
13
 70
0
 10
147.556754895
 20
120.6467879012
 10
147.5365179453
 20
120.6217716703
 10
147.5173460771
 20
120.5963651543
 10
147.4992395823
 20
120.5713726837
 10
147.4814900291
 20
120.5483355132
 10
147.4647003022
 20
120.5273415311
 10
147.4504155254
 20
120.5073927508
 10
147.4373445803
 20
120.4900755128
 10
147.4256035291
 20
120.4762596805
 10
147.4175952982
 20
120.4644306383
 10
147.4129176988
 20
120.4548420101
 10
147.409310444
 20
120.4493108295
 10
147.4056943532
 20
120.448920741
  0
LWPOLYLINE
  5
2A7
100
AcDbEntity
  8
RACCORDO
100
AcDbPolyline
 62
7
  6
CONTINUOUS
 90
3
 70
0
 10
157.9869099648
 20
132.9115186961
 10
158.0019007465
 20
132.9266669613
 10
158.0341618622
 20
132.9595753179
  0
LINE
  5
2A8
100
AcDbEntity
  8
RACCORDO
100
AcDbLine
 62
7
  6
CONTINUOUS
 10
158.0341618622
 20
132.9595753179
 11
158.0870276947
 21
133.0129799697
  0
LWPOLYLINE
  5
2A9
100
AcDbEntity
  8
RACCORDO
100
AcDbPolyline
 62
7
  6
CONTINUOUS
 90
3
 70
0
 10
158.1053528592
 20
133.0313413498
 10
158.1597229172
 20
133.0861413219
 10
158.1776898513
 20
133.1039326112
  0
LINE
  5
2AA
100
AcDbEntity
  8
RACCORDO
100
AcDbLine
 62
7
  6
CONTINUOUS
 10
158.0870276947
 20
133.0129799697
 11
158.1053528592
 21
133.0313413498
  0
LINE
  5
2AB
100
AcDbEntity
  8
RACCORDO
100
AcDbLine
 62
7
  6
CONTINUOUS
 10
157.9176121011
 20
132.8389473684
 11
157.9276993706
 21
132.8490346379
  0
LWPOLYLINE
  5
2AC
100
AcDbEntity
  8
RACCORDO
100
AcDbPolyline
 62
7
  6
CONTINUOUS
 90
7
 70
0
 10
157.9276993706
 20
132.8490346379
 10
157.9298933013
 20
132.8509910433
 10
157.9342460417
 20
132.8560211292
 10
157.9407575917
 20
132.8636419702
 10
157.9497055824
 20
132.8732950735
 10
157.9608123828
 20
132.8845709856
 10
157.9869099648
 20
132.9115186961
  0
LWPOLYLINE
  5
2AD
100
AcDbEntity
  8
RACCORDO
100
AcDbPolyline
 62
253
  6
CONTINUOUS
 90
21
 70
0
 10
143.998692212
 20
120.6619032906
 10
144.1552836532
 20
120.7709635314
 10
144.3178447406
 20
120.8693850875
 10
144.4864501695
 20
120.957037349
 10
144.6610252448
 20
121.0340508614
 10
144.8394202709
 20
121.0994789214
 10
145.0216813811
 20
121.1531781381
 10
145.2077624423
 20
121.1952918639
 10
145.3953753596
 20
121.2253035146
 10
145.5845340492
 20
121.2430653524
 10
145.7752245951
 20
121.2487251004
 10
145.9651171536
 20
121.2422093704
 10
146.1541347955
 20
121.2234051306
 10
146.34235445
 20
121.1924254204
 10
146.5276770617
 20
121.1495359638
 10
146.7100630139
 20
121.0947033361
 10
146.8895519232
 20
121.0279609931
 10
147.0641635845
 20
120.9496749851
 10
147.2332379294
 20
120.8599673483
 10
147.3974350264
 20
120.7587161058
 10
147.5567548754
 20
120.6459212966
  0
LWPOLYLINE
  5
2AE
100
AcDbEntity
  8
RACCORDO
100
AcDbPolyline
 62
7
  6
CONTINUOUS
 90
6
 70
0
 10
147.8066968231
 20
121.8498626465
 10
147.8041974265
 20
121.8516619818
 10
147.7995959067
 20
121.8563194537
 10
147.7928922637
 20
121.8634590036
 10
147.7838103964
 20
121.8726604162
 10
147.772626406
 20
121.8835758577
  0
LINE
  5
2AF
100
AcDbEntity
  8
0
100
AcDbLine
 62
7
  6
CONTINUOUS
 10
163.2842448987
 20
100.7889473684
 11
163.2176121011
 21
100.8889473684
  0
LWPOLYLINE
  5
2B0
100
AcDbEntity
  8
0
100
AcDbPolyline
 62
7
  6
CONTINUOUS
 90
2
 70
0
 43
0.3500000006
 10
151.8747585754
 20
155.5389440918
 10
151.8747585754
 20
157.0389536133
  0
LINE
  5
2B1
100
AcDbEntity
  8
DRAFT
100
AcDbLine
 62
7
  6
CONTINUOUS
 10
152.6176121011
 20
132.8389473684
 11
152.6176121011
 21
130.1889473684
  0
LINE
  5
2B2
100
AcDbEntity
  8
0
100
AcDbLine
 62
7
  6
CONTINUOUS
 10
152.9878685207
 20
129.7889473684
 11
152.9878685207
 21
132.8389473684
  0
LINE
  5
2B3
100
AcDbEntity
  8
RACCORDO
100
AcDbLine
 62
253
  6
CONTINUOUS
 10
152.3571097106
 20
130.1923990943
 11
152.3575343509
 21
133.1039326112
  0
LINE
  5
2B4
100
AcDbEntity
  8
RACCORDO
100
AcDbLine
 62
253
  6
CONTINUOUS
 10
152.6071002142
 20
130.1891253698
 11
152.6074825511
 21
132.8490769185
  0
LINE
  5
2B5
100
AcDbEntity
  8
COPY_PUBLISH
100
AcDbLine
 62
7
  6
CONTINUOUS
 10
147.3809564648
 20
100.7889473684
 11
147.4024843782
 21
100.8889473684
  0
LINE
  5
2B6
100
AcDbEntity
  8
0
100
AcDbLine
 62
7
  6
CONTINUOUS
 10
153.9768953688
 20
127.8758761897
 11
154.1774708539
 21
128.2889473684
  0
LINE
  5
2B7
100
AcDbEntity
  8
0
100
AcDbLine
 62
7
  6
CONTINUOUS
 10
154.7894088238
 20
128.2889473684
 11
154.4835421525
 21
127.659036358
  0
LINE
  5
2B8
100
AcDbEntity
  8
RACCORDO
100
AcDbLine
 62
253
  6
CONTINUOUS
 10
147.8176121011
 20
115.9517675364
 11
147.8071572321
 21
115.9306152962
  0
LINE
  5
2B9
100
AcDbEntity
  8
0
100
AcDbLine
 62
7
  6
CONTINUOUS
 10
155.9917207629
 20
128.2889473684
 11
157.0523809347
 21
129.7889473684
  0
LINE
  5
2BA
100
AcDbEntity
  8
0
100
AcDbLine
 62
7
  6
CONTINUOUS
 10
157.5473556815
 20
129.7889473684
 11
156.4866955097
 21
128.2889473684
  0
LWPOLYLINE
  5
2BB
100
AcDbEntity
  8
RACCORDO
100
AcDbPolyline
 62
253
  6
CONTINUOUS
 90
13
 70
0
 10
147.8067453698
 20
120.648108981
 10
147.8042413208
 20
120.6452960103
 10
147.7976214368
 20
120.6456341598
 10
147.787093674
 20
120.6476067835
 10
147.7727491159
 20
120.6482920306
 10
147.7545566203
 20
120.6472003064
 10
147.7327585808
 20
120.6471798492
 10
147.7081167128
 20
120.6478135695
 10
147.6811236076
 20
120.647106571
 10
147.6519216287
 20
120.6468924641
 10
147.6209494087
 20
120.6475971513
 10
147.5890119105
 20
120.6477248717
 10
147.556754895
 20
120.6467879012
  0
LINE
  5
2BC
100
AcDbEntity
  8
RACCORDO
100
AcDbLine
 62
7
  6
CONTINUOUS
 10
150.0176121011
 20
121.8389473684
 11
150.0285273792
 21
121.8498626465
  0
LWPOLYLINE
  5
2BD
100
AcDbEntity
  8
RACCORDO
100
AcDbPolyline
 62
7
  6
CONTINUOUS
 90
3
 70
0
 10
150.1526669821
 20
121.9734364743
 10
150.206145197
 20
122.0268672925
 10
150.2604607947
 20
122.0813864943
  0
LINE
  5
2BE
100
AcDbEntity
  8
RACCORDO
100
AcDbLine
 62
7
  6
CONTINUOUS
 10
150.1355782956
 20
121.9564833459
 11
150.1526669821
 21
121.9734364743
  0
LINE
  5
2BF
100
AcDbEntity
  8
RACCORDO
100
AcDbLine
 62
7
  6
CONTINUOUS
 10
150.2604607947
 20
122.0813864943
 11
150.27851786
 21
122.0992582827
  0
LWPOLYLINE
  5
2C0
100
AcDbEntity
  8
RACCORDO
100
AcDbPolyline
 62
7
  6
CONTINUOUS
 90
3
 70
0
 10
150.0887206898
 20
121.9097713988
 10
150.1036051494
 20
121.9244643621
 10
150.1355782956
 20
121.9564833459
  0
LWPOLYLINE
  5
2C1
100
AcDbEntity
  8
RACCORDO
100
AcDbPolyline
 62
7
  6
CONTINUOUS
 90
7
 70
0
 10
150.0285273792
 20
121.8498626465
 10
150.031042719
 20
121.8516686671
 10
150.0356569812
 20
121.8563408169
 10
150.0423701656
 20
121.8634969446
 10
150.0514595723
 20
121.8727097456
 10
150.0626479012
 20
121.8836275389
 10
150.0887206898
 20
121.9097713988
  0
LWPOLYLINE
  5
2C2
100
AcDbEntity
  8
RACCORDO
100
AcDbPolyline
 62
253
  6
CONTINUOUS
 90
21
 70
0
 10
144.1481988782
 20
120.4629536086
 10
144.2911762839
 20
120.5624833659
 10
144.4402501318
 20
120.6526228795
 10
144.594805756
 20
120.7330007259
 10
144.7542034966
 20
120.803284475
 10
144.9177839914
 20
120.8631839653
 10
145.0848706402
 20
120.9124520973
 10
145.2547740684
 20
120.9508862198
 10
145.4267941951
 20
120.9783284006
 10
145.6002160755
 20
120.9946652547
 10
145.7743280615
 20
120.9998303771
 10
145.948426536
 20
120.993801636
 10
146.1217233451
 20
120.9766103069
 10
146.2935726296
 20
120.9483244268
 10
146.4634813601
 20
120.9090004399
 10
146.6306959703
 20
120.8587697559
 10
146.7945507991
 20
120.7977885072
 10
146.9546633114
 20
120.7261135955
 10
147.1104177714
 20
120.6438830674
 10
147.2609949177
 20
120.5513870169
 10
147.4056945565
 20
120.4489205672
  0
LWPOLYLINE
  5
2C3
100
AcDbEntity
  8
RACCORDO
100
AcDbPolyline
 62
253
  6
CONTINUOUS
 90
13
 70
0
 10
162.9784693094
 20
120.6467879012
 10
162.9462122922
 20
120.6477247796
 10
162.9142747934
 20
120.6475969819
 10
162.8833025736
 20
120.6468922342
 10
162.8541005945
 20
120.6471062949
 10
162.8271074891
 20
120.6478132646
 10
162.8024656215
 20
120.6471795386
 10
162.7806675847
 20
120.6472000092
 10
162.76247509
 20
120.6482917595
 10
162.7481305282
 20
120.6476065536
 10
162.737602762
 20
120.6456339905
 10
162.7309828789
 20
120.6452959197
 10
162.7284788324
 20
120.648108981
  0
LWPOLYLINE
  5
2C4
100
AcDbEntity
  8
RACCORDO
100
AcDbPolyline
 62
253
  6
CONTINUOUS
 90
13
 70
0
 10
163.1295298477
 20
120.44892074
 10
163.1259132104
 20
120.449310401
 10
163.1223054834
 20
120.4548412449
 10
163.1176275024
 20
120.4644296601
 10
163.1096189932
 20
120.4762585783
 10
163.0978777616
 20
120.4900743195
 10
163.0848067237
 20
120.5073915088
 10
163.0705219688
 20
120.527340335
 10
163.0537324057
 20
120.5483344537
 10
163.0359831345
 20
120.5713718167
 10
163.0178770264
 20
120.5963645202
 10
162.9987056578
 20
120.6217713258
 10
162.9784693094
 20
120.6467879012
  0
LWPOLYLINE
  5
2C5
100
AcDbEntity
  8
RACCORDO
100
AcDbPolyline
 62
7
  6
CONTINUOUS
 90
18
 70
0
 10
163.0937847302
 20
116.1674129249
 10
163.0663617755
 20
116.1813651639
 10
163.0378715814
 20
116.1916834383
 10
163.0078496039
 20
116.198414882
 10
162.9767603869
 20
116.2015123611
 10
162.9459975619
 20
116.2008344736
 10
162.9155758174
 20
116.1962087232
 10
162.8854804649
 20
116.1878076062
 10
162.8570610707
 20
116.1760072089
 10
162.8303916245
 20
116.1606456265
 10
162.8053981365
 20
116.1418847638
 10
162.7832082032
 20
116.1205864224
 10
162.7639601471
 20
116.0966476986
 10
162.7475156457
 20
116.070171496
 10
162.7345873275
 20
116.0423283272
 10
162.7254127355
 20
116.0135083631
 10
162.7197543267
 20
115.9833214328
 10
162.7176121011
 20
115.9517675364
  0
LWPOLYLINE
  5
2C6
100
AcDbEntity
  8
RACCORDO
100
AcDbPolyline
 62
7
  6
CONTINUOUS
 90
6
 70
0
 10
162.7277290827
 20
113.9038303868
 10
162.7300400917
 20
113.9018257532
 10
162.7344869185
 20
113.8966907565
 10
162.741069563
 20
113.8889535919
 10
162.7500747198
 20
113.8792243123
 10
162.7612156945
 20
113.867939047
  0
LINE
  5
2C7
100
AcDbEntity
  8
COPY_PUBLISH
100
AcDbLine
 62
7
  6
CONTINUOUS
 10
147.3809564648
 20
145.7889473684
 11
147.4024843782
 21
145.6889473684
  0
LINE
  5
2C8
100
AcDbEntity
  8
0
100
AcDbLine
 62
7
  6
CONTINUOUS
 10
153.4828432676
 20
129.7889473684
 11
153.4828432676
 21
132.8389473684
  0
LWPOLYLINE
  5
2C9
100
AcDbEntity
  8
0
100
AcDbPolyline
 62
7
  6
CONTINUOUS
 90
2
 70
0
 43
0.3500000006
 10
154.2318969727
 20
155.5389440918
 10
154.2318969727
 20
157.0389536133
  0
LINE
  5
2CA
100
AcDbEntity
  8
0
100
AcDbLine
 62
253
  6
CONTINUOUS
 10
154.8729641728
 20
128.2889473684
 11
154.8729641728
 21
132.8389473684
  0
LINE
  5
2CB
100
AcDbEntity
  8
0
100
AcDbLine
 62
7
  6
CONTINUOUS
 10
155.1650634716
 20
132.8389473684
 11
155.1650634716
 21
128.2889473684
  0
LINE
  5
2CC
100
AcDbEntity
  8
0
100
AcDbLine
 62
7
  6
CONTINUOUS
 10
155.3701607306
 20
132.8389473684
 11
155.3701607306
 21
128.2889473684
  0
LINE
  5
2CD
100
AcDbEntity
  8
DRAFT
100
AcDbLine
 62
7
  6
CONTINUOUS
 10
150.0176121011
 20
121.8389473684
 11
147.8176121011
 21
121.8389473684
  0
LINE
  5
2CE
100
AcDbEntity
  8
RACCORDO
100
AcDbLine
 62
7
  6
CONTINUOUS
 10
147.8066968231
 20
121.8498626465
 11
150.0285273792
 21
121.8498626465
  0
LWPOLYLINE
  5
2CF
100
AcDbEntity
  8
0
100
AcDbPolyline
 62
7
  6
CONTINUOUS
 90
2
 70
0
 43
0.3500000006
 10
184.917612854
 20
121.9318006897
 10
183.4176033325
 20
121.9318006897
  0
LINE
  5
2D0
100
AcDbEntity
  8
RACCORDO
100
AcDbLine
 62
253
  6
CONTINUOUS
 10
147.5567063423
 20
122.0992582827
 11
150.27851786
 21
122.0992582827
  0
LINE
  5
2D1
100
AcDbEntity
  8
DRAFT
100
AcDbLine
 62
7
  6
CONTINUOUS
 10
162.7176121011
 20
122.6639473684
 11
160.5176121011
 21
122.6639473684
  0
LINE
  5
2D2
100
AcDbEntity
  8
RACCORDO
100
AcDbLine
 62
7
  6
CONTINUOUS
 10
160.5066856349
 20
122.6748738346
 11
162.7285385673
 21
122.6748738346
  0
LINE
  5
2D3
100
AcDbEntity
  8
RACCORDO
100
AcDbLine
 62
253
  6
CONTINUOUS
 10
160.2566951542
 20
122.9246821828
 11
162.9785290481
 21
122.9246821828
  0
LWPOLYLINE
  5
2D4
100
AcDbEntity
  8
0
100
AcDbPolyline
 62
7
  6
CONTINUOUS
 90
4
 70
0
 43
0.3500000006
 10
182.5604653931
 20
123.2889478455
 10
181.9176119385
 20
123.2889478455
 10
181.9176119385
 20
124.7889483032
 10
184.917612854
 20
123.9318013
  0
LWPOLYLINE
  5
2D5
100
AcDbEntity
  8
RACCORDO
100
AcDbPolyline
 62
253
  6
CONTINUOUS
 90
19
 70
0
 10
163.1291737607
 20
116.1297611164
 10
163.1035295884
 20
116.1468313401
 10
163.0759796641
 20
116.1606175327
 10
163.0469424339
 20
116.1709103009
 10
163.0168589343
 20
116.1775533115
 10
162.9861860929
 20
116.1804456666
 10
162.9553897881
 20
116.1795434352
 10
162.9249377738
 20
116.174860321
 10
162.8952925751
 20
116.1664674542
 10
162.8669044625
 20
116.154492311
 10
162.8402046129
 20
116.1391167777
 10
162.815598561
 20
116.1205743879
 10
162.7934600392
 20
116.0991467752
 10
162.7741253018
 20
116.0751593961
 10
162.7578880173
 20
116.0489765865
 10
162.7449948081
 20
116.0209960277
 10
162.7356415044
 20
115.9916427066
 10
162.7299701704
 20
115.9613624603
 10
162.728066946
 20
115.9306152049
  0
LINE
  5
2D6
100
AcDbEntity
  8
RACCORDO
100
AcDbLine
 62
7
  6
CONTINUOUS
 10
163.1201404453
 20
116.1498267212
 11
163.0937847302
 21
116.1674129249
  0
LINE
  5
2D7
100
AcDbEntity
  8
RACCORDO
100
AcDbLine
 62
7
  6
CONTINUOUS
 10
162.9594539166
 20
113.6671118996
 11
162.9777195635
 21
113.6490199423
  0
LINE
  5
2D8
100
AcDbEntity
  8
RACCORDO
100
AcDbLine
 62
7
  6
CONTINUOUS
 10
162.7176121011
 20
113.9139473684
 11
162.7277705994
 21
113.9037888702
  0
LINE
  5
2D9
100
AcDbEntity
  8
RACCORDO
100
AcDbLine
 62
7
  6
CONTINUOUS
 10
162.8864456338
 20
113.7405873965
 11
162.9594539166
 21
113.6671118996
  0
LINE
  5
2DA
100
AcDbEntity
  8
RACCORDO
100
AcDbLine
 62
7
  6
CONTINUOUS
 10
162.8020627127
 20
113.8261178025
 11
162.8864456338
 21
113.7405873965
  0
LWPOLYLINE
  5
2DB
100
AcDbEntity
  8
RACCORDO
100
AcDbPolyline
 62
7
  6
CONTINUOUS
 90
3
 70
0
 10
162.7612156945
 20
113.867939047
 10
162.7872096909
 20
113.8411187757
 10
162.8020627127
 20
113.8261178025
  0
LINE
  5
2DC
100
AcDbEntity
  8
0
100
AcDbLine
 62
253
  6
CONTINUOUS
 10
155.6622600295
 20
128.2889473684
 11
155.6622600295
 21
132.8389473684
  0
LINE
  5
2DD
100
AcDbEntity
  8
0
100
AcDbLine
 62
7
  6
CONTINUOUS
 10
157.0523809347
 20
129.7889473684
 11
157.0523809347
 21
132.8389473684
  0
LWPOLYLINE
  5
2DE
100
AcDbEntity
  8
0
100
AcDbPolyline
 62
7
  6
CONTINUOUS
 90
4
 70
0
 43
0.3500000006
 10
157.3033200073
 20
155.9675130615
 10
157.3033200073
 20
156.8246691284
 10
157.7318889771
 20
157.2532380981
 10
158.3747605591
 20
157.2532380981
  0
LINE
  5
2DF
100
AcDbEntity
  8
0
100
AcDbLine
 62
7
  6
CONTINUOUS
 10
157.5473556815
 20
129.7889473684
 11
157.5473556815
 21
132.8389473684
  0
LWPOLYLINE
  5
2E0
100
AcDbEntity
  8
RACCORDO
100
AcDbPolyline
 62
253
  6
CONTINUOUS
 90
49
 70
0
 10
157.9281239816
 20
130.1891304953
 10
157.9224681127
 20
130.0152119149
 10
157.9054425888
 20
129.8419442854
 10
157.8771025561
 20
129.6700714878
 10
157.8375373413
 20
129.5002788135
 10
157.7869067701
 20
129.3333555179
 10
157.7254761052
 20
129.1701809318
 10
157.6535564058
 20
129.0115170726
 10
157.5714462623
 20
128.8579677135
 10
157.4794814438
 20
128.7101392878
 10
157.378056979
 20
128.5686583316
 10
157.2676137315
 20
128.4341320712
 10
157.1486014035
 20
128.3071062572
 10
157.0215113168
 20
128.1881120311
 10
156.886900477
 20
128.0776771785
 10
156.7453666493
 20
127.9762917347
 10
156.5975294996
 20
127.8843943549
 10
156.4440126428
 20
127.8023676587
 10
156.2854619268
 20
127.7305548574
 10
156.1225511598
 20
127.669261417
 10
155.9559824359
 20
127.6187517637
 10
155.7864706993
 20
127.5792421631
 10
155.6147434206
 20
127.5509013097
 10
155.4415339331
 20
127.5338493895
 10
155.2675800949
 20
127.5281586951
 10
155.0936263325
 20
127.5338535788
 10
154.9204171515
 20
127.550909684
 10
154.7486905267
 20
127.5792546858
 10
154.5791798877
 20
127.6187683387
 10
154.4126125921
 20
127.6692819306
 10
154.2497033916
 20
127.7305792401
 10
154.0911542557
 20
127.8023959085
 10
153.9376391291
 20
127.8844264294
 10
153.7898040516
 20
127.9763274708
 10
153.6482725924
 20
128.0777164012
 10
153.5136644263
 20
128.1881545155
 10
153.386577527
 20
128.3071515151
 10
153.267569633
 20
128.4341786223
 10
153.1571310524
 20
128.5687054527
 10
153.0557095299
 20
128.7101889978
 10
152.9637451315
 20
128.8580245153
 10
152.8816349182
 20
129.0115837143
 10
152.8097167916
 20
129.1702564824
 10
152.7482884299
 20
129.3334409484
 10
152.6976616586
 20
129.5003729099
 10
152.6581036076
 20
129.6701622686
 10
152.6297722262
 20
129.8420157169
 10
152.6127535161
 20
130.0152513162
 10
152.6071002197
 20
130.1891253698
  0
LWPOLYLINE
  5
2E1
100
AcDbEntity
  8
RACCORDO
100
AcDbPolyline
 62
7
  6
CONTINUOUS
 90
3
 70
0
 10
147.7480623567
 20
114.6664492205
 10
147.733081114
 20
114.6513424535
 10
147.700845976
 20
114.6185149651
  0
LINE
  5
2E2
100
AcDbEntity
  8
RACCORDO
100
AcDbLine
 62
7
  6
CONTINUOUS
 10
147.700845976
 20
114.6185149651
 11
147.6480248758
 21
114.5652113223
  0
LWPOLYLINE
  5
2E3
100
AcDbEntity
  8
RACCORDO
100
AcDbPolyline
 62
7
  6
CONTINUOUS
 90
3
 70
0
 10
147.6297115663
 20
114.5468737924
 10
147.5753467242
 20
114.4920985159
 10
147.5573717707
 20
114.4742997142
  0
LINE
  5
2E4
100
AcDbEntity
  8
RACCORDO
100
AcDbLine
 62
7
  6
CONTINUOUS
 10
147.6480248758
 20
114.5652113223
 11
147.6297115663
 21
114.5468737924
  0
LINE
  5
2E5
100
AcDbEntity
  8
RACCORDO
100
AcDbLine
 62
7
  6
CONTINUOUS
 10
147.8176121011
 20
114.7389473684
 11
147.8073622515
 21
114.7286975188
  0
LWPOLYLINE
  5
2E6
100
AcDbEntity
  8
RACCORDO
100
AcDbPolyline
 62
7
  6
CONTINUOUS
 90
7
 70
0
 10
147.8073622515
 20
114.7286975188
 10
147.8051394622
 20
114.7267549613
 10
147.8007631753
 20
114.7217578023
 10
147.7942333908
 20
114.7141796161
 10
147.7852724588
 20
114.7045667973
 10
147.7741580291
 20
114.6933235665
 10
147.7480623567
 20
114.6664492205
  0
LWPOLYLINE
  5
2E7
100
AcDbEntity
  8
RACCORDO
100
AcDbPolyline
 62
253
  6
CONTINUOUS
 90
50
 70
0
 10
147.4060505401
 20
116.129761122
 10
147.2638653217
 20
116.028922204
 10
147.1155232644
 20
115.9374474387
 10
146.9616409352
 20
115.8557092281
 10
146.8028683397
 20
115.7840440957
 10
146.6398533166
 20
115.7227358359
 10
146.4732360098
 20
115.6720216442
 10
146.3036931106
 20
115.6321089899
 10
146.1319349022
 20
115.603166647
 10
145.9586673545
 20
115.5853141917
 10
145.784604402
 20
115.5786262905
 10
145.6104658708
 20
115.583131803
 10
145.4369715184
 20
115.5988131043
 10
145.2648389146
 20
115.6256061087
 10
145.0947778384
 20
115.6634012156
 10
144.9274882434
 20
115.7120442505
 10
144.763660436
 20
115.7713361019
 10
144.6039726384
 20
115.8410330475
 10
144.4490856564
 20
115.9208485412
 10
144.2996397722
 20
116.0104542291
 10
144.1562534494
 20
116.1094810171
 10
144.019521246
 20
116.2175202835
 10
143.8900087771
 20
116.3341266199
 10
143.7682522965
 20
116.45881886
 10
143.6547575011
 20
116.5910810893
 10
143.5499940605
 20
116.7303672235
 10
143.4543958126
 20
116.8761018292
 10
143.3683601871
 20
117.0276807787
 10
143.2922432018
 20
117.1844774866
 10
143.2263598234
 20
117.3458438279
 10
143.1709837964
 20
117.5111104824
 10
143.1263439916
 20
117.6795939372
 10
143.0926247779
 20
117.850597583
 10
143.06996592
 20
118.0234122119
 10
143.0584605701
 20
118.1973229802
 10
143.0581556563
 20
118.3716109589
 10
143.0690519059
 20
118.5455539563
 10
143.0911033719
 20
118.7184326595
 10
143.1242179645
 20
118.8895326488
 10
143.1682577183
 20
119.0581457799
 10
143.223039438
 20
119.2235750403
 10
143.2883356554
 20
119.3851372533
 10
143.3638753936
 20
119.5421649162
 10
143.4493453274
 20
119.6940093706
 10
143.544391279
 20
119.8400438554
 10
143.6486197242
 20
119.9796659017
 10
143.7615989979
 20
120.112299107
 10
143.882861555
 20
120.2373963508
 10
144.0119062865
 20
120.354442278
 10
144.1481988782
 20
120.4629536086
  0
LWPOLYLINE
  5
2E8
100
AcDbEntity
  8
RACCORDO
100
AcDbPolyline
 62
253
  6
CONTINUOUS
 90
50
 70
0
 10
147.5571667785
 20
115.927104466
 10
147.4007092427
 20
115.8162318737
 10
147.2389120646
 20
115.7163497839
 10
147.0717752442
 20
115.6274581016
 10
146.8985773579
 20
115.5492949967
 10
146.7200398293
 20
115.4821221368
 10
146.5383269293
 20
115.426724682
 10
146.3533899791
 20
115.3832336886
 10
146.1652776575
 20
115.351517991
 10
145.9763002723
 20
115.3319694289
 10
145.786445553
 20
115.3247377892
 10
145.5957257701
 20
115.3296732536
 10
145.4064880425
 20
115.346718274
 10
145.2187514468
 20
115.3760220669
 10
145.0324969064
 20
115.4174354692
 10
144.8500143106
 20
115.4704533817
 10
144.6713485962
 20
115.5352194426
 10
144.4964548264
 20
115.6115901406
 10
144.32748808
 20
115.6986296615
 10
144.1645209798
 20
115.7964705614
 10
144.0074809031
 20
115.9049804579
 10
143.8583050597
 20
116.0228261217
 10
143.7170904149
 20
116.1501238647
 10
143.5837400035
 20
116.2867575603
 10
143.4599001397
 20
116.4310452946
 10
143.3456886016
 20
116.5830825795
 10
143.2409876112
 20
116.7427740644
 10
143.1470901484
 20
116.9081514984
 10
143.0641303959
 20
117.0792856819
 10
142.9919741711
 20
117.2561059233
 10
142.9315119065
 20
117.4364316787
 10
142.8828889181
 20
117.620306387
 10
142.8459598899
 20
117.807686651
 10
142.8211793064
 20
117.9962616115
 10
142.8086980272
 20
118.1860456968
 10
142.8083651926
 20
118.3770244532
 10
142.8201827076
 20
118.5668436424
 10
142.844301209
 20
118.7554883309
 10
142.88057006
 20
118.9429733729
 10
142.9285392553
 20
119.1269891633
 10
142.988353498
 20
119.3074920261
 10
143.059868085
 20
119.4845255253
 10
143.1421989024
 20
119.6559108787
 10
143.235479408
 20
119.821577639
 10
143.3395761439
 20
119.9815961317
 10
143.4532046226
 20
120.1339987108
 10
143.5764821769
 20
120.2786908108
 10
143.7092914739
 20
120.4157668848
 10
143.8499960274
 20
120.5435428037
 10
143.998692212
 20
120.6619032906
  0
LINE
  5
2E9
100
AcDbEntity
  8
0
100
AcDbLine
 62
7
  6
CONTINUOUS
 10
154.0485286925
 20
128.2889473684
 11
152.9878685207
 21
129.7889473684
  0
LINE
  5
2EA
100
AcDbEntity
  8
0
100
AcDbLine
 62
7
  6
CONTINUOUS
 10
153.4828432676
 20
129.7889473684
 11
154.5435034394
 21
128.2889473684
  0
LINE
  5
2EB
100
AcDbEntity
  8
RACCORDO
100
AcDbLine
 62
253
  6
CONTINUOUS
 10
157.9277416512
 20
132.8490769185
 11
157.9281239873
 21
130.1891304952
  0
LINE
  5
2EC
100
AcDbEntity
  8
RACCORDO
100
AcDbLine
 62
253
  6
CONTINUOUS
 10
158.1776898513
 20
133.1039326112
 11
158.1781144916
 21
130.1923990943
  0
LINE
  5
2ED
100
AcDbEntity
  8
DRAFT
100
AcDbLine
 62
7
  6
CONTINUOUS
 10
157.9176121011
 20
130.1889473684
 11
157.9176121011
 21
132.8389473684
  0
LWPOLYLINE
  5
2EE
100
AcDbEntity
  8
RACCORDO
100
AcDbPolyline
 62
253
  6
CONTINUOUS
 90
49
 70
0
 10
158.1781144916
 20
130.1923990943
 10
158.1718344238
 20
130.0014113411
 10
158.1533177481
 20
129.8125590901
 10
158.1225644646
 20
129.6258424004
 10
158.0793214682
 20
129.4403592108
 10
158.023841864
 20
129.2570116861
 10
157.956884967
 20
129.0785062565
 10
157.8783203326
 20
128.9050484602
 10
157.7882784054
 20
128.7364329229
 10
157.6879098347
 20
128.5747497581
 10
157.5770902374
 20
128.4200786741
 10
157.4559439966
 20
128.272340134
 10
157.3259949105
 20
128.1333854129
 10
157.1871152319
 20
128.0033096721
 10
157.0394327079
 20
127.882017908
 10
156.8848543787
 20
127.7710761624
 10
156.7233030403
 20
127.6706270119
 10
156.5548558965
 20
127.580528008
 10
156.3816515991
 20
127.5019176588
 10
156.2036250282
 20
127.4349396614
 10
156.0208413037
 20
127.3794504069
 10
155.8356344365
 20
127.3361574396
 10
155.6479753794
 20
127.3052171958
 10
155.4578931796
 20
127.286473284
 10
155.2678089903
 20
127.2801639972
 10
155.0777225366
 20
127.2864477132
 10
154.8876340934
 20
127.3051660543
 10
154.699965638
 20
127.3360821697
 10
154.5147458157
 20
127.379352828
 10
154.3319459813
 20
127.4348212159
 10
154.1539021769
 20
127.5017801002
 10
153.9806799415
 20
127.5803732429
 10
153.8122137361
 20
127.6704567937
 10
153.6506429868
 20
127.7708920966
 10
153.4960449512
 20
127.8818216678
 10
153.3483423716
 20
128.0031028631
 10
153.2094429009
 20
128.1331692892
 10
153.0794749942
 20
128.2721148634
 10
152.9583101964
 20
128.4198455107
 10
152.8474707946
 20
128.5745128636
 10
152.7470795275
 20
128.7361986501
 10
152.6570136565
 20
128.9048209705
 10
152.5784272528
 20
129.0782860447
 10
152.5114522691
 20
129.256791599
 10
152.4559567527
 20
129.4401397434
 10
152.4126989173
 20
129.6256433241
 10
152.3819315007
 20
129.8124066018
 10
152.3634017652
 20
130.0013252116
 10
152.3571097106
 20
130.1923990943
  0
LINE
  5
2EF
100
AcDbEntity
  8
COPY_PUBLISH
100
AcDbLine
 62
7
  6
CONTINUOUS
 10
163.1542677375
 20
145.7889473684
 11
163.1327398241
 21
145.6889473684
  0
LWPOLYLINE
  5
2F0
100
AcDbEntity
  8
RACCORDO
100
AcDbPolyline
 62
7
  6
CONTINUOUS
 90
6
 70
0
 10
160.5066856349
 20
122.6748738346
 10
160.50420062
 20
122.676688488
 10
160.4996108944
 20
122.6813816762
 10
160.4929164583
 20
122.6885661294
 10
160.4838403939
 20
122.6978074977
 10
160.472659619
 20
122.7087511811
  0
LINE
  5
2F1
100
AcDbEntity
  8
RACCORDO
100
AcDbLine
 62
7
  6
CONTINUOUS
 10
160.2747299885
 20
122.9068316695
 11
160.2566951542
 21
122.9246821828
  0
LINE
  5
2F2
100
AcDbEntity
  8
RACCORDO
100
AcDbLine
 62
7
  6
CONTINUOUS
 10
160.5176121011
 20
122.6639473684
 11
160.50668777
 21
122.6748716995
  0
LWPOLYLINE
  5
2F3
100
AcDbEntity
  8
RACCORDO
100
AcDbPolyline
 62
7
  6
CONTINUOUS
 90
3
 70
0
 10
160.472659619
 20
122.7087511811
 10
160.4465792595
 20
122.7349607402
 10
160.4316796749
 20
122.7496948182
  0
LINE
  5
2F4
100
AcDbEntity
  8
RACCORDO
100
AcDbLine
 62
7
  6
CONTINUOUS
 10
160.4316796749
 20
122.7496948182
 11
160.2747299885
 21
122.9068316695
  0
LINE
  5
2F5
100
AcDbEntity
  8
RACCORDO
100
AcDbLine
 62
253
  6
CONTINUOUS
 10
162.7176121011
 20
115.9517675364
 11
162.7280669675
 21
115.9306153142
  0
LINE
  5
2F6
100
AcDbEntity
  8
0
100
AcDbLine
 62
7
  6
CONTINUOUS
 10
156.0516820497
 20
127.659036358
 11
155.7458153784
 21
128.2889473684
  0
LINE
  5
2F7
100
AcDbEntity
  8
0
100
AcDbLine
 62
7
  6
CONTINUOUS
 10
156.3577533484
 20
128.2889473684
 11
156.5583288334
 21
127.8758761897
  0
LINE
  5
2F8
100
AcDbEntity
  8
RACCORDO
100
AcDbLine
 62
253
  6
CONTINUOUS
 10
163.1201404453
 20
116.1498267212
 11
163.1291736799
 21
116.129761064
  0
LINE
  5
2F9
100
AcDbEntity
  8
COPY_PUBLISH
100
AcDbLine
 62
7
  6
CONTINUOUS
 10
163.1542677375
 20
100.7889473684
 11
163.1327398241
 21
100.8889473684
  0
LINE
  5
2FA
100
AcDbEntity
  8
RACCORDO
100
AcDbLine
 62
253
  6
CONTINUOUS
 10
160.2575046388
 20
113.6490199423
 11
160.2567562337
 21
120.6679817739
  0
LINE
  5
2FB
100
AcDbEntity
  8
RACCORDO
100
AcDbLine
 62
253
  6
CONTINUOUS
 10
160.2567562337
 20
120.6679817739
 11
160.2566951542
 21
122.9246821828
  0
LINE
  5
2FC
100
AcDbEntity
  8
RACCORDO
100
AcDbLine
 62
253
  6
CONTINUOUS
 10
160.5074536029
 20
113.9037888702
 11
160.5067520018
 21
120.5489929378
  0
LINE
  5
2FD
100
AcDbEntity
  8
RACCORDO
100
AcDbLine
 62
253
  6
CONTINUOUS
 10
160.5067520018
 20
120.5489929378
 11
160.50668777
 21
122.6748716995
  0
LINE
  5
2FE
100
AcDbEntity
  8
DRAFT
100
AcDbLine
 62
7
  6
CONTINUOUS
 10
160.5176121011
 20
122.6639473684
 11
160.5176121011
 21
113.9139473684
  0
LINE
  5
2FF
100
AcDbEntity
  8
0
100
AcDbLine
 62
7
  6
CONTINUOUS
 10
147.3176121011
 20
100.8889473684
 11
147.2509793035
 21
100.7889473684
  0
LINE
  5
300
100
AcDbEntity
  8
RACCORDO
100
AcDbLine
 62
7
  6
CONTINUOUS
 10
162.7176121011
 20
122.6639473684
 11
162.7285385673
 21
122.6748738346
  0
LINE
  5
301
100
AcDbEntity
  8
RACCORDO
100
AcDbLine
 62
7
  6
CONTINUOUS
 10
162.8526479699
 20
122.7987716857
 11
162.9604788885
 21
122.9068162675
  0
LINE
  5
302
100
AcDbEntity
  8
RACCORDO
100
AcDbLine
 62
7
  6
CONTINUOUS
 10
162.8355455974
 20
122.7817870571
 11
162.8526479699
 21
122.7987716857
  0
LINE
  5
303
100
AcDbEntity
  8
RACCORDO
100
AcDbLine
 62
7
  6
CONTINUOUS
 10
162.9604788885
 20
122.9068162675
 11
162.9785290481
 21
122.9246821828
  0
LWPOLYLINE
  5
304
100
AcDbEntity
  8
RACCORDO
100
AcDbPolyline
 62
7
  6
CONTINUOUS
 90
3
 70
0
 10
162.7886581453
 20
122.7349743652
 10
162.8035506851
 20
122.7497013861
 10
162.8355455974
 20
122.7817870571
  0
LWPOLYLINE
  5
305
100
AcDbEntity
  8
RACCORDO
100
AcDbPolyline
 62
7
  6
CONTINUOUS
 90
7
 70
0
 10
162.7285385673
 20
122.6748738346
 10
162.7310295027
 20
122.6766909851
 10
162.7356239616
 20
122.6813896538
 10
162.7423219441
 20
122.6885802921
 10
162.7514008155
 20
122.6978259022
 10
162.7625832105
 20
122.7087704534
 10
162.7886581453
 20
122.7349743652
  0
LWPOLYLINE
  5
306
100
AcDbEntity
  8
RACCORDO
100
AcDbPolyline
 62
253
  6
CONTINUOUS
 90
50
 70
0
 10
162.9784692531
 20
120.6466167277
 10
163.1349557727
 20
120.7574689216
 10
163.2967816863
 20
120.8573286124
 10
163.4639469939
 20
120.9461957634
 10
163.6371736935
 20
121.024332127
 10
163.8157397871
 20
121.0914758946
 10
163.9974792801
 20
121.1468416945
 10
164.1824408951
 20
121.1902981055
 10
164.3705759095
 20
121.2219765175
 10
164.5595721604
 20
121.2414857808
 10
164.7494416794
 20
121.2486758226
 10
164.9401724349
 20
121.2436967074
 10
165.1294161703
 20
121.2266074971
 10
165.3171533995
 20
121.1972589629
 10
165.5034036085
 20
121.1558003476
 10
165.6858769986
 20
121.1027384253
 10
165.8645282648
 20
121.0379298478
 10
166.039402712
 20
120.9615180011
 10
166.2083464565
 20
120.874439765
 10
166.3712867176
 20
120.7765630522
 10
166.528296276
 20
120.6680200139
 10
166.677439589
 20
120.5501438891
 10
166.8186197993
 20
120.4228188007
 10
166.9519337643
 20
120.2861607163
 10
167.0757365141
 20
120.1418506397
 10
167.1899105489
 20
119.9897932687
 10
167.2945733684
 20
119.8300840177
 10
167.3884325027
 20
119.6646899543
 10
167.4713540305
 20
119.4935401959
 10
167.5434718729
 20
119.3167057469
 10
167.603895323
 20
119.1363664822
 10
167.6524791413
 20
118.9524786756
 10
167.6893685672
 20
118.7650861656
 10
167.7141086125
 20
118.5765001383
 10
167.7265482562
 20
118.3867058599
 10
167.7268385193
 20
118.1957181441
 10
167.7149774768
 20
118.0058924496
 10
167.6908141868
 20
117.8172435625
 10
167.6544995913
 20
117.6297567229
 10
167.6064845901
 20
117.4457430138
 10
167.5466242184
 20
117.2652461884
 10
167.4750634411
 20
117.0882224529
 10
167.3926880535
 20
116.9168515096
 10
167.29936455
 20
116.7512040317
 10
167.1952264361
 20
116.5912092381
 10
167.0815600237
 20
116.4388345944
 10
166.9582482023
 20
116.2941748676
 10
166.8254080823
 20
116.1571351302
 10
166.6846773072
 20
116.0293982635
 10
166.5359599007
 20
115.9110795588
  0
LINE
  5
307
100
AcDbEntity
  8
0
100
AcDbLine
 62
7
  6
CONTINUOUS
 10
156.4866955097
 20
128.2889473684
 11
155.9917207629
 21
128.2889473684
  0
LINE
  5
308
100
AcDbEntity
  8
0
100
AcDbLine
 62
7
  6
CONTINUOUS
 10
154.0485286925
 20
128.2889473684
 11
154.5435034394
 21
128.2889473684
  0
LINE
  5
309
100
AcDbEntity
  8
0
100
AcDbLine
 62
7
  6
CONTINUOUS
 10
154.5435034394
 20
128.2889473684
 11
155.1650215578
 21
128.2889473684
  0
LINE
  5
30A
100
AcDbEntity
  8
0
100
AcDbLine
 62
7
  6
CONTINUOUS
 10
155.3702026444
 20
128.2889473684
 11
155.9917207629
 21
128.2889473684
  0
LINE
  5
30B
100
AcDbEntity
  8
0
100
AcDbLine
 62
7
  6
CONTINUOUS
 10
157.5473556815
 20
129.7889473684
 11
157.0523809347
 21
129.7889473684
  0
LINE
  5
30C
100
AcDbEntity
  8
0
100
AcDbLine
 62
7
  6
CONTINUOUS
 10
152.9878685207
 20
129.7889473684
 11
153.4828432676
 21
129.7889473684
  0
LWPOLYLINE
  5
30D
100
AcDbEntity
  8
RACCORDO
100
AcDbPolyline
 62
7
  6
CONTINUOUS
 90
6
 70
0
 10
152.6075248317
 20
132.8490346379
 10
152.6052168619
 20
132.8510426666
 10
152.6007725344
 20
132.8561855403
 10
152.594191849
 20
132.8639325154
 10
152.5851879424
 20
132.873670393
 10
152.574047678
 20
132.8849616249
  0
LINE
  5
30E
100
AcDbEntity
  8
RACCORDO
100
AcDbLine
 62
7
  6
CONTINUOUS
 10
152.3758040561
 20
133.0858364683
 11
152.3575343509
 21
133.1039326112
  0
LINE
  5
30F
100
AcDbEntity
  8
RACCORDO
100
AcDbLine
 62
7
  6
CONTINUOUS
 10
152.6176121011
 20
132.8389473684
 11
152.6074825511
 21
132.8490769185
  0
LINE
  5
310
100
AcDbEntity
  8
RACCORDO
100
AcDbLine
 62
7
  6
CONTINUOUS
 10
152.5012640139
 20
132.9593704455
 11
152.3758040561
 21
133.0858364683
  0
LINE
  5
311
100
AcDbEntity
  8
RACCORDO
100
AcDbLine
 62
7
  6
CONTINUOUS
 10
152.5332030112
 20
132.9267981569
 11
152.5012640139
 21
132.9593704455
  0
LWPOLYLINE
  5
312
100
AcDbEntity
  8
RACCORDO
100
AcDbPolyline
 62
7
  6
CONTINUOUS
 90
3
 70
0
 10
152.574047678
 20
132.8849616249
 10
152.5480552123
 20
132.911792546
 10
152.5332030112
 20
132.9267981569
  0
LINE
  5
313
100
AcDbEntity
  8
0
100
AcDbLine
 62
7
  6
CONTINUOUS
 10
147.2509793035
 20
145.7889473684
 11
147.3176121011
 21
145.6889473684
  0
LWPOLYLINE
  5
314
100
AcDbEntity
  8
RACCORDO
100
AcDbPolyline
 62
7
  6
CONTINUOUS
 90
19
 70
0
 10
162.7176121011
 20
120.6261272005
 10
162.7197583223
 20
120.5945342526
 10
162.7254307896
 20
120.5643111659
 10
162.7346295032
 20
120.5354579403
 10
162.7475999394
 20
120.5075786041
 10
162.7640966219
 20
120.481069129
 10
162.7833831209
 20
120.4571174304
 10
162.8055867442
 20
120.4358398243
 10
162.8305801841
 20
120.4171199948
 10
162.8572450871
 20
120.4017969088
 10
162.885658631
 20
120.3900255473
 10
162.9157436381
 20
120.3816509294
 10
162.9461502219
 20
120.3770470787
 10
162.9768914801
 20
120.3763864522
 10
163.0079543148
 20
120.3794965929
 10
163.0379495467
 20
120.3862341542
 10
163.0664141158
 20
120.396551354
 10
163.093811082
 20
120.4104959745
 10
163.1201404453
 20
120.4280680156
  0
LWPOLYLINE
  5
315
100
AcDbEntity
  8
RACCORDO
100
AcDbPolyline
 62
253
  6
CONTINUOUS
 90
19
 70
0
 10
162.7284788324
 20
120.648108981
 10
162.7303815762
 20
120.6173655826
 10
162.7360514871
 20
120.5870890171
 10
162.7454024685
 20
120.5577390286
 10
162.7582925276
 20
120.5297612914
 10
162.7745259311
 20
120.5035806423
 10
162.7938561777
 20
120.4795946297
 10
162.8159897412
 20
120.4581674769
 10
162.8405905274
 20
120.4396245512
 10
162.8672849778
 20
120.4242474237
 10
162.8956677422
 20
120.4122695931
 10
162.9253078333
 20
120.4038729407
 10
162.9557551719
 20
120.3991849682
 10
162.9865474204
 20
120.3982768614
 10
163.0172170043
 20
120.4011624099
 10
163.0472982119
 20
120.4077977972
 10
163.0763342657
 20
120.4180822663
 10
163.1038842582
 20
120.4318596496
 10
163.1295298477
 20
120.44892074
  0
LINE
  5
316
100
AcDbEntity
  8
RACCORDO
100
AcDbLine
 62
7
  6
CONTINUOUS
 10
162.7176121011
 20
113.9139473684
 11
162.7176121011
 21
115.9517675364
  0
LINE
  5
317
100
AcDbEntity
  8
RACCORDO
100
AcDbLine
 62
7
  6
CONTINUOUS
 10
162.7176121011
 20
120.6261272005
 11
162.7176121011
 21
122.6639473684
  0
LINE
  5
318
100
AcDbEntity
  8
RACCORDO
100
AcDbLine
 62
253
  6
CONTINUOUS
 10
162.7285364322
 20
122.6748716995
 11
162.7284787799
 21
120.6481086931
  0
LINE
  5
319
100
AcDbEntity
  8
RACCORDO
100
AcDbLine
 62
253
  6
CONTINUOUS
 10
162.9785290481
 20
122.9246821828
 11
162.9784692531
 21
120.6466167277
  0
LINE
  5
31A
100
AcDbEntity
  8
0
100
AcDbLine
 62
7
  6
CONTINUOUS
 10
163.0477918414
 20
145.7889473684
 11
163.0477918414
 21
145.6889473684
  0
LINE
  5
31B
100
AcDbEntity
  8
0
100
AcDbLine
 62
7
  6
CONTINUOUS
 10
163.0477918414
 20
100.7889473684
 11
163.0477918414
 21
100.8889473684
  0
LINE
  5
31C
100
AcDbEntity
  8
RACCORDO
100
AcDbLine
 62
253
  6
CONTINUOUS
 10
162.7280669675
 20
115.9306153142
 11
162.7277705994
 21
113.9037888702
  0
LINE
  5
31D
100
AcDbEntity
  8
RACCORDO
100
AcDbLine
 62
253
  6
CONTINUOUS
 10
162.9780576356
 20
115.9277978048
 11
162.9777195635
 21
113.6490199423
  0
LINE
  5
31E
100
AcDbEntity
  8
RACCORDO
100
AcDbLine
 62
253
  6
CONTINUOUS
 10
163.1201404453
 20
120.4280680156
 11
163.1295296709
 21
120.4489206221
  0
LINE
  5
31F
100
AcDbEntity
  8
RACCORDO
100
AcDbLine
 62
253
  6
CONTINUOUS
 10
162.7176121011
 20
120.6261272005
 11
162.7284787799
 21
120.6481086931
  0
LWPOLYLINE
  5
320
100
AcDbEntity
  8
RACCORDO
100
AcDbPolyline
 62
7
  6
CONTINUOUS
 90
50
 70
0
 10
163.1295296709
 20
120.4489206221
 10
163.2717420457
 20
120.5497432225
 10
163.4201118277
 20
120.6411998283
 10
163.5740222148
 20
120.7229178292
 10
163.7328231607
 20
120.7945606681
 10
163.8958663343
 20
120.855844232
 10
164.0625105639
 20
120.9065308721
 10
164.232078756
 20
120.9464131591
 10
164.4038602518
 20
120.9753224641
 10
164.5771479847
 20
120.993139253
 10
164.7512275113
 20
120.99978918
 10
164.925378795
 20
120.9952438232
 10
165.0988814539
 20
120.9795212945
 10
165.2710174785
 20
120.9526862281
 10
165.4410771215
 20
120.914848806
 10
165.6083606083
 20
120.866163792
 10
165.7721773919
 20
120.806830902
 10
165.9318494655
 20
120.7370943989
 10
166.0867169436
 20
120.6572411186
 10
166.236139502
 20
120.5675998776
 10
166.3794989344
 20
120.4685401448
 10
166.5162019762
 20
120.3604703073
 10
166.6456830685
 20
120.243835961
 10
166.7674060883
 20
120.11911847
 10
166.8808665235
 20
119.9868330927
 10
166.9855947216
 20
119.8475258185
 10
167.0811567533
 20
119.7017721933
 10
167.1671559343
 20
119.5501756498
 10
167.2432361391
 20
119.3933625126
 10
167.3090821187
 20
119.2319810519
 10
167.3644204211
 20
119.066700304
 10
167.409021966
 20
118.8982035182
 10
167.4427020508
 20
118.7271875447
 10
167.4653210269
 20
118.5543619763
 10
167.4767855536
 20
118.3804415097
 10
167.477048486
 20
118.2061453653
 10
167.4661094111
 20
118.0321966972
 10
167.4440142574
 20
117.8593147983
 10
167.410855119
 20
117.6882142951
 10
167.366770697
 20
117.5196044659
 10
167.3119444213
 20
117.3541823356
 10
167.2466039677
 20
117.1926310535
 10
167.1710213852
 20
117.0356189191
 10
167.0855104458
 20
116.8837945015
 10
166.990425609
 20
116.7377842278
 10
166.8861614426
 20
116.5981906779
 10
166.773150112
 20
116.465589979
 10
166.6518593513
 20
116.3405286706
 10
166.5227908418
 20
116.2235215288
 10
166.3864792503
 20
116.1150513996
  0
LWPOLYLINE
  5
321
100
AcDbEntity
  8
RACCORDO
100
AcDbPolyline
 62
253
  6
CONTINUOUS
 90
6
 70
0
 10
157.9805443555
 20
130.191038801
 10
157.9623288317
 20
130.1906646357
 10
157.9477646305
 20
130.1902614106
 10
157.937098209
 20
130.1898359491
 10
157.9305100656
 20
130.1893954509
 10
157.9281116857
 20
130.1889473701
  0
LINE
  5
322
100
AcDbEntity
  8
RACCORDO
100
AcDbLine
 62
253
  6
CONTINUOUS
 10
157.9176121011
 20
130.1889473684
 11
157.9281239873
 21
130.1891304952
  0
LINE
  5
323
100
AcDbEntity
  8
RACCORDO
100
AcDbLine
 62
253
  6
CONTINUOUS
 10
158.0266398175
 20
130.1916752241
 11
157.9805443555
 21
130.191038801
  0
LINE
  5
324
100
AcDbEntity
  8
RACCORDO
100
AcDbLine
 62
253
  6
CONTINUOUS
 10
158.0829440847
 20
130.1921277837
 11
158.0266398175
 21
130.1916752241
  0
LINE
  5
325
100
AcDbEntity
  8
RACCORDO
100
AcDbLine
 62
253
  6
CONTINUOUS
 10
158.1781144915
 20
130.1923990667
 11
158.0829440847
 21
130.1921277837
  0
LINE
  5
326
100
AcDbEntity
  8
RACCORDO
100
AcDbLine
 62
253
  6
CONTINUOUS
 10
152.3571097106
 20
130.1923990943
 11
152.4522764906
 21
130.1921277556
  0
LINE
  5
327
100
AcDbEntity
  8
RACCORDO
100
AcDbLine
 62
253
  6
CONTINUOUS
 10
152.4522764906
 20
130.1921277556
 11
152.5085779525
 21
130.1916751797
  0
LWPOLYLINE
  5
328
100
AcDbEntity
  8
RACCORDO
100
AcDbPolyline
 62
253
  6
CONTINUOUS
 90
7
 70
0
 10
152.5085779525
 20
130.1916751797
 10
152.5546708203
 20
130.191038756
 10
152.5728852495
 20
130.1906645955
 10
152.5874485458
 20
130.1902613779
 10
152.598114284
 20
130.1898359258
 10
152.6047019893
 20
130.1893954386
 10
152.6071001914
 20
130.1889473695
  0
LINE
  5
329
100
AcDbEntity
  8
RACCORDO
100
AcDbLine
 62
253
  6
CONTINUOUS
 10
152.6176121011
 20
130.1889473684
 11
152.6071002142
 21
130.1891253698
  0
LINE
  5
32A
100
AcDbEntity
  8
RACCORDO
100
AcDbLine
 62
7
  6
CONTINUOUS
 10
164.2676121011
 20
120.9419586945
 11
164.2676121011
 21
115.6359360423
  0
LINE
  5
32B
100
AcDbEntity
  8
COPY_PUBLISH
100
AcDbLine
 62
7
  6
CONTINUOUS
 10
169.9542677375
 20
145.7889473684
 11
169.9327398241
 21
145.6889473684
  0
LWPOLYLINE
  5
32C
100
AcDbEntity
  8
RACCORDO
100
AcDbPolyline
 62
253
  6
CONTINUOUS
 90
13
 70
0
 10
162.9780574209
 20
115.9269341985
 10
162.9985138842
 20
115.9522314149
 10
163.017879564
 20
115.9780089272
 10
163.0361501915
 20
116.003440183
 10
163.0540499122
 20
116.0269389625
 10
163.0709579602
 20
116.0484105675
 10
163.0852870287
 20
116.0688764443
 10
163.0983658827
 20
116.0867051974
 10
163.1100777855
 20
116.1009816705
 10
163.1179590893
 20
116.1132433267
 10
163.1224238042
 20
116.1232417917
 10
163.1257915484
 20
116.1291233796
 10
163.1291737607
 20
116.1297611164
  0
LWPOLYLINE
  5
32D
100
AcDbEntity
  8
RACCORDO
100
AcDbPolyline
 62
7
  6
CONTINUOUS
 90
3
 70
0
 10
160.4482688979
 20
113.8413876106
 10
160.4332797836
 20
113.8262466092
 10
160.4010232109
 20
113.7933524049
  0
LINE
  5
32E
100
AcDbEntity
  8
RACCORDO
100
AcDbLine
 62
7
  6
CONTINUOUS
 10
160.4010232109
 20
113.7933524049
 11
160.3481652037
 21
113.739965423
  0
LWPOLYLINE
  5
32F
100
AcDbEntity
  8
RACCORDO
100
AcDbPolyline
 62
7
  6
CONTINUOUS
 90
3
 70
0
 10
160.3298421133
 20
113.7216082132
 10
160.2754729728
 20
113.6668125502
 10
160.2575046388
 20
113.6490199423
  0
LINE
  5
330
100
AcDbEntity
  8
RACCORDO
100
AcDbLine
 62
7
  6
CONTINUOUS
 10
160.3481652037
 20
113.739965423
 11
160.3298421133
 21
113.7216082132
  0
LINE
  5
331
100
AcDbEntity
  8
RACCORDO
100
AcDbLine
 62
7
  6
CONTINUOUS
 10
160.5176121011
 20
113.9139473684
 11
160.5074951195
 21
113.9038303868
  0
LWPOLYLINE
  5
332
100
AcDbEntity
  8
RACCORDO
100
AcDbPolyline
 62
7
  6
CONTINUOUS
 90
7
 70
0
 10
160.5074951195
 20
113.9038303868
 10
160.5052961438
 20
113.9018764073
 10
160.500939286
 20
113.8968520892
 10
160.4944245463
 20
113.8892387187
 10
160.4854742896
 20
113.879592669
 10
160.4743661509
 20
113.868322478
 10
160.4482688979
 20
113.8413876106
  0
LWPOLYLINE
  5
333
100
AcDbEntity
  8
RACCORDO
100
AcDbPolyline
 62
253
  6
CONTINUOUS
 90
13
 70
0
 10
162.728066946
 20
115.9306152049
 10
162.7305884581
 20
115.9327484979
 10
162.7372146232
 20
115.9317671718
 10
162.7477185833
 20
115.9292131971
 10
162.7620381241
 20
115.9279854599
 10
162.7802376023
 20
115.9285325019
 10
162.802053663
 20
115.9280226547
 10
162.8266963155
 20
115.9269401596
 10
162.8536880192
 20
115.9272950941
 10
162.8828906401
 20
115.9272228444
 10
162.9138652562
 20
115.9262915588
 10
162.9458030421
 20
115.9260298839
 10
162.9780574209
 20
115.9269341985
  0
LINE
  5
334
100
AcDbEntity
  8
DRAFT
100
AcDbLine
 62
7
  6
CONTINUOUS
 10
157.9176121011
 20
132.8389473684
 11
152.6176121011
 21
132.8389473684
  0
LINE
  5
335
100
AcDbEntity
  8
RACCORDO
100
AcDbLine
 62
7
  6
CONTINUOUS
 10
152.6075248317
 20
132.8490346379
 11
157.9276993706
 21
132.8490346379
  0
LINE
  5
336
100
AcDbEntity
  8
RACCORDO
100
AcDbLine
 62
253
  6
CONTINUOUS
 10
152.3575343509
 20
133.1039326112
 11
158.1776898513
 21
133.1039326112
  0
LINE
  5
337
100
AcDbEntity
  8
COPY_PUBLISH
100
AcDbLine
 62
7
  6
CONTINUOUS
 10
169.9542677375
 20
100.7889473684
 11
169.9327398241
 21
100.8889473684
  0
LINE
  5
338
100
AcDbEntity
  8
COPY_PUBLISH
100
AcDbLine
 62
7
  6
CONTINUOUS
 10
163.0809564648
 20
100.7889473684
 11
163.1024843782
 21
100.8889473684
  0
LWPOLYLINE
  5
339
100
AcDbEntity
  8
RACCORDO
100
AcDbPolyline
 62
253
  6
CONTINUOUS
 90
21
 70
0
 10
166.5359599007
 20
115.9110795588
 10
166.3793518389
 20
115.8020635397
 10
166.2167786936
 20
115.7036869086
 10
166.0481661518
 20
115.6160800517
 10
165.8735885263
 20
115.5391124088
 10
165.6951943277
 20
115.4737292557
 10
165.5129376024
 20
115.4200736092
 10
165.3268643039
 20
115.3780023245
 10
165.139260803
 20
115.3480314432
 10
164.9501131139
 20
115.3303083582
 10
164.7594352225
 20
115.3246856216
 10
164.5695554568
 20
115.3312370324
 10
164.3805503981
 20
115.3500754785
 10
164.1923434651
 20
115.3810881014
 10
164.0070332417
 20
115.4240101003
 10
163.8246578608
 20
115.478876022
 10
163.6451791896
 20
115.5456514285
 10
163.470581413
 20
115.6239680572
 10
163.3015259259
 20
115.713703211
 10
163.1373513335
 20
115.8149797597
 10
162.9780576356
 20
115.9277978048
  0
LWPOLYLINE
  5
33A
100
AcDbEntity
  8
RACCORDO
100
AcDbPolyline
 62
7
  6
CONTINUOUS
 90
21
 70
0
 10
166.3864792503
 20
116.1150513996
 10
166.2434876072
 20
116.015564605
 10
166.0944041191
 20
115.9254688715
 10
165.9398435135
 20
115.8451351637
 10
165.7804452317
 20
115.7748953932
 10
165.6168678087
 20
115.7150388739
 10
165.4497875958
 20
115.6658123924
 10
165.2798936581
 20
115.6274183663
 10
165.1078849857
 20
115.6000143265
 10
164.9344761049
 20
115.5837136087
 10
164.7603783859
 20
115.578582685
 10
164.5862945263
 20
115.584643789
 10
164.4130121811
 20
115.6018658657
 10
164.2411771606
 20
115.6301811758
 10
164.0712823204
 20
115.6695336628
 10
163.9040796514
 20
115.7197927039
 10
163.7402362195
 20
115.780802229
 10
163.5801386711
 20
115.8525038502
 10
163.4244037257
 20
115.9347584011
 10
163.2738488156
 20
116.0272759486
 10
163.1291736799
 20
116.129761064
  0
LINE
  5
33B
100
AcDbEntity
  8
COPY_PUBLISH
100
AcDbLine
 62
7
  6
CONTINUOUS
 10
163.0809564648
 20
145.7889473684
 11
163.1024843782
 21
145.6889473684
  0
LINE
  5
33C
100
AcDbEntity
  8
0
100
AcDbLine
 62
7
  6
CONTINUOUS
 10
169.9874323608
 20
100.8889473684
 11
169.9874323608
 21
100.7889473684
  0
LINE
  5
33D
100
AcDbEntity
  8
0
100
AcDbLine
 62
7
  6
CONTINUOUS
 10
169.9874323608
 20
145.6889473684
 11
169.9874323608
 21
145.7889473684
  0
LINE
  5
33E
100
AcDbEntity
  8
COPY_PUBLISH
100
AcDbLine
 62
253
  6
CONTINUOUS
 10
177.0264102178
 20
145.2638545056
 11
177.1679927009
 21
145.6889473684
  0
LINE
  5
33F
100
AcDbEntity
  8
COPY_PUBLISH
100
AcDbLine
 62
253
  6
CONTINUOUS
 10
177.5263340654
 20
144.7645397383
 11
177.6676121011
 21
145.1887185164
  0
LINE
  5
340
100
AcDbEntity
  8
COPY_PUBLISH
100
AcDbLine
 62
253
  6
CONTINUOUS
 10
177.1679927009
 20
100.8889473684
 11
177.0264102178
 21
101.3140402312
  0
LINE
  5
341
100
AcDbEntity
  8
COPY_PUBLISH
100
AcDbLine
 62
253
  6
CONTINUOUS
 10
177.6676121011
 20
101.3891762205
 11
177.5263340654
 21
101.8133549986
  0
LWPOLYLINE
  5
342
100
AcDbEntity
  8
0
100
AcDbPolyline
 62
7
  6
CONTINUOUS
 90
13
 70
0
 10
148.2451547623
 20
146.6223070317
 10
148.2038064097
 20
146.6483101221
 10
148.1613687224
 20
146.6721911475
 10
148.1178417004
 20
146.6939501079
 10
148.0730628023
 20
146.7136488223
 10
148.0271945695
 20
146.7312254718
 10
147.9807246263
 20
146.7464945988
 10
147.933733094
 20
146.7594067214
 10
147.8861398513
 20
146.7700113216
 10
147.8381921586
 20
146.7782713875
 10
147.789972436
 20
146.784174582
 10
147.7413982634
 20
146.7877332423
 10
147.6924696408
 20
146.7889473684
  0
LWPOLYLINE
  5
343
100
AcDbEntity
  8
0
100
AcDbPolyline
 62
7
  6
CONTINUOUS
 90
10
 70
0
 43
0.3500000006
 10
156.231897583
 20
156.0389533081
 10
156.3033197021
 20
155.8960909424
 10
156.3033197021
 20
155.8246688232
 10
156.1604754639
 20
155.6818064575
 10
156.0890352173
 20
155.6818064575
 10
156.0176130981
 20
155.7532285767
 10
156.0176130981
 20
155.8246688232
 10
156.0890352173
 20
155.9675130615
 10
156.1604754639
 20
156.0389533081
 10
156.231897583
 20
156.0389533081
  0
LWPOLYLINE
  5
344
100
AcDbEntity
  8
COPY_PUBLISH
100
AcDbPolyline
 62
253
  6
CONTINUOUS
 90
5
 70
0
 10
177.0264102178
 20
101.3140402312
 10
177.025689956
 20
101.3216842408
 10
177.0249868368
 20
101.3359915072
 10
177.0243008602
 20
101.3568674941
 10
177.0236276162
 20
101.3841757975
  0
LINE
  5
345
100
AcDbEntity
  8
COPY_PUBLISH
100
AcDbLine
 62
7
  6
CONTINUOUS
 10
169.8809564648
 20
100.7889473684
 11
169.9024843782
 21
100.8889473684
  0
LINE
  5
346
100
AcDbEntity
  8
COPY_PUBLISH
100
AcDbLine
 62
7
  6
CONTINUOUS
 10
169.8809564648
 20
145.7889473684
 11
169.9024843782
 21
145.6889473684
  0
LWPOLYLINE
  5
347
100
AcDbEntity
  8
COPY_PUBLISH
100
AcDbPolyline
 62
253
  6
CONTINUOUS
 90
7
 70
0
 10
177.5263340654
 20
101.8133549986
 10
177.5256152938
 20
101.8172684558
 10
177.5249131353
 20
101.8243905677
 10
177.5242275899
 20
101.8347213342
 10
177.5235540633
 20
101.8483757498
 10
177.5228971499
 20
101.86523882
 10
177.5222706325
 20
101.8849655614
  0
LINE
  5
348
100
AcDbEntity
  8
COPY_PUBLISH
100
AcDbLine
 62
253
  6
CONTINUOUS
 10
177.5222706325
 20
101.8849655614
 11
177.521110518
 21
101.9331169949
  0
LINE
  5
349
100
AcDbEntity
  8
COPY_PUBLISH
100
AcDbLine
 62
253
  6
CONTINUOUS
 10
177.521110518
 20
101.9331169949
 11
177.5201063542
 21
101.9912548815
  0
LINE
  5
34A
100
AcDbEntity
  8
COPY_PUBLISH
100
AcDbLine
 62
253
  6
CONTINUOUS
 10
177.0236276162
 20
101.3841757975
 11
177.022345786
 21
101.4573048821
  0
LINE
  5
34B
100
AcDbEntity
  8
COPY_PUBLISH
100
AcDbLine
 62
253
  6
CONTINUOUS
 10
177.022345786
 20
101.4573048821
 11
177.0206640646
 21
101.6092181596
  0
LINE
  5
34C
100
AcDbEntity
  8
COPY_PUBLISH
100
AcDbLine
 62
253
  6
CONTINUOUS
 10
177.0206640646
 20
101.6092181596
 11
177.0190182273
 21
101.8757413432
  0
LWPOLYLINE
  5
34D
100
AcDbEntity
  8
COPY_PUBLISH
100
AcDbPolyline
 62
253
  6
CONTINUOUS
 90
3
 70
0
 10
177.0190182273
 20
101.8757413432
 10
177.0182084753
 20
102.1889244142
 10
177.0181471637
 20
102.2706331375
  0
LWPOLYLINE
  5
34E
100
AcDbEntity
  8
COPY_PUBLISH
100
AcDbPolyline
 62
253
  6
CONTINUOUS
 90
9
 70
0
 10
177.0181471637
 20
102.2706331375
 10
177.0151025473
 20
106.9394663136
 10
177.0128190851
 20
111.6097269538
 10
177.0112967769
 20
116.2810072792
 10
177.0105356228
 20
120.9528993729
 10
177.0105356228
 20
125.6249953627
 10
177.0112967768
 20
130.2968874566
 10
177.012819085
 20
134.9681677822
 10
177.0151025473
 20
139.6384284228
  0
LINE
  5
34F
100
AcDbEntity
  8
COPY_PUBLISH
100
AcDbLine
 62
253
  6
CONTINUOUS
 10
177.0151025473
 20
139.6384284228
 11
177.018730721
 21
144.6269725027
  0
LINE
  5
350
100
AcDbEntity
  8
COPY_PUBLISH
100
AcDbLine
 62
253
  6
CONTINUOUS
 10
177.018730721
 20
144.6269725027
 11
177.0201836165
 21
144.9080926748
  0
LINE
  5
351
100
AcDbEntity
  8
COPY_PUBLISH
100
AcDbLine
 62
253
  6
CONTINUOUS
 10
177.0201836165
 20
144.9080926748
 11
177.0217511283
 21
145.0752783704
  0
LWPOLYLINE
  5
352
100
AcDbEntity
  8
COPY_PUBLISH
100
AcDbPolyline
 62
253
  6
CONTINUOUS
 90
7
 70
0
 10
177.0217511283
 20
145.0752783704
 10
177.0229715149
 20
145.160161787
 10
177.0236276163
 20
145.1937189393
 10
177.0243008602
 20
145.2210272428
 10
177.0249868368
 20
145.2419032297
 10
177.025689956
 20
145.2562104961
 10
177.0264102178
 20
145.2638545056
  0
LINE
  5
353
100
AcDbEntity
  8
COPY_PUBLISH
100
AcDbLine
 62
253
  6
CONTINUOUS
 10
177.5201063542
 20
144.5866398554
 11
177.521110518
 21
144.6447777419
  0
LWPOLYLINE
  5
354
100
AcDbEntity
  8
COPY_PUBLISH
100
AcDbPolyline
 62
253
  6
CONTINUOUS
 90
8
 70
0
 10
177.521110518
 20
144.6447777419
 10
177.5222706325
 20
144.6929291752
 10
177.5228971499
 20
144.7126559168
 10
177.5235540633
 20
144.7295189872
 10
177.5242275899
 20
144.7431734029
 10
177.5249131353
 20
144.7535041694
 10
177.5256152938
 20
144.7606262812
 10
177.5263340654
 20
144.7645397383
  0
LINE
  5
355
100
AcDbEntity
  8
COPY_PUBLISH
100
AcDbLine
 62
253
  6
CONTINUOUS
 10
133.452534641
 20
144.3070381929
 11
177.0181471637
 21
144.3072615993
  0
LWPOLYLINE
  5
356
100
AcDbEntity
  8
COPY_PUBLISH
100
AcDbPolyline
 62
253
  6
CONTINUOUS
 90
13
 70
0
 10
177.0181471637
 20
144.3072606562
 10
177.0826888166
 20
144.3070374903
 10
177.1461505298
 20
144.3064663778
 10
177.20747043
 20
144.3055568751
 10
177.2656224818
 20
144.3043242004
 10
177.3196336559
 20
144.3027889797
 10
177.3686002103
 20
144.3009769013
 10
177.4117028119
 20
144.2989182859
 10
177.4482202464
 20
144.2966475793
 10
177.4775414858
 20
144.2942027762
 10
177.4991759123
 20
144.2916247842
 10
177.5127615278
 20
144.2889567395
 10
177.5180710111
 20
144.2862432851
  0
LINE
  5
357
100
AcDbEntity
  8
COPY_PUBLISH
100
AcDbLine
 62
253
  6
CONTINUOUS
 10
177.5201063542
 20
101.9912548815
 11
177.5189403586
 21
102.0943234771
  0
LINE
  5
358
100
AcDbEntity
  8
COPY_PUBLISH
100
AcDbLine
 62
253
  6
CONTINUOUS
 10
177.5189403586
 20
102.0943234771
 11
177.5182486696
 21
102.210207086
  0
LWPOLYLINE
  5
359
100
AcDbEntity
  8
COPY_PUBLISH
100
AcDbPolyline
 62
253
  6
CONTINUOUS
 90
9
 70
0
 10
177.5182486696
 20
102.210207086
 10
177.5150263969
 20
106.9564808983
 10
177.5127429363
 20
111.621928825
 10
177.5112206294
 20
116.2879952319
 10
177.5104594763
 20
120.955092655
 10
177.5104594769
 20
125.6228085583
 10
177.5112206307
 20
130.2899053338
 10
177.5127429377
 20
134.9559704454
 10
177.5150263978
 20
139.6214164292
  0
LINE
  5
35A
100
AcDbEntity
  8
COPY_PUBLISH
100
AcDbLine
 62
7
  6
CONTINUOUS
 10
177.6676121011
 20
145.1887185164
 11
177.6676121011
 21
101.3891762205
  0
LINE
  5
35B
100
AcDbEntity
  8
0
100
AcDbLine
 62
7
  6
CONTINUOUS
 10
177.6676121011
 20
107.1692882022
 11
177.6676121011
 21
139.4086065354
  0
LINE
  5
35C
100
AcDbEntity
  8
COPY_PUBLISH
100
AcDbLine
 62
253
  6
CONTINUOUS
 10
177.5150263978
 20
139.6214164292
 11
177.5184217585
 21
144.4070465488
  0
LINE
  5
35D
100
AcDbEntity
  8
COPY_PUBLISH
100
AcDbLine
 62
253
  6
CONTINUOUS
 10
177.5184217585
 20
144.4070465488
 11
177.5192780639
 21
144.5196701036
  0
LINE
  5
35E
100
AcDbEntity
  8
COPY_PUBLISH
100
AcDbLine
 62
253
  6
CONTINUOUS
 10
177.5192780639
 20
144.5196701036
 11
177.5201063542
 21
144.5866398554
  0
LWPOLYLINE
  5
35F
100
AcDbEntity
  8
0
100
AcDbPolyline
 62
7
  6
CONTINUOUS
 90
13
 70
0
 10
162.8427545614
 20
146.7889473684
 10
162.7938259388
 20
146.7877332423
 10
162.7452517662
 20
146.784174582
 10
162.6970320436
 20
146.7782713875
 10
162.6490843509
 20
146.7700113216
 10
162.6014911082
 20
146.7594067214
 10
162.5544995759
 20
146.7464945988
 10
162.5080296327
 20
146.7312254718
 10
162.4621613999
 20
146.7136488223
 10
162.4173825019
 20
146.6939501079
 10
162.3738554799
 20
146.6721911475
 10
162.3314177926
 20
146.6483101221
 10
162.29006944
 20
146.6223070317
  0
LWPOLYLINE
  5
360
100
AcDbEntity
  8
0
100
AcDbPolyline
 62
7
  6
CONTINUOUS
 90
13
 70
0
 10
140.3427545614
 20
146.7889473684
 10
140.2938259388
 20
146.7877332423
 10
140.2452517662
 20
146.784174582
 10
140.1970320436
 20
146.7782713875
 10
140.1490843509
 20
146.7700113216
 10
140.1014911082
 20
146.7594067214
 10
140.0544995759
 20
146.7464945988
 10
140.0080296327
 20
146.7312254718
 10
139.9621614
 20
146.7136488223
 10
139.9173825019
 20
146.6939501079
 10
139.8738554799
 20
146.6721911475
 10
139.8314177926
 20
146.6483101221
 10
139.7900694399
 20
146.6223070316
  0
LINE
  5
361
100
AcDbEntity
  8
COPY_PUBLISH
100
AcDbLine
 62
253
  6
CONTINUOUS
 10
133.5088139844
 20
145.2638545056
 11
177.0264102178
 21
145.2638545056
  0
LINE
  5
362
100
AcDbEntity
  8
COPY_PUBLISH
100
AcDbLine
 62
7
  6
CONTINUOUS
 10
133.3672315014
 20
145.6889473684
 11
140.7176121011
 21
145.6889473684
  0
LINE
  5
363
100
AcDbEntity
  8
COPY_PUBLISH
100
AcDbLine
 62
7
  6
CONTINUOUS
 10
147.3176121011
 20
145.6889473684
 11
163.2176121011
 21
145.6889473684
  0
LINE
  5
364
100
AcDbEntity
  8
COPY_PUBLISH
100
AcDbLine
 62
7
  6
CONTINUOUS
 10
169.8176121011
 20
145.6889473684
 11
177.1679927009
 21
145.6889473684
  0
LINE
  5
365
100
AcDbEntity
  8
0
100
AcDbLine
 62
7
  6
CONTINUOUS
 10
140.5477918414
 20
145.7889473684
 11
147.4874323608
 21
145.7889473684
  0
LINE
  5
366
100
AcDbEntity
  8
0
100
AcDbLine
 62
7
  6
CONTINUOUS
 10
163.0477918414
 20
145.7889473684
 11
169.9874323608
 21
145.7889473684
  0
LINE
  5
367
100
AcDbEntity
  8
0
100
AcDbLine
 62
7
  6
CONTINUOUS
 10
140.3427545614
 20
146.7889473684
 11
147.6924696408
 21
146.7889473684
  0
LINE
  5
368
100
AcDbEntity
  8
0
100
AcDbLine
 62
7
  6
CONTINUOUS
 10
162.8427545614
 20
146.7889473684
 11
170.1924696408
 21
146.7889473684
  0
LWPOLYLINE
  5
369
100
AcDbEntity
  8
COPY_PUBLISH
100
AcDbPolyline
 62
253
  6
CONTINUOUS
 90
13
 70
0
 10
177.0264102178
 20
145.2638545056
 10
177.0916256746
 20
145.2595282634
 10
177.1557265723
 20
145.2467424629
 10
177.2176174001
 20
145.2257156187
 10
177.2762404182
 20
145.1968070885
 10
177.330593735
 20
145.1605109307
 10
177.37974843
 20
145.1174474619
 10
177.422864429
 20
145.0683526544
 10
177.4592048619
 20
145.0140655587
 10
177.4881486557
 20
144.9555139638
 10
177.5092011489
 20
144.8936985405
 10
177.5220025459
 20
144.82967574
 10
177.5263340654
 20
144.7645397383
  0
LINE
  5
36A
100
AcDbEntity
  8
0
100
AcDbLine
 62
7
  6
CONTINUOUS
 10
169.8176121011
 20
100.8889473684
 11
169.7509793035
 21
100.7889473684
  0
LINE
  5
36B
100
AcDbEntity
  8
0
100
AcDbLine
 62
7
  6
CONTINUOUS
 10
169.7509793035
 20
145.7889473684
 11
169.8176121011
 21
145.6889473684
  0
LWPOLYLINE
  5
36C
100
AcDbEntity
  8
0
100
AcDbPolyline
 62
7
  6
CONTINUOUS
 90
13
 70
0
 10
170.7451547623
 20
146.6223070316
 10
170.7038064097
 20
146.6483101221
 10
170.6613687224
 20
146.6721911475
 10
170.6178417004
 20
146.6939501079
 10
170.5730628023
 20
146.7136488223
 10
170.5271945695
 20
146.7312254718
 10
170.4807246263
 20
146.7464945988
 10
170.433733094
 20
146.7594067214
 10
170.3861398513
 20
146.7700113216
 10
170.3381921586
 20
146.7782713875
 10
170.289972436
 20
146.784174582
 10
170.2413982634
 20
146.7877332423
 10
170.1924696408
 20
146.7889473684
  0
LWPOLYLINE
  5
36D
100
AcDbEntity
  8
0
100
AcDbPolyline
 62
7
  6
CONTINUOUS
 90
3
 70
0
 43
0.3500000006
 10
184.2747593994
 20
122.4318008423
 10
184.2747593994
 20
120.9318003845
 10
181.9176119385
 20
121.5746629028
  0
LWPOLYLINE
  5
36E
100
AcDbEntity
  8
0
100
AcDbPolyline
 62
7
  6
CONTINUOUS
 90
3
 70
0
 43
0.3500000006
 10
154.731906189
 20
156.1817975464
 10
153.2318966675
 20
156.1817975464
 10
153.8747501221
 20
158.5389450073
  0
LWPOLYLINE
  5
36F
100
AcDbEntity
  8
0
100
AcDbPolyline
 62
7
  6
CONTINUOUS
 90
3
 70
0
 43
0.3500000006
 10
152.374758728
 20
156.1817975464
 10
150.8747582703
 20
156.1817975464
 10
151.5176117249
 20
158.5389450073
  0
LWPOLYLINE
  5
370
100
AcDbEntity
  8
0
100
AcDbPolyline
 62
7
  6
CONTINUOUS
 90
13
 70
0
 43
0.3500000006
 10
157.7318889771
 20
157.2532380981
 10
157.446182373
 20
157.467522583
 10
157.446182373
 20
158.1103760376
 10
157.7318889771
 20
158.5389450073
 10
158.3747605591
 20
158.5389450073
 10
158.6604671631
 20
158.1103760376
 10
158.6604671631
 20
157.467522583
 10
158.3747605591
 20
157.2532380981
 10
158.8033295288
 20
156.8246691284
 10
158.8033295288
 20
155.9675130615
 10
158.3747605591
 20
155.5389440918
 10
157.7318889771
 20
155.5389440918
 10
157.3033200073
 20
155.9675130615
  0
LWPOLYLINE
  5
371
100
AcDbEntity
  8
0
100
AcDbPolyline
 62
7
  6
CONTINUOUS
 90
10
 70
0
 43
0.3500000006
 10
97.2139062195
 20
168.5389480591
 10
96.5710437012
 20
167.8960946045
 10
96.1424747314
 20
167.0389385376
 10
96.1424747314
 20
165.9675161133
 10
96.5710437012
 20
165.5389471436
 10
97.2139062195
 20
165.5389471436
 10
97.6424751892
 20
165.9675161133
 10
97.6424751892
 20
166.8246540527
 10
97.2139062195
 20
167.2532411499
 10
96.2853280334
 20
167.2532411499
  0
LWPOLYLINE
  5
372
100
AcDbEntity
  8
0
100
AcDbPolyline
 62
7
  6
CONTINUOUS
 90
5
 70
0
 43
0.3500000006
 10
94.8567587585
 20
167.2532411499
 10
95.2139056091
 20
167.4675256348
 10
95.2139056091
 20
168.1103790894
 10
94.8567587585
 20
168.5389480591
 10
93.9996208191
 20
168.5389480591
  0
LWPOLYLINE
  5
373
100
AcDbEntity
  8
0
100
AcDbPolyline
 62
7
  6
CONTINUOUS
 90
10
 70
0
 43
0.3500000006
 10
100.1424759521
 20
158.5389450073
 10
99.4996224976
 20
157.8960915527
 10
99.0710444641
 20
157.0389536133
 10
99.0710444641
 20
155.9675130615
 10
99.4996224976
 20
155.5389440918
 10
100.1424759521
 20
155.5389440918
 10
100.5710449219
 20
155.9675130615
 10
100.5710449219
 20
156.8246691284
 10
100.1424759521
 20
157.2532380981
 10
99.2139068298
 20
157.2532380981
  0
LINE
  5
374
100
AcDbEntity
  8
0
100
AcDbLine
 62
7
  6
CONTINUOUS
 10
91.7496180337
 20
100.1890568936
 11
90.4272609729
 21
100.161659732
  0
LINE
  5
375
100
AcDbEntity
  8
0
100
AcDbLine
 62
7
  6
CONTINUOUS
 10
90.4272609729
 20
100.161659732
 11
89.0938953251
 21
100.1350079904
  0
LINE
  5
376
100
AcDbEntity
  8
0
100
AcDbLine
 62
7
  6
CONTINUOUS
 10
89.0938953251
 20
100.1350079904
 11
87.7496180337
 21
100.1090388067
  0
LINE
  5
377
100
AcDbEntity
  8
COPY_PUBLISH
100
AcDbLine
 62
7
  6
CONTINUOUS
 10
91.7496180337
 20
99.8587676281
 11
89.6496180337
 21
99.8221119918
  0
LINE
  5
378
100
AcDbEntity
  8
0
100
AcDbLine
 62
7
  6
CONTINUOUS
 10
91.7496180337
 20
99.8587676281
 11
87.7496180337
 21
99.7889473684
  0
LINE
  5
379
100
AcDbEntity
  8
0
100
AcDbLine
 62
253
  6
CONTINUOUS
 10
91.7496180337
 20
100.0258400071
 11
87.7496180337
 21
99.9555877104
  0
LINE
  5
37A
100
AcDbEntity
  8
0
100
AcDbLine
 62
7
  6
CONTINUOUS
 10
89.9840253428
 20
100.645456753
 11
87.7496180337
 21
100.6257807465
  0
LINE
  5
37B
100
AcDbEntity
  8
0
100
AcDbLine
 62
7
  6
CONTINUOUS
 10
91.7496180337
 20
100.6590807658
 11
89.9840253428
 21
100.645456753
  0
LINE
  5
37C
100
AcDbEntity
  8
COPY_PUBLISH
100
AcDbLine
 62
7
  6
CONTINUOUS
 10
93.8991135176
 20
101.0889473684
 11
93.3496180337
 21
101.0889473684
  0
LINE
  5
37D
100
AcDbEntity
  8
COPY_PUBLISH
100
AcDbLine
 62
7
  6
CONTINUOUS
 10
87.7496180337
 20
100.8889473684
 11
79.6383630138
 21
101.3140402312
  0
LINE
  5
37E
100
AcDbEntity
  8
COPY_PUBLISH
100
AcDbLine
 62
253
  6
CONTINUOUS
 10
87.7496180337
 20
101.3891762205
 11
79.6558047887
 21
101.8133549986
  0
LWPOLYLINE
  5
37F
100
AcDbEntity
  8
COPY_PUBLISH
100
AcDbPolyline
 62
253
  6
CONTINUOUS
 90
19
 70
0
 10
79.6558047887
 20
101.8133549986
 10
79.614626389
 20
101.8172684558
 10
79.5743997547
 20
101.8243905677
 10
79.5351248859
 20
101.8347213342
 10
79.4965385769
 20
101.8483757498
 10
79.4589040333
 20
101.86523882
 10
79.4230108722
 20
101.8849655614
 10
79.3889087229
 20
101.9076094426
 10
79.3565479561
 20
101.9331169949
 10
79.326569301
 20
101.9609828291
 10
79.2990194503
 20
101.9912548815
 10
79.2738517113
 20
102.0238852157
 10
79.2515667349
 20
102.0582246334
 10
79.2322196067
 20
102.0943234771
 10
79.215755241
 20
102.1321314043
 10
79.2025090313
 20
102.170848188
 10
79.1925927755
 20
102.210207086
 10
79.1858946756
 20
102.2504748406
 10
79.1824147316
 20
102.2916514517
  0
LWPOLYLINE
  5
380
100
AcDbEntity
  8
COPY_PUBLISH
100
AcDbPolyline
 62
253
  6
CONTINUOUS
 90
9
 70
0
 10
79.6383630138
 20
145.2638545056
 10
79.6374514016
 20
145.2595282634
 10
79.6370025911
 20
145.2467424629
 10
79.6370242526
 20
145.2257156187
 10
79.637516016
 20
145.1968070885
 10
79.6384694767
 20
145.1605109307
 10
79.6398683394
 20
145.1174474619
 10
79.641688697
 20
145.0683526544
 10
79.6464627822
 20
144.9555139638
  0
LWPOLYLINE
  5
381
100
AcDbEntity
  8
RACCORDO
100
AcDbPolyline
 62
253
  6
CONTINUOUS
 90
10
 70
0
 10
95.7204728316
 20
144.2966657662
 10
95.7656233636
 20
144.3141901555
 10
95.8109048735
 20
144.3264943477
 10
95.855358525
 20
144.3335828675
 10
95.8976690482
 20
144.3358509422
 10
95.9373358547
 20
144.3333231821
 10
95.9746246016
 20
144.3254893296
 10
96.009057873
 20
144.3123966774
 10
96.0395043911
 20
144.2947950674
 10
96.065300019
 20
144.2732653831
  0
LINE
  5
382
100
AcDbEntity
  8
COPY_PUBLISH
100
AcDbLine
 62
253
  6
CONTINUOUS
 10
78.6915829104
 20
102.270633138
 11
78.6957604771
 21
102.2708563036
  0
LINE
  5
383
100
AcDbEntity
  8
COPY_PUBLISH
100
AcDbLine
 62
253
  6
CONTINUOUS
 10
78.6957604771
 20
102.2708563036
 11
79.1824147316
 21
102.2916514517
  0
LINE
  5
384
100
AcDbEntity
  8
RACCORDO
100
AcDbLine
 62
7
  6
CONTINUOUS
 10
95.7204728316
 20
102.1582588967
 11
91.7496180337
 21
102.0889473684
  0
LINE
  5
385
100
AcDbEntity
  8
COPY_PUBLISH
100
AcDbLine
 62
7
  6
CONTINUOUS
 10
92.2901378788
 20
102.0983821774
 11
91.7496180337
 21
102.0889473684
  0
LINE
  5
386
100
AcDbEntity
  8
RACCORDO
100
AcDbLine
 62
253
  6
CONTINUOUS
 10
95.7203764013
 20
102.2812272425
 11
91.7496180337
 21
102.2116067181
  0
LINE
  5
387
100
AcDbEntity
  8
RACCORDO
100
AcDbLine
 62
7
  6
CONTINUOUS
 10
97.5559214195
 20
103.8157461217
 11
102.7583442369
 21
103.9065547498
  0
LWPOLYLINE
  5
388
100
AcDbEntity
  8
COPY_PUBLISH
100
AcDbPolyline
 62
253
  6
CONTINUOUS
 90
7
 70
0
 10
79.6383630138
 20
101.3140402312
 10
79.6374514036
 20
101.3183666167
 10
79.6370026091
 20
101.331152798
 10
79.6370242973
 20
101.3521801838
 10
79.6375160946
 20
101.3810893484
 10
79.638469592
 20
101.4173861486
 10
79.6398684877
 20
101.4604501467
  0
LWPOLYLINE
  5
389
100
AcDbEntity
  8
COPY_PUBLISH
100
AcDbPolyline
 62
253
  6
CONTINUOUS
 90
10
 70
0
 10
79.1824147316
 20
102.2916514517
 10
79.0079888949
 20
106.9564808983
 10
78.8771695237
 20
111.621928825
 10
78.7899566182
 20
116.2879952319
 10
78.7463501869
 20
120.955092655
 10
78.7463502212
 20
125.6228085583
 10
78.7899566954
 20
130.2899053338
 10
78.8771696009
 20
134.9559704454
 10
79.0079889463
 20
139.6214164292
 10
79.1824147316
 20
144.2862432851
  0
LINE
  5
38A
100
AcDbEntity
  8
RACCORDO
100
AcDbLine
 62
7
  6
CONTINUOUS
 10
78.3109962858
 20
115.4547604379
 11
78.3110862559
 21
115.4490210982
  0
LINE
  5
38B
100
AcDbEntity
  8
RACCORDO
100
AcDbLine
 62
7
  6
CONTINUOUS
 10
78.3038074931
 20
115.9277978048
 11
78.3038848267
 21
115.9225474234
  0
LINE
  5
38C
100
AcDbEntity
  8
RACCORDO
100
AcDbLine
 62
7
  6
CONTINUOUS
 10
78.2954428264
 20
116.5197012685
 11
78.2952864864
 21
116.5312578878
  0
LINE
  5
38D
100
AcDbEntity
  8
RACCORDO
100
AcDbLine
 62
7
  6
CONTINUOUS
 10
78.2829710304
 20
117.5138383356
 11
78.2827830079
 21
117.5301389578
  0
LINE
  5
38E
100
AcDbEntity
  8
RACCORDO
100
AcDbLine
 62
7
  6
CONTINUOUS
 10
78.298824008
 20
130.3034718087
 11
78.2986684137
 21
130.2923732523
  0
LWPOLYLINE
  5
38F
100
AcDbEntity
  8
COPY_PUBLISH
100
AcDbPolyline
 62
253
  6
CONTINUOUS
 90
19
 70
0
 10
79.1824147316
 20
144.2862432851
 10
79.1858946757
 20
144.3274198962
 10
79.1925927757
 20
144.3676876508
 10
79.2025090315
 20
144.4070465488
 10
79.2157552411
 20
144.4457633326
 10
79.2322196066
 20
144.4835712598
 10
79.2515667347
 20
144.5196701036
 10
79.2738517112
 20
144.5540095212
 10
79.2990194502
 20
144.5866398554
 10
79.326569301
 20
144.6169119078
 10
79.3565479561
 20
144.6447777419
 10
79.388908723
 20
144.6702852941
 10
79.4230108723
 20
144.6929291752
 10
79.4589040334
 20
144.7126559168
 10
79.4965385769
 20
144.7295189872
 10
79.5351248859
 20
144.7431734029
 10
79.5743997547
 20
144.7535041694
 10
79.6146263889
 20
144.7606262812
 10
79.6558047887
 20
144.7645397383
  0
LINE
  5
390
100
AcDbEntity
  8
RACCORDO
100
AcDbLine
 62
253
  6
CONTINUOUS
 10
97.3747985422
 20
103.9654152794
 11
102.7583442369
 21
104.0599126021
  0
LINE
  5
391
100
AcDbEntity
  8
0
100
AcDbLine
 62
7
  6
CONTINUOUS
 10
103.2496180337
 20
105.6857080326
 11
103.4496180337
 21
105.6857080326
  0
LINE
  5
392
100
AcDbEntity
  8
0
100
AcDbLine
 62
7
  6
CONTINUOUS
 10
103.2496180337
 20
105.7386693684
 11
103.4496180337
 21
105.7386693684
  0
LINE
  5
393
100
AcDbEntity
  8
COPY_PUBLISH
100
AcDbLine
 62
253
  6
CONTINUOUS
 10
79.6464627822
 20
144.9555139638
 11
79.6524667624
 21
144.82967574
  0
LINE
  5
394
100
AcDbEntity
  8
COPY_PUBLISH
100
AcDbLine
 62
253
  6
CONTINUOUS
 10
79.6398684877
 20
101.4604501467
 11
79.6438996194
 21
101.5638324352
  0
LWPOLYLINE
  5
395
100
AcDbEntity
  8
COPY_PUBLISH
100
AcDbPolyline
 62
253
  6
CONTINUOUS
 90
4
 70
0
 10
79.6438996194
 20
101.5638324352
 10
79.6493350569
 20
101.6841985316
 10
79.6524668438
 20
101.7482203272
 10
79.6558047887
 20
101.8133549986
  0
LINE
  5
396
100
AcDbEntity
  8
RACCORDO
100
AcDbLine
 62
253
  6
CONTINUOUS
 10
87.7496180337
 20
107.1692881516
 11
102.7583442369
 21
107.2605583421
  0
LINE
  5
397
100
AcDbEntity
  8
RACCORDO
100
AcDbLine
 62
253
  6
CONTINUOUS
 10
87.7496180337
 20
105.9295179556
 11
102.7583442369
 21
106.0152599784
  0
LINE
  5
398
100
AcDbEntity
  8
0
100
AcDbLine
 62
7
  6
CONTINUOUS
 10
103.2496180337
 20
107.1038393684
 11
103.4496180337
 21
107.1038393684
  0
LINE
  5
399
100
AcDbEntity
  8
RACCORDO
100
AcDbLine
 62
253
  6
CONTINUOUS
 10
103.2496180337
 20
107.2605583421
 11
102.7583442369
 21
107.2605583429
  0
LINE
  5
39A
100
AcDbEntity
  8
0
100
AcDbLine
 62
7
  6
CONTINUOUS
 10
103.2496180337
 20
107.3773985156
 11
103.4496180337
 21
107.3773993684
  0
LINE
  5
39B
100
AcDbEntity
  8
0
100
AcDbLine
 62
7
  6
CONTINUOUS
 10
103.2496180337
 20
107.7205513684
 11
103.4496180337
 21
107.7205513684
  0
LINE
  5
39C
100
AcDbEntity
  8
0
100
AcDbLine
 62
7
  6
CONTINUOUS
 10
103.2496180337
 20
107.7509654408
 11
103.4496180337
 21
107.7509654408
  0
LINE
  5
39D
100
AcDbEntity
  8
COPY_PUBLISH
100
AcDbLine
 62
253
  6
CONTINUOUS
 10
79.6524667624
 20
144.82967574
 11
79.6558047887
 21
144.7645397383
  0
LINE
  5
39E
100
AcDbEntity
  8
RACCORDO
100
AcDbLine
 62
7
  6
CONTINUOUS
 10
111.7583442369
 20
109.3065547498
 11
103.5443823118
 21
109.1631795111
  0
LINE
  5
39F
100
AcDbEntity
  8
0
100
AcDbLine
 62
7
  6
CONTINUOUS
 10
103.2496180337
 20
107.7732873684
 11
103.4496180337
 21
107.7732873684
  0
LINE
  5
3A0
100
AcDbEntity
  8
0
100
AcDbLine
 62
7
  6
CONTINUOUS
 10
103.2496180337
 20
107.7889473684
 11
103.3996180337
 21
107.7889473684
  0
LINE
  5
3A1
100
AcDbEntity
  8
0
100
AcDbLine
 62
7
  6
CONTINUOUS
 10
103.2496180337
 20
108.5906593684
 11
103.4496180337
 21
108.5906593684
  0
LINE
  5
3A2
100
AcDbEntity
  8
DRAFT
100
AcDbLine
 62
7
  6
CONTINUOUS
 10
112.4391508424
 20
111.148880362
 11
113.9653188206
 21
111.2288634366
  0
LINE
  5
3A3
100
AcDbEntity
  8
RACCORDO
100
AcDbLine
 62
253
  6
CONTINUOUS
 10
111.7583442369
 20
110.3064024449
 11
103.5443823118
 21
110.1630320992
  0
LINE
  5
3A4
100
AcDbEntity
  8
RACCORDO
100
AcDbLine
 62
253
  6
CONTINUOUS
 10
103.2496180337
 20
110.1630272062
 11
103.5443823118
 21
110.1630272062
  0
LINE
  5
3A5
100
AcDbEntity
  8
RACCORDO
100
AcDbLine
 62
253
  6
CONTINUOUS
 10
112.2496180337
 20
110.3064024449
 11
111.7583442369
 21
110.306402447
  0
LWPOLYLINE
  5
3A6
100
AcDbEntity
  8
RACCORDO
100
AcDbPolyline
 62
7
  6
CONTINUOUS
 90
10
 70
0
 10
97.3747985423
 20
103.9654152765
 10
97.3979418999
 20
103.9341422365
 10
97.4208670405
 20
103.9064385726
 10
97.4432867937
 20
103.8823593167
 10
97.4648376659
 20
103.861848375
 10
97.4853636106
 20
103.8449807011
 10
97.5049120674
 20
103.8319728093
 10
97.5233600346
 20
103.8228586819
 10
97.5404204669
 20
103.8174821809
 10
97.5559214195
 20
103.8157461217
  0
LINE
  5
3A7
100
AcDbEntity
  8
0
100
AcDbLine
 62
7
  6
CONTINUOUS
 10
87.7496180337
 20
145.9521139904
 11
87.7496180337
 21
145.6889473684
  0
LINE
  5
3A8
100
AcDbEntity
  8
COPY_PUBLISH
100
AcDbLine
 62
7
  6
CONTINUOUS
 10
87.7496180337
 20
145.6889473684
 11
87.7496180337
 21
100.8889473684
  0
LINE
  5
3A9
100
AcDbEntity
  8
0
100
AcDbLine
 62
7
  6
CONTINUOUS
 10
87.7496180337
 20
99.7889473684
 11
87.7496180337
 21
100.5983134075
  0
LINE
  5
3AA
100
AcDbEntity
  8
0
100
AcDbLine
 62
7
  6
CONTINUOUS
 10
87.7496180337
 20
100.6257807465
 11
87.7496180337
 21
100.8889473684
  0
LINE
  5
3AB
100
AcDbEntity
  8
0
100
AcDbLine
 62
7
  6
CONTINUOUS
 10
87.7496180337
 20
107.1692882022
 11
87.7496180337
 21
139.4086065354
  0
LINE
  5
3AC
100
AcDbEntity
  8
0
100
AcDbLine
 62
7
  6
CONTINUOUS
 10
87.7496180337
 20
145.9795813293
 11
87.7496180337
 21
146.7889473684
  0
LINE
  5
3AD
100
AcDbEntity
  8
RACCORDO
100
AcDbLine
 62
253
  6
CONTINUOUS
 10
112.2496180337
 20
113.8889473684
 11
114.2496180337
 21
113.8889473684
  0
LINE
  5
3AE
100
AcDbEntity
  8
RACCORDO
100
AcDbLine
 62
253
  6
CONTINUOUS
 10
112.2496180337
 20
115.9889473684
 11
114.2496180337
 21
115.9889473684
  0
LINE
  5
3AF
100
AcDbEntity
  8
COPY_PUBLISH
100
AcDbLine
 62
7
  6
CONTINUOUS
 10
91.7496180337
 20
99.8587676281
 11
91.7496180337
 21
100.6590807658
  0
LINE
  5
3B0
100
AcDbEntity
  8
RACCORDO
100
AcDbLine
 62
7
  6
CONTINUOUS
 10
91.7496180337
 20
100.6590807658
 11
91.7496180337
 21
102.2116067181
  0
LINE
  5
3B1
100
AcDbEntity
  8
RACCORDO
100
AcDbLine
 62
7
  6
CONTINUOUS
 10
91.7496180337
 20
144.3662880187
 11
91.7496180337
 21
145.9188139711
  0
LINE
  5
3B2
100
AcDbEntity
  8
COPY_PUBLISH
100
AcDbLine
 62
7
  6
CONTINUOUS
 10
91.7496180337
 20
145.9188139711
 11
91.7496180337
 21
146.7191271087
  0
LWPOLYLINE
  5
3B3
100
AcDbEntity
  8
0
100
AcDbPolyline
 62
7
  6
CONTINUOUS
 90
3
 70
0
 43
0.3500000006
 10
102.1424765625
 20
155.8246688232
 10
102.0710453796
 20
155.6103843384
 10
101.9281920776
 20
155.3246596069
  0
LINE
  5
3B4
100
AcDbEntity
  8
DRAFT
100
AcDbLine
 62
7
  6
CONTINUOUS
 10
112.4391508424
 20
118.7290143748
 11
113.9653188206
 21
118.6490313003
  0
LINE
  5
3B5
100
AcDbEntity
  8
COPY_PUBLISH
100
AcDbLine
 62
7
  6
CONTINUOUS
 10
93.3496180337
 20
145.4889473684
 11
93.3496180337
 21
144.4610192645
  0
LINE
  5
3B6
100
AcDbEntity
  8
COPY_PUBLISH
100
AcDbLine
 62
7
  6
CONTINUOUS
 10
93.3496180337
 20
101.0889473684
 11
93.3496180337
 21
102.1168754723
  0
LINE
  5
3B7
100
AcDbEntity
  8
0
100
AcDbLine
 62
7
  6
CONTINUOUS
 10
112.2496180337
 20
119.8274563684
 11
112.4496180337
 21
119.8274563684
  0
LINE
  5
3B8
100
AcDbEntity
  8
RACCORDO
100
AcDbLine
 62
253
  6
CONTINUOUS
 10
112.4496180337
 20
120.5889473684
 11
114.2496180337
 21
120.5889473684
  0
LINE
  5
3B9
100
AcDbEntity
  8
RACCORDO
100
AcDbLine
 62
253
  6
CONTINUOUS
 10
95.7204728316
 20
102.2812289706
 11
95.720998069
 21
102.2142443139
  0
LINE
  5
3BA
100
AcDbEntity
  8
RACCORDO
100
AcDbLine
 62
253
  6
CONTINUOUS
 10
95.720998069
 20
102.2142443139
 11
95.7210875079
 21
102.1973705473
  0
LINE
  5
3BB
100
AcDbEntity
  8
RACCORDO
100
AcDbLine
 62
253
  6
CONTINUOUS
 10
95.7210570492
 20
144.3944823759
 11
95.7209980686
 21
144.363650423
  0
LWPOLYLINE
  5
3BC
100
AcDbEntity
  8
RACCORDO
100
AcDbPolyline
 62
253
  6
CONTINUOUS
 90
5
 70
0
 10
95.7210875079
 20
102.1973705473
 10
95.720998069
 20
102.1724636099
 10
95.7209192744
 20
102.1646075013
 10
95.7207528068
 20
102.1598572415
 10
95.7204728316
 20
102.1582588967
  0
LINE
  5
3BD
100
AcDbEntity
  8
RACCORDO
100
AcDbLine
 62
253
  6
CONTINUOUS
 10
95.7209980686
 20
144.363650423
 11
95.7204728316
 21
144.2966657662
  0
LINE
  5
3BE
100
AcDbEntity
  8
RACCORDO
100
AcDbLine
 62
253
  6
CONTINUOUS
 10
112.4496180337
 20
122.6889473684
 11
114.2496180337
 21
122.6889473684
  0
LINE
  5
3BF
100
AcDbEntity
  8
0
100
AcDbLine
 62
7
  6
CONTINUOUS
 10
112.2496180337
 20
123.3271953684
 11
112.4496180337
 21
123.3271953684
  0
LINE
  5
3C0
100
AcDbEntity
  8
RACCORDO
100
AcDbLine
 62
253
  6
CONTINUOUS
 10
112.2496180337
 20
123.6714922919
 11
111.7583442369
 21
123.6714922919
  0
LINE
  5
3C1
100
AcDbEntity
  8
RACCORDO
100
AcDbLine
 62
253
  6
CONTINUOUS
 10
103.2496180337
 20
123.8148675306
 11
103.5443823118
 21
123.8148675306
  0
LINE
  5
3C2
100
AcDbEntity
  8
RACCORDO
100
AcDbLine
 62
253
  6
CONTINUOUS
 10
112.2496180337
 20
124.8713095261
 11
111.7583442369
 21
124.8713095261
  0
LINE
  5
3C3
100
AcDbEntity
  8
RACCORDO
100
AcDbLine
 62
253
  6
CONTINUOUS
 10
111.7583442369
 20
123.6714922919
 11
103.5443823118
 21
123.8148054808
  0
LINE
  5
3C4
100
AcDbEntity
  8
RACCORDO
100
AcDbLine
 62
7
  6
CONTINUOUS
 10
111.7583442369
 20
124.671339987
 11
103.5443823118
 21
124.8147152258
  0
LWPOLYLINE
  5
3C5
100
AcDbEntity
  8
RACCORDO
100
AcDbPolyline
 62
253
  6
CONTINUOUS
 90
19
 70
0
 10
111.7583442369
 20
124.871309915
 10
103.5194212695
 20
125.0152251167
 10
103.494591259
 20
125.0164323066
 10
103.4700687352
 20
125.0183063345
 10
103.4460424388
 20
125.02084876
 10
103.4226762694
 20
125.0240580235
 10
103.4001119976
 20
125.027929446
 10
103.3785248532
 20
125.0324991343
 10
103.3580881099
 20
125.0377309817
 10
103.3389446356
 20
125.0435119892
 10
103.3212501932
 20
125.0498449767
 10
103.3051811789
 20
125.0567271242
 10
103.2909021796
 20
125.0640369734
 10
103.2785338853
 20
125.0718090543
 10
103.2682263597
 20
125.0800088368
 10
103.2601301371
 20
125.0884112736
 10
103.2543135645
 20
125.0969413488
 10
103.250801666
 20
125.1056740782
 10
103.249618089
 20
125.1146094618
  0
LINE
  5
3C6
100
AcDbEntity
  8
DRAFT
100
AcDbLine
 62
7
  6
CONTINUOUS
 10
112.4391508424
 20
125.4290143748
 11
113.9653188206
 21
125.3490313003
  0
LWPOLYLINE
  5
3C7
100
AcDbEntity
  8
RACCORDO
100
AcDbPolyline
 62
253
  6
CONTINUOUS
 90
5
 70
0
 10
95.7204728316
 20
144.4196358401
 10
95.7207050316
 20
144.4180478218
 10
95.7208804811
 20
144.4133028979
 10
95.7209980686
 20
144.405431127
 10
95.7210570492
 20
144.3944823759
  0
LWPOLYLINE
  5
3C8
100
AcDbEntity
  8
RACCORDO
100
AcDbPolyline
 62
253
  6
CONTINUOUS
 90
7
 70
0
 10
103.5443821496
 20
139.1147152286
 10
103.5440426572
 20
139.1125863473
 10
103.5437373954
 20
139.1061847741
 10
103.5434622199
 20
139.095532766
 10
103.543208752
 20
139.0806655486
 10
103.5429774065
 20
139.0616444978
 10
103.5424666559
 20
138.9807301851
  0
LINE
  5
3C9
100
AcDbEntity
  8
DRAFT
100
AcDbLine
 62
7
  6
CONTINUOUS
 10
112.4391508424
 20
129.548880362
 11
113.9653188206
 21
129.6288634366
  0
LWPOLYLINE
  5
3CA
100
AcDbEntity
  8
RACCORDO
100
AcDbPolyline
 62
253
  6
CONTINUOUS
 90
5
 70
0
 10
103.543208752
 20
109.1972291878
 10
103.5434622199
 20
109.1823619709
 10
103.5437373955
 20
109.1717099634
 10
103.5440426572
 20
109.1653083903
 10
103.5443821497
 20
109.1631795082
  0
LWPOLYLINE
  5
3CB
100
AcDbEntity
  8
RACCORDO
100
AcDbPolyline
 62
253
  6
CONTINUOUS
 90
4
 70
0
 10
102.7590163877
 20
103.9244486882
 10
102.7591283486
 20
103.9146492928
 10
102.7589969939
 20
103.9086328297
 10
102.7583442369
 20
103.9065547498
  0
LINE
  5
3CC
100
AcDbEntity
  8
RACCORDO
100
AcDbLine
 62
253
  6
CONTINUOUS
 10
103.5427777049
 20
109.2393247679
 11
103.543208752
 21
109.1972291878
  0
LINE
  5
3CD
100
AcDbEntity
  8
RACCORDO
100
AcDbLine
 62
253
  6
CONTINUOUS
 10
103.542279203
 20
109.3697868823
 11
103.5427777049
 21
109.2393247679
  0
LINE
  5
3CE
100
AcDbEntity
  8
RACCORDO
100
AcDbLine
 62
253
  6
CONTINUOUS
 10
103.5422312267
 20
124.4741924691
 11
103.5443824897
 21
123.8148054777
  0
LINE
  5
3CF
100
AcDbEntity
  8
RACCORDO
100
AcDbLine
 62
253
  6
CONTINUOUS
 10
103.5422312443
 20
138.7742129439
 11
103.5443823257
 21
138.1148626776
  0
LINE
  5
3D0
100
AcDbEntity
  8
RACCORDO
100
AcDbLine
 62
253
  6
CONTINUOUS
 10
102.7583442369
 20
140.5626347585
 11
102.7588471323
 21
140.0815376806
  0
LINE
  5
3D1
100
AcDbEntity
  8
RACCORDO
100
AcDbLine
 62
253
  6
CONTINUOUS
 10
102.7583442369
 20
107.2605583421
 11
102.7588613253
 21
106.6010047695
  0
LINE
  5
3D2
100
AcDbEntity
  8
RACCORDO
100
AcDbLine
 62
253
  6
CONTINUOUS
 10
102.7583442369
 20
142.5179819663
 11
102.7583442369
 21
140.5626347585
  0
LINE
  5
3D3
100
AcDbEntity
  8
RACCORDO
100
AcDbLine
 62
7
  6
CONTINUOUS
 10
103.2496180337
 20
142.1714161395
 11
103.2496180337
 21
104.4064785974
  0
LINE
  5
3D4
100
AcDbEntity
  8
0
100
AcDbLine
 62
7
  6
CONTINUOUS
 10
103.3996180337
 20
107.7889473684
 11
103.3996180337
 21
107.7732873684
  0
LINE
  5
3D5
100
AcDbEntity
  8
0
100
AcDbLine
 62
7
  6
CONTINUOUS
 10
103.4496180337
 20
142.1390432405
 11
103.4496180337
 21
139.3423163684
  0
LINE
  5
3D6
100
AcDbEntity
  8
ASSI
100
AcDbLine
 62
7
  6
CONTINUOUS
 10
103.4496180337
 20
139.3422152717
 11
103.4496180337
 21
134.8424534652
  0
LINE
  5
3D7
100
AcDbEntity
  8
0
100
AcDbLine
 62
7
  6
CONTINUOUS
 10
103.4496180337
 20
109.1458941015
 11
103.4496180337
 21
108.5906593684
  0
LINE
  5
3D8
100
AcDbEntity
  8
0
100
AcDbLine
 62
7
  6
CONTINUOUS
 10
103.4496180337
 20
107.7732873684
 11
103.4496180337
 21
105.6857080326
  0
LINE
  5
3D9
100
AcDbEntity
  8
RACCORDO
100
AcDbLine
 62
253
  6
CONTINUOUS
 10
103.5429955403
 20
124.8529216895
 11
103.5429420383
 21
124.8808938736
  0
LINE
  5
3DA
100
AcDbEntity
  8
RACCORDO
100
AcDbLine
 62
253
  6
CONTINUOUS
 10
103.5443823118
 20
138.1148626779
 11
103.5443823118
 21
125.0146847648
  0
LINE
  5
3DB
100
AcDbEntity
  8
RACCORDO
100
AcDbLine
 62
253
  6
CONTINUOUS
 10
103.5443823118
 20
123.8148054808
 11
103.5443823118
 21
110.1630320992
  0
LINE
  5
3DC
100
AcDbEntity
  8
RACCORDO
100
AcDbLine
 62
253
  6
CONTINUOUS
 10
102.7588471323
 20
140.0815376806
 11
102.7583442369
 21
107.2605583421
  0
LINE
  5
3DD
100
AcDbEntity
  8
RACCORDO
100
AcDbLine
 62
253
  6
CONTINUOUS
 10
102.7588613253
 20
106.6010047695
 11
102.7583442369
 21
104.0599126021
  0
LINE
  5
3DE
100
AcDbEntity
  8
RACCORDO
100
AcDbLine
 62
253
  6
CONTINUOUS
 10
103.5427776647
 20
109.7801396864
 11
103.542279203
 21
109.3697868823
  0
LINE
  5
3DF
100
AcDbEntity
  8
RACCORDO
100
AcDbLine
 62
253
  6
CONTINUOUS
 10
103.5424666559
 20
138.9807301851
 11
103.5422312443
 21
138.7742129439
  0
LINE
  5
3E0
100
AcDbEntity
  8
RACCORDO
100
AcDbLine
 62
253
  6
CONTINUOUS
 10
103.5424666878
 20
124.6807136157
 11
103.5422312267
 21
124.4741924691
  0
LINE
  5
3E1
100
AcDbEntity
  8
RACCORDO
100
AcDbLine
 62
253
  6
CONTINUOUS
 10
102.7590920752
 20
142.6396844958
 11
102.7590163878
 21
142.6010783291
  0
LINE
  5
3E2
100
AcDbEntity
  8
RACCORDO
100
AcDbLine
 62
253
  6
CONTINUOUS
 10
103.5443823258
 20
110.1630320995
 11
103.5427776647
 21
109.7801396864
  0
LINE
  5
3E3
100
AcDbEntity
  8
RACCORDO
100
AcDbLine
 62
253
  6
CONTINUOUS
 10
103.5429420383
 20
124.8808938736
 11
103.5431040643
 21
124.9147122081
  0
LWPOLYLINE
  5
3E4
100
AcDbEntity
  8
RACCORDO
100
AcDbPolyline
 62
253
  6
CONTINUOUS
 90
6
 70
0
 10
102.7583442369
 20
104.0599126775
 10
102.7580881398
 20
104.0290131411
 10
102.758428105
 20
104.0012656852
 10
102.7590163877
 20
103.9768164077
 10
102.7592881787
 20
103.955663885
 10
102.7590163877
 20
103.9244486882
  0
LINE
  5
3E5
100
AcDbEntity
  8
RACCORDO
100
AcDbLine
 62
253
  6
CONTINUOUS
 10
102.7590163878
 20
142.6010783291
 11
102.7583442369
 21
142.5179820593
  0
LINE
  5
3E6
100
AcDbEntity
  8
RACCORDO
100
AcDbLine
 62
253
  6
CONTINUOUS
 10
103.5431040643
 20
124.9147122081
 11
103.5437328148
 21
124.9731143057
  0
LINE
  5
3E7
100
AcDbEntity
  8
RACCORDO
100
AcDbLine
 62
253
  6
CONTINUOUS
 10
103.5437328148
 20
124.9731143057
 11
103.5443821806
 21
125.0146847671
  0
LWPOLYLINE
  5
3E8
100
AcDbEntity
  8
RACCORDO
100
AcDbPolyline
 62
253
  6
CONTINUOUS
 90
19
 70
0
 10
103.2496180337
 20
104.4064785974
 10
103.2478012983
 20
104.376338384
 10
103.242303175
 20
104.3469051495
 10
103.2331138472
 20
104.3181573248
 10
103.2203290349
 20
104.2897763
 10
103.2040597174
 20
104.2618965129
 10
103.1843609733
 20
104.235263582
 10
103.1614058756
 20
104.2099928086
 10
103.135422152
 20
104.1859619158
 10
103.1065195067
 20
104.1637253627
 10
103.074950503
 20
104.1433385009
 10
103.0410085677
 20
104.1247495467
 10
103.0048421292
 20
104.1084182179
 10
102.9667706513
 20
104.0942972779
 10
102.927137889
 20
104.0823453269
 10
102.8861150382
 20
104.0730259434
 10
102.8440066946
 20
104.0663960476
 10
102.8012757215
 20
104.0620971552
 10
102.7583442369
 20
104.0599126775
  0
LWPOLYLINE
  5
3E9
100
AcDbEntity
  8
RACCORDO
100
AcDbPolyline
 62
253
  6
CONTINUOUS
 90
7
 70
0
 10
103.544382299
 20
124.814715226
 10
103.5440424388
 20
124.8125813101
 10
103.5437371079
 20
124.8061732571
 10
103.5434618794
 20
124.7955150845
 10
103.5432084443
 20
124.7806448035
 10
103.542977232
 20
124.7616249345
 10
103.5424666878
 20
124.6807136157
  0
LWPOLYLINE
  5
3EA
100
AcDbEntity
  8
RACCORDO
100
AcDbPolyline
 62
253
  6
CONTINUOUS
 90
7
 70
0
 10
103.5443823079
 20
124.8147152258
 10
103.5440358481
 20
124.8158162424
 10
103.5437315807
 20
124.8190948036
 10
103.5434728517
 20
124.8245151566
 10
103.5432625219
 20
124.8320180817
 10
103.5431028647
 20
124.8415215602
 10
103.5429955403
 20
124.8529216895
  0
LWPOLYLINE
  5
3EB
100
AcDbEntity
  8
RACCORDO
100
AcDbPolyline
 62
253
  6
CONTINUOUS
 90
16
 70
0
 10
103.2496180337
 20
140.2513101675
 10
103.2469395067
 20
140.2834967726
 10
103.2389326083
 20
140.3153385724
 10
103.2256831027
 20
140.3464944074
 10
103.207332925
 20
140.3766304649
 10
103.1840786611
 20
140.4054238561
 10
103.1561694421
 20
140.432566075
 10
103.1239042726
 20
140.4577663073
 10
103.0876288352
 20
140.4807545388
 10
103.0477317915
 20
140.5012844512
 10
103.0046405971
 20
140.5191360719
 10
102.9588169397
 20
140.5341181207
 10
102.9107518082
 20
140.5460700582
 10
102.8609601966
 20
140.5548638192
 10
102.8099755829
 20
140.5604051792
 10
102.7583442369
 20
140.5626347591
  0
LWPOLYLINE
  5
3EC
100
AcDbEntity
  8
RACCORDO
100
AcDbPolyline
 62
253
  6
CONTINUOUS
 90
16
 70
0
 10
103.2496180337
 20
106.3265845693
 10
103.2469394576
 20
106.2943976702
 10
103.2389324282
 20
106.2625556306
 10
103.225682735
 20
106.2313996159
 10
103.2073323388
 20
106.2012634412
 10
103.184077851
 20
106.1724699948
 10
103.1561684273
 20
106.1453277786
 10
103.1239030973
 20
106.1201276028
 10
103.0876275617
 20
106.0971394698
 10
103.0477304875
 20
106.0766096819
 10
103.0046393441
 20
106.0587582016
 10
102.9588158233
 20
106.0437762952
 10
102.9107508925
 20
106.0318244839
 10
102.8609595344
 20
106.0230308232
 10
102.8099752286
 20
106.0174895309
 10
102.7583442369
 20
106.0152599784
  0
LINE
  5
3ED
100
AcDbEntity
  8
RACCORDO
100
AcDbLine
 62
253
  6
CONTINUOUS
 10
112.2496180337
 20
132.2889473684
 11
114.2496180337
 21
132.2889473684
  0
LWPOLYLINE
  5
3EE
100
AcDbEntity
  8
RACCORDO
100
AcDbPolyline
 62
253
  6
CONTINUOUS
 90
5
 70
0
 10
102.7583442369
 20
142.671339987
 10
102.758640969
 20
142.6693372712
 10
102.7588656175
 20
142.6633566989
 10
102.7590163878
 20
142.6534460486
 10
102.7590920752
 20
142.6396844958
  0
LINE
  5
3EF
100
AcDbEntity
  8
RACCORDO
100
AcDbLine
 62
253
  6
CONTINUOUS
 10
112.2496180337
 20
134.3889473684
 11
114.2496180337
 21
134.3889473684
  0
LINE
  5
3F0
100
AcDbEntity
  8
ASSI
100
AcDbLine
 62
7
  6
CONTINUOUS
 10
103.2496180337
 20
134.8423523684
 11
103.4496180337
 21
134.8423523684
  0
LINE
  5
3F1
100
AcDbEntity
  8
RACCORDO
100
AcDbLine
 62
253
  6
CONTINUOUS
 10
111.7583442228
 20
124.8713099152
 11
111.759555216
 21
124.8413687793
  0
LINE
  5
3F2
100
AcDbEntity
  8
RACCORDO
100
AcDbLine
 62
253
  6
CONTINUOUS
 10
111.759555216
 20
124.8413687793
 11
111.7605292758
 21
124.8121826393
  0
LINE
  5
3F3
100
AcDbEntity
  8
RACCORDO
100
AcDbLine
 62
253
  6
CONTINUOUS
 10
111.7605292758
 20
124.8121826393
 11
111.7612661321
 21
124.784379526
  0
LWPOLYLINE
  5
3F4
100
AcDbEntity
  8
RACCORDO
100
AcDbPolyline
 62
253
  6
CONTINUOUS
 90
15
 70
0
 10
111.7612661321
 20
124.784379526
 10
111.7617419611
 20
124.7585054259
 10
111.7618795082
 20
124.7464824981
 10
111.7619474077
 20
124.7351622804
 10
111.7619473586
 20
124.7246051275
 10
111.7618792691
 20
124.7148664719
 10
111.7617414178
 20
124.7060001728
 10
111.7615350851
 20
124.6980568541
 10
111.7612644836
 20
124.6910807481
 10
111.7609273732
 20
124.6851112581
 10
111.7605246573
 20
124.6801822343
 10
111.7600650516
 20
124.6763214614
 10
111.7595507376
 20
124.6735510593
 10
111.7589773657
 20
124.671887252
 10
111.7583443664
 20
124.6713399848
  0
LINE
  5
3F5
100
AcDbEntity
  8
RACCORDO
100
AcDbLine
 62
253
  6
CONTINUOUS
 10
111.7609281338
 20
124.6021835444
 11
111.7615380913
 21
124.5373387562
  0
LINE
  5
3F6
100
AcDbEntity
  8
RACCORDO
100
AcDbLine
 62
253
  6
CONTINUOUS
 10
111.7609279492
 20
138.9021830028
 11
111.7615378964
 21
138.8373381026
  0
LINE
  5
3F7
100
AcDbEntity
  8
RACCORDO
100
AcDbLine
 62
253
  6
CONTINUOUS
 10
111.7583442369
 20
110.3064024449
 11
111.7605292499
 21
110.0117065786
  0
LINE
  5
3F8
100
AcDbEntity
  8
RACCORDO
100
AcDbLine
 62
253
  6
CONTINUOUS
 10
111.7605292499
 20
110.0117065786
 11
111.761742358
 21
109.7432028536
  0
LINE
  5
3F9
100
AcDbEntity
  8
RACCORDO
100
AcDbLine
 62
253
  6
CONTINUOUS
 10
111.7615380913
 20
124.5373387562
 11
111.761948883
 21
124.4043866777
  0
LINE
  5
3FA
100
AcDbEntity
  8
RACCORDO
100
AcDbLine
 62
253
  6
CONTINUOUS
 10
111.7615378964
 20
138.8373381026
 11
111.761948839
 21
138.704386074
  0
LINE
  5
3FB
100
AcDbEntity
  8
RACCORDO
100
AcDbLine
 62
253
  6
CONTINUOUS
 10
111.7583442369
 20
137.9714922919
 11
111.7583442369
 21
124.871309915
  0
LINE
  5
3FC
100
AcDbEntity
  8
RACCORDO
100
AcDbLine
 62
253
  6
CONTINUOUS
 10
111.7583442369
 20
123.6714922919
 11
111.7583442369
 21
110.3064024449
  0
LINE
  5
3FD
100
AcDbEntity
  8
RACCORDO
100
AcDbLine
 62
7
  6
CONTINUOUS
 10
112.2496180337
 20
138.4714161395
 11
112.2496180337
 21
109.8064785974
  0
LINE
  5
3FE
100
AcDbEntity
  8
RACCORDO
100
AcDbLine
 62
253
  6
CONTINUOUS
 10
111.761742358
 20
109.7432028536
 11
111.7618792898
 21
109.5247384369
  0
LINE
  5
3FF
100
AcDbEntity
  8
RACCORDO
100
AcDbLine
 62
253
  6
CONTINUOUS
 10
111.761948839
 20
138.704386074
 11
111.7615380913
 21
138.4713861007
  0
LINE
  5
400
100
AcDbEntity
  8
RACCORDO
100
AcDbLine
 62
253
  6
CONTINUOUS
 10
111.761948883
 20
124.4043866777
 11
111.7615378964
 21
124.1713872421
  0
LINE
  5
401
100
AcDbEntity
  8
RACCORDO
100
AcDbLine
 62
253
  6
CONTINUOUS
 10
111.7618792898
 20
109.5247384369
 11
111.7615378964
 21
109.4405566342
  0
LINE
  5
402
100
AcDbEntity
  8
RACCORDO
100
AcDbLine
 62
253
  6
CONTINUOUS
 10
111.7615380913
 20
138.4713861007
 11
111.7600665966
 21
138.1939697926
  0
LINE
  5
403
100
AcDbEntity
  8
RACCORDO
100
AcDbLine
 62
253
  6
CONTINUOUS
 10
111.7615378964
 20
124.1713872421
 11
111.7600664939
 21
123.8939710562
  0
LINE
  5
404
100
AcDbEntity
  8
RACCORDO
100
AcDbLine
 62
253
  6
CONTINUOUS
 10
111.7600665966
 20
138.1939697926
 11
111.7583442369
 21
137.9714922919
  0
LINE
  5
405
100
AcDbEntity
  8
RACCORDO
100
AcDbLine
 62
253
  6
CONTINUOUS
 10
111.7600664939
 20
123.8939710562
 11
111.7583442369
 21
123.6714922919
  0
LWPOLYLINE
  5
406
100
AcDbEntity
  8
RACCORDO
100
AcDbPolyline
 62
253
  6
CONTINUOUS
 90
7
 70
0
 10
111.7615378964
 20
109.4405566342
 10
111.7609279492
 20
109.375711734
 10
111.7605291059
 20
109.3510110773
 10
111.7600664939
 20
109.3316519647
 10
111.759543073
 20
109.3177427122
 10
111.7589668446
 20
109.3093613016
 10
111.7583442369
 20
109.3065547498
  0
LINE
  5
407
100
AcDbEntity
  8
RACCORDO
100
AcDbLine
 62
253
  6
CONTINUOUS
 10
97.3747985422
 20
103.9654152794
 11
95.8764034577
 21
102.4398168039
  0
LINE
  5
408
100
AcDbEntity
  8
RACCORDO
100
AcDbLine
 62
253
  6
CONTINUOUS
 10
95.8764034577
 20
102.4398168039
 11
95.7203764013
 21
102.2812272425
  0
LINE
  5
409
100
AcDbEntity
  8
RACCORDO
100
AcDbLine
 62
7
  6
CONTINUOUS
 10
97.5767808904
 20
103.8161102251
 11
95.393547532
 21
101.6328768668
  0
LWPOLYLINE
  5
40A
100
AcDbEntity
  8
RACCORDO
100
AcDbPolyline
 62
253
  6
CONTINUOUS
 90
10
 70
0
 10
96.065300019
 20
102.3046293537
 10
96.0386050837
 20
102.2821972615
 10
96.0083349343
 20
102.2647708378
 10
95.9746248292
 20
102.2524056354
 10
95.9375229541
 20
102.2447578952
 10
95.8974945977
 20
102.2418629925
 10
95.8553587524
 20
102.244312098
 10
95.8116172726
 20
102.2521290157
 10
95.7665091173
 20
102.2646124463
 10
95.7204728316
 20
102.2812289706
  0
LINE
  5
40B
100
AcDbEntity
  8
RACCORDO
100
AcDbLine
 62
253
  6
CONTINUOUS
 10
112.2496180337
 20
137.9714922919
 11
111.7583442369
 21
137.9714922919
  0
LINE
  5
40C
100
AcDbEntity
  8
RACCORDO
100
AcDbLine
 62
253
  6
CONTINUOUS
 10
103.4496180337
 20
138.1148675305
 11
103.5443823117
 21
138.1148675305
  0
LINE
  5
40D
100
AcDbEntity
  8
RACCORDO
100
AcDbLine
 62
253
  6
CONTINUOUS
 10
103.2496180337
 20
139.3173363948
 11
102.7583442369
 21
139.3173363948
  0
LINE
  5
40E
100
AcDbEntity
  8
RACCORDO
100
AcDbLine
 62
253
  6
CONTINUOUS
 10
103.5443823118
 20
138.1148626779
 11
111.7583442369
 21
137.9714922919
  0
LINE
  5
40F
100
AcDbEntity
  8
RACCORDO
100
AcDbLine
 62
7
  6
CONTINUOUS
 10
103.5443823118
 20
139.1147152258
 11
111.7583442369
 21
138.971339987
  0
LINE
  5
410
100
AcDbEntity
  8
DRAFT
100
AcDbLine
 62
7
  6
CONTINUOUS
 10
112.4391508424
 20
137.1290143748
 11
113.9653188206
 21
137.0490313003
  0
LINE
  5
411
100
AcDbEntity
  8
RACCORDO
100
AcDbLine
 62
7
  6
CONTINUOUS
 10
95.393547532
 20
144.9450178701
 11
97.5767808904
 21
142.7617845117
  0
LINE
  5
412
100
AcDbEntity
  8
RACCORDO
100
AcDbLine
 62
253
  6
CONTINUOUS
 10
96.3850514465
 20
143.6200578694
 11
97.3747985046
 21
142.6124794581
  0
LINE
  5
413
100
AcDbEntity
  8
RACCORDO
100
AcDbLine
 62
253
  6
CONTINUOUS
 10
95.7204103229
 20
144.2966669551
 11
96.3850514465
 21
143.6200578694
  0
LWPOLYLINE
  5
414
100
AcDbEntity
  8
RACCORDO
100
AcDbPolyline
 62
253
  6
CONTINUOUS
 90
6
 70
0
 10
111.7583442369
 20
124.671339987
 10
111.7589668781
 20
124.6685334764
 10
111.7595431409
 20
124.6601521709
 10
111.7600665966
 20
124.6462430583
 10
111.7605292499
 20
124.6268840861
 10
111.7609281338
 20
124.6021835444
  0
LINE
  5
415
100
AcDbEntity
  8
RACCORDO
100
AcDbLine
 62
253
  6
CONTINUOUS
 10
112.4391508424
 20
137.1290143748
 11
112.4391508424
 21
129.548880362
  0
LINE
  5
416
100
AcDbEntity
  8
RACCORDO
100
AcDbLine
 62
253
  6
CONTINUOUS
 10
112.4391508424
 20
125.4290143748
 11
112.4391508424
 21
123.3271953684
  0
LINE
  5
417
100
AcDbEntity
  8
RACCORDO
100
AcDbLine
 62
253
  6
CONTINUOUS
 10
112.4391508424
 20
119.8274563684
 11
112.4391508424
 21
111.148880362
  0
LINE
  5
418
100
AcDbEntity
  8
0
100
AcDbLine
 62
7
  6
CONTINUOUS
 10
112.4496180337
 20
123.3271953684
 11
112.4496180337
 21
119.8274563684
  0
LINE
  5
419
100
AcDbEntity
  8
RACCORDO
100
AcDbLine
 62
253
  6
CONTINUOUS
 10
113.9653188206
 20
137.0490313003
 11
113.9653188206
 21
129.6288634366
  0
LINE
  5
41A
100
AcDbEntity
  8
RACCORDO
100
AcDbLine
 62
253
  6
CONTINUOUS
 10
113.9653188206
 20
125.3490313003
 11
113.9653188206
 21
111.2288634366
  0
LINE
  5
41B
100
AcDbEntity
  8
RACCORDO
100
AcDbLine
 62
7
  6
CONTINUOUS
 10
114.2496180337
 20
136.7494365246
 11
114.2496180337
 21
129.9284581999
  0
LINE
  5
41C
100
AcDbEntity
  8
RACCORDO
100
AcDbLine
 62
7
  6
CONTINUOUS
 10
114.2496180337
 20
125.0494365246
 11
114.2496180337
 21
111.5284581999
  0
LINE
  5
41D
100
AcDbEntity
  8
ASSI
100
AcDbLine
 62
7
  6
CONTINUOUS
 10
103.2496180337
 20
139.3423163684
 11
103.4496180337
 21
139.3423163684
  0
LINE
  5
41E
100
AcDbEntity
  8
0
100
AcDbLine
 62
7
  6
CONTINUOUS
 10
103.2496180337
 20
140.4472596671
 11
103.4496180337
 21
140.4472593684
  0
LINE
  5
41F
100
AcDbEntity
  8
0
100
AcDbLine
 62
7
  6
CONTINUOUS
 10
103.2496180337
 20
140.4698133684
 11
103.4496180337
 21
140.4698133684
  0
LINE
  5
420
100
AcDbEntity
  8
0
100
AcDbLine
 62
7
  6
CONTINUOUS
 10
103.2496180337
 20
140.7672993684
 11
103.4496180337
 21
140.7672993684
  0
LINE
  5
421
100
AcDbEntity
  8
RACCORDO
100
AcDbLine
 62
253
  6
CONTINUOUS
 10
87.7496180337
 20
140.6483767812
 11
102.7583442369
 21
140.5626347585
  0
LINE
  5
422
100
AcDbEntity
  8
RACCORDO
100
AcDbLine
 62
253
  6
CONTINUOUS
 10
87.7496180337
 20
139.4086065853
 11
102.7583442369
 21
139.3173363948
  0
LWPOLYLINE
  5
423
100
AcDbEntity
  8
RACCORDO
100
AcDbPolyline
 62
7
  6
CONTINUOUS
 90
10
 70
0
 10
97.5559214316
 20
142.7621486149
 10
97.5404830026
 20
142.7604347319
 10
97.5234604266
 20
142.7550850388
 10
97.5050099552
 20
142.7459792832
 10
97.4853683624
 20
142.7329082005
 10
97.4646820711
 20
142.7158987621
 10
97.4430260051
 20
142.6952686633
 10
97.4206134578
 20
142.6711720747
 10
97.3977747844
 20
142.6435478669
 10
97.3747985055
 20
142.6124794937
  0
LINE
  5
424
100
AcDbEntity
  8
0
100
AcDbLine
 62
7
  6
CONTINUOUS
 10
103.2496180337
 20
141.8504003684
 11
103.4496180337
 21
141.8504003684
  0
LINE
  5
425
100
AcDbEntity
  8
0
100
AcDbLine
 62
7
  6
CONTINUOUS
 10
103.2496180337
 20
141.8860143684
 11
103.4496180337
 21
141.8860143684
  0
LINE
  5
426
100
AcDbEntity
  8
0
100
AcDbLine
 62
7
  6
CONTINUOUS
 10
103.2496180337
 20
142.1390432405
 11
103.4496180337
 21
142.1390432405
  0
LINE
  5
427
100
AcDbEntity
  8
RACCORDO
100
AcDbLine
 62
7
  6
CONTINUOUS
 10
97.5559214316
 20
142.7621486149
 11
102.7583442369
 21
142.671339987
  0
LINE
  5
428
100
AcDbEntity
  8
RACCORDO
100
AcDbLine
 62
253
  6
CONTINUOUS
 10
102.7583442369
 20
142.5179819663
 11
97.3747985046
 21
142.6124794581
  0
LWPOLYLINE
  5
429
100
AcDbEntity
  8
RACCORDO
100
AcDbPolyline
 62
253
  6
CONTINUOUS
 90
19
 70
0
 10
102.7583442369
 20
142.5179820593
 10
102.8014837979
 20
142.5162125804
 10
102.8440611303
 20
142.5118340558
 10
102.8858659717
 20
142.504917742
 10
102.9267600763
 20
142.4955559793
 10
102.9664490884
 20
142.4837780397
 10
103.0044835885
 20
142.4696239223
 10
103.0405943063
 20
142.4532846408
 10
103.0745948431
 20
142.4348720527
 10
103.106163233
 20
142.414420846
 10
103.1350448227
 20
142.3921953465
 10
103.161067344
 20
142.3683948404
 10
103.1840381416
 20
142.3430244974
 10
103.2037626817
 20
142.3163937626
 10
103.2201008839
 20
142.2887806458
 10
103.2329469371
 20
142.2601753612
 10
103.2421940751
 20
142.2307981112
 10
103.2477617825
 20
142.2010966548
 10
103.2496180337
 20
142.1714161395
  0
LWPOLYLINE
  5
42A
100
AcDbEntity
  8
0
100
AcDbPolyline
 62
7
  6
CONTINUOUS
 90
10
 70
0
 43
0.3500000006
 10
102.0710453796
 20
156.0389533081
 10
102.1424765625
 20
155.8960909424
 10
102.1424765625
 20
155.8246688232
 10
101.9996141968
 20
155.6818064575
 10
101.9281920776
 20
155.6818064575
 10
101.8567608948
 20
155.7532285767
 10
101.8567608948
 20
155.8246688232
 10
101.9281920776
 20
155.9675130615
 10
101.9996141968
 20
156.0389533081
 10
102.0710453796
 20
156.0389533081
  0
LWPOLYLINE
  5
42B
100
AcDbEntity
  8
RACCORDO
100
AcDbPolyline
 62
253
  6
CONTINUOUS
 90
6
 70
0
 10
111.7583442369
 20
138.971339987
 10
111.7589668446
 20
138.9685334353
 10
111.759543073
 20
138.9601520247
 10
111.7600664939
 20
138.9462427722
 10
111.7605291059
 20
138.9268836595
 10
111.7609279492
 20
138.9021830028
  0
LINE
  5
42C
100
AcDbEntity
  8
COPY_PUBLISH
100
AcDbLine
 62
7
  6
CONTINUOUS
 10
93.8991135176
 20
101.0889473684
 11
95.393547532
 21
101.6328768668
  0
LINE
  5
42D
100
AcDbEntity
  8
COPY_PUBLISH
100
AcDbLine
 62
7
  6
CONTINUOUS
 10
92.2901378788
 20
144.4795125594
 11
91.7496180337
 21
144.4889473684
  0
LINE
  5
42E
100
AcDbEntity
  8
RACCORDO
100
AcDbLine
 62
7
  6
CONTINUOUS
 10
91.7496180337
 20
144.4889473684
 11
95.7204728316
 21
144.4196358401
  0
LINE
  5
42F
100
AcDbEntity
  8
RACCORDO
100
AcDbLine
 62
253
  6
CONTINUOUS
 10
91.7496180337
 20
144.3662880187
 11
95.7204103229
 21
144.2966669551
  0
LWPOLYLINE
  5
430
100
AcDbEntity
  8
COPY_PUBLISH
100
AcDbPolyline
 62
253
  6
CONTINUOUS
 90
3
 70
0
 10
78.6916054003
 20
144.3072606562
 10
78.6957826796
 20
144.3070374903
 10
79.1824147317
 20
144.2862432851
  0
LINE
  5
431
100
AcDbEntity
  8
COPY_PUBLISH
100
AcDbLine
 62
7
  6
CONTINUOUS
 10
93.8991135176
 20
145.4889473684
 11
95.393547532
 21
144.9450178701
  0
LINE
  5
432
100
AcDbEntity
  8
COPY_PUBLISH
100
AcDbLine
 62
253
  6
CONTINUOUS
 10
79.6558047887
 20
144.7645397383
 11
87.7496180337
 21
145.1887185164
  0
LINE
  5
433
100
AcDbEntity
  8
COPY_PUBLISH
100
AcDbLine
 62
7
  6
CONTINUOUS
 10
79.6383630138
 20
145.2638545056
 11
87.7496180337
 21
145.6889473684
  0
LINE
  5
434
100
AcDbEntity
  8
COPY_PUBLISH
100
AcDbLine
 62
7
  6
CONTINUOUS
 10
93.8991135176
 20
145.4889473684
 11
93.3496180337
 21
145.4889473684
  0
LINE
  5
435
100
AcDbEntity
  8
0
100
AcDbLine
 62
7
  6
CONTINUOUS
 10
91.7496180337
 20
145.9188139711
 11
90.4272609729
 21
145.9288472537
  0
LINE
  5
436
100
AcDbEntity
  8
0
100
AcDbLine
 62
7
  6
CONTINUOUS
 10
90.4272609729
 20
145.9288472537
 11
89.0938953251
 21
145.9399688713
  0
LINE
  5
437
100
AcDbEntity
  8
0
100
AcDbLine
 62
7
  6
CONTINUOUS
 10
89.0938953251
 20
145.9399688713
 11
87.7496180337
 21
145.9521139904
  0
LINE
  5
438
100
AcDbEntity
  8
COPY_PUBLISH
100
AcDbLine
 62
7
  6
CONTINUOUS
 10
91.7496180337
 20
146.7191271087
 11
89.6496180337
 21
146.7557827451
  0
LINE
  5
439
100
AcDbEntity
  8
0
100
AcDbLine
 62
7
  6
CONTINUOUS
 10
91.7496180337
 20
146.7191271087
 11
87.7496180337
 21
146.7889473684
  0
LINE
  5
43A
100
AcDbEntity
  8
0
100
AcDbLine
 62
253
  6
CONTINUOUS
 10
91.7496180337
 20
146.5520547297
 11
87.7496180337
 21
146.6223070264
  0
LINE
  5
43B
100
AcDbEntity
  8
0
100
AcDbLine
 62
7
  6
CONTINUOUS
 10
89.9840253428
 20
146.4252004373
 11
87.7496180337
 21
146.4688559302
  0
LINE
  5
43C
100
AcDbEntity
  8
0
100
AcDbLine
 62
7
  6
CONTINUOUS
 10
91.7496180337
 20
146.3888378432
 11
89.9840253428
 21
146.4252004373
  0
LWPOLYLINE
  5
43D
100
AcDbEntity
  8
0
100
AcDbPolyline
 62
7
  6
CONTINUOUS
 90
7
 70
0
 43
0.3500000006
 10
98.2139065247
 20
155.5389440918
 10
96.7139060669
 20
155.5389440918
 10
98.2139065247
 20
157.6818070679
 10
98.2139065247
 20
158.1103760376
 10
97.7853284912
 20
158.5389450073
 10
97.1424750366
 20
158.5389450073
 10
96.7139060669
 20
157.8960915527
  0
LWPOLYLINE
  5
43E
100
AcDbEntity
  8
0
100
AcDbPolyline
 62
7
  6
CONTINUOUS
 90
8
 70
0
 43
0.3500000006
 10
103.1424768677
 20
155.5389440918
 10
103.9996148071
 20
155.5389440918
 10
104.4281928406
 20
155.9675130615
 10
104.4281928406
 20
156.8246691284
 10
103.9996148071
 20
157.2532380981
 10
103.1424768677
 20
157.2532380981
 10
103.1424768677
 20
158.5389450073
 10
104.4281928406
 20
158.5389450073
  0
LWPOLYLINE
  5
43F
100
AcDbEntity
  8
0
100
AcDbPolyline
 62
7
  6
CONTINUOUS
 90
6
 70
0
 43
0.3500000006
 10
93.9996208191
 20
165.5389471436
 10
95.0710432434
 20
165.5389471436
 10
95.285336792
 20
165.7532316284
 10
95.285336792
 20
166.8246540527
 10
94.8567587585
 20
167.2532411499
 10
94.4281897888
 20
167.2532411499
  0
ARC
  5
440
100
AcDbEntity
  8
0
100
AcDbCircle
 62
7
  6
CONTINUOUS
 10
155.2676121011
 20
123.2889473684
 40
28.0
100
AcDbArc
 50
125.9627651514
 51
126.8614164431
  0
ARC
  5
441
100
AcDbEntity
  8
0
100
AcDbCircle
 62
7
  6
CONTINUOUS
 10
155.2676121011
 20
123.2889473684
 40
28.0
100
AcDbArc
 50
123.5572122925
 51
124.1210936517
  0
ARC
  5
442
100
AcDbEntity
  8
0
100
AcDbCircle
 62
7
  6
CONTINUOUS
 10
132.7676121011
 20
123.2889473684
 40
28.0
100
AcDbArc
 50
55.8789063483
 51
56.4427877076
  0
ARC
  5
443
100
AcDbEntity
  8
0
100
AcDbCircle
 62
7
  6
CONTINUOUS
 10
132.7676121011
 20
123.2889473684
 40
28.0
100
AcDbArc
 50
53.1311022167
 51
54.0372348486
  0
ARC
  5
444
100
AcDbEntity
  8
0
100
AcDbCircle
 62
7
  6
CONTINUOUS
 10
177.7676121011
 20
123.2889473684
 40
28.0
100
AcDbArc
 50
125.9627651514
 51
126.8688977833
  0
ARC
  5
445
100
AcDbEntity
  8
0
100
AcDbCircle
 62
7
  6
CONTINUOUS
 10
177.7676121011
 20
123.2889473684
 40
28.0
100
AcDbArc
 50
123.5572122924
 51
124.1210936517
  0
ARC
  5
446
100
AcDbEntity
  8
0
100
AcDbCircle
 62
7
  6
CONTINUOUS
 10
155.2676121011
 20
123.2889473684
 40
28.0
100
AcDbArc
 50
55.8789063483
 51
56.4427877075
  0
ARC
  5
447
100
AcDbEntity
  8
0
100
AcDbCircle
 62
7
  6
CONTINUOUS
 10
155.2676121011
 20
123.2889473684
 40
28.0
100
AcDbArc
 50
53.1385835569
 51
54.0372348486
  0
ARC
  5
448
100
AcDbEntity
  8
0
100
AcDbCircle
 62
7
  6
CONTINUOUS
 10
155.2676121011
 20
123.2889473684
 40
28.0
100
AcDbArc
 50
305.9627651514
 51
306.8614164431
  0
ARC
  5
449
100
AcDbEntity
  8
0
100
AcDbCircle
 62
7
  6
CONTINUOUS
 10
155.2676121011
 20
123.2889473684
 40
28.0
100
AcDbArc
 50
303.5572122893
 51
304.1210936517
  0
ARC
  5
44A
100
AcDbEntity
  8
0
100
AcDbCircle
 62
7
  6
CONTINUOUS
 10
177.7676121011
 20
123.2889473684
 40
28.0
100
AcDbArc
 50
235.8789063483
 51
236.4427877109
  0
ARC
  5
44B
100
AcDbEntity
  8
0
100
AcDbCircle
 62
7
  6
CONTINUOUS
 10
177.7676121011
 20
123.2889473684
 40
28.0
100
AcDbArc
 50
233.1311022167
 51
234.0372348486
  0
ARC
  5
44C
100
AcDbEntity
  8
0
100
AcDbCircle
 62
7
  6
CONTINUOUS
 10
132.7676121011
 20
123.2889473684
 40
28.0
100
AcDbArc
 50
305.9627651514
 51
306.8688977833
  0
ARC
  5
44D
100
AcDbEntity
  8
0
100
AcDbCircle
 62
7
  6
CONTINUOUS
 10
132.7676121011
 20
123.2889473684
 40
28.0
100
AcDbArc
 50
303.5572122891
 51
304.1210936517
  0
ARC
  5
44E
100
AcDbEntity
  8
0
100
AcDbCircle
 62
7
  6
CONTINUOUS
 10
155.2676121011
 20
123.2889473684
 40
28.0
100
AcDbArc
 50
235.8789063483
 51
236.4427877107
  0
ARC
  5
44F
100
AcDbEntity
  8
0
100
AcDbCircle
 62
7
  6
CONTINUOUS
 10
155.2676121011
 20
123.2889473684
 40
28.0
100
AcDbArc
 50
233.1385835569
 51
234.0372348486
  0
ARC
  5
450
100
AcDbEntity
  8
RACCORDO
100
AcDbCircle
 62
7
  6
CONTINUOUS
 10
145.7676121011
 20
118.2889473684
 40
2.7
100
AcDbArc
 50
52.3978649318
 51
307.6021350682
  0
ARC
  5
451
100
AcDbEntity
  8
RACCORDO
100
AcDbCircle
 62
7
  6
CONTINUOUS
 10
164.7676121011
 20
118.2889473684
 40
2.7
100
AcDbArc
 50
232.3978649318
 51
127.6021350682
  0
ARC
  5
452
100
AcDbEntity
  8
DRAFT
100
AcDbCircle
 62
7
  6
CONTINUOUS
 10
155.2676121011
 20
130.1889473684
 40
2.65
100
AcDbArc
 50
180.0
 51
360.0
  0
ARC
  5
453
100
AcDbEntity
  8
0
100
AcDbCircle
 62
7
  6
CONTINUOUS
 10
139.0676121011
 20
146.3889473684
 40
0.5
100
AcDbArc
 50
240.887577224
 51
9.196281579
  0
ARC
  5
454
100
AcDbEntity
  8
0
100
AcDbCircle
 62
7
  6
CONTINUOUS
 10
148.9676121011
 20
146.3889473684
 40
0.5
100
AcDbArc
 50
170.803718421
 51
299.112422776
  0
ARC
  5
455
100
AcDbEntity
  8
0
100
AcDbCircle
 62
7
  6
CONTINUOUS
 10
161.5676121011
 20
146.3889473684
 40
0.5
100
AcDbArc
 50
240.887577224
 51
9.196281579
  0
ARC
  5
456
100
AcDbEntity
  8
0
100
AcDbCircle
 62
7
  6
CONTINUOUS
 10
171.4676121011
 20
146.3889473684
 40
0.5
100
AcDbArc
 50
170.803718421
 51
299.112422776
  0
ARC
  5
457
100
AcDbEntity
  8
0
100
AcDbCircle
 62
7
  6
CONTINUOUS
 10
171.4676121011
 20
100.1889473684
 40
0.5
100
AcDbArc
 50
60.887577224
 51
189.196281579
  0
ARC
  5
458
100
AcDbEntity
  8
0
100
AcDbCircle
 62
7
  6
CONTINUOUS
 10
161.5676121011
 20
100.1889473684
 40
0.5
100
AcDbArc
 50
350.803718421
 51
119.112422776
  0
ARC
  5
459
100
AcDbEntity
  8
0
100
AcDbCircle
 62
7
  6
CONTINUOUS
 10
148.9676121011
 20
100.1889473684
 40
0.5
100
AcDbArc
 50
60.887577224
 51
189.196281579
  0
ARC
  5
45A
100
AcDbEntity
  8
0
100
AcDbCircle
 62
7
  6
CONTINUOUS
 10
139.0676121011
 20
100.1889473684
 40
0.5
100
AcDbArc
 50
350.803718421
 51
119.112422776
  0
ARC
  5
45B
100
AcDbEntity
  8
COPY_PUBLISH
100
AcDbCircle
 62
7
  6
CONTINUOUS
 10
79.69069897
 20
102.312669766
 40
1.0
100
AcDbArc
 50
182.4092313014
 51
267.0
  0
ARC
  5
45C
100
AcDbEntity
  8
RACCORDO
100
AcDbCircle
 62
7
  6
CONTINUOUS
 10
95.7117466284
 20
102.6581827443
 40
0.5
100
AcDbArc
 50
271.0
 51
315.0
  0
ARC
  5
45D
100
AcDbEntity
  8
RACCORDO
100
AcDbCircle
 62
7
  6
CONTINUOUS
 10
102.7496180337
 20
104.4064785974
 40
0.5
100
AcDbArc
 50
271.0
 51
360.0
  0
ARC
  5
45E
100
AcDbEntity
  8
RACCORDO
100
AcDbCircle
 62
7
  6
CONTINUOUS
 10
103.5496180337
 20
108.863240437
 40
0.2999964849
100
AcDbArc
 50
91.0000507817
 51
180.0029095764
  0
ARC
  5
45F
100
AcDbEntity
  8
RACCORDO
100
AcDbCircle
 62
7
  6
CONTINUOUS
 10
111.7496180337
 20
109.8064785974
 40
0.5
100
AcDbArc
 50
271.0
 51
360.0
  0
ARC
  5
460
100
AcDbEntity
  8
RACCORDO
100
AcDbCircle
 62
7
  6
CONTINUOUS
 10
113.9496180337
 20
118.3494424398
 40
0.3
100
AcDbArc
 50
0.0
 51
87.0
  0
ARC
  5
461
100
AcDbEntity
  8
RACCORDO
100
AcDbCircle
 62
7
  6
CONTINUOUS
 10
113.9496180337
 20
111.528452297
 40
0.3
100
AcDbArc
 50
273.0
 51
360.0
  0
ARC
  5
462
100
AcDbEntity
  8
RACCORDO
100
AcDbCircle
 62
7
  6
CONTINUOUS
 10
112.4496180337
 20
118.9287402818
 40
0.2
100
AcDbArc
 50
180.0
 51
267.0
  0
ARC
  5
463
100
AcDbEntity
  8
RACCORDO
100
AcDbCircle
 62
7
  6
CONTINUOUS
 10
112.4496180337
 20
110.9491544551
 40
0.2
100
AcDbArc
 50
93.0
 51
180.0
  0
ARC
  5
464
100
AcDbEntity
  8
COPY_PUBLISH
100
AcDbCircle
 62
7
  6
CONTINUOUS
 10
79.69069897
 20
144.2652249709
 40
1.0
100
AcDbArc
 50
93.0
 51
177.5907686986
  0
ARC
  5
465
100
AcDbEntity
  8
RACCORDO
100
AcDbCircle
 62
7
  6
CONTINUOUS
 10
95.7117466284
 20
143.9197119925
 40
0.5
100
AcDbArc
 50
45.0
 51
89.0
  0
ARC
  5
466
100
AcDbEntity
  8
RACCORDO
100
AcDbCircle
 62
7
  6
CONTINUOUS
 10
111.7496180337
 20
124.1714161395
 40
0.5
100
AcDbArc
 50
0.0
 51
89.0
  0
ARC
  5
467
100
AcDbEntity
  8
RACCORDO
100
AcDbCircle
 62
7
  6
CONTINUOUS
 10
113.9496180337
 20
125.0494424398
 40
0.3
100
AcDbArc
 50
0.0
 51
87.0
  0
ARC
  5
468
100
AcDbEntity
  8
RACCORDO
100
AcDbCircle
 62
7
  6
CONTINUOUS
 10
113.9496180337
 20
129.928452297
 40
0.3
100
AcDbArc
 50
273.0
 51
360.0
  0
ARC
  5
469
100
AcDbEntity
  8
RACCORDO
100
AcDbCircle
 62
7
  6
CONTINUOUS
 10
103.5496180337
 20
125.1146513862
 40
0.2999958126
100
AcDbArc
 50
179.9965339671
 51
268.9999395057
  0
ARC
  5
46A
100
AcDbEntity
  8
RACCORDO
100
AcDbCircle
 62
7
  6
CONTINUOUS
 10
112.4496180337
 20
129.3491544551
 40
0.2
100
AcDbArc
 50
93.0
 51
180.0
  0
ARC
  5
46B
100
AcDbEntity
  8
RACCORDO
100
AcDbCircle
 62
7
  6
CONTINUOUS
 10
112.4496180337
 20
125.6287402818
 40
0.2
100
AcDbArc
 50
180.0
 51
267.0
  0
ARC
  5
46C
100
AcDbEntity
  8
RACCORDO
100
AcDbCircle
 62
7
  6
CONTINUOUS
 10
102.7496180337
 20
142.1714161395
 40
0.5
100
AcDbArc
 50
0.0
 51
89.0
  0
ARC
  5
46D
100
AcDbEntity
  8
RACCORDO
100
AcDbCircle
 62
7
  6
CONTINUOUS
 10
111.7496180337
 20
138.4714161395
 40
0.5
100
AcDbArc
 50
0.0
 51
89.0
  0
ARC
  5
46E
100
AcDbEntity
  8
RACCORDO
100
AcDbCircle
 62
7
  6
CONTINUOUS
 10
113.9496180337
 20
136.7494424398
 40
0.3
100
AcDbArc
 50
0.0
 51
87.0
  0
ARC
  5
46F
100
AcDbEntity
  8
RACCORDO
100
AcDbCircle
 62
7
  6
CONTINUOUS
 10
103.5496180337
 20
139.4146542998
 40
0.2999964849
100
AcDbArc
 50
179.9970904236
 51
193.9714188544
  0
ARC
  5
470
100
AcDbEntity
  8
RACCORDO
100
AcDbCircle
 62
7
  6
CONTINUOUS
 10
103.5496180337
 20
139.4146542998
 40
0.2999964849
100
AcDbArc
 50
251.192751802
 51
268.9999492183
  0
ARC
  5
471
100
AcDbEntity
  8
RACCORDO
100
AcDbCircle
 62
7
  6
CONTINUOUS
 10
112.4496180337
 20
137.3287402818
 40
0.2
100
AcDbArc
 50
180.0
 51
267.0
  0
ARC
  5
472
100
AcDbEntity
  8
RACCORDO
100
AcDbCircle
 62
7
  6
CONTINUOUS
 10
578.2496180337
 20
123.2889473684
 40
500.0
100
AcDbArc
 50
180.6617934629
 51
180.7743977502
  0
ARC
  5
473
100
AcDbEntity
  8
RACCORDO
100
AcDbCircle
 62
7
  6
CONTINUOUS
 10
578.2496180337
 20
123.2889473684
 40
500.0
100
AcDbArc
 50
178.8752132946
 51
179.1961683395
  0
ARC
  5
474
100
AcDbEntity
  8
COPY_PUBLISH
100
AcDbCircle
 62
7
  6
CONTINUOUS
 10
578.2496180337
 20
123.2889473684
 40
500.0
100
AcDbArc
 50
177.5907686986
 51
182.4092313014
  0
ARC
  5
475
100
AcDbEntity
  8
RACCORDO
100
AcDbCircle
 62
7
  6
CONTINUOUS
 10
578.2496180337
 20
123.2889473684
 40
500.0
100
AcDbArc
 50
179.1974402654
 51
179.5426354075
  0
ARC
  5
476
100
AcDbEntity
  8
RACCORDO
100
AcDbCircle
 62
7
  6
CONTINUOUS
 10
578.2496180337
 20
123.2889473684
 40
500.0
100
AcDbArc
 50
180.7757221624
 51
181.1047227598
  0
ELLIPSE
  5
477
100
AcDbEntity
  8
COPY_PUBLISH
100
AcDbEllipse
 62
7
  6
CONTINUOUS
 10
177.1675359371
 20
101.3896335414
 30
0.0
 11
-0.1582391024
 21
0.4751033573
 31
0.0
 40
0.9984778551
 41
-3.4626430041
 42
-1.8927600658
  0
ELLIPSE
  5
478
100
AcDbEntity
  8
COPY_PUBLISH
100
AcDbEllipse
 62
7
  6
CONTINUOUS
 10
177.1675359371
 20
145.1882611954
 30
0.0
 11
0.1582391023
 21
0.4751033573
 31
0.0
 40
0.9984778551
 41
-1.2488325878
 42
0.3210503505
  0
ELLIPSE
  5
479
100
AcDbEntity
  8
COPY_PUBLISH
100
AcDbEllipse
 62
7
  6
CONTINUOUS
 10
133.3676882651
 20
101.3896335414
 30
0.0
 11
0.1582391023
 21
0.4751033573
 31
0.0
 40
0.9984778551
 41
-4.3904252414
 42
-2.8205423031
  0
ELLIPSE
  5
47A
100
AcDbEntity
  8
COPY_PUBLISH
100
AcDbEllipse
 62
7
  6
CONTINUOUS
 10
133.3676882651
 20
145.1882611954
 30
0.0
 11
-0.1582391023
 21
0.4751033573
 31
0.0
 40
0.9984778551
 41
-0.3210503505
 42
1.2488325878
  0
ENDSEC
  0
SECTION
  2
OBJECTS
  0
DICTIONARY
  5
C
100
AcDbDictionary
280
0
281
1
  3
ACAD_GROUP
350
D
  3
ACAD_MLINESTYLE
350
17
  3
ACAD_LAYOUT
350
1A
  3
ACAD_PLOTSETTINGS
350
19
  3
ACAD_PLOTSTYLENAME
350
E
  0
DICTIONARY
  5
D
102
{ACAD_REACTORS
330
C
102
}
100
AcDbDictionary
280
0
281
1
  0
ACDBDICTIONARYWDFLT
  5
E
102
{ACAD_REACTORS
330
C
102
}
100
AcDbDictionary
281
1
  3
Normal
350
F
100
AcDbDictionaryWithDefault
340
F
  0
DICTIONARY
  5
17
102
{ACAD_REACTORS
330
C
102
}
100
AcDbDictionary
280
0
281
1
  3
Standard
350
18
  0
DICTIONARY
  5
19
102
{ACAD_REACTORS
330
C
102
}
100
AcDbDictionary
281
1
  0
DICTIONARY
  5
1A
102
{ACAD_REACTORS
330
C
102
}
100
AcDbDictionary
281
1
  3
Model
350
47B
  3
Layout1
350
47C
  0
ACDBPLACEHOLDER
  5
F
102
{ACAD_REACTORS
330
E
102
}
  0
MLINESTYLE
  5
18
102
{ACAD_REACTORS
330
17
102
}
100
AcDbMlineStyle
  2
STANDARD
 70
0
  3

 62
256
 51
90.0
 52
90.0
 71
2
 49
0.5
 62
256
  6
BYLAYER
 49
-0.5
 62
256
  6
BYLAYER
  0
LAYOUT
  5
47B
102
{ACAD_REACTORS
330
1A
102
}
100
AcDbPlotSettings
  1

  2
none_device
  4
ISO_A4_(297.00_x_210.00_MM)
  6

 40
0.0
 41
0.0
 42
0.0
 43
0.0
 44
297.0
 45
210.0
 46
0.0
 47
0.0
 48
0.0
 49
0.0
140
0.0
141
0.0
142
1.0
143
1.0
 70
1024
 72
1
 73
0
 74
0
  7

 75
0
147
1.0
148
0.0
149
0.0
100
AcDbLayout
  1
Model
 70
0
 71
0
 10
0.0
 20
0.0
 11
297.0
 21
210.0
 12
0.0
 22
0.0
 32
0.0
 14
0.0
 24
0.0
 34
0.0
 15
0.0
 25
0.0
 35
0.0
146
0.0
 13
0.0
 23
0.0
 33
0.0
 16
1.0
 26
0.0
 36
0.0
 17
0.0
 27
1.0
 37
0.0
 76
0
330
218
345
0
346
0
  0
LAYOUT
  5
47C
102
{ACAD_REACTORS
330
1A
102
}
100
AcDbPlotSettings
  1

  2
none_device
  4
ISO_A4_(297.00_x_210.00_MM)
  6

 40
0.0
 41
0.0
 42
0.0
 43
0.0
 44
297.0
 45
210.0
 46
0.0
 47
0.0
 48
0.0
 49
0.0
140
0.0
141
0.0
142
1.0
143
1.0
 70
0
 72
1
 73
0
 74
0
  7

 75
0
147
1.0
148
0.0
149
0.0
100
AcDbLayout
  1
Layout1
 70
0
 71
1
 10
0.0
 20
0.0
 11
297.0
 21
210.0
 12
0.0
 22
0.0
 32
0.0
 14
0.0
 24
0.0
 34
0.0
 15
0.0
 25
0.0
 35
0.0
146
0.0
 13
0.0
 23
0.0
 33
0.0
 16
1.0
 26
0.0
 36
0.0
 17
0.0
 27
1.0
 37
0.0
 76
0
330
219
345
0
346
0
  0
ENDSEC
  0
EOF
