  0
SECTION
  2
HEADER
  9
$ACADVER
  1
AC1015
  9
$DWGCODEPAGE
  3
ANSI_1252
  9
$EXTMAX
 10
558.8
 20
431.8
 30
0.0
  9
$EXTMIN
 10
0.0
 20
0.0
 30
0.0
  9
$LIMMIN
 10
0.0
 20
0.0
  9
$LIMMAX
 10
558.8
 20
431.8
  9
$VIEWCTR
 10
279.4
 20
215.9
  9
$VIEWSIZE
 40
431.8
  9
$CLAYER
  8
0
  9
$LTSCALE
 40
30.734
  9
$CELTYPE
  6
BYLAYER
  9
$DIMSCALE
 40
1.0
  9
$DIMASZ
 40
3.0
  9
$DIMEXO
 40
3.4925
  9
$DIMDLI
 40
21.2344
  9
$DIMEXE
 40
10.0584
  9
$DIMCEN
 40
5.0292
  9
$DIMLFAC
 40
1.0
  9
$DIMBLK
  1
_FILLED
  9
$DIMTXT
 40
3.0
  9
$DIMTOL
 70
1
  9
$DIMLIM
 70
0
  9
$DIMTFAC
 40
1.0
  9
$DIMTP
 40
0.01
  9
$DIMTM
 40
0.01
  9
$PDMODE
 70
3
  9
$PDSIZE
 40
3.0
  9
$HANDSEED
  5
4FD
  9
$TILEMODE
 70
1
  9
$MEASUREMENT
 70
1
  9
$INSUNITS
 70
4
  0
ENDSEC
  0
SECTION
  2
CLASSES
  0
CLASS
  1
ACDBDICTIONARYWDFLT
  2
AcDbDictionaryWithDefault
  3
AutoCAD 2000
 90
0
280
0
281
0
  0
CLASS
  1
ACDBPLACEHOLDER
  2
AcDbPlaceHolder
  3
AutoCAD 2000
 90
0
280
0
281
0
  0
CLASS
  1
LAYOUT
  2
AcDbLayout
  3
AutoCAD 2000
 90
0
280
0
281
0
  0
ENDSEC
  0
SECTION
  2
TABLES
  0
TABLE
  2
VPORT
  5
8
100
AcDbSymbolTable
 70
2
  0
VPORT
  5
1F4
100
AcDbSymbolTableRecord
100
AcDbViewportTableRecord
  2
*ACTIVE
 70
0
 10
0.0
 20
0.0
 11
1.0
 21
1.0
 12
279.4
 22
215.9
 13
0.0
 23
0.0
 14
1.0
 24
1.0
 15
0.0
 25
0.0
 16
0.0
 26
0.0
 36
1.0
 17
0.0
 27
0.0
 37
0.0
 40
431.8
 41
1.2941176471
 42
50.0
 43
0.0
 44
0.0
 50
0.0
 51
0.0
 71
0
 72
100
 73
1
 74
1
 75
0
 76
0
 77
0
 78
0
  0
ENDTAB
  0
TABLE
  2
LTYPE
  5
5
100
AcDbSymbolTable
 70
6
  0
LTYPE
  5
14
100
AcDbSymbolTableRecord
100
AcDbLinetypeTableRecord
  2
BYBLOCK
 70
0
  3

 72
65
 73
0
 40
0.0
  0
LTYPE
  5
15
100
AcDbSymbolTableRecord
100
AcDbLinetypeTableRecord
  2
BYLAYER
 70
0
  3

 72
65
 73
0
 40
0.0
  0
LTYPE
  5
16
100
AcDbSymbolTableRecord
100
AcDbLinetypeTableRecord
  2
CONTINUOUS
 70
64
  3
Solid line
 72
65
 73
0
 40
0.0
  0
LTYPE
  5
1F5
100
AcDbSymbolTableRecord
100
AcDbLinetypeTableRecord
  2
CENTER
 70
64
  3
____ _ ____ _ ____ _ ____ _ ____ _ ____ _ ____
 72
65
 73
4
 40
0.6
 49
0.375
 74
0
 49
-0.075
 74
0
 49
0.075
 74
0
 49
-0.075
 74
0
  0
LTYPE
  5
1F6
100
AcDbSymbolTableRecord
100
AcDbLinetypeTableRecord
  2
HIDDEN
 70
64
  3
- - - - - - - - - - - - - - - - - - - -
 72
65
 73
2
 40
0.2
 49
0.1
 74
0
 49
-0.1
 74
0
  0
LTYPE
  5
1F7
100
AcDbSymbolTableRecord
100
AcDbLinetypeTableRecord
  2
PHANTOM
 70
64
  3
_____ _ _ _____ _ _ _____ _ _ _____
 72
65
 73
6
 40
0.8
 49
0.45
 74
0
 49
-0.05
 74
0
 49
0.1
 74
0
 49
-0.05
 74
0
 49
0.1
 74
0
 49
-0.05
 74
0
  0
LTYPE
  5
1F8
100
AcDbSymbolTableRecord
100
AcDbLinetypeTableRecord
  2
DOT
 70
64
  3
. . . . . . . . . . . . . . . . . . . .
 72
65
 73
2
 40
0.2
 49
0.1
 74
0
 49
-0.1
 74
0
  0
LTYPE
  5
1F9
100
AcDbSymbolTableRecord
100
AcDbLinetypeTableRecord
  2
DASHED
 70
64
  3
- - - - - - - - - - - - - - - - - - - -
 72
65
 73
2
 40
0.2
 49
0.1
 74
0
 49
-0.1
 74
0
  0
ENDTAB
  0
TABLE
  2
LAYER
  5
2
100
AcDbSymbolTable
 70
36
  0
LAYER
  5
10
100
AcDbSymbolTableRecord
100
AcDbLayerTableRecord
  2
0
 70
0
 62
7
  6
CONTINUOUS
370
-3
390
F
  0
LAYER
  5
1FA
100
AcDbSymbolTableRecord
100
AcDbLayerTableRecord
  2
DEFAULT_1
 70
0
 62
7
  6
CENTER
370
-3
390
F
  0
LAYER
  5
1FB
100
AcDbSymbolTableRecord
100
AcDbLayerTableRecord
  2
DEFAULT_2
 70
0
 62
7
  6
HIDDEN
370
-3
390
F
  0
LAYER
  5
1FC
100
AcDbSymbolTableRecord
100
AcDbLayerTableRecord
  2
DEFAULT_3
 70
0
 62
7
  6
PHANTOM
370
-3
390
F
  0
LAYER
  5
1FD
100
AcDbSymbolTableRecord
100
AcDbLayerTableRecord
  2
ASSI
 70
0
 62
7
  6
CONTINUOUS
370
-3
390
F
  0
LAYER
  5
1FE
100
AcDbSymbolTableRecord
100
AcDbLayerTableRecord
  2
COORDINATE
 70
0
 62
7
  6
CONTINUOUS
370
-3
390
F
  0
LAYER
  5
1FF
100
AcDbSymbolTableRecord
100
AcDbLayerTableRecord
  2
COORD_ORIGINE
 70
0
 62
7
  6
CONTINUOUS
370
-3
390
F
  0
LAYER
  5
200
100
AcDbSymbolTableRecord
100
AcDbLayerTableRecord
  2
COPY_PUBLISH
 70
0
 62
7
  6
CONTINUOUS
370
-3
390
F
  0
LAYER
  5
201
100
AcDbSymbolTableRecord
100
AcDbLayerTableRecord
  2
COSMETICHE
 70
0
 62
7
  6
CONTINUOUS
370
-3
390
F
  0
LAYER
  5
202
100
AcDbSymbolTableRecord
100
AcDbLayerTableRecord
  2
COSMETICI
 70
0
 62
7
  6
CONTINUOUS
370
-3
390
F
  0
LAYER
  5
203
100
AcDbSymbolTableRecord
100
AcDbLayerTableRecord
  2
CURVE
 70
0
 62
7
  6
CONTINUOUS
370
-3
390
F
  0
LAYER
  5
204
100
AcDbSymbolTableRecord
100
AcDbLayerTableRecord
  2
DRAFT
 70
0
 62
7
  6
CONTINUOUS
370
-3
390
F
  0
LAYER
  5
205
100
AcDbSymbolTableRecord
100
AcDbLayerTableRecord
  2
IMPORT_IGES
 70
0
 62
7
  6
CONTINUOUS
370
-3
390
F
  0
LAYER
  5
206
100
AcDbSymbolTableRecord
100
AcDbLayerTableRecord
  2
INTF_1
 70
0
 62
7
  6
CONTINUOUS
370
-3
390
F
  0
LAYER
  5
207
100
AcDbSymbolTableRecord
100
AcDbLayerTableRecord
  2
NOTE
 70
0
 62
7
  6
CONTINUOUS
370
-3
390
F
  0
LAYER
  5
208
100
AcDbSymbolTableRecord
100
AcDbLayerTableRecord
  2
PIANI
 70
0
 62
7
  6
CONTINUOUS
370
-3
390
F
  0
LAYER
  5
209
100
AcDbSymbolTableRecord
100
AcDbLayerTableRecord
  2
PIANI_ORIGINE
 70
0
 62
7
  6
CONTINUOUS
370
-3
390
F
  0
LAYER
  5
20A
100
AcDbSymbolTableRecord
100
AcDbLayerTableRecord
  2
PUNTI
 70
0
 62
7
  6
CONTINUOUS
370
-3
390
F
  0
LAYER
  5
20B
100
AcDbSymbolTableRecord
100
AcDbLayerTableRecord
  2
RACCORDO
 70
0
 62
7
  6
CONTINUOUS
370
-3
390
F
  0
LAYER
  5
20C
100
AcDbSymbolTableRecord
100
AcDbLayerTableRecord
  2
SIMBOLI
 70
0
 62
7
  6
CONTINUOUS
370
-3
390
F
  0
LAYER
  5
20D
100
AcDbSymbolTableRecord
100
AcDbLayerTableRecord
  2
SMUSSO
 70
0
 62
7
  6
CONTINUOUS
370
-3
390
F
  0
LAYER
  5
20E
100
AcDbSymbolTableRecord
100
AcDbLayerTableRecord
  2
SNAPLINE
 70
0
 62
7
  6
CONTINUOUS
370
-3
390
F
  0
LAYER
  5
20F
100
AcDbSymbolTableRecord
100
AcDbLayerTableRecord
  2
SUPERFICI
 70
0
 62
7
  6
CONTINUOUS
370
-3
390
F
  0
LAYER
  5
210
100
AcDbSymbolTableRecord
100
AcDbLayerTableRecord
  2
TRASH
 70
0
 62
7
  6
CONTINUOUS
370
-3
390
F
  0
LAYER
  5
211
100
AcDbSymbolTableRecord
100
AcDbLayerTableRecord
  2
XSEC_DATUMS
 70
0
 62
7
  6
CONTINUOUS
370
-3
390
F
  0
ENDTAB
  0
TABLE
  2
STYLE
  5
3
100
AcDbSymbolTable
 70
1
  0
STYLE
  5
11
100
AcDbSymbolTableRecord
100
AcDbTextStyleTableRecord
  2
STANDARD
 70
0
 40
0.0
 41
0.8
 50
0.0
 71
0
 42
0.2
  3
txt
  4

  0
STYLE
  5
212
100
AcDbSymbolTableRecord
100
AcDbTextStyleTableRecord
  2
TEXTSTYLE_1
 70
0
 40
0.0
 41
0.8
 50
0.0
 71
0
 42
0.2
  3
gdt
  4

  0
ENDTAB
  0
TABLE
  2
VIEW
  5
6
100
AcDbSymbolTable
 70
0
  0
ENDTAB
  0
TABLE
  2
UCS
  5
7
100
AcDbSymbolTable
 70
0
  0
ENDTAB
  0
TABLE
  2
APPID
  5
9
100
AcDbSymbolTable
 70
1
  0
APPID
  5
213
100
AcDbSymbolTableRecord
100
AcDbRegAppTableRecord
  2
ACAD
 70
0
  0
ENDTAB
  0
TABLE
  2
BLOCK_RECORD
  5
1
100
AcDbSymbolTable
 70
0
  0
BLOCK_RECORD
  5
214
100
AcDbSymbolTableRecord
100
AcDbBlockTableRecord
  2
*Model_Space
  0
BLOCK_RECORD
  5
215
100
AcDbSymbolTableRecord
100
AcDbBlockTableRecord
  2
*Paper_Space
  0
BLOCK_RECORD
  5
216
100
AcDbSymbolTableRecord
100
AcDbBlockTableRecord
  2
_FILLED
  0
BLOCK_RECORD
  5
217
100
AcDbSymbolTableRecord
100
AcDbBlockTableRecord
  2
*D0
  0
BLOCK_RECORD
  5
218
100
AcDbSymbolTableRecord
100
AcDbBlockTableRecord
  2
*D1
  0
BLOCK_RECORD
  5
219
100
AcDbSymbolTableRecord
100
AcDbBlockTableRecord
  2
*D2
  0
BLOCK_RECORD
  5
21A
100
AcDbSymbolTableRecord
100
AcDbBlockTableRecord
  2
*D3
  0
ENDTAB
  0
TABLE
  2
DIMSTYLE
  5
A
100
AcDbSymbolTable
 70
1
100
AcDbDimStyleTable
 71
0
  0
DIMSTYLE
105
21B
100
AcDbSymbolTableRecord
100
AcDbDimStyleTableRecord
  2
STANDARD
 70
0
  3

  4

 40
1.0
 41
3.0
 42
0.0625
 43
0.38
 44
0.18
 45
0.0
 46
0.0
 47
0.01
 48
0.01
140
3.0
141
0.09
142
0.0
143
25.4
144
1.0
145
0.0
146
1.0
147
0.09
 71
1.0
 72
0.0
 73
0
 74
0
 75
0
 76
0
 77
1
 78
8
170
0
171
2
172
0
173
0
174
0
175
0
176
0
177
0
178
0
270
2
271
2
272
2
273
2
274
2
275
0
280
0
281
0
282
0
283
1
284
8
285
0
286
0
287
3
288
0
340
11
341
216
342
216
343
216
344
216
  0
DIMSTYLE
105
21C
100
AcDbSymbolTableRecord
100
AcDbDimStyleTableRecord
  2
DIMSTYLE_1
 70
0
  3

  4

 40
1.0
 41
3.0
 42
0.0625
 43
0.38
 44
0.18
 45
0.0
 46
0.0
 47
0.0
 48
0.0
140
3.0
141
0.09
142
0.0
143
25.4
144
1.0
145
0.0
146
1.0
147
0.09
 71
0.0
 72
0.0
 73
0
 74
0
 75
0
 76
0
 77
1
 78
8
170
0
171
2
172
0
173
0
174
0
175
0
176
0
177
0
178
0
270
2
271
2
272
2
273
2
274
2
275
0
280
0
281
0
282
0
283
1
284
8
285
0
286
0
287
3
288
0
340
11
341
216
342
216
343
216
344
216
  0
ENDTAB
  0
ENDSEC
  0
SECTION
  2
BLOCKS
  0
BLOCK
  5
20
100
AcDbEntity
  8
0
100
AcDbBlockBegin
  2
*Model_Space
 70
0
 10
0.0
 20
0.0
 30
0.0
  3
*Model_Space
  1

  0
ENDBLK
  5
21
100
AcDbEntity
  8
0
100
AcDbBlockEnd
  0
BLOCK
  5
1C
100
AcDbEntity
  8
0
100
AcDbBlockBegin
  2
*Paper_Space
 70
0
 10
0.0
 20
0.0
 30
0.0
  3
*Paper_Space
  1

  0
ENDBLK
  5
1D
100
AcDbEntity
  8
0
100
AcDbBlockEnd
  0
BLOCK
  5
21D
100
AcDbEntity
  8
0
100
AcDbBlockBegin
  2
_FILLED
 70
64
 10
0.0
 20
0.0
  3
_FILLED
  1

  0
SOLID
  5
21E
100
AcDbEntity
  8
0
  6
BYBLOCK
 62
0
100
AcDbTrace
 10
0.0
 20
0.0
 11
-1.0
 21
0.3166666667
 12
-1.0
 22
-0.3166666667
 13
-1.0
 23
-0.3166666667
  0
ENDBLK
  5
21F
100
AcDbEntity
  8
0
  6
BYBLOCK
 62
0
100
AcDbBlockEnd
  0
BLOCK
  5
220
100
AcDbEntity
  8
0
100
AcDbBlockBegin
 62
7
  6
CONTINUOUS
  2
*D0
 70
65
 10
0.0
 20
0.0
  3
*D0
  1

  0
LINE
  5
221
100
AcDbEntity
  8
0
100
AcDbLine
 62
7
  6
CONTINUOUS
 10
-15.2281706108
 20
-3.6297574865
 11
-15.2281706108
 21
35.3831453642
  0
LINE
  5
222
100
AcDbEntity
  8
0
100
AcDbLine
 62
7
  6
CONTINUOUS
 10
-39.7281706108
 20
-21.0166257837
 11
-39.7281706108
 21
35.3831453642
  0
LINE
  5
223
100
AcDbEntity
  8
0
100
AcDbLine
 62
7
  6
CONTINUOUS
 10
-15.2281706108
 20
33.8831453642
 11
-27.4781706108
 21
33.8831453642
  0
LINE
  5
224
100
AcDbEntity
  8
0
100
AcDbLine
 62
7
  6
CONTINUOUS
 10
-39.7281706108
 20
33.8831453642
 11
-27.4781706108
 21
33.8831453642
  0
INSERT
  5
225
100
AcDbEntity
  8
0
100
AcDbBlockReference
 62
7
  6
CONTINUOUS
  2
_FILLED
 10
-15.2281706108
 20
33.8831453642
 41
3.0
 42
3.0
 43
3.0
  0
INSERT
  5
226
100
AcDbEntity
  8
0
100
AcDbBlockReference
 62
7
  6
CONTINUOUS
  2
_FILLED
 10
-39.7281706108
 20
33.8831453642
 41
3.0
 42
3.0
 43
3.0
 50
180.0
  0
ENDBLK
  5
227
100
AcDbEntity
  8
0
  6
BYBLOCK
 62
0
100
AcDbBlockEnd
  0
BLOCK
  5
228
100
AcDbEntity
  8
0
100
AcDbBlockBegin
 62
7
  6
CONTINUOUS
  2
*D1
 70
65
 10
0.0
 20
0.0
  3
*D1
  1

  0
LINE
  5
229
100
AcDbEntity
  8
0
100
AcDbLine
 62
7
  6
CONTINUOUS
 10
2.8205584505
 20
-21.0166257837
 11
2.8205584505
 21
35.3831453642
  0
LINE
  5
22A
100
AcDbEntity
  8
0
100
AcDbLine
 62
7
  6
CONTINUOUS
 10
70.1205584505
 20
-21.0166257837
 11
70.1205584505
 21
35.3831453642
  0
LINE
  5
22B
100
AcDbEntity
  8
0
100
AcDbLine
 62
7
  6
CONTINUOUS
 10
2.8205584505
 20
33.8831453642
 11
36.4705584505
 21
33.8831453642
  0
LINE
  5
22C
100
AcDbEntity
  8
0
100
AcDbLine
 62
7
  6
CONTINUOUS
 10
70.1205584505
 20
33.8831453642
 11
36.4705584505
 21
33.8831453642
  0
INSERT
  5
22D
100
AcDbEntity
  8
0
100
AcDbBlockReference
 62
7
  6
CONTINUOUS
  2
_FILLED
 10
2.8205584505
 20
33.8831453642
 41
3.0
 42
3.0
 43
3.0
 50
180.0
  0
INSERT
  5
22E
100
AcDbEntity
  8
0
100
AcDbBlockReference
 62
7
  6
CONTINUOUS
  2
_FILLED
 10
70.1205584505
 20
33.8831453642
 41
3.0
 42
3.0
 43
3.0
  0
ENDBLK
  5
22F
100
AcDbEntity
  8
0
  6
BYBLOCK
 62
0
100
AcDbBlockEnd
  0
BLOCK
  5
230
100
AcDbEntity
  8
0
100
AcDbBlockBegin
 62
7
  6
CONTINUOUS
  2
*D2
 70
65
 10
0.0
 20
0.0
  3
*D2
  1

  0
LINE
  5
231
100
AcDbEntity
  8
0
100
AcDbLine
 62
7
  6
CONTINUOUS
 10
10.7957009724
 20
-23.1168546358
 11
81.6205584505
 21
-23.1168546358
  0
LINE
  5
232
100
AcDbEntity
  8
0
100
AcDbLine
 62
7
  6
CONTINUOUS
 10
10.7957009724
 20
23.8831453642
 11
81.6205584505
 21
23.8831453642
  0
LINE
  5
233
100
AcDbEntity
  8
0
100
AcDbLine
 62
7
  6
CONTINUOUS
 10
80.1205584505
 20
-23.1168546358
 11
80.1205584505
 21
0.3831453642
  0
LINE
  5
234
100
AcDbEntity
  8
0
100
AcDbLine
 62
7
  6
CONTINUOUS
 10
80.1205584505
 20
23.8831453642
 11
80.1205584505
 21
0.3831453642
  0
INSERT
  5
235
100
AcDbEntity
  8
0
100
AcDbBlockReference
 62
7
  6
CONTINUOUS
  2
_FILLED
 10
80.1205584505
 20
-23.1168546358
 41
3.0
 42
3.0
 43
3.0
 50
270.0
  0
INSERT
  5
236
100
AcDbEntity
  8
0
100
AcDbBlockReference
 62
7
  6
CONTINUOUS
  2
_FILLED
 10
80.1205584505
 20
23.8831453642
 41
3.0
 42
3.0
 43
3.0
 50
90.0
  0
ENDBLK
  5
237
100
AcDbEntity
  8
0
  6
BYBLOCK
 62
0
100
AcDbBlockEnd
  0
BLOCK
  5
238
100
AcDbEntity
  8
0
100
AcDbBlockBegin
 62
7
  6
CONTINUOUS
  2
*D3
 70
65
 10
0.0
 20
0.0
  3
*D3
  1

  0
LINE
  5
239
100
AcDbEntity
  8
0
100
AcDbLine
 62
7
  6
CONTINUOUS
 10
-49.2281706108
 20
0.8831453642
 11
-49.2281706108
 21
43.3831453642
  0
LINE
  5
23A
100
AcDbEntity
  8
0
100
AcDbLine
 62
7
  6
CONTINUOUS
 10
-15.2281706108
 20
0.8831453642
 11
-15.2281706108
 21
43.3831453642
  0
LINE
  5
23B
100
AcDbEntity
  8
0
100
AcDbLine
 62
7
  6
CONTINUOUS
 10
-49.2281706108
 20
41.8831453642
 11
-32.2281706108
 21
41.8831453642
  0
LINE
  5
23C
100
AcDbEntity
  8
0
100
AcDbLine
 62
7
  6
CONTINUOUS
 10
-15.2281706108
 20
41.8831453642
 11
-32.2281706108
 21
41.8831453642
  0
INSERT
  5
23D
100
AcDbEntity
  8
0
100
AcDbBlockReference
 62
7
  6
CONTINUOUS
  2
_FILLED
 10
-49.2281706108
 20
41.8831453642
 41
3.0
 42
3.0
 43
3.0
 50
180.0
  0
INSERT
  5
23E
100
AcDbEntity
  8
0
100
AcDbBlockReference
 62
7
  6
CONTINUOUS
  2
_FILLED
 10
-15.2281706108
 20
41.8831453642
 41
3.0
 42
3.0
 43
3.0
  0
ENDBLK
  5
23F
100
AcDbEntity
  8
0
  6
BYBLOCK
 62
0
100
AcDbBlockEnd
  0
ENDSEC
  0
SECTION
  2
ENTITIES
  0
DIMENSION
  5
240
100
AcDbEntity
  8
0
100
AcDbDimension
 62
7
  6
CONTINUOUS
  2
*D0
 10
-39.7281706108
 20
33.8831453642
 11
-31.7638848966
 21
34.6331453642
 70
160
 71
2
 42
24.5
  3
DIMSTYLE_1
100
AcDbAlignedDimension
 13
-15.2281706108
 23
-3.6297574865
 14
-39.7281706108
 24
-21.0166257837
 50
180.0
100
AcDbRotatedDimension
  0
DIMENSION
  5
241
100
AcDbEntity
  8
0
100
AcDbDimension
 62
7
  6
CONTINUOUS
  2
*D1
 10
70.1205584505
 20
33.8831453642
 11
32.1848441648
 21
34.6331453642
 70
160
 71
2
 42
67.3
  3
DIMSTYLE_1
100
AcDbAlignedDimension
 13
2.8205584505
 23
-21.0166257837
 14
70.1205584505
 24
-21.0166257837
100
AcDbRotatedDimension
  0
DIMENSION
  5
242
100
AcDbEntity
  8
0
100
AcDbDimension
 62
7
  6
CONTINUOUS
  2
*D2
 10
80.1205584505
 20
23.8831453642
 11
79.3705584505
 21
-1.9739974929
 70
160
 71
2
 42
47.0
  3
DIMSTYLE_1
100
AcDbAlignedDimension
 13
10.7957009724
 23
-23.1168546358
 14
10.7957009724
 24
23.8831453642
 50
90.0
100
AcDbRotatedDimension
  0
DIMENSION
  5
243
100
AcDbEntity
  8
0
100
AcDbDimension
 62
7
  6
CONTINUOUS
  2
*D3
 10
-15.2281706108
 20
41.8831453642
 11
-34.4781706108
 21
42.6331453642
 70
160
 71
2
 42
34.0
  3
DIMSTYLE_1
100
AcDbAlignedDimension
 13
-49.2281706108
 23
0.8831453642
 14
-15.2281706108
 24
0.8831453642
100
AcDbRotatedDimension
  0
LWPOLYLINE
  5
244
100
AcDbEntity
  8
SUPERFICI
100
AcDbPolyline
 62
253
  6
CONTINUOUS
 90
13
 70
0
 10
2.9618364862
 20
-21.0924470056
 10
2.9661675219
 20
-21.157579367
 10
2.9789676816
 20
-21.2215994185
 10
3.0000185041
 20
-21.2834130741
 10
3.0289605308
 20
-21.3419639185
 10
3.0652994002
 20
-21.3962511843
 10
3.1084142541
 20
-21.4453468801
 10
3.157568458
 20
-21.4884117976
 10
3.2119220763
 20
-21.5247097126
 10
3.2705461158
 20
-21.5536199764
 10
3.3324386347
 20
-21.5746482997
 10
3.3965419079
 20
-21.5874351398
 10
3.4617603339
 20
-21.5917617728
  0
LWPOLYLINE
  5
245
100
AcDbEntity
  8
SUPERFICI
100
AcDbPolyline
 62
253
  6
CONTINUOUS
 90
7
 70
0
 10
2.9666060225
 20
21.7598418022
 10
2.9658940896
 20
21.7872238533
 10
2.9651317391
 20
21.8107469727
 10
2.964342455
 20
21.829728215
 10
2.9635340656
 20
21.8439399318
 10
2.9626987426
 20
21.8536097715
 10
2.9618364862
 20
21.858737734
  0
LWPOLYLINE
  5
246
100
AcDbEntity
  8
SUPERFICI
100
AcDbPolyline
 62
253
  6
CONTINUOUS
 90
5
 70
0
 10
3.4650657856
 20
22.2615478026
 10
3.4642770393
 20
22.2995833542
 10
3.4634668236
 20
22.3285189056
 10
3.4626279218
 20
22.3480723895
 10
3.4617603338
 20
22.3580525014
  0
LINE
  5
247
100
AcDbEntity
  8
SUPERFICI
100
AcDbLine
 62
253
  6
CONTINUOUS
 10
2.967874573
 20
21.6932875018
 11
2.9666060225
 21
21.7598418022
  0
LINE
  5
248
100
AcDbEntity
  8
SUPERFICI
100
AcDbLine
 62
253
  6
CONTINUOUS
 10
3.4665355695
 20
22.159741326
 11
3.4650657856
 21
22.2615478026
  0
LINE
  5
249
100
AcDbEntity
  8
SUPERFICI
100
AcDbLine
 62
253
  6
CONTINUOUS
 10
2.968887374
 20
21.6142128746
 11
2.967874573
 21
21.6932875018
  0
LINE
  5
24A
100
AcDbEntity
  8
SUPERFICI
100
AcDbLine
 62
253
  6
CONTINUOUS
 10
3.4683410713
 20
21.9506766712
 11
3.4665355695
 21
22.159741326
  0
LINE
  5
24B
100
AcDbEntity
  8
SUPERFICI
100
AcDbLine
 62
253
  6
CONTINUOUS
 10
2.9698562367
 20
21.4783221898
 11
2.968887374
 21
21.6142128746
  0
LINE
  5
24C
100
AcDbEntity
  8
SUPERFICI
100
AcDbLine
 62
253
  6
CONTINUOUS
 10
3.4699411126
 20
21.4994582378
 11
3.4683410713
 21
21.9506766712
  0
LINE
  5
24D
100
AcDbEntity
  8
SUPERFICI
100
AcDbLine
 62
7
  6
CONTINUOUS
 10
2.8205584505
 20
-21.5166257837
 11
2.8205584505
 21
22.2829165121
  0
LWPOLYLINE
  5
24E
100
AcDbEntity
  8
SUPERFICI
100
AcDbPolyline
 62
253
  6
CONTINUOUS
 90
9
 70
0
 10
2.9731441516
 20
-15.9493317512
 10
2.9754276106
 20
-11.2838910363
 10
2.9769499173
 20
-6.6178284076
 10
2.9777110724
 20
-1.9507302996
 10
2.9777110753
 20
2.7169897221
 10
2.9769499238
 20
7.3840909607
 10
2.9754276171
 20
12.0501598505
 10
2.973144156
 20
16.7156099573
 10
2.9698562367
 20
21.4783221898
  0
LWPOLYLINE
  5
24F
100
AcDbEntity
  8
SUPERFICI
100
AcDbPolyline
 62
253
  6
CONTINUOUS
 90
9
 70
0
 10
3.4730680045
 20
-15.9663356888
 10
3.4753514668
 20
-11.2960750474
 10
3.476873775
 20
-6.6247947213
 10
3.477634929
 20
-1.9529026275
 10
3.4776349288
 20
2.7191933618
 10
3.4768737746
 20
7.391085455
 10
3.4753514665
 20
12.0623657799
 10
3.4730680042
 20
16.7326264196
 10
3.4699411126
 20
21.4994582378
  0
LINE
  5
250
100
AcDbEntity
  8
SUPERFICI
100
AcDbLine
 62
253
  6
CONTINUOUS
 10
2.9698562367
 20
-20.7120314615
 11
2.9731441516
 21
-15.9493317512
  0
LINE
  5
251
100
AcDbEntity
  8
SUPERFICI
100
AcDbLine
 62
253
  6
CONTINUOUS
 10
3.4688117567
 20
-21.1022872729
 11
3.4730680045
 21
-15.9663356888
  0
LINE
  5
252
100
AcDbEntity
  8
SUPERFICI
100
AcDbLine
 62
253
  6
CONTINUOUS
 10
3.4671934701
 20
-21.3306707789
 11
3.4688117567
 21
-21.1022872729
  0
LINE
  5
253
100
AcDbEntity
  8
SUPERFICI
100
AcDbLine
 62
253
  6
CONTINUOUS
 10
2.968887374
 20
-20.8479221462
 11
2.9698562367
 21
-20.7120314615
  0
LINE
  5
254
100
AcDbEntity
  8
SUPERFICI
100
AcDbLine
 62
253
  6
CONTINUOUS
 10
2.967874573
 20
-20.9269967733
 11
2.968887374
 21
-20.8479221462
  0
LWPOLYLINE
  5
255
100
AcDbEntity
  8
SUPERFICI
100
AcDbPolyline
 62
253
  6
CONTINUOUS
 90
13
 70
0
 10
2.9618364862
 20
21.858737734
 10
2.9661680057
 20
21.9238737356
 10
2.9789694026
 20
21.9878965359
 10
3.0000218958
 20
22.049711959
 10
3.0289656893
 20
22.1082635538
 10
3.065306122
 20
22.1625506493
 10
3.1084221208
 20
22.2116454568
 10
3.1575768155
 20
22.2547089257
 10
3.2119301323
 20
22.2910050836
 10
3.2705531505
 20
22.3199136141
 10
3.3324439785
 20
22.3409404584
 10
3.3965448765
 20
22.3537262591
 10
3.4617603338
 20
22.3580525014
  0
LINE
  5
256
100
AcDbEntity
  8
0
100
AcDbLine
 62
7
  6
CONTINUOUS
 10
10.6705584505
 20
22.7831453642
 11
10.7371912481
 21
22.8831453642
  0
LWPOLYLINE
  5
257
100
AcDbEntity
  8
SUPERFICI
100
AcDbPolyline
 62
7
  6
CONTINUOUS
 90
10
 70
0
 10
9.7430157808
 20
23.7165050217
 10
9.7982333753
 20
23.7506639514
 10
9.8553385518
 20
23.7810142062
 10
9.9143313102
 20
23.8075557862
 10
9.9756644694
 20
23.8304249035
 10
10.0388852105
 20
23.8494853461
 10
10.102635077
 20
23.864328477
 10
10.16646125
 20
23.8748180843
 10
10.2308165485
 20
23.88109038
 10
10.2957009724
 20
23.8831453642
  0
LWPOLYLINE
  5
258
100
AcDbEntity
  8
SUPERFICI
100
AcDbPolyline
 62
253
  6
CONTINUOUS
 90
12
 70
0
 10
2.9700995407
 20
21.3804412809
 10
2.9754095404
 20
21.3831546758
 10
2.9889955701
 20
21.3858226628
 10
3.0106303041
 20
21.3884006004
 10
3.0399517431
 20
21.3908453541
 10
3.0764692716
 20
21.3931160173
 10
3.1195718668
 20
21.3951745965
 10
3.1685383226
 20
21.3969866472
 10
3.2225493166
 20
21.398521849
 10
3.28070112
 20
21.3997545133
 10
3.3420207184
 20
21.4006640142
 10
3.4054820929
 20
21.4012351336
  0
LWPOLYLINE
  5
259
100
AcDbEntity
  8
SUPERFICI
100
AcDbPolyline
 62
253
  6
CONTINUOUS
 90
13
 70
0
 10
2.9700995404
 20
-20.6141505525
 10
2.9754075896
 20
-20.6168641211
 10
2.988992055
 20
-20.6195322837
 10
3.0106256277
 20
-20.6221103939
 10
3.0399463124
 20
-20.6245553121
 10
3.0764634857
 20
-20.6268261274
 10
3.1195661049
 20
-20.6288848422
 10
3.1685329331
 20
-20.6306970082
 10
3.2225446072
 20
-20.6322323021
 10
3.2806973489
 20
-20.6334650328
 10
3.3420180872
 20
-20.6343745726
 10
3.4054807409
 20
-20.6349457026
 10
3.470023388
 20
-20.6351688659
  0
LWPOLYLINE
  5
25A
100
AcDbEntity
  8
SUPERFICI
100
AcDbPolyline
 62
7
  6
CONTINUOUS
 90
10
 70
0
 10
9.7430157808
 20
-22.9502142933
 10
9.7982333753
 20
-22.9843732229
 10
9.8553385518
 20
-23.0147234778
 10
9.9143313102
 20
-23.0412650577
 10
9.9756644694
 20
-23.0641341751
 10
10.0388852105
 20
-23.0831946176
 10
10.102635077
 20
-23.0980377486
 10
10.16646125
 20
-23.1085273559
 10
10.2308165485
 20
-23.1147996516
 10
10.2957009724
 20
-23.1168546358
  0
LINE
  5
25B
100
AcDbEntity
  8
0
100
AcDbLine
 62
7
  6
CONTINUOUS
 10
10.7371912481
 20
-22.1168546358
 11
10.6705584505
 21
-22.0168546358
  0
LWPOLYLINE
  5
25C
100
AcDbEntity
  8
SUPERFICI
100
AcDbPolyline
 62
253
  6
CONTINUOUS
 90
7
 70
0
 10
3.4617603338
 20
-21.591761773
 10
3.4626279218
 20
-21.581781661
 10
3.4634668236
 20
-21.5622281772
 10
3.4642770393
 20
-21.5332926258
 10
3.4650657856
 20
-21.4952570742
 10
3.4658258458
 20
-21.4484915849
 10
3.4671934701
 20
-21.3306707789
  0
LINE
  5
25D
100
AcDbEntity
  8
SUPERFICI
100
AcDbLine
 62
7
  6
CONTINUOUS
 10
10.6072140869
 20
22.8831453642
 11
10.5856861735
 21
22.7831453642
  0
LINE
  5
25E
100
AcDbEntity
  8
SUPERFICI
100
AcDbLine
 62
7
  6
CONTINUOUS
 10
10.6072140869
 20
-22.1168546358
 11
10.5856861735
 21
-22.0168546358
  0
LINE
  5
25F
100
AcDbEntity
  8
RACCORDO
100
AcDbLine
 62
253
  6
CONTINUOUS
 10
8.9256143931
 20
-7.3664484495
 11
8.9249954018
 21
-4.5742660339
  0
LINE
  5
260
100
AcDbEntity
  8
RACCORDO
100
AcDbLine
 62
253
  6
CONTINUOUS
 10
9.2254891351
 20
-7.0619239512
 11
9.2250032056
 21
-4.8712993909
  0
LINE
  5
261
100
AcDbEntity
  8
DRAFT
100
AcDbLine
 62
7
  6
CONTINUOUS
 10
9.2455584505
 20
-4.8918546358
 11
9.2455584505
 21
-7.0418546358
  0
LWPOLYLINE
  5
262
100
AcDbEntity
  8
SUPERFICI
100
AcDbPolyline
 62
253
  6
CONTINUOUS
 90
8
 70
0
 10
2.9618364862
 20
-21.0924470056
 10
2.9626987426
 20
-21.0873190429
 10
2.9635340656
 20
-21.0776492031
 10
2.964342455
 20
-21.0634374863
 10
2.9651317391
 20
-21.0444562441
 10
2.9658940896
 20
-21.0209331249
 10
2.9666060225
 20
-20.9935510738
 10
2.967874573
 20
-20.9269967733
  0
LWPOLYLINE
  5
263
100
AcDbEntity
  8
0
100
AcDbPolyline
 62
7
  6
CONTINUOUS
 90
10
 70
0
 43
0.3500000087
 10
33.2562718185
 20
37.6331436127
 10
32.6134164841
 20
36.9902882782
 10
32.1848434189
 20
36.1331464111
 10
32.1848434189
 20
35.0617180115
 10
32.6134164841
 20
34.6331449463
 10
33.2562718185
 20
34.6331449463
 10
33.6848448837
 20
35.0617180115
 10
33.6848448837
 20
35.9188598785
 10
33.2562718185
 20
36.3474329437
 10
32.3277003967
 20
36.3474329437
  0
LWPOLYLINE
  5
264
100
AcDbEntity
  8
0
100
AcDbPolyline
 62
7
  6
CONTINUOUS
 90
5
 70
0
 43
0.3500000087
 10
39.4705578156
 20
36.3474329437
 10
39.8276991943
 20
36.561715213
 10
39.8276991943
 20
37.2045748108
 10
39.4705578156
 20
37.6331436127
 10
38.6134159485
 20
37.6331436127
  0
LWPOLYLINE
  5
265
100
AcDbEntity
  8
RACCORDO
100
AcDbPolyline
 62
253
  6
CONTINUOUS
 90
36
 70
0
 10
11.3554147203
 20
-10.6932921907
 10
11.279038249
 20
-10.5801455595
 10
11.2106500225
 20
-10.4671808011
 10
11.1499539354
 20
-10.3551922669
 10
11.0964170241
 20
-10.2445441335
 10
11.049561493
 20
-10.135618288
 10
11.0090278419
 20
-10.0290515789
 10
10.9742866852
 20
-9.9250285462
 10
10.9446966175
 20
-9.8231435759
 10
10.9199341669
 20
-9.7238138599
 10
10.8995983597
 20
-9.6271363255
 10
10.8831486646
 20
-9.5321191157
 10
10.8703622737
 20
-9.4389590251
 10
10.861005195
 20
-9.3477671536
 10
10.8547815831
 20
-9.2573556716
 10
10.8515919118
 20
-9.1677184548
 10
10.8513459857
 20
-9.0790701853
 10
10.8539867367
 20
-8.9905300327
 10
10.8595222914
 20
-8.9019671234
 10
10.8679369348
 20
-8.8137006821
 10
10.8792581571
 20
-8.7255266344
 10
10.8935316113
 20
-8.6373446279
 10
10.9107420567
 20
-8.5494528491
 10
10.93082081
 20
-8.4622436602
 10
10.9537575448
 20
-8.375745661
 10
10.9795067478
 20
-8.290116145
 10
11.007865923
 20
-8.2059187823
 10
11.0387461334
 20
-8.1232396518
 10
11.0720671959
 20
-8.0421320118
 10
11.1075495688
 20
-7.9630728495
 10
11.1450361148
 20
-7.8861640872
 10
11.1844297587
 20
-7.8113756698
 10
11.2254815031
 20
-7.7389496826
 10
11.2680066187
 20
-7.6689664144
 10
11.3119076515
 20
-7.6013567157
 10
11.3570506821
 20
-7.5361181866
  0
LWPOLYLINE
  5
266
100
AcDbEntity
  8
RACCORDO
100
AcDbPolyline
 62
253
  6
CONTINUOUS
 90
36
 70
0
 10
11.1111682589
 20
-10.8744606504
 10
11.0265928233
 20
-10.7482857833
 10
10.9504156887
 20
-10.6229476259
 10
10.8828737776
 20
-10.4988050746
 10
10.8237301674
 20
-10.3754992799
 10
10.7715240589
 20
-10.2545486086
 10
10.7262992043
 20
-10.1363614753
 10
10.6880118514
 20
-10.0205295552
 10
10.655069944
 20
-9.9073461316
 10
10.6273597603
 20
-9.7971223002
 10
10.6049950223
 20
-9.6895470523
 10
10.5867248392
 20
-9.5839805088
 10
10.5723630576
 20
-9.4805518522
 10
10.562095831
 20
-9.3791319604
 10
10.5552307286
 20
-9.2786934739
 10
10.551599013
 20
-9.1791456135
 10
10.5513694217
 20
-9.0805791885
 10
10.5543557367
 20
-8.9822392018
 10
10.5604867452
 20
-8.8838783081
 10
10.5698336601
 20
-8.7857438636
 10
10.582423902
 20
-8.6878229147
 10
10.5982999022
 20
-8.5898958815
 10
10.6174192294
 20
-8.4921823545
 10
10.6396820096
 20
-8.3953281429
 10
10.6651718676
 20
-8.2992804003
 10
10.6938051786
 20
-8.2040919974
 10
10.7252311948
 20
-8.1105673333
 10
10.7595134833
 20
-8.0187588867
 10
10.7965884769
 20
-7.9286142171
 10
10.8359147259
 20
-7.8407803579
 10
10.8775060128
 20
-7.7553674875
 10
10.9213485551
 20
-7.6722654729
 10
10.9668595555
 20
-7.5917908879
 10
11.0138447484
 20
-7.5140492728
 10
11.0624983994
 20
-7.4389351317
 10
11.1128205086
 20
-7.3664484849
  0
LINE
  5
267
100
AcDbEntity
  8
DRAFT
100
AcDbLine
 62
7
  6
CONTINUOUS
 10
10.0705584505
 20
7.8081453642
 11
10.0705584505
 21
5.6581453642
  0
LINE
  5
268
100
AcDbEntity
  8
SUPERFICI
100
AcDbLine
 62
7
  6
CONTINUOUS
 10
10.5007381908
 20
-22.0168546358
 11
10.5007381908
 21
-22.1168546358
  0
LINE
  5
269
100
AcDbEntity
  8
SUPERFICI
100
AcDbLine
 62
7
  6
CONTINUOUS
 10
10.5007381908
 20
22.7831453642
 11
10.5007381908
 21
22.8831453642
  0
LINE
  5
26A
100
AcDbEntity
  8
RACCORDO
100
AcDbLine
 62
253
  6
CONTINUOUS
 10
11.1129497045
 20
8.1327391779
 11
11.1129497045
 21
7.8281351131
  0
LINE
  5
26B
100
AcDbEntity
  8
RACCORDO
100
AcDbLine
 62
253
  6
CONTINUOUS
 10
11.1129497045
 20
-7.0618443847
 11
11.1129497045
 21
-7.3664484495
  0
LINE
  5
26C
100
AcDbEntity
  8
RACCORDO
100
AcDbLine
 62
253
  6
CONTINUOUS
 10
9.7499954018
 20
5.3405567623
 11
9.7506143931
 21
8.1327391779
  0
LINE
  5
26D
100
AcDbEntity
  8
RACCORDO
100
AcDbLine
 62
253
  6
CONTINUOUS
 10
10.0500032056
 20
5.6375901193
 11
10.0504891351
 21
7.8282146796
  0
LINE
  5
26E
100
AcDbEntity
  8
SUPERFICI
100
AcDbLine
 62
253
  6
CONTINUOUS
 10
2.8205584505
 20
-21.5166257837
 11
2.9618364862
 21
-21.0924470056
  0
LINE
  5
26F
100
AcDbEntity
  8
SUPERFICI
100
AcDbLine
 62
253
  6
CONTINUOUS
 10
3.3201778508
 20
-22.0168546358
 11
3.4617603338
 21
-21.591761773
  0
LWPOLYLINE
  5
270
100
AcDbEntity
  8
RACCORDO
100
AcDbPolyline
 62
253
  6
CONTINUOUS
 90
16
 70
0
 10
11.3570503627
 20
8.302409403
 10
11.3558411772
 20
8.3002401745
 10
11.3511014575
 20
8.2977236662
 10
11.3435349631
 20
8.2941724241
 10
11.3340660994
 20
8.2881922704
 10
11.32257345
 20
8.279695363
 10
11.3081964529
 20
8.270216643
 10
11.2917515073
 20
8.2594925316
 10
11.2740862608
 20
8.246624624
 10
11.2543793464
 20
8.2328092865
 10
11.2329624155
 20
8.2181373837
 10
11.210693185
 20
8.2021107933
 10
11.1871770259
 20
8.1854906771
 10
11.1625656736
 20
8.1685505722
 10
11.1376654991
 20
8.1509672283
 10
11.1129497045
 20
8.1327391779
  0
LWPOLYLINE
  5
271
100
AcDbEntity
  8
SUPERFICI
100
AcDbPolyline
 62
7
  6
CONTINUOUS
 90
10
 70
0
 10
62.6454159287
 20
-23.1168546358
 10
62.7103003526
 20
-23.1147996516
 10
62.774655651
 20
-23.1085273559
 10
62.8384818241
 20
-23.0980377486
 10
62.9022316906
 20
-23.0831946176
 10
62.9654524317
 20
-23.0641341751
 10
63.0267855908
 20
-23.0412650577
 10
63.0857783493
 20
-23.0147234778
 10
63.1428835257
 20
-22.9843732229
 10
63.1981011203
 20
-22.9502142933
  0
LINE
  5
272
100
AcDbEntity
  8
SUPERFICI
100
AcDbLine
 62
253
  6
CONTINUOUS
 10
2.9618364862
 20
21.858737734
 11
2.8205584505
 21
22.2829165121
  0
LINE
  5
273
100
AcDbEntity
  8
SUPERFICI
100
AcDbLine
 62
253
  6
CONTINUOUS
 10
3.4617603338
 20
22.3580525014
 11
3.3201778508
 21
22.7831453642
  0
LINE
  5
274
100
AcDbEntity
  8
SUPERFICI
100
AcDbLine
 62
7
  6
CONTINUOUS
 10
17.4072140869
 20
22.8831453642
 11
17.3856861735
 21
22.7831453642
  0
LWPOLYLINE
  5
275
100
AcDbEntity
  8
RACCORDO
100
AcDbPolyline
 62
253
  6
CONTINUOUS
 90
22
 70
0
 10
15.7840665383
 20
8.302409403
 10
15.7672667602
 20
8.2760478764
 10
15.7533027474
 20
8.2480781676
 10
15.7423262771
 20
8.2188042833
 10
15.7344566539
 20
8.1885444058
 10
15.7297794141
 20
8.157627434
 10
15.7283453952
 20
8.1263894093
 10
15.7301701838
 20
8.0951698623
 10
15.735233946
 20
8.0643081228
 10
15.7434816431
 20
8.0341396316
 10
15.7548236295
 20
8.0049922947
 10
15.7691366276
 20
7.9771829186
 10
15.7862650673
 20
7.9510137676
 10
15.8060227769
 20
7.9267692781
 10
15.8281950072
 20
7.904712967
 10
15.8525407647
 20
7.8850845677
 10
15.8787954319
 20
7.868097424
 10
15.9066736429
 20
7.8539361718
 10
15.9358723853
 20
7.8427547319
 10
15.9660742936
 20
7.8346746368
 10
15.9969510989
 20
7.8297837105
 10
16.0281671965
 20
7.8281351131
  0
LINE
  5
276
100
AcDbEntity
  8
RACCORDO
100
AcDbLine
 62
7
  6
CONTINUOUS
 10
10.0499497103
 20
5.637536624
 11
10.0705584505
 21
5.6581453642
  0
LINE
  5
277
100
AcDbEntity
  8
RACCORDO
100
AcDbLine
 62
7
  6
CONTINUOUS
 10
9.8241134426
 20
5.4146089074
 11
9.7684836548
 21
5.3589067459
  0
LINE
  5
278
100
AcDbEntity
  8
RACCORDO
100
AcDbLine
 62
7
  6
CONTINUOUS
 10
9.7684836548
 20
5.3589067459
 11
9.7499954018
 21
5.3405567623
  0
LINE
  5
279
100
AcDbEntity
  8
RACCORDO
100
AcDbLine
 62
7
  6
CONTINUOUS
 10
9.9315764201
 20
5.5215547342
 11
9.8241134426
 21
5.4146089074
  0
LINE
  5
27A
100
AcDbEntity
  8
RACCORDO
100
AcDbLine
 62
7
  6
CONTINUOUS
 10
9.9480430822
 20
5.5377911637
 11
9.9315764201
 21
5.5215547342
  0
LWPOLYLINE
  5
27B
100
AcDbEntity
  8
RACCORDO
100
AcDbPolyline
 62
7
  6
CONTINUOUS
 90
3
 70
0
 10
9.9927890137
 20
5.5820036016
 10
9.978649379
 20
5.5681760644
 10
9.9480430822
 20
5.5377911637
  0
LWPOLYLINE
  5
27C
100
AcDbEntity
  8
SUPERFICI
100
AcDbPolyline
 62
253
  6
CONTINUOUS
 90
13
 70
0
 10
69.4793565672
 20
-21.591761773
 10
69.5445744721
 20
-21.5874352086
 10
69.6086773281
 20
-21.5746485511
 10
69.6705695495
 20
-21.5536204877
 10
69.7291934087
 20
-21.524710529
 10
69.783546973
 20
-21.4884129239
 10
69.8327012625
 20
-21.445348262
 10
69.8758163174
 20
-21.3962527233
 10
69.9121554615
 20
-21.3419654885
 10
69.9410977992
 20
-21.2834145124
 10
69.9621489161
 20
-21.2216005455
 10
69.9749492939
 20
-21.1575800092
 10
69.9792804148
 20
-21.0924470056
  0
LWPOLYLINE
  5
27D
100
AcDbEntity
  8
SUPERFICI
100
AcDbPolyline
 62
7
  6
CONTINUOUS
 90
10
 70
0
 10
17.6454159287
 20
-23.1168546358
 10
17.7103003526
 20
-23.1147996516
 10
17.774655651
 20
-23.1085273559
 10
17.8384818241
 20
-23.0980377486
 10
17.9022316906
 20
-23.0831946176
 10
17.9654524317
 20
-23.0641341751
 10
18.0267855908
 20
-23.0412650577
 10
18.0857783493
 20
-23.0147234778
 10
18.1428835257
 20
-22.9843732229
 10
18.1981011203
 20
-22.9502142933
  0
LINE
  5
27E
100
AcDbEntity
  8
SUPERFICI
100
AcDbLine
 62
7
  6
CONTINUOUS
 10
62.6454159287
 20
-23.1168546358
 11
55.2957009724
 21
-23.1168546358
  0
LINE
  5
27F
100
AcDbEntity
  8
SUPERFICI
100
AcDbLine
 62
7
  6
CONTINUOUS
 10
17.6454159287
 20
-23.1168546358
 11
10.2957009724
 21
-23.1168546358
  0
LINE
  5
280
100
AcDbEntity
  8
SUPERFICI
100
AcDbLine
 62
7
  6
CONTINUOUS
 10
10.5007381908
 20
-22.1168546358
 11
17.4403787102
 21
-22.1168546358
  0
LINE
  5
281
100
AcDbEntity
  8
SUPERFICI
100
AcDbLine
 62
7
  6
CONTINUOUS
 10
55.5007381908
 20
-22.1168546358
 11
62.4403787102
 21
-22.1168546358
  0
LINE
  5
282
100
AcDbEntity
  8
SUPERFICI
100
AcDbLine
 62
7
  6
CONTINUOUS
 10
69.6209390503
 20
-22.0168546358
 11
62.2705584505
 21
-22.0168546358
  0
LINE
  5
283
100
AcDbEntity
  8
SUPERFICI
100
AcDbLine
 62
7
  6
CONTINUOUS
 10
55.6705584505
 20
-22.0168546358
 11
17.2705584505
 21
-22.0168546358
  0
LINE
  5
284
100
AcDbEntity
  8
SUPERFICI
100
AcDbLine
 62
7
  6
CONTINUOUS
 10
10.6705584505
 20
-22.0168546358
 11
3.3201778508
 21
-22.0168546358
  0
LINE
  5
285
100
AcDbEntity
  8
SUPERFICI
100
AcDbLine
 62
253
  6
CONTINUOUS
 10
69.4793565672
 20
-21.591761773
 11
3.4617603338
 21
-21.591761773
  0
LWPOLYLINE
  5
286
100
AcDbEntity
  8
RACCORDO
100
AcDbPolyline
 62
7
  6
CONTINUOUS
 90
3
 70
0
 10
9.1926919133
 20
-4.8403731037
 10
9.1680267763
 20
-4.8159522398
 10
9.1538423394
 20
-4.8020792907
  0
LINE
  5
287
100
AcDbEntity
  8
RACCORDO
100
AcDbLine
 62
7
  6
CONTINUOUS
 10
9.1538423394
 20
-4.8020792907
 11
9.0894780984
 21
-4.7382659925
  0
LWPOLYLINE
  5
288
100
AcDbEntity
  8
RACCORDO
100
AcDbPolyline
 62
7
  6
CONTINUOUS
 90
4
 70
0
 10
9.0894780984
 20
-4.7382659925
 10
8.9801096007
 20
-4.629333555
 10
8.9616803703
 20
-4.6108220837
 10
8.9249954018
 20
-4.5742660339
  0
LINE
  5
289
100
AcDbEntity
  8
RACCORDO
100
AcDbLine
 62
7
  6
CONTINUOUS
 10
9.2250032056
 20
-4.8712993909
 11
9.2455584505
 21
-4.8918546358
  0
LWPOLYLINE
  5
28A
100
AcDbEntity
  8
RACCORDO
100
AcDbPolyline
 62
253
  6
CONTINUOUS
 90
65
 70
0
 10
15.784066164
 20
-7.5361181607
 10
15.8336934765
 20
-7.6080650843
 10
15.8812668833
 20
-7.6820271747
 10
15.9266926838
 20
-7.7579552944
 10
15.969976693
 20
-7.8359816088
 10
16.0109150263
 20
-7.9158690162
 10
16.0491560143
 20
-7.9969794892
 10
16.0846049893
 20
-8.0790721738
 10
16.1173030008
 20
-8.1621990261
 10
16.1471758259
 20
-8.2461263093
 10
16.1741384099
 20
-8.3305063484
 10
16.1982760006
 20
-8.4154866101
 10
16.2197290211
 20
-8.5015883367
 10
16.2383826282
 20
-8.5884522312
 10
16.254251949
 20
-8.6762663158
 10
16.2674725536
 20
-8.7664109166
 10
16.2778319272
 20
-8.8586910129
 10
16.285147012
 20
-8.9531401559
 10
16.2892581593
 20
-9.0515030209
 10
16.2897546728
 20
-9.1538148925
 10
16.2862076177
 20
-9.2597849319
 10
16.2780571488
 20
-9.3706322195
 10
16.2646459533
 20
-9.4864545074
 10
16.2453628459
 20
-9.606629831
 10
16.2194776315
 20
-9.7311998984
 10
16.1861608318
 20
-9.860183667
 10
16.1447923438
 20
-9.9926071937
 10
16.0950476691
 20
-10.1269430833
 10
16.0362385376
 20
-10.2629085961
 10
15.9679832824
 20
-10.3994530243
 10
15.8909258341
 20
-10.5339954853
 10
15.8050062812
 20
-10.665830604
 10
15.7101275365
 20
-10.7943588868
 10
15.607529588
 20
-10.9174735659
 10
15.4977589575
 20
-11.0344295495
 10
15.3809053026
 20
-11.1450473897
 10
15.2579324345
 20
-11.2483877538
 10
15.1295443349
 20
-11.343957603
 10
14.9959930576
 20
-11.4316629663
 10
14.8576734472
 20
-11.5112926015
 10
14.7151030172
 20
-11.5825863553
 10
14.5687602066
 20
-11.6453414107
 10
14.4189756531
 20
-11.6994308222
 10
14.2661870651
 20
-11.7446853873
 10
14.1109892581
 20
-11.7809178373
 10
13.9539521804
 20
-11.8079949429
 10
13.7956520684
 20
-11.8258236333
 10
13.6365958729
 20
-11.8343528638
 10
13.4772566609
 20
-11.8335537868
 10
13.3182352831
 20
-11.8234242991
 10
13.1600236864
 20
-11.8039904527
 10
13.0029360537
 20
-11.7752597643
 10
12.8473518208
 20
-11.7372334237
 10
12.6939981926
 20
-11.6900197489
 10
12.5436993957
 20
-11.6338454163
 10
12.3966898002
 20
-11.5687687513
 10
12.2537852473
 20
-11.4951205714
 10
12.1165462986
 20
-11.4138299753
 10
11.9852507985
 20
-11.3253089545
 10
11.8603084857
 20
-11.2300882
 10
11.7431568601
 20
-11.1297041758
 10
11.6339641994
 20
-11.0249478964
 10
11.5326299635
 20
-10.9163908548
 10
11.4398147069
 20
-10.8055467602
 10
11.3554147203
 20
-10.6932921907
  0
LWPOLYLINE
  5
28B
100
AcDbEntity
  8
RACCORDO
100
AcDbPolyline
 62
7
  6
CONTINUOUS
 90
22
 70
0
 10
15.7472037179
 20
-7.5192891817
 10
15.7298365386
 20
-7.4926131838
 10
15.7155379463
 20
-7.4649390162
 10
15.7043079411
 20
-7.4362666788
 10
15.6960817861
 20
-7.4063151803
 10
15.6909242182
 20
-7.3753655121
 10
15.6890294482
 20
-7.3442606485
 10
15.6904663959
 20
-7.3129413586
 10
15.6951661416
 20
-7.2814668733
 10
15.7031161368
 20
-7.25085786
 10
15.7145143463
 20
-7.2210459886
 10
15.7291628052
 20
-7.1920995892
 10
15.7464550701
 20
-7.1652443195
 10
15.7664806564
 20
-7.1406687169
 10
15.7891500488
 20
-7.118184244
 10
15.8135882571
 20
-7.0984509455
 10
15.8397479255
 20
-7.0815885133
 10
15.8676764099
 20
-7.0674772556
 10
15.8966407875
 20
-7.056418142
 10
15.9263967508
 20
-7.0485114958
 10
15.9571886074
 20
-7.0436569937
 10
15.9890163573
 20
-7.0418546358
  0
LINE
  5
28C
100
AcDbEntity
  8
SUPERFICI
100
AcDbLine
 62
7
  6
CONTINUOUS
 10
17.4072140869
 20
-22.1168546358
 11
17.3856861735
 21
-22.0168546358
  0
LINE
  5
28D
100
AcDbEntity
  8
RACCORDO
100
AcDbLine
 62
253
  6
CONTINUOUS
 10
17.0906277659
 20
7.8282146796
 11
17.0911136955
 21
5.6375901193
  0
LINE
  5
28E
100
AcDbEntity
  8
RACCORDO
100
AcDbLine
 62
253
  6
CONTINUOUS
 10
17.390502508
 20
8.1327391779
 11
17.3911214993
 21
5.3405567623
  0
LINE
  5
28F
100
AcDbEntity
  8
RACCORDO
100
AcDbLine
 62
253
  6
CONTINUOUS
 10
16.0281671965
 20
-7.3664484495
 11
16.0281671965
 21
-7.0618443847
  0
LINE
  5
290
100
AcDbEntity
  8
RACCORDO
100
AcDbLine
 62
253
  6
CONTINUOUS
 10
16.0281671965
 20
7.8281351131
 11
16.0281671965
 21
8.1327391779
  0
LINE
  5
291
100
AcDbEntity
  8
DRAFT
100
AcDbLine
 62
7
  6
CONTINUOUS
 10
17.0705584505
 20
5.6581453642
 11
17.0705584505
 21
7.8081453642
  0
LINE
  5
292
100
AcDbEntity
  8
SUPERFICI
100
AcDbLine
 62
7
  6
CONTINUOUS
 10
17.4403787102
 20
22.8831453642
 11
17.4403787102
 21
22.7831453642
  0
LINE
  5
293
100
AcDbEntity
  8
SUPERFICI
100
AcDbLine
 62
7
  6
CONTINUOUS
 10
17.4403787102
 20
-22.1168546358
 11
17.4403787102
 21
-22.0168546358
  0
LINE
  5
294
100
AcDbEntity
  8
SUPERFICI
100
AcDbLine
 62
7
  6
CONTINUOUS
 10
10.5339028142
 20
-22.1168546358
 11
10.5554307276
 21
-22.0168546358
  0
LWPOLYLINE
  5
295
100
AcDbEntity
  8
RACCORDO
100
AcDbPolyline
 62
7
  6
CONTINUOUS
 90
3
 70
0
 10
17.1463039458
 20
7.8866186428
 10
17.1604990933
 20
7.9009642625
 10
17.1913468715
 20
7.9324110341
  0
LINE
  5
296
100
AcDbEntity
  8
RACCORDO
100
AcDbLine
 62
7
  6
CONTINUOUS
 10
17.1913468715
 20
7.9324110341
 11
17.2977710864
 21
8.0397817614
  0
LINE
  5
297
100
AcDbEntity
  8
RACCORDO
100
AcDbLine
 62
7
  6
CONTINUOUS
 10
17.2977710864
 20
8.0397817614
 11
17.3721394696
 21
8.1144964502
  0
LINE
  5
298
100
AcDbEntity
  8
RACCORDO
100
AcDbLine
 62
7
  6
CONTINUOUS
 10
17.0905481994
 20
7.8281351131
 11
17.0705584505
 21
7.8081453642
  0
LINE
  5
299
100
AcDbEntity
  8
RACCORDO
100
AcDbLine
 62
7
  6
CONTINUOUS
 10
17.3721394696
 20
8.1144964502
 11
17.390502508
 21
8.1327391779
  0
LWPOLYLINE
  5
29A
100
AcDbEntity
  8
RACCORDO
100
AcDbPolyline
 62
7
  6
CONTINUOUS
 90
7
 70
0
 10
10.0499497103
 20
5.637536624
 10
10.0474256345
 20
5.635728841
 10
10.042960793
 20
5.6314617299
 10
10.0365551856
 20
5.6249836295
 10
10.0279735171
 20
5.6165544004
 10
10.0174510827
 20
5.6064246104
 10
9.9927890137
 20
5.5820036016
  0
LWPOLYLINE
  5
29B
100
AcDbEntity
  8
SUPERFICI
100
AcDbPolyline
 62
253
  6
CONTINUOUS
 90
12
 70
0
 10
69.535636161
 20
-20.6349457005
 10
69.5990988154
 20
-20.6343745689
 10
69.6604195543
 20
-20.6334650282
 10
69.7185722965
 20
-20.6322322977
 10
69.7725839709
 20
-20.6306970048
 10
69.8215507991
 20
-20.6288848398
 10
69.8646534183
 20
-20.6268261257
 10
69.9011705912
 20
-20.624555311
 10
69.9304912756
 20
-20.6221103933
 10
69.9521248476
 20
-20.6195322835
 10
69.9657093124
 20
-20.6168641211
 10
69.9710173606
 20
-20.6141505525
  0
LINE
  5
29C
100
AcDbEntity
  8
SUPERFICI
100
AcDbLine
 62
253
  6
CONTINUOUS
 10
69.535636161
 20
-20.6349457005
 11
3.470023388
 21
-20.6351688667
  0
LWPOLYLINE
  5
29D
100
AcDbEntity
  8
RACCORDO
100
AcDbPolyline
 62
7
  6
CONTINUOUS
 90
6
 70
0
 10
9.2249497103
 20
-4.8712458956
 10
9.2224815883
 20
-4.8694636763
 10
9.2180674509
 20
-4.8652516432
 10
9.211707298
 20
-4.8588399784
 10
9.2031726134
 20
-4.8504680701
 10
9.1926919133
 20
-4.8403731037
  0
LWPOLYLINE
  5
29E
100
AcDbEntity
  8
RACCORDO
100
AcDbPolyline
 62
253
  6
CONTINUOUS
 90
16
 70
0
 10
11.1129497045
 20
-7.3664484495
 10
11.1376656856
 20
-7.3846762196
 10
11.1625660232
 20
-7.4022593169
 10
11.1871775138
 20
-7.4191992134
 10
11.210693789
 20
-7.4358191591
 10
11.2329631101
 20
-7.4518456209
 10
11.2543800986
 20
-7.4665174428
 10
11.2740870451
 20
-7.4803327378
 10
11.2917522989
 20
-7.4932006432
 10
11.3081972149
 20
-7.5039248064
 10
11.32257414
 20
-7.5134036245
 10
11.3340667012
 20
-7.5219006594
 10
11.3435354693
 20
-7.5278809736
 10
11.3511018371
 20
-7.5314324172
 10
11.3558413842
 20
-7.5339491673
 10
11.3570503627
 20
-7.5361186745
  0
LWPOLYLINE
  5
29F
100
AcDbEntity
  8
RACCORDO
100
AcDbPolyline
 62
253
  6
CONTINUOUS
 90
65
 70
0
 10
16.0280770231
 20
-7.3664484495
 10
16.0833899921
 20
-7.4464735163
 10
16.1362058056
 20
-7.5286199398
 10
16.1865244635
 20
-7.6128877012
 10
16.2345185492
 20
-7.6995671103
 10
16.2800154792
 20
-7.788367816
 10
16.3224975037
 20
-7.8784188145
 10
16.3618341254
 20
-7.9695860995
 10
16.3981558417
 20
-8.0620036498
 10
16.4313363945
 20
-8.1552024506
 10
16.4613068095
 20
-8.2489005781
 10
16.4881360611
 20
-8.3433799364
 10
16.511904814
 20
-8.4390172531
 10
16.5326874088
 20
-8.5354890519
 10
16.550409505
 20
-8.6331187806
 10
16.5649287455
 20
-8.7332535349
 10
16.5764870398
 20
-8.835775944
 10
16.5848424785
 20
-8.9408033157
 10
16.5891269754
 20
-9.0500347272
 10
16.5896431817
 20
-9.1637328785
 10
16.5860884464
 20
-9.28163495
 10
16.57668673
 20
-9.4046517019
 10
16.5616049213
 20
-9.5333463424
 10
16.5406761315
 20
-9.6671554902
 10
16.5116236548
 20
-9.8053000141
 10
16.4742563256
 20
-9.9485026572
 10
16.4287653095
 20
-10.0960404964
 10
16.3734473968
 20
-10.2449659614
 10
16.3077177486
 20
-10.395729369
 10
16.2321612038
 20
-10.5478803165
 10
16.1468290703
 20
-10.6971202926
 10
16.0512026846
 20
-10.8432072408
 10
15.9458007103
 20
-10.9863833092
 10
15.8322304462
 20
-11.1230764472
 10
15.7103895659
 20
-11.2527321918
 10
15.5803803959
 20
-11.3759052322
 10
15.4441172146
 20
-11.4906873432
 10
15.3017347073
 20
-11.5967219788
 10
15.1530981888
 20
-11.6943659418
 10
14.9997178823
 20
-11.7827810641
 10
14.8415984702
 20
-11.8618863144
 10
14.6787352702
 20
-11.9317629456
 10
14.512624459
 20
-11.9918162179
 10
14.3431624957
 20
-12.0419891306
 10
14.1704529213
 20
-12.0823388442
 10
13.9963025357
 20
-12.1124418492
 10
13.8207358025
 20
-12.1321919838
 10
13.6437282581
 20
-12.1416954865
 10
13.4670133119
 20
-12.1408474276
 10
13.2906450133
 20
-12.1295822619
 10
13.1145693128
 20
-12.1079655158
 10
12.9403574713
 20
-12.0760888437
 10
12.7678340305
 20
-12.0337960002
 10
12.5971744487
 20
-11.9812431167
 10
12.4304763612
 20
-11.918990395
 10
12.2675490217
 20
-11.8466285527
 10
12.1085831764
 20
-11.7645666791
 10
11.9562486999
 20
-11.6745925401
 10
11.8107669692
 20
-11.5763124907
 10
11.6719166072
 20
-11.4701199635
 10
11.5417033576
 20
-11.3589833948
 10
11.420625395
 20
-11.2428302142
 10
11.3081845448
 20
-11.1217328448
 10
11.204892027
 20
-10.9988773082
 10
11.1111682589
 20
-10.8744606504
  0
LINE
  5
2A0
100
AcDbEntity
  8
SUPERFICI
100
AcDbLine
 62
7
  6
CONTINUOUS
 10
10.5339028142
 20
22.8831453642
 11
10.5554307276
 21
22.7831453642
  0
LINE
  5
2A1
100
AcDbEntity
  8
DRAFT
100
AcDbLine
 62
7
  6
CONTINUOUS
 10
17.8955584505
 20
-7.0418546358
 11
17.8955584505
 21
-4.8918546358
  0
LINE
  5
2A2
100
AcDbEntity
  8
RACCORDO
100
AcDbLine
 62
253
  6
CONTINUOUS
 10
17.9161136955
 20
-4.8712993909
 11
17.9156277659
 21
-7.0619239512
  0
LINE
  5
2A3
100
AcDbEntity
  8
RACCORDO
100
AcDbLine
 62
253
  6
CONTINUOUS
 10
18.2161214993
 20
-4.5742660339
 11
18.215502508
 21
-7.3664484495
  0
LWPOLYLINE
  5
2A4
100
AcDbEntity
  8
RACCORDO
100
AcDbPolyline
 62
253
  6
CONTINUOUS
 90
22
 70
0
 10
11.3570503627
 20
-7.5361186745
 10
11.3738501409
 20
-7.509757148
 10
11.3878141537
 20
-7.4817874391
 10
11.3987906241
 20
-7.4525135548
 10
11.4066602472
 20
-7.4222536773
 10
11.4113374871
 20
-7.3913367056
 10
11.412771506
 20
-7.3600986808
 10
11.4109467174
 20
-7.3288791338
 10
11.4058829551
 20
-7.2980173943
 10
11.3976352581
 20
-7.2678489031
 10
11.3862932716
 20
-7.2387015662
 10
11.3719802736
 20
-7.2108921901
 10
11.3548518339
 20
-7.1847230391
 10
11.3350941242
 20
-7.1604785496
 10
11.312921894
 20
-7.1384222385
 10
11.2885761364
 20
-7.1187938392
 10
11.2623214692
 20
-7.1018066955
 10
11.2344432582
 20
-7.0876454434
 10
11.2052445158
 20
-7.0764640034
 10
11.1750426075
 20
-7.0683839084
 10
11.1441658022
 20
-7.0634929821
 10
11.1129497045
 20
-7.0618443847
  0
LWPOLYLINE
  5
2A5
100
AcDbEntity
  8
RACCORDO
100
AcDbPolyline
 62
7
  6
CONTINUOUS
 90
7
 70
0
 10
17.0905481994
 20
7.8281351131
 10
17.0927096364
 20
7.8301349294
 10
17.0968640028
 20
7.8348307661
 10
17.1030112987
 20
7.8418552535
 10
17.1113818456
 20
7.8507883273
 10
17.1217453219
 20
7.8613093993
 10
17.1463039458
 20
7.8866186428
  0
LWPOLYLINE
  5
2A6
100
AcDbEntity
  8
RACCORDO
100
AcDbPolyline
 62
7
  6
CONTINUOUS
 90
6
 70
0
 10
17.9155481994
 20
-7.0618443847
 10
17.9177891463
 20
-7.0638844185
 10
17.9220163816
 20
-7.0686666974
 10
17.9282299052
 20
-7.0757943225
 10
17.936670479
 20
-7.084814617
 10
17.9470973411
 20
-7.0953870157
  0
LINE
  5
2A7
100
AcDbEntity
  8
RACCORDO
100
AcDbLine
 62
7
  6
CONTINUOUS
 10
18.1968802684
 20
-7.3479458522
 11
18.215502508
 21
-7.3664484495
  0
LINE
  5
2A8
100
AcDbEntity
  8
RACCORDO
100
AcDbLine
 62
7
  6
CONTINUOUS
 10
17.9156277659
 20
-7.0619239512
 11
17.8955584505
 21
-7.0418546358
  0
LINE
  5
2A9
100
AcDbEntity
  8
RACCORDO
100
AcDbLine
 62
7
  6
CONTINUOUS
 10
18.0164206531
 20
-7.1661966999
 11
18.1968802684
 21
-7.3479458522
  0
LWPOLYLINE
  5
2AA
100
AcDbEntity
  8
RACCORDO
100
AcDbPolyline
 62
7
  6
CONTINUOUS
 90
3
 70
0
 10
17.9716540552
 20
-7.1206933575
 10
18.0007225326
 20
-7.150186918
 10
18.0164206531
 20
-7.1661966999
  0
LINE
  5
2AB
100
AcDbEntity
  8
RACCORDO
100
AcDbLine
 62
7
  6
CONTINUOUS
 10
17.9470973411
 20
-7.0953870157
 11
17.9716540552
 21
-7.1206933575
  0
LWPOLYLINE
  5
2AC
100
AcDbEntity
  8
RACCORDO
100
AcDbPolyline
 62
253
  6
CONTINUOUS
 90
65
 70
0
 10
11.113039855
 20
8.1327392137
 10
11.0577268961
 20
8.2127642646
 10
11.0049110903
 20
8.2949106762
 10
10.9545924375
 20
8.3791784297
 10
10.9065983536
 20
8.4658578361
 10
10.8611014227
 20
8.5546585431
 10
10.8186193974
 20
8.6447095429
 10
10.7792827756
 20
8.7358768279
 10
10.7429610594
 20
8.8282943782
 10
10.7097805066
 20
8.921493179
 10
10.6798100915
 20
9.0151913065
 10
10.65298084
 20
9.1096706648
 10
10.6292120871
 20
9.2053079816
 10
10.6084294922
 20
9.3017797803
 10
10.590707396
 20
9.399409509
 10
10.5761881556
 20
9.4995442633
 10
10.5646298612
 20
9.6020666725
 10
10.5562744226
 20
9.7070940442
 10
10.5519899257
 20
9.8163254556
 10
10.5514737193
 20
9.9300236069
 10
10.5550284546
 20
10.0479256785
 10
10.5644301711
 20
10.1709424304
 10
10.5795119798
 20
10.2996370708
 10
10.6004407695
 20
10.4334462187
 10
10.6294932463
 20
10.5715907426
 10
10.6668605754
 20
10.7147933856
 10
10.7123515916
 20
10.8623312248
 10
10.7676695042
 20
11.0112566898
 10
10.8333991525
 20
11.1620200974
 10
10.9089556973
 20
11.314171045
 10
10.9942878307
 20
11.463411021
 10
11.0899142164
 20
11.6094979692
 10
11.1953161908
 20
11.7526740376
 10
11.3088864549
 20
11.8893671756
 10
11.4307273352
 20
12.0190229202
 10
11.5607365052
 20
12.1421959606
 10
11.6969996864
 20
12.2569780717
 10
11.8393821938
 20
12.3630127072
 10
11.9880187123
 20
12.4606566702
 10
12.1413990187
 20
12.5490717926
 10
12.2995184309
 20
12.6281770428
 10
12.4623816309
 20
12.698053674
 10
12.628492442
 20
12.7581069463
 10
12.7979544054
 20
12.808279859
 10
12.9706639798
 20
12.8486295726
 10
13.1448143654
 20
12.8787325776
 10
13.3203810986
 20
12.8984827122
 10
13.4973886429
 20
12.9079862149
 10
13.6741035891
 20
12.907138156
 10
13.8504718877
 20
12.8958729903
 10
14.0265475882
 20
12.8742562443
 10
14.2007594298
 20
12.8423795722
 10
14.3732828705
 20
12.8000867286
 10
14.5439424523
 20
12.7475338452
 10
14.7106405398
 20
12.6852811234
 10
14.8735678794
 20
12.6129192811
 10
15.0325337247
 20
12.5308574076
 10
15.1848682011
 20
12.4408832685
 10
15.3303499319
 20
12.3426032192
 10
15.4692002939
 20
12.236410692
 10
15.5994135434
 20
12.1252741232
 10
15.7204915061
 20
12.0091209427
 10
15.8329323563
 20
11.8880235732
 10
15.936224874
 20
11.7651680366
 10
16.0299486421
 20
11.6407513788
  0
LWPOLYLINE
  5
2AD
100
AcDbEntity
  8
RACCORDO
100
AcDbPolyline
 62
253
  6
CONTINUOUS
 90
65
 70
0
 10
11.3570507371
 20
8.3024088891
 10
11.3074234246
 20
8.3743558128
 10
11.2598500178
 20
8.4483179031
 10
11.2144242173
 20
8.5242460228
 10
11.171140208
 20
8.6022723372
 10
11.1302018747
 20
8.6821597446
 10
11.0919608868
 20
8.7632702176
 10
11.0565119118
 20
8.8453629022
 10
11.0238139002
 20
8.9284897546
 10
10.9939410751
 20
9.0124170377
 10
10.9669784911
 20
9.0967970768
 10
10.9428409004
 20
9.1817773386
 10
10.92138788
 20
9.2678790651
 10
10.9027342729
 20
9.3547429596
 10
10.8868649521
 20
9.4425570442
 10
10.8736443474
 20
9.532701645
 10
10.8632849739
 20
9.6249817413
 10
10.8559698891
 20
9.7194308843
 10
10.8518587418
 20
9.8177937494
 10
10.8513622282
 20
9.9201056209
 10
10.8549092834
 20
10.0260756603
 10
10.8630597523
 20
10.1369229479
 10
10.8764709478
 20
10.2527452358
 10
10.8957540552
 20
10.3729205595
 10
10.9216392695
 20
10.4974906268
 10
10.9549560693
 20
10.6264743955
 10
10.9963245573
 20
10.7588979221
 10
11.0460692319
 20
10.8932338117
 10
11.1048783634
 20
11.0291993245
 10
11.1731336187
 20
11.1657437527
 10
11.250191067
 20
11.3002862138
 10
11.3361106199
 20
11.4321213324
 10
11.4309893645
 20
11.5606496152
 10
11.5335873131
 20
11.6837642943
 10
11.6433579436
 20
11.8007202779
 10
11.7602115984
 20
11.9113381181
 10
11.8831844666
 20
12.0146784822
 10
12.0115725662
 20
12.1102483314
 10
12.1451238435
 20
12.1979536947
 10
12.2834434539
 20
12.2775833299
 10
12.4260138838
 20
12.3488770837
 10
12.5723566945
 20
12.4116321391
 10
12.722141248
 20
12.4657215507
 10
12.8749298359
 20
12.5109761157
 10
13.030127643
 20
12.5472085657
 10
13.1871647206
 20
12.5742856713
 10
13.3454648327
 20
12.5921143617
 10
13.5045210281
 20
12.6006435922
 10
13.6638602402
 20
12.5998445152
 10
13.8228816179
 20
12.5897150275
 10
13.9810932147
 20
12.5702811811
 10
14.1381808474
 20
12.5415504927
 10
14.2937650803
 20
12.5035241521
 10
14.4471187084
 20
12.4563104773
 10
14.5974175054
 20
12.4001361448
 10
14.7444271008
 20
12.3350594797
 10
14.8873316537
 20
12.2614112998
 10
15.0245706025
 20
12.1801207037
 10
15.1558661025
 20
12.0915996829
 10
15.2808084153
 20
11.9963789284
 10
15.3979600409
 20
11.8959949042
 10
15.5071527017
 20
11.7912386249
 10
15.6084869376
 20
11.6826815833
 10
15.7013021942
 20
11.5718374887
 10
15.7857021808
 20
11.4595829191
  0
LWPOLYLINE
  5
2AE
100
AcDbEntity
  8
RACCORDO
100
AcDbPolyline
 62
7
  6
CONTINUOUS
 90
22
 70
0
 10
11.3939131831
 20
8.2855799102
 10
11.4112803625
 20
8.2589039122
 10
11.4255789547
 20
8.2312297446
 10
11.4368089599
 20
8.2025574072
 10
11.4450351149
 20
8.1726059087
 10
11.4501926829
 20
8.1416562405
 10
11.4520874529
 20
8.1105513769
 10
11.4506505051
 20
8.079232087
 10
11.4459507594
 20
8.0477576017
 10
11.4380007643
 20
8.0171485884
 10
11.4266025548
 20
7.987336717
 10
11.4119540959
 20
7.9583903176
 10
11.394661831
 20
7.9315350479
 10
11.3746362446
 20
7.9069594453
 10
11.3519668523
 20
7.8844749724
 10
11.327528644
 20
7.8647416739
 10
11.3013689756
 20
7.8478792417
 10
11.2734404912
 20
7.833767984
 10
11.2444761136
 20
7.8227088704
 10
11.2147201502
 20
7.8148022242
 10
11.1839282936
 20
7.8099477222
 10
11.1521005438
 20
7.8081453642
  0
LINE
  5
2AF
100
AcDbEntity
  8
SUPERFICI
100
AcDbLine
 62
7
  6
CONTINUOUS
 10
17.3339028142
 20
-22.1168546358
 11
17.3554307276
 21
-22.0168546358
  0
LWPOLYLINE
  5
2B0
100
AcDbEntity
  8
RACCORDO
100
AcDbPolyline
 62
253
  6
CONTINUOUS
 90
16
 70
0
 10
15.7840665384
 20
-7.5361186746
 10
15.7852757239
 20
-7.5339494461
 10
15.7900154436
 20
-7.5314329377
 10
15.797581938
 20
-7.5278816957
 10
15.8070508017
 20
-7.521901542
 10
15.818543451
 20
-7.5134046346
 10
15.8329204482
 20
-7.5039259146
 10
15.8493653938
 20
-7.4932018032
 10
15.8670306403
 20
-7.4803338956
 10
15.8867375546
 20
-7.466518558
 10
15.9081544856
 20
-7.4518466553
 10
15.9304237161
 20
-7.4358200649
 10
15.9539398751
 20
-7.4191999487
 10
15.9785512275
 20
-7.4022598437
 10
16.003451402
 20
-7.3846764999
 10
16.0281671965
 20
-7.3664484495
  0
LWPOLYLINE
  5
2B1
100
AcDbEntity
  8
RACCORDO
100
AcDbPolyline
 62
7
  6
CONTINUOUS
 90
3
 70
0
 10
9.1698129553
 20
-7.1203279144
 10
9.1556178078
 20
-7.1346735341
 10
9.1247700296
 20
-7.1661203057
  0
LINE
  5
2B2
100
AcDbEntity
  8
RACCORDO
100
AcDbLine
 62
7
  6
CONTINUOUS
 10
9.1247700296
 20
-7.1661203057
 11
9.0183458147
 21
-7.2734910329
  0
LINE
  5
2B3
100
AcDbEntity
  8
RACCORDO
100
AcDbLine
 62
7
  6
CONTINUOUS
 10
9.0183458147
 20
-7.2734910329
 11
8.9439774314
 21
-7.3482057218
  0
LINE
  5
2B4
100
AcDbEntity
  8
RACCORDO
100
AcDbLine
 62
7
  6
CONTINUOUS
 10
9.2255687016
 20
-7.0618443847
 11
9.2455584505
 21
-7.0418546358
  0
LINE
  5
2B5
100
AcDbEntity
  8
RACCORDO
100
AcDbLine
 62
7
  6
CONTINUOUS
 10
8.9439774314
 20
-7.3482057218
 11
8.9256143931
 21
-7.3664484495
  0
LINE
  5
2B6
100
AcDbEntity
  8
RACCORDO
100
AcDbLine
 62
253
  6
CONTINUOUS
 10
16.0281672493
 20
7.8281351131
 11
15.9890163573
 21
7.8081453642
  0
LINE
  5
2B7
100
AcDbEntity
  8
RACCORDO
100
AcDbLine
 62
253
  6
CONTINUOUS
 10
15.7840666204
 20
8.3024094775
 11
15.7472037179
 21
8.2855799102
  0
LINE
  5
2B8
100
AcDbEntity
  8
RACCORDO
100
AcDbLine
 62
253
  6
CONTINUOUS
 10
15.7472037179
 20
-7.5192891818
 11
15.784066164
 21
-7.5361181607
  0
LINE
  5
2B9
100
AcDbEntity
  8
RACCORDO
100
AcDbLine
 62
253
  6
CONTINUOUS
 10
15.9890163573
 20
-7.0418546358
 11
16.0281667081
 21
-7.0618443847
  0
LINE
  5
2BA
100
AcDbEntity
  8
RACCORDO
100
AcDbLine
 62
7
  6
CONTINUOUS
 10
9.7692366326
 20
8.1142365807
 11
9.7506143931
 21
8.1327391779
  0
LINE
  5
2BB
100
AcDbEntity
  8
RACCORDO
100
AcDbLine
 62
7
  6
CONTINUOUS
 10
10.0504891351
 20
7.8282146796
 11
10.0705584505
 21
7.8081453642
  0
LINE
  5
2BC
100
AcDbEntity
  8
RACCORDO
100
AcDbLine
 62
7
  6
CONTINUOUS
 10
9.949696248
 20
7.9324874283
 11
9.7692366326
 21
8.1142365807
  0
LWPOLYLINE
  5
2BD
100
AcDbEntity
  8
RACCORDO
100
AcDbPolyline
 62
7
  6
CONTINUOUS
 90
3
 70
0
 10
9.9944628458
 20
7.886984086
 10
9.9653943685
 20
7.9164776465
 10
9.949696248
 20
7.9324874283
  0
LINE
  5
2BE
100
AcDbEntity
  8
RACCORDO
100
AcDbLine
 62
7
  6
CONTINUOUS
 10
10.01901956
 20
7.8616777441
 11
9.9944628458
 21
7.886984086
  0
LINE
  5
2BF
100
AcDbEntity
  8
SUPERFICI
100
AcDbLine
 62
7
  6
CONTINUOUS
 10
17.3339028142
 20
22.8831453642
 11
17.3554307276
 21
22.7831453642
  0
LINE
  5
2C0
100
AcDbEntity
  8
0
100
AcDbLine
 62
7
  6
CONTINUOUS
 10
23.3705584505
 20
1.9991435525
 11
23.3705584505
 21
-1.232852824
  0
LINE
  5
2C1
100
AcDbEntity
  8
0
100
AcDbLine
 62
7
  6
CONTINUOUS
 10
23.4705584505
 20
2.1209937525
 11
23.4705584505
 21
1.107254026
  0
LINE
  5
2C2
100
AcDbEntity
  8
0
100
AcDbLine
 62
7
  6
CONTINUOUS
 10
23.4705584505
 20
-1.3547030241
 11
23.4705584505
 21
-0.3409632975
  0
LINE
  5
2C3
100
AcDbEntity
  8
0
100
AcDbLine
 62
7
  6
CONTINUOUS
 10
23.4705584505
 20
-0.3409632975
 11
23.4705584505
 21
0.2805944667
  0
LINE
  5
2C4
100
AcDbEntity
  8
0
100
AcDbLine
 62
7
  6
CONTINUOUS
 10
23.4705584505
 20
0.4856962617
 11
23.4705584505
 21
1.107254026
  0
LINE
  5
2C5
100
AcDbEntity
  8
0
100
AcDbLine
 62
253
  6
CONTINUOUS
 10
24.1705584505
 20
0.4856939937
 11
24.1705584505
 21
0.2805967347
  0
LINE
  5
2C6
100
AcDbEntity
  8
0
100
AcDbLine
 62
253
  6
CONTINUOUS
 10
24.2705584505
 20
2.7448348761
 11
24.2705584505
 21
2.1679141977
  0
LINE
  5
2C7
100
AcDbEntity
  8
0
100
AcDbLine
 62
253
  6
CONTINUOUS
 10
24.2705584505
 20
-1.4016234693
 11
24.2705584505
 21
-1.9785441477
  0
LINE
  5
2C8
100
AcDbEntity
  8
0
100
AcDbLine
 62
253
  6
CONTINUOUS
 10
24.2705584505
 20
-0.9066487225
 11
24.2705584505
 21
1.6729394509
  0
LINE
  5
2C9
100
AcDbEntity
  8
0
100
AcDbLine
 62
7
  6
CONTINUOUS
 10
24.9705584505
 20
2.6628889446
 11
24.9705584505
 21
2.1679141977
  0
LINE
  5
2CA
100
AcDbEntity
  8
0
100
AcDbLine
 62
7
  6
CONTINUOUS
 10
24.9705584505
 20
-1.8965982162
 11
24.9705584505
 21
-1.4016234693
  0
LINE
  5
2CB
100
AcDbEntity
  8
RACCORDO
100
AcDbLine
 62
253
  6
CONTINUOUS
 10
25.4705584505
 20
-2.5894758347
 11
25.4705584505
 21
-2.2668546358
  0
LINE
  5
2CC
100
AcDbEntity
  8
RACCORDO
100
AcDbLine
 62
253
  6
CONTINUOUS
 10
25.4705584505
 20
3.3557665632
 11
25.4705584505
 21
3.0331453642
  0
LWPOLYLINE
  5
2CD
100
AcDbEntity
  8
RACCORDO
100
AcDbPolyline
 62
7
  6
CONTINUOUS
 90
7
 70
0
 10
9.2255687016
 20
-7.0618443847
 10
9.2234072647
 20
-7.063844201
 10
9.2192528982
 20
-7.0685400377
 10
9.2131056024
 20
-7.0755645251
 10
9.2047350555
 20
-7.0844975989
 10
9.1943715791
 20
-7.0950186709
 10
9.1698129553
 20
-7.1203279144
  0
LWPOLYLINE
  5
2CE
100
AcDbEntity
  8
RACCORDO
100
AcDbPolyline
 62
7
  6
CONTINUOUS
 90
6
 70
0
 10
10.0505687016
 20
7.8281351131
 10
10.0483277547
 20
7.8301751469
 10
10.0441005195
 20
7.8349574259
 10
10.0378869958
 20
7.8420850509
 10
10.0294464221
 20
7.8511053454
 10
10.01901956
 20
7.8616777441
  0
LWPOLYLINE
  5
2CF
100
AcDbEntity
  8
RACCORDO
100
AcDbPolyline
 62
253
  6
CONTINUOUS
 90
36
 70
0
 10
15.7857021808
 20
11.4595829191
 10
15.8620786521
 20
11.346436288
 10
15.9304668785
 20
11.2334715295
 10
15.9911629656
 20
11.1214829954
 10
16.0446998769
 20
11.0108348619
 10
16.0915554081
 20
10.9019090164
 10
16.1320890592
 20
10.7953423074
 10
16.1668302158
 20
10.6913192746
 10
16.1964202836
 20
10.5894343043
 10
16.2211827342
 20
10.4901045883
 10
16.2415185413
 20
10.393427054
 10
16.2579682365
 20
10.2984098441
 10
16.2707546273
 20
10.2052497535
 10
16.280111706
 20
10.114057882
 10
16.286335318
 20
10.0236464
 10
16.2895249892
 20
9.9340091832
 10
16.2897709154
 20
9.8453609137
 10
16.2871301643
 20
9.7568207611
 10
16.2815946096
 20
9.6682578518
 10
16.2731799662
 20
9.5799914105
 10
16.261858744
 20
9.4918173628
 10
16.2475852898
 20
9.4036353563
 10
16.2303748444
 20
9.3157435776
 10
16.210296091
 20
9.2285343886
 10
16.1873593563
 20
9.1420363894
 10
16.1616101532
 20
9.0564068734
 10
16.133250978
 20
8.9722095107
 10
16.1023707677
 20
8.8895303802
 10
16.0690497051
 20
8.8084227403
 10
16.0335673322
 20
8.729363578
 10
15.9960807747
 20
8.6524547928
 10
15.9566871178
 20
8.5776663533
 10
15.915635398
 20
8.505240411
 10
15.8731103641
 20
8.4352572728
 10
15.8292094634
 20
8.3676477629
 10
15.7840666204
 20
8.3024094775
  0
LWPOLYLINE
  5
2D0
100
AcDbEntity
  8
RACCORDO
100
AcDbPolyline
 62
253
  6
CONTINUOUS
 90
36
 70
0
 10
16.0299486421
 20
11.6407513788
 10
16.1145240777
 20
11.5145765118
 10
16.1907012124
 20
11.3892383543
 10
16.2582431235
 20
11.265095803
 10
16.3173867336
 20
11.1417900083
 10
16.3695928421
 20
11.020839337
 10
16.4148176967
 20
10.9026522038
 10
16.4531050497
 20
10.7868202837
 10
16.4860469571
 20
10.67363686
 10
16.5137571407
 20
10.5634130286
 10
16.5361218788
 20
10.4558377808
 10
16.5543920619
 20
10.3502712372
 10
16.5687538435
 20
10.2468425806
 10
16.5790210701
 20
10.1454226888
 10
16.5858861724
 20
10.0449842024
 10
16.5895178881
 20
9.9454363419
 10
16.5897474794
 20
9.8468699169
 10
16.5867611644
 20
9.7485299303
 10
16.5806301558
 20
9.6501690365
 10
16.5712832409
 20
9.552034592
 10
16.5586929991
 20
9.4541136432
 10
16.5428169989
 20
9.3561866099
 10
16.5236976717
 20
9.2584730829
 10
16.5014348915
 20
9.1616188713
 10
16.4759450335
 20
9.0655711287
 10
16.4473117224
 20
8.9703827258
 10
16.4158857063
 20
8.8768580617
 10
16.3816034178
 20
8.7850496151
 10
16.3445284242
 20
8.6949049455
 10
16.3052021752
 20
8.6070710863
 10
16.2636108891
 20
8.5216582172
 10
16.2197683477
 20
8.4385562039
 10
16.1742573455
 20
8.3580816163
 10
16.1272721476
 20
8.2803399934
 10
16.0786184889
 20
8.2052258405
 10
16.0282963695
 20
8.1327391779
  0
LINE
  5
2D1
100
AcDbEntity
  8
DRAFT
100
AcDbLine
 62
7
  6
CONTINUOUS
 10
28.1205584505
 20
-2.2668546358
 11
28.1205584505
 21
3.0331453642
  0
LINE
  5
2D2
100
AcDbEntity
  8
RACCORDO
100
AcDbLine
 62
253
  6
CONTINUOUS
 10
28.1414713221
 20
3.0540582358
 11
28.1414713221
 21
-2.2877675074
  0
LINE
  5
2D3
100
AcDbEntity
  8
RACCORDO
100
AcDbLine
 62
253
  6
CONTINUOUS
 10
28.4413960768
 20
3.3557665632
 11
28.4413960768
 21
-2.5894758347
  0
LWPOLYLINE
  5
2D4
100
AcDbEntity
  8
0
100
AcDbPolyline
 62
7
  6
CONTINUOUS
 90
3
 70
0
 43
0.3500000087
 10
37.6134149719
 20
34.918858902
 10
37.5419875488
 20
34.7045723694
 10
37.3991284393
 20
34.4188584137
  0
LINE
  5
2D5
100
AcDbEntity
  8
RACCORDO
100
AcDbLine
 62
7
  6
CONTINUOUS
 10
17.8955584505
 20
-4.8918546358
 11
17.9161136955
 21
-4.8712993909
  0
LINE
  5
2D6
100
AcDbEntity
  8
RACCORDO
100
AcDbLine
 62
7
  6
CONTINUOUS
 10
18.1420034585
 20
-4.648318179
 11
18.1976332463
 21
-4.5926160175
  0
LINE
  5
2D7
100
AcDbEntity
  8
RACCORDO
100
AcDbLine
 62
7
  6
CONTINUOUS
 10
18.1976332463
 20
-4.5926160175
 11
18.2161214993
 21
-4.5742660339
  0
LINE
  5
2D8
100
AcDbEntity
  8
RACCORDO
100
AcDbLine
 62
7
  6
CONTINUOUS
 10
18.0345404809
 20
-4.7552640058
 11
18.1420034585
 21
-4.648318179
  0
LINE
  5
2D9
100
AcDbEntity
  8
RACCORDO
100
AcDbLine
 62
7
  6
CONTINUOUS
 10
18.0180738189
 20
-4.7715004352
 11
18.0345404809
 21
-4.7552640058
  0
LWPOLYLINE
  5
2DA
100
AcDbEntity
  8
RACCORDO
100
AcDbPolyline
 62
7
  6
CONTINUOUS
 90
3
 70
0
 10
17.9733278874
 20
-4.8157128731
 10
17.9874675221
 20
-4.801885336
 10
18.0180738189
 20
-4.7715004352
  0
LINE
  5
2DB
100
AcDbEntity
  8
0
100
AcDbLine
 62
7
  6
CONTINUOUS
 10
23.4705584505
 20
1.6022287728
 11
24.9705584505
 21
2.6628889446
  0
LINE
  5
2DC
100
AcDbEntity
  8
0
100
AcDbLine
 62
7
  6
CONTINUOUS
 10
24.9705584505
 20
2.1679141977
 11
23.4705584505
 21
1.107254026
  0
LWPOLYLINE
  5
2DD
100
AcDbEntity
  8
SUPERFICI
100
AcDbPolyline
 62
7
  6
CONTINUOUS
 90
10
 70
0
 10
54.7430157808
 20
23.7165050217
 10
54.7982333753
 20
23.7506639514
 10
54.8553385518
 20
23.7810142062
 10
54.9143313102
 20
23.8075557862
 10
54.9756644694
 20
23.8304249035
 10
55.0388852105
 20
23.8494853461
 10
55.102635077
 20
23.864328477
 10
55.16646125
 20
23.8748180843
 10
55.2308165485
 20
23.88109038
 10
55.2957009724
 20
23.8831453642
  0
LWPOLYLINE
  5
2DE
100
AcDbEntity
  8
RACCORDO
100
AcDbPolyline
 62
253
  6
CONTINUOUS
 90
22
 70
0
 10
55.0281671965
 20
-7.0618443847
 10
54.9969510989
 20
-7.0634929821
 10
54.9660742936
 20
-7.0683839084
 10
54.9358723853
 20
-7.0764640034
 10
54.9066736429
 20
-7.0876454434
 10
54.8787954319
 20
-7.1018066956
 10
54.8525407647
 20
-7.1187938392
 10
54.8281950072
 20
-7.1384222386
 10
54.806022777
 20
-7.1604785497
 10
54.7862650673
 20
-7.1847230392
 10
54.7691366276
 20
-7.2108921902
 10
54.7548236295
 20
-7.2387015663
 10
54.7434816431
 20
-7.2678489032
 10
54.735233946
 20
-7.2980173943
 10
54.7301701838
 20
-7.3288791338
 10
54.7283453952
 20
-7.3600986809
 10
54.7297794141
 20
-7.3913367056
 10
54.7344566539
 20
-7.4222536773
 10
54.7423262771
 20
-7.4525135549
 10
54.7533027474
 20
-7.4817874392
 10
54.7672667602
 20
-7.509757148
 10
54.7840665384
 20
-7.5361186746
  0
LINE
  5
2DF
100
AcDbEntity
  8
RACCORDO
100
AcDbLine
 62
7
  6
CONTINUOUS
 10
55.2226671253
 20
-8.6168546358
 11
49.9184497757
 21
-8.6168546358
  0
LINE
  5
2E0
100
AcDbEntity
  8
RACCORDO
100
AcDbLine
 62
7
  6
CONTINUOUS
 10
16.2226671253
 20
-8.6168546358
 11
10.9184497757
 21
-8.6168546358
  0
LWPOLYLINE
  5
2E1
100
AcDbEntity
  8
RACCORDO
100
AcDbPolyline
 62
7
  6
CONTINUOUS
 90
22
 70
0
 10
11.1521005438
 20
-7.0418546358
 10
11.1838822822
 20
-7.0436378742
 10
11.2146529414
 20
-7.048485524
 10
11.2444125214
 20
-7.0563975851
 10
11.2734258336
 20
-7.0674881466
 10
11.3014280666
 20
-7.0816431194
 10
11.3276247863
 20
-7.0985202363
 10
11.3520229618
 20
-7.1182100812
 10
11.3746156241
 20
-7.1406220701
 10
11.3945874317
 20
-7.1651421838
 10
11.4118763533
 20
-7.1919704287
 10
11.4265444203
 20
-7.2209067983
 10
11.4379623857
 20
-7.2507372537
 10
11.4459252972
 20
-7.2814224689
 10
11.4506381072
 20
-7.3130017698
 10
11.452086426
 20
-7.3443790949
 10
11.4502017559
 20
-7.3754453961
 10
11.4450525947
 20
-7.4063097214
 10
11.4368300464
 20
-7.4362031543
 10
11.4255978124
 20
-7.4648693892
 10
11.4112921913
 20
-7.4925647317
 10
11.3939131831
 20
-7.5192891817
  0
LWPOLYLINE
  5
2E2
100
AcDbEntity
  8
SUPERFICI
100
AcDbPolyline
 62
7
  6
CONTINUOUS
 90
10
 70
0
 10
54.7430157808
 20
-22.9502142933
 10
54.7982333753
 20
-22.9843732229
 10
54.8553385518
 20
-23.0147234778
 10
54.9143313102
 20
-23.0412650577
 10
54.9756644694
 20
-23.0641341751
 10
55.0388852105
 20
-23.0831946176
 10
55.102635077
 20
-23.0980377486
 10
55.16646125
 20
-23.1085273559
 10
55.2308165485
 20
-23.1147996516
 10
55.2957009724
 20
-23.1168546358
  0
LINE
  5
2E3
100
AcDbEntity
  8
0
100
AcDbLine
 62
7
  6
CONTINUOUS
 10
24.9705584505
 20
-1.8965982162
 11
23.4705584505
 21
-0.8359380444
  0
LINE
  5
2E4
100
AcDbEntity
  8
0
100
AcDbLine
 62
7
  6
CONTINUOUS
 10
23.4705584505
 20
-0.3409632975
 11
24.9705584505
 21
-1.4016234693
  0
LWPOLYLINE
  5
2E5
100
AcDbEntity
  8
RACCORDO
100
AcDbPolyline
 62
7
  6
CONTINUOUS
 90
3
 70
0
 10
17.1234249878
 20
5.6066638322
 10
17.1480901248
 20
5.5822429682
 10
17.1622745617
 20
5.5683700191
  0
LINE
  5
2E6
100
AcDbEntity
  8
RACCORDO
100
AcDbLine
 62
7
  6
CONTINUOUS
 10
17.1622745617
 20
5.5683700191
 11
17.2266388026
 21
5.504556721
  0
LWPOLYLINE
  5
2E7
100
AcDbEntity
  8
RACCORDO
100
AcDbPolyline
 62
7
  6
CONTINUOUS
 90
4
 70
0
 10
17.2266388026
 20
5.504556721
 10
17.3360073003
 20
5.3956242835
 10
17.3544365307
 20
5.3771128121
 10
17.3911214993
 20
5.3405567623
  0
LINE
  5
2E8
100
AcDbEntity
  8
RACCORDO
100
AcDbLine
 62
7
  6
CONTINUOUS
 10
17.0911136955
 20
5.6375901193
 11
17.0705584505
 21
5.6581453642
  0
LINE
  5
2E9
100
AcDbEntity
  8
RACCORDO
100
AcDbLine
 62
7
  6
CONTINUOUS
 10
28.1205584505
 20
3.0331453642
 11
28.1414713221
 21
3.0540582358
  0
LINE
  5
2EA
100
AcDbEntity
  8
RACCORDO
100
AcDbLine
 62
7
  6
CONTINUOUS
 10
28.2426589774
 20
3.156594839
 11
28.4229866647
 21
3.3374827704
  0
LWPOLYLINE
  5
2EB
100
AcDbEntity
  8
RACCORDO
100
AcDbPolyline
 62
7
  6
CONTINUOUS
 90
3
 70
0
 10
28.1977260468
 20
3.1113976757
 10
28.211901045
 20
3.1255480443
 10
28.2426589774
 20
3.156594839
  0
LINE
  5
2EC
100
AcDbEntity
  8
RACCORDO
100
AcDbLine
 62
7
  6
CONTINUOUS
 10
28.4229866647
 20
3.3374827704
 11
28.4413960768
 21
3.3557665632
  0
LWPOLYLINE
  5
2ED
100
AcDbEntity
  8
RACCORDO
100
AcDbPolyline
 62
7
  6
CONTINUOUS
 90
7
 70
0
 10
28.1414417682
 20
3.0540286819
 10
28.1437375731
 20
3.0559554521
 10
28.14800745
 20
3.0604882883
 10
28.154251399
 20
3.0673055743
 10
28.1627019008
 20
3.0760484853
 10
28.1731264746
 20
3.0864226581
 10
28.1977260468
 20
3.1113976757
  0
LWPOLYLINE
  5
2EE
100
AcDbEntity
  8
RACCORDO
100
AcDbPolyline
 62
7
  6
CONTINUOUS
 90
7
 70
0
 10
17.9161671907
 20
-4.8712458956
 10
17.9186912665
 20
-4.8694381126
 10
17.9231561081
 20
-4.8651710015
 10
17.9295617154
 20
-4.858692901
 10
17.938143384
 20
-4.850263672
 10
17.9486658183
 20
-4.840133882
 10
17.9733278874
 20
-4.8157128731
  0
LWPOLYLINE
  5
2EF
100
AcDbEntity
  8
RACCORDO
100
AcDbPolyline
 62
253
  6
CONTINUOUS
 90
22
 70
0
 10
16.0281671965
 20
-7.0618443847
 10
15.9969510989
 20
-7.0634929821
 10
15.9660742936
 20
-7.0683839084
 10
15.9358723853
 20
-7.0764640034
 10
15.9066736429
 20
-7.0876454434
 10
15.8787954319
 20
-7.1018066956
 10
15.8525407647
 20
-7.1187938392
 10
15.8281950072
 20
-7.1384222386
 10
15.806022777
 20
-7.1604785497
 10
15.7862650673
 20
-7.1847230392
 10
15.7691366276
 20
-7.2108921902
 10
15.7548236295
 20
-7.2387015663
 10
15.7434816431
 20
-7.2678489032
 10
15.735233946
 20
-7.2980173943
 10
15.7301701838
 20
-7.3288791338
 10
15.7283453952
 20
-7.3600986809
 10
15.7297794141
 20
-7.3913367056
 10
15.7344566539
 20
-7.4222536773
 10
15.7423262771
 20
-7.4525135549
 10
15.7533027474
 20
-7.4817874392
 10
15.7672667602
 20
-7.509757148
 10
15.7840665384
 20
-7.5361186746
  0
LINE
  5
2F0
100
AcDbEntity
  8
RACCORDO
100
AcDbLine
 62
253
  6
CONTINUOUS
 10
57.215502508
 20
-7.3664484495
 11
55.0280770446
 21
-7.366448483
  0
LINE
  5
2F1
100
AcDbEntity
  8
RACCORDO
100
AcDbLine
 62
253
  6
CONTINUOUS
 10
50.1128205315
 20
-7.3664484495
 11
47.9256143931
 21
-7.3664484495
  0
LINE
  5
2F2
100
AcDbEntity
  8
RACCORDO
100
AcDbLine
 62
253
  6
CONTINUOUS
 10
18.215502508
 20
-7.3664484495
 11
16.0280770231
 21
-7.3664484495
  0
LINE
  5
2F3
100
AcDbEntity
  8
RACCORDO
100
AcDbLine
 62
253
  6
CONTINUOUS
 10
11.1128205086
 20
-7.3664484849
 11
8.9256143931
 21
-7.3664484495
  0
LINE
  5
2F4
100
AcDbEntity
  8
RACCORDO
100
AcDbLine
 62
253
  6
CONTINUOUS
 10
56.9155481994
 20
-7.0618443847
 11
55.0281667081
 21
-7.0618443847
  0
LINE
  5
2F5
100
AcDbEntity
  8
RACCORDO
100
AcDbLine
 62
253
  6
CONTINUOUS
 10
50.1129501921
 20
-7.0618443847
 11
48.2255687016
 21
-7.0618443847
  0
LINE
  5
2F6
100
AcDbEntity
  8
RACCORDO
100
AcDbLine
 62
253
  6
CONTINUOUS
 10
17.9155481994
 20
-7.0618443847
 11
16.0281667081
 21
-7.0618443847
  0
LINE
  5
2F7
100
AcDbEntity
  8
RACCORDO
100
AcDbLine
 62
253
  6
CONTINUOUS
 10
11.1129501921
 20
-7.0618443847
 11
9.2255687016
 21
-7.0618443847
  0
LINE
  5
2F8
100
AcDbEntity
  8
RACCORDO
100
AcDbLine
 62
7
  6
CONTINUOUS
 10
9.2455584505
 20
-7.0418546358
 11
11.1521005438
 21
-7.0418546358
  0
LINE
  5
2F9
100
AcDbEntity
  8
RACCORDO
100
AcDbLine
 62
7
  6
CONTINUOUS
 10
15.9890163573
 20
-7.0418546358
 11
17.8955584505
 21
-7.0418546358
  0
LINE
  5
2FA
100
AcDbEntity
  8
RACCORDO
100
AcDbLine
 62
7
  6
CONTINUOUS
 10
48.2455584505
 20
-7.0418546358
 11
50.1521005438
 21
-7.0418546358
  0
LINE
  5
2FB
100
AcDbEntity
  8
RACCORDO
100
AcDbLine
 62
7
  6
CONTINUOUS
 10
54.9890163573
 20
-7.0418546358
 11
56.8955584505
 21
-7.0418546358
  0
LINE
  5
2FC
100
AcDbEntity
  8
DRAFT
100
AcDbLine
 62
7
  6
CONTINUOUS
 10
56.8955584505
 20
-4.8918546358
 11
48.2455584505
 21
-4.8918546358
  0
LINE
  5
2FD
100
AcDbEntity
  8
DRAFT
100
AcDbLine
 62
7
  6
CONTINUOUS
 10
17.8955584505
 20
-4.8918546358
 11
9.2455584505
 21
-4.8918546358
  0
LINE
  5
2FE
100
AcDbEntity
  8
RACCORDO
100
AcDbLine
 62
253
  6
CONTINUOUS
 10
9.2249497103
 20
-4.8712458956
 11
17.9161671907
 21
-4.8712458956
  0
LINE
  5
2FF
100
AcDbEntity
  8
RACCORDO
100
AcDbLine
 62
253
  6
CONTINUOUS
 10
48.2249497103
 20
-4.8712458956
 11
56.9161671907
 21
-4.8712458956
  0
LWPOLYLINE
  5
300
100
AcDbEntity
  8
RACCORDO
100
AcDbPolyline
 62
7
  6
CONTINUOUS
 90
22
 70
0
 10
50.1521005438
 20
-7.0418546358
 10
50.1838822822
 20
-7.0436378742
 10
50.2146529414
 20
-7.048485524
 10
50.2444125214
 20
-7.0563975851
 10
50.2734258336
 20
-7.0674881466
 10
50.3014280666
 20
-7.0816431194
 10
50.3276247863
 20
-7.0985202363
 10
50.3520229618
 20
-7.1182100812
 10
50.3746156241
 20
-7.1406220701
 10
50.3945874317
 20
-7.1651421838
 10
50.4118763533
 20
-7.1919704287
 10
50.4265444203
 20
-7.2209067983
 10
50.4379623857
 20
-7.2507372537
 10
50.4459252972
 20
-7.2814224689
 10
50.4506381072
 20
-7.3130017698
 10
50.452086426
 20
-7.3443790949
 10
50.4502017559
 20
-7.3754453961
 10
50.4450525947
 20
-7.4063097214
 10
50.4368300464
 20
-7.4362031543
 10
50.4255978124
 20
-7.4648693892
 10
50.4112921913
 20
-7.4925647317
 10
50.3939131831
 20
-7.5192891817
  0
LWPOLYLINE
  5
301
100
AcDbEntity
  8
RACCORDO
100
AcDbPolyline
 62
7
  6
CONTINUOUS
 90
6
 70
0
 10
17.0911671907
 20
5.637536624
 10
17.0936353127
 20
5.6357544047
 10
17.0980494501
 20
5.6315423716
 10
17.104409603
 20
5.6251307068
 10
17.1129442877
 20
5.6167587985
 10
17.1234249878
 20
5.6066638322
  0
LWPOLYLINE
  5
302
100
AcDbEntity
  8
RACCORDO
100
AcDbPolyline
 62
253
  6
CONTINUOUS
 90
16
 70
0
 10
16.0281671965
 20
8.1327391779
 10
16.0034512155
 20
8.150966948
 10
15.9785508779
 20
8.1685500454
 10
15.9539393872
 20
8.1854899418
 10
15.9304231121
 20
8.2021098875
 10
15.908153791
 20
8.2181363494
 10
15.8867368024
 20
8.2328081712
 10
15.867029856
 20
8.2466234662
 10
15.8493646022
 20
8.2594913716
 10
15.8329196862
 20
8.2702155348
 10
15.818542761
 20
8.2796943529
 10
15.8070501998
 20
8.2881913878
 10
15.7975814317
 20
8.294171702
 10
15.790015064
 20
8.2977231456
 10
15.7852755169
 20
8.3002398958
 10
15.7840665383
 20
8.302409403
  0
LWPOLYLINE
  5
303
100
AcDbEntity
  8
RACCORDO
100
AcDbPolyline
 62
7
  6
CONTINUOUS
 90
6
 70
0
 10
28.1414417682
 20
-2.2877379535
 10
28.1437676289
 20
-2.2896793578
 10
28.148064931
 20
-2.2942436756
 10
28.1543336746
 20
-2.3010986731
 10
28.1628101683
 20
-2.3098737104
 10
28.1732581036
 20
-2.3202670134
  0
LINE
  5
304
100
AcDbEntity
  8
RACCORDO
100
AcDbLine
 62
7
  6
CONTINUOUS
 10
28.4228902965
 20
-2.5710954873
 11
28.4413960768
 21
-2.5894758347
  0
LINE
  5
305
100
AcDbEntity
  8
RACCORDO
100
AcDbLine
 62
7
  6
CONTINUOUS
 10
28.1414713221
 20
-2.2877675074
 11
28.1205584505
 21
-2.2668546358
  0
LINE
  5
306
100
AcDbEntity
  8
RACCORDO
100
AcDbLine
 62
7
  6
CONTINUOUS
 10
28.2426864194
 20
-2.3903322801
 11
28.4228902965
 21
-2.5710954873
  0
LINE
  5
307
100
AcDbEntity
  8
RACCORDO
100
AcDbLine
 62
7
  6
CONTINUOUS
 10
28.2120071492
 20
-2.3593660523
 11
28.2426864194
 21
-2.3903322801
  0
LWPOLYLINE
  5
308
100
AcDbEntity
  8
RACCORDO
100
AcDbPolyline
 62
7
  6
CONTINUOUS
 90
3
 70
0
 10
28.1732581036
 20
-2.3202670134
 10
28.197856594
 20
-2.3452413861
 10
28.2120071492
 20
-2.3593660523
  0
LINE
  5
309
100
AcDbEntity
  8
0
100
AcDbLine
 62
7
  6
CONTINUOUS
 10
17.2705584505
 20
-22.0168546358
 11
17.2039256529
 21
-22.1168546358
  0
LINE
  5
30A
100
AcDbEntity
  8
RACCORDO
100
AcDbLine
 62
253
  6
CONTINUOUS
 10
11.1521005438
 20
-7.0418546358
 11
11.1129501921
 21
-7.0618443847
  0
LINE
  5
30B
100
AcDbEntity
  8
RACCORDO
100
AcDbLine
 62
253
  6
CONTINUOUS
 10
11.3939131831
 20
-7.5192891818
 11
11.3570506821
 21
-7.5361181866
  0
LINE
  5
30C
100
AcDbEntity
  8
RACCORDO
100
AcDbLine
 62
253
  6
CONTINUOUS
 10
8.9249954018
 20
-4.5742660339
 11
18.2161214993
 21
-4.5742660339
  0
LINE
  5
30D
100
AcDbEntity
  8
RACCORDO
100
AcDbLine
 62
253
  6
CONTINUOUS
 10
47.9249954018
 20
-4.5742660339
 11
57.2161214993
 21
-4.5742660339
  0
LINE
  5
30E
100
AcDbEntity
  8
RACCORDO
100
AcDbLine
 62
253
  6
CONTINUOUS
 10
67.4413960768
 20
-2.5894758347
 11
64.4705584505
 21
-2.5894758347
  0
LINE
  5
30F
100
AcDbEntity
  8
RACCORDO
100
AcDbLine
 62
253
  6
CONTINUOUS
 10
28.4413960768
 20
-2.5894758347
 11
25.4705584505
 21
-2.5894758347
  0
LINE
  5
310
100
AcDbEntity
  8
RACCORDO
100
AcDbLine
 62
253
  6
CONTINUOUS
 10
67.1414417682
 20
-2.2877379535
 11
64.4705608286
 21
-2.2877379535
  0
LINE
  5
311
100
AcDbEntity
  8
RACCORDO
100
AcDbLine
 62
253
  6
CONTINUOUS
 10
28.1414417682
 20
-2.2877379535
 11
25.4705608286
 21
-2.2877379535
  0
LINE
  5
312
100
AcDbEntity
  8
DRAFT
100
AcDbLine
 62
7
  6
CONTINUOUS
 10
25.4705584505
 20
-2.2668546358
 11
28.1205584505
 21
-2.2668546358
  0
LINE
  5
313
100
AcDbEntity
  8
DRAFT
100
AcDbLine
 62
7
  6
CONTINUOUS
 10
64.4705584505
 20
-2.2668546358
 11
67.1205584505
 21
-2.2668546358
  0
LWPOLYLINE
  5
314
100
AcDbEntity
  8
RACCORDO
100
AcDbPolyline
 62
253
  6
CONTINUOUS
 90
88
 70
0
 10
25.4705584505
 20
-2.5894758347
 10
25.3863273545
 20
-2.5884190934
 10
25.3013292907
 20
-2.5847626979
 10
25.2155642591
 20
-2.578506648
 10
25.1288659696
 20
-2.5697066672
 10
25.0414007124
 20
-2.5583070306
 10
24.9536673578
 20
-2.5441405646
 10
24.8656677133
 20
-2.5271741231
 10
24.7773999714
 20
-2.5074408491
 10
24.6893575802
 20
-2.4848730024
 10
24.6015400429
 20
-2.4594353296
 10
24.5139478563
 20
-2.4311630793
 10
24.4270759589
 20
-2.4000942645
 10
24.3409324661
 20
-2.3661943601
 10
24.2555092627
 20
-2.3294978853
 10
24.1712769412
 20
-2.2901464189
 10
24.0882481829
 20
-2.2481060252
 10
24.0064103067
 20
-2.2034106335
 10
23.9261958615
 20
-2.156303621
 10
23.8476737827
 20
-2.1067984703
 10
23.770775135
 20
-2.0548816927
 10
23.6957256618
 20
-2.0007562089
 10
23.6227242043
 20
-1.9446200578
 10
23.5515719214
 20
-1.8862751951
 10
23.4818980328
 20
-1.8253304168
 10
23.413794789
 20
-1.7620673933
 10
23.3471699395
 20
-1.6962044478
 10
23.2813759531
 20
-1.6265053528
 10
23.2162141413
 20
-1.5530766734
 10
23.1518831926
 20
-1.4758118342
 10
23.088331641
 20
-1.3931548921
 10
23.025268708
 20
-1.3051259586
 10
22.962985172
 20
-1.2117049076
 10
22.9023019026
 20
-1.1112754341
 10
22.8428417775
 20
-1.0036531244
 10
22.784981919
 20
-0.8890223751
 10
22.7306745635
 20
-0.7663200931
 10
22.679607412
 20
-0.6352187454
 10
22.6320927635
 20
-0.496045853
 10
22.5910197517
 20
-0.3487209056
 10
22.556333395
 20
-0.191742575
 10
22.528088675
 20
-0.0266121947
 10
22.5093396697
 20
0.1422467427
 10
22.501181636
 20
0.3161111359
 10
22.5025193169
 20
0.49370405
 10
22.51312102
 20
0.6667712346
 10
22.5339938891
 20
0.8338736296
 10
22.5641307804
 20
0.9964502614
 10
22.6002785706
 20
1.1505640182
 10
22.6422675798
 20
1.294724701
 10
22.6902674879
 20
1.4304225065
 10
22.7415342112
 20
1.5581909248
 10
22.7957496876
 20
1.6778177586
 10
22.8532319791
 20
1.7895152177
 10
22.9121911882
 20
1.8944534029
 10
22.9722531357
 20
1.9924726673
 10
23.0337920006
 20
2.0837326743
 10
23.0961404225
 20
2.1698824863
 10
23.1590310497
 20
2.2509702286
 10
23.2227312338
 20
2.3269477893
 10
23.2873756691
 20
2.3993198704
 10
23.3527860465
 20
2.4682030405
 10
23.4191406752
 20
2.5334807404
 10
23.4871091766
 20
2.5963079756
 10
23.556826132
 20
2.6569835768
 10
23.62815696
 20
2.7152087193
 10
23.7013675386
 20
2.7712419232
 10
23.7766448197
 20
2.8252522471
 10
23.8538018512
 20
2.8770706378
 10
23.932543655
 20
2.9264484486
 10
24.012916442
 20
2.9733795745
 10
24.0948740013
 20
3.0178701267
 10
24.177982722
 20
3.0596897842
 10
24.262260982
 20
3.098806772
 10
24.3476904035
 20
3.1352528715
 10
24.4337822422
 20
3.1688930965
 10
24.5205443586
 20
3.1996910602
 10
24.6079688921
 20
3.2276831552
 10
24.6955435168
 20
3.2528435646
 10
24.7832669173
 20
3.2751354025
 10
24.871140409
 20
3.2945955594
 10
24.9586556113
 20
3.3113088821
 10
25.0458151949
 20
3.3252410056
 10
25.1326164892
 20
3.3364262977
 10
25.2185431012
 20
3.3450527044
 10
25.3034228999
 20
3.3511828747
 10
25.3874280164
 20
3.3547541608
 10
25.4705584505
 20
3.3557665632
  0
LWPOLYLINE
  5
315
100
AcDbEntity
  8
RACCORDO
100
AcDbPolyline
 62
253
  6
CONTINUOUS
 90
88
 70
0
 10
64.4705584505
 20
-2.5894758347
 10
64.3863273545
 20
-2.5884190934
 10
64.3013292907
 20
-2.5847626979
 10
64.2155642591
 20
-2.578506648
 10
64.1288659696
 20
-2.5697066672
 10
64.0414007124
 20
-2.5583070306
 10
63.9536673578
 20
-2.5441405646
 10
63.8656677133
 20
-2.5271741231
 10
63.7773999714
 20
-2.5074408491
 10
63.6893575802
 20
-2.4848730024
 10
63.6015400429
 20
-2.4594353296
 10
63.5139478563
 20
-2.4311630793
 10
63.4270759589
 20
-2.4000942645
 10
63.3409324661
 20
-2.3661943601
 10
63.2555092627
 20
-2.3294978853
 10
63.1712769412
 20
-2.2901464189
 10
63.0882481829
 20
-2.2481060252
 10
63.0064103067
 20
-2.2034106335
 10
62.9261958615
 20
-2.156303621
 10
62.8476737827
 20
-2.1067984703
 10
62.770775135
 20
-2.0548816927
 10
62.6957256618
 20
-2.0007562089
 10
62.6227242043
 20
-1.9446200578
 10
62.5515719214
 20
-1.8862751951
 10
62.4818980328
 20
-1.8253304168
 10
62.413794789
 20
-1.7620673933
 10
62.3471699395
 20
-1.6962044478
 10
62.2813759531
 20
-1.6265053528
 10
62.2162141413
 20
-1.5530766734
 10
62.1518831926
 20
-1.4758118342
 10
62.088331641
 20
-1.3931548921
 10
62.025268708
 20
-1.3051259586
 10
61.962985172
 20
-1.2117049076
 10
61.9023019026
 20
-1.1112754341
 10
61.8428417775
 20
-1.0036531244
 10
61.784981919
 20
-0.8890223751
 10
61.7306745635
 20
-0.7663200931
 10
61.679607412
 20
-0.6352187454
 10
61.6320927635
 20
-0.496045853
 10
61.5910197517
 20
-0.3487209056
 10
61.556333395
 20
-0.191742575
 10
61.528088675
 20
-0.0266121947
 10
61.5093396697
 20
0.1422467427
 10
61.501181636
 20
0.3161111359
 10
61.5025193169
 20
0.49370405
 10
61.51312102
 20
0.6667712346
 10
61.5339938891
 20
0.8338736296
 10
61.5641307804
 20
0.9964502614
 10
61.6002785706
 20
1.1505640182
 10
61.6422675798
 20
1.294724701
 10
61.6902674879
 20
1.4304225065
 10
61.7415342112
 20
1.5581909248
 10
61.7957496876
 20
1.6778177586
 10
61.8532319791
 20
1.7895152177
 10
61.9121911882
 20
1.8944534029
 10
61.9722531357
 20
1.9924726673
 10
62.0337920006
 20
2.0837326743
 10
62.0961404225
 20
2.1698824863
 10
62.1590310497
 20
2.2509702286
 10
62.2227312338
 20
2.3269477893
 10
62.2873756691
 20
2.3993198704
 10
62.3527860465
 20
2.4682030405
 10
62.4191406752
 20
2.5334807404
 10
62.4871091766
 20
2.5963079756
 10
62.556826132
 20
2.6569835768
 10
62.62815696
 20
2.7152087193
 10
62.7013675386
 20
2.7712419232
 10
62.7766448197
 20
2.8252522471
 10
62.8538018512
 20
2.8770706378
 10
62.932543655
 20
2.9264484486
 10
63.012916442
 20
2.9733795745
 10
63.0948740013
 20
3.0178701267
 10
63.177982722
 20
3.0596897842
 10
63.262260982
 20
3.098806772
 10
63.3476904035
 20
3.1352528715
 10
63.4337822422
 20
3.1688930965
 10
63.5205443586
 20
3.1996910602
 10
63.6079688921
 20
3.2276831552
 10
63.6955435168
 20
3.2528435646
 10
63.7832669173
 20
3.2751354025
 10
63.871140409
 20
3.2945955594
 10
63.9586556113
 20
3.3113088821
 10
64.0458151949
 20
3.3252410056
 10
64.1326164892
 20
3.3364262977
 10
64.2185431012
 20
3.3450527044
 10
64.3034228999
 20
3.3511828747
 10
64.3874280164
 20
3.3547541608
 10
64.4705584505
 20
3.3557665632
  0
LWPOLYLINE
  5
316
100
AcDbEntity
  8
RACCORDO
100
AcDbPolyline
 62
253
  6
CONTINUOUS
 90
88
 70
0
 10
25.4705608286
 20
-2.2877379535
 10
25.3948990313
 20
-2.2866662306
 10
25.3184214826
 20
-2.2834019665
 10
25.2411942078
 20
-2.2778724511
 10
25.1632195206
 20
-2.2699983193
 10
25.084640676
 20
-2.2597133852
 10
25.0057392796
 20
-2.2469850075
 10
24.9265985009
 20
-2.2317656163
 10
24.8472989115
 20
-2.2140088669
 10
24.7681168604
 20
-2.1937229793
 10
24.6891365554
 20
-2.1708843929
 10
24.6104458116
 20
-2.1454727093
 10
24.5323198493
 20
-2.1175400671
 10
24.4548433932
 20
-2.0870893791
 10
24.3781004852
 20
-2.0541258712
 10
24.302353356
 20
-2.018743906
 10
24.2276778183
 20
-1.9809704762
 10
24.1541522069
 20
-1.9408366385
 10
24.0820251168
 20
-1.8984802424
 10
24.01141031
 20
-1.8539845186
 10
23.9423199374
 20
-1.8073738302
 10
23.8748367653
 20
-1.7587192196
 10
23.809215231
 20
-1.7082357426
 10
23.7453034938
 20
-1.6558388457
 10
23.6826131313
 20
-1.6011021503
 10
23.6214182246
 20
-1.5442084579
 10
23.5616277369
 20
-1.4850146588
 10
23.5023478455
 20
-1.4224603039
 10
23.4437786299
 20
-1.3564682058
 10
23.386141355
 20
-1.2869817716
 10
23.328799682
 20
-1.2127921402
 10
23.2720821755
 20
-1.1337190383
 10
23.2164098719
 20
-1.0496904737
 10
23.1615530392
 20
-0.9595113552
 10
23.1079985539
 20
-0.8628773585
 10
23.0564469118
 20
-0.7598139969
 10
23.0072542496
 20
-0.6495455188
 10
22.9611441253
 20
-0.531832302
 10
22.9190214375
 20
-0.4068092464
 10
22.8817044525
 20
-0.2742937831
 10
22.8499337168
 20
-0.1333194893
 10
22.8250363827
 20
0.014854145
 10
22.8082929018
 20
0.1668633769
 10
22.8001931835
 20
0.3232327633
 10
22.8013692358
 20
0.4824850177
 10
22.8117176035
 20
0.6380943811
 10
22.8304605886
 20
0.788491473
 10
22.8570207168
 20
0.9343496901
 10
22.8900724548
 20
1.0726947053
 10
22.9282489897
 20
1.20230751
 10
22.9708042755
 20
1.3241915351
 10
23.017048074
 20
1.4388912255
 10
23.0661450114
 20
1.546365565
 10
23.1173735417
 20
1.6467820139
 10
23.1704591277
 20
1.741000815
 10
23.2247409603
 20
1.8290028318
 10
23.2797618959
 20
1.9110793011
 10
23.3358261236
 20
1.9884682495
 10
23.3925582421
 20
2.0612488537
 10
23.4496441157
 20
2.1295686589
 10
23.5077446831
 20
2.1946156182
 10
23.5666688509
 20
2.2564420602
 10
23.6262273156
 20
2.3151010944
 10
23.6873005675
 20
2.3716060891
 10
23.7500197487
 20
2.42611036
 10
23.8140966274
 20
2.4783944154
 10
23.8799107295
 20
2.5287803643
 10
23.9475950807
 20
2.5773349668
 10
24.0169164858
 20
2.6238565453
 10
24.0877303105
 20
2.6682328326
 10
24.1599992716
 20
2.7104293205
 10
24.233629669
 20
2.750380346
 10
24.3083755112
 20
2.7879539648
 10
24.3841628359
 20
2.8231245701
 10
24.4609090979
 20
2.8558652297
 10
24.5383381015
 20
2.8860802856
 10
24.6163646574
 20
2.9137687865
 10
24.6949030743
 20
2.9389321082
 10
24.7736640472
 20
2.9615192592
 10
24.8525590032
 20
2.981556125
 10
24.9315035162
 20
2.9990717832
 10
25.0102079147
 20
3.0140614672
 10
25.0885926155
 20
3.0265781035
 10
25.1665741988
 20
3.0366754588
 10
25.2438560837
 20
3.0443912503
 10
25.3202908876
 20
3.0497986809
 10
25.3958831424
 20
3.0529846614
 10
25.4705687387
 20
3.0540286818
  0
LINE
  5
317
100
AcDbEntity
  8
RACCORDO
100
AcDbLine
 62
253
  6
CONTINUOUS
 10
11.3939131831
 20
8.2855799102
 11
11.3570507371
 21
8.3024088891
  0
LINE
  5
318
100
AcDbEntity
  8
RACCORDO
100
AcDbLine
 62
253
  6
CONTINUOUS
 10
11.1521005438
 20
7.8081453642
 11
11.1129501929
 21
7.8281351131
  0
LINE
  5
319
100
AcDbEntity
  8
0
100
AcDbLine
 62
7
  6
CONTINUOUS
 10
17.2039256529
 20
22.8831453642
 11
17.2705584505
 21
22.7831453642
  0
LWPOLYLINE
  5
31A
100
AcDbEntity
  8
0
100
AcDbPolyline
 62
7
  6
CONTINUOUS
 90
4
 70
0
 43
0.3500000087
 10
34.5419867508
 20
36.9902882782
 10
34.5419867508
 20
37.6331436127
 10
36.041986084
 20
37.6331436127
 10
35.1848442169
 20
34.6331449463
  0
LINE
  5
31B
100
AcDbEntity
  8
0
100
AcDbLine
 62
7
  6
CONTINUOUS
 10
28.1205584505
 20
-1.8965982162
 11
24.9705584505
 21
-1.8965982162
  0
LINE
  5
31C
100
AcDbEntity
  8
0
100
AcDbLine
 62
7
  6
CONTINUOUS
 10
64.0705584505
 20
-1.8965982162
 11
67.1205584505
 21
-1.8965982162
  0
LINE
  5
31D
100
AcDbEntity
  8
0
100
AcDbLine
 62
7
  6
CONTINUOUS
 10
28.1205584505
 20
-1.4016234693
 11
24.9705584505
 21
-1.4016234693
  0
LINE
  5
31E
100
AcDbEntity
  8
0
100
AcDbLine
 62
7
  6
CONTINUOUS
 10
64.0705584505
 20
-1.4016234693
 11
67.1205584505
 21
-1.4016234693
  0
LWPOLYLINE
  5
31F
100
AcDbEntity
  8
0
100
AcDbPolyline
 62
7
  6
CONTINUOUS
 90
2
 70
0
 43
0.3500000087
 10
79.3705584106
 20
-0.9739967499
 10
77.8705569458
 20
-0.9739967499
  0
LINE
  5
320
100
AcDbEntity
  8
0
100
AcDbLine
 62
253
  6
CONTINUOUS
 10
28.1205584505
 20
-0.0115025641
 11
23.4705584505
 21
-0.0115025641
  0
LINE
  5
321
100
AcDbEntity
  8
0
100
AcDbLine
 62
253
  6
CONTINUOUS
 10
62.5705584505
 20
-0.0115025641
 11
67.1205584505
 21
-0.0115025641
  0
LINE
  5
322
100
AcDbEntity
  8
0
100
AcDbLine
 62
7
  6
CONTINUOUS
 10
67.1205584505
 20
0.2805967347
 11
62.5705584505
 21
0.2805967347
  0
LINE
  5
323
100
AcDbEntity
  8
0
100
AcDbLine
 62
7
  6
CONTINUOUS
 10
23.4705584505
 20
0.2805967347
 11
28.1205584505
 21
0.2805967347
  0
LWPOLYLINE
  5
324
100
AcDbEntity
  8
0
100
AcDbPolyline
 62
7
  6
CONTINUOUS
 90
4
 70
0
 43
0.3500000087
 10
77.013419342
 20
0.3831456055
 10
76.370555481
 20
0.3831456055
 10
76.370555481
 20
1.8831449387
 10
79.3705584106
 20
1.0260030716
  0
LINE
  5
325
100
AcDbEntity
  8
0
100
AcDbLine
 62
7
  6
CONTINUOUS
 10
67.1205584505
 20
0.4856939937
 11
62.5705584505
 21
0.4856939937
  0
LINE
  5
326
100
AcDbEntity
  8
0
100
AcDbLine
 62
7
  6
CONTINUOUS
 10
23.4705584505
 20
0.4856939937
 11
28.1205584505
 21
0.4856939937
  0
LWPOLYLINE
  5
327
100
AcDbEntity
  8
RACCORDO
100
AcDbPolyline
 62
253
  6
CONTINUOUS
 90
88
 70
0
 10
64.4705608286
 20
-2.2877379535
 10
64.3948990313
 20
-2.2866662306
 10
64.3184214826
 20
-2.2834019665
 10
64.2411942078
 20
-2.2778724511
 10
64.1632195206
 20
-2.2699983193
 10
64.084640676
 20
-2.2597133852
 10
64.0057392796
 20
-2.2469850075
 10
63.9265985009
 20
-2.2317656163
 10
63.8472989114
 20
-2.2140088669
 10
63.7681168604
 20
-2.1937229793
 10
63.6891365554
 20
-2.1708843929
 10
63.6104458116
 20
-2.1454727093
 10
63.5323198493
 20
-2.1175400671
 10
63.4548433932
 20
-2.0870893791
 10
63.3781004852
 20
-2.0541258712
 10
63.302353356
 20
-2.018743906
 10
63.2276778183
 20
-1.9809704762
 10
63.1541522069
 20
-1.9408366385
 10
63.0820251168
 20
-1.8984802424
 10
63.01141031
 20
-1.8539845186
 10
62.9423199374
 20
-1.8073738302
 10
62.8748367653
 20
-1.7587192196
 10
62.809215231
 20
-1.7082357426
 10
62.7453034938
 20
-1.6558388457
 10
62.6826131313
 20
-1.6011021503
 10
62.6214182246
 20
-1.5442084579
 10
62.5616277369
 20
-1.4850146588
 10
62.5023478455
 20
-1.4224603039
 10
62.4437786299
 20
-1.3564682058
 10
62.386141355
 20
-1.2869817716
 10
62.328799682
 20
-1.2127921402
 10
62.2720821755
 20
-1.1337190383
 10
62.2164098719
 20
-1.0496904737
 10
62.1615530392
 20
-0.9595113552
 10
62.1079985539
 20
-0.8628773585
 10
62.0564469118
 20
-0.7598139969
 10
62.0072542496
 20
-0.6495455188
 10
61.9611441253
 20
-0.531832302
 10
61.9190214375
 20
-0.4068092464
 10
61.8817044525
 20
-0.2742937831
 10
61.8499337168
 20
-0.1333194893
 10
61.8250363827
 20
0.014854145
 10
61.8082929018
 20
0.1668633769
 10
61.8001931835
 20
0.3232327633
 10
61.8013692358
 20
0.4824850177
 10
61.8117176035
 20
0.6380943811
 10
61.8304605886
 20
0.788491473
 10
61.8570207168
 20
0.9343496901
 10
61.8900724548
 20
1.0726947053
 10
61.9282489897
 20
1.20230751
 10
61.9708042755
 20
1.3241915351
 10
62.017048074
 20
1.4388912255
 10
62.0661450114
 20
1.546365565
 10
62.1173735417
 20
1.6467820139
 10
62.1704591277
 20
1.741000815
 10
62.2247409603
 20
1.8290028318
 10
62.2797618959
 20
1.9110793011
 10
62.3358261236
 20
1.9884682495
 10
62.3925582421
 20
2.0612488537
 10
62.4496441157
 20
2.1295686589
 10
62.5077446831
 20
2.1946156182
 10
62.5666688509
 20
2.2564420602
 10
62.6262273156
 20
2.3151010944
 10
62.6873005675
 20
2.3716060891
 10
62.7500197487
 20
2.42611036
 10
62.8140966274
 20
2.4783944154
 10
62.8799107295
 20
2.5287803643
 10
62.9475950807
 20
2.5773349668
 10
63.0169164858
 20
2.6238565453
 10
63.0877303105
 20
2.6682328326
 10
63.1599992716
 20
2.7104293205
 10
63.233629669
 20
2.750380346
 10
63.3083755112
 20
2.7879539648
 10
63.3841628359
 20
2.8231245701
 10
63.4609090979
 20
2.8558652297
 10
63.5383381015
 20
2.8860802856
 10
63.6163646574
 20
2.9137687865
 10
63.6949030743
 20
2.9389321082
 10
63.7736640472
 20
2.9615192592
 10
63.8525590032
 20
2.981556125
 10
63.9315035162
 20
2.9990717832
 10
64.0102079147
 20
3.0140614672
 10
64.0885926155
 20
3.0265781035
 10
64.1665741988
 20
3.0366754588
 10
64.2438560837
 20
3.0443912503
 10
64.3202908876
 20
3.0497986809
 10
64.3958831424
 20
3.0529846614
 10
64.4705687387
 20
3.0540286818
  0
LWPOLYLINE
  5
328
100
AcDbEntity
  8
RACCORDO
100
AcDbPolyline
 62
7
  6
CONTINUOUS
 90
7
 70
0
 10
49.0499497103
 20
5.637536624
 10
49.0474256345
 20
5.635728841
 10
49.042960793
 20
5.6314617299
 10
49.0365551856
 20
5.6249836295
 10
49.0279735171
 20
5.6165544004
 10
49.0174510827
 20
5.6064246104
 10
48.9927890137
 20
5.5820036016
  0
LINE
  5
329
100
AcDbEntity
  8
RACCORDO
100
AcDbLine
 62
253
  6
CONTINUOUS
 10
54.9890163573
 20
7.8081453642
 11
55.0281667089
 21
7.8281351131
  0
LINE
  5
32A
100
AcDbEntity
  8
RACCORDO
100
AcDbLine
 62
253
  6
CONTINUOUS
 10
54.7472037179
 20
8.2855799102
 11
54.7840662189
 21
8.3024089151
  0
LINE
  5
32B
100
AcDbEntity
  8
0
100
AcDbLine
 62
253
  6
CONTINUOUS
 10
28.1205584505
 20
0.7777932926
 11
23.4705584505
 21
0.7777932926
  0
LINE
  5
32C
100
AcDbEntity
  8
0
100
AcDbLine
 62
253
  6
CONTINUOUS
 10
62.5705584505
 20
0.7777932926
 11
67.1205584505
 21
0.7777932926
  0
LINE
  5
32D
100
AcDbEntity
  8
0
100
AcDbLine
 62
7
  6
CONTINUOUS
 10
28.1205584505
 20
2.1679141977
 11
24.9705584505
 21
2.1679141977
  0
LINE
  5
32E
100
AcDbEntity
  8
0
100
AcDbLine
 62
7
  6
CONTINUOUS
 10
64.0705584505
 20
2.1679141977
 11
67.1205584505
 21
2.1679141977
  0
LINE
  5
32F
100
AcDbEntity
  8
0
100
AcDbLine
 62
7
  6
CONTINUOUS
 10
28.1205584505
 20
2.6628889446
 11
24.9705584505
 21
2.6628889446
  0
LINE
  5
330
100
AcDbEntity
  8
0
100
AcDbLine
 62
7
  6
CONTINUOUS
 10
64.0705584505
 20
2.6628889446
 11
67.1205584505
 21
2.6628889446
  0
LINE
  5
331
100
AcDbEntity
  8
DRAFT
100
AcDbLine
 62
7
  6
CONTINUOUS
 10
67.1205584505
 20
3.0331453642
 11
64.4705584505
 21
3.0331453642
  0
LINE
  5
332
100
AcDbEntity
  8
DRAFT
100
AcDbLine
 62
7
  6
CONTINUOUS
 10
28.1205584505
 20
3.0331453642
 11
25.4705584505
 21
3.0331453642
  0
LINE
  5
333
100
AcDbEntity
  8
RACCORDO
100
AcDbLine
 62
253
  6
CONTINUOUS
 10
25.4705687387
 20
3.0540286819
 11
28.1414417682
 21
3.0540286819
  0
LINE
  5
334
100
AcDbEntity
  8
RACCORDO
100
AcDbLine
 62
253
  6
CONTINUOUS
 10
64.4705687387
 20
3.0540286819
 11
67.1414417682
 21
3.0540286819
  0
LINE
  5
335
100
AcDbEntity
  8
RACCORDO
100
AcDbLine
 62
253
  6
CONTINUOUS
 10
25.4705584505
 20
3.3557665632
 11
28.4413960768
 21
3.3557665632
  0
LINE
  5
336
100
AcDbEntity
  8
RACCORDO
100
AcDbLine
 62
253
  6
CONTINUOUS
 10
64.4705584505
 20
3.3557665632
 11
67.4413960768
 21
3.3557665632
  0
LINE
  5
337
100
AcDbEntity
  8
RACCORDO
100
AcDbLine
 62
253
  6
CONTINUOUS
 10
54.7472037179
 20
-7.5192891818
 11
54.784066164
 21
-7.5361181607
  0
LINE
  5
338
100
AcDbEntity
  8
RACCORDO
100
AcDbLine
 62
253
  6
CONTINUOUS
 10
54.9890163573
 20
-7.0418546358
 11
55.0281667081
 21
-7.0618443847
  0
LWPOLYLINE
  5
339
100
AcDbEntity
  8
RACCORDO
100
AcDbPolyline
 62
7
  6
CONTINUOUS
 90
6
 70
0
 10
48.2249497103
 20
-4.8712458956
 10
48.2224815883
 20
-4.8694636763
 10
48.2180674509
 20
-4.8652516432
 10
48.211707298
 20
-4.8588399784
 10
48.2031726134
 20
-4.8504680701
 10
48.1926919133
 20
-4.8403731037
  0
LWPOLYLINE
  5
33A
100
AcDbEntity
  8
RACCORDO
100
AcDbPolyline
 62
253
  6
CONTINUOUS
 90
16
 70
0
 10
50.1129497045
 20
-7.3664484495
 10
50.1376656856
 20
-7.3846762196
 10
50.1625660232
 20
-7.4022593169
 10
50.1871775138
 20
-7.4191992134
 10
50.210693789
 20
-7.4358191591
 10
50.2329631101
 20
-7.4518456209
 10
50.2543800986
 20
-7.4665174428
 10
50.2740870451
 20
-7.4803327378
 10
50.2917522989
 20
-7.4932006432
 10
50.3081972149
 20
-7.5039248064
 10
50.32257414
 20
-7.5134036245
 10
50.3340667012
 20
-7.5219006594
 10
50.3435354693
 20
-7.5278809736
 10
50.3511018371
 20
-7.5314324172
 10
50.3558413842
 20
-7.5339491673
 10
50.3570503627
 20
-7.5361186745
  0
LINE
  5
33B
100
AcDbEntity
  8
0
100
AcDbLine
 62
7
  6
CONTINUOUS
 10
55.6705584505
 20
22.7831453642
 11
55.7371912481
 21
22.8831453642
  0
LINE
  5
33C
100
AcDbEntity
  8
RACCORDO
100
AcDbLine
 62
7
  6
CONTINUOUS
 10
49.0499497103
 20
5.637536624
 11
49.0705584505
 21
5.6581453642
  0
LINE
  5
33D
100
AcDbEntity
  8
RACCORDO
100
AcDbLine
 62
7
  6
CONTINUOUS
 10
48.8241134426
 20
5.4146089074
 11
48.7684836548
 21
5.3589067459
  0
LINE
  5
33E
100
AcDbEntity
  8
RACCORDO
100
AcDbLine
 62
7
  6
CONTINUOUS
 10
48.7684836548
 20
5.3589067459
 11
48.7499954018
 21
5.3405567623
  0
LINE
  5
33F
100
AcDbEntity
  8
RACCORDO
100
AcDbLine
 62
7
  6
CONTINUOUS
 10
48.9315764201
 20
5.5215547342
 11
48.8241134426
 21
5.4146089074
  0
LINE
  5
340
100
AcDbEntity
  8
RACCORDO
100
AcDbLine
 62
7
  6
CONTINUOUS
 10
48.9480430822
 20
5.5377911637
 11
48.9315764201
 21
5.5215547342
  0
LWPOLYLINE
  5
341
100
AcDbEntity
  8
RACCORDO
100
AcDbPolyline
 62
7
  6
CONTINUOUS
 90
3
 70
0
 10
48.9927890137
 20
5.5820036016
 10
48.978649379
 20
5.5681760644
 10
48.9480430822
 20
5.5377911637
  0
LINE
  5
342
100
AcDbEntity
  8
RACCORDO
100
AcDbLine
 62
253
  6
CONTINUOUS
 10
56.3911214993
 20
5.3405567623
 11
48.7499954018
 21
5.3405567623
  0
LINE
  5
343
100
AcDbEntity
  8
RACCORDO
100
AcDbLine
 62
253
  6
CONTINUOUS
 10
17.3911214993
 20
5.3405567623
 11
9.7499954018
 21
5.3405567623
  0
LINE
  5
344
100
AcDbEntity
  8
RACCORDO
100
AcDbLine
 62
253
  6
CONTINUOUS
 10
56.0911671907
 20
5.637536624
 11
49.0499497103
 21
5.637536624
  0
LINE
  5
345
100
AcDbEntity
  8
RACCORDO
100
AcDbLine
 62
253
  6
CONTINUOUS
 10
17.0911671907
 20
5.637536624
 11
10.0499497103
 21
5.637536624
  0
LINE
  5
346
100
AcDbEntity
  8
DRAFT
100
AcDbLine
 62
7
  6
CONTINUOUS
 10
10.0705584505
 20
5.6581453642
 11
17.0705584505
 21
5.6581453642
  0
LINE
  5
347
100
AcDbEntity
  8
DRAFT
100
AcDbLine
 62
7
  6
CONTINUOUS
 10
49.0705584505
 20
5.6581453642
 11
56.0705584505
 21
5.6581453642
  0
LWPOLYLINE
  5
348
100
AcDbEntity
  8
RACCORDO
100
AcDbPolyline
 62
7
  6
CONTINUOUS
 90
3
 70
0
 10
48.1926919133
 20
-4.8403731037
 10
48.1680267763
 20
-4.8159522398
 10
48.1538423394
 20
-4.8020792907
  0
LINE
  5
349
100
AcDbEntity
  8
RACCORDO
100
AcDbLine
 62
7
  6
CONTINUOUS
 10
48.1538423394
 20
-4.8020792907
 11
48.053957907
 21
-4.7029689361
  0
LINE
  5
34A
100
AcDbEntity
  8
RACCORDO
100
AcDbLine
 62
7
  6
CONTINUOUS
 10
48.2250032056
 20
-4.8712993909
 11
48.2455584505
 21
-4.8918546358
  0
LINE
  5
34B
100
AcDbEntity
  8
RACCORDO
100
AcDbLine
 62
7
  6
CONTINUOUS
 10
48.053957907
 20
-4.7029689361
 11
47.9249954018
 21
-4.5742660339
  0
LWPOLYLINE
  5
34C
100
AcDbEntity
  8
RACCORDO
100
AcDbPolyline
 62
253
  6
CONTINUOUS
 90
36
 70
0
 10
50.3554147203
 20
-10.6932921907
 10
50.279038249
 20
-10.5801455595
 10
50.2106500225
 20
-10.4671808011
 10
50.1499539354
 20
-10.3551922669
 10
50.0964170241
 20
-10.2445441335
 10
50.049561493
 20
-10.135618288
 10
50.0090278419
 20
-10.0290515789
 10
49.9742866852
 20
-9.9250285462
 10
49.9446966175
 20
-9.8231435759
 10
49.9199341669
 20
-9.7238138599
 10
49.8995983597
 20
-9.6271363255
 10
49.8831486646
 20
-9.5321191157
 10
49.8703622737
 20
-9.4389590251
 10
49.861005195
 20
-9.3477671536
 10
49.8547815831
 20
-9.2573556716
 10
49.8515919118
 20
-9.1677184548
 10
49.8513459857
 20
-9.0790701853
 10
49.8539867367
 20
-8.9905300327
 10
49.8595222914
 20
-8.9019671234
 10
49.8679369348
 20
-8.8137006821
 10
49.8792581571
 20
-8.7255266344
 10
49.8935316113
 20
-8.6373446279
 10
49.9107420567
 20
-8.5494528491
 10
49.93082081
 20
-8.4622436602
 10
49.9537575448
 20
-8.375745661
 10
49.9795067478
 20
-8.290116145
 10
50.007865923
 20
-8.2059187823
 10
50.0387461334
 20
-8.1232396518
 10
50.0720671959
 20
-8.0421320118
 10
50.1075495688
 20
-7.9630728495
 10
50.1450361148
 20
-7.8861640872
 10
50.1844297587
 20
-7.8113756698
 10
50.2254815031
 20
-7.7389496826
 10
50.2680066187
 20
-7.6689664144
 10
50.3119076515
 20
-7.6013567157
 10
50.3570506821
 20
-7.5361181866
  0
LWPOLYLINE
  5
34D
100
AcDbEntity
  8
RACCORDO
100
AcDbPolyline
 62
253
  6
CONTINUOUS
 90
36
 70
0
 10
50.1111682589
 20
-10.8744606504
 10
50.0265928233
 20
-10.7482857833
 10
49.9504156887
 20
-10.6229476259
 10
49.8828737776
 20
-10.4988050746
 10
49.8237301674
 20
-10.3754992799
 10
49.7715240589
 20
-10.2545486086
 10
49.7262992043
 20
-10.1363614753
 10
49.6880118514
 20
-10.0205295552
 10
49.655069944
 20
-9.9073461316
 10
49.6273597603
 20
-9.7971223001
 10
49.6049950223
 20
-9.6895470523
 10
49.5867248392
 20
-9.5839805088
 10
49.5723630576
 20
-9.4805518522
 10
49.562095831
 20
-9.3791319604
 10
49.5552307286
 20
-9.2786934739
 10
49.551599013
 20
-9.1791456135
 10
49.5513694217
 20
-9.0805791885
 10
49.5543557367
 20
-8.9822392018
 10
49.5604867452
 20
-8.8838783081
 10
49.5698336601
 20
-8.7857438636
 10
49.582423902
 20
-8.6878229147
 10
49.5982999022
 20
-8.5898958815
 10
49.6174192294
 20
-8.4921823545
 10
49.6396820096
 20
-8.3953281429
 10
49.6651718676
 20
-8.2992804003
 10
49.6938051786
 20
-8.2040919974
 10
49.7252311948
 20
-8.1105673333
 10
49.7595134833
 20
-8.0187588867
 10
49.7965884769
 20
-7.9286142171
 10
49.8359147259
 20
-7.8407803579
 10
49.8775060119
 20
-7.7553674888
 10
49.9213485534
 20
-7.6722654755
 10
49.9668595555
 20
-7.5917908879
 10
50.0138447535
 20
-7.514049265
 10
50.0624984122
 20
-7.4389351121
 10
50.1128205315
 20
-7.3664484495
  0
LINE
  5
34E
100
AcDbEntity
  8
0
100
AcDbLine
 62
7
  6
CONTINUOUS
 10
55.7371912481
 20
-22.1168546358
 11
55.6705584505
 21
-22.0168546358
  0
LWPOLYLINE
  5
34F
100
AcDbEntity
  8
RACCORDO
100
AcDbPolyline
 62
253
  6
CONTINUOUS
 90
16
 70
0
 10
50.3570503627
 20
8.302409403
 10
50.3558411772
 20
8.3002401745
 10
50.3511014575
 20
8.2977236662
 10
50.3435349631
 20
8.2941724241
 10
50.3340660994
 20
8.2881922704
 10
50.32257345
 20
8.279695363
 10
50.3081964529
 20
8.270216643
 10
50.2917515073
 20
8.2594925316
 10
50.2740862608
 20
8.246624624
 10
50.2543793464
 20
8.2328092865
 10
50.2329624155
 20
8.2181373837
 10
50.210693185
 20
8.2021107933
 10
50.1871770259
 20
8.1854906771
 10
50.1625656736
 20
8.1685505722
 10
50.1376654991
 20
8.1509672283
 10
50.1129497045
 20
8.1327391779
  0
LINE
  5
350
100
AcDbEntity
  8
RACCORDO
100
AcDbLine
 62
7
  6
CONTINUOUS
 10
56.3721394696
 20
8.1144964502
 11
56.390502508
 21
8.1327391779
  0
LWPOLYLINE
  5
351
100
AcDbEntity
  8
RACCORDO
100
AcDbPolyline
 62
7
  6
CONTINUOUS
 90
7
 70
0
 10
56.0905481994
 20
7.8281351131
 10
56.0927096364
 20
7.8301349294
 10
56.0968640028
 20
7.8348307661
 10
56.1030112987
 20
7.8418552535
 10
56.1113818456
 20
7.8507883273
 10
56.1217453219
 20
7.8613093993
 10
56.1463039458
 20
7.8866186428
  0
LWPOLYLINE
  5
352
100
AcDbEntity
  8
RACCORDO
100
AcDbPolyline
 62
253
  6
CONTINUOUS
 90
22
 70
0
 10
50.1129497045
 20
7.8281351131
 10
50.1441658022
 20
7.8297837105
 10
50.1750426074
 20
7.8346746368
 10
50.2052445158
 20
7.8427547319
 10
50.2344432581
 20
7.8539361718
 10
50.2623214691
 20
7.868097424
 10
50.2885761363
 20
7.8850845677
 10
50.3129218938
 20
7.904712967
 10
50.3350941241
 20
7.9267692781
 10
50.3548518338
 20
7.9510137676
 10
50.3719802734
 20
7.9771829186
 10
50.3862932715
 20
8.0049922947
 10
50.397635258
 20
8.0341396316
 10
50.405882955
 20
8.0643081228
 10
50.4109467172
 20
8.0951698623
 10
50.4127715059
 20
8.1263894093
 10
50.411337487
 20
8.157627434
 10
50.4066602471
 20
8.1885444058
 10
50.398790624
 20
8.2188042833
 10
50.3878141536
 20
8.2480781676
 10
50.3738501409
 20
8.2760478764
 10
50.3570503627
 20
8.302409403
  0
LINE
  5
353
100
AcDbEntity
  8
RACCORDO
100
AcDbLine
 62
7
  6
CONTINUOUS
 10
56.0705584505
 20
7.8081453642
 11
54.9890163573
 21
7.8081453642
  0
LINE
  5
354
100
AcDbEntity
  8
RACCORDO
100
AcDbLine
 62
7
  6
CONTINUOUS
 10
50.1521005438
 20
7.8081453642
 11
49.0705584505
 21
7.8081453642
  0
LINE
  5
355
100
AcDbEntity
  8
RACCORDO
100
AcDbLine
 62
7
  6
CONTINUOUS
 10
17.0705584505
 20
7.8081453642
 11
15.9890163573
 21
7.8081453642
  0
LINE
  5
356
100
AcDbEntity
  8
RACCORDO
100
AcDbLine
 62
7
  6
CONTINUOUS
 10
11.1521005438
 20
7.8081453642
 11
10.0705584505
 21
7.8081453642
  0
LINE
  5
357
100
AcDbEntity
  8
RACCORDO
100
AcDbLine
 62
253
  6
CONTINUOUS
 10
10.0505687016
 20
7.8281351131
 11
11.1129501929
 21
7.8281351131
  0
LINE
  5
358
100
AcDbEntity
  8
RACCORDO
100
AcDbLine
 62
253
  6
CONTINUOUS
 10
16.0281672493
 20
7.8281351131
 11
17.0905481994
 21
7.8281351131
  0
LINE
  5
359
100
AcDbEntity
  8
RACCORDO
100
AcDbLine
 62
253
  6
CONTINUOUS
 10
49.0505687016
 20
7.8281351131
 11
50.1129501929
 21
7.8281351131
  0
LINE
  5
35A
100
AcDbEntity
  8
RACCORDO
100
AcDbLine
 62
253
  6
CONTINUOUS
 10
55.0281667089
 20
7.8281351131
 11
56.0905481994
 21
7.8281351131
  0
LINE
  5
35B
100
AcDbEntity
  8
RACCORDO
100
AcDbLine
 62
253
  6
CONTINUOUS
 10
16.0282963695
 20
8.1327391779
 11
17.390502508
 21
8.1327391779
  0
LINE
  5
35C
100
AcDbEntity
  8
RACCORDO
100
AcDbLine
 62
253
  6
CONTINUOUS
 10
48.7506143931
 20
8.1327391779
 11
50.113039878
 21
8.1327391779
  0
LINE
  5
35D
100
AcDbEntity
  8
RACCORDO
100
AcDbLine
 62
253
  6
CONTINUOUS
 10
9.7506143931
 20
8.1327391779
 11
11.113039855
 21
8.1327392137
  0
LINE
  5
35E
100
AcDbEntity
  8
RACCORDO
100
AcDbLine
 62
253
  6
CONTINUOUS
 10
55.0282963913
 20
8.1327392116
 11
56.390502508
 21
8.1327391779
  0
LWPOLYLINE
  5
35F
100
AcDbEntity
  8
RACCORDO
100
AcDbPolyline
 62
7
  6
CONTINUOUS
 90
22
 70
0
 10
54.9890163573
 20
7.8081453642
 10
54.9572346188
 20
7.8099286027
 10
54.9264639596
 20
7.8147762524
 10
54.8967043796
 20
7.8226883135
 10
54.8676910674
 20
7.833778875
 10
54.8396888344
 20
7.8479338478
 10
54.8134921147
 20
7.8648109647
 10
54.7890939392
 20
7.8845008096
 10
54.766501277
 20
7.9069127986
 10
54.7465294693
 20
7.9314329122
 10
54.7292405477
 20
7.9582611571
 10
54.7145724808
 20
7.9871975267
 10
54.7031545153
 20
8.0170279821
 10
54.6951916038
 20
8.0477131973
 10
54.6904787939
 20
8.0792924982
 10
54.689030475
 20
8.1106698234
 10
54.6909151451
 20
8.1417361245
 10
54.6960643064
 20
8.1726004498
 10
54.7042868546
 20
8.2024938827
 10
54.7155190887
 20
8.2311601177
 10
54.7298247098
 20
8.2588554601
 10
54.7472037179
 20
8.2855799102
  0
LWPOLYLINE
  5
360
100
AcDbEntity
  8
RACCORDO
100
AcDbPolyline
 62
7
  6
CONTINUOUS
 90
22
 70
0
 10
15.9890163573
 20
7.8081453642
 10
15.9571886074
 20
7.8099477222
 10
15.9263967509
 20
7.8148022243
 10
15.8966407876
 20
7.8227088705
 10
15.86767641
 20
7.8337679841
 10
15.8397479256
 20
7.8478792418
 10
15.8135882572
 20
7.864741674
 10
15.789150049
 20
7.8844749725
 10
15.7664806567
 20
7.9069594454
 10
15.7464550703
 20
7.931535048
 10
15.7291628055
 20
7.9583903178
 10
15.7145143466
 20
7.9873367171
 10
15.7031161371
 20
8.0171485885
 10
15.695166142
 20
8.0477576017
 10
15.6904663963
 20
8.079232087
 10
15.6890294485
 20
8.1105513769
 10
15.6909242185
 20
8.1416562405
 10
15.6960817865
 20
8.1726059087
 10
15.7043079415
 20
8.2025574072
 10
15.7155379465
 20
8.2312297445
 10
15.7298365386
 20
8.258903912
 10
15.7472037178
 20
8.2855799099
  0
LWPOLYLINE
  5
361
100
AcDbEntity
  8
RACCORDO
100
AcDbPolyline
 62
7
  6
CONTINUOUS
 90
6
 70
0
 10
56.9155481994
 20
-7.0618443847
 10
56.9177891463
 20
-7.0638844185
 10
56.9220163816
 20
-7.0686666974
 10
56.9282299052
 20
-7.0757943225
 10
56.936670479
 20
-7.084814617
 10
56.9470973411
 20
-7.0953870157
  0
LWPOLYLINE
  5
362
100
AcDbEntity
  8
RACCORDO
100
AcDbPolyline
 62
253
  6
CONTINUOUS
 90
22
 70
0
 10
54.7840665383
 20
8.302409403
 10
54.7672667602
 20
8.2760478764
 10
54.7533027474
 20
8.2480781676
 10
54.742326277
 20
8.2188042833
 10
54.7344566538
 20
8.1885444057
 10
54.729779414
 20
8.157627434
 10
54.7283453951
 20
8.1263894093
 10
54.7301701837
 20
8.0951698622
 10
54.7352339459
 20
8.0643081227
 10
54.743481643
 20
8.0341396316
 10
54.7548236294
 20
8.0049922946
 10
54.7691366275
 20
7.9771829185
 10
54.7862650672
 20
7.9510137675
 10
54.8060227769
 20
7.926769278
 10
54.8281950071
 20
7.904712967
 10
54.8525407646
 20
7.8850845676
 10
54.8787954318
 20
7.868097424
 10
54.9066736428
 20
7.8539361718
 10
54.9358723852
 20
7.8427547318
 10
54.9660742936
 20
7.8346746368
 10
54.9969510989
 20
7.8297837105
 10
55.0281671965
 20
7.8281351131
  0
LWPOLYLINE
  5
363
100
AcDbEntity
  8
RACCORDO
100
AcDbPolyline
 62
7
  6
CONTINUOUS
 90
3
 70
0
 10
56.1463039458
 20
7.8866186428
 10
56.1604990933
 20
7.9009642625
 10
56.1913468715
 20
7.9324110341
  0
LINE
  5
364
100
AcDbEntity
  8
RACCORDO
100
AcDbLine
 62
7
  6
CONTINUOUS
 10
56.1913468715
 20
7.9324110341
 11
56.2977710864
 21
8.0397817614
  0
LINE
  5
365
100
AcDbEntity
  8
RACCORDO
100
AcDbLine
 62
7
  6
CONTINUOUS
 10
56.2977710864
 20
8.0397817614
 11
56.3721394696
 21
8.1144964502
  0
LINE
  5
366
100
AcDbEntity
  8
RACCORDO
100
AcDbLine
 62
7
  6
CONTINUOUS
 10
56.0705584505
 20
7.8081453642
 11
56.0906277659
 21
7.8282146796
  0
LWPOLYLINE
  5
367
100
AcDbEntity
  8
RACCORDO
100
AcDbPolyline
 62
253
  6
CONTINUOUS
 90
22
 70
0
 10
11.1129497045
 20
7.8281351131
 10
11.1441658022
 20
7.8297837105
 10
11.1750426074
 20
7.8346746368
 10
11.2052445158
 20
7.8427547319
 10
11.2344432581
 20
7.8539361718
 10
11.2623214691
 20
7.868097424
 10
11.2885761363
 20
7.8850845677
 10
11.3129218938
 20
7.904712967
 10
11.3350941241
 20
7.9267692781
 10
11.3548518338
 20
7.9510137676
 10
11.3719802734
 20
7.9771829186
 10
11.3862932715
 20
8.0049922947
 10
11.397635258
 20
8.0341396316
 10
11.405882955
 20
8.0643081228
 10
11.4109467172
 20
8.0951698623
 10
11.4127715059
 20
8.1263894093
 10
11.411337487
 20
8.157627434
 10
11.4066602471
 20
8.1885444058
 10
11.398790624
 20
8.2188042833
 10
11.3878141536
 20
8.2480781676
 10
11.3738501409
 20
8.2760478764
 10
11.3570503627
 20
8.302409403
  0
LINE
  5
368
100
AcDbEntity
  8
RACCORDO
100
AcDbLine
 62
7
  6
CONTINUOUS
 10
55.2226671253
 20
9.3831453642
 11
49.9184497757
 21
9.3831453642
  0
LINE
  5
369
100
AcDbEntity
  8
RACCORDO
100
AcDbLine
 62
7
  6
CONTINUOUS
 10
16.2226671253
 20
9.3831453642
 11
10.9184497757
 21
9.3831453642
  0
LINE
  5
36A
100
AcDbEntity
  8
RACCORDO
100
AcDbLine
 62
7
  6
CONTINUOUS
 10
57.1968802684
 20
-7.3479458522
 11
57.215502508
 21
-7.3664484495
  0
LINE
  5
36B
100
AcDbEntity
  8
RACCORDO
100
AcDbLine
 62
7
  6
CONTINUOUS
 10
56.9156277659
 20
-7.0619239512
 11
56.8955584505
 21
-7.0418546358
  0
LINE
  5
36C
100
AcDbEntity
  8
RACCORDO
100
AcDbLine
 62
7
  6
CONTINUOUS
 10
57.0164206531
 20
-7.1661966999
 11
57.1968802684
 21
-7.3479458522
  0
LWPOLYLINE
  5
36D
100
AcDbEntity
  8
RACCORDO
100
AcDbPolyline
 62
7
  6
CONTINUOUS
 90
3
 70
0
 10
56.9716540552
 20
-7.1206933575
 10
57.0007225326
 20
-7.150186918
 10
57.0164206531
 20
-7.1661966999
  0
LINE
  5
36E
100
AcDbEntity
  8
RACCORDO
100
AcDbLine
 62
7
  6
CONTINUOUS
 10
56.9470973411
 20
-7.0953870157
 11
56.9716540552
 21
-7.1206933575
  0
LWPOLYLINE
  5
36F
100
AcDbEntity
  8
RACCORDO
100
AcDbPolyline
 62
253
  6
CONTINUOUS
 90
65
 70
0
 10
55.0280770446
 20
-7.366448483
 10
55.0833900041
 20
-7.446473535
 10
55.1362058104
 20
-7.5286199473
 10
55.1865244635
 20
-7.6128877012
 10
55.2345185476
 20
-7.6995671079
 10
55.2800154784
 20
-7.7883678147
 10
55.3224975037
 20
-7.8784188145
 10
55.3618341254
 20
-7.9695860995
 10
55.3981558417
 20
-8.0620036498
 10
55.4313363945
 20
-8.1552024506
 10
55.4613068095
 20
-8.2489005781
 10
55.4881360611
 20
-8.3433799364
 10
55.511904814
 20
-8.4390172531
 10
55.5326874088
 20
-8.5354890519
 10
55.550409505
 20
-8.6331187806
 10
55.5649287455
 20
-8.7332535349
 10
55.5764870398
 20
-8.835775944
 10
55.5848424785
 20
-8.9408033157
 10
55.5891269754
 20
-9.0500347272
 10
55.5896431817
 20
-9.1637328785
 10
55.5860884464
 20
-9.28163495
 10
55.57668673
 20
-9.4046517019
 10
55.5616049213
 20
-9.5333463424
 10
55.5406761315
 20
-9.6671554902
 10
55.5116236548
 20
-9.8053000141
 10
55.4742563256
 20
-9.9485026572
 10
55.4287653095
 20
-10.0960404964
 10
55.3734473968
 20
-10.2449659614
 10
55.3077177486
 20
-10.395729369
 10
55.2321612038
 20
-10.5478803165
 10
55.1468290703
 20
-10.6971202926
 10
55.0512026846
 20
-10.8432072408
 10
54.9458007103
 20
-10.9863833092
 10
54.8322304462
 20
-11.1230764472
 10
54.7103895659
 20
-11.2527321918
 10
54.5803803959
 20
-11.3759052322
 10
54.4441172146
 20
-11.4906873432
 10
54.3017347073
 20
-11.5967219788
 10
54.1530981888
 20
-11.6943659418
 10
53.9997178823
 20
-11.7827810641
 10
53.8415984702
 20
-11.8618863144
 10
53.6787352702
 20
-11.9317629456
 10
53.512624459
 20
-11.9918162179
 10
53.3431624957
 20
-12.0419891306
 10
53.1704529213
 20
-12.0823388442
 10
52.9963025357
 20
-12.1124418492
 10
52.8207358025
 20
-12.1321919838
 10
52.6437282581
 20
-12.1416954865
 10
52.4670133119
 20
-12.1408474276
 10
52.2906450133
 20
-12.1295822619
 10
52.1145693128
 20
-12.1079655158
 10
51.9403574713
 20
-12.0760888437
 10
51.7678340305
 20
-12.0337960002
 10
51.5971744487
 20
-11.9812431167
 10
51.4304763612
 20
-11.918990395
 10
51.2675490216
 20
-11.8466285527
 10
51.1085831764
 20
-11.7645666791
 10
50.9562486999
 20
-11.6745925401
 10
50.8107669692
 20
-11.5763124907
 10
50.6719166072
 20
-11.4701199635
 10
50.5417033576
 20
-11.3589833948
 10
50.420625395
 20
-11.2428302142
 10
50.3081845448
 20
-11.1217328448
 10
50.204892027
 20
-10.9988773082
 10
50.1111682589
 20
-10.8744606504
  0
LWPOLYLINE
  5
370
100
AcDbEntity
  8
RACCORDO
100
AcDbPolyline
 62
253
  6
CONTINUOUS
 90
65
 70
0
 10
54.784066164
 20
-7.5361181607
 10
54.8336934765
 20
-7.6080650843
 10
54.8812668833
 20
-7.6820271747
 10
54.9266926838
 20
-7.7579552944
 10
54.969976693
 20
-7.8359816088
 10
55.0109150263
 20
-7.9158690162
 10
55.0491560143
 20
-7.9969794892
 10
55.0846049893
 20
-8.0790721738
 10
55.1173030008
 20
-8.1621990261
 10
55.1471758259
 20
-8.2461263093
 10
55.1741384099
 20
-8.3305063484
 10
55.1982760006
 20
-8.4154866101
 10
55.2197290211
 20
-8.5015883367
 10
55.2383826282
 20
-8.5884522312
 10
55.254251949
 20
-8.6762663158
 10
55.2674725536
 20
-8.7664109166
 10
55.2778319272
 20
-8.8586910129
 10
55.285147012
 20
-8.9531401559
 10
55.2892581593
 20
-9.0515030209
 10
55.2897546728
 20
-9.1538148925
 10
55.2862076177
 20
-9.2597849319
 10
55.2780571488
 20
-9.3706322195
 10
55.2646459533
 20
-9.4864545074
 10
55.2453628459
 20
-9.606629831
 10
55.2194776315
 20
-9.7311998984
 10
55.1861608318
 20
-9.860183667
 10
55.1447923438
 20
-9.9926071937
 10
55.0950476691
 20
-10.1269430833
 10
55.0362385376
 20
-10.2629085961
 10
54.9679832824
 20
-10.3994530243
 10
54.8909258341
 20
-10.5339954853
 10
54.8050062812
 20
-10.665830604
 10
54.7101275365
 20
-10.7943588868
 10
54.607529588
 20
-10.9174735659
 10
54.4977589575
 20
-11.0344295495
 10
54.3809053026
 20
-11.1450473897
 10
54.2579324345
 20
-11.2483877538
 10
54.1295443349
 20
-11.343957603
 10
53.9959930576
 20
-11.4316629663
 10
53.8576734472
 20
-11.5112926015
 10
53.7151030172
 20
-11.5825863553
 10
53.5687602066
 20
-11.6453414107
 10
53.4189756531
 20
-11.6994308222
 10
53.2661870651
 20
-11.7446853873
 10
53.1109892581
 20
-11.7809178373
 10
52.9539521804
 20
-11.8079949429
 10
52.7956520684
 20
-11.8258236333
 10
52.6365958729
 20
-11.8343528638
 10
52.4772566609
 20
-11.8335537868
 10
52.3182352831
 20
-11.8234242991
 10
52.1600236864
 20
-11.8039904527
 10
52.0029360537
 20
-11.7752597643
 10
51.8473518208
 20
-11.7372334237
 10
51.6939981926
 20
-11.6900197489
 10
51.5436993957
 20
-11.6338454163
 10
51.3966898002
 20
-11.5687687513
 10
51.2537852473
 20
-11.4951205714
 10
51.1165462986
 20
-11.4138299753
 10
50.9852507985
 20
-11.3253089545
 10
50.8603084857
 20
-11.2300882
 10
50.7431568601
 20
-11.1297041758
 10
50.6339641994
 20
-11.0249478964
 10
50.5326299635
 20
-10.9163908548
 10
50.4398147069
 20
-10.8055467602
 10
50.3554147203
 20
-10.6932921907
  0
LWPOLYLINE
  5
371
100
AcDbEntity
  8
RACCORDO
100
AcDbPolyline
 62
7
  6
CONTINUOUS
 90
22
 70
0
 10
54.7472037179
 20
-7.5192891817
 10
54.7298365386
 20
-7.4926131838
 10
54.7155379463
 20
-7.4649390162
 10
54.7043079411
 20
-7.4362666788
 10
54.6960817861
 20
-7.4063151803
 10
54.6909242182
 20
-7.3753655121
 10
54.6890294482
 20
-7.3442606485
 10
54.6904663959
 20
-7.3129413586
 10
54.6951661416
 20
-7.2814668733
 10
54.7031161368
 20
-7.25085786
 10
54.7145143463
 20
-7.2210459886
 10
54.7291628052
 20
-7.1920995892
 10
54.7464550701
 20
-7.1652443195
 10
54.7664806564
 20
-7.1406687169
 10
54.7891500488
 20
-7.118184244
 10
54.8135882571
 20
-7.0984509455
 10
54.8397479255
 20
-7.0815885133
 10
54.8676764099
 20
-7.0674772556
 10
54.8966407875
 20
-7.056418142
 10
54.9263967508
 20
-7.0485114958
 10
54.9571886074
 20
-7.0436569937
 10
54.9890163573
 20
-7.0418546358
  0
LINE
  5
372
100
AcDbEntity
  8
RACCORDO
100
AcDbLine
 62
253
  6
CONTINUOUS
 10
47.9256143931
 20
-7.3664484495
 11
47.9249954018
 21
-4.5742660339
  0
LINE
  5
373
100
AcDbEntity
  8
RACCORDO
100
AcDbLine
 62
253
  6
CONTINUOUS
 10
48.2254891351
 20
-7.0619239512
 11
48.2250032056
 21
-4.8712993909
  0
LINE
  5
374
100
AcDbEntity
  8
DRAFT
100
AcDbLine
 62
7
  6
CONTINUOUS
 10
48.2455584505
 20
-4.8918546358
 11
48.2455584505
 21
-7.0418546358
  0
LINE
  5
375
100
AcDbEntity
  8
DRAFT
100
AcDbLine
 62
7
  6
CONTINUOUS
 10
49.0705584505
 20
7.8081453642
 11
49.0705584505
 21
5.6581453642
  0
LINE
  5
376
100
AcDbEntity
  8
RACCORDO
100
AcDbLine
 62
253
  6
CONTINUOUS
 10
50.1129497045
 20
8.1327391779
 11
50.1129497045
 21
7.8281351131
  0
LINE
  5
377
100
AcDbEntity
  8
RACCORDO
100
AcDbLine
 62
253
  6
CONTINUOUS
 10
50.1129497045
 20
-7.0618443847
 11
50.1129497045
 21
-7.3664484495
  0
LINE
  5
378
100
AcDbEntity
  8
RACCORDO
100
AcDbLine
 62
253
  6
CONTINUOUS
 10
48.7499954018
 20
5.3405567623
 11
48.7506143931
 21
8.1327391779
  0
LINE
  5
379
100
AcDbEntity
  8
RACCORDO
100
AcDbLine
 62
253
  6
CONTINUOUS
 10
49.0500032056
 20
5.6375901193
 11
49.0504891351
 21
7.8282146796
  0
LINE
  5
37A
100
AcDbEntity
  8
SUPERFICI
100
AcDbLine
 62
7
  6
CONTINUOUS
 10
55.6072140869
 20
22.8831453642
 11
55.5856861735
 21
22.7831453642
  0
LWPOLYLINE
  5
37B
100
AcDbEntity
  8
RACCORDO
100
AcDbPolyline
 62
7
  6
CONTINUOUS
 90
3
 70
0
 10
48.1698129553
 20
-7.1203279144
 10
48.1556178078
 20
-7.1346735341
 10
48.1247700296
 20
-7.1661203057
  0
LINE
  5
37C
100
AcDbEntity
  8
RACCORDO
100
AcDbLine
 62
7
  6
CONTINUOUS
 10
48.1247700296
 20
-7.1661203057
 11
48.0183458147
 21
-7.2734910329
  0
LINE
  5
37D
100
AcDbEntity
  8
RACCORDO
100
AcDbLine
 62
7
  6
CONTINUOUS
 10
48.0183458147
 20
-7.2734910329
 11
47.9439774314
 21
-7.3482057218
  0
LINE
  5
37E
100
AcDbEntity
  8
RACCORDO
100
AcDbLine
 62
7
  6
CONTINUOUS
 10
48.2255687016
 20
-7.0618443847
 11
48.2455584505
 21
-7.0418546358
  0
LINE
  5
37F
100
AcDbEntity
  8
RACCORDO
100
AcDbLine
 62
7
  6
CONTINUOUS
 10
47.9439774314
 20
-7.3482057218
 11
47.9256143931
 21
-7.3664484495
  0
LWPOLYLINE
  5
380
100
AcDbEntity
  8
RACCORDO
100
AcDbPolyline
 62
7
  6
CONTINUOUS
 90
7
 70
0
 10
48.2255687016
 20
-7.0618443847
 10
48.2234072647
 20
-7.063844201
 10
48.2192528982
 20
-7.0685400377
 10
48.2131056024
 20
-7.0755645251
 10
48.2047350555
 20
-7.0844975989
 10
48.1943715791
 20
-7.0950186709
 10
48.1698129553
 20
-7.1203279144
  0
LINE
  5
381
100
AcDbEntity
  8
RACCORDO
100
AcDbLine
 62
253
  6
CONTINUOUS
 10
50.1521005438
 20
-7.0418546358
 11
50.1129501921
 21
-7.0618443847
  0
LINE
  5
382
100
AcDbEntity
  8
0
100
AcDbLine
 62
7
  6
CONTINUOUS
 10
61.940717624
 20
-0.4008905051
 11
62.5705584505
 21
-0.0950579131
  0
LINE
  5
383
100
AcDbEntity
  8
0
100
AcDbLine
 62
7
  6
CONTINUOUS
 10
62.5705584505
 20
-0.7069958831
 11
62.1573845598
 21
-0.9076212421
  0
LINE
  5
384
100
AcDbEntity
  8
RACCORDO
100
AcDbLine
 62
253
  6
CONTINUOUS
 10
50.3939131831
 20
-7.5192891818
 11
50.3570506821
 21
-7.5361181866
  0
LINE
  5
385
100
AcDbEntity
  8
RACCORDO
100
AcDbLine
 62
253
  6
CONTINUOUS
 10
50.3939131831
 20
8.2855799102
 11
50.3570507371
 21
8.3024088891
  0
LINE
  5
386
100
AcDbEntity
  8
0
100
AcDbLine
 62
7
  6
CONTINUOUS
 10
62.5705584505
 20
0.8613486415
 11
61.940717624
 21
1.1671812335
  0
LINE
  5
387
100
AcDbEntity
  8
0
100
AcDbLine
 62
7
  6
CONTINUOUS
 10
62.1573845598
 20
1.6739119705
 11
62.5705584505
 21
1.4732866115
  0
LINE
  5
388
100
AcDbEntity
  8
RACCORDO
100
AcDbLine
 62
253
  6
CONTINUOUS
 10
50.1521005438
 20
7.8081453642
 11
50.1129501929
 21
7.8281351131
  0
LWPOLYLINE
  5
389
100
AcDbEntity
  8
RACCORDO
100
AcDbPolyline
 62
7
  6
CONTINUOUS
 90
6
 70
0
 10
49.0505687016
 20
7.8281351131
 10
49.0483277547
 20
7.8301751469
 10
49.0441005195
 20
7.8349574259
 10
49.0378869958
 20
7.8420850509
 10
49.0294464221
 20
7.8511053454
 10
49.01901956
 20
7.8616777441
  0
LINE
  5
38A
100
AcDbEntity
  8
SUPERFICI
100
AcDbLine
 62
7
  6
CONTINUOUS
 10
55.6072140869
 20
-22.1168546358
 11
55.5856861735
 21
-22.0168546358
  0
LWPOLYLINE
  5
38B
100
AcDbEntity
  8
RACCORDO
100
AcDbPolyline
 62
253
  6
CONTINUOUS
 90
22
 70
0
 10
50.3570503627
 20
-7.5361186745
 10
50.3738501409
 20
-7.509757148
 10
50.3878141537
 20
-7.4817874391
 10
50.3987906241
 20
-7.4525135548
 10
50.4066602472
 20
-7.4222536773
 10
50.4113374871
 20
-7.3913367056
 10
50.412771506
 20
-7.3600986808
 10
50.4109467174
 20
-7.3288791338
 10
50.4058829551
 20
-7.2980173943
 10
50.3976352581
 20
-7.2678489031
 10
50.3862932716
 20
-7.2387015662
 10
50.3719802736
 20
-7.2108921901
 10
50.3548518339
 20
-7.1847230391
 10
50.3350941242
 20
-7.1604785496
 10
50.312921894
 20
-7.1384222385
 10
50.2885761364
 20
-7.1187938392
 10
50.2623214692
 20
-7.1018066955
 10
50.2344432582
 20
-7.0876454434
 10
50.2052445158
 20
-7.0764640034
 10
50.1750426075
 20
-7.0683839084
 10
50.1441658022
 20
-7.0634929821
 10
50.1129497045
 20
-7.0618443847
  0
LWPOLYLINE
  5
38C
100
AcDbEntity
  8
RACCORDO
100
AcDbPolyline
 62
7
  6
CONTINUOUS
 90
7
 70
0
 10
56.9161671907
 20
-4.8712458956
 10
56.9186912665
 20
-4.8694381126
 10
56.9231561081
 20
-4.8651710015
 10
56.9295617154
 20
-4.858692901
 10
56.938143384
 20
-4.850263672
 10
56.9486658183
 20
-4.840133882
 10
56.9733278874
 20
-4.8157128731
  0
LINE
  5
38D
100
AcDbEntity
  8
0
100
AcDbLine
 62
7
  6
CONTINUOUS
 10
62.5705584505
 20
1.6022287728
 11
64.0705584505
 21
2.6628889446
  0
LINE
  5
38E
100
AcDbEntity
  8
0
100
AcDbLine
 62
7
  6
CONTINUOUS
 10
64.0705584505
 20
2.1679141977
 11
62.5705584505
 21
1.107254026
  0
LINE
  5
38F
100
AcDbEntity
  8
0
100
AcDbLine
 62
7
  6
CONTINUOUS
 10
64.0705584505
 20
-1.8965982162
 11
62.5705584505
 21
-0.8359380444
  0
LINE
  5
390
100
AcDbEntity
  8
0
100
AcDbLine
 62
7
  6
CONTINUOUS
 10
62.5705584505
 20
-0.3409632975
 11
64.0705584505
 21
-1.4016234693
  0
LWPOLYLINE
  5
391
100
AcDbEntity
  8
RACCORDO
100
AcDbPolyline
 62
7
  6
CONTINUOUS
 90
6
 70
0
 10
56.0911671907
 20
5.637536624
 10
56.0936353127
 20
5.6357544047
 10
56.0980494501
 20
5.6315423716
 10
56.104409603
 20
5.6251307068
 10
56.1129442877
 20
5.6167587985
 10
56.1234249878
 20
5.6066638322
  0
LINE
  5
392
100
AcDbEntity
  8
RACCORDO
100
AcDbLine
 62
7
  6
CONTINUOUS
 10
48.7692366326
 20
8.1142365807
 11
48.7506143931
 21
8.1327391779
  0
LINE
  5
393
100
AcDbEntity
  8
RACCORDO
100
AcDbLine
 62
7
  6
CONTINUOUS
 10
49.0504891351
 20
7.8282146796
 11
49.0705584505
 21
7.8081453642
  0
LINE
  5
394
100
AcDbEntity
  8
RACCORDO
100
AcDbLine
 62
7
  6
CONTINUOUS
 10
48.8986892543
 20
7.9840499536
 11
48.7692366326
 21
8.1142365807
  0
LINE
  5
395
100
AcDbEntity
  8
RACCORDO
100
AcDbLine
 62
7
  6
CONTINUOUS
 10
48.949696248
 20
7.9324874283
 11
48.8986892543
 21
7.9840499536
  0
LWPOLYLINE
  5
396
100
AcDbEntity
  8
RACCORDO
100
AcDbPolyline
 62
7
  6
CONTINUOUS
 90
3
 70
0
 10
48.9944628458
 20
7.886984086
 10
48.9653943685
 20
7.9164776465
 10
48.949696248
 20
7.9324874283
  0
LINE
  5
397
100
AcDbEntity
  8
RACCORDO
100
AcDbLine
 62
7
  6
CONTINUOUS
 10
49.01901956
 20
7.8616777441
 11
48.9944628458
 21
7.886984086
  0
LWPOLYLINE
  5
398
100
AcDbEntity
  8
RACCORDO
100
AcDbPolyline
 62
253
  6
CONTINUOUS
 90
65
 70
0
 10
50.113039878
 20
8.1327391779
 10
50.0577269089
 20
8.2127642448
 10
50.0049110954
 20
8.2949106682
 10
49.9545924375
 20
8.3791784297
 10
49.9065983519
 20
8.4658578388
 10
49.8611014219
 20
8.5546585444
 10
49.8186193974
 20
8.6447095429
 10
49.7792827756
 20
8.7358768279
 10
49.7429610594
 20
8.8282943782
 10
49.7097805066
 20
8.921493179
 10
49.6798100915
 20
9.0151913065
 10
49.65298084
 20
9.1096706648
 10
49.6292120871
 20
9.2053079816
 10
49.6084294922
 20
9.3017797803
 10
49.590707396
 20
9.399409509
 10
49.5761881556
 20
9.4995442633
 10
49.5646298612
 20
9.6020666725
 10
49.5562744226
 20
9.7070940442
 10
49.5519899257
 20
9.8163254556
 10
49.5514737193
 20
9.9300236069
 10
49.5550284546
 20
10.0479256785
 10
49.5644301711
 20
10.1709424304
 10
49.5795119798
 20
10.2996370708
 10
49.6004407695
 20
10.4334462187
 10
49.6294932463
 20
10.5715907426
 10
49.6668605754
 20
10.7147933856
 10
49.7123515916
 20
10.8623312248
 10
49.7676695042
 20
11.0112566898
 10
49.8333991525
 20
11.1620200974
 10
49.9089556973
 20
11.314171045
 10
49.9942878307
 20
11.463411021
 10
50.0899142164
 20
11.6094979693
 10
50.1953161908
 20
11.7526740376
 10
50.3088864549
 20
11.8893671756
 10
50.4307273352
 20
12.0190229202
 10
50.5607365052
 20
12.1421959606
 10
50.6969996864
 20
12.2569780717
 10
50.8393821938
 20
12.3630127072
 10
50.9880187123
 20
12.4606566702
 10
51.1413990187
 20
12.5490717926
 10
51.2995184309
 20
12.6281770428
 10
51.4623816309
 20
12.698053674
 10
51.628492442
 20
12.7581069463
 10
51.7979544054
 20
12.8082798591
 10
51.9706639798
 20
12.8486295726
 10
52.1448143654
 20
12.8787325776
 10
52.3203810986
 20
12.8984827122
 10
52.4973886429
 20
12.9079862149
 10
52.6741035891
 20
12.907138156
 10
52.8504718877
 20
12.8958729903
 10
53.0265475882
 20
12.8742562443
 10
53.2007594298
 20
12.8423795722
 10
53.3732828705
 20
12.8000867286
 10
53.5439424523
 20
12.7475338452
 10
53.7106405398
 20
12.6852811234
 10
53.8735678794
 20
12.6129192811
 10
54.0325337247
 20
12.5308574076
 10
54.1848682011
 20
12.4408832685
 10
54.3303499319
 20
12.3426032192
 10
54.4692002939
 20
12.236410692
 10
54.5994135434
 20
12.1252741232
 10
54.7204915061
 20
12.0091209427
 10
54.8329323563
 20
11.8880235732
 10
54.936224874
 20
11.7651680367
 10
55.0299486421
 20
11.6407513788
  0
LWPOLYLINE
  5
399
100
AcDbEntity
  8
RACCORDO
100
AcDbPolyline
 62
253
  6
CONTINUOUS
 90
65
 70
0
 10
50.3570507371
 20
8.3024088891
 10
50.3074234246
 20
8.3743558128
 10
50.2598500178
 20
8.4483179031
 10
50.2144242173
 20
8.5242460228
 10
50.171140208
 20
8.6022723372
 10
50.1302018747
 20
8.6821597446
 10
50.0919608868
 20
8.7632702176
 10
50.0565119118
 20
8.8453629022
 10
50.0238139002
 20
8.9284897546
 10
49.9939410751
 20
9.0124170377
 10
49.9669784911
 20
9.0967970768
 10
49.9428409004
 20
9.1817773386
 10
49.92138788
 20
9.2678790651
 10
49.9027342729
 20
9.3547429596
 10
49.8868649521
 20
9.4425570442
 10
49.8736443474
 20
9.532701645
 10
49.8632849739
 20
9.6249817413
 10
49.8559698891
 20
9.7194308843
 10
49.8518587418
 20
9.8177937494
 10
49.8513622282
 20
9.9201056209
 10
49.8549092834
 20
10.0260756603
 10
49.8630597523
 20
10.1369229479
 10
49.8764709478
 20
10.2527452358
 10
49.8957540552
 20
10.3729205595
 10
49.9216392695
 20
10.4974906268
 10
49.9549560693
 20
10.6264743955
 10
49.9963245573
 20
10.7588979221
 10
50.0460692319
 20
10.8932338117
 10
50.1048783634
 20
11.0291993245
 10
50.1731336187
 20
11.1657437527
 10
50.250191067
 20
11.3002862138
 10
50.3361106199
 20
11.4321213324
 10
50.4309893645
 20
11.5606496152
 10
50.5335873131
 20
11.6837642943
 10
50.6433579436
 20
11.8007202779
 10
50.7602115984
 20
11.9113381181
 10
50.8831844666
 20
12.0146784822
 10
51.0115725662
 20
12.1102483314
 10
51.1451238435
 20
12.1979536947
 10
51.2834434539
 20
12.2775833299
 10
51.4260138838
 20
12.3488770837
 10
51.5723566945
 20
12.4116321391
 10
51.722141248
 20
12.4657215507
 10
51.8749298359
 20
12.5109761157
 10
52.030127643
 20
12.5472085657
 10
52.1871647206
 20
12.5742856713
 10
52.3454648327
 20
12.5921143617
 10
52.5045210281
 20
12.6006435922
 10
52.6638602402
 20
12.5998445152
 10
52.8228816179
 20
12.5897150275
 10
52.9810932147
 20
12.5702811811
 10
53.1381808474
 20
12.5415504927
 10
53.2937650803
 20
12.5035241521
 10
53.4471187084
 20
12.4563104773
 10
53.5974175054
 20
12.4001361448
 10
53.7444271008
 20
12.3350594797
 10
53.8873316537
 20
12.2614112998
 10
54.0245706025
 20
12.1801207037
 10
54.1558661025
 20
12.0915996829
 10
54.2808084153
 20
11.9963789284
 10
54.3979600409
 20
11.8959949042
 10
54.5071527017
 20
11.7912386249
 10
54.6084869376
 20
11.6826815833
 10
54.7013021942
 20
11.5718374887
 10
54.7857021808
 20
11.4595829191
  0
LWPOLYLINE
  5
39A
100
AcDbEntity
  8
RACCORDO
100
AcDbPolyline
 62
7
  6
CONTINUOUS
 90
22
 70
0
 10
50.3939131831
 20
8.2855799102
 10
50.4112803625
 20
8.2589039122
 10
50.4255789547
 20
8.2312297446
 10
50.4368089599
 20
8.2025574072
 10
50.4450351149
 20
8.1726059087
 10
50.4501926829
 20
8.1416562405
 10
50.4520874529
 20
8.1105513769
 10
50.4506505051
 20
8.079232087
 10
50.4459507594
 20
8.0477576017
 10
50.4380007643
 20
8.0171485884
 10
50.4266025548
 20
7.987336717
 10
50.4119540959
 20
7.9583903176
 10
50.394661831
 20
7.9315350479
 10
50.3746362446
 20
7.9069594453
 10
50.3519668523
 20
7.8844749724
 10
50.327528644
 20
7.8647416739
 10
50.3013689756
 20
7.8478792417
 10
50.2734404912
 20
7.833767984
 10
50.2444761136
 20
7.8227088704
 10
50.2147201502
 20
7.8148022242
 10
50.1839282936
 20
7.8099477222
 10
50.1521005438
 20
7.8081453642
  0
LWPOLYLINE
  5
39B
100
AcDbEntity
  8
0
100
AcDbPolyline
 62
7
  6
CONTINUOUS
 90
10
 70
0
 43
0.3500000087
 10
37.5419875488
 20
35.1331454346
 10
37.6134149719
 20
34.9902863251
 10
37.6134149719
 20
34.918858902
 10
37.4705601257
 20
34.7760040558
 10
37.3991284393
 20
34.7760040558
 10
37.3277010162
 20
34.8474314789
 10
37.3277010162
 20
34.918858902
 10
37.3991284393
 20
35.0617180115
 10
37.4705601257
 20
35.1331454346
 10
37.5419875488
 20
35.1331454346
  0
LINE
  5
39C
100
AcDbEntity
  8
RACCORDO
100
AcDbLine
 62
253
  6
CONTINUOUS
 10
55.0281671965
 20
-7.3664484495
 11
55.0281671965
 21
-7.0618443847
  0
LINE
  5
39D
100
AcDbEntity
  8
RACCORDO
100
AcDbLine
 62
253
  6
CONTINUOUS
 10
55.0281671965
 20
7.8281351131
 11
55.0281671965
 21
8.1327391779
  0
LINE
  5
39E
100
AcDbEntity
  8
SUPERFICI
100
AcDbLine
 62
7
  6
CONTINUOUS
 10
55.5007381908
 20
-22.0168546358
 11
55.5007381908
 21
-22.1168546358
  0
LINE
  5
39F
100
AcDbEntity
  8
SUPERFICI
100
AcDbLine
 62
7
  6
CONTINUOUS
 10
55.5007381908
 20
22.7831453642
 11
55.5007381908
 21
22.8831453642
  0
LINE
  5
3A0
100
AcDbEntity
  8
RACCORDO
100
AcDbLine
 62
7
  6
CONTINUOUS
 10
56.8955584505
 20
-4.8918546358
 11
56.9161136955
 21
-4.8712993909
  0
LINE
  5
3A1
100
AcDbEntity
  8
RACCORDO
100
AcDbLine
 62
7
  6
CONTINUOUS
 10
57.1420034585
 20
-4.648318179
 11
57.1976332463
 21
-4.5926160175
  0
LINE
  5
3A2
100
AcDbEntity
  8
RACCORDO
100
AcDbLine
 62
7
  6
CONTINUOUS
 10
57.1976332463
 20
-4.5926160175
 11
57.2161214993
 21
-4.5742660339
  0
LINE
  5
3A3
100
AcDbEntity
  8
RACCORDO
100
AcDbLine
 62
7
  6
CONTINUOUS
 10
57.0345404809
 20
-4.7552640058
 11
57.1420034585
 21
-4.648318179
  0
LINE
  5
3A4
100
AcDbEntity
  8
RACCORDO
100
AcDbLine
 62
7
  6
CONTINUOUS
 10
57.0180738189
 20
-4.7715004352
 11
57.0345404809
 21
-4.7552640058
  0
LWPOLYLINE
  5
3A5
100
AcDbEntity
  8
RACCORDO
100
AcDbPolyline
 62
7
  6
CONTINUOUS
 90
3
 70
0
 10
56.9733278874
 20
-4.8157128731
 10
56.9874675221
 20
-4.801885336
 10
57.0180738189
 20
-4.7715004352
  0
LWPOLYLINE
  5
3A6
100
AcDbEntity
  8
RACCORDO
100
AcDbPolyline
 62
7
  6
CONTINUOUS
 90
7
 70
0
 10
67.1414417682
 20
3.0540286819
 10
67.1437375731
 20
3.0559554521
 10
67.14800745
 20
3.0604882883
 10
67.154251399
 20
3.0673055743
 10
67.1627019008
 20
3.0760484853
 10
67.1731264746
 20
3.0864226581
 10
67.1977260468
 20
3.1113976757
  0
LWPOLYLINE
  5
3A7
100
AcDbEntity
  8
RACCORDO
100
AcDbPolyline
 62
253
  6
CONTINUOUS
 90
16
 70
0
 10
55.0281671965
 20
8.1327391779
 10
55.0034512155
 20
8.150966948
 10
54.9785508779
 20
8.1685500454
 10
54.9539393872
 20
8.1854899418
 10
54.930423112
 20
8.2021098875
 10
54.908153791
 20
8.2181363493
 10
54.8867368024
 20
8.2328081712
 10
54.8670298559
 20
8.2466234662
 10
54.8493646022
 20
8.2594913716
 10
54.8329196862
 20
8.2702155348
 10
54.818542761
 20
8.2796943529
 10
54.8070501998
 20
8.2881913878
 10
54.7975814317
 20
8.294171702
 10
54.790015064
 20
8.2977231456
 10
54.7852755169
 20
8.3002398958
 10
54.7840665383
 20
8.302409403
  0
LWPOLYLINE
  5
3A8
100
AcDbEntity
  8
RACCORDO
100
AcDbPolyline
 62
7
  6
CONTINUOUS
 90
6
 70
0
 10
67.1414417682
 20
-2.2877379535
 10
67.1437676289
 20
-2.2896793578
 10
67.148064931
 20
-2.2942436756
 10
67.1543336746
 20
-2.3010986731
 10
67.1628101683
 20
-2.3098737104
 10
67.1732581036
 20
-2.3202670134
  0
LWPOLYLINE
  5
3A9
100
AcDbEntity
  8
RACCORDO
100
AcDbPolyline
 62
7
  6
CONTINUOUS
 90
3
 70
0
 10
56.1234249878
 20
5.6066638322
 10
56.1480901248
 20
5.5822429682
 10
56.1622745617
 20
5.5683700191
  0
LINE
  5
3AA
100
AcDbEntity
  8
RACCORDO
100
AcDbLine
 62
7
  6
CONTINUOUS
 10
56.1622745617
 20
5.5683700191
 11
56.2621589941
 21
5.4692596645
  0
LINE
  5
3AB
100
AcDbEntity
  8
RACCORDO
100
AcDbLine
 62
7
  6
CONTINUOUS
 10
56.0911136955
 20
5.6375901193
 11
56.0705584505
 21
5.6581453642
  0
LINE
  5
3AC
100
AcDbEntity
  8
RACCORDO
100
AcDbLine
 62
7
  6
CONTINUOUS
 10
56.2621589941
 20
5.4692596645
 11
56.3911214993
 21
5.3405567623
  0
LINE
  5
3AD
100
AcDbEntity
  8
RACCORDO
100
AcDbLine
 62
253
  6
CONTINUOUS
 10
56.0906277659
 20
7.8282146796
 11
56.0911136955
 21
5.6375901193
  0
LINE
  5
3AE
100
AcDbEntity
  8
RACCORDO
100
AcDbLine
 62
253
  6
CONTINUOUS
 10
56.390502508
 20
8.1327391779
 11
56.3911214993
 21
5.3405567623
  0
LINE
  5
3AF
100
AcDbEntity
  8
DRAFT
100
AcDbLine
 62
7
  6
CONTINUOUS
 10
56.0705584505
 20
5.6581453642
 11
56.0705584505
 21
7.8081453642
  0
LINE
  5
3B0
100
AcDbEntity
  8
DRAFT
100
AcDbLine
 62
7
  6
CONTINUOUS
 10
56.8955584505
 20
-7.0418546358
 11
56.8955584505
 21
-4.8918546358
  0
LINE
  5
3B1
100
AcDbEntity
  8
RACCORDO
100
AcDbLine
 62
253
  6
CONTINUOUS
 10
56.9161136955
 20
-4.8712993909
 11
56.9156277659
 21
-7.0619239512
  0
LINE
  5
3B2
100
AcDbEntity
  8
RACCORDO
100
AcDbLine
 62
253
  6
CONTINUOUS
 10
57.2161214993
 20
-4.5742660339
 11
57.215502508
 21
-7.3664484495
  0
LINE
  5
3B3
100
AcDbEntity
  8
SUPERFICI
100
AcDbLine
 62
7
  6
CONTINUOUS
 10
62.4072140869
 20
22.8831453642
 11
62.3856861735
 21
22.7831453642
  0
LWPOLYLINE
  5
3B4
100
AcDbEntity
  8
RACCORDO
100
AcDbPolyline
 62
253
  6
CONTINUOUS
 90
16
 70
0
 10
54.7840665384
 20
-7.5361186746
 10
54.7852757239
 20
-7.5339494461
 10
54.7900154436
 20
-7.5314329377
 10
54.797581938
 20
-7.5278816957
 10
54.8070508017
 20
-7.521901542
 10
54.818543451
 20
-7.5134046346
 10
54.8329204482
 20
-7.5039259146
 10
54.8493653938
 20
-7.4932018032
 10
54.8670306403
 20
-7.4803338956
 10
54.8867375546
 20
-7.466518558
 10
54.9081544856
 20
-7.4518466553
 10
54.9304237161
 20
-7.4358200649
 10
54.9539398751
 20
-7.4191999487
 10
54.9785512275
 20
-7.4022598437
 10
55.003451402
 20
-7.3846764999
 10
55.0281671965
 20
-7.3664484495
  0
LINE
  5
3B5
100
AcDbEntity
  8
RACCORDO
100
AcDbLine
 62
7
  6
CONTINUOUS
 10
67.1205584505
 20
3.0331453642
 11
67.1414713221
 21
3.0540582358
  0
LINE
  5
3B6
100
AcDbEntity
  8
RACCORDO
100
AcDbLine
 62
7
  6
CONTINUOUS
 10
67.2426589774
 20
3.156594839
 11
67.4229866647
 21
3.3374827704
  0
LWPOLYLINE
  5
3B7
100
AcDbEntity
  8
RACCORDO
100
AcDbPolyline
 62
7
  6
CONTINUOUS
 90
3
 70
0
 10
67.1977260468
 20
3.1113976757
 10
67.211901045
 20
3.1255480443
 10
67.2426589774
 20
3.156594839
  0
LINE
  5
3B8
100
AcDbEntity
  8
RACCORDO
100
AcDbLine
 62
7
  6
CONTINUOUS
 10
67.4229866647
 20
3.3374827704
 11
67.4413960768
 21
3.3557665632
  0
LINE
  5
3B9
100
AcDbEntity
  8
SUPERFICI
100
AcDbLine
 62
253
  6
CONTINUOUS
 10
3.4054820929
 20
21.4012351336
 11
69.4710935131
 21
21.4014595951
  0
LINE
  5
3BA
100
AcDbEntity
  8
SUPERFICI
100
AcDbLine
 62
253
  6
CONTINUOUS
 10
3.4617603338
 20
22.3580525014
 11
69.4793565672
 21
22.3580525014
  0
LWPOLYLINE
  5
3BB
100
AcDbEntity
  8
SUPERFICI
100
AcDbPolyline
 62
253
  6
CONTINUOUS
 90
13
 70
0
 10
69.4710935132
 20
21.4014576584
 10
69.5356341012
 20
21.4012344896
 10
69.599094807
 20
21.4006633952
 10
69.6604138093
 20
21.3997539308
 10
69.7185651219
 20
21.3985213137
 10
69.7725757602
 20
21.3969861684
 10
69.821542021
 20
21.3951741811
 10
69.8646446035
 20
21.3931156701
 10
69.9011623177
 20
21.3908450784
 10
69.930484151
 20
21.3884003973
 10
69.9521194923
 20
21.3858225312
 10
69.9657063401
 20
21.3831546126
 10
69.97101736
 20
21.3804412809
  0
LINE
  5
3BC
100
AcDbEntity
  8
RACCORDO
100
AcDbLine
 62
7
  6
CONTINUOUS
 10
67.4228902965
 20
-2.5710954873
 11
67.4413960768
 21
-2.5894758347
  0
LINE
  5
3BD
100
AcDbEntity
  8
RACCORDO
100
AcDbLine
 62
7
  6
CONTINUOUS
 10
67.1414713221
 20
-2.2877675074
 11
67.1205584505
 21
-2.2668546358
  0
LINE
  5
3BE
100
AcDbEntity
  8
RACCORDO
100
AcDbLine
 62
7
  6
CONTINUOUS
 10
67.2426864194
 20
-2.3903322801
 11
67.4228902965
 21
-2.5710954873
  0
LINE
  5
3BF
100
AcDbEntity
  8
RACCORDO
100
AcDbLine
 62
7
  6
CONTINUOUS
 10
67.2120071492
 20
-2.3593660523
 11
67.2426864194
 21
-2.3903322801
  0
LWPOLYLINE
  5
3C0
100
AcDbEntity
  8
RACCORDO
100
AcDbPolyline
 62
7
  6
CONTINUOUS
 90
3
 70
0
 10
67.1732581036
 20
-2.3202670134
 10
67.197856594
 20
-2.3452413861
 10
67.2120071492
 20
-2.3593660523
  0
LWPOLYLINE
  5
3C1
100
AcDbEntity
  8
RACCORDO
100
AcDbPolyline
 62
253
  6
CONTINUOUS
 90
36
 70
0
 10
54.7857021808
 20
11.4595829191
 10
54.8620786521
 20
11.346436288
 10
54.9304668785
 20
11.2334715295
 10
54.9911629656
 20
11.1214829954
 10
55.0446998769
 20
11.0108348619
 10
55.0915554081
 20
10.9019090164
 10
55.1320890592
 20
10.7953423074
 10
55.1668302158
 20
10.6913192746
 10
55.1964202836
 20
10.5894343043
 10
55.2211827342
 20
10.4901045883
 10
55.2415185413
 20
10.393427054
 10
55.2579682365
 20
10.2984098441
 10
55.2707546273
 20
10.2052497535
 10
55.280111706
 20
10.114057882
 10
55.286335318
 20
10.0236464
 10
55.2895249892
 20
9.9340091832
 10
55.2897709154
 20
9.8453609137
 10
55.2871301643
 20
9.7568207611
 10
55.2815946096
 20
9.6682578518
 10
55.2731799662
 20
9.5799914105
 10
55.261858744
 20
9.4918173628
 10
55.2475852898
 20
9.4036353563
 10
55.2303748444
 20
9.3157435776
 10
55.210296091
 20
9.2285343886
 10
55.1873593563
 20
9.1420363894
 10
55.1616101532
 20
9.0564068734
 10
55.133250978
 20
8.9722095107
 10
55.1023707677
 20
8.8895303802
 10
55.0690497051
 20
8.8084227403
 10
55.0335673322
 20
8.729363578
 10
54.9960807862
 20
8.6524548157
 10
54.9566871424
 20
8.5776663982
 10
54.915635398
 20
8.505240411
 10
54.8731102824
 20
8.4352571428
 10
54.8292092495
 20
8.3676474441
 10
54.7840662189
 20
8.3024089151
  0
LWPOLYLINE
  5
3C2
100
AcDbEntity
  8
RACCORDO
100
AcDbPolyline
 62
253
  6
CONTINUOUS
 90
36
 70
0
 10
55.0299486421
 20
11.6407513788
 10
55.1145240777
 20
11.5145765118
 10
55.1907012124
 20
11.3892383543
 10
55.2582431235
 20
11.265095803
 10
55.3173867336
 20
11.1417900083
 10
55.3695928421
 20
11.020839337
 10
55.4148176967
 20
10.9026522038
 10
55.4531050497
 20
10.7868202837
 10
55.4860469571
 20
10.67363686
 10
55.5137571407
 20
10.5634130286
 10
55.5361218788
 20
10.4558377808
 10
55.5543920619
 20
10.3502712372
 10
55.5687538435
 20
10.2468425806
 10
55.5790210701
 20
10.1454226888
 10
55.5858861724
 20
10.0449842024
 10
55.5895178881
 20
9.9454363419
 10
55.5897474794
 20
9.8468699169
 10
55.5867611644
 20
9.7485299303
 10
55.5806301558
 20
9.6501690365
 10
55.5712832409
 20
9.552034592
 10
55.5586929991
 20
9.4541136432
 10
55.5428169989
 20
9.3561866099
 10
55.5236976717
 20
9.2584730829
 10
55.5014348915
 20
9.1616188713
 10
55.4759450335
 20
9.0655711287
 10
55.4473117224
 20
8.9703827258
 10
55.4158857063
 20
8.8768580617
 10
55.3816034178
 20
8.7850496151
 10
55.3445284242
 20
8.6949049455
 10
55.3052021752
 20
8.6070710863
 10
55.2636108883
 20
8.521658216
 10
55.2197683461
 20
8.4385562014
 10
55.1742573455
 20
8.3580816163
 10
55.1272721524
 20
8.2803400009
 10
55.078618501
 20
8.2052258592
 10
55.0282963913
 20
8.1327392116
  0
LINE
  5
3C3
100
AcDbEntity
  8
SUPERFICI
100
AcDbLine
 62
7
  6
CONTINUOUS
 10
62.4072140869
 20
-22.1168546358
 11
62.3856861735
 21
-22.0168546358
  0
LINE
  5
3C4
100
AcDbEntity
  8
SUPERFICI
100
AcDbLine
 62
7
  6
CONTINUOUS
 10
55.5339028142
 20
-22.1168546358
 11
55.5554307276
 21
-22.0168546358
  0
LINE
  5
3C5
100
AcDbEntity
  8
SUPERFICI
100
AcDbLine
 62
253
  6
CONTINUOUS
 10
69.4793565672
 20
22.3580525014
 11
69.6209390503
 21
22.7831453642
  0
LINE
  5
3C6
100
AcDbEntity
  8
SUPERFICI
100
AcDbLine
 62
7
  6
CONTINUOUS
 10
3.3201778508
 20
22.7831453642
 11
10.6705584505
 21
22.7831453642
  0
LINE
  5
3C7
100
AcDbEntity
  8
SUPERFICI
100
AcDbLine
 62
7
  6
CONTINUOUS
 10
17.2705584505
 20
22.7831453642
 11
55.6705584505
 21
22.7831453642
  0
LINE
  5
3C8
100
AcDbEntity
  8
SUPERFICI
100
AcDbLine
 62
7
  6
CONTINUOUS
 10
62.2705584505
 20
22.7831453642
 11
69.6209390503
 21
22.7831453642
  0
LINE
  5
3C9
100
AcDbEntity
  8
SUPERFICI
100
AcDbLine
 62
7
  6
CONTINUOUS
 10
10.5007381908
 20
22.8831453642
 11
17.4403787102
 21
22.8831453642
  0
LINE
  5
3CA
100
AcDbEntity
  8
SUPERFICI
100
AcDbLine
 62
7
  6
CONTINUOUS
 10
55.5007381908
 20
22.8831453642
 11
62.4403787102
 21
22.8831453642
  0
LINE
  5
3CB
100
AcDbEntity
  8
SUPERFICI
100
AcDbLine
 62
7
  6
CONTINUOUS
 10
62.6454159287
 20
23.8831453642
 11
55.2957009724
 21
23.8831453642
  0
LINE
  5
3CC
100
AcDbEntity
  8
SUPERFICI
100
AcDbLine
 62
7
  6
CONTINUOUS
 10
17.6454159287
 20
23.8831453642
 11
10.2957009724
 21
23.8831453642
  0
LWPOLYLINE
  5
3CD
100
AcDbEntity
  8
SUPERFICI
100
AcDbPolyline
 62
7
  6
CONTINUOUS
 90
10
 70
0
 10
17.6454159287
 20
23.8831453642
 10
17.7103003526
 20
23.88109038
 10
17.774655651
 20
23.8748180843
 10
17.8384818241
 20
23.864328477
 10
17.9022316906
 20
23.8494853461
 10
17.9654524317
 20
23.8304249035
 10
18.0267855908
 20
23.8075557862
 10
18.0857783493
 20
23.7810142062
 10
18.1428835257
 20
23.7506639514
 10
18.1981011203
 20
23.7165050217
  0
LWPOLYLINE
  5
3CE
100
AcDbEntity
  8
SUPERFICI
100
AcDbPolyline
 62
7
  6
CONTINUOUS
 90
10
 70
0
 10
62.6454159287
 20
23.8831453642
 10
62.7103003526
 20
23.88109038
 10
62.774655651
 20
23.8748180843
 10
62.8384818241
 20
23.864328477
 10
62.9022316906
 20
23.8494853461
 10
62.9654524317
 20
23.8304249035
 10
63.0267855908
 20
23.8075557862
 10
63.0857783493
 20
23.7810142062
 10
63.1428835257
 20
23.7506639514
 10
63.1981011203
 20
23.7165050217
  0
LWPOLYLINE
  5
3CF
100
AcDbEntity
  8
SUPERFICI
100
AcDbPolyline
 62
253
  6
CONTINUOUS
 90
13
 70
0
 10
69.4793565672
 20
22.3580525014
 10
69.5445720243
 20
22.3537262591
 10
69.6086729222
 20
22.3409404584
 10
69.6705637502
 20
22.3199136142
 10
69.7291867683
 20
22.2910050838
 10
69.7835400851
 20
22.254708926
 10
69.8326947799
 20
22.2116454571
 10
69.8758107788
 20
22.1625506496
 10
69.9121512116
 20
22.108263554
 10
69.9410950052
 20
22.0497119592
 10
69.9621474984
 20
21.9878965361
 10
69.9749488953
 20
21.9238737356
 10
69.9792804148
 20
21.858737734
  0
LINE
  5
3D0
100
AcDbEntity
  8
SUPERFICI
100
AcDbLine
 62
253
  6
CONTINUOUS
 10
69.6209390503
 20
-22.0168546358
 11
69.4793565672
 21
-21.591761773
  0
LINE
  5
3D1
100
AcDbEntity
  8
SUPERFICI
100
AcDbLine
 62
7
  6
CONTINUOUS
 10
55.5339028142
 20
22.8831453642
 11
55.5554307276
 21
22.7831453642
  0
LINE
  5
3D2
100
AcDbEntity
  8
SUPERFICI
100
AcDbLine
 62
7
  6
CONTINUOUS
 10
62.4403787102
 20
22.8831453642
 11
62.4403787102
 21
22.7831453642
  0
LINE
  5
3D3
100
AcDbEntity
  8
SUPERFICI
100
AcDbLine
 62
7
  6
CONTINUOUS
 10
62.4403787102
 20
-22.1168546358
 11
62.4403787102
 21
-22.0168546358
  0
LINE
  5
3D4
100
AcDbEntity
  8
0
100
AcDbLine
 62
7
  6
CONTINUOUS
 10
62.5705584505
 20
1.6022287728
 11
62.5705584505
 21
1.107254026
  0
LINE
  5
3D5
100
AcDbEntity
  8
0
100
AcDbLine
 62
7
  6
CONTINUOUS
 10
62.5705584505
 20
-0.8359380444
 11
62.5705584505
 21
-0.3409632975
  0
LINE
  5
3D6
100
AcDbEntity
  8
0
100
AcDbLine
 62
7
  6
CONTINUOUS
 10
62.5705584505
 20
-0.3409632975
 11
62.5705584505
 21
0.2805548209
  0
LINE
  5
3D7
100
AcDbEntity
  8
0
100
AcDbLine
 62
7
  6
CONTINUOUS
 10
62.5705584505
 20
0.4857359075
 11
62.5705584505
 21
1.107254026
  0
LINE
  5
3D8
100
AcDbEntity
  8
0
100
AcDbLine
 62
7
  6
CONTINUOUS
 10
64.0705584505
 20
2.6628889446
 11
64.0705584505
 21
2.1679141977
  0
LINE
  5
3D9
100
AcDbEntity
  8
0
100
AcDbLine
 62
7
  6
CONTINUOUS
 10
64.0705584505
 20
-1.8965982162
 11
64.0705584505
 21
-1.4016234693
  0
LINE
  5
3DA
100
AcDbEntity
  8
SUPERFICI
100
AcDbLine
 62
253
  6
CONTINUOUS
 10
69.9792804148
 20
21.858737734
 11
70.1205584505
 21
22.2829165121
  0
LINE
  5
3DB
100
AcDbEntity
  8
SUPERFICI
100
AcDbLine
 62
253
  6
CONTINUOUS
 10
70.1205584505
 20
-21.5166257837
 11
69.9792804148
 21
-21.0924470056
  0
LINE
  5
3DC
100
AcDbEntity
  8
RACCORDO
100
AcDbLine
 62
253
  6
CONTINUOUS
 10
64.4705584505
 20
-2.5894758347
 11
64.4705584505
 21
-2.2668546358
  0
LINE
  5
3DD
100
AcDbEntity
  8
RACCORDO
100
AcDbLine
 62
253
  6
CONTINUOUS
 10
64.4705584505
 20
3.3557665632
 11
64.4705584505
 21
3.0331453642
  0
LINE
  5
3DE
100
AcDbEntity
  8
SUPERFICI
100
AcDbLine
 62
7
  6
CONTINUOUS
 10
62.3339028142
 20
-22.1168546358
 11
62.3554307276
 21
-22.0168546358
  0
LINE
  5
3DF
100
AcDbEntity
  8
SUPERFICI
100
AcDbLine
 62
7
  6
CONTINUOUS
 10
62.3339028142
 20
22.8831453642
 11
62.3554307276
 21
22.7831453642
  0
LWPOLYLINE
  5
3E0
100
AcDbEntity
  8
SUPERFICI
100
AcDbPolyline
 62
253
  6
CONTINUOUS
 90
7
 70
0
 10
69.9792804148
 20
-21.0924470056
 10
69.9784161606
 20
-21.0872896677
 10
69.9775793096
 20
-21.0775882662
 10
69.9767698619
 20
-21.0633428012
 10
69.9759801101
 20
-21.0443255053
 10
69.9752177616
 20
-21.0207641459
 10
69.9745059384
 20
-20.9933420248
  0
LWPOLYLINE
  5
3E1
100
AcDbEntity
  8
SUPERFICI
100
AcDbPolyline
 62
253
  6
CONTINUOUS
 90
5
 70
0
 10
69.4793565672
 20
-21.591761773
 10
69.4784889282
 20
-21.5817821801
 10
69.4776499608
 20
-21.5622298879
 10
69.476839665
 20
-21.5332961832
 10
69.4760508038
 20
-21.4952633758
  0
LWPOLYLINE
  5
3E2
100
AcDbEntity
  8
SUPERFICI
100
AcDbPolyline
 62
253
  6
CONTINUOUS
 90
3
 70
0
 10
69.9745059384
 20
-20.9933420248
 10
69.9732376875
 20
-20.9266995164
 10
69.9726967427
 20
-20.8885943939
  0
LINE
  5
3E3
100
AcDbEntity
  8
SUPERFICI
100
AcDbLine
 62
253
  6
CONTINUOUS
 10
69.4760508038
 20
-21.4952633758
 11
69.4745808071
 21
-21.393463253
  0
LINE
  5
3E4
100
AcDbEntity
  8
SUPERFICI
100
AcDbLine
 62
253
  6
CONTINUOUS
 10
69.4745808071
 20
-21.393463253
 11
69.4727753911
 21
-21.1843979426
  0
LINE
  5
3E5
100
AcDbEntity
  8
SUPERFICI
100
AcDbLine
 62
253
  6
CONTINUOUS
 10
69.4727753911
 20
-21.1843979426
 11
69.4715779261
 21
-20.9241333812
  0
LWPOLYLINE
  5
3E6
100
AcDbEntity
  8
SUPERFICI
100
AcDbPolyline
 62
253
  6
CONTINUOUS
 90
9
 70
0
 10
69.4715779261
 20
-20.9241333812
 10
69.4680488967
 20
-15.9663356906
 10
69.4657654345
 20
-11.2960750504
 10
69.4642431263
 20
-6.624794725
 10
69.4634819722
 20
-1.9529026313
 10
69.4634819722
 20
2.7191933585
 10
69.4642431262
 20
7.3910854524
 10
69.4657654344
 20
12.062365778
 10
69.4680488967
 20
16.7326264186
  0
LINE
  5
3E7
100
AcDbEntity
  8
DRAFT
100
AcDbLine
 62
7
  6
CONTINUOUS
 10
67.1205584505
 20
-2.2668546358
 11
67.1205584505
 21
3.0331453642
  0
LINE
  5
3E8
100
AcDbEntity
  8
RACCORDO
100
AcDbLine
 62
253
  6
CONTINUOUS
 10
67.1414713221
 20
3.0540582358
 11
67.1414713221
 21
-2.2877675074
  0
LINE
  5
3E9
100
AcDbEntity
  8
RACCORDO
100
AcDbLine
 62
253
  6
CONTINUOUS
 10
67.4413960768
 20
3.3557665632
 11
67.4413960768
 21
-2.5894758347
  0
LINE
  5
3EA
100
AcDbEntity
  8
SUPERFICI
100
AcDbLine
 62
253
  6
CONTINUOUS
 10
69.4680488967
 20
16.7326264186
 11
69.4715779261
 21
21.6904241097
  0
LINE
  5
3EB
100
AcDbEntity
  8
SUPERFICI
100
AcDbLine
 62
253
  6
CONTINUOUS
 10
69.4715779261
 20
21.6904241097
 11
69.4727753911
 21
21.950688671
  0
LINE
  5
3EC
100
AcDbEntity
  8
SUPERFICI
100
AcDbLine
 62
253
  6
CONTINUOUS
 10
69.4727753911
 20
21.950688671
 11
69.4745808071
 21
22.1597539814
  0
LWPOLYLINE
  5
3ED
100
AcDbEntity
  8
SUPERFICI
100
AcDbPolyline
 62
253
  6
CONTINUOUS
 90
6
 70
0
 10
69.4745808071
 20
22.1597539814
 10
69.4760508038
 20
22.2615541042
 10
69.476839665
 20
22.2995869116
 10
69.4776499608
 20
22.3285206164
 10
69.4784889282
 20
22.3480729085
 10
69.4793565672
 20
22.3580525014
  0
LWPOLYLINE
  5
3EE
100
AcDbEntity
  8
SUPERFICI
100
AcDbPolyline
 62
253
  6
CONTINUOUS
 90
9
 70
0
 10
69.9726967427
 20
21.6548851223
 10
69.9738465503
 20
21.7282418798
 10
69.9745059384
 20
21.7596327532
 10
69.9752177616
 20
21.7870548743
 10
69.9759801101
 20
21.8106162338
 10
69.9767698619
 20
21.8296335298
 10
69.9775793096
 20
21.8438789948
 10
69.9784161606
 20
21.8535803962
 10
69.9792804148
 20
21.858737734
  0
LINE
  5
3EF
100
AcDbEntity
  8
SUPERFICI
100
AcDbLine
 62
253
  6
CONTINUOUS
 10
69.9726967427
 20
-20.8885943939
 11
69.9714988087
 21
-20.7581653749
  0
LINE
  5
3F0
100
AcDbEntity
  8
SUPERFICI
100
AcDbLine
 62
253
  6
CONTINUOUS
 10
69.9714988087
 20
-20.7581653749
 11
69.9710173606
 21
-20.6141505525
  0
LWPOLYLINE
  5
3F1
100
AcDbEntity
  8
SUPERFICI
100
AcDbPolyline
 62
253
  6
CONTINUOUS
 90
9
 70
0
 10
69.9710173606
 20
-20.6141505525
 10
69.9679727463
 20
-15.9493211059
 10
69.9656892857
 20
-11.2838731792
 10
69.9641669788
 20
-6.6178067723
 10
69.9634058257
 20
-1.9507093492
 10
69.9634058263
 20
2.7170065541
 10
69.9641669801
 20
7.3841033295
 10
69.9656892871
 20
12.0501684412
 10
69.9679727472
 20
16.7156144249
  0
LINE
  5
3F2
100
AcDbEntity
  8
SUPERFICI
100
AcDbLine
 62
7
  6
CONTINUOUS
 10
70.1205584505
 20
22.2829165121
 11
70.1205584505
 21
-21.5166257837
  0
LINE
  5
3F3
100
AcDbEntity
  8
SUPERFICI
100
AcDbLine
 62
253
  6
CONTINUOUS
 10
69.9679727472
 20
16.7156144249
 11
69.9712587164
 21
21.4779606961
  0
LWPOLYLINE
  5
3F4
100
AcDbEntity
  8
SUPERFICI
100
AcDbPolyline
 62
253
  6
CONTINUOUS
 90
3
 70
0
 10
69.9712587164
 20
21.4779606961
 10
69.9722256162
 20
21.6138142856
 10
69.9726967427
 20
21.6548851223
  0
LINE
  5
3F5
100
AcDbEntity
  8
0
100
AcDbLine
 62
7
  6
CONTINUOUS
 10
62.2705584505
 20
-22.0168546358
 11
62.2039256529
 21
-22.1168546358
  0
LWPOLYLINE
  5
3F6
100
AcDbEntity
  8
0
100
AcDbPolyline
 62
7
  6
CONTINUOUS
 90
6
 70
0
 43
0.3500000087
 10
38.6134159485
 20
34.6331449463
 10
39.6848443481
 20
34.6331449463
 10
39.8991308807
 20
34.8474314789
 10
39.8991308807
 20
35.9188598785
 10
39.4705578156
 20
36.3474329437
 10
39.0419890137
 20
36.3474329437
  0
LINE
  5
3F7
100
AcDbEntity
  8
0
100
AcDbLine
 62
7
  6
CONTINUOUS
 10
62.2039256529
 20
22.8831453642
 11
62.2705584505
 21
22.7831453642
  0
LWPOLYLINE
  5
3F8
100
AcDbEntity
  8
0
100
AcDbPolyline
 62
7
  6
CONTINUOUS
 90
3
 70
0
 43
0.3500000087
 10
78.7277030762
 20
-0.4739983932
 10
78.7277030762
 20
-1.9739977264
 10
76.370555481
 20
-1.3311402603
  0
LWPOLYLINE
  5
3F9
100
AcDbEntity
  8
0
100
AcDbPolyline
 62
7
  6
CONTINUOUS
 90
5
 70
0
 43
0.3500000087
 10
-33.6210274612
 20
44.3474322296
 10
-33.2638839508
 20
44.5617187622
 10
-33.2638839508
 20
45.2045740967
 10
-33.6210274612
 20
45.6331471619
 10
-34.47817146
 20
45.6331471619
  0
LWPOLYLINE
  5
3FA
100
AcDbEntity
  8
SUPERFICI
100
AcDbPolyline
 62
253
  6
CONTINUOUS
 90
16
 70
0
 10
-48.2953739129
 20
21.3804412809
 10
-48.2907406948
 20
21.4299557554
 10
-48.2815466485
 20
21.4779606961
 10
-48.2677917739
 20
21.5244561032
 10
-48.2492528011
 20
21.5698899613
 10
-48.2261529999
 20
21.6138142856
 10
-48.1991621808
 20
21.6548851223
 10
-48.1681714721
 20
21.6929902449
 10
-48.1332897454
 20
21.7282418798
 10
-48.0955134259
 20
21.7596327532
 10
-48.0547331018
 20
21.7870548743
 10
-48.0110581851
 20
21.8106162338
 10
-47.965813336
 20
21.8296335298
 10
-47.9194401082
 20
21.8438789948
 10
-47.8714969482
 20
21.8535803962
 10
-47.8219838559
 20
21.858737734
  0
LWPOLYLINE
  5
3FB
100
AcDbEntity
  8
SUPERFICI
100
AcDbPolyline
 62
253
  6
CONTINUOUS
 90
10
 70
0
 10
-47.8394256308
 20
22.3580525014
 10
-47.8403372436
 20
22.3537262591
 10
-47.8407860545
 20
22.3409404584
 10
-47.8407643933
 20
22.3199136142
 10
-47.8402726298
 20
22.2910050838
 10
-47.8393191688
 20
22.254708926
 10
-47.8379203058
 20
22.2116454571
 10
-47.8360999481
 20
22.1625506496
 10
-47.8338892061
 20
22.108263554
 10
-47.8284537259
 20
21.9878965361
  0
LWPOLYLINE
  5
3FC
100
AcDbEntity
  8
SUPERFICI
100
AcDbPolyline
 62
253
  6
CONTINUOUS
 90
8
 70
0
 10
-47.8394256308
 20
-21.591761773
 10
-47.8403372358
 20
-21.5874352086
 10
-47.840786008
 20
-21.5746485511
 10
-47.8407642847
 20
-21.5536204877
 10
-47.8402724439
 20
-21.524710529
 10
-47.8393188997
 20
-21.4884129239
 10
-47.8379199624
 20
-21.445348262
 10
-47.8360995529
 20
-21.3962527233
  0
LWPOLYLINE
  5
3FD
100
AcDbEntity
  8
SUPERFICI
100
AcDbPolyline
 62
253
  6
CONTINUOUS
 90
10
 70
0
 10
-48.2953739129
 20
-20.6141505525
 10
-48.4697997497
 20
-15.9493211059
 10
-48.6006191208
 20
-11.2838731792
 10
-48.6878320263
 20
-6.6178067723
 10
-48.7314384576
 20
-1.9507093492
 10
-48.7314384233
 20
2.7170065541
 10
-48.6878319491
 20
7.3841033295
 10
-48.6006190436
 20
12.0501684412
 10
-48.4697996982
 20
16.7156144249
 10
-48.2953739129
 20
21.3804412809
  0
LINE
  5
3FE
100
AcDbEntity
  8
RACCORDO
100
AcDbLine
 62
7
  6
CONTINUOUS
 10
-49.2226610124
 20
2.7303922786
 11
-49.2227623173
 21
2.7087128774
  0
LINE
  5
3FF
100
AcDbEntity
  8
RACCORDO
100
AcDbLine
 62
7
  6
CONTINUOUS
 10
-49.1790203816
 20
7.3936955226
 11
-49.1790908522
 21
7.3886681706
  0
LINE
  5
400
100
AcDbEntity
  8
SUPERFICI
100
AcDbLine
 62
253
  6
CONTINUOUS
 10
-47.8284537259
 20
21.9878965361
 11
-47.8219838559
 21
21.858737734
  0
LINE
  5
401
100
AcDbEntity
  8
SUPERFICI
100
AcDbLine
 62
253
  6
CONTINUOUS
 10
-47.8360995529
 20
-21.3962527233
 11
-47.8313254711
 21
-21.2834145124
  0
LWPOLYLINE
  5
402
100
AcDbEntity
  8
SUPERFICI
100
AcDbPolyline
 62
253
  6
CONTINUOUS
 90
3
 70
0
 10
-47.8313254711
 20
-21.2834145124
 10
-47.8253216961
 20
-21.1575800092
 10
-47.8219838559
 20
-21.0924470056
  0
LWPOLYLINE
  5
403
100
AcDbEntity
  8
RACCORDO
100
AcDbPolyline
 62
253
  6
CONTINUOUS
 90
10
 70
0
 10
-31.7573158129
 20
21.390863762
 10
-31.7115059168
 20
21.4080207838
 10
-31.666360523
 20
21.4203764974
 10
-31.6224296592
 20
21.4277804014
 10
-31.5802485479
 20
21.4301423131
 10
-31.5403310858
 20
21.4274334669
 10
-31.5031635824
 20
21.4196868641
 10
-31.4691988358
 20
21.4069968714
 10
-31.4388506162
 20
21.3895180713
 10
-31.4124886255
 20
21.3674633789
  0
LINE
  5
404
100
AcDbEntity
  8
SUPERFICI
100
AcDbLine
 62
7
  6
CONTINUOUS
 10
-35.7281706108
 20
-22.7167451106
 11
-37.0514612855
 21
-22.7441612641
  0
LINE
  5
405
100
AcDbEntity
  8
SUPERFICI
100
AcDbLine
 62
7
  6
CONTINUOUS
 10
-37.0514612855
 20
-22.7441612641
 11
-38.3848277226
 21
-22.7708123699
  0
LINE
  5
406
100
AcDbEntity
  8
SUPERFICI
100
AcDbLine
 62
7
  6
CONTINUOUS
 10
-38.3848277226
 20
-22.7708123699
 11
-39.7281706108
 21
-22.7967631975
  0
LINE
  5
407
100
AcDbEntity
  8
SUPERFICI
100
AcDbLine
 62
7
  6
CONTINUOUS
 10
-35.7281706108
 20
-23.0470343761
 11
-39.7281706108
 21
-23.1168546358
  0
LINE
  5
408
100
AcDbEntity
  8
SUPERFICI
100
AcDbLine
 62
253
  6
CONTINUOUS
 10
-35.7281706108
 20
-22.879961997
 11
-39.7281706108
 21
-22.9502142938
  0
LINE
  5
409
100
AcDbEntity
  8
SUPERFICI
100
AcDbLine
 62
7
  6
CONTINUOUS
 10
-37.4948009136
 20
-22.2603537967
 11
-39.7281706108
 21
-22.2800212578
  0
LINE
  5
40A
100
AcDbEntity
  8
SUPERFICI
100
AcDbLine
 62
7
  6
CONTINUOUS
 10
-35.7281706108
 20
-22.2467212384
 11
-37.4948009136
 21
-22.2603537967
  0
LINE
  5
40B
100
AcDbEntity
  8
SUPERFICI
100
AcDbLine
 62
7
  6
CONTINUOUS
 10
-39.7281706108
 20
-22.0168546358
 11
-47.8394256308
 21
-21.591761773
  0
LINE
  5
40C
100
AcDbEntity
  8
SUPERFICI
100
AcDbLine
 62
253
  6
CONTINUOUS
 10
-39.7281706108
 20
-21.5166257837
 11
-47.8219838559
 21
-21.0924470056
  0
LWPOLYLINE
  5
40D
100
AcDbEntity
  8
SUPERFICI
100
AcDbPolyline
 62
253
  6
CONTINUOUS
 90
16
 70
0
 10
-47.8219838559
 20
-21.0924470056
 10
-47.8714969481
 20
-21.0872896677
 10
-47.9194401082
 20
-21.0775882662
 10
-47.9658133359
 20
-21.0633428012
 10
-48.011058185
 20
-21.0443255053
 10
-48.0547331019
 20
-21.0207641459
 10
-48.0955134259
 20
-20.9933420248
 10
-48.1332897454
 20
-20.9619511514
 10
-48.1681714721
 20
-20.9266995164
 10
-48.1991621808
 20
-20.8885943939
 10
-48.2261529999
 20
-20.8475235572
 10
-48.2492528012
 20
-20.8035992329
 10
-48.2677917741
 20
-20.7581653749
 10
-48.2815466486
 20
-20.7116699678
 10
-48.2907406949
 20
-20.663665027
 10
-48.2953739129
 20
-20.6141505525
  0
LINE
  5
40E
100
AcDbEntity
  8
SUPERFICI
100
AcDbLine
 62
7
  6
CONTINUOUS
 10
-39.7281706108
 20
23.8831453642
 11
-39.7281706108
 21
-23.1168546358
  0
LINE
  5
40F
100
AcDbEntity
  8
RACCORDO
100
AcDbLine
 62
7
  6
CONTINUOUS
 10
-31.7573158129
 20
-20.7475431075
 11
-35.7281706108
 21
-20.8168546358
  0
LINE
  5
410
100
AcDbEntity
  8
SUPERFICI
100
AcDbLine
 62
7
  6
CONTINUOUS
 10
-35.1876507657
 20
-20.8074198268
 11
-35.7281706108
 21
-20.8168546358
  0
LINE
  5
411
100
AcDbEntity
  8
RACCORDO
100
AcDbLine
 62
253
  6
CONTINUOUS
 10
-31.7573753776
 20
-20.6245742013
 11
-35.7281706108
 21
-20.6941952861
  0
LINE
  5
412
100
AcDbEntity
  8
SUPERFICI
100
AcDbLine
 62
7
  6
CONTINUOUS
 10
-33.5786751269
 20
-21.8168546358
 11
-34.1281706108
 21
-21.8168546358
  0
LWPOLYLINE
  5
413
100
AcDbEntity
  8
0
100
AcDbPolyline
 62
7
  6
CONTINUOUS
 90
3
 70
0
 43
0.3500000087
 10
-26.3353130646
 20
34.918858902
 10
-26.4067426193
 20
34.7045723694
 10
-26.5495995972
 20
34.4188584137
  0
LINE
  5
414
100
AcDbEntity
  8
SUPERFICI
100
AcDbLine
 62
253
  6
CONTINUOUS
 10
-48.7862057341
 20
-20.6351688663
 11
-48.7820281673
 21
-20.6349457005
  0
LINE
  5
415
100
AcDbEntity
  8
SUPERFICI
100
AcDbLine
 62
253
  6
CONTINUOUS
 10
-48.7820281673
 20
-20.6349457005
 11
-48.2953739129
 21
-20.6141505525
  0
LINE
  5
416
100
AcDbEntity
  8
RACCORDO
100
AcDbLine
 62
7
  6
CONTINUOUS
 10
-18.7194444076
 20
-18.5773148649
 11
-29.5979130395
 21
-18.7671992412
  0
LINE
  5
417
100
AcDbEntity
  8
RACCORDO
100
AcDbLine
 62
253
  6
CONTINUOUS
 10
-29.7801529664
 20
-18.6117150087
 11
-18.7194444076
 21
-18.4175206523
  0
LINE
  5
418
100
AcDbEntity
  8
0
100
AcDbLine
 62
7
  6
CONTINUOUS
 10
-18.2281706108
 20
-18.0773148649
 11
-18.0281706108
 21
-18.0773148649
  0
LINE
  5
419
100
AcDbEntity
  8
0
100
AcDbLine
 62
7
  6
CONTINUOUS
 10
-18.2281706108
 20
-17.9332511911
 11
-18.0281706108
 21
-17.9332508649
  0
LINE
  5
41A
100
AcDbEntity
  8
0
100
AcDbLine
 62
7
  6
CONTINUOUS
 10
-18.2281706108
 20
-17.8879998026
 11
-18.0281706108
 21
-17.8879998026
  0
LINE
  5
41B
100
AcDbEntity
  8
0
100
AcDbLine
 62
7
  6
CONTINUOUS
 10
-18.2281706108
 20
-17.0148154458
 11
-18.0281706108
 21
-17.0148148649
  0
LINE
  5
41C
100
AcDbEntity
  8
0
100
AcDbLine
 62
7
  6
CONTINUOUS
 10
-18.0281706108
 20
-16.9796192895
 11
-18.2281706108
 21
-16.9796192895
  0
LWPOLYLINE
  5
41D
100
AcDbEntity
  8
RACCORDO
100
AcDbPolyline
 62
7
  6
CONTINUOUS
 90
13
 70
0
 10
-29.7801529662
 20
-18.6117150169
 10
-29.7628515491
 20
-18.6358537326
 10
-29.7455647893
 20
-18.6581725374
 10
-29.7284221252
 20
-18.6786099486
 10
-29.7115706997
 20
-18.6971835065
 10
-29.6951207471
 20
-18.7137719384
 10
-29.6791361752
 20
-18.7281444291
 10
-29.6637270303
 20
-18.7402845618
 10
-29.6489990405
 20
-18.750219764
 10
-29.6349842271
 20
-18.7578421301
 10
-29.621740954
 20
-18.763155253
 10
-29.6093627134
 20
-18.7662546793
 10
-29.5979130395
 20
-18.7671992412
  0
LINE
  5
41E
100
AcDbEntity
  8
RACCORDO
100
AcDbLine
 62
7
  6
CONTINUOUS
 10
-35.7281706108
 20
-22.2467212384
 11
-35.7281706108
 21
-20.6941952861
  0
LINE
  5
41F
100
AcDbEntity
  8
SUPERFICI
100
AcDbLine
 62
7
  6
CONTINUOUS
 10
-35.7281706108
 20
-22.2467212384
 11
-35.7281706108
 21
-23.0470343761
  0
LINE
  5
420
100
AcDbEntity
  8
RACCORDO
100
AcDbLine
 62
7
  6
CONTINUOUS
 10
-35.7281706108
 20
21.4604860145
 11
-35.7281706108
 21
23.0130119669
  0
LINE
  5
421
100
AcDbEntity
  8
SUPERFICI
100
AcDbLine
 62
7
  6
CONTINUOUS
 10
-35.7281706108
 20
23.0524197317
 11
-35.7281706108
 21
23.8133251045
  0
LINE
  5
422
100
AcDbEntity
  8
DRAFT
100
AcDbLine
 62
7
  6
CONTINUOUS
 10
-17.9438713977
 20
-16.7519551454
 11
-16.512469824
 21
-16.6769385676
  0
LINE
  5
423
100
AcDbEntity
  8
RACCORDO
100
AcDbLine
 62
253
  6
CONTINUOUS
 10
-39.7281706108
 20
-15.7365138626
 11
-18.7194444076
 21
-15.6086110882
  0
LINE
  5
424
100
AcDbEntity
  8
RACCORDO
100
AcDbLine
 62
253
  6
CONTINUOUS
 10
-39.7281706108
 20
-16.9762840178
 11
-18.7194444076
 21
-16.8561395952
  0
LINE
  5
425
100
AcDbEntity
  8
0
100
AcDbLine
 62
7
  6
CONTINUOUS
 10
-18.2281706108
 20
-16.8773148649
 11
-18.0281706108
 21
-16.8773148649
  0
LINE
  5
426
100
AcDbEntity
  8
0
100
AcDbLine
 62
7
  6
CONTINUOUS
 10
-18.2281706108
 20
-16.8539218649
 11
-18.0281706108
 21
-16.8539218649
  0
LINE
  5
427
100
AcDbEntity
  8
0
100
AcDbLine
 62
7
  6
CONTINUOUS
 10
-18.2281706108
 20
-15.9036428649
 11
-18.0281706108
 21
-15.9036428649
  0
LINE
  5
428
100
AcDbEntity
  8
0
100
AcDbLine
 62
7
  6
CONTINUOUS
 10
-18.2281706108
 20
-15.7773148649
 11
-18.0281706108
 21
-15.7773148649
  0
LINE
  5
429
100
AcDbEntity
  8
0
100
AcDbLine
 62
7
  6
CONTINUOUS
 10
-18.2281706108
 20
-15.7360448649
 11
-18.0281706108
 21
-15.7360448649
  0
LINE
  5
42A
100
AcDbEntity
  8
RACCORDO
100
AcDbLine
 62
253
  6
CONTINUOUS
 10
-18.2281706108
 20
-15.6086110882
 11
-18.7194444076
 21
-15.6086110874
  0
LINE
  5
42B
100
AcDbEntity
  8
0
100
AcDbLine
 62
7
  6
CONTINUOUS
 10
-18.0281706108
 20
-14.7773852785
 11
-18.2281706108
 21
-14.7773852785
  0
LINE
  5
42C
100
AcDbEntity
  8
0
100
AcDbLine
 62
7
  6
CONTINUOUS
 10
-18.2281706108
 20
-14.680466962
 11
-18.0281706108
 21
-14.6804668649
  0
LINE
  5
42D
100
AcDbEntity
  8
0
100
AcDbLine
 62
253
  6
CONTINUOUS
 10
-18.2281706108
 20
-14.5359309472
 11
-18.0281706108
 21
-14.5359309472
  0
LINE
  5
42E
100
AcDbEntity
  8
0
100
AcDbLine
 62
7
  6
CONTINUOUS
 10
-18.2281706108
 20
-14.5025248649
 11
-18.0281706108
 21
-14.5025248649
  0
LWPOLYLINE
  5
42F
100
AcDbEntity
  8
RACCORDO
100
AcDbPolyline
 62
253
  6
CONTINUOUS
 90
8
 70
0
 10
-31.7573158129
 20
-20.6245730336
 10
-31.7567905734
 20
-20.6915576903
 10
-31.7567315925
 20
-20.7084332711
 10
-31.7567315925
 20
-20.7223896432
 10
-31.7567905734
 20
-20.7333383943
 10
-31.7569081615
 20
-20.7412101652
 10
-31.7570836118
 20
-20.7459550892
 10
-31.7573158129
 20
-20.7475431075
  0
LINE
  5
430
100
AcDbEntity
  8
SUPERFICI
100
AcDbLine
 62
7
  6
CONTINUOUS
 10
-34.1281706108
 20
22.5831453642
 11
-34.1281706108
 21
21.5552172603
  0
LINE
  5
431
100
AcDbEntity
  8
SUPERFICI
100
AcDbLine
 62
7
  6
CONTINUOUS
 10
-34.1281706108
 20
-21.8168546358
 11
-34.1281706108
 21
-20.7889265319
  0
LINE
  5
432
100
AcDbEntity
  8
RACCORDO
100
AcDbLine
 62
253
  6
CONTINUOUS
 10
-31.7573158129
 20
21.5138338359
 11
-31.7574141392
 21
21.5122597402
  0
LINE
  5
433
100
AcDbEntity
  8
0
100
AcDbLine
 62
7
  6
CONTINUOUS
 10
-18.2281706108
 20
-14.3433068649
 11
-18.0281706108
 21
-14.3433068649
  0
LINE
  5
434
100
AcDbEntity
  8
0
100
AcDbLine
 62
253
  6
CONTINUOUS
 10
-18.2281706108
 20
-14.264013388
 11
-18.0281706108
 21
-14.264013388
  0
LINE
  5
435
100
AcDbEntity
  8
0
100
AcDbLine
 62
7
  6
CONTINUOUS
 10
-18.2281706108
 20
-14.0634188649
 11
-18.0281706108
 21
-14.0634188649
  0
LINE
  5
436
100
AcDbEntity
  8
RACCORDO
100
AcDbLine
 62
253
  6
CONTINUOUS
 10
-16.2281706108
 20
-14.0168546358
 11
-18.0281706108
 21
-14.0168546358
  0
LINE
  5
437
100
AcDbEntity
  8
0
100
AcDbLine
 62
7
  6
CONTINUOUS
 10
-18.0281706108
 20
-13.1466590215
 11
-18.2281706108
 21
-13.1466590215
  0
LINE
  5
438
100
AcDbEntity
  8
0
100
AcDbLine
 62
253
  6
CONTINUOUS
 10
-18.2281706108
 20
-13.0819533401
 11
-18.0281706108
 21
-13.0819533401
  0
LINE
  5
439
100
AcDbEntity
  8
0
100
AcDbLine
 62
253
  6
CONTINUOUS
 10
-18.2281706108
 20
-12.9241584162
 11
-18.0281706108
 21
-12.9241584162
  0
LINE
  5
43A
100
AcDbEntity
  8
0
100
AcDbLine
 62
7
  6
CONTINUOUS
 10
-18.2281706108
 20
-12.8363871984
 11
-18.0281706108
 21
-12.8363871984
  0
LINE
  5
43B
100
AcDbEntity
  8
0
100
AcDbLine
 62
253
  6
CONTINUOUS
 10
-18.2281706108
 20
-12.5679015093
 11
-18.0281706108
 21
-12.5679015093
  0
LINE
  5
43C
100
AcDbEntity
  8
0
100
AcDbLine
 62
7
  6
CONTINUOUS
 10
-18.2281706108
 20
-12.5198434051
 11
-18.0281706108
 21
-12.5198434051
  0
LINE
  5
43D
100
AcDbEntity
  8
RACCORDO
100
AcDbLine
 62
253
  6
CONTINUOUS
 10
-16.2281706108
 20
-11.9168546358
 11
-18.0281706108
 21
-11.9168546358
  0
LWPOLYLINE
  5
43E
100
AcDbEntity
  8
RACCORDO
100
AcDbPolyline
 62
253
  6
CONTINUOUS
 90
8
 70
0
 10
-31.7574141392
 20
21.5122597402
 10
-31.7567905755
 20
21.4996291228
 10
-31.7566785427
 20
21.4886715478
 10
-31.7568194278
 20
21.4747313877
 10
-31.7567905755
 20
21.4578484187
 10
-31.7566126936
 20
21.4381133761
 10
-31.7567163855
 20
21.4157184269
 10
-31.7573158129
 20
21.390863762
  0
LWPOLYLINE
  5
43F
100
AcDbEntity
  8
0
100
AcDbPolyline
 62
7
  6
CONTINUOUS
 90
2
 70
0
 43
0.3500000087
 10
-31.3353136841
 20
42.6331442322
 10
-31.3353136841
 20
44.133145697
  0
LINE
  5
440
100
AcDbEntity
  8
0
100
AcDbLine
 62
7
  6
CONTINUOUS
 10
-18.2281706108
 20
-11.4283890209
 11
-18.0281706108
 21
-11.4283888649
  0
LINE
  5
441
100
AcDbEntity
  8
0
100
AcDbLine
 62
7
  6
CONTINUOUS
 10
-18.2281706108
 20
-11.4103468649
 11
-18.0281706108
 21
-11.4103468649
  0
LINE
  5
442
100
AcDbEntity
  8
0
100
AcDbLine
 62
7
  6
CONTINUOUS
 10
-18.2281706108
 20
-11.3073258649
 11
-18.0281706108
 21
-11.3073258649
  0
LINE
  5
443
100
AcDbEntity
  8
0
100
AcDbLine
 62
7
  6
CONTINUOUS
 10
-18.2281706108
 20
-10.8469298649
 11
-18.0281706108
 21
-10.8469298649
  0
LINE
  5
444
100
AcDbEntity
  8
0
100
AcDbLine
 62
7
  6
CONTINUOUS
 10
-18.2281706108
 20
-10.6724448649
 11
-18.0281706108
 21
-10.6724448649
  0
LINE
  5
445
100
AcDbEntity
  8
0
100
AcDbLine
 62
7
  6
CONTINUOUS
 10
-18.2281706108
 20
-10.1836878649
 11
-18.0281706108
 21
-10.1836878649
  0
LINE
  5
446
100
AcDbEntity
  8
0
100
AcDbLine
 62
7
  6
CONTINUOUS
 10
-18.2281706108
 20
-10.0980556956
 11
-18.0281706108
 21
-10.0980556956
  0
LWPOLYLINE
  5
447
100
AcDbEntity
  8
0
100
AcDbPolyline
 62
7
  6
CONTINUOUS
 90
2
 70
0
 43
0.3500000087
 10
-28.4067424408
 20
34.6331449463
 10
-28.4067424408
 20
36.1331464111
  0
LINE
  5
448
100
AcDbEntity
  8
0
100
AcDbLine
 62
7
  6
CONTINUOUS
 10
-18.2281706108
 20
-9.006601358
 11
-18.0281706108
 21
-9.0066018649
  0
LINE
  5
449
100
AcDbEntity
  8
0
100
AcDbLine
 62
7
  6
CONTINUOUS
 10
-18.2281706108
 20
-8.9885588649
 11
-18.0281706108
 21
-8.9885588649
  0
LINE
  5
44A
100
AcDbEntity
  8
0
100
AcDbLine
 62
7
  6
CONTINUOUS
 10
-18.2281706108
 20
-8.7505698649
 11
-18.0281706108
 21
-8.7505698649
  0
LINE
  5
44B
100
AcDbEntity
  8
0
100
AcDbLine
 62
7
  6
CONTINUOUS
 10
-18.2281706108
 20
-7.8840888649
 11
-18.0281706108
 21
-7.8840888649
  0
LINE
  5
44C
100
AcDbEntity
  8
0
100
AcDbLine
 62
7
  6
CONTINUOUS
 10
-18.2281706108
 20
-7.8555978649
 11
-18.0281706108
 21
-7.8555978649
  0
LINE
  5
44D
100
AcDbEntity
  8
DRAFT
100
AcDbLine
 62
7
  6
CONTINUOUS
 10
-17.9438713977
 20
-9.1817541262
 11
-16.512469824
 21
-9.2567707039
  0
LINE
  5
44E
100
AcDbEntity
  8
DRAFT
100
AcDbLine
 62
7
  6
CONTINUOUS
 10
-15.5281706108
 20
-4.4301691903
 11
-15.512469824
 21
-4.4293463469
  0
LINE
  5
44F
100
AcDbEntity
  8
RACCORDO
100
AcDbLine
 62
7
  6
CONTINUOUS
 10
-16.0194444076
 20
-6.3783011765
 11
-18.2281706108
 21
-6.4168546358
  0
LINE
  5
450
100
AcDbEntity
  8
RACCORDO
100
AcDbLine
 62
253
  6
CONTINUOUS
 10
-18.7194444076
 20
-5.4255821567
 11
-16.0194444076
 21
-5.3784534813
  0
LINE
  5
451
100
AcDbEntity
  8
RACCORDO
100
AcDbLine
 62
253
  6
CONTINUOUS
 10
-15.5281706108
 20
-5.3784534813
 11
-16.0194444076
 21
-5.3784534811
  0
LWPOLYLINE
  5
452
100
AcDbEntity
  8
RACCORDO
100
AcDbPolyline
 62
253
  6
CONTINUOUS
 90
20
 70
0
 10
-18.2091718157
 20
17.6224572947
 10
-18.2102860805
 20
17.6171518979
 10
-18.2114072092
 20
17.6116262249
 10
-18.2125355519
 20
17.6059001957
 10
-18.2136966725
 20
17.5998403071
 10
-18.2148861874
 20
17.5933741492
 10
-18.2160908786
 20
17.5865240329
 10
-18.2173166335
 20
17.5792662911
 10
-18.218549136
 20
17.5715646145
 10
-18.2197765614
 20
17.563393152
 10
-18.2210010944
 20
17.5547304354
 10
-18.2222059705
 20
17.5455003992
 10
-18.2233665215
 20
17.535692226
 10
-18.2244651941
 20
17.525382542
 10
-18.2254800731
 20
17.5144969721
 10
-18.2263772375
 20
17.5030285607
 10
-18.2271214609
 20
17.4911926491
 10
-18.2276854438
 20
17.4790670123
 10
-18.2280445188
 20
17.4665570039
 10
-18.2281706108
 20
17.4536486548
  0
LWPOLYLINE
  5
453
100
AcDbEntity
  8
RACCORDO
100
AcDbPolyline
 62
253
  6
CONTINUOUS
 90
3
 70
0
 10
-18.2058633158
 20
17.6374797337
 10
-18.206972255
 20
17.632572566
 10
-18.2091718157
 20
17.6224572947
  0
LWPOLYLINE
  5
454
100
AcDbEntity
  8
RACCORDO
100
AcDbPolyline
 62
253
  6
CONTINUOUS
 90
4
 70
0
 10
-18.200435124
 20
17.6600348454
 10
-18.2025624425
 20
17.6514717606
 10
-18.2036575442
 20
17.6469225998
 10
-18.2058633158
 20
17.6374797337
  0
LWPOLYLINE
  5
455
100
AcDbEntity
  8
RACCORDO
100
AcDbPolyline
 62
253
  6
CONTINUOUS
 90
3
 70
0
 10
-18.197590148
 20
17.6710318563
 10
-18.1994271021
 20
17.6640073545
 10
-18.200435124
 20
17.6600348454
  0
LINE
  5
456
100
AcDbEntity
  8
RACCORDO
100
AcDbLine
 62
253
  6
CONTINUOUS
 10
-18.1968067409
 20
17.6739939247
 11
-18.197590148
 21
17.6710318563
  0
LINE
  5
457
100
AcDbEntity
  8
RACCORDO
100
AcDbLine
 62
253
  6
CONTINUOUS
 10
-18.1949722417
 20
17.6806595926
 11
-18.1968067409
 21
17.6739939247
  0
LINE
  5
458
100
AcDbEntity
  8
RACCORDO
100
AcDbLine
 62
7
  6
CONTINUOUS
 10
-18.5514598803
 20
6.4290815772
 11
-18.6069344469
 21
6.3498794632
  0
LINE
  5
459
100
AcDbEntity
  8
RACCORDO
100
AcDbLine
 62
7
  6
CONTINUOUS
 10
-18.6069344469
 20
6.3498794632
 11
-18.7194444076
 21
6.1918728851
  0
LINE
  5
45A
100
AcDbEntity
  8
RACCORDO
100
AcDbLine
 62
7
  6
CONTINUOUS
 10
-18.7194444076
 20
-5.4255821567
 11
-18.6061836656
 21
-5.5846533243
  0
LWPOLYLINE
  5
45B
100
AcDbEntity
  8
RACCORDO
100
AcDbPolyline
 62
7
  6
CONTINUOUS
 90
20
 70
0
 10
-18.6061836656
 20
-5.5846533243
 10
-18.5506946583
 20
-5.6638923589
 10
-18.52345427
 20
-5.7032836451
 10
-18.496698878
 20
-5.7425128596
 10
-18.4704541332
 20
-5.7814124869
 10
-18.4448527806
 20
-5.8199925938
 10
-18.4200189035
 20
-5.8582431133
 10
-18.3959924287
 20
-5.8959663285
 10
-18.3729183639
 20
-5.9331956142
 10
-18.3509616997
 20
-5.9698975956
 10
-18.3302257182
 20
-6.0057744309
 10
-18.3108927471
 20
-6.0408357871
 10
-18.2931383589
 20
-6.0750719972
 10
-18.2770941291
 20
-6.1081562189
 10
-18.2629507279
 20
-6.1401239254
 10
-18.2509350492
 20
-6.1709396435
 10
-18.2412531651
 20
-6.2001701113
 10
-18.2341050929
 20
-6.2276709083
 10
-18.2296832157
 20
-6.253586455
 10
-18.2281706108
 20
-6.2779167514
  0
LINE
  5
45C
100
AcDbEntity
  8
RACCORDO
100
AcDbLine
 62
253
  6
CONTINUOUS
 10
-15.2281706108
 20
-1.7168546358
 11
-15.5281706108
 21
-1.7168546358
  0
LINE
  5
45D
100
AcDbEntity
  8
RACCORDO
100
AcDbLine
 62
253
  6
CONTINUOUS
 10
-15.2281706108
 20
0.3831453642
 11
-15.5281706108
 21
0.3831453642
  0
LWPOLYLINE
  5
45E
100
AcDbEntity
  8
RACCORDO
100
AcDbPolyline
 62
253
  6
CONTINUOUS
 90
16
 70
0
 10
-18.2281706108
 20
17.3105481968
 10
-18.2308491444
 20
17.3427924825
 10
-18.2388560611
 20
17.3746913408
 10
-18.2521055946
 20
17.405903
 10
-18.2704558087
 20
17.4360930505
 10
-18.2937101143
 20
17.4649380232
 10
-18.3216193736
 20
17.4921288556
 10
-18.3538845762
 20
17.5173742124
 10
-18.3901600367
 20
17.5404035988
 10
-18.4300570905
 20
17.560970257
 10
-18.4731482771
 20
17.5788538223
 10
-18.5189719088
 20
17.5938626753
 10
-18.567037003
 20
17.6058359938
 10
-18.6168285685
 20
17.6146454848
 10
-18.6678131261
 20
17.6201967563
 10
-18.7194444077
 20
17.6224303241
  0
LWPOLYLINE
  5
45F
100
AcDbEntity
  8
RACCORDO
100
AcDbPolyline
 62
253
  6
CONTINUOUS
 90
19
 70
0
 10
-18.2281706108
 20
18.8436817457
 10
-18.2300321175
 20
18.8730087917
 10
-18.2356030651
 20
18.9021185931
 10
-18.244842399
 20
18.9307943425
 10
-18.2576821071
 20
18.9588231259
 10
-18.2740267829
 20
18.9859953576
 10
-18.2937534508
 20
19.0121065809
 10
-18.31671316
 20
19.0369608167
 10
-18.3427358028
 20
19.0603749332
 10
-18.3716310893
 20
19.0821773944
 10
-18.4031889621
 20
19.1022079424
 10
-18.4371712751
 20
19.1203138062
 10
-18.4733151182
 20
19.1363553879
 10
-18.5113503204
 20
19.1502144594
 10
-18.5509924643
 20
19.1617889827
 10
-18.5919334384
 20
19.1709917631
 10
-18.6338629495
 20
19.1777572915
 10
-18.6764722643
 20
19.1820398869
 10
-18.7194444076
 20
19.1838113808
  0
LINE
  5
460
100
AcDbEntity
  8
RACCORDO
100
AcDbLine
 62
253
  6
CONTINUOUS
 10
-18.7194444076
 20
-18.4175206529
 11
-18.7187401313
 21
-18.5040053695
  0
LINE
  5
461
100
AcDbEntity
  8
RACCORDO
100
AcDbLine
 62
253
  6
CONTINUOUS
 10
-18.7194444077
 20
17.6224303238
 11
-18.7189392698
 21
17.1406400642
  0
LINE
  5
462
100
AcDbEntity
  8
RACCORDO
100
AcDbLine
 62
253
  6
CONTINUOUS
 10
-18.7194444076
 20
-15.6086110882
 11
-18.7189250143
 21
-16.2695106202
  0
LINE
  5
463
100
AcDbEntity
  8
RACCORDO
100
AcDbLine
 62
253
  6
CONTINUOUS
 10
-18.7194444076
 20
19.1838113808
 11
-18.7194444076
 21
17.6224303236
  0
LINE
  5
464
100
AcDbEntity
  8
RACCORDO
100
AcDbLine
 62
253
  6
CONTINUOUS
 10
-18.7194444076
 20
-5.4255821567
 11
-18.7194444076
 21
-15.6086110882
  0
LWPOLYLINE
  5
465
100
AcDbEntity
  8
RACCORDO
100
AcDbPolyline
 62
253
  6
CONTINUOUS
 90
6
 70
0
 10
-18.7187401313
 20
-18.5040053695
 10
-18.718660784
 20
-18.5442675289
 10
-18.7187401438
 20
-18.5586306788
 10
-18.7188981905
 20
-18.5689779184
 10
-18.7191336012
 20
-18.5752232737
 10
-18.7194444076
 20
-18.5773148649
  0
LINE
  5
466
100
AcDbEntity
  8
RACCORDO
100
AcDbLine
 62
7
  6
CONTINUOUS
 10
-18.2281706108
 20
18.8436817457
 11
-18.2281706108
 21
7.0442074798
  0
LINE
  5
467
100
AcDbEntity
  8
RACCORDO
100
AcDbLine
 62
7
  6
CONTINUOUS
 10
-18.2281706108
 20
-6.2779167514
 11
-18.2281706108
 21
-18.0773910173
  0
LINE
  5
468
100
AcDbEntity
  8
0
100
AcDbLine
 62
7
  6
CONTINUOUS
 10
-18.0281706108
 20
15.4248153642
 11
-18.0281706108
 21
11.9414753642
  0
LINE
  5
469
100
AcDbEntity
  8
0
100
AcDbLine
 62
7
  6
CONTINUOUS
 10
-18.0281706108
 20
9.3674853642
 11
-18.0281706108
 21
7.2799060284
  0
LINE
  5
46A
100
AcDbEntity
  8
0
100
AcDbLine
 62
7
  6
CONTINUOUS
 10
-18.0281706108
 20
-7.8555978649
 11
-18.0281706108
 21
-11.3073258649
  0
LINE
  5
46B
100
AcDbEntity
  8
0
100
AcDbLine
 62
7
  6
CONTINUOUS
 10
-18.0281706108
 20
-11.338651143
 11
-18.0281706108
 21
-14.5025248649
  0
LINE
  5
46C
100
AcDbEntity
  8
0
100
AcDbLine
 62
7
  6
CONTINUOUS
 10
-18.0281706108
 20
-14.5131773629
 11
-18.0281706108
 21
-15.7360448649
  0
LINE
  5
46D
100
AcDbEntity
  8
0
100
AcDbLine
 62
7
  6
CONTINUOUS
 10
-18.0281706108
 20
-15.7415372419
 11
-18.0281706108
 21
-15.7773148649
  0
LINE
  5
46E
100
AcDbEntity
  8
0
100
AcDbLine
 62
7
  6
CONTINUOUS
 10
-18.0281706108
 20
-15.9036428649
 11
-18.0281706108
 21
-18.0773148649
  0
LINE
  5
46F
100
AcDbEntity
  8
RACCORDO
100
AcDbLine
 62
253
  6
CONTINUOUS
 10
-17.9438713977
 20
17.5182458738
 11
-17.9438713977
 21
9.9480448546
  0
LINE
  5
470
100
AcDbEntity
  8
RACCORDO
100
AcDbLine
 62
253
  6
CONTINUOUS
 10
-17.9438713977
 20
-9.1817541262
 11
-17.9438713977
 21
-16.7519551454
  0
LINE
  5
471
100
AcDbEntity
  8
RACCORDO
100
AcDbLine
 62
253
  6
CONTINUOUS
 10
-18.7189392698
 20
17.1406400642
 11
-18.7194444076
 21
6.1918728851
  0
LINE
  5
472
100
AcDbEntity
  8
RACCORDO
100
AcDbLine
 62
253
  6
CONTINUOUS
 10
-18.7189250143
 20
-16.2695106202
 11
-18.7194444076
 21
-18.4175206523
  0
LINE
  5
473
100
AcDbEntity
  8
RACCORDO
100
AcDbLine
 62
253
  6
CONTINUOUS
 10
-18.718660784
 20
19.3105582453
 11
-18.7187401313
 21
19.2702960944
  0
LINE
  5
474
100
AcDbEntity
  8
RACCORDO
100
AcDbLine
 62
253
  6
CONTINUOUS
 10
-18.7187401313
 20
19.2702960944
 11
-18.7194444076
 21
19.1838113813
  0
LWPOLYLINE
  5
475
100
AcDbEntity
  8
RACCORDO
100
AcDbPolyline
 62
7
  6
CONTINUOUS
 90
19
 70
0
 10
-18.2281706108
 20
7.0442074798
 10
-18.2296793197
 20
7.0199692252
 10
-18.234122653
 20
6.9939276331
 10
-18.2413654755
 20
6.9660827035
 10
-18.2513108
 20
6.9361388145
 10
-18.2637727347
 20
6.904391588
 10
-18.2783603278
 20
6.8717278892
 10
-18.2946705703
 20
6.8383592964
 10
-18.3125399041
 20
6.8040742313
 10
-18.3318888666
 20
6.7691248232
 10
-18.3525142778
 20
6.7335745952
 10
-18.3742272228
 20
6.6973600242
 10
-18.3970697519
 20
6.6605426702
 10
-18.4209571441
 20
6.6230697806
 10
-18.4456991767
 20
6.584994108
 10
-18.4712353076
 20
6.5465354696
 10
-18.4974519998
 20
6.507690433
 10
-18.5242171428
 20
6.4684624306
 10
-18.5514598803
 20
6.4290815772
  0
LWPOLYLINE
  5
476
100
AcDbEntity
  8
RACCORDO
100
AcDbPolyline
 62
253
  6
CONTINUOUS
 90
19
 70
0
 10
-18.2281706108
 20
-18.0773910173
 10
-18.2300267404
 20
-18.1065098864
 10
-18.2355945535
 20
-18.1356625495
 10
-18.244842388
 20
-18.1645035859
 10
-18.2576892681
 20
-18.1925806095
 10
-18.2740280242
 20
-18.2196773728
 10
-18.2937535246
 20
-18.2458159407
 10
-18.3167256673
 20
-18.2707178125
 10
-18.3427489162
 20
-18.2940726768
 10
-18.3716311276
 20
-18.3158866924
 10
-18.4032016248
 20
-18.335960958
 10
-18.4372044363
 20
-18.3540290229
 10
-18.473315072
 20
-18.3700646409
 10
-18.5113509197
 20
-18.383957873
 10
-18.551042559
 20
-18.3955150631
 10
-18.5919335306
 20
-18.4047010524
 10
-18.6337301495
 20
-18.4114897811
 10
-18.676302154
 20
-18.4157871896
 10
-18.7194444076
 20
-18.4175206529
  0
LWPOLYLINE
  5
477
100
AcDbEntity
  8
RACCORDO
100
AcDbPolyline
 62
253
  6
CONTINUOUS
 90
16
 70
0
 10
-18.2281706108
 20
-16.5442574684
 10
-18.2308491866
 20
-16.5765020073
 10
-18.238856215
 20
-16.6084010694
 10
-18.2521059069
 20
-16.6396128785
 10
-18.2704563016
 20
-16.6698030218
 10
-18.2937107878
 20
-16.6986480326
 10
-18.3216202102
 20
-16.7258388564
 10
-18.3538855391
 20
-16.7510841624
 10
-18.3901610742
 20
-16.7741134643
 10
-18.4300581483
 20
-16.7946800188
 10
-18.473149292
 20
-16.8125634693
 10
-18.5189728138
 20
-16.8275722069
 10
-18.5670377459
 20
-16.8395454229
 10
-18.6168291058
 20
-16.8483548326
 10
-18.6678134136
 20
-16.8539060492
 10
-18.7194444076
 20
-16.856139595
  0
LINE
  5
478
100
AcDbEntity
  8
RACCORDO
100
AcDbLine
 62
253
  6
CONTINUOUS
 10
-16.0171036368
 20
7.0914919111
 11
-16.0164853775
 21
7.0414345117
  0
LINE
  5
479
100
AcDbEntity
  8
RACCORDO
100
AcDbLine
 62
253
  6
CONTINUOUS
 10
-16.0194444076
 20
-5.3784534813
 11
-16.0171035883
 21
-5.6998278099
  0
LINE
  5
47A
100
AcDbEntity
  8
RACCORDO
100
AcDbLine
 62
253
  6
CONTINUOUS
 10
-16.0164853775
 20
7.0414345117
 11
-16.0159368183
 21
6.9379281796
  0
LINE
  5
47B
100
AcDbEntity
  8
RACCORDO
100
AcDbLine
 62
253
  6
CONTINUOUS
 10
-16.0171035883
 20
-5.6998278099
 11
-16.0159367107
 21
-5.9870840349
  0
LINE
  5
47C
100
AcDbEntity
  8
RACCORDO
100
AcDbLine
 62
253
  6
CONTINUOUS
 10
-16.512469824
 20
17.4432292961
 11
-16.512469824
 21
10.0230614324
  0
LINE
  5
47D
100
AcDbEntity
  8
RACCORDO
100
AcDbLine
 62
253
  6
CONTINUOUS
 10
-16.512469824
 20
-9.2567707039
 11
-16.512469824
 21
-16.6769385676
  0
LINE
  5
47E
100
AcDbEntity
  8
RACCORDO
100
AcDbLine
 62
7
  6
CONTINUOUS
 10
-16.2281706108
 20
17.1435902132
 11
-16.2281706108
 21
10.3227004929
  0
LINE
  5
47F
100
AcDbEntity
  8
RACCORDO
100
AcDbLine
 62
7
  6
CONTINUOUS
 10
-16.2281706108
 20
-9.5564097868
 11
-16.2281706108
 21
-16.3772995071
  0
LINE
  5
480
100
AcDbEntity
  8
RACCORDO
100
AcDbLine
 62
253
  6
CONTINUOUS
 10
-16.0194444076
 20
6.1447442098
 11
-16.0194444076
 21
-5.3784534813
  0
LINE
  5
481
100
AcDbEntity
  8
RACCORDO
100
AcDbLine
 62
7
  6
CONTINUOUS
 10
-15.5281706108
 20
6.6446680573
 11
-15.5281706108
 21
-5.8783773289
  0
LINE
  5
482
100
AcDbEntity
  8
RACCORDO
100
AcDbLine
 62
253
  6
CONTINUOUS
 10
-15.512469824
 20
3.0956370753
 11
-15.512469824
 21
-4.4293463469
  0
LINE
  5
483
100
AcDbEntity
  8
RACCORDO
100
AcDbLine
 62
7
  6
CONTINUOUS
 10
-15.2281706108
 20
2.7960068362
 11
-15.2281706108
 21
-4.1297161184
  0
LINE
  5
484
100
AcDbEntity
  8
RACCORDO
100
AcDbLine
 62
253
  6
CONTINUOUS
 10
-16.0159368183
 20
6.9379281796
 11
-16.0159367107
 21
6.7533747633
  0
LINE
  5
485
100
AcDbEntity
  8
RACCORDO
100
AcDbLine
 62
253
  6
CONTINUOUS
 10
-16.0159367107
 20
-5.9870840349
 11
-16.0159368183
 21
-6.1716374512
  0
LINE
  5
486
100
AcDbEntity
  8
RACCORDO
100
AcDbLine
 62
253
  6
CONTINUOUS
 10
-16.0159367107
 20
6.7533747633
 11
-16.0171035883
 21
6.4661185383
  0
LINE
  5
487
100
AcDbEntity
  8
RACCORDO
100
AcDbLine
 62
253
  6
CONTINUOUS
 10
-16.0159368183
 20
-6.1716374512
 11
-16.0164853775
 21
-6.2751437833
  0
LINE
  5
488
100
AcDbEntity
  8
RACCORDO
100
AcDbLine
 62
253
  6
CONTINUOUS
 10
-16.0171035883
 20
6.4661185383
 11
-16.0194444076
 21
6.1447442098
  0
LWPOLYLINE
  5
489
100
AcDbEntity
  8
RACCORDO
100
AcDbPolyline
 62
253
  6
CONTINUOUS
 90
7
 70
0
 10
-16.0164853775
 20
-6.2751437833
 10
-16.0171036368
 20
-6.3252011826
 10
-16.0174831256
 20
-6.3441995171
 10
-16.0179103012
 20
-6.3590633962
 10
-16.0183831152
 20
-6.3697291282
 10
-16.0188959449
 20
-6.37615092
 10
-16.0194444076
 20
-6.3783011765
  0
LINE
  5
48A
100
AcDbEntity
  8
DRAFT
100
AcDbLine
 62
7
  6
CONTINUOUS
 10
-15.5281706108
 20
3.0964599187
 11
-15.512469824
 21
3.0956370753
  0
LWPOLYLINE
  5
48B
100
AcDbEntity
  8
RACCORDO
100
AcDbPolyline
 62
253
  6
CONTINUOUS
 90
6
 70
0
 10
-16.0194444076
 20
7.1445919049
 10
-16.0188959449
 20
7.1424416485
 10
-16.0183831152
 20
7.1360198567
 10
-16.0179103012
 20
7.1253541247
 10
-16.0174831256
 20
7.1104902455
 10
-16.0171036368
 20
7.0914919111
  0
LWPOLYLINE
  5
48C
100
AcDbEntity
  8
RACCORDO
100
AcDbPolyline
 62
253
  6
CONTINUOUS
 90
5
 70
0
 10
-18.7194444076
 20
19.3436055933
 10
-18.7191336011
 20
19.3415140002
 10
-18.7188981903
 20
19.3352686404
 10
-18.7187401437
 20
19.3249213963
 10
-18.718660784
 20
19.3105582453
  0
LINE
  5
48D
100
AcDbEntity
  8
RACCORDO
100
AcDbLine
 62
253
  6
CONTINUOUS
 10
-29.7801529664
 20
-18.6117150087
 11
-31.7573753776
 21
-20.6245742013
  0
LINE
  5
48E
100
AcDbEntity
  8
RACCORDO
100
AcDbLine
 62
7
  6
CONTINUOUS
 10
-29.5781706108
 20
-18.7668546358
 11
-32.0842411125
 21
-21.2729251375
  0
LINE
  5
48F
100
AcDbEntity
  8
RACCORDO
100
AcDbLine
 62
253
  6
CONTINUOUS
 10
-15.5281706108
 20
6.1447442098
 11
-16.0194444076
 21
6.1447442098
  0
LINE
  5
490
100
AcDbEntity
  8
0
100
AcDbLine
 62
7
  6
CONTINUOUS
 10
-18.2281706108
 20
7.2799060284
 11
-18.0281706108
 21
7.2799060284
  0
LINE
  5
491
100
AcDbEntity
  8
0
100
AcDbLine
 62
7
  6
CONTINUOUS
 10
-18.2281706108
 20
7.3328673642
 11
-18.0281706108
 21
7.3328673642
  0
LINE
  5
492
100
AcDbEntity
  8
RACCORDO
100
AcDbLine
 62
253
  6
CONTINUOUS
 10
-16.0194444076
 20
6.1447442098
 11
-18.7194444076
 21
6.1918728851
  0
LINE
  5
493
100
AcDbEntity
  8
RACCORDO
100
AcDbLine
 62
7
  6
CONTINUOUS
 10
-18.2281706108
 20
7.1831453642
 11
-16.0194444076
 21
7.1445919049
  0
LINE
  5
494
100
AcDbEntity
  8
RACCORDO
100
AcDbLine
 62
7
  6
CONTINUOUS
 10
-32.0842411125
 20
22.0392158659
 11
-29.5781706108
 21
19.5331453642
  0
LINE
  5
495
100
AcDbEntity
  8
RACCORDO
100
AcDbLine
 62
253
  6
CONTINUOUS
 10
-31.7574019249
 20
21.3908653298
 11
-31.138362339
 21
20.7606972725
  0
LINE
  5
496
100
AcDbEntity
  8
RACCORDO
100
AcDbLine
 62
253
  6
CONTINUOUS
 10
-31.138362339
 20
20.7606972725
 11
-29.7801530194
 21
19.3780057381
  0
LWPOLYLINE
  5
497
100
AcDbEntity
  8
RACCORDO
100
AcDbPolyline
 62
253
  6
CONTINUOUS
 90
10
 70
0
 10
-31.4124886255
 20
-20.6011726505
 10
-31.4382839548
 20
-20.6227020355
 10
-31.468730251
 20
-20.6403034219
 10
-31.5031633756
 20
-20.653395925
 10
-31.5404520507
 20
-20.6612297012
 10
-31.5801188586
 20
-20.663757459
 10
-31.6224294532
 20
-20.66148946
 10
-31.6668832473
 20
-20.6544010944
 10
-31.712164977
 20
-20.6420971294
 10
-31.7573158129
 20
-20.6245730336
  0
LINE
  5
498
100
AcDbEntity
  8
DRAFT
100
AcDbLine
 62
7
  6
CONTINUOUS
 10
-17.9438713977
 20
9.9480448546
 11
-16.512469824
 21
10.0230614324
  0
LINE
  5
499
100
AcDbEntity
  8
0
100
AcDbLine
 62
7
  6
CONTINUOUS
 10
-18.2281706108
 20
8.6980373642
 11
-18.0281706108
 21
8.6980373642
  0
LINE
  5
49A
100
AcDbEntity
  8
0
100
AcDbLine
 62
7
  6
CONTINUOUS
 10
-18.2281706108
 20
8.9715965114
 11
-18.0281706108
 21
8.9715973642
  0
LINE
  5
49B
100
AcDbEntity
  8
0
100
AcDbLine
 62
7
  6
CONTINUOUS
 10
-18.2281706108
 20
9.3147493642
 11
-18.0281706108
 21
9.3147493642
  0
LINE
  5
49C
100
AcDbEntity
  8
0
100
AcDbLine
 62
7
  6
CONTINUOUS
 10
-18.2281706108
 20
9.3451634366
 11
-18.0281706108
 21
9.3451634366
  0
LINE
  5
49D
100
AcDbEntity
  8
0
100
AcDbLine
 62
7
  6
CONTINUOUS
 10
-18.2281706108
 20
9.3674853642
 11
-18.0281706108
 21
9.3674853642
  0
LWPOLYLINE
  5
49E
100
AcDbEntity
  8
0
100
AcDbPolyline
 62
7
  6
CONTINUOUS
 90
10
 70
0
 43
0.3500000087
 10
-26.4067426193
 20
35.1331454346
 10
-26.3353130646
 20
34.9902863251
 10
-26.3353130646
 20
34.918858902
 10
-26.4781700424
 20
34.7760040558
 10
-26.5495995972
 20
34.7760040558
 10
-26.6210270203
 20
34.8474314789
 10
-26.6210270203
 20
34.918858902
 10
-26.5495995972
 20
35.0617180115
 10
-26.4781700424
 20
35.1331454346
 10
-26.4067426193
 20
35.1331454346
  0
LINE
  5
49F
100
AcDbEntity
  8
0
100
AcDbLine
 62
7
  6
CONTINUOUS
 10
-18.2281706108
 20
11.9414753642
 11
-18.0281706108
 21
11.9414753642
  0
LINE
  5
4A0
100
AcDbEntity
  8
RACCORDO
100
AcDbLine
 62
253
  6
CONTINUOUS
 10
-16.2281706108
 20
12.6831453642
 11
-18.0281706108
 21
12.6831453642
  0
LINE
  5
4A1
100
AcDbEntity
  8
RACCORDO
100
AcDbLine
 62
253
  6
CONTINUOUS
 10
-16.2281706108
 20
14.7831453642
 11
-18.0281706108
 21
14.7831453642
  0
LINE
  5
4A2
100
AcDbEntity
  8
0
100
AcDbLine
 62
7
  6
CONTINUOUS
 10
-18.2281706108
 20
15.0161553642
 11
-18.0281706108
 21
15.0161553642
  0
LINE
  5
4A3
100
AcDbEntity
  8
0
100
AcDbLine
 62
7
  6
CONTINUOUS
 10
-18.2281706108
 20
15.4248153642
 11
-18.0281706108
 21
15.4248153642
  0
LINE
  5
4A4
100
AcDbEntity
  8
SUPERFICI
100
AcDbLine
 62
7
  6
CONTINUOUS
 10
-33.5786751269
 20
-21.8168546358
 11
-32.0842411125
 21
-21.2729251375
  0
LINE
  5
4A5
100
AcDbEntity
  8
RACCORDO
100
AcDbLine
 62
253
  6
CONTINUOUS
 10
-18.2281706108
 20
16.3749018167
 11
-18.7194444076
 21
16.3749018167
  0
LINE
  5
4A6
100
AcDbEntity
  8
RACCORDO
100
AcDbLine
 62
253
  6
CONTINUOUS
 10
-39.7281706108
 20
17.7425747462
 11
-18.7194444076
 21
17.6224303236
  0
LINE
  5
4A7
100
AcDbEntity
  8
RACCORDO
100
AcDbLine
 62
253
  6
CONTINUOUS
 10
-39.7281706108
 20
16.502804591
 11
-18.7194444076
 21
16.3749018167
  0
LINE
  5
4A8
100
AcDbEntity
  8
DRAFT
100
AcDbLine
 62
7
  6
CONTINUOUS
 10
-17.9438713977
 20
17.5182458738
 11
-16.512469824
 21
17.4432292961
  0
LINE
  5
4A9
100
AcDbEntity
  8
SUPERFICI
100
AcDbLine
 62
7
  6
CONTINUOUS
 10
-33.5786751269
 20
22.5831453642
 11
-32.0842411125
 21
22.0392158659
  0
LWPOLYLINE
  5
4AA
100
AcDbEntity
  8
RACCORDO
100
AcDbPolyline
 62
7
  6
CONTINUOUS
 90
13
 70
0
 10
-29.5979130139
 20
19.5334899691
 10
-29.6093626732
 20
19.5325454087
 10
-29.6217408956
 20
19.5294459849
 10
-29.6349841465
 20
19.5241328653
 10
-29.6489989357
 20
19.5165105061
 10
-29.6637268972
 20
19.5065753119
 10
-29.6791360038
 20
19.4944351814
 10
-29.6951205022
 20
19.4800626742
 10
-29.7115703709
 20
19.4634742207
 10
-29.7284217753
 20
19.4449006612
 10
-29.7455645077
 20
19.4244632685
 10
-29.7628514014
 20
19.4021444868
 10
-29.780153018
 20
19.3780057921
  0
LINE
  5
4AB
100
AcDbEntity
  8
RACCORDO
100
AcDbLine
 62
7
  6
CONTINUOUS
 10
-29.5979130139
 20
19.5334899691
 11
-18.7194444076
 21
19.3436055933
  0
LINE
  5
4AC
100
AcDbEntity
  8
RACCORDO
100
AcDbLine
 62
253
  6
CONTINUOUS
 10
-18.7194444076
 20
19.1838113808
 11
-29.7801530194
 21
19.3780057381
  0
LWPOLYLINE
  5
4AD
100
AcDbEntity
  8
SUPERFICI
100
AcDbPolyline
 62
253
  6
CONTINUOUS
 90
3
 70
0
 10
-48.7861596399
 20
21.4014576584
 10
-48.7819826624
 20
21.4012344896
 10
-48.2953739129
 20
21.3804412809
  0
LINE
  5
4AE
100
AcDbEntity
  8
SUPERFICI
100
AcDbLine
 62
253
  6
CONTINUOUS
 10
-47.8219838559
 20
21.858737734
 11
-39.7281706108
 21
22.2829165121
  0
LINE
  5
4AF
100
AcDbEntity
  8
SUPERFICI
100
AcDbLine
 62
7
  6
CONTINUOUS
 10
-33.5786751269
 20
22.5831453642
 11
-34.1281706108
 21
22.5831453642
  0
LINE
  5
4B0
100
AcDbEntity
  8
SUPERFICI
100
AcDbLine
 62
7
  6
CONTINUOUS
 10
-35.7281706108
 20
23.0130119669
 11
-37.0514612855
 21
23.0230526953
  0
LINE
  5
4B1
100
AcDbEntity
  8
SUPERFICI
100
AcDbLine
 62
7
  6
CONTINUOUS
 10
-37.0514612855
 20
23.0230526953
 11
-38.3848277226
 21
23.0341749931
  0
LINE
  5
4B2
100
AcDbEntity
  8
SUPERFICI
100
AcDbLine
 62
7
  6
CONTINUOUS
 10
-38.3848277226
 20
23.0341749931
 11
-39.7281706108
 21
23.0463119862
  0
LINE
  5
4B3
100
AcDbEntity
  8
RACCORDO
100
AcDbLine
 62
7
  6
CONTINUOUS
 10
-35.7281706108
 20
21.5831453642
 11
-31.7573158129
 21
21.5138338359
  0
LINE
  5
4B4
100
AcDbEntity
  8
SUPERFICI
100
AcDbLine
 62
7
  6
CONTINUOUS
 10
-35.1876507657
 20
21.5737105552
 11
-35.7281706108
 21
21.5831453642
  0
LINE
  5
4B5
100
AcDbEntity
  8
RACCORDO
100
AcDbLine
 62
253
  6
CONTINUOUS
 10
-35.7281706108
 20
21.4604860145
 11
-31.7574019249
 21
21.3908653298
  0
LINE
  5
4B6
100
AcDbEntity
  8
SUPERFICI
100
AcDbLine
 62
253
  6
CONTINUOUS
 10
-35.7281706108
 20
23.6462527254
 11
-39.7281706108
 21
23.7165050223
  0
LINE
  5
4B7
100
AcDbEntity
  8
SUPERFICI
100
AcDbLine
 62
7
  6
CONTINUOUS
 10
-37.4948009136
 20
23.5194193261
 11
-39.7281706108
 21
23.563053926
  0
LINE
  5
4B8
100
AcDbEntity
  8
SUPERFICI
100
AcDbLine
 62
7
  6
CONTINUOUS
 10
-35.7281706108
 20
23.483035839
 11
-37.4948009136
 21
23.5194193261
  0
LINE
  5
4B9
100
AcDbEntity
  8
SUPERFICI
100
AcDbLine
 62
7
  6
CONTINUOUS
 10
-47.8394256308
 20
22.3580525014
 11
-39.7281706108
 21
22.7831453642
  0
LINE
  5
4BA
100
AcDbEntity
  8
SUPERFICI
100
AcDbLine
 62
7
  6
CONTINUOUS
 10
-35.7281706108
 20
23.8133251045
 11
-39.7281706108
 21
23.8831453642
  0
LWPOLYLINE
  5
4BB
100
AcDbEntity
  8
0
100
AcDbPolyline
 62
7
  6
CONTINUOUS
 90
8
 70
0
 43
0.3500000087
 10
-25.3353142197
 20
34.6331449463
 10
-24.4781702209
 20
34.6331449463
 10
-24.0495992874
 20
35.0617180115
 10
-24.0495992874
 20
35.9188598785
 10
-24.4781702209
 20
36.3474329437
 10
-25.3353142197
 20
36.3474329437
 10
-25.3353142197
 20
37.6331436127
 10
-24.0495992874
 20
37.6331436127
  0
LWPOLYLINE
  5
4BC
100
AcDbEntity
  8
0
100
AcDbPolyline
 62
7
  6
CONTINUOUS
 90
7
 70
0
 43
0.3500000087
 10
-30.2638852844
 20
34.6331449463
 10
-31.7638846176
 20
34.6331449463
 10
-30.2638852844
 20
36.7760017456
 10
-30.2638852844
 20
37.2045748108
 10
-30.692456218
 20
37.6331436127
 10
-31.3353136841
 20
37.6331436127
 10
-31.7638846176
 20
36.9902882782
  0
LWPOLYLINE
  5
4BD
100
AcDbEntity
  8
0
100
AcDbPolyline
 62
7
  6
CONTINUOUS
 90
3
 70
0
 43
0.3500000087
 10
-27.9067419525
 20
35.2760045441
 10
-29.4067412857
 20
35.2760045441
 10
-28.7638859512
 20
37.6331436127
  0
LWPOLYLINE
  5
4BE
100
AcDbEntity
  8
0
100
AcDbPolyline
 62
7
  6
CONTINUOUS
 90
6
 70
0
 43
0.3500000087
 10
-34.47817146
 20
42.6331442322
 10
-33.4067430603
 20
42.6331442322
 10
-33.1924565277
 20
42.8474307648
 10
-33.1924565277
 20
43.9188591644
 10
-33.6210274612
 20
44.3474322296
 10
-34.0495983948
 20
44.3474322296
  0
LWPOLYLINE
  5
4BF
100
AcDbEntity
  8
0
100
AcDbPolyline
 62
7
  6
CONTINUOUS
 90
3
 70
0
 43
0.3500000087
 10
-30.8353131958
 20
43.27600383
 10
-32.335312529
 20
43.27600383
 10
-31.6924571945
 20
45.6331471619
  0
ARC
  5
4C0
100
AcDbEntity
  8
SUPERFICI
100
AcDbCircle
 62
7
  6
CONTINUOUS
 10
25.2205584505
 20
0.3831453642
 40
28.0
100
AcDbArc
 50
125.9627651514
 51
126.8614108133
  0
ARC
  5
4C1
100
AcDbEntity
  8
SUPERFICI
100
AcDbCircle
 62
7
  6
CONTINUOUS
 10
25.2205584505
 20
0.3831453642
 40
28.0
100
AcDbArc
 50
123.5572123136
 51
124.1210936517
  0
ARC
  5
4C2
100
AcDbEntity
  8
SUPERFICI
100
AcDbCircle
 62
7
  6
CONTINUOUS
 10
2.7205584505
 20
0.3831453642
 40
28.0
100
AcDbArc
 50
55.8789063483
 51
56.4427876864
  0
ARC
  5
4C3
100
AcDbEntity
  8
SUPERFICI
100
AcDbCircle
 62
7
  6
CONTINUOUS
 10
2.7205584505
 20
0.3831453642
 40
28.0
100
AcDbArc
 50
53.1306352597
 51
54.0372348486
  0
ARC
  5
4C4
100
AcDbEntity
  8
SUPERFICI
100
AcDbCircle
 62
7
  6
CONTINUOUS
 10
70.2205584505
 20
0.3831453642
 40
28.0
100
AcDbArc
 50
125.9627651514
 51
126.8693647403
  0
ARC
  5
4C5
100
AcDbEntity
  8
SUPERFICI
100
AcDbCircle
 62
7
  6
CONTINUOUS
 10
70.2205584505
 20
0.3831453642
 40
28.0
100
AcDbArc
 50
123.5572123136
 51
124.1210936517
  0
ARC
  5
4C6
100
AcDbEntity
  8
SUPERFICI
100
AcDbCircle
 62
7
  6
CONTINUOUS
 10
47.7205584505
 20
0.3831453642
 40
28.0
100
AcDbArc
 50
55.8789063483
 51
56.4427876864
  0
ARC
  5
4C7
100
AcDbEntity
  8
SUPERFICI
100
AcDbCircle
 62
7
  6
CONTINUOUS
 10
47.7205584505
 20
0.3831453642
 40
28.0
100
AcDbArc
 50
53.1385891867
 51
54.0372348486
  0
ARC
  5
4C8
100
AcDbEntity
  8
SUPERFICI
100
AcDbCircle
 62
7
  6
CONTINUOUS
 10
47.7205584505
 20
0.3831453642
 40
28.0
100
AcDbArc
 50
305.9627651514
 51
306.8614108133
  0
ARC
  5
4C9
100
AcDbEntity
  8
SUPERFICI
100
AcDbCircle
 62
7
  6
CONTINUOUS
 10
47.7205584505
 20
0.3831453642
 40
28.0
100
AcDbArc
 50
303.5572123136
 51
304.1210936517
  0
ARC
  5
4CA
100
AcDbEntity
  8
SUPERFICI
100
AcDbCircle
 62
7
  6
CONTINUOUS
 10
70.2205584505
 20
0.3831453642
 40
28.0
100
AcDbArc
 50
235.8789063483
 51
236.4427876864
  0
ARC
  5
4CB
100
AcDbEntity
  8
SUPERFICI
100
AcDbCircle
 62
7
  6
CONTINUOUS
 10
70.2205584505
 20
0.3831453642
 40
28.0
100
AcDbArc
 50
233.1306352597
 51
234.0372348486
  0
ARC
  5
4CC
100
AcDbEntity
  8
SUPERFICI
100
AcDbCircle
 62
7
  6
CONTINUOUS
 10
2.7205584505
 20
0.3831453642
 40
28.0
100
AcDbArc
 50
305.9627651514
 51
306.8693647403
  0
ARC
  5
4CD
100
AcDbEntity
  8
SUPERFICI
100
AcDbCircle
 62
7
  6
CONTINUOUS
 10
2.7205584505
 20
0.3831453642
 40
28.0
100
AcDbArc
 50
303.5572123136
 51
304.1210936517
  0
ARC
  5
4CE
100
AcDbEntity
  8
SUPERFICI
100
AcDbCircle
 62
7
  6
CONTINUOUS
 10
25.2205584505
 20
0.3831453642
 40
28.0
100
AcDbArc
 50
235.8789063483
 51
236.4427876864
  0
ARC
  5
4CF
100
AcDbEntity
  8
SUPERFICI
100
AcDbCircle
 62
7
  6
CONTINUOUS
 10
25.2205584505
 20
0.3831453642
 40
28.0
100
AcDbArc
 50
233.1385891867
 51
234.0372348486
  0
ARC
  5
4D0
100
AcDbEntity
  8
RACCORDO
100
AcDbCircle
 62
7
  6
CONTINUOUS
 10
52.5705584505
 20
-9.1168546358
 40
2.7
100
AcDbArc
 50
143.7229077382
 51
36.2770922617
  0
ARC
  5
4D1
100
AcDbEntity
  8
RACCORDO
100
AcDbCircle
 62
7
  6
CONTINUOUS
 10
52.5705584505
 20
9.8831453642
 40
2.7
100
AcDbArc
 50
323.7229077382
 51
216.2770922617
  0
ARC
  5
4D2
100
AcDbEntity
  8
RACCORDO
100
AcDbCircle
 62
7
  6
CONTINUOUS
 10
13.5705584505
 20
9.8831453642
 40
2.7
100
AcDbArc
 50
323.7229077321
 51
216.2770922617
  0
ARC
  5
4D3
100
AcDbEntity
  8
RACCORDO
100
AcDbCircle
 62
7
  6
CONTINUOUS
 10
13.5705584505
 20
-9.1168546358
 40
2.7
100
AcDbArc
 50
143.7229077382
 51
36.2770922617
  0
ARC
  5
4D4
100
AcDbEntity
  8
DRAFT
100
AcDbCircle
 62
7
  6
CONTINUOUS
 10
64.4705584505
 20
0.3831453642
 40
2.65
100
AcDbArc
 50
90.0
 51
270.0
  0
ARC
  5
4D5
100
AcDbEntity
  8
DRAFT
100
AcDbCircle
 62
7
  6
CONTINUOUS
 10
25.4705584505
 20
0.3831453642
 40
2.65
100
AcDbArc
 50
90.0
 51
270.0
  0
ARC
  5
4D6
100
AcDbEntity
  8
SUPERFICI
100
AcDbCircle
 62
7
  6
CONTINUOUS
 10
54.0205584505
 20
-22.7168546358
 40
0.5
100
AcDbArc
 50
350.803718421
 51
119.112422776
  0
ARC
  5
4D7
100
AcDbEntity
  8
SUPERFICI
100
AcDbCircle
 62
7
  6
CONTINUOUS
 10
63.9205584505
 20
-22.7168546358
 40
0.5
100
AcDbArc
 50
60.887577224
 51
189.196281579
  0
ARC
  5
4D8
100
AcDbEntity
  8
SUPERFICI
100
AcDbCircle
 62
7
  6
CONTINUOUS
 10
54.0205584505
 20
23.4831453642
 40
0.5
100
AcDbArc
 50
240.887577224
 51
9.196281579
  0
ARC
  5
4D9
100
AcDbEntity
  8
SUPERFICI
100
AcDbCircle
 62
7
  6
CONTINUOUS
 10
63.9205584505
 20
23.4831453642
 40
0.5
100
AcDbArc
 50
170.803718421
 51
299.112422776
  0
ARC
  5
4DA
100
AcDbEntity
  8
SUPERFICI
100
AcDbCircle
 62
7
  6
CONTINUOUS
 10
18.9205584505
 20
-22.7168546358
 40
0.5
100
AcDbArc
 50
60.887577224
 51
189.196281579
  0
ARC
  5
4DB
100
AcDbEntity
  8
SUPERFICI
100
AcDbCircle
 62
7
  6
CONTINUOUS
 10
9.0205584505
 20
-22.7168546358
 40
0.5
100
AcDbArc
 50
350.803718421
 51
119.112422776
  0
ARC
  5
4DC
100
AcDbEntity
  8
SUPERFICI
100
AcDbCircle
 62
7
  6
CONTINUOUS
 10
18.9205584505
 20
23.4831453642
 40
0.5
100
AcDbArc
 50
170.803718421
 51
299.112422776
  0
ARC
  5
4DD
100
AcDbEntity
  8
SUPERFICI
100
AcDbCircle
 62
7
  6
CONTINUOUS
 10
9.0205584505
 20
23.4831453642
 40
0.5
100
AcDbArc
 50
240.887577224
 51
9.196281579
  0
ARC
  5
4DE
100
AcDbEntity
  8
SUPERFICI
100
AcDbCircle
 62
7
  6
CONTINUOUS
 10
-47.7870896745
 20
-20.5931322382
 40
1.0
100
AcDbArc
 50
182.4092313014
 51
267.0
  0
ARC
  5
4DF
100
AcDbEntity
  8
RACCORDO
100
AcDbCircle
 62
7
  6
CONTINUOUS
 10
-31.7660420161
 20
-20.2476192599
 40
0.5
100
AcDbArc
 50
271.0
 51
315.0
  0
ARC
  5
4E0
100
AcDbEntity
  8
RACCORDO
100
AcDbCircle
 62
7
  6
CONTINUOUS
 10
-18.7281706108
 20
-18.0773910173
 40
0.5
100
AcDbArc
 50
271.0
 51
360.0
  0
ARC
  5
4E1
100
AcDbEntity
  8
RACCORDO
100
AcDbCircle
 62
7
  6
CONTINUOUS
 10
-16.0281706108
 20
-5.8783703011
 40
0.5
100
AcDbArc
 50
270.9999859461
 51
359.9991946667
  0
ARC
  5
4E2
100
AcDbEntity
  8
RACCORDO
100
AcDbCircle
 62
7
  6
CONTINUOUS
 10
-16.5281706108
 20
-9.5563595644
 40
0.3
100
AcDbArc
 50
0.0
 51
87.0
  0
ARC
  5
4E3
100
AcDbEntity
  8
RACCORDO
100
AcDbCircle
 62
7
  6
CONTINUOUS
 10
-16.5281706108
 20
-16.3773497072
 40
0.3
100
AcDbArc
 50
273.0
 51
360.0
  0
ARC
  5
4E4
100
AcDbEntity
  8
RACCORDO
100
AcDbCircle
 62
7
  6
CONTINUOUS
 10
-15.5281706108
 20
-4.1297574865
 40
0.3
100
AcDbArc
 50
273.0
 51
360.0
  0
ARC
  5
4E5
100
AcDbEntity
  8
RACCORDO
100
AcDbCircle
 62
7
  6
CONTINUOUS
 10
-17.9281706108
 20
-17.0515440058
 40
0.3
100
AcDbArc
 50
93.0
 51
109.4841235402
  0
ARC
  5
4E6
100
AcDbEntity
  8
RACCORDO
100
AcDbCircle
 62
7
  6
CONTINUOUS
 10
-17.9281706108
 20
-8.8821652658
 40
0.3
100
AcDbArc
 50
250.5158764598
 51
267.0
  0
ARC
  5
4E7
100
AcDbEntity
  8
SUPERFICI
100
AcDbCircle
 62
7
  6
CONTINUOUS
 10
-47.7870896745
 20
21.3594229667
 40
1.0
100
AcDbArc
 50
93.0
 51
177.5907686986
  0
ARC
  5
4E8
100
AcDbEntity
  8
RACCORDO
100
AcDbCircle
 62
7
  6
CONTINUOUS
 10
-18.6396774573
 20
17.452104001
 40
0.5
100
AcDbArc
 50
27.204206719
 51
34.5488555765
  0
ARC
  5
4E9
100
AcDbEntity
  8
RACCORDO
100
AcDbCircle
 62
7
  6
CONTINUOUS
 10
-31.7660420161
 20
21.0139099883
 40
0.5
100
AcDbArc
 50
45.0
 51
89.0
  0
ARC
  5
4EA
100
AcDbEntity
  8
RACCORDO
100
AcDbCircle
 62
7
  6
CONTINUOUS
 10
-18.7281706108
 20
18.8436817457
 40
0.5
100
AcDbArc
 50
0.0
 51
89.0
  0
ARC
  5
4EB
100
AcDbEntity
  8
RACCORDO
100
AcDbCircle
 62
7
  6
CONTINUOUS
 10
-16.0281706108
 20
6.6446680573
 40
0.5
100
AcDbArc
 50
0.0
 51
89.0
  0
ARC
  5
4EC
100
AcDbEntity
  8
RACCORDO
100
AcDbCircle
 62
7
  6
CONTINUOUS
 10
-15.5281706108
 20
2.7960482149
 40
0.3
100
AcDbArc
 50
0.0
 51
87.0
  0
ARC
  5
4ED
100
AcDbEntity
  8
RACCORDO
100
AcDbCircle
 62
7
  6
CONTINUOUS
 10
-16.5281706108
 20
17.1436404356
 40
0.3
100
AcDbArc
 50
0.0
 51
87.0
  0
ARC
  5
4EE
100
AcDbEntity
  8
RACCORDO
100
AcDbCircle
 62
7
  6
CONTINUOUS
 10
-16.5281706108
 20
10.3226502928
 40
0.3
100
AcDbArc
 50
273.0
 51
360.0
  0
ARC
  5
4EF
100
AcDbEntity
  8
RACCORDO
100
AcDbCircle
 62
7
  6
CONTINUOUS
 10
-17.9281706108
 20
17.8178347342
 40
0.3
100
AcDbArc
 50
207.1459318698
 51
267.0
  0
ARC
  5
4F0
100
AcDbEntity
  8
RACCORDO
100
AcDbCircle
 62
7
  6
CONTINUOUS
 10
-17.9281706108
 20
9.6484559942
 40
0.3
100
AcDbArc
 50
93.0
 51
180.0
  0
ARC
  5
4F1
100
AcDbEntity
  8
RACCORDO
100
AcDbCircle
 62
7
  6
CONTINUOUS
 10
450.7718293892
 20
0.3831453642
 40
500.0
100
AcDbArc
 50
179.6593606957
 51
179.7310243287
  0
ARC
  5
4F2
100
AcDbEntity
  8
RACCORDO
100
AcDbCircle
 62
7
  6
CONTINUOUS
 10
450.7718293892
 20
0.3831453642
 40
500.0
100
AcDbArc
 50
179.7335086323
 51
180.266558806
  0
ARC
  5
4F3
100
AcDbEntity
  8
RACCORDO
100
AcDbCircle
 62
7
  6
CONTINUOUS
 10
450.7718293892
 20
0.3831453642
 40
500.0
100
AcDbArc
 50
179.1971999521
 51
179.4319131914
  0
ARC
  5
4F4
100
AcDbEntity
  8
SUPERFICI
100
AcDbCircle
 62
7
  6
CONTINUOUS
 10
450.7718293892
 20
0.3831453642
 40
500.0
100
AcDbArc
 50
177.5907686986
 51
182.4092313014
  0
ARC
  5
4F5
100
AcDbEntity
  8
RACCORDO
100
AcDbCircle
 62
7
  6
CONTINUOUS
 10
450.7718293892
 20
0.3831453642
 40
500.0
100
AcDbArc
 50
178.5645044402
 51
179.1966238035
  0
ARC
  5
4F6
100
AcDbEntity
  8
RACCORDO
100
AcDbCircle
 62
7
  6
CONTINUOUS
 10
450.7718293892
 20
0.3831453642
 40
500.0
100
AcDbArc
 50
180.5680868086
 51
181.4354955598
  0
ELLIPSE
  5
4F7
100
AcDbEntity
  8
SUPERFICI
100
AcDbEllipse
 62
7
  6
CONTINUOUS
 10
69.6204822865
 20
-21.5161684628
 30
0.0
 11
-0.1582391023
 21
0.4751033573
 31
0.0
 40
0.9984778551
 41
-3.4626430041
 42
-1.8927600658
  0
ELLIPSE
  5
4F8
100
AcDbEntity
  8
SUPERFICI
100
AcDbEllipse
 62
7
  6
CONTINUOUS
 10
69.6204822865
 20
22.2824591912
 30
0.0
 11
0.1582391023
 21
0.4751033573
 31
0.0
 40
0.9984778551
 41
-1.2488325878
 42
0.3210503505
  0
ELLIPSE
  5
4F9
100
AcDbEntity
  8
SUPERFICI
100
AcDbEllipse
 62
7
  6
CONTINUOUS
 10
3.3206346145
 20
-21.5161684628
 30
0.0
 11
0.1582391023
 21
0.4751033573
 31
0.0
 40
0.9984778551
 41
-4.3904252414
 42
-2.8205423031
  0
ELLIPSE
  5
4FA
100
AcDbEntity
  8
SUPERFICI
100
AcDbEllipse
 62
7
  6
CONTINUOUS
 10
3.3206346145
 20
22.2824591912
 30
0.0
 11
-0.1582391023
 21
0.4751033573
 31
0.0
 40
0.9984778551
 41
-0.3210503505
 42
1.2488325878
  0
ENDSEC
  0
SECTION
  2
OBJECTS
  0
DICTIONARY
  5
C
100
AcDbDictionary
280
0
281
1
  3
ACAD_GROUP
350
D
  3
ACAD_MLINESTYLE
350
17
  3
ACAD_LAYOUT
350
1A
  3
ACAD_PLOTSETTINGS
350
19
  3
ACAD_PLOTSTYLENAME
350
E
  0
DICTIONARY
  5
D
102
{ACAD_REACTORS
330
C
102
}
100
AcDbDictionary
280
0
281
1
  0
ACDBDICTIONARYWDFLT
  5
E
102
{ACAD_REACTORS
330
C
102
}
100
AcDbDictionary
281
1
  3
Normal
350
F
100
AcDbDictionaryWithDefault
340
F
  0
DICTIONARY
  5
17
102
{ACAD_REACTORS
330
C
102
}
100
AcDbDictionary
280
0
281
1
  3
Standard
350
18
  0
DICTIONARY
  5
19
102
{ACAD_REACTORS
330
C
102
}
100
AcDbDictionary
281
1
  0
DICTIONARY
  5
1A
102
{ACAD_REACTORS
330
C
102
}
100
AcDbDictionary
281
1
  3
Model
350
4FB
  3
Layout1
350
4FC
  0
ACDBPLACEHOLDER
  5
F
102
{ACAD_REACTORS
330
E
102
}
  0
MLINESTYLE
  5
18
102
{ACAD_REACTORS
330
17
102
}
100
AcDbMlineStyle
  2
STANDARD
 70
0
  3

 62
256
 51
90.0
 52
90.0
 71
2
 49
0.5
 62
256
  6
BYLAYER
 49
-0.5
 62
256
  6
BYLAYER
  0
LAYOUT
  5
4FB
102
{ACAD_REACTORS
330
1A
102
}
100
AcDbPlotSettings
  1

  2
none_device
  4
ANSI_C_(22.00_x_17.00_Inches)
  6

 40
0.0
 41
0.0
 42
0.0
 43
0.0
 44
558.8
 45
431.8
 46
0.0
 47
0.0
 48
0.0
 49
0.0
140
0.0
141
0.0
142
1.0
143
1.0
 70
1024
 72
1
 73
0
 74
0
  7

 75
0
147
1.0
148
0.0
149
0.0
100
AcDbLayout
  1
Model
 70
0
 71
0
 10
0.0
 20
0.0
 11
558.8
 21
431.8
 12
0.0
 22
0.0
 32
0.0
 14
0.0
 24
0.0
 34
0.0
 15
0.0
 25
0.0
 35
0.0
146
0.0
 13
0.0
 23
0.0
 33
0.0
 16
1.0
 26
0.0
 36
0.0
 17
0.0
 27
1.0
 37
0.0
 76
0
330
214
345
0
346
0
  0
LAYOUT
  5
4FC
102
{ACAD_REACTORS
330
1A
102
}
100
AcDbPlotSettings
  1

  2
none_device
  4
ANSI_C_(22.00_x_17.00_Inches)
  6

 40
0.0
 41
0.0
 42
0.0
 43
0.0
 44
558.8
 45
431.8
 46
0.0
 47
0.0
 48
0.0
 49
0.0
140
0.0
141
0.0
142
1.0
143
1.0
 70
0
 72
1
 73
0
 74
0
  7

 75
0
147
1.0
148
0.0
149
0.0
100
AcDbLayout
  1
Layout1
 70
0
 71
1
 10
0.0
 20
0.0
 11
558.8
 21
431.8
 12
0.0
 22
0.0
 32
0.0
 14
0.0
 24
0.0
 34
0.0
 15
0.0
 25
0.0
 35
0.0
146
0.0
 13
0.0
 23
0.0
 33
0.0
 16
1.0
 26
0.0
 36
0.0
 17
0.0
 27
1.0
 37
0.0
 76
0
330
215
345
0
346
0
  0
ENDSEC
  0
EOF
