  0
SECTION
  2
HEADER
  9
$ACADVER
  1
AC1024
  9
$DWGCODEPAGE
  3
ANSI_1252
  9
$EXTMAX
 10
558.8
 20
431.8
 30
0.0
  9
$EXTMIN
 10
0.0
 20
0.0
 30
0.0
  9
$LIMMIN
 10
0.0
 20
0.0
  9
$LIMMAX
 10
558.8
 20
431.8
  9
$VIEWCTR
 10
279.4
 20
215.9
  9
$VIEWSIZE
 40
431.8
  9
$CLAYER
  8
0
  9
$LTSCALE
 40
30.734
  9
$CELTYPE
  6
BYLAYER
  9
$DIMSCALE
 40
1.0
  9
$DIMASZ
 40
3.0
  9
$DIMEXO
 40
0.5
  9
$DIMDLI
 40
21.2344
  9
$DIMEXE
 40
1.5
  9
$DIMCEN
 40
5.0292
  9
$DIMLFAC
 40
1.0
  9
$DIMBLK
  1
_FILLED
  9
$DIMALT
 70
0
  9
$DIMALTF
 40
0.0393700787
  9
$DIMTXT
 40
3.0
  9
$DIMTOL
 70
1
  9
$DIMLIM
 70
0
  9
$DIMTFAC
 40
1.0
  9
$DIMTP
 40
0.01
  9
$DIMTM
 40
0.01
  9
$DIMGAP
 40
0.625
  9
$DIMDSEP
 70
44
  9
$AUNITS
 70
0
  9
$PDMODE
 70
3
  9
$PDSIZE
 40
3.0
  9
$HANDSEED
  5
4F8
  9
$TILEMODE
 70
1
  9
$MEASUREMENT
 70
1
  9
$INSUNITS
 70
4
  0
ENDSEC
  0
SECTION
  2
CLASSES
  0
CLASS
  1
ACDBDICTIONARYWDFLT
  2
AcDbDictionaryWithDefault
  3
AutoCAD 2000
 90
0
 91
1
280
0
281
0
  0
CLASS
  1
ACDBPLACEHOLDER
  2
AcDbPlaceHolder
  3
AutoCAD 2000
 90
0
 91
1
280
0
281
0
  0
CLASS
  1
LAYOUT
  2
AcDbLayout
  3
AutoCAD 2000
 90
0
 91
0
280
0
281
0
  0
ENDSEC
  0
SECTION
  2
TABLES
  0
TABLE
  2
VPORT
  5
8
100
AcDbSymbolTable
 70
2
  0
VPORT
  5
1F4
100
AcDbSymbolTableRecord
100
AcDbViewportTableRecord
  2
*ACTIVE
 70
0
 10
0.0
 20
0.0
 11
1.0
 21
1.0
 12
279.4
 22
215.9
 13
0.0
 23
0.0
 14
1.0
 24
1.0
 15
0.0
 25
0.0
 16
0.0
 26
0.0
 36
1.0
 17
0.0
 27
0.0
 37
0.0
 40
431.8
 41
1.2941176471
 42
50.0
 43
0.0
 44
0.0
 50
0.0
 51
0.0
 71
0
 72
100
 73
1
 74
1
 75
0
 76
0
 77
0
 78
0
  0
ENDTAB
  0
TABLE
  2
LTYPE
  5
5
100
AcDbSymbolTable
 70
6
  0
LTYPE
  5
14
100
AcDbSymbolTableRecord
100
AcDbLinetypeTableRecord
  2
BYBLOCK
 70
0
  3

 72
65
 73
0
 40
0.0
  0
LTYPE
  5
15
100
AcDbSymbolTableRecord
100
AcDbLinetypeTableRecord
  2
BYLAYER
 70
0
  3

 72
65
 73
0
 40
0.0
  0
LTYPE
  5
16
100
AcDbSymbolTableRecord
100
AcDbLinetypeTableRecord
  2
CONTINUOUS
 70
64
  3
Solid line
 72
65
 73
0
 40
0.0
  0
LTYPE
  5
1F5
100
AcDbSymbolTableRecord
100
AcDbLinetypeTableRecord
  2
CENTER
 70
64
  3
____ _ ____ _ ____ _ ____ _ ____ _ ____ _ ____
 72
65
 73
4
 40
0.6
 49
0.375
 74
0
 49
-0.075
 74
0
 49
0.075
 74
0
 49
-0.075
 74
0
  0
LTYPE
  5
1F6
100
AcDbSymbolTableRecord
100
AcDbLinetypeTableRecord
  2
HIDDEN
 70
64
  3
- - - - - - - - - - - - - - - - - - - -
 72
65
 73
2
 40
0.2
 49
0.1
 74
0
 49
-0.1
 74
0
  0
LTYPE
  5
1F7
100
AcDbSymbolTableRecord
100
AcDbLinetypeTableRecord
  2
PHANTOM
 70
64
  3
_____ _ _ _____ _ _ _____ _ _ _____
 72
65
 73
6
 40
0.8
 49
0.45
 74
0
 49
-0.05
 74
0
 49
0.1
 74
0
 49
-0.05
 74
0
 49
0.1
 74
0
 49
-0.05
 74
0
  0
LTYPE
  5
1F8
100
AcDbSymbolTableRecord
100
AcDbLinetypeTableRecord
  2
DOT
 70
64
  3
. . . . . . . . . . . . . . . . . . . .
 72
65
 73
2
 40
0.2
 49
0.1
 74
0
 49
-0.1
 74
0
  0
LTYPE
  5
1F9
100
AcDbSymbolTableRecord
100
AcDbLinetypeTableRecord
  2
DASHED
 70
64
  3
- - - - - - - - - - - - - - - - - - - -
 72
65
 73
2
 40
0.2
 49
0.1
 74
0
 49
-0.1
 74
0
  0
ENDTAB
  0
TABLE
  2
LAYER
  5
2
100
AcDbSymbolTable
 70
36
  0
LAYER
  5
10
100
AcDbSymbolTableRecord
100
AcDbLayerTableRecord
  2
0
 70
0
 62
7
  6
CONTINUOUS
370
-3
390
F
  0
LAYER
  5
1FA
100
AcDbSymbolTableRecord
100
AcDbLayerTableRecord
  2
DEFAULT_1
 70
0
 62
7
  6
CENTER
370
-3
390
F
  0
LAYER
  5
1FB
100
AcDbSymbolTableRecord
100
AcDbLayerTableRecord
  2
DEFAULT_2
 70
0
 62
7
  6
HIDDEN
370
-3
390
F
  0
LAYER
  5
1FC
100
AcDbSymbolTableRecord
100
AcDbLayerTableRecord
  2
DEFAULT_3
 70
0
 62
7
  6
PHANTOM
370
-3
390
F
  0
LAYER
  5
1FD
100
AcDbSymbolTableRecord
100
AcDbLayerTableRecord
  2
ASSI
 70
0
 62
7
  6
CONTINUOUS
370
-3
390
F
  0
LAYER
  5
1FE
100
AcDbSymbolTableRecord
100
AcDbLayerTableRecord
  2
COORDINATE
 70
0
 62
7
  6
CONTINUOUS
370
-3
390
F
  0
LAYER
  5
1FF
100
AcDbSymbolTableRecord
100
AcDbLayerTableRecord
  2
COORD_ORIGINE
 70
0
 62
7
  6
CONTINUOUS
370
-3
390
F
  0
LAYER
  5
200
100
AcDbSymbolTableRecord
100
AcDbLayerTableRecord
  2
COPY_PUBLISH
 70
0
 62
7
  6
CONTINUOUS
370
-3
390
F
  0
LAYER
  5
201
100
AcDbSymbolTableRecord
100
AcDbLayerTableRecord
  2
COSMETICHE
 70
0
 62
7
  6
CONTINUOUS
370
-3
390
F
  0
LAYER
  5
202
100
AcDbSymbolTableRecord
100
AcDbLayerTableRecord
  2
COSMETICI
 70
0
 62
7
  6
CONTINUOUS
370
-3
390
F
  0
LAYER
  5
203
100
AcDbSymbolTableRecord
100
AcDbLayerTableRecord
  2
CURVE
 70
0
 62
7
  6
CONTINUOUS
370
-3
390
F
  0
LAYER
  5
204
100
AcDbSymbolTableRecord
100
AcDbLayerTableRecord
  2
DRAFT
 70
0
 62
7
  6
CONTINUOUS
370
-3
390
F
  0
LAYER
  5
205
100
AcDbSymbolTableRecord
100
AcDbLayerTableRecord
  2
IMPORT_IGES
 70
0
 62
7
  6
CONTINUOUS
370
-3
390
F
  0
LAYER
  5
206
100
AcDbSymbolTableRecord
100
AcDbLayerTableRecord
  2
INTF_1
 70
0
 62
7
  6
CONTINUOUS
370
-3
390
F
  0
LAYER
  5
207
100
AcDbSymbolTableRecord
100
AcDbLayerTableRecord
  2
INTF_11
 70
0
 62
7
  6
CONTINUOUS
370
-3
390
F
  0
LAYER
  5
208
100
AcDbSymbolTableRecord
100
AcDbLayerTableRecord
  2
INTF_12
 70
0
 62
7
  6
CONTINUOUS
370
-3
390
F
  0
LAYER
  5
209
100
AcDbSymbolTableRecord
100
AcDbLayerTableRecord
  2
INTF_2
 70
0
 62
7
  6
CONTINUOUS
370
-3
390
F
  0
LAYER
  5
20A
100
AcDbSymbolTableRecord
100
AcDbLayerTableRecord
  2
INTF_9
 70
0
 62
7
  6
CONTINUOUS
370
-3
390
F
  0
LAYER
  5
20B
100
AcDbSymbolTableRecord
100
AcDbLayerTableRecord
  2
NOTE
 70
0
 62
7
  6
CONTINUOUS
370
-3
390
F
  0
LAYER
  5
20C
100
AcDbSymbolTableRecord
100
AcDbLayerTableRecord
  2
PIANI
 70
0
 62
7
  6
CONTINUOUS
370
-3
390
F
  0
LAYER
  5
20D
100
AcDbSymbolTableRecord
100
AcDbLayerTableRecord
  2
PIANI_ORIGINE
 70
0
 62
7
  6
CONTINUOUS
370
-3
390
F
  0
LAYER
  5
20E
100
AcDbSymbolTableRecord
100
AcDbLayerTableRecord
  2
PUNTI
 70
0
 62
7
  6
CONTINUOUS
370
-3
390
F
  0
LAYER
  5
20F
100
AcDbSymbolTableRecord
100
AcDbLayerTableRecord
  2
RACCORDO
 70
0
 62
7
  6
CONTINUOUS
370
-3
390
F
  0
LAYER
  5
210
100
AcDbSymbolTableRecord
100
AcDbLayerTableRecord
  2
SIMBOLI
 70
0
 62
7
  6
CONTINUOUS
370
-3
390
F
  0
LAYER
  5
211
100
AcDbSymbolTableRecord
100
AcDbLayerTableRecord
  2
SMUSSO
 70
0
 62
7
  6
CONTINUOUS
370
-3
390
F
  0
LAYER
  5
212
100
AcDbSymbolTableRecord
100
AcDbLayerTableRecord
  2
SNAPLINE
 70
0
 62
7
  6
CONTINUOUS
370
-3
390
F
  0
LAYER
  5
213
100
AcDbSymbolTableRecord
100
AcDbLayerTableRecord
  2
SUPERFICI
 70
0
 62
7
  6
CONTINUOUS
370
-3
390
F
  0
LAYER
  5
214
100
AcDbSymbolTableRecord
100
AcDbLayerTableRecord
  2
TRASH
 70
0
 62
7
  6
CONTINUOUS
370
-3
390
F
  0
LAYER
  5
215
100
AcDbSymbolTableRecord
100
AcDbLayerTableRecord
  2
XSEC_DATUMS
 70
0
 62
7
  6
CONTINUOUS
370
-3
390
F
  0
ENDTAB
  0
TABLE
  2
STYLE
  5
3
100
AcDbSymbolTable
 70
1
  0
STYLE
  5
11
100
AcDbSymbolTableRecord
100
AcDbTextStyleTableRecord
  2
STANDARD
 70
0
 40
0.0
 41
0.8
 50
0.0
 71
0
 42
0.2
  3
txt
  4

  0
STYLE
  5
216
100
AcDbSymbolTableRecord
100
AcDbTextStyleTableRecord
  2
TEXTSTYLE_1
 70
0
 40
0.0
 41
0.8
 50
0.0
 71
0
 42
0.2
  3
gdt
  4

  0
ENDTAB
  0
TABLE
  2
VIEW
  5
6
100
AcDbSymbolTable
 70
0
  0
ENDTAB
  0
TABLE
  2
UCS
  5
7
100
AcDbSymbolTable
 70
0
  0
ENDTAB
  0
TABLE
  2
APPID
  5
9
100
AcDbSymbolTable
 70
1
  0
APPID
  5
217
100
AcDbSymbolTableRecord
100
AcDbRegAppTableRecord
  2
ACAD
 70
0
  0
ENDTAB
  0
TABLE
  2
BLOCK_RECORD
  5
1
100
AcDbSymbolTable
 70
0
  0
BLOCK_RECORD
  5
218
100
AcDbSymbolTableRecord
100
AcDbBlockTableRecord
  2
*Model_Space
  0
BLOCK_RECORD
  5
219
100
AcDbSymbolTableRecord
100
AcDbBlockTableRecord
  2
*Paper_Space
  0
BLOCK_RECORD
  5
21A
100
AcDbSymbolTableRecord
100
AcDbBlockTableRecord
  2
_FILLED
  0
BLOCK_RECORD
  5
21B
100
AcDbSymbolTableRecord
100
AcDbBlockTableRecord
  2
*D0
  0
BLOCK_RECORD
  5
21C
100
AcDbSymbolTableRecord
100
AcDbBlockTableRecord
  2
*D1
  0
BLOCK_RECORD
  5
21D
100
AcDbSymbolTableRecord
100
AcDbBlockTableRecord
  2
*D2
  0
BLOCK_RECORD
  5
21E
100
AcDbSymbolTableRecord
100
AcDbBlockTableRecord
  2
*D3
  0
ENDTAB
  0
TABLE
  2
DIMSTYLE
  5
A
100
AcDbSymbolTable
 70
1
100
AcDbDimStyleTable
 71
0
  0
DIMSTYLE
105
21F
100
AcDbSymbolTableRecord
100
AcDbDimStyleTableRecord
  2
STANDARD
 70
0
  3

  4

 40
1.0
 41
3.0
 42
0.5
 43
0.38
 44
1.5
 45
0.0
 46
0.0
 47
0.01
 48
0.01
140
3.0
141
0.09
142
0.0
143
25.4
144
1.0
145
0.0
146
1.0
147
0.625
 71
1
 72
0
 73
0
 74
0
 75
0
 76
0
 77
1
 78
8
 79
2
170
0
171
1
172
0
173
0
174
0
175
0
176
0
177
0
178
0
270
2
179
2
271
2
272
2
273
2
274
2
275
0
280
0
281
0
282
0
283
1
284
8
285
0
286
0
287
3
288
0
340
11
278
44
341
21A
342
21A
343
21A
344
21A
  0
DIMSTYLE
105
220
100
AcDbSymbolTableRecord
100
AcDbDimStyleTableRecord
  2
DIMSTYLE_1
 70
0
  3

  4

 40
1.0
 41
3.0
 42
0.5
 43
0.38
 44
1.5
 45
0.0
 46
0.0
 47
0.0
 48
0.0
140
3.0
141
0.09
142
0.0
143
25.4
144
1.0
145
0.0
146
1.0
147
0.75
 71
0
 72
0
 73
0
 74
0
 75
0
 76
0
 77
1
 78
8
 79
2
170
0
171
1
172
0
173
0
174
0
175
0
176
0
177
0
178
0
270
2
179
2
271
2
272
2
273
2
274
2
275
0
280
0
281
0
282
0
283
1
284
8
285
0
286
0
287
3
288
0
340
11
278
44
341
21A
342
21A
343
21A
344
21A
  0
ENDTAB
  0
ENDSEC
  0
SECTION
  2
BLOCKS
  0
BLOCK
  5
20
100
AcDbEntity
  8
0
100
AcDbBlockBegin
  2
*Model_Space
 70
0
 10
0.0
 20
0.0
 30
0.0
  3
*Model_Space
  1

  0
ENDBLK
  5
21
100
AcDbEntity
  8
0
100
AcDbBlockEnd
  0
BLOCK
  5
1C
100
AcDbEntity
  8
0
100
AcDbBlockBegin
  2
*Paper_Space
 70
0
 10
0.0
 20
0.0
 30
0.0
  3
*Paper_Space
  1

  0
ENDBLK
  5
1D
100
AcDbEntity
  8
0
100
AcDbBlockEnd
  0
BLOCK
  5
221
100
AcDbEntity
  8
0
100
AcDbBlockBegin
  2
_FILLED
 70
64
 10
0.0
 20
0.0
  3
_FILLED
  1

  0
SOLID
  5
222
100
AcDbEntity
  8
0
  6
BYBLOCK
 62
0
100
AcDbTrace
 10
0.0
 20
0.0
 11
-1.0
 21
0.3166666667
 12
-1.0
 22
-0.3166666667
 13
-1.0
 23
-0.3166666667
  0
ENDBLK
  5
223
100
AcDbEntity
  8
0
  6
BYBLOCK
 62
0
100
AcDbBlockEnd
  0
BLOCK
  5
224
100
AcDbEntity
  8
0
100
AcDbBlockBegin
 62
7
  6
CONTINUOUS
  2
*D0
 70
65
 10
0.0
 20
0.0
  3
*D0
  1

  0
LINE
  5
225
100
AcDbEntity
  8
0
100
AcDbLine
 62
7
  6
CONTINUOUS
 10
-15.2281706108
 20
-1.2168546358
 11
-15.2281706108
 21
35.3831453642
  0
LINE
  5
226
100
AcDbEntity
  8
0
100
AcDbLine
 62
7
  6
CONTINUOUS
 10
-39.7281706108
 20
22.7829165121
 11
-39.7281706108
 21
35.3831453642
  0
LINE
  5
227
100
AcDbEntity
  8
0
100
AcDbLine
 62
7
  6
CONTINUOUS
 10
-15.2281706108
 20
33.8831453642
 11
-27.4781706108
 21
33.8831453642
  0
LINE
  5
228
100
AcDbEntity
  8
0
100
AcDbLine
 62
7
  6
CONTINUOUS
 10
-39.7281706108
 20
33.8831453642
 11
-27.4781706108
 21
33.8831453642
  0
INSERT
  5
229
100
AcDbEntity
  8
0
100
AcDbBlockReference
 62
7
  6
CONTINUOUS
  2
_FILLED
 10
-15.2281706108
 20
33.8831453642
 41
3.0
 42
3.0
 43
3.0
  0
INSERT
  5
22A
100
AcDbEntity
  8
0
100
AcDbBlockReference
 62
7
  6
CONTINUOUS
  2
_FILLED
 10
-39.7281706108
 20
33.8831453642
 41
3.0
 42
3.0
 43
3.0
 50
180.0
  0
ENDBLK
  5
22B
100
AcDbEntity
  8
0
  6
BYBLOCK
 62
0
100
AcDbBlockEnd
  0
BLOCK
  5
22C
100
AcDbEntity
  8
0
100
AcDbBlockBegin
 62
7
  6
CONTINUOUS
  2
*D1
 70
65
 10
0.0
 20
0.0
  3
*D1
  1

  0
LINE
  5
22D
100
AcDbEntity
  8
0
100
AcDbLine
 62
7
  6
CONTINUOUS
 10
2.8205584505
 20
-21.0166257837
 11
2.8205584505
 21
35.3831453642
  0
LINE
  5
22E
100
AcDbEntity
  8
0
100
AcDbLine
 62
7
  6
CONTINUOUS
 10
70.1205584505
 20
-21.0166257837
 11
70.1205584505
 21
35.3831453642
  0
LINE
  5
22F
100
AcDbEntity
  8
0
100
AcDbLine
 62
7
  6
CONTINUOUS
 10
2.8205584505
 20
33.8831453642
 11
36.4705584505
 21
33.8831453642
  0
LINE
  5
230
100
AcDbEntity
  8
0
100
AcDbLine
 62
7
  6
CONTINUOUS
 10
70.1205584505
 20
33.8831453642
 11
36.4705584505
 21
33.8831453642
  0
INSERT
  5
231
100
AcDbEntity
  8
0
100
AcDbBlockReference
 62
7
  6
CONTINUOUS
  2
_FILLED
 10
2.8205584505
 20
33.8831453642
 41
3.0
 42
3.0
 43
3.0
 50
180.0
  0
INSERT
  5
232
100
AcDbEntity
  8
0
100
AcDbBlockReference
 62
7
  6
CONTINUOUS
  2
_FILLED
 10
70.1205584505
 20
33.8831453642
 41
3.0
 42
3.0
 43
3.0
  0
ENDBLK
  5
233
100
AcDbEntity
  8
0
  6
BYBLOCK
 62
0
100
AcDbBlockEnd
  0
BLOCK
  5
234
100
AcDbEntity
  8
0
100
AcDbBlockBegin
 62
7
  6
CONTINUOUS
  2
*D2
 70
65
 10
0.0
 20
0.0
  3
*D2
  1

  0
LINE
  5
235
100
AcDbEntity
  8
0
100
AcDbLine
 62
7
  6
CONTINUOUS
 10
10.7957009724
 20
-23.1168546358
 11
81.6205584505
 21
-23.1168546358
  0
LINE
  5
236
100
AcDbEntity
  8
0
100
AcDbLine
 62
7
  6
CONTINUOUS
 10
10.7957009724
 20
23.8831453642
 11
81.6205584505
 21
23.8831453642
  0
LINE
  5
237
100
AcDbEntity
  8
0
100
AcDbLine
 62
7
  6
CONTINUOUS
 10
80.1205584505
 20
-23.1168546358
 11
80.1205584505
 21
0.3831453642
  0
LINE
  5
238
100
AcDbEntity
  8
0
100
AcDbLine
 62
7
  6
CONTINUOUS
 10
80.1205584505
 20
23.8831453642
 11
80.1205584505
 21
0.3831453642
  0
INSERT
  5
239
100
AcDbEntity
  8
0
100
AcDbBlockReference
 62
7
  6
CONTINUOUS
  2
_FILLED
 10
80.1205584505
 20
-23.1168546358
 41
3.0
 42
3.0
 43
3.0
 50
270.0
  0
INSERT
  5
23A
100
AcDbEntity
  8
0
100
AcDbBlockReference
 62
7
  6
CONTINUOUS
  2
_FILLED
 10
80.1205584505
 20
23.8831453642
 41
3.0
 42
3.0
 43
3.0
 50
90.0
  0
ENDBLK
  5
23B
100
AcDbEntity
  8
0
  6
BYBLOCK
 62
0
100
AcDbBlockEnd
  0
BLOCK
  5
23C
100
AcDbEntity
  8
0
100
AcDbBlockBegin
 62
7
  6
CONTINUOUS
  2
*D3
 70
65
 10
0.0
 20
0.0
  3
*D3
  1

  0
LINE
  5
23D
100
AcDbEntity
  8
0
100
AcDbLine
 62
7
  6
CONTINUOUS
 10
-49.2281706108
 20
0.8831453642
 11
-49.2281706108
 21
43.3831453642
  0
LINE
  5
23E
100
AcDbEntity
  8
0
100
AcDbLine
 62
7
  6
CONTINUOUS
 10
-15.2281706108
 20
0.8831453642
 11
-15.2281706108
 21
43.3831453642
  0
LINE
  5
23F
100
AcDbEntity
  8
0
100
AcDbLine
 62
7
  6
CONTINUOUS
 10
-49.2281706108
 20
41.8831453642
 11
-32.2281706108
 21
41.8831453642
  0
LINE
  5
240
100
AcDbEntity
  8
0
100
AcDbLine
 62
7
  6
CONTINUOUS
 10
-15.2281706108
 20
41.8831453642
 11
-32.2281706108
 21
41.8831453642
  0
INSERT
  5
241
100
AcDbEntity
  8
0
100
AcDbBlockReference
 62
7
  6
CONTINUOUS
  2
_FILLED
 10
-49.2281706108
 20
41.8831453642
 41
3.0
 42
3.0
 43
3.0
 50
180.0
  0
INSERT
  5
242
100
AcDbEntity
  8
0
100
AcDbBlockReference
 62
7
  6
CONTINUOUS
  2
_FILLED
 10
-15.2281706108
 20
41.8831453642
 41
3.0
 42
3.0
 43
3.0
  0
ENDBLK
  5
243
100
AcDbEntity
  8
0
  6
BYBLOCK
 62
0
100
AcDbBlockEnd
  0
ENDSEC
  0
SECTION
  2
ENTITIES
  0
DIMENSION
  5
244
100
AcDbEntity
  8
0
100
AcDbDimension
 62
7
  6
CONTINUOUS
  2
*D0
 10
-39.7281706108
 20
33.8831453642
 11
-31.7638848966
 21
33.8831453642
 70
160
 71
2
 72
2
 41
0.9
 42
24.5
  3
DIMSTYLE_1
100
AcDbAlignedDimension
 13
-15.2281706108
 23
-1.7168546358
 14
-39.7281706108
 24
22.2829165121
 50
180.0
100
AcDbRotatedDimension
  0
DIMENSION
  5
245
100
AcDbEntity
  8
0
100
AcDbDimension
 62
7
  6
CONTINUOUS
  2
*D1
 10
70.1205584505
 20
33.8831453642
 11
32.1848441648
 21
33.8831453642
 70
160
 71
2
 72
2
 41
0.9
 42
67.3
  3
DIMSTYLE_1
100
AcDbAlignedDimension
 13
2.8205584505
 23
-21.5166257837
 14
70.1205584505
 24
-21.5166257837
100
AcDbRotatedDimension
  0
DIMENSION
  5
246
100
AcDbEntity
  8
0
100
AcDbDimension
 62
7
  6
CONTINUOUS
  2
*D2
 10
80.1205584505
 20
23.8831453642
 11
80.1205584505
 21
-1.9739974929
 70
160
 71
2
 72
2
 41
0.9
 42
47.0
  3
DIMSTYLE_1
100
AcDbAlignedDimension
 13
10.2957009724
 23
-23.1168546358
 14
10.2957009724
 24
23.8831453642
 50
90.0
100
AcDbRotatedDimension
  0
DIMENSION
  5
247
100
AcDbEntity
  8
0
100
AcDbDimension
 62
7
  6
CONTINUOUS
  2
*D3
 10
-15.2281706108
 20
41.8831453642
 11
-34.4781706108
 21
41.8831453642
 70
160
 71
2
 72
2
 41
0.9
 42
34.0
  3
DIMSTYLE_1
100
AcDbAlignedDimension
 13
-49.2281706108
 23
0.3831453642
 14
-15.2281706108
 24
0.3831453642
100
AcDbRotatedDimension
  0
LWPOLYLINE
  5
248
100
AcDbEntity
  8
SUPERFICI
100
AcDbPolyline
 62
250
  6
CONTINUOUS
 90
13
 70
0
 10
2.9618364862
 20
-21.0924470056
 10
2.9661675219
 20
-21.157579367
 10
2.9789676816
 20
-21.2215994185
 10
3.0000185041
 20
-21.2834130741
 10
3.0289605308
 20
-21.3419639185
 10
3.0652994002
 20
-21.3962511843
 10
3.1084142541
 20
-21.4453468801
 10
3.157568458
 20
-21.4884117976
 10
3.2119220763
 20
-21.5247097126
 10
3.2705461158
 20
-21.5536199764
 10
3.3324386347
 20
-21.5746482997
 10
3.3965419079
 20
-21.5874351398
 10
3.4617603339
 20
-21.5917617728
  0
LWPOLYLINE
  5
249
100
AcDbEntity
  8
SUPERFICI
100
AcDbPolyline
 62
250
  6
CONTINUOUS
 90
7
 70
0
 10
2.9666060225
 20
21.7598418022
 10
2.9658940896
 20
21.7872238533
 10
2.9651317391
 20
21.8107469727
 10
2.964342455
 20
21.829728215
 10
2.9635340656
 20
21.8439399318
 10
2.9626987426
 20
21.8536097715
 10
2.9618364862
 20
21.858737734
  0
LWPOLYLINE
  5
24A
100
AcDbEntity
  8
SUPERFICI
100
AcDbPolyline
 62
250
  6
CONTINUOUS
 90
5
 70
0
 10
3.4650657856
 20
22.2615478026
 10
3.4642770393
 20
22.2995833542
 10
3.4634668236
 20
22.3285189056
 10
3.4626279218
 20
22.3480723895
 10
3.4617603338
 20
22.3580525014
  0
LINE
  5
24B
100
AcDbEntity
  8
SUPERFICI
100
AcDbLine
 62
250
  6
CONTINUOUS
 10
2.967874573
 20
21.6932875018
 11
2.9666060225
 21
21.7598418022
  0
LINE
  5
24C
100
AcDbEntity
  8
SUPERFICI
100
AcDbLine
 62
250
  6
CONTINUOUS
 10
3.4665355695
 20
22.159741326
 11
3.4650657856
 21
22.2615478026
  0
LINE
  5
24D
100
AcDbEntity
  8
SUPERFICI
100
AcDbLine
 62
250
  6
CONTINUOUS
 10
2.968887374
 20
21.6142128746
 11
2.967874573
 21
21.6932875018
  0
LINE
  5
24E
100
AcDbEntity
  8
SUPERFICI
100
AcDbLine
 62
250
  6
CONTINUOUS
 10
3.4683410713
 20
21.9506766712
 11
3.4665355695
 21
22.159741326
  0
LINE
  5
24F
100
AcDbEntity
  8
SUPERFICI
100
AcDbLine
 62
250
  6
CONTINUOUS
 10
2.9698562367
 20
21.4783221898
 11
2.968887374
 21
21.6142128746
  0
LINE
  5
250
100
AcDbEntity
  8
SUPERFICI
100
AcDbLine
 62
250
  6
CONTINUOUS
 10
3.4699411126
 20
21.4994582378
 11
3.4683410713
 21
21.9506766712
  0
LINE
  5
251
100
AcDbEntity
  8
SUPERFICI
100
AcDbLine
 62
7
  6
CONTINUOUS
 10
2.8205584505
 20
-21.5166257837
 11
2.8205584505
 21
22.2829165121
  0
LWPOLYLINE
  5
252
100
AcDbEntity
  8
SUPERFICI
100
AcDbPolyline
 62
250
  6
CONTINUOUS
 90
9
 70
0
 10
2.9731441516
 20
-15.9493317512
 10
2.9754276106
 20
-11.2838910363
 10
2.9769499173
 20
-6.6178284076
 10
2.9777110724
 20
-1.9507302996
 10
2.9777110753
 20
2.7169897221
 10
2.9769499238
 20
7.3840909607
 10
2.9754276171
 20
12.0501598505
 10
2.973144156
 20
16.7156099573
 10
2.9698562367
 20
21.4783221898
  0
LWPOLYLINE
  5
253
100
AcDbEntity
  8
SUPERFICI
100
AcDbPolyline
 62
250
  6
CONTINUOUS
 90
9
 70
0
 10
3.4730680045
 20
-15.9663356888
 10
3.4753514668
 20
-11.2960750474
 10
3.476873775
 20
-6.6247947213
 10
3.477634929
 20
-1.9529026275
 10
3.4776349288
 20
2.7191933618
 10
3.4768737746
 20
7.391085455
 10
3.4753514665
 20
12.0623657799
 10
3.4730680042
 20
16.7326264196
 10
3.4699411126
 20
21.4994582378
  0
LINE
  5
254
100
AcDbEntity
  8
SUPERFICI
100
AcDbLine
 62
250
  6
CONTINUOUS
 10
2.9698562367
 20
-20.7120314615
 11
2.9731441516
 21
-15.9493317512
  0
LINE
  5
255
100
AcDbEntity
  8
SUPERFICI
100
AcDbLine
 62
250
  6
CONTINUOUS
 10
3.4688117567
 20
-21.1022872729
 11
3.4730680045
 21
-15.9663356888
  0
LINE
  5
256
100
AcDbEntity
  8
SUPERFICI
100
AcDbLine
 62
250
  6
CONTINUOUS
 10
3.4671934701
 20
-21.3306707789
 11
3.4688117567
 21
-21.1022872729
  0
LINE
  5
257
100
AcDbEntity
  8
SUPERFICI
100
AcDbLine
 62
250
  6
CONTINUOUS
 10
2.968887374
 20
-20.8479221462
 11
2.9698562367
 21
-20.7120314615
  0
LINE
  5
258
100
AcDbEntity
  8
SUPERFICI
100
AcDbLine
 62
250
  6
CONTINUOUS
 10
2.967874573
 20
-20.9269967733
 11
2.968887374
 21
-20.8479221462
  0
LWPOLYLINE
  5
259
100
AcDbEntity
  8
SUPERFICI
100
AcDbPolyline
 62
250
  6
CONTINUOUS
 90
13
 70
0
 10
2.9618364862
 20
21.858737734
 10
2.9661680057
 20
21.9238737356
 10
2.9789694026
 20
21.9878965359
 10
3.0000218958
 20
22.049711959
 10
3.0289656893
 20
22.1082635538
 10
3.065306122
 20
22.1625506493
 10
3.1084221208
 20
22.2116454568
 10
3.1575768155
 20
22.2547089257
 10
3.2119301323
 20
22.2910050836
 10
3.2705531505
 20
22.3199136141
 10
3.3324439785
 20
22.3409404584
 10
3.3965448765
 20
22.3537262591
 10
3.4617603338
 20
22.3580525014
  0
LINE
  5
25A
100
AcDbEntity
  8
0
100
AcDbLine
 62
7
  6
CONTINUOUS
 10
10.6705584505
 20
22.7831453642
 11
10.7371912481
 21
22.8831453642
  0
LWPOLYLINE
  5
25B
100
AcDbEntity
  8
SUPERFICI
100
AcDbPolyline
 62
7
  6
CONTINUOUS
 90
10
 70
0
 10
9.7430157808
 20
23.7165050217
 10
9.7982333753
 20
23.7506639514
 10
9.8553385518
 20
23.7810142062
 10
9.9143313102
 20
23.8075557862
 10
9.9756644694
 20
23.8304249035
 10
10.0388852105
 20
23.8494853461
 10
10.102635077
 20
23.864328477
 10
10.16646125
 20
23.8748180843
 10
10.2308165485
 20
23.88109038
 10
10.2957009724
 20
23.8831453642
  0
LWPOLYLINE
  5
25C
100
AcDbEntity
  8
SUPERFICI
100
AcDbPolyline
 62
250
  6
CONTINUOUS
 90
12
 70
0
 10
2.9700995407
 20
21.3804412809
 10
2.9754095404
 20
21.3831546758
 10
2.9889955701
 20
21.3858226628
 10
3.0106303041
 20
21.3884006004
 10
3.0399517431
 20
21.3908453541
 10
3.0764692716
 20
21.3931160173
 10
3.1195718668
 20
21.3951745965
 10
3.1685383226
 20
21.3969866472
 10
3.2225493166
 20
21.398521849
 10
3.28070112
 20
21.3997545133
 10
3.3420207184
 20
21.4006640142
 10
3.4054820929
 20
21.4012351336
  0
LWPOLYLINE
  5
25D
100
AcDbEntity
  8
SUPERFICI
100
AcDbPolyline
 62
250
  6
CONTINUOUS
 90
13
 70
0
 10
2.9700995404
 20
-20.6141505525
 10
2.9754075896
 20
-20.6168641211
 10
2.988992055
 20
-20.6195322837
 10
3.0106256277
 20
-20.6221103939
 10
3.0399463124
 20
-20.6245553121
 10
3.0764634857
 20
-20.6268261274
 10
3.1195661049
 20
-20.6288848422
 10
3.1685329331
 20
-20.6306970082
 10
3.2225446072
 20
-20.6322323021
 10
3.2806973489
 20
-20.6334650328
 10
3.3420180872
 20
-20.6343745726
 10
3.4054807409
 20
-20.6349457026
 10
3.470023388
 20
-20.6351688659
  0
LWPOLYLINE
  5
25E
100
AcDbEntity
  8
SUPERFICI
100
AcDbPolyline
 62
7
  6
CONTINUOUS
 90
10
 70
0
 10
9.7430157808
 20
-22.9502142933
 10
9.7982333753
 20
-22.9843732229
 10
9.8553385518
 20
-23.0147234778
 10
9.9143313102
 20
-23.0412650577
 10
9.9756644694
 20
-23.0641341751
 10
10.0388852105
 20
-23.0831946176
 10
10.102635077
 20
-23.0980377486
 10
10.16646125
 20
-23.1085273559
 10
10.2308165485
 20
-23.1147996516
 10
10.2957009724
 20
-23.1168546358
  0
LINE
  5
25F
100
AcDbEntity
  8
0
100
AcDbLine
 62
7
  6
CONTINUOUS
 10
10.7371912481
 20
-22.1168546358
 11
10.6705584505
 21
-22.0168546358
  0
LWPOLYLINE
  5
260
100
AcDbEntity
  8
SUPERFICI
100
AcDbPolyline
 62
250
  6
CONTINUOUS
 90
7
 70
0
 10
3.4617603338
 20
-21.591761773
 10
3.4626279218
 20
-21.581781661
 10
3.4634668236
 20
-21.5622281772
 10
3.4642770393
 20
-21.5332926258
 10
3.4650657856
 20
-21.4952570742
 10
3.4658258458
 20
-21.4484915849
 10
3.4671934701
 20
-21.3306707789
  0
LINE
  5
261
100
AcDbEntity
  8
SUPERFICI
100
AcDbLine
 62
7
  6
CONTINUOUS
 10
10.6072140869
 20
22.8831453642
 11
10.5856861735
 21
22.7831453642
  0
LINE
  5
262
100
AcDbEntity
  8
SUPERFICI
100
AcDbLine
 62
7
  6
CONTINUOUS
 10
10.6072140869
 20
-22.1168546358
 11
10.5856861735
 21
-22.0168546358
  0
LINE
  5
263
100
AcDbEntity
  8
RACCORDO
100
AcDbLine
 62
250
  6
CONTINUOUS
 10
8.8756211665
 20
-7.3914566811
 11
8.8749910851
 21
-4.5492467056
  0
LINE
  5
264
100
AcDbEntity
  8
RACCORDO
100
AcDbLine
 62
250
  6
CONTINUOUS
 10
9.1754956467
 20
-7.0869174396
 11
9.1749986268
 21
-4.8462948121
  0
LINE
  5
265
100
AcDbEntity
  8
DRAFT
100
AcDbLine
 62
7
  6
CONTINUOUS
 10
9.1955584505
 20
-4.8668546358
 11
9.1955584505
 21
-7.0668546358
  0
LWPOLYLINE
  5
266
100
AcDbEntity
  8
SUPERFICI
100
AcDbPolyline
 62
250
  6
CONTINUOUS
 90
8
 70
0
 10
2.9618364862
 20
-21.0924470056
 10
2.9626987426
 20
-21.0873190429
 10
2.9635340656
 20
-21.0776492031
 10
2.964342455
 20
-21.0634374863
 10
2.9651317391
 20
-21.0444562441
 10
2.9658940896
 20
-21.0209331249
 10
2.9666060225
 20
-20.9935510738
 10
2.967874573
 20
-20.9269967733
  0
LWPOLYLINE
  5
267
100
AcDbEntity
  8
0
100
AcDbPolyline
 62
7
  6
CONTINUOUS
 90
10
 70
0
 43
0.3500000087
 10
33.2562718185
 20
37.6331436127
 10
32.6134164841
 20
36.9902882782
 10
32.1848434189
 20
36.1331464111
 10
32.1848434189
 20
35.0617180115
 10
32.6134164841
 20
34.6331449463
 10
33.2562718185
 20
34.6331449463
 10
33.6848448837
 20
35.0617180115
 10
33.6848448837
 20
35.9188598785
 10
33.2562718185
 20
36.3474329437
 10
32.3277003967
 20
36.3474329437
  0
LWPOLYLINE
  5
268
100
AcDbEntity
  8
0
100
AcDbPolyline
 62
7
  6
CONTINUOUS
 90
5
 70
0
 43
0.3500000087
 10
39.4705578156
 20
36.3474329437
 10
39.8276991943
 20
36.561715213
 10
39.8276991943
 20
37.2045748108
 10
39.4705578156
 20
37.6331436127
 10
38.6134159485
 20
37.6331436127
  0
LWPOLYLINE
  5
269
100
AcDbEntity
  8
RACCORDO
100
AcDbPolyline
 62
250
  6
CONTINUOUS
 90
36
 70
0
 10
11.1175124549
 20
-10.8833495759
 10
11.0330033689
 20
-10.7582894319
 10
10.9568258387
 20
-10.6340922232
 10
10.889208353
 20
-10.5111162439
 10
10.8299224232
 20
-10.3890032472
 10
10.7775044425
 20
-10.2692290427
 10
10.7319936401
 20
-10.1521963397
 10
10.6933507868
 20
-10.037502517
 10
10.6599945882
 20
-9.925415414
 10
10.6318112826
 20
-9.816240322
 10
10.6089146317
 20
-9.7096720347
 10
10.5900646258
 20
-9.6050626374
 10
10.5750770655
 20
-9.5025389909
 10
10.5641361503
 20
-9.401974293
 10
10.5565544688
 20
-9.3023401132
 10
10.5521648304
 20
-9.2035404564
 10
10.5511344258
 20
-9.1056713463
 10
10.5532774158
 20
-9.007992359
 10
10.5585237961
 20
-8.9102552909
 10
10.5669435711
 20
-8.8127083555
 10
10.5785609144
 20
-8.7153557466
 10
10.5934130219
 20
-8.6179957055
 10
10.6114626978
 20
-8.520830001
 10
10.6326225283
 20
-8.4244681241
 10
10.6569624371
 20
-8.3288740925
 10
10.6844125004
 20
-8.2340839117
 10
10.7146755338
 20
-8.1408150676
 10
10.7478106966
 20
-8.0491031141
 10
10.7837588293
 20
-7.9589125327
 10
10.822045269
 20
-7.8708542121
 10
10.8626870869
 20
-7.7850224647
 10
10.9056672118
 20
-7.7013230207
 10
10.9504597676
 20
-7.6200839024
 10
10.9968894622
 20
-7.5414144658
 10
11.0451315879
 20
-7.4652053974
 10
11.0951861444
 20
-7.3914567167
  0
LWPOLYLINE
  5
26A
100
AcDbEntity
  8
RACCORDO
100
AcDbPolyline
 62
250
  6
CONTINUOUS
 90
35
 70
0
 10
11.2848466678
 20
-10.5891947992
 10
11.2164501676
 20
-10.4772587438
 10
11.1556838259
 20
-10.3663190485
 10
11.1020170524
 20
-10.2567384408
 10
11.0549630568
 20
-10.1488697102
 10
11.0141674275
 20
-10.0433402263
 10
10.9791074443
 20
-9.9403351943
 10
10.9491392909
 20
-9.8394337998
 10
10.9239461045
 20
-9.7410458422
 10
10.9031338321
 20
-9.6452697808
 10
10.8861596426
 20
-9.551111508
 10
10.8728061822
 20
-9.4587641184
 10
10.8628448778
 20
-9.3683387307
 10
10.8559749921
 20
-9.2786500257
 10
10.8520997828
 20
-9.1896852002
 10
10.8511342198
 20
-9.101662385
 10
10.8530160658
 20
-9.013717263
 10
10.8577530497
 20
-8.925715721
 10
10.8653328891
 20
-8.837976464
 10
10.8757790498
 20
-8.7503149083
 10
10.8891320008
 20
-8.6626445519
 10
10.9053795623
 20
-8.5752448254
 10
10.9244621452
 20
-8.4884789199
 10
10.946366443
 20
-8.4023919427
 10
10.9710540231
 20
-8.3171214205
 10
10.9983576867
 20
-8.2331513546
 10
11.0282031119
 20
-8.1505600699
 10
11.0605171342
 20
-8.0694139616
 10
11.0950564869
 20
-7.9901478632
 10
11.1316837669
 20
-7.9128603665
 10
11.170310007
 20
-7.8375390531
 10
11.2107099872
 20
-7.7644196943
 10
11.2527157849
 20
-7.6935874382
 10
11.2962382813
 20
-7.6249879977
 10
11.341154599
 20
-7.5586293676
  0
LINE
  5
26B
100
AcDbEntity
  8
DRAFT
100
AcDbLine
 62
7
  6
CONTINUOUS
 10
10.0205584505
 20
7.8331453642
 11
10.0205584505
 21
5.6331453642
  0
LINE
  5
26C
100
AcDbEntity
  8
SUPERFICI
100
AcDbLine
 62
7
  6
CONTINUOUS
 10
10.5007381908
 20
-22.0168546358
 11
10.5007381908
 21
-22.1168546358
  0
LINE
  5
26D
100
AcDbEntity
  8
SUPERFICI
100
AcDbLine
 62
7
  6
CONTINUOUS
 10
10.5007381908
 20
22.7831453642
 11
10.5007381908
 21
22.8831453642
  0
LINE
  5
26E
100
AcDbEntity
  8
RACCORDO
100
AcDbLine
 62
250
  6
CONTINUOUS
 10
11.0953000401
 20
8.1577474095
 11
11.0953000401
 21
7.8531283397
  0
LINE
  5
26F
100
AcDbEntity
  8
RACCORDO
100
AcDbLine
 62
250
  6
CONTINUOUS
 10
11.0953000401
 20
-7.0868376113
 11
11.0953000401
 21
-7.3914566811
  0
LINE
  5
270
100
AcDbEntity
  8
RACCORDO
100
AcDbLine
 62
250
  6
CONTINUOUS
 10
9.6999910851
 20
5.3155374341
 11
9.7006211665
 21
8.1577474095
  0
LINE
  5
271
100
AcDbEntity
  8
RACCORDO
100
AcDbLine
 62
250
  6
CONTINUOUS
 10
9.9999986268
 20
5.6125855405
 11
10.0004956467
 21
7.8532081681
  0
LINE
  5
272
100
AcDbEntity
  8
SUPERFICI
100
AcDbLine
 62
250
  6
CONTINUOUS
 10
2.8205584505
 20
-21.5166257837
 11
2.9618364862
 21
-21.0924470056
  0
LINE
  5
273
100
AcDbEntity
  8
SUPERFICI
100
AcDbLine
 62
250
  6
CONTINUOUS
 10
3.3201778508
 20
-22.0168546358
 11
3.4617603338
 21
-21.591761773
  0
LWPOLYLINE
  5
274
100
AcDbEntity
  8
RACCORDO
100
AcDbPolyline
 62
250
  6
CONTINUOUS
 90
6
 70
0
 10
11.341154293
 20
8.3249205763
 10
11.3398996379
 20
8.3227960431
 10
11.3351351342
 20
8.3203250866
 10
11.3275481432
 20
8.3168290378
 10
11.3180249057
 20
8.3109349164
 10
11.3064353839
 20
8.3025659867
  0
LWPOLYLINE
  5
275
100
AcDbEntity
  8
SUPERFICI
100
AcDbPolyline
 62
7
  6
CONTINUOUS
 90
10
 70
0
 10
62.6454159287
 20
-23.1168546358
 10
62.7103003526
 20
-23.1147996516
 10
62.774655651
 20
-23.1085273559
 10
62.8384818241
 20
-23.0980377486
 10
62.9022316906
 20
-23.0831946176
 10
62.9654524317
 20
-23.0641341751
 10
63.0267855908
 20
-23.0412650577
 10
63.0857783493
 20
-23.0147234778
 10
63.1428835257
 20
-22.9843732229
 10
63.1981011203
 20
-22.9502142933
  0
LINE
  5
276
100
AcDbEntity
  8
SUPERFICI
100
AcDbLine
 62
250
  6
CONTINUOUS
 10
2.9618364862
 20
21.858737734
 11
2.8205584505
 21
22.2829165121
  0
LINE
  5
277
100
AcDbEntity
  8
SUPERFICI
100
AcDbLine
 62
250
  6
CONTINUOUS
 10
3.4617603338
 20
22.3580525014
 11
3.3201778508
 21
22.7831453642
  0
LINE
  5
278
100
AcDbEntity
  8
SUPERFICI
100
AcDbLine
 62
7
  6
CONTINUOUS
 10
17.4072140869
 20
22.8831453642
 11
17.3856861735
 21
22.7831453642
  0
LWPOLYLINE
  5
279
100
AcDbEntity
  8
RACCORDO
100
AcDbPolyline
 62
250
  6
CONTINUOUS
 90
19
 70
0
 10
15.799962608
 20
8.3249205763
 10
15.781026893
 20
8.2939555642
 10
15.7659711553
 20
8.2609263359
 10
15.7550160072
 20
8.2263168701
 10
15.7483219748
 20
8.1906343004
 10
15.7459871462
 20
8.154401485
 10
15.7480457336
 20
8.1181493446
 10
15.7544675725
 20
8.0824090833
 10
15.7651585634
 20
8.0477044043
 10
15.7799620508
 20
8.0145438366
 10
15.7986611187
 20
7.9834132834
 10
15.8209817689
 20
7.9547689017
 10
15.8465969361
 20
7.9290304188
 10
15.8751312804
 20
7.9065749815
 10
15.9061666868
 20
7.8877316303
 10
15.9392483925
 20
7.8727764776
 10
15.9738916499
 20
7.8619286616
 10
16.0095888301
 20
7.8553471358
 10
16.045816861
 20
7.8531283397
  0
LINE
  5
27A
100
AcDbEntity
  8
RACCORDO
100
AcDbLine
 62
7
  6
CONTINUOUS
 10
9.9999453937
 20
5.6125323074
 11
10.0205584505
 21
5.6331453642
  0
LINE
  5
27B
100
AcDbEntity
  8
RACCORDO
100
AcDbLine
 62
7
  6
CONTINUOUS
 10
9.7741088438
 20
5.3895898645
 11
9.7184790857
 21
5.3338872128
  0
LINE
  5
27C
100
AcDbEntity
  8
RACCORDO
100
AcDbLine
 62
7
  6
CONTINUOUS
 10
9.7184790857
 20
5.3338872128
 11
9.6999910851
 21
5.3155374341
  0
LINE
  5
27D
100
AcDbEntity
  8
RACCORDO
100
AcDbLine
 62
7
  6
CONTINUOUS
 10
9.8815739001
 20
5.4965405056
 11
9.7741088438
 21
5.3895898645
  0
LINE
  5
27E
100
AcDbEntity
  8
RACCORDO
100
AcDbLine
 62
7
  6
CONTINUOUS
 10
9.8980409301
 20
5.5127779822
 11
9.8815739001
 21
5.4965405056
  0
LWPOLYLINE
  5
27F
100
AcDbEntity
  8
RACCORDO
100
AcDbPolyline
 62
7
  6
CONTINUOUS
 90
3
 70
0
 10
9.9427874601
 20
5.5569935203
 10
9.9286477101
 20
5.5431649672
 10
9.8980409301
 20
5.5127779822
  0
LWPOLYLINE
  5
280
100
AcDbEntity
  8
SUPERFICI
100
AcDbPolyline
 62
250
  6
CONTINUOUS
 90
13
 70
0
 10
69.4793565672
 20
-21.591761773
 10
69.5445744721
 20
-21.5874352086
 10
69.6086773281
 20
-21.5746485511
 10
69.6705695495
 20
-21.5536204877
 10
69.7291934087
 20
-21.524710529
 10
69.783546973
 20
-21.4884129239
 10
69.8327012625
 20
-21.445348262
 10
69.8758163174
 20
-21.3962527233
 10
69.9121554615
 20
-21.3419654885
 10
69.9410977992
 20
-21.2834145124
 10
69.9621489161
 20
-21.2216005455
 10
69.9749492939
 20
-21.1575800092
 10
69.9792804148
 20
-21.0924470056
  0
LWPOLYLINE
  5
281
100
AcDbEntity
  8
SUPERFICI
100
AcDbPolyline
 62
7
  6
CONTINUOUS
 90
10
 70
0
 10
17.6454159287
 20
-23.1168546358
 10
17.7103003526
 20
-23.1147996516
 10
17.774655651
 20
-23.1085273559
 10
17.8384818241
 20
-23.0980377486
 10
17.9022316906
 20
-23.0831946176
 10
17.9654524317
 20
-23.0641341751
 10
18.0267855908
 20
-23.0412650577
 10
18.0857783493
 20
-23.0147234778
 10
18.1428835257
 20
-22.9843732229
 10
18.1981011203
 20
-22.9502142933
  0
LINE
  5
282
100
AcDbEntity
  8
SUPERFICI
100
AcDbLine
 62
7
  6
CONTINUOUS
 10
62.6454159287
 20
-23.1168546358
 11
55.2957009724
 21
-23.1168546358
  0
LINE
  5
283
100
AcDbEntity
  8
SUPERFICI
100
AcDbLine
 62
7
  6
CONTINUOUS
 10
17.6454159287
 20
-23.1168546358
 11
10.2957009724
 21
-23.1168546358
  0
LINE
  5
284
100
AcDbEntity
  8
SUPERFICI
100
AcDbLine
 62
7
  6
CONTINUOUS
 10
10.5007381908
 20
-22.1168546358
 11
17.4403787102
 21
-22.1168546358
  0
LINE
  5
285
100
AcDbEntity
  8
SUPERFICI
100
AcDbLine
 62
7
  6
CONTINUOUS
 10
55.5007381908
 20
-22.1168546358
 11
62.4403787102
 21
-22.1168546358
  0
LINE
  5
286
100
AcDbEntity
  8
SUPERFICI
100
AcDbLine
 62
7
  6
CONTINUOUS
 10
69.6209390503
 20
-22.0168546358
 11
62.2705584505
 21
-22.0168546358
  0
LINE
  5
287
100
AcDbEntity
  8
SUPERFICI
100
AcDbLine
 62
7
  6
CONTINUOUS
 10
55.6705584505
 20
-22.0168546358
 11
17.2705584505
 21
-22.0168546358
  0
LINE
  5
288
100
AcDbEntity
  8
SUPERFICI
100
AcDbLine
 62
7
  6
CONTINUOUS
 10
10.6705584505
 20
-22.0168546358
 11
3.3201778508
 21
-22.0168546358
  0
LINE
  5
289
100
AcDbEntity
  8
SUPERFICI
100
AcDbLine
 62
250
  6
CONTINUOUS
 10
69.4793565672
 20
-21.591761773
 11
3.4617603338
 21
-21.591761773
  0
LWPOLYLINE
  5
28A
100
AcDbEntity
  8
RACCORDO
100
AcDbPolyline
 62
7
  6
CONTINUOUS
 90
3
 70
0
 10
9.1426889852
 20
-4.8153636135
 10
9.1180240532
 20
-4.7909409983
 10
9.1038397223
 20
-4.7770672522
  0
LINE
  5
28B
100
AcDbEntity
  8
RACCORDO
100
AcDbLine
 62
7
  6
CONTINUOUS
 10
9.1038397223
 20
-4.7770672522
 11
9.0039557795
 21
-4.67795342
  0
LINE
  5
28C
100
AcDbEntity
  8
RACCORDO
100
AcDbLine
 62
7
  6
CONTINUOUS
 10
9.1749986268
 20
-4.8462948121
 11
9.1955584505
 21
-4.8668546358
  0
LINE
  5
28D
100
AcDbEntity
  8
RACCORDO
100
AcDbLine
 62
7
  6
CONTINUOUS
 10
9.0039557795
 20
-4.67795342
 11
8.8749910851
 21
-4.5492467056
  0
LWPOLYLINE
  5
28E
100
AcDbEntity
  8
RACCORDO
100
AcDbPolyline
 62
250
  6
CONTINUOUS
 90
66
 70
0
 10
15.7999622424
 20
-7.5586293396
 10
15.8486028674
 20
-7.6306843004
 10
15.8951701878
 20
-7.7046769862
 10
15.9395759702
 20
-7.7805561029
 10
15.9818201044
 20
-7.8584339858
 10
16.0217174338
 20
-7.9380891905
 10
16.0589532491
 20
-8.0189387728
 10
16.0934437259
 20
-8.1007670129
 10
16.125217751
 20
-8.1836061044
 10
16.1541986041
 20
-8.2672132661
 10
16.1803081749
 20
-8.3512563159
 10
16.2036253084
 20
-8.4358715311
 10
16.2242742192
 20
-8.5215288352
 10
16.2421476321
 20
-8.6078658005
 10
16.2572654774
 20
-8.695074588
 10
16.2697539864
 20
-8.7844916638
 10
16.2794120433
 20
-8.8759047362
 10
16.2860709941
 20
-8.969365027
 10
16.2895740253
 20
-9.0666237415
 10
16.2895252083
 20
-9.1677068343
 10
16.2855131555
 20
-9.2723371964
 10
16.2769853383
 20
-9.3817749166
 10
16.2633005171
 20
-9.4961058939
 10
16.2438632722
 20
-9.6147325943
 10
16.2179374395
 20
-9.7377920345
 10
16.1846989777
 20
-9.8653010367
 10
16.1435295573
 20
-9.9963057132
 10
16.0940617479
 20
-10.1294009743
 10
16.0355708769
 20
-10.2643425172
 10
15.9676672964
 20
-10.400042956
 10
15.8909712236
 20
-10.5339212251
 10
15.805383264
 20
-10.6652870677
 10
15.7107938343
 20
-10.793509317
 10
15.6084675982
 20
-10.9164125886
 10
15.4989390994
 20
-11.0332435145
 10
15.3822842343
 20
-11.1438164789
 10
15.2595081305
 20
-11.2471401791
 10
15.131325908
 20
-11.3427101365
 10
14.997973549
 20
-11.4304429032
 10
14.8598563357
 20
-11.5101185494
 10
14.7174964183
 20
-11.5814745544
 10
14.571364889
 20
-11.644312105
 10
14.4217858529
 20
-11.6985063995
 10
14.269191757
 20
-11.7438885562
 10
14.1141787291
 20
-11.7802691542
 10
13.9573199831
 20
-11.8075132337
 10
13.7991897394
 20
-11.8255274995
 10
13.6402938282
 20
-11.8342605279
 10
13.4811101815
 20
-11.8336833323
 10
13.3222412023
 20
-11.823794585
 10
13.1641738937
 20
-11.804620924
 10
13.0072174446
 20
-11.7761698734
 10
12.8517434595
 20
-11.7384409252
 10
12.6984833355
 20
-11.6915425026
 10
12.5482736315
 20
-11.6357057689
 10
12.4013360806
 20
-11.5709866158
 10
12.2584937442
 20
-11.4977200432
 10
12.121345001
 20
-11.4168589237
 10
11.9901685005
 20
-11.3288287661
 10
11.8653568889
 20
-11.2341615319
 10
11.7483534877
 20
-11.1344069331
 10
11.6393278192
 20
-11.0303728942
 10
11.5381563554
 20
-10.9226258586
 10
11.4454725998
 20
-10.812656232
 10
11.3611688371
 20
-10.7013405266
 10
11.2848466678
 20
-10.5891947992
  0
LWPOLYLINE
  5
28F
100
AcDbEntity
  8
RACCORDO
100
AcDbPolyline
 62
7
  6
CONTINUOUS
 90
22
 70
0
 10
15.7635404147
 20
-7.5417895245
 10
15.7465223785
 20
-7.5150677169
 10
15.7325537064
 20
-7.4873847377
 10
15.7216343983
 20
-7.458740587
 10
15.7137030333
 20
-7.4288583736
 10
15.7088210323
 20
-7.3980149888
 10
15.7071726582
 20
-7.3670411056
 10
15.7088257504
 20
-7.3358778054
 10
15.7137124694
 20
-7.304584007
 10
15.7218135601
 20
-7.2741671393
 10
15.7333239906
 20
-7.2445611957
 10
15.7480487928
 20
-7.215832183
 10
15.7653838072
 20
-7.1891855499
 10
15.7854163459
 20
-7.1648068621
 10
15.8080590968
 20
-7.142510554
 10
15.8324459639
 20
-7.1229453778
 10
15.8585287466
 20
-7.1062294718
 10
15.8863556455
 20
-7.0922446977
 10
15.9152051663
 20
-7.0812853933
 10
15.9448368109
 20
-7.0734496711
 10
15.9754910775
 20
-7.0686394186
 10
16.0071679661
 20
-7.0668546358
  0
LINE
  5
290
100
AcDbEntity
  8
SUPERFICI
100
AcDbLine
 62
7
  6
CONTINUOUS
 10
17.4072140869
 20
-22.1168546358
 11
17.3856861735
 21
-22.0168546358
  0
LINE
  5
291
100
AcDbEntity
  8
RACCORDO
100
AcDbLine
 62
250
  6
CONTINUOUS
 10
17.1406212544
 20
7.8532081681
 11
17.1411182742
 21
5.6125855405
  0
LINE
  5
292
100
AcDbEntity
  8
RACCORDO
100
AcDbLine
 62
250
  6
CONTINUOUS
 10
17.4404957346
 20
8.1577474095
 11
17.4411258159
 21
5.3155374341
  0
LINE
  5
293
100
AcDbEntity
  8
RACCORDO
100
AcDbLine
 62
250
  6
CONTINUOUS
 10
16.045816861
 20
-7.3914566811
 11
16.045816861
 21
-7.0868376113
  0
LINE
  5
294
100
AcDbEntity
  8
RACCORDO
100
AcDbLine
 62
250
  6
CONTINUOUS
 10
16.045816861
 20
7.8531283397
 11
16.045816861
 21
8.1577474095
  0
LINE
  5
295
100
AcDbEntity
  8
DRAFT
100
AcDbLine
 62
7
  6
CONTINUOUS
 10
17.1205584505
 20
5.6331453642
 11
17.1205584505
 21
7.8331453642
  0
LINE
  5
296
100
AcDbEntity
  8
SUPERFICI
100
AcDbLine
 62
7
  6
CONTINUOUS
 10
17.4403787102
 20
22.8831453642
 11
17.4403787102
 21
22.7831453642
  0
LINE
  5
297
100
AcDbEntity
  8
SUPERFICI
100
AcDbLine
 62
7
  6
CONTINUOUS
 10
17.4403787102
 20
-22.1168546358
 11
17.4403787102
 21
-22.0168546358
  0
LINE
  5
298
100
AcDbEntity
  8
SUPERFICI
100
AcDbLine
 62
7
  6
CONTINUOUS
 10
10.5339028142
 20
-22.1168546358
 11
10.5554307276
 21
-22.0168546358
  0
LWPOLYLINE
  5
299
100
AcDbEntity
  8
RACCORDO
100
AcDbPolyline
 62
7
  6
CONTINUOUS
 90
3
 70
0
 10
17.1962944043
 20
7.9116177212
 10
17.210489655
 20
7.9259643646
 10
17.2413379006
 20
7.9574132326
  0
LINE
  5
29A
100
AcDbEntity
  8
RACCORDO
100
AcDbLine
 62
7
  6
CONTINUOUS
 10
17.2413379006
 20
7.9574132326
 11
17.3477643206
 21
8.064789262
  0
LINE
  5
29B
100
AcDbEntity
  8
RACCORDO
100
AcDbLine
 62
7
  6
CONTINUOUS
 10
17.3477643206
 20
8.064789262
 11
17.4221329368
 21
8.1395048991
  0
LINE
  5
29C
100
AcDbEntity
  8
RACCORDO
100
AcDbLine
 62
7
  6
CONTINUOUS
 10
17.140541426
 20
7.8531283397
 11
17.1205584505
 21
7.8331453642
  0
LINE
  5
29D
100
AcDbEntity
  8
RACCORDO
100
AcDbLine
 62
7
  6
CONTINUOUS
 10
17.4221329368
 20
8.1395048991
 11
17.4404957346
 21
8.1577474095
  0
LWPOLYLINE
  5
29E
100
AcDbEntity
  8
RACCORDO
100
AcDbPolyline
 62
7
  6
CONTINUOUS
 90
7
 70
0
 10
9.9999453937
 20
5.6125323074
 10
9.9974220481
 20
5.6107241534
 10
9.9929578279
 20
5.6064562135
 10
9.9865527329
 20
5.5999770524
 10
9.9779714751
 20
5.5915468376
 10
9.9674493426
 20
5.5814162755
 10
9.9427874601
 20
5.5569935203
  0
LWPOLYLINE
  5
29F
100
AcDbEntity
  8
RACCORDO
100
AcDbPolyline
 62
250
  6
CONTINUOUS
 90
10
 70
0
 10
11.3064353839
 20
8.3025659867
 10
11.2754099905
 20
8.2826751591
 10
11.2576079586
 20
8.2699915553
 10
11.2377540733
 20
8.2563808201
 10
11.2161872275
 20
8.2419256214
 10
11.1937533718
 20
8.2261260556
 10
11.1700655711
 20
8.2097458387
 10
11.1452794535
 20
8.1930559393
 10
11.1201994402
 20
8.1757253492
 10
11.0953000401
 20
8.1577474095
  0
LWPOLYLINE
  5
2A0
100
AcDbEntity
  8
SUPERFICI
100
AcDbPolyline
 62
250
  6
CONTINUOUS
 90
12
 70
0
 10
69.535636161
 20
-20.6349457005
 10
69.5990988154
 20
-20.6343745689
 10
69.6604195543
 20
-20.6334650282
 10
69.7185722965
 20
-20.6322322977
 10
69.7725839709
 20
-20.6306970048
 10
69.8215507991
 20
-20.6288848398
 10
69.8646534183
 20
-20.6268261257
 10
69.9011705912
 20
-20.624555311
 10
69.9304912756
 20
-20.6221103933
 10
69.9521248476
 20
-20.6195322835
 10
69.9657093124
 20
-20.6168641211
 10
69.9710173606
 20
-20.6141505525
  0
LINE
  5
2A1
100
AcDbEntity
  8
SUPERFICI
100
AcDbLine
 62
250
  6
CONTINUOUS
 10
69.535636161
 20
-20.6349457005
 11
3.470023388
 21
-20.6351688667
  0
LWPOLYLINE
  5
2A2
100
AcDbEntity
  8
RACCORDO
100
AcDbPolyline
 62
250
  6
CONTINUOUS
 90
7
 70
0
 10
11.2754107838
 20
-7.5163832647
 10
11.306436073
 20
-7.5362742411
 10
11.3180255058
 20
-7.5446432982
 10
11.3275486469
 20
-7.5505375808
 10
11.335135511
 20
-7.5540338328
 10
11.339899843
 20
-7.5565050333
 10
11.3411542931
 20
-7.5586298479
  0
LWPOLYLINE
  5
2A3
100
AcDbEntity
  8
RACCORDO
100
AcDbPolyline
 62
250
  6
CONTINUOUS
 90
9
 70
0
 10
11.0953000401
 20
-7.3914566811
 10
11.120199629
 20
-7.4094343405
 10
11.1452798073
 20
-7.4267646838
 10
11.1700660642
 20
-7.4434543742
 10
11.1937539813
 20
-7.4598344198
 10
11.2161879273
 20
-7.4756338559
 10
11.23775483
 20
-7.4900889727
 10
11.2576087461
 20
-7.5036996643
 10
11.2754107838
 20
-7.5163832647
  0
LWPOLYLINE
  5
2A4
100
AcDbEntity
  8
RACCORDO
100
AcDbPolyline
 62
7
  6
CONTINUOUS
 90
6
 70
0
 10
9.1749453937
 20
-4.8462415789
 10
9.172477723
 20
-4.8444588664
 10
9.1680639551
 20
-4.8402457406
 10
9.1617040901
 20
-4.8338326954
 10
9.1531695862
 20
-4.8254595231
 10
9.1426889852
 20
-4.8153636135
  0
LWPOLYLINE
  5
2A5
100
AcDbEntity
  8
RACCORDO
100
AcDbPolyline
 62
250
  6
CONTINUOUS
 90
65
 70
0
 10
16.0457276225
 20
-7.3914566811
 10
16.0999341981
 20
-7.4716049686
 10
16.1516347456
 20
-7.5537845319
 10
16.2008292652
 20
-7.6379953528
 10
16.2476745906
 20
-7.7245072313
 10
16.292013888
 20
-7.8130503276
 10
16.333376656
 20
-7.9028151699
 10
16.371648762
 20
-7.9936901182
 10
16.4069443387
 20
-8.0857867855
 10
16.4391352826
 20
-8.1786305906
 10
16.4681554018
 20
-8.2719558989
 10
16.4940708883
 20
-8.3660283261
 10
16.5169522152
 20
-8.4611701678
 10
16.5368668032
 20
-8.5570558021
 10
16.5537472316
 20
-8.6540108244
 10
16.5674617119
 20
-8.7533343394
 10
16.5782440803
 20
-8.8548895817
 10
16.5858605007
 20
-8.9588132573
 10
16.5894776759
 20
-9.0668146431
 10
16.589395749
 20
-9.1791412477
 10
16.585314577
 20
-9.2955454476
 10
16.5755004341
 20
-9.4169937845
 10
16.5601302187
 20
-9.5440268759
 10
16.5390270325
 20
-9.676103936
 10
16.5099264545
 20
-9.812569391
 10
16.4726641996
 20
-9.954138228
 10
16.427404553
 20
-10.1000952807
 10
16.3723759501
 20
-10.2476397996
 10
16.306996146
 20
-10.3972738756
 10
16.2318473857
 20
-10.5484953248
 10
16.146904839
 20
-10.6969971195
 10
16.0516289293
 20
-10.8425655111
 10
15.9465592332
 20
-10.9854143318
 10
15.8332896516
 20
-11.1218780803
 10
15.7117039853
 20
-11.251393345
 10
15.5819184335
 20
-11.3745237598
 10
15.4458754939
 20
-11.4892944919
 10
15.3037173076
 20
-11.5953300576
 10
15.1553017336
 20
-11.6930061965
 10
15.0021448467
 20
-11.7814749453
 10
14.8442570549
 20
-11.8606512782
 10
14.6816279503
 20
-11.9306204422
 10
14.5157423831
 20
-11.9907898857
 10
14.3464930024
 20
-12.0411043798
 10
14.1739871592
 20
-12.0816193132
 10
14.0000317571
 20
-12.1119080491
 10
13.8246507105
 20
-12.131863333
 10
13.647820105
 20
-12.1415924967
 10
13.4712751013
 20
-12.1409907628
 10
13.2950737039
 20
-12.1299926925
 10
13.1191579082
 20
-12.1086637066
 10
12.9450888617
 20
-12.077095293
 10
12.7726849478
 20
-12.0351292508
 10
12.602127783
 20
-11.9829236681
 10
12.435523364
 20
-11.921044449
 10
12.2726734154
 20
-11.8490722304
 10
12.1137762127
 20
-11.7674261839
 10
11.9615325784
 20
-11.6779300216
 10
11.816178569
 20
-11.5801923662
 10
11.6774781279
 20
-11.4746043855
 10
11.5474239089
 20
-11.364163665
 10
11.4265256382
 20
-11.248814259
 10
11.3142735896
 20
-11.1286119697
 10
11.2111312379
 20
-11.0067220995
 10
11.1175124549
 20
-10.8833495759
  0
LINE
  5
2A6
100
AcDbEntity
  8
SUPERFICI
100
AcDbLine
 62
7
  6
CONTINUOUS
 10
10.5339028142
 20
22.8831453642
 11
10.5554307276
 21
22.7831453642
  0
LINE
  5
2A7
100
AcDbEntity
  8
DRAFT
100
AcDbLine
 62
7
  6
CONTINUOUS
 10
17.9455584505
 20
-7.0668546358
 11
17.9455584505
 21
-4.8668546358
  0
LINE
  5
2A8
100
AcDbEntity
  8
RACCORDO
100
AcDbLine
 62
250
  6
CONTINUOUS
 10
17.9661182742
 20
-4.8462948121
 11
17.9656212544
 21
-7.0869174396
  0
LINE
  5
2A9
100
AcDbEntity
  8
RACCORDO
100
AcDbLine
 62
250
  6
CONTINUOUS
 10
18.2661258159
 20
-4.5492467056
 11
18.2654957346
 21
-7.3914566811
  0
LWPOLYLINE
  5
2AA
100
AcDbEntity
  8
RACCORDO
100
AcDbPolyline
 62
250
  6
CONTINUOUS
 90
19
 70
0
 10
11.3411542931
 20
-7.5586298479
 10
11.3600900081
 20
-7.5276648357
 10
11.3751457458
 20
-7.4946356075
 10
11.3861008939
 20
-7.4600261416
 10
11.3927949263
 20
-7.424343572
 10
11.3951297549
 20
-7.3881107565
 10
11.3930711675
 20
-7.3518586162
 10
11.3866493287
 20
-7.3161183548
 10
11.3759583378
 20
-7.2814136758
 10
11.3611548504
 20
-7.2482531082
 10
11.3424557825
 20
-7.2171225549
 10
11.3201351323
 20
-7.1884781732
 10
11.294519965
 20
-7.1627396903
 10
11.2659856208
 20
-7.1402842531
 10
11.2349502143
 20
-7.1214409019
 10
11.2018685087
 20
-7.1064857491
 10
11.1672252512
 20
-7.0956379331
 10
11.131528071
 20
-7.0890564074
 10
11.0953000401
 20
-7.0868376113
  0
LWPOLYLINE
  5
2AB
100
AcDbEntity
  8
RACCORDO
100
AcDbPolyline
 62
7
  6
CONTINUOUS
 90
7
 70
0
 10
17.140541426
 20
7.8531283397
 10
17.1427021659
 20
7.8551285411
 10
17.1468559315
 20
7.859825237
 10
17.1530027228
 20
7.8668508148
 10
17.1613728493
 20
7.8757848865
 10
17.1717360015
 20
7.886306727
 10
17.1962944043
 20
7.9116177212
  0
LWPOLYLINE
  5
2AC
100
AcDbEntity
  8
RACCORDO
100
AcDbPolyline
 62
7
  6
CONTINUOUS
 90
6
 70
0
 10
17.965541426
 20
-7.0868376113
 10
17.96778193
 20
-7.0888781669
 10
17.9720087992
 20
-7.0936615982
 10
17.9782220334
 20
-7.1007906614
 10
17.9866624174
 20
-7.1098122447
 10
17.9970891665
 20
-7.1203855797
  0
LINE
  5
2AD
100
AcDbEntity
  8
RACCORDO
100
AcDbLine
 62
7
  6
CONTINUOUS
 10
18.246872884
 20
-7.3729534465
 11
18.2654957346
 21
-7.3914566811
  0
LINE
  5
2AE
100
AcDbEntity
  8
RACCORDO
100
AcDbLine
 62
7
  6
CONTINUOUS
 10
17.9656212544
 20
-7.0869174396
 11
17.9455584505
 21
-7.0668546358
  0
LINE
  5
2AF
100
AcDbEntity
  8
RACCORDO
100
AcDbLine
 62
7
  6
CONTINUOUS
 10
18.0664119244
 20
-7.1911991527
 11
18.246872884
 21
-7.3729534465
  0
LWPOLYLINE
  5
2B0
100
AcDbEntity
  8
RACCORDO
100
AcDbPolyline
 62
7
  6
CONTINUOUS
 90
3
 70
0
 10
18.0216456587
 20
-7.1456936567
 10
18.0507139204
 20
-7.1751887234
 10
18.0664119244
 20
-7.1911991527
  0
LINE
  5
2B1
100
AcDbEntity
  8
RACCORDO
100
AcDbLine
 62
7
  6
CONTINUOUS
 10
17.9970891665
 20
-7.1203855797
 11
18.0216456587
 21
-7.1456936567
  0
LWPOLYLINE
  5
2B2
100
AcDbEntity
  8
RACCORDO
100
AcDbPolyline
 62
250
  6
CONTINUOUS
 90
65
 70
0
 10
11.0953892559
 20
8.1577474454
 10
11.0411826904
 20
8.237895717
 10
10.9894821504
 20
8.3200752683
 10
10.9402876359
 20
8.4042860812
 10
10.8934423122
 20
8.490797957
 10
10.8491030139
 20
8.5793410546
 10
10.807740245
 20
8.6691058984
 10
10.769468139
 20
8.7599808467
 10
10.7341725624
 20
8.8520775139
 10
10.7019816184
 20
8.944921319
 10
10.6729614993
 20
9.0382466273
 10
10.6470460128
 20
9.1323190545
 10
10.6241646859
 20
9.2274608962
 10
10.6042500979
 20
9.3233465305
 10
10.5873696695
 20
9.4203015528
 10
10.5736551891
 20
9.5196250679
 10
10.5628728207
 20
9.6211803101
 10
10.5552564004
 20
9.7251039858
 10
10.5516392251
 20
9.8331053716
 10
10.551721152
 20
9.9454319761
 10
10.555802324
 20
10.0618361761
 10
10.5656164669
 20
10.1832845129
 10
10.5809866823
 20
10.3103176044
 10
10.6020898686
 20
10.4423946645
 10
10.6311904465
 20
10.5788601194
 10
10.6684527015
 20
10.7204289564
 10
10.7137123481
 20
10.8663860091
 10
10.7687409509
 20
11.013930528
 10
10.834120755
 20
11.163564604
 10
10.9092695154
 20
11.3147860532
 10
10.994212062
 20
11.4632878479
 10
11.0894879718
 20
11.6088562395
 10
11.1945576679
 20
11.7517050602
 10
11.3078272495
 20
11.8881688087
 10
11.4294129157
 20
12.0176840734
 10
11.5591984676
 20
12.1408144883
 10
11.6952414071
 20
12.2555852203
 10
11.8373995934
 20
12.361620786
 10
11.9858151674
 20
12.4592969249
 10
12.1389720544
 20
12.5477656737
 10
12.2968598461
 20
12.6269420066
 10
12.4594889508
 20
12.6969111706
 10
12.6253745179
 20
12.7570806142
 10
12.7946238986
 20
12.8073951083
 10
12.9671297418
 20
12.8479100416
 10
13.1410851439
 20
12.8781987775
 10
13.3164661905
 20
12.8981540614
 10
13.4932967961
 20
12.9078832251
 10
13.6698417998
 20
12.9072814912
 10
13.8460431972
 20
12.896283421
 10
14.0219589928
 20
12.874954435
 10
14.1960280394
 20
12.8433860215
 10
14.3684319533
 20
12.8014199792
 10
14.5389891181
 20
12.7492143965
 10
14.7055935371
 20
12.6873351774
 10
14.8684434856
 20
12.6153629588
 10
15.0273406883
 20
12.5337169123
 10
15.1795843226
 20
12.44422075
 10
15.3249383321
 20
12.3464830947
 10
15.4636387731
 20
12.2408951139
 10
15.5936929921
 20
12.1304543934
 10
15.7145912628
 20
12.0151049874
 10
15.8268433114
 20
11.8949026981
 10
15.9299856632
 20
11.7730128279
 10
16.0236044461
 20
11.6496403043
  0
LWPOLYLINE
  5
2B3
100
AcDbEntity
  8
RACCORDO
100
AcDbPolyline
 62
250
  6
CONTINUOUS
 90
66
 70
0
 10
11.3411546586
 20
8.324920068
 10
11.2925140337
 20
8.3969750288
 10
11.2459467132
 20
8.4709677146
 10
11.2015409308
 20
8.5468468313
 10
11.1592967967
 20
8.6247247142
 10
11.1193994672
 20
8.7043799189
 10
11.082163652
 20
8.7852295012
 10
11.0476731752
 20
8.8670577414
 10
11.0158991501
 20
8.9498968328
 10
10.986918297
 20
9.0335039945
 10
10.9608087262
 20
9.1175470443
 10
10.9374915927
 20
9.2021622595
 10
10.9168426818
 20
9.2878195636
 10
10.8989692689
 20
9.374156529
 10
10.8838514236
 20
9.4613653164
 10
10.8713629147
 20
9.5507823922
 10
10.8617048577
 20
9.6421954647
 10
10.855045907
 20
9.7356557555
 10
10.8515428758
 20
9.83291447
 10
10.8515916927
 20
9.9339975627
 10
10.8556037456
 20
10.0386279248
 10
10.8641315628
 20
10.1480656451
 10
10.877816384
 20
10.2623966223
 10
10.8972536288
 20
10.3810233227
 10
10.9231794616
 20
10.5040827629
 10
10.9564179234
 20
10.6315917651
 10
10.9975873437
 20
10.7625964417
 10
11.0470551532
 20
10.8956917027
 10
11.1055460241
 20
11.0306332456
 10
11.1734496046
 20
11.1663336844
 10
11.2501456774
 20
11.3002119535
 10
11.335733637
 20
11.4315777961
 10
11.4303230667
 20
11.5598000454
 10
11.5326493029
 20
11.682703317
 10
11.6421778016
 20
11.7995342429
 10
11.7588326668
 20
11.9101072073
 10
11.8816087705
 20
12.0134309075
 10
12.0097909931
 20
12.1090008649
 10
12.1431433521
 20
12.1967336316
 10
12.2812605653
 20
12.2764092778
 10
12.4236204828
 20
12.3477652828
 10
12.5697520121
 20
12.4106028334
 10
12.7193310482
 20
12.464797128
 10
12.871925144
 20
12.5101792846
 10
13.0269381719
 20
12.5465598826
 10
13.183796918
 20
12.5738039621
 10
13.3419271616
 20
12.5918182279
 10
13.5008230729
 20
12.6005512563
 10
13.6600067196
 20
12.5999740607
 10
13.8188756988
 20
12.5900853135
 10
13.9769430073
 20
12.5709116524
 10
14.1338994564
 20
12.5424606018
 10
14.2893734416
 20
12.5047316536
 10
14.4426335655
 20
12.457833231
 10
14.5928432696
 20
12.4019964973
 10
14.7397808205
 20
12.3372773443
 10
14.8826231568
 20
12.2640107717
 10
15.0197719001
 20
12.1831496522
 10
15.1509484005
 20
12.0951194945
 10
15.2757600121
 20
12.0004522603
 10
15.3927634133
 20
11.9006976615
 10
15.5017890819
 20
11.7966636226
 10
15.6029605456
 20
11.688916587
 10
15.6956443013
 20
11.5789469604
 10
15.7799480639
 20
11.4676312551
 10
15.8562702332
 20
11.3554855276
  0
LWPOLYLINE
  5
2B4
100
AcDbEntity
  8
RACCORDO
100
AcDbPolyline
 62
7
  6
CONTINUOUS
 90
22
 70
0
 10
11.3775764864
 20
8.3080802529
 10
11.3945945225
 20
8.2813584453
 10
11.4085631946
 20
8.2536754661
 10
11.4194825027
 20
8.2250313154
 10
11.4274138677
 20
8.1951491021
 10
11.4322958687
 20
8.1643057172
 10
11.4339442428
 20
8.133331834
 10
11.4322911507
 20
8.1021685338
 10
11.4274044317
 20
8.0708747354
 10
11.419303341
 20
8.0404578677
 10
11.4077929104
 20
8.0108519242
 10
11.3930681082
 20
7.9821229114
 10
11.3757330938
 20
7.9554762783
 10
11.3557005551
 20
7.9310975905
 10
11.3330578042
 20
7.9088012824
 10
11.3086709371
 20
7.8892361062
 10
11.2825881544
 20
7.8725202002
 10
11.2547612556
 20
7.8585354261
 10
11.2259117348
 20
7.8475761217
 10
11.1962800901
 20
7.8397403996
 10
11.1656258235
 20
7.8349301471
 10
11.133948935
 20
7.8331453642
  0
LINE
  5
2B5
100
AcDbEntity
  8
SUPERFICI
100
AcDbLine
 62
7
  6
CONTINUOUS
 10
17.3339028142
 20
-22.1168546358
 11
17.3554307276
 21
-22.0168546358
  0
LWPOLYLINE
  5
2B6
100
AcDbEntity
  8
RACCORDO
100
AcDbPolyline
 62
250
  6
CONTINUOUS
 90
6
 70
0
 10
15.799962608
 20
-7.5586298479
 10
15.8012172631
 20
-7.5565053147
 10
15.8059817669
 20
-7.5540343582
 10
15.8135687578
 20
-7.5505383094
 10
15.8230919953
 20
-7.544644188
 10
15.8346815172
 20
-7.5362752583
  0
LWPOLYLINE
  5
2B7
100
AcDbEntity
  8
RACCORDO
100
AcDbPolyline
 62
7
  6
CONTINUOUS
 90
3
 70
0
 10
9.1198224967
 20
-7.1453269928
 10
9.105627246
 20
-7.1596736362
 10
9.0747790005
 20
-7.1911225042
  0
LINE
  5
2B8
100
AcDbEntity
  8
RACCORDO
100
AcDbLine
 62
7
  6
CONTINUOUS
 10
9.0747790005
 20
-7.1911225042
 11
8.9683525805
 21
-7.2984985336
  0
LINE
  5
2B9
100
AcDbEntity
  8
RACCORDO
100
AcDbLine
 62
7
  6
CONTINUOUS
 10
8.9683525805
 20
-7.2984985336
 11
8.8939839642
 21
-7.3732141706
  0
LINE
  5
2BA
100
AcDbEntity
  8
RACCORDO
100
AcDbLine
 62
7
  6
CONTINUOUS
 10
9.175575475
 20
-7.0868376113
 11
9.1955584505
 21
-7.0668546358
  0
LINE
  5
2BB
100
AcDbEntity
  8
RACCORDO
100
AcDbLine
 62
7
  6
CONTINUOUS
 10
8.8939839642
 20
-7.3732141706
 11
8.8756211665
 21
-7.3914566811
  0
LINE
  5
2BC
100
AcDbEntity
  8
RACCORDO
100
AcDbLine
 62
250
  6
CONTINUOUS
 10
16.0458171827
 20
7.8531283397
 11
16.0071679661
 21
7.8331453642
  0
LINE
  5
2BD
100
AcDbEntity
  8
RACCORDO
100
AcDbLine
 62
250
  6
CONTINUOUS
 10
15.7999628881
 20
8.324920935
 11
15.7635404147
 21
8.3080802529
  0
LINE
  5
2BE
100
AcDbEntity
  8
RACCORDO
100
AcDbLine
 62
250
  6
CONTINUOUS
 10
15.7635404147
 20
-7.5417895245
 11
15.7999622424
 21
-7.5586293396
  0
LINE
  5
2BF
100
AcDbEntity
  8
RACCORDO
100
AcDbLine
 62
250
  6
CONTINUOUS
 10
16.0071679661
 20
-7.0668546358
 11
16.0458163859
 21
-7.0868376113
  0
LINE
  5
2C0
100
AcDbEntity
  8
RACCORDO
100
AcDbLine
 62
7
  6
CONTINUOUS
 10
9.719244017
 20
8.1392441749
 11
9.7006211665
 21
8.1577474095
  0
LINE
  5
2C1
100
AcDbEntity
  8
RACCORDO
100
AcDbLine
 62
7
  6
CONTINUOUS
 10
10.0004956467
 20
7.8532081681
 11
10.0205584505
 21
7.8331453642
  0
LINE
  5
2C2
100
AcDbEntity
  8
RACCORDO
100
AcDbLine
 62
7
  6
CONTINUOUS
 10
9.8997049766
 20
7.9574898811
 11
9.719244017
 21
8.1392441749
  0
LWPOLYLINE
  5
2C3
100
AcDbEntity
  8
RACCORDO
100
AcDbPolyline
 62
7
  6
CONTINUOUS
 90
3
 70
0
 10
9.9444712424
 20
7.9119843851
 10
9.9154029806
 20
7.9414794518
 10
9.8997049766
 20
7.9574898811
  0
LINE
  5
2C4
100
AcDbEntity
  8
RACCORDO
100
AcDbLine
 62
7
  6
CONTINUOUS
 10
9.9690277345
 20
7.8866763081
 11
9.9444712424
 21
7.9119843851
  0
LINE
  5
2C5
100
AcDbEntity
  8
SUPERFICI
100
AcDbLine
 62
7
  6
CONTINUOUS
 10
17.3339028142
 20
22.8831453642
 11
17.3554307276
 21
22.7831453642
  0
LINE
  5
2C6
100
AcDbEntity
  8
0
100
AcDbLine
 62
7
  6
CONTINUOUS
 10
23.3705584505
 20
1.9991435525
 11
23.3705584505
 21
-1.232852824
  0
LINE
  5
2C7
100
AcDbEntity
  8
0
100
AcDbLine
 62
7
  6
CONTINUOUS
 10
23.4705584505
 20
2.1209937525
 11
23.4705584505
 21
1.0789823082
  0
LINE
  5
2C8
100
AcDbEntity
  8
0
100
AcDbLine
 62
7
  6
CONTINUOUS
 10
23.4705584505
 20
-1.3547030241
 11
23.4705584505
 21
-0.3126915798
  0
LINE
  5
2C9
100
AcDbEntity
  8
0
100
AcDbLine
 62
7
  6
CONTINUOUS
 10
23.4705584505
 20
-0.3126915798
 11
23.4705584505
 21
0.3331443657
  0
LINE
  5
2CA
100
AcDbEntity
  8
0
100
AcDbLine
 62
7
  6
CONTINUOUS
 10
23.4705584505
 20
0.4331463628
 11
23.4705584505
 21
1.0789823082
  0
LINE
  5
2CB
100
AcDbEntity
  8
0
100
AcDbLine
 62
250
  6
CONTINUOUS
 10
24.1705584505
 20
0.4331453642
 11
24.1705584505
 21
0.3331453642
  0
LINE
  5
2CC
100
AcDbEntity
  8
0
100
AcDbLine
 62
250
  6
CONTINUOUS
 10
24.2705584505
 20
2.7448348761
 11
24.2705584505
 21
2.13964248
  0
LINE
  5
2CD
100
AcDbEntity
  8
0
100
AcDbLine
 62
250
  6
CONTINUOUS
 10
24.2705584505
 20
-1.3733517515
 11
24.2705584505
 21
-1.9785441477
  0
LINE
  5
2CE
100
AcDbEntity
  8
0
100
AcDbLine
 62
250
  6
CONTINUOUS
 10
24.2705584505
 20
-0.8783770047
 11
24.2705584505
 21
1.6446677331
  0
LINE
  5
2CF
100
AcDbEntity
  8
0
100
AcDbLine
 62
7
  6
CONTINUOUS
 10
24.9705584505
 20
2.6346172268
 11
24.9705584505
 21
2.13964248
  0
LINE
  5
2D0
100
AcDbEntity
  8
0
100
AcDbLine
 62
7
  6
CONTINUOUS
 10
24.9705584505
 20
-1.8683264984
 11
24.9705584505
 21
-1.3733517515
  0
LINE
  5
2D1
100
AcDbEntity
  8
RACCORDO
100
AcDbLine
 62
250
  6
CONTINUOUS
 10
25.4705584505
 20
-2.5894758347
 11
25.4705584505
 21
-2.2668546358
  0
LINE
  5
2D2
100
AcDbEntity
  8
RACCORDO
100
AcDbLine
 62
250
  6
CONTINUOUS
 10
25.4705584505
 20
3.3557665632
 11
25.4705584505
 21
3.0331453642
  0
LWPOLYLINE
  5
2D3
100
AcDbEntity
  8
RACCORDO
100
AcDbPolyline
 62
7
  6
CONTINUOUS
 90
7
 70
0
 10
9.175575475
 20
-7.0868376113
 10
9.1734147352
 20
-7.0888378127
 10
9.1692609696
 20
-7.0935345085
 10
9.1631141782
 20
-7.1005600864
 10
9.1547440518
 20
-7.1094941581
 10
9.1443808996
 20
-7.1200159985
 10
9.1198224967
 20
-7.1453269928
  0
LWPOLYLINE
  5
2D4
100
AcDbEntity
  8
RACCORDO
100
AcDbPolyline
 62
7
  6
CONTINUOUS
 90
6
 70
0
 10
10.000575475
 20
7.8531283397
 10
9.998334971
 20
7.8551688953
 10
9.9941081019
 20
7.8599523266
 10
9.9878948677
 20
7.8670813899
 10
9.9794544837
 20
7.8761029731
 10
9.9690277345
 20
7.8866763081
  0
LWPOLYLINE
  5
2D5
100
AcDbEntity
  8
RACCORDO
100
AcDbPolyline
 62
250
  6
CONTINUOUS
 90
36
 70
0
 10
16.0236044461
 20
11.6496403043
 10
16.1081135322
 20
11.5245801603
 10
16.1842910623
 20
11.4003829516
 10
16.251908548
 20
11.2774069723
 10
16.3111944778
 20
11.1552939756
 10
16.3636124585
 20
11.0355197711
 10
16.4091232609
 20
10.9184870681
 10
16.4477661142
 20
10.8037932454
 10
16.4811223129
 20
10.6917061424
 10
16.5093056184
 20
10.5825310504
 10
16.5322022694
 20
10.4759627631
 10
16.5510522752
 20
10.3713533659
 10
16.5660398355
 20
10.2688297193
 10
16.5769807508
 20
10.1682650214
 10
16.5845624323
 20
10.0686308416
 10
16.5889520706
 20
9.9698311848
 10
16.5899824753
 20
9.8719620747
 10
16.5878394852
 20
9.7742830874
 10
16.5825931049
 20
9.6765460193
 10
16.57417333
 20
9.5789990839
 10
16.5625559866
 20
9.481646475
 10
16.5477038791
 20
9.3842864339
 10
16.5296542033
 20
9.2871207294
 10
16.5084943728
 20
9.1907588525
 10
16.484154464
 20
9.0951648209
 10
16.4567044006
 20
9.0003746401
 10
16.4264413672
 20
8.907105796
 10
16.3933062045
 20
8.8153938425
 10
16.3573580718
 20
8.7252032611
 10
16.319071632
 20
8.6371449405
 10
16.278429815
 20
8.5513131945
 10
16.235449691
 20
8.4676137518
 10
16.1906571335
 20
8.3863746308
 10
16.1442274338
 20
8.3077051863
 10
16.0959853007
 20
8.231496106
 10
16.0459307341
 20
8.1577474095
  0
LWPOLYLINE
  5
2D6
100
AcDbEntity
  8
RACCORDO
100
AcDbPolyline
 62
250
  6
CONTINUOUS
 90
35
 70
0
 10
15.8562702332
 20
11.3554855276
 10
15.9246667335
 20
11.2435494722
 10
15.9854330751
 20
11.1326097769
 10
16.0390998487
 20
11.0230291692
 10
16.0861538443
 20
10.9151604386
 10
16.1269494736
 20
10.8096309547
 10
16.1620094567
 20
10.7066259227
 10
16.1919776101
 20
10.6057245282
 10
16.2171707965
 20
10.5073365707
 10
16.237983069
 20
10.4115605092
 10
16.2549572584
 20
10.3174022365
 10
16.2683107189
 20
10.2250548468
 10
16.2782720232
 20
10.1346294591
 10
16.285141909
 20
10.0449407541
 10
16.2890171183
 20
9.9559759287
 10
16.2899826812
 20
9.8679531134
 10
16.2881008352
 20
9.7800079914
 10
16.2833638514
 20
9.6920064494
 10
16.275784012
 20
9.6042671924
 10
16.2653378512
 20
9.5166056367
 10
16.2519849003
 20
9.4289352803
 10
16.2357373387
 20
9.3415355538
 10
16.2166547558
 20
9.2547696483
 10
16.194750458
 20
9.1686826711
 10
16.170062878
 20
9.0834121489
 10
16.1427592144
 20
8.999442083
 10
16.1129137891
 20
8.9168507983
 10
16.0805997668
 20
8.83570469
 10
16.0460604141
 20
8.7564385916
 10
16.0094331174
 20
8.6791510609
 10
15.9708068584
 20
8.6038297146
 10
15.9304069139
 20
8.5307104227
 10
15.8884012351
 20
8.4598783605
 10
15.8448789314
 20
8.3912792016
 10
15.7999628881
 20
8.324920935
  0
LINE
  5
2D7
100
AcDbEntity
  8
DRAFT
100
AcDbLine
 62
7
  6
CONTINUOUS
 10
28.1205584505
 20
-2.2668546358
 11
28.1205584505
 21
3.0331453642
  0
LINE
  5
2D8
100
AcDbEntity
  8
RACCORDO
100
AcDbLine
 62
250
  6
CONTINUOUS
 10
28.1414713221
 20
3.0540582358
 11
28.1414713221
 21
-2.2877675074
  0
LINE
  5
2D9
100
AcDbEntity
  8
RACCORDO
100
AcDbLine
 62
250
  6
CONTINUOUS
 10
28.4413960768
 20
3.3557665632
 11
28.4413960768
 21
-2.5894758347
  0
LWPOLYLINE
  5
2DA
100
AcDbEntity
  8
0
100
AcDbPolyline
 62
7
  6
CONTINUOUS
 90
3
 70
0
 43
0.3500000087
 10
37.6134149719
 20
34.918858902
 10
37.5419875488
 20
34.7045723694
 10
37.3991284393
 20
34.4188584137
  0
LINE
  5
2DB
100
AcDbEntity
  8
RACCORDO
100
AcDbLine
 62
7
  6
CONTINUOUS
 10
17.9455584505
 20
-4.8668546358
 11
17.9661182742
 21
-4.8462948121
  0
LINE
  5
2DC
100
AcDbEntity
  8
RACCORDO
100
AcDbLine
 62
7
  6
CONTINUOUS
 10
18.1920080572
 20
-4.6232991361
 11
18.2476378153
 21
-4.5675964844
  0
LINE
  5
2DD
100
AcDbEntity
  8
RACCORDO
100
AcDbLine
 62
7
  6
CONTINUOUS
 10
18.2476378153
 20
-4.5675964844
 11
18.2661258159
 21
-4.5492467056
  0
LINE
  5
2DE
100
AcDbEntity
  8
RACCORDO
100
AcDbLine
 62
7
  6
CONTINUOUS
 10
18.0845430009
 20
-4.7302497772
 11
18.1920080572
 21
-4.6232991361
  0
LINE
  5
2DF
100
AcDbEntity
  8
RACCORDO
100
AcDbLine
 62
7
  6
CONTINUOUS
 10
18.0680759709
 20
-4.7464872538
 11
18.0845430009
 21
-4.7302497772
  0
LWPOLYLINE
  5
2E0
100
AcDbEntity
  8
RACCORDO
100
AcDbPolyline
 62
7
  6
CONTINUOUS
 90
3
 70
0
 10
18.0233294409
 20
-4.7907027919
 10
18.0374691909
 20
-4.7768742387
 10
18.0680759709
 20
-4.7464872538
  0
LINE
  5
2E1
100
AcDbEntity
  8
0
100
AcDbLine
 62
7
  6
CONTINUOUS
 10
23.4705584505
 20
1.573957055
 11
24.9705584505
 21
2.6346172268
  0
LINE
  5
2E2
100
AcDbEntity
  8
0
100
AcDbLine
 62
7
  6
CONTINUOUS
 10
24.9705584505
 20
2.13964248
 11
23.4705584505
 21
1.0789823082
  0
LWPOLYLINE
  5
2E3
100
AcDbEntity
  8
SUPERFICI
100
AcDbPolyline
 62
7
  6
CONTINUOUS
 90
10
 70
0
 10
54.7430157808
 20
23.7165050217
 10
54.7982333753
 20
23.7506639514
 10
54.8553385518
 20
23.7810142062
 10
54.9143313102
 20
23.8075557862
 10
54.9756644694
 20
23.8304249035
 10
55.0388852105
 20
23.8494853461
 10
55.102635077
 20
23.864328477
 10
55.16646125
 20
23.8748180843
 10
55.2308165485
 20
23.88109038
 10
55.2957009724
 20
23.8831453642
  0
LWPOLYLINE
  5
2E4
100
AcDbEntity
  8
RACCORDO
100
AcDbPolyline
 62
250
  6
CONTINUOUS
 90
19
 70
0
 10
55.045816861
 20
-7.0868376113
 10
55.0095888301
 20
-7.0890564074
 10
54.9738916498
 20
-7.0956379331
 10
54.9392483924
 20
-7.1064857491
 10
54.9061666868
 20
-7.1214409019
 10
54.8751312803
 20
-7.1402842531
 10
54.8465969361
 20
-7.1627396903
 10
54.8209817688
 20
-7.1884781733
 10
54.7986611186
 20
-7.217122555
 10
54.7799620507
 20
-7.2482531082
 10
54.7651585633
 20
-7.2814136758
 10
54.7544675724
 20
-7.3161183548
 10
54.7480457336
 20
-7.3518586162
 10
54.7459871462
 20
-7.3881107566
 10
54.7483219748
 20
-7.424343572
 10
54.7550160071
 20
-7.4600261416
 10
54.7659711553
 20
-7.4946356075
 10
54.781026893
 20
-7.5276648357
 10
54.799962608
 20
-7.5586298479
  0
LINE
  5
2E5
100
AcDbEntity
  8
RACCORDO
100
AcDbLine
 62
7
  6
CONTINUOUS
 10
55.2231335973
 20
-8.6168546358
 11
49.9179833037
 21
-8.6168546358
  0
LINE
  5
2E6
100
AcDbEntity
  8
RACCORDO
100
AcDbLine
 62
7
  6
CONTINUOUS
 10
16.2231335973
 20
-8.6168546358
 11
10.9179833037
 21
-8.6168546358
  0
LWPOLYLINE
  5
2E7
100
AcDbEntity
  8
RACCORDO
100
AcDbPolyline
 62
7
  6
CONTINUOUS
 90
22
 70
0
 10
11.133948935
 20
-7.0668546358
 10
11.1655808647
 20
-7.0686207871
 10
11.1962144946
 20
-7.0734244012
 10
11.2258498245
 20
-7.0812654781
 10
11.2547475625
 20
-7.0922556739
 10
11.2826470005
 20
-7.1062833325
 10
11.3087660151
 20
-7.1230134851
 10
11.3331128848
 20
-7.1425355806
 10
11.355679331
 20
-7.1647601701
 10
11.3756583942
 20
-7.1890839385
 10
11.3929899663
 20
-7.2157037318
 10
11.4077341554
 20
-7.244422704
 10
11.4192643264
 20
-7.2740470025
 10
11.4273788316
 20
-7.3045393559
 10
11.4322793188
 20
-7.3359370355
 10
11.4339440958
 20
-7.3671580026
 10
11.4323053013
 20
-7.398094142
 10
11.4274307968
 20
-7.428853569
 10
11.4195024738
 20
-7.4586785901
 10
11.408580963
 20
-7.4873166408
 10
11.3946056339
 20
-7.5150202856
 10
11.3775764864
 20
-7.5417895245
  0
LWPOLYLINE
  5
2E8
100
AcDbEntity
  8
SUPERFICI
100
AcDbPolyline
 62
7
  6
CONTINUOUS
 90
10
 70
0
 10
54.7430157808
 20
-22.9502142933
 10
54.7982333753
 20
-22.9843732229
 10
54.8553385518
 20
-23.0147234778
 10
54.9143313102
 20
-23.0412650577
 10
54.9756644694
 20
-23.0641341751
 10
55.0388852105
 20
-23.0831946176
 10
55.102635077
 20
-23.0980377486
 10
55.16646125
 20
-23.1085273559
 10
55.2308165485
 20
-23.1147996516
 10
55.2957009724
 20
-23.1168546358
  0
LINE
  5
2E9
100
AcDbEntity
  8
0
100
AcDbLine
 62
7
  6
CONTINUOUS
 10
24.9705584505
 20
-1.8683264984
 11
23.4705584505
 21
-0.8076663266
  0
LINE
  5
2EA
100
AcDbEntity
  8
0
100
AcDbLine
 62
7
  6
CONTINUOUS
 10
23.4705584505
 20
-0.3126915798
 11
24.9705584505
 21
-1.3733517515
  0
LWPOLYLINE
  5
2EB
100
AcDbEntity
  8
RACCORDO
100
AcDbPolyline
 62
7
  6
CONTINUOUS
 90
3
 70
0
 10
17.1734279158
 20
5.5816543419
 10
17.1980928478
 20
5.5572317268
 10
17.2122771787
 20
5.5433579806
  0
LINE
  5
2EC
100
AcDbEntity
  8
RACCORDO
100
AcDbLine
 62
7
  6
CONTINUOUS
 10
17.2122771787
 20
5.5433579806
 11
17.3121611216
 21
5.4442441484
  0
LINE
  5
2ED
100
AcDbEntity
  8
RACCORDO
100
AcDbLine
 62
7
  6
CONTINUOUS
 10
17.1411182742
 20
5.6125855405
 11
17.1205584505
 21
5.6331453642
  0
LINE
  5
2EE
100
AcDbEntity
  8
RACCORDO
100
AcDbLine
 62
7
  6
CONTINUOUS
 10
17.3121611216
 20
5.4442441484
 11
17.4411258159
 21
5.3155374341
  0
LINE
  5
2EF
100
AcDbEntity
  8
RACCORDO
100
AcDbLine
 62
7
  6
CONTINUOUS
 10
28.1205584505
 20
3.0331453642
 11
28.1414713221
 21
3.0540582358
  0
LINE
  5
2F0
100
AcDbEntity
  8
RACCORDO
100
AcDbLine
 62
7
  6
CONTINUOUS
 10
28.2426589774
 20
3.156594839
 11
28.4229866647
 21
3.3374827704
  0
LWPOLYLINE
  5
2F1
100
AcDbEntity
  8
RACCORDO
100
AcDbPolyline
 62
7
  6
CONTINUOUS
 90
3
 70
0
 10
28.1977260468
 20
3.1113976757
 10
28.211901045
 20
3.1255480443
 10
28.2426589774
 20
3.156594839
  0
LINE
  5
2F2
100
AcDbEntity
  8
RACCORDO
100
AcDbLine
 62
7
  6
CONTINUOUS
 10
28.4229866647
 20
3.3374827704
 11
28.4413960768
 21
3.3557665632
  0
LWPOLYLINE
  5
2F3
100
AcDbEntity
  8
RACCORDO
100
AcDbPolyline
 62
7
  6
CONTINUOUS
 90
7
 70
0
 10
28.1414417682
 20
3.0540286819
 10
28.1437375731
 20
3.0559554521
 10
28.14800745
 20
3.0604882883
 10
28.154251399
 20
3.0673055743
 10
28.1627019008
 20
3.0760484853
 10
28.1731264746
 20
3.0864226581
 10
28.1977260468
 20
3.1113976757
  0
LWPOLYLINE
  5
2F4
100
AcDbEntity
  8
RACCORDO
100
AcDbPolyline
 62
7
  6
CONTINUOUS
 90
7
 70
0
 10
17.9661715074
 20
-4.8462415789
 10
17.9686948529
 20
-4.844433425
 10
17.9731590732
 20
-4.8401654851
 10
17.9795641682
 20
-4.833686324
 10
17.9881454259
 20
-4.8252561092
 10
17.9986675584
 20
-4.8151255471
 10
18.0233294409
 20
-4.7907027919
  0
LWPOLYLINE
  5
2F5
100
AcDbEntity
  8
RACCORDO
100
AcDbPolyline
 62
250
  6
CONTINUOUS
 90
19
 70
0
 10
16.045816861
 20
-7.0868376113
 10
16.0095888301
 20
-7.0890564074
 10
15.9738916498
 20
-7.0956379331
 10
15.9392483924
 20
-7.1064857491
 10
15.9061666868
 20
-7.1214409019
 10
15.8751312803
 20
-7.1402842531
 10
15.8465969361
 20
-7.1627396903
 10
15.8209817688
 20
-7.1884781733
 10
15.7986611186
 20
-7.217122555
 10
15.7799620507
 20
-7.2482531082
 10
15.7651585633
 20
-7.2814136758
 10
15.7544675724
 20
-7.3161183548
 10
15.7480457336
 20
-7.3518586162
 10
15.7459871462
 20
-7.3881107566
 10
15.7483219748
 20
-7.424343572
 10
15.7550160071
 20
-7.4600261416
 10
15.7659711553
 20
-7.4946356075
 10
15.781026893
 20
-7.5276648357
 10
15.799962608
 20
-7.5586298479
  0
LINE
  5
2F6
100
AcDbEntity
  8
RACCORDO
100
AcDbLine
 62
250
  6
CONTINUOUS
 10
57.2654957346
 20
-7.3914566811
 11
55.0457276437
 21
-7.3914567147
  0
LINE
  5
2F7
100
AcDbEntity
  8
RACCORDO
100
AcDbLine
 62
250
  6
CONTINUOUS
 10
11.0951861444
 20
-7.3914567167
 11
8.8756211665
 21
-7.3914566811
  0
LINE
  5
2F8
100
AcDbEntity
  8
RACCORDO
100
AcDbLine
 62
250
  6
CONTINUOUS
 10
50.0951861669
 20
-7.3914566811
 11
47.8756211665
 21
-7.3914566811
  0
LINE
  5
2F9
100
AcDbEntity
  8
RACCORDO
100
AcDbLine
 62
250
  6
CONTINUOUS
 10
18.2654957346
 20
-7.3914566811
 11
16.0457276225
 21
-7.3914566811
  0
LINE
  5
2FA
100
AcDbEntity
  8
RACCORDO
100
AcDbLine
 62
250
  6
CONTINUOUS
 10
56.965541426
 20
-7.0868376113
 11
55.0458163859
 21
-7.0868376113
  0
LINE
  5
2FB
100
AcDbEntity
  8
RACCORDO
100
AcDbLine
 62
250
  6
CONTINUOUS
 10
50.0953005149
 20
-7.0868376113
 11
48.175575475
 21
-7.0868376113
  0
LINE
  5
2FC
100
AcDbEntity
  8
RACCORDO
100
AcDbLine
 62
250
  6
CONTINUOUS
 10
17.965541426
 20
-7.0868376113
 11
16.0458163859
 21
-7.0868376113
  0
LINE
  5
2FD
100
AcDbEntity
  8
RACCORDO
100
AcDbLine
 62
250
  6
CONTINUOUS
 10
11.0953005149
 20
-7.0868376113
 11
9.175575475
 21
-7.0868376113
  0
LINE
  5
2FE
100
AcDbEntity
  8
RACCORDO
100
AcDbLine
 62
7
  6
CONTINUOUS
 10
9.1955584505
 20
-7.0668546358
 11
11.133948935
 21
-7.0668546358
  0
LINE
  5
2FF
100
AcDbEntity
  8
RACCORDO
100
AcDbLine
 62
7
  6
CONTINUOUS
 10
16.0071679661
 20
-7.0668546358
 11
17.9455584505
 21
-7.0668546358
  0
LINE
  5
300
100
AcDbEntity
  8
RACCORDO
100
AcDbLine
 62
7
  6
CONTINUOUS
 10
48.1955584505
 20
-7.0668546358
 11
50.133948935
 21
-7.0668546358
  0
LINE
  5
301
100
AcDbEntity
  8
RACCORDO
100
AcDbLine
 62
7
  6
CONTINUOUS
 10
55.0071679661
 20
-7.0668546358
 11
56.9455584505
 21
-7.0668546358
  0
LINE
  5
302
100
AcDbEntity
  8
DRAFT
100
AcDbLine
 62
7
  6
CONTINUOUS
 10
56.9455584505
 20
-4.8668546358
 11
48.1955584505
 21
-4.8668546358
  0
LINE
  5
303
100
AcDbEntity
  8
DRAFT
100
AcDbLine
 62
7
  6
CONTINUOUS
 10
17.9455584505
 20
-4.8668546358
 11
9.1955584505
 21
-4.8668546358
  0
LINE
  5
304
100
AcDbEntity
  8
RACCORDO
100
AcDbLine
 62
250
  6
CONTINUOUS
 10
9.1749453937
 20
-4.8462415789
 11
17.9661715074
 21
-4.8462415789
  0
LINE
  5
305
100
AcDbEntity
  8
RACCORDO
100
AcDbLine
 62
250
  6
CONTINUOUS
 10
48.1749453937
 20
-4.8462415789
 11
56.9661715074
 21
-4.8462415789
  0
LWPOLYLINE
  5
306
100
AcDbEntity
  8
RACCORDO
100
AcDbPolyline
 62
7
  6
CONTINUOUS
 90
22
 70
0
 10
50.133948935
 20
-7.0668546358
 10
50.1655808647
 20
-7.0686207871
 10
50.1962144946
 20
-7.0734244012
 10
50.2258498245
 20
-7.0812654781
 10
50.2547475625
 20
-7.0922556739
 10
50.2826470005
 20
-7.1062833325
 10
50.3087660151
 20
-7.1230134851
 10
50.3331128848
 20
-7.1425355806
 10
50.355679331
 20
-7.1647601701
 10
50.3756583942
 20
-7.1890839385
 10
50.3929899663
 20
-7.2157037318
 10
50.4077341554
 20
-7.244422704
 10
50.4192643264
 20
-7.2740470025
 10
50.4273788316
 20
-7.3045393559
 10
50.4322793188
 20
-7.3359370355
 10
50.4339440958
 20
-7.3671580026
 10
50.4323053013
 20
-7.398094142
 10
50.4274307968
 20
-7.428853569
 10
50.4195024738
 20
-7.4586785901
 10
50.408580963
 20
-7.4873166408
 10
50.3946056339
 20
-7.5150202856
 10
50.3775764864
 20
-7.5417895245
  0
LWPOLYLINE
  5
307
100
AcDbEntity
  8
RACCORDO
100
AcDbPolyline
 62
250
  6
CONTINUOUS
 90
9
 70
0
 10
16.045816861
 20
8.1577474095
 10
16.020917272
 20
8.1757250689
 10
15.9958370938
 20
8.1930554122
 10
15.9710508369
 20
8.2097451026
 10
15.9473629197
 20
8.2261251483
 10
15.9249289737
 20
8.2419245844
 10
15.9033620711
 20
8.2563797012
 10
15.883508155
 20
8.2699903927
 10
15.8657061172
 20
8.2826739931
  0
LWPOLYLINE
  5
308
100
AcDbEntity
  8
RACCORDO
100
AcDbPolyline
 62
7
  6
CONTINUOUS
 90
6
 70
0
 10
17.1411715074
 20
5.6125323074
 10
17.1436391781
 20
5.6107495948
 10
17.148052946
 20
5.6065364691
 10
17.154412811
 20
5.6001234238
 10
17.1629473148
 20
5.5917502515
 10
17.1734279158
 20
5.5816543419
  0
LWPOLYLINE
  5
309
100
AcDbEntity
  8
RACCORDO
100
AcDbPolyline
 62
7
  6
CONTINUOUS
 90
6
 70
0
 10
28.1414417682
 20
-2.2877379535
 10
28.1437676289
 20
-2.2896793578
 10
28.148064931
 20
-2.2942436756
 10
28.1543336746
 20
-2.3010986731
 10
28.1628101683
 20
-2.3098737104
 10
28.1732581036
 20
-2.3202670134
  0
LINE
  5
30A
100
AcDbEntity
  8
RACCORDO
100
AcDbLine
 62
7
  6
CONTINUOUS
 10
28.4228902965
 20
-2.5710954873
 11
28.4413960768
 21
-2.5894758347
  0
LINE
  5
30B
100
AcDbEntity
  8
RACCORDO
100
AcDbLine
 62
7
  6
CONTINUOUS
 10
28.1414713221
 20
-2.2877675074
 11
28.1205584505
 21
-2.2668546358
  0
LINE
  5
30C
100
AcDbEntity
  8
RACCORDO
100
AcDbLine
 62
7
  6
CONTINUOUS
 10
28.2426864194
 20
-2.3903322801
 11
28.4228902965
 21
-2.5710954873
  0
LINE
  5
30D
100
AcDbEntity
  8
RACCORDO
100
AcDbLine
 62
7
  6
CONTINUOUS
 10
28.2120071492
 20
-2.3593660523
 11
28.2426864194
 21
-2.3903322801
  0
LWPOLYLINE
  5
30E
100
AcDbEntity
  8
RACCORDO
100
AcDbPolyline
 62
7
  6
CONTINUOUS
 90
3
 70
0
 10
28.1732581036
 20
-2.3202670134
 10
28.197856594
 20
-2.3452413861
 10
28.2120071492
 20
-2.3593660523
  0
LINE
  5
30F
100
AcDbEntity
  8
0
100
AcDbLine
 62
7
  6
CONTINUOUS
 10
17.2705584505
 20
-22.0168546358
 11
17.2039256529
 21
-22.1168546358
  0
LWPOLYLINE
  5
310
100
AcDbEntity
  8
RACCORDO
100
AcDbPolyline
 62
250
  6
CONTINUOUS
 90
10
 70
0
 10
15.8346815172
 20
-7.5362752583
 10
15.8657069105
 20
-7.5163844307
 10
15.8835089424
 20
-7.5037008269
 10
15.9033628277
 20
-7.4900900917
 10
15.9249296736
 20
-7.4756348929
 10
15.9473635292
 20
-7.4598353272
 10
15.97105133
 20
-7.4434551102
 10
15.9958374475
 20
-7.4267652108
 10
16.0209174609
 20
-7.4094346208
 10
16.045816861
 20
-7.3914566811
  0
LINE
  5
311
100
AcDbEntity
  8
RACCORDO
100
AcDbLine
 62
250
  6
CONTINUOUS
 10
11.133948935
 20
-7.0668546358
 11
11.0953005149
 21
-7.0868376113
  0
LINE
  5
312
100
AcDbEntity
  8
RACCORDO
100
AcDbLine
 62
250
  6
CONTINUOUS
 10
11.3775764864
 20
-7.5417895245
 11
11.341154599
 21
-7.5586293676
  0
LINE
  5
313
100
AcDbEntity
  8
RACCORDO
100
AcDbLine
 62
250
  6
CONTINUOUS
 10
8.8749910851
 20
-4.5492467056
 11
18.2661258159
 21
-4.5492467056
  0
LINE
  5
314
100
AcDbEntity
  8
RACCORDO
100
AcDbLine
 62
250
  6
CONTINUOUS
 10
47.8749910851
 20
-4.5492467056
 11
57.2661258159
 21
-4.5492467056
  0
LINE
  5
315
100
AcDbEntity
  8
RACCORDO
100
AcDbLine
 62
250
  6
CONTINUOUS
 10
67.4413960768
 20
-2.5894758347
 11
64.4705584505
 21
-2.5894758347
  0
LINE
  5
316
100
AcDbEntity
  8
RACCORDO
100
AcDbLine
 62
250
  6
CONTINUOUS
 10
28.4413960768
 20
-2.5894758347
 11
25.4705584505
 21
-2.5894758347
  0
LINE
  5
317
100
AcDbEntity
  8
RACCORDO
100
AcDbLine
 62
250
  6
CONTINUOUS
 10
67.1414417682
 20
-2.2877379535
 11
64.4705608286
 21
-2.2877379535
  0
LINE
  5
318
100
AcDbEntity
  8
RACCORDO
100
AcDbLine
 62
250
  6
CONTINUOUS
 10
28.1414417682
 20
-2.2877379535
 11
25.4705608286
 21
-2.2877379535
  0
LINE
  5
319
100
AcDbEntity
  8
DRAFT
100
AcDbLine
 62
7
  6
CONTINUOUS
 10
25.4705584505
 20
-2.2668546358
 11
28.1205584505
 21
-2.2668546358
  0
LINE
  5
31A
100
AcDbEntity
  8
DRAFT
100
AcDbLine
 62
7
  6
CONTINUOUS
 10
64.4705584505
 20
-2.2668546358
 11
67.1205584505
 21
-2.2668546358
  0
LWPOLYLINE
  5
31B
100
AcDbEntity
  8
RACCORDO
100
AcDbPolyline
 62
250
  6
CONTINUOUS
 90
88
 70
0
 10
25.4705584505
 20
-2.5894758347
 10
25.3863273545
 20
-2.5884190934
 10
25.3013292907
 20
-2.5847626979
 10
25.2155642591
 20
-2.578506648
 10
25.1288659696
 20
-2.5697066672
 10
25.0414007124
 20
-2.5583070306
 10
24.9536673578
 20
-2.5441405646
 10
24.8656677133
 20
-2.5271741231
 10
24.7773999714
 20
-2.5074408491
 10
24.6893575802
 20
-2.4848730024
 10
24.6015400429
 20
-2.4594353296
 10
24.5139478563
 20
-2.4311630793
 10
24.4270759589
 20
-2.4000942645
 10
24.3409324661
 20
-2.3661943601
 10
24.2555092627
 20
-2.3294978853
 10
24.1712769412
 20
-2.2901464189
 10
24.0882481829
 20
-2.2481060252
 10
24.0064103067
 20
-2.2034106335
 10
23.9261958615
 20
-2.156303621
 10
23.8476737827
 20
-2.1067984703
 10
23.770775135
 20
-2.0548816927
 10
23.6957256618
 20
-2.0007562089
 10
23.6227242043
 20
-1.9446200578
 10
23.5515719214
 20
-1.8862751951
 10
23.4818980328
 20
-1.8253304168
 10
23.413794789
 20
-1.7620673933
 10
23.3471699395
 20
-1.6962044478
 10
23.2813759531
 20
-1.6265053528
 10
23.2162141413
 20
-1.5530766734
 10
23.1518831926
 20
-1.4758118342
 10
23.088331641
 20
-1.3931548921
 10
23.025268708
 20
-1.3051259586
 10
22.962985172
 20
-1.2117049076
 10
22.9023019026
 20
-1.1112754341
 10
22.8428417775
 20
-1.0036531244
 10
22.784981919
 20
-0.8890223751
 10
22.7306745635
 20
-0.7663200931
 10
22.679607412
 20
-0.6352187454
 10
22.6320927635
 20
-0.496045853
 10
22.5910197517
 20
-0.3487209056
 10
22.556333395
 20
-0.191742575
 10
22.528088675
 20
-0.0266121947
 10
22.5093396697
 20
0.1422467427
 10
22.501181636
 20
0.3161111359
 10
22.5025193169
 20
0.49370405
 10
22.51312102
 20
0.6667712346
 10
22.5339938891
 20
0.8338736296
 10
22.5641307804
 20
0.9964502614
 10
22.6002785706
 20
1.1505640182
 10
22.6422675798
 20
1.294724701
 10
22.6902674879
 20
1.4304225065
 10
22.7415342112
 20
1.5581909248
 10
22.7957496876
 20
1.6778177586
 10
22.8532319791
 20
1.7895152177
 10
22.9121911882
 20
1.8944534029
 10
22.9722531357
 20
1.9924726673
 10
23.0337920006
 20
2.0837326743
 10
23.0961404225
 20
2.1698824863
 10
23.1590310497
 20
2.2509702286
 10
23.2227312338
 20
2.3269477893
 10
23.2873756691
 20
2.3993198704
 10
23.3527860465
 20
2.4682030405
 10
23.4191406752
 20
2.5334807404
 10
23.4871091766
 20
2.5963079756
 10
23.556826132
 20
2.6569835768
 10
23.62815696
 20
2.7152087193
 10
23.7013675386
 20
2.7712419232
 10
23.7766448197
 20
2.8252522471
 10
23.8538018512
 20
2.8770706378
 10
23.932543655
 20
2.9264484486
 10
24.012916442
 20
2.9733795745
 10
24.0948740013
 20
3.0178701267
 10
24.177982722
 20
3.0596897842
 10
24.262260982
 20
3.098806772
 10
24.3476904035
 20
3.1352528715
 10
24.4337822422
 20
3.1688930965
 10
24.5205443586
 20
3.1996910602
 10
24.6079688921
 20
3.2276831552
 10
24.6955435168
 20
3.2528435646
 10
24.7832669173
 20
3.2751354025
 10
24.871140409
 20
3.2945955594
 10
24.9586556113
 20
3.3113088821
 10
25.0458151949
 20
3.3252410056
 10
25.1326164892
 20
3.3364262977
 10
25.2185431012
 20
3.3450527044
 10
25.3034228999
 20
3.3511828747
 10
25.3874280164
 20
3.3547541608
 10
25.4705584505
 20
3.3557665632
  0
LWPOLYLINE
  5
31C
100
AcDbEntity
  8
RACCORDO
100
AcDbPolyline
 62
250
  6
CONTINUOUS
 90
88
 70
0
 10
64.4705584505
 20
-2.5894758347
 10
64.3863273545
 20
-2.5884190934
 10
64.3013292907
 20
-2.5847626979
 10
64.2155642591
 20
-2.578506648
 10
64.1288659696
 20
-2.5697066672
 10
64.0414007124
 20
-2.5583070306
 10
63.9536673578
 20
-2.5441405646
 10
63.8656677133
 20
-2.5271741231
 10
63.7773999714
 20
-2.5074408491
 10
63.6893575802
 20
-2.4848730024
 10
63.6015400429
 20
-2.4594353296
 10
63.5139478563
 20
-2.4311630793
 10
63.4270759589
 20
-2.4000942645
 10
63.3409324661
 20
-2.3661943601
 10
63.2555092627
 20
-2.3294978853
 10
63.1712769412
 20
-2.2901464189
 10
63.0882481829
 20
-2.2481060252
 10
63.0064103067
 20
-2.2034106335
 10
62.9261958615
 20
-2.156303621
 10
62.8476737827
 20
-2.1067984703
 10
62.770775135
 20
-2.0548816927
 10
62.6957256618
 20
-2.0007562089
 10
62.6227242043
 20
-1.9446200578
 10
62.5515719214
 20
-1.8862751951
 10
62.4818980328
 20
-1.8253304168
 10
62.413794789
 20
-1.7620673933
 10
62.3471699395
 20
-1.6962044478
 10
62.2813759531
 20
-1.6265053528
 10
62.2162141413
 20
-1.5530766734
 10
62.1518831926
 20
-1.4758118342
 10
62.088331641
 20
-1.3931548921
 10
62.025268708
 20
-1.3051259586
 10
61.962985172
 20
-1.2117049076
 10
61.9023019026
 20
-1.1112754341
 10
61.8428417775
 20
-1.0036531244
 10
61.784981919
 20
-0.8890223751
 10
61.7306745635
 20
-0.7663200931
 10
61.679607412
 20
-0.6352187454
 10
61.6320927635
 20
-0.496045853
 10
61.5910197517
 20
-0.3487209056
 10
61.556333395
 20
-0.191742575
 10
61.528088675
 20
-0.0266121947
 10
61.5093396697
 20
0.1422467427
 10
61.501181636
 20
0.3161111359
 10
61.5025193169
 20
0.49370405
 10
61.51312102
 20
0.6667712346
 10
61.5339938891
 20
0.8338736296
 10
61.5641307804
 20
0.9964502614
 10
61.6002785706
 20
1.1505640182
 10
61.6422675798
 20
1.294724701
 10
61.6902674879
 20
1.4304225065
 10
61.7415342112
 20
1.5581909248
 10
61.7957496876
 20
1.6778177586
 10
61.8532319791
 20
1.7895152177
 10
61.9121911882
 20
1.8944534029
 10
61.9722531357
 20
1.9924726673
 10
62.0337920006
 20
2.0837326743
 10
62.0961404225
 20
2.1698824863
 10
62.1590310497
 20
2.2509702286
 10
62.2227312338
 20
2.3269477893
 10
62.2873756691
 20
2.3993198704
 10
62.3527860465
 20
2.4682030405
 10
62.4191406752
 20
2.5334807404
 10
62.4871091766
 20
2.5963079756
 10
62.556826132
 20
2.6569835768
 10
62.62815696
 20
2.7152087193
 10
62.7013675386
 20
2.7712419232
 10
62.7766448197
 20
2.8252522471
 10
62.8538018512
 20
2.8770706378
 10
62.932543655
 20
2.9264484486
 10
63.012916442
 20
2.9733795745
 10
63.0948740013
 20
3.0178701267
 10
63.177982722
 20
3.0596897842
 10
63.262260982
 20
3.098806772
 10
63.3476904035
 20
3.1352528715
 10
63.4337822422
 20
3.1688930965
 10
63.5205443586
 20
3.1996910602
 10
63.6079688921
 20
3.2276831552
 10
63.6955435168
 20
3.2528435646
 10
63.7832669173
 20
3.2751354025
 10
63.871140409
 20
3.2945955594
 10
63.9586556113
 20
3.3113088821
 10
64.0458151949
 20
3.3252410056
 10
64.1326164892
 20
3.3364262977
 10
64.2185431012
 20
3.3450527044
 10
64.3034228999
 20
3.3511828747
 10
64.3874280164
 20
3.3547541608
 10
64.4705584505
 20
3.3557665632
  0
LWPOLYLINE
  5
31D
100
AcDbEntity
  8
RACCORDO
100
AcDbPolyline
 62
250
  6
CONTINUOUS
 90
88
 70
0
 10
25.4705608286
 20
-2.2877379535
 10
25.3948990313
 20
-2.2866662306
 10
25.3184214826
 20
-2.2834019665
 10
25.2411942078
 20
-2.2778724511
 10
25.1632195206
 20
-2.2699983193
 10
25.084640676
 20
-2.2597133852
 10
25.0057392796
 20
-2.2469850075
 10
24.9265985009
 20
-2.2317656163
 10
24.8472989115
 20
-2.2140088669
 10
24.7681168604
 20
-2.1937229793
 10
24.6891365554
 20
-2.1708843929
 10
24.6104458116
 20
-2.1454727093
 10
24.5323198493
 20
-2.1175400671
 10
24.4548433932
 20
-2.0870893791
 10
24.3781004852
 20
-2.0541258712
 10
24.302353356
 20
-2.018743906
 10
24.2276778183
 20
-1.9809704762
 10
24.1541522069
 20
-1.9408366385
 10
24.0820251168
 20
-1.8984802424
 10
24.01141031
 20
-1.8539845186
 10
23.9423199374
 20
-1.8073738302
 10
23.8748367653
 20
-1.7587192196
 10
23.809215231
 20
-1.7082357426
 10
23.7453034938
 20
-1.6558388457
 10
23.6826131313
 20
-1.6011021503
 10
23.6214182246
 20
-1.5442084579
 10
23.5616277369
 20
-1.4850146588
 10
23.5023478455
 20
-1.4224603039
 10
23.4437786299
 20
-1.3564682058
 10
23.386141355
 20
-1.2869817716
 10
23.328799682
 20
-1.2127921402
 10
23.2720821755
 20
-1.1337190383
 10
23.2164098719
 20
-1.0496904737
 10
23.1615530392
 20
-0.9595113552
 10
23.1079985539
 20
-0.8628773585
 10
23.0564469118
 20
-0.7598139969
 10
23.0072542496
 20
-0.6495455188
 10
22.9611441253
 20
-0.531832302
 10
22.9190214375
 20
-0.4068092464
 10
22.8817044525
 20
-0.2742937831
 10
22.8499337168
 20
-0.1333194893
 10
22.8250363827
 20
0.014854145
 10
22.8082929018
 20
0.1668633769
 10
22.8001931835
 20
0.3232327633
 10
22.8013692358
 20
0.4824850177
 10
22.8117176035
 20
0.6380943811
 10
22.8304605886
 20
0.788491473
 10
22.8570207168
 20
0.9343496901
 10
22.8900724548
 20
1.0726947053
 10
22.9282489897
 20
1.20230751
 10
22.9708042755
 20
1.3241915351
 10
23.017048074
 20
1.4388912255
 10
23.0661450114
 20
1.546365565
 10
23.1173735417
 20
1.6467820139
 10
23.1704591277
 20
1.741000815
 10
23.2247409603
 20
1.8290028318
 10
23.2797618959
 20
1.9110793011
 10
23.3358261236
 20
1.9884682495
 10
23.3925582421
 20
2.0612488537
 10
23.4496441157
 20
2.1295686589
 10
23.5077446831
 20
2.1946156182
 10
23.5666688509
 20
2.2564420602
 10
23.6262273156
 20
2.3151010944
 10
23.6873005675
 20
2.3716060891
 10
23.7500197487
 20
2.42611036
 10
23.8140966274
 20
2.4783944154
 10
23.8799107295
 20
2.5287803643
 10
23.9475950807
 20
2.5773349668
 10
24.0169164858
 20
2.6238565453
 10
24.0877303105
 20
2.6682328326
 10
24.1599992716
 20
2.7104293205
 10
24.233629669
 20
2.750380346
 10
24.3083755112
 20
2.7879539648
 10
24.3841628359
 20
2.8231245701
 10
24.4609090979
 20
2.8558652297
 10
24.5383381015
 20
2.8860802856
 10
24.6163646574
 20
2.9137687865
 10
24.6949030743
 20
2.9389321082
 10
24.7736640472
 20
2.9615192592
 10
24.8525590032
 20
2.981556125
 10
24.9315035162
 20
2.9990717832
 10
25.0102079147
 20
3.0140614672
 10
25.0885926155
 20
3.0265781035
 10
25.1665741988
 20
3.0366754588
 10
25.2438560837
 20
3.0443912503
 10
25.3202908876
 20
3.0497986809
 10
25.3958831424
 20
3.0529846614
 10
25.4705687387
 20
3.0540286818
  0
LINE
  5
31E
100
AcDbEntity
  8
RACCORDO
100
AcDbLine
 62
250
  6
CONTINUOUS
 10
11.3775764864
 20
8.3080802529
 11
11.3411546586
 21
8.324920068
  0
LINE
  5
31F
100
AcDbEntity
  8
RACCORDO
100
AcDbLine
 62
250
  6
CONTINUOUS
 10
11.133948935
 20
7.8331453642
 11
11.0953005151
 21
7.8531283397
  0
LWPOLYLINE
  5
320
100
AcDbEntity
  8
RACCORDO
100
AcDbPolyline
 62
250
  6
CONTINUOUS
 90
7
 70
0
 10
15.8657061172
 20
8.2826739931
 10
15.834680828
 20
8.3025649695
 10
15.8230913953
 20
8.3109340266
 10
15.8135682541
 20
8.3168283093
 10
15.80598139
 20
8.3203245612
 10
15.8012170581
 20
8.3227957618
 10
15.799962608
 20
8.3249205763
  0
LINE
  5
321
100
AcDbEntity
  8
0
100
AcDbLine
 62
7
  6
CONTINUOUS
 10
17.2039256529
 20
22.8831453642
 11
17.2705584505
 21
22.7831453642
  0
LWPOLYLINE
  5
322
100
AcDbEntity
  8
0
100
AcDbPolyline
 62
7
  6
CONTINUOUS
 90
4
 70
0
 43
0.3500000087
 10
34.5419867508
 20
36.9902882782
 10
34.5419867508
 20
37.6331436127
 10
36.041986084
 20
37.6331436127
 10
35.1848442169
 20
34.6331449463
  0
LINE
  5
323
100
AcDbEntity
  8
0
100
AcDbLine
 62
7
  6
CONTINUOUS
 10
28.1205584505
 20
-1.8683264984
 11
24.9705584505
 21
-1.8683264984
  0
LINE
  5
324
100
AcDbEntity
  8
0
100
AcDbLine
 62
7
  6
CONTINUOUS
 10
64.0705584505
 20
-1.8683264984
 11
67.1205584505
 21
-1.8683264984
  0
LINE
  5
325
100
AcDbEntity
  8
0
100
AcDbLine
 62
7
  6
CONTINUOUS
 10
28.1205584505
 20
-1.3733517515
 11
24.9705584505
 21
-1.3733517515
  0
LINE
  5
326
100
AcDbEntity
  8
0
100
AcDbLine
 62
7
  6
CONTINUOUS
 10
64.0705584505
 20
-1.3733517515
 11
67.1205584505
 21
-1.3733517515
  0
LWPOLYLINE
  5
327
100
AcDbEntity
  8
0
100
AcDbPolyline
 62
7
  6
CONTINUOUS
 90
2
 70
0
 43
0.3500000087
 10
79.3705584106
 20
-0.9739967499
 10
77.8705569458
 20
-0.9739967499
  0
LINE
  5
328
100
AcDbEntity
  8
0
100
AcDbLine
 62
250
  6
CONTINUOUS
 10
28.1205584505
 20
0.0548968063
 11
23.4705584505
 21
0.0548968063
  0
LINE
  5
329
100
AcDbEntity
  8
0
100
AcDbLine
 62
250
  6
CONTINUOUS
 10
62.5705584505
 20
0.0548968063
 11
67.1205584505
 21
0.0548968063
  0
LINE
  5
32A
100
AcDbEntity
  8
0
100
AcDbLine
 62
7
  6
CONTINUOUS
 10
67.1205584505
 20
0.3331453642
 11
62.5705584505
 21
0.3331453642
  0
LINE
  5
32B
100
AcDbEntity
  8
0
100
AcDbLine
 62
7
  6
CONTINUOUS
 10
23.4705584505
 20
0.3331453642
 11
28.1205584505
 21
0.3331453642
  0
LWPOLYLINE
  5
32C
100
AcDbEntity
  8
0
100
AcDbPolyline
 62
7
  6
CONTINUOUS
 90
4
 70
0
 43
0.3500000087
 10
77.013419342
 20
0.3831456055
 10
76.370555481
 20
0.3831456055
 10
76.370555481
 20
1.8831449387
 10
79.3705584106
 20
1.0260030716
  0
LINE
  5
32D
100
AcDbEntity
  8
0
100
AcDbLine
 62
7
  6
CONTINUOUS
 10
67.1205584505
 20
0.4331453642
 11
62.5705584505
 21
0.4331453642
  0
LINE
  5
32E
100
AcDbEntity
  8
0
100
AcDbLine
 62
7
  6
CONTINUOUS
 10
23.4705584505
 20
0.4331453642
 11
28.1205584505
 21
0.4331453642
  0
LINE
  5
32F
100
AcDbEntity
  8
0
100
AcDbLine
 62
250
  6
CONTINUOUS
 10
28.1205584505
 20
0.7113939221
 11
23.4705584505
 21
0.7113939221
  0
LINE
  5
330
100
AcDbEntity
  8
0
100
AcDbLine
 62
250
  6
CONTINUOUS
 10
62.5705584505
 20
0.7113939221
 11
67.1205584505
 21
0.7113939221
  0
LWPOLYLINE
  5
331
100
AcDbEntity
  8
RACCORDO
100
AcDbPolyline
 62
250
  6
CONTINUOUS
 90
88
 70
0
 10
64.4705608286
 20
-2.2877379535
 10
64.3948990313
 20
-2.2866662306
 10
64.3184214826
 20
-2.2834019665
 10
64.2411942078
 20
-2.2778724511
 10
64.1632195206
 20
-2.2699983193
 10
64.084640676
 20
-2.2597133852
 10
64.0057392796
 20
-2.2469850075
 10
63.9265985009
 20
-2.2317656163
 10
63.8472989115
 20
-2.2140088669
 10
63.7681168604
 20
-2.1937229793
 10
63.6891365554
 20
-2.1708843929
 10
63.6104458116
 20
-2.1454727093
 10
63.5323198493
 20
-2.1175400671
 10
63.4548433932
 20
-2.0870893791
 10
63.3781004852
 20
-2.0541258712
 10
63.302353356
 20
-2.018743906
 10
63.2276778184
 20
-1.9809704762
 10
63.1541522069
 20
-1.9408366385
 10
63.0820251168
 20
-1.8984802424
 10
63.01141031
 20
-1.8539845186
 10
62.9423199374
 20
-1.8073738302
 10
62.8748367653
 20
-1.7587192196
 10
62.809215231
 20
-1.7082357426
 10
62.7453034938
 20
-1.6558388457
 10
62.6826131313
 20
-1.6011021503
 10
62.6214182246
 20
-1.5442084579
 10
62.5616277369
 20
-1.4850146588
 10
62.5023478455
 20
-1.4224603039
 10
62.4437786299
 20
-1.3564682058
 10
62.386141355
 20
-1.2869817716
 10
62.328799682
 20
-1.2127921402
 10
62.2720821755
 20
-1.1337190383
 10
62.2164098719
 20
-1.0496904737
 10
62.1615530392
 20
-0.9595113552
 10
62.1079985539
 20
-0.8628773585
 10
62.0564469118
 20
-0.7598139969
 10
62.0072542496
 20
-0.6495455188
 10
61.9611441253
 20
-0.531832302
 10
61.9190214375
 20
-0.4068092464
 10
61.8817044525
 20
-0.2742937831
 10
61.8499337168
 20
-0.1333194893
 10
61.8250363827
 20
0.014854145
 10
61.8082929018
 20
0.1668633769
 10
61.8001931835
 20
0.3232327633
 10
61.8013692358
 20
0.4824850177
 10
61.8117176035
 20
0.6380943811
 10
61.8304605886
 20
0.788491473
 10
61.8570207168
 20
0.9343496901
 10
61.8900724548
 20
1.0726947053
 10
61.9282489897
 20
1.20230751
 10
61.9708042755
 20
1.3241915351
 10
62.017048074
 20
1.4388912255
 10
62.0661450114
 20
1.546365565
 10
62.1173735417
 20
1.6467820139
 10
62.1704591277
 20
1.741000815
 10
62.2247409603
 20
1.8290028318
 10
62.2797618959
 20
1.9110793011
 10
62.3358261236
 20
1.9884682495
 10
62.3925582421
 20
2.0612488537
 10
62.4496441157
 20
2.1295686589
 10
62.5077446831
 20
2.1946156182
 10
62.5666688509
 20
2.2564420602
 10
62.6262273156
 20
2.3151010944
 10
62.6873005675
 20
2.3716060891
 10
62.7500197487
 20
2.42611036
 10
62.8140966274
 20
2.4783944154
 10
62.8799107295
 20
2.5287803643
 10
62.9475950807
 20
2.5773349668
 10
63.0169164858
 20
2.6238565453
 10
63.0877303105
 20
2.6682328326
 10
63.1599992716
 20
2.7104293205
 10
63.233629669
 20
2.750380346
 10
63.3083755112
 20
2.7879539648
 10
63.3841628359
 20
2.8231245701
 10
63.4609090979
 20
2.8558652297
 10
63.5383381015
 20
2.8860802856
 10
63.6163646574
 20
2.9137687865
 10
63.6949030743
 20
2.9389321082
 10
63.7736640472
 20
2.9615192592
 10
63.8525590032
 20
2.981556125
 10
63.9315035162
 20
2.9990717832
 10
64.0102079147
 20
3.0140614672
 10
64.0885926155
 20
3.0265781035
 10
64.1665741988
 20
3.0366754588
 10
64.2438560837
 20
3.0443912503
 10
64.3202908876
 20
3.0497986809
 10
64.3958831424
 20
3.0529846614
 10
64.4705687387
 20
3.0540286818
  0
LWPOLYLINE
  5
332
100
AcDbEntity
  8
RACCORDO
100
AcDbPolyline
 62
7
  6
CONTINUOUS
 90
7
 70
0
 10
48.9999453937
 20
5.6125323074
 10
48.9974220481
 20
5.6107241534
 10
48.9929578279
 20
5.6064562135
 10
48.9865527329
 20
5.5999770524
 10
48.9779714751
 20
5.5915468376
 10
48.9674493426
 20
5.5814162755
 10
48.9427874601
 20
5.5569935203
  0
LWPOLYLINE
  5
333
100
AcDbEntity
  8
RACCORDO
100
AcDbPolyline
 62
250
  6
CONTINUOUS
 90
10
 70
0
 10
50.3064353839
 20
8.3025659867
 10
50.2754099905
 20
8.2826751591
 10
50.2576079586
 20
8.2699915553
 10
50.2377540733
 20
8.2563808201
 10
50.2161872275
 20
8.2419256214
 10
50.1937533718
 20
8.2261260556
 10
50.1700655711
 20
8.2097458387
 10
50.1452794535
 20
8.1930559393
 10
50.1201994402
 20
8.1757253492
 10
50.0953000401
 20
8.1577474095
  0
LINE
  5
334
100
AcDbEntity
  8
RACCORDO
100
AcDbLine
 62
250
  6
CONTINUOUS
 10
55.0071679661
 20
7.8331453642
 11
55.0458163862
 21
7.8531283397
  0
LINE
  5
335
100
AcDbEntity
  8
RACCORDO
100
AcDbLine
 62
250
  6
CONTINUOUS
 10
54.7635404147
 20
8.3080802529
 11
54.799962302
 21
8.3249200961
  0
LINE
  5
336
100
AcDbEntity
  8
0
100
AcDbLine
 62
7
  6
CONTINUOUS
 10
28.1205584505
 20
2.13964248
 11
24.9705584505
 21
2.13964248
  0
LINE
  5
337
100
AcDbEntity
  8
0
100
AcDbLine
 62
7
  6
CONTINUOUS
 10
64.0705584505
 20
2.13964248
 11
67.1205584505
 21
2.13964248
  0
LINE
  5
338
100
AcDbEntity
  8
0
100
AcDbLine
 62
7
  6
CONTINUOUS
 10
28.1205584505
 20
2.6346172268
 11
24.9705584505
 21
2.6346172268
  0
LINE
  5
339
100
AcDbEntity
  8
0
100
AcDbLine
 62
7
  6
CONTINUOUS
 10
64.0705584505
 20
2.6346172268
 11
67.1205584505
 21
2.6346172268
  0
LINE
  5
33A
100
AcDbEntity
  8
DRAFT
100
AcDbLine
 62
7
  6
CONTINUOUS
 10
67.1205584505
 20
3.0331453642
 11
64.4705584505
 21
3.0331453642
  0
LINE
  5
33B
100
AcDbEntity
  8
DRAFT
100
AcDbLine
 62
7
  6
CONTINUOUS
 10
28.1205584505
 20
3.0331453642
 11
25.4705584505
 21
3.0331453642
  0
LINE
  5
33C
100
AcDbEntity
  8
RACCORDO
100
AcDbLine
 62
250
  6
CONTINUOUS
 10
25.4705687387
 20
3.0540286819
 11
28.1414417682
 21
3.0540286819
  0
LINE
  5
33D
100
AcDbEntity
  8
RACCORDO
100
AcDbLine
 62
250
  6
CONTINUOUS
 10
64.4705687387
 20
3.0540286819
 11
67.1414417682
 21
3.0540286819
  0
LINE
  5
33E
100
AcDbEntity
  8
RACCORDO
100
AcDbLine
 62
250
  6
CONTINUOUS
 10
25.4705584505
 20
3.3557665632
 11
28.4413960768
 21
3.3557665632
  0
LINE
  5
33F
100
AcDbEntity
  8
RACCORDO
100
AcDbLine
 62
250
  6
CONTINUOUS
 10
64.4705584505
 20
3.3557665632
 11
67.4413960768
 21
3.3557665632
  0
LINE
  5
340
100
AcDbEntity
  8
RACCORDO
100
AcDbLine
 62
250
  6
CONTINUOUS
 10
54.7635404147
 20
-7.5417895245
 11
54.7999622424
 21
-7.5586293396
  0
LINE
  5
341
100
AcDbEntity
  8
RACCORDO
100
AcDbLine
 62
250
  6
CONTINUOUS
 10
55.0071679661
 20
-7.0668546358
 11
55.0458163859
 21
-7.0868376113
  0
LWPOLYLINE
  5
342
100
AcDbEntity
  8
RACCORDO
100
AcDbPolyline
 62
250
  6
CONTINUOUS
 90
7
 70
0
 10
50.2754107838
 20
-7.5163832647
 10
50.306436073
 20
-7.5362742411
 10
50.3180255058
 20
-7.5446432982
 10
50.3275486469
 20
-7.5505375808
 10
50.335135511
 20
-7.5540338328
 10
50.339899843
 20
-7.5565050333
 10
50.3411542931
 20
-7.5586298479
  0
LWPOLYLINE
  5
343
100
AcDbEntity
  8
RACCORDO
100
AcDbPolyline
 62
250
  6
CONTINUOUS
 90
9
 70
0
 10
50.0953000401
 20
-7.3914566811
 10
50.120199629
 20
-7.4094343405
 10
50.1452798073
 20
-7.4267646838
 10
50.1700660642
 20
-7.4434543742
 10
50.1937539813
 20
-7.4598344198
 10
50.2161879273
 20
-7.4756338559
 10
50.23775483
 20
-7.4900889727
 10
50.2576087461
 20
-7.5036996643
 10
50.2754107838
 20
-7.5163832647
  0
LWPOLYLINE
  5
344
100
AcDbEntity
  8
RACCORDO
100
AcDbPolyline
 62
7
  6
CONTINUOUS
 90
6
 70
0
 10
48.1749453937
 20
-4.8462415789
 10
48.172477723
 20
-4.8444588664
 10
48.1680639551
 20
-4.8402457406
 10
48.1617040901
 20
-4.8338326954
 10
48.1531695862
 20
-4.8254595231
 10
48.1426889852
 20
-4.8153636135
  0
LINE
  5
345
100
AcDbEntity
  8
0
100
AcDbLine
 62
7
  6
CONTINUOUS
 10
55.6705584505
 20
22.7831453642
 11
55.7371912481
 21
22.8831453642
  0
LINE
  5
346
100
AcDbEntity
  8
RACCORDO
100
AcDbLine
 62
7
  6
CONTINUOUS
 10
48.9999453937
 20
5.6125323074
 11
49.0205584505
 21
5.6331453642
  0
LINE
  5
347
100
AcDbEntity
  8
RACCORDO
100
AcDbLine
 62
7
  6
CONTINUOUS
 10
48.7741088438
 20
5.3895898645
 11
48.7184790857
 21
5.3338872128
  0
LINE
  5
348
100
AcDbEntity
  8
RACCORDO
100
AcDbLine
 62
7
  6
CONTINUOUS
 10
48.7184790857
 20
5.3338872128
 11
48.6999910851
 21
5.3155374341
  0
LINE
  5
349
100
AcDbEntity
  8
RACCORDO
100
AcDbLine
 62
7
  6
CONTINUOUS
 10
48.8815739001
 20
5.4965405056
 11
48.7741088438
 21
5.3895898645
  0
LINE
  5
34A
100
AcDbEntity
  8
RACCORDO
100
AcDbLine
 62
7
  6
CONTINUOUS
 10
48.8980409301
 20
5.5127779822
 11
48.8815739001
 21
5.4965405056
  0
LWPOLYLINE
  5
34B
100
AcDbEntity
  8
RACCORDO
100
AcDbPolyline
 62
7
  6
CONTINUOUS
 90
3
 70
0
 10
48.9427874601
 20
5.5569935203
 10
48.9286477101
 20
5.5431649672
 10
48.8980409301
 20
5.5127779822
  0
LINE
  5
34C
100
AcDbEntity
  8
RACCORDO
100
AcDbLine
 62
250
  6
CONTINUOUS
 10
56.4411258159
 20
5.3155374341
 11
48.6999910851
 21
5.3155374341
  0
LINE
  5
34D
100
AcDbEntity
  8
RACCORDO
100
AcDbLine
 62
250
  6
CONTINUOUS
 10
17.4411258159
 20
5.3155374341
 11
9.6999910851
 21
5.3155374341
  0
LINE
  5
34E
100
AcDbEntity
  8
RACCORDO
100
AcDbLine
 62
250
  6
CONTINUOUS
 10
56.1411715074
 20
5.6125323074
 11
48.9999453937
 21
5.6125323074
  0
LINE
  5
34F
100
AcDbEntity
  8
RACCORDO
100
AcDbLine
 62
250
  6
CONTINUOUS
 10
17.1411715074
 20
5.6125323074
 11
9.9999453937
 21
5.6125323074
  0
LINE
  5
350
100
AcDbEntity
  8
DRAFT
100
AcDbLine
 62
7
  6
CONTINUOUS
 10
10.0205584505
 20
5.6331453642
 11
17.1205584505
 21
5.6331453642
  0
LINE
  5
351
100
AcDbEntity
  8
DRAFT
100
AcDbLine
 62
7
  6
CONTINUOUS
 10
49.0205584505
 20
5.6331453642
 11
56.1205584505
 21
5.6331453642
  0
LWPOLYLINE
  5
352
100
AcDbEntity
  8
RACCORDO
100
AcDbPolyline
 62
7
  6
CONTINUOUS
 90
3
 70
0
 10
48.1426889852
 20
-4.8153636135
 10
48.1180240532
 20
-4.7909409983
 10
48.1038397223
 20
-4.7770672522
  0
LINE
  5
353
100
AcDbEntity
  8
RACCORDO
100
AcDbLine
 62
7
  6
CONTINUOUS
 10
48.1038397223
 20
-4.7770672522
 11
48.0039557795
 21
-4.67795342
  0
LINE
  5
354
100
AcDbEntity
  8
RACCORDO
100
AcDbLine
 62
7
  6
CONTINUOUS
 10
48.1749986268
 20
-4.8462948121
 11
48.1955584505
 21
-4.8668546358
  0
LINE
  5
355
100
AcDbEntity
  8
RACCORDO
100
AcDbLine
 62
7
  6
CONTINUOUS
 10
48.0039557795
 20
-4.67795342
 11
47.8749910851
 21
-4.5492467056
  0
LWPOLYLINE
  5
356
100
AcDbEntity
  8
RACCORDO
100
AcDbPolyline
 62
250
  6
CONTINUOUS
 90
36
 70
0
 10
50.1175124549
 20
-10.8833495759
 10
50.0330033689
 20
-10.7582894319
 10
49.9568258387
 20
-10.6340922232
 10
49.889208353
 20
-10.5111162439
 10
49.8299224232
 20
-10.3890032472
 10
49.7775044425
 20
-10.2692290427
 10
49.7319936401
 20
-10.1521963397
 10
49.6933507868
 20
-10.037502517
 10
49.6599945882
 20
-9.925415414
 10
49.6318112826
 20
-9.816240322
 10
49.6089146317
 20
-9.7096720347
 10
49.5900646258
 20
-9.6050626374
 10
49.5750770655
 20
-9.5025389909
 10
49.5641361503
 20
-9.401974293
 10
49.5565544688
 20
-9.3023401132
 10
49.5521648304
 20
-9.2035404564
 10
49.5511344258
 20
-9.1056713463
 10
49.5532774158
 20
-9.007992359
 10
49.5585237961
 20
-8.9102552909
 10
49.5669435711
 20
-8.8127083555
 10
49.5785609144
 20
-8.7153557466
 10
49.5934130219
 20
-8.6179957055
 10
49.6114626978
 20
-8.520830001
 10
49.6326225283
 20
-8.4244681241
 10
49.6569624371
 20
-8.3288740925
 10
49.6844125004
 20
-8.2340839117
 10
49.7146755338
 20
-8.1408150676
 10
49.7478106966
 20
-8.0491031141
 10
49.7837588293
 20
-7.9589125327
 10
49.822045269
 20
-7.8708542121
 10
49.8626870861
 20
-7.785022466
 10
49.9056672101
 20
-7.7013230233
 10
49.9504597676
 20
-7.6200839024
 10
49.9968894672
 20
-7.5414144579
 10
50.0451316004
 20
-7.4652053776
 10
50.0951861669
 20
-7.3914566811
  0
LINE
  5
357
100
AcDbEntity
  8
0
100
AcDbLine
 62
7
  6
CONTINUOUS
 10
55.7371912481
 20
-22.1168546358
 11
55.6705584505
 21
-22.0168546358
  0
LWPOLYLINE
  5
358
100
AcDbEntity
  8
RACCORDO
100
AcDbPolyline
 62
250
  6
CONTINUOUS
 90
6
 70
0
 10
50.341154293
 20
8.3249205763
 10
50.3398996379
 20
8.3227960431
 10
50.3351351342
 20
8.3203250866
 10
50.3275481432
 20
8.3168290378
 10
50.3180249057
 20
8.3109349164
 10
50.3064353839
 20
8.3025659867
  0
LINE
  5
359
100
AcDbEntity
  8
RACCORDO
100
AcDbLine
 62
7
  6
CONTINUOUS
 10
56.4221329368
 20
8.1395048991
 11
56.4404957346
 21
8.1577474095
  0
LWPOLYLINE
  5
35A
100
AcDbEntity
  8
RACCORDO
100
AcDbPolyline
 62
7
  6
CONTINUOUS
 90
7
 70
0
 10
56.140541426
 20
7.8531283397
 10
56.1427021659
 20
7.8551285411
 10
56.1468559315
 20
7.859825237
 10
56.1530027228
 20
7.8668508148
 10
56.1613728493
 20
7.8757848865
 10
56.1717360015
 20
7.886306727
 10
56.1962944043
 20
7.9116177212
  0
LWPOLYLINE
  5
35B
100
AcDbEntity
  8
RACCORDO
100
AcDbPolyline
 62
250
  6
CONTINUOUS
 90
19
 70
0
 10
50.0953000401
 20
7.8531283397
 10
50.131528071
 20
7.8553471358
 10
50.1672252512
 20
7.8619286616
 10
50.2018685086
 20
7.8727764776
 10
50.2349502143
 20
7.8877316303
 10
50.2659856207
 20
7.9065749815
 10
50.294519965
 20
7.9290304188
 10
50.3201351322
 20
7.9547689017
 10
50.3424557824
 20
7.9834132834
 10
50.3611548503
 20
8.0145438366
 10
50.3759583377
 20
8.0477044043
 10
50.3866493286
 20
8.0824090832
 10
50.3930711675
 20
8.1181493446
 10
50.3951297549
 20
8.154401485
 10
50.3927949262
 20
8.1906343004
 10
50.3861008939
 20
8.2263168701
 10
50.3751457458
 20
8.2609263359
 10
50.3600900081
 20
8.2939555642
 10
50.341154293
 20
8.3249205763
  0
LINE
  5
35C
100
AcDbEntity
  8
RACCORDO
100
AcDbLine
 62
7
  6
CONTINUOUS
 10
56.1205584505
 20
7.8331453642
 11
55.0071679661
 21
7.8331453642
  0
LINE
  5
35D
100
AcDbEntity
  8
RACCORDO
100
AcDbLine
 62
7
  6
CONTINUOUS
 10
50.133948935
 20
7.8331453642
 11
49.0205584505
 21
7.8331453642
  0
LINE
  5
35E
100
AcDbEntity
  8
RACCORDO
100
AcDbLine
 62
7
  6
CONTINUOUS
 10
17.1205584505
 20
7.8331453642
 11
16.0071679661
 21
7.8331453642
  0
LINE
  5
35F
100
AcDbEntity
  8
RACCORDO
100
AcDbLine
 62
7
  6
CONTINUOUS
 10
11.133948935
 20
7.8331453642
 11
10.0205584505
 21
7.8331453642
  0
LINE
  5
360
100
AcDbEntity
  8
RACCORDO
100
AcDbLine
 62
250
  6
CONTINUOUS
 10
10.000575475
 20
7.8531283397
 11
11.0953005151
 21
7.8531283397
  0
LINE
  5
361
100
AcDbEntity
  8
RACCORDO
100
AcDbLine
 62
250
  6
CONTINUOUS
 10
16.0458171827
 20
7.8531283397
 11
17.140541426
 21
7.8531283397
  0
LINE
  5
362
100
AcDbEntity
  8
RACCORDO
100
AcDbLine
 62
250
  6
CONTINUOUS
 10
49.000575475
 20
7.8531283397
 11
50.0953005151
 21
7.8531283397
  0
LINE
  5
363
100
AcDbEntity
  8
RACCORDO
100
AcDbLine
 62
250
  6
CONTINUOUS
 10
55.0458163862
 20
7.8531283397
 11
56.140541426
 21
7.8531283397
  0
LINE
  5
364
100
AcDbEntity
  8
RACCORDO
100
AcDbLine
 62
250
  6
CONTINUOUS
 10
16.0459307341
 20
8.1577474095
 11
17.4404957346
 21
8.1577474095
  0
LINE
  5
365
100
AcDbEntity
  8
RACCORDO
100
AcDbLine
 62
250
  6
CONTINUOUS
 10
48.7006211665
 20
8.1577474095
 11
50.0953892785
 21
8.1577474095
  0
LINE
  5
366
100
AcDbEntity
  8
RACCORDO
100
AcDbLine
 62
250
  6
CONTINUOUS
 10
9.7006211665
 20
8.1577474095
 11
11.0953892559
 21
8.1577474454
  0
LINE
  5
367
100
AcDbEntity
  8
RACCORDO
100
AcDbLine
 62
250
  6
CONTINUOUS
 10
55.0459307556
 20
8.1577474434
 11
56.4404957346
 21
8.1577474095
  0
LWPOLYLINE
  5
368
100
AcDbEntity
  8
RACCORDO
100
AcDbPolyline
 62
7
  6
CONTINUOUS
 90
22
 70
0
 10
55.0071679661
 20
7.8331453642
 10
54.9755360363
 20
7.8349115156
 10
54.9449024065
 20
7.8397151296
 10
54.9152670765
 20
7.8475562065
 10
54.8863693386
 20
7.8585464023
 10
54.8584699005
 20
7.8725740609
 10
54.832350886
 20
7.8893042136
 10
54.8080040163
 20
7.908826309
 10
54.7854375701
 20
7.9310508985
 10
54.7654585069
 20
7.9553746669
 10
54.7481269348
 20
7.9819944602
 10
54.7333827457
 20
8.0107134325
 10
54.7218525747
 20
8.0403377309
 10
54.7137380694
 20
8.0708300843
 10
54.7088375823
 20
8.1022277639
 10
54.7071728053
 20
8.133448731
 10
54.7088115997
 20
8.1643848704
 10
54.7136861043
 20
8.1951442974
 10
54.7216144273
 20
8.2249693185
 10
54.732535938
 20
8.2536073692
 10
54.7465112672
 20
8.281311014
 10
54.7635404147
 20
8.3080802529
  0
LWPOLYLINE
  5
369
100
AcDbEntity
  8
RACCORDO
100
AcDbPolyline
 62
7
  6
CONTINUOUS
 90
22
 70
0
 10
16.0071679661
 20
7.8331453642
 10
15.9754910775
 20
7.8349301471
 10
15.944836811
 20
7.8397403996
 10
15.9152051663
 20
7.8475761218
 10
15.8863556456
 20
7.8585354262
 10
15.8585287467
 20
7.8725202003
 10
15.8324459641
 20
7.8892361064
 10
15.808059097
 20
7.9088012825
 10
15.7854163462
 20
7.9310975906
 10
15.7653838075
 20
7.9554762784
 10
15.7480487931
 20
7.9821229115
 10
15.7333239909
 20
8.0108519243
 10
15.7218135604
 20
8.0404578678
 10
15.7137124697
 20
8.0708747354
 10
15.7088257507
 20
8.1021685339
 10
15.7071726586
 20
8.133331834
 10
15.7088210327
 20
8.1643057172
 10
15.7137030337
 20
8.195149102
 10
15.7216343987
 20
8.2250313153
 10
15.7325537067
 20
8.253675466
 10
15.7465223786
 20
8.2813584451
 10
15.7635404145
 20
8.3080802526
  0
LWPOLYLINE
  5
36A
100
AcDbEntity
  8
RACCORDO
100
AcDbPolyline
 62
7
  6
CONTINUOUS
 90
6
 70
0
 10
56.965541426
 20
-7.0868376113
 10
56.96778193
 20
-7.0888781669
 10
56.9720087992
 20
-7.0936615982
 10
56.9782220334
 20
-7.1007906614
 10
56.9866624174
 20
-7.1098122447
 10
56.9970891665
 20
-7.1203855797
  0
LWPOLYLINE
  5
36B
100
AcDbEntity
  8
RACCORDO
100
AcDbPolyline
 62
250
  6
CONTINUOUS
 90
35
 70
0
 10
50.2848466678
 20
-10.5891947992
 10
50.2164501676
 20
-10.4772587438
 10
50.1556838259
 20
-10.3663190485
 10
50.1020170524
 20
-10.2567384408
 10
50.0549630568
 20
-10.1488697102
 10
50.0141674275
 20
-10.0433402263
 10
49.9791074443
 20
-9.9403351943
 10
49.9491392909
 20
-9.8394337998
 10
49.9239461045
 20
-9.7410458422
 10
49.9031338321
 20
-9.6452697808
 10
49.8861596426
 20
-9.551111508
 10
49.8728061822
 20
-9.4587641184
 10
49.8628448778
 20
-9.3683387307
 10
49.8559749921
 20
-9.2786500257
 10
49.8520997828
 20
-9.1896852002
 10
49.8511342198
 20
-9.101662385
 10
49.8530160658
 20
-9.013717263
 10
49.8577530497
 20
-8.925715721
 10
49.8653328891
 20
-8.837976464
 10
49.8757790498
 20
-8.7503149083
 10
49.8891320008
 20
-8.6626445519
 10
49.9053795623
 20
-8.5752448254
 10
49.9244621452
 20
-8.4884789199
 10
49.946366443
 20
-8.4023919427
 10
49.9710540231
 20
-8.3171214205
 10
49.9983576867
 20
-8.2331513546
 10
50.0282031119
 20
-8.1505600699
 10
50.0605171342
 20
-8.0694139616
 10
50.0950564869
 20
-7.9901478632
 10
50.1316837669
 20
-7.9128603665
 10
50.170310007
 20
-7.8375390531
 10
50.2107099872
 20
-7.7644196943
 10
50.2527157849
 20
-7.6935874382
 10
50.2962382813
 20
-7.6249879977
 10
50.341154599
 20
-7.5586293676
  0
LWPOLYLINE
  5
36C
100
AcDbEntity
  8
RACCORDO
100
AcDbPolyline
 62
7
  6
CONTINUOUS
 90
3
 70
0
 10
56.1962944043
 20
7.9116177212
 10
56.210489655
 20
7.9259643646
 10
56.2413379006
 20
7.9574132326
  0
LINE
  5
36D
100
AcDbEntity
  8
RACCORDO
100
AcDbLine
 62
7
  6
CONTINUOUS
 10
56.2413379006
 20
7.9574132326
 11
56.3477643206
 21
8.064789262
  0
LINE
  5
36E
100
AcDbEntity
  8
RACCORDO
100
AcDbLine
 62
7
  6
CONTINUOUS
 10
56.3477643206
 20
8.064789262
 11
56.4221329368
 21
8.1395048991
  0
LINE
  5
36F
100
AcDbEntity
  8
RACCORDO
100
AcDbLine
 62
7
  6
CONTINUOUS
 10
56.1205584505
 20
7.8331453642
 11
56.1406212544
 21
7.8532081681
  0
LWPOLYLINE
  5
370
100
AcDbEntity
  8
RACCORDO
100
AcDbPolyline
 62
250
  6
CONTINUOUS
 90
19
 70
0
 10
11.0953000401
 20
7.8531283397
 10
11.131528071
 20
7.8553471358
 10
11.1672252512
 20
7.8619286616
 10
11.2018685086
 20
7.8727764776
 10
11.2349502143
 20
7.8877316303
 10
11.2659856207
 20
7.9065749815
 10
11.294519965
 20
7.9290304188
 10
11.3201351322
 20
7.9547689017
 10
11.3424557824
 20
7.9834132834
 10
11.3611548503
 20
8.0145438366
 10
11.3759583377
 20
8.0477044043
 10
11.3866493286
 20
8.0824090832
 10
11.3930711675
 20
8.1181493446
 10
11.3951297549
 20
8.154401485
 10
11.3927949262
 20
8.1906343004
 10
11.3861008939
 20
8.2263168701
 10
11.3751457458
 20
8.2609263359
 10
11.3600900081
 20
8.2939555642
 10
11.341154293
 20
8.3249205763
  0
LINE
  5
371
100
AcDbEntity
  8
RACCORDO
100
AcDbLine
 62
7
  6
CONTINUOUS
 10
55.2231335973
 20
9.3831453642
 11
49.9179833037
 21
9.3831453642
  0
LINE
  5
372
100
AcDbEntity
  8
RACCORDO
100
AcDbLine
 62
7
  6
CONTINUOUS
 10
16.2231335973
 20
9.3831453642
 11
10.9179833037
 21
9.3831453642
  0
LINE
  5
373
100
AcDbEntity
  8
RACCORDO
100
AcDbLine
 62
7
  6
CONTINUOUS
 10
57.246872884
 20
-7.3729534465
 11
57.2654957346
 21
-7.3914566811
  0
LINE
  5
374
100
AcDbEntity
  8
RACCORDO
100
AcDbLine
 62
7
  6
CONTINUOUS
 10
56.9656212544
 20
-7.0869174396
 11
56.9455584505
 21
-7.0668546358
  0
LINE
  5
375
100
AcDbEntity
  8
RACCORDO
100
AcDbLine
 62
7
  6
CONTINUOUS
 10
57.0664119244
 20
-7.1911991527
 11
57.246872884
 21
-7.3729534465
  0
LWPOLYLINE
  5
376
100
AcDbEntity
  8
RACCORDO
100
AcDbPolyline
 62
7
  6
CONTINUOUS
 90
3
 70
0
 10
57.0216456587
 20
-7.1456936567
 10
57.0507139204
 20
-7.1751887234
 10
57.0664119244
 20
-7.1911991527
  0
LINE
  5
377
100
AcDbEntity
  8
RACCORDO
100
AcDbLine
 62
7
  6
CONTINUOUS
 10
56.9970891665
 20
-7.1203855797
 11
57.0216456587
 21
-7.1456936567
  0
LWPOLYLINE
  5
378
100
AcDbEntity
  8
RACCORDO
100
AcDbPolyline
 62
250
  6
CONTINUOUS
 90
65
 70
0
 10
55.0457276437
 20
-7.3914567147
 10
55.0999342098
 20
-7.4716049873
 10
55.1516347503
 20
-7.5537845394
 10
55.2008292652
 20
-7.6379953528
 10
55.247674589
 20
-7.7245072288
 10
55.2920138872
 20
-7.8130503263
 10
55.333376656
 20
-7.9028151699
 10
55.371648762
 20
-7.9936901182
 10
55.4069443387
 20
-8.0857867855
 10
55.4391352826
 20
-8.1786305906
 10
55.4681554018
 20
-8.2719558989
 10
55.4940708883
 20
-8.3660283261
 10
55.5169522152
 20
-8.4611701678
 10
55.5368668032
 20
-8.5570558021
 10
55.5537472316
 20
-8.6540108244
 10
55.5674617119
 20
-8.7533343394
 10
55.5782440803
 20
-8.8548895817
 10
55.5858605007
 20
-8.9588132573
 10
55.5894776759
 20
-9.0668146431
 10
55.589395749
 20
-9.1791412477
 10
55.585314577
 20
-9.2955454476
 10
55.5755004341
 20
-9.4169937845
 10
55.5601302187
 20
-9.5440268759
 10
55.5390270325
 20
-9.676103936
 10
55.5099264545
 20
-9.812569391
 10
55.4726641996
 20
-9.954138228
 10
55.427404553
 20
-10.1000952807
 10
55.3723759501
 20
-10.2476397996
 10
55.306996146
 20
-10.3972738756
 10
55.2318473857
 20
-10.5484953248
 10
55.146904839
 20
-10.6969971195
 10
55.0516289292
 20
-10.8425655111
 10
54.9465592332
 20
-10.9854143318
 10
54.8332896516
 20
-11.1218780803
 10
54.7117039853
 20
-11.251393345
 10
54.5819184335
 20
-11.3745237598
 10
54.4458754939
 20
-11.4892944919
 10
54.3037173076
 20
-11.5953300576
 10
54.1553017336
 20
-11.6930061965
 10
54.0021448467
 20
-11.7814749453
 10
53.8442570549
 20
-11.8606512782
 10
53.6816279503
 20
-11.9306204422
 10
53.5157423831
 20
-11.9907898857
 10
53.3464930024
 20
-12.0411043798
 10
53.1739871592
 20
-12.0816193132
 10
53.0000317571
 20
-12.1119080491
 10
52.8246507105
 20
-12.131863333
 10
52.647820105
 20
-12.1415924967
 10
52.4712751013
 20
-12.1409907628
 10
52.2950737039
 20
-12.1299926925
 10
52.1191579082
 20
-12.1086637066
 10
51.9450888617
 20
-12.077095293
 10
51.7726849478
 20
-12.0351292508
 10
51.602127783
 20
-11.9829236681
 10
51.435523364
 20
-11.921044449
 10
51.2726734154
 20
-11.8490722304
 10
51.1137762127
 20
-11.7674261839
 10
50.9615325784
 20
-11.6779300216
 10
50.816178569
 20
-11.5801923662
 10
50.6774781279
 20
-11.4746043855
 10
50.5474239089
 20
-11.364163665
 10
50.4265256382
 20
-11.248814259
 10
50.3142735896
 20
-11.1286119697
 10
50.2111312379
 20
-11.0067220995
 10
50.1175124549
 20
-10.8833495759
  0
LWPOLYLINE
  5
379
100
AcDbEntity
  8
RACCORDO
100
AcDbPolyline
 62
250
  6
CONTINUOUS
 90
66
 70
0
 10
54.7999622424
 20
-7.5586293396
 10
54.8486028674
 20
-7.6306843004
 10
54.8951701878
 20
-7.7046769862
 10
54.9395759702
 20
-7.7805561029
 10
54.9818201044
 20
-7.8584339858
 10
55.0217174338
 20
-7.9380891905
 10
55.0589532491
 20
-8.0189387728
 10
55.0934437259
 20
-8.1007670129
 10
55.125217751
 20
-8.1836061044
 10
55.1541986041
 20
-8.2672132661
 10
55.1803081749
 20
-8.3512563159
 10
55.2036253084
 20
-8.4358715311
 10
55.2242742192
 20
-8.5215288352
 10
55.2421476321
 20
-8.6078658005
 10
55.2572654774
 20
-8.695074588
 10
55.2697539864
 20
-8.7844916638
 10
55.2794120433
 20
-8.8759047362
 10
55.2860709941
 20
-8.969365027
 10
55.2895740253
 20
-9.0666237415
 10
55.2895252083
 20
-9.1677068343
 10
55.2855131555
 20
-9.2723371964
 10
55.2769853383
 20
-9.3817749166
 10
55.2633005171
 20
-9.4961058939
 10
55.2438632722
 20
-9.6147325943
 10
55.2179374395
 20
-9.7377920345
 10
55.1846989777
 20
-9.8653010367
 10
55.1435295573
 20
-9.9963057132
 10
55.0940617479
 20
-10.1294009743
 10
55.0355708769
 20
-10.2643425172
 10
54.9676672964
 20
-10.400042956
 10
54.8909712236
 20
-10.5339212251
 10
54.805383264
 20
-10.6652870677
 10
54.7107938343
 20
-10.793509317
 10
54.6084675982
 20
-10.9164125886
 10
54.4989390994
 20
-11.0332435145
 10
54.3822842343
 20
-11.1438164789
 10
54.2595081305
 20
-11.2471401791
 10
54.131325908
 20
-11.3427101365
 10
53.997973549
 20
-11.4304429032
 10
53.8598563357
 20
-11.5101185494
 10
53.7174964183
 20
-11.5814745544
 10
53.571364889
 20
-11.644312105
 10
53.4217858529
 20
-11.6985063996
 10
53.269191757
 20
-11.7438885562
 10
53.1141787291
 20
-11.7802691542
 10
52.9573199831
 20
-11.8075132337
 10
52.7991897394
 20
-11.8255274995
 10
52.6402938282
 20
-11.8342605279
 10
52.4811101815
 20
-11.8336833323
 10
52.3222412023
 20
-11.823794585
 10
52.1641738937
 20
-11.804620924
 10
52.0072174446
 20
-11.7761698734
 10
51.8517434595
 20
-11.7384409252
 10
51.6984833355
 20
-11.6915425026
 10
51.5482736315
 20
-11.6357057689
 10
51.4013360806
 20
-11.5709866158
 10
51.2584937442
 20
-11.4977200432
 10
51.121345001
 20
-11.4168589237
 10
50.9901685005
 20
-11.3288287661
 10
50.8653568889
 20
-11.2341615319
 10
50.7483534877
 20
-11.1344069331
 10
50.6393278192
 20
-11.0303728942
 10
50.5381563554
 20
-10.9226258586
 10
50.4454725998
 20
-10.812656232
 10
50.3611688371
 20
-10.7013405266
 10
50.2848466678
 20
-10.5891947992
  0
LWPOLYLINE
  5
37A
100
AcDbEntity
  8
RACCORDO
100
AcDbPolyline
 62
7
  6
CONTINUOUS
 90
22
 70
0
 10
54.7635404147
 20
-7.5417895245
 10
54.7465223785
 20
-7.5150677169
 10
54.7325537064
 20
-7.4873847377
 10
54.7216343983
 20
-7.458740587
 10
54.7137030333
 20
-7.4288583736
 10
54.7088210323
 20
-7.3980149888
 10
54.7071726582
 20
-7.3670411056
 10
54.7088257504
 20
-7.3358778054
 10
54.7137124694
 20
-7.304584007
 10
54.7218135601
 20
-7.2741671393
 10
54.7333239906
 20
-7.2445611957
 10
54.7480487928
 20
-7.215832183
 10
54.7653838072
 20
-7.1891855499
 10
54.7854163459
 20
-7.1648068621
 10
54.8080590968
 20
-7.142510554
 10
54.8324459639
 20
-7.1229453778
 10
54.8585287466
 20
-7.1062294718
 10
54.8863556455
 20
-7.0922446977
 10
54.9152051663
 20
-7.0812853933
 10
54.9448368109
 20
-7.0734496711
 10
54.9754910775
 20
-7.0686394186
 10
55.0071679661
 20
-7.0668546358
  0
LINE
  5
37B
100
AcDbEntity
  8
RACCORDO
100
AcDbLine
 62
250
  6
CONTINUOUS
 10
47.8756211665
 20
-7.3914566811
 11
47.8749910851
 21
-4.5492467056
  0
LINE
  5
37C
100
AcDbEntity
  8
RACCORDO
100
AcDbLine
 62
250
  6
CONTINUOUS
 10
48.1754956467
 20
-7.0869174396
 11
48.1749986268
 21
-4.8462948121
  0
LINE
  5
37D
100
AcDbEntity
  8
DRAFT
100
AcDbLine
 62
7
  6
CONTINUOUS
 10
48.1955584505
 20
-4.8668546358
 11
48.1955584505
 21
-7.0668546358
  0
LINE
  5
37E
100
AcDbEntity
  8
DRAFT
100
AcDbLine
 62
7
  6
CONTINUOUS
 10
49.0205584505
 20
7.8331453642
 11
49.0205584505
 21
5.6331453642
  0
LINE
  5
37F
100
AcDbEntity
  8
RACCORDO
100
AcDbLine
 62
250
  6
CONTINUOUS
 10
50.0953000401
 20
8.1577474095
 11
50.0953000401
 21
7.8531283397
  0
LINE
  5
380
100
AcDbEntity
  8
RACCORDO
100
AcDbLine
 62
250
  6
CONTINUOUS
 10
50.0953000401
 20
-7.0868376113
 11
50.0953000401
 21
-7.3914566811
  0
LINE
  5
381
100
AcDbEntity
  8
RACCORDO
100
AcDbLine
 62
250
  6
CONTINUOUS
 10
48.6999910851
 20
5.3155374341
 11
48.7006211665
 21
8.1577474095
  0
LINE
  5
382
100
AcDbEntity
  8
RACCORDO
100
AcDbLine
 62
250
  6
CONTINUOUS
 10
48.9999986268
 20
5.6125855405
 11
49.0004956467
 21
7.8532081681
  0
LINE
  5
383
100
AcDbEntity
  8
SUPERFICI
100
AcDbLine
 62
7
  6
CONTINUOUS
 10
55.6072140869
 20
22.8831453642
 11
55.5856861735
 21
22.7831453642
  0
LWPOLYLINE
  5
384
100
AcDbEntity
  8
RACCORDO
100
AcDbPolyline
 62
250
  6
CONTINUOUS
 90
19
 70
0
 10
54.799962608
 20
8.3249205763
 10
54.781026893
 20
8.2939555641
 10
54.7659711552
 20
8.2609263359
 10
54.7550160071
 20
8.22631687
 10
54.7483219748
 20
8.1906343004
 10
54.7459871461
 20
8.154401485
 10
54.7480457335
 20
8.1181493446
 10
54.7544675724
 20
8.0824090832
 10
54.7651585632
 20
8.0477044042
 10
54.7799620506
 20
8.0145438366
 10
54.7986611185
 20
7.9834132834
 10
54.8209817688
 20
7.9547689017
 10
54.846596936
 20
7.9290304187
 10
54.8751312803
 20
7.9065749815
 10
54.9061666867
 20
7.8877316303
 10
54.9392483924
 20
7.8727764775
 10
54.9738916498
 20
7.8619286616
 10
55.00958883
 20
7.8553471358
 10
55.045816861
 20
7.8531283397
  0
LWPOLYLINE
  5
385
100
AcDbEntity
  8
RACCORDO
100
AcDbPolyline
 62
7
  6
CONTINUOUS
 90
3
 70
0
 10
48.1198224967
 20
-7.1453269928
 10
48.105627246
 20
-7.1596736362
 10
48.0747790005
 20
-7.1911225042
  0
LINE
  5
386
100
AcDbEntity
  8
RACCORDO
100
AcDbLine
 62
7
  6
CONTINUOUS
 10
48.0747790005
 20
-7.1911225042
 11
47.9683525805
 21
-7.2984985336
  0
LINE
  5
387
100
AcDbEntity
  8
RACCORDO
100
AcDbLine
 62
7
  6
CONTINUOUS
 10
47.9683525805
 20
-7.2984985336
 11
47.8939839642
 21
-7.3732141706
  0
LINE
  5
388
100
AcDbEntity
  8
RACCORDO
100
AcDbLine
 62
7
  6
CONTINUOUS
 10
48.175575475
 20
-7.0868376113
 11
48.1955584505
 21
-7.0668546358
  0
LINE
  5
389
100
AcDbEntity
  8
RACCORDO
100
AcDbLine
 62
7
  6
CONTINUOUS
 10
47.8939839642
 20
-7.3732141706
 11
47.8756211665
 21
-7.3914566811
  0
LWPOLYLINE
  5
38A
100
AcDbEntity
  8
RACCORDO
100
AcDbPolyline
 62
7
  6
CONTINUOUS
 90
7
 70
0
 10
48.175575475
 20
-7.0868376113
 10
48.1734147352
 20
-7.0888378127
 10
48.1692609696
 20
-7.0935345085
 10
48.1631141782
 20
-7.1005600864
 10
48.1547440518
 20
-7.1094941581
 10
48.1443808996
 20
-7.1200159985
 10
48.1198224967
 20
-7.1453269928
  0
LINE
  5
38B
100
AcDbEntity
  8
RACCORDO
100
AcDbLine
 62
250
  6
CONTINUOUS
 10
50.133948935
 20
-7.0668546358
 11
50.0953005149
 21
-7.0868376113
  0
LINE
  5
38C
100
AcDbEntity
  8
0
100
AcDbLine
 62
7
  6
CONTINUOUS
 10
61.9296394044
 20
-0.3643705561
 11
62.5705584505
 21
-0.0500795992
  0
LINE
  5
38D
100
AcDbEntity
  8
0
100
AcDbLine
 62
7
  6
CONTINUOUS
 10
62.5705584505
 20
-0.6601375033
 11
62.1383804043
 21
-0.8720670013
  0
LINE
  5
38E
100
AcDbEntity
  8
RACCORDO
100
AcDbLine
 62
250
  6
CONTINUOUS
 10
50.3775764864
 20
-7.5417895245
 11
50.341154599
 21
-7.5586293676
  0
LINE
  5
38F
100
AcDbEntity
  8
RACCORDO
100
AcDbLine
 62
250
  6
CONTINUOUS
 10
50.3775764864
 20
8.3080802529
 11
50.3411546586
 21
8.324920068
  0
LINE
  5
390
100
AcDbEntity
  8
0
100
AcDbLine
 62
7
  6
CONTINUOUS
 10
62.5705584505
 20
0.8163703276
 11
61.9296394044
 21
1.1306612845
  0
LINE
  5
391
100
AcDbEntity
  8
0
100
AcDbLine
 62
7
  6
CONTINUOUS
 10
62.1383804043
 20
1.6383577298
 11
62.5705584505
 21
1.4264282318
  0
LINE
  5
392
100
AcDbEntity
  8
RACCORDO
100
AcDbLine
 62
250
  6
CONTINUOUS
 10
50.133948935
 20
7.8331453642
 11
50.0953005151
 21
7.8531283397
  0
LWPOLYLINE
  5
393
100
AcDbEntity
  8
RACCORDO
100
AcDbPolyline
 62
7
  6
CONTINUOUS
 90
6
 70
0
 10
49.000575475
 20
7.8531283397
 10
48.998334971
 20
7.8551688953
 10
48.9941081019
 20
7.8599523266
 10
48.9878948677
 20
7.8670813899
 10
48.9794544837
 20
7.8761029731
 10
48.9690277345
 20
7.8866763081
  0
LINE
  5
394
100
AcDbEntity
  8
SUPERFICI
100
AcDbLine
 62
7
  6
CONTINUOUS
 10
55.6072140869
 20
-22.1168546358
 11
55.5856861735
 21
-22.0168546358
  0
LWPOLYLINE
  5
395
100
AcDbEntity
  8
RACCORDO
100
AcDbPolyline
 62
250
  6
CONTINUOUS
 90
19
 70
0
 10
50.3411542931
 20
-7.5586298479
 10
50.3600900081
 20
-7.5276648357
 10
50.3751457458
 20
-7.4946356075
 10
50.3861008939
 20
-7.4600261416
 10
50.3927949263
 20
-7.424343572
 10
50.3951297549
 20
-7.3881107565
 10
50.3930711675
 20
-7.3518586162
 10
50.3866493287
 20
-7.3161183548
 10
50.3759583378
 20
-7.2814136758
 10
50.3611548504
 20
-7.2482531082
 10
50.3424557825
 20
-7.2171225549
 10
50.3201351323
 20
-7.1884781732
 10
50.294519965
 20
-7.1627396903
 10
50.2659856208
 20
-7.1402842531
 10
50.2349502143
 20
-7.1214409019
 10
50.2018685087
 20
-7.1064857491
 10
50.1672252512
 20
-7.0956379331
 10
50.131528071
 20
-7.0890564074
 10
50.0953000401
 20
-7.0868376113
  0
LWPOLYLINE
  5
396
100
AcDbEntity
  8
RACCORDO
100
AcDbPolyline
 62
7
  6
CONTINUOUS
 90
7
 70
0
 10
56.9661715074
 20
-4.8462415789
 10
56.9686948529
 20
-4.844433425
 10
56.9731590732
 20
-4.8401654851
 10
56.9795641682
 20
-4.833686324
 10
56.9881454259
 20
-4.8252561092
 10
56.9986675584
 20
-4.8151255471
 10
57.0233294409
 20
-4.7907027919
  0
LINE
  5
397
100
AcDbEntity
  8
0
100
AcDbLine
 62
7
  6
CONTINUOUS
 10
62.5705584505
 20
1.573957055
 11
64.0705584505
 21
2.6346172268
  0
LINE
  5
398
100
AcDbEntity
  8
0
100
AcDbLine
 62
7
  6
CONTINUOUS
 10
64.0705584505
 20
2.13964248
 11
62.5705584505
 21
1.0789823082
  0
LWPOLYLINE
  5
399
100
AcDbEntity
  8
RACCORDO
100
AcDbPolyline
 62
250
  6
CONTINUOUS
 90
10
 70
0
 10
54.8346815172
 20
-7.5362752583
 10
54.8657069105
 20
-7.5163844307
 10
54.8835089424
 20
-7.5037008269
 10
54.9033628277
 20
-7.4900900917
 10
54.9249296736
 20
-7.4756348929
 10
54.9473635292
 20
-7.4598353272
 10
54.97105133
 20
-7.4434551102
 10
54.9958374475
 20
-7.4267652108
 10
55.0209174609
 20
-7.4094346208
 10
55.045816861
 20
-7.3914566811
  0
LWPOLYLINE
  5
39A
100
AcDbEntity
  8
RACCORDO
100
AcDbPolyline
 62
250
  6
CONTINUOUS
 90
7
 70
0
 10
54.8657061172
 20
8.2826739931
 10
54.834680828
 20
8.3025649695
 10
54.8230913953
 20
8.3109340266
 10
54.8135682541
 20
8.3168283093
 10
54.80598139
 20
8.3203245612
 10
54.8012170581
 20
8.3227957618
 10
54.799962608
 20
8.3249205763
  0
LINE
  5
39B
100
AcDbEntity
  8
0
100
AcDbLine
 62
7
  6
CONTINUOUS
 10
64.0705584505
 20
-1.8683264984
 11
62.5705584505
 21
-0.8076663266
  0
LINE
  5
39C
100
AcDbEntity
  8
0
100
AcDbLine
 62
7
  6
CONTINUOUS
 10
62.5705584505
 20
-0.3126915798
 11
64.0705584505
 21
-1.3733517515
  0
LWPOLYLINE
  5
39D
100
AcDbEntity
  8
RACCORDO
100
AcDbPolyline
 62
7
  6
CONTINUOUS
 90
6
 70
0
 10
56.1411715074
 20
5.6125323074
 10
56.1436391781
 20
5.6107495948
 10
56.148052946
 20
5.6065364691
 10
56.154412811
 20
5.6001234238
 10
56.1629473148
 20
5.5917502515
 10
56.1734279158
 20
5.5816543419
  0
LINE
  5
39E
100
AcDbEntity
  8
RACCORDO
100
AcDbLine
 62
7
  6
CONTINUOUS
 10
48.719244017
 20
8.1392441749
 11
48.7006211665
 21
8.1577474095
  0
LINE
  5
39F
100
AcDbEntity
  8
RACCORDO
100
AcDbLine
 62
7
  6
CONTINUOUS
 10
49.0004956467
 20
7.8532081681
 11
49.0205584505
 21
7.8331453642
  0
LINE
  5
3A0
100
AcDbEntity
  8
RACCORDO
100
AcDbLine
 62
7
  6
CONTINUOUS
 10
48.848698228
 20
8.0090539939
 11
48.719244017
 21
8.1392441749
  0
LINE
  5
3A1
100
AcDbEntity
  8
RACCORDO
100
AcDbLine
 62
7
  6
CONTINUOUS
 10
48.8997049766
 20
7.9574898811
 11
48.848698228
 21
8.0090539939
  0
LWPOLYLINE
  5
3A2
100
AcDbEntity
  8
RACCORDO
100
AcDbPolyline
 62
7
  6
CONTINUOUS
 90
3
 70
0
 10
48.9444712424
 20
7.9119843851
 10
48.9154029806
 20
7.9414794518
 10
48.8997049766
 20
7.9574898811
  0
LINE
  5
3A3
100
AcDbEntity
  8
RACCORDO
100
AcDbLine
 62
7
  6
CONTINUOUS
 10
48.9690277345
 20
7.8866763081
 11
48.9444712424
 21
7.9119843851
  0
LWPOLYLINE
  5
3A4
100
AcDbEntity
  8
RACCORDO
100
AcDbPolyline
 62
250
  6
CONTINUOUS
 90
65
 70
0
 10
50.0953892785
 20
8.1577474095
 10
50.041182703
 20
8.237895697
 10
49.9894821554
 20
8.3200752603
 10
49.9402876359
 20
8.4042860812
 10
49.8934423105
 20
8.4907979597
 10
49.8491030131
 20
8.579341056
 10
49.807740245
 20
8.6691058984
 10
49.769468139
 20
8.7599808467
 10
49.7341725624
 20
8.8520775139
 10
49.7019816184
 20
8.944921319
 10
49.6729614993
 20
9.0382466273
 10
49.6470460128
 20
9.1323190545
 10
49.6241646859
 20
9.2274608962
 10
49.6042500979
 20
9.3233465305
 10
49.5873696695
 20
9.4203015528
 10
49.5736551891
 20
9.5196250679
 10
49.5628728207
 20
9.6211803101
 10
49.5552564004
 20
9.7251039858
 10
49.5516392251
 20
9.8331053716
 10
49.551721152
 20
9.9454319761
 10
49.555802324
 20
10.0618361761
 10
49.5656164669
 20
10.1832845129
 10
49.5809866823
 20
10.3103176043
 10
49.6020898686
 20
10.4423946645
 10
49.6311904465
 20
10.5788601194
 10
49.6684527015
 20
10.7204289564
 10
49.7137123481
 20
10.8663860091
 10
49.7687409509
 20
11.013930528
 10
49.834120755
 20
11.163564604
 10
49.9092695154
 20
11.3147860532
 10
49.994212062
 20
11.4632878479
 10
50.0894879718
 20
11.6088562395
 10
50.1945576679
 20
11.7517050602
 10
50.3078272495
 20
11.8881688087
 10
50.4294129157
 20
12.0176840734
 10
50.5591984676
 20
12.1408144883
 10
50.6952414071
 20
12.2555852203
 10
50.8373995934
 20
12.361620786
 10
50.9858151674
 20
12.4592969249
 10
51.1389720544
 20
12.5477656737
 10
51.2968598461
 20
12.6269420066
 10
51.4594889508
 20
12.6969111706
 10
51.6253745179
 20
12.7570806142
 10
51.7946238986
 20
12.8073951083
 10
51.9671297418
 20
12.8479100416
 10
52.1410851439
 20
12.8781987775
 10
52.3164661905
 20
12.8981540614
 10
52.4932967961
 20
12.9078832251
 10
52.6698417998
 20
12.9072814912
 10
52.8460431972
 20
12.896283421
 10
53.0219589928
 20
12.874954435
 10
53.1960280394
 20
12.8433860215
 10
53.3684319533
 20
12.8014199792
 10
53.5389891181
 20
12.7492143965
 10
53.7055935371
 20
12.6873351774
 10
53.8684434856
 20
12.6153629588
 10
54.0273406883
 20
12.5337169123
 10
54.1795843226
 20
12.44422075
 10
54.3249383321
 20
12.3464830947
 10
54.4636387731
 20
12.2408951139
 10
54.5936929921
 20
12.1304543934
 10
54.7145912628
 20
12.0151049874
 10
54.8268433114
 20
11.8949026981
 10
54.9299856632
 20
11.7730128279
 10
55.0236044461
 20
11.6496403043
  0
LWPOLYLINE
  5
3A5
100
AcDbEntity
  8
RACCORDO
100
AcDbPolyline
 62
250
  6
CONTINUOUS
 90
66
 70
0
 10
50.3411546586
 20
8.324920068
 10
50.2925140337
 20
8.3969750288
 10
50.2459467132
 20
8.4709677146
 10
50.2015409308
 20
8.5468468313
 10
50.1592967967
 20
8.6247247142
 10
50.1193994672
 20
8.7043799189
 10
50.082163652
 20
8.7852295012
 10
50.0476731752
 20
8.8670577414
 10
50.0158991501
 20
8.9498968328
 10
49.986918297
 20
9.0335039945
 10
49.9608087262
 20
9.1175470443
 10
49.9374915927
 20
9.2021622595
 10
49.9168426818
 20
9.2878195636
 10
49.8989692689
 20
9.374156529
 10
49.8838514236
 20
9.4613653164
 10
49.8713629147
 20
9.5507823922
 10
49.8617048577
 20
9.6421954647
 10
49.855045907
 20
9.7356557555
 10
49.8515428758
 20
9.83291447
 10
49.8515916927
 20
9.9339975627
 10
49.8556037456
 20
10.0386279248
 10
49.8641315628
 20
10.1480656451
 10
49.877816384
 20
10.2623966223
 10
49.8972536288
 20
10.3810233227
 10
49.9231794616
 20
10.5040827629
 10
49.9564179234
 20
10.6315917651
 10
49.9975873437
 20
10.7625964417
 10
50.0470551532
 20
10.8956917027
 10
50.1055460241
 20
11.0306332456
 10
50.1734496046
 20
11.1663336844
 10
50.2501456774
 20
11.3002119535
 10
50.335733637
 20
11.4315777961
 10
50.4303230667
 20
11.5598000454
 10
50.5326493029
 20
11.682703317
 10
50.6421778016
 20
11.7995342429
 10
50.7588326668
 20
11.9101072073
 10
50.8816087705
 20
12.0134309075
 10
51.0097909931
 20
12.1090008649
 10
51.1431433521
 20
12.1967336316
 10
51.2812605653
 20
12.2764092778
 10
51.4236204828
 20
12.3477652828
 10
51.5697520121
 20
12.4106028334
 10
51.7193310482
 20
12.464797128
 10
51.871925144
 20
12.5101792846
 10
52.0269381719
 20
12.5465598826
 10
52.183796918
 20
12.5738039621
 10
52.3419271616
 20
12.5918182279
 10
52.5008230729
 20
12.6005512563
 10
52.6600067196
 20
12.5999740607
 10
52.8188756988
 20
12.5900853135
 10
52.9769430073
 20
12.5709116524
 10
53.1338994564
 20
12.5424606018
 10
53.2893734416
 20
12.5047316536
 10
53.4426335655
 20
12.457833231
 10
53.5928432696
 20
12.4019964973
 10
53.7397808205
 20
12.3372773443
 10
53.8826231568
 20
12.2640107717
 10
54.0197719001
 20
12.1831496522
 10
54.1509484005
 20
12.0951194945
 10
54.2757600121
 20
12.0004522603
 10
54.3927634133
 20
11.9006976615
 10
54.5017890819
 20
11.7966636226
 10
54.6029605456
 20
11.688916587
 10
54.6956443013
 20
11.5789469604
 10
54.7799480639
 20
11.4676312551
 10
54.8562702332
 20
11.3554855276
  0
LWPOLYLINE
  5
3A6
100
AcDbEntity
  8
RACCORDO
100
AcDbPolyline
 62
7
  6
CONTINUOUS
 90
22
 70
0
 10
50.3775764864
 20
8.3080802529
 10
50.3945945225
 20
8.2813584453
 10
50.4085631946
 20
8.2536754661
 10
50.4194825027
 20
8.2250313154
 10
50.4274138677
 20
8.1951491021
 10
50.4322958687
 20
8.1643057172
 10
50.4339442428
 20
8.133331834
 10
50.4322911507
 20
8.1021685338
 10
50.4274044317
 20
8.0708747354
 10
50.419303341
 20
8.0404578677
 10
50.4077929104
 20
8.0108519242
 10
50.3930681082
 20
7.9821229114
 10
50.3757330938
 20
7.9554762783
 10
50.3557005551
 20
7.9310975905
 10
50.3330578042
 20
7.9088012824
 10
50.3086709371
 20
7.8892361062
 10
50.2825881544
 20
7.8725202002
 10
50.2547612556
 20
7.8585354261
 10
50.2259117348
 20
7.8475761217
 10
50.1962800901
 20
7.8397403996
 10
50.1656258235
 20
7.8349301471
 10
50.133948935
 20
7.8331453642
  0
LWPOLYLINE
  5
3A7
100
AcDbEntity
  8
0
100
AcDbPolyline
 62
7
  6
CONTINUOUS
 90
10
 70
0
 43
0.3500000087
 10
37.5419875488
 20
35.1331454346
 10
37.6134149719
 20
34.9902863251
 10
37.6134149719
 20
34.918858902
 10
37.4705601257
 20
34.7760040558
 10
37.3991284393
 20
34.7760040558
 10
37.3277010162
 20
34.8474314789
 10
37.3277010162
 20
34.918858902
 10
37.3991284393
 20
35.0617180115
 10
37.4705601257
 20
35.1331454346
 10
37.5419875488
 20
35.1331454346
  0
LINE
  5
3A8
100
AcDbEntity
  8
RACCORDO
100
AcDbLine
 62
250
  6
CONTINUOUS
 10
55.045816861
 20
-7.3914566811
 11
55.045816861
 21
-7.0868376113
  0
LINE
  5
3A9
100
AcDbEntity
  8
RACCORDO
100
AcDbLine
 62
250
  6
CONTINUOUS
 10
55.045816861
 20
7.8531283397
 11
55.045816861
 21
8.1577474095
  0
LINE
  5
3AA
100
AcDbEntity
  8
SUPERFICI
100
AcDbLine
 62
7
  6
CONTINUOUS
 10
55.5007381908
 20
-22.0168546358
 11
55.5007381908
 21
-22.1168546358
  0
LINE
  5
3AB
100
AcDbEntity
  8
SUPERFICI
100
AcDbLine
 62
7
  6
CONTINUOUS
 10
55.5007381908
 20
22.7831453642
 11
55.5007381908
 21
22.8831453642
  0
LINE
  5
3AC
100
AcDbEntity
  8
RACCORDO
100
AcDbLine
 62
7
  6
CONTINUOUS
 10
56.9455584505
 20
-4.8668546358
 11
56.9661182742
 21
-4.8462948121
  0
LINE
  5
3AD
100
AcDbEntity
  8
RACCORDO
100
AcDbLine
 62
7
  6
CONTINUOUS
 10
57.1920080572
 20
-4.6232991361
 11
57.2476378153
 21
-4.5675964844
  0
LINE
  5
3AE
100
AcDbEntity
  8
RACCORDO
100
AcDbLine
 62
7
  6
CONTINUOUS
 10
57.2476378153
 20
-4.5675964844
 11
57.2661258159
 21
-4.5492467056
  0
LINE
  5
3AF
100
AcDbEntity
  8
RACCORDO
100
AcDbLine
 62
7
  6
CONTINUOUS
 10
57.0845430009
 20
-4.7302497772
 11
57.1920080572
 21
-4.6232991361
  0
LINE
  5
3B0
100
AcDbEntity
  8
RACCORDO
100
AcDbLine
 62
7
  6
CONTINUOUS
 10
57.0680759709
 20
-4.7464872538
 11
57.0845430009
 21
-4.7302497772
  0
LWPOLYLINE
  5
3B1
100
AcDbEntity
  8
RACCORDO
100
AcDbPolyline
 62
7
  6
CONTINUOUS
 90
3
 70
0
 10
57.0233294409
 20
-4.7907027919
 10
57.0374691909
 20
-4.7768742387
 10
57.0680759709
 20
-4.7464872538
  0
LWPOLYLINE
  5
3B2
100
AcDbEntity
  8
RACCORDO
100
AcDbPolyline
 62
7
  6
CONTINUOUS
 90
7
 70
0
 10
67.1414417682
 20
3.0540286819
 10
67.1437375731
 20
3.0559554521
 10
67.14800745
 20
3.0604882883
 10
67.154251399
 20
3.0673055743
 10
67.1627019008
 20
3.0760484853
 10
67.1731264746
 20
3.0864226581
 10
67.1977260468
 20
3.1113976757
  0
LWPOLYLINE
  5
3B3
100
AcDbEntity
  8
RACCORDO
100
AcDbPolyline
 62
250
  6
CONTINUOUS
 90
9
 70
0
 10
55.045816861
 20
8.1577474095
 10
55.020917272
 20
8.1757250689
 10
54.9958370938
 20
8.1930554122
 10
54.9710508369
 20
8.2097451026
 10
54.9473629197
 20
8.2261251483
 10
54.9249289737
 20
8.2419245844
 10
54.9033620711
 20
8.2563797012
 10
54.883508155
 20
8.2699903927
 10
54.8657061172
 20
8.2826739931
  0
LWPOLYLINE
  5
3B4
100
AcDbEntity
  8
RACCORDO
100
AcDbPolyline
 62
7
  6
CONTINUOUS
 90
6
 70
0
 10
67.1414417682
 20
-2.2877379535
 10
67.1437676289
 20
-2.2896793578
 10
67.148064931
 20
-2.2942436756
 10
67.1543336746
 20
-2.3010986731
 10
67.1628101683
 20
-2.3098737104
 10
67.1732581036
 20
-2.3202670134
  0
LWPOLYLINE
  5
3B5
100
AcDbEntity
  8
RACCORDO
100
AcDbPolyline
 62
7
  6
CONTINUOUS
 90
3
 70
0
 10
56.1734279158
 20
5.5816543419
 10
56.1980928478
 20
5.5572317268
 10
56.2122771787
 20
5.5433579806
  0
LINE
  5
3B6
100
AcDbEntity
  8
RACCORDO
100
AcDbLine
 62
7
  6
CONTINUOUS
 10
56.2122771787
 20
5.5433579806
 11
56.3121611216
 21
5.4442441484
  0
LINE
  5
3B7
100
AcDbEntity
  8
RACCORDO
100
AcDbLine
 62
7
  6
CONTINUOUS
 10
56.1411182742
 20
5.6125855405
 11
56.1205584505
 21
5.6331453642
  0
LINE
  5
3B8
100
AcDbEntity
  8
RACCORDO
100
AcDbLine
 62
7
  6
CONTINUOUS
 10
56.3121611216
 20
5.4442441484
 11
56.4411258159
 21
5.3155374341
  0
LINE
  5
3B9
100
AcDbEntity
  8
RACCORDO
100
AcDbLine
 62
250
  6
CONTINUOUS
 10
56.1406212544
 20
7.8532081681
 11
56.1411182742
 21
5.6125855405
  0
LINE
  5
3BA
100
AcDbEntity
  8
RACCORDO
100
AcDbLine
 62
250
  6
CONTINUOUS
 10
56.4404957346
 20
8.1577474095
 11
56.4411258159
 21
5.3155374341
  0
LINE
  5
3BB
100
AcDbEntity
  8
DRAFT
100
AcDbLine
 62
7
  6
CONTINUOUS
 10
56.1205584505
 20
5.6331453642
 11
56.1205584505
 21
7.8331453642
  0
LINE
  5
3BC
100
AcDbEntity
  8
DRAFT
100
AcDbLine
 62
7
  6
CONTINUOUS
 10
56.9455584505
 20
-7.0668546358
 11
56.9455584505
 21
-4.8668546358
  0
LINE
  5
3BD
100
AcDbEntity
  8
RACCORDO
100
AcDbLine
 62
250
  6
CONTINUOUS
 10
56.9661182742
 20
-4.8462948121
 11
56.9656212544
 21
-7.0869174396
  0
LINE
  5
3BE
100
AcDbEntity
  8
RACCORDO
100
AcDbLine
 62
250
  6
CONTINUOUS
 10
57.2661258159
 20
-4.5492467056
 11
57.2654957346
 21
-7.3914566811
  0
LINE
  5
3BF
100
AcDbEntity
  8
SUPERFICI
100
AcDbLine
 62
7
  6
CONTINUOUS
 10
62.4072140869
 20
22.8831453642
 11
62.3856861735
 21
22.7831453642
  0
LWPOLYLINE
  5
3C0
100
AcDbEntity
  8
RACCORDO
100
AcDbPolyline
 62
250
  6
CONTINUOUS
 90
6
 70
0
 10
54.799962608
 20
-7.5586298479
 10
54.8012172631
 20
-7.5565053147
 10
54.8059817669
 20
-7.5540343582
 10
54.8135687578
 20
-7.5505383094
 10
54.8230919953
 20
-7.544644188
 10
54.8346815172
 20
-7.5362752583
  0
LINE
  5
3C1
100
AcDbEntity
  8
RACCORDO
100
AcDbLine
 62
7
  6
CONTINUOUS
 10
67.1205584505
 20
3.0331453642
 11
67.1414713221
 21
3.0540582358
  0
LINE
  5
3C2
100
AcDbEntity
  8
RACCORDO
100
AcDbLine
 62
7
  6
CONTINUOUS
 10
67.2426589774
 20
3.156594839
 11
67.4229866647
 21
3.3374827704
  0
LWPOLYLINE
  5
3C3
100
AcDbEntity
  8
RACCORDO
100
AcDbPolyline
 62
7
  6
CONTINUOUS
 90
3
 70
0
 10
67.1977260468
 20
3.1113976757
 10
67.211901045
 20
3.1255480443
 10
67.2426589774
 20
3.156594839
  0
LINE
  5
3C4
100
AcDbEntity
  8
RACCORDO
100
AcDbLine
 62
7
  6
CONTINUOUS
 10
67.4229866647
 20
3.3374827704
 11
67.4413960768
 21
3.3557665632
  0
LINE
  5
3C5
100
AcDbEntity
  8
SUPERFICI
100
AcDbLine
 62
250
  6
CONTINUOUS
 10
3.4054820929
 20
21.4012351336
 11
69.4710935131
 21
21.4014595951
  0
LINE
  5
3C6
100
AcDbEntity
  8
SUPERFICI
100
AcDbLine
 62
250
  6
CONTINUOUS
 10
3.4617603338
 20
22.3580525014
 11
69.4793565672
 21
22.3580525014
  0
LWPOLYLINE
  5
3C7
100
AcDbEntity
  8
SUPERFICI
100
AcDbPolyline
 62
250
  6
CONTINUOUS
 90
13
 70
0
 10
69.4710935132
 20
21.4014576584
 10
69.5356341012
 20
21.4012344896
 10
69.599094807
 20
21.4006633952
 10
69.6604138093
 20
21.3997539308
 10
69.7185651219
 20
21.3985213137
 10
69.7725757602
 20
21.3969861684
 10
69.821542021
 20
21.3951741811
 10
69.8646446035
 20
21.3931156701
 10
69.9011623177
 20
21.3908450784
 10
69.930484151
 20
21.3884003973
 10
69.9521194923
 20
21.3858225312
 10
69.9657063401
 20
21.3831546126
 10
69.97101736
 20
21.3804412809
  0
LINE
  5
3C8
100
AcDbEntity
  8
RACCORDO
100
AcDbLine
 62
7
  6
CONTINUOUS
 10
67.4228902965
 20
-2.5710954873
 11
67.4413960768
 21
-2.5894758347
  0
LINE
  5
3C9
100
AcDbEntity
  8
RACCORDO
100
AcDbLine
 62
7
  6
CONTINUOUS
 10
67.1414713221
 20
-2.2877675074
 11
67.1205584505
 21
-2.2668546358
  0
LINE
  5
3CA
100
AcDbEntity
  8
RACCORDO
100
AcDbLine
 62
7
  6
CONTINUOUS
 10
67.2426864194
 20
-2.3903322801
 11
67.4228902965
 21
-2.5710954873
  0
LINE
  5
3CB
100
AcDbEntity
  8
RACCORDO
100
AcDbLine
 62
7
  6
CONTINUOUS
 10
67.2120071492
 20
-2.3593660523
 11
67.2426864194
 21
-2.3903322801
  0
LWPOLYLINE
  5
3CC
100
AcDbEntity
  8
RACCORDO
100
AcDbPolyline
 62
7
  6
CONTINUOUS
 90
3
 70
0
 10
67.1732581036
 20
-2.3202670134
 10
67.197856594
 20
-2.3452413861
 10
67.2120071492
 20
-2.3593660523
  0
LWPOLYLINE
  5
3CD
100
AcDbEntity
  8
RACCORDO
100
AcDbPolyline
 62
250
  6
CONTINUOUS
 90
36
 70
0
 10
55.0236044461
 20
11.6496403043
 10
55.1081135322
 20
11.5245801603
 10
55.1842910623
 20
11.4003829516
 10
55.251908548
 20
11.2774069723
 10
55.3111944778
 20
11.1552939756
 10
55.3636124585
 20
11.0355197711
 10
55.4091232609
 20
10.9184870681
 10
55.4477661142
 20
10.8037932454
 10
55.4811223129
 20
10.6917061424
 10
55.5093056184
 20
10.5825310504
 10
55.5322022694
 20
10.4759627631
 10
55.5510522752
 20
10.3713533659
 10
55.5660398355
 20
10.2688297193
 10
55.5769807508
 20
10.1682650214
 10
55.5845624323
 20
10.0686308416
 10
55.5889520706
 20
9.9698311848
 10
55.5899824753
 20
9.8719620747
 10
55.5878394852
 20
9.7742830874
 10
55.5825931049
 20
9.6765460193
 10
55.57417333
 20
9.5789990839
 10
55.5625559866
 20
9.481646475
 10
55.5477038791
 20
9.3842864339
 10
55.5296542033
 20
9.2871207294
 10
55.5084943728
 20
9.1907588525
 10
55.484154464
 20
9.0951648209
 10
55.4567044006
 20
9.0003746401
 10
55.4264413672
 20
8.907105796
 10
55.3933062045
 20
8.8153938425
 10
55.3573580718
 20
8.7252032611
 10
55.319071632
 20
8.6371449405
 10
55.2784298142
 20
8.5513131932
 10
55.2354496894
 20
8.4676137492
 10
55.1906571335
 20
8.3863746308
 10
55.1442274386
 20
8.3077051938
 10
55.0959853126
 20
8.2314961248
 10
55.0459307556
 20
8.1577474434
  0
LWPOLYLINE
  5
3CE
100
AcDbEntity
  8
RACCORDO
100
AcDbPolyline
 62
250
  6
CONTINUOUS
 90
35
 70
0
 10
54.8562702332
 20
11.3554855276
 10
54.9246667335
 20
11.2435494722
 10
54.9854330751
 20
11.1326097769
 10
55.0390998487
 20
11.0230291692
 10
55.0861538443
 20
10.9151604386
 10
55.1269494736
 20
10.8096309547
 10
55.1620094567
 20
10.7066259227
 10
55.1919776101
 20
10.6057245282
 10
55.2171707965
 20
10.5073365707
 10
55.237983069
 20
10.4115605092
 10
55.2549572584
 20
10.3174022365
 10
55.2683107189
 20
10.2250548468
 10
55.2782720232
 20
10.1346294591
 10
55.285141909
 20
10.0449407541
 10
55.2890171183
 20
9.9559759287
 10
55.2899826812
 20
9.8679531134
 10
55.2881008352
 20
9.7800079914
 10
55.2833638514
 20
9.6920064494
 10
55.275784012
 20
9.6042671924
 10
55.2653378512
 20
9.5166056367
 10
55.2519849003
 20
9.4289352803
 10
55.2357373387
 20
9.3415355538
 10
55.2166547558
 20
9.2547696483
 10
55.194750458
 20
9.1686826711
 10
55.170062878
 20
9.0834121489
 10
55.1427592144
 20
8.999442083
 10
55.1129137891
 20
8.9168507983
 10
55.0805997668
 20
8.83570469
 10
55.0460604141
 20
8.7564385916
 10
55.0094331342
 20
8.6791510949
 10
54.970806894
 20
8.6038297815
 10
54.9304069139
 20
8.5307104227
 10
54.8884011162
 20
8.4598781667
 10
54.8448786197
 20
8.3912787261
 10
54.799962302
 20
8.3249200961
  0
LINE
  5
3CF
100
AcDbEntity
  8
SUPERFICI
100
AcDbLine
 62
7
  6
CONTINUOUS
 10
62.4072140869
 20
-22.1168546358
 11
62.3856861735
 21
-22.0168546358
  0
LINE
  5
3D0
100
AcDbEntity
  8
SUPERFICI
100
AcDbLine
 62
7
  6
CONTINUOUS
 10
55.5339028142
 20
-22.1168546358
 11
55.5554307276
 21
-22.0168546358
  0
LINE
  5
3D1
100
AcDbEntity
  8
SUPERFICI
100
AcDbLine
 62
250
  6
CONTINUOUS
 10
69.4793565672
 20
22.3580525014
 11
69.6209390503
 21
22.7831453642
  0
LINE
  5
3D2
100
AcDbEntity
  8
SUPERFICI
100
AcDbLine
 62
7
  6
CONTINUOUS
 10
3.3201778508
 20
22.7831453642
 11
10.6705584505
 21
22.7831453642
  0
LINE
  5
3D3
100
AcDbEntity
  8
SUPERFICI
100
AcDbLine
 62
7
  6
CONTINUOUS
 10
17.2705584505
 20
22.7831453642
 11
55.6705584505
 21
22.7831453642
  0
LINE
  5
3D4
100
AcDbEntity
  8
SUPERFICI
100
AcDbLine
 62
7
  6
CONTINUOUS
 10
62.2705584505
 20
22.7831453642
 11
69.6209390503
 21
22.7831453642
  0
LINE
  5
3D5
100
AcDbEntity
  8
SUPERFICI
100
AcDbLine
 62
7
  6
CONTINUOUS
 10
10.5007381908
 20
22.8831453642
 11
17.4403787102
 21
22.8831453642
  0
LINE
  5
3D6
100
AcDbEntity
  8
SUPERFICI
100
AcDbLine
 62
7
  6
CONTINUOUS
 10
55.5007381908
 20
22.8831453642
 11
62.4403787102
 21
22.8831453642
  0
LINE
  5
3D7
100
AcDbEntity
  8
SUPERFICI
100
AcDbLine
 62
7
  6
CONTINUOUS
 10
62.6454159287
 20
23.8831453642
 11
55.2957009724
 21
23.8831453642
  0
LINE
  5
3D8
100
AcDbEntity
  8
SUPERFICI
100
AcDbLine
 62
7
  6
CONTINUOUS
 10
17.6454159287
 20
23.8831453642
 11
10.2957009724
 21
23.8831453642
  0
LWPOLYLINE
  5
3D9
100
AcDbEntity
  8
SUPERFICI
100
AcDbPolyline
 62
7
  6
CONTINUOUS
 90
10
 70
0
 10
17.6454159287
 20
23.8831453642
 10
17.7103003526
 20
23.88109038
 10
17.774655651
 20
23.8748180843
 10
17.8384818241
 20
23.864328477
 10
17.9022316906
 20
23.8494853461
 10
17.9654524317
 20
23.8304249035
 10
18.0267855908
 20
23.8075557862
 10
18.0857783493
 20
23.7810142062
 10
18.1428835257
 20
23.7506639514
 10
18.1981011203
 20
23.7165050217
  0
LWPOLYLINE
  5
3DA
100
AcDbEntity
  8
SUPERFICI
100
AcDbPolyline
 62
7
  6
CONTINUOUS
 90
10
 70
0
 10
62.6454159287
 20
23.8831453642
 10
62.7103003526
 20
23.88109038
 10
62.774655651
 20
23.8748180843
 10
62.8384818241
 20
23.864328477
 10
62.9022316906
 20
23.8494853461
 10
62.9654524317
 20
23.8304249035
 10
63.0267855908
 20
23.8075557862
 10
63.0857783493
 20
23.7810142062
 10
63.1428835257
 20
23.7506639514
 10
63.1981011203
 20
23.7165050217
  0
LWPOLYLINE
  5
3DB
100
AcDbEntity
  8
SUPERFICI
100
AcDbPolyline
 62
250
  6
CONTINUOUS
 90
13
 70
0
 10
69.4793565672
 20
22.3580525014
 10
69.5445720243
 20
22.3537262591
 10
69.6086729222
 20
22.3409404584
 10
69.6705637502
 20
22.3199136142
 10
69.7291867683
 20
22.2910050838
 10
69.7835400851
 20
22.254708926
 10
69.8326947799
 20
22.2116454571
 10
69.8758107788
 20
22.1625506496
 10
69.9121512116
 20
22.108263554
 10
69.9410950052
 20
22.0497119592
 10
69.9621474984
 20
21.9878965361
 10
69.9749488953
 20
21.9238737356
 10
69.9792804148
 20
21.858737734
  0
LINE
  5
3DC
100
AcDbEntity
  8
SUPERFICI
100
AcDbLine
 62
250
  6
CONTINUOUS
 10
69.6209390503
 20
-22.0168546358
 11
69.4793565672
 21
-21.591761773
  0
LINE
  5
3DD
100
AcDbEntity
  8
SUPERFICI
100
AcDbLine
 62
7
  6
CONTINUOUS
 10
55.5339028142
 20
22.8831453642
 11
55.5554307276
 21
22.7831453642
  0
LINE
  5
3DE
100
AcDbEntity
  8
SUPERFICI
100
AcDbLine
 62
7
  6
CONTINUOUS
 10
62.4403787102
 20
22.8831453642
 11
62.4403787102
 21
22.7831453642
  0
LINE
  5
3DF
100
AcDbEntity
  8
SUPERFICI
100
AcDbLine
 62
7
  6
CONTINUOUS
 10
62.4403787102
 20
-22.1168546358
 11
62.4403787102
 21
-22.0168546358
  0
LINE
  5
3E0
100
AcDbEntity
  8
0
100
AcDbLine
 62
7
  6
CONTINUOUS
 10
62.5705584505
 20
1.573957055
 11
62.5705584505
 21
1.0789823082
  0
LINE
  5
3E1
100
AcDbEntity
  8
0
100
AcDbLine
 62
7
  6
CONTINUOUS
 10
62.5705584505
 20
-0.8076663266
 11
62.5705584505
 21
-0.3126915798
  0
LINE
  5
3E2
100
AcDbEntity
  8
0
100
AcDbLine
 62
7
  6
CONTINUOUS
 10
62.5705584505
 20
-0.3126915798
 11
62.5705584505
 21
0.3331032179
  0
LINE
  5
3E3
100
AcDbEntity
  8
0
100
AcDbLine
 62
7
  6
CONTINUOUS
 10
62.5705584505
 20
0.4331875105
 11
62.5705584505
 21
1.0789823082
  0
LINE
  5
3E4
100
AcDbEntity
  8
0
100
AcDbLine
 62
7
  6
CONTINUOUS
 10
64.0705584505
 20
2.6346172268
 11
64.0705584505
 21
2.13964248
  0
LINE
  5
3E5
100
AcDbEntity
  8
0
100
AcDbLine
 62
7
  6
CONTINUOUS
 10
64.0705584505
 20
-1.8683264984
 11
64.0705584505
 21
-1.3733517515
  0
LINE
  5
3E6
100
AcDbEntity
  8
SUPERFICI
100
AcDbLine
 62
250
  6
CONTINUOUS
 10
69.9792804148
 20
21.858737734
 11
70.1205584505
 21
22.2829165121
  0
LINE
  5
3E7
100
AcDbEntity
  8
SUPERFICI
100
AcDbLine
 62
250
  6
CONTINUOUS
 10
70.1205584505
 20
-21.5166257837
 11
69.9792804148
 21
-21.0924470056
  0
LINE
  5
3E8
100
AcDbEntity
  8
RACCORDO
100
AcDbLine
 62
250
  6
CONTINUOUS
 10
64.4705584505
 20
-2.5894758347
 11
64.4705584505
 21
-2.2668546358
  0
LINE
  5
3E9
100
AcDbEntity
  8
RACCORDO
100
AcDbLine
 62
250
  6
CONTINUOUS
 10
64.4705584505
 20
3.3557665632
 11
64.4705584505
 21
3.0331453642
  0
LINE
  5
3EA
100
AcDbEntity
  8
SUPERFICI
100
AcDbLine
 62
7
  6
CONTINUOUS
 10
62.3339028142
 20
-22.1168546358
 11
62.3554307276
 21
-22.0168546358
  0
LINE
  5
3EB
100
AcDbEntity
  8
SUPERFICI
100
AcDbLine
 62
7
  6
CONTINUOUS
 10
62.3339028142
 20
22.8831453642
 11
62.3554307276
 21
22.7831453642
  0
LWPOLYLINE
  5
3EC
100
AcDbEntity
  8
SUPERFICI
100
AcDbPolyline
 62
250
  6
CONTINUOUS
 90
7
 70
0
 10
69.9792804148
 20
-21.0924470056
 10
69.9784161606
 20
-21.0872896677
 10
69.9775793096
 20
-21.0775882662
 10
69.9767698619
 20
-21.0633428012
 10
69.9759801101
 20
-21.0443255053
 10
69.9752177616
 20
-21.0207641459
 10
69.9745059384
 20
-20.9933420248
  0
LWPOLYLINE
  5
3ED
100
AcDbEntity
  8
SUPERFICI
100
AcDbPolyline
 62
250
  6
CONTINUOUS
 90
5
 70
0
 10
69.4793565672
 20
-21.591761773
 10
69.4784889282
 20
-21.5817821801
 10
69.4776499608
 20
-21.5622298879
 10
69.476839665
 20
-21.5332961832
 10
69.4760508038
 20
-21.4952633758
  0
LWPOLYLINE
  5
3EE
100
AcDbEntity
  8
SUPERFICI
100
AcDbPolyline
 62
250
  6
CONTINUOUS
 90
3
 70
0
 10
69.9745059384
 20
-20.9933420248
 10
69.9732376875
 20
-20.9266995164
 10
69.9726967427
 20
-20.8885943939
  0
LINE
  5
3EF
100
AcDbEntity
  8
SUPERFICI
100
AcDbLine
 62
250
  6
CONTINUOUS
 10
69.4760508038
 20
-21.4952633758
 11
69.4745808071
 21
-21.393463253
  0
LINE
  5
3F0
100
AcDbEntity
  8
SUPERFICI
100
AcDbLine
 62
250
  6
CONTINUOUS
 10
69.4745808071
 20
-21.393463253
 11
69.4727753911
 21
-21.1843979426
  0
LINE
  5
3F1
100
AcDbEntity
  8
SUPERFICI
100
AcDbLine
 62
250
  6
CONTINUOUS
 10
69.4727753911
 20
-21.1843979426
 11
69.4715779261
 21
-20.9241333812
  0
LWPOLYLINE
  5
3F2
100
AcDbEntity
  8
SUPERFICI
100
AcDbPolyline
 62
250
  6
CONTINUOUS
 90
9
 70
0
 10
69.4715779261
 20
-20.9241333812
 10
69.4680488967
 20
-15.9663356906
 10
69.4657654345
 20
-11.2960750504
 10
69.4642431263
 20
-6.624794725
 10
69.4634819722
 20
-1.9529026313
 10
69.4634819722
 20
2.7191933585
 10
69.4642431262
 20
7.3910854524
 10
69.4657654344
 20
12.062365778
 10
69.4680488967
 20
16.7326264186
  0
LINE
  5
3F3
100
AcDbEntity
  8
DRAFT
100
AcDbLine
 62
7
  6
CONTINUOUS
 10
67.1205584505
 20
-2.2668546358
 11
67.1205584505
 21
3.0331453642
  0
LINE
  5
3F4
100
AcDbEntity
  8
RACCORDO
100
AcDbLine
 62
250
  6
CONTINUOUS
 10
67.1414713221
 20
3.0540582358
 11
67.1414713221
 21
-2.2877675074
  0
LINE
  5
3F5
100
AcDbEntity
  8
RACCORDO
100
AcDbLine
 62
250
  6
CONTINUOUS
 10
67.4413960768
 20
3.3557665632
 11
67.4413960768
 21
-2.5894758347
  0
LINE
  5
3F6
100
AcDbEntity
  8
SUPERFICI
100
AcDbLine
 62
250
  6
CONTINUOUS
 10
69.4680488967
 20
16.7326264186
 11
69.4715779261
 21
21.6904241097
  0
LINE
  5
3F7
100
AcDbEntity
  8
SUPERFICI
100
AcDbLine
 62
250
  6
CONTINUOUS
 10
69.4715779261
 20
21.6904241097
 11
69.4727753911
 21
21.950688671
  0
LINE
  5
3F8
100
AcDbEntity
  8
SUPERFICI
100
AcDbLine
 62
250
  6
CONTINUOUS
 10
69.4727753911
 20
21.950688671
 11
69.4745808071
 21
22.1597539814
  0
LWPOLYLINE
  5
3F9
100
AcDbEntity
  8
SUPERFICI
100
AcDbPolyline
 62
250
  6
CONTINUOUS
 90
6
 70
0
 10
69.4745808071
 20
22.1597539814
 10
69.4760508038
 20
22.2615541042
 10
69.476839665
 20
22.2995869116
 10
69.4776499608
 20
22.3285206164
 10
69.4784889282
 20
22.3480729085
 10
69.4793565672
 20
22.3580525014
  0
LWPOLYLINE
  5
3FA
100
AcDbEntity
  8
SUPERFICI
100
AcDbPolyline
 62
250
  6
CONTINUOUS
 90
9
 70
0
 10
69.9726967427
 20
21.6548851223
 10
69.9738465503
 20
21.7282418798
 10
69.9745059384
 20
21.7596327532
 10
69.9752177616
 20
21.7870548743
 10
69.9759801101
 20
21.8106162338
 10
69.9767698619
 20
21.8296335298
 10
69.9775793096
 20
21.8438789948
 10
69.9784161606
 20
21.8535803962
 10
69.9792804148
 20
21.858737734
  0
LINE
  5
3FB
100
AcDbEntity
  8
SUPERFICI
100
AcDbLine
 62
250
  6
CONTINUOUS
 10
69.9726967427
 20
-20.8885943939
 11
69.9714988087
 21
-20.7581653749
  0
LINE
  5
3FC
100
AcDbEntity
  8
SUPERFICI
100
AcDbLine
 62
250
  6
CONTINUOUS
 10
69.9714988087
 20
-20.7581653749
 11
69.9710173606
 21
-20.6141505525
  0
LWPOLYLINE
  5
3FD
100
AcDbEntity
  8
SUPERFICI
100
AcDbPolyline
 62
250
  6
CONTINUOUS
 90
9
 70
0
 10
69.9710173606
 20
-20.6141505525
 10
69.9679727463
 20
-15.9493211059
 10
69.9656892857
 20
-11.2838731792
 10
69.9641669788
 20
-6.6178067723
 10
69.9634058257
 20
-1.9507093492
 10
69.9634058263
 20
2.7170065541
 10
69.9641669801
 20
7.3841033295
 10
69.9656892871
 20
12.0501684412
 10
69.9679727472
 20
16.7156144249
  0
LINE
  5
3FE
100
AcDbEntity
  8
SUPERFICI
100
AcDbLine
 62
7
  6
CONTINUOUS
 10
70.1205584505
 20
22.2829165121
 11
70.1205584505
 21
-21.5166257837
  0
LINE
  5
3FF
100
AcDbEntity
  8
SUPERFICI
100
AcDbLine
 62
250
  6
CONTINUOUS
 10
69.9679727472
 20
16.7156144249
 11
69.9712587164
 21
21.4779606961
  0
LWPOLYLINE
  5
400
100
AcDbEntity
  8
SUPERFICI
100
AcDbPolyline
 62
250
  6
CONTINUOUS
 90
3
 70
0
 10
69.9712587164
 20
21.4779606961
 10
69.9722256162
 20
21.6138142856
 10
69.9726967427
 20
21.6548851223
  0
LINE
  5
401
100
AcDbEntity
  8
0
100
AcDbLine
 62
7
  6
CONTINUOUS
 10
62.2705584505
 20
-22.0168546358
 11
62.2039256529
 21
-22.1168546358
  0
LWPOLYLINE
  5
402
100
AcDbEntity
  8
0
100
AcDbPolyline
 62
7
  6
CONTINUOUS
 90
6
 70
0
 43
0.3500000087
 10
38.6134159485
 20
34.6331449463
 10
39.6848443481
 20
34.6331449463
 10
39.8991308807
 20
34.8474314789
 10
39.8991308807
 20
35.9188598785
 10
39.4705578156
 20
36.3474329437
 10
39.0419890137
 20
36.3474329437
  0
LINE
  5
403
100
AcDbEntity
  8
0
100
AcDbLine
 62
7
  6
CONTINUOUS
 10
62.2039256529
 20
22.8831453642
 11
62.2705584505
 21
22.7831453642
  0
LWPOLYLINE
  5
404
100
AcDbEntity
  8
0
100
AcDbPolyline
 62
7
  6
CONTINUOUS
 90
3
 70
0
 43
0.3500000087
 10
78.7277030762
 20
-0.4739983932
 10
78.7277030762
 20
-1.9739977264
 10
76.370555481
 20
-1.3311402603
  0
LWPOLYLINE
  5
405
100
AcDbEntity
  8
0
100
AcDbPolyline
 62
7
  6
CONTINUOUS
 90
5
 70
0
 43
0.3500000087
 10
-33.6210274612
 20
44.3474322296
 10
-33.2638839508
 20
44.5617187622
 10
-33.2638839508
 20
45.2045740967
 10
-33.6210274612
 20
45.6331471619
 10
-34.47817146
 20
45.6331471619
  0
LWPOLYLINE
  5
406
100
AcDbEntity
  8
SUPERFICI
100
AcDbPolyline
 62
250
  6
CONTINUOUS
 90
16
 70
0
 10
-48.2953739129
 20
21.3804412809
 10
-48.2907406948
 20
21.4299557554
 10
-48.2815466485
 20
21.4779606961
 10
-48.2677917739
 20
21.5244561032
 10
-48.2492528011
 20
21.5698899613
 10
-48.2261529999
 20
21.6138142856
 10
-48.1991621808
 20
21.6548851223
 10
-48.1681714721
 20
21.6929902449
 10
-48.1332897454
 20
21.7282418798
 10
-48.0955134259
 20
21.7596327532
 10
-48.0547331018
 20
21.7870548743
 10
-48.0110581851
 20
21.8106162338
 10
-47.965813336
 20
21.8296335298
 10
-47.9194401082
 20
21.8438789948
 10
-47.8714969482
 20
21.8535803962
 10
-47.8219838559
 20
21.858737734
  0
LWPOLYLINE
  5
407
100
AcDbEntity
  8
SUPERFICI
100
AcDbPolyline
 62
250
  6
CONTINUOUS
 90
10
 70
0
 10
-47.8394256308
 20
22.3580525014
 10
-47.8403372436
 20
22.3537262591
 10
-47.8407860545
 20
22.3409404584
 10
-47.8407643933
 20
22.3199136142
 10
-47.8402726298
 20
22.2910050838
 10
-47.8393191688
 20
22.254708926
 10
-47.8379203058
 20
22.2116454571
 10
-47.8360999481
 20
22.1625506496
 10
-47.8338892061
 20
22.108263554
 10
-47.8284537259
 20
21.9878965361
  0
LWPOLYLINE
  5
408
100
AcDbEntity
  8
SUPERFICI
100
AcDbPolyline
 62
250
  6
CONTINUOUS
 90
8
 70
0
 10
-47.8394256308
 20
-21.591761773
 10
-47.8403372358
 20
-21.5874352086
 10
-47.840786008
 20
-21.5746485511
 10
-47.8407642847
 20
-21.5536204877
 10
-47.8402724439
 20
-21.524710529
 10
-47.8393188997
 20
-21.4884129239
 10
-47.8379199624
 20
-21.445348262
 10
-47.8360995529
 20
-21.3962527233
  0
LWPOLYLINE
  5
409
100
AcDbEntity
  8
SUPERFICI
100
AcDbPolyline
 62
250
  6
CONTINUOUS
 90
10
 70
0
 10
-48.2953739129
 20
-20.6141505525
 10
-48.4697997497
 20
-15.9493211059
 10
-48.6006191208
 20
-11.2838731792
 10
-48.6878320263
 20
-6.6178067723
 10
-48.7314384576
 20
-1.9507093492
 10
-48.7314384233
 20
2.7170065541
 10
-48.6878319491
 20
7.3841033295
 10
-48.6006190436
 20
12.0501684412
 10
-48.4697996982
 20
16.7156144249
 10
-48.2953739129
 20
21.3804412809
  0
LINE
  5
40A
100
AcDbEntity
  8
RACCORDO
100
AcDbLine
 62
7
  6
CONTINUOUS
 10
-49.2226610124
 20
2.7303922786
 11
-49.2227623173
 21
2.7087128774
  0
LINE
  5
40B
100
AcDbEntity
  8
RACCORDO
100
AcDbLine
 62
7
  6
CONTINUOUS
 10
-49.1790174073
 20
7.393907628
 11
-49.1790928846
 21
7.3885231307
  0
LINE
  5
40C
100
AcDbEntity
  8
SUPERFICI
100
AcDbLine
 62
250
  6
CONTINUOUS
 10
-47.8284537259
 20
21.9878965361
 11
-47.8219838559
 21
21.858737734
  0
LINE
  5
40D
100
AcDbEntity
  8
SUPERFICI
100
AcDbLine
 62
250
  6
CONTINUOUS
 10
-47.8360995529
 20
-21.3962527233
 11
-47.8313254711
 21
-21.2834145124
  0
LWPOLYLINE
  5
40E
100
AcDbEntity
  8
SUPERFICI
100
AcDbPolyline
 62
250
  6
CONTINUOUS
 90
3
 70
0
 10
-47.8313254711
 20
-21.2834145124
 10
-47.8253216961
 20
-21.1575800092
 10
-47.8219838559
 20
-21.0924470056
  0
LWPOLYLINE
  5
40F
100
AcDbEntity
  8
RACCORDO
100
AcDbPolyline
 62
250
  6
CONTINUOUS
 90
10
 70
0
 10
-31.7573158129
 20
21.390863762
 10
-31.7115059168
 20
21.4080207838
 10
-31.666360523
 20
21.4203764974
 10
-31.6224296592
 20
21.4277804014
 10
-31.5802485479
 20
21.4301423131
 10
-31.5403310858
 20
21.4274334669
 10
-31.5031635824
 20
21.4196868641
 10
-31.4691988358
 20
21.4069968714
 10
-31.4388506162
 20
21.3895180713
 10
-31.4124886255
 20
21.3674633789
  0
LINE
  5
410
100
AcDbEntity
  8
SUPERFICI
100
AcDbLine
 62
7
  6
CONTINUOUS
 10
-35.7281706108
 20
-22.7167451106
 11
-37.0514612855
 21
-22.7441612641
  0
LINE
  5
411
100
AcDbEntity
  8
SUPERFICI
100
AcDbLine
 62
7
  6
CONTINUOUS
 10
-37.0514612855
 20
-22.7441612641
 11
-38.3848277226
 21
-22.7708123699
  0
LINE
  5
412
100
AcDbEntity
  8
SUPERFICI
100
AcDbLine
 62
7
  6
CONTINUOUS
 10
-38.3848277226
 20
-22.7708123699
 11
-39.7281706108
 21
-22.7967631975
  0
LINE
  5
413
100
AcDbEntity
  8
SUPERFICI
100
AcDbLine
 62
7
  6
CONTINUOUS
 10
-35.7281706108
 20
-23.0470343761
 11
-39.7281706108
 21
-23.1168546358
  0
LINE
  5
414
100
AcDbEntity
  8
SUPERFICI
100
AcDbLine
 62
250
  6
CONTINUOUS
 10
-35.7281706108
 20
-22.879961997
 11
-39.7281706108
 21
-22.9502142938
  0
LINE
  5
415
100
AcDbEntity
  8
SUPERFICI
100
AcDbLine
 62
7
  6
CONTINUOUS
 10
-37.4948009136
 20
-22.2603537967
 11
-39.7281706108
 21
-22.2800212578
  0
LINE
  5
416
100
AcDbEntity
  8
SUPERFICI
100
AcDbLine
 62
7
  6
CONTINUOUS
 10
-35.7281706108
 20
-22.2467212384
 11
-37.4948009136
 21
-22.2603537967
  0
LINE
  5
417
100
AcDbEntity
  8
SUPERFICI
100
AcDbLine
 62
7
  6
CONTINUOUS
 10
-39.7281706108
 20
-22.0168546358
 11
-47.8394256308
 21
-21.591761773
  0
LINE
  5
418
100
AcDbEntity
  8
SUPERFICI
100
AcDbLine
 62
250
  6
CONTINUOUS
 10
-39.7281706108
 20
-21.5166257837
 11
-47.8219838559
 21
-21.0924470056
  0
LWPOLYLINE
  5
419
100
AcDbEntity
  8
SUPERFICI
100
AcDbPolyline
 62
250
  6
CONTINUOUS
 90
16
 70
0
 10
-47.8219838559
 20
-21.0924470056
 10
-47.8714969481
 20
-21.0872896677
 10
-47.9194401082
 20
-21.0775882662
 10
-47.9658133359
 20
-21.0633428012
 10
-48.011058185
 20
-21.0443255053
 10
-48.0547331019
 20
-21.0207641459
 10
-48.0955134259
 20
-20.9933420248
 10
-48.1332897454
 20
-20.9619511514
 10
-48.1681714721
 20
-20.9266995164
 10
-48.1991621808
 20
-20.8885943939
 10
-48.2261529999
 20
-20.8475235572
 10
-48.2492528012
 20
-20.8035992329
 10
-48.2677917741
 20
-20.7581653749
 10
-48.2815466486
 20
-20.7116699678
 10
-48.2907406949
 20
-20.663665027
 10
-48.2953739129
 20
-20.6141505525
  0
LINE
  5
41A
100
AcDbEntity
  8
SUPERFICI
100
AcDbLine
 62
7
  6
CONTINUOUS
 10
-39.7281706108
 20
23.8831453642
 11
-39.7281706108
 21
-23.1168546358
  0
LINE
  5
41B
100
AcDbEntity
  8
RACCORDO
100
AcDbLine
 62
7
  6
CONTINUOUS
 10
-31.7573158129
 20
-20.7475431075
 11
-35.7281706108
 21
-20.8168546358
  0
LINE
  5
41C
100
AcDbEntity
  8
SUPERFICI
100
AcDbLine
 62
7
  6
CONTINUOUS
 10
-35.1876507657
 20
-20.8074198268
 11
-35.7281706108
 21
-20.8168546358
  0
LINE
  5
41D
100
AcDbEntity
  8
RACCORDO
100
AcDbLine
 62
250
  6
CONTINUOUS
 10
-31.7573753776
 20
-20.6245742013
 11
-35.7281706108
 21
-20.6941952861
  0
LINE
  5
41E
100
AcDbEntity
  8
SUPERFICI
100
AcDbLine
 62
7
  6
CONTINUOUS
 10
-33.5786751269
 20
-21.8168546358
 11
-34.1281706108
 21
-21.8168546358
  0
LWPOLYLINE
  5
41F
100
AcDbEntity
  8
0
100
AcDbPolyline
 62
7
  6
CONTINUOUS
 90
3
 70
0
 43
0.3500000087
 10
-26.3353130646
 20
34.918858902
 10
-26.4067426193
 20
34.7045723694
 10
-26.5495995972
 20
34.4188584137
  0
LINE
  5
420
100
AcDbEntity
  8
SUPERFICI
100
AcDbLine
 62
250
  6
CONTINUOUS
 10
-48.7862057341
 20
-20.6351688663
 11
-48.7820281673
 21
-20.6349457005
  0
LINE
  5
421
100
AcDbEntity
  8
SUPERFICI
100
AcDbLine
 62
250
  6
CONTINUOUS
 10
-48.7820281673
 20
-20.6349457005
 11
-48.2953739129
 21
-20.6141505525
  0
LINE
  5
422
100
AcDbEntity
  8
RACCORDO
100
AcDbLine
 62
7
  6
CONTINUOUS
 10
-18.7194444076
 20
-18.5773148649
 11
-29.5979130395
 21
-18.7671992412
  0
LINE
  5
423
100
AcDbEntity
  8
RACCORDO
100
AcDbLine
 62
250
  6
CONTINUOUS
 10
-29.7801529664
 20
-18.6117150087
 11
-18.7194444076
 21
-18.4175206523
  0
LINE
  5
424
100
AcDbEntity
  8
0
100
AcDbLine
 62
7
  6
CONTINUOUS
 10
-18.2281706108
 20
-18.0773148649
 11
-18.0281706108
 21
-18.0773148649
  0
LINE
  5
425
100
AcDbEntity
  8
0
100
AcDbLine
 62
7
  6
CONTINUOUS
 10
-18.2281706108
 20
-17.9332511911
 11
-18.0281706108
 21
-17.9332508649
  0
LINE
  5
426
100
AcDbEntity
  8
0
100
AcDbLine
 62
7
  6
CONTINUOUS
 10
-18.2281706108
 20
-17.8879998026
 11
-18.0281706108
 21
-17.8879998026
  0
LINE
  5
427
100
AcDbEntity
  8
0
100
AcDbLine
 62
7
  6
CONTINUOUS
 10
-18.2281706108
 20
-17.0148154458
 11
-18.0281706108
 21
-17.0148148649
  0
LINE
  5
428
100
AcDbEntity
  8
0
100
AcDbLine
 62
7
  6
CONTINUOUS
 10
-18.0281706108
 20
-16.9796192895
 11
-18.2281706108
 21
-16.9796192895
  0
LWPOLYLINE
  5
429
100
AcDbEntity
  8
RACCORDO
100
AcDbPolyline
 62
7
  6
CONTINUOUS
 90
13
 70
0
 10
-29.7801529662
 20
-18.6117150169
 10
-29.7628515491
 20
-18.6358537326
 10
-29.7455647893
 20
-18.6581725374
 10
-29.7284221252
 20
-18.6786099486
 10
-29.7115706997
 20
-18.6971835065
 10
-29.6951207471
 20
-18.7137719384
 10
-29.6791361752
 20
-18.7281444291
 10
-29.6637270303
 20
-18.7402845618
 10
-29.6489990405
 20
-18.750219764
 10
-29.6349842271
 20
-18.7578421301
 10
-29.621740954
 20
-18.763155253
 10
-29.6093627134
 20
-18.7662546793
 10
-29.5979130395
 20
-18.7671992412
  0
LINE
  5
42A
100
AcDbEntity
  8
RACCORDO
100
AcDbLine
 62
7
  6
CONTINUOUS
 10
-35.7281706108
 20
-22.2467212384
 11
-35.7281706108
 21
-20.6941952861
  0
LINE
  5
42B
100
AcDbEntity
  8
SUPERFICI
100
AcDbLine
 62
7
  6
CONTINUOUS
 10
-35.7281706108
 20
-22.2467212384
 11
-35.7281706108
 21
-23.0470343761
  0
LINE
  5
42C
100
AcDbEntity
  8
RACCORDO
100
AcDbLine
 62
7
  6
CONTINUOUS
 10
-35.7281706108
 20
21.4604860145
 11
-35.7281706108
 21
23.0130119669
  0
LINE
  5
42D
100
AcDbEntity
  8
SUPERFICI
100
AcDbLine
 62
7
  6
CONTINUOUS
 10
-35.7281706108
 20
23.0524197317
 11
-35.7281706108
 21
23.8133251045
  0
LINE
  5
42E
100
AcDbEntity
  8
DRAFT
100
AcDbLine
 62
7
  6
CONTINUOUS
 10
-17.9438713977
 20
-16.7519551454
 11
-16.512469824
 21
-16.6769385676
  0
LINE
  5
42F
100
AcDbEntity
  8
RACCORDO
100
AcDbLine
 62
250
  6
CONTINUOUS
 10
-39.7281706108
 20
-15.7365138626
 11
-18.7194444076
 21
-15.6086110882
  0
LINE
  5
430
100
AcDbEntity
  8
RACCORDO
100
AcDbLine
 62
250
  6
CONTINUOUS
 10
-39.7281706108
 20
-16.9762840178
 11
-18.7194444076
 21
-16.8561395952
  0
LINE
  5
431
100
AcDbEntity
  8
0
100
AcDbLine
 62
7
  6
CONTINUOUS
 10
-18.2281706108
 20
-16.8773148649
 11
-18.0281706108
 21
-16.8773148649
  0
LINE
  5
432
100
AcDbEntity
  8
0
100
AcDbLine
 62
7
  6
CONTINUOUS
 10
-18.2281706108
 20
-16.8539218649
 11
-18.0281706108
 21
-16.8539218649
  0
LINE
  5
433
100
AcDbEntity
  8
ASSI
100
AcDbLine
 62
7
  6
CONTINUOUS
 10
-18.2281706108
 20
-16.6668546358
 11
-18.0281706108
 21
-16.6668546358
  0
LINE
  5
434
100
AcDbEntity
  8
RACCORDO
100
AcDbLine
 62
250
  6
CONTINUOUS
 10
-18.2281706108
 20
-15.6086110882
 11
-18.7194444076
 21
-15.6086110874
  0
LINE
  5
435
100
AcDbEntity
  8
ASSI
100
AcDbLine
 62
7
  6
CONTINUOUS
 10
-18.2281706108
 20
-15.3969810281
 11
-18.0281706108
 21
-15.3969810281
  0
LWPOLYLINE
  5
436
100
AcDbEntity
  8
RACCORDO
100
AcDbPolyline
 62
250
  6
CONTINUOUS
 90
8
 70
0
 10
-31.7573158129
 20
-20.6245730336
 10
-31.7567905734
 20
-20.6915576903
 10
-31.7567315925
 20
-20.7084332711
 10
-31.7567315925
 20
-20.7223896432
 10
-31.7567905734
 20
-20.7333383943
 10
-31.7569081615
 20
-20.7412101652
 10
-31.7570836118
 20
-20.7459550892
 10
-31.7573158129
 20
-20.7475431075
  0
LINE
  5
437
100
AcDbEntity
  8
SUPERFICI
100
AcDbLine
 62
7
  6
CONTINUOUS
 10
-34.1281706108
 20
22.5831453642
 11
-34.1281706108
 21
21.5552172603
  0
LINE
  5
438
100
AcDbEntity
  8
SUPERFICI
100
AcDbLine
 62
7
  6
CONTINUOUS
 10
-34.1281706108
 20
-21.8168546358
 11
-34.1281706108
 21
-20.7889265319
  0
LINE
  5
439
100
AcDbEntity
  8
RACCORDO
100
AcDbLine
 62
250
  6
CONTINUOUS
 10
-31.7573158129
 20
21.5138338359
 11
-31.7574141392
 21
21.5122597402
  0
LINE
  5
43A
100
AcDbEntity
  8
RACCORDO
100
AcDbLine
 62
250
  6
CONTINUOUS
 10
-16.2281706108
 20
-14.0168546358
 11
-18.0281706108
 21
-14.0168546358
  0
LINE
  5
43B
100
AcDbEntity
  8
RACCORDO
100
AcDbLine
 62
250
  6
CONTINUOUS
 10
-16.2281706108
 20
-11.9168546358
 11
-18.0281706108
 21
-11.9168546358
  0
LWPOLYLINE
  5
43C
100
AcDbEntity
  8
RACCORDO
100
AcDbPolyline
 62
250
  6
CONTINUOUS
 90
8
 70
0
 10
-31.7574141392
 20
21.5122597402
 10
-31.7567905755
 20
21.4996291228
 10
-31.7566785427
 20
21.4886715478
 10
-31.7568194278
 20
21.4747313877
 10
-31.7567905755
 20
21.4578484187
 10
-31.7566126936
 20
21.4381133761
 10
-31.7567163855
 20
21.4157184269
 10
-31.7573158129
 20
21.390863762
  0
LWPOLYLINE
  5
43D
100
AcDbEntity
  8
0
100
AcDbPolyline
 62
7
  6
CONTINUOUS
 90
2
 70
0
 43
0.3500000087
 10
-31.3353136841
 20
42.6331442322
 10
-31.3353136841
 20
44.133145697
  0
LINE
  5
43E
100
AcDbEntity
  8
ASSI
100
AcDbLine
 62
7
  6
CONTINUOUS
 10
-18.2281706108
 20
-10.5668546373
 11
-18.0281706108
 21
-10.5668546373
  0
LINE
  5
43F
100
AcDbEntity
  8
ASSI
100
AcDbLine
 62
7
  6
CONTINUOUS
 10
-18.2281706108
 20
-9.698635878
 11
-18.0281706108
 21
-9.698635878
  0
LINE
  5
440
100
AcDbEntity
  8
ASSI
100
AcDbLine
 62
7
  6
CONTINUOUS
 10
-18.2281706108
 20
-9.5360121967
 11
-18.0281706108
 21
-9.5360121967
  0
LINE
  5
441
100
AcDbEntity
  8
ASSI
100
AcDbLine
 62
7
  6
CONTINUOUS
 10
-18.2281706108
 20
-9.5168546376
 11
-18.0281706108
 21
-9.5168546376
  0
LWPOLYLINE
  5
442
100
AcDbEntity
  8
0
100
AcDbPolyline
 62
7
  6
CONTINUOUS
 90
2
 70
0
 43
0.3500000087
 10
-28.4067424408
 20
34.6331449463
 10
-28.4067424408
 20
36.1331464111
  0
LINE
  5
443
100
AcDbEntity
  8
0
100
AcDbLine
 62
7
  6
CONTINUOUS
 10
-18.2281706108
 20
-9.006601358
 11
-18.0281706108
 21
-9.0066018649
  0
LINE
  5
444
100
AcDbEntity
  8
0
100
AcDbLine
 62
7
  6
CONTINUOUS
 10
-18.2281706108
 20
-8.9885588649
 11
-18.0281706108
 21
-8.9885588649
  0
LINE
  5
445
100
AcDbEntity
  8
0
100
AcDbLine
 62
7
  6
CONTINUOUS
 10
-18.2281706108
 20
-8.7505698649
 11
-18.0281706108
 21
-8.7505698649
  0
LINE
  5
446
100
AcDbEntity
  8
0
100
AcDbLine
 62
7
  6
CONTINUOUS
 10
-18.2281706108
 20
-7.8840888649
 11
-18.0281706108
 21
-7.8840888649
  0
LINE
  5
447
100
AcDbEntity
  8
0
100
AcDbLine
 62
7
  6
CONTINUOUS
 10
-18.2281706108
 20
-7.8555978649
 11
-18.0281706108
 21
-7.8555978649
  0
LINE
  5
448
100
AcDbEntity
  8
ASSI
100
AcDbLine
 62
7
  6
CONTINUOUS
 10
-18.2281706108
 20
-7.766866671
 11
-18.0281706108
 21
-7.766866671
  0
LINE
  5
449
100
AcDbEntity
  8
DRAFT
100
AcDbLine
 62
7
  6
CONTINUOUS
 10
-17.9438713977
 20
-9.1817541262
 11
-16.512469824
 21
-9.2567707039
  0
LINE
  5
44A
100
AcDbEntity
  8
DRAFT
100
AcDbLine
 62
7
  6
CONTINUOUS
 10
-15.5281706108
 20
-4.4301691903
 11
-15.512469824
 21
-4.4293463469
  0
LINE
  5
44B
100
AcDbEntity
  8
RACCORDO
100
AcDbLine
 62
7
  6
CONTINUOUS
 10
-16.0194444076
 20
-6.3783011765
 11
-18.2281706108
 21
-6.4168546358
  0
LINE
  5
44C
100
AcDbEntity
  8
RACCORDO
100
AcDbLine
 62
250
  6
CONTINUOUS
 10
-18.7194444076
 20
-5.4255821567
 11
-16.0194444076
 21
-5.3784534813
  0
LINE
  5
44D
100
AcDbEntity
  8
RACCORDO
100
AcDbLine
 62
250
  6
CONTINUOUS
 10
-15.5281706108
 20
-5.3784534813
 11
-16.0194444076
 21
-5.3784534811
  0
LWPOLYLINE
  5
44E
100
AcDbEntity
  8
RACCORDO
100
AcDbPolyline
 62
250
  6
CONTINUOUS
 90
20
 70
0
 10
-18.2091718157
 20
17.6224572947
 10
-18.2102860805
 20
17.6171518979
 10
-18.2114072092
 20
17.6116262249
 10
-18.2125355519
 20
17.6059001957
 10
-18.2136966725
 20
17.5998403071
 10
-18.2148861874
 20
17.5933741492
 10
-18.2160908786
 20
17.5865240329
 10
-18.2173166335
 20
17.5792662911
 10
-18.218549136
 20
17.5715646145
 10
-18.2197765614
 20
17.563393152
 10
-18.2210010944
 20
17.5547304354
 10
-18.2222059705
 20
17.5455003992
 10
-18.2233665215
 20
17.535692226
 10
-18.2244651941
 20
17.525382542
 10
-18.2254800731
 20
17.5144969721
 10
-18.2263772375
 20
17.5030285607
 10
-18.2271214609
 20
17.4911926491
 10
-18.2276854438
 20
17.4790670123
 10
-18.2280445188
 20
17.4665570039
 10
-18.2281706108
 20
17.4536486548
  0
LWPOLYLINE
  5
44F
100
AcDbEntity
  8
RACCORDO
100
AcDbPolyline
 62
250
  6
CONTINUOUS
 90
3
 70
0
 10
-18.2058633158
 20
17.6374797337
 10
-18.206972255
 20
17.632572566
 10
-18.2091718157
 20
17.6224572947
  0
LWPOLYLINE
  5
450
100
AcDbEntity
  8
RACCORDO
100
AcDbPolyline
 62
250
  6
CONTINUOUS
 90
4
 70
0
 10
-18.200435124
 20
17.6600348454
 10
-18.2025624425
 20
17.6514717606
 10
-18.2036575442
 20
17.6469225998
 10
-18.2058633158
 20
17.6374797337
  0
LWPOLYLINE
  5
451
100
AcDbEntity
  8
RACCORDO
100
AcDbPolyline
 62
250
  6
CONTINUOUS
 90
3
 70
0
 10
-18.197590148
 20
17.6710318563
 10
-18.1994271021
 20
17.6640073545
 10
-18.200435124
 20
17.6600348454
  0
LINE
  5
452
100
AcDbEntity
  8
RACCORDO
100
AcDbLine
 62
250
  6
CONTINUOUS
 10
-18.1968067409
 20
17.6739939247
 11
-18.197590148
 21
17.6710318563
  0
LINE
  5
453
100
AcDbEntity
  8
RACCORDO
100
AcDbLine
 62
250
  6
CONTINUOUS
 10
-18.1949722417
 20
17.6806595926
 11
-18.1968067409
 21
17.6739939247
  0
LINE
  5
454
100
AcDbEntity
  8
RACCORDO
100
AcDbLine
 62
7
  6
CONTINUOUS
 10
-18.5514598803
 20
6.4290815772
 11
-18.6069344469
 21
6.3498794632
  0
LINE
  5
455
100
AcDbEntity
  8
RACCORDO
100
AcDbLine
 62
7
  6
CONTINUOUS
 10
-18.6069344469
 20
6.3498794632
 11
-18.7194444076
 21
6.1918728851
  0
LINE
  5
456
100
AcDbEntity
  8
RACCORDO
100
AcDbLine
 62
7
  6
CONTINUOUS
 10
-18.7194444076
 20
-5.4255821567
 11
-18.6061836656
 21
-5.5846533243
  0
LWPOLYLINE
  5
457
100
AcDbEntity
  8
RACCORDO
100
AcDbPolyline
 62
7
  6
CONTINUOUS
 90
20
 70
0
 10
-18.6061836656
 20
-5.5846533243
 10
-18.5506946583
 20
-5.6638923589
 10
-18.52345427
 20
-5.7032836451
 10
-18.496698878
 20
-5.7425128596
 10
-18.4704541332
 20
-5.7814124869
 10
-18.4448527806
 20
-5.8199925938
 10
-18.4200189035
 20
-5.8582431133
 10
-18.3959924287
 20
-5.8959663285
 10
-18.3729183639
 20
-5.9331956142
 10
-18.3509616997
 20
-5.9698975956
 10
-18.3302257182
 20
-6.0057744309
 10
-18.3108927471
 20
-6.0408357871
 10
-18.2931383589
 20
-6.0750719972
 10
-18.2770941291
 20
-6.1081562189
 10
-18.2629507279
 20
-6.1401239254
 10
-18.2509350492
 20
-6.1709396435
 10
-18.2412531651
 20
-6.2001701113
 10
-18.2341050929
 20
-6.2276709083
 10
-18.2296832157
 20
-6.253586455
 10
-18.2281706108
 20
-6.2779167514
  0
LINE
  5
458
100
AcDbEntity
  8
RACCORDO
100
AcDbLine
 62
250
  6
CONTINUOUS
 10
-15.2281706108
 20
-1.7168546358
 11
-15.5281706108
 21
-1.7168546358
  0
LINE
  5
459
100
AcDbEntity
  8
RACCORDO
100
AcDbLine
 62
250
  6
CONTINUOUS
 10
-15.2281706108
 20
0.3831453642
 11
-15.5281706108
 21
0.3831453642
  0
LWPOLYLINE
  5
45A
100
AcDbEntity
  8
RACCORDO
100
AcDbPolyline
 62
250
  6
CONTINUOUS
 90
16
 70
0
 10
-18.2281706108
 20
17.3105481968
 10
-18.2308491444
 20
17.3427924825
 10
-18.2388560611
 20
17.3746913408
 10
-18.2521055946
 20
17.405903
 10
-18.2704558087
 20
17.4360930505
 10
-18.2937101143
 20
17.4649380232
 10
-18.3216193736
 20
17.4921288556
 10
-18.3538845762
 20
17.5173742124
 10
-18.3901600367
 20
17.5404035988
 10
-18.4300570905
 20
17.560970257
 10
-18.4731482771
 20
17.5788538223
 10
-18.5189719088
 20
17.5938626753
 10
-18.567037003
 20
17.6058359938
 10
-18.6168285685
 20
17.6146454848
 10
-18.6678131261
 20
17.6201967563
 10
-18.7194444077
 20
17.6224303241
  0
LWPOLYLINE
  5
45B
100
AcDbEntity
  8
RACCORDO
100
AcDbPolyline
 62
250
  6
CONTINUOUS
 90
19
 70
0
 10
-18.2281706108
 20
18.8436817457
 10
-18.2300321175
 20
18.8730087917
 10
-18.2356030651
 20
18.9021185931
 10
-18.244842399
 20
18.9307943425
 10
-18.2576821071
 20
18.9588231259
 10
-18.2740267829
 20
18.9859953576
 10
-18.2937534508
 20
19.0121065809
 10
-18.31671316
 20
19.0369608167
 10
-18.3427358028
 20
19.0603749332
 10
-18.3716310893
 20
19.0821773944
 10
-18.4031889621
 20
19.1022079424
 10
-18.4371712751
 20
19.1203138062
 10
-18.4733151182
 20
19.1363553879
 10
-18.5113503204
 20
19.1502144594
 10
-18.5509924643
 20
19.1617889827
 10
-18.5919334384
 20
19.1709917631
 10
-18.6338629495
 20
19.1777572915
 10
-18.6764722643
 20
19.1820398869
 10
-18.7194444076
 20
19.1838113808
  0
LINE
  5
45C
100
AcDbEntity
  8
RACCORDO
100
AcDbLine
 62
250
  6
CONTINUOUS
 10
-18.7194444076
 20
-18.4175206529
 11
-18.7187401313
 21
-18.5040053695
  0
LINE
  5
45D
100
AcDbEntity
  8
RACCORDO
100
AcDbLine
 62
250
  6
CONTINUOUS
 10
-18.7194444077
 20
17.6224303238
 11
-18.7189392698
 21
17.1406400642
  0
LINE
  5
45E
100
AcDbEntity
  8
RACCORDO
100
AcDbLine
 62
250
  6
CONTINUOUS
 10
-18.7194444076
 20
-15.6086110882
 11
-18.7189250143
 21
-16.2695106202
  0
LINE
  5
45F
100
AcDbEntity
  8
RACCORDO
100
AcDbLine
 62
250
  6
CONTINUOUS
 10
-18.7194444076
 20
19.1838113808
 11
-18.7194444076
 21
17.6224303236
  0
LINE
  5
460
100
AcDbEntity
  8
RACCORDO
100
AcDbLine
 62
250
  6
CONTINUOUS
 10
-18.7194444076
 20
-5.4255821567
 11
-18.7194444076
 21
-15.6086110882
  0
LWPOLYLINE
  5
461
100
AcDbEntity
  8
RACCORDO
100
AcDbPolyline
 62
250
  6
CONTINUOUS
 90
6
 70
0
 10
-18.7187401313
 20
-18.5040053695
 10
-18.718660784
 20
-18.5442675289
 10
-18.7187401438
 20
-18.5586306788
 10
-18.7188981905
 20
-18.5689779184
 10
-18.7191336012
 20
-18.5752232737
 10
-18.7194444076
 20
-18.5773148649
  0
LINE
  5
462
100
AcDbEntity
  8
RACCORDO
100
AcDbLine
 62
7
  6
CONTINUOUS
 10
-18.2281706108
 20
18.8436817457
 11
-18.2281706108
 21
7.0442074798
  0
LINE
  5
463
100
AcDbEntity
  8
RACCORDO
100
AcDbLine
 62
7
  6
CONTINUOUS
 10
-18.2281706108
 20
-6.2779167514
 11
-18.2281706108
 21
-18.0773910173
  0
LINE
  5
464
100
AcDbEntity
  8
0
100
AcDbLine
 62
7
  6
CONTINUOUS
 10
-18.0281706108
 20
15.4248153642
 11
-18.0281706108
 21
11.9414753642
  0
LINE
  5
465
100
AcDbEntity
  8
0
100
AcDbLine
 62
7
  6
CONTINUOUS
 10
-18.0281706108
 20
9.3674853642
 11
-18.0281706108
 21
7.2799060284
  0
LINE
  5
466
100
AcDbEntity
  8
ASSI
100
AcDbLine
 62
7
  6
CONTINUOUS
 10
-18.0281706108
 20
-6.4133636228
 11
-18.0281706108
 21
-7.7667799813
  0
LINE
  5
467
100
AcDbEntity
  8
0
100
AcDbLine
 62
7
  6
CONTINUOUS
 10
-18.0281706108
 20
-7.8555978649
 11
-18.0281706108
 21
-9.5168546376
  0
LINE
  5
468
100
AcDbEntity
  8
ASSI
100
AcDbLine
 62
7
  6
CONTINUOUS
 10
-18.0281706108
 20
-9.5168546376
 11
-18.0281706108
 21
-16.6668546358
  0
LINE
  5
469
100
AcDbEntity
  8
0
100
AcDbLine
 62
7
  6
CONTINUOUS
 10
-18.0281706108
 20
-16.6668546358
 11
-18.0281706108
 21
-18.0773148649
  0
LINE
  5
46A
100
AcDbEntity
  8
RACCORDO
100
AcDbLine
 62
250
  6
CONTINUOUS
 10
-17.9438713977
 20
17.5182458738
 11
-17.9438713977
 21
9.9480448546
  0
LINE
  5
46B
100
AcDbEntity
  8
RACCORDO
100
AcDbLine
 62
250
  6
CONTINUOUS
 10
-17.9438713977
 20
-9.1817541262
 11
-17.9438713977
 21
-16.7519551454
  0
LINE
  5
46C
100
AcDbEntity
  8
RACCORDO
100
AcDbLine
 62
250
  6
CONTINUOUS
 10
-18.7189392698
 20
17.1406400642
 11
-18.7194444076
 21
6.1918728851
  0
LINE
  5
46D
100
AcDbEntity
  8
RACCORDO
100
AcDbLine
 62
250
  6
CONTINUOUS
 10
-18.7189250143
 20
-16.2695106202
 11
-18.7194444076
 21
-18.4175206523
  0
LINE
  5
46E
100
AcDbEntity
  8
RACCORDO
100
AcDbLine
 62
250
  6
CONTINUOUS
 10
-18.718660784
 20
19.3105582453
 11
-18.7187401313
 21
19.2702960944
  0
LINE
  5
46F
100
AcDbEntity
  8
RACCORDO
100
AcDbLine
 62
250
  6
CONTINUOUS
 10
-18.7187401313
 20
19.2702960944
 11
-18.7194444076
 21
19.1838113813
  0
LWPOLYLINE
  5
470
100
AcDbEntity
  8
RACCORDO
100
AcDbPolyline
 62
7
  6
CONTINUOUS
 90
19
 70
0
 10
-18.2281706108
 20
7.0442074798
 10
-18.2296793197
 20
7.0199692252
 10
-18.234122653
 20
6.9939276331
 10
-18.2413654755
 20
6.9660827035
 10
-18.2513108
 20
6.9361388145
 10
-18.2637727347
 20
6.904391588
 10
-18.2783603278
 20
6.8717278892
 10
-18.2946705703
 20
6.8383592964
 10
-18.3125399041
 20
6.8040742313
 10
-18.3318888666
 20
6.7691248232
 10
-18.3525142778
 20
6.7335745952
 10
-18.3742272228
 20
6.6973600242
 10
-18.3970697519
 20
6.6605426702
 10
-18.4209571441
 20
6.6230697806
 10
-18.4456991767
 20
6.584994108
 10
-18.4712353076
 20
6.5465354696
 10
-18.4974519998
 20
6.507690433
 10
-18.5242171428
 20
6.4684624306
 10
-18.5514598803
 20
6.4290815772
  0
LWPOLYLINE
  5
471
100
AcDbEntity
  8
RACCORDO
100
AcDbPolyline
 62
250
  6
CONTINUOUS
 90
19
 70
0
 10
-18.2281706108
 20
-18.0773910173
 10
-18.2300267404
 20
-18.1065098864
 10
-18.2355945535
 20
-18.1356625495
 10
-18.244842388
 20
-18.1645035859
 10
-18.2576892681
 20
-18.1925806095
 10
-18.2740280242
 20
-18.2196773728
 10
-18.2937535246
 20
-18.2458159407
 10
-18.3167256673
 20
-18.2707178125
 10
-18.3427489162
 20
-18.2940726768
 10
-18.3716311276
 20
-18.3158866924
 10
-18.4032016248
 20
-18.335960958
 10
-18.4372044363
 20
-18.3540290229
 10
-18.473315072
 20
-18.3700646409
 10
-18.5113509197
 20
-18.383957873
 10
-18.551042559
 20
-18.3955150631
 10
-18.5919335306
 20
-18.4047010524
 10
-18.6337301495
 20
-18.4114897811
 10
-18.676302154
 20
-18.4157871896
 10
-18.7194444076
 20
-18.4175206529
  0
LWPOLYLINE
  5
472
100
AcDbEntity
  8
RACCORDO
100
AcDbPolyline
 62
250
  6
CONTINUOUS
 90
16
 70
0
 10
-18.2281706108
 20
-16.5442574684
 10
-18.2308491866
 20
-16.5765020073
 10
-18.238856215
 20
-16.6084010694
 10
-18.2521059069
 20
-16.6396128785
 10
-18.2704563016
 20
-16.6698030218
 10
-18.2937107878
 20
-16.6986480326
 10
-18.3216202102
 20
-16.7258388564
 10
-18.3538855391
 20
-16.7510841624
 10
-18.3901610742
 20
-16.7741134643
 10
-18.4300581483
 20
-16.7946800188
 10
-18.473149292
 20
-16.8125634693
 10
-18.5189728138
 20
-16.8275722069
 10
-18.5670377459
 20
-16.8395454229
 10
-18.6168291058
 20
-16.8483548326
 10
-18.6678134136
 20
-16.8539060492
 10
-18.7194444076
 20
-16.856139595
  0
LINE
  5
473
100
AcDbEntity
  8
RACCORDO
100
AcDbLine
 62
250
  6
CONTINUOUS
 10
-16.0171036368
 20
7.0914919111
 11
-16.0164853775
 21
7.0414345117
  0
LINE
  5
474
100
AcDbEntity
  8
RACCORDO
100
AcDbLine
 62
250
  6
CONTINUOUS
 10
-16.0194444076
 20
-5.3784534813
 11
-16.0171035883
 21
-5.6998278099
  0
LINE
  5
475
100
AcDbEntity
  8
RACCORDO
100
AcDbLine
 62
250
  6
CONTINUOUS
 10
-16.0164853775
 20
7.0414345117
 11
-16.0159368183
 21
6.9379281796
  0
LINE
  5
476
100
AcDbEntity
  8
RACCORDO
100
AcDbLine
 62
250
  6
CONTINUOUS
 10
-16.0171035883
 20
-5.6998278099
 11
-16.0159367107
 21
-5.9870840349
  0
LINE
  5
477
100
AcDbEntity
  8
RACCORDO
100
AcDbLine
 62
250
  6
CONTINUOUS
 10
-16.512469824
 20
17.4432292961
 11
-16.512469824
 21
10.0230614324
  0
LINE
  5
478
100
AcDbEntity
  8
RACCORDO
100
AcDbLine
 62
250
  6
CONTINUOUS
 10
-16.512469824
 20
-9.2567707039
 11
-16.512469824
 21
-16.6769385676
  0
LINE
  5
479
100
AcDbEntity
  8
RACCORDO
100
AcDbLine
 62
7
  6
CONTINUOUS
 10
-16.2281706108
 20
17.1435902132
 11
-16.2281706108
 21
10.3227004929
  0
LINE
  5
47A
100
AcDbEntity
  8
RACCORDO
100
AcDbLine
 62
7
  6
CONTINUOUS
 10
-16.2281706108
 20
-9.5564097868
 11
-16.2281706108
 21
-16.3772995071
  0
LINE
  5
47B
100
AcDbEntity
  8
RACCORDO
100
AcDbLine
 62
250
  6
CONTINUOUS
 10
-16.0194444076
 20
6.1447442098
 11
-16.0194444076
 21
-5.3784534813
  0
LINE
  5
47C
100
AcDbEntity
  8
RACCORDO
100
AcDbLine
 62
7
  6
CONTINUOUS
 10
-15.5281706108
 20
6.6446680573
 11
-15.5281706108
 21
-5.8783773289
  0
LINE
  5
47D
100
AcDbEntity
  8
RACCORDO
100
AcDbLine
 62
250
  6
CONTINUOUS
 10
-15.512469824
 20
3.0956370753
 11
-15.512469824
 21
-4.4293463469
  0
LINE
  5
47E
100
AcDbEntity
  8
RACCORDO
100
AcDbLine
 62
7
  6
CONTINUOUS
 10
-15.2281706108
 20
2.7960068362
 11
-15.2281706108
 21
-4.1297161184
  0
LINE
  5
47F
100
AcDbEntity
  8
RACCORDO
100
AcDbLine
 62
250
  6
CONTINUOUS
 10
-16.0159368183
 20
6.9379281796
 11
-16.0159367107
 21
6.7533747633
  0
LINE
  5
480
100
AcDbEntity
  8
RACCORDO
100
AcDbLine
 62
250
  6
CONTINUOUS
 10
-16.0159367107
 20
-5.9870840349
 11
-16.0159368183
 21
-6.1716374512
  0
LINE
  5
481
100
AcDbEntity
  8
RACCORDO
100
AcDbLine
 62
250
  6
CONTINUOUS
 10
-16.0159367107
 20
6.7533747633
 11
-16.0171035883
 21
6.4661185383
  0
LINE
  5
482
100
AcDbEntity
  8
RACCORDO
100
AcDbLine
 62
250
  6
CONTINUOUS
 10
-16.0159368183
 20
-6.1716374512
 11
-16.0164853775
 21
-6.2751437833
  0
LINE
  5
483
100
AcDbEntity
  8
RACCORDO
100
AcDbLine
 62
250
  6
CONTINUOUS
 10
-16.0171035883
 20
6.4661185383
 11
-16.0194444076
 21
6.1447442098
  0
LWPOLYLINE
  5
484
100
AcDbEntity
  8
RACCORDO
100
AcDbPolyline
 62
250
  6
CONTINUOUS
 90
7
 70
0
 10
-16.0164853775
 20
-6.2751437833
 10
-16.0171036368
 20
-6.3252011826
 10
-16.0174831256
 20
-6.3441995171
 10
-16.0179103012
 20
-6.3590633962
 10
-16.0183831152
 20
-6.3697291282
 10
-16.0188959449
 20
-6.37615092
 10
-16.0194444076
 20
-6.3783011765
  0
LINE
  5
485
100
AcDbEntity
  8
DRAFT
100
AcDbLine
 62
7
  6
CONTINUOUS
 10
-15.5281706108
 20
3.0964599187
 11
-15.512469824
 21
3.0956370753
  0
LWPOLYLINE
  5
486
100
AcDbEntity
  8
RACCORDO
100
AcDbPolyline
 62
250
  6
CONTINUOUS
 90
6
 70
0
 10
-16.0194444076
 20
7.1445919049
 10
-16.0188959449
 20
7.1424416485
 10
-16.0183831152
 20
7.1360198567
 10
-16.0179103012
 20
7.1253541247
 10
-16.0174831256
 20
7.1104902455
 10
-16.0171036368
 20
7.0914919111
  0
LWPOLYLINE
  5
487
100
AcDbEntity
  8
RACCORDO
100
AcDbPolyline
 62
250
  6
CONTINUOUS
 90
5
 70
0
 10
-18.7194444076
 20
19.3436055933
 10
-18.7191336011
 20
19.3415140002
 10
-18.7188981903
 20
19.3352686404
 10
-18.7187401437
 20
19.3249213963
 10
-18.718660784
 20
19.3105582453
  0
LINE
  5
488
100
AcDbEntity
  8
RACCORDO
100
AcDbLine
 62
250
  6
CONTINUOUS
 10
-29.7801529664
 20
-18.6117150087
 11
-31.7573753776
 21
-20.6245742013
  0
LINE
  5
489
100
AcDbEntity
  8
RACCORDO
100
AcDbLine
 62
7
  6
CONTINUOUS
 10
-29.5781706108
 20
-18.7668546358
 11
-32.0842411125
 21
-21.2729251375
  0
LINE
  5
48A
100
AcDbEntity
  8
RACCORDO
100
AcDbLine
 62
250
  6
CONTINUOUS
 10
-15.5281706108
 20
6.1447442098
 11
-16.0194444076
 21
6.1447442098
  0
LINE
  5
48B
100
AcDbEntity
  8
0
100
AcDbLine
 62
7
  6
CONTINUOUS
 10
-18.2281706108
 20
7.2799060284
 11
-18.0281706108
 21
7.2799060284
  0
LINE
  5
48C
100
AcDbEntity
  8
0
100
AcDbLine
 62
7
  6
CONTINUOUS
 10
-18.2281706108
 20
7.3328673642
 11
-18.0281706108
 21
7.3328673642
  0
LINE
  5
48D
100
AcDbEntity
  8
RACCORDO
100
AcDbLine
 62
250
  6
CONTINUOUS
 10
-16.0194444076
 20
6.1447442098
 11
-18.7194444076
 21
6.1918728851
  0
LINE
  5
48E
100
AcDbEntity
  8
RACCORDO
100
AcDbLine
 62
7
  6
CONTINUOUS
 10
-18.2281706108
 20
7.1831453642
 11
-16.0194444076
 21
7.1445919049
  0
LINE
  5
48F
100
AcDbEntity
  8
RACCORDO
100
AcDbLine
 62
7
  6
CONTINUOUS
 10
-32.0842411125
 20
22.0392158659
 11
-29.5781706108
 21
19.5331453642
  0
LINE
  5
490
100
AcDbEntity
  8
RACCORDO
100
AcDbLine
 62
250
  6
CONTINUOUS
 10
-31.7574019249
 20
21.3908653298
 11
-31.138362339
 21
20.7606972725
  0
LINE
  5
491
100
AcDbEntity
  8
RACCORDO
100
AcDbLine
 62
250
  6
CONTINUOUS
 10
-31.138362339
 20
20.7606972725
 11
-29.7801530194
 21
19.3780057381
  0
LWPOLYLINE
  5
492
100
AcDbEntity
  8
RACCORDO
100
AcDbPolyline
 62
250
  6
CONTINUOUS
 90
10
 70
0
 10
-31.4124886255
 20
-20.6011726505
 10
-31.4382839548
 20
-20.6227020355
 10
-31.468730251
 20
-20.6403034219
 10
-31.5031633756
 20
-20.653395925
 10
-31.5404520507
 20
-20.6612297012
 10
-31.5801188586
 20
-20.663757459
 10
-31.6224294532
 20
-20.66148946
 10
-31.6668832473
 20
-20.6544010944
 10
-31.712164977
 20
-20.6420971294
 10
-31.7573158129
 20
-20.6245730336
  0
LINE
  5
493
100
AcDbEntity
  8
DRAFT
100
AcDbLine
 62
7
  6
CONTINUOUS
 10
-17.9438713977
 20
9.9480448546
 11
-16.512469824
 21
10.0230614324
  0
LINE
  5
494
100
AcDbEntity
  8
0
100
AcDbLine
 62
7
  6
CONTINUOUS
 10
-18.2281706108
 20
8.6980373642
 11
-18.0281706108
 21
8.6980373642
  0
LINE
  5
495
100
AcDbEntity
  8
0
100
AcDbLine
 62
7
  6
CONTINUOUS
 10
-18.2281706108
 20
8.9715965114
 11
-18.0281706108
 21
8.9715973642
  0
LINE
  5
496
100
AcDbEntity
  8
0
100
AcDbLine
 62
7
  6
CONTINUOUS
 10
-18.2281706108
 20
9.3147493642
 11
-18.0281706108
 21
9.3147493642
  0
LINE
  5
497
100
AcDbEntity
  8
0
100
AcDbLine
 62
7
  6
CONTINUOUS
 10
-18.2281706108
 20
9.3451634366
 11
-18.0281706108
 21
9.3451634366
  0
LINE
  5
498
100
AcDbEntity
  8
0
100
AcDbLine
 62
7
  6
CONTINUOUS
 10
-18.2281706108
 20
9.3674853642
 11
-18.0281706108
 21
9.3674853642
  0
LWPOLYLINE
  5
499
100
AcDbEntity
  8
0
100
AcDbPolyline
 62
7
  6
CONTINUOUS
 90
10
 70
0
 43
0.3500000087
 10
-26.4067426193
 20
35.1331454346
 10
-26.3353130646
 20
34.9902863251
 10
-26.3353130646
 20
34.918858902
 10
-26.4781700424
 20
34.7760040558
 10
-26.5495995972
 20
34.7760040558
 10
-26.6210270203
 20
34.8474314789
 10
-26.6210270203
 20
34.918858902
 10
-26.5495995972
 20
35.0617180115
 10
-26.4781700424
 20
35.1331454346
 10
-26.4067426193
 20
35.1331454346
  0
LINE
  5
49A
100
AcDbEntity
  8
0
100
AcDbLine
 62
7
  6
CONTINUOUS
 10
-18.2281706108
 20
11.9414753642
 11
-18.0281706108
 21
11.9414753642
  0
LINE
  5
49B
100
AcDbEntity
  8
RACCORDO
100
AcDbLine
 62
250
  6
CONTINUOUS
 10
-16.2281706108
 20
12.6831453642
 11
-18.0281706108
 21
12.6831453642
  0
LINE
  5
49C
100
AcDbEntity
  8
RACCORDO
100
AcDbLine
 62
250
  6
CONTINUOUS
 10
-16.2281706108
 20
14.7831453642
 11
-18.0281706108
 21
14.7831453642
  0
LINE
  5
49D
100
AcDbEntity
  8
0
100
AcDbLine
 62
7
  6
CONTINUOUS
 10
-18.2281706108
 20
15.0161553642
 11
-18.0281706108
 21
15.0161553642
  0
LINE
  5
49E
100
AcDbEntity
  8
0
100
AcDbLine
 62
7
  6
CONTINUOUS
 10
-18.2281706108
 20
15.4248153642
 11
-18.0281706108
 21
15.4248153642
  0
LINE
  5
49F
100
AcDbEntity
  8
SUPERFICI
100
AcDbLine
 62
7
  6
CONTINUOUS
 10
-33.5786751269
 20
-21.8168546358
 11
-32.0842411125
 21
-21.2729251375
  0
LINE
  5
4A0
100
AcDbEntity
  8
RACCORDO
100
AcDbLine
 62
250
  6
CONTINUOUS
 10
-18.2281706108
 20
16.3749018167
 11
-18.7194444076
 21
16.3749018167
  0
LINE
  5
4A1
100
AcDbEntity
  8
RACCORDO
100
AcDbLine
 62
250
  6
CONTINUOUS
 10
-39.7281706108
 20
17.7425747462
 11
-18.7194444076
 21
17.6224303236
  0
LINE
  5
4A2
100
AcDbEntity
  8
RACCORDO
100
AcDbLine
 62
250
  6
CONTINUOUS
 10
-39.7281706108
 20
16.502804591
 11
-18.7194444076
 21
16.3749018167
  0
LINE
  5
4A3
100
AcDbEntity
  8
DRAFT
100
AcDbLine
 62
7
  6
CONTINUOUS
 10
-17.9438713977
 20
17.5182458738
 11
-16.512469824
 21
17.4432292961
  0
LINE
  5
4A4
100
AcDbEntity
  8
SUPERFICI
100
AcDbLine
 62
7
  6
CONTINUOUS
 10
-33.5786751269
 20
22.5831453642
 11
-32.0842411125
 21
22.0392158659
  0
LWPOLYLINE
  5
4A5
100
AcDbEntity
  8
RACCORDO
100
AcDbPolyline
 62
7
  6
CONTINUOUS
 90
13
 70
0
 10
-29.5979130139
 20
19.5334899691
 10
-29.6093626732
 20
19.5325454087
 10
-29.6217408956
 20
19.5294459849
 10
-29.6349841465
 20
19.5241328653
 10
-29.6489989357
 20
19.5165105061
 10
-29.6637268972
 20
19.5065753119
 10
-29.6791360038
 20
19.4944351814
 10
-29.6951205022
 20
19.4800626742
 10
-29.7115703709
 20
19.4634742207
 10
-29.7284217753
 20
19.4449006612
 10
-29.7455645077
 20
19.4244632685
 10
-29.7628514014
 20
19.4021444868
 10
-29.780153018
 20
19.3780057921
  0
LINE
  5
4A6
100
AcDbEntity
  8
RACCORDO
100
AcDbLine
 62
7
  6
CONTINUOUS
 10
-29.5979130139
 20
19.5334899691
 11
-18.7194444076
 21
19.3436055933
  0
LINE
  5
4A7
100
AcDbEntity
  8
RACCORDO
100
AcDbLine
 62
250
  6
CONTINUOUS
 10
-18.7194444076
 20
19.1838113808
 11
-29.7801530194
 21
19.3780057381
  0
LWPOLYLINE
  5
4A8
100
AcDbEntity
  8
SUPERFICI
100
AcDbPolyline
 62
250
  6
CONTINUOUS
 90
3
 70
0
 10
-48.7861596399
 20
21.4014576584
 10
-48.7819826624
 20
21.4012344896
 10
-48.2953739129
 20
21.3804412809
  0
LINE
  5
4A9
100
AcDbEntity
  8
SUPERFICI
100
AcDbLine
 62
250
  6
CONTINUOUS
 10
-47.8219838559
 20
21.858737734
 11
-39.7281706108
 21
22.2829165121
  0
LINE
  5
4AA
100
AcDbEntity
  8
SUPERFICI
100
AcDbLine
 62
7
  6
CONTINUOUS
 10
-33.5786751269
 20
22.5831453642
 11
-34.1281706108
 21
22.5831453642
  0
LINE
  5
4AB
100
AcDbEntity
  8
SUPERFICI
100
AcDbLine
 62
7
  6
CONTINUOUS
 10
-35.7281706108
 20
23.0130119669
 11
-37.0514612855
 21
23.0230526953
  0
LINE
  5
4AC
100
AcDbEntity
  8
SUPERFICI
100
AcDbLine
 62
7
  6
CONTINUOUS
 10
-37.0514612855
 20
23.0230526953
 11
-38.3848277226
 21
23.0341749931
  0
LINE
  5
4AD
100
AcDbEntity
  8
SUPERFICI
100
AcDbLine
 62
7
  6
CONTINUOUS
 10
-38.3848277226
 20
23.0341749931
 11
-39.7281706108
 21
23.0463119862
  0
LINE
  5
4AE
100
AcDbEntity
  8
RACCORDO
100
AcDbLine
 62
7
  6
CONTINUOUS
 10
-35.7281706108
 20
21.5831453642
 11
-31.7573158129
 21
21.5138338359
  0
LINE
  5
4AF
100
AcDbEntity
  8
SUPERFICI
100
AcDbLine
 62
7
  6
CONTINUOUS
 10
-35.1876507657
 20
21.5737105552
 11
-35.7281706108
 21
21.5831453642
  0
LINE
  5
4B0
100
AcDbEntity
  8
RACCORDO
100
AcDbLine
 62
250
  6
CONTINUOUS
 10
-35.7281706108
 20
21.4604860145
 11
-31.7574019249
 21
21.3908653298
  0
LINE
  5
4B1
100
AcDbEntity
  8
SUPERFICI
100
AcDbLine
 62
250
  6
CONTINUOUS
 10
-35.7281706108
 20
23.6462527254
 11
-39.7281706108
 21
23.7165050223
  0
LINE
  5
4B2
100
AcDbEntity
  8
SUPERFICI
100
AcDbLine
 62
7
  6
CONTINUOUS
 10
-37.4948009136
 20
23.5194193261
 11
-39.7281706108
 21
23.563053926
  0
LINE
  5
4B3
100
AcDbEntity
  8
SUPERFICI
100
AcDbLine
 62
7
  6
CONTINUOUS
 10
-35.7281706108
 20
23.483035839
 11
-37.4948009136
 21
23.5194193261
  0
LINE
  5
4B4
100
AcDbEntity
  8
SUPERFICI
100
AcDbLine
 62
7
  6
CONTINUOUS
 10
-47.8394256308
 20
22.3580525014
 11
-39.7281706108
 21
22.7831453642
  0
LINE
  5
4B5
100
AcDbEntity
  8
SUPERFICI
100
AcDbLine
 62
7
  6
CONTINUOUS
 10
-35.7281706108
 20
23.8133251045
 11
-39.7281706108
 21
23.8831453642
  0
LWPOLYLINE
  5
4B6
100
AcDbEntity
  8
0
100
AcDbPolyline
 62
7
  6
CONTINUOUS
 90
8
 70
0
 43
0.3500000087
 10
-25.3353142197
 20
34.6331449463
 10
-24.4781702209
 20
34.6331449463
 10
-24.0495992874
 20
35.0617180115
 10
-24.0495992874
 20
35.9188598785
 10
-24.4781702209
 20
36.3474329437
 10
-25.3353142197
 20
36.3474329437
 10
-25.3353142197
 20
37.6331436127
 10
-24.0495992874
 20
37.6331436127
  0
LWPOLYLINE
  5
4B7
100
AcDbEntity
  8
0
100
AcDbPolyline
 62
7
  6
CONTINUOUS
 90
7
 70
0
 43
0.3500000087
 10
-30.2638852844
 20
34.6331449463
 10
-31.7638846176
 20
34.6331449463
 10
-30.2638852844
 20
36.7760017456
 10
-30.2638852844
 20
37.2045748108
 10
-30.692456218
 20
37.6331436127
 10
-31.3353136841
 20
37.6331436127
 10
-31.7638846176
 20
36.9902882782
  0
LWPOLYLINE
  5
4B8
100
AcDbEntity
  8
0
100
AcDbPolyline
 62
7
  6
CONTINUOUS
 90
3
 70
0
 43
0.3500000087
 10
-27.9067419525
 20
35.2760045441
 10
-29.4067412857
 20
35.2760045441
 10
-28.7638859512
 20
37.6331436127
  0
LWPOLYLINE
  5
4B9
100
AcDbEntity
  8
0
100
AcDbPolyline
 62
7
  6
CONTINUOUS
 90
6
 70
0
 43
0.3500000087
 10
-34.47817146
 20
42.6331442322
 10
-33.4067430603
 20
42.6331442322
 10
-33.1924565277
 20
42.8474307648
 10
-33.1924565277
 20
43.9188591644
 10
-33.6210274612
 20
44.3474322296
 10
-34.0495983948
 20
44.3474322296
  0
LWPOLYLINE
  5
4BA
100
AcDbEntity
  8
0
100
AcDbPolyline
 62
7
  6
CONTINUOUS
 90
3
 70
0
 43
0.3500000087
 10
-30.8353131958
 20
43.27600383
 10
-32.335312529
 20
43.27600383
 10
-31.6924571945
 20
45.6331471619
  0
ARC
  5
4BB
100
AcDbEntity
  8
SUPERFICI
100
AcDbCircle
 62
7
  6
CONTINUOUS
 10
25.2205584505
 20
0.3831453642
 40
28.0
100
AcDbArc
 50
125.9627651514
 51
126.8614108133
  0
ARC
  5
4BC
100
AcDbEntity
  8
SUPERFICI
100
AcDbCircle
 62
7
  6
CONTINUOUS
 10
25.2205584505
 20
0.3831453642
 40
28.0
100
AcDbArc
 50
123.5572123136
 51
124.1210936517
  0
ARC
  5
4BD
100
AcDbEntity
  8
SUPERFICI
100
AcDbCircle
 62
7
  6
CONTINUOUS
 10
2.7205584505
 20
0.3831453642
 40
28.0
100
AcDbArc
 50
55.8789063483
 51
56.4427876864
  0
ARC
  5
4BE
100
AcDbEntity
  8
SUPERFICI
100
AcDbCircle
 62
7
  6
CONTINUOUS
 10
2.7205584505
 20
0.3831453642
 40
28.0
100
AcDbArc
 50
53.1306352597
 51
54.0372348486
  0
ARC
  5
4BF
100
AcDbEntity
  8
SUPERFICI
100
AcDbCircle
 62
7
  6
CONTINUOUS
 10
70.2205584505
 20
0.3831453642
 40
28.0
100
AcDbArc
 50
125.9627651514
 51
126.8693647403
  0
ARC
  5
4C0
100
AcDbEntity
  8
SUPERFICI
100
AcDbCircle
 62
7
  6
CONTINUOUS
 10
70.2205584505
 20
0.3831453642
 40
28.0
100
AcDbArc
 50
123.5572123136
 51
124.1210936517
  0
ARC
  5
4C1
100
AcDbEntity
  8
SUPERFICI
100
AcDbCircle
 62
7
  6
CONTINUOUS
 10
47.7205584505
 20
0.3831453642
 40
28.0
100
AcDbArc
 50
55.8789063483
 51
56.4427876864
  0
ARC
  5
4C2
100
AcDbEntity
  8
SUPERFICI
100
AcDbCircle
 62
7
  6
CONTINUOUS
 10
47.7205584505
 20
0.3831453642
 40
28.0
100
AcDbArc
 50
53.1385891867
 51
54.0372348486
  0
ARC
  5
4C3
100
AcDbEntity
  8
SUPERFICI
100
AcDbCircle
 62
7
  6
CONTINUOUS
 10
47.7205584505
 20
0.3831453642
 40
28.0
100
AcDbArc
 50
305.9627651514
 51
306.8614108133
  0
ARC
  5
4C4
100
AcDbEntity
  8
SUPERFICI
100
AcDbCircle
 62
7
  6
CONTINUOUS
 10
47.7205584505
 20
0.3831453642
 40
28.0
100
AcDbArc
 50
303.5572123136
 51
304.1210936517
  0
ARC
  5
4C5
100
AcDbEntity
  8
SUPERFICI
100
AcDbCircle
 62
7
  6
CONTINUOUS
 10
70.2205584505
 20
0.3831453642
 40
28.0
100
AcDbArc
 50
235.8789063483
 51
236.4427876864
  0
ARC
  5
4C6
100
AcDbEntity
  8
SUPERFICI
100
AcDbCircle
 62
7
  6
CONTINUOUS
 10
70.2205584505
 20
0.3831453642
 40
28.0
100
AcDbArc
 50
233.1306352597
 51
234.0372348486
  0
ARC
  5
4C7
100
AcDbEntity
  8
SUPERFICI
100
AcDbCircle
 62
7
  6
CONTINUOUS
 10
2.7205584505
 20
0.3831453642
 40
28.0
100
AcDbArc
 50
305.9627651514
 51
306.8693647403
  0
ARC
  5
4C8
100
AcDbEntity
  8
SUPERFICI
100
AcDbCircle
 62
7
  6
CONTINUOUS
 10
2.7205584505
 20
0.3831453642
 40
28.0
100
AcDbArc
 50
303.5572123136
 51
304.1210936517
  0
ARC
  5
4C9
100
AcDbEntity
  8
SUPERFICI
100
AcDbCircle
 62
7
  6
CONTINUOUS
 10
25.2205584505
 20
0.3831453642
 40
28.0
100
AcDbArc
 50
235.8789063483
 51
236.4427876864
  0
ARC
  5
4CA
100
AcDbEntity
  8
SUPERFICI
100
AcDbCircle
 62
7
  6
CONTINUOUS
 10
25.2205584505
 20
0.3831453642
 40
28.0
100
AcDbArc
 50
233.1385891867
 51
234.0372348486
  0
ARC
  5
4CB
100
AcDbEntity
  8
RACCORDO
100
AcDbCircle
 62
7
  6
CONTINUOUS
 10
52.5705584505
 20
-9.1168546358
 40
2.7
100
AcDbArc
 50
144.31296415
 51
35.68703585
  0
ARC
  5
4CC
100
AcDbEntity
  8
RACCORDO
100
AcDbCircle
 62
7
  6
CONTINUOUS
 10
52.5705584505
 20
9.8831453642
 40
2.7
100
AcDbArc
 50
324.31296415
 51
215.68703585
  0
ARC
  5
4CD
100
AcDbEntity
  8
RACCORDO
100
AcDbCircle
 62
7
  6
CONTINUOUS
 10
13.5705584505
 20
9.8831453642
 40
2.7
100
AcDbArc
 50
324.3129641431
 51
215.68703585
  0
ARC
  5
4CE
100
AcDbEntity
  8
RACCORDO
100
AcDbCircle
 62
7
  6
CONTINUOUS
 10
13.5705584505
 20
-9.1168546358
 40
2.7
100
AcDbArc
 50
144.31296415
 51
35.68703585
  0
ARC
  5
4CF
100
AcDbEntity
  8
DRAFT
100
AcDbCircle
 62
7
  6
CONTINUOUS
 10
64.4705584505
 20
0.3831453642
 40
2.65
100
AcDbArc
 50
90.0
 51
270.0
  0
ARC
  5
4D0
100
AcDbEntity
  8
DRAFT
100
AcDbCircle
 62
7
  6
CONTINUOUS
 10
25.4705584505
 20
0.3831453642
 40
2.65
100
AcDbArc
 50
90.0
 51
270.0
  0
ARC
  5
4D1
100
AcDbEntity
  8
SUPERFICI
100
AcDbCircle
 62
7
  6
CONTINUOUS
 10
54.0205584505
 20
-22.7168546358
 40
0.5
100
AcDbArc
 50
350.803718421
 51
119.112422776
  0
ARC
  5
4D2
100
AcDbEntity
  8
SUPERFICI
100
AcDbCircle
 62
7
  6
CONTINUOUS
 10
63.9205584505
 20
-22.7168546358
 40
0.5
100
AcDbArc
 50
60.887577224
 51
189.196281579
  0
ARC
  5
4D3
100
AcDbEntity
  8
SUPERFICI
100
AcDbCircle
 62
7
  6
CONTINUOUS
 10
54.0205584505
 20
23.4831453642
 40
0.5
100
AcDbArc
 50
240.887577224
 51
9.196281579
  0
ARC
  5
4D4
100
AcDbEntity
  8
SUPERFICI
100
AcDbCircle
 62
7
  6
CONTINUOUS
 10
63.9205584505
 20
23.4831453642
 40
0.5
100
AcDbArc
 50
170.803718421
 51
299.112422776
  0
ARC
  5
4D5
100
AcDbEntity
  8
SUPERFICI
100
AcDbCircle
 62
7
  6
CONTINUOUS
 10
18.9205584505
 20
-22.7168546358
 40
0.5
100
AcDbArc
 50
60.887577224
 51
189.196281579
  0
ARC
  5
4D6
100
AcDbEntity
  8
SUPERFICI
100
AcDbCircle
 62
7
  6
CONTINUOUS
 10
9.0205584505
 20
-22.7168546358
 40
0.5
100
AcDbArc
 50
350.803718421
 51
119.112422776
  0
ARC
  5
4D7
100
AcDbEntity
  8
SUPERFICI
100
AcDbCircle
 62
7
  6
CONTINUOUS
 10
18.9205584505
 20
23.4831453642
 40
0.5
100
AcDbArc
 50
170.803718421
 51
299.112422776
  0
ARC
  5
4D8
100
AcDbEntity
  8
SUPERFICI
100
AcDbCircle
 62
7
  6
CONTINUOUS
 10
9.0205584505
 20
23.4831453642
 40
0.5
100
AcDbArc
 50
240.887577224
 51
9.196281579
  0
ARC
  5
4D9
100
AcDbEntity
  8
SUPERFICI
100
AcDbCircle
 62
7
  6
CONTINUOUS
 10
-47.7870896745
 20
-20.5931322382
 40
1.0
100
AcDbArc
 50
182.4092313014
 51
267.0
  0
ARC
  5
4DA
100
AcDbEntity
  8
RACCORDO
100
AcDbCircle
 62
7
  6
CONTINUOUS
 10
-31.7660420161
 20
-20.2476192599
 40
0.5
100
AcDbArc
 50
271.0
 51
315.0
  0
ARC
  5
4DB
100
AcDbEntity
  8
RACCORDO
100
AcDbCircle
 62
7
  6
CONTINUOUS
 10
-18.7281706108
 20
-18.0773910173
 40
0.5
100
AcDbArc
 50
271.0
 51
360.0
  0
ARC
  5
4DC
100
AcDbEntity
  8
RACCORDO
100
AcDbCircle
 62
7
  6
CONTINUOUS
 10
-16.0281706108
 20
-5.8783703011
 40
0.5
100
AcDbArc
 50
270.9999859461
 51
359.9991946667
  0
ARC
  5
4DD
100
AcDbEntity
  8
RACCORDO
100
AcDbCircle
 62
7
  6
CONTINUOUS
 10
-16.5281706108
 20
-9.5563595644
 40
0.3
100
AcDbArc
 50
0.0
 51
87.0
  0
ARC
  5
4DE
100
AcDbEntity
  8
RACCORDO
100
AcDbCircle
 62
7
  6
CONTINUOUS
 10
-16.5281706108
 20
-16.3773497072
 40
0.3
100
AcDbArc
 50
273.0
 51
360.0
  0
ARC
  5
4DF
100
AcDbEntity
  8
RACCORDO
100
AcDbCircle
 62
7
  6
CONTINUOUS
 10
-15.5281706108
 20
-4.1297574865
 40
0.3
100
AcDbArc
 50
273.0
 51
360.0
  0
ARC
  5
4E0
100
AcDbEntity
  8
RACCORDO
100
AcDbCircle
 62
7
  6
CONTINUOUS
 10
-17.9281706108
 20
-17.0515440058
 40
0.3
100
AcDbArc
 50
93.0
 51
109.4841235403
  0
ARC
  5
4E1
100
AcDbEntity
  8
RACCORDO
100
AcDbCircle
 62
7
  6
CONTINUOUS
 10
-17.9281706108
 20
-8.8821652658
 40
0.3
100
AcDbArc
 50
250.5158764598
 51
267.0
  0
ARC
  5
4E2
100
AcDbEntity
  8
SUPERFICI
100
AcDbCircle
 62
7
  6
CONTINUOUS
 10
-47.7870896745
 20
21.3594229667
 40
1.0
100
AcDbArc
 50
93.0
 51
177.5907686986
  0
ARC
  5
4E3
100
AcDbEntity
  8
RACCORDO
100
AcDbCircle
 62
7
  6
CONTINUOUS
 10
-18.6396774573
 20
17.452104001
 40
0.5
100
AcDbArc
 50
27.204206719
 51
34.5488555765
  0
ARC
  5
4E4
100
AcDbEntity
  8
RACCORDO
100
AcDbCircle
 62
7
  6
CONTINUOUS
 10
-31.7660420161
 20
21.0139099883
 40
0.5
100
AcDbArc
 50
45.0
 51
89.0
  0
ARC
  5
4E5
100
AcDbEntity
  8
RACCORDO
100
AcDbCircle
 62
7
  6
CONTINUOUS
 10
-18.7281706108
 20
18.8436817457
 40
0.5
100
AcDbArc
 50
0.0
 51
89.0
  0
ARC
  5
4E6
100
AcDbEntity
  8
RACCORDO
100
AcDbCircle
 62
7
  6
CONTINUOUS
 10
-16.0281706108
 20
6.6446680573
 40
0.5
100
AcDbArc
 50
0.0
 51
89.0
  0
ARC
  5
4E7
100
AcDbEntity
  8
RACCORDO
100
AcDbCircle
 62
7
  6
CONTINUOUS
 10
-15.5281706108
 20
2.7960482149
 40
0.3
100
AcDbArc
 50
0.0
 51
87.0
  0
ARC
  5
4E8
100
AcDbEntity
  8
RACCORDO
100
AcDbCircle
 62
7
  6
CONTINUOUS
 10
-16.5281706108
 20
17.1436404356
 40
0.3
100
AcDbArc
 50
0.0
 51
87.0
  0
ARC
  5
4E9
100
AcDbEntity
  8
RACCORDO
100
AcDbCircle
 62
7
  6
CONTINUOUS
 10
-16.5281706108
 20
10.3226502928
 40
0.3
100
AcDbArc
 50
273.0
 51
360.0
  0
ARC
  5
4EA
100
AcDbEntity
  8
RACCORDO
100
AcDbCircle
 62
7
  6
CONTINUOUS
 10
-17.9281706108
 20
17.8178347342
 40
0.3
100
AcDbArc
 50
207.1459318698
 51
267.0
  0
ARC
  5
4EB
100
AcDbEntity
  8
RACCORDO
100
AcDbCircle
 62
7
  6
CONTINUOUS
 10
-17.9281706108
 20
9.6484559942
 40
0.3
100
AcDbArc
 50
93.0
 51
180.0
  0
ARC
  5
4EC
100
AcDbEntity
  8
RACCORDO
100
AcDbCircle
 62
7
  6
CONTINUOUS
 10
450.7718293892
 20
0.3831453642
 40
500.0
100
AcDbArc
 50
179.6593606957
 51
179.7310243287
  0
ARC
  5
4ED
100
AcDbEntity
  8
RACCORDO
100
AcDbCircle
 62
7
  6
CONTINUOUS
 10
450.7718293892
 20
0.3831453642
 40
500.0
100
AcDbArc
 50
179.7335086323
 51
180.266558806
  0
ARC
  5
4EE
100
AcDbEntity
  8
RACCORDO
100
AcDbCircle
 62
7
  6
CONTINUOUS
 10
450.7718293892
 20
0.3831453642
 40
500.0
100
AcDbArc
 50
179.1972165742
 51
179.4347803354
  0
ARC
  5
4EF
100
AcDbEntity
  8
RACCORDO
100
AcDbCircle
 62
7
  6
CONTINUOUS
 10
450.7718293892
 20
0.3831453642
 40
500.0
100
AcDbArc
 50
178.5645043773
 51
179.1965994956
  0
ARC
  5
4F0
100
AcDbEntity
  8
RACCORDO
100
AcDbCircle
 62
7
  6
CONTINUOUS
 10
450.7718293892
 20
0.3831453642
 40
500.0
100
AcDbArc
 50
180.5652196646
 51
181.4354956227
  0
ARC
  5
4F1
100
AcDbEntity
  8
SUPERFICI
100
AcDbCircle
 62
7
  6
CONTINUOUS
 10
450.7718293892
 20
0.3831453642
 40
500.0
100
AcDbArc
 50
177.5907686986
 51
182.4092313014
  0
ELLIPSE
  5
4F2
100
AcDbEntity
  8
SUPERFICI
100
AcDbEllipse
 62
7
  6
CONTINUOUS
 10
69.6204822865
 20
-21.5161684628
 30
0.0
 11
-0.1582391023
 21
0.4751033573
 31
0.0
 40
0.9984778551
 41
-3.4626430041
 42
-1.8927600658
  0
ELLIPSE
  5
4F3
100
AcDbEntity
  8
SUPERFICI
100
AcDbEllipse
 62
7
  6
CONTINUOUS
 10
69.6204822865
 20
22.2824591912
 30
0.0
 11
0.1582391023
 21
0.4751033573
 31
0.0
 40
0.9984778551
 41
-1.2488325878
 42
0.3210503505
  0
ELLIPSE
  5
4F4
100
AcDbEntity
  8
SUPERFICI
100
AcDbEllipse
 62
7
  6
CONTINUOUS
 10
3.3206346145
 20
-21.5161684628
 30
0.0
 11
0.1582391023
 21
0.4751033573
 31
0.0
 40
0.9984778551
 41
-4.3904252414
 42
-2.8205423031
  0
ELLIPSE
  5
4F5
100
AcDbEntity
  8
SUPERFICI
100
AcDbEllipse
 62
7
  6
CONTINUOUS
 10
3.3206346145
 20
22.2824591912
 30
0.0
 11
-0.1582391023
 21
0.4751033573
 31
0.0
 40
0.9984778551
 41
-0.3210503505
 42
1.2488325878
  0
ENDSEC
  0
SECTION
  2
OBJECTS
  0
DICTIONARY
  5
C
100
AcDbDictionary
280
0
281
1
  3
ACAD_GROUP
350
D
  3
ACAD_MLINESTYLE
350
17
  3
ACAD_LAYOUT
350
1A
  3
ACAD_PLOTSETTINGS
350
19
  3
ACAD_PLOTSTYLENAME
350
E
  0
DICTIONARY
  5
D
102
{ACAD_REACTORS
330
C
102
}
100
AcDbDictionary
280
0
281
1
  0
ACDBDICTIONARYWDFLT
  5
E
102
{ACAD_REACTORS
330
C
102
}
100
AcDbDictionary
281
1
  3
Normal
350
F
100
AcDbDictionaryWithDefault
340
F
  0
DICTIONARY
  5
17
102
{ACAD_REACTORS
330
C
102
}
100
AcDbDictionary
280
0
281
1
  3
Standard
350
18
  0
DICTIONARY
  5
19
102
{ACAD_REACTORS
330
C
102
}
100
AcDbDictionary
281
1
  0
DICTIONARY
  5
1A
102
{ACAD_REACTORS
330
C
102
}
100
AcDbDictionary
281
1
  3
Model
350
4F6
  3
Layout1
350
4F7
  0
ACDBPLACEHOLDER
  5
F
102
{ACAD_REACTORS
330
E
102
}
  0
MLINESTYLE
  5
18
102
{ACAD_REACTORS
330
17
102
}
100
AcDbMlineStyle
  2
STANDARD
 70
0
  3

 62
256
 51
90.0
 52
90.0
 71
2
 49
0.5
 62
256
  6
BYLAYER
 49
-0.5
 62
256
  6
BYLAYER
  0
LAYOUT
  5
4F6
102
{ACAD_REACTORS
330
1A
102
}
100
AcDbPlotSettings
  1

  2
none_device
  4
ANSI_C_(22.00_x_17.00_Inches)
  6

 40
0.0
 41
0.0
 42
0.0
 43
0.0
 44
558.8
 45
431.8
 46
0.0
 47
0.0
 48
0.0
 49
0.0
140
0.0
141
0.0
142
1.0
143
1.0
 70
1024
 72
1
 73
0
 74
0
  7

 75
0
147
1.0
148
0.0
149
0.0
100
AcDbLayout
  1
Model
 70
0
 71
0
 10
0.0
 20
0.0
 11
558.8
 21
431.8
 12
0.0
 22
0.0
 32
0.0
 14
0.0
 24
0.0
 34
0.0
 15
0.0
 25
0.0
 35
0.0
146
0.0
 13
0.0
 23
0.0
 33
0.0
 16
1.0
 26
0.0
 36
0.0
 17
0.0
 27
1.0
 37
0.0
 76
0
330
218
345
0
346
0
  0
LAYOUT
  5
4F7
102
{ACAD_REACTORS
330
1A
102
}
100
AcDbPlotSettings
  1

  2
none_device
  4
ANSI_C_(22.00_x_17.00_Inches)
  6

 40
0.0
 41
0.0
 42
0.0
 43
0.0
 44
558.8
 45
431.8
 46
0.0
 47
0.0
 48
0.0
 49
0.0
140
0.0
141
0.0
142
1.0
143
1.0
 70
0
 72
1
 73
0
 74
0
  7

 75
0
147
1.0
148
0.0
149
0.0
100
AcDbLayout
  1
Layout1
 70
0
 71
1
 10
0.0
 20
0.0
 11
558.8
 21
431.8
 12
0.0
 22
0.0
 32
0.0
 14
0.0
 24
0.0
 34
0.0
 15
0.0
 25
0.0
 35
0.0
146
0.0
 13
0.0
 23
0.0
 33
0.0
 16
1.0
 26
0.0
 36
0.0
 17
0.0
 27
1.0
 37
0.0
 76
0
330
219
345
0
346
0
  0
ENDSEC
  0
EOF
