0
SECTION
2
HEADER
9
$ACADVER
1
AC1015
9
$DWGCODEPAGE
3
ANSI_1252
9
$EXTMAX
10
297.0000000000
20
210.0000000000
30
0.0000000000
9
$EXTMIN
10
0.0000000000
20
0.0000000000
30
0.0000000000
9
$LIMMIN
10
0.0000000000
20
0.0000000000
9
$LIMMAX
10
297.0000000000
20
210.0000000000
9
$VIEWCTR
10
148.5000000000
20
105.0000000000
9
$VIEWSIZE
40
210.0000000000
9
$CLAYER
8
0
9
$LTSCALE
40
16.3350000000
9
$CELTYPE
6
BYLAYER
9
$DIMSCALE
40
1
9
$DIMASZ
40
3.0000000000
9
$DIMEXO
40
1.8562500000
9
$DIMDLI
40
11.2860000000
9
$DIMEXE
40
5.3460000000
9
$DIMCEN
40
2.6730000000
9
$DIMLFAC
40
1.0000000000
9
$DIMBLK
1
_FILLED
9
$DIMTXT
40
3.0000000000
9
$DIMTOL
70
1
9
$DIMLIM
70
0
9
$DIMTFAC
40
1.0000000000
9
$DIMTP
40
0.0100000000
9
$DIMTM
40
0.0100000000
9
$PDMODE
70
3
9
$PDSIZE
40
3.0000000000
9
$HANDSEED
5
412
9
$MEASUREMENT
70
1
9
$INSUNITS
70
4
0
ENDSEC
0
SECTION
2
CLASSES
0
CLASS
1
ACDBDICTIONARYWDFLT
2
AcDbDictionaryWithDefault
3
AutoCAD 2000
90
0
280
0
281
0
0
CLASS
1
ACDBPLACEHOLDER
2
AcDbPlaceHolder
3
AutoCAD 2000
90
0
280
0
281
0
0
CLASS
1
LAYOUT
2
AcDbLayout
3
AutoCAD 2000
90
0
280
0
281
0
0
ENDSEC
0
SECTION
2
TABLES
0
TABLE
2
VPORT
5
8
100
AcDbSymbolTable
70
2
0
VPORT
5
1F4
100
AcDbSymbolTableRecord
100
AcDbViewportTableRecord
2
*ACTIVE
70
0
10
0.0
20
0.0
11
1.0
21
1.0
12
148.5000000000
22
105.0000000000
13
0.0
23
0.0
14
1.0
24
1.0
15
0.0
25
0.0
16
0.0
26
0.0
36
1.0
17
0.0
27
0.0
37
0.0
40
210.0000000000
41
1.4142857143
42
50.0
43
0.0
44
0.0
50
0.0
51
0.0
71
0
72
100
73
1
74
1
75
0
76
0
77
0
78
0
0
ENDTAB
0
TABLE
2
LTYPE
5
5
100
AcDbSymbolTable
70
6
0
LTYPE
5
14
100
AcDbSymbolTableRecord
100
AcDbLinetypeTableRecord
2
BYBLOCK
70
0
3

72
65
73
0
40
0.0
0
LTYPE
5
15
100
AcDbSymbolTableRecord
100
AcDbLinetypeTableRecord
2
BYLAYER
70
0
3

72
65
73
0
40
0.0
0
LTYPE
5
16
100
AcDbSymbolTableRecord
100
AcDbLinetypeTableRecord
2
CONTINUOUS
70
64
3
Solid line
72
65
73
0
40
0
0
LTYPE
5
1F5
100
AcDbSymbolTableRecord
100
AcDbLinetypeTableRecord
2
CENTER
70
64
3
____ _ ____ _ ____ _ ____ _ ____ _ ____ _ ____
72
65
73
4
40
0.6
49
0.375
74
0
49
-0.075
74
0
49
0.075
74
0
49
-0.075
74
0
0
LTYPE
5
1F6
100
AcDbSymbolTableRecord
100
AcDbLinetypeTableRecord
2
HIDDEN
70
64
3
- - - - - - - - - - - - - - - - - - - -
72
65
73
2
40
0.2
49
0.1
74
0
49
-0.1
74
0
0
LTYPE
5
1F7
100
AcDbSymbolTableRecord
100
AcDbLinetypeTableRecord
2
PHANTOM
70
64
3
_____ _ _ _____ _ _ _____ _ _ _____
72
65
73
6
40
0.8
49
0.45
74
0
49
-0.05
74
0
49
0.1
74
0
49
-0.05
74
0
49
0.1
74
0
49
-0.05
74
0
0
LTYPE
5
1F8
100
AcDbSymbolTableRecord
100
AcDbLinetypeTableRecord
2
DOT
70
64
3
. . . . . . . . . . . . . . . . . . . .
72
65
73
2
40
0.2
49
0.1
74
0
49
-0.1
74
0
0
LTYPE
5
1F9
100
AcDbSymbolTableRecord
100
AcDbLinetypeTableRecord
2
DASHED
70
64
3
- - - - - - - - - - - - - - - - - - - -
72
65
73
2
40
0.2
49
0.1
74
0
49
-0.1
74
0
0
ENDTAB
0
TABLE
2
LAYER
5
2
100
AcDbSymbolTable
70
36
0
LAYER
5
10
100
AcDbSymbolTableRecord
100
AcDbLayerTableRecord
2
0
70
0
62
7
6
CONTINUOUS
370
-3
390
F
0
LAYER
5
1FA
100
AcDbSymbolTableRecord
100
AcDbLayerTableRecord
2
DEFAULT_1
70
0
62
7
6
CENTER
370
-3
390
F
0
LAYER
5
1FB
100
AcDbSymbolTableRecord
100
AcDbLayerTableRecord
2
DEFAULT_2
70
0
62
8
6
HIDDEN
370
-3
390
F
0
LAYER
5
1FC
100
AcDbSymbolTableRecord
100
AcDbLayerTableRecord
2
DEFAULT_3
70
0
62
7
6
PHANTOM
370
-3
390
F
0
LAYER
5
1FD
100
AcDbSymbolTableRecord
100
AcDbLayerTableRecord
2
_BLACK_HOLE
70
0
62
7
6
CONTINUOUS
370
-3
390
F
0
LAYER
5
1FE
100
AcDbSymbolTableRecord
100
AcDbLayerTableRecord
2
217CINESE7
70
0
62
7
6
CONTINUOUS
370
-3
390
F
0
LAYER
5
1FF
100
AcDbSymbolTableRecord
100
AcDbLayerTableRecord
2
ASSI
70
0
62
7
6
CONTINUOUS
370
-3
390
F
0
LAYER
5
200
100
AcDbSymbolTableRecord
100
AcDbLayerTableRecord
2
COORDINATE
70
0
62
7
6
CONTINUOUS
370
-3
390
F
0
LAYER
5
201
100
AcDbSymbolTableRecord
100
AcDbLayerTableRecord
2
COORD_ORIGINE
70
0
62
7
6
CONTINUOUS
370
-3
390
F
0
LAYER
5
202
100
AcDbSymbolTableRecord
100
AcDbLayerTableRecord
2
COSMETICHE
70
0
62
7
6
CONTINUOUS
370
-3
390
F
0
LAYER
5
203
100
AcDbSymbolTableRecord
100
AcDbLayerTableRecord
2
COSMETICI
70
0
62
7
6
CONTINUOUS
370
-3
390
F
0
LAYER
5
204
100
AcDbSymbolTableRecord
100
AcDbLayerTableRecord
2
CURVE
70
0
62
7
6
CONTINUOUS
370
-3
390
F
0
LAYER
5
205
100
AcDbSymbolTableRecord
100
AcDbLayerTableRecord
2
DRAFT
70
0
62
7
6
CONTINUOUS
370
-3
390
F
0
LAYER
5
206
100
AcDbSymbolTableRecord
100
AcDbLayerTableRecord
2
IMPORT_FEATURES
70
0
62
7
6
CONTINUOUS
370
-3
390
F
0
LAYER
5
207
100
AcDbSymbolTableRecord
100
AcDbLayerTableRecord
2
INTF_1
70
0
62
7
6
CONTINUOUS
370
-3
390
F
0
LAYER
5
208
100
AcDbSymbolTableRecord
100
AcDbLayerTableRecord
2
INTF_7
70
0
62
7
6
CONTINUOUS
370
-3
390
F
0
LAYER
5
209
100
AcDbSymbolTableRecord
100
AcDbLayerTableRecord
2
INTF_CYAN
70
0
62
7
6
CONTINUOUS
370
-3
390
F
0
LAYER
5
20A
100
AcDbSymbolTableRecord
100
AcDbLayerTableRecord
2
NOTE
70
0
62
7
6
CONTINUOUS
370
-3
390
F
0
LAYER
5
20B
100
AcDbSymbolTableRecord
100
AcDbLayerTableRecord
2
PIANI
70
0
62
7
6
CONTINUOUS
370
-3
390
F
0
LAYER
5
20C
100
AcDbSymbolTableRecord
100
AcDbLayerTableRecord
2
PIANI_ORIGINE
70
0
62
7
6
CONTINUOUS
370
-3
390
F
0
LAYER
5
20D
100
AcDbSymbolTableRecord
100
AcDbLayerTableRecord
2
PUNTI
70
0
62
7
6
CONTINUOUS
370
-3
390
F
0
LAYER
5
20E
100
AcDbSymbolTableRecord
100
AcDbLayerTableRecord
2
RACCORDO
70
0
62
7
6
CONTINUOUS
370
-3
390
F
0
LAYER
5
20F
100
AcDbSymbolTableRecord
100
AcDbLayerTableRecord
2
RGB__255__255__255__
70
0
62
7
6
CONTINUOUS
370
-3
390
F
0
LAYER
5
210
100
AcDbSymbolTableRecord
100
AcDbLayerTableRecord
2
RGB____0____0____0__
70
0
62
7
6
CONTINUOUS
370
-3
390
F
0
LAYER
5
211
100
AcDbSymbolTableRecord
100
AcDbLayerTableRecord
2
SMUSSO
70
0
62
7
6
CONTINUOUS
370
-3
390
F
0
LAYER
5
212
100
AcDbSymbolTableRecord
100
AcDbLayerTableRecord
2
SNAPLINE
70
0
62
7
6
CONTINUOUS
370
-3
390
F
0
LAYER
5
213
100
AcDbSymbolTableRecord
100
AcDbLayerTableRecord
2
SUPERFICI
70
0
62
7
6
CONTINUOUS
370
-3
390
F
0
LAYER
5
214
100
AcDbSymbolTableRecord
100
AcDbLayerTableRecord
2
TRASH
70
0
62
7
6
CONTINUOUS
370
-3
390
F
0
LAYER
5
215
100
AcDbSymbolTableRecord
100
AcDbLayerTableRecord
2
XSEC_DATUMS
70
0
62
7
6
CONTINUOUS
370
-3
390
F
0
ENDTAB
0
TABLE
2
STYLE
5
3
100
AcDbSymbolTable
70
1
0
STYLE
5
11
100
AcDbSymbolTableRecord
100
AcDbTextStyleTableRecord
2
STANDARD
70
0
40
0.0
41
0.8000000000
50
0.0
71
0
42
0.2
3
txt
4

0
ENDTAB
0
TABLE
2
VIEW
5
6
100
AcDbSymbolTable
70
0
0
ENDTAB
0
TABLE
2
UCS
5
7
100
AcDbSymbolTable
70
0
0
ENDTAB
0
TABLE
2
APPID
5
9
100
AcDbSymbolTable
70
1
0
APPID
5
216
100
AcDbSymbolTableRecord
100
AcDbRegAppTableRecord
2
ACAD
70
0
0
ENDTAB
0
TABLE
2
BLOCK_RECORD
5
1
100
AcDbSymbolTable
70
0
0
BLOCK_RECORD
5
1F
100
AcDbSymbolTableRecord
100
AcDbBlockTableRecord
2
*MODEL_SPACE
0
BLOCK_RECORD
5
1B
100
AcDbSymbolTableRecord
100
AcDbBlockTableRecord
2
*PAPER_SPACE
0
BLOCK_RECORD
5
217
100
AcDbSymbolTableRecord
100
AcDbBlockTableRecord
2
_FILLED
0
BLOCK_RECORD
5
218
100
AcDbSymbolTableRecord
100
AcDbBlockTableRecord
2
*D0
0
BLOCK_RECORD
5
219
100
AcDbSymbolTableRecord
100
AcDbBlockTableRecord
2
*D1
0
BLOCK_RECORD
5
21A
100
AcDbSymbolTableRecord
100
AcDbBlockTableRecord
2
*D2
0
BLOCK_RECORD
5
21B
100
AcDbSymbolTableRecord
100
AcDbBlockTableRecord
2
*D3
0
ENDTAB
0
TABLE
2
DIMSTYLE
5
A
100
AcDbSymbolTable
70
1
100
AcDbDimStyleTable
71
0
0
DIMSTYLE
105
21C
100
AcDbSymbolTableRecord
100
AcDbDimStyleTableRecord
2
STANDARD
70
0
3

4

40
1.0
41
3.0000000000
42
0.0625
43
0.38
44
0.18
45
0.0
46
0.0
47
0.0100000000
48
0.0100000000
140
3.0000000000
141
0.09
142
0.0
143
25.4
144
1.0000000000
145
0.0
146
1.0000000000
147
0.09
71
1
72
0
73
0
74
0
75
0
76
0
77
1
78
8
170
0
171
2
172
0
173
0
174
0
175
0
176
0
177
0
178
0
270
2
271
2
272
2
273
2
274
2
275
0
280
0
281
0
282
0
283
1
284
8
285
0
286
0
287
3
288
0
340
11
341
217
342
217
343
217
344
217
0
DIMSTYLE
105
21D
100
AcDbSymbolTableRecord
100
AcDbDimStyleTableRecord
2
DIMSTYLE_1
70
0
3

4

40
1.0
41
3.0000000000
42
0.0625
43
0.38
44
0.18
45
0.0
46
0.0
47
0.0000000000
48
0.0000000000
140
3.0000000000
141
0.09
142
0.0
143
25.4
144
1.0000000000
145
0.0
146
1.0000000000
147
0.09
71
0
72
0
73
0
74
0
75
0
76
0
77
1
78
8
170
0
171
2
172
0
173
0
174
0
175
0
176
0
177
0
178
0
270
2
271
2
272
2
273
2
274
2
275
0
280
0
281
0
282
0
283
1
284
8
285
0
286
0
287
3
288
0
340
11
341
217
342
217
343
217
344
217
0
ENDTAB
0
ENDSEC
0
SECTION
2
BLOCKS
0
BLOCK
5
20
100
AcDbEntity
8
0
100
AcDbBlockBegin
2
*MODEL_SPACE
70
0
10
0.0
20
0.0
30
0.0
3
*MODEL_SPACE
1

0
ENDBLK
5
21
100
AcDbEntity
8
0
100
AcDbBlockEnd
0
BLOCK
5
1C
100
AcDbEntity
8
0
100
AcDbBlockBegin
2
*PAPER_SPACE
70
0
10
0.0
20
0.0
30
0.0
3
*PAPER_SPACE
1

0
ENDBLK
5
1D
100
AcDbEntity
8
0
100
AcDbBlockEnd
0
BLOCK
5
21E
100
AcDbEntity
8
0
100
AcDbBlockBegin
62
2
6
CONTINUOUS
2
*D0
70
65
10
0.0000000000
20
0.0000000000
3
*D0
1

0
TEXT
5
21F
100
AcDbEntity
8
0
100
AcDbText
62
2
6
CONTINUOUS
10
-4.2857142857
20
32.7135048793
7
STANDARD
40
3.0000000000
1
22,3
41
0.7142857143
72
0
100
AcDbText
0
LINE
5
220
100
AcDbEntity
8
0
100
AcDbLine
62
2
6
CONTINUOUS
10
-11.1500000000
20
22.3997711479
11
-11.1500000000
21
33.4635048793
0
LINE
5
221
100
AcDbEntity
8
0
100
AcDbLine
62
2
6
CONTINUOUS
10
11.1500000000
20
22.3997711479
11
11.1500000000
21
33.4635048793
0
LINE
5
222
100
AcDbEntity
8
0
100
AcDbLine
62
2
6
CONTINUOUS
10
-11.1500000000
20
31.9635048793
11
0.0000000000
21
31.9635048793
0
LINE
5
223
100
AcDbEntity
8
0
100
AcDbLine
62
2
6
CONTINUOUS
10
11.1500000000
20
31.9635048793
11
0.0000000000
21
31.9635048793
0
INSERT
5
224
100
AcDbEntity
8
0
100
AcDbBlockReference
62
2
6
CONTINUOUS
2
_FILLED
10
-11.1500000000
20
31.9635048793
41
  3.000000
42
  3.000000
43
  3.000000
50
180.000000
0
INSERT
5
225
100
AcDbEntity
8
0
100
AcDbBlockReference
62
2
6
CONTINUOUS
2
_FILLED
10
11.1500000000
20
31.9635048793
41
  3.000000
42
  3.000000
43
  3.000000
0
ENDBLK
5
226
100
AcDbEntity
8
0
6
BYBLOCK
62
0
100
AcDbBlockEnd
0
BLOCK
5
227
100
AcDbEntity
8
0
100
AcDbBlockBegin
62
2
6
CONTINUOUS
2
*D1
70
65
10
0.0000000000
20
0.0000000000
3
*D1
1

0
TEXT
5
228
100
AcDbEntity
8
0
100
AcDbText
62
2
6
CONTINUOUS
10
22.3040533353
20
-2.3571428571
7
STANDARD
40
3.0000000000
1
47
50
90.0000000000
41
0.7857142857
72
0
100
AcDbText
0
LINE
5
229
100
AcDbEntity
8
0
100
AcDbLine
62
2
6
CONTINUOUS
10
4.1748576536
20
23.5000000000
11
24.5540533353
21
23.5000000000
0
LINE
5
22A
100
AcDbEntity
8
0
100
AcDbLine
62
2
6
CONTINUOUS
10
4.1748577618
20
-23.5000000000
11
24.5540533353
21
-23.5000000000
0
LINE
5
22B
100
AcDbEntity
8
0
100
AcDbLine
62
2
6
CONTINUOUS
10
23.0540533353
20
23.5000000000
11
23.0540533353
21
-0.0000000000
0
LINE
5
22C
100
AcDbEntity
8
0
100
AcDbLine
62
2
6
CONTINUOUS
10
23.0540533353
20
-23.5000000000
11
23.0540533353
21
-0.0000000000
0
INSERT
5
22D
100
AcDbEntity
8
0
100
AcDbBlockReference
62
2
6
CONTINUOUS
2
_FILLED
10
23.0540533353
20
23.5000000000
41
  3.000000
42
  3.000000
43
  3.000000
50
 90.000000
0
INSERT
5
22E
100
AcDbEntity
8
0
100
AcDbBlockReference
62
2
6
CONTINUOUS
2
_FILLED
10
23.0540533353
20
-23.5000000000
41
  3.000000
42
  3.000000
43
  3.000000
50
270.000000
0
ENDBLK
5
22F
100
AcDbEntity
8
0
6
BYBLOCK
62
0
100
AcDbBlockEnd
0
BLOCK
5
230
100
AcDbEntity
8
0
100
AcDbBlockBegin
62
2
6
CONTINUOUS
2
*D2
70
65
10
0.0000000000
20
0.0000000000
3
*D2
1

0
TEXT
5
231
100
AcDbEntity
8
0
100
AcDbText
62
2
6
CONTINUOUS
10
-43.0533306587
20
32.7135048793
7
STANDARD
40
3.0000000000
1
27
41
0.7857142857
72
0
100
AcDbText
0
LINE
5
232
100
AcDbEntity
8
0
100
AcDbLine
62
2
6
CONTINUOUS
10
-54.1961878016
20
22.3997711479
11
-54.1961878016
21
33.4635048793
0
LINE
5
233
100
AcDbEntity
8
0
100
AcDbLine
62
2
6
CONTINUOUS
10
-27.1961878016
20
14.8692730539
11
-27.1961878016
21
33.4635048793
0
LINE
5
234
100
AcDbEntity
8
0
100
AcDbLine
62
2
6
CONTINUOUS
10
-54.1961878016
20
31.9635048793
11
-40.6961878016
21
31.9635048793
0
LINE
5
235
100
AcDbEntity
8
0
100
AcDbLine
62
2
6
CONTINUOUS
10
-27.1961878016
20
31.9635048793
11
-40.6961878016
21
31.9635048793
0
INSERT
5
236
100
AcDbEntity
8
0
100
AcDbBlockReference
62
2
6
CONTINUOUS
2
_FILLED
10
-54.1961878016
20
31.9635048793
41
  3.000000
42
  3.000000
43
  3.000000
50
180.000000
0
INSERT
5
237
100
AcDbEntity
8
0
100
AcDbBlockReference
62
2
6
CONTINUOUS
2
_FILLED
10
-27.1961878016
20
31.9635048793
41
  3.000000
42
  3.000000
43
  3.000000
0
ENDBLK
5
238
100
AcDbEntity
8
0
6
BYBLOCK
62
0
100
AcDbBlockEnd
0
BLOCK
5
239
100
AcDbEntity
8
0
100
AcDbBlockBegin
62
2
6
CONTINUOUS
2
*D3
70
65
10
0.0000000000
20
0.0000000000
3
*D3
1

0
TEXT
5
23A
100
AcDbEntity
8
0
100
AcDbText
62
2
6
CONTINUOUS
10
-49.6247592302
20
42.7135048793
7
STANDARD
40
3.0000000000
1
36,5
41
0.6964285714
72
0
100
AcDbText
0
LINE
5
23B
100
AcDbEntity
8
0
100
AcDbLine
62
2
6
CONTINUOUS
10
-27.1961878016
20
14.8692730539
11
-27.1961878016
21
43.4635048793
0
LINE
5
23C
100
AcDbEntity
8
0
100
AcDbLine
62
2
6
CONTINUOUS
10
-63.6961878016
20
0.5000000000
11
-63.6961878016
21
43.4635048793
0
LINE
5
23D
100
AcDbEntity
8
0
100
AcDbLine
62
2
6
CONTINUOUS
10
-27.1961878016
20
41.9635048793
11
-45.4461878016
21
41.9635048793
0
LINE
5
23E
100
AcDbEntity
8
0
100
AcDbLine
62
2
6
CONTINUOUS
10
-63.6961878016
20
41.9635048793
11
-45.4461878016
21
41.9635048793
0
INSERT
5
23F
100
AcDbEntity
8
0
100
AcDbBlockReference
62
2
6
CONTINUOUS
2
_FILLED
10
-27.1961878016
20
41.9635048793
41
  3.000000
42
  3.000000
43
  3.000000
0
INSERT
5
240
100
AcDbEntity
8
0
100
AcDbBlockReference
62
2
6
CONTINUOUS
2
_FILLED
10
-63.6961878016
20
41.9635048793
41
  3.000000
42
  3.000000
43
  3.000000
50
180.000000
0
ENDBLK
5
241
100
AcDbEntity
8
0
6
BYBLOCK
62
0
100
AcDbBlockEnd
0
BLOCK
5
242
100
AcDbEntity
8
0
100
AcDbBlockBegin
2
_FILLED
70
64
10
0.0000000000
20
0.0000000000
3
_FILLED
1

0
SOLID
5
243
100
AcDbEntity
8
0
6
BYBLOCK
62
0
100
AcDbTrace
10
0.0000000000
20
0.0000000000
11
-1.0000000000
21
0.3166666667
12
-1.0000000000
22
-0.3166666667
13
-1.0000000000
23
-0.3166666667
0
ENDBLK
5
244
100
AcDbEntity
8
0
6
BYBLOCK
62
0
100
AcDbBlockEnd
0
ENDSEC
0
SECTION
2
ENTITIES
0
DIMENSION
5
245
100
AcDbEntity
8
0
100
AcDbDimension
62
2
6
CONTINUOUS
2
*D0
10
11.1500000000
20
31.9635048793
11
0.0000000000
21
34.2135048793
70
160
3
DIMSTYLE_1
100
AcDbAlignedDimension
13
-11.1500000000
23
22.3997711479
14
11.1500000000
24
22.3997711479
100
AcDbRotatedDimension
0
DIMENSION
5
246
100
AcDbEntity
8
0
100
AcDbDimension
62
2
6
CONTINUOUS
2
*D1
10
23.0540533353
20
-23.5000000000
11
20.8040533353
21
-0.0000000000
70
160
3
DIMSTYLE_1
100
AcDbAlignedDimension
13
4.1748576536
23
23.5000000000
14
4.1748577618
24
-23.5000000000
50
270.000000
100
AcDbRotatedDimension
0
DIMENSION
5
247
100
AcDbEntity
8
0
100
AcDbDimension
62
2
6
CONTINUOUS
2
*D2
10
-27.1961878016
20
31.9635048793
11
-40.6961878016
21
34.2135048793
70
160
3
DIMSTYLE_1
100
AcDbAlignedDimension
13
-54.1961878016
23
22.3997711479
14
-27.1961878016
24
14.8692730539
100
AcDbRotatedDimension
0
DIMENSION
5
248
100
AcDbEntity
8
0
100
AcDbDimension
62
2
6
CONTINUOUS
2
*D3
10
-63.6961878016
20
41.9635048793
11
-45.4461878016
21
44.2135048793
70
160
3
DIMSTYLE_1
100
AcDbAlignedDimension
13
-27.1961878016
23
14.8692730539
14
-63.6961878016
24
0.5000000000
50
180.000000
100
AcDbRotatedDimension
0
LINE
5
249
100
AcDbEntity
8
0
100
AcDbLine
62
7
6
CONTINUOUS
10
3.6748577618
20
-23.5000000000
11
-3.6748577618
21
-23.5000000000
0
LINE
5
24A
100
AcDbEntity
8
0
100
AcDbLine
62
7
6
CONTINUOUS
10
3.4698202597
20
-22.5000000000
11
-3.4698202597
21
-22.5000000000
0
LINE
5
24B
100
AcDbEntity
8
0
100
AcDbLine
62
7
6
CONTINUOUS
10
10.6503805997
20
-22.4000000000
11
3.3000000000
21
-22.4000000000
0
LINE
5
24C
100
AcDbEntity
8
0
100
AcDbLine
62
7
6
CONTINUOUS
10
-3.3000000000
20
-22.4000000000
11
-10.6503805997
21
-22.4000000000
0
LINE
5
24D
100
AcDbEntity
8
0
100
AcDbLine
62
9
6
CONTINUOUS
10
10.5087981167
20
-21.9749071372
11
-10.5087981167
21
-21.9749071372
0
LINE
5
24E
100
AcDbEntity
8
0
100
AcDbLine
62
9
6
CONTINUOUS
10
10.5005350625
20
-21.0183142309
11
-10.5005350625
21
-21.0183142309
0
LINE
5
24F
100
AcDbEntity
8
0
100
AcDbLine
62
7
6
CONTINUOUS
10
-3.2333672024
20
22.5000000000
11
-3.3000000000
21
22.4000000000
0
LINE
5
250
100
AcDbEntity
8
0
100
AcDbLine
62
7
6
CONTINUOUS
10
-3.3000000000
20
-22.4000000000
11
-3.2333672024
21
-22.5000000000
0
LINE
5
251
100
AcDbEntity
8
0
100
AcDbLine
62
7
6
CONTINUOUS
10
-9.6519181797
20
-3.6001455672
11
-9.6375498351
21
-3.7572740252
0
LINE
5
252
100
AcDbEntity
8
0
100
AcDbLine
62
7
6
CONTINUOUS
10
-11.1500000000
20
-21.8997711479
11
-11.1500000000
21
21.8997711479
0
LINE
5
253
100
AcDbEntity
8
0
100
AcDbLine
62
7
6
CONTINUOUS
10
-3.3848722771
20
22.4000000000
11
-3.3633443637
21
22.5000000000
0
LINE
5
254
100
AcDbEntity
8
0
100
AcDbLine
62
7
6
CONTINUOUS
10
3.9740208405
20
-8.8667939940
11
3.9594866647
21
-8.8706884146
0
LINE
5
255
100
AcDbEntity
8
0
100
AcDbLine
62
7
6
CONTINUOUS
10
5.9790837409
20
-10.0244175993
11
6.0257748069
21
-10.0130518795
0
LINE
5
256
100
AcDbEntity
8
0
100
AcDbLine
62
7
6
CONTINUOUS
10
-5.9790837409
20
-10.0244175993
11
-6.0257748069
21
-10.0130518795
0
LINE
5
257
100
AcDbEntity
8
0
100
AcDbLine
62
7
6
CONTINUOUS
10
-3.9740208405
20
-8.8667939940
11
-3.9594866661
21
-8.8706884143
0
LINE
5
258
100
AcDbEntity
8
0
100
AcDbLine
62
7
6
CONTINUOUS
10
-3.9593547838
20
-8.8707891113
11
-3.9594866647
21
-8.8706884146
0
LINE
5
259
100
AcDbEntity
8
0
100
AcDbLine
62
7
6
CONTINUOUS
10
-6.0091805393
20
-10.0417939940
11
-9.7091805393
21
-3.6332060060
0
LINE
5
25A
100
AcDbEntity
8
0
100
AcDbLine
62
7
6
CONTINUOUS
10
-7.6740208405
20
-2.4582060060
11
-3.9740208405
21
-8.8667939940
0
LINE
5
25B
100
AcDbEntity
8
0
100
AcDbLine
62
7
6
CONTINUOUS
10
-3.3848722771
20
-22.4000000000
11
-3.3633443637
21
-22.5000000000
0
LINE
5
25C
100
AcDbEntity
8
0
100
AcDbLine
62
7
6
CONTINUOUS
10
-7.6740208405
20
-2.4582060060
11
-7.6698767483
21
-2.4427400435
0
LINE
5
25D
100
AcDbEntity
8
0
100
AcDbLine
62
9
6
CONTINUOUS
10
-11.1500000000
20
-21.8997711479
11
-11.0087219643
21
-21.4755923698
0
LINE
5
25E
100
AcDbEntity
8
0
100
AcDbLine
62
7
6
CONTINUOUS
10
-1.1750000000
20
10.8249985426
11
-0.9769089350
21
11.1051416132
0
LINE
5
25F
100
AcDbEntity
8
0
100
AcDbLine
62
7
6
CONTINUOUS
10
1.1750000000
20
11.7000000000
11
1.1823833293
21
11.7073833293
0
LINE
5
260
100
AcDbEntity
8
0
100
AcDbLine
62
7
6
CONTINUOUS
10
-1.1750000000
20
4.3000000000
11
-1.1834068364
21
4.2915931636
0
LINE
5
261
100
AcDbEntity
8
0
100
AcDbLine
62
7
6
CONTINUOUS
10
9.7091805393
20
-3.6332060060
11
9.7245388490
21
-3.6290907593
0
LINE
5
262
100
AcDbEntity
8
0
100
AcDbLine
62
7
6
CONTINUOUS
10
-9.7091805393
20
-3.6332060060
11
-9.7245722477
21
-3.6290818102
0
LINE
5
263
100
AcDbEntity
8
0
100
AcDbLine
62
7
6
CONTINUOUS
10
6.0091805393
20
-10.0417939940
11
3.9740208405
21
-8.8667939940
0
LINE
5
264
100
AcDbEntity
8
0
100
AcDbLine
62
9
6
CONTINUOUS
10
-11.0087219643
20
21.4755923698
11
-11.1500000000
21
21.8997711479
0
LINE
5
265
100
AcDbEntity
8
0
100
AcDbLine
62
7
6
CONTINUOUS
10
-3.4698202597
20
-22.4000000000
11
-3.4698202597
21
-22.5000000000
0
LINE
5
266
100
AcDbEntity
8
0
100
AcDbLine
62
7
6
CONTINUOUS
10
-3.4698202597
20
22.4000000000
11
-3.4698202597
21
22.5000000000
0
LINE
5
267
100
AcDbEntity
8
0
100
AcDbLine
62
7
6
CONTINUOUS
10
-1.1750000000
20
4.3000000000
11
-1.1750000000
21
11.7000000000
0
LINE
5
268
100
AcDbEntity
8
0
100
AcDbLine
62
3
6
CONTINUOUS
10
-0.6882340908
20
11.1051416132
11
-0.6882340908
21
11.7000000000
0
LINE
5
269
100
AcDbEntity
8
0
100
AcDbLine
62
9
6
CONTINUOUS
10
-0.2697516475
20
4.3000000000
11
-0.2697516475
21
11.1051416132
0
LINE
5
26A
100
AcDbEntity
8
0
100
AcDbLine
62
7
6
CONTINUOUS
10
0.0011313363
20
11.1051416132
11
0.0011313363
21
11.7000000000
0
LINE
5
26B
100
AcDbEntity
8
0
100
AcDbLine
62
7
6
CONTINUOUS
10
0.0231415713
20
11.1051416132
11
0.0231415713
21
4.3000000000
0
LINE
5
26C
100
AcDbEntity
8
0
100
AcDbLine
62
7
6
CONTINUOUS
10
0.0919384143
20
11.1051416132
11
0.0919384143
21
4.3000000000
0
LINE
5
26D
100
AcDbEntity
8
0
100
AcDbLine
62
7
6
CONTINUOUS
10
0.1194600727
20
11.1051416132
11
0.1194600727
21
11.7000000000
0
LINE
5
26E
100
AcDbEntity
8
0
100
AcDbLine
62
9
6
CONTINUOUS
10
0.3258939712
20
4.3000000000
11
0.3258939712
21
11.1051416132
0
LINE
5
26F
100
AcDbEntity
8
0
100
AcDbLine
62
7
6
CONTINUOUS
10
3.4151277229
20
22.4000000000
11
3.4366556363
21
22.5000000000
0
LINE
5
270
100
AcDbEntity
8
0
100
AcDbLine
62
7
6
CONTINUOUS
10
-6.0091805393
20
-10.0417939940
11
-6.0130084731
21
-10.0560800371
0
LINE
5
271
100
AcDbEntity
8
0
100
AcDbLine
62
9
6
CONTINUOUS
10
-10.6503805997
20
-22.4000000000
11
-10.5087981167
21
-21.9749071372
0
LINE
5
272
100
AcDbEntity
8
0
100
AcDbLine
62
7
6
CONTINUOUS
10
-9.7091805393
20
-3.6332060060
11
-7.6740208405
21
-2.4582060060
0
LINE
5
273
100
AcDbEntity
8
0
100
AcDbLine
62
9
6
CONTINUOUS
10
-10.5087981167
20
21.9749071372
11
-10.6503805997
21
22.4000000000
0
LINE
5
274
100
AcDbEntity
8
0
100
AcDbLine
62
7
6
CONTINUOUS
10
3.4151277229
20
-22.4000000000
11
3.4366556363
21
-22.5000000000
0
LINE
5
275
100
AcDbEntity
8
0
100
AcDbLine
62
3
6
CONTINUOUS
10
0.8142423789
20
11.1051416132
11
0.8142423789
21
11.7000000000
0
LINE
5
276
100
AcDbEntity
8
0
100
AcDbLine
62
7
6
CONTINUOUS
10
1.1750000000
20
11.7000000000
11
1.1750000000
21
4.3000000000
0
LINE
5
277
100
AcDbEntity
8
0
100
AcDbLine
62
7
6
CONTINUOUS
10
3.4698202597
20
22.5000000000
11
3.4698202597
21
22.4000000000
0
LINE
5
278
100
AcDbEntity
8
0
100
AcDbLine
62
7
6
CONTINUOUS
10
3.4698202597
20
-22.5000000000
11
3.4698202597
21
-22.4000000000
0
LINE
5
279
100
AcDbEntity
8
0
100
AcDbLine
62
7
6
CONTINUOUS
10
-3.4151277229
20
-22.4000000000
11
-3.4366556363
21
-22.5000000000
0
LINE
5
27A
100
AcDbEntity
8
0
100
AcDbLine
62
9
6
CONTINUOUS
10
10.5087981167
20
21.9749071372
11
10.6503805997
21
22.4000000000
0
LINE
5
27B
100
AcDbEntity
8
0
100
AcDbLine
62
9
6
CONTINUOUS
10
11.0087219643
20
21.4755923698
11
11.1500000000
21
21.8997711479
0
LINE
5
27C
100
AcDbEntity
8
0
100
AcDbLine
62
7
6
CONTINUOUS
10
1.1750000000
20
4.3000000000
11
-1.1750000000
21
4.3000000000
0
LINE
5
27D
100
AcDbEntity
8
0
100
AcDbLine
62
7
6
CONTINUOUS
10
7.6740208405
20
-2.4582060060
11
9.7091805393
21
-3.6332060060
0
LINE
5
27E
100
AcDbEntity
8
0
100
AcDbLine
62
7
6
CONTINUOUS
10
1.1750000000
20
4.3000000000
11
1.1834068364
21
4.2915931636
0
LINE
5
27F
100
AcDbEntity
8
0
100
AcDbLine
62
9
6
CONTINUOUS
10
10.6503805997
20
-22.4000000000
11
10.5087981167
21
-21.9749071372
0
LINE
5
280
100
AcDbEntity
8
0
100
AcDbLine
62
9
6
CONTINUOUS
10
11.1500000000
20
-21.8997711479
11
11.0087219643
21
-21.4755923698
0
LINE
5
281
100
AcDbEntity
8
0
100
AcDbLine
62
7
6
CONTINUOUS
10
6.0091805393
20
-10.0417939940
11
6.0130012711
21
-10.0560531591
0
LINE
5
282
100
AcDbEntity
8
0
100
AcDbLine
62
7
6
CONTINUOUS
10
-3.4151277229
20
22.4000000000
11
-3.4366556363
21
22.5000000000
0
LINE
5
283
100
AcDbEntity
8
0
100
AcDbLine
62
7
6
CONTINUOUS
10
3.3848722771
20
-22.4000000000
11
3.3633443637
21
-22.5000000000
0
LINE
5
284
100
AcDbEntity
8
0
100
AcDbLine
62
7
6
CONTINUOUS
10
3.9740208405
20
-8.8667939940
11
7.6740208405
21
-2.4582060060
0
LINE
5
285
100
AcDbEntity
8
0
100
AcDbLine
62
7
6
CONTINUOUS
10
-3.9740208405
20
-8.8667939940
11
-6.0091805393
21
-10.0417939940
0
LINE
5
286
100
AcDbEntity
8
0
100
AcDbLine
62
7
6
CONTINUOUS
10
-1.1750000000
20
11.7000000000
11
-1.1823833293
21
11.7073833293
0
LINE
5
287
100
AcDbEntity
8
0
100
AcDbLine
62
7
6
CONTINUOUS
10
0.8469591343
20
11.1051416132
11
1.1750000000
21
10.5948006223
0
LINE
5
288
100
AcDbEntity
8
0
100
AcDbLine
62
7
6
CONTINUOUS
10
7.6740208405
20
-2.4582060060
11
7.6698761245
21
-2.4427377156
0
LINE
5
289
100
AcDbEntity
8
0
100
AcDbLine
62
7
6
CONTINUOUS
10
3.3848722771
20
22.4000000000
11
3.3633443637
21
22.5000000000
0
LINE
5
28A
100
AcDbEntity
8
0
100
AcDbLine
62
7
6
CONTINUOUS
10
11.1500000000
20
21.8997711479
11
11.1500000000
21
-21.8997711479
0
LINE
5
28B
100
AcDbEntity
8
0
100
AcDbLine
62
7
6
CONTINUOUS
10
9.6519181797
20
-3.6001455672
11
9.6375498351
21
-3.7572740252
0
LINE
5
28C
100
AcDbEntity
8
0
100
AcDbLine
62
7
6
CONTINUOUS
10
9.7091805393
20
-3.6332060060
11
6.0091805393
21
-10.0417939940
0
LINE
5
28D
100
AcDbEntity
8
0
100
AcDbLine
62
7
6
CONTINUOUS
10
3.9593547582
20
-8.8707891354
11
3.9594866647
21
-8.8706884146
0
LINE
5
28E
100
AcDbEntity
8
0
100
AcDbLine
62
7
6
CONTINUOUS
10
0.0231131317
20
11.1051416132
11
-1.1750000000
21
11.1051416132
0
LINE
5
28F
100
AcDbEntity
8
0
100
AcDbLine
62
7
6
CONTINUOUS
10
1.1750000000
20
11.1051416132
11
0.0919685473
21
11.1051416132
0
LINE
5
290
100
AcDbEntity
8
0
100
AcDbLine
62
7
6
CONTINUOUS
10
-1.1750000000
20
11.7000000000
11
1.1750000000
21
11.7000000000
0
LINE
5
291
100
AcDbEntity
8
0
100
AcDbLine
62
7
6
CONTINUOUS
10
3.3000000000
20
-22.4000000000
11
3.2333672024
21
-22.5000000000
0
LINE
5
292
100
AcDbEntity
8
0
100
AcDbLine
62
7
6
CONTINUOUS
10
3.2333672024
20
22.5000000000
11
3.3000000000
21
22.4000000000
0
LINE
5
293
100
AcDbEntity
8
0
100
AcDbLine
62
9
6
CONTINUOUS
10
-10.5005350625
20
21.0183142309
11
10.5005350625
21
21.0183142309
0
LINE
5
294
100
AcDbEntity
8
0
100
AcDbLine
62
9
6
CONTINUOUS
10
-10.5087981167
20
21.9749071372
11
10.5087981167
21
21.9749071372
0
LINE
5
295
100
AcDbEntity
8
0
100
AcDbLine
62
7
6
CONTINUOUS
10
-10.6503805997
20
22.4000000000
11
-3.3000000000
21
22.4000000000
0
LINE
5
296
100
AcDbEntity
8
0
100
AcDbLine
62
7
6
CONTINUOUS
10
3.3000000000
20
22.4000000000
11
10.6503805997
21
22.4000000000
0
LINE
5
297
100
AcDbEntity
8
0
100
AcDbLine
62
7
6
CONTINUOUS
10
3.4698202597
20
22.5000000000
11
-3.4698202597
21
22.5000000000
0
LINE
5
298
100
AcDbEntity
8
0
100
AcDbLine
62
7
6
CONTINUOUS
10
3.6748576536
20
23.5000000000
11
-3.6748576536
21
23.5000000000
0
LINE
5
299
100
AcDbEntity
8
0
100
AcDbLine
62
7
6
CONTINUOUS
10
-54.1961878016
20
-23.5000000000
11
-50.1961878016
21
-23.4301797403
0
LINE
5
29A
100
AcDbEntity
8
0
100
AcDbLine
62
7
6
CONTINUOUS
10
-46.2253330037
20
-21.1306884717
11
-49.9996782829
21
-21.1965699136
0
LINE
5
29B
100
AcDbEntity
8
0
100
AcDbLine
62
7
6
CONTINUOUS
10
-48.0466923177
20
-22.2000000000
11
-48.5961878016
21
-22.2000000000
0
LINE
5
29C
100
AcDbEntity
8
0
100
AcDbLine
62
7
6
CONTINUOUS
10
-54.1961878016
20
-22.4000000000
11
-62.3074428215
21
-21.9749071372
0
LINE
5
29D
100
AcDbEntity
8
0
100
AcDbLine
62
9
6
CONTINUOUS
10
-54.1961878016
20
-21.8997711479
11
-62.2900010466
21
-21.4755923698
0
LINE
5
29E
100
AcDbEntity
8
0
100
AcDbLine
62
7
6
CONTINUOUS
10
-54.1961878016
20
-23.5000000000
11
-54.1961878016
21
23.5000000000
0
LINE
5
29F
100
AcDbEntity
8
0
100
AcDbLine
62
7
6
CONTINUOUS
10
-53.7961878016
20
-19.5000000000
11
-53.7961878016
21
-17.8621408930
0
LINE
5
2A0
100
AcDbEntity
8
0
100
AcDbLine
62
7
6
CONTINUOUS
10
-53.5961878016
20
-17.8608823831
11
-53.5961878016
21
-19.7000000000
0
LINE
5
2A1
100
AcDbEntity
8
0
100
AcDbLine
62
7
6
CONTINUOUS
10
-53.5961878016
20
-18.2895184441
11
-53.7961878016
21
-18.3000000000
0
LINE
5
2A2
100
AcDbEntity
8
0
100
AcDbLine
62
9
6
CONTINUOUS
10
-63.2542229249
20
-21.0183142305
11
-62.7633911036
21
-20.9972959167
0
LINE
5
2A3
100
AcDbEntity
8
0
100
AcDbLine
62
7
6
CONTINUOUS
10
-54.1961878016
20
-19.7104730390
11
-53.5961878016
21
-19.7000000000
0
LINE
5
2A4
100
AcDbEntity
8
0
100
AcDbLine
62
7
6
CONTINUOUS
10
-29.6874615984
20
-18.9085752160
11
-43.7727838088
21
-19.1544354297
0
LINE
5
2A5
100
AcDbEntity
8
0
100
AcDbLine
62
7
6
CONTINUOUS
10
-53.5961878016
20
-17.8608823831
11
-54.1961878016
21
-17.8646579127
0
LINE
5
2A6
100
AcDbEntity
8
0
100
AcDbLine
62
7
6
CONTINUOUS
10
-54.1961878016
20
-19.5000000000
11
-53.7961878016
21
-19.5000000000
0
LINE
5
2A7
100
AcDbEntity
8
0
100
AcDbLine
62
9
6
CONTINUOUS
10
-54.1961878016
20
-19.0000000000
11
-53.7961878016
21
-19.0000000000
0
LINE
5
2A8
100
AcDbEntity
8
0
100
AcDbLine
62
7
6
CONTINUOUS
10
-53.5959624769
20
-19.6741803426
11
-54.1958253955
21
-19.6689454182
0
LINE
5
2A9
100
AcDbEntity
8
0
100
AcDbLine
62
7
6
CONTINUOUS
10
-50.1961878016
20
-21.3965394526
11
-50.1961878016
21
-23.4301797403
0
LINE
5
2AA
100
AcDbEntity
8
0
100
AcDbLine
62
7
6
CONTINUOUS
10
-50.1961878016
20
21.3965394526
11
-50.1961878016
21
23.4301797403
0
LINE
5
2AB
100
AcDbEntity
8
0
100
AcDbLine
62
7
6
CONTINUOUS
10
-48.5961878016
20
22.2000000000
11
-48.5961878016
21
21.1720718961
0
LINE
5
2AC
100
AcDbEntity
8
0
100
AcDbLine
62
7
6
CONTINUOUS
10
-48.5961878016
20
-22.2000000000
11
-48.5961878016
21
-21.1720718961
0
LINE
5
2AD
100
AcDbEntity
8
0
100
AcDbLine
62
7
6
CONTINUOUS
10
-29.0066546307
20
-16.7400669874
11
-27.4804867943
21
-16.6600839203
0
LINE
5
2AE
100
AcDbEntity
8
0
100
AcDbLine
62
9
6
CONTINUOUS
10
-29.1961878016
20
-15.9703486468
11
-29.6874615984
21
-15.9703486456
0
LINE
5
2AF
100
AcDbEntity
8
0
100
AcDbLine
62
9
6
CONTINUOUS
10
-27.1961878016
20
-14.0000000000
11
-29.1961878016
21
-14.0000000000
0
LINE
5
2B0
100
AcDbEntity
8
0
100
AcDbLine
62
7
6
CONTINUOUS
10
-36.4461878016
20
16.5696731246
11
-36.6159112858
21
16.2844373983
0
LINE
5
2B1
100
AcDbEntity
8
0
100
AcDbLine
62
9
6
CONTINUOUS
10
-27.1961878016
20
-11.9000000000
11
-29.1961878016
21
-11.9000000000
0
LINE
5
2B2
100
AcDbEntity
8
0
100
AcDbLine
62
9
6
CONTINUOUS
10
-43.6874615984
20
18.9943925461
11
-43.6874615984
21
17.2994419902
0
LINE
5
2B3
100
AcDbEntity
8
0
100
AcDbLine
62
9
6
CONTINUOUS
10
-43.6874615984
20
16.0558086086
11
-43.6874615984
21
13.7898830696
0
LINE
5
2B4
100
AcDbEntity
8
0
100
AcDbLine
62
7
6
CONTINUOUS
10
-43.1961878016
20
18.6530222774
11
-43.1961878016
21
14.3572435990
0
LINE
5
2B5
100
AcDbEntity
8
0
100
AcDbLine
62
7
6
CONTINUOUS
10
-29.1961878016
20
-8.3694620000
11
-29.0961878016
21
-8.3694620000
0
LINE
5
2B6
100
AcDbEntity
8
0
100
AcDbLine
62
7
6
CONTINUOUS
10
-29.1961878016
20
-8.0048000000
11
-29.0661878016
21
-8.0048000000
0
LINE
5
2B7
100
AcDbEntity
8
0
100
AcDbLine
62
7
6
CONTINUOUS
10
-29.0066548188
20
-9.1599330027
11
-27.4804867032
21
-9.2399160845
0
LINE
5
2B8
100
AcDbEntity
8
0
100
AcDbLine
62
7
6
CONTINUOUS
10
-29.1961878016
20
-6.0000000000
11
-29.0661878016
21
-6.0000000000
0
LINE
5
2B9
100
AcDbEntity
8
0
100
AcDbLine
62
7
6
CONTINUOUS
10
-29.1961878016
20
-5.9596410000
11
-29.0961878016
21
-5.9596410000
0
LINE
5
2BA
100
AcDbEntity
8
0
100
AcDbLine
62
7
6
CONTINUOUS
10
-29.1961878016
20
-5.5496410000
11
-29.0961878016
21
-5.5496410000
0
LINE
5
2BB
100
AcDbEntity
8
0
100
AcDbLine
62
7
6
CONTINUOUS
10
-29.1961878016
20
-4.9298080000
11
-29.0961878016
21
-4.9298080000
0
LINE
5
2BC
100
AcDbEntity
8
0
100
AcDbLine
62
7
6
CONTINUOUS
10
-29.1961878016
20
-4.5469760000
11
-29.0961878016
21
-4.5469760000
0
LINE
5
2BD
100
AcDbEntity
8
0
100
AcDbLine
62
7
6
CONTINUOUS
10
-29.1961878016
20
-4.1641440000
11
-29.0961878016
21
-4.1641440000
0
LINE
5
2BE
100
AcDbEntity
8
0
100
AcDbLine
62
7
6
CONTINUOUS
10
-29.1961878016
20
-3.5443110000
11
-29.0961878016
21
-3.5443110000
0
LINE
5
2BF
100
AcDbEntity
8
0
100
AcDbLine
62
7
6
CONTINUOUS
10
-29.1961878016
20
-3.2709690000
11
-29.0961878016
21
-3.2709690000
0
LINE
5
2C0
100
AcDbEntity
8
0
100
AcDbLine
62
7
6
CONTINUOUS
10
-29.1961878016
20
-3.2432111455
11
-29.0661878016
21
-3.2432111455
0
LINE
5
2C1
100
AcDbEntity
8
0
100
AcDbLine
62
9
6
CONTINUOUS
10
-36.6441819193
20
18.4039557054
11
-36.6521825883
21
19.0301448731
0
LINE
5
2C2
100
AcDbEntity
8
0
100
AcDbLine
62
7
6
CONTINUOUS
10
-36.6822054979
20
16.2745756562
11
-36.6822054979
21
15.8859919591
0
LINE
5
2C3
100
AcDbEntity
8
0
100
AcDbLine
62
9
6
CONTINUOUS
10
-36.6441819193
20
17.8309502325
11
-36.6441819193
21
18.4039557054
0
LINE
5
2C4
100
AcDbEntity
8
0
100
AcDbLine
62
7
6
CONTINUOUS
10
-36.6159112858
20
16.2844373983
11
-36.6159112858
21
15.8844971591
0
LINE
5
2C5
100
AcDbEntity
8
0
100
AcDbLine
62
7
6
CONTINUOUS
10
-36.4461878016
20
15.8819317547
11
-36.4461878016
21
17.0695756562
0
LINE
5
2C6
100
AcDbEntity
8
0
100
AcDbLine
62
7
6
CONTINUOUS
10
-35.7461878016
20
15.8713511145
11
-35.7461878016
21
17.0695756562
0
LINE
5
2C7
100
AcDbEntity
8
0
100
AcDbLine
62
7
6
CONTINUOUS
10
-35.5764643174
20
16.2844373983
11
-35.5764643174
21
15.8687857101
0
LINE
5
2C8
100
AcDbEntity
8
0
100
AcDbLine
62
9
6
CONTINUOUS
10
-35.5473210636
20
17.7907404809
11
-35.5473210636
21
17.1331542518
0
LINE
5
2C9
100
AcDbEntity
8
0
100
AcDbLine
62
7
6
CONTINUOUS
10
-35.5101701053
20
16.2745756562
11
-35.5101701053
21
15.8677836598
0
LINE
5
2CA
100
AcDbEntity
8
0
100
AcDbLine
62
7
6
CONTINUOUS
10
-29.1961878016
20
-2.9885845136
11
-29.0661878016
21
-2.9885845136
0
LINE
5
2CB
100
AcDbEntity
8
0
100
AcDbLine
62
7
6
CONTINUOUS
10
-29.1961878016
20
-2.0356451536
11
-29.0661878016
21
-2.0356451536
0
LINE
5
2CC
100
AcDbEntity
8
0
100
AcDbLine
62
7
6
CONTINUOUS
10
-29.0661878016
20
-2.0000200000
11
-29.0161878016
21
-2.0000200000
0
LINE
5
2CD
100
AcDbEntity
8
0
100
AcDbLine
62
7
6
CONTINUOUS
10
-29.1961878016
20
-1.8087397048
11
-29.0661878016
21
-1.8087397048
0
LINE
5
2CE
100
AcDbEntity
8
0
100
AcDbLine
62
7
6
CONTINUOUS
10
-29.1961878016
20
-1.6703677694
11
-29.0661878016
21
-1.6703677694
0
LINE
5
2CF
100
AcDbEntity
8
0
100
AcDbLine
62
7
6
CONTINUOUS
10
-29.1961878016
20
-1.3071168335
11
-29.0661878016
21
-1.3071168335
0
LINE
5
2D0
100
AcDbEntity
8
0
100
AcDbLine
62
7
6
CONTINUOUS
10
-29.0661878016
20
-1.0501850000
11
-29.0161878016
21
-1.0501850000
0
LINE
5
2D1
100
AcDbEntity
8
0
100
AcDbLine
62
7
6
CONTINUOUS
10
-29.0661878016
20
-1.0490529492
11
-29.0161878016
21
-1.0490529492
0
LINE
5
2D2
100
AcDbEntity
8
0
100
AcDbLine
62
9
6
CONTINUOUS
10
-29.0661878016
20
-0.7463350000
11
-29.0161878016
21
-0.7463350000
0
LINE
5
2D3
100
AcDbEntity
8
0
100
AcDbLine
62
7
6
CONTINUOUS
10
-29.0661878016
20
-0.6664380000
11
-29.0161878016
21
-0.6664380000
0
LINE
5
2D4
100
AcDbEntity
8
0
100
AcDbLine
62
7
6
CONTINUOUS
10
-29.0161878016
20
-0.6070411992
11
-29.0661878016
21
-0.6070411992
0
LINE
5
2D5
100
AcDbEntity
8
0
100
AcDbLine
62
7
6
CONTINUOUS
10
-29.0661878016
20
-0.5621950000
11
-29.0161878016
21
-0.5621950000
0
LINE
5
2D6
100
AcDbEntity
8
0
100
AcDbLine
62
7
6
CONTINUOUS
10
-29.0661878016
20
-0.1611080000
11
-29.0161878016
21
-0.1611080000
0
LINE
5
2D7
100
AcDbEntity
8
0
100
AcDbLine
62
7
6
CONTINUOUS
10
-29.1961878016
20
-0.0642638496
11
-29.0661878016
21
-0.0642638496
0
LINE
5
2D8
100
AcDbEntity
8
0
100
AcDbLine
62
7
6
CONTINUOUS
10
-29.1961878016
20
-0.0566980407
11
-29.0661878016
21
-0.0566980407
0
LINE
5
2D9
100
AcDbEntity
8
0
100
AcDbLine
62
7
6
CONTINUOUS
10
-29.0661878016
20
-0.0376420000
11
-29.0161878016
21
-0.0376420000
0
LINE
5
2DA
100
AcDbEntity
8
0
100
AcDbLine
62
7
6
CONTINUOUS
10
-29.0661878016
20
0.0976220000
11
-29.0161878016
21
0.0976220000
0
LINE
5
2DB
100
AcDbEntity
8
0
100
AcDbLine
62
7
6
CONTINUOUS
10
-29.1961878016
20
0.1474602202
11
-29.0661878016
21
0.1474602202
0
LINE
5
2DC
100
AcDbEntity
8
0
100
AcDbLine
62
7
6
CONTINUOUS
10
-29.0661878016
20
0.2698930000
11
-29.0161878016
21
0.2698930000
0
LINE
5
2DD
100
AcDbEntity
8
0
100
AcDbLine
62
7
6
CONTINUOUS
10
-29.0661878016
20
0.3490100000
11
-29.0161878016
21
0.3490100000
0
LINE
5
2DE
100
AcDbEntity
8
0
100
AcDbLine
62
7
6
CONTINUOUS
10
-29.1961878016
20
0.4070926098
11
-29.0661878016
21
0.4070926098
0
LINE
5
2DF
100
AcDbEntity
8
0
100
AcDbLine
62
9
6
CONTINUOUS
10
-30.7926973203
20
15.5967997817
11
-30.7926973203
21
15.7964781142
0
LINE
5
2E0
100
AcDbEntity
8
0
100
AcDbLine
62
7
6
CONTINUOUS
10
-30.5961878016
20
15.4631444645
11
-30.5961878016
21
18.7278976383
0
LINE
5
2E1
100
AcDbEntity
8
0
100
AcDbLine
62
9
6
CONTINUOUS
10
-30.4066549897
20
17.1540304896
11
-30.4066550219
21
15.4179377410
0
LINE
5
2E2
100
AcDbEntity
8
0
100
AcDbLine
62
9
6
CONTINUOUS
10
-30.3996782829
20
18.6210526959
11
-30.3996782837
21
17.6034456071
0
LINE
5
2E3
100
AcDbEntity
8
0
100
AcDbLine
62
7
6
CONTINUOUS
10
-29.0661878016
20
0.4943580000
11
-29.0161878016
21
0.4943580000
0
LINE
5
2E4
100
AcDbEntity
8
0
100
AcDbLine
62
7
6
CONTINUOUS
10
-29.0661878016
20
0.6603730000
11
-29.0161878016
21
0.6603730000
0
LINE
5
2E5
100
AcDbEntity
8
0
100
AcDbLine
62
7
6
CONTINUOUS
10
-29.0661878016
20
0.7002305036
11
-29.0161878016
21
0.7002305036
0
LINE
5
2E6
100
AcDbEntity
8
0
100
AcDbLine
62
7
6
CONTINUOUS
10
-29.1961878016
20
0.9214024512
11
-29.0661878016
21
0.9214024512
0
LINE
5
2E7
100
AcDbEntity
8
0
100
AcDbLine
62
7
6
CONTINUOUS
10
-29.0661878016
20
1.1898533278
11
-29.0161878016
21
1.1898533278
0
LINE
5
2E8
100
AcDbEntity
8
0
100
AcDbLine
62
7
6
CONTINUOUS
10
-29.1961878016
20
1.4457555704
11
-29.0661878016
21
1.4457555704
0
LINE
5
2E9
100
AcDbEntity
8
0
100
AcDbLine
62
7
6
CONTINUOUS
10
-29.1961878016
20
1.6953605634
11
-29.0661878016
21
1.6953605634
0
LINE
5
2EA
100
AcDbEntity
8
0
100
AcDbLine
62
7
6
CONTINUOUS
10
-29.1961878016
20
1.8872125216
11
-29.0661878016
21
1.8872125216
0
LINE
5
2EB
100
AcDbEntity
8
0
100
AcDbLine
62
7
6
CONTINUOUS
10
-29.1961878016
20
2.0003740428
11
-29.0161878016
21
2.0000200000
0
LINE
5
2EC
100
AcDbEntity
8
0
100
AcDbLine
62
7
6
CONTINUOUS
10
-29.1961878016
20
3.2432111455
11
-29.0661878016
21
3.2432111455
0
LINE
5
2ED
100
AcDbEntity
8
0
100
AcDbLine
62
7
6
CONTINUOUS
10
-29.1961878016
20
3.2508267155
11
-29.0661878016
21
3.2508267155
0
LINE
5
2EE
100
AcDbEntity
8
0
100
AcDbLine
62
7
6
CONTINUOUS
10
-29.0961878016
20
3.9272017151
11
-29.1961878016
21
3.9272017151
0
LWPOLYLINE
5
2EF
100
AcDbEntity
8
0
100
AcDbPolyline
62
7
6
CONTINUOUS
90
14
70
0
10
-29.1961897671
20
14.9377266239
10
-29.1978473817
20
14.9758745140
10
-29.2043580600
20
15.0214099969
10
-29.2157765015
20
15.0662048340
10
-29.2319954024
20
15.1097850995
10
-29.2528379638
20
15.1516683978
10
-29.2780927507
20
15.1913904466
10
-29.3074888266
20
15.2285758894
10
-29.3407253843
20
15.2628712584
10
-29.3774947937
20
15.2939375091
10
-29.4175004512
20
15.3215400653
10
-29.4603583884
20
15.3453939310
10
-29.5055827458
20
15.3651967290
10
-29.5527936254
20
15.3807987308
0
LINE
5
2F0
100
AcDbEntity
8
0
100
AcDbLine
62
9
6
CONTINUOUS
10
-29.6874615984
20
15.3739070199
11
-29.6874615984
21
14.0817422114
0
LINE
5
2F1
100
AcDbEntity
8
0
100
AcDbLine
62
9
6
CONTINUOUS
10
-29.6874615984
20
13.6487954595
11
-29.6874615984
21
-15.9703486468
0
LINE
5
2F2
100
AcDbEntity
8
0
100
AcDbLine
62
9
6
CONTINUOUS
10
-29.6874615984
20
-17.2191834718
11
-29.6874615984
21
-18.7485904355
0
LINE
5
2F3
100
AcDbEntity
8
0
100
AcDbLine
62
9
6
CONTINUOUS
10
-29.3926973203
20
18.3086665989
11
-29.3926973193
21
17.5525706822
0
LINE
5
2F4
100
AcDbEntity
8
0
100
AcDbLine
62
7
6
CONTINUOUS
10
-29.1961878016
20
18.4086513684
11
-29.1961878016
21
17.0936533479
0
LINE
5
2F5
100
AcDbEntity
8
0
100
AcDbLine
62
7
6
CONTINUOUS
10
-29.1961878016
20
14.9383877031
11
-29.1961878016
21
-18.4086513684
0
LINE
5
2F6
100
AcDbEntity
8
0
100
AcDbLine
62
7
6
CONTINUOUS
10
-29.0961878016
20
17.2500000000
11
-29.0961878016
21
17.0884125700
0
LINE
5
2F7
100
AcDbEntity
8
0
100
AcDbLine
62
7
6
CONTINUOUS
10
-29.0961878016
20
7.5302407779
11
-29.0961878016
21
7.2687470153
0
LINE
5
2F8
100
AcDbEntity
8
0
100
AcDbLine
62
7
6
CONTINUOUS
10
-29.0961878016
20
6.7684246172
11
-29.0961878016
21
5.6830265809
0
LINE
5
2F9
100
AcDbEntity
8
0
100
AcDbLine
62
7
6
CONTINUOUS
10
-29.0961878016
20
5.6676658508
11
-29.0961878016
21
5.6646353752
0
LINE
5
2FA
100
AcDbEntity
8
0
100
AcDbLine
62
7
6
CONTINUOUS
10
-29.0961878016
20
5.3291020000
11
-29.0961878016
21
4.6039370000
0
LINE
5
2FB
100
AcDbEntity
8
0
100
AcDbLine
62
7
6
CONTINUOUS
10
-29.0961878016
20
4.3249135029
11
-29.0961878016
21
3.2432111455
0
LINE
5
2FC
100
AcDbEntity
8
0
100
AcDbLine
62
7
6
CONTINUOUS
10
-29.0961878016
20
-3.2432111455
11
-29.0961878016
21
-3.2709690000
0
LINE
5
2FD
100
AcDbEntity
8
0
100
AcDbLine
62
7
6
CONTINUOUS
10
-29.0961878016
20
-3.5443110000
11
-29.0961878016
21
-5.5496410000
0
LINE
5
2FE
100
AcDbEntity
8
0
100
AcDbLine
62
7
6
CONTINUOUS
10
-29.0961878016
20
-5.9596410000
11
-29.0961878016
21
-6.0000000000
0
LINE
5
2FF
100
AcDbEntity
8
0
100
AcDbLine
62
7
6
CONTINUOUS
10
-29.0961878016
20
-8.0048000000
11
-29.0961878016
21
-8.3694620000
0
LINE
5
300
100
AcDbEntity
8
0
100
AcDbLine
62
7
6
CONTINUOUS
10
-29.0661878016
20
3.2432111455
11
-29.0661878016
21
1.8872128581
0
LINE
5
301
100
AcDbEntity
8
0
100
AcDbLine
62
7
6
CONTINUOUS
10
-29.0661878016
20
1.6953605634
11
-29.0661878016
21
-0.0074611924
0
LINE
5
302
100
AcDbEntity
8
0
100
AcDbLine
62
7
6
CONTINUOUS
10
-29.0661878016
20
-0.0642638496
11
-29.0661878016
21
-1.3071168335
0
LINE
5
303
100
AcDbEntity
8
0
100
AcDbLine
62
7
6
CONTINUOUS
10
-29.0661878016
20
-1.3431271316
11
-29.0661878016
21
-1.6705114012
0
LINE
5
304
100
AcDbEntity
8
0
100
AcDbLine
62
7
6
CONTINUOUS
10
-29.0661878016
20
-1.8087397048
11
-29.0661878016
21
-3.2432111455
0
LINE
5
305
100
AcDbEntity
8
0
100
AcDbLine
62
7
6
CONTINUOUS
10
-29.0661878016
20
-6.0000000000
11
-29.0661878016
21
-8.0048000000
0
LINE
5
306
100
AcDbEntity
8
0
100
AcDbLine
62
7
6
CONTINUOUS
10
-29.0161878016
20
2.0000200000
11
-29.0161878016
21
0.3490100000
0
LINE
5
307
100
AcDbEntity
8
0
100
AcDbLine
62
7
6
CONTINUOUS
10
-29.0161878016
20
0.3477085876
11
-29.0161878016
21
-2.0000200000
0
LINE
5
308
100
AcDbEntity
8
0
100
AcDbLine
62
9
6
CONTINUOUS
10
-29.0066548171
20
-9.1599330028
11
-29.0066546275
21
-16.7400669872
0
LINE
5
309
100
AcDbEntity
8
0
100
AcDbLine
62
9
6
CONTINUOUS
10
-27.4804865448
20
17.0037369322
11
-27.4804870045
21
15.0136848488
0
LINE
5
30A
100
AcDbEntity
8
0
100
AcDbLine
62
9
6
CONTINUOUS
10
-27.4804867053
20
-9.2399224477
11
-27.4804867990
21
-16.6600797368
0
LINE
5
30B
100
AcDbEntity
8
0
100
AcDbLine
62
9
6
CONTINUOUS
10
-27.4804869855
20
14.7537367735
11
-27.4804865433
21
7.6149164122
0
LINE
5
30C
100
AcDbEntity
8
0
100
AcDbLine
62
7
6
CONTINUOUS
10
-27.1961878016
20
16.7041826343
11
-27.1961878016
21
7.9144696406
0
LINE
5
30D
100
AcDbEntity
8
0
100
AcDbLine
62
7
6
CONTINUOUS
10
-27.1961878016
20
-9.5398821308
11
-27.1961878016
21
-16.3600085246
0
LINE
5
30E
100
AcDbEntity
8
0
100
AcDbLine
62
7
6
CONTINUOUS
10
-44.2555418711
20
-19.3593540695
11
-46.5522583033
21
-21.6560705017
0
LINE
5
30F
100
AcDbEntity
8
0
100
AcDbLine
62
7
6
CONTINUOUS
10
-29.1961878016
20
7.5250000000
11
-27.4804865492
21
7.6149160926
0
LINE
5
310
100
AcDbEntity
8
0
100
AcDbLine
62
7
6
CONTINUOUS
10
-29.1961878016
20
4.1288000000
11
-29.0961878016
21
4.1288000000
0
LINE
5
311
100
AcDbEntity
8
0
100
AcDbLine
62
7
6
CONTINUOUS
10
-29.1961878016
20
4.2688000000
11
-29.0961878016
21
4.2688000000
0
LINE
5
312
100
AcDbEntity
8
0
100
AcDbLine
62
7
6
CONTINUOUS
10
-29.0961878016
20
4.3249135279
11
-29.1634593184
21
4.3249135276
0
LINE
5
313
100
AcDbEntity
8
0
100
AcDbLine
62
7
6
CONTINUOUS
10
-29.1961878016
20
4.6039370000
11
-29.0961878016
21
4.6039370000
0
LINE
5
314
100
AcDbEntity
8
0
100
AcDbLine
62
7
6
CONTINUOUS
10
-29.1961878016
20
5.0821430000
11
-29.0961878016
21
5.0821430000
0
LINE
5
315
100
AcDbEntity
8
0
100
AcDbLine
62
7
6
CONTINUOUS
10
-29.1961878016
20
5.3291020000
11
-29.0961878016
21
5.3291020000
0
LINE
5
316
100
AcDbEntity
8
0
100
AcDbLine
62
7
6
CONTINUOUS
10
-29.1961878016
20
5.6646354596
11
-29.0961878016
21
5.6646350000
0
LINE
5
317
100
AcDbEntity
8
0
100
AcDbLine
62
7
6
CONTINUOUS
10
-29.1961878016
20
5.6830265932
11
-29.0961878016
21
5.6830260000
0
LINE
5
318
100
AcDbEntity
8
0
100
AcDbLine
62
7
6
CONTINUOUS
10
-29.0961878016
20
6.7686586354
11
-29.1961878016
21
6.7686586352
0
LINE
5
319
100
AcDbEntity
8
0
100
AcDbLine
62
7
6
CONTINUOUS
10
-29.1961878016
20
6.7706550000
11
-29.0961878016
21
6.7706550000
0
LINE
5
31A
100
AcDbEntity
8
0
100
AcDbLine
62
7
6
CONTINUOUS
10
-29.1961878016
20
7.2687470314
11
-29.0961878016
21
7.2687470000
0
LINE
5
31B
100
AcDbEntity
8
0
100
AcDbLine
62
7
6
CONTINUOUS
10
-29.1961878016
20
7.3190670000
11
-29.0961878016
21
7.3190670000
0
LINE
5
31C
100
AcDbEntity
8
0
100
AcDbLine
62
7
6
CONTINUOUS
10
-29.1961878016
20
7.4306900000
11
-29.0961878016
21
7.4306900000
0
LINE
5
31D
100
AcDbEntity
8
0
100
AcDbLine
62
7
6
CONTINUOUS
10
-46.5522583033
20
21.6560705017
11
-44.2555418711
21
19.3593540695
0
LINE
5
31E
100
AcDbEntity
8
0
100
AcDbLine
62
7
6
CONTINUOUS
10
-35.5764643174
20
16.2844373983
11
-35.7461878016
21
16.5696731246
0
LWPOLYLINE
5
31F
100
AcDbEntity
8
0
100
AcDbPolyline
62
7
6
CONTINUOUS
90
21
70
0
10
-33.7309315659
20
16.1597865801
10
-33.7619213691
20
16.2254431071
10
-33.8000772664
20
16.2918433481
10
-33.8449285808
20
16.3574379527
10
-33.8967776767
20
16.4222778875
10
-33.9555620717
20
16.4859290851
10
-34.0206251119
20
16.5475446814
10
-34.0917544875
20
16.6069371603
10
-34.1689337537
20
16.6640919310
10
-34.2514579473
20
16.7185289309
10
-34.3389451386
20
16.7701033947
10
-34.4312821774
20
16.8188386780
10
-34.5279639772
20
16.8645516169
10
-34.6285861139
20
16.9071497094
10
-34.7329470465
20
16.9466349516
10
-34.8407630734
20
16.9829691851
10
-34.9516994544
20
17.0161011763
10
-35.0654607559
20
17.0459979396
10
-35.1817941109
20
17.0726382010
10
-35.3003737000
20
17.0959849121
10
-35.4208778741
20
17.1160085459
0
LINE
5
320
100
AcDbEntity
8
0
100
AcDbLine
62
9
6
CONTINUOUS
10
-27.4804870147
20
8.9449580341
11
-29.1961878016
21
8.9000000000
0
LINE
5
321
100
AcDbEntity
8
0
100
AcDbLine
62
9
6
CONTINUOUS
10
-27.4804870147
20
10.7636113820
11
-29.1961878016
21
10.7186533479
0
LINE
5
322
100
AcDbEntity
8
0
100
AcDbLine
62
9
6
CONTINUOUS
10
-29.1961878016
20
13.6487954595
11
-29.6874615984
21
13.6487954595
0
LINE
5
323
100
AcDbEntity
8
0
100
AcDbLine
62
9
6
CONTINUOUS
10
-29.6874615984
20
13.6487954595
11
-43.6874615984
21
13.7898830696
0
LINE
5
324
100
AcDbEntity
8
0
100
AcDbLine
62
9
6
CONTINUOUS
10
-43.2589205846
20
14.2185111196
11
-29.6874615984
21
14.0817422114
0
LINE
5
325
100
AcDbEntity
8
0
100
AcDbLine
62
7
6
CONTINUOUS
10
-46.5522583033
20
-21.6560705017
11
-48.0466923177
21
-22.2000000000
0
LINE
5
326
100
AcDbEntity
8
0
100
AcDbLine
62
7
6
CONTINUOUS
10
-36.6159112858
20
16.2844373983
11
-36.6822054979
21
16.2745756562
0
LINE
5
327
100
AcDbEntity
8
0
100
AcDbLine
62
9
6
CONTINUOUS
10
-43.1961878016
20
16.0558086086
11
-43.6874615984
21
16.0558086086
0
LINE
5
328
100
AcDbEntity
8
0
100
AcDbLine
62
7
6
CONTINUOUS
10
-33.9229370868
20
16.2745756562
11
-35.5101701053
21
16.2745756562
0
LINE
5
329
100
AcDbEntity
8
0
100
AcDbLine
62
7
6
CONTINUOUS
10
-36.6822054979
20
16.2745756562
11
-38.2686308798
21
16.2745756562
0
LINE
5
32A
100
AcDbEntity
8
0
100
AcDbLine
62
7
6
CONTINUOUS
10
-36.4461878016
20
17.0695756562
11
-35.7461878016
21
17.0695756562
0
LINE
5
32B
100
AcDbEntity
8
0
100
AcDbLine
62
7
6
CONTINUOUS
10
-29.1961878016
20
17.2500000000
11
-29.0961878016
21
17.2500000000
0
LINE
5
32C
100
AcDbEntity
8
0
100
AcDbLine
62
7
6
CONTINUOUS
10
-36.6551803770
20
15.8850907193
11
-30.7926973203
21
15.7964781142
0
LINE
5
32D
100
AcDbEntity
8
0
100
AcDbLine
62
7
6
CONTINUOUS
10
-36.9148579642
20
17.0916644859
11
-39.1064271362
21
17.1273546757
0
LINE
5
32E
100
AcDbEntity
8
0
100
AcDbLine
62
9
6
CONTINUOUS
10
-29.6874615984
20
15.3739070199
11
-30.3996782829
21
15.3908891588
0
LINE
5
32F
100
AcDbEntity
8
0
100
AcDbLine
62
7
6
CONTINUOUS
10
-29.6861846223
20
15.4006714894
11
-30.3984013068
21
15.4176536283
0
LWPOLYLINE
5
330
100
AcDbEntity
8
0
100
AcDbPolyline
62
7
6
CONTINUOUS
90
4
70
0
10
-30.3984015438
20
15.4176534273
10
-30.4110863858
20
15.4180903915
10
-30.4407405464
20
15.4201708266
10
-30.4693807928
20
15.4236428643
0
LINE
5
331
100
AcDbEntity
8
0
100
AcDbLine
62
7
6
CONTINUOUS
10
-36.6441819193
20
17.8309502325
11
-30.5961878016
21
17.6092372047
0
LINE
5
332
100
AcDbEntity
8
0
100
AcDbLine
62
7
6
CONTINUOUS
10
-29.2011064292
20
14.8439111223
11
-27.4804869842
21
14.7537372782
0
LINE
5
333
100
AcDbEntity
8
0
100
AcDbLine
62
7
6
CONTINUOUS
10
-29.3159174140
20
17.0999281110
11
-27.4804865506
21
17.0037372555
0
LWPOLYLINE
5
334
100
AcDbEntity
8
0
100
AcDbPolyline
62
7
6
CONTINUOUS
90
31
70
0
10
-35.5430456502
20
17.1326930659
10
-35.6665430525
20
17.1460146445
10
-35.7910448157
20
17.1559574663
10
-35.9162960041
20
17.1625147576
10
-36.0419669458
20
17.1656775426
10
-36.1677241293
20
17.1654437407
10
-36.2933051940
20
17.1618155042
10
-36.4183787644
20
17.1547993744
10
-36.5426154672
20
17.1444088396
10
-36.6657588475
20
17.1306553019
10
-36.7874863964
20
17.1135592810
10
-36.9074690029
20
17.0931490424
10
-37.0254486718
20
17.0694451043
10
-37.1411181210
20
17.0424791324
10
-37.2541494512
20
17.0122938350
10
-37.3642712830
20
16.9789222991
10
-37.4711944009
20
16.9424046554
10
-37.5746006970
20
16.9027960550
10
-37.6742079997
20
16.8601443927
10
-37.7698361468
20
16.8144493401
10
-37.8610900461
20
16.7658114997
10
-37.9474540491
20
16.7144368929
10
-38.0288035408
20
16.6603320205
10
-38.1048194924
20
16.6036264324
10
-38.1748857307
20
16.5447510716
10
-38.2389642691
20
16.4837486498
10
-38.2968865246
20
16.4207776489
10
-38.3481205175
20
16.3565275179
10
-38.3925999116
20
16.2913630773
10
-38.4305445915
20
16.2252699955
10
-38.4555739490
20
16.1722266897
0
LINE
5
335
100
AcDbEntity
8
0
100
AcDbLine
62
7
6
CONTINUOUS
10
-35.4208778741
20
17.1160085459
11
-35.5430456502
21
17.1326930659
0
LINE
5
336
100
AcDbEntity
8
0
100
AcDbLine
62
7
6
CONTINUOUS
10
-35.5101701053
20
16.2745756562
11
-35.5764643174
21
16.2844373983
0
LWPOLYLINE
5
337
100
AcDbEntity
8
0
100
AcDbPolyline
62
7
6
CONTINUOUS
90
3
70
0
10
-30.4693807928
20
15.4236428643
10
-30.4964992034
20
15.4283631887
10
-30.5213016650
20
15.4340546045
0
LWPOLYLINE
5
338
100
AcDbEntity
8
0
100
AcDbPolyline
62
7
6
CONTINUOUS
90
4
70
0
10
-29.5527936254
20
15.3807987308
10
-29.6015991492
20
15.3920324508
10
-29.6514401037
20
15.3987319371
10
-29.6861847029
20
15.4006711191
0
LWPOLYLINE
5
339
100
AcDbEntity
8
0
100
AcDbPolyline
62
7
6
CONTINUOUS
90
9
70
0
10
-30.5213016650
20
15.4340546045
10
-30.5434328737
20
15.4404342381
10
-30.5627013729
20
15.4472155436
10
-30.5787136494
20
15.4539741867
10
-30.5913629657
20
15.4603011540
10
-30.6008568786
20
15.4658959851
10
-30.6072312545
20
15.4703185661
10
-30.6106319251
20
15.4730953254
10
-30.6109783263
20
15.4734110849
0
LINE
5
33A
100
AcDbEntity
8
0
100
AcDbLine
62
7
6
CONTINUOUS
10
-46.5522583033
20
21.6560705017
11
-48.0466923177
21
22.2000000000
0
LINE
5
33B
100
AcDbEntity
8
0
100
AcDbLine
62
7
6
CONTINUOUS
10
-36.6441819193
20
18.4039557054
11
-30.5961878016
21
18.4567397704
0
LINE
5
33C
100
AcDbEntity
8
0
100
AcDbLine
62
9
6
CONTINUOUS
10
-30.3996782829
20
18.6210526959
11
-29.6874615984
21
18.6086209075
0
LINE
5
33D
100
AcDbEntity
8
0
100
AcDbLine
62
9
6
CONTINUOUS
10
-43.4387037458
20
19.0816269449
11
-38.5693982843
21
18.9966329019
0
LINE
5
33E
100
AcDbEntity
8
0
100
AcDbLine
62
7
6
CONTINUOUS
10
-43.7727838088
20
19.1544354297
11
-38.5682295508
21
19.0635895972
0
LINE
5
33F
100
AcDbEntity
8
0
100
AcDbLine
62
7
6
CONTINUOUS
10
-37.9869912692
20
19.0534440453
11
-29.6874615984
21
18.9085752160
0
LINE
5
340
100
AcDbEntity
8
0
100
AcDbLine
62
7
6
CONTINUOUS
10
-49.9996782829
20
21.1965699136
11
-46.2253330037
21
21.1306884717
0
LINE
5
341
100
AcDbEntity
8
0
100
AcDbLine
62
9
6
CONTINUOUS
10
-43.7727838088
20
18.9958904947
11
-43.6874615984
21
18.9943925461
0
LINE
5
342
100
AcDbEntity
8
0
100
AcDbLine
62
9
6
CONTINUOUS
10
-63.2542004350
20
21.0183132877
11
-62.7633911036
21
20.9972959167
0
LINE
5
343
100
AcDbEntity
8
0
100
AcDbLine
62
9
6
CONTINUOUS
10
-62.2900010466
20
21.4755923698
11
-54.1961878016
21
21.8997711479
0
LINE
5
344
100
AcDbEntity
8
0
100
AcDbLine
62
7
6
CONTINUOUS
10
-62.3074428215
20
21.9749071372
11
-54.1961878016
21
22.4000000000
0
LINE
5
345
100
AcDbEntity
8
0
100
AcDbLine
62
7
6
CONTINUOUS
10
-48.0466923177
20
22.2000000000
11
-48.5961878016
21
22.2000000000
0
LINE
5
346
100
AcDbEntity
8
0
100
AcDbLine
62
7
6
CONTINUOUS
10
-54.1961878016
20
23.5000000000
11
-50.1961878016
21
23.4301797403
0
ARC
5
347
100
AcDbEntity
8
0
100
AcDbCircle
62
7
6
CONTINUOUS
10
8.2516660498
20
-3.3000000000
40
1.0000000000
100
AcDbArc
50
123.8817965310
51
127.1303671820
0
ARC
5
348
100
AcDbEntity
8
0
100
AcDbCircle
62
7
6
CONTINUOUS
10
-8.2516660498
20
-3.3000000000
40
1.0000000000
100
AcDbArc
50
52.8695561685
51
56.1183719468
0
ARC
5
349
100
AcDbEntity
8
0
100
AcDbCircle
62
7
6
CONTINUOUS
10
11.2500000000
20
-0.0000000000
40
28.0000000000
100
AcDbArc
50
125.9627651514
51
126.8614238325
0
ARC
5
34A
100
AcDbEntity
8
0
100
AcDbCircle
62
7
6
CONTINUOUS
10
-4.9500000000
20
23.1000000000
40
0.5000000000
100
AcDbArc
50
240.8875772240
51
9.1962815790
0
ARC
5
34B
100
AcDbEntity
8
0
100
AcDbCircle
62
7
6
CONTINUOUS
10
11.2500000000
20
-0.0000000000
40
28.0000000000
100
AcDbArc
50
123.5572117505
51
124.1210936517
0
ARC
5
34C
100
AcDbEntity
8
0
100
AcDbCircle
62
7
6
CONTINUOUS
10
-11.2500000000
20
-0.0000000000
40
28.0000000000
100
AcDbArc
50
55.8789063483
51
56.4427882495
0
ARC
5
34D
100
AcDbEntity
8
0
100
AcDbCircle
62
7
6
CONTINUOUS
10
4.9500000000
20
23.1000000000
40
0.5000000000
100
AcDbArc
50
170.8037184210
51
299.1124227760
0
ARC
5
34E
100
AcDbEntity
8
0
100
AcDbCircle
62
7
6
CONTINUOUS
10
-11.2500000000
20
-0.0000000000
40
28.0000000000
100
AcDbArc
50
53.1385761675
51
54.0372348486
0
ARC
5
34F
100
AcDbEntity
8
0
100
AcDbCircle
62
7
6
CONTINUOUS
10
-11.2500000000
20
-0.0000000000
40
28.0000000000
100
AcDbArc
50
305.9627651514
51
306.8685765108
0
ARC
5
350
100
AcDbEntity
8
0
100
AcDbCircle
62
7
6
CONTINUOUS
10
4.9500000000
20
-23.1000000000
40
0.5000000000
100
AcDbArc
50
60.8875772240
51
189.1962815790
0
ARC
5
351
100
AcDbEntity
8
0
100
AcDbCircle
62
7
6
CONTINUOUS
10
-11.2500000000
20
-0.0000000000
40
28.0000000000
100
AcDbArc
50
303.5572119529
51
304.1210936517
0
ARC
5
352
100
AcDbEntity
8
0
100
AcDbCircle
62
7
6
CONTINUOUS
10
11.2500000000
20
-0.0000000000
40
28.0000000000
100
AcDbArc
50
235.8789063483
51
236.4427880471
0
ARC
5
353
100
AcDbEntity
8
0
100
AcDbCircle
62
7
6
CONTINUOUS
10
-4.9500000000
20
-23.1000000000
40
0.5000000000
100
AcDbArc
50
350.8037184210
51
119.1124227760
0
ARC
5
354
100
AcDbEntity
8
0
100
AcDbCircle
62
7
6
CONTINUOUS
10
11.2500000000
20
-0.0000000000
40
28.0000000000
100
AcDbArc
50
233.1314234892
51
234.0372348486
0
ARC
5
355
100
AcDbEntity
8
0
100
AcDbCircle
62
7
6
CONTINUOUS
10
-62.2551068653
20
-20.9762776025
40
1.0000000000
100
AcDbArc
50
182.4092313014
51
267.0000000000
0
ARC
5
356
100
AcDbEntity
8
0
100
AcDbCircle
62
7
6
CONTINUOUS
10
-62.2551068653
20
20.9762776025
40
1.0000000000
100
AcDbArc
50
93.0000000000
51
177.5907686986
0
ARC
5
357
100
AcDbEntity
8
0
100
AcDbCircle
62
7
6
CONTINUOUS
10
436.3038121984
20
-0.0000000000
40
500.0000000000
100
AcDbArc
50
177.5907686986
51
182.4092313014
0
ARC
5
358
100
AcDbEntity
8
0
100
AcDbCircle
62
7
6
CONTINUOUS
10
-27.4961878016
20
14.4541484194
40
0.3000000000
100
AcDbArc
50
0.0000000000
51
86.9999941540
0
ARC
5
359
100
AcDbEntity
8
0
100
AcDbCircle
62
7
6
CONTINUOUS
10
-27.4961878016
20
16.7041484194
40
0.3000000000
100
AcDbArc
50
0.0000000000
51
86.9999112320
0
ARC
5
35A
100
AcDbEntity
8
0
100
AcDbCircle
62
7
6
CONTINUOUS
10
-27.4961878016
20
7.9145049286
40
0.3000000000
100
AcDbArc
50
273.0000890388
51
360.0000000000
0
ARC
5
35B
100
AcDbEntity
8
0
100
AcDbCircle
62
7
6
CONTINUOUS
10
-27.4961878016
20
-16.3604950714
40
0.3000000000
100
AcDbArc
50
273.0000421658
51
360.0000000000
0
ARC
5
35C
100
AcDbEntity
8
0
100
AcDbCircle
62
7
6
CONTINUOUS
10
-27.4961878016
20
-9.5395049286
40
0.3000000000
100
AcDbArc
50
0.0000000000
51
86.9999404112
0
ARC
5
35D
100
AcDbEntity
8
0
100
AcDbCircle
62
7
6
CONTINUOUS
10
-28.9961878016
20
-16.9397929133
40
0.2000000000
100
AcDbArc
50
92.9998960992
51
179.9980229424
0
ARC
5
35E
100
AcDbEntity
8
0
100
AcDbCircle
62
7
6
CONTINUOUS
10
-28.9961878016
20
-8.9602070867
40
0.2000000000
100
AcDbArc
50
180.0009432693
51
267.0000499243
0
ARC
5
35F
100
AcDbEntity
8
0
100
AcDbCircle
62
7
6
CONTINUOUS
10
-49.9961878016
20
21.3965394526
40
0.2000000000
100
AcDbArc
50
180.0000000000
51
269.0000000000
0
ARC
5
360
100
AcDbEntity
8
0
100
AcDbCircle
62
7
6
CONTINUOUS
10
-49.9961878016
20
-21.3965394526
40
0.2000000000
100
AcDbArc
50
91.0000000000
51
180.0000000000
0
ARC
5
361
100
AcDbEntity
8
0
100
AcDbCircle
62
7
6
CONTINUOUS
10
-43.6961878016
20
18.6530222774
40
0.5000000000
100
AcDbArc
50
0.0000000000
51
89.0000000000
0
ARC
5
362
100
AcDbEntity
8
0
100
AcDbCircle
62
7
6
CONTINUOUS
10
-29.6961878016
20
18.4086513684
40
0.5000000000
100
AcDbArc
50
0.0000000000
51
89.0000000000
0
ARC
5
363
100
AcDbEntity
8
0
100
AcDbCircle
62
7
6
CONTINUOUS
10
-30.7961878016
20
18.7278976383
40
0.2000000000
100
AcDbArc
50
0.0000000000
51
89.0000000000
0
ARC
5
364
100
AcDbEntity
8
0
100
AcDbCircle
62
7
6
CONTINUOUS
10
-29.6961878016
20
-18.4086513684
40
0.5000000000
100
AcDbArc
50
271.0000000000
51
360.0000000000
0
ARC
5
365
100
AcDbEntity
8
0
100
AcDbCircle
62
7
6
CONTINUOUS
10
-46.2340592069
20
-20.6307646241
40
0.5000000000
100
AcDbArc
50
271.0000000000
51
315.0000000000
0
ARC
5
366
100
AcDbEntity
8
0
100
AcDbCircle
62
7
6
CONTINUOUS
10
-43.7605671243
20
-19.8543288163
40
0.7000000000
100
AcDbArc
50
91.0000000000
51
135.0000000000
0
ARC
5
367
100
AcDbEntity
8
0
100
AcDbCircle
62
7
6
CONTINUOUS
10
-46.2340592069
20
20.6307646241
40
0.5000000000
100
AcDbArc
50
45.0000000000
51
89.0000000000
0
ARC
5
368
100
AcDbEntity
8
0
100
AcDbCircle
62
7
6
CONTINUOUS
10
-43.7605671243
20
19.8543288163
40
0.7000000000
100
AcDbArc
50
225.0000000000
51
269.0000000000
0
SPLINE
5
369
100
AcDbEntity
8
0
100
AcDbSpline
62
7
6
CONTINUOUS
70
0
71
3
72
10
73
6
74
4
42
0.0000001000
43
0.0000001000
44
0.0000000001
12
-0.5846646973
22
0.0000000000
32
0.0000000000
13
-0.4872211307
23
-0.3231847428
33
0.0000000000
40
0.0000000000
40
0.0000000000
40
0.0000000000
40
0.0000000000
40
0.3324273495
40
0.6678954030
40
1.0000000000
40
1.0000000000
40
1.0000000000
40
1.0000000000
10
-3.6748576536
20
23.5000000000
30
0.0000000000
10
-3.7396438321
20
23.5000000000
30
0.0000000000
10
-3.8701727676
20
23.4872623487
30
0.0000000000
10
-4.0578546788
20
23.4306547748
30
0.0000000000
10
-4.1736063151
20
23.3691368564
30
0.0000000000
10
-4.2275424408
20
23.3333598102
30
0.0000000000
11
-3.6748576536
21
23.5000000000
31
0.0000000000
11
-3.8682960085
21
23.4811097056
31
0.0000000000
11
-4.0560769275
21
23.4244723891
31
0.0000000000
11
-4.2275424408
21
23.3333598102
31
0.0000000000
0
SPLINE
5
36A
100
AcDbEntity
8
0
100
AcDbSpline
62
7
6
CONTINUOUS
70
0
71
3
72
10
73
6
74
4
42
0.0000001000
43
0.0000001000
44
0.0000000001
12
-0.4872211307
22
0.3231847428
32
0.0000000000
13
-0.5846646973
23
0.0000000000
33
0.0000000000
40
0.0000000000
40
0.0000000000
40
0.0000000000
40
0.0000000000
40
0.3321045970
40
0.6675726505
40
1.0000000000
40
1.0000000000
40
1.0000000000
40
1.0000000000
10
4.2275424408
20
23.3333598102
30
0.0000000000
10
4.1736063151
20
23.3691368564
30
0.0000000000
10
4.0578546788
20
23.4306547748
30
0.0000000000
10
3.8701727676
20
23.4872623487
30
0.0000000000
10
3.7396438321
20
23.5000000000
30
0.0000000000
10
3.6748576536
20
23.5000000000
30
0.0000000000
11
4.2275424408
21
23.3333598102
31
0.0000000000
11
4.0560769275
21
23.4244723891
31
0.0000000000
11
3.8682960085
21
23.4811097056
31
0.0000000000
11
3.6748576536
21
23.5000000000
31
0.0000000000
0
SPLINE
5
36B
100
AcDbEntity
8
0
100
AcDbSpline
62
7
6
CONTINUOUS
70
0
71
3
72
10
73
6
74
4
42
0.0000001000
43
0.0000001000
44
0.0000000001
12
0.5846646872
22
0.0000000000
32
0.0000000000
13
0.4872211224
23
0.3231847373
33
0.0000000000
40
0.0000000000
40
0.0000000000
40
0.0000000000
40
0.0000000000
40
0.3321020794
40
0.6675861843
40
1.0000000000
40
1.0000000000
40
1.0000000000
40
1.0000000000
10
3.6748577618
20
-23.5000000000
30
0.0000000000
10
3.7395805479
20
-23.5000000000
30
0.0000000000
10
3.8700481965
20
-23.4872808765
30
0.0000000000
10
4.0577408616
20
-23.4307084377
30
0.0000000000
10
4.1735561790
20
-23.3691701125
30
0.0000000000
10
4.2275425231
20
-23.3333597553
30
0.0000000000
11
3.6748577618
21
-23.5000000000
31
0.0000000000
11
3.8681086402
21
-23.4811466346
31
0.0000000000
11
4.0559090890
21
-23.4245415935
31
0.0000000000
11
4.2275425231
21
-23.3333597553
31
0.0000000000
0
SPLINE
5
36C
100
AcDbEntity
8
0
100
AcDbSpline
62
7
6
CONTINUOUS
70
0
71
3
72
10
73
6
74
4
42
0.0000001000
43
0.0000001000
44
0.0000000001
12
0.4872211224
22
-0.3231847373
32
0.0000000000
13
0.5846646872
23
-0.0000000000
33
0.0000000000
40
0.0000000000
40
0.0000000000
40
0.0000000000
40
0.0000000000
40
0.3324138157
40
0.6678979206
40
1.0000000000
40
1.0000000000
40
1.0000000000
40
1.0000000000
10
-4.2275425231
20
-23.3333597553
30
0.0000000000
10
-4.1735561790
20
-23.3691701125
30
0.0000000000
10
-4.0577408616
20
-23.4307084377
30
0.0000000000
10
-3.8700481965
20
-23.4872808765
30
0.0000000000
10
-3.7395805479
20
-23.5000000000
30
0.0000000000
10
-3.6748577618
20
-23.5000000000
30
0.0000000000
11
-4.2275425231
21
-23.3333597553
31
0.0000000000
11
-4.0559090890
21
-23.4245415935
31
0.0000000000
11
-3.8681086402
21
-23.4811466346
31
0.0000000000
11
-3.6748577618
21
-23.5000000000
31
0.0000000000
0
SPLINE
5
36D
100
AcDbEntity
8
0
100
AcDbSpline
62
7
6
CONTINUOUS
70
0
71
3
72
15
73
11
74
9
42
0.0000001000
43
0.0000001000
44
0.0000000001
12
0.0000000000
22
-0.7840504605
32
0.0000000000
13
-0.7840504605
23
-0.0000000000
33
0.0000000000
40
0.0000000000
40
0.0000000000
40
0.0000000000
40
0.0000000000
40
0.1250035856
40
0.2500003382
40
0.3749971738
40
0.4999931596
40
0.6249941993
40
0.7499962985
40
0.8749988330
40
1.0000000000
40
1.0000000000
40
1.0000000000
40
1.0000000000
10
11.1500000000
20
-21.8997711479
30
0.0000000000
10
11.1500000000
20
-21.9324408542
30
0.0000000000
10
11.1435720625
20
-21.9979588343
30
0.0000000000
10
11.1150028885
20
-22.0923353736
30
0.0000000000
10
11.0685863853
20
-22.1793736183
30
0.0000000000
10
11.0060858443
20
-22.2556795571
30
0.0000000000
10
10.9298940235
20
-22.3183228818
30
0.0000000000
10
10.8429223671
20
-22.3648787971
30
0.0000000000
10
10.7485697898
20
-22.3935479377
30
0.0000000000
10
10.6830496739
20
-22.4000000000
30
0.0000000000
10
10.6503805997
20
-22.4000000000
30
0.0000000000
11
11.1500000000
21
-21.8997711479
31
0.0000000000
11
11.1404171274
21
-21.9973106575
31
0.0000000000
11
11.1120282390
21
-22.0911126206
31
0.0000000000
11
11.0659057104
21
-22.1775849419
31
0.0000000000
11
11.0038050670
21
-22.2534013617
31
0.0000000000
11
10.9280978412
21
-22.3156413172
31
0.0000000000
11
10.8416923200
21
-22.3618976126
31
0.0000000000
11
10.7479148288
21
-22.3903828363
31
0.0000000000
11
10.6503805997
21
-22.4000000000
31
0.0000000000
0
SPLINE
5
36E
100
AcDbEntity
8
0
100
AcDbSpline
62
7
6
CONTINUOUS
70
0
71
3
72
15
73
11
74
9
42
0.0000001000
43
0.0000001000
44
0.0000000001
12
0.7840504604
22
0.0000000000
32
0.0000000000
13
0.0000000000
23
-0.7840504604
33
0.0000000000
40
0.0000000000
40
0.0000000000
40
0.0000000000
40
0.0000000000
40
0.1250026133
40
0.2500082844
40
0.3750136098
40
0.5000160060
40
0.6250106349
40
0.7500042447
40
0.8749978606
40
1.0000000000
40
1.0000000000
40
1.0000000000
40
1.0000000000
10
10.6503805997
20
22.4000000000
30
0.0000000000
10
10.6830500519
20
22.4000000000
30
0.0000000000
10
10.7485713718
20
22.3935477443
30
0.0000000000
10
10.8429258085
20
22.3648775487
30
0.0000000000
10
10.9298988298
20
22.3183198083
30
0.0000000000
10
11.0060904776
20
22.2556749149
30
0.0000000000
10
11.0685894502
20
22.1793688070
30
0.0000000000
10
11.1150041327
20
22.0923319310
30
0.0000000000
10
11.1435722551
20
21.9979572524
30
0.0000000000
10
11.1500000000
20
21.9324404763
30
0.0000000000
10
11.1500000000
20
21.8997711479
30
0.0000000000
11
10.6503805997
21
22.4000000000
31
0.0000000000
11
10.7479159463
21
22.3903826137
31
0.0000000000
11
10.8416956551
21
22.3618962291
31
0.0000000000
11
10.9281029540
21
22.3156378952
31
0.0000000000
11
11.0038101683
21
22.2533962508
31
0.0000000000
11
11.0659091235
21
22.1775798235
31
0.0000000000
11
11.1120296181
21
22.0911092838
31
0.0000000000
11
11.1404173492
21
21.9973095399
31
0.0000000000
11
11.1500000000
21
21.8997711479
31
0.0000000000
0
SPLINE
5
36F
100
AcDbEntity
8
0
100
AcDbSpline
62
7
6
CONTINUOUS
70
0
71
3
72
15
73
11
74
9
42
0.0000001000
43
0.0000001000
44
0.0000000001
12
-0.7840504604
22
0.0000000000
32
0.0000000000
13
-0.0000000000
23
0.7840504604
33
0.0000000000
40
0.0000000000
40
0.0000000000
40
0.0000000000
40
0.0000000000
40
0.1250026133
40
0.2500082844
40
0.3750136098
40
0.5000160060
40
0.6250106349
40
0.7500042447
40
0.8749978606
40
1.0000000000
40
1.0000000000
40
1.0000000000
40
1.0000000000
10
-10.6503805997
20
-22.4000000000
30
0.0000000000
10
-10.6830500519
20
-22.4000000000
30
0.0000000000
10
-10.7485713718
20
-22.3935477443
30
0.0000000000
10
-10.8429258085
20
-22.3648775487
30
0.0000000000
10
-10.9298988298
20
-22.3183198083
30
0.0000000000
10
-11.0060904776
20
-22.2556749149
30
0.0000000000
10
-11.0685894502
20
-22.1793688070
30
0.0000000000
10
-11.1150041327
20
-22.0923319310
30
0.0000000000
10
-11.1435722551
20
-21.9979572524
30
0.0000000000
10
-11.1500000000
20
-21.9324404763
30
0.0000000000
10
-11.1500000000
20
-21.8997711479
30
0.0000000000
11
-10.6503805997
21
-22.4000000000
31
0.0000000000
11
-10.7479159463
21
-22.3903826137
31
0.0000000000
11
-10.8416956551
21
-22.3618962291
31
0.0000000000
11
-10.9281029540
21
-22.3156378952
31
0.0000000000
11
-11.0038101683
21
-22.2533962508
31
0.0000000000
11
-11.0659091235
21
-22.1775798235
31
0.0000000000
11
-11.1120296181
21
-22.0911092838
31
0.0000000000
11
-11.1404173492
21
-21.9973095399
31
0.0000000000
11
-11.1500000000
21
-21.8997711479
31
0.0000000000
0
SPLINE
5
370
100
AcDbEntity
8
0
100
AcDbSpline
62
7
6
CONTINUOUS
70
0
71
3
72
15
73
11
74
9
42
0.0000001000
43
0.0000001000
44
0.0000000001
12
0.0000000000
22
0.7840504605
32
0.0000000000
13
0.7840504605
23
0.0000000000
33
0.0000000000
40
0.0000000000
40
0.0000000000
40
0.0000000000
40
0.0000000000
40
0.1250035856
40
0.2500003382
40
0.3749971738
40
0.4999931596
40
0.6249941993
40
0.7499962985
40
0.8749988330
40
1.0000000000
40
1.0000000000
40
1.0000000000
40
1.0000000000
10
-11.1500000000
20
21.8997711479
30
0.0000000000
10
-11.1500000000
20
21.9324408542
30
0.0000000000
10
-11.1435720625
20
21.9979588343
30
0.0000000000
10
-11.1150028885
20
22.0923353736
30
0.0000000000
10
-11.0685863853
20
22.1793736183
30
0.0000000000
10
-11.0060858443
20
22.2556795571
30
0.0000000000
10
-10.9298940235
20
22.3183228818
30
0.0000000000
10
-10.8429223671
20
22.3648787971
30
0.0000000000
10
-10.7485697898
20
22.3935479377
30
0.0000000000
10
-10.6830496739
20
22.4000000000
30
0.0000000000
10
-10.6503805997
20
22.4000000000
30
0.0000000000
11
-11.1500000000
21
21.8997711479
31
0.0000000000
11
-11.1404171274
21
21.9973106575
31
0.0000000000
11
-11.1120282390
21
22.0911126206
31
0.0000000000
11
-11.0659057104
21
22.1775849419
31
0.0000000000
11
-11.0038050670
21
22.2534013617
31
0.0000000000
11
-10.9280978412
21
22.3156413172
31
0.0000000000
11
-10.8416923200
21
22.3618976126
31
0.0000000000
11
-10.7479148288
21
22.3903828363
31
0.0000000000
11
-10.6503805997
21
22.4000000000
31
0.0000000000
0
SPLINE
5
371
100
AcDbEntity
8
0
100
AcDbSpline
62
9
6
CONTINUOUS
70
0
71
3
72
12
73
8
74
6
42
0.0000001000
43
0.0000001000
44
0.0000000001
12
0.0007145531
22
0.7813571046
32
0.0000000000
13
0.7813571062
23
0.0007128139
33
0.0000000000
40
0.0000000000
40
0.0000000000
40
0.0000000000
40
0.0000000000
40
0.1998532782
40
0.3997964689
40
0.5998286573
40
0.7999149934
40
1.0000000000
40
1.0000000000
40
1.0000000000
40
1.0000000000
10
-11.0087219643
20
21.4755923698
30
0.0000000000
10
-11.0086743624
20
21.5276446294
30
0.0000000000
10
-10.9920025187
20
21.6324904868
30
0.0000000000
10
-10.9197666025
20
21.7737967765
30
0.0000000000
10
-10.8073186645
20
21.8860938494
30
0.0000000000
10
-10.6658521001
20
21.9582171671
30
0.0000000000
10
-10.5609107306
20
21.9748595961
30
0.0000000000
10
-10.5087981167
20
21.9749071372
30
0.0000000000
11
-11.0087219643
21
21.4755923698
31
0.0000000000
11
-10.9841411372
21
21.6298024308
31
0.0000000000
11
-10.9130840750
21
21.7689347420
31
0.0000000000
11
-10.8024983179
21
21.8793857675
31
0.0000000000
11
-10.6631962884
21
21.9503562578
31
0.0000000000
11
-10.5087981167
21
21.9749071372
31
0.0000000000
0
SPLINE
5
372
100
AcDbEntity
8
0
100
AcDbSpline
62
9
6
CONTINUOUS
70
0
71
3
72
35
73
31
74
29
42
0.0000001000
43
0.0000001000
44
0.0000000001
12
21.4622477920
22
-0.0000488713
32
0.0000000000
13
-21.4622477920
23
-0.0000083910
33
0.0000000000
40
0.0000000000
40
0.0000000000
40
0.0000000000
40
0.0000000000
40
0.0188757404
40
0.0385475942
40
0.0596077964
40
0.0826028651
40
0.1080776459
40
0.1365740159
40
0.1686304358
40
0.2047850824
40
0.2455178759
40
0.2907333304
40
0.3398770090
40
0.3919596709
40
0.4448102123
40
0.4967679392
40
0.5486390685
40
0.6014417843
40
0.6538406012
40
0.7036477275
40
0.7496730787
40
0.7912888230
40
0.8282987823
40
0.8610989002
40
0.8902360085
40
0.9162511692
40
0.9396878583
40
0.9610967302
40
0.9809798004
40
1.0000000000
40
1.0000000000
40
1.0000000000
40
1.0000000000
10
0.0000000000
20
14.7628923274
30
0.0000000000
10
0.1350386062
20
14.7628920199
30
0.0000000000
10
0.4108753879
20
14.7549923761
30
0.0000000000
10
0.8359374206
20
14.7178610004
30
0.0000000000
10
1.2871067190
20
14.6501428647
30
0.0000000000
10
1.7733691754
20
14.5434572597
30
0.0000000000
10
2.3015569684
20
14.3859339654
30
0.0000000000
10
2.8755632587
20
14.1617586897
30
0.0000000000
10
3.4948740312
20
13.8508442045
30
0.0000000000
10
4.1521797546
20
13.4290111467
30
0.0000000000
10
4.8276520115
20
12.8714057266
30
0.0000000000
10
5.4857412587
20
12.1591477449
30
0.0000000000
10
6.0765994608
20
11.2888174965
30
0.0000000000
10
6.5427367205
20
10.2842331590
30
0.0000000000
10
6.8382241360
20
9.1957007664
30
0.0000000000
10
6.9449888735
20
8.0745419871
30
0.0000000000
10
6.8618441988
20
6.9517480767
30
0.0000000000
10
6.5891844022
20
5.8559378639
30
0.0000000000
10
6.1411977642
20
4.8357325230
30
0.0000000000
10
5.5598871547
20
3.9434614249
30
0.0000000000
10
4.9023074312
20
3.2077152687
30
0.0000000000
10
4.2205595650
20
2.6289597399
30
0.0000000000
10
3.5529900534
20
2.1901123281
30
0.0000000000
10
2.9219986535
20
1.8666269372
30
0.0000000000
10
2.3365655246
20
1.6337416198
30
0.0000000000
10
1.7979363604
20
1.4704998433
30
0.0000000000
10
1.3026697962
20
1.3603296627
30
0.0000000000
10
0.8445150043
20
1.2907786215
30
0.0000000000
10
0.4144549634
20
1.2528653004
30
0.0000000000
10
0.1360720791
20
1.2448278131
30
0.0000000000
10
0.0000000000
20
1.2448277599
30
0.0000000000
11
0.0000000000
21
14.7628923274
31
0.0000000000
11
0.4049496994
21
14.7512920086
31
0.0000000000
11
0.8255499925
21
14.7145484122
31
0.0000000000
11
1.2725411291
21
14.6474494547
31
0.0000000000
11
1.7545984178
21
14.5416735243
31
0.0000000000
11
2.2785335366
21
14.3853941495
31
0.0000000000
11
2.8482101003
21
14.1628666954
31
0.0000000000
11
3.4630470758
21
13.8541218386
31
0.0000000000
11
4.1160327997
21
13.4349279233
31
0.0000000000
11
4.7901021238
21
12.8782534695
31
0.0000000000
11
5.4484778442
21
12.1653252465
31
0.0000000000
11
6.0406584242
21
11.2925219662
31
0.0000000000
11
6.5108930435
21
10.2784308336
31
0.0000000000
11
6.8078726470
21
9.1837070648
31
0.0000000000
11
6.9135287063
21
8.0735940790
31
0.0000000000
11
6.8313631219
21
6.9633593268
31
0.0000000000
11
6.5578940606
21
5.8635847284
31
0.0000000000
11
6.1059957153
21
4.8337765284
31
0.0000000000
11
5.5227280290
21
3.9379518588
31
0.0000000000
11
4.8646529335
21
3.2012695588
31
0.0000000000
11
4.1838734783
21
2.6230936638
31
0.0000000000
11
3.5201966011
21
2.1866622626
31
0.0000000000
11
2.8937897870
21
1.8654455451
31
0.0000000000
11
2.3127448884
21
1.6342600229
31
0.0000000000
11
1.7784091162
21
1.4722936416
31
0.0000000000
11
1.2874092680
21
1.3630590227
31
0.0000000000
11
0.8331326559
21
1.2940884440
31
0.0000000000
11
0.4080461267
21
1.2566114319
31
0.0000000000
11
0.0000000000
21
1.2448277599
31
0.0000000000
0
SPLINE
5
373
100
AcDbEntity
8
0
100
AcDbSpline
62
9
6
CONTINUOUS
70
0
71
3
72
13
73
9
74
7
42
0.0000001000
43
0.0000001000
44
0.0000000001
12
-0.1577378029
22
0.9435858985
32
0.0000000000
13
-0.0003490202
23
0.9566793822
33
0.0000000000
40
0.0000000000
40
0.0000000000
40
0.0000000000
40
0.0000000000
40
0.0448208408
40
0.1498261432
40
0.3086281187
40
0.5117190361
40
0.7469352638
40
1.0000000000
40
1.0000000000
40
1.0000000000
40
1.0000000000
10
10.5087981167
20
-21.9749071372
30
0.0000000000
10
10.5064414697
20
-21.9608096994
30
0.0000000000
10
10.5072295647
20
-21.9127248768
30
0.0000000000
10
10.5036916604
20
-21.8145848799
30
0.0000000000
10
10.5030908201
20
-21.6655686219
30
0.0000000000
10
10.5015010824
20
-21.4752101535
30
0.0000000000
10
10.5008152536
20
-21.2547198844
30
0.0000000000
10
10.5005645041
20
-21.0990148361
30
0.0000000000
10
10.5005350625
20
-21.0183142309
30
0.0000000000
11
10.5087981167
21
-21.9749071372
31
0.0000000000
11
10.5066887591
21
-21.9320798744
31
0.0000000000
11
10.5047336849
21
-21.8316424864
31
0.0000000000
11
10.5030519635
21
-21.6797292088
31
0.0000000000
11
10.5017438026
21
-21.4854407064
31
0.0000000000
11
10.5008871714
21
-21.2604158065
31
0.0000000000
11
10.5005350625
21
-21.0183142309
31
0.0000000000
0
SPLINE
5
374
100
AcDbEntity
8
0
100
AcDbSpline
62
9
6
CONTINUOUS
70
0
71
3
72
13
73
9
74
7
42
0.0000001000
43
0.0000001000
44
0.0000000001
12
-0.1518283440
22
0.4537411951
32
0.0000000000
13
-0.0003498850
23
0.4784692214
33
0.0000000000
40
0.0000000000
40
0.0000000000
40
0.0000000000
40
0.0000000000
40
0.0448720941
40
0.1499620513
40
0.3088769427
40
0.5121305404
40
0.7475203519
40
1.0000000000
40
1.0000000000
40
1.0000000000
40
1.0000000000
10
11.0087219643
20
-21.4755923698
30
0.0000000000
10
11.0064510124
20
-21.4688055973
30
0.0000000000
10
11.0070644478
20
-21.4443203345
30
0.0000000000
10
11.0036664875
20
-21.3955798760
30
0.0000000000
10
11.0029931518
20
-21.3208239670
30
0.0000000000
10
11.0014301292
20
-21.2256234781
30
0.0000000000
10
11.0007361325
20
-21.1153658418
30
0.0000000000
10
11.0004883564
20
-21.0375638302
30
0.0000000000
10
11.0004589101
20
-20.9972959167
30
0.0000000000
11
11.0087219643
21
-21.4755923698
31
0.0000000000
11
11.0066154888
21
-21.4542260342
31
0.0000000000
11
11.0046585314
21
-21.4039818070
31
0.0000000000
11
11.0029751375
21
-21.3279645393
31
0.0000000000
11
11.0016659628
21
-21.2307227351
31
0.0000000000
11
11.0008096574
21
-21.1180991805
31
0.0000000000
11
11.0004589101
21
-20.9972959167
31
0.0000000000
0
SPLINE
5
375
100
AcDbEntity
8
0
100
AcDbSpline
62
9
6
CONTINUOUS
70
0
71
3
72
9
73
5
74
3
42
0.0000001000
43
0.0000001000
44
0.0000000001
12
-4.0107629943
22
-6.9515095028
32
0.0000000000
13
-4.0100325184
23
-6.9519309091
33
0.0000000000
40
0.0000000000
40
0.0000000000
40
0.0000000000
40
0.0000000000
40
0.5000353749
40
1.0000000000
40
1.0000000000
40
1.0000000000
40
1.0000000000
10
7.5600122299
20
-2.0341442075
30
0.0000000000
10
6.8915044374
20
-3.1928110943
30
0.0000000000
10
5.5547126973
20
-5.5100555033
30
0.0000000000
10
4.2179604895
20
-7.8273227153
30
0.0000000000
10
3.5496690212
20
-8.9858958922
30
0.0000000000
11
7.5600122299
21
-2.0341442075
31
0.0000000000
11
5.5546280040
21
-5.5102251495
31
0.0000000000
11
3.5496690212
21
-8.9858958922
31
0.0000000000
0
SPLINE
5
376
100
AcDbEntity
8
0
100
AcDbSpline
62
7
6
CONTINUOUS
70
0
71
3
72
13
73
9
74
7
42
0.0000001000
43
0.0000001000
44
0.0000000001
12
-0.2996552640
22
-0.3022327870
32
0.0000000000
13
-0.4110853329
23
-0.1102124486
33
0.0000000000
40
0.0000000000
40
0.0000000000
40
0.0000000000
40
0.0000000000
40
0.0580428148
40
0.1898842066
40
0.3663489345
40
0.5691527112
40
0.7847758338
40
1.0000000000
40
1.0000000000
40
1.0000000000
40
1.0000000000
10
3.9593547594
20
-8.8707891343
30
0.0000000000
10
3.9535571477
20
-8.8766366149
30
0.0000000000
10
3.9239912184
20
-8.8789587939
30
0.0000000000
10
3.8770111768
20
-8.8977569021
30
0.0000000000
10
3.8059229705
20
-8.9154914496
30
0.0000000000
10
3.7250052133
20
-8.9385943893
30
0.0000000000
10
3.6381421879
20
-8.9620365362
30
0.0000000000
10
3.5791540687
20
-8.9779852810
30
0.0000000000
10
3.5496622360
20
-8.9858920752
30
0.0000000000
11
3.9593547594
21
-8.8707891343
31
0.0000000000
11
3.9359693468
21
-8.8787496901
31
0.0000000000
11
3.8821220334
21
-8.8945305030
31
0.0000000000
11
3.8098380093
21
-8.9149172379
31
0.0000000000
11
3.7266444880
21
-8.9379156614
31
0.0000000000
11
3.6381060019
21
-8.9620536490
31
0.0000000000
11
3.5496622360
21
-8.9858920752
31
0.0000000000
0
SPLINE
5
377
100
AcDbEntity
8
0
100
AcDbSpline
62
9
6
CONTINUOUS
70
0
71
3
72
9
73
5
74
3
42
0.0000001000
43
0.0000001000
44
0.0000000001
12
-3.7108345109
22
-6.4278686714
32
0.0000000000
13
-3.7102093837
23
-6.4282295193
33
0.0000000000
40
0.0000000000
40
0.0000000000
40
0.0000000000
40
0.0000000000
40
0.5000410449
40
1.0000000000
40
1.0000000000
40
1.0000000000
40
1.0000000000
10
7.6698767526
20
-2.4427400596
30
0.0000000000
10
7.0513535638
20
-3.5141394486
30
0.0000000000
10
5.8144607920
20
-5.6567923969
30
0.0000000000
10
4.5776722271
20
-7.7995054976
30
0.0000000000
10
3.9593547582
20
-8.8707891354
30
0.0000000000
11
7.6698767526
21
-2.4427400596
31
0.0000000000
11
5.8143853117
21
-5.6569833275
31
0.0000000000
11
3.9593547582
21
-8.8707891354
31
0.0000000000
0
SPLINE
5
378
100
AcDbEntity
8
0
100
AcDbSpline
62
7
6
CONTINUOUS
70
0
71
3
72
13
73
9
74
7
42
0.0000001000
43
0.0000001000
44
0.0000000001
12
-0.1095019989
22
0.4086670233
32
0.0000000000
13
-0.1094748381
23
0.4086743000
33
0.0000000000
40
0.0000000000
40
0.0000000000
40
0.0000000000
40
0.0000000000
40
0.0548732991
40
0.1855254930
40
0.3621534476
40
0.5659978157
40
0.7831472207
40
1.0000000000
40
1.0000000000
40
1.0000000000
40
1.0000000000
10
7.6698767407
20
-2.4427400537
30
0.0000000000
10
7.6678738288
20
-2.4352650844
30
0.0000000000
10
7.6608865493
20
-2.4100506704
30
0.0000000000
10
7.6477205439
20
-2.3607027769
30
0.0000000000
10
7.6289585650
20
-2.2911046839
30
0.0000000000
10
7.6071280910
20
-2.2096997252
30
0.0000000000
10
7.5838234307
20
-2.1228169125
30
0.0000000000
10
7.5679830307
20
-2.0636958549
30
0.0000000000
10
7.5600697231
20
-2.0341551356
30
0.0000000000
11
7.6698767407
21
-2.4427400537
31
0.0000000000
11
7.6637617595
21
-2.4203438843
31
0.0000000000
11
7.6493724008
21
-2.3669728644
31
0.0000000000
11
7.6299722282
21
-2.2948066946
31
0.0000000000
11
7.6076133642
21
-2.2115122801
31
0.0000000000
11
7.5838167254
21
-2.1227753967
31
0.0000000000
11
7.5600697231
21
-2.0341551356
31
0.0000000000
0
SPLINE
5
379
100
AcDbEntity
8
0
100
AcDbSpline
62
9
6
CONTINUOUS
70
0
71
3
72
12
73
8
74
6
42
0.0000001000
43
0.0000001000
44
0.0000000001
12
0.7813571085
22
0.0007128051
32
0.0000000000
13
0.0007145497
23
0.7813571069
33
0.0000000000
40
0.0000000000
40
0.0000000000
40
0.0000000000
40
0.0000000000
40
0.2000879484
40
0.4001761228
40
0.6002085985
40
0.8001502331
40
1.0000000000
40
1.0000000000
40
1.0000000000
40
1.0000000000
10
10.5087981167
20
-21.9749071372
30
0.0000000000
10
10.5609114970
20
-21.9748595960
30
0.0000000000
10
10.6658541434
20
-21.9582167171
30
0.0000000000
10
10.8073215017
20
-21.8860919029
30
0.0000000000
10
10.9197686772
20
-21.7737938411
30
0.0000000000
10
10.9920030345
20
-21.6324882152
30
0.0000000000
10
11.0086743634
20
-21.5276437151
30
0.0000000000
10
11.0087219643
20
-21.4755923698
30
0.0000000000
11
10.5087981167
21
-21.9749071372
31
0.0000000000
11
10.6631985021
21
-21.9503555394
31
0.0000000000
11
10.8025013793
21
-21.8793835478
31
0.0000000000
11
10.9130864355
21
-21.7689315022
31
0.0000000000
11
10.9841419991
21
-21.6297997904
31
0.0000000000
11
11.0087219643
21
-21.4755923698
31
0.0000000000
0
SPLINE
5
37A
100
AcDbEntity
8
0
100
AcDbSpline
62
9
6
CONTINUOUS
70
0
71
3
72
10
73
6
74
4
42
0.0000001000
43
0.0000001000
44
0.0000000001
12
-0.0308408133
22
42.0366204979
32
0.0000000000
13
0.0308408108
23
42.0366204979
33
0.0000000000
40
0.0000000000
40
0.0000000000
40
0.0000000000
40
0.0000000000
40
0.3332896860
40
0.6667103140
40
1.0000000000
40
1.0000000000
40
1.0000000000
40
1.0000000000
10
10.5005350625
20
-21.0183142309
30
0.0000000000
10
10.4971087542
20
-16.3481902157
30
0.0000000000
10
10.4925427185
20
-7.0061055531
30
0.0000000000
10
10.4925427181
20
7.0061055523
30
0.0000000000
10
10.4971087545
20
16.3481902153
30
0.0000000000
10
10.5005350625
20
21.0183142309
30
0.0000000000
11
10.5005350625
21
-21.0183142309
31
0.0000000000
11
10.4936846758
21
-7.0079400892
31
0.0000000000
11
10.4936846757
21
7.0079400882
31
0.0000000000
11
10.5005350625
21
21.0183142309
31
0.0000000000
0
SPLINE
5
37B
100
AcDbEntity
8
0
100
AcDbSpline
62
9
6
CONTINUOUS
70
0
71
3
72
9
73
5
74
3
42
0.0000001000
43
0.0000001000
44
0.0000000001
12
-2.0546904945
22
1.1863567187
32
0.0000000000
13
-2.0547027858
23
1.1863354307
33
0.0000000000
40
0.0000000000
40
0.0000000000
40
0.0000000000
40
0.0000000000
40
0.5014668118
40
1.0000000000
40
1.0000000000
40
1.0000000000
40
1.0000000000
10
9.7245742119
20
-3.6290812839
30
0.0000000000
10
9.3811211813
20
-3.4307751101
30
0.0000000000
10
8.6962237460
20
-3.0353239163
30
0.0000000000
10
8.0113219680
20
-2.6398802438
30
0.0000000000
10
7.6698761245
20
-2.4427377156
30
0.0000000000
11
9.7245742119
21
-3.6290812839
31
0.0000000000
11
8.6942134226
21
-3.0341657027
31
0.0000000000
11
7.6698761245
21
-2.4427377156
31
0.0000000000
0
SPLINE
5
37C
100
AcDbEntity
8
0
100
AcDbSpline
62
9
6
CONTINUOUS
70
0
71
3
72
9
73
5
74
3
42
0.0000001000
43
0.0000001000
44
0.0000000001
12
-2.5743159747
22
1.4872798800
32
0.0000000000
13
-2.5743352862
23
1.4872464536
33
0.0000000000
40
0.0000000000
40
0.0000000000
40
0.0000000000
40
0.0000000000
40
0.5018233571
40
1.0000000000
40
1.0000000000
40
1.0000000000
40
1.0000000000
10
10.1343484981
20
-3.5213889611
30
0.0000000000
10
9.7037312031
20
-3.2726050336
30
0.0000000000
10
8.8456276708
20
-2.7768419705
30
0.0000000000
10
7.9875034668
20
-2.2811146893
30
0.0000000000
10
7.5600122299
20
-2.0341442075
30
0.0000000000
11
10.1343484981
21
-3.5213889611
31
0.0000000000
11
8.8424932068
21
-2.7750430751
31
0.0000000000
11
7.5600122299
21
-2.0341442075
31
0.0000000000
0
SPLINE
5
37D
100
AcDbEntity
8
0
100
AcDbSpline
62
9
6
CONTINUOUS
70
0
71
3
72
9
73
5
74
3
42
0.0000001000
43
0.0000001000
44
0.0000000001
12
3.7118428211
22
6.4268088368
32
0.0000000000
13
3.7112179687
23
6.4271696837
33
0.0000000000
40
0.0000000000
40
0.0000000000
40
0.0000000000
40
0.0000000000
40
0.4999767579
40
1.0000000000
40
1.0000000000
40
1.0000000000
40
1.0000000000
10
6.0130084734
20
-10.0560800383
30
0.0000000000
10
6.6316201865
20
-8.9849950231
30
0.0000000000
10
7.8688490480
20
-6.8426953319
30
0.0000000000
10
9.1059737687
20
-4.7003355003
30
0.0000000000
10
9.7245388490
20
-3.6290907593
30
0.0000000000
11
6.0130084734
21
-10.0560800383
31
0.0000000000
11
7.8687655035
21
-6.8427798815
31
0.0000000000
11
9.7245388490
21
-3.6290907593
31
0.0000000000
0
SPLINE
5
37E
100
AcDbEntity
8
0
100
AcDbSpline
62
9
6
CONTINUOUS
70
0
71
3
72
9
73
5
74
3
42
0.0000001000
43
0.0000001000
44
0.0000000001
12
4.0119241866
22
6.9504870072
32
0.0000000000
13
4.0111940061
23
6.9509084270
33
0.0000000000
40
0.0000000000
40
0.0000000000
40
0.0000000000
40
0.0000000000
40
0.4999799087
40
1.0000000000
40
1.0000000000
40
1.0000000000
40
1.0000000000
10
6.1228016199
20
-10.4720937394
30
0.0000000000
10
6.7914287827
20
-9.3137257864
30
0.0000000000
10
8.1286696201
20
-6.9968579804
30
0.0000000000
10
9.4657893003
20
-4.6799202499
30
0.0000000000
10
10.1343484981
20
-3.5213889611
30
0.0000000000
11
6.1228016199
21
-10.4720937394
31
0.0000000000
11
8.1285855993
21
-6.9969335986
31
0.0000000000
11
10.1343484981
21
-3.5213889611
31
0.0000000000
0
SPLINE
5
37F
100
AcDbEntity
8
0
100
AcDbSpline
62
9
6
CONTINUOUS
70
0
71
3
72
10
73
6
74
4
42
0.0000001000
43
0.0000001000
44
0.0000000001
12
-0.0308408131
22
41.9945838615
32
0.0000000000
13
0.0308408106
23
41.9945838615
33
0.0000000000
40
0.0000000000
40
0.0000000000
40
0.0000000000
40
0.0000000000
40
0.3332892101
40
0.6667109287
40
1.0000000000
40
1.0000000000
40
1.0000000000
40
1.0000000000
10
11.0004589101
20
-20.9972959167
30
0.0000000000
10
10.9970326067
20
-16.3318486893
30
0.0000000000
10
10.9924665635
20
-6.9990975058
30
0.0000000000
10
10.9924665646
20
6.9991013917
30
0.0000000000
10
10.9970326084
20
16.3318506322
30
0.0000000000
10
11.0004589101
20
20.9972959167
30
0.0000000000
11
11.0004589101
21
-20.9972959167
31
0.0000000000
11
10.9936085283
21
-7.0009521365
31
0.0000000000
11
10.9936085296
21
7.0009579653
31
0.0000000000
11
11.0004589101
21
20.9972959167
31
0.0000000000
0
SPLINE
5
380
100
AcDbEntity
8
0
100
AcDbSpline
62
9
6
CONTINUOUS
70
0
71
3
72
12
73
8
74
6
42
0.0000001000
43
0.0000001000
44
0.0000000001
12
0.5010580609
22
0.0003673192
32
0.0000000000
13
0.1919553163
23
0.4628309323
33
0.0000000000
40
0.0000000000
40
0.0000000000
40
0.0000000000
40
0.0000000000
40
0.3050607102
40
0.5809725745
40
0.8013959844
40
0.9453902239
40
1.0000000000
40
1.0000000000
40
1.0000000000
40
1.0000000000
10
10.5005350625
20
-21.0183142305
30
0.0000000000
10
10.5514861052
20
-21.0182768789
30
0.0000000000
10
10.6490214532
20
-21.0180276728
30
0.0000000000
10
10.7809060054
20
-21.0135856071
30
0.0000000000
10
10.8928023060
20
-21.0137704023
30
0.0000000000
10
10.9527896770
20
-21.0005048015
30
0.0000000000
10
10.9969646978
20
-21.0057209479
30
0.0000000000
10
11.0004589101
20
-20.9972959167
30
0.0000000000
11
10.5005350625
21
-21.0183142305
31
0.0000000000
11
10.6533841411
21
-21.0171959985
31
0.0000000000
11
10.7915989752
21
-21.0141724692
31
0.0000000000
11
10.9019464483
21
-21.0095331264
31
0.0000000000
11
10.9738615515
21
-21.0037221554
31
0.0000000000
11
11.0004589101
21
-20.9972959167
31
0.0000000000
0
SPLINE
5
381
100
AcDbEntity
8
0
100
AcDbSpline
62
7
6
CONTINUOUS
70
0
71
3
72
13
73
9
74
7
42
0.0000001000
43
0.0000001000
44
0.0000000001
12
0.4092993784
22
0.1096714379
32
0.0000000000
13
0.4092964356
23
0.1096824199
33
0.0000000000
40
0.0000000000
40
0.0000000000
40
0.0000000000
40
0.0000000000
40
0.0547368833
40
0.1854019765
40
0.3624001592
40
0.5666640078
40
0.7838513429
40
1.0000000000
40
1.0000000000
40
1.0000000000
40
1.0000000000
10
9.7245388515
20
-3.6290907598
30
0.0000000000
10
9.7320067756
20
-3.6270897356
30
0.0000000000
10
9.7576284085
20
-3.6216068091
30
0.0000000000
10
9.8070019644
20
-3.6080521914
30
0.0000000000
10
9.8770153607
20
-3.5899965787
30
0.0000000000
10
9.9587015589
20
-3.5682538294
30
0.0000000000
10
10.0457366044
20
-3.5451168112
30
0.0000000000
10
10.1048638661
20
-3.5292966626
30
0.0000000000
10
10.1343534910
20
-3.5213940933
30
0.0000000000
11
9.7245388515
21
-3.6290907598
31
0.0000000000
11
9.7471039201
21
-3.6237257273
31
0.0000000000
11
9.8007185996
21
-3.6099034960
31
0.0000000000
11
9.8732643707
21
-3.5908709774
31
0.0000000000
11
9.9569383174
21
-3.5687277321
31
0.0000000000
11
10.0458721299
21
-3.5450551577
31
0.0000000000
11
10.1343534910
21
-3.5213940933
31
0.0000000000
0
SPLINE
5
382
100
AcDbEntity
8
0
100
AcDbSpline
62
9
6
CONTINUOUS
70
0
71
3
72
9
73
5
74
3
42
0.0000001000
43
0.0000001000
44
0.0000000001
12
2.0535084701
22
-1.1853753745
32
0.0000000000
13
2.0535207428
23
-1.1853541134
33
0.0000000000
40
0.0000000000
40
0.0000000000
40
0.0000000000
40
0.0000000000
40
0.5000019816
40
1.0000000000
40
1.0000000000
40
1.0000000000
40
1.0000000000
10
3.9594866650
20
-8.8706884146
30
0.0000000000
10
4.3017394331
20
-9.0682517600
30
0.0000000000
10
4.9862432791
20
-9.4633751133
30
0.0000000000
10
5.6707491704
20
-9.8584949232
30
0.0000000000
10
6.0130012711
20
-10.0560531591
30
0.0000000000
11
3.9594866650
21
-8.8706884146
31
0.0000000000
11
4.9862465033
21
-9.4633757934
31
0.0000000000
11
6.0130012711
21
-10.0560531591
31
0.0000000000
0
SPLINE
5
383
100
AcDbEntity
8
0
100
AcDbSpline
62
9
6
CONTINUOUS
70
0
71
3
72
9
73
5
74
3
42
0.0000001000
43
0.0000001000
44
0.0000000001
12
2.5731223571
22
-1.4862155789
32
0.0000000000
13
2.5731416440
23
-1.4861821865
33
0.0000000000
40
0.0000000000
40
0.0000000000
40
0.0000000000
40
0.0000000000
40
0.5000001001
40
1.0000000000
40
1.0000000000
40
1.0000000000
40
1.0000000000
10
3.5496690212
20
-8.9858958922
30
0.0000000000
10
3.9785228333
20
-9.2335985383
30
0.0000000000
10
4.8362315092
20
-9.7290016128
30
0.0000000000
10
5.6939447651
20
-10.2243967579
30
0.0000000000
10
6.1228016199
20
-10.4720937394
30
0.0000000000
11
3.5496690212
21
-8.9858958922
31
0.0000000000
11
4.8362328259
21
-9.7289997297
31
0.0000000000
11
6.1228016199
21
-10.4720937394
31
0.0000000000
0
SPLINE
5
384
100
AcDbEntity
8
0
100
AcDbSpline
62
7
6
CONTINUOUS
70
0
71
3
72
13
73
9
74
7
42
0.0000001000
43
0.0000001000
44
0.0000000001
12
0.1113663751
22
-0.4156249700
32
0.0000000000
13
0.1113440849
23
-0.4156309420
33
0.0000000000
40
0.0000000000
40
0.0000000000
40
0.0000000000
40
0.0000000000
40
0.0551968847
40
0.1866978963
40
0.3642739211
40
0.5686038550
40
0.7852196694
40
1.0000000000
40
1.0000000000
40
1.0000000000
40
1.0000000000
10
6.0130012720
20
-10.0560531593
30
0.0000000000
10
6.0150502976
20
-10.0637002271
30
0.0000000000
10
6.0209732972
20
-10.0898236148
30
0.0000000000
10
6.0347294603
20
-10.1402353649
30
0.0000000000
10
6.0532705309
20
-10.2114981756
30
0.0000000000
10
6.0753743039
20
-10.2944500876
30
0.0000000000
10
6.0988310785
20
-10.3825624344
30
0.0000000000
10
6.1148232418
20
-10.4423347987
30
0.0000000000
10
6.1227947483
20
-10.4720912491
30
0.0000000000
11
6.0130012720
21
-10.0560531593
31
0.0000000000
11
6.0186510816
21
-10.0791218616
31
0.0000000000
11
6.0328972336
21
-10.1338822254
31
0.0000000000
11
6.0523717891
21
-10.2077673676
31
0.0000000000
11
6.0749173063
21
-10.2927479728
31
0.0000000000
11
6.0989176315
21
-10.3828118865
31
0.0000000000
11
6.1227947483
21
-10.4720912491
31
0.0000000000
0
SPLINE
5
385
100
AcDbEntity
8
0
100
AcDbSpline
62
9
6
CONTINUOUS
70
0
71
3
72
9
73
5
74
3
42
0.0000001000
43
0.0000001000
44
0.0000000001
12
4.0111970704
22
-6.9509137369
32
0.0000000000
13
4.0119272521
23
-6.9504923163
33
0.0000000000
40
0.0000000000
40
0.0000000000
40
0.0000000000
40
0.0000000000
40
0.5000180309
40
1.0000000000
40
1.0000000000
40
1.0000000000
40
1.0000000000
10
-10.1343361590
20
-3.5213907589
30
0.0000000000
10
-9.4657792054
20
-4.6799181589
30
0.0000000000
10
-8.1286711132
20
-6.9968649363
30
0.0000000000
10
-6.7914253369
20
-9.3137322515
30
0.0000000000
10
-6.1227949078
20
-10.4721058629
30
0.0000000000
11
-10.1343361590
21
-3.5213907589
31
0.0000000000
11
-8.1285884711
21
-6.9969286228
31
0.0000000000
11
-6.1227949078
21
-10.4721058629
31
0.0000000000
0
SPLINE
5
386
100
AcDbEntity
8
0
100
AcDbSpline
62
9
6
CONTINUOUS
70
0
71
3
72
13
73
9
74
7
42
0.0000001000
43
0.0000001000
44
0.0000000001
12
0.0003490200
22
0.9566793822
32
0.0000000000
13
0.1577378176
23
0.9435858960
33
0.0000000000
40
0.0000000000
40
0.0000000000
40
0.0000000000
40
0.0000000000
40
0.2530647362
40
0.4882809639
40
0.6913718813
40
0.8501738568
40
0.9551791592
40
1.0000000000
40
1.0000000000
40
1.0000000000
40
1.0000000000
10
10.5005350625
20
21.0183142309
30
0.0000000000
10
10.5005645041
20
21.0990148361
30
0.0000000000
10
10.5008152537
20
21.2547198844
30
0.0000000000
10
10.5015010823
20
21.4752101535
30
0.0000000000
10
10.5030908202
20
21.6655686219
30
0.0000000000
10
10.5036916603
20
21.8145848800
30
0.0000000000
10
10.5072295650
20
21.9127248768
30
0.0000000000
10
10.5064414695
20
21.9608096995
30
0.0000000000
10
10.5087981167
20
21.9749071372
30
0.0000000000
11
10.5005350625
21
21.0183142309
31
0.0000000000
11
10.5008871715
21
21.2604158065
31
0.0000000000
11
10.5017438025
21
21.4854407064
31
0.0000000000
11
10.5030519635
21
21.6797292088
31
0.0000000000
11
10.5047336849
21
21.8316424864
31
0.0000000000
11
10.5066887591
21
21.9320798744
31
0.0000000000
11
10.5087981167
21
21.9749071372
31
0.0000000000
0
SPLINE
5
387
100
AcDbEntity
8
0
100
AcDbSpline
62
9
6
CONTINUOUS
70
0
71
3
72
13
73
9
74
7
42
0.0000001000
43
0.0000001000
44
0.0000000001
12
0.0003498847
22
0.4784692214
32
0.0000000000
13
0.1518282341
23
0.4537412319
33
0.0000000000
40
0.0000000000
40
0.0000000000
40
0.0000000000
40
0.0000000000
40
0.2524796480
40
0.4878694598
40
0.6911230573
40
0.8500379483
40
0.9551279064
40
1.0000000000
40
1.0000000000
40
1.0000000000
40
1.0000000000
10
11.0004589101
20
20.9972959167
30
0.0000000000
10
11.0004883564
20
21.0375638302
30
0.0000000000
10
11.0007361325
20
21.1153658418
30
0.0000000000
10
11.0014301293
20
21.2256234781
30
0.0000000000
10
11.0029931514
20
21.3208239671
30
0.0000000000
10
11.0036664885
20
21.3955798757
30
0.0000000000
10
11.0070644460
20
21.4443203351
30
0.0000000000
10
11.0064510140
20
21.4688055968
30
0.0000000000
10
11.0087219643
20
21.4755923698
30
0.0000000000
11
11.0004589101
21
20.9972959167
31
0.0000000000
11
11.0008096574
21
21.1180991804
31
0.0000000000
11
11.0016659628
21
21.2307227352
31
0.0000000000
11
11.0029751375
21
21.3279645393
31
0.0000000000
11
11.0046585314
21
21.4039818068
31
0.0000000000
11
11.0066154888
21
21.4542260345
31
0.0000000000
11
11.0087219643
21
21.4755923698
31
0.0000000000
0
SPLINE
5
388
100
AcDbEntity
8
0
100
AcDbSpline
62
7
6
CONTINUOUS
70
0
71
3
72
13
73
9
74
7
42
0.0000001000
43
0.0000001000
44
0.0000000001
12
-0.1113591710
22
-0.4155980842
32
0.0000000000
13
-0.1113368823
23
-0.4156040558
33
0.0000000000
40
0.0000000000
40
0.0000000000
40
0.0000000000
40
0.0000000000
40
0.0555695178
40
0.1871852874
40
0.3641839897
40
0.5677639590
40
0.7842083085
40
1.0000000000
40
1.0000000000
40
1.0000000000
40
1.0000000000
10
-6.0130084711
20
-10.0560800403
30
0.0000000000
10
-6.0150711962
20
-10.0637782353
30
0.0000000000
10
-6.0210113030
20
-10.0899676382
30
0.0000000000
10
-6.0347619536
20
-10.1403639634
30
0.0000000000
10
-6.0532594836
20
-10.2114535153
30
0.0000000000
10
-6.0753057253
20
-10.2941925462
30
0.0000000000
10
-6.0987640866
20
-10.3823117168
30
0.0000000000
10
-6.1147862229
20
-10.4421966128
30
0.0000000000
10
-6.1227947476
20
-10.4720912469
30
0.0000000000
11
-6.0130084711
21
-10.0560800403
31
0.0000000000
11
-6.0186974343
21
-10.0793026387
31
0.0000000000
11
-6.0329561796
21
-10.1341069634
31
0.0000000000
11
-6.0523664189
21
-10.2077470647
31
0.0000000000
11
-6.0748275190
21
-10.2924103400
31
0.0000000000
11
-6.0988069317
21
-10.3823972381
31
0.0000000000
11
-6.1227947476
21
-10.4720912469
31
0.0000000000
0
SPLINE
5
389
100
AcDbEntity
8
0
100
AcDbSpline
62
9
6
CONTINUOUS
70
0
71
3
72
9
73
5
74
3
42
0.0000001000
43
0.0000001000
44
0.0000000001
12
3.7112179679
22
-6.4271696823
32
0.0000000000
13
3.7118428203
23
-6.4268088355
33
0.0000000000
40
0.0000000000
40
0.0000000000
40
0.0000000000
40
0.0000000000
40
0.5000223528
40
1.0000000000
40
1.0000000000
40
1.0000000000
40
1.0000000000
10
-9.7245388481
20
-3.6290907596
30
0.0000000000
10
-9.1059748681
20
-4.7003335950
30
0.0000000000
10
-7.8688501491
20
-6.8426934269
30
0.0000000000
10
-6.6316212864
20
-8.9849931168
30
0.0000000000
10
-6.0130084731
20
-10.0560800371
30
0.0000000000
11
-9.7245388481
21
-3.6290907596
31
0.0000000000
11
-7.8687688045
21
-6.8427741654
31
0.0000000000
11
-6.0130084731
21
-10.0560800371
31
0.0000000000
0
SPLINE
5
38A
100
AcDbEntity
8
0
100
AcDbSpline
62
7
6
CONTINUOUS
70
0
71
3
72
13
73
9
74
7
42
0.0000001000
43
0.0000001000
44
0.0000000001
12
-0.4092993826
22
0.1096714390
32
0.0000000000
13
-0.4092964398
23
0.1096824211
33
0.0000000000
40
0.0000000000
40
0.0000000000
40
0.0000000000
40
0.0000000000
40
0.0547368821
40
0.1854019738
40
0.3624001549
40
0.5666640016
40
0.7838513345
40
1.0000000000
40
1.0000000000
40
1.0000000000
40
1.0000000000
10
-9.7245388516
20
-3.6290907597
30
0.0000000000
10
-9.7320067756
20
-3.6270897355
30
0.0000000000
10
-9.7576284083
20
-3.6216068086
30
0.0000000000
10
-9.8070019641
20
-3.6080521909
30
0.0000000000
10
-9.8770153603
20
-3.5899965775
30
0.0000000000
10
-9.9587015586
20
-3.5682538285
30
0.0000000000
10
-10.0457366043
20
-3.5451168049
30
0.0000000000
10
-10.1048638690
20
-3.5292966618
30
0.0000000000
10
-10.1343534954
20
-3.5213940922
30
0.0000000000
11
-9.7245388516
21
-3.6290907597
31
0.0000000000
11
-9.7471039199
21
-3.6237257270
31
0.0000000000
11
-9.8007185993
21
-3.6099034954
31
0.0000000000
11
-9.8732643703
21
-3.5908709764
31
0.0000000000
11
-9.9569383169
21
-3.5687277305
31
0.0000000000
11
-10.0458721290
21
-3.5450551541
31
0.0000000000
11
-10.1343534954
21
-3.5213940922
31
0.0000000000
0
SPLINE
5
38B
100
AcDbEntity
8
0
100
AcDbSpline
62
9
6
CONTINUOUS
70
0
71
3
72
9
73
5
74
3
42
0.0000001000
43
0.0000001000
44
0.0000000001
12
-2.0547013205
22
-1.1863345847
32
0.0000000000
13
-2.0546890292
23
-1.1863558727
33
0.0000000000
40
0.0000000000
40
0.0000000000
40
0.0000000000
40
0.0000000000
40
0.4985316685
40
1.0000000000
40
1.0000000000
40
1.0000000000
40
1.0000000000
10
-7.6698762176
20
-2.4427380628
30
0.0000000000
10
-8.0113207768
20
-2.6398798494
30
0.0000000000
10
-8.6962226147
20
-3.0353222902
30
0.0000000000
10
-9.3811184213
20
-3.4307751768
30
0.0000000000
10
-9.7245722477
20
-3.6290818102
30
0.0000000000
11
-7.6698762176
21
-2.4427380628
31
0.0000000000
11
-8.6942097899
21
-3.0341636052
31
0.0000000000
11
-9.7245722477
21
-3.6290818102
31
0.0000000000
0
SPLINE
5
38C
100
AcDbEntity
8
0
100
AcDbSpline
62
9
6
CONTINUOUS
70
0
71
3
72
9
73
5
74
3
42
0.0000001000
43
0.0000001000
44
0.0000000001
12
-2.5742878506
22
-1.4872190489
32
0.0000000000
13
-2.5742685395
23
-1.4872524749
33
0.0000000000
40
0.0000000000
40
0.0000000000
40
0.0000000000
40
0.0000000000
40
0.4981686099
40
1.0000000000
40
1.0000000000
40
1.0000000000
40
1.0000000000
10
-7.5600505108
20
-2.0341678982
30
0.0000000000
10
-7.9875269775
20
-2.2811298469
30
0.0000000000
10
-8.8456383148
20
-2.7768428956
30
0.0000000000
10
-9.7037199058
20
-3.2726074333
30
0.0000000000
10
-10.1343361590
20
-3.5213907589
30
0.0000000000
11
-7.5600505108
21
-2.0341678982
31
0.0000000000
11
-8.8424878594
21
-2.7750399858
31
0.0000000000
11
-10.1343361590
21
-3.5213907589
31
0.0000000000
0
SPLINE
5
38D
100
AcDbEntity
8
0
100
AcDbSpline
62
9
6
CONTINUOUS
70
0
71
3
72
9
73
5
74
3
42
0.0000001000
43
0.0000001000
44
0.0000000001
12
-4.0100381902
22
6.9519407409
32
0.0000000000
13
-4.0107686669
23
6.9515193341
33
0.0000000000
40
0.0000000000
40
0.0000000000
40
0.0000000000
40
0.0000000000
40
0.4999700333
40
1.0000000000
40
1.0000000000
40
1.0000000000
40
1.0000000000
10
-3.5496558691
20
-8.9859030147
30
0.0000000000
10
-4.2179555116
20
-7.8273156668
30
0.0000000000
10
-5.5547003040
20
-5.5100398081
30
0.0000000000
10
-6.8915490032
20
-3.1928238919
30
0.0000000000
10
-7.5600505108
20
-2.0341678982
30
0.0000000000
11
-3.5496558691
21
-8.9859030147
31
0.0000000000
11
-5.5546461619
21
-5.5101936742
31
0.0000000000
11
-7.5600505108
21
-2.0341678982
31
0.0000000000
0
SPLINE
5
38E
100
AcDbEntity
8
0
100
AcDbSpline
62
7
6
CONTINUOUS
70
0
71
3
72
13
73
9
74
7
42
0.0000001000
43
0.0000001000
44
0.0000000001
12
0.1095020042
22
0.4086670432
32
0.0000000000
13
0.1094748434
23
0.4086743200
33
0.0000000000
40
0.0000000000
40
0.0000000000
40
0.0000000000
40
0.0000000000
40
0.0548732964
40
0.1855254841
40
0.3621534301
40
0.5659977883
40
0.7831471826
40
1.0000000000
40
1.0000000000
40
1.0000000000
40
1.0000000000
10
-7.6698767407
20
-2.4427400537
30
0.0000000000
10
-7.6678738288
20
-2.4352650844
30
0.0000000000
10
-7.6608865494
20
-2.4100506704
30
0.0000000000
10
-7.6477205440
20
-2.3607027768
30
0.0000000000
10
-7.6289585654
20
-2.2911046838
30
0.0000000000
10
-7.6071280912
20
-2.2096997251
30
0.0000000000
10
-7.5838234313
20
-2.1228169052
30
0.0000000000
10
-7.5679830271
20
-2.0636958416
30
0.0000000000
10
-7.5600697177
20
-2.0341551157
30
0.0000000000
11
-7.6698767407
21
-2.4427400537
31
0.0000000000
11
-7.6637617595
21
-2.4203438843
31
0.0000000000
11
-7.6493724009
21
-2.3669728644
31
0.0000000000
11
-7.6299722285
21
-2.2948066944
31
0.0000000000
11
-7.6076133647
21
-2.2115122799
31
0.0000000000
11
-7.5838167268
21
-2.1227753963
31
0.0000000000
11
-7.5600697177
21
-2.0341551157
31
0.0000000000
0
SPLINE
5
38F
100
AcDbEntity
8
0
100
AcDbSpline
62
9
6
CONTINUOUS
70
0
71
3
72
9
73
5
74
3
42
0.0000001000
43
0.0000001000
44
0.0000000001
12
-3.7102093728
22
6.4282295004
32
0.0000000000
13
-3.7108344999
23
6.4278686525
33
0.0000000000
40
0.0000000000
40
0.0000000000
40
0.0000000000
40
0.0000000000
40
0.4999739056
40
1.0000000000
40
1.0000000000
40
1.0000000000
40
1.0000000000
10
-3.9593547838
20
-8.8707891113
30
0.0000000000
10
-4.5776907406
20
-7.7994734416
30
0.0000000000
10
-5.8144792955
20
-5.6567603436
30
0.0000000000
10
-7.0513720543
20
-3.5141073961
30
0.0000000000
10
-7.6698767483
20
-2.4427400435
30
0.0000000000
11
-3.9593547838
21
-8.8707891113
31
0.0000000000
11
-5.8144407971
21
-5.6568872055
31
0.0000000000
11
-7.6698767483
21
-2.4427400435
31
0.0000000000
0
SPLINE
5
390
100
AcDbEntity
8
0
100
AcDbSpline
62
9
6
CONTINUOUS
70
0
71
3
72
9
73
5
74
3
42
0.0000001000
43
0.0000001000
44
0.0000000001
12
2.5731486391
22
1.4861862264
32
0.0000000000
13
2.5731293521
23
1.4862196189
33
0.0000000000
40
0.0000000000
40
0.0000000000
40
0.0000000000
40
0.0000000000
40
0.4999984521
40
1.0000000000
40
1.0000000000
40
1.0000000000
40
1.0000000000
10
-6.1227949078
20
-10.4721058629
30
0.0000000000
10
-5.6939381289
20
-10.2244089253
30
0.0000000000
10
-4.8362361234
20
-9.7289889183
30
0.0000000000
10
-3.9785120888
20
-9.2336070514
30
0.0000000000
10
-3.5496558691
20
-8.9859030147
30
0.0000000000
11
-6.1227949078
21
-10.4721058629
31
0.0000000000
11
-4.8362332714
21
-9.7289999870
31
0.0000000000
11
-3.5496558691
21
-8.9859030147
31
0.0000000000
0
SPLINE
5
391
100
AcDbEntity
8
0
100
AcDbSpline
62
7
6
CONTINUOUS
70
0
71
3
72
13
73
9
74
7
42
0.0000001000
43
0.0000001000
44
0.0000000001
12
0.2996552771
22
-0.3022327764
32
0.0000000000
13
0.4110853346
23
-0.1102124491
33
0.0000000000
40
0.0000000000
40
0.0000000000
40
0.0000000000
40
0.0000000000
40
0.0580428177
40
0.1898842096
40
0.3663489319
40
0.5691527014
40
0.7847758218
40
1.0000000000
40
1.0000000000
40
1.0000000000
40
1.0000000000
10
-3.9593547594
20
-8.8707891343
30
0.0000000000
10
-3.9535571472
20
-8.8766366149
30
0.0000000000
10
-3.9239912175
20
-8.8789587937
30
0.0000000000
10
-3.8770111757
20
-8.8977569015
30
0.0000000000
10
-3.8059229709
20
-8.9154914480
30
0.0000000000
10
-3.7250052153
20
-8.9385943874
30
0.0000000000
10
-3.6381421878
20
-8.9620365294
30
0.0000000000
10
-3.5791540683
20
-8.9779852792
30
0.0000000000
10
-3.5496622338
20
-8.9858920738
30
0.0000000000
11
-3.9593547594
21
-8.8707891343
31
0.0000000000
11
-3.9359693454
21
-8.8787496901
31
0.0000000000
11
-3.8821220316
21
-8.8945305027
31
0.0000000000
11
-3.8098380094
21
-8.9149172365
31
0.0000000000
11
-3.7266444904
21
-8.9379156584
31
0.0000000000
11
-3.6381060043
21
-8.9620536437
31
0.0000000000
11
-3.5496622338
21
-8.9858920738
31
0.0000000000
0
SPLINE
5
392
100
AcDbEntity
8
0
100
AcDbSpline
62
9
6
CONTINUOUS
70
0
71
3
72
9
73
5
74
3
42
0.0000001000
43
0.0000001000
44
0.0000000001
12
2.0535207404
22
1.1853541120
32
0.0000000000
13
2.0535084677
23
1.1853753732
33
0.0000000000
40
0.0000000000
40
0.0000000000
40
0.0000000000
40
0.0000000000
40
0.4999988755
40
1.0000000000
40
1.0000000000
40
1.0000000000
40
1.0000000000
10
-6.0130012704
20
-10.0560531565
30
0.0000000000
10
-5.6707485834
20
-9.8584945822
30
0.0000000000
10
-4.9862426913
20
-9.4633747755
30
0.0000000000
10
-4.3017388472
20
-9.0682514208
30
0.0000000000
10
-3.9594866661
20
-8.8706884143
30
0.0000000000
11
-6.0130012704
21
-10.0560531565
31
0.0000000000
11
-4.9862447428
21
-9.4633747772
31
0.0000000000
11
-3.9594866661
21
-8.8706884143
31
0.0000000000
0
SPLINE
5
393
100
AcDbEntity
8
0
100
AcDbSpline
62
9
6
CONTINUOUS
70
0
71
3
72
12
73
8
74
6
42
0.0000001000
43
0.0000001000
44
0.0000000001
12
0.5010578743
22
-0.0003674018
32
0.0000000000
13
0.1921898260
23
-0.4627333997
33
0.0000000000
40
0.0000000000
40
0.0000000000
40
0.0000000000
40
0.0000000000
40
0.3050562610
40
0.5809650378
40
0.8013878226
40
0.9453845855
40
1.0000000000
40
1.0000000000
40
1.0000000000
40
1.0000000000
10
10.5005350626
20
21.0183132877
30
0.0000000000
10
10.5514853431
20
21.0182759283
30
0.0000000000
10
10.6490189648
20
21.0180266176
30
0.0000000000
10
10.7809037669
20
21.0135851280
30
0.0000000000
10
10.8927956002
20
21.0137689630
30
0.0000000000
10
10.9527922360
20
21.0005055030
30
0.0000000000
10
10.9969600676
20
21.0057200422
30
0.0000000000
10
11.0004589100
20
20.9972959167
30
0.0000000000
11
10.5005350626
21
21.0183132877
31
0.0000000000
11
10.6533818551
21
21.0171950877
31
0.0000000000
11
10.7915950934
21
21.0141716956
31
0.0000000000
11
10.9019422211
21
21.0095325749
31
0.0000000000
11
10.9738585879
21
21.0037218762
31
0.0000000000
11
11.0004589100
21
20.9972959167
31
0.0000000000
0
SPLINE
5
394
100
AcDbEntity
8
0
100
AcDbSpline
62
9
6
CONTINUOUS
70
0
71
3
72
35
73
31
74
29
42
0.0000001000
43
0.0000001000
44
0.0000000001
12
-21.4622482001
22
0.0000494711
32
0.0000000000
13
21.4622482002
23
0.0000077774
33
0.0000000000
40
0.0000000000
40
0.0000000000
40
0.0000000000
40
0.0000000000
40
0.0189175969
40
0.0386401080
40
0.0597610380
40
0.0828281879
40
0.1083876890
40
0.1369827456
40
0.1691532625
40
0.2054386719
40
0.2463149858
40
0.2916642735
40
0.3409247975
40
0.3930712818
40
0.4459138092
40
0.4978516292
40
0.5497384775
40
0.6025526154
40
0.6548964334
40
0.7045922434
40
0.7504850686
40
0.7919576837
40
0.8288343666
40
0.8615179227
40
0.8905542902
40
0.9164828955
40
0.9398458218
40
0.9611923416
40
0.9810235589
40
1.0000000000
40
1.0000000000
40
1.0000000000
40
1.0000000000
10
0.0000000000
20
1.2448277599
30
0.0000000000
10
-0.1353380532
20
1.2448280718
30
0.0000000000
10
-0.4118371741
20
1.2527676950
30
0.0000000000
10
-0.8379844349
20
1.2900975967
30
0.0000000000
10
-1.2904250046
20
1.3582083813
30
0.0000000000
10
-1.7781403913
20
1.4655522324
30
0.0000000000
10
-2.3079384863
20
1.6240913469
30
0.0000000000
10
-2.8836577956
20
1.8497531707
30
0.0000000000
10
-3.5046833682
20
2.1627555573
30
0.0000000000
10
-4.1635089901
20
2.5873949081
30
0.0000000000
10
-4.8399115404
20
3.1484942888
30
0.0000000000
10
-5.4979219475
20
3.8646976401
30
0.0000000000
10
-6.0872831387
20
4.7387911956
30
0.0000000000
10
-6.5504947657
20
5.7461055729
30
0.0000000000
10
-6.8422559308
20
6.8359051510
30
0.0000000000
10
-6.9451863172
20
7.9573288787
30
0.0000000000
10
-6.8582160384
20
9.0798895226
30
0.0000000000
10
-6.5818028048
20
10.1745577665
30
0.0000000000
10
-6.1307666471
20
11.1921912780
30
0.0000000000
10
-5.5477818919
20
12.0807810294
30
0.0000000000
10
-4.8899739597
20
12.8125666586
30
0.0000000000
10
-4.2090710282
20
13.3877537755
30
0.0000000000
10
-3.5429889339
20
13.8237087159
30
0.0000000000
10
-2.9137218533
20
14.1450291062
30
0.0000000000
10
-2.3300247607
20
14.3763716454
30
0.0000000000
10
-1.7930343452
20
14.5385590358
30
0.0000000000
10
-1.2992522488
20
14.6480457631
30
0.0000000000
10
-0.8423989825
20
14.7171895572
30
0.0000000000
10
-0.4134573984
20
14.7548964766
30
0.0000000000
10
-0.1357590295
20
14.7628922782
30
0.0000000000
10
0.0000000000
20
14.7628923274
30
0.0000000000
11
0.0000000000
21
1.2448277599
31
0.0000000000
11
-0.4058467882
21
1.2564846182
31
0.0000000000
11
-0.8275212791
21
1.2934246253
31
0.0000000000
11
-1.2757719557
21
1.3609125166
31
0.0000000000
11
-1.7592698112
21
1.4673408796
31
0.0000000000
11
-2.2848017162
21
1.6246274716
31
0.0000000000
11
-2.8561759220
21
1.8486288952
31
0.0000000000
11
-3.4727122996
21
2.1594444891
31
0.0000000000
11
-4.1272320037
21
2.5814411212
31
0.0000000000
11
-4.8023390252
21
3.1416924751
31
0.0000000000
11
-5.4606508996
21
3.8585842568
31
0.0000000000
11
-6.0514549881
21
4.7353455212
31
0.0000000000
11
-6.5187801032
21
5.7522884273
31
0.0000000000
11
-6.8118996093
21
6.8478740495
31
0.0000000000
11
-6.9137240998
21
7.9579160211
31
0.0000000000
11
-6.8277494546
21
9.0682006994
31
0.0000000000
11
-6.5504029557
21
10.1672567242
31
0.0000000000
11
-6.0954449099
21
11.1944259982
31
0.0000000000
11
-5.5106144817
21
12.0863757670
31
0.0000000000
11
-4.8523406889
21
12.8190613278
31
0.0000000000
11
-4.1725005008
21
13.3935936799
31
0.0000000000
11
-3.5103415676
21
13.8271244997
31
0.0000000000
11
-2.8856455986
21
14.1461930138
31
0.0000000000
11
-2.3063197596
21
14.3758493206
31
0.0000000000
11
-1.7736085111
21
14.5367703435
31
0.0000000000
11
-1.2840799114
21
14.6453276663
31
0.0000000000
11
-0.8310955558
21
14.7138942673
31
0.0000000000
11
-0.4071082952
21
14.7511678792
31
0.0000000000
11
0.0000000000
21
14.7628923274
31
0.0000000000
0
SPLINE
5
395
100
AcDbEntity
8
0
100
AcDbSpline
62
9
6
CONTINUOUS
70
0
71
3
72
12
73
8
74
6
42
0.0000001000
43
0.0000001000
44
0.0000000001
12
0.7813571062
22
-0.0007128138
32
0.0000000000
13
0.0007145531
23
-0.7813571046
33
0.0000000000
40
0.0000000000
40
0.0000000000
40
0.0000000000
40
0.0000000000
40
0.2000850064
40
0.4001713425
40
0.6002035309
40
0.8001467217
40
1.0000000000
40
1.0000000000
40
1.0000000000
40
1.0000000000
10
10.5087981167
20
21.9749071372
30
0.0000000000
10
10.5609107306
20
21.9748595961
30
0.0000000000
10
10.6658521000
20
21.9582171671
30
0.0000000000
10
10.8073186644
20
21.8860938495
30
0.0000000000
10
10.9197666024
20
21.7737967766
30
0.0000000000
10
10.9920025187
20
21.6324904868
30
0.0000000000
10
11.0086743624
20
21.5276446294
30
0.0000000000
10
11.0087219643
20
21.4755923698
30
0.0000000000
11
10.5087981167
21
21.9749071372
31
0.0000000000
11
10.6631962883
21
21.9503562579
31
0.0000000000
11
10.8024983178
21
21.8793857676
31
0.0000000000
11
10.9130840749
21
21.7689347421
31
0.0000000000
11
10.9841411372
21
21.6298024308
31
0.0000000000
11
11.0087219643
21
21.4755923698
31
0.0000000000
0
SPLINE
5
396
100
AcDbEntity
8
0
100
AcDbSpline
62
9
6
CONTINUOUS
70
0
71
3
72
35
73
31
74
29
42
0.0000001000
43
0.0000001000
44
0.0000000001
12
20.6164807595
22
-0.0000428262
32
0.0000000000
13
-20.6164807595
23
-0.0000068473
33
0.0000000000
40
0.0000000000
40
0.0000000000
40
0.0000000000
40
0.0000000000
40
0.0188948086
40
0.0385857633
40
0.0596659030
40
0.0826817808
40
0.1081779909
40
0.1366957080
40
0.1687720261
40
0.2049428919
40
0.2456845235
40
0.2908959889
40
0.3400176700
40
0.3920585115
40
0.4448551032
40
0.4967554682
40
0.5485691453
40
0.6013215688
40
0.6536876676
40
0.7034806751
40
0.7495063095
40
0.7911324873
40
0.8281586947
40
0.8609782975
40
0.8901364337
40
0.9161728604
40
0.9396303222
40
0.9610591922
40
0.9809613639
40
1.0000000000
40
1.0000000000
40
1.0000000000
40
1.0000000000
10
0.0000000000
20
14.4893845494
30
0.0000000000
10
0.1298481527
20
14.4893842796
30
0.0000000000
10
0.3950771027
20
14.4818034037
30
0.0000000000
10
0.8037919008
20
14.4461711272
30
0.0000000000
10
1.2376067925
20
14.3811876739
30
0.0000000000
10
1.7051661862
20
14.2788104769
30
0.0000000000
10
2.2130398597
20
14.1276482203
30
0.0000000000
10
2.7649716518
20
13.9125247396
30
0.0000000000
10
3.3604675199
20
13.6141631187
30
0.0000000000
10
3.9924966051
20
13.2093608154
30
0.0000000000
10
4.6419853848
20
12.6742735288
30
0.0000000000
10
5.2747422217
20
11.9907994245
30
0.0000000000
10
5.8428376257
20
11.1556797535
30
0.0000000000
10
6.2910243613
20
10.1917615136
30
0.0000000000
10
6.5751624612
20
9.1472833336
30
0.0000000000
10
6.6778666590
20
8.0714711455
30
0.0000000000
10
6.5979825666
20
6.9940480121
30
0.0000000000
10
6.3358659953
20
5.9424512522
30
0.0000000000
10
5.9051235120
20
4.9633458643
30
0.0000000000
10
5.3461324146
20
4.1069941803
30
0.0000000000
10
4.7137850579
20
3.4008795114
30
0.0000000000
10
4.0582124681
20
2.8454599405
30
0.0000000000
10
3.4162963365
20
2.4243271519
30
0.0000000000
10
2.8095704503
20
2.1139099319
30
0.0000000000
10
2.2466595604
20
1.8904363067
30
0.0000000000
10
1.7287549850
20
1.7337924571
30
0.0000000000
10
1.2525451664
20
1.6280752455
30
0.0000000000
10
0.8120190964
20
1.5613352760
30
0.0000000000
10
0.3985069272
20
1.5249544844
30
0.0000000000
10
0.1308365586
20
1.5172418636
30
0.0000000000
10
-0.0000000000
20
1.5172418201
30
0.0000000000
11
0.0000000000
21
14.4893845494
31
0.0000000000
11
0.3893853532
21
14.4782520916
31
0.0000000000
11
0.7938093328
21
14.4429916944
31
0.0000000000
11
1.2236110928
21
14.3786012838
31
0.0000000000
11
1.6871331887
21
14.2770946741
31
0.0000000000
11
2.1909265468
21
14.1271216943
31
0.0000000000
11
2.7387073677
21
13.9135714747
31
0.0000000000
11
3.3299171986
21
13.6172782449
31
0.0000000000
11
3.9578127019
21
13.2149854045
31
0.0000000000
11
4.6059743231
21
12.6807561080
31
0.0000000000
11
5.2390168568
21
11.9965996949
31
0.0000000000
11
5.8083703546
21
11.1590851097
31
0.0000000000
11
6.2604533414
21
10.1860829236
31
0.0000000000
11
6.5459932096
21
9.1357232160
31
0.0000000000
11
6.6476205208
21
8.0705574814
31
0.0000000000
11
6.5686873366
21
7.0052620822
31
0.0000000000
11
6.3058271426
21
5.9499367521
31
0.0000000000
11
5.8713494581
21
4.9616172775
31
0.0000000000
11
5.3104837282
21
4.1018219261
31
0.0000000000
11
4.6776566251
21
3.3947747935
31
0.0000000000
11
4.0230008885
21
2.8398803315
31
0.0000000000
11
3.3848147836
21
2.4210464035
31
0.0000000000
11
2.7824849332
21
2.1127936682
31
0.0000000000
11
2.2237816749
21
1.8909429324
31
0.0000000000
11
1.7099963123
21
1.7355182781
31
0.0000000000
11
1.2378826740
21
1.6306963150
31
0.0000000000
11
0.8010804525
21
1.5645120626
31
0.0000000000
11
0.3923467678
21
1.5285493114
31
0.0000000000
11
-0.0000000000
21
1.5172418201
31
0.0000000000
0
SPLINE
5
397
100
AcDbEntity
8
0
100
AcDbSpline
62
9
6
CONTINUOUS
70
0
71
3
72
35
73
31
74
29
42
0.0000001000
43
0.0000001000
44
0.0000000001
12
-20.6164811375
22
0.0000431817
32
0.0000000000
13
20.6164811375
23
0.0000063353
33
0.0000000000
40
0.0000000000
40
0.0000000000
40
0.0000000000
40
0.0000000000
40
0.0189367114
40
0.0386783725
40
0.0598192940
40
0.0829073077
40
0.1084882858
40
0.1371047174
40
0.1692951212
40
0.2055966696
40
0.2464816200
40
0.2918265552
40
0.3410645838
40
0.3931688244
40
0.4459572969
40
0.4978377720
40
0.5496672361
40
0.6024313926
40
0.6547429830
40
0.7044250606
40
0.7503184189
40
0.7918015939
40
0.8286945688
40
0.8613976097
40
0.8904549731
40
0.9164047950
40
0.9397884381
40
0.9611549007
40
0.9810051703
40
1.0000000000
40
1.0000000000
40
1.0000000000
40
1.0000000000
10
-0.0000000000
20
1.5172418201
30
0.0000000000
10
-0.1301361176
20
1.5172420927
30
0.0000000000
10
-0.3960019598
20
1.5248613400
30
0.0000000000
10
-0.8057602784
20
1.5606841291
30
0.0000000000
10
-1.2407975453
20
1.6260443838
30
0.0000000000
10
-1.7097539797
20
1.7290532467
30
0.0000000000
10
-2.2191759960
20
1.8811903010
30
0.0000000000
10
-2.7727548657
20
2.0977402822
30
0.0000000000
10
-3.3698994500
20
2.3981054300
30
0.0000000000
10
-4.0033896391
20
2.8056004695
30
0.0000000000
10
-4.6537722565
20
3.3440399409
30
0.0000000000
10
-5.2864523477
20
4.0312985427
30
0.0000000000
10
-5.8531079842
20
4.8700274511
30
0.0000000000
10
-6.2984826466
20
5.8365644180
30
0.0000000000
10
-6.5790392670
20
6.8822589529
30
0.0000000000
10
-6.6780576692
20
7.9583266363
30
0.0000000000
10
-6.5944956742
20
9.0355278510
30
0.0000000000
10
-6.3287696099
20
10.0860312017
30
0.0000000000
10
-5.8950935235
20
11.0626703040
30
0.0000000000
10
-5.3344914719
20
11.9154895316
30
0.0000000000
10
-4.7019245342
20
12.6178027791
30
0.0000000000
10
-4.0471648215
20
13.1697972386
30
0.0000000000
10
-3.4066793739
20
13.5881539435
30
0.0000000000
10
-2.8016117659
20
13.8964934482
30
0.0000000000
10
-2.2403702454
20
14.1184865789
30
0.0000000000
10
-1.7240414254
20
14.2741186273
30
0.0000000000
10
-1.2492589914
20
14.3791799959
30
0.0000000000
10
-0.8099843841
20
14.4455291650
30
0.0000000000
10
-0.3975476778
20
14.4817118941
30
0.0000000000
10
-0.1305355159
20
14.4893845092
30
0.0000000000
10
0.0000000000
20
14.4893845494
30
0.0000000000
11
-0.0000000000
21
1.5172418201
31
0.0000000000
11
-0.3902480482
21
1.5284285422
31
0.0000000000
11
-0.7957049432
21
1.5638774282
31
0.0000000000
11
-1.2267178432
21
1.6286410875
31
0.0000000000
11
-1.6916251576
21
1.7307738176
31
0.0000000000
11
-2.1969539559
21
1.8817134003
31
0.0000000000
11
-2.7463671859
21
2.0966781593
31
0.0000000000
11
-3.3392110702
21
2.3949586291
31
0.0000000000
11
-3.9685813999
21
2.7999410921
31
0.0000000000
11
-4.6177401323
21
3.3376024850
31
0.0000000000
11
-5.2507199611
21
4.0255608196
31
0.0000000000
11
-5.8187486453
21
4.8668703028
31
0.0000000000
11
-6.2680345855
21
5.8426063718
31
0.0000000000
11
-6.5498649167
21
6.8937942076
31
0.0000000000
11
-6.6478094746
21
7.9588931230
31
0.0000000000
11
-6.5652148516
21
9.0242373671
31
0.0000000000
11
-6.2986262281
21
10.0788765438
31
0.0000000000
11
-5.8612044564
21
11.0646672313
31
0.0000000000
11
-5.2988345831
21
11.9207445484
31
0.0000000000
11
-4.6658160732
21
12.6239553780
31
0.0000000000
11
-4.0120639127
21
13.1753523309
31
0.0000000000
11
-3.3753379344
21
13.5914021396
31
0.0000000000
11
-2.7746534378
21
13.8975931506
31
0.0000000000
11
-2.2176033067
21
14.1179763069
31
0.0000000000
11
-1.7053801060
21
14.2723977628
31
0.0000000000
11
-1.2346812030
21
14.3765697574
31
0.0000000000
11
-0.7991215828
21
14.4423663328
31
0.0000000000
11
-0.3914449016
21
14.4781338955
31
0.0000000000
11
0.0000000000
21
14.4893845494
31
0.0000000000
0
SPLINE
5
398
100
AcDbEntity
8
0
100
AcDbSpline
62
7
6
CONTINUOUS
70
0
71
3
72
10
73
6
74
4
42
0.0000001000
43
0.0000001000
44
0.0000000001
12
1.1834067659
22
0.0004968592
32
0.0000000000
13
1.1834068702
23
0.0000000000
33
0.0000000000
40
0.0000000000
40
0.0000000000
40
0.0000000000
40
0.0000000000
40
0.3316192292
40
0.6650267167
40
1.0000000000
40
1.0000000000
40
1.0000000000
40
1.0000000000
10
-1.1834068364
20
4.2915931636
30
0.0000000000
10
-1.0525933566
20
4.2916480863
30
0.0000000000
10
-0.7902609765
20
4.2917399242
30
0.0000000000
10
-0.3957920273
20
4.2918229319
30
0.0000000000
10
-0.1321365616
20
4.2918414496
30
0.0000000000
10
0.0000000000
20
4.2918414496
30
0.0000000000
11
-1.1834068364
21
4.2915931636
31
0.0000000000
11
-0.7909663863
21
4.2917305676
31
0.0000000000
11
-0.3964096838
21
4.2918136044
31
0.0000000000
11
0.0000000000
21
4.2918414496
31
0.0000000000
0
SPLINE
5
399
100
AcDbEntity
8
0
100
AcDbSpline
62
7
6
CONTINUOUS
70
0
71
3
72
10
73
6
74
4
42
0.0000001000
43
0.0000001000
44
0.0000000001
12
1.1834068702
22
0.0000000000
32
0.0000000000
13
1.1834067659
23
-0.0004968592
33
0.0000000000
40
0.0000000000
40
0.0000000000
40
0.0000000000
40
0.0000000000
40
0.3351855568
40
0.6686433439
40
1.0000000000
40
1.0000000000
40
1.0000000000
40
1.0000000000
10
0.0000000000
20
4.2918414496
30
0.0000000000
10
0.1322202969
20
4.2918414496
30
0.0000000000
10
0.3959793396
20
4.2918229129
30
0.0000000000
10
0.7904482887
20
4.2917398659
30
0.0000000000
10
1.0526969335
20
4.2916480428
30
0.0000000000
10
1.1834068364
20
4.2915931636
30
0.0000000000
11
0.0000000000
21
4.2918414496
31
0.0000000000
11
0.3966608897
21
4.2918135691
31
0.0000000000
11
0.7912771171
21
4.2917304804
31
0.0000000000
11
1.1834068364
21
4.2915931636
31
0.0000000000
0
SPLINE
5
39A
100
AcDbEntity
8
0
100
AcDbSpline
62
9
6
CONTINUOUS
70
0
71
3
72
13
73
9
74
7
42
0.0000001000
43
0.0000001000
44
0.0000000001
12
0.1517233705
22
0.4537763541
32
0.0000000000
13
0.0003487208
23
0.4784692666
33
0.0000000000
40
0.0000000000
40
0.0000000000
40
0.0000000000
40
0.0000000000
40
0.0447511791
40
0.1496617630
40
0.3084069250
40
0.5114254892
40
0.7467904150
40
1.0000000000
40
1.0000000000
40
1.0000000000
40
1.0000000000
10
-11.0087219643
20
-21.4755923698
30
0.0000000000
10
-11.0064586977
20
-21.4688233609
30
0.0000000000
10
-11.0070626629
20
-21.4443888060
30
0.0000000000
10
-11.0036726327
20
-21.3957214402
30
0.0000000000
10
-11.0029962005
20
-21.3210594969
30
0.0000000000
10
-11.0014333211
20
-21.2259272635
30
0.0000000000
10
-11.0007370348
20
-21.1155947072
30
0.0000000000
10
-11.0004883433
20
-21.0376802515
30
0.0000000000
10
-11.0004589101
20
-20.9972959167
30
0.0000000000
11
-11.0087219643
21
-21.4755923698
31
0.0000000000
11
-11.0066187988
21
-21.4542838406
31
0.0000000000
11
-11.0046627389
21
-21.4041254635
31
0.0000000000
11
-11.0029790226
21
-21.3281894262
31
0.0000000000
11
-11.0016694038
21
-21.2310600855
31
0.0000000000
11
-11.0008114400
21
-21.1184484404
31
0.0000000000
11
-11.0004589101
21
-20.9972959167
31
0.0000000000
0
SPLINE
5
39B
100
AcDbEntity
8
0
100
AcDbSpline
62
9
6
CONTINUOUS
70
0
71
3
72
13
73
9
74
7
42
0.0000001000
43
0.0000001000
44
0.0000000001
12
0.1577707702
22
0.9435803750
32
0.0000000000
13
0.0003449110
23
0.9566793721
33
0.0000000000
40
0.0000000000
40
0.0000000000
40
0.0000000000
40
0.0000000000
40
0.0448247981
40
0.1498254833
40
0.3086663044
40
0.5117002731
40
0.7469689740
40
1.0000000000
40
1.0000000000
40
1.0000000000
40
1.0000000000
10
-10.5087981167
20
-21.9749071372
30
0.0000000000
10
-10.5064407691
20
-21.9608085373
30
0.0000000000
10
-10.5072303684
20
-21.9127237243
30
0.0000000000
10
-10.5036915785
20
-21.8145717156
30
0.0000000000
10
-10.5030911067
20
-21.6655626178
30
0.0000000000
10
-10.5015012527
20
-21.4751932123
30
0.0000000000
10
-10.5008152484
20
-21.2547151132
30
0.0000000000
10
-10.5005641536
20
-21.0990040853
30
0.0000000000
10
-10.5005350625
20
-21.0183142309
30
0.0000000000
11
-10.5087981167
21
-21.9749071372
31
0.0000000000
11
-10.5066888073
21
-21.9320760821
31
0.0000000000
11
-10.5047341778
21
-21.8316431047
31
0.0000000000
11
-10.5030519894
21
-21.6796926689
31
0.0000000000
11
-10.5017441538
21
-21.4854586496
31
0.0000000000
11
-10.5008870654
21
-21.2603835538
31
0.0000000000
11
-10.5005350625
21
-21.0183142309
31
0.0000000000
0
SPLINE
5
39C
100
AcDbEntity
8
0
100
AcDbSpline
62
9
6
CONTINUOUS
70
0
71
3
72
12
73
8
74
6
42
0.0000001000
43
0.0000001000
44
0.0000000001
12
0.0007145491
22
-0.7813571074
32
0.0000000000
13
0.7813571090
23
-0.0007128017
33
0.0000000000
40
0.0000000000
40
0.0000000000
40
0.0000000000
40
0.0000000000
40
0.1998485957
40
0.3997897125
40
0.5998222854
40
0.7999110728
40
1.0000000000
40
1.0000000000
40
1.0000000000
40
1.0000000000
10
-11.0087219643
20
-21.4755923698
30
0.0000000000
10
-11.0086743637
20
-21.5276434101
30
0.0000000000
10
-10.9920032064
20
-21.6324874578
30
0.0000000000
10
-10.9197693684
20
-21.7737928627
30
0.0000000000
10
-10.8073224464
20
-21.8860912544
30
0.0000000000
10
-10.6658548235
20
-21.9582165671
30
0.0000000000
10
-10.5609117519
20
-21.9748595957
30
0.0000000000
10
-10.5087981166
20
-21.9749071370
30
0.0000000000
11
-11.0087219643
21
-21.4755923698
31
0.0000000000
11
-10.9841422864
21
-21.6297989097
31
0.0000000000
11
-10.9130872219
21
-21.7689304222
31
0.0000000000
11
-10.8025023985
21
-21.8793828084
31
0.0000000000
11
-10.6631992385
21
-21.9503553003
31
0.0000000000
11
-10.5087981166
21
-21.9749071370
31
0.0000000000
0
SPLINE
5
39D
100
AcDbEntity
8
0
100
AcDbSpline
62
9
6
CONTINUOUS
70
0
71
3
72
10
73
6
74
4
42
0.0000001000
43
0.0000001000
44
0.0000000001
12
0.0308407996
22
41.9945838615
32
0.0000000000
13
-0.0308408117
23
41.9945838615
33
0.0000000000
40
0.0000000000
40
0.0000000000
40
0.0000000000
40
0.0000000000
40
0.3332886949
40
0.6667106342
40
1.0000000000
40
1.0000000000
40
1.0000000000
40
1.0000000000
10
-11.0004589101
20
-20.9972959167
30
0.0000000000
10
-10.9970326135
20
-16.3318559011
30
0.0000000000
10
-10.9924665659
20
-6.9991088406
30
0.0000000000
10
-10.9924665607
20
6.9990900570
30
0.0000000000
10
-10.9970326052
20
16.3318465093
30
0.0000000000
10
-11.0004589101
20
20.9972959167
30
0.0000000000
11
-11.0004589101
21
-20.9972959167
31
0.0000000000
11
-10.9936085333
21
-7.0009737718
31
0.0000000000
11
-10.9936085267
21
7.0009455965
31
0.0000000000
11
-11.0004589101
21
20.9972959167
31
0.0000000000
0
SPLINE
5
39E
100
AcDbEntity
8
0
100
AcDbSpline
62
9
6
CONTINUOUS
70
0
71
3
72
10
73
6
74
4
42
0.0000001000
43
0.0000001000
44
0.0000000001
12
0.0308407997
22
42.0366204979
32
0.0000000000
13
-0.0308408119
23
42.0366204979
33
0.0000000000
40
0.0000000000
40
0.0000000000
40
0.0000000000
40
0.0000000000
40
0.3332896861
40
0.6667103140
40
1.0000000000
40
1.0000000000
40
1.0000000000
40
1.0000000000
10
-10.5005350625
20
-21.0183142309
30
0.0000000000
10
-10.4971087557
20
-16.3481902144
30
0.0000000000
10
-10.4925427171
20
-7.0061055510
30
0.0000000000
10
-10.4925427189
20
7.0061055545
30
0.0000000000
10
-10.4971087544
20
16.3481902162
30
0.0000000000
10
-10.5005350625
20
21.0183142309
30
0.0000000000
11
-10.5005350625
21
-21.0183142309
31
0.0000000000
11
-10.4936846755
21
-7.0079400855
31
0.0000000000
11
-10.4936846759
21
7.0079400907
31
0.0000000000
11
-10.5005350625
21
21.0183142309
31
0.0000000000
0
SPLINE
5
39F
100
AcDbEntity
8
0
100
AcDbSpline
62
7
6
CONTINUOUS
70
0
71
3
72
10
73
6
74
4
42
0.0000001000
43
0.0000001000
44
0.0000000001
12
-1.1823832597
22
-0.0004935103
32
0.0000000000
13
-1.1823833627
23
0.0000000000
33
0.0000000000
40
0.0000000000
40
0.0000000000
40
0.0000000000
40
0.0000000000
40
0.3316404357
40
0.6650531448
40
1.0000000000
40
1.0000000000
40
1.0000000000
40
1.0000000000
10
1.1823833293
20
11.7073833293
30
0.0000000000
10
1.0516746295
20
11.7073287733
30
0.0000000000
10
0.7895587198
20
11.7072375515
30
0.0000000000
10
0.3954309397
20
11.7071551062
30
0.0000000000
10
0.1320118630
20
11.7071367151
30
0.0000000000
10
0.0000000000
20
11.7071367151
30
0.0000000000
11
1.1823833293
21
11.7073833293
31
0.0000000000
11
0.7902572195
21
11.7072468440
31
0.0000000000
11
0.3960355880
21
11.7071643686
31
0.0000000000
11
0.0000000000
21
11.7071367151
31
0.0000000000
0
SPLINE
5
3A0
100
AcDbEntity
8
0
100
AcDbSpline
62
7
6
CONTINUOUS
70
0
71
3
72
10
73
6
74
4
42
0.0000001000
43
0.0000001000
44
0.0000000001
12
-1.1823833627
22
0.0000000000
32
0.0000000000
13
-1.1823832597
23
0.0004935103
33
0.0000000000
40
0.0000000000
40
0.0000000000
40
0.0000000000
40
0.0000000000
40
0.3351510588
40
0.6686122120
40
1.0000000000
40
1.0000000000
40
1.0000000000
40
1.0000000000
10
0.0000000000
20
11.7071367151
30
0.0000000000
10
-0.1320923453
20
11.7071367151
30
0.0000000000
10
-0.3956109975
20
11.7071551244
30
0.0000000000
10
-0.7897387776
20
11.7072376072
30
0.0000000000
10
-1.0517742050
20
11.7073288149
30
0.0000000000
10
-1.1823833293
20
11.7073833293
30
0.0000000000
11
0.0000000000
21
11.7071367151
31
0.0000000000
11
-0.3962770349
21
11.7071644023
31
0.0000000000
11
-0.7905559459
21
11.7072469273
31
0.0000000000
11
-1.1823833293
21
11.7073833293
31
0.0000000000
0
SPLINE
5
3A1
100
AcDbEntity
8
0
100
AcDbSpline
62
9
6
CONTINUOUS
70
0
71
3
72
12
73
8
74
6
42
0.0000001000
43
0.0000001000
44
0.0000000001
12
0.1919554566
22
-0.4628308739
32
0.0000000000
13
0.5010580608
23
-0.0003673235
33
0.0000000000
40
0.0000000000
40
0.0000000000
40
0.0000000000
40
0.0000000000
40
0.0546097796
40
0.1986040208
40
0.4190274305
40
0.6949392928
40
1.0000000000
40
1.0000000000
40
1.0000000000
40
1.0000000000
10
-11.0004589101
20
-20.9972959167
30
0.0000000000
10
-10.9969646951
20
-21.0057209474
30
0.0000000000
10
-10.9527896784
20
-21.0005048020
30
0.0000000000
10
-10.8928023018
20
-21.0137704013
30
0.0000000000
10
-10.7809060038
20
-21.0135856065
30
0.0000000000
10
-10.6490214516
20
-21.0180276713
30
0.0000000000
10
-10.5514861046
20
-21.0182768782
30
0.0000000000
10
-10.5005350625
20
-21.0183142302
30
0.0000000000
11
-11.0004589101
21
-20.9972959167
31
0.0000000000
11
-10.9738615497
21
-21.0037221553
31
0.0000000000
11
-10.9019464456
21
-21.0095331260
31
0.0000000000
11
-10.7915989726
21
-21.0141724684
31
0.0000000000
11
-10.6533841395
21
-21.0171959974
31
0.0000000000
11
-10.5005350625
21
-21.0183142302
31
0.0000000000
0
SPLINE
5
3A2
100
AcDbEntity
8
0
100
AcDbSpline
62
9
6
CONTINUOUS
70
0
71
3
72
13
73
9
74
7
42
0.0000001000
43
0.0000001000
44
0.0000000001
12
-0.0003487206
22
0.4784692666
32
0.0000000000
13
-0.1517232156
23
0.4537764059
33
0.0000000000
40
0.0000000000
40
0.0000000000
40
0.0000000000
40
0.0000000000
40
0.2532095848
40
0.4885745110
40
0.6915930751
40
0.8503382364
40
0.9552488215
40
1.0000000000
40
1.0000000000
40
1.0000000000
40
1.0000000000
10
-11.0004589101
20
20.9972959167
30
0.0000000000
10
-11.0004883432
20
21.0376802515
30
0.0000000000
10
-11.0007370348
20
21.1155947072
30
0.0000000000
10
-11.0014333213
20
21.2259272634
30
0.0000000000
10
-11.0029961999
20
21.3210594970
30
0.0000000000
10
-11.0036726342
20
21.3957214398
30
0.0000000000
10
-11.0070626603
20
21.4443888068
30
0.0000000000
10
-11.0064587001
20
21.4688233602
30
0.0000000000
10
-11.0087219643
20
21.4755923698
30
0.0000000000
11
-11.0004589101
21
20.9972959167
31
0.0000000000
11
-11.0008114400
21
21.1184484403
31
0.0000000000
11
-11.0016694038
21
21.2310600856
31
0.0000000000
11
-11.0029790226
21
21.3281894263
31
0.0000000000
11
-11.0046627389
21
21.4041254633
31
0.0000000000
11
-11.0066187988
21
21.4542838409
31
0.0000000000
11
-11.0087219643
21
21.4755923698
31
0.0000000000
0
SPLINE
5
3A3
100
AcDbEntity
8
0
100
AcDbSpline
62
9
6
CONTINUOUS
70
0
71
3
72
13
73
9
74
7
42
0.0000001000
43
0.0000001000
44
0.0000000001
12
-0.0003449115
22
0.9566793721
32
0.0000000000
13
-0.1577707732
23
0.9435803745
33
0.0000000000
40
0.0000000000
40
0.0000000000
40
0.0000000000
40
0.0000000000
40
0.2530310260
40
0.4882997269
40
0.6913336956
40
0.8501745167
40
0.9551752019
40
1.0000000000
40
1.0000000000
40
1.0000000000
40
1.0000000000
10
-10.5005350625
20
21.0183142309
30
0.0000000000
10
-10.5005641536
20
21.0990040853
30
0.0000000000
10
-10.5008152485
20
21.2547151132
30
0.0000000000
10
-10.5015012526
20
21.4751932123
30
0.0000000000
10
-10.5030911067
20
21.6655626178
30
0.0000000000
10
-10.5036915785
20
21.8145717156
30
0.0000000000
10
-10.5072303685
20
21.9127237242
30
0.0000000000
10
-10.5064407690
20
21.9608085373
30
0.0000000000
10
-10.5087981167
20
21.9749071372
30
0.0000000000
11
-10.5005350625
21
21.0183142309
31
0.0000000000
11
-10.5008870654
21
21.2603835538
31
0.0000000000
11
-10.5017441538
21
21.4854586496
31
0.0000000000
11
-10.5030519894
21
21.6796926689
31
0.0000000000
11
-10.5047341778
21
21.8316431047
31
0.0000000000
11
-10.5066888073
21
21.9320760821
31
0.0000000000
11
-10.5087981167
21
21.9749071372
31
0.0000000000
0
SPLINE
5
3A4
100
AcDbEntity
8
0
100
AcDbSpline
62
9
6
CONTINUOUS
70
0
71
3
72
12
73
8
74
6
42
0.0000001000
43
0.0000001000
44
0.0000000001
12
0.1920144796
22
0.4628063375
32
0.0000000000
13
0.5010580120
23
0.0003673725
33
0.0000000000
40
0.0000000000
40
0.0000000000
40
0.0000000000
40
0.0000000000
40
0.0546111894
40
0.1986060630
40
0.4190293170
40
0.6949404067
40
1.0000000000
40
1.0000000000
40
1.0000000000
40
1.0000000000
10
-11.0004589101
20
20.9972959167
30
0.0000000000
10
-10.9969635304
20
21.0057207182
30
0.0000000000
10
-10.9527903228
20
21.0005049635
30
0.0000000000
10
-10.8928006189
20
21.0137700305
30
0.0000000000
10
-10.7809054436
20
21.0135854735
30
0.0000000000
10
-10.6490208276
20
21.0180273997
30
0.0000000000
10
-10.5514859137
20
21.0182766372
30
0.0000000000
10
-10.5005350625
20
21.0183139940
30
0.0000000000
11
-11.0004589101
21
20.9972959167
31
0.0000000000
11
-10.9738608069
21
21.0037220776
31
0.0000000000
11
-10.9019453861
21
21.0095329760
31
0.0000000000
11
-10.7915979997
21
21.0141722630
31
0.0000000000
11
-10.6533835666
21
21.0171957618
31
0.0000000000
11
-10.5005350625
21
21.0183139940
31
0.0000000000
0
SPLINE
5
3A5
100
AcDbEntity
8
0
100
AcDbSpline
62
7
6
CONTINUOUS
70
0
71
3
72
34
73
30
74
28
42
0.0000001000
43
0.0000001000
44
0.0000000001
12
0.0086781475
22
-7.4157872615
32
0.0000000000
13
-0.0107713704
23
-7.4157845165
33
0.0000000000
40
0.0000000000
40
0.0000000000
40
0.0000000000
40
0.0000000000
40
0.0579547113
40
0.1111964069
40
0.1601286290
40
0.2051327278
40
0.2462149843
40
0.2830959431
40
0.3159169420
40
0.3457743353
40
0.3739371121
40
0.4017237720
40
0.4298811708
40
0.4580660413
40
0.4860690083
40
0.5139413237
40
0.5418078591
40
0.5697456058
40
0.5975730491
40
0.6250592952
40
0.6531041708
40
0.6829981421
40
0.7159638167
40
0.7530162978
40
0.7942417540
40
0.8393896025
40
0.8884818682
40
0.9418890855
40
1.0000000000
40
1.0000000000
40
1.0000000000
40
1.0000000000
10
-1.1823833293
20
11.7073833293
30
0.0000000000
10
-1.1822156828
20
11.5641233928
30
0.0000000000
10
-1.1819152312
20
11.2892537349
30
0.0000000000
10
-1.1815407822
20
10.8934270241
30
0.0000000000
10
-1.1812455312
20
10.5296132736
30
0.0000000000
10
-1.1810157607
20
10.1958567746
30
0.0000000000
10
-1.1808406836
20
9.8918901357
30
0.0000000000
10
-1.1807107771
20
9.6180392571
30
0.0000000000
10
-1.1806163488
20
9.3719354508
30
0.0000000000
10
-1.1805484760
20
9.1473823792
30
0.0000000000
10
-1.1805003393
20
8.9352738405
30
0.0000000000
10
-1.1804682458
20
8.7273675673
30
0.0000000000
10
-1.1804512293
20
8.5194066784
30
0.0000000000
10
-1.1804493973
20
8.3109110924
30
0.0000000000
10
-1.1804627063
20
8.1031202134
30
0.0000000000
10
-1.1804909614
20
7.8961162381
30
0.0000000000
10
-1.1805341484
20
7.6892734857
30
0.0000000000
10
-1.1805922846
20
7.4825416575
30
0.0000000000
10
-1.1806650622
20
7.2767498827
30
0.0000000000
10
-1.1807527525
20
7.0706932985
30
0.0000000000
10
-1.1808578811
20
6.8595284076
30
0.0000000000
10
-1.1809867250
20
6.6348187596
30
0.0000000000
10
-1.1811486091
20
6.3878429504
30
0.0000000000
10
-1.1813540522
20
6.1128565183
30
0.0000000000
10
-1.1816133382
20
5.8077566292
30
0.0000000000
10
-1.1819360138
20
5.4728952708
30
0.0000000000
10
-1.1823332132
20
5.1079215028
30
0.0000000000
10
-1.1828194234
20
4.7109040141
30
0.0000000000
10
-1.1831981917
20
4.4352391704
30
0.0000000000
10
-1.1834068364
20
4.2915931636
30
0.0000000000
11
-1.1823833293
21
11.7073833293
31
0.0000000000
11
-1.1819134783
21
11.2776034823
31
0.0000000000
11
-1.1815399253
21
10.8827743005
31
0.0000000000
11
-1.1812454077
21
10.5199032224
31
0.0000000000
11
-1.1810156272
21
10.1861622499
31
0.0000000000
11
-1.1808401391
21
9.8815048174
31
0.0000000000
11
-1.1807103905
21
9.6080033168
31
0.0000000000
11
-1.1806169976
21
9.3646096221
31
0.0000000000
11
-1.1805500703
21
9.1431934039
31
0.0000000000
11
-1.1805026716
21
8.9343441051
31
0.0000000000
11
-1.1804708620
21
8.7282840081
31
0.0000000000
11
-1.1804537754
21
8.5194745861
31
0.0000000000
11
-1.1804519389
21
8.3104614398
31
0.0000000000
11
-1.1804652403
21
8.1027972519
31
0.0000000000
11
-1.1804934542
21
7.8961019508
31
0.0000000000
11
-1.1805366029
21
7.6894495156
31
0.0000000000
11
-1.1805948673
21
7.4822689960
31
0.0000000000
11
-1.1806678492
21
7.2759064681
31
0.0000000000
11
-1.1807545959
21
7.0720741926
31
0.0000000000
11
-1.1808581400
21
6.8640992452
31
0.0000000000
11
-1.1809852560
21
6.6424117981
31
0.0000000000
11
-1.1811455032
21
6.3979452532
31
0.0000000000
11
-1.1813507997
21
6.1231718248
31
0.0000000000
11
-1.1816106320
21
5.8174525127
31
0.0000000000
11
-1.1819332847
21
5.4826455997
31
0.0000000000
11
-1.1823295307
21
5.1185877672
31
0.0000000000
11
-1.1828146274
21
4.7225312316
31
0.0000000000
11
-1.1834068364
21
4.2915931636
31
0.0000000000
0
SPLINE
5
3A6
100
AcDbEntity
8
0
100
AcDbSpline
62
7
6
CONTINUOUS
70
0
71
3
72
34
73
30
74
28
42
0.0000001000
43
0.0000001000
44
0.0000000001
12
-0.0107713704
22
7.4157845165
32
0.0000000000
13
0.0086781475
23
7.4157872615
33
0.0000000000
40
0.0000000000
40
0.0000000000
40
0.0000000000
40
0.0000000000
40
0.0582189401
40
0.1117400497
40
0.1609485583
40
0.2062165239
40
0.2475773777
40
0.2847735676
40
0.3178625820
40
0.3478526629
40
0.3759777400
40
0.4035430430
40
0.4314627983
40
0.4595127456
40
0.4874912884
40
0.5154082057
40
0.5433783871
40
0.5715203296
40
0.5996776622
40
0.6275164029
40
0.6557121554
40
0.6855474459
40
0.7182624565
40
0.7549604379
40
0.7958524699
40
0.8406653934
40
0.8893765017
40
0.9423543378
40
1.0000000000
40
1.0000000000
40
1.0000000000
40
1.0000000000
10
1.1834068364
20
4.2915931636
30
0.0000000000
10
1.1831978038
20
4.4355062019
30
0.0000000000
10
1.1828183220
20
4.7117196108
30
0.0000000000
10
1.1823312636
20
5.1095730091
30
0.0000000000
10
1.1819333939
20
5.4754125764
30
0.0000000000
10
1.1816101859
20
5.8111928938
30
0.0000000000
10
1.1813504847
20
6.1172796360
30
0.0000000000
10
1.1811447798
20
6.3932608874
30
0.0000000000
10
1.1809828251
20
6.6411343988
30
0.0000000000
10
1.1808540912
20
6.8665847632
30
0.0000000000
10
1.1807491984
20
7.0783809061
30
0.0000000000
10
1.1806618224
20
7.2850593549
30
0.0000000000
10
1.1805894206
20
7.4915520938
30
0.0000000000
10
1.1805317457
20
7.6990663377
30
0.0000000000
10
1.1804891612
20
7.9065735698
30
0.0000000000
10
1.1804616466
20
8.1138836289
30
0.0000000000
10
1.1804491292
20
8.3215976022
30
0.0000000000
10
1.1804517280
20
8.5299058657
30
0.0000000000
10
1.1804695021
20
8.7378892162
30
0.0000000000
10
1.1805023986
20
8.9460055794
30
0.0000000000
10
1.1805513804
20
9.1582697353
30
0.0000000000
10
1.1806200418
20
9.3825876879
30
0.0000000000
10
1.1807150754
20
9.6279225541
30
0.0000000000
10
1.1808453197
20
9.9005889073
30
0.0000000000
10
1.1810204463
20
10.2031604444
30
0.0000000000
10
1.1812499650
20
10.5354275713
30
0.0000000000
10
1.1815445098
20
10.8975699291
30
0.0000000000
10
1.1819175606
20
11.2914338720
30
0.0000000000
10
1.1822165768
20
11.5648873402
30
0.0000000000
10
1.1823833293
20
11.7073833293
30
0.0000000000
11
1.1834068364
21
4.2915931636
31
0.0000000000
11
1.1828135891
21
4.7233323263
31
0.0000000000
11
1.1823276327
21
5.1202334631
31
0.0000000000
11
1.1819307195
21
5.4851533283
31
0.0000000000
11
1.1816075613
21
5.8208510051
31
0.0000000000
11
1.1813472999
21
6.1275743977
31
0.0000000000
11
1.1811416883
21
6.4034135412
31
0.0000000000
11
1.1809813541
21
6.6487947485
31
0.0000000000
11
1.1808543568
21
6.8711949244
31
0.0000000000
11
1.1807510583
21
7.0797646299
31
0.0000000000
11
1.1806646348
21
7.2841831742
31
0.0000000000
11
1.1805920361
21
7.4912302691
31
0.0000000000
11
1.1805342207
21
7.6992428452
31
0.0000000000
11
1.1804916397
21
7.9067259042
31
0.0000000000
11
1.1804641619
21
8.1137519638
31
0.0000000000
11
1.1804516617
21
8.3211730208
31
0.0000000000
11
1.1804542654
21
8.5298678224
31
0.0000000000
11
1.1804721107
21
8.7386767528
31
0.0000000000
11
1.1805047443
21
8.9451230706
31
0.0000000000
11
1.1805529962
21
9.1542169103
31
0.0000000000
11
1.1806207220
21
9.3754692186
31
0.0000000000
11
1.1807147036
21
9.6180769251
31
0.0000000000
11
1.1808447064
21
9.8902215035
31
0.0000000000
11
1.1810202368
21
10.1934682702
31
0.0000000000
11
1.1812498149
21
10.5257915256
31
0.0000000000
11
1.1815436499
21
10.8870228701
31
0.0000000000
11
1.1819158087
21
11.2798953248
31
0.0000000000
11
1.1823833293
21
11.7073833293
31
0.0000000000
0
SPLINE
5
3A7
100
AcDbEntity
8
0
100
AcDbSpline
62
7
6
CONTINUOUS
70
0
71
3
72
10
73
6
74
4
42
0.0000001000
43
0.0000001000
44
0.0000000001
12
0.6048938468
22
0.3572593019
32
0.0000000000
13
0.6613622884
23
0.2362390588
33
0.0000000000
40
0.0000000000
40
0.0000000000
40
0.0000000000
40
0.0000000000
40
0.1854695276
40
0.7342962808
40
1.0000000000
40
1.0000000000
40
1.0000000000
40
1.0000000000
10
-38.7676838110
20
16.2891739579
30
0.0000000000
10
-38.7302873523
20
16.3112608625
30
0.0000000000
10
-38.5802896619
20
16.3954345505
30
0.0000000000
10
-38.3674675030
20
16.4937573476
30
0.0000000000
10
-38.1892340195
20
16.5616200664
30
0.0000000000
10
-38.1306585462
20
16.5825432653
30
0.0000000000
11
-38.7676838110
21
16.2891739579
31
0.0000000000
11
-38.6541136766
21
16.3530182531
31
0.0000000000
11
-38.3049956067
21
16.5160450112
31
0.0000000000
11
-38.1306585462
21
16.5825432653
31
0.0000000000
0
SPLINE
5
3A8
100
AcDbEntity
8
0
100
AcDbSpline
62
7
6
CONTINUOUS
70
0
71
3
72
12
73
8
74
6
42
0.0000001000
43
0.0000001000
44
0.0000000001
12
1.2747321751
22
-0.4552936512
32
0.0000000000
13
0.9158479947
23
-0.9988353710
33
0.0000000000
40
0.0000000000
40
0.0000000000
40
0.0000000000
40
0.0000000000
40
0.1379511363
40
0.4226988517
40
0.6842010327
40
0.9216683478
40
1.0000000000
40
1.0000000000
40
1.0000000000
40
1.0000000000
10
-34.0618395697
20
16.5825870249
30
0.0000000000
10
-34.0032226524
20
16.5616509327
30
0.0000000000
10
-33.8249475238
20
16.4937755611
30
0.0000000000
10
-33.5442907071
20
16.3641134837
30
0.0000000000
10
-33.2413266334
20
16.1802693255
30
0.0000000000
10
-33.0381989660
20
16.0158212489
30
0.0000000000
10
-32.9383724413
20
15.9137912097
30
0.0000000000
10
-32.9144591457
20
15.8877110680
30
0.0000000000
11
-34.0618395697
21
16.5825870249
31
0.0000000000
11
-33.8873799965
21
16.5160450112
31
0.0000000000
11
-33.5382619266
21
16.3530182531
31
0.0000000000
11
-33.2367931761
21
16.1677408161
31
0.0000000000
11
-32.9885895372
21
15.9636640685
31
0.0000000000
11
-32.9144591457
21
15.8877110680
31
0.0000000000
0
SPLINE
5
3A9
100
AcDbEntity
8
0
100
AcDbSpline
62
7
6
CONTINUOUS
70
0
71
3
72
9
73
5
74
3
42
0.0000001000
43
0.0000001000
44
0.0000000001
12
-0.0284968978
22
0.2761770885
32
0.0000000000
13
-0.0285109907
23
0.2761756340
33
0.0000000000
40
0.0000000000
40
0.0000000000
40
0.0000000000
40
0.0000000000
40
0.1494809484
40
1.0000000000
40
1.0000000000
40
1.0000000000
40
1.0000000000
10
-33.6912296628
20
15.8402900272
30
0.0000000000
10
-33.6926495772
20
15.8540510983
30
0.0000000000
10
-33.7021488880
20
15.9461100922
30
0.0000000000
10
-33.7116505180
20
16.0381688468
30
0.0000000000
10
-33.7197335650
20
16.1164663929
30
0.0000000000
11
-33.6912296628
21
15.8402900272
31
0.0000000000
11
-33.6954895610
21
15.8815732244
31
0.0000000000
11
-33.7197335650
21
16.1164663929
31
0.0000000000
0
SPLINE
5
3AA
100
AcDbEntity
8
0
100
AcDbSpline
62
7
6
CONTINUOUS
70
0
71
3
72
9
73
5
74
3
42
0.0000001000
43
0.0000001000
44
0.0000000001
12
-0.0045965386
22
0.0445250038
32
0.0000000000
13
-0.0174891850
23
0.0413840268
33
0.0000000000
40
0.0000000000
40
0.0000000000
40
0.0000000000
40
0.0000000000
40
0.9423145035
40
1.0000000000
40
1.0000000000
40
1.0000000000
40
1.0000000000
10
-33.7197335650
20
16.1164663929
30
0.0000000000
10
-33.7211773600
20
16.1304519119
30
0.0000000000
10
-33.7248797905
20
16.1451471008
30
0.0000000000
10
-33.7305950130
20
16.1589919963
30
0.0000000000
10
-33.7309313038
20
16.1597877490
30
0.0000000000
11
-33.7197335650
21
16.1164663929
31
0.0000000000
11
-33.7299423399
21
16.1573918675
31
0.0000000000
11
-33.7309313038
21
16.1597877490
31
0.0000000000
0
SPLINE
5
3AB
100
AcDbEntity
8
0
100
AcDbSpline
62
7
6
CONTINUOUS
70
0
71
3
72
12
73
8
74
6
42
0.0000001000
43
0.0000001000
44
0.0000000001
12
-0.0925408374
22
0.2189760412
32
0.0000000000
13
-0.2368480496
23
0.0000000000
33
0.0000000000
40
0.0000000000
40
0.0000000000
40
0.0000000000
40
0.0000000000
40
0.1775332729
40
0.3718744040
40
0.5743330455
40
0.7870827264
40
1.0000000000
40
1.0000000000
40
1.0000000000
40
1.0000000000
10
-33.7309313038
20
16.1597877490
30
0.0000000000
10
-33.7364076630
20
16.1727462601
30
0.0000000000
10
-33.7515479957
20
16.1982809092
30
0.0000000000
10
-33.7840949009
20
16.2305357265
30
0.0000000000
10
-33.8257206703
20
16.2555304182
30
0.0000000000
10
-33.8732161595
20
16.2710819016
30
0.0000000000
10
-33.9069293363
20
16.2745756562
30
0.0000000000
10
-33.9237390166
20
16.2745756562
30
0.0000000000
11
-33.7309313038
21
16.1597877490
31
0.0000000000
11
-33.7522159881
21
16.1960670110
31
0.0000000000
11
-33.7847409466
21
16.2286373222
31
0.0000000000
11
-33.8257410507
21
16.2535045591
31
0.0000000000
11
-33.8735848177
21
16.2693178526
31
0.0000000000
11
-33.9237390166
21
16.2745756562
31
0.0000000000
0
SPLINE
5
3AC
100
AcDbEntity
8
0
100
AcDbSpline
62
9
6
CONTINUOUS
70
0
71
3
72
18
73
14
74
12
42
0.0000001000
43
0.0000001000
44
0.0000000001
12
1.2264236472
22
2.6643425622
32
0.0000000000
13
2.9152047639
23
-0.3301024260
33
0.0000000000
40
0.0000000000
40
0.0000000000
40
0.0000000000
40
0.0000000000
40
0.0647859389
40
0.1370942892
40
0.2179537190
40
0.3074452378
40
0.4049368478
40
0.5092937450
40
0.6189963839
40
0.7322941243
40
0.8473345415
40
0.9621699803
40
1.0000000000
40
1.0000000000
40
1.0000000000
40
1.0000000000
10
-38.2686308798
20
16.2745756562
30
0.0000000000
10
-38.2421458773
20
16.3321129677
30
0.0000000000
10
-38.1690588964
20
16.4463106204
30
0.0000000000
10
-38.0177272916
20
16.5979763852
30
0.0000000000
10
-37.8235261030
20
16.7358660095
30
0.0000000000
10
-37.5907645839
20
16.8572743853
30
0.0000000000
10
-37.3244649300
20
16.9598107126
30
0.0000000000
10
-37.0305105362
20
17.0412320339
30
0.0000000000
10
-36.7154764022
20
17.0997274822
30
0.0000000000
10
-36.3864234170
20
17.1339789340
30
0.0000000000
10
-36.0507149082
20
17.1432027301
30
0.0000000000
10
-35.7890310929
20
17.1306656642
30
0.0000000000
10
-35.6404584923
20
17.1158230354
30
0.0000000000
10
-35.6036977412
20
17.1116604416
30
0.0000000000
11
-38.2686308798
21
16.2745756562
31
0.0000000000
11
-38.1681335367
21
16.4358464289
31
0.0000000000
11
-38.0200470236
21
16.5876696575
31
0.0000000000
11
-37.8277968625
21
16.7265485516
31
0.0000000000
11
-37.5957882706
21
16.8493077577
31
0.0000000000
11
-37.3293525746
21
16.9531280734
31
0.0000000000
11
-37.0345960159
21
17.0356300250
31
0.0000000000
11
-36.7183394890
21
17.0949098331
31
0.0000000000
11
-36.3878479610
21
17.1296172928
31
0.0000000000
11
-36.0505571049
21
17.1389646775
31
0.0000000000
11
-35.7141305796
21
17.1227065685
31
0.0000000000
11
-35.6036977412
21
17.1116604416
31
0.0000000000
0
SPLINE
5
3AD
100
AcDbEntity
8
0
100
AcDbSpline
62
9
6
CONTINUOUS
70
0
71
3
72
8
73
4
74
2
42
0.0000001000
43
0.0000001000
44
0.0000000001
12
0.1096071336
22
-0.0124113342
32
0.0000000000
13
0.1092376550
23
-0.0153197634
33
0.0000000000
40
0.0000000000
40
0.0000000000
40
0.0000000000
40
0.0000000000
40
1.0000000000
40
1.0000000000
40
1.0000000000
40
1.0000000000
10
-35.6036977412
20
17.1116604416
30
0.0000000000
10
-35.5671620300
20
17.1075233302
30
0.0000000000
10
-35.5306807178
20
17.1029074972
30
0.0000000000
10
-35.4942681661
20
17.0978009094
30
0.0000000000
11
-35.6036977412
21
17.1116604416
31
0.0000000000
11
-35.4942681661
21
17.0978009094
31
0.0000000000
0
SPLINE
5
3AE
100
AcDbEntity
8
0
100
AcDbSpline
62
9
6
CONTINUOUS
70
0
71
3
72
15
73
11
74
9
42
0.0000001000
43
0.0000001000
44
0.0000000001
12
1.8192488277
22
-0.2551360305
32
0.0000000000
13
0.7679448042
23
-1.6683207569
33
0.0000000000
40
0.0000000000
40
0.0000000000
40
0.0000000000
40
0.0000000000
40
0.0592321643
40
0.2320017846
40
0.3957880933
40
0.5492706386
40
0.6894912703
40
0.8122315698
40
0.9155781787
40
1.0000000000
40
1.0000000000
40
1.0000000000
40
1.0000000000
10
-35.4942681661
20
17.0978009094
30
0.0000000000
10
-35.4583488176
20
17.0927634896
30
0.0000000000
10
-35.3179212357
20
17.0711623387
30
0.0000000000
10
-35.0804679825
20
17.0215106080
30
0.0000000000
10
-34.7930146196
20
16.9341410369
30
0.0000000000
10
-34.5341206562
20
16.8258120353
30
0.0000000000
10
-34.3117905770
20
16.6996273645
30
0.0000000000
10
-34.1337348965
20
16.5616307558
30
0.0000000000
10
-34.0054182819
20
16.4201279656
30
0.0000000000
10
-33.9445475198
20
16.3215232152
30
0.0000000000
10
-33.9229370868
20
16.2745756562
30
0.0000000000
11
-35.4942681661
21
17.0978009094
31
0.0000000000
11
-35.3867246380
21
17.0812444481
31
0.0000000000
11
-35.0762630818
21
17.0156971535
31
0.0000000000
11
-34.7887200655
21
16.9273577233
31
0.0000000000
11
-34.5291841943
21
16.8173608443
31
0.0000000000
11
-34.3060319352
21
16.6888187776
31
0.0000000000
11
-34.1291613572
21
16.5490612829
31
0.0000000000
11
-34.0026639008
21
16.4075545722
31
0.0000000000
11
-33.9229370868
21
16.2745756562
31
0.0000000000
0
SPLINE
5
3AF
100
AcDbEntity
8
0
100
AcDbSpline
62
7
6
CONTINUOUS
70
0
71
3
72
12
73
8
74
6
42
0.0000001000
43
0.0000001000
44
0.0000000001
12
-0.2231058537
22
0.0000000000
32
0.0000000000
13
-0.1047175293
23
-0.1977819935
33
0.0000000000
40
0.0000000000
40
0.0000000000
40
0.0000000000
40
0.0000000000
40
0.2260319042
40
0.4518858930
40
0.6668149661
40
0.8731265311
40
1.0000000000
40
1.0000000000
40
1.0000000000
40
1.0000000000
10
-38.2686365866
20
16.2745756562
30
0.0000000000
10
-38.2854462669
20
16.2745756562
30
0.0000000000
10
-38.3191594437
20
16.2710819016
30
0.0000000000
10
-38.3666549329
20
16.2555304182
30
0.0000000000
10
-38.4082807023
20
16.2305357265
30
0.0000000000
10
-38.4375396045
20
16.2015394045
30
0.0000000000
10
-38.4510990050
20
16.1806010744
30
0.0000000000
10
-38.4555276304
20
16.1722366452
30
0.0000000000
11
-38.2686365866
21
16.2745756562
31
0.0000000000
11
-38.3187907855
21
16.2693178526
31
0.0000000000
11
-38.3666345525
21
16.2535045591
31
0.0000000000
11
-38.4076346566
21
16.2286373222
31
0.0000000000
11
-38.4401596151
21
16.1960670110
31
0.0000000000
11
-38.4555276304
21
16.1722366452
31
0.0000000000
0
SPLINE
5
3B0
100
AcDbEntity
8
0
100
AcDbSpline
62
9
6
CONTINUOUS
70
0
71
3
72
13
73
9
74
7
42
0.0000001000
43
0.0000001000
44
0.0000000001
12
0.0308204848
22
0.7356818212
32
0.0000000000
13
0.7353273388
23
0.0383581706
33
0.0000000000
40
0.0000000000
40
0.0000000000
40
0.0000000000
40
0.0000000000
40
0.1663161506
40
0.3331500210
40
0.4999320895
40
0.6667044713
40
0.8335566435
40
1.0000000000
40
1.0000000000
40
1.0000000000
40
1.0000000000
10
-62.7633911036
20
20.9972959167
30
0.0000000000
10
-62.7616824555
20
21.0380811729
30
0.0000000000
10
-62.7481155203
20
21.1197061359
30
0.0000000000
10
-62.6986153532
20
21.2332822996
30
0.0000000000
10
-62.6228532792
20
21.3315400005
30
0.0000000000
10
-62.5253947751
20
21.4083351474
30
0.0000000000
10
-62.4123141907
20
21.4590384880
30
0.0000000000
10
-62.3307978301
20
21.4734642156
30
0.0000000000
10
-62.2900010466
20
21.4755923698
30
0.0000000000
11
-62.7633911036
21
20.9972959167
31
0.0000000000
11
-62.7432968037
21
21.1180991804
31
0.0000000000
11
-62.6942391006
21
21.2307227352
31
0.0000000000
11
-62.6192365343
21
21.3279645393
31
0.0000000000
11
-62.5227949629
21
21.4039818068
31
0.0000000000
11
-62.4106809494
21
21.4542260345
31
0.0000000000
11
-62.2900010466
21
21.4755923698
31
0.0000000000
0
SPLINE
5
3B1
100
AcDbEntity
8
0
100
AcDbSpline
62
9
6
CONTINUOUS
70
0
71
3
72
12
73
8
74
6
42
0.0000001000
43
0.0000001000
44
0.0000000001
12
-0.4990705852
22
-0.0261551811
32
0.0000000000
13
0.0261472363
23
-0.4990710015
33
0.0000000000
40
0.0000000000
40
0.0000000000
40
0.0000000000
40
0.0000000000
40
0.0492065483
40
0.1912403570
40
0.4123852873
40
0.6910492528
40
1.0000000000
40
1.0000000000
40
1.0000000000
40
1.0000000000
10
-62.3074428215
20
21.9749071372
30
0.0000000000
10
-62.3156286685
20
21.9744781351
30
0.0000000000
10
-62.2996013499
20
21.9242228489
30
0.0000000000
10
-62.3129287753
20
21.8725184816
30
0.0000000000
10
-62.3012169559
20
21.7567844815
30
0.0000000000
10
-62.2983500306
20
21.6256547081
30
0.0000000000
10
-62.2926937827
20
21.5269884894
30
0.0000000000
10
-62.2900010466
20
21.4755923698
30
0.0000000000
11
-62.3074428215
21
21.9749071372
31
0.0000000000
11
-62.3088511964
21
21.9503562579
31
0.0000000000
11
-62.3075633160
21
21.8793857676
31
0.0000000000
11
-62.3037051040
21
21.7689347421
31
0.0000000000
11
-62.2976537937
21
21.6298024308
31
0.0000000000
11
-62.2900010466
21
21.4755923698
31
0.0000000000
0
SPLINE
5
3B2
100
AcDbEntity
8
0
100
AcDbSpline
62
9
6
CONTINUOUS
70
0
71
3
72
13
73
9
74
7
42
0.0000001000
43
0.0000001000
44
0.0000000001
12
-0.7353273404
22
0.0383581398
32
0.0000000000
13
-0.0308205180
23
0.7356818199
33
0.0000000000
40
0.0000000000
40
0.0000000000
40
0.0000000000
40
0.0000000000
40
0.1664433564
40
0.3332955287
40
0.5000679105
40
0.6668499789
40
0.8336838494
40
1.0000000000
40
1.0000000000
40
1.0000000000
40
1.0000000000
10
-62.2900010466
20
-21.4755923698
30
0.0000000000
10
-62.3307978302
20
-21.4734642173
30
0.0000000000
10
-62.4123141905
20
-21.4590384867
30
0.0000000000
10
-62.5253947753
20
-21.4083351480
30
0.0000000000
10
-62.6228532793
20
-21.3315400004
30
0.0000000000
10
-62.6986153526
20
-21.2332822994
30
0.0000000000
10
-62.7481155216
20
-21.1197061361
30
0.0000000000
10
-62.7616824537
20
-21.0380811728
30
0.0000000000
10
-62.7633911036
20
-20.9972959167
30
0.0000000000
11
-62.2900010466
21
-21.4755923698
31
0.0000000000
11
-62.4106809493
21
-21.4542260342
31
0.0000000000
11
-62.5227949630
21
-21.4039818070
31
0.0000000000
11
-62.6192365343
21
-21.3279645393
31
0.0000000000
11
-62.6942391004
21
-21.2307227351
31
0.0000000000
11
-62.7432968040
21
-21.1180991805
31
0.0000000000
11
-62.7633911036
21
-20.9972959167
31
0.0000000000
0
SPLINE
5
3B3
100
AcDbEntity
8
0
100
AcDbSpline
62
9
6
CONTINUOUS
70
0
71
3
72
12
73
8
74
6
42
0.0000001000
43
0.0000001000
44
0.0000000001
12
-0.4990705807
22
0.0261551808
32
0.0000000000
13
0.0261471146
23
0.4990710033
33
0.0000000000
40
0.0000000000
40
0.0000000000
40
0.0000000000
40
0.0000000000
40
0.0492079808
40
0.1912447975
40
0.4123917745
40
0.6910545422
40
1.0000000000
40
1.0000000000
40
1.0000000000
40
1.0000000000
10
-62.3074428215
20
-21.9749071372
30
0.0000000000
10
-62.3156289067
20
-21.9744781227
30
0.0000000000
10
-62.2996010406
20
-21.9242216375
30
0.0000000000
10
-62.3129287409
20
-21.8725164707
30
0.0000000000
10
-62.3012168066
20
-21.7567818087
30
0.0000000000
10
-62.2983498851
20
-21.6256527227
30
0.0000000000
10
-62.2926937240
20
-21.5269876097
30
0.0000000000
10
-62.2900010466
20
-21.4755923698
30
0.0000000000
11
-62.3074428215
21
-21.9749071372
31
0.0000000000
11
-62.3088511694
21
-21.9503555394
31
0.0000000000
11
-62.3075632077
21
-21.8793835478
31
0.0000000000
11
-62.3037049290
21
-21.7689315022
31
0.0000000000
11
-62.2976536396
21
-21.6297997904
31
0.0000000000
11
-62.2900010466
21
-21.4755923698
31
0.0000000000
0
SPLINE
5
3B4
100
AcDbEntity
8
0
100
AcDbSpline
62
9
6
CONTINUOUS
70
0
71
3
72
10
73
6
74
4
42
0.0000001000
43
0.0000001000
44
0.0000000001
12
-1.7657700567
22
41.9684643682
32
0.0000000000
13
1.7657699116
23
41.9684643743
33
0.0000000000
40
0.0000000000
40
0.0000000000
40
0.0000000000
40
0.0000000000
40
0.3333328627
40
0.6666672760
40
1.0000000000
40
1.0000000000
40
1.0000000000
40
1.0000000000
10
-62.7633911036
20
-20.9972959167
30
0.0000000000
10
-62.9595874996
20
-16.3341397924
30
0.0000000000
10
-63.2212702090
20
-7.0017558249
30
0.0000000000
10
-63.2212701476
20
7.0017597117
30
0.0000000000
10
-62.9595874018
20
16.3341417329
30
0.0000000000
10
-62.7633911036
20
20.9972959167
30
0.0000000000
11
-62.7633911036
21
-20.9972959167
31
0.0000000000
11
-63.1558492171
21
-7.0009521365
31
0.0000000000
11
-63.1558491399
21
7.0009579653
31
0.0000000000
11
-62.7633911036
21
20.9972959167
31
0.0000000000
0
SPLINE
5
3B5
100
AcDbEntity
8
0
100
AcDbSpline
62
7
6
CONTINUOUS
70
0
71
3
72
10
73
6
74
4
42
0.0000001000
43
0.0000001000
44
0.0000000001
12
-4.0000360299
22
0.0287443498
32
0.0000000000
13
-3.9999639243
23
0.0374577365
33
0.0000000000
40
0.0000000000
40
0.0000000000
40
0.0000000000
40
0.0000000000
40
0.3303029973
40
0.6636439357
40
1.0000000000
40
1.0000000000
40
1.0000000000
40
1.0000000000
10
-50.1961878016
20
22.6298666026
30
0.0000000000
10
-50.6365957649
20
22.6330313843
30
0.0000000000
10
-51.5214597127
20
22.6397571456
30
0.0000000000
10
-52.8547930893
20
22.6508921323
30
0.0000000000
10
-53.7477170939
20
22.6589669097
30
0.0000000000
10
-54.1961878016
20
22.6631666220
30
0.0000000000
11
-50.1961878016
21
22.6298666026
31
0.0000000000
11
-51.5174077776
21
22.6398908175
31
0.0000000000
11
-52.8507715930
21
22.6510115990
31
0.0000000000
11
-54.1961878016
21
22.6631666220
31
0.0000000000
0
SPLINE
5
3B6
100
AcDbEntity
8
0
100
AcDbSpline
62
7
6
CONTINUOUS
70
0
71
3
72
10
73
6
74
4
42
0.0000001000
43
0.0000001000
44
0.0000000001
12
-4.0000360299
22
-0.0287443498
32
0.0000000000
13
-3.9999639243
23
-0.0374577365
33
0.0000000000
40
0.0000000000
40
0.0000000000
40
0.0000000000
40
0.0000000000
40
0.3303029973
40
0.6636439357
40
1.0000000000
40
1.0000000000
40
1.0000000000
40
1.0000000000
10
-50.1961878016
20
-22.6298666026
30
0.0000000000
10
-50.6365957649
20
-22.6330313843
30
0.0000000000
10
-51.5214597127
20
-22.6397571456
30
0.0000000000
10
-52.8547930893
20
-22.6508921323
30
0.0000000000
10
-53.7477170939
20
-22.6589669097
30
0.0000000000
10
-54.1961878016
20
-22.6631666220
30
0.0000000000
11
-50.1961878016
21
-22.6298666026
31
0.0000000000
11
-51.5174077776
21
-22.6398908175
31
0.0000000000
11
-52.8507715930
21
-22.6510115990
31
0.0000000000
11
-54.1961878016
21
-22.6631666220
31
0.0000000000
0
SPLINE
5
3B7
100
AcDbEntity
8
0
100
AcDbSpline
62
7
6
CONTINUOUS
70
0
71
3
72
9
73
5
74
3
42
0.0000001000
43
0.0000001000
44
0.0000000001
12
-0.2280825605
22
0.2361718663
32
0.0000000000
13
-0.1461357261
23
0.2942812968
33
0.0000000000
40
0.0000000000
40
0.0000000000
40
0.0000000000
40
0.0000000000
40
0.0323590092
40
1.0000000000
40
1.0000000000
40
1.0000000000
40
1.0000000000
10
-39.0724191120
20
16.4310879997
30
0.0000000000
10
-39.0748792872
20
16.4336354289
30
0.0000000000
10
-39.1506166429
20
16.5126647822
30
0.0000000000
10
-39.2172600632
20
16.6011984799
30
0.0000000000
10
-39.2643957027
20
16.6961180285
30
0.0000000000
11
-39.0724191120
21
16.4310879997
31
0.0000000000
11
-39.0797713365
21
16.4387600041
31
0.0000000000
11
-39.2643957027
21
16.6961180285
31
0.0000000000
0
SPLINE
5
3B8
100
AcDbEntity
8
0
100
AcDbSpline
62
7
6
CONTINUOUS
70
0
71
3
72
8
73
4
74
2
42
0.0000001000
43
0.0000001000
44
0.0000000001
12
-0.0149538464
22
0.0301133572
32
0.0000000000
13
-0.0137582444
23
0.0307353176
33
0.0000000000
40
0.0000000000
40
0.0000000000
40
0.0000000000
40
0.0000000000
40
1.0000000000
40
1.0000000000
40
1.0000000000
40
1.0000000000
10
-39.2643957027
20
16.6961180285
30
0.0000000000
10
-39.2693803182
20
16.7061558142
30
0.0000000000
10
-39.2741708917
20
16.7162970522
30
0.0000000000
10
-39.2787569732
20
16.7265421580
30
0.0000000000
11
-39.2643957027
21
16.6961180285
31
0.0000000000
11
-39.2787569732
21
16.7265421580
31
0.0000000000
0
SPLINE
5
3B9
100
AcDbEntity
8
0
100
AcDbSpline
62
7
6
CONTINUOUS
70
0
71
3
72
8
73
4
74
2
42
0.0000001000
43
0.0000001000
44
0.0000000001
12
-0.1274813357
22
0.2847877411
32
0.0000000000
13
0.0000000000
23
0.3115405793
33
0.0000000000
40
0.0000000000
40
0.0000000000
40
0.0000000000
40
0.0000000000
40
1.0000000000
40
1.0000000000
40
1.0000000000
40
1.0000000000
10
-39.2787569732
20
16.7265421580
30
0.0000000000
10
-39.3212507518
20
16.8214714051
30
0.0000000000
10
-39.3461878016
20
16.9253182648
30
0.0000000000
10
-39.3461878016
20
17.0291651246
30
0.0000000000
11
-39.2787569732
21
16.7265421580
31
0.0000000000
11
-39.3461878016
21
17.0291651246
31
0.0000000000
0
SPLINE
5
3BA
100
AcDbEntity
8
0
100
AcDbSpline
62
7
6
CONTINUOUS
70
0
71
3
72
13
73
9
74
7
42
0.0000001000
43
0.0000001000
44
0.0000000001
12
-1.0537941746
22
2.2709598684
32
0.0000000000
13
-2.4756894516
23
0.2772333021
33
0.0000000000
40
0.0000000000
40
0.0000000000
40
0.0000000000
40
0.0000000000
40
0.1385595057
40
0.3077687730
40
0.5042562334
40
0.7247456640
40
0.9629042632
40
1.0000000000
40
1.0000000000
40
1.0000000000
40
1.0000000000
10
-32.8700788386
20
15.9689604330
30
0.0000000000
10
-32.9187499052
20
16.0738481253
30
0.0000000000
10
-33.0729308540
20
16.2830498383
30
0.0000000000
10
-33.4052618581
20
16.5431801667
30
0.0000000000
10
-33.8421940727
20
16.7623704640
30
0.0000000000
10
-34.3612595400
20
16.9296316232
30
0.0000000000
10
-34.7665501290
20
17.0053003667
30
0.0000000000
10
-34.9934808757
20
17.0326924472
30
0.0000000000
10
-35.0240933838
20
17.0361205051
30
0.0000000000
11
-32.8700788386
21
15.9689604330
31
0.0000000000
11
-33.0674380473
21
16.2519939654
31
0.0000000000
11
-33.3940431744
21
16.5179949110
31
0.0000000000
11
-33.8286478174
21
16.7424127896
31
0.0000000000
11
-34.3499353808
21
16.9142376755
31
0.0000000000
11
-34.9323489349
21
17.0250436715
31
0.0000000000
11
-35.0240933838
21
17.0361205051
31
0.0000000000
0
SPLINE
5
3BB
100
AcDbEntity
8
0
100
AcDbSpline
62
7
6
CONTINUOUS
70
0
71
3
72
10
73
6
74
4
42
0.0000001000
43
0.0000001000
44
0.0000000001
12
0.0001221661
22
-0.4872886841
32
0.0000000000
13
-0.2826080295
23
-0.3952935395
33
0.0000000000
40
0.0000000000
40
0.0000000000
40
0.0000000000
40
0.0000000000
40
0.3164924492
40
0.9902971281
40
1.0000000000
40
1.0000000000
40
1.0000000000
40
1.0000000000
10
-32.7966403313
20
16.2815106490
30
0.0000000000
10
-32.7966274431
20
16.2301029193
30
0.0000000000
10
-32.8135855522
20
16.0693337249
30
0.0000000000
10
-32.8862590457
20
15.9204604369
30
0.0000000000
10
-32.9504427464
20
15.8302351678
30
0.0000000000
10
-32.9513567829
20
15.8289566736
30
0.0000000000
11
-32.7966403313
21
16.2815106490
31
0.0000000000
11
-32.8130855872
21
16.1287039533
31
0.0000000000
11
-32.9486234047
21
15.8327991142
31
0.0000000000
11
-32.9513567829
21
15.8289566736
31
0.0000000000
0
SPLINE
5
3BC
100
AcDbEntity
8
0
100
AcDbSpline
62
7
6
CONTINUOUS
70
0
71
3
72
9
73
5
74
3
42
0.0000001000
43
0.0000001000
44
0.0000000001
12
0.0577783227
22
0.1721976982
32
0.0000000000
13
0.0944886234
23
0.1540879652
33
0.0000000000
40
0.0000000000
40
0.0000000000
40
0.0000000000
40
0.0000000000
40
0.4436722492
40
1.0000000000
40
1.0000000000
40
1.0000000000
40
1.0000000000
10
-39.3083993709
20
16.8033309065
30
0.0000000000
10
-39.2998544914
20
16.8287973532
30
0.0000000000
10
-39.2775666450
20
16.8851499384
30
0.0000000000
10
-39.2490081012
20
16.9382922012
30
0.0000000000
10
-39.2314858867
20
16.9668666716
30
0.0000000000
11
-39.3083993709
21
16.8033309065
31
0.0000000000
11
-39.2788431377
21
16.8781695735
31
0.0000000000
11
-39.2314858867
21
16.9668666716
31
0.0000000000
0
SPLINE
5
3BD
100
AcDbEntity
8
0
100
AcDbSpline
62
7
6
CONTINUOUS
70
0
71
3
72
8
73
4
74
2
42
0.0000001000
43
0.0000001000
44
0.0000000001
12
0.0043836017
22
0.0071485883
32
0.0000000000
13
0.0044512593
23
0.0071072851
33
0.0000000000
40
0.0000000000
40
0.0000000000
40
0.0000000000
40
0.0000000000
40
1.0000000000
40
1.0000000000
40
1.0000000000
40
1.0000000000
10
-39.2314858867
20
16.9668666716
30
0.0000000000
10
-39.2300246862
20
16.9692495344
30
0.0000000000
10
-39.2285521205
20
16.9716255122
30
0.0000000000
10
-39.2270683674
20
16.9739946073
30
0.0000000000
11
-39.2314858867
21
16.9668666716
31
0.0000000000
11
-39.2270683674
21
16.9739946073
31
0.0000000000
0
SPLINE
5
3BE
100
AcDbEntity
8
0
100
AcDbSpline
62
7
6
CONTINUOUS
70
0
71
3
72
13
73
9
74
7
42
0.0000001000
43
0.0000001000
44
0.0000000001
12
1.5033156603
22
2.4003304086
32
0.0000000000
13
2.8186233506
23
-0.1033277323
33
0.0000000000
40
0.0000000000
40
0.0000000000
40
0.0000000000
40
0.0000000000
40
0.0828708885
40
0.2257592663
40
0.3925089145
40
0.5808871900
40
0.7856681496
40
1.0000000000
40
1.0000000000
40
1.0000000000
40
1.0000000000
10
-39.2270683674
20
16.9739946073
30
0.0000000000
10
-39.1855413326
20
17.0403004451
30
0.0000000000
10
-39.0485389456
20
17.2062451866
30
0.0000000000
10
-38.7475476656
20
17.4257762148
30
0.0000000000
10
-38.3180039525
20
17.6183838060
30
0.0000000000
10
-37.8079536520
20
17.7555820665
30
0.0000000000
10
-37.2405000730
20
17.8313343605
30
0.0000000000
10
-36.8455555054
20
17.8383323739
30
0.0000000000
10
-36.6441819193
20
17.8309502325
30
0.0000000000
11
-39.2270683674
21
16.9739946073
31
0.0000000000
11
-39.0800938428
21
17.1567829300
31
0.0000000000
11
-38.7595370840
21
17.4010526965
31
0.0000000000
11
-38.3328659060
21
17.5989232583
31
0.0000000000
11
-37.8208069879
21
17.7407009900
31
0.0000000000
11
-37.2485969202
21
17.8193372435
31
0.0000000000
11
-36.6441819193
21
17.8309502325
31
0.0000000000
0
SPLINE
5
3BF
100
AcDbEntity
8
0
100
AcDbSpline
62
7
6
CONTINUOUS
70
0
71
3
72
12
73
8
74
6
42
0.0000001000
43
0.0000001000
44
0.0000000001
12
-2.8750063127
22
0.0434562960
32
0.0000000000
13
-2.3516508738
23
1.6627642292
33
0.0000000000
40
0.0000000000
40
0.0000000000
40
0.0000000000
40
0.0000000000
40
0.2476825863
40
0.4875166042
40
0.7118680349
40
0.9146293325
40
1.0000000000
40
1.0000000000
40
1.0000000000
40
1.0000000000
10
-36.6551803770
20
15.8850907193
30
0.0000000000
10
-36.8925433767
20
15.8886785085
30
0.0000000000
10
-37.3597703454
20
15.9201844472
30
0.0000000000
10
-38.0329913774
20
16.0391233706
30
0.0000000000
10
-38.6466163668
20
16.2243173701
30
0.0000000000
10
-39.0943899819
20
16.4309098574
30
0.0000000000
10
-39.3282800200
20
16.5793802510
30
0.0000000000
10
-39.3952006883
20
16.6266973483
30
0.0000000000
11
-36.6551803770
21
15.8850907193
31
0.0000000000
11
-37.3656977869
21
15.9335840474
31
0.0000000000
11
-38.0444537814
21
16.0554146919
31
0.0000000000
11
-38.6610219905
21
16.2450957177
31
0.0000000000
11
-39.1881134625
21
16.4942367912
31
0.0000000000
11
-39.3952006883
21
16.6266973483
31
0.0000000000
0
SPLINE
5
3C0
100
AcDbEntity
8
0
100
AcDbSpline
62
7
6
CONTINUOUS
70
0
71
3
72
12
73
8
74
6
42
0.0000001000
43
0.0000001000
44
0.0000000001
12
0.2223039118
22
-0.0033601681
32
0.0000000000
13
0.0000000000
23
-0.2223293052
33
0.0000000000
40
0.0000000000
40
0.0000000000
40
0.0000000000
40
0.0000000000
40
0.2745857204
40
0.5251257643
40
0.7280919118
40
0.8848131034
40
1.0000000000
40
1.0000000000
40
1.0000000000
40
1.0000000000
10
-30.7926973203
20
15.7964781142
30
0.0000000000
10
-30.7723501604
20
15.7961705628
30
0.0000000000
10
-30.7334406698
20
15.7934204949
30
0.0000000000
10
-30.6802518545
20
15.7833589167
30
0.0000000000
10
-30.6375066698
20
15.7679409666
30
0.0000000000
10
-30.6070998983
20
15.7495440745
30
0.0000000000
10
-30.5961878016
20
15.7301208444
30
0.0000000000
10
-30.5961878016
20
15.7215843702
30
0.0000000000
11
-30.7926973203
21
15.7964781142
31
0.0000000000
11
-30.7318087782
21
15.7920623494
31
0.0000000000
11
-30.6771923091
21
15.7811171225
31
0.0000000000
11
-30.6349564081
21
15.7652292845
31
0.0000000000
11
-30.6065992687
21
15.7449818889
31
0.0000000000
11
-30.5961878016
21
15.7215843702
31
0.0000000000
0
SPLINE
5
3C1
100
AcDbEntity
8
0
100
AcDbSpline
62
7
6
CONTINUOUS
70
0
71
3
72
9
73
5
74
3
42
0.0000001000
43
0.0000001000
44
0.0000000001
12
-0.0742085472
22
0.0788192943
32
0.0000000000
13
-0.0711561429
23
0.0816065153
33
0.0000000000
40
0.0000000000
40
0.0000000000
40
0.0000000000
40
0.0000000000
40
0.7590582405
40
1.0000000000
40
1.0000000000
40
1.0000000000
40
1.0000000000
10
-49.9996781422
20
21.0738952212
30
0.0000000000
10
-50.0184543453
20
21.0938380329
30
0.0000000000
10
-50.0432130805
20
21.1200931694
30
0.0000000000
10
-50.0671953322
20
21.1470661055
30
0.0000000000
10
-50.0729101609
20
21.1536202446
30
0.0000000000
11
-49.9996781422
21
21.0738952212
31
0.0000000000
11
-50.0555936032
21
21.1341099625
31
0.0000000000
11
-50.0729101609
21
21.1536202446
31
0.0000000000
0
SPLINE
5
3C2
100
AcDbEntity
8
0
100
AcDbSpline
62
7
6
CONTINUOUS
70
0
71
3
72
11
73
7
74
5
42
0.0000001000
43
0.0000001000
44
0.0000000001
12
-0.1579481857
22
0.1811453025
32
0.0000000000
13
-0.0449648229
23
0.2360561636
33
0.0000000000
40
0.0000000000
40
0.0000000000
40
0.0000000000
40
0.0000000000
40
0.2084560457
40
0.4981903005
40
0.7608124096
40
1.0000000000
40
1.0000000000
40
1.0000000000
40
1.0000000000
10
-50.0729101609
20
21.1536202446
30
0.0000000000
10
-50.0838852457
20
21.1662071891
30
0.0000000000
10
-50.1095549778
20
21.1967756379
30
0.0000000000
10
-50.1455758377
20
21.2460730325
30
0.0000000000
10
-50.1763033752
20
21.3017692089
30
0.0000000000
10
-50.1890705075
20
21.3402964724
30
0.0000000000
10
-50.1926555167
20
21.3591170407
30
0.0000000000
11
-50.0729101609
21
21.1536202446
31
0.0000000000
11
-50.1050023849
21
21.1920882553
31
0.0000000000
11
-50.1455637806
21
21.2486760334
31
0.0000000000
11
-50.1753744402
21
21.3042995331
31
0.0000000000
11
-50.1926555167
21
21.3591170407
31
0.0000000000
0
SPLINE
5
3C3
100
AcDbEntity
8
0
100
AcDbSpline
62
9
6
CONTINUOUS
70
0
71
3
72
12
73
8
74
6
42
0.0000001000
43
0.0000001000
44
0.0000000001
12
-0.0004885776
22
0.1226806094
32
0.0000000000
13
0.1226692461
23
-0.0017397394
33
0.0000000000
40
0.0000000000
40
0.0000000000
40
0.0000000000
40
0.0000000000
40
0.4117805905
40
0.6965570059
40
0.8764642702
40
0.9716621885
40
1.0000000000
40
1.0000000000
40
1.0000000000
40
1.0000000000
10
-49.9996783764
20
21.0738913509
30
0.0000000000
10
-49.9997454387
20
21.0907305155
30
0.0000000000
10
-50.0001953092
20
21.1196003410
30
0.0000000000
10
-49.9992225879
20
21.1542875326
30
0.0000000000
10
-50.0011880626
20
21.1793580384
30
0.0000000000
10
-49.9981419588
20
21.1884730100
30
0.0000000000
10
-50.0008370097
20
21.1965863014
30
0.0000000000
10
-49.9996782837
20
21.1965698679
30
0.0000000000
11
-49.9996783764
21
21.0738913509
31
0.0000000000
11
-49.9998499502
21
21.1244089539
31
0.0000000000
11
-49.9999125538
21
21.1593457191
31
0.0000000000
11
-49.9998913731
21
21.1814170168
31
0.0000000000
11
-49.9998076429
21
21.1930957479
31
0.0000000000
11
-49.9996782837
21
21.1965698679
31
0.0000000000
0
SPLINE
5
3C4
100
AcDbEntity
8
0
100
AcDbSpline
62
9
6
CONTINUOUS
70
0
71
3
72
10
73
6
74
4
42
0.0000001000
43
0.0000001000
44
0.0000000001
12
0.1599765708
22
0.0027924014
32
0.0000000000
13
-0.0016617545
23
0.1599923100
33
0.0000000000
40
0.0000000000
40
0.0000000000
40
0.0000000000
40
0.0000000000
40
0.1170123306
40
0.4588317985
40
1.0000000000
40
1.0000000000
40
1.0000000000
40
1.0000000000
10
-29.6874615984
20
-18.9085752160
30
0.0000000000
10
-29.6812218546
20
-18.9084663009
30
0.0000000000
10
-29.6945202619
20
-18.8693033162
30
0.0000000000
10
-29.6816724698
20
-18.8300271119
30
0.0000000000
10
-29.6871618355
20
-18.7774513524
30
0.0000000000
10
-29.6874615984
20
-18.7485904355
30
0.0000000000
11
-29.6874615984
21
-18.9085752160
31
0.0000000000
11
-29.6867563671
21
-18.8898664204
31
0.0000000000
11
-29.6867563671
21
-18.8351749843
31
0.0000000000
11
-29.6874615984
21
-18.7485904355
31
0.0000000000
0
SPLINE
5
3C5
100
AcDbEntity
8
0
100
AcDbSpline
62
7
6
CONTINUOUS
70
0
71
3
72
8
73
4
74
2
42
0.0000001000
43
0.0000001000
44
0.0000000001
12
0.0068947231
22
0.0361958974
32
0.0000000000
13
0.0122881089
23
0.0348506001
33
0.0000000000
40
0.0000000000
40
0.0000000000
40
0.0000000000
40
0.0000000000
40
1.0000000000
40
1.0000000000
40
1.0000000000
40
1.0000000000
10
-50.1926555167
20
-21.3591170407
30
0.0000000000
10
-50.1903572757
20
-21.3470517415
30
0.0000000000
10
-50.1870311137
20
-21.3351738526
30
0.0000000000
10
-50.1829350774
20
-21.3235569859
30
0.0000000000
11
-50.1926555167
21
-21.3591170407
31
0.0000000000
11
-50.1829350774
21
-21.3235569859
31
0.0000000000
0
SPLINE
5
3C6
100
AcDbEntity
8
0
100
AcDbSpline
62
7
6
CONTINUOUS
70
0
71
3
72
12
73
8
74
6
42
0.0000001000
43
0.0000001000
44
0.0000000001
12
0.0945690137
22
0.2682094455
32
0.0000000000
13
0.1939423915
23
0.2068855194
33
0.0000000000
40
0.0000000000
40
0.0000000000
40
0.0000000000
40
0.0000000000
40
0.0682293315
40
0.2900359878
40
0.5372902155
40
0.8082772628
40
1.0000000000
40
1.0000000000
40
1.0000000000
40
1.0000000000
10
-50.1829350774
20
-21.3235569859
30
0.0000000000
10
-50.1807842839
20
-21.3174570689
30
0.0000000000
10
-50.1707391376
20
-21.2918328726
30
0.0000000000
10
-50.1462754400
20
-21.2471300950
30
0.0000000000
10
-50.1050246620
20
-21.1904688585
30
0.0000000000
10
-50.0611143205
20
-21.1396687832
30
0.0000000000
10
-50.0313513611
20
-21.1076192245
30
0.0000000000
10
-50.0189569724
20
-21.0943976718
30
0.0000000000
11
-50.1829350774
21
-21.3235569859
31
0.0000000000
11
-50.1758832449
21
-21.3054838001
31
0.0000000000
11
-50.1463633162
21
-21.2499433872
31
0.0000000000
11
-50.1056270113
21
-21.1928771000
31
0.0000000000
11
-50.0558192164
21
-21.1343603133
31
0.0000000000
11
-50.0189569724
21
-21.0943976718
31
0.0000000000
0
SPLINE
5
3C7
100
AcDbEntity
8
0
100
AcDbSpline
62
7
6
CONTINUOUS
70
0
71
3
72
8
73
4
74
2
42
0.0000001000
43
0.0000001000
44
0.0000000001
12
0.0192474903
22
0.0205320095
32
0.0000000000
13
0.0192915253
23
0.0204900432
33
0.0000000000
40
0.0000000000
40
0.0000000000
40
0.0000000000
40
0.0000000000
40
1.0000000000
40
1.0000000000
40
1.0000000000
40
1.0000000000
10
-50.0189569724
20
-21.0943976718
30
0.0000000000
10
-50.0125411423
20
-21.0875536686
30
0.0000000000
10
-50.0061086524
20
-21.0807252356
30
0.0000000000
10
-49.9996781439
20
-21.0738952212
30
0.0000000000
11
-50.0189569724
21
-21.0943976718
31
0.0000000000
11
-49.9996781439
21
-21.0738952212
31
0.0000000000
0
SPLINE
5
3C8
100
AcDbEntity
8
0
100
AcDbSpline
62
9
6
CONTINUOUS
70
0
71
3
72
12
73
8
74
6
42
0.0000001000
43
0.0000001000
44
0.0000000001
12
-0.1226691505
22
-0.0017426836
32
0.0000000000
13
0.0004885749
23
0.1226805556
33
0.0000000000
40
0.0000000000
40
0.0000000000
40
0.0000000000
40
0.0000000000
40
0.0284482719
40
0.1239367080
40
0.3041520805
40
0.5889462903
40
1.0000000000
40
1.0000000000
40
1.0000000000
40
1.0000000000
10
-49.9996782836
20
-21.1965698707
30
0.0000000000
10
-50.0008415254
20
-21.1965863961
30
0.0000000000
10
-49.9981366310
20
-21.1884462909
30
0.0000000000
10
-50.0011903448
20
-21.1793103010
30
0.0000000000
10
-49.9992227720
20
-21.1542128587
30
0.0000000000
10
-50.0001941189
20
-21.1195405028
30
0.0000000000
10
-49.9997453186
20
-21.0907008368
30
0.0000000000
10
-49.9996783751
20
-21.0738914043
30
0.0000000000
11
-49.9996782836
21
-21.1965698707
31
0.0000000000
11
-49.9998078466
21
-21.1930821989
31
0.0000000000
11
-49.9998915388
21
-21.1813678306
31
0.0000000000
11
-49.9999125011
21
-21.1592587432
31
0.0000000000
11
-49.9998497127
21
-21.1243198106
31
0.0000000000
11
-49.9996783751
21
-21.0738914043
31
0.0000000000
0
SPLINE
5
3C9
100
AcDbEntity
8
0
100
AcDbSpline
62
9
6
CONTINUOUS
70
0
71
3
72
10
73
6
74
4
42
0.0000001000
43
0.0000001000
44
0.0000000001
12
0.0016443893
22
0.1585610329
32
0.0000000000
13
-0.1585454085
23
0.0027674204
33
0.0000000000
40
0.0000000000
40
0.0000000000
40
0.0000000000
40
0.0000000000
40
0.5413069530
40
0.8830441789
40
1.0000000000
40
1.0000000000
40
1.0000000000
40
1.0000000000
10
-43.6874615984
20
18.9943925461
30
0.0000000000
10
-43.6871648919
20
19.0230026093
30
0.0000000000
10
-43.6817232948
20
19.0751127640
30
0.0000000000
10
-43.6944568531
20
19.1140378696
30
0.0000000000
10
-43.6812806622
20
19.1528382364
30
0.0000000000
10
-43.6874615984
20
19.1529461250
30
0.0000000000
11
-43.6874615984
21
18.9943925461
31
0.0000000000
11
-43.6867635441
21
19.0802245126
31
0.0000000000
11
-43.6867635441
21
19.1344136340
31
0.0000000000
11
-43.6874615984
21
19.1529461250
31
0.0000000000
0
SPLINE
5
3CA
100
AcDbEntity
8
0
100
AcDbSpline
62
9
6
CONTINUOUS
70
0
71
3
72
12
73
8
74
6
42
0.0000001000
43
0.0000001000
44
0.0000000001
12
0.0000000000
22
-0.6543459063
32
0.0000000000
13
-0.6542998203
23
-0.0077659662
33
0.0000000000
40
0.0000000000
40
0.0000000000
40
0.0000000000
40
0.0000000000
40
0.1621024477
40
0.3409032942
40
0.5426955985
40
0.7653142321
40
1.0000000000
40
1.0000000000
40
1.0000000000
40
1.0000000000
10
-29.1961878016
20
-18.4086513684
30
0.0000000000
10
-29.1961878016
20
-18.4440083928
30
0.0000000000
10
-29.2143318954
20
-18.5191263149
30
0.0000000000
10
-29.2884574795
20
-18.6147593711
30
0.0000000000
10
-29.3993100363
20
-18.6888889660
30
0.0000000000
10
-29.5363127645
20
-18.7364346137
30
0.0000000000
10
-29.6362766465
20
-18.7479829150
30
0.0000000000
10
-29.6874615984
20
-18.7485904355
30
0.0000000000
11
-29.1961878016
21
-18.4086513684
31
0.0000000000
11
-29.2198689513
21
-18.5120451578
31
0.0000000000
11
-29.2892804698
21
-18.6062283833
31
0.0000000000
11
-29.3977944553
21
-18.6814600013
31
0.0000000000
11
-29.5349672014
21
-18.7304831349
31
0.0000000000
11
-29.6874615984
21
-18.7485904355
31
0.0000000000
0
SPLINE
5
3CB
100
AcDbEntity
8
0
100
AcDbSpline
62
9
6
CONTINUOUS
70
0
71
3
72
12
73
8
74
6
42
0.0000001000
43
0.0000001000
44
0.0000000001
12
0.0000000000
22
0.6553446444
32
0.0000000000
13
-0.6552980987
23
0.0078105608
33
0.0000000000
40
0.0000000000
40
0.0000000000
40
0.0000000000
40
0.0000000000
40
0.1633957721
40
0.3422571385
40
0.5437496066
40
0.7657947929
40
1.0000000000
40
1.0000000000
40
1.0000000000
40
1.0000000000
10
-43.1961878016
20
18.6530222774
30
0.0000000000
10
-43.1961878016
20
18.6887157922
30
0.0000000000
10
-43.2144508929
20
18.7642516726
30
0.0000000000
10
-43.2887569850
20
18.8602433190
30
0.0000000000
10
-43.3995333785
20
18.9345306911
30
0.0000000000
10
-43.5364162325
20
18.9821984691
30
0.0000000000
10
-43.6363035228
20
18.9937827881
30
0.0000000000
10
-43.6874615984
20
18.9943925461
30
0.0000000000
11
-43.1961878016
21
18.6530222774
31
0.0000000000
11
-43.2201231052
21
18.7573934621
31
0.0000000000
11
-43.2896374211
21
18.8517720227
31
0.0000000000
11
-43.3980753641
21
18.9271220414
31
0.0000000000
11
-43.5350549540
21
18.9762294157
31
0.0000000000
11
-43.6874615984
21
18.9943925461
31
0.0000000000
0
SPLINE
5
3CC
100
AcDbEntity
8
0
100
AcDbSpline
62
9
6
CONTINUOUS
70
0
71
3
72
11
73
7
74
5
42
0.0000001000
43
0.0000001000
44
0.0000000001
12
-0.0000000005
22
0.6328515405
32
0.0000000000
13
-0.6328142559
23
0.0068694839
33
0.0000000000
40
0.0000000000
40
0.0000000000
40
0.0000000000
40
0.0000000000
40
0.1951274818
40
0.4257875537
40
0.6992590634
40
1.0000000000
40
1.0000000000
40
1.0000000000
40
1.0000000000
10
-43.1961878016
20
16.9885336449
30
0.0000000000
10
-43.1961878016
20
17.0296958873
30
0.0000000000
10
-43.2280657924
20
17.1201965858
30
0.0000000000
10
-43.3430615426
20
17.2190170498
30
0.0000000000
10
-43.5024159845
20
17.2833196348
30
0.0000000000
10
-43.6240238810
20
17.2987533461
30
0.0000000000
10
-43.6874615984
20
17.2994419911
30
0.0000000000
11
-43.1961878016
21
16.9885336449
31
0.0000000000
11
-43.2334164260
21
17.1062748924
31
0.0000000000
11
-43.3395600333
21
17.2064837804
31
0.0000000000
11
-43.4988136625
21
17.2742364315
31
0.0000000000
11
-43.6874615984
21
17.2994419911
31
0.0000000000
0
SPLINE
5
3CD
100
AcDbEntity
8
0
100
AcDbSpline
62
9
6
CONTINUOUS
70
0
71
3
72
11
73
7
74
5
42
0.0000001000
43
0.0000001000
44
0.0000000001
12
0.0024156423
22
-1.2436205495
32
0.0000000000
13
-0.0018930035
23
-1.2436214548
33
0.0000000000
40
0.0000000000
40
0.0000000000
40
0.0000000000
40
0.0000000000
40
0.2243894251
40
0.4704533366
40
0.7313969287
40
1.0000000000
40
1.0000000000
40
1.0000000000
40
1.0000000000
10
-43.6874619080
20
17.2994309593
30
0.0000000000
10
-43.6872812264
20
17.2064125259
30
0.0000000000
10
-43.6870224600
20
17.0113904737
30
0.0000000000
10
-43.6869038728
20
16.7081964745
30
0.0000000000
10
-43.6870375269
20
16.3866741145
30
0.0000000000
10
-43.6872923391
20
16.1671554544
30
0.0000000000
10
-43.6874618280
20
16.0558086070
30
0.0000000000
11
-43.6874619080
21
17.2994309593
31
0.0000000000
11
-43.6870758968
21
17.0203753996
31
0.0000000000
11
-43.6869462269
21
16.7143647131
31
0.0000000000
11
-43.6870759227
21
16.3898493134
31
0.0000000000
11
-43.6874618280
21
16.0558086070
31
0.0000000000
0
SPLINE
5
3CE
100
AcDbEntity
8
0
100
AcDbSpline
62
9
6
CONTINUOUS
70
0
71
3
72
12
73
8
74
6
42
0.0000001000
43
0.0000001000
44
0.0000000001
12
0.0000000000
22
0.7220848120
32
0.0000000000
13
-0.7220023245
23
0.0109141695
33
0.0000000000
40
0.0000000000
40
0.0000000000
40
0.0000000000
40
0.0000000000
40
0.1856277751
40
0.3774616047
40
0.5777777357
40
0.7863528013
40
1.0000000000
40
1.0000000000
40
1.0000000000
40
1.0000000000
10
-29.1961878016
20
13.6487954595
30
0.0000000000
10
-29.1961878016
20
13.6934751252
30
0.0000000000
10
-29.2129161118
20
13.7850974739
30
0.0000000000
10
-29.2848118232
20
13.9071116743
30
0.0000000000
10
-29.3956581299
20
14.0035529613
30
0.0000000000
10
-29.5340816752
20
14.0657609081
30
0.0000000000
10
-29.6360436737
20
14.0809649509
30
0.0000000000
10
-29.6874615984
20
14.0817422114
30
0.0000000000
11
-29.1961878016
21
13.6487954595
31
0.0000000000
11
-29.2199547821
21
13.7807105207
31
0.0000000000
11
-29.2893949299
21
13.9005685114
31
0.0000000000
11
-29.3978468831
21
13.9962785846
31
0.0000000000
11
-29.5349254894
21
14.0586684276
31
0.0000000000
11
-29.6874615984
21
14.0817422114
31
0.0000000000
0
SPLINE
5
3CF
100
AcDbEntity
8
0
100
AcDbSpline
62
7
6
CONTINUOUS
70
0
71
3
72
11
73
7
74
5
42
0.0000001000
43
0.0000001000
44
0.0000000001
12
-0.4241153041
22
-0.4330133433
32
0.0000000000
13
-0.4307086758
23
-0.4264556053
33
0.0000000000
40
0.0000000000
40
0.0000000000
40
0.0000000000
40
0.0000000000
40
0.1706313739
40
0.3994898903
40
0.6829288867
40
1.0000000000
40
1.0000000000
40
1.0000000000
40
1.0000000000
10
-43.2589205846
20
14.2185111196
30
0.0000000000
10
-43.2830430436
20
14.1938825657
30
0.0000000000
10
-43.3397869208
20
14.1364831902
30
0.0000000000
10
-43.4371838538
20
14.0387504687
30
0.0000000000
10
-43.5558250048
20
13.9204201447
30
0.0000000000
10
-43.6419398386
20
13.8349553207
30
0.0000000000
10
-43.6874615984
20
13.7898830696
30
0.0000000000
11
-43.2589205846
21
14.2185111196
31
0.0000000000
11
-43.3315582444
21
14.1448911586
31
0.0000000000
11
-43.4294440918
21
14.0466056528
31
0.0000000000
11
-43.5510611358
21
13.9252660809
31
0.0000000000
11
-43.6874615984
21
13.7898830696
31
0.0000000000
0
SPLINE
5
3D0
100
AcDbEntity
8
0
100
AcDbSpline
62
7
6
CONTINUOUS
70
0
71
3
72
10
73
6
74
4
42
0.0000001000
43
0.0000001000
44
0.0000000001
12
-3.9999099472
22
-0.0844306542
32
0.0000000000
13
-4.0000789575
23
-0.0760029924
33
0.0000000000
40
0.0000000000
40
0.0000000000
40
0.0000000000
40
0.0000000000
40
0.3303097417
40
0.6636505372
40
1.0000000000
40
1.0000000000
40
1.0000000000
40
1.0000000000
10
-50.1961878016
20
-23.0998904748
30
0.0000000000
10
-50.6365908754
20
-23.1091865640
30
0.0000000000
10
-51.5214458965
20
-23.1275074450
30
0.0000000000
10
-52.8547802476
20
-23.1541449052
30
0.0000000000
10
-53.7477129987
20
-23.1713873732
30
0.0000000000
10
-54.1961878016
20
-23.1799085618
30
0.0000000000
11
-50.1961878016
21
-23.0998904748
31
0.0000000000
11
-51.5174077776
21
-23.1272645049
31
0.0000000000
11
-52.8507715930
21
-23.1539170037
31
0.0000000000
11
-54.1961878016
21
-23.1799085618
31
0.0000000000
0
SPLINE
5
3D1
100
AcDbEntity
8
0
100
AcDbSpline
62
9
6
CONTINUOUS
70
0
71
3
72
8
73
4
74
2
42
0.0000001000
43
0.0000001000
44
0.0000000001
12
-0.0000019602
22
0.0323323933
32
0.0000000000
13
-0.0028046255
23
0.0322965194
33
0.0000000000
40
0.0000000000
40
0.0000000000
40
0.0000000000
40
0.0000000000
40
1.0000000000
40
1.0000000000
40
1.0000000000
40
1.0000000000
10
-29.1961878016
20
14.9383877031
30
0.0000000000
10
-29.1961884550
20
14.9491651676
30
0.0000000000
10
-29.1966611131
20
14.9599594474
30
0.0000000000
10
-29.1975959883
20
14.9707249539
30
0.0000000000
11
-29.1961878016
21
14.9383877031
31
0.0000000000
11
-29.1975959883
21
14.9707249539
31
0.0000000000
0
SPLINE
5
3D2
100
AcDbEntity
8
0
100
AcDbSpline
62
9
6
CONTINUOUS
70
0
71
3
72
12
73
8
74
6
42
0.0000001000
43
0.0000001000
44
0.0000000001
12
-0.0498549513
22
0.5741020947
32
0.0000000000
13
-0.5616609808
23
0.1284447777
33
0.0000000000
40
0.0000000000
40
0.0000000000
40
0.0000000000
40
0.0000000000
40
0.1236951129
40
0.3257844826
40
0.5464747540
40
0.7756862804
40
1.0000000000
40
1.0000000000
40
1.0000000000
40
1.0000000000
10
-29.1975959883
20
14.9707249539
30
0.0000000000
10
-29.1996515929
20
14.9943961617
30
0.0000000000
10
-29.2109512502
20
15.0563742920
30
0.0000000000
10
-29.2546971297
20
15.1530793447
30
0.0000000000
10
-29.3375858587
20
15.2488067106
30
0.0000000000
10
-29.4465511890
20
15.3208995501
30
0.0000000000
10
-29.5292297261
20
15.3500189486
30
0.0000000000
10
-29.5712258140
20
15.3596229239
30
0.0000000000
11
-29.1975959883
21
14.9707249539
31
0.0000000000
11
-29.2103628322
21
15.0408366059
31
0.0000000000
11
-29.2577560514
21
15.1468763478
31
0.0000000000
11
-29.3402358550
21
15.2432367942
31
0.0000000000
11
-29.4497388682
21
15.3164742374
31
0.0000000000
11
-29.5712258140
21
15.3596229239
31
0.0000000000
0
SPLINE
5
3D3
100
AcDbEntity
8
0
100
AcDbSpline
62
9
6
CONTINUOUS
70
0
71
3
72
8
73
4
74
2
42
0.0000001000
43
0.0000001000
44
0.0000000001
12
-0.1144452095
22
0.0261721750
32
0.0000000000
13
-0.1170858574
23
0.0023864133
33
0.0000000000
40
0.0000000000
40
0.0000000000
40
0.0000000000
40
0.0000000000
40
1.0000000000
40
1.0000000000
40
1.0000000000
40
1.0000000000
10
-29.5712258140
20
15.3596229239
30
0.0000000000
10
-29.6093742172
20
15.3683469823
30
0.0000000000
10
-29.6484329792
20
15.3731115488
30
0.0000000000
10
-29.6874615984
20
15.3739070199
30
0.0000000000
11
-29.5712258140
21
15.3596229239
31
0.0000000000
11
-29.6874615984
21
15.3739070199
31
0.0000000000
0
SPLINE
5
3D4
100
AcDbEntity
8
0
100
AcDbSpline
62
7
6
CONTINUOUS
70
0
71
3
72
10
73
6
74
4
42
0.0000001000
43
0.0000001000
44
0.0000000001
12
-3.9999099472
22
0.0844306542
32
0.0000000000
13
-4.0000789575
23
0.0760029924
33
0.0000000000
40
0.0000000000
40
0.0000000000
40
0.0000000000
40
0.0000000000
40
0.3303097417
40
0.6636505372
40
1.0000000000
40
1.0000000000
40
1.0000000000
40
1.0000000000
10
-50.1961878016
20
23.0998904748
30
0.0000000000
10
-50.6365908754
20
23.1091865640
30
0.0000000000
10
-51.5214458965
20
23.1275074450
30
0.0000000000
10
-52.8547802476
20
23.1541449052
30
0.0000000000
10
-53.7477129987
20
23.1713873732
30
0.0000000000
10
-54.1961878016
20
23.1799085618
30
0.0000000000
11
-50.1961878016
21
23.0998904748
31
0.0000000000
11
-51.5174077776
21
23.1272645049
31
0.0000000000
11
-52.8507715930
21
23.1539170037
31
0.0000000000
11
-54.1961878016
21
23.1799085618
31
0.0000000000
0
SPLINE
5
3D5
100
AcDbEntity
8
0
100
AcDbSpline
62
9
6
CONTINUOUS
70
0
71
3
72
9
73
5
74
3
42
0.0000001000
43
0.0000001000
44
0.0000000001
12
-24.5087227592
22
-0.1408469882
32
0.0000000000
13
-24.5087296056
23
-0.1396505722
33
0.0000000000
40
0.0000000000
40
0.0000000000
40
0.0000000000
40
0.0000000000
40
0.5009779212
40
1.0000000000
40
1.0000000000
40
1.0000000000
40
1.0000000000
10
-29.6874615984
20
-17.2191834718
30
0.0000000000
10
-33.7802379245
20
-17.2427038822
30
0.0000000000
10
-41.9498127597
20
-17.2895516302
30
0.0000000000
10
-50.1193887358
20
-17.3361999962
30
0.0000000000
10
-54.1961878016
20
-17.3594295692
30
0.0000000000
11
-29.6874615984
21
-17.2191834718
31
0.0000000000
11
-41.9657914464
21
-17.2895932163
31
0.0000000000
11
-54.1961878016
21
-17.3594295692
31
0.0000000000
0
SPLINE
5
3D6
100
AcDbEntity
8
0
100
AcDbSpline
62
9
6
CONTINUOUS
70
0
71
3
72
9
73
5
74
3
42
0.0000001000
43
0.0000001000
44
0.0000000001
12
-24.5087219438
22
-0.1500084636
32
0.0000000000
13
-24.5087304085
23
-0.1486190413
33
0.0000000000
40
0.0000000000
40
0.0000000000
40
0.0000000000
40
0.0000000000
40
0.5009779277
40
1.0000000000
40
1.0000000000
40
1.0000000000
40
1.0000000000
10
-29.6874615984
20
-15.9703486468
30
0.0000000000
10
-33.7802378417
20
-15.9953989566
30
0.0000000000
10
-41.9498125434
20
-16.0452841370
30
0.0000000000
10
-50.1193886557
20
-16.0949377720
30
0.0000000000
10
-54.1961878016
20
-16.1196591660
30
0.0000000000
11
-29.6874615984
21
-15.9703486468
31
0.0000000000
11
-41.9657914043
21
-16.0453235922
31
0.0000000000
11
-54.1961878016
21
-16.1196591660
31
0.0000000000
0
SPLINE
5
3D7
100
AcDbEntity
8
0
100
AcDbSpline
62
7
6
CONTINUOUS
70
0
71
3
72
11
73
7
74
5
42
0.0000001000
43
0.0000001000
44
0.0000000001
12
-0.5873725869
22
0.0102526266
32
0.0000000000
13
-0.5581396896
23
-0.1832805475
33
0.0000000000
40
0.0000000000
40
0.0000000000
40
0.0000000000
40
0.0000000000
40
0.2875137716
40
0.5492785809
40
0.7864468733
40
1.0000000000
40
1.0000000000
40
1.0000000000
40
1.0000000000
10
-37.9869912692
20
19.0534440453
30
0.0000000000
10
-38.0432838385
20
19.0544266358
30
0.0000000000
10
-38.1508754393
20
19.0545555868
30
0.0000000000
10
-38.3047934424
20
19.0469376372
30
0.0000000000
10
-38.4433963763
20
19.0298626607
30
0.0000000000
10
-38.5296674590
20
19.0096796133
30
0.0000000000
10
-38.5693982843
20
18.9966329019
30
0.0000000000
11
-37.9869912692
21
19.0534440453
31
0.0000000000
11
-38.1558942844
21
19.0530685161
31
0.0000000000
11
-38.3094453914
21
19.0447384074
31
0.0000000000
11
-38.4476000262
21
19.0266991743
31
0.0000000000
11
-38.5693982843
21
18.9966329019
31
0.0000000000
0
SPLINE
5
3D8
100
AcDbEntity
8
0
100
AcDbSpline
62
7
6
CONTINUOUS
70
0
71
3
72
14
73
10
74
8
42
0.0000001000
43
0.0000001000
44
0.0000000001
12
0.0000000000
22
3.2914111532
32
0.0000000000
13
3.2754801403
23
0.0285868593
33
0.0000000000
40
0.0000000000
40
0.0000000000
40
0.0000000000
40
0.0000000000
40
0.0946525866
40
0.2014655026
40
0.3272990793
40
0.4735077931
40
0.6377141212
40
0.8152297799
40
1.0000000000
40
1.0000000000
40
1.0000000000
40
1.0000000000
10
-39.3461878016
20
17.0291651246
30
0.0000000000
10
-39.3461878016
20
17.1330119844
30
0.0000000000
10
-39.2931099570
20
17.3540472518
30
0.0000000000
10
-39.0776618357
20
17.6475051627
30
0.0000000000
10
-38.7478465644
20
17.9031289735
30
0.0000000000
10
-38.3186366342
20
18.1151609098
30
0.0000000000
10
-37.8088080667
20
18.2755545041
30
0.0000000000
10
-37.2416593153
20
18.3771244353
30
0.0000000000
10
-36.8459189815
20
18.4021950387
30
0.0000000000
10
-36.6441819193
20
18.4039557054
30
0.0000000000
11
-39.3461878016
21
17.0291651246
31
0.0000000000
11
-39.2787569732
21
17.3317880912
31
0.0000000000
11
-39.0797713365
21
17.6195702451
31
0.0000000000
11
-38.7589892669
21
17.8783985763
31
0.0000000000
11
-38.3321421104
21
18.0955799873
31
0.0000000000
11
-37.8201627088
21
18.2604637710
31
0.0000000000
11
-37.2481588403
21
18.3649639273
31
0.0000000000
11
-36.6441819193
21
18.4039557054
31
0.0000000000
0
SPLINE
5
3D9
100
AcDbEntity
8
0
100
AcDbSpline
62
9
6
CONTINUOUS
70
0
71
3
72
10
73
6
74
4
42
0.0000001000
43
0.0000001000
44
0.0000000001
12
4.0000000196
22
0.0702511788
32
0.0000000000
13
3.9999999803
23
0.0702534154
33
0.0000000000
40
0.0000000000
40
0.0000000000
40
0.0000000000
40
0.0000000000
40
0.3331946317
40
0.6665279651
40
1.0000000000
40
1.0000000000
40
1.0000000000
40
1.0000000000
10
-54.1961878016
20
-23.3333596575
30
0.0000000000
10
-53.7519282904
20
-23.3255572189
30
0.0000000000
10
-52.8632243341
20
-23.3099490114
30
0.0000000000
10
-51.5298910007
20
-23.2865315799
30
0.0000000000
10
-50.6408171793
20
-23.2709165449
30
0.0000000000
10
-50.1961878016
20
-23.2631073618
30
0.0000000000
11
-54.1961878016
21
-23.3333596575
31
0.0000000000
11
-52.8634092703
21
-23.3099522180
31
0.0000000000
11
-51.5300759369
21
-23.2865347865
31
0.0000000000
11
-50.1961878016
21
-23.2631073618
31
0.0000000000
0
SPLINE
5
3DA
100
AcDbEntity
8
0
100
AcDbSpline
62
9
6
CONTINUOUS
70
0
71
3
72
11
73
7
74
5
42
0.0000001000
43
0.0000001000
44
0.0000000001
12
0.0000000017
22
-0.2372078234
32
0.0000000000
13
-0.2371987900
23
-0.0020701556
33
0.0000000000
40
0.0000000000
40
0.0000000000
40
0.0000000000
40
0.0000000000
40
0.1715284867
40
0.3962379445
40
0.6800587479
40
1.0000000000
40
1.0000000000
40
1.0000000000
40
1.0000000000
10
-29.1961878016
20
17.6525554521
30
0.0000000000
10
-29.1961878015
20
17.6389928191
30
0.0000000000
10
-29.2107377192
20
17.6080217614
30
0.0000000000
10
-29.2567258763
20
17.5778744797
30
0.0000000000
10
-29.3194998984
20
17.5575824779
30
0.0000000000
10
-29.3674007591
20
17.5527914581
30
0.0000000000
10
-29.3926973184
20
17.5525706820
30
0.0000000000
11
-29.1961878016
21
17.6525554521
31
0.0000000000
11
-29.2110796074
21
17.6146907027
31
0.0000000000
11
-29.2535375048
21
17.5824646286
31
0.0000000000
11
-29.3172388546
21
17.5606763669
31
0.0000000000
11
-29.3926973184
21
17.5525706820
31
0.0000000000
0
SPLINE
5
3DB
100
AcDbEntity
8
0
100
AcDbSpline
62
9
6
CONTINUOUS
70
0
71
3
72
14
73
10
74
8
42
0.0000001000
43
0.0000001000
44
0.0000000001
12
0.0234727399
22
-0.4474692156
32
0.0000000000
13
-0.2049352074
23
-0.3709130675
33
0.0000000000
40
0.0000000000
40
0.0000000000
40
0.0000000000
40
0.0000000000
40
0.1851324242
40
0.3818165915
40
0.5737407322
40
0.7453138467
40
0.8813997771
40
0.9706454324
40
1.0000000000
40
1.0000000000
40
1.0000000000
40
1.0000000000
10
-29.3926973332
20
17.5525711079
30
0.0000000000
10
-29.3912488115
20
17.5249574210
30
0.0000000000
10
-29.3886130384
20
17.4679765257
30
0.0000000000
10
-29.3855786107
20
17.3823888660
30
0.0000000000
10
-29.3830673043
20
17.2985669785
30
0.0000000000
10
-29.3826598016
20
17.2245201394
30
0.0000000000
10
-29.3803871900
20
17.1637626423
30
0.0000000000
10
-29.3853099218
20
17.1285712361
30
0.0000000000
10
-29.3821748339
20
17.1078574951
30
0.0000000000
10
-29.3841800954
20
17.1042281642
30
0.0000000000
11
-29.3926973332
21
17.5525711079
31
0.0000000000
11
-29.3888377002
21
17.4697059855
31
0.0000000000
11
-29.3856336528
21
17.3816331315
31
0.0000000000
11
-29.3833476987
21
17.2956652970
31
0.0000000000
11
-29.3821610437
21
17.2187952123
31
0.0000000000
11
-29.3821781468
21
17.1578172263
31
0.0000000000
11
-29.3833942668
21
17.1178461324
31
0.0000000000
11
-29.3841800954
21
17.1042281642
31
0.0000000000
0
SPLINE
5
3DC
100
AcDbEntity
8
0
100
AcDbSpline
62
9
6
CONTINUOUS
70
0
71
3
72
8
73
4
74
2
42
0.0000001000
43
0.0000001000
44
0.0000000001
12
-0.0011895994
22
-0.0021530607
32
0.0000000000
13
-0.0019143657
23
-0.0017608290
33
0.0000000000
40
0.0000000000
40
0.0000000000
40
0.0000000000
40
0.0000000000
40
1.0000000000
40
1.0000000000
40
1.0000000000
40
1.0000000000
10
-29.3841800954
20
17.1042281642
30
0.0000000000
10
-29.3845766285
20
17.1035104773
30
0.0000000000
10
-29.3850819175
20
17.1028513479
30
0.0000000000
10
-29.3857200394
20
17.1022644049
30
0.0000000000
11
-29.3841800954
21
17.1042281642
31
0.0000000000
11
-29.3857200394
21
17.1022644049
31
0.0000000000
0
SPLINE
5
3DD
100
AcDbEntity
8
0
100
AcDbSpline
62
7
6
CONTINUOUS
70
0
71
3
72
9
73
5
74
3
42
0.0000001000
43
0.0000001000
44
0.0000000001
12
0.0000000000
22
-0.1552442160
32
0.0000000000
13
-0.1086287943
23
-0.1109078520
33
0.0000000000
40
0.0000000000
40
0.0000000000
40
0.0000000000
40
0.0000000000
40
0.4758353585
40
1.0000000000
40
1.0000000000
40
1.0000000000
40
1.0000000000
10
-43.1961878016
20
14.3572435990
30
0.0000000000
10
-43.1961878016
20
14.3326200366
30
0.0000000000
10
-43.2084004193
20
14.2804081589
30
0.0000000000
10
-43.2399407936
20
14.2378891111
30
0.0000000000
10
-43.2589205846
20
14.2185111196
30
0.0000000000
11
-43.1961878016
21
14.3572435990
31
0.0000000000
11
-43.2121863691
21
14.2851261652
31
0.0000000000
11
-43.2589205846
21
14.2185111196
31
0.0000000000
0
SPLINE
5
3DE
100
AcDbEntity
8
0
100
AcDbSpline
62
9
6
CONTINUOUS
70
0
71
3
72
11
73
7
74
5
42
0.0000001000
43
0.0000001000
44
0.0000000001
12
0.0000000000
22
-0.2372078189
32
0.0000000000
13
-0.2371987854
23
-0.0020701602
33
0.0000000000
40
0.0000000000
40
0.0000000000
40
0.0000000000
40
0.0000000000
40
0.1715290746
40
0.3962388943
40
0.6800594867
40
1.0000000000
40
1.0000000000
40
1.0000000000
40
1.0000000000
10
-29.1961878016
20
18.4086513684
30
0.0000000000
10
-29.1961878016
20
18.3950886892
30
0.0000000000
10
-29.2107378075
20
18.3641175674
30
0.0000000000
10
-29.2567260491
20
18.3339703248
30
0.0000000000
10
-29.3195000366
20
18.3136783771
30
0.0000000000
10
-29.3674008199
20
18.3088873750
30
0.0000000000
10
-29.3926973203
20
18.3086665989
30
0.0000000000
11
-29.1961878016
21
18.4086513684
31
0.0000000000
11
-29.2110797008
21
18.3707865068
31
0.0000000000
11
-29.2535377118
21
18.3385604421
31
0.0000000000
11
-29.3172390303
21
18.3167722475
31
0.0000000000
11
-29.3926973203
21
18.3086665989
31
0.0000000000
0
SPLINE
5
3DF
100
AcDbEntity
8
0
100
AcDbSpline
62
9
6
CONTINUOUS
70
0
71
3
72
16
73
12
74
10
42
0.0000001000
43
0.0000001000
44
0.0000000001
12
0.4652712672
22
-0.0081137470
32
0.0000000000
13
-0.0001214631
23
-0.4653419928
33
0.0000000000
40
0.0000000000
40
0.0000000000
40
0.0000000000
40
0.0000000000
40
0.0782309005
40
0.1613020468
40
0.2526920427
40
0.3530654561
40
0.4622963915
40
0.5807444830
40
0.7090992333
40
0.8484699843
40
1.0000000000
40
1.0000000000
40
1.0000000000
40
1.0000000000
10
-29.6874615984
20
18.6086209075
30
0.0000000000
10
-29.6753287350
20
18.6084093256
30
0.0000000000
10
-29.6503130466
20
18.6064500559
30
0.0000000000
10
-29.6118229863
20
18.5985135190
30
0.0000000000
10
-29.5714785298
20
18.5842990450
30
0.0000000000
10
-29.5300641444
20
18.5623367390
30
0.0000000000
10
-29.4893710930
20
18.5313788587
30
0.0000000000
10
-29.4517717956
20
18.4905054045
30
0.0000000000
10
-29.4201558201
20
18.4391520619
30
0.0000000000
10
-29.3980517951
20
18.3774812274
30
0.0000000000
10
-29.3926911852
20
18.3321710254
30
0.0000000000
10
-29.3926973203
20
18.3086665989
30
0.0000000000
11
-29.6874615984
21
18.6086209075
31
0.0000000000
11
-29.6511686462
21
18.6057780399
31
0.0000000000
11
-29.6133086396
21
18.5979713484
31
0.0000000000
11
-29.5731981079
21
18.5838383243
31
0.0000000000
11
-29.5319340432
21
18.5619542882
31
0.0000000000
11
-29.4914806817
21
18.5311778637
31
0.0000000000
11
-29.4541673210
21
18.4906093630
31
0.0000000000
11
-29.4228513557
21
18.4397483100
31
0.0000000000
11
-29.4009827879
21
18.3786914084
31
0.0000000000
11
-29.3926973203
21
18.3086665989
31
0.0000000000
0
SPLINE
5
3E0
100
AcDbEntity
8
0
100
AcDbSpline
62
9
6
CONTINUOUS
70
0
71
3
72
9
73
5
74
3
42
0.0000001000
43
0.0000001000
44
0.0000000001
12
-10.5087254313
22
0.0639775136
32
0.0000000000
13
-10.5087269710
23
0.0637241057
33
0.0000000000
40
0.0000000000
40
0.0000000000
40
0.0000000000
40
0.0000000000
40
0.5004211830
40
1.0000000000
40
1.0000000000
40
1.0000000000
40
1.0000000000
10
-43.6874615984
20
16.0558086086
30
0.0000000000
10
-45.4403912024
20
16.0664805096
30
0.0000000000
10
-48.9432998089
20
16.0877850865
30
0.0000000000
10
-52.4462086721
20
16.1090474282
30
0.0000000000
10
-54.1961878016
20
16.1196591660
30
0.0000000000
11
-43.6874615984
21
16.0558086086
31
0.0000000000
11
-48.9462506042
21
16.0877924562
31
0.0000000000
11
-54.1961878016
21
16.1196591660
31
0.0000000000
0
SPLINE
5
3E1
100
AcDbEntity
8
0
100
AcDbSpline
62
9
6
CONTINUOUS
70
0
71
3
72
9
73
5
74
3
42
0.0000001000
43
0.0000001000
44
0.0000000001
12
-10.5087255786
22
0.0600969244
32
0.0000000000
13
-10.5087268246
23
0.0598786530
33
0.0000000000
40
0.0000000000
40
0.0000000000
40
0.0000000000
40
0.0000000000
40
0.5004211783
40
1.0000000000
40
1.0000000000
40
1.0000000000
40
1.0000000000
10
-43.6874615984
20
17.2994419902
30
0.0000000000
10
-45.4403912106
20
17.3094665814
30
0.0000000000
10
-48.9432998415
20
17.3294805799
30
0.0000000000
10
-52.4462086801
20
17.3494582002
30
0.0000000000
10
-54.1961878016
20
17.3594295692
30
0.0000000000
11
-43.6874615984
21
17.2994419902
31
0.0000000000
11
-48.9462505918
21
17.3294883289
31
0.0000000000
11
-54.1961878016
21
17.3594295692
31
0.0000000000
0
SPLINE
5
3E2
100
AcDbEntity
8
0
100
AcDbSpline
62
9
6
CONTINUOUS
70
0
71
3
72
12
73
8
74
6
42
0.0000001000
43
0.0000001000
44
0.0000000001
12
0.0000515118
22
-0.2401083617
32
0.0000000000
13
0.2398851066
23
-0.0103519864
33
0.0000000000
40
0.0000000000
40
0.0000000000
40
0.0000000000
40
0.0000000000
40
0.1473976782
40
0.3278238351
40
0.5398315858
40
0.7681924796
40
1.0000000000
40
1.0000000000
40
1.0000000000
40
1.0000000000
10
-30.5961878016
20
18.7278976383
30
0.0000000000
10
-30.5961852707
20
18.7161004999
30
0.0000000000
10
-30.5858868837
20
18.6899319315
30
0.0000000000
10
-30.5523215697
20
18.6614280302
30
0.0000000000
10
-30.5071895879
20
18.6398338568
30
0.0000000000
10
-30.4549426350
20
18.6260333796
30
0.0000000000
10
-30.4182140068
20
18.6218525854
30
0.0000000000
10
-30.3996782829
20
18.6210526959
30
0.0000000000
11
-30.5961878016
21
18.7278976383
31
0.0000000000
11
-30.5848856785
21
18.6943593866
31
0.0000000000
11
-30.5534123202
21
18.6645901295
31
0.0000000000
11
-30.5078652979
21
18.6418575323
31
0.0000000000
11
-30.4549739618
21
18.6274012275
31
0.0000000000
11
-30.3996782829
21
18.6210526959
31
0.0000000000
0
SPLINE
5
3E3
100
AcDbEntity
8
0
100
AcDbSpline
62
9
6
CONTINUOUS
70
0
71
3
72
10
73
6
74
4
42
0.0000001000
43
0.0000001000
44
0.0000000001
12
4.0000000196
22
-0.0702511788
32
0.0000000000
13
3.9999999803
23
-0.0702534154
33
0.0000000000
40
0.0000000000
40
0.0000000000
40
0.0000000000
40
0.0000000000
40
0.3331946317
40
0.6665279651
40
1.0000000000
40
1.0000000000
40
1.0000000000
40
1.0000000000
10
-54.1961878016
20
23.3333596575
30
0.0000000000
10
-53.7519282904
20
23.3255572189
30
0.0000000000
10
-52.8632243341
20
23.3099490114
30
0.0000000000
10
-51.5298910007
20
23.2865315799
30
0.0000000000
10
-50.6408171793
20
23.2709165449
30
0.0000000000
10
-50.1961878016
20
23.2631073618
30
0.0000000000
11
-54.1961878016
21
23.3333596575
31
0.0000000000
11
-52.8634092703
21
23.3099522180
31
0.0000000000
11
-51.5300759369
21
23.2865347865
31
0.0000000000
11
-50.1961878016
21
23.2631073618
31
0.0000000000
0
SPLINE
5
3E4
100
AcDbEntity
8
0
100
AcDbSpline
62
9
6
CONTINUOUS
70
0
71
3
72
8
73
4
74
2
42
0.0000001000
43
0.0000001000
44
0.0000000001
12
0.0007919704
22
0.0226809166
32
0.0000000000
13
0.0014332448
23
-0.0005278101
33
0.0000000000
40
0.0000000000
40
0.0000000000
40
0.0000000000
40
0.0000000000
40
1.0000000000
40
1.0000000000
40
1.0000000000
40
1.0000000000
10
-29.6874615984
20
15.3739070199
30
0.0000000000
10
-29.6871976083
20
15.3814673254
30
0.0000000000
10
-29.6870313305
20
15.3998457280
30
0.0000000000
10
-29.6865535823
20
15.3996697912
30
0.0000000000
11
-29.6874615984
21
15.3739070199
31
0.0000000000
11
-29.6865535823
21
15.3996697912
31
0.0000000000
0
SPLINE
5
3E5
100
AcDbEntity
8
0
100
AcDbSpline
62
9
6
CONTINUOUS
70
0
71
3
72
8
73
4
74
2
42
0.0000001000
43
0.0000001000
44
0.0000000001
12
0.0007919697
22
0.0226808961
32
0.0000000000
13
0.0014332267
23
-0.0005275789
33
0.0000000000
40
0.0000000000
40
0.0000000000
40
0.0000000000
40
0.0000000000
40
1.0000000000
40
1.0000000000
40
1.0000000000
40
1.0000000000
10
-30.3996782829
20
15.3908891588
30
0.0000000000
10
-30.3994142930
20
15.3984494575
30
0.0000000000
10
-30.3992480083
20
15.4168278020
30
0.0000000000
10
-30.3987702661
20
15.4166519423
30
0.0000000000
11
-30.3996782829
21
15.3908891588
31
0.0000000000
11
-30.3987702661
21
15.4166519423
31
0.0000000000
0
SPLINE
5
3E6
100
AcDbEntity
8
0
100
AcDbSpline
62
9
6
CONTINUOUS
70
0
71
3
72
8
73
4
74
2
42
0.0000001000
43
0.0000001000
44
0.0000000001
12
-0.0600409578
22
0.0014317035
32
0.0000000000
13
-0.0597793608
23
0.0059757898
33
0.0000000000
40
0.0000000000
40
0.0000000000
40
0.0000000000
40
0.0000000000
40
1.0000000000
40
1.0000000000
40
1.0000000000
40
1.0000000000
10
-30.3996782829
20
15.3908891588
30
0.0000000000
10
-30.4196919355
20
15.3913663933
30
0.0000000000
10
-30.4396960638
20
15.3925925146
30
0.0000000000
10
-30.4596225174
20
15.3945844445
30
0.0000000000
11
-30.3996782829
21
15.3908891588
31
0.0000000000
11
-30.4596225174
21
15.3945844445
31
0.0000000000
0
SPLINE
5
3E7
100
AcDbEntity
8
0
100
AcDbSpline
62
9
6
CONTINUOUS
70
0
71
3
72
8
73
4
74
2
42
0.0000001000
43
0.0000001000
44
0.0000000001
12
-0.0200076199
22
0.0020000437
32
0.0000000000
13
-0.0199477059
23
0.0025209789
33
0.0000000000
40
0.0000000000
40
0.0000000000
40
0.0000000000
40
0.0000000000
40
1.0000000000
40
1.0000000000
40
1.0000000000
40
1.0000000000
10
-30.4596225174
20
15.3945844445
30
0.0000000000
10
-30.4662917241
20
15.3952511257
30
0.0000000000
10
-30.4729522297
20
15.3960035914
30
0.0000000000
10
-30.4796014650
20
15.3968439177
30
0.0000000000
11
-30.4596225174
21
15.3945844445
31
0.0000000000
11
-30.4796014650
21
15.3968439177
31
0.0000000000
0
SPLINE
5
3E8
100
AcDbEntity
8
0
100
AcDbSpline
62
9
6
CONTINUOUS
70
0
71
3
72
9
73
5
74
3
42
0.0000001000
43
0.0000001000
44
0.0000000001
12
-0.0594177680
22
0.0075091813
32
0.0000000000
13
-0.0586024505
23
0.0123669853
33
0.0000000000
40
0.0000000000
40
0.0000000000
40
0.0000000000
40
0.0000000000
40
0.6694772740
40
1.0000000000
40
1.0000000000
40
1.0000000000
40
1.0000000000
10
-30.4796014650
20
15.3968439177
30
0.0000000000
10
-30.4928610802
20
15.3985196598
30
0.0000000000
10
-30.5126000575
20
15.4015446077
30
0.0000000000
10
-30.5321935782
20
15.4053858347
30
0.0000000000
10
-30.5386500588
20
15.4067483579
30
0.0000000000
11
-30.4796014650
21
15.3968439177
31
0.0000000000
11
-30.5192254800
21
15.4029357837
31
0.0000000000
11
-30.5386500588
21
15.4067483579
31
0.0000000000
0
SPLINE
5
3E9
100
AcDbEntity
8
0
100
AcDbSpline
62
9
6
CONTINUOUS
70
0
71
3
72
10
73
6
74
4
42
0.0000001000
43
0.0000001000
44
0.0000000001
12
-0.1275514057
22
0.0269174129
32
0.0000000000
13
-0.1179342707
23
0.0556063323
33
0.0000000000
40
0.0000000000
40
0.0000000000
40
0.0000000000
40
0.0000000000
40
0.2990258221
40
0.7287955333
40
1.0000000000
40
1.0000000000
40
1.0000000000
40
1.0000000000
10
-30.5386500588
20
15.4067483579
30
0.0000000000
10
-30.5513637801
20
15.4094313585
30
0.0000000000
10
-30.5821646300
20
15.4168484968
30
0.0000000000
10
-30.6235748265
20
15.4301945807
30
0.0000000000
10
-30.6516594461
20
15.4420653449
30
0.0000000000
10
-30.6623208798
20
15.4470922401
30
0.0000000000
11
-30.5386500588
21
15.4067483579
31
0.0000000000
11
-30.5765344519
21
15.4159066686
31
0.0000000000
11
-30.6297866277
21
15.4332563734
31
0.0000000000
11
-30.6623208798
21
15.4470922401
31
0.0000000000
0
SPLINE
5
3EA
100
AcDbEntity
8
0
100
AcDbSpline
62
9
6
CONTINUOUS
70
0
71
3
72
13
73
9
74
7
42
0.0000001000
43
0.0000001000
44
0.0000000001
12
-0.1888346932
22
0.0890360761
32
0.0000000000
13
-0.0000054216
23
0.2086651009
33
0.0000000000
40
0.0000000000
40
0.0000000000
40
0.0000000000
40
0.0000000000
40
0.0812567960
40
0.3106840266
40
0.5160888599
40
0.6968349192
40
0.8559292119
40
1.0000000000
40
1.0000000000
40
1.0000000000
40
1.0000000000
10
-30.6623208798
20
15.4470922401
30
0.0000000000
10
-30.6674355805
20
15.4495038356
30
0.0000000000
10
-30.6868116818
20
15.4591065600
30
0.0000000000
10
-30.7176859669
20
15.4776388236
30
0.0000000000
10
-30.7507608570
20
15.5051553319
30
0.0000000000
10
-30.7748967381
20
15.5347986890
30
0.0000000000
10
-30.7894271700
20
15.5655830948
30
0.0000000000
10
-30.7926970599
20
15.5867789332
30
0.0000000000
10
-30.7926973203
20
15.5967997817
30
0.0000000000
11
-30.6623208798
21
15.4470922401
31
0.0000000000
11
-30.6775168631
21
15.4546331349
31
0.0000000000
11
-30.7183854143
21
15.4795656305
31
0.0000000000
11
-30.7510517574
21
15.5073137826
31
0.0000000000
11
-30.7744863667
21
15.5368649262
31
0.0000000000
11
-30.7882718482
21
15.5670647546
31
0.0000000000
11
-30.7926973203
21
15.5967997817
31
0.0000000000
0
SPLINE
5
3EB
100
AcDbEntity
8
0
100
AcDbSpline
62
9
6
CONTINUOUS
70
0
71
3
72
9
73
5
74
3
42
0.0000001000
43
0.0000001000
44
0.0000000001
12
1.7525485827
22
-0.0972053157
32
0.0000000000
13
1.7524453371
23
-0.0990488546
33
0.0000000000
40
0.0000000000
40
0.0000000000
40
0.0000000000
40
0.0000000000
40
0.4413761627
40
1.0000000000
40
1.0000000000
40
1.0000000000
40
1.0000000000
10
-29.2329857146
20
15.1117838319
30
0.0000000000
10
-28.9751413252
20
15.0974824622
30
0.0000000000
10
-28.3909653305
20
15.0649569169
30
0.0000000000
10
-27.8068062508
20
15.0321285326
30
0.0000000000
10
-27.4804870045
20
15.0136848488
30
0.0000000000
11
-29.2329857146
21
15.1117838319
31
0.0000000000
11
-28.4594619027
21
15.0687114645
31
0.0000000000
11
-27.4804870045
21
15.0136848488
31
0.0000000000
0
SPLINE
5
3EC
100
AcDbEntity
8
0
100
AcDbSpline
62
9
6
CONTINUOUS
70
0
71
3
72
11
73
7
74
5
42
0.0000001000
43
0.0000001000
44
0.0000000001
12
0.2442749152
22
-0.0036925890
32
0.0000000000
13
0.0706736943
23
-0.2366448176
33
0.0000000000
40
0.0000000000
40
0.0000000000
40
0.0000000000
40
0.0000000000
40
0.3141725006
40
0.6172421083
40
0.9043045616
40
1.0000000000
40
1.0000000000
40
1.0000000000
40
1.0000000000
10
-30.7926973203
20
15.5967997817
30
0.0000000000
10
-30.7671158333
20
15.5964130784
30
0.0000000000
10
-30.7165491237
20
15.5872259008
30
0.0000000000
10
-30.6515103945
20
15.5494479960
30
0.0000000000
10
-30.6161907243
20
15.5042417353
30
0.0000000000
10
-30.6049135205
20
15.4747048144
30
0.0000000000
10
-30.6026591371
20
15.4671562046
30
0.0000000000
11
-30.7926973203
21
15.5967997817
31
0.0000000000
11
-30.7172390303
21
15.5827603867
31
0.0000000000
11
-30.6535377118
21
15.5450221267
31
0.0000000000
11
-30.6110797008
21
15.4892049453
31
0.0000000000
11
-30.6026591371
21
15.4671562046
31
0.0000000000
0
SPLINE
5
3ED
100
AcDbEntity
8
0
100
AcDbSpline
62
9
6
CONTINUOUS
70
0
71
3
72
8
73
4
74
2
42
0.0000001000
43
0.0000001000
44
0.0000000001
12
0.0062263237
22
-0.0208483122
32
0.0000000000
13
0.0032640158
23
-0.0214353293
33
0.0000000000
40
0.0000000000
40
0.0000000000
40
0.0000000000
40
0.0000000000
40
1.0000000000
40
1.0000000000
40
1.0000000000
40
1.0000000000
10
-30.6026591371
20
15.4671562046
30
0.0000000000
10
-30.6005836958
20
15.4602067672
30
0.0000000000
10
-30.5989871994
20
15.4531184000
30
0.0000000000
10
-30.5978991942
20
15.4459732902
30
0.0000000000
11
-30.6026591371
21
15.4671562046
31
0.0000000000
11
-30.5978991942
21
15.4459732902
31
0.0000000000
0
SPLINE
5
3EE
100
AcDbEntity
8
0
100
AcDbSpline
62
9
6
CONTINUOUS
70
0
71
3
72
8
73
4
74
2
42
0.0000001000
43
0.0000001000
44
0.0000000001
12
0.0033896929
22
-0.0222606713
32
0.0000000000
13
0.0000000000
23
-0.0223516962
33
0.0000000000
40
0.0000000000
40
0.0000000000
40
0.0000000000
40
0.0000000000
40
1.0000000000
40
1.0000000000
40
1.0000000000
40
1.0000000000
10
-30.5978991942
20
15.4459732902
30
0.0000000000
10
-30.5967692966
20
15.4385530664
30
0.0000000000
10
-30.5961878016
20
15.4310716464
30
0.0000000000
10
-30.5961878016
20
15.4236210809
30
0.0000000000
11
-30.5978991942
21
15.4459732902
31
0.0000000000
11
-30.5961878016
21
15.4236210809
31
0.0000000000
0
SPLINE
5
3EF
100
AcDbEntity
8
0
100
AcDbSpline
62
9
6
CONTINUOUS
70
0
71
3
72
14
73
10
74
8
42
0.0000001000
43
0.0000001000
44
0.0000000001
12
-0.0235040645
22
-0.4491469550
32
0.0000000000
13
0.2429013550
23
-0.3785292062
33
0.0000000000
40
0.0000000000
40
0.0000000000
40
0.0000000000
40
0.0000000000
40
0.1592739253
40
0.3486842186
40
0.5478665245
40
0.7311520292
40
0.8754071498
40
0.9657059331
40
1.0000000000
40
1.0000000000
40
1.0000000000
40
1.0000000000
10
-30.3996782853
20
17.6034456262
30
0.0000000000
10
-30.4009261468
20
17.5795998267
30
0.0000000000
10
-30.4033530054
20
17.5273756727
30
0.0000000000
10
-30.4063639582
20
17.4453172488
30
0.0000000000
10
-30.4089167364
20
17.3595266086
30
0.0000000000
10
-30.4097370689
20
17.2808484950
30
0.0000000000
10
-30.4113112831
20
17.2174821054
30
0.0000000000
10
-30.4078369610
20
17.1785431109
30
0.0000000000
10
-30.4094314197
20
17.1583625106
30
0.0000000000
10
-30.4066547280
20
17.1540354086
30
0.0000000000
11
-30.3996782853
21
17.6034456262
31
0.0000000000
11
-30.4030367234
21
17.5318891121
31
0.0000000000
11
-30.4062149821
21
17.4467589580
31
0.0000000000
11
-30.4086862125
21
17.3572085121
31
0.0000000000
11
-30.4100245288
21
17.2747846087
31
0.0000000000
11
-30.4100337880
21
17.2099042065
31
0.0000000000
11
-30.4087964581
21
17.1693101410
31
0.0000000000
11
-30.4066547280
21
17.1540354086
31
0.0000000000
0
SPLINE
5
3F0
100
AcDbEntity
8
0
100
AcDbSpline
62
9
6
CONTINUOUS
70
0
71
3
72
9
73
5
74
3
42
0.0000001000
43
0.0000001000
44
0.0000000001
12
0.0000000014
22
0.0939909709
32
0.0000000000
13
0.0846650167
23
0.0422763422
33
0.0000000000
40
0.0000000000
40
0.0000000000
40
0.0000000000
40
0.0000000000
40
0.4328930957
40
1.0000000000
40
1.0000000000
40
1.0000000000
40
1.0000000000
10
-30.5961878016
20
17.5034608382
30
0.0000000000
10
-30.5961878014
20
17.5170235190
30
0.0000000000
10
-30.5816377937
20
17.5479946431
30
0.0000000000
10
-30.5548425912
20
17.5655600336
30
0.0000000000
10
-30.5388378860
20
17.5735517688
30
0.0000000000
11
-30.5961878016
21
17.5034608382
31
0.0000000000
11
-30.5812958998
21
17.5413257039
31
0.0000000000
11
-30.5388378860
21
17.5735517688
31
0.0000000000
0
SPLINE
5
3F1
100
AcDbEntity
8
0
100
AcDbSpline
62
9
6
CONTINUOUS
70
0
71
3
72
9
73
5
74
3
42
0.0000001000
43
0.0000001000
44
0.0000000001
12
0.1290066130
22
0.0644177245
32
0.0000000000
13
0.1432113938
23
0.0012498785
33
0.0000000000
40
0.0000000000
40
0.0000000000
40
0.0000000000
40
0.0000000000
40
0.4700875824
40
1.0000000000
40
1.0000000000
40
1.0000000000
40
1.0000000000
10
-30.5388378860
20
17.5735517688
30
0.0000000000
10
-30.5186230838
20
17.5836457596
30
0.0000000000
10
-30.4728755634
20
17.5984338310
30
0.0000000000
10
-30.4249747824
20
17.6032248317
30
0.0000000000
10
-30.3996782837
20
17.6034456071
30
0.0000000000
11
-30.5388378860
21
17.5735517688
31
0.0000000000
11
-30.4751365687
21
17.5953399610
31
0.0000000000
11
-30.3996782837
21
17.6034456071
31
0.0000000000
0
SPLINE
5
3F2
100
AcDbEntity
8
0
100
AcDbSpline
62
9
6
CONTINUOUS
70
0
71
3
72
12
73
8
74
6
42
0.0000001000
43
0.0000001000
44
0.0000000001
12
0.3000941835
22
-0.0052381635
32
0.0000000000
13
-0.0104652812
23
-0.2999573890
33
0.0000000000
40
0.0000000000
40
0.0000000000
40
0.0000000000
40
0.0000000000
40
0.0581600758
40
0.2210923466
40
0.4609966923
40
0.7364874405
40
1.0000000000
40
1.0000000000
40
1.0000000000
40
1.0000000000
10
-29.6874615984
20
18.9085752160
30
0.0000000000
10
-29.6816437649
20
18.9084736654
30
0.0000000000
10
-29.6903610522
20
18.8732866426
30
0.0000000000
10
-29.6807019399
20
18.8388307684
30
0.0000000000
10
-29.6851402507
20
18.7652857737
30
0.0000000000
10
-29.6847909862
20
18.6893134656
30
0.0000000000
10
-29.6865423540
20
18.6349684206
30
0.0000000000
10
-29.6874615984
20
18.6086209075
30
0.0000000000
11
-29.6874615984
21
18.9085752160
31
0.0000000000
11
-29.6853062705
21
18.8912526281
31
0.0000000000
11
-29.6841266762
21
18.8423643820
31
0.0000000000
11
-29.6841266767
21
18.7703595166
31
0.0000000000
11
-29.6853062716
21
18.6876821665
31
0.0000000000
11
-29.6874615984
21
18.6086209075
31
0.0000000000
0
SPLINE
5
3F3
100
AcDbEntity
8
0
100
AcDbSpline
62
9
6
CONTINUOUS
70
0
71
3
72
12
73
8
74
6
42
0.0000001000
43
0.0000001000
44
0.0000000001
12
0.3000941771
22
-0.0052381633
32
0.0000000000
13
-0.0104651533
23
-0.2999573870
33
0.0000000000
40
0.0000000000
40
0.0000000000
40
0.0000000000
40
0.0000000000
40
0.0581600370
40
0.2210922523
40
0.4609965459
40
0.7364873195
40
1.0000000000
40
1.0000000000
40
1.0000000000
40
1.0000000000
10
-30.3996782829
20
18.9210070045
30
0.0000000000
10
-30.3938604534
20
18.9209054539
30
0.0000000000
10
-30.4025778390
20
18.8857184347
30
0.0000000000
10
-30.3929186433
20
18.8512625841
30
0.0000000000
10
-30.3973569761
20
18.7777175940
30
0.0000000000
10
-30.3970076946
20
18.7017452805
30
0.0000000000
10
-30.3987590494
20
18.6474002210
30
0.0000000000
10
-30.3996782829
20
18.6210526959
30
0.0000000000
11
-30.3996782829
21
18.9210070045
31
0.0000000000
11
-30.3975230006
21
18.9036844230
31
0.0000000000
11
-30.3963434079
21
18.8547961946
31
0.0000000000
11
-30.3963433946
21
18.7827913463
31
0.0000000000
11
-30.3975229792
21
18.7001139902
31
0.0000000000
11
-30.3996782829
21
18.6210526959
31
0.0000000000
0
SPLINE
5
3F4
100
AcDbEntity
8
0
100
AcDbSpline
62
9
6
CONTINUOUS
70
0
71
3
72
9
73
5
74
3
42
0.0000001000
43
0.0000001000
44
0.0000000001
12
0.0000000000
22
-0.0829464645
32
0.0000000000
13
-0.0615765071
23
-0.0562880423
33
0.0000000000
40
0.0000000000
40
0.0000000000
40
0.0000000000
40
0.0000000000
40
0.7178777729
40
1.0000000000
40
1.0000000000
40
1.0000000000
40
1.0000000000
10
-27.1961878016
20
9.0947524643
30
0.0000000000
10
-27.1961878016
20
9.0749039899
30
0.0000000000
10
-27.2086938963
20
9.0475101313
30
0.0000000000
10
-27.2278001750
20
9.0270936847
30
0.0000000000
10
-27.2335908755
20
9.0218003155
30
0.0000000000
11
-27.1961878016
21
9.0947524643
31
0.0000000000
11
-27.2175448914
21
9.0391689043
31
0.0000000000
11
-27.2335908755
21
9.0218003155
31
0.0000000000
0
SPLINE
5
3F5
100
AcDbEntity
8
0
100
AcDbSpline
62
9
6
CONTINUOUS
70
0
71
3
72
10
73
6
74
4
42
0.0000001000
43
0.0000001000
44
0.0000000001
12
-0.1948814404
22
-0.1781441539
32
0.0000000000
13
-0.2624244274
23
-0.0068765408
33
0.0000000000
40
0.0000000000
40
0.0000000000
40
0.0000000000
40
0.0000000000
40
0.2058551698
40
0.5781862781
40
1.0000000000
40
1.0000000000
40
1.0000000000
40
1.0000000000
10
-27.2335908755
20
9.0218003155
30
0.0000000000
10
-27.2469633262
20
9.0095763504
30
0.0000000000
10
-27.2905198592
20
8.9822312386
30
0.0000000000
10
-27.3739939206
20
8.9539656217
30
0.0000000000
10
-27.4435889399
20
8.9459249072
30
0.0000000000
10
-27.4804870147
20
8.9449580341
30
0.0000000000
11
-27.2335908755
21
9.0218003155
31
0.0000000000
11
-27.2785753901
21
8.9914993308
31
0.0000000000
11
-27.3705897932
21
8.9585310083
31
0.0000000000
11
-27.4804870147
21
8.9449580341
31
0.0000000000
0
SPLINE
5
3F6
100
AcDbEntity
8
0
100
AcDbSpline
62
9
6
CONTINUOUS
70
0
71
3
72
10
73
6
74
4
42
0.0000001000
43
0.0000001000
44
0.0000000001
12
0.0043616581
22
0.4329353796
32
0.0000000000
13
-0.0087193338
23
0.4328695418
33
0.0000000000
40
0.0000000000
40
0.0000000000
40
0.0000000000
40
0.0000000000
40
0.3949073401
40
0.7421903582
40
1.0000000000
40
1.0000000000
40
1.0000000000
40
1.0000000000
10
-29.6874615984
20
13.6487954595
30
0.0000000000
10
-29.6868874481
20
13.7057852459
30
0.0000000000
10
-29.6861121804
20
13.8128959383
30
0.0000000000
10
-29.6860325127
20
13.9572147126
30
0.0000000000
10
-29.6867122889
20
14.0445428976
30
0.0000000000
10
-29.6874615984
20
14.0817422114
30
0.0000000000
11
-29.6874615984
21
13.6487954595
31
0.0000000000
11
-29.6862651819
21
13.8197693090
31
0.0000000000
11
-29.6862651819
21
13.9701280442
31
0.0000000000
11
-29.6874615984
21
14.0817422114
31
0.0000000000
0
SPLINE
5
3F7
100
AcDbEntity
8
0
100
AcDbSpline
62
9
6
CONTINUOUS
70
0
71
3
72
11
73
7
74
5
42
0.0000001000
43
0.0000001000
44
0.0000000001
12
0.0019098539
22
-1.2488255868
32
0.0000000000
13
-0.0024467761
23
-1.2488246502
33
0.0000000000
40
0.0000000000
40
0.0000000000
40
0.0000000000
40
0.0000000000
40
0.2688020641
40
0.5298444177
40
0.7758783612
40
1.0000000000
40
1.0000000000
40
1.0000000000
40
1.0000000000
10
-29.6874619121
20
-15.9703486456
30
0.0000000000
10
-29.6872907879
20
-16.0822442774
30
0.0000000000
10
-29.6870330480
20
-16.3028054966
30
0.0000000000
10
-29.6868980536
20
-16.6257847948
30
0.0000000000
10
-29.6870179142
20
-16.9301647249
30
0.0000000000
10
-29.6872790395
20
-17.1258789312
30
0.0000000000
10
-29.6874618313
20
-17.2191751403
30
0.0000000000
11
-29.6874619121
21
-15.9703486456
31
0.0000000000
11
-29.6870718827
21
-16.3060357070
31
0.0000000000
11
-29.6869408525
21
-16.6320324323
31
0.0000000000
11
-29.6870719091
21
-16.9392862475
31
0.0000000000
11
-29.6874618313
21
-17.2191751403
31
0.0000000000
0
SPLINE
5
3F8
100
AcDbEntity
8
0
100
AcDbSpline
62
9
6
CONTINUOUS
70
0
71
3
72
11
73
7
74
5
42
0.0000001000
43
0.0000001000
44
0.0000000001
12
-0.0000000007
22
-0.6337342751
32
0.0000000000
13
-0.6336966253
23
-0.0069078648
33
0.0000000000
40
0.0000000000
40
0.0000000000
40
0.0000000000
40
0.0000000000
40
0.1955997963
40
0.4263945870
40
0.6996594334
40
1.0000000000
40
1.0000000000
40
1.0000000000
40
1.0000000000
10
-29.1961878016
20
-16.9069747656
30
0.0000000000
10
-29.1961878016
20
-16.9482941973
30
0.0000000000
10
-29.2279893175
20
-17.0390688107
30
0.0000000000
10
-29.3429668653
20
-17.1383785040
30
0.0000000000
10
-29.5023694875
20
-17.2029835101
30
0.0000000000
10
-29.6240199972
20
-17.2184919011
30
0.0000000000
10
-29.6874615984
20
-17.2191834717
30
0.0000000000
11
-29.1961878016
21
-16.9069747656
31
0.0000000000
11
-29.2334175366
21
-17.0252101485
31
0.0000000000
11
-29.3395625480
21
-17.1258380559
31
0.0000000000
11
-29.4988158488
21
-17.1938730705
31
0.0000000000
11
-29.6874615984
21
-17.2191834717
31
0.0000000000
0
SPLINE
5
3F9
100
AcDbEntity
8
0
100
AcDbSpline
62
9
6
CONTINUOUS
70
0
71
3
72
11
73
7
74
5
42
0.0000001000
43
0.0000001000
44
0.0000000001
12
0.0000000000
22
-0.3454609704
32
0.0000000000
13
-0.3453424271
23
-0.0090493148
33
0.0000000000
40
0.0000000000
40
0.0000000000
40
0.0000000000
40
0.0000000000
40
0.1723653210
40
0.3965326187
40
0.6794655771
40
1.0000000000
40
1.0000000000
40
1.0000000000
40
1.0000000000
10
-27.1961878016
20
10.9134058122
30
0.0000000000
10
-27.1961878016
20
10.8935573152
30
0.0000000000
10
-27.2168417108
20
10.8483162109
30
0.0000000000
10
-27.2830789070
20
10.8034041997
30
0.0000000000
10
-27.3739939881
20
10.7726189593
30
0.0000000000
10
-27.4435889695
20
10.7645782543
30
0.0000000000
10
-27.4804870147
20
10.7636113820
30
0.0000000000
11
-27.1961878016
21
10.9134058122
31
0.0000000000
11
-27.2175449357
21
10.8578221966
31
0.0000000000
11
-27.2785754903
21
10.8101526259
31
0.0000000000
11
-27.3705898803
21
10.7771843362
31
0.0000000000
11
-27.4804870147
21
10.7636113820
31
0.0000000000
0
SPLINE
5
3FA
100
AcDbEntity
8
0
100
AcDbSpline
62
9
6
CONTINUOUS
70
0
71
3
72
9
73
5
74
3
42
0.0000001000
43
0.0000001000
44
0.0000000001
12
-1.0069625513
22
0.0512383965
32
0.0000000000
13
-1.0069988326
23
0.0505203332
33
0.0000000000
40
0.0000000000
40
0.0000000000
40
0.0000000000
40
0.0000000000
40
0.4988184077
40
1.0000000000
40
1.0000000000
40
1.0000000000
40
1.0000000000
10
-29.3926973193
20
17.5525706822
30
0.0000000000
10
-29.5601278048
20
17.5610902340
30
0.0000000000
10
-29.8957851424
20
17.5781077709
30
0.0000000000
10
-30.2314485243
20
17.5950056534
30
0.0000000000
10
-30.3996782837
20
17.6034456071
30
0.0000000000
11
-29.3926973193
21
17.5525706822
31
0.0000000000
11
-29.8949934261
21
17.5780377829
31
0.0000000000
11
-30.3996782837
21
17.6034456071
31
0.0000000000
0
SPLINE
5
3FB
100
AcDbEntity
8
0
100
AcDbSpline
62
9
6
CONTINUOUS
70
0
71
3
72
9
73
5
74
3
42
0.0000001000
43
0.0000001000
44
0.0000000001
12
-1.0209173880
22
0.0521101700
32
0.0000000000
13
-1.0209515302
23
0.0514369120
33
0.0000000000
40
0.0000000000
40
0.0000000000
40
0.0000000000
40
0.0000000000
40
0.4988015080
40
1.0000000000
40
1.0000000000
40
1.0000000000
40
1.0000000000
10
-29.3857202887
20
17.1022608956
30
0.0000000000
10
-29.5554653329
20
17.1109251061
30
0.0000000000
10
-29.8957740899
20
17.1282371973
30
0.0000000000
10
-30.2360885339
20
17.1454371220
30
0.0000000000
10
-30.4066549897
20
17.1540304896
30
0.0000000000
11
-29.3857202887
21
17.1022608956
31
0.0000000000
11
-29.8949597902
21
17.1281677931
31
0.0000000000
11
-30.4066549897
21
17.1540304896
31
0.0000000000
0
SPLINE
5
3FC
100
AcDbEntity
8
0
100
AcDbSpline
62
9
6
CONTINUOUS
70
0
71
3
72
10
73
6
74
4
42
0.0000001000
43
0.0000001000
44
0.0000000001
12
-0.2574045590
22
-0.2574045590
32
0.0000000000
13
-0.3320827794
23
0.1491148605
33
0.0000000000
40
0.0000000000
40
0.0000000000
40
0.0000000000
40
0.0000000000
40
0.2874832046
40
0.6159203856
40
1.0000000000
40
1.0000000000
40
1.0000000000
40
1.0000000000
10
-45.8805058163
20
-20.9843180147
30
0.0000000000
10
-45.9051723121
20
-21.0089845105
30
0.0000000000
10
-45.9741796358
20
-21.0468320254
30
0.0000000000
10
-46.0981592549
20
-21.0503687310
30
0.0000000000
10
-46.1828175950
20
-21.0268090571
30
0.0000000000
10
-46.2253330037
20
-21.0077183978
30
0.0000000000
11
-45.8805058163
21
-20.9843180147
31
0.0000000000
11
-45.9711933695
21
-21.0365445979
31
0.0000000000
11
-46.0904789729
21
-21.0446305855
31
0.0000000000
11
-46.2253330037
21
-21.0077183978
31
0.0000000000
0
SPLINE
5
3FD
100
AcDbEntity
8
0
100
AcDbSpline
62
9
6
CONTINUOUS
70
0
71
3
72
10
73
6
74
4
42
0.0000001000
43
0.0000001000
44
0.0000000001
12
-0.2578644273
22
-0.2578643913
32
0.0000000000
13
-0.3247537422
23
0.1659009166
33
0.0000000000
40
0.0000000000
40
0.0000000000
40
0.0000000000
40
0.0000000000
40
0.2717751414
40
0.6000991346
40
1.0000000000
40
1.0000000000
40
1.0000000000
40
1.0000000000
10
-44.2555418711
20
-19.3593540695
30
0.0000000000
10
-44.2789022515
20
-19.3827144467
30
0.0000000000
10
-44.3492690790
20
-19.4160392383
30
0.0000000000
10
-44.4735059584
20
-19.4076668362
30
0.0000000000
10
-44.5570792912
20
-19.3755390171
30
0.0000000000
10
-44.6003690588
20
-19.3534243770
30
0.0000000000
11
-44.2555418711
21
-19.3593540695
31
0.0000000000
11
-44.3434971313
21
-19.4050334253
31
0.0000000000
11
-44.4632110979
21
-19.4029748086
31
0.0000000000
11
-44.6003690588
21
-19.3534243770
31
0.0000000000
0
SPLINE
5
3FE
100
AcDbEntity
8
0
100
AcDbSpline
62
9
6
CONTINUOUS
70
0
71
3
72
10
73
6
74
4
42
0.0000001000
43
0.0000001000
44
0.0000000001
12
-1.6249584048
22
-1.6543187600
32
0.0000000000
13
-1.6249885737
23
-1.6542891260
33
0.0000000000
40
0.0000000000
40
0.0000000000
40
0.0000000000
40
0.0000000000
40
0.3405071275
40
0.6739071899
40
1.0000000000
40
1.0000000000
40
1.0000000000
40
1.0000000000
10
-44.6003690585
20
-19.3534243875
30
0.0000000000
10
-44.7848056981
20
-19.5411934971
30
0.0000000000
10
-45.1498319223
20
-19.9128101370
30
0.0000000000
10
-45.6914839327
20
-20.4642505011
30
0.0000000000
10
-46.0487199085
20
-20.8279015152
30
0.0000000000
10
-46.2253522720
20
-21.0077187784
30
0.0000000000
11
-44.6003690585
21
-19.3534243875
31
0.0000000000
11
-45.1536807344
21
-19.9167299905
31
0.0000000000
11
-45.6954471177
21
-20.4682749097
31
0.0000000000
11
-46.2253522720
21
-21.0077187784
31
0.0000000000
0
SPLINE
5
3FF
100
AcDbEntity
8
0
100
AcDbSpline
62
9
6
CONTINUOUS
70
0
71
3
72
10
73
6
74
4
42
0.0000001000
43
0.0000001000
44
0.0000000001
12
0.1585461384
22
0.0033750625
32
0.0000000000
13
-0.0016421796
23
0.1585735549
33
0.0000000000
40
0.0000000000
40
0.0000000000
40
0.0000000000
40
0.0000000000
40
0.1169724788
40
0.4587100393
40
1.0000000000
40
1.0000000000
40
1.0000000000
40
1.0000000000
10
-43.7727836490
20
-19.1544448380
30
0.0000000000
10
-43.7666018041
20
-19.1543132416
30
0.0000000000
10
-43.7797815402
20
-19.1155648463
30
0.0000000000
10
-43.7670461919
20
-19.0765819727
30
0.0000000000
10
-43.7724878207
20
-19.0244901360
30
0.0000000000
10
-43.7727841192
20
-18.9958787116
30
0.0000000000
11
-43.7727836490
21
-19.1544448380
31
0.0000000000
11
-43.7720866435
21
-19.1359082013
31
0.0000000000
11
-43.7720868867
21
-19.0817147557
31
0.0000000000
11
-43.7727841192
21
-18.9958787116
31
0.0000000000
0
SPLINE
5
400
100
AcDbEntity
8
0
100
AcDbSpline
62
9
6
CONTINUOUS
70
0
71
3
72
14
73
10
74
8
42
0.0000001000
43
0.0000001000
44
0.0000000001
12
-0.9238790411
22
-0.0156093848
32
0.0000000000
13
-0.6475035085
23
-0.6591929475
33
0.0000000000
40
0.0000000000
40
0.0000000000
40
0.0000000000
40
0.0000000000
40
0.2117996171
40
0.3971238447
40
0.5558136701
40
0.6918578915
40
0.8090508105
40
0.9107299853
40
1.0000000000
40
1.0000000000
40
1.0000000000
40
1.0000000000
10
-43.7727838088
20
-18.9958904947
30
0.0000000000
10
-43.8380095512
20
-18.9969925153
30
0.0000000000
10
-43.9603785360
20
-19.0094556463
30
0.0000000000
10
-44.1265246126
20
-19.0529543746
30
0.0000000000
10
-44.2636050157
20
-19.1093999082
30
0.0000000000
10
-44.3748406818
20
-19.1709042333
30
0.0000000000
10
-44.4650034881
20
-19.2329798230
30
0.0000000000
10
-44.5384457196
20
-19.2932422192
30
0.0000000000
10
-44.5811015093
20
-19.3338089994
30
0.0000000000
10
-44.6003690585
20
-19.3534243875
30
0.0000000000
11
-43.7727838088
21
-18.9958904947
31
0.0000000000
11
-43.9674957950
21
-19.0155818560
31
0.0000000000
11
-44.1331510114
21
-19.0589643036
31
0.0000000000
11
-44.2687460779
21
-19.1147734923
31
0.0000000000
11
-44.3787620314
21
-19.1755894000
31
0.0000000000
11
-44.4679593726
21
-19.2369899239
31
0.0000000000
11
-44.5405938231
21
-19.2965830438
31
0.0000000000
11
-44.6003690585
21
-19.3534243875
31
0.0000000000
0
SPLINE
5
401
100
AcDbEntity
8
0
100
AcDbSpline
62
9
6
CONTINUOUS
70
0
71
3
72
10
73
6
74
4
42
0.0000001000
43
0.0000001000
44
0.0000000001
12
-14.0853219809
22
-0.2473131313
32
0.0000000000
13
-14.0853224379
23
-0.2472871047
33
0.0000000000
40
0.0000000000
40
0.0000000000
40
0.0000000000
40
0.0000000000
40
0.3338266468
40
0.6671599802
40
1.0000000000
40
1.0000000000
40
1.0000000000
40
1.0000000000
10
-29.6874615984
20
-18.7485904355
30
0.0000000000
10
-31.2548135335
20
-18.7761103400
30
0.0000000000
10
-34.3872012622
20
-18.8311085020
30
0.0000000000
10
-39.0823086659
20
-18.9135418377
30
0.0000000000
10
-42.2100641426
20
-18.9684548131
30
0.0000000000
10
-43.7727838088
20
-18.9958904947
30
0.0000000000
11
-29.6874615984
21
-18.7485904355
31
0.0000000000
11
-34.3895174295
21
-18.8311486833
31
0.0000000000
11
-39.0846248352
21
-18.9135820234
31
0.0000000000
11
-43.7727838088
21
-18.9958904947
31
0.0000000000
0
SPLINE
5
402
100
AcDbEntity
8
0
100
AcDbSpline
62
9
6
CONTINUOUS
70
0
71
3
72
10
73
6
74
4
42
0.0000001000
43
0.0000001000
44
0.0000000001
12
0.1229631098
22
0.0021463291
32
0.0000000000
13
-0.0012235811
23
0.1229757535
33
0.0000000000
40
0.0000000000
40
0.0000000000
40
0.0000000000
40
0.0000000000
40
0.1155814595
40
0.4553121369
40
1.0000000000
40
1.0000000000
40
1.0000000000
40
1.0000000000
10
-46.2253330037
20
-21.1306884717
30
0.0000000000
10
-46.2205955851
20
-21.1306057797
30
0.0000000000
10
-46.2307528625
20
-21.1007450750
30
0.0000000000
10
-46.2208636650
20
-21.0705508247
30
0.0000000000
10
-46.2251108471
20
-21.0300461979
30
0.0000000000
10
-46.2253330037
20
-21.0077183978
30
0.0000000000
11
-46.2253330037
21
-21.1306884717
31
0.0000000000
11
-46.2248077637
21
-21.1164837585
31
0.0000000000
11
-46.2248077637
21
-21.0747030545
31
0.0000000000
11
-46.2253330037
21
-21.0077183978
31
0.0000000000
0
SPLINE
5
403
100
AcDbEntity
8
0
100
AcDbSpline
62
9
6
CONTINUOUS
70
0
71
3
72
9
73
5
74
3
42
0.0000001000
43
0.0000001000
44
0.0000000001
12
-3.7743258587
22
-0.0661771966
32
0.0000000000
13
-3.7743258836
23
-0.0661757763
33
0.0000000000
40
0.0000000000
40
0.0000000000
40
0.0000000000
40
0.0000000000
40
0.5001465058
40
1.0000000000
40
1.0000000000
40
1.0000000000
40
1.0000000000
10
-46.2253522720
20
-21.0077187784
30
0.0000000000
10
-46.8545909020
20
-21.0187515430
30
0.0000000000
10
-48.1126995248
20
-21.0408104255
30
0.0000000000
10
-49.3708081502
20
-21.0628691569
30
0.0000000000
10
-49.9996781439
20
-21.0738952212
30
0.0000000000
11
-46.2253522720
21
-21.0077187784
31
0.0000000000
11
-48.1130681660
21
-21.0408168512
31
0.0000000000
11
-49.9996781439
21
-21.0738952212
31
0.0000000000
0
SPLINE
5
404
100
AcDbEntity
8
0
100
AcDbSpline
62
7
6
CONTINUOUS
70
0
71
3
72
15
73
11
74
9
42
0.0000001000
43
0.0000001000
44
0.0000000001
12
-2.7451476884
22
1.9409910846
32
0.0000000000
13
3.1889253910
23
1.0471715280
33
0.0000000000
40
0.0000000000
40
0.0000000000
40
0.0000000000
40
0.0000000000
40
0.0786462518
40
0.2085854180
40
0.3212962421
40
0.4277105515
40
0.5412824258
40
0.6725570424
40
0.8257719629
40
1.0000000000
40
1.0000000000
40
1.0000000000
40
1.0000000000
10
-39.3952006883
20
16.6266973483
30
0.0000000000
10
-39.4671658804
20
16.6775812396
30
0.0000000000
10
-39.6507362092
20
16.8227390088
30
0.0000000000
10
-39.8927709552
20
17.0946164692
30
0.0000000000
10
-40.0473743536
20
17.4639276109
30
0.0000000000
10
-40.0337308392
20
17.8480700398
30
0.0000000000
10
-39.8540483474
20
18.2082608492
30
0.0000000000
10
-39.5351394928
20
18.5267530354
30
0.0000000000
10
-39.0960491734
20
18.7986012405
30
0.0000000000
10
-38.7545983548
20
18.9358173553
30
0.0000000000
10
-38.5693982843
20
18.9966329019
30
0.0000000000
11
-39.3952006883
21
16.6266973483
31
0.0000000000
11
-39.6018357070
21
16.7914996029
31
0.0000000000
11
-39.8841508545
21
17.1239334395
31
0.0000000000
11
-40.0221081580
21
17.4761913451
31
0.0000000000
11
-40.0098035212
21
17.8331545443
31
0.0000000000
11
-39.8478467345
21
18.1782384307
31
0.0000000000
11
-39.5432638312
21
18.4966301671
31
0.0000000000
11
-39.1100288034
21
18.7737046329
31
0.0000000000
11
-38.5693982843
21
18.9966329019
31
0.0000000000
0
SPLINE
5
405
100
AcDbEntity
8
0
100
AcDbSpline
62
9
6
CONTINUOUS
70
0
71
3
72
10
73
6
74
4
42
0.0000001000
43
0.0000001000
44
0.0000000001
12
-0.2574045590
22
0.2574045590
32
0.0000000000
13
-0.3320827794
23
-0.1491148605
33
0.0000000000
40
0.0000000000
40
0.0000000000
40
0.0000000000
40
0.0000000000
40
0.2874832046
40
0.6159203856
40
1.0000000000
40
1.0000000000
40
1.0000000000
40
1.0000000000
10
-45.8805058163
20
20.9843180147
30
0.0000000000
10
-45.9051723121
20
21.0089845105
30
0.0000000000
10
-45.9741796358
20
21.0468320254
30
0.0000000000
10
-46.0981592549
20
21.0503687311
30
0.0000000000
10
-46.1828175950
20
21.0268090571
30
0.0000000000
10
-46.2253330037
20
21.0077183978
30
0.0000000000
11
-45.8805058163
21
20.9843180147
31
0.0000000000
11
-45.9711933695
21
21.0365445979
31
0.0000000000
11
-46.0904789729
21
21.0446305855
31
0.0000000000
11
-46.2253330037
21
21.0077183978
31
0.0000000000
0
SPLINE
5
406
100
AcDbEntity
8
0
100
AcDbSpline
62
9
6
CONTINUOUS
70
0
71
3
72
10
73
6
74
4
42
0.0000001000
43
0.0000001000
44
0.0000000001
12
1.6249884922
22
-1.6542890460
32
0.0000000000
13
1.6249583249
23
-1.6543186785
33
0.0000000000
40
0.0000000000
40
0.0000000000
40
0.0000000000
40
0.0000000000
40
0.3260823090
40
0.6594821737
40
1.0000000000
40
1.0000000000
40
1.0000000000
40
1.0000000000
10
-46.2253521713
20
21.0077187173
30
0.0000000000
10
-46.0487255047
20
20.8279072533
30
0.0000000000
10
-45.6914953718
20
20.4642621272
30
0.0000000000
10
-45.1498433755
20
19.9128218026
30
0.0000000000
10
-44.7848114841
20
19.5411993876
30
0.0000000000
10
-44.6003690585
20
19.3534243875
30
0.0000000000
11
-46.2253521713
21
21.0077187173
31
0.0000000000
11
-45.6954641279
21
20.4682922268
31
0.0000000000
11
-45.1536980924
21
19.9167476619
31
0.0000000000
11
-44.6003690585
21
19.3534243875
31
0.0000000000
0
SPLINE
5
407
100
AcDbEntity
8
0
100
AcDbSpline
62
9
6
CONTINUOUS
70
0
71
3
72
10
73
6
74
4
42
0.0000001000
43
0.0000001000
44
0.0000000001
12
-0.2578643333
22
0.2578644095
32
0.0000000000
13
-0.3247537721
23
-0.1659007400
33
0.0000000000
40
0.0000000000
40
0.0000000000
40
0.0000000000
40
0.0000000000
40
0.2717752180
40
0.6000992042
40
1.0000000000
40
1.0000000000
40
1.0000000000
40
1.0000000000
10
-44.2555419127
20
19.3593540279
30
0.0000000000
10
-44.2789022912
20
19.3827144133
30
0.0000000000
10
-44.3492690943
20
19.4160392388
30
0.0000000000
10
-44.4735059619
20
19.4076669169
30
0.0000000000
10
-44.5570792908
20
19.3755391474
30
0.0000000000
10
-44.6003690548
20
19.3534245347
30
0.0000000000
11
-44.2555419127
21
19.3593540279
31
0.0000000000
11
-44.3434971650
21
19.4050334278
31
0.0000000000
11
-44.4632111127
21
19.4029748802
31
0.0000000000
11
-44.6003690548
21
19.3534245347
31
0.0000000000
0
SPLINE
5
408
100
AcDbEntity
8
0
100
AcDbSpline
62
9
6
CONTINUOUS
70
0
71
3
72
14
73
10
74
8
42
0.0000001000
43
0.0000001000
44
0.0000000001
12
0.6474999245
22
-0.6591986851
32
0.0000000000
13
0.9238780189
23
-0.0157627648
33
0.0000000000
40
0.0000000000
40
0.0000000000
40
0.0000000000
40
0.0000000000
40
0.0896117647
40
0.1913849194
40
0.3085085548
40
0.4444032382
40
0.6028253391
40
0.7877306839
40
1.0000000000
40
1.0000000000
40
1.0000000000
40
1.0000000000
10
-44.6003690585
20
19.3534243875
30
0.0000000000
10
-44.5810278549
20
19.3337337350
30
0.0000000000
10
-44.5382689735
20
19.2930796411
30
0.0000000000
10
-44.4647210381
20
19.2327674657
30
0.0000000000
10
-44.3745704523
20
19.1707421170
30
0.0000000000
10
-44.2634521830
20
19.1093357615
30
0.0000000000
10
-44.1266078174
20
19.0530006961
30
0.0000000000
10
-43.9605430940
20
19.0094595176
30
0.0000000000
10
-43.8381541272
20
18.9970058118
30
0.0000000000
10
-43.7727838088
20
18.9958904947
30
0.0000000000
11
-44.6003690585
21
19.3534243875
31
0.0000000000
11
-44.5403575026
21
19.2963731058
31
0.0000000000
11
-44.4676378536
21
19.2367466754
31
0.0000000000
11
-44.3784738572
21
19.1754102988
31
0.0000000000
11
-44.2685646354
21
19.1146864830
31
0.0000000000
11
-44.1331951410
21
19.0589785406
31
0.0000000000
11
-43.9679253621
21
19.0156509686
31
0.0000000000
11
-43.7727838088
21
18.9958904947
31
0.0000000000
0
SPLINE
5
409
100
AcDbEntity
8
0
100
AcDbSpline
62
9
6
CONTINUOUS
70
0
71
3
72
10
73
6
74
4
42
0.0000001000
43
0.0000001000
44
0.0000000001
12
0.1585367649
22
-0.0027672695
32
0.0000000000
13
-0.0016442470
23
-0.1585523890
33
0.0000000000
40
0.0000000000
40
0.0000000000
40
0.0000000000
40
0.0000000000
40
0.1169554801
40
0.4586922095
40
1.0000000000
40
1.0000000000
40
1.0000000000
40
1.0000000000
10
-43.7727838088
20
19.1544354297
30
0.0000000000
10
-43.7666032276
20
19.1543275473
30
0.0000000000
10
-43.7797786810
20
19.1155293698
30
0.0000000000
10
-43.7670458104
20
19.0766063848
30
0.0000000000
10
-43.7724871275
20
19.0244990425
30
0.0000000000
10
-43.7727838088
20
18.9958904947
30
0.0000000000
11
-43.7727838088
21
19.1544354297
31
0.0000000000
11
-43.7720857979
21
19.1359040030
31
0.0000000000
11
-43.7720857980
21
19.0817179146
31
0.0000000000
11
-43.7727838088
21
18.9958904947
31
0.0000000000
0
SPLINE
5
40A
100
AcDbEntity
8
0
100
AcDbSpline
62
9
6
CONTINUOUS
70
0
71
3
72
9
73
5
74
3
42
0.0000001000
43
0.0000001000
44
0.0000000001
12
3.7743259837
22
-0.0661757781
32
0.0000000000
13
3.7743259587
23
-0.0661771984
33
0.0000000000
40
0.0000000000
40
0.0000000000
40
0.0000000000
40
0.0000000000
40
0.4998547970
40
1.0000000000
40
1.0000000000
40
1.0000000000
40
1.0000000000
10
-49.9996781422
20
21.0738952212
30
0.0000000000
10
-49.3708064928
20
21.0628691279
30
0.0000000000
10
-48.1126978335
20
21.0408104255
30
0.0000000000
10
-46.8545891789
20
21.0187514534
30
0.0000000000
10
-46.2253521713
20
21.0077187173
30
0.0000000000
11
-49.9996781422
21
21.0738952212
31
0.0000000000
11
-48.1130631971
21
21.0408167641
31
0.0000000000
11
-46.2253521713
21
21.0077187173
31
0.0000000000
0
SPLINE
5
40B
100
AcDbEntity
8
0
100
AcDbSpline
62
9
6
CONTINUOUS
70
0
71
3
72
10
73
6
74
4
42
0.0000001000
43
0.0000001000
44
0.0000000001
12
0.1229631098
22
-0.0021463291
32
0.0000000000
13
-0.0012235811
23
-0.1229757535
33
0.0000000000
40
0.0000000000
40
0.0000000000
40
0.0000000000
40
0.0000000000
40
0.1155814595
40
0.4553121369
40
1.0000000000
40
1.0000000000
40
1.0000000000
40
1.0000000000
10
-46.2253330037
20
21.1306884717
30
0.0000000000
10
-46.2205955851
20
21.1306057797
30
0.0000000000
10
-46.2307528625
20
21.1007450750
30
0.0000000000
10
-46.2208636650
20
21.0705508247
30
0.0000000000
10
-46.2251108471
20
21.0300461979
30
0.0000000000
10
-46.2253330037
20
21.0077183978
30
0.0000000000
11
-46.2253330037
21
21.1306884717
31
0.0000000000
11
-46.2248077637
21
21.1164837585
31
0.0000000000
11
-46.2248077637
21
21.0747030545
31
0.0000000000
11
-46.2253330037
21
21.0077183978
31
0.0000000000
0
SPLINE
5
40C
100
AcDbEntity
8
0
100
AcDbSpline
62
7
6
CONTINUOUS
70
0
71
3
72
14
73
10
74
8
42
0.0000001000
43
0.0000001000
44
0.0000000001
12
3.0310626672
22
-0.3436783494
32
0.0000000000
13
0.0007715137
23
-3.0773672613
33
0.0000000000
40
0.0000000000
40
0.0000000000
40
0.0000000000
40
0.0000000000
40
0.1991540500
40
0.3880245676
40
0.5594852203
40
0.7108305560
40
0.8390519448
40
0.9494258050
40
1.0000000000
40
1.0000000000
40
1.0000000000
40
1.0000000000
10
-35.2188669752
20
17.7786997035
30
0.0000000000
10
-35.0176508398
20
17.7558847251
30
0.0000000000
10
-34.6276181253
20
17.6901100723
30
0.0000000000
10
-34.0802088646
20
17.5300606283
30
0.0000000000
10
-33.6033034319
20
17.3173606899
30
0.0000000000
10
-33.2191992765
20
17.0616280609
30
0.0000000000
10
-32.9431991698
20
16.7708812513
30
0.0000000000
10
-32.8143015442
20
16.4985752170
30
0.0000000000
10
-32.7966533376
20
16.3333891064
30
0.0000000000
10
-32.7966403313
20
16.2815106490
30
0.0000000000
11
-35.2188669752
21
17.7786997035
31
0.0000000000
11
-34.6200166086
21
17.6764532084
31
0.0000000000
11
-34.0677654256
21
17.5122474824
31
0.0000000000
11
-33.5918795010
21
17.2952189060
31
0.0000000000
11
-33.2112898902
21
17.0338822799
31
0.0000000000
11
-32.9486235332
21
16.7440636834
31
0.0000000000
11
-32.8130856346
21
16.4358557030
31
0.0000000000
11
-32.7966403313
21
16.2815106490
31
0.0000000000
0
SPLINE
5
40D
100
AcDbEntity
8
0
100
AcDbSpline
62
7
6
CONTINUOUS
70
0
71
3
72
8
73
4
74
2
42
0.0000001000
43
0.0000001000
44
0.0000000001
12
-0.0714193029
22
0.0037599304
32
0.0000000000
13
-0.0704868820
23
0.0011450258
33
0.0000000000
40
0.0000000000
40
0.0000000000
40
0.0000000000
40
0.0000000000
40
1.0000000000
40
1.0000000000
40
1.0000000000
40
1.0000000000
10
-29.3153558985
20
17.0998986880
30
0.0000000000
10
-29.3391623328
20
17.1011519981
30
0.0000000000
10
-29.3622246614
20
17.1018792203
30
0.0000000000
10
-29.3857202887
20
17.1022608956
30
0.0000000000
11
-29.3153558985
21
17.0998986880
31
0.0000000000
11
-29.3857202887
21
17.1022608956
31
0.0000000000
0
SPLINE
5
40E
100
AcDbEntity
8
0
100
AcDbSpline
62
9
6
CONTINUOUS
70
0
71
3
72
10
73
6
74
4
42
0.0000001000
43
0.0000001000
44
0.0000000001
12
0.0000000004
22
-0.3002867242
32
0.0000000000
13
0.2998760844
23
-0.0156987379
33
0.0000000000
40
0.0000000000
40
0.0000000000
40
0.0000000000
40
0.0000000000
40
0.3332001896
40
0.6665279677
40
1.0000000000
40
1.0000000000
40
1.0000000000
40
1.0000000000
10
-30.5961878016
20
17.3535391137
30
0.0000000000
10
-30.5961878016
20
17.3201872492
30
0.0000000000
10
-30.5786830589
20
17.2522674542
30
0.0000000000
10
-30.5069284223
20
17.1767645095
30
0.0000000000
10
-30.4399884189
20
17.1557755195
30
0.0000000000
10
-30.4066549898
20
17.1540304895
30
0.0000000000
11
-30.5961878016
21
17.3535391137
31
0.0000000000
11
-30.5711088792
21
17.2566775144
31
0.0000000000
11
-30.5021673321
21
17.1841113158
31
0.0000000000
11
-30.4066549898
21
17.1540304895
31
0.0000000000
0
SPLINE
5
40F
100
AcDbEntity
8
0
100
AcDbSpline
62
9
6
CONTINUOUS
70
0
71
3
72
9
73
5
74
3
42
0.0000001000
43
0.0000001000
44
0.0000000001
12
0.0044748828
22
-0.1366489039
32
0.0000000000
13
0.0034149948
23
-0.1365506545
33
0.0000000000
40
0.0000000000
40
0.0000000000
40
0.0000000000
40
0.0000000000
40
0.4930812190
40
1.0000000000
40
1.0000000000
40
1.0000000000
40
1.0000000000
10
-27.4804869668
20
15.0136849741
30
0.0000000000
10
-27.4797514733
20
14.9912253048
30
0.0000000000
10
-27.4783336978
20
14.9456837972
30
0.0000000000
10
-27.4770951755
20
14.9000940597
30
0.0000000000
10
-27.4765181339
20
14.8770206960
30
0.0000000000
11
-27.4804869668
21
15.0136849741
31
0.0000000000
11
-27.4783968980
21
14.9463022545
31
0.0000000000
11
-27.4765181339
21
14.8770206960
31
0.0000000000
0
SPLINE
5
410
100
AcDbEntity
8
0
100
AcDbSpline
62
9
6
CONTINUOUS
70
0
71
3
72
9
73
5
74
3
42
0.0000001000
43
0.0000001000
44
0.0000000001
12
0.0030976724
22
-0.1238623267
32
0.0000000000
13
0.0016252421
23
-0.1226633101
33
0.0000000000
40
0.0000000000
40
0.0000000000
40
0.0000000000
40
0.0000000000
40
0.5376662959
40
1.0000000000
40
1.0000000000
40
1.0000000000
40
1.0000000000
10
-27.4765181339
20
14.8770206960
30
0.0000000000
10
-27.4759629625
20
14.8548218298
30
0.0000000000
10
-27.4750178415
20
14.8135979661
30
0.0000000000
10
-27.4744000808
20
14.7719048541
30
0.0000000000
10
-27.4741496127
20
14.7530010599
30
0.0000000000
11
-27.4765181339
21
14.8770206960
31
0.0000000000
11
-27.4750412780
21
14.8103568130
31
0.0000000000
11
-27.4741496127
21
14.7530010599
31
0.0000000000
0
SPLINE
5
411
100
AcDbEntity
8
0
100
AcDbSpline
62
9
6
CONTINUOUS
70
0
71
3
72
11
73
7
74
5
42
0.0000001000
43
0.0000001000
44
0.0000000001
12
-0.0000000879
22
0.3044124612
32
0.0000000000
13
-0.3043859415
23
0.0040181013
33
0.0000000000
40
0.0000000000
40
0.0000000000
40
0.0000000000
40
0.0000000000
40
0.1156866717
40
0.3311353725
40
0.6382884565
40
1.0000000000
40
1.0000000000
40
1.0000000000
40
1.0000000000
10
-27.1961878016
20
14.9382233359
30
0.0000000000
10
-27.1961878050
20
14.9499621574
30
0.0000000000
10
-27.2266522426
20
14.9762739541
30
0.0000000000
10
-27.2864938459
20
14.9934742413
30
0.0000000000
10
-27.3761649559
20
15.0096968199
30
0.0000000000
10
-27.4437870235
20
15.0132003835
30
0.0000000000
10
-27.4804869931
20
15.0136848481
30
0.0000000000
11
-27.1961878016
21
14.9382233359
31
0.0000000000
11
-27.2175450027
21
14.9662245739
31
0.0000000000
11
-27.2785756344
21
14.9902389351
31
0.0000000000
11
-27.3705899979
21
15.0068472530
31
0.0000000000
11
-27.4804869931
21
15.0136848481
31
0.0000000000
0
ENDSEC
0
SECTION
2
OBJECTS
0
DICTIONARY
5
C
100
AcDbDictionary
280
0
281
1
3
ACAD_GROUP
350
D
3
ACAD_MLINESTYLE
350
17
3
ACAD_LAYOUT
350
1A
3
ACAD_PLOTSETTINGS
350
19
3
ACAD_PLOTSTYLENAME
350
E
0
DICTIONARY
5
D
102
{ACAD_REACTORS
330
C
102
}
100
AcDbDictionary
280
0
281
1
0
ACDBDICTIONARYWDFLT
5
E
102
{ACAD_REACTORS
330
C
102
}
100
AcDbDictionary
281
1
3
Normal
350
F
100
AcDbDictionaryWithDefault
340
F
0
DICTIONARY
5
17
102
{ACAD_REACTORS
330
C
102
}
100
AcDbDictionary
280
0
281
1
3
Standard
350
18
0
DICTIONARY
5
19
102
{ACAD_REACTORS
330
C
102
}
100
AcDbDictionary
281
1
0
DICTIONARY
5
1A
102
{ACAD_REACTORS
330
C
102
}
100
AcDbDictionary
281
1
3
Layout1
350
1E
3
Model
350
22
0
ACDBPLACEHOLDER
5
F
102
{ACAD_REACTORS
330
E
102
}
0
MLINESTYLE
5
18
102
{ACAD_REACTORS
330
17
102
}
100
AcDbMlineStyle
2
STANDARD
70
0
3

62
256
51
90.0
52
90.0
71
2
49
0.5
62
256
6
BYLAYER
49
-0.5
62
256
6
BYLAYER
0
LAYOUT
5
1E
102
{ACAD_REACTORS
330
1A
102
}
100
AcDbPlotSettings
1

2

4

6

40
0.0
41
0.0
42
0.0
43
0.0
44
0.0
45
0.0
46
0.0
47
0.0
48
0.0
49
0.0
140
0.0
141
0.0
142
1.0
143
1.0
70
0
72
0
73
0
74
0
7

75
0
147
1.0
148
0.0
149
0.0
100
AcDbLayout
1
Layout1
70
0
71
0
10
0.0
20
0.0
11
0.0
21
0.0
12
0.0
22
0.0
32
0.0
14
0.0
24
0.0
34
0.0
15
0.0
25
0.0
35
0.0
146
0.0
13
0.0
23
0.0
33
0.0
16
0.0
26
0.0
36
0.0
17
0.0
27
0.0
37
0.0
76
0
330
1B
331
0
345
0
346
0
0
LAYOUT
5
22
102
{ACAD_REACTORS
330
1A
102
}
100
AcDbPlotSettings
1

2

4

6

40
0.0
41
0.0
42
0.0
43
0.0
44
0.0
45
0.0
46
0.0
47
0.0
48
0.0
49
0.0
140
0.0
141
0.0
142
1.0
143
1.0
70
0
72
0
73
0
74
0
7

75
0
147
1.0
148
0.0
149
0.0
100
AcDbLayout
1
Model
70
0
71
0
10
0.0
20
0.0
11
0.0
21
0.0
12
0.0
22
0.0
32
0.0
14
0.0
24
0.0
34
0.0
15
0.0
25
0.0
35
0.0
146
0.0
13
0.0
23
0.0
33
0.0
16
0.0
26
0.0
36
0.0
17
0.0
27
0.0
37
0.0
76
0
330
1F
331
0
345
0
346
0
0
ENDSEC
0
EOF
