0
SECTION
2
HEADER
9
$ACADVER
1
AC1015
9
$DWGCODEPAGE
3
ANSI_1252
9
$EXTMAX
10
297.0000000000
20
210.0000000000
30
0.0000000000
9
$EXTMIN
10
0.0000000000
20
0.0000000000
30
0.0000000000
9
$LIMMIN
10
0.0000000000
20
0.0000000000
9
$LIMMAX
10
297.0000000000
20
210.0000000000
9
$VIEWCTR
10
148.5000000000
20
105.0000000000
9
$VIEWSIZE
40
210.0000000000
9
$CLAYER
8
0
9
$LTSCALE
40
16.3350000000
9
$CELTYPE
6
BYLAYER
9
$DIMSCALE
40
1
9
$DIMASZ
40
3.0000000000
9
$DIMEXO
40
1.8562500000
9
$DIMDLI
40
11.2860000000
9
$DIMEXE
40
5.3460000000
9
$DIMCEN
40
2.6730000000
9
$DIMLFAC
40
1.0000000000
9
$DIMBLK
1
_FILLED
9
$DIMTXT
40
3.0000000000
9
$DIMTOL
70
1
9
$DIMLIM
70
0
9
$DIMTFAC
40
1.0000000000
9
$DIMTP
40
0.0100000000
9
$DIMTM
40
0.0100000000
9
$PDMODE
70
3
9
$PDSIZE
40
3.0000000000
9
$HANDSEED
5
403
9
$MEASUREMENT
70
1
9
$INSUNITS
70
4
0
ENDSEC
0
SECTION
2
CLASSES
0
CLASS
1
ACDBDICTIONARYWDFLT
2
AcDbDictionaryWithDefault
3
AutoCAD 2000
90
0
280
0
281
0
0
CLASS
1
ACDBPLACEHOLDER
2
AcDbPlaceHolder
3
AutoCAD 2000
90
0
280
0
281
0
0
CLASS
1
LAYOUT
2
AcDbLayout
3
AutoCAD 2000
90
0
280
0
281
0
0
ENDSEC
0
SECTION
2
TABLES
0
TABLE
2
VPORT
5
8
100
AcDbSymbolTable
70
2
0
VPORT
5
1F4
100
AcDbSymbolTableRecord
100
AcDbViewportTableRecord
2
*ACTIVE
70
0
10
0.0
20
0.0
11
1.0
21
1.0
12
148.5000000000
22
105.0000000000
13
0.0
23
0.0
14
1.0
24
1.0
15
0.0
25
0.0
16
0.0
26
0.0
36
1.0
17
0.0
27
0.0
37
0.0
40
210.0000000000
41
1.4142857143
42
50.0
43
0.0
44
0.0
50
0.0
51
0.0
71
0
72
100
73
1
74
1
75
0
76
0
77
0
78
0
0
ENDTAB
0
TABLE
2
LTYPE
5
5
100
AcDbSymbolTable
70
6
0
LTYPE
5
14
100
AcDbSymbolTableRecord
100
AcDbLinetypeTableRecord
2
BYBLOCK
70
0
3

72
65
73
0
40
0.0
0
LTYPE
5
15
100
AcDbSymbolTableRecord
100
AcDbLinetypeTableRecord
2
BYLAYER
70
0
3

72
65
73
0
40
0.0
0
LTYPE
5
16
100
AcDbSymbolTableRecord
100
AcDbLinetypeTableRecord
2
CONTINUOUS
70
64
3
Solid line
72
65
73
0
40
0
0
LTYPE
5
1F5
100
AcDbSymbolTableRecord
100
AcDbLinetypeTableRecord
2
CENTER
70
64
3
____ _ ____ _ ____ _ ____ _ ____ _ ____ _ ____
72
65
73
4
40
0.6
49
0.375
74
0
49
-0.075
74
0
49
0.075
74
0
49
-0.075
74
0
0
LTYPE
5
1F6
100
AcDbSymbolTableRecord
100
AcDbLinetypeTableRecord
2
HIDDEN
70
64
3
- - - - - - - - - - - - - - - - - - - -
72
65
73
2
40
0.2
49
0.1
74
0
49
-0.1
74
0
0
LTYPE
5
1F7
100
AcDbSymbolTableRecord
100
AcDbLinetypeTableRecord
2
PHANTOM
70
64
3
_____ _ _ _____ _ _ _____ _ _ _____
72
65
73
6
40
0.8
49
0.45
74
0
49
-0.05
74
0
49
0.1
74
0
49
-0.05
74
0
49
0.1
74
0
49
-0.05
74
0
0
LTYPE
5
1F8
100
AcDbSymbolTableRecord
100
AcDbLinetypeTableRecord
2
DOT
70
64
3
. . . . . . . . . . . . . . . . . . . .
72
65
73
2
40
0.2
49
0.1
74
0
49
-0.1
74
0
0
LTYPE
5
1F9
100
AcDbSymbolTableRecord
100
AcDbLinetypeTableRecord
2
DASHED
70
64
3
- - - - - - - - - - - - - - - - - - - -
72
65
73
2
40
0.2
49
0.1
74
0
49
-0.1
74
0
0
ENDTAB
0
TABLE
2
LAYER
5
2
100
AcDbSymbolTable
70
36
0
LAYER
5
10
100
AcDbSymbolTableRecord
100
AcDbLayerTableRecord
2
0
70
0
62
7
6
CONTINUOUS
370
-3
390
F
0
LAYER
5
1FA
100
AcDbSymbolTableRecord
100
AcDbLayerTableRecord
2
DEFAULT_1
70
0
62
7
6
CENTER
370
-3
390
F
0
LAYER
5
1FB
100
AcDbSymbolTableRecord
100
AcDbLayerTableRecord
2
DEFAULT_2
70
0
62
8
6
HIDDEN
370
-3
390
F
0
LAYER
5
1FC
100
AcDbSymbolTableRecord
100
AcDbLayerTableRecord
2
DEFAULT_3
70
0
62
7
6
PHANTOM
370
-3
390
F
0
LAYER
5
1FD
100
AcDbSymbolTableRecord
100
AcDbLayerTableRecord
2
_BLACK_HOLE
70
0
62
7
6
CONTINUOUS
370
-3
390
F
0
LAYER
5
1FE
100
AcDbSymbolTableRecord
100
AcDbLayerTableRecord
2
ASSI
70
0
62
7
6
CONTINUOUS
370
-3
390
F
0
LAYER
5
1FF
100
AcDbSymbolTableRecord
100
AcDbLayerTableRecord
2
COORDINATE
70
0
62
7
6
CONTINUOUS
370
-3
390
F
0
LAYER
5
200
100
AcDbSymbolTableRecord
100
AcDbLayerTableRecord
2
COORD_ORIGINE
70
0
62
7
6
CONTINUOUS
370
-3
390
F
0
LAYER
5
201
100
AcDbSymbolTableRecord
100
AcDbLayerTableRecord
2
COSMETICHE
70
0
62
7
6
CONTINUOUS
370
-3
390
F
0
LAYER
5
202
100
AcDbSymbolTableRecord
100
AcDbLayerTableRecord
2
COSMETICI
70
0
62
7
6
CONTINUOUS
370
-3
390
F
0
LAYER
5
203
100
AcDbSymbolTableRecord
100
AcDbLayerTableRecord
2
CURVE
70
0
62
7
6
CONTINUOUS
370
-3
390
F
0
LAYER
5
204
100
AcDbSymbolTableRecord
100
AcDbLayerTableRecord
2
DRAFT
70
0
62
7
6
CONTINUOUS
370
-3
390
F
0
LAYER
5
205
100
AcDbSymbolTableRecord
100
AcDbLayerTableRecord
2
IMPORT_FEATURES
70
0
62
7
6
CONTINUOUS
370
-3
390
F
0
LAYER
5
206
100
AcDbSymbolTableRecord
100
AcDbLayerTableRecord
2
INTF_1
70
0
62
7
6
CONTINUOUS
370
-3
390
F
0
LAYER
5
207
100
AcDbSymbolTableRecord
100
AcDbLayerTableRecord
2
INTF_7
70
0
62
7
6
CONTINUOUS
370
-3
390
F
0
LAYER
5
208
100
AcDbSymbolTableRecord
100
AcDbLayerTableRecord
2
NOTE
70
0
62
7
6
CONTINUOUS
370
-3
390
F
0
LAYER
5
209
100
AcDbSymbolTableRecord
100
AcDbLayerTableRecord
2
PIANI
70
0
62
7
6
CONTINUOUS
370
-3
390
F
0
LAYER
5
20A
100
AcDbSymbolTableRecord
100
AcDbLayerTableRecord
2
PIANI_ORIGINE
70
0
62
7
6
CONTINUOUS
370
-3
390
F
0
LAYER
5
20B
100
AcDbSymbolTableRecord
100
AcDbLayerTableRecord
2
PIANI_RIFERIMENTO
70
0
62
7
6
CONTINUOUS
370
-3
390
F
0
LAYER
5
20C
100
AcDbSymbolTableRecord
100
AcDbLayerTableRecord
2
PUNTI
70
0
62
7
6
CONTINUOUS
370
-3
390
F
0
LAYER
5
20D
100
AcDbSymbolTableRecord
100
AcDbLayerTableRecord
2
RACCORDO
70
0
62
7
6
CONTINUOUS
370
-3
390
F
0
LAYER
5
20E
100
AcDbSymbolTableRecord
100
AcDbLayerTableRecord
2
RGB__255__255__255__
70
0
62
7
6
CONTINUOUS
370
-3
390
F
0
LAYER
5
20F
100
AcDbSymbolTableRecord
100
AcDbLayerTableRecord
2
RGB____0____0____0__
70
0
62
7
6
CONTINUOUS
370
-3
390
F
0
LAYER
5
210
100
AcDbSymbolTableRecord
100
AcDbLayerTableRecord
2
SMUSSO
70
0
62
7
6
CONTINUOUS
370
-3
390
F
0
LAYER
5
211
100
AcDbSymbolTableRecord
100
AcDbLayerTableRecord
2
SNAPLINE
70
0
62
7
6
CONTINUOUS
370
-3
390
F
0
LAYER
5
212
100
AcDbSymbolTableRecord
100
AcDbLayerTableRecord
2
SUPERFICI
70
0
62
7
6
CONTINUOUS
370
-3
390
F
0
LAYER
5
213
100
AcDbSymbolTableRecord
100
AcDbLayerTableRecord
2
TRASH
70
0
62
7
6
CONTINUOUS
370
-3
390
F
0
ENDTAB
0
TABLE
2
STYLE
5
3
100
AcDbSymbolTable
70
1
0
STYLE
5
11
100
AcDbSymbolTableRecord
100
AcDbTextStyleTableRecord
2
STANDARD
70
0
40
0.0
41
0.8000000000
50
0.0
71
0
42
0.2
3
txt
4

0
ENDTAB
0
TABLE
2
VIEW
5
6
100
AcDbSymbolTable
70
0
0
ENDTAB
0
TABLE
2
UCS
5
7
100
AcDbSymbolTable
70
0
0
ENDTAB
0
TABLE
2
APPID
5
9
100
AcDbSymbolTable
70
1
0
APPID
5
214
100
AcDbSymbolTableRecord
100
AcDbRegAppTableRecord
2
ACAD
70
0
0
ENDTAB
0
TABLE
2
BLOCK_RECORD
5
1
100
AcDbSymbolTable
70
0
0
BLOCK_RECORD
5
1F
100
AcDbSymbolTableRecord
100
AcDbBlockTableRecord
2
*MODEL_SPACE
0
BLOCK_RECORD
5
1B
100
AcDbSymbolTableRecord
100
AcDbBlockTableRecord
2
*PAPER_SPACE
0
BLOCK_RECORD
5
215
100
AcDbSymbolTableRecord
100
AcDbBlockTableRecord
2
_FILLED
0
BLOCK_RECORD
5
216
100
AcDbSymbolTableRecord
100
AcDbBlockTableRecord
2
*D0
0
BLOCK_RECORD
5
217
100
AcDbSymbolTableRecord
100
AcDbBlockTableRecord
2
*D1
0
BLOCK_RECORD
5
218
100
AcDbSymbolTableRecord
100
AcDbBlockTableRecord
2
*D2
0
BLOCK_RECORD
5
219
100
AcDbSymbolTableRecord
100
AcDbBlockTableRecord
2
*D3
0
ENDTAB
0
TABLE
2
DIMSTYLE
5
A
100
AcDbSymbolTable
70
1
100
AcDbDimStyleTable
71
0
0
DIMSTYLE
105
21A
100
AcDbSymbolTableRecord
100
AcDbDimStyleTableRecord
2
STANDARD
70
0
3

4

40
1.0
41
3.0000000000
42
0.0625
43
0.38
44
0.18
45
0.0
46
0.0
47
0.0100000000
48
0.0100000000
140
3.0000000000
141
0.09
142
0.0
143
25.4
144
1.0000000000
145
0.0
146
1.0000000000
147
0.09
71
1
72
0
73
0
74
0
75
0
76
0
77
1
78
8
170
0
171
2
172
0
173
0
174
0
175
0
176
0
177
0
178
0
270
2
271
2
272
2
273
2
274
2
275
0
280
0
281
0
282
0
283
1
284
8
285
0
286
0
287
3
288
0
340
11
341
215
342
215
343
215
344
215
0
DIMSTYLE
105
21B
100
AcDbSymbolTableRecord
100
AcDbDimStyleTableRecord
2
DIMSTYLE_1
70
0
3

4

40
1.0
41
3.0000000000
42
0.0625
43
0.38
44
0.18
45
0.0
46
0.0
47
0.0000000000
48
0.0000000000
140
3.0000000000
141
0.09
142
0.0
143
25.4
144
1.0000000000
145
0.0
146
1.0000000000
147
0.09
71
0
72
0
73
0
74
0
75
0
76
0
77
1
78
8
170
0
171
2
172
0
173
0
174
0
175
0
176
0
177
0
178
0
270
2
271
2
272
2
273
2
274
2
275
0
280
0
281
0
282
0
283
1
284
8
285
0
286
0
287
3
288
0
340
11
341
215
342
215
343
215
344
215
0
ENDTAB
0
ENDSEC
0
SECTION
2
BLOCKS
0
BLOCK
5
20
100
AcDbEntity
8
0
100
AcDbBlockBegin
2
*MODEL_SPACE
70
0
10
0.0
20
0.0
30
0.0
3
*MODEL_SPACE
1

0
ENDBLK
5
21
100
AcDbEntity
8
0
100
AcDbBlockEnd
0
BLOCK
5
1C
100
AcDbEntity
8
0
100
AcDbBlockBegin
2
*PAPER_SPACE
70
0
10
0.0
20
0.0
30
0.0
3
*PAPER_SPACE
1

0
ENDBLK
5
1D
100
AcDbEntity
8
0
100
AcDbBlockEnd
0
BLOCK
5
21C
100
AcDbEntity
8
0
100
AcDbBlockBegin
62
2
6
CONTINUOUS
2
*D0
70
65
10
0.0000000000
20
0.0000000000
3
*D0
1

0
TEXT
5
21D
100
AcDbEntity
8
0
100
AcDbText
62
2
6
CONTINUOUS
10
29.6500000000
20
-2.3571428571
7
STANDARD
40
3.0000000000
1
47
50
90.0000000000
41
0.7857142857
72
0
100
AcDbText
0
LINE
5
21E
100
AcDbEntity
8
0
100
AcDbLine
62
2
6
CONTINUOUS
10
15.4248577542
20
23.5000000000
11
31.9000000000
21
23.5000000000
0
LINE
5
21F
100
AcDbEntity
8
0
100
AcDbLine
62
2
6
CONTINUOUS
10
15.4248576384
20
-23.5000000000
11
31.9000000000
21
-23.5000000000
0
LINE
5
220
100
AcDbEntity
8
0
100
AcDbLine
62
2
6
CONTINUOUS
10
30.4000000000
20
23.5000000000
11
30.4000000000
21
-0.0000000000
0
LINE
5
221
100
AcDbEntity
8
0
100
AcDbLine
62
2
6
CONTINUOUS
10
30.4000000000
20
-23.5000000000
11
30.4000000000
21
-0.0000000000
0
INSERT
5
222
100
AcDbEntity
8
0
100
AcDbBlockReference
62
2
6
CONTINUOUS
2
_FILLED
10
30.4000000000
20
23.5000000000
41
  3.000000
42
  3.000000
43
  3.000000
50
 90.000000
0
INSERT
5
223
100
AcDbEntity
8
0
100
AcDbBlockReference
62
2
6
CONTINUOUS
2
_FILLED
10
30.4000000000
20
-23.5000000000
41
  3.000000
42
  3.000000
43
  3.000000
50
270.000000
0
ENDBLK
5
224
100
AcDbEntity
8
0
6
BYBLOCK
62
0
100
AcDbBlockEnd
0
BLOCK
5
225
100
AcDbEntity
8
0
100
AcDbBlockBegin
62
2
6
CONTINUOUS
2
*D1
70
65
10
0.0000000000
20
0.0000000000
3
*D1
1

0
TEXT
5
226
100
AcDbEntity
8
0
100
AcDbText
62
2
6
CONTINUOUS
10
-4.3928571429
20
32.2500000000
7
STANDARD
40
3.0000000000
1
44,8
41
0.7321428571
72
0
100
AcDbText
0
LINE
5
227
100
AcDbEntity
8
0
100
AcDbLine
62
2
6
CONTINUOUS
10
22.4000000000
20
22.3997711479
11
22.4000000000
21
33.0000000000
0
LINE
5
228
100
AcDbEntity
8
0
100
AcDbLine
62
2
6
CONTINUOUS
10
-22.4000000000
20
16.6196591660
11
-22.4000000000
21
33.0000000000
0
LINE
5
229
100
AcDbEntity
8
0
100
AcDbLine
62
2
6
CONTINUOUS
10
22.4000000000
20
31.5000000000
11
-0.0000000000
21
31.5000000000
0
LINE
5
22A
100
AcDbEntity
8
0
100
AcDbLine
62
2
6
CONTINUOUS
10
-22.4000000000
20
31.5000000000
11
-0.0000000000
21
31.5000000000
0
INSERT
5
22B
100
AcDbEntity
8
0
100
AcDbBlockReference
62
2
6
CONTINUOUS
2
_FILLED
10
22.4000000000
20
31.5000000000
41
  3.000000
42
  3.000000
43
  3.000000
50
  0.000000
0
INSERT
5
22C
100
AcDbEntity
8
0
100
AcDbBlockReference
62
2
6
CONTINUOUS
2
_FILLED
10
-22.4000000000
20
31.5000000000
41
  3.000000
42
  3.000000
43
  3.000000
50
180.000000
0
ENDBLK
5
22D
100
AcDbEntity
8
0
6
BYBLOCK
62
0
100
AcDbBlockEnd
0
BLOCK
5
22E
100
AcDbEntity
8
0
100
AcDbBlockBegin
62
2
6
CONTINUOUS
2
*D2
70
65
10
0.0000000000
20
0.0000000000
3
*D2
1

0
TEXT
5
22F
100
AcDbEntity
8
0
100
AcDbText
62
2
6
CONTINUOUS
10
-52.7458156113
20
32.2500000000
7
STANDARD
40
3.0000000000
1
29,8
41
0.7321428571
72
0
100
AcDbText
0
LINE
5
230
100
AcDbEntity
8
0
100
AcDbLine
62
2
6
CONTINUOUS
10
-33.4529584685
20
15.3611453598
11
-33.4529584685
21
33.0000000000
0
LINE
5
231
100
AcDbEntity
8
0
100
AcDbLine
62
2
6
CONTINUOUS
10
-63.2529584685
20
22.3997711479
11
-63.2529584685
21
33.0000000000
0
LINE
5
232
100
AcDbEntity
8
0
100
AcDbLine
62
2
6
CONTINUOUS
10
-33.4529584685
20
31.5000000000
11
-48.3529584685
21
31.5000000000
0
LINE
5
233
100
AcDbEntity
8
0
100
AcDbLine
62
2
6
CONTINUOUS
10
-63.2529584685
20
31.5000000000
11
-48.3529584685
21
31.5000000000
0
INSERT
5
234
100
AcDbEntity
8
0
100
AcDbBlockReference
62
2
6
CONTINUOUS
2
_FILLED
10
-33.4529584685
20
31.5000000000
41
  3.000000
42
  3.000000
43
  3.000000
0
INSERT
5
235
100
AcDbEntity
8
0
100
AcDbBlockReference
62
2
6
CONTINUOUS
2
_FILLED
10
-63.2529584685
20
31.5000000000
41
  3.000000
42
  3.000000
43
  3.000000
50
180.000000
0
ENDBLK
5
236
100
AcDbEntity
8
0
6
BYBLOCK
62
0
100
AcDbBlockEnd
0
BLOCK
5
237
100
AcDbEntity
8
0
100
AcDbBlockBegin
62
2
6
CONTINUOUS
2
*D3
70
65
10
0.0000000000
20
0.0000000000
3
*D3
1

0
TEXT
5
238
100
AcDbEntity
8
0
100
AcDbText
62
2
6
CONTINUOUS
10
-57.2815298970
20
42.2500000000
7
STANDARD
40
3.0000000000
1
39,3
41
0.6964285714
72
0
100
AcDbText
0
LINE
5
239
100
AcDbEntity
8
0
100
AcDbLine
62
2
6
CONTINUOUS
10
-72.7529584685
20
0.5000000000
11
-72.7529584685
21
43.0000000000
0
LINE
5
23A
100
AcDbEntity
8
0
100
AcDbLine
62
2
6
CONTINUOUS
10
-33.4529584685
20
13.2500000000
11
-33.4529584685
21
43.0000000000
0
LINE
5
23B
100
AcDbEntity
8
0
100
AcDbLine
62
2
6
CONTINUOUS
10
-72.7529584685
20
41.5000000000
11
-53.1029584685
21
41.5000000000
0
LINE
5
23C
100
AcDbEntity
8
0
100
AcDbLine
62
2
6
CONTINUOUS
10
-33.4529584685
20
41.5000000000
11
-53.1029584685
21
41.5000000000
0
INSERT
5
23D
100
AcDbEntity
8
0
100
AcDbBlockReference
62
2
6
CONTINUOUS
2
_FILLED
10
-72.7529584685
20
41.5000000000
41
  3.000000
42
  3.000000
43
  3.000000
50
180.000000
0
INSERT
5
23E
100
AcDbEntity
8
0
100
AcDbBlockReference
62
2
6
CONTINUOUS
2
_FILLED
10
-33.4529584685
20
41.5000000000
41
  3.000000
42
  3.000000
43
  3.000000
0
ENDBLK
5
23F
100
AcDbEntity
8
0
6
BYBLOCK
62
0
100
AcDbBlockEnd
0
BLOCK
5
240
100
AcDbEntity
8
0
100
AcDbBlockBegin
2
_FILLED
70
64
10
0.0000000000
20
0.0000000000
3
_FILLED
1

0
SOLID
5
241
100
AcDbEntity
8
0
6
BYBLOCK
62
0
100
AcDbTrace
10
0.0000000000
20
0.0000000000
11
-1.0000000000
21
0.3166666667
12
-1.0000000000
22
-0.3166666667
13
-1.0000000000
23
-0.3166666667
0
ENDBLK
5
242
100
AcDbEntity
8
0
6
BYBLOCK
62
0
100
AcDbBlockEnd
0
ENDSEC
0
SECTION
2
ENTITIES
0
DIMENSION
5
243
100
AcDbEntity
8
0
100
AcDbDimension
62
2
6
CONTINUOUS
2
*D0
10
30.4000000000
20
-23.5000000000
11
28.1500000000
21
-0.0000000000
70
160
3
DIMSTYLE_1
100
AcDbAlignedDimension
13
15.4248577542
23
23.5000000000
14
15.4248576384
24
-23.5000000000
50
270.000000
100
AcDbRotatedDimension
0
DIMENSION
5
244
100
AcDbEntity
8
0
100
AcDbDimension
62
2
6
CONTINUOUS
2
*D1
10
-22.4000000000
20
31.5000000000
11
-0.0000000000
21
33.7500000000
70
160
3
DIMSTYLE_1
100
AcDbAlignedDimension
13
22.4000000000
23
22.3997711479
14
-22.4000000000
24
16.6196591660
50
180.000000
100
AcDbRotatedDimension
0
DIMENSION
5
245
100
AcDbEntity
8
0
100
AcDbDimension
62
2
6
CONTINUOUS
2
*D2
10
-63.2529584685
20
31.5000000000
11
-48.3529584685
21
33.7500000000
70
160
3
DIMSTYLE_1
100
AcDbAlignedDimension
13
-33.4529584685
23
15.3611453598
14
-63.2529584685
24
22.3997711479
50
180.000000
100
AcDbRotatedDimension
0
DIMENSION
5
246
100
AcDbEntity
8
0
100
AcDbDimension
62
2
6
CONTINUOUS
2
*D3
10
-33.4529584685
20
41.5000000000
11
-53.1029584685
21
43.7500000000
70
160
3
DIMSTYLE_1
100
AcDbAlignedDimension
13
-72.7529584685
23
0.5000000000
14
-33.4529584685
24
13.2500000000
100
AcDbRotatedDimension
0
LINE
5
247
100
AcDbEntity
8
0
100
AcDbLine
62
7
6
CONTINUOUS
10
-14.4833672024
20
22.5000000000
11
-14.5500000000
21
22.4000000000
0
LINE
5
248
100
AcDbEntity
8
0
100
AcDbLine
62
7
6
CONTINUOUS
10
-14.5500000000
20
-22.4000000000
11
-14.4833672024
21
-22.5000000000
0
LINE
5
249
100
AcDbEntity
8
0
100
AcDbLine
62
7
6
CONTINUOUS
10
-22.4000000000
20
-21.8997711479
11
-22.4000000000
21
21.8997711479
0
LINE
5
24A
100
AcDbEntity
8
0
100
AcDbLine
62
7
6
CONTINUOUS
10
-14.9248576384
20
-23.5000000000
11
-7.5751423616
21
-23.5000000000
0
LINE
5
24B
100
AcDbEntity
8
0
100
AcDbLine
62
7
6
CONTINUOUS
10
7.5751423616
20
-23.5000000000
11
14.9248576384
21
-23.5000000000
0
LINE
5
24C
100
AcDbEntity
8
0
100
AcDbLine
62
7
6
CONTINUOUS
10
-14.7198202597
20
-22.5000000000
11
-7.7801797403
21
-22.5000000000
0
LINE
5
24D
100
AcDbEntity
8
0
100
AcDbLine
62
7
6
CONTINUOUS
10
7.7801797403
20
-22.5000000000
11
14.7198202597
21
-22.5000000000
0
LINE
5
24E
100
AcDbEntity
8
0
100
AcDbLine
62
7
6
CONTINUOUS
10
21.9003805997
20
-22.4000000000
11
14.5500000000
21
-22.4000000000
0
LINE
5
24F
100
AcDbEntity
8
0
100
AcDbLine
62
7
6
CONTINUOUS
10
7.9500000000
20
-22.4000000000
11
-7.9500000000
21
-22.4000000000
0
LINE
5
250
100
AcDbEntity
8
0
100
AcDbLine
62
7
6
CONTINUOUS
10
-14.5500000000
20
-22.4000000000
11
-21.9003805997
21
-22.4000000000
0
LINE
5
251
100
AcDbEntity
8
0
100
AcDbLine
62
9
6
CONTINUOUS
10
21.7587981167
20
-21.9749071372
11
-21.7587981167
21
-21.9749071372
0
LINE
5
252
100
AcDbEntity
8
0
100
AcDbLine
62
9
6
CONTINUOUS
10
21.7505350625
20
-21.0183142309
11
-21.7505350625
21
-21.0183142309
0
LINE
5
253
100
AcDbEntity
8
0
100
AcDbLine
62
7
6
CONTINUOUS
10
-14.6133443637
20
22.5000000000
11
-14.6348722771
21
22.4000000000
0
LINE
5
254
100
AcDbEntity
8
0
100
AcDbLine
62
7
6
CONTINUOUS
10
-14.6133443637
20
-22.5000000000
11
-14.6348722771
21
-22.4000000000
0
LINE
5
255
100
AcDbEntity
8
0
100
AcDbLine
62
7
6
CONTINUOUS
10
-14.7198202597
20
22.5000000000
11
-14.7198202597
21
22.4000000000
0
LINE
5
256
100
AcDbEntity
8
0
100
AcDbLine
62
7
6
CONTINUOUS
10
-14.7198202597
20
-22.5000000000
11
-14.7198202597
21
-22.4000000000
0
LINE
5
257
100
AcDbEntity
8
0
100
AcDbLine
62
9
6
CONTINUOUS
10
-22.4000000000
20
-21.8997711479
11
-22.2587219643
21
-21.4755923698
0
LINE
5
258
100
AcDbEntity
8
0
100
AcDbLine
62
9
6
CONTINUOUS
10
-21.9003805997
20
-22.4000000000
11
-21.7587981167
21
-21.9749071372
0
LINE
5
259
100
AcDbEntity
8
0
100
AcDbLine
62
9
6
CONTINUOUS
10
-22.2587219643
20
21.4755923698
11
-22.4000000000
21
21.8997711479
0
LINE
5
25A
100
AcDbEntity
8
0
100
AcDbLine
62
9
6
CONTINUOUS
10
-21.7587981167
20
21.9749071372
11
-21.9003805997
21
22.4000000000
0
LINE
5
25B
100
AcDbEntity
8
0
100
AcDbLine
62
7
6
CONTINUOUS
10
-7.8133443637
20
22.5000000000
11
-7.8348722771
21
22.4000000000
0
LINE
5
25C
100
AcDbEntity
8
0
100
AcDbLine
62
7
6
CONTINUOUS
10
-11.5506224556
20
-4.4437350479
11
-7.0256224556
21
-12.2812649521
0
LINE
5
25D
100
AcDbEntity
8
0
100
AcDbLine
62
7
6
CONTINUOUS
10
-7.8133443637
20
-22.5000000000
11
-7.8348722771
21
-22.4000000000
0
LINE
5
25E
100
AcDbEntity
8
0
100
AcDbLine
62
7
6
CONTINUOUS
10
-14.6866556363
20
-22.5000000000
11
-14.6651277229
21
-22.4000000000
0
LINE
5
25F
100
AcDbEntity
8
0
100
AcDbLine
62
7
6
CONTINUOUS
10
-4.9037910160
20
-11.0563848105
11
-9.4288602163
21
-3.2187350479
0
LINE
5
260
100
AcDbEntity
8
0
100
AcDbLine
62
7
6
CONTINUOUS
10
-14.6866556363
20
22.5000000000
11
-14.6651277229
21
22.4000000000
0
LINE
5
261
100
AcDbEntity
8
0
100
AcDbLine
62
7
6
CONTINUOUS
10
-7.7801797403
20
-22.4000000000
11
-7.7801797403
21
-22.5000000000
0
LINE
5
262
100
AcDbEntity
8
0
100
AcDbLine
62
7
6
CONTINUOUS
10
-7.7801797403
20
22.4000000000
11
-7.7801797403
21
22.5000000000
0
LINE
5
263
100
AcDbEntity
8
0
100
AcDbLine
62
7
6
CONTINUOUS
10
1.2334945667
20
12.6334945667
11
1.2244774121
21
12.6244774121
0
LINE
5
264
100
AcDbEntity
8
0
100
AcDbLine
62
7
6
CONTINUOUS
10
4.9038602163
20
-11.0562649521
11
7.0256224556
21
-12.2812649521
0
LINE
5
265
100
AcDbEntity
8
0
100
AcDbLine
62
7
6
CONTINUOUS
10
8.0166327976
20
22.5000000000
11
7.9500000000
21
22.4000000000
0
LINE
5
266
100
AcDbEntity
8
0
100
AcDbLine
62
7
6
CONTINUOUS
10
7.9500000000
20
-22.4000000000
11
8.0166327976
21
-22.5000000000
0
LINE
5
267
100
AcDbEntity
8
0
100
AcDbLine
62
7
6
CONTINUOUS
10
-7.8866556363
20
-22.5000000000
11
-7.8651277229
21
-22.4000000000
0
LINE
5
268
100
AcDbEntity
8
0
100
AcDbLine
62
7
6
CONTINUOUS
10
-1.2347538121
20
3.5652461879
11
-1.2257608625
21
3.5742391375
0
LINE
5
269
100
AcDbEntity
8
0
100
AcDbLine
62
7
6
CONTINUOUS
10
-9.4288602163
20
-3.2187350479
11
-11.5506224556
21
-4.4437350479
0
LINE
5
26A
100
AcDbEntity
8
0
100
AcDbLine
62
7
6
CONTINUOUS
10
-7.8866556363
20
22.5000000000
11
-7.8651277229
21
22.4000000000
0
LINE
5
26B
100
AcDbEntity
8
0
100
AcDbLine
62
7
6
CONTINUOUS
10
-1.0339557206
20
11.5447082315
11
-1.0339557206
21
12.6244774121
0
LINE
5
26C
100
AcDbEntity
8
0
100
AcDbLine
62
7
6
CONTINUOUS
10
-0.7549298257
20
12.6244774121
11
-0.7549298257
21
11.5447082315
0
LINE
5
26D
100
AcDbEntity
8
0
100
AcDbLine
62
9
6
CONTINUOUS
10
-0.3178932188
20
4.5500000000
11
-0.3178932188
21
11.5447082315
0
LINE
5
26E
100
AcDbEntity
8
0
100
AcDbLine
62
3
6
CONTINUOUS
10
-0.0566349905
20
12.6244774121
11
-0.0566349905
21
11.5447082315
0
LINE
5
26F
100
AcDbEntity
8
0
100
AcDbLine
62
3
6
CONTINUOUS
10
-0.0250000000
20
4.5500000000
11
-0.0250000000
21
11.5447082315
0
LINE
5
270
100
AcDbEntity
8
0
100
AcDbLine
62
3
6
CONTINUOUS
10
0.0250000000
20
11.5447082315
11
0.0250000000
21
4.5500000000
0
LINE
5
271
100
AcDbEntity
8
0
100
AcDbLine
62
3
6
CONTINUOUS
10
0.0566349905
20
11.5447082315
11
0.0566349905
21
12.6244774121
0
LINE
5
272
100
AcDbEntity
8
0
100
AcDbLine
62
9
6
CONTINUOUS
10
0.3178932188
20
4.5500000000
11
0.3178932188
21
11.5447082315
0
LINE
5
273
100
AcDbEntity
8
0
100
AcDbLine
62
7
6
CONTINUOUS
10
0.7549298257
20
11.5447082315
11
0.7549298257
21
12.6244774121
0
LINE
5
274
100
AcDbEntity
8
0
100
AcDbLine
62
7
6
CONTINUOUS
10
1.0339557206
20
12.6244774121
11
1.0339557206
21
11.5447082315
0
LINE
5
275
100
AcDbEntity
8
0
100
AcDbLine
62
7
6
CONTINUOUS
10
11.5506224556
20
-4.4437350479
11
9.4288602163
21
-3.2187350479
0
LINE
5
276
100
AcDbEntity
8
0
100
AcDbLine
62
7
6
CONTINUOUS
10
7.8866556363
20
22.5000000000
11
7.8651277229
21
22.4000000000
0
LINE
5
277
100
AcDbEntity
8
0
100
AcDbLine
62
7
6
CONTINUOUS
10
-1.2257608625
20
3.5742391375
11
1.2257608625
21
3.5742391375
0
LINE
5
278
100
AcDbEntity
8
0
100
AcDbLine
62
7
6
CONTINUOUS
10
1.2257246945
20
4.0809556185
11
-1.2257246945
21
4.0809556185
0
LINE
5
279
100
AcDbEntity
8
0
100
AcDbLine
62
7
6
CONTINUOUS
10
-1.2257084369
20
4.3087268678
11
1.2257084369
21
4.3087268678
0
LINE
5
27A
100
AcDbEntity
8
0
100
AcDbLine
62
3
6
CONTINUOUS
10
1.2256912155
20
4.5500000000
11
-1.2256912155
21
4.5500000000
0
LINE
5
27B
100
AcDbEntity
8
0
100
AcDbLine
62
7
6
CONTINUOUS
10
1.2347538121
20
3.5652461879
11
1.2257608625
21
3.5742391375
0
LINE
5
27C
100
AcDbEntity
8
0
100
AcDbLine
62
7
6
CONTINUOUS
10
7.8866556363
20
-22.5000000000
11
7.8651277229
21
-22.4000000000
0
LINE
5
27D
100
AcDbEntity
8
0
100
AcDbLine
62
7
6
CONTINUOUS
10
-7.9500000000
20
-22.4000000000
11
-8.0166327976
21
-22.5000000000
0
LINE
5
27E
100
AcDbEntity
8
0
100
AcDbLine
62
7
6
CONTINUOUS
10
-8.0166327976
20
22.5000000000
11
-7.9500000000
21
22.4000000000
0
LINE
5
27F
100
AcDbEntity
8
0
100
AcDbLine
62
7
6
CONTINUOUS
10
7.7801797403
20
22.5000000000
11
7.7801797403
21
22.4000000000
0
LINE
5
280
100
AcDbEntity
8
0
100
AcDbLine
62
7
6
CONTINUOUS
10
7.7801797403
20
-22.5000000000
11
7.7801797403
21
-22.4000000000
0
LINE
5
281
100
AcDbEntity
8
0
100
AcDbLine
62
7
6
CONTINUOUS
10
-7.0256224556
20
-12.2812649521
11
-4.9038602163
21
-11.0562649521
0
LINE
5
282
100
AcDbEntity
8
0
100
AcDbLine
62
7
6
CONTINUOUS
10
-1.2334945667
20
12.6334945667
11
-1.2244774121
21
12.6244774121
0
LINE
5
283
100
AcDbEntity
8
0
100
AcDbLine
62
7
6
CONTINUOUS
10
14.6866556363
20
22.5000000000
11
14.6651277229
21
22.4000000000
0
LINE
5
284
100
AcDbEntity
8
0
100
AcDbLine
62
7
6
CONTINUOUS
10
9.4288602163
20
-3.2187350479
11
4.9037910287
21
-11.0563847885
0
LINE
5
285
100
AcDbEntity
8
0
100
AcDbLine
62
7
6
CONTINUOUS
10
14.6866556363
20
-22.5000000000
11
14.6651277229
21
-22.4000000000
0
LINE
5
286
100
AcDbEntity
8
0
100
AcDbLine
62
7
6
CONTINUOUS
10
7.8133443637
20
-22.5000000000
11
7.8348722771
21
-22.4000000000
0
LINE
5
287
100
AcDbEntity
8
0
100
AcDbLine
62
7
6
CONTINUOUS
10
11.4384973854
20
-4.3789996084
11
10.3840416957
21
-6.4643121952
0
LINE
5
288
100
AcDbEntity
8
0
100
AcDbLine
62
7
6
CONTINUOUS
10
7.0256224556
20
-12.2812649521
11
11.5506224556
21
-4.4437350479
0
LINE
5
289
100
AcDbEntity
8
0
100
AcDbLine
62
9
6
CONTINUOUS
10
-1.0339557206
20
12.0829820863
11
-1.2246031985
21
12.0318982486
0
LINE
5
28A
100
AcDbEntity
8
0
100
AcDbLine
62
3
6
CONTINUOUS
10
1.2247053045
20
11.5447082315
11
-1.2247053045
21
11.5447082315
0
LINE
5
28B
100
AcDbEntity
8
0
100
AcDbLine
62
7
6
CONTINUOUS
10
-1.2244774121
20
12.6244774121
11
1.2244774121
21
12.6244774121
0
LINE
5
28C
100
AcDbEntity
8
0
100
AcDbLine
62
9
6
CONTINUOUS
10
1.2246031985
20
12.0318982486
11
1.0339557206
21
12.0829820863
0
LINE
5
28D
100
AcDbEntity
8
0
100
AcDbLine
62
7
6
CONTINUOUS
10
7.8133443637
20
22.5000000000
11
7.8348722771
21
22.4000000000
0
LINE
5
28E
100
AcDbEntity
8
0
100
AcDbLine
62
7
6
CONTINUOUS
10
14.7198202597
20
-22.4000000000
11
14.7198202597
21
-22.5000000000
0
LINE
5
28F
100
AcDbEntity
8
0
100
AcDbLine
62
7
6
CONTINUOUS
10
14.7198202597
20
22.4000000000
11
14.7198202597
21
22.5000000000
0
LINE
5
290
100
AcDbEntity
8
0
100
AcDbLine
62
9
6
CONTINUOUS
10
21.7587981167
20
21.9749071372
11
21.9003805997
21
22.4000000000
0
LINE
5
291
100
AcDbEntity
8
0
100
AcDbLine
62
9
6
CONTINUOUS
10
22.2587219643
20
21.4755923698
11
22.4000000000
21
21.8997711479
0
LINE
5
292
100
AcDbEntity
8
0
100
AcDbLine
62
9
6
CONTINUOUS
10
21.9003805997
20
-22.4000000000
11
21.7587981167
21
-21.9749071372
0
LINE
5
293
100
AcDbEntity
8
0
100
AcDbLine
62
9
6
CONTINUOUS
10
22.4000000000
20
-21.8997711479
11
22.2587219643
21
-21.4755923698
0
LINE
5
294
100
AcDbEntity
8
0
100
AcDbLine
62
7
6
CONTINUOUS
10
14.6133443637
20
-22.5000000000
11
14.6348722771
21
-22.4000000000
0
LINE
5
295
100
AcDbEntity
8
0
100
AcDbLine
62
7
6
CONTINUOUS
10
14.6133443637
20
22.5000000000
11
14.6348722771
21
22.4000000000
0
LINE
5
296
100
AcDbEntity
8
0
100
AcDbLine
62
9
6
CONTINUOUS
10
-21.7505350625
20
21.0183142309
11
21.7505350625
21
21.0183142309
0
LINE
5
297
100
AcDbEntity
8
0
100
AcDbLine
62
7
6
CONTINUOUS
10
22.4000000000
20
21.8997711479
11
22.4000000000
21
-21.8997711479
0
LINE
5
298
100
AcDbEntity
8
0
100
AcDbLine
62
9
6
CONTINUOUS
10
-21.7587981167
20
21.9749071372
11
21.7587981167
21
21.9749071372
0
LINE
5
299
100
AcDbEntity
8
0
100
AcDbLine
62
7
6
CONTINUOUS
10
-21.9003805997
20
22.4000000000
11
-14.5500000000
21
22.4000000000
0
LINE
5
29A
100
AcDbEntity
8
0
100
AcDbLine
62
7
6
CONTINUOUS
10
-7.9500000000
20
22.4000000000
11
7.9500000000
21
22.4000000000
0
LINE
5
29B
100
AcDbEntity
8
0
100
AcDbLine
62
7
6
CONTINUOUS
10
14.5500000000
20
22.4000000000
11
21.9003805997
21
22.4000000000
0
LINE
5
29C
100
AcDbEntity
8
0
100
AcDbLine
62
7
6
CONTINUOUS
10
-14.7198202597
20
22.5000000000
11
-7.7801797403
21
22.5000000000
0
LINE
5
29D
100
AcDbEntity
8
0
100
AcDbLine
62
7
6
CONTINUOUS
10
7.7801797403
20
22.5000000000
11
14.7198202597
21
22.5000000000
0
LINE
5
29E
100
AcDbEntity
8
0
100
AcDbLine
62
7
6
CONTINUOUS
10
-14.9248577542
20
23.5000000000
11
-7.5751422458
21
23.5000000000
0
LINE
5
29F
100
AcDbEntity
8
0
100
AcDbLine
62
7
6
CONTINUOUS
10
7.5751422458
20
23.5000000000
11
14.9248577542
21
23.5000000000
0
LINE
5
2A0
100
AcDbEntity
8
0
100
AcDbLine
62
7
6
CONTINUOUS
10
14.5500000000
20
-22.4000000000
11
14.4833672024
21
-22.5000000000
0
LINE
5
2A1
100
AcDbEntity
8
0
100
AcDbLine
62
7
6
CONTINUOUS
10
14.4833672024
20
22.5000000000
11
14.5500000000
21
22.4000000000
0
LINE
5
2A2
100
AcDbEntity
8
0
100
AcDbLine
62
7
6
CONTINUOUS
10
-59.2529584685
20
-23.4301797403
11
-63.2529584685
21
-23.5000000000
0
LINE
5
2A3
100
AcDbEntity
8
0
100
AcDbLine
62
7
6
CONTINUOUS
10
-57.1034629846
20
-22.2000000000
11
-57.6529584685
21
-22.2000000000
0
LINE
5
2A4
100
AcDbEntity
8
0
100
AcDbLine
62
7
6
CONTINUOUS
10
-63.2529584685
20
-22.4000000000
11
-71.3642134884
21
-21.9749071372
0
LINE
5
2A5
100
AcDbEntity
8
0
100
AcDbLine
62
9
6
CONTINUOUS
10
-63.2529584685
20
-21.8997711479
11
-71.3467717135
21
-21.4755923698
0
LINE
5
2A6
100
AcDbEntity
8
0
100
AcDbLine
62
9
6
CONTINUOUS
10
-72.3109935937
20
-21.0183142306
11
-71.8201617705
21
-20.9972959167
0
LINE
5
2A7
100
AcDbEntity
8
0
100
AcDbLine
62
7
6
CONTINUOUS
10
-55.2821036705
20
-21.1306884717
11
-59.0564489498
21
-21.1965699136
0
LINE
5
2A8
100
AcDbEntity
8
0
100
AcDbLine
62
7
6
CONTINUOUS
10
-53.3615317581
20
-19.6864127122
11
-35.9442322652
21
-19.3823926186
0
LINE
5
2A9
100
AcDbEntity
8
0
100
AcDbLine
62
7
6
CONTINUOUS
10
-35.4529584685
20
-17.5501031425
11
-35.3529584685
21
-17.5501031425
0
LINE
5
2AA
100
AcDbEntity
8
0
100
AcDbLine
62
7
6
CONTINUOUS
10
-35.4529584685
20
-17.3999998725
11
-35.3229584685
21
-17.3999998725
0
LINE
5
2AB
100
AcDbEntity
8
0
100
AcDbLine
62
7
6
CONTINUOUS
10
-35.4529584685
20
-17.1983201393
11
-35.3229584685
21
-17.1983201393
0
LINE
5
2AC
100
AcDbEntity
8
0
100
AcDbLine
62
7
6
CONTINUOUS
10
-35.4529584685
20
-16.6260417603
11
-35.3229584685
21
-16.6260417603
0
LINE
5
2AD
100
AcDbEntity
8
0
100
AcDbLine
62
7
6
CONTINUOUS
10
-35.4529584685
20
-16.4243620271
11
-35.3229584685
21
-16.4243620271
0
LINE
5
2AE
100
AcDbEntity
8
0
100
AcDbLine
62
9
6
CONTINUOUS
10
-35.4529584685
20
-15.9532017181
11
-35.9442322652
21
-15.9532017166
0
LINE
5
2AF
100
AcDbEntity
8
0
100
AcDbLine
62
7
6
CONTINUOUS
10
-35.4529584685
20
-15.8016798607
11
-35.3229584685
21
-15.8016798607
0
LINE
5
2B0
100
AcDbEntity
8
0
100
AcDbLine
62
7
6
CONTINUOUS
10
-35.4529584685
20
-15.6000001275
11
-35.3229584685
21
-15.6000001275
0
LINE
5
2B1
100
AcDbEntity
8
0
100
AcDbLine
62
7
6
CONTINUOUS
10
-35.4529584685
20
-15.5000150000
11
-35.3529584685
21
-15.5000150000
0
LINE
5
2B2
100
AcDbEntity
8
0
100
AcDbLine
62
7
6
CONTINUOUS
10
-35.4529584685
20
-15.0821794857
11
-35.2729584685
21
-15.0821794857
0
LINE
5
2B3
100
AcDbEntity
8
0
100
AcDbLine
62
9
6
CONTINUOUS
10
-35.4529584685
20
-14.7277129619
11
-35.2729584685
21
-14.7277129619
0
LINE
5
2B4
100
AcDbEntity
8
0
100
AcDbLine
62
7
6
CONTINUOUS
10
-35.2729584685
20
-14.3732464381
11
-35.4529584685
21
-14.3732464381
0
LINE
5
2B5
100
AcDbEntity
8
0
100
AcDbLine
62
7
6
CONTINUOUS
10
-35.4529584685
20
-14.2113960000
11
-35.2729584685
21
-14.2113960000
0
LINE
5
2B6
100
AcDbEntity
8
0
100
AcDbLine
62
7
6
CONTINUOUS
10
-35.4529584685
20
-13.7754672741
11
-35.3229584685
21
-13.7754672741
0
LINE
5
2B7
100
AcDbEntity
8
0
100
AcDbLine
62
7
6
CONTINUOUS
10
-35.4529584685
20
-13.0747547091
11
-35.3229584685
21
-13.0747547091
0
LINE
5
2B8
100
AcDbEntity
8
0
100
AcDbLine
62
7
6
CONTINUOUS
10
-35.3229584685
20
-12.2245396316
11
-35.4529584685
21
-12.2245396316
0
LINE
5
2B9
100
AcDbEntity
8
0
100
AcDbLine
62
7
6
CONTINUOUS
10
-63.2529584685
20
22.6631666220
11
-63.2529584685
21
-22.6631666220
0
LINE
5
2BA
100
AcDbEntity
8
0
100
AcDbLine
62
7
6
CONTINUOUS
10
-63.2529584685
20
-22.7067171773
11
-63.2529584685
21
-23.5000000000
0
LINE
5
2BB
100
AcDbEntity
8
0
100
AcDbLine
62
7
6
CONTINUOUS
10
-63.2529584685
20
22.7067171773
11
-63.2529584685
21
23.5000000000
0
LINE
5
2BC
100
AcDbEntity
8
0
100
AcDbLine
62
7
6
CONTINUOUS
10
-35.2634256206
20
-9.5067022247
11
-33.7372571716
21
-9.4267191255
0
LINE
5
2BD
100
AcDbEntity
8
0
100
AcDbLine
62
7
6
CONTINUOUS
10
-35.2634256528
20
-9.4067022264
11
-33.7372571393
21
-9.3267191238
0
LINE
5
2BE
100
AcDbEntity
8
0
100
AcDbLine
62
7
6
CONTINUOUS
10
-35.4529584685
20
-11.5695572669
11
-35.3229584685
21
-11.5695572669
0
LINE
5
2BF
100
AcDbEntity
8
0
100
AcDbLine
62
7
6
CONTINUOUS
10
-35.3229584685
20
-10.2113560000
11
-35.2729584685
21
-10.2113560000
0
LINE
5
2C0
100
AcDbEntity
8
0
100
AcDbLine
62
7
6
CONTINUOUS
10
-35.3229584685
20
-10.0686931749
11
-35.2729584685
21
-10.0686931749
0
LINE
5
2C1
100
AcDbEntity
8
0
100
AcDbLine
62
7
6
CONTINUOUS
10
-35.3229584685
20
-10.0568560000
11
-35.2729584685
21
-10.0568560000
0
LINE
5
2C2
100
AcDbEntity
8
0
100
AcDbLine
62
9
6
CONTINUOUS
10
-35.2634256597
20
-8.0366687235
11
-33.7372576816
21
-7.9966771863
0
LINE
5
2C3
100
AcDbEntity
8
0
100
AcDbLine
62
7
6
CONTINUOUS
10
-35.4529584685
20
-9.8333495374
11
-35.3229584685
21
-9.8333495374
0
LINE
5
2C4
100
AcDbEntity
8
0
100
AcDbLine
62
7
6
CONTINUOUS
10
-35.4529584685
20
-9.6970685374
11
-35.3229584685
21
-9.6970685374
0
LINE
5
2C5
100
AcDbEntity
8
0
100
AcDbLine
62
7
6
CONTINUOUS
10
-35.3229584685
20
-9.5404520000
11
-35.2729584685
21
-9.5404520000
0
LINE
5
2C6
100
AcDbEntity
8
0
100
AcDbLine
62
7
6
CONTINUOUS
10
-35.2729584685
20
-9.5178200974
11
-35.3229584685
21
-9.5178200974
0
LINE
5
2C7
100
AcDbEntity
8
0
100
AcDbLine
62
7
6
CONTINUOUS
10
-59.2529584685
20
-21.3965394526
11
-59.2529584685
21
-23.4301797403
0
LINE
5
2C8
100
AcDbEntity
8
0
100
AcDbLine
62
7
6
CONTINUOUS
10
-59.2529584685
20
21.3965394526
11
-59.2529584685
21
23.4301797403
0
LINE
5
2C9
100
AcDbEntity
8
0
100
AcDbLine
62
9
6
CONTINUOUS
10
-35.2634256597
20
-6.2180153756
11
-33.7372576816
21
-6.1780238383
0
LINE
5
2CA
100
AcDbEntity
8
0
100
AcDbLine
62
7
6
CONTINUOUS
10
-57.6529584685
20
22.2000000000
11
-57.6529584685
21
21.1720718961
0
LINE
5
2CB
100
AcDbEntity
8
0
100
AcDbLine
62
7
6
CONTINUOUS
10
-57.6529584685
20
-22.2000000000
11
-57.6529584685
21
-21.1720718961
0
LINE
5
2CC
100
AcDbEntity
8
0
100
AcDbLine
62
9
6
CONTINUOUS
10
-35.4529584685
20
-4.3039242333
11
-35.9442322652
21
-4.3039242333
0
LINE
5
2CD
100
AcDbEntity
8
0
100
AcDbLine
62
9
6
CONTINUOUS
10
-35.9442322652
20
-4.3039242333
11
-46.4442322652
21
-4.1981085258
0
LINE
5
2CE
100
AcDbEntity
8
0
100
AcDbLine
62
7
6
CONTINUOUS
10
-41.4726819526
20
-0.5272940115
11
-41.5389761648
21
-0.5371557536
0
LINE
5
2CF
100
AcDbEntity
8
0
100
AcDbLine
62
9
6
CONTINUOUS
10
-35.9442322652
20
-3.8709774814
11
-45.5871502377
21
-3.7737991777
0
LINE
5
2D0
100
AcDbEntity
8
0
100
AcDbLine
62
7
6
CONTINUOUS
10
-38.7797077537
20
-0.5371557536
11
-40.3669407722
21
-0.5371557536
0
LINE
5
2D1
100
AcDbEntity
8
0
100
AcDbLine
62
7
6
CONTINUOUS
10
-41.5389761648
20
-0.5371557536
11
-41.9043850133
21
-0.5371557536
0
LINE
5
2D2
100
AcDbEntity
8
0
100
AcDbLine
62
7
6
CONTINUOUS
10
-41.3029584685
20
0.2578442464
11
-40.6029584685
21
0.2578442464
0
LINE
5
2D3
100
AcDbEntity
8
0
100
AcDbLine
62
9
6
CONTINUOUS
10
-35.2634256597
20
-1.8341274061
11
-33.7372576816
21
-1.8564244625
0
LINE
5
2D4
100
AcDbEntity
8
0
100
AcDbLine
62
7
6
CONTINUOUS
10
-41.5009525862
20
-0.5592221851
11
-35.9442322652
21
-0.6917169696
0
LINE
5
2D5
100
AcDbEntity
8
0
100
AcDbLine
62
7
6
CONTINUOUS
10
-35.2634257186
20
-2.1079148629
11
-33.7372576457
21
-2.1878979424
0
LINE
5
2D6
100
AcDbEntity
8
0
100
AcDbLine
62
7
6
CONTINUOUS
10
-35.4529584685
20
1.1140565846
11
-41.5009525862
21
1.1069813794
0
LINE
5
2D7
100
AcDbEntity
8
0
100
AcDbLine
62
7
6
CONTINUOUS
10
-35.4529584685
20
1.7500000000
11
-35.3529584685
21
1.7500000000
0
LINE
5
2D8
100
AcDbEntity
8
0
100
AcDbLine
62
7
6
CONTINUOUS
10
-35.4529584685
20
1.9686777878
11
-41.5009525862
21
2.0073184052
0
LINE
5
2D9
100
AcDbEntity
8
0
100
AcDbLine
62
7
6
CONTINUOUS
10
-42.1162640175
20
0.1989429994
11
-44.0294692167
21
0.2300999702
0
LINE
5
2DA
100
AcDbEntity
8
0
100
AcDbLine
62
7
6
CONTINUOUS
10
-35.2634256528
20
0.1420851336
11
-33.7372571393
21
0.0621020310
0
LINE
5
2DB
100
AcDbEntity
8
0
100
AcDbLine
62
7
6
CONTINUOUS
10
-35.2634256206
20
0.2420851319
11
-33.7372571716
21
0.1621020327
0
LINE
5
2DC
100
AcDbEntity
8
0
100
AcDbLine
62
7
6
CONTINUOUS
10
-40.3669407722
20
-0.5371557536
11
-40.4332349843
21
-0.5272940115
0
LINE
5
2DD
100
AcDbEntity
8
0
100
AcDbLine
62
7
6
CONTINUOUS
10
-35.9442322652
20
2.6549332469
11
-41.5009525862
21
2.6904351174
0
LINE
5
2DE
100
AcDbEntity
8
0
100
AcDbLine
62
9
6
CONTINUOUS
10
-35.4529584685
20
5.6211769314
11
-35.9442322652
21
5.6211769291
0
LINE
5
2DF
100
AcDbEntity
8
0
100
AcDbLine
62
9
6
CONTINUOUS
10
-45.9529584685
20
5.7170908324
11
-45.4616846717
21
5.7170908324
0
LINE
5
2E0
100
AcDbEntity
8
0
100
AcDbLine
62
7
6
CONTINUOUS
10
-35.4529584685
20
6.2500000000
11
-35.3529584685
21
6.2500000000
0
LINE
5
2E1
100
AcDbEntity
8
0
100
AcDbLine
62
9
6
CONTINUOUS
10
-35.9442322652
20
5.1882301794
11
-45.4616846717
21
5.2841440804
0
LINE
5
2E2
100
AcDbEntity
8
0
100
AcDbLine
62
9
6
CONTINUOUS
10
-35.9442322652
20
5.6211769314
11
-45.4616846717
21
5.7170908324
0
LINE
5
2E3
100
AcDbEntity
8
0
100
AcDbLine
62
9
6
CONTINUOUS
10
-46.4442322652
20
17.8885182711
11
-46.4442322653
21
17.2633742339
0
LINE
5
2E4
100
AcDbEntity
8
0
100
AcDbLine
62
9
6
CONTINUOUS
10
-46.4442322652
20
16.0174080509
11
-46.4442322652
21
-4.1981085258
0
LINE
5
2E5
100
AcDbEntity
8
0
100
AcDbLine
62
7
6
CONTINUOUS
10
-45.9529584685
20
17.5657469528
11
-45.9529584685
21
-3.0633874670
0
LINE
5
2E6
100
AcDbEntity
8
0
100
AcDbLine
62
9
6
CONTINUOUS
10
-45.4616846717
20
17.5485965208
11
-45.4616846717
21
5.7170908324
0
LINE
5
2E7
100
AcDbEntity
8
0
100
AcDbLine
62
9
6
CONTINUOUS
10
-45.4616846717
20
5.2841440804
11
-45.4616846717
21
-3.4963342189
0
LINE
5
2E8
100
AcDbEntity
8
0
100
AcDbLine
62
7
6
CONTINUOUS
10
-35.3108088619
20
7.9074497452
11
-33.7372574043
21
7.9899160827
0
LINE
5
2E9
100
AcDbEntity
8
0
100
AcDbLine
62
7
6
CONTINUOUS
10
-41.3029584685
20
-0.2420582852
11
-41.4726819526
21
-0.5272940115
0
LINE
5
2EA
100
AcDbEntity
8
0
100
AcDbLine
62
7
6
CONTINUOUS
10
-41.5389761648
20
-0.5371557536
11
-41.5389761648
21
-0.5577950421
0
LINE
5
2EB
100
AcDbEntity
8
0
100
AcDbLine
62
9
6
CONTINUOUS
10
-41.5009525862
20
2.6904351174
11
-41.5009525862
21
1.1069813794
0
LINE
5
2EC
100
AcDbEntity
8
0
100
AcDbLine
62
7
6
CONTINUOUS
10
-41.4726819526
20
-0.5272940115
11
-41.4726819526
21
-0.5598962718
0
LINE
5
2ED
100
AcDbEntity
8
0
100
AcDbLine
62
7
6
CONTINUOUS
10
-41.3029584685
20
-0.5639431691
11
-41.3029584685
21
0.2578442464
0
LINE
5
2EE
100
AcDbEntity
8
0
100
AcDbLine
62
7
6
CONTINUOUS
10
-40.6029584685
20
-0.5806340126
11
-40.6029584685
21
0.2578442464
0
LINE
5
2EF
100
AcDbEntity
8
0
100
AcDbLine
62
9
6
CONTINUOUS
10
-33.4529584685
20
10.6500000000
11
-36.4529584685
21
10.6500000000
0
LINE
5
2F0
100
AcDbEntity
8
0
100
AcDbLine
62
7
6
CONTINUOUS
10
-40.4332349843
20
-0.5272940115
11
-40.6029584685
21
-0.2420582852
0
LINE
5
2F1
100
AcDbEntity
8
0
100
AcDbLine
62
7
6
CONTINUOUS
10
-40.4332349843
20
-0.5272940115
11
-40.4332349843
21
-0.5846809099
0
LINE
5
2F2
100
AcDbEntity
8
0
100
AcDbLine
62
9
6
CONTINUOUS
10
-40.4040917304
20
1.1082645347
11
-40.4040917304
21
0.3214228420
0
LINE
5
2F3
100
AcDbEntity
8
0
100
AcDbLine
62
7
6
CONTINUOUS
10
-40.3669407722
20
-0.5371557536
11
-40.3669407722
21
-0.5862616332
0
LINE
5
2F4
100
AcDbEntity
8
0
100
AcDbLine
62
7
6
CONTINUOUS
10
-53.8442898204
20
-19.8913313519
11
-55.6090289701
21
-21.6560705017
0
LINE
5
2F5
100
AcDbEntity
8
0
100
AcDbLine
62
9
6
CONTINUOUS
10
-33.4529584685
20
12.7500000000
11
-36.4529584685
21
12.7500000000
0
LINE
5
2F6
100
AcDbEntity
8
0
100
AcDbLine
62
7
6
CONTINUOUS
10
-55.6090289701
20
21.6560705017
11
-52.3176420851
21
18.3646836166
0
LWPOLYLINE
5
2F7
100
AcDbEntity
8
0
100
AcDbPolyline
62
7
6
CONTINUOUS
90
47
70
0
10
-38.5988053754
20
-0.6284211635
10
-38.6186920360
20
-0.5862883027
10
-38.6568479333
20
-0.5198880617
10
-38.7016992476
20
-0.4542934571
10
-38.7535483436
20
-0.3894535223
10
-38.8123327385
20
-0.3258023247
10
-38.8773957788
20
-0.2641867284
10
-38.9485251543
20
-0.2047942495
10
-39.0257044205
20
-0.1476394788
10
-39.1082286142
20
-0.0932024789
10
-39.1957158054
20
-0.0416280151
10
-39.2880528442
20
0.0071072682
10
-39.3847346441
20
0.0528202071
10
-39.4853567808
20
0.0954182996
10
-39.5897177134
20
0.1349035418
10
-39.6975337403
20
0.1712377754
10
-39.8084701212
20
0.2043697665
10
-39.9222314228
20
0.2342665299
10
-40.0385647778
20
0.2609067912
10
-40.1571443669
20
0.2842535023
10
-40.2776485410
20
0.3042771361
10
-40.3998163170
20
0.3209616561
10
-40.5233137193
20
0.3342832347
10
-40.6478154826
20
0.3442260565
10
-40.7730666710
20
0.3507833478
10
-40.8987376126
20
0.3539461328
10
-41.0244947962
20
0.3537123309
10
-41.1500758608
20
0.3500840944
10
-41.2751494313
20
0.3430679647
10
-41.3993861340
20
0.3326774298
10
-41.5225295144
20
0.3189238921
10
-41.6442570632
20
0.3018278712
10
-41.7642396698
20
0.2814176326
10
-41.8822193387
20
0.2577136945
10
-41.9978887879
20
0.2307477226
10
-42.1109201180
20
0.2005624252
10
-42.2210419499
20
0.1671908893
10
-42.3279650678
20
0.1306732456
10
-42.4313713639
20
0.0910646452
10
-42.5309786666
20
0.0484129829
10
-42.6266068137
20
0.0027179303
10
-42.7178607130
20
-0.0459199100
10
-42.8042247160
20
-0.0972945169
10
-42.8855742077
20
-0.1513993893
10
-42.9615901593
20
-0.2081049774
10
-43.0316563976
20
-0.2669803381
10
-43.0830583271
20
-0.3159146970
0
LINE
5
2F8
100
AcDbEntity
8
0
100
AcDbLine
62
9
6
CONTINUOUS
10
-36.9442322652
20
9.6928932188
11
-36.9442322652
21
17.3999238360
0
LINE
5
2F9
100
AcDbEntity
8
0
100
AcDbLine
62
9
6
CONTINUOUS
10
-45.9529584685
20
16.0174080509
11
-46.4442322652
21
16.0174080509
0
LINE
5
2FA
100
AcDbEntity
8
0
100
AcDbLine
62
7
6
CONTINUOUS
10
-36.3108088408
20
15.5449580330
11
-33.7372573586
21
15.4100839149
0
LINE
5
2FB
100
AcDbEntity
8
0
100
AcDbLine
62
7
6
CONTINUOUS
10
-36.4529584685
20
9.9000000000
11
-36.4529584685
21
17.3999238360
0
LINE
5
2FC
100
AcDbEntity
8
0
100
AcDbLine
62
9
6
CONTINUOUS
10
-36.3108088408
20
15.5449580330
11
-36.3108088619
21
9.9980751734
0
LINE
5
2FD
100
AcDbEntity
8
0
100
AcDbLine
62
9
6
CONTINUOUS
10
-35.9442322652
20
8.6928932188
11
-35.9442322652
21
5.6211769314
0
LINE
5
2FE
100
AcDbEntity
8
0
100
AcDbLine
62
9
6
CONTINUOUS
10
-35.9442322652
20
5.1882301794
11
-35.9442322652
21
2.6549332469
0
LINE
5
2FF
100
AcDbEntity
8
0
100
AcDbLine
62
9
6
CONTINUOUS
10
-35.9442322652
20
-0.6917169696
11
-35.9442322652
21
-3.8709774814
0
LINE
5
300
100
AcDbEntity
8
0
100
AcDbLine
62
9
6
CONTINUOUS
10
-35.9442322652
20
-4.3039242333
11
-35.9442322652
21
-15.9532017181
0
LINE
5
301
100
AcDbEntity
8
0
100
AcDbLine
62
9
6
CONTINUOUS
10
-35.9442322652
20
-17.2030844798
11
-35.9442322652
21
-19.2317880227
0
LINE
5
302
100
AcDbEntity
8
0
100
AcDbLine
62
7
6
CONTINUOUS
10
-35.4529584685
20
-18.8824687711
11
-35.4529584685
21
8.9000000000
0
LINE
5
303
100
AcDbEntity
8
0
100
AcDbLine
62
7
6
CONTINUOUS
10
-35.3529584685
20
6.2498210193
11
-35.3529584685
21
1.7501789807
0
LINE
5
304
100
AcDbEntity
8
0
100
AcDbLine
62
7
6
CONTINUOUS
10
-35.3529584685
20
-15.5000150000
11
-35.3529584685
21
-15.6000001275
0
LINE
5
305
100
AcDbEntity
8
0
100
AcDbLine
62
7
6
CONTINUOUS
10
-35.3529584685
20
-17.3999998725
11
-35.3529584685
21
-17.5501029901
0
LINE
5
306
100
AcDbEntity
8
0
100
AcDbLine
62
7
6
CONTINUOUS
10
-35.3229584685
20
-9.4194939037
11
-35.3229584685
21
-11.5695572669
0
LINE
5
307
100
AcDbEntity
8
0
100
AcDbLine
62
7
6
CONTINUOUS
10
-35.3229584685
20
-12.2246614320
11
-35.3229584685
21
-13.7752689903
0
LINE
5
308
100
AcDbEntity
8
0
100
AcDbLine
62
7
6
CONTINUOUS
10
-35.3229584685
20
-15.6000001275
11
-35.3229584685
21
-17.3999998725
0
LINE
5
309
100
AcDbEntity
8
0
100
AcDbLine
62
9
6
CONTINUOUS
10
-35.3108088619
20
9.0493002731
11
-35.3108088619
21
7.9074497452
0
LINE
5
30A
100
AcDbEntity
8
0
100
AcDbLine
62
7
6
CONTINUOUS
10
-35.2729584685
20
-9.5404520000
11
-35.2729584685
21
-10.0568560000
0
LINE
5
30B
100
AcDbEntity
8
0
100
AcDbLine
62
7
6
CONTINUOUS
10
-35.2729584685
20
-10.0639240986
11
-35.2729584685
21
-10.0686457747
0
LINE
5
30C
100
AcDbEntity
8
0
100
AcDbLine
62
7
6
CONTINUOUS
10
-35.2729584685
20
-10.2113560000
11
-35.2729584685
21
-14.2113960000
0
LINE
5
30D
100
AcDbEntity
8
0
100
AcDbLine
62
7
6
CONTINUOUS
10
-35.2729584685
20
-14.3732464381
11
-35.2729584685
21
-15.0821794857
0
LINE
5
30E
100
AcDbEntity
8
0
100
AcDbLine
62
9
6
CONTINUOUS
10
-35.2634256246
20
0.2420851321
11
-35.2634256246
21
-9.5067022248
0
LINE
5
30F
100
AcDbEntity
8
0
100
AcDbLine
62
9
6
CONTINUOUS
10
-36.9442322652
20
17.3999238360
11
-36.4529584685
21
17.3999238360
0
LINE
5
310
100
AcDbEntity
8
0
100
AcDbLine
62
9
6
CONTINUOUS
10
-45.9529584685
20
17.5485965208
11
-45.4616846717
21
17.5485965208
0
LINE
5
311
100
AcDbEntity
8
0
100
AcDbLine
62
9
6
CONTINUOUS
10
-36.9442322652
20
17.3999238360
11
-45.4616846717
21
17.5485965208
0
LINE
5
312
100
AcDbEntity
8
0
100
AcDbLine
62
7
6
CONTINUOUS
10
-51.8348840227
20
18.1597649768
11
-36.9442322652
21
17.8998476836
0
LINE
5
313
100
AcDbEntity
8
0
100
AcDbLine
62
9
6
CONTINUOUS
10
-35.9442322652
20
8.6928932188
11
-36.9442322652
21
9.6928932188
0
LINE
5
314
100
AcDbEntity
8
0
100
AcDbLine
62
9
6
CONTINUOUS
10
-33.7372573598
20
15.4100816788
11
-33.7372574081
21
7.9899208033
0
LINE
5
315
100
AcDbEntity
8
0
100
AcDbLine
62
9
6
CONTINUOUS
10
-33.7372571585
20
0.1621013994
11
-33.7372571585
21
-9.4267184922
0
LINE
5
316
100
AcDbEntity
8
0
100
AcDbLine
62
7
6
CONTINUOUS
10
-33.4529584685
20
15.1108519312
11
-33.4529584685
21
8.2895049286
0
LINE
5
317
100
AcDbEntity
8
0
100
AcDbLine
62
7
6
CONTINUOUS
10
-33.4529584685
20
-0.1380465303
11
-33.4529584685
21
-0.2374868010
0
LINE
5
318
100
AcDbEntity
8
0
100
AcDbLine
62
7
6
CONTINUOUS
10
-33.4529584685
20
-0.2380714326
11
-33.4529584685
21
-9.0265456602
0
LINE
5
319
100
AcDbEntity
8
0
100
AcDbLine
62
7
6
CONTINUOUS
10
-33.4529584685
20
-9.0271302918
11
-33.4529584685
21
-9.1265705625
0
LINE
5
31A
100
AcDbEntity
8
0
100
AcDbLine
62
7
6
CONTINUOUS
10
-57.1034629846
20
-22.2000000000
11
-55.6090289701
21
-21.6560705017
0
LINE
5
31B
100
AcDbEntity
8
0
100
AcDbLine
62
9
6
CONTINUOUS
10
-72.3109524122
20
21.0183124951
11
-71.8201617705
21
20.9972959167
0
LINE
5
31C
100
AcDbEntity
8
0
100
AcDbLine
62
7
6
CONTINUOUS
10
-57.1034629846
20
22.2000000000
11
-55.6090289701
21
21.6560705017
0
LINE
5
31D
100
AcDbEntity
8
0
100
AcDbLine
62
7
6
CONTINUOUS
10
-35.4529584685
20
8.9000000000
11
-36.4529584685
21
9.9000000000
0
LINE
5
31E
100
AcDbEntity
8
0
100
AcDbLine
62
9
6
CONTINUOUS
10
-71.3467717135
20
21.4755923698
11
-63.2529584685
21
21.8997711479
0
LINE
5
31F
100
AcDbEntity
8
0
100
AcDbLine
62
7
6
CONTINUOUS
10
-57.1034629846
20
22.2000000000
11
-57.6529584685
21
22.2000000000
0
LINE
5
320
100
AcDbEntity
8
0
100
AcDbLine
62
7
6
CONTINUOUS
10
-59.0564489498
20
21.1965699136
11
-55.2821036705
21
21.1306884717
0
LINE
5
321
100
AcDbEntity
8
0
100
AcDbLine
62
7
6
CONTINUOUS
10
-71.3642134884
20
21.9749071372
11
-63.2529584685
21
22.4000000000
0
LINE
5
322
100
AcDbEntity
8
0
100
AcDbLine
62
7
6
CONTINUOUS
10
-59.2529584685
20
23.4301797403
11
-63.2529584685
21
23.5000000000
0
ARC
5
323
100
AcDbEntity
8
0
100
AcDbCircle
62
9
6
CONTINUOUS
10
-0.0000000000
20
11.1852488390
40
1.1347511610
100
AcDbArc
50
87.1354778617
51
92.8645221383
0
ARC
5
324
100
AcDbEntity
8
0
100
AcDbCircle
62
7
6
CONTINUOUS
10
0.0000000000
20
-0.0000000000
40
28.0000000000
100
AcDbArc
50
233.1385778209
51
234.0372348486
0
ARC
5
325
100
AcDbEntity
8
0
100
AcDbCircle
62
7
6
CONTINUOUS
10
-16.2000000000
20
-23.1000000000
40
0.5000000000
100
AcDbArc
50
350.8037184210
51
119.1124227760
0
ARC
5
326
100
AcDbEntity
8
0
100
AcDbCircle
62
7
6
CONTINUOUS
10
0.0000000000
20
-0.0000000000
40
28.0000000000
100
AcDbArc
50
235.8789063483
51
236.4427882353
0
ARC
5
327
100
AcDbEntity
8
0
100
AcDbCircle
62
7
6
CONTINUOUS
10
-22.5000000000
20
-0.0000000000
40
28.0000000000
100
AcDbArc
50
303.5572117650
51
304.1210936517
0
ARC
5
328
100
AcDbEntity
8
0
100
AcDbCircle
62
7
6
CONTINUOUS
10
-6.3000000000
20
-23.1000000000
40
0.5000000000
100
AcDbArc
50
60.8875772240
51
189.1962815790
0
ARC
5
329
100
AcDbEntity
8
0
100
AcDbCircle
62
7
6
CONTINUOUS
10
-22.5000000000
20
-0.0000000000
40
28.0000000000
100
AcDbArc
50
305.9627651514
51
306.8688977833
0
ARC
5
32A
100
AcDbEntity
8
0
100
AcDbCircle
62
7
6
CONTINUOUS
10
22.5000000000
20
-0.0000000000
40
28.0000000000
100
AcDbArc
50
233.1311022167
51
234.0372348486
0
ARC
5
32B
100
AcDbEntity
8
0
100
AcDbCircle
62
7
6
CONTINUOUS
10
6.3000000000
20
-23.1000000000
40
0.5000000000
100
AcDbArc
50
350.8037184210
51
119.1124227760
0
ARC
5
32C
100
AcDbEntity
8
0
100
AcDbCircle
62
7
6
CONTINUOUS
10
22.5000000000
20
-0.0000000000
40
28.0000000000
100
AcDbArc
50
235.8789063483
51
236.4427882350
0
ARC
5
32D
100
AcDbEntity
8
0
100
AcDbCircle
62
7
6
CONTINUOUS
10
0.0000000000
20
-0.0000000000
40
28.0000000000
100
AcDbArc
50
303.5572117647
51
304.1210936517
0
ARC
5
32E
100
AcDbEntity
8
0
100
AcDbCircle
62
7
6
CONTINUOUS
10
16.2000000000
20
-23.1000000000
40
0.5000000000
100
AcDbArc
50
60.8875772240
51
189.1962815790
0
ARC
5
32F
100
AcDbEntity
8
0
100
AcDbCircle
62
7
6
CONTINUOUS
10
0.0000000000
20
-0.0000000000
40
28.0000000000
100
AcDbArc
50
305.9627651514
51
306.8614221791
0
ARC
5
330
100
AcDbEntity
8
0
100
AcDbCircle
62
7
6
CONTINUOUS
10
0.0000000000
20
-0.0000000000
40
28.0000000000
100
AcDbArc
50
53.1385778209
51
54.0372348486
0
ARC
5
331
100
AcDbEntity
8
0
100
AcDbCircle
62
7
6
CONTINUOUS
10
16.2000000000
20
23.1000000000
40
0.5000000000
100
AcDbArc
50
170.8037184210
51
299.1124227760
0
ARC
5
332
100
AcDbEntity
8
0
100
AcDbCircle
62
7
6
CONTINUOUS
10
0.0000000000
20
-0.0000000000
40
28.0000000000
100
AcDbArc
50
55.8789063483
51
56.4427880171
0
ARC
5
333
100
AcDbEntity
8
0
100
AcDbCircle
62
7
6
CONTINUOUS
10
22.5000000000
20
-0.0000000000
40
28.0000000000
100
AcDbArc
50
123.5572119832
51
124.1210936517
0
ARC
5
334
100
AcDbEntity
8
0
100
AcDbCircle
62
7
6
CONTINUOUS
10
6.3000000000
20
23.1000000000
40
0.5000000000
100
AcDbArc
50
240.8875772240
51
9.1962815790
0
ARC
5
335
100
AcDbEntity
8
0
100
AcDbCircle
62
7
6
CONTINUOUS
10
22.5000000000
20
-0.0000000000
40
28.0000000000
100
AcDbArc
50
125.9627651514
51
126.8688977833
0
ARC
5
336
100
AcDbEntity
8
0
100
AcDbCircle
62
7
6
CONTINUOUS
10
-22.5000000000
20
-0.0000000000
40
28.0000000000
100
AcDbArc
50
53.1311022167
51
54.0372348486
0
ARC
5
337
100
AcDbEntity
8
0
100
AcDbCircle
62
7
6
CONTINUOUS
10
-6.3000000000
20
23.1000000000
40
0.5000000000
100
AcDbArc
50
170.8037184210
51
299.1124227760
0
ARC
5
338
100
AcDbEntity
8
0
100
AcDbCircle
62
7
6
CONTINUOUS
10
-22.5000000000
20
-0.0000000000
40
28.0000000000
100
AcDbArc
50
55.8789063483
51
56.4427880168
0
ARC
5
339
100
AcDbEntity
8
0
100
AcDbCircle
62
7
6
CONTINUOUS
10
0.0000000000
20
-0.0000000000
40
28.0000000000
100
AcDbArc
50
123.5572119829
51
124.1210936517
0
ARC
5
33A
100
AcDbEntity
8
0
100
AcDbCircle
62
7
6
CONTINUOUS
10
-16.2000000000
20
23.1000000000
40
0.5000000000
100
AcDbArc
50
240.8875772240
51
9.1962815790
0
ARC
5
33B
100
AcDbEntity
8
0
100
AcDbCircle
62
7
6
CONTINUOUS
10
0.0000000000
20
-0.0000000000
40
28.0000000000
100
AcDbArc
50
125.9627651514
51
126.8614221791
0
ARC
5
33C
100
AcDbEntity
8
0
100
AcDbCircle
62
7
6
CONTINUOUS
10
-71.3118775321
20
-20.9762776025
40
1.0000000000
100
AcDbArc
50
182.4092313014
51
267.0000000000
0
ARC
5
33D
100
AcDbEntity
8
0
100
AcDbCircle
62
7
6
CONTINUOUS
10
-71.3118775321
20
20.9762776025
40
1.0000000000
100
AcDbArc
50
93.0000000000
51
177.5907686986
0
ARC
5
33E
100
AcDbEntity
8
0
100
AcDbCircle
62
7
6
CONTINUOUS
10
427.2470415315
20
-0.0000000000
40
500.0000000000
100
AcDbArc
50
177.5907686986
51
182.4092313014
0
ARC
5
33F
100
AcDbEntity
8
0
100
AcDbCircle
62
7
6
CONTINUOUS
10
-33.7529584685
20
8.2895049286
40
0.3000000000
100
AcDbArc
50
273.0000530408
51
360.0000000000
0
ARC
5
340
100
AcDbEntity
8
0
100
AcDbCircle
62
7
6
CONTINUOUS
10
-33.7529584685
20
15.1104950714
40
0.3000000000
100
AcDbArc
50
0.0000000000
51
86.9999382269
0
ARC
5
341
100
AcDbEntity
8
0
100
AcDbCircle
62
7
6
CONTINUOUS
10
-33.7529584685
20
-9.0271302918
40
0.3000000000
100
AcDbArc
50
273.0001037141
51
360.0000000000
0
ARC
5
342
100
AcDbEntity
8
0
100
AcDbCircle
62
7
6
CONTINUOUS
10
-33.7529584685
20
-2.4874868010
40
0.3000000000
100
AcDbArc
50
0.0000000000
51
86.9999931372
0
ARC
5
343
100
AcDbEntity
8
0
100
AcDbCircle
62
7
6
CONTINUOUS
10
-33.7529584685
20
-0.2374868010
40
0.3000000000
100
AcDbArc
50
0.0000000000
51
86.9998962859
0
ARC
5
344
100
AcDbEntity
8
0
100
AcDbCircle
62
7
6
CONTINUOUS
10
-33.7529584685
20
-9.1271302918
40
0.3000000000
100
AcDbArc
50
273.0000975464
51
360.0000000000
0
ARC
5
345
100
AcDbEntity
8
0
100
AcDbCircle
62
7
6
CONTINUOUS
10
-33.7529584685
20
-0.1374868010
40
0.3000000000
100
AcDbArc
50
0.0000000000
51
86.9999024536
0
ARC
5
346
100
AcDbEntity
8
0
100
AcDbCircle
62
7
6
CONTINUOUS
10
-36.3029584685
20
15.6947524643
40
0.1500000000
100
AcDbArc
50
180.0001501337
51
267.0000080806
0
ARC
5
347
100
AcDbEntity
8
0
100
AcDbCircle
62
7
6
CONTINUOUS
10
-35.3029584685
20
7.7576553150
40
0.1500000000
100
AcDbArc
50
93.0000000000
51
180.0000000000
0
ARC
5
348
100
AcDbEntity
8
0
100
AcDbCircle
62
7
6
CONTINUOUS
10
-35.2529584685
20
-9.7064281337
40
0.2000000000
100
AcDbArc
50
92.9999887713
51
109.1984898626
0
ARC
5
349
100
AcDbEntity
8
0
100
AcDbCircle
62
7
6
CONTINUOUS
10
-35.2529584685
20
0.4418110409
40
0.2000000000
100
AcDbArc
50
194.4992581722
51
267.0000112287
0
ARC
5
34A
100
AcDbEntity
8
0
100
AcDbCircle
62
7
6
CONTINUOUS
10
-35.2529584685
20
-9.6064281337
40
0.2000000000
100
AcDbArc
50
92.9999980223
51
179.9999626771
0
ARC
5
34B
100
AcDbEntity
8
0
100
AcDbCircle
62
7
6
CONTINUOUS
10
-35.2529584685
20
-1.9081889591
40
0.2000000000
100
AcDbArc
50
187.2491555538
51
266.9999831107
0
ARC
5
34C
100
AcDbEntity
8
0
100
AcDbCircle
62
7
6
CONTINUOUS
10
-35.2529584685
20
0.3418110409
40
0.2000000000
100
AcDbArc
50
180.0000373229
51
267.0000019777
0
ARC
5
34D
100
AcDbEntity
8
0
100
AcDbCircle
62
7
6
CONTINUOUS
10
-59.0529584685
20
-21.3965394526
40
0.2000000000
100
AcDbArc
50
91.0000000000
51
180.0000000000
0
ARC
5
34E
100
AcDbEntity
8
0
100
AcDbCircle
62
7
6
CONTINUOUS
10
-59.0529584685
20
21.3965394526
40
0.2000000000
100
AcDbArc
50
180.0000000000
51
269.0000000000
0
ARC
5
34F
100
AcDbEntity
8
0
100
AcDbCircle
62
7
6
CONTINUOUS
10
-35.9529584685
20
-18.8824687711
40
0.5000000000
100
AcDbArc
50
271.0000000000
51
360.0000000000
0
ARC
5
350
100
AcDbEntity
8
0
100
AcDbCircle
62
7
6
CONTINUOUS
10
-55.2908298738
20
-20.6307646241
40
0.5000000000
100
AcDbArc
50
271.0000000000
51
315.0000000000
0
ARC
5
351
100
AcDbEntity
8
0
100
AcDbCircle
62
7
6
CONTINUOUS
10
-53.3493150736
20
-20.3863060988
40
0.7000000000
100
AcDbArc
50
91.0000000000
51
135.0000000000
0
ARC
5
352
100
AcDbEntity
8
0
100
AcDbCircle
62
7
6
CONTINUOUS
10
-36.9529584685
20
17.3999238360
40
0.5000000000
100
AcDbArc
50
0.0000000000
51
89.0000000000
0
ARC
5
353
100
AcDbEntity
8
0
100
AcDbCircle
62
7
6
CONTINUOUS
10
-46.4529584685
20
17.5657469528
40
0.5000000000
100
AcDbArc
50
0.0000000000
51
89.0000000000
0
ARC
5
354
100
AcDbEntity
8
0
100
AcDbCircle
62
7
6
CONTINUOUS
10
-51.8226673382
20
18.8596583634
40
0.7000000000
100
AcDbArc
50
225.0000000000
51
269.0000000000
0
ARC
5
355
100
AcDbEntity
8
0
100
AcDbCircle
62
7
6
CONTINUOUS
10
-55.2908298738
20
20.6307646241
40
0.5000000000
100
AcDbArc
50
45.0000000000
51
89.0000000000
0
SPLINE
5
356
100
AcDbEntity
8
0
100
AcDbSpline
62
7
6
CONTINUOUS
70
0
71
3
72
8
73
4
74
2
42
0.0000001000
43
0.0000001000
44
0.0000000001
12
-0.1521715001
22
-0.0008981384
32
0.0000000000
13
-0.1521722120
23
-0.0007858609
33
0.0000000000
40
0.0000000000
40
0.0000000000
40
0.0000000000
40
0.0000000000
40
1.0000000000
40
1.0000000000
40
1.0000000000
40
1.0000000000
10
1.2256938086
20
4.5336790126
30
0.0000000000
10
1.1749699752
20
4.5333796332
30
0.0000000000
10
1.1242460153
20
4.5330989848
30
0.0000000000
10
1.0735219446
20
4.5328370312
30
0.0000000000
11
1.2256938086
21
4.5336790126
31
0.0000000000
11
1.0735219446
21
4.5328370312
31
0.0000000000
0
SPLINE
5
357
100
AcDbEntity
8
0
100
AcDbSpline
62
7
6
CONTINUOUS
70
0
71
3
72
8
73
4
74
2
42
0.0000001000
43
0.0000001000
44
0.0000000001
12
-0.0394603347
22
-0.0002037845
32
0.0000000000
13
-0.0394603786
23
-0.0001962438
33
0.0000000000
40
0.0000000000
40
0.0000000000
40
0.0000000000
40
0.0000000000
40
1.0000000000
40
1.0000000000
40
1.0000000000
40
1.0000000000
10
1.0735219446
20
4.5328370312
30
0.0000000000
10
1.0603684997
20
4.5327691030
30
0.0000000000
10
1.0472150474
20
4.5327024319
30
0.0000000000
10
1.0340615879
20
4.5326370173
30
0.0000000000
11
1.0735219446
21
4.5328370312
31
0.0000000000
11
1.0340615879
21
4.5326370173
31
0.0000000000
0
SPLINE
5
358
100
AcDbEntity
8
0
100
AcDbSpline
62
7
6
CONTINUOUS
70
0
71
3
72
8
73
4
74
2
42
0.0000001000
43
0.0000001000
44
0.0000000001
12
-0.2211369040
22
-0.0010997549
32
0.0000000000
13
-0.2211381116
23
-0.0008633342
33
0.0000000000
40
0.0000000000
40
0.0000000000
40
0.0000000000
40
0.0000000000
40
1.0000000000
40
1.0000000000
40
1.0000000000
40
1.0000000000
10
1.0340615879
20
4.5326370173
30
0.0000000000
10
0.9603492865
20
4.5322704324
30
0.0000000000
10
0.8866367598
20
4.5319433067
30
0.0000000000
10
0.8129240559
20
4.5316555286
30
0.0000000000
11
1.0340615879
21
4.5326370173
31
0.0000000000
11
0.8129240559
21
4.5316555286
31
0.0000000000
0
SPLINE
5
359
100
AcDbEntity
8
0
100
AcDbSpline
62
7
6
CONTINUOUS
70
0
71
3
72
8
73
4
74
2
42
0.0000001000
43
0.0000001000
44
0.0000000001
12
-0.0871361665
22
-0.0003401840
32
0.0000000000
13
-0.0871363227
23
-0.0003035490
33
0.0000000000
40
0.0000000000
40
0.0000000000
40
0.0000000000
40
0.0000000000
40
1.0000000000
40
1.0000000000
40
1.0000000000
40
1.0000000000
10
0.8129240559
20
4.5316555286
30
0.0000000000
10
0.7838786671
20
4.5315421340
30
0.0000000000
10
0.7548332507
20
4.5314348486
30
0.0000000000
10
0.7257878098
20
4.5313336656
30
0.0000000000
11
0.8129240559
21
4.5316555286
31
0.0000000000
11
0.7257878098
21
4.5313336656
31
0.0000000000
0
SPLINE
5
35A
100
AcDbEntity
8
0
100
AcDbSpline
62
7
6
CONTINUOUS
70
0
71
3
72
8
73
4
74
2
42
0.0000001000
43
0.0000001000
44
0.0000000001
12
-0.2585286672
22
-0.0009006132
32
0.0000000000
13
-0.2585297333
23
-0.0005788410
33
0.0000000000
40
0.0000000000
40
0.0000000000
40
0.0000000000
40
0.0000000000
40
1.0000000000
40
1.0000000000
40
1.0000000000
40
1.0000000000
10
0.7257878098
20
4.5313336656
30
0.0000000000
10
0.6396115874
20
4.5310334612
30
0.0000000000
10
0.5534351488
20
4.5307869748
30
0.0000000000
10
0.4672585711
20
4.5305940278
30
0.0000000000
11
0.7257878098
21
4.5313336656
31
0.0000000000
11
0.4672585711
21
4.5305940278
31
0.0000000000
0
SPLINE
5
35B
100
AcDbEntity
8
0
100
AcDbSpline
62
7
6
CONTINUOUS
70
0
71
3
72
8
73
4
74
2
42
0.0000001000
43
0.0000001000
44
0.0000000001
12
-0.1315376751
22
-0.0002945092
32
0.0000000000
13
-0.1315378609
23
-0.0002114218
33
0.0000000000
40
0.0000000000
40
0.0000000000
40
0.0000000000
40
0.0000000000
40
1.0000000000
40
1.0000000000
40
1.0000000000
40
1.0000000000
10
0.4672585711
20
4.5305940278
30
0.0000000000
10
0.4234126794
20
4.5304958581
30
0.0000000000
10
0.3795667516
20
4.5304115480
30
0.0000000000
10
0.3357207980
20
4.5303410741
30
0.0000000000
11
0.4672585711
21
4.5305940278
31
0.0000000000
11
0.3357207980
21
4.5303410741
31
0.0000000000
0
SPLINE
5
35C
100
AcDbEntity
8
0
100
AcDbSpline
62
7
6
CONTINUOUS
70
0
71
3
72
8
73
4
74
2
42
0.0000001000
43
0.0000001000
44
0.0000000001
12
-0.0177675426
22
-0.0000285579
32
0.0000000000
13
-0.0177675454
23
-0.0000270434
33
0.0000000000
40
0.0000000000
40
0.0000000000
40
0.0000000000
40
0.0000000000
40
1.0000000000
40
1.0000000000
40
1.0000000000
40
1.0000000000
10
0.3357207980
20
4.5303410741
30
0.0000000000
10
0.3297982838
20
4.5303315548
30
0.0000000000
10
0.3238757691
20
4.5303222879
30
0.0000000000
10
0.3179532540
20
4.5303132734
30
0.0000000000
11
0.3357207980
21
4.5303410741
31
0.0000000000
11
0.3179532540
21
4.5303132734
31
0.0000000000
0
SPLINE
5
35D
100
AcDbEntity
8
0
100
AcDbSpline
62
7
6
CONTINUOUS
70
0
71
3
72
8
73
4
74
2
42
0.0000001000
43
0.0000001000
44
0.0000000001
12
-0.2927526085
22
-0.0004455893
32
0.0000000000
13
-0.2927530017
23
-0.0000352496
33
0.0000000000
40
0.0000000000
40
0.0000000000
40
0.0000000000
40
0.0000000000
40
1.0000000000
40
1.0000000000
40
1.0000000000
40
1.0000000000
10
0.3179532540
20
4.5303132734
30
0.0000000000
10
0.2203690512
20
4.5301647437
30
0.0000000000
10
0.1227847269
20
4.5300847335
30
0.0000000000
10
0.0252003930
20
4.5300729837
30
0.0000000000
11
0.3179532540
21
4.5303132734
31
0.0000000000
11
0.0252003930
21
4.5300729837
31
0.0000000000
0
SPLINE
5
35E
100
AcDbEntity
8
0
100
AcDbSpline
62
7
6
CONTINUOUS
70
0
71
3
72
8
73
4
74
2
42
0.0000001000
43
0.0000001000
44
0.0000000001
12
-0.0504007858
22
-0.0000060686
32
0.0000000000
13
-0.0504007858
23
0.0000060686
33
0.0000000000
40
0.0000000000
40
0.0000000000
40
0.0000000000
40
0.0000000000
40
1.0000000000
40
1.0000000000
40
1.0000000000
40
1.0000000000
10
0.0252003930
20
4.5300729837
30
0.0000000000
10
0.0084001311
20
4.5300709608
30
0.0000000000
10
-0.0084001311
20
4.5300709608
30
0.0000000000
10
-0.0252003930
20
4.5300729837
30
0.0000000000
11
0.0252003930
21
4.5300729837
31
0.0000000000
11
-0.0252003930
21
4.5300729837
31
0.0000000000
0
SPLINE
5
35F
100
AcDbEntity
8
0
100
AcDbSpline
62
7
6
CONTINUOUS
70
0
71
3
72
8
73
4
74
2
42
0.0000001000
43
0.0000001000
44
0.0000000001
12
-0.2919636725
22
0.0000351546
32
0.0000000000
13
-0.2919632824
23
0.0004432824
33
0.0000000000
40
0.0000000000
40
0.0000000000
40
0.0000000000
40
0.0000000000
40
1.0000000000
40
1.0000000000
40
1.0000000000
40
1.0000000000
10
-0.0252003930
20
4.5300729837
30
0.0000000000
10
-0.1225216172
20
4.5300847019
30
0.0000000000
10
-0.2198428318
20
4.5301643127
30
0.0000000000
10
-0.3171639259
20
4.5303120735
30
0.0000000000
11
-0.0252003930
21
4.5300729837
31
0.0000000000
11
-0.3171639259
21
4.5303120735
31
0.0000000000
0
SPLINE
5
360
100
AcDbEntity
8
0
100
AcDbSpline
62
7
6
CONTINUOUS
70
0
71
3
72
8
73
4
74
2
42
0.0000001000
43
0.0000001000
44
0.0000000001
12
-0.4086248960
22
0.0006204076
32
0.0000000000
13
-0.4086225677
23
0.0014234819
33
0.0000000000
40
0.0000000000
40
0.0000000000
40
0.0000000000
40
0.0000000000
40
1.0000000000
40
1.0000000000
40
1.0000000000
40
1.0000000000
10
-0.3171639259
20
4.5303120735
30
0.0000000000
10
-0.4533722246
20
4.5305188761
30
0.0000000000
10
-0.5895802872
20
4.5308591716
30
0.0000000000
10
-0.7257878098
20
4.5313336656
30
0.0000000000
11
-0.3171639259
21
4.5303120735
31
0.0000000000
11
-0.7257878098
21
4.5313336656
31
0.0000000000
0
SPLINE
5
361
100
AcDbEntity
8
0
100
AcDbSpline
62
7
6
CONTINUOUS
70
0
71
3
72
8
73
4
74
2
42
0.0000001000
43
0.0000001000
44
0.0000000001
12
-0.3082748308
22
0.0010739094
32
0.0000000000
13
-0.3082725947
23
0.0015330969
33
0.0000000000
40
0.0000000000
40
0.0000000000
40
0.0000000000
40
0.0000000000
40
1.0000000000
40
1.0000000000
40
1.0000000000
40
1.0000000000
10
-0.7257878098
20
4.5313336656
30
0.0000000000
10
-0.8285460867
20
4.5316916354
30
0.0000000000
10
-0.9313040563
20
4.5321259850
30
0.0000000000
10
-1.0340615879
20
4.5326370173
30
0.0000000000
11
-0.7257878098
21
4.5313336656
31
0.0000000000
11
-1.0340615879
21
4.5326370173
31
0.0000000000
0
SPLINE
5
362
100
AcDbEntity
8
0
100
AcDbSpline
62
7
6
CONTINUOUS
70
0
71
3
72
8
73
4
74
2
42
0.0000001000
43
0.0000001000
44
0.0000000001
12
-0.0394603786
22
0.0001962438
32
0.0000000000
13
-0.0394603347
23
0.0002037845
33
0.0000000000
40
0.0000000000
40
0.0000000000
40
0.0000000000
40
0.0000000000
40
1.0000000000
40
1.0000000000
40
1.0000000000
40
1.0000000000
10
-1.0340615879
20
4.5326370173
30
0.0000000000
10
-1.0472150474
20
4.5327024319
30
0.0000000000
10
-1.0603684997
20
4.5327691030
30
0.0000000000
10
-1.0735219446
20
4.5328370312
30
0.0000000000
11
-1.0340615879
21
4.5326370173
31
0.0000000000
11
-1.0735219446
21
4.5328370312
31
0.0000000000
0
SPLINE
5
363
100
AcDbEntity
8
0
100
AcDbSpline
62
7
6
CONTINUOUS
70
0
71
3
72
8
73
4
74
2
42
0.0000001000
43
0.0000001000
44
0.0000000001
12
-0.1521722120
22
0.0007858609
32
0.0000000000
13
-0.1521715001
23
0.0008981384
33
0.0000000000
40
0.0000000000
40
0.0000000000
40
0.0000000000
40
0.0000000000
40
1.0000000000
40
1.0000000000
40
1.0000000000
40
1.0000000000
10
-1.0735219446
20
4.5328370312
30
0.0000000000
10
-1.1242460153
20
4.5330989848
30
0.0000000000
10
-1.1749699752
20
4.5333796332
30
0.0000000000
10
-1.2256938086
20
4.5336790126
30
0.0000000000
11
-1.0735219446
21
4.5328370312
31
0.0000000000
11
-1.2256938086
21
4.5336790126
31
0.0000000000
0
SPLINE
5
364
100
AcDbEntity
8
0
100
AcDbSpline
62
7
6
CONTINUOUS
70
0
71
3
72
10
73
6
74
4
42
0.0000001000
43
0.0000001000
44
0.0000000001
12
0.4872211507
22
-0.3231847561
32
0.0000000000
13
0.5846647212
23
0.0000000000
33
0.0000000000
40
0.0000000000
40
0.0000000000
40
0.0000000000
40
0.0000000000
40
0.3321121582
40
0.6675440619
40
1.0000000000
40
1.0000000000
40
1.0000000000
40
1.0000000000
10
-15.4775424466
20
-23.3333598063
30
0.0000000000
10
-15.4236050906
20
-23.3691376686
30
0.0000000000
10
-15.3078581909
20
-23.4306527264
30
0.0000000000
10
-15.1201769620
20
-23.4872613663
30
0.0000000000
10
-14.9896493911
20
-23.5000000000
30
0.0000000000
10
-14.9248576384
20
-23.5000000000
30
0.0000000000
11
-15.4775424466
21
-23.3333598063
31
0.0000000000
11
-15.3060728203
21
-23.4244740830
31
0.0000000000
11
-15.1183124784
21
-23.4811064577
31
0.0000000000
11
-14.9248576384
21
-23.5000000000
31
0.0000000000
0
SPLINE
5
365
100
AcDbEntity
8
0
100
AcDbSpline
62
7
6
CONTINUOUS
70
0
71
3
72
10
73
6
74
4
42
0.0000001000
43
0.0000001000
44
0.0000000001
12
0.5846647214
22
0.0000000000
32
0.0000000000
13
0.4872211508
23
0.3231847561
33
0.0000000000
40
0.0000000000
40
0.0000000000
40
0.0000000000
40
0.0000000000
40
0.3324559380
40
0.6678878416
40
1.0000000000
40
1.0000000000
40
1.0000000000
40
1.0000000000
10
-7.5751423616
20
-23.5000000000
30
0.0000000000
10
-7.5103506089
20
-23.5000000000
30
0.0000000000
10
-7.3798230380
20
-23.4872613663
30
0.0000000000
10
-7.1921418090
20
-23.4306527264
30
0.0000000000
10
-7.0763949093
20
-23.3691376685
30
0.0000000000
10
-7.0224575533
20
-23.3333598062
30
0.0000000000
11
-7.5751423616
21
-23.5000000000
31
0.0000000000
11
-7.3816875216
21
-23.4811064577
31
0.0000000000
11
-7.1939271797
21
-23.4244740830
31
0.0000000000
11
-7.0224575533
21
-23.3333598062
31
0.0000000000
0
SPLINE
5
366
100
AcDbEntity
8
0
100
AcDbSpline
62
7
6
CONTINUOUS
70
0
71
3
72
10
73
6
74
4
42
0.0000001000
43
0.0000001000
44
0.0000000001
12
0.4872211508
22
-0.3231847561
32
0.0000000000
13
0.5846647214
23
0.0000000000
33
0.0000000000
40
0.0000000000
40
0.0000000000
40
0.0000000000
40
0.0000000000
40
0.3321121584
40
0.6675440620
40
1.0000000000
40
1.0000000000
40
1.0000000000
40
1.0000000000
10
7.0224575533
20
-23.3333598062
30
0.0000000000
10
7.0763949093
20
-23.3691376685
30
0.0000000000
10
7.1921418090
20
-23.4306527264
30
0.0000000000
10
7.3798230380
20
-23.4872613663
30
0.0000000000
10
7.5103506089
20
-23.5000000000
30
0.0000000000
10
7.5751423616
20
-23.5000000000
30
0.0000000000
11
7.0224575533
21
-23.3333598062
31
0.0000000000
11
7.1939271797
21
-23.4244740830
31
0.0000000000
11
7.3816875216
21
-23.4811064577
31
0.0000000000
11
7.5751423616
21
-23.5000000000
31
0.0000000000
0
SPLINE
5
367
100
AcDbEntity
8
0
100
AcDbSpline
62
7
6
CONTINUOUS
70
0
71
3
72
10
73
6
74
4
42
0.0000001000
43
0.0000001000
44
0.0000000001
12
0.5846647212
22
0.0000000000
32
0.0000000000
13
0.4872211507
23
0.3231847561
33
0.0000000000
40
0.0000000000
40
0.0000000000
40
0.0000000000
40
0.0000000000
40
0.3324559381
40
0.6678878418
40
1.0000000000
40
1.0000000000
40
1.0000000000
40
1.0000000000
10
14.9248576384
20
-23.5000000000
30
0.0000000000
10
14.9896493911
20
-23.5000000000
30
0.0000000000
10
15.1201769620
20
-23.4872613663
30
0.0000000000
10
15.3078581909
20
-23.4306527264
30
0.0000000000
10
15.4236050906
20
-23.3691376686
30
0.0000000000
10
15.4775424466
20
-23.3333598063
30
0.0000000000
11
14.9248576384
21
-23.5000000000
31
0.0000000000
11
15.1183124784
21
-23.4811064577
31
0.0000000000
11
15.3060728203
21
-23.4244740830
31
0.0000000000
11
15.4775424466
21
-23.3333598063
31
0.0000000000
0
SPLINE
5
368
100
AcDbEntity
8
0
100
AcDbSpline
62
7
6
CONTINUOUS
70
0
71
3
72
10
73
6
74
4
42
0.0000001000
43
0.0000001000
44
0.0000000001
12
-0.4872211423
22
0.3231847505
32
0.0000000000
13
-0.5846647112
23
0.0000000000
33
0.0000000000
40
0.0000000000
40
0.0000000000
40
0.0000000000
40
0.0000000000
40
0.3324421724
40
0.6678898508
40
1.0000000000
40
1.0000000000
40
1.0000000000
40
1.0000000000
10
15.4775425353
20
23.3333597471
30
0.0000000000
10
15.4235515836
20
23.3691731606
30
0.0000000000
10
15.3077369538
20
23.4307098732
30
0.0000000000
10
15.1200442828
20
23.4872810867
30
0.0000000000
10
14.9895821157
20
23.5000000000
30
0.0000000000
10
14.9248577542
20
23.5000000000
30
0.0000000000
11
15.4775425353
21
23.3333597471
31
0.0000000000
11
15.3058936942
21
23.4245479394
31
0.0000000000
11
15.1181132918
21
23.4811457183
31
0.0000000000
11
14.9248577542
21
23.5000000000
31
0.0000000000
0
SPLINE
5
369
100
AcDbEntity
8
0
100
AcDbSpline
62
7
6
CONTINUOUS
70
0
71
3
72
10
73
6
74
4
42
0.0000001000
43
0.0000001000
44
0.0000000001
12
-0.5846647114
22
0.0000000000
32
0.0000000000
13
-0.4872211425
23
-0.3231847506
33
0.0000000000
40
0.0000000000
40
0.0000000000
40
0.0000000000
40
0.0000000000
40
0.3321101491
40
0.6675578274
40
1.0000000000
40
1.0000000000
40
1.0000000000
40
1.0000000000
10
7.5751422458
20
23.5000000000
30
0.0000000000
10
7.5104178843
20
23.5000000000
30
0.0000000000
10
7.3799557172
20
23.4872810867
30
0.0000000000
10
7.1922630461
20
23.4307098732
30
0.0000000000
10
7.0764484163
20
23.3691731606
30
0.0000000000
10
7.0224574646
20
23.3333597471
30
0.0000000000
11
7.5751422458
21
23.5000000000
31
0.0000000000
11
7.3818867082
21
23.4811457183
31
0.0000000000
11
7.1941063058
21
23.4245479394
31
0.0000000000
11
7.0224574646
21
23.3333597471
31
0.0000000000
0
SPLINE
5
36A
100
AcDbEntity
8
0
100
AcDbSpline
62
7
6
CONTINUOUS
70
0
71
3
72
10
73
6
74
4
42
0.0000001000
43
0.0000001000
44
0.0000000001
12
-0.4872211425
22
0.3231847506
32
0.0000000000
13
-0.5846647114
23
0.0000000000
33
0.0000000000
40
0.0000000000
40
0.0000000000
40
0.0000000000
40
0.0000000000
40
0.3324421726
40
0.6678898509
40
1.0000000000
40
1.0000000000
40
1.0000000000
40
1.0000000000
10
-7.0224574646
20
23.3333597471
30
0.0000000000
10
-7.0764484163
20
23.3691731606
30
0.0000000000
10
-7.1922630461
20
23.4307098732
30
0.0000000000
10
-7.3799557172
20
23.4872810867
30
0.0000000000
10
-7.5104178843
20
23.5000000000
30
0.0000000000
10
-7.5751422458
20
23.5000000000
30
0.0000000000
11
-7.0224574646
21
23.3333597471
31
0.0000000000
11
-7.1941063058
21
23.4245479394
31
0.0000000000
11
-7.3818867082
21
23.4811457183
31
0.0000000000
11
-7.5751422458
21
23.5000000000
31
0.0000000000
0
SPLINE
5
36B
100
AcDbEntity
8
0
100
AcDbSpline
62
7
6
CONTINUOUS
70
0
71
3
72
10
73
6
74
4
42
0.0000001000
43
0.0000001000
44
0.0000000001
12
-0.5846647112
22
0.0000000000
32
0.0000000000
13
-0.4872211423
23
-0.3231847505
33
0.0000000000
40
0.0000000000
40
0.0000000000
40
0.0000000000
40
0.0000000000
40
0.3321101492
40
0.6675578276
40
1.0000000000
40
1.0000000000
40
1.0000000000
40
1.0000000000
10
-14.9248577542
20
23.5000000000
30
0.0000000000
10
-14.9895821157
20
23.5000000000
30
0.0000000000
10
-15.1200442828
20
23.4872810867
30
0.0000000000
10
-15.3077369538
20
23.4307098732
30
0.0000000000
10
-15.4235515836
20
23.3691731607
30
0.0000000000
10
-15.4775425353
20
23.3333597471
30
0.0000000000
11
-14.9248577542
21
23.5000000000
31
0.0000000000
11
-15.1181132918
21
23.4811457183
31
0.0000000000
11
-15.3058936942
21
23.4245479394
31
0.0000000000
11
-15.4775425353
21
23.3333597471
31
0.0000000000
0
SPLINE
5
36C
100
AcDbEntity
8
0
100
AcDbSpline
62
7
6
CONTINUOUS
70
0
71
3
72
15
73
11
74
9
42
0.0000001000
43
0.0000001000
44
0.0000000001
12
0.0000000000
22
-0.7840504605
32
0.0000000000
13
-0.7840504605
23
0.0000000000
33
0.0000000000
40
0.0000000000
40
0.0000000000
40
0.0000000000
40
0.0000000000
40
0.1250036937
40
0.2500007026
40
0.3749978065
40
0.4999939082
40
0.6249948383
40
0.7499966729
40
0.8749989499
40
1.0000000000
40
1.0000000000
40
1.0000000000
40
1.0000000000
10
22.4000000000
20
-21.8997711479
30
0.0000000000
10
22.4000000000
20
-21.9324408825
30
0.0000000000
10
22.3935720475
20
-21.9979589583
30
0.0000000000
10
22.3650027896
20
-22.0923356488
30
0.0000000000
10
22.3185861373
20
-22.1793740081
30
0.0000000000
10
22.2560854667
20
-22.2556799356
30
0.0000000000
10
22.1798936307
20
-22.3183231330
30
0.0000000000
10
22.0929220860
20
-22.3648788990
30
0.0000000000
10
21.9985696610
20
-22.3935479534
30
0.0000000000
10
21.9330496434
20
-22.4000000000
30
0.0000000000
10
21.9003805997
20
-22.4000000000
30
0.0000000000
11
22.4000000000
21
-21.8997711479
31
0.0000000000
11
22.3904171108
21
-21.9973107411
31
0.0000000000
11
22.3620281294
21
-22.0911128859
31
0.0000000000
11
22.3159054339
21
-22.1775853567
31
0.0000000000
11
22.2538046503
21
-22.2534017791
31
0.0000000000
11
22.1780974227
21
-22.3156415972
31
0.0000000000
11
22.0916920476
21
-22.3618977256
31
0.0000000000
11
21.9979147385
21
-22.3903828542
31
0.0000000000
11
21.9003805997
21
-22.4000000000
31
0.0000000000
0
SPLINE
5
36D
100
AcDbEntity
8
0
100
AcDbSpline
62
7
6
CONTINUOUS
70
0
71
3
72
15
73
11
74
9
42
0.0000001000
43
0.0000001000
44
0.0000000001
12
0.7840504604
22
0.0000000000
32
0.0000000000
13
0.0000000000
23
-0.7840504604
33
0.0000000000
40
0.0000000000
40
0.0000000000
40
0.0000000000
40
0.0000000000
40
0.1250024959
40
0.2500079087
40
0.3750129683
40
0.5000152546
40
0.6250099998
40
0.7500038789
40
0.8749977521
40
1.0000000000
40
1.0000000000
40
1.0000000000
40
1.0000000000
10
21.9003805997
20
22.4000000000
30
0.0000000000
10
21.9330500212
20
22.4000000000
30
0.0000000000
10
21.9985712424
20
22.3935477601
30
0.0000000000
10
22.0929255264
20
22.3648776510
30
0.0000000000
10
22.1798984354
20
22.3183200605
30
0.0000000000
10
22.2560900985
20
22.2556752949
30
0.0000000000
10
22.3185892013
20
22.1793691983
30
0.0000000000
10
22.3650040333
20
22.0923322072
30
0.0000000000
10
22.3935722401
20
21.9979573768
30
0.0000000000
10
22.4000000000
20
21.9324405046
30
0.0000000000
10
22.4000000000
20
21.8997711479
30
0.0000000000
11
21.9003805997
21
22.4000000000
31
0.0000000000
11
21.9979158556
21
22.3903826318
31
0.0000000000
11
22.0916953817
21
22.3618963425
31
0.0000000000
11
22.1781025340
21
22.3156381763
31
0.0000000000
11
22.2538097500
21
22.2533966698
31
0.0000000000
11
22.3159088458
21
22.1775802398
31
0.0000000000
11
22.3620295080
21
22.0911095501
31
0.0000000000
11
22.3904173325
21
21.9973096238
31
0.0000000000
11
22.4000000000
21
21.8997711479
31
0.0000000000
0
SPLINE
5
36E
100
AcDbEntity
8
0
100
AcDbSpline
62
7
6
CONTINUOUS
70
0
71
3
72
15
73
11
74
9
42
0.0000001000
43
0.0000001000
44
0.0000000001
12
-0.7840504604
22
0.0000000000
32
0.0000000000
13
0.0000000000
23
0.7840504604
33
0.0000000000
40
0.0000000000
40
0.0000000000
40
0.0000000000
40
0.0000000000
40
0.1250024959
40
0.2500079087
40
0.3750129683
40
0.5000152546
40
0.6250099998
40
0.7500038789
40
0.8749977521
40
1.0000000000
40
1.0000000000
40
1.0000000000
40
1.0000000000
10
-21.9003805997
20
-22.4000000000
30
0.0000000000
10
-21.9330500212
20
-22.4000000000
30
0.0000000000
10
-21.9985712424
20
-22.3935477601
30
0.0000000000
10
-22.0929255264
20
-22.3648776510
30
0.0000000000
10
-22.1798984354
20
-22.3183200605
30
0.0000000000
10
-22.2560900985
20
-22.2556752949
30
0.0000000000
10
-22.3185892013
20
-22.1793691983
30
0.0000000000
10
-22.3650040333
20
-22.0923322072
30
0.0000000000
10
-22.3935722401
20
-21.9979573769
30
0.0000000000
10
-22.4000000000
20
-21.9324405046
30
0.0000000000
10
-22.4000000000
20
-21.8997711479
30
0.0000000000
11
-21.9003805997
21
-22.4000000000
31
0.0000000000
11
-21.9979158556
21
-22.3903826318
31
0.0000000000
11
-22.0916953817
21
-22.3618963425
31
0.0000000000
11
-22.1781025340
21
-22.3156381763
31
0.0000000000
11
-22.2538097500
21
-22.2533966698
31
0.0000000000
11
-22.3159088458
21
-22.1775802398
31
0.0000000000
11
-22.3620295080
21
-22.0911095501
31
0.0000000000
11
-22.3904173325
21
-21.9973096238
31
0.0000000000
11
-22.4000000000
21
-21.8997711479
31
0.0000000000
0
SPLINE
5
36F
100
AcDbEntity
8
0
100
AcDbSpline
62
7
6
CONTINUOUS
70
0
71
3
72
15
73
11
74
9
42
0.0000001000
43
0.0000001000
44
0.0000000001
12
0.0000000000
22
0.7840504605
32
0.0000000000
13
0.7840504605
23
0.0000000000
33
0.0000000000
40
0.0000000000
40
0.0000000000
40
0.0000000000
40
0.0000000000
40
0.1250036937
40
0.2500007026
40
0.3749978065
40
0.4999939082
40
0.6249948383
40
0.7499966729
40
0.8749989499
40
1.0000000000
40
1.0000000000
40
1.0000000000
40
1.0000000000
10
-22.4000000000
20
21.8997711479
30
0.0000000000
10
-22.4000000000
20
21.9324408825
30
0.0000000000
10
-22.3935720475
20
21.9979589582
30
0.0000000000
10
-22.3650027896
20
22.0923356488
30
0.0000000000
10
-22.3185861373
20
22.1793740081
30
0.0000000000
10
-22.2560854667
20
22.2556799356
30
0.0000000000
10
-22.1798936307
20
22.3183231330
30
0.0000000000
10
-22.0929220860
20
22.3648788990
30
0.0000000000
10
-21.9985696610
20
22.3935479534
30
0.0000000000
10
-21.9330496434
20
22.4000000000
30
0.0000000000
10
-21.9003805997
20
22.4000000000
30
0.0000000000
11
-22.4000000000
21
21.8997711479
31
0.0000000000
11
-22.3904171108
21
21.9973107411
31
0.0000000000
11
-22.3620281294
21
22.0911128859
31
0.0000000000
11
-22.3159054339
21
22.1775853567
31
0.0000000000
11
-22.2538046503
21
22.2534017791
31
0.0000000000
11
-22.1780974227
21
22.3156415972
31
0.0000000000
11
-22.0916920476
21
22.3618977256
31
0.0000000000
11
-21.9979147385
21
22.3903828542
31
0.0000000000
11
-21.9003805997
21
22.4000000000
31
0.0000000000
0
SPLINE
5
370
100
AcDbEntity
8
0
100
AcDbSpline
62
7
6
CONTINUOUS
70
0
71
3
72
10
73
6
74
4
42
0.0000001000
43
0.0000001000
44
0.0000000001
12
0.0020008105
22
-9.0502381529
32
0.0000000000
13
0.0005663019
23
-9.0502383563
33
0.0000000000
40
0.0000000000
40
0.0000000000
40
0.0000000000
40
0.0000000000
40
0.3332985168
40
0.6666359201
40
1.0000000000
40
1.0000000000
40
1.0000000000
40
1.0000000000
10
1.2244774121
20
12.6244774121
30
0.0000000000
10
1.2246997012
20
11.6190004277
30
0.0000000000
10
1.2250911559
20
9.6079291361
30
0.0000000000
10
1.2255189648
20
6.5911830405
30
0.0000000000
10
1.2256979343
20
4.5799139317
30
0.0000000000
10
1.2257608625
20
3.5742391375
30
0.0000000000
11
1.2244774121
21
12.6244774121
31
0.0000000000
11
1.2250645707
21
9.6080464422
31
0.0000000000
11
1.2254923927
21
6.5912635141
31
0.0000000000
11
1.2257608625
21
3.5742391375
31
0.0000000000
0
SPLINE
5
371
100
AcDbEntity
8
0
100
AcDbSpline
62
9
6
CONTINUOUS
70
0
71
3
72
13
73
9
74
7
42
0.0000001000
43
0.0000001000
44
0.0000000001
12
0.1514175279
22
0.4538785052
32
0.0000000000
13
0.0003487501
23
0.4784692713
33
0.0000000000
40
0.0000000000
40
0.0000000000
40
0.0000000000
40
0.0000000000
40
0.0447393873
40
0.1496912263
40
0.3085216489
40
0.5116483853
40
0.7470339087
40
1.0000000000
40
1.0000000000
40
1.0000000000
40
1.0000000000
10
-22.2587219643
20
-21.4755923698
30
0.0000000000
10
-22.2564638552
20
-21.4688236211
30
0.0000000000
10
-22.2570576095
20
-21.4443875877
30
0.0000000000
10
-22.2536743870
20
-21.3956995189
30
0.0000000000
10
-22.2529941766
20
-21.3210012926
30
0.0000000000
10
-22.2514327633
20
-21.2258344617
30
0.0000000000
10
-22.2507366076
20
-21.1155203756
30
0.0000000000
10
-22.2504883174
20
-21.0376414171
30
0.0000000000
10
-22.2504589101
20
-20.9972959167
30
0.0000000000
11
-22.2587219643
21
-21.4755923698
31
0.0000000000
11
-22.2566191044
21
-21.4542894797
31
0.0000000000
11
-22.2546622904
21
-21.4041113772
31
0.0000000000
11
-22.2529780638
21
-21.3281345459
31
0.0000000000
11
-22.2516683071
21
-21.2309534442
31
0.0000000000
11
-22.2508108466
21
-21.1183319385
31
0.0000000000
11
-22.2504589101
21
-20.9972959167
31
0.0000000000
0
SPLINE
5
372
100
AcDbEntity
8
0
100
AcDbSpline
62
9
6
CONTINUOUS
70
0
71
3
72
13
73
9
74
7
42
0.0000001000
43
0.0000001000
44
0.0000000001
12
0.1576341305
22
0.9436032094
32
0.0000000000
13
0.0003456835
23
0.9566793697
33
0.0000000000
40
0.0000000000
40
0.0000000000
40
0.0000000000
40
0.0000000000
40
0.0448270314
40
0.1498225927
40
0.3086597101
40
0.5117110612
40
0.7469567150
40
1.0000000000
40
1.0000000000
40
1.0000000000
40
1.0000000000
10
-21.7587981167
20
-21.9749071372
30
0.0000000000
10
-21.7564426933
20
-21.9608074936
30
0.0000000000
10
-21.7572282534
20
-21.9127243118
30
0.0000000000
10
-21.7536928017
20
-21.8145738165
30
0.0000000000
10
-21.7530905571
20
-21.6655622815
30
0.0000000000
10
-21.7515013431
20
-21.4751957534
30
0.0000000000
10
-21.7508152567
20
-21.2547155911
30
0.0000000000
10
-21.7505642202
20
-21.0990079944
30
0.0000000000
10
-21.7505350625
20
-21.0183142309
30
0.0000000000
11
-21.7587981167
21
-21.9749071372
31
0.0000000000
11
-21.7566888224
21
-21.9320739422
31
0.0000000000
11
-21.7547342215
21
-21.8316458675
31
0.0000000000
11
-21.7530519768
21
-21.6796989761
31
0.0000000000
11
-21.7517440253
21
-21.4854483283
31
0.0000000000
11
-21.7508871259
21
-21.2603952811
31
0.0000000000
11
-21.7505350625
21
-21.0183142309
31
0.0000000000
0
SPLINE
5
373
100
AcDbEntity
8
0
100
AcDbSpline
62
9
6
CONTINUOUS
70
0
71
3
72
11
73
7
74
5
42
0.0000001000
43
0.0000001000
44
0.0000000001
12
0.0007128996
22
-0.7795522208
32
0.0000000000
13
0.7795522224
23
-0.0007111579
33
0.0000000000
40
0.0000000000
40
0.0000000000
40
0.0000000000
40
0.0000000000
40
0.2498232422
40
0.4997945166
40
0.7498856864
40
1.0000000000
40
1.0000000000
40
1.0000000000
40
1.0000000000
10
-22.2587219643
20
-21.4755923698
30
0.0000000000
10
-22.2586625980
20
-21.5405091243
30
0.0000000000
10
-22.2325362541
20
-21.6717759102
30
0.0000000000
10
-22.1212401882
20
-21.8376550047
30
0.0000000000
10
-21.9551608414
20
-21.9487736877
30
0.0000000000
10
-21.8237905064
20
-21.9748478469
30
0.0000000000
10
-21.7587981167
20
-21.9749071371
30
0.0000000000
11
-22.2587219643
21
-21.4755923698
31
0.0000000000
11
-22.2205381458
21
-21.6665627674
31
0.0000000000
11
-22.1121400203
21
-21.8284964094
31
0.0000000000
11
-21.9500086007
21
-21.9367668841
31
0.0000000000
11
-21.7587981167
21
-21.9749071371
31
0.0000000000
0
SPLINE
5
374
100
AcDbEntity
8
0
100
AcDbSpline
62
9
6
CONTINUOUS
70
0
71
3
72
10
73
6
74
4
42
0.0000001000
43
0.0000001000
44
0.0000000001
12
0.0308408056
22
41.9945838615
32
0.0000000000
13
-0.0308408162
23
41.9945838615
33
0.0000000000
40
0.0000000000
40
0.0000000000
40
0.0000000000
40
0.0000000000
40
0.3332888351
40
0.6667105879
40
1.0000000000
40
1.0000000000
40
1.0000000000
40
1.0000000000
10
-22.2504589101
20
-20.9972959167
30
0.0000000000
10
-22.2470326114
20
-16.3318539387
30
0.0000000000
10
-22.2424665661
20
-6.9991075263
30
0.0000000000
10
-22.2424665617
20
6.9990913713
30
0.0000000000
10
-22.2470326043
20
16.3318458612
30
0.0000000000
10
-22.2504589101
20
20.9972959167
30
0.0000000000
11
-22.2504589101
21
-20.9972959167
31
0.0000000000
11
-22.2436085319
21
-7.0009678848
31
0.0000000000
11
-22.2436085263
21
7.0009436522
31
0.0000000000
11
-22.2504589101
21
20.9972959167
31
0.0000000000
0
SPLINE
5
375
100
AcDbEntity
8
0
100
AcDbSpline
62
9
6
CONTINUOUS
70
0
71
3
72
10
73
6
74
4
42
0.0000001000
43
0.0000001000
44
0.0000000001
12
0.0308408058
22
42.0366204979
32
0.0000000000
13
-0.0308408163
23
42.0366204979
33
0.0000000000
40
0.0000000000
40
0.0000000000
40
0.0000000000
40
0.0000000000
40
0.3332896861
40
0.6667103140
40
1.0000000000
40
1.0000000000
40
1.0000000000
40
1.0000000000
10
-21.7505350625
20
-21.0183142309
30
0.0000000000
10
-21.7471087550
20
-16.3481902147
30
0.0000000000
10
-21.7425427175
20
-7.0061055512
30
0.0000000000
10
-21.7425427190
20
7.0061055542
30
0.0000000000
10
-21.7471087539
20
16.3481902162
30
0.0000000000
10
-21.7505350625
20
21.0183142309
30
0.0000000000
11
-21.7505350625
21
-21.0183142309
31
0.0000000000
11
-21.7436846756
21
-7.0079400864
31
0.0000000000
11
-21.7436846759
21
7.0079400909
31
0.0000000000
11
-21.7505350625
21
21.0183142309
31
0.0000000000
0
SPLINE
5
376
100
AcDbEntity
8
0
100
AcDbSpline
62
9
6
CONTINUOUS
70
0
71
3
72
11
73
7
74
5
42
0.0000001000
43
0.0000001000
44
0.0000000001
12
0.1919259466
22
-0.4627599078
32
0.0000000000
13
0.5009812036
23
-0.0003672644
33
0.0000000000
40
0.0000000000
40
0.0000000000
40
0.0000000000
40
0.0000000000
40
0.0824389917
40
0.3003131910
40
0.6220743335
40
1.0000000000
40
1.0000000000
40
1.0000000000
40
1.0000000000
10
-22.2504589101
20
-20.9972959167
30
0.0000000000
10
-22.2451848496
20
-21.0100124034
30
0.0000000000
10
-22.1775508594
20
-20.9984236215
30
0.0000000000
10
-22.0891418387
20
-21.0185602517
30
0.0000000000
10
-21.9283438758
20
-21.0152247924
30
0.0000000000
10
-21.8136462810
20
-21.0182679641
30
0.0000000000
10
-21.7505350625
20
-21.0183142303
30
0.0000000000
11
-22.2504589101
21
-20.9972959167
31
0.0000000000
11
-22.2099328238
21
-21.0052557575
31
0.0000000000
11
-22.1009923465
21
-21.0120302040
31
0.0000000000
11
-21.9398611020
21
-21.0166103925
31
0.0000000000
11
-21.7505350625
21
-21.0183142303
31
0.0000000000
0
SPLINE
5
377
100
AcDbEntity
8
0
100
AcDbSpline
62
9
6
CONTINUOUS
70
0
71
3
72
13
73
9
74
7
42
0.0000001000
43
0.0000001000
44
0.0000000001
12
-0.0003487498
22
0.4784692713
32
0.0000000000
13
-0.1514174029
23
0.4538785469
33
0.0000000000
40
0.0000000000
40
0.0000000000
40
0.0000000000
40
0.0000000000
40
0.2529660912
40
0.4883516149
40
0.6914783512
40
0.8503087732
40
0.9552606132
40
1.0000000000
40
1.0000000000
40
1.0000000000
40
1.0000000000
10
-22.2504589101
20
20.9972959167
30
0.0000000000
10
-22.2504883174
20
21.0376414171
30
0.0000000000
10
-22.2507366076
20
21.1155203756
30
0.0000000000
10
-22.2514327634
20
21.2258344616
30
0.0000000000
10
-22.2529941762
20
21.3210012927
30
0.0000000000
10
-22.2536743882
20
21.3956995185
30
0.0000000000
10
-22.2570576074
20
21.4443875884
30
0.0000000000
10
-22.2564638570
20
21.4688236205
30
0.0000000000
10
-22.2587219643
20
21.4755923698
30
0.0000000000
11
-22.2504589101
21
20.9972959167
31
0.0000000000
11
-22.2508108466
21
21.1183319385
31
0.0000000000
11
-22.2516683071
21
21.2309534443
31
0.0000000000
11
-22.2529780638
21
21.3281345459
31
0.0000000000
11
-22.2546622904
21
21.4041113770
31
0.0000000000
11
-22.2566191044
21
21.4542894799
31
0.0000000000
11
-22.2587219643
21
21.4755923698
31
0.0000000000
0
SPLINE
5
378
100
AcDbEntity
8
0
100
AcDbSpline
62
9
6
CONTINUOUS
70
0
71
3
72
13
73
9
74
7
42
0.0000001000
43
0.0000001000
44
0.0000000001
12
-0.0003456837
22
0.9566793697
32
0.0000000000
13
-0.1576341168
23
0.9436032117
33
0.0000000000
40
0.0000000000
40
0.0000000000
40
0.0000000000
40
0.0000000000
40
0.2530432850
40
0.4882889388
40
0.6913402899
40
0.8501774073
40
0.9551729686
40
1.0000000000
40
1.0000000000
40
1.0000000000
40
1.0000000000
10
-21.7505350625
20
21.0183142309
30
0.0000000000
10
-21.7505642202
20
21.0990079944
30
0.0000000000
10
-21.7508152568
20
21.2547155910
30
0.0000000000
10
-21.7515013431
20
21.4751957534
30
0.0000000000
10
-21.7530905571
20
21.6655622815
30
0.0000000000
10
-21.7536928019
20
21.8145738165
30
0.0000000000
10
-21.7572282531
20
21.9127243119
30
0.0000000000
10
-21.7564426935
20
21.9608074936
30
0.0000000000
10
-21.7587981167
20
21.9749071372
30
0.0000000000
11
-21.7505350625
21
21.0183142309
31
0.0000000000
11
-21.7508871259
21
21.2603952811
31
0.0000000000
11
-21.7517440252
21
21.4854483283
31
0.0000000000
11
-21.7530519768
21
21.6796989761
31
0.0000000000
11
-21.7547342215
21
21.8316458674
31
0.0000000000
11
-21.7566888224
21
21.9320739422
31
0.0000000000
11
-21.7587981167
21
21.9749071372
31
0.0000000000
0
SPLINE
5
379
100
AcDbEntity
8
0
100
AcDbSpline
62
9
6
CONTINUOUS
70
0
71
3
72
11
73
7
74
5
42
0.0000001000
43
0.0000001000
44
0.0000000001
12
0.1920583414
22
0.4627048763
32
0.0000000000
13
0.5009811116
23
0.0003673423
33
0.0000000000
40
0.0000000000
40
0.0000000000
40
0.0000000000
40
0.0000000000
40
0.0824427228
40
0.3003178355
40
0.6220773841
40
1.0000000000
40
1.0000000000
40
1.0000000000
40
1.0000000000
10
-22.2504589101
20
20.9972959167
30
0.0000000000
10
-22.2451809725
20
21.0100114666
30
0.0000000000
10
-22.1775538209
20
20.9984245745
30
0.0000000000
10
-22.0891373207
20
21.0185589970
30
0.0000000000
10
-21.9283435732
20
21.0152245890
30
0.0000000000
10
-21.8136457600
20
21.0182674214
30
0.0000000000
10
-21.7505350625
20
21.0183136971
30
0.0000000000
11
-22.2504589101
21
20.9972959167
31
0.0000000000
11
-22.2099308856
21
21.0052555494
31
0.0000000000
11
-22.1009899585
21
21.0120298107
31
0.0000000000
11
-21.9398595391
21
21.0166098816
31
0.0000000000
11
-21.7505350625
21
21.0183136971
31
0.0000000000
0
SPLINE
5
37A
100
AcDbEntity
8
0
100
AcDbSpline
62
9
6
CONTINUOUS
70
0
71
3
72
34
73
30
74
28
42
0.0000001000
43
0.0000001000
44
0.0000000001
12
20.5973379058
22
0.0000214639
32
0.0000000000
13
-20.5973379058
23
-0.0000252929
33
0.0000000000
40
0.0000000000
40
0.0000000000
40
0.0000000000
40
0.0000000000
40
0.0194927365
40
0.0399979649
40
0.0621459045
40
0.0864823151
40
0.1135787262
40
0.1439999938
40
0.1783071221
40
0.2170787942
40
0.2607143834
40
0.3093043050
40
0.3625629546
40
0.4187331320
40
0.4753269502
40
0.5316945658
40
0.5883782373
40
0.6441982349
40
0.6966157092
40
0.7442762304
40
0.7869782215
40
0.8248672554
40
0.8584019124
40
0.8881548567
40
0.9146869340
40
0.9385632028
40
0.9603527516
40
0.9806270209
40
1.0000000000
40
1.0000000000
40
1.0000000000
40
1.0000000000
10
-0.0000000000
20
14.5792694221
30
0.0000000000
10
0.1338328267
20
14.5792695616
30
0.0000000000
10
0.4085173711
20
14.5711699173
30
0.0000000000
10
0.8337310752
20
14.5327990741
30
0.0000000000
10
1.2885271522
20
14.4619342504
30
0.0000000000
10
1.7814207591
20
14.3490847725
30
0.0000000000
10
2.3183746046
20
14.1810593907
30
0.0000000000
10
2.9020729010
20
13.9404168363
30
0.0000000000
10
3.5301233100
20
13.6051663029
30
0.0000000000
10
4.1916488751
20
13.1495144089
30
0.0000000000
10
4.8630300935
20
12.5468473503
30
0.0000000000
10
5.5045484859
20
11.7760859751
30
0.0000000000
10
6.0575627195
20
10.8365499243
30
0.0000000000
10
6.4568563782
20
9.7621528287
30
0.0000000000
10
6.6575424442
20
8.6117042369
30
0.0000000000
10
6.6440229863
20
7.4404582437
30
0.0000000000
10
6.4170986405
20
6.2967109548
30
0.0000000000
10
5.9965644690
20
5.2387323325
30
0.0000000000
10
5.4323782327
20
4.3232245537
30
0.0000000000
10
4.7899845576
20
3.5778389478
30
0.0000000000
10
4.1245533160
20
2.9971665719
30
0.0000000000
10
3.4728843307
20
2.5588537721
30
0.0000000000
10
2.8562434833
20
2.2363441337
30
0.0000000000
10
2.2838811731
20
2.0045095233
30
0.0000000000
10
1.7573528241
20
1.8422321561
30
0.0000000000
10
1.2734349499
20
1.7328428913
30
0.0000000000
10
0.8256676325
20
1.6637798228
30
0.0000000000
10
0.4052860213
20
1.6261300873
30
0.0000000000
10
0.1330105993
20
1.6181477737
30
0.0000000000
10
0.0000000000
20
1.6181476103
30
0.0000000000
11
-0.0000000000
21
14.5792694221
31
0.0000000000
11
0.4013239773
21
14.5674332559
31
0.0000000000
11
0.8219676328
21
14.5294718148
31
0.0000000000
11
1.2727157298
21
14.4592280371
31
0.0000000000
11
1.7613342748
21
14.3473406292
31
0.0000000000
11
2.2939695596
21
14.1806348449
31
0.0000000000
11
2.8732465047
21
13.9417579277
31
0.0000000000
11
3.4965862274
21
13.6089196210
31
0.0000000000
11
4.1541801612
21
13.1557956116
31
0.0000000000
11
4.8228639201
21
12.5552441301
31
0.0000000000
11
5.4628696694
21
11.7858031716
31
0.0000000000
11
6.0189998977
21
10.8402354409
31
0.0000000000
11
6.4217447223
21
9.7556414700
31
0.0000000000
11
6.6219078522
21
8.6072733930
31
0.0000000000
11
6.6085212295
21
7.4463277452
31
0.0000000000
11
6.3814914250
21
6.3010809793
31
0.0000000000
11
5.9571136548
21
5.2325243419
31
0.0000000000
11
5.3909965061
21
4.3131887021
31
0.0000000000
11
4.7503476584
21
3.5693712510
31
0.0000000000
11
4.0877792669
21
2.9909193087
31
0.0000000000
11
3.4402902117
21
2.5552557458
31
0.0000000000
11
2.8282614164
21
2.2350662526
31
0.0000000000
11
2.2602738380
21
2.0049521610
31
0.0000000000
11
1.7380330550
21
1.8439675033
31
0.0000000000
11
1.2583515818
21
1.7355207160
31
0.0000000000
11
0.8147913016
21
1.6670975390
31
0.0000000000
11
0.3988603425
21
1.6298438849
31
0.0000000000
11
0.0000000000
21
1.6181476103
31
0.0000000000
0
SPLINE
5
37B
100
AcDbEntity
8
0
100
AcDbSpline
62
9
6
CONTINUOUS
70
0
71
3
72
34
73
30
74
28
42
0.0000001000
43
0.0000001000
44
0.0000000001
12
21.4423207256
22
0.0000237589
32
0.0000000000
13
-21.4423207256
23
-0.0000292627
33
0.0000000000
40
0.0000000000
40
0.0000000000
40
0.0000000000
40
0.0000000000
40
0.0194710413
40
0.0399569929
40
0.0620849111
40
0.0864008577
40
0.1134770307
40
0.1438796167
40
0.1781718467
40
0.2169354428
40
0.2605732893
40
0.3091790030
40
0.3624653026
40
0.4186719665
40
0.4753158670
40
0.5317420730
40
0.5884741016
40
0.6443251100
40
0.6967623515
40
0.7444314707
40
0.7871303945
40
0.8250078721
40
0.8585255720
40
0.8882587148
40
0.9147700082
40
0.9386255969
40
0.9603950925
40
0.9806500817
40
1.0000000000
40
1.0000000000
40
1.0000000000
40
1.0000000000
10
0.0000000000
20
14.8525508621
30
0.0000000000
10
0.1391681042
20
14.8525510163
30
0.0000000000
10
0.4248286149
20
14.8441119030
30
0.0000000000
10
0.8670459638
20
14.8041294017
30
0.0000000000
10
1.3400563475
20
14.7302805839
30
0.0000000000
10
1.8526974102
20
14.6126745890
30
0.0000000000
10
2.4111749597
20
14.4375603116
30
0.0000000000
10
3.0182849733
20
14.1867542796
30
0.0000000000
10
3.6715406006
20
13.8373283485
30
0.0000000000
10
4.3596201685
20
13.3623915471
30
0.0000000000
10
5.0579317650
20
12.7342089073
30
0.0000000000
10
5.7251121553
20
11.9308584766
30
0.0000000000
10
6.3001380942
20
10.9517281348
30
0.0000000000
10
6.7152547941
20
9.8321961976
30
0.0000000000
10
6.9238658878
20
8.6334670647
30
0.0000000000
10
6.9097497918
20
7.4130713394
30
0.0000000000
10
6.6737491079
20
6.2213739287
30
0.0000000000
10
6.2364731735
20
5.1190472162
30
0.0000000000
10
5.6498099235
20
4.1650817478
30
0.0000000000
10
4.9817439716
20
3.3882940082
30
0.0000000000
10
4.2896628858
20
2.7831202359
30
0.0000000000
10
3.6118764858
20
2.3263097392
30
0.0000000000
10
2.9705213560
20
1.9901955536
30
0.0000000000
10
2.3752262744
20
1.7485882382
30
0.0000000000
10
1.8276092001
20
1.5794754228
30
0.0000000000
10
1.3243150277
20
1.4654819160
30
0.0000000000
10
0.8586225002
20
1.3935146729
30
0.0000000000
10
0.4214451379
20
1.3542870209
30
0.0000000000
10
0.1383023847
20
1.3459712069
30
0.0000000000
10
-0.0000000000
20
1.3459710182
30
0.0000000000
11
0.0000000000
21
14.8525508621
31
0.0000000000
11
0.4173221736
21
14.8402198221
31
0.0000000000
11
0.8548037804
21
14.8006627120
31
0.0000000000
11
1.3235971996
21
14.7274627832
31
0.0000000000
11
1.8317825290
21
14.6108628514
31
0.0000000000
11
2.3857550063
21
14.4371303905
31
0.0000000000
11
2.9882482427
21
14.1881763443
31
0.0000000000
11
3.6365835623
21
13.8412833531
31
0.0000000000
11
4.3205558178
21
13.3690074026
31
0.0000000000
11
5.0160543752
21
12.7430600612
31
0.0000000000
11
5.6816881621
21
11.9410920238
31
0.0000000000
11
6.2599924069
21
10.9556694445
31
0.0000000000
11
6.6787136006
21
9.8255443317
31
0.0000000000
11
6.8868049225
21
8.6289263822
31
0.0000000000
11
6.8728246395
21
7.4190983479
31
0.0000000000
11
6.6366851332
21
6.2257716862
31
0.0000000000
11
6.1953992419
21
5.1124643589
31
0.0000000000
11
5.6067006510
21
4.1545208861
31
0.0000000000
11
4.9404288078
21
3.3793790003
31
0.0000000000
11
4.2513334047
21
2.7765481812
31
0.0000000000
11
3.5779105551
21
2.3225221033
31
0.0000000000
11
2.9413702020
21
1.9888423954
31
0.0000000000
11
2.3506409712
21
1.7490385229
31
0.0000000000
11
1.8074949842
21
1.5812786799
31
0.0000000000
11
1.3086152287
21
1.4682704275
31
0.0000000000
11
0.8473040882
21
1.3969714761
31
0.0000000000
11
0.4147282374
21
1.3581544303
31
0.0000000000
11
-0.0000000000
21
1.3459710182
31
0.0000000000
0
SPLINE
5
37C
100
AcDbEntity
8
0
100
AcDbSpline
62
9
6
CONTINUOUS
70
0
71
3
72
34
73
30
74
28
42
0.0000001000
43
0.0000001000
44
0.0000000001
12
-20.5973378978
22
-0.0000213893
32
0.0000000000
13
20.5973378978
23
0.0000253846
33
0.0000000000
40
0.0000000000
40
0.0000000000
40
0.0000000000
40
0.0000000000
40
0.0194927455
40
0.0399980471
40
0.0621462146
40
0.0864831428
40
0.1135805621
40
0.1440036122
40
0.1783136613
40
0.2170897911
40
0.2607316430
40
0.3093294661
40
0.3625967072
40
0.4187742167
40
0.4753720513
40
0.5317393918
40
0.5884185494
40
0.6442309539
40
0.6966398921
40
0.7442927307
40
0.7869887109
40
0.8248734972
40
0.8584053776
40
0.8881566272
40
0.9146877435
40
0.9385635171
40
0.9603528489
40
0.9806270269
40
1.0000000000
40
1.0000000000
40
1.0000000000
40
1.0000000000
10
-0.0000000000
20
1.6181476103
30
0.0000000000
10
-0.1338328882
20
1.6181474713
30
0.0000000000
10
-0.4085180556
20
1.6262506959
30
0.0000000000
10
-0.8337325987
20
1.6646384325
30
0.0000000000
10
-1.2885298207
20
1.7355342706
30
0.0000000000
10
-1.7814249555
20
1.8484325640
30
0.0000000000
10
-2.3183807250
20
2.0165292482
30
0.0000000000
10
-2.9020811235
20
2.2572708256
30
0.0000000000
10
-3.5301331827
20
2.5926528070
30
0.0000000000
10
-4.1916586961
20
3.0484703600
30
0.0000000000
10
-4.8630365781
20
3.6513321736
30
0.0000000000
10
-5.5045479356
20
4.4223011795
30
0.0000000000
10
-6.0575546538
20
5.3620288959
30
0.0000000000
10
-6.4568467008
20
6.4365699416
30
0.0000000000
10
-6.6575386716
20
7.5870931232
30
0.0000000000
10
-6.6440277735
20
8.7583340163
30
0.0000000000
10
-6.4171085502
20
9.9019974031
30
0.0000000000
10
-5.9965716668
20
10.9598251703
30
0.0000000000
10
-5.4323776990
20
11.8751385536
30
0.0000000000
10
-4.7899774537
20
12.6203183136
30
0.0000000000
10
-4.1245433513
20
13.2008002730
30
0.0000000000
10
-3.4728745409
20
13.6389524190
30
0.0000000000
10
-2.8562353589
20
13.9613350748
30
0.0000000000
10
-2.2838750717
20
14.1930741017
30
0.0000000000
10
-1.7573485429
20
14.3552825573
30
0.0000000000
10
-1.2734320881
20
14.4646245011
30
0.0000000000
10
-0.8256659651
20
14.5336573220
30
0.0000000000
10
-0.4052852545
20
14.5712904752
30
0.0000000000
10
-0.1330105580
20
14.5792692582
30
0.0000000000
10
-0.0000000000
20
14.5792694221
30
0.0000000000
11
-0.0000000000
21
1.6181476103
31
0.0000000000
11
-0.4013240090
21
1.6299889562
31
0.0000000000
11
-0.8219676859
21
1.6679669422
31
0.0000000000
11
-1.2727158019
21
1.7382410814
31
0.0000000000
11
-1.7613343642
21
1.8501761579
31
0.0000000000
11
-2.2939696662
21
2.0169513955
31
0.0000000000
11
-2.8732466298
21
2.2559245578
31
0.0000000000
11
-3.4965863724
21
2.5888905350
31
0.0000000000
11
-4.1541803261
21
3.0421763161
31
0.0000000000
11
-4.8228641005
21
3.6429208144
31
0.0000000000
11
-5.4628698523
21
4.4125734463
31
0.0000000000
11
-6.0190000593
21
5.3583464854
31
0.0000000000
11
-6.4217448324
21
6.4431015697
31
0.0000000000
11
-6.6219078882
21
7.5915536332
31
0.0000000000
11
-6.6085211802
21
8.7524936144
31
0.0000000000
11
-6.3814912789
21
9.8976455770
31
0.0000000000
11
-5.9571134134
21
10.9660338924
31
0.0000000000
11
-5.3909961925
21
11.8851629998
31
0.0000000000
11
-4.7503472951
21
12.6287715499
31
0.0000000000
11
-4.0877788769
21
13.2070351917
31
0.0000000000
11
-3.4402898143
21
13.6425420019
31
0.0000000000
11
-2.8282610225
21
13.9626081091
31
0.0000000000
11
-2.2602734540
21
14.1926292429
31
0.0000000000
11
-1.7380326823
21
14.3535467369
31
0.0000000000
11
-1.2583512174
21
14.4619472884
31
0.0000000000
11
-0.8147908972
21
14.5303408826
31
0.0000000000
11
-0.3988603684
21
14.5675782606
31
0.0000000000
11
-0.0000000000
21
14.5792694221
31
0.0000000000
0
SPLINE
5
37D
100
AcDbEntity
8
0
100
AcDbSpline
62
9
6
CONTINUOUS
70
0
71
3
72
34
73
30
74
28
42
0.0000001000
43
0.0000001000
44
0.0000000001
12
-21.4423207206
22
-0.0000237741
32
0.0000000000
13
21.4423207206
23
0.0000292504
33
0.0000000000
40
0.0000000000
40
0.0000000000
40
0.0000000000
40
0.0000000000
40
0.0194710503
40
0.0399570753
40
0.0620852221
40
0.0864016878
40
0.1134788719
40
0.1438832456
40
0.1781784046
40
0.2169464702
40
0.2605905948
40
0.3092042268
40
0.3624991333
40
0.4187131382
40
0.4753610575
40
0.5317869871
40
0.5885144970
40
0.6443579021
40
0.6967865926
40
0.7444480133
40
0.7871409121
40
0.8250141312
40
0.8585290471
40
0.8882604903
40
0.9147708201
40
0.9386259120
40
0.9603951899
40
0.9806500877
40
1.0000000000
40
1.0000000000
40
1.0000000000
40
1.0000000000
10
-0.0000000000
20
1.3459710182
30
0.0000000000
10
-0.1391681683
20
1.3459708639
30
0.0000000000
10
-0.4248293294
20
1.3544137076
30
0.0000000000
10
-0.8670475538
20
1.3944138170
30
0.0000000000
10
-1.3400591331
20
1.4682949542
30
0.0000000000
10
-1.8527017895
20
1.5859518274
30
0.0000000000
10
-2.4111813451
20
1.7611404199
30
0.0000000000
10
-3.0182935474
20
2.0120496648
30
0.0000000000
10
-3.6715508874
20
2.3616126085
30
0.0000000000
10
-4.3596303879
20
2.8367220818
30
0.0000000000
10
-5.0579384897
20
3.4651077131
30
0.0000000000
10
-5.7251115520
20
4.2686745327
30
0.0000000000
10
-6.3001296729
20
5.2480046187
30
0.0000000000
10
-6.7152447199
20
6.3676865680
30
0.0000000000
10
-6.9238619695
20
7.5664934245
30
0.0000000000
10
-6.9097547693
20
8.7868838134
30
0.0000000000
10
-6.6737594264
20
9.9784937611
30
0.0000000000
10
-6.2364806909
20
11.0806632494
30
0.0000000000
10
-5.6498093942
20
12.0344261283
30
0.0000000000
10
-4.9817365980
20
12.8109993505
30
0.0000000000
10
-4.2896525149
20
13.4159746690
30
0.0000000000
10
-3.6118662851
20
13.8726177249
30
0.0000000000
10
-2.9705128848
20
14.2085995627
30
0.0000000000
10
-2.3752199097
20
14.4501072570
30
0.0000000000
10
-1.8276047334
20
14.6191482534
30
0.0000000000
10
-1.3243120416
20
14.7330924420
30
0.0000000000
10
-0.8586207609
20
14.8050281671
30
0.0000000000
10
-0.4214443380
20
14.8442385357
30
0.0000000000
10
-0.1383023416
20
14.8525506735
30
0.0000000000
10
0.0000000000
20
14.8525508621
30
0.0000000000
11
-0.0000000000
21
1.3459710182
31
0.0000000000
11
-0.4173222063
21
1.3583074545
31
0.0000000000
11
-0.8548038354
21
1.3978818076
31
0.0000000000
11
-1.3235972743
21
1.4711133753
31
0.0000000000
11
-1.8317826216
21
1.5877629855
31
0.0000000000
11
-2.3857551169
21
1.7615678293
31
0.0000000000
11
-2.9882483725
21
2.0106221848
31
0.0000000000
11
-3.6365837127
21
2.3576482439
31
0.0000000000
11
-4.3205559888
21
2.8300928137
31
0.0000000000
11
-5.0160545624
21
3.4562413491
31
0.0000000000
11
-5.6816883518
21
4.2584300232
31
0.0000000000
11
-6.2599925748
21
5.2440665941
31
0.0000000000
11
-6.6787137150
21
6.3743595893
31
0.0000000000
11
-6.8868049600
21
7.5710650175
31
0.0000000000
11
-6.8728245881
21
8.7808871225
31
0.0000000000
11
-6.6366849810
21
9.9741149931
31
0.0000000000
11
-6.1953989903
21
11.0872469073
31
0.0000000000
11
-5.6067003243
21
12.0449751175
31
0.0000000000
11
-4.9404284295
21
12.8198992729
31
0.0000000000
11
-4.2513329986
21
13.4225338319
31
0.0000000000
11
-3.5779101415
21
13.8763965362
31
0.0000000000
11
-2.9413697923
21
14.2099476515
31
0.0000000000
11
-2.3506405718
21
14.4496546468
31
0.0000000000
11
-1.8074945967
21
14.6173444969
31
0.0000000000
11
-1.3086148499
21
14.7303045667
31
0.0000000000
11
-0.8473036680
21
14.8015726922
31
0.0000000000
11
-0.4147282647
21
14.8403727759
31
0.0000000000
11
0.0000000000
21
14.8525508621
31
0.0000000000
0
SPLINE
5
37E
100
AcDbEntity
8
0
100
AcDbSpline
62
7
6
CONTINUOUS
70
0
71
3
72
13
73
9
74
7
42
0.0000001000
43
0.0000001000
44
0.0000000001
12
0.1129999399
22
0.4072523705
32
0.0000000000
13
0.1093571771
23
0.4082426063
33
0.0000000000
40
0.0000000000
40
0.0000000000
40
0.0000000000
40
0.0000000000
40
0.0527346705
40
0.1826953953
40
0.3595431553
40
0.5641350516
40
0.7822568361
40
1.0000000000
40
1.0000000000
40
1.0000000000
40
1.0000000000
10
-9.4288602744
20
-3.2187349473
30
0.0000000000
10
-9.4268739362
20
-3.2115761742
30
0.0000000000
10
-9.4200523507
20
-3.1867587720
30
0.0000000000
10
-9.4069116313
20
-3.1378408099
30
0.0000000000
10
-9.3881662800
20
-3.0682769473
30
0.0000000000
10
-9.3662646797
20
-2.9867004328
30
0.0000000000
10
-9.3428877826
20
-2.8995547563
30
0.0000000000
10
-9.3269898449
20
-2.8402444484
30
0.0000000000
10
-9.3190525856
20
-2.8106137695
30
0.0000000000
11
-9.4288602744
21
-3.2187349473
31
0.0000000000
11
-9.4229478895
21
-3.1972459032
31
0.0000000000
11
-9.4086194101
21
-3.1442216998
31
0.0000000000
11
-9.3891935358
21
-3.0720480827
31
0.0000000000
11
-9.3667617916
21
-2.9885405528
31
0.0000000000
11
-9.3428767888
21
-2.8995024768
31
0.0000000000
11
-9.3190525856
21
-2.8106137695
31
0.0000000000
0
SPLINE
5
37F
100
AcDbEntity
8
0
100
AcDbSpline
62
9
6
CONTINUOUS
70
0
71
3
72
11
73
7
74
5
42
0.0000001000
43
0.0000001000
44
0.0000000001
12
0.0007129025
22
0.7795522187
32
0.0000000000
13
0.7795522203
23
0.0007111667
33
0.0000000000
40
0.0000000000
40
0.0000000000
40
0.0000000000
40
0.0000000000
40
0.2498284581
40
0.4998010784
40
0.7498901819
40
1.0000000000
40
1.0000000000
40
1.0000000000
40
1.0000000000
10
-22.2587219643
20
21.4755923698
30
0.0000000000
10
-22.2586625965
20
21.5405104794
30
0.0000000000
10
-22.2325353295
20
21.6717790559
30
0.0000000000
10
-22.1212370010
20
21.8376581279
30
0.0000000000
10
-21.9551578934
20
21.9487745243
30
0.0000000000
10
-21.8237893380
20
21.9748478473
30
0.0000000000
10
-21.7587981167
20
21.9749071372
30
0.0000000000
11
-22.2587219643
21
21.4755923698
31
0.0000000000
11
-22.2205365546
21
21.6665665953
31
0.0000000000
11
-22.1121363290
21
21.8285000934
31
0.0000000000
11
-21.9500052991
21
21.9367682503
31
0.0000000000
11
-21.7587981167
21
21.9749071372
31
0.0000000000
0
SPLINE
5
380
100
AcDbEntity
8
0
100
AcDbSpline
62
7
6
CONTINUOUS
70
0
71
3
72
13
73
9
74
7
42
0.0000001000
43
0.0000001000
44
0.0000000001
12
0.2130135321
22
-0.3689502602
32
0.0000000000
13
0.4115091595
23
-0.1102690845
33
0.0000000000
40
0.0000000000
40
0.0000000000
40
0.0000000000
40
0.0000000000
40
0.0567961635
40
0.1882837924
40
0.3649282840
40
0.5681894026
40
0.7843536651
40
1.0000000000
40
1.0000000000
40
1.0000000000
40
1.0000000000
10
-4.9037910284
20
-11.0563847892
30
0.0000000000
10
-4.8997582446
20
-11.0633697756
30
0.0000000000
10
-4.8672600237
20
-11.0638850728
30
0.0000000000
10
-4.8230191429
20
-11.0844920290
30
0.0000000000
10
-4.7507620330
20
-11.1017432688
30
0.0000000000
10
-4.6700202690
20
-11.1252988247
30
0.0000000000
10
-4.5827816189
20
-11.1488175328
30
0.0000000000
10
-4.5236326648
20
-11.1648498754
30
0.0000000000
10
-4.4940525174
20
-11.1727762501
30
0.0000000000
11
-4.9037910284
21
-11.0563847892
31
0.0000000000
11
-4.8810320603
21
-11.0646012238
31
0.0000000000
11
-4.8273678766
21
-11.0806664659
31
0.0000000000
11
-4.7550022973
21
-11.1013204786
31
0.0000000000
11
-4.6715798170
21
-11.1245441384
31
0.0000000000
11
-4.5827525942
21
-11.1488469966
31
0.0000000000
11
-4.4940525174
21
-11.1727762501
31
0.0000000000
0
SPLINE
5
381
100
AcDbEntity
8
0
100
AcDbSpline
62
9
6
CONTINUOUS
70
0
71
3
72
9
73
5
74
3
42
0.0000001000
43
0.0000001000
44
0.0000000001
12
-4.8249860170
22
8.3621382085
32
0.0000000000
13
-4.8249860162
23
8.3621382090
33
0.0000000000
40
0.0000000000
40
0.0000000000
40
0.0000000000
40
0.0000000000
40
0.4999742912
40
1.0000000000
40
1.0000000000
40
1.0000000000
40
1.0000000000
10
-4.4942322686
20
-11.1728418397
30
0.0000000000
10
-5.2983552565
20
-9.7792237986
30
0.0000000000
10
-6.9064070908
20
-6.9916846652
30
0.0000000000
10
-8.5149134828
20
-4.2044078062
30
0.0000000000
10
-9.3191191671
20
-2.8106464444
30
0.0000000000
11
-4.4942322686
21
-11.1728418397
31
0.0000000000
11
-6.9064380362
21
-6.9918935559
31
0.0000000000
11
-9.3191191671
21
-2.8106464444
31
0.0000000000
0
SPLINE
5
382
100
AcDbEntity
8
0
100
AcDbSpline
62
9
6
CONTINUOUS
70
0
71
3
72
9
73
5
74
3
42
0.0000001000
43
0.0000001000
44
0.0000000001
12
2.6412127066
22
1.5258203614
32
0.0000000000
13
2.6412127078
23
1.5258203594
33
0.0000000000
40
0.0000000000
40
0.0000000000
40
0.0000000000
40
0.0000000000
40
0.5000172947
40
1.0000000000
40
1.0000000000
40
1.0000000000
40
1.0000000000
10
-7.1354513220
20
-12.6986512126
30
0.0000000000
10
-6.6952339779
20
-12.4443390229
30
0.0000000000
10
-5.8147871347
20
-11.9358059918
30
0.0000000000
10
-4.9344191602
20
-11.4271364368
30
0.0000000000
10
-4.4942322686
20
-11.1728418397
30
0.0000000000
11
-7.1354513220
21
-12.6986512126
31
0.0000000000
11
-5.8147763992
21
-11.9357542686
31
0.0000000000
11
-4.4942322686
21
-11.1728418397
31
0.0000000000
0
SPLINE
5
383
100
AcDbEntity
8
0
100
AcDbSpline
62
7
6
CONTINUOUS
70
0
71
3
72
13
73
9
74
7
42
0.0000001000
43
0.0000001000
44
0.0000000001
12
-0.0965942759
22
-0.4207391409
32
0.0000000000
13
-0.1117179531
23
-0.4169277540
33
0.0000000000
40
0.0000000000
40
0.0000000000
40
0.0000000000
40
0.0000000000
40
0.0536647864
40
0.1848431189
40
0.3621595951
40
0.5664135131
40
0.7836302991
40
1.0000000000
40
1.0000000000
40
1.0000000000
40
1.0000000000
10
-7.0256224788
20
-12.2812649118
30
0.0000000000
10
-7.0273503826
20
-12.2887912039
30
0.0000000000
10
-7.0335553647
20
-12.3146520173
30
0.0000000000
10
-7.0468975472
20
-12.3650265273
30
0.0000000000
10
-7.0655542917
20
-12.4364001860
30
0.0000000000
10
-7.0876519316
20
-12.5196715321
30
0.0000000000
10
-7.1112556092
20
-12.6083555697
30
0.0000000000
10
-7.1273726202
20
-12.6686216059
30
0.0000000000
10
-7.1354300802
20
-12.6986917837
30
0.0000000000
11
-7.0256224788
21
-12.2812649118
31
0.0000000000
11
-7.0310042935
21
-12.3037946915
31
0.0000000000
11
-7.0451724170
21
-12.3586147164
31
0.0000000000
11
-7.0646168563
21
-12.4326397143
31
0.0000000000
11
-7.0871836090
21
-12.5178659874
31
0.0000000000
11
-7.1113049953
21
-12.6084685906
31
0.0000000000
11
-7.1354300802
21
-12.6986917837
31
0.0000000000
0
SPLINE
5
384
100
AcDbEntity
8
0
100
AcDbSpline
62
9
6
CONTINUOUS
70
0
71
3
72
9
73
5
74
3
42
0.0000001000
43
0.0000001000
44
0.0000000001
12
4.8249847101
22
-8.3621359465
32
0.0000000000
13
4.8249847037
23
-8.3621359501
33
0.0000000000
40
0.0000000000
40
0.0000000000
40
0.0000000000
40
0.0000000000
40
0.5000472951
40
1.0000000000
40
1.0000000000
40
1.0000000000
40
1.0000000000
10
-11.9604345044
20
-4.3365143847
30
0.0000000000
10
-11.1561943200
20
-5.7303355385
30
0.0000000000
10
-9.5478716251
20
-8.5177173849
30
0.0000000000
10
-7.9395393733
20
-11.3050937170
30
0.0000000000
10
-7.1354513220
20
-12.6986512126
30
0.0000000000
11
-11.9604345044
21
-4.3365143847
31
0.0000000000
11
-9.5477171038
21
-8.5179796650
31
0.0000000000
11
-7.1354513220
21
-12.6986512126
31
0.0000000000
0
SPLINE
5
385
100
AcDbEntity
8
0
100
AcDbSpline
62
7
6
CONTINUOUS
70
0
71
3
72
13
73
9
74
7
42
0.0000001000
43
0.0000001000
44
0.0000000001
12
-0.4140484557
22
0.0899038171
32
0.0000000000
13
-0.4091702228
23
0.1096656074
33
0.0000000000
40
0.0000000000
40
0.0000000000
40
0.0000000000
40
0.0000000000
40
0.0532423088
40
0.1834270350
40
0.3598055740
40
0.5636819213
40
0.7815311158
40
1.0000000000
40
1.0000000000
40
1.0000000000
40
1.0000000000
10
-11.5506224567
20
-4.4437350485
30
0.0000000000
10
-11.5579707553
20
-4.4421394863
30
0.0000000000
10
-11.5832073625
20
-4.4363137634
30
0.0000000000
10
-11.6323384121
20
-4.4233460823
30
0.0000000000
10
-11.7021027141
20
-4.4052507994
30
0.0000000000
10
-11.7837474620
20
-4.3836418566
30
0.0000000000
10
-11.8711136697
20
-4.3604284345
30
0.0000000000
10
-11.9306330937
20
-4.3445155161
30
0.0000000000
10
-11.9604300811
20
-4.3365293418
30
0.0000000000
11
-11.5506224567
21
-4.4437350485
31
0.0000000000
11
-11.5726053290
21
-4.4386913381
31
0.0000000000
11
-11.6260376672
21
-4.4250435847
31
0.0000000000
11
-11.6983306253
21
-4.4061700834
31
0.0000000000
11
-11.7818363720
21
-4.3841337820
31
0.0000000000
11
-11.8710230846
21
-4.3604279588
31
0.0000000000
11
-11.9604300811
21
-4.3365293418
31
0.0000000000
0
SPLINE
5
386
100
AcDbEntity
8
0
100
AcDbSpline
62
9
6
CONTINUOUS
70
0
71
3
72
9
73
5
74
3
42
0.0000001000
43
0.0000001000
44
0.0000000001
12
-2.6413102661
22
-1.5258767189
32
0.0000000000
13
-2.6413102658
23
-1.5258767193
33
0.0000000000
40
0.0000000000
40
0.0000000000
40
0.0000000000
40
0.0000000000
40
0.4972172015
40
1.0000000000
40
1.0000000000
40
1.0000000000
40
1.0000000000
10
-9.3191191671
20
-2.8106464444
30
0.0000000000
10
-9.7568874667
20
-3.0635438284
30
0.0000000000
10
-10.6373166820
20
-3.5721824533
30
0.0000000000
10
-11.5177660487
20
-4.0807861957
30
0.0000000000
10
-11.9604345044
20
-4.3365143847
30
0.0000000000
11
-9.3191191671
21
-2.8106464444
31
0.0000000000
11
-10.6324215497
21
-3.5693429518
31
0.0000000000
11
-11.9604345044
21
-4.3365143847
31
0.0000000000
0
SPLINE
5
387
100
AcDbEntity
8
0
100
AcDbSpline
62
7
6
CONTINUOUS
70
0
71
3
72
13
73
9
74
7
42
0.0000001000
43
0.0000001000
44
0.0000000001
12
-0.2130134819
22
-0.3689501733
32
0.0000000000
13
-0.4115090624
23
-0.1102690593
33
0.0000000000
40
0.0000000000
40
0.0000000000
40
0.0000000000
40
0.0000000000
40
0.0567961737
40
0.1882838327
40
0.3649283661
40
0.5681895333
40
0.7843538478
40
1.0000000000
40
1.0000000000
40
1.0000000000
40
1.0000000000
10
4.9037910285
20
-11.0563847890
30
0.0000000000
10
4.8997582449
20
-11.0633697750
30
0.0000000000
10
4.8672600236
20
-11.0638850692
30
0.0000000000
10
4.8230191436
20
-11.0844920254
30
0.0000000000
10
4.7507620325
20
-11.1017432609
30
0.0000000000
10
4.6700202688
20
-11.1252988193
30
0.0000000000
10
4.5827816414
20
-11.1488174854
30
0.0000000000
10
4.5236327296
20
-11.1648498583
30
0.0000000000
10
4.4940526143
20
-11.1727762244
30
0.0000000000
11
4.9037910285
21
-11.0563847890
31
0.0000000000
11
4.8810320611
21
-11.0646012216
31
0.0000000000
11
4.8273678773
21
-11.0806664617
31
0.0000000000
11
4.7550022971
21
-11.1013204720
31
0.0000000000
11
4.6715798153
21
-11.1245441274
31
0.0000000000
11
4.5827525887
21
-11.1488469733
31
0.0000000000
11
4.4940526143
21
-11.1727762244
31
0.0000000000
0
SPLINE
5
388
100
AcDbEntity
8
0
100
AcDbSpline
62
7
6
CONTINUOUS
70
0
71
3
72
13
73
9
74
7
42
0.0000001000
43
0.0000001000
44
0.0000000001
12
-0.1129999193
22
0.4072523225
32
0.0000000000
13
-0.1093571638
23
0.4082425562
33
0.0000000000
40
0.0000000000
40
0.0000000000
40
0.0000000000
40
0.0000000000
40
0.0527346750
40
0.1826954153
40
0.3595431972
40
0.5641351191
40
0.7822569309
40
1.0000000000
40
1.0000000000
40
1.0000000000
40
1.0000000000
10
9.4288602746
20
-3.2187349469
30
0.0000000000
10
9.4268739366
20
-3.2115761740
30
0.0000000000
10
9.4200523515
20
-3.1867587720
30
0.0000000000
10
9.4069116328
20
-3.1378408101
30
0.0000000000
10
9.3881662830
20
-3.0682769471
30
0.0000000000
10
9.3662646817
20
-2.9867004327
30
0.0000000000
10
9.3428878034
20
-2.8995547686
30
0.0000000000
10
9.3269898540
20
-2.8402444815
30
0.0000000000
10
9.3190525991
20
-2.8106138192
30
0.0000000000
11
9.4288602746
21
-3.2187349469
31
0.0000000000
11
9.4229478903
21
-3.1972459036
31
0.0000000000
11
9.4086194116
21
-3.1442217001
31
0.0000000000
11
9.3891935384
21
-3.0720480826
31
0.0000000000
11
9.3667617961
21
-2.9885405520
31
0.0000000000
11
9.3428767986
21
-2.8995024744
31
0.0000000000
11
9.3190525991
21
-2.8106138192
31
0.0000000000
0
SPLINE
5
389
100
AcDbEntity
8
0
100
AcDbSpline
62
9
6
CONTINUOUS
70
0
71
3
72
9
73
5
74
3
42
0.0000001000
43
0.0000001000
44
0.0000000001
12
-4.8249859524
22
-8.3621381014
32
0.0000000000
13
-4.8249859458
23
-8.3621381052
33
0.0000000000
40
0.0000000000
40
0.0000000000
40
0.0000000000
40
0.0000000000
40
0.5000380796
40
1.0000000000
40
1.0000000000
40
1.0000000000
40
1.0000000000
10
9.3190128266
20
-2.8105851760
30
0.0000000000
10
8.5147872567
20
-4.2043810019
30
0.0000000000
10
6.9065331923
20
-6.9918034052
30
0.0000000000
10
5.2981496696
20
-9.7791511112
30
0.0000000000
10
4.4940465899
20
-11.1727346530
30
0.0000000000
11
9.3190128266
21
-2.8105851760
31
0.0000000000
11
6.9063783394
21
-6.9919970160
31
0.0000000000
11
4.4940465899
21
-11.1727346530
31
0.0000000000
0
SPLINE
5
38A
100
AcDbEntity
8
0
100
AcDbSpline
62
7
6
CONTINUOUS
70
0
71
3
72
13
73
9
74
7
42
0.0000001000
43
0.0000001000
44
0.0000000001
12
0.4140484514
22
0.0899038360
32
0.0000000000
13
0.4091702228
23
0.1096656074
33
0.0000000000
40
0.0000000000
40
0.0000000000
40
0.0000000000
40
0.0000000000
40
0.0532423072
40
0.1834270329
40
0.3598055721
40
0.5636819198
40
0.7815311150
40
1.0000000000
40
1.0000000000
40
1.0000000000
40
1.0000000000
10
11.5506224568
20
-4.4437350486
30
0.0000000000
10
11.5579707551
20
-4.4421394860
30
0.0000000000
10
11.5832073618
20
-4.4363137624
30
0.0000000000
10
11.6323384110
20
-4.4233460810
30
0.0000000000
10
11.7021027126
20
-4.4052507964
30
0.0000000000
10
11.7837474609
20
-4.3836418546
30
0.0000000000
10
11.8711136648
20
-4.3604284173
30
0.0000000000
10
11.9306330937
20
-4.3445155161
30
0.0000000000
10
11.9604300811
20
-4.3365293418
30
0.0000000000
11
11.5506224568
21
-4.4437350486
31
0.0000000000
11
11.5726053282
21
-4.4386913375
31
0.0000000000
11
11.6260376660
21
-4.4250435834
31
0.0000000000
11
11.6983306238
21
-4.4061700809
31
0.0000000000
11
11.7818363702
21
-4.3841337775
31
0.0000000000
11
11.8710230815
21
-4.3604279485
31
0.0000000000
11
11.9604300811
21
-4.3365293418
31
0.0000000000
0
SPLINE
5
38B
100
AcDbEntity
8
0
100
AcDbSpline
62
9
6
CONTINUOUS
70
0
71
3
72
9
73
5
74
3
42
0.0000001000
43
0.0000001000
44
0.0000000001
12
-2.6414157538
22
1.5259376594
32
0.0000000000
13
-2.6414157538
23
1.5259376593
33
0.0000000000
40
0.0000000000
40
0.0000000000
40
0.0000000000
40
0.0000000000
40
0.5027716326
40
1.0000000000
40
1.0000000000
40
1.0000000000
40
1.0000000000
10
11.9604337745
20
-4.3365138439
30
0.0000000000
10
11.5177574709
20
-4.0807811212
30
0.0000000000
10
10.6372729003
20
-3.5721571369
30
0.0000000000
10
9.7568084409
20
-3.0634983397
30
0.0000000000
10
9.3190128266
20
-2.8105851760
30
0.0000000000
11
11.9604337745
21
-4.3365138439
31
0.0000000000
11
10.6323972245
21
-3.5693288992
31
0.0000000000
11
9.3190128266
21
-2.8105851760
31
0.0000000000
0
SPLINE
5
38C
100
AcDbEntity
8
0
100
AcDbSpline
62
9
6
CONTINUOUS
70
0
71
3
72
9
73
5
74
3
42
0.0000001000
43
0.0000001000
44
0.0000000001
12
4.8249847776
22
8.3621360782
32
0.0000000000
13
4.8249847839
23
8.3621360746
33
0.0000000000
40
0.0000000000
40
0.0000000000
40
0.0000000000
40
0.0000000000
40
0.4999527466
40
1.0000000000
40
1.0000000000
40
1.0000000000
40
1.0000000000
10
7.1354512963
20
-12.6986512489
30
0.0000000000
10
7.9395394270
20
-11.3050936156
30
0.0000000000
10
9.5478720996
20
-8.5177174694
30
0.0000000000
10
11.1561936450
20
-5.7303349027
30
0.0000000000
10
11.9604337745
20
-4.3365138439
30
0.0000000000
11
7.1354512963
21
-12.6986512489
31
0.0000000000
11
9.5477173200
21
-8.5179792904
31
0.0000000000
11
11.9604337745
21
-4.3365138439
31
0.0000000000
0
SPLINE
5
38D
100
AcDbEntity
8
0
100
AcDbSpline
62
9
6
CONTINUOUS
70
0
71
3
72
12
73
8
74
6
42
0.0000001000
43
0.0000001000
44
0.0000000001
12
-0.1576774712
22
0.9435927454
32
0.0000000000
13
-0.0003539836
23
0.9566761881
33
0.0000000000
40
0.0000000000
40
0.0000000000
40
0.0000000000
40
0.0000000000
40
0.0611681961
40
0.2073534027
40
0.4258979096
40
0.6979541170
40
1.0000000000
40
1.0000000000
40
1.0000000000
40
1.0000000000
10
21.7587981167
20
-21.9749071372
30
0.0000000000
10
21.7555831679
20
-21.9556678485
30
0.0000000000
10
21.7573774153
20
-21.8890877511
30
0.0000000000
10
21.7525565789
20
-21.7536760084
30
0.0000000000
10
21.7523780744
20
-21.5504227506
30
0.0000000000
10
21.7507208871
20
-21.2977300077
30
0.0000000000
10
21.7505707023
20
-21.1146342656
30
0.0000000000
10
21.7505350625
20
-21.0183142309
30
0.0000000000
11
21.7587981167
21
-21.9749071372
31
0.0000000000
11
21.7562813689
21
-21.9164431217
31
0.0000000000
11
21.7540224183
21
-21.7766094508
31
0.0000000000
11
21.7522168280
21
-21.5675409075
31
0.0000000000
11
21.7510193986
21
-21.3072739488
31
0.0000000000
11
21.7505350625
21
-21.0183142309
31
0.0000000000
0
SPLINE
5
38E
100
AcDbEntity
8
0
100
AcDbSpline
62
7
6
CONTINUOUS
70
0
71
3
72
13
73
9
74
7
42
0.0000001000
43
0.0000001000
44
0.0000000001
12
0.0965402637
22
-0.4207516652
32
0.0000000000
13
0.1117179463
23
-0.4169277286
33
0.0000000000
40
0.0000000000
40
0.0000000000
40
0.0000000000
40
0.0000000000
40
0.0531474471
40
0.1841922713
40
0.3622207184
40
0.5673994251
40
0.7848388848
40
1.0000000000
40
1.0000000000
40
1.0000000000
40
1.0000000000
10
7.0256224565
20
-12.2812649526
30
0.0000000000
10
7.0273327460
20
-12.2887189116
30
0.0000000000
10
7.0335122235
20
-12.3144895422
30
0.0000000000
10
7.0468582544
20
-12.3648722025
30
0.0000000000
10
7.0655681667
20
-12.4364554706
30
0.0000000000
10
7.0877352876
20
-12.5199851832
30
0.0000000000
10
7.1113371155
20
-12.6086606026
30
0.0000000000
10
7.1274176227
20
-12.6687895608
30
0.0000000000
10
7.1354300753
20
-12.6986917725
30
0.0000000000
11
7.0256224565
21
-12.2812649526
31
0.0000000000
11
7.0309493844
21
-12.3035782569
31
0.0000000000
11
7.0451014580
21
-12.3583429057
31
0.0000000000
11
7.0646235927
21
-12.4326652276
31
0.0000000000
11
7.0872928436
21
-12.5182772834
31
0.0000000000
11
7.1114395116
21
-12.6089726118
31
0.0000000000
11
7.1354300753
21
-12.6986917725
31
0.0000000000
0
SPLINE
5
38F
100
AcDbEntity
8
0
100
AcDbSpline
62
9
6
CONTINUOUS
70
0
71
3
72
12
73
8
74
6
42
0.0000001000
43
0.0000001000
44
0.0000000001
12
-0.1513051382
22
0.4539093204
32
0.0000000000
13
-0.0003517924
23
0.4784629476
33
0.0000000000
40
0.0000000000
40
0.0000000000
40
0.0000000000
40
0.0000000000
40
0.0610106859
40
0.2073905423
40
0.4263824265
40
0.6990486358
40
1.0000000000
40
1.0000000000
40
1.0000000000
40
1.0000000000
10
22.2587219643
20
-21.4755923698
30
0.0000000000
10
22.2556448875
20
-21.4663612635
30
0.0000000000
10
22.2571621105
20
-21.4324423000
30
0.0000000000
10
22.2525567033
20
-21.3651907956
30
0.0000000000
10
22.2522685904
20
-21.2630843556
30
0.0000000000
10
22.2506551856
20
-21.1368142370
30
0.0000000000
10
22.2504942009
20
-21.0452939423
30
0.0000000000
10
22.2504589101
20
-20.9972959167
30
0.0000000000
11
22.2587219643
21
-21.4755923698
31
0.0000000000
11
22.2562124016
21
-21.4465090821
31
0.0000000000
11
22.2539479396
21
-21.3765083428
31
0.0000000000
11
22.2521383207
21
-21.2717444399
31
0.0000000000
11
22.2509402169
21
-21.1412892280
31
0.0000000000
11
22.2504589101
21
-20.9972959167
31
0.0000000000
0
SPLINE
5
390
100
AcDbEntity
8
0
100
AcDbSpline
62
9
6
CONTINUOUS
70
0
71
3
72
9
73
5
74
3
42
0.0000001000
43
0.0000001000
44
0.0000000001
12
2.6413983470
22
-1.5259276062
32
0.0000000000
13
2.6413983474
23
-1.5259276055
33
0.0000000000
40
0.0000000000
40
0.0000000000
40
0.0000000000
40
0.0000000000
40
0.5000178562
40
1.0000000000
40
1.0000000000
40
1.0000000000
40
1.0000000000
10
4.4940465899
20
-11.1727346530
30
0.0000000000
10
4.9342953695
20
-11.4270650031
30
0.0000000000
10
5.8147252868
20
-11.9357701979
30
0.0000000000
10
6.6952339602
20
-12.4443390638
30
0.0000000000
10
7.1354512963
20
-12.6986512489
30
0.0000000000
11
4.4940465899
21
-11.1727346530
31
0.0000000000
11
5.8147764195
21
-11.9357542803
31
0.0000000000
11
7.1354512963
21
-12.6986512489
31
0.0000000000
0
SPLINE
5
391
100
AcDbEntity
8
0
100
AcDbSpline
62
9
6
CONTINUOUS
70
0
71
3
72
11
73
7
74
5
42
0.0000001000
43
0.0000001000
44
0.0000000001
12
0.7795522246
22
0.0007111487
32
0.0000000000
13
0.0007128965
23
0.7795522230
33
0.0000000000
40
0.0000000000
40
0.0000000000
40
0.0000000000
40
0.0000000000
40
0.2501172078
40
0.5002097125
40
0.7501801225
40
1.0000000000
40
1.0000000000
40
1.0000000000
40
1.0000000000
10
21.7587981167
20
-21.9749071372
30
0.0000000000
10
21.8237912586
20
-21.9748478470
30
0.0000000000
10
21.9551627410
20
-21.9487731497
30
0.0000000000
10
22.1212422432
20
-21.8376529928
30
0.0000000000
10
22.2325368508
20
-21.6717738822
30
0.0000000000
10
22.2586625991
20
-21.5405082501
30
0.0000000000
10
22.2587219643
20
-21.4755923698
30
0.0000000000
11
21.7587981167
21
-21.9749071372
31
0.0000000000
11
21.9500107266
21
-21.9367660053
31
0.0000000000
11
22.1121424000
21
-21.8284940359
31
0.0000000000
11
22.2205391726
21
-21.6665602985
31
0.0000000000
11
22.2587219643
21
-21.4755923698
31
0.0000000000
0
SPLINE
5
392
100
AcDbEntity
8
0
100
AcDbSpline
62
9
6
CONTINUOUS
70
0
71
3
72
10
73
6
74
4
42
0.0000001000
43
0.0000001000
44
0.0000000001
12
-0.0308408175
22
42.0366204979
32
0.0000000000
13
0.0308408153
23
42.0366204979
33
0.0000000000
40
0.0000000000
40
0.0000000000
40
0.0000000000
40
0.0000000000
40
0.3332896860
40
0.6667103140
40
1.0000000000
40
1.0000000000
40
1.0000000000
40
1.0000000000
10
21.7505350625
20
-21.0183142309
30
0.0000000000
10
21.7471087537
20
-16.3481902158
30
0.0000000000
10
21.7425427187
20
-7.0061055530
30
0.0000000000
10
21.7425427184
20
7.0061055524
30
0.0000000000
10
21.7471087540
20
16.3481902155
30
0.0000000000
10
21.7505350625
20
21.0183142309
30
0.0000000000
11
21.7505350625
21
-21.0183142309
31
0.0000000000
11
21.7436846758
21
-7.0079400896
31
0.0000000000
11
21.7436846758
21
7.0079400886
31
0.0000000000
11
21.7505350625
21
21.0183142309
31
0.0000000000
0
SPLINE
5
393
100
AcDbEntity
8
0
100
AcDbSpline
62
9
6
CONTINUOUS
70
0
71
3
72
10
73
6
74
4
42
0.0000001000
43
0.0000001000
44
0.0000000001
12
-0.0308408174
22
41.9945838615
32
0.0000000000
13
0.0308408152
23
41.9945838615
33
0.0000000000
40
0.0000000000
40
0.0000000000
40
0.0000000000
40
0.0000000000
40
0.3332892780
40
0.6667108413
40
1.0000000000
40
1.0000000000
40
1.0000000000
40
1.0000000000
10
22.2504589101
20
-20.9972959167
30
0.0000000000
10
22.2470326055
20
-16.3318477385
30
0.0000000000
10
22.2424665640
20
-6.9990977786
30
0.0000000000
10
22.2424665650
20
6.9991011190
30
0.0000000000
10
22.2470326070
20
16.3318494087
30
0.0000000000
10
22.2504589101
20
20.9972959167
30
0.0000000000
11
22.2504589101
21
-20.9972959167
31
0.0000000000
11
22.2436085276
21
-7.0009492841
31
0.0000000000
11
22.2436085288
21
7.0009542947
31
0.0000000000
11
22.2504589101
21
20.9972959167
31
0.0000000000
0
SPLINE
5
394
100
AcDbEntity
8
0
100
AcDbSpline
62
9
6
CONTINUOUS
70
0
71
3
72
11
73
7
74
5
42
0.0000001000
43
0.0000001000
44
0.0000000001
12
0.5009812035
22
0.0003672761
32
0.0000000000
13
0.1919258349
23
0.4627599541
33
0.0000000000
40
0.0000000000
40
0.0000000000
40
0.0000000000
40
0.0000000000
40
0.3779256707
40
0.6996868143
40
0.9175610119
40
1.0000000000
40
1.0000000000
40
1.0000000000
40
1.0000000000
10
21.7505350625
20
-21.0183142306
30
0.0000000000
10
21.8136462816
20
-21.0182679629
30
0.0000000000
10
21.9283438764
20
-21.0152247888
30
0.0000000000
10
22.0891418430
20
-21.0185602512
30
0.0000000000
10
22.1775508571
20
-20.9984236199
30
0.0000000000
10
22.2451848529
20
-21.0100124041
30
0.0000000000
10
22.2504589101
20
-20.9972959167
30
0.0000000000
11
21.7505350625
21
-21.0183142306
31
0.0000000000
11
21.9398611040
21
-21.0166103901
31
0.0000000000
11
22.1009923491
21
-21.0120302028
31
0.0000000000
11
22.2099328256
21
-21.0052557573
31
0.0000000000
11
22.2504589101
21
-20.9972959167
31
0.0000000000
0
SPLINE
5
395
100
AcDbEntity
8
0
100
AcDbSpline
62
9
6
CONTINUOUS
70
0
71
3
72
12
73
8
74
6
42
0.0000001000
43
0.0000001000
44
0.0000000001
12
0.0003539836
22
0.9566761881
32
0.0000000000
13
0.1576774780
23
0.9435927443
33
0.0000000000
40
0.0000000000
40
0.0000000000
40
0.0000000000
40
0.0000000000
40
0.3020458830
40
0.5741020904
40
0.7926465973
40
0.9388318039
40
1.0000000000
40
1.0000000000
40
1.0000000000
40
1.0000000000
10
21.7505350625
20
21.0183142309
30
0.0000000000
10
21.7505707023
20
21.1146342656
30
0.0000000000
10
21.7507208871
20
21.2977300077
30
0.0000000000
10
21.7523780744
20
21.5504227505
30
0.0000000000
10
21.7525565789
20
21.7536760084
30
0.0000000000
10
21.7573774155
20
21.8890877511
30
0.0000000000
10
21.7555831677
20
21.9556678485
30
0.0000000000
10
21.7587981167
20
21.9749071372
30
0.0000000000
11
21.7505350625
21
21.0183142309
31
0.0000000000
11
21.7510193986
21
21.3072739488
31
0.0000000000
11
21.7522168280
21
21.5675409075
31
0.0000000000
11
21.7540224183
21
21.7766094508
31
0.0000000000
11
21.7562813689
21
21.9164431217
31
0.0000000000
11
21.7587981167
21
21.9749071372
31
0.0000000000
0
SPLINE
5
396
100
AcDbEntity
8
0
100
AcDbSpline
62
9
6
CONTINUOUS
70
0
71
3
72
12
73
8
74
6
42
0.0000001000
43
0.0000001000
44
0.0000000001
12
0.0003517925
22
0.4784629476
32
0.0000000000
13
0.1513051432
23
0.4539093187
33
0.0000000000
40
0.0000000000
40
0.0000000000
40
0.0000000000
40
0.0000000000
40
0.3009513641
40
0.5736175735
40
0.7926094576
40
0.9389893144
40
1.0000000000
40
1.0000000000
40
1.0000000000
40
1.0000000000
10
22.2504589101
20
20.9972959167
30
0.0000000000
10
22.2504942009
20
21.0452939423
30
0.0000000000
10
22.2506551856
20
21.1368142370
30
0.0000000000
10
22.2522685904
20
21.2630843556
30
0.0000000000
10
22.2525567032
20
21.3651907957
30
0.0000000000
10
22.2571621106
20
21.4324423000
30
0.0000000000
10
22.2556448875
20
21.4663612636
30
0.0000000000
10
22.2587219643
20
21.4755923698
30
0.0000000000
11
22.2504589101
21
20.9972959167
31
0.0000000000
11
22.2509402169
21
21.1412892280
31
0.0000000000
11
22.2521383207
21
21.2717444399
31
0.0000000000
11
22.2539479396
21
21.3765083427
31
0.0000000000
11
22.2562124016
21
21.4465090823
31
0.0000000000
11
22.2587219643
21
21.4755923698
31
0.0000000000
0
SPLINE
5
397
100
AcDbEntity
8
0
100
AcDbSpline
62
9
6
CONTINUOUS
70
0
71
3
72
11
73
7
74
5
42
0.0000001000
43
0.0000001000
44
0.0000000001
12
0.5009809102
22
-0.0003673931
32
0.0000000000
13
0.1923635848
23
-0.4625778405
33
0.0000000000
40
0.0000000000
40
0.0000000000
40
0.0000000000
40
0.0000000000
40
0.3779155372
40
0.6996713829
40
0.9175486095
40
1.0000000000
40
1.0000000000
40
1.0000000000
40
1.0000000000
10
21.7505350626
20
21.0183124951
30
0.0000000000
10
21.8136445526
20
21.0182662139
30
0.0000000000
10
21.9283428627
20
21.0152242002
30
0.0000000000
10
22.0891268743
20
21.0185561599
30
0.0000000000
10
22.1775606463
20
20.9984268928
30
0.0000000000
10
22.2451720279
20
21.0100093121
30
0.0000000000
10
22.2504589096
20
20.9972959167
30
0.0000000000
11
21.7505350626
21
21.0183124951
31
0.0000000000
11
21.9398559175
21
21.0166087707
31
0.0000000000
11
22.1009844243
21
21.0120289834
31
0.0000000000
11
22.2099263936
21
21.0052551260
31
0.0000000000
11
22.2504589096
21
20.9972959167
31
0.0000000000
0
SPLINE
5
398
100
AcDbEntity
8
0
100
AcDbSpline
62
7
6
CONTINUOUS
70
0
71
3
72
10
73
6
74
4
42
0.0000001000
43
0.0000001000
44
0.0000000001
12
-1.2334944867
22
-0.0005400378
32
0.0000000000
13
-1.2334946050
23
0.0000000000
33
0.0000000000
40
0.0000000000
40
0.0000000000
40
0.0000000000
40
0.0000000000
40
0.3317793657
40
0.6652760402
40
1.0000000000
40
1.0000000000
40
1.0000000000
40
1.0000000000
10
1.2334945667
20
12.6334945667
30
0.0000000000
10
1.0970785606
20
12.6334348422
30
0.0000000000
10
0.8235404422
20
12.6333349994
30
0.0000000000
10
0.4123755824
20
12.6332448224
30
0.0000000000
10
0.1376267329
20
12.6332247175
30
0.0000000000
10
-0.0000000000
20
12.6332247175
30
0.0000000000
11
1.2334945667
21
12.6334945667
31
0.0000000000
11
0.8242465364
21
12.6333451683
31
0.0000000000
11
0.4128801975
21
12.6332549345
31
0.0000000000
11
-0.0000000000
21
12.6332247175
31
0.0000000000
0
SPLINE
5
399
100
AcDbEntity
8
0
100
AcDbSpline
62
7
6
CONTINUOUS
70
0
71
3
72
25
73
21
74
19
42
0.0000001000
43
0.0000001000
44
0.0000000001
12
-0.0159276009
22
9.0682383424
32
0.0000000000
13
0.0133231169
23
9.0682425430
33
0.0000000000
40
0.0000000000
40
0.0000000000
40
0.0000000000
40
0.0000000000
40
0.0784808566
40
0.1507372819
40
0.2169222642
40
0.2772041016
40
0.3317656152
40
0.3803616986
40
0.4228782612
40
0.4619677546
40
0.4998355667
40
0.5377431472
40
0.5769290907
40
0.6194772324
40
0.6680375798
40
0.7225734896
40
0.7828452197
40
0.8490570954
40
0.9213882307
40
1.0000000000
40
1.0000000000
40
1.0000000000
40
1.0000000000
10
1.2347538121
20
3.5652461879
30
0.0000000000
10
1.2343371415
20
3.8024738923
30
0.0000000000
10
1.2335970015
20
4.2581145334
30
0.0000000000
10
1.2326954848
20
4.9138158621
30
0.0000000000
10
1.2320055393
20
5.5145063137
30
0.0000000000
10
1.2314890756
20
6.0617096086
30
0.0000000000
10
1.2311140029
20
6.5557461458
30
0.0000000000
10
1.2308523471
20
6.9960827490
30
0.0000000000
10
1.2306756263
20
7.3896513285
30
0.0000000000
10
1.2305603203
20
7.7507910387
30
0.0000000000
10
1.2304918765
20
8.0979989561
30
0.0000000000
10
1.2304651341
20
8.4454984239
30
0.0000000000
10
1.2304815016
20
8.8071453622
30
0.0000000000
10
1.2305503691
20
9.2009929547
30
0.0000000000
10
1.2306910078
20
9.6412396538
30
0.0000000000
10
1.2309297158
20
10.1350603092
30
0.0000000000
10
1.2312944354
20
10.6822370725
30
0.0000000000
10
1.2318168836
20
11.2832042632
30
0.0000000000
10
1.2325343883
20
11.9396086576
30
0.0000000000
10
1.2331454488
20
12.3958710365
30
0.0000000000
10
1.2334945667
20
12.6334945667
30
0.0000000000
11
1.2347538121
21
3.5652461879
31
0.0000000000
11
1.2335972555
21
4.2769294591
31
0.0000000000
11
1.2326960497
21
4.9321683363
31
0.0000000000
11
1.2320064828
21
5.5323500604
31
0.0000000000
11
1.2314904144
21
6.0790007289
31
0.0000000000
11
1.2311147047
21
6.5737781593
31
0.0000000000
11
1.2308528030
21
7.0144596278
31
0.0000000000
11
1.2306796617
21
7.4000105068
31
0.0000000000
11
1.2305664727
21
7.7544838786
31
0.0000000000
11
1.2304987742
21
8.0978787471
31
0.0000000000
11
1.2304723174
21
8.4416342510
31
0.0000000000
11
1.2304884014
21
8.7969822746
31
0.0000000000
11
1.2305558761
21
9.1828195532
31
0.0000000000
11
1.2306965719
21
9.6231770142
31
0.0000000000
11
1.2309356772
21
10.1177223480
31
0.0000000000
11
1.2313000730
21
10.6642814830
31
0.0000000000
11
1.2318222040
21
11.2647072525
31
0.0000000000
11
1.2325394299
21
11.9206238467
31
0.0000000000
11
1.2334945667
21
12.6334945667
31
0.0000000000
0
SPLINE
5
39A
100
AcDbEntity
8
0
100
AcDbSpline
62
7
6
CONTINUOUS
70
0
71
3
72
10
73
6
74
4
42
0.0000001000
43
0.0000001000
44
0.0000000001
12
1.2347538509
22
0.0000000000
32
0.0000000000
13
1.2347537309
23
-0.0005444874
33
0.0000000000
40
0.0000000000
40
0.0000000000
40
0.0000000000
40
0.0000000000
40
0.3348659720
40
0.6683907681
40
1.0000000000
40
1.0000000000
40
1.0000000000
40
1.0000000000
10
-0.0000000000
20
3.5655182581
30
0.0000000000
10
0.1378256828
20
3.5655182581
30
0.0000000000
10
0.4129250416
20
3.5654979741
30
0.0000000000
10
0.8245096498
20
3.5654070272
30
0.0000000000
10
1.0982685666
20
3.5653063736
30
0.0000000000
10
1.2347538121
20
3.5652461879
30
0.0000000000
11
-0.0000000000
21
3.5655182581
31
0.0000000000
11
0.4134770474
21
3.5654877667
31
0.0000000000
11
0.8252980636
21
3.5653967546
31
0.0000000000
11
1.2347538121
21
3.5652461879
31
0.0000000000
0
SPLINE
5
39B
100
AcDbEntity
8
0
100
AcDbSpline
62
7
6
CONTINUOUS
70
0
71
3
72
10
73
6
74
4
42
0.0000001000
43
0.0000001000
44
0.0000000001
12
1.2347537309
22
0.0005444874
32
0.0000000000
13
1.2347538509
23
0.0000000000
33
0.0000000000
40
0.0000000000
40
0.0000000000
40
0.0000000000
40
0.0000000000
40
0.3317520438
40
0.6652492374
40
1.0000000000
40
1.0000000000
40
1.0000000000
40
1.0000000000
10
-1.2347538121
20
3.5652461879
30
0.0000000000
10
-1.0982097875
20
3.5653063995
30
0.0000000000
10
-0.8244034522
20
3.5654070619
30
0.0000000000
10
-0.4128188439
20
3.5654979854
30
0.0000000000
10
-0.1377782644
20
3.5655182581
30
0.0000000000
10
-0.0000000000
20
3.5655182581
30
0.0000000000
11
-1.2347538121
21
3.5652461879
31
0.0000000000
11
-0.8251217261
21
3.5653968065
31
0.0000000000
11
-0.4133347920
21
3.5654877877
31
0.0000000000
11
-0.0000000000
21
3.5655182581
31
0.0000000000
0
SPLINE
5
39C
100
AcDbEntity
8
0
100
AcDbSpline
62
7
6
CONTINUOUS
70
0
71
3
72
25
73
21
74
19
42
0.0000001000
43
0.0000001000
44
0.0000000001
12
0.0133231169
22
-9.0682425430
32
0.0000000000
13
-0.0159276009
23
-9.0682383424
33
0.0000000000
40
0.0000000000
40
0.0000000000
40
0.0000000000
40
0.0000000000
40
0.0789588230
40
0.1515923610
40
0.2180743259
40
0.2785916770
40
0.3333435217
40
0.3821060095
40
0.4247519740
40
0.4639115822
40
0.5018047161
40
0.5396893416
40
0.5788056778
40
0.6212237877
40
0.6696160245
40
0.7239598578
40
0.7839945925
40
0.8499090258
40
0.9218638952
40
1.0000000000
40
1.0000000000
40
1.0000000000
40
1.0000000000
10
-1.2334945667
20
12.6334945667
30
0.0000000000
10
-1.2331439075
20
12.3948219807
30
0.0000000000
10
-1.2325304806
20
11.9365964583
30
0.0000000000
10
-1.2318110048
20
11.2774125072
30
0.0000000000
10
-1.2312879307
20
10.6739723646
30
0.0000000000
10
-1.2309235688
20
10.1245840197
30
0.0000000000
10
-1.2306859016
20
9.6287571752
30
0.0000000000
10
-1.2305468450
20
9.1869510442
30
0.0000000000
10
-1.2304798765
20
8.7922763423
30
0.0000000000
10
-1.2304654145
20
8.4304569832
30
0.0000000000
10
-1.2304939663
20
8.0830299662
30
0.0000000000
10
-1.2305642442
20
7.7357337560
30
0.0000000000
10
-1.2306814131
20
7.3747596827
30
0.0000000000
10
-1.2308598038
20
6.9820237406
30
0.0000000000
10
-1.2311226040
20
6.5432589070
30
0.0000000000
10
-1.2314981507
20
6.0512434714
30
0.0000000000
10
-1.2320143465
20
5.5062629025
30
0.0000000000
10
-1.2327029700
20
4.9080487114
30
0.0000000000
10
-1.2336017424
20
4.2551188109
30
0.0000000000
10
-1.2343389718
20
3.8014317950
30
0.0000000000
10
-1.2347538121
20
3.5652461879
30
0.0000000000
11
-1.2334945667
21
12.6334945667
31
0.0000000000
11
-1.2325356203
21
11.9174766782
31
0.0000000000
11
-1.2318164605
21
11.2588178210
31
0.0000000000
11
-1.2312937214
21
10.6559428137
31
0.0000000000
11
-1.2309296701
21
10.1071563243
31
0.0000000000
11
-1.2306916315
21
9.6106528386
31
0.0000000000
11
-1.2305524322
21
9.1684623166
31
0.0000000000
11
-1.2304868049
21
8.7817379555
31
0.0000000000
11
-1.2304726098
21
8.4266287471
31
0.0000000000
11
-1.2305008518
21
8.0830042483
31
0.0000000000
11
-1.2305703777
21
7.7394569121
31
0.0000000000
11
-1.2306855271
21
7.3847401243
31
0.0000000000
11
-1.2308602693
21
7.0000820397
31
0.0000000000
11
-1.2311231512
21
6.5612491048
31
0.0000000000
11
-1.2314993734
21
6.0684456549
31
0.0000000000
11
-1.2320151539
21
5.5240357769
31
0.0000000000
11
-1.2327034217
21
4.9263074592
31
0.0000000000
11
-1.2336019295
21
4.2738031658
31
0.0000000000
11
-1.2347538121
21
3.5652461879
31
0.0000000000
0
SPLINE
5
39D
100
AcDbEntity
8
0
100
AcDbSpline
62
7
6
CONTINUOUS
70
0
71
3
72
10
73
6
74
4
42
0.0000001000
43
0.0000001000
44
0.0000000001
12
-1.2334946050
22
0.0000000000
32
0.0000000000
13
-1.2334944867
23
0.0005400378
33
0.0000000000
40
0.0000000000
40
0.0000000000
40
0.0000000000
40
0.0000000000
40
0.3348352073
40
0.6683585597
40
1.0000000000
40
1.0000000000
40
1.0000000000
40
1.0000000000
10
-0.0000000000
20
12.6332247175
30
0.0000000000
10
-0.1376724739
20
12.6332247175
30
0.0000000000
10
-0.4124780335
20
12.6332448332
30
0.0000000000
10
-0.8236428933
20
12.6333350326
30
0.0000000000
10
-1.0971352706
20
12.6334348670
30
0.0000000000
10
-1.2334945667
20
12.6334945667
30
0.0000000000
11
-0.0000000000
21
12.6332247175
31
0.0000000000
11
-0.4130174207
21
12.6332549546
31
0.0000000000
11
-0.8244166665
21
12.6333452181
31
0.0000000000
11
-1.2334945667
21
12.6334945667
31
0.0000000000
0
SPLINE
5
39E
100
AcDbEntity
8
0
100
AcDbSpline
62
9
6
CONTINUOUS
70
0
71
3
72
11
73
7
74
5
42
0.0000001000
43
0.0000001000
44
0.0000000001
12
0.7795522203
22
-0.0007111666
32
0.0000000000
13
0.0007129025
23
-0.7795522187
33
0.0000000000
40
0.0000000000
40
0.0000000000
40
0.0000000000
40
0.0000000000
40
0.2501098187
40
0.5001989223
40
0.7501715422
40
1.0000000000
40
1.0000000000
40
1.0000000000
40
1.0000000000
10
21.7587981167
20
21.9749071372
30
0.0000000000
10
21.8237893382
20
21.9748478473
30
0.0000000000
10
21.9551578937
20
21.9487745242
30
0.0000000000
10
22.1212370013
20
21.8376581276
30
0.0000000000
10
22.2325353296
20
21.6717790556
30
0.0000000000
10
22.2586625965
20
21.5405104794
30
0.0000000000
10
22.2587219643
20
21.4755923698
30
0.0000000000
11
21.7587981167
21
21.9749071372
31
0.0000000000
11
21.9500052996
21
21.9367682501
31
0.0000000000
11
22.1121363294
21
21.8285000930
31
0.0000000000
11
22.2205365547
21
21.6665665951
31
0.0000000000
11
22.2587219643
21
21.4755923698
31
0.0000000000
0
SPLINE
5
39F
100
AcDbEntity
8
0
100
AcDbSpline
62
3
6
CONTINUOUS
70
0
71
3
72
9
73
5
74
3
42
0.0000001000
43
0.0000001000
44
0.0000000001
12
0.0500000032
22
0.0000473134
32
0.0000000000
13
0.0500000255
23
0.0000083121
33
0.0000000000
40
0.0000000000
40
0.0000000000
40
0.0000000000
40
0.0000000000
40
0.3124807500
40
1.0000000000
40
1.0000000000
40
1.0000000000
40
1.0000000000
10
-0.0250000261
20
8.4395806283
30
0.0000000000
10
-0.0197920132
20
8.4395855565
30
0.0000000000
10
-0.0031253435
20
8.4395992954
30
0.0000000000
10
0.0135413308
20
8.4396065442
30
0.0000000000
10
0.0249999908
20
8.4396084492
30
0.0000000000
11
-0.0250000261
21
8.4395806283
31
0.0000000000
11
-0.0093759859
21
8.4395935090
31
0.0000000000
11
0.0249999908
21
8.4396084492
31
0.0000000000
0
SPLINE
5
3A0
100
AcDbEntity
8
0
100
AcDbSpline
62
3
6
CONTINUOUS
70
0
71
3
72
9
73
5
74
3
42
0.0000001000
43
0.0000001000
44
0.0000000001
12
-0.0500000271
22
0.0000032128
32
0.0000000000
13
-0.0500000035
23
0.0000485505
33
0.0000000000
40
0.0000000000
40
0.0000000000
40
0.0000000000
40
0.0000000000
40
0.7711795386
40
1.0000000000
40
1.0000000000
40
1.0000000000
40
1.0000000000
10
0.0249999954
20
7.6431469899
30
0.0000000000
10
0.0121469961
20
7.6431478158
30
0.0000000000
10
-0.0045196792
20
7.6431547297
30
0.0000000000
10
-0.0211863487
20
7.6431691846
30
0.0000000000
10
-0.0250000233
20
7.6431728877
30
0.0000000000
11
0.0249999954
21
7.6431469899
31
0.0000000000
11
-0.0135589984
21
7.6431629643
31
0.0000000000
11
-0.0250000233
21
7.6431728877
31
0.0000000000
0
SPLINE
5
3A1
100
AcDbEntity
8
0
100
AcDbSpline
62
7
6
CONTINUOUS
70
0
71
3
72
8
73
4
74
2
42
0.0000001000
43
0.0000001000
44
0.0000000001
12
0.1662170245
22
0.0672699260
32
0.0000000000
13
0.1688516618
23
0.0603139283
33
0.0000000000
40
0.0000000000
40
0.0000000000
40
0.0000000000
40
0.0000000000
40
1.0000000000
40
1.0000000000
40
1.0000000000
40
1.0000000000
10
-43.1550011601
20
-0.2929415563
30
0.0000000000
10
-43.0995954852
20
-0.2705182476
30
0.0000000000
10
-43.0437131003
20
-0.2492927873
30
0.0000000000
10
-42.9874292131
20
-0.2291881445
30
0.0000000000
11
-43.1550011601
21
-0.2929415563
31
0.0000000000
11
-42.9874292131
21
-0.2291881445
31
0.0000000000
0
SPLINE
5
3A2
100
AcDbEntity
8
0
100
AcDbSpline
62
7
6
CONTINUOUS
70
0
71
3
72
10
73
6
74
4
42
0.0000001000
43
0.0000001000
44
0.0000000001
12
0.8660310413
22
-0.3093186494
32
0.0000000000
13
0.7521731106
23
-0.5298364118
33
0.0000000000
40
0.0000000000
40
0.0000000000
40
0.0000000000
40
0.0000000000
40
0.2030536363
40
0.6221807313
40
1.0000000000
40
1.0000000000
40
1.0000000000
40
1.0000000000
10
-38.9186102366
20
-0.2291443849
30
0.0000000000
10
-38.8599933192
20
-0.2500804771
30
0.0000000000
10
-38.6817181906
20
-0.3179558487
30
0.0000000000
10
-38.4030378194
20
-0.4467048179
30
0.0000000000
10
-38.1936220488
20
-0.5734984391
30
0.0000000000
10
-38.0988935506
20
-0.6402259076
30
0.0000000000
11
-38.9186102366
21
-0.2291443849
31
0.0000000000
11
-38.7441506633
21
-0.2956863986
31
0.0000000000
11
-38.3950325935
21
-0.4587131567
31
0.0000000000
11
-38.0988935506
21
-0.6402259076
31
0.0000000000
0
SPLINE
5
3A3
100
AcDbEntity
8
0
100
AcDbSpline
62
7
6
CONTINUOUS
70
0
71
3
72
12
73
8
74
6
42
0.0000001000
43
0.0000001000
44
0.0000000001
12
-0.1129888974
22
0.1780688328
32
0.0000000000
13
-0.2102585097
23
-0.0000000000
33
0.0000000000
40
0.0000000000
40
0.0000000000
40
0.0000000000
40
0.0000000000
40
0.0735231579
40
0.2924408982
40
0.5205026990
40
0.7601569562
40
1.0000000000
40
1.0000000000
40
1.0000000000
40
1.0000000000
10
-38.6000913243
20
-0.6283558248
30
0.0000000000
10
-38.6028604245
20
-0.6239917638
30
0.0000000000
10
-38.6146805635
20
-0.6071456937
30
0.0000000000
10
-38.6408655677
20
-0.5811956832
30
0.0000000000
10
-38.6824913372
20
-0.5562009916
30
0.0000000000
10
-38.7299868263
20
-0.5406495082
30
0.0000000000
10
-38.7637000032
20
-0.5371557536
30
0.0000000000
10
-38.7805096835
20
-0.5371557536
30
0.0000000000
11
-38.6000913243
21
-0.6283558248
31
0.0000000000
11
-38.6089866549
21
-0.6156643988
31
0.0000000000
11
-38.6415116134
21
-0.5830940875
31
0.0000000000
11
-38.6825117176
21
-0.5582268506
31
0.0000000000
11
-38.7303554845
21
-0.5424135572
31
0.0000000000
11
-38.7805096835
21
-0.5371557536
31
0.0000000000
0
SPLINE
5
3A4
100
AcDbEntity
8
0
100
AcDbSpline
62
9
6
CONTINUOUS
70
0
71
3
72
24
73
20
74
18
42
0.0000001000
43
0.0000001000
44
0.0000000001
12
3.0593261361
22
3.5054444818
32
0.0000000000
13
1.9421108191
23
-4.2191362892
33
0.0000000000
40
0.0000000000
40
0.0000000000
40
0.0000000000
40
0.0000000000
40
0.0359229951
40
0.0869849200
40
0.1434979232
40
0.2050629043
40
0.2709632459
40
0.3402393702
40
0.4117857653
40
0.4844326435
40
0.5569500798
40
0.6280038377
40
0.6963199868
40
0.7610839764
40
0.8217736765
40
0.8772193825
40
0.9257530575
40
0.9666181258
40
1.0000000000
40
1.0000000000
40
1.0000000000
40
1.0000000000
10
-42.9958993678
20
-0.3410486804
30
0.0000000000
10
-42.9592659819
20
-0.2990733254
30
0.0000000000
10
-42.8621554575
20
-0.2049914179
30
0.0000000000
10
-42.6802967699
20
-0.0758654003
30
0.0000000000
10
-42.4475352508
20
0.0455429755
30
0.0000000000
10
-42.1812355969
20
0.1480793028
30
0.0000000000
10
-41.8872812031
20
0.2295006241
30
0.0000000000
10
-41.5722470691
20
0.2879960724
30
0.0000000000
10
-41.2431940839
20
0.3222475242
30
0.0000000000
10
-40.9074855751
20
0.3314713203
30
0.0000000000
10
-40.5727942600
20
0.3154365225
30
0.0000000000
10
-40.2469624114
20
0.2745427700
30
0.0000000000
10
-39.9372386493
20
0.2097791982
30
0.0000000000
10
-39.6497852864
20
0.1224096271
30
0.0000000000
10
-39.3908913230
20
0.0140806255
30
0.0000000000
10
-39.1685612439
20
-0.1121040453
30
0.0000000000
10
-38.9905055634
20
-0.2501006540
30
0.0000000000
10
-38.8621889488
20
-0.3916034442
30
0.0000000000
10
-38.8013181867
20
-0.4902081946
30
0.0000000000
10
-38.7797077537
20
-0.5371557536
30
0.0000000000
11
-42.9958993678
21
-0.3410486804
31
0.0000000000
11
-42.8768176905
21
-0.2240617523
31
0.0000000000
11
-42.6845675294
21
-0.0851828582
31
0.0000000000
11
-42.4525589375
21
0.0375763479
31
0.0000000000
11
-42.1861232415
21
0.1413966636
31
0.0000000000
11
-41.8913666828
21
0.2238986152
31
0.0000000000
11
-41.5751101559
21
0.2831784234
31
0.0000000000
11
-41.2446186278
21
0.3178858831
31
0.0000000000
11
-40.9073277718
21
0.3272332677
31
0.0000000000
11
-40.5709012465
21
0.3109751588
31
0.0000000000
11
-40.2434953048
21
0.2695130383
31
0.0000000000
11
-39.9330337487
21
0.2039657437
31
0.0000000000
11
-39.6454907324
21
0.1156263135
31
0.0000000000
11
-39.3859548612
21
0.0056294346
31
0.0000000000
11
-39.1628026021
21
-0.1229126322
31
0.0000000000
11
-38.9859320241
21
-0.2626701269
31
0.0000000000
11
-38.8594345677
21
-0.4041768376
31
0.0000000000
11
-38.7797077537
21
-0.5371557536
31
0.0000000000
0
SPLINE
5
3A5
100
AcDbEntity
8
0
100
AcDbSpline
62
9
6
CONTINUOUS
70
0
71
3
72
12
73
8
74
6
42
0.0000001000
43
0.0000001000
44
0.0000000001
12
-0.7344998223
22
0.0384617099
32
0.0000000000
13
-0.0309540931
23
0.7348545000
33
0.0000000000
40
0.0000000000
40
0.0000000000
40
0.0000000000
40
0.0000000000
40
0.1994338728
40
0.3998560386
40
0.6002475210
40
0.8006682986
40
1.0000000000
40
1.0000000000
40
1.0000000000
40
1.0000000000
10
-71.3467717135
20
-21.4755923698
30
0.0000000000
10
-71.3955997615
20
-21.4730355139
30
0.0000000000
10
-71.4933400909
20
-21.4532999737
30
0.0000000000
10
-71.6246516553
20
-21.3824002826
30
0.0000000000
10
-71.7298847483
20
-21.2760587159
30
0.0000000000
10
-71.7993980886
20
-21.1440358102
30
0.0000000000
10
-71.8181050598
20
-21.0461225159
30
0.0000000000
10
-71.8201617705
20
-20.9972959167
30
0.0000000000
11
-71.3467717135
21
-21.4755923698
31
0.0000000000
11
-71.4905444664
21
-21.4465090821
31
0.0000000000
11
-71.6202754036
21
-21.3765083428
31
0.0000000000
11
-71.7239484050
21
-21.2717444399
31
0.0000000000
11
-71.7925877251
21
-21.1412892280
31
0.0000000000
11
-71.8201617705
21
-20.9972959167
31
0.0000000000
0
SPLINE
5
3A6
100
AcDbEntity
8
0
100
AcDbSpline
62
9
6
CONTINUOUS
70
0
71
3
72
11
73
7
74
5
42
0.0000001000
43
0.0000001000
44
0.0000000001
12
-0.4990532997
22
0.0261542752
32
0.0000000000
13
0.0261461109
23
0.4990537275
33
0.0000000000
40
0.0000000000
40
0.0000000000
40
0.0000000000
40
0.0000000000
40
0.0763692249
40
0.2931013628
40
0.6174071002
40
1.0000000000
40
1.0000000000
40
1.0000000000
40
1.0000000000
10
-71.3642134884
20
-21.9749071372
30
0.0000000000
10
-71.3769175929
20
-21.9742413433
30
0.0000000000
10
-71.3503816800
20
-21.8970432885
30
0.0000000000
10
-71.3708982566
20
-21.8198621488
30
0.0000000000
10
-71.3524867059
20
-21.6531684362
30
0.0000000000
10
-71.3501061523
20
-21.5392371741
30
0.0000000000
10
-71.3467717135
20
-21.4755923698
30
0.0000000000
11
-71.3642134884
21
-21.9749071372
31
0.0000000000
11
-71.3655521603
21
-21.9367660053
31
0.0000000000
11
-71.3627078624
21
-21.8284940359
31
0.0000000000
11
-71.3561133702
21
-21.6665602985
31
0.0000000000
11
-71.3467717135
21
-21.4755923698
31
0.0000000000
0
SPLINE
5
3A7
100
AcDbEntity
8
0
100
AcDbSpline
62
9
6
CONTINUOUS
70
0
71
3
72
10
73
6
74
4
42
0.0000001000
43
0.0000001000
44
0.0000000001
12
-1.7657702978
22
41.9684643579
32
0.0000000000
13
1.7657701723
23
41.9684643632
33
0.0000000000
40
0.0000000000
40
0.0000000000
40
0.0000000000
40
0.0000000000
40
0.3333329306
40
0.6666671886
40
1.0000000000
40
1.0000000000
40
1.0000000000
40
1.0000000000
10
-71.8201617705
20
-20.9972959167
30
0.0000000000
10
-72.0163582332
20
-16.3341388436
30
0.0000000000
10
-72.2780408436
20
-7.0017560958
30
0.0000000000
10
-72.2780407910
20
7.0017594371
30
0.0000000000
10
-72.0163581491
20
16.3341405117
30
0.0000000000
10
-71.8201617705
20
20.9972959167
30
0.0000000000
11
-71.8201617705
21
-20.9972959167
31
0.0000000000
11
-72.2126199218
21
-7.0009492841
31
0.0000000000
11
-72.2126198554
21
7.0009542947
31
0.0000000000
11
-71.8201617705
21
20.9972959167
31
0.0000000000
0
SPLINE
5
3A8
100
AcDbEntity
8
0
100
AcDbSpline
62
9
6
CONTINUOUS
70
0
71
3
72
12
73
8
74
6
42
0.0000001000
43
0.0000001000
44
0.0000000001
12
0.0309540944
22
0.7348545000
32
0.0000000000
13
0.7344998224
23
0.0384617085
33
0.0000000000
40
0.0000000000
40
0.0000000000
40
0.0000000000
40
0.0000000000
40
0.1993317014
40
0.3997524790
40
0.6001439614
40
0.8005661272
40
1.0000000000
40
1.0000000000
40
1.0000000000
40
1.0000000000
10
-71.8201617705
20
20.9972959167
30
0.0000000000
10
-71.8181050597
20
21.0461225159
30
0.0000000000
10
-71.7993980884
20
21.1440358101
30
0.0000000000
10
-71.7298847484
20
21.2760587160
30
0.0000000000
10
-71.6246516552
20
21.3824002825
30
0.0000000000
10
-71.4933400910
20
21.4532999740
30
0.0000000000
10
-71.3955997615
20
21.4730355140
30
0.0000000000
10
-71.3467717135
20
21.4755923698
30
0.0000000000
11
-71.8201617705
21
20.9972959167
31
0.0000000000
11
-71.7925877250
21
21.1412892280
31
0.0000000000
11
-71.7239484051
21
21.2717444399
31
0.0000000000
11
-71.6202754035
21
21.3765083427
31
0.0000000000
11
-71.4905444664
21
21.4465090823
31
0.0000000000
11
-71.3467717135
21
21.4755923698
31
0.0000000000
0
SPLINE
5
3A9
100
AcDbEntity
8
0
100
AcDbSpline
62
9
6
CONTINUOUS
70
0
71
3
72
11
73
7
74
5
42
0.0000001000
43
0.0000001000
44
0.0000000001
12
-0.4990533076
22
-0.0261542756
32
0.0000000000
13
0.0261463312
23
-0.4990537239
33
0.0000000000
40
0.0000000000
40
0.0000000000
40
0.0000000000
40
0.0000000000
40
0.0763647405
40
0.2930892379
40
0.6173944873
40
1.0000000000
40
1.0000000000
40
1.0000000000
40
1.0000000000
10
-71.3642134884
20
21.9749071372
30
0.0000000000
10
-71.3769168472
20
21.9742413824
30
0.0000000000
10
-71.3503825060
20
21.8970466397
30
0.0000000000
10
-71.3708984817
20
21.8198670532
30
0.0000000000
10
-71.3524868299
20
21.6531723617
30
0.0000000000
10
-71.3501062903
20
21.5392392718
30
0.0000000000
10
-71.3467717135
20
21.4755923698
30
0.0000000000
11
-71.3642134884
21
21.9749071372
31
0.0000000000
11
-71.3655522481
21
21.9367682501
31
0.0000000000
11
-71.3627081620
21
21.8285000930
31
0.0000000000
11
-71.3561137198
21
21.6665665951
31
0.0000000000
11
-71.3467717135
21
21.4755923698
31
0.0000000000
0
SPLINE
5
3AA
100
AcDbEntity
8
0
100
AcDbSpline
62
7
6
CONTINUOUS
70
0
71
3
72
10
73
6
74
4
42
0.0000001000
43
0.0000001000
44
0.0000000001
12
-4.0000360299
22
-0.0287443498
32
0.0000000000
13
-3.9999639243
23
-0.0374577365
33
0.0000000000
40
0.0000000000
40
0.0000000000
40
0.0000000000
40
0.0000000000
40
0.3305872676
40
0.6639286658
40
1.0000000000
40
1.0000000000
40
1.0000000000
40
1.0000000000
10
-59.2529584685
20
-22.6298666026
30
0.0000000000
10
-59.6937454623
20
-22.6330341080
30
0.0000000000
10
-60.5789890503
20
-22.6397630694
30
0.0000000000
10
-61.9123224201
20
-22.6508988730
30
0.0000000000
10
-62.8048673976
20
-22.6589704648
30
0.0000000000
10
-63.2529584685
20
-22.6631666220
30
0.0000000000
11
-59.2529584685
21
-22.6298666026
31
0.0000000000
11
-60.5753155292
21
-22.6398998853
31
0.0000000000
11
-61.9086811771
21
-22.6510215029
31
0.0000000000
11
-63.2529584685
21
-22.6631666220
31
0.0000000000
0
SPLINE
5
3AB
100
AcDbEntity
8
0
100
AcDbSpline
62
7
6
CONTINUOUS
70
0
71
3
72
15
73
11
74
9
42
0.0000001000
43
0.0000001000
44
0.0000000001
12
2.2277057117
22
-1.6090740084
32
0.0000000000
13
2.7455523549
23
-0.0612361624
33
0.0000000000
40
0.0000000000
40
0.0000000000
40
0.0000000000
40
0.0000000000
40
0.0295983363
40
0.1464379478
40
0.2725243940
40
0.4068503781
40
0.5966467033
40
0.7955843942
40
0.8973498083
40
1.0000000000
40
1.0000000000
40
1.0000000000
40
1.0000000000
10
-44.1100625991
20
0.1697179132
30
0.0000000000
10
-44.0880838048
20
0.1538426086
30
0.0000000000
10
-43.9779725382
20
0.0771923806
30
0.0000000000
10
-43.7623196989
20
-0.0491080288
30
0.0000000000
10
-43.4478964855
20
-0.1930199389
30
0.0000000000
10
-43.0591086571
20
-0.3309579367
30
0.0000000000
10
-42.5940173673
20
-0.4479298154
30
0.0000000000
10
-42.1497120635
20
-0.5164968309
30
0.0000000000
10
-41.7818613841
20
-0.5488900910
30
0.0000000000
10
-41.5948964114
20
-0.5571268838
30
0.0000000000
10
-41.5009525862
20
-0.5592221851
30
0.0000000000
11
-44.1100625991
21
0.1697179132
31
0.0000000000
11
-44.0433363610
21
0.1232160682
31
0.0000000000
11
-43.7672687110
21
-0.0402161073
31
0.0000000000
11
-43.4529252633
21
-0.1852927926
31
0.0000000000
11
-43.1055861048
21
-0.3093555947
31
0.0000000000
11
-42.6006028824
21
-0.4381163918
31
0.0000000000
11
-42.0608806422
21
-0.5222522272
31
0.0000000000
11
-41.7825340160
21
-0.5467917480
31
0.0000000000
11
-41.5009525862
21
-0.5592221851
31
0.0000000000
0
SPLINE
5
3AC
100
AcDbEntity
8
0
100
AcDbSpline
62
7
6
CONTINUOUS
70
0
71
3
72
10
73
6
74
4
42
0.0000001000
43
0.0000001000
44
0.0000000001
12
-0.0000152528
22
-0.4122066356
32
0.0000000000
13
0.2078769947
23
-0.3555157582
33
0.0000000000
40
0.0000000000
40
0.0000000000
40
0.0000000000
40
0.0000000000
40
0.4352945976
40
0.8930496179
40
1.0000000000
40
1.0000000000
40
1.0000000000
40
1.0000000000
10
-44.2029584685
20
0.6734387163
30
0.0000000000
10
-44.2029606816
20
0.6136282758
30
0.0000000000
10
-44.1863325860
20
0.4909372575
30
0.0000000000
10
-44.1348779905
20
0.3625986887
30
0.0000000000
10
-44.0972561565
20
0.2947899964
30
0.0000000000
10
-44.0898453152
20
0.2821158143
30
0.0000000000
11
-44.2029584685
21
0.6734387163
31
0.0000000000
11
-44.1797840425
21
0.4959422363
31
0.0000000000
11
-44.1111994405
21
0.3206420932
31
0.0000000000
11
-44.0898453152
21
0.2821158143
31
0.0000000000
0
SPLINE
5
3AD
100
AcDbEntity
8
0
100
AcDbSpline
62
7
6
CONTINUOUS
70
0
71
3
72
9
73
5
74
3
42
0.0000001000
43
0.0000001000
44
0.0000000001
12
0.0930461873
22
-0.1591296134
32
0.0000000000
13
0.1183284198
23
-0.1412742379
33
0.0000000000
40
0.0000000000
40
0.0000000000
40
0.0000000000
40
0.0000000000
40
0.8697272198
40
1.0000000000
40
1.0000000000
40
1.0000000000
40
1.0000000000
10
-44.0898453152
20
0.2821158143
30
0.0000000000
10
-44.0628703812
20
0.2359826956
30
0.0000000000
10
-44.0275044633
20
0.1855018651
30
0.0000000000
10
-43.9885158456
20
0.1380235363
30
0.0000000000
10
-43.9833775215
20
0.1318888071
30
0.0000000000
11
-44.0898453152
21
0.2821158143
31
0.0000000000
11
-43.9986126760
21
0.1504447596
31
0.0000000000
11
-43.9833775215
21
0.1318888071
31
0.0000000000
0
SPLINE
5
3AE
100
AcDbEntity
8
0
100
AcDbSpline
62
7
6
CONTINUOUS
70
0
71
3
72
8
73
4
74
2
42
0.0000001000
43
0.0000001000
44
0.0000000001
12
0.0996723182
22
-0.1190004127
32
0.0000000000
13
0.1126394405
23
-0.1068030896
33
0.0000000000
40
0.0000000000
40
0.0000000000
40
0.0000000000
40
0.0000000000
40
1.0000000000
40
1.0000000000
40
1.0000000000
40
1.0000000000
10
-43.9833775215
20
0.1318888071
30
0.0000000000
10
-43.9501534155
20
0.0922220028
30
0.0000000000
10
-43.9144555704
20
0.0546625363
30
0.0000000000
10
-43.8769090903
20
0.0190615064
30
0.0000000000
11
-43.9833775215
21
0.1318888071
31
0.0000000000
11
-43.8769090903
21
0.0190615064
31
0.0000000000
0
SPLINE
5
3AF
100
AcDbEntity
8
0
100
AcDbSpline
62
7
6
CONTINUOUS
70
0
71
3
72
11
73
7
74
5
42
0.0000001000
43
0.0000001000
44
0.0000000001
12
-1.1476650916
22
1.2108611227
32
0.0000000000
13
-1.6269356154
23
0.3403572351
33
0.0000000000
40
0.0000000000
40
0.0000000000
40
0.0000000000
40
0.0000000000
40
0.2519356196
40
0.5463640270
40
0.8767610181
40
1.0000000000
40
1.0000000000
40
1.0000000000
40
1.0000000000
10
-37.9260676523
20
-0.6443749176
30
0.0000000000
10
-38.0224468910
20
-0.5426885685
30
0.0000000000
10
-38.2628409301
20
-0.3547479932
30
0.0000000000
10
-38.6989680511
20
-0.1359621634
30
0.0000000000
10
-39.0945015691
20
-0.0085077035
30
0.0000000000
10
-39.3394012940
20
0.0482665259
30
0.0000000000
10
-39.4062352570
20
0.0622482856
30
0.0000000000
11
-37.9260676523
21
-0.6443749176
31
0.0000000000
11
-38.2508175597
21
-0.3803366435
31
0.0000000000
11
-38.6854205239
21
-0.1559203151
31
0.0000000000
11
-39.2067100032
21
0.0159047382
31
0.0000000000
11
-39.4062352570
21
0.0622482856
31
0.0000000000
0
SPLINE
5
3B0
100
AcDbEntity
8
0
100
AcDbSpline
62
7
6
CONTINUOUS
70
0
71
3
72
10
73
6
74
4
42
0.0000001000
43
0.0000001000
44
0.0000000001
12
-4.0000360299
22
0.0287443498
32
0.0000000000
13
-3.9999639243
23
0.0374577365
33
0.0000000000
40
0.0000000000
40
0.0000000000
40
0.0000000000
40
0.0000000000
40
0.3305872676
40
0.6639286658
40
1.0000000000
40
1.0000000000
40
1.0000000000
40
1.0000000000
10
-59.2529584685
20
22.6298666026
30
0.0000000000
10
-59.6937454623
20
22.6330341080
30
0.0000000000
10
-60.5789890503
20
22.6397630694
30
0.0000000000
10
-61.9123224201
20
22.6508988730
30
0.0000000000
10
-62.8048673976
20
22.6589704648
30
0.0000000000
10
-63.2529584685
20
22.6631666220
30
0.0000000000
11
-59.2529584685
21
22.6298666026
31
0.0000000000
11
-60.5753155292
21
22.6398998853
31
0.0000000000
11
-61.9086811771
21
22.6510215029
31
0.0000000000
11
-63.2529584685
21
22.6631666220
31
0.0000000000
0
SPLINE
5
3B1
100
AcDbEntity
8
0
100
AcDbSpline
62
7
6
CONTINUOUS
70
0
71
3
72
13
73
9
74
7
42
0.0000001000
43
0.0000001000
44
0.0000000001
12
-2.7324404857
22
-0.0031965271
32
0.0000000000
13
-1.6926366538
23
-2.1640284915
33
0.0000000000
40
0.0000000000
40
0.0000000000
40
0.0000000000
40
0.0000000000
40
0.2214026109
40
0.4339292824
40
0.6303483892
40
0.8050872970
40
0.9553769169
40
1.0000000000
40
1.0000000000
40
1.0000000000
40
1.0000000000
10
-41.5009525862
20
1.1069813794
30
0.0000000000
10
-41.7026090721
20
1.1067454729
30
0.0000000000
10
-42.0981896290
20
1.0846928640
30
0.0000000000
10
-42.6653582246
20
0.9874338045
30
0.0000000000
10
-43.1752208743
20
0.8309149570
30
0.0000000000
10
-43.6045025788
20
0.6221248492
30
0.0000000000
10
-43.8739745151
20
0.4153361481
30
0.0000000000
10
-43.9917535467
20
0.2806811633
30
0.0000000000
10
-44.0169304354
20
0.2484926222
30
0.0000000000
11
-41.5009525862
21
1.1069813794
31
0.0000000000
11
-42.1049420077
21
1.0725528402
31
0.0000000000
11
-42.6769524969
21
0.9723725349
31
0.0000000000
11
-43.1889332355
21
0.8113545687
31
0.0000000000
11
-43.6157754324
21
0.5973975560
31
0.0000000000
11
-43.9365509944
21
0.3409939594
31
0.0000000000
11
-44.0169304354
21
0.2484926222
31
0.0000000000
0
SPLINE
5
3B2
100
AcDbEntity
8
0
100
AcDbSpline
62
7
6
CONTINUOUS
70
0
71
3
72
8
73
4
74
2
42
0.0000001000
43
0.0000001000
44
0.0000000001
12
-0.0288684314
22
-0.0369081621
32
0.0000000000
13
-0.0272159123
23
-0.0381039191
33
0.0000000000
40
0.0000000000
40
0.0000000000
40
0.0000000000
40
0.0000000000
40
1.0000000000
40
1.0000000000
40
1.0000000000
40
1.0000000000
10
-44.0169304354
20
0.2484926222
30
0.0000000000
10
-44.0265532459
20
0.2361899015
30
0.0000000000
10
-44.0359149617
20
0.2236883927
30
0.0000000000
10
-44.0449869325
20
0.2109870863
30
0.0000000000
11
-44.0169304354
21
0.2484926222
31
0.0000000000
11
-44.0449869325
21
0.2109870863
31
0.0000000000
0
SPLINE
5
3B3
100
AcDbEntity
8
0
100
AcDbSpline
62
7
6
CONTINUOUS
70
0
71
3
72
9
73
5
74
3
42
0.0000001000
43
0.0000001000
44
0.0000000001
12
0.1704591947
22
0.3256724112
32
0.0000000000
13
-0.0000154098
23
0.3679975923
33
0.0000000000
40
0.0000000000
40
0.0000000000
40
0.0000000000
40
0.0000000000
40
0.5790416329
40
1.0000000000
40
1.0000000000
40
1.0000000000
40
1.0000000000
10
-37.7434219679
20
-0.6490333520
30
0.0000000000
10
-37.7105209777
20
-0.5861740570
30
0.0000000000
10
-37.6664247413
20
-0.4711837834
30
0.0000000000
10
-37.6534173594
20
-0.3485287001
30
0.0000000000
10
-37.6534195217
20
-0.2968914783
30
0.0000000000
11
-37.7434219679
21
-0.6490333520
31
0.0000000000
11
-37.6698776218
21
-0.4504358174
31
0.0000000000
11
-37.6534195217
21
-0.2968914783
31
0.0000000000
0
SPLINE
5
3B4
100
AcDbEntity
8
0
100
AcDbSpline
62
7
6
CONTINUOUS
70
0
71
3
72
13
73
9
74
7
42
0.0000001000
43
0.0000001000
44
0.0000000001
12
0.5574909562
22
-0.0132928490
32
0.0000000000
13
0.0000000000
23
-0.5576494114
33
0.0000000000
40
0.0000000000
40
0.0000000000
40
0.0000000000
40
0.0000000000
40
0.2130283366
40
0.4221304043
40
0.6117642152
40
0.7718521609
40
0.8994974234
40
1.0000000000
40
1.0000000000
40
1.0000000000
40
1.0000000000
10
-35.9442322652
20
-0.6917169696
30
0.0000000000
10
-35.9046451416
20
-0.6926608874
30
0.0000000000
10
-35.8262298519
20
-0.6978961118
30
0.0000000000
10
-35.7137878008
20
-0.7159475820
30
0.0000000000
10
-35.6133164242
20
-0.7435011503
30
0.0000000000
10
-35.5319570387
20
-0.7799390112
30
0.0000000000
10
-35.4729481886
20
-0.8229838205
30
0.0000000000
10
-35.4529584685
20
-0.8645952795
30
0.0000000000
10
-35.4529584685
20
-0.8832770138
30
0.0000000000
11
-35.9442322652
21
-0.6917169696
31
0.0000000000
11
-35.8257113398
21
-0.6997837104
31
0.0000000000
11
-35.7106491369
21
-0.7186931239
31
0.0000000000
11
-35.6089665241
21
-0.7477368143
31
0.0000000000
11
-35.5280702668
21
-0.7854920119
31
0.0000000000
11
-35.4734200811
21
-0.8311005137
31
0.0000000000
11
-35.4529584685
21
-0.8832770138
31
0.0000000000
0
SPLINE
5
3B5
100
AcDbEntity
8
0
100
AcDbSpline
62
7
6
CONTINUOUS
70
0
71
3
72
10
73
6
74
4
42
0.0000001000
43
0.0000001000
44
0.0000000001
12
-3.9999099472
22
-0.0844306542
32
0.0000000000
13
-4.0000789575
23
-0.0760029924
33
0.0000000000
40
0.0000000000
40
0.0000000000
40
0.0000000000
40
0.0000000000
40
0.3305940148
40
0.6639352644
40
1.0000000000
40
1.0000000000
40
1.0000000000
40
1.0000000000
10
-59.2529584685
20
-23.0998904748
30
0.0000000000
10
-59.6937405645
20
-23.1091945645
30
0.0000000000
10
-60.5789752231
20
-23.1275230003
30
0.0000000000
10
-61.9123095899
20
-23.1541596706
30
0.0000000000
10
-62.8048633093
20
-23.1713945866
30
0.0000000000
10
-63.2529584685
20
-23.1799085618
30
0.0000000000
11
-59.2529584685
21
-23.0998904748
31
0.0000000000
11
-60.5753155292
21
-23.1272876365
31
0.0000000000
11
-61.9086811771
21
-23.1539393780
31
0.0000000000
11
-63.2529584685
21
-23.1799085618
31
0.0000000000
0
SPLINE
5
3B6
100
AcDbEntity
8
0
100
AcDbSpline
62
9
6
CONTINUOUS
70
0
71
3
72
15
73
11
74
9
42
0.0000001000
43
0.0000001000
44
0.0000000001
12
1.1925426882
22
-0.0209365138
32
0.0000000000
13
0.0202100309
23
-1.1925552212
33
0.0000000000
40
0.0000000000
40
0.0000000000
40
0.0000000000
40
0.0000000000
40
0.1752296620
40
0.3338246385
40
0.4768703021
40
0.6062980006
40
0.7234261985
40
0.8270606805
40
0.9152582435
40
1.0000000000
40
1.0000000000
40
1.0000000000
40
1.0000000000
10
-46.4442313464
20
18.0656707843
30
0.0000000000
10
-46.3745750623
20
18.0644478849
30
0.0000000000
10
-46.2418771473
20
18.0551288916
30
0.0000000000
10
-46.0548769205
20
18.0218972721
30
0.0000000000
10
-45.8900637804
20
17.9735529183
30
0.0000000000
10
-45.7474592774
20
17.9119236475
30
0.0000000000
10
-45.6286687068
20
17.8381213777
30
0.0000000000
10
-45.5378535530
20
17.7538487246
30
0.0000000000
10
-45.4781362319
20
17.6598251528
30
0.0000000000
10
-45.4624038567
20
17.5908607335
30
0.0000000000
10
-45.4618329788
20
17.5571743255
30
0.0000000000
11
-46.4442313464
21
18.0656707843
31
0.0000000000
11
-46.2357584090
21
18.0508223861
31
0.0000000000
11
-46.0495969272
21
18.0172728876
31
0.0000000000
11
-45.8860819709
21
17.9685685283
31
0.0000000000
11
-45.7447788215
21
17.9064067632
31
0.0000000000
11
-45.6269052207
21
17.8314238636
31
0.0000000000
11
-45.5376841515
21
17.7458760013
31
0.0000000000
11
-45.4830102084
21
17.6560046085
31
0.0000000000
11
-45.4618329788
21
17.5571743255
31
0.0000000000
0
SPLINE
5
3B7
100
AcDbEntity
8
0
100
AcDbSpline
62
7
6
CONTINUOUS
70
0
71
3
72
14
73
10
74
8
42
0.0000001000
43
0.0000001000
44
0.0000000001
12
-0.0001273118
22
3.0403074525
32
0.0000000000
13
-3.0051337420
23
0.2270578468
33
0.0000000000
40
0.0000000000
40
0.0000000000
40
0.0000000000
40
0.0000000000
40
0.0510300294
40
0.1612602393
40
0.2886866112
40
0.4392713329
40
0.6104195787
40
0.7996859274
40
1.0000000000
40
1.0000000000
40
1.0000000000
40
1.0000000000
10
-37.6534195217
20
-0.2968914783
30
0.0000000000
10
-37.6534216872
20
-0.2451758187
30
0.0000000000
10
-37.6707913556
20
-0.0817345312
30
0.0000000000
10
-37.7995472567
20
0.1866267719
30
0.0000000000
10
-38.0766141689
20
0.4677696862
30
0.0000000000
10
-38.4613755126
20
0.7090903238
30
0.0000000000
10
-38.9385715830
20
0.9035946786
30
0.0000000000
10
-39.4859250237
20
1.0427041170
30
0.0000000000
10
-39.8749807826
20
1.0934878138
30
0.0000000000
10
-40.0756376420
20
1.1086487745
30
0.0000000000
11
-37.6534195217
21
-0.2968914783
31
0.0000000000
11
-37.6698776218
21
-0.1430907332
31
0.0000000000
11
-37.8055613525
21
0.1601373029
31
0.0000000000
11
-38.0684381352
21
0.4400852075
31
0.0000000000
11
-38.4492029723
21
0.6870023711
31
0.0000000000
11
-38.9250896676
21
0.8859257808
31
0.0000000000
11
-39.4772102928
21
1.0291379101
31
0.0000000000
11
-40.0756376420
21
1.1086487745
31
0.0000000000
0
SPLINE
5
3B8
100
AcDbEntity
8
0
100
AcDbSpline
62
9
6
CONTINUOUS
70
0
71
3
72
12
73
8
74
6
42
0.0000001000
43
0.0000001000
44
0.0000000001
12
0.0000000000
22
-0.7220836925
32
0.0000000000
13
0.7220012051
23
-0.0109141519
33
0.0000000000
40
0.0000000000
40
0.0000000000
40
0.0000000000
40
0.0000000000
40
0.1862894602
40
0.3779819275
40
0.5781495865
40
0.7865377118
40
1.0000000000
40
1.0000000000
40
1.0000000000
40
1.0000000000
10
-45.9529584685
20
-3.0633874670
30
0.0000000000
10
-45.9529584685
20
-3.1082263274
30
0.0000000000
10
-45.9361427136
20
-3.1999809370
30
0.0000000000
10
-45.8640762655
20
-3.3219895887
30
0.0000000000
10
-45.7532563914
20
-3.4182766317
30
0.0000000000
10
-45.6149292591
20
-3.4803788955
30
0.0000000000
10
-45.5130580148
20
-3.4955576323
30
0.0000000000
10
-45.4616846717
20
-3.4963342189
30
0.0000000000
11
-45.9529584685
21
-3.0633874670
31
0.0000000000
11
-45.9290231541
21
-3.1957574461
31
0.0000000000
11
-45.8595088148
21
-3.3154541487
31
0.0000000000
11
-45.7510708558
21
-3.4110176635
31
0.0000000000
11
-45.6140912759
21
-3.4732986328
31
0.0000000000
11
-45.4616846717
21
-3.4963342189
31
0.0000000000
0
SPLINE
5
3B9
100
AcDbEntity
8
0
100
AcDbSpline
62
9
6
CONTINUOUS
70
0
71
3
72
12
73
8
74
6
42
0.0000001000
43
0.0000001000
44
0.0000000001
12
0.0000000000
22
-0.7220836925
32
0.0000000000
13
0.7220012052
23
-0.0109141526
33
0.0000000000
40
0.0000000000
40
0.0000000000
40
0.0000000000
40
0.0000000000
40
0.1862894178
40
0.3779818539
40
0.5781495047
40
0.7865376542
40
1.0000000000
40
1.0000000000
40
1.0000000000
40
1.0000000000
10
-45.9529584685
20
5.7170908324
30
0.0000000000
10
-45.9529584685
20
5.6722519822
30
0.0000000000
10
-45.9361427209
20
5.5804973907
30
0.0000000000
10
-45.8640762961
20
5.4584887493
30
0.0000000000
10
-45.7532564363
20
5.3622016954
30
0.0000000000
10
-45.6149292930
20
5.3000994109
30
0.0000000000
10
-45.5130580286
20
5.2849206673
30
0.0000000000
10
-45.4616846717
20
5.2841440804
30
0.0000000000
11
-45.9529584685
21
5.7170908324
31
0.0000000000
11
-45.9290231648
21
5.5847208824
31
0.0000000000
11
-45.8595088490
21
5.4650241923
31
0.0000000000
11
-45.7510709059
21
5.3694606683
31
0.0000000000
11
-45.6140913161
21
5.3071796785
31
0.0000000000
11
-45.4616846717
21
5.2841440804
31
0.0000000000
0
SPLINE
5
3BA
100
AcDbEntity
8
0
100
AcDbSpline
62
7
6
CONTINUOUS
70
0
71
3
72
10
73
6
74
4
42
0.0000001000
43
0.0000001000
44
0.0000000001
12
-3.9999099472
22
0.0844306542
32
0.0000000000
13
-4.0000789575
23
0.0760029924
33
0.0000000000
40
0.0000000000
40
0.0000000000
40
0.0000000000
40
0.0000000000
40
0.3305940148
40
0.6639352644
40
1.0000000000
40
1.0000000000
40
1.0000000000
40
1.0000000000
10
-59.2529584685
20
23.0998904748
30
0.0000000000
10
-59.6937405645
20
23.1091945645
30
0.0000000000
10
-60.5789752231
20
23.1275230003
30
0.0000000000
10
-61.9123095899
20
23.1541596706
30
0.0000000000
10
-62.8048633093
20
23.1713945866
30
0.0000000000
10
-63.2529584685
20
23.1799085618
30
0.0000000000
11
-59.2529584685
21
23.0998904748
31
0.0000000000
11
-60.5753155292
21
23.1272876365
31
0.0000000000
11
-61.9086811771
21
23.1539393780
31
0.0000000000
11
-63.2529584685
21
23.1799085618
31
0.0000000000
0
SPLINE
5
3BB
100
AcDbEntity
8
0
100
AcDbSpline
62
7
6
CONTINUOUS
70
0
71
3
72
10
73
6
74
4
42
0.0000001000
43
0.0000001000
44
0.0000000001
12
0.0000000000
22
0.1730587866
32
0.0000000000
13
0.1605901708
23
0.0644991523
33
0.0000000000
40
0.0000000000
40
0.0000000000
40
0.0000000000
40
0.0000000000
40
0.1952581908
40
0.5575078543
40
1.0000000000
40
1.0000000000
40
1.0000000000
40
1.0000000000
10
-36.4529584685
20
9.9035271272
30
0.0000000000
10
-36.4529584685
20
9.9147908424
30
0.0000000000
10
-36.4234718767
20
9.9388072272
30
0.0000000000
10
-36.3779485592
20
9.9678340858
30
0.0000000000
10
-36.3344954917
20
9.9876100844
30
0.0000000000
10
-36.3108088619
20
9.9971235405
30
0.0000000000
11
-36.4529584685
21
9.9035271272
31
0.0000000000
11
-36.4328078346
21
9.9306526405
31
0.0000000000
11
-36.3802198231
21
9.9647788509
31
0.0000000000
11
-36.3108088619
21
9.9971235405
31
0.0000000000
0
SPLINE
5
3BC
100
AcDbEntity
8
0
100
AcDbSpline
62
7
6
CONTINUOUS
70
0
71
3
72
8
73
4
74
2
42
0.0000001000
43
0.0000001000
44
0.0000000001
12
0.0000000000
22
0.0540080767
32
0.0000000000
13
0.0331211116
23
0.0445064837
33
0.0000000000
40
0.0000000000
40
0.0000000000
40
0.0000000000
40
0.0000000000
40
1.0000000000
40
1.0000000000
40
1.0000000000
40
1.0000000000
10
-35.4529584685
20
8.9200311315
30
0.0000000000
10
-35.4529584685
20
8.9380338237
30
0.0000000000
10
-35.4441824558
20
8.9554368880
30
0.0000000000
10
-35.4331420853
20
8.9702723825
30
0.0000000000
11
-35.4529584685
21
8.9200311315
31
0.0000000000
11
-35.4331420853
21
8.9702723825
31
0.0000000000
0
SPLINE
5
3BD
100
AcDbEntity
8
0
100
AcDbSpline
62
7
6
CONTINUOUS
70
0
71
3
72
8
73
4
74
2
42
0.0000001000
43
0.0000001000
44
0.0000000001
12
0.0431045694
22
0.0579217520
32
0.0000000000
13
0.0594461418
23
0.0377845968
33
0.0000000000
40
0.0000000000
40
0.0000000000
40
0.0000000000
40
0.0000000000
40
1.0000000000
40
1.0000000000
40
1.0000000000
40
1.0000000000
10
-35.4331420853
20
8.9702723825
30
0.0000000000
10
-35.4187738955
20
8.9895796332
30
0.0000000000
10
-35.4005705599
20
9.0045381878
30
0.0000000000
10
-35.3807551793
20
9.0171330534
30
0.0000000000
11
-35.4331420853
21
8.9702723825
31
0.0000000000
11
-35.3807551793
21
9.0171330534
31
0.0000000000
0
SPLINE
5
3BE
100
AcDbEntity
8
0
100
AcDbSpline
62
7
6
CONTINUOUS
70
0
71
3
72
8
73
4
74
2
42
0.0000001000
43
0.0000001000
44
0.0000000001
12
0.0652036961
22
0.0414441593
32
0.0000000000
13
0.0736132684
23
0.0229065627
33
0.0000000000
40
0.0000000000
40
0.0000000000
40
0.0000000000
40
0.0000000000
40
1.0000000000
40
1.0000000000
40
1.0000000000
40
1.0000000000
10
-35.3807551793
20
9.0171330534
30
0.0000000000
10
-35.3590206139
20
9.0309477732
30
0.0000000000
10
-35.3353466180
20
9.0419187691
30
0.0000000000
10
-35.3108088619
20
9.0495542900
30
0.0000000000
11
-35.3807551793
21
9.0171330534
31
0.0000000000
11
-35.3108088619
21
9.0495542900
31
0.0000000000
0
SPLINE
5
3BF
100
AcDbEntity
8
0
100
AcDbSpline
62
9
6
CONTINUOUS
70
0
71
3
72
12
73
8
74
6
42
0.0000001000
43
0.0000001000
44
0.0000000001
12
0.0000000000
22
0.7220846903
32
0.0000000000
13
-0.7220022029
23
0.0109141677
33
0.0000000000
40
0.0000000000
40
0.0000000000
40
0.0000000000
40
0.0000000000
40
0.1857233245
40
0.3775227565
40
0.5778042143
40
0.7863589750
40
1.0000000000
40
1.0000000000
40
1.0000000000
40
1.0000000000
10
-35.4529584685
20
-4.3039242333
30
0.0000000000
10
-35.4529584685
20
-4.2592215769
30
0.0000000000
10
-35.4696987922
20
-4.1675835015
30
0.0000000000
10
-35.5416139768
20
-4.0455752453
30
0.0000000000
10
-35.6524493578
20
-3.9491560692
30
0.0000000000
10
-35.7908602573
20
-3.8869574191
30
0.0000000000
10
-35.8928158350
20
-3.8717547194
30
0.0000000000
10
-35.9442322652
20
-3.8709774814
30
0.0000000000
11
-35.4529584685
21
-4.3039242333
31
0.0000000000
11
-35.4767497237
21
-4.1719434636
31
0.0000000000
11
-35.5461940937
21
-4.0521166528
31
0.0000000000
11
-35.6546338377
21
-3.9564306205
31
0.0000000000
11
-35.7917004975
21
-3.8940499842
31
0.0000000000
11
-35.9442322652
21
-3.8709774814
31
0.0000000000
0
SPLINE
5
3C0
100
AcDbEntity
8
0
100
AcDbSpline
62
9
6
CONTINUOUS
70
0
71
3
72
10
73
6
74
4
42
0.0000001000
43
0.0000001000
44
0.0000000001
12
1.0001174612
22
-0.9486517485
32
0.0000000000
13
1.0010927515
23
-0.9476224876
33
0.0000000000
40
0.0000000000
40
0.0000000000
40
0.0000000000
40
0.0000000000
40
0.3548045182
40
0.6885084401
40
1.0000000000
40
1.0000000000
40
1.0000000000
40
1.0000000000
10
-36.3108088619
20
9.9980751734
30
0.0000000000
10
-36.1925267972
20
9.8858798645
30
0.0000000000
10
-35.9636573366
20
9.6674662018
30
0.0000000000
10
-35.6297733598
20
9.3517881001
30
0.0000000000
10
-35.4147528428
20
9.1476924087
30
0.0000000000
10
-35.3108088619
20
9.0493002731
30
0.0000000000
11
-36.3108088619
21
9.9980751734
31
0.0000000000
11
-35.9563743436
21
9.6610557681
31
0.0000000000
11
-35.6224639896
21
9.3446633599
31
0.0000000000
11
-35.3108088619
21
9.0493002731
31
0.0000000000
0
SPLINE
5
3C1
100
AcDbEntity
8
0
100
AcDbSpline
62
9
6
CONTINUOUS
70
0
71
3
72
11
73
7
74
5
42
0.0000001000
43
0.0000001000
44
0.0000000001
12
0.0000000000
22
0.2303072686
32
0.0000000000
13
0.2302282399
23
0.0060328689
33
0.0000000000
40
0.0000000000
40
0.0000000000
40
0.0000000000
40
0.0000000000
40
0.1723715224
40
0.3965426300
40
0.6794734596
40
1.0000000000
40
1.0000000000
40
1.0000000000
40
1.0000000000
10
-35.4529584685
20
-8.1365316770
30
0.0000000000
10
-35.4529584685
20
-8.1232988722
30
0.0000000000
10
-35.4391883304
20
-8.0931374647
30
0.0000000000
10
-35.3950293217
20
-8.0631964911
30
0.0000000000
10
-35.3344196146
20
-8.0426735601
30
0.0000000000
10
-35.2880237468
20
-8.0373132884
30
0.0000000000
10
-35.2634256597
20
-8.0366687235
30
0.0000000000
11
-35.4529584685
21
-8.1365316770
31
0.0000000000
11
-35.4387194499
21
-8.0994747685
31
0.0000000000
11
-35.3980312606
21
-8.0676951217
31
0.0000000000
11
-35.3366886234
21
-8.0457169452
31
0.0000000000
11
-35.2634256597
21
-8.0366687235
31
0.0000000000
0
SPLINE
5
3C2
100
AcDbEntity
8
0
100
AcDbSpline
62
9
6
CONTINUOUS
70
0
71
3
72
11
73
7
74
5
42
0.0000001000
43
0.0000001000
44
0.0000000001
12
0.0000000000
22
0.2303073136
32
0.0000000000
13
0.2302282847
23
0.0060328766
33
0.0000000000
40
0.0000000000
40
0.0000000000
40
0.0000000000
40
0.0000000000
40
0.1723653210
40
0.3965326187
40
0.6794655771
40
1.0000000000
40
1.0000000000
40
1.0000000000
40
1.0000000000
10
-35.4529584685
20
-6.3178783291
30
0.0000000000
10
-35.4529584685
20
-6.3046459977
30
0.0000000000
10
-35.4391891957
20
-6.2744852615
30
0.0000000000
10
-35.3950310648
20
-6.2445439207
30
0.0000000000
10
-35.3344210108
20
-6.2240204271
30
0.0000000000
10
-35.2880243565
20
-6.2186599571
30
0.0000000000
10
-35.2634256597
20
-6.2180153756
30
0.0000000000
11
-35.4529584685
21
-6.3178783291
31
0.0000000000
11
-35.4387203790
21
-6.2808225853
31
0.0000000000
11
-35.3980333427
21
-6.2490428715
31
0.0000000000
11
-35.3366904160
21
-6.2270640117
31
0.0000000000
11
-35.2634256597
21
-6.2180153756
31
0.0000000000
0
SPLINE
5
3C3
100
AcDbEntity
8
0
100
AcDbSpline
62
9
6
CONTINUOUS
70
0
71
3
72
9
73
5
74
3
42
0.0000001000
43
0.0000001000
44
0.0000000001
12
0.0000000000
22
-0.0521160553
32
0.0000000000
13
0.0483960634
23
-0.0175398253
33
0.0000000000
40
0.0000000000
40
0.0000000000
40
0.0000000000
40
0.0000000000
40
0.4814449811
40
1.0000000000
40
1.0000000000
40
1.0000000000
40
1.0000000000
10
-35.4529584685
20
-1.7784493786
30
0.0000000000
10
-35.4529584685
20
-1.7868130497
30
0.0000000000
10
-35.4384652978
20
-1.8012463572
30
0.0000000000
10
-35.4227529063
20
-1.8087714719
30
0.0000000000
10
-35.4143875658
20
-1.8118032600
30
0.0000000000
11
-35.4529584685
21
-1.7784493786
31
0.0000000000
11
-35.4387205376
21
-1.7991094916
31
0.0000000000
11
-35.4143875658
21
-1.8118032600
31
0.0000000000
0
SPLINE
5
3C4
100
AcDbEntity
8
0
100
AcDbSpline
62
9
6
CONTINUOUS
70
0
71
3
72
10
73
6
74
4
42
0.0000001000
43
0.0000001000
44
0.0000000001
12
0.1424003846
22
-0.0516091124
32
0.0000000000
13
0.1533297110
23
-0.0022401144
33
0.0000000000
40
0.0000000000
40
0.0000000000
40
0.0000000000
40
0.0000000000
40
0.1131589494
40
0.5210923167
40
1.0000000000
40
1.0000000000
40
1.0000000000
40
1.0000000000
10
-35.4143875658
20
-1.8118032600
30
0.0000000000
10
-35.4090162732
20
-1.8137499377
30
0.0000000000
10
-35.3838685702
20
-1.8210618369
30
0.0000000000
10
-35.3331458235
20
-1.8311254767
30
0.0000000000
10
-35.2879025853
20
-1.8337698034
30
0.0000000000
10
-35.2634256597
20
-1.8341274061
30
0.0000000000
11
-35.4143875658
21
-1.8118032600
31
0.0000000000
11
-35.3980337358
21
-1.8168280884
31
0.0000000000
11
-35.3366907759
21
-1.8290823463
31
0.0000000000
11
-35.2634256597
21
-1.8341274061
31
0.0000000000
0
SPLINE
5
3C5
100
AcDbEntity
8
0
100
AcDbSpline
62
9
6
CONTINUOUS
70
0
71
3
72
8
73
4
74
2
42
0.0000001000
43
0.0000001000
44
0.0000000001
12
0.0000000000
22
-0.0385938840
32
0.0000000000
13
-0.0180738992
23
-0.0353448968
33
0.0000000000
40
0.0000000000
40
0.0000000000
40
0.0000000000
40
0.0000000000
40
1.0000000000
40
1.0000000000
40
1.0000000000
40
1.0000000000
10
-33.4529584685
20
-7.8468827561
30
0.0000000000
10
-33.4529584685
20
-7.8597473841
30
0.0000000000
10
-33.4567299537
20
-7.8725351226
30
0.0000000000
10
-33.4627545868
20
-7.8843167549
30
0.0000000000
11
-33.4529584685
21
-7.8468827561
31
0.0000000000
11
-33.4627545868
21
-7.8843167549
31
0.0000000000
0
SPLINE
5
3C6
100
AcDbEntity
8
0
100
AcDbSpline
62
9
6
CONTINUOUS
70
0
71
3
72
9
73
5
74
3
42
0.0000001000
43
0.0000001000
44
0.0000000001
12
-0.0328903492
22
-0.0643196018
32
0.0000000000
13
-0.0587356822
23
-0.0393462366
33
0.0000000000
40
0.0000000000
40
0.0000000000
40
0.0000000000
40
0.0000000000
40
0.2983187462
40
1.0000000000
40
1.0000000000
40
1.0000000000
40
1.0000000000
10
-33.4627545868
20
-7.8843167549
30
0.0000000000
10
-33.4660251894
20
-7.8907126692
30
0.0000000000
10
-33.4792145280
20
-7.9111586022
30
0.0000000000
10
-33.4971357132
20
-7.9266022457
30
0.0000000000
10
-33.5108736223
20
-7.9358050845
30
0.0000000000
11
-33.4627545868
21
-7.8843167549
31
0.0000000000
11
-33.4743155496
21
-7.9024663053
31
0.0000000000
11
-33.5108736223
21
-7.9358050845
31
0.0000000000
0
SPLINE
5
3C7
100
AcDbEntity
8
0
100
AcDbSpline
62
9
6
CONTINUOUS
70
0
71
3
72
10
73
6
74
4
42
0.0000001000
43
0.0000001000
44
0.0000000001
12
-0.1979001034
22
-0.1325705943
32
0.0000000000
13
-0.2365538758
23
-0.0061986317
33
0.0000000000
40
0.0000000000
40
0.0000000000
40
0.0000000000
40
0.0000000000
40
0.1190039758
40
0.5320548384
40
1.0000000000
40
1.0000000000
40
1.0000000000
40
1.0000000000
10
-33.5108736223
20
-7.9358050845
30
0.0000000000
10
-33.5187239220
20
-7.9410638938
30
0.0000000000
10
-33.5555196260
20
-7.9621904821
30
0.0000000000
10
-33.6307645745
20
-7.9876695967
30
0.0000000000
10
-33.7003596011
20
-7.9957103130
30
0.0000000000
10
-33.7372576816
20
-7.9966771863
30
0.0000000000
11
-33.5108736223
21
-7.9358050845
31
0.0000000000
11
-33.5353460376
21
-7.9501358794
31
0.0000000000
11
-33.6273604433
21
-7.9831042082
31
0.0000000000
11
-33.7372576816
21
-7.9966771863
31
0.0000000000
0
SPLINE
5
3C8
100
AcDbEntity
8
0
100
AcDbSpline
62
9
6
CONTINUOUS
70
0
71
3
72
8
73
4
74
2
42
0.0000001000
43
0.0000001000
44
0.0000000001
12
0.0000000000
22
-0.0595454911
32
0.0000000000
13
-0.0371377970
23
-0.0482089673
33
0.0000000000
40
0.0000000000
40
0.0000000000
40
0.0000000000
40
0.0000000000
40
1.0000000000
40
1.0000000000
40
1.0000000000
40
1.0000000000
10
-33.4529584685
20
-6.0282294081
30
0.0000000000
10
-33.4529584685
20
-6.0480779051
30
0.0000000000
10
-33.4619363369
20
-6.0677433680
30
0.0000000000
10
-33.4743156026
20
-6.0838130237
30
0.0000000000
11
-33.4529584685
21
-6.0282294081
31
0.0000000000
11
-33.4743156026
21
-6.0838130237
31
0.0000000000
0
SPLINE
5
3C9
100
AcDbEntity
8
0
100
AcDbSpline
62
9
6
CONTINUOUS
70
0
71
3
72
8
73
4
74
2
42
0.0000001000
43
0.0000001000
44
0.0000000001
12
-0.0307356636
22
-0.0398982901
32
0.0000000000
13
-0.0412137751
23
-0.0276085140
33
0.0000000000
40
0.0000000000
40
0.0000000000
40
0.0000000000
40
0.0000000000
40
1.0000000000
40
1.0000000000
40
1.0000000000
40
1.0000000000
10
-33.4743156026
20
-6.0838130237
30
0.0000000000
10
-33.4845608238
20
-6.0971124538
30
0.0000000000
10
-33.4971358000
20
-6.1079489696
30
0.0000000000
10
-33.5108737251
20
-6.1171518075
30
0.0000000000
11
-33.4743156026
21
-6.0838130237
31
0.0000000000
11
-33.5108737251
21
-6.1171518075
31
0.0000000000
0
SPLINE
5
3CA
100
AcDbEntity
8
0
100
AcDbSpline
62
9
6
CONTINUOUS
70
0
71
3
72
10
73
6
74
4
42
0.0000001000
43
0.0000001000
44
0.0000000001
12
-0.1979000732
22
-0.1325704068
32
0.0000000000
13
-0.2365537530
23
-0.0061986284
33
0.0000000000
40
0.0000000000
40
0.0000000000
40
0.0000000000
40
0.0000000000
40
0.1190040846
40
0.5320550437
40
1.0000000000
40
1.0000000000
40
1.0000000000
40
1.0000000000
10
-33.5108737251
20
-6.1171518075
30
0.0000000000
10
-33.5187240308
20
-6.1224106142
30
0.0000000000
10
-33.5555197399
20
-6.1435371791
30
0.0000000000
10
-33.6307646550
20
-6.1690162611
30
0.0000000000
10
-33.7003596364
20
-6.1770569660
30
0.0000000000
10
-33.7372576816
20
-6.1780238383
30
0.0000000000
11
-33.5108737251
21
-6.1171518075
31
0.0000000000
11
-33.5353461572
21
-6.1314825945
31
0.0000000000
11
-33.6273605472
21
-6.1644508842
31
0.0000000000
11
-33.7372576816
21
-6.1780238383
31
0.0000000000
0
SPLINE
5
3CB
100
AcDbEntity
8
0
100
AcDbSpline
62
9
6
CONTINUOUS
70
0
71
3
72
9
73
5
74
3
42
0.0000001000
43
0.0000001000
44
0.0000000001
12
16.8087281739
22
-0.1019268246
32
0.0000000000
13
16.8087242158
23
-0.1025774758
33
0.0000000000
40
0.0000000000
40
0.0000000000
40
0.0000000000
40
0.0000000000
40
0.4993276685
40
1.0000000000
40
1.0000000000
40
1.0000000000
40
1.0000000000
10
-63.2529584685
20
16.1196592168
30
0.0000000000
10
-60.4552707855
20
16.1026942556
30
0.0000000000
10
-54.8523617198
20
16.0686649398
30
0.0000000000
10
-49.2494533130
20
16.0345272855
30
0.0000000000
10
-46.4442322652
20
16.0174080509
30
0.0000000000
11
-63.2529584685
21
16.1196592168
31
0.0000000000
11
-54.8598959090
21
16.0686836859
31
0.0000000000
11
-46.4442322652
21
16.0174080509
31
0.0000000000
0
SPLINE
5
3CC
100
AcDbEntity
8
0
100
AcDbSpline
62
9
6
CONTINUOUS
70
0
71
3
72
9
73
5
74
3
42
0.0000001000
43
0.0000001000
44
0.0000000001
12
16.8087277968
22
-0.0957760149
32
0.0000000000
13
16.8087245945
23
-0.0963363727
33
0.0000000000
40
0.0000000000
40
0.0000000000
40
0.0000000000
40
0.0000000000
40
0.4993276713
40
1.0000000000
40
1.0000000000
40
1.0000000000
40
1.0000000000
10
-63.2529584685
20
17.3594294128
30
0.0000000000
10
-60.4552708324
20
17.3434882080
30
0.0000000000
10
-54.8523618286
20
17.3115168990
30
0.0000000000
10
-49.2494533603
20
17.2794518859
30
0.0000000000
10
-46.4442322653
20
17.2633742339
30
0.0000000000
11
-63.2529584685
21
17.3594294128
31
0.0000000000
11
-54.8598959552
21
17.3115365264
31
0.0000000000
11
-46.4442322653
21
17.2633742339
31
0.0000000000
0
SPLINE
5
3CD
100
AcDbEntity
8
0
100
AcDbSpline
62
9
6
CONTINUOUS
70
0
71
3
72
10
73
6
74
4
42
0.0000001000
43
0.0000001000
44
0.0000000001
12
-3.9999999804
22
0.0702534154
32
0.0000000000
13
-4.0000000196
23
0.0702511788
33
0.0000000000
40
0.0000000000
40
0.0000000000
40
0.0000000000
40
0.0000000000
40
0.3334720351
40
0.6668053684
40
1.0000000000
40
1.0000000000
40
1.0000000000
40
1.0000000000
10
-59.2529584685
20
23.2631073613
30
0.0000000000
10
-59.6975878464
20
23.2709165444
30
0.0000000000
10
-60.5866616680
20
23.2865315802
30
0.0000000000
10
-61.9199950014
20
23.3099490111
30
0.0000000000
10
-62.8086989575
20
23.3255572194
30
0.0000000000
10
-63.2529584685
20
23.3333596580
30
0.0000000000
11
-59.2529584685
21
23.2631073613
31
0.0000000000
11
-60.5868466044
21
23.2865347865
31
0.0000000000
11
-61.9201799378
21
23.3099522181
31
0.0000000000
11
-63.2529584685
21
23.3333596580
31
0.0000000000
0
SPLINE
5
3CE
100
AcDbEntity
8
0
100
AcDbSpline
62
9
6
CONTINUOUS
70
0
71
3
72
10
73
6
74
4
42
0.0000001000
43
0.0000001000
44
0.0000000001
12
-0.0043616581
22
-0.4329353796
32
0.0000000000
13
0.0087193338
23
-0.4328695418
33
0.0000000000
40
0.0000000000
40
0.0000000000
40
0.0000000000
40
0.0000000000
40
0.3949073401
40
0.7421903582
40
1.0000000000
40
1.0000000000
40
1.0000000000
40
1.0000000000
10
-45.4616846717
20
5.7170908324
30
0.0000000000
10
-45.4622588220
20
5.6601010460
30
0.0000000000
10
-45.4630340897
20
5.5529903536
30
0.0000000000
10
-45.4631137574
20
5.4086715793
30
0.0000000000
10
-45.4624339811
20
5.3213433943
30
0.0000000000
10
-45.4616846717
20
5.2841440804
30
0.0000000000
11
-45.4616846717
21
5.7170908324
31
0.0000000000
11
-45.4628810882
21
5.5461169829
31
0.0000000000
11
-45.4628810882
21
5.3957582477
31
0.0000000000
11
-45.4616846717
21
5.2841440804
31
0.0000000000
0
SPLINE
5
3CF
100
AcDbEntity
8
0
100
AcDbSpline
62
9
6
CONTINUOUS
70
0
71
3
72
9
73
5
74
3
42
0.0000001000
43
0.0000001000
44
0.0000000001
12
0.0001468974
22
-0.0085778290
32
0.0000000000
13
0.0001494772
23
-0.0085777844
33
0.0000000000
40
0.0000000000
40
0.0000000000
40
0.0000000000
40
0.0000000000
40
0.5002662960
40
1.0000000000
40
1.0000000000
40
1.0000000000
40
1.0000000000
10
-45.4618329788
20
17.5571743255
30
0.0000000000
10
-45.4618084829
20
17.5557439259
30
0.0000000000
10
-45.4617589232
20
17.5528846598
30
0.0000000000
10
-45.4617095713
20
17.5500253901
30
0.0000000000
10
-45.4616846717
20
17.5485965208
30
0.0000000000
11
-45.4618329788
21
17.5571743255
31
0.0000000000
11
-45.4617589488
21
17.5528831361
31
0.0000000000
11
-45.4616846717
21
17.5485965208
31
0.0000000000
0
SPLINE
5
3D0
100
AcDbEntity
8
0
100
AcDbSpline
62
9
6
CONTINUOUS
70
0
71
3
72
12
73
8
74
6
42
0.0000001000
43
0.0000001000
44
0.0000000001
12
-0.0000065324
22
-0.4913316139
32
0.0000000000
13
0.4913315913
23
-0.0001491917
33
0.0000000000
40
0.0000000000
40
0.0000000000
40
0.0000000000
40
0.0000000000
40
0.0489878632
40
0.1904996532
40
0.4111602430
40
0.6898808444
40
1.0000000000
40
1.0000000000
40
1.0000000000
40
1.0000000000
10
-45.9529583635
20
17.5657469528
30
0.0000000000
10
-45.9529584702
20
17.5577238575
30
0.0000000000
10
-45.9029862124
20
17.5708523128
30
0.0000000000
10
-45.8530590824
20
17.5551406803
30
0.0000000000
10
-45.7389935818
20
17.5606877665
30
0.0000000000
10
-45.6099905735
20
17.5567290486
30
0.0000000000
10
-45.5126234259
20
17.5571897469
30
0.0000000000
10
-45.4618329798
20
17.5571743245
30
0.0000000000
11
-45.9529583635
21
17.5657469528
31
0.0000000000
11
-45.9290321606
21
17.5631263926
31
0.0000000000
11
-45.8595433392
21
17.5607566669
31
0.0000000000
11
-45.7511423281
21
17.5588645112
31
0.0000000000
11
-45.6142036407
21
17.5576309934
31
0.0000000000
11
-45.4618329798
21
17.5571743245
31
0.0000000000
0
SPLINE
5
3D1
100
AcDbEntity
8
0
100
AcDbSpline
62
7
6
CONTINUOUS
70
0
71
3
72
12
73
8
74
6
42
0.0000001000
43
0.0000001000
44
0.0000000001
12
-0.4821723502
22
-0.2277775999
32
0.0000000000
13
-0.4925592720
23
-0.2040777874
33
0.0000000000
40
0.0000000000
40
0.0000000000
40
0.0000000000
40
0.0000000000
40
0.0535019365
40
0.2030870213
40
0.4276033071
40
0.7019624628
40
1.0000000000
40
1.0000000000
40
1.0000000000
40
1.0000000000
10
-35.4529584685
20
8.9000000000
30
0.0000000000
10
-35.4615575200
20
8.8959378191
30
0.0000000000
10
-35.4943783681
20
8.8809227168
30
0.0000000000
10
-35.5645183852
20
8.8516392590
30
0.0000000000
10
-35.6706345421
20
8.8067024338
30
0.0000000000
10
-35.8013637996
20
8.7522120008
30
0.0000000000
10
-35.8952985478
20
8.7131674992
30
0.0000000000
10
-35.9442322652
20
8.6928932188
30
0.0000000000
11
-35.4529584685
21
8.9000000000
31
0.0000000000
11
-35.4788845125
21
8.8881033980
31
0.0000000000
11
-35.5522042075
21
8.8567220122
31
0.0000000000
11
-35.6625186518
21
8.8102494711
31
0.0000000000
11
-35.7974877995
21
8.7538526981
31
0.0000000000
11
-35.9442322652
21
8.6928932188
31
0.0000000000
0
SPLINE
5
3D2
100
AcDbEntity
8
0
100
AcDbSpline
62
9
6
CONTINUOUS
70
0
71
3
72
10
73
6
74
4
42
0.0000001000
43
0.0000001000
44
0.0000000001
12
0.0000342564
22
-0.3115807779
32
0.0000000000
13
-0.2180394885
23
-0.2225788934
33
0.0000000000
40
0.0000000000
40
0.0000000000
40
0.0000000000
40
0.0000000000
40
0.3184722427
40
0.6481712305
40
1.0000000000
40
1.0000000000
40
1.0000000000
40
1.0000000000
10
-45.4616846717
20
-3.4963342189
30
0.0000000000
10
-45.4616810351
20
-3.5294108286
30
0.0000000000
10
-45.4720230802
20
-3.5971246092
30
0.0000000000
10
-45.5166101872
20
-3.6921766619
30
0.0000000000
10
-45.5615793827
20
-3.7476959583
30
0.0000000000
10
-45.5871502377
20
-3.7737991777
30
0.0000000000
11
-45.4616846717
21
-3.4963342189
31
0.0000000000
11
-45.4763241313
21
-3.5944782219
31
0.0000000000
11
-45.5190360466
21
-3.6879057719
31
0.0000000000
11
-45.5871502377
21
-3.7737991777
31
0.0000000000
0
SPLINE
5
3D3
100
AcDbEntity
8
0
100
AcDbSpline
62
9
6
CONTINUOUS
70
0
71
3
72
13
73
9
74
7
42
0.0000001000
43
0.0000001000
44
0.0000000001
12
-0.8565283700
22
-0.4254282406
32
0.0000000000
13
-0.8580739703
23
-0.4223021408
33
0.0000000000
40
0.0000000000
40
0.0000000000
40
0.0000000000
40
0.0000000000
40
0.1162185809
40
0.2576899040
40
0.4214389856
40
0.6079533276
40
0.8111047277
40
1.0000000000
40
1.0000000000
40
1.0000000000
40
1.0000000000
10
-45.5871502377
20
-3.7737991777
30
0.0000000000
10
-45.6203317416
20
-3.7902800665
30
0.0000000000
10
-45.6937679076
20
-3.8270975520
30
0.0000000000
10
-45.8141268911
20
-3.8867931207
30
0.0000000000
10
-45.9545828249
20
-3.9564026516
30
0.0000000000
10
-46.1127272339
20
-4.0346012211
30
0.0000000000
10
-46.2781178792
20
-4.1162305266
30
0.0000000000
10
-46.3902034948
20
-4.1715182338
30
0.0000000000
10
-46.4442322002
20
-4.1981085264
30
0.0000000000
11
-45.5871502377
21
-3.7737991777
31
0.0000000000
11
-45.6866034733
21
-3.8234251890
31
0.0000000000
11
-45.8077673941
21
-3.8836317794
31
0.0000000000
11
-45.9480900659
21
-3.9531603323
31
0.0000000000
11
-46.1079823358
21
-4.0322314754
31
0.0000000000
11
-46.2821967025
21
-4.1182348792
31
0.0000000000
11
-46.4442322002
21
-4.1981085264
31
0.0000000000
0
SPLINE
5
3D4
100
AcDbEntity
8
0
100
AcDbSpline
62
9
6
CONTINUOUS
70
0
71
3
72
11
73
7
74
5
42
0.0000001000
43
0.0000001000
44
0.0000000001
12
0.1485543803
22
-0.6185393900
32
0.0000000000
13
0.6161708331
23
-0.1580913830
33
0.0000000000
40
0.0000000000
40
0.0000000000
40
0.0000000000
40
0.0000000000
40
0.2441954968
40
0.4988459923
40
0.7541216709
40
1.0000000000
40
1.0000000000
40
1.0000000000
40
1.0000000000
10
-46.0156790163
20
-3.3408524266
30
0.0000000000
10
-46.0035869128
20
-3.3912006045
30
0.0000000000
10
-45.9627747444
20
-3.4905997984
30
0.0000000000
10
-45.8643845232
20
-3.6187570201
30
0.0000000000
10
-45.7369435768
20
-3.7186384652
30
0.0000000000
10
-45.6376519137
20
-3.7608741891
30
0.0000000000
10
-45.5871508954
20
-3.7738312708
30
0.0000000000
11
-46.0156790163
21
-3.3408524266
31
0.0000000000
11
-45.9578137273
21
-3.4850121651
31
0.0000000000
11
-45.8596150550
21
-3.6138450684
31
0.0000000000
11
-45.7315218397
21
-3.7136550314
31
0.0000000000
11
-45.5871508954
21
-3.7738312708
31
0.0000000000
0
SPLINE
5
3D5
100
AcDbEntity
8
0
100
AcDbSpline
62
9
6
CONTINUOUS
70
0
71
3
72
13
73
9
74
7
42
0.0000001000
43
0.0000001000
44
0.0000000001
12
-0.4220074449
22
-0.8604959702
32
0.0000000000
13
-0.4317431065
23
-0.8556526681
33
0.0000000000
40
0.0000000000
40
0.0000000000
40
0.0000000000
40
0.0000000000
40
0.1165795363
40
0.2582602421
40
0.4220760772
40
0.6085134731
40
0.8114359444
40
1.0000000000
40
1.0000000000
40
1.0000000000
40
1.0000000000
10
-46.0156912515
20
-3.3408524258
30
0.0000000000
10
-46.0320903955
20
-3.3742911662
30
0.0000000000
10
-46.0685471438
20
-3.4483059958
30
0.0000000000
10
-46.1285147404
20
-3.5690776974
30
0.0000000000
10
-46.1986705593
20
-3.7097073451
30
0.0000000000
10
-46.2778353510
20
-3.8677066612
30
0.0000000000
10
-46.3607487596
20
-4.0326707944
30
0.0000000000
10
-46.4170951882
20
-4.1443266815
30
0.0000000000
10
-46.4442322652
20
-4.1981084606
30
0.0000000000
11
-46.0156912515
21
-3.3408524258
31
0.0000000000
11
-46.0650519355
21
-3.4410884195
31
0.0000000000
11
-46.1254049583
21
-3.5627265151
31
0.0000000000
11
-46.1954825561
21
-3.7032214418
31
0.0000000000
11
-46.2755081383
21
-3.8629821179
31
0.0000000000
11
-46.3628572945
21
-4.0367448323
31
0.0000000000
11
-46.4442322652
21
-4.1981084606
31
0.0000000000
0
SPLINE
5
3D6
100
AcDbEntity
8
0
100
AcDbSpline
62
9
6
CONTINUOUS
70
0
71
3
72
10
73
6
74
4
42
0.0000001000
43
0.0000001000
44
0.0000000001
12
0.0043616581
22
0.4329353796
32
0.0000000000
13
-0.0087193338
23
0.4328695418
33
0.0000000000
40
0.0000000000
40
0.0000000000
40
0.0000000000
40
0.0000000000
40
0.3949073401
40
0.7421903582
40
1.0000000000
40
1.0000000000
40
1.0000000000
40
1.0000000000
10
-35.9442322652
20
-4.3039242333
30
0.0000000000
10
-35.9436581150
20
-4.2469344469
30
0.0000000000
10
-35.9428828472
20
-4.1398237545
30
0.0000000000
10
-35.9428031795
20
-3.9955049802
30
0.0000000000
10
-35.9434829558
20
-3.9081767952
30
0.0000000000
10
-35.9442322652
20
-3.8709774814
30
0.0000000000
11
-35.9442322652
21
-4.3039242333
31
0.0000000000
11
-35.9430358487
21
-4.1329503838
31
0.0000000000
11
-35.9430358487
21
-3.9825916486
31
0.0000000000
11
-35.9442322652
21
-3.8709774814
31
0.0000000000
0
SPLINE
5
3D7
100
AcDbEntity
8
0
100
AcDbSpline
62
7
6
CONTINUOUS
70
0
71
3
72
13
73
9
74
7
42
0.0000001000
43
0.0000001000
44
0.0000000001
12
0.0000000000
22
0.9184361140
32
0.0000000000
13
-0.9184173696
23
0.0058677660
33
0.0000000000
40
0.0000000000
40
0.0000000000
40
0.0000000000
40
0.0000000000
40
0.2110013916
40
0.4010532600
40
0.5721692949
40
0.7274332633
40
0.8687534072
40
1.0000000000
40
1.0000000000
40
1.0000000000
40
1.0000000000
10
-35.4529584685
20
1.9805997872
30
0.0000000000
10
-35.4529584685
20
2.0451968866
30
0.0000000000
10
-35.4656799668
20
2.1684151430
30
0.0000000000
10
-35.5199405388
20
2.3362875662
30
0.0000000000
10
-35.6010746362
20
2.4736511833
30
0.0000000000
10
-35.7033254331
20
2.5763625229
30
0.0000000000
10
-35.8201220565
20
2.6399597612
30
0.0000000000
10
-35.9040525484
20
2.6546765388
30
0.0000000000
10
-35.9442322652
20
2.6549332469
30
0.0000000000
11
-35.4529584685
21
1.9805997872
31
0.0000000000
11
-35.4733507525
21
2.1733151784
31
0.0000000000
11
-35.5279639919
21
2.3391020021
31
0.0000000000
11
-35.6090842125
21
2.4737070059
31
0.0000000000
11
-35.7107934024
21
2.5736570479
31
0.0000000000
11
-35.8254314175
21
2.6345215228
31
0.0000000000
11
-35.9442322652
21
2.6549332469
31
0.0000000000
0
SPLINE
5
3D8
100
AcDbEntity
8
0
100
AcDbSpline
62
9
6
CONTINUOUS
70
0
71
3
72
12
73
8
74
6
42
0.0000001000
43
0.0000001000
44
0.0000000001
12
0.0000000000
22
-0.6609410172
32
0.0000000000
13
-0.6608918625
23
-0.0080606609
33
0.0000000000
40
0.0000000000
40
0.0000000000
40
0.0000000000
40
0.0000000000
40
0.1655983819
40
0.3456333251
40
0.5469463421
40
0.7677012794
40
1.0000000000
40
1.0000000000
40
1.0000000000
40
1.0000000000
10
-35.4529584685
20
-18.8824687711
30
0.0000000000
10
-35.4529584685
20
-18.9189523587
30
0.0000000000
10
-35.4710525712
20
-18.9958817513
30
0.0000000000
10
-35.5451625682
20
-19.0941923958
30
0.0000000000
10
-35.6559935150
20
-19.1703888168
30
0.0000000000
10
-35.7930135599
20
-19.2192796068
30
0.0000000000
10
-35.8930574872
20
-19.2311639503
30
0.0000000000
10
-35.9442322652
20
-19.2317881107
30
0.0000000000
11
-35.4529584685
21
-18.8824687711
31
0.0000000000
11
-35.4768937721
21
-18.9892703195
31
0.0000000000
11
-35.5464080879
21
-19.0858465580
31
0.0000000000
11
-35.6548460310
21
-19.1629511602
31
0.0000000000
11
-35.7918256209
21
-19.2132020377
31
0.0000000000
11
-35.9442322652
21
-19.2317881107
31
0.0000000000
0
SPLINE
5
3D9
100
AcDbEntity
8
0
100
AcDbSpline
62
9
6
CONTINUOUS
70
0
71
3
72
12
73
8
74
6
42
0.0000001000
43
0.0000001000
44
0.0000000001
12
0.0000000000
22
0.7220836925
32
0.0000000000
13
-0.7220012052
23
0.0109141526
33
0.0000000000
40
0.0000000000
40
0.0000000000
40
0.0000000000
40
0.0000000000
40
0.1862894178
40
0.3779818539
40
0.5781495047
40
0.7865376542
40
1.0000000000
40
1.0000000000
40
1.0000000000
40
1.0000000000
10
-35.4529584685
20
4.7552834275
30
0.0000000000
10
-35.4529584685
20
4.8001222777
30
0.0000000000
10
-35.4697742161
20
4.8918768691
30
0.0000000000
10
-35.5418406408
20
5.0138855105
30
0.0000000000
10
-35.6526605006
20
5.1101725645
30
0.0000000000
10
-35.7909876439
20
5.1722748490
30
0.0000000000
10
-35.8928589083
20
5.1874535926
30
0.0000000000
10
-35.9442322652
20
5.1882301794
30
0.0000000000
11
-35.4529584685
21
4.7552834275
31
0.0000000000
11
-35.4768937721
21
4.8876533774
31
0.0000000000
11
-35.5464080879
21
5.0073500676
31
0.0000000000
11
-35.6548460310
21
5.1029135915
31
0.0000000000
11
-35.7918256208
21
5.1651945813
31
0.0000000000
11
-35.9442322652
21
5.1882301794
31
0.0000000000
0
SPLINE
5
3DA
100
AcDbEntity
8
0
100
AcDbSpline
62
9
6
CONTINUOUS
70
0
71
3
72
12
73
8
74
6
42
0.0000001000
43
0.0000001000
44
0.0000000001
12
-0.0000000006
22
-0.6353628869
32
0.0000000000
13
-0.6353250769
23
-0.0069314280
33
0.0000000000
40
0.0000000000
40
0.0000000000
40
0.0000000000
40
0.0000000000
40
0.1550107165
40
0.3295313121
40
0.5317996474
40
0.7587035335
40
1.0000000000
40
1.0000000000
40
1.0000000000
40
1.0000000000
10
-35.4529584685
20
-16.8906137895
30
0.0000000000
10
-35.4529584685
20
-16.9234431416
30
0.0000000000
10
-35.4719333028
20
-16.9939301870
30
0.0000000000
10
-35.5469260748
20
-17.0813693898
30
0.0000000000
10
-35.6574107614
20
-17.1487453499
30
0.0000000000
10
-35.7937880631
20
-17.1920160954
30
0.0000000000
10
-35.8931316999
20
-17.2025269701
30
0.0000000000
10
-35.9442322652
20
-17.2030844798
30
0.0000000000
11
-35.4529584685
21
-16.8906137895
31
0.0000000000
11
-35.4768937504
21
-16.9861491207
31
0.0000000000
11
-35.5464080304
21
-17.0725378136
31
0.0000000000
11
-35.6548459592
21
-17.1415088996
31
0.0000000000
11
-35.7918255713
21
-17.1864589858
31
0.0000000000
11
-35.9442322652
21
-17.2030844798
31
0.0000000000
0
SPLINE
5
3DB
100
AcDbEntity
8
0
100
AcDbSpline
62
9
6
CONTINUOUS
70
0
71
3
72
11
73
7
74
5
42
0.0000001000
43
0.0000001000
44
0.0000000001
12
0.0019148045
22
-1.2498708111
32
0.0000000000
13
-0.0024512863
23
-1.2498698741
33
0.0000000000
40
0.0000000000
40
0.0000000000
40
0.0000000000
40
0.0000000000
40
0.2688300041
40
0.5299156392
40
0.7759339065
40
1.0000000000
40
1.0000000000
40
1.0000000000
40
1.0000000000
10
-35.9442324919
20
-15.9532017166
30
0.0000000000
10
-35.9440609063
20
-16.0652026417
30
0.0000000000
10
-35.9438029527
20
-16.2859781367
30
0.0000000000
10
-35.9436675487
20
-16.6092509002
30
0.0000000000
10
-35.9437875109
20
-16.9138739469
30
0.0000000000
10
-35.9440494902
20
-17.1097222867
30
0.0000000000
10
-35.9442325735
20
-17.2030734401
30
0.0000000000
11
-35.9442324919
21
-15.9532017166
31
0.0000000000
11
-35.9438417711
21
-16.2892046590
31
0.0000000000
11
-35.9437104310
21
-16.6155283301
31
0.0000000000
11
-35.9438417428
21
-16.9230197141
31
0.0000000000
11
-35.9442325735
21
-17.2030734401
31
0.0000000000
0
SPLINE
5
3DC
100
AcDbEntity
8
0
100
AcDbSpline
62
9
6
CONTINUOUS
70
0
71
3
72
10
73
6
74
4
42
0.0000001000
43
0.0000001000
44
0.0000000001
12
-0.1505965352
22
-0.0026286723
32
0.0000000000
13
-0.0038980407
23
0.1505690261
33
0.0000000000
40
0.0000000000
40
0.0000000000
40
0.0000000000
40
0.0000000000
40
0.1177527364
40
0.4621474147
40
1.0000000000
40
1.0000000000
40
1.0000000000
40
1.0000000000
10
-35.9442322652
20
-19.3823926186
30
0.0000000000
10
-35.9501433166
20
-19.3824957964
30
0.0000000000
10
-35.9343462277
20
-19.3448664420
30
0.0000000000
10
-35.9494170505
20
-19.3084001853
30
0.0000000000
10
-35.9435334082
20
-19.2587827573
30
0.0000000000
10
-35.9442322652
20
-19.2317881107
30
0.0000000000
11
-35.9442322652
21
-19.3823926186
31
0.0000000000
11
-35.9435710053
21
-19.3646690947
31
0.0000000000
11
-35.9435788289
21
-19.3127965495
31
0.0000000000
11
-35.9442322652
21
-19.2317881107
31
0.0000000000
0
SPLINE
5
3DD
100
AcDbEntity
8
0
100
AcDbSpline
62
9
6
CONTINUOUS
70
0
71
3
72
10
73
6
74
4
42
0.0000001000
43
0.0000001000
44
0.0000000001
12
-17.4172991636
22
-0.3057144268
32
0.0000000000
13
-17.4172998214
23
-0.3056769485
33
0.0000000000
40
0.0000000000
40
0.0000000000
40
0.0000000000
40
0.0000000000
40
0.3339437766
40
0.6672771101
40
1.0000000000
40
1.0000000000
40
1.0000000000
40
1.0000000000
10
-35.9442322652
20
-19.2317880227
30
0.0000000000
10
-37.8830318188
20
-19.2658184995
30
0.0000000000
10
-41.7570868586
20
-19.3338159593
30
0.0000000000
10
-47.5628533582
20
-19.4357144033
30
0.0000000000
10
-51.4298203145
20
-19.5035817875
30
0.0000000000
10
-53.3615317581
20
-19.5374836934
30
0.0000000000
11
-35.9442322652
21
-19.2317880227
31
0.0000000000
11
-41.7606309615
21
-19.3338774237
31
0.0000000000
11
-47.5663974633
21
-19.4357759282
31
0.0000000000
11
-53.3615317581
21
-19.5374836934
31
0.0000000000
0
SPLINE
5
3DE
100
AcDbEntity
8
0
100
AcDbSpline
62
9
6
CONTINUOUS
70
0
71
3
72
10
73
6
74
4
42
0.0000001000
43
0.0000001000
44
0.0000000001
12
0.1489221139
22
0.0026847508
32
0.0000000000
13
-0.0015262807
23
0.1489384919
33
0.0000000000
40
0.0000000000
40
0.0000000000
40
0.0000000000
40
0.0000000000
40
0.1165807651
40
0.4577681765
40
1.0000000000
40
1.0000000000
40
1.0000000000
40
1.0000000000
10
-53.3615317363
20
-19.6864139735
30
0.0000000000
10
-53.3557445850
20
-19.6863096434
30
0.0000000000
10
-53.3681014943
20
-19.6499486676
30
0.0000000000
10
-53.3561357261
20
-19.6133764909
30
0.0000000000
10
-53.3612559235
20
-19.5644021743
30
0.0000000000
10
-53.3615317895
20
-19.5374824443
30
0.0000000000
11
-53.3615317363
21
-19.6864139735
31
0.0000000000
11
-53.3608817994
21
-19.6690618662
31
0.0000000000
11
-53.3608818441
21
-19.6182432595
31
0.0000000000
11
-53.3615317895
21
-19.5374824443
31
0.0000000000
0
SPLINE
5
3DF
100
AcDbEntity
8
0
100
AcDbSpline
62
9
6
CONTINUOUS
70
0
71
3
72
8
73
4
74
2
42
0.0000001000
43
0.0000001000
44
0.0000000001
12
-0.0573486768
22
-0.0009905968
32
0.0000000000
13
-0.0572770303
23
-0.0038097432
33
0.0000000000
40
0.0000000000
40
0.0000000000
40
0.0000000000
40
0.0000000000
40
1.0000000000
40
1.0000000000
40
1.0000000000
40
1.0000000000
10
-53.3615317581
20
-19.5374836934
30
0.0000000000
10
-53.3806479837
20
-19.5378138923
30
0.0000000000
10
-53.3997655472
20
-19.5386162380
30
0.0000000000
10
-53.4188578906
20
-19.5398861524
30
0.0000000000
11
-53.3615317581
21
-19.5374836934
31
0.0000000000
11
-53.4188578906
21
-19.5398861524
31
0.0000000000
0
SPLINE
5
3E0
100
AcDbEntity
8
0
100
AcDbSpline
62
9
6
CONTINUOUS
70
0
71
3
72
12
73
8
74
6
42
0.0000001000
43
0.0000001000
44
0.0000000001
12
-0.8651113192
22
-0.0575422983
32
0.0000000000
13
-0.6071822222
23
-0.6179358631
33
0.0000000000
40
0.0000000000
40
0.0000000000
40
0.0000000000
40
0.0000000000
40
0.1336658455
40
0.3401358579
40
0.5542540086
40
0.7747871244
40
1.0000000000
40
1.0000000000
40
1.0000000000
40
1.0000000000
10
-53.4188578906
20
-19.5398861524
30
0.0000000000
10
-53.4574031692
20
-19.5424499657
30
0.0000000000
10
-53.5552267177
20
-19.5538235804
30
0.0000000000
10
-53.7112403381
20
-19.5920684351
30
0.0000000000
10
-53.8828994380
20
-19.6634627336
30
0.0000000000
10
-54.0457630420
20
-19.7638769305
30
0.0000000000
10
-54.1435352563
20
-19.8486213473
30
0.0000000000
10
-54.1891170078
20
-19.8950103849
30
0.0000000000
11
-53.4188578906
21
-19.5398861524
31
0.0000000000
11
-53.5339668031
21
-19.5532572151
31
0.0000000000
11
-53.7076952878
21
-19.5958338133
31
0.0000000000
11
-53.8789737019
21
-19.6670535568
31
0.0000000000
11
-54.0416109320
21
-19.7673048352
31
0.0000000000
11
-54.1891170078
21
-19.8950103849
31
0.0000000000
0
SPLINE
5
3E1
100
AcDbEntity
8
0
100
AcDbSpline
62
9
6
CONTINUOUS
70
0
71
3
72
10
73
6
74
4
42
0.0000001000
43
0.0000001000
44
0.0000000001
12
-0.2574051174
22
-0.2574051174
32
0.0000000000
13
-0.3320811560
23
0.1491204037
33
0.0000000000
40
0.0000000000
40
0.0000000000
40
0.0000000000
40
0.0000000000
40
0.2874869799
40
0.6159234749
40
1.0000000000
40
1.0000000000
40
1.0000000000
40
1.0000000000
10
-54.9372764832
20
-20.9843180147
30
0.0000000000
10
-54.9619433564
20
-21.0089848880
30
0.0000000000
10
-55.0309508153
20
-21.0468332590
30
0.0000000000
10
-55.1549308888
20
-21.0503701760
30
0.0000000000
10
-55.2395888117
20
-21.0268096133
30
0.0000000000
10
-55.2821036705
20
-21.0077183978
30
0.0000000000
11
-54.9372764832
21
-20.9843180147
31
0.0000000000
11
-55.0279652039
21
-21.0365457794
31
0.0000000000
11
-55.1472508165
21
-21.0446317736
31
0.0000000000
11
-55.2821036705
21
-21.0077183978
31
0.0000000000
0
SPLINE
5
3E2
100
AcDbEntity
8
0
100
AcDbSpline
62
9
6
CONTINUOUS
70
0
71
3
72
10
73
6
74
4
42
0.0000001000
43
0.0000001000
44
0.0000000001
12
-0.2575736119
22
-0.2575735982
32
0.0000000000
13
-0.3279763085
23
0.1584924764
33
0.0000000000
40
0.0000000000
40
0.0000000000
40
0.0000000000
40
0.0000000000
40
0.2770496401
40
0.6053084077
40
1.0000000000
40
1.0000000000
40
1.0000000000
40
1.0000000000
10
-53.8442898204
20
-19.8913313519
30
0.0000000000
10
-53.8680767126
20
-19.9151182428
30
0.0000000000
10
-53.9379269139
20
-19.9499676705
30
0.0000000000
10
-54.0622394366
20
-19.9456673233
30
0.0000000000
10
-54.1459671774
20
-19.9158622634
30
0.0000000000
10
-54.1891170079
20
-19.8950103808
30
0.0000000000
11
-53.8442898204
21
-19.8913313519
31
0.0000000000
11
-53.9331482410
21
-19.9391735177
31
0.0000000000
11
-54.0527143159
21
-19.9404491916
31
0.0000000000
11
-54.1891170079
21
-19.8950103808
31
0.0000000000
0
SPLINE
5
3E3
100
AcDbEntity
8
0
100
AcDbSpline
62
9
6
CONTINUOUS
70
0
71
3
72
10
73
6
74
4
42
0.0000001000
43
0.0000001000
44
0.0000000001
12
-1.0929853170
22
-1.1127203814
32
0.0000000000
13
-1.0929990451
23
-1.1127068966
33
0.0000000000
40
0.0000000000
40
0.0000000000
40
0.0000000000
40
0.0000000000
40
0.3144638729
40
0.6481786461
40
1.0000000000
40
1.0000000000
40
1.0000000000
40
1.0000000000
10
-54.1891170078
20
-19.8950103849
30
0.0000000000
10
-54.3036851397
20
-20.0116471718
30
0.0000000000
10
-54.5398361341
20
-20.2520599743
30
0.0000000000
10
-54.9041638078
20
-20.6229675199
30
0.0000000000
10
-55.1539343892
20
-20.8772274345
30
0.0000000000
10
-55.2821145238
20
-21.0077187834
30
0.0000000000
11
-54.1891170078
21
-19.8950103849
31
0.0000000000
11
-54.5328220805
21
-20.2449200805
31
0.0000000000
11
-54.8975696384
21
-20.6162491388
31
0.0000000000
11
-55.2821145238
21
-21.0077187834
31
0.0000000000
0
SPLINE
5
3E4
100
AcDbEntity
8
0
100
AcDbSpline
62
9
6
CONTINUOUS
70
0
71
3
72
10
73
6
74
4
42
0.0000001000
43
0.0000001000
44
0.0000000001
12
0.1229631098
22
0.0021463291
32
0.0000000000
13
-0.0012235792
23
0.1229757535
33
0.0000000000
40
0.0000000000
40
0.0000000000
40
0.0000000000
40
0.0000000000
40
0.1155814591
40
0.4553121367
40
1.0000000000
40
1.0000000000
40
1.0000000000
40
1.0000000000
10
-55.2821036705
20
-21.1306884717
30
0.0000000000
10
-55.2773662520
20
-21.1306057797
30
0.0000000000
10
-55.2875235314
20
-21.1007450749
30
0.0000000000
10
-55.2776343321
20
-21.0705508248
30
0.0000000000
10
-55.2818815143
20
-21.0300461979
30
0.0000000000
10
-55.2821036705
20
-21.0077183978
30
0.0000000000
11
-55.2821036705
21
-21.1306884717
31
0.0000000000
11
-55.2815784314
21
-21.1164837585
31
0.0000000000
11
-55.2815784314
21
-21.0747030545
31
0.0000000000
11
-55.2821036705
21
-21.0077183978
31
0.0000000000
0
SPLINE
5
3E5
100
AcDbEntity
8
0
100
AcDbSpline
62
9
6
CONTINUOUS
70
0
71
3
72
9
73
5
74
3
42
0.0000001000
43
0.0000001000
44
0.0000000001
12
-3.7743344299
22
-0.0661773468
32
0.0000000000
13
-3.7743344548
23
-0.0661759266
33
0.0000000000
40
0.0000000000
40
0.0000000000
40
0.0000000000
40
0.0000000000
40
0.5001477641
40
1.0000000000
40
1.0000000000
40
1.0000000000
40
1.0000000000
10
-55.2821145238
20
-21.0077187834
30
0.0000000000
10
-55.9113561659
20
-21.0187516008
30
0.0000000000
10
-57.1694676497
20
-21.0408103047
30
0.0000000000
10
-58.4275791309
20
-21.0628691624
30
0.0000000000
10
-59.0564489696
20
-21.0738952240
30
0.0000000000
11
-55.2821145238
21
-21.0077187834
31
0.0000000000
11
-57.1698394565
21
-21.0408168621
31
0.0000000000
11
-59.0564489696
21
-21.0738952240
31
0.0000000000
0
SPLINE
5
3E6
100
AcDbEntity
8
0
100
AcDbSpline
62
9
6
CONTINUOUS
70
0
71
3
72
9
73
5
74
3
42
0.0000001000
43
0.0000001000
44
0.0000000001
12
27.3087304322
22
0.1556049574
32
0.0000000000
13
27.3087219147
23
0.1570926669
33
0.0000000000
40
0.0000000000
40
0.0000000000
40
0.0000000000
40
0.0000000000
40
0.4989113277
40
1.0000000000
40
1.0000000000
40
1.0000000000
40
1.0000000000
10
-63.2529584685
20
-17.3594294128
30
0.0000000000
10
-58.7114134823
20
-17.3335517208
30
0.0000000000
10
-49.6085040309
20
-17.2815617748
30
0.0000000000
10
-40.5055960005
20
-17.2293235984
30
0.0000000000
10
-35.9442322652
20
-17.2030844798
30
0.0000000000
11
-63.2529584685
21
-17.3594294128
31
0.0000000000
11
-49.6283245548
21
-17.2816131872
31
0.0000000000
11
-35.9442322652
21
-17.2030844798
31
0.0000000000
0
SPLINE
5
3E7
100
AcDbEntity
8
0
100
AcDbSpline
62
9
6
CONTINUOUS
70
0
71
3
72
12
73
8
74
6
42
0.0000001000
43
0.0000001000
44
0.0000000001
12
0.0087245994
22
0.4999842547
32
0.0000000000
13
-0.4999842083
23
0.0087272568
33
0.0000000000
40
0.0000000000
40
0.0000000000
40
0.0000000000
40
0.0000000000
40
0.3089080285
40
0.5875697730
40
0.8087322672
40
0.9507851324
40
1.0000000000
40
1.0000000000
40
1.0000000000
40
1.0000000000
10
-36.9442322652
20
17.3999238360
30
0.0000000000
10
-36.9433338990
20
17.4514068861
30
0.0000000000
10
-36.9411229867
20
17.5502629660
30
0.0000000000
10
-36.9428345167
20
17.6814887391
30
0.0000000000
10
-36.9351666275
20
17.7976376774
30
0.0000000000
10
-36.9502995246
20
17.8488826145
30
0.0000000000
10
-36.9360300464
20
17.8997045133
30
0.0000000000
10
-36.9442322652
20
17.8998476836
30
0.0000000000
11
-36.9442322652
21
17.3999238360
31
0.0000000000
11
-36.9419639733
21
17.5543798442
31
0.0000000000
11
-36.9407714853
21
17.6937224367
31
0.0000000000
11
-36.9407714853
21
17.8043170353
31
0.0000000000
11
-36.9419639733
21
17.8753420336
31
0.0000000000
11
-36.9442322652
21
17.8998476836
31
0.0000000000
0
SPLINE
5
3E8
100
AcDbEntity
8
0
100
AcDbSpline
62
9
6
CONTINUOUS
70
0
71
3
72
10
73
6
74
4
42
0.0000001000
43
0.0000001000
44
0.0000000001
12
0.0000093703
22
-0.2866519788
32
0.0000000000
13
-0.1260516491
23
-0.2574496820
33
0.0000000000
40
0.0000000000
40
0.0000000000
40
0.0000000000
40
0.0000000000
40
0.3429792060
40
0.6773809877
40
1.0000000000
40
1.0000000000
40
1.0000000000
40
1.0000000000
10
-45.9529584685
20
-3.0633874670
30
0.0000000000
10
-45.9529573972
20
-3.0961593563
30
0.0000000000
10
-45.9577453640
20
-3.1609952752
30
0.0000000000
10
-45.9789772572
20
-3.2544935695
30
0.0000000000
10
-46.0021356986
20
-3.3131663717
30
0.0000000000
10
-46.0156912515
20
-3.3408524258
30
0.0000000000
11
-45.9529584685
21
-3.0633874670
31
0.0000000000
11
-45.9602656487
21
-3.1614312109
31
0.0000000000
11
-45.9816129019
21
-3.2548809101
31
0.0000000000
11
-46.0156912515
21
-3.3408524258
31
0.0000000000
0
SPLINE
5
3E9
100
AcDbEntity
8
0
100
AcDbSpline
62
9
6
CONTINUOUS
70
0
71
3
72
11
73
7
74
5
42
0.0000001000
43
0.0000001000
44
0.0000000001
12
0.0043660157
22
-0.4329360741
32
0.0000000000
13
-0.0087018381
23
-0.4328706324
33
0.0000000000
40
0.0000000000
40
0.0000000000
40
0.0000000000
40
0.0000000000
40
0.3003959469
40
0.5780271010
40
0.8162330184
40
1.0000000000
40
1.0000000000
40
1.0000000000
40
1.0000000000
10
-35.9442322652
20
5.6211769314
30
0.0000000000
10
-35.9437950874
20
5.5778261841
30
0.0000000000
10
-35.9431420912
20
5.4944079423
30
0.0000000000
10
-35.9427743419
20
5.3766095921
30
0.0000000000
10
-35.9430507044
20
5.2756433652
30
0.0000000000
10
-35.9436992284
20
5.2147459559
30
0.0000000000
10
-35.9442322652
20
5.1882301794
30
0.0000000000
11
-35.9442322652
21
5.6211769314
31
0.0000000000
11
-35.9432223988
21
5.4911219971
31
0.0000000000
11
-35.9428829288
21
5.3709198227
31
0.0000000000
11
-35.9432257533
21
5.2677872138
31
0.0000000000
11
-35.9442322652
21
5.1882301794
31
0.0000000000
0
SPLINE
5
3EA
100
AcDbEntity
8
0
100
AcDbSpline
62
9
6
CONTINUOUS
70
0
71
3
72
9
73
5
74
3
42
0.0000001000
43
0.0000001000
44
0.0000000001
12
27.3087314319
22
0.1655980305
32
0.0000000000
13
27.3087209000
23
0.1673258338
33
0.0000000000
40
0.0000000000
40
0.0000000000
40
0.0000000000
40
0.0000000000
40
0.4989113180
40
1.0000000000
40
1.0000000000
40
1.0000000000
40
1.0000000000
10
-63.2529584685
20
-16.1196592168
30
0.0000000000
10
-58.7114134049
20
-16.0921196396
30
0.0000000000
10
-49.6085037852
20
-16.0367787722
30
0.0000000000
10
-40.5055959198
20
-15.9811500787
30
0.0000000000
10
-35.9442322652
20
-15.9532017181
30
0.0000000000
11
-63.2529584685
21
-16.1196592168
31
0.0000000000
11
-49.6283245701
21
-16.0368276259
31
0.0000000000
11
-35.9442322652
21
-15.9532017181
31
0.0000000000
0
SPLINE
5
3EB
100
AcDbEntity
8
0
100
AcDbSpline
62
7
6
CONTINUOUS
70
0
71
3
72
8
73
4
74
2
42
0.0000001000
43
0.0000001000
44
0.0000000001
12
0.0042580408
22
0.0223547630
32
0.0000000000
13
0.0064277082
23
0.0218738566
33
0.0000000000
40
0.0000000000
40
0.0000000000
40
0.0000000000
40
0.0000000000
40
1.0000000000
40
1.0000000000
40
1.0000000000
40
1.0000000000
10
-59.2494261836
20
-21.3591170407
30
0.0000000000
10
-59.2480068367
20
-21.3516654530
30
0.0000000000
10
-59.2461968618
20
-21.3442873635
30
0.0000000000
10
-59.2440542925
20
-21.3369960780
30
0.0000000000
11
-59.2494261836
21
-21.3591170407
31
0.0000000000
11
-59.2440542925
21
-21.3369960780
31
0.0000000000
0
SPLINE
5
3EC
100
AcDbEntity
8
0
100
AcDbSpline
62
7
6
CONTINUOUS
70
0
71
3
72
11
73
7
74
5
42
0.0000001000
43
0.0000001000
44
0.0000000001
12
0.0820493346
22
0.2792185542
32
0.0000000000
13
0.1983766879
23
0.2122027498
33
0.0000000000
40
0.0000000000
40
0.0000000000
40
0.0000000000
40
0.0000000000
40
0.1662433555
40
0.4485178538
40
0.7687281385
40
1.0000000000
40
1.0000000000
40
1.0000000000
40
1.0000000000
10
-59.2440542925
20
-21.3369960780
30
0.0000000000
10
-59.2395075735
20
-21.3215233349
30
0.0000000000
10
-59.2231998199
20
-21.2808331323
30
0.0000000000
10
-59.1834827460
20
-21.2175560503
30
0.0000000000
10
-59.1320046181
20
-21.1551932654
30
0.0000000000
10
-59.0958486966
20
-21.1158946965
30
0.0000000000
10
-59.0805557147
20
-21.0995358549
30
0.0000000000
11
-59.2440542925
21
-21.3369960780
31
0.0000000000
11
-59.2264754463
21
-21.2918777030
31
0.0000000000
11
-59.1841101215
21
-21.2216727762
31
0.0000000000
11
-59.1258033025
21
-21.1491986070
31
0.0000000000
11
-59.0805557147
21
-21.0995358549
31
0.0000000000
0
SPLINE
5
3ED
100
AcDbEntity
8
0
100
AcDbSpline
62
7
6
CONTINUOUS
70
0
71
3
72
8
73
4
74
2
42
0.0000001000
43
0.0000001000
44
0.0000000001
12
0.0240338110
22
0.0257088716
32
0.0000000000
13
0.0241451908
23
0.0256042345
33
0.0000000000
40
0.0000000000
40
0.0000000000
40
0.0000000000
40
0.0000000000
40
1.0000000000
40
1.0000000000
40
1.0000000000
40
1.0000000000
10
-59.0805557147
20
-21.0995358549
30
0.0000000000
10
-59.0725444443
20
-21.0909662310
30
0.0000000000
10
-59.0644973665
20
-21.0824299688
30
0.0000000000
10
-59.0564489696
20
-21.0738952240
30
0.0000000000
11
-59.0805557147
21
-21.0995358549
31
0.0000000000
11
-59.0564489696
21
-21.0738952240
31
0.0000000000
0
SPLINE
5
3EE
100
AcDbEntity
8
0
100
AcDbSpline
62
9
6
CONTINUOUS
70
0
71
3
72
12
73
8
74
6
42
0.0000001000
43
0.0000001000
44
0.0000000001
12
-0.1226599341
22
-0.0021516084
32
0.0000000000
13
0.0004883483
23
0.1226778316
33
0.0000000000
40
0.0000000000
40
0.0000000000
40
0.0000000000
40
0.0000000000
40
0.0326993689
40
0.1415543368
40
0.3380028452
40
0.6256694059
40
1.0000000000
40
1.0000000000
40
1.0000000000
40
1.0000000000
10
-59.0564489494
20
-21.1965699366
30
0.0000000000
10
-59.0577859168
20
-21.1965933887
30
0.0000000000
10
-59.0546621205
20
-21.1872783253
30
0.0000000000
10
-59.0580865890
20
-21.1771609256
30
0.0000000000
10
-59.0559899615
20
-21.1506108974
30
0.0000000000
10
-59.0569107144
20
-21.1166066528
30
0.0000000000
10
-59.0565099102
20
-21.0892014351
30
0.0000000000
10
-59.0564489757
20
-21.0738940799
30
0.0000000000
11
-59.0564489494
21
-21.1965699366
31
0.0000000000
11
-59.0565859305
21
-21.1925607565
31
0.0000000000
11
-59.0566686838
21
-21.1792068157
31
0.0000000000
11
-59.0566798560
21
-21.1551067503
31
0.0000000000
11
-59.0566080005
21
-21.1198162340
31
0.0000000000
11
-59.0564489757
21
-21.0738940799
31
0.0000000000
0
SPLINE
5
3EF
100
AcDbEntity
8
0
100
AcDbSpline
62
7
6
CONTINUOUS
70
0
71
3
72
24
73
20
74
18
42
0.0000001000
43
0.0000001000
44
0.0000000001
12
-5.0246930006
22
0.0398413077
32
0.0000000000
13
4.0760926565
23
-2.9441657016
33
0.0000000000
40
0.0000000000
40
0.0000000000
40
0.0000000000
40
0.0000000000
40
0.0560522173
40
0.1115480270
40
0.2198206922
40
0.3228412948
40
0.3955780061
40
0.4637169681
40
0.5267432001
40
0.5843213490
40
0.6365009948
40
0.6839858001
40
0.7279388919
40
0.7699964355
40
0.8122183066
40
0.8566275291
40
0.9047808738
40
0.9577549744
40
1.0000000000
40
1.0000000000
40
1.0000000000
40
1.0000000000
10
-41.5009525862
20
2.6904351174
30
0.0000000000
10
-41.5948343141
20
2.6911795153
30
0.0000000000
10
-41.7816766818
20
2.6886024172
30
0.0000000000
10
-42.1492926327
20
2.6673544269
30
0.0000000000
10
-42.5933151455
20
2.6123084603
30
0.0000000000
10
-43.0585917369
20
2.5094246574
30
0.0000000000
10
-43.4475647117
20
2.3832193433
30
0.0000000000
10
-43.7620463485
20
2.2488229372
30
0.0000000000
10
-44.0389487411
20
2.0950576243
30
0.0000000000
10
-44.2735248988
20
1.9240864015
30
0.0000000000
10
-44.4609416070
20
1.7373451504
30
0.0000000000
10
-44.5983818792
20
1.5380287383
30
0.0000000000
10
-44.6833164556
20
1.3290158310
30
0.0000000000
10
-44.7124830877
20
1.1137234358
30
0.0000000000
10
-44.6831145412
20
0.8977216619
30
0.0000000000
10
-44.5981675897
20
0.6864649362
30
0.0000000000
10
-44.4608483684
20
0.4832609220
30
0.0000000000
10
-44.2925748578
20
0.3105051519
30
0.0000000000
10
-44.1674608120
20
0.2111766983
30
0.0000000000
10
-44.1100625991
20
0.1697179132
30
0.0000000000
11
-41.5009525862
21
2.6904351174
31
0.0000000000
11
-41.7825340160
21
2.6865177484
31
0.0000000000
11
-42.0608806422
21
2.6703934976
31
0.0000000000
11
-42.6006028824
21
2.6025751168
31
0.0000000000
11
-43.1055861048
21
2.4890815073
31
0.0000000000
11
-43.4529252633
21
2.3755198306
31
0.0000000000
11
-43.7672687110
21
2.2399467095
31
0.0000000000
11
-44.0433363610
21
2.0848609036
31
0.0000000000
11
-44.2758481259
21
1.9127611726
31
0.0000000000
11
-44.4601199770
21
1.7262995627
31
0.0000000000
11
-44.5938521177
21
1.5287412665
31
0.0000000000
11
-44.6753408101
21
1.3235047632
31
0.0000000000
11
-44.7028823160
21
1.1140085319
31
0.0000000000
11
-44.6753408101
21
0.9036796365
31
0.0000000000
11
-44.5938521177
21
0.6959794807
31
0.0000000000
11
-44.4601199770
21
0.4943780528
31
0.0000000000
11
-44.2758481259
21
0.3023453412
31
0.0000000000
11
-44.1100625991
21
0.1697179132
31
0.0000000000
0
SPLINE
5
3F0
100
AcDbEntity
8
0
100
AcDbSpline
62
7
6
CONTINUOUS
70
0
71
3
72
19
73
15
74
13
42
0.0000001000
43
0.0000001000
44
0.0000000001
12
-3.2664543966
22
0.0215052073
32
0.0000000000
13
-0.0001211402
23
-3.2738165952
33
0.0000000000
40
0.0000000000
40
0.0000000000
40
0.0000000000
40
0.0000000000
40
0.0729409131
40
0.1451269014
40
0.2858803088
40
0.4197110769
40
0.5141470893
40
0.6025797572
40
0.6843558565
40
0.7590539721
40
0.8267492841
40
0.8883620614
40
0.9454054176
40
1.0000000000
40
1.0000000000
40
1.0000000000
40
1.0000000000
10
-41.5009525862
20
2.0073184052
30
0.0000000000
10
-41.5803719749
20
2.0078412750
30
0.0000000000
10
-41.7383934700
20
2.0054504698
30
0.0000000000
10
-42.0491634171
20
1.9870708831
30
0.0000000000
10
-42.4242826968
20
1.9400555703
30
0.0000000000
10
-42.8171339554
20
1.8526196712
30
0.0000000000
10
-43.1453240370
20
1.7456228660
30
0.0000000000
10
-43.4104958397
20
1.6318373010
30
0.0000000000
10
-43.6438682275
20
1.5017757106
30
0.0000000000
10
-43.8414855604
20
1.3572698259
30
0.0000000000
10
-43.9993208614
20
1.1995399493
30
0.0000000000
10
-44.1150282779
20
1.0312641904
30
0.0000000000
10
-44.1865026495
20
0.8548594431
30
0.0000000000
10
-44.2029562639
20
0.7330162662
30
0.0000000000
10
-44.2029584685
20
0.6734387163
30
0.0000000000
11
-41.5009525862
21
2.0073184052
31
0.0000000000
11
-41.7391499464
21
2.0036850429
31
0.0000000000
11
-41.9744963318
21
1.9897346487
31
0.0000000000
11
-42.4305322566
21
1.9318037641
31
0.0000000000
11
-42.8568525189
21
1.8353677504
31
0.0000000000
11
-43.1498728892
21
1.7391027948
31
0.0000000000
11
-43.4149102472
21
1.6243297313
31
0.0000000000
11
-43.6475635521
21
1.4931634626
31
0.0000000000
11
-43.8434317627
21
1.3477188918
31
0.0000000000
11
-43.9986126760
21
1.1902356571
31
0.0000000000
11
-44.1111994405
21
1.0234523391
31
0.0000000000
11
-44.1797840425
21
0.8502322535
31
0.0000000000
11
-44.2029584685
21
0.6734387163
31
0.0000000000
0
SPLINE
5
3F1
100
AcDbEntity
8
0
100
AcDbSpline
62
7
6
CONTINUOUS
70
0
71
3
72
8
73
4
74
2
42
0.0000001000
43
0.0000001000
44
0.0000000001
12
-0.0700961991
22
0.0743323221
32
0.0000000000
13
-0.0674983133
23
0.0767462931
33
0.0000000000
40
0.0000000000
40
0.0000000000
40
0.0000000000
40
0.0000000000
40
1.0000000000
40
1.0000000000
40
1.0000000000
40
1.0000000000
10
-59.0564489692
20
21.0738952240
30
0.0000000000
10
-59.0798143689
20
21.0986726647
30
0.0000000000
10
-59.1031686705
20
21.1234628570
30
0.0000000000
10
-59.1256681083
20
21.1490449547
30
0.0000000000
11
-59.0564489692
21
21.0738952240
31
0.0000000000
11
-59.1256681083
21
21.1490449547
31
0.0000000000
0
SPLINE
5
3F2
100
AcDbEntity
8
0
100
AcDbSpline
62
7
6
CONTINUOUS
70
0
71
3
72
10
73
6
74
4
42
0.0000001000
43
0.0000001000
44
0.0000000001
12
-0.1626947158
22
0.1849856053
32
0.0000000000
13
-0.0460799244
23
0.2419169191
33
0.0000000000
40
0.0000000000
40
0.0000000000
40
0.0000000000
40
0.0000000000
40
0.3773927299
40
0.7109100800
40
1.0000000000
40
1.0000000000
40
1.0000000000
40
1.0000000000
10
-59.1256681083
20
21.1490449547
30
0.0000000000
10
-59.1461347092
20
21.1723156955
30
0.0000000000
10
-59.1833559835
20
21.2173861015
30
0.0000000000
10
-59.2271893082
20
21.2871483566
30
0.0000000000
10
-59.2449857697
20
21.3358051265
30
0.0000000000
10
-59.2494261836
20
21.3591170407
30
0.0000000000
11
-59.1256681083
21
21.1490449547
31
0.0000000000
11
-59.1839454810
21
21.2214427132
31
0.0000000000
11
-59.2264122535
21
21.2917462561
31
0.0000000000
11
-59.2494261836
21
21.3591170407
31
0.0000000000
0
SPLINE
5
3F3
100
AcDbEntity
8
0
100
AcDbSpline
62
7
6
CONTINUOUS
70
0
71
3
72
12
73
8
74
6
42
0.0000001000
43
0.0000001000
44
0.0000000001
12
0.4925592720
22
0.2040777874
32
0.0000000000
13
0.4821723502
23
0.2277775999
33
0.0000000000
40
0.0000000000
40
0.0000000000
40
0.0000000000
40
0.0000000000
40
0.2980375372
40
0.5723966929
40
0.7969129787
40
0.9464980635
40
1.0000000000
40
1.0000000000
40
1.0000000000
40
1.0000000000
10
-36.9442322652
20
9.6928932188
30
0.0000000000
10
-36.8952985478
20
9.7131674992
30
0.0000000000
10
-36.8013637996
20
9.7522120008
30
0.0000000000
10
-36.6706345421
20
9.8067024338
30
0.0000000000
10
-36.5645183852
20
9.8516392590
30
0.0000000000
10
-36.4943783681
20
9.8809227168
30
0.0000000000
10
-36.4615575200
20
9.8959378191
30
0.0000000000
10
-36.4529584685
20
9.9000000000
30
0.0000000000
11
-36.9442322652
21
9.6928932188
31
0.0000000000
11
-36.7974877995
21
9.7538526981
31
0.0000000000
11
-36.6625186518
21
9.8102494711
31
0.0000000000
11
-36.5522042075
21
9.8567220122
31
0.0000000000
11
-36.4788845125
21
9.8881033980
31
0.0000000000
11
-36.4529584685
21
9.9000000000
31
0.0000000000
0
SPLINE
5
3F4
100
AcDbEntity
8
0
100
AcDbSpline
62
9
6
CONTINUOUS
70
0
71
3
72
12
73
8
74
6
42
0.0000001000
43
0.0000001000
44
0.0000000001
12
-0.0004883498
22
0.1226778374
32
0.0000000000
13
0.1226621227
23
-0.0020233436
33
0.0000000000
40
0.0000000000
40
0.0000000000
40
0.0000000000
40
0.0000000000
40
0.3737917305
40
0.6619026752
40
0.8587175028
40
0.9674964534
40
1.0000000000
40
1.0000000000
40
1.0000000000
40
1.0000000000
10
-59.0564489759
20
21.0738940711
30
0.0000000000
10
-59.0565098229
20
21.0891793914
30
0.0000000000
10
-59.0569106165
20
21.1165804838
30
0.0000000000
10
-59.0559877149
20
21.1505942153
30
0.0000000000
10
-59.0580905155
20
21.1771793107
30
0.0000000000
10
-59.0546636388
20
21.1873009003
30
0.0000000000
10
-59.0577779342
20
21.1965918509
30
0.0000000000
10
-59.0564489495
20
21.1965699289
30
0.0000000000
11
-59.0564489759
21
21.0738940711
31
0.0000000000
11
-59.0566078133
21
21.1197501204
31
0.0000000000
11
-59.0566798440
21
21.1550951547
31
0.0000000000
11
-59.0566685955
21
21.1792401608
31
0.0000000000
11
-59.0565856067
21
21.1925847749
31
0.0000000000
11
-59.0564489495
21
21.1965699289
31
0.0000000000
0
SPLINE
5
3F5
100
AcDbEntity
8
0
100
AcDbSpline
62
9
6
CONTINUOUS
70
0
71
3
72
10
73
6
74
4
42
0.0000001000
43
0.0000001000
44
0.0000000001
12
-3.9999999804
22
-0.0702534154
32
0.0000000000
13
-4.0000000196
23
-0.0702511788
33
0.0000000000
40
0.0000000000
40
0.0000000000
40
0.0000000000
40
0.0000000000
40
0.3334720351
40
0.6668053684
40
1.0000000000
40
1.0000000000
40
1.0000000000
40
1.0000000000
10
-59.2529584685
20
-23.2631073613
30
0.0000000000
10
-59.6975878464
20
-23.2709165444
30
0.0000000000
10
-60.5866616680
20
-23.2865315802
30
0.0000000000
10
-61.9199950014
20
-23.3099490111
30
0.0000000000
10
-62.8086989575
20
-23.3255572194
30
0.0000000000
10
-63.2529584685
20
-23.3333596580
30
0.0000000000
11
-59.2529584685
21
-23.2631073613
31
0.0000000000
11
-60.5868466044
21
-23.2865347865
31
0.0000000000
11
-61.9201799378
21
-23.3099522181
31
0.0000000000
11
-63.2529584685
21
-23.3333596580
31
0.0000000000
0
SPLINE
5
3F6
100
AcDbEntity
8
0
100
AcDbSpline
62
9
6
CONTINUOUS
70
0
71
3
72
12
73
8
74
6
42
0.0000001000
43
0.0000001000
44
0.0000000001
12
0.0000000000
22
0.6424171551
32
0.0000000000
13
-0.6423763635
23
0.0072393924
33
0.0000000000
40
0.0000000000
40
0.0000000000
40
0.0000000000
40
0.0000000000
40
0.1580684813
40
0.3341483608
40
0.5361171307
40
0.7612592236
40
1.0000000000
40
1.0000000000
40
1.0000000000
40
1.0000000000
10
-45.9529584685
20
17.5657469528
30
0.0000000000
10
-45.9529584685
20
17.5995955875
30
0.0000000000
10
-45.9716607090
20
17.6718794846
30
0.0000000000
10
-46.0464151211
20
17.7623898601
30
0.0000000000
10
-46.1570208755
20
17.8322225796
30
0.0000000000
10
-46.2935790554
20
17.8770517521
30
0.0000000000
10
-46.3931117880
20
17.8879421671
30
0.0000000000
10
-46.4442322652
20
17.8885182798
30
0.0000000000
11
-45.9529584685
21
17.5657469528
31
0.0000000000
11
-45.9768937721
21
17.6644316622
31
0.0000000000
11
-46.0464080879
21
17.7536681777
31
0.0000000000
11
-46.1548460310
21
17.8249128868
31
0.0000000000
11
-46.2918256209
21
17.8713447347
31
0.0000000000
11
-46.4442322652
21
17.8885182798
31
0.0000000000
0
SPLINE
5
3F7
100
AcDbEntity
8
0
100
AcDbSpline
62
9
6
CONTINUOUS
70
0
71
3
72
12
73
8
74
6
42
0.0000001000
43
0.0000001000
44
0.0000000001
12
-0.0000000000
22
0.6346964161
32
0.0000000000
13
-0.6346588822
23
0.0069024527
33
0.0000000000
40
0.0000000000
40
0.0000000000
40
0.0000000000
40
0.0000000000
40
0.1547141645
40
0.3290847509
40
0.5313827638
40
0.7584569326
40
1.0000000000
40
1.0000000000
40
1.0000000000
40
1.0000000000
10
-45.9529584685
20
16.9518826881
30
0.0000000000
10
-45.9529584685
20
16.9846148634
30
0.0000000000
10
-45.9719599772
20
17.0549305834
30
0.0000000000
10
-46.0469739840
20
17.1420763757
30
0.0000000000
10
-46.1574458646
20
17.2092197279
30
0.0000000000
10
-46.2938064949
20
17.2523433671
30
0.0000000000
10
-46.3931331142
20
17.2628184886
30
0.0000000000
10
-46.4442322653
20
17.2633742351
30
0.0000000000
11
-45.9529584685
21
16.9518826881
31
0.0000000000
11
-45.9768932003
21
17.0471175886
31
0.0000000000
11
-46.0464065537
21
17.1332353614
31
0.0000000000
11
-46.1548440876
21
17.2019907421
31
0.0000000000
11
-46.2918242532
21
17.2468005603
31
0.0000000000
11
-46.4442322653
21
17.2633742351
31
0.0000000000
0
SPLINE
5
3F8
100
AcDbEntity
8
0
100
AcDbSpline
62
9
6
CONTINUOUS
70
0
71
3
72
11
73
7
74
5
42
0.0000001000
43
0.0000001000
44
0.0000000001
12
0.0024304519
22
-1.2459563256
32
0.0000000000
13
-0.0018999217
23
-1.2459572476
33
0.0000000000
40
0.0000000000
40
0.0000000000
40
0.0000000000
40
0.0000000000
40
0.2242615160
40
0.4703242632
40
0.7313107083
40
1.0000000000
40
1.0000000000
40
1.0000000000
40
1.0000000000
10
-46.4442324904
20
17.2633661984
30
0.0000000000
10
-46.4440508048
20
17.1702261803
30
0.0000000000
10
-46.4437911733
20
16.9748914401
30
0.0000000000
10
-46.4436719254
20
16.6711637844
30
0.0000000000
10
-46.4438061361
20
16.3489844104
30
0.0000000000
10
-46.4440624072
20
16.1289998398
30
0.0000000000
10
-46.4442325701
20
16.0174080496
30
0.0000000000
11
-46.4442324904
21
17.2633661984
31
0.0000000000
11
-46.4438448015
21
16.9839458813
31
0.0000000000
11
-46.4437144891
21
16.6773618894
31
0.0000000000
11
-46.4438447730
21
16.3521835846
31
0.0000000000
11
-46.4442325701
21
16.0174080496
31
0.0000000000
0
SPLINE
5
3F9
100
AcDbEntity
8
0
100
AcDbSpline
62
9
6
CONTINUOUS
70
0
71
3
72
10
73
6
74
4
42
0.0000001000
43
0.0000001000
44
0.0000000001
12
-0.1771438668
22
0.0030920577
32
0.0000000000
13
-0.0054181854
23
-0.1770879827
33
0.0000000000
40
0.0000000000
40
0.0000000000
40
0.0000000000
40
0.0000000000
40
0.1185946887
40
0.4639034716
40
1.0000000000
40
1.0000000000
40
1.0000000000
40
1.0000000000
10
-46.4442322652
20
18.0656708004
30
0.0000000000
10
-46.4512350392
20
18.0657930342
30
0.0000000000
10
-46.4325380166
20
18.0213512770
30
0.0000000000
10
-46.4503307933
20
17.9784556098
30
0.0000000000
10
-46.4432640418
20
17.9201636974
30
0.0000000000
10
-46.4442322652
20
17.8885182798
30
0.0000000000
11
-46.4442322652
21
18.0656708004
31
0.0000000000
11
-46.4434368097
21
18.0446743411
31
0.0000000000
11
-46.4434444742
21
17.9834956907
31
0.0000000000
11
-46.4442322652
21
17.8885182798
31
0.0000000000
0
SPLINE
5
3FA
100
AcDbEntity
8
0
100
AcDbSpline
62
9
6
CONTINUOUS
70
0
71
3
72
10
73
6
74
4
42
0.0000001000
43
0.0000001000
44
0.0000000001
12
0.1765333422
22
-0.0030814009
32
0.0000000000
13
-0.0018709063
23
-0.1765503204
33
0.0000000000
40
0.0000000000
40
0.0000000000
40
0.0000000000
40
0.0000000000
40
0.1176732778
40
0.4604531437
40
1.0000000000
40
1.0000000000
40
1.0000000000
40
1.0000000000
10
-51.8348840227
20
18.1597649768
30
0.0000000000
10
-51.8279596037
20
18.1596441106
30
0.0000000000
10
-51.8426764237
20
18.1162683876
30
0.0000000000
10
-51.8285084190
20
18.0729307948
30
0.0000000000
10
-51.8345475422
20
18.0149754159
30
0.0000000000
10
-51.8348840227
20
17.9832230258
30
0.0000000000
11
-51.8348840227
21
18.1597649768
31
0.0000000000
11
-51.8340944217
21
18.1390035651
31
0.0000000000
11
-51.8340944220
21
18.0784822721
31
0.0000000000
11
-51.8348840227
21
17.9832230258
31
0.0000000000
0
SPLINE
5
3FB
100
AcDbEntity
8
0
100
AcDbSpline
62
9
6
CONTINUOUS
70
0
71
3
72
10
73
6
74
4
42
0.0000001000
43
0.0000001000
44
0.0000000001
12
5.3906517946
22
-0.0947026423
32
0.0000000000
13
5.3906517205
23
-0.0947068570
33
0.0000000000
40
0.0000000000
40
0.0000000000
40
0.0000000000
40
0.0000000000
40
0.3331449304
40
0.6664782638
40
1.0000000000
40
1.0000000000
40
1.0000000000
40
1.0000000000
10
-51.8348840227
20
17.9832230258
30
0.0000000000
10
-51.2362612504
20
17.9727064574
30
0.0000000000
10
-50.0386771703
20
17.9516672169
30
0.0000000000
10
-48.2417932510
20
17.9200989745
30
0.0000000000
10
-47.0435321057
20
17.8990472029
30
0.0000000000
10
-46.4442322652
20
17.8885182711
30
0.0000000000
11
-51.8348840227
21
17.9832230258
31
0.0000000000
11
-50.0390157099
21
17.9516730877
31
0.0000000000
11
-48.2421317906
21
17.9201048398
31
0.0000000000
11
-46.4442322652
21
17.8885182711
31
0.0000000000
0
SPLINE
5
3FC
100
AcDbEntity
8
0
100
AcDbSpline
62
9
6
CONTINUOUS
70
0
71
3
72
10
73
6
74
4
42
0.0000001000
43
0.0000001000
44
0.0000000001
12
-0.2587630833
22
0.2587631680
32
0.0000000000
13
-0.3192274048
23
-0.1789149921
33
0.0000000000
40
0.0000000000
40
0.0000000000
40
0.0000000000
40
0.0000000000
40
0.2616091240
40
0.5902968116
40
1.0000000000
40
1.0000000000
40
1.0000000000
40
1.0000000000
10
-52.3176421211
20
18.3646835805
30
0.0000000000
10
-52.3402070490
20
18.3872485157
30
0.0000000000
10
-52.4116800928
20
18.4174997677
30
0.0000000000
10
-52.5354936447
20
18.4014975839
30
0.0000000000
10
-52.6188731086
20
18.3652044937
30
0.0000000000
10
-52.6624692705
20
18.3407704795
30
0.0000000000
11
-52.3176421211
21
18.3646835805
31
0.0000000000
11
-52.4038751790
21
18.4062651890
31
0.0000000000
11
-52.5238690407
21
18.3979438453
31
0.0000000000
11
-52.6624692705
21
18.3407704795
31
0.0000000000
0
SPLINE
5
3FD
100
AcDbEntity
8
0
100
AcDbSpline
62
9
6
CONTINUOUS
70
0
71
3
72
13
73
9
74
7
42
0.0000001000
43
0.0000001000
44
0.0000000001
12
0.6473987602
22
-0.6590927705
32
0.0000000000
13
0.9237331342
23
-0.0156694495
33
0.0000000000
40
0.0000000000
40
0.0000000000
40
0.0000000000
40
0.0000000000
40
0.1155216738
40
0.2477491030
40
0.3997403354
40
0.5747277572
40
0.7758510207
40
1.0000000000
40
1.0000000000
40
1.0000000000
40
1.0000000000
10
-52.6624692724
20
18.3407704055
30
0.0000000000
10
-52.6375397430
20
18.3153905722
30
0.0000000000
10
-52.5816477140
20
18.2632890498
30
0.0000000000
10
-52.4838799112
20
18.1881475720
30
0.0000000000
10
-52.3627266171
20
18.1145814399
30
0.0000000000
10
-52.2136859286
20
18.0482202457
30
0.0000000000
10
-52.0349395674
20
17.9983910652
30
0.0000000000
10
-51.9039019691
20
17.9843937895
30
0.0000000000
10
-51.8348840227
20
17.9832230258
30
0.0000000000
11
-52.6624692724
21
18.3407704055
31
0.0000000000
11
-52.5843942001
21
18.2680047576
31
0.0000000000
11
-52.4875292849
21
18.1935711714
31
0.0000000000
11
-52.3674946576
21
18.1207059925
31
0.0000000000
11
-52.2197949986
21
18.0549765345
31
0.0000000000
11
-52.0408122537
21
18.0050677550
31
0.0000000000
11
-51.8348840227
21
17.9832230258
31
0.0000000000
0
SPLINE
5
3FE
100
AcDbEntity
8
0
100
AcDbSpline
62
9
6
CONTINUOUS
70
0
71
3
72
10
73
6
74
4
42
0.0000001000
43
0.0000001000
44
0.0000000001
12
-0.2574028754
22
0.2574028755
32
0.0000000000
13
-0.3320876738
23
-0.1490981471
33
0.0000000000
40
0.0000000000
40
0.0000000000
40
0.0000000000
40
0.0000000000
40
0.2874716891
40
0.6159109923
40
1.0000000000
40
1.0000000000
40
1.0000000000
40
1.0000000000
10
-54.9372764831
20
20.9843180146
30
0.0000000000
10
-54.9619418296
20
21.0089833611
30
0.0000000000
10
-55.0309487292
20
21.0468282971
30
0.0000000000
10
-55.1549269805
20
21.0503643803
30
0.0000000000
10
-55.2395865955
20
21.0268073843
30
0.0000000000
10
-55.2821036705
20
21.0077183978
30
0.0000000000
11
-54.9372764831
21
20.9843180146
31
0.0000000000
11
-55.0279604688
21
21.0365410213
31
0.0000000000
11
-55.1472460630
21
21.0446270057
31
0.0000000000
11
-55.2821036705
21
21.0077183978
31
0.0000000000
0
SPLINE
5
3FF
100
AcDbEntity
8
0
100
AcDbSpline
62
9
6
CONTINUOUS
70
0
71
3
72
10
73
6
74
4
42
0.0000001000
43
0.0000001000
44
0.0000000001
12
2.6196977732
22
-2.6669327216
32
0.0000000000
13
2.6196185947
23
-2.6670104954
33
0.0000000000
40
0.0000000000
40
0.0000000000
40
0.0000000000
40
0.0000000000
40
0.3123183000
40
0.6454780412
40
1.0000000000
40
1.0000000000
40
1.0000000000
40
1.0000000000
10
-55.2821506808
20
21.0077192010
30
0.0000000000
10
-55.0094241625
20
20.7300752364
30
0.0000000000
10
-54.4457411664
20
20.1562897268
30
0.0000000000
10
-53.5725340439
20
19.2672871353
30
0.0000000000
10
-52.9720400442
20
18.6559416671
30
0.0000000000
10
-52.6624692724
20
18.3407704055
30
0.0000000000
11
-55.2821506808
21
21.0077192010
31
0.0000000000
11
-54.4639525752
21
20.1748055297
31
0.0000000000
11
-53.5911864073
21
19.2862794566
31
0.0000000000
11
-52.6624692724
21
18.3407704055
31
0.0000000000
0
SPLINE
5
400
100
AcDbEntity
8
0
100
AcDbSpline
62
9
6
CONTINUOUS
70
0
71
3
72
9
73
5
74
3
42
0.0000001000
43
0.0000001000
44
0.0000000001
12
3.7742983012
22
-0.0661752927
32
0.0000000000
13
3.7742982763
23
-0.0661767129
33
0.0000000000
40
0.0000000000
40
0.0000000000
40
0.0000000000
40
0.0000000000
40
0.4998575324
40
1.0000000000
40
1.0000000000
40
1.0000000000
40
1.0000000000
10
-59.0564489692
20
21.0738952240
30
0.0000000000
10
-58.4275784908
20
21.0628691512
30
0.0000000000
10
-57.1694790589
20
21.0408106129
30
0.0000000000
10
-55.9113796320
20
21.0187517958
30
0.0000000000
10
-55.2821506808
20
21.0077192010
30
0.0000000000
11
-59.0564489692
21
21.0738952240
31
0.0000000000
11
-57.1698375370
21
21.0408168285
31
0.0000000000
11
-55.2821506808
21
21.0077192010
31
0.0000000000
0
SPLINE
5
401
100
AcDbEntity
8
0
100
AcDbSpline
62
9
6
CONTINUOUS
70
0
71
3
72
10
73
6
74
4
42
0.0000001000
43
0.0000001000
44
0.0000000001
12
0.0012235461
22
0.1229757531
32
0.0000000000
13
-0.1229631091
23
0.0021463291
33
0.0000000000
40
0.0000000000
40
0.0000000000
40
0.0000000000
40
0.0000000000
40
0.5446878672
40
0.8844185468
40
1.0000000000
40
1.0000000000
40
1.0000000000
40
1.0000000000
10
-55.2821036705
20
21.0077183978
30
0.0000000000
10
-55.2818815203
20
21.0300461981
30
0.0000000000
10
-55.2776343360
20
21.0705508256
30
0.0000000000
10
-55.2875235671
20
21.1007450741
30
0.0000000000
10
-55.2773662523
20
21.1306057797
30
0.0000000000
10
-55.2821036705
20
21.1306884717
30
0.0000000000
11
-55.2821036705
21
21.0077183978
31
0.0000000000
11
-55.2815784464
21
21.0747030548
31
0.0000000000
11
-55.2815784464
21
21.1164837588
31
0.0000000000
11
-55.2821036705
21
21.1306884717
31
0.0000000000
0
SPLINE
5
402
100
AcDbEntity
8
0
100
AcDbSpline
62
9
6
CONTINUOUS
70
0
71
3
72
11
73
7
74
5
42
0.0000001000
43
0.0000001000
44
0.0000000001
12
-0.0000000000
22
0.3081931716
32
0.0000000000
13
-0.3081602853
23
0.0045021697
33
0.0000000000
40
0.0000000000
40
0.0000000000
40
0.0000000000
40
0.0000000000
40
0.1221209888
40
0.3381111141
40
0.6425707519
40
1.0000000000
40
1.0000000000
40
1.0000000000
40
1.0000000000
10
-33.4529584685
20
-1.9399415037
30
0.0000000000
10
-33.4529584685
20
-1.9273958855
30
0.0000000000
10
-33.4819370434
20
-1.8985372830
30
0.0000000000
10
-33.5431851437
20
-1.8786830356
30
0.0000000000
10
-33.6326779171
20
-1.8609273247
30
0.0000000000
10
-33.7005425152
20
-1.8569608649
30
0.0000000000
10
-33.7372576816
20
-1.8564244625
30
0.0000000000
11
-33.4529584685
21
-1.9399415037
31
0.0000000000
11
-33.4743156606
21
-1.9089511313
31
0.0000000000
11
-33.5353462948
21
-1.8823732306
31
0.0000000000
11
-33.6273606692
21
-1.8639919710
31
0.0000000000
11
-33.7372576816
21
-1.8564244625
31
0.0000000000
0
ENDSEC
0
SECTION
2
OBJECTS
0
DICTIONARY
5
C
100
AcDbDictionary
280
0
281
1
3
ACAD_GROUP
350
D
3
ACAD_MLINESTYLE
350
17
3
ACAD_LAYOUT
350
1A
3
ACAD_PLOTSETTINGS
350
19
3
ACAD_PLOTSTYLENAME
350
E
0
DICTIONARY
5
D
102
{ACAD_REACTORS
330
C
102
}
100
AcDbDictionary
280
0
281
1
0
ACDBDICTIONARYWDFLT
5
E
102
{ACAD_REACTORS
330
C
102
}
100
AcDbDictionary
281
1
3
Normal
350
F
100
AcDbDictionaryWithDefault
340
F
0
DICTIONARY
5
17
102
{ACAD_REACTORS
330
C
102
}
100
AcDbDictionary
280
0
281
1
3
Standard
350
18
0
DICTIONARY
5
19
102
{ACAD_REACTORS
330
C
102
}
100
AcDbDictionary
281
1
0
DICTIONARY
5
1A
102
{ACAD_REACTORS
330
C
102
}
100
AcDbDictionary
281
1
3
Layout1
350
1E
3
Model
350
22
0
ACDBPLACEHOLDER
5
F
102
{ACAD_REACTORS
330
E
102
}
0
MLINESTYLE
5
18
102
{ACAD_REACTORS
330
17
102
}
100
AcDbMlineStyle
2
STANDARD
70
0
3

62
256
51
90.0
52
90.0
71
2
49
0.5
62
256
6
BYLAYER
49
-0.5
62
256
6
BYLAYER
0
LAYOUT
5
1E
102
{ACAD_REACTORS
330
1A
102
}
100
AcDbPlotSettings
1

2

4

6

40
0.0
41
0.0
42
0.0
43
0.0
44
0.0
45
0.0
46
0.0
47
0.0
48
0.0
49
0.0
140
0.0
141
0.0
142
1.0
143
1.0
70
0
72
0
73
0
74
0
7

75
0
147
1.0
148
0.0
149
0.0
100
AcDbLayout
1
Layout1
70
0
71
0
10
0.0
20
0.0
11
0.0
21
0.0
12
0.0
22
0.0
32
0.0
14
0.0
24
0.0
34
0.0
15
0.0
25
0.0
35
0.0
146
0.0
13
0.0
23
0.0
33
0.0
16
0.0
26
0.0
36
0.0
17
0.0
27
0.0
37
0.0
76
0
330
1B
331
0
345
0
346
0
0
LAYOUT
5
22
102
{ACAD_REACTORS
330
1A
102
}
100
AcDbPlotSettings
1

2

4

6

40
0.0
41
0.0
42
0.0
43
0.0
44
0.0
45
0.0
46
0.0
47
0.0
48
0.0
49
0.0
140
0.0
141
0.0
142
1.0
143
1.0
70
0
72
0
73
0
74
0
7

75
0
147
1.0
148
0.0
149
0.0
100
AcDbLayout
1
Model
70
0
71
0
10
0.0
20
0.0
11
0.0
21
0.0
12
0.0
22
0.0
32
0.0
14
0.0
24
0.0
34
0.0
15
0.0
25
0.0
35
0.0
146
0.0
13
0.0
23
0.0
33
0.0
16
0.0
26
0.0
36
0.0
17
0.0
27
0.0
37
0.0
76
0
330
1F
331
0
345
0
346
0
0
ENDSEC
0
EOF
