  0
SECTION
  2
HEADER
  9
$ACADVER
  1
AC1024
  9
$DWGCODEPAGE
  3
ANSI_1252
  9
$EXTMAX
 10
297.0
 20
210.0
 30
0.0
  9
$EXTMIN
 10
0.0
 20
0.0
 30
0.0
  9
$LIMMIN
 10
0.0
 20
0.0
  9
$LIMMAX
 10
297.0
 20
210.0
  9
$VIEWCTR
 10
148.5
 20
105.0
  9
$VIEWSIZE
 40
210.0
  9
$CLAYER
  8
0
  9
$LTSCALE
 40
16.335
  9
$CELTYPE
  6
BYLAYER
  9
$DIMSCALE
 40
1.0
  9
$DIMASZ
 40
3.0
  9
$DIMEXO
 40
0.5
  9
$DIMDLI
 40
11.286
  9
$DIMEXE
 40
1.5
  9
$DIMCEN
 40
2.673
  9
$DIMLFAC
 40
1.0
  9
$DIMBLK
  1
_FILLED
  9
$DIMALT
 70
0
  9
$DIMALTF
 40
0.0393700787
  9
$DIMTXT
 40
3.0
  9
$DIMTOL
 70
1
  9
$DIMLIM
 70
0
  9
$DIMTFAC
 40
1.0
  9
$DIMTP
 40
0.01
  9
$DIMTM
 40
0.01
  9
$DIMGAP
 40
0.625
  9
$DIMDSEP
 70
44
  9
$AUNITS
 70
0
  9
$PDMODE
 70
3
  9
$PDSIZE
 40
3.0
  9
$HANDSEED
  5
7FC
  9
$TILEMODE
 70
1
  9
$MEASUREMENT
 70
1
  9
$INSUNITS
 70
4
  0
ENDSEC
  0
SECTION
  2
CLASSES
  0
CLASS
  1
ACDBDICTIONARYWDFLT
  2
AcDbDictionaryWithDefault
  3
AutoCAD 2000
 90
0
 91
1
280
0
281
0
  0
CLASS
  1
ACDBPLACEHOLDER
  2
AcDbPlaceHolder
  3
AutoCAD 2000
 90
0
 91
1
280
0
281
0
  0
CLASS
  1
LAYOUT
  2
AcDbLayout
  3
AutoCAD 2000
 90
0
 91
0
280
0
281
0
  0
ENDSEC
  0
SECTION
  2
TABLES
  0
TABLE
  2
VPORT
  5
8
100
AcDbSymbolTable
 70
2
  0
VPORT
  5
1F4
100
AcDbSymbolTableRecord
100
AcDbViewportTableRecord
  2
*ACTIVE
 70
0
 10
0.0
 20
0.0
 11
1.0
 21
1.0
 12
148.5
 22
105.0
 13
0.0
 23
0.0
 14
1.0
 24
1.0
 15
0.0
 25
0.0
 16
0.0
 26
0.0
 36
1.0
 17
0.0
 27
0.0
 37
0.0
 40
210.0
 41
1.4142857143
 42
50.0
 43
0.0
 44
0.0
 50
0.0
 51
0.0
 71
0
 72
100
 73
1
 74
1
 75
0
 76
0
 77
0
 78
0
  0
ENDTAB
  0
TABLE
  2
LTYPE
  5
5
100
AcDbSymbolTable
 70
6
  0
LTYPE
  5
14
100
AcDbSymbolTableRecord
100
AcDbLinetypeTableRecord
  2
BYBLOCK
 70
0
  3

 72
65
 73
0
 40
0.0
  0
LTYPE
  5
15
100
AcDbSymbolTableRecord
100
AcDbLinetypeTableRecord
  2
BYLAYER
 70
0
  3

 72
65
 73
0
 40
0.0
  0
LTYPE
  5
16
100
AcDbSymbolTableRecord
100
AcDbLinetypeTableRecord
  2
CONTINUOUS
 70
64
  3
Solid line
 72
65
 73
0
 40
0.0
  0
LTYPE
  5
1F5
100
AcDbSymbolTableRecord
100
AcDbLinetypeTableRecord
  2
CENTER
 70
64
  3
____ _ ____ _ ____ _ ____ _ ____ _ ____ _ ____
 72
65
 73
4
 40
0.6
 49
0.375
 74
0
 49
-0.075
 74
0
 49
0.075
 74
0
 49
-0.075
 74
0
  0
LTYPE
  5
1F6
100
AcDbSymbolTableRecord
100
AcDbLinetypeTableRecord
  2
HIDDEN
 70
64
  3
- - - - - - - - - - - - - - - - - - - -
 72
65
 73
2
 40
0.2
 49
0.1
 74
0
 49
-0.1
 74
0
  0
LTYPE
  5
1F7
100
AcDbSymbolTableRecord
100
AcDbLinetypeTableRecord
  2
PHANTOM
 70
64
  3
_____ _ _ _____ _ _ _____ _ _ _____
 72
65
 73
6
 40
0.8
 49
0.45
 74
0
 49
-0.05
 74
0
 49
0.1
 74
0
 49
-0.05
 74
0
 49
0.1
 74
0
 49
-0.05
 74
0
  0
LTYPE
  5
1F8
100
AcDbSymbolTableRecord
100
AcDbLinetypeTableRecord
  2
DOT
 70
64
  3
. . . . . . . . . . . . . . . . . . . .
 72
65
 73
2
 40
0.2
 49
0.1
 74
0
 49
-0.1
 74
0
  0
LTYPE
  5
1F9
100
AcDbSymbolTableRecord
100
AcDbLinetypeTableRecord
  2
DASHED
 70
64
  3
- - - - - - - - - - - - - - - - - - - -
 72
65
 73
2
 40
0.2
 49
0.1
 74
0
 49
-0.1
 74
0
  0
ENDTAB
  0
TABLE
  2
LAYER
  5
2
100
AcDbSymbolTable
 70
36
  0
LAYER
  5
10
100
AcDbSymbolTableRecord
100
AcDbLayerTableRecord
  2
0
 70
0
 62
7
  6
CONTINUOUS
370
-3
390
F
  0
LAYER
  5
1FA
100
AcDbSymbolTableRecord
100
AcDbLayerTableRecord
  2
DEFAULT_1
 70
0
 62
7
  6
CENTER
370
-3
390
F
  0
LAYER
  5
1FB
100
AcDbSymbolTableRecord
100
AcDbLayerTableRecord
  2
DEFAULT_2
 70
0
 62
7
  6
HIDDEN
370
-3
390
F
  0
LAYER
  5
1FC
100
AcDbSymbolTableRecord
100
AcDbLayerTableRecord
  2
DEFAULT_3
 70
0
 62
7
  6
PHANTOM
370
-3
390
F
  0
LAYER
  5
1FD
100
AcDbSymbolTableRecord
100
AcDbLayerTableRecord
  2
ASSI
 70
0
 62
7
  6
CONTINUOUS
370
-3
390
F
  0
LAYER
  5
1FE
100
AcDbSymbolTableRecord
100
AcDbLayerTableRecord
  2
COLORE_EIKON
 70
0
 62
7
  6
CONTINUOUS
370
-3
390
F
  0
LAYER
  5
1FF
100
AcDbSymbolTableRecord
100
AcDbLayerTableRecord
  2
COORDINATE
 70
0
 62
7
  6
CONTINUOUS
370
-3
390
F
  0
LAYER
  5
200
100
AcDbSymbolTableRecord
100
AcDbLayerTableRecord
  2
COORD_ORIGINE
 70
0
 62
7
  6
CONTINUOUS
370
-3
390
F
  0
LAYER
  5
201
100
AcDbSymbolTableRecord
100
AcDbLayerTableRecord
  2
COPY_PUBLISH
 70
0
 62
7
  6
CONTINUOUS
370
-3
390
F
  0
LAYER
  5
202
100
AcDbSymbolTableRecord
100
AcDbLayerTableRecord
  2
COSMETIC
 70
0
 62
7
  6
CONTINUOUS
370
-3
390
F
  0
LAYER
  5
203
100
AcDbSymbolTableRecord
100
AcDbLayerTableRecord
  2
COSMETICHE
 70
0
 62
7
  6
CONTINUOUS
370
-3
390
F
  0
LAYER
  5
204
100
AcDbSymbolTableRecord
100
AcDbLayerTableRecord
  2
COSMETICI
 70
0
 62
7
  6
CONTINUOUS
370
-3
390
F
  0
LAYER
  5
205
100
AcDbSymbolTableRecord
100
AcDbLayerTableRecord
  2
CURVE
 70
0
 62
7
  6
CONTINUOUS
370
-3
390
F
  0
LAYER
  5
206
100
AcDbSymbolTableRecord
100
AcDbLayerTableRecord
  2
DRAFT
 70
0
 62
7
  6
CONTINUOUS
370
-3
390
F
  0
LAYER
  5
207
100
AcDbSymbolTableRecord
100
AcDbLayerTableRecord
  2
IMPORT_IGES
 70
0
 62
7
  6
CONTINUOUS
370
-3
390
F
  0
LAYER
  5
208
100
AcDbSymbolTableRecord
100
AcDbLayerTableRecord
  2
INTF_1
 70
0
 62
7
  6
CONTINUOUS
370
-3
390
F
  0
LAYER
  5
209
100
AcDbSymbolTableRecord
100
AcDbLayerTableRecord
  2
INTF_11
 70
0
 62
7
  6
CONTINUOUS
370
-3
390
F
  0
LAYER
  5
20A
100
AcDbSymbolTableRecord
100
AcDbLayerTableRecord
  2
INTF_2
 70
0
 62
7
  6
CONTINUOUS
370
-3
390
F
  0
LAYER
  5
20B
100
AcDbSymbolTableRecord
100
AcDbLayerTableRecord
  2
NOTE
 70
0
 62
7
  6
CONTINUOUS
370
-3
390
F
  0
LAYER
  5
20C
100
AcDbSymbolTableRecord
100
AcDbLayerTableRecord
  2
PIANI
 70
0
 62
7
  6
CONTINUOUS
370
-3
390
F
  0
LAYER
  5
20D
100
AcDbSymbolTableRecord
100
AcDbLayerTableRecord
  2
PIANI_ORIGINE
 70
0
 62
7
  6
CONTINUOUS
370
-3
390
F
  0
LAYER
  5
20E
100
AcDbSymbolTableRecord
100
AcDbLayerTableRecord
  2
PUNTI
 70
0
 62
7
  6
CONTINUOUS
370
-3
390
F
  0
LAYER
  5
20F
100
AcDbSymbolTableRecord
100
AcDbLayerTableRecord
  2
RACCORDO
 70
0
 62
7
  6
CONTINUOUS
370
-3
390
F
  0
LAYER
  5
210
100
AcDbSymbolTableRecord
100
AcDbLayerTableRecord
  2
SIMBOLI
 70
0
 62
7
  6
CONTINUOUS
370
-3
390
F
  0
LAYER
  5
211
100
AcDbSymbolTableRecord
100
AcDbLayerTableRecord
  2
SMUSSO
 70
0
 62
7
  6
CONTINUOUS
370
-3
390
F
  0
LAYER
  5
212
100
AcDbSymbolTableRecord
100
AcDbLayerTableRecord
  2
SNAPLINE
 70
0
 62
7
  6
CONTINUOUS
370
-3
390
F
  0
LAYER
  5
213
100
AcDbSymbolTableRecord
100
AcDbLayerTableRecord
  2
SUPERFICI
 70
0
 62
7
  6
CONTINUOUS
370
-3
390
F
  0
LAYER
  5
214
100
AcDbSymbolTableRecord
100
AcDbLayerTableRecord
  2
TRASH
 70
0
 62
7
  6
CONTINUOUS
370
-3
390
F
  0
ENDTAB
  0
TABLE
  2
STYLE
  5
3
100
AcDbSymbolTable
 70
1
  0
STYLE
  5
11
100
AcDbSymbolTableRecord
100
AcDbTextStyleTableRecord
  2
STANDARD
 70
0
 40
0.0
 41
0.8
 50
0.0
 71
0
 42
0.2
  3
txt
  4

  0
STYLE
  5
215
100
AcDbSymbolTableRecord
100
AcDbTextStyleTableRecord
  2
TEXTSTYLE_1
 70
0
 40
0.0
 41
0.8
 50
0.0
 71
0
 42
0.2
  3
gdt
  4

  0
ENDTAB
  0
TABLE
  2
VIEW
  5
6
100
AcDbSymbolTable
 70
0
  0
ENDTAB
  0
TABLE
  2
UCS
  5
7
100
AcDbSymbolTable
 70
0
  0
ENDTAB
  0
TABLE
  2
APPID
  5
9
100
AcDbSymbolTable
 70
1
  0
APPID
  5
216
100
AcDbSymbolTableRecord
100
AcDbRegAppTableRecord
  2
ACAD
 70
0
  0
ENDTAB
  0
TABLE
  2
BLOCK_RECORD
  5
1
100
AcDbSymbolTable
 70
0
  0
BLOCK_RECORD
  5
217
100
AcDbSymbolTableRecord
100
AcDbBlockTableRecord
  2
*Model_Space
  0
BLOCK_RECORD
  5
218
100
AcDbSymbolTableRecord
100
AcDbBlockTableRecord
  2
*Paper_Space
  0
BLOCK_RECORD
  5
219
100
AcDbSymbolTableRecord
100
AcDbBlockTableRecord
  2
_FILLED
  0
BLOCK_RECORD
  5
21A
100
AcDbSymbolTableRecord
100
AcDbBlockTableRecord
  2
*D0
  0
BLOCK_RECORD
  5
21B
100
AcDbSymbolTableRecord
100
AcDbBlockTableRecord
  2
*D1
  0
BLOCK_RECORD
  5
21C
100
AcDbSymbolTableRecord
100
AcDbBlockTableRecord
  2
*D2
  0
BLOCK_RECORD
  5
21D
100
AcDbSymbolTableRecord
100
AcDbBlockTableRecord
  2
*D3
  0
ENDTAB
  0
TABLE
  2
DIMSTYLE
  5
A
100
AcDbSymbolTable
 70
1
100
AcDbDimStyleTable
 71
0
  0
DIMSTYLE
105
21E
100
AcDbSymbolTableRecord
100
AcDbDimStyleTableRecord
  2
STANDARD
 70
0
  3

  4

 40
1.0
 41
3.0
 42
0.5
 43
0.38
 44
1.5
 45
0.0
 46
0.0
 47
0.01
 48
0.01
140
3.0
141
0.09
142
0.0
143
25.4
144
1.0
145
0.0
146
1.0
147
0.625
 71
1
 72
0
 73
0
 74
0
 75
0
 76
0
 77
1
 78
8
 79
2
170
0
171
1
172
0
173
0
174
0
175
0
176
0
177
0
178
0
270
2
179
2
271
2
272
2
273
2
274
2
275
0
280
0
281
0
282
0
283
1
284
8
285
0
286
0
287
3
288
0
340
11
278
44
341
219
342
219
343
219
344
219
  0
DIMSTYLE
105
21F
100
AcDbSymbolTableRecord
100
AcDbDimStyleTableRecord
  2
DIMSTYLE_1
 70
0
  3

  4

 40
1.0
 41
3.0
 42
0.5
 43
0.38
 44
1.5
 45
0.0
 46
0.0
 47
0.0
 48
0.0
140
3.0
141
0.09
142
0.0
143
25.4
144
1.0
145
0.0
146
1.0
147
0.75
 71
0
 72
0
 73
0
 74
0
 75
0
 76
0
 77
1
 78
8
 79
2
170
0
171
1
172
0
173
0
174
0
175
0
176
0
177
0
178
0
270
2
179
2
271
2
272
2
273
2
274
2
275
0
280
0
281
0
282
0
283
1
284
8
285
0
286
0
287
3
288
0
340
11
278
44
341
219
342
219
343
219
344
219
  0
ENDTAB
  0
ENDSEC
  0
SECTION
  2
BLOCKS
  0
BLOCK
  5
20
100
AcDbEntity
  8
0
100
AcDbBlockBegin
  2
*Model_Space
 70
0
 10
0.0
 20
0.0
 30
0.0
  3
*Model_Space
  1

  0
ENDBLK
  5
21
100
AcDbEntity
  8
0
100
AcDbBlockEnd
  0
BLOCK
  5
1C
100
AcDbEntity
  8
0
100
AcDbBlockBegin
  2
*Paper_Space
 70
0
 10
0.0
 20
0.0
 30
0.0
  3
*Paper_Space
  1

  0
ENDBLK
  5
1D
100
AcDbEntity
  8
0
100
AcDbBlockEnd
  0
BLOCK
  5
220
100
AcDbEntity
  8
0
100
AcDbBlockBegin
  2
_FILLED
 70
64
 10
0.0
 20
0.0
  3
_FILLED
  1

  0
SOLID
  5
221
100
AcDbEntity
  8
0
  6
BYBLOCK
 62
0
100
AcDbTrace
 10
0.0
 20
0.0
 11
-1.0
 21
0.3166666667
 12
-1.0
 22
-0.3166666667
 13
-1.0
 23
-0.3166666667
  0
ENDBLK
  5
222
100
AcDbEntity
  8
0
  6
BYBLOCK
 62
0
100
AcDbBlockEnd
  0
BLOCK
  5
223
100
AcDbEntity
  8
0
100
AcDbBlockBegin
 62
7
  6
CONTINUOUS
  2
*D0
 70
65
 10
0.0
 20
0.0
  3
*D0
  1

  0
LINE
  5
224
100
AcDbEntity
  8
0
100
AcDbLine
 62
7
  6
CONTINUOUS
 10
15.4248574782
 20
23.5
 11
31.9
 21
23.5
  0
LINE
  5
225
100
AcDbEntity
  8
0
100
AcDbLine
 62
7
  6
CONTINUOUS
 10
15.4248574782
 20
-23.5
 11
31.9
 21
-23.5
  0
LINE
  5
226
100
AcDbEntity
  8
0
100
AcDbLine
 62
7
  6
CONTINUOUS
 10
30.4
 20
23.5
 11
30.4
 21
0.0
  0
LINE
  5
227
100
AcDbEntity
  8
0
100
AcDbLine
 62
7
  6
CONTINUOUS
 10
30.4
 20
-23.5
 11
30.4
 21
0.0
  0
INSERT
  5
228
100
AcDbEntity
  8
0
100
AcDbBlockReference
 62
7
  6
CONTINUOUS
  2
_FILLED
 10
30.4
 20
23.5
 41
3.0
 42
3.0
 43
3.0
 50
90.0
  0
INSERT
  5
229
100
AcDbEntity
  8
0
100
AcDbBlockReference
 62
7
  6
CONTINUOUS
  2
_FILLED
 10
30.4
 20
-23.5
 41
3.0
 42
3.0
 43
3.0
 50
270.0
  0
ENDBLK
  5
22A
100
AcDbEntity
  8
0
  6
BYBLOCK
 62
0
100
AcDbBlockEnd
  0
BLOCK
  5
22B
100
AcDbEntity
  8
0
100
AcDbBlockBegin
 62
7
  6
CONTINUOUS
  2
*D1
 70
65
 10
0.0
 20
0.0
  3
*D1
  1

  0
LINE
  5
22C
100
AcDbEntity
  8
0
100
AcDbLine
 62
7
  6
CONTINUOUS
 10
22.4
 20
22.3997711479
 11
22.4
 21
33.0
  0
LINE
  5
22D
100
AcDbEntity
  8
0
100
AcDbLine
 62
7
  6
CONTINUOUS
 10
-22.4
 20
22.3997711479
 11
-22.4
 21
33.0
  0
LINE
  5
22E
100
AcDbEntity
  8
0
100
AcDbLine
 62
7
  6
CONTINUOUS
 10
22.4
 20
31.5
 11
0.0
 21
31.5
  0
LINE
  5
22F
100
AcDbEntity
  8
0
100
AcDbLine
 62
7
  6
CONTINUOUS
 10
-22.4
 20
31.5
 11
0.0
 21
31.5
  0
INSERT
  5
230
100
AcDbEntity
  8
0
100
AcDbBlockReference
 62
7
  6
CONTINUOUS
  2
_FILLED
 10
22.4
 20
31.5
 41
3.0
 42
3.0
 43
3.0
 50
0.0
  0
INSERT
  5
231
100
AcDbEntity
  8
0
100
AcDbBlockReference
 62
7
  6
CONTINUOUS
  2
_FILLED
 10
-22.4
 20
31.5
 41
3.0
 42
3.0
 43
3.0
 50
180.0
  0
ENDBLK
  5
232
100
AcDbEntity
  8
0
  6
BYBLOCK
 62
0
100
AcDbBlockEnd
  0
BLOCK
  5
233
100
AcDbEntity
  8
0
100
AcDbBlockBegin
 62
7
  6
CONTINUOUS
  2
*D2
 70
65
 10
0.0
 20
0.0
  3
*D2
  1

  0
LINE
  5
234
100
AcDbEntity
  8
0
100
AcDbLine
 62
7
  6
CONTINUOUS
 10
-69.2660665657
 20
24.0
 11
-69.2660665657
 21
33.0
  0
LINE
  5
235
100
AcDbEntity
  8
0
100
AcDbLine
 62
7
  6
CONTINUOUS
 10
-50.562222788
 20
14.2308253203
 11
-50.562222788
 21
33.0
  0
LINE
  5
236
100
AcDbEntity
  8
0
100
AcDbLine
 62
7
  6
CONTINUOUS
 10
-69.2660665657
 20
31.5
 11
-59.9141446768
 21
31.5
  0
LINE
  5
237
100
AcDbEntity
  8
0
100
AcDbLine
 62
7
  6
CONTINUOUS
 10
-50.562222788
 20
31.5
 11
-59.9141446768
 21
31.5
  0
INSERT
  5
238
100
AcDbEntity
  8
0
100
AcDbBlockReference
 62
7
  6
CONTINUOUS
  2
_FILLED
 10
-69.2660665657
 20
31.5
 41
3.0
 42
3.0
 43
3.0
 50
180.0
  0
INSERT
  5
239
100
AcDbEntity
  8
0
100
AcDbBlockReference
 62
7
  6
CONTINUOUS
  2
_FILLED
 10
-50.562222788
 20
31.5
 41
3.0
 42
3.0
 43
3.0
  0
ENDBLK
  5
23A
100
AcDbEntity
  8
0
  6
BYBLOCK
 62
0
100
AcDbBlockEnd
  0
BLOCK
  5
23B
100
AcDbEntity
  8
0
100
AcDbBlockBegin
 62
7
  6
CONTINUOUS
  2
*D3
 70
65
 10
0.0
 20
0.0
  3
*D3
  1

  0
LINE
  5
23C
100
AcDbEntity
  8
0
100
AcDbLine
 62
7
  6
CONTINUOUS
 10
-50.562222788
 20
14.2308253203
 11
-50.562222788
 21
43.0
  0
LINE
  5
23D
100
AcDbEntity
  8
0
100
AcDbLine
 62
7
  6
CONTINUOUS
 10
-78.7660665657
 20
0.5
 11
-78.7660665657
 21
43.0
  0
LINE
  5
23E
100
AcDbEntity
  8
0
100
AcDbLine
 62
7
  6
CONTINUOUS
 10
-50.562222788
 20
41.5
 11
-64.6641446768
 21
41.5
  0
LINE
  5
23F
100
AcDbEntity
  8
0
100
AcDbLine
 62
7
  6
CONTINUOUS
 10
-78.7660665657
 20
41.5
 11
-64.6641446768
 21
41.5
  0
INSERT
  5
240
100
AcDbEntity
  8
0
100
AcDbBlockReference
 62
7
  6
CONTINUOUS
  2
_FILLED
 10
-50.562222788
 20
41.5
 41
3.0
 42
3.0
 43
3.0
 50
0.0
  0
INSERT
  5
241
100
AcDbEntity
  8
0
100
AcDbBlockReference
 62
7
  6
CONTINUOUS
  2
_FILLED
 10
-78.7660665657
 20
41.5
 41
3.0
 42
3.0
 43
3.0
 50
180.0
  0
ENDBLK
  5
242
100
AcDbEntity
  8
0
  6
BYBLOCK
 62
0
100
AcDbBlockEnd
  0
ENDSEC
  0
SECTION
  2
ENTITIES
  0
DIMENSION
  5
243
100
AcDbEntity
  8
0
100
AcDbDimension
 62
7
  6
CONTINUOUS
  2
*D0
 10
30.4
 20
-23.5
 11
30.4
 21
-2.3571428571
 70
160
 71
2
 72
2
 41
0.9
 42
47.0
  3
DIMSTYLE_1
100
AcDbAlignedDimension
 13
14.9248574782
 23
23.5
 14
14.9248574782
 24
-23.5
 50
270.0
100
AcDbRotatedDimension
  0
DIMENSION
  5
244
100
AcDbEntity
  8
0
100
AcDbDimension
 62
7
  6
CONTINUOUS
  2
*D1
 10
-22.4
 20
31.5
 11
-4.3928571429
 21
31.5
 70
160
 71
2
 72
2
 41
0.9
 42
44.8
  3
DIMSTYLE_1
100
AcDbAlignedDimension
 13
22.4
 23
21.8997711479
 14
-22.4
 24
21.8997711479
 50
180.0
100
AcDbRotatedDimension
  0
DIMENSION
  5
245
100
AcDbEntity
  8
0
100
AcDbDimension
 62
7
  6
CONTINUOUS
  2
*D2
 10
-50.562222788
 20
31.5
 11
-63.9855732483
 21
31.5
 70
160
 71
2
 72
2
 41
0.9
 42
18.7038437777
  3
DIMSTYLE_1
100
AcDbAlignedDimension
 13
-69.2660665657
 23
23.5
 14
-50.562222788
 24
13.7308253203
100
AcDbRotatedDimension
  0
DIMENSION
  5
246
100
AcDbEntity
  8
0
100
AcDbDimension
 62
7
  6
CONTINUOUS
  2
*D3
 10
-78.7660665657
 20
41.5
 11
-69.0570018197
 21
41.5
 70
160
 71
2
 72
2
 41
0.9
 42
28.2038437777
  3
DIMSTYLE_1
100
AcDbAlignedDimension
 13
-50.562222788
 23
13.7308253203
 14
-78.7660665657
 24
0.0
 50
180.0
100
AcDbRotatedDimension
  0
LWPOLYLINE
  5
247
100
AcDbEntity
  8
0
100
AcDbPolyline
 62
250
  6
CONTINUOUS
 90
14
 70
0
 10
-22.2504589101
 20
20.9972959167
 10
-22.2478468107
 20
20.999107758
 10
-22.2415333881
 20
21.000906114
 10
-22.2315656296
 20
21.0026776003
 10
-22.218017717
 20
21.0044090327
 10
-22.2009904834
 20
21.0060875242
 10
-22.1806106698
 20
21.0077005814
 10
-22.1570299635
 20
21.0092361987
 10
-22.1304238708
 20
21.0106829474
 10
-22.1009904281
 20
21.0120300594
 10
-22.0689487092
 20
21.0132675089
 10
-22.0345371918
 20
21.0143860865
 10
-21.9980119938
 20
21.0153774673
 10
-21.9596449662
 20
21.0162342731
  0
LWPOLYLINE
  5
248
100
AcDbEntity
  8
ASSI
100
AcDbPolyline
 62
7
  6
CONTINUOUS
 90
13
 70
0
 10
-15.4775426698
 20
23.3333596575
 10
-15.4360470501
 20
23.3594249262
 10
-15.3935460239
 20
23.3833357199
 10
-15.3500395911
 20
23.4050920387
 10
-15.3054213067
 20
23.4247342048
 10
-15.2597976157
 20
23.4422218959
 10
-15.213487853
 20
23.4574341454
 10
-15.1664874621
 20
23.4703558693
 10
-15.1188009994
 20
23.4810021516
 10
-15.0707614693
 20
23.4892972772
 10
-15.022479873
 20
23.4952160081
 10
-14.9738452093
 20
23.4987835823
 10
-14.9248574782
 20
23.5
  0
LWPOLYLINE
  5
249
100
AcDbEntity
  8
ASSI
100
AcDbPolyline
 62
7
  6
CONTINUOUS
 90
13
 70
0
 10
-15.4775426698
 20
-23.3333596575
 10
-15.4360470501
 20
-23.3594249262
 10
-15.3935460239
 20
-23.3833357199
 10
-15.3500395911
 20
-23.4050920387
 10
-15.3054213067
 20
-23.4247342048
 10
-15.2597976157
 20
-23.4422218959
 10
-15.213487853
 20
-23.4574341454
 10
-15.1664874621
 20
-23.4703558693
 10
-15.1188009994
 20
-23.4810021516
 10
-15.0707614693
 20
-23.4892972772
 10
-15.022479873
 20
-23.4952160081
 10
-14.9738452093
 20
-23.4987835823
 10
-14.9248574782
 20
-23.5
  0
LWPOLYLINE
  5
24A
100
AcDbEntity
  8
0
100
AcDbPolyline
 62
250
  6
CONTINUOUS
 90
17
 70
0
 10
-22.2504589101
 20
-20.9972959167
 10
-22.2478470977
 20
-20.9991077634
 10
-22.2415339884
 20
-21.0009061273
 10
-22.2315665561
 20
-21.0026776237
 10
-22.2180189707
 20
-21.0044090682
 10
-22.2009920514
 20
-21.0060875739
 10
-22.1806125219
 20
-21.0077006475
 10
-22.157032054
 20
-21.0092362831
 10
-22.1304261428
 20
-21.0106830514
 10
-22.1009928137
 20
-21.0120301838
 10
-22.0689511291
 20
-21.013267654
 10
-22.0345395619
 20
-21.0143862518
 10
-21.9980142325
 20
-21.0153776515
 10
-21.959646988
 20
-21.0162344743
 10
-21.9197233834
 20
-21.0169503432
 10
-21.8785405644
 20
-21.01751993
 10
-21.7936304247
 20
-21.0182044206
  0
LINE
  5
24B
100
AcDbEntity
  8
0
100
AcDbLine
 62
7
  6
CONTINUOUS
 10
-14.4833672024
 20
22.5
 11
-14.55
 21
22.4
  0
LWPOLYLINE
  5
24C
100
AcDbEntity
  8
ASSI
100
AcDbPolyline
 62
7
  6
CONTINUOUS
 90
13
 70
0
 10
14.9248574782
 20
-23.5
 10
14.9738452093
 20
-23.4987835823
 10
15.022479873
 20
-23.4952160081
 10
15.0707614693
 20
-23.4892972772
 10
15.1188009994
 20
-23.4810021516
 10
15.1664874621
 20
-23.4703558693
 10
15.213487853
 20
-23.4574341454
 10
15.2597976157
 20
-23.4422218959
 10
15.3054213067
 20
-23.4247342048
 10
15.3500395911
 20
-23.4050920387
 10
15.3935460239
 20
-23.3833357199
 10
15.4360470501
 20
-23.3594249262
 10
15.4775426698
 20
-23.3333596575
  0
LINE
  5
24D
100
AcDbEntity
  8
0
100
AcDbLine
 62
7
  6
CONTINUOUS
 10
-14.55
 20
-22.4
 11
-14.4833672024
 21
-22.5
  0
LWPOLYLINE
  5
24E
100
AcDbEntity
  8
0
100
AcDbPolyline
 62
250
  6
CONTINUOUS
 90
19
 70
0
 10
-22.2587219643
 20
-21.4755923698
 10
-22.2567821381
 20
-21.5190841802
 10
-22.2510569133
 20
-21.5622456062
 10
-22.2415897538
 20
-21.6047485515
 10
-22.2284525603
 20
-21.6462699415
 10
-22.2117451471
 20
-21.686494104
 10
-22.1915945062
 20
-21.7251151776
 10
-22.1681537846
 20
-21.7618395601
 10
-22.1416011439
 20
-21.7963880603
 10
-22.1121384634
 20
-21.8284979655
 10
-22.0799897162
 20
-21.8579251611
 10
-22.0453992724
 20
-21.8844459482
 10
-22.0086301061
 20
-21.9078586905
 10
-21.9699617284
 20
-21.9279854035
 10
-21.9296880908
 20
-21.9446730811
 10
-21.8881153842
 20
-21.957794851
 10
-21.8455596537
 20
-21.9672509655
 10
-21.802344392
 20
-21.9729695498
 10
-21.7587981166
 20
-21.974907137
  0
LWPOLYLINE
  5
24F
100
AcDbEntity
  8
0
100
AcDbPolyline
 62
250
  6
CONTINUOUS
 90
7
 70
0
 10
-22.2546612127
 20
21.4040725744
 10
-22.2552913414
 20
21.4238573388
 10
-22.2559524692
 20
21.4407725579
 10
-22.2566277773
 20
21.4544413579
 10
-22.2573116593
 20
21.4647381143
 10
-22.2580097217
 20
21.4717884516
 10
-22.2587219643
 20
21.4755923698
  0
LINE
  5
250
100
AcDbEntity
  8
0
100
AcDbLine
 62
250
  6
CONTINUOUS
 10
-22.2534979548
 20
21.3558105507
 11
-22.2546612127
 21
21.4040725744
  0
LINE
  5
251
100
AcDbEntity
  8
0
100
AcDbLine
 62
250
  6
CONTINUOUS
 10
-22.2524918502
 20
21.2975329549
 11
-22.2534979548
 21
21.3558105507
  0
LINE
  5
252
100
AcDbEntity
  8
0
100
AcDbLine
 62
250
  6
CONTINUOUS
 10
-21.7537308312
 20
21.7504995418
 11
-21.755269626
 21
21.8658798477
  0
LINE
  5
253
100
AcDbEntity
  8
0
100
AcDbLine
 62
250
  6
CONTINUOUS
 10
-22.2513242748
 20
21.1941089239
 11
-22.2524918502
 21
21.2975329549
  0
LINE
  5
254
100
AcDbEntity
  8
0
100
AcDbLine
 62
250
  6
CONTINUOUS
 10
-21.751741753
 20
21.4851287114
 11
-21.7537308312
 21
21.7504995418
  0
LINE
  5
255
100
AcDbEntity
  8
0
100
AcDbLine
 62
250
  6
CONTINUOUS
 10
-22.2506334334
 20
21.0780961364
 11
-22.2513242748
 21
21.1941089239
  0
LINE
  5
256
100
AcDbEntity
  8
0
100
AcDbLine
 62
250
  6
CONTINUOUS
 10
-22.2481043808
 20
17.4995724219
 11
-22.2506334334
 21
21.0780961364
  0
LINE
  5
257
100
AcDbEntity
  8
0
100
AcDbLine
 62
250
  6
CONTINUOUS
 10
-21.7462537124
 20
14.0145025805
 11
-21.751741753
 21
21.4851287114
  0
LINE
  5
258
100
AcDbEntity
  8
0
100
AcDbLine
 62
250
  6
CONTINUOUS
 10
-22.2446793935
 20
10.5019349598
 11
-22.2481043808
 21
17.4995724219
  0
LINE
  5
259
100
AcDbEntity
  8
0
100
AcDbLine
 62
250
  6
CONTINUOUS
 10
-22.242966324
 20
3.5008901459
 11
-22.2446793935
 21
10.5019349598
  0
LINE
  5
25A
100
AcDbEntity
  8
0
100
AcDbLine
 62
250
  6
CONTINUOUS
 10
-21.7430423847
 20
3.5040624296
 11
-21.7462537124
 21
14.0145025805
  0
LINE
  5
25B
100
AcDbEntity
  8
ASSI
100
AcDbLine
 62
7
  6
CONTINUOUS
 10
-22.4
 20
16.1196592166
 11
-22.4
 21
-16.1196592166
  0
LINE
  5
25C
100
AcDbEntity
  8
0
100
AcDbLine
 62
7
  6
CONTINUOUS
 10
-22.4
 20
-21.8997711479
 11
-22.4
 21
21.8997711479
  0
LINE
  5
25D
100
AcDbEntity
  8
0
100
AcDbLine
 62
250
  6
CONTINUOUS
 10
-22.2429663231
 20
-3.5008849573
 11
-22.242966324
 21
3.5008901459
  0
LINE
  5
25E
100
AcDbEntity
  8
0
100
AcDbLine
 62
250
  6
CONTINUOUS
 10
-21.7430423823
 20
-3.5040436636
 11
-21.7430423847
 21
3.5040624296
  0
LWPOLYLINE
  5
25F
100
AcDbEntity
  8
0
100
AcDbPolyline
 62
250
  6
CONTINUOUS
 90
3
 70
0
 10
-22.2461778734
 20
-14.0011153445
 10
-22.2446793914
 20
-10.5019304602
 10
-22.2429663231
 20
-3.5008849573
  0
LWPOLYLINE
  5
260
100
AcDbEntity
  8
0
100
AcDbPolyline
 62
250
  6
CONTINUOUS
 90
3
 70
0
 10
-21.7462537071
 20
-14.0144913995
 10
-21.7447551852
 20
-10.5114649896
 10
-21.7430423823
 20
-3.5040436636
  0
LINE
  5
261
100
AcDbEntity
  8
0
100
AcDbLine
 62
250
  6
CONTINUOUS
 10
-22.2508056852
 20
-21.1173318233
 11
-22.2461778734
 21
-14.0011153445
  0
LINE
  5
262
100
AcDbEntity
  8
0
100
AcDbLine
 62
250
  6
CONTINUOUS
 10
-21.7517417531
 20
-21.4851287178
 11
-21.7462537071
 21
-14.0144913995
  0
LINE
  5
263
100
AcDbEntity
  8
0
100
AcDbLine
 62
250
  6
CONTINUOUS
 10
-22.251662402
 20
-21.2303812371
 11
-22.2508056852
 21
-21.1173318233
  0
LINE
  5
264
100
AcDbEntity
  8
0
100
AcDbLine
 62
250
  6
CONTINUOUS
 10
-21.7537308312
 20
-21.7504995453
 11
-21.7517417531
 21
-21.4851287178
  0
LINE
  5
265
100
AcDbEntity
  8
0
100
AcDbLine
 62
250
  6
CONTINUOUS
 10
-22.2524918501
 20
-21.2975329474
 11
-22.251662402
 21
-21.2303812371
  0
LINE
  5
266
100
AcDbEntity
  8
0
100
AcDbLine
 62
250
  6
CONTINUOUS
 10
-21.755269626
 20
-21.8658798487
 11
-21.7537308312
 21
-21.7504995453
  0
LINE
  5
267
100
AcDbEntity
  8
0
100
AcDbLine
 62
250
  6
CONTINUOUS
 10
-22.2534979547
 20
-21.3558105439
 11
-22.2524918501
 21
-21.2975329474
  0
LWPOLYLINE
  5
268
100
AcDbEntity
  8
0
100
AcDbPolyline
 62
250
  6
CONTINUOUS
 90
19
 70
0
 10
-22.2587219643
 20
21.4755923698
 10
-22.2567821379
 20
21.5190841794
 10
-22.2510569129
 20
21.5622456048
 10
-22.2415897534
 20
21.6047485495
 10
-22.2284525597
 20
21.646269939
 10
-22.2117451465
 20
21.6864941012
 10
-22.1915945055
 20
21.7251151746
 10
-22.1681537838
 20
21.761839557
 10
-22.141601143
 20
21.7963880572
 10
-22.1121384625
 20
21.8284979624
 10
-22.0799897153
 20
21.8579251581
 10
-22.0453992716
 20
21.8844459454
 10
-22.0086301053
 20
21.9078586879
 10
-21.9699617277
 20
21.9279854012
 10
-21.9296880902
 20
21.9446730791
 10
-21.8881153837
 20
21.9577948494
 10
-21.8455596534
 20
21.9672509645
 10
-21.8023443919
 20
21.9729695494
 10
-21.7587981167
 20
21.9749071372
  0
LWPOLYLINE
  5
269
100
AcDbEntity
  8
0
100
AcDbPolyline
 62
250
  6
CONTINUOUS
 90
19
 70
0
 10
21.7587981167
 20
-21.9749071372
 10
21.8023443199
 20
-21.9729695563
 10
21.8455595064
 20
-21.9672509915
 10
21.8881151608
 20
-21.9577949107
 10
21.9296877894
 20
-21.9446731905
 10
21.9699613526
 20
-21.9279855783
 10
22.0086296693
 20
-21.9078589421
 10
22.0453987898
 20
-21.8844462854
 10
22.0799892031
 20
-21.8579255906
 10
22.112137942
 20
-21.8284984857
 10
22.1416006318
 20
-21.796388669
 10
22.1681533012
 20
-21.7618402487
 10
22.1915940785
 20
-21.7251159163
 10
22.2117447946
 20
-21.6864948574
 10
22.2284522938
 20
-21.6462706707
 10
22.2415895803
 20
-21.604749196
 10
22.2510568261
 20
-21.562246097
 10
22.2567821137
 20
-21.519084455
 10
22.2587219643
 20
-21.4755923698
  0
LWPOLYLINE
  5
26A
100
AcDbEntity
  8
ASSI
100
AcDbPolyline
 62
7
  6
CONTINUOUS
 90
13
 70
0
 10
-7.5751425218
 20
-23.5
 10
-7.5261547907
 20
-23.4987835823
 10
-7.477520127
 20
-23.4952160081
 10
-7.4292385307
 20
-23.4892972772
 10
-7.3811990006
 20
-23.4810021516
 10
-7.3335125379
 20
-23.4703558693
 10
-7.286512147
 20
-23.4574341454
 10
-7.2402023843
 20
-23.4422218959
 10
-7.1945786933
 20
-23.4247342048
 10
-7.1499604089
 20
-23.4050920387
 10
-7.1064539761
 20
-23.3833357199
 10
-7.0639529499
 20
-23.3594249262
 10
-7.0224573302
 20
-23.3333596575
  0
LWPOLYLINE
  5
26B
100
AcDbEntity
  8
0
100
AcDbPolyline
 62
250
  6
CONTINUOUS
 90
15
 70
0
 10
21.9197241847
 20
-21.0169503316
 10
21.959647983
 20
-21.0162344554
 10
21.9980153873
 20
-21.015377624
 10
22.0345408409
 20
-21.0143862147
 10
22.0689524929
 20
-21.0132676065
 10
22.1009942023
 20
-21.0120301261
 10
22.1304275056
 20
-21.010682984
 10
22.1570333398
 20
-21.0092362072
 10
22.1806136618
 20
-21.0077005663
 10
22.2009929966
 20
-21.0060874912
 10
22.2180196926
 20
-21.0044089881
 10
22.2315670341
 20
-21.0026775528
 10
22.2415342359
 20
-21.0009060733
 10
22.2478471731
 20
-20.9991077332
 10
22.2504589101
 20
-20.9972959167
  0
LINE
  5
26C
100
AcDbEntity
  8
ASSI
100
AcDbLine
 62
7
  6
CONTINUOUS
 10
14.9248574782
 20
-23.5
 11
7.5751425218
 21
-23.5
  0
LINE
  5
26D
100
AcDbEntity
  8
ASSI
100
AcDbLine
 62
7
  6
CONTINUOUS
 10
-7.5751425218
 20
-23.5
 11
-14.9248574782
 21
-23.5
  0
LINE
  5
26E
100
AcDbEntity
  8
ASSI
100
AcDbLine
 62
7
  6
CONTINUOUS
 10
-14.7198202597
 20
-22.5
 11
-7.7801797403
 21
-22.5
  0
LINE
  5
26F
100
AcDbEntity
  8
ASSI
100
AcDbLine
 62
7
  6
CONTINUOUS
 10
7.7801797403
 20
-22.5
 11
14.7198202597
 21
-22.5
  0
LINE
  5
270
100
AcDbEntity
  8
0
100
AcDbLine
 62
7
  6
CONTINUOUS
 10
21.9003805997
 20
-22.4
 11
14.55
 21
-22.4
  0
LINE
  5
271
100
AcDbEntity
  8
0
100
AcDbLine
 62
7
  6
CONTINUOUS
 10
7.95
 20
-22.4
 11
-7.95
 21
-22.4
  0
LINE
  5
272
100
AcDbEntity
  8
0
100
AcDbLine
 62
7
  6
CONTINUOUS
 10
-14.55
 20
-22.4
 11
-21.9003805997
 21
-22.4
  0
LINE
  5
273
100
AcDbEntity
  8
0
100
AcDbLine
 62
250
  6
CONTINUOUS
 10
21.7587981167
 20
-21.9749071372
 11
-21.7587981167
 21
-21.9749071372
  0
LWPOLYLINE
  5
274
100
AcDbEntity
  8
0
100
AcDbPolyline
 62
250
  6
CONTINUOUS
 90
5
 70
0
 10
-21.7563980661
 20
21.9211237841
 10
-21.7569832484
 20
21.9418020281
 10
-21.7575769549
 20
21.9577073571
 10
-21.758181911
 20
21.968760679
 10
-21.7587981167
 20
21.9749071372
  0
LINE
  5
275
100
AcDbEntity
  8
0
100
AcDbLine
 62
250
  6
CONTINUOUS
 10
-21.755269626
 20
21.8658798477
 11
-21.7563980661
 21
21.9211237841
  0
LWPOLYLINE
  5
276
100
AcDbEntity
  8
0
100
AcDbPolyline
 62
250
  6
CONTINUOUS
 90
6
 70
0
 10
-21.7587981167
 20
-21.9749071372
 10
-21.7581819111
 20
-21.9687606791
 10
-21.757576955
 20
-21.9577073575
 10
-21.7569832484
 20
-21.9418020287
 10
-21.7563980662
 20
-21.9211237849
 10
-21.755269626
 20
-21.8658798487
  0
LINE
  5
277
100
AcDbEntity
  8
0
100
AcDbLine
 62
250
  6
CONTINUOUS
 10
21.8364054406
 20
-21.0179389931
 11
21.9197241847
 21
-21.0169503316
  0
LINE
  5
278
100
AcDbEntity
  8
0
100
AcDbLine
 62
250
  6
CONTINUOUS
 10
21.7505350625
 20
-21.0183142305
 11
21.8364054406
 21
-21.0179389931
  0
LINE
  5
279
100
AcDbEntity
  8
0
100
AcDbLine
 62
250
  6
CONTINUOUS
 10
-21.7936304247
 20
-21.0182044206
 11
21.7505350625
 21
-21.0183142309
  0
LWPOLYLINE
  5
27A
100
AcDbEntity
  8
0
100
AcDbPolyline
 62
250
  6
CONTINUOUS
 90
8
 70
0
 10
-22.2587219643
 20
-21.4755923698
 10
-22.2580097216
 20
-21.4717884504
 10
-22.2573116592
 20
-21.4647381119
 10
-22.2566277771
 20
-21.4544413544
 10
-22.255952469
 20
-21.4407725532
 10
-22.2552913412
 20
-21.4238573329
 10
-22.2546612125
 20
-21.4040725677
 10
-22.2534979547
 20
-21.3558105439
  0
LINE
  5
27B
100
AcDbEntity
  8
ASSI
100
AcDbLine
 62
7
  6
CONTINUOUS
 10
-14.6133443637
 20
22.5
 11
-14.6348722771
 21
22.4
  0
LWPOLYLINE
  5
27C
100
AcDbEntity
  8
RACCORDO
100
AcDbPolyline
 62
250
  6
CONTINUOUS
 90
9
 70
0
 10
-11.1731495217
 20
-13.8807185559
 10
-11.1998158628
 20
-13.8657245895
 10
-11.2281607844
 20
-13.8520271638
 10
-11.2580830031
 20
-13.8398543574
 10
-11.2895805981
 20
-13.8293858118
 10
-11.3227630039
 20
-13.8207923435
 10
-11.3575950169
 20
-13.8143204822
 10
-11.3938805196
 20
-13.8102479935
 10
-11.4314522319
 20
-13.808832588
  0
LWPOLYLINE
  5
27D
100
AcDbEntity
  8
RACCORDO
100
AcDbPolyline
 62
250
  6
CONTINUOUS
 90
10
 70
0
 10
-11.318140853
 20
-14.1524592768
 10
-11.3281551907
 20
-14.1458833075
 10
-11.3388194436
 20
-14.1399098412
 10
-11.3501336116
 20
-14.1345388784
 10
-11.362105643
 20
-14.1296855475
 10
-11.3747275896
 20
-14.1254347211
 10
-11.3879756063
 20
-14.1220410162
 10
-11.4018417447
 20
-14.1195893054
 10
-11.4163339532
 20
-14.1179947169
 10
-11.4314522319
 20
-14.117257251
  0
LINE
  5
27E
100
AcDbEntity
  8
ASSI
100
AcDbLine
 62
7
  6
CONTINUOUS
 10
-14.6133443637
 20
-22.5
 11
-14.6348722771
 21
-22.4
  0
LINE
  5
27F
100
AcDbEntity
  8
RACCORDO
100
AcDbLine
 62
250
  6
CONTINUOUS
 10
-15.0587868967
 20
-14.1172572528
 11
-15.0608840705
 21
-8.8944526203
  0
LWPOLYLINE
  5
280
100
AcDbEntity
  8
ASSI
100
AcDbPolyline
 62
7
  6
CONTINUOUS
 90
13
 70
0
 10
7.0224573302
 20
23.3333596575
 10
7.0639529499
 20
23.3594249262
 10
7.1064539761
 20
23.3833357199
 10
7.1499604089
 20
23.4050920387
 10
7.1945786933
 20
23.4247342048
 10
7.2402023843
 20
23.4422218959
 10
7.286512147
 20
23.4574341454
 10
7.3335125379
 20
23.4703558693
 10
7.3811990006
 20
23.4810021516
 10
7.4292385307
 20
23.4892972772
 10
7.477520127
 20
23.4952160081
 10
7.5261547907
 20
23.4987835823
 10
7.5751425218
 20
23.5
  0
LWPOLYLINE
  5
281
100
AcDbEntity
  8
RACCORDO
100
AcDbPolyline
 62
250
  6
CONTINUOUS
 90
10
 70
0
 10
5.0553109246
 20
-15.1052493223
 10
5.0902022892
 20
-15.1047177533
 10
5.1226092204
 20
-15.1040557094
 10
5.1519894258
 20
-15.1032742689
 10
5.1778512637
 20
-15.1023865064
 10
5.1997619488
 20
-15.1014072752
 10
5.2173547972
 20
-15.1003529612
 10
5.2303353901
 20
-15.0992412064
 10
5.2384864907
 20
-15.0980906131
 10
5.241671668
 20
-15.0969204343
  0
LWPOLYLINE
  5
282
100
AcDbEntity
  8
RACCORDO
100
AcDbPolyline
 62
250
  6
CONTINUOUS
 90
3
 70
0
 10
4.9417173595
 20
-15.1059840283
 10
4.9804420789
 20
-15.1058877985
 10
5.0553109246
 20
-15.1052493223
  0
LINE
  5
283
100
AcDbEntity
  8
RACCORDO
100
AcDbLine
 62
250
  6
CONTINUOUS
 10
7.7580047209
 20
-15.6241732062
 11
4.9419952791
 21
-15.6241732063
  0
LINE
  5
284
100
AcDbEntity
  8
RACCORDO
100
AcDbLine
 62
250
  6
CONTINUOUS
 10
-4.9419952791
 20
-15.6241732065
 11
-7.7580047209
 21
-15.6241732065
  0
LINE
  5
285
100
AcDbEntity
  8
RACCORDO
100
AcDbLine
 62
250
  6
CONTINUOUS
 10
7.4580504124
 20
-15.3148444064
 11
5.2419495876
 21
-15.3148444064
  0
LINE
  5
286
100
AcDbEntity
  8
RACCORDO
100
AcDbLine
 62
250
  6
CONTINUOUS
 10
-5.2419495876
 20
-15.3148444064
 11
-7.4580504124
 21
-15.3148444064
  0
LINE
  5
287
100
AcDbEntity
  8
DRAFT
100
AcDbLine
 62
7
  6
CONTINUOUS
 10
-7.45
 20
-15.306793994
 11
-5.25
 21
-15.306793994
  0
LINE
  5
288
100
AcDbEntity
  8
DRAFT
100
AcDbLine
 62
7
  6
CONTINUOUS
 10
5.25
 20
-15.306793994
 11
7.45
 21
-15.306793994
  0
LWPOLYLINE
  5
289
100
AcDbEntity
  8
RACCORDO
100
AcDbPolyline
 62
250
  6
CONTINUOUS
 90
12
 70
0
 10
-4.9417173595
 20
-15.1059840283
 10
-5.0185201908
 20
-15.1056414938
 10
-5.055312482
 20
-15.1052492735
 10
-5.0902040017
 20
-15.1047176879
 10
-5.1226109152
 20
-15.1040556318
 10
-5.1519909619
 20
-15.1032741835
 10
-5.1778525298
 20
-15.1023864188
 10
-5.1997628807
 20
-15.1014071925
 10
-5.2173553918
 20
-15.1003528901
 10
-5.2303356902
 20
-15.0992411529
 10
-5.2384865781
 20
-15.0980905836
 10
-5.241671668
 20
-15.0969204344
  0
LWPOLYLINE
  5
28A
100
AcDbEntity
  8
RACCORDO
100
AcDbPolyline
 62
250
  6
CONTINUOUS
 90
13
 70
0
 10
-9.5
 20
-14.7173153267
 10
-9.6539830541
 20
-14.7137551274
 10
-9.8076255715
 20
-14.7026606321
 10
-9.9609275522
 20
-14.6840318257
 10
-10.1139247773
 20
-14.6580601108
 10
-10.2665814657
 20
-14.6245540263
 10
-10.4187902742
 20
-14.5829392443
 10
-10.5706740184
 20
-14.5333707876
 10
-10.7221098829
 20
-14.4756935055
 10
-10.8726220775
 20
-14.4088677801
 10
-11.0220520058
 20
-14.3325469926
 10
-11.1705582643
 20
-14.2470775353
 10
-11.318140853
 20
-14.1524592768
  0
LINE
  5
28B
100
AcDbEntity
  8
RACCORDO
100
AcDbLine
 62
250
  6
CONTINUOUS
 10
-5.25
 20
-15.0921120732
 11
-5.241671668
 21
-15.0969204379
  0
LINE
  5
28C
100
AcDbEntity
  8
RACCORDO
100
AcDbLine
 62
250
  6
CONTINUOUS
 10
-5.0000380762
 20
-14.6591653213
 11
-4.9916189283
 21
-14.6640261186
  0
LWPOLYLINE
  5
28D
100
AcDbEntity
  8
ASSI
100
AcDbPolyline
 62
7
  6
CONTINUOUS
 90
13
 70
0
 10
7.0224573302
 20
-23.3333596575
 10
7.0639529499
 20
-23.3594249262
 10
7.1064539761
 20
-23.3833357199
 10
7.1499604089
 20
-23.4050920387
 10
7.1945786933
 20
-23.4247342048
 10
7.2402023843
 20
-23.4422218959
 10
7.286512147
 20
-23.4574341454
 10
7.3335125379
 20
-23.4703558693
 10
7.3811990006
 20
-23.4810021516
 10
7.4292385307
 20
-23.4892972772
 10
7.477520127
 20
-23.4952160081
 10
7.5261547907
 20
-23.4987835823
 10
7.5751425218
 20
-23.5
  0
LINE
  5
28E
100
AcDbEntity
  8
RACCORDO
100
AcDbLine
 62
7
  6
CONTINUOUS
 10
-14.7609788705
 20
-9.189070238
 11
-14.7608350069
 21
-9.1891649931
  0
LWPOLYLINE
  5
28F
100
AcDbEntity
  8
RACCORDO
100
AcDbPolyline
 62
7
  6
CONTINUOUS
 90
6
 70
0
 10
-14.7609788705
 20
-9.189070238
 10
-14.762688658
 20
-9.1877423386
 10
-14.7663300847
 20
-9.1845398034
 10
-14.7719031506
 20
-9.1794207409
 10
-14.7794296152
 20
-9.1723480527
 10
-14.7888877191
 20
-9.1633112091
  0
LINE
  5
290
100
AcDbEntity
  8
RACCORDO
100
AcDbLine
 62
7
  6
CONTINUOUS
 10
-14.7888877191
 20
-9.1633112091
 11
-14.8286058671
 21
-9.1247685736
  0
LINE
  5
291
100
AcDbEntity
  8
RACCORDO
100
AcDbLine
 62
7
  6
CONTINUOUS
 10
-15.0317651032
 20
-8.9232232684
 11
-15.0608840706
 21
-8.894452601
  0
LINE
  5
292
100
AcDbEntity
  8
RACCORDO
100
AcDbLine
 62
7
  6
CONTINUOUS
 10
-14.8286058671
 20
-9.1247685736
 11
-14.9517290622
 21
-9.0032979391
  0
LINE
  5
293
100
AcDbEntity
  8
RACCORDO
100
AcDbLine
 62
7
  6
CONTINUOUS
 10
-14.75
 20
-9.2
 11
-14.7608350069
 21
-9.1891649931
  0
LINE
  5
294
100
AcDbEntity
  8
RACCORDO
100
AcDbLine
 62
7
  6
CONTINUOUS
 10
-14.9517290622
 20
-9.0032979391
 11
-15.0317651032
 21
-8.9232232684
  0
LINE
  5
295
100
AcDbEntity
  8
RACCORDO
100
AcDbLine
 62
250
  6
CONTINUOUS
 10
-14.7589787796
 20
-13.8090958205
 11
-14.7608350069
 21
-9.1891649931
  0
LINE
  5
296
100
AcDbEntity
  8
DRAFT
100
AcDbLine
 62
7
  6
CONTINUOUS
 10
-14.75
 20
-9.2
 11
-14.75
 21
-13.8
  0
LINE
  5
297
100
AcDbEntity
  8
0
100
AcDbLine
 62
7
  6
CONTINUOUS
 10
-14.7198202597
 20
-22.5
 11
-14.7198202597
 21
-22.4
  0
LINE
  5
298
100
AcDbEntity
  8
ASSI
100
AcDbLine
 62
7
  6
CONTINUOUS
 10
-14.7198202597
 20
-22.5
 11
-14.7198202597
 21
-22.4
  0
LINE
  5
299
100
AcDbEntity
  8
0
100
AcDbLine
 62
7
  6
CONTINUOUS
 10
-14.7198202597
 20
22.4
 11
-14.7198202597
 21
22.5
  0
LINE
  5
29A
100
AcDbEntity
  8
ASSI
100
AcDbLine
 62
7
  6
CONTINUOUS
 10
-14.7198202597
 20
22.4
 11
-14.7198202597
 21
22.5
  0
LINE
  5
29B
100
AcDbEntity
  8
0
100
AcDbLine
 62
250
  6
CONTINUOUS
 10
-22.4
 20
-21.8997711479
 11
-22.2587219643
 21
-21.4755923698
  0
LINE
  5
29C
100
AcDbEntity
  8
0
100
AcDbLine
 62
250
  6
CONTINUOUS
 10
-21.9003805997
 20
-22.4
 11
-21.7587981167
 21
-21.9749071372
  0
LINE
  5
29D
100
AcDbEntity
  8
RACCORDO
100
AcDbLine
 62
7
  6
CONTINUOUS
 10
3.8558393355
 20
-14.1565228158
 11
3.7623928603
 21
-14.1826965085
  0
LINE
  5
29E
100
AcDbEntity
  8
RACCORDO
100
AcDbLine
 62
7
  6
CONTINUOUS
 10
3.6524921737
 20
-14.2124369965
 11
3.6129035402
 21
-14.2233326391
  0
LWPOLYLINE
  5
29F
100
AcDbEntity
  8
RACCORDO
100
AcDbPolyline
 62
7
  6
CONTINUOUS
 90
3
 70
0
 10
3.7623928603
 20
-14.1826965085
 10
3.7274263228
 20
-14.1922680637
 10
3.6524921737
 20
-14.2124369965
  0
LINE
  5
2A0
100
AcDbEntity
  8
RACCORDO
100
AcDbLine
 62
7
  6
CONTINUOUS
 10
4.0346426187
 20
-14.101793994
 11
4.0227510433
 21
-14.104980332
  0
LWPOLYLINE
  5
2A1
100
AcDbEntity
  8
0
100
AcDbPolyline
 62
7
  6
CONTINUOUS
 90
3
 70
0
 10
0.9154657435
 20
-13.3
 10
1.0287565871
 20
-13.2805090847
 10
1.136575925
 20
-13.2297621064
  0
LWPOLYLINE
  5
2A2
100
AcDbEntity
  8
RACCORDO
100
AcDbPolyline
 62
250
  6
CONTINUOUS
 90
16
 70
0
 10
7.7584849375
 20
-14.4085306289
 10
7.7271372369
 20
-14.4101827208
 10
7.6961328533
 20
-14.4151018071
 10
7.6658113456
 20
-14.4232340147
 10
7.6365047935
 20
-14.4344902807
 10
7.6085341619
 20
-14.4487473273
 10
7.5822057858
 20
-14.4658490115
 10
7.5578080128
 20
-14.4856080362
 10
7.5356080465
 20
-14.5078080015
 10
7.5158490209
 20
-14.5322057729
 10
7.4987473366
 20
-14.5585341458
 10
7.4844902896
 20
-14.5865047733
 10
7.4732340215
 20
-14.6158113245
 10
7.4651018108
 20
-14.6461328357
 10
7.4601827219
 20
-14.6771372264
 10
7.4585306289
 20
-14.7084849375
  0
LWPOLYLINE
  5
2A3
100
AcDbEntity
  8
RACCORDO
100
AcDbPolyline
 62
250
  6
CONTINUOUS
 90
10
 70
0
 10
11.4314522316
 20
-13.8088325882
 10
11.401227134
 20
-13.8097484948
 10
11.3704819231
 20
-13.812566513
 10
11.3393446214
 20
-13.8173929151
 10
11.3081757554
 20
-13.8242714146
 10
11.2769048911
 20
-13.8333201213
 10
11.2450714708
 20
-13.8448712604
 10
11.2127099012
 20
-13.8592203306
 10
11.1803098441
 20
-13.8764798073
 10
11.1481818772
 20
-13.8968109001
  0
LWPOLYLINE
  5
2A4
100
AcDbEntity
  8
RACCORDO
100
AcDbPolyline
 62
250
  6
CONTINUOUS
 90
10
 70
0
 10
11.4314522316
 20
-14.1172572511
 10
11.4192672379
 20
-14.117557282
 10
11.4069859666
 20
-14.1186985179
 10
11.3946084178
 20
-14.1206809586
 10
11.3821412745
 20
-14.123422441
 10
11.3695778536
 20
-14.1270051276
 10
11.3568981059
 20
-14.1316755066
 10
11.3440953483
 20
-14.1375157401
 10
11.331176264
 20
-14.1444436639
 10
11.3181408528
 20
-14.1524592769
  0
LWPOLYLINE
  5
2A5
100
AcDbEntity
  8
RACCORDO
100
AcDbPolyline
 62
250
  6
CONTINUOUS
 90
9
 70
0
 10
-7.5586579712
 20
-14.7148386077
 10
-7.5363730554
 20
-14.7143929351
 10
-7.5166365987
 20
-14.7135856389
 10
-7.4994674418
 20
-14.7126057064
 10
-7.4851498628
 20
-14.7119288492
 10
-7.4739803669
 20
-14.7111400898
 10
-7.4658644988
 20
-14.7100888028
 10
-7.4606784445
 20
-14.7091311766
 10
-7.4585306289
 20
-14.7084849346
  0
LWPOLYLINE
  5
2A6
100
AcDbEntity
  8
RACCORDO
100
AcDbPolyline
 62
250
  6
CONTINUOUS
 90
6
 70
0
 10
7.7584849375
 20
-14.7173153267
 10
7.7274586449
 20
-14.7177195548
 10
7.6966071803
 20
-14.717469907
 10
7.6663499209
 20
-14.7168412533
 10
7.6371877733
 20
-14.7164396263
 10
7.6094231385
 20
-14.7162225362
  0
LINE
  5
2A7
100
AcDbEntity
  8
RACCORDO
100
AcDbLine
 62
250
  6
CONTINUOUS
 10
9.5
 20
-14.7173153267
 11
7.7584849375
 21
-14.7173153267
  0
LINE
  5
2A8
100
AcDbEntity
  8
RACCORDO
100
AcDbLine
 62
250
  6
CONTINUOUS
 10
-7.7584849375
 20
-14.7173153267
 11
-9.5
 21
-14.7173153267
  0
LINE
  5
2A9
100
AcDbEntity
  8
RACCORDO
100
AcDbLine
 62
250
  6
CONTINUOUS
 10
9.5
 20
-14.4085306289
 11
7.7584849375
 21
-14.4085306289
  0
LINE
  5
2AA
100
AcDbEntity
  8
RACCORDO
100
AcDbLine
 62
250
  6
CONTINUOUS
 10
-7.7584849375
 20
-14.4085306289
 11
-9.5
 21
-14.4085306289
  0
LINE
  5
2AB
100
AcDbEntity
  8
RACCORDO
100
AcDbLine
 62
7
  6
CONTINUOUS
 10
-9.5
 20
-14.4
 11
-7.7499543085
 21
-14.4
  0
LINE
  5
2AC
100
AcDbEntity
  8
RACCORDO
100
AcDbLine
 62
7
  6
CONTINUOUS
 10
7.7499543085
 20
-14.4
 11
9.5
 21
-14.4
  0
LINE
  5
2AD
100
AcDbEntity
  8
RACCORDO
100
AcDbLine
 62
250
  6
CONTINUOUS
 10
15.0587868967
 20
-14.1172572525
 11
11.4314522316
 21
-14.1172572511
  0
LINE
  5
2AE
100
AcDbEntity
  8
RACCORDO
100
AcDbLine
 62
250
  6
CONTINUOUS
 10
-11.4314522319
 20
-14.117257251
 11
-15.0587868967
 21
-14.1172572528
  0
LINE
  5
2AF
100
AcDbEntity
  8
RACCORDO
100
AcDbLine
 62
250
  6
CONTINUOUS
 10
14.7588325882
 20
-13.8088325882
 11
11.4314522316
 21
-13.8088325882
  0
LINE
  5
2B0
100
AcDbEntity
  8
RACCORDO
100
AcDbLine
 62
250
  6
CONTINUOUS
 10
-11.4314522319
 20
-13.8088325882
 11
-14.7588325882
 21
-13.8088325882
  0
LINE
  5
2B1
100
AcDbEntity
  8
RACCORDO
100
AcDbLine
 62
7
  6
CONTINUOUS
 10
11.4287064621
 20
-13.8
 11
14.75
 21
-13.8
  0
LINE
  5
2B2
100
AcDbEntity
  8
RACCORDO
100
AcDbLine
 62
7
  6
CONTINUOUS
 10
-11.4287064621
 20
-13.8
 11
-14.75
 21
-13.8
  0
LINE
  5
2B3
100
AcDbEntity
  8
0
100
AcDbLine
 62
7
  6
CONTINUOUS
 10
-1.2631154582
 20
-13.3
 11
-0.9154657435
 21
-13.3
  0
LINE
  5
2B4
100
AcDbEntity
  8
0
100
AcDbLine
 62
7
  6
CONTINUOUS
 10
1.2631154582
 20
-13.3
 11
0.9154657435
 21
-13.3
  0
LINE
  5
2B5
100
AcDbEntity
  8
0
100
AcDbLine
 62
7
  6
CONTINUOUS
 10
0.7502665162
 20
-13.3
 11
0.9154657435
 21
-13.3
  0
LINE
  5
2B6
100
AcDbEntity
  8
0
100
AcDbLine
 62
7
  6
CONTINUOUS
 10
-0.7502665162
 20
-13.3
 11
-0.9154657435
 21
-13.3
  0
LWPOLYLINE
  5
2B7
100
AcDbEntity
  8
RACCORDO
100
AcDbPolyline
 62
250
  6
CONTINUOUS
 90
7
 70
0
 10
-7.7584849375
 20
-14.7173153267
 10
-7.7274586413
 20
-14.717719555
 10
-7.6966071731
 20
-14.7174699071
 10
-7.6663499101
 20
-14.7168412532
 10
-7.6371877593
 20
-14.7164396262
 10
-7.6094231217
 20
-14.7162225361
 10
-7.5586579712
 20
-14.7148386077
  0
LWPOLYLINE
  5
2B8
100
AcDbEntity
  8
RACCORDO
100
AcDbPolyline
 62
250
  6
CONTINUOUS
 90
13
 70
0
 10
-9.5
 20
-14.4085306289
 10
-9.6390274731
 20
-14.4052078344
 10
-9.7784157908
 20
-14.3951820257
 10
-9.9178366628
 20
-14.3783784131
 10
-10.0566101298
 20
-14.3548051265
 10
-10.1947436833
 20
-14.3243863189
 10
-10.3328964006
 20
-14.2867963183
 10
-10.4706551432
 20
-14.2418835215
 10
-10.607610471
 20
-14.1895103216
 10
-10.7443048846
 20
-14.1291001951
 10
-10.880521606
 20
-14.0602430993
 10
-11.0153504671
 20
-13.9828704014
 10
-11.1731495217
 20
-13.8807185559
  0
LWPOLYLINE
  5
2B9
100
AcDbEntity
  8
RACCORDO
100
AcDbPolyline
 62
250
  6
CONTINUOUS
 90
10
 70
0
 10
7.6094231385
 20
-14.7162225362
 10
7.5586579945
 20
-14.7148386091
 10
7.5363730816
 20
-14.7143929369
 10
7.5166366236
 20
-14.7135856399
 10
7.4994674614
 20
-14.7126057068
 10
7.485149876
 20
-14.7119288498
 10
7.4739803747
 20
-14.7111400905
 10
7.4658645026
 20
-14.7100888028
 10
7.4606784456
 20
-14.7091311762
 10
7.4585306289
 20
-14.7084849346
  0
LWPOLYLINE
  5
2BA
100
AcDbEntity
  8
RACCORDO
100
AcDbPolyline
 62
7
  6
CONTINUOUS
 90
7
 70
0
 10
-11.428706463
 20
-13.7999999999
 10
-11.3776973727
 20
-13.8027394486
 10
-11.328185488
 20
-13.8102647067
 10
-11.2801708089
 20
-13.822575774
 10
-11.2336533355
 20
-13.8396726506
 10
-11.1886330676
 20
-13.8615553365
 10
-11.1451100054
 20
-13.8882238316
  0
LINE
  5
2BB
100
AcDbEntity
  8
RACCORDO
100
AcDbLine
 62
7
  6
CONTINUOUS
 10
-4.0346426187
 20
-14.101793994
 11
-4.0227510325
 21
-14.1049803349
  0
LWPOLYLINE
  5
2BC
100
AcDbEntity
  8
RACCORDO
100
AcDbPolyline
 62
7
  6
CONTINUOUS
 90
4
 70
0
 10
-3.7955203838
 20
-14.1734602955
 10
-3.690821986
 20
-14.2024534095
 10
-3.6526099661
 20
-14.2128754785
 10
-3.6129035402
 20
-14.2233326391
  0
LINE
  5
2BD
100
AcDbEntity
  8
RACCORDO
100
AcDbLine
 62
7
  6
CONTINUOUS
 10
-3.8828636518
 20
-14.1488275196
 11
-3.7955203838
 21
-14.1734602955
  0
LWPOLYLINE
  5
2BE
100
AcDbEntity
  8
RACCORDO
100
AcDbPolyline
 62
7
  6
CONTINUOUS
 90
10
 70
0
 10
-4.0223618726
 20
-14.1052491426
 10
-4.0201207904
 20
-14.1065457012
 10
-4.0152589952
 20
-14.1085073602
 10
-4.0077572337
 20
-14.1111628002
 10
-3.9975819636
 20
-14.1145258684
 10
-3.9847469241
 20
-14.1186070506
 10
-3.9693215425
 20
-14.1233991449
 10
-3.9512525711
 20
-14.1288366178
 10
-3.9306343542
 20
-14.1349036838
 10
-3.8828636518
 20
-14.1488275196
  0
LINE
  5
2BF
100
AcDbEntity
  8
RACCORDO
100
AcDbLine
 62
7
  6
CONTINUOUS
 10
-4.0227510325
 20
-14.1049803349
 11
-4.0223618176
 21
-14.1052491879
  0
LINE
  5
2C0
100
AcDbEntity
  8
RACCORDO
100
AcDbLine
 62
7
  6
CONTINUOUS
 10
-5.25
 20
-15.306793994
 11
-5.2419495876
 21
-15.3148444064
  0
LWPOLYLINE
  5
2C1
100
AcDbEntity
  8
RACCORDO
100
AcDbPolyline
 62
7
  6
CONTINUOUS
 90
3
 70
0
 10
-4.9996618661
 20
-15.5665653096
 10
-4.9714615325
 20
-15.5949821059
 10
-4.9419952791
 20
-15.6241732189
  0
LWPOLYLINE
  5
2C2
100
AcDbEntity
  8
RACCORDO
100
AcDbPolyline
 62
7
  6
CONTINUOUS
 90
3
 70
0
 10
-5.1411011452
 20
-15.4226897728
 10
-5.0998040007
 20
-15.4649114501
 10
-4.9996618661
 20
-15.5665653096
  0
LINE
  5
2C3
100
AcDbEntity
  8
RACCORDO
100
AcDbLine
 62
7
  6
CONTINUOUS
 10
-5.1911581357
 20
-15.3707737998
 11
-5.1411011452
 21
-15.4226897728
  0
LWPOLYLINE
  5
2C4
100
AcDbEntity
  8
RACCORDO
100
AcDbPolyline
 62
250
  6
CONTINUOUS
 90
5
 70
0
 10
-11.1734593633
 20
-9.0680305309
 10
-11.1633837663
 20
-9.082074697
 10
-11.1558606155
 20
-9.0923727484
 10
-11.1510134305
 20
-9.0987556066
 10
-11.1489217868
 20
-9.101118487
  0
LINE
  5
2C5
100
AcDbEntity
  8
RACCORDO
100
AcDbLine
 62
250
  6
CONTINUOUS
 10
-11.2005670204
 20
-9.0296838786
 11
-11.1734593633
 21
-9.0680305309
  0
LINE
  5
2C6
100
AcDbEntity
  8
RACCORDO
100
AcDbLine
 62
250
  6
CONTINUOUS
 10
-11.2550371634
 20
-8.9516029982
 11
-11.2005670204
 21
-9.0296838786
  0
LINE
  5
2C7
100
AcDbEntity
  8
RACCORDO
100
AcDbLine
 62
250
  6
CONTINUOUS
 10
-11.3188329083
 20
-8.8592442319
 11
-11.2550371634
 21
-8.9516029982
  0
LINE
  5
2C8
100
AcDbEntity
  8
RACCORDO
100
AcDbLine
 62
250
  6
CONTINUOUS
 10
-11.1489217865
 20
-9.1011184868
 11
-11.1451100057
 21
-9.1117761685
  0
LINE
  5
2C9
100
AcDbEntity
  8
0
100
AcDbLine
 62
250
  6
CONTINUOUS
 10
-22.2587219643
 20
21.4755923698
 11
-22.4
 21
21.8997711479
  0
LINE
  5
2CA
100
AcDbEntity
  8
0
100
AcDbLine
 62
250
  6
CONTINUOUS
 10
-21.7587981167
 20
21.9749071372
 11
-21.9003805997
 21
22.4
  0
LINE
  5
2CB
100
AcDbEntity
  8
RACCORDO
100
AcDbLine
 62
250
  6
CONTINUOUS
 10
-11.4321036027
 20
-9.189070238
 11
-11.4287064621
 21
-9.2
  0
LINE
  5
2CC
100
AcDbEntity
  8
RACCORDO
100
AcDbLine
 62
250
  6
CONTINUOUS
 10
-11.4321036027
 20
-8.894452601
 11
-11.4321036023
 21
-9.189070238
  0
LINE
  5
2CD
100
AcDbEntity
  8
RACCORDO
100
AcDbLine
 62
250
  6
CONTINUOUS
 10
-11.4314522319
 20
-14.117257251
 11
-11.4314522319
 21
-13.8088325882
  0
LINE
  5
2CE
100
AcDbEntity
  8
ASSI
100
AcDbLine
 62
7
  6
CONTINUOUS
 10
-7.8133443637
 20
22.5
 11
-7.8348722771
 21
22.4
  0
LINE
  5
2CF
100
AcDbEntity
  8
0
100
AcDbLine
 62
250
  6
CONTINUOUS
 10
-1.6009595998
 20
10.9430140219
 11
-1.5008026722
 21
10.9847952982
  0
LWPOLYLINE
  5
2D0
100
AcDbEntity
  8
0
100
AcDbPolyline
 62
250
  6
CONTINUOUS
 90
3
 70
0
 10
-1.5008026722
 20
10.9847952982
 10
-1.4761145808
 20
10.9949446855
 10
-1.4244258888
 20
11.0157568472
  0
LINE
  5
2D1
100
AcDbEntity
  8
0
100
AcDbLine
 62
250
  6
CONTINUOUS
 10
-1.4017133877
 20
11.0247407096
 11
-1.4
 21
11.0254185433
  0
LWPOLYLINE
  5
2D2
100
AcDbEntity
  8
0
100
AcDbPolyline
 62
250
  6
CONTINUOUS
 90
3
 70
0
 10
-1.4244258888
 20
11.0157568472
 10
-1.4063495475
 20
11.0228828897
 10
-1.4017133877
 20
11.0247407096
  0
LWPOLYLINE
  5
2D3
100
AcDbEntity
  8
RACCORDO
100
AcDbPolyline
 62
250
  6
CONTINUOUS
 90
8
 70
0
 10
5.121086117
 20
-11.8657444124
 10
5.1504661432
 20
-11.8651305078
 10
5.1763277095
 20
-11.8644330816
 10
5.1982380798
 20
-11.8636638037
 10
5.2158306322
 20
-11.862835546
 10
5.2288109941
 20
-11.8619621677
 10
5.2369619679
 20
-11.8610582828
 10
5.2401471648
 20
-11.8601390158
  0
LWPOLYLINE
  5
2D4
100
AcDbEntity
  8
RACCORDO
100
AcDbPolyline
 62
250
  6
CONTINUOUS
 90
8
 70
0
 10
-2.329060887
 20
-11.5054351894
 10
-2.2996808628
 20
-11.5048399256
 10
-2.2738192966
 20
-11.5041636763
 10
-2.2519089246
 20
-11.5034177572
 10
-2.2343163683
 20
-11.5026146494
 10
-2.2213360003
 20
-11.5017677913
 10
-2.2131850184
 20
-11.500891353
 10
-2.2099998112
 20
-11.5
  0
LINE
  5
2D5
100
AcDbEntity
  8
RACCORDO
100
AcDbLine
 62
250
  6
CONTINUOUS
 10
5.0537877728
 20
-11.8666821369
 11
5.121086117
 21
-11.8657444124
  0
LINE
  5
2D6
100
AcDbEntity
  8
RACCORDO
100
AcDbLine
 62
250
  6
CONTINUOUS
 10
-2.3963592228
 20
-11.5063444407
 11
-2.329060887
 21
-11.5054351894
  0
LWPOLYLINE
  5
2D7
100
AcDbEntity
  8
RACCORDO
100
AcDbPolyline
 62
250
  6
CONTINUOUS
 90
3
 70
0
 10
4.9401928563
 20
-11.8672593654
 10
4.9789181918
 20
-11.8671837548
 10
5.0537877728
 20
-11.8666821369
  0
LWPOLYLINE
  5
2D8
100
AcDbEntity
  8
RACCORDO
100
AcDbPolyline
 62
250
  6
CONTINUOUS
 90
3
 70
0
 10
-2.5099541197
 20
-11.5069041425
 10
-2.4712287913
 20
-11.5068308276
 10
-2.3963592228
 20
-11.5063444407
  0
LINE
  5
2D9
100
AcDbEntity
  8
RACCORDO
100
AcDbLine
 62
250
  6
CONTINUOUS
 10
2.2
 20
-11.5
 11
2.2099998112
 21
-11.5
  0
LINE
  5
2DA
100
AcDbEntity
  8
RACCORDO
100
AcDbLine
 62
250
  6
CONTINUOUS
 10
-2.2
 20
-11.5
 11
-2.2099998112
 21
-11.5
  0
LINE
  5
2DB
100
AcDbEntity
  8
0
100
AcDbLine
 62
250
  6
CONTINUOUS
 10
-2.2
 20
-11.3
 11
-1.7607022669
 21
-11.3
  0
LINE
  5
2DC
100
AcDbEntity
  8
0
100
AcDbLine
 62
250
  6
CONTINUOUS
 10
2.2
 20
-11.3
 11
1.7607022669
 21
-11.3
  0
LINE
  5
2DD
100
AcDbEntity
  8
RACCORDO
100
AcDbLine
 62
250
  6
CONTINUOUS
 10
2.5099541197
 20
-11.5069041424
 11
2.4331494776
 21
-11.5066432003
  0
LINE
  5
2DE
100
AcDbEntity
  8
RACCORDO
100
AcDbLine
 62
250
  6
CONTINUOUS
 10
-4.9401928563
 20
-11.8672593654
 11
-5.0169936273
 21
-11.8669902918
  0
LWPOLYLINE
  5
2DF
100
AcDbEntity
  8
RACCORDO
100
AcDbPolyline
 62
250
  6
CONTINUOUS
 90
10
 70
0
 10
2.4331494776
 20
-11.5066432003
 10
2.3614650622
 20
-11.5059394696
 10
2.3290582756
 20
-11.5054351415
 10
2.2996785412
 20
-11.5048398707
 10
2.2738174209
 20
-11.504163619
 10
2.2519075784
 20
-11.5034177029
 10
2.2343155305
 20
-11.5026146028
 10
2.2213355872
 20
-11.5017677562
 10
2.2131849027
 20
-11.5008913337
 10
2.209999812
 20
-11.5
  0
LWPOLYLINE
  5
2E0
100
AcDbEntity
  8
RACCORDO
100
AcDbPolyline
 62
250
  6
CONTINUOUS
 90
10
 70
0
 10
-5.0169936273
 20
-11.8669902918
 10
-5.0886765364
 20
-11.8662645834
 10
-5.121083439
 20
-11.865744486
 10
-5.1504637147
 20
-11.8651305903
 10
-5.1763257071
 20
-11.8644331672
 10
-5.1982366049
 20
-11.8636638851
 10
-5.2158296907
 20
-11.8628356165
 10
-5.2288105189
 20
-11.8619622208
 10
-5.2369618293
 20
-11.861058312
 10
-5.2401471648
 20
-11.8601390155
  0
LWPOLYLINE
  5
2E1
100
AcDbEntity
  8
0
100
AcDbPolyline
 62
7
  6
CONTINUOUS
 90
3
 70
0
 10
-1.136575925
 20
-13.2297621064
 10
-1.0287565871
 20
-13.2805090847
 10
-0.9154657435
 20
-13.3
  0
LWPOLYLINE
  5
2E2
100
AcDbEntity
  8
RACCORDO
100
AcDbPolyline
 62
7
  6
CONTINUOUS
 90
8
 70
0
 10
-5.2417876373
 20
-15.315150007
 10
-5.2404749397
 20
-15.3172394306
 10
-5.2371891767
 20
-15.3212490062
 10
-5.2319303482
 20
-15.3272131811
 10
-5.224682724
 20
-15.3351580077
 10
-5.2154620344
 20
-15.3450862315
 10
-5.2043154702
 20
-15.3569650687
 10
-5.1911581357
 20
-15.3707737998
  0
LWPOLYLINE
  5
2E3
100
AcDbEntity
  8
RACCORDO
100
AcDbPolyline
 62
250
  6
CONTINUOUS
 90
4
 70
0
 10
-9.2058055885
 20
-8.5021537761
 10
-9.1991677981
 20
-8.5130470997
 10
-9.1948930719
 20
-8.5198267933
 10
-9.1930516266
 20
-8.5223814936
  0
LINE
  5
2E4
100
AcDbEntity
  8
RACCORDO
100
AcDbLine
 62
250
  6
CONTINUOUS
 10
-9.2256972067
 20
-8.4688066067
 11
-9.2058055885
 21
-8.5021537761
  0
LINE
  5
2E5
100
AcDbEntity
  8
RACCORDO
100
AcDbLine
 62
250
  6
CONTINUOUS
 10
-9.2693828118
 20
-8.3944165941
 11
-9.2256972067
 21
-8.4688066067
  0
LINE
  5
2E6
100
AcDbEntity
  8
RACCORDO
100
AcDbLine
 62
250
  6
CONTINUOUS
 10
-9.3430287747
 20
-8.2675739838
 11
-9.2693828118
 21
-8.3944165941
  0
LINE
  5
2E7
100
AcDbEntity
  8
RACCORDO
100
AcDbLine
 62
7
  6
CONTINUOUS
 10
-4.0346426187
 20
-14.101793994
 11
-5.1830229044
 21
-12.1127409928
  0
LINE
  5
2E8
100
AcDbEntity
  8
RACCORDO
100
AcDbLine
 62
250
  6
CONTINUOUS
 10
-5.1732116827
 20
-12.1101120839
 11
-4.0223618176
 21
-14.1052491879
  0
LINE
  5
2E9
100
AcDbEntity
  8
RACCORDO
100
AcDbLine
 62
250
  6
CONTINUOUS
 10
-4.841641774
 20
-14.9327538221
 11
-4.8993276811
 21
-14.8321786442
  0
LINE
  5
2EA
100
AcDbEntity
  8
RACCORDO
100
AcDbLine
 62
250
  6
CONTINUOUS
 10
-4.8993276811
 20
-14.8321786442
 11
-4.9333605867
 21
-14.7720676438
  0
LWPOLYLINE
  5
2EB
100
AcDbEntity
  8
RACCORDO
100
AcDbPolyline
 62
250
  6
CONTINUOUS
 90
7
 70
0
 10
-4.9333605867
 20
-14.7720676438
 10
-4.9610766147
 20
-14.7224063548
 10
-4.9719483323
 20
-14.7025983489
 10
-4.9805665347
 20
-14.68661569
 10
-4.986782147
 20
-14.674734837
 10
-4.99048765
 20
-14.667161303
 10
-4.9916189292
 20
-14.6640261191
  0
LINE
  5
2EC
100
AcDbEntity
  8
RACCORDO
100
AcDbLine
 62
7
  6
CONTINUOUS
 10
-5.2419495876
 20
-15.3148444064
 11
-5.2417859579
 21
-15.3151539226
  0
LINE
  5
2ED
100
AcDbEntity
  8
RACCORDO
100
AcDbLine
 62
250
  6
CONTINUOUS
 10
-9.1901614481
 20
-8.5335501939
 11
-9.1930516206
 21
-8.5223814902
  0
LINE
  5
2EE
100
AcDbEntity
  8
RACCORDO
100
AcDbLine
 62
250
  6
CONTINUOUS
 10
-9.4489276144
 20
-8.600449757
 11
-9.4513638069
 21
-8.5892965859
  0
LINE
  5
2EF
100
AcDbEntity
  8
ASSI
100
AcDbLine
 62
7
  6
CONTINUOUS
 10
-7.8133443637
 20
-22.5
 11
-7.8348722771
 21
-22.4
  0
LINE
  5
2F0
100
AcDbEntity
  8
RACCORDO
100
AcDbLine
 62
250
  6
CONTINUOUS
 10
-9.5
 20
-14.7173153267
 11
-9.5
 21
-14.4
  0
LINE
  5
2F1
100
AcDbEntity
  8
RACCORDO
100
AcDbLine
 62
250
  6
CONTINUOUS
 10
-9.4463524411
 20
-8.2943607593
 11
-9.4513638086
 21
-8.5892965857
  0
LINE
  5
2F2
100
AcDbEntity
  8
ASSI
100
AcDbLine
 62
7
  6
CONTINUOUS
 10
-14.6866556363
 20
-22.5
 11
-14.6651277229
 21
-22.4
  0
LWPOLYLINE
  5
2F3
100
AcDbEntity
  8
0
100
AcDbPolyline
 62
7
  6
CONTINUOUS
 90
3
 70
0
 43
0.3500000006
 10
1.035714268
 20
32.5357161255
 10
0.9642857051
 20
32.3214271088
 10
0.8214285793
 20
32.0357159729
  0
LINE
  5
2F4
100
AcDbEntity
  8
RACCORDO
100
AcDbLine
 62
7
  6
CONTINUOUS
 10
2.3590051543
 20
15.0640387139
 11
2.4090628965
 21
15.115920525
  0
LWPOLYLINE
  5
2F5
100
AcDbEntity
  8
RACCORDO
100
AcDbPolyline
 62
7
  6
CONTINUOUS
 90
3
 70
0
 10
2.4090628965
 20
15.115920525
 10
2.4733308995
 20
15.1815138671
 10
2.5505034478
 20
15.2597554726
  0
LWPOLYLINE
  5
2F6
100
AcDbEntity
  8
RACCORDO
100
AcDbPolyline
 62
7
  6
CONTINUOUS
 90
3
 70
0
 10
2.5505034478
 20
15.2597554726
 10
2.5787039576
 20
15.2881701373
 10
2.6081704061
 20
15.3173608131
  0
LINE
  5
2F7
100
AcDbEntity
  8
RACCORDO
100
AcDbLine
 62
7
  6
CONTINUOUS
 10
2.3082160975
 20
15.0082160975
 11
2.3
 21
15.0
  0
LWPOLYLINE
  5
2F8
100
AcDbEntity
  8
RACCORDO
100
AcDbPolyline
 62
250
  6
CONTINUOUS
 90
10
 70
0
 10
-2.6454390705
 20
11.8523010048
 10
-2.6385535769
 20
11.8586788933
 10
-2.6323697492
 20
11.8655557627
 10
-2.6268875876
 20
11.8729316123
 10
-2.6220681302
 20
11.88076259
 10
-2.6179503388
 20
11.8890925468
 10
-2.6146510986
 20
11.8980530375
 10
-2.6122093712
 20
11.9076879129
 10
-2.6105861949
 20
11.9179533204
 10
-2.6097815697
 20
11.9288492591
  0
LWPOLYLINE
  5
2F9
100
AcDbEntity
  8
RACCORDO
100
AcDbPolyline
 62
250
  6
CONTINUOUS
 90
10
 70
0
 10
-2.4523619613
 20
11.6156382753
 10
-2.4251821873
 20
11.6407362776
 10
-2.4003810222
 20
11.6683060168
 10
-2.3781898065
 20
11.6981269086
 10
-2.3590382573
 20
11.7295568324
 10
-2.3428211401
 20
11.7626945891
 10
-2.3292756531
 20
11.7985671468
 10
-2.3188201698
 20
11.8374360662
 10
-2.3121641836
 20
11.8786030319
 10
-2.3098272652
 20
11.9216919514
  0
LINE
  5
2FA
100
AcDbEntity
  8
RACCORDO
100
AcDbLine
 62
250
  6
CONTINUOUS
 10
2.4428374569
 20
11.6107636728
 11
2.4523619688
 21
11.6156382791
  0
LINE
  5
2FB
100
AcDbEntity
  8
RACCORDO
100
AcDbLine
 62
250
  6
CONTINUOUS
 10
2.3
 20
11.9171131833
 11
2.3098272611
 21
11.9216919495
  0
LINE
  5
2FC
100
AcDbEntity
  8
RACCORDO
100
AcDbLine
 62
250
  6
CONTINUOUS
 10
-5.1732116827
 20
-12.1101120839
 11
-5.1830229044
 21
-12.1127409928
  0
LINE
  5
2FD
100
AcDbEntity
  8
RACCORDO
100
AcDbLine
 62
250
  6
CONTINUOUS
 10
-5.2401471648
 20
-11.8601390098
 11
-5.25
 21
-11.862779069
  0
LWPOLYLINE
  5
2FE
100
AcDbEntity
  8
RACCORDO
100
AcDbPolyline
 62
250
  6
CONTINUOUS
 90
10
 70
0
 10
-11.4321036027
 20
-9.189070238
 10
-11.4024236587
 20
-9.1881868551
 10
-11.3719639992
 20
-9.1854365374
 10
-11.3408534047
 20
-9.1806669924
 10
-11.30930181
 20
-9.1737466096
 10
-11.2774154441
 20
-9.1645282687
 10
-11.2452088817
 20
-9.1528116941
 10
-11.2128528294
 20
-9.1384160038
 10
-11.1806628363
 20
-9.1212237655
 10
-11.1489217865
 20
-9.1011184868
  0
LWPOLYLINE
  5
2FF
100
AcDbEntity
  8
RACCORDO
100
AcDbPolyline
 62
250
  6
CONTINUOUS
 90
10
 70
0
 10
-11.4321036027
 20
-8.894452601
 10
-11.4201320312
 20
-8.8941971356
 10
-11.407965252
 20
-8.8930763076
 10
-11.3956032652
 20
-8.8910901169
 10
-11.382990481
 20
-8.8883036043
 10
-11.3701824891
 20
-8.8846517286
 10
-11.357346059
 20
-8.8799393665
 10
-11.3445367803
 20
-8.8741014763
 10
-11.3316990634
 20
-8.8672030983
 10
-11.3188329083
 20
-8.8592442319
  0
LWPOLYLINE
  5
300
100
AcDbEntity
  8
RACCORDO
100
AcDbPolyline
 62
250
  6
CONTINUOUS
 90
13
 70
0
 10
-9.6112275579
 20
-8.5910166697
 10
-9.4246463834
 20
-8.5890276142
 10
-9.3987593604
 20
-8.5874015227
 10
-9.3737648912
 20
-8.5845438747
 10
-9.3497237455
 20
-8.5805809431
 10
-9.3266636283
 20
-8.5756337599
 10
-9.3045811541
 20
-8.569812289
 10
-9.2834896709
 20
-8.5632254823
 10
-9.2634077625
 20
-8.5559824607
 10
-9.2443288469
 20
-8.5481819392
 10
-9.2262474436
 20
-8.5399197652
 10
-9.2091593675
 20
-8.5312902395
 10
-9.1930516202
 20
-8.522381491
  0
LINE
  5
301
100
AcDbEntity
  8
RACCORDO
100
AcDbLine
 62
7
  6
CONTINUOUS
 10
14.75
 20
-9.2
 11
11.4287064621
 21
-9.2
  0
LINE
  5
302
100
AcDbEntity
  8
RACCORDO
100
AcDbLine
 62
7
  6
CONTINUOUS
 10
-11.4287064621
 20
-9.2
 11
-14.75
 21
-9.2
  0
LINE
  5
303
100
AcDbEntity
  8
RACCORDO
100
AcDbLine
 62
250
  6
CONTINUOUS
 10
-14.7609788705
 20
-9.189070238
 11
-11.4321036027
 21
-9.189070238
  0
LINE
  5
304
100
AcDbEntity
  8
RACCORDO
100
AcDbLine
 62
250
  6
CONTINUOUS
 10
11.4321036027
 20
-9.189070238
 11
14.7609788705
 21
-9.189070238
  0
LINE
  5
305
100
AcDbEntity
  8
RACCORDO
100
AcDbLine
 62
250
  6
CONTINUOUS
 10
-15.0608840705
 20
-8.8944526203
 11
-11.4321036027
 21
-8.894452601
  0
LINE
  5
306
100
AcDbEntity
  8
RACCORDO
100
AcDbLine
 62
250
  6
CONTINUOUS
 10
11.4321036027
 20
-8.894452601
 11
15.0608840705
 21
-8.8944526204
  0
LWPOLYLINE
  5
307
100
AcDbEntity
  8
RACCORDO
100
AcDbPolyline
 62
250
  6
CONTINUOUS
 90
13
 70
0
 10
9.4513638085
 20
-8.5892965859
 10
9.5953760307
 20
-8.5904533934
 10
9.7398678939
 20
-8.5987923465
 10
9.8844757321
 20
-8.614399284
 10
10.0285923117
 20
-8.6372983911
 10
10.1720758196
 20
-8.6675579632
 10
10.3152259569
 20
-8.7054072074
 10
10.457604014
 20
-8.7509546206
 10
10.5987796011
 20
-8.804292669
 10
10.7389763382
 20
-8.8658068074
 10
10.8778888701
 20
-8.935760923
 10
11.0147301843
 20
-9.014172426
 10
11.1743480594
 20
-9.1174866967
  0
LWPOLYLINE
  5
308
100
AcDbEntity
  8
RACCORDO
100
AcDbPolyline
 62
7
  6
CONTINUOUS
 90
7
 70
0
 10
11.4287064621
 20
-9.2
 10
11.377735621
 20
-9.19727245
 10
11.328246686
 20
-9.1897543312
 10
11.2802396569
 20
-9.1774456437
 10
11.2337145338
 20
-9.1603463874
 10
11.1886713167
 20
-9.1384565624
 10
11.1451100057
 20
-9.1117761685
  0
LINE
  5
309
100
AcDbEntity
  8
RACCORDO
100
AcDbLine
 62
250
  6
CONTINUOUS
 10
-5.25
 20
-8.0344101887
 11
-7.9730474679
 21
-7.8308491098
  0
LINE
  5
30A
100
AcDbEntity
  8
RACCORDO
100
AcDbLine
 62
250
  6
CONTINUOUS
 10
5.1830229044
 20
-12.1127409928
 11
5.1732116827
 21
-12.1101120839
  0
LINE
  5
30B
100
AcDbEntity
  8
RACCORDO
100
AcDbLine
 62
250
  6
CONTINUOUS
 10
5.25
 20
-11.862779069
 11
5.2401471648
 21
-11.8601390098
  0
LINE
  5
30C
100
AcDbEntity
  8
RACCORDO
100
AcDbLine
 62
250
  6
CONTINUOUS
 10
4.9916189283
 20
-14.6640261186
 11
4.0227510433
 21
-14.104980332
  0
LINE
  5
30D
100
AcDbEntity
  8
RACCORDO
100
AcDbLine
 62
250
  6
CONTINUOUS
 10
4.841641774
 20
-14.9327538221
 11
3.6129035402
 21
-14.2233326391
  0
LINE
  5
30E
100
AcDbEntity
  8
RACCORDO
100
AcDbLine
 62
7
  6
CONTINUOUS
 10
4.0346426187
 20
-14.101793994
 11
5.0000380762
 21
-14.6591653213
  0
LWPOLYLINE
  5
30F
100
AcDbEntity
  8
0
100
AcDbPolyline
 62
7
  6
CONTINUOUS
 90
3
 70
0
 10
-1.337346257
 20
-13.0320553912
 10
-1.2389237574
 20
-13.147759065
 10
-1.136575925
 20
-13.2297621064
  0
LINE
  5
310
100
AcDbEntity
  8
RACCORDO
100
AcDbLine
 62
250
  6
CONTINUOUS
 10
-4.9134436316
 20
-11.9673153188
 11
-3.6129035402
 21
-14.2233326391
  0
LWPOLYLINE
  5
311
100
AcDbEntity
  8
RACCORDO
100
AcDbPolyline
 62
7
  6
CONTINUOUS
 90
3
 70
0
 10
-7.7376860244
 20
-7.6818478612
 10
-7.7384035613
 20
-7.6797579649
 10
-7.7399103832
 20
-7.6745679227
  0
LINE
  5
312
100
AcDbEntity
  8
RACCORDO
100
AcDbLine
 62
7
  6
CONTINUOUS
 10
-7.7399103832
 20
-7.6745679227
 11
-7.7492693437
 21
-7.6409304161
  0
LINE
  5
313
100
AcDbEntity
  8
RACCORDO
100
AcDbLine
 62
7
  6
CONTINUOUS
 10
-7.8094844111
 20
-7.4177669919
 11
-7.8180585392
 21
-7.3863253479
  0
LWPOLYLINE
  5
314
100
AcDbEntity
  8
RACCORDO
100
AcDbPolyline
 62
7
  6
CONTINUOUS
 90
3
 70
0
 10
-7.7492693437
 20
-7.6409304161
 10
-7.793247507
 20
-7.4786659167
 10
-7.8094844111
 20
-7.4177669919
  0
LINE
  5
315
100
AcDbEntity
  8
RACCORDO
100
AcDbLine
 62
7
  6
CONTINUOUS
 10
-7.7346426187
 20
-7.693206006
 11
-7.7376832363
 21
-7.6818582665
  0
LINE
  5
316
100
AcDbEntity
  8
ASSI
100
AcDbLine
 62
7
  6
CONTINUOUS
 10
-14.6866556363
 20
22.5
 11
-14.6651277229
 21
22.4
  0
LWPOLYLINE
  5
317
100
AcDbEntity
  8
RACCORDO
100
AcDbPolyline
 62
250
  6
CONTINUOUS
 90
16
 70
0
 10
-7.4585306289
 20
-14.7084849375
 10
-7.4601827207
 20
-14.6771372384
 10
-7.4651018067
 20
-14.6461328554
 10
-7.473234014
 20
-14.6158113475
 10
-7.4844902803
 20
-14.5865047942
 10
-7.4987473279
 20
-14.5585341609
 10
-7.5158490133
 20
-14.5322057833
 10
-7.5356080395
 20
-14.5078080092
 10
-7.5578080063
 20
-14.4856080421
 10
-7.5822057788
 20
-14.4658490166
 10
-7.6085341512
 20
-14.4487473334
 10
-7.6365047775
 20
-14.4344902878
 10
-7.6658113272
 20
-14.4232340207
 10
-7.6961328374
 20
-14.4151018105
 10
-7.7271372272
 20
-14.4101827219
 10
-7.7584849375
 20
-14.4085306289
  0
LINE
  5
318
100
AcDbEntity
  8
RACCORDO
100
AcDbLine
 62
250
  6
CONTINUOUS
 10
-7.4582123695
 20
-15.3151500228
 11
-7.4585306289
 21
-14.7084849375
  0
LINE
  5
319
100
AcDbEntity
  8
0
100
AcDbLine
 62
7
  6
CONTINUOUS
 10
-7.7801797403
 20
22.5
 11
-7.7801797403
 21
22.4
  0
LINE
  5
31A
100
AcDbEntity
  8
ASSI
100
AcDbLine
 62
7
  6
CONTINUOUS
 10
-7.7801797403
 20
22.5
 11
-7.7801797403
 21
22.4
  0
LINE
  5
31B
100
AcDbEntity
  8
0
100
AcDbLine
 62
7
  6
CONTINUOUS
 10
-7.7801797403
 20
-22.4
 11
-7.7801797403
 21
-22.5
  0
LINE
  5
31C
100
AcDbEntity
  8
ASSI
100
AcDbLine
 62
7
  6
CONTINUOUS
 10
-7.7801797403
 20
-22.4
 11
-7.7801797403
 21
-22.5
  0
LINE
  5
31D
100
AcDbEntity
  8
RACCORDO
100
AcDbLine
 62
250
  6
CONTINUOUS
 10
-7.7580047209
 20
-15.6241732065
 11
-7.7584849375
 21
-14.4085306289
  0
LINE
  5
31E
100
AcDbEntity
  8
RACCORDO
100
AcDbLine
 62
7
  6
CONTINUOUS
 10
-7.45
 20
-14.6999543085
 11
-7.45
 21
-15.306793994
  0
LINE
  5
31F
100
AcDbEntity
  8
RACCORDO
100
AcDbLine
 62
250
  6
CONTINUOUS
 10
-11.4314522319
 20
-13.8088325882
 11
-11.4287064621
 21
-13.8
  0
LWPOLYLINE
  5
320
100
AcDbEntity
  8
0
100
AcDbPolyline
 62
250
  6
CONTINUOUS
 90
3
 70
0
 10
-2.0976810944
 20
10.2501186683
 10
-2.0108077966
 20
10.4027644933
 10
-1.9175352709
 20
10.5483980906
  0
LWPOLYLINE
  5
321
100
AcDbEntity
  8
0
100
AcDbPolyline
 62
250
  6
CONTINUOUS
 90
4
 70
0
 10
-1.9175352709
 20
10.5483980906
 10
-1.8184092752
 20
10.6869496403
 10
-1.7128840514
 20
10.8184889624
 10
-1.6009595998
 20
10.9430160569
  0
LINE
  5
322
100
AcDbEntity
  8
0
100
AcDbLine
 62
250
  6
CONTINUOUS
 10
-1.6816695578
 20
10.3786284608
 11
-1.7249645902
 21
10.3262287486
  0
LINE
  5
323
100
AcDbEntity
  8
RACCORDO
100
AcDbLine
 62
250
  6
CONTINUOUS
 10
7.8408878796
 20
-7.7545467359
 11
5.25
 21
-7.9496530351
  0
LINE
  5
324
100
AcDbEntity
  8
RACCORDO
100
AcDbLine
 62
250
  6
CONTINUOUS
 10
6.3510160429
 20
-7.693206006
 11
5.25
 21
-7.7761178013
  0
LWPOLYLINE
  5
325
100
AcDbEntity
  8
RACCORDO
100
AcDbPolyline
 62
250
  6
CONTINUOUS
 90
12
 70
0
 10
-9.4356317961
 20
-8.2941708999
 10
-9.4252852049
 20
-8.2935370916
 10
-9.4153126674
 20
-8.2924593345
 10
-9.4057065398
 20
-8.2908919536
 10
-9.3964744659
 20
-8.2888806238
 10
-9.3876393778
 20
-8.2865623693
 10
-9.3792082767
 20
-8.2839424013
 10
-9.3711741614
 20
-8.2810155084
 10
-9.3635389606
 20
-8.2779030813
 10
-9.3563033174
 20
-8.2746455832
 10
-9.3494665887
 20
-8.2712025508
 10
-9.3430287747
 20
-8.2675739838
  0
LWPOLYLINE
  5
326
100
AcDbEntity
  8
RACCORDO
100
AcDbPolyline
 62
250
  6
CONTINUOUS
 90
6
 70
0
 10
-2.2753899186
 20
-6.5023533475
 10
-2.253480058
 20
-6.5019317433
 10
-2.2358879668
 20
-6.5014778178
 10
-2.2229079559
 20
-6.5009991662
 10
-2.2147571825
 20
-6.5005037978
 10
-2.2115719849
 20
-6.5000000012
  0
LINE
  5
327
100
AcDbEntity
  8
RACCORDO
100
AcDbLine
 62
250
  6
CONTINUOUS
 10
-2.3306307479
 20
-6.5030720336
 11
-2.2753899186
 21
-6.5023533475
  0
LINE
  5
328
100
AcDbEntity
  8
RACCORDO
100
AcDbLine
 62
250
  6
CONTINUOUS
 10
-2.4347217953
 20
-6.5037548505
 11
-2.3306307479
 21
-6.5030720336
  0
LINE
  5
329
100
AcDbEntity
  8
RACCORDO
100
AcDbLine
 62
250
  6
CONTINUOUS
 10
-2.5115262934
 20
-6.5039023415
 11
-2.4347217953
 21
-6.5037548505
  0
LINE
  5
32A
100
AcDbEntity
  8
DRAFT
100
AcDbLine
 62
7
  6
CONTINUOUS
 10
7.7346426187
 20
-7.693206006
 11
5.25
 21
-7.693206006
  0
LINE
  5
32B
100
AcDbEntity
  8
DRAFT
100
AcDbLine
 62
7
  6
CONTINUOUS
 10
-5.25
 20
-7.693206006
 11
-7.7346426187
 21
-7.693206006
  0
LINE
  5
32C
100
AcDbEntity
  8
RACCORDO
100
AcDbLine
 62
250
  6
CONTINUOUS
 10
-7.7376860244
 20
-7.6818478612
 11
-5.2386418552
 21
-7.6818478612
  0
LINE
  5
32D
100
AcDbEntity
  8
RACCORDO
100
AcDbLine
 62
250
  6
CONTINUOUS
 10
5.2386418552
 20
-7.6818478612
 11
7.7376860244
 21
-7.6818478612
  0
LINE
  5
32E
100
AcDbEntity
  8
RACCORDO
100
AcDbLine
 62
250
  6
CONTINUOUS
 10
-7.8180585561
 20
-7.3863253576
 11
-4.9386875467
 21
-7.3863253523
  0
LINE
  5
32F
100
AcDbEntity
  8
RACCORDO
100
AcDbLine
 62
250
  6
CONTINUOUS
 10
4.9386875467
 20
-7.3863253524
 11
7.8180585564
 21
-7.3863253578
  0
LINE
  5
330
100
AcDbEntity
  8
RACCORDO
100
AcDbLine
 62
250
  6
CONTINUOUS
 10
-2.2
 20
-6.5
 11
-2.2115719849
 21
-6.5
  0
LINE
  5
331
100
AcDbEntity
  8
RACCORDO
100
AcDbLine
 62
250
  6
CONTINUOUS
 10
2.2
 20
-6.5
 11
2.2115719849
 21
-6.5
  0
LINE
  5
332
100
AcDbEntity
  8
0
100
AcDbLine
 62
250
  6
CONTINUOUS
 10
-2.2
 20
-6.3
 11
-1.7607022669
 21
-6.3
  0
LINE
  5
333
100
AcDbEntity
  8
0
100
AcDbLine
 62
250
  6
CONTINUOUS
 10
2.2
 20
-6.3
 11
1.7607022669
 21
-6.3
  0
LINE
  5
334
100
AcDbEntity
  8
RACCORDO
100
AcDbLine
 62
250
  6
CONTINUOUS
 10
2.5115262934
 20
-6.5039023414
 11
2.3979316086
 21
-6.5035859848
  0
LWPOLYLINE
  5
335
100
AcDbEntity
  8
RACCORDO
100
AcDbPolyline
 62
250
  6
CONTINUOUS
 90
13
 70
0
 10
9.4463524429
 20
-8.2943607594
 10
9.6058881059
 20
-8.2955137958
 10
9.7651344151
 20
-8.3047488071
 10
9.9240913707
 20
-8.3220657859
 10
10.0829484175
 20
-8.347322162
 10
10.2415161106
 20
-8.3806604713
 10
10.3992261152
 20
-8.4225083539
 10
10.5561669531
 20
-8.4727825927
 10
10.7122501026
 20
-8.5315663249
 10
10.8666416629
 20
-8.5995367053
 10
11.0190636672
 20
-8.6769194034
 10
11.1697940823
 20
-8.7634886076
 10
11.3188329083
 20
-8.8592442319
  0
LINE
  5
336
100
AcDbEntity
  8
RACCORDO
100
AcDbLine
 62
250
  6
CONTINUOUS
 10
2.3979316086
 20
-6.5035859848
 11
2.3306333645
 21
-6.5030720593
  0
LWPOLYLINE
  5
337
100
AcDbEntity
  8
RACCORDO
100
AcDbPolyline
 62
250
  6
CONTINUOUS
 90
7
 70
0
 10
2.3306333645
 20
-6.5030720593
 10
2.2753917969
 20
-6.5023533783
 10
2.253481405
 20
-6.5019317723
 10
2.2358888063
 20
-6.5014778426
 10
2.2229083728
 20
-6.5009991844
 10
2.2147573024
 20
-6.5005038073
 10
2.2115719849
 20
-6.5
  0
LWPOLYLINE
  5
338
100
AcDbEntity
  8
RACCORDO
100
AcDbPolyline
 62
7
  6
CONTINUOUS
 90
7
 70
0
 10
9.4489276134
 20
-8.6004497569
 10
9.4032495579
 20
-8.5990798549
 10
9.358591647
 20
-8.5937979428
 10
9.3149538805
 20
-8.5846040206
 10
9.2723362585
 20
-8.5714980884
 10
9.230738781
 20
-8.5544801462
 10
9.1901614481
 20
-8.5335501939
  0
LINE
  5
339
100
AcDbEntity
  8
RACCORDO
100
AcDbLine
 62
250
  6
CONTINUOUS
 10
-5.25
 20
-7.8614471794
 11
-7.5005711992
 21
-7.693206006
  0
LWPOLYLINE
  5
33A
100
AcDbEntity
  8
RACCORDO
100
AcDbPolyline
 62
250
  6
CONTINUOUS
 90
7
 70
0
 10
5.0944814363
 20
-12.0696614326
 10
5.1168733665
 20
-12.0818880402
 10
5.13591361
 20
-12.0921086507
 10
5.1512883564
 20
-12.1001548098
 10
5.1627442141
 20
-12.1058939046
 10
5.1700923701
 20
-12.1092313395
 10
5.1732116822
 20
-12.1101120848
  0
LINE
  5
33B
100
AcDbEntity
  8
RACCORDO
100
AcDbLine
 62
250
  6
CONTINUOUS
 10
5.0411676802
 20
-12.0400259177
 11
5.0944814363
 21
-12.0696614326
  0
LINE
  5
33C
100
AcDbEntity
  8
RACCORDO
100
AcDbLine
 62
250
  6
CONTINUOUS
 10
4.9794719282
 20
-12.0051474492
 11
5.0411676802
 21
-12.0400259177
  0
LINE
  5
33D
100
AcDbEntity
  8
RACCORDO
100
AcDbLine
 62
250
  6
CONTINUOUS
 10
4.9134436316
 20
-11.9673153188
 11
4.9794719282
 21
-12.0051474492
  0
LINE
  5
33E
100
AcDbEntity
  8
RACCORDO
100
AcDbLine
 62
250
  6
CONTINUOUS
 10
-4.4137869952
 20
-14.3206931018
 11
-4.4735480849
 21
-13.3415874268
  0
LWPOLYLINE
  5
33F
100
AcDbEntity
  8
RACCORDO
100
AcDbPolyline
 62
250
  6
CONTINUOUS
 90
10
 70
0
 10
-5.2401471648
 20
-11.8601390098
 10
-5.2394470896
 20
-11.8866495414
 10
-5.2372888987
 20
-11.9135868592
 10
-5.2335975092
 20
-11.9408657111
 10
-5.2283410374
 20
-11.9682147268
 10
-5.2214336853
 20
-11.9957138707
 10
-5.2126363637
 20
-12.0237692284
 10
-5.2017332399
 20
-12.0523960679
 10
-5.1886345783
 20
-12.0812431587
 10
-5.1732116827
 20
-12.1101120839
  0
LWPOLYLINE
  5
340
100
AcDbEntity
  8
RACCORDO
100
AcDbPolyline
 62
250
  6
CONTINUOUS
 90
10
 70
0
 10
-4.9401928563
 20
-11.8672593654
 10
-4.9399632111
 20
-11.8779334223
 10
-4.9390929703
 20
-11.8887042617
 10
-4.9375821339
 20
-11.8995718836
 10
-4.9354907381
 20
-11.9105175736
 10
-4.9327587466
 20
-11.9215600458
 10
-4.9292060511
 20
-11.9327554424
 10
-4.9247726154
 20
-11.9441224774
 10
-4.9195184755
 20
-11.9556424363
 10
-4.9134436316
 20
-11.9673153188
  0
LINE
  5
341
100
AcDbEntity
  8
RACCORDO
100
AcDbLine
 62
7
  6
CONTINUOUS
 10
-5.25
 20
-15.306793994
 11
-5.25
 21
-15.0921120732
  0
LINE
  5
342
100
AcDbEntity
  8
RACCORDO
100
AcDbLine
 62
7
  6
CONTINUOUS
 10
-5.25
 20
-11.862779069
 11
-5.25
 21
-7.693206006
  0
LINE
  5
343
100
AcDbEntity
  8
DRAFT
100
AcDbLine
 62
7
  6
CONTINUOUS
 10
-4.3432827538
 20
-13.5672135988
 11
-4.3432827538
 21
-14.2799874591
  0
LINE
  5
344
100
AcDbEntity
  8
RACCORDO
100
AcDbLine
 62
250
  6
CONTINUOUS
 10
-4.1780781243
 20
-13.8533564107
 11
-4.1780781243
 21
-14.1846065218
  0
LINE
  5
345
100
AcDbEntity
  8
RACCORDO
100
AcDbLine
 62
250
  6
CONTINUOUS
 10
-5.2387189888
 20
-7.6819249948
 11
-5.2401471648
 21
-11.8601390098
  0
LINE
  5
346
100
AcDbEntity
  8
RACCORDO
100
AcDbLine
 62
250
  6
CONTINUOUS
 10
-5.241671668
 20
-15.0969204379
 11
-5.2417859579
 21
-15.3151539226
  0
LINE
  5
347
100
AcDbEntity
  8
RACCORDO
100
AcDbLine
 62
250
  6
CONTINUOUS
 10
-4.9386875467
 20
-7.3863253523
 11
-4.9401928563
 21
-11.8672593654
  0
LINE
  5
348
100
AcDbEntity
  8
RACCORDO
100
AcDbLine
 62
250
  6
CONTINUOUS
 10
-4.9417173595
 20
-15.1059840283
 11
-4.9419952791
 21
-15.6241732065
  0
LWPOLYLINE
  5
349
100
AcDbEntity
  8
0
100
AcDbPolyline
 62
7
  6
CONTINUOUS
 90
3
 70
0
 10
-2.4944088187
 20
10.7405269864
 10
-2.5443375673
 20
10.6
 10
-2.5795583782
 20
10.4482193996
  0
LINE
  5
34A
100
AcDbEntity
  8
RACCORDO
100
AcDbLine
 62
250
  6
CONTINUOUS
 10
-11.1481818773
 20
-13.8968109
 11
-11.1451100057
 21
-13.8882238315
  0
LINE
  5
34B
100
AcDbEntity
  8
RACCORDO
100
AcDbLine
 62
7
  6
CONTINUOUS
 10
2.3083750194
 20
15.0085132661
 11
2.3082160975
 21
15.0082160975
  0
LINE
  5
34C
100
AcDbEntity
  8
RACCORDO
100
AcDbLine
 62
7
  6
CONTINUOUS
 10
-14.7589787796
 20
-13.8090958205
 11
-14.7588325882
 21
-13.8088325882
  0
LWPOLYLINE
  5
34D
100
AcDbEntity
  8
RACCORDO
100
AcDbPolyline
 62
7
  6
CONTINUOUS
 90
8
 70
0
 10
2.3083748385
 20
15.008512849
 10
2.3096874976
 20
15.0105877198
 10
2.3129732805
 20
15.0145827273
 10
2.3182321874
 20
15.0205324435
 10
2.3254799687
 20
15.0284630632
 10
2.3347008739
 20
15.0383774602
 10
2.3458476511
 20
15.0502429122
 10
2.3590051543
 20
15.0640387139
  0
LWPOLYLINE
  5
34E
100
AcDbEntity
  8
RACCORDO
100
AcDbPolyline
 62
7
  6
CONTINUOUS
 90
8
 70
0
 10
-14.7589787749
 20
-13.8090958101
 10
-14.7602912774
 20
-13.8111137512
 10
-14.763577134
 20
-13.8150517592
 10
-14.7688363447
 20
-13.8209448952
 10
-14.7760847406
 20
-13.8288199146
 10
-14.7853064907
 20
-13.8386801929
 10
-14.7964541013
 20
-13.8504932474
 10
-14.8096122603
 20
-13.8642384253
  0
LINE
  5
34F
100
AcDbEntity
  8
0
100
AcDbLine
 62
7
  6
CONTINUOUS
 10
8.0166327976
 20
22.5
 11
7.95
 21
22.4
  0
LWPOLYLINE
  5
350
100
AcDbEntity
  8
RACCORDO
100
AcDbPolyline
 62
250
  6
CONTINUOUS
 90
6
 70
0
 10
2.4922124794
 20
11.6673476583
 10
2.4781843232
 20
11.6498957938
 10
2.4670204307
 20
11.6357883695
 10
2.4589119625
 20
11.6252669498
 10
2.4539977633
 20
11.6185116996
 10
2.4523619689
 20
11.615638279
  0
LINE
  5
351
100
AcDbEntity
  8
RACCORDO
100
AcDbLine
 62
250
  6
CONTINUOUS
 10
2.527855871
 20
11.7110372829
 11
2.4922124794
 21
11.6673476583
  0
LINE
  5
352
100
AcDbEntity
  8
RACCORDO
100
AcDbLine
 62
250
  6
CONTINUOUS
 10
2.5715196844
 20
11.7638775459
 11
2.527855871
 21
11.7110372829
  0
LINE
  5
353
100
AcDbEntity
  8
RACCORDO
100
AcDbLine
 62
250
  6
CONTINUOUS
 10
2.6454390705
 20
11.8523010048
 11
2.5715196844
 21
11.7638775459
  0
LINE
  5
354
100
AcDbEntity
  8
RACCORDO
100
AcDbLine
 62
250
  6
CONTINUOUS
 10
-1.3571074224
 20
5.1505973117
 11
-1.3682782071
 21
5.142139169
  0
LINE
  5
355
100
AcDbEntity
  8
RACCORDO
100
AcDbLine
 62
250
  6
CONTINUOUS
 10
-1.1
 20
4.7770328804
 11
-1.1119127273
 21
4.7688424416
  0
LWPOLYLINE
  5
356
100
AcDbEntity
  8
RACCORDO
100
AcDbPolyline
 62
250
  6
CONTINUOUS
 90
16
 70
0
 10
1.3682782071
 20
5.142139169
 10
1.3403807561
 20
5.1301706047
 10
1.3135267206
 20
5.1161524324
 10
1.2878634113
 20
5.1001779249
 10
1.2636315333
 20
5.0824312325
 10
1.2408464943
 20
5.0629596104
 10
1.2193611285
 20
5.041598529
 10
1.1993517417
 20
5.0184194556
 10
1.1809909234
 20
4.9935084174
 10
1.1642541355
 20
4.966627197
 10
1.1493503548
 20
4.9377667559
 10
1.136587596
 20
4.9071171105
 10
1.1261911863
 20
4.8747198202
 10
1.1184299848
 20
4.8407110242
 10
1.1135848929
 20
4.8053344806
 10
1.1119127273
 20
4.7688424416
  0
LINE
  5
357
100
AcDbEntity
  8
0
100
AcDbLine
 62
250
  6
CONTINUOUS
 10
1.600967835
 20
6.5569889398
 11
1.5008026722
 21
6.5152047018
  0
LWPOLYLINE
  5
358
100
AcDbEntity
  8
0
100
AcDbPolyline
 62
250
  6
CONTINUOUS
 90
3
 70
0
 10
1.5008026722
 20
6.5152047018
 10
1.4761141971
 20
6.5050550951
 10
1.4244258888
 20
6.4842431528
  0
LINE
  5
359
100
AcDbEntity
  8
0
100
AcDbLine
 62
250
  6
CONTINUOUS
 10
1.4017133877
 20
6.4752592904
 11
1.4
 21
6.4745814567
  0
LWPOLYLINE
  5
35A
100
AcDbEntity
  8
0
100
AcDbPolyline
 62
250
  6
CONTINUOUS
 90
3
 70
0
 10
1.4244258888
 20
6.4842431528
 10
1.4063495475
 20
6.4771171103
 10
1.4017133877
 20
6.4752592904
  0
LWPOLYLINE
  5
35B
100
AcDbEntity
  8
0
100
AcDbPolyline
 62
7
  6
CONTINUOUS
 90
10
 70
0
 10
-1.3380840052
 20
-5.3
 10
-1.4148115056
 20
-5.3188747757
 10
-1.4852478826
 20
-5.3635329744
 10
-1.5493931361
 20
-5.4339745962
 10
-1.6087824068
 20
-5.5338320934
 10
-1.6618805541
 20
-5.6594730136
 10
-1.704082156
 20
-5.8
 10
-1.7338520717
 20
-5.9517806004
 10
-1.7527254421
 20
-6.1184472671
 10
-1.7607022669
 20
-6.3
  0
LINE
  5
35C
100
AcDbEntity
  8
0
100
AcDbLine
 62
7
  6
CONTINUOUS
 10
1.595780526
 20
-4.3
 11
1.6999148956
 21
-4.2811252243
  0
LWPOLYLINE
  5
35D
100
AcDbEntity
  8
RACCORDO
100
AcDbPolyline
 62
250
  6
CONTINUOUS
 90
5
 70
0
 10
-1.6538112149
 20
-4.8358410836
 10
-1.6362186073
 20
-4.8355034714
 10
-1.62323816
 20
-4.8351474674
 10
-1.6150870711
 20
-4.8347790285
 10
-1.6119017304
 20
-4.8344043197
  0
LWPOLYLINE
  5
35E
100
AcDbEntity
  8
RACCORDO
100
AcDbPolyline
 62
250
  6
CONTINUOUS
 90
5
 70
0
 10
-1.6538449032
 20
-4.6321315775
 10
-1.6362522896
 20
-4.631808187
 10
-1.6232718364
 20
-4.6314671793
 10
-1.6151207424
 20
-4.6311142606
 10
-1.611935398
 20
-4.6307553359
  0
LINE
  5
35F
100
AcDbEntity
  8
RACCORDO
100
AcDbLine
 62
250
  6
CONTINUOUS
 10
-1.7015831753
 20
-4.8364389383
 11
-1.6538112149
 21
-4.8358410836
  0
LINE
  5
360
100
AcDbEntity
  8
RACCORDO
100
AcDbLine
 62
250
  6
CONTINUOUS
 10
-1.7016168728
 20
-4.6327042477
 11
-1.6538449032
 21
-4.6321315775
  0
LINE
  5
361
100
AcDbEntity
  8
RACCORDO
100
AcDbLine
 62
250
  6
CONTINUOUS
 10
-1.7982613987
 20
-4.8370714115
 11
-1.7015831753
 21
-4.8364389383
  0
LINE
  5
362
100
AcDbEntity
  8
RACCORDO
100
AcDbLine
 62
250
  6
CONTINUOUS
 10
-1.7982950936
 20
-4.6333100777
 11
-1.7016168728
 21
-4.6327042477
  0
LINE
  5
363
100
AcDbEntity
  8
RACCORDO
100
AcDbLine
 62
250
  6
CONTINUOUS
 10
-1.911856039
 20
-4.8373067037
 11
-1.7982613987
 21
-4.8370714115
  0
LINE
  5
364
100
AcDbEntity
  8
RACCORDO
100
AcDbLine
 62
250
  6
CONTINUOUS
 10
-1.9118897065
 20
-4.6335354572
 11
-1.7982950936
 21
-4.6333100777
  0
LINE
  5
365
100
AcDbEntity
  8
0
100
AcDbLine
 62
7
  6
CONTINUOUS
 10
-1.8438534791
 20
-5.3
 11
-1.3380840052
 21
-5.3
  0
LINE
  5
366
100
AcDbEntity
  8
0
100
AcDbLine
 62
7
  6
CONTINUOUS
 10
1.8438534791
 20
-5.3
 11
1.3380840052
 21
-5.3
  0
LINE
  5
367
100
AcDbEntity
  8
0
100
AcDbLine
 62
7
  6
CONTINUOUS
 10
0.7502665162
 20
-5.3
 11
1.3380840052
 21
-5.3
  0
LINE
  5
368
100
AcDbEntity
  8
0
100
AcDbLine
 62
7
  6
CONTINUOUS
 10
-0.7502665162
 20
-5.3
 11
-1.3380840052
 21
-5.3
  0
LINE
  5
369
100
AcDbEntity
  8
0
100
AcDbLine
 62
7
  6
CONTINUOUS
 10
-1.595780526
 20
-4.3
 11
-0.7500004387
 21
-4.3
  0
LINE
  5
36A
100
AcDbEntity
  8
0
100
AcDbLine
 62
7
  6
CONTINUOUS
 10
1.595780526
 20
-4.3
 11
0.7500005975
 21
-4.3
  0
LINE
  5
36B
100
AcDbEntity
  8
RACCORDO
100
AcDbLine
 62
250
  6
CONTINUOUS
 10
1.9118897065
 20
-4.6335354572
 11
1.7634036728
 21
-4.6331470199
  0
LINE
  5
36C
100
AcDbEntity
  8
RACCORDO
100
AcDbLine
 62
250
  6
CONTINUOUS
 10
1.911856039
 20
-4.8373067037
 11
1.7633702094
 21
-4.8369011642
  0
LINE
  5
36D
100
AcDbEntity
  8
RACCORDO
100
AcDbLine
 62
250
  6
CONTINUOUS
 10
1.7633702094
 20
-4.8369011642
 11
1.701583366
 21
-4.8364389174
  0
LWPOLYLINE
  5
36E
100
AcDbEntity
  8
RACCORDO
100
AcDbPolyline
 62
250
  6
CONTINUOUS
 90
7
 70
0
 10
1.7634036728
 20
-4.6331470199
 10
1.6757552856
 20
-4.6324319383
 10
1.6538448891
 20
-4.6321315762
 10
1.6362522805
 20
-4.6318081859
 10
1.6232718318
 20
-4.6314671785
 10
1.6151207411
 20
-4.6311142601
 10
1.611935398
 20
-4.630755336
  0
LWPOLYLINE
  5
36F
100
AcDbEntity
  8
RACCORDO
100
AcDbPolyline
 62
250
  6
CONTINUOUS
 90
6
 70
0
 10
1.701583366
 20
-4.8364389174
 10
1.6538113322
 20
-4.8358410655
 10
1.6362186826
 20
-4.8355034564
 10
1.6232381982
 20
-4.8351474566
 10
1.6150870823
 20
-4.8347790228
 10
1.6119017304
 20
-4.83440432
  0
LINE
  5
370
100
AcDbEntity
  8
0
100
AcDbLine
 62
7
  6
CONTINUOUS
 10
-1.6999148956
 20
-4.2811252243
 11
-1.595780526
 21
-4.3
  0
LINE
  5
371
100
AcDbEntity
  8
RACCORDO
100
AcDbLine
 62
250
  6
CONTINUOUS
 10
-1.6
 20
-4.83869723
 11
-1.6119017304
 21
-4.8344043197
  0
LINE
  5
372
100
AcDbEntity
  8
0
100
AcDbLine
 62
250
  6
CONTINUOUS
 10
-0.7940461231
 20
-4.276594552
 11
-0.8497345436
 21
-4.2535070216
  0
LINE
  5
373
100
AcDbEntity
  8
RACCORDO
100
AcDbLine
 62
250
  6
CONTINUOUS
 10
-1.692295796
 20
-5.0942493327
 11
-1.7037664913
 21
-5.0894536322
  0
LINE
  5
374
100
AcDbEntity
  8
0
100
AcDbLine
 62
250
  6
CONTINUOUS
 10
-0.8497345436
 20
-4.2535070216
 11
-0.8987156755
 21
-4.232788292
  0
LWPOLYLINE
  5
375
100
AcDbEntity
  8
0
100
AcDbPolyline
 62
250
  6
CONTINUOUS
 90
3
 70
0
 10
-0.8987156755
 20
-4.232788292
 10
-0.9561698912
 20
-4.2080763865
 10
-0.9877992468
 20
-4.1942519215
  0
LINE
  5
376
100
AcDbEntity
  8
0
100
AcDbLine
 62
250
  6
CONTINUOUS
 10
-0.9877992468
 20
-4.1942519215
 11
-1.0212564733
 21
-4.1794407341
  0
LWPOLYLINE
  5
377
100
AcDbEntity
  8
RACCORDO
100
AcDbPolyline
 62
250
  6
CONTINUOUS
 90
4
 70
0
 10
-1.7229005314
 20
-5.0747222305
 10
-1.7128018814
 20
-5.0827234081
 10
-1.7063883702
 20
-5.0876612048
 10
-1.7037664897
 20
-5.0894536303
  0
LINE
  5
378
100
AcDbEntity
  8
RACCORDO
100
AcDbLine
 62
250
  6
CONTINUOUS
 10
-1.7534242359
 20
-5.0501097199
 11
-1.7229005314
 21
-5.0747222305
  0
LWPOLYLINE
  5
379
100
AcDbEntity
  8
RACCORDO
100
AcDbPolyline
 62
250
  6
CONTINUOUS
 90
16
 70
0
 10
-1.7689343988
 20
-4.3130743677
 10
-1.9049126141
 20
-4.2024675207
 10
-2.0339542253
 20
-4.0839148699
 10
-2.1555981345
 20
-3.9578523454
 10
-2.269124121
 20
-3.8250989564
 10
-2.3744578351
 20
-3.6858185667
 10
-2.4719530668
 20
-3.5393524995
 10
-2.5613517365
 20
-3.3855539164
 10
-2.6417495341
 20
-3.2253840713
 10
-2.7124414597
 20
-3.0598060661
 10
-2.77310118
 20
-2.8891314143
 10
-2.8232340363
 20
-2.7142185626
 10
-2.8622518495
 20
-2.5370101279
 10
-2.8900402752
 20
-2.3586527267
 10
-2.9066932998
 20
-2.1794181425
 10
-2.9122400729
 20
-2.0
  0
LWPOLYLINE
  5
37A
100
AcDbEntity
  8
RACCORDO
100
AcDbPolyline
 62
250
  6
CONTINUOUS
 90
16
 70
0
 10
-1.951149009
 20
-4.5540722576
 10
-2.1019288904
 20
-4.4311477281
 10
-2.244091789
 20
-4.3004636977
 10
-2.3776377048
 20
-4.1620201223
 10
-2.5027936556
 20
-4.0157256857
 10
-2.6193326237
 20
-3.8616716166
 10
-2.7265735552
 20
-3.7001316915
 10
-2.8248944687
 20
-3.530469623
 10
-2.9139173457
 20
-3.3533216219
 10
-2.9918270773
 20
-3.1708702334
 10
-3.0583921391
 20
-2.982656122
 10
-3.1138440556
 20
-2.7891385973
 10
-3.1570622916
 20
-2.5938782169
 10
-3.1876733354
 20
-2.3980618566
 10
-3.2060506986
 20
-2.200502684
 10
-3.2121943814
 20
-2.0012007204
  0
LINE
  5
37B
100
AcDbEntity
  8
RACCORDO
100
AcDbLine
 62
250
  6
CONTINUOUS
 10
-1.8208443974
 20
-4.9950489464
 11
-1.7534242359
 21
-5.0501097199
  0
LINE
  5
37C
100
AcDbEntity
  8
RACCORDO
100
AcDbLine
 62
250
  6
CONTINUOUS
 10
-1.9348140994
 20
-4.9011102426
 11
-1.8208443974
 21
-4.9950489464
  0
LWPOLYLINE
  5
37D
100
AcDbEntity
  8
RACCORDO
100
AcDbPolyline
 62
7
  6
CONTINUOUS
 90
10
 70
0
 10
-1.7575546667
 20
-4.3067296317
 10
-1.7260435074
 20
-4.333488788
 10
-1.6978683541
 20
-4.3627309378
 10
-1.6730292067
 20
-4.394456081
 10
-1.6513057113
 20
-4.4291123298
 10
-1.6329182219
 20
-4.466251572
 10
-1.6185277999
 20
-4.5045294715
 10
-1.6083547992
 20
-4.5434979162
 10
-1.6021788659
 20
-4.5836050181
 10
-1.6
 20
-4.6248507773
  0
LINE
  5
37E
100
AcDbEntity
  8
RACCORDO
100
AcDbLine
 62
7
  6
CONTINUOUS
 10
7.45
 20
-15.306793994
 11
7.4580504124
 21
-15.3148444064
  0
LINE
  5
37F
100
AcDbEntity
  8
RACCORDO
100
AcDbLine
 62
250
  6
CONTINUOUS
 10
7.4585306289
 20
-14.7084849375
 11
7.45
 21
-14.6999543085
  0
LINE
  5
380
100
AcDbEntity
  8
RACCORDO
100
AcDbLine
 62
250
  6
CONTINUOUS
 10
7.7584849375
 20
-14.4085306289
 11
7.7499543085
 21
-14.4
  0
LWPOLYLINE
  5
381
100
AcDbEntity
  8
RACCORDO
100
AcDbPolyline
 62
7
  6
CONTINUOUS
 90
3
 70
0
 10
7.7003381326
 20
-15.5665653111
 10
7.7285384667
 20
-15.5949821068
 10
7.7580047209
 20
-15.6241732189
  0
LWPOLYLINE
  5
382
100
AcDbEntity
  8
RACCORDO
100
AcDbPolyline
 62
7
  6
CONTINUOUS
 90
3
 70
0
 10
7.5588988545
 20
-15.4226897733
 10
7.6001959988
 20
-15.4649114508
 10
7.7003381326
 20
-15.5665653111
  0
LINE
  5
383
100
AcDbEntity
  8
RACCORDO
100
AcDbLine
 62
7
  6
CONTINUOUS
 10
7.5088418642
 20
-15.3707738
 11
7.5588988545
 21
-15.4226897733
  0
LWPOLYLINE
  5
384
100
AcDbEntity
  8
0
100
AcDbPolyline
 62
7
  6
CONTINUOUS
 90
4
 70
0
 10
-1.9631717123
 20
-4.0661679066
 10
-1.8825687442
 20
-4.1660254038
 10
-1.7955109683
 20
-4.2364670256
 10
-1.6999148956
 20
-4.2811252243
  0
LINE
  5
385
100
AcDbEntity
  8
0
100
AcDbLine
 62
7
  6
CONTINUOUS
 10
7.95
 20
-22.4
 11
8.0166327976
 21
-22.5
  0
LWPOLYLINE
  5
386
100
AcDbEntity
  8
0
100
AcDbPolyline
 62
7
  6
CONTINUOUS
 90
5
 70
0
 10
-2.1693569624
 20
-3.3
 10
-2.1585308358
 20
-3.4815527329
 10
-2.1329159453
 20
-3.6482193996
 10
-2.0925122909
 20
-3.8
 10
-2.0352363836
 20
-3.9405269864
  0
LWPOLYLINE
  5
387
100
AcDbEntity
  8
0
100
AcDbPolyline
 62
7
  6
CONTINUOUS
 90
3
 70
0
 10
-2.6113248654
 20
7.4
 10
-2.6018874776
 20
7.2184472671
 10
-2.5795583782
 20
7.0517806004
  0
LWPOLYLINE
  5
388
100
AcDbEntity
  8
RACCORDO
100
AcDbPolyline
 62
250
  6
CONTINUOUS
 90
13
 70
0
 10
-1.9118897065
 20
-4.6335354572
 10
-1.9121105304
 20
-4.6265167095
 10
-1.9128542809
 20
-4.6195165462
 10
-1.914120958
 20
-4.6125349674
 10
-1.915889061
 20
-4.6055471185
 10
-1.9181800905
 20
-4.5985778541
 10
-1.9210585487
 20
-4.5917017377
 10
-1.9245327988
 20
-4.5848872543
 10
-1.9285944774
 20
-4.578165919
 10
-1.9332829966
 20
-4.5717068406
 10
-1.9386114936
 20
-4.565566389
 10
-1.944566831
 20
-4.5596881946
 10
-1.951149009
 20
-4.5540722576
  0
LWPOLYLINE
  5
389
100
AcDbEntity
  8
0
100
AcDbPolyline
 62
7
  6
CONTINUOUS
 90
9
 70
0
 10
-1.7607022669
 20
-11.3
 10
-1.7524650502
 20
-11.5680689735
 10
-1.7310184505
 20
-11.8231912617
 10
-1.6963624676
 20
-12.0653668647
 10
-1.6474639821
 20
-12.2982543391
 10
-1.5853561136
 20
-12.5181951282
 10
-1.5131382209
 20
-12.7142135624
 10
-1.430297251
 20
-12.8850956543
 10
-1.337346257
 20
-13.0320553912
  0
LINE
  5
38A
100
AcDbEntity
  8
RACCORDO
100
AcDbLine
 62
250
  6
CONTINUOUS
 10
-2.5099541197
 20
-11.5069041425
 11
-2.5115262934
 21
-6.5039023414
  0
LINE
  5
38B
100
AcDbEntity
  8
RACCORDO
100
AcDbLine
 62
250
  6
CONTINUOUS
 10
-2.2099998112
 20
-11.5
 11
-2.2115719849
 21
-6.5
  0
LINE
  5
38C
100
AcDbEntity
  8
RACCORDO
100
AcDbLine
 62
250
  6
CONTINUOUS
 10
-1.911856039
 20
-4.8373067037
 11
-1.9118897065
 21
-4.6335354572
  0
LINE
  5
38D
100
AcDbEntity
  8
0
100
AcDbLine
 62
7
  6
CONTINUOUS
 10
-3.5
 20
10.1771251373
 11
-3.5
 21
7.2209166257
  0
LINE
  5
38E
100
AcDbEntity
  8
0
100
AcDbLine
 62
250
  6
CONTINUOUS
 10
-3.4204102271
 20
10.3521771394
 11
-3.4204102271
 21
7.045755335
  0
LWPOLYLINE
  5
38F
100
AcDbEntity
  8
0
100
AcDbPolyline
 62
7
  6
CONTINUOUS
 90
2
 70
0
 43
0.3500000006
 10
-3.3928571262
 20
32.2500004578
 10
-3.3928571262
 20
33.7500009155
  0
LINE
  5
390
100
AcDbEntity
  8
0
100
AcDbLine
 62
7
  6
CONTINUOUS
 10
-3.2175426481
 20
10.1
 11
-3.2175426481
 21
7.4
  0
LINE
  5
391
100
AcDbEntity
  8
RACCORDO
100
AcDbLine
 62
250
  6
CONTINUOUS
 10
-3.2121943814
 20
-2.0012007204
 11
-3.2122642439
 21
0.0
  0
LINE
  5
392
100
AcDbEntity
  8
RACCORDO
100
AcDbLine
 62
250
  6
CONTINUOUS
 10
-2.9122400729
 20
-2.0
 11
-2.9123099353
 21
0.0
  0
LINE
  5
393
100
AcDbEntity
  8
DRAFT
100
AcDbLine
 62
7
  6
CONTINUOUS
 10
-2.9
 20
0.0
 11
-2.9
 21
-2.0
  0
LINE
  5
394
100
AcDbEntity
  8
0
100
AcDbLine
 62
7
  6
CONTINUOUS
 10
-2.8
 20
11.2672519036
 11
-2.8
 21
11.1
  0
LINE
  5
395
100
AcDbEntity
  8
0
100
AcDbLine
 62
7
  6
CONTINUOUS
 10
-2.8
 20
6.2
 11
-2.8
 21
6.1313115737
  0
LINE
  5
396
100
AcDbEntity
  8
0
100
AcDbLine
 62
7
  6
CONTINUOUS
 10
-2.7427633934
 20
0.9
 11
-2.7427633934
 21
-2.9403781087
  0
LINE
  5
397
100
AcDbEntity
  8
0
100
AcDbLine
 62
7
  6
CONTINUOUS
 10
-2.6113248654
 20
10.1
 11
-2.6113248654
 21
7.4
  0
LINE
  5
398
100
AcDbEntity
  8
0
100
AcDbLine
 62
250
  6
CONTINUOUS
 10
-2.5
 20
5.8390849684
 11
-2.5
 21
6.4
  0
LINE
  5
399
100
AcDbEntity
  8
0
100
AcDbLine
 62
250
  6
CONTINUOUS
 10
-2.5
 20
11.1
 11
-2.5
 21
11.5598769156
  0
LINE
  5
39A
100
AcDbEntity
  8
RACCORDO
100
AcDbLine
 62
7
  6
CONTINUOUS
 10
-2.3
 20
15.0
 11
-2.3
 21
11.9171131833
  0
LINE
  5
39B
100
AcDbEntity
  8
0
100
AcDbLine
 62
7
  6
CONTINUOUS
 10
-2.2427633934
 20
12.6
 11
-2.2427633934
 21
13.9
  0
LINE
  5
39C
100
AcDbEntity
  8
DRAFT
100
AcDbLine
 62
7
  6
CONTINUOUS
 10
-2.2
 20
-6.5
 11
-2.2
 21
-11.5
  0
LINE
  5
39D
100
AcDbEntity
  8
0
100
AcDbLine
 62
7
  6
CONTINUOUS
 10
-2.1693569624
 20
0.9
 11
-2.1693569624
 21
-3.3
  0
LINE
  5
39E
100
AcDbEntity
  8
RACCORDO
100
AcDbLine
 62
250
  6
CONTINUOUS
 10
-2.6097815697
 20
11.9288492591
 11
-2.6081704061
 21
15.317360813
  0
LINE
  5
39F
100
AcDbEntity
  8
RACCORDO
100
AcDbLine
 62
250
  6
CONTINUOUS
 10
-2.3098272611
 20
11.9216919495
 11
-2.3083749491
 21
15.008513104
  0
LWPOLYLINE
  5
3A0
100
AcDbEntity
  8
RACCORDO
100
AcDbPolyline
 62
250
  6
CONTINUOUS
 90
31
 70
0
 10
-2.9123099353
 20
0.0
 10
-2.9108842487
 20
0.0911093802
 10
-2.9066497854
 20
0.1814718256
 10
-2.8996719557
 20
0.2710029875
 10
-2.8900347423
 20
0.3594890572
 10
-2.8777988329
 20
0.4469880279
 10
-2.8629610182
 20
0.5338240333
 10
-2.8455096858
 20
0.6201420768
 10
-2.8255181859
 20
0.7056447195
 10
-2.8031016199
 20
0.7899957134
 10
-2.778473188
 20
0.8726635709
 10
-2.7515807109
 20
0.9540650441
 10
-2.7220664799
 20
1.035263537
 10
-2.6900145114
 20
1.115892927
 10
-2.655300496
 20
1.1961402082
 10
-2.6169848205
 20
1.2777861846
 10
-2.574781151
 20
1.3608166623
 10
-2.5285774464
 20
1.4448483924
 10
-2.4773963544
 20
1.5309364414
 10
-2.4207081079
 20
1.6190728621
 10
-2.3583900916
 20
1.7085619491
 10
-2.2899203499
 20
1.7992813216
 10
-2.2150093977
 20
1.8907247448
 10
-2.1333141001
 20
1.9824312085
 10
-2.0441744844
 20
2.0742148774
 10
-1.9473924875
 20
2.1653247733
 10
-1.84258467
 20
2.2551720737
 10
-1.7287236664
 20
2.3435835563
 10
-1.6052605051
 20
2.4298062007
 10
-1.4722370317
 20
2.512625564
 10
-1.3295185034
 20
2.590964853
  0
LWPOLYLINE
  5
3A1
100
AcDbEntity
  8
RACCORDO
100
AcDbPolyline
 62
250
  6
CONTINUOUS
 90
31
 70
0
 10
-3.2122642439
 20
0.0
 10
-3.2105679826
 20
0.1007014915
 10
-3.2059214917
 20
0.2003996594
 10
-3.1983247712
 20
0.2990944999
 10
-3.1877400555
 20
0.3967233578
 10
-3.1742051103
 20
0.4933488814
 10
-3.1578332322
 20
0.5891590229
 10
-3.1385816004
 20
0.6843903341
 10
-3.1164930358
 20
0.7788062572
 10
-3.091809297
 20
0.8718850803
 10
-3.0647282477
 20
0.9631193978
 10
-3.0350520242
 20
1.0530166119
 10
-3.0024287943
 20
1.1425772217
 10
-2.967168601
 20
1.2315880876
 10
-2.9289614014
 20
1.3202623445
 10
-2.8865252336
 20
1.4102398998
 10
-2.8399794057
 20
1.5018806909
 10
-2.7892046097
 20
1.5948247701
 10
-2.7325609607
 20
1.6896322136
 10
-2.6699259737
 20
1.7868414766
 10
-2.6014221337
 20
1.885914089
 10
-2.5257770105
 20
1.9857947395
 10
-2.4430336168
 20
2.0866284431
 10
-2.3531489398
 20
2.1882701726
 10
-2.2547215116
 20
2.2892295595
 10
-2.1478581324
 20
2.3896811118
 10
-2.032452002
 20
2.4894503167
 10
-1.9067812506
 20
2.5865232839
 10
-1.7702719217
 20
2.6802287223
 10
-1.623497972
 20
2.7712379335
 10
-1.4664594013
 20
2.8595509223
  0
LWPOLYLINE
  5
3A2
100
AcDbEntity
  8
RACCORDO
100
AcDbPolyline
 62
250
  6
CONTINUOUS
 90
13
 70
0
 10
-2.5115262934
 20
-6.5039023414
 10
-2.507480128
 20
-6.3588796155
 10
-2.4950202049
 20
-6.2147098203
 10
-2.4741465239
 20
-6.0713929771
 10
-2.4446752633
 20
-5.9281450945
 10
-2.4067902449
 20
-5.7857501998
 10
-2.3610429339
 20
-5.6465603648
 10
-2.307163069
 20
-5.5107049817
 10
-2.2454209115
 20
-5.3780547397
 10
-2.1771787109
 20
-5.2505736931
 10
-2.1028905502
 20
-5.1289165663
 10
-2.0221023464
 20
-5.0124287352
 10
-1.9348140994
 20
-4.9011102426
  0
LWPOLYLINE
  5
3A3
100
AcDbEntity
  8
RACCORDO
100
AcDbPolyline
 62
250
  6
CONTINUOUS
 90
13
 70
0
 10
-2.2115719849
 20
-6.5
 10
-2.2079609884
 20
-6.3731033055
 10
-2.1970118449
 20
-6.2460839612
 10
-2.1786676846
 20
-6.1193722607
 10
-2.1528331261
 20
-5.9931346635
 10
-2.1195351186
 20
-5.8680961685
 10
-2.079081419
 20
-5.7454968703
 10
-2.0316626009
 20
-5.625746844
 10
-1.9774850237
 20
-5.509224654
 10
-1.9171825007
 20
-5.3970046305
 10
-1.8512712643
 20
-5.2895950783
 10
-1.7800054982
 20
-5.1870045479
 10
-1.7037664913
 20
-5.0894536322
  0
LWPOLYLINE
  5
3A4
100
AcDbEntity
  8
RACCORDO
100
AcDbPolyline
 62
7
  6
CONTINUOUS
 90
10
 70
0
 10
-2.3
 20
11.9171131833
 10
-2.3019626138
 20
11.8779763894
 10
-2.3075379324
 20
11.8398255515
 10
-2.3167259558
 20
11.8026606694
 10
-2.3297075521
 20
11.7660970312
 10
-2.3463018532
 20
11.730519349
 10
-2.3659662547
 20
11.6970817584
 10
-2.3885198884
 20
11.6661689715
 10
-2.4141436224
 20
11.6373962763
 10
-2.4428374569
 20
11.6107636728
  0
LWPOLYLINE
  5
3A5
100
AcDbEntity
  8
0
100
AcDbPolyline
 62
7
  6
CONTINUOUS
 90
10
 70
0
 10
-3.2175426481
 20
10.1
 10
-3.2081052602
 20
10.2815527329
 10
-3.1857761608
 20
10.4482193996
 10
-3.1505553499
 20
10.6
 10
-3.1006266014
 20
10.7405269864
 10
-3.0378061413
 20
10.8661679066
 10
-2.9675426481
 20
10.9660254038
 10
-2.8916523478
 20
11.0364670256
 10
-2.8083190145
 20
11.0811252243
 10
-2.7175426481
 20
11.1
  0
LWPOLYLINE
  5
3A6
100
AcDbEntity
  8
0
100
AcDbPolyline
 62
7
  6
CONTINUOUS
 90
10
 70
0
 10
-2.2427633934
 20
13.9
 10
-2.2373503301
 20
13.9907763665
 10
-2.2245428849
 20
14.0741096998
 10
-2.2043410577
 20
14.15
 10
-2.175703104
 20
14.2202634932
 10
-2.1396707683
 20
14.2830839533
 10
-2.0993692843
 20
14.3330127019
 10
-2.0558403963
 20
14.3682335128
 10
-2.00804236
 20
14.3905626122
 10
-1.9559751752
 20
14.4
  0
LINE
  5
3A7
100
AcDbEntity
  8
0
100
AcDbLine
 62
7
  6
CONTINUOUS
 10
-2.7427633934
 20
0.9
 11
-2.7400403347
 21
0.94566534
  0
LINE
  5
3A8
100
AcDbEntity
  8
0
100
AcDbLine
 62
250
  6
CONTINUOUS
 10
-1.5732740073
 20
10.7110861423
 11
-1.5797145508
 21
10.637300666
  0
LINE
  5
3A9
100
AcDbEntity
  8
0
100
AcDbLine
 62
250
  6
CONTINUOUS
 10
-1.5839228949
 20
6.6353082497
 11
-1.5746712125
 21
6.7128668951
  0
LWPOLYLINE
  5
3AA
100
AcDbEntity
  8
0
100
AcDbPolyline
 62
7
  6
CONTINUOUS
 90
3
 70
0
 10
-2.5795583782
 20
10.4482193996
 10
-2.6018874776
 20
10.2815527329
 10
-2.6113248654
 20
10.1
  0
LWPOLYLINE
  5
3AB
100
AcDbEntity
  8
0
100
AcDbPolyline
 62
250
  6
CONTINUOUS
 90
5
 70
0
 10
-1.5797145508
 20
10.637300666
 10
-1.5939500259
 20
10.5664912847
 10
-1.6158418458
 20
10.4993473513
 10
-1.6451768859
 20
10.4365225356
 10
-1.6816695578
 20
10.3786284608
  0
LINE
  5
3AC
100
AcDbEntity
  8
ASSI
100
AcDbLine
 62
7
  6
CONTINUOUS
 10
-7.8866556363
 20
-22.5
 11
-7.8651277229
 21
-22.4
  0
LINE
  5
3AD
100
AcDbEntity
  8
0
100
AcDbLine
 62
250
  6
CONTINUOUS
 10
-1.6009277592
 20
6.5569868072
 11
-1.5839228949
 21
6.6353082497
  0
LINE
  5
3AE
100
AcDbEntity
  8
RACCORDO
100
AcDbLine
 62
250
  6
CONTINUOUS
 10
-1.4759466307
 20
4.8650937671
 11
-1.3915225277
 21
5.0834501147
  0
LWPOLYLINE
  5
3AF
100
AcDbEntity
  8
RACCORDO
100
AcDbPolyline
 62
250
  6
CONTINUOUS
 90
5
 70
0
 10
-1.3915225277
 20
5.0834501147
 10
-1.3772788702
 20
5.1198347714
 10
-1.3725520942
 20
5.1317693002
 10
-1.3695352426
 20
5.1392453114
 10
-1.3682782071
 20
5.142139169
  0
LWPOLYLINE
  5
3B0
100
AcDbEntity
  8
0
100
AcDbPolyline
 62
7
  6
CONTINUOUS
 90
5
 70
0
 10
-2.0352363836
 20
1.5405269864
 10
-2.0925122909
 20
1.4
 10
-2.1329159453
 20
1.2482193996
 10
-2.1585308358
 20
1.0815527329
 10
-2.1693569624
 20
0.9
  0
LINE
  5
3B1
100
AcDbEntity
  8
0
100
AcDbLine
 62
7
  6
CONTINUOUS
 10
-1.5662643373
 20
5.2830839533
 11
-1.5864660206
 21
5.2478633934
  0
LINE
  5
3B2
100
AcDbEntity
  8
0
100
AcDbLine
 62
7
  6
CONTINUOUS
 10
-1.9631717123
 20
1.6661679066
 11
-2.0352363836
 21
1.5405269864
  0
LWPOLYLINE
  5
3B3
100
AcDbEntity
  8
0
100
AcDbPolyline
 62
250
  6
CONTINUOUS
 90
3
 70
0
 10
1.9892252516
 20
7.0620815429
 10
1.9410599574
 20
6.9868950272
 10
1.8905757617
 20
6.9127195357
  0
LWPOLYLINE
  5
3B4
100
AcDbEntity
  8
0
100
AcDbPolyline
 62
250
  6
CONTINUOUS
 90
6
 70
0
 10
1.8905757617
 20
6.9127195357
 10
1.8377299934
 20
6.8395172962
 10
1.782362347
 20
6.7673385663
 10
1.7244193877
 20
6.6962000986
 10
1.6639545504
 20
6.6260851406
 10
1.6009678351
 20
6.5569936923
  0
LINE
  5
3B5
100
AcDbEntity
  8
0
100
AcDbLine
 62
250
  6
CONTINUOUS
 10
1.681669558
 20
7.1213715395
 11
1.7249645902
 21
7.1737712514
  0
LINE
  5
3B6
100
AcDbEntity
  8
RACCORDO
100
AcDbLine
 62
250
  6
CONTINUOUS
 10
1.1
 20
2.9393503842
 11
1.1121582711
 21
2.9467864627
  0
LWPOLYLINE
  5
3B7
100
AcDbEntity
  8
RACCORDO
100
AcDbPolyline
 62
250
  6
CONTINUOUS
 90
16
 70
0
 10
-1.4664594013
 20
2.8595509223
 10
-1.4589167164
 20
2.8640153246
 10
-1.4520274599
 20
2.8687267618
 10
-1.4457916318
 20
2.8736852339
 10
-1.4402508488
 20
2.8789365278
 10
-1.4353634942
 20
2.8844348566
 10
-1.4310047174
 20
2.8900428589
 10
-1.4271733739
 20
2.8956915182
 10
-1.4238706082
 20
2.9014498511
 10
-1.4209750038
 20
2.9073875467
 10
-1.4184385459
 20
2.9134672466
 10
-1.4163092494
 20
2.9197263093
 10
-1.4146097417
 20
2.9263464991
 10
-1.4133475654
 20
2.9333884044
 10
-1.4125151781
 20
2.9407914367
 10
-1.4121125796
 20
2.9485555961
  0
LWPOLYLINE
  5
3B8
100
AcDbEntity
  8
RACCORDO
100
AcDbPolyline
 62
250
  6
CONTINUOUS
 90
16
 70
0
 10
-1.3295185034
 20
2.590964853
 10
-1.2992873376
 20
2.6081830328
 10
-1.2717342961
 20
2.6271568678
 10
-1.2468626582
 20
2.6474774808
 10
-1.2247310686
 20
2.6686597805
 10
-1.2051411756
 20
2.6904451224
 10
-1.1877243274
 20
2.712874421
 10
-1.1724957708
 20
2.7355905244
 10
-1.1592781719
 20
2.7584986732
 10
-1.14761022
 20
2.7822144444
 10
-1.1375611388
 20
2.8065757743
 10
-1.1291427782
 20
2.83152935
 10
-1.1221501987
 20
2.8580053801
 10
-1.1167702716
 20
2.886285756
 10
-1.1133556862
 20
2.9159255954
 10
-1.1121582711
 20
2.9467864627
  0
LWPOLYLINE
  5
3B9
100
AcDbEntity
  8
0
100
AcDbPolyline
 62
250
  6
CONTINUOUS
 90
4
 70
0
 10
-0.7703554009
 20
1.8859316679
 10
-0.7615252627
 20
1.8899226141
 10
-0.7551329813
 20
1.8936905835
 10
-0.7512671389
 20
1.8970497121
  0
LWPOLYLINE
  5
3BA
100
AcDbEntity
  8
0
100
AcDbPolyline
 62
250
  6
CONTINUOUS
 90
4
 70
0
 10
-1.0213484415
 20
1.7794041706
 10
-0.953838532
 20
1.8090216152
 10
-0.9239148956
 20
1.8220121262
 10
-0.8965982741
 20
1.8337288138
  0
LWPOLYLINE
  5
3BB
100
AcDbEntity
  8
RACCORDO
100
AcDbPolyline
 62
250
  6
CONTINUOUS
 90
16
 70
0
 10
1.4759466307
 20
4.8650937671
 10
1.4689137508
 20
4.8620573008
 10
1.4622119804
 20
4.8585588006
 10
1.4558413194
 20
4.8545982662
 10
1.449788036
 20
4.8501736033
 10
1.444065862
 20
4.845286906
 10
1.4387159926
 20
4.8399444574
 10
1.4337183656
 20
4.8341533989
 10
1.4290930432
 20
4.8279065888
 10
1.4249414072
 20
4.8211888854
 10
1.4212348342
 20
4.8139677655
 10
1.4180019476
 20
4.806275752
 10
1.4154299993
 20
4.7981952725
 10
1.4135814066
 20
4.789753803
 10
1.4123937521
 20
4.7809238671
 10
1.4118670359
 20
4.7717054649
  0
LINE
  5
3BC
100
AcDbEntity
  8
0
100
AcDbLine
 62
250
  6
CONTINUOUS
 10
-0.8965982741
 20
1.8337288138
 11
-0.8288849785
 21
1.8622026364
  0
LINE
  5
3BD
100
AcDbEntity
  8
0
100
AcDbLine
 62
250
  6
CONTINUOUS
 10
-0.8288849785
 20
1.8622026364
 11
-0.7950832688
 21
1.8761656613
  0
LINE
  5
3BE
100
AcDbEntity
  8
0
100
AcDbLine
 62
250
  6
CONTINUOUS
 10
-0.7950832688
 20
1.8761656613
 11
-0.7703554009
 21
1.8859316679
  0
LWPOLYLINE
  5
3BF
100
AcDbEntity
  8
RACCORDO
100
AcDbPolyline
 62
250
  6
CONTINUOUS
 90
3
 70
0
 10
-2.9235765452
 20
-2.0003074411
 10
-2.9154254373
 20
-2.0001550175
 10
-2.9122400729
 20
-2.0
  0
LINE
  5
3C0
100
AcDbEntity
  8
RACCORDO
100
AcDbLine
 62
250
  6
CONTINUOUS
 10
-2.9541496234
 20
-2.000594391
 11
-2.9235765452
 21
-2.0003074411
  0
LINE
  5
3C1
100
AcDbEntity
  8
RACCORDO
100
AcDbLine
 62
250
  6
CONTINUOUS
 10
-3.0985997868
 20
-2.0011033795
 11
-2.9541496234
 21
-2.000594391
  0
LINE
  5
3C2
100
AcDbEntity
  8
RACCORDO
100
AcDbLine
 62
250
  6
CONTINUOUS
 10
-3.2121943814
 20
-2.0012007204
 11
-3.0985997868
 21
-2.0011033795
  0
LINE
  5
3C3
100
AcDbEntity
  8
0
100
AcDbLine
 62
250
  6
CONTINUOUS
 10
-2.59202835
 20
-3.3
 11
-2.1693569624
 21
-3.3
  0
LINE
  5
3C4
100
AcDbEntity
  8
0
100
AcDbLine
 62
250
  6
CONTINUOUS
 10
2.5920279808
 20
-3.3
 11
2.1693569624
 21
-3.3
  0
LINE
  5
3C5
100
AcDbEntity
  8
RACCORDO
100
AcDbLine
 62
250
  6
CONTINUOUS
 10
2.9122400729
 20
-2.0
 11
2.9
 21
-2.0
  0
LINE
  5
3C6
100
AcDbEntity
  8
RACCORDO
100
AcDbLine
 62
250
  6
CONTINUOUS
 10
-2.9122400729
 20
-2.0
 11
-2.9
 21
-2.0
  0
LINE
  5
3C7
100
AcDbEntity
  8
RACCORDO
100
AcDbLine
 62
250
  6
CONTINUOUS
 10
3.2121943814
 20
-2.0012007204
 11
2.9760586172
 21
-2.0007241078
  0
LWPOLYLINE
  5
3C8
100
AcDbEntity
  8
RACCORDO
100
AcDbPolyline
 62
250
  6
CONTINUOUS
 90
5
 70
0
 10
2.9760586172
 20
-2.0007241078
 10
2.9365563788
 20
-2.0004547137
 10
2.9235762336
 20
-2.0003074358
 10
2.9154253477
 20
-2.0001550142
 10
2.9122400729
 20
-1.9999999992
  0
LINE
  5
3C9
100
AcDbEntity
  8
RACCORDO
100
AcDbLine
 62
250
  6
CONTINUOUS
 10
1.6
 20
-4.6248507773
 11
1.611935398
 21
-4.630755336
  0
LWPOLYLINE
  5
3CA
100
AcDbEntity
  8
RACCORDO
100
AcDbPolyline
 62
250
  6
CONTINUOUS
 90
10
 70
0
 10
9.1930516225
 20
-8.5223814913
 10
9.2171238282
 20
-8.5354145695
 10
9.2423417093
 20
-8.5473161795
 10
9.2686632817
 20
-8.5579719659
 10
9.295848722
 20
-8.5672091476
 10
9.3240164145
 20
-8.5749925918
 10
9.3536731204
 20
-8.5813148008
 10
9.3849461242
 20
-8.5859797597
 10
9.4175502948
 20
-8.5887159056
 10
9.4513638085
 20
-8.5892965858
  0
LWPOLYLINE
  5
3CB
100
AcDbEntity
  8
RACCORDO
100
AcDbPolyline
 62
250
  6
CONTINUOUS
 90
10
 70
0
 10
9.3430287768
 20
-8.2675739845
 10
9.352692263
 20
-8.2728683322
 10
9.3627735017
 20
-8.2776177982
 10
9.3732724928
 20
-8.2818223827
 10
9.3841405992
 20
-8.2855282577
 10
9.3954264582
 20
-8.2886892516
 10
9.4072759809
 20
-8.2911668501
 10
9.4197378044
 20
-8.2929148817
 10
9.4327632918
 20
-8.2939795181
 10
9.4463524429
 20
-8.2943607594
  0
LINE
  5
3CC
100
AcDbEntity
  8
RACCORDO
100
AcDbLine
 62
250
  6
CONTINUOUS
 10
1.7575546667
 20
-4.3067296317
 11
1.7689343988
 21
-4.3130743677
  0
LWPOLYLINE
  5
3CD
100
AcDbEntity
  8
RACCORDO
100
AcDbPolyline
 62
250
  6
CONTINUOUS
 90
9
 70
0
 10
11.1743480594
 20
-9.1174866967
 10
11.201277227
 20
-9.1325796761
 10
11.229663677
 20
-9.1462379758
 10
11.259233356
 20
-9.1582215755
 10
11.2901124728
 20
-9.1684744729
 10
11.3228733072
 20
-9.1769855124
 10
11.3576566974
 20
-9.1834918887
 10
11.3941215833
 20
-9.1876230879
 10
11.4321036027
 20
-9.189070238
  0
LINE
  5
3CE
100
AcDbEntity
  8
RACCORDO
100
AcDbLine
 62
7
  6
CONTINUOUS
 10
9.1901614481
 20
-8.5335501939
 11
7.7346426187
 21
-7.693206006
  0
LINE
  5
3CF
100
AcDbEntity
  8
RACCORDO
100
AcDbLine
 62
250
  6
CONTINUOUS
 10
7.7376832449
 20
-7.6818582345
 11
9.1930516225
 21
-8.5223814913
  0
LINE
  5
3D0
100
AcDbEntity
  8
RACCORDO
100
AcDbLine
 62
250
  6
CONTINUOUS
 10
7.8180585564
 20
-7.3863253578
 11
9.3430287768
 21
-8.2675739845
  0
LWPOLYLINE
  5
3D1
100
AcDbEntity
  8
RACCORDO
100
AcDbPolyline
 62
7
  6
CONTINUOUS
 90
4
 70
0
 10
5.2386418552
 20
-7.6818478612
 10
5.2362805656
 20
-7.6799649063
 10
5.2311633372
 20
-7.6752943029
 10
5.22329017
 20
-7.667821077
  0
LINE
  5
3D2
100
AcDbEntity
  8
RACCORDO
100
AcDbLine
 62
7
  6
CONTINUOUS
 10
5.22329017
 20
-7.667821077
 11
5.1991182001
 21
-7.6445444428
  0
LWPOLYLINE
  5
3D3
100
AcDbEntity
  8
0
100
AcDbPolyline
 62
250
  6
CONTINUOUS
 90
10
 70
0
 10
-1.5256850009
 20
-1.2000000062
 10
-1.4905483001
 20
-1.23660308
 10
-1.4600256333
 20
-1.2726823165
 10
-1.4344004287
 20
-1.3081934169
 10
-1.4139845214
 20
-1.3432605042
 10
-1.3988816657
 20
-1.3776801405
 10
-1.3890282473
 20
-1.4109305194
 10
-1.3844903413
 20
-1.4428312428
 10
-1.3854211252
 20
-1.4735335218
 10
-1.3918561184
 20
-1.5030303047
  0
LINE
  5
3D4
100
AcDbEntity
  8
0
100
AcDbLine
 62
250
  6
CONTINUOUS
 10
-1.0212564752
 20
-4.179457099
 11
-1.0760169093
 21
-4.1039976036
  0
LWPOLYLINE
  5
3D5
100
AcDbEntity
  8
0
100
AcDbPolyline
 62
250
  6
CONTINUOUS
 90
7
 70
0
 10
-1.0760169093
 20
-4.1039976036
 10
-1.1281764435
 20
-4.0279806033
 10
-1.1777350779
 20
-3.9514060981
 10
-1.2246623099
 20
-3.8741777878
 10
-1.2689886421
 20
-3.7963919726
 10
-1.3108055817
 20
-3.7183375528
 10
-1.3501131953
 20
-3.639997453
  0
LINE
  5
3D6
100
AcDbEntity
  8
0
100
AcDbLine
 62
250
  6
CONTINUOUS
 10
-1.00685088
 20
-3.6317549784
 11
-1.0402958202
 21
-3.5796061527
  0
LINE
  5
3D7
100
AcDbEntity
  8
0
100
AcDbLine
 62
7
  6
CONTINUOUS
 10
-2.0352363836
 20
-3.9405269864
 11
-1.9631717123
 21
-4.0661679066
  0
LWPOLYLINE
  5
3D8
100
AcDbEntity
  8
0
100
AcDbPolyline
 62
250
  6
CONTINUOUS
 90
3
 70
0
 10
-1.3501131953
 20
-3.639997453
 10
-1.3869114162
 20
-3.5613887486
 10
-1.4212915522
 20
-3.4828515663
  0
LWPOLYLINE
  5
3D9
100
AcDbEntity
  8
0
100
AcDbPolyline
 62
250
  6
CONTINUOUS
 90
7
 70
0
 10
-0.7500004387
 20
-4.3
 10
-0.751223914
 20
-4.2971397853
 10
-0.7548364577
 20
-4.2938632933
 10
-0.7608844522
 20
-4.290170524
 10
-0.7694214615
 20
-4.2862749981
 10
-0.7804804779
 20
-4.281963195
 10
-0.7940461231
 20
-4.276594552
  0
LWPOLYLINE
  5
3DA
100
AcDbEntity
  8
0
100
AcDbPolyline
 62
250
  6
CONTINUOUS
 90
23
 70
0
 10
-1.4212915522
 20
-3.4828515663
 10
-1.4532268988
 20
-3.4044396584
 10
-1.4827441603
 20
-3.3260992725
 10
-1.5100147574
 20
-3.2480092784
 10
-1.5350340751
 20
-3.1702094799
 10
-1.5578067284
 20
-3.0926600731
 10
-1.5785179831
 20
-3.0154205168
 10
-1.597179774
 20
-2.9384803329
 10
-1.6137801663
 20
-2.8618499995
 10
-1.6284686211
 20
-2.7856204094
 10
-1.6412489138
 20
-2.7098100834
 10
-1.6521172691
 20
-2.6344005008
 10
-1.6612118219
 20
-2.5594269924
 10
-1.6685407592
 20
-2.4849247744
 10
-1.6740958941
 20
-2.4108586305
 10
-1.6779908006
 20
-2.3371582428
 10
-1.6802475469
 20
-2.2639045605
 10
-1.6808440649
 20
-2.1910166344
 10
-1.6798277234
 20
-2.1181812985
 10
-1.6772487134
 20
-2.0454920287
 10
-1.673056844
 20
-1.9728553491
 10
-1.6671489111
 20
-1.8996776662
 10
-1.659585366
 20
-1.8259410882
  0
LINE
  5
3DB
100
AcDbEntity
  8
ASSI
100
AcDbLine
 62
7
  6
CONTINUOUS
 10
-7.8866556363
 20
22.5
 11
-7.8651277229
 21
22.4
  0
LINE
  5
3DC
100
AcDbEntity
  8
0
100
AcDbLine
 62
250
  6
CONTINUOUS
 10
-1.573262758
 20
6.7889077567
 11
-1.579711229
 21
6.8626906219
  0
LWPOLYLINE
  5
3DD
100
AcDbEntity
  8
0
100
AcDbPolyline
 62
250
  6
CONTINUOUS
 90
6
 70
0
 10
-0.9562830831
 20
1.5558733332
 10
-0.9504164178
 20
1.4845061388
 10
-0.9525957061
 20
1.4158050696
 10
-0.962801247
 20
1.3503911992
 10
-0.9809407799
 20
1.2888558848
 10
-1.0068503181
 20
1.231755421
  0
LWPOLYLINE
  5
3DE
100
AcDbEntity
  8
0
100
AcDbPolyline
 62
250
  6
CONTINUOUS
 90
9
 70
0
 10
-1.6609659462
 20
-0.5596369568
 10
-1.677441941
 20
-0.345056157
 10
-1.6796244084
 20
-0.1299478828
 10
-1.6676051517
 20
0.0854733559
 10
-1.6409695107
 20
0.3034590216
 10
-1.6001321456
 20
0.5217576517
 10
-1.5464288403
 20
0.7334003484
 10
-1.4779103131
 20
0.9386653025
 10
-1.3965258457
 20
1.1372743232
  0
LWPOLYLINE
  5
3DF
100
AcDbEntity
  8
0
100
AcDbPolyline
 62
7
  6
CONTINUOUS
 90
10
 70
0
 10
-1.6693569624
 20
12.6
 10
-1.6639438991
 20
12.5092236335
 10
-1.6511364539
 20
12.4258903002
 10
-1.6309346267
 20
12.35
 10
-1.602296673
 20
12.2797365068
 10
-1.5662643373
 20
12.2169160467
 10
-1.5259628533
 20
12.1669872981
 10
-1.4824339653
 20
12.1317664872
 10
-1.434635929
 20
12.1094373878
 10
-1.3825687442
 20
12.1
  0
LWPOLYLINE
  5
3E0
100
AcDbEntity
  8
RACCORDO
100
AcDbPolyline
 62
250
  6
CONTINUOUS
 90
16
 70
0
 10
-1.4118670359
 20
4.7717054649
 10
-1.4121960251
 20
4.7795235439
 10
-1.4130818912
 20
4.787167891
 10
-1.4145246344
 20
4.7946385061
 10
-1.4165295931
 20
4.8019507232
 10
-1.4190914289
 20
4.8090892085
 10
-1.4221941254
 20
4.8160079607
 10
-1.4258163889
 20
4.8227112012
 10
-1.4299795131
 20
4.8291947087
 10
-1.4347313638
 20
4.835399818
 10
-1.4400788157
 20
4.8413652341
 10
-1.4460149942
 20
4.8470522522
 10
-1.4525671408
 20
4.8522860925
 10
-1.459744336
 20
4.8570084949
 10
-1.4675374993
 20
4.8612777198
 10
-1.4759466307
 20
4.8650937671
  0
LWPOLYLINE
  5
3E1
100
AcDbEntity
  8
RACCORDO
100
AcDbPolyline
 62
250
  6
CONTINUOUS
 90
16
 70
0
 10
-1.1119127273
 20
4.7688424416
 10
-1.1131166416
 20
4.7998087204
 10
-1.1166879346
 20
4.8304214703
 10
-1.1225665435
 20
4.8605034782
 10
-1.1306450002
 20
4.889776096
 10
-1.1408573093
 20
4.9181943438
 10
-1.1532616581
 20
4.9459182337
 10
-1.1677990676
 20
4.9727316019
 10
-1.1844375401
 20
4.9985027128
 10
-1.2034211028
 20
5.0234319156
 10
-1.2248032919
 20
5.0473210509
 10
-1.2485256541
 20
5.0698556229
 10
-1.2747670641
 20
5.0909345269
 10
-1.303569863
 20
5.1102724744
 10
-1.3347825976
 20
5.1274594071
 10
-1.3682782071
 20
5.142139169
  0
LWPOLYLINE
  5
3E2
100
AcDbEntity
  8
RACCORDO
100
AcDbPolyline
 62
250
  6
CONTINUOUS
 90
13
 70
0
 10
-1.611935398
 20
-4.630755336
 10
-1.6129066183
 20
-4.6029590377
 10
-1.615859345
 20
-4.574925553
 10
-1.6208576838
 20
-4.5468024338
 10
-1.6279284526
 20
-4.518838709
 10
-1.6371267872
 20
-4.4911052664
 10
-1.6486010761
 20
-4.4635160704
 10
-1.6624562747
 20
-4.4362236973
 10
-1.6787230123
 20
-4.4095191515
 10
-1.6974871293
 20
-4.3835786679
 10
-1.7187928896
 20
-4.3586525035
 10
-1.7426205345
 20
-4.3350513122
 10
-1.7689343988
 20
-4.3130743677
  0
LINE
  5
3E3
100
AcDbEntity
  8
0
100
AcDbLine
 62
250
  6
CONTINUOUS
 10
-1.5746910949
 20
10.7871293881
 11
-1.5732740073
 21
10.7110861423
  0
LINE
  5
3E4
100
AcDbEntity
  8
0
100
AcDbLine
 62
7
  6
CONTINUOUS
 10
-0.750000008
 20
1.8999350332
 11
-0.7500005975
 21
1.9
  0
LINE
  5
3E5
100
AcDbEntity
  8
RACCORDO
100
AcDbLine
 62
250
  6
CONTINUOUS
 10
-1.6119017304
 20
-4.8344043197
 11
-1.611935398
 21
-4.630755336
  0
LINE
  5
3E6
100
AcDbEntity
  8
0
100
AcDbLine
 62
7
  6
CONTINUOUS
 10
-1.7607022669
 20
-11.3
 11
-1.7607022669
 21
-6.3
  0
LINE
  5
3E7
100
AcDbEntity
  8
0
100
AcDbLine
 62
7
  6
CONTINUOUS
 10
-1.6693569624
 20
12.6
 11
-1.6693569624
 21
13.9
  0
LINE
  5
3E8
100
AcDbEntity
  8
0
100
AcDbLine
 62
250
  6
CONTINUOUS
 10
-1.6009618943
 20
11.1
 11
-1.6009595998
 21
10.9430160569
  0
LINE
  5
3E9
100
AcDbEntity
  8
RACCORDO
100
AcDbLine
 62
7
  6
CONTINUOUS
 10
-1.6
 20
-4.83869723
 11
-1.6
 21
-4.6248507773
  0
LINE
  5
3EA
100
AcDbEntity
  8
0
100
AcDbLine
 62
7
  6
CONTINUOUS
 10
-1.4
 20
11.1
 11
-1.4
 21
11.0254104197
  0
LINE
  5
3EB
100
AcDbEntity
  8
0
100
AcDbLine
 62
7
  6
CONTINUOUS
 10
-1.4
 20
6.474602589
 11
-1.4
 21
6.4
  0
LINE
  5
3EC
100
AcDbEntity
  8
RACCORDO
100
AcDbLine
 62
7
  6
CONTINUOUS
 10
-1.1
 20
4.7770328804
 11
-1.1
 21
2.9393503842
  0
LWPOLYLINE
  5
3ED
100
AcDbEntity
  8
0
100
AcDbPolyline
 62
7
  6
CONTINUOUS
 90
2
 70
0
 43
0.3500000006
 10
-1.035714268
 20
32.2500004578
 10
-1.035714268
 20
33.7500009155
  0
LINE
  5
3EE
100
AcDbEntity
  8
0
100
AcDbLine
 62
250
  6
CONTINUOUS
 10
-0.8905383194
 20
-13.3
 11
-0.8905383194
 21
-5.3
  0
LINE
  5
3EF
100
AcDbEntity
  8
0
100
AcDbLine
 62
7
  6
CONTINUOUS
 10
-0.75
 20
-13.3
 11
-0.75
 21
-5.3
  0
LINE
  5
3F0
100
AcDbEntity
  8
0
100
AcDbLine
 62
250
  6
CONTINUOUS
 10
-0.5212719336
 20
2.9
 11
-0.5212719336
 21
5.4
  0
LINE
  5
3F1
100
AcDbEntity
  8
0
100
AcDbLine
 62
250
  6
CONTINUOUS
 10
-0.5212719336
 20
12.1
 11
-0.5212719336
 21
14.4
  0
LINE
  5
3F2
100
AcDbEntity
  8
0
100
AcDbLine
 62
7
  6
CONTINUOUS
 10
-0.25
 20
2.9
 11
-0.25
 21
5.4
  0
LINE
  5
3F3
100
AcDbEntity
  8
0
100
AcDbLine
 62
7
  6
CONTINUOUS
 10
-0.25
 20
12.1
 11
-0.25
 21
14.4
  0
LINE
  5
3F4
100
AcDbEntity
  8
0
100
AcDbLine
 62
7
  6
CONTINUOUS
 10
0.25
 20
14.4
 11
0.25
 21
12.1
  0
LINE
  5
3F5
100
AcDbEntity
  8
0
100
AcDbLine
 62
7
  6
CONTINUOUS
 10
0.25
 20
5.4
 11
0.25
 21
2.9
  0
LINE
  5
3F6
100
AcDbEntity
  8
0
100
AcDbLine
 62
250
  6
CONTINUOUS
 10
-1.6009539202
 20
6.5569768664
 11
-1.6009618943
 21
6.4
  0
LINE
  5
3F7
100
AcDbEntity
  8
RACCORDO
100
AcDbLine
 62
250
  6
CONTINUOUS
 10
-1.4121125796
 20
2.9485555961
 11
-1.4118670359
 21
4.7717054649
  0
LINE
  5
3F8
100
AcDbEntity
  8
RACCORDO
100
AcDbLine
 62
250
  6
CONTINUOUS
 10
-1.1121582711
 20
2.9467864627
 11
-1.1119127273
 21
4.7688424416
  0
LINE
  5
3F9
100
AcDbEntity
  8
0
100
AcDbLine
 62
250
  6
CONTINUOUS
 10
-1.0212564752
 20
-4.179457099
 11
-1.0212719336
 21
-4.3
  0
LINE
  5
3FA
100
AcDbEntity
  8
0
100
AcDbLine
 62
250
  6
CONTINUOUS
 10
-1.0212719336
 20
1.9
 11
-1.0213484946
 21
1.7793128931
  0
LINE
  5
3FB
100
AcDbEntity
  8
0
100
AcDbLine
 62
250
  6
CONTINUOUS
 10
-1.5746712125
 20
6.7128668951
 11
-1.573262758
 21
6.7889077567
  0
LWPOLYLINE
  5
3FC
100
AcDbEntity
  8
RACCORDO
100
AcDbPolyline
 62
7
  6
CONTINUOUS
 90
10
 70
0
 10
-1.6
 20
-4.83869723
 10
-1.6012208716
 20
-4.8696791053
 10
-1.604752158
 20
-4.9001599191
 10
-1.6105938593
 20
-4.9301396713
 10
-1.618815123
 20
-4.9598126789
 10
-1.6293468016
 20
-4.9889846249
 10
-1.6419814524
 20
-5.0170725583
 10
-1.656649928
 20
-5.0438821623
 10
-1.6734213759
 20
-5.0696077537
 10
-1.692295796
 20
-5.0942493327
  0
LWPOLYLINE
  5
3FD
100
AcDbEntity
  8
RACCORDO
100
AcDbPolyline
 62
7
  6
CONTINUOUS
 90
13
 70
0
 10
-1.1
 20
2.9393503842
 10
-1.1017782796
 20
2.9023292355
 10
-1.1067685558
 20
2.8661944288
 10
-1.1149708288
 20
2.8309459642
 10
-1.1265026064
 20
2.7963026155
 10
-1.1412463808
 20
2.7625456088
 10
-1.1588496278
 20
2.7305186229
 10
-1.1794044831
 20
2.7002533033
 10
-1.2028188111
 20
2.6717180045
 10
-1.2284636814
 20
2.6456614682
 10
-1.2561294505
 20
2.6223332751
 10
-1.2860257618
 20
2.6014838445
 10
-1.3181526154
 20
2.5831131765
  0
LWPOLYLINE
  5
3FE
100
AcDbEntity
  8
0
100
AcDbPolyline
 62
250
  6
CONTINUOUS
 90
6
 70
0
 10
-0.9562853147
 20
-3.9558721729
 10
-0.9504183502
 20
-3.8845048365
 10
-0.9525973196
 20
-3.8158037634
 10
-0.9628025242
 20
-3.7503900329
 10
-0.9809417057
 20
-3.6888550059
 10
-1.00685088
 20
-3.6317549784
  0
LINE
  5
3FF
100
AcDbEntity
  8
0
100
AcDbLine
 62
250
  6
CONTINUOUS
 10
1.583948373
 20
10.8646895859
 11
1.5746884098
 21
10.7871284785
  0
LWPOLYLINE
  5
400
100
AcDbEntity
  8
0
100
AcDbPolyline
 62
250
  6
CONTINUOUS
 90
8
 70
0
 10
-1.659585366
 20
-1.8259410882
 10
-1.6503057575
 20
-1.751663507
 10
-1.6390255278
 20
-1.6763050044
 10
-1.6257637873
 20
-1.5996994897
 10
-1.6105014257
 20
-1.5220130537
 10
-1.5928965544
 20
-1.4432040513
 10
-1.5728352107
 20
-1.3632586006
 10
-1.5504313574
 20
-1.2821905835
  0
LINE
  5
401
100
AcDbEntity
  8
0
100
AcDbLine
 62
250
  6
CONTINUOUS
 10
-0.9701451738
 20
-4.0292605891
 11
-0.9562853147
 21
-3.9558721729
  0
LWPOLYLINE
  5
402
100
AcDbEntity
  8
0
100
AcDbPolyline
 62
250
  6
CONTINUOUS
 90
5
 70
0
 10
1.5797145508
 20
6.8626993337
 10
1.5939500259
 20
6.9335087155
 10
1.615841846
 20
7.0006526492
 10
1.6451768862
 20
7.0634774648
 10
1.681669558
 20
7.1213715395
  0
LINE
  5
403
100
AcDbEntity
  8
0
100
AcDbLine
 62
250
  6
CONTINUOUS
 10
1.6009618729
 20
10.9430131967
 11
1.583948373
 21
10.8646895859
  0
LINE
  5
404
100
AcDbEntity
  8
0
100
AcDbLine
 62
250
  6
CONTINUOUS
 10
-0.9918726301
 20
-4.1040066308
 11
-0.9701451738
 21
-4.0292605891
  0
LINE
  5
405
100
AcDbEntity
  8
0
100
AcDbLine
 62
250
  6
CONTINUOUS
 10
-1.5504313574
 20
-1.2821905835
 11
-1.5256849944
 21
-1.2
  0
LWPOLYLINE
  5
406
100
AcDbEntity
  8
0
100
AcDbPolyline
 62
7
  6
CONTINUOUS
 90
3
 70
0
 10
2.4944088187
 20
6.7594730136
 10
2.5443375673
 20
6.9
 10
2.5795583782
 20
7.0517806004
  0
LINE
  5
407
100
AcDbEntity
  8
0
100
AcDbLine
 62
250
  6
CONTINUOUS
 10
-0.7512671389
 20
1.8970497121
 11
-0.750000008
 21
1.8999350332
  0
LINE
  5
408
100
AcDbEntity
  8
0
100
AcDbLine
 62
250
  6
CONTINUOUS
 10
-1.3965258457
 20
1.1372743232
 11
-1.3094590672
 21
1.3214239397
  0
LWPOLYLINE
  5
409
100
AcDbEntity
  8
RACCORDO
100
AcDbPolyline
 62
250
  6
CONTINUOUS
 90
3
 70
0
 10
1.3345467609
 20
2.6012045947
 10
1.3308909943
 20
2.5938617717
 10
1.3295185034
 20
2.590964853
  0
LINE
  5
40A
100
AcDbEntity
  8
RACCORDO
100
AcDbLine
 62
250
  6
CONTINUOUS
 10
1.3584126035
 20
2.6483111728
 11
1.3345467609
 21
2.6012045947
  0
LINE
  5
40B
100
AcDbEntity
  8
RACCORDO
100
AcDbLine
 62
250
  6
CONTINUOUS
 10
1.4664594013
 20
2.8595509223
 11
1.3584126035
 21
2.6483111728
  0
LWPOLYLINE
  5
40C
100
AcDbEntity
  8
0
100
AcDbPolyline
 62
250
  6
CONTINUOUS
 90
4
 70
0
 10
-1.3094590672
 20
1.3214239397
 10
-1.2191045207
 20
1.488512995
 10
-1.1230676632
 20
1.6411426461
 10
-1.0213484946
 20
1.7793128931
  0
LWPOLYLINE
  5
40D
100
AcDbEntity
  8
0
100
AcDbPolyline
 62
250
  6
CONTINUOUS
 90
3
 70
0
 10
2.0785034131
 20
7.2152107561
 10
2.0350289731
 20
7.1382413107
 10
1.9892252516
 20
7.0620815429
  0
LINE
  5
40E
100
AcDbEntity
  8
0
100
AcDbLine
 62
250
  6
CONTINUOUS
 10
-1.0068503181
 20
1.231755421
 11
-1.040295632
 21
1.1796060117
  0
LWPOLYLINE
  5
40F
100
AcDbEntity
  8
RACCORDO
100
AcDbPolyline
 62
250
  6
CONTINUOUS
 90
6
 70
0
 10
-11.1829474079
 20
-13.9525533435
 10
-11.1706179666
 20
-13.9336980381
 10
-11.1608315712
 20
-13.9184674269
 10
-11.1537569267
 20
-13.9071240663
 10
-11.1495159919
 20
-13.8998635018
 10
-11.1481818777
 20
-13.8968108998
  0
LINE
  5
410
100
AcDbEntity
  8
RACCORDO
100
AcDbLine
 62
250
  6
CONTINUOUS
 10
-11.2143450753
 20
-13.9997809875
 11
-11.1829474079
 21
-13.9525533435
  0
LINE
  5
411
100
AcDbEntity
  8
RACCORDO
100
AcDbLine
 62
250
  6
CONTINUOUS
 10
-11.2528688999
 20
-14.0569078476
 11
-11.2143450753
 21
-13.9997809875
  0
LWPOLYLINE
  5
412
100
AcDbEntity
  8
RACCORDO
100
AcDbPolyline
 62
250
  6
CONTINUOUS
 90
3
 70
0
 10
-11.318140853
 20
-14.1524592768
 10
-11.295873968
 20
-14.1200117914
 10
-11.2528688999
 20
-14.0569078476
  0
LWPOLYLINE
  5
413
100
AcDbEntity
  8
0
100
AcDbPolyline
 62
250
  6
CONTINUOUS
 90
10
 70
0
 10
-1.5256850009
 20
-1.2000000062
 10
-1.4905517215
 20
-1.163402084
 10
-1.4600305787
 20
-1.127326582
 10
-1.4344054016
 20
-1.0918177932
 10
-1.4139884586
 20
-1.0567514526
 10
-1.3988840531
 20
-1.0223311629
 10
-1.3890290806
 20
-0.9890791929
 10
-1.3844900017
 20
-0.9571761092
 10
-1.3854203815
 20
-0.9264705823
 10
-1.3918561185
 20
-0.8969696951
  0
LINE
  5
414
100
AcDbEntity
  8
RACCORDO
100
AcDbLine
 62
7
  6
CONTINUOUS
 10
-14.8096122603
 20
-13.8642384253
 11
-14.8596729493
 21
-13.9159864324
  0
LWPOLYLINE
  5
415
100
AcDbEntity
  8
RACCORDO
100
AcDbPolyline
 62
7
  6
CONTINUOUS
 90
3
 70
0
 10
-14.8596729493
 20
-13.9159864324
 10
-14.9239445969
 20
-13.9814806569
 10
-15.0011184892
 20
-14.0596621218
  0
LWPOLYLINE
  5
416
100
AcDbEntity
  8
RACCORDO
100
AcDbPolyline
 62
7
  6
CONTINUOUS
 90
3
 70
0
 10
-15.0011184892
 20
-14.0596621218
 10
-15.0293196864
 20
-14.0880683645
 10
-15.0587868967
 20
-14.1172572511
  0
LINE
  5
417
100
AcDbEntity
  8
RACCORDO
100
AcDbLine
 62
7
  6
CONTINUOUS
 10
-14.75
 20
-13.8
 11
-14.7588325882
 21
-13.8088325882
  0
LINE
  5
418
100
AcDbEntity
  8
RACCORDO
100
AcDbLine
 62
250
  6
CONTINUOUS
 10
1.3181526154
 20
2.5831131765
 11
1.3295185034
 21
2.590964853
  0
LWPOLYLINE
  5
419
100
AcDbEntity
  8
0
100
AcDbPolyline
 62
7
  6
CONTINUOUS
 90
2
 70
0
 43
0.3500000006
 10
29.6499999847
 20
-1.3571429443
 10
28.149999527
 20
-1.3571429443
  0
LWPOLYLINE
  5
41A
100
AcDbEntity
  8
0
100
AcDbPolyline
 62
7
  6
CONTINUOUS
 90
4
 70
0
 43
0.3500000006
 10
27.2928570557
 20
-0.0000003204
 10
26.6499990692
 20
-0.0000003204
 10
26.6499990692
 20
1.5000001373
 10
29.6499999847
 20
0.642857666
  0
LINE
  5
41B
100
AcDbEntity
  8
RACCORDO
100
AcDbLine
 62
250
  6
CONTINUOUS
 10
-3.2122642439
 20
-0.0
 11
-2.9
 21
0.0
  0
LINE
  5
41C
100
AcDbEntity
  8
RACCORDO
100
AcDbLine
 62
250
  6
CONTINUOUS
 10
3.2122642439
 20
0.0
 11
2.9
 21
0.0
  0
LWPOLYLINE
  5
41D
100
AcDbEntity
  8
RACCORDO
100
AcDbPolyline
 62
250
  6
CONTINUOUS
 90
10
 70
0
 10
11.3188329083
 20
-8.8592442319
 10
11.3290437906
 20
-8.8659047864
 10
11.3398088773
 20
-8.8719259369
 10
11.3511281685
 20
-8.8773076837
 10
11.3629490197
 20
-8.8821136608
 10
11.3753240753
 20
-8.886280235
 10
11.3884112681
 20
-8.8896165059
 10
11.4022632424
 20
-8.8920588403
 10
11.4168273539
 20
-8.8936708719
 10
11.4321036027
 20
-8.894452601
  0
LINE
  5
41E
100
AcDbEntity
  8
RACCORDO
100
AcDbLine
 62
7
  6
CONTINUOUS
 10
5.1991182001
 20
-7.6445444428
 11
5.1435501418
 21
-7.5900406124
  0
LINE
  5
41F
100
AcDbEntity
  8
RACCORDO
100
AcDbLine
 62
7
  6
CONTINUOUS
 10
4.9735474522
 20
-7.4206362199
 11
4.9386875467
 21
-7.3863253479
  0
LWPOLYLINE
  5
420
100
AcDbEntity
  8
RACCORDO
100
AcDbPolyline
 62
7
  6
CONTINUOUS
 90
3
 70
0
 10
5.1435501418
 20
-7.5900406124
 10
5.0377592694
 20
-7.4851399651
 10
4.9735474522
 20
-7.4206362199
  0
LINE
  5
421
100
AcDbEntity
  8
RACCORDO
100
AcDbLine
 62
7
  6
CONTINUOUS
 10
5.25
 20
-7.693206006
 11
5.2387190975
 21
-7.6819251035
  0
LWPOLYLINE
  5
422
100
AcDbEntity
  8
0
100
AcDbPolyline
 62
250
  6
CONTINUOUS
 90
10
 70
0
 10
1.5256849943
 20
-1.2000000001
 10
1.4905481527
 20
-1.1633967572
 10
1.4600254132
 20
-1.127317392
 10
1.4344001924
 20
-1.0918062033
 10
1.4139843063
 20
-1.0567390652
 10
1.3988815022
 20
-1.0223194181
 10
1.3890281597
 20
-0.9890690771
 10
1.3844903271
 20
-0.9571684421
 10
1.3854211496
 20
-0.9264662977
 10
1.3918561189
 20
-0.8969696938
  0
LWPOLYLINE
  5
423
100
AcDbEntity
  8
RACCORDO
100
AcDbPolyline
 62
250
  6
CONTINUOUS
 90
13
 70
0
 10
1.7037664915
 20
-5.089453632
 10
1.7886013628
 20
-5.1987425319
 10
1.8660783407
 20
-5.3125590914
 10
1.9359998829
 20
-5.4303920705
 10
1.9985491069
 20
-5.5524540652
 10
2.0531631352
 20
-5.6775390184
 10
2.098986911
 20
-5.8028261566
 10
2.136376351
 20
-5.9276653029
 10
2.1657242338
 20
-6.0514686627
 10
2.1870949462
 20
-6.1713201108
 10
2.2012385577
 20
-6.2858968668
 10
2.2091318955
 20
-6.3955670951
 10
2.2115719849
 20
-6.5
  0
LWPOLYLINE
  5
424
100
AcDbEntity
  8
RACCORDO
100
AcDbPolyline
 62
250
  6
CONTINUOUS
 90
13
 70
0
 10
1.9348140994
 20
-4.9011102426
 10
2.0314627688
 20
-5.0262670734
 10
2.1193743397
 20
-5.1554007507
 10
2.198548812
 20
-5.2885112346
 10
2.2692231552
 20
-5.4270897349
 10
2.3311603998
 20
-5.5696449444
 10
2.3836496382
 20
-5.7117030854
 10
2.4259808945
 20
-5.8532826982
 10
2.4588641446
 20
-5.9943652293
 10
2.4837184076
 20
-6.1304213475
 10
2.5010166899
 20
-6.2599413225
 10
2.5102859852
 20
-6.3844349739
 10
2.5115262934
 20
-6.5039023414
  0
LWPOLYLINE
  5
425
100
AcDbEntity
  8
RACCORDO
100
AcDbPolyline
 62
7
  6
CONTINUOUS
 90
10
 70
0
 10
1.692295796
 20
-5.0942493327
 10
1.6734213759
 20
-5.0696077537
 10
1.656649928
 20
-5.0438821623
 10
1.6419814524
 20
-5.0170725583
 10
1.6293468016
 20
-4.9889846249
 10
1.618815123
 20
-4.9598126789
 10
1.6105938593
 20
-4.9301396713
 10
1.604752158
 20
-4.9001599191
 10
1.6012208716
 20
-4.8696791053
 10
1.6
 20
-4.83869723
  0
LINE
  5
426
100
AcDbEntity
  8
RACCORDO
100
AcDbLine
 62
250
  6
CONTINUOUS
 10
1.951149009
 20
-4.5540722576
 11
1.8408354598
 21
-4.4092507521
  0
LWPOLYLINE
  5
427
100
AcDbEntity
  8
RACCORDO
100
AcDbPolyline
 62
250
  6
CONTINUOUS
 90
6
 70
0
 10
1.8408354598
 20
-4.4092507521
 10
1.793963147
 20
-4.3471603798
 10
1.7833355698
 20
-4.3329447093
 10
1.7755421723
 20
-4.3224174868
 10
1.7707145962
 20
-4.3157565314
 10
1.7689343969
 20
-4.3130743691
  0
LWPOLYLINE
  5
428
100
AcDbEntity
  8
RACCORDO
100
AcDbPolyline
 62
7
  6
CONTINUOUS
 90
8
 70
0
 10
7.4582123627
 20
-15.315150007
 10
7.4595250603
 20
-15.3172394306
 10
7.4628108233
 20
-15.3212490063
 10
7.4680696518
 20
-15.3272131812
 10
7.475317276
 20
-15.3351580078
 10
7.4845379655
 20
-15.3450862317
 10
7.4956845297
 20
-15.3569650689
 10
7.5088418642
 20
-15.3707738
  0
LINE
  5
429
100
AcDbEntity
  8
RACCORDO
100
AcDbLine
 62
7
  6
CONTINUOUS
 10
7.4580504124
 20
-15.3148444064
 11
7.4582123606
 21
-15.315150002
  0
LINE
  5
42A
100
AcDbEntity
  8
RACCORDO
100
AcDbLine
 62
250
  6
CONTINUOUS
 10
-1.4664594013
 20
2.8595509223
 11
-1.3484248012
 21
2.628661171
  0
LWPOLYLINE
  5
42B
100
AcDbEntity
  8
RACCORDO
100
AcDbPolyline
 62
250
  6
CONTINUOUS
 90
4
 70
0
 10
-1.3484248012
 20
2.628661171
 10
-1.3345468857
 20
2.6012048074
 10
-1.3308910325
 20
2.5938618327
 10
-1.329518501
 20
2.5909648542
  0
LINE
  5
42C
100
AcDbEntity
  8
0
100
AcDbLine
 62
250
  6
CONTINUOUS
 10
1.0212682722
 20
-4.1794345701
 11
0.9918698685
 21
-4.1040071288
  0
LINE
  5
42D
100
AcDbEntity
  8
0
100
AcDbLine
 62
250
  6
CONTINUOUS
 10
-1.0212682722
 20
1.7794345701
 11
-0.9918698685
 21
1.7040071288
  0
LINE
  5
42E
100
AcDbEntity
  8
0
100
AcDbLine
 62
250
  6
CONTINUOUS
 10
-0.9918698685
 20
1.7040071288
 11
-0.9701426651
 21
1.629261478
  0
LINE
  5
42F
100
AcDbEntity
  8
0
100
AcDbLine
 62
250
  6
CONTINUOUS
 10
0.9918698685
 20
-4.1040071288
 11
0.9701426652
 21
-4.0292614779
  0
LWPOLYLINE
  5
430
100
AcDbEntity
  8
0
100
AcDbPolyline
 62
250
  6
CONTINUOUS
 90
3
 70
0
 10
-1.5256849944
 20
-1.2
 10
-1.5850721724
 20
-0.9870731266
 10
-1.630165823
 20
-0.7736187789
  0
LWPOLYLINE
  5
431
100
AcDbEntity
  8
0
100
AcDbPolyline
 62
7
  6
CONTINUOUS
 90
3
 70
0
 10
-2.5795583782
 20
7.0517806004
 10
-2.5443375673
 20
6.9
 10
-2.4944088187
 20
6.7594730136
  0
LWPOLYLINE
  5
432
100
AcDbEntity
  8
0
100
AcDbPolyline
 62
250
  6
CONTINUOUS
 90
5
 70
0
 10
-1.579711229
 20
6.8626906219
 10
-1.5939538419
 20
6.9334972577
 10
-1.6158519427
 20
7.0006384023
 10
-1.6451923571
 20
7.063460474
 10
-1.681689465
 20
7.1213519336
  0
LINE
  5
433
100
AcDbEntity
  8
0
100
AcDbLine
 62
250
  6
CONTINUOUS
 10
-0.9701426651
 20
1.629261478
 11
-0.9562830831
 21
1.5558733332
  0
LINE
  5
434
100
AcDbEntity
  8
0
100
AcDbLine
 62
250
  6
CONTINUOUS
 10
0.9701426652
 20
-4.0292614779
 11
0.9562830831
 21
-3.9558733332
  0
LINE
  5
435
100
AcDbEntity
  8
0
100
AcDbLine
 62
250
  6
CONTINUOUS
 10
-1.630165823
 20
-0.7736187789
 11
-1.6609659462
 21
-0.5596369568
  0
LINE
  5
436
100
AcDbEntity
  8
0
100
AcDbLine
 62
250
  6
CONTINUOUS
 10
-1.5839520152
 20
10.8646900985
 11
-1.5746910949
 21
10.7871293881
  0
LWPOLYLINE
  5
437
100
AcDbEntity
  8
0
100
AcDbPolyline
 62
250
  6
CONTINUOUS
 90
22
 70
0
 10
1.6660623449
 20
-1.8880115791
 10
1.6721365412
 20
-1.9598239166
 10
1.6765612704
 20
-2.031195666
 10
1.679414465
 20
-2.1029218785
 10
1.6807570154
 20
-2.1751623815
 10
1.680528031
 20
-2.2477573476
 10
1.6786227726
 20
-2.3210223456
 10
1.6750552238
 20
-2.3950938339
 10
1.6698114009
 20
-2.4698353541
 10
1.6627446134
 20
-2.5451531002
 10
1.6538496606
 20
-2.6210793167
 10
1.6431317433
 20
-2.6975817592
 10
1.6304597737
 20
-2.7744698879
 10
1.6158290074
 20
-2.851742851
 10
1.5992441889
 20
-2.9294015003
 10
1.5805884633
 20
-3.0072578521
 10
1.559882882
 20
-3.0852536142
 10
1.5371063936
 20
-3.1634470788
 10
1.512078989
 20
-3.2418251379
 10
1.4848039623
 20
-3.3204215008
 10
1.4552780193
 20
-3.3992024583
 10
1.4233112691
 20
-3.4780537743
  0
LWPOLYLINE
  5
438
100
AcDbEntity
  8
0
100
AcDbPolyline
 62
250
  6
CONTINUOUS
 90
6
 70
0
 10
0.9562830831
 20
-3.9558733332
 10
0.9504164178
 20
-3.8845061387
 10
0.9525957061
 20
-3.8158050696
 10
0.962801247
 20
-3.7503911993
 10
0.9809407798
 20
-3.6888558848
 10
1.0068503181
 20
-3.6317554211
  0
LWPOLYLINE
  5
439
100
AcDbEntity
  8
0
100
AcDbPolyline
 62
7
  6
CONTINUOUS
 90
5
 70
0
 10
2.1693569624
 20
0.9
 10
2.1585308358
 20
1.0815527329
 10
2.1329159453
 20
1.2482193996
 10
2.0925122909
 20
1.4
 10
2.0352363836
 20
1.5405269864
  0
LWPOLYLINE
  5
43A
100
AcDbEntity
  8
RACCORDO
100
AcDbPolyline
 62
250
  6
CONTINUOUS
 90
13
 70
0
 10
1.4121125796
 20
2.9485555961
 10
1.4125496524
 20
2.9394639016
 10
1.4137501409
 20
2.9305976319
 10
1.415714045
 20
2.9219567869
 10
1.4184445917
 20
2.9135046851
 10
1.4219385541
 20
2.9052780083
 10
1.4261862515
 20
2.8973868017
 10
1.4312223126
 20
2.8897845478
 10
1.4370121088
 20
2.8825177643
 10
1.4434420724
 20
2.87583605
 10
1.4504743478
 20
2.8698226045
 10
1.4581467908
 20
2.8643942286
 10
1.4664594013
 20
2.8595509223
  0
LWPOLYLINE
  5
43B
100
AcDbEntity
  8
RACCORDO
100
AcDbPolyline
 62
250
  6
CONTINUOUS
 90
13
 70
0
 10
1.1121582711
 20
2.9467864627
 10
1.1137771345
 20
2.9109015849
 10
1.1185983272
 20
2.8753639474
 10
1.1265675092
 20
2.8404571258
 10
1.1375513502
 20
2.8066019386
 10
1.1514756713
 20
2.7739097059
 10
1.1684529912
 20
2.7422341104
 10
1.1885601352
 20
2.7117197245
 10
1.2116347846
 20
2.6828632828
 10
1.2374660157
 20
2.6560765575
 10
1.2658467771
 20
2.6316712544
 10
1.2966076031
 20
2.6098825026
 10
1.3295185034
 20
2.590964853
  0
LWPOLYLINE
  5
43C
100
AcDbEntity
  8
0
100
AcDbPolyline
 62
7
  6
CONTINUOUS
 90
10
 70
0
 10
1.7607022669
 20
-6.3
 10
1.7527254421
 20
-6.1184472671
 10
1.7338520717
 20
-5.9517806004
 10
1.704082156
 20
-5.8
 10
1.6618805541
 20
-5.6594730136
 10
1.6087824068
 20
-5.5338320934
 10
1.5493931361
 20
-5.4339745962
 10
1.4852478826
 20
-5.3635329744
 10
1.4148115056
 20
-5.3188747757
 10
1.3380840052
 20
-5.3
  0
LWPOLYLINE
  5
43D
100
AcDbEntity
  8
RACCORDO
100
AcDbPolyline
 62
250
  6
CONTINUOUS
 90
10
 70
0
 10
1.6119017304
 20
-4.8344043197
 10
1.6129078799
 20
-4.8627433911
 10
1.6160169128
 20
-4.8916205579
 10
1.621361042
 20
-4.9208674509
 10
1.6290982728
 20
-4.9504172254
 10
1.6393172458
 20
-4.979931076
 10
1.651940106
 20
-5.0088312612
 10
1.6668894378
 20
-5.036799124
 10
1.6841814009
 20
-5.0637439122
 10
1.7037664913
 20
-5.0894536322
  0
LWPOLYLINE
  5
43E
100
AcDbEntity
  8
RACCORDO
100
AcDbPolyline
 62
250
  6
CONTINUOUS
 90
10
 70
0
 10
1.911856039
 20
-4.8373067037
 10
1.9120562044
 20
-4.8444751029
 10
1.9128431532
 20
-4.851685168
 10
1.9142168854
 20
-4.8589368991
 10
1.9161762019
 20
-4.8663122233
 10
1.9187223017
 20
-4.8737292133
 10
1.9218587817
 20
-4.8809420882
 10
1.9255868408
 20
-4.8878689212
 10
1.92990528
 20
-4.8945916393
 10
1.9348140994
 20
-4.9011102426
  0
LINE
  5
43F
100
AcDbEntity
  8
0
100
AcDbLine
 62
250
  6
CONTINUOUS
 10
1.5746910949
 20
6.7128706113
 11
1.5732740073
 21
6.7889138571
  0
LINE
  5
440
100
AcDbEntity
  8
0
100
AcDbLine
 62
7
  6
CONTINUOUS
 10
0.750000008
 20
-4.2999350332
 11
0.7500005975
 21
-4.3
  0
LINE
  5
441
100
AcDbEntity
  8
0
100
AcDbLine
 62
250
  6
CONTINUOUS
 10
1.0212719336
 20
1.9
 11
1.021323136
 21
1.7793536114
  0
LINE
  5
442
100
AcDbEntity
  8
RACCORDO
100
AcDbLine
 62
250
  6
CONTINUOUS
 10
2.3083750194
 20
15.0085132661
 11
2.3098272611
 21
11.9216919495
  0
LINE
  5
443
100
AcDbEntity
  8
RACCORDO
100
AcDbLine
 62
250
  6
CONTINUOUS
 10
1.1119127273
 20
4.7688424416
 11
1.1121582711
 21
2.9467864627
  0
LINE
  5
444
100
AcDbEntity
  8
RACCORDO
100
AcDbLine
 62
250
  6
CONTINUOUS
 10
1.4118670359
 20
4.7717054649
 11
1.4121125796
 21
2.9485555961
  0
LINE
  5
445
100
AcDbEntity
  8
0
100
AcDbLine
 62
250
  6
CONTINUOUS
 10
0.5212719336
 20
14.4
 11
0.5212719336
 21
12.1
  0
LINE
  5
446
100
AcDbEntity
  8
0
100
AcDbLine
 62
250
  6
CONTINUOUS
 10
0.5212719336
 20
5.4
 11
0.5212719336
 21
2.9
  0
LINE
  5
447
100
AcDbEntity
  8
0
100
AcDbLine
 62
7
  6
CONTINUOUS
 10
0.75
 20
-5.3
 11
0.75
 21
-13.3
  0
LINE
  5
448
100
AcDbEntity
  8
0
100
AcDbLine
 62
250
  6
CONTINUOUS
 10
0.8905383194
 20
-5.3
 11
0.8905383194
 21
-13.3
  0
LINE
  5
449
100
AcDbEntity
  8
0
100
AcDbLine
 62
250
  6
CONTINUOUS
 10
1.0212653949
 20
-4.179444106
 11
1.0212719336
 21
-4.3
  0
LINE
  5
44A
100
AcDbEntity
  8
RACCORDO
100
AcDbLine
 62
7
  6
CONTINUOUS
 10
1.1
 20
2.9393503842
 11
1.1
 21
4.7770328804
  0
LINE
  5
44B
100
AcDbEntity
  8
0
100
AcDbLine
 62
7
  6
CONTINUOUS
 10
1.4
 20
6.4
 11
1.4
 21
6.4745895803
  0
LINE
  5
44C
100
AcDbEntity
  8
0
100
AcDbLine
 62
7
  6
CONTINUOUS
 10
1.4
 20
11.025397411
 11
1.4
 21
11.1
  0
LINE
  5
44D
100
AcDbEntity
  8
RACCORDO
100
AcDbLine
 62
7
  6
CONTINUOUS
 10
1.6
 20
-4.6248507773
 11
1.6
 21
-4.83869723
  0
LINE
  5
44E
100
AcDbEntity
  8
0
100
AcDbLine
 62
250
  6
CONTINUOUS
 10
1.6009618943
 20
11.1
 11
1.6009584053
 21
10.9430172256
  0
LINE
  5
44F
100
AcDbEntity
  8
0
100
AcDbLine
 62
250
  6
CONTINUOUS
 10
1.6009678351
 20
6.5569936923
 11
1.6009618943
 21
6.4
  0
LINE
  5
450
100
AcDbEntity
  8
0
100
AcDbLine
 62
7
  6
CONTINUOUS
 10
1.6693569624
 20
13.9
 11
1.6693569624
 21
12.6
  0
LINE
  5
451
100
AcDbEntity
  8
0
100
AcDbLine
 62
7
  6
CONTINUOUS
 10
1.7607022669
 20
-6.3
 11
1.7607022669
 21
-11.3
  0
LWPOLYLINE
  5
452
100
AcDbEntity
  8
0
100
AcDbPolyline
 62
7
  6
CONTINUOUS
 90
4
 70
0
 43
0.3500000006
 10
2.0357142191
 20
32.6785694275
 10
2.0357142191
 20
33.5357164307
 10
2.464285738
 20
33.9642854004
 10
3.1071428747
 20
33.9642854004
  0
LINE
  5
453
100
AcDbEntity
  8
0
100
AcDbLine
 62
7
  6
CONTINUOUS
 10
2.1693569624
 20
0.9
 11
2.1693569624
 21
-3.3
  0
LINE
  5
454
100
AcDbEntity
  8
DRAFT
100
AcDbLine
 62
7
  6
CONTINUOUS
 10
2.2
 20
-11.5
 11
2.2
 21
-6.5
  0
LINE
  5
455
100
AcDbEntity
  8
0
100
AcDbLine
 62
7
  6
CONTINUOUS
 10
2.2427633934
 20
13.9
 11
2.2427633934
 21
12.6
  0
LINE
  5
456
100
AcDbEntity
  8
RACCORDO
100
AcDbLine
 62
7
  6
CONTINUOUS
 10
2.3
 20
11.9171131833
 11
2.3
 21
15.0
  0
LINE
  5
457
100
AcDbEntity
  8
RACCORDO
100
AcDbLine
 62
250
  6
CONTINUOUS
 10
1.611935398
 20
-4.630755336
 11
1.6119017304
 21
-4.8344043197
  0
LINE
  5
458
100
AcDbEntity
  8
RACCORDO
100
AcDbLine
 62
250
  6
CONTINUOUS
 10
1.9118897065
 20
-4.6335354572
 11
1.911856039
 21
-4.8373067037
  0
LINE
  5
459
100
AcDbEntity
  8
RACCORDO
100
AcDbLine
 62
250
  6
CONTINUOUS
 10
2.2115719849
 20
-6.5
 11
2.2099998112
 21
-11.5
  0
LINE
  5
45A
100
AcDbEntity
  8
0
100
AcDbLine
 62
250
  6
CONTINUOUS
 10
1.5746884098
 20
10.7871284785
 11
1.5732721317
 21
10.7110849542
  0
LWPOLYLINE
  5
45B
100
AcDbEntity
  8
RACCORDO
100
AcDbPolyline
 62
7
  6
CONTINUOUS
 90
13
 70
0
 10
1.1
 20
4.7770328804
 10
1.1021525932
 20
4.8176927988
 10
1.1081412512
 20
4.8572023561
 10
1.1179659738
 20
4.8955615525
 10
1.1317964448
 20
4.9331411952
 10
1.1494629805
 20
4.9695704768
 10
1.17045653
 20
5.0037369757
 10
1.1949096166
 20
5.0355808242
 10
1.2226897169
 20
5.0651618899
 10
1.2528902097
 20
5.0915473534
 10
1.2852088881
 20
5.114426275
 10
1.319947959
 20
5.1341095944
 10
1.3571074224
 20
5.1505973117
  0
LWPOLYLINE
  5
45C
100
AcDbEntity
  8
RACCORDO
100
AcDbPolyline
 62
7
  6
CONTINUOUS
 90
10
 70
0
 10
1.6
 20
-4.6248507773
 10
1.6021788659
 20
-4.5836050181
 10
1.6083547992
 20
-4.5434979162
 10
1.6185277999
 20
-4.5045294715
 10
1.6329182219
 20
-4.466251572
 10
1.6513057113
 20
-4.4291123298
 10
1.6730292067
 20
-4.394456081
 10
1.6978683541
 20
-4.3627309378
 10
1.7260435074
 20
-4.333488788
 10
1.7575546667
 20
-4.3067296317
  0
LWPOLYLINE
  5
45D
100
AcDbEntity
  8
0
100
AcDbPolyline
 62
7
  6
CONTINUOUS
 90
10
 70
0
 10
2.2427633934
 20
12.6
 10
2.2373503301
 20
12.5092236335
 10
2.2245428849
 20
12.4258903002
 10
2.2043410577
 20
12.35
 10
2.175703104
 20
12.2797365068
 10
2.1396707683
 20
12.2169160467
 10
2.0993692843
 20
12.1669872981
 10
2.0558403963
 20
12.1317664872
 10
2.00804236
 20
12.1094373878
 10
1.9559751752
 20
12.1
  0
LWPOLYLINE
  5
45E
100
AcDbEntity
  8
0
100
AcDbPolyline
 62
250
  6
CONTINUOUS
 90
6
 70
0
 10
0.9562871488
 20
1.5558722713
 10
0.9504199996
 20
1.4845050106
 10
0.9525988294
 20
1.4158040414
 10
0.9628039399
 20
1.3503904471
 10
0.9809430721
 20
1.2888555916
 10
1.0068522406
 20
1.231755774
  0
LINE
  5
45F
100
AcDbEntity
  8
0
100
AcDbLine
 62
250
  6
CONTINUOUS
 10
1.5732740073
 20
6.7889138571
 11
1.5797145508
 21
6.8626993337
  0
LWPOLYLINE
  5
460
100
AcDbEntity
  8
0
100
AcDbPolyline
 62
7
  6
CONTINUOUS
 90
3
 70
0
 10
2.5795583782
 20
7.0517806004
 10
2.6018874776
 20
7.2184472671
 10
2.6113248654
 20
7.4
  0
LWPOLYLINE
  5
461
100
AcDbEntity
  8
0
100
AcDbPolyline
 62
250
  6
CONTINUOUS
 90
3
 70
0
 10
1.6622408716
 20
-0.5469305233
 10
1.6315615275
 20
-0.765169761
 10
1.5860429018
 20
-0.9828595866
  0
LINE
  5
462
100
AcDbEntity
  8
0
100
AcDbLine
 62
250
  6
CONTINUOUS
 10
0.9701472371
 20
1.6292606363
 11
0.9562871488
 21
1.5558722713
  0
LINE
  5
463
100
AcDbEntity
  8
0
100
AcDbLine
 62
250
  6
CONTINUOUS
 10
1.5860429018
 20
-0.9828595866
 11
1.5256849944
 21
-1.2
  0
LINE
  5
464
100
AcDbEntity
  8
0
100
AcDbLine
 62
250
  6
CONTINUOUS
 10
0.991874965
 20
1.7040066467
 11
0.9701472371
 21
1.6292606363
  0
LINE
  5
465
100
AcDbEntity
  8
0
100
AcDbLine
 62
250
  6
CONTINUOUS
 10
1.0212739068
 20
1.7794345702
 11
0.991874965
 21
1.7040066467
  0
LINE
  5
466
100
AcDbEntity
  8
0
100
AcDbLine
 62
250
  6
CONTINUOUS
 10
-1.0212712606
 20
-4.1794345701
 11
-0.9918726301
 21
-4.1040066308
  0
LINE
  5
467
100
AcDbEntity
  8
0
100
AcDbLine
 62
250
  6
CONTINUOUS
 10
0.7512671389
 20
-4.2970497121
 11
0.750000008
 21
-4.2999350332
  0
LINE
  5
468
100
AcDbEntity
  8
RACCORDO
100
AcDbLine
 62
7
  6
CONTINUOUS
 10
-7.4582123695
 20
-15.3151500228
 11
-7.4580504124
 21
-15.3148444064
  0
LWPOLYLINE
  5
469
100
AcDbEntity
  8
RACCORDO
100
AcDbPolyline
 62
7
  6
CONTINUOUS
 90
8
 70
0
 10
-7.4582123627
 20
-15.315150007
 10
-7.4595250603
 20
-15.3172394306
 10
-7.4628108233
 20
-15.3212490063
 10
-7.4680696518
 20
-15.3272131812
 10
-7.475317276
 20
-15.3351580078
 10
-7.4845379655
 20
-15.3450862317
 10
-7.4956845297
 20
-15.3569650689
 10
-7.5088418642
 20
-15.3707738
  0
LWPOLYLINE
  5
46A
100
AcDbEntity
  8
RACCORDO
100
AcDbPolyline
 62
250
  6
CONTINUOUS
 90
4
 70
0
 10
-1.7833352178
 20
-4.3329442698
 10
-1.7755419924
 20
-4.3224172652
 10
-1.7707145429
 20
-4.315756467
 10
-1.7689343988
 20
-4.3130743677
  0
LINE
  5
46B
100
AcDbEntity
  8
RACCORDO
100
AcDbLine
 62
250
  6
CONTINUOUS
 10
-1.8072446611
 20
-4.3648234558
 11
-1.7833352178
 21
-4.3329442698
  0
LINE
  5
46C
100
AcDbEntity
  8
RACCORDO
100
AcDbLine
 62
250
  6
CONTINUOUS
 10
-1.9042857573
 20
-4.4926943666
 11
-1.8072446611
 21
-4.3648234558
  0
LINE
  5
46D
100
AcDbEntity
  8
RACCORDO
100
AcDbLine
 62
250
  6
CONTINUOUS
 10
-1.951149009
 20
-4.5540722576
 11
-1.9042857573
 21
-4.4926943666
  0
LWPOLYLINE
  5
46E
100
AcDbEntity
  8
RACCORDO
100
AcDbPolyline
 62
250
  6
CONTINUOUS
 90
10
 70
0
 10
-1.7037664913
 20
-5.0894536322
 10
-1.6863458822
 20
-5.0668063417
 10
-1.670317096
 20
-5.0425319675
 10
-1.6558588538
 20
-5.0166969271
 10
-1.6431610795
 20
-4.9894124391
 10
-1.6323868051
 20
-4.9607602044
 10
-1.6236899501
 20
-4.9307856662
 10
-1.6172535767
 20
-4.8996049944
 10
-1.6132672474
 20
-4.8674132431
 10
-1.6119017304
 20
-4.8344043197
  0
LWPOLYLINE
  5
46F
100
AcDbEntity
  8
RACCORDO
100
AcDbPolyline
 62
250
  6
CONTINUOUS
 90
10
 70
0
 10
-1.9348140994
 20
-4.9011102426
 10
-1.9303847965
 20
-4.8954090997
 10
-1.9263928565
 20
-4.8893422701
 10
-1.9228382796
 20
-4.8829097535
 10
-1.9196780805
 20
-4.8760866801
 10
-1.9169552444
 20
-4.8688979195
 10
-1.9147987266
 20
-4.8614180808
 10
-1.9132515124
 20
-4.8536720335
 10
-1.9122706165
 20
-4.8456349079
 10
-1.911856039
 20
-4.8373067037
  0
LWPOLYLINE
  5
470
100
AcDbEntity
  8
0
100
AcDbPolyline
 62
250
  6
CONTINUOUS
 90
10
 70
0
 10
1.5256849943
 20
-1.2000000001
 10
1.4905484678
 20
-1.2366029918
 10
1.4600258974
 20
-1.2726821642
 10
1.4344007236
 20
-1.3081932188
 10
1.4139848
 20
-1.3432602747
 10
1.3988818899
 20
-1.3776798978
 10
1.3890283886
 20
-1.4109302921
 10
1.3844903971
 20
-1.4428310625
 10
1.3854211243
 20
-1.4735334158
 10
1.3918561167
 20
-1.5030302993
  0
LWPOLYLINE
  5
471
100
AcDbEntity
  8
RACCORDO
100
AcDbPolyline
 62
7
  6
CONTINUOUS
 90
3
 70
0
 10
-5.0377614356
 20
-7.4851421184
 10
-4.9735489395
 20
-7.4206378371
 10
-4.9386875467
 20
-7.3863253479
  0
LINE
  5
472
100
AcDbEntity
  8
RACCORDO
100
AcDbLine
 62
7
  6
CONTINUOUS
 10
-5.25
 20
-7.693206006
 11
-5.2386418552
 21
-7.6818478612
  0
LWPOLYLINE
  5
473
100
AcDbEntity
  8
RACCORDO
100
AcDbPolyline
 62
7
  6
CONTINUOUS
 90
3
 70
0
 10
-5.1435448916
 20
-7.5900349547
 10
-5.0672307318
 20
-7.5145481022
 10
-5.0377614356
 20
-7.4851421184
  0
LINE
  5
474
100
AcDbEntity
  8
RACCORDO
100
AcDbLine
 62
7
  6
CONTINUOUS
 10
-5.1991098874
 20
-7.6445367819
 11
-5.1435448916
 21
-7.5900349547
  0
LWPOLYLINE
  5
475
100
AcDbEntity
  8
RACCORDO
100
AcDbPolyline
 62
250
  6
CONTINUOUS
 90
13
 70
0
 10
-11.3188329083
 20
-8.8592442319
 10
-11.1852531222
 20
-8.7719711321
 10
-11.0474452029
 20
-8.6915916811
 10
-10.9054091505
 20
-8.6181059393
 10
-10.7590636908
 20
-8.5512894509
 10
-10.608490098
 20
-8.4913667734
 10
-10.4539321941
 20
-8.4390114822
 10
-10.2953619732
 20
-8.3941067608
 10
-10.1328074411
 20
-8.3567695008
 10
-9.9665964379
 20
-8.3280238387
 10
-9.7968382435
 20
-8.3082111688
 10
-9.6234235779
 20
-8.2969901391
 10
-9.4356317961
 20
-8.2941708999
  0
LWPOLYLINE
  5
476
100
AcDbEntity
  8
RACCORDO
100
AcDbPolyline
 62
250
  6
CONTINUOUS
 90
12
 70
0
 10
-11.1489217865
 20
-9.1011184868
 10
-11.0282769915
 20
-9.0224809195
 10
-10.9032586674
 20
-8.9495609853
 10
-10.7741221169
 20
-8.8826317613
 10
-10.6413578009
 20
-8.8220487891
 10
-10.5050478108
 20
-8.7679489793
 10
-10.3648215965
 20
-8.7203601713
 10
-10.2209850235
 20
-8.6796150162
 10
-10.0738456893
 20
-8.6460281359
 10
-9.9230102514
 20
-8.6197976927
 10
-9.768589461
 20
-8.6013112723
 10
-9.6112275579
 20
-8.5910166697
  0
LWPOLYLINE
  5
477
100
AcDbEntity
  8
RACCORDO
100
AcDbPolyline
 62
7
  6
CONTINUOUS
 90
7
 70
0
 10
-11.1451100057
 20
-9.1117761685
 10
-11.1886713167
 20
-9.1384565624
 10
-11.2337145338
 20
-9.1603463874
 10
-11.2802396569
 20
-9.1774456437
 10
-11.328246686
 20
-9.1897543312
 10
-11.377735621
 20
-9.19727245
 10
-11.4287064621
 20
-9.2
  0
LWPOLYLINE
  5
478
100
AcDbEntity
  8
0
100
AcDbPolyline
 62
7
  6
CONTINUOUS
 90
5
 70
0
 10
-1.595780526
 20
1.9
 10
-1.6999148956
 20
1.8811252243
 10
-1.7955109683
 20
1.8364670256
 10
-1.8825687442
 20
1.7660254038
 10
-1.9631717123
 20
1.6661679066
  0
LINE
  5
479
100
AcDbEntity
  8
0
100
AcDbLine
 62
7
  6
CONTINUOUS
 10
-2.1930208699
 20
1.8956800069
 11
-2.169186957
 21
1.9
  0
LINE
  5
47A
100
AcDbEntity
  8
0
100
AcDbLine
 62
250
  6
CONTINUOUS
 10
-2.7427633934
 20
0.9
 11
-2.1693569624
 21
0.9
  0
LINE
  5
47B
100
AcDbEntity
  8
0
100
AcDbLine
 62
250
  6
CONTINUOUS
 10
2.7090306072
 20
0.9
 11
2.1693569624
 21
0.9
  0
LINE
  5
47C
100
AcDbEntity
  8
0
100
AcDbLine
 62
7
  6
CONTINUOUS
 10
-2.169186957
 20
1.9
 11
-1.595780526
 21
1.9
  0
LINE
  5
47D
100
AcDbEntity
  8
0
100
AcDbLine
 62
7
  6
CONTINUOUS
 10
2.169186957
 20
1.9
 11
1.595780526
 21
1.9
  0
LINE
  5
47E
100
AcDbEntity
  8
0
100
AcDbLine
 62
7
  6
CONTINUOUS
 10
-1.595780526
 20
1.9
 11
-0.7500005975
 21
1.9
  0
LINE
  5
47F
100
AcDbEntity
  8
0
100
AcDbLine
 62
7
  6
CONTINUOUS
 10
1.595780526
 20
1.9
 11
0.7500004387
 21
1.9
  0
LINE
  5
480
100
AcDbEntity
  8
0
100
AcDbLine
 62
7
  6
CONTINUOUS
 10
2.169186957
 20
1.9
 11
2.1930208699
 21
1.8956800069
  0
LINE
  5
481
100
AcDbEntity
  8
0
100
AcDbLine
 62
250
  6
CONTINUOUS
 10
0.7940461231
 20
1.876594552
 11
0.8497345436
 21
1.8535070216
  0
LINE
  5
482
100
AcDbEntity
  8
0
100
AcDbLine
 62
250
  6
CONTINUOUS
 10
0.8497345436
 20
1.8535070216
 11
0.8987119395
 21
1.83279026
  0
LWPOLYLINE
  5
483
100
AcDbEntity
  8
0
100
AcDbPolyline
 62
250
  6
CONTINUOUS
 90
3
 70
0
 10
0.8987119395
 20
1.83279026
 10
0.9561829542
 20
1.8080704825
 10
0.9878341213
 20
1.7942371616
  0
LINE
  5
484
100
AcDbEntity
  8
0
100
AcDbLine
 62
250
  6
CONTINUOUS
 10
0.9878341213
 20
1.7942371616
 11
1.0213231124
 21
1.7794141662
  0
LINE
  5
485
100
AcDbEntity
  8
RACCORDO
100
AcDbLine
 62
250
  6
CONTINUOUS
 10
-1.1121582711
 20
2.9467864627
 11
-1.1
 21
2.9393503842
  0
LINE
  5
486
100
AcDbEntity
  8
RACCORDO
100
AcDbLine
 62
250
  6
CONTINUOUS
 10
-1.3295185034
 20
2.590964853
 11
-1.3181526154
 21
2.5831131765
  0
LINE
  5
487
100
AcDbEntity
  8
RACCORDO
100
AcDbLine
 62
7
  6
CONTINUOUS
 10
14.75
 20
-13.8
 11
14.7588325882
 21
-13.8088325882
  0
LWPOLYLINE
  5
488
100
AcDbEntity
  8
RACCORDO
100
AcDbPolyline
 62
7
  6
CONTINUOUS
 90
4
 70
0
 10
14.9239445971
 20
-13.9814806566
 10
15.0011184894
 20
-14.0596621214
 10
15.0293196865
 20
-14.0880683643
 10
15.0587868967
 20
-14.1172572511
  0
LINE
  5
489
100
AcDbEntity
  8
RACCORDO
100
AcDbLine
 62
7
  6
CONTINUOUS
 10
14.8596729493
 20
-13.9159864322
 11
14.9239445971
 21
-13.9814806566
  0
LINE
  5
48A
100
AcDbEntity
  8
RACCORDO
100
AcDbLine
 62
7
  6
CONTINUOUS
 10
14.8096122603
 20
-13.8642384251
 11
14.8596729493
 21
-13.9159864322
  0
LINE
  5
48B
100
AcDbEntity
  8
0
100
AcDbLine
 62
250
  6
CONTINUOUS
 10
1.021323136
 20
1.7793536114
 11
1.1197828782
 21
1.6460452028
  0
LINE
  5
48C
100
AcDbEntity
  8
RACCORDO
100
AcDbLine
 62
250
  6
CONTINUOUS
 10
11.3181408528
 20
-14.1524592769
 11
11.2739901486
 21
-14.0879761068
  0
LINE
  5
48D
100
AcDbEntity
  8
RACCORDO
100
AcDbLine
 62
250
  6
CONTINUOUS
 10
11.2739901486
 20
-14.0879761068
 11
11.2328710156
 21
-14.0273376191
  0
LWPOLYLINE
  5
48E
100
AcDbEntity
  8
RACCORDO
100
AcDbPolyline
 62
250
  6
CONTINUOUS
 90
8
 70
0
 10
11.2328710156
 20
-14.0273376191
 10
11.1976064677
 20
-13.9747069321
 10
11.1829467023
 20
-13.9525522312
 10
11.1706174682
 20
-13.9336972333
 10
11.1608312685
 20
-13.9184669189
 10
11.153756784
 20
-13.9071238084
 10
11.1495159569
 20
-13.8998634235
 10
11.1481818774
 20
-13.8968108999
  0
LWPOLYLINE
  5
48F
100
AcDbEntity
  8
0
100
AcDbPolyline
 62
250
  6
CONTINUOUS
 90
3
 70
0
 10
-1.9170510656
 20
6.9508805415
 10
-2.0094282101
 20
7.0948009908
 10
-2.0951243934
 20
7.2450648521
  0
LINE
  5
490
100
AcDbEntity
  8
0
100
AcDbLine
 62
250
  6
CONTINUOUS
 10
1.0068522406
 20
1.231755774
 11
1.0402972158
 21
1.1796071988
  0
LWPOLYLINE
  5
491
100
AcDbEntity
  8
0
100
AcDbPolyline
 62
250
  6
CONTINUOUS
 90
3
 70
0
 10
1.1197828782
 20
1.6460452028
 10
1.2133329189
 20
1.4981286256
 10
1.3019732579
 20
1.3356038799
  0
LWPOLYLINE
  5
492
100
AcDbEntity
  8
0
100
AcDbPolyline
 62
7
  6
CONTINUOUS
 90
6
 70
0
 10
-2.4944088187
 20
6.7594730136
 10
-2.4315883586
 20
6.6338320934
 10
-2.3613248654
 20
6.5339745962
 10
-2.2854345652
 20
6.4635329744
 10
-2.2021012319
 20
6.4188747757
 10
-2.1113248654
 20
6.4
  0
LWPOLYLINE
  5
493
100
AcDbEntity
  8
0
100
AcDbPolyline
 62
250
  6
CONTINUOUS
 90
18
 70
0
 10
-2.0951243934
 20
7.2450648521
 10
-2.1730195589
 20
7.4018749248
 10
-2.2433752553
 20
7.566106666
 10
-2.3059299341
 20
7.7368846188
 10
-2.3587788935
 20
7.9117852115
 10
-2.4016075332
 20
8.0910924731
 10
-2.4347304536
 20
8.2745223747
 10
-2.4571867532
 20
8.4587992583
 10
-2.4687610103
 20
8.6429785973
 10
-2.4696686467
 20
8.8280049182
 10
-2.4595950271
 20
9.0134361422
 10
-2.438116746
 20
9.2007164733
 10
-2.405657209
 20
9.3884017074
 10
-2.3631719969
 20
9.5717171538
 10
-2.3103165787
 20
9.7498822421
 10
-2.2474354855
 20
9.9236775427
 10
-2.1765178907
 20
10.0906700759
 10
-2.0976810944
 20
10.2501186683
  0
LINE
  5
494
100
AcDbEntity
  8
0
100
AcDbLine
 62
250
  6
CONTINUOUS
 10
1.3019732579
 20
1.3356038799
 11
1.3881286488
 21
1.1563450472
  0
LWPOLYLINE
  5
495
100
AcDbEntity
  8
0
100
AcDbPolyline
 62
250
  6
CONTINUOUS
 90
7
 70
0
 10
0.7500004387
 20
1.9
 10
0.751223914
 20
1.8971397853
 10
0.7548364577
 20
1.8938632933
 10
0.7608844522
 20
1.890170524
 10
0.7694214615
 20
1.8862749981
 10
0.7804804779
 20
1.881963195
 10
0.7940461231
 20
1.876594552
  0
LWPOLYLINE
  5
496
100
AcDbEntity
  8
0
100
AcDbPolyline
 62
250
  6
CONTINUOUS
 90
9
 70
0
 10
1.3881286488
 20
1.1563450472
 10
1.4693743382
 20
0.9624780459
 10
1.5384360654
 20
0.7603806313
 10
1.5936355152
 20
0.5497581106
 10
1.6366510029
 20
0.3309051765
 10
1.6652432138
 20
0.1110836627
 10
1.6788043781
 20
-0.1077918168
 10
1.6779422657
 20
-0.3276358762
 10
1.6622408716
 20
-0.5469305233
  0
LWPOLYLINE
  5
497
100
AcDbEntity
  8
0
100
AcDbPolyline
 62
250
  6
CONTINUOUS
 90
7
 70
0
 10
1.5256849944
 20
-1.2
 10
1.550179643
 20
-1.2813758343
 10
1.5723551006
 20
-1.3614770672
 10
1.5922113673
 20
-1.4403036989
 10
1.6096219101
 20
-1.5177996286
 10
1.6247132621
 20
-1.594020957
 10
1.6378650216
 20
-1.6691359861
  0
LINE
  5
498
100
AcDbEntity
  8
0
100
AcDbLine
 62
250
  6
CONTINUOUS
 10
-1.6009666067
 20
10.9430131967
 11
-1.5839520152
 21
10.8646900985
  0
LWPOLYLINE
  5
499
100
AcDbEntity
  8
0
100
AcDbPolyline
 62
250
  6
CONTINUOUS
 90
4
 70
0
 10
1.6378650216
 20
-1.6691359861
 10
1.6491070133
 20
-1.7429789127
 10
1.6584094126
 20
-1.81571554
 10
1.6660623449
 20
-1.8880115791
  0
LINE
  5
49A
100
AcDbEntity
  8
0
100
AcDbLine
 62
250
  6
CONTINUOUS
 10
1.5839520152
 20
6.6353099011
 11
1.5746910949
 21
6.7128706113
  0
LINE
  5
49B
100
AcDbEntity
  8
0
100
AcDbLine
 62
250
  6
CONTINUOUS
 10
1.5732721317
 20
10.7110849542
 11
1.5797133265
 21
10.6372993185
  0
LWPOLYLINE
  5
49C
100
AcDbEntity
  8
0
100
AcDbPolyline
 62
7
  6
CONTINUOUS
 90
10
 70
0
 10
1.6693569624
 20
13.9
 10
1.6639438991
 20
13.9907763665
 10
1.6511364539
 20
14.0741096998
 10
1.6309346267
 20
14.15
 10
1.602296673
 20
14.2202634932
 10
1.5662643373
 20
14.2830839533
 10
1.5259628533
 20
14.3330127019
 10
1.4824339653
 20
14.3682335128
 10
1.434635929
 20
14.3905626122
 10
1.3825687442
 20
14.4
  0
LWPOLYLINE
  5
49D
100
AcDbEntity
  8
RACCORDO
100
AcDbPolyline
 62
250
  6
CONTINUOUS
 90
16
 70
0
 10
4.9417173595
 20
-15.1059840283
 10
4.9407425944
 20
-15.0892373647
 10
4.9388204293
 20
-15.0733742435
 10
4.9359508643
 20
-15.0583946672
 10
4.9320242119
 20
-15.0443327276
 10
4.9271501596
 20
-15.0311543376
 10
4.9216577697
 20
-15.0187572315
 10
4.9156663275
 20
-15.0072059777
 10
4.9090565478
 20
-14.9964360112
 10
4.901799637
 20
-14.9861513653
 10
4.8939959627
 20
-14.9763011441
 10
4.8855451574
 20
-14.9669362452
 10
4.8761173254
 20
-14.9579133909
 10
4.8656025016
 20
-14.9491848222
 10
4.8541106511
 20
-14.940798299
 10
4.841641774
 20
-14.9327538221
  0
LWPOLYLINE
  5
49E
100
AcDbEntity
  8
0
100
AcDbPolyline
 62
7
  6
CONTINUOUS
 90
3
 70
0
 10
2.6113248654
 20
10.1
 10
2.6018874776
 20
10.2815527329
 10
2.5795583782
 20
10.4482193996
  0
LWPOLYLINE
  5
49F
100
AcDbEntity
  8
RACCORDO
100
AcDbPolyline
 62
250
  6
CONTINUOUS
 90
16
 70
0
 10
5.241671668
 20
-15.0969204379
 10
5.2399246758
 20
-15.0553237844
 10
5.2349894022
 20
-15.0156153911
 10
5.2272830748
 20
-14.9780024661
 10
5.2172696738
 20
-14.9427966486
 10
5.2053168945
 20
-14.9099199985
 10
5.1915776306
 20
-14.8789525645
 10
5.1764165539
 20
-14.8501157424
 10
5.160015809
 20
-14.8232507498
 10
5.1419583693
 20
-14.7974717637
 10
5.1223501219
 20
-14.77292078
 10
5.1012399237
 20
-14.7496505718
 10
5.0777790154
 20
-14.7269039173
 10
5.0515665261
 20
-14.7046944458
 10
5.0228508115
 20
-14.6836273075
 10
4.9916189283
 20
-14.6640261186
  0
LWPOLYLINE
  5
4A0
100
AcDbEntity
  8
RACCORDO
100
AcDbPolyline
 62
250
  6
CONTINUOUS
 90
13
 70
0
 10
2.6097815697
 20
11.9288492591
 10
2.6100289257
 20
11.9219530519
 10
2.6107317913
 20
11.9151551526
 10
2.6118901665
 20
11.9084555611
 10
2.613484284
 20
11.9018661208
 10
2.6155339112
 20
11.8953749886
 10
2.6180983494
 20
11.8889466351
 10
2.6211594231
 20
11.882544136
 10
2.6247353078
 20
11.8762044156
 10
2.6289398321
 20
11.8700027178
 10
2.6338109387
 20
11.863964124
 10
2.6393106849
 20
11.8580635529
 10
2.6454390705
 20
11.8523010048
  0
LWPOLYLINE
  5
4A1
100
AcDbEntity
  8
RACCORDO
100
AcDbPolyline
 62
250
  6
CONTINUOUS
 90
13
 70
0
 10
2.3098272611
 20
11.9216919495
 10
2.3107700478
 20
11.8943298205
 10
2.3135805747
 20
11.867109259
 10
2.3182429573
 20
11.8401574015
 10
2.3246770143
 20
11.8137982586
 10
2.3328787112
 20
11.7879483188
 10
2.3430540135
 20
11.7621584261
 10
2.3552958167
 20
11.7365507617
 10
2.3696403507
 20
11.7113606798
 10
2.3863945287
 20
11.686416384
 10
2.4057605506
 20
11.6618763171
 10
2.4277348585
 20
11.6381737854
 10
2.4523619688
 20
11.6156382791
  0
LINE
  5
4A2
100
AcDbEntity
  8
RACCORDO
100
AcDbLine
 62
250
  6
CONTINUOUS
 10
2.6081704061
 20
15.3173608131
 11
2.6097815697
 21
11.9288492591
  0
LINE
  5
4A3
100
AcDbEntity
  8
0
100
AcDbLine
 62
250
  6
CONTINUOUS
 10
2.5
 20
5.8390849684
 11
2.5
 21
6.4
  0
LINE
  5
4A4
100
AcDbEntity
  8
0
100
AcDbLine
 62
250
  6
CONTINUOUS
 10
2.5
 20
11.1
 11
2.5
 21
11.5598769156
  0
LINE
  5
4A5
100
AcDbEntity
  8
0
100
AcDbLine
 62
7
  6
CONTINUOUS
 10
2.6113248654
 20
10.1
 11
2.6113248654
 21
7.4
  0
LINE
  5
4A6
100
AcDbEntity
  8
RACCORDO
100
AcDbLine
 62
7
  6
CONTINUOUS
 10
2.7090306072
 20
-3.0334611465
 11
2.7090306072
 21
1.0345273221
  0
LINE
  5
4A7
100
AcDbEntity
  8
0
100
AcDbLine
 62
7
  6
CONTINUOUS
 10
2.8
 20
6.1313115737
 11
2.8
 21
6.4
  0
LINE
  5
4A8
100
AcDbEntity
  8
DRAFT
100
AcDbLine
 62
7
  6
CONTINUOUS
 10
2.9
 20
-2.0
 11
2.9
 21
0.0
  0
LINE
  5
4A9
100
AcDbEntity
  8
RACCORDO
100
AcDbLine
 62
250
  6
CONTINUOUS
 10
2.9123099353
 20
0.0
 11
2.9122400729
 21
-2.0
  0
LINE
  5
4AA
100
AcDbEntity
  8
RACCORDO
100
AcDbLine
 62
250
  6
CONTINUOUS
 10
3.2122642439
 20
0.0
 11
3.2121943814
 21
-2.0012007204
  0
LINE
  5
4AB
100
AcDbEntity
  8
0
100
AcDbLine
 62
7
  6
CONTINUOUS
 10
3.2175426481
 20
10.1
 11
3.2175426481
 21
7.4
  0
LINE
  5
4AC
100
AcDbEntity
  8
0
100
AcDbLine
 62
250
  6
CONTINUOUS
 10
3.4204102271
 20
10.3521771394
 11
3.4204102271
 21
7.045755335
  0
LINE
  5
4AD
100
AcDbEntity
  8
0
100
AcDbLine
 62
7
  6
CONTINUOUS
 10
3.5
 20
10.1771251373
 11
3.5
 21
7.2209166257
  0
LINE
  5
4AE
100
AcDbEntity
  8
RACCORDO
100
AcDbLine
 62
250
  6
CONTINUOUS
 10
2.5115262934
 20
-6.5039023414
 11
2.5099541197
 21
-11.5069041425
  0
LWPOLYLINE
  5
4AF
100
AcDbEntity
  8
RACCORDO
100
AcDbPolyline
 62
250
  6
CONTINUOUS
 90
16
 70
0
 10
2.9122400729
 20
-2.0
 10
2.906742393
 20
-2.178621611
 10
2.8903982835
 20
-2.3557579995
 10
2.8634177296
 20
-2.5307617763
 10
2.8261236322
 20
-2.7027027408
 10
2.7787583914
 20
-2.8712971321
 10
2.7212991489
 20
-3.0368581225
 10
2.6539713508
 20
-3.1986920801
 10
2.5769694066
 20
-3.3562942498
 10
2.4899151068
 20
-3.5101340947
 10
2.3925484003
 20
-3.6600507706
 10
2.2853261339
 20
-3.8047750786
 10
2.1689223578
 20
-3.9430848378
 10
2.043857498
 20
-4.074205161
 10
1.9103825957
 20
-4.1977257667
 10
1.7689343988
 20
-4.3130743677
  0
LWPOLYLINE
  5
4B0
100
AcDbEntity
  8
RACCORDO
100
AcDbPolyline
 62
250
  6
CONTINUOUS
 90
16
 70
0
 10
3.2121943814
 20
-2.0012007204
 10
3.2056795562
 20
-2.1994856456
 10
3.1877308259
 20
-2.3947461227
 10
3.1583481903
 20
-2.5869821384
 10
3.1173670189
 20
-2.7765270175
 10
3.0649519423
 20
-2.963047414
 10
3.0015968521
 20
-3.1455433176
 10
2.9274804378
 20
-3.3239881859
 10
2.84242401
 20
-3.4984085693
 10
2.7463853921
 20
-3.6678841133
 10
2.6389169818
 20
-3.8330333876
 10
2.5204663814
 20
-3.9932378547
 10
2.3923342209
 20
-4.14572153
 10
2.2549540437
 20
-4.289559124
 10
2.1078923064
 20
-4.4256760182
 10
1.9455568827
 20
-4.5586824718
  0
LWPOLYLINE
  5
4B1
100
AcDbEntity
  8
RACCORDO
100
AcDbPolyline
 62
250
  6
CONTINUOUS
 90
49
 70
0
 10
2.209999812
 20
-11.5
 10
2.2051216247
 20
-11.6457372396
 10
2.1907060992
 20
-11.7903618048
 10
2.1669089832
 20
-11.9332574662
 10
2.1339661026
 20
-12.0736709869
 10
2.0920876854
 20
-12.2111841631
 10
2.0413568348
 20
-12.3456858054
 10
1.9819135432
 20
-12.4767565092
 10
1.9140631556
 20
-12.603681798
 10
1.8381057059
 20
-12.7259055145
 10
1.7543732371
 20
-12.8429021257
 10
1.6632175766
 20
-12.9541879043
 10
1.5650189693
 20
-13.0593035888
 10
1.4601889558
 20
-13.1578089785
 10
1.349176485
 20
-13.2492823786
 10
1.2324583907
 20
-13.3333338902
 10
1.1105337667
 20
-13.4096072529
 10
0.9839164121
 20
-13.4777838727
 10
0.8531379676
 20
-13.5375798938
 10
0.7187509716
 20
-13.5887435204
 10
0.5813254614
 20
-13.6310583319
 10
0.4414411613
 20
-13.6643468379
 10
0.2996906639
 20
-13.6884684739
 10
0.1566729675
 20
-13.7033215228
 10
0.0129888527
 20
-13.7088435243
 10
-0.1307544653
 20
-13.7050104955
 10
-0.2739482216
 20
-13.6918377802
 10
-0.4159888716
 20
-13.6693797434
 10
-0.5562758245
 20
-13.6377300657
 10
-0.6942144391
 20
-13.5970213677
 10
-0.8292208111
 20
-13.5474240414
 10
-0.9607186142
 20
-13.4891487871
 10
-1.0881550768
 20
-13.4224392982
 10
-1.211002009
 20
-13.347567874
 10
-1.3287652772
 20
-13.2648263659
 10
-1.4409118912
 20
-13.1745793354
 10
-1.5468968634
 20
-13.0772698899
 10
-1.6460326353
 20
-12.9735965615
 10
-1.7381925437
 20
-12.8637633277
 10
-1.8235749716
 20
-12.7473983319
 10
-1.9019000108
 20
-12.6244915169
 10
-1.9723840954
 20
-12.495838051
 10
-2.0344090099
 20
-12.36224473
 10
-2.0876716385
 20
-12.2240256895
 10
-2.131712048
 20
-12.0819757894
 10
-2.1659996795
 20
-11.9377698819
 10
-2.190428688
 20
-11.7924396347
 10
-2.2050842185
 20
-11.6462978559
 10
-2.2099998121
 20
-11.5
  0
LWPOLYLINE
  5
4B2
100
AcDbEntity
  8
RACCORDO
100
AcDbPolyline
 62
250
  6
CONTINUOUS
 90
49
 70
0
 10
2.5099541197
 20
-11.5069041425
 10
2.5040562654
 20
-11.6736539773
 10
2.4877521004
 20
-11.8377748089
 10
2.4610416245
 20
-11.9992666802
 10
2.4237246491
 20
-12.1586087205
 10
2.376001363
 20
-12.3153218816
 10
2.3184723319
 20
-12.4679689751
 10
2.2510070888
 20
-12.6166862769
 10
2.1737361008
 20
-12.7613376649
 10
2.0876513349
 20
-12.9000774274
 10
1.9926476423
 20
-13.0328187629
 10
1.8888301719
 20
-13.1596487025
 10
1.7775063374
 20
-13.2789823516
 10
1.6585771261
 20
-13.3907302389
 10
1.5321415507
 20
-13.4949821005
 10
1.3998040628
 20
-13.590421896
 10
1.2614943699
 20
-13.6769351735
 10
1.1172827644
 20
-13.7546366415
 10
0.9689845755
 20
-13.8225540194
 10
0.8165476971
 20
-13.8805651283
 10
0.6600242353
 20
-13.9287923503
 10
0.5013858369
 20
-13.9666302408
 10
0.3406068452
 20
-13.9939482324
 10
0.177712917
 20
-14.0108770061
 10
0.0147526694
 20
-14.0172029687
 10
-0.1482756281
 20
-14.0127930535
 10
-0.311370245
 20
-13.9977803305
 10
-0.4724773726
 20
-13.9723503843
 10
-0.6315731631
 20
-13.9363716127
 10
-0.7886814644
 20
-13.8899755103
 10
-0.9418200115
 20
-13.8337422849
 10
-1.0909353562
 20
-13.7675510849
 10
-1.2360809466
 20
-13.6915225629
 10
-1.3754348622
 20
-13.606599177
 10
-1.5089505453
 20
-13.5126372641
 10
-1.6366745536
 20
-13.4097802318
 10
-1.7569246386
 20
-13.2994011611
 10
-1.869418788
 20
-13.1817767636
 10
-1.9744390142
 20
-13.0566300692
 10
-2.0711491057
 20
-12.92450366
 10
-2.1598338521
 20
-12.784906267
 10
-2.2402084638
 20
-12.6383288782
 10
-2.3105823608
 20
-12.4867875102
 10
-2.3707429593
 20
-12.3298585544
 10
-2.4209028431
 20
-12.1679654126
 10
-2.4600091839
 20
-12.0043947393
 10
-2.4877110388
 20
-11.8402421057
 10
-2.5043593508
 20
-11.6744119137
 10
-2.5099541197
 20
-11.5069041425
  0
LWPOLYLINE
  5
4B3
100
AcDbEntity
  8
0
100
AcDbPolyline
 62
7
  6
CONTINUOUS
 90
10
 70
0
 10
3.2175426481
 20
7.4
 10
3.2081052602
 20
7.2184472671
 10
3.1857761608
 20
7.0517806004
 10
3.1505553499
 20
6.9
 10
3.1006266014
 20
6.7594730136
 10
3.0378061413
 20
6.6338320934
 10
2.9675426481
 20
6.5339745962
 10
2.8916523478
 20
6.4635329744
 10
2.8083190145
 20
6.4188747757
 10
2.7175426481
 20
6.4
  0
LINE
  5
4B4
100
AcDbEntity
  8
ASSI
100
AcDbLine
 62
7
  6
CONTINUOUS
 10
7.8866556363
 20
22.5
 11
7.8651277229
 21
22.4
  0
LWPOLYLINE
  5
4B5
100
AcDbEntity
  8
0
100
AcDbPolyline
 62
7
  6
CONTINUOUS
 90
5
 70
0
 10
2.0352363836
 20
-3.9405269864
 10
2.0925122909
 20
-3.8
 10
2.1329159453
 20
-3.6482193996
 10
2.1585308358
 20
-3.4815527329
 10
2.1693569624
 20
-3.3
  0
LWPOLYLINE
  5
4B6
100
AcDbEntity
  8
0
100
AcDbPolyline
 62
250
  6
CONTINUOUS
 90
3
 70
0
 10
1.4233112691
 20
-3.4780537743
 10
1.3888788647
 20
-3.5570397308
 10
1.352005653
 20
-3.6360960458
  0
LWPOLYLINE
  5
4B7
100
AcDbEntity
  8
0
100
AcDbPolyline
 62
250
  6
CONTINUOUS
 90
8
 70
0
 10
1.352005653
 20
-3.6360960458
 10
1.3125762835
 20
-3.7149156373
 10
1.2705828489
 20
-3.7934999864
 10
1.2260332564
 20
-3.8718476121
 10
1.1788358776
 20
-3.9496469894
 10
1.1289601696
 20
-4.0267942766
 10
1.0764366754
 20
-4.1033933155
 10
1.0212653949
 20
-4.179444106
  0
LINE
  5
4B8
100
AcDbEntity
  8
0
100
AcDbLine
 62
7
  6
CONTINUOUS
 10
1.9631717123
 20
-4.0661679066
 11
2.0352363836
 21
-3.9405269864
  0
LINE
  5
4B9
100
AcDbEntity
  8
0
100
AcDbLine
 62
250
  6
CONTINUOUS
 10
1.0068503181
 20
-3.6317554211
 11
1.040295632
 21
-3.5796060117
  0
LWPOLYLINE
  5
4BA
100
AcDbEntity
  8
RACCORDO
100
AcDbPolyline
 62
250
  6
CONTINUOUS
 90
13
 70
0
 10
1.7689343988
 20
-4.3130743677
 10
1.746756091
 20
-4.3313372863
 10
1.7259009712
 20
-4.3511906679
 10
1.706486601
 20
-4.3725416131
 10
1.6887427313
 20
-4.3951256751
 10
1.6726310534
 20
-4.4189788338
 10
1.6579649365
 20
-4.4445192232
 10
1.64489739
 20
-4.4718065122
 10
1.6337117043
 20
-4.5006342348
 10
1.6245701657
 20
-4.5310747151
 10
1.6177160288
 20
-4.5630585951
 10
1.6134227298
 20
-4.5963545043
 10
1.611935398
 20
-4.630755336
  0
LWPOLYLINE
  5
4BB
100
AcDbEntity
  8
RACCORDO
100
AcDbPolyline
 62
7
  6
CONTINUOUS
 90
5
 70
0
 10
-5.2386418552
 20
-7.6818478612
 10
-5.2362799658
 20
-7.6799645186
 10
-5.2311617347
 20
-7.6752929289
 10
-5.2232871619
 20
-7.6678182051
 10
-5.1991098874
 20
-7.6445367819
  0
LINE
  5
4BC
100
AcDbEntity
  8
RACCORDO
100
AcDbLine
 62
250
  6
CONTINUOUS
 10
-9.3430287747
 20
-8.2675739838
 11
-7.8180585561
 21
-7.3863253576
  0
LINE
  5
4BD
100
AcDbEntity
  8
RACCORDO
100
AcDbLine
 62
250
  6
CONTINUOUS
 10
-9.1930516206
 20
-8.5223814902
 11
-7.7376832363
 21
-7.6818582665
  0
LINE
  5
4BE
100
AcDbEntity
  8
RACCORDO
100
AcDbLine
 62
7
  6
CONTINUOUS
 10
-7.7346426187
 20
-7.693206006
 11
-9.1901614481
 21
-8.5335501939
  0
LINE
  5
4BF
100
AcDbEntity
  8
RACCORDO
100
AcDbLine
 62
250
  6
CONTINUOUS
 10
-1.7689343988
 20
-4.3130743677
 11
-1.7575546667
 21
-4.3067296317
  0
LWPOLYLINE
  5
4C0
100
AcDbEntity
  8
RACCORDO
100
AcDbPolyline
 62
7
  6
CONTINUOUS
 90
7
 70
0
 10
-9.1901614459
 20
-8.533550193
 10
-9.2307387819
 20
-8.5544801466
 10
-9.2723362615
 20
-8.5714980898
 10
-9.3149538845
 20
-8.5846040223
 10
-9.358591651
 20
-8.5937979444
 10
-9.4032495611
 20
-8.599079856
 10
-9.4489276145
 20
-8.6004497571
  0
LINE
  5
4C1
100
AcDbEntity
  8
RACCORDO
100
AcDbLine
 62
250
  6
CONTINUOUS
 10
-1.611935398
 20
-4.630755336
 11
-1.6
 21
-4.6248507773
  0
LWPOLYLINE
  5
4C2
100
AcDbEntity
  8
0
100
AcDbPolyline
 62
7
  6
CONTINUOUS
 90
4
 70
0
 10
1.6999148956
 20
-4.2811252243
 10
1.7955109683
 20
-4.2364670256
 10
1.8825687442
 20
-4.1660254038
 10
1.9631717123
 20
-4.0661679066
  0
LWPOLYLINE
  5
4C3
100
AcDbEntity
  8
0
100
AcDbPolyline
 62
250
  6
CONTINUOUS
 90
4
 70
0
 10
0.7703554009
 20
-4.2859316679
 10
0.7615252627
 20
-4.2899226141
 10
0.7551329813
 20
-4.2936905835
 10
0.7512671389
 20
-4.2970497121
  0
LWPOLYLINE
  5
4C4
100
AcDbEntity
  8
0
100
AcDbPolyline
 62
250
  6
CONTINUOUS
 90
4
 70
0
 10
1.0212653945
 20
-4.1794371684
 10
0.9538223393
 20
-4.209028948
 10
0.9239148956
 20
-4.2220121262
 10
0.8966028982
 20
-4.2337263696
  0
LINE
  5
4C5
100
AcDbEntity
  8
0
100
AcDbLine
 62
250
  6
CONTINUOUS
 10
0.8966028982
 20
-4.2337263696
 11
0.8288849785
 21
-4.2622026364
  0
LINE
  5
4C6
100
AcDbEntity
  8
0
100
AcDbLine
 62
250
  6
CONTINUOUS
 10
0.8288849785
 20
-4.2622026364
 11
0.7950832688
 21
-4.2761656613
  0
LINE
  5
4C7
100
AcDbEntity
  8
0
100
AcDbLine
 62
250
  6
CONTINUOUS
 10
0.7950832688
 20
-4.2761656613
 11
0.7703554009
 21
-4.2859316679
  0
LWPOLYLINE
  5
4C8
100
AcDbEntity
  8
RACCORDO
100
AcDbPolyline
 62
250
  6
CONTINUOUS
 90
4
 70
0
 10
1.1364762442
 20
2.947456491
 10
1.123495267
 20
2.9472394775
 10
1.115343786
 20
2.9470148806
 10
1.1121582711
 20
2.9467864587
  0
LINE
  5
4C9
100
AcDbEntity
  8
RACCORDO
100
AcDbLine
 62
250
  6
CONTINUOUS
 10
1.1759804126
 20
2.9478534307
 11
1.1364762442
 21
2.947456491
  0
LINE
  5
4CA
100
AcDbEntity
  8
RACCORDO
100
AcDbLine
 62
250
  6
CONTINUOUS
 10
1.298520617
 20
2.9484122154
 11
1.1759804126
 21
2.9478534307
  0
LINE
  5
4CB
100
AcDbEntity
  8
RACCORDO
100
AcDbLine
 62
250
  6
CONTINUOUS
 10
1.4121125796
 20
2.9485555961
 11
1.298520617
 21
2.9484122154
  0
LINE
  5
4CC
100
AcDbEntity
  8
0
100
AcDbLine
 62
7
  6
CONTINUOUS
 10
0.2507721208
 20
2.9
 11
1.1
 21
2.9
  0
LINE
  5
4CD
100
AcDbEntity
  8
0
100
AcDbLine
 62
7
  6
CONTINUOUS
 10
-0.2507721208
 20
2.9
 11
-1.1
 21
2.9
  0
LINE
  5
4CE
100
AcDbEntity
  8
RACCORDO
100
AcDbLine
 62
250
  6
CONTINUOUS
 10
-1.4121125796
 20
2.9485555961
 11
-1.231219764
 21
2.9481791855
  0
LWPOLYLINE
  5
4CF
100
AcDbEntity
  8
RACCORDO
100
AcDbPolyline
 62
250
  6
CONTINUOUS
 90
6
 70
0
 10
-1.231219764
 20
2.9481791855
 10
-1.1540678056
 20
2.9476622345
 10
-1.1364751911
 20
2.9474564448
 10
-1.1234947331
 20
2.9472394444
 10
-1.1153436298
 20
2.9470148645
 10
-1.1121582711
 20
2.9467864627
  0
LWPOLYLINE
  5
4D0
100
AcDbEntity
  8
RACCORDO
100
AcDbPolyline
 62
250
  6
CONTINUOUS
 90
52
 70
0
 10
-1.4759466307
 20
4.8650937671
 10
-1.5635818297
 20
4.8997512295
 10
-1.6518656583
 20
4.9373303475
 10
-1.7407981165
 20
4.9778311145
 10
-1.8299921664
 20
5.0208230421
 10
-1.9198348458
 20
5.0667366042
 10
-2.0114872686
 20
5.1168632329
 10
-2.1054249297
 20
5.1713089789
 10
-2.2011723342
 20
5.2299677629
 10
-2.2984641105
 20
5.293812813
 10
-2.3976751303
 20
5.3630737366
 10
-2.4984305219
 20
5.4375208793
 10
-2.5993402991
 20
5.5174385686
 10
-2.7007985545
 20
5.6033841558
 10
-2.8024111955
 20
5.6948002227
 10
-2.9016059575
 20
5.7902989458
 10
-2.9980467046
 20
5.889950513
 10
-3.0920695726
 20
5.993684673
 10
-3.1821107052
 20
6.0999029614
 10
-3.2676879255
 20
6.2082250984
 10
-3.3492834103
 20
6.3190313168
 10
-3.4267798338
 20
6.4318639338
 10
-3.4999702216
 20
6.5462495865
 10
-3.5690615482
 20
6.6626615934
 10
-3.6345574107
 20
6.7820622869
 10
-3.6965174898
 20
6.9039545916
 10
-3.7548821047
 20
7.0288355135
 10
-3.8099758108
 20
7.1591584702
 10
-3.862220372
 20
7.2948488136
 10
-3.9111940244
 20
7.435981049
 10
-3.9559560314
 20
7.5852322577
 10
-3.9970597176
 20
7.743026591
 10
-4.0339517584
 20
7.9089396373
 10
-4.0640314426
 20
8.0843755626
 10
-4.0876687957
 20
8.270117105
 10
-4.1044937922
 20
8.4653811356
 10
-4.1107956447
 20
8.669222992
 10
-4.1064016078
 20
8.8828300837
 10
-4.0914844269
 20
9.1050145378
 10
-4.0628515517
 20
9.3312688693
 10
-4.0197638201
 20
9.5620701647
 10
-3.9629603941
 20
9.7969410253
 10
-3.8914662105
 20
10.0299424966
 10
-3.8045391071
 20
10.2607966158
 10
-3.702921246
 20
10.4897813554
 10
-3.58786405
 20
10.7117919739
 10
-3.458760905
 20
10.9264196267
 10
-3.3162184252
 20
11.134073474
 10
-3.1633078753
 20
11.3308760357
 10
-3.0010530104
 20
11.5155350347
 10
-2.8284300755
 20
11.6893432772
 10
-2.6454390705
 20
11.8523010048
  0
LWPOLYLINE
  5
4D1
100
AcDbEntity
  8
RACCORDO
100
AcDbPolyline
 62
250
  6
CONTINUOUS
 90
52
 70
0
 10
-1.3682782071
 20
5.142139169
 10
-1.4493591829
 20
5.1743976329
 10
-1.5312329722
 20
5.20918484
 10
-1.6138085171
 20
5.2465910422
 10
-1.6964853199
 20
5.2864546651
 10
-1.7796774505
 20
5.3290890165
 10
-1.8647502744
 20
5.3754051208
 10
-1.9518641782
 20
5.4258014089
 10
-2.0404753258
 20
5.4802904426
 10
-2.130790988
 20
5.5393498366
 10
-2.2228454981
 20
5.6034148876
 10
-2.3160639058
 20
5.6725220524
 10
-2.4097162919
 20
5.7465400737
 10
-2.5039402888
 20
5.8260108035
 10
-2.597982637
 20
5.9107563839
 10
-2.6899286513
 20
5.9993460719
 10
-2.7794629876
 20
6.0916138478
 10
-2.8665504909
 20
6.1876669552
 10
-2.9499664537
 20
6.286194681
 10
-3.0293212004
 20
6.3866055553
 10
-3.1049355233
 20
6.4891694524
 10
-3.1767818433
 20
6.5937564126
 10
-3.2445780457
 20
6.6998198086
 10
-3.3085675272
 20
6.8075983333
 10
-3.3693959662
 20
6.9182142874
 10
-3.4267397749
 20
7.0312213403
 10
-3.4806587892
 20
7.1468898987
 10
-3.5320104048
 20
7.267591943
 10
-3.5803954074
 20
7.3933254973
 10
-3.6254025438
 20
7.5240705939
 10
-3.6673326143
 20
7.6623457369
 10
-3.705529813
 20
7.8084946099
 10
-3.7391115528
 20
7.9621427694
 10
-3.7675130879
 20
8.1247958087
 10
-3.7897304706
 20
8.2968210626
 10
-3.8045594716
 20
8.4775053207
 10
-3.810852826
 20
8.6666466204
 10
-3.807377344
 20
8.8645904466
 10
-3.7928587768
 20
9.070005133
 10
-3.7663919619
 20
9.2800159902
 10
-3.7270574709
 20
9.4940962499
 10
-3.6740405415
 20
9.7111220749
 10
-3.6074960228
 20
9.9273143907
 10
-3.5272593325
 20
10.1415777878
 10
-3.4330951732
 20
10.3531576182
 10
-3.3260327649
 20
10.559019535
 10
-3.2064446707
 20
10.7582863642
 10
-3.0746657273
 20
10.9502557165
 10
-2.9324460187
 20
11.1325693078
 10
-2.7810147084
 20
11.3042333799
 10
-2.6207281448
 20
11.4653792749
 10
-2.4523619688
 20
11.6156382791
  0
LWPOLYLINE
  5
4D2
100
AcDbEntity
  8
RACCORDO
100
AcDbPolyline
 62
7
  6
CONTINUOUS
 90
13
 70
0
 10
-1.3571074224
 20
5.1505973117
 10
-1.319947959
 20
5.1341095944
 10
-1.2852088881
 20
5.114426275
 10
-1.2528902097
 20
5.0915473534
 10
-1.2226897169
 20
5.0651618899
 10
-1.1949096166
 20
5.0355808242
 10
-1.17045653
 20
5.0037369757
 10
-1.1494629805
 20
4.9695704768
 10
-1.1317964448
 20
4.9331411952
 10
-1.1179659738
 20
4.8955615525
 10
-1.1081412512
 20
4.8572023561
 10
-1.1021525932
 20
4.8176927988
 10
-1.1
 20
4.7770328804
  0
LWPOLYLINE
  5
4D3
100
AcDbEntity
  8
RACCORDO
100
AcDbPolyline
 62
250
  6
CONTINUOUS
 90
19
 70
0
 10
1.3295185034
 20
2.590964853
 10
1.4850426447
 20
2.5050793073
 10
1.6347530361
 20
2.4100651464
 10
1.7781286624
 20
2.306328099
 10
1.9145823966
 20
2.194385367
 10
2.0437572237
 20
2.074626036
 10
2.1654756909
 20
1.9472531685
 10
2.2791741618
 20
1.812872648
 10
2.3845636608
 20
1.6718431978
 10
2.481739933
 20
1.5238860374
 10
2.5704784124
 20
1.3689256937
 10
2.6499501596
 20
1.2079457088
 10
2.7193858251
 20
1.0422837625
 10
2.778555133
 20
0.8724023752
 10
2.8271454163
 20
0.6990974992
 10
2.8647076158
 20
0.5243714374
 10
2.8912738778
 20
0.3493840466
 10
2.9070842489
 20
0.1743742013
 10
2.9123099353
 20
0.0
  0
LWPOLYLINE
  5
4D4
100
AcDbEntity
  8
RACCORDO
100
AcDbPolyline
 62
250
  6
CONTINUOUS
 90
19
 70
0
 10
1.4664594013
 20
2.8595509223
 10
1.6389060912
 20
2.7639639925
 10
1.8038445274
 20
2.6592488852
 10
1.9612747098
 20
2.5454055738
 10
2.1115977716
 20
2.4220192591
 10
2.2544125796
 20
2.2895046868
 10
2.3885157339
 20
2.1491061538
 10
2.5138139183
 20
2.0009908042
 10
2.630400449
 20
1.8449914599
 10
2.7373518749
 20
1.681850945
 10
2.8349202539
 20
1.5109206557
 10
2.922853528
 20
1.3328491839
 10
2.9994720724
 20
1.1503251635
 10
3.0644364017
 20
0.9630246629
 10
3.1180860012
 20
0.7712716411
 10
3.1597597021
 20
0.5787265888
 10
3.1892371147
 20
0.386609691
 10
3.2067386286
 20
0.1937008187
 10
3.2122642439
 20
0.0
  0
LWPOLYLINE
  5
4D5
100
AcDbEntity
  8
RACCORDO
100
AcDbPolyline
 62
7
  6
CONTINUOUS
 90
13
 70
0
 10
1.3181526154
 20
2.5831131765
 10
1.2860257618
 20
2.6014838445
 10
1.2561294505
 20
2.6223332751
 10
1.2284636814
 20
2.6456614682
 10
1.2028188111
 20
2.6717180045
 10
1.1794044831
 20
2.7002533033
 10
1.1588496278
 20
2.7305186229
 10
1.1412463808
 20
2.7625456088
 10
1.1265026064
 20
2.7963026155
 10
1.1149708288
 20
2.8309459642
 10
1.1067685558
 20
2.8661944288
 10
1.1017782796
 20
2.9023292355
 10
1.1
 20
2.9393503842
  0
LINE
  5
4D6
100
AcDbEntity
  8
RACCORDO
100
AcDbLine
 62
250
  6
CONTINUOUS
 10
1.1119127273
 20
4.7688424416
 11
1.1
 21
4.7770328804
  0
LWPOLYLINE
  5
4D7
100
AcDbEntity
  8
0
100
AcDbPolyline
 62
250
  6
CONTINUOUS
 90
3
 70
0
 10
-1.6009539202
 20
6.5569768664
 10
-1.7130005967
 20
6.6819346794
 10
-1.8183663118
 20
6.8132359045
  0
LINE
  5
4D8
100
AcDbEntity
  8
0
100
AcDbLine
 62
250
  6
CONTINUOUS
 10
-1.681689465
 20
7.1213519336
 11
-1.7249879812
 21
7.1737492374
  0
LWPOLYLINE
  5
4D9
100
AcDbEntity
  8
0
100
AcDbPolyline
 62
7
  6
CONTINUOUS
 90
5
 70
0
 10
1.9631717123
 20
1.6661679066
 10
1.8825687442
 20
1.7660254038
 10
1.7955109683
 20
1.8364670256
 10
1.6999148956
 20
1.8811252243
 10
1.595780526
 20
1.9
  0
LINE
  5
4DA
100
AcDbEntity
  8
0
100
AcDbLine
 62
250
  6
CONTINUOUS
 10
-1.8183663118
 20
6.8132359045
 11
-1.9170510656
 21
6.9508805415
  0
LINE
  5
4DB
100
AcDbEntity
  8
0
100
AcDbLine
 62
7
  6
CONTINUOUS
 10
2.0352363836
 20
1.5405269864
 11
1.9631717123
 21
1.6661679066
  0
LWPOLYLINE
  5
4DC
100
AcDbEntity
  8
0
100
AcDbPolyline
 62
7
  6
CONTINUOUS
 90
5
 70
0
 10
1.5864660206
 20
5.2478633934
 10
1.5662643373
 20
5.2830839533
 10
1.5259628533
 20
5.3330127019
 10
1.4824339653
 20
5.3682335128
 10
1.434635929
 20
5.3905626122
  0
LWPOLYLINE
  5
4DD
100
AcDbEntity
  8
RACCORDO
100
AcDbPolyline
 62
250
  6
CONTINUOUS
 90
3
 70
0
 10
1.3725521049
 20
5.1317692795
 10
1.3695352462
 20
5.1392453056
 10
1.3682782071
 20
5.1421391689
  0
LINE
  5
4DE
100
AcDbEntity
  8
RACCORDO
100
AcDbLine
 62
250
  6
CONTINUOUS
 10
1.3836374302
 20
5.1036390294
 11
1.3725521049
 21
5.1317692795
  0
LINE
  5
4DF
100
AcDbEntity
  8
RACCORDO
100
AcDbLine
 62
250
  6
CONTINUOUS
 10
1.4485305696
 20
4.9362664224
 11
1.3836374302
 21
5.1036390294
  0
LINE
  5
4E0
100
AcDbEntity
  8
RACCORDO
100
AcDbLine
 62
250
  6
CONTINUOUS
 10
1.4759466307
 20
4.8650937671
 11
1.4485305696
 21
4.9362664224
  0
LINE
  5
4E1
100
AcDbEntity
  8
0
100
AcDbLine
 62
250
  6
CONTINUOUS
 10
1.6009666067
 20
6.5569868033
 11
1.5839520152
 21
6.6353099011
  0
LINE
  5
4E2
100
AcDbEntity
  8
ASSI
100
AcDbLine
 62
7
  6
CONTINUOUS
 10
7.8866556363
 20
-22.5
 11
7.8651277229
 21
-22.4
  0
LWPOLYLINE
  5
4E3
100
AcDbEntity
  8
0
100
AcDbPolyline
 62
250
  6
CONTINUOUS
 90
5
 70
0
 10
1.5797133265
 20
10.6372993185
 10
1.5939492873
 20
10.5664898958
 10
1.6158414229
 20
10.499346036
 10
1.6451766071
 20
10.4365214039
 10
1.6816692534
 20
10.3786276153
  0
LINE
  5
4E4
100
AcDbEntity
  8
RACCORDO
100
AcDbLine
 62
250
  6
CONTINUOUS
 10
4.9419952791
 20
-15.6241732063
 11
4.9417173595
 21
-15.1059840283
  0
LINE
  5
4E5
100
AcDbEntity
  8
RACCORDO
100
AcDbLine
 62
250
  6
CONTINUOUS
 10
5.241789258
 20
-15.3151462283
 11
5.241671668
 21
-15.0969204379
  0
LINE
  5
4E6
100
AcDbEntity
  8
RACCORDO
100
AcDbLine
 62
250
  6
CONTINUOUS
 10
4.9401928563
 20
-11.8672593654
 11
4.9386875467
 21
-7.3863253524
  0
LINE
  5
4E7
100
AcDbEntity
  8
RACCORDO
100
AcDbLine
 62
250
  6
CONTINUOUS
 10
5.2401471648
 20
-11.8601390098
 11
5.2387190975
 21
-7.6819251035
  0
LINE
  5
4E8
100
AcDbEntity
  8
RACCORDO
100
AcDbLine
 62
7
  6
CONTINUOUS
 10
5.25
 20
-7.693206006
 11
5.25
 21
-11.862779069
  0
LINE
  5
4E9
100
AcDbEntity
  8
RACCORDO
100
AcDbLine
 62
7
  6
CONTINUOUS
 10
5.25
 20
-15.0921120732
 11
5.25
 21
-15.306793994
  0
LINE
  5
4EA
100
AcDbEntity
  8
0
100
AcDbLine
 62
7
  6
CONTINUOUS
 10
-7.95
 20
-22.4
 11
-8.0166327976
 21
-22.5
  0
LINE
  5
4EB
100
AcDbEntity
  8
RACCORDO
100
AcDbLine
 62
7
  6
CONTINUOUS
 10
-7.5088418642
 20
-15.3707738
 11
-7.5588988545
 21
-15.4226897733
  0
LWPOLYLINE
  5
4EC
100
AcDbEntity
  8
RACCORDO
100
AcDbPolyline
 62
7
  6
CONTINUOUS
 90
3
 70
0
 10
-7.5588988545
 20
-15.4226897733
 10
-7.623165932
 20
-15.4883084025
 10
-7.7003381326
 20
-15.5665653111
  0
LWPOLYLINE
  5
4ED
100
AcDbEntity
  8
RACCORDO
100
AcDbPolyline
 62
7
  6
CONTINUOUS
 90
3
 70
0
 10
-7.7003381326
 20
-15.5665653111
 10
-7.7285384667
 20
-15.5949821068
 10
-7.7580047209
 20
-15.6241732189
  0
LINE
  5
4EE
100
AcDbEntity
  8
RACCORDO
100
AcDbLine
 62
250
  6
CONTINUOUS
 10
-7.7499543085
 20
-14.4
 11
-7.7584849375
 21
-14.4085306289
  0
LINE
  5
4EF
100
AcDbEntity
  8
RACCORDO
100
AcDbLine
 62
250
  6
CONTINUOUS
 10
-7.45
 20
-14.6999543085
 11
-7.4585306289
 21
-14.7084849375
  0
LINE
  5
4F0
100
AcDbEntity
  8
RACCORDO
100
AcDbLine
 62
7
  6
CONTINUOUS
 10
-7.45
 20
-15.306793994
 11
-7.4580504124
 21
-15.3148444064
  0
LWPOLYLINE
  5
4F1
100
AcDbEntity
  8
RACCORDO
100
AcDbPolyline
 62
250
  6
CONTINUOUS
 90
12
 70
0
 10
1.9455568827
 20
-4.5586824718
 10
1.9403516785
 20
-4.5636404471
 10
1.9355333965
 20
-4.5689461833
 10
1.9310909161
 20
-4.5745805238
 10
1.927035358
 20
-4.5805626251
 10
1.9234000832
 20
-4.5869499563
 10
1.920144042
 20
-4.5937751271
 10
1.9173082843
 20
-4.6010055275
 10
1.9150493208
 20
-4.6086007969
 10
1.9134193218
 20
-4.6165474817
 10
1.9123661171
 20
-4.6248590352
 10
1.9118897065
 20
-4.6335354572
  0
LINE
  5
4F2
100
AcDbEntity
  8
RACCORDO
100
AcDbLine
 62
250
  6
CONTINUOUS
 10
1.9348140994
 20
-4.9011102426
 11
1.8208415587
 21
-4.995051166
  0
LINE
  5
4F3
100
AcDbEntity
  8
RACCORDO
100
AcDbLine
 62
250
  6
CONTINUOUS
 10
1.8208415587
 20
-4.995051166
 11
1.7534221426
 21
-5.0501113042
  0
LWPOLYLINE
  5
4F4
100
AcDbEntity
  8
RACCORDO
100
AcDbPolyline
 62
250
  6
CONTINUOUS
 90
5
 70
0
 10
1.7534221426
 20
-5.0501113042
 10
1.7228995373
 20
-5.0747229395
 10
1.7128013696
 20
-5.0827237487
 10
1.7063882127
 20
-5.0876612917
 10
1.7037664917
 20
-5.0894536322
  0
LINE
  5
4F5
100
AcDbEntity
  8
RACCORDO
100
AcDbLine
 62
250
  6
CONTINUOUS
 10
1.7037664915
 20
-5.089453632
 11
1.692295796
 21
-5.0942493327
  0
LINE
  5
4F6
100
AcDbEntity
  8
RACCORDO
100
AcDbLine
 62
250
  6
CONTINUOUS
 10
1.6119017304
 20
-4.8344043197
 11
1.6
 21
-4.83869723
  0
LWPOLYLINE
  5
4F7
100
AcDbEntity
  8
0
100
AcDbPolyline
 62
7
  6
CONTINUOUS
 90
6
 70
0
 10
2.1113248654
 20
6.4
 10
2.2021012319
 20
6.4188747757
 10
2.2854345652
 20
6.4635329744
 10
2.3613248654
 20
6.5339745962
 10
2.4315883586
 20
6.6338320934
 10
2.4944088187
 20
6.7594730136
  0
LWPOLYLINE
  5
4F8
100
AcDbEntity
  8
0
100
AcDbPolyline
 62
7
  6
CONTINUOUS
 90
5
 70
0
 10
-1.3825687442
 20
5.4
 10
-1.434635929
 20
5.3905626122
 10
-1.4824339653
 20
5.3682335128
 10
-1.5259628533
 20
5.3330127019
 10
-1.5662643373
 20
5.2830839533
  0
LWPOLYLINE
  5
4F9
100
AcDbEntity
  8
RACCORDO
100
AcDbPolyline
 62
250
  6
CONTINUOUS
 90
5
 70
0
 10
1.153822214
 20
4.7702597207
 10
1.1362296061
 20
4.769926687
 10
1.1232491583
 20
4.769575511
 10
1.1150980688
 20
4.7692120687
 10
1.1119127273
 20
4.7688424416
  0
LINE
  5
4FA
100
AcDbEntity
  8
RACCORDO
100
AcDbLine
 62
250
  6
CONTINUOUS
 10
1.2015941745
 20
4.7708494676
 11
1.153822214
 21
4.7702597207
  0
LINE
  5
4FB
100
AcDbEntity
  8
RACCORDO
100
AcDbLine
 62
250
  6
CONTINUOUS
 10
1.2982723971
 20
4.7714733635
 11
1.2015941745
 21
4.7708494676
  0
LINE
  5
4FC
100
AcDbEntity
  8
RACCORDO
100
AcDbLine
 62
250
  6
CONTINUOUS
 10
1.4118670359
 20
4.7717054649
 11
1.2982723971
 21
4.7714733635
  0
LINE
  5
4FD
100
AcDbEntity
  8
0
100
AcDbLine
 62
7
  6
CONTINUOUS
 10
-1.8812895842
 20
5.4
 11
-1.3825687442
 21
5.4
  0
LINE
  5
4FE
100
AcDbEntity
  8
0
100
AcDbLine
 62
7
  6
CONTINUOUS
 10
1.8812895842
 20
5.4
 11
1.3825687442
 21
5.4
  0
LINE
  5
4FF
100
AcDbEntity
  8
0
100
AcDbLine
 62
7
  6
CONTINUOUS
 10
0.2507721208
 20
5.4
 11
1.3825687442
 21
5.4
  0
LINE
  5
500
100
AcDbEntity
  8
0
100
AcDbLine
 62
7
  6
CONTINUOUS
 10
-0.2507721208
 20
5.4
 11
-1.3825687442
 21
5.4
  0
LINE
  5
501
100
AcDbEntity
  8
0
100
AcDbLine
 62
7
  6
CONTINUOUS
 10
-2.1113248654
 20
6.4
 11
-1.4000315272
 21
6.4
  0
LINE
  5
502
100
AcDbEntity
  8
0
100
AcDbLine
 62
7
  6
CONTINUOUS
 10
2.1113248654
 20
6.4
 11
1.4000315272
 21
6.4
  0
LINE
  5
503
100
AcDbEntity
  8
0
100
AcDbLine
 62
7
  6
CONTINUOUS
 10
2.1113248654
 20
6.4
 11
3.0229823811
 21
6.4
  0
LINE
  5
504
100
AcDbEntity
  8
0
100
AcDbLine
 62
7
  6
CONTINUOUS
 10
-2.1113248654
 20
6.4
 11
-3.0229823811
 21
6.4
  0
LINE
  5
505
100
AcDbEntity
  8
RACCORDO
100
AcDbLine
 62
250
  6
CONTINUOUS
 10
-1.4118670359
 20
4.7717054649
 11
-1.263382551
 21
4.7713054128
  0
LINE
  5
506
100
AcDbEntity
  8
RACCORDO
100
AcDbLine
 62
250
  6
CONTINUOUS
 10
-1.263382551
 20
4.7713054128
 11
-1.201595587
 21
4.7708494375
  0
LWPOLYLINE
  5
507
100
AcDbEntity
  8
RACCORDO
100
AcDbPolyline
 62
250
  6
CONTINUOUS
 90
6
 70
0
 10
-1.201595587
 20
4.7708494375
 10
-1.1538230838
 20
4.7702596969
 10
-1.136230165
 20
4.7699266683
 10
-1.1232494417
 20
4.7695754984
 10
-1.1150981518
 20
4.7692120632
 10
-1.1119127273
 20
4.7688424438
  0
LINE
  5
508
100
AcDbEntity
  8
0
100
AcDbLine
 62
7
  6
CONTINUOUS
 10
1.434635929
 20
5.3905626122
 11
1.3825687442
 21
5.4
  0
LWPOLYLINE
  5
509
100
AcDbEntity
  8
0
100
AcDbPolyline
 62
7
  6
CONTINUOUS
 90
10
 70
0
 10
-2.7175426481
 20
6.4
 10
-2.8083190145
 20
6.4188747757
 10
-2.8916523478
 20
6.4635329744
 10
-2.9675426481
 20
6.5339745962
 10
-3.0378061413
 20
6.6338320934
 10
-3.1006266014
 20
6.7594730136
 10
-3.1505553499
 20
6.9
 10
-3.1857761608
 20
7.0517806004
 10
-3.2081052602
 20
7.2184472671
 10
-3.2175426481
 20
7.4
  0
LWPOLYLINE
  5
50A
100
AcDbEntity
  8
0
100
AcDbPolyline
 62
250
  6
CONTINUOUS
 90
4
 70
0
 10
-1.4
 20
6.4745831174
 10
-1.4010667835
 20
6.4749594984
 10
-1.4050691569
 20
6.4765720256
 10
-1.4345061934
 20
6.488305457
  0
LINE
  5
50B
100
AcDbEntity
  8
0
100
AcDbLine
 62
250
  6
CONTINUOUS
 10
-1.4345061934
 20
6.488305457
 11
-1.4894798754
 21
6.5105283338
  0
LINE
  5
50C
100
AcDbEntity
  8
0
100
AcDbLine
 62
250
  6
CONTINUOUS
 10
-1.4894798754
 20
6.5105283338
 11
-1.5399137676
 21
6.5313310872
  0
LINE
  5
50D
100
AcDbEntity
  8
0
100
AcDbLine
 62
250
  6
CONTINUOUS
 10
-1.5399137676
 20
6.5313310872
 11
-1.6009539199
 21
6.5569838578
  0
LINE
  5
50E
100
AcDbEntity
  8
RACCORDO
100
AcDbLine
 62
250
  6
CONTINUOUS
 10
1.3682782071
 20
5.142139169
 11
1.3571074224
 21
5.1505973117
  0
LINE
  5
50F
100
AcDbEntity
  8
RACCORDO
100
AcDbLine
 62
250
  6
CONTINUOUS
 10
-2.6454390705
 20
11.8523010048
 11
-2.5715208183
 21
11.763878929
  0
LINE
  5
510
100
AcDbEntity
  8
RACCORDO
100
AcDbLine
 62
250
  6
CONTINUOUS
 10
-2.5715208183
 20
11.763878929
 11
-2.5278570446
 21
11.7110387349
  0
LWPOLYLINE
  5
511
100
AcDbEntity
  8
RACCORDO
100
AcDbPolyline
 62
250
  6
CONTINUOUS
 90
7
 70
0
 10
-2.5278570446
 20
11.7110387349
 10
-2.4922133141
 20
11.6673487146
 10
-2.4781849192
 20
11.6498965623
 10
-2.4670207877
 20
11.6357888443
 10
-2.4589121166
 20
11.6252671684
 10
-2.4539977866
 20
11.6185117422
 10
-2.452361969
 20
11.6156382687
  0
LINE
  5
512
100
AcDbEntity
  8
0
100
AcDbLine
 62
7
  6
CONTINUOUS
 10
-8.0166327976
 20
22.5
 11
-7.95
 21
22.4
  0
LWPOLYLINE
  5
513
100
AcDbEntity
  8
RACCORDO
100
AcDbPolyline
 62
7
  6
CONTINUOUS
 90
8
 70
0
 10
14.7589787749
 20
-13.8090958101
 10
14.7602912774
 20
-13.8111137511
 10
14.763577134
 20
-13.8150517591
 10
14.7688363447
 20
-13.8209448951
 10
14.7760847406
 20
-13.8288199145
 10
14.7853064907
 20
-13.8386801928
 10
14.7964541013
 20
-13.8504932473
 10
14.8096122603
 20
-13.8642384251
  0
LWPOLYLINE
  5
514
100
AcDbEntity
  8
RACCORDO
100
AcDbPolyline
 62
7
  6
CONTINUOUS
 90
8
 70
0
 10
-2.3083748385
 20
15.008512849
 10
-2.3096874976
 20
15.0105877198
 10
-2.3129732805
 20
15.0145827273
 10
-2.3182321874
 20
15.0205324435
 10
-2.3254799687
 20
15.0284630632
 10
-2.3347008739
 20
15.0383774602
 10
-2.3458476511
 20
15.0502429122
 10
-2.3590051543
 20
15.0640387139
  0
LINE
  5
515
100
AcDbEntity
  8
RACCORDO
100
AcDbLine
 62
7
  6
CONTINUOUS
 10
14.7588325882
 20
-13.8088325882
 11
14.7589787783
 21
-13.8090958175
  0
LINE
  5
516
100
AcDbEntity
  8
RACCORDO
100
AcDbLine
 62
7
  6
CONTINUOUS
 10
-2.3082160975
 20
15.0082160975
 11
-2.3083749491
 21
15.008513104
  0
LWPOLYLINE
  5
517
100
AcDbEntity
  8
0
100
AcDbPolyline
 62
250
  6
CONTINUOUS
 90
42
 70
0
 10
2.0979298202
 20
10.2487165359
 10
2.1356873312
 20
10.1751594371
 10
2.1713596338
 20
10.1011047008
 10
2.2049787119
 20
10.0264252696
 10
2.2365125816
 20
9.9512482008
 10
2.2658743912
 20
9.8761534525
 10
2.2930271047
 20
9.8011053576
 10
2.318007758
 20
9.7261395831
 10
2.3408406075
 20
9.6519430886
 10
2.3614555732
 20
9.5786615969
 10
2.3799227351
 20
9.506149385
 10
2.3964765882
 20
9.4346562434
 10
2.4110997944
 20
9.3643330139
 10
2.4238096918
 20
9.2950288546
 10
2.4348927906
 20
9.2265410306
 10
2.4443769867
 20
9.1589724746
 10
2.4522343842
 20
9.0922202538
 10
2.4586678052
 20
9.0257728358
 10
2.4637321939
 20
8.9597510403
 10
2.4673726061
 20
8.8940340474
 10
2.4696270313
 20
8.8277478645
 10
2.4705797568
 20
8.7609275498
 10
2.4701464953
 20
8.693538045
 10
2.4681123741
 20
8.6246001827
 10
2.4645311434
 20
8.5538463981
 10
2.459349053
 20
8.481544256
 10
2.4521899802
 20
8.4075172827
 10
2.4430103647
 20
8.3314441379
 10
2.4318537668
 20
8.2536461619
 10
2.418474745
 20
8.1749109021
 10
2.4028157726
 20
8.0952443831
 10
2.3849343762
 20
8.0146405803
 10
2.3647576943
 20
7.9338689678
 10
2.3422750525
 20
7.8530542092
 10
2.3174971251
 20
7.7720716409
 10
2.2903830737
 20
7.6913167459
 10
2.2609213249
 20
7.610815749
 10
2.2291234519
 20
7.5305424255
 10
2.1949833362
 20
7.4508135835
 10
2.1584946175
 20
7.3716464274
 10
2.119663656
 20
7.2930237529
 10
2.0785034131
 20
7.2152107561
  0
LINE
  5
518
100
AcDbEntity
  8
RACCORDO
100
AcDbLine
 62
250
  6
CONTINUOUS
 10
11.1451100057
 20
-13.8882238315
 11
11.1481818772
 21
-13.8968109001
  0
LWPOLYLINE
  5
519
100
AcDbEntity
  8
0
100
AcDbPolyline
 62
7
  6
CONTINUOUS
 90
3
 70
0
 10
2.5795583782
 20
10.4482193996
 10
2.5443375673
 20
10.6
 10
2.4944088187
 20
10.7405269864
  0
LINE
  5
51A
100
AcDbEntity
  8
RACCORDO
100
AcDbLine
 62
7
  6
CONTINUOUS
 10
7.45
 20
-15.306793994
 11
7.45
 21
-14.6999543085
  0
LINE
  5
51B
100
AcDbEntity
  8
0
100
AcDbLine
 62
7
  6
CONTINUOUS
 10
7.7801797403
 20
-22.5
 11
7.7801797403
 21
-22.4
  0
LINE
  5
51C
100
AcDbEntity
  8
ASSI
100
AcDbLine
 62
7
  6
CONTINUOUS
 10
7.7801797403
 20
-22.5
 11
7.7801797403
 21
-22.4
  0
LINE
  5
51D
100
AcDbEntity
  8
0
100
AcDbLine
 62
7
  6
CONTINUOUS
 10
7.7801797403
 20
22.4
 11
7.7801797403
 21
22.5
  0
LINE
  5
51E
100
AcDbEntity
  8
ASSI
100
AcDbLine
 62
7
  6
CONTINUOUS
 10
7.7801797403
 20
22.4
 11
7.7801797403
 21
22.5
  0
LINE
  5
51F
100
AcDbEntity
  8
ASSI
100
AcDbLine
 62
7
  6
CONTINUOUS
 10
7.85
 20
22.5
 11
7.85
 21
22.4
  0
LINE
  5
520
100
AcDbEntity
  8
ASSI
100
AcDbLine
 62
7
  6
CONTINUOUS
 10
7.85
 20
-22.5
 11
7.85
 21
-22.4
  0
LINE
  5
521
100
AcDbEntity
  8
RACCORDO
100
AcDbLine
 62
250
  6
CONTINUOUS
 10
7.4585306289
 20
-14.7084849375
 11
7.4582123606
 21
-15.315150002
  0
LINE
  5
522
100
AcDbEntity
  8
RACCORDO
100
AcDbLine
 62
250
  6
CONTINUOUS
 10
7.7584849375
 20
-14.4085306289
 11
7.7580047209
 21
-15.6241732062
  0
LWPOLYLINE
  5
523
100
AcDbEntity
  8
0
100
AcDbPolyline
 62
7
  6
CONTINUOUS
 90
9
 70
0
 10
1.337346257
 20
-13.0320553912
 10
1.430297251
 20
-12.8850956543
 10
1.5131382209
 20
-12.7142135624
 10
1.5853561136
 20
-12.5181951282
 10
1.6474639821
 20
-12.2982543391
 10
1.6963624676
 20
-12.0653668647
 10
1.7310184505
 20
-11.8231912617
 10
1.7524650502
 20
-11.5680689735
 10
1.7607022669
 20
-11.3
  0
LINE
  5
524
100
AcDbEntity
  8
RACCORDO
100
AcDbLine
 62
250
  6
CONTINUOUS
 10
-4.9134436316
 20
-11.9673153188
 11
-4.9794741069
 21
-12.00514871
  0
LINE
  5
525
100
AcDbEntity
  8
RACCORDO
100
AcDbLine
 62
250
  6
CONTINUOUS
 10
-4.9794741069
 20
-12.00514871
 11
-5.0411707597
 21
-12.0400276816
  0
LWPOLYLINE
  5
526
100
AcDbEntity
  8
RACCORDO
100
AcDbPolyline
 62
250
  6
CONTINUOUS
 90
8
 70
0
 10
-5.0411707597
 20
-12.0400276816
 10
-5.0944842121
 20
-12.0696629987
 10
-5.1168756615
 20
-12.0818893227
 10
-5.1359153068
 20
-12.0921095868
 10
-5.1512894455
 20
-12.1001553988
 10
-5.1627447689
 20
-12.1058941937
 10
-5.1700925358
 20
-12.1092314174
 10
-5.1732116822
 20
-12.1101120849
  0
LINE
  5
527
100
AcDbEntity
  8
0
100
AcDbLine
 62
250
  6
CONTINUOUS
 10
-3.2175426481
 20
7.4
 11
-2.6113248654
 21
7.4
  0
LINE
  5
528
100
AcDbEntity
  8
0
100
AcDbLine
 62
250
  6
CONTINUOUS
 10
3.2175426481
 20
7.4
 11
2.6113248654
 21
7.4
  0
LWPOLYLINE
  5
529
100
AcDbEntity
  8
RACCORDO
100
AcDbPolyline
 62
7
  6
CONTINUOUS
 90
3
 70
0
 10
-2.5505034478
 20
15.2597554726
 10
-2.5787039575
 20
15.2881701373
 10
-2.6081704061
 20
15.317360813
  0
LWPOLYLINE
  5
52A
100
AcDbEntity
  8
RACCORDO
100
AcDbPolyline
 62
7
  6
CONTINUOUS
 90
3
 70
0
 10
-2.4090628965
 20
15.115920525
 10
-2.4503607965
 20
15.1581244474
 10
-2.5505034478
 20
15.2597554726
  0
LINE
  5
52B
100
AcDbEntity
  8
RACCORDO
100
AcDbLine
 62
7
  6
CONTINUOUS
 10
-2.3590051543
 20
15.0640387139
 11
-2.4090628965
 21
15.115920525
  0
LINE
  5
52C
100
AcDbEntity
  8
0
100
AcDbLine
 62
250
  6
CONTINUOUS
 10
1.6009584053
 20
10.9430172256
 11
1.6610377257
 21
10.8771915044
  0
LWPOLYLINE
  5
52D
100
AcDbEntity
  8
0
100
AcDbPolyline
 62
250
  6
CONTINUOUS
 90
5
 70
0
 10
1.6610377257
 20
10.8771915044
 10
1.7187512632
 20
10.8105470503
 10
1.7740990178
 20
10.7430838634
 10
1.8270226971
 20
10.6747846898
 10
1.8775805935
 20
10.6056667833
  0
LINE
  5
52E
100
AcDbEntity
  8
0
100
AcDbLine
 62
250
  6
CONTINUOUS
 10
1.6816692534
 20
10.3786276153
 11
1.7249640954
 21
10.3262282829
  0
LWPOLYLINE
  5
52F
100
AcDbEntity
  8
0
100
AcDbPolyline
 62
250
  6
CONTINUOUS
 90
3
 70
0
 10
1.8775805935
 20
10.6056667833
 10
1.9259475843
 20
10.535781906
 10
1.972149763
 20
10.4651237961
  0
LWPOLYLINE
  5
530
100
AcDbEntity
  8
0
100
AcDbPolyline
 62
250
  6
CONTINUOUS
 90
4
 70
0
 10
1.972149763
 20
10.4651237961
 10
2.0161610361
 20
10.3936987153
 10
2.0580780001
 20
10.3215772107
 10
2.0979298202
 20
10.2487165359
  0
LWPOLYLINE
  5
531
100
AcDbEntity
  8
0
100
AcDbPolyline
 62
7
  6
CONTINUOUS
 90
6
 70
0
 10
2.4944088187
 20
10.7405269864
 10
2.4315883586
 20
10.8661679066
 10
2.3613248654
 20
10.9660254038
 10
2.2854345652
 20
11.0364670256
 10
2.2021012319
 20
11.0811252243
 10
2.1113248654
 20
11.1
  0
LINE
  5
532
100
AcDbEntity
  8
RACCORDO
100
AcDbLine
 62
250
  6
CONTINUOUS
 10
11.4287064621
 20
-13.8
 11
11.4314522316
 21
-13.8088325882
  0
LINE
  5
533
100
AcDbEntity
  8
RACCORDO
100
AcDbLine
 62
250
  6
CONTINUOUS
 10
9.4463524429
 20
-8.2943607594
 11
9.4513638081
 21
-8.5892965859
  0
LINE
  5
534
100
AcDbEntity
  8
RACCORDO
100
AcDbLine
 62
250
  6
CONTINUOUS
 10
9.5
 20
-14.7173153267
 11
9.5
 21
-14.4
  0
LINE
  5
535
100
AcDbEntity
  8
ASSI
100
AcDbLine
 62
7
  6
CONTINUOUS
 10
14.6866556363
 20
22.5
 11
14.6651277229
 21
22.4
  0
LINE
  5
536
100
AcDbEntity
  8
RACCORDO
100
AcDbLine
 62
250
  6
CONTINUOUS
 10
9.4513638085
 20
-8.5892965859
 11
9.4489276144
 21
-8.600449757
  0
LINE
  5
537
100
AcDbEntity
  8
RACCORDO
100
AcDbLine
 62
250
  6
CONTINUOUS
 10
9.1930516225
 20
-8.5223814913
 11
9.1901614481
 21
-8.5335501939
  0
LINE
  5
538
100
AcDbEntity
  8
RACCORDO
100
AcDbLine
 62
7
  6
CONTINUOUS
 10
7.7346426187
 20
-7.693206006
 11
7.7376832449
 21
-7.6818582345
  0
LINE
  5
539
100
AcDbEntity
  8
RACCORDO
100
AcDbLine
 62
7
  6
CONTINUOUS
 10
7.7855105491
 20
-7.5074977704
 11
7.8094844111
 21
-7.417766992
  0
LINE
  5
53A
100
AcDbEntity
  8
RACCORDO
100
AcDbLine
 62
7
  6
CONTINUOUS
 10
7.8094844111
 20
-7.417766992
 11
7.8180585392
 21
-7.3863253479
  0
LINE
  5
53B
100
AcDbEntity
  8
RACCORDO
100
AcDbLine
 62
7
  6
CONTINUOUS
 10
7.7492693436
 20
-7.6409304164
 11
7.7855105491
 21
-7.5074977704
  0
LINE
  5
53C
100
AcDbEntity
  8
RACCORDO
100
AcDbLine
 62
7
  6
CONTINUOUS
 10
7.7399103832
 20
-7.6745679227
 11
7.7492693436
 21
-7.6409304164
  0
LWPOLYLINE
  5
53D
100
AcDbEntity
  8
RACCORDO
100
AcDbPolyline
 62
7
  6
CONTINUOUS
 90
3
 70
0
 10
7.7376860244
 20
-7.6818478612
 10
7.7384035613
 20
-7.6797579649
 10
7.7399103832
 20
-7.6745679227
  0
LWPOLYLINE
  5
53E
100
AcDbEntity
  8
RACCORDO
100
AcDbPolyline
 62
250
  6
CONTINUOUS
 90
13
 70
0
 10
4.9134436316
 20
-11.9673153188
 10
4.9182885368
 20
-11.9582398327
 10
4.9226067673
 20
-11.9492590622
 10
4.926398323
 20
-11.9403730077
 10
4.9296317857
 20
-11.9315557719
 10
4.9323385737
 20
-11.9228332522
 10
4.9346129422
 20
-11.9142831406
 10
4.9364557169
 20
-11.9059127817
 10
4.9378660722
 20
-11.8977148314
 10
4.938935786
 20
-11.8897449485
 10
4.9396954509
 20
-11.8820216862
 10
4.9401144743
 20
-11.8745264917
 10
4.9401928563
 20
-11.8672593654
  0
LWPOLYLINE
  5
53F
100
AcDbEntity
  8
RACCORDO
100
AcDbPolyline
 62
250
  6
CONTINUOUS
 90
13
 70
0
 10
5.1732116827
 20
-12.1101120839
 10
5.1854491357
 20
-12.0875922051
 10
5.1962265824
 20
-12.0651211247
 10
5.2056126408
 20
-12.0428005333
 10
5.2136768229
 20
-12.0207322125
 10
5.2204991528
 20
-11.9989900977
 10
5.2261649152
 20
-11.9776192129
 10
5.2307511089
 20
-11.9566785373
 10
5.2343327864
 20
-11.9362310905
 10
5.2369883352
 20
-11.9163149106
 10
5.2387933628
 20
-11.896968871
 10
5.2398218302
 20
-11.8782333866
 10
5.2401471648
 20
-11.8601390098
  0
LINE
  5
540
100
AcDbEntity
  8
RACCORDO
100
AcDbLine
 62
250
  6
CONTINUOUS
 10
3.6129035402
 20
-14.2233326391
 11
4.9134436316
 21
-11.9673153188
  0
LINE
  5
541
100
AcDbEntity
  8
RACCORDO
100
AcDbLine
 62
250
  6
CONTINUOUS
 10
4.0223616551
 20
-14.1052493216
 11
5.1732116827
 21
-12.1101120839
  0
LINE
  5
542
100
AcDbEntity
  8
RACCORDO
100
AcDbLine
 62
7
  6
CONTINUOUS
 10
5.1830229044
 20
-12.1127409928
 11
4.0346426187
 21
-14.101793994
  0
LINE
  5
543
100
AcDbEntity
  8
0
100
AcDbLine
 62
7
  6
CONTINUOUS
 10
1.2389237574
 20
-13.147759065
 11
1.337346257
 21
-13.0320553912
  0
LINE
  5
544
100
AcDbEntity
  8
0
100
AcDbLine
 62
7
  6
CONTINUOUS
 10
1.136575925
 20
-13.2297621064
 11
1.2389237574
 21
-13.147759065
  0
LWPOLYLINE
  5
545
100
AcDbEntity
  8
RACCORDO
100
AcDbPolyline
 62
250
  6
CONTINUOUS
 90
13
 70
0
 10
-4.841641774
 20
-14.9327538221
 10
-4.8560276577
 20
-14.9419394513
 10
-4.8694125137
 20
-14.9521136104
 10
-4.8817963418
 20
-14.9632762977
 10
-4.8932157375
 20
-14.975414441
 10
-4.9036341054
 20
-14.9885411082
 10
-4.9129416596
 20
-15.0026955075
 10
-4.921232285
 20
-15.0180128736
 10
-4.9284120967
 20
-15.0343579659
 10
-4.9340896541
 20
-15.0513642797
 10
-4.9381344769
 20
-15.0689096458
 10
-4.9406770454
 20
-15.0871162294
 10
-4.9417173595
 20
-15.1059840283
  0
LWPOLYLINE
  5
546
100
AcDbEntity
  8
RACCORDO
100
AcDbPolyline
 62
250
  6
CONTINUOUS
 90
13
 70
0
 10
-4.9916189283
 20
-14.6640261186
 10
-5.0272209812
 20
-14.6866340523
 10
-5.0607481223
 20
-14.712124841
 10
-5.0919711772
 20
-14.7403062454
 10
-5.1204944623
 20
-14.7707539987
 10
-5.1463472791
 20
-14.8034269288
 10
-5.1697997168
 20
-14.8388152146
 10
-5.1906698098
 20
-14.8770901215
 10
-5.2084111073
 20
-14.9177749199
 10
-5.2226345852
 20
-14.9604344242
 10
-5.2330631109
 20
-15.0047056285
 10
-5.2394801745
 20
-15.0503226341
 10
-5.241671671
 20
-15.0969204362
  0
LINE
  5
547
100
AcDbEntity
  8
RACCORDO
100
AcDbLine
 62
7
  6
CONTINUOUS
 10
-5.0000380762
 20
-14.6591653213
 11
-4.0346426187
 21
-14.101793994
  0
LINE
  5
548
100
AcDbEntity
  8
RACCORDO
100
AcDbLine
 62
250
  6
CONTINUOUS
 10
-3.6129035402
 20
-14.2233326391
 11
-4.841641774
 21
-14.9327538221
  0
LINE
  5
549
100
AcDbEntity
  8
RACCORDO
100
AcDbLine
 62
250
  6
CONTINUOUS
 10
-4.0227510189
 20
-14.1049803386
 11
-4.9916189283
 21
-14.6640261186
  0
LINE
  5
54A
100
AcDbEntity
  8
0
100
AcDbLine
 62
250
  6
CONTINUOUS
 10
-3.2175426481
 20
10.1
 11
-2.6113248654
 21
10.1
  0
LINE
  5
54B
100
AcDbEntity
  8
0
100
AcDbLine
 62
250
  6
CONTINUOUS
 10
3.2175426481
 20
10.1
 11
2.6113248654
 21
10.1
  0
LINE
  5
54C
100
AcDbEntity
  8
0
100
AcDbLine
 62
7
  6
CONTINUOUS
 10
2.1113248654
 20
11.1
 11
1.4000315272
 21
11.1
  0
LINE
  5
54D
100
AcDbEntity
  8
0
100
AcDbLine
 62
7
  6
CONTINUOUS
 10
-2.1113248654
 20
11.1
 11
-1.4000315272
 21
11.1
  0
LINE
  5
54E
100
AcDbEntity
  8
0
100
AcDbLine
 62
7
  6
CONTINUOUS
 10
2.1113248654
 20
11.1
 11
2.9445234876
 21
11.1
  0
LINE
  5
54F
100
AcDbEntity
  8
0
100
AcDbLine
 62
7
  6
CONTINUOUS
 10
-2.1113248654
 20
11.1
 11
-2.9445234876
 21
11.1
  0
LWPOLYLINE
  5
550
100
AcDbEntity
  8
0
100
AcDbPolyline
 62
250
  6
CONTINUOUS
 90
4
 70
0
 10
1.4
 20
11.0254168826
 10
1.4010667835
 20
11.0250405016
 10
1.4050691569
 20
11.0234279744
 10
1.4345061934
 20
11.011694543
  0
LINE
  5
551
100
AcDbEntity
  8
0
100
AcDbLine
 62
250
  6
CONTINUOUS
 10
1.4345061934
 20
11.011694543
 11
1.4894796493
 21
10.9894717889
  0
LINE
  5
552
100
AcDbEntity
  8
0
100
AcDbLine
 62
250
  6
CONTINUOUS
 10
1.4894796493
 20
10.9894717889
 11
1.5399146083
 21
10.9686685447
  0
LINE
  5
553
100
AcDbEntity
  8
0
100
AcDbLine
 62
250
  6
CONTINUOUS
 10
1.5399146083
 20
10.9686685447
 11
1.6009584053
 21
10.9430144855
  0
LINE
  5
554
100
AcDbEntity
  8
RACCORDO
100
AcDbLine
 62
250
  6
CONTINUOUS
 10
-2.3098272611
 20
11.9216919495
 11
-2.3
 21
11.9171131833
  0
LINE
  5
555
100
AcDbEntity
  8
RACCORDO
100
AcDbLine
 62
250
  6
CONTINUOUS
 10
-2.4523619688
 20
11.6156382791
 11
-2.4428374569
 21
11.6107636728
  0
LWPOLYLINE
  5
556
100
AcDbEntity
  8
RACCORDO
100
AcDbPolyline
 62
250
  6
CONTINUOUS
 90
55
 70
0
 10
2.4523619688
 20
11.6156382791
 10
2.6193861922
 20
11.4666497109
 10
2.7773380713
 20
11.3081516121
 10
2.9256799803
 20
11.1406972973
 10
3.0643496321
 20
10.9642739266
 10
3.1923654772
 20
10.7800394913
 10
3.3081861713
 20
10.590569934
 10
3.4117973548
 20
10.3966378991
 10
3.503153918
 20
10.1991488115
 10
3.5814607529
 20
10.0012506762
 10
3.6471111296
 20
9.8042007757
 10
3.7007915285
 20
9.6084999919
 10
3.7428185606
 20
9.4162878454
 10
3.7739811571
 20
9.2285167203
 10
3.7951708752
 20
9.0455778061
 10
3.8071962381
 20
8.8686989821
 10
3.8109880493
 20
8.6987584842
 10
3.8074974069
 20
8.5356889704
 10
3.7975638459
 20
8.3791836184
 10
3.7820259279
 20
8.2298411653
 10
3.7616303482
 20
8.0874330743
 10
3.736768977
 20
7.95035176
 10
3.7079986264
 20
7.8188321239
 10
3.6758025202
 20
7.6927937999
 10
3.6400252244
 20
7.5701900162
 10
3.6009100272
 20
7.451018273
 10
3.5587420533
 20
7.3354101714
 10
3.5130283765
 20
7.2216170553
 10
3.4637271141
 20
7.1094636049
 10
3.4110362409
 20
6.9993347102
 10
3.3545603488
 20
6.8904231544
 10
3.2940938577
 20
6.7825025538
 10
3.2298384405
 20
6.676094008
 10
3.1619488498
 20
6.5715439069
 10
3.0902181636
 20
6.4686360536
 10
3.0149226427
 20
6.367864638
 10
2.9370905186
 20
6.2705381539
 10
2.8569137406
 20
6.1767101034
 10
2.7745458514
 20
6.086382402
 10
2.6911774458
 20
6.0005908657
 10
2.6072371339
 20
5.9194075568
 10
2.5228116204
 20
5.8425665527
 10
2.4387081995
 20
5.7704398769
 10
2.3557008364
 20
5.7032684028
 10
2.2735445799
 20
5.6404543658
 10
2.1914785396
 20
5.5811319797
 10
2.1102553725
 20
5.5255987697
 10
2.0294509974
 20
5.4733286079
 10
1.9463285062
 20
5.4225069788
 10
1.8607911739
 20
5.37318706
 10
1.7729505276
 20
5.3255453256
 10
1.6801374756
 20
5.2783770167
 10
1.5813588969
 20
5.2316089978
 10
1.4774249947
 20
5.1860688852
 10
1.3682782071
 20
5.142139169
  0
LWPOLYLINE
  5
557
100
AcDbEntity
  8
RACCORDO
100
AcDbPolyline
 62
250
  6
CONTINUOUS
 90
55
 70
0
 10
2.6454390705
 20
11.8523010048
 10
2.826514314
 20
11.690433533
 10
2.9967044163
 20
11.519549714
 10
3.1560093773
 20
11.3396493529
 10
3.3051650331
 20
11.1492930936
 10
3.4434355476
 20
10.9499198649
 10
3.5686134128
 20
10.7458470087
 10
3.6800699619
 20
10.5367726832
 10
3.7784338617
 20
10.3229985451
 10
3.863383604
 20
10.1097474392
 10
3.9342151756
 20
9.8974406185
 10
3.9916325896
 20
9.6856569415
 10
4.037426377
 20
9.4783558976
 10
4.0712756222
 20
9.2760301724
 10
4.0935012408
 20
9.0781873659
 10
4.1068565095
 20
8.8873094809
 10
4.1113463626
 20
8.7041198541
 10
4.106965866
 20
8.527895489
 10
4.0964534937
 20
8.3589489329
 10
4.0801142656
 20
8.1978648626
 10
4.0576431618
 20
8.0440588848
 10
4.0308635972
 20
7.8960899104
 10
4.0001558334
 20
7.7541605627
 10
3.9651396088
 20
7.6180684052
 10
3.9264975523
 20
7.4857647022
 10
3.884505882
 20
7.3571346617
 10
3.8388883799
 20
7.2322931816
 10
3.7894990215
 20
7.1095360122
 10
3.7363958962
 20
6.9884975661
 10
3.6795209147
 20
6.8695434862
 10
3.6185537838
 20
6.7520663414
 10
3.5533119607
 20
6.6356414795
 10
3.4839779882
 20
6.520693591
 10
3.4107792019
 20
6.4078892582
 10
3.333344233
 20
6.2969236595
 10
3.2520444503
 20
6.188101663
 10
3.1682212953
 20
6.0830044027
 10
3.0817426765
 20
5.9818096967
 10
2.9927406854
 20
5.8843397927
 10
2.9029530378
 20
5.7916424866
 10
2.8124877212
 20
5.7040252607
 10
2.721236748
 20
5.6211806997
 10
2.6306138718
 20
5.5432342577
 10
2.5412165993
 20
5.4706339506
 10
2.4524474237
 20
5.4029318167
 10
2.3639275776
 20
5.3389093354
 10
2.2764545171
 20
5.2788074642
 10
2.1892307861
 20
5.2223852776
 10
2.0994852492
 20
5.1677014165
 10
2.0072780907
 20
5.11437272
 10
1.9125491262
 20
5.0627823611
 10
1.8123466669
 20
5.0121384707
 10
1.7056868163
 20
4.9621770937
 10
1.5935534709
 20
4.9131621914
 10
1.4759466307
 20
4.8650937671
  0
LWPOLYLINE
  5
558
100
AcDbEntity
  8
RACCORDO
100
AcDbPolyline
 62
7
  6
CONTINUOUS
 90
10
 70
0
 10
2.4428374569
 20
11.6107636728
 10
2.4141436224
 20
11.6373962763
 10
2.3885198884
 20
11.6661689715
 10
2.3659662547
 20
11.6970817584
 10
2.3463018532
 20
11.730519349
 10
2.3297075521
 20
11.7660970312
 10
2.3167259558
 20
11.8026606694
 10
2.3075379324
 20
11.8398255515
 10
2.3019626138
 20
11.8779763894
 10
2.3
 20
11.9171131833
  0
LINE
  5
559
100
AcDbEntity
  8
RACCORDO
100
AcDbLine
 62
7
  6
CONTINUOUS
 10
-2.3082160975
 20
15.0082160975
 11
-2.3
 21
15.0
  0
LINE
  5
55A
100
AcDbEntity
  8
ASSI
100
AcDbLine
 62
7
  6
CONTINUOUS
 10
14.6866556363
 20
-22.5
 11
14.6651277229
 21
-22.4
  0
LINE
  5
55B
100
AcDbEntity
  8
RACCORDO
100
AcDbLine
 62
250
  6
CONTINUOUS
 10
11.4314522316
 20
-14.1172572511
 11
11.4314522306
 21
-13.8088325882
  0
LINE
  5
55C
100
AcDbEntity
  8
RACCORDO
100
AcDbLine
 62
250
  6
CONTINUOUS
 10
11.4321036027
 20
-8.894452601
 11
11.4321036027
 21
-9.189070238
  0
LINE
  5
55D
100
AcDbEntity
  8
ASSI
100
AcDbLine
 62
7
  6
CONTINUOUS
 10
7.8133443637
 20
-22.5
 11
7.8348722771
 21
-22.4
  0
LINE
  5
55E
100
AcDbEntity
  8
RACCORDO
100
AcDbLine
 62
7
  6
CONTINUOUS
 10
5.241789258
 20
-15.3151462283
 11
5.2419495876
 21
-15.3148444064
  0
LWPOLYLINE
  5
55F
100
AcDbEntity
  8
RACCORDO
100
AcDbPolyline
 62
250
  6
CONTINUOUS
 90
6
 70
0
 10
4.9610776588
 20
-14.7224045263
 10
4.9719490951
 20
-14.7025970046
 10
4.9805670167
 20
-14.6866148325
 10
4.9867823866
 20
-14.6747344033
 10
4.990487717
 20
-14.6671611753
 10
4.9916189287
 20
-14.6640261188
  0
LINE
  5
560
100
AcDbEntity
  8
RACCORDO
100
AcDbLine
 62
250
  6
CONTINUOUS
 10
4.9333619984
 20
-14.7720651948
 11
4.9610776588
 21
-14.7224045263
  0
LINE
  5
561
100
AcDbEntity
  8
RACCORDO
100
AcDbLine
 62
250
  6
CONTINUOUS
 10
4.8993289877
 20
-14.8321763946
 11
4.9333619984
 21
-14.7720651948
  0
LINE
  5
562
100
AcDbEntity
  8
RACCORDO
100
AcDbLine
 62
250
  6
CONTINUOUS
 10
4.841641774
 20
-14.9327538221
 11
4.8993289877
 21
-14.8321763946
  0
LINE
  5
563
100
AcDbEntity
  8
RACCORDO
100
AcDbLine
 62
250
  6
CONTINUOUS
 10
9.3430287768
 20
-8.2675739845
 11
9.2693843633
 21
-8.3944140139
  0
LINE
  5
564
100
AcDbEntity
  8
RACCORDO
100
AcDbLine
 62
250
  6
CONTINUOUS
 10
9.2693843633
 20
-8.3944140139
 11
9.2256983794
 21
-8.468804706
  0
LWPOLYLINE
  5
565
100
AcDbEntity
  8
RACCORDO
100
AcDbPolyline
 62
250
  6
CONTINUOUS
 90
5
 70
0
 10
9.2256983794
 20
-8.468804706
 10
9.2058061597
 20
-8.5021528909
 10
9.1991680979
 20
-8.513046659
 10
9.1948931688
 20
-8.5198266701
 10
9.1930516281
 20
-8.5223814945
  0
LWPOLYLINE
  5
566
100
AcDbEntity
  8
RACCORDO
100
AcDbPolyline
 62
7
  6
CONTINUOUS
 90
8
 70
0
 10
5.2417876373
 20
-15.315150007
 10
5.2404749397
 20
-15.3172394305
 10
5.2371891767
 20
-15.3212490062
 10
5.2319303482
 20
-15.3272131811
 10
5.224682724
 20
-15.3351580076
 10
5.2154620344
 20
-15.3450862315
 10
5.2043154702
 20
-15.3569650687
 10
5.1911581357
 20
-15.3707737997
  0
LWPOLYLINE
  5
567
100
AcDbEntity
  8
0
100
AcDbPolyline
 62
7
  6
CONTINUOUS
 90
6
 70
0
 10
-2.1113248654
 20
11.1
 10
-2.2021012319
 20
11.0811252243
 10
-2.2854345652
 20
11.0364670256
 10
-2.3613248654
 20
10.9660254038
 10
-2.4315883586
 20
10.8661679066
 10
-2.4944088187
 20
10.7405269864
  0
LWPOLYLINE
  5
568
100
AcDbEntity
  8
0
100
AcDbPolyline
 62
7
  6
CONTINUOUS
 90
10
 70
0
 10
1.3825687442
 20
12.1
 10
1.434635929
 20
12.1094373878
 10
1.4824339653
 20
12.1317664872
 10
1.5259628533
 20
12.1669872981
 10
1.5662643373
 20
12.2169160467
 10
1.602296673
 20
12.2797365068
 10
1.6309346267
 20
12.35
 10
1.6511364539
 20
12.4258903002
 10
1.6639438991
 20
12.5092236335
 10
1.6693569624
 20
12.6
  0
LWPOLYLINE
  5
569
100
AcDbEntity
  8
RACCORDO
100
AcDbPolyline
 62
250
  6
CONTINUOUS
 90
8
 70
0
 10
2.4288895435
 20
11.9273264956
 10
2.3995094084
 20
11.9267094085
 10
2.3736476495
 20
11.926008363
 10
2.3517370378
 20
11.925235088
 10
2.3341442372
 20
11.9244025229
 10
2.3211636556
 20
11.9235245989
 10
2.3130125227
 20
11.9226160059
 10
2.3098272611
 20
11.9216919476
  0
LINE
  5
56A
100
AcDbEntity
  8
RACCORDO
100
AcDbLine
 62
250
  6
CONTINUOUS
 10
2.4961877728
 20
11.928269069
 11
2.4288895435
 21
11.9273264956
  0
LWPOLYLINE
  5
56B
100
AcDbEntity
  8
RACCORDO
100
AcDbPolyline
 62
250
  6
CONTINUOUS
 90
3
 70
0
 10
2.6097815697
 20
11.9288492591
 10
2.5710567268
 20
11.9287732647
 10
2.4961877728
 20
11.928269069
  0
LINE
  5
56C
100
AcDbEntity
  8
0
100
AcDbLine
 62
7
  6
CONTINUOUS
 10
-2.3
 20
12.1
 11
-1.3825687442
 21
12.1
  0
LINE
  5
56D
100
AcDbEntity
  8
0
100
AcDbLine
 62
7
  6
CONTINUOUS
 10
2.3
 20
12.1
 11
1.3825687442
 21
12.1
  0
LINE
  5
56E
100
AcDbEntity
  8
0
100
AcDbLine
 62
7
  6
CONTINUOUS
 10
0.2507721208
 20
12.1
 11
1.3825687442
 21
12.1
  0
LINE
  5
56F
100
AcDbEntity
  8
0
100
AcDbLine
 62
7
  6
CONTINUOUS
 10
-0.2507721208
 20
12.1
 11
-1.3825687442
 21
12.1
  0
LINE
  5
570
100
AcDbEntity
  8
0
100
AcDbLine
 62
250
  6
CONTINUOUS
 10
-2.2427633934
 20
12.6
 11
-1.6693569624
 21
12.6
  0
LINE
  5
571
100
AcDbEntity
  8
0
100
AcDbLine
 62
250
  6
CONTINUOUS
 10
2.2427633934
 20
12.6
 11
1.6693569624
 21
12.6
  0
LINE
  5
572
100
AcDbEntity
  8
RACCORDO
100
AcDbLine
 62
250
  6
CONTINUOUS
 10
-2.6097815697
 20
11.9288492591
 11
-2.5329788793
 21
11.928578763
  0
LWPOLYLINE
  5
573
100
AcDbEntity
  8
RACCORDO
100
AcDbPolyline
 62
250
  6
CONTINUOUS
 90
10
 70
0
 10
-2.5329788793
 20
11.928578763
 10
-2.4612951803
 20
11.9278492523
 10
-2.4288883037
 20
11.9273264414
 10
-2.3995082772
 20
11.9267093498
 10
-2.3736467108
 20
11.926008303
 10
-2.3517363409
 20
11.9252350314
 10
-2.3341437893
 20
11.9244024742
 10
-2.3211634285
 20
11.9235245624
 10
-2.3130124563
 20
11.9226159859
 10
-2.3098272611
 20
11.9216919477
  0
LWPOLYLINE
  5
574
100
AcDbEntity
  8
0
100
AcDbPolyline
 62
7
  6
CONTINUOUS
 90
10
 70
0
 10
-1.9559751752
 20
12.1
 10
-2.00804236
 20
12.1094373878
 10
-2.0558403963
 20
12.1317664872
 10
-2.0993692843
 20
12.1669872981
 10
-2.1396707683
 20
12.2169160467
 10
-2.175703104
 20
12.2797365068
 10
-2.2043410577
 20
12.35
 10
-2.2245428849
 20
12.4258903002
 10
-2.2373503301
 20
12.5092236335
 10
-2.2427633934
 20
12.6
  0
LWPOLYLINE
  5
575
100
AcDbEntity
  8
0
100
AcDbPolyline
 62
7
  6
CONTINUOUS
 90
10
 70
0
 10
2.7175426481
 20
11.1
 10
2.8083190145
 20
11.0811252243
 10
2.8916523478
 20
11.0364670256
 10
2.9675426481
 20
10.9660254038
 10
3.0378061413
 20
10.8661679066
 10
3.1006266014
 20
10.7405269864
 10
3.1505553499
 20
10.6
 10
3.1857761608
 20
10.4482193996
 10
3.2081052602
 20
10.2815527329
 10
3.2175426481
 20
10.1
  0
LINE
  5
576
100
AcDbEntity
  8
ASSI
100
AcDbLine
 62
7
  6
CONTINUOUS
 10
7.8133443637
 20
22.5
 11
7.8348722771
 21
22.4
  0
LINE
  5
577
100
AcDbEntity
  8
0
100
AcDbLine
 62
7
  6
CONTINUOUS
 10
14.7198202597
 20
22.5
 11
14.7198202597
 21
22.4
  0
LINE
  5
578
100
AcDbEntity
  8
ASSI
100
AcDbLine
 62
7
  6
CONTINUOUS
 10
14.7198202597
 20
22.5
 11
14.7198202597
 21
22.4
  0
LINE
  5
579
100
AcDbEntity
  8
0
100
AcDbLine
 62
7
  6
CONTINUOUS
 10
14.7198202597
 20
-22.4
 11
14.7198202597
 21
-22.5
  0
LINE
  5
57A
100
AcDbEntity
  8
ASSI
100
AcDbLine
 62
7
  6
CONTINUOUS
 10
14.7198202597
 20
-22.4
 11
14.7198202597
 21
-22.5
  0
LINE
  5
57B
100
AcDbEntity
  8
DRAFT
100
AcDbLine
 62
7
  6
CONTINUOUS
 10
14.75
 20
-13.8
 11
14.75
 21
-9.2
  0
LINE
  5
57C
100
AcDbEntity
  8
RACCORDO
100
AcDbLine
 62
250
  6
CONTINUOUS
 10
14.7608350069
 20
-9.1891649931
 11
14.7589787783
 21
-13.8090958175
  0
LINE
  5
57D
100
AcDbEntity
  8
RACCORDO
100
AcDbLine
 62
250
  6
CONTINUOUS
 10
15.0608840705
 20
-8.8944526204
 11
15.0587868967
 21
-14.1172572525
  0
LINE
  5
57E
100
AcDbEntity
  8
RACCORDO
100
AcDbLine
 62
250
  6
CONTINUOUS
 10
11.4287064621
 20
-9.2
 11
11.4321036027
 21
-9.189070238
  0
LINE
  5
57F
100
AcDbEntity
  8
0
100
AcDbLine
 62
250
  6
CONTINUOUS
 10
21.7587981167
 20
21.9749071372
 11
21.9003805997
 21
22.4
  0
LINE
  5
580
100
AcDbEntity
  8
0
100
AcDbLine
 62
250
  6
CONTINUOUS
 10
22.2587219643
 20
21.4755923698
 11
22.4
 21
21.8997711479
  0
LINE
  5
581
100
AcDbEntity
  8
RACCORDO
100
AcDbLine
 62
250
  6
CONTINUOUS
 10
11.1451100057
 20
-9.1117761685
 11
11.1489217865
 21
-9.1011184868
  0
LINE
  5
582
100
AcDbEntity
  8
RACCORDO
100
AcDbLine
 62
250
  6
CONTINUOUS
 10
11.3188329083
 20
-8.8592442319
 11
11.2354123014
 21
-8.9798383637
  0
LINE
  5
583
100
AcDbEntity
  8
RACCORDO
100
AcDbLine
 62
250
  6
CONTINUOUS
 10
11.2354123014
 20
-8.9798383637
 11
11.2005684632
 21
-9.0296817641
  0
LWPOLYLINE
  5
584
100
AcDbEntity
  8
RACCORDO
100
AcDbPolyline
 62
250
  6
CONTINUOUS
 90
6
 70
0
 10
11.2005684632
 20
-9.0296817641
 10
11.173460217
 20
-9.0680292809
 10
11.1633843042
 20
-9.0820739093
 10
11.1558608846
 20
-9.0923723541
 10
11.1510135084
 20
-9.0987554923
 10
11.1489217871
 20
-9.1011184872
  0
LINE
  5
585
100
AcDbEntity
  8
RACCORDO
100
AcDbLine
 62
7
  6
CONTINUOUS
 10
5.1911581357
 20
-15.3707737997
 11
5.1411011452
 21
-15.4226897727
  0
LWPOLYLINE
  5
586
100
AcDbEntity
  8
RACCORDO
100
AcDbPolyline
 62
7
  6
CONTINUOUS
 90
3
 70
0
 10
5.1411011452
 20
-15.4226897727
 10
5.0768340669
 20
-15.488308401
 10
4.9996618657
 20
-15.5665653091
  0
LWPOLYLINE
  5
587
100
AcDbEntity
  8
RACCORDO
100
AcDbPolyline
 62
7
  6
CONTINUOUS
 90
3
 70
0
 10
4.9996618657
 20
-15.5665653091
 10
4.9714615323
 20
-15.5949821056
 10
4.9419952791
 20
-15.6241732189
  0
LINE
  5
588
100
AcDbEntity
  8
RACCORDO
100
AcDbLine
 62
7
  6
CONTINUOUS
 10
5.25
 20
-15.306793994
 11
5.2419495876
 21
-15.3148444064
  0
LINE
  5
589
100
AcDbEntity
  8
RACCORDO
100
AcDbLine
 62
7
  6
CONTINUOUS
 10
4.0223616551
 20
-14.1052493216
 11
4.0227510325
 21
-14.1049803349
  0
LINE
  5
58A
100
AcDbEntity
  8
RACCORDO
100
AcDbLine
 62
250
  6
CONTINUOUS
 10
4.9916189283
 20
-14.6640261186
 11
5.0000380762
 21
-14.6591653213
  0
LWPOLYLINE
  5
58B
100
AcDbEntity
  8
RACCORDO
100
AcDbPolyline
 62
7
  6
CONTINUOUS
 90
6
 70
0
 10
4.0223618726
 20
-14.1052491426
 10
4.0201057016
 20
-14.1064899061
 10
4.0152485831
 20
-14.1084689051
 10
4.0077572337
 20
-14.1111628002
 10
3.9975935585
 20
-14.1145689463
 10
3.9847614919
 20
-14.1186613264
  0
LWPOLYLINE
  5
58C
100
AcDbEntity
  8
RACCORDO
100
AcDbPolyline
 62
7
  6
CONTINUOUS
 90
3
 70
0
 10
3.9847614919
 20
-14.1186613264
 10
3.9512581881
 20
-14.1288573539
 10
3.9306582814
 20
-14.1349927193
  0
LINE
  5
58D
100
AcDbEntity
  8
RACCORDO
100
AcDbLine
 62
7
  6
CONTINUOUS
 10
3.9306582814
 20
-14.1349927193
 11
3.8558393355
 21
-14.1565228158
  0
LWPOLYLINE
  5
58E
100
AcDbEntity
  8
0
100
AcDbPolyline
 62
7
  6
CONTINUOUS
 90
10
 70
0
 10
-1.3825687442
 20
14.4
 10
-1.434635929
 20
14.3905626122
 10
-1.4824339653
 20
14.3682335128
 10
-1.5259628533
 20
14.3330127019
 10
-1.5662643373
 20
14.2830839533
 10
-1.602296673
 20
14.2202634932
 10
-1.6309346267
 20
14.15
 10
-1.6511364539
 20
14.0741096998
 10
-1.6639438991
 20
13.9907763665
 10
-1.6693569624
 20
13.9
  0
LINE
  5
58F
100
AcDbEntity
  8
0
100
AcDbLine
 62
250
  6
CONTINUOUS
 10
-2.2427633934
 20
13.9
 11
-1.6693569624
 21
13.9
  0
LINE
  5
590
100
AcDbEntity
  8
0
100
AcDbLine
 62
250
  6
CONTINUOUS
 10
2.2427633934
 20
13.9
 11
1.6693569624
 21
13.9
  0
LINE
  5
591
100
AcDbEntity
  8
0
100
AcDbLine
 62
7
  6
CONTINUOUS
 10
-2.3
 20
14.4
 11
-1.3825687442
 21
14.4
  0
LINE
  5
592
100
AcDbEntity
  8
0
100
AcDbLine
 62
7
  6
CONTINUOUS
 10
2.3
 20
14.4
 11
1.3825687442
 21
14.4
  0
LINE
  5
593
100
AcDbEntity
  8
0
100
AcDbLine
 62
7
  6
CONTINUOUS
 10
0.2507721208
 20
14.4
 11
1.3825687442
 21
14.4
  0
LINE
  5
594
100
AcDbEntity
  8
0
100
AcDbLine
 62
7
  6
CONTINUOUS
 10
-0.2507721208
 20
14.4
 11
-1.3825687442
 21
14.4
  0
LINE
  5
595
100
AcDbEntity
  8
DRAFT
100
AcDbLine
 62
7
  6
CONTINUOUS
 10
2.3
 20
15.0
 11
-2.3
 21
15.0
  0
LINE
  5
596
100
AcDbEntity
  8
RACCORDO
100
AcDbLine
 62
250
  6
CONTINUOUS
 10
-2.3082160975
 20
15.0082160975
 11
2.3082160975
 21
15.0082160975
  0
LINE
  5
597
100
AcDbEntity
  8
RACCORDO
100
AcDbLine
 62
250
  6
CONTINUOUS
 10
-2.6081704061
 20
15.317360813
 11
2.6081704061
 21
15.3173608131
  0
LWPOLYLINE
  5
598
100
AcDbEntity
  8
0
100
AcDbPolyline
 62
7
  6
CONTINUOUS
 90
10
 70
0
 10
1.9559751752
 20
14.4
 10
2.00804236
 20
14.3905626122
 10
2.0558403963
 20
14.3682335128
 10
2.0993692843
 20
14.3330127019
 10
2.1396707683
 20
14.2830839533
 10
2.175703104
 20
14.2202634932
 10
2.2043410577
 20
14.15
 10
2.2245428849
 20
14.0741096998
 10
2.2373503301
 20
13.9907763665
 10
2.2427633934
 20
13.9
  0
LINE
  5
599
100
AcDbEntity
  8
0
100
AcDbLine
 62
250
  6
CONTINUOUS
 10
21.9003805997
 20
-22.4
 11
21.7587981167
 21
-21.9749071372
  0
LINE
  5
59A
100
AcDbEntity
  8
0
100
AcDbLine
 62
250
  6
CONTINUOUS
 10
22.4
 20
-21.8997711479
 11
22.2587219643
 21
-21.4755923698
  0
LINE
  5
59B
100
AcDbEntity
  8
RACCORDO
100
AcDbLine
 62
7
  6
CONTINUOUS
 10
14.75
 20
-9.2
 11
14.7608350069
 21
-9.1891649931
  0
LINE
  5
59C
100
AcDbEntity
  8
RACCORDO
100
AcDbLine
 62
7
  6
CONTINUOUS
 10
15.0317651032
 20
-8.9232232684
 11
15.0608840706
 21
-8.894452601
  0
LWPOLYLINE
  5
59D
100
AcDbEntity
  8
RACCORDO
100
AcDbPolyline
 62
7
  6
CONTINUOUS
 90
3
 70
0
 10
14.8833787337
 20
-9.0709174763
 10
14.9517290623
 20
-9.0032979392
 10
15.0317651032
 20
-8.9232232684
  0
LINE
  5
59E
100
AcDbEntity
  8
RACCORDO
100
AcDbLine
 62
7
  6
CONTINUOUS
 10
14.8286058671
 20
-9.1247685736
 11
14.8833787337
 21
-9.0709174763
  0
LWPOLYLINE
  5
59F
100
AcDbEntity
  8
RACCORDO
100
AcDbPolyline
 62
7
  6
CONTINUOUS
 90
7
 70
0
 10
14.7609788705
 20
-9.189070238
 10
14.762688658
 20
-9.1877423386
 10
14.7663300847
 20
-9.1845398034
 10
14.7719031506
 20
-9.1794207409
 10
14.7794296152
 20
-9.1723480527
 10
14.7888877191
 20
-9.1633112091
 10
14.8286058671
 20
-9.1247685736
  0
LINE
  5
5A0
100
AcDbEntity
  8
RACCORDO
100
AcDbLine
 62
7
  6
CONTINUOUS
 10
14.7608350069
 20
-9.1891649931
 11
14.7609788705
 21
-9.189070238
  0
LINE
  5
5A1
100
AcDbEntity
  8
RACCORDO
100
AcDbLine
 62
250
  6
CONTINUOUS
 10
5.241671668
 20
-15.0969204379
 11
5.25
 21
-15.0921120732
  0
LWPOLYLINE
  5
5A2
100
AcDbEntity
  8
0
100
AcDbPolyline
 62
7
  6
CONTINUOUS
 90
10
 70
0
 43
0.3500000006
 10
0.9642857051
 20
32.7500006104
 10
1.035714268
 20
32.6071427765
 10
1.035714268
 20
32.5357161255
 10
0.8928571422
 20
32.3928582916
 10
0.8214285793
 20
32.3928582916
 10
0.7500000165
 20
32.4642849426
 10
0.7500000165
 20
32.5357161255
 10
0.8214285793
 20
32.6785694275
 10
0.8928571422
 20
32.7500006104
 10
0.9642857051
 20
32.7500006104
  0
LWPOLYLINE
  5
5A3
100
AcDbEntity
  8
0
100
AcDbPolyline
 62
250
  6
CONTINUOUS
 90
5
 70
0
 10
21.7587981167
 20
-21.9749071372
 10
21.7581820366
 20
-21.9687633463
 10
21.7575772103
 20
-21.9577157592
 10
21.7569836376
 20
-21.9418192142
 10
21.7563985682
 20
-21.9211527842
  0
LINE
  5
5A4
100
AcDbEntity
  8
ASSI
100
AcDbLine
 62
7
  6
CONTINUOUS
 10
14.6133443637
 20
-22.5
 11
14.6348722771
 21
-22.4
  0
LWPOLYLINE
  5
5A5
100
AcDbEntity
  8
RACCORDO
100
AcDbPolyline
 62
250
  6
CONTINUOUS
 90
13
 70
0
 10
11.3181408528
 20
-14.1524592769
 10
11.1892773481
 20
-14.2367638503
 10
11.0564073671
 20
-14.3146766791
 10
10.9195309097
 20
-14.3861978469
 10
10.7787196813
 20
-14.4515103704
 10
10.6339019766
 20
-14.5104313798
 10
10.484862679
 20
-14.5624121248
 10
10.331587239
 20
-14.6076453261
 10
10.1740902061
 20
-14.6459383789
 10
10.0122001126
 20
-14.6761645464
 10
9.8458598024
 20
-14.6979482772
 10
9.6751264315
 20
-14.7116651974
 10
9.5
 20
-14.7173153267
  0
LWPOLYLINE
  5
5A6
100
AcDbEntity
  8
RACCORDO
100
AcDbPolyline
 62
250
  6
CONTINUOUS
 90
13
 70
0
 10
11.1481818772
 20
-13.8968109001
 10
11.0317661136
 20
-13.972782868
 10
10.911239688
 20
-14.043450282
 10
10.7868289948
 20
-14.1085628024
 10
10.6590905107
 20
-14.1677418985
 10
10.5279805558
 20
-14.2209226787
 10
10.3927922713
 20
-14.2682002874
 10
10.2537809285
 20
-14.3092154284
 10
10.1112060825
 20
-14.3436227424
 10
9.9643159489
 20
-14.3712512804
 10
9.8130649835
 20
-14.3916429113
 10
9.658157816
 20
-14.4042302911
 10
9.5
 20
-14.4085306289
  0
LWPOLYLINE
  5
5A7
100
AcDbEntity
  8
RACCORDO
100
AcDbPolyline
 62
7
  6
CONTINUOUS
 90
7
 70
0
 10
11.1451100055
 20
-13.8882238315
 10
11.1886330678
 20
-13.8615553365
 10
11.2336533355
 20
-13.8396726506
 10
11.2801708089
 20
-13.8225757741
 10
11.3281854879
 20
-13.8102647068
 10
11.3776973724
 20
-13.8027394487
 10
11.4287064625
 20
-13.7999999999
  0
LINE
  5
5A8
100
AcDbEntity
  8
ASSI
100
AcDbLine
 62
7
  6
CONTINUOUS
 10
14.6133443637
 20
22.5
 11
14.6348722771
 21
22.4
  0
LWPOLYLINE
  5
5A9
100
AcDbEntity
  8
0
100
AcDbPolyline
 62
250
  6
CONTINUOUS
 90
7
 70
0
 10
22.2587219643
 20
-21.4755923698
 10
22.2580100249
 20
-21.4717902493
 10
22.2573122665
 20
-21.464745362
 10
22.2566286891
 20
-21.4544577081
 10
22.2559537131
 20
-21.4408027789
 10
22.255292918
 20
-21.4239050831
 10
22.2546630424
 20
-21.404138146
  0
LINE
  5
5AA
100
AcDbEntity
  8
0
100
AcDbLine
 62
250
  6
CONTINUOUS
 10
22.2546630424
 20
-21.404138146
 11
22.2534999803
 21
-21.3559108976
  0
LINE
  5
5AB
100
AcDbEntity
  8
0
100
AcDbLine
 62
250
  6
CONTINUOUS
 10
21.7563985682
 20
-21.9211527842
 11
21.7552704418
 21
-21.8659410308
  0
LINE
  5
5AC
100
AcDbEntity
  8
0
100
AcDbLine
 62
250
  6
CONTINUOUS
 10
22.2534999803
 20
-21.3559108976
 11
22.2524938606
 21
-21.2976716107
  0
LINE
  5
5AD
100
AcDbEntity
  8
0
100
AcDbLine
 62
250
  6
CONTINUOUS
 10
21.7552704418
 20
-21.8659410308
 11
21.7537327911
 21
-21.7506269526
  0
LINE
  5
5AE
100
AcDbEntity
  8
0
100
AcDbLine
 62
250
  6
CONTINUOUS
 10
21.7537327911
 20
-21.7506269526
 11
21.7517427974
 21
-21.4854013976
  0
LINE
  5
5AF
100
AcDbEntity
  8
0
100
AcDbLine
 62
250
  6
CONTINUOUS
 10
21.7517427974
 20
-21.4854013976
 11
21.7506735138
 21
-21.1579201224
  0
LINE
  5
5B0
100
AcDbEntity
  8
0
100
AcDbLine
 62
250
  6
CONTINUOUS
 10
21.7506735138
 20
-21.1579201224
 11
21.7462537109
 21
-14.014499891
  0
LINE
  5
5B1
100
AcDbEntity
  8
0
100
AcDbLine
 62
250
  6
CONTINUOUS
 10
21.7462537109
 20
-14.014499891
 11
21.7436847353
 21
-7.0079373998
  0
LINE
  5
5B2
100
AcDbEntity
  8
0
100
AcDbLine
 62
250
  6
CONTINUOUS
 10
21.7436847353
 20
-7.0079373998
 11
21.7428282429
 21
-0.0000019755
  0
LINE
  5
5B3
100
AcDbEntity
  8
0
100
AcDbLine
 62
250
  6
CONTINUOUS
 10
21.7428282429
 20
-0.0000019755
 11
21.7447551883
 21
10.5114728963
  0
LINE
  5
5B4
100
AcDbEntity
  8
0
100
AcDbLine
 62
250
  6
CONTINUOUS
 10
21.7447551883
 20
10.5114728963
 11
21.7505350625
 21
21.0183142309
  0
LINE
  5
5B5
100
AcDbEntity
  8
0
100
AcDbLine
 62
250
  6
CONTINUOUS
 10
21.7505350625
 20
21.0183142309
 11
21.7511952084
 21
21.3597559383
  0
LINE
  5
5B6
100
AcDbEntity
  8
0
100
AcDbLine
 62
250
  6
CONTINUOUS
 10
21.7511952084
 20
21.3597559383
 11
21.7528393992
 21
21.6543094893
  0
LINE
  5
5B7
100
AcDbEntity
  8
0
100
AcDbLine
 62
250
  6
CONTINUOUS
 10
21.7528393992
 20
21.6543094893
 11
21.7542207086
 21
21.793164329
  0
LINE
  5
5B8
100
AcDbEntity
  8
0
100
AcDbLine
 62
250
  6
CONTINUOUS
 10
21.7542207086
 20
21.793164329
 11
21.7552704418
 21
21.8659410312
  0
LINE
  5
5B9
100
AcDbEntity
  8
0
100
AcDbLine
 62
250
  6
CONTINUOUS
 10
22.2524938607
 20
21.2976716194
 11
22.2534999804
 21
21.3559109046
  0
LWPOLYLINE
  5
5BA
100
AcDbEntity
  8
0
100
AcDbPolyline
 62
250
  6
CONTINUOUS
 90
6
 70
0
 10
21.7552704418
 20
21.8659410312
 10
21.7563985682
 20
21.9211527842
 10
21.7569836376
 20
21.941819214
 10
21.7575772102
 20
21.9577157591
 10
21.7581820366
 20
21.9687633462
 10
21.7587981167
 20
21.9749071372
  0
LWPOLYLINE
  5
5BB
100
AcDbEntity
  8
0
100
AcDbPolyline
 62
250
  6
CONTINUOUS
 90
8
 70
0
 10
22.2534999804
 20
21.3559109046
 10
22.2546630426
 20
21.4041381522
 10
22.2552929182
 20
21.4239050882
 10
22.2559537132
 20
21.4408027829
 10
22.2566286892
 20
21.4544577109
 10
22.2573122666
 20
21.4647453638
 10
22.258010025
 20
21.4717902501
 10
22.2587219643
 20
21.4755923698
  0
LINE
  5
5BC
100
AcDbEntity
  8
0
100
AcDbLine
 62
250
  6
CONTINUOUS
 10
-21.9596449662
 20
21.0162342731
 11
-21.8785392018
 21
21.0175197034
  0
LINE
  5
5BD
100
AcDbEntity
  8
0
100
AcDbLine
 62
250
  6
CONTINUOUS
 10
-21.8785392018
 20
21.0175197034
 11
-21.7936299298
 21
21.0182041834
  0
LINE
  5
5BE
100
AcDbEntity
  8
0
100
AcDbLine
 62
250
  6
CONTINUOUS
 10
-21.7936299298
 20
21.0182041834
 11
21.7505350625
 21
21.0183142309
  0
LINE
  5
5BF
100
AcDbEntity
  8
0
100
AcDbLine
 62
250
  6
CONTINUOUS
 10
21.7505350626
 20
21.0183132877
 11
21.8364016415
 21
21.0179380751
  0
LWPOLYLINE
  5
5C0
100
AcDbEntity
  8
0
100
AcDbPolyline
 62
250
  6
CONTINUOUS
 90
16
 70
0
 10
21.8364016415
 20
21.0179380751
 10
21.9197173235
 20
21.0169495008
 10
21.9596399418
 20
21.0162336877
 10
21.9980064879
 20
21.0153769286
 10
22.034531417
 20
21.0143855982
 10
22.0689428667
 20
21.0132670729
 10
22.1009847099
 20
21.0120296761
 10
22.1304184653
 20
21.010682615
 10
22.1570250227
 20
21.0092359147
 10
22.180606292
 20
21.0077003438
 10
22.2009867532
 20
21.0060873303
 10
22.2180146961
 20
21.004408879
 10
22.2315633386
 20
21.0026774862
 10
22.2415318408
 20
21.0009060393
 10
22.2478460277
 20
20.9991077214
 10
22.25045891
 20
20.9972959167
  0
LINE
  5
5C1
100
AcDbEntity
  8
0
100
AcDbLine
 62
250
  6
CONTINUOUS
 10
22.2524938606
 20
-21.2976716107
 11
22.2513256494
 21
-21.1942594655
  0
LINE
  5
5C2
100
AcDbEntity
  8
0
100
AcDbLine
 62
250
  6
CONTINUOUS
 10
22.2513256494
 20
-21.1942594655
 11
22.2506336678
 21
-21.0781574515
  0
LINE
  5
5C3
100
AcDbEntity
  8
0
100
AcDbLine
 62
250
  6
CONTINUOUS
 10
22.2506336678
 20
-21.0781574515
 11
22.2481043803
 21
-17.4995716248
  0
LINE
  5
5C4
100
AcDbEntity
  8
0
100
AcDbLine
 62
250
  6
CONTINUOUS
 10
22.2481043803
 20
-17.4995716248
 11
22.2446793926
 21
-10.5019331145
  0
LINE
  5
5C5
100
AcDbEntity
  8
0
100
AcDbLine
 62
250
  6
CONTINUOUS
 10
22.2446793926
 20
-10.5019331145
 11
22.2429663237
 21
-3.500888062
  0
LINE
  5
5C6
100
AcDbEntity
  8
0
100
AcDbLine
 62
7
  6
CONTINUOUS
 10
22.4
 20
21.8997711479
 11
22.4
 21
-21.8997711479
  0
LINE
  5
5C7
100
AcDbEntity
  8
ASSI
100
AcDbLine
 62
7
  6
CONTINUOUS
 10
22.4
 20
-16.1196592168
 11
22.4
 21
16.1196592168
  0
LINE
  5
5C8
100
AcDbEntity
  8
0
100
AcDbLine
 62
250
  6
CONTINUOUS
 10
22.2429663237
 20
-3.500888062
 11
22.2429663235
 21
3.5008869932
  0
LINE
  5
5C9
100
AcDbEntity
  8
0
100
AcDbLine
 62
250
  6
CONTINUOUS
 10
22.2429663235
 20
3.5008869932
 11
22.2446793921
 21
10.5019321876
  0
LINE
  5
5CA
100
AcDbEntity
  8
0
100
AcDbLine
 62
250
  6
CONTINUOUS
 10
22.2446793921
 20
10.5019321876
 11
22.2504589101
 21
20.9972959167
  0
LINE
  5
5CB
100
AcDbEntity
  8
0
100
AcDbLine
 62
250
  6
CONTINUOUS
 10
22.2504589101
 20
20.9972959167
 11
22.2508061682
 21
21.1174216023
  0
LINE
  5
5CC
100
AcDbEntity
  8
0
100
AcDbLine
 62
250
  6
CONTINUOUS
 10
22.2508061682
 20
21.1174216023
 11
22.2516641559
 21
21.2305475331
  0
LINE
  5
5CD
100
AcDbEntity
  8
0
100
AcDbLine
 62
250
  6
CONTINUOUS
 10
22.2516641559
 20
21.2305475331
 11
22.2524938607
 21
21.2976716194
  0
LINE
  5
5CE
100
AcDbEntity
  8
0
100
AcDbLine
 62
250
  6
CONTINUOUS
 10
-21.7587981167
 20
21.9749071372
 11
21.7587981167
 21
21.9749071372
  0
LINE
  5
5CF
100
AcDbEntity
  8
0
100
AcDbLine
 62
7
  6
CONTINUOUS
 10
-21.9003805997
 20
22.4
 11
-14.55
 21
22.4
  0
LINE
  5
5D0
100
AcDbEntity
  8
0
100
AcDbLine
 62
7
  6
CONTINUOUS
 10
-7.95
 20
22.4
 11
7.95
 21
22.4
  0
LINE
  5
5D1
100
AcDbEntity
  8
0
100
AcDbLine
 62
7
  6
CONTINUOUS
 10
14.55
 20
22.4
 11
21.9003805997
 21
22.4
  0
LINE
  5
5D2
100
AcDbEntity
  8
ASSI
100
AcDbLine
 62
7
  6
CONTINUOUS
 10
-14.7198202597
 20
22.5
 11
-7.7801797403
 21
22.5
  0
LINE
  5
5D3
100
AcDbEntity
  8
ASSI
100
AcDbLine
 62
7
  6
CONTINUOUS
 10
7.7801797403
 20
22.5
 11
14.7198202597
 21
22.5
  0
LINE
  5
5D4
100
AcDbEntity
  8
ASSI
100
AcDbLine
 62
7
  6
CONTINUOUS
 10
14.9248574782
 20
23.5
 11
7.5751425218
 21
23.5
  0
LINE
  5
5D5
100
AcDbEntity
  8
ASSI
100
AcDbLine
 62
7
  6
CONTINUOUS
 10
-7.5751425218
 20
23.5
 11
-14.9248574782
 21
23.5
  0
LWPOLYLINE
  5
5D6
100
AcDbEntity
  8
ASSI
100
AcDbPolyline
 62
7
  6
CONTINUOUS
 90
13
 70
0
 10
-7.5751425218
 20
23.5
 10
-7.5261547907
 20
23.4987835823
 10
-7.477520127
 20
23.4952160081
 10
-7.4292385307
 20
23.4892972772
 10
-7.3811990006
 20
23.4810021516
 10
-7.3335125379
 20
23.4703558693
 10
-7.286512147
 20
23.4574341454
 10
-7.2402023843
 20
23.4422218959
 10
-7.1945786933
 20
23.4247342048
 10
-7.1499604089
 20
23.4050920387
 10
-7.1064539761
 20
23.3833357199
 10
-7.0639529499
 20
23.3594249262
 10
-7.0224573302
 20
23.3333596575
  0
LWPOLYLINE
  5
5D7
100
AcDbEntity
  8
ASSI
100
AcDbPolyline
 62
7
  6
CONTINUOUS
 90
13
 70
0
 10
14.9248574782
 20
23.5
 10
14.9738452093
 20
23.4987835823
 10
15.022479873
 20
23.4952160081
 10
15.0707614693
 20
23.4892972772
 10
15.1188009994
 20
23.4810021516
 10
15.1664874621
 20
23.4703558693
 10
15.213487853
 20
23.4574341454
 10
15.2597976157
 20
23.4422218959
 10
15.3054213067
 20
23.4247342048
 10
15.3500395911
 20
23.4050920387
 10
15.3935460239
 20
23.3833357199
 10
15.4360470501
 20
23.3594249262
 10
15.4775426698
 20
23.3333596575
  0
LWPOLYLINE
  5
5D8
100
AcDbEntity
  8
0
100
AcDbPolyline
 62
250
  6
CONTINUOUS
 90
19
 70
0
 10
21.7587981167
 20
21.9749071372
 10
21.8023443198
 20
21.9729695558
 10
21.8455595062
 20
21.9672509906
 10
21.8881151604
 20
21.9577949094
 10
21.9296877889
 20
21.9446731889
 10
21.9699613519
 20
21.9279855764
 10
22.0086296686
 20
21.90785894
 10
22.045398789
 20
21.8844462831
 10
22.0799892023
 20
21.8579255882
 10
22.1121379411
 20
21.8284984831
 10
22.1416006311
 20
21.7963886664
 10
22.1681533004
 20
21.7618402462
 10
22.1915940778
 20
21.7251159139
 10
22.211744794
 20
21.6864948552
 10
22.2284522933
 20
21.6462706688
 10
22.2415895799
 20
21.6047491944
 10
22.2510568258
 20
21.5622460959
 10
22.2567821136
 20
21.5190844544
 10
22.2587219643
 20
21.4755923698
  0
LINE
  5
5D9
100
AcDbEntity
  8
0
100
AcDbLine
 62
7
  6
CONTINUOUS
 10
14.55
 20
-22.4
 11
14.4833672024
 21
-22.5
  0
LINE
  5
5DA
100
AcDbEntity
  8
0
100
AcDbLine
 62
7
  6
CONTINUOUS
 10
14.4833672024
 20
22.5
 11
14.55
 21
22.4
  0
LWPOLYLINE
  5
5DB
100
AcDbEntity
  8
0
100
AcDbPolyline
 62
7
  6
CONTINUOUS
 90
3
 70
0
 43
0.3500000006
 10
29.0071419983
 20
-0.8571427917
 10
29.0071419983
 20
-2.3571432495
 10
26.6499990692
 20
-1.7142852631
  0
LWPOLYLINE
  5
5DC
100
AcDbEntity
  8
0
100
AcDbPolyline
 62
7
  6
CONTINUOUS
 90
3
 70
0
 43
0.3500000006
 10
-0.5357142924
 20
32.8928584442
 10
-2.0357142191
 20
32.8928584442
 10
-1.3928570824
 20
35.2500013733
  0
LWPOLYLINE
  5
5DD
100
AcDbEntity
  8
0
100
AcDbPolyline
 62
7
  6
CONTINUOUS
 90
3
 70
0
 43
0.3500000006
 10
-2.8928572569
 20
32.8928584442
 10
-4.3928571482
 20
32.8928584442
 10
-3.7500000114
 20
35.2500013733
  0
LWPOLYLINE
  5
5DE
100
AcDbEntity
  8
0
100
AcDbPolyline
 62
7
  6
CONTINUOUS
 90
13
 70
0
 43
0.3500000006
 10
2.464285738
 20
33.9642854004
 10
2.1785714865
 20
34.1785698853
 10
2.1785714865
 20
34.8214278717
 10
2.464285738
 20
35.2500013733
 10
3.1071428747
 20
35.2500013733
 10
3.3928571262
 20
34.8214278717
 10
3.3928571262
 20
34.1785698853
 10
3.1071428747
 20
33.9642854004
 10
3.5357143936
 20
33.5357164307
 10
3.5357143936
 20
32.6785694275
 10
3.1071428747
 20
32.2500004578
 10
2.464285738
 20
32.2500004578
 10
2.0357142191
 20
32.6785694275
  0
LWPOLYLINE
  5
5DF
100
AcDbEntity
  8
0
100
AcDbPolyline
 62
250
  6
CONTINUOUS
 90
9
 70
0
 10
-77.3773215856
 20
21.9749071372
 10
-77.3779801443
 20
21.9729695558
 10
-77.3784347718
 20
21.9672509906
 10
-77.3786820119
 20
21.9577949094
 10
-77.3787199847
 20
21.9446731889
 10
-77.3785484014
 20
21.9279855764
 10
-77.3781685667
 20
21.90785894
 10
-77.3775833685
 20
21.8844462831
 10
-77.3758162042
 20
21.8284984831
  0
LWPOLYLINE
  5
5E0
100
AcDbEntity
  8
0
100
AcDbPolyline
 62
7
  6
CONTINUOUS
 90
3
 70
0
 43
0.3500000006
 10
-63.9855719604
 20
34.392858902
 10
-63.1284294891
 20
35.2500013733
 10
-63.1284294891
 20
32.2500004578
  0
LWPOLYLINE
  5
5E1
100
AcDbEntity
  8
0
100
AcDbPolyline
 62
250
  6
CONTINUOUS
 90
8
 70
0
 10
-77.3773215856
 20
-21.9749071372
 10
-77.3779801354
 20
-21.9729695563
 10
-77.3784347549
 20
-21.9672509915
 10
-77.3786819877
 20
-21.9577949107
 10
-77.3787199539
 20
-21.9446731905
 10
-77.3785483649
 20
-21.9279855783
 10
-77.3781685256
 20
-21.9078589421
 10
-77.377583324
 20
-21.8844462854
  0
LWPOLYLINE
  5
5E2
100
AcDbEntity
  8
0
100
AcDbPolyline
 62
250
  6
CONTINUOUS
 90
19
 70
0
 10
-77.8332698677
 20
20.9972959167
 10
-77.8298894741
 20
21.0381155624
 10
-77.8232580057
 20
21.0781574577
 10
-77.8133754624
 20
21.1174216023
 10
-77.80012047
 20
21.1562294145
 10
-77.7836144027
 20
21.1942594762
 10
-77.7642213834
 20
21.2305475331
 10
-77.7418979805
 20
21.2649805786
 10
-77.7166876256
 20
21.2976716194
 10
-77.6890847363
 20
21.3279954206
 10
-77.6590470649
 20
21.3559109046
 10
-77.6266168592
 20
21.3814591491
 10
-77.5924152798
 20
21.4041381522
 10
-77.5563297308
 20
21.4239050882
 10
-77.5184728081
 20
21.4408027829
 10
-77.4798034599
 20
21.4544577109
 10
-77.4406413357
 20
21.4647453638
 10
-77.4006667859
 20
21.4717902501
 10
-77.3598798107
 20
21.4755923698
  0
LWPOLYLINE
  5
5E3
100
AcDbEntity
  8
0
100
AcDbPolyline
 62
250
  6
CONTINUOUS
 90
13
 70
0
 10
-77.8332698677
 20
-20.9972959167
 10
-77.9681607892
 20
-17.4995716248
 10
-78.0785302353
 20
-14.0011173575
 10
-78.164378206
 20
-10.5019331145
 10
-78.2257097686
 20
-7.001775576
 10
-78.2625198557
 20
-3.500888062
 10
-78.2747932657
 20
-0.0000005326
 10
-78.2625198659
 20
3.5008869932
 10
-78.2257097889
 20
7.0017745343
 10
-78.1643782309
 20
10.5019321876
 10
-78.0785302575
 20
14.0011166518
 10
-77.9681608031
 20
17.4995712282
 10
-77.8332698677
 20
20.9972959167
  0
LINE
  5
5E4
100
AcDbEntity
  8
0
100
AcDbLine
 62
250
  6
CONTINUOUS
 10
-77.3758162042
 20
21.8284984831
 11
-77.3733005453
 21
21.7618402462
  0
LINE
  5
5E5
100
AcDbEntity
  8
RACCORDO
100
AcDbLine
 62
7
  6
CONTINUOUS
 10
-78.5699833396
 20
-14.0015991022
 11
-78.5693535056
 21
-14.0240637506
  0
LINE
  5
5E6
100
AcDbEntity
  8
RACCORDO
100
AcDbLine
 62
7
  6
CONTINUOUS
 10
-78.6869481644
 20
-8.8945006362
 11
-78.6875708873
 21
-8.859430952
  0
LINE
  5
5E7
100
AcDbEntity
  8
RACCORDO
100
AcDbLine
 62
7
  6
CONTINUOUS
 10
-78.6972654117
 20
-8.2943607594
 11
-78.6977020743
 21
-8.2679996196
  0
LINE
  5
5E8
100
AcDbEntity
  8
RACCORDO
100
AcDbLine
 62
7
  6
CONTINUOUS
 10
-78.7170730431
 20
-6.9993658422
 11
-78.7168602381
 21
-7.0145496129
  0
LINE
  5
5E9
100
AcDbEntity
  8
RACCORDO
100
AcDbLine
 62
7
  6
CONTINUOUS
 10
-78.5693743849
 20
14.0233196137
 11
-78.5698189477
 21
14.0074660388
  0
LINE
  5
5EA
100
AcDbEntity
  8
0
100
AcDbLine
 62
250
  6
CONTINUOUS
 10
-77.377583324
 20
-21.8844462854
 11
-77.3758161563
 21
-21.8284984857
  0
LINE
  5
5EB
100
AcDbEntity
  8
0
100
AcDbLine
 62
250
  6
CONTINUOUS
 10
-77.3758161563
 20
-21.8284984857
 11
-77.3733004993
 21
-21.7618402487
  0
LINE
  5
5EC
100
AcDbEntity
  8
0
100
AcDbLine
 62
250
  6
CONTINUOUS
 10
-77.3663495861
 20
21.6047491944
 11
-77.3598798107
 21
21.4755923698
  0
LWPOLYLINE
  5
5ED
100
AcDbEntity
  8
0
100
AcDbPolyline
 62
250
  6
CONTINUOUS
 90
3
 70
0
 10
-77.3733005453
 20
21.7618402462
 10
-77.3717850646
 20
21.7251159139
 10
-77.3663495861
 20
21.6047491944
  0
LINE
  5
5EE
100
AcDbEntity
  8
0
100
AcDbLine
 62
250
  6
CONTINUOUS
 10
-77.3733004993
 20
-21.7618402487
 11
-77.3682962894
 21
-21.6462706707
  0
LWPOLYLINE
  5
5EF
100
AcDbEntity
  8
0
100
AcDbPolyline
 62
250
  6
CONTINUOUS
 90
3
 70
0
 10
-77.3682962894
 20
-21.6462706707
 10
-77.3621252641
 20
-21.519084455
 10
-77.3598798107
 20
-21.4755923698
  0
LWPOLYLINE
  5
5F0
100
AcDbEntity
  8
0
100
AcDbPolyline
 62
7
  6
CONTINUOUS
 90
3
 70
0
 43
0.3500000006
 10
-63.6284296417
 20
42.5357146454
 10
-63.6998608246
 20
42.3214301605
 10
-63.8427141266
 20
42.0357144928
  0
LWPOLYLINE
  5
5F1
100
AcDbEntity
  8
RACCORDO
100
AcDbPolyline
 62
250
  6
CONTINUOUS
 90
35
 70
0
 10
-61.3606386633
 20
21.0088660992
 10
-61.3450599435
 20
21.0137705634
 10
-61.3298440707
 20
21.0182686948
 10
-61.3150011593
 20
21.0223768135
 10
-61.3005864737
 20
21.0261026128
 10
-61.2865609133
 20
21.0294742511
 10
-61.2727927638
 20
21.0325294654
 10
-61.2592655263
 20
21.0352786088
 10
-61.2460100312
 20
21.0377260678
 10
-61.2329672876
 20
21.0398866005
 10
-61.2201364494
 20
21.0417642976
 10
-61.207532035
 20
21.0433626694
 10
-61.1951196259
 20
21.0446881729
 10
-61.1829055989
 20
21.0457416677
 10
-61.1708974264
 20
21.0465254664
 10
-61.1590641267
 20
21.0470423759
 10
-61.147412959
 20
21.0472908421
 10
-61.1359520214
 20
21.0472707082
 10
-61.124654024
 20
21.0469809798
 10
-61.1135273742
 20
21.0464175816
 10
-61.102581783
 20
21.0455778421
 10
-61.0917949982
 20
21.0444569033
 10
-61.081181721
 20
21.0430486985
 10
-61.0707491938
 20
21.0413478048
 10
-61.0604684797
 20
21.0393430168
 10
-61.0503695331
 20
21.0370272337
 10
-61.0404507229
 20
21.0343893809
 10
-61.0306455241
 20
21.0313981028
 10
-61.0209678377
 20
21.0280297537
 10
-61.0114506278
 20
21.0242692144
 10
-61.0020698497
 20
21.0200802852
 10
-60.9928489423
 20
21.0154311132
 10
-60.9838310514
 20
21.0103003109
 10
-60.975034101
 20
21.0046548163
 10
-60.9664945106
 20
20.9984612337
  0
LWPOLYLINE
  5
5F2
100
AcDbEntity
  8
ASSI
100
AcDbPolyline
 62
250
  6
CONTINUOUS
 90
35
 70
0
 10
-61.3606386633
 20
21.0088660992
 10
-61.3450599435
 20
21.0137705634
 10
-61.3298440707
 20
21.0182686948
 10
-61.3150011593
 20
21.0223768135
 10
-61.3005864737
 20
21.0261026128
 10
-61.2865609133
 20
21.0294742511
 10
-61.2727927638
 20
21.0325294654
 10
-61.2592655263
 20
21.0352786088
 10
-61.2460100312
 20
21.0377260678
 10
-61.2329672876
 20
21.0398866005
 10
-61.2201364494
 20
21.0417642976
 10
-61.207532035
 20
21.0433626694
 10
-61.1951196259
 20
21.0446881729
 10
-61.1829055989
 20
21.0457416677
 10
-61.1708974264
 20
21.0465254664
 10
-61.1590641267
 20
21.0470423759
 10
-61.147412959
 20
21.0472908421
 10
-61.1359520214
 20
21.0472707082
 10
-61.124654024
 20
21.0469809798
 10
-61.1135273742
 20
21.0464175816
 10
-61.102581783
 20
21.0455778421
 10
-61.0917949982
 20
21.0444569033
 10
-61.081181721
 20
21.0430486985
 10
-61.0707491938
 20
21.0413478048
 10
-61.0604684797
 20
21.0393430168
 10
-61.0503695331
 20
21.0370272337
 10
-61.0404507229
 20
21.0343893809
 10
-61.0306455241
 20
21.0313981028
 10
-61.0209678377
 20
21.0280297537
 10
-61.0114506278
 20
21.0242692144
 10
-61.0020698497
 20
21.0200802852
 10
-60.9928489423
 20
21.0154311132
 10
-60.9838310514
 20
21.0103003109
 10
-60.975034101
 20
21.0046548163
 10
-60.9664945106
 20
20.9984612337
  0
LINE
  5
5F3
100
AcDbEntity
  8
ASSI
100
AcDbLine
 62
7
  6
CONTINUOUS
 10
-65.2660665657
 20
-23.0998904748
 11
-66.5820113037
 21
-23.1271571819
  0
LINE
  5
5F4
100
AcDbEntity
  8
ASSI
100
AcDbLine
 62
7
  6
CONTINUOUS
 10
-66.5820113037
 20
-23.1271571819
 11
-67.9153547115
 21
-23.153812961
  0
LINE
  5
5F5
100
AcDbEntity
  8
ASSI
100
AcDbLine
 62
7
  6
CONTINUOUS
 10
-67.9153547115
 20
-23.153812961
 11
-69.2660665657
 21
-23.1799085618
  0
LINE
  5
5F6
100
AcDbEntity
  8
ASSI
100
AcDbLine
 62
7
  6
CONTINUOUS
 10
-65.2660665657
 20
-23.4301797403
 11
-69.2660665657
 21
-23.5
  0
LINE
  5
5F7
100
AcDbEntity
  8
ASSI
100
AcDbLine
 62
250
  6
CONTINUOUS
 10
-65.2660665657
 20
-23.2631073613
 11
-69.2660665657
 21
-23.333359658
  0
LINE
  5
5F8
100
AcDbEntity
  8
ASSI
100
AcDbLine
 62
7
  6
CONTINUOUS
 10
-67.0245270401
 20
-22.6434318937
 11
-69.2660665657
 21
-22.663166622
  0
LINE
  5
5F9
100
AcDbEntity
  8
ASSI
100
AcDbLine
 62
7
  6
CONTINUOUS
 10
-65.2660665657
 20
-22.6298666026
 11
-67.0245270401
 21
-22.6434318937
  0
LINE
  5
5FA
100
AcDbEntity
  8
0
100
AcDbLine
 62
7
  6
CONTINUOUS
 10
-69.2660665657
 20
-22.4
 11
-77.3773215856
 21
-21.9749071372
  0
LINE
  5
5FB
100
AcDbEntity
  8
0
100
AcDbLine
 62
250
  6
CONTINUOUS
 10
-69.2660665657
 20
-21.8997711479
 11
-77.3598798107
 21
-21.4755923698
  0
LWPOLYLINE
  5
5FC
100
AcDbEntity
  8
0
100
AcDbPolyline
 62
250
  6
CONTINUOUS
 90
19
 70
0
 10
-77.3598798107
 20
-21.4755923698
 10
-77.4006667893
 20
-21.4717902493
 10
-77.4406413418
 20
-21.464745362
 10
-77.4798034682
 20
-21.4544577081
 10
-77.5184728178
 20
-21.4408027789
 10
-77.5563297412
 20
-21.4239050831
 10
-77.5924152903
 20
-21.404138146
 10
-77.6266168691
 20
-21.3814591424
 10
-77.6590470734
 20
-21.3559108976
 10
-77.6890847437
 20
-21.3279954131
 10
-77.7166876325
 20
-21.2976716107
 10
-77.7418979872
 20
-21.2649805685
 10
-77.7642213896
 20
-21.2305475222
 10
-77.7836144079
 20
-21.1942594655
 10
-77.8001204739
 20
-21.1562294047
 10
-77.8133754651
 20
-21.117421594
 10
-77.8232580074
 20
-21.0781574515
 10
-77.8298894749
 20
-21.038115559
 10
-77.8332698677
 20
-20.9972959167
  0
LINE
  5
5FD
100
AcDbEntity
  8
ASSI
100
AcDbLine
 62
7
  6
CONTINUOUS
 10
-69.2660665657
 20
23.5
 11
-69.2660665657
 21
22.4
  0
LINE
  5
5FE
100
AcDbEntity
  8
ASSI
100
AcDbLine
 62
7
  6
CONTINUOUS
 10
-69.2660665657
 20
-23.5
 11
-69.2660665657
 21
-22.4
  0
LINE
  5
5FF
100
AcDbEntity
  8
0
100
AcDbLine
 62
7
  6
CONTINUOUS
 10
-69.2660665657
 20
22.4
 11
-69.2660665657
 21
-22.4
  0
LINE
  5
600
100
AcDbEntity
  8
ASSI
100
AcDbLine
 62
7
  6
CONTINUOUS
 10
-69.2660665657
 20
-16.1196592168
 11
-69.2660665657
 21
16.209090731
  0
LWPOLYLINE
  5
601
100
AcDbEntity
  8
0
100
AcDbPolyline
 62
7
  6
CONTINUOUS
 90
3
 70
0
 43
0.3500000006
 10
-59.1998594513
 20
32.5357161255
 10
-59.2712861023
 20
32.3214271088
 10
-59.4141439362
 20
32.0357159729
  0
LINE
  5
602
100
AcDbEntity
  8
ASSI
100
AcDbLine
 62
250
  6
CONTINUOUS
 10
-65.2660665657
 20
-22.3297297297
 11
-63.6660665657
 21
-22.2
  0
LINE
  5
603
100
AcDbEntity
  8
ASSI
100
AcDbLine
 62
7
  6
CONTINUOUS
 10
-61.2952117677
 20
-21.1306884717
 11
-65.2660665657
 21
-21.2
  0
LINE
  5
604
100
AcDbEntity
  8
RACCORDO
100
AcDbLine
 62
7
  6
CONTINUOUS
 10
-61.2952117677
 20
-21.1306884717
 11
-65.2660665657
 21
-21.2
  0
LINE
  5
605
100
AcDbEntity
  8
RACCORDO
100
AcDbLine
 62
250
  6
CONTINUOUS
 10
-61.3606384248
 20
-21.0088656299
 11
-65.2660665655
 21
-21.0773406655
  0
LINE
  5
606
100
AcDbEntity
  8
ASSI
100
AcDbLine
 62
250
  6
CONTINUOUS
 10
-61.3606384248
 20
-21.0088656299
 11
-65.2660665655
 21
-21.0773406655
  0
LINE
  5
607
100
AcDbEntity
  8
ASSI
100
AcDbLine
 62
7
  6
CONTINUOUS
 10
-63.1165710818
 20
-22.2
 11
-63.6660665657
 21
-22.2
  0
LINE
  5
608
100
AcDbEntity
  8
ASSI
100
AcDbLine
 62
7
  6
CONTINUOUS
 10
-65.2660665657
 20
-21.2
 11
-63.6660665657
 21
-21.2
  0
LWPOLYLINE
  5
609
100
AcDbEntity
  8
0
100
AcDbPolyline
 62
7
  6
CONTINUOUS
 90
4
 70
0
 43
0.3500000006
 10
-66.6998572083
 20
42.6785724792
 10
-66.6998572083
 20
43.5357149506
 10
-66.2712882385
 20
43.9642839203
 10
-65.6284302521
 20
43.9642839203
  0
LINE
  5
60A
100
AcDbEntity
  8
0
100
AcDbLine
 62
250
  6
CONTINUOUS
 10
-78.324101689
 20
-21.0183142305
 11
-78.3222439727
 21
-21.0182044204
  0
LINE
  5
60B
100
AcDbEntity
  8
0
100
AcDbLine
 62
250
  6
CONTINUOUS
 10
-78.3222439727
 20
-21.0182044204
 11
-78.2586249144
 21
-21.015377624
  0
LWPOLYLINE
  5
60C
100
AcDbEntity
  8
0
100
AcDbPolyline
 62
250
  6
CONTINUOUS
 90
3
 70
0
 10
-78.2586249144
 20
-21.015377624
 10
-77.8762870806
 20
-20.9991077332
 10
-77.8332698677
 20
-20.9972959167
  0
LWPOLYLINE
  5
60D
100
AcDbEntity
  8
RACCORDO
100
AcDbPolyline
 62
250
  6
CONTINUOUS
 90
16
 70
0
 10
-59.0832912822
 20
-19.2093510488
 10
-59.140868037
 20
-19.2113656132
 10
-59.1993153984
 20
-19.2164517179
 10
-59.2586333665
 20
-19.2246077974
 10
-59.3189559823
 20
-19.2356421907
 10
-59.3801492049
 20
-19.2497396786
 10
-59.4418109106
 20
-19.2674603217
 10
-59.5041426173
 20
-19.2888792353
 10
-59.5669428072
 20
-19.3139024448
 10
-59.6292048037
 20
-19.3428313334
 10
-59.6909493219
 20
-19.375752384
 10
-59.7521556467
 20
-19.412545086
 10
-59.811754956
 20
-19.4531955381
 10
-59.8693909759
 20
-19.4976829283
 10
-59.9254199804
 20
-19.5459797031
 10
-59.9798419694
 20
-19.5980580525
  0
LWPOLYLINE
  5
60E
100
AcDbEntity
  8
ASSI
100
AcDbPolyline
 62
250
  6
CONTINUOUS
 90
16
 70
0
 10
-59.0832912822
 20
-19.2093510488
 10
-59.140868037
 20
-19.2113656132
 10
-59.1993153984
 20
-19.2164517179
 10
-59.2586333665
 20
-19.2246077974
 10
-59.3189559823
 20
-19.2356421907
 10
-59.3801492049
 20
-19.2497396786
 10
-59.4418109106
 20
-19.2674603217
 10
-59.5041426173
 20
-19.2888792353
 10
-59.5669428072
 20
-19.3139024448
 10
-59.6292048037
 20
-19.3428313334
 10
-59.6909493219
 20
-19.375752384
 10
-59.7521556467
 20
-19.412545086
 10
-59.811754956
 20
-19.4531955381
 10
-59.8693909759
 20
-19.4976829283
 10
-59.9254199804
 20
-19.5459797031
 10
-59.9798419694
 20
-19.5980580525
  0
LINE
  5
60F
100
AcDbEntity
  8
RACCORDO
100
AcDbLine
 62
7
  6
CONTINUOUS
 10
-59.0832912822
 20
-19.3950641391
 11
-53.9486141592
 21
-19.3054380165
  0
LINE
  5
610
100
AcDbEntity
  8
ASSI
100
AcDbLine
 62
7
  6
CONTINUOUS
 10
-59.0832912822
 20
-19.3950641391
 11
-53.9486141592
 21
-19.3054380165
  0
LINE
  5
611
100
AcDbEntity
  8
RACCORDO
100
AcDbLine
 62
250
  6
CONTINUOUS
 10
-53.9486141592
 20
-19.1191114698
 11
-59.0832912822
 21
-19.2093510488
  0
LINE
  5
612
100
AcDbEntity
  8
ASSI
100
AcDbLine
 62
250
  6
CONTINUOUS
 10
-53.9486141592
 20
-19.1191114698
 11
-59.0832912822
 21
-19.2093510488
  0
LINE
  5
613
100
AcDbEntity
  8
0
100
AcDbLine
 62
7
  6
CONTINUOUS
 10
-53.0530622809
 20
-18.7135402888
 11
-52.7660665657
 21
-18.7135402888
  0
LINE
  5
614
100
AcDbEntity
  8
ASSI
100
AcDbLine
 62
7
  6
CONTINUOUS
 10
-53.0530622809
 20
-18.7135402888
 11
-52.7660665657
 21
-18.7135402888
  0
LINE
  5
615
100
AcDbEntity
  8
0
100
AcDbLine
 62
7
  6
CONTINUOUS
 10
-52.9660665657
 20
-17.7135402888
 11
-52.7660665657
 21
-17.7135402888
  0
LINE
  5
616
100
AcDbEntity
  8
ASSI
100
AcDbLine
 62
7
  6
CONTINUOUS
 10
-52.9660665657
 20
-17.7135402888
 11
-52.7660665657
 21
-17.7135402888
  0
LINE
  5
617
100
AcDbEntity
  8
RACCORDO
100
AcDbLine
 62
7
  6
CONTINUOUS
 10
-65.2660665657
 20
-22.6298666026
 11
-65.2660665657
 21
-21.0773406655
  0
LINE
  5
618
100
AcDbEntity
  8
ASSI
100
AcDbLine
 62
7
  6
CONTINUOUS
 10
-65.2660665657
 20
-21.0773406655
 11
-65.2660665657
 21
-23.4301797403
  0
LINE
  5
619
100
AcDbEntity
  8
RACCORDO
100
AcDbLine
 62
7
  6
CONTINUOUS
 10
-65.2660665657
 20
21.0773406691
 11
-65.2660665657
 21
22.6298666026
  0
LINE
  5
61A
100
AcDbEntity
  8
ASSI
100
AcDbLine
 62
7
  6
CONTINUOUS
 10
-65.2660665657
 20
21.0773406691
 11
-65.2660665657
 21
22.6298666026
  0
LINE
  5
61B
100
AcDbEntity
  8
ASSI
100
AcDbLine
 62
7
  6
CONTINUOUS
 10
-65.2660665657
 20
22.6624480191
 11
-65.2660665657
 21
23.4301797403
  0
LWPOLYLINE
  5
61C
100
AcDbEntity
  8
RACCORDO
100
AcDbPolyline
 62
7
  6
CONTINUOUS
 90
3
 70
0
 10
-57.6570590435
 20
16.2684253815
 10
-57.5463104123
 20
16.449636857
 10
-57.5103014132
 20
16.507839506
  0
LWPOLYLINE
  5
61D
100
AcDbEntity
  8
ASSI
100
AcDbPolyline
 62
7
  6
CONTINUOUS
 90
3
 70
0
 10
-57.6570590435
 20
16.2684253815
 10
-57.5463104123
 20
16.449636857
 10
-57.5103014132
 20
16.507839506
  0
LWPOLYLINE
  5
61E
100
AcDbEntity
  8
RACCORDO
100
AcDbPolyline
 62
7
  6
CONTINUOUS
 90
5
 70
0
 10
-57.2265292822
 20
16.954675447
 10
-57.2096595618
 20
16.9816241475
 10
-57.1955447086
 20
17.0049838699
 10
-57.1840403226
 20
17.0247874686
 10
-57.1751232881
 20
17.0410761601
  0
LWPOLYLINE
  5
61F
100
AcDbEntity
  8
ASSI
100
AcDbPolyline
 62
7
  6
CONTINUOUS
 90
5
 70
0
 10
-57.2265292822
 20
16.954675447
 10
-57.2096595618
 20
16.9816241475
 10
-57.1955447086
 20
17.0049838699
 10
-57.1840403226
 20
17.0247874686
 10
-57.1751232881
 20
17.0410761601
  0
LINE
  5
620
100
AcDbEntity
  8
RACCORDO
100
AcDbLine
 62
7
  6
CONTINUOUS
 10
-57.5103014132
 20
16.507839506
 11
-57.4078021498
 21
16.6712623737
  0
LINE
  5
621
100
AcDbEntity
  8
ASSI
100
AcDbLine
 62
7
  6
CONTINUOUS
 10
-57.5103014132
 20
16.507839506
 11
-57.4078021498
 21
16.6712623737
  0
LWPOLYLINE
  5
622
100
AcDbEntity
  8
RACCORDO
100
AcDbPolyline
 62
7
  6
CONTINUOUS
 90
3
 70
0
 10
-57.4078021498
 20
16.6712623737
 10
-57.3181213345
 20
16.8118933322
 10
-57.2265292822
 20
16.954675447
  0
LWPOLYLINE
  5
623
100
AcDbEntity
  8
ASSI
100
AcDbPolyline
 62
7
  6
CONTINUOUS
 90
3
 70
0
 10
-57.4078021498
 20
16.6712623737
 10
-57.3181213345
 20
16.8118933322
 10
-57.2265292822
 20
16.954675447
  0
LINE
  5
624
100
AcDbEntity
  8
RACCORDO
100
AcDbLine
 62
7
  6
CONTINUOUS
 10
-53.9486141592
 20
14.3462015575
 11
-53.7536882595
 21
14.4451856941
  0
LINE
  5
625
100
AcDbEntity
  8
ASSI
100
AcDbLine
 62
7
  6
CONTINUOUS
 10
-53.9486141592
 20
14.3462015575
 11
-53.7536882595
 21
14.4451856941
  0
LWPOLYLINE
  5
626
100
AcDbEntity
  8
RACCORDO
100
AcDbPolyline
 62
7
  6
CONTINUOUS
 90
7
 70
0
 10
-53.7536882595
 20
14.4451856941
 10
-53.6915353464
 20
14.4761968721
 10
-53.6310191032
 20
14.5056679977
 10
-53.5728691685
 20
14.5333843739
 10
-53.5173582526
 20
14.5591192751
 10
-53.4643042554
 20
14.5826259342
 10
-53.4137418175
 20
14.6037163787
  0
LWPOLYLINE
  5
627
100
AcDbEntity
  8
ASSI
100
AcDbPolyline
 62
7
  6
CONTINUOUS
 90
7
 70
0
 10
-53.7536882595
 20
14.4451856941
 10
-53.6915353464
 20
14.4761968721
 10
-53.6310191032
 20
14.5056679977
 10
-53.5728691685
 20
14.5333843739
 10
-53.5173582526
 20
14.5591192751
 10
-53.4643042554
 20
14.5826259342
 10
-53.4137418175
 20
14.6037163787
  0
LWPOLYLINE
  5
628
100
AcDbEntity
  8
RACCORDO
100
AcDbPolyline
 62
7
  6
CONTINUOUS
 90
13
 70
0
 10
-53.4137422683
 20
14.6037144132
 10
-53.3750239225
 20
14.6183721039
 10
-53.3362204376
 20
14.6310611524
 10
-53.2975869058
 20
14.6417815589
 10
-53.2592923537
 20
14.6504990156
 10
-53.2217595923
 20
14.6572478301
 10
-53.1856039479
 20
14.6621309257
 10
-53.1511580226
 20
14.6650110985
 10
-53.1186620442
 20
14.6660255522
 10
-53.0885248616
 20
14.6656888211
 10
-53.0610576597
 20
14.6641724166
 10
-53.0365066414
 20
14.6613048273
 10
-53.0151571988
 20
14.6570860531
  0
LWPOLYLINE
  5
629
100
AcDbEntity
  8
ASSI
100
AcDbPolyline
 62
7
  6
CONTINUOUS
 90
13
 70
0
 10
-53.4137422683
 20
14.6037144132
 10
-53.3750239225
 20
14.6183721039
 10
-53.3362204376
 20
14.6310611524
 10
-53.2975869058
 20
14.6417815589
 10
-53.2592923537
 20
14.6504990156
 10
-53.2217595923
 20
14.6572478301
 10
-53.1856039479
 20
14.6621309257
 10
-53.1511580226
 20
14.6650110985
 10
-53.1186620442
 20
14.6660255522
 10
-53.0885248616
 20
14.6656888211
 10
-53.0610576597
 20
14.6641724166
 10
-53.0365066414
 20
14.6613048273
 10
-53.0151571988
 20
14.6570860531
  0
LINE
  5
62A
100
AcDbEntity
  8
RACCORDO
100
AcDbLine
 62
250
  6
CONTINUOUS
 10
-69.2660665657
 20
-16.1196592168
 11
-53.9486141592
 21
-16.0265061637
  0
LINE
  5
62B
100
AcDbEntity
  8
ASSI
100
AcDbLine
 62
250
  6
CONTINUOUS
 10
-69.2660665657
 20
-16.1196592168
 11
-53.9486141592
 21
-16.0265061637
  0
LINE
  5
62C
100
AcDbEntity
  8
RACCORDO
100
AcDbLine
 62
250
  6
CONTINUOUS
 10
-69.2660665657
 20
-17.3594294128
 11
-53.9486141592
 21
-17.2719189938
  0
LINE
  5
62D
100
AcDbEntity
  8
ASSI
100
AcDbLine
 62
250
  6
CONTINUOUS
 10
-69.2660665657
 20
-17.3594294128
 11
-53.9486141592
 21
-17.2719189938
  0
LINE
  5
62E
100
AcDbEntity
  8
0
100
AcDbLine
 62
7
  6
CONTINUOUS
 10
-52.9660665657
 20
-16.7135402888
 11
-52.7660665657
 21
-16.7135402888
  0
LINE
  5
62F
100
AcDbEntity
  8
ASSI
100
AcDbLine
 62
7
  6
CONTINUOUS
 10
-52.9660665657
 20
-16.7135402888
 11
-52.7660665657
 21
-16.7135402888
  0
LINE
  5
630
100
AcDbEntity
  8
0
100
AcDbLine
 62
7
  6
CONTINUOUS
 10
-52.7660665657
 20
-16.1792591692
 11
-52.9660665657
 21
-16.1792591692
  0
LINE
  5
631
100
AcDbEntity
  8
ASSI
100
AcDbLine
 62
7
  6
CONTINUOUS
 10
-52.7660665657
 20
-16.1792591692
 11
-52.9660665657
 21
-16.1792591692
  0
LINE
  5
632
100
AcDbEntity
  8
0
100
AcDbLine
 62
7
  6
CONTINUOUS
 10
-52.9660665657
 20
-16.093627
 11
-52.7660665657
 21
-16.093627
  0
LINE
  5
633
100
AcDbEntity
  8
ASSI
100
AcDbLine
 62
7
  6
CONTINUOUS
 10
-52.9660665657
 20
-16.093627
 11
-52.7660665657
 21
-16.093627
  0
LINE
  5
634
100
AcDbEntity
  8
0
100
AcDbLine
 62
7
  6
CONTINUOUS
 10
-52.9660665657
 20
-16.0587313384
 11
-52.7660665657
 21
-16.0587313384
  0
LINE
  5
635
100
AcDbEntity
  8
ASSI
100
AcDbLine
 62
7
  6
CONTINUOUS
 10
-52.9660665657
 20
-16.0587313384
 11
-52.7660665657
 21
-16.0587313384
  0
LINE
  5
636
100
AcDbEntity
  8
RACCORDO
100
AcDbLine
 62
250
  6
CONTINUOUS
 10
-52.9660665657
 20
-16.0265061637
 11
-53.9486141592
 21
-16.0265061637
  0
LINE
  5
637
100
AcDbEntity
  8
ASSI
100
AcDbLine
 62
250
  6
CONTINUOUS
 10
-52.9660665657
 20
-16.0265061637
 11
-53.9486141592
 21
-16.0265061637
  0
LINE
  5
638
100
AcDbEntity
  8
0
100
AcDbLine
 62
7
  6
CONTINUOUS
 10
-52.9660665657
 20
-15.8755797356
 11
-52.7660665657
 21
-15.8755797356
  0
LINE
  5
639
100
AcDbEntity
  8
ASSI
100
AcDbLine
 62
7
  6
CONTINUOUS
 10
-52.9660665657
 20
-15.8755797356
 11
-52.7660665657
 21
-15.8755797356
  0
LINE
  5
63A
100
AcDbEntity
  8
0
100
AcDbLine
 62
250
  6
CONTINUOUS
 10
-52.9660665657
 20
-15.8571624295
 11
-52.7660665657
 21
-15.8571624295
  0
LINE
  5
63B
100
AcDbEntity
  8
ASSI
100
AcDbLine
 62
250
  6
CONTINUOUS
 10
-52.9660665657
 20
-15.8571624295
 11
-52.7660665657
 21
-15.8571624295
  0
LINE
  5
63C
100
AcDbEntity
  8
0
100
AcDbLine
 62
250
  6
CONTINUOUS
 10
-52.9660665657
 20
-15.7923148725
 11
-52.7660665657
 21
-15.7923148725
  0
LINE
  5
63D
100
AcDbEntity
  8
ASSI
100
AcDbLine
 62
250
  6
CONTINUOUS
 10
-52.9660665657
 20
-15.7923148725
 11
-52.7660665657
 21
-15.7923148725
  0
LINE
  5
63E
100
AcDbEntity
  8
0
100
AcDbLine
 62
250
  6
CONTINUOUS
 10
-52.9660665657
 20
-15.6821963996
 11
-52.7660665657
 21
-15.6821963996
  0
LINE
  5
63F
100
AcDbEntity
  8
ASSI
100
AcDbLine
 62
250
  6
CONTINUOUS
 10
-52.9660665657
 20
-15.6821963996
 11
-52.7660665657
 21
-15.6821963996
  0
LINE
  5
640
100
AcDbEntity
  8
0
100
AcDbLine
 62
250
  6
CONTINUOUS
 10
-52.9660665657
 20
-15.4916236607
 11
-52.7660665657
 21
-15.4916236607
  0
LINE
  5
641
100
AcDbEntity
  8
ASSI
100
AcDbLine
 62
250
  6
CONTINUOUS
 10
-52.9660665657
 20
-15.4916236607
 11
-52.7660665657
 21
-15.4916236607
  0
LINE
  5
642
100
AcDbEntity
  8
0
100
AcDbLine
 62
7
  6
CONTINUOUS
 10
-52.9660665657
 20
-15.4161663264
 11
-52.7660665657
 21
-15.4161663264
  0
LINE
  5
643
100
AcDbEntity
  8
ASSI
100
AcDbLine
 62
7
  6
CONTINUOUS
 10
-52.9660665657
 20
-15.4161663264
 11
-52.7660665657
 21
-15.4161663264
  0
LINE
  5
644
100
AcDbEntity
  8
0
100
AcDbLine
 62
7
  6
CONTINUOUS
 10
-52.9660665657
 20
-15.231991908
 11
-52.7660665657
 21
-15.231991908
  0
LINE
  5
645
100
AcDbEntity
  8
ASSI
100
AcDbLine
 62
7
  6
CONTINUOUS
 10
-52.9660665657
 20
-15.231991908
 11
-52.7660665657
 21
-15.231991908
  0
LINE
  5
646
100
AcDbEntity
  8
0
100
AcDbLine
 62
250
  6
CONTINUOUS
 10
-52.9660665657
 20
-15.1866389924
 11
-52.7660665657
 21
-15.1866389924
  0
LINE
  5
647
100
AcDbEntity
  8
ASSI
100
AcDbLine
 62
250
  6
CONTINUOUS
 10
-52.9660665657
 20
-15.1866389924
 11
-52.7660665657
 21
-15.1866389924
  0
LINE
  5
648
100
AcDbEntity
  8
0
100
AcDbLine
 62
250
  6
CONTINUOUS
 10
-52.9660665657
 20
-15.0396317452
 11
-52.7660665657
 21
-15.0396317452
  0
LINE
  5
649
100
AcDbEntity
  8
ASSI
100
AcDbLine
 62
250
  6
CONTINUOUS
 10
-52.9660665657
 20
-15.0396317452
 11
-52.7660665657
 21
-15.0396317452
  0
LINE
  5
64A
100
AcDbEntity
  8
0
100
AcDbLine
 62
250
  6
CONTINUOUS
 10
-52.9660665657
 20
-14.8955883996
 11
-52.7660665657
 21
-14.8955883996
  0
LINE
  5
64B
100
AcDbEntity
  8
ASSI
100
AcDbLine
 62
250
  6
CONTINUOUS
 10
-52.9660665657
 20
-14.8955883996
 11
-52.7660665657
 21
-14.8955883996
  0
LINE
  5
64C
100
AcDbEntity
  8
RACCORDO
100
AcDbLine
 62
250
  6
CONTINUOUS
 10
-61.3601131619
 20
-21.075847572
 11
-61.3606386295
 21
-21.0088657543
  0
LINE
  5
64D
100
AcDbEntity
  8
ASSI
100
AcDbLine
 62
250
  6
CONTINUOUS
 10
-61.3601131619
 20
-21.075847572
 11
-61.3606386295
 21
-21.0088657543
  0
LINE
  5
64E
100
AcDbEntity
  8
ASSI
100
AcDbLine
 62
7
  6
CONTINUOUS
 10
-63.6660665657
 20
22.2
 11
-63.6660665657
 21
21.1720718961
  0
LINE
  5
64F
100
AcDbEntity
  8
ASSI
100
AcDbLine
 62
7
  6
CONTINUOUS
 10
-63.6660665657
 20
-22.2
 11
-63.6660665657
 21
-21.1720718961
  0
LWPOLYLINE
  5
650
100
AcDbEntity
  8
0
100
AcDbPolyline
 62
7
  6
CONTINUOUS
 90
4
 70
0
 43
0.3500000006
 10
-62.2712870178
 20
32.6785694275
 10
-62.2712870178
 20
33.5357164307
 10
-61.8427180481
 20
33.9642854004
 10
-61.1998600616
 20
33.9642854004
  0
LINE
  5
651
100
AcDbEntity
  8
RACCORDO
100
AcDbLine
 62
250
  6
CONTINUOUS
 10
-61.3600543179
 20
21.1066781932
 11
-61.3601133725
 21
21.0758476394
  0
LINE
  5
652
100
AcDbEntity
  8
ASSI
100
AcDbLine
 62
250
  6
CONTINUOUS
 10
-61.3600543179
 20
21.1066781932
 11
-61.3601133725
 21
21.0758476394
  0
LINE
  5
653
100
AcDbEntity
  8
RACCORDO
100
AcDbLine
 62
250
  6
CONTINUOUS
 10
-61.3601133725
 20
21.0758476394
 11
-61.3606386696
 21
21.0088659244
  0
LINE
  5
654
100
AcDbEntity
  8
ASSI
100
AcDbLine
 62
250
  6
CONTINUOUS
 10
-61.3601133725
 20
21.0758476394
 11
-61.3606386696
 21
21.0088659244
  0
LWPOLYLINE
  5
655
100
AcDbEntity
  8
RACCORDO
100
AcDbPolyline
 62
7
  6
CONTINUOUS
 90
7
 70
0
 10
-57.1751232881
 20
17.0410761601
 10
-57.1724461444
 20
17.0465596804
 10
-57.1702070643
 20
17.0515196882
 10
-57.1684278634
 20
17.0559643292
 10
-57.1671303077
 20
17.0599025752
 10
-57.1663360506
 20
17.0633442473
 10
-57.1660665657
 20
17.0663000373
  0
LWPOLYLINE
  5
656
100
AcDbEntity
  8
ASSI
100
AcDbPolyline
 62
7
  6
CONTINUOUS
 90
7
 70
0
 10
-57.1751232881
 20
17.0410761601
 10
-57.1724461444
 20
17.0465596804
 10
-57.1702070643
 20
17.0515196882
 10
-57.1684278634
 20
17.0559643292
 10
-57.1671303077
 20
17.0599025752
 10
-57.1663360506
 20
17.0633442473
 10
-57.1660665657
 20
17.0663000373
  0
LINE
  5
657
100
AcDbEntity
  8
0
100
AcDbLine
 62
250
  6
CONTINUOUS
 10
-52.9660665657
 20
-14.7999262578
 11
-52.7660665657
 21
-14.7999262578
  0
LINE
  5
658
100
AcDbEntity
  8
ASSI
100
AcDbLine
 62
250
  6
CONTINUOUS
 10
-52.9660665657
 20
-14.7999262578
 11
-52.7660665657
 21
-14.7999262578
  0
LINE
  5
659
100
AcDbEntity
  8
0
100
AcDbLine
 62
7
  6
CONTINUOUS
 10
-52.9660665657
 20
-14.7705321521
 11
-52.7660665657
 21
-14.7705321521
  0
LINE
  5
65A
100
AcDbEntity
  8
ASSI
100
AcDbLine
 62
7
  6
CONTINUOUS
 10
-52.9660665657
 20
-14.7705321521
 11
-52.7660665657
 21
-14.7705321521
  0
LINE
  5
65B
100
AcDbEntity
  8
0
100
AcDbLine
 62
7
  6
CONTINUOUS
 10
-52.9660665657
 20
-14.586357376
 11
-52.7660665657
 21
-14.586357376
  0
LINE
  5
65C
100
AcDbEntity
  8
ASSI
100
AcDbLine
 62
7
  6
CONTINUOUS
 10
-52.9660665657
 20
-14.586357376
 11
-52.7660665657
 21
-14.586357376
  0
LINE
  5
65D
100
AcDbEntity
  8
0
100
AcDbLine
 62
7
  6
CONTINUOUS
 10
-52.9660665657
 20
-14.3131650895
 11
-52.7660665657
 21
-14.3131650895
  0
LINE
  5
65E
100
AcDbEntity
  8
ASSI
100
AcDbLine
 62
7
  6
CONTINUOUS
 10
-52.9660665657
 20
-14.3131650895
 11
-52.7660665657
 21
-14.3131650895
  0
LINE
  5
65F
100
AcDbEntity
  8
0
100
AcDbLine
 62
7
  6
CONTINUOUS
 10
-52.9660665657
 20
-14.1300134867
 11
-52.7660665657
 21
-14.1300134867
  0
LINE
  5
660
100
AcDbEntity
  8
ASSI
100
AcDbLine
 62
7
  6
CONTINUOUS
 10
-52.9660665657
 20
-14.1300134867
 11
-52.7660665657
 21
-14.1300134867
  0
LINE
  5
661
100
AcDbEntity
  8
0
100
AcDbLine
 62
250
  6
CONTINUOUS
 10
-52.9660665657
 20
-14.1115961806
 11
-52.7660665657
 21
-14.1115961806
  0
LINE
  5
662
100
AcDbEntity
  8
ASSI
100
AcDbLine
 62
250
  6
CONTINUOUS
 10
-52.9660665657
 20
-14.1115961806
 11
-52.7660665657
 21
-14.1115961806
  0
LINE
  5
663
100
AcDbEntity
  8
0
100
AcDbLine
 62
250
  6
CONTINUOUS
 10
-52.9660665657
 20
-14.0467486788
 11
-52.7660665657
 21
-14.0467486788
  0
LINE
  5
664
100
AcDbEntity
  8
ASSI
100
AcDbLine
 62
250
  6
CONTINUOUS
 10
-52.9660665657
 20
-14.0467486788
 11
-52.7660665657
 21
-14.0467486788
  0
LINE
  5
665
100
AcDbEntity
  8
0
100
AcDbLine
 62
250
  6
CONTINUOUS
 10
-52.9660665657
 20
-13.9366301507
 11
-52.7660665657
 21
-13.9366301507
  0
LINE
  5
666
100
AcDbEntity
  8
ASSI
100
AcDbLine
 62
250
  6
CONTINUOUS
 10
-52.9660665657
 20
-13.9366301507
 11
-52.7660665657
 21
-13.9366301507
  0
LINE
  5
667
100
AcDbEntity
  8
0
100
AcDbLine
 62
250
  6
CONTINUOUS
 10
-52.9660665657
 20
-13.7460574118
 11
-52.7660665657
 21
-13.7460574118
  0
LINE
  5
668
100
AcDbEntity
  8
ASSI
100
AcDbLine
 62
250
  6
CONTINUOUS
 10
-52.9660665657
 20
-13.7460574118
 11
-52.7660665657
 21
-13.7460574118
  0
LINE
  5
669
100
AcDbEntity
  8
0
100
AcDbLine
 62
7
  6
CONTINUOUS
 10
-52.9660665657
 20
-13.6706004351
 11
-52.7660665657
 21
-13.6706004351
  0
LINE
  5
66A
100
AcDbEntity
  8
ASSI
100
AcDbLine
 62
7
  6
CONTINUOUS
 10
-52.9660665657
 20
-13.6706004351
 11
-52.7660665657
 21
-13.6706004351
  0
LINE
  5
66B
100
AcDbEntity
  8
0
100
AcDbLine
 62
7
  6
CONTINUOUS
 10
-52.9660665657
 20
-13.4864256591
 11
-52.7660665657
 21
-13.4864256591
  0
LINE
  5
66C
100
AcDbEntity
  8
ASSI
100
AcDbLine
 62
7
  6
CONTINUOUS
 10
-52.9660665657
 20
-13.4864256591
 11
-52.7660665657
 21
-13.4864256591
  0
LINE
  5
66D
100
AcDbEntity
  8
0
100
AcDbLine
 62
250
  6
CONTINUOUS
 10
-52.9660665657
 20
-13.4410728681
 11
-52.7660665657
 21
-13.4410728681
  0
LINE
  5
66E
100
AcDbEntity
  8
ASSI
100
AcDbLine
 62
250
  6
CONTINUOUS
 10
-52.9660665657
 20
-13.4410728681
 11
-52.7660665657
 21
-13.4410728681
  0
LINE
  5
66F
100
AcDbEntity
  8
0
100
AcDbLine
 62
250
  6
CONTINUOUS
 10
-52.9660665657
 20
-13.2940654963
 11
-52.7660665657
 21
-13.2940654963
  0
LINE
  5
670
100
AcDbEntity
  8
ASSI
100
AcDbLine
 62
250
  6
CONTINUOUS
 10
-52.9660665657
 20
-13.2940654963
 11
-52.7660665657
 21
-13.2940654963
  0
LINE
  5
671
100
AcDbEntity
  8
0
100
AcDbLine
 62
250
  6
CONTINUOUS
 10
-52.9660665657
 20
-13.1500222569
 11
-52.7660665657
 21
-13.1500222569
  0
LINE
  5
672
100
AcDbEntity
  8
ASSI
100
AcDbLine
 62
250
  6
CONTINUOUS
 10
-52.9660665657
 20
-13.1500222569
 11
-52.7660665657
 21
-13.1500222569
  0
LINE
  5
673
100
AcDbEntity
  8
0
100
AcDbLine
 62
250
  6
CONTINUOUS
 10
-52.9660665657
 20
-13.0543601877
 11
-52.7660665657
 21
-13.0543601877
  0
LINE
  5
674
100
AcDbEntity
  8
ASSI
100
AcDbLine
 62
250
  6
CONTINUOUS
 10
-52.9660665657
 20
-13.0543601877
 11
-52.7660665657
 21
-13.0543601877
  0
LINE
  5
675
100
AcDbEntity
  8
0
100
AcDbLine
 62
7
  6
CONTINUOUS
 10
-52.9660665657
 20
-13.0249659032
 11
-52.7660665657
 21
-13.0249659032
  0
LINE
  5
676
100
AcDbEntity
  8
ASSI
100
AcDbLine
 62
7
  6
CONTINUOUS
 10
-52.9660665657
 20
-13.0249659032
 11
-52.7660665657
 21
-13.0249659032
  0
LINE
  5
677
100
AcDbEntity
  8
0
100
AcDbLine
 62
7
  6
CONTINUOUS
 10
-52.9660665657
 20
-12.8407913059
 11
-52.7660665657
 21
-12.8407913059
  0
LINE
  5
678
100
AcDbEntity
  8
ASSI
100
AcDbLine
 62
7
  6
CONTINUOUS
 10
-52.9660665657
 20
-12.8407913059
 11
-52.7660665657
 21
-12.8407913059
  0
LINE
  5
679
100
AcDbEntity
  8
0
100
AcDbLine
 62
7
  6
CONTINUOUS
 10
-52.9660665657
 20
-12.6023874491
 11
-52.7660665657
 21
-12.6023874491
  0
LINE
  5
67A
100
AcDbEntity
  8
ASSI
100
AcDbLine
 62
7
  6
CONTINUOUS
 10
-52.9660665657
 20
-12.6023874491
 11
-52.7660665657
 21
-12.6023874491
  0
LINE
  5
67B
100
AcDbEntity
  8
0
100
AcDbLine
 62
250
  6
CONTINUOUS
 10
-52.9660665657
 20
-12.5476979499
 11
-52.7660665657
 21
-12.5476979499
  0
LINE
  5
67C
100
AcDbEntity
  8
ASSI
100
AcDbLine
 62
250
  6
CONTINUOUS
 10
-52.9660665657
 20
-12.5476979499
 11
-52.7660665657
 21
-12.5476979499
  0
LINE
  5
67D
100
AcDbEntity
  8
0
100
AcDbLine
 62
250
  6
CONTINUOUS
 10
-52.9660665657
 20
-12.3854706261
 11
-52.7660665657
 21
-12.3854706261
  0
LINE
  5
67E
100
AcDbEntity
  8
ASSI
100
AcDbLine
 62
250
  6
CONTINUOUS
 10
-52.9660665657
 20
-12.3854706261
 11
-52.7660665657
 21
-12.3854706261
  0
LINE
  5
67F
100
AcDbEntity
  8
RACCORDO
100
AcDbLine
 62
250
  6
CONTINUOUS
 10
-59.0824767753
 20
-19.3099544655
 11
-59.0832912847
 21
-19.2093510488
  0
LINE
  5
680
100
AcDbEntity
  8
ASSI
100
AcDbLine
 62
250
  6
CONTINUOUS
 10
-59.0824767753
 20
-19.3099544655
 11
-59.0832912847
 21
-19.2093510488
  0
LINE
  5
681
100
AcDbEntity
  8
RACCORDO
100
AcDbLine
 62
250
  6
CONTINUOUS
 10
-59.0823845567
 20
19.3567137337
 11
-59.082476336
 21
19.3099537054
  0
LINE
  5
682
100
AcDbEntity
  8
ASSI
100
AcDbLine
 62
250
  6
CONTINUOUS
 10
-59.0823845567
 20
19.3567137337
 11
-59.082476336
 21
19.3099537054
  0
LINE
  5
683
100
AcDbEntity
  8
RACCORDO
100
AcDbLine
 62
250
  6
CONTINUOUS
 10
-59.082476336
 20
19.3099537054
 11
-59.0832912847
 21
19.2093510489
  0
LINE
  5
684
100
AcDbEntity
  8
ASSI
100
AcDbLine
 62
250
  6
CONTINUOUS
 10
-59.082476336
 20
19.3099537054
 11
-59.0832912847
 21
19.2093510489
  0
LINE
  5
685
100
AcDbEntity
  8
RACCORDO
100
AcDbLine
 62
250
  6
CONTINUOUS
 10
-56.9639121079
 20
16.8458877204
 11
-56.9848816792
 21
16.7362802547
  0
LINE
  5
686
100
AcDbEntity
  8
ASSI
100
AcDbLine
 62
250
  6
CONTINUOUS
 10
-56.9639121079
 20
16.8458877204
 11
-56.9848816792
 21
16.7362802547
  0
LINE
  5
687
100
AcDbEntity
  8
RACCORDO
100
AcDbLine
 62
250
  6
CONTINUOUS
 10
-56.9848816792
 20
16.7362802547
 11
-57.0106622083
 21
16.6057917929
  0
LINE
  5
688
100
AcDbEntity
  8
ASSI
100
AcDbLine
 62
250
  6
CONTINUOUS
 10
-56.9848816792
 20
16.7362802547
 11
-57.0106622083
 21
16.6057917929
  0
LINE
  5
689
100
AcDbEntity
  8
RACCORDO
100
AcDbLine
 62
250
  6
CONTINUOUS
 10
-57.0106622083
 20
16.6057917929
 11
-57.0566138422
 21
16.3796840136
  0
LINE
  5
68A
100
AcDbEntity
  8
ASSI
100
AcDbLine
 62
250
  6
CONTINUOUS
 10
-57.0106622083
 20
16.6057917929
 11
-57.0566138422
 21
16.3796840136
  0
LWPOLYLINE
  5
68B
100
AcDbEntity
  8
RACCORDO
100
AcDbPolyline
 62
250
  6
CONTINUOUS
 90
3
 70
0
 10
-57.0566138422
 20
16.3796840136
 10
-57.1084899697
 20
16.130932211
 10
-57.1264974214
 20
16.0458769037
  0
LWPOLYLINE
  5
68C
100
AcDbEntity
  8
ASSI
100
AcDbPolyline
 62
250
  6
CONTINUOUS
 90
3
 70
0
 10
-57.0566138422
 20
16.3796840136
 10
-57.1084899697
 20
16.130932211
 10
-57.1264974214
 20
16.0458769037
  0
LINE
  5
68D
100
AcDbEntity
  8
0
100
AcDbLine
 62
250
  6
CONTINUOUS
 10
-52.9660665657
 20
-12.1133014768
 11
-52.7660665657
 21
-12.1133014768
  0
LINE
  5
68E
100
AcDbEntity
  8
ASSI
100
AcDbLine
 62
250
  6
CONTINUOUS
 10
-52.9660665657
 20
-12.1133014768
 11
-52.7660665657
 21
-12.1133014768
  0
LINE
  5
68F
100
AcDbEntity
  8
0
100
AcDbLine
 62
250
  6
CONTINUOUS
 10
-52.9660665657
 20
-11.7722010738
 11
-52.7660665657
 21
-11.7722010738
  0
LINE
  5
690
100
AcDbEntity
  8
ASSI
100
AcDbLine
 62
250
  6
CONTINUOUS
 10
-52.9660665657
 20
-11.7722010738
 11
-52.7660665657
 21
-11.7722010738
  0
LINE
  5
691
100
AcDbEntity
  8
0
100
AcDbLine
 62
7
  6
CONTINUOUS
 10
-52.9660665657
 20
-11.6242155045
 11
-52.7660665657
 21
-11.6242155045
  0
LINE
  5
692
100
AcDbEntity
  8
ASSI
100
AcDbLine
 62
7
  6
CONTINUOUS
 10
-52.9660665657
 20
-11.6242155045
 11
-52.7660665657
 21
-11.6242155045
  0
LINE
  5
693
100
AcDbEntity
  8
0
100
AcDbLine
 62
7
  6
CONTINUOUS
 10
-52.9660665657
 20
-11.5968479029
 11
-52.7660665657
 21
-11.596848
  0
LINE
  5
694
100
AcDbEntity
  8
ASSI
100
AcDbLine
 62
7
  6
CONTINUOUS
 10
-52.9660665657
 20
-11.5968479029
 11
-52.7660665657
 21
-11.596848
  0
LINE
  5
695
100
AcDbEntity
  8
0
100
AcDbLine
 62
7
  6
CONTINUOUS
 10
-52.9660665657
 20
-11.3985587888
 11
-52.7660665657
 21
-11.398559
  0
LINE
  5
696
100
AcDbEntity
  8
ASSI
100
AcDbLine
 62
7
  6
CONTINUOUS
 10
-52.9660665657
 20
-11.3985587888
 11
-52.7660665657
 21
-11.398559
  0
LINE
  5
697
100
AcDbEntity
  8
0
100
AcDbLine
 62
7
  6
CONTINUOUS
 10
-52.9660665657
 20
-11.1525238365
 11
-52.7660665657
 21
-11.1525238365
  0
LINE
  5
698
100
AcDbEntity
  8
ASSI
100
AcDbLine
 62
7
  6
CONTINUOUS
 10
-52.9660665657
 20
-11.1525238365
 11
-52.7660665657
 21
-11.1525238365
  0
LINE
  5
699
100
AcDbEntity
  8
0
100
AcDbLine
 62
7
  6
CONTINUOUS
 10
-52.9660665657
 20
-10.9683492392
 11
-52.7660665657
 21
-10.9683492392
  0
LINE
  5
69A
100
AcDbEntity
  8
ASSI
100
AcDbLine
 62
7
  6
CONTINUOUS
 10
-52.9660665657
 20
-10.9683492392
 11
-52.7660665657
 21
-10.9683492392
  0
LINE
  5
69B
100
AcDbEntity
  8
0
100
AcDbLine
 62
250
  6
CONTINUOUS
 10
-52.9660665657
 20
-10.7936067739
 11
-52.7660665657
 21
-10.7936067739
  0
LINE
  5
69C
100
AcDbEntity
  8
ASSI
100
AcDbLine
 62
250
  6
CONTINUOUS
 10
-52.9660665657
 20
-10.7936067739
 11
-52.7660665657
 21
-10.7936067739
  0
LINE
  5
69D
100
AcDbEntity
  8
0
100
AcDbLine
 62
7
  6
CONTINUOUS
 10
-52.9660665657
 20
-10.6
 11
-52.7660665657
 21
-10.6
  0
LINE
  5
69E
100
AcDbEntity
  8
ASSI
100
AcDbLine
 62
7
  6
CONTINUOUS
 10
-52.9660665657
 20
-10.6
 11
-52.7660665657
 21
-10.6
  0
LINE
  5
69F
100
AcDbEntity
  8
0
100
AcDbLine
 62
7
  6
CONTINUOUS
 10
-52.9660665657
 20
-10.54127
 11
-52.7660665657
 21
-10.54127
  0
LINE
  5
6A0
100
AcDbEntity
  8
ASSI
100
AcDbLine
 62
7
  6
CONTINUOUS
 10
-52.9660665657
 20
-10.54127
 11
-52.7660665657
 21
-10.54127
  0
LINE
  5
6A1
100
AcDbEntity
  8
0
100
AcDbLine
 62
7
  6
CONTINUOUS
 10
-52.9660665657
 20
-10.373672
 11
-52.7660665657
 21
-10.373672
  0
LINE
  5
6A2
100
AcDbEntity
  8
ASSI
100
AcDbLine
 62
7
  6
CONTINUOUS
 10
-52.9660665657
 20
-10.373672
 11
-52.7660665657
 21
-10.373672
  0
LINE
  5
6A3
100
AcDbEntity
  8
0
100
AcDbLine
 62
7
  6
CONTINUOUS
 10
-52.9660665657
 20
-10.3135402888
 11
-52.7660665657
 21
-10.3135402888
  0
LINE
  5
6A4
100
AcDbEntity
  8
ASSI
100
AcDbLine
 62
7
  6
CONTINUOUS
 10
-52.9660665657
 20
-10.3135402888
 11
-52.7660665657
 21
-10.3135402888
  0
LWPOLYLINE
  5
6A5
100
AcDbEntity
  8
RACCORDO
100
AcDbPolyline
 62
250
  6
CONTINUOUS
 90
5
 70
0
 10
-57.6566507012
 20
19.347062273
 10
-57.6567474093
 20
19.3565584574
 10
-57.6568916069
 20
19.3638843557
 10
-57.6570876521
 20
19.3685403989
 10
-57.6573403625
 20
19.3701740732
  0
LWPOLYLINE
  5
6A6
100
AcDbEntity
  8
ASSI
100
AcDbPolyline
 62
250
  6
CONTINUOUS
 90
5
 70
0
 10
-57.6566507012
 20
19.347062273
 10
-57.6567474093
 20
19.3565584574
 10
-57.6568916069
 20
19.3638843557
 10
-57.6570876521
 20
19.3685403989
 10
-57.6573403625
 20
19.3701740732
  0
LINE
  5
6A7
100
AcDbEntity
  8
RACCORDO
100
AcDbLine
 62
250
  6
CONTINUOUS
 10
-57.656574394
 20
19.3219974967
 11
-57.6566507012
 21
19.347062273
  0
LINE
  5
6A8
100
AcDbEntity
  8
ASSI
100
AcDbLine
 62
250
  6
CONTINUOUS
 10
-57.656574394
 20
19.3219974967
 11
-57.6566507012
 21
19.347062273
  0
LWPOLYLINE
  5
6A9
100
AcDbEntity
  8
0
100
AcDbPolyline
 62
7
  6
CONTINUOUS
 90
4
 70
0
 43
0.3500000006
 10
-58.1998591461
 20
34.6071433868
 10
-58.1998591461
 20
35.2500013733
 10
-56.6998586884
 20
35.2500013733
 10
-57.5570011597
 20
32.2500004578
  0
LINE
  5
6AA
100
AcDbEntity
  8
RACCORDO
100
AcDbLine
 62
7
  6
CONTINUOUS
 10
-57.1660665657
 20
17.0663000373
 11
-57.1660665657
 21
18.8702502256
  0
LINE
  5
6AB
100
AcDbEntity
  8
ASSI
100
AcDbLine
 62
7
  6
CONTINUOUS
 10
-57.1660665657
 20
17.0663000373
 11
-57.1660665657
 21
18.8702502256
  0
LINE
  5
6AC
100
AcDbEntity
  8
RACCORDO
100
AcDbLine
 62
250
  6
CONTINUOUS
 10
-57.6570591836
 20
16.2684245296
 11
-57.6573403626
 21
19.1842910252
  0
LINE
  5
6AD
100
AcDbEntity
  8
ASSI
100
AcDbLine
 62
250
  6
CONTINUOUS
 10
-57.6570591836
 20
16.2684245296
 11
-57.6573403626
 21
19.1842910252
  0
LINE
  5
6AE
100
AcDbEntity
  8
RACCORDO
100
AcDbLine
 62
250
  6
CONTINUOUS
 10
-57.6567459715
 20
19.2670932148
 11
-57.656574394
 21
19.3219974967
  0
LINE
  5
6AF
100
AcDbEntity
  8
ASSI
100
AcDbLine
 62
250
  6
CONTINUOUS
 10
-57.6567459715
 20
19.2670932148
 11
-57.656574394
 21
19.3219974967
  0
LINE
  5
6B0
100
AcDbEntity
  8
RACCORDO
100
AcDbLine
 62
250
  6
CONTINUOUS
 10
-57.6573403626
 20
19.1842910255
 11
-57.6567459715
 21
19.2670932148
  0
LINE
  5
6B1
100
AcDbEntity
  8
ASSI
100
AcDbLine
 62
250
  6
CONTINUOUS
 10
-57.6573403626
 20
19.1842910255
 11
-57.6567459715
 21
19.2670932148
  0
LWPOLYLINE
  5
6B2
100
AcDbEntity
  8
RACCORDO
100
AcDbPolyline
 62
250
  6
CONTINUOUS
 90
6
 70
0
 10
-61.3606382459
 20
-21.1318304951
 10
-61.3604060775
 20
-21.1302425495
 10
-61.3602306575
 20
-21.1254978413
 10
-61.3601130971
 20
-21.1176264261
 10
-61.3600541338
 20
-21.1066781658
 10
-61.3601131619
 20
-21.075847572
  0
LWPOLYLINE
  5
6B3
100
AcDbEntity
  8
ASSI
100
AcDbPolyline
 62
250
  6
CONTINUOUS
 90
6
 70
0
 10
-61.3606382459
 20
-21.1318304951
 10
-61.3604060775
 20
-21.1302425495
 10
-61.3602306575
 20
-21.1254978413
 10
-61.3601130971
 20
-21.1176264261
 10
-61.3600541338
 20
-21.1066781658
 10
-61.3601131619
 20
-21.075847572
  0
LINE
  5
6B4
100
AcDbEntity
  8
RACCORDO
100
AcDbLine
 62
250
  6
CONTINUOUS
 10
-53.7775526032
 20
16.2163176355
 11
-53.7929224901
 21
16.1338823987
  0
LINE
  5
6B5
100
AcDbEntity
  8
ASSI
100
AcDbLine
 62
250
  6
CONTINUOUS
 10
-53.7775526032
 20
16.2163176355
 11
-53.7929224901
 21
16.1338823987
  0
LINE
  5
6B6
100
AcDbEntity
  8
RACCORDO
100
AcDbLine
 62
250
  6
CONTINUOUS
 10
-53.7929224901
 20
16.1338823987
 11
-53.8121423149
 21
16.0344707127
  0
LINE
  5
6B7
100
AcDbEntity
  8
ASSI
100
AcDbLine
 62
250
  6
CONTINUOUS
 10
-53.7929224901
 20
16.1338823987
 11
-53.8121423149
 21
16.0344707127
  0
LINE
  5
6B8
100
AcDbEntity
  8
RACCORDO
100
AcDbLine
 62
250
  6
CONTINUOUS
 10
-53.8121423149
 20
16.0344707127
 11
-53.847234726
 21
15.8584490162
  0
LINE
  5
6B9
100
AcDbEntity
  8
ASSI
100
AcDbLine
 62
250
  6
CONTINUOUS
 10
-53.8121423149
 20
16.0344707127
 11
-53.847234726
 21
15.8584490162
  0
LINE
  5
6BA
100
AcDbEntity
  8
RACCORDO
100
AcDbLine
 62
250
  6
CONTINUOUS
 10
-53.847234726
 20
15.8584490162
 11
-53.8882584786
 21
15.6580668168
  0
LINE
  5
6BB
100
AcDbEntity
  8
ASSI
100
AcDbLine
 62
250
  6
CONTINUOUS
 10
-53.847234726
 20
15.8584490162
 11
-53.8882584786
 21
15.6580668168
  0
LINE
  5
6BC
100
AcDbEntity
  8
RACCORDO
100
AcDbLine
 62
250
  6
CONTINUOUS
 10
-53.4726091036
 20
14.3141779498
 11
-53.4461460515
 21
14.4416950622
  0
LINE
  5
6BD
100
AcDbEntity
  8
ASSI
100
AcDbLine
 62
250
  6
CONTINUOUS
 10
-53.4726091036
 20
14.3141779498
 11
-53.4461460515
 21
14.4416950622
  0
LWPOLYLINE
  5
6BE
100
AcDbEntity
  8
RACCORDO
100
AcDbPolyline
 62
250
  6
CONTINUOUS
 90
3
 70
0
 10
-53.8882584786
 20
15.6580668168
 10
-53.9331659207
 20
15.4433259548
 10
-53.9486141592
 20
15.3703969641
  0
LWPOLYLINE
  5
6BF
100
AcDbEntity
  8
ASSI
100
AcDbPolyline
 62
250
  6
CONTINUOUS
 90
3
 70
0
 10
-53.8882584786
 20
15.6580668168
 10
-53.9331659207
 20
15.4433259548
 10
-53.9486141592
 20
15.3703969641
  0
LINE
  5
6C0
100
AcDbEntity
  8
RACCORDO
100
AcDbLine
 62
250
  6
CONTINUOUS
 10
-53.4865920531
 20
14.2479955648
 11
-53.4726091036
 21
14.3141779498
  0
LINE
  5
6C1
100
AcDbEntity
  8
ASSI
100
AcDbLine
 62
250
  6
CONTINUOUS
 10
-53.4865920531
 20
14.2479955648
 11
-53.4726091036
 21
14.3141779498
  0
LINE
  5
6C2
100
AcDbEntity
  8
0
100
AcDbLine
 62
7
  6
CONTINUOUS
 10
-52.9660665657
 20
-9.3135402888
 11
-52.7660665657
 21
-9.3135402888
  0
LINE
  5
6C3
100
AcDbEntity
  8
ASSI
100
AcDbLine
 62
7
  6
CONTINUOUS
 10
-52.9660665657
 20
-9.3135402888
 11
-52.7660665657
 21
-9.3135402888
  0
LINE
  5
6C4
100
AcDbEntity
  8
0
100
AcDbLine
 62
7
  6
CONTINUOUS
 10
-52.9660665657
 20
-8.3135402888
 11
-52.7660665657
 21
-8.3135402888
  0
LINE
  5
6C5
100
AcDbEntity
  8
ASSI
100
AcDbLine
 62
7
  6
CONTINUOUS
 10
-52.9660665657
 20
-8.3135402888
 11
-52.7660665657
 21
-8.3135402888
  0
LWPOLYLINE
  5
6C6
100
AcDbEntity
  8
RACCORDO
100
AcDbPolyline
 62
250
  6
CONTINUOUS
 90
5
 70
0
 10
-61.3606383073
 20
21.1318304962
 10
-61.3604061694
 20
21.1302425522
 10
-61.3602307804
 20
21.1254978484
 10
-61.3601132494
 20
21.1176264412
 10
-61.3600543179
 20
21.1066781932
  0
LWPOLYLINE
  5
6C7
100
AcDbEntity
  8
ASSI
100
AcDbPolyline
 62
250
  6
CONTINUOUS
 90
5
 70
0
 10
-61.3606383073
 20
21.1318304962
 10
-61.3604061694
 20
21.1302425522
 10
-61.3602307804
 20
21.1254978484
 10
-61.3601132494
 20
21.1176264412
 10
-61.3600543179
 20
21.1066781932
  0
LINE
  5
6C8
100
AcDbEntity
  8
RACCORDO
100
AcDbLine
 62
250
  6
CONTINUOUS
 10
-57.1687450661
 20
18.8749398989
 11
-57.1660665657
 21
18.8392697175
  0
LINE
  5
6C9
100
AcDbEntity
  8
ASSI
100
AcDbLine
 62
250
  6
CONTINUOUS
 10
-57.1687450661
 20
18.8749398989
 11
-57.1660665657
 21
18.8392697175
  0
LINE
  5
6CA
100
AcDbEntity
  8
RACCORDO
100
AcDbLine
 62
250
  6
CONTINUOUS
 10
-53.9477961626
 20
-19.2200380708
 11
-53.9486141658
 21
-19.1191114699
  0
LINE
  5
6CB
100
AcDbEntity
  8
ASSI
100
AcDbLine
 62
250
  6
CONTINUOUS
 10
-53.9477961626
 20
-19.2200380708
 11
-53.9486141658
 21
-19.1191114699
  0
LINE
  5
6CC
100
AcDbEntity
  8
RACCORDO
100
AcDbLine
 62
250
  6
CONTINUOUS
 10
-53.9422294408
 20
19.1713823342
 11
-53.9415440017
 21
19.0871942499
  0
LINE
  5
6CD
100
AcDbEntity
  8
ASSI
100
AcDbLine
 62
250
  6
CONTINUOUS
 10
-53.9422294408
 20
19.1713823342
 11
-53.9415440017
 21
19.0871942499
  0
LINE
  5
6CE
100
AcDbEntity
  8
RACCORDO
100
AcDbLine
 62
250
  6
CONTINUOUS
 10
-53.9486141592
 20
-16.0265061637
 11
-53.9477043884
 21
-16.4630122694
  0
LINE
  5
6CF
100
AcDbEntity
  8
ASSI
100
AcDbLine
 62
250
  6
CONTINUOUS
 10
-53.9486141592
 20
-16.0265061637
 11
-53.9477043884
 21
-16.4630122694
  0
LINE
  5
6D0
100
AcDbEntity
  8
RACCORDO
100
AcDbLine
 62
250
  6
CONTINUOUS
 10
-53.9486141592
 20
18.3055903213
 11
-53.9486141592
 21
16.3890279355
  0
LINE
  5
6D1
100
AcDbEntity
  8
ASSI
100
AcDbLine
 62
250
  6
CONTINUOUS
 10
-53.9486141592
 20
18.3055903213
 11
-53.9486141592
 21
16.3890279355
  0
LINE
  5
6D2
100
AcDbEntity
  8
RACCORDO
100
AcDbLine
 62
250
  6
CONTINUOUS
 10
-53.9486142408
 20
8.0342406785
 11
-53.9486141592
 21
-16.0265061637
  0
LINE
  5
6D3
100
AcDbEntity
  8
ASSI
100
AcDbLine
 62
250
  6
CONTINUOUS
 10
-53.9486142408
 20
8.0342406785
 11
-53.9486141592
 21
-16.0265061637
  0
LINE
  5
6D4
100
AcDbEntity
  8
RACCORDO
100
AcDbLine
 62
250
  6
CONTINUOUS
 10
-53.9486141592
 20
14.3462015575
 11
-53.9486141592
 21
15.3703969641
  0
LINE
  5
6D5
100
AcDbEntity
  8
ASSI
100
AcDbLine
 62
250
  6
CONTINUOUS
 10
-53.9486141592
 20
14.3462015575
 11
-53.9486141592
 21
15.3703969641
  0
LINE
  5
6D6
100
AcDbEntity
  8
RACCORDO
100
AcDbLine
 62
250
  6
CONTINUOUS
 10
-53.9415440017
 20
19.0871942499
 11
-53.941406144
 21
18.9855531831
  0
LINE
  5
6D7
100
AcDbEntity
  8
ASSI
100
AcDbLine
 62
250
  6
CONTINUOUS
 10
-53.9415440017
 20
19.0871942499
 11
-53.941406144
 21
18.9855531831
  0
LINE
  5
6D8
100
AcDbEntity
  8
RACCORDO
100
AcDbLine
 62
250
  6
CONTINUOUS
 10
-53.9477043884
 20
-16.4630122694
 11
-53.9476835572
 21
-16.881374159
  0
LINE
  5
6D9
100
AcDbEntity
  8
ASSI
100
AcDbLine
 62
250
  6
CONTINUOUS
 10
-53.9477043884
 20
-16.4630122694
 11
-53.9476835572
 21
-16.881374159
  0
LWPOLYLINE
  5
6DA
100
AcDbEntity
  8
RACCORDO
100
AcDbPolyline
 62
250
  6
CONTINUOUS
 90
3
 70
0
 10
-53.9476835572
 20
-16.881374159
 10
-53.9482844194
 20
-17.1780342501
 10
-53.9486141592
 20
-19.1191114698
  0
LWPOLYLINE
  5
6DB
100
AcDbEntity
  8
ASSI
100
AcDbPolyline
 62
250
  6
CONTINUOUS
 90
3
 70
0
 10
-53.9476835572
 20
-16.881374159
 10
-53.9482844194
 20
-17.1780342501
 10
-53.9486141592
 20
-19.1191114698
  0
LINE
  5
6DC
100
AcDbEntity
  8
RACCORDO
100
AcDbLine
 62
250
  6
CONTINUOUS
 10
-53.941406144
 20
18.9855531831
 11
-53.9422294408
 21
18.8054262758
  0
LINE
  5
6DD
100
AcDbEntity
  8
ASSI
100
AcDbLine
 62
250
  6
CONTINUOUS
 10
-53.941406144
 20
18.9855531831
 11
-53.9422294408
 21
18.8054262758
  0
LINE
  5
6DE
100
AcDbEntity
  8
RACCORDO
100
AcDbLine
 62
250
  6
CONTINUOUS
 10
-53.9422294408
 20
18.8054262758
 11
-53.944247569
 21
18.6002451849
  0
LINE
  5
6DF
100
AcDbEntity
  8
ASSI
100
AcDbLine
 62
250
  6
CONTINUOUS
 10
-53.9422294408
 20
18.8054262758
 11
-53.944247569
 21
18.6002451849
  0
LWPOLYLINE
  5
6E0
100
AcDbEntity
  8
RACCORDO
100
AcDbPolyline
 62
250
  6
CONTINUOUS
 90
3
 70
0
 10
-53.944247569
 20
18.6002451849
 10
-53.9473593704
 20
18.3802945749
 10
-53.9486141592
 20
18.3055903213
  0
LWPOLYLINE
  5
6E1
100
AcDbEntity
  8
ASSI
100
AcDbPolyline
 62
250
  6
CONTINUOUS
 90
3
 70
0
 10
-53.944247569
 20
18.6002451849
 10
-53.9473593704
 20
18.3802945749
 10
-53.9486141592
 20
18.3055903213
  0
LWPOLYLINE
  5
6E2
100
AcDbEntity
  8
RACCORDO
100
AcDbPolyline
 62
250
  6
CONTINUOUS
 90
29
 70
0
 10
-53.5972315904
 20
13.34307253
 10
-53.6191513552
 20
13.1503753142
 10
-53.6406609902
 20
12.9560182849
 10
-53.6618242731
 20
12.7595788373
 10
-53.682454849
 20
12.5622734084
 10
-53.7025278352
 20
12.3642825914
 10
-53.7220681144
 20
12.1654257931
 10
-53.7409639794
 20
11.9663776712
 10
-53.7592311701
 20
11.7668697696
 10
-53.7768539467
 20
11.5671705443
 10
-53.7936733829
 20
11.3687600209
 10
-53.809681582
 20
11.171486532
 10
-53.8248864407
 20
10.9755017451
 10
-53.8391527233
 20
10.7827406885
 10
-53.8524267906
 20
10.593735911
 10
-53.8647622817
 20
10.407954864
 10
-53.8761848777
 20
10.2257349297
 10
-53.8866529343
 20
10.0480777889
 10
-53.8962080958
 20
9.8739817609
 10
-53.9050009769
 20
9.7007791857
 10
-53.9130703669
 20
9.5289769838
 10
-53.9203774764
 20
9.3580682348
 10
-53.9269565523
 20
9.183864517
 10
-53.9329151789
 20
9.0059634062
 10
-53.938145772
 20
8.8247673266
 10
-53.9423598254
 20
8.6372951289
 10
-53.9454611703
 20
8.4425530968
 10
-53.9475459754
 20
8.2415349467
 10
-53.9486142408
 20
8.0342406785
  0
LWPOLYLINE
  5
6E3
100
AcDbEntity
  8
ASSI
100
AcDbPolyline
 62
250
  6
CONTINUOUS
 90
29
 70
0
 10
-53.5972315904
 20
13.34307253
 10
-53.6191513552
 20
13.1503753142
 10
-53.6406609902
 20
12.9560182849
 10
-53.6618242731
 20
12.7595788373
 10
-53.682454849
 20
12.5622734084
 10
-53.7025278352
 20
12.3642825914
 10
-53.7220681144
 20
12.1654257931
 10
-53.7409639794
 20
11.9663776712
 10
-53.7592311701
 20
11.7668697696
 10
-53.7768539467
 20
11.5671705443
 10
-53.7936733829
 20
11.3687600209
 10
-53.809681582
 20
11.171486532
 10
-53.8248864407
 20
10.9755017451
 10
-53.8391527233
 20
10.7827406885
 10
-53.8524267906
 20
10.593735911
 10
-53.8647622817
 20
10.407954864
 10
-53.8761848777
 20
10.2257349297
 10
-53.8866529343
 20
10.0480777889
 10
-53.8962080958
 20
9.8739817609
 10
-53.9050009769
 20
9.7007791857
 10
-53.9130703669
 20
9.5289769838
 10
-53.9203774764
 20
9.3580682348
 10
-53.9269565523
 20
9.183864517
 10
-53.9329151789
 20
9.0059634062
 10
-53.938145772
 20
8.8247673266
 10
-53.9423598254
 20
8.6372951289
 10
-53.9454611703
 20
8.4425530968
 10
-53.9475459754
 20
8.2415349467
 10
-53.9486142408
 20
8.0342406785
  0
LWPOLYLINE
  5
6E4
100
AcDbEntity
  8
RACCORDO
100
AcDbPolyline
 62
250
  6
CONTINUOUS
 90
12
 70
0
 10
-52.737011285
 20
14.1197765963
 10
-52.731758166
 20
14.160931851
 10
-52.7292073916
 20
14.2021411398
 10
-52.7293765998
 20
14.2431194505
 10
-52.7322646157
 20
14.2835833647
 10
-52.7378514614
 20
14.3232530313
 10
-52.7460984967
 20
14.3618541008
 10
-52.7569486843
 20
14.3991196079
 10
-52.7703269801
 20
14.4347918109
 10
-52.7861408528
 20
14.4686239883
 10
-52.8042809327
 20
14.5003821593
 10
-52.8246217541
 20
14.5298466731
  0
LWPOLYLINE
  5
6E5
100
AcDbEntity
  8
ASSI
100
AcDbPolyline
 62
250
  6
CONTINUOUS
 90
12
 70
0
 10
-52.737011285
 20
14.1197765963
 10
-52.731758166
 20
14.160931851
 10
-52.7292073916
 20
14.2021411398
 10
-52.7293765998
 20
14.2431194505
 10
-52.7322646157
 20
14.2835833647
 10
-52.7378514614
 20
14.3232530313
 10
-52.7460984967
 20
14.3618541008
 10
-52.7569486843
 20
14.3991196079
 10
-52.7703269801
 20
14.4347918109
 10
-52.7861408528
 20
14.4686239883
 10
-52.8042809327
 20
14.5003821593
 10
-52.8246217541
 20
14.5298466731
  0
LWPOLYLINE
  5
6E6
100
AcDbEntity
  8
RACCORDO
100
AcDbPolyline
 62
250
  6
CONTINUOUS
 90
5
 70
0
 10
-53.4865920543
 20
14.2479955651
 10
-53.5086069311
 20
14.0764755318
 10
-53.5306531438
 20
13.9003888284
 10
-53.5527306926
 20
13.719735455
 10
-53.5972315904
 20
13.34307253
  0
LWPOLYLINE
  5
6E7
100
AcDbEntity
  8
ASSI
100
AcDbPolyline
 62
250
  6
CONTINUOUS
 90
5
 70
0
 10
-53.4865920543
 20
14.2479955651
 10
-53.5086069311
 20
14.0764755318
 10
-53.5306531438
 20
13.9003888284
 10
-53.5527306926
 20
13.719735455
 10
-53.5972315904
 20
13.34307253
  0
LWPOLYLINE
  5
6E8
100
AcDbEntity
  8
RACCORDO
100
AcDbPolyline
 62
250
  6
CONTINUOUS
 90
6
 70
0
 10
-59.0832912832
 20
-19.3950641391
 10
-59.0829317159
 20
-19.392637679
 10
-59.0826594861
 20
-19.3853918735
 10
-59.0824767819
 20
-19.373385133
 10
-59.0823850569
 20
-19.3567142762
 10
-59.0824767753
 20
-19.3099544655
  0
LWPOLYLINE
  5
6E9
100
AcDbEntity
  8
ASSI
100
AcDbPolyline
 62
250
  6
CONTINUOUS
 90
6
 70
0
 10
-59.0832912832
 20
-19.3950641391
 10
-59.0829317159
 20
-19.392637679
 10
-59.0826594861
 20
-19.3853918735
 10
-59.0824767819
 20
-19.373385133
 10
-59.0823850569
 20
-19.3567142762
 10
-59.0824767753
 20
-19.3099544655
  0
LWPOLYLINE
  5
6EA
100
AcDbEntity
  8
RACCORDO
100
AcDbPolyline
 62
250
  6
CONTINUOUS
 90
16
 70
0
 10
-52.5555149726
 20
14.0482343726
 10
-52.5462632272
 20
14.0996991751
 10
-52.5403418373
 20
14.151286529
 10
-52.5378156883
 20
14.202431242
 10
-52.5387124677
 20
14.2525729623
 10
-52.5430223603
 20
14.3011623361
 10
-52.5506981598
 20
14.3476670245
 10
-52.5616557825
 20
14.3915775049
 10
-52.5757751894
 20
14.4324126775
 10
-52.592901708
 20
14.469725148
 10
-52.6128477142
 20
14.5031060935
 10
-52.635394689
 20
14.5321897576
 10
-52.6602956227
 20
14.5566574719
 10
-52.6872777093
 20
14.5762411298
 10
-52.7160453326
 20
14.5907261295
 10
-52.7462833123
 20
14.5999537324
  0
LWPOLYLINE
  5
6EB
100
AcDbEntity
  8
ASSI
100
AcDbPolyline
 62
250
  6
CONTINUOUS
 90
16
 70
0
 10
-52.5555149726
 20
14.0482343726
 10
-52.5462632272
 20
14.0996991751
 10
-52.5403418373
 20
14.151286529
 10
-52.5378156883
 20
14.202431242
 10
-52.5387124677
 20
14.2525729623
 10
-52.5430223603
 20
14.3011623361
 10
-52.5506981598
 20
14.3476670245
 10
-52.5616557825
 20
14.3915775049
 10
-52.5757751894
 20
14.4324126775
 10
-52.592901708
 20
14.469725148
 10
-52.6128477142
 20
14.5031060935
 10
-52.635394689
 20
14.5321897576
 10
-52.6602956227
 20
14.5566574719
 10
-52.6872777093
 20
14.5762411298
 10
-52.7160453326
 20
14.5907261295
 10
-52.7462833123
 20
14.5999537324
  0
LINE
  5
6EC
100
AcDbEntity
  8
RACCORDO
100
AcDbLine
 62
250
  6
CONTINUOUS
 10
-53.4285650661
 20
14.5284998782
 11
-53.4137418175
 21
14.6037163787
  0
LINE
  5
6ED
100
AcDbEntity
  8
ASSI
100
AcDbLine
 62
250
  6
CONTINUOUS
 10
-53.4285650661
 20
14.5284998782
 11
-53.4137418175
 21
14.6037163787
  0
LINE
  5
6EE
100
AcDbEntity
  8
RACCORDO
100
AcDbLine
 62
250
  6
CONTINUOUS
 10
-53.4461460515
 20
14.4416950622
 11
-53.4285650661
 21
14.5284998782
  0
LINE
  5
6EF
100
AcDbEntity
  8
ASSI
100
AcDbLine
 62
250
  6
CONTINUOUS
 10
-53.4461460515
 20
14.4416950622
 11
-53.4285650661
 21
14.5284998782
  0
LINE
  5
6F0
100
AcDbEntity
  8
0
100
AcDbLine
 62
7
  6
CONTINUOUS
 10
-52.9660665657
 20
14.8743866839
 11
-52.9403106743
 21
14.9955586261
  0
LINE
  5
6F1
100
AcDbEntity
  8
SMUSSO
100
AcDbLine
 62
7
  6
CONTINUOUS
 10
-52.8852192383
 20
4.2289062134
 11
-52.9660665657
 21
4.1567759695
  0
LINE
  5
6F2
100
AcDbEntity
  8
ASSI
100
AcDbLine
 62
7
  6
CONTINUOUS
 10
-52.8852192383
 20
4.2289062134
 11
-52.9660665657
 21
4.1567759695
  0
LINE
  5
6F3
100
AcDbEntity
  8
SMUSSO
100
AcDbLine
 62
7
  6
CONTINUOUS
 10
-52.9660665657
 20
3.9018721928
 11
-52.5710460508
 21
4.2275027956
  0
LINE
  5
6F4
100
AcDbEntity
  8
ASSI
100
AcDbLine
 62
7
  6
CONTINUOUS
 10
-52.9660665657
 20
3.9018721928
 11
-52.5710460508
 21
4.2275027956
  0
LINE
  5
6F5
100
AcDbEntity
  8
ASSI
100
AcDbLine
 62
7
  6
CONTINUOUS
 10
-52.9660665657
 20
-5.746631
 11
-52.7660665657
 21
-5.746631
  0
LWPOLYLINE
  5
6F6
100
AcDbEntity
  8
RACCORDO
100
AcDbPolyline
 62
250
  6
CONTINUOUS
 90
8
 70
0
 10
-56.936038137
 20
17.0240245045
 10
-56.9353736734
 20
17.020010895
 10
-56.9362892796
 20
17.0086177284
 10
-56.9387780193
 20
16.9899313134
 10
-56.9428210393
 20
16.9640932092
 10
-56.9483877114
 20
16.9312991524
 10
-56.9554358654
 20
16.8917975747
 10
-56.9639121079
 20
16.8458877204
  0
LWPOLYLINE
  5
6F7
100
AcDbEntity
  8
ASSI
100
AcDbPolyline
 62
250
  6
CONTINUOUS
 90
8
 70
0
 10
-56.936038137
 20
17.0240245045
 10
-56.9353736734
 20
17.020010895
 10
-56.9362892796
 20
17.0086177284
 10
-56.9387780193
 20
16.9899313134
 10
-56.9428210393
 20
16.9640932092
 10
-56.9483877114
 20
16.9312991524
 10
-56.9554358654
 20
16.8917975747
 10
-56.9639121079
 20
16.8458877204
  0
LWPOLYLINE
  5
6F8
100
AcDbEntity
  8
RACCORDO
100
AcDbPolyline
 62
250
  6
CONTINUOUS
 90
5
 70
0
 10
-59.0832912831
 20
19.3950641391
 10
-59.0829315346
 20
19.3926376245
 10
-59.0826591531
 20
19.3853916866
 10
-59.0824763356
 20
19.3733847729
 10
-59.0823845567
 20
19.3567137337
  0
LWPOLYLINE
  5
6F9
100
AcDbEntity
  8
ASSI
100
AcDbPolyline
 62
250
  6
CONTINUOUS
 90
5
 70
0
 10
-59.0832912831
 20
19.3950641391
 10
-59.0829315346
 20
19.3926376245
 10
-59.0826591531
 20
19.3853916866
 10
-59.0824763356
 20
19.3733847729
 10
-59.0823845567
 20
19.3567137337
  0
LWPOLYLINE
  5
6FA
100
AcDbEntity
  8
SMUSSO
100
AcDbPolyline
 62
7
  6
CONTINUOUS
 90
10
 70
0
 10
-52.9660668172
 20
4.3261826512
 10
-52.9650716675
 20
4.3155140632
 10
-52.9620843806
 20
4.304855698
 10
-52.957105225
 20
4.2941785211
 10
-52.9501504647
 20
4.2834186843
 10
-52.9412224975
 20
4.2725799847
 10
-52.9302804442
 20
4.2617331996
 10
-52.9172940768
 20
4.2508790777
 10
-52.902273456
 20
4.2399489069
 10
-52.8852186737
 20
4.2289063066
  0
LWPOLYLINE
  5
6FB
100
AcDbEntity
  8
ASSI
100
AcDbPolyline
 62
7
  6
CONTINUOUS
 90
10
 70
0
 10
-52.9660668172
 20
4.3261826512
 10
-52.9650716675
 20
4.3155140632
 10
-52.9620843806
 20
4.304855698
 10
-52.957105225
 20
4.2941785211
 10
-52.9501504647
 20
4.2834186843
 10
-52.9412224975
 20
4.2725799847
 10
-52.9302804442
 20
4.2617331996
 10
-52.9172940768
 20
4.2508790777
 10
-52.902273456
 20
4.2399489069
 10
-52.8852186737
 20
4.2289063066
  0
LINE
  5
6FC
100
AcDbEntity
  8
RACCORDO
100
AcDbLine
 62
7
  6
CONTINUOUS
 10
-52.9660665657
 20
18.3055903213
 11
-52.9660665657
 21
14.646670105
  0
LINE
  5
6FD
100
AcDbEntity
  8
ASSI
100
AcDbLine
 62
7
  6
CONTINUOUS
 10
-52.9660665657
 20
18.3055903213
 11
-52.9660665657
 21
14.646670105
  0
LINE
  5
6FE
100
AcDbEntity
  8
RACCORDO
100
AcDbLine
 62
7
  6
CONTINUOUS
 10
-52.9660665657
 20
8.0342406719
 11
-52.9660665657
 21
-18.3055903213
  0
LINE
  5
6FF
100
AcDbEntity
  8
ASSI
100
AcDbLine
 62
7
  6
CONTINUOUS
 10
-52.9660665657
 20
8.0342406719
 11
-52.9660665657
 21
-18.3055903213
  0
LINE
  5
700
100
AcDbEntity
  8
0
100
AcDbLine
 62
7
  6
CONTINUOUS
 10
-52.7660665657
 20
-8.3135402888
 11
-52.7660665657
 21
-10.373672
  0
LINE
  5
701
100
AcDbEntity
  8
ASSI
100
AcDbLine
 62
7
  6
CONTINUOUS
 10
-52.7660665657
 20
-5.746631
 11
-52.7660665657
 21
-10.373672
  0
LINE
  5
702
100
AcDbEntity
  8
0
100
AcDbLine
 62
7
  6
CONTINUOUS
 10
-52.7660665657
 20
-10.54127
 11
-52.7660665657
 21
-11.5968479029
  0
LINE
  5
703
100
AcDbEntity
  8
ASSI
100
AcDbLine
 62
7
  6
CONTINUOUS
 10
-52.7660665657
 20
-10.54127
 11
-52.7660665657
 21
-11.5968479029
  0
LINE
  5
704
100
AcDbEntity
  8
0
100
AcDbLine
 62
7
  6
CONTINUOUS
 10
-52.7660665657
 20
-12.6046259488
 11
-52.7660665657
 21
-13.0249659032
  0
LINE
  5
705
100
AcDbEntity
  8
0
100
AcDbLine
 62
7
  6
CONTINUOUS
 10
-52.7660665657
 20
-11.6276394064
 11
-52.7660665657
 21
-12.6023874491
  0
LINE
  5
706
100
AcDbEntity
  8
ASSI
100
AcDbLine
 62
7
  6
CONTINUOUS
 10
-52.7660665657
 20
-11.6276394064
 11
-52.7660665657
 21
-13.0249659032
  0
LINE
  5
707
100
AcDbEntity
  8
0
100
AcDbLine
 62
7
  6
CONTINUOUS
 10
-52.7660665657
 20
-13.0543601877
 11
-52.7660665657
 21
-14.7705321521
  0
LINE
  5
708
100
AcDbEntity
  8
ASSI
100
AcDbLine
 62
7
  6
CONTINUOUS
 10
-52.7660665657
 20
-13.0543601877
 11
-52.7660665657
 21
-14.7705321521
  0
LINE
  5
709
100
AcDbEntity
  8
0
100
AcDbLine
 62
7
  6
CONTINUOUS
 10
-52.7660665657
 20
-14.7999262578
 11
-52.7660665657
 21
-16.093627
  0
LINE
  5
70A
100
AcDbEntity
  8
ASSI
100
AcDbLine
 62
7
  6
CONTINUOUS
 10
-52.7660665657
 20
-14.7999262578
 11
-52.7660665657
 21
-16.093627
  0
LINE
  5
70B
100
AcDbEntity
  8
0
100
AcDbLine
 62
7
  6
CONTINUOUS
 10
-52.7660665657
 20
-16.1797006955
 11
-52.7660665657
 21
-18.7135402888
  0
LINE
  5
70C
100
AcDbEntity
  8
ASSI
100
AcDbLine
 62
7
  6
CONTINUOUS
 10
-52.7660665657
 20
-16.1797006955
 11
-52.7660665657
 21
-18.7135402888
  0
LINE
  5
70D
100
AcDbEntity
  8
RACCORDO
100
AcDbLine
 62
7
  6
CONTINUOUS
 10
-52.4660665657
 20
4.5912724675
 11
-52.4660665657
 21
-4.5912724675
  0
LINE
  5
70E
100
AcDbEntity
  8
ASSI
100
AcDbLine
 62
7
  6
CONTINUOUS
 10
-52.4660665657
 20
4.5912724675
 11
-52.4660665657
 21
-4.5912724675
  0
LWPOLYLINE
  5
70F
100
AcDbEntity
  8
RACCORDO
100
AcDbPolyline
 62
250
  6
CONTINUOUS
 90
6
 70
0
 10
-52.9568538448
 20
9.0573543656
 10
-52.9598453301
 20
8.86674062
 10
-52.9623726659
 20
8.6695153165
 10
-52.9643418928
 20
8.4643955371
 10
-52.9656140699
 20
8.2526410354
 10
-52.9660667289
 20
8.0342406752
  0
LWPOLYLINE
  5
710
100
AcDbEntity
  8
ASSI
100
AcDbPolyline
 62
250
  6
CONTINUOUS
 90
6
 70
0
 10
-52.9568538448
 20
9.0573543656
 10
-52.9598453301
 20
8.86674062
 10
-52.9623726659
 20
8.6695153165
 10
-52.9643418928
 20
8.4643955371
 10
-52.9656140699
 20
8.2526410354
 10
-52.9660667289
 20
8.0342406752
  0
LINE
  5
711
100
AcDbEntity
  8
RACCORDO
100
AcDbLine
 62
250
  6
CONTINUOUS
 10
-52.9495238007
 20
9.4297553119
 11
-52.9568538448
 21
9.0573543656
  0
LINE
  5
712
100
AcDbEntity
  8
ASSI
100
AcDbLine
 62
250
  6
CONTINUOUS
 10
-52.9495238007
 20
9.4297553119
 11
-52.9568538448
 21
9.0573543656
  0
LINE
  5
713
100
AcDbEntity
  8
RACCORDO
100
AcDbLine
 62
250
  6
CONTINUOUS
 10
-52.9405740439
 20
9.7957557101
 11
-52.9495238007
 21
9.4297553119
  0
LINE
  5
714
100
AcDbEntity
  8
ASSI
100
AcDbLine
 62
250
  6
CONTINUOUS
 10
-52.9405740439
 20
9.7957557101
 11
-52.9495238007
 21
9.4297553119
  0
LINE
  5
715
100
AcDbEntity
  8
RACCORDO
100
AcDbLine
 62
250
  6
CONTINUOUS
 10
-52.9296737969
 20
10.1732146924
 11
-52.9405740439
 21
9.7957557101
  0
LINE
  5
716
100
AcDbEntity
  8
ASSI
100
AcDbLine
 62
250
  6
CONTINUOUS
 10
-52.9296737969
 20
10.1732146924
 11
-52.9405740439
 21
9.7957557101
  0
LINE
  5
717
100
AcDbEntity
  8
RACCORDO
100
AcDbLine
 62
250
  6
CONTINUOUS
 10
-52.5555149895
 20
14.0482343132
 11
-52.8852192305
 21
4.228906213
  0
LINE
  5
718
100
AcDbEntity
  8
ASSI
100
AcDbLine
 62
250
  6
CONTINUOUS
 10
-52.5555149895
 20
14.0482343132
 11
-52.8852192305
 21
4.228906213
  0
LINE
  5
719
100
AcDbEntity
  8
RACCORDO
100
AcDbLine
 62
250
  6
CONTINUOUS
 10
-52.9165745345
 20
10.5690378223
 11
-52.9296737969
 21
10.1732146924
  0
LINE
  5
71A
100
AcDbEntity
  8
ASSI
100
AcDbLine
 62
250
  6
CONTINUOUS
 10
-52.9165745345
 20
10.5690378223
 11
-52.9296737969
 21
10.1732146924
  0
LINE
  5
71B
100
AcDbEntity
  8
RACCORDO
100
AcDbLine
 62
250
  6
CONTINUOUS
 10
-52.901148571
 20
10.9837474621
 11
-52.9165745345
 21
10.5690378223
  0
LINE
  5
71C
100
AcDbEntity
  8
ASSI
100
AcDbLine
 62
250
  6
CONTINUOUS
 10
-52.901148571
 20
10.9837474621
 11
-52.9165745345
 21
10.5690378223
  0
LINE
  5
71D
100
AcDbEntity
  8
RACCORDO
100
AcDbLine
 62
250
  6
CONTINUOUS
 10
-52.8835861398
 20
11.4105553444
 11
-52.901148571
 21
10.9837474621
  0
LINE
  5
71E
100
AcDbEntity
  8
ASSI
100
AcDbLine
 62
250
  6
CONTINUOUS
 10
-52.8835861398
 20
11.4105553444
 11
-52.901148571
 21
10.9837474621
  0
LWPOLYLINE
  5
71F
100
AcDbEntity
  8
RACCORDO
100
AcDbPolyline
 62
250
  6
CONTINUOUS
 90
22
 70
0
 10
-52.9660665657
 20
-18.3055903212
 10
-52.9688068011
 20
-18.3656736813
 10
-52.9770296451
 20
-18.4254535806
 10
-52.9907155367
 20
-18.4846488408
 10
-53.0098310452
 20
-18.5430724654
 10
-53.0342868955
 20
-18.6003488599
 10
-53.0638980381
 20
-18.6559235725
 10
-53.0984683471
 20
-18.7094932055
 10
-53.1378107879
 20
-18.7608504359
 10
-53.181669007
 20
-18.8096100516
 10
-53.2297698814
 20
-18.8555322173
 10
-53.2818431512
 20
-18.8984264146
 10
-53.3375976584
 20
-18.9380044766
 10
-53.3967184329
 20
-18.9740795019
 10
-53.4588691011
 20
-19.0064997711
 10
-53.5237041768
 20
-19.0350534215
 10
-53.5908520497
 20
-19.059603649
 10
-53.6599515672
 20
-19.0800599343
 10
-53.7306604473
 20
-19.0963027018
 10
-53.8026070667
 20
-19.1082496436
 10
-53.8753893576
 20
-19.1158622342
 10
-53.9486141592
 20
-19.1191114698
  0
LWPOLYLINE
  5
720
100
AcDbEntity
  8
ASSI
100
AcDbPolyline
 62
250
  6
CONTINUOUS
 90
22
 70
0
 10
-52.9660665657
 20
-18.3055903212
 10
-52.9688068011
 20
-18.3656736813
 10
-52.9770296451
 20
-18.4254535806
 10
-52.9907155367
 20
-18.4846488408
 10
-53.0098310452
 20
-18.5430724654
 10
-53.0342868955
 20
-18.6003488599
 10
-53.0638980381
 20
-18.6559235725
 10
-53.0984683471
 20
-18.7094932055
 10
-53.1378107879
 20
-18.7608504359
 10
-53.181669007
 20
-18.8096100516
 10
-53.2297698814
 20
-18.8555322173
 10
-53.2818431512
 20
-18.8984264146
 10
-53.3375976584
 20
-18.9380044766
 10
-53.3967184329
 20
-18.9740795019
 10
-53.4588691011
 20
-19.0064997711
 10
-53.5237041768
 20
-19.0350534215
 10
-53.5908520497
 20
-19.059603649
 10
-53.6599515672
 20
-19.0800599343
 10
-53.7306604473
 20
-19.0963027018
 10
-53.8026070667
 20
-19.1082496436
 10
-53.8753893576
 20
-19.1158622342
 10
-53.9486141592
 20
-19.1191114698
  0
LINE
  5
721
100
AcDbEntity
  8
RACCORDO
100
AcDbLine
 62
250
  6
CONTINUOUS
 10
-52.8642243151
 20
11.8412076687
 11
-52.8835861398
 21
11.4105553444
  0
LINE
  5
722
100
AcDbEntity
  8
ASSI
100
AcDbLine
 62
250
  6
CONTINUOUS
 10
-52.8642243151
 20
11.8412076687
 11
-52.8835861398
 21
11.4105553444
  0
LINE
  5
723
100
AcDbEntity
  8
RACCORDO
100
AcDbLine
 62
250
  6
CONTINUOUS
 10
-52.8432927919
 20
12.2722746376
 11
-52.8642243151
 21
11.8412076687
  0
LINE
  5
724
100
AcDbEntity
  8
ASSI
100
AcDbLine
 62
250
  6
CONTINUOUS
 10
-52.8432927919
 20
12.2722746376
 11
-52.8642243151
 21
11.8412076687
  0
LINE
  5
725
100
AcDbEntity
  8
RACCORDO
100
AcDbLine
 62
250
  6
CONTINUOUS
 10
-52.8209595369
 20
12.7015888833
 11
-52.8432927919
 21
12.2722746376
  0
LINE
  5
726
100
AcDbEntity
  8
ASSI
100
AcDbLine
 62
250
  6
CONTINUOUS
 10
-52.8209595369
 20
12.7015888833
 11
-52.8432927919
 21
12.2722746376
  0
LINE
  5
727
100
AcDbEntity
  8
RACCORDO
100
AcDbLine
 62
250
  6
CONTINUOUS
 10
-52.7974884493
 20
13.1254183557
 11
-52.8209595369
 21
12.7015888833
  0
LINE
  5
728
100
AcDbEntity
  8
ASSI
100
AcDbLine
 62
250
  6
CONTINUOUS
 10
-52.7974884493
 20
13.1254183557
 11
-52.8209595369
 21
12.7015888833
  0
LINE
  5
729
100
AcDbEntity
  8
RACCORDO
100
AcDbLine
 62
250
  6
CONTINUOUS
 10
-52.7732416505
 20
13.5393006961
 11
-52.7974884493
 21
13.1254183557
  0
LINE
  5
72A
100
AcDbEntity
  8
ASSI
100
AcDbLine
 62
250
  6
CONTINUOUS
 10
-52.7732416505
 20
13.5393006961
 11
-52.7974884493
 21
13.1254183557
  0
LWPOLYLINE
  5
72B
100
AcDbEntity
  8
RACCORDO
100
AcDbPolyline
 62
250
  6
CONTINUOUS
 90
3
 70
0
 10
-52.7370101861
 20
14.1197764765
 10
-52.7490513076
 20
13.9312466985
 10
-52.7732416505
 20
13.5393006961
  0
LWPOLYLINE
  5
72C
100
AcDbEntity
  8
ASSI
100
AcDbPolyline
 62
250
  6
CONTINUOUS
 90
3
 70
0
 10
-52.7370101861
 20
14.1197764765
 10
-52.7490513076
 20
13.9312466985
 10
-52.7732416505
 20
13.5393006961
  0
LWPOLYLINE
  5
72D
100
AcDbEntity
  8
RACCORDO
100
AcDbPolyline
 62
250
  6
CONTINUOUS
 90
19
 70
0
 10
-52.9660665657
 20
-16.6492125788
 10
-52.9697878262
 20
-16.7028916657
 10
-52.9809239126
 20
-16.756171246
 10
-52.9993919448
 20
-16.8086547852
 10
-53.0250544744
 20
-16.8599516734
 10
-53.0577205079
 20
-16.9096801323
 10
-53.097146928
 20
-16.9574700564
 10
-53.1430403031
 20
-17.0029657681
 10
-53.195059071
 20
-17.0458286644
 10
-53.252816081
 20
-17.0857397369
 10
-53.3158814753
 20
-17.1224019464
 10
-53.3837858886
 20
-17.1555424333
 10
-53.4560239406
 20
-17.1849145485
 10
-53.5320579979
 20
-17.2102996892
 10
-53.6113221753
 20
-17.2315089257
 10
-53.693226547
 20
-17.2483844075
 10
-53.7771615376
 20
-17.2608005383
 10
-53.8625024589
 20
-17.2686649107
 10
-53.9486141592
 20
-17.2719189937
  0
LWPOLYLINE
  5
72E
100
AcDbEntity
  8
ASSI
100
AcDbPolyline
 62
250
  6
CONTINUOUS
 90
19
 70
0
 10
-52.9660665657
 20
-16.6492125788
 10
-52.9697878262
 20
-16.7028916657
 10
-52.9809239126
 20
-16.756171246
 10
-52.9993919448
 20
-16.8086547852
 10
-53.0250544744
 20
-16.8599516734
 10
-53.0577205079
 20
-16.9096801323
 10
-53.097146928
 20
-16.9574700564
 10
-53.1430403031
 20
-17.0029657681
 10
-53.195059071
 20
-17.0458286644
 10
-53.252816081
 20
-17.0857397369
 10
-53.3158814753
 20
-17.1224019464
 10
-53.3837858886
 20
-17.1555424333
 10
-53.4560239406
 20
-17.1849145485
 10
-53.5320579979
 20
-17.2102996892
 10
-53.6113221753
 20
-17.2315089257
 10
-53.693226547
 20
-17.2483844075
 10
-53.7771615376
 20
-17.2608005383
 10
-53.8625024589
 20
-17.2686649107
 10
-53.9486141592
 20
-17.2719189937
  0
LINE
  5
72F
100
AcDbEntity
  8
SUPERFICI
100
AcDbLine
 62
7
  6
CONTINUOUS
 10
-52.5710460508
 20
4.2275027956
 11
-50.5731489876
 21
13.6268694749
  0
LINE
  5
730
100
AcDbEntity
  8
ASSI
100
AcDbLine
 62
7
  6
CONTINUOUS
 10
-52.5710460508
 20
4.2275027956
 11
-50.5731489876
 21
13.6268694749
  0
LINE
  5
731
100
AcDbEntity
  8
RACCORDO
100
AcDbLine
 62
7
  6
CONTINUOUS
 10
-52.4660665657
 20
-4.5912724675
 11
-52.9660665657
 21
-4.6
  0
LINE
  5
732
100
AcDbEntity
  8
ASSI
100
AcDbLine
 62
7
  6
CONTINUOUS
 10
-52.4660665657
 20
-4.5912724675
 11
-52.9660665657
 21
-4.6
  0
LINE
  5
733
100
AcDbEntity
  8
RACCORDO
100
AcDbLine
 62
250
  6
CONTINUOUS
 10
-52.4660665657
 20
-4.09134862
 11
-52.9660665657
 21
-4.1000761524
  0
LINE
  5
734
100
AcDbEntity
  8
ASSI
100
AcDbLine
 62
250
  6
CONTINUOUS
 10
-52.4660665657
 20
-4.09134862
 11
-52.9660665657
 21
-4.1000761524
  0
LWPOLYLINE
  5
735
100
AcDbEntity
  8
RACCORDO
100
AcDbPolyline
 62
250
  6
CONTINUOUS
 90
6
 70
0
 10
-53.9486141619
 20
-19.3054380165
 10
-53.948253081
 20
-19.3030030937
 10
-53.9479796792
 20
-19.2957320804
 10
-53.9477961705
 20
-19.2836837732
 10
-53.9477040411
 20
-19.266955632
 10
-53.9477961626
 20
-19.2200380708
  0
LWPOLYLINE
  5
736
100
AcDbEntity
  8
ASSI
100
AcDbPolyline
 62
250
  6
CONTINUOUS
 90
6
 70
0
 10
-53.9486141619
 20
-19.3054380165
 10
-53.948253081
 20
-19.3030030937
 10
-53.9479796792
 20
-19.2957320804
 10
-53.9477961705
 20
-19.2836837732
 10
-53.9477040411
 20
-19.266955632
 10
-53.9477961626
 20
-19.2200380708
  0
LWPOLYLINE
  5
737
100
AcDbEntity
  8
RACCORDO
100
AcDbPolyline
 62
250
  6
CONTINUOUS
 90
16
 70
0
 10
-57.1751232881
 20
17.0410761601
 10
-57.185746749
 20
17.0685511726
 10
-57.2003334934
 20
17.0953115682
 10
-57.2187625038
 20
17.1211366469
 10
-57.240881465
 20
17.1458138586
 10
-57.2665070295
 20
17.1691393953
 10
-57.295425813
 20
17.1909200888
 10
-57.3273962882
 20
17.2109756191
 10
-57.3621556154
 20
17.2291425406
 10
-57.3994216693
 20
17.2452737359
 10
-57.4388899418
 20
17.2592367824
 10
-57.4802329744
 20
17.2709152549
 10
-57.5231079138
 20
17.2802122155
 10
-57.5671604305
 20
17.2870510056
 10
-57.6120279089
 20
17.2913755016
 10
-57.6573403625
 20
17.2931501468
  0
LWPOLYLINE
  5
738
100
AcDbEntity
  8
ASSI
100
AcDbPolyline
 62
250
  6
CONTINUOUS
 90
16
 70
0
 10
-57.1751232881
 20
17.0410761601
 10
-57.185746749
 20
17.0685511726
 10
-57.2003334934
 20
17.0953115682
 10
-57.2187625038
 20
17.1211366469
 10
-57.240881465
 20
17.1458138586
 10
-57.2665070295
 20
17.1691393953
 10
-57.295425813
 20
17.1909200888
 10
-57.3273962882
 20
17.2109756191
 10
-57.3621556154
 20
17.2291425406
 10
-57.3994216693
 20
17.2452737359
 10
-57.4388899418
 20
17.2592367824
 10
-57.4802329744
 20
17.2709152549
 10
-57.5231079138
 20
17.2802122155
 10
-57.5671604305
 20
17.2870510056
 10
-57.6120279089
 20
17.2913755016
 10
-57.6573403625
 20
17.2931501468
  0
LWPOLYLINE
  5
739
100
AcDbEntity
  8
RACCORDO
100
AcDbPolyline
 62
250
  6
CONTINUOUS
 90
3
 70
0
 10
-57.1900012889
 20
18.9447558895
 10
-57.1767518915
 20
18.9102279835
 10
-57.1687450661
 20
18.8749398989
  0
LWPOLYLINE
  5
73A
100
AcDbEntity
  8
ASSI
100
AcDbPolyline
 62
250
  6
CONTINUOUS
 90
3
 70
0
 10
-57.1900012889
 20
18.9447558895
 10
-57.1767518915
 20
18.9102279835
 10
-57.1687450661
 20
18.8749398989
  0
LWPOLYLINE
  5
73B
100
AcDbEntity
  8
RACCORDO
100
AcDbPolyline
 62
250
  6
CONTINUOUS
 90
8
 70
0
 10
-53.7581548749
 20
16.3485445649
 10
-53.7574885834
 20
16.3455574546
 10
-53.7579833643
 20
16.3371420062
 10
-53.7596364632
 20
16.3233450648
 10
-53.7624386781
 20
16.3042434325
 10
-53.7663744102
 20
16.2799434404
 10
-53.7714217507
 20
16.2505803571
 10
-53.7775526032
 20
16.2163176355
  0
LWPOLYLINE
  5
73C
100
AcDbEntity
  8
ASSI
100
AcDbPolyline
 62
250
  6
CONTINUOUS
 90
8
 70
0
 10
-53.7581548749
 20
16.3485445649
 10
-53.7574885834
 20
16.3455574546
 10
-53.7579833643
 20
16.3371420062
 10
-53.7596364632
 20
16.3233450648
 10
-53.7624386781
 20
16.3042434325
 10
-53.7663744102
 20
16.2799434404
 10
-53.7714217507
 20
16.2505803571
 10
-53.7775526032
 20
16.2163176355
  0
LINE
  5
73D
100
AcDbEntity
  8
SMUSSO
100
AcDbLine
 62
7
  6
CONTINUOUS
 10
-52.8852192305
 20
4.228906213
 11
-52.5710512242
 21
4.2274784568
  0
LINE
  5
73E
100
AcDbEntity
  8
ASSI
100
AcDbLine
 62
7
  6
CONTINUOUS
 10
-52.8852192305
 20
4.228906213
 11
-52.5710512242
 21
4.2274784568
  0
LINE
  5
73F
100
AcDbEntity
  8
RACCORDO
100
AcDbLine
 62
250
  6
CONTINUOUS
 10
-52.4660665657
 20
4.09134862
 11
-52.7306122009
 21
4.0959662812
  0
LINE
  5
740
100
AcDbEntity
  8
ASSI
100
AcDbLine
 62
250
  6
CONTINUOUS
 10
-52.4660665657
 20
4.09134862
 11
-52.7306122009
 21
4.0959662812
  0
LINE
  5
741
100
AcDbEntity
  8
RACCORDO
100
AcDbLine
 62
7
  6
CONTINUOUS
 10
-52.4660665657
 20
4.5912724675
 11
-52.4936221836
 21
4.5917534526
  0
LINE
  5
742
100
AcDbEntity
  8
ASSI
100
AcDbLine
 62
7
  6
CONTINUOUS
 10
-52.4660665657
 20
4.5912724675
 11
-52.4936221836
 21
4.5917534526
  0
LWPOLYLINE
  5
743
100
AcDbEntity
  8
RACCORDO
100
AcDbPolyline
 62
250
  6
CONTINUOUS
 90
8
 70
0
 10
-53.9486141592
 20
19.3054380165
 10
-53.9473593704
 20
19.3026205693
 10
-53.9462091592
 20
19.2942294856
 10
-53.9451699556
 20
19.2803116737
 10
-53.944247569
 20
19.2609449374
 10
-53.9434471559
 20
19.2362375413
 10
-53.9427731906
 20
19.2063276057
 10
-53.9422294408
 20
19.1713823342
  0
LWPOLYLINE
  5
744
100
AcDbEntity
  8
ASSI
100
AcDbPolyline
 62
250
  6
CONTINUOUS
 90
8
 70
0
 10
-53.9486141592
 20
19.3054380165
 10
-53.9473593704
 20
19.3026205693
 10
-53.9462091592
 20
19.2942294856
 10
-53.9451699556
 20
19.2803116737
 10
-53.944247569
 20
19.2609449374
 10
-53.9434471559
 20
19.2362375413
 10
-53.9427731906
 20
19.2063276057
 10
-53.9422294408
 20
19.1713823342
  0
LINE
  5
745
100
AcDbEntity
  8
RACCORDO
100
AcDbLine
 62
250
  6
CONTINUOUS
 10
-59.9798419694
 20
-19.5980580525
 11
-61.1305544823
 21
-20.7740358906
  0
LINE
  5
746
100
AcDbEntity
  8
ASSI
100
AcDbLine
 62
250
  6
CONTINUOUS
 10
-59.9798419694
 20
-19.5980580525
 11
-61.1305544823
 21
-20.7740358906
  0
LINE
  5
747
100
AcDbEntity
  8
RACCORDO
100
AcDbLine
 62
250
  6
CONTINUOUS
 10
-61.1305544823
 20
-20.7740358906
 11
-61.3606384248
 21
-21.0088656299
  0
LINE
  5
748
100
AcDbEntity
  8
ASSI
100
AcDbLine
 62
250
  6
CONTINUOUS
 10
-61.1305544823
 20
-20.7740358906
 11
-61.3606384248
 21
-21.0088656299
  0
LINE
  5
749
100
AcDbEntity
  8
RACCORDO
100
AcDbLine
 62
7
  6
CONTINUOUS
 10
-59.5660595131
 20
-19.5999929474
 11
-61.6221370673
 21
-21.6560705017
  0
LINE
  5
74A
100
AcDbEntity
  8
ASSI
100
AcDbLine
 62
7
  6
CONTINUOUS
 10
-59.5660595131
 20
-19.5999929474
 11
-61.6221370673
 21
-21.6560705017
  0
LINE
  5
74B
100
AcDbEntity
  8
RACCORDO
100
AcDbLine
 62
250
  6
CONTINUOUS
 10
-60.9503842415
 20
-20.9843176758
 11
-60.9574937988
 21
-20.9910134876
  0
LINE
  5
74C
100
AcDbEntity
  8
ASSI
100
AcDbLine
 62
250
  6
CONTINUOUS
 10
-60.9503842415
 20
-20.9843176758
 11
-60.9574937988
 21
-20.9910134876
  0
LWPOLYLINE
  5
74D
100
AcDbEntity
  8
RACCORDO
100
AcDbPolyline
 62
250
  6
CONTINUOUS
 90
16
 70
0
 10
-59.9798419694
 20
19.5980580525
 10
-59.9278754572
 20
19.5482608659
 10
-59.8746581025
 20
19.5020158907
 10
-59.8201899055
 20
19.4593480889
 10
-59.7644122569
 20
19.4204048048
 10
-59.7073837659
 20
19.3850826349
 10
-59.64928026
 20
19.3530253615
 10
-59.59025054
 20
19.3241874631
 10
-59.5301458051
 20
19.2986425865
 10
-59.4686954805
 20
19.2762082285
 10
-59.4053613643
 20
19.2567409818
 10
-59.3406816584
 20
19.2404016962
 10
-59.2760003941
 20
19.2274618894
 10
-59.2117655819
 20
19.2180153702
 10
-59.1475292112
 20
19.2119777086
 10
-59.0832912822
 20
19.2093510488
  0
LWPOLYLINE
  5
74E
100
AcDbEntity
  8
ASSI
100
AcDbPolyline
 62
250
  6
CONTINUOUS
 90
16
 70
0
 10
-59.9798419694
 20
19.5980580525
 10
-59.9278754572
 20
19.5482608659
 10
-59.8746581025
 20
19.5020158907
 10
-59.8201899055
 20
19.4593480889
 10
-59.7644122569
 20
19.4204048048
 10
-59.7073837659
 20
19.3850826349
 10
-59.64928026
 20
19.3530253615
 10
-59.59025054
 20
19.3241874631
 10
-59.5301458051
 20
19.2986425865
 10
-59.4686954805
 20
19.2762082285
 10
-59.4053613643
 20
19.2567409818
 10
-59.3406816584
 20
19.2404016962
 10
-59.2760003941
 20
19.2274618894
 10
-59.2117655819
 20
19.2180153702
 10
-59.1475292112
 20
19.2119777086
 10
-59.0832912822
 20
19.2093510488
  0
LINE
  5
74F
100
AcDbEntity
  8
RACCORDO
100
AcDbLine
 62
7
  6
CONTINUOUS
 10
-61.6221370673
 20
21.6560705017
 11
-59.5660493445
 21
19.5999827788
  0
LINE
  5
750
100
AcDbEntity
  8
ASSI
100
AcDbLine
 62
7
  6
CONTINUOUS
 10
-61.6221370673
 20
21.6560705017
 11
-59.5660493445
 21
19.5999827788
  0
LINE
  5
751
100
AcDbEntity
  8
RACCORDO
100
AcDbLine
 62
250
  6
CONTINUOUS
 10
-61.3606384847
 20
21.008865567
 11
-60.2296271937
 21
19.853530301
  0
LINE
  5
752
100
AcDbEntity
  8
ASSI
100
AcDbLine
 62
250
  6
CONTINUOUS
 10
-61.3606384847
 20
21.008865567
 11
-60.2296271937
 21
19.853530301
  0
LINE
  5
753
100
AcDbEntity
  8
RACCORDO
100
AcDbLine
 62
250
  6
CONTINUOUS
 10
-60.2296271937
 20
19.853530301
 11
-59.9798419694
 21
19.5980580525
  0
LINE
  5
754
100
AcDbEntity
  8
ASSI
100
AcDbLine
 62
250
  6
CONTINUOUS
 10
-60.2296271937
 20
19.853530301
 11
-59.9798419694
 21
19.5980580525
  0
LWPOLYLINE
  5
755
100
AcDbEntity
  8
RACCORDO
100
AcDbPolyline
 62
250
  6
CONTINUOUS
 90
8
 70
0
 10
-52.8246217541
 20
14.5298466731
 10
-52.8470226141
 20
14.5568137283
 10
-52.871328573
 20
14.5810968213
 10
-52.8973715248
 20
14.6025280218
 10
-52.9249713383
 20
14.6209591142
 10
-52.9539371207
 20
14.6362626395
 10
-52.9840685394
 20
14.6483327735
 10
-53.0151571988
 20
14.6570860531
  0
LWPOLYLINE
  5
756
100
AcDbEntity
  8
ASSI
100
AcDbPolyline
 62
250
  6
CONTINUOUS
 90
8
 70
0
 10
-52.8246217541
 20
14.5298466731
 10
-52.8470226141
 20
14.5568137283
 10
-52.871328573
 20
14.5810968213
 10
-52.8973715248
 20
14.6025280218
 10
-52.9249713383
 20
14.6209591142
 10
-52.9539371207
 20
14.6362626395
 10
-52.9840685394
 20
14.6483327735
 10
-53.0151571988
 20
14.6570860531
  0
LWPOLYLINE
  5
757
100
AcDbEntity
  8
0
100
AcDbPolyline
 62
7
  6
CONTINUOUS
 90
10
 70
0
 43
0.3500000006
 10
-59.2712861023
 20
32.7500006104
 10
-59.1998594513
 20
32.6071427765
 10
-59.1998594513
 20
32.5357161255
 10
-59.3427172852
 20
32.3928582916
 10
-59.4141439362
 20
32.3928582916
 10
-59.485575119
 20
32.4642849426
 10
-59.485575119
 20
32.5357161255
 10
-59.4141439362
 20
32.6785694275
 10
-59.3427172852
 20
32.7500006104
 10
-59.2712861023
 20
32.7500006104
  0
LWPOLYLINE
  5
758
100
AcDbEntity
  8
0
100
AcDbPolyline
 62
7
  6
CONTINUOUS
 90
10
 70
0
 43
0.3500000006
 10
-63.6998608246
 20
42.7499991302
 10
-63.6284296417
 20
42.6071412964
 10
-63.6284296417
 20
42.5357146454
 10
-63.7712874756
 20
42.3928568115
 10
-63.8427141266
 20
42.3928568115
 10
-63.9141453094
 20
42.4642834625
 10
-63.9141453094
 20
42.5357146454
 10
-63.8427141266
 20
42.6785724792
 10
-63.7712874756
 20
42.7499991302
 10
-63.6998608246
 20
42.7499991302
  0
LWPOLYLINE
  5
759
100
AcDbEntity
  8
RACCORDO
100
AcDbPolyline
 62
250
  6
CONTINUOUS
 90
13
 70
0
 10
-59.5660493445
 20
-19.5999827788
 10
-59.588263048
 20
-19.619039058
 10
-59.6134688181
 20
-19.6347961343
 10
-59.6414790725
 20
-19.6471367437
 10
-59.6720853577
 20
-19.6559690475
 10
-59.7050599007
 20
-19.6612273161
 10
-59.7401573041
 20
-19.6628724179
 10
-59.777116372
 20
-19.6608921105
 10
-59.815662054
 20
-19.6553011318
 10
-59.8555074925
 20
-19.6461410903
 10
-59.8963561571
 20
-19.6334801557
 10
-59.9379040508
 20
-19.6174125512
 10
-59.9798419736
 20
-19.5980578525
  0
LWPOLYLINE
  5
75A
100
AcDbEntity
  8
ASSI
100
AcDbPolyline
 62
250
  6
CONTINUOUS
 90
13
 70
0
 10
-59.5660493445
 20
-19.5999827788
 10
-59.588263048
 20
-19.619039058
 10
-59.6134688181
 20
-19.6347961343
 10
-59.6414790725
 20
-19.6471367437
 10
-59.6720853577
 20
-19.6559690475
 10
-59.7050599007
 20
-19.6612273161
 10
-59.7401573041
 20
-19.6628724179
 10
-59.777116372
 20
-19.6608921105
 10
-59.815662054
 20
-19.6553011318
 10
-59.8555074925
 20
-19.6461410903
 10
-59.8963561571
 20
-19.6334801557
 10
-59.9379040508
 20
-19.6174125512
 10
-59.9798419736
 20
-19.5980578525
  0
LWPOLYLINE
  5
75B
100
AcDbEntity
  8
RACCORDO
100
AcDbPolyline
 62
250
  6
CONTINUOUS
 90
36
 70
0
 10
-60.9574937988
 20
-20.9910134876
 10
-60.9649050474
 20
-20.9972192425
 10
-60.9725847633
 20
-21.0029550693
 10
-60.9804855031
 20
-21.0082330797
 10
-60.9885906351
 20
-21.0130849581
 10
-60.9969216378
 20
-21.0175531234
 10
-61.0054563389
 20
-21.0216508148
 10
-61.0141738116
 20
-21.0253935267
 10
-61.0231104775
 20
-21.0288125997
 10
-61.0322571111
 20
-21.0319170627
 10
-61.0415941312
 20
-21.0347138723
 10
-61.0511516563
 20
-21.0372196301
 10
-61.0609239651
 20
-21.0394386849
 10
-61.0708958921
 20
-21.0413745833
 10
-61.0810888143
 20
-21.0430350084
 10
-61.091494189
 20
-21.0444209816
 10
-61.1021036396
 20
-21.0455347892
 10
-61.1129423349
 20
-21.046380128
 10
-61.1240015301
 20
-21.0469555133
 10
-61.1352758887
 20
-21.0472610527
 10
-61.1467987056
 20
-21.0472967447
 10
-61.1585674395
 20
-21.0470583559
 10
-61.1705726805
 20
-21.0465429678
 10
-61.1828395635
 20
-21.0457470851
 10
-61.1953294004
 20
-21.0446671824
 10
-61.2080683059
 20
-21.043297999
 10
-61.2211823473
 20
-21.041621225
 10
-61.2346639643
 20
-21.0396199607
 10
-61.2485117856
 20
-21.0372815275
 10
-61.262865916
 20
-21.0345732762
 10
-61.277731016
 20
-21.0314651059
 10
-61.2930919269
 20
-21.0279358547
 10
-61.3090608819
 20
-21.0239470952
 10
-61.3256694243
 20
-21.0194597692
 10
-61.3428665845
 20
-21.0144438155
 10
-61.3606386212
 20
-21.0088660653
  0
LWPOLYLINE
  5
75C
100
AcDbEntity
  8
ASSI
100
AcDbPolyline
 62
250
  6
CONTINUOUS
 90
36
 70
0
 10
-60.9574937988
 20
-20.9910134876
 10
-60.9649050474
 20
-20.9972192425
 10
-60.9725847633
 20
-21.0029550693
 10
-60.9804855031
 20
-21.0082330797
 10
-60.9885906351
 20
-21.0130849581
 10
-60.9969216378
 20
-21.0175531234
 10
-61.0054563389
 20
-21.0216508148
 10
-61.0141738116
 20
-21.0253935267
 10
-61.0231104775
 20
-21.0288125997
 10
-61.0322571111
 20
-21.0319170627
 10
-61.0415941312
 20
-21.0347138723
 10
-61.0511516563
 20
-21.0372196301
 10
-61.0609239651
 20
-21.0394386849
 10
-61.0708958921
 20
-21.0413745833
 10
-61.0810888143
 20
-21.0430350084
 10
-61.091494189
 20
-21.0444209816
 10
-61.1021036396
 20
-21.0455347892
 10
-61.1129423349
 20
-21.046380128
 10
-61.1240015301
 20
-21.0469555133
 10
-61.1352758887
 20
-21.0472610527
 10
-61.1467987056
 20
-21.0472967447
 10
-61.1585674395
 20
-21.0470583559
 10
-61.1705726805
 20
-21.0465429678
 10
-61.1828395635
 20
-21.0457470851
 10
-61.1953294004
 20
-21.0446671824
 10
-61.2080683059
 20
-21.043297999
 10
-61.2211823473
 20
-21.041621225
 10
-61.2346639643
 20
-21.0396199607
 10
-61.2485117856
 20
-21.0372815275
 10
-61.262865916
 20
-21.0345732762
 10
-61.277731016
 20
-21.0314651059
 10
-61.2930919269
 20
-21.0279358547
 10
-61.3090608819
 20
-21.0239470952
 10
-61.3256694243
 20
-21.0194597692
 10
-61.3428665845
 20
-21.0144438155
 10
-61.3606386212
 20
-21.0088660653
  0
LINE
  5
75D
100
AcDbEntity
  8
RACCORDO
100
AcDbLine
 62
250
  6
CONTINUOUS
 10
-52.9660665657
 20
8.0342406774
 11
-53.9486142408
 21
8.0342406785
  0
LINE
  5
75E
100
AcDbEntity
  8
ASSI
100
AcDbLine
 62
250
  6
CONTINUOUS
 10
-52.9660665657
 20
8.0342406774
 11
-53.9486142408
 21
8.0342406785
  0
LWPOLYLINE
  5
75F
100
AcDbEntity
  8
RACCORDO
100
AcDbPolyline
 62
250
  6
CONTINUOUS
 90
3
 70
0
 10
-60.9664945106
 20
20.9984612337
 10
-60.9582625264
 20
20.9916917392
 10
-60.9503840812
 20
20.9843175155
  0
LWPOLYLINE
  5
760
100
AcDbEntity
  8
ASSI
100
AcDbPolyline
 62
250
  6
CONTINUOUS
 90
3
 70
0
 10
-60.9664945106
 20
20.9984612337
 10
-60.9582625264
 20
20.9916917392
 10
-60.9503840812
 20
20.9843175155
  0
LWPOLYLINE
  5
761
100
AcDbEntity
  8
RACCORDO
100
AcDbPolyline
 62
250
  6
CONTINUOUS
 90
13
 70
0
 10
-59.5660493445
 20
19.5999827789
 10
-59.5882632797
 20
19.6190392657
 10
-59.6134693026
 20
19.6347964607
 10
-59.6414798135
 20
19.6471371108
 10
-59.6720863501
 20
19.6559693921
 10
-59.7050611177
 20
19.6612275857
 10
-59.7401586783
 20
19.6628725758
 10
-59.7771178185
 20
19.6608921443
 10
-59.8156634774
 20
19.6553010536
 10
-59.8555087651
 20
19.6461409433
 10
-59.8963571369
 20
19.6334800152
 10
-59.9379046033
 20
19.6174125181
 10
-59.9798419688
 20
19.5980580519
  0
LWPOLYLINE
  5
762
100
AcDbEntity
  8
ASSI
100
AcDbPolyline
 62
250
  6
CONTINUOUS
 90
13
 70
0
 10
-59.5660493445
 20
19.5999827789
 10
-59.5882632797
 20
19.6190392657
 10
-59.6134693026
 20
19.6347964607
 10
-59.6414798135
 20
19.6471371108
 10
-59.6720863501
 20
19.6559693921
 10
-59.7050611177
 20
19.6612275857
 10
-59.7401586783
 20
19.6628725758
 10
-59.7771178185
 20
19.6608921443
 10
-59.8156634774
 20
19.6553010536
 10
-59.8555087651
 20
19.6461409433
 10
-59.8963571369
 20
19.6334800152
 10
-59.9379046033
 20
19.6174125181
 10
-59.9798419688
 20
19.5980580519
  0
LWPOLYLINE
  5
763
100
AcDbEntity
  8
RACCORDO
100
AcDbPolyline
 62
250
  6
CONTINUOUS
 90
6
 70
0
 10
-52.5555149504
 20
14.0482342421
 10
-52.6220477147
 20
14.0737702138
 10
-52.6530744279
 20
14.0858836179
 10
-52.6825840324
 20
14.0975798467
 10
-52.7105648911
 20
14.108872913
 10
-52.7370101861
 20
14.1197764765
  0
LWPOLYLINE
  5
764
100
AcDbEntity
  8
ASSI
100
AcDbPolyline
 62
250
  6
CONTINUOUS
 90
6
 70
0
 10
-52.5555149504
 20
14.0482342421
 10
-52.6220477147
 20
14.0737702138
 10
-52.6530744279
 20
14.0858836179
 10
-52.6825840324
 20
14.0975798467
 10
-52.7105648911
 20
14.108872913
 10
-52.7370101861
 20
14.1197764765
  0
LINE
  5
765
100
AcDbEntity
  8
RACCORDO
100
AcDbLine
 62
250
  6
CONTINUOUS
 10
-57.6570590476
 20
16.268425357
 11
-57.1264974214
 21
16.0458769037
  0
LINE
  5
766
100
AcDbEntity
  8
ASSI
100
AcDbLine
 62
250
  6
CONTINUOUS
 10
-57.6570590476
 20
16.268425357
 11
-57.1264974214
 21
16.0458769037
  0
LINE
  5
767
100
AcDbEntity
  8
RACCORDO
100
AcDbLine
 62
250
  6
CONTINUOUS
 10
-52.9660665657
 20
15.3703969641
 11
-53.9486141592
 21
15.3703969641
  0
LINE
  5
768
100
AcDbEntity
  8
ASSI
100
AcDbLine
 62
250
  6
CONTINUOUS
 10
-52.9660665657
 20
15.3703969641
 11
-53.9486141592
 21
15.3703969641
  0
LINE
  5
769
100
AcDbEntity
  8
RACCORDO
100
AcDbLine
 62
250
  6
CONTINUOUS
 10
-52.737010205
 20
14.1197766041
 11
-53.486592073
 21
14.247995407
  0
LINE
  5
76A
100
AcDbEntity
  8
ASSI
100
AcDbLine
 62
250
  6
CONTINUOUS
 10
-52.737010205
 20
14.1197766041
 11
-53.486592073
 21
14.247995407
  0
LINE
  5
76B
100
AcDbEntity
  8
RACCORDO
100
AcDbLine
 62
7
  6
CONTINUOUS
 10
-53.0151571988
 20
14.6570860531
 11
-53.0114451988
 21
14.6563164116
  0
LINE
  5
76C
100
AcDbEntity
  8
ASSI
100
AcDbLine
 62
7
  6
CONTINUOUS
 10
-53.0151571988
 20
14.6570860531
 11
-53.0114451988
 21
14.6563164116
  0
LINE
  5
76D
100
AcDbEntity
  8
RACCORDO
100
AcDbLine
 62
250
  6
CONTINUOUS
 10
-50.5731489876
 20
13.6268694749
 11
-52.5555149895
 21
14.0482343132
  0
LINE
  5
76E
100
AcDbEntity
  8
ASSI
100
AcDbLine
 62
250
  6
CONTINUOUS
 10
-50.5731489876
 20
13.6268694749
 11
-52.5555149895
 21
14.0482343132
  0
LINE
  5
76F
100
AcDbEntity
  8
RACCORDO
100
AcDbLine
 62
250
  6
CONTINUOUS
 10
-53.4865920543
 20
14.2479955651
 11
-53.9486141592
 21
14.3462015575
  0
LINE
  5
770
100
AcDbEntity
  8
ASSI
100
AcDbLine
 62
250
  6
CONTINUOUS
 10
-53.4865920543
 20
14.2479955651
 11
-53.9486141592
 21
14.3462015575
  0
LINE
  5
771
100
AcDbEntity
  8
RACCORDO
100
AcDbLine
 62
7
  6
CONTINUOUS
 10
-50.9582669426
 20
14.2198991206
 11
-53.0114456704
 21
14.6563157315
  0
LINE
  5
772
100
AcDbEntity
  8
ASSI
100
AcDbLine
 62
7
  6
CONTINUOUS
 10
-50.9582669426
 20
14.2198991206
 11
-53.0114456704
 21
14.6563157315
  0
LINE
  5
773
100
AcDbEntity
  8
RACCORDO
100
AcDbLine
 62
250
  6
CONTINUOUS
 10
-52.9403106743
 20
14.9955586261
 11
-52.9660665657
 21
15.0010332098
  0
LINE
  5
774
100
AcDbEntity
  8
RACCORDO
100
AcDbLine
 62
250
  6
CONTINUOUS
 10
-57.1264974214
 20
16.0458769037
 11
-53.9486141592
 21
15.3703969641
  0
LINE
  5
775
100
AcDbEntity
  8
ASSI
100
AcDbLine
 62
250
  6
CONTINUOUS
 10
-57.1264974214
 20
16.0458769037
 11
-53.9486141592
 21
15.3703969641
  0
LINE
  5
776
100
AcDbEntity
  8
RACCORDO
100
AcDbLine
 62
7
  6
CONTINUOUS
 10
-57.1660665657
 20
17.0729185564
 11
-53.7581548749
 21
16.3485445649
  0
LINE
  5
777
100
AcDbEntity
  8
ASSI
100
AcDbLine
 62
7
  6
CONTINUOUS
 10
-57.1660665657
 20
17.0729185564
 11
-53.7581548749
 21
16.3485445649
  0
LINE
  5
778
100
AcDbEntity
  8
ASSI
100
AcDbLine
 62
7
  6
CONTINUOUS
 10
-63.1165710818
 20
-22.2
 11
-61.6221370673
 21
-21.6560705017
  0
LINE
  5
779
100
AcDbEntity
  8
RACCORDO
100
AcDbLine
 62
250
  6
CONTINUOUS
 10
-69.2660665657
 20
17.3594294128
 11
-57.6573403624
 21
17.2931501463
  0
LINE
  5
77A
100
AcDbEntity
  8
ASSI
100
AcDbLine
 62
250
  6
CONTINUOUS
 10
-69.2660665657
 20
17.3594294128
 11
-57.6573403624
 21
17.2931501463
  0
LINE
  5
77B
100
AcDbEntity
  8
RACCORDO
100
AcDbLine
 62
250
  6
CONTINUOUS
 10
-69.2660665657
 20
16.1196592168
 11
-57.1264974214
 21
16.0458769037
  0
LINE
  5
77C
100
AcDbEntity
  8
ASSI
100
AcDbLine
 62
250
  6
CONTINUOUS
 10
-69.2660665657
 20
16.1196592168
 11
-57.1264974214
 21
16.0458769037
  0
LINE
  5
77D
100
AcDbEntity
  8
ASSI
100
AcDbLine
 62
7
  6
CONTINUOUS
 10
-63.1165710818
 20
22.2
 11
-61.6221370673
 21
21.6560705017
  0
LINE
  5
77E
100
AcDbEntity
  8
RACCORDO
100
AcDbLine
 62
250
  6
CONTINUOUS
 10
-52.9660665657
 20
18.3055903213
 11
-53.9486141592
 21
18.3055903213
  0
LINE
  5
77F
100
AcDbEntity
  8
ASSI
100
AcDbLine
 62
250
  6
CONTINUOUS
 10
-52.9660665657
 20
18.3055903213
 11
-53.9486141592
 21
18.3055903213
  0
LINE
  5
780
100
AcDbEntity
  8
RACCORDO
100
AcDbLine
 62
250
  6
CONTINUOUS
 10
-53.9486141592
 20
18.3055903213
 11
-57.1660665657
 21
18.361751162
  0
LINE
  5
781
100
AcDbEntity
  8
ASSI
100
AcDbLine
 62
250
  6
CONTINUOUS
 10
-53.9486141592
 20
18.3055903213
 11
-57.1660665657
 21
18.361751162
  0
LINE
  5
782
100
AcDbEntity
  8
RACCORDO
100
AcDbLine
 62
7
  6
CONTINUOUS
 10
-53.9486141592
 20
19.3054380165
 11
-59.0832912822
 21
19.3950641391
  0
LINE
  5
783
100
AcDbEntity
  8
ASSI
100
AcDbLine
 62
7
  6
CONTINUOUS
 10
-53.9486141592
 20
19.3054380165
 11
-59.0832912822
 21
19.3950641391
  0
LINE
  5
784
100
AcDbEntity
  8
RACCORDO
100
AcDbLine
 62
250
  6
CONTINUOUS
 10
-59.0832912822
 20
19.2093510488
 11
-57.6573403626
 21
19.1842910252
  0
LINE
  5
785
100
AcDbEntity
  8
ASSI
100
AcDbLine
 62
250
  6
CONTINUOUS
 10
-59.0832912822
 20
19.2093510488
 11
-57.6573403626
 21
19.1842910252
  0
LWPOLYLINE
  5
786
100
AcDbEntity
  8
RACCORDO
100
AcDbPolyline
 62
250
  6
CONTINUOUS
 90
13
 70
0
 10
-57.6573403626
 20
19.1842910251
 10
-57.6057086929
 20
19.1818200803
 10
-57.5547238198
 20
19.1756788641
 10
-57.5049320188
 20
19.1659331954
 10
-57.4568667725
 20
19.152687511
 10
-57.4110430703
 20
19.1360837499
 10
-57.3679518878
 20
19.1162998356
 10
-57.3280549058
 20
19.0935477611
 10
-57.2917795714
 20
19.0680713164
 10
-57.2595145302
 20
19.0401434831
 10
-57.2316054535
 20
19.0100635044
 10
-57.2083513342
 20
18.9781536749
 10
-57.1900012889
 20
18.9447558895
  0
LWPOLYLINE
  5
787
100
AcDbEntity
  8
ASSI
100
AcDbPolyline
 62
250
  6
CONTINUOUS
 90
13
 70
0
 10
-57.6573403626
 20
19.1842910251
 10
-57.6057086929
 20
19.1818200803
 10
-57.5547238198
 20
19.1756788641
 10
-57.5049320188
 20
19.1659331954
 10
-57.4568667725
 20
19.152687511
 10
-57.4110430703
 20
19.1360837499
 10
-57.3679518878
 20
19.1162998356
 10
-57.3280549058
 20
19.0935477611
 10
-57.2917795714
 20
19.0680713164
 10
-57.2595145302
 20
19.0401434831
 10
-57.2316054535
 20
19.0100635044
 10
-57.2083513342
 20
18.9781536749
 10
-57.1900012889
 20
18.9447558895
  0
LWPOLYLINE
  5
788
100
AcDbEntity
  8
0
100
AcDbPolyline
 62
250
  6
CONTINUOUS
 90
4
 70
0
 10
-78.3240791991
 20
21.0183132877
 10
-78.3222217403
 20
21.0182034815
 10
-78.3166604094
 20
21.0179380751
 10
-77.8332698677
 20
20.9972959167
  0
LWPOLYLINE
  5
789
100
AcDbEntity
  8
0
100
AcDbPolyline
 62
7
  6
CONTINUOUS
 90
13
 70
0
 43
0.3500000006
 10
-61.8427180481
 20
33.9642854004
 10
-62.128429184
 20
34.1785698853
 10
-62.128429184
 20
34.8214278717
 10
-61.8427180481
 20
35.2500013733
 10
-61.1998600616
 20
35.2500013733
 10
-60.9141443939
 20
34.8214278717
 10
-60.9141443939
 20
34.1785698853
 10
-61.1998600616
 20
33.9642854004
 10
-60.7712865601
 20
33.5357164307
 10
-60.7712865601
 20
32.6785694275
 10
-61.1998600616
 20
32.2500004578
 10
-61.8427180481
 20
32.2500004578
 10
-62.2712870178
 20
32.6785694275
  0
LINE
  5
78A
100
AcDbEntity
  8
0
100
AcDbLine
 62
250
  6
CONTINUOUS
 10
-77.3598798107
 20
21.4755923698
 11
-69.2660665657
 21
21.8997711479
  0
LINE
  5
78B
100
AcDbEntity
  8
ASSI
100
AcDbLine
 62
7
  6
CONTINUOUS
 10
-65.2660665657
 20
21.2
 11
-63.6660665657
 21
21.2
  0
LINE
  5
78C
100
AcDbEntity
  8
ASSI
100
AcDbLine
 62
7
  6
CONTINUOUS
 10
-63.1165710818
 20
22.2
 11
-63.6660665657
 21
22.2
  0
LINE
  5
78D
100
AcDbEntity
  8
ASSI
100
AcDbLine
 62
7
  6
CONTINUOUS
 10
-65.2660665657
 20
22.6298666026
 11
-66.5820113037
 21
22.639848759
  0
LINE
  5
78E
100
AcDbEntity
  8
ASSI
100
AcDbLine
 62
7
  6
CONTINUOUS
 10
-66.5820113037
 20
22.639848759
 11
-67.9153547115
 21
22.6509655576
  0
LINE
  5
78F
100
AcDbEntity
  8
ASSI
100
AcDbLine
 62
7
  6
CONTINUOUS
 10
-67.9153547115
 20
22.6509655576
 11
-69.2660665657
 21
22.663166622
  0
LINE
  5
790
100
AcDbEntity
  8
RACCORDO
100
AcDbLine
 62
7
  6
CONTINUOUS
 10
-65.2660665657
 20
21.2
 11
-61.2952117677
 21
21.1306884717
  0
LINE
  5
791
100
AcDbEntity
  8
ASSI
100
AcDbLine
 62
7
  6
CONTINUOUS
 10
-65.2660665657
 20
21.2
 11
-61.2952117677
 21
21.1306884717
  0
LINE
  5
792
100
AcDbEntity
  8
RACCORDO
100
AcDbLine
 62
250
  6
CONTINUOUS
 10
-65.2660665655
 20
21.0773406691
 11
-61.3606384847
 21
21.008865567
  0
LINE
  5
793
100
AcDbEntity
  8
ASSI
100
AcDbLine
 62
250
  6
CONTINUOUS
 10
-65.2660665655
 20
21.0773406691
 11
-61.3606384847
 21
21.008865567
  0
LINE
  5
794
100
AcDbEntity
  8
ASSI
100
AcDbLine
 62
250
  6
CONTINUOUS
 10
-65.2660665657
 20
23.2631073613
 11
-69.2660665657
 21
23.333359658
  0
LINE
  5
795
100
AcDbEntity
  8
ASSI
100
AcDbLine
 62
7
  6
CONTINUOUS
 10
-66.5820113037
 20
23.1271571819
 11
-69.2660665657
 21
23.1799085618
  0
LINE
  5
796
100
AcDbEntity
  8
ASSI
100
AcDbLine
 62
7
  6
CONTINUOUS
 10
-65.2660665657
 20
23.0998904748
 11
-66.5820113037
 21
23.1271571819
  0
LINE
  5
797
100
AcDbEntity
  8
ASSI
100
AcDbLine
 62
7
  6
CONTINUOUS
 10
-65.2660665657
 20
22.3297297297
 11
-63.6660665657
 21
22.2
  0
LINE
  5
798
100
AcDbEntity
  8
0
100
AcDbLine
 62
7
  6
CONTINUOUS
 10
-77.3773215856
 20
21.9749071372
 11
-69.2660665657
 21
22.4
  0
LINE
  5
799
100
AcDbEntity
  8
ASSI
100
AcDbLine
 62
7
  6
CONTINUOUS
 10
-65.2660665657
 20
23.4301797403
 11
-69.2660665657
 21
23.5
  0
LWPOLYLINE
  5
79A
100
AcDbEntity
  8
0
100
AcDbPolyline
 62
7
  6
CONTINUOUS
 90
13
 70
0
 43
0.3500000006
 10
-66.2712882385
 20
43.9642839203
 10
-66.5570039063
 20
44.178572937
 10
-66.5570039063
 20
44.8214263916
 10
-66.2712882385
 20
45.2499998932
 10
-65.6284302521
 20
45.2499998932
 10
-65.3427145844
 20
44.8214263916
 10
-65.3427145844
 20
44.178572937
 10
-65.6284302521
 20
43.9642839203
 10
-65.1998567505
 20
43.5357149506
 10
-65.1998567505
 20
42.6785724792
 10
-65.6284302521
 20
42.2499989777
 10
-66.2712882385
 20
42.2499989777
 10
-66.6998572083
 20
42.6785724792
  0
LWPOLYLINE
  5
79B
100
AcDbEntity
  8
0
100
AcDbPolyline
 62
7
  6
CONTINUOUS
 90
7
 70
0
 43
0.3500000006
 10
-61.1284288788
 20
42.2499989777
 10
-62.6284293365
 20
42.2499989777
 10
-61.1284288788
 20
44.3928574219
 10
-61.1284288788
 20
44.8214263916
 10
-61.5570023804
 20
45.2499998932
 10
-62.1998603668
 20
45.2499998932
 10
-62.6284293365
 20
44.6071419067
  0
LWPOLYLINE
  5
79C
100
AcDbEntity
  8
0
100
AcDbPolyline
 62
7
  6
CONTINUOUS
 90
7
 70
0
 43
0.3500000006
 10
-67.5569996796
 20
42.2499989777
 10
-69.0570001373
 20
42.2499989777
 10
-67.5569996796
 20
44.3928574219
 10
-67.5569996796
 20
44.8214263916
 10
-67.9855731812
 20
45.2499998932
 10
-68.6284311676
 20
45.2499998932
 10
-69.0570001373
 20
44.6071419067
  0
ARC
  5
79D
100
AcDbEntity
  8
RACCORDO
100
AcDbCircle
 62
7
  6
CONTINUOUS
 10
-9.5
 20
-11.5
 40
2.9
100
AcDbArc
 50
235.4392790038
 51
270.0
  0
ARC
  5
79E
100
AcDbEntity
  8
RACCORDO
100
AcDbCircle
 62
7
  6
CONTINUOUS
 10
-9.5
 20
-11.5
 40
2.9
100
AcDbArc
 50
88.9909022688
 51
124.5607210023
  0
ARC
  5
79F
100
AcDbEntity
  8
0
100
AcDbCircle
 62
7
  6
CONTINUOUS
 10
-0.8
 20
-0.2
 40
2.3
100
AcDbArc
 50
342.3602986058
 51
39.4006593315
  0
ARC
  5
7A0
100
AcDbEntity
  8
0
100
AcDbCircle
 62
7
  6
CONTINUOUS
 10
-0.8
 20
-2.2
 40
2.3
100
AcDbArc
 50
320.5992686112
 51
17.6396319232
  0
ARC
  5
7A1
100
AcDbEntity
  8
0
100
AcDbCircle
 62
7
  6
CONTINUOUS
 10
-1.7500000346
 20
-4.2946359888
 40
1.0000000047
100
AcDbArc
 50
0.0000505023
 51
39.4005690689
  0
ARC
  5
7A2
100
AcDbEntity
  8
0
100
AcDbCircle
 62
7
  6
CONTINUOUS
 10
-2.3448370387
 20
-1.2
 40
1.0
100
AcDbArc
 50
342.3602029801
 51
17.6397013942
  0
ARC
  5
7A3
100
AcDbEntity
  8
ASSI
100
AcDbCircle
 62
7
  6
CONTINUOUS
 10
-6.3
 20
-23.1
 40
0.5
100
AcDbArc
 50
60.887577224
 51
189.196281579
  0
ARC
  5
7A4
100
AcDbEntity
  8
ASSI
100
AcDbCircle
 62
7
  6
CONTINUOUS
 10
-16.2
 20
-23.1
 40
0.5
100
AcDbArc
 50
350.803718421
 51
119.112422776
  0
ARC
  5
7A5
100
AcDbEntity
  8
ASSI
100
AcDbCircle
 62
7
  6
CONTINUOUS
 10
-22.5
 20
0.0
 40
28.0
100
AcDbArc
 50
55.8789063483
 51
56.4427876864
  0
ARC
  5
7A6
100
AcDbEntity
  8
ASSI
100
AcDbCircle
 62
7
  6
CONTINUOUS
 10
-22.5
 20
0.0
 40
28.0
100
AcDbArc
 50
53.1306352597
 51
54.0372348486
  0
ARC
  5
7A7
100
AcDbEntity
  8
ASSI
100
AcDbCircle
 62
7
  6
CONTINUOUS
 10
-22.5
 20
0.0
 40
28.0
100
AcDbArc
 50
305.9627651514
 51
306.8693647403
  0
ARC
  5
7A8
100
AcDbEntity
  8
ASSI
100
AcDbCircle
 62
7
  6
CONTINUOUS
 10
-22.5
 20
0.0
 40
28.0
100
AcDbArc
 50
303.5572123136
 51
304.1210936517
  0
ARC
  5
7A9
100
AcDbEntity
  8
ASSI
100
AcDbCircle
 62
7
  6
CONTINUOUS
 10
-16.2
 20
23.1
 40
0.5
100
AcDbArc
 50
240.887577224
 51
9.196281579
  0
ARC
  5
7AA
100
AcDbEntity
  8
0
100
AcDbCircle
 62
7
  6
CONTINUOUS
 10
-1.7500000074
 20
1.8946360053
 40
1.0000000015
100
AcDbArc
 50
320.5994310563
 51
359.9999861886
  0
ARC
  5
7AB
100
AcDbEntity
  8
0
100
AcDbCircle
 62
7
  6
CONTINUOUS
 10
-2.3000009808
 20
6.4745879118
 40
0.9000002015
100
AcDbArc
 50
0.0009342656
 51
45.2936063553
  0
ARC
  5
7AC
100
AcDbEntity
  8
0
100
AcDbCircle
 62
7
  6
CONTINUOUS
 10
-2.300000149
 20
11.0254120007
 40
0.9000000195
100
AcDbArc
 50
314.6782658914
 51
359.9999003353
  0
ARC
  5
7AD
100
AcDbEntity
  8
0
100
AcDbCircle
 62
7
  6
CONTINUOUS
 10
-0.05
 20
8.75
 40
2.3
100
AcDbArc
 50
134.6779972524
 51
225.3221866197
  0
ARC
  5
7AE
100
AcDbEntity
  8
ASSI
100
AcDbCircle
 62
7
  6
CONTINUOUS
 10
-6.3
 20
23.1
 40
0.5
100
AcDbArc
 50
170.803718421
 51
299.112422776
  0
ARC
  5
7AF
100
AcDbEntity
  8
ASSI
100
AcDbCircle
 62
7
  6
CONTINUOUS
 10
6.3
 20
-23.1
 40
0.5
100
AcDbArc
 50
350.803718421
 51
119.112422776
  0
ARC
  5
7B0
100
AcDbEntity
  8
RACCORDO
100
AcDbCircle
 62
7
  6
CONTINUOUS
 10
0.0
 20
-6.5
 40
2.2
100
AcDbArc
 50
0.0
 51
39.7156221044
  0
ARC
  5
7B1
100
AcDbEntity
  8
RACCORDO
100
AcDbCircle
 62
7
  6
CONTINUOUS
 10
0.0
 20
-6.5
 40
2.2
100
AcDbArc
 50
140.2843778956
 51
180.0
  0
ARC
  5
7B2
100
AcDbEntity
  8
DRAFT
100
AcDbCircle
 62
7
  6
CONTINUOUS
 10
0.0
 20
-11.5
 40
2.2
100
AcDbArc
 50
180.0
 51
360.0
  0
ARC
  5
7B3
100
AcDbEntity
  8
RACCORDO
100
AcDbCircle
 62
7
  6
CONTINUOUS
 10
0.0
 20
-2.0
 40
2.9
100
AcDbArc
 50
307.3046770968
 51
360.0
  0
ARC
  5
7B4
100
AcDbEntity
  8
RACCORDO
100
AcDbCircle
 62
7
  6
CONTINUOUS
 10
0.0
 20
-2.0
 40
2.9
100
AcDbArc
 50
180.0
 51
232.6953229032
  0
ARC
  5
7B5
100
AcDbEntity
  8
0
100
AcDbCircle
 62
7
  6
CONTINUOUS
 10
0.8
 20
-2.2
 40
2.3
100
AcDbArc
 50
162.3602986081
 51
219.4006593315
  0
ARC
  5
7B6
100
AcDbEntity
  8
0
100
AcDbCircle
 62
7
  6
CONTINUOUS
 10
0.8
 20
-0.2
 40
2.3
100
AcDbArc
 50
140.5992686112
 51
197.6397013942
  0
ARC
  5
7B7
100
AcDbEntity
  8
0
100
AcDbCircle
 62
7
  6
CONTINUOUS
 10
1.7500000074
 20
-4.2946360053
 40
1.0000000015
100
AcDbArc
 50
140.5994310563
 51
179.9999861886
  0
ARC
  5
7B8
100
AcDbEntity
  8
0
100
AcDbCircle
 62
7
  6
CONTINUOUS
 10
2.3448370387
 20
-1.2
 40
1.0
100
AcDbArc
 50
162.3602986058
 51
197.6398611774
  0
ARC
  5
7B9
100
AcDbEntity
  8
ASSI
100
AcDbCircle
 62
7
  6
CONTINUOUS
 10
16.2
 20
-23.1
 40
0.5
100
AcDbArc
 50
60.887577224
 51
189.196281579
  0
ARC
  5
7BA
100
AcDbEntity
  8
RACCORDO
100
AcDbCircle
 62
7
  6
CONTINUOUS
 10
9.5
 20
-11.5
 40
2.9
100
AcDbArc
 50
270.0
 51
304.5607209993
  0
ARC
  5
7BB
100
AcDbEntity
  8
RACCORDO
100
AcDbCircle
 62
7
  6
CONTINUOUS
 10
9.5
 20
-11.5
 40
2.9
100
AcDbArc
 50
55.4392789977
 51
91.0090977536
  0
ARC
  5
7BC
100
AcDbEntity
  8
ASSI
100
AcDbCircle
 62
7
  6
CONTINUOUS
 10
0.0
 20
0.0
 40
28.0
100
AcDbArc
 50
125.9627651514
 51
126.8657383223
  0
ARC
  5
7BD
100
AcDbEntity
  8
ASSI
100
AcDbCircle
 62
7
  6
CONTINUOUS
 10
0.0
 20
0.0
 40
28.0
100
AcDbArc
 50
123.5572123136
 51
124.1210936517
  0
ARC
  5
7BE
100
AcDbEntity
  8
ASSI
100
AcDbCircle
 62
7
  6
CONTINUOUS
 10
0.0
 20
0.0
 40
28.0
100
AcDbArc
 50
55.8789063483
 51
56.4427876864
  0
ARC
  5
7BF
100
AcDbEntity
  8
ASSI
100
AcDbCircle
 62
7
  6
CONTINUOUS
 10
0.0
 20
0.0
 40
28.0
100
AcDbArc
 50
53.1342616777
 51
54.0372348486
  0
ARC
  5
7C0
100
AcDbEntity
  8
ASSI
100
AcDbCircle
 62
7
  6
CONTINUOUS
 10
0.0
 20
0.0
 40
28.0
100
AcDbArc
 50
305.9627651514
 51
306.8657383223
  0
ARC
  5
7C1
100
AcDbEntity
  8
ASSI
100
AcDbCircle
 62
7
  6
CONTINUOUS
 10
0.0
 20
0.0
 40
28.0
100
AcDbArc
 50
303.5572123136
 51
304.1210936517
  0
ARC
  5
7C2
100
AcDbEntity
  8
ASSI
100
AcDbCircle
 62
7
  6
CONTINUOUS
 10
0.0
 20
0.0
 40
28.0
100
AcDbArc
 50
235.8789063483
 51
236.4427876864
  0
ARC
  5
7C3
100
AcDbEntity
  8
ASSI
100
AcDbCircle
 62
7
  6
CONTINUOUS
 10
0.0
 20
0.0
 40
28.0
100
AcDbArc
 50
233.1342616777
 51
234.0372348486
  0
ARC
  5
7C4
100
AcDbEntity
  8
RACCORDO
100
AcDbCircle
 62
7
  6
CONTINUOUS
 10
0.0
 20
0.0
 40
2.9
100
AcDbArc
 50
0.0
 51
62.9649559567
  0
ARC
  5
7C5
100
AcDbEntity
  8
RACCORDO
100
AcDbCircle
 62
7
  6
CONTINUOUS
 10
0.0
 20
0.0
 40
2.9
100
AcDbArc
 50
117.0350440433
 51
180.0
  0
ARC
  5
7C6
100
AcDbEntity
  8
0
100
AcDbCircle
 62
7
  6
CONTINUOUS
 10
0.0
 20
0.0
 40
1.5
100
AcDbArc
 50
182.1457467068
 51
358.3371026145
  0
ARC
  5
7C7
100
AcDbEntity
  8
0
100
AcDbCircle
 62
7
  6
CONTINUOUS
 10
0.0
 20
0.0
 40
1.5
100
AcDbArc
 50
30.7179551642
 51
149.1137939038
  0
ARC
  5
7C8
100
AcDbEntity
  8
RACCORDO
100
AcDbCircle
 62
7
  6
CONTINUOUS
 10
0.0
 20
8.7
 40
3.8
100
AcDbArc
 50
290.9242604264
 51
49.9951866165
  0
ARC
  5
7C9
100
AcDbEntity
  8
RACCORDO
100
AcDbCircle
 62
7
  6
CONTINUOUS
 10
0.0
 20
8.7
 40
3.8
100
AcDbArc
 50
130.0048133835
 51
249.0757395736
  0
ARC
  5
7CA
100
AcDbEntity
  8
0
100
AcDbCircle
 62
7
  6
CONTINUOUS
 10
0.05
 20
8.75
 40
2.3
100
AcDbArc
 50
314.6779972524
 51
45.3221866197
  0
ARC
  5
7CB
100
AcDbEntity
  8
0
100
AcDbCircle
 62
7
  6
CONTINUOUS
 10
1.7500000346
 20
1.8946359888
 40
1.0000000047
100
AcDbArc
 50
180.0000505023
 51
219.4005690689
  0
ARC
  5
7CC
100
AcDbEntity
  8
0
100
AcDbCircle
 62
7
  6
CONTINUOUS
 10
2.3000009808
 20
11.0254120882
 40
0.9000002015
100
AcDbArc
 50
180.0009342656
 51
225.2936063553
  0
ARC
  5
7CD
100
AcDbEntity
  8
0
100
AcDbCircle
 62
7
  6
CONTINUOUS
 10
2.300000149
 20
6.4745879993
 40
0.9000000195
100
AcDbArc
 50
134.6782658914
 51
179.9999003353
  0
ARC
  5
7CE
100
AcDbEntity
  8
ASSI
100
AcDbCircle
 62
7
  6
CONTINUOUS
 10
6.3
 20
23.1
 40
0.5
100
AcDbArc
 50
240.887577224
 51
9.196281579
  0
ARC
  5
7CF
100
AcDbEntity
  8
ASSI
100
AcDbCircle
 62
7
  6
CONTINUOUS
 10
22.5
 20
0.0
 40
28.0
100
AcDbArc
 50
125.9627651514
 51
126.8693647403
  0
ARC
  5
7D0
100
AcDbEntity
  8
ASSI
100
AcDbCircle
 62
7
  6
CONTINUOUS
 10
22.5
 20
0.0
 40
28.0
100
AcDbArc
 50
123.5572123136
 51
124.1210936517
  0
ARC
  5
7D1
100
AcDbEntity
  8
ASSI
100
AcDbCircle
 62
7
  6
CONTINUOUS
 10
22.5
 20
0.0
 40
28.0
100
AcDbArc
 50
235.8789063483
 51
236.4427876864
  0
ARC
  5
7D2
100
AcDbEntity
  8
ASSI
100
AcDbCircle
 62
7
  6
CONTINUOUS
 10
22.5
 20
0.0
 40
28.0
100
AcDbArc
 50
233.1306352597
 51
234.0372348486
  0
ARC
  5
7D3
100
AcDbEntity
  8
ASSI
100
AcDbCircle
 62
7
  6
CONTINUOUS
 10
16.2
 20
23.1
 40
0.5
100
AcDbArc
 50
170.803718421
 51
299.112422776
  0
ARC
  5
7D4
100
AcDbEntity
  8
0
100
AcDbCircle
 62
7
  6
CONTINUOUS
 10
-77.3249856294
 20
-20.9762776025
 40
1.0
100
AcDbArc
 50
182.4092313014
 51
267.0
  0
ARC
  5
7D5
100
AcDbEntity
  8
RACCORDO
100
AcDbCircle
 62
7
  6
CONTINUOUS
 10
-53.9660665657
 20
-18.3055903213
 40
1.0
100
AcDbArc
 50
271.0
 51
360.0
  0
ARC
  5
7D6
100
AcDbEntity
  8
ASSI
100
AcDbCircle
 62
7
  6
CONTINUOUS
 10
-53.9660665657
 20
-18.3055903213
 40
1.0
100
AcDbArc
 50
271.0
 51
360.0
  0
ARC
  5
7D7
100
AcDbEntity
  8
RACCORDO
100
AcDbCircle
 62
7
  6
CONTINUOUS
 10
-59.0710745977
 20
-20.0949575257
 40
0.7
100
AcDbArc
 50
91.0
 51
135.0011770607
  0
ARC
  5
7D8
100
AcDbEntity
  8
ASSI
100
AcDbCircle
 62
7
  6
CONTINUOUS
 10
-59.0710745977
 20
-20.0949575257
 40
0.7
100
AcDbArc
 50
91.0
 51
135.0011770607
  0
ARC
  5
7D9
100
AcDbEntity
  8
RACCORDO
100
AcDbCircle
 62
7
  6
CONTINUOUS
 10
-61.303937971
 20
-20.6307646241
 40
0.5
100
AcDbArc
 50
271.0
 51
315.0
  0
ARC
  5
7DA
100
AcDbEntity
  8
ASSI
100
AcDbCircle
 62
7
  6
CONTINUOUS
 10
-61.303937971
 20
-20.6307646241
 40
0.5
100
AcDbArc
 50
271.0
 51
315.0
  0
ARC
  5
7DB
100
AcDbEntity
  8
RACCORDO
100
AcDbCircle
 62
7
  6
CONTINUOUS
 10
-78.2668494803
 20
-14.1087868967
 40
0.3
100
AcDbArc
 50
180.6514298813
 51
181.6179335322
  0
ARC
  5
7DC
100
AcDbEntity
  8
0
100
AcDbCircle
 62
7
  6
CONTINUOUS
 10
-77.3249856294
 20
20.9762776025
 40
1.0
100
AcDbArc
 50
93.0
 51
177.5907686986
  0
ARC
  5
7DD
100
AcDbEntity
  8
RACCORDO
100
AcDbCircle
 62
7
  6
CONTINUOUS
 10
-53.9660665657
 20
15.3703969641
 40
1.0
100
AcDbArc
 50
0.0
 51
77.9999999974
  0
ARC
  5
7DE
100
AcDbEntity
  8
ASSI
100
AcDbCircle
 62
7
  6
CONTINUOUS
 10
-53.9660665657
 20
15.3703969641
 40
1.0
100
AcDbArc
 50
0.0
 51
77.9999999974
  0
ARC
  5
7DF
100
AcDbEntity
  8
RACCORDO
100
AcDbCircle
 62
7
  6
CONTINUOUS
 10
-53.1359401944
 20
15.0371409643
 40
0.2
100
AcDbArc
 50
348.0
 51
31.7919721614
  0
ARC
  5
7E0
100
AcDbEntity
  8
RACCORDO
100
AcDbCircle
 62
7
  6
CONTINUOUS
 10
-51.062222788
 20
13.7308253203
 40
0.5
100
AcDbArc
 50
348.0
 51
78.0
  0
ARC
  5
7E1
100
AcDbEntity
  8
ASSI
100
AcDbCircle
 62
7
  6
CONTINUOUS
 10
-51.062222788
 20
13.7308253203
 40
0.5
100
AcDbArc
 50
348.0
 51
78.0
  0
ARC
  5
7E2
100
AcDbEntity
  8
RACCORDO
100
AcDbCircle
 62
7
  6
CONTINUOUS
 10
-53.9660665657
 20
18.3055903213
 40
1.0
100
AcDbArc
 50
0.0
 51
89.0
  0
ARC
  5
7E3
100
AcDbEntity
  8
ASSI
100
AcDbCircle
 62
7
  6
CONTINUOUS
 10
-53.9660665657
 20
18.3055903213
 40
1.0
100
AcDbArc
 50
0.0
 51
89.0
  0
ARC
  5
7E4
100
AcDbEntity
  8
RACCORDO
100
AcDbCircle
 62
7
  6
CONTINUOUS
 10
-59.0710745977
 20
20.0949575257
 40
0.7
100
AcDbArc
 50
225.0000000001
 51
269.0
  0
ARC
  5
7E5
100
AcDbEntity
  8
ASSI
100
AcDbCircle
 62
7
  6
CONTINUOUS
 10
-59.0710745977
 20
20.0949575257
 40
0.7
100
AcDbArc
 50
225.0000000001
 51
269.0
  0
ARC
  5
7E6
100
AcDbEntity
  8
RACCORDO
100
AcDbCircle
 62
7
  6
CONTINUOUS
 10
-57.6660665657
 20
18.8702502256
 40
0.5
100
AcDbArc
 50
0.0
 51
89.0
  0
ARC
  5
7E7
100
AcDbEntity
  8
RACCORDO
100
AcDbCircle
 62
7
  6
CONTINUOUS
 10
-61.303937971
 20
20.6307646241
 40
0.5
100
AcDbArc
 50
45.0
 51
89.0
  0
ARC
  5
7E8
100
AcDbEntity
  8
ASSI
100
AcDbCircle
 62
7
  6
CONTINUOUS
 10
-57.6660665657
 20
18.8702502256
 40
0.5
100
AcDbArc
 50
0.0
 51
89.0
  0
ARC
  5
7E9
100
AcDbEntity
  8
ASSI
100
AcDbCircle
 62
7
  6
CONTINUOUS
 10
-61.303937971
 20
20.6307646241
 40
0.5
100
AcDbArc
 50
45.0
 51
89.0
  0
ARC
  5
7EA
100
AcDbEntity
  8
RACCORDO
100
AcDbCircle
 62
7
  6
CONTINUOUS
 10
421.2339334343
 20
0.0
 40
500.0
100
AcDbArc
 50
180.5751995114
 51
180.8020944425
  0
ARC
  5
7EB
100
AcDbEntity
  8
RACCORDO
100
AcDbCircle
 62
7
  6
CONTINUOUS
 10
421.2339334343
 20
0.0
 40
500.0
100
AcDbArc
 50
178.2444850835
 51
178.3928351927
  0
ARC
  5
7EC
100
AcDbEntity
  8
RACCORDO
100
AcDbCircle
 62
7
  6
CONTINUOUS
 10
421.2339334343
 20
0.0
 40
500.0
100
AcDbArc
 50
178.3946525926
 51
180.0
  0
ARC
  5
7ED
100
AcDbEntity
  8
RACCORDO
100
AcDbCircle
 62
7
  6
CONTINUOUS
 10
421.2339334343
 20
0.0
 40
500.0
100
AcDbArc
 50
181.6072501127
 51
181.7906898694
  0
ARC
  5
7EE
100
AcDbEntity
  8
RACCORDO
100
AcDbCircle
 62
7
  6
CONTINUOUS
 10
421.2339334343
 20
0.0
 40
500.0
100
AcDbArc
 50
180.8038345453
 51
181.604674842
  0
ARC
  5
7EF
100
AcDbEntity
  8
0
100
AcDbCircle
 62
7
  6
CONTINUOUS
 10
421.2339334343
 20
0.0
 40
500.0
100
AcDbArc
 50
177.5907686986
 51
182.4092313014
  0
ELLIPSE
  5
7F0
100
AcDbEntity
  8
0
100
AcDbEllipse
 62
7
  6
CONTINUOUS
 10
21.899923836
 20
-21.899313827
 30
0.0
 11
-0.1582391023
 21
0.4751033573
 31
0.0
 40
0.9984778551
 41
-3.4626430041
 42
-1.8927600658
  0
ELLIPSE
  5
7F1
100
AcDbEntity
  8
0
100
AcDbEllipse
 62
7
  6
CONTINUOUS
 10
21.899923836
 20
21.899313827
 30
0.0
 11
0.1582391023
 21
0.4751033573
 31
0.0
 40
0.9984778551
 41
-1.2488325878
 42
0.3210503505
  0
ELLIPSE
  5
7F2
100
AcDbEntity
  8
0
100
AcDbEllipse
 62
7
  6
CONTINUOUS
 10
-21.899923836
 20
-21.899313827
 30
0.0
 11
0.1582391023
 21
0.4751033573
 31
0.0
 40
0.9984778551
 41
-4.3904252414
 42
-2.8205423031
  0
ELLIPSE
  5
7F3
100
AcDbEntity
  8
0
100
AcDbEllipse
 62
7
  6
CONTINUOUS
 10
-21.899923836
 20
21.899313827
 30
0.0
 11
-0.1582391023
 21
0.4751033573
 31
0.0
 40
0.9984778551
 41
-0.3210503505
 42
1.2488325878
  0
ELLIPSE
  5
7F4
100
AcDbEntity
  8
RACCORDO
100
AcDbEllipse
 62
7
  6
CONTINUOUS
 10
-4.749923836
 20
-15.0922000132
 30
0.0
 11
-0.4331006463
 21
0.2500507747
 31
0.0
 40
0.9997969423
 41
-0.5235108446
 42
0.5235108446
  0
ELLIPSE
  5
7F5
100
AcDbEntity
  8
RACCORDO
100
AcDbEllipse
 62
7
  6
CONTINUOUS
 10
-4.749923836
 20
-11.862738256
 30
0.0
 11
0.4830417635
 21
0.1294306504
 31
0.0
 40
0.9998367628
 41
2.8798340755
 42
3.4033512317
  0
ELLIPSE
  5
7F6
100
AcDbEntity
  8
RACCORDO
100
AcDbEllipse
 62
7
  6
CONTINUOUS
 10
-7.7500456984
 20
-14.7000456984
 30
0.0
 11
0.2121966568
 21
0.2121966568
 31
0.0
 40
0.9996954599
 41
-0.7852458701
 42
0.7852458701
  0
ELLIPSE
  5
7F7
100
AcDbEntity
  8
RACCORDO
100
AcDbEllipse
 62
7
  6
CONTINUOUS
 10
4.749923836
 20
-11.862738256
 30
0.0
 11
0.4830417635
 21
-0.1294306504
 31
0.0
 40
0.9998367628
 41
-0.2617585781
 42
0.2617585781
  0
ELLIPSE
  5
7F8
100
AcDbEntity
  8
RACCORDO
100
AcDbEllipse
 62
7
  6
CONTINUOUS
 10
4.749923836
 20
-15.0922000132
 30
0.0
 11
-0.4331006463
 21
-0.2500507747
 31
0.0
 40
0.9997969423
 41
2.618081809
 42
3.6651034982
  0
ELLIPSE
  5
7F9
100
AcDbEntity
  8
RACCORDO
100
AcDbEllipse
 62
7
  6
CONTINUOUS
 10
7.7500456984
 20
-14.7000456984
 30
0.0
 11
0.2121966568
 21
-0.2121966568
 31
0.0
 40
0.9996954599
 41
2.3563467834
 42
3.9268385237
  0
ENDSEC
  0
SECTION
  2
OBJECTS
  0
DICTIONARY
  5
C
100
AcDbDictionary
280
0
281
1
  3
ACAD_GROUP
350
D
  3
ACAD_MLINESTYLE
350
17
  3
ACAD_LAYOUT
350
1A
  3
ACAD_PLOTSETTINGS
350
19
  3
ACAD_PLOTSTYLENAME
350
E
  0
DICTIONARY
  5
D
102
{ACAD_REACTORS
330
C
102
}
100
AcDbDictionary
280
0
281
1
  0
ACDBDICTIONARYWDFLT
  5
E
102
{ACAD_REACTORS
330
C
102
}
100
AcDbDictionary
281
1
  3
Normal
350
F
100
AcDbDictionaryWithDefault
340
F
  0
DICTIONARY
  5
17
102
{ACAD_REACTORS
330
C
102
}
100
AcDbDictionary
280
0
281
1
  3
Standard
350
18
  0
DICTIONARY
  5
19
102
{ACAD_REACTORS
330
C
102
}
100
AcDbDictionary
281
1
  0
DICTIONARY
  5
1A
102
{ACAD_REACTORS
330
C
102
}
100
AcDbDictionary
281
1
  3
Model
350
7FA
  3
Layout1
350
7FB
  0
ACDBPLACEHOLDER
  5
F
102
{ACAD_REACTORS
330
E
102
}
  0
MLINESTYLE
  5
18
102
{ACAD_REACTORS
330
17
102
}
100
AcDbMlineStyle
  2
STANDARD
 70
0
  3

 62
256
 51
90.0
 52
90.0
 71
2
 49
0.5
 62
256
  6
BYLAYER
 49
-0.5
 62
256
  6
BYLAYER
  0
LAYOUT
  5
7FA
102
{ACAD_REACTORS
330
1A
102
}
100
AcDbPlotSettings
  1

  2
none_device
  4
ISO_A4_(297.00_x_210.00_MM)
  6

 40
0.0
 41
0.0
 42
0.0
 43
0.0
 44
297.0
 45
210.0
 46
0.0
 47
0.0
 48
0.0
 49
0.0
140
0.0
141
0.0
142
1.0
143
1.0
 70
1024
 72
1
 73
0
 74
0
  7

 75
0
147
1.0
148
0.0
149
0.0
100
AcDbLayout
  1
Model
 70
0
 71
0
 10
0.0
 20
0.0
 11
297.0
 21
210.0
 12
0.0
 22
0.0
 32
0.0
 14
0.0
 24
0.0
 34
0.0
 15
0.0
 25
0.0
 35
0.0
146
0.0
 13
0.0
 23
0.0
 33
0.0
 16
1.0
 26
0.0
 36
0.0
 17
0.0
 27
1.0
 37
0.0
 76
0
330
217
345
0
346
0
  0
LAYOUT
  5
7FB
102
{ACAD_REACTORS
330
1A
102
}
100
AcDbPlotSettings
  1

  2
none_device
  4
ISO_A4_(297.00_x_210.00_MM)
  6

 40
0.0
 41
0.0
 42
0.0
 43
0.0
 44
297.0
 45
210.0
 46
0.0
 47
0.0
 48
0.0
 49
0.0
140
0.0
141
0.0
142
1.0
143
1.0
 70
0
 72
1
 73
0
 74
0
  7

 75
0
147
1.0
148
0.0
149
0.0
100
AcDbLayout
  1
Layout1
 70
0
 71
1
 10
0.0
 20
0.0
 11
297.0
 21
210.0
 12
0.0
 22
0.0
 32
0.0
 14
0.0
 24
0.0
 34
0.0
 15
0.0
 25
0.0
 35
0.0
146
0.0
 13
0.0
 23
0.0
 33
0.0
 16
1.0
 26
0.0
 36
0.0
 17
0.0
 27
1.0
 37
0.0
 76
0
330
218
345
0
346
0
  0
ENDSEC
  0
EOF
