  0
SECTION
  2
HEADER
  9
$ACADVER
  1
AC1024
  9
$DWGCODEPAGE
  3
ANSI_1252
  9
$EXTMAX
 10
279.4
 20
215.9
 30
0.0
  9
$EXTMIN
 10
0.0
 20
0.0
 30
0.0
  9
$LIMMIN
 10
0.0
 20
0.0
  9
$LIMMAX
 10
279.4
 20
215.9
  9
$VIEWCTR
 10
139.7
 20
107.95
  9
$VIEWSIZE
 40
215.9
  9
$CLAYER
  8
0
  9
$LTSCALE
 40
15.367
  9
$CELTYPE
  6
BYLAYER
  9
$DIMSCALE
 40
1.0
  9
$DIMASZ
 40
3.0
  9
$DIMEXO
 40
0.5
  9
$DIMDLI
 40
10.6172
  9
$DIMEXE
 40
1.5
  9
$DIMCEN
 40
2.5146
  9
$DIMLFAC
 40
1.0
  9
$DIMBLK
  1
_FILLED
  9
$DIMALT
 70
0
  9
$DIMALTF
 40
0.0393700787
  9
$DIMTXT
 40
3.0
  9
$DIMTOL
 70
1
  9
$DIMLIM
 70
0
  9
$DIMTFAC
 40
1.0
  9
$DIMTP
 40
0.01
  9
$DIMTM
 40
0.01
  9
$DIMGAP
 40
0.625
  9
$DIMDSEP
 70
44
  9
$AUNITS
 70
0
  9
$PDMODE
 70
3
  9
$PDSIZE
 40
3.0
  9
$HANDSEED
  5
4E5
  9
$TILEMODE
 70
1
  9
$MEASUREMENT
 70
1
  9
$INSUNITS
 70
4
  0
ENDSEC
  0
SECTION
  2
CLASSES
  0
CLASS
  1
ACDBDICTIONARYWDFLT
  2
AcDbDictionaryWithDefault
  3
AutoCAD 2000
 90
0
 91
1
280
0
281
0
  0
CLASS
  1
ACDBPLACEHOLDER
  2
AcDbPlaceHolder
  3
AutoCAD 2000
 90
0
 91
1
280
0
281
0
  0
CLASS
  1
LAYOUT
  2
AcDbLayout
  3
AutoCAD 2000
 90
0
 91
0
280
0
281
0
  0
ENDSEC
  0
SECTION
  2
TABLES
  0
TABLE
  2
VPORT
  5
8
100
AcDbSymbolTable
 70
2
  0
VPORT
  5
1F4
100
AcDbSymbolTableRecord
100
AcDbViewportTableRecord
  2
*ACTIVE
 70
0
 10
0.0
 20
0.0
 11
1.0
 21
1.0
 12
139.7
 22
107.95
 13
0.0
 23
0.0
 14
1.0
 24
1.0
 15
0.0
 25
0.0
 16
0.0
 26
0.0
 36
1.0
 17
0.0
 27
0.0
 37
0.0
 40
215.9
 41
1.2941176471
 42
50.0
 43
0.0
 44
0.0
 50
0.0
 51
0.0
 71
0
 72
100
 73
1
 74
1
 75
0
 76
0
 77
0
 78
0
  0
ENDTAB
  0
TABLE
  2
LTYPE
  5
5
100
AcDbSymbolTable
 70
6
  0
LTYPE
  5
14
100
AcDbSymbolTableRecord
100
AcDbLinetypeTableRecord
  2
BYBLOCK
 70
0
  3

 72
65
 73
0
 40
0.0
  0
LTYPE
  5
15
100
AcDbSymbolTableRecord
100
AcDbLinetypeTableRecord
  2
BYLAYER
 70
0
  3

 72
65
 73
0
 40
0.0
  0
LTYPE
  5
16
100
AcDbSymbolTableRecord
100
AcDbLinetypeTableRecord
  2
CONTINUOUS
 70
64
  3
Solid line
 72
65
 73
0
 40
0.0
  0
LTYPE
  5
1F5
100
AcDbSymbolTableRecord
100
AcDbLinetypeTableRecord
  2
CENTER
 70
64
  3
____ _ ____ _ ____ _ ____ _ ____ _ ____ _ ____
 72
65
 73
4
 40
0.6
 49
0.375
 74
0
 49
-0.075
 74
0
 49
0.075
 74
0
 49
-0.075
 74
0
  0
LTYPE
  5
1F6
100
AcDbSymbolTableRecord
100
AcDbLinetypeTableRecord
  2
HIDDEN
 70
64
  3
- - - - - - - - - - - - - - - - - - - -
 72
65
 73
2
 40
0.2
 49
0.1
 74
0
 49
-0.1
 74
0
  0
LTYPE
  5
1F7
100
AcDbSymbolTableRecord
100
AcDbLinetypeTableRecord
  2
PHANTOM
 70
64
  3
_____ _ _ _____ _ _ _____ _ _ _____
 72
65
 73
6
 40
0.8
 49
0.45
 74
0
 49
-0.05
 74
0
 49
0.1
 74
0
 49
-0.05
 74
0
 49
0.1
 74
0
 49
-0.05
 74
0
  0
LTYPE
  5
1F8
100
AcDbSymbolTableRecord
100
AcDbLinetypeTableRecord
  2
DOT
 70
64
  3
. . . . . . . . . . . . . . . . . . . .
 72
65
 73
2
 40
0.2
 49
0.1
 74
0
 49
-0.1
 74
0
  0
LTYPE
  5
1F9
100
AcDbSymbolTableRecord
100
AcDbLinetypeTableRecord
  2
DASHED
 70
64
  3
- - - - - - - - - - - - - - - - - - - -
 72
65
 73
2
 40
0.2
 49
0.1
 74
0
 49
-0.1
 74
0
  0
ENDTAB
  0
TABLE
  2
LAYER
  5
2
100
AcDbSymbolTable
 70
36
  0
LAYER
  5
10
100
AcDbSymbolTableRecord
100
AcDbLayerTableRecord
  2
0
 70
0
 62
7
  6
CONTINUOUS
370
-3
390
F
  0
LAYER
  5
1FA
100
AcDbSymbolTableRecord
100
AcDbLayerTableRecord
  2
DEFAULT_1
 70
0
 62
7
  6
CENTER
370
-3
390
F
  0
LAYER
  5
1FB
100
AcDbSymbolTableRecord
100
AcDbLayerTableRecord
  2
DEFAULT_2
 70
0
 62
7
  6
HIDDEN
370
-3
390
F
  0
LAYER
  5
1FC
100
AcDbSymbolTableRecord
100
AcDbLayerTableRecord
  2
DEFAULT_3
 70
0
 62
7
  6
PHANTOM
370
-3
390
F
  0
LAYER
  5
1FD
100
AcDbSymbolTableRecord
100
AcDbLayerTableRecord
  2
ASSI
 70
0
 62
7
  6
CONTINUOUS
370
-3
390
F
  0
LAYER
  5
1FE
100
AcDbSymbolTableRecord
100
AcDbLayerTableRecord
  2
COORDINATE
 70
0
 62
7
  6
CONTINUOUS
370
-3
390
F
  0
LAYER
  5
1FF
100
AcDbSymbolTableRecord
100
AcDbLayerTableRecord
  2
COORD_ORIGINE
 70
0
 62
7
  6
CONTINUOUS
370
-3
390
F
  0
LAYER
  5
200
100
AcDbSymbolTableRecord
100
AcDbLayerTableRecord
  2
COPY-PUBBLISH
 70
0
 62
7
  6
CONTINUOUS
370
-3
390
F
  0
LAYER
  5
201
100
AcDbSymbolTableRecord
100
AcDbLayerTableRecord
  2
COPY_PUBLISH
 70
0
 62
7
  6
CONTINUOUS
370
-3
390
F
  0
LAYER
  5
202
100
AcDbSymbolTableRecord
100
AcDbLayerTableRecord
  2
COSMETIC
 70
0
 62
7
  6
CONTINUOUS
370
-3
390
F
  0
LAYER
  5
203
100
AcDbSymbolTableRecord
100
AcDbLayerTableRecord
  2
COSMETICHE
 70
0
 62
7
  6
CONTINUOUS
370
-3
390
F
  0
LAYER
  5
204
100
AcDbSymbolTableRecord
100
AcDbLayerTableRecord
  2
CURVE
 70
0
 62
7
  6
CONTINUOUS
370
-3
390
F
  0
LAYER
  5
205
100
AcDbSymbolTableRecord
100
AcDbLayerTableRecord
  2
DRAFT
 70
0
 62
7
  6
CONTINUOUS
370
-3
390
F
  0
LAYER
  5
206
100
AcDbSymbolTableRecord
100
AcDbLayerTableRecord
  2
IMPORT_IGES
 70
0
 62
7
  6
CONTINUOUS
370
-3
390
F
  0
LAYER
  5
207
100
AcDbSymbolTableRecord
100
AcDbLayerTableRecord
  2
INTF_1
 70
0
 62
7
  6
CONTINUOUS
370
-3
390
F
  0
LAYER
  5
208
100
AcDbSymbolTableRecord
100
AcDbLayerTableRecord
  2
INTF_11
 70
0
 62
7
  6
CONTINUOUS
370
-3
390
F
  0
LAYER
  5
209
100
AcDbSymbolTableRecord
100
AcDbLayerTableRecord
  2
NOTE
 70
0
 62
7
  6
CONTINUOUS
370
-3
390
F
  0
LAYER
  5
20A
100
AcDbSymbolTableRecord
100
AcDbLayerTableRecord
  2
PIANI
 70
0
 62
7
  6
CONTINUOUS
370
-3
390
F
  0
LAYER
  5
20B
100
AcDbSymbolTableRecord
100
AcDbLayerTableRecord
  2
PIANI_ORIGINE
 70
0
 62
7
  6
CONTINUOUS
370
-3
390
F
  0
LAYER
  5
20C
100
AcDbSymbolTableRecord
100
AcDbLayerTableRecord
  2
PUNTI
 70
0
 62
7
  6
CONTINUOUS
370
-3
390
F
  0
LAYER
  5
20D
100
AcDbSymbolTableRecord
100
AcDbLayerTableRecord
  2
RACCORDO
 70
0
 62
7
  6
CONTINUOUS
370
-3
390
F
  0
LAYER
  5
20E
100
AcDbSymbolTableRecord
100
AcDbLayerTableRecord
  2
RGB____0____0____0__
 70
0
 62
7
  6
CONTINUOUS
370
-3
390
F
  0
LAYER
  5
20F
100
AcDbSymbolTableRecord
100
AcDbLayerTableRecord
  2
SMUSSO
 70
0
 62
7
  6
CONTINUOUS
370
-3
390
F
  0
LAYER
  5
210
100
AcDbSymbolTableRecord
100
AcDbLayerTableRecord
  2
SNAPLINE
 70
0
 62
7
  6
CONTINUOUS
370
-3
390
F
  0
LAYER
  5
211
100
AcDbSymbolTableRecord
100
AcDbLayerTableRecord
  2
SUP-SCAVI-INCLINATI
 70
0
 62
7
  6
CONTINUOUS
370
-3
390
F
  0
LAYER
  5
212
100
AcDbSymbolTableRecord
100
AcDbLayerTableRecord
  2
SUP-SCAVI-INCLINATI-SUP
 70
0
 62
7
  6
CONTINUOUS
370
-3
390
F
  0
LAYER
  5
213
100
AcDbSymbolTableRecord
100
AcDbLayerTableRecord
  2
SUPERFICI
 70
0
 62
7
  6
CONTINUOUS
370
-3
390
F
  0
LAYER
  5
214
100
AcDbSymbolTableRecord
100
AcDbLayerTableRecord
  2
TRASH
 70
0
 62
7
  6
CONTINUOUS
370
-3
390
F
  0
ENDTAB
  0
TABLE
  2
STYLE
  5
3
100
AcDbSymbolTable
 70
1
  0
STYLE
  5
11
100
AcDbSymbolTableRecord
100
AcDbTextStyleTableRecord
  2
STANDARD
 70
0
 40
0.0
 41
0.8
 50
0.0
 71
0
 42
0.2
  3
txt
  4

  0
STYLE
  5
215
100
AcDbSymbolTableRecord
100
AcDbTextStyleTableRecord
  2
TEXTSTYLE_1
 70
0
 40
0.0
 41
0.8
 50
0.0
 71
0
 42
0.2
  3
gdt
  4

  0
ENDTAB
  0
TABLE
  2
VIEW
  5
6
100
AcDbSymbolTable
 70
0
  0
ENDTAB
  0
TABLE
  2
UCS
  5
7
100
AcDbSymbolTable
 70
0
  0
ENDTAB
  0
TABLE
  2
APPID
  5
9
100
AcDbSymbolTable
 70
1
  0
APPID
  5
216
100
AcDbSymbolTableRecord
100
AcDbRegAppTableRecord
  2
ACAD
 70
0
  0
ENDTAB
  0
TABLE
  2
BLOCK_RECORD
  5
1
100
AcDbSymbolTable
 70
0
  0
BLOCK_RECORD
  5
217
100
AcDbSymbolTableRecord
100
AcDbBlockTableRecord
  2
*Model_Space
  0
BLOCK_RECORD
  5
218
100
AcDbSymbolTableRecord
100
AcDbBlockTableRecord
  2
*Paper_Space
  0
BLOCK_RECORD
  5
219
100
AcDbSymbolTableRecord
100
AcDbBlockTableRecord
  2
_FILLED
  0
BLOCK_RECORD
  5
21A
100
AcDbSymbolTableRecord
100
AcDbBlockTableRecord
  2
*D0
  0
BLOCK_RECORD
  5
21B
100
AcDbSymbolTableRecord
100
AcDbBlockTableRecord
  2
*D1
  0
BLOCK_RECORD
  5
21C
100
AcDbSymbolTableRecord
100
AcDbBlockTableRecord
  2
*D2
  0
BLOCK_RECORD
  5
21D
100
AcDbSymbolTableRecord
100
AcDbBlockTableRecord
  2
*D3
  0
ENDTAB
  0
TABLE
  2
DIMSTYLE
  5
A
100
AcDbSymbolTable
 70
1
100
AcDbDimStyleTable
 71
0
  0
DIMSTYLE
105
21E
100
AcDbSymbolTableRecord
100
AcDbDimStyleTableRecord
  2
STANDARD
 70
0
  3

  4

 40
1.0
 41
3.0
 42
0.5
 43
0.38
 44
1.5
 45
0.0
 46
0.0
 47
0.01
 48
0.01
140
3.0
141
0.09
142
0.0
143
25.4
144
1.0
145
0.0
146
1.0
147
0.625
 71
1.0
 72
0.0
 73
0
 74
0
 75
0
 76
0
 77
1
 78
8
 79
2
170
0
171
1
172
0
173
0
174
0
175
0
176
0
177
0
178
0
270
2
179
2
271
2
272
2
273
2
274
2
275
0
280
0
281
0
282
0
283
1
284
8
285
0
286
0
287
3
288
0
340
11
278
44
341
219
342
219
343
219
344
219
  0
DIMSTYLE
105
21F
100
AcDbSymbolTableRecord
100
AcDbDimStyleTableRecord
  2
DIMSTYLE_1
 70
0
  3

  4

 40
1.0
 41
3.0
 42
0.5
 43
0.38
 44
1.5
 45
0.0
 46
0.0
 47
0.0
 48
0.0
140
3.0
141
0.09
142
0.0
143
25.4
144
1.0
145
0.0
146
1.0
147
0.75
 71
0.0
 72
0.0
 73
0
 74
0
 75
0
 76
0
 77
1
 78
8
 79
2
170
0
171
1
172
0
173
0
174
0
175
0
176
0
177
0
178
0
270
2
179
2
271
2
272
2
273
2
274
2
275
0
280
0
281
0
282
0
283
1
284
8
285
0
286
0
287
3
288
0
340
11
278
44
341
219
342
219
343
219
344
219
  0
ENDTAB
  0
ENDSEC
  0
SECTION
  2
BLOCKS
  0
BLOCK
  5
20
100
AcDbEntity
  8
0
100
AcDbBlockBegin
  2
*Model_Space
 70
0
 10
0.0
 20
0.0
 30
0.0
  3
*Model_Space
  1

  0
ENDBLK
  5
21
100
AcDbEntity
  8
0
100
AcDbBlockEnd
  0
BLOCK
  5
1C
100
AcDbEntity
  8
0
100
AcDbBlockBegin
  2
*Paper_Space
 70
0
 10
0.0
 20
0.0
 30
0.0
  3
*Paper_Space
  1

  0
ENDBLK
  5
1D
100
AcDbEntity
  8
0
100
AcDbBlockEnd
  0
BLOCK
  5
220
100
AcDbEntity
  8
0
100
AcDbBlockBegin
  2
_FILLED
 70
64
 10
0.0
 20
0.0
  3
_FILLED
  1

  0
SOLID
  5
221
100
AcDbEntity
  8
0
  6
BYBLOCK
 62
0
100
AcDbTrace
 10
0.0
 20
0.0
 11
-1.0
 21
0.3166666667
 12
-1.0
 22
-0.3166666667
 13
-1.0
 23
-0.3166666667
  0
ENDBLK
  5
222
100
AcDbEntity
  8
0
  6
BYBLOCK
 62
0
100
AcDbBlockEnd
  0
BLOCK
  5
223
100
AcDbEntity
  8
0
100
AcDbBlockBegin
 62
7
  6
CONTINUOUS
  2
*D0
 70
65
 10
0.0
 20
0.0
  3
*D0
  1

  0
LINE
  5
224
100
AcDbEntity
  8
0
100
AcDbLine
 62
7
  6
CONTINUOUS
 10
1.8273159236
 20
14.2458117303
 11
1.8273159236
 21
33.208150391
  0
LINE
  5
225
100
AcDbEntity
  8
0
100
AcDbLine
 62
7
  6
CONTINUOUS
 10
-30.6726840672
 20
22.6079215389
 11
-30.6726840672
 21
33.208150391
  0
LINE
  5
226
100
AcDbEntity
  8
0
100
AcDbLine
 62
7
  6
CONTINUOUS
 10
1.8273159236
 20
31.708150391
 11
-14.4226840718
 21
31.708150391
  0
LINE
  5
227
100
AcDbEntity
  8
0
100
AcDbLine
 62
7
  6
CONTINUOUS
 10
-30.6726840672
 20
31.708150391
 11
-14.4226840718
 21
31.708150391
  0
INSERT
  5
228
100
AcDbEntity
  8
0
100
AcDbBlockReference
 62
7
  6
CONTINUOUS
  2
_FILLED
 10
1.8273159236
 20
31.708150391
 41
3.0
 42
3.0
 43
3.0
 50
0.0
  0
INSERT
  5
229
100
AcDbEntity
  8
0
100
AcDbBlockReference
 62
7
  6
CONTINUOUS
  2
_FILLED
 10
-30.6726840672
 20
31.708150391
 41
3.0
 42
3.0
 43
3.0
 50
180.0
  0
ENDBLK
  5
22A
100
AcDbEntity
  8
0
  6
BYBLOCK
 62
0
100
AcDbBlockEnd
  0
BLOCK
  5
22B
100
AcDbEntity
  8
0
100
AcDbBlockBegin
 62
7
  6
CONTINUOUS
  2
*D1
 70
65
 10
0.0
 20
0.0
  3
*D1
  1

  0
LINE
  5
22C
100
AcDbEntity
  8
0
100
AcDbLine
 62
7
  6
CONTINUOUS
 10
-40.1726840672
 20
0.708150391
 11
-40.1726840672
 21
43.208150391
  0
LINE
  5
22D
100
AcDbEntity
  8
0
100
AcDbLine
 62
7
  6
CONTINUOUS
 10
1.8273159236
 20
14.2458117303
 11
1.8273159236
 21
43.208150391
  0
LINE
  5
22E
100
AcDbEntity
  8
0
100
AcDbLine
 62
7
  6
CONTINUOUS
 10
-40.1726840672
 20
41.708150391
 11
-19.1726840718
 21
41.708150391
  0
LINE
  5
22F
100
AcDbEntity
  8
0
100
AcDbLine
 62
7
  6
CONTINUOUS
 10
1.8273159236
 20
41.708150391
 11
-19.1726840718
 21
41.708150391
  0
INSERT
  5
230
100
AcDbEntity
  8
0
100
AcDbBlockReference
 62
7
  6
CONTINUOUS
  2
_FILLED
 10
-40.1726840672
 20
41.708150391
 41
3.0
 42
3.0
 43
3.0
 50
180.0
  0
INSERT
  5
231
100
AcDbEntity
  8
0
100
AcDbBlockReference
 62
7
  6
CONTINUOUS
  2
_FILLED
 10
1.8273159236
 20
41.708150391
 41
3.0
 42
3.0
 43
3.0
  0
ENDBLK
  5
232
100
AcDbEntity
  8
0
  6
BYBLOCK
 62
0
100
AcDbBlockEnd
  0
BLOCK
  5
233
100
AcDbEntity
  8
0
100
AcDbBlockBegin
 62
7
  6
CONTINUOUS
  2
*D2
 70
65
 10
0.0
 20
0.0
  3
*D2
  1

  0
LINE
  5
234
100
AcDbEntity
  8
0
100
AcDbLine
 62
7
  6
CONTINUOUS
 10
13.6750675676
 20
22.6079215389
 11
13.6750675676
 21
33.208150391
  0
LINE
  5
235
100
AcDbEntity
  8
0
100
AcDbLine
 62
7
  6
CONTINUOUS
 10
35.9750675676
 20
22.6079215389
 11
35.9750675676
 21
33.208150391
  0
LINE
  5
236
100
AcDbEntity
  8
0
100
AcDbLine
 62
7
  6
CONTINUOUS
 10
13.6750675676
 20
31.708150391
 11
24.8250675676
 21
31.708150391
  0
LINE
  5
237
100
AcDbEntity
  8
0
100
AcDbLine
 62
7
  6
CONTINUOUS
 10
35.9750675676
 20
31.708150391
 11
24.8250675676
 21
31.708150391
  0
INSERT
  5
238
100
AcDbEntity
  8
0
100
AcDbBlockReference
 62
7
  6
CONTINUOUS
  2
_FILLED
 10
13.6750675676
 20
31.708150391
 41
3.0
 42
3.0
 43
3.0
 50
180.0
  0
INSERT
  5
239
100
AcDbEntity
  8
0
100
AcDbBlockReference
 62
7
  6
CONTINUOUS
  2
_FILLED
 10
35.9750675676
 20
31.708150391
 41
3.0
 42
3.0
 43
3.0
  0
ENDBLK
  5
23A
100
AcDbEntity
  8
0
  6
BYBLOCK
 62
0
100
AcDbBlockEnd
  0
BLOCK
  5
23B
100
AcDbEntity
  8
0
100
AcDbBlockBegin
 62
7
  6
CONTINUOUS
  2
*D3
 70
65
 10
0.0
 20
0.0
  3
*D3
  1

  0
LINE
  5
23C
100
AcDbEntity
  8
0
100
AcDbLine
 62
7
  6
CONTINUOUS
 10
28.9999250457
 20
23.708150391
 11
45.4750675676
 21
23.708150391
  0
LINE
  5
23D
100
AcDbEntity
  8
0
100
AcDbLine
 62
7
  6
CONTINUOUS
 10
28.9999250457
 20
-23.291849609
 11
45.4750675676
 21
-23.291849609
  0
LINE
  5
23E
100
AcDbEntity
  8
0
100
AcDbLine
 62
7
  6
CONTINUOUS
 10
43.9750675676
 20
23.708150391
 11
43.9750675676
 21
0.208150391
  0
LINE
  5
23F
100
AcDbEntity
  8
0
100
AcDbLine
 62
7
  6
CONTINUOUS
 10
43.9750675676
 20
-23.291849609
 11
43.9750675676
 21
0.208150391
  0
INSERT
  5
240
100
AcDbEntity
  8
0
100
AcDbBlockReference
 62
7
  6
CONTINUOUS
  2
_FILLED
 10
43.9750675676
 20
23.708150391
 41
3.0
 42
3.0
 43
3.0
 50
90.0
  0
INSERT
  5
241
100
AcDbEntity
  8
0
100
AcDbBlockReference
 62
7
  6
CONTINUOUS
  2
_FILLED
 10
43.9750675676
 20
-23.291849609
 41
3.0
 42
3.0
 43
3.0
 50
270.0
  0
ENDBLK
  5
242
100
AcDbEntity
  8
0
  6
BYBLOCK
 62
0
100
AcDbBlockEnd
  0
ENDSEC
  0
SECTION
  2
ENTITIES
  0
DIMENSION
  5
243
100
AcDbEntity
  8
0
100
AcDbDimension
 62
7
  6
CONTINUOUS
  2
*D0
 10
-30.6726840672
 20
31.708150391
 11
-18.6012555004
 21
31.708150391
 70
160
 71
2
 72
2
 41
0.9
 42
32.4999999908
  3
DIMSTYLE_1
100
AcDbAlignedDimension
 13
1.8273159236
 23
13.7458117303
 14
-30.6726840672
 24
22.1079215389
 50
180.0
100
AcDbRotatedDimension
  0
DIMENSION
  5
244
100
AcDbEntity
  8
0
100
AcDbDimension
 62
7
  6
CONTINUOUS
  2
*D1
 10
1.8273159236
 20
41.708150391
 11
-21.529826929
 21
41.708150391
 70
160
 71
2
 72
2
 41
0.9
 42
41.9999999908
  3
DIMSTYLE_1
100
AcDbAlignedDimension
 13
-40.1726840672
 23
0.208150391
 14
1.8273159236
 24
13.7458117303
100
AcDbRotatedDimension
  0
DIMENSION
  5
245
100
AcDbEntity
  8
0
100
AcDbDimension
 62
7
  6
CONTINUOUS
  2
*D2
 10
35.9750675676
 20
31.708150391
 11
20.5393532819
 21
31.708150391
 70
160
 71
2
 72
2
 41
0.9
 42
22.3
  3
DIMSTYLE_1
100
AcDbAlignedDimension
 13
13.6750675676
 23
22.1079215389
 14
35.9750675676
 24
22.1079215389
100
AcDbRotatedDimension
  0
DIMENSION
  5
246
100
AcDbEntity
  8
0
100
AcDbDimension
 62
7
  6
CONTINUOUS
  2
*D3
 10
43.9750675676
 20
-23.291849609
 11
43.9750675676
 21
-0.6262682749
 70
160
 71
2
 72
2
 41
0.9
 42
47.0
  3
DIMSTYLE_1
100
AcDbAlignedDimension
 13
28.4999250457
 23
23.708150391
 14
28.4999250457
 24
-23.291849609
 50
270.0
100
AcDbRotatedDimension
  0
LWPOLYLINE
  5
247
100
AcDbEntity
  8
0
100
AcDbPolyline
 62
7
  6
CONTINUOUS
 90
5
 70
0
 43
0.3500000087
 10
-17.7441126556
 20
34.1724381836
 10
-17.386970211
 20
34.3867204529
 10
-17.386970211
 20
35.0295800507
 10
-17.7441126556
 20
35.4581488525
 10
-18.6012545227
 20
35.4581488525
  0
LINE
  5
248
100
AcDbEntity
  8
TRASH
100
AcDbLine
 62
7
  6
CONTINUOUS
 10
-26.6726840672
 20
-22.8917400838
 11
-27.9939040432
 21
-22.9191141138
  0
LINE
  5
249
100
AcDbEntity
  8
TRASH
100
AcDbLine
 62
7
  6
CONTINUOUS
 10
-27.9939040432
 20
-22.9191141138
 11
-29.3272678586
 21
-22.9457666127
  0
LINE
  5
24A
100
AcDbEntity
  8
TRASH
100
AcDbLine
 62
7
  6
CONTINUOUS
 10
-29.3272678586
 20
-22.9457666127
 11
-30.6726840672
 21
-22.9717581707
  0
LINE
  5
24B
100
AcDbEntity
  8
TRASH
100
AcDbLine
 62
7
  6
CONTINUOUS
 10
-26.6726840672
 20
-23.2220293493
 11
-30.6726840672
 21
-23.291849609
  0
LINE
  5
24C
100
AcDbEntity
  8
TRASH
100
AcDbLine
 62
250
  6
CONTINUOUS
 10
-26.6726840672
 20
-23.0549569708
 11
-30.6726840672
 21
-23.1252092665
  0
LINE
  5
24D
100
AcDbEntity
  8
0
100
AcDbLine
 62
7
  6
CONTINUOUS
 10
-38.7839390871
 20
-21.7667567462
 11
-30.6726840672
 21
-22.191849609
  0
LWPOLYLINE
  5
24E
100
AcDbEntity
  8
0
100
AcDbPolyline
 62
250
  6
CONTINUOUS
 90
19
 70
0
 10
-39.2398873693
 20
-20.7891455257
 10
-39.2363725926
 20
-20.8304786867
 10
-39.2296404507
 20
-20.8708628612
 10
-39.2196909436
 20
-20.9102980493
 10
-39.2064099606
 20
-20.9490413407
 10
-39.1899116124
 20
-20.9868356457
 10
-39.1705382314
 20
-21.0229096946
 10
-39.1482393631
 20
-21.057217916
 10
-39.1230654621
 20
-21.0898058814
 10
-39.0955102236
 20
-21.1200390353
 10
-39.0655223061
 20
-21.1478756501
 10
-39.0331530512
 20
-21.1733574533
 10
-38.9990501794
 20
-21.1959750723
 10
-38.9631638615
 20
-21.2156725006
 10
-38.9255439267
 20
-21.2325057447
 10
-38.8869875836
 20
-21.2461334499
 10
-38.8477605682
 20
-21.2564418316
 10
-38.8075971444
 20
-21.2635446746
 10
-38.7664973122
 20
-21.2674419788
  0
LWPOLYLINE
  5
24F
100
AcDbEntity
  8
0
100
AcDbPolyline
 62
250
  6
CONTINUOUS
 90
10
 70
0
 10
-39.2398873693
 20
21.2054463077
 10
-39.4143130286
 20
16.5406275065
 10
-39.5451323042
 20
11.8751867915
 10
-39.6323451961
 20
7.2091241628
 10
-39.6759517457
 20
2.5420260548
 10
-39.6759519116
 20
-2.1256939669
 10
-39.6323455693
 20
-6.7927952055
 10
-39.5451326775
 20
-11.4588640953
 10
-39.4143132774
 20
-16.1243142021
 10
-39.2398873693
 20
-20.7891455257
  0
LINE
  5
250
100
AcDbEntity
  8
RACCORDO
100
AcDbLine
 62
250
  6
CONTINUOUS
 10
-22.656673898
 20
21.2333887507
 11
-22.7018292693
 21
21.2158687893
  0
LINE
  5
251
100
AcDbEntity
  8
RACCORDO
100
AcDbLine
 62
7
  6
CONTINUOUS
 10
-22.7018292693
 20
-20.9225380807
 11
-26.4761745485
 21
-20.9884195226
  0
LINE
  5
252
100
AcDbEntity
  8
RACCORDO
100
AcDbLine
 62
250
  6
CONTINUOUS
 10
-22.7016455587
 20
-20.799564794
 11
-26.4761745485
 21
-20.8657448327
  0
LINE
  5
253
100
AcDbEntity
  8
TRASH
100
AcDbLine
 62
7
  6
CONTINUOUS
 10
-28.4370127198
 20
-22.4353298149
 11
-30.6726840672
 21
-22.455016231
  0
LINE
  5
254
100
AcDbEntity
  8
TRASH
100
AcDbLine
 62
7
  6
CONTINUOUS
 10
-26.6726840672
 20
-22.4217162116
 11
-28.4370127198
 21
-22.4353298149
  0
LINE
  5
255
100
AcDbEntity
  8
TRASH
100
AcDbLine
 62
7
  6
CONTINUOUS
 10
-24.5231885833
 20
-21.991849609
 11
-25.0726840672
 21
-21.991849609
  0
LINE
  5
256
100
AcDbEntity
  8
0
100
AcDbLine
 62
250
  6
CONTINUOUS
 10
-38.7664973122
 20
-21.2674419788
 11
-30.6726840672
 21
-21.6916207569
  0
LWPOLYLINE
  5
257
100
AcDbEntity
  8
RACCORDO
100
AcDbPolyline
 62
250
  6
CONTINUOUS
 90
8
 70
0
 10
-22.7018292693
 20
-20.7995680072
 10
-22.6557885018
 20
-20.8161800943
 10
-22.6106768381
 20
-20.828660166
 10
-22.5669329574
 20
-20.8364748203
 10
-22.5247958919
 20
-20.8389227486
 10
-22.4847675443
 20
-20.8360277832
 10
-22.447666916
 20
-20.8283811732
 10
-22.4139592355
 20
-20.8160182954
  0
LINE
  5
258
100
AcDbEntity
  8
0
100
AcDbLine
 62
250
  6
CONTINUOUS
 10
-38.7763779467
 20
21.8867172616
 11
-38.780201143
 21
21.9770808132
  0
LWPOLYLINE
  5
259
100
AcDbEntity
  8
0
100
AcDbPolyline
 62
250
  6
CONTINUOUS
 90
9
 70
0
 10
-38.780201143
 20
21.9770808132
 10
-38.7830452169
 20
22.0546397343
 10
-38.7840594438
 20
22.0875331994
 10
-38.7847859852
 20
22.1160078346
 10
-38.785216887
 20
22.1397519708
 10
-38.78534743
 20
22.1585056913
 10
-38.7851761832
 20
22.1720637175
 10
-38.784705019
 20
22.1802776405
 10
-38.7839390917
 20
22.183057528
  0
LWPOLYLINE
  5
25A
100
AcDbEntity
  8
0
100
AcDbPolyline
 62
250
  6
CONTINUOUS
 90
7
 70
0
 10
-38.7840595818
 20
-21.6712353765
 10
-38.784786085
 20
-21.6997093289
 10
-38.7852169503
 20
-21.723452771
 10
-38.7853474622
 20
-21.7422058668
 10
-38.7851761924
 20
-21.7557633921
 10
-38.7847050153
 20
-21.7639769803
 10
-38.7839390871
 20
-21.7667567462
  0
LINE
  5
25B
100
AcDbEntity
  8
0
100
AcDbLine
 62
250
  6
CONTINUOUS
 10
-38.7817546119
 20
-21.6013907156
 11
-38.7840595818
 21
-21.6712353765
  0
LWPOLYLINE
  5
25C
100
AcDbEntity
  8
0
100
AcDbPolyline
 62
250
  6
CONTINUOUS
 90
3
 70
0
 10
-38.7763781738
 20
-21.4704205658
 10
-38.7784026622
 20
-21.5169677992
 10
-38.7817546119
 20
-21.6013907156
  0
LINE
  5
25D
100
AcDbEntity
  8
0
100
AcDbLine
 62
250
  6
CONTINUOUS
 10
-39.7280389132
 20
-20.8100131083
 11
-39.7307135316
 21
-20.810163603
  0
LINE
  5
25E
100
AcDbEntity
  8
0
100
AcDbLine
 62
250
  6
CONTINUOUS
 10
-39.3921588298
 20
-20.7955716866
 11
-39.7280389132
 21
-20.8100131083
  0
LWPOLYLINE
  5
25F
100
AcDbEntity
  8
0
100
AcDbPolyline
 62
250
  6
CONTINUOUS
 90
3
 70
0
 10
-39.2398873693
 20
-20.7891455257
 10
-39.2914726882
 20
-20.7913185404
 10
-39.3921588298
 20
-20.7955716866
  0
LWPOLYLINE
  5
260
100
AcDbEntity
  8
0
100
AcDbPolyline
 62
250
  6
CONTINUOUS
 90
3
 70
0
 10
-38.7664973122
 20
21.6837427608
 10
-38.7741498583
 20
21.8379493007
 10
-38.7763779467
 20
21.8867172616
  0
LWPOLYLINE
  5
261
100
AcDbEntity
  8
0
100
AcDbPolyline
 62
250
  6
CONTINUOUS
 90
3
 70
0
 10
-38.7664973122
 20
-21.2674419788
 10
-38.769182447
 20
-21.3196043678
 10
-38.7763781738
 20
-21.4704205658
  0
LINE
  5
262
100
AcDbEntity
  8
RACCORDO
100
AcDbLine
 62
250
  6
CONTINUOUS
 10
-30.6726840672
 20
-17.1512791781
 11
-19.0530983546
 21
-17.0848923789
  0
LWPOLYLINE
  5
263
100
AcDbEntity
  8
RACCORDO
100
AcDbPolyline
 62
250
  6
CONTINUOUS
 90
6
 70
0
 10
-17.4707017219
 20
-15.5884001465
 10
-17.5352281682
 20
-15.5921754662
 10
-17.5973426703
 20
-15.599120187
 10
-17.6570452282
 20
-15.609234309
 10
-17.7140255372
 20
-15.622612405
 10
-17.7685939021
 20
-15.6391599021
  0
LINE
  5
264
100
AcDbEntity
  8
RACCORDO
100
AcDbLine
 62
7
  6
CONTINUOUS
 10
0.336042136
 20
-15.7775061238
 11
-17.4707017219
 21
-16.088323994
  0
LINE
  5
265
100
AcDbEntity
  8
RACCORDO
100
AcDbLine
 62
250
  6
CONTINUOUS
 10
0.336042136
 20
-15.2775822763
 11
-17.4707017219
 21
-15.5884001465
  0
LINE
  5
266
100
AcDbEntity
  8
RACCORDO
100
AcDbLine
 62
250
  6
CONTINUOUS
 10
-30.6726840672
 20
-15.911508775
 11
-18.1111645668
 21
-15.8351558672
  0
LINE
  5
267
100
AcDbEntity
  8
RACCORDO
100
AcDbLine
 62
250
  6
CONTINUOUS
 10
0.8273159328
 20
-15.2775822763
 11
0.336042136
 21
-15.2775822759
  0
LINE
  5
268
100
AcDbEntity
  8
DRAFT
100
AcDbLine
 62
7
  6
CONTINUOUS
 10
1.122085212
 20
-13.6367043921
 11
1.5325533989
 21
-13.6295396432
  0
LINE
  5
269
100
AcDbEntity
  8
TRASH
100
AcDbLine
 62
7
  6
CONTINUOUS
 10
-30.6726840672
 20
23.708150391
 11
-30.6726840672
 21
22.608150391
  0
LINE
  5
26A
100
AcDbEntity
  8
TRASH
100
AcDbLine
 62
7
  6
CONTINUOUS
 10
-30.6726840672
 20
-23.291849609
 11
-30.6726840672
 21
-21.9421370465
  0
LINE
  5
26B
100
AcDbEntity
  8
0
100
AcDbLine
 62
7
  6
CONTINUOUS
 10
-30.6726840672
 20
22.608150391
 11
-30.6726840672
 21
-22.191849609
  0
LINE
  5
26C
100
AcDbEntity
  8
TRASH
100
AcDbLine
 62
7
  6
CONTINUOUS
 10
-30.6726840672
 20
-15.911508775
 11
-30.6726840672
 21
16.327809557
  0
LINE
  5
26D
100
AcDbEntity
  8
RACCORDO
100
AcDbLine
 62
250
  6
CONTINUOUS
 10
-17.9881522483
 20
16.4838569321
 11
-18.1602673864
 21
16.3126698096
  0
LWPOLYLINE
  5
26E
100
AcDbEntity
  8
RACCORDO
100
AcDbPolyline
 62
250
  6
CONTINUOUS
 90
6
 70
0
 10
-17.8155283043
 20
16.650995838
 10
-17.8212157643
 20
16.6463994853
 10
-17.8370212931
 20
16.6316532572
 10
-17.8624851509
 20
16.6071860506
 10
-17.8968666742
 20
16.5737095105
 10
-17.9881522483
 20
16.4838569321
  0
LINE
  5
26F
100
AcDbEntity
  8
RACCORDO
100
AcDbLine
 62
250
  6
CONTINUOUS
 10
0.813557805
 20
-10.891849609
 11
1.8273159328
 21
-10.891849609
  0
LWPOLYLINE
  5
270
100
AcDbEntity
  8
RACCORDO
100
AcDbPolyline
 62
250
  6
CONTINUOUS
 90
4
 70
0
 10
-17.8155289093
 20
-16.234694451
 10
-17.8212158452
 20
-16.2300978849
 10
-17.837020909
 20
-16.2153514764
 10
-17.8624843909
 20
-16.1908841433
  0
LINE
  5
271
100
AcDbEntity
  8
RACCORDO
100
AcDbLine
 62
250
  6
CONTINUOUS
 10
-17.8624843909
 20
-16.1908841433
 11
-17.9391646762
 21
-16.1158953997
  0
LWPOLYLINE
  5
272
100
AcDbEntity
  8
RACCORDO
100
AcDbPolyline
 62
250
  6
CONTINUOUS
 90
3
 70
0
 10
-17.9391646762
 20
-16.1158953997
 10
-18.1003339847
 20
-15.9561720824
 10
-18.1602673915
 20
-15.8963690189
  0
LINE
  5
273
100
AcDbEntity
  8
RACCORDO
100
AcDbLine
 62
250
  6
CONTINUOUS
 10
-17.8636555898
 20
16.5383780781
 11
-17.9489682029
 21
16.4384931958
  0
LWPOLYLINE
  5
274
100
AcDbEntity
  8
RACCORDO
100
AcDbPolyline
 62
250
  6
CONTINUOUS
 90
3
 70
0
 10
-17.9489682029
 20
16.4384931958
 10
-18.0545991581
 20
16.3163744518
 10
-18.1111646645
 20
16.251456649
  0
LINE
  5
275
100
AcDbEntity
  8
RACCORDO
100
AcDbLine
 62
250
  6
CONTINUOUS
 10
0.813557805
 20
-8.791849609
 11
1.8273159328
 21
-8.791849609
  0
LINE
  5
276
100
AcDbEntity
  8
RACCORDO
100
AcDbLine
 62
250
  6
CONTINUOUS
 10
-17.9999898595
 20
-15.9630480061
 11
-18.1111645902
 21
-15.8351558672
  0
LWPOLYLINE
  5
277
100
AcDbEntity
  8
RACCORDO
100
AcDbPolyline
 62
250
  6
CONTINUOUS
 90
4
 70
0
 10
-26.4761745485
 20
-20.9884195226
 10
-26.4762258784
 20
-20.9880477286
 10
-26.4762689496
 20
-20.9868831536
 10
-26.4763052434
 20
-20.9848543523
  0
LINE
  5
278
100
AcDbEntity
  8
RACCORDO
100
AcDbLine
 62
250
  6
CONTINUOUS
 10
-26.4763052434
 20
-20.9848543523
 11
-26.476368224
 21
-20.9779217521
  0
LINE
  5
279
100
AcDbEntity
  8
RACCORDO
100
AcDbLine
 62
250
  6
CONTINUOUS
 10
-26.476368224
 20
-20.9779217521
 11
-26.4764111508
 21
-20.9591877898
  0
LINE
  5
27A
100
AcDbEntity
  8
RACCORDO
100
AcDbLine
 62
250
  6
CONTINUOUS
 10
-26.4761745485
 20
21.2820456147
 11
-26.4764111184
 21
21.3702862343
  0
LINE
  5
27B
100
AcDbEntity
  8
RACCORDO
100
AcDbLine
 62
7
  6
CONTINUOUS
 10
-26.6726840672
 20
-22.4217162116
 11
-26.6726840672
 21
-21.1883890616
  0
LINE
  5
27C
100
AcDbEntity
  8
TRASH
100
AcDbLine
 62
7
  6
CONTINUOUS
 10
-26.6726840672
 20
-22.4217162116
 11
-26.6726840672
 21
-23.2220293493
  0
LINE
  5
27D
100
AcDbEntity
  8
RACCORDO
100
AcDbLine
 62
7
  6
CONTINUOUS
 10
-26.6726840672
 20
21.6046898436
 11
-26.6726840672
 21
22.8380169937
  0
LINE
  5
27E
100
AcDbEntity
  8
TRASH
100
AcDbLine
 62
7
  6
CONTINUOUS
 10
-26.6726840672
 20
22.8081631496
 11
-26.6726840672
 21
23.6383301313
  0
LWPOLYLINE
  5
27F
100
AcDbEntity
  8
RACCORDO
100
AcDbPolyline
 62
250
  6
CONTINUOUS
 90
6
 70
0
 10
-26.4764111184
 20
21.3702862343
 10
-26.476377479
 20
21.392400622
 10
-26.4763444552
 20
21.3975818
 10
-26.4762969183
 20
21.4014562827
 10
-26.4762396477
 20
21.4038819076
 10
-26.4761745485
 20
21.4047203046
  0
LINE
  5
280
100
AcDbEntity
  8
RACCORDO
100
AcDbLine
 62
250
  6
CONTINUOUS
 10
-26.4764111508
 20
-20.9591877898
 11
-26.4761745485
 21
-20.8657448327
  0
LWPOLYLINE
  5
281
100
AcDbEntity
  8
RACCORDO
100
AcDbPolyline
 62
250
  6
CONTINUOUS
 90
5
 70
0
 10
-17.7909312677
 20
16.6280047843
 10
-17.7950030822
 20
16.6216218721
 10
-17.8088030397
 20
16.604155068
 10
-17.831917922
 20
16.5761273883
 10
-17.8636555898
 20
16.5383780781
  0
LWPOLYLINE
  5
282
100
AcDbEntity
  8
RACCORDO
100
AcDbPolyline
 62
250
  6
CONTINUOUS
 90
7
 70
0
 10
-17.7909325775
 20
-16.2117025032
 10
-17.7950048637
 20
-16.2053198048
 10
-17.8088051534
 20
-16.1878532846
 10
-17.8319202069
 20
-16.1598259279
 10
-17.8636578728
 20
-16.1220769449
 10
-17.9030678141
 20
-16.0757366414
 10
-17.9999898595
 20
-15.9630480061
  0
LINE
  5
283
100
AcDbEntity
  8
TRASH
100
AcDbLine
 62
7
  6
CONTINUOUS
 10
-25.0726840672
 20
22.408150391
 11
-25.0726840672
 21
21.3802222871
  0
LINE
  5
284
100
AcDbEntity
  8
TRASH
100
AcDbLine
 62
7
  6
CONTINUOUS
 10
-25.0726840672
 20
-21.991849609
 11
-25.0726840672
 21
-20.9639215051
  0
LWPOLYLINE
  5
285
100
AcDbEntity
  8
0
100
AcDbPolyline
 62
7
  6
CONTINUOUS
 90
3
 70
0
 43
0.3500000087
 10
-13.3869695023
 20
32.7438641418
 10
-13.4583979912
 20
32.5295776093
 10
-13.601254969
 20
32.2438636536
  0
LINE
  5
286
100
AcDbEntity
  8
DRAFT
100
AcDbLine
 62
7
  6
CONTINUOUS
 10
1.1220850958
 20
-3.7367043941
 11
1.5325558659
 21
-3.7295396002
  0
LINE
  5
287
100
AcDbEntity
  8
DRAFT
100
AcDbLine
 62
7
  6
CONTINUOUS
 10
1.1220817542
 20
-6.0469947655
 11
1.5325516839
 21
-6.0541595448
  0
LINE
  5
288
100
AcDbEntity
  8
RACCORDO
100
AcDbLine
 62
250
  6
CONTINUOUS
 10
-22.7013040969
 20
-20.8665526646
 11
-22.7018292693
 21
-20.7995680072
  0
LWPOLYLINE
  5
289
100
AcDbEntity
  8
RACCORDO
100
AcDbPolyline
 62
250
  6
CONTINUOUS
 90
5
 70
0
 10
-22.7012451251
 20
21.3136853997
 10
-22.7013040979
 20
21.3246341507
 10
-22.7014216702
 20
21.3325059214
 10
-22.7015970975
 20
21.3372508449
 10
-22.7018292693
 20
21.3388388627
  0
LINE
  5
28A
100
AcDbEntity
  8
RACCORDO
100
AcDbLine
 62
250
  6
CONTINUOUS
 10
-22.7012146651
 20
-20.8834264313
 11
-22.7013040969
 21
-20.8665526646
  0
LINE
  5
28B
100
AcDbEntity
  8
RACCORDO
100
AcDbLine
 62
250
  6
CONTINUOUS
 10
-22.7013040979
 20
21.2828534467
 11
-22.7012451251
 21
21.3136853997
  0
LINE
  5
28C
100
AcDbEntity
  8
RACCORDO
100
AcDbLine
 62
250
  6
CONTINUOUS
 10
-22.7018292693
 20
21.2158687893
 11
-22.7013040979
 21
21.2828534467
  0
LWPOLYLINE
  5
28D
100
AcDbEntity
  8
0
100
AcDbPolyline
 62
7
  6
CONTINUOUS
 90
2
 70
0
 43
0.3500000087
 10
-20.5298269211
 20
42.4581514252
 10
-20.5298269211
 20
43.9581486267
  0
LWPOLYLINE
  5
28E
100
AcDbEntity
  8
RACCORDO
100
AcDbPolyline
 62
250
  6
CONTINUOUS
 90
5
 70
0
 10
-22.7018292693
 20
-20.9225380807
 10
-22.701549323
 20
-20.9209397363
 10
-22.701382877
 20
-20.9161894768
 10
-22.7013040969
 20
-20.9083333687
 10
-22.7012146651
 20
-20.8834264313
  0
LWPOLYLINE
  5
28F
100
AcDbEntity
  8
RACCORDO
100
AcDbPolyline
 62
7
  6
CONTINUOUS
 90
6
 70
0
 10
-26.6691517823
 20
-21.1509666497
 10
-26.6521110517
 20
-21.1032675184
 10
-26.6290214644
 20
-21.055628604
 10
-26.5998830205
 20
-21.008053415
 10
-26.5646957198
 20
-20.9605454298
 10
-26.5234595625
 20
-20.9131080964
  0
LINE
  5
290
100
AcDbEntity
  8
RACCORDO
100
AcDbLine
 62
250
  6
CONTINUOUS
 10
1.8273159328
 20
-0.991849609
 11
0.8273159328
 21
-0.991849609
  0
LINE
  5
291
100
AcDbEntity
  8
RACCORDO
100
AcDbLine
 62
7
  6
CONTINUOUS
 10
-26.6523445414
 20
21.5198868481
 11
-26.6691517823
 21
21.5672674318
  0
LINE
  5
292
100
AcDbEntity
  8
RACCORDO
100
AcDbLine
 62
250
  6
CONTINUOUS
 10
-17.4682446971
 20
-15.759352704
 11
-17.4707017217
 21
-15.5884001465
  0
LINE
  5
293
100
AcDbEntity
  8
RACCORDO
100
AcDbLine
 62
250
  6
CONTINUOUS
 10
-17.4671360239
 20
16.325993953
 11
-17.4682447008
 21
16.1756531649
  0
LINE
  5
294
100
AcDbEntity
  8
RACCORDO
100
AcDbLine
 62
250
  6
CONTINUOUS
 10
-17.4682447008
 20
16.1756531649
 11
-17.4707017219
 21
16.0047009285
  0
LINE
  5
295
100
AcDbEntity
  8
RACCORDO
100
AcDbLine
 62
250
  6
CONTINUOUS
 10
0.8273159328
 20
0.808150391
 11
1.8273159328
 21
0.808150391
  0
LINE
  5
296
100
AcDbEntity
  8
DRAFT
100
AcDbLine
 62
7
  6
CONTINUOUS
 10
1.1220853003
 20
3.5530051726
 11
1.5325527988
 21
3.5458404357
  0
LWPOLYLINE
  5
297
100
AcDbEntity
  8
RACCORDO
100
AcDbPolyline
 62
250
  6
CONTINUOUS
 90
7
 70
0
 10
-17.4707017219
 20
-16.088323994
 10
-17.4693197064
 20
-16.0807055574
 10
-17.4682447038
 20
-16.0581344992
 10
-17.467509365
 20
-16.0212963441
 10
-17.4671360248
 20
-15.9713099516
 10
-17.4671360228
 20
-15.9096935261
 10
-17.4682446971
 20
-15.759352704
  0
LINE
  5
298
100
AcDbEntity
  8
DRAFT
100
AcDbLine
 62
7
  6
CONTINUOUS
 10
1.1220850958
 20
6.4632956059
 11
1.5325558659
 21
6.4704603998
  0
LWPOLYLINE
  5
299
100
AcDbEntity
  8
RACCORDO
100
AcDbPolyline
 62
250
  6
CONTINUOUS
 90
6
 70
0
 10
-17.4707017219
 20
16.5046247761
 10
-17.4693197042
 20
16.4970063108
 10
-17.4682447008
 20
16.4744351814
 10
-17.4675093627
 20
16.4375969349
 10
-17.4671360239
 20
16.3876104499
 10
-17.4671360239
 20
16.325993953
  0
LINE
  5
29A
100
AcDbEntity
  8
RACCORDO
100
AcDbLine
 62
250
  6
CONTINUOUS
 10
-18.2508687764
 20
-16.0167169689
 11
-18.5052592604
 21
-16.3563177978
  0
LINE
  5
29B
100
AcDbEntity
  8
RACCORDO
100
AcDbLine
 62
250
  6
CONTINUOUS
 10
-18.5052592604
 20
-16.3563177978
 11
-18.9343371814
 21
-16.9272056646
  0
LINE
  5
29C
100
AcDbEntity
  8
RACCORDO
100
AcDbLine
 62
250
  6
CONTINUOUS
 10
-18.9343371814
 20
-16.9272056646
 11
-19.0531058308
 21
-17.0848924215
  0
LINE
  5
29D
100
AcDbEntity
  8
RACCORDO
100
AcDbLine
 62
7
  6
CONTINUOUS
 10
-26.5234595625
 20
-20.9131080964
 11
-26.4761745485
 21
-20.8657448327
  0
LINE
  5
29E
100
AcDbEntity
  8
RACCORDO
100
AcDbLine
 62
250
  6
CONTINUOUS
 10
1.8273159328
 20
9.208150391
 11
0.8273159328
 21
9.208150391
  0
LWPOLYLINE
  5
29F
100
AcDbEntity
  8
RACCORDO
100
AcDbPolyline
 62
7
  6
CONTINUOUS
 90
6
 70
0
 10
-26.4761745485
 20
21.2820456147
 10
-26.5236930521
 20
21.3297312198
 10
-26.5650693033
 20
21.3773604595
 10
-26.6003033018
 20
21.4249310257
 10
-26.6293950479
 20
21.4724405988
 10
-26.6523445414
 20
21.5198868481
  0
LINE
  5
2A0
100
AcDbEntity
  8
RACCORDO
100
AcDbLine
 62
250
  6
CONTINUOUS
 10
-19.0531402676
 20
17.501236622
 11
-18.9244323938
 21
17.3330657223
  0
LWPOLYLINE
  5
2A1
100
AcDbEntity
  8
RACCORDO
100
AcDbPolyline
 62
250
  6
CONTINUOUS
 90
7
 70
0
 10
-18.3291197892
 20
16.5342688147
 10
-18.1523594097
 20
16.3022360723
 10
-18.144341133
 20
16.2918945686
 10
-18.1362125372
 20
16.2816455912
 10
-18.1279735952
 20
16.2714894306
 10
-18.1196242805
 20
16.2614263627
 10
-18.1111645668
 20
16.2514566492
  0
LINE
  5
2A2
100
AcDbEntity
  8
RACCORDO
100
AcDbLine
 62
250
  6
CONTINUOUS
 10
-18.9244323938
 20
17.3330657223
 11
-18.787652899
 21
17.1506440241
  0
LWPOLYLINE
  5
2A3
100
AcDbEntity
  8
RACCORDO
100
AcDbPolyline
 62
250
  6
CONTINUOUS
 90
3
 70
0
 10
-18.787652899
 20
17.1506440241
 10
-18.4899771048
 20
16.7493177209
 10
-18.3291197892
 20
16.5342688147
  0
LWPOLYLINE
  5
2A4
100
AcDbEntity
  8
RACCORDO
100
AcDbPolyline
 62
250
  6
CONTINUOUS
 90
7
 70
0
 10
-18.1111645668
 20
-15.8351558672
 10
-18.1195408955
 20
-15.8450212459
 10
-18.1278401647
 20
-15.855021719
 10
-18.1360624114
 20
-15.8651570252
 10
-18.144207673
 20
-15.8754268824
 10
-18.1522759877
 20
-15.8858309872
 10
-18.2508687764
 20
-16.0167169689
  0
LINE
  5
2A5
100
AcDbEntity
  8
RACCORDO
100
AcDbLine
 62
250
  6
CONTINUOUS
 10
-21.1713911029
 20
-19.2414661849
 11
-22.3330219703
 21
-20.4243475994
  0
LINE
  5
2A6
100
AcDbEntity
  8
RACCORDO
100
AcDbLine
 62
250
  6
CONTINUOUS
 10
-22.3330219703
 20
-20.4243475994
 11
-22.7016455587
 21
-20.799564794
  0
LINE
  5
2A7
100
AcDbEntity
  8
RACCORDO
100
AcDbLine
 62
250
  6
CONTINUOUS
 10
-19.0530983546
 20
-17.0848923789
 11
-21.1713911029
 21
-19.2414661849
  0
LINE
  5
2A8
100
AcDbEntity
  8
RACCORDO
100
AcDbLine
 62
7
  6
CONTINUOUS
 10
-17.8155289093
 20
-16.234694451
 11
-23.0287545689
 21
-21.4479201107
  0
LINE
  5
2A9
100
AcDbEntity
  8
RACCORDO
100
AcDbLine
 62
250
  6
CONTINUOUS
 10
0.8273159328
 20
11.308150391
 11
1.8273159328
 21
11.308150391
  0
LINE
  5
2AA
100
AcDbEntity
  8
RACCORDO
100
AcDbLine
 62
7
  6
CONTINUOUS
 10
-23.0287545689
 20
21.8642208927
 11
-17.8155289093
 21
16.650995233
  0
LINE
  5
2AB
100
AcDbEntity
  8
RACCORDO
100
AcDbLine
 62
250
  6
CONTINUOUS
 10
-22.7016455614
 20
21.2158655795
 11
-20.3507784855
 21
18.8223628921
  0
LINE
  5
2AC
100
AcDbEntity
  8
RACCORDO
100
AcDbLine
 62
250
  6
CONTINUOUS
 10
-20.3507784855
 20
18.8223628921
 11
-19.0531400148
 21
17.5012366196
  0
LINE
  5
2AD
100
AcDbEntity
  8
RACCORDO
100
AcDbLine
 62
250
  6
CONTINUOUS
 10
-22.3836925792
 20
-20.7985952983
 11
-22.3570020814
 21
-20.7761676231
  0
LINE
  5
2AE
100
AcDbEntity
  8
RACCORDO
100
AcDbLine
 62
250
  6
CONTINUOUS
 10
-18.0665646076
 20
-15.798533468
 11
-18.1111645668
 21
-15.8351558672
  0
LWPOLYLINE
  5
2AF
100
AcDbEntity
  8
RACCORDO
100
AcDbPolyline
 62
250
  6
CONTINUOUS
 90
10
 70
0
 10
-18.7083147833
 20
-17.1274803251
 10
-18.7316492768
 20
-17.1455248807
 10
-18.7599248044
 20
-17.1580092665
 10
-18.7927182826
 20
-17.1647466802
 10
-18.8295390265
 20
-17.1656363107
 10
-18.8698360916
 20
-17.1606648465
 10
-18.9130065176
 20
-17.1499066752
 10
-18.9584043505
 20
-17.13352277
 10
-19.0053503079
 20
-17.1117582814
 10
-19.0531419429
 20
-17.0849388691
  0
LINE
  5
2B0
100
AcDbEntity
  8
DRAFT
100
AcDbLine
 62
7
  6
CONTINUOUS
 10
1.1220853003
 20
14.0530051726
 11
1.5325527988
 21
14.0458404357
  0
LWPOLYLINE
  5
2B1
100
AcDbEntity
  8
RACCORDO
100
AcDbPolyline
 62
250
  6
CONTINUOUS
 90
12
 70
0
 10
-18.0636523272
 20
16.2128314611
 10
-18.0151449074
 20
16.1776124011
 10
-17.9656423072
 20
16.1457994689
 10
-17.9152318662
 20
16.1175138056
 10
-17.863826245
 20
16.0926342702
 10
-17.8111634246
 20
16.0707974402
 10
-17.7570656791
 20
16.051817193
 10
-17.7017107345
 20
16.035879651
 10
-17.6453697506
 20
16.0231797592
 10
-17.5881331137
 20
16.0137824989
 10
-17.5299104375
 20
16.0076228887
 10
-17.4707017219
 20
16.0047009285
  0
LWPOLYLINE
  5
2B2
100
AcDbEntity
  8
RACCORDO
100
AcDbPolyline
 62
250
  6
CONTINUOUS
 90
10
 70
0
 10
-18.7083147865
 20
17.5437811039
 10
-18.7316572661
 20
17.5618233901
 10
-18.7599385737
 20
17.5743067032
 10
-18.7927356305
 20
17.5810442748
 10
-18.829557812
 20
17.5819352848
 10
-18.8698542874
 20
17.5769663701
 10
-18.9130222591
 20
17.5662118241
 10
-18.9584159786
 20
17.5498324851
 10
-19.005356406
 20
17.5280733299
 10
-19.0531413666
 20
17.5012598099
  0
LINE
  5
2B3
100
AcDbEntity
  8
RACCORDO
100
AcDbLine
 62
250
  6
CONTINUOUS
 10
-18.1111645667
 20
16.2514566491
 11
-18.0636523272
 21
16.2128314611
  0
LWPOLYLINE
  5
2B4
100
AcDbEntity
  8
RACCORDO
100
AcDbPolyline
 62
250
  6
CONTINUOUS
 90
9
 70
0
 10
-22.3570020814
 20
21.1924684052
 10
-22.3827930092
 20
21.2139934189
 10
-22.4132359978
 20
21.2315915698
 10
-22.4476669095
 20
21.244681951
 10
-22.4849544851
 20
21.2525146803
 10
-22.5246212958
 20
21.2550424611
 10
-22.5669329504
 20
21.2527755993
 10
-22.6113888782
 20
21.2456894717
 10
-22.656673898
 20
21.2333887507
  0
LINE
  5
2B5
100
AcDbEntity
  8
RACCORDO
100
AcDbLine
 62
250
  6
CONTINUOUS
 10
-22.4139592355
 20
-20.8160182954
 11
-22.3836925792
 21
-20.7985952983
  0
LWPOLYLINE
  5
2B6
100
AcDbEntity
  8
RACCORDO
100
AcDbPolyline
 62
250
  6
CONTINUOUS
 90
7
 70
0
 10
-17.7685939021
 20
-15.6391599021
 10
-17.8216812368
 20
-15.6585930813
 10
-17.873590471
 20
-15.6808198943
 10
-17.924018675
 20
-15.7059323893
 10
-17.9729879741
 20
-15.7339229915
 10
-18.0205057433
 20
-15.7647891761
 10
-18.0665646076
 20
-15.798533468
  0
LINE
  5
2B7
100
AcDbEntity
  8
RACCORDO
100
AcDbLine
 62
250
  6
CONTINUOUS
 10
0.8273159328
 20
15.6938830583
 11
0.336042136
 21
15.6938830583
  0
LINE
  5
2B8
100
AcDbEntity
  8
RACCORDO
100
AcDbLine
 62
250
  6
CONTINUOUS
 10
-30.6726840672
 20
16.327809557
 11
-18.1111645667
 21
16.2514566491
  0
LINE
  5
2B9
100
AcDbEntity
  8
RACCORDO
100
AcDbLine
 62
250
  6
CONTINUOUS
 10
-17.4707017219
 20
16.0047009285
 11
0.336042136
 21
15.6938830583
  0
LINE
  5
2BA
100
AcDbEntity
  8
RACCORDO
100
AcDbLine
 62
7
  6
CONTINUOUS
 10
-17.4707017219
 20
16.5046247761
 11
0.336042136
 21
16.1938069059
  0
LINE
  5
2BB
100
AcDbEntity
  8
TRASH
100
AcDbLine
 62
7
  6
CONTINUOUS
 10
-23.0287545689
 20
-21.4479201107
 11
-24.5231885833
 21
-21.991849609
  0
LINE
  5
2BC
100
AcDbEntity
  8
RACCORDO
100
AcDbLine
 62
250
  6
CONTINUOUS
 10
-30.6726840672
 20
17.5675799602
 11
-19.0531400148
 21
17.5012366196
  0
LINE
  5
2BD
100
AcDbEntity
  8
TRASH
100
AcDbLine
 62
7
  6
CONTINUOUS
 10
-23.0287545689
 20
21.8642208927
 11
-24.5231885833
 21
22.408150391
  0
LWPOLYLINE
  5
2BE
100
AcDbEntity
  8
RACCORDO
100
AcDbPolyline
 62
250
  6
CONTINUOUS
 90
10
 70
0
 10
0.8273159328
 20
-7.7439806742
 10
0.8317732286
 20
-7.7617119911
 10
0.8450126248
 20
-7.778916359
 10
0.866640651
 20
-7.7950825553
 10
0.8960145835
 20
-7.8097302172
 10
0.9322615229
 20
-7.8224240986
 10
0.9743043174
 20
-7.8327870086
 10
1.0208936198
 20
-7.8405110386
 10
1.0706450328
 20
-7.8453667034
 10
1.1220802107
 20
-7.8472097471
  0
LWPOLYLINE
  5
2BF
100
AcDbEntity
  8
RACCORDO
100
AcDbPolyline
 62
250
  6
CONTINUOUS
 90
5
 70
0
 10
1.1165103713
 20
-11.5597444284
 10
1.1187266814
 20
-11.6322941907
 10
1.120316355
 20
-11.7026437329
 10
1.1214341981
 20
-11.7707095934
 10
1.1220802109
 20
-11.836489481
  0
LINE
  5
2C0
100
AcDbEntity
  8
RACCORDO
100
AcDbLine
 62
250
  6
CONTINUOUS
 10
0.8170901045
 20
-11.2844700668
 11
0.8238111755
 21
-11.6327061563
  0
LWPOLYLINE
  5
2C1
100
AcDbEntity
  8
RACCORDO
100
AcDbPolyline
 62
250
  6
CONTINUOUS
 90
4
 70
0
 10
0.8238111755
 20
-11.6327061563
 10
0.8263235108
 20
-11.7912234242
 10
0.8270522019
 20
-11.8667309632
 10
0.8273159328
 20
-11.9397185452
  0
LINE
  5
2C2
100
AcDbEntity
  8
RACCORDO
100
AcDbLine
 62
250
  6
CONTINUOUS
 10
0.336042136
 20
-15.2775822763
 11
0.3379562567
 21
-15.4032499882
  0
LINE
  5
2C3
100
AcDbEntity
  8
RACCORDO
100
AcDbLine
 62
250
  6
CONTINUOUS
 10
0.8145971713
 20
-11.0937934672
 11
0.8170901045
 21
-11.2844700668
  0
LINE
  5
2C4
100
AcDbEntity
  8
RACCORDO
100
AcDbLine
 62
250
  6
CONTINUOUS
 10
0.3379562567
 20
-15.4032499882
 11
0.3392689595
 21
-15.5321772957
  0
LWPOLYLINE
  5
2C5
100
AcDbEntity
  8
RACCORDO
100
AcDbPolyline
 62
250
  6
CONTINUOUS
 90
6
 70
0
 10
1.1000667729
 20
-10.8918151401
 10
1.100723004
 20
-10.9840334263
 10
1.1018540698
 20
-11.0738552843
 10
1.1034599701
 20
-11.1611947235
 10
1.1057014538
 20
-11.2458917059
 10
1.1165103713
 20
-11.5597444284
  0
LINE
  5
2C6
100
AcDbEntity
  8
RACCORDO
100
AcDbLine
 62
250
  6
CONTINUOUS
 10
0.3392689595
 20
-15.5321772957
 11
0.3396405478
 21
-15.6137594618
  0
LINE
  5
2C7
100
AcDbEntity
  8
RACCORDO
100
AcDbLine
 62
250
  6
CONTINUOUS
 10
0.813557805
 20
-10.891849609
 11
0.8145971713
 21
-11.0937934672
  0
LINE
  5
2C8
100
AcDbEntity
  8
RACCORDO
100
AcDbLine
 62
250
  6
CONTINUOUS
 10
0.3394332846
 20
16.1076620478
 11
0.3396528825
 21
16.0536048252
  0
LINE
  5
2C9
100
AcDbEntity
  8
RACCORDO
100
AcDbLine
 62
250
  6
CONTINUOUS
 10
0.336042136
 20
15.6938830583
 11
0.336042136
 21
-15.2775822763
  0
LINE
  5
2CA
100
AcDbEntity
  8
RACCORDO
100
AcDbLine
 62
7
  6
CONTINUOUS
 10
0.8273159328
 20
15.6938830583
 11
0.8273159328
 21
-7.7439806728
  0
LINE
  5
2CB
100
AcDbEntity
  8
RACCORDO
100
AcDbLine
 62
7
  6
CONTINUOUS
 10
0.8273159328
 20
-11.9397185452
 11
0.8273159328
 21
-15.2775822763
  0
LINE
  5
2CC
100
AcDbEntity
  8
RACCORDO
100
AcDbLine
 62
250
  6
CONTINUOUS
 10
1.1000672063
 20
-8.7918033419
 11
1.1000672063
 21
-10.8918151401
  0
LINE
  5
2CD
100
AcDbEntity
  8
RACCORDO
100
AcDbLine
 62
250
  6
CONTINUOUS
 10
1.1220818863
 20
-6.0470007682
 11
1.1221506455
 21
-7.8836806145
  0
LINE
  5
2CE
100
AcDbEntity
  8
RACCORDO
100
AcDbLine
 62
250
  6
CONTINUOUS
 10
1.5325527988
 20
3.5458404357
 11
1.5325560112
 21
-3.7295395976
  0
LINE
  5
2CF
100
AcDbEntity
  8
RACCORDO
100
AcDbLine
 62
250
  6
CONTINUOUS
 10
1.5325536066
 20
-13.6295352286
 11
1.5325516819
 21
-6.0541597377
  0
LINE
  5
2D0
100
AcDbEntity
  8
RACCORDO
100
AcDbLine
 62
250
  6
CONTINUOUS
 10
1.5325527988
 20
14.0458404357
 11
1.5325560112
 21
6.4704604024
  0
LINE
  5
2D1
100
AcDbEntity
  8
RACCORDO
100
AcDbLine
 62
7
  6
CONTINUOUS
 10
1.8273159328
 20
13.7458346401
 11
1.8273159328
 21
6.7705719123
  0
LINE
  5
2D2
100
AcDbEntity
  8
RACCORDO
100
AcDbLine
 62
7
  6
CONTINUOUS
 10
1.8273159328
 20
3.2458346401
 11
1.8273159328
 21
-3.4294280877
  0
LINE
  5
2D3
100
AcDbEntity
  8
RACCORDO
100
AcDbLine
 62
7
  6
CONTINUOUS
 10
1.8273159328
 20
-13.3306163378
 11
1.8273159328
 21
-6.3530828802
  0
LINE
  5
2D4
100
AcDbEntity
  8
RACCORDO
100
AcDbLine
 62
250
  6
CONTINUOUS
 10
1.1220855691
 20
14.0530029694
 11
1.1220853354
 21
6.4632956116
  0
LINE
  5
2D5
100
AcDbEntity
  8
RACCORDO
100
AcDbLine
 62
250
  6
CONTINUOUS
 10
1.1220855691
 20
3.5530029694
 11
1.1220853354
 21
-3.7367043884
  0
LINE
  5
2D6
100
AcDbEntity
  8
RACCORDO
100
AcDbLine
 62
250
  6
CONTINUOUS
 10
1.1220802109
 20
-11.836489481
 11
1.1220854325
 21
-13.6367043872
  0
LINE
  5
2D7
100
AcDbEntity
  8
RACCORDO
100
AcDbLine
 62
250
  6
CONTINUOUS
 10
0.8139386717
 20
-8.680751396
 11
0.813557805
 21
-10.891849609
  0
LINE
  5
2D8
100
AcDbEntity
  8
RACCORDO
100
AcDbLine
 62
250
  6
CONTINUOUS
 10
0.3396528825
 20
16.0536048252
 11
0.3394888206
 21
15.9846135913
  0
LWPOLYLINE
  5
2D9
100
AcDbEntity
  8
RACCORDO
100
AcDbPolyline
 62
250
  6
CONTINUOUS
 90
7
 70
0
 10
0.3396405478
 20
-15.6137594618
 10
0.3394773623
 20
-15.6857666941
 10
0.3391601799
 20
-15.7160769027
 10
0.3386670149
 20
-15.7414308289
 10
0.3379862789
 20
-15.760815944
 10
0.3371120598
 20
-15.7731689863
 10
0.336042136
 20
-15.7775061238
  0
LINE
  5
2DA
100
AcDbEntity
  8
RACCORDO
100
AcDbLine
 62
250
  6
CONTINUOUS
 10
0.8273159328
 20
-7.7439806728
 11
0.8268777704
 21
-7.8366442236
  0
LINE
  5
2DB
100
AcDbEntity
  8
RACCORDO
100
AcDbLine
 62
250
  6
CONTINUOUS
 10
0.3394888206
 20
15.9846135913
 11
0.3388708441
 21
15.9006897465
  0
LINE
  5
2DC
100
AcDbEntity
  8
RACCORDO
100
AcDbLine
 62
250
  6
CONTINUOUS
 10
0.8160302164
 20
-8.4677934138
 11
0.8139386717
 21
-8.680751396
  0
LWPOLYLINE
  5
2DD
100
AcDbEntity
  8
RACCORDO
100
AcDbPolyline
 62
250
  6
CONTINUOUS
 90
3
 70
0
 10
1.1221506455
 20
-7.8836806145
 10
1.1215664498
 20
-7.9310014254
 10
1.1203276239
 20
-7.9893540073
  0
LINE
  5
2DE
100
AcDbEntity
  8
RACCORDO
100
AcDbLine
 62
250
  6
CONTINUOUS
 10
0.8268777704
 20
-7.8366442236
 11
0.8250698369
 21
-7.9823037921
  0
LWPOLYLINE
  5
2DF
100
AcDbEntity
  8
RACCORDO
100
AcDbPolyline
 62
250
  6
CONTINUOUS
 90
3
 70
0
 10
0.3388708441
 20
15.9006897465
 10
0.3369591787
 20
15.7494895579
 10
0.336042136
 20
15.6938830583
  0
LINE
  5
2E0
100
AcDbEntity
  8
RACCORDO
100
AcDbLine
 62
250
  6
CONTINUOUS
 10
0.8250698369
 20
-7.9823037921
 11
0.8160302164
 21
-8.4677934138
  0
LINE
  5
2E1
100
AcDbEntity
  8
RACCORDO
100
AcDbLine
 62
250
  6
CONTINUOUS
 10
1.1203276239
 20
-7.9893540073
 11
1.1126833645
 21
-8.2325778614
  0
LWPOLYLINE
  5
2E2
100
AcDbEntity
  8
RACCORDO
100
AcDbPolyline
 62
250
  6
CONTINUOUS
 90
6
 70
0
 10
1.1126833645
 20
-8.2325778614
 10
1.1066022876
 20
-8.4079152037
 10
1.1040273702
 20
-8.4997441882
 10
1.1021856957
 20
-8.5944486751
 10
1.1008658498
 20
-8.6918383357
 10
1.1000678324
 20
-8.791803342
  0
LINE
  5
2E3
100
AcDbEntity
  8
RACCORDO
100
AcDbLine
 62
7
  6
CONTINUOUS
 10
-26.4761745485
 20
21.4047203046
 11
-22.7018292693
 21
21.3388388627
  0
LINE
  5
2E4
100
AcDbEntity
  8
RACCORDO
100
AcDbLine
 62
250
  6
CONTINUOUS
 10
-26.4761745485
 20
21.2820456147
 11
-22.7016455614
 21
21.2158655795
  0
LWPOLYLINE
  5
2E5
100
AcDbEntity
  8
0
100
AcDbPolyline
 62
250
  6
CONTINUOUS
 90
4
 70
0
 10
-39.2398873693
 20
21.2054463077
 10
-39.7200459811
 20
21.2259400494
 10
-39.7280445152
 20
21.2263141297
 10
-39.7307191831
 20
21.2264646212
  0
LWPOLYLINE
  5
2E6
100
AcDbEntity
  8
0
100
AcDbPolyline
 62
7
  6
CONTINUOUS
 90
10
 70
0
 43
0.3500000087
 10
-13.4583979912
 20
32.9581506744
 10
-13.3869695023
 20
32.8152915649
 10
-13.3869695023
 20
32.7438641418
 10
-13.5298264801
 20
32.6010092957
 10
-13.601254969
 20
32.6010092957
 10
-13.6726845238
 20
32.6724367188
 10
-13.6726845238
 20
32.7438641418
 10
-13.601254969
 20
32.8867232513
 10
-13.5298264801
 20
32.9581506744
 10
-13.4583979912
 20
32.9581506744
  0
LWPOLYLINE
  5
2E7
100
AcDbEntity
  8
RACCORDO
100
AcDbPolyline
 62
250
  6
CONTINUOUS
 90
10
 70
0
 10
0.8273159328
 20
-11.9397185447
 10
0.8317741371
 20
-11.9219855148
 10
0.8450157077
 20
-11.904780049
 10
0.8666463247
 20
-11.8886134142
 10
0.8960223217
 20
-11.8739659768
 10
0.9322701619
 20
-11.8612727781
 10
0.9743126662
 20
-11.8509106911
 10
1.0209004956
 20
-11.8431874292
 10
1.0706490774
 20
-11.8383323372
 10
1.1220802107
 20
-11.8364894846
  0
LWPOLYLINE
  5
2E8
100
AcDbEntity
  8
0
100
AcDbPolyline
 62
250
  6
CONTINUOUS
 90
19
 70
0
 10
-38.7664973122
 20
21.6837427608
 10
-38.8075971443
 20
21.6798454564
 10
-38.8477605681
 20
21.6727426134
 10
-38.8869875835
 20
21.6624342316
 10
-38.9255439267
 20
21.6488065265
 10
-38.9631638616
 20
21.6319732828
 10
-38.9990501796
 20
21.6122758546
 10
-39.0331530513
 20
21.5896582356
 10
-39.0655223062
 20
21.5641764322
 10
-39.0955102236
 20
21.5363398173
 10
-39.123065462
 20
21.5061066633
 10
-39.148239363
 20
21.4735186979
 10
-39.1705382312
 20
21.4392104765
 10
-39.1899116123
 20
21.4031364277
 10
-39.2064099607
 20
21.3653421228
 10
-39.2196909438
 20
21.3265988314
 10
-39.2296404509
 20
21.2871636433
 10
-39.2363725927
 20
21.2467794688
 10
-39.2398873693
 20
21.2054463077
  0
LINE
  5
2E9
100
AcDbEntity
  8
0
100
AcDbLine
 62
250
  6
CONTINUOUS
 10
-30.6726840672
 20
22.1079215389
 11
-38.7664973122
 21
21.6837427608
  0
LINE
  5
2EA
100
AcDbEntity
  8
0
100
AcDbLine
 62
7
  6
CONTINUOUS
 10
-30.6726840672
 20
22.608150391
 11
-38.7839390871
 21
22.1830575282
  0
LINE
  5
2EB
100
AcDbEntity
  8
TRASH
100
AcDbLine
 62
7
  6
CONTINUOUS
 10
-24.5231885833
 20
22.408150391
 11
-25.0726840672
 21
22.408150391
  0
LINE
  5
2EC
100
AcDbEntity
  8
TRASH
100
AcDbLine
 62
7
  6
CONTINUOUS
 10
-26.6726840672
 20
22.8380169937
 11
-27.9939040432
 21
22.8480412085
  0
LINE
  5
2ED
100
AcDbEntity
  8
TRASH
100
AcDbLine
 62
7
  6
CONTINUOUS
 10
-27.9939040432
 20
22.8480412085
 11
-29.3272678586
 21
22.85916199
  0
LINE
  5
2EE
100
AcDbEntity
  8
TRASH
100
AcDbLine
 62
7
  6
CONTINUOUS
 10
-29.3272678586
 20
22.85916199
 11
-30.6726840672
 21
22.871317013
  0
LINE
  5
2EF
100
AcDbEntity
  8
TRASH
100
AcDbLine
 62
7
  6
CONTINUOUS
 10
-26.6726840672
 20
23.6383301313
 11
-30.6726840672
 21
23.708150391
  0
LINE
  5
2F0
100
AcDbEntity
  8
TRASH
100
AcDbLine
 62
250
  6
CONTINUOUS
 10
-26.6726840672
 20
23.4712577528
 11
-30.6726840672
 21
23.5415100485
  0
LINE
  5
2F1
100
AcDbEntity
  8
TRASH
100
AcDbLine
 62
7
  6
CONTINUOUS
 10
-28.4370127198
 20
23.3443780071
 11
-30.6726840672
 21
23.3880589528
  0
LINE
  5
2F2
100
AcDbEntity
  8
TRASH
100
AcDbLine
 62
7
  6
CONTINUOUS
 10
-26.6726840672
 20
23.3080408658
 11
-28.4370127198
 21
23.3443780071
  0
LWPOLYLINE
  5
2F3
100
AcDbEntity
  8
RACCORDO
100
AcDbPolyline
 62
250
  6
CONTINUOUS
 90
9
 70
0
 10
0.336042136
 20
16.1938069059
 10
0.3366101948
 20
16.1926623388
 10
0.3371505878
 20
16.1891207956
 10
0.3376568013
 20
16.1829958843
 10
0.3381213204
 20
16.1741261093
 10
0.3385379382
 20
16.1623425405
 10
0.3389009597
 20
16.1474355867
 10
0.3392021846
 20
16.1292510871
 10
0.3394332846
 20
16.1076620478
  0
LWPOLYLINE
  5
2F4
100
AcDbEntity
  8
0
100
AcDbPolyline
 62
7
  6
CONTINUOUS
 90
6
 70
0
 43
0.3500000087
 10
-18.6012545227
 20
32.4581501862
 10
-17.5298271889
 20
32.4581501862
 10
-17.3155417221
 20
32.6724367188
 10
-17.3155417221
 20
33.7438651184
 10
-17.7441126556
 20
34.1724381836
 10
-18.1726835892
 20
34.1724381836
  0
LWPOLYLINE
  5
2F5
100
AcDbEntity
  8
0
100
AcDbPolyline
 62
7
  6
CONTINUOUS
 90
8
 70
0
 43
0.3500000087
 10
-12.3869695915
 20
32.4581501862
 10
-11.5298266586
 20
32.4581501862
 10
-11.1012557251
 20
32.8867232513
 10
-11.1012557251
 20
33.7438651184
 10
-11.5298266586
 20
34.1724381836
 10
-12.3869695915
 20
34.1724381836
 10
-12.3869695915
 20
35.4581488525
 10
-11.1012557251
 20
35.4581488525
  0
LWPOLYLINE
  5
2F6
100
AcDbEntity
  8
0
100
AcDbPolyline
 62
7
  6
CONTINUOUS
 90
7
 70
0
 43
0.3500000087
 10
-14.9583983902
 20
32.4581501862
 10
-16.4583987892
 20
32.4581501862
 10
-14.9583983902
 20
34.6010069855
 10
-14.9583983902
 20
35.0295800507
 10
-15.3869693237
 20
35.4581488525
 10
-16.0298267899
 20
35.4581488525
 10
-16.4583987892
 20
34.8152935181
  0
LWPOLYLINE
  5
2F7
100
AcDbEntity
  8
0
100
AcDbPolyline
 62
7
  6
CONTINUOUS
 90
7
 70
0
 43
0.3500000087
 10
-17.6726841667
 20
42.4581514252
 10
-19.1726845657
 20
42.4581514252
 10
-17.6726841667
 20
44.6010082245
 10
-17.6726841667
 20
45.0295770264
 10
-18.1012561661
 20
45.4581500916
 10
-18.7441136322
 20
45.4581500916
 10
-19.1726845657
 20
44.8152947571
  0
LWPOLYLINE
  5
2F8
100
AcDbEntity
  8
0
100
AcDbPolyline
 62
7
  6
CONTINUOUS
 90
3
 70
0
 43
0.3500000087
 10
-20.0298264328
 20
43.1010067596
 10
-21.5298278976
 20
43.1010067596
 10
-20.8869704315
 20
45.4581500916
  0
LWPOLYLINE
  5
2F9
100
AcDbEntity
  8
0
100
AcDbPolyline
 62
7
  6
CONTINUOUS
 90
5
 70
0
 43
0.3500000087
 10
27.8250676743
 20
34.1724381836
 10
28.1822111847
 20
34.3867204529
 10
28.1822111847
 20
35.0295800507
 10
27.8250676743
 20
35.4581488525
 10
26.9679236755
 20
35.4581488525
  0
LWPOLYLINE
  5
2FA
100
AcDbEntity
  8
TRASH
100
AcDbPolyline
 62
7
  6
CONTINUOUS
 90
10
 70
0
 10
28.4999250457
 20
-23.291849609
 10
28.5653979671
 20
-23.289658997
 10
28.6300518092
 20
-23.283327807
 10
28.6938865722
 20
-23.2728560389
 10
28.7571646355
 20
-23.2581645826
 10
28.8196236196
 20
-23.2393325483
 10
28.8804763857
 20
-23.2165972665
 10
28.9394605542
 20
-23.1900378473
 10
28.9968385048
 20
-23.1595751806
 10
29.0526102373
 20
-23.1252092665
  0
LINE
  5
2FB
100
AcDbEntity
  8
TRASH
100
AcDbLine
 62
7
  6
CONTINUOUS
 10
28.4999250457
 20
-23.291849609
 11
21.1502100894
 21
-23.291849609
  0
LINE
  5
2FC
100
AcDbEntity
  8
TRASH
100
AcDbLine
 62
7
  6
CONTINUOUS
 10
21.3552473079
 20
-22.291849609
 11
28.2948878273
 21
-22.291849609
  0
LINE
  5
2FD
100
AcDbEntity
  8
0
100
AcDbLine
 62
7
  6
CONTINUOUS
 10
35.4754481673
 20
-22.191849609
 11
28.1250675676
 21
-22.191849609
  0
LINE
  5
2FE
100
AcDbEntity
  8
0
100
AcDbLine
 62
7
  6
CONTINUOUS
 10
21.5250675676
 20
-22.191849609
 11
14.1746869678
 21
-22.191849609
  0
LWPOLYLINE
  5
2FF
100
AcDbEntity
  8
0
100
AcDbPolyline
 62
250
  6
CONTINUOUS
 90
16
 70
0
 10
14.3162694509
 20
-21.7667567462
 10
14.2640434325
 20
-21.7639769803
 10
14.2123889486
 20
-21.7557633921
 10
14.1618712793
 20
-21.7422058668
 10
14.1130432637
 20
-21.7234527711
 10
14.0664392505
 20
-21.699709329
 10
14.0225692498
 20
-21.6712353766
 10
13.9819133522
 20
-21.638342518
 10
13.944916475
 20
-21.6013907157
 10
13.9119834926
 20
-21.5607843511
 10
13.8834748068
 20
-21.5169677993
 10
13.8597024018
 20
-21.4704205659
 10
13.8409264304
 20
-21.4216520398
 10
13.8273523673
 20
-21.3711959185
 10
13.81912876
 20
-21.3196043678
 10
13.8163456033
 20
-21.2674419788
  0
LWPOLYLINE
  5
300
100
AcDbEntity
  8
TRASH
100
AcDbPolyline
 62
7
  6
CONTINUOUS
 90
10
 70
0
 10
20.5975248978
 20
23.5415100485
 10
20.6532966304
 20
23.5758759627
 10
20.7106745809
 20
23.6063386293
 10
20.7696587495
 20
23.6328980485
 10
20.8305115156
 20
23.6556333303
 10
20.8929704997
 20
23.6744653647
 10
20.956248563
 20
23.6891568209
 10
21.0200833259
 20
23.699628589
 10
21.084737168
 20
23.705959779
 10
21.1502100894
 20
23.708150391
  0
LINE
  5
301
100
AcDbEntity
  8
0
100
AcDbLine
 62
250
  6
CONTINUOUS
 10
35.3338656843
 20
-21.7667567462
 11
14.3162694509
 21
-21.7667567462
  0
LINE
  5
302
100
AcDbEntity
  8
0
100
AcDbLine
 62
250
  6
CONTINUOUS
 10
35.3772885334
 20
-20.8100131083
 11
14.324532505
 21
-20.8101638399
  0
LWPOLYLINE
  5
303
100
AcDbEntity
  8
0
100
AcDbPolyline
 62
250
  6
CONTINUOUS
 90
16
 70
0
 10
14.324532505
 20
-20.8101628967
 10
14.2728471995
 20
-20.8100124039
 10
14.2217156577
 20
-20.8096383346
 10
14.1716857125
 20
-20.8090446966
 10
14.1232933941
 20
-20.8082378505
 10
14.0770571869
 20
-20.8072264409
 10
14.0334724742
 20
-20.8060213046
 10
13.9930062308
 20
-20.8046353538
 10
13.9560920197
 20
-20.8030834377
 10
13.9231253464
 20
-20.8013821838
 10
13.8944594223
 20
-20.7995498199
 10
13.8704013792
 20
-20.7976059781
 10
13.8512089797
 20
-20.7955714852
 10
13.8370878546
 20
-20.793468139
 10
13.8281893003
 20
-20.7913184752
 10
13.8246086576
 20
-20.7891455257
  0
LWPOLYLINE
  5
304
100
AcDbEntity
  8
TRASH
100
AcDbPolyline
 62
7
  6
CONTINUOUS
 90
10
 70
0
 10
20.5975248978
 20
-23.1252092665
 10
20.6532966304
 20
-23.1595751806
 10
20.7106745809
 20
-23.1900378473
 10
20.7696587495
 20
-23.2165972665
 10
20.8305115156
 20
-23.2393325483
 10
20.8929704997
 20
-23.2581645826
 10
20.956248563
 20
-23.2728560389
 10
21.0200833259
 20
-23.283327807
 10
21.084737168
 20
-23.289658997
 10
21.1502100894
 20
-23.291849609
  0
LINE
  5
305
100
AcDbEntity
  8
0
100
AcDbLine
 62
7
  6
CONTINUOUS
 10
21.5250675676
 20
22.608150391
 11
21.5917003652
 21
22.708150391
  0
LINE
  5
306
100
AcDbEntity
  8
RACCORDO
100
AcDbLine
 62
250
  6
CONTINUOUS
 10
16.5124475055
 20
12.4079619607
 11
22.2578493099
 21
18.1536861079
  0
LINE
  5
307
100
AcDbEntity
  8
RACCORDO
100
AcDbLine
 62
250
  6
CONTINUOUS
 10
16.9394562251
 20
12.0556691183
 11
22.640483048
 21
17.7566959413
  0
LINE
  5
308
100
AcDbEntity
  8
RACCORDO
100
AcDbLine
 62
250
  6
CONTINUOUS
 10
17.0808560421
 20
11.9142693013
 11
22.7818828651
 21
17.6152961242
  0
LINE
  5
309
100
AcDbEntity
  8
RACCORDO
100
AcDbLine
 62
250
  6
CONTINUOUS
 10
16.7952471397
 20
12.1154024773
 11
22.5406422158
 21
17.8565233225
  0
LWPOLYLINE
  5
30A
100
AcDbEntity
  8
RACCORDO
100
AcDbPolyline
 62
250
  6
CONTINUOUS
 90
34
 70
0
 10
22.5406422155
 20
17.8565233229
 10
22.6269693759
 20
17.9396250929
 10
22.7161111092
 20
18.0192922617
 10
22.8079254433
 20
18.0954383653
 10
22.9021853075
 20
18.1679214213
 10
22.9988230885
 20
18.236734549
 10
23.0979528842
 20
18.3019751096
 10
23.1993909792
 20
18.3635211213
 10
23.3030530471
 20
18.4213204144
 10
23.4092433974
 20
18.4755071131
 10
23.5172414579
 20
18.525688478
 10
23.6275069722
 20
18.5720537633
 10
23.7422381309
 20
18.6153138742
 10
23.8618645988
 20
18.6552349201
 10
23.9858537096
 20
18.6912389801
 10
24.1150623004
 20
18.7231394236
 10
24.2495850812
 20
18.7504402989
 10
24.3890875659
 20
18.7725438518
 10
24.533763886
 20
18.7889282914
 10
24.6833080107
 20
18.7989713898
 10
24.8375167581
 20
18.8020570882
 10
24.9966672289
 20
18.7975231401
 10
25.1603385732
 20
18.7846468121
 10
25.3280624447
 20
18.762705373
 10
25.4999214052
 20
18.7308485523
 10
25.6752221247
 20
18.6882774304
 10
25.8532202432
 20
18.6342041492
 10
26.0337228158
 20
18.5676047817
 10
26.2156331121
 20
18.4876792788
 10
26.3978577665
 20
18.3936325884
 10
26.5799000376
 20
18.2842557354
 10
26.7604836715
 20
18.158598463
 10
26.9376444201
 20
18.0161710627
 10
27.109539526
 20
17.8564767567
  0
LWPOLYLINE
  5
30B
100
AcDbEntity
  8
RACCORDO
100
AcDbPolyline
 62
250
  6
CONTINUOUS
 90
34
 70
0
 10
22.2578493099
 20
18.1536861079
 10
22.3550906758
 20
18.2472736731
 10
22.4551822292
 20
18.3368245325
 10
22.5581239702
 20
18.4223387616
 10
22.6639801529
 20
18.5038456676
 10
22.7726865231
 20
18.5813160858
 10
22.884050319
 20
18.6546623814
 10
22.9979888368
 20
18.7238856359
 10
23.1145847803
 20
18.7889848951
 10
23.2338934983
 20
18.8498694686
 10
23.3551781648
 20
18.9064366402
 10
23.4791756058
 20
18.9587892363
 10
23.6081516496
 20
19.0071448742
 10
23.7426104034
 20
19.0519958019
 10
23.88204776
 20
19.0928498513
 10
24.0272172251
 20
19.1284480189
 10
24.1784399592
 20
19.1590027314
 10
24.3353948018
 20
19.1843016399
 10
24.497871777
 20
19.2024485911
 10
24.6659616069
 20
19.2135650147
 10
24.8395735695
 20
19.2175295285
 10
25.0182255219
 20
19.2120817569
 10
25.202166096
 20
19.1973564719
 10
25.39114666
 20
19.1732188583
 10
25.5839391757
 20
19.1370041167
 10
25.7808914476
 20
19.0888021843
 10
25.9816556712
 20
19.0285228933
 10
26.1839603943
 20
18.9532311831
 10
26.3882821881
 20
18.8629353477
 10
26.5941444815
 20
18.7576265383
 10
26.7978461084
 20
18.6343437971
 10
26.998153347
 20
18.4920997595
 10
27.1962999193
 20
18.3318807341
 10
27.3922858252
 20
18.1536861079
  0
LWPOLYLINE
  5
30C
100
AcDbEntity
  8
RACCORDO
100
AcDbPolyline
 62
250
  6
CONTINUOUS
 90
3
 70
0
 10
22.54059561
 20
-17.4401759738
 10
17.4336420543
 20
-12.3371021563
 10
16.7952471397
 20
-11.6991016953
  0
LINE
  5
30D
100
AcDbEntity
  8
RACCORDO
100
AcDbLine
 62
250
  6
CONTINUOUS
 10
22.640483048
 20
-17.3403951592
 11
16.9394562251
 21
-11.6393683363
  0
LINE
  5
30E
100
AcDbEntity
  8
RACCORDO
100
AcDbLine
 62
250
  6
CONTINUOUS
 10
22.7818828651
 20
-17.1989953422
 11
17.0808560421
 21
-11.4979685192
  0
LWPOLYLINE
  5
30F
100
AcDbEntity
  8
RACCORDO
100
AcDbPolyline
 62
250
  6
CONTINUOUS
 90
3
 70
0
 10
22.2578493099
 20
-17.7373853259
 10
17.1508425267
 20
-12.6301708191
 10
16.5124475055
 20
-11.9916611787
  0
LWPOLYLINE
  5
310
100
AcDbEntity
  8
RACCORDO
100
AcDbPolyline
 62
250
  6
CONTINUOUS
 90
10
 70
0
 10
16.7952471397
 20
-11.6991016953
 10
16.5318463348
 20
-11.412051283
 10
16.2936212854
 20
-11.1023918907
 10
16.0825969307
 20
-10.7722801779
 10
15.9004041167
 20
-10.4236096562
 10
15.7489829454
 20
-10.0593179215
 10
15.6301615581
 20
-9.6835380481
 10
15.5448448007
 20
-9.2996741561
 10
15.4934139473
 20
-8.910210919
 10
15.4761624895
 20
-8.5181301666
  0
LWPOLYLINE
  5
311
100
AcDbEntity
  8
RACCORDO
100
AcDbPolyline
 62
250
  6
CONTINUOUS
 90
10
 70
0
 10
16.9394562251
 20
-11.6393683363
 10
16.674606538
 20
-11.3503671228
 10
16.4357443254
 20
-11.0391637711
 10
16.2247475976
 20
-10.7080752353
 10
16.0431904897
 20
-10.3593674683
 10
15.8926631076
 20
-9.9958566051
 10
15.7745706727
 20
-9.620967743
 10
15.6897558585
 20
-9.2378219718
 10
15.6386829986
 20
-8.8491358089
 10
15.6216374812
 20
-8.457872452
  0
LWPOLYLINE
  5
312
100
AcDbEntity
  8
RACCORDO
100
AcDbPolyline
 62
250
  6
CONTINUOUS
 90
10
 70
0
 10
16.5124475055
 20
-11.9916611787
 10
16.222695545
 20
-11.675403567
 10
15.9642271414
 20
-11.3390574808
 10
15.7370422949
 20
-10.9826221228
 10
15.5394619128
 20
-10.6022812833
 10
15.3731650878
 20
-10.2018494636
 10
15.2431890974
 20
-9.792772531
 10
15.1512130341
 20
-9.3788659328
 10
15.0955578055
 20
-8.9563140522
 10
15.0762234114
 20
-8.5251167803
  0
LINE
  5
313
100
AcDbEntity
  8
0
100
AcDbLine
 62
7
  6
CONTINUOUS
 10
21.5917003652
 20
-22.291849609
 11
21.5250675676
 21
-22.191849609
  0
LWPOLYLINE
  5
314
100
AcDbEntity
  8
RACCORDO
100
AcDbPolyline
 62
250
  6
CONTINUOUS
 90
10
 70
0
 10
17.0808560421
 20
-11.4979685192
 10
16.8254464904
 20
-11.2185818209
 10
16.5979527624
 20
-10.9222331442
 10
16.3983748581
 20
-10.6089224893
 10
16.225436211
 20
-10.2755011362
 10
16.0804133877
 20
-9.9251178049
 10
15.967136087
 20
-9.5672186548
 10
15.8868808754
 20
-9.2049524059
 10
15.8383711865
 20
-8.8351703383
 10
15.8216070202
 20
-8.457872452
  0
LINE
  5
315
100
AcDbEntity
  8
0
100
AcDbLine
 62
250
  6
CONTINUOUS
 10
13.8204090362
 20
21.612132198
 11
13.8215691507
 21
21.5639807645
  0
LINE
  5
316
100
AcDbEntity
  8
0
100
AcDbLine
 62
250
  6
CONTINUOUS
 10
13.8215691507
 20
21.5639807645
 11
13.8225733145
 21
21.505842878
  0
LINE
  5
317
100
AcDbEntity
  8
0
100
AcDbLine
 62
250
  6
CONTINUOUS
 10
13.8225733145
 20
21.505842878
 11
13.8237393101
 21
21.4027742823
  0
LINE
  5
318
100
AcDbEntity
  8
0
100
AcDbLine
 62
250
  6
CONTINUOUS
 10
14.3203338827
 20
22.0397928774
 11
14.3220156041
 21
21.8878795998
  0
LINE
  5
319
100
AcDbEntity
  8
0
100
AcDbLine
 62
250
  6
CONTINUOUS
 10
14.3220156041
 20
21.8878795998
 11
14.3236614414
 21
21.6213564162
  0
LINE
  5
31A
100
AcDbEntity
  8
0
100
AcDbLine
 62
250
  6
CONTINUOUS
 10
13.8237393101
 20
21.4027742823
 11
13.824430999
 21
21.2868906735
  0
LWPOLYLINE
  5
31B
100
AcDbEntity
  8
0
100
AcDbPolyline
 62
250
  6
CONTINUOUS
 90
3
 70
0
 10
14.3236614414
 20
21.6213564162
 10
14.3244711934
 20
21.3081733453
 10
14.324532505
 20
21.2264646219
  0
LWPOLYLINE
  5
31C
100
AcDbEntity
  8
0
100
AcDbPolyline
 62
250
  6
CONTINUOUS
 90
9
 70
0
 10
13.824430999
 20
21.2868906735
 10
13.8276532718
 20
16.5406168612
 10
13.8299367324
 20
11.8751689344
 10
13.8314590393
 20
7.2091025275
 10
13.8322201924
 20
2.5420051044
 10
13.8322201918
 20
-2.1257107989
 10
13.831459038
 20
-6.7928075743
 10
13.829936731
 20
-11.4588726859
 10
13.8276532709
 20
-16.1243186697
  0
LWPOLYLINE
  5
31D
100
AcDbEntity
  8
0
100
AcDbPolyline
 62
250
  6
CONTINUOUS
 90
9
 70
0
 10
14.324532505
 20
21.2264646219
 10
14.3275771214
 20
16.5576314459
 10
14.3298605836
 20
11.8873708057
 10
14.3313828918
 20
7.2160904803
 10
14.3321440459
 20
2.5441983865
 10
14.3321440459
 20
-2.1278976033
 10
14.3313828919
 20
-6.7997896971
 10
14.3298605837
 20
-11.4710700228
 10
14.3275771214
 20
-16.1413306633
  0
LINE
  5
31E
100
AcDbEntity
  8
TRASH
100
AcDbLine
 62
7
  6
CONTINUOUS
 10
13.6750675676
 20
16.327809557
 11
13.6750675676
 21
-15.911508775
  0
LINE
  5
31F
100
AcDbEntity
  8
0
100
AcDbLine
 62
7
  6
CONTINUOUS
 10
13.6750675676
 20
-21.6916207569
 11
13.6750675676
 21
22.1079215389
  0
LINE
  5
320
100
AcDbEntity
  8
0
100
AcDbLine
 62
250
  6
CONTINUOUS
 10
14.3275771214
 20
-16.1413306633
 11
14.3239489477
 21
-21.1298747433
  0
LINE
  5
321
100
AcDbEntity
  8
0
100
AcDbLine
 62
250
  6
CONTINUOUS
 10
13.8276532709
 20
-16.1243186697
 11
13.8242579101
 21
-20.9099487894
  0
LINE
  5
322
100
AcDbEntity
  8
0
100
AcDbLine
 62
250
  6
CONTINUOUS
 10
14.3239489477
 20
-21.1298747433
 11
14.3224960522
 21
-21.4109949154
  0
LINE
  5
323
100
AcDbEntity
  8
0
100
AcDbLine
 62
250
  6
CONTINUOUS
 10
13.8242579101
 20
-20.9099487894
 11
13.8234016048
 21
-21.0225723441
  0
LWPOLYLINE
  5
324
100
AcDbEntity
  8
0
100
AcDbPolyline
 62
250
  6
CONTINUOUS
 90
3
 70
0
 10
14.3224960522
 20
-21.4109949154
 10
14.3209285404
 20
-21.578180611
 10
14.3203338827
 20
-21.6234920954
  0
LINE
  5
325
100
AcDbEntity
  8
0
100
AcDbLine
 62
250
  6
CONTINUOUS
 10
13.8234016048
 20
-21.0225723441
 11
13.8225733145
 21
-21.089542096
  0
LINE
  5
326
100
AcDbEntity
  8
0
100
AcDbLine
 62
250
  6
CONTINUOUS
 10
13.8225733145
 20
-21.089542096
 11
13.8215691507
 21
-21.1476799824
  0
LWPOLYLINE
  5
327
100
AcDbEntity
  8
0
100
AcDbPolyline
 62
250
  6
CONTINUOUS
 90
8
 70
0
 10
13.8215691507
 20
-21.1476799824
 10
13.8204090362
 20
-21.1958314158
 10
13.8197825187
 20
-21.2155581573
 10
13.8191256053
 20
-21.2324212277
 10
13.8184520788
 20
-21.2460756435
 10
13.8177665334
 20
-21.2564064099
 10
13.8170643749
 20
-21.2635285217
 10
13.8163456033
 20
-21.2674419788
  0
LWPOLYLINE
  5
328
100
AcDbEntity
  8
RACCORDO
100
AcDbPolyline
 62
250
  6
CONTINUOUS
 90
10
 70
0
 10
27.3922858252
 20
18.1536861079
 10
27.3429311381
 20
18.1041309895
 10
27.2950912162
 20
18.0556561685
 10
27.2502343343
 20
18.0097494058
 10
27.2097372139
 20
17.9678196449
 10
27.1748427687
 20
17.9311537694
 10
27.1466219583
 20
17.9008771073
 10
27.1259409193
 20
17.8779188923
 10
27.1134343824
 20
17.8629837446
 10
27.109486191
 20
17.8565300452
  0
LINE
  5
329
100
AcDbEntity
  8
RACCORDO
100
AcDbLine
 62
250
  6
CONTINUOUS
 10
26.8682522701
 20
17.6152961242
 11
27.1095395251
 21
17.8564767558
  0
LINE
  5
32A
100
AcDbEntity
  8
0
100
AcDbLine
 62
7
  6
CONTINUOUS
 10
26.4593979194
 20
-10.601849609
 11
25.5250675676
 21
-10.601849609
  0
LINE
  5
32B
100
AcDbEntity
  8
0
100
AcDbLine
 62
7
  6
CONTINUOUS
 10
26.4599104503
 20
-10.591849609
 11
25.7250675676
 21
-10.591849609
  0
LINE
  5
32C
100
AcDbEntity
  8
0
100
AcDbLine
 62
7
  6
CONTINUOUS
 10
26.4593979194
 20
-10.581849609
 11
25.5250675676
 21
-10.581849609
  0
LINE
  5
32D
100
AcDbEntity
  8
0
100
AcDbLine
 62
7
  6
CONTINUOUS
 10
24.3250675676
 20
-10.091849609
 11
25.5250675676
 21
-10.091849609
  0
LINE
  5
32E
100
AcDbEntity
  8
0
100
AcDbLine
 62
250
  6
CONTINUOUS
 10
25.5250675676
 20
-10.031849609
 11
26.4593979194
 21
-10.031849609
  0
LINE
  5
32F
100
AcDbEntity
  8
0
100
AcDbLine
 62
250
  6
CONTINUOUS
 10
25.5250675676
 20
-9.991849609
 11
24.3250675676
 21
-9.991849609
  0
LINE
  5
330
100
AcDbEntity
  8
0
100
AcDbLine
 62
7
  6
CONTINUOUS
 10
24.8250675676
 20
-11.191849609
 11
24.6469354039
 21
-11.1856079123
  0
LINE
  5
331
100
AcDbEntity
  8
0
100
AcDbLine
 62
7
  6
CONTINUOUS
 10
24.6469354039
 20
-11.1856079123
 11
24.6238945458
 21
-11.1840152055
  0
LWPOLYLINE
  5
332
100
AcDbEntity
  8
0
100
AcDbPolyline
 62
7
  6
CONTINUOUS
 90
13
 70
0
 10
24.6370777975
 20
-11.1849783078
 10
24.4712847355
 20
-11.1688684783
 10
24.2989079246
 20
-11.1419437207
 10
24.1305386208
 20
-11.1051427308
 10
23.9668639486
 20
-11.0588116549
 10
23.8085239167
 20
-11.0033391698
 10
23.65613145
 20
-10.9391235546
 10
23.5101592096
 20
-10.8665403448
 10
23.3709340186
 20
-10.7860547646
 10
23.238890522
 20
-10.6982623246
 10
23.114316623
 20
-10.6036671605
 10
22.9972866553
 20
-10.5025754443
 10
22.9864831283
 20
-10.4919786087
  0
LWPOLYLINE
  5
333
100
AcDbEntity
  8
0
100
AcDbPolyline
 62
7
  6
CONTINUOUS
 90
12
 70
0
 10
24.508978516
 20
-11.1724236559
 10
24.3527163763
 20
-11.1483761905
 10
24.1983993419
 20
-11.1149837956
 10
24.0465500721
 20
-11.0723974144
 10
23.8976469812
 20
-11.0207485816
 10
23.752197195
 20
-10.9601696002
 10
23.6107354258
 20
-10.8908127784
 10
23.4737525233
 20
-10.8129399728
 10
23.341697594
 20
-10.7268917399
 10
23.2150435625
 20
-10.6330262542
 10
23.094283578
 20
-10.5317279744
 10
22.9798654725
 20
-10.4233593501
  0
LINE
  5
334
100
AcDbEntity
  8
RACCORDO
100
AcDbLine
 62
250
  6
CONTINUOUS
 10
26.8682522701
 20
-17.1989953422
 11
27.1094929193
 21
-17.4402225405
  0
LWPOLYLINE
  5
335
100
AcDbEntity
  8
RACCORDO
100
AcDbPolyline
 62
250
  6
CONTINUOUS
 90
10
 70
0
 10
27.3922858252
 20
-17.7373853274
 10
27.3429311608
 20
-17.6878302289
 10
27.295091266
 20
-17.6393554332
 10
27.2502344135
 20
-17.5934486988
 10
27.2097373224
 20
-17.5515189672
 10
27.1748429044
 20
-17.5148531198
 10
27.1466221177
 20
-17.4845764824
 10
27.1259410973
 20
-17.4616182868
 10
27.1134345724
 20
-17.446683152
 10
27.1094863857
 20
-17.4402294578
  0
LINE
  5
336
100
AcDbEntity
  8
0
100
AcDbLine
 62
250
  6
CONTINUOUS
 10
14.3190520524
 20
22.1129219619
 11
14.3203338827
 21
22.0397928774
  0
LINE
  5
337
100
AcDbEntity
  8
RACCORDO
100
AcDbLine
 62
250
  6
CONTINUOUS
 10
15.0762234114
 20
-8.5251167803
 11
15.0750371287
 21
-2.6657320732
  0
LINE
  5
338
100
AcDbEntity
  8
RACCORDO
100
AcDbLine
 62
250
  6
CONTINUOUS
 10
15.4761624895
 20
-8.5181301666
 11
15.4749762069
 21
-2.6634345144
  0
LINE
  5
339
100
AcDbEntity
  8
RACCORDO
100
AcDbLine
 62
250
  6
CONTINUOUS
 10
15.6216374812
 20
-8.457872452
 11
15.6216374812
 21
8.874173234
  0
LINE
  5
33A
100
AcDbEntity
  8
RACCORDO
100
AcDbLine
 62
250
  6
CONTINUOUS
 10
15.8216070202
 20
-8.457872452
 11
15.8216070202
 21
8.874173234
  0
LINE
  5
33B
100
AcDbEntity
  8
RACCORDO
100
AcDbLine
 62
250
  6
CONTINUOUS
 10
15.0750371287
 20
-2.6657320732
 11
15.0750446941
 21
3.1565338621
  0
LINE
  5
33C
100
AcDbEntity
  8
RACCORDO
100
AcDbLine
 62
250
  6
CONTINUOUS
 10
15.4749762069
 20
-2.6634345144
 11
15.4749837726
 21
3.154179917
  0
LINE
  5
33D
100
AcDbEntity
  8
RACCORDO
100
AcDbLine
 62
250
  6
CONTINUOUS
 10
15.0750446941
 20
3.1565338621
 11
15.0762234114
 21
8.9414175623
  0
LINE
  5
33E
100
AcDbEntity
  8
RACCORDO
100
AcDbLine
 62
250
  6
CONTINUOUS
 10
15.4749837726
 20
3.154179917
 11
15.4761624895
 21
8.9344309486
  0
LWPOLYLINE
  5
33F
100
AcDbEntity
  8
0
100
AcDbPolyline
 62
250
  6
CONTINUOUS
 90
6
 70
0
 10
14.3203338827
 20
-21.6234920954
 10
14.3190520524
 20
-21.6966211799
 10
14.3183788084
 20
-21.7239294834
 10
14.3176928318
 20
-21.7448054702
 10
14.3169897126
 20
-21.7591127367
 10
14.3162694509
 20
-21.7667567462
  0
LWPOLYLINE
  5
340
100
AcDbEntity
  8
RACCORDO
100
AcDbPolyline
 62
250
  6
CONTINUOUS
 90
10
 70
0
 10
15.4761624895
 20
8.9344309486
 10
15.4931553024
 20
9.3235578971
 10
15.5439428705
 20
9.7108567876
 10
15.6284293227
 20
10.0933711383
 10
15.7464263846
 20
10.4685982314
 10
15.8972243993
 20
10.8331024626
 10
16.0791960732
 20
11.1827025674
 10
16.2905816772
 20
11.5143596711
 10
16.5298976947
 20
11.8260329568
 10
16.7952471397
 20
12.1154024773
  0
LWPOLYLINE
  5
341
100
AcDbEntity
  8
RACCORDO
100
AcDbPolyline
 62
250
  6
CONTINUOUS
 90
10
 70
0
 10
15.6216374812
 20
8.874173234
 10
15.6387127694
 20
9.2657772662
 10
15.6898585524
 20
9.6547058564
 10
15.7747647005
 20
10.0379933101
 10
15.8929394257
 20
10.4129168389
 10
16.0435177114
 20
10.7763698292
 10
16.225084594
 20
11.1249594419
 10
16.4360400983
 20
11.4558867952
 10
16.6747935723
 20
11.7668907625
 10
16.9394562251
 20
12.0556691183
  0
LWPOLYLINE
  5
342
100
AcDbEntity
  8
RACCORDO
100
AcDbPolyline
 62
250
  6
CONTINUOUS
 90
10
 70
0
 10
15.0762234114
 20
8.9414175623
 10
15.0950602432
 20
9.369993665
 10
15.1502127448
 20
9.7906240396
 10
15.2416809161
 20
10.2033087639
 10
15.3709711093
 20
10.6119224853
 10
15.5365769722
 20
11.0125906568
 10
15.7339794489
 20
11.3936901908
 10
15.9616721874
 20
11.7513474997
 10
16.2211615396
 20
12.0894378315
 10
16.5124475055
 20
12.4079619607
  0
LWPOLYLINE
  5
343
100
AcDbEntity
  8
RACCORDO
100
AcDbPolyline
 62
250
  6
CONTINUOUS
 90
10
 70
0
 10
15.8216070202
 20
8.874173234
 10
15.8385587315
 20
9.2523043538
 10
15.8872398926
 20
9.6226920245
 10
15.9676505035
 20
9.9853362462
 10
16.0811082151
 20
10.343359976
 10
16.2262953766
 20
10.6936402569
 10
16.3992590352
 20
11.026808217
 10
16.5986815403
 20
11.3397408992
 10
16.8258805426
 20
11.6355612606
 10
17.0808560421
 20
11.9142693013
  0
LWPOLYLINE
  5
344
100
AcDbEntity
  8
0
100
AcDbPolyline
 62
7
  6
CONTINUOUS
 90
3
 70
0
 43
0.3500000087
 10
25.9679248306
 20
32.7438641418
 10
25.8964952759
 20
32.5295776093
 10
25.753638298
 20
32.2438636536
  0
LWPOLYLINE
  5
345
100
AcDbEntity
  8
0
100
AcDbPolyline
 62
7
  6
CONTINUOUS
 90
16
 70
0
 10
22.8812031023
 20
10.7331899169
 10
22.93502156
 20
10.7935804897
 10
23.0417573003
 20
10.9002015469
 10
23.1547714376
 20
11.0006690693
 10
23.2741891098
 20
11.0949613912
 10
23.3994578157
 20
11.1824754496
 10
23.5292658314
 20
11.2622483491
 10
23.6632116829
 20
11.3341135311
 10
23.8011228871
 20
11.3980354784
 10
23.941882584
 20
11.4535630089
 10
24.0850064884
 20
11.5006111048
 10
24.2303870085
 20
11.5392290745
 10
24.3774237531
 20
11.5693290474
 10
24.5257006363
 20
11.5908687813
 10
24.6750143291
 20
11.6038235749
 10
24.8250675676
 20
11.608150391
  0
LWPOLYLINE
  5
346
100
AcDbEntity
  8
0
100
AcDbPolyline
 62
250
  6
CONTINUOUS
 90
14
 70
0
 10
22.9914460898
 20
10.9211107457
 10
23.0472553819
 20
10.9734051325
 10
23.1627019146
 20
11.0687101615
 10
23.2848963371
 20
11.157349291
 10
23.4137717634
 20
11.2391180611
 10
23.5491125146
 20
11.3136835451
 10
23.6906038037
 20
11.3806578022
 10
23.8380138237
 20
11.4397127578
 10
23.9909977652
 20
11.490501231
 10
24.1491589021
 20
11.5326638451
 10
24.3121336911
 20
11.5658484657
 10
24.4794723949
 20
11.5897105205
 10
24.650636013
 20
11.6039209209
 10
24.8250675676
 20
11.608150391
  0
LWPOLYLINE
  5
347
100
AcDbEntity
  8
0
100
AcDbPolyline
 62
250
  6
CONTINUOUS
 90
3
 70
0
 10
22.6486379991
 20
-9.0252798252
 10
22.6714313923
 20
-9.0236619234
 10
22.6939411799
 20
-9.018912346
  0
LWPOLYLINE
  5
348
100
AcDbEntity
  8
RACCORDO
100
AcDbPolyline
 62
250
  6
CONTINUOUS
 90
6
 70
0
 10
15.3309541822
 20
-8.5234392246
 10
15.3801341112
 20
-8.522580078
 10
15.4202833973
 20
-8.5215887094
 10
15.4502090106
 20
-8.5204945804
 10
15.4690217141
 20
-8.5193301995
 10
15.4761624895
 20
-8.5181301666
  0
LINE
  5
349
100
AcDbEntity
  8
RACCORDO
100
AcDbLine
 62
250
  6
CONTINUOUS
 10
15.2115727981
 20
-8.5246633917
 11
15.3309541822
 21
-8.5234392246
  0
LINE
  5
34A
100
AcDbEntity
  8
RACCORDO
100
AcDbLine
 62
250
  6
CONTINUOUS
 10
15.0762234114
 20
-8.5251167802
 11
15.2115727981
 21
-8.5246633917
  0
LINE
  5
34B
100
AcDbEntity
  8
RACCORDO
100
AcDbLine
 62
250
  6
CONTINUOUS
 10
15.8216070202
 20
-8.457872452
 11
15.6216374812
 21
-8.457872452
  0
LINE
  5
34C
100
AcDbEntity
  8
RACCORDO
100
AcDbLine
 62
250
  6
CONTINUOUS
 10
33.8285281149
 20
-8.457872452
 11
34.028497654
 21
-8.457872452
  0
LINE
  5
34D
100
AcDbEntity
  8
RACCORDO
100
AcDbLine
 62
250
  6
CONTINUOUS
 10
34.5739117129
 20
-8.5251163139
 11
34.4385246428
 21
-8.5246636714
  0
LWPOLYLINE
  5
34E
100
AcDbEntity
  8
RACCORDO
100
AcDbPolyline
 62
250
  6
CONTINUOUS
 90
7
 70
0
 10
34.4385246428
 20
-8.5246636714
 10
34.3190987992
 20
-8.5234398247
 10
34.2698979952
 20
-8.522580685
 10
34.2297305922
 20
-8.5215892333
 10
34.1997907548
 20
-8.5204949469
 10
34.1809685858
 20
-8.5193303555
 10
34.1738236632
 20
-8.518130082
  0
LWPOLYLINE
  5
34F
100
AcDbEntity
  8
0
100
AcDbPolyline
 62
250
  6
CONTINUOUS
 90
5
 70
0
 10
27.0001601486
 20
-8.9650936352
 10
26.9858237525
 20
-8.96482757
 10
26.9590067138
 20
-8.9619833944
 10
26.9326417789
 20
-8.9568261318
 10
26.9067289476
 20
-8.9493871879
  0
LINE
  5
350
100
AcDbEntity
  8
0
100
AcDbLine
 62
250
  6
CONTINUOUS
 10
22.6406785603
 20
-9.0247594508
 11
22.6486379991
 21
-9.0252798252
  0
LINE
  5
351
100
AcDbEntity
  8
0
100
AcDbLine
 62
7
  6
CONTINUOUS
 10
22.9798654725
 20
-10.4233593501
 11
22.8787672773
 21
-10.3152737418
  0
LWPOLYLINE
  5
352
100
AcDbEntity
  8
0
100
AcDbPolyline
 62
250
  6
CONTINUOUS
 90
5
 70
0
 10
14.3162694509
 20
22.1830575282
 10
14.3169897127
 20
22.1754135187
 10
14.3176928319
 20
22.1611062522
 10
14.3183788085
 20
22.1402302654
 10
14.3190520524
 20
22.1129219619
  0
LINE
  5
353
100
AcDbEntity
  8
TRASH
100
AcDbLine
 62
7
  6
CONTINUOUS
 10
21.4401952905
 20
22.608150391
 11
21.457007134
 21
22.6862436237
  0
LINE
  5
354
100
AcDbEntity
  8
DRAFT
100
AcDbLine
 62
7
  6
CONTINUOUS
 10
25.3215768524
 20
10.6046596758
 11
25.2587439785
 21
10.5418268019
  0
LINE
  5
355
100
AcDbEntity
  8
RACCORDO
100
AcDbLine
 62
250
  6
CONTINUOUS
 10
32.8548879955
 20
12.1154024773
 11
32.7106789101
 21
12.0556691183
  0
LINE
  5
356
100
AcDbEntity
  8
0
100
AcDbLine
 62
250
  6
CONTINUOUS
 10
27.0136222059
 20
9.5133471388
 11
26.9368730089
 21
9.4914837243
  0
LINE
  5
357
100
AcDbEntity
  8
0
100
AcDbLine
 62
250
  6
CONTINUOUS
 10
22.6939411799
 20
-9.018912346
 11
22.7716986991
 21
-8.996958925
  0
LWPOLYLINE
  5
358
100
AcDbEntity
  8
0
100
AcDbPolyline
 62
7
  6
CONTINUOUS
 90
14
 70
0
 10
24.5276830179
 20
-8.0090517016
 10
24.3767938444
 20
-8.0309395928
 10
24.2246855351
 20
-8.0622415416
 10
24.0724927508
 20
-8.103216421
 10
23.9223382806
 20
-8.1536252431
 10
23.7753222487
 20
-8.2132060097
 10
23.6315277845
 20
-8.2820054568
 10
23.4914937257
 20
-8.3599215427
 10
23.3554174844
 20
-8.4470752424
 10
23.2243512431
 20
-8.5430340775
 10
23.0999622804
 20
-8.6466065419
 10
22.9829994043
 20
-8.7569745478
 10
22.8734649627
 20
-8.8739314089
 10
22.7716977859
 20
-8.9969601019
  0
LWPOLYLINE
  5
359
100
AcDbEntity
  8
0
100
AcDbPolyline
 62
7
  6
CONTINUOUS
 90
15
 70
0
 10
24.6238945458
 20
-7.9996840125
 10
24.4712847355
 20
-8.0148307397
 10
24.2989079246
 20
-8.0417554973
 10
24.1305386208
 20
-8.0785564872
 10
23.9668639486
 20
-8.1248875631
 10
23.8085239167
 20
-8.1803600481
 10
23.65613145
 20
-8.2445756634
 10
23.5101592096
 20
-8.3171588732
 10
23.3709340186
 20
-8.3976444533
 10
23.238890522
 20
-8.4854368933
 10
23.114316623
 20
-8.5800320575
 10
22.9972866553
 20
-8.6811237736
 10
22.8880099191
 20
-8.7883098442
 10
22.7868184841
 20
-8.9010562997
 10
22.6939411799
 20
-9.018912346
  0
LINE
  5
35A
100
AcDbEntity
  8
0
100
AcDbLine
 62
7
  6
CONTINUOUS
 10
24.6370151662
 20
-7.9987641744
 11
24.5276830179
 21
-8.0090517016
  0
LINE
  5
35B
100
AcDbEntity
  8
0
100
AcDbLine
 62
7
  6
CONTINUOUS
 10
24.6478155359
 20
-7.9980604661
 11
24.6238945458
 21
-7.9996840125
  0
LINE
  5
35C
100
AcDbEntity
  8
0
100
AcDbLine
 62
7
  6
CONTINUOUS
 10
24.8250675676
 20
-7.991849609
 11
24.6478155359
 21
-7.9980604661
  0
LWPOLYLINE
  5
35D
100
AcDbEntity
  8
0
100
AcDbPolyline
 62
250
  6
CONTINUOUS
 90
15
 70
0
 10
24.8250675676
 20
-7.6346372187
 10
24.6543276929
 20
-7.640436896
 10
24.4853510329
 20
-7.6557940127
 10
24.3188426945
 20
-7.6805068128
 10
24.1553797142
 20
-7.7144000785
 10
23.9957196792
 20
-7.757254077
 10
23.8407450043
 20
-7.8086572783
 10
23.691227165
 20
-7.8680930075
 10
23.5473821864
 20
-7.9352470469
 10
23.4092210286
 20
-8.0099939273
 10
23.2769715501
 20
-8.0921294489
 10
23.1512412017
 20
-8.181085483
 10
23.0325917795
 20
-8.2762296997
 10
22.9214250157
 20
-8.3769868137
 10
22.817890915
 20
-8.4829869463
  0
LWPOLYLINE
  5
35E
100
AcDbEntity
  8
0
100
AcDbPolyline
 62
7
  6
CONTINUOUS
 90
7
 70
0
 10
24.8250675676
 20
-7.141849609
 10
24.6736071863
 20
-7.1461246047
 10
24.5225614779
 20
-7.1589055544
 10
24.3724154992
 20
-7.1801259976
 10
24.2236962165
 20
-7.2097100444
 10
24.0768544798
 20
-7.2475947077
 10
23.9322678789
 20
-7.2937437816
  0
LINE
  5
35F
100
AcDbEntity
  8
0
100
AcDbLine
 62
250
  6
CONTINUOUS
 10
26.9067289476
 20
-8.9493871879
 11
26.8153656905
 21
-8.9189140508
  0
LINE
  5
360
100
AcDbEntity
  8
0
100
AcDbLine
 62
250
  6
CONTINUOUS
 10
27.0178818385
 20
-9.1025574832
 11
26.936873009
 21
-9.0751829423
  0
LINE
  5
361
100
AcDbEntity
  8
RACCORDO
100
AcDbLine
 62
250
  6
CONTINUOUS
 10
32.8548879955
 20
-11.6991016953
 11
32.7106789101
 21
-11.6393683363
  0
LINE
  5
362
100
AcDbEntity
  8
TRASH
100
AcDbLine
 62
7
  6
CONTINUOUS
 10
21.4401952905
 20
-22.191849609
 11
21.457007134
 21
-22.2699428417
  0
LWPOLYLINE
  5
363
100
AcDbEntity
  8
0
100
AcDbPolyline
 62
250
  6
CONTINUOUS
 90
7
 70
0
 10
13.8163456033
 20
21.6837427608
 10
13.8170643749
 20
21.6798293036
 10
13.8177665334
 20
21.6727071917
 10
13.8184520788
 20
21.6623764253
 10
13.8191256053
 20
21.6487220096
 10
13.8197825187
 20
21.6318589394
 10
13.8204090362
 20
21.612132198
  0
LINE
  5
364
100
AcDbEntity
  8
0
100
AcDbLine
 62
7
  6
CONTINUOUS
 10
25.7178672563
 20
7.7100445637
 11
25.855026142
 21
7.7625159536
  0
LWPOLYLINE
  5
365
100
AcDbEntity
  8
0
100
AcDbPolyline
 62
7
  6
CONTINUOUS
 90
8
 70
0
 10
25.8577872299
 20
-7.3478816492
 10
25.7367886317
 20
-7.3004731185
 10
25.5893771188
 20
-7.2522887559
 10
25.4390983354
 20
-7.2126439283
 10
25.2868819311
 20
-7.1817290799
 10
25.1334512357
 20
-7.1596061277
 10
24.9793056055
 20
-7.1462968141
 10
24.8250675676
 20
-7.141849609
  0
LINE
  5
366
100
AcDbEntity
  8
0
100
AcDbLine
 62
7
  6
CONTINUOUS
 10
20.5750418761
 20
-0.471849609
 11
20.5750675676
 21
-0.4934550131
  0
LINE
  5
367
100
AcDbEntity
  8
0
100
AcDbLine
 62
7
  6
CONTINUOUS
 10
20.5410681697
 20
-0.481849609
 11
20.5410681697
 21
-0.981849609
  0
LINE
  5
368
100
AcDbEntity
  8
TRASH
100
AcDbLine
 62
7
  6
CONTINUOUS
 10
21.3552473079
 20
-22.191849609
 11
21.3552473079
 21
-22.291849609
  0
LINE
  5
369
100
AcDbEntity
  8
TRASH
100
AcDbLine
 62
7
  6
CONTINUOUS
 10
21.3552473079
 20
22.608150391
 11
21.3552473079
 21
22.708150391
  0
LWPOLYLINE
  5
36A
100
AcDbEntity
  8
0
100
AcDbPolyline
 62
7
  6
CONTINUOUS
 90
16
 70
0
 10
20.5750675676
 20
-0.4934550131
 10
20.5749291881
 20
-0.5447698205
 10
20.574486292
 20
-0.59556562
 10
20.5737388791
 20
-0.6453053714
 10
20.5726818124
 20
-0.6936313868
 10
20.571320229
 20
-0.7398110449
 10
20.5696695403
 20
-0.7828419744
 10
20.5677466021
 20
-0.8220224608
 10
20.5655345587
 20
-0.8573915378
 10
20.5629982542
 20
-0.889072031
 10
20.5601197648
 20
-0.9168604956
 10
20.5569170143
 20
-0.9401185107
 10
20.5534086179
 20
-0.9583561062
 10
20.549600781
 20
-0.9714008101
 10
20.5454872982
 20
-0.9792401637
 10
20.5410681697
 20
-0.981849609
  0
LINE
  5
36B
100
AcDbEntity
  8
0
100
AcDbLine
 62
250
  6
CONTINUOUS
 10
13.8163456033
 20
-21.2674419788
 11
13.6750675676
 21
-21.6916207569
  0
LWPOLYLINE
  5
36C
100
AcDbEntity
  8
0
100
AcDbPolyline
 62
7
  6
CONTINUOUS
 90
19
 70
0
 10
20.5753345997
 20
-0.471849609
 10
20.5745505425
 20
-0.4736194038
 10
20.5735556283
 20
-0.475144882
 10
20.5723498571
 20
-0.4764110614
 10
20.57089228
 20
-0.4773878858
 10
20.5692238459
 20
-0.4781392462
 10
20.5674674016
 20
-0.4787897085
 10
20.5656575772
 20
-0.4793685688
 10
20.5637597427
 20
-0.4798561228
 10
20.5617928546
 20
-0.4802775892
 10
20.5597618573
 20
-0.4806396359
 10
20.5576618064
 20
-0.4809430425
 10
20.5554968261
 20
-0.4811971076
 10
20.5532713838
 20
-0.4814047629
 10
20.5509810121
 20
-0.4815685922
 10
20.5486164326
 20
-0.4816935233
 10
20.5461745527
 20
-0.4817813623
 10
20.5436584651
 20
-0.4818328368
 10
20.5410681697
 20
-0.481849609
  0
LINE
  5
36D
100
AcDbEntity
  8
0
100
AcDbLine
 62
250
  6
CONTINUOUS
 10
21.8755931334
 20
1.8040433261
 11
21.8753509533
 21
1.8036693799
  0
LINE
  5
36E
100
AcDbEntity
  8
0
100
AcDbLine
 62
7
  6
CONTINUOUS
 10
19.6601919751
 20
0.5698907997
 11
19.6538461565
 21
0.5605577319
  0
LWPOLYLINE
  5
36F
100
AcDbEntity
  8
0
100
AcDbPolyline
 62
7
  6
CONTINUOUS
 90
8
 70
0
 10
19.7546245024
 20
0.711922677
 10
19.7404757007
 20
0.6918804529
 10
19.7265739237
 20
0.6717913299
 10
19.7129097882
 20
0.6516469784
 10
19.6994362019
 20
0.6313802047
 10
19.6861437316
 20
0.6109758952
 10
19.6730596508
 20
0.5904751451
 10
19.6601919751
 20
0.5698907997
  0
LWPOLYLINE
  5
370
100
AcDbEntity
  8
0
100
AcDbPolyline
 62
7
  6
CONTINUOUS
 90
3
 70
0
 10
19.7835638252
 20
0.7517075242
 10
19.7689910098
 20
0.7318715737
 10
19.7546245024
 20
0.711922677
  0
LINE
  5
371
100
AcDbEntity
  8
0
100
AcDbLine
 62
250
  6
CONTINUOUS
 10
26.9561939552
 20
9.435213128
 11
27.0136222059
 21
9.5133471388
  0
LWPOLYLINE
  5
372
100
AcDbEntity
  8
0
100
AcDbPolyline
 62
7
  6
CONTINUOUS
 90
6
 70
0
 10
26.8885219353
 20
9.4263298969
 10
26.8984670428
 20
9.4393882614
 10
26.9082736815
 20
9.4524343858
 10
26.9179428697
 20
9.4654667001
 10
26.9274756341
 20
9.4784836555
 10
26.9368730089
 20
9.4914837243
  0
LINE
  5
373
100
AcDbEntity
  8
0
100
AcDbLine
 62
7
  6
CONTINUOUS
 10
26.8784373492
 20
9.4132608839
 11
26.8885219353
 21
9.4263298969
  0
LINE
  5
374
100
AcDbEntity
  8
0
100
AcDbLine
 62
250
  6
CONTINUOUS
 10
19.834064016
 20
1.0925886629
 11
19.7843772695
 21
1.0283378079
  0
LINE
  5
375
100
AcDbEntity
  8
0
100
AcDbLine
 62
7
  6
CONTINUOUS
 10
19.8833535514
 20
0.8778743742
 11
19.7835638252
 21
0.7517075242
  0
LINE
  5
376
100
AcDbEntity
  8
0
100
AcDbLine
 62
250
  6
CONTINUOUS
 10
26.8322442201
 20
8.8992877283
 11
26.8959826007
 21
8.9730423989
  0
LINE
  5
377
100
AcDbEntity
  8
RACCORDO
100
AcDbLine
 62
250
  6
CONTINUOUS
 10
34.1739726456
 20
8.9344309486
 11
34.028497654
 21
8.874173234
  0
LINE
  5
378
100
AcDbEntity
  8
RACCORDO
100
AcDbLine
 62
250
  6
CONTINUOUS
 10
34.1739726456
 20
-8.5181301666
 11
34.028497654
 21
-8.457872452
  0
LWPOLYLINE
  5
379
100
AcDbEntity
  8
0
100
AcDbPolyline
 62
7
  6
CONTINUOUS
 90
16
 70
0
 10
26.815365756
 20
-8.9189141287
 10
26.7149294079
 20
-8.8062342378
 10
26.6080295358
 20
-8.699484206
 10
26.4950112067
 20
-8.5990403043
 10
26.3761182064
 20
-8.5051671392
 10
26.2518522181
 20
-8.418306566
 10
26.1230229903
 20
-8.3390029573
 10
25.990448406
 20
-8.2676515423
 10
25.8542717822
 20
-8.2042250904
 10
25.7142980141
 20
-8.1486378612
 10
25.5705397394
 20
-8.1010091452
 10
25.4238781004
 20
-8.0617429439
 10
25.2754230249
 20
-8.0311482392
 10
25.1258988253
 20
-8.0093103291
 10
24.975610405
 20
-7.996210665
 10
24.8250675676
 20
-7.991849609
  0
LWPOLYLINE
  5
37A
100
AcDbEntity
  8
0
100
AcDbPolyline
 62
250
  6
CONTINUOUS
 90
16
 70
0
 10
26.8979191684
 20
-8.5525874256
 10
26.8175851055
 20
-8.4596759843
 10
26.7152047078
 20
-8.3550622199
 10
26.6056259895
 20
-8.2560586925
 10
26.4890908612
 20
-8.162988059
 10
26.3660798722
 20
-8.0763645567
 10
26.2366071405
 20
-7.9963953055
 10
26.1012553414
 20
-7.923671017
 10
25.9602784484
 20
-7.8584226049
 10
25.813080954
 20
-7.800555583
 10
25.6598351667
 20
-7.7504937792
 10
25.5013504224
 20
-7.7088915991
 10
25.3379555938
 20
-7.6761693132
 10
25.1702311094
 20
-7.6526612531
 10
24.9990003297
 20
-7.6387100166
 10
24.8250675676
 20
-7.6346372187
  0
LWPOLYLINE
  5
37B
100
AcDbEntity
  8
0
100
AcDbPolyline
 62
250
  6
CONTINUOUS
 90
16
 70
0
 10
26.9067289476
 20
-8.9493871879
 10
26.8127516541
 20
-8.8359904013
 10
26.7114062309
 20
-8.7282862773
 10
26.6028797532
 20
-8.6265948675
 10
26.4874332205
 20
-8.5312898385
 10
26.365238798
 20
-8.442650709
 10
26.2363633718
 20
-8.3608819389
 10
26.1010226206
 20
-8.2863164549
 10
25.9595313314
 20
-8.2193421978
 10
25.8121213114
 20
-8.1602872422
 10
25.65913737
 20
-8.109498769
 10
25.500976233
 20
-8.0673361549
 10
25.338001444
 20
-8.0341515343
 10
25.1706627403
 20
-8.0102894795
 10
24.9994991222
 20
-7.9960790791
 10
24.8250675676
 20
-7.991849609
  0
LINE
  5
37C
100
AcDbEntity
  8
0
100
AcDbLine
 62
7
  6
CONTINUOUS
 10
19.8833535514
 20
-0.4615735922
 11
19.7835638252
 21
-0.3354067422
  0
LINE
  5
37D
100
AcDbEntity
  8
0
100
AcDbLine
 62
250
  6
CONTINUOUS
 10
19.834064016
 20
-0.6762878809
 11
19.7855639298
 21
-0.6135715184
  0
LINE
  5
37E
100
AcDbEntity
  8
0
100
AcDbLine
 62
250
  6
CONTINUOUS
 10
26.987581436
 20
-9.0537660214
 11
26.9067289476
 21
-8.9493871879
  0
LINE
  5
37F
100
AcDbEntity
  8
0
100
AcDbLine
 62
250
  6
CONTINUOUS
 10
27.0173668322
 20
-9.0926445133
 11
26.987581436
 21
-9.0537660214
  0
LWPOLYLINE
  5
380
100
AcDbEntity
  8
0
100
AcDbPolyline
 62
7
  6
CONTINUOUS
 90
3
 70
0
 10
19.7835638252
 20
-0.3354067422
 10
19.7689910098
 20
-0.3155707917
 10
19.7546245024
 20
-0.2956218949
  0
LWPOLYLINE
  5
381
100
AcDbEntity
  8
0
100
AcDbPolyline
 62
7
  6
CONTINUOUS
 90
7
 70
0
 10
26.9368730089
 20
-9.0751829423
 10
26.9178536507
 20
-9.0490448859
 10
26.8983481534
 20
-9.0229303522
 10
26.8783514608
 20
-8.9968495122
 10
26.8578586544
 20
-8.9708127543
 10
26.8368649601
 20
-8.944830685
 10
26.815365756
 20
-8.9189141287
  0
LWPOLYLINE
  5
382
100
AcDbEntity
  8
0
100
AcDbPolyline
 62
7
  6
CONTINUOUS
 90
8
 70
0
 10
19.7546245024
 20
-0.2956218949
 10
19.7404757007
 20
-0.2755796709
 10
19.7265739237
 20
-0.2554905478
 10
19.7129097882
 20
-0.2353461963
 10
19.6994362019
 20
-0.2150794226
 10
19.6861437316
 20
-0.1946751131
 10
19.6730596508
 20
-0.1741743631
 10
19.6601919751
 20
-0.1535900177
  0
LINE
  5
383
100
AcDbEntity
  8
0
100
AcDbLine
 62
7
  6
CONTINUOUS
 10
19.6601919751
 20
-0.1535900177
 11
19.6541290887
 21
-0.1446730704
  0
LINE
  5
384
100
AcDbEntity
  8
0
100
AcDbLine
 62
250
  6
CONTINUOUS
 10
21.8755931334
 20
-1.3877425441
 11
21.8753509533
 21
-1.3873685979
  0
LINE
  5
385
100
AcDbEntity
  8
0
100
AcDbLine
 62
250
  6
CONTINUOUS
 10
13.6750675676
 20
22.1079215389
 11
13.8163456033
 21
21.6837427608
  0
LWPOLYLINE
  5
386
100
AcDbEntity
  8
0
100
AcDbPolyline
 62
250
  6
CONTINUOUS
 90
6
 70
0
 10
21.8783149783
 20
-1.4406478383
 10
21.8777623924
 20
-1.4230117597
 10
21.8772095964
 20
-1.4087674036
 10
21.8766630682
 20
-1.3981431203
 10
21.8761249669
 20
-1.391155118
 10
21.8756133024
 20
-1.3878719612
  0
LINE
  5
387
100
AcDbEntity
  8
0
100
AcDbLine
 62
250
  6
CONTINUOUS
 10
21.8794195853
 20
-1.4856054964
 11
21.8783149783
 21
-1.4406478383
  0
LINE
  5
388
100
AcDbEntity
  8
0
100
AcDbLine
 62
250
  6
CONTINUOUS
 10
21.8810310842
 20
-1.5727078785
 11
21.8794195853
 21
-1.4856054964
  0
LINE
  5
389
100
AcDbEntity
  8
0
100
AcDbLine
 62
250
  6
CONTINUOUS
 10
21.8873647642
 20
-1.9893356159
 11
21.8810310842
 21
-1.5727078785
  0
LINE
  5
38A
100
AcDbEntity
  8
0
100
AcDbLine
 62
7
  6
CONTINUOUS
 10
22.3750675676
 20
-1.1503084912
 11
22.3750675676
 21
-1.1813010932
  0
LINE
  5
38B
100
AcDbEntity
  8
0
100
AcDbLine
 62
250
  6
CONTINUOUS
 10
23.1907372158
 20
11.008150391
 11
23.1907372158
 21
11.0290524325
  0
LINE
  5
38C
100
AcDbEntity
  8
0
100
AcDbLine
 62
250
  6
CONTINUOUS
 10
23.1907372158
 20
10.448150391
 11
23.1907372158
 21
10.998150391
  0
LWPOLYLINE
  5
38D
100
AcDbEntity
  8
0
100
AcDbPolyline
 62
7
  6
CONTINUOUS
 90
12
 70
0
 10
22.3750842728
 20
-1.1607845249
 10
22.3751114221
 20
-1.1572225118
 10
22.3751318299
 20
-1.1557681839
 10
22.3751578536
 20
-1.1545604305
 10
22.3751897686
 20
-1.1535749465
 10
22.3752250426
 20
-1.152752268
 10
22.3752608682
 20
-1.1521024878
 10
22.3752985927
 20
-1.1516155131
 10
22.3753417501
 20
-1.1512016004
 10
22.3753923011
 20
-1.1508308352
 10
22.3754495729
 20
-1.1505331322
 10
22.3755141386
 20
-1.1503084912
  0
LINE
  5
38E
100
AcDbEntity
  8
0
100
AcDbLine
 62
250
  6
CONTINUOUS
 10
21.8873656083
 20
2.4056920808
 11
21.8799649983
 21
1.9286413105
  0
LWPOLYLINE
  5
38F
100
AcDbEntity
  8
0
100
AcDbPolyline
 62
250
  6
CONTINUOUS
 90
8
 70
0
 10
21.8799649983
 20
1.9286413105
 10
21.8788673868
 20
1.8778545088
 10
21.8783149783
 20
1.8569486204
 10
21.8777623924
 20
1.8393125417
 10
21.8772095964
 20
1.8250681857
 10
21.8766630682
 20
1.8144439023
 10
21.8761249669
 20
1.8074559
 10
21.8756133024
 20
1.8041727433
  0
LINE
  5
390
100
AcDbEntity
  8
0
100
AcDbLine
 62
250
  6
CONTINUOUS
 10
14.3162694509
 20
-21.7667567462
 11
14.1746869678
 21
-22.191849609
  0
LWPOLYLINE
  5
391
100
AcDbEntity
  8
RACCORDO
100
AcDbPolyline
 62
250
  6
CONTINUOUS
 90
6
 70
0
 10
32.9558670532
 20
12.2238582025
 10
32.9209961314
 20
12.1877843866
 10
32.8927075075
 20
12.1581021987
 10
32.8718609442
 20
12.1357137499
 10
32.8590900194
 20
12.1212994808
 10
32.8547828743
 20
12.1152974752
  0
LINE
  5
392
100
AcDbEntity
  8
RACCORDO
100
AcDbLine
 62
250
  6
CONTINUOUS
 10
33.040948681
 20
12.3106343223
 11
32.9558670532
 21
12.2238582025
  0
LINE
  5
393
100
AcDbEntity
  8
RACCORDO
100
AcDbLine
 62
250
  6
CONTINUOUS
 10
33.1376876214
 20
12.4079613821
 11
33.040948681
 21
12.3106343223
  0
LINE
  5
394
100
AcDbEntity
  8
RACCORDO
100
AcDbLine
 62
250
  6
CONTINUOUS
 10
32.569279093
 20
11.9142693013
 11
32.7106789101
 21
12.0556691183
  0
LINE
  5
395
100
AcDbEntity
  8
0
100
AcDbLine
 62
250
  6
CONTINUOUS
 10
19.6601919751
 20
-0.1535900177
 11
19.6559666291
 21
-0.1562038562
  0
LINE
  5
396
100
AcDbEntity
  8
0
100
AcDbLine
 62
250
  6
CONTINUOUS
 10
19.6554416032
 20
0.5682392031
 11
19.6601919751
 21
0.5698907997
  0
LWPOLYLINE
  5
397
100
AcDbEntity
  8
0
100
AcDbPolyline
 62
7
  6
CONTINUOUS
 90
11
 70
0
 10
21.2076717823
 20
1.7172352612
 10
21.0767017808
 20
1.6788922068
 10
20.9223096287
 20
1.6237606641
 10
20.7730300369
 20
1.5595680799
 10
20.6283199949
 20
1.486345612
 10
20.4888061297
 20
1.4045444612
 10
20.3547772899
 20
1.3143672243
 10
20.2266055989
 20
1.2160653044
 10
20.1050715572
 20
1.1102880988
 10
19.9906111393
 20
0.9975003765
 10
19.8833535514
 20
0.8778743742
  0
LINE
  5
398
100
AcDbEntity
  8
0
100
AcDbLine
 62
7
  6
CONTINUOUS
 10
21.9318460255
 20
-1.386795575
 11
21.8753509533
 21
-1.3873685979
  0
LWPOLYLINE
  5
399
100
AcDbEntity
  8
0
100
AcDbPolyline
 62
7
  6
CONTINUOUS
 90
4
 70
0
 10
21.8753440844
 20
-1.3873689184
 10
21.8463300871
 20
-1.3871925076
 10
21.7962831287
 20
-1.3861702156
 10
21.7522720381
 20
-1.384507972
  0
LWPOLYLINE
  5
39A
100
AcDbEntity
  8
0
100
AcDbPolyline
 62
250
  6
CONTINUOUS
 90
16
 70
0
 10
21.8815539488
 20
-1.6060279286
 10
21.7166022473
 20
-1.6011793786
 10
21.5536984552
 20
-1.5871314785
 10
21.3930114664
 20
-1.5639797358
 10
21.2347673892
 20
-1.5318194135
 10
21.0798913913
 20
-1.4908461223
 10
20.9295262865
 20
-1.4414789649
 10
20.7844418249
 20
-1.3842480977
 10
20.6447446415
 20
-1.3194503367
 10
20.5104356585
 20
-1.2472356706
 10
20.3819038677
 20
-1.1679213059
 10
20.2594951287
 20
-1.0819319748
 10
20.1432072363
 20
-0.9894385603
 10
20.0333059322
 20
-0.8907380462
 10
19.9301967012
 20
-0.7862507326
 10
19.834064016
 20
-0.6762878809
  0
LINE
  5
39B
100
AcDbEntity
  8
0
100
AcDbLine
 62
7
  6
CONTINUOUS
 10
21.7522720381
 20
-1.384507972
 11
21.7131305875
 21
-1.3824098612
  0
LWPOLYLINE
  5
39C
100
AcDbEntity
  8
0
100
AcDbPolyline
 62
7
  6
CONTINUOUS
 90
4
 70
0
 10
21.7131305875
 20
-1.3824098612
 10
21.6758885453
 20
-1.3798600504
 10
21.6405248608
 20
-1.3769324326
 10
21.6068722578
 20
-1.3736853336
  0
LINE
  5
39D
100
AcDbEntity
  8
0
100
AcDbLine
 62
7
  6
CONTINUOUS
 10
21.6068722578
 20
-1.3736853336
 11
21.5718996033
 21
-1.3698342747
  0
LWPOLYLINE
  5
39E
100
AcDbEntity
  8
0
100
AcDbPolyline
 62
7
  6
CONTINUOUS
 90
4
 70
0
 10
21.5718996033
 20
-1.3698342747
 10
21.5347367571
 20
-1.3652132243
 10
21.4961746485
 20
-1.3598494939
 10
21.4557707244
 20
-1.3536098155
  0
LWPOLYLINE
  5
39F
100
AcDbEntity
  8
0
100
AcDbPolyline
 62
7
  6
CONTINUOUS
 90
4
 70
0
 10
21.4557707244
 20
-1.3536098155
 10
21.4131310068
 20
-1.3463317745
 10
21.3687649108
 20
-1.3379947174
 10
21.3236282991
 20
-1.3287001171
  0
LWPOLYLINE
  5
3A0
100
AcDbEntity
  8
0
100
AcDbPolyline
 62
7
  6
CONTINUOUS
 90
4
 70
0
 10
21.3236282991
 20
-1.3287001171
 10
21.278187357
 20
-1.318497668
 10
21.2321220604
 20
-1.307267274
 10
21.2076717823
 20
-1.3009344792
  0
LWPOLYLINE
  5
3A1
100
AcDbEntity
  8
0
100
AcDbPolyline
 62
7
  6
CONTINUOUS
 90
11
 70
0
 10
21.2076717823
 20
-1.3009344792
 10
21.0767017808
 20
-1.2625914248
 10
20.9223096287
 20
-1.2074598821
 10
20.7730300369
 20
-1.1432672979
 10
20.6283199949
 20
-1.07004483
 10
20.4888061297
 20
-0.9882436792
 10
20.3547772899
 20
-0.8980664422
 10
20.2266055989
 20
-0.7997645224
 10
20.1050715572
 20
-0.6939873168
 10
19.9906111393
 20
-0.5811995945
 10
19.8833535514
 20
-0.4615735922
  0
LINE
  5
3A2
100
AcDbEntity
  8
0
100
AcDbLine
 62
250
  6
CONTINUOUS
 10
19.6552778167
 20
-0.1518814762
 11
19.6601919751
 21
-0.1535900177
  0
LINE
  5
3A3
100
AcDbEntity
  8
0
100
AcDbLine
 62
250
  6
CONTINUOUS
 10
19.6601919751
 20
0.5698907997
 11
19.6562864451
 21
0.572306797
  0
LWPOLYLINE
  5
3A4
100
AcDbEntity
  8
0
100
AcDbPolyline
 62
7
  6
CONTINUOUS
 90
6
 70
0
 10
22.4674758862
 20
-1.0949187461
 10
22.4741963648
 20
-1.0998978878
 10
22.483645318
 20
-1.1037064719
 10
22.4958200711
 20
-1.106206447
 10
22.5109840723
 20
-1.1072747699
 10
22.5288758553
 20
-1.1067933137
  0
LINE
  5
3A5
100
AcDbEntity
  8
RACCORDO
100
AcDbLine
 62
250
  6
CONTINUOUS
 10
32.569279093
 20
-11.4979685192
 11
32.7106789101
 21
-11.6393683363
  0
LINE
  5
3A6
100
AcDbEntity
  8
RACCORDO
100
AcDbLine
 62
250
  6
CONTINUOUS
 10
33.1376876296
 20
-11.9916611787
 11
33.0409760838
 21
-11.8943605359
  0
LWPOLYLINE
  5
3A7
100
AcDbEntity
  8
RACCORDO
100
AcDbPolyline
 62
250
  6
CONTINUOUS
 90
7
 70
0
 10
33.0409760838
 20
-11.8943605359
 10
32.955926469
 20
-11.8076159891
 10
32.9210703964
 20
-11.7715569992
 10
32.8927944871
 20
-11.7418876119
 10
32.8719576792
 20
-11.7195090903
 10
32.8591929301
 20
-11.7051012289
 10
32.8548879955
 20
-11.6991016953
  0
LINE
  5
3A8
100
AcDbEntity
  8
0
100
AcDbLine
 62
7
  6
CONTINUOUS
 10
22.4641030372
 20
-1.0870373486
 11
22.4674758862
 21
-1.0949187461
  0
LINE
  5
3A9
100
AcDbEntity
  8
0
100
AcDbLine
 62
250
  6
CONTINUOUS
 10
14.1746869678
 20
22.608150391
 11
14.3162694509
 21
22.1830575282
  0
LINE
  5
3AA
100
AcDbEntity
  8
0
100
AcDbLine
 62
7
  6
CONTINUOUS
 10
22.6017057937
 20
-1.0185383203
 11
22.619346772
 21
-1.0907002109
  0
LINE
  5
3AB
100
AcDbEntity
  8
0
100
AcDbLine
 62
7
  6
CONTINUOUS
 10
22.9424104568
 20
-0.9892404945
 11
22.9475966294
 21
-1.0104549654
  0
LINE
  5
3AC
100
AcDbEntity
  8
0
100
AcDbLine
 62
7
  6
CONTINUOUS
 10
22.9594701763
 20
-1.0590246976
 11
22.9547207576
 21
-1.0395968047
  0
LINE
  5
3AD
100
AcDbEntity
  8
0
100
AcDbLine
 62
250
  6
CONTINUOUS
 10
22.9796312369
 20
-1.1414951941
 11
22.9594701763
 21
-1.0590246976
  0
LINE
  5
3AE
100
AcDbEntity
  8
0
100
AcDbLine
 62
7
  6
CONTINUOUS
 10
23.3250675676
 20
-0.9457646469
 11
23.3250675676
 21
-0.091849609
  0
LINE
  5
3AF
100
AcDbEntity
  8
0
100
AcDbLine
 62
7
  6
CONTINUOUS
 10
23.4356226951
 20
-0.481849609
 11
23.4356226951
 21
-0.8673557261
  0
LINE
  5
3B0
100
AcDbEntity
  8
DRAFT
100
AcDbLine
 62
7
  6
CONTINUOUS
 10
23.5750675676
 20
-0.091849609
 11
23.5750675676
 21
-0.191849609
  0
LINE
  5
3B1
100
AcDbEntity
  8
SMUSSO
100
AcDbLine
 62
7
  6
CONTINUOUS
 10
23.6378758999
 20
-0.091849609
 11
23.6378758999
 21
-0.1290412766
  0
LINE
  5
3B2
100
AcDbEntity
  8
0
100
AcDbLine
 62
7
  6
CONTINUOUS
 10
24.1250675676
 20
11.5109834221
 11
24.1250675676
 21
11.018150391
  0
LINE
  5
3B3
100
AcDbEntity
  8
0
100
AcDbLine
 62
250
  6
CONTINUOUS
 10
24.1250675676
 20
10.448150391
 11
24.1250675676
 21
10.408150391
  0
LINE
  5
3B4
100
AcDbEntity
  8
0
100
AcDbLine
 62
7
  6
CONTINUOUS
 10
24.1250675676
 20
10.448150391
 11
24.1250675676
 21
10.998150391
  0
LINE
  5
3B5
100
AcDbEntity
  8
DRAFT
100
AcDbLine
 62
7
  6
CONTINUOUS
 10
24.2285582828
 20
10.508150391
 11
24.2285582828
 21
11.5376087629
  0
LINE
  5
3B6
100
AcDbEntity
  8
SMUSSO
100
AcDbLine
 62
7
  6
CONTINUOUS
 10
24.2878758999
 20
11.5509476549
 11
24.2878758999
 21
10.508150391
  0
LINE
  5
3B7
100
AcDbEntity
  8
0
100
AcDbLine
 62
7
  6
CONTINUOUS
 10
24.3250675676
 20
-10.091849609
 11
24.3250675676
 21
-11.1423933128
  0
LINE
  5
3B8
100
AcDbEntity
  8
0
100
AcDbLine
 62
250
  6
CONTINUOUS
 10
24.3250675676
 20
-9.991849609
 11
24.3250675676
 21
-10.091849609
  0
LINE
  5
3B9
100
AcDbEntity
  8
SMUSSO
100
AcDbLine
 62
7
  6
CONTINUOUS
 10
24.7913911567
 20
11.608150391
 11
24.7913911567
 21
10.508150391
  0
LINE
  5
3BA
100
AcDbEntity
  8
0
100
AcDbLine
 62
250
  6
CONTINUOUS
 10
24.8250675676
 20
11.9056642392
 11
24.8250675676
 21
11.608150391
  0
LINE
  5
3BB
100
AcDbEntity
  8
0
100
AcDbLine
 62
250
  6
CONTINUOUS
 10
24.8250675676
 20
-11.4893634572
 11
24.8250675676
 21
-11.191849609
  0
LINE
  5
3BC
100
AcDbEntity
  8
0
100
AcDbLine
 62
250
  6
CONTINUOUS
 10
24.8250675676
 20
-7.991849609
 11
24.8250675676
 21
-7.0943357608
  0
LINE
  5
3BD
100
AcDbEntity
  8
0
100
AcDbLine
 62
250
  6
CONTINUOUS
 10
24.8250675676
 20
7.5106365428
 11
24.8250675676
 21
8.408150391
  0
LINE
  5
3BE
100
AcDbEntity
  8
SMUSSO
100
AcDbLine
 62
7
  6
CONTINUOUS
 10
24.8587439785
 20
-11.191849609
 11
24.8587439785
 21
-10.091849609
  0
LINE
  5
3BF
100
AcDbEntity
  8
TRASH
100
AcDbLine
 62
7
  6
CONTINUOUS
 10
28.2401952905
 20
22.608150391
 11
28.2544913121
 21
22.6745572985
  0
LWPOLYLINE
  5
3C0
100
AcDbEntity
  8
0
100
AcDbPolyline
 62
7
  6
CONTINUOUS
 90
3
 70
0
 10
23.9527425324
 20
-0.3539165871
 10
23.9316707979
 20
-0.3814889717
 10
23.9056915723
 20
-0.4143737942
  0
LWPOLYLINE
  5
3C1
100
AcDbEntity
  8
0
100
AcDbPolyline
 62
7
  6
CONTINUOUS
 90
3
 70
0
 10
23.9056915723
 20
-0.4143737942
 10
23.8791757816
 20
-0.4468496697
 10
23.8521659612
 20
-0.4788640894
  0
LWPOLYLINE
  5
3C2
100
AcDbEntity
  8
0
100
AcDbPolyline
 62
7
  6
CONTINUOUS
 90
12
 70
0
 10
23.8521659612
 20
-0.4788640894
 10
23.7520759852
 20
-0.589075374
 10
23.6455184491
 20
-0.693687717
 10
23.5325996531
 20
-0.7924231698
 10
23.4128272487
 20
-0.8854911825
 10
23.2869298242
 20
-0.9720674635
 10
23.1569155397
 20
-1.0506695553
 10
23.0230722899
 20
-1.1212590862
 10
22.8853566929
 20
-1.183983584
 10
22.7454734698
 20
-1.2381909808
 10
22.6039118602
 20
-1.2838693778
 10
22.4603917814
 20
-1.3212753225
  0
LWPOLYLINE
  5
3C3
100
AcDbEntity
  8
0
100
AcDbPolyline
 62
250
  6
CONTINUOUS
 90
16
 70
0
 10
23.7518999259
 20
-0.8497696735
 10
23.737299268
 20
-0.8652452884
 10
23.63568914
 20
-0.9612153467
 10
23.5283880167
 20
-1.0514787693
 10
23.4155536386
 20
-1.1358679657
 10
23.2976534772
 20
-1.2139734015
 10
23.1748402326
 20
-1.2856075286
 10
23.0476906885
 20
-1.3503554089
 10
22.9163695797
 20
-1.4081606075
 10
22.7803147787
 20
-1.4591912761
 10
22.6397107591
 20
-1.5031607977
 10
22.4951435638
 20
-1.5396441571
 10
22.3465963042
 20
-1.5684291916
 10
22.1943901634
 20
-1.5892732964
 10
22.0391914852
 20
-1.6018907145
 10
21.8815539488
 20
-1.6060279286
  0
LINE
  5
3C4
100
AcDbEntity
  8
SMUSSO
100
AcDbLine
 62
7
  6
CONTINUOUS
 10
23.5750675676
 20
-0.191849609
 11
23.6750675676
 21
-0.091849609
  0
LINE
  5
3C5
100
AcDbEntity
  8
0
100
AcDbLine
 62
7
  6
CONTINUOUS
 10
21.6543577179
 20
-1.3780775994
 11
22.9594701763
 21
-1.0590246976
  0
LINE
  5
3C6
100
AcDbEntity
  8
0
100
AcDbLine
 62
7
  6
CONTINUOUS
 10
22.9547207576
 20
-1.0395968047
 11
22.3750675676
 21
-1.1813010932
  0
LINE
  5
3C7
100
AcDbEntity
  8
0
100
AcDbLine
 62
7
  6
CONTINUOUS
 10
21.5103205753
 20
-1.3618170974
 11
22.9475966294
 21
-1.0104549654
  0
LINE
  5
3C8
100
AcDbEntity
  8
0
100
AcDbLine
 62
7
  6
CONTINUOUS
 10
22.4603917814
 20
-1.3212753225
 11
22.3717933216
 21
-1.3400956413
  0
LINE
  5
3C9
100
AcDbEntity
  8
0
100
AcDbLine
 62
7
  6
CONTINUOUS
 10
22.3717933216
 20
-1.3400956413
 11
22.3161754734
 21
-1.3502692969
  0
LINE
  5
3CA
100
AcDbEntity
  8
0
100
AcDbLine
 62
7
  6
CONTINUOUS
 10
23.0948672661
 20
-1.0136201324
 11
23.0931642867
 21
-1.0139020096
  0
LINE
  5
3CB
100
AcDbEntity
  8
0
100
AcDbLine
 62
7
  6
CONTINUOUS
 10
22.3161754734
 20
-1.3502692969
 11
22.1905999288
 21
-1.3685973996
  0
LWPOLYLINE
  5
3CC
100
AcDbEntity
  8
0
100
AcDbPolyline
 62
7
  6
CONTINUOUS
 90
5
 70
0
 10
22.5288758553
 20
-1.1067933137
 10
22.5487174749
 20
-1.1047850933
 10
22.5702650154
 20
-1.1013715932
 10
22.593800785
 20
-1.0966364554
 10
22.619346772
 20
-1.0907002109
  0
LINE
  5
3CD
100
AcDbEntity
  8
0
100
AcDbLine
 62
7
  6
CONTINUOUS
 10
22.1905999288
 20
-1.3685973996
 11
22.0623434015
 21
-1.3808493176
  0
LWPOLYLINE
  5
3CE
100
AcDbEntity
  8
0
100
AcDbPolyline
 62
7
  6
CONTINUOUS
 90
17
 70
0
 10
22.8908951055
 20
-0.9899416157
 10
22.8348104344
 20
-0.9931221769
 10
22.7835119879
 20
-0.9965783073
 10
22.7375907689
 20
-1.0003480792
 10
22.6964649329
 20
-1.0045161885
 10
22.6583810692
 20
-1.0092408692
 10
22.6224932346
 20
-1.0146718515
 10
22.5896496085
 20
-1.0207807735
 10
22.5606347844
 20
-1.0274198563
 10
22.5357274032
 20
-1.0345423829
 10
22.5146367557
 20
-1.0420894273
 10
22.4972891948
 20
-1.0497889731
 10
22.4837878318
 20
-1.057275812
 10
22.4740125686
 20
-1.0646289092
 10
22.4675512833
 20
-1.0722223702
 10
22.4642539028
 20
-1.0800547227
 10
22.4641030372
 20
-1.0870373486
  0
LINE
  5
3CF
100
AcDbEntity
  8
0
100
AcDbLine
 62
7
  6
CONTINUOUS
 10
22.9517583474
 20
-0.9869552725
 11
22.8908951055
 21
-0.9899416157
  0
LINE
  5
3D0
100
AcDbEntity
  8
0
100
AcDbLine
 62
7
  6
CONTINUOUS
 10
22.0623434015
 20
-1.3808493176
 11
21.9318460255
 21
-1.386795575
  0
LINE
  5
3D1
100
AcDbEntity
  8
0
100
AcDbLine
 62
7
  6
CONTINUOUS
 10
23.2707455612
 20
-0.981849609
 11
20.5410681697
 21
-0.981849609
  0
LINE
  5
3D2
100
AcDbEntity
  8
ASSI
100
AcDbLine
 62
7
  6
CONTINUOUS
 10
20.5410681697
 20
-0.981849609
 11
20.4793027357
 21
-0.981849609
  0
LINE
  5
3D3
100
AcDbEntity
  8
0
100
AcDbLine
 62
7
  6
CONTINUOUS
 10
20.5750418761
 20
-0.481849609
 11
20.5410681697
 21
-0.481849609
  0
LINE
  5
3D4
100
AcDbEntity
  8
ASSI
100
AcDbLine
 62
7
  6
CONTINUOUS
 10
20.5410681697
 20
-0.481849609
 11
19.901533183
 21
-0.481849609
  0
LINE
  5
3D5
100
AcDbEntity
  8
0
100
AcDbLine
 62
7
  6
CONTINUOUS
 10
23.3250675676
 20
-0.481849609
 11
23.8483139457
 21
-0.481849609
  0
LINE
  5
3D6
100
AcDbEntity
  8
0
100
AcDbLine
 62
250
  6
CONTINUOUS
 10
23.3250675676
 20
-0.471849609
 11
20.5750418761
 21
-0.471849609
  0
LINE
  5
3D7
100
AcDbEntity
  8
DRAFT
100
AcDbLine
 62
7
  6
CONTINUOUS
 10
23.9814014416
 20
-0.191849609
 11
23.5750675676
 21
-0.191849609
  0
LINE
  5
3D8
100
AcDbEntity
  8
SMUSSO
100
AcDbLine
 62
7
  6
CONTINUOUS
 10
23.9949628418
 20
-0.1290412766
 11
23.6378758999
 21
-0.1290412766
  0
LINE
  5
3D9
100
AcDbEntity
  8
0
100
AcDbLine
 62
7
  6
CONTINUOUS
 10
24.0071740182
 20
-0.091849609
 11
23.3250675676
 21
-0.091849609
  0
LINE
  5
3DA
100
AcDbEntity
  8
0
100
AcDbLine
 62
7
  6
CONTINUOUS
 10
20.1770738457
 20
0.318150391
 11
19.6299391525
 21
0.318150391
  0
LWPOLYLINE
  5
3DB
100
AcDbEntity
  8
0
100
AcDbPolyline
 62
7
  6
CONTINUOUS
 90
2
 70
0
 43
0.3500000087
 10
43.2250677917
 20
0.3737321297
 10
41.7250663269
 20
0.3737321297
  0
LWPOLYLINE
  5
3DC
100
AcDbEntity
  8
0
100
AcDbPolyline
 62
7
  6
CONTINUOUS
 90
3
 70
0
 10
23.1402897013
 20
-1.0192987165
 10
23.1607667621
 20
-1.0196498593
 10
23.1850675676
 20
-1.0202102924
  0
LINE
  5
3DD
100
AcDbEntity
  8
0
100
AcDbLine
 62
7
  6
CONTINUOUS
 10
23.123635461
 20
-1.0188969849
 11
23.1402897013
 21
-1.0192987165
  0
LINE
  5
3DE
100
AcDbEntity
  8
0
100
AcDbLine
 62
7
  6
CONTINUOUS
 10
23.1111478304
 20
-1.0180080183
 11
23.123635461
 21
-1.0188969849
  0
LWPOLYLINE
  5
3DF
100
AcDbEntity
  8
0
100
AcDbPolyline
 62
250
  6
CONTINUOUS
 90
6
 70
0
 10
19.6873625635
 20
-0.3121852054
 10
19.7009311324
 20
-0.3134498635
 10
19.7222227537
 20
-0.3168845378
 10
19.7430767937
 20
-0.3217043755
 10
19.7635238176
 20
-0.3278884806
 10
19.7835638252
 20
-0.3354067422
  0
LWPOLYLINE
  5
3E0
100
AcDbEntity
  8
0
100
AcDbPolyline
 62
250
  6
CONTINUOUS
 90
16
 70
0
 10
23.7529025129
 20
1.2650077876
 10
23.737299268
 20
1.2815460705
 10
23.63568914
 20
1.3775161287
 10
23.5283880167
 20
1.4677795513
 10
23.4155536386
 20
1.5521687477
 10
23.2976534772
 20
1.6302741835
 10
23.1748402326
 20
1.7019083106
 10
23.0476906885
 20
1.7666561909
 10
22.9163695797
 20
1.8244613895
 10
22.7803147787
 20
1.8754920581
 10
22.6397107591
 20
1.9194615797
 10
22.4951435638
 20
1.9559449391
 10
22.3465963042
 20
1.9847299736
 10
22.1943901634
 20
2.0055740784
 10
22.0391914852
 20
2.0181914966
 10
21.8815539488
 20
2.0223287106
  0
LWPOLYLINE
  5
3E1
100
AcDbEntity
  8
0
100
AcDbPolyline
 62
7
  6
CONTINUOUS
 90
12
 70
0
 10
23.8521659612
 20
0.8951648715
 10
23.7520759852
 20
1.005376156
 10
23.6455184491
 20
1.109988499
 10
23.5325996531
 20
1.2087239519
 10
23.4128272487
 20
1.3017919645
 10
23.2869298242
 20
1.3883682455
 10
23.1569155397
 20
1.4669703373
 10
23.0230722899
 20
1.5375598682
 10
22.8853566929
 20
1.600284366
 10
22.7454734698
 20
1.6544917628
 10
22.6039118602
 20
1.7001701598
 10
22.4603917814
 20
1.7375761046
  0
LWPOLYLINE
  5
3E2
100
AcDbEntity
  8
0
100
AcDbPolyline
 62
7
  6
CONTINUOUS
 90
3
 70
0
 10
23.9056915723
 20
0.8306745763
 10
23.8791757816
 20
0.8631504517
 10
23.8521659612
 20
0.8951648715
  0
LWPOLYLINE
  5
3E3
100
AcDbEntity
  8
0
100
AcDbPolyline
 62
7
  6
CONTINUOUS
 90
3
 70
0
 10
23.950452485
 20
0.7732138983
 10
23.9316707979
 20
0.7977897537
 10
23.9056915723
 20
0.8306745763
  0
LINE
  5
3E4
100
AcDbEntity
  8
TRASH
100
AcDbLine
 62
7
  6
CONTINUOUS
 10
28.2401952905
 20
-22.191849609
 11
28.2544913121
 21
-22.2582565165
  0
LINE
  5
3E5
100
AcDbEntity
  8
DRAFT
100
AcDbLine
 62
7
  6
CONTINUOUS
 10
25.2587439785
 20
10.5418268019
 11
25.2587439785
 21
11.6003159875
  0
LINE
  5
3E6
100
AcDbEntity
  8
DRAFT
100
AcDbLine
 62
7
  6
CONTINUOUS
 10
25.3215768524
 20
11.5628758026
 11
25.3215768524
 21
10.6046596758
  0
LINE
  5
3E7
100
AcDbEntity
  8
0
100
AcDbLine
 62
250
  6
CONTINUOUS
 10
25.3250675676
 20
10.408150391
 11
25.3250675676
 21
10.508150391
  0
LINE
  5
3E8
100
AcDbEntity
  8
0
100
AcDbLine
 62
7
  6
CONTINUOUS
 10
25.3250675676
 20
10.508150391
 11
25.3250675676
 21
11.5586940949
  0
LINE
  5
3E9
100
AcDbEntity
  8
SMUSSO
100
AcDbLine
 62
7
  6
CONTINUOUS
 10
25.3622592352
 20
-11.1346468728
 11
25.3622592352
 21
-10.091849609
  0
LINE
  5
3EA
100
AcDbEntity
  8
DRAFT
100
AcDbLine
 62
7
  6
CONTINUOUS
 10
25.4215768524
 20
-10.091849609
 11
25.4215768524
 21
-11.1213079809
  0
LINE
  5
3EB
100
AcDbEntity
  8
0
100
AcDbLine
 62
7
  6
CONTINUOUS
 10
25.5250675676
 20
-11.0946826401
 11
25.5250675676
 21
-10.601849609
  0
LINE
  5
3EC
100
AcDbEntity
  8
0
100
AcDbLine
 62
7
  6
CONTINUOUS
 10
25.5250675676
 20
-10.581849609
 11
25.5250675676
 21
-10.031849609
  0
LINE
  5
3ED
100
AcDbEntity
  8
0
100
AcDbLine
 62
250
  6
CONTINUOUS
 10
25.5250675676
 20
-10.031849609
 11
25.5250675676
 21
-9.991849609
  0
LINE
  5
3EE
100
AcDbEntity
  8
0
100
AcDbLine
 62
250
  6
CONTINUOUS
 10
26.4593979194
 20
-10.031849609
 11
26.4593979194
 21
-10.581849609
  0
LINE
  5
3EF
100
AcDbEntity
  8
0
100
AcDbLine
 62
250
  6
CONTINUOUS
 10
26.4593979194
 20
-10.591849609
 11
26.4593979194
 21
-10.6127516505
  0
LINE
  5
3F0
100
AcDbEntity
  8
TRASH
100
AcDbLine
 62
7
  6
CONTINUOUS
 10
21.4099398446
 20
-22.191849609
 11
21.3956438231
 21
-22.2582565165
  0
LWPOLYLINE
  5
3F1
100
AcDbEntity
  8
0
100
AcDbPolyline
 62
7
  6
CONTINUOUS
 90
6
 70
0
 10
23.0931642867
 20
-1.0139020096
 10
23.0926134325
 20
-1.0141142218
 10
23.0931931802
 20
-1.0147465189
 10
23.0965998958
 20
-1.0155168007
 10
23.102476757
 20
-1.0166768786
 10
23.1111478304
 20
-1.0180080183
  0
LWPOLYLINE
  5
3F2
100
AcDbEntity
  8
0
100
AcDbPolyline
 62
250
  6
CONTINUOUS
 90
4
 70
0
 10
23.9215442094
 20
-0.4512233736
 10
23.9005845447
 20
-0.4584023175
 10
23.8760931161
 20
-0.4680968228
 10
23.8521659612
 20
-0.4788640894
  0
LWPOLYLINE
  5
3F3
100
AcDbEntity
  8
0
100
AcDbPolyline
 62
7
  6
CONTINUOUS
 90
4
 70
0
 10
21.5718996033
 20
1.7861350567
 10
21.6068722578
 20
1.7899861157
 10
21.6405248608
 20
1.7932332146
 10
21.6758885453
 20
1.7961608324
  0
LWPOLYLINE
  5
3F4
100
AcDbEntity
  8
0
100
AcDbPolyline
 62
250
  6
CONTINUOUS
 90
6
 70
0
 10
19.688751862
 20
0.728615477
 10
19.7009311324
 20
0.7297506455
 10
19.7222227537
 20
0.7331853198
 10
19.7430767937
 20
0.7380051575
 10
19.7635238176
 20
0.7441892626
 10
19.7835638252
 20
0.7517075242
  0
LINE
  5
3F5
100
AcDbEntity
  8
0
100
AcDbLine
 62
7
  6
CONTINUOUS
 10
21.6758885453
 20
1.7961608324
 11
21.7131305875
 21
1.7987106432
  0
LWPOLYLINE
  5
3F6
100
AcDbEntity
  8
0
100
AcDbPolyline
 62
7
  6
CONTINUOUS
 90
4
 70
0
 10
21.7131305875
 20
1.7987106432
 10
21.7522720381
 20
1.800808754
 10
21.7962831287
 20
1.8024709976
 10
21.8463300871
 20
1.8034932896
  0
LWPOLYLINE
  5
3F7
100
AcDbEntity
  8
0
100
AcDbPolyline
 62
250
  6
CONTINUOUS
 90
16
 70
0
 10
21.8815539488
 20
2.0223287106
 10
21.7166022473
 20
2.0174801607
 10
21.5536984552
 20
2.0034322605
 10
21.3930114664
 20
1.9802805179
 10
21.2347673892
 20
1.9481201955
 10
21.0798913913
 20
1.9071469043
 10
20.9295262865
 20
1.8577797469
 10
20.7844418249
 20
1.8005488798
 10
20.6447446415
 20
1.7357511187
 10
20.5104356585
 20
1.6635364526
 10
20.3819038677
 20
1.584222088
 10
20.2594951287
 20
1.4982327568
 10
20.1432072363
 20
1.4057393423
 10
20.0333059322
 20
1.3070388282
 10
19.9301967012
 20
1.2025515147
 10
19.834064016
 20
1.0925886629
  0
LINE
  5
3F8
100
AcDbEntity
  8
0
100
AcDbLine
 62
7
  6
CONTINUOUS
 10
21.8463300871
 20
1.8034932896
 11
21.8753440844
 21
1.8036697004
  0
LWPOLYLINE
  5
3F9
100
AcDbEntity
  8
0
100
AcDbPolyline
 62
7
  6
CONTINUOUS
 90
4
 70
0
 43
0.3500000087
 10
40.8679244598
 20
1.730874485
 10
40.2250691254
 20
1.730874485
 10
40.2250691254
 20
3.230874884
 10
43.2250677917
 20
2.3737319511
  0
LINE
  5
3FA
100
AcDbEntity
  8
0
100
AcDbLine
 62
7
  6
CONTINUOUS
 10
21.8753509533
 20
1.8036693799
 11
21.9318460255
 21
1.8030963571
  0
LINE
  5
3FB
100
AcDbEntity
  8
0
100
AcDbLine
 62
7
  6
CONTINUOUS
 10
21.9318460255
 20
1.8030963571
 11
22.0623434015
 21
1.7971500996
  0
LINE
  5
3FC
100
AcDbEntity
  8
0
100
AcDbLine
 62
7
  6
CONTINUOUS
 10
22.0623434015
 20
1.7971500996
 11
22.1905999288
 21
1.7848981816
  0
LWPOLYLINE
  5
3FD
100
AcDbEntity
  8
0
100
AcDbPolyline
 62
7
  6
CONTINUOUS
 90
3
 70
0
 10
22.1905999288
 20
1.7848981816
 10
22.3161754734
 20
1.766570079
 10
22.3717933216
 20
1.7563964233
  0
LINE
  5
3FE
100
AcDbEntity
  8
0
100
AcDbLine
 62
7
  6
CONTINUOUS
 10
22.4603917814
 20
1.7375761046
 11
22.3717933216
 21
1.7563964233
  0
LWPOLYLINE
  5
3FF
100
AcDbEntity
  8
0
100
AcDbPolyline
 62
250
  6
CONTINUOUS
 90
4
 70
0
 10
23.924780504
 20
0.8664156847
 10
23.9005845447
 20
0.8747030995
 10
23.8760931161
 20
0.8843976049
 10
23.8521659612
 20
0.8951648715
  0
LINE
  5
400
100
AcDbEntity
  8
TRASH
100
AcDbLine
 62
7
  6
CONTINUOUS
 10
21.4099398446
 20
22.608150391
 11
21.3956438231
 21
22.6745572985
  0
LINE
  5
401
100
AcDbEntity
  8
TRASH
100
AcDbLine
 62
7
  6
CONTINUOUS
 10
28.2948878273
 20
22.708150391
 11
28.2948878273
 21
22.608150391
  0
LINE
  5
402
100
AcDbEntity
  8
TRASH
100
AcDbLine
 62
7
  6
CONTINUOUS
 10
28.2948878273
 20
-22.291849609
 11
28.2948878273
 21
-22.191849609
  0
LINE
  5
403
100
AcDbEntity
  8
0
100
AcDbLine
 62
250
  6
CONTINUOUS
 10
35.4754481673
 20
22.608150391
 11
35.3338656843
 21
22.1830575282
  0
LINE
  5
404
100
AcDbEntity
  8
0
100
AcDbLine
 62
250
  6
CONTINUOUS
 10
35.9750675676
 20
22.1079215389
 11
35.8337895319
 21
21.6837427608
  0
LWPOLYLINE
  5
405
100
AcDbEntity
  8
RACCORDO
100
AcDbPolyline
 62
250
  6
CONTINUOUS
 90
6
 70
0
 10
16.694268082
 20
-11.8075574205
 10
16.7291390037
 20
-11.7714836046
 10
16.7574276277
 20
-11.7418014167
 10
16.7782741909
 20
-11.7194129679
 10
16.7910451157
 20
-11.7049986988
 10
16.7953522608
 20
-11.6989966931
  0
LINE
  5
406
100
AcDbEntity
  8
RACCORDO
100
AcDbLine
 62
250
  6
CONTINUOUS
 10
16.6091864542
 20
-11.8943335403
 11
16.694268082
 21
-11.8075574205
  0
LINE
  5
407
100
AcDbEntity
  8
RACCORDO
100
AcDbLine
 62
250
  6
CONTINUOUS
 10
16.5124475137
 20
-11.9916606001
 11
16.6091864542
 21
-11.8943335403
  0
LINE
  5
408
100
AcDbEntity
  8
RACCORDO
100
AcDbLine
 62
250
  6
CONTINUOUS
 10
17.0808560421
 20
-11.4979685192
 11
16.9394562251
 21
-11.6393683363
  0
LWPOLYLINE
  5
409
100
AcDbEntity
  8
0
100
AcDbPolyline
 62
7
  6
CONTINUOUS
 90
3
 70
0
 10
21.2076717823
 20
1.7172352612
 10
21.2321220604
 20
1.723568056
 10
21.278187357
 20
1.7347984501
  0
LWPOLYLINE
  5
40A
100
AcDbEntity
  8
0
100
AcDbPolyline
 62
7
  6
CONTINUOUS
 90
4
 70
0
 10
21.278187357
 20
1.7347984501
 10
21.3236282991
 20
1.7450008991
 10
21.3687649108
 20
1.7542954994
 10
21.4131310068
 20
1.7626325565
  0
LWPOLYLINE
  5
40B
100
AcDbEntity
  8
0
100
AcDbPolyline
 62
7
  6
CONTINUOUS
 90
4
 70
0
 10
21.4131310068
 20
1.7626325565
 10
21.4557707244
 20
1.7699105975
 10
21.4961746485
 20
1.776150276
 10
21.5347367571
 20
1.7815140063
  0
LINE
  5
40C
100
AcDbEntity
  8
0
100
AcDbLine
 62
7
  6
CONTINUOUS
 10
21.5347367571
 20
1.7815140063
 11
21.5718996033
 21
1.7861350567
  0
LINE
  5
40D
100
AcDbEntity
  8
RACCORDO
100
AcDbLine
 62
250
  6
CONTINUOUS
 10
17.0808560421
 20
11.9142693013
 11
16.9394562251
 21
12.0556691183
  0
LINE
  5
40E
100
AcDbEntity
  8
RACCORDO
100
AcDbLine
 62
250
  6
CONTINUOUS
 10
16.5124475055
 20
12.4079619607
 11
16.6091590514
 21
12.3106613179
  0
LWPOLYLINE
  5
40F
100
AcDbEntity
  8
RACCORDO
100
AcDbPolyline
 62
250
  6
CONTINUOUS
 90
7
 70
0
 10
16.6091590514
 20
12.3106613179
 10
16.6942086661
 20
12.2239167712
 10
16.7290647387
 20
12.1878577813
 10
16.757340648
 20
12.1581883939
 10
16.778177456
 20
12.1358098723
 10
16.790942205
 20
12.1214020109
 10
16.7952471397
 20
12.1154024773
  0
LINE
  5
410
100
AcDbEntity
  8
0
100
AcDbLine
 62
250
  6
CONTINUOUS
 10
35.3338656843
 20
-21.7667567462
 11
35.4754481673
 21
-22.191849609
  0
LINE
  5
411
100
AcDbEntity
  8
0
100
AcDbLine
 62
250
  6
CONTINUOUS
 10
35.8337895319
 20
-21.2674419788
 11
35.9750675676
 21
-21.6916207569
  0
LINE
  5
412
100
AcDbEntity
  8
0
100
AcDbLine
 62
250
  6
CONTINUOUS
 10
22.6939411799
 20
-9.018912346
 11
22.6365129293
 21
-9.0970463568
  0
LWPOLYLINE
  5
413
100
AcDbEntity
  8
0
100
AcDbPolyline
 62
7
  6
CONTINUOUS
 90
6
 70
0
 10
22.7616131999
 20
-9.0100291149
 10
22.7516680924
 20
-9.0230874793
 10
22.7418614537
 20
-9.0361336037
 10
22.7321922654
 20
-9.049165918
 10
22.722659501
 20
-9.0621828734
 10
22.7132621262
 20
-9.0751829423
  0
LINE
  5
414
100
AcDbEntity
  8
0
100
AcDbLine
 62
7
  6
CONTINUOUS
 10
22.7716977859
 20
-8.9969601019
 11
22.7616131999
 21
-9.0100291149
  0
LINE
  5
415
100
AcDbEntity
  8
0
100
AcDbLine
 62
250
  6
CONTINUOUS
 10
22.817890915
 20
-8.4829869463
 11
22.7541525344
 21
-8.5567416168
  0
LINE
  5
416
100
AcDbEntity
  8
RACCORDO
100
AcDbLine
 62
250
  6
CONTINUOUS
 10
15.4761624895
 20
-8.5181301666
 11
15.6216374812
 21
-8.457872452
  0
LINE
  5
417
100
AcDbEntity
  8
RACCORDO
100
AcDbLine
 62
250
  6
CONTINUOUS
 10
15.4761624895
 20
8.9344309486
 11
15.6216374812
 21
8.874173234
  0
LWPOLYLINE
  5
418
100
AcDbEntity
  8
0
100
AcDbPolyline
 62
7
  6
CONTINUOUS
 90
16
 70
0
 10
22.8347693792
 20
9.3352149107
 10
22.9352057272
 20
9.2225350198
 10
23.0421055994
 20
9.115784988
 10
23.1551239284
 20
9.0153410863
 10
23.2740169287
 20
8.9214679212
 10
23.398282917
 20
8.834607348
 10
23.5271121448
 20
8.7553037393
 10
23.6596867291
 20
8.6839523243
 10
23.795863353
 20
8.6205258724
 10
23.935837121
 20
8.5649386432
 10
24.0795953957
 20
8.5173099272
 10
24.2262570348
 20
8.4780437259
 10
24.3747121102
 20
8.4474490212
 10
24.5242363098
 20
8.4256111111
 10
24.6745247301
 20
8.412511447
 10
24.8250675676
 20
8.408150391
  0
LWPOLYLINE
  5
419
100
AcDbEntity
  8
0
100
AcDbPolyline
 62
250
  6
CONTINUOUS
 90
16
 70
0
 10
22.7522159668
 20
8.9688882077
 10
22.8325500296
 20
8.8759767663
 10
22.9349304273
 20
8.771363002
 10
23.0445091456
 20
8.6723594745
 10
23.1610442739
 20
8.579288841
 10
23.284055263
 20
8.4926653387
 10
23.4135279947
 20
8.4126960875
 10
23.5488797937
 20
8.339971799
 10
23.6898566868
 20
8.2747233869
 10
23.8370541811
 20
8.2168563651
 10
23.9902999685
 20
8.1667945612
 10
24.1487847127
 20
8.1251923811
 10
24.3121795413
 20
8.0924700952
 10
24.4799040258
 20
8.0689620351
 10
24.6511348054
 20
8.0550107986
 10
24.8250675676
 20
8.0509380007
  0
LWPOLYLINE
  5
41A
100
AcDbEntity
  8
0
100
AcDbPolyline
 62
250
  6
CONTINUOUS
 90
16
 70
0
 10
22.7434061875
 20
9.36568797
 10
22.837383481
 20
9.2522911833
 10
22.9387289043
 20
9.1445870593
 10
23.0472553819
 20
9.0428956496
 10
23.1627019146
 20
8.9475906206
 10
23.2848963371
 20
8.8589514911
 10
23.4137717634
 20
8.7771827209
 10
23.5491125146
 20
8.7026172369
 10
23.6906038037
 20
8.6356429799
 10
23.8380138237
 20
8.5765880242
 10
23.9909977652
 20
8.5257995511
 10
24.1491589021
 20
8.483636937
 10
24.3121336911
 20
8.4504523163
 10
24.4794723949
 20
8.4265902615
 10
24.650636013
 20
8.4123798611
 10
24.8250675676
 20
8.408150391
  0
LINE
  5
41B
100
AcDbEntity
  8
0
100
AcDbLine
 62
250
  6
CONTINUOUS
 10
22.6625536992
 20
9.4700668035
 11
22.7434061875
 21
9.36568797
  0
LINE
  5
41C
100
AcDbEntity
  8
0
100
AcDbLine
 62
250
  6
CONTINUOUS
 10
22.6327683029
 20
9.5089452953
 11
22.6625536992
 21
9.4700668035
  0
LWPOLYLINE
  5
41D
100
AcDbEntity
  8
0
100
AcDbPolyline
 62
7
  6
CONTINUOUS
 90
7
 70
0
 10
22.7132621262
 20
9.4914837243
 10
22.7322814844
 20
9.465345668
 10
22.7517869818
 20
9.4392311343
 10
22.7717836744
 20
9.4131502942
 10
22.7922764808
 20
9.3871135364
 10
22.813270175
 20
9.361131467
 10
22.8347693792
 20
9.3352149107
  0
LWPOLYLINE
  5
41E
100
AcDbEntity
  8
0
100
AcDbPolyline
 62
250
  6
CONTINUOUS
 90
9
 70
0
 10
35.8337895319
 20
21.6837427608
 10
35.8330721316
 20
21.6798454564
 10
35.8323710765
 20
21.6727426134
 10
35.8316863664
 20
21.6624342316
 10
35.8310133629
 20
21.6488065265
 10
35.8303567045
 20
21.6319732828
 10
35.8297303065
 20
21.6122758546
 10
35.8291350386
 20
21.5896582356
 10
35.8280465901
 20
21.5363398173
  0
LINE
  5
41F
100
AcDbEntity
  8
0
100
AcDbLine
 62
7
  6
CONTINUOUS
 10
23.9322678789
 20
-7.2937437816
 11
23.7951089931
 21
-7.3462151716
  0
LWPOLYLINE
  5
420
100
AcDbEntity
  8
0
100
AcDbPolyline
 62
7
  6
CONTINUOUS
 90
8
 70
0
 10
23.7923479052
 20
7.7641824312
 10
23.9133465034
 20
7.7167739006
 10
24.0607580164
 20
7.6685895379
 10
24.2110367998
 20
7.6289447103
 10
24.363253204
 20
7.598029862
 10
24.5166838994
 20
7.5759069097
 10
24.6708295296
 20
7.5625975961
 10
24.8250675676
 20
7.558150391
  0
LWPOLYLINE
  5
421
100
AcDbEntity
  8
0
100
AcDbPolyline
 62
250
  6
CONTINUOUS
 90
6
 70
0
 10
35.3338656843
 20
22.1830575282
 10
35.3331453945
 20
22.1754125409
 10
35.3324422914
 20
22.1611037621
 10
35.3317563749
 20
22.1402264731
 10
35.3310832835
 20
22.1129190914
 10
35.3298017453
 20
22.0397934957
  0
LINE
  5
422
100
AcDbEntity
  8
TRASH
100
AcDbLine
 62
7
  6
CONTINUOUS
 10
28.2099398446
 20
-22.191849609
 11
28.1931280011
 21
-22.2699428417
  0
LWPOLYLINE
  5
423
100
AcDbEntity
  8
0
100
AcDbPolyline
 62
7
  6
CONTINUOUS
 90
16
 70
0
 10
26.7689320329
 20
-10.3168891348
 10
26.7151135751
 20
-10.3772797077
 10
26.6083778349
 20
-10.4839007649
 10
26.4953636975
 20
-10.5843682872
 10
26.3759460253
 20
-10.6786606091
 10
26.2506773194
 20
-10.7661746676
 10
26.1208693037
 20
-10.8459475671
 10
25.9869234522
 20
-10.9178127491
 10
25.849012248
 20
-10.9817346964
 10
25.7082525511
 20
-11.0372622269
 10
25.5651286467
 20
-11.0843103228
 10
25.4197481266
 20
-11.1229282924
 10
25.272711382
 20
-11.1530282653
 10
25.1244344988
 20
-11.1745679992
 10
24.9751208061
 20
-11.1875227928
 10
24.8250675676
 20
-11.191849609
  0
LINE
  5
424
100
AcDbEntity
  8
RACCORDO
100
AcDbLine
 62
250
  6
CONTINUOUS
 10
16.7952471397
 20
-11.6991016953
 11
16.9394562251
 21
-11.6393683363
  0
LINE
  5
425
100
AcDbEntity
  8
0
100
AcDbLine
 62
250
  6
CONTINUOUS
 10
22.6365129293
 20
-9.0970463568
 11
22.7132621262
 21
-9.0751829423
  0
LINE
  5
426
100
AcDbEntity
  8
0
100
AcDbLine
 62
250
  6
CONTINUOUS
 10
26.9561939552
 20
9.435213128
 11
26.878436436
 21
9.413259707
  0
LWPOLYLINE
  5
427
100
AcDbEntity
  8
0
100
AcDbPolyline
 62
7
  6
CONTINUOUS
 90
14
 70
0
 10
25.1224521173
 20
8.4253524836
 10
25.2733412907
 20
8.4472403748
 10
25.4254496001
 20
8.4785423236
 10
25.5776423843
 20
8.519517203
 10
25.7277968545
 20
8.5699260252
 10
25.8748128864
 20
8.6295067917
 10
26.0186073506
 20
8.6983062388
 10
26.1586414095
 20
8.7762223247
 10
26.2947176508
 20
8.8633760244
 10
26.425783892
 20
8.9593348595
 10
26.5501728547
 20
9.062907324
 10
26.6671357308
 20
9.1732753298
 10
26.7766701725
 20
9.2902321909
 10
26.8784373492
 20
9.4132608839
  0
LWPOLYLINE
  5
428
100
AcDbEntity
  8
0
100
AcDbPolyline
 62
7
  6
CONTINUOUS
 90
15
 70
0
 10
25.0262405893
 20
8.4159847945
 10
25.1788503997
 20
8.4311315217
 10
25.3512272106
 20
8.4580562793
 10
25.5195965143
 20
8.4948572692
 10
25.6832711865
 20
8.5411883451
 10
25.8416112184
 20
8.5966608302
 10
25.9940036851
 20
8.6608764454
 10
26.1399759255
 20
8.7334596552
 10
26.2792011165
 20
8.8139452354
 10
26.4112446132
 20
8.9017376754
 10
26.5358185121
 20
8.9963328395
 10
26.6528484798
 20
9.0974245557
 10
26.7621252161
 20
9.2046106262
 10
26.863316651
 20
9.3173570817
 10
26.9561939552
 20
9.435213128
  0
LINE
  5
429
100
AcDbEntity
  8
0
100
AcDbLine
 62
7
  6
CONTINUOUS
 10
25.0131199689
 20
8.4150649564
 11
25.1224521173
 21
8.4253524836
  0
LINE
  5
42A
100
AcDbEntity
  8
0
100
AcDbLine
 62
7
  6
CONTINUOUS
 10
25.0023195992
 20
8.4143612481
 11
25.0262405893
 21
8.4159847945
  0
LINE
  5
42B
100
AcDbEntity
  8
0
100
AcDbLine
 62
7
  6
CONTINUOUS
 10
24.8250675676
 20
8.408150391
 11
25.0023195992
 21
8.4143612481
  0
LWPOLYLINE
  5
42C
100
AcDbEntity
  8
0
100
AcDbPolyline
 62
250
  6
CONTINUOUS
 90
15
 70
0
 10
24.8250675676
 20
8.0509380007
 10
24.9958074423
 20
8.056737678
 10
25.1647841023
 20
8.0720947947
 10
25.3312924407
 20
8.0968075949
 10
25.4947554209
 20
8.1307008606
 10
25.6544154559
 20
8.1735548591
 10
25.8093901309
 20
8.2249580603
 10
25.9589079701
 20
8.2843937896
 10
26.1027529488
 20
8.3515478289
 10
26.2409141065
 20
8.4262947094
 10
26.3731635851
 20
8.5084302309
 10
26.4988939334
 20
8.5973862651
 10
26.6175433556
 20
8.6925304818
 10
26.7287101195
 20
8.7932875957
 10
26.8322442201
 20
8.8992877283
  0
LWPOLYLINE
  5
42D
100
AcDbEntity
  8
0
100
AcDbPolyline
 62
7
  6
CONTINUOUS
 90
7
 70
0
 10
24.8250675676
 20
7.558150391
 10
24.9765279489
 20
7.5624253867
 10
25.1275736572
 20
7.5752063364
 10
25.2777196359
 20
7.5964267796
 10
25.4264389187
 20
7.6260108265
 10
25.5732806554
 20
7.6638954898
 10
25.7178672563
 20
7.7100445637
  0
LWPOLYLINE
  5
42E
100
AcDbEntity
  8
RACCORDO
100
AcDbPolyline
 62
250
  6
CONTINUOUS
 90
6
 70
0
 10
34.319180953
 20
8.9397400067
 10
34.2700010239
 20
8.93888086
 10
34.2298517378
 20
8.9378894915
 10
34.1999261246
 20
8.9367953624
 10
34.181113421
 20
8.9356309815
 10
34.1739726456
 20
8.9344309486
  0
LINE
  5
42F
100
AcDbEntity
  8
RACCORDO
100
AcDbLine
 62
250
  6
CONTINUOUS
 10
34.438562337
 20
8.9409641737
 11
34.319180953
 21
8.9397400067
  0
LINE
  5
430
100
AcDbEntity
  8
RACCORDO
100
AcDbLine
 62
250
  6
CONTINUOUS
 10
34.5739117237
 20
8.9414175622
 11
34.438562337
 21
8.9409641737
  0
LINE
  5
431
100
AcDbEntity
  8
RACCORDO
100
AcDbLine
 62
250
  6
CONTINUOUS
 10
15.8216070202
 20
8.874173234
 11
15.6216374812
 21
8.874173234
  0
LINE
  5
432
100
AcDbEntity
  8
RACCORDO
100
AcDbLine
 62
250
  6
CONTINUOUS
 10
33.8285281149
 20
8.874173234
 11
34.028497654
 21
8.874173234
  0
LINE
  5
433
100
AcDbEntity
  8
RACCORDO
100
AcDbLine
 62
250
  6
CONTINUOUS
 10
15.0762234222
 20
8.9414170959
 11
15.2116104924
 21
8.9409644535
  0
LWPOLYLINE
  5
434
100
AcDbEntity
  8
RACCORDO
100
AcDbPolyline
 62
250
  6
CONTINUOUS
 90
7
 70
0
 10
15.2116104924
 20
8.9409644535
 10
15.331036336
 20
8.9397406067
 10
15.38023714
 20
8.938881467
 10
15.4204045429
 20
8.9378900153
 10
15.4503443803
 20
8.9367957289
 10
15.4691665493
 20
8.9356311375
 10
15.476311472
 20
8.934430864
  0
LINE
  5
435
100
AcDbEntity
  8
0
100
AcDbLine
 62
250
  6
CONTINUOUS
 10
22.7434061875
 20
9.36568797
 11
22.8347694446
 21
9.3352148329
  0
LINE
  5
436
100
AcDbEntity
  8
0
100
AcDbLine
 62
250
  6
CONTINUOUS
 10
22.6322532966
 20
9.5188582653
 11
22.7132621262
 21
9.4914837243
  0
LINE
  5
437
100
AcDbEntity
  8
RACCORDO
100
AcDbLine
 62
250
  6
CONTINUOUS
 10
16.7952471397
 20
12.1154024773
 11
16.9394562251
 21
12.0556691183
  0
LINE
  5
438
100
AcDbEntity
  8
0
100
AcDbLine
 62
7
  6
CONTINUOUS
 10
26.6702696627
 20
10.8396601321
 11
26.7713678578
 21
10.7315745238
  0
LINE
  5
439
100
AcDbEntity
  8
TRASH
100
AcDbLine
 62
7
  6
CONTINUOUS
 10
28.2099398446
 20
22.608150391
 11
28.1931280011
 21
22.6862436237
  0
LWPOLYLINE
  5
43A
100
AcDbEntity
  8
0
100
AcDbPolyline
 62
250
  6
CONTINUOUS
 90
7
 70
0
 10
35.8297303065
 20
-21.1959750723
 10
35.8303567045
 20
-21.2156725006
 10
35.8310133629
 20
-21.2325057447
 10
35.8316863663
 20
-21.2461334499
 10
35.8323710765
 20
-21.2564418316
 10
35.8330721316
 20
-21.2635446746
 10
35.8337895319
 20
-21.2674419788
  0
LWPOLYLINE
  5
43B
100
AcDbEntity
  8
0
100
AcDbPolyline
 62
250
  6
CONTINUOUS
 90
5
 70
0
 10
35.3310832835
 20
-21.6966183094
 10
35.3317563749
 20
-21.7239256911
 10
35.3324422914
 20
-21.74480298
 10
35.3331453945
 20
-21.7591117589
 10
35.3338656843
 20
-21.7667567462
  0
LWPOLYLINE
  5
43C
100
AcDbEntity
  8
0
100
AcDbPolyline
 62
250
  6
CONTINUOUS
 90
3
 70
0
 10
35.8280465901
 20
-21.1200390353
 10
35.8285700312
 20
-21.1478756501
 10
35.8297303065
 20
-21.1959750723
  0
LINE
  5
43D
100
AcDbEntity
  8
0
100
AcDbLine
 62
250
  6
CONTINUOUS
 10
35.3298017453
 20
-21.6234927137
 11
35.3310832835
 21
-21.6966183094
  0
LINE
  5
43E
100
AcDbEntity
  8
0
100
AcDbLine
 62
250
  6
CONTINUOUS
 10
35.328119557
 20
-21.4715422779
 11
35.3298017453
 21
-21.6234927137
  0
LINE
  5
43F
100
AcDbEntity
  8
0
100
AcDbLine
 62
250
  6
CONTINUOUS
 10
35.3261862211
 20
-21.1298586053
 11
35.328119557
 21
-21.4715422779
  0
LINE
  5
440
100
AcDbEntity
  8
0
100
AcDbLine
 62
250
  6
CONTINUOUS
 10
35.3256026301
 20
-20.8101638399
 11
35.3261862211
 21
-21.1298586053
  0
LINE
  5
441
100
AcDbEntity
  8
RACCORDO
100
AcDbLine
 62
250
  6
CONTINUOUS
 10
33.8285281149
 20
8.874173234
 11
33.8285281149
 21
-8.457872452
  0
LINE
  5
442
100
AcDbEntity
  8
RACCORDO
100
AcDbLine
 62
250
  6
CONTINUOUS
 10
34.028497654
 20
8.874173234
 11
34.028497654
 21
-8.457872452
  0
LINE
  5
443
100
AcDbEntity
  8
RACCORDO
100
AcDbLine
 62
250
  6
CONTINUOUS
 10
34.1739726456
 20
8.9344309486
 11
34.1752854438
 21
-0.7886562251
  0
LINE
  5
444
100
AcDbEntity
  8
RACCORDO
100
AcDbLine
 62
250
  6
CONTINUOUS
 10
34.5739117237
 20
8.9414175623
 11
34.5752245223
 21
-0.7894417958
  0
LWPOLYLINE
  5
445
100
AcDbEntity
  8
RACCORDO
100
AcDbPolyline
 62
250
  6
CONTINUOUS
 90
3
 70
0
 10
34.1752854438
 20
-0.7886562251
 10
34.1744965487
 20
-6.5898676526
 10
34.1739726456
 20
-8.5181301666
  0
LWPOLYLINE
  5
446
100
AcDbEntity
  8
RACCORDO
100
AcDbPolyline
 62
250
  6
CONTINUOUS
 90
3
 70
0
 10
34.5752245223
 20
-0.7894417958
 10
34.574435627
 20
-6.5953555247
 10
34.5739117237
 20
-8.5251167803
  0
LWPOLYLINE
  5
447
100
AcDbEntity
  8
0
100
AcDbPolyline
 62
250
  6
CONTINUOUS
 90
9
 70
0
 10
35.3225580136
 20
16.5576314441
 10
35.3202745513
 20
11.8873708026
 10
35.3187522431
 20
7.2160904765
 10
35.3179910891
 20
2.5441983827
 10
35.3179910892
 20
-2.1278976066
 10
35.3187522434
 20
-6.7997896997
 10
35.3202745516
 20
-11.4710700247
 10
35.3225580139
 20
-16.1413306644
 10
35.3256026301
 20
-20.8101638399
  0
LINE
  5
448
100
AcDbEntity
  8
0
100
AcDbLine
 62
250
  6
CONTINUOUS
 10
35.3268117214
 20
21.6936090407
 11
35.3225580136
 21
16.5576314441
  0
LINE
  5
449
100
AcDbEntity
  8
0
100
AcDbLine
 62
250
  6
CONTINUOUS
 10
35.3286424662
 20
21.9437060536
 11
35.3268117214
 21
21.6936090407
  0
LINE
  5
44A
100
AcDbEntity
  8
0
100
AcDbLine
 62
250
  6
CONTINUOUS
 10
35.3298017453
 20
22.0397934957
 11
35.3286424662
 21
21.9437060536
  0
LWPOLYLINE
  5
44B
100
AcDbEntity
  8
RACCORDO
100
AcDbPolyline
 62
250
  6
CONTINUOUS
 90
10
 70
0
 10
34.028497654
 20
-8.457872452
 10
34.0114223657
 20
-8.8494764842
 10
33.9602765827
 20
-9.2384050744
 10
33.8753704347
 20
-9.621692528
 10
33.7571957094
 20
-9.9966160569
 10
33.6066174238
 20
-10.3600690472
 10
33.4250505411
 20
-10.7086586599
 10
33.2140950369
 20
-11.0395860132
 10
32.9753415629
 20
-11.3505899804
 10
32.7106789101
 20
-11.6393683363
  0
LWPOLYLINE
  5
44C
100
AcDbEntity
  8
RACCORDO
100
AcDbPolyline
 62
250
  6
CONTINUOUS
 90
10
 70
0
 10
34.1739726456
 20
-8.5181301666
 10
34.1569798327
 20
-8.9072571151
 10
34.1061922646
 20
-9.2945560056
 10
34.0217058125
 20
-9.6770703563
 10
33.9037087506
 20
-10.0522974494
 10
33.7529107359
 20
-10.4168016806
 10
33.5709390619
 20
-10.7664017854
 10
33.3595534579
 20
-11.0980588891
 10
33.1202374405
 20
-11.4097321748
 10
32.8548879955
 20
-11.6991016953
  0
LWPOLYLINE
  5
44D
100
AcDbEntity
  8
RACCORDO
100
AcDbPolyline
 62
250
  6
CONTINUOUS
 90
10
 70
0
 10
34.5739117237
 20
-8.5251167803
 10
34.5550748919
 20
-8.953692883
 10
34.4999223904
 20
-9.3743232576
 10
34.408454219
 20
-9.7870079819
 10
34.2791640259
 20
-10.1956217033
 10
34.1135581629
 20
-10.5962898748
 10
33.9161556862
 20
-10.9773894088
 10
33.6884629477
 20
-11.3350467177
 10
33.4289735956
 20
-11.6731370495
 10
33.1376876296
 20
-11.9916611787
  0
LWPOLYLINE
  5
44E
100
AcDbEntity
  8
RACCORDO
100
AcDbPolyline
 62
250
  6
CONTINUOUS
 90
10
 70
0
 10
33.8285281149
 20
-8.457872452
 10
33.8115764036
 20
-8.8360035718
 10
33.7628952425
 20
-9.2063912425
 10
33.6824846316
 20
-9.5690354641
 10
33.56902692
 20
-9.927059194
 10
33.4238397586
 20
-10.2773394749
 10
33.2508760999
 20
-10.610507435
 10
33.0514535949
 20
-10.9234401171
 10
32.8242545926
 20
-11.2192604786
 10
32.569279093
 20
-11.4979685192
  0
LWPOLYLINE
  5
44F
100
AcDbEntity
  8
0
100
AcDbPolyline
 62
250
  6
CONTINUOUS
 90
14
 70
0
 10
26.6586890453
 20
-10.5048099637
 10
26.6028797532
 20
-10.5571043504
 10
26.4874332205
 20
-10.6524093794
 10
26.365238798
 20
-10.7410485089
 10
26.2363633718
 20
-10.8228172791
 10
26.1010226206
 20
-10.8973827631
 10
25.9595313314
 20
-10.9643570201
 10
25.8121213114
 20
-11.0234119758
 10
25.65913737
 20
-11.0742004489
 10
25.500976233
 20
-11.116363063
 10
25.338001444
 20
-11.1495476837
 10
25.1706627403
 20
-11.1734097385
 10
24.9994991222
 20
-11.1876201389
 10
24.8250675676
 20
-11.191849609
  0
LWPOLYLINE
  5
450
100
AcDbEntity
  8
0
100
AcDbPolyline
 62
250
  6
CONTINUOUS
 90
3
 70
0
 10
27.0014971361
 20
9.4415806072
 10
26.9787037428
 20
9.4399627054
 10
26.9561939552
 20
9.435213128
  0
LINE
  5
451
100
AcDbEntity
  8
0
100
AcDbLine
 62
250
  6
CONTINUOUS
 10
24.1250675676
 20
10.408150391
 11
25.3250675676
 21
10.408150391
  0
LINE
  5
452
100
AcDbEntity
  8
0
100
AcDbLine
 62
250
  6
CONTINUOUS
 10
24.1250675676
 20
10.448150391
 11
23.1907372158
 21
10.448150391
  0
LINE
  5
453
100
AcDbEntity
  8
0
100
AcDbLine
 62
7
  6
CONTINUOUS
 10
25.3250675676
 20
10.508150391
 11
24.1250675676
 21
10.508150391
  0
LINE
  5
454
100
AcDbEntity
  8
DRAFT
100
AcDbLine
 62
7
  6
CONTINUOUS
 10
25.3250675676
 20
10.5418268019
 11
25.2587439785
 21
10.5418268019
  0
LWPOLYLINE
  5
455
100
AcDbEntity
  8
0
100
AcDbPolyline
 62
250
  6
CONTINUOUS
 90
5
 70
0
 10
22.6499749865
 20
9.3813944173
 10
22.6643113826
 20
9.381128352
 10
22.6911284213
 20
9.3782841764
 10
22.7174933563
 20
9.3731269138
 10
22.7434061875
 20
9.36568797
  0
LINE
  5
456
100
AcDbEntity
  8
0
100
AcDbLine
 62
250
  6
CONTINUOUS
 10
27.0094565749
 20
9.4410602328
 11
27.0014971361
 21
9.4415806072
  0
LWPOLYLINE
  5
457
100
AcDbEntity
  8
0
100
AcDbPolyline
 62
250
  6
CONTINUOUS
 90
16
 70
0
 10
35.8337895319
 20
21.6837427608
 10
35.8310065299
 20
21.7359036942
 10
35.8227833322
 20
21.7874940618
 10
35.809209854
 20
21.8379493007
 10
35.7904345593
 20
21.8867172616
 10
35.7666628432
 20
21.9332642388
 10
35.7381547895
 20
21.9770808132
 10
35.7052223104
 20
22.0176874534
 10
35.6682257515
 20
22.0546397343
 10
35.6275699661
 20
22.0875331994
 10
35.5836998343
 20
22.1160078346
 10
35.5370954304
 20
22.1397519708
 10
35.4882668061
 20
22.1585056913
 10
35.4377483355
 20
22.1720637175
 10
35.3860928592
 20
22.1802776405
 10
35.3338656842
 20
22.183057528
  0
LINE
  5
458
100
AcDbEntity
  8
0
100
AcDbLine
 62
250
  6
CONTINUOUS
 10
35.8271261996
 20
-21.057217916
 11
35.8280465901
 21
-21.1200390353
  0
LINE
  5
459
100
AcDbEntity
  8
0
100
AcDbLine
 62
250
  6
CONTINUOUS
 10
35.826110828
 20
-20.9490413407
 11
35.8271261996
 21
-21.057217916
  0
LINE
  5
45A
100
AcDbEntity
  8
0
100
AcDbLine
 62
250
  6
CONTINUOUS
 10
35.8255878283
 20
-20.8304786867
 11
35.826110828
 21
-20.9490413407
  0
LINE
  5
45B
100
AcDbEntity
  8
0
100
AcDbLine
 62
7
  6
CONTINUOUS
 10
35.9750675676
 20
22.1079215389
 11
35.9750675676
 21
-21.6916207569
  0
LINE
  5
45C
100
AcDbEntity
  8
TRASH
100
AcDbLine
 62
7
  6
CONTINUOUS
 10
35.9750675676
 20
-15.911508775
 11
35.9750675676
 21
16.327809557
  0
LWPOLYLINE
  5
45D
100
AcDbEntity
  8
0
100
AcDbPolyline
 62
250
  6
CONTINUOUS
 90
9
 70
0
 10
35.8224818665
 20
16.5406275065
 10
35.8201984075
 20
11.8751867915
 10
35.8186761008
 20
7.2091241628
 10
35.8179149457
 20
2.5420260548
 10
35.8179149428
 20
-2.1256939669
 10
35.8186760943
 20
-6.7927952055
 10
35.820198401
 20
-11.4588640953
 10
35.8224818621
 20
-16.1243142021
 10
35.8255878283
 20
-20.8304786867
  0
LINE
  5
45E
100
AcDbEntity
  8
0
100
AcDbLine
 62
250
  6
CONTINUOUS
 10
35.8258790076
 20
21.3265988314
 11
35.8224818665
 21
16.5406275065
  0
LINE
  5
45F
100
AcDbEntity
  8
0
100
AcDbLine
 62
250
  6
CONTINUOUS
 10
35.8267369714
 20
21.4392104765
 11
35.8258790076
 21
21.3265988314
  0
LWPOLYLINE
  5
460
100
AcDbEntity
  8
0
100
AcDbPolyline
 62
250
  6
CONTINUOUS
 90
3
 70
0
 10
35.8280465901
 20
21.5363398173
 10
35.8275656117
 20
21.5061066633
 10
35.8267369714
 20
21.4392104765
  0
LWPOLYLINE
  5
461
100
AcDbEntity
  8
0
100
AcDbPolyline
 62
250
  6
CONTINUOUS
 90
16
 70
0
 10
35.8337895319
 20
-21.2674419788
 10
35.8310063752
 20
-21.3196043678
 10
35.8227827678
 20
-21.3711959185
 10
35.8092087047
 20
-21.4216520398
 10
35.7904327334
 20
-21.4704205658
 10
35.7666603284
 20
-21.5169677992
 10
35.7381516426
 20
-21.560784351
 10
35.7052186603
 20
-21.6013907156
 10
35.668221783
 20
-21.6383425179
 10
35.6275658855
 20
-21.6712353765
 10
35.5836958848
 20
-21.6997093289
 10
35.5370918715
 20
-21.723452771
 10
35.488263856
 20
-21.7422058668
 10
35.4377461866
 20
-21.7557633921
 10
35.3860917027
 20
-21.7639769803
 10
35.3338656843
 20
-21.7667567462
  0
LWPOLYLINE
  5
462
100
AcDbEntity
  8
RACCORDO
100
AcDbPolyline
 62
250
  6
CONTINUOUS
 90
10
 70
0
 10
22.2578493099
 20
-17.7373853259
 10
22.307203997
 20
-17.6878302075
 10
22.3550439189
 20
-17.6393553865
 10
22.3999008008
 20
-17.5934486238
 10
22.4403979212
 20
-17.5515188629
 10
22.4752923665
 20
-17.5148529874
 10
22.5035131769
 20
-17.4845763253
 10
22.5241942158
 20
-17.4616181103
 10
22.5367007527
 20
-17.4466829625
 10
22.5406489441
 20
-17.4402292631
  0
LINE
  5
463
100
AcDbEntity
  8
RACCORDO
100
AcDbLine
 62
250
  6
CONTINUOUS
 10
22.7818828651
 20
-17.1989953422
 11
22.54059561
 21
-17.4401759738
  0
LINE
  5
464
100
AcDbEntity
  8
0
100
AcDbLine
 62
7
  6
CONTINUOUS
 10
23.1907372158
 20
10.998150391
 11
24.1250675676
 21
10.998150391
  0
LINE
  5
465
100
AcDbEntity
  8
0
100
AcDbLine
 62
7
  6
CONTINUOUS
 10
23.1902246849
 20
11.008150391
 11
23.9250675676
 21
11.008150391
  0
LINE
  5
466
100
AcDbEntity
  8
0
100
AcDbLine
 62
7
  6
CONTINUOUS
 10
23.1907372158
 20
11.018150391
 11
24.1250675676
 21
11.018150391
  0
LINE
  5
467
100
AcDbEntity
  8
0
100
AcDbLine
 62
7
  6
CONTINUOUS
 10
24.8250675676
 20
11.608150391
 11
25.0031997312
 21
11.6019086944
  0
LINE
  5
468
100
AcDbEntity
  8
0
100
AcDbLine
 62
7
  6
CONTINUOUS
 10
25.0031997312
 20
11.6019086944
 11
25.0262405893
 21
11.6003159875
  0
LWPOLYLINE
  5
469
100
AcDbEntity
  8
0
100
AcDbPolyline
 62
7
  6
CONTINUOUS
 90
13
 70
0
 10
25.0130573377
 20
11.6012790898
 10
25.1788503997
 20
11.5851692603
 10
25.3512272106
 20
11.5582445027
 10
25.5195965143
 20
11.5214435128
 10
25.6832711865
 20
11.4751124369
 10
25.8416112184
 20
11.4196399519
 10
25.9940036851
 20
11.3554243366
 10
26.1399759255
 20
11.2828411268
 10
26.2792011165
 20
11.2023555467
 10
26.4112446132
 20
11.1145631067
 10
26.5358185121
 20
11.0199679425
 10
26.6528484798
 20
10.9188762264
 10
26.6636520069
 20
10.9082793907
  0
LWPOLYLINE
  5
46A
100
AcDbEntity
  8
0
100
AcDbPolyline
 62
7
  6
CONTINUOUS
 90
12
 70
0
 10
25.1411566192
 20
11.588724438
 10
25.2974187588
 20
11.5646769725
 10
25.4517357932
 20
11.5312845777
 10
25.6035850631
 20
11.4886981964
 10
25.752488154
 20
11.4370493636
 10
25.8979379402
 20
11.3764703822
 10
26.0393997094
 20
11.3071135605
 10
26.1763826119
 20
11.2292407548
 10
26.3084375412
 20
11.1431925219
 10
26.4350915726
 20
11.0493270362
 10
26.5558515572
 20
10.9480287565
 10
26.6702696627
 20
10.8396601321
  0
LINE
  5
46B
100
AcDbEntity
  8
RACCORDO
100
AcDbLine
 62
250
  6
CONTINUOUS
 10
22.7818828651
 20
17.6152961242
 11
22.5406422158
 21
17.8565233225
  0
LWPOLYLINE
  5
46C
100
AcDbEntity
  8
RACCORDO
100
AcDbPolyline
 62
250
  6
CONTINUOUS
 90
10
 70
0
 10
22.2578493099
 20
18.1536861095
 10
22.3072039744
 20
18.1041310109
 10
22.3550438691
 20
18.0556562152
 10
22.3999007216
 20
18.0097494808
 10
22.4403978128
 20
17.9678197492
 10
22.4752922307
 20
17.9311539018
 10
22.5035130174
 20
17.9008772644
 10
22.5241940378
 20
17.8779190688
 10
22.5367005627
 20
17.862983934
 10
22.5406487495
 20
17.8565302398
  0
LINE
  5
46D
100
AcDbEntity
  8
RACCORDO
100
AcDbLine
 62
250
  6
CONTINUOUS
 10
32.569279093
 20
-11.4979685192
 11
26.8682522701
 21
-17.1989953422
  0
LINE
  5
46E
100
AcDbEntity
  8
RACCORDO
100
AcDbLine
 62
250
  6
CONTINUOUS
 10
32.7106789101
 20
-11.6393683363
 11
27.0096520871
 21
-17.3403951592
  0
LWPOLYLINE
  5
46F
100
AcDbEntity
  8
RACCORDO
100
AcDbPolyline
 62
250
  6
CONTINUOUS
 90
3
 70
0
 10
32.8548879955
 20
-11.6991016953
 10
27.7478491683
 20
-16.8024216644
 10
27.1094929193
 20
-17.4402225405
  0
LINE
  5
470
100
AcDbEntity
  8
RACCORDO
100
AcDbLine
 62
250
  6
CONTINUOUS
 10
27.1095395251
 20
17.8564767558
 11
32.8548879955
 21
12.1154024773
  0
LINE
  5
471
100
AcDbEntity
  8
RACCORDO
100
AcDbLine
 62
250
  6
CONTINUOUS
 10
26.8682522701
 20
17.6152961242
 11
32.569279093
 21
11.9142693013
  0
LINE
  5
472
100
AcDbEntity
  8
RACCORDO
100
AcDbLine
 62
250
  6
CONTINUOUS
 10
27.0096520871
 20
17.7566959413
 11
32.7106789101
 21
12.0556691183
  0
LWPOLYLINE
  5
473
100
AcDbEntity
  8
RACCORDO
100
AcDbPolyline
 62
250
  6
CONTINUOUS
 90
10
 70
0
 10
32.8548879955
 20
12.1154024773
 10
33.1182888003
 20
11.828352065
 10
33.3565138497
 20
11.5186926728
 10
33.5675382044
 20
11.18858096
 10
33.7497310184
 20
10.8399104382
 10
33.9011521897
 20
10.4756187036
 10
34.019973577
 20
10.0998388301
 10
34.1052903344
 20
9.7159749381
 10
34.1567211878
 20
9.3265117011
 10
34.1739726456
 20
8.9344309486
  0
LWPOLYLINE
  5
474
100
AcDbEntity
  8
RACCORDO
100
AcDbPolyline
 62
250
  6
CONTINUOUS
 90
10
 70
0
 10
32.7106789101
 20
12.0556691183
 10
32.9755285971
 20
11.7666679048
 10
33.2143908098
 20
11.4554645531
 10
33.4253875375
 20
11.1243760173
 10
33.6069446455
 20
10.7756682504
 10
33.7574720276
 20
10.4121573871
 10
33.8755644625
 20
10.037268525
 10
33.9603792767
 20
9.6541227538
 10
34.0114521365
 20
9.2654365909
 10
34.028497654
 20
8.874173234
  0
LWPOLYLINE
  5
475
100
AcDbEntity
  8
RACCORDO
100
AcDbPolyline
 62
250
  6
CONTINUOUS
 90
10
 70
0
 10
32.569279093
 20
11.9142693013
 10
32.8246886447
 20
11.6348826029
 10
33.0521823727
 20
11.3385339262
 10
33.2517602771
 20
11.0252232713
 10
33.4246989241
 20
10.6918019183
 10
33.5697217474
 20
10.3414185869
 10
33.6829990481
 20
9.9835194369
 10
33.7632542597
 20
9.621253188
 10
33.8117639487
 20
9.2514711204
 10
33.8285281149
 20
8.874173234
  0
LINE
  5
476
100
AcDbEntity
  8
0
100
AcDbLine
 62
7
  6
CONTINUOUS
 10
28.1250675676
 20
-22.191849609
 11
28.05843477
 21
-22.291849609
  0
LWPOLYLINE
  5
477
100
AcDbEntity
  8
RACCORDO
100
AcDbPolyline
 62
250
  6
CONTINUOUS
 90
3
 70
0
 10
33.1376876296
 20
-11.9916611787
 10
28.0306451704
 20
-17.0990724408
 10
27.3922858252
 20
-17.7373853259
  0
LWPOLYLINE
  5
478
100
AcDbEntity
  8
RACCORDO
100
AcDbPolyline
 62
250
  6
CONTINUOUS
 90
34
 70
0
 10
27.1094929197
 20
-17.4402225408
 10
27.0231657592
 20
-17.5233243109
 10
26.9340240259
 20
-17.6029914797
 10
26.8422096919
 20
-17.6791375833
 10
26.7479498277
 20
-17.7516206393
 10
26.6513120467
 20
-17.820433767
 10
26.552182251
 20
-17.8856743276
 10
26.4507441559
 20
-17.9472203393
 10
26.3470820881
 20
-18.0050196323
 10
26.2408917377
 20
-18.059206331
 10
26.1328936772
 20
-18.109387696
 10
26.0226281629
 20
-18.1557529813
 10
25.9078970042
 20
-18.1990130922
 10
25.7882705363
 20
-18.238934138
 10
25.6642814256
 20
-18.274938198
 10
25.5350728348
 20
-18.3068386416
 10
25.4005500539
 20
-18.3341395169
 10
25.2610475693
 20
-18.3562430698
 10
25.1163712491
 20
-18.3726275093
 10
24.9668271245
 20
-18.3826706078
 10
24.8126183771
 20
-18.3857563061
 10
24.6534679062
 20
-18.3812223581
 10
24.4897965619
 20
-18.3683460301
 10
24.3220726904
 20
-18.346404591
 10
24.15021373
 20
-18.3145477702
 10
23.9749130104
 20
-18.2719766484
 10
23.7969148919
 20
-18.2179033672
 10
23.6164123194
 20
-18.1513039996
 10
23.4345020231
 20
-18.0713784968
 10
23.2522773687
 20
-17.9773318064
 10
23.0702350975
 20
-17.8679549534
 10
22.8896514637
 20
-17.7422976809
 10
22.7124907151
 20
-17.5998702806
 10
22.5405956091
 20
-17.4401759746
  0
LWPOLYLINE
  5
479
100
AcDbEntity
  8
RACCORDO
100
AcDbPolyline
 62
250
  6
CONTINUOUS
 90
34
 70
0
 10
27.3922858252
 20
-17.7373853259
 10
27.2950444594
 20
-17.8309728911
 10
27.1949529059
 20
-17.9205237505
 10
27.0920111649
 20
-18.0060379796
 10
26.9861549822
 20
-18.0875448856
 10
26.877448612
 20
-18.1650153038
 10
26.7660848161
 20
-18.2383615994
 10
26.6521462983
 20
-18.3075848539
 10
26.5355503549
 20
-18.372684113
 10
26.4162416368
 20
-18.4335686866
 10
26.2949569704
 20
-18.4901358582
 10
26.1709595293
 20
-18.5424884543
 10
26.0419834856
 20
-18.5908440922
 10
25.9075247317
 20
-18.6356950199
 10
25.7680873751
 20
-18.6765490692
 10
25.6229179101
 20
-18.7121472369
 10
25.4716951759
 20
-18.7427019494
 10
25.3147403333
 20
-18.7680008579
 10
25.1522633582
 20
-18.7861478091
 10
24.9841735282
 20
-18.7972642327
 10
24.8105615656
 20
-18.8012287465
 10
24.6319096132
 20
-18.7957809749
 10
24.4479690391
 20
-18.7810556898
 10
24.2589884751
 20
-18.7569180762
 10
24.0661959595
 20
-18.7207033347
 10
23.8692436875
 20
-18.6725014022
 10
23.6684794639
 20
-18.6122221113
 10
23.4661747408
 20
-18.536930401
 10
23.261852947
 20
-18.4466345657
 10
23.0559906537
 20
-18.3413257563
 10
22.8522890267
 20
-18.2180430151
 10
22.6519817881
 20
-18.0757989774
 10
22.4538352158
 20
-17.9155799521
 10
22.2578493099
 20
-17.7373853259
  0
LINE
  5
47A
100
AcDbEntity
  8
RACCORDO
100
AcDbLine
 62
250
  6
CONTINUOUS
 10
27.3922858252
 20
18.1536861079
 11
33.1376876296
 21
12.4079619607
  0
LWPOLYLINE
  5
47B
100
AcDbEntity
  8
RACCORDO
100
AcDbPolyline
 62
250
  6
CONTINUOUS
 90
10
 70
0
 10
33.1376876296
 20
12.4079619607
 10
33.4274395902
 20
12.0917043491
 10
33.6859079937
 20
11.7553582628
 10
33.9130928403
 20
11.3989229049
 10
34.1106732223
 20
11.0185820654
 10
34.2769700473
 20
10.6181502456
 10
34.4069460377
 20
10.2090733131
 10
34.498922101
 20
9.7951667149
 10
34.5545773297
 20
9.3726148342
 10
34.5739117237
 20
8.9414175623
  0
LINE
  5
47C
100
AcDbEntity
  8
0
100
AcDbLine
 62
7
  6
CONTINUOUS
 10
28.05843477
 20
22.708150391
 11
28.1250675676
 21
22.608150391
  0
LWPOLYLINE
  5
47D
100
AcDbEntity
  8
0
100
AcDbPolyline
 62
7
  6
CONTINUOUS
 90
10
 70
0
 43
0.3500000087
 10
25.8964952759
 20
32.9581506744
 10
25.9679248306
 20
32.8152915649
 10
25.9679248306
 20
32.7438641418
 10
25.8250678528
 20
32.6010092957
 10
25.753638298
 20
32.6010092957
 10
25.6822108749
 20
32.6724367188
 10
25.6822108749
 20
32.7438641418
 10
25.753638298
 20
32.8867232513
 10
25.8250678528
 20
32.9581506744
 10
25.8964952759
 20
32.9581506744
  0
LWPOLYLINE
  5
47E
100
AcDbEntity
  8
0
100
AcDbPolyline
 62
7
  6
CONTINUOUS
 90
3
 70
0
 43
0.3500000087
 10
42.5822124573
 20
0.8737315521
 10
42.5822124573
 20
-0.6262677811
 10
40.2250691254
 20
0.0165886192
  0
LINE
  5
47F
100
AcDbEntity
  8
0
100
AcDbLine
 62
250
  6
CONTINUOUS
 10
14.324532505
 20
21.2264646219
 11
35.3256026301
 21
21.2264646219
  0
LWPOLYLINE
  5
480
100
AcDbEntity
  8
0
100
AcDbPolyline
 62
250
  6
CONTINUOUS
 90
16
 70
0
 10
14.3162694509
 20
22.1830575282
 10
14.2640425644
 20
22.180277671
 10
14.2123873359
 20
22.1720638316
 10
14.1618690654
 20
22.1585059305
 10
14.1130405933
 20
22.1397523661
 10
14.0664362871
 20
22.1160084033
 10
14.0225661883
 20
22.0875339389
 10
13.981910375
 20
22.0546406254
 10
13.9449137368
 20
22.0176884643
 10
13.9119811321
 20
21.9770818932
 10
13.8834729206
 20
21.9332653246
 10
13.8597010323
 20
21.8867182835
 10
13.8409255685
 20
21.8379501814
 10
13.827351944
 20
21.7874947219
 10
13.8191286439
 20
21.7359040584
 10
13.8163456033
 20
21.6837427608
  0
LWPOLYLINE
  5
481
100
AcDbEntity
  8
0
100
AcDbPolyline
 62
250
  6
CONTINUOUS
 90
16
 70
0
 10
14.324532505
 20
21.2264646215
 10
14.272846401
 20
21.2263141304
 10
14.2217140888
 20
21.2259400504
 10
14.1716834264
 20
21.2253463896
 10
14.1232904685
 20
21.2245395086
 10
14.0770537224
 20
21.223528053
 10
14.0334685924
 20
21.2223228602
 10
13.9930020724
 20
21.2209368433
 10
13.9560877416
 20
21.2193848528
 10
13.9231211193
 20
21.2176835174
 10
13.8944554271
 20
21.2158510663
 10
13.8703978041
 20
21.2139071332
 10
13.8512060161
 20
21.2118725465
 10
13.8370856939
 20
21.2097691057
 10
13.82818813
 20
21.2076193482
 10
13.8246086575
 20
21.2054463077
  0
LINE
  5
482
100
AcDbEntity
  8
0
100
AcDbLine
 62
250
  6
CONTINUOUS
 10
14.3162694509
 20
22.1830575282
 11
35.3338656843
 21
22.1830575282
  0
LINE
  5
483
100
AcDbEntity
  8
0
100
AcDbLine
 62
7
  6
CONTINUOUS
 10
14.1746869678
 20
22.608150391
 11
21.5250675676
 21
22.608150391
  0
LINE
  5
484
100
AcDbEntity
  8
0
100
AcDbLine
 62
7
  6
CONTINUOUS
 10
28.1250675676
 20
22.608150391
 11
35.4754481673
 21
22.608150391
  0
LINE
  5
485
100
AcDbEntity
  8
TRASH
100
AcDbLine
 62
7
  6
CONTINUOUS
 10
21.3552473079
 20
22.708150391
 11
28.2948878273
 21
22.708150391
  0
LWPOLYLINE
  5
486
100
AcDbEntity
  8
0
100
AcDbPolyline
 62
250
  6
CONTINUOUS
 90
15
 70
0
 10
35.8255264777
 20
-20.7891455257
 10
35.8219467111
 20
-20.7913185404
 10
35.8130488984
 20
-20.7934682718
 10
35.7989283744
 20
-20.7955716866
 10
35.7797364328
 20
-20.7976062479
 10
35.7556787042
 20
-20.7995501567
 10
35.7270129536
 20
-20.801382585
 10
35.6940463186
 20
-20.8030838994
 10
35.6571320178
 20
-20.8046358712
 10
35.6166655672
 20
-20.806021872
 10
35.5730805421
 20
-20.8072270515
 10
35.5268439313
 20
-20.8082384968
 10
35.4784511341
 20
-20.8090453708
 10
35.428420652
 20
-20.8096390282
 10
35.3772885334
 20
-20.8100131083
  0
LINE
  5
487
100
AcDbEntity
  8
TRASH
100
AcDbLine
 62
7
  6
CONTINUOUS
 10
28.4999250457
 20
23.708150391
 11
21.1502100894
 21
23.708150391
  0
LWPOLYLINE
  5
488
100
AcDbEntity
  8
0
100
AcDbPolyline
 62
7
  6
CONTINUOUS
 90
7
 70
0
 43
0.3500000087
 10
24.3964959427
 20
32.4581501862
 10
22.8964966095
 20
32.4581501862
 10
24.3964959427
 20
34.6010069855
 10
24.3964959427
 20
35.0295800507
 10
23.9679250092
 20
35.4581488525
 10
23.325067543
 20
35.4581488525
 10
22.8964966095
 20
34.8152935181
  0
LWPOLYLINE
  5
489
100
AcDbEntity
  8
0
100
AcDbPolyline
 62
7
  6
CONTINUOUS
 90
7
 70
0
 43
0.3500000087
 10
22.0393526108
 20
32.4581501862
 10
20.5393532776
 20
32.4581501862
 10
22.0393526108
 20
34.6010069855
 10
22.0393526108
 20
35.0295800507
 10
21.6107816772
 20
35.4581488525
 10
20.9679242111
 20
35.4581488525
 10
20.5393532776
 20
34.8152935181
  0
LWPOLYLINE
  5
48A
100
AcDbEntity
  8
0
100
AcDbPolyline
 62
7
  6
CONTINUOUS
 90
6
 70
0
 43
0.3500000087
 10
26.9679236755
 20
32.4581501862
 10
28.0393542068
 20
32.4581501862
 10
28.2536386078
 20
32.6724367188
 10
28.2536386078
 20
33.7438651184
 10
27.8250676743
 20
34.1724381836
 10
27.3964967407
 20
34.1724381836
  0
LWPOLYLINE
  5
48B
100
AcDbEntity
  8
TRASH
100
AcDbPolyline
 62
7
  6
CONTINUOUS
 90
10
 70
0
 10
28.4999250457
 20
23.708150391
 10
28.5653979671
 20
23.705959779
 10
28.6300518092
 20
23.699628589
 10
28.6938865722
 20
23.6891568209
 10
28.7571646355
 20
23.6744653647
 10
28.8196236196
 20
23.6556333303
 10
28.8804763857
 20
23.6328980485
 10
28.9394605542
 20
23.6063386293
 10
28.9968385048
 20
23.5758759627
 10
29.0526102373
 20
23.5415100485
  0
LWPOLYLINE
  5
48C
100
AcDbEntity
  8
0
100
AcDbPolyline
 62
250
  6
CONTINUOUS
 90
16
 70
0
 10
35.8255264777
 20
21.2054463077
 10
35.8219470044
 20
21.2076193482
 10
35.8130494399
 20
21.2097691056
 10
35.7989291172
 20
21.2118725463
 10
35.7797373288
 20
21.213907133
 10
35.7556797055
 20
21.215851066
 10
35.7270140131
 20
21.217683517
 10
35.6940473908
 20
21.2193848522
 10
35.6571330601
 20
21.2209368426
 10
35.6166665402
 20
21.2223228594
 10
35.5730814104
 20
21.2235280521
 10
35.5268446646
 20
21.2245395075
 10
35.4784517071
 20
21.2253463885
 10
35.4284210453
 20
21.2259400494
 10
35.3772887336
 20
21.2263141297
 10
35.3256026301
 20
21.2264646212
  0
ARC
  5
48D
100
AcDbEntity
  8
0
100
AcDbCircle
 62
7
  6
CONTINUOUS
 10
-38.7316031309
 20
-20.7681272114
 40
1.0
100
AcDbArc
 50
182.4092313014
 51
267.0
  0
ARC
  5
48E
100
AcDbEntity
  8
RACCORDO
100
AcDbCircle
 62
7
  6
CONTINUOUS
 10
0.3273159328
 20
-15.2775822763
 40
0.5
100
AcDbArc
 50
271.0
 51
360.0
  0
ARC
  5
48F
100
AcDbEntity
  8
RACCORDO
100
AcDbCircle
 62
7
  6
CONTINUOUS
 10
-22.7105554725
 20
-20.4226142331
 40
0.5
100
AcDbArc
 50
271.0
 51
315.0
  0
ARC
  5
490
100
AcDbEntity
  8
RACCORDO
100
AcDbCircle
 62
7
  6
CONTINUOUS
 10
-17.4619755187
 20
-16.5882478416
 40
0.5
100
AcDbArc
 50
91.0
 51
135.0
  0
ARC
  5
491
100
AcDbEntity
  8
RACCORDO
100
AcDbCircle
 62
7
  6
CONTINUOUS
 10
1.5273159328
 20
-6.3541138528
 40
0.3
100
AcDbArc
 50
359.9997500549
 51
88.9999944249
  0
ARC
  5
492
100
AcDbEntity
  8
RACCORDO
100
AcDbCircle
 62
7
  6
CONTINUOUS
 10
1.5273159328
 20
-13.3295853651
 40
0.3
100
AcDbArc
 50
271.0003332823
 51
0.0152288958
  0
ARC
  5
493
100
AcDbEntity
  8
RACCORDO
100
AcDbCircle
 62
7
  6
CONTINUOUS
 10
1.5273159328
 20
-3.4295853651
 40
0.3
100
AcDbArc
 50
271.0008049906
 51
0.0365167748
  0
ARC
  5
494
100
AcDbEntity
  8
RACCORDO
100
AcDbCircle
 62
7
  6
CONTINUOUS
 10
1.1273159328
 20
-13.9366587879
 40
0.3
100
AcDbArc
 50
90.9990455695
 51
179.9451020804
  0
ARC
  5
495
100
AcDbEntity
  8
RACCORDO
100
AcDbCircle
 62
7
  6
CONTINUOUS
 10
1.1273159328
 20
-5.7470404301
 40
0.3
100
AcDbArc
 50
180.0167453518
 51
269.0002946597
  0
ARC
  5
496
100
AcDbEntity
  8
RACCORDO
100
AcDbCircle
 62
7
  6
CONTINUOUS
 10
1.1273159328
 20
-4.0366587879
 40
0.3
100
AcDbArc
 50
90.999067736
 51
168.2741446491
  0
ARC
  5
497
100
AcDbEntity
  8
RACCORDO
100
AcDbCircle
 62
7
  6
CONTINUOUS
 10
-26.4726840672
 20
-21.1883890616
 40
0.2
100
AcDbArc
 50
169.2157049612
 51
180.0
  0
ARC
  5
498
100
AcDbEntity
  8
RACCORDO
100
AcDbCircle
 62
7
  6
CONTINUOUS
 10
-26.4726840672
 20
-21.1883890616
 40
0.2
100
AcDbArc
 50
91.0
 51
101.4555216024
  0
ARC
  5
499
100
AcDbEntity
  8
0
100
AcDbCircle
 62
7
  6
CONTINUOUS
 10
-38.7316031309
 20
21.1844279935
 40
1.0
100
AcDbArc
 50
93.0
 51
177.5907686986
  0
ARC
  5
49A
100
AcDbEntity
  8
RACCORDO
100
AcDbCircle
 62
7
  6
CONTINUOUS
 10
0.3273159328
 20
15.6938830583
 40
0.5
100
AcDbArc
 50
0.0
 51
88.9999999998
  0
ARC
  5
49B
100
AcDbEntity
  8
RACCORDO
100
AcDbCircle
 62
7
  6
CONTINUOUS
 10
-22.7105554725
 20
20.8389150151
 40
0.5
100
AcDbArc
 50
45.0
 51
89.0
  0
ARC
  5
49C
100
AcDbEntity
  8
RACCORDO
100
AcDbCircle
 62
7
  6
CONTINUOUS
 10
-17.4619755187
 20
17.0045486236
 40
0.5
100
AcDbArc
 50
225.0
 51
269.0
  0
ARC
  5
49D
100
AcDbEntity
  8
RACCORDO
100
AcDbCircle
 62
7
  6
CONTINUOUS
 10
1.5273159328
 20
3.2458861472
 40
0.3
100
AcDbArc
 50
359.9902667422
 51
88.999781418
  0
ARC
  5
49E
100
AcDbEntity
  8
RACCORDO
100
AcDbCircle
 62
7
  6
CONTINUOUS
 10
1.5273159328
 20
6.7704146349
 40
0.3
100
AcDbArc
 50
271.0008049906
 51
0.0365167748
  0
ARC
  5
49F
100
AcDbEntity
  8
RACCORDO
100
AcDbCircle
 62
7
  6
CONTINUOUS
 10
1.5273159328
 20
13.7458861472
 40
0.3
100
AcDbArc
 50
359.9902667422
 51
88.999781418
  0
ARC
  5
4A0
100
AcDbEntity
  8
RACCORDO
100
AcDbCircle
 62
7
  6
CONTINUOUS
 10
1.1273159328
 20
3.8529595699
 40
0.3
100
AcDbArc
 50
194.8323257746
 51
269.0009713032
  0
ARC
  5
4A1
100
AcDbEntity
  8
RACCORDO
100
AcDbCircle
 62
7
  6
CONTINUOUS
 10
1.1273159328
 20
6.1633412121
 40
0.3
100
AcDbArc
 50
90.999067736
 51
165.1675233558
  0
ARC
  5
4A2
100
AcDbEntity
  8
RACCORDO
100
AcDbCircle
 62
7
  6
CONTINUOUS
 10
1.1273159328
 20
14.3529595699
 40
0.3
100
AcDbArc
 50
192.0767429581
 51
269.0009713032
  0
ARC
  5
4A3
100
AcDbEntity
  8
RACCORDO
100
AcDbCircle
 62
7
  6
CONTINUOUS
 10
-26.4726840672
 20
21.6046898436
 40
0.2
100
AcDbArc
 50
180.0
 51
190.7842950386
  0
ARC
  5
4A4
100
AcDbEntity
  8
RACCORDO
100
AcDbCircle
 62
7
  6
CONTINUOUS
 10
-26.4726840672
 20
21.6046898436
 40
0.2
100
AcDbArc
 50
240.7417071169
 51
269.0
  0
ARC
  5
4A5
100
AcDbEntity
  8
0
100
AcDbCircle
 62
7
  6
CONTINUOUS
 10
459.8273159328
 20
0.208150391
 40
500.0
100
AcDbArc
 50
177.5907686986
 51
182.4092313014
  0
ARC
  5
4A6
100
AcDbEntity
  8
RACCORDO
100
AcDbCircle
 62
7
  6
CONTINUOUS
 10
459.8273159328
 20
0.208150391
 40
500.0
100
AcDbArc
 50
177.8211606988
 51
180.2443484888
  0
ARC
  5
4A7
100
AcDbEntity
  8
RACCORDO
100
AcDbCircle
 62
7
  6
CONTINUOUS
 10
459.8273159328
 20
0.208150391
 40
500.0
100
AcDbArc
 50
180.7780641985
 51
182.1788393012
  0
ARC
  5
4A8
100
AcDbEntity
  8
0
100
AcDbCircle
 62
7
  6
CONTINUOUS
 10
21.8751165821
 20
-0.8002822684
 40
2.6044702439
100
AcDbArc
 50
37.1169507139
 51
80.4021276682
  0
ARC
  5
4A9
100
AcDbEntity
  8
0
100
AcDbCircle
 62
7
  6
CONTINUOUS
 10
21.8751165821
 20
-0.8002822684
 40
2.6044702439
100
AcDbArc
 50
89.3622107937
 51
90.5168281416
  0
ARC
  5
4AA
100
AcDbEntity
  8
0
100
AcDbCircle
 62
7
  6
CONTINUOUS
 10
21.8751165821
 20
-0.8002822684
 40
2.6044702439
100
AcDbArc
 50
103.0564256728
 51
148.2586775336
  0
ARC
  5
4AB
100
AcDbEntity
  8
ASSI
100
AcDbCircle
 62
7
  6
CONTINUOUS
 10
19.5750675676
 20
-0.4790177559
 40
1.0
100
AcDbArc
 50
0.4107080832
 51
85.9814957243
  0
ARC
  5
4AC
100
AcDbEntity
  8
0
100
AcDbCircle
 62
7
  6
CONTINUOUS
 10
23.1850675676
 20
-1.981849609
 40
1.0
100
AcDbArc
 50
92.9994964232
 51
103.7373210113
  0
ARC
  5
4AD
100
AcDbEntity
  8
0
100
AcDbCircle
 62
7
  6
CONTINUOUS
 10
21.9010292641
 20
-8.491849609
 40
1.0
100
AcDbArc
 50
316.8446820299
 51
324.3146652873
  0
ARC
  5
4AE
100
AcDbEntity
  8
0
100
AcDbCircle
 62
7
  6
CONTINUOUS
 10
23.1850675676
 20
-1.981849609
 40
0.97
100
AcDbArc
 50
95.3223160482
 51
103.7373210113
  0
ARC
  5
4AF
100
AcDbEntity
  8
0
100
AcDbCircle
 62
7
  6
CONTINUOUS
 10
23.1850675676
 20
-1.981849609
 40
0.95
100
AcDbArc
 50
90.0
 51
103.7373210113
  0
ARC
  5
4B0
100
AcDbEntity
  8
0
100
AcDbCircle
 62
7
  6
CONTINUOUS
 10
19.0648896373
 20
-0.521849609
 40
0.7
100
AcDbArc
 50
31.7413224664
 51
32.6284188706
  0
ARC
  5
4B1
100
AcDbEntity
  8
TRASH
100
AcDbCircle
 62
7
  6
CONTINUOUS
 10
19.8750675676
 20
-22.891849609
 40
0.5
100
AcDbArc
 50
350.803718421
 51
119.112422776
  0
ARC
  5
4B2
100
AcDbEntity
  8
TRASH
100
AcDbCircle
 62
7
  6
CONTINUOUS
 10
13.5750675676
 20
0.208150391
 40
28.0
100
AcDbArc
 50
55.8789063483
 51
56.4427876864
  0
ARC
  5
4B3
100
AcDbEntity
  8
TRASH
100
AcDbCircle
 62
7
  6
CONTINUOUS
 10
13.5750675676
 20
0.208150391
 40
28.0
100
AcDbArc
 50
53.1385891949
 51
54.0372348486
  0
ARC
  5
4B4
100
AcDbEntity
  8
TRASH
100
AcDbCircle
 62
7
  6
CONTINUOUS
 10
13.5750675676
 20
0.208150391
 40
28.0
100
AcDbArc
 50
305.9627651514
 51
306.8614108051
  0
ARC
  5
4B5
100
AcDbEntity
  8
TRASH
100
AcDbCircle
 62
7
  6
CONTINUOUS
 10
13.5750675676
 20
0.208150391
 40
28.0
100
AcDbArc
 50
303.5572123136
 51
304.1210936517
  0
ARC
  5
4B6
100
AcDbEntity
  8
0
100
AcDbCircle
 62
7
  6
CONTINUOUS
 10
21.8751165821
 20
1.2165830504
 40
2.6044702439
100
AcDbArc
 50
279.5978723318
 51
322.9582449244
  0
ARC
  5
4B7
100
AcDbEntity
  8
0
100
AcDbCircle
 62
7
  6
CONTINUOUS
 10
21.8751165821
 20
1.2165830504
 40
2.6044702439
100
AcDbArc
 50
269.4831718584
 51
270.6377892063
  0
ARC
  5
4B8
100
AcDbEntity
  8
0
100
AcDbCircle
 62
7
  6
CONTINUOUS
 10
21.8751165821
 20
1.2165830504
 40
2.6044702439
100
AcDbArc
 50
211.7413224664
 51
256.9435743272
  0
CIRCLE
  5
4B9
100
AcDbEntity
  8
RACCORDO
100
AcDbCircle
 62
250
  6
CONTINUOUS
 10
21.8250675676
 20
0.208150391
 40
2.6024666578
  0
CIRCLE
  5
4BA
100
AcDbEntity
  8
RACCORDO
100
AcDbCircle
 62
7
  6
CONTINUOUS
 10
21.8250675676
 20
0.208150391
 40
2.2026485098
  0
CIRCLE
  5
4BB
100
AcDbEntity
  8
DRAFT
100
AcDbCircle
 62
7
  6
CONTINUOUS
 10
21.8250675676
 20
0.208150391
 40
2.2
  0
ARC
  5
4BC
100
AcDbEntity
  8
0
100
AcDbCircle
 62
7
  6
CONTINUOUS
 10
21.9010292641
 20
8.908150391
 40
1.0
100
AcDbArc
 50
35.6853347127
 51
43.3273857585
  0
ARC
  5
4BD
100
AcDbEntity
  8
0
100
AcDbCircle
 62
7
  6
CONTINUOUS
 10
19.0648896373
 20
0.938150391
 40
0.7
100
AcDbArc
 50
327.3305823787
 51
328.2586775336
  0
ARC
  5
4BE
100
AcDbEntity
  8
0
100
AcDbCircle
 62
250
  6
CONTINUOUS
 10
23.1907372158
 20
11.998150391
 40
1.55
100
AcDbArc
 50
254.419256451
 51
270.0
  0
ARC
  5
4BF
100
AcDbEntity
  8
0
100
AcDbCircle
 62
7
  6
CONTINUOUS
 10
23.1907372158
 20
11.998150391
 40
1.0
100
AcDbArc
 50
267.8444995847
 51
270.0
  0
ARC
  5
4C0
100
AcDbEntity
  8
0
100
AcDbCircle
 62
7
  6
CONTINUOUS
 10
23.1907372158
 20
11.998150391
 40
0.9900694014
100
AcDbArc
 50
268.4813282345
 51
269.9703375206
  0
ARC
  5
4C1
100
AcDbEntity
  8
0
100
AcDbCircle
 62
7
  6
CONTINUOUS
 10
23.1907372158
 20
11.998150391
 40
0.98
100
AcDbArc
 50
269.1997057247
 51
270.0
  0
ARC
  5
4C2
100
AcDbEntity
  8
TRASH
100
AcDbCircle
 62
7
  6
CONTINUOUS
 10
19.8750675676
 20
23.308150391
 40
0.5
100
AcDbArc
 50
240.887577224
 51
9.196281579
  0
ARC
  5
4C3
100
AcDbEntity
  8
RACCORDO
100
AcDbCircle
 62
250
  6
CONTINUOUS
 10
24.8250675676
 20
-15.1558106397
 40
3.0894690552
100
AcDbArc
 50
225.0
 51
315.0
  0
ARC
  5
4C4
100
AcDbEntity
  8
RACCORDO
100
AcDbCircle
 62
250
  6
CONTINUOUS
 10
24.8250675676
 20
-15.1558106397
 40
2.8894980349
100
AcDbArc
 50
225.0
 51
315.0
  0
CIRCLE
  5
4C5
100
AcDbEntity
  8
RACCORDO
100
AcDbCircle
 62
250
  6
CONTINUOUS
 10
24.8250675676
 20
-9.291849609
 40
2.6024666578
  0
ARC
  5
4C6
100
AcDbEntity
  8
0
100
AcDbCircle
 62
7
  6
CONTINUOUS
 10
24.8250675676
 20
-8.591849609
 40
2.6
100
AcDbArc
 50
270.0
 51
318.4248949996
  0
ARC
  5
4C7
100
AcDbEntity
  8
0
100
AcDbCircle
 62
7
  6
CONTINUOUS
 10
24.8250675676
 20
-8.591849609
 40
2.6
100
AcDbArc
 50
221.4327333964
 51
265.5623795422
  0
CIRCLE
  5
4C8
100
AcDbEntity
  8
RACCORDO
100
AcDbCircle
 62
7
  6
CONTINUOUS
 10
24.8250675676
 20
-9.291849609
 40
2.2026485098
  0
CIRCLE
  5
4C9
100
AcDbEntity
  8
DRAFT
100
AcDbCircle
 62
7
  6
CONTINUOUS
 10
24.8250675676
 20
-9.291849609
 40
2.2
  0
ARC
  5
4CA
100
AcDbEntity
  8
0
100
AcDbCircle
 62
250
  6
CONTINUOUS
 10
26.4593979194
 20
-11.581849609
 40
1.55
100
AcDbArc
 50
74.419256451
 51
90.0
  0
ARC
  5
4CB
100
AcDbEntity
  8
0
100
AcDbCircle
 62
7
  6
CONTINUOUS
 10
27.749105871
 20
-8.491849609
 40
1.0
100
AcDbArc
 50
215.6853347127
 51
223.3273857585
  0
ARC
  5
4CC
100
AcDbEntity
  8
0
100
AcDbCircle
 62
7
  6
CONTINUOUS
 10
26.4593979194
 20
-11.581849609
 40
1.0
100
AcDbArc
 50
87.8444995847
 51
90.0
  0
ARC
  5
4CD
100
AcDbEntity
  8
0
100
AcDbCircle
 62
7
  6
CONTINUOUS
 10
26.4593979194
 20
-11.581849609
 40
0.9900694014
100
AcDbArc
 50
88.4813282345
 51
89.9703375206
  0
ARC
  5
4CE
100
AcDbEntity
  8
0
100
AcDbCircle
 62
7
  6
CONTINUOUS
 10
26.4593979194
 20
-11.581849609
 40
0.98
100
AcDbArc
 50
89.1997057247
 51
90.0
  0
ARC
  5
4CF
100
AcDbEntity
  8
TRASH
100
AcDbCircle
 62
7
  6
CONTINUOUS
 10
29.7750675676
 20
-22.891849609
 40
0.5
100
AcDbArc
 50
60.887577224
 51
189.196281579
  0
ARC
  5
4D0
100
AcDbEntity
  8
TRASH
100
AcDbCircle
 62
7
  6
CONTINUOUS
 10
36.0750675676
 20
0.208150391
 40
28.0
100
AcDbArc
 50
125.9627651514
 51
126.8614108051
  0
ARC
  5
4D1
100
AcDbEntity
  8
TRASH
100
AcDbCircle
 62
7
  6
CONTINUOUS
 10
36.0750675676
 20
0.208150391
 40
28.0
100
AcDbArc
 50
123.5572123136
 51
124.1210936517
  0
ARC
  5
4D2
100
AcDbEntity
  8
TRASH
100
AcDbCircle
 62
7
  6
CONTINUOUS
 10
36.0750675676
 20
0.208150391
 40
28.0
100
AcDbArc
 50
235.8789063483
 51
236.4427876864
  0
ARC
  5
4D3
100
AcDbEntity
  8
TRASH
100
AcDbCircle
 62
7
  6
CONTINUOUS
 10
36.0750675676
 20
0.208150391
 40
28.0
100
AcDbArc
 50
233.1385891949
 51
234.0372348486
  0
ARC
  5
4D4
100
AcDbEntity
  8
RACCORDO
100
AcDbCircle
 62
250
  6
CONTINUOUS
 10
24.8250675676
 20
15.5721114217
 40
3.0894690552
100
AcDbArc
 50
45.0
 51
135.0
  0
ARC
  5
4D5
100
AcDbEntity
  8
RACCORDO
100
AcDbCircle
 62
250
  6
CONTINUOUS
 10
24.8250675676
 20
15.5721114217
 40
2.8894980349
100
AcDbArc
 50
45.0
 51
135.0
  0
CIRCLE
  5
4D6
100
AcDbEntity
  8
RACCORDO
100
AcDbCircle
 62
250
  6
CONTINUOUS
 10
24.8250675676
 20
9.708150391
 40
2.6024666578
  0
ARC
  5
4D7
100
AcDbEntity
  8
0
100
AcDbCircle
 62
7
  6
CONTINUOUS
 10
24.8250675676
 20
9.008150391
 40
2.6
100
AcDbArc
 50
90.0
 51
138.4248949996
  0
ARC
  5
4D8
100
AcDbEntity
  8
0
100
AcDbCircle
 62
7
  6
CONTINUOUS
 10
24.8250675676
 20
9.008150391
 40
2.6
100
AcDbArc
 50
41.4327333964
 51
85.5623795422
  0
CIRCLE
  5
4D9
100
AcDbEntity
  8
RACCORDO
100
AcDbCircle
 62
7
  6
CONTINUOUS
 10
24.8250675676
 20
9.708150391
 40
2.2026485098
  0
CIRCLE
  5
4DA
100
AcDbEntity
  8
DRAFT
100
AcDbCircle
 62
7
  6
CONTINUOUS
 10
24.8250675676
 20
9.708150391
 40
2.2
  0
ARC
  5
4DB
100
AcDbEntity
  8
0
100
AcDbCircle
 62
7
  6
CONTINUOUS
 10
27.749105871
 20
8.908150391
 40
1.0
100
AcDbArc
 50
136.8446820299
 51
144.3146652873
  0
ARC
  5
4DC
100
AcDbEntity
  8
TRASH
100
AcDbCircle
 62
7
  6
CONTINUOUS
 10
29.7750675676
 20
23.308150391
 40
0.5
100
AcDbArc
 50
170.803718421
 51
299.112422776
  0
ELLIPSE
  5
4DD
100
AcDbEntity
  8
0
100
AcDbEllipse
 62
7
  6
CONTINUOUS
 10
14.1751437316
 20
22.107464218
 30
0.0
 11
-0.1582391023
 21
0.4751033573
 31
0.0
 40
0.9984778551
 41
-0.3210503505
 42
1.2488325878
  0
ELLIPSE
  5
4DE
100
AcDbEntity
  8
0
100
AcDbEllipse
 62
7
  6
CONTINUOUS
 10
14.1751437316
 20
-21.691163436
 30
0.0
 11
0.1582391023
 21
0.4751033573
 31
0.0
 40
0.9984778551
 41
-4.3904252414
 42
-2.8205423031
  0
ELLIPSE
  5
4DF
100
AcDbEntity
  8
0
100
AcDbEllipse
 62
7
  6
CONTINUOUS
 10
35.4749914035
 20
22.107464218
 30
0.0
 11
0.1582391023
 21
0.4751033573
 31
0.0
 40
0.9984778551
 41
-1.2488325878
 42
0.3210503505
  0
ELLIPSE
  5
4E0
100
AcDbEntity
  8
0
100
AcDbEllipse
 62
7
  6
CONTINUOUS
 10
35.4749914035
 20
-21.691163436
 30
0.0
 11
-0.1582391023
 21
0.4751033573
 31
0.0
 40
0.9984778551
 41
-3.4626430041
 42
-1.8927600658
  0
ELLIPSE
  5
4E1
100
AcDbEntity
  8
0
100
AcDbEllipse
 62
7
  6
CONTINUOUS
 10
23.9350675676
 20
11.008150391
 30
0.0
 11
0.01
 21
0.0
 31
0.0
 40
1.0
 41
1.5707963268
 42
3.1415926536
  0
ELLIPSE
  5
4E2
100
AcDbEntity
  8
0
100
AcDbEllipse
 62
7
  6
CONTINUOUS
 10
25.7150675676
 20
-10.591849609
 30
0.0
 11
0.01
 21
0.0
 31
0.0
 40
1.0
 41
-1.5707963268
 42
-0.0
  0
ENDSEC
  0
SECTION
  2
OBJECTS
  0
DICTIONARY
  5
C
100
AcDbDictionary
280
0
281
1
  3
ACAD_GROUP
350
D
  3
ACAD_MLINESTYLE
350
17
  3
ACAD_LAYOUT
350
1A
  3
ACAD_PLOTSETTINGS
350
19
  3
ACAD_PLOTSTYLENAME
350
E
  0
DICTIONARY
  5
D
102
{ACAD_REACTORS
330
C
102
}
100
AcDbDictionary
280
0
281
1
  0
ACDBDICTIONARYWDFLT
  5
E
102
{ACAD_REACTORS
330
C
102
}
100
AcDbDictionary
281
1
  3
Normal
350
F
100
AcDbDictionaryWithDefault
340
F
  0
DICTIONARY
  5
17
102
{ACAD_REACTORS
330
C
102
}
100
AcDbDictionary
280
0
281
1
  3
Standard
350
18
  0
DICTIONARY
  5
19
102
{ACAD_REACTORS
330
C
102
}
100
AcDbDictionary
281
1
  0
DICTIONARY
  5
1A
102
{ACAD_REACTORS
330
C
102
}
100
AcDbDictionary
281
1
  3
Model
350
4E3
  3
Layout1
350
4E4
  0
ACDBPLACEHOLDER
  5
F
102
{ACAD_REACTORS
330
E
102
}
  0
MLINESTYLE
  5
18
102
{ACAD_REACTORS
330
17
102
}
100
AcDbMlineStyle
  2
STANDARD
 70
0
  3

 62
256
 51
90.0
 52
90.0
 71
2
 49
0.5
 62
256
  6
BYLAYER
 49
-0.5
 62
256
  6
BYLAYER
  0
LAYOUT
  5
4E3
102
{ACAD_REACTORS
330
1A
102
}
100
AcDbPlotSettings
  1

  2
none_device
  4
ANSI_A_(11.00_x_8.50_Inches)
  6

 40
0.0
 41
0.0
 42
0.0
 43
0.0
 44
279.4
 45
215.9
 46
0.0
 47
0.0
 48
0.0
 49
0.0
140
0.0
141
0.0
142
1.0
143
1.0
 70
1024
 72
1
 73
0
 74
0
  7

 75
0
147
1.0
148
0.0
149
0.0
100
AcDbLayout
  1
Model
 70
0
 71
0
 10
0.0
 20
0.0
 11
279.4
 21
215.9
 12
0.0
 22
0.0
 32
0.0
 14
0.0
 24
0.0
 34
0.0
 15
0.0
 25
0.0
 35
0.0
146
0.0
 13
0.0
 23
0.0
 33
0.0
 16
1.0
 26
0.0
 36
0.0
 17
0.0
 27
1.0
 37
0.0
 76
0
330
217
345
0
346
0
  0
LAYOUT
  5
4E4
102
{ACAD_REACTORS
330
1A
102
}
100
AcDbPlotSettings
  1

  2
none_device
  4
ANSI_A_(11.00_x_8.50_Inches)
  6

 40
0.0
 41
0.0
 42
0.0
 43
0.0
 44
279.4
 45
215.9
 46
0.0
 47
0.0
 48
0.0
 49
0.0
140
0.0
141
0.0
142
1.0
143
1.0
 70
0
 72
1
 73
0
 74
0
  7

 75
0
147
1.0
148
0.0
149
0.0
100
AcDbLayout
  1
Layout1
 70
0
 71
1
 10
0.0
 20
0.0
 11
279.4
 21
215.9
 12
0.0
 22
0.0
 32
0.0
 14
0.0
 24
0.0
 34
0.0
 15
0.0
 25
0.0
 35
0.0
146
0.0
 13
0.0
 23
0.0
 33
0.0
 16
1.0
 26
0.0
 36
0.0
 17
0.0
 27
1.0
 37
0.0
 76
0
330
218
345
0
346
0
  0
ENDSEC
  0
EOF
