  0
SECTION
  2
HEADER
  9
$ACADVER
  1
AC1015
  9
$DWGCODEPAGE
  3
ANSI_1252
  9
$EXTMAX
 10
279.4
 20
215.9
 30
0.0
  9
$EXTMIN
 10
0.0
 20
0.0
 30
0.0
  9
$LIMMIN
 10
0.0
 20
0.0
  9
$LIMMAX
 10
279.4
 20
215.9
  9
$VIEWCTR
 10
139.7
 20
107.95
  9
$VIEWSIZE
 40
215.9
  9
$CLAYER
  8
0
  9
$LTSCALE
 40
15.367
  9
$CELTYPE
  6
BYLAYER
  9
$DIMSCALE
 40
1.0
  9
$DIMASZ
 40
3.0
  9
$DIMEXO
 40
1.74625
  9
$DIMDLI
 40
10.6172
  9
$DIMEXE
 40
5.0292
  9
$DIMCEN
 40
2.5146
  9
$DIMLFAC
 40
1.0
  9
$DIMBLK
  1
_FILLED
  9
$DIMTXT
 40
3.0
  9
$DIMTOL
 70
1
  9
$DIMLIM
 70
0
  9
$DIMTFAC
 40
1.0
  9
$DIMTP
 40
0.01
  9
$DIMTM
 40
0.01
  9
$PDMODE
 70
3
  9
$PDSIZE
 40
3.0
  9
$HANDSEED
  5
4C8
  9
$TILEMODE
 70
1
  9
$MEASUREMENT
 70
1
  9
$INSUNITS
 70
4
  0
ENDSEC
  0
SECTION
  2
CLASSES
  0
CLASS
  1
ACDBDICTIONARYWDFLT
  2
AcDbDictionaryWithDefault
  3
AutoCAD 2000
 90
0
280
0
281
0
  0
CLASS
  1
ACDBPLACEHOLDER
  2
AcDbPlaceHolder
  3
AutoCAD 2000
 90
0
280
0
281
0
  0
CLASS
  1
LAYOUT
  2
AcDbLayout
  3
AutoCAD 2000
 90
0
280
0
281
0
  0
ENDSEC
  0
SECTION
  2
TABLES
  0
TABLE
  2
VPORT
  5
8
100
AcDbSymbolTable
 70
2
  0
VPORT
  5
1F4
100
AcDbSymbolTableRecord
100
AcDbViewportTableRecord
  2
*ACTIVE
 70
0
 10
0.0
 20
0.0
 11
1.0
 21
1.0
 12
139.7
 22
107.95
 13
0.0
 23
0.0
 14
1.0
 24
1.0
 15
0.0
 25
0.0
 16
0.0
 26
0.0
 36
1.0
 17
0.0
 27
0.0
 37
0.0
 40
215.9
 41
1.2941176471
 42
50.0
 43
0.0
 44
0.0
 50
0.0
 51
0.0
 71
0
 72
100
 73
1
 74
1
 75
0
 76
0
 77
0
 78
0
  0
ENDTAB
  0
TABLE
  2
LTYPE
  5
5
100
AcDbSymbolTable
 70
6
  0
LTYPE
  5
14
100
AcDbSymbolTableRecord
100
AcDbLinetypeTableRecord
  2
BYBLOCK
 70
0
  3

 72
65
 73
0
 40
0.0
  0
LTYPE
  5
15
100
AcDbSymbolTableRecord
100
AcDbLinetypeTableRecord
  2
BYLAYER
 70
0
  3

 72
65
 73
0
 40
0.0
  0
LTYPE
  5
16
100
AcDbSymbolTableRecord
100
AcDbLinetypeTableRecord
  2
CONTINUOUS
 70
64
  3
Solid line
 72
65
 73
0
 40
0.0
  0
LTYPE
  5
1F5
100
AcDbSymbolTableRecord
100
AcDbLinetypeTableRecord
  2
CENTER
 70
64
  3
____ _ ____ _ ____ _ ____ _ ____ _ ____ _ ____
 72
65
 73
4
 40
0.6
 49
0.375
 74
0
 49
-0.075
 74
0
 49
0.075
 74
0
 49
-0.075
 74
0
  0
LTYPE
  5
1F6
100
AcDbSymbolTableRecord
100
AcDbLinetypeTableRecord
  2
HIDDEN
 70
64
  3
- - - - - - - - - - - - - - - - - - - -
 72
65
 73
2
 40
0.2
 49
0.1
 74
0
 49
-0.1
 74
0
  0
LTYPE
  5
1F7
100
AcDbSymbolTableRecord
100
AcDbLinetypeTableRecord
  2
PHANTOM
 70
64
  3
_____ _ _ _____ _ _ _____ _ _ _____
 72
65
 73
6
 40
0.8
 49
0.45
 74
0
 49
-0.05
 74
0
 49
0.1
 74
0
 49
-0.05
 74
0
 49
0.1
 74
0
 49
-0.05
 74
0
  0
LTYPE
  5
1F8
100
AcDbSymbolTableRecord
100
AcDbLinetypeTableRecord
  2
DOT
 70
64
  3
. . . . . . . . . . . . . . . . . . . .
 72
65
 73
2
 40
0.2
 49
0.1
 74
0
 49
-0.1
 74
0
  0
LTYPE
  5
1F9
100
AcDbSymbolTableRecord
100
AcDbLinetypeTableRecord
  2
DASHED
 70
64
  3
- - - - - - - - - - - - - - - - - - - -
 72
65
 73
2
 40
0.2
 49
0.1
 74
0
 49
-0.1
 74
0
  0
ENDTAB
  0
TABLE
  2
LAYER
  5
2
100
AcDbSymbolTable
 70
36
  0
LAYER
  5
10
100
AcDbSymbolTableRecord
100
AcDbLayerTableRecord
  2
0
 70
0
 62
7
  6
CONTINUOUS
370
-3
390
F
  0
LAYER
  5
1FA
100
AcDbSymbolTableRecord
100
AcDbLayerTableRecord
  2
DEFAULT_1
 70
0
 62
7
  6
CENTER
370
-3
390
F
  0
LAYER
  5
1FB
100
AcDbSymbolTableRecord
100
AcDbLayerTableRecord
  2
DEFAULT_2
 70
0
 62
7
  6
HIDDEN
370
-3
390
F
  0
LAYER
  5
1FC
100
AcDbSymbolTableRecord
100
AcDbLayerTableRecord
  2
DEFAULT_3
 70
0
 62
7
  6
PHANTOM
370
-3
390
F
  0
LAYER
  5
1FD
100
AcDbSymbolTableRecord
100
AcDbLayerTableRecord
  2
ASSI
 70
0
 62
7
  6
CONTINUOUS
370
-3
390
F
  0
LAYER
  5
1FE
100
AcDbSymbolTableRecord
100
AcDbLayerTableRecord
  2
COORDINATE
 70
0
 62
7
  6
CONTINUOUS
370
-3
390
F
  0
LAYER
  5
1FF
100
AcDbSymbolTableRecord
100
AcDbLayerTableRecord
  2
COORD_ORIGINE
 70
0
 62
7
  6
CONTINUOUS
370
-3
390
F
  0
LAYER
  5
200
100
AcDbSymbolTableRecord
100
AcDbLayerTableRecord
  2
COPY-PUBBLISH
 70
0
 62
7
  6
CONTINUOUS
370
-3
390
F
  0
LAYER
  5
201
100
AcDbSymbolTableRecord
100
AcDbLayerTableRecord
  2
COPY_PUBLISH
 70
0
 62
7
  6
CONTINUOUS
370
-3
390
F
  0
LAYER
  5
202
100
AcDbSymbolTableRecord
100
AcDbLayerTableRecord
  2
COSMETIC
 70
0
 62
7
  6
CONTINUOUS
370
-3
390
F
  0
LAYER
  5
203
100
AcDbSymbolTableRecord
100
AcDbLayerTableRecord
  2
COSMETICHE
 70
0
 62
7
  6
CONTINUOUS
370
-3
390
F
  0
LAYER
  5
204
100
AcDbSymbolTableRecord
100
AcDbLayerTableRecord
  2
CURVE
 70
0
 62
7
  6
CONTINUOUS
370
-3
390
F
  0
LAYER
  5
205
100
AcDbSymbolTableRecord
100
AcDbLayerTableRecord
  2
DRAFT
 70
0
 62
7
  6
CONTINUOUS
370
-3
390
F
  0
LAYER
  5
206
100
AcDbSymbolTableRecord
100
AcDbLayerTableRecord
  2
IMPORT_IGES
 70
0
 62
7
  6
CONTINUOUS
370
-3
390
F
  0
LAYER
  5
207
100
AcDbSymbolTableRecord
100
AcDbLayerTableRecord
  2
INTF_1
 70
0
 62
7
  6
CONTINUOUS
370
-3
390
F
  0
LAYER
  5
208
100
AcDbSymbolTableRecord
100
AcDbLayerTableRecord
  2
INTF_11
 70
0
 62
7
  6
CONTINUOUS
370
-3
390
F
  0
LAYER
  5
209
100
AcDbSymbolTableRecord
100
AcDbLayerTableRecord
  2
NOTE
 70
0
 62
7
  6
CONTINUOUS
370
-3
390
F
  0
LAYER
  5
20A
100
AcDbSymbolTableRecord
100
AcDbLayerTableRecord
  2
PIANI
 70
0
 62
7
  6
CONTINUOUS
370
-3
390
F
  0
LAYER
  5
20B
100
AcDbSymbolTableRecord
100
AcDbLayerTableRecord
  2
PIANI_ORIGINE
 70
0
 62
7
  6
CONTINUOUS
370
-3
390
F
  0
LAYER
  5
20C
100
AcDbSymbolTableRecord
100
AcDbLayerTableRecord
  2
PUNTI
 70
0
 62
7
  6
CONTINUOUS
370
-3
390
F
  0
LAYER
  5
20D
100
AcDbSymbolTableRecord
100
AcDbLayerTableRecord
  2
RACCORDO
 70
0
 62
7
  6
CONTINUOUS
370
-3
390
F
  0
LAYER
  5
20E
100
AcDbSymbolTableRecord
100
AcDbLayerTableRecord
  2
RGB____0____0____0__
 70
0
 62
7
  6
CONTINUOUS
370
-3
390
F
  0
LAYER
  5
20F
100
AcDbSymbolTableRecord
100
AcDbLayerTableRecord
  2
SMUSSO
 70
0
 62
7
  6
CONTINUOUS
370
-3
390
F
  0
LAYER
  5
210
100
AcDbSymbolTableRecord
100
AcDbLayerTableRecord
  2
SNAPLINE
 70
0
 62
7
  6
CONTINUOUS
370
-3
390
F
  0
LAYER
  5
211
100
AcDbSymbolTableRecord
100
AcDbLayerTableRecord
  2
SUP-SCAVI-INCLINATI
 70
0
 62
7
  6
CONTINUOUS
370
-3
390
F
  0
LAYER
  5
212
100
AcDbSymbolTableRecord
100
AcDbLayerTableRecord
  2
SUP-SCAVI-INCLINATI-SUP
 70
0
 62
7
  6
CONTINUOUS
370
-3
390
F
  0
LAYER
  5
213
100
AcDbSymbolTableRecord
100
AcDbLayerTableRecord
  2
SUPERFICI
 70
0
 62
7
  6
CONTINUOUS
370
-3
390
F
  0
LAYER
  5
214
100
AcDbSymbolTableRecord
100
AcDbLayerTableRecord
  2
TRASH
 70
0
 62
7
  6
CONTINUOUS
370
-3
390
F
  0
ENDTAB
  0
TABLE
  2
STYLE
  5
3
100
AcDbSymbolTable
 70
1
  0
STYLE
  5
11
100
AcDbSymbolTableRecord
100
AcDbTextStyleTableRecord
  2
STANDARD
 70
0
 40
0.0
 41
0.8
 50
0.0
 71
0
 42
0.2
  3
txt
  4

  0
STYLE
  5
215
100
AcDbSymbolTableRecord
100
AcDbTextStyleTableRecord
  2
TEXTSTYLE_1
 70
0
 40
0.0
 41
0.8
 50
0.0
 71
0
 42
0.2
  3
gdt
  4

  0
ENDTAB
  0
TABLE
  2
VIEW
  5
6
100
AcDbSymbolTable
 70
0
  0
ENDTAB
  0
TABLE
  2
UCS
  5
7
100
AcDbSymbolTable
 70
0
  0
ENDTAB
  0
TABLE
  2
APPID
  5
9
100
AcDbSymbolTable
 70
1
  0
APPID
  5
216
100
AcDbSymbolTableRecord
100
AcDbRegAppTableRecord
  2
ACAD
 70
0
  0
ENDTAB
  0
TABLE
  2
BLOCK_RECORD
  5
1
100
AcDbSymbolTable
 70
0
  0
BLOCK_RECORD
  5
217
100
AcDbSymbolTableRecord
100
AcDbBlockTableRecord
  2
*Model_Space
  0
BLOCK_RECORD
  5
218
100
AcDbSymbolTableRecord
100
AcDbBlockTableRecord
  2
*Paper_Space
  0
BLOCK_RECORD
  5
219
100
AcDbSymbolTableRecord
100
AcDbBlockTableRecord
  2
_FILLED
  0
BLOCK_RECORD
  5
21A
100
AcDbSymbolTableRecord
100
AcDbBlockTableRecord
  2
*D0
  0
BLOCK_RECORD
  5
21B
100
AcDbSymbolTableRecord
100
AcDbBlockTableRecord
  2
*D1
  0
BLOCK_RECORD
  5
21C
100
AcDbSymbolTableRecord
100
AcDbBlockTableRecord
  2
*D2
  0
BLOCK_RECORD
  5
21D
100
AcDbSymbolTableRecord
100
AcDbBlockTableRecord
  2
*D3
  0
ENDTAB
  0
TABLE
  2
DIMSTYLE
  5
A
100
AcDbSymbolTable
 70
1
100
AcDbDimStyleTable
 71
0
  0
DIMSTYLE
105
21E
100
AcDbSymbolTableRecord
100
AcDbDimStyleTableRecord
  2
STANDARD
 70
0
  3

  4

 40
1.0
 41
3.0
 42
0.0625
 43
0.38
 44
0.18
 45
0.0
 46
0.0
 47
0.01
 48
0.01
140
3.0
141
0.09
142
0.0
143
25.4
144
1.0
145
0.0
146
1.0
147
0.09
 71
1.0
 72
0.0
 73
0
 74
0
 75
0
 76
0
 77
1
 78
8
170
0
171
2
172
0
173
0
174
0
175
0
176
0
177
0
178
0
270
2
271
2
272
2
273
2
274
2
275
0
280
0
281
0
282
0
283
1
284
8
285
0
286
0
287
3
288
0
340
11
341
219
342
219
343
219
344
219
  0
DIMSTYLE
105
21F
100
AcDbSymbolTableRecord
100
AcDbDimStyleTableRecord
  2
DIMSTYLE_1
 70
0
  3

  4

 40
1.0
 41
3.0
 42
0.0625
 43
0.38
 44
0.18
 45
0.0
 46
0.0
 47
0.0
 48
0.0
140
3.0
141
0.09
142
0.0
143
25.4
144
1.0
145
0.0
146
1.0
147
0.09
 71
0.0
 72
0.0
 73
0
 74
0
 75
0
 76
0
 77
1
 78
8
170
0
171
2
172
0
173
0
174
0
175
0
176
0
177
0
178
0
270
2
271
2
272
2
273
2
274
2
275
0
280
0
281
0
282
0
283
1
284
8
285
0
286
0
287
3
288
0
340
11
341
219
342
219
343
219
344
219
  0
ENDTAB
  0
ENDSEC
  0
SECTION
  2
BLOCKS
  0
BLOCK
  5
20
100
AcDbEntity
  8
0
100
AcDbBlockBegin
  2
*Model_Space
 70
0
 10
0.0
 20
0.0
 30
0.0
  3
*Model_Space
  1

  0
ENDBLK
  5
21
100
AcDbEntity
  8
0
100
AcDbBlockEnd
  0
BLOCK
  5
1C
100
AcDbEntity
  8
0
100
AcDbBlockBegin
  2
*Paper_Space
 70
0
 10
0.0
 20
0.0
 30
0.0
  3
*Paper_Space
  1

  0
ENDBLK
  5
1D
100
AcDbEntity
  8
0
100
AcDbBlockEnd
  0
BLOCK
  5
220
100
AcDbEntity
  8
0
100
AcDbBlockBegin
  2
_FILLED
 70
64
 10
0.0
 20
0.0
  3
_FILLED
  1

  0
SOLID
  5
221
100
AcDbEntity
  8
0
  6
BYBLOCK
 62
0
100
AcDbTrace
 10
0.0
 20
0.0
 11
-1.0
 21
0.3166666667
 12
-1.0
 22
-0.3166666667
 13
-1.0
 23
-0.3166666667
  0
ENDBLK
  5
222
100
AcDbEntity
  8
0
  6
BYBLOCK
 62
0
100
AcDbBlockEnd
  0
BLOCK
  5
223
100
AcDbEntity
  8
0
100
AcDbBlockBegin
 62
7
  6
CONTINUOUS
  2
*D0
 70
65
 10
0.0
 20
0.0
  3
*D0
  1

  0
MTEXT
  5
224
100
AcDbEntity
  8
0
100
AcDbMText
 62
7
  6
CONTINUOUS
  7
STANDARD
 71
2
 72
1
 10
-12.6489733909
 20
35.2367323285
 30
0.0
 11
1.0
 21
0.0
 31
0.0
 44
0.9
  1
32,5
 40
3.0
 41
8.3571428571
  0
LINE
  5
225
100
AcDbEntity
  8
0
100
AcDbLine
 62
7
  6
CONTINUOUS
 10
3.6010266045
 20
14.0243936678
 11
3.6010266045
 21
32.9867323285
  0
LINE
  5
226
100
AcDbEntity
  8
0
100
AcDbLine
 62
7
  6
CONTINUOUS
 10
-28.8989733863
 20
23.9208708645
 11
-28.8989733863
 21
32.9867323285
  0
LINE
  5
227
100
AcDbEntity
  8
0
100
AcDbLine
 62
7
  6
CONTINUOUS
 10
3.6010266045
 20
31.4867323285
 11
-12.6489733909
 21
31.4867323285
  0
LINE
  5
228
100
AcDbEntity
  8
0
100
AcDbLine
 62
7
  6
CONTINUOUS
 10
-28.8989733863
 20
31.4867323285
 11
-12.6489733909
 21
31.4867323285
  0
INSERT
  5
229
100
AcDbEntity
  8
0
100
AcDbBlockReference
 62
7
  6
CONTINUOUS
  2
_FILLED
 10
3.6010266045
 20
31.4867323285
 41
3.0
 42
3.0
 43
3.0
 50
0.0
  0
INSERT
  5
22A
100
AcDbEntity
  8
0
100
AcDbBlockReference
 62
7
  6
CONTINUOUS
  2
_FILLED
 10
-28.8989733863
 20
31.4867323285
 41
3.0
 42
3.0
 43
3.0
 50
180.0
  0
ENDBLK
  5
22B
100
AcDbEntity
  8
0
  6
BYBLOCK
 62
0
100
AcDbBlockEnd
  0
BLOCK
  5
22C
100
AcDbEntity
  8
0
100
AcDbBlockBegin
 62
7
  6
CONTINUOUS
  2
*D1
 70
65
 10
0.0
 20
0.0
  3
*D1
  1

  0
MTEXT
  5
22D
100
AcDbEntity
  8
0
100
AcDbMText
 62
7
  6
CONTINUOUS
  7
STANDARD
 71
2
 72
1
 10
-17.3989733909
 20
45.2367323285
 30
0.0
 11
1.0
 21
0.0
 31
0.0
 44
0.9
  1
42
 40
3.0
 41
4.7142857143
  0
LINE
  5
22E
100
AcDbEntity
  8
0
100
AcDbLine
 62
7
  6
CONTINUOUS
 10
3.6010266045
 20
14.0243936678
 11
3.6010266045
 21
42.9867323285
  0
LINE
  5
22F
100
AcDbEntity
  8
0
100
AcDbLine
 62
7
  6
CONTINUOUS
 10
-38.3989733863
 20
0.4867323285
 11
-38.3989733863
 21
42.9867323285
  0
LINE
  5
230
100
AcDbEntity
  8
0
100
AcDbLine
 62
7
  6
CONTINUOUS
 10
3.6010266045
 20
41.4867323285
 11
-17.3989733909
 21
41.4867323285
  0
LINE
  5
231
100
AcDbEntity
  8
0
100
AcDbLine
 62
7
  6
CONTINUOUS
 10
-38.3989733863
 20
41.4867323285
 11
-17.3989733909
 21
41.4867323285
  0
INSERT
  5
232
100
AcDbEntity
  8
0
100
AcDbBlockReference
 62
7
  6
CONTINUOUS
  2
_FILLED
 10
3.6010266045
 20
41.4867323285
 41
3.0
 42
3.0
 43
3.0
 50
0.0
  0
INSERT
  5
233
100
AcDbEntity
  8
0
100
AcDbBlockReference
 62
7
  6
CONTINUOUS
  2
_FILLED
 10
-38.3989733863
 20
41.4867323285
 41
3.0
 42
3.0
 43
3.0
 50
180.0
  0
ENDBLK
  5
234
100
AcDbEntity
  8
0
  6
BYBLOCK
 62
0
100
AcDbBlockEnd
  0
BLOCK
  5
235
100
AcDbEntity
  8
0
100
AcDbBlockBegin
 62
7
  6
CONTINUOUS
  2
*D2
 70
65
 10
0.0
 20
0.0
  3
*D2
  1

  0
MTEXT
  5
236
100
AcDbEntity
  8
0
100
AcDbMText
 62
7
  6
CONTINUOUS
  7
STANDARD
 71
2
 72
1
 10
25.9494928274
 20
35.2367323285
 30
0.0
 11
1.0
 21
0.0
 31
0.0
 44
0.9
  1
22,3
 40
3.0
 41
8.5714285714
  0
LINE
  5
237
100
AcDbEntity
  8
0
100
AcDbLine
 62
7
  6
CONTINUOUS
 10
37.0994928274
 20
22.3865034764
 11
37.0994928274
 21
32.9867323285
  0
LINE
  5
238
100
AcDbEntity
  8
0
100
AcDbLine
 62
7
  6
CONTINUOUS
 10
14.7994928274
 20
22.3865034764
 11
14.7994928274
 21
32.9867323285
  0
LINE
  5
239
100
AcDbEntity
  8
0
100
AcDbLine
 62
7
  6
CONTINUOUS
 10
37.0994928274
 20
31.4867323285
 11
25.9494928274
 21
31.4867323285
  0
LINE
  5
23A
100
AcDbEntity
  8
0
100
AcDbLine
 62
7
  6
CONTINUOUS
 10
14.7994928274
 20
31.4867323285
 11
25.9494928274
 21
31.4867323285
  0
INSERT
  5
23B
100
AcDbEntity
  8
0
100
AcDbBlockReference
 62
7
  6
CONTINUOUS
  2
_FILLED
 10
37.0994928274
 20
31.4867323285
 41
3.0
 42
3.0
 43
3.0
  0
INSERT
  5
23C
100
AcDbEntity
  8
0
100
AcDbBlockReference
 62
7
  6
CONTINUOUS
  2
_FILLED
 10
14.7994928274
 20
31.4867323285
 41
3.0
 42
3.0
 43
3.0
 50
180.0
  0
ENDBLK
  5
23D
100
AcDbEntity
  8
0
  6
BYBLOCK
 62
0
100
AcDbBlockEnd
  0
BLOCK
  5
23E
100
AcDbEntity
  8
0
100
AcDbBlockBegin
 62
7
  6
CONTINUOUS
  2
*D3
 70
65
 10
0.0
 20
0.0
  3
*D3
  1

  0
MTEXT
  5
23F
100
AcDbEntity
  8
0
100
AcDbMText
 62
7
  6
CONTINUOUS
  7
STANDARD
 71
2
 72
1
 10
41.3494928274
 20
-0.0132676715
 30
0.0
 11
0.0
 21
1.0
 31
0.0
 44
0.9
  1
47
 40
3.0
 41
4.7142857143
  0
LINE
  5
240
100
AcDbEntity
  8
0
100
AcDbLine
 62
7
  6
CONTINUOUS
 10
30.1243503056
 20
23.4867323285
 11
46.5994928274
 21
23.4867323285
  0
LINE
  5
241
100
AcDbEntity
  8
0
100
AcDbLine
 62
7
  6
CONTINUOUS
 10
30.1243503056
 20
-23.5132676715
 11
46.5994928274
 21
-23.5132676715
  0
LINE
  5
242
100
AcDbEntity
  8
0
100
AcDbLine
 62
7
  6
CONTINUOUS
 10
45.0994928274
 20
23.4867323285
 11
45.0994928274
 21
-0.0132676715
  0
LINE
  5
243
100
AcDbEntity
  8
0
100
AcDbLine
 62
7
  6
CONTINUOUS
 10
45.0994928274
 20
-23.5132676715
 11
45.0994928274
 21
-0.0132676715
  0
INSERT
  5
244
100
AcDbEntity
  8
0
100
AcDbBlockReference
 62
7
  6
CONTINUOUS
  2
_FILLED
 10
45.0994928274
 20
23.4867323285
 41
3.0
 42
3.0
 43
3.0
 50
90.0
  0
INSERT
  5
245
100
AcDbEntity
  8
0
100
AcDbBlockReference
 62
7
  6
CONTINUOUS
  2
_FILLED
 10
45.0994928274
 20
-23.5132676715
 41
3.0
 42
3.0
 43
3.0
 50
270.0
  0
ENDBLK
  5
246
100
AcDbEntity
  8
0
  6
BYBLOCK
 62
0
100
AcDbBlockEnd
  0
ENDSEC
  0
SECTION
  2
ENTITIES
  0
DIMENSION
  5
247
100
AcDbEntity
  8
0
100
AcDbDimension
 62
7
  6
CONTINUOUS
  2
*D0
 10
-28.8989733863
 20
31.4867323285
 11
-16.8275448195
 21
33.7367323285
 70
160
 71
2
 42
32.4999999908
  3
DIMSTYLE_1
100
AcDbAlignedDimension
 13
3.6010266045
 23
14.0243936678
 14
-28.8989733863
 24
23.9208708645
 50
180.0
100
AcDbRotatedDimension
  0
DIMENSION
  5
248
100
AcDbEntity
  8
0
100
AcDbDimension
 62
7
  6
CONTINUOUS
  2
*D1
 10
-38.3989733863
 20
41.4867323285
 11
-19.7561162481
 21
43.7367323285
 70
160
 71
2
 42
41.9999999908
  3
DIMSTYLE_1
100
AcDbAlignedDimension
 13
3.6010266045
 23
14.0243936678
 14
-38.3989733863
 24
0.4867323285
 50
180.0
100
AcDbRotatedDimension
  0
DIMENSION
  5
249
100
AcDbEntity
  8
0
100
AcDbDimension
 62
7
  6
CONTINUOUS
  2
*D2
 10
14.7994928274
 20
31.4867323285
 11
21.6637785417
 21
33.7367323285
 70
160
 71
2
 42
22.3
  3
DIMSTYLE_1
100
AcDbAlignedDimension
 13
37.0994928274
 23
22.3865034764
 14
14.7994928274
 24
22.3865034764
 50
180.0
100
AcDbRotatedDimension
  0
DIMENSION
  5
24A
100
AcDbEntity
  8
0
100
AcDbDimension
 62
7
  6
CONTINUOUS
  2
*D3
 10
45.0994928274
 20
-23.5132676715
 11
43.9056663512
 21
-2.1205455214
 70
160
 71
2
 42
47.0
  3
DIMSTYLE_1
100
AcDbAlignedDimension
 13
30.1243503056
 23
23.4867323285
 14
30.1243503056
 24
-23.5132676715
 50
270.0
100
AcDbRotatedDimension
  0
LINE
  5
24B
100
AcDbEntity
  8
TRASH
100
AcDbLine
 62
7
  6
CONTINUOUS
 10
-24.8989733863
 20
-23.4434474118
 11
-28.8989733863
 21
-23.5132676715
  0
LINE
  5
24C
100
AcDbEntity
  8
TRASH
100
AcDbLine
 62
253
  6
CONTINUOUS
 10
-24.8989733863
 20
-23.2763750333
 11
-28.8989733863
 21
-23.346627329
  0
LINE
  5
24D
100
AcDbEntity
  8
0
100
AcDbLine
 62
7
  6
CONTINUOUS
 10
-37.0102284062
 20
-21.9881748087
 11
-28.8989733863
 21
-22.4132676715
  0
LINE
  5
24E
100
AcDbEntity
  8
RACCORDO
100
AcDbLine
 62
7
  6
CONTINUOUS
 10
-20.9281185884
 20
-21.1439561432
 11
-24.7024638676
 21
-21.2098375851
  0
LINE
  5
24F
100
AcDbEntity
  8
RACCORDO
100
AcDbLine
 62
253
  6
CONTINUOUS
 10
-20.9279348778
 20
-21.0209828566
 11
-24.7024638676
 21
-21.0871628952
  0
LINE
  5
250
100
AcDbEntity
  8
TRASH
100
AcDbLine
 62
7
  6
CONTINUOUS
 10
-22.7494779024
 20
-22.2132676715
 11
-23.2989733863
 21
-22.2132676715
  0
LINE
  5
251
100
AcDbEntity
  8
0
100
AcDbLine
 62
253
  6
CONTINUOUS
 10
-36.9927866313
 20
-21.4888600413
 11
-28.8989733863
 21
-21.9130388195
  0
LINE
  5
252
100
AcDbEntity
  8
0
100
AcDbLine
 62
253
  6
CONTINUOUS
 10
-37.4661766883
 20
-21.0105635882
 11
-37.9570028507
 21
-21.0315816655
  0
LINE
  5
253
100
AcDbEntity
  8
RACCORDO
100
AcDbLine
 62
7
  6
CONTINUOUS
 10
2.1097528169
 20
-15.9989241864
 11
-15.696991041
 21
-16.3097420566
  0
LINE
  5
254
100
AcDbEntity
  8
RACCORDO
100
AcDbLine
 62
253
  6
CONTINUOUS
 10
2.1097528169
 20
-15.4990003388
 11
-15.696991041
 21
-15.809818209
  0
LINE
  5
255
100
AcDbEntity
  8
RACCORDO
100
AcDbLine
 62
253
  6
CONTINUOUS
 10
2.6010266137
 20
-15.4990003388
 11
2.1097528169
 21
-15.4990003384
  0
LINE
  5
256
100
AcDbEntity
  8
DRAFT
100
AcDbLine
 62
7
  6
CONTINUOUS
 10
2.895795893
 20
-13.8581224546
 11
3.3062640799
 21
-13.8509577058
  0
LINE
  5
257
100
AcDbEntity
  8
TRASH
100
AcDbLine
 62
7
  6
CONTINUOUS
 10
-28.8989733863
 20
23.4867323285
 11
-28.8989733863
 21
22.3867323285
  0
LINE
  5
258
100
AcDbEntity
  8
TRASH
100
AcDbLine
 62
7
  6
CONTINUOUS
 10
-28.8989733863
 20
-23.5132676715
 11
-28.8989733863
 21
-22.1635551091
  0
LINE
  5
259
100
AcDbEntity
  8
0
100
AcDbLine
 62
7
  6
CONTINUOUS
 10
-28.8989733863
 20
22.3867323285
 11
-28.8989733863
 21
-22.4132676715
  0
LINE
  5
25A
100
AcDbEntity
  8
TRASH
100
AcDbLine
 62
7
  6
CONTINUOUS
 10
-28.8989733863
 20
-16.1329268375
 11
-28.8989733863
 21
16.1063914945
  0
LINE
  5
25B
100
AcDbEntity
  8
RACCORDO
100
AcDbLine
 62
253
  6
CONTINUOUS
 10
2.5872684859
 20
-11.1132676715
 11
3.6010266137
 21
-11.1132676715
  0
LINE
  5
25C
100
AcDbEntity
  8
RACCORDO
100
AcDbLine
 62
253
  6
CONTINUOUS
 10
2.5872684859
 20
-9.0132676715
 11
3.6010266137
 21
-9.0132676715
  0
LINE
  5
25D
100
AcDbEntity
  8
RACCORDO
100
AcDbLine
 62
7
  6
CONTINUOUS
 10
-24.8989733863
 20
-22.6431342742
 11
-24.8989733863
 21
-21.4098071241
  0
LINE
  5
25E
100
AcDbEntity
  8
TRASH
100
AcDbLine
 62
7
  6
CONTINUOUS
 10
-24.8989733863
 20
-22.6431342742
 11
-24.8989733863
 21
-23.4434474118
  0
LINE
  5
25F
100
AcDbEntity
  8
RACCORDO
100
AcDbLine
 62
7
  6
CONTINUOUS
 10
-24.8989733863
 20
21.3832717811
 11
-24.8989733863
 21
22.6165989311
  0
LINE
  5
260
100
AcDbEntity
  8
TRASH
100
AcDbLine
 62
7
  6
CONTINUOUS
 10
-24.8989733863
 20
22.586745087
 11
-24.8989733863
 21
23.4169120688
  0
LINE
  5
261
100
AcDbEntity
  8
TRASH
100
AcDbLine
 62
7
  6
CONTINUOUS
 10
-23.2989733863
 20
22.1867323285
 11
-23.2989733863
 21
21.1588042246
  0
LINE
  5
262
100
AcDbEntity
  8
TRASH
100
AcDbLine
 62
7
  6
CONTINUOUS
 10
-23.2989733863
 20
-22.2132676715
 11
-23.2989733863
 21
-21.1853395676
  0
LINE
  5
263
100
AcDbEntity
  8
DRAFT
100
AcDbLine
 62
7
  6
CONTINUOUS
 10
2.8957957767
 20
-3.9581224566
 11
3.3062665468
 21
-3.9509576627
  0
LINE
  5
264
100
AcDbEntity
  8
DRAFT
100
AcDbLine
 62
7
  6
CONTINUOUS
 10
2.8957924351
 20
-6.2684128281
 11
3.3062623648
 21
-6.2755776073
  0
LINE
  5
265
100
AcDbEntity
  8
RACCORDO
100
AcDbLine
 62
253
  6
CONTINUOUS
 10
3.6010266137
 20
-1.2132676715
 11
2.6010266137
 21
-1.2132676715
  0
LINE
  5
266
100
AcDbEntity
  8
RACCORDO
100
AcDbLine
 62
253
  6
CONTINUOUS
 10
2.6010266137
 20
0.5867323285
 11
3.6010266137
 21
0.5867323285
  0
LINE
  5
267
100
AcDbEntity
  8
DRAFT
100
AcDbLine
 62
7
  6
CONTINUOUS
 10
2.8957959812
 20
3.33158711
 11
3.3062634797
 21
3.3244223732
  0
LINE
  5
268
100
AcDbEntity
  8
DRAFT
100
AcDbLine
 62
7
  6
CONTINUOUS
 10
2.8957957767
 20
6.2418775434
 11
3.3062665468
 21
6.2490423373
  0
LINE
  5
269
100
AcDbEntity
  8
RACCORDO
100
AcDbLine
 62
253
  6
CONTINUOUS
 10
3.6010266137
 20
8.9867323285
 11
2.6010266137
 21
8.9867323285
  0
LINE
  5
26A
100
AcDbEntity
  8
RACCORDO
100
AcDbLine
 62
7
  6
CONTINUOUS
 10
-16.0418182283
 20
-16.4561125136
 11
-21.255043888
 21
-21.6693381732
  0
LINE
  5
26B
100
AcDbEntity
  8
RACCORDO
100
AcDbLine
 62
253
  6
CONTINUOUS
 10
2.6010266137
 20
11.0867323285
 11
3.6010266137
 21
11.0867323285
  0
LINE
  5
26C
100
AcDbEntity
  8
RACCORDO
100
AcDbLine
 62
7
  6
CONTINUOUS
 10
-21.255043888
 20
21.6428028302
 11
-16.0418182283
 21
16.4295771705
  0
LINE
  5
26D
100
AcDbEntity
  8
DRAFT
100
AcDbLine
 62
7
  6
CONTINUOUS
 10
2.8957959812
 20
13.83158711
 11
3.3062634797
 21
13.8244223732
  0
LINE
  5
26E
100
AcDbEntity
  8
RACCORDO
100
AcDbLine
 62
253
  6
CONTINUOUS
 10
2.6010266137
 20
15.4724649958
 11
2.1097528169
 21
15.4724649958
  0
LINE
  5
26F
100
AcDbEntity
  8
RACCORDO
100
AcDbLine
 62
253
  6
CONTINUOUS
 10
-15.696991041
 20
15.783282866
 11
2.1097528169
 21
15.4724649958
  0
LINE
  5
270
100
AcDbEntity
  8
RACCORDO
100
AcDbLine
 62
7
  6
CONTINUOUS
 10
-15.696991041
 20
16.2832067135
 11
2.1097528169
 21
15.9723888433
  0
LINE
  5
271
100
AcDbEntity
  8
TRASH
100
AcDbLine
 62
7
  6
CONTINUOUS
 10
-21.255043888
 20
-21.6693381732
 11
-22.7494779024
 21
-22.2132676715
  0
LINE
  5
272
100
AcDbEntity
  8
TRASH
100
AcDbLine
 62
7
  6
CONTINUOUS
 10
-21.255043888
 20
21.6428028302
 11
-22.7494779024
 21
22.1867323285
  0
LINE
  5
273
100
AcDbEntity
  8
RACCORDO
100
AcDbLine
 62
253
  6
CONTINUOUS
 10
2.1097528169
 20
15.4724649958
 11
2.1097528169
 21
-15.4990003388
  0
LINE
  5
274
100
AcDbEntity
  8
RACCORDO
100
AcDbLine
 62
253
  6
CONTINUOUS
 10
2.5872684859
 20
-9.0132676715
 11
2.5872684859
 21
-11.1132676715
  0
LINE
  5
275
100
AcDbEntity
  8
RACCORDO
100
AcDbLine
 62
7
  6
CONTINUOUS
 10
2.6010266137
 20
15.4724649958
 11
2.6010266137
 21
-7.9653987353
  0
LINE
  5
276
100
AcDbEntity
  8
RACCORDO
100
AcDbLine
 62
7
  6
CONTINUOUS
 10
2.6010266137
 20
-12.1611366077
 11
2.6010266137
 21
-15.4990003388
  0
LINE
  5
277
100
AcDbEntity
  8
RACCORDO
100
AcDbLine
 62
253
  6
CONTINUOUS
 10
2.8737778873
 20
-9.0132214045
 11
2.8737778873
 21
-11.1132332027
  0
LINE
  5
278
100
AcDbEntity
  8
RACCORDO
100
AcDbLine
 62
253
  6
CONTINUOUS
 10
2.8957925672
 20
-6.2684188308
 11
2.8957908918
 21
-8.0686277995
  0
LINE
  5
279
100
AcDbEntity
  8
RACCORDO
100
AcDbLine
 62
253
  6
CONTINUOUS
 10
3.3062634798
 20
3.3244223732
 11
3.3062666921
 21
-3.9509576602
  0
LINE
  5
27A
100
AcDbEntity
  8
RACCORDO
100
AcDbLine
 62
253
  6
CONTINUOUS
 10
3.3062642875
 20
-13.8509532912
 11
3.3062623629
 21
-6.2755778002
  0
LINE
  5
27B
100
AcDbEntity
  8
RACCORDO
100
AcDbLine
 62
253
  6
CONTINUOUS
 10
3.3062634798
 20
13.8244223732
 11
3.3062666921
 21
6.2490423398
  0
LINE
  5
27C
100
AcDbEntity
  8
RACCORDO
100
AcDbLine
 62
7
  6
CONTINUOUS
 10
3.6010266137
 20
13.5244165776
 11
3.6010266137
 21
6.5491538497
  0
LINE
  5
27D
100
AcDbEntity
  8
RACCORDO
100
AcDbLine
 62
7
  6
CONTINUOUS
 10
3.6010266137
 20
3.0244165776
 11
3.6010266137
 21
-3.6508461503
  0
LINE
  5
27E
100
AcDbEntity
  8
RACCORDO
100
AcDbLine
 62
7
  6
CONTINUOUS
 10
3.6010266137
 20
-13.5520344003
 11
3.6010266137
 21
-6.5745009427
  0
LINE
  5
27F
100
AcDbEntity
  8
RACCORDO
100
AcDbLine
 62
253
  6
CONTINUOUS
 10
2.89579625
 20
13.8315849069
 11
2.8957960164
 21
6.241877549
  0
LINE
  5
280
100
AcDbEntity
  8
RACCORDO
100
AcDbLine
 62
253
  6
CONTINUOUS
 10
2.89579625
 20
3.3315849069
 11
2.8957960164
 21
-3.958122451
  0
LINE
  5
281
100
AcDbEntity
  8
RACCORDO
100
AcDbLine
 62
253
  6
CONTINUOUS
 10
2.8957908918
 20
-12.0579075435
 11
2.8957961134
 21
-13.8581224497
  0
LINE
  5
282
100
AcDbEntity
  8
RACCORDO
100
AcDbLine
 62
7
  6
CONTINUOUS
 10
-24.7024638676
 20
21.1833022421
 11
-20.9281185884
 21
21.1174208002
  0
LINE
  5
283
100
AcDbEntity
  8
RACCORDO
100
AcDbLine
 62
253
  6
CONTINUOUS
 10
-24.7024638676
 20
21.0606275522
 11
-20.9279348805
 21
20.994447517
  0
LINE
  5
284
100
AcDbEntity
  8
0
100
AcDbLine
 62
253
  6
CONTINUOUS
 10
-37.4661766883
 20
20.9840282452
 11
-37.9570085021
 21
21.0050465586
  0
LINE
  5
285
100
AcDbEntity
  8
0
100
AcDbLine
 62
253
  6
CONTINUOUS
 10
-28.8989733863
 20
21.8865034764
 11
-36.9927866313
 21
21.4623246983
  0
LINE
  5
286
100
AcDbEntity
  8
0
100
AcDbLine
 62
7
  6
CONTINUOUS
 10
-28.8989733863
 20
22.3867323285
 11
-37.0102284062
 21
21.9616394657
  0
LINE
  5
287
100
AcDbEntity
  8
TRASH
100
AcDbLine
 62
7
  6
CONTINUOUS
 10
-22.7494779024
 20
22.1867323285
 11
-23.2989733863
 21
22.1867323285
  0
LINE
  5
288
100
AcDbEntity
  8
TRASH
100
AcDbLine
 62
7
  6
CONTINUOUS
 10
-24.8989733863
 20
23.4169120688
 11
-28.8989733863
 21
23.4867323285
  0
LINE
  5
289
100
AcDbEntity
  8
TRASH
100
AcDbLine
 62
253
  6
CONTINUOUS
 10
-24.8989733863
 20
23.2498396903
 11
-28.8989733863
 21
23.320091986
  0
LINE
  5
28A
100
AcDbEntity
  8
TRASH
100
AcDbLine
 62
7
  6
CONTINUOUS
 10
29.6243503056
 20
-23.5132676715
 11
22.2746353493
 21
-23.5132676715
  0
LINE
  5
28B
100
AcDbEntity
  8
TRASH
100
AcDbLine
 62
7
  6
CONTINUOUS
 10
22.4796725677
 20
-22.5132676715
 11
29.4193130872
 21
-22.5132676715
  0
LINE
  5
28C
100
AcDbEntity
  8
0
100
AcDbLine
 62
7
  6
CONTINUOUS
 10
36.5998734272
 20
-22.4132676715
 11
29.2494928274
 21
-22.4132676715
  0
LINE
  5
28D
100
AcDbEntity
  8
0
100
AcDbLine
 62
7
  6
CONTINUOUS
 10
22.6494928274
 20
-22.4132676715
 11
15.2991122277
 21
-22.4132676715
  0
LINE
  5
28E
100
AcDbEntity
  8
0
100
AcDbLine
 62
253
  6
CONTINUOUS
 10
36.4582909442
 20
-21.9881748087
 11
15.4406947107
 21
-21.9881748087
  0
LINE
  5
28F
100
AcDbEntity
  8
0
100
AcDbLine
 62
253
  6
CONTINUOUS
 10
36.45002789
 20
-21.0315819024
 11
15.4489577649
 21
-21.0315819024
  0
LINE
  5
290
100
AcDbEntity
  8
0
100
AcDbLine
 62
7
  6
CONTINUOUS
 10
22.6494928274
 20
22.3867323285
 11
22.716125625
 21
22.4867323285
  0
LINE
  5
291
100
AcDbEntity
  8
RACCORDO
100
AcDbLine
 62
253
  6
CONTINUOUS
 10
18.0638814849
 20
11.8342510558
 11
23.7649083079
 21
17.5352778787
  0
LINE
  5
292
100
AcDbEntity
  8
RACCORDO
100
AcDbLine
 62
253
  6
CONTINUOUS
 10
18.205281302
 20
11.6928512387
 11
23.906308125
 21
17.3938780617
  0
LINE
  5
293
100
AcDbEntity
  8
RACCORDO
100
AcDbLine
 62
253
  6
CONTINUOUS
 10
23.7649083079
 20
-17.5618132218
 11
18.0638814849
 21
-11.8607863988
  0
LINE
  5
294
100
AcDbEntity
  8
RACCORDO
100
AcDbLine
 62
253
  6
CONTINUOUS
 10
23.906308125
 20
-17.4204134047
 11
18.205281302
 21
-11.7193865818
  0
LINE
  5
295
100
AcDbEntity
  8
0
100
AcDbLine
 62
7
  6
CONTINUOUS
 10
22.716125625
 20
-22.5132676715
 11
22.6494928274
 21
-22.4132676715
  0
LINE
  5
296
100
AcDbEntity
  8
TRASH
100
AcDbLine
 62
7
  6
CONTINUOUS
 10
14.7994928274
 20
16.1063914945
 11
14.7994928274
 21
-16.1329268375
  0
LINE
  5
297
100
AcDbEntity
  8
0
100
AcDbLine
 62
7
  6
CONTINUOUS
 10
14.7994928274
 20
-21.9130388195
 11
14.7994928274
 21
21.8865034764
  0
LINE
  5
298
100
AcDbEntity
  8
0
100
AcDbLine
 62
253
  6
CONTINUOUS
 10
15.4489577649
 20
21.0050465594
 11
15.4489577649
 21
-21.0315819024
  0
LINE
  5
299
100
AcDbEntity
  8
RACCORDO
100
AcDbLine
 62
253
  6
CONTINUOUS
 10
27.9926775299
 20
17.3938780617
 11
28.233964785
 21
17.6350586933
  0
LINE
  5
29A
100
AcDbEntity
  8
0
100
AcDbLine
 62
253
  6
CONTINUOUS
 10
23.7472012385
 20
10.2728218746
 11
23.8376873861
 21
10.3033989951
  0
LINE
  5
29B
100
AcDbEntity
  8
0
100
AcDbLine
 62
253
  6
CONTINUOUS
 10
23.8678314474
 20
10.4291947495
 11
23.9591947045
 21
10.4596678866
  0
LINE
  5
29C
100
AcDbEntity
  8
0
100
AcDbLine
 62
253
  6
CONTINUOUS
 10
23.8183664398
 20
-10.3862049346
 11
23.8961239602
 21
-10.4081583559
  0
LINE
  5
29D
100
AcDbEntity
  8
0
100
AcDbLine
 62
253
  6
CONTINUOUS
 10
23.7609381891
 20
-10.3080709237
 11
23.8376873861
 21
-10.3299343382
  0
LINE
  5
29E
100
AcDbEntity
  8
RACCORDO
100
AcDbLine
 62
253
  6
CONTINUOUS
 10
27.9926775299
 20
-17.4204134047
 11
28.2339181792
 21
-17.661640603
  0
LINE
  5
29F
100
AcDbEntity
  8
RACCORDO
100
AcDbLine
 62
253
  6
CONTINUOUS
 10
16.2006486713
 20
-8.7465348428
 11
16.2006486713
 21
8.7199994998
  0
LINE
  5
2A0
100
AcDbEntity
  8
RACCORDO
100
AcDbLine
 62
253
  6
CONTINUOUS
 10
16.746062741
 20
-8.6792905145
 11
16.746062741
 21
8.6527551715
  0
LINE
  5
2A1
100
AcDbEntity
  8
RACCORDO
100
AcDbLine
 62
253
  6
CONTINUOUS
 10
16.9460322801
 20
-8.6792905145
 11
16.9460322801
 21
8.6527551715
  0
LINE
  5
2A2
100
AcDbEntity
  8
0
100
AcDbLine
 62
253
  6
CONTINUOUS
 10
23.440788041
 20
9.0537384649
 11
23.6190326396
 21
9.1277266388
  0
LINE
  5
2A3
100
AcDbEntity
  8
0
100
AcDbLine
 62
253
  6
CONTINUOUS
 10
28.4880593042
 20
-9.3145955132
 11
28.3981946948
 21
-9.3354279421
  0
LINE
  5
2A4
100
AcDbEntity
  8
RACCORDO
100
AcDbLine
 62
253
  6
CONTINUOUS
 10
16.9460322801
 20
-8.6792905145
 11
16.746062741
 21
-8.6792905145
  0
LINE
  5
2A5
100
AcDbEntity
  8
RACCORDO
100
AcDbLine
 62
253
  6
CONTINUOUS
 10
34.9529533748
 20
-8.6792905145
 11
35.1529229139
 21
-8.6792905145
  0
LINE
  5
2A6
100
AcDbEntity
  8
0
100
AcDbLine
 62
253
  6
CONTINUOUS
 10
28.3042847637
 20
-10.4823733118
 11
28.2799530152
 21
-10.4722733612
  0
LINE
  5
2A7
100
AcDbEntity
  8
0
100
AcDbLine
 62
253
  6
CONTINUOUS
 10
23.4266940585
 20
-9.1714710789
 11
23.5519361319
 21
-9.2638303388
  0
LINE
  5
2A8
100
AcDbEntity
  8
0
100
AcDbLine
 62
253
  6
CONTINUOUS
 10
23.4505276407
 20
-9.0409306451
 11
23.6066185338
 21
-9.1726718139
  0
LINE
  5
2A9
100
AcDbEntity
  8
TRASH
100
AcDbLine
 62
7
  6
CONTINUOUS
 10
22.5646205504
 20
22.3867323285
 11
22.5814323939
 21
22.4648255612
  0
LINE
  5
2AA
100
AcDbEntity
  8
RACCORDO
100
AcDbLine
 62
253
  6
CONTINUOUS
 10
33.9793132553
 20
11.8939844148
 11
33.8351041699
 21
11.8342510558
  0
LINE
  5
2AB
100
AcDbEntity
  8
0
100
AcDbLine
 62
253
  6
CONTINUOUS
 10
28.1380474657
 20
9.2919290763
 11
28.0612982688
 21
9.2700656618
  0
LINE
  5
2AC
100
AcDbEntity
  8
0
100
AcDbLine
 62
253
  6
CONTINUOUS
 10
23.8183664398
 20
-9.2403304085
 11
23.896123959
 21
-9.2183769875
  0
LINE
  5
2AD
100
AcDbEntity
  8
0
100
AcDbLine
 62
253
  6
CONTINUOUS
 10
28.0311542075
 20
-9.1708052505
 11
27.9397909504
 21
-9.1403321134
  0
LINE
  5
2AE
100
AcDbEntity
  8
0
100
AcDbLine
 62
253
  6
CONTINUOUS
 10
28.1517844163
 20
-9.3271781254
 11
28.0612982688
 21
-9.2966010049
  0
LINE
  5
2AF
100
AcDbEntity
  8
RACCORDO
100
AcDbLine
 62
253
  6
CONTINUOUS
 10
33.9793132553
 20
-11.9205197578
 11
33.8351041699
 21
-11.8607863988
  0
LINE
  5
2B0
100
AcDbEntity
  8
TRASH
100
AcDbLine
 62
7
  6
CONTINUOUS
 10
22.5646205504
 20
-22.4132676715
 11
22.5814323939
 21
-22.4913609043
  0
LINE
  5
2B1
100
AcDbEntity
  8
0
100
AcDbLine
 62
7
  6
CONTINUOUS
 10
20.449492941
 20
-0.0941017131
 11
20.449492941
 21
0.0675663701
  0
LINE
  5
2B2
100
AcDbEntity
  8
0
100
AcDbLine
 62
253
  6
CONTINUOUS
 10
28.3078065675
 20
10.4403591239
 11
28.2923671211
 21
10.4273281861
  0
LINE
  5
2B3
100
AcDbEntity
  8
TRASH
100
AcDbLine
 62
7
  6
CONTINUOUS
 10
22.4796725677
 20
-22.4132676715
 11
22.4796725677
 21
-22.5132676715
  0
LINE
  5
2B4
100
AcDbEntity
  8
TRASH
100
AcDbLine
 62
7
  6
CONTINUOUS
 10
22.4796725677
 20
22.3867323285
 11
22.4796725677
 21
22.4867323285
  0
LINE
  5
2B5
100
AcDbEntity
  8
0
100
AcDbLine
 62
253
  6
CONTINUOUS
 10
14.9407708632
 20
-21.4888600413
 11
14.7994928274
 21
-21.9130388195
  0
LINE
  5
2B6
100
AcDbEntity
  8
0
100
AcDbLine
 62
7
  6
CONTINUOUS
 10
28.2337612169
 20
10.6055122056
 11
28.2272706052
 21
10.5957979475
  0
LINE
  5
2B7
100
AcDbEntity
  8
RACCORDO
100
AcDbLine
 62
253
  6
CONTINUOUS
 10
35.2983979055
 20
8.713012886
 11
35.1529229139
 21
8.6527551715
  0
LINE
  5
2B8
100
AcDbEntity
  8
RACCORDO
100
AcDbLine
 62
253
  6
CONTINUOUS
 10
35.2983979055
 20
-8.7395482291
 11
35.1529229139
 21
-8.6792905145
  0
LINE
  5
2B9
100
AcDbEntity
  8
0
100
AcDbLine
 62
7
  6
CONTINUOUS
 10
28.2337615497
 20
-10.6320469832
 11
28.2272711164
 21
-10.622332949
  0
LINE
  5
2BA
100
AcDbEntity
  8
0
100
AcDbLine
 62
253
  6
CONTINUOUS
 10
14.7994928274
 20
21.8865034764
 11
14.9407708632
 21
21.4623246983
  0
LINE
  5
2BB
100
AcDbEntity
  8
0
100
AcDbLine
 62
253
  6
CONTINUOUS
 10
23.0148768899
 20
-2.3632238435
 11
23.0079677688
 21
-1.9080589093
  0
LINE
  5
2BC
100
AcDbEntity
  8
0
100
AcDbLine
 62
253
  6
CONTINUOUS
 10
23.0148768899
 20
-2.3632238435
 11
23.0159754618
 21
-2.5560270159
  0
LINE
  5
2BD
100
AcDbEntity
  8
0
100
AcDbLine
 62
7
  6
CONTINUOUS
 10
23.4494928738
 20
9.5923217745
 11
23.4494928738
 21
9.9436241774
  0
LINE
  5
2BE
100
AcDbEntity
  8
0
100
AcDbLine
 62
7
  6
CONTINUOUS
 10
23.4494932284
 20
-9.9877668437
 11
23.4494932286
 21
-9.6185978342
  0
LINE
  5
2BF
100
AcDbEntity
  8
0
100
AcDbLine
 62
253
  6
CONTINUOUS
 10
23.0148768899
 20
2.3366885005
 11
23.0159694734
 21
2.5284406749
  0
LINE
  5
2C0
100
AcDbEntity
  8
0
100
AcDbLine
 62
253
  6
CONTINUOUS
 10
23.0148768899
 20
2.3366885005
 11
23.0079677688
 21
1.8815235662
  0
LINE
  5
2C1
100
AcDbEntity
  8
0
100
AcDbLine
 62
253
  6
CONTINUOUS
 10
15.4406947107
 20
-21.9881748087
 11
15.2991122277
 21
-22.4132676715
  0
LINE
  5
2C2
100
AcDbEntity
  8
RACCORDO
100
AcDbLine
 62
253
  6
CONTINUOUS
 10
33.6937043529
 20
11.6928512387
 11
33.8351041699
 21
11.8342510558
  0
LINE
  5
2C3
100
AcDbEntity
  8
RACCORDO
100
AcDbLine
 62
253
  6
CONTINUOUS
 10
33.6937043529
 20
-11.7193865818
 11
33.8351041699
 21
-11.8607863988
  0
LINE
  5
2C4
100
AcDbEntity
  8
0
100
AcDbLine
 62
253
  6
CONTINUOUS
 10
15.2991122277
 20
22.3867323285
 11
15.4406947107
 21
21.9616394657
  0
LINE
  5
2C5
100
AcDbEntity
  8
0
100
AcDbLine
 62
7
  6
CONTINUOUS
 10
25.4494901586
 20
0.1380661219
 11
25.4494912898
 21
-0.1646008151
  0
LINE
  5
2C6
100
AcDbEntity
  8
0
100
AcDbLine
 62
253
  6
CONTINUOUS
 10
25.9494928274
 20
12.0324399955
 11
25.9494928274
 21
11.6856343719
  0
LINE
  5
2C7
100
AcDbEntity
  8
0
100
AcDbLine
 62
253
  6
CONTINUOUS
 10
25.9494928274
 20
-12.0589753386
 11
25.9494928274
 21
-11.7121697149
  0
LINE
  5
2C8
100
AcDbEntity
  8
0
100
AcDbLine
 62
253
  6
CONTINUOUS
 10
25.9494928274
 20
-7.9143656281
 11
25.9494928274
 21
-7.0418738667
  0
LINE
  5
2C9
100
AcDbEntity
  8
0
100
AcDbLine
 62
253
  6
CONTINUOUS
 10
25.9494928274
 20
7.0153385236
 11
25.9494928274
 21
7.8878302851
  0
LINE
  5
2CA
100
AcDbEntity
  8
TRASH
100
AcDbLine
 62
7
  6
CONTINUOUS
 10
29.3646205504
 20
22.3867323285
 11
29.3789165719
 21
22.453139236
  0
LINE
  5
2CB
100
AcDbEntity
  8
RACCORDO
100
AcDbLine
 62
253
  6
CONTINUOUS
 10
25.2068008098
 20
1.1586501056
 11
25.2069943037
 21
1.1587359344
  0
LINE
  5
2CC
100
AcDbEntity
  8
0
100
AcDbLine
 62
7
  6
CONTINUOUS
 10
20.494318868
 20
-0.6702946985
 11
20.4907535513
 21
-0.6717278806
  0
LINE
  5
2CD
100
AcDbEntity
  8
0
100
AcDbLine
 62
253
  6
CONTINUOUS
 10
20.494318868
 20
-0.6702946985
 11
20.7559544197
 21
-0.6772003801
  0
LINE
  5
2CE
100
AcDbEntity
  8
0
100
AcDbLine
 62
253
  6
CONTINUOUS
 10
25.3957348316
 20
-0.7118384712
 11
25.232938189
 21
-0.7007597461
  0
LINE
  5
2CF
100
AcDbEntity
  8
0
100
AcDbLine
 62
253
  6
CONTINUOUS
 10
20.4181701592
 20
-0.2747087182
 11
20.4296819195
 21
-0.2767970354
  0
LINE
  5
2D0
100
AcDbEntity
  8
DRAFT
100
AcDbLine
 62
7
  6
CONTINUOUS
 10
25.2068008098
 20
1.1586501056
 11
25.351236304
 21
0.833040383
  0
LINE
  5
2D1
100
AcDbEntity
  8
TRASH
100
AcDbLine
 62
7
  6
CONTINUOUS
 10
29.3646205504
 20
-22.4132676715
 11
29.3789165719
 21
-22.479674579
  0
LINE
  5
2D2
100
AcDbEntity
  8
TRASH
100
AcDbLine
 62
7
  6
CONTINUOUS
 10
22.5343651045
 20
-22.4132676715
 11
22.520069083
 21
-22.479674579
  0
LINE
  5
2D3
100
AcDbEntity
  8
0
100
AcDbLine
 62
253
  6
CONTINUOUS
 10
20.420039562
 20
0.2485124984
 11
20.4296819195
 21
0.2502616924
  0
LINE
  5
2D4
100
AcDbEntity
  8
0
100
AcDbLine
 62
253
  6
CONTINUOUS
 10
25.3960553424
 20
0.6853249398
 11
25.232938189
 21
0.6742244031
  0
LINE
  5
2D5
100
AcDbEntity
  8
0
100
AcDbLine
 62
253
  6
CONTINUOUS
 10
20.494318868
 20
0.6437593555
 11
20.7559544197
 21
0.6506650371
  0
LINE
  5
2D6
100
AcDbEntity
  8
TRASH
100
AcDbLine
 62
7
  6
CONTINUOUS
 10
22.5343651045
 20
22.3867323285
 11
22.520069083
 21
22.453139236
  0
LINE
  5
2D7
100
AcDbEntity
  8
0
100
AcDbLine
 62
7
  6
CONTINUOUS
 10
28.4494924263
 20
9.5920624912
 11
28.4494924264
 21
9.9612315006
  0
LINE
  5
2D8
100
AcDbEntity
  8
0
100
AcDbLine
 62
7
  6
CONTINUOUS
 10
28.4494927811
 20
-9.9701595205
 11
28.4494927811
 21
-9.6188571176
  0
LINE
  5
2D9
100
AcDbEntity
  8
TRASH
100
AcDbLine
 62
7
  6
CONTINUOUS
 10
29.4193130872
 20
22.4867323285
 11
29.4193130872
 21
22.3867323285
  0
LINE
  5
2DA
100
AcDbEntity
  8
TRASH
100
AcDbLine
 62
7
  6
CONTINUOUS
 10
29.4193130872
 20
-22.5132676715
 11
29.4193130872
 21
-22.4132676715
  0
LINE
  5
2DB
100
AcDbEntity
  8
0
100
AcDbLine
 62
253
  6
CONTINUOUS
 10
36.5998734272
 20
22.3867323285
 11
36.4582909442
 21
21.9616394657
  0
LINE
  5
2DC
100
AcDbEntity
  8
0
100
AcDbLine
 62
253
  6
CONTINUOUS
 10
37.0994928274
 20
21.8865034764
 11
36.9582147917
 21
21.4623246983
  0
LINE
  5
2DD
100
AcDbEntity
  8
RACCORDO
100
AcDbLine
 62
253
  6
CONTINUOUS
 10
18.205281302
 20
-11.7193865818
 11
18.0638814849
 21
-11.8607863988
  0
LINE
  5
2DE
100
AcDbEntity
  8
RACCORDO
100
AcDbLine
 62
253
  6
CONTINUOUS
 10
18.205281302
 20
11.6928512387
 11
18.0638814849
 21
11.8342510558
  0
LINE
  5
2DF
100
AcDbEntity
  8
0
100
AcDbLine
 62
253
  6
CONTINUOUS
 10
36.4582909442
 20
-21.9881748087
 11
36.5998734272
 21
-22.4132676715
  0
LINE
  5
2E0
100
AcDbEntity
  8
0
100
AcDbLine
 62
253
  6
CONTINUOUS
 10
36.9582147917
 20
-21.4888600413
 11
37.0994928274
 21
-21.9130388195
  0
LINE
  5
2E1
100
AcDbEntity
  8
0
100
AcDbLine
 62
7
  6
CONTINUOUS
 10
23.665224438
 20
-10.6320475486
 11
23.6717150497
 21
-10.6223332906
  0
LINE
  5
2E2
100
AcDbEntity
  8
RACCORDO
100
AcDbLine
 62
253
  6
CONTINUOUS
 10
16.6005877494
 20
-8.7395482291
 11
16.746062741
 21
-8.6792905145
  0
LINE
  5
2E3
100
AcDbEntity
  8
RACCORDO
100
AcDbLine
 62
253
  6
CONTINUOUS
 10
16.6005877494
 20
8.713012886
 11
16.746062741
 21
8.6527551715
  0
LINE
  5
2E4
100
AcDbEntity
  8
0
100
AcDbLine
 62
7
  6
CONTINUOUS
 10
23.6652241052
 20
10.6055116402
 11
23.6717145385
 21
10.595797606
  0
LINE
  5
2E5
100
AcDbEntity
  8
0
100
AcDbLine
 62
253
  6
CONTINUOUS
 10
23.5911790874
 20
-10.4668944669
 11
23.6066185338
 21
-10.4538635291
  0
LINE
  5
2E6
100
AcDbEntity
  8
TRASH
100
AcDbLine
 62
7
  6
CONTINUOUS
 10
29.3343651045
 20
-22.4132676715
 11
29.317553261
 21
-22.4913609043
  0
LINE
  5
2E7
100
AcDbEntity
  8
RACCORDO
100
AcDbLine
 62
253
  6
CONTINUOUS
 10
17.9196723996
 20
-11.9205197578
 11
18.0638814849
 21
-11.8607863988
  0
LINE
  5
2E8
100
AcDbEntity
  8
0
100
AcDbLine
 62
253
  6
CONTINUOUS
 10
23.7609381891
 20
-9.3184644193
 11
23.8376873861
 21
-9.2966010049
  0
LINE
  5
2E9
100
AcDbEntity
  8
0
100
AcDbLine
 62
253
  6
CONTINUOUS
 10
28.0806192151
 20
9.2137950654
 11
28.0028616959
 21
9.1918416444
  0
LINE
  5
2EA
100
AcDbEntity
  8
RACCORDO
100
AcDbLine
 62
253
  6
CONTINUOUS
 10
16.9460322801
 20
8.6527551715
 11
16.746062741
 21
8.6527551715
  0
LINE
  5
2EB
100
AcDbEntity
  8
RACCORDO
100
AcDbLine
 62
253
  6
CONTINUOUS
 10
34.9529533748
 20
8.6527551715
 11
35.1529229139
 21
8.6527551715
  0
LINE
  5
2EC
100
AcDbEntity
  8
0
100
AcDbLine
 62
253
  6
CONTINUOUS
 10
23.8678314474
 20
9.1442699074
 11
23.9591947045
 21
9.1137967703
  0
LINE
  5
2ED
100
AcDbEntity
  8
0
100
AcDbLine
 62
253
  6
CONTINUOUS
 10
23.7472012385
 20
9.3006427824
 11
23.8376873861
 21
9.2700656618
  0
LINE
  5
2EE
100
AcDbEntity
  8
RACCORDO
100
AcDbLine
 62
253
  6
CONTINUOUS
 10
17.9196723996
 20
11.8939844148
 11
18.0638814849
 21
11.8342510558
  0
LINE
  5
2EF
100
AcDbEntity
  8
0
100
AcDbLine
 62
253
  6
CONTINUOUS
 10
23.5947008912
 20
10.4558379688
 11
23.6190326396
 21
10.4457380182
  0
LINE
  5
2F0
100
AcDbEntity
  8
0
100
AcDbLine
 62
253
  6
CONTINUOUS
 10
28.4722915964
 20
9.1449357359
 11
28.347049523
 21
9.2372949958
  0
LINE
  5
2F1
100
AcDbEntity
  8
0
100
AcDbLine
 62
253
  6
CONTINUOUS
 10
28.4484580142
 20
9.0143953021
 11
28.2923671211
 21
9.1461364709
  0
LINE
  5
2F2
100
AcDbEntity
  8
TRASH
100
AcDbLine
 62
7
  6
CONTINUOUS
 10
29.3343651045
 20
22.3867323285
 11
29.317553261
 21
22.4648255612
  0
LINE
  5
2F3
100
AcDbEntity
  8
RACCORDO
100
AcDbLine
 62
253
  6
CONTINUOUS
 10
34.9529533748
 20
8.6527551715
 11
34.9529533748
 21
-8.6792905145
  0
LINE
  5
2F4
100
AcDbEntity
  8
RACCORDO
100
AcDbLine
 62
253
  6
CONTINUOUS
 10
35.1529229139
 20
8.6527551715
 11
35.1529229139
 21
-8.6792905145
  0
LINE
  5
2F5
100
AcDbEntity
  8
RACCORDO
100
AcDbLine
 62
253
  6
CONTINUOUS
 10
35.6983369836
 20
8.7199994998
 11
35.6983369836
 21
-8.7465348428
  0
LINE
  5
2F6
100
AcDbEntity
  8
0
100
AcDbLine
 62
253
  6
CONTINUOUS
 10
36.45002789
 20
21.0050465594
 11
36.45002789
 21
-21.0315819024
  0
LINE
  5
2F7
100
AcDbEntity
  8
0
100
AcDbLine
 62
253
  6
CONTINUOUS
 10
28.4581976139
 20
-9.0802738079
 11
28.2799530152
 21
-9.1542619818
  0
LINE
  5
2F8
100
AcDbEntity
  8
0
100
AcDbLine
 62
253
  6
CONTINUOUS
 10
28.1517844163
 20
-10.2993572176
 11
28.0612982688
 21
-10.3299343382
  0
LINE
  5
2F9
100
AcDbEntity
  8
0
100
AcDbLine
 62
253
  6
CONTINUOUS
 10
28.0311542075
 20
-10.4557300926
 11
27.9397909504
 21
-10.4862032297
  0
LINE
  5
2FA
100
AcDbEntity
  8
0
100
AcDbLine
 62
253
  6
CONTINUOUS
 10
23.4109263507
 20
9.2880601702
 11
23.5007909601
 21
9.3088925991
  0
LINE
  5
2FB
100
AcDbEntity
  8
0
100
AcDbLine
 62
253
  6
CONTINUOUS
 10
28.0806192151
 20
10.3596695915
 11
28.0028616947
 21
10.3816230129
  0
LINE
  5
2FC
100
AcDbEntity
  8
0
100
AcDbLine
 62
253
  6
CONTINUOUS
 10
28.1380474657
 20
10.2815355807
 11
28.0612982688
 21
10.3033989951
  0
LINE
  5
2FD
100
AcDbEntity
  8
0
100
AcDbLine
 62
7
  6
CONTINUOUS
 10
37.0994928274
 20
21.8865034764
 11
37.0994928274
 21
-21.9130388195
  0
LINE
  5
2FE
100
AcDbEntity
  8
TRASH
100
AcDbLine
 62
7
  6
CONTINUOUS
 10
37.0994928274
 20
-16.1329268375
 11
37.0994928274
 21
16.1063914945
  0
LINE
  5
2FF
100
AcDbEntity
  8
RACCORDO
100
AcDbLine
 62
253
  6
CONTINUOUS
 10
23.906308125
 20
-17.4204134047
 11
23.6650208699
 21
-17.6615940363
  0
LINE
  5
300
100
AcDbEntity
  8
RACCORDO
100
AcDbLine
 62
253
  6
CONTINUOUS
 10
23.906308125
 20
17.3938780617
 11
23.6650674757
 21
17.63510526
  0
LINE
  5
301
100
AcDbEntity
  8
RACCORDO
100
AcDbLine
 62
253
  6
CONTINUOUS
 10
33.6937043529
 20
-11.7193865818
 11
27.9926775299
 21
-17.4204134047
  0
LINE
  5
302
100
AcDbEntity
  8
RACCORDO
100
AcDbLine
 62
253
  6
CONTINUOUS
 10
33.8351041699
 20
-11.8607863988
 11
28.134077347
 21
-17.5618132218
  0
LINE
  5
303
100
AcDbEntity
  8
RACCORDO
100
AcDbLine
 62
253
  6
CONTINUOUS
 10
27.9926775299
 20
17.3938780617
 11
33.6937043529
 21
11.6928512387
  0
LINE
  5
304
100
AcDbEntity
  8
RACCORDO
100
AcDbLine
 62
253
  6
CONTINUOUS
 10
28.134077347
 20
17.5352778787
 11
33.8351041699
 21
11.8342510558
  0
LINE
  5
305
100
AcDbEntity
  8
0
100
AcDbLine
 62
7
  6
CONTINUOUS
 10
29.2494928274
 20
-22.4132676715
 11
29.1828600299
 21
-22.5132676715
  0
LINE
  5
306
100
AcDbEntity
  8
0
100
AcDbLine
 62
7
  6
CONTINUOUS
 10
29.1828600299
 20
22.4867323285
 11
29.2494928274
 21
22.3867323285
  0
LINE
  5
307
100
AcDbEntity
  8
0
100
AcDbLine
 62
253
  6
CONTINUOUS
 10
15.4489577649
 20
21.0050465594
 11
36.45002789
 21
21.0050465594
  0
LINE
  5
308
100
AcDbEntity
  8
0
100
AcDbLine
 62
253
  6
CONTINUOUS
 10
15.4406947107
 20
21.9616394657
 11
36.4582909442
 21
21.9616394657
  0
LINE
  5
309
100
AcDbEntity
  8
0
100
AcDbLine
 62
7
  6
CONTINUOUS
 10
15.2991122277
 20
22.3867323285
 11
22.6494928274
 21
22.3867323285
  0
LINE
  5
30A
100
AcDbEntity
  8
0
100
AcDbLine
 62
7
  6
CONTINUOUS
 10
29.2494928274
 20
22.3867323285
 11
36.5998734272
 21
22.3867323285
  0
LINE
  5
30B
100
AcDbEntity
  8
TRASH
100
AcDbLine
 62
7
  6
CONTINUOUS
 10
22.4796725677
 20
22.4867323285
 11
29.4193130872
 21
22.4867323285
  0
LINE
  5
30C
100
AcDbEntity
  8
TRASH
100
AcDbLine
 62
7
  6
CONTINUOUS
 10
29.6243503056
 20
23.4867323285
 11
22.2746353493
 21
23.4867323285
  0
ARC
  5
30D
100
AcDbEntity
  8
TRASH
100
AcDbCircle
 62
7
  6
CONTINUOUS
 10
-65.6196699042
 20
-1912.6838833221
 40
1936.198768908
100
AcDbArc
 50
88.7949088024
 51
88.9133000628
  0
ARC
  5
30E
100
AcDbEntity
  8
TRASH
100
AcDbCircle
 62
7
  6
CONTINUOUS
 10
-11.3173964545
 20
-1893.823773595
 40
1871.2299398877
100
AcDbArc
 50
90.4158622402
 51
90.5383437692
  0
ARC
  5
30F
100
AcDbEntity
  8
RACCORDO
100
AcDbCircle
 62
253
  6
CONTINUOUS
 10
-3.4611660423
 20
-8.061331781
 40
6.356961121
100
AcDbArc
 50
358.6529590938
 51
359.9342404094
  0
ARC
  5
310
100
AcDbEntity
  8
RACCORDO
100
AcDbCircle
 62
253
  6
CONTINUOUS
 10
-15.4371767204
 20
-16.8290423448
 40
1.1862573191
100
AcDbArc
 50
139.3692845451
 51
143.1602307559
  0
ARC
  5
311
100
AcDbEntity
  8
0
100
AcDbCircle
 62
7
  6
CONTINUOUS
 10
-36.95789245
 20
-20.989545274
 40
1.0
100
AcDbArc
 50
182.4092313014
 51
267.0
  0
ARC
  5
312
100
AcDbEntity
  8
RACCORDO
100
AcDbCircle
 62
253
  6
CONTINUOUS
 10
-15.6796211423
 20
-16.8094838995
 40
0.9998010733
100
AcDbArc
 50
90.9999822709
 51
127.836622085
  0
ARC
  5
313
100
AcDbEntity
  8
RACCORDO
100
AcDbCircle
 62
253
  6
CONTINUOUS
 10
-15.6800087862
 20
-16.8092198905
 40
0.9993547926
100
AcDbArc
 50
127.8283546655
 51
131.1375951685
  0
ARC
  5
314
100
AcDbEntity
  8
0
100
AcDbCircle
 62
253
  6
CONTINUOUS
 10
-36.9665999022
 20
-20.9895252078
 40
0.500021117
100
AcDbArc
 50
182.4114382744
 51
266.9979746619
  0
ARC
  5
315
100
AcDbEntity
  8
RACCORDO
100
AcDbCircle
 62
7
  6
CONTINUOUS
 10
2.1010266137
 20
-15.4990003388
 40
0.5
100
AcDbArc
 50
271.0
 51
360.0
  0
ARC
  5
316
100
AcDbEntity
  8
RACCORDO
100
AcDbCircle
 62
7
  6
CONTINUOUS
 10
-20.9368447916
 20
-20.6440322956
 40
0.5
100
AcDbArc
 50
271.0
 51
315.0
  0
ARC
  5
317
100
AcDbEntity
  8
RACCORDO
100
AcDbCircle
 62
7
  6
CONTINUOUS
 10
-15.6882648377
 20
-16.8096659041
 40
0.5
100
AcDbArc
 50
91.0
 51
135.0
  0
ARC
  5
318
100
AcDbEntity
  8
RACCORDO
100
AcDbCircle
 62
7
  6
CONTINUOUS
 10
3.3010266137
 20
-6.5755319154
 40
0.3
100
AcDbArc
 50
359.9997500549
 51
88.9999944249
  0
ARC
  5
319
100
AcDbEntity
  8
RACCORDO
100
AcDbCircle
 62
7
  6
CONTINUOUS
 10
3.3010266137
 20
-13.5510034277
 40
0.3
100
AcDbArc
 50
271.0003332823
 51
0.0152288958
  0
ARC
  5
31A
100
AcDbEntity
  8
RACCORDO
100
AcDbCircle
 62
7
  6
CONTINUOUS
 10
3.3010266137
 20
-3.6510034277
 40
0.3
100
AcDbArc
 50
271.0008049906
 51
0.0365167748
  0
ARC
  5
31B
100
AcDbEntity
  8
RACCORDO
100
AcDbCircle
 62
7
  6
CONTINUOUS
 10
2.9010266137
 20
-14.1580768505
 40
0.3
100
AcDbArc
 50
90.9990455695
 51
179.9451020804
  0
ARC
  5
31C
100
AcDbEntity
  8
RACCORDO
100
AcDbCircle
 62
7
  6
CONTINUOUS
 10
2.9010266137
 20
-5.9684584926
 40
0.3
100
AcDbArc
 50
180.0167453518
 51
269.0002946597
  0
ARC
  5
31D
100
AcDbEntity
  8
RACCORDO
100
AcDbCircle
 62
7
  6
CONTINUOUS
 10
2.9010266137
 20
-4.2580768505
 40
0.3
100
AcDbArc
 50
90.999067736
 51
168.2741446491
  0
ARC
  5
31E
100
AcDbEntity
  8
RACCORDO
100
AcDbCircle
 62
7
  6
CONTINUOUS
 10
-24.6989733863
 20
-21.4098071241
 40
0.2
100
AcDbArc
 50
169.2157049612
 51
180.0
  0
ARC
  5
31F
100
AcDbEntity
  8
RACCORDO
100
AcDbCircle
 62
7
  6
CONTINUOUS
 10
-24.6989733863
 20
-21.4098071241
 40
0.2
100
AcDbArc
 50
91.0
 51
101.4555216024
  0
ARC
  5
320
100
AcDbEntity
  8
TRASH
100
AcDbCircle
 62
7
  6
CONTINUOUS
 10
-65.6196699042
 20
1912.657347979
 40
1936.198768908
100
AcDbArc
 50
271.0866999372
 51
271.2050911976
  0
ARC
  5
321
100
AcDbEntity
  8
TRASH
100
AcDbCircle
 62
7
  6
CONTINUOUS
 10
-11.3173961328
 20
1893.7972382507
 40
1871.2299398903
100
AcDbArc
 50
269.4616562209
 51
269.58413775
  0
ARC
  5
322
100
AcDbEntity
  8
RACCORDO
100
AcDbCircle
 62
253
  6
CONTINUOUS
 10
-15.4365731432
 20
16.8029911681
 40
1.1870306675
100
AcDbArc
 50
216.8410045919
 51
220.6294801071
  0
ARC
  5
323
100
AcDbEntity
  8
RACCORDO
100
AcDbCircle
 62
253
  6
CONTINUOUS
 10
-15.6795273356
 20
16.7831514753
 40
1.000020777
100
AcDbArc
 50
232.368492851
 51
268.9993736425
  0
ARC
  5
324
100
AcDbEntity
  8
0
100
AcDbCircle
 62
7
  6
CONTINUOUS
 10
-36.95789245
 20
20.9630099309
 40
1.0
100
AcDbArc
 50
93.0
 51
177.5907686986
  0
ARC
  5
325
100
AcDbEntity
  8
RACCORDO
100
AcDbCircle
 62
253
  6
CONTINUOUS
 10
-15.6809269202
 20
16.7815297506
 40
0.9978810682
100
AcDbArc
 50
228.858487261
 51
232.3752803283
  0
ARC
  5
326
100
AcDbEntity
  8
0
100
AcDbCircle
 62
253
  6
CONTINUOUS
 10
-36.9665999018
 20
20.9629898652
 40
0.5000211169
100
AcDbArc
 50
93.0020253832
 51
177.5885617849
  0
ARC
  5
327
100
AcDbEntity
  8
RACCORDO
100
AcDbCircle
 62
7
  6
CONTINUOUS
 10
2.1010266137
 20
15.4724649958
 40
0.5
100
AcDbArc
 50
0.0
 51
88.9999999998
  0
ARC
  5
328
100
AcDbEntity
  8
RACCORDO
100
AcDbCircle
 62
7
  6
CONTINUOUS
 10
-20.9368447916
 20
20.6174969526
 40
0.5
100
AcDbArc
 50
45.0
 51
89.0
  0
ARC
  5
329
100
AcDbEntity
  8
RACCORDO
100
AcDbCircle
 62
7
  6
CONTINUOUS
 10
-15.6882648377
 20
16.7831305611
 40
0.5
100
AcDbArc
 50
225.0
 51
269.0
  0
ARC
  5
32A
100
AcDbEntity
  8
RACCORDO
100
AcDbCircle
 62
253
  6
CONTINUOUS
 10
-20.7408414432
 20
20.5773271139
 40
0.4572360851
100
AcDbArc
 50
108.6018914622
 51
114.1787820005
  0
ARC
  5
32B
100
AcDbEntity
  8
RACCORDO
100
AcDbCircle
 62
7
  6
CONTINUOUS
 10
3.3010266137
 20
3.0244680846
 40
0.3
100
AcDbArc
 50
359.9902667422
 51
88.999781418
  0
ARC
  5
32C
100
AcDbEntity
  8
RACCORDO
100
AcDbCircle
 62
7
  6
CONTINUOUS
 10
3.3010266137
 20
6.5489965723
 40
0.3
100
AcDbArc
 50
271.0008049906
 51
0.0365167748
  0
ARC
  5
32D
100
AcDbEntity
  8
RACCORDO
100
AcDbCircle
 62
7
  6
CONTINUOUS
 10
3.3010266137
 20
13.5244680846
 40
0.3
100
AcDbArc
 50
359.9902667422
 51
88.999781418
  0
ARC
  5
32E
100
AcDbEntity
  8
RACCORDO
100
AcDbCircle
 62
7
  6
CONTINUOUS
 10
2.9010266137
 20
3.6315415074
 40
0.3
100
AcDbArc
 50
180.0559137469
 51
269.0009713032
  0
ARC
  5
32F
100
AcDbEntity
  8
RACCORDO
100
AcDbCircle
 62
7
  6
CONTINUOUS
 10
2.9010266137
 20
5.9419231495
 40
0.3
100
AcDbArc
 50
90.999067736
 51
165.1675233558
  0
ARC
  5
330
100
AcDbEntity
  8
RACCORDO
100
AcDbCircle
 62
7
  6
CONTINUOUS
 10
2.9010266137
 20
14.1315415074
 40
0.3
100
AcDbArc
 50
194.8323257746
 51
269.0009713032
  0
ARC
  5
331
100
AcDbEntity
  8
RACCORDO
100
AcDbCircle
 62
7
  6
CONTINUOUS
 10
-24.6989733863
 20
21.3832717811
 40
0.2
100
AcDbArc
 50
180.0
 51
190.7842950386
  0
ARC
  5
332
100
AcDbEntity
  8
RACCORDO
100
AcDbCircle
 62
7
  6
CONTINUOUS
 10
-24.6989733863
 20
21.3832717811
 40
0.2
100
AcDbArc
 50
240.7417071169
 51
269.0
  0
ARC
  5
333
100
AcDbEntity
  8
0
100
AcDbCircle
 62
7
  6
CONTINUOUS
 10
461.6010266137
 20
-0.0132676715
 40
500.0
100
AcDbArc
 50
177.5907686986
 51
182.4092313014
  0
ARC
  5
334
100
AcDbEntity
  8
RACCORDO
100
AcDbCircle
 62
7
  6
CONTINUOUS
 10
461.6010266137
 20
-0.0132676715
 40
500.0
100
AcDbArc
 50
177.8211606988
 51
180.2443484888
  0
ARC
  5
335
100
AcDbEntity
  8
RACCORDO
100
AcDbCircle
 62
7
  6
CONTINUOUS
 10
461.6010266137
 20
-0.0132676715
 40
500.0
100
AcDbArc
 50
180.7780641985
 51
182.1788393012
  0
ARC
  5
336
100
AcDbEntity
  8
0
100
AcDbCircle
 62
253
  6
CONTINUOUS
 10
461.5922874348
 20
-0.0132676715
 40
499.4999870358
100
AcDbArc
 50
177.590768636
 51
182.409231364
  0
ARC
  5
337
100
AcDbEntity
  8
0
100
AcDbCircle
 62
253
  6
CONTINUOUS
 10
3.5771093389
 20
-7.7105044116
 40
30.4459058784
100
AcDbArc
 50
36.224526548
 51
36.4070108295
  0
ARC
  5
338
100
AcDbEntity
  8
RACCORDO
100
AcDbCircle
 62
253
  6
CONTINUOUS
 10
25.9494859912
 20
-15.3921070031
 40
3.6302056525
100
AcDbArc
 50
224.99425206
 51
315.0059005133
  0
ARC
  5
339
100
AcDbEntity
  8
TRASH
100
AcDbCircle
 62
7
  6
CONTINUOUS
 10
22.2746335361
 20
-22.5134259899
 40
0.9998416816
100
AcDbArc
 50
236.442683784
 51
270.0001039024
  0
ARC
  5
33A
100
AcDbEntity
  8
0
100
AcDbCircle
 62
253
  6
CONTINUOUS
 10
15.4409068538
 20
-21.4879854953
 40
0.5001648572
100
AcDbArc
 50
180.1001882415
 51
269.9756993987
  0
ARC
  5
33B
100
AcDbEntity
  8
TRASH
100
AcDbCircle
 62
7
  6
CONTINUOUS
 10
20.9994928274
 20
-23.1132676715
 40
0.5
100
AcDbArc
 50
350.803718421
 51
119.112422776
  0
ARC
  5
33C
100
AcDbEntity
  8
RACCORDO
100
AcDbCircle
 62
253
  6
CONTINUOUS
 10
21.1050391106
 20
-8.7453823711
 40
4.9043884771
100
AcDbArc
 50
180.0134638067
 51
224.9961217607
  0
ARC
  5
33D
100
AcDbEntity
  8
RACCORDO
100
AcDbCircle
 62
253
  6
CONTINUOUS
 10
21.2453923836
 20
-8.6792842954
 40
4.4993296425
100
AcDbArc
 50
180.0000791963
 51
224.9999208037
  0
ARC
  5
33E
100
AcDbEntity
  8
RACCORDO
100
AcDbCircle
 62
253
  6
CONTINUOUS
 10
21.0994753839
 20
-8.7379188384
 40
4.498884438
100
AcDbArc
 50
180.0207511757
 51
225.0251964301
  0
ARC
  5
33F
100
AcDbEntity
  8
RACCORDO
100
AcDbCircle
 62
253
  6
CONTINUOUS
 10
21.2446341845
 20
-8.6795862087
 40
4.2985992669
100
AcDbArc
 50
179.9960587116
 51
225.0042175803
  0
ARC
  5
340
100
AcDbEntity
  8
0
100
AcDbCircle
 62
253
  6
CONTINUOUS
 10
22.4365122004
 20
-11.0946118124
 40
1.3341132346
100
AcDbArc
 50
31.9173780598
 51
33.2716512165
  0
ARC
  5
341
100
AcDbEntity
  8
0
100
AcDbCircle
 62
253
  6
CONTINUOUS
 10
22.4697724769
 20
-8.5527028949
 40
1.2949055632
100
AcDbArc
 50
326.6896898529
 51
331.3945485379
  0
ARC
  5
342
100
AcDbEntity
  8
0
100
AcDbCircle
 62
253
  6
CONTINUOUS
 10
22.4778350586
 20
-11.0693274127
 40
1.2856702244
100
AcDbArc
 50
28.6012189764
 51
31.934559432
  0
ARC
  5
343
100
AcDbEntity
  8
0
100
AcDbCircle
 62
253
  6
CONTINUOUS
 10
22.7841317259
 20
-8.757263738
 40
0.9199446379
100
AcDbArc
 50
312.7410131911
 51
313.1538211837
  0
ARC
  5
344
100
AcDbEntity
  8
0
100
AcDbCircle
 62
253
  6
CONTINUOUS
 10
22.7896047649
 20
-8.7623743947
 40
0.9124731103
100
AcDbArc
 50
313.1226004656
 51
326.6633764551
  0
ARC
  5
345
100
AcDbEntity
  8
0
100
AcDbCircle
 62
253
  6
CONTINUOUS
 10
19.898367376
 20
-0.8258927053
 40
0.7640688443
100
AcDbArc
 50
45.9428747701
 51
47.2064986987
  0
ARC
  5
346
100
AcDbEntity
  8
0
100
AcDbCircle
 62
7
  6
CONTINUOUS
 10
20.1886824756
 20
-0.7442100095
 40
0.7010745933
100
AcDbArc
 50
46.6813433083
 51
71.9673351088
  0
ARC
  5
347
100
AcDbEntity
  8
0
100
AcDbCircle
 62
7
  6
CONTINUOUS
 10
20.1888402505
 20
-0.7432109307
 40
0.7003738675
100
AcDbArc
 50
31.7169472316
 51
46.6045859838
  0
ARC
  5
348
100
AcDbEntity
  8
0
100
AcDbCircle
 62
7
  6
CONTINUOUS
 10
20.1893148971
 20
-0.7432676715
 40
0.7
100
AcDbArc
 50
31.7413224664
 51
71.998636673
  0
ARC
  5
349
100
AcDbEntity
  8
0
100
AcDbCircle
 62
7
  6
CONTINUOUS
 10
25.9430224264
 20
-10.375410439
 40
3.3315942747
100
AcDbArc
 50
109.1486588043
 51
110.124844399
  0
ARC
  5
34A
100
AcDbEntity
  8
0
100
AcDbCircle
 62
7
  6
CONTINUOUS
 10
25.9494907557
 20
-10.0632609244
 40
2.6999932529
100
AcDbArc
 50
89.9999560364
 51
156.8923312988
  0
ARC
  5
34B
100
AcDbEntity
  8
0
100
AcDbCircle
 62
7
  6
CONTINUOUS
 10
25.9331932644
 20
-10.0566166544
 40
2.6823957294
100
AcDbArc
 50
156.8862453501
 51
157.5565574944
  0
ARC
  5
34C
100
AcDbEntity
  8
0
100
AcDbCircle
 62
7
  6
CONTINUOUS
 10
25.9301756172
 20
-10.0553653805
 40
2.6791289479
100
AcDbArc
 50
157.556652607
 51
157.7503174016
  0
ARC
  5
34D
100
AcDbEntity
  8
0
100
AcDbCircle
 62
7
  6
CONTINUOUS
 10
25.9207394088
 20
-8.7890018535
 40
2.6376242414
100
AcDbArc
 50
319.9498130174
 51
320.6946225415
  0
ARC
  5
34E
100
AcDbEntity
  8
0
100
AcDbCircle
 62
7
  6
CONTINUOUS
 10
25.9460830698
 20
-8.8104233082
 40
2.604440335
100
AcDbArc
 50
318.1432399356
 51
319.9517957761
  0
ARC
  5
34F
100
AcDbEntity
  8
0
100
AcDbCircle
 62
7
  6
CONTINUOUS
 10
25.9494390604
 20
-8.813188115
 40
2.6000958735
100
AcDbArc
 50
295.7587745018
 51
318.1392716125
  0
ARC
  5
350
100
AcDbEntity
  8
0
100
AcDbCircle
 62
7
  6
CONTINUOUS
 10
25.9494324582
 20
-10.8133249193
 40
2.6000712198
100
AcDbArc
 50
40.0486770123
 51
64.2465592437
  0
ARC
  5
351
100
AcDbEntity
  8
0
100
AcDbCircle
 62
7
  6
CONTINUOUS
 10
25.9494921279
 20
-10.8133257542
 40
2.600035077
100
AcDbArc
 50
115.7071381938
 51
142.1618450828
  0
ARC
  5
352
100
AcDbEntity
  8
0
100
AcDbCircle
 62
7
  6
CONTINUOUS
 10
25.9412648935
 20
-8.8193956011
 40
2.5897423821
100
AcDbArc
 50
215.6814037504
 51
217.3599661844
  0
ARC
  5
353
100
AcDbEntity
  8
0
100
AcDbCircle
 62
7
  6
CONTINUOUS
 10
25.9408581857
 20
-10.8068361517
 40
2.5892332319
100
AcDbArc
 50
142.5233430459
 51
144.3188036969
  0
ARC
  5
354
100
AcDbEntity
  8
0
100
AcDbCircle
 62
7
  6
CONTINUOUS
 10
25.9235248102
 20
-8.8334304075
 40
2.5671233546
100
AcDbArc
 50
217.8372929207
 51
218.6004272889
  0
ARC
  5
355
100
AcDbEntity
  8
0
100
AcDbCircle
 62
253
  6
CONTINUOUS
 10
25.6738762578
 20
-9.3247642741
 40
2.3555745987
100
AcDbArc
 50
212.9347100206
 51
214.6603537767
  0
ARC
  5
356
100
AcDbEntity
  8
0
100
AcDbCircle
 62
253
  6
CONTINUOUS
 10
25.6738762578
 20
-10.3017710689
 40
2.3555745987
100
AcDbArc
 50
145.3396462233
 51
147.0652899794
  0
ARC
  5
357
100
AcDbEntity
  8
0
100
AcDbCircle
 62
253
  6
CONTINUOUS
 10
25.6482792854
 20
-9.3410325736
 40
2.325246516
100
AcDbArc
 50
208.5931068782
 51
212.9411857768
  0
ARC
  5
358
100
AcDbEntity
  8
0
100
AcDbCircle
 62
253
  6
CONTINUOUS
 10
25.6482792854
 20
-10.2855027695
 40
2.325246516
100
AcDbArc
 50
147.0588142232
 51
151.4068931218
  0
ARC
  5
359
100
AcDbEntity
  8
0
100
AcDbCircle
 62
7
  6
CONTINUOUS
 10
23.0239528432
 20
-10.9170983918
 40
1.0041059595
100
AcDbArc
 50
63.9328373168
 51
64.6191994702
  0
ARC
  5
35A
100
AcDbEntity
  8
0
100
AcDbCircle
 62
7
  6
CONTINUOUS
 10
23.025454524
 20
-10.9132676715
 40
1.0
100
AcDbArc
 50
35.6853347127
 51
64.5978638381
  0
ARC
  5
35B
100
AcDbEntity
  8
0
100
AcDbCircle
 62
7
  6
CONTINUOUS
 10
23.025454524
 20
-8.7132676715
 40
1.0
100
AcDbArc
 50
292.4976585698
 51
324.3146652873
  0
ARC
  5
35C
100
AcDbEntity
  8
0
100
AcDbCircle
 62
7
  6
CONTINUOUS
 10
23.0268068785
 20
-10.9116512923
 40
0.997958823
100
AcDbArc
 50
35.6552501503
 51
63.9426051608
  0
ARC
  5
35D
100
AcDbEntity
  8
0
100
AcDbCircle
 62
253
  6
CONTINUOUS
 10
22.9865864972
 20
-8.7327789507
 40
0.9735689792
100
AcDbArc
 50
295.5856114569
 51
296.0543083053
  0
ARC
  5
35E
100
AcDbEntity
  8
0
100
AcDbCircle
 62
253
  6
CONTINUOUS
 10
22.990987221
 20
-10.8854270973
 40
0.9641469578
100
AcDbArc
 50
59.9505957191
 51
60.7977709588
  0
ARC
  5
35F
100
AcDbEntity
  8
0
100
AcDbCircle
 62
253
  6
CONTINUOUS
 10
23.0138276822
 20
-8.7714114656
 40
0.9259811249
100
AcDbArc
 50
315.3936073657
 51
323.7874811403
  0
ARC
  5
360
100
AcDbEntity
  8
0
100
AcDbCircle
 62
253
  6
CONTINUOUS
 10
23.842815675
 20
-10.7571038319
 40
0.4900625918
100
AcDbArc
 50
125.6817822629
 51
126.4097538655
  0
ARC
  5
361
100
AcDbEntity
  8
0
100
AcDbCircle
 62
7
  6
CONTINUOUS
 10
22.999491666
 20
-0.3632600813
 40
2.6999924166
100
AcDbArc
 50
38.9394726378
 51
157.3492741129
  0
ARC
  5
362
100
AcDbEntity
  8
0
100
AcDbCircle
 62
7
  6
CONTINUOUS
 10
23.0193538243
 20
-0.3471466693
 40
2.6744206317
100
AcDbArc
 50
37.114773993
 51
38.9381924408
  0
ARC
  5
363
100
AcDbEntity
  8
0
100
AcDbCircle
 62
7
  6
CONTINUOUS
 10
22.963459114
 20
-0.3487988511
 40
2.6611699209
100
AcDbArc
 50
157.3378467613
 51
158.1005954642
  0
ARC
  5
364
100
AcDbEntity
  8
0
100
AcDbCircle
 62
7
  6
CONTINUOUS
 10
23.0348912379
 20
-1.054056292
 40
2.6523919136
100
AcDbArc
 50
137.5786558888
 51
138.4482276205
  0
ARC
  5
365
100
AcDbEntity
  8
0
100
AcDbCircle
 62
7
  6
CONTINUOUS
 10
23.0223076603
 20
-1.0428532497
 40
2.6355439705
100
AcDbArc
 50
138.4490369441
 51
138.5836502206
  0
ARC
  5
366
100
AcDbEntity
  8
0
100
AcDbCircle
 62
7
  6
CONTINUOUS
 10
22.9797123495
 20
-1.0397907929
 40
2.6313118828
100
AcDbArc
 50
42.0847387788
 51
42.3696928287
  0
ARC
  5
367
100
AcDbEntity
  8
0
100
AcDbCircle
 62
7
  6
CONTINUOUS
 10
22.9826724769
 20
-1.0371156662
 40
2.6273220639
100
AcDbArc
 50
41.9150105451
 51
42.0847083812
  0
ARC
  5
368
100
AcDbEntity
  8
0
100
AcDbCircle
 62
7
  6
CONTINUOUS
 10
23.0132467047
 20
-1.0297743896
 40
2.6203729613
100
AcDbArc
 50
145.1117371586
 51
148.2661880586
  0
ARC
  5
369
100
AcDbEntity
  8
0
100
AcDbCircle
 62
7
  6
CONTINUOUS
 10
23.0112840559
 20
-1.0324007132
 40
2.6203566311
100
AcDbArc
 50
136.4039363695
 51
137.5799976664
  0
ARC
  5
36A
100
AcDbEntity
  8
0
100
AcDbCircle
 62
7
  6
CONTINUOUS
 10
22.9910721343
 20
-1.0293897577
 40
2.6159097595
100
AcDbArc
 50
42.3690594633
 51
43.8770685806
  0
ARC
  5
36B
100
AcDbEntity
  8
0
100
AcDbCircle
 62
7
  6
CONTINUOUS
 10
22.9940940304
 20
-1.0249416715
 40
2.6108067634
100
AcDbArc
 50
32.4033554267
 51
35.5786655487
  0
ARC
  5
36C
100
AcDbEntity
  8
0
100
AcDbCircle
 62
7
  6
CONTINUOUS
 10
22.9996477039
 20
-1.0273714613
 40
2.6101413784
100
AcDbArc
 50
86.8319263938
 51
90.0033997257
  0
ARC
  5
36D
100
AcDbEntity
  8
0
100
AcDbCircle
 62
7
  6
CONTINUOUS
 10
22.9986052801
 20
-1.0230284845
 40
2.6060552623
100
AcDbArc
 50
38.8522821699
 51
41.9185450495
  0
ARC
  5
36E
100
AcDbEntity
  8
0
100
AcDbCircle
 62
7
  6
CONTINUOUS
 10
22.999541842
 20
-1.0217003309
 40
2.6044702439
100
AcDbArc
 50
32.4073746492
 51
148.2586775336
  0
ARC
  5
36F
100
AcDbEntity
  8
0
100
AcDbCircle
 62
7
  6
CONTINUOUS
 10
22.9943173186
 20
-1.0185416279
 40
2.5984706367
100
AcDbArc
 50
138.5773768827
 51
141.7053485878
  0
ARC
  5
370
100
AcDbEntity
  8
0
100
AcDbCircle
 62
7
  6
CONTINUOUS
 10
23.0100323385
 20
-1.0136752568
 40
2.5912888342
100
AcDbArc
 50
35.581099016
 51
38.7588583602
  0
ARC
  5
371
100
AcDbEntity
  8
0
100
AcDbCircle
 62
7
  6
CONTINUOUS
 10
22.9783655056
 20
-1.0056506831
 40
2.5779625779
100
AcDbArc
 50
141.7099757831
 51
145.0004038296
  0
ARC
  5
372
100
AcDbEntity
  8
0
100
AcDbCircle
 62
253
  6
CONTINUOUS
 10
25.6896916332
 20
-1.9059317951
 40
1.5854124923
100
AcDbArc
 50
97.7827184842
 51
98.1658608518
  0
ARC
  5
373
100
AcDbEntity
  8
0
100
AcDbCircle
 62
7
  6
CONTINUOUS
 10
25.7914302938
 20
-0.7808277487
 40
0.7053842754
100
AcDbArc
 50
115.5519049188
 51
117.1973955154
  0
ARC
  5
374
100
AcDbEntity
  8
0
100
AcDbCircle
 62
7
  6
CONTINUOUS
 10
25.7910790491
 20
-0.7801531563
 40
0.7046237287
100
AcDbArc
 50
117.1970635462
 51
118.9941375191
  0
ARC
  5
375
100
AcDbEntity
  8
0
100
AcDbCircle
 62
7
  6
CONTINUOUS
 10
25.7893704245
 20
-0.7758178108
 40
0.7
100
AcDbArc
 50
115.585706508
 51
147.5926253508
  0
ARC
  5
376
100
AcDbEntity
  8
0
100
AcDbCircle
 62
7
  6
CONTINUOUS
 10
25.7873416596
 20
-0.773655142
 40
0.6971285374
100
AcDbArc
 50
118.9843356129
 51
147.6533267691
  0
ARC
  5
377
100
AcDbEntity
  8
TRASH
100
AcDbCircle
 62
7
  6
CONTINUOUS
 10
14.6994928274
 20
-0.0132676715
 40
28.0
100
AcDbArc
 50
55.8789063483
 51
56.4427876864
  0
ARC
  5
378
100
AcDbEntity
  8
TRASH
100
AcDbCircle
 62
7
  6
CONTINUOUS
 10
14.6994928274
 20
-0.0132676715
 40
28.0
100
AcDbArc
 50
53.1385891949
 51
54.0372348486
  0
ARC
  5
379
100
AcDbEntity
  8
TRASH
100
AcDbCircle
 62
7
  6
CONTINUOUS
 10
14.6994928274
 20
-0.0132676715
 40
28.0
100
AcDbArc
 50
305.9627651514
 51
306.8614108051
  0
ARC
  5
37A
100
AcDbEntity
  8
TRASH
100
AcDbCircle
 62
7
  6
CONTINUOUS
 10
14.6994928274
 20
-0.0132676715
 40
28.0
100
AcDbArc
 50
303.5572123136
 51
304.1210936517
  0
ARC
  5
37B
100
AcDbEntity
  8
0
100
AcDbCircle
 62
253
  6
CONTINUOUS
 10
3.5771093414
 20
27.2839690668
 40
30.4459058753
100
AcDbArc
 50
323.5929891705
 51
323.7754734521
  0
ARC
  5
37C
100
AcDbEntity
  8
RACCORDO
100
AcDbCircle
 62
7
  6
CONTINUOUS
 10
22.6930176089
 20
0.0435743149
 40
2.75
100
AcDbArc
 50
23.9213418922
 51
24.0533085546
  0
ARC
  5
37D
100
AcDbEntity
  8
0
100
AcDbCircle
 62
7
  6
CONTINUOUS
 10
19.63002476
 20
0.991218895
 40
0.9315215707
100
AcDbArc
 50
336.6600565521
 51
338.0991133888
  0
ARC
  5
37E
100
AcDbEntity
  8
0
100
AcDbCircle
 62
253
  6
CONTINUOUS
 10
19.8991880274
 20
0.7984979299
 40
0.7628805553
100
AcDbArc
 50
313.044076293
 51
314.0577162622
  0
ARC
  5
37F
100
AcDbEntity
  8
0
100
AcDbCircle
 62
7
  6
CONTINUOUS
 10
20.1867241536
 20
0.7181976658
 40
0.7029741529
100
AcDbArc
 50
319.0911591062
 51
328.2681958318
  0
ARC
  5
380
100
AcDbEntity
  8
0
100
AcDbCircle
 62
7
  6
CONTINUOUS
 10
20.1886652448
 20
0.7177264698
 40
0.701129187
100
AcDbArc
 50
288.1747377858
 51
313.3186566917
  0
ARC
  5
381
100
AcDbEntity
  8
0
100
AcDbCircle
 62
7
  6
CONTINUOUS
 10
20.1893148971
 20
0.7167323285
 40
0.7
100
AcDbArc
 50
288.144239825
 51
328.2586775336
  0
ARC
  5
382
100
AcDbEntity
  8
0
100
AcDbCircle
 62
7
  6
CONTINUOUS
 10
20.1916860967
 20
0.7140100081
 40
0.6964818387
100
AcDbArc
 50
313.3759547567
 51
319.0842050471
  0
ARC
  5
383
100
AcDbEntity
  8
RACCORDO
100
AcDbCircle
 62
253
  6
CONTINUOUS
 10
21.1048963936
 20
8.7189321698
 40
4.9042308404
100
AcDbArc
 50
135.0034027337
 51
179.9875305035
  0
ARC
  5
384
100
AcDbEntity
  8
RACCORDO
100
AcDbCircle
 62
253
  6
CONTINUOUS
 10
21.0999646131
 20
8.7111807092
 40
4.4993922637
100
AcDbArc
 50
134.9773855546
 51
179.9766687707
  0
ARC
  5
385
100
AcDbEntity
  8
RACCORDO
100
AcDbCircle
 62
253
  6
CONTINUOUS
 10
21.2453923804
 20
8.6527489537
 40
4.4993296393
100
AcDbArc
 50
135.0000791795
 51
179.9999208205
  0
ARC
  5
386
100
AcDbEntity
  8
RACCORDO
100
AcDbCircle
 62
253
  6
CONTINUOUS
 10
21.2446425763
 20
8.6530716912
 40
4.2985990582
100
AcDbArc
 50
134.9960577831
 51
180.0042188616
  0
ARC
  5
387
100
AcDbEntity
  8
0
100
AcDbCircle
 62
253
  6
CONTINUOUS
 10
22.398734837
 20
11.1153439321
 40
1.3921611665
100
AcDbArc
 50
326.241316784
 51
327.0858967841
  0
ARC
  5
388
100
AcDbEntity
  8
0
100
AcDbCircle
 62
253
  6
CONTINUOUS
 10
22.4900786517
 20
11.0575541341
 40
1.2840779052
100
AcDbArc
 50
327.035887891
 51
331.5453257494
  0
ARC
  5
389
100
AcDbEntity
  8
0
100
AcDbCircle
 62
253
  6
CONTINUOUS
 10
22.7495111233
 20
8.7293068515
 40
0.9489391413
100
AcDbArc
 50
45.6317841984
 51
46.2214540719
  0
ARC
  5
38A
100
AcDbEntity
  8
0
100
AcDbCircle
 62
253
  6
CONTINUOUS
 10
22.7524263554
 20
8.7322287492
 40
0.9448118671
100
AcDbArc
 50
42.1220339619
 51
45.6342583241
  0
ARC
  5
38B
100
AcDbEntity
  8
0
100
AcDbCircle
 62
253
  6
CONTINUOUS
 10
22.7640193266
 20
8.7425902544
 40
0.9292635716
100
AcDbArc
 50
37.5468412358
 51
42.1275972441
  0
CIRCLE
  5
38C
100
AcDbEntity
  8
RACCORDO
100
AcDbCircle
 62
253
  6
CONTINUOUS
 10
22.9494928274
 20
-0.0132676715
 40
2.9464612406
  0
ARC
  5
38D
100
AcDbEntity
  8
0
100
AcDbCircle
 62
7
  6
CONTINUOUS
 10
22.999491666
 20
0.3367247383
 40
2.6999924166
100
AcDbArc
 50
202.6507258871
 51
321.0605273622
  0
ARC
  5
38E
100
AcDbEntity
  8
0
100
AcDbCircle
 62
7
  6
CONTINUOUS
 10
23.0202162413
 20
0.319928747
 40
2.6733208343
100
AcDbArc
 50
321.0615699488
 51
322.6883562169
  0
ARC
  5
38F
100
AcDbEntity
  8
0
100
AcDbCircle
 62
7
  6
CONTINUOUS
 10
22.9634591141
 20
0.3222635081
 40
2.661169921
100
AcDbArc
 50
201.8994045358
 51
202.6621532387
  0
CIRCLE
  5
390
100
AcDbEntity
  8
RACCORDO
100
AcDbCircle
 62
7
  6
CONTINUOUS
 10
22.9494928274
 20
-0.0132676715
 40
2.5465397101
  0
CIRCLE
  5
391
100
AcDbEntity
  8
DRAFT
100
AcDbCircle
 62
7
  6
CONTINUOUS
 10
22.9494928274
 20
-0.0132676715
 40
2.5438911925
  0
ARC
  5
392
100
AcDbEntity
  8
0
100
AcDbCircle
 62
7
  6
CONTINUOUS
 10
23.034891238
 20
1.027520949
 40
2.6523919137
100
AcDbArc
 50
221.5517723795
 51
222.4213441112
  0
ARC
  5
393
100
AcDbEntity
  8
0
100
AcDbCircle
 62
7
  6
CONTINUOUS
 10
23.0223076596
 20
1.016317906
 40
2.6355439696
100
AcDbArc
 50
221.4163497794
 51
221.5509630559
  0
ARC
  5
394
100
AcDbEntity
  8
0
100
AcDbCircle
 62
7
  6
CONTINUOUS
 10
22.9998089013
 20
1.0229350146
 40
2.6322402892
100
AcDbArc
 50
266.8477695264
 51
269.9931200448
  0
ARC
  5
395
100
AcDbEntity
  8
0
100
AcDbCircle
 62
7
  6
CONTINUOUS
 10
22.9797123497
 20
1.0132554496
 40
2.6313118826
100
AcDbArc
 50
317.6303071713
 51
317.9152612212
  0
ARC
  5
396
100
AcDbEntity
  8
0
100
AcDbCircle
 62
7
  6
CONTINUOUS
 10
22.9826724755
 20
1.0105803245
 40
2.6273220659
100
AcDbArc
 50
317.9152916188
 51
318.0849894548
  0
ARC
  5
397
100
AcDbEntity
  8
0
100
AcDbCircle
 62
7
  6
CONTINUOUS
 10
23.0132467048
 20
1.0032390466
 40
2.6203729613
100
AcDbArc
 50
211.7338119414
 51
214.8882628414
  0
ARC
  5
398
100
AcDbEntity
  8
0
100
AcDbCircle
 62
7
  6
CONTINUOUS
 10
23.011284056
 20
1.0058653702
 40
2.6203566312
100
AcDbArc
 50
222.4200023337
 51
223.5960636305
  0
ARC
  5
399
100
AcDbEntity
  8
0
100
AcDbCircle
 62
7
  6
CONTINUOUS
 10
22.9910721343
 20
1.0028544146
 40
2.6159097595
100
AcDbArc
 50
316.1229314194
 51
317.6309405367
  0
ARC
  5
39A
100
AcDbEntity
  8
0
100
AcDbCircle
 62
7
  6
CONTINUOUS
 10
22.9940940304
 20
0.9984063285
 40
2.6108067634
100
AcDbArc
 50
324.4213344513
 51
327.5966445733
  0
ARC
  5
39B
100
AcDbEntity
  8
0
100
AcDbCircle
 62
7
  6
CONTINUOUS
 10
22.9986052802
 20
0.9964931415
 40
2.6060552623
100
AcDbArc
 50
318.0814549505
 51
321.1477178301
  0
ARC
  5
39C
100
AcDbEntity
  8
0
100
AcDbCircle
 62
7
  6
CONTINUOUS
 10
22.9997368887
 20
0.9955822714
 40
2.6049160663
100
AcDbArc
 50
223.6073991528
 51
266.8162680896
  0
ARC
  5
39D
100
AcDbEntity
  8
0
100
AcDbCircle
 62
7
  6
CONTINUOUS
 10
22.999541842
 20
0.9951649879
 40
2.6044702439
100
AcDbArc
 50
211.7413224664
 51
327.5926253508
  0
ARC
  5
39E
100
AcDbEntity
  8
0
100
AcDbCircle
 62
7
  6
CONTINUOUS
 10
22.9943173186
 20
0.9920062849
 40
2.5984706367
100
AcDbArc
 50
218.2946514123
 51
221.4226231173
  0
ARC
  5
39F
100
AcDbEntity
  8
0
100
AcDbCircle
 62
7
  6
CONTINUOUS
 10
23.0100323385
 20
0.9871399138
 40
2.5912888342
100
AcDbArc
 50
321.2411416398
 51
324.418900984
  0
ARC
  5
3A0
100
AcDbEntity
  8
0
100
AcDbCircle
 62
7
  6
CONTINUOUS
 10
22.9783655056
 20
0.9791153401
 40
2.5779625779
100
AcDbArc
 50
214.9995961704
 51
218.2900242171
  0
ARC
  5
3A1
100
AcDbEntity
  8
0
100
AcDbCircle
 62
7
  6
CONTINUOUS
 10
25.7914302938
 20
0.7542924057
 40
0.7053842754
100
AcDbArc
 50
242.8026044846
 51
244.7496407938
  0
ARC
  5
3A2
100
AcDbEntity
  8
0
100
AcDbCircle
 62
7
  6
CONTINUOUS
 10
25.7910790491
 20
0.7536178132
 40
0.7046237287
100
AcDbArc
 50
241.0058624808
 51
242.8029364538
  0
ARC
  5
3A3
100
AcDbEntity
  8
0
100
AcDbCircle
 62
7
  6
CONTINUOUS
 10
25.7893704245
 20
0.7492824678
 40
0.7
100
AcDbArc
 50
212.4073746492
 51
244.717909995
  0
ARC
  5
3A4
100
AcDbEntity
  8
0
100
AcDbCircle
 62
7
  6
CONTINUOUS
 10
25.7873416596
 20
0.747119799
 40
0.6971285374
100
AcDbArc
 50
212.3466732309
 51
241.0156643871
  0
ARC
  5
3A5
100
AcDbEntity
  8
0
100
AcDbCircle
 62
253
  6
CONTINUOUS
 10
25.6895083114
 20
1.8780999518
 40
1.5841030983
100
AcDbArc
 50
261.8340418276
 51
262.1575097747
  0
ARC
  5
3A6
100
AcDbEntity
  8
0
100
AcDbCircle
 62
7
  6
CONTINUOUS
 10
25.9435219716
 20
10.3881838022
 40
3.3727870053
100
AcDbArc
 50
270.1014290477
 51
289.1292732468
  0
ARC
  5
3A7
100
AcDbEntity
  8
0
100
AcDbCircle
 62
7
  6
CONTINUOUS
 10
25.9192097298
 20
10.3050993815
 40
3.2876799891
100
AcDbArc
 50
250.700940841
 51
251.781821458
  0
ARC
  5
3A8
100
AcDbEntity
  8
0
100
AcDbCircle
 62
7
  6
CONTINUOUS
 10
25.9494810312
 20
10.0366943048
 40
2.6999619763
100
AcDbArc
 50
203.0745228039
 51
270.0002503271
  0
ARC
  5
3A9
100
AcDbEntity
  8
0
100
AcDbCircle
 62
7
  6
CONTINUOUS
 10
25.9295179575
 20
10.0290408623
 40
2.6785965465
100
AcDbArc
 50
202.0062709509
 51
203.0912703549
  0
ARC
  5
3AA
100
AcDbEntity
  8
0
100
AcDbCircle
 62
7
  6
CONTINUOUS
 10
25.9329025706
 20
10.7996422471
 40
2.6210198131
100
AcDbArc
 50
322.1624516369
 51
322.5233080752
  0
ARC
  5
3AB
100
AcDbEntity
  8
0
100
AcDbCircle
 62
7
  6
CONTINUOUS
 10
25.9368014139
 20
8.7768352305
 40
2.616094209
100
AcDbArc
 50
37.3609084332
 51
37.83784957
  0
ARC
  5
3AC
100
AcDbEntity
  8
0
100
AcDbCircle
 62
7
  6
CONTINUOUS
 10
25.9426887749
 20
8.778210997
 40
2.6106315613
100
AcDbArc
 50
38.6436858031
 51
64.2291328636
  0
ARC
  5
3AD
100
AcDbEntity
  8
0
100
AcDbCircle
 62
7
  6
CONTINUOUS
 10
25.9357860999
 20
10.7760536273
 40
2.5826245235
100
AcDbArc
 50
215.670293199
 51
220.0628738705
  0
ARC
  5
3AE
100
AcDbEntity
  8
0
100
AcDbCircle
 62
7
  6
CONTINUOUS
 10
25.9345370967
 20
8.7982870944
 40
2.5811122685
100
AcDbArc
 50
140.6952788314
 51
144.3293378811
  0
ARC
  5
3AF
100
AcDbEntity
  8
0
100
AcDbCircle
 62
253
  6
CONTINUOUS
 10
25.681998683
 20
9.3287948026
 40
2.3459603806
100
AcDbArc
 50
146.1025927547
 51
147.7984241244
  0
ARC
  5
3B0
100
AcDbEntity
  8
0
100
AcDbCircle
 62
253
  6
CONTINUOUS
 10
25.681998683
 20
10.2446698544
 40
2.3459603805
100
AcDbArc
 50
212.2015758756
 51
213.8974072453
  0
ARC
  5
3B1
100
AcDbEntity
  8
0
100
AcDbCircle
 62
253
  6
CONTINUOUS
 10
25.6669938482
 20
9.3380869421
 40
2.3283118387
100
AcDbArc
 50
147.7951448016
 51
151.5930171934
  0
ARC
  5
3B2
100
AcDbEntity
  8
0
100
AcDbCircle
 62
253
  6
CONTINUOUS
 10
25.6669938482
 20
10.2353777148
 40
2.3283118387
100
AcDbArc
 50
208.4069828066
 51
212.2048551984
  0
ARC
  5
3B3
100
AcDbEntity
  8
0
100
AcDbCircle
 62
7
  6
CONTINUOUS
 10
23.0182766125
 20
10.9010940922
 40
1.0160479386
100
AcDbArc
 50
297.1187098207
 51
298.3393590755
  0
ARC
  5
3B4
100
AcDbEntity
  8
0
100
AcDbCircle
 62
7
  6
CONTINUOUS
 10
23.0193204306
 20
10.8990587663
 40
1.0137605589
100
AcDbArc
 50
296.1157575106
 51
297.1186368546
  0
ARC
  5
3B5
100
AcDbEntity
  8
0
100
AcDbCircle
 62
7
  6
CONTINUOUS
 10
23.0200122546
 20
10.8976530529
 40
1.0121938284
100
AcDbArc
 50
295.648889881
 51
296.1156206545
  0
ARC
  5
3B6
100
AcDbEntity
  8
0
100
AcDbCircle
 62
253
  6
CONTINUOUS
 10
22.9610681466
 20
8.6816154183
 40
1.0034714986
100
AcDbArc
 50
63.1747809398
 51
63.4746597774
  0
ARC
  5
3B7
100
AcDbEntity
  8
0
100
AcDbCircle
 62
7
  6
CONTINUOUS
 10
23.025454524
 20
8.6867323285
 40
1.0
100
AcDbArc
 50
35.6853347127
 51
67.3161803711
  0
ARC
  5
3B8
100
AcDbEntity
  8
0
100
AcDbCircle
 62
7
  6
CONTINUOUS
 10
23.025454524
 20
10.8867323285
 40
1.0
100
AcDbArc
 50
295.6458671633
 51
324.3146652873
  0
ARC
  5
3B9
100
AcDbEntity
  8
0
100
AcDbCircle
 62
7
  6
CONTINUOUS
 10
23.0291712983
 20
10.8825069844
 40
0.9945171328
100
AcDbArc
 50
298.2952397771
 51
324.3874775098
  0
ARC
  5
3BA
100
AcDbEntity
  8
0
100
AcDbCircle
 62
253
  6
CONTINUOUS
 10
22.9685695575
 20
10.8781050936
 40
0.987810616
100
AcDbArc
 50
300.208059746
 51
300.8463740214
  0
ARC
  5
3BB
100
AcDbEntity
  8
0
100
AcDbCircle
 62
253
  6
CONTINUOUS
 10
22.991550934
 20
8.7261866653
 40
0.9492139976
100
AcDbArc
 50
37.2426137809
 51
41.7405620387
  0
ARC
  5
3BC
100
AcDbEntity
  8
RACCORDO
100
AcDbCircle
 62
253
  6
CONTINUOUS
 10
25.9494918484
 20
15.3483531141
 40
3.2323126134
100
AcDbArc
 50
45.0279842468
 51
134.9708233612
  0
ARC
  5
3BD
100
AcDbEntity
  8
TRASH
100
AcDbCircle
 62
7
  6
CONTINUOUS
 10
22.2746335361
 20
22.4868906469
 40
0.9998416816
100
AcDbArc
 50
89.9998960976
 51
123.557316216
  0
ARC
  5
3BE
100
AcDbEntity
  8
0
100
AcDbCircle
 62
253
  6
CONTINUOUS
 10
15.4409068485
 20
21.461450158
 40
0.5001648518
100
AcDbArc
 50
90.0242999903
 51
179.8998124164
  0
ARC
  5
3BF
100
AcDbEntity
  8
TRASH
100
AcDbCircle
 62
7
  6
CONTINUOUS
 10
20.9994928274
 20
23.0867323285
 40
0.5
100
AcDbArc
 50
240.887577224
 51
9.196281579
  0
ARC
  5
3C0
100
AcDbEntity
  8
RACCORDO
100
AcDbCircle
 62
253
  6
CONTINUOUS
 10
25.9494938078
 20
-15.374888525
 40
3.2323126134
100
AcDbArc
 50
225.0279833797
 51
314.9708241945
  0
ARC
  5
3C1
100
AcDbEntity
  8
RACCORDO
100
AcDbCircle
 62
253
  6
CONTINUOUS
 10
25.9494928274
 20
-15.3772287022
 40
3.0894690552
100
AcDbArc
 50
225.0
 51
315.0
  0
ARC
  5
3C2
100
AcDbEntity
  8
RACCORDO
100
AcDbCircle
 62
253
  6
CONTINUOUS
 10
25.9494928274
 20
-15.3772287022
 40
2.8894980349
100
AcDbArc
 50
225.0
 51
315.0
  0
ARC
  5
3C3
100
AcDbEntity
  8
TRASH
100
AcDbCircle
 62
7
  6
CONTINUOUS
 10
29.6243521188
 20
-22.5134259899
 40
0.9998416816
100
AcDbArc
 50
269.9998960976
 51
303.557316216
  0
ARC
  5
3C4
100
AcDbEntity
  8
0
100
AcDbCircle
 62
253
  6
CONTINUOUS
 10
36.4580788197
 20
-21.4879854766
 40
0.5001648573
100
AcDbArc
 50
270.0242984725
 51
359.8998096138
  0
ARC
  5
3C5
100
AcDbEntity
  8
TRASH
100
AcDbCircle
 62
7
  6
CONTINUOUS
 10
30.8994928274
 20
-23.1132676715
 40
0.5
100
AcDbArc
 50
60.887577224
 51
189.196281579
  0
ARC
  5
3C6
100
AcDbEntity
  8
0
100
AcDbCircle
 62
7
  6
CONTINUOUS
 10
25.9494928274
 20
-12.4132676715
 40
4.5
100
AcDbArc
 50
58.3846600277
 51
121.6153399723
  0
ARC
  5
3C7
100
AcDbEntity
  8
0
100
AcDbCircle
 62
7
  6
CONTINUOUS
 10
25.9494928274
 20
-12.4132676715
 40
4.1
100
AcDbArc
 50
56.2510114041
 51
123.7489885959
  0
ARC
  5
3C8
100
AcDbEntity
  8
0
100
AcDbCircle
 62
7
  6
CONTINUOUS
 10
25.9570903732
 20
-10.4243774886
 40
3.3825006395
100
AcDbArc
 50
90.1286936013
 51
109.1016934503
  0
ARC
  5
3C9
100
AcDbEntity
  8
0
100
AcDbCircle
 62
7
  6
CONTINUOUS
 10
25.9797759251
 20
-10.3316347245
 40
3.2876799891
100
AcDbArc
 50
70.700940841
 51
71.781821458
  0
ARC
  5
3CA
100
AcDbEntity
  8
0
100
AcDbCircle
 62
7
  6
CONTINUOUS
 10
25.9495046237
 20
-10.0632296478
 40
2.6999619763
100
AcDbArc
 50
23.0745228039
 51
90.0002503271
  0
ARC
  5
3CB
100
AcDbEntity
  8
0
100
AcDbCircle
 62
7
  6
CONTINUOUS
 10
25.9694676975
 20
-10.0555762053
 40
2.6785965465
100
AcDbArc
 50
22.0062709509
 51
23.0912703549
  0
ARC
  5
3CC
100
AcDbEntity
  8
0
100
AcDbCircle
 62
7
  6
CONTINUOUS
 10
25.9660830841
 20
-10.82617759
 40
2.6210198129
100
AcDbArc
 50
142.1624516369
 51
142.5233080752
  0
ARC
  5
3CD
100
AcDbEntity
  8
0
100
AcDbCircle
 62
7
  6
CONTINUOUS
 10
25.963199555
 20
-10.8025889704
 40
2.5826245235
100
AcDbArc
 50
35.670293199
 51
40.0628738705
  0
ARC
  5
3CE
100
AcDbEntity
  8
0
100
AcDbCircle
 62
7
  6
CONTINUOUS
 10
25.9494928274
 20
-7.2132676715
 40
4.5
100
AcDbArc
 50
247.3501002521
 51
292.6498997479
  0
ARC
  5
3CF
100
AcDbEntity
  8
0
100
AcDbCircle
 62
7
  6
CONTINUOUS
 10
25.9494928274
 20
-7.2132676715
 40
4.1
100
AcDbArc
 50
236.2510114041
 51
303.7489885959
  0
CIRCLE
  5
3D0
100
AcDbEntity
  8
RACCORDO
100
AcDbCircle
 62
253
  6
CONTINUOUS
 10
25.9494928274
 20
-9.5132676715
 40
2.9464612406
  0
ARC
  5
3D1
100
AcDbEntity
  8
0
100
AcDbCircle
 62
7
  6
CONTINUOUS
 10
25.9621842413
 20
-8.8033705732
 40
2.6160942094
100
AcDbArc
 50
217.3609084333
 51
217.83784957
  0
ARC
  5
3D2
100
AcDbEntity
  8
0
100
AcDbCircle
 62
7
  6
CONTINUOUS
 10
25.95629688
 20
-8.80474634
 40
2.6106315613
100
AcDbArc
 50
218.6436858031
 51
244.2291328636
  0
ARC
  5
3D3
100
AcDbEntity
  8
0
100
AcDbCircle
 62
7
  6
CONTINUOUS
 10
25.9494928274
 20
-8.8132676715
 40
2.6
100
AcDbArc
 50
295.7865383031
 51
324.3146652873
  0
ARC
  5
3D4
100
AcDbEntity
  8
0
100
AcDbCircle
 62
7
  6
CONTINUOUS
 10
25.9494928274
 20
-8.8132676715
 40
2.6
100
AcDbArc
 50
215.6853347127
 51
244.2134616969
  0
ARC
  5
3D5
100
AcDbEntity
  8
0
100
AcDbCircle
 62
7
  6
CONTINUOUS
 10
25.9644485582
 20
-8.8248224374
 40
2.5811122685
100
AcDbArc
 50
320.6952788314
 51
324.3293378811
  0
CIRCLE
  5
3D6
100
AcDbEntity
  8
RACCORDO
100
AcDbCircle
 62
7
  6
CONTINUOUS
 10
25.9494928274
 20
-9.5132676715
 40
2.5465397101
  0
CIRCLE
  5
3D7
100
AcDbEntity
  8
DRAFT
100
AcDbCircle
 62
7
  6
CONTINUOUS
 10
25.9494928274
 20
-9.5132676715
 40
2.5438911925
  0
ARC
  5
3D8
100
AcDbEntity
  8
0
100
AcDbCircle
 62
253
  6
CONTINUOUS
 10
26.2169869719
 20
-10.2712051974
 40
2.3459603805
100
AcDbArc
 50
32.2015758756
 51
33.8974072453
  0
ARC
  5
3D9
100
AcDbEntity
  8
0
100
AcDbCircle
 62
253
  6
CONTINUOUS
 10
26.2319918067
 20
-10.2619130579
 40
2.3283118387
100
AcDbArc
 50
28.4069828066
 51
32.2048551984
  0
ARC
  5
3DA
100
AcDbEntity
  8
0
100
AcDbCircle
 62
253
  6
CONTINUOUS
 10
26.2169869719
 20
-9.3553301456
 40
2.3459603805
100
AcDbArc
 50
326.1025927547
 51
327.7984241244
  0
ARC
  5
3DB
100
AcDbEntity
  8
0
100
AcDbCircle
 62
253
  6
CONTINUOUS
 10
26.2319918067
 20
-9.3646222852
 40
2.3283118387
100
AcDbArc
 50
327.7951448016
 51
331.5930171934
  0
ARC
  5
3DC
100
AcDbEntity
  8
0
100
AcDbCircle
 62
253
  6
CONTINUOUS
 10
27.0885986441
 20
-1.9328418793
 40
2.2312406624
100
AcDbArc
 50
136.7929070995
 51
136.9552551245
  0
ARC
  5
3DD
100
AcDbEntity
  8
RACCORDO
100
AcDbCircle
 62
253
  6
CONTINUOUS
 10
30.7940891276
 20
-8.7454673577
 40
4.9042308404
100
AcDbArc
 50
315.0034025564
 51
359.9875286905
  0
ARC
  5
3DE
100
AcDbEntity
  8
RACCORDO
100
AcDbCircle
 62
253
  6
CONTINUOUS
 10
30.7990209781
 20
-8.737715946
 40
4.4993922637
100
AcDbArc
 50
314.9773851713
 51
359.9766674174
  0
ARC
  5
3DF
100
AcDbEntity
  8
RACCORDO
100
AcDbCircle
 62
253
  6
CONTINUOUS
 10
30.6535932745
 20
-8.6792842967
 40
4.4993296393
100
AcDbArc
 50
315.0000791795
 51
359.9999208205
  0
ARC
  5
3E0
100
AcDbEntity
  8
RACCORDO
100
AcDbCircle
 62
253
  6
CONTINUOUS
 10
30.6543430401
 20
-8.6796069319
 40
4.2985990582
100
AcDbArc
 50
314.9960571817
 51
0.0042174982
  0
ARC
  5
3E1
100
AcDbEntity
  8
0
100
AcDbCircle
 62
253
  6
CONTINUOUS
 10
29.5002508178
 20
-11.1418792751
 40
1.3921611665
100
AcDbArc
 50
146.241316784
 51
147.0858967841
  0
ARC
  5
3E2
100
AcDbEntity
  8
0
100
AcDbCircle
 62
253
  6
CONTINUOUS
 10
29.4089070032
 20
-11.0840894772
 40
1.2840779052
100
AcDbArc
 50
147.035887891
 51
151.5453257494
  0
ARC
  5
3E3
100
AcDbEntity
  8
0
100
AcDbCircle
 62
7
  6
CONTINUOUS
 10
28.8807090424
 20
-10.9276294352
 40
1.0160479387
100
AcDbArc
 50
117.1187098208
 51
118.3393590755
  0
ARC
  5
3E4
100
AcDbEntity
  8
0
100
AcDbCircle
 62
7
  6
CONTINUOUS
 10
28.8796652242
 20
-10.9255941092
 40
1.0137605588
100
AcDbArc
 50
116.1157575105
 51
117.1186368547
  0
ARC
  5
3E5
100
AcDbEntity
  8
0
100
AcDbCircle
 62
7
  6
CONTINUOUS
 10
28.8789734002
 20
-10.9241883957
 40
1.0121938281
100
AcDbArc
 50
115.6488898809
 51
116.1156206546
  0
ARC
  5
3E6
100
AcDbEntity
  8
0
100
AcDbCircle
 62
253
  6
CONTINUOUS
 10
28.9379175083
 20
-8.7081507613
 40
1.0034714987
100
AcDbArc
 50
243.1747809398
 51
243.4746597774
  0
ARC
  5
3E7
100
AcDbEntity
  8
0
100
AcDbCircle
 62
7
  6
CONTINUOUS
 10
28.8735311309
 20
-8.7132676715
 40
1.0
100
AcDbArc
 50
215.6853347127
 51
247.3161803711
  0
ARC
  5
3E8
100
AcDbEntity
  8
0
100
AcDbCircle
 62
7
  6
CONTINUOUS
 10
28.8735311309
 20
-10.9132676715
 40
1.0
100
AcDbArc
 50
115.6458671633
 51
144.3146652873
  0
ARC
  5
3E9
100
AcDbEntity
  8
0
100
AcDbCircle
 62
7
  6
CONTINUOUS
 10
28.8698143566
 20
-10.9090423275
 40
0.9945171328
100
AcDbArc
 50
118.2952397771
 51
144.3874775098
  0
ARC
  5
3EA
100
AcDbEntity
  8
0
100
AcDbCircle
 62
253
  6
CONTINUOUS
 10
28.9304160974
 20
-10.9046404367
 40
0.9878106161
100
AcDbArc
 50
120.208059746
 51
120.8463740214
  0
ARC
  5
3EB
100
AcDbEntity
  8
0
100
AcDbCircle
 62
253
  6
CONTINUOUS
 10
28.9074347209
 20
-8.7527220083
 40
0.9492139976
100
AcDbArc
 50
217.2426137809
 51
221.7405620387
  0
ARC
  5
3EC
100
AcDbEntity
  8
0
100
AcDbCircle
 62
253
  6
CONTINUOUS
 10
29.1494745318
 20
-8.7558421943
 40
0.9489391417
100
AcDbArc
 50
225.6317841985
 51
226.2214540718
  0
ARC
  5
3ED
100
AcDbEntity
  8
0
100
AcDbCircle
 62
253
  6
CONTINUOUS
 10
29.1465592995
 20
-8.7587640922
 40
0.9448118671
100
AcDbArc
 50
222.1220339619
 51
225.6342583241
  0
ARC
  5
3EE
100
AcDbEntity
  8
0
100
AcDbCircle
 62
253
  6
CONTINUOUS
 10
29.1349663283
 20
-8.7691255974
 40
0.9292635716
100
AcDbArc
 50
217.5468412358
 51
222.1275972441
  0
ARC
  5
3EF
100
AcDbEntity
  8
0
100
AcDbCircle
 62
253
  6
CONTINUOUS
 10
48.321876315
 20
-27.3105044109
 40
30.4459058772
100
AcDbArc
 50
143.5929891705
 51
143.7754734521
  0
ARC
  5
3F0
100
AcDbEntity
  8
0
100
AcDbCircle
 62
253
  6
CONTINUOUS
 10
27.0910572273
 20
1.9086085621
 40
2.2346087385
100
AcDbArc
 50
223.0448529523
 51
223.3123235968
  0
ARC
  5
3F1
100
AcDbEntity
  8
0
100
AcDbCircle
 62
7
  6
CONTINUOUS
 10
25.9494928274
 20
7.1867323285
 40
4.5
100
AcDbArc
 50
67.3501002521
 51
112.6498997479
  0
ARC
  5
3F2
100
AcDbEntity
  8
0
100
AcDbCircle
 62
7
  6
CONTINUOUS
 10
25.9494928274
 20
7.1867323285
 40
4.1
100
AcDbArc
 50
56.2510114041
 51
123.7489885959
  0
ARC
  5
3F3
100
AcDbEntity
  8
0
100
AcDbCircle
 62
7
  6
CONTINUOUS
 10
25.9782462461
 20
8.7624665104
 40
2.6376242414
100
AcDbArc
 50
139.9498130174
 51
140.6946225415
  0
ARC
  5
3F4
100
AcDbEntity
  8
0
100
AcDbCircle
 62
7
  6
CONTINUOUS
 10
25.9529025851
 20
8.7838879651
 40
2.604440335
100
AcDbArc
 50
138.1432399356
 51
139.9517957761
  0
ARC
  5
3F5
100
AcDbEntity
  8
0
100
AcDbCircle
 62
7
  6
CONTINUOUS
 10
25.9494928274
 20
8.7867323285
 40
2.6
100
AcDbArc
 50
115.7587745018
 51
144.3146652873
  0
ARC
  5
3F6
100
AcDbEntity
  8
0
100
AcDbCircle
 62
7
  6
CONTINUOUS
 10
25.9494928274
 20
8.7867323285
 40
2.6
100
AcDbArc
 50
35.6853347127
 51
64.2134616969
  0
ARC
  5
3F7
100
AcDbEntity
  8
0
100
AcDbCircle
 62
7
  6
CONTINUOUS
 10
25.9577207614
 20
8.7928602581
 40
2.5897423821
100
AcDbArc
 50
35.6814037504
 51
37.3599661844
  0
ARC
  5
3F8
100
AcDbEntity
  8
0
100
AcDbCircle
 62
7
  6
CONTINUOUS
 10
25.9754608446
 20
8.8068950644
 40
2.5671233548
100
AcDbArc
 50
37.8372929207
 51
38.6004272889
  0
ARC
  5
3F9
100
AcDbEntity
  8
0
100
AcDbCircle
 62
7
  6
CONTINUOUS
 10
25.9559632285
 20
10.348875096
 40
3.3315942747
100
AcDbArc
 50
289.1486588043
 51
290.1248443989
  0
CIRCLE
  5
3FA
100
AcDbEntity
  8
RACCORDO
100
AcDbCircle
 62
253
  6
CONTINUOUS
 10
25.9494928274
 20
9.4867323285
 40
2.9464612406
  0
ARC
  5
3FB
100
AcDbEntity
  8
0
100
AcDbCircle
 62
7
  6
CONTINUOUS
 10
25.9494948992
 20
10.0367255814
 40
2.6999932529
100
AcDbArc
 50
269.9999560364
 51
336.8923312988
  0
ARC
  5
3FC
100
AcDbEntity
  8
0
100
AcDbCircle
 62
7
  6
CONTINUOUS
 10
25.9657923906
 20
10.0300813113
 40
2.6823957292
100
AcDbArc
 50
336.88624535
 51
337.5565574944
  0
ARC
  5
3FD
100
AcDbEntity
  8
0
100
AcDbCircle
 62
7
  6
CONTINUOUS
 10
25.9688100353
 20
10.0288300384
 40
2.6791289505
100
AcDbArc
 50
337.5566526071
 51
337.7503174015
  0
ARC
  5
3FE
100
AcDbEntity
  8
0
100
AcDbCircle
 62
7
  6
CONTINUOUS
 10
25.9495531967
 20
10.7867895763
 40
2.6000712198
100
AcDbArc
 50
220.0486770123
 51
244.2465592437
  0
ARC
  5
3FF
100
AcDbEntity
  8
0
100
AcDbCircle
 62
7
  6
CONTINUOUS
 10
25.949493527
 20
10.7867904112
 40
2.600035077
100
AcDbArc
 50
295.7071381938
 51
322.1618450828
  0
ARC
  5
400
100
AcDbEntity
  8
0
100
AcDbCircle
 62
7
  6
CONTINUOUS
 10
25.9581274692
 20
10.7803008087
 40
2.5892332319
100
AcDbArc
 50
322.5233430459
 51
324.3188036969
  0
CIRCLE
  5
401
100
AcDbEntity
  8
RACCORDO
100
AcDbCircle
 62
7
  6
CONTINUOUS
 10
25.9494928274
 20
9.4867323285
 40
2.5465397101
  0
CIRCLE
  5
402
100
AcDbEntity
  8
DRAFT
100
AcDbCircle
 62
7
  6
CONTINUOUS
 10
25.9494928274
 20
9.4867323285
 40
2.5438911925
  0
ARC
  5
403
100
AcDbEntity
  8
0
100
AcDbCircle
 62
253
  6
CONTINUOUS
 10
26.225109397
 20
9.2982289311
 40
2.3555745987
100
AcDbArc
 50
32.9347100206
 51
34.6603537767
  0
ARC
  5
404
100
AcDbEntity
  8
0
100
AcDbCircle
 62
253
  6
CONTINUOUS
 10
26.225109397
 20
10.2752357259
 40
2.3555745987
100
AcDbArc
 50
325.3396462233
 51
327.0652899794
  0
ARC
  5
405
100
AcDbEntity
  8
0
100
AcDbCircle
 62
253
  6
CONTINUOUS
 10
26.2507063695
 20
9.3144972305
 40
2.325246516
100
AcDbArc
 50
28.5931068782
 51
32.9411857768
  0
ARC
  5
406
100
AcDbEntity
  8
0
100
AcDbCircle
 62
253
  6
CONTINUOUS
 10
26.2507063695
 20
10.2589674264
 40
2.325246516
100
AcDbArc
 50
327.0588142232
 51
331.4068931218
  0
ARC
  5
407
100
AcDbEntity
  8
0
100
AcDbCircle
 62
253
  6
CONTINUOUS
 10
28.05616998
 20
10.7305684888
 40
0.4900625917
100
AcDbArc
 50
305.6817822628
 51
306.4097538656
  0
ARC
  5
408
100
AcDbEntity
  8
RACCORDO
100
AcDbCircle
 62
253
  6
CONTINUOUS
 10
30.7939464669
 20
8.718846996
 40
4.9043884771
100
AcDbArc
 50
0.0134641812
 51
44.996121386
  0
ARC
  5
409
100
AcDbEntity
  8
RACCORDO
100
AcDbCircle
 62
253
  6
CONTINUOUS
 10
30.6535932713
 20
8.6527489524
 40
4.4993296425
100
AcDbArc
 50
0.0000791963
 51
44.9999208037
  0
ARC
  5
40A
100
AcDbEntity
  8
RACCORDO
100
AcDbCircle
 62
253
  6
CONTINUOUS
 10
30.7995100842
 20
8.7113835092
 40
4.498884438
100
AcDbArc
 50
0.0207509976
 51
45.0251946216
  0
ARC
  5
40B
100
AcDbEntity
  8
RACCORDO
100
AcDbCircle
 62
253
  6
CONTINUOUS
 10
30.654351371
 20
8.6530509111
 40
4.2985992669
100
AcDbArc
 50
359.9960581069
 51
45.004216216
  0
ARC
  5
40C
100
AcDbEntity
  8
0
100
AcDbCircle
 62
253
  6
CONTINUOUS
 10
29.4624734545
 20
11.0680764694
 40
1.3341132347
100
AcDbArc
 50
211.9173780598
 51
213.2716512165
  0
ARC
  5
40D
100
AcDbEntity
  8
0
100
AcDbCircle
 62
253
  6
CONTINUOUS
 10
29.429213178
 20
8.5261675519
 40
1.2949055632
100
AcDbArc
 50
146.6896898529
 51
151.3945485379
  0
ARC
  5
40E
100
AcDbEntity
  8
0
100
AcDbCircle
 62
253
  6
CONTINUOUS
 10
29.4211505963
 20
11.0427920697
 40
1.2856702244
100
AcDbArc
 50
208.6012189764
 51
211.934559432
  0
ARC
  5
40F
100
AcDbEntity
  8
0
100
AcDbCircle
 62
7
  6
CONTINUOUS
 10
28.8750328117
 20
10.8905630487
 40
1.0041059593
100
AcDbArc
 50
243.9328373167
 51
244.6191994703
  0
ARC
  5
410
100
AcDbEntity
  8
0
100
AcDbCircle
 62
7
  6
CONTINUOUS
 10
28.8735311309
 20
10.8867323285
 40
1.0
100
AcDbArc
 50
215.6853347127
 51
244.5978638381
  0
ARC
  5
411
100
AcDbEntity
  8
0
100
AcDbCircle
 62
7
  6
CONTINUOUS
 10
28.8735311309
 20
8.6867323285
 40
1.0
100
AcDbArc
 50
112.4976585698
 51
144.3146652873
  0
ARC
  5
412
100
AcDbEntity
  8
0
100
AcDbCircle
 62
7
  6
CONTINUOUS
 10
28.8721787764
 20
10.8851159493
 40
0.997958823
100
AcDbArc
 50
215.6552501503
 51
243.9426051608
  0
ARC
  5
413
100
AcDbEntity
  8
0
100
AcDbCircle
 62
253
  6
CONTINUOUS
 10
28.9123991577
 20
8.7062436077
 40
0.9735689792
100
AcDbArc
 50
115.5856114569
 51
116.0543083053
  0
ARC
  5
414
100
AcDbEntity
  8
0
100
AcDbCircle
 62
253
  6
CONTINUOUS
 10
28.9079984339
 20
10.8588917542
 40
0.9641469577
100
AcDbArc
 50
239.9505957191
 51
240.7977709588
  0
ARC
  5
415
100
AcDbEntity
  8
0
100
AcDbCircle
 62
253
  6
CONTINUOUS
 10
28.8851579727
 20
8.7448761226
 40
0.9259811249
100
AcDbArc
 50
135.3936073657
 51
143.7874811403
  0
ARC
  5
416
100
AcDbEntity
  8
0
100
AcDbCircle
 62
253
  6
CONTINUOUS
 10
29.1148539294
 20
8.7307283945
 40
0.9199446385
100
AcDbArc
 50
132.7410131912
 51
133.1538211836
  0
ARC
  5
417
100
AcDbEntity
  8
0
100
AcDbCircle
 62
253
  6
CONTINUOUS
 10
29.10938089
 20
8.7358390517
 40
0.9124731103
100
AcDbArc
 50
133.1226004656
 51
146.6633764551
  0
ARC
  5
418
100
AcDbEntity
  8
0
100
AcDbCircle
 62
7
  6
CONTINUOUS
 10
25.9494928274
 20
12.3867323285
 40
4.5
100
AcDbArc
 50
238.3846600277
 51
301.6153399723
  0
ARC
  5
419
100
AcDbEntity
  8
0
100
AcDbCircle
 62
7
  6
CONTINUOUS
 10
25.9494928274
 20
12.3867323285
 40
4.1
100
AcDbArc
 50
236.2510114041
 51
303.7489885959
  0
ARC
  5
41A
100
AcDbEntity
  8
RACCORDO
100
AcDbCircle
 62
253
  6
CONTINUOUS
 10
25.9494996965
 20
15.3655713693
 40
3.6302056525
100
AcDbArc
 50
44.9942556712
 51
135.0058976341
  0
ARC
  5
41B
100
AcDbEntity
  8
RACCORDO
100
AcDbCircle
 62
253
  6
CONTINUOUS
 10
25.9494928274
 20
15.3506933592
 40
3.0894690552
100
AcDbArc
 50
45.0
 51
135.0
  0
ARC
  5
41C
100
AcDbEntity
  8
RACCORDO
100
AcDbCircle
 62
253
  6
CONTINUOUS
 10
25.9494928274
 20
15.3506933592
 40
2.8894980349
100
AcDbArc
 50
45.0
 51
135.0
  0
ARC
  5
41D
100
AcDbEntity
  8
TRASH
100
AcDbCircle
 62
7
  6
CONTINUOUS
 10
29.6243521188
 20
22.4868906469
 40
0.9998416816
100
AcDbArc
 50
56.442683784
 51
90.0001039024
  0
ARC
  5
41E
100
AcDbEntity
  8
0
100
AcDbCircle
 62
253
  6
CONTINUOUS
 10
36.4580788269
 20
21.4614501403
 40
0.5001648504
100
AcDbArc
 50
0.1001896249
 51
89.9757023637
  0
ARC
  5
41F
100
AcDbEntity
  8
TRASH
100
AcDbCircle
 62
7
  6
CONTINUOUS
 10
30.8994928274
 20
23.0867323285
 40
0.5
100
AcDbArc
 50
170.803718421
 51
299.112422776
  0
ARC
  5
420
100
AcDbEntity
  8
0
100
AcDbCircle
 62
253
  6
CONTINUOUS
 10
48.3218763151
 20
7.683969068
 40
30.4459058773
100
AcDbArc
 50
216.2245265479
 51
216.4070108295
  0
ARC
  5
421
100
AcDbEntity
  8
TRASH
100
AcDbCircle
 62
7
  6
CONTINUOUS
 10
37.1994928274
 20
-0.0132676715
 40
28.0
100
AcDbArc
 50
125.9627651514
 51
126.8614108051
  0
ARC
  5
422
100
AcDbEntity
  8
TRASH
100
AcDbCircle
 62
7
  6
CONTINUOUS
 10
37.1994928274
 20
-0.0132676715
 40
28.0
100
AcDbArc
 50
123.5572123136
 51
124.1210936517
  0
ARC
  5
423
100
AcDbEntity
  8
TRASH
100
AcDbCircle
 62
7
  6
CONTINUOUS
 10
37.1994928274
 20
-0.0132676715
 40
28.0
100
AcDbArc
 50
235.8789063483
 51
236.4427876864
  0
ARC
  5
424
100
AcDbEntity
  8
TRASH
100
AcDbCircle
 62
7
  6
CONTINUOUS
 10
37.1994928274
 20
-0.0132676715
 40
28.0
100
AcDbArc
 50
233.1385891949
 51
234.0372348486
  0
SPLINE
  5
425
100
AcDbEntity
  8
0
100
AcDbSpline
 62
253
  6
CONTINUOUS
 70
0
 71
3
 72
12
 73
8
 74
6
 42
0.0000001
 43
0.0000001
 44
0.0000000001
 12
-0.0261470918
 22
0.499071003
 32
0.0
 13
0.4990705792
 23
0.0261551808
 33
0.0
 40
0.0
 40
0.0
 40
0.0
 40
0.0
 40
0.3089436939
 40
0.5876060637
 40
0.808753724
 40
0.9507915428
 40
1.0
 40
1.0
 40
1.0
 40
1.0
 10
-36.9927866313
 20
21.4623246983
 30
0.0
 10
-36.995479291
 20
21.5137196447
 30
0.0
 10
-37.0011354262
 20
21.6123843892
 30
0.0
 10
-37.0040023479
 20
21.7435132462
 30
0.0
 10
-37.0157143229
 20
21.8592481292
 30
0.0
 10
-37.0023865251
 20
21.9109535623
 30
0.0
 10
-37.0184145752
 20
21.9612104468
 30
0.0
 10
-37.0102284108
 20
21.9616394654
 30
0.0
 11
-36.9927866313
 21
21.4623246983
 31
0.0
 11
-37.0004391774
 21
21.6165312381
 31
0.0
 11
-37.0064904621
 21
21.7556627507
 31
0.0
 11
-37.0103487628
 21
21.8661151369
 31
0.0
 11
-37.011636749
 21
21.9370876287
 31
0.0
 11
-37.0102284108
 21
21.9616394654
 31
0.0
  0
SPLINE
  5
426
100
AcDbEntity
  8
0
100
AcDbSpline
 62
253
  6
CONTINUOUS
 70
0
 71
3
 72
12
 73
8
 74
6
 42
0.0000001
 43
0.0000001
 44
0.0000000001
 12
-0.0261472363
 22
-0.4990710015
 32
0.0
 13
0.4990705852
 23
-0.0261551811
 33
0.0
 40
0.0
 40
0.0
 40
0.0
 40
0.0
 40
0.3089507471
 40
0.5876147125
 40
0.8087596427
 40
0.9507934516
 40
1.0
 40
1.0
 40
1.0
 40
1.0
 10
-36.9927866313
 20
-21.4888600413
 30
0.0
 10
-36.9954793674
 20
-21.5402561609
 30
0.0
 10
-37.0011356153
 20
-21.6389223796
 30
0.0
 10
-37.0040025407
 20
-21.7700521529
 30
0.0
 10
-37.0157143599
 20
-21.885786153
 30
0.0
 10
-37.0023869349
 20
-21.9374905204
 30
0.0
 10
-37.0184142532
 20
-21.9877458067
 30
0.0
 10
-37.0102284062
 20
-21.9881748087
 30
0.0
 11
-36.9927866313
 21
-21.4888600413
 31
0.0
 11
-37.0004393784
 21
-21.6430701023
 31
0.0
 11
-37.0064906887
 21
-21.7822024136
 31
0.0
 11
-37.0103489008
 21
-21.892653439
 31
0.0
 11
-37.0116367813
 21
-21.9636239293
 31
0.0
 11
-37.0102284062
 21
-21.9881748087
 31
0.0
  0
SPLINE
  5
427
100
AcDbEntity
  8
RACCORDO
100
AcDbSpline
 62
253
  6
CONTINUOUS
 70
0
 71
3
 72
9
 73
5
 74
3
 42
0.0000001
 43
0.0000001
 44
0.0000000001
 12
-0.4997134616
 22
-0.6663673446
 32
0.0
 13
-0.5003156329
 23
-0.6659153687
 33
0.0
 40
0.0
 40
0.0
 40
0.0
 40
0.0
 40
0.5263947144
 40
1.0
 40
1.0
 40
1.0
 40
1.0
 10
-16.3865567132
 20
-16.1177870768
 30
0.0
 10
-16.4742388882
 20
-16.2347111595
 30
0.0
 10
-16.6408241581
 20
-16.4568230357
 30
0.0
 10
-16.8075430573
 20
-16.6788346286
 30
0.0
 10
-16.8865271
 20
-16.7839616414
 30
0.0
 11
-16.3865567132
 21
-16.1177870768
 31
0.0
 11
-16.6496551269
 21
-16.4685204072
 31
0.0
 11
-16.8865271
 21
-16.7839616414
 31
0.0
  0
LINE
  5
428
100
AcDbEntity
  8
RACCORDO
100
AcDbLine
 62
253
  6
CONTINUOUS
 10
-16.8865271
 20
-16.7839616414
 11
-17.2215920759
 21
-17.2295332226
  0
LINE
  5
429
100
AcDbEntity
  8
RACCORDO
100
AcDbLine
 62
253
  6
CONTINUOUS
 10
-17.2215920759
 20
-17.2295332226
 11
-17.2793951499
 21
-17.3063104841
  0
LINE
  5
42A
100
AcDbEntity
  8
RACCORDO
100
AcDbLine
 62
253
  6
CONTINUOUS
 10
-28.8989733863
 20
-17.3726972407
 11
-17.2793876736
 21
-17.3063104415
  0
LINE
  5
42B
100
AcDbEntity
  8
RACCORDO
100
AcDbLine
 62
253
  6
CONTINUOUS
 10
-28.8989733863
 20
-16.1329268375
 11
-16.3374538859
 21
-16.0565739297
  0
LINE
  5
42C
100
AcDbEntity
  8
RACCORDO
100
AcDbLine
 62
253
  6
CONTINUOUS
 10
-28.8989733863
 20
17.3461618976
 11
-17.2794293339
 21
17.2798185571
  0
LINE
  5
42D
100
AcDbEntity
  8
RACCORDO
100
AcDbLine
 62
253
  6
CONTINUOUS
 10
-17.2794295867
 20
17.2798185594
 11
-17.1520732499
 21
17.1106311429
  0
LINE
  5
42E
100
AcDbEntity
  8
RACCORDO
100
AcDbLine
 62
253
  6
CONTINUOUS
 10
-17.1520732499
 20
17.1106311429
 11
-16.8691165499
 21
16.7340484952
  0
LINE
  5
42F
100
AcDbEntity
  8
RACCORDO
100
AcDbLine
 62
253
  6
CONTINUOUS
 10
-16.8691165499
 20
16.7340484952
 11
-16.3865567132
 21
16.0912517338
  0
SPLINE
  5
430
100
AcDbEntity
  8
RACCORDO
100
AcDbSpline
 62
253
  6
CONTINUOUS
 70
0
 71
3
 72
10
 73
6
 74
4
 42
0.0000001
 43
0.0000001
 44
0.0000000001
 12
0.1229631064
 22
0.002146329
 32
0.0
 13
-0.0004143915
 23
0.1229811389
 33
0.0
 40
0.0
 40
0.0
 40
0.0
 40
0.0
 40
0.1155814329
 40
0.45531212
 40
1.0
 40
1.0
 40
1.0
 40
1.0
 10
-20.9281185884
 20
-21.1439561432
 30
0.0
 10
-20.923381171
 20
-21.1438734513
 30
0.0
 10
-20.9335417241
 20
-21.1140127636
 30
0.0
 10
-20.9236053214
 20
-21.0838182073
 30
0.0
 10
-20.9280433503
 20
-21.0433148484
 30
0.0
 10
-20.9281185883
 20
-21.0209860698
 30
0.0
 11
-20.9281185884
 21
-21.1439561432
 31
0.0
 11
-20.927593416
 21
-21.1297514312
 31
0.0
 11
-20.927593416
 21
-21.0879707272
 31
0.0
 11
-20.9281185883
 21
-21.0209860698
 31
0.0
  0
LINE
  5
431
100
AcDbEntity
  8
RACCORDO
100
AcDbLine
 62
253
  6
CONTINUOUS
 10
-28.8989733863
 20
16.1063914945
 11
-16.3374538858
 21
16.0300385866
  0
LINE
  5
432
100
AcDbEntity
  8
RACCORDO
100
AcDbLine
 62
253
  6
CONTINUOUS
 10
-17.2793876736
 20
-17.3063104415
 11
-20.5593568519
 21
-20.6457209146
  0
LINE
  5
433
100
AcDbEntity
  8
RACCORDO
100
AcDbLine
 62
253
  6
CONTINUOUS
 10
-20.5593568519
 20
-20.6457209146
 11
-20.7469891964
 21
-20.8367645181
  0
LINE
  5
434
100
AcDbEntity
  8
RACCORDO
100
AcDbLine
 62
253
  6
CONTINUOUS
 10
-20.7469891964
 20
-20.8367645181
 11
-20.9279348778
 21
-21.0209828566
  0
SPLINE
  5
435
100
AcDbEntity
  8
RACCORDO
100
AcDbSpline
 62
253
  6
CONTINUOUS
 70
0
 71
3
 72
10
 73
6
 74
4
 42
0.0000001
 43
0.0000001
 44
0.0000000001
 12
0.4999440591
 22
0.008726556
 32
0.0
 13
-0.0087238988
 23
0.4999441055
 33
0.0
 40
0.0
 40
0.0
 40
0.0
 40
0.0
 40
0.134201832
 40
0.5001427289
 40
1.0
 40
1.0
 40
1.0
 40
1.0
 10
-15.696991041
 20
-16.3097420566
 30
0.0
 10
-15.6746265714
 20
-16.3093516833
 30
0.0
 10
-15.7189360856
 20
-16.1754324638
 30
0.0
 10
-15.6795994326
 20
-16.0529364591
 30
0.0
 10
-15.6955374727
 20
-15.8931184411
 30
0.0
 10
-15.6969910408
 20
-15.809818209
 30
0.0
 11
-15.696991041
 21
-16.3097420566
 31
0.0
 11
-15.6937986841
 21
-16.2427144066
 31
0.0
 11
-15.6937986789
 21
-16.0597365608
 31
0.0
 11
-15.6969910408
 21
-15.809818209
 31
0.0
  0
LINE
  5
436
100
AcDbEntity
  8
RACCORDO
100
AcDbLine
 62
253
  6
CONTINUOUS
 10
-20.9279348805
 20
20.994447517
 11
-20.7469892024
 21
20.8102291812
  0
LINE
  5
437
100
AcDbEntity
  8
RACCORDO
100
AcDbLine
 62
253
  6
CONTINUOUS
 10
-20.7469892024
 20
20.8102291812
 11
-20.5593568707
 21
20.6191855885
  0
LINE
  5
438
100
AcDbEntity
  8
RACCORDO
100
AcDbLine
 62
253
  6
CONTINUOUS
 10
-20.5593568707
 20
20.6191855885
 11
-17.2794293339
 21
17.2798185571
  0
SPLINE
  5
439
100
AcDbEntity
  8
RACCORDO
100
AcDbSpline
 62
253
  6
CONTINUOUS
 70
0
 71
3
 72
11
 73
7
 74
5
 42
0.0000001
 43
0.0000001
 44
0.0000000001
 12
0.0000864901
 22
-0.9449709854
 32
0.0
 13
-0.0000107006
 23
-0.9449709893
 33
0.0
 40
0.0
 40
0.0
 40
0.0
 40
0.0
 40
0.285089126
 40
0.5460404815
 40
0.7838845547
 40
1.0
 40
1.0
 40
1.0
 40
1.0
 10
2.8737774538
 20
-11.1132332026
 30
0.0
 10
2.8737856729
 20
-11.2030335201
 30
0.0
 10
2.8761283163
 20
-11.3750364359
 30
0.0
 10
2.884435368
 20
-11.621817824
 30
0.0
 10
2.8928342551
 20
-11.8468463262
 30
0.0
 10
2.8957916626
 20
-11.9898332682
 30
0.0
 10
2.8957908918
 20
-12.0579075435
 30
0.0
 11
2.8737774538
 21
-11.1132332026
 31
0.0
 11
2.877170651
 21
-11.382612786
 31
0.0
 11
2.8848373594
 21
-11.629085036
 31
0.0
 11
2.8924373624
 21
-11.8537122533
 31
0.0
 11
2.8957908918
 21
-12.0579075435
 31
0.0
  0
SPLINE
  5
43A
100
AcDbEntity
  8
RACCORDO
100
AcDbSpline
 62
7
  6
CONTINUOUS
 70
0
 71
3
 72
9
 73
5
 74
3
 42
0.0000001
 43
0.0000001
 44
0.0000000001
 12
-0.2037018197
 22
0.2159006937
 32
0.0
 13
-0.1113009424
 23
0.2760097463
 33
0.0
 40
0.0
 40
0.0
 40
0.0
 40
0.0
 40
0.6376489343
 40
1.0
 40
1.0
 40
1.0
 40
1.0
 10
-24.7024638676
 20
21.0606275522
 30
0.0
 10
-24.745760617
 20
21.1065171679
 30
0.0
 10
-24.8135097473
 20
21.1776979536
 30
0.0
 10
-24.8675639192
 20
21.2641742378
 30
0.0
 10
-24.8810072576
 20
21.297511713
 30
0.0
 11
-24.7024638676
 21
21.0606275522
 31
0.0
 11
-24.8265926209
 21
21.2035129632
 31
0.0
 11
-24.8810072576
 21
21.297511713
 31
0.0
  0
SPLINE
  5
43B
100
AcDbEntity
  8
RACCORDO
100
AcDbSpline
 62
7
  6
CONTINUOUS
 70
0
 71
3
 72
8
 73
4
 74
2
 42
0.0000001
 43
0.0000001
 44
0.0000000001
 12
-0.0189570936
 22
0.0470107663
 32
0.0
 13
-0.0094593285
 23
0.0496639674
 33
0.0
 40
0.0
 40
0.0
 40
0.0
 40
0.0
 40
1.0
 40
1.0
 40
1.0
 40
1.0
 10
-24.8810072576
 20
21.297511713
 30
0.0
 10
-24.8873262888
 20
21.3131819685
 30
0.0
 10
-24.8922879919
 20
21.3292947134
 30
0.0
 10
-24.8954411014
 20
21.3458493692
 30
0.0
 11
-24.8810072576
 21
21.297511713
 31
0.0
 11
-24.8954411014
 21
21.3458493692
 31
0.0
  0
SPLINE
  5
43C
100
AcDbEntity
  8
RACCORDO
100
AcDbSpline
 62
253
  6
CONTINUOUS
 70
0
 71
3
 72
10
 73
6
 74
4
 42
0.0000001
 43
0.0000001
 44
0.0000000001
 12
-0.0180034381
 22
-0.8025524893
 32
0.0
 13
0.0001364897
 23
-0.8027364451
 33
0.0
 40
0.0
 40
0.0
 40
0.0
 40
0.0
 40
0.3031430152
 40
0.6361371277
 40
1.0
 40
1.0
 40
1.0
 40
1.0
 10
2.8940383048
 20
-8.2107720698
 30
0.0
 10
2.8922190993
 20
-8.2918681303
 30
0.0
 10
2.8860894513
 20
-8.4619788228
 30
0.0
 10
2.8765710999
 20
-8.729388333
 30
0.0
 10
2.8737619588
 20
-8.9158594083
 30
0.0
 10
2.8737785133
 20
-9.0132214045
 30
0.0
 11
2.8940383048
 21
-8.2107720698
 31
0.0
 11
2.8863940454
 21
-8.453995924
 31
0.0
 11
2.8777380511
 21
-8.7211622508
 31
0.0
 11
2.8737785133
 21
-9.0132214045
 31
0.0
  0
SPLINE
  5
43D
100
AcDbEntity
  8
RACCORDO
100
AcDbSpline
 62
7
  6
CONTINUOUS
 70
0
 71
3
 72
9
 73
5
 74
3
 42
0.0000001
 43
0.0000001
 44
0.0000000001
 12
0.0524651762
 22
0.2754418623
 32
0.0
 13
0.1890564145
 23
0.2061096913
 33
0.0
 40
0.0
 40
0.0
 40
0.0
 40
0.0
 40
0.5664010372
 40
1.0
 40
1.0
 40
1.0
 40
1.0
 10
-24.8954411014
 20
-21.3723847123
 30
0.0
 10
-24.885535658
 20
-21.3203811934
 30
0.0
 10
-24.8365664275
 20
-21.2362685275
 30
0.0
 10
-24.775468925
 20
-21.1657878704
 30
0.0
 10
-24.7481440365
 20
-21.135998221
 30
0.0
 11
-24.8954411014
 21
-21.3723847123
 31
0.0
 11
-24.8261723395
 21
-21.2294714776
 31
0.0
 11
-24.7481440365
 21
-21.135998221
 31
0.0
  0
SPLINE
  5
43E
100
AcDbEntity
  8
RACCORDO
100
AcDbSpline
 62
7
  6
CONTINUOUS
 70
0
 71
3
 72
8
 73
4
 74
2
 42
0.0000001
 43
0.0000001
 44
0.0000000001
 12
0.0451635638
 22
0.0492374099
 32
0.0
 13
0.0459547628
 23
0.0487329653
 33
0.0
 40
0.0
 40
0.0
 40
0.0
 40
0.0
 40
1.0
 40
1.0
 40
1.0
 40
1.0
 10
-24.7481440365
 20
-21.135998221
 30
0.0
 10
-24.7330895153
 20
-21.119585751
 30
0.0
 10
-24.7177821219
 20
-21.103407217
 30
0.0
 10
-24.7024638676
 20
-21.0871628952
 30
0.0
 11
-24.7481440365
 21
-21.135998221
 31
0.0
 11
-24.7024638676
 21
-21.0871628952
 31
0.0
  0
SPLINE
  5
43F
100
AcDbEntity
  8
RACCORDO
100
AcDbSpline
 62
253
  6
CONTINUOUS
 70
0
 71
3
 72
10
 73
6
 74
4
 42
0.0000001
 43
0.0000001
 44
0.0000000001
 12
0.0012234289
 22
0.1229757515
 32
0.0
 13
-0.1229631063
 23
0.002146329
 33
0.0
 40
0.0
 40
0.0
 40
0.0
 40
0.0
 40
0.5446878802
 40
0.8844185675
 40
1.0
 40
1.0
 40
1.0
 40
1.0
 10
-20.9281185884
 20
20.9944507267
 30
0.0
 10
-20.9278964594
 20
21.0167785272
 30
0.0
 10
-20.9236492677
 20
21.057283157
 30
0.0
 10
-20.9335386115
 20
21.0874773998
 30
0.0
 10
-20.923381171
 20
21.1173381082
 30
0.0
 10
-20.9281185884
 20
21.1174208002
 30
0.0
 11
-20.9281185884
 21
20.9944507267
 31
0.0
 11
-20.927593417
 21
21.0614353842
 31
0.0
 11
-20.927593417
 21
21.1032160882
 31
0.0
 11
-20.9281185884
 21
21.1174208002
 31
0.0
  0
SPLINE
  5
440
100
AcDbEntity
  8
RACCORDO
100
AcDbSpline
 62
253
  6
CONTINUOUS
 70
0
 71
3
 72
10
 73
6
 74
4
 42
0.0000001
 43
0.0000001
 44
0.0000000001
 12
-0.2259754683
 22
0.225975469
 32
0.0
 13
-0.3037219787
 23
-0.102199964
 33
0.0
 40
0.0
 40
0.0
 40
0.0
 40
0.0
 40
0.3273849248
 40
0.7014423114
 40
1.0
 40
1.0
 40
1.0
 40
1.0
 10
-20.5832914005
 20
20.9710503426
 30
0.0
 10
-20.607951721
 20
20.9957106633
 30
0.0
 10
-20.6769456679
 20
21.0335485023
 30
0.0
 10
-20.7857852462
 20
21.0366607249
 30
0.0
 10
-20.8564692777
 20
21.0208470782
 30
0.0
 10
-20.886695455
 20
21.0106762165
 30
0.0
 11
-20.5832914005
 21
20.9710503426
 31
0.0
 11
-20.6739562286
 21
21.0232638885
 31
0.0
 11
-20.7932222695
 21
21.0313575368
 31
0.0
 11
-20.886695455
 21
21.0106762165
 31
0.0
  0
SPLINE
  5
441
100
AcDbEntity
  8
RACCORDO
100
AcDbSpline
 62
253
  6
CONTINUOUS
 70
0
 71
3
 72
10
 73
6
 74
4
 42
0.0000001
 43
0.0000001
 44
0.0000000001
 12
-0.2602305909
 22
0.2600840975
 32
0.0
 13
-0.3142336889
 23
-0.1913658459
 33
0.0
 40
0.0
 40
0.0
 40
0.0
 40
0.0
 40
0.2508141318
 40
0.5802289689
 40
1.0
 40
1.0
 40
1.0
 40
1.0
 10
-16.9346041056
 20
17.3223630414
 30
0.0
 10
-16.9563606089
 20
17.3441072971
 30
0.0
 10
-17.0291575329
 20
17.3708182575
 30
0.0
 10
-17.1521189964
 20
17.3469980006
 30
0.0
 10
-17.2354619525
 20
17.3066183602
 30
0.0
 10
-17.2794306857
 20
17.2798417474
 30
0.0
 11
-16.9346041056
 21
17.3223630414
 31
0.0
 11
-17.0190249496
 21
17.3596262122
 31
0.0
 11
-17.1393115782
 21
17.3447937616
 31
0.0
 11
-17.2794306857
 21
17.2798417474
 31
0.0
  0
SPLINE
  5
442
100
AcDbEntity
  8
RACCORDO
100
AcDbSpline
 62
253
  6
CONTINUOUS
 70
0
 71
3
 72
10
 73
6
 74
4
 42
0.0000001
 43
0.0000001
 44
0.0000000001
 12
-0.2267718948
 22
0.2266548135
 32
0.0
 13
-0.2275012897
 23
-0.2256788125
 33
0.0
 40
0.0
 40
0.0
 40
0.0
 40
0.0
 40
0.2002995639
 40
0.749467002
 40
1.0
 40
1.0
 40
1.0
 40
1.0
 10
-16.0418176234
 20
16.4295777755
 30
0.0
 10
-16.056958394
 20
16.4447107289
 30
0.0
 10
-16.1170241275
 20
16.321540269
 30
0.0
 10
-16.1917554221
 20
16.2859686397
 30
0.0
 10
-16.2523001385
 20
16.2301525724
 30
0.0
 10
-16.2712989985
 20
16.2113059093
 30
0.0
 11
-16.0418176234
 21
16.4295777755
 31
0.0
 11
-16.0887744699
 21
16.3857679881
 31
0.0
 11
-16.2144415674
 21
16.2624388696
 31
0.0
 11
-16.2712989985
 21
16.2113059093
 31
0.0
  0
SPLINE
  5
443
100
AcDbEntity
  8
RACCORDO
100
AcDbSpline
 62
253
  6
CONTINUOUS
 70
0
 71
3
 72
8
 73
4
 74
2
 42
0.0000001
 43
0.0000001
 44
0.0000000001
 12
-0.1152517422
 22
-0.1143284785
 32
0.0
 13
-0.1148869741
 23
-0.1148181741
 33
0.0
 40
0.0
 40
0.0
 40
0.0
 40
0.0
 40
1.0
 40
1.0
 40
1.0
 40
1.0
 10
-16.2712989985
 20
16.2113059093
 30
0.0
 10
-16.3097162459
 20
16.1731964164
 30
0.0
 10
-16.3482610475
 20
16.1295244718
 30
0.0
 10
-16.3865567055
 20
16.0912517471
 30
0.0
 11
-16.2712989985
 21
16.2113059093
 31
0.0
 11
-16.3865567055
 21
16.0912517471
 31
0.0
  0
SPLINE
  5
444
100
AcDbEntity
  8
RACCORDO
100
AcDbSpline
 62
253
  6
CONTINUOUS
 70
0
 71
3
 72
10
 73
6
 74
4
 42
0.0000001
 43
0.0000001
 44
0.0000000001
 12
0.2476943143
 22
-0.2163947444
 32
0.0
 13
-0.2150323554
 23
-0.2487222295
 33
0.0
 40
0.0
 40
0.0
 40
0.0
 40
0.0
 40
0.2010143449
 40
0.7503394912
 40
1.0
 40
1.0
 40
1.0
 40
1.0
 10
-16.0172205868
 20
16.4065867217
 30
0.0
 10
-16.0006238833
 20
16.3920872391
 30
0.0
 10
-16.1210421651
 20
16.3206589472
 30
0.0
 10
-16.1527236379
 20
16.2420481238
 30
0.0
 10
-16.2056233214
 20
16.1762433888
 30
0.0
 10
-16.2235183504
 20
16.1555446827
 30
0.0
 11
-16.0172205868
 21
16.4065867217
 31
0.0
 11
-16.058207241
 21
16.3547093257
 31
0.0
 11
-16.1752575219
 21
16.2170751333
 31
0.0
 11
-16.2235183504
 21
16.1555446827
 31
0.0
  0
SPLINE
  5
445
100
AcDbEntity
  8
RACCORDO
100
AcDbSpline
 62
253
  6
CONTINUOUS
 70
0
 71
3
 72
8
 73
4
 74
2
 42
0.0000001
 43
0.0000001
 44
0.0000000001
 12
-0.1081706526
 22
-0.1251181286
 32
0.0
 13
-0.1088359626
 23
-0.1246185395
 33
0.0
 40
0.0
 40
0.0
 40
0.0
 40
0.0
 40
1.0
 40
1.0
 40
1.0
 40
1.0
 10
-16.2235183504
 20
16.1555446827
 30
0.0
 10
-16.2595752347
 20
16.1138386399
 30
0.0
 10
-16.3011753294
 20
16.0715780996
 30
0.0
 10
-16.3374539836
 20
16.0300385865
 30
0.0
 11
-16.2235183504
 21
16.1555446827
 31
0.0
 11
-16.3374539836
 21
16.0300385865
 31
0.0
  0
SPLINE
  5
446
100
AcDbEntity
  8
RACCORDO
100
AcDbSpline
 62
253
  6
CONTINUOUS
 70
0
 71
3
 72
10
 73
6
 74
4
 42
0.0000001
 43
0.0000001
 44
0.0000000001
 12
0.499944059
 22
-0.008726556
 32
0.0
 13
-0.0087238988
 23
-0.4999441054
 33
0.0
 40
0.0
 40
0.0
 40
0.0
 40
0.0
 40
0.1342022142
 40
0.5001434773
 40
1.0
 40
1.0
 40
1.0
 40
1.0
 10
-15.696991041
 20
16.2832067135
 30
0.0
 10
-15.6746265077
 20
16.2828163392
 30
0.0
 10
-15.7189361164
 20
16.1488969035
 30
0.0
 10
-15.6795994595
 20
16.0264008971
 30
0.0
 10
-15.695537475
 20
15.8665829733
 30
0.0
 10
-15.696991041
 20
15.783282866
 30
0.0
 11
-15.696991041
 21
16.2832067135
 31
0.0
 11
-15.6937986818
 21
16.2161788724
 31
0.0
 11
-15.6937986818
 21
16.0332008435
 31
0.0
 11
-15.696991041
 21
15.783282866
 31
0.0
  0
SPLINE
  5
447
100
AcDbEntity
  8
RACCORDO
100
AcDbSpline
 62
253
  6
CONTINUOUS
 70
0
 71
3
 72
13
 73
9
 74
7
 42
0.0000001
 43
0.0000001
 44
0.0000000001
 12
0.5000147812
 22
-0.0087277789
 32
0.0
 13
-0.0087251329
 23
-0.5000148273
 33
0.0
 40
0.0
 40
0.0
 40
0.0
 40
0.0
 40
0.0218578933
 40
0.093009063
 40
0.2229132514
 40
0.418601163
 40
0.6809955361
 40
1.0
 40
1.0
 40
1.0
 40
1.0
 10
2.1097528169
 20
15.9723888433
 30
0.0
 10
2.1133959068
 20
15.972325253
 30
0.0
 10
2.1080811375
 20
15.9479629667
 30
0.0
 10
2.1157220235
 20
15.9200918717
 30
0.0
 10
2.1120445714
 20
15.8481075281
 30
0.0
 10
2.1138877969
 20
15.7529283135
 30
0.0
 10
2.1118694415
 20
15.6222049427
 30
0.0
 10
2.1106806024
 20
15.5256339831
 30
0.0
 10
2.1097528169
 20
15.4724649958
 30
0.0
 11
2.1097528169
 21
15.9723888433
 31
0.0
 11
2.1113674822
 21
15.9615778218
 31
0.0
 11
2.1126116406
 21
15.9260175242
 31
0.0
 11
2.1132972087
 21
15.861057233
 31
0.0
 11
2.1131995015
 21
15.7631955287
 31
0.0
 11
2.1120819108
 21
15.6319792374
 31
0.0
 11
2.1097528169
 21
15.4724649958
 31
0.0
  0
SPLINE
  5
448
100
AcDbEntity
  8
RACCORDO
100
AcDbSpline
 62
253
  6
CONTINUOUS
 70
0
 71
3
 72
11
 73
7
 74
5
 42
0.0000001
 43
0.0000001
 44
0.0000000001
 12
-0.0004877688
 22
0.1226751165
 32
0.0
 13
0.1226675042
 23
-0.0014510491
 33
0.0
 40
0.0
 40
0.0
 40
0.0
 40
0.0
 40
0.2951212972
 40
0.5639793459
 40
0.7873582651
 40
1.0
 40
1.0
 40
1.0
 40
1.0
 10
-24.7024638676
 20
21.0606275522
 30
0.0
 10
-24.7025118512
 20
21.0726955654
 30
0.0
 10
-24.7021246664
 20
21.0952690706
 30
0.0
 10
-24.7040682547
 20
21.1293906148
 30
0.0
 10
-24.698595102
 20
21.1525095428
 30
0.0
 10
-24.7111586112
 20
21.1834050933
 30
0.0
 10
-24.7024638676
 20
21.1833022421
 30
0.0
 11
-24.7024638676
 21
21.0606275522
 31
0.0
 11
-24.7025938722
 21
21.0968316445
 31
0.0
 11
-24.7026777865
 21
21.1298139909
 31
0.0
 11
-24.7026977921
 21
21.1572172351
 31
0.0
 11
-24.7024638676
 21
21.1833022421
 31
0.0
  0
SPLINE
  5
449
100
AcDbEntity
  8
RACCORDO
100
AcDbSpline
 62
253
  6
CONTINUOUS
 70
0
 71
3
 72
10
 73
6
 74
4
 42
0.0000001
 43
0.0000001
 44
0.0000000001
 12
0.2738406386
 22
-0.1091454104
 32
0.0
 13
0.2708205239
 23
0.1272985191
 33
0.0
 40
0.0
 40
0.0
 40
0.0
 40
0.0
 40
0.4744181721
 40
0.8799277382
 40
1.0
 40
1.0
 40
1.0
 40
1.0
 10
-20.9281185883
 20
-21.0209860698
 30
0.0
 10
-20.8848135966
 20
-21.0382462585
 30
0.0
 10
-20.8012301671
 20
-21.0643591587
 30
0.0
 10
-20.7005241642
 20
-21.0607604868
 30
0.0
 10
-20.6512525587
 20
-21.0421810602
 30
0.0
 10
-20.6404132144
 20
-21.0370860532
 30
0.0
 11
-20.9281185883
 21
-21.0209860698
 31
0.0
 11
-20.7932222764
 21
-21.0578928828
 31
0.0
 11
-20.6739562351
 21
-21.0497992357
 31
0.0
 11
-20.6404132144
 21
-21.0370860532
 31
0.0
  0
SPLINE
  5
44A
100
AcDbEntity
  8
RACCORDO
100
AcDbSpline
 62
253
  6
CONTINUOUS
 70
0
 71
3
 72
8
 73
4
 74
2
 42
0.0000001
 43
0.0000001
 44
0.0000000001
 12
0.0316772552
 22
0.0148898157
 32
0.0
 13
0.0286755573
 23
0.0196749259
 33
0.0
 40
0.0
 40
0.0
 40
0.0
 40
0.0
 40
1.0
 40
1.0
 40
1.0
 40
1.0
 10
-20.6404132144
 20
-21.0370860532
 30
0.0
 10
-20.6298541294
 20
-21.0321227813
 30
0.0
 10
-20.6196908011
 20
-21.0263524901
 30
0.0
 10
-20.610132282
 20
-21.0197941814
 30
0.0
 11
-20.6404132144
 21
-21.0370860532
 31
0.0
 11
-20.610132282
 21
-21.0197941814
 31
0.0
  0
SPLINE
  5
44B
100
AcDbEntity
  8
RACCORDO
100
AcDbSpline
 62
253
  6
CONTINUOUS
 70
0
 71
3
 72
8
 73
4
 74
2
 42
0.0000001
 43
0.0000001
 44
0.0000000001
 12
0.0288974393
 22
0.019827164
 32
0.0
 13
0.024570381
 23
0.0245703811
 33
0.0
 40
0.0
 40
0.0
 40
0.0
 40
0.0
 40
1.0
 40
1.0
 40
1.0
 40
1.0
 10
-20.610132282
 20
-21.0197941814
 30
0.0
 10
-20.6004998022
 20
-21.0131851268
 30
0.0
 10
-20.5914815275
 20
-21.0057758127
 30
0.0
 10
-20.5832914004
 20
-20.9975856857
 30
0.0
 11
-20.610132282
 21
-21.0197941814
 31
0.0
 11
-20.5832914004
 21
-20.9975856857
 31
0.0
  0
SPLINE
  5
44C
100
AcDbEntity
  8
RACCORDO
100
AcDbSpline
 62
253
  6
CONTINUOUS
 70
0
 71
3
 72
11
 73
7
 74
5
 42
0.0000001
 43
0.0000001
 44
0.0000000001
 12
-0.0876354791
 22
-0.0014170866
 32
0.0
 13
0.0004865263
 23
0.0878660486
 33
0.0
 40
0.0
 40
0.0
 40
0.0
 40
0.0
 40
0.1774924828
 40
0.4337046236
 40
0.8331962605
 40
1.0
 40
1.0
 40
1.0
 40
1.0
 10
-24.7024638676
 20
-21.2098375851
 30
0.0
 10
-24.7076487472
 20
-21.2099214259
 30
0.0
 10
-24.6993384471
 20
-21.1884496022
 30
0.0
 10
-24.7043811382
 20
-21.1694013334
 30
0.0
 10
-24.7026523387
 20
-21.1436078293
 30
0.0
 10
-24.702406415
 20
-21.1268561568
 30
0.0
 10
-24.7023793635
 20
-21.121970695
 30
0.0
 11
-24.7024638676
 21
-21.2098375851
 31
0.0
 11
-24.7026782711
 21
-21.1942823904
 31
0.0
 11
-24.7026976458
 21
-21.1718261897
 31
0.0
 11
-24.7026332231
 21
-21.1368120312
 31
0.0
 11
-24.7023793635
 21
-21.121970695
 31
0.0
  0
LINE
  5
44D
100
AcDbEntity
  8
RACCORDO
100
AcDbLine
 62
253
  6
CONTINUOUS
 10
-24.7023793635
 20
-21.121970695
 11
-24.7024638676
 21
-21.0871628952
  0
SPLINE
  5
44E
100
AcDbEntity
  8
RACCORDO
100
AcDbSpline
 62
253
  6
CONTINUOUS
 70
0
 71
3
 72
10
 73
6
 74
4
 42
0.0000001
 43
0.0000001
 44
0.0000000001
 12
-0.260162479
 22
-0.2601655009
 32
0.0
 13
-0.3142366387
 23
0.1913790432
 33
0.0
 40
0.0
 40
0.0
 40
0.0
 40
0.0
 40
0.2507681038
 40
0.5801813859
 40
1.0
 40
1.0
 40
1.0
 40
1.0
 10
-16.9346041024
 20
-17.3488983876
 30
0.0
 10
-16.9563509196
 20
-17.3706454574
 30
0.0
 10
-17.0291474315
 20
-17.3973602983
 30
0.0
 10
-17.1521093336
 20
-17.3735246846
 30
0.0
 10
-17.2354571319
 20
-17.3331384265
 30
0.0
 10
-17.279431262
 20
-17.3063569316
 30
0.0
 11
-16.9346041024
 21
-17.3488983876
 31
0.0
 11
-17.0190076017
 21
-17.3861647427
 31
0.0
 11
-17.1392958367
 21
-17.3713247377
 31
0.0
 11
-17.279431262
 21
-17.3063569316
 31
0.0
  0
SPLINE
  5
44F
100
AcDbEntity
  8
RACCORDO
100
AcDbSpline
 62
253
  6
CONTINUOUS
 70
0
 71
3
 72
10
 73
6
 74
4
 42
0.0000001
 43
0.0000001
 44
0.0000000001
 12
-0.2267057385
 22
-0.2267212364
 32
0.0
 13
-0.227502561
 23
0.2256781748
 33
0.0
 40
0.0
 40
0.0
 40
0.0
 40
0.0
 40
0.2002974471
 40
0.7494635715
 40
1.0
 40
1.0
 40
1.0
 40
1.0
 10
-16.0418182283
 20
-16.4561125136
 30
0.0
 10
-16.0569544219
 20
-16.4712497418
 30
0.0
 10
-16.1170281176
 20
-16.3480674205
 30
0.0
 10
-16.1917544078
 20
-16.3125028363
 30
0.0
 10
-16.2522990063
 20
-16.2566875005
 30
0.0
 10
-16.2712982327
 20
-16.2378406325
 30
0.0
 11
-16.0418182283
 21
-16.4561125136
 31
0.0
 11
-16.08877371
 21
-16.4123022058
 31
0.0
 11
-16.2144404574
 21
-16.2889731925
 31
0.0
 11
-16.2712982327
 21
-16.2378406325
 31
0.0
  0
SPLINE
  5
450
100
AcDbEntity
  8
RACCORDO
100
AcDbSpline
 62
253
  6
CONTINUOUS
 70
0
 71
3
 72
8
 73
4
 74
2
 42
0.0000001
 43
0.0000001
 44
0.0000000001
 12
-0.1152515649
 22
0.1143273408
 32
0.0
 13
-0.1148872809
 23
0.1148163574
 33
0.0
 40
0.0
 40
0.0
 40
0.0
 40
0.0
 40
1.0
 40
1.0
 40
1.0
 40
1.0
 10
-16.2712982327
 20
-16.2378406325
 30
0.0
 10
-16.309715421
 20
-16.1997315189
 30
0.0
 10
-16.3482609502
 20
-16.1560592006
 30
0.0
 10
-16.3865567105
 20
-16.1177870815
 30
0.0
 11
-16.2712982327
 21
-16.2378406325
 31
0.0
 11
-16.3865567105
 21
-16.1177870815
 31
0.0
  0
SPLINE
  5
451
100
AcDbEntity
  8
RACCORDO
100
AcDbSpline
 62
253
  6
CONTINUOUS
 70
0
 71
3
 72
10
 73
6
 74
4
 42
0.0000001
 43
0.0000001
 44
0.0000000001
 12
0.2476504305
 22
0.2164415595
 32
0.0
 13
-0.2150293053
 23
0.2487216007
 33
0.0
 40
0.0
 40
0.0
 40
0.0
 40
0.0
 40
0.2010155947
 40
0.7503415084
 40
1.0
 40
1.0
 40
1.0
 40
1.0
 10
-16.0172218966
 20
-16.4331205658
 30
0.0
 10
-16.0006280304
 20
-16.4186178562
 30
0.0
 10
-16.1210416059
 20
-16.34719913
 30
0.0
 10
-16.1527256476
 20
-16.2685836469
 30
0.0
 10
-16.2056248388
 20
-16.2027786814
 30
0.0
 10
-16.2235194695
 20
-16.1820801949
 30
0.0
 11
-16.0172218966
 21
-16.4331205658
 31
0.0
 11
-16.0582095259
 21
-16.3812439905
 31
0.0
 11
-16.1752592827
 21
-16.2436106372
 31
0.0
 11
-16.2235194695
 21
-16.1820801949
 31
0.0
  0
SPLINE
  5
452
100
AcDbEntity
  8
RACCORDO
100
AcDbSpline
 62
253
  6
CONTINUOUS
 70
0
 71
3
 72
8
 73
4
 74
2
 42
0.0000001
 43
0.0000001
 44
0.0000000001
 12
-0.1081699484
 22
0.1251187724
 32
0.0
 13
-0.1088349346
 23
0.124619626
 33
0.0
 40
0.0
 40
0.0
 40
0.0
 40
0.0
 40
1.0
 40
1.0
 40
1.0
 40
1.0
 10
-16.2235194695
 20
-16.1820801949
 30
0.0
 10
-16.2595761189
 20
-16.1403739374
 30
0.0
 10
-16.3011755977
 20
-16.0981138051
 30
0.0
 10
-16.3374539093
 20
-16.0565739297
 30
0.0
 11
-16.2235194695
 21
-16.1820801949
 31
0.0
 11
-16.3374539093
 21
-16.0565739297
 31
0.0
  0
SPLINE
  5
453
100
AcDbEntity
  8
RACCORDO
100
AcDbSpline
 62
253
  6
CONTINUOUS
 70
0
 71
3
 72
12
 73
8
 74
6
 42
0.0000001
 43
0.0000001
 44
0.0000000001
 12
0.0087243524
 22
-0.4999700968
 32
0.0
 13
-0.4999700518
 23
-0.0087269312
 33
0.0
 40
0.0
 40
0.0
 40
0.0
 40
0.0
 40
0.2513413485
 40
0.5091854988
 40
0.747527442
 40
0.9276653583
 40
1.0
 40
1.0
 40
1.0
 40
1.0
 10
2.1097528169
 20
-15.4990003388
 30
0.0
 10
2.1104837471
 20
-15.5408880582
 30
0.0
 10
2.1123296493
 20
-15.6263874947
 30
0.0
 10
2.1111886239
 20
-15.7481268724
 30
0.0
 10
2.1193468737
 20
-15.8698416219
 30
0.0
 10
2.1010228334
 20
-15.9309105335
 30
0.0
 10
2.1218078684
 20
-15.9987137666
 30
0.0
 10
2.1097528169
 20
-15.9989241864
 30
0.0
 11
2.1097528169
 21
-15.4990003388
 31
0.0
 11
2.1116669377
 21
-15.6246680508
 31
0.0
 11
2.1129796404
 21
-15.7535953583
 31
0.0
 11
2.1133435899
 21
-15.8727767879
 31
0.0
 11
2.1123776959
 21
-15.9628488914
 31
0.0
 11
2.1097528169
 21
-15.9989241864
 31
0.0
  0
SPLINE
  5
454
100
AcDbEntity
  8
RACCORDO
100
AcDbSpline
 62
253
  6
CONTINUOUS
 70
0
 71
3
 72
10
 73
6
 74
4
 42
0.0000001
 43
0.0000001
 44
0.0000000001
 12
0.0000000061
 22
0.327033793
 32
0.0
 13
0.3270278925
 23
0.0019645066
 33
0.0
 40
0.0
 40
0.0
 40
0.0
 40
0.0
 40
0.1971885435
 40
0.5460114807
 40
1.0
 40
1.0
 40
1.0
 40
1.0
 10
2.6010266137
 20
-12.1611366073
 30
0.0
 10
2.6010266141
 20
-12.1396408348
 30
0.0
 10
2.6551575075
 20
-12.092603819
 30
0.0
 10
2.7575588676
 20
-12.0677501575
 30
0.0
 10
2.8463019221
 20
-12.058204835
 30
0.0
 10
2.8957908916
 20
-12.0579075472
 30
0.0
 11
2.6010266137
 21
-12.1611366073
 31
0.0
 11
2.6403570057
 21
-12.1100314768
 31
0.0
 11
2.7480233472
 21
-12.0723287537
 31
0.0
 11
2.8957908916
 21
-12.0579075472
 31
0.0
  0
SPLINE
  5
455
100
AcDbEntity
  8
RACCORDO
100
AcDbSpline
 62
253
  6
CONTINUOUS
 70
0
 71
3
 72
10
 73
6
 74
4
 42
0.0000001
 43
0.0000001
 44
0.0000000001
 12
0.0000000081
 22
-0.3270342628
 32
0.0
 13
0.3270283656
 23
-0.0019639626
 33
0.0
 40
0.0
 40
0.0
 40
0.0
 40
0.0
 40
0.1971698053
 40
0.5459862697
 40
1.0
 40
1.0
 40
1.0
 40
1.0
 10
2.6010266137
 20
-7.9653987367
 30
0.0
 10
2.6010266142
 20
-7.9868924974
 30
0.0
 10
2.6551516081
 20
-8.0339294592
 30
0.0
 10
2.7575541932
 20
-8.0587846582
 30
0.0
 10
2.8462991022
 20
-8.0683305876
 30
0.0
 10
2.8957908916
 20
-8.0686278096
 30
0.0
 11
2.6010266137
 21
-7.9653987367
 31
0.0
 11
2.6403513319
 21
-8.0165006179
 31
0.0
 11
2.7480149983
 21
-8.0542050711
 31
0.0
 11
2.8957908916
 21
-8.0686278096
 31
0.0
  0
SPLINE
  5
456
100
AcDbEntity
  8
RACCORDO
100
AcDbSpline
 62
253
  6
CONTINUOUS
 70
0
 71
3
 72
11
 73
7
 74
5
 42
0.0000001
 43
0.0000001
 44
0.0000000001
 12
0.0000302332
 22
-1.0479734518
 32
0.0
 13
-0.0000033783
 23
-1.0479734522
 33
0.0
 40
0.0
 40
0.0
 40
0.0
 40
0.0
 40
0.2850380846
 40
0.5460000996
 40
0.7838377327
 40
1.0
 40
1.0
 40
1.0
 40
1.0
 10
2.5872684859
 20
-11.1132676715
 30
0.0
 10
2.5872713584
 20
-11.2128384533
 30
0.0
 10
2.5887315137
 20
-11.4035716305
 30
0.0
 10
2.5939276237
 20
-11.6773378437
 30
0.0
 10
2.5991790896
 20
-11.927034632
 30
0.0
 10
2.6010268571
 20
-12.0856258352
 30
0.0
 10
2.6010266137
 20
-12.1611366077
 30
0.0
 11
2.5872684859
 21
-11.1132676715
 31
0.0
 11
2.5893843858
 21
-11.411972523
 31
0.0
 11
2.5941786771
 21
-11.6854117602
 31
0.0
 11
2.5989302286
 21
-11.9346139907
 31
0.0
 11
2.6010266137
 21
-12.1611366077
 31
0.0
  0
SPLINE
  5
457
100
AcDbEntity
  8
RACCORDO
100
AcDbSpline
 62
253
  6
CONTINUOUS
 70
0
 71
3
 72
11
 73
7
 74
5
 42
0.0000001
 43
0.0000001
 44
0.0000000001
 12
-0.0000204033
 22
-1.0479738701
 32
0.0
 13
0.000056675
 23
-1.0479738688
 33
0.0
 40
0.0
 40
0.0
 40
0.0
 40
0.0
 40
0.1504658718
 40
0.4079471945
 40
0.6907693637
 40
1.0
 40
1.0
 40
1.0
 40
1.0
 10
2.6010266137
 20
-7.9653987353
 30
0.0
 10
2.6010255904
 20
-8.0179601693
 30
0.0
 10
2.5998557538
 20
-8.1604661943
 30
0.0
 10
2.5949625373
 20
-8.4017211761
 30
0.0
 10
2.5890064745
 20
-8.6984246938
 30
0.0
 10
2.587262644
 20
-8.9052457961
 30
0.0
 10
2.5872684859
 20
-9.0132676715
 30
0.0
 11
2.6010266137
 21
-7.9653987353
 31
0.0
 11
2.5999286508
 21
-8.1230792146
 31
0.0
 11
2.5951509707
 21
-8.3928706128
 31
0.0
 11
2.5897408973
 21
-8.6892114763
 31
0.0
 11
2.5872684859
 21
-9.0132676715
 31
0.0
  0
SPLINE
  5
458
100
AcDbEntity
  8
0
100
AcDbSpline
 62
7
  6
CONTINUOUS
 70
0
 71
3
 72
11
 73
7
 74
5
 42
0.0000001
 43
0.0000001
 44
0.0000000001
 12
-1.0137153575
 22
0.5179263692
 32
0.0
 13
-0.6750397937
 23
0.9157835703
 33
0.0
 40
0.0
 40
0.0
 40
0.0
 40
0.0
 40
0.2020765742
 40
0.4691989935
 40
0.7349707001
 40
1.0
 40
1.0
 40
1.0
 40
1.0
 10
24.6816743522
 20
-11.1126321594
 30
0.0
 10
24.6133916433
 20
-11.0777452306
 30
0.0
 10
24.458447873
 20
-10.9897025881
 30
0.0
 10
24.2312680303
 20
-10.8270290354
 30
0.0
 10
24.0081447959
 20
-10.6215307402
 30
0.0
 10
23.8780015478
 20
-10.4671080941
 30
0.0
 10
23.8183664398
 20
-10.3862049346
 30
0.0
 11
24.6816743522
 21
-11.1126321594
 31
0.0
 11
24.4817669445
 21
-10.9989761102
 31
0.0
 11
24.2347966381
 21
-10.8218818372
 31
0.0
 11
24.0125211365
 21
-10.616897283
 31
0.0
 11
23.8183664398
 21
-10.3862049346
 31
0.0
  0
SPLINE
  5
459
100
AcDbEntity
  8
0
100
AcDbSpline
 62
7
  6
CONTINUOUS
 70
0
 71
3
 72
11
 73
7
 74
5
 42
0.0000001
 43
0.0000001
 44
0.0000000001
 12
-1.0137153575
 22
-0.5179263692
 32
0.0
 13
-0.6750397937
 23
-0.9157835703
 33
0.0
 40
0.0
 40
0.0
 40
0.0
 40
0.0
 40
0.2020765742
 40
0.4691989935
 40
0.7349707001
 40
1.0
 40
1.0
 40
1.0
 40
1.0
 10
24.6816743522
 20
-8.5139031837
 30
0.0
 10
24.6133916433
 20
-8.5487901125
 30
0.0
 10
24.458447873
 20
-8.6368327549
 30
0.0
 10
24.2312680303
 20
-8.7995063076
 30
0.0
 10
24.0081447959
 20
-9.0050046028
 30
0.0
 10
23.8780015478
 20
-9.159427249
 30
0.0
 10
23.8183664398
 20
-9.2403304085
 30
0.0
 11
24.6816743522
 21
-8.5139031837
 31
0.0
 11
24.4817669445
 21
-8.6275592329
 31
0.0
 11
24.2347966381
 21
-8.8046535059
 31
0.0
 11
24.0125211365
 21
-9.00963806
 31
0.0
 11
23.8183664398
 21
-9.2403304085
 31
0.0
  0
SPLINE
  5
45A
100
AcDbEntity
  8
0
100
AcDbSpline
 62
253
  6
CONTINUOUS
 70
0
 71
3
 72
9
 73
5
 74
3
 42
0.0000001
 43
0.0000001
 44
0.0000000001
 12
-0.2285510805
 22
0.3124010427
 32
0.0
 13
-0.3360182072
 23
0.1943881706
 33
0.0
 40
0.0
 40
0.0
 40
0.0
 40
0.0
 40
0.6490568287
 40
1.0
 40
1.0
 40
1.0
 40
1.0
 10
23.7609381891
 20
-10.3080709237
 30
0.0
 10
23.7114906426
 20
-10.2404822471
 30
0.0
 10
23.6205299463
 20
-10.1463381831
 30
0.0
 10
23.513088258
 20
-10.0736070592
 30
0.0
 10
23.4737804929
 20
-10.0508673255
 30
0.0
 11
23.7609381891
 21
-10.3080709237
 31
0.0
 11
23.5864702944
 21
-10.1272932832
 31
0.0
 11
23.4737804929
 21
-10.0508673255
 31
0.0
  0
SPLINE
  5
45B
100
AcDbEntity
  8
0
100
AcDbSpline
 62
253
  6
CONTINUOUS
 70
0
 71
3
 72
11
 73
7
 74
5
 42
0.0000001
 43
0.0000001
 44
0.0000000001
 12
0.1766936964
 22
0.1268681321
 32
0.0
 13
0.2091127853
 23
-0.0595696069
 33
0.0
 40
0.0
 40
0.0
 40
0.0
 40
0.0
 40
0.2555959576
 40
0.5146262268
 40
0.7575085216
 40
1.0
 40
1.0
 40
1.0
 40
1.0
 10
23.5569705099
 20
-10.3590411667
 30
0.0
 10
23.5720245747
 20
-10.3482321728
 30
0.0
 10
23.6036472452
 20
-10.3281968817
 30
0.0
 10
23.6546724952
 20
-10.3068974687
 30
0.0
 10
23.7085846051
 20
-10.2984193809
 30
0.0
 10
23.7440354996
 20
-10.3032558831
 30
0.0
 10
23.7609381891
 20
-10.3080709237
 30
0.0
 11
23.5569705099
 21
-10.3590411667
 31
0.0
 11
23.6041866462
 21
-10.3297033717
 31
0.0
 11
23.6564371605
 21
-10.3086797409
 31
0.0
 11
23.7086876748
 21
-10.3010102217
 31
0.0
 11
23.7609381891
 21
-10.3080709237
 31
0.0
  0
SPLINE
  5
45C
100
AcDbEntity
  8
0
100
AcDbSpline
 62
253
  6
CONTINUOUS
 70
0
 71
3
 72
12
 73
8
 74
6
 42
0.0000001
 43
0.0000001
 44
0.0000000001
 12
0.1768726109
 22
0.1492809993
 32
0.0
 13
0.2227418853
 23
-0.0628871193
 33
0.0
 40
0.0
 40
0.0
 40
0.0
 40
0.0
 40
0.2828271836
 40
0.5360207565
 40
0.7689716617
 40
0.8834058943
 40
1.0
 40
1.0
 40
1.0
 40
1.0
 10
23.6066185338
 20
-10.4538635291
 30
0.0
 10
23.6232933279
 20
-10.4397899542
 30
0.0
 10
23.6565913859
 20
-10.4149604113
 30
0.0
 10
23.7101485662
 20
-10.3884601824
 30
0.0
 10
23.7562316351
 20
-10.3789635763
 30
0.0
 10
23.7921419142
 20
-10.3802485523
 30
0.0
 10
23.8097096428
 20
-10.3837608454
 30
0.0
 10
23.8183664398
 20
-10.3862049346
 30
0.0
 11
23.6066185338
 21
-10.4538635291
 31
0.0
 11
23.6595555103
 21
-10.4153576212
 31
0.0
 11
23.7124924868
 21
-10.3902218544
 31
0.0
 11
23.7654294633
 21
-10.3799922763
 31
0.0
 11
23.7918979515
 21
-10.3809473229
 31
0.0
 11
23.8183664398
 21
-10.3862049346
 31
0.0
  0
SPLINE
  5
45D
100
AcDbEntity
  8
0
100
AcDbSpline
 62
253
  6
CONTINUOUS
 70
0
 71
3
 72
9
 73
5
 74
3
 42
0.0000001
 43
0.0000001
 44
0.0000000001
 12
-0.9378824447
 22
0.0052162297
 32
0.0
 13
-0.8887384067
 23
0.300771992
 33
0.0
 40
0.0
 40
0.0
 40
0.0
 40
0.0
 40
0.7729895004
 40
1.0
 40
1.0
 40
1.0
 40
1.0
 10
25.9494928274
 20
-11.7704800618
 30
0.0
 10
25.7078350667
 20
-11.7691360316
 30
0.0
 10
25.393499472
 20
-11.7296684017
 30
0.0
 10
25.0933681817
 20
-11.6406385636
 30
0.0
 10
25.0261171984
 20
-11.6178790969
 30
0.0
 11
25.9494928274
 21
-11.7704800618
 31
0.0
 11
25.2303660913
 21
-11.6785058524
 31
0.0
 11
25.0261171984
 21
-11.6178790969
 31
0.0
  0
SPLINE
  5
45E
100
AcDbEntity
  8
0
100
AcDbSpline
 62
253
  6
CONTINUOUS
 70
0
 71
3
 72
11
 73
7
 74
5
 42
0.0000001
 43
0.0000001
 44
0.0000000001
 12
-0.6155608783
 22
-0.7922702682
 32
0.0
 13
-0.8848563663
 23
-0.4740724265
 33
0.0
 40
0.0
 40
0.0
 40
0.0
 40
0.0
 40
0.2925880741
 40
0.5835922153
 40
0.8746226618
 40
1.0
 40
1.0
 40
1.0
 40
1.0
 10
28.0311542075
 20
-10.4557300926
 30
0.0
 10
27.9711189502
 20
-10.5329997032
 30
0.0
 10
27.8415231043
 20
-10.6797455053
 30
0.0
 10
27.6216606891
 20
-10.8737291466
 30
0.0
 10
27.4260837613
 20
-11.0078721189
 30
0.0
 10
27.3049101176
 20
-11.0767453238
 30
0.0
 10
27.2679298057
 20
-11.0965579701
 30
0.0
 11
28.0311542075
 21
-10.4557300926
 31
0.0
 11
27.8368712668
 21
-10.6757927259
 31
0.0
 11
27.6180170381
 21
-10.869043267
 31
0.0
 11
27.3773306289
 21
-11.0343563312
 31
0.0
 11
27.2679298057
 21
-11.0965579701
 31
0.0
  0
SPLINE
  5
45F
100
AcDbEntity
  8
0
100
AcDbSpline
 62
253
  6
CONTINUOUS
 70
0
 71
3
 72
9
 73
5
 74
3
 42
0.0000001
 43
0.0000001
 44
0.0000000001
 12
-0.957094736
 22
-0.3497810551
 32
0.0
 13
-1.0186199603
 23
0.0056652683
 33
0.0
 40
0.0
 40
0.0
 40
0.0
 40
0.0
 40
0.2942479383
 40
1.0
 40
1.0
 40
1.0
 40
1.0
 10
26.950375447
 20
-11.5999001871
 30
0.0
 10
26.8565010627
 20
-11.6342076385
 30
0.0
 10
26.5310757741
 20
-11.7331459703
 30
0.0
 10
26.1891238731
 20
-11.7718128201
 30
0.0
 10
25.9494928274
 20
-11.7704800618
 30
0.0
 11
26.950375447
 21
-11.5999001871
 31
0.0
 11
26.6635587176
 21
-11.6872140225
 31
0.0
 11
25.9494928274
 21
-11.7704800618
 31
0.0
  0
SPLINE
  5
460
100
AcDbEntity
  8
0
100
AcDbSpline
 62
253
  6
CONTINUOUS
 70
0
 71
3
 72
9
 73
5
 74
3
 42
0.0000001
 43
0.0000001
 44
0.0000000001
 12
-0.1195124218
 22
-0.157229757
 32
0.0
 13
-0.1211707634
 23
-0.1559553191
 33
0.0
 40
0.0
 40
0.0
 40
0.0
 40
0.0
 40
0.2565483445
 40
1.0
 40
1.0
 40
1.0
 40
1.0
 10
28.1517844163
 20
-10.2993572176
 30
0.0
 10
28.1415641784
 20
-10.3128028956
 30
0.0
 10
28.1015874391
 20
-10.365107101
 30
0.0
 10
28.061182409
 20
-10.4170816792
 30
0.0
 10
28.0311542075
 20
-10.4557300926
 30
0.0
 11
28.1517844163
 21
-10.2993572176
 31
0.0
 11
28.121024057
 21
-10.3396183151
 31
0.0
 11
28.0311542075
 21
-10.4557300926
 31
0.0
  0
SPLINE
  5
461
100
AcDbEntity
  8
0
100
AcDbSpline
 62
253
  6
CONTINUOUS
 70
0
 71
3
 72
11
 73
7
 74
5
 42
0.0000001
 43
0.0000001
 44
0.0000000001
 12
-0.235226115
 22
0.0976408307
 32
0.0
 13
-0.2416016842
 23
-0.0805833929
 33
0.0
 40
0.0
 40
0.0
 40
0.0
 40
0.0
 40
0.2577618179
 40
0.5054749456
 40
0.7497330389
 40
1.0
 40
1.0
 40
1.0
 40
1.0
 10
28.2799530152
 20
-10.4722733612
 30
0.0
 10
28.2597422449
 20
-10.4638840019
 30
0.0
 10
28.2190181241
 20
-10.4498441922
 30
0.0
 10
28.1560185376
 20
-10.4387764872
 30
0.0
 10
28.0926096951
 20
-10.4396850393
 30
0.0
 10
28.0513091806
 20
-10.449007639
 30
0.0
 10
28.0311542075
 20
-10.4557300926
 30
0.0
 11
28.2799530152
 21
-10.4722733612
 31
0.0
 11
28.2177533133
 21
-10.4512755907
 31
0.0
 11
28.1555536114
 21
-10.4407193924
 31
0.0
 11
28.0933539094
 21
-10.4418043614
 31
0.0
 11
28.0311542075
 21
-10.4557300926
 31
0.0
  0
SPLINE
  5
462
100
AcDbEntity
  8
0
100
AcDbSpline
 62
253
  6
CONTINUOUS
 70
0
 71
3
 72
11
 73
7
 74
5
 42
0.0000001
 43
0.0000001
 44
0.0000000001
 12
-0.2184045179
 22
0.0393772775
 32
0.0
 13
-0.2101150831
 23
-0.0710021855
 33
0.0
 40
0.0
 40
0.0
 40
0.0
 40
0.0
 40
0.1562875464
 40
0.4343246105
 40
0.7133929133
 40
1.0
 40
1.0
 40
1.0
 40
1.0
 10
28.3709082055
 20
-10.2854786055
 30
0.0
 10
28.3595302368
 20
-10.2834272128
 30
0.0
 10
28.3277226602
 20
-10.2787389568
 30
0.0
 10
28.2748838624
 20
-10.2762039945
 30
0.0
 10
28.2125709305
 20
-10.282179943
 30
0.0
 10
28.171857907
 20
-10.2925739744
 30
0.0
 10
28.1517844163
 20
-10.2993572176
 30
0.0
 11
28.3709082055
 21
-10.2854786055
 31
0.0
 11
28.3365921252
 21
-10.2804603868
 31
0.0
 11
28.2749895556
 21
-10.2776835659
 31
0.0
 11
28.213386986
 21
-10.2836811168
 31
0.0
 11
28.1517844163
 21
-10.2993572176
 31
0.0
  0
SPLINE
  5
463
100
AcDbEntity
  8
0
100
AcDbSpline
 62
253
  6
CONTINUOUS
 70
0
 71
3
 72
11
 73
7
 74
5
 42
0.0000001
 43
0.0000001
 44
0.0000000001
 12
-0.3233477564
 22
0.1635135887
 32
0.0
 13
-0.2412031505
 23
0.2703603194
 33
0.0
 40
0.0
 40
0.0
 40
0.0
 40
0.0
 40
0.2793915187
 40
0.5918539332
 40
0.9003901337
 40
1.0
 40
1.0
 40
1.0
 40
1.0
 10
28.4850805501
 20
-9.6036359582
 30
0.0
 10
28.4549670099
 20
-9.5884078549
 30
0.0
 10
28.3928378128
 20
-9.5529467731
 30
0.0
 10
28.3047017591
 20
-9.4889470807
 30
0.0
 10
28.240685251
 20
-9.429808419
 30
0.0
 10
28.2071712491
 20
-9.3936463977
 30
0.0
 10
28.1991625113
 20
-9.3846695459
 30
0.0
 11
28.4850805501
 21
-9.6036359582
 31
0.0
 11
28.3972441436
 21
-9.5534557122
 31
0.0
 11
28.3057402323
 21
-9.4869405282
 31
0.0
 11
28.2236931935
 21
-9.4111385835
 31
0.0
 11
28.1991625113
 21
-9.3846695459
 31
0.0
  0
SPLINE
  5
464
100
AcDbEntity
  8
0
100
AcDbSpline
 62
253
  6
CONTINUOUS
 70
0
 71
3
 72
11
 73
7
 74
5
 42
0.0000001
 43
0.0000001
 44
0.0000000001
 12
-0.2431915698
 22
-0.0563767106
 32
0.0
 13
-0.2365024785
 23
0.0799190263
 33
0.0
 40
0.0
 40
0.0
 40
0.0
 40
0.0
 40
0.2504234483
 40
0.4974389604
 40
0.7453706523
 40
1.0
 40
1.0
 40
1.0
 40
1.0
 10
28.3981946948
 20
-9.3354279421
 30
0.0
 10
28.3778944043
 20
-9.3401339589
 30
0.0
 10
28.3370243838
 20
-9.3473501323
 30
0.0
 10
28.2748838624
 20
-9.3503313486
 30
0.0
 10
28.2125709305
 20
-9.3443554001
 30
0.0
 10
28.171857907
 20
-9.3339613686
 30
0.0
 10
28.1517844163
 20
-9.3271781254
 30
0.0
 11
28.3981946948
 21
-9.3354279421
 31
0.0
 11
28.3365921252
 21
-9.3460749563
 31
0.0
 11
28.2749895556
 21
-9.3488517771
 31
0.0
 11
28.213386986
 21
-9.3428542263
 31
0.0
 11
28.1517844163
 21
-9.3271781254
 31
0.0
  0
SPLINE
  5
465
100
AcDbEntity
  8
0
100
AcDbSpline
 62
253
  6
CONTINUOUS
 70
0
 71
3
 72
9
 73
5
 74
3
 42
0.0000001
 43
0.0000001
 44
0.0000000001
 12
-0.1319116809
 22
0.1716819867
 32
0.0
 13
-0.1029847987
 23
0.1904456021
 33
0.0
 40
0.0
 40
0.0
 40
0.0
 40
0.0
 40
0.4984797384
 40
1.0
 40
1.0
 40
1.0
 40
1.0
 10
28.3981946948
 20
-9.3354279421
 30
0.0
 10
28.3762762614
 20
-9.3069012782
 30
0.0
 10
28.3343799472
 20
-9.2480500413
 30
0.0
 10
28.2971693363
 20
-9.1860994245
 30
0.0
 10
28.2799530152
 20
-9.1542619818
 30
0.0
 11
28.3981946948
 21
-9.3354279421
 31
0.0
 11
28.3356716471
 21
-9.2474588396
 31
0.0
 11
28.2799530152
 21
-9.1542619818
 31
0.0
  0
SPLINE
  5
466
100
AcDbEntity
  8
0
100
AcDbSpline
 62
253
  6
CONTINUOUS
 70
0
 71
3
 72
9
 73
5
 74
3
 42
0.0000001
 43
0.0000001
 44
0.0000000001
 12
-0.1195124218
 22
0.157229757
 32
0.0
 13
-0.1211707634
 23
0.1559553191
 33
0.0
 40
0.0
 40
0.0
 40
0.0
 40
0.0
 40
0.2565483445
 40
1.0
 40
1.0
 40
1.0
 40
1.0
 10
28.1517844163
 20
-9.3271781254
 30
0.0
 10
28.1415641784
 20
-9.3137324475
 30
0.0
 10
28.1015874391
 20
-9.261428242
 30
0.0
 10
28.061182409
 20
-9.2094536638
 30
0.0
 10
28.0311542075
 20
-9.1708052505
 30
0.0
 11
28.1517844163
 21
-9.3271781254
 31
0.0
 11
28.121024057
 21
-9.2869170279
 31
0.0
 11
28.0311542075
 21
-9.1708052505
 31
0.0
  0
SPLINE
  5
467
100
AcDbEntity
  8
0
100
AcDbSpline
 62
253
  6
CONTINUOUS
 70
0
 71
3
 72
11
 73
7
 74
5
 42
0.0000001
 43
0.0000001
 44
0.0000000001
 12
-0.235226115
 22
-0.0976408307
 32
0.0
 13
-0.2416016842
 23
0.0805833929
 33
0.0
 40
0.0
 40
0.0
 40
0.0
 40
0.0
 40
0.2577618179
 40
0.5054749456
 40
0.7497330389
 40
1.0
 40
1.0
 40
1.0
 40
1.0
 10
28.2799530152
 20
-9.1542619818
 30
0.0
 10
28.2597422449
 20
-9.1626513411
 30
0.0
 10
28.2190181241
 20
-9.1766911509
 30
0.0
 10
28.1560185376
 20
-9.1877588559
 30
0.0
 10
28.0926096951
 20
-9.1868503037
 30
0.0
 10
28.0513091806
 20
-9.1775277041
 30
0.0
 10
28.0311542075
 20
-9.1708052505
 30
0.0
 11
28.2799530152
 21
-9.1542619818
 31
0.0
 11
28.2177533133
 21
-9.1752597524
 31
0.0
 11
28.1555536114
 21
-9.1858159506
 31
0.0
 11
28.0933539094
 21
-9.1847309816
 31
0.0
 11
28.0311542075
 21
-9.1708052505
 31
0.0
  0
SPLINE
  5
468
100
AcDbEntity
  8
0
100
AcDbSpline
 62
253
  6
CONTINUOUS
 70
0
 71
3
 72
9
 73
5
 74
3
 42
0.0000001
 43
0.0000001
 44
0.0000000001
 12
-0.957094736
 22
0.3497810551
 32
0.0
 13
-1.0186199603
 23
-0.0056652683
 33
0.0
 40
0.0
 40
0.0
 40
0.0
 40
0.0
 40
0.2942479383
 40
1.0
 40
1.0
 40
1.0
 40
1.0
 10
26.950375447
 20
-8.0266351559
 30
0.0
 10
26.8565010627
 20
-7.9923277045
 30
0.0
 10
26.5310757741
 20
-7.8933893727
 30
0.0
 10
26.1891238731
 20
-7.8547225229
 30
0.0
 10
25.9494928274
 20
-7.8560552812
 30
0.0
 11
26.950375447
 21
-8.0266351559
 31
0.0
 11
26.6635587176
 21
-7.9393213206
 31
0.0
 11
25.9494928274
 21
-7.8560552812
 31
0.0
  0
SPLINE
  5
469
100
AcDbEntity
  8
0
100
AcDbSpline
 62
253
  6
CONTINUOUS
 70
0
 71
3
 72
11
 73
7
 74
5
 42
0.0000001
 43
0.0000001
 44
0.0000000001
 12
-0.6155608783
 22
0.7922702682
 32
0.0
 13
-0.8848563663
 23
0.4740724265
 33
0.0
 40
0.0
 40
0.0
 40
0.0
 40
0.0
 40
0.2925880741
 40
0.5835922153
 40
0.8746226618
 40
1.0
 40
1.0
 40
1.0
 40
1.0
 10
28.0311542075
 20
-9.1708052505
 30
0.0
 10
27.9711189502
 20
-9.0935356398
 30
0.0
 10
27.8415231043
 20
-8.9467898377
 30
0.0
 10
27.6216606891
 20
-8.7528061965
 30
0.0
 10
27.4260837613
 20
-8.6186632242
 30
0.0
 10
27.3049101176
 20
-8.5497900192
 30
0.0
 10
27.2679298057
 20
-8.5299773729
 30
0.0
 11
28.0311542075
 21
-9.1708052505
 31
0.0
 11
27.8368712668
 21
-8.9507426171
 31
0.0
 11
27.6180170381
 21
-8.7574920761
 31
0.0
 11
27.3773306289
 21
-8.5921790118
 31
0.0
 11
27.2679298057
 21
-8.5299773729
 31
0.0
  0
SPLINE
  5
46A
100
AcDbEntity
  8
0
100
AcDbSpline
 62
253
  6
CONTINUOUS
 70
0
 71
3
 72
9
 73
5
 74
3
 42
0.0000001
 43
0.0000001
 44
0.0000000001
 12
-0.9378824447
 22
-0.0052162297
 32
0.0
 13
-0.8887384067
 23
-0.300771992
 33
0.0
 40
0.0
 40
0.0
 40
0.0
 40
0.0
 40
0.7729895004
 40
1.0
 40
1.0
 40
1.0
 40
1.0
 10
25.9494928274
 20
-7.8560552812
 30
0.0
 10
25.7078350667
 20
-7.8573993115
 30
0.0
 10
25.393499472
 20
-7.8968669414
 30
0.0
 10
25.0933681817
 20
-7.9858967794
 30
0.0
 10
25.0261171984
 20
-8.0086562461
 30
0.0
 11
25.9494928274
 21
-7.8560552812
 31
0.0
 11
25.2303660913
 21
-7.9480294906
 31
0.0
 11
25.0261171984
 21
-8.0086562461
 31
0.0
  0
SPLINE
  5
46B
100
AcDbEntity
  8
0
100
AcDbSpline
 62
253
  6
CONTINUOUS
 70
0
 71
3
 72
12
 73
8
 74
6
 42
0.0000001
 43
0.0000001
 44
0.0000000001
 12
0.1768726109
 22
-0.1492809993
 32
0.0
 13
0.2227418853
 23
0.0628871193
 33
0.0
 40
0.0
 40
0.0
 40
0.0
 40
0.0
 40
0.2828271836
 40
0.5360207565
 40
0.7689716617
 40
0.8834058943
 40
1.0
 40
1.0
 40
1.0
 40
1.0
 10
23.6066185338
 20
-9.1726718139
 30
0.0
 10
23.6232933279
 20
-9.1867453888
 30
0.0
 10
23.6565913859
 20
-9.2115749318
 30
0.0
 10
23.7101485662
 20
-9.2380751606
 30
0.0
 10
23.7562316351
 20
-9.2475717668
 30
0.0
 10
23.7921419142
 20
-9.2462867907
 30
0.0
 10
23.8097096428
 20
-9.2427744976
 30
0.0
 10
23.8183664398
 20
-9.2403304085
 30
0.0
 11
23.6066185338
 21
-9.1726718139
 31
0.0
 11
23.6595555103
 21
-9.2111777218
 31
0.0
 11
23.7124924868
 21
-9.2363134886
 31
0.0
 11
23.7654294633
 21
-9.2465430667
 31
0.0
 11
23.7918979515
 21
-9.2455880201
 31
0.0
 11
23.8183664398
 21
-9.2403304085
 31
0.0
  0
SPLINE
  5
46C
100
AcDbEntity
  8
0
100
AcDbSpline
 62
253
  6
CONTINUOUS
 70
0
 71
3
 72
11
 73
7
 74
5
 42
0.0000001
 43
0.0000001
 44
0.0000000001
 12
0.1800045845
 22
-0.132743652
 32
0.0
 13
0.2150997217
 23
0.0612750954
 33
0.0
 40
0.0
 40
0.0
 40
0.0
 40
0.0
 40
0.2763151829
 40
0.5281357834
 40
0.764257861
 40
1.0
 40
1.0
 40
1.0
 40
1.0
 10
23.5519361319
 20
-9.2638303388
 30
0.0
 10
23.5685154651
 20
-9.276056701
 30
0.0
 10
23.6017187362
 20
-9.297533446
 30
0.0
 10
23.6546724952
 20
-9.3196378743
 30
0.0
 10
23.7085846051
 20
-9.3281159621
 30
0.0
 10
23.7440354996
 20
-9.32327946
 30
0.0
 10
23.7609381891
 20
-9.3184644193
 30
0.0
 11
23.5519361319
 21
-9.2638303388
 31
0.0
 11
23.6041866462
 21
-9.2968319714
 31
0.0
 11
23.6564371605
 21
-9.3178556022
 31
0.0
 11
23.7086876748
 21
-9.3255251214
 31
0.0
 11
23.7609381891
 21
-9.3184644193
 31
0.0
  0
SPLINE
  5
46D
100
AcDbEntity
  8
0
100
AcDbSpline
 62
253
  6
CONTINUOUS
 70
0
 71
3
 72
9
 73
5
 74
3
 42
0.0000001
 43
0.0000001
 44
0.0000000001
 12
-0.2248311725
 22
-0.2280772976
 32
0.0
 13
-0.2874152985
 23
-0.1405194277
 33
0.0
 40
0.0
 40
0.0
 40
0.0
 40
0.0
 40
0.3631916636
 40
1.0
 40
1.0
 40
1.0
 40
1.0
 10
23.6730778149
 20
-9.4216654977
 30
0.0
 10
23.645858879
 20
-9.4492774221
 30
0.0
 10
23.5661329763
 20
-9.5207047975
 30
0.0
 10
23.4752097537
 20
-9.5775840474
 30
0.0
 10
23.4142002677
 20
-9.6074120284
 30
0.0
 11
23.6730778149
 21
-9.4216654977
 31
0.0
 11
23.5864702944
 21
-9.4992420599
 31
0.0
 11
23.4142002677
 21
-9.6074120284
 31
0.0
  0
SPLINE
  5
46E
100
AcDbEntity
  8
0
100
AcDbSpline
 62
253
  6
CONTINUOUS
 70
0
 71
3
 72
11
 73
7
 74
5
 42
0.0000001
 43
0.0000001
 44
0.0000000001
 12
-0.3149939164
 22
-0.1881208591
 32
0.0
 13
-0.2219322407
 23
-0.2919725978
 33
0.0
 40
0.0
 40
0.0
 40
0.0
 40
0.0
 40
0.0855406352
 40
0.3939970763
 40
0.6985776399
 40
1.0
 40
1.0
 40
1.0
 40
1.0
 10
28.4239281353
 20
-10.0565603948
 30
0.0
 10
28.4149465421
 20
-10.0619243874
 30
0.0
 10
28.3739711701
 20
-10.0872885176
 30
0.0
 10
28.3047017591
 20
-10.1375882623
 30
0.0
 10
28.2224091249
 20
-10.2136104697
 30
0.0
 10
28.1740828629
 20
-10.2700215278
 30
0.0
 10
28.1517844163
 20
-10.2993572176
 30
0.0
 11
28.4239281353
 21
-10.0565603948
 31
0.0
 11
28.3972441436
 21
-10.0730796308
 31
0.0
 11
28.3057402323
 21
-10.1395948149
 31
0.0
 11
28.2236931935
 21
-10.2153967595
 31
0.0
 11
28.1517844163
 21
-10.2993572176
 31
0.0
  0
SPLINE
  5
46F
100
AcDbEntity
  8
0
100
AcDbSpline
 62
7
  6
CONTINUOUS
 70
0
 71
3
 72
11
 73
7
 74
5
 42
0.0000001
 43
0.0000001
 44
0.0000000001
 12
1.0137153575
 22
-0.5179263692
 32
0.0
 13
0.6750397937
 23
-0.9157835703
 33
0.0
 40
0.0
 40
0.0
 40
0.0
 40
0.0
 40
0.2020765742
 40
0.4691989935
 40
0.7349707001
 40
1.0
 40
1.0
 40
1.0
 40
1.0
 10
27.2173113027
 20
11.0860968163
 30
0.0
 10
27.2855940116
 20
11.0512098875
 30
0.0
 10
27.4405377819
 20
10.9631672451
 30
0.0
 10
27.6677176245
 20
10.8004936924
 30
0.0
 10
27.8908408589
 20
10.5949953972
 30
0.0
 10
28.0209841071
 20
10.440572751
 30
0.0
 10
28.0806192151
 20
10.3596695915
 30
0.0
 11
27.2173113027
 21
11.0860968163
 31
0.0
 11
27.4172187104
 21
10.9724407671
 31
0.0
 11
27.6641890168
 21
10.7953464941
 31
0.0
 11
27.8864645184
 21
10.59036194
 31
0.0
 11
28.0806192151
 21
10.3596695915
 31
0.0
  0
SPLINE
  5
470
100
AcDbEntity
  8
0
100
AcDbSpline
 62
7
  6
CONTINUOUS
 70
0
 71
3
 72
11
 73
7
 74
5
 42
0.0000001
 43
0.0000001
 44
0.0000000001
 12
1.0137153575
 22
0.5179263692
 32
0.0
 13
0.6750397937
 23
0.9157835703
 33
0.0
 40
0.0
 40
0.0
 40
0.0
 40
0.0
 40
0.2020765742
 40
0.4691989935
 40
0.7349707001
 40
1.0
 40
1.0
 40
1.0
 40
1.0
 10
27.2173113027
 20
8.4873678406
 30
0.0
 10
27.2855940116
 20
8.5222547694
 30
0.0
 10
27.4405377819
 20
8.6102974119
 30
0.0
 10
27.6677176245
 20
8.7729709646
 30
0.0
 10
27.8908408589
 20
8.9784692598
 30
0.0
 10
28.0209841071
 20
9.1328919059
 30
0.0
 10
28.0806192151
 20
9.2137950654
 30
0.0
 11
27.2173113027
 21
8.4873678406
 31
0.0
 11
27.4172187104
 21
8.6010238898
 31
0.0
 11
27.6641890168
 21
8.7781181628
 31
0.0
 11
27.8864645184
 21
8.983102717
 31
0.0
 11
28.0806192151
 21
9.2137950654
 31
0.0
  0
SPLINE
  5
471
100
AcDbEntity
  8
0
100
AcDbSpline
 62
253
  6
CONTINUOUS
 70
0
 71
3
 72
9
 73
5
 74
3
 42
0.0000001
 43
0.0000001
 44
0.0000000001
 12
0.2285510805
 22
-0.3124010427
 32
0.0
 13
0.3360182072
 23
-0.1943881706
 33
0.0
 40
0.0
 40
0.0
 40
0.0
 40
0.0
 40
0.6490568287
 40
1.0
 40
1.0
 40
1.0
 40
1.0
 10
28.1380474657
 20
10.2815355807
 30
0.0
 10
28.1874950122
 20
10.213946904
 30
0.0
 10
28.2784557086
 20
10.11980284
 30
0.0
 10
28.3858973969
 20
10.0470717161
 30
0.0
 10
28.425205162
 20
10.0243319824
 30
0.0
 11
28.1380474657
 21
10.2815355807
 31
0.0
 11
28.3125153605
 21
10.1007579401
 31
0.0
 11
28.425205162
 21
10.0243319824
 31
0.0
  0
SPLINE
  5
472
100
AcDbEntity
  8
0
100
AcDbSpline
 62
253
  6
CONTINUOUS
 70
0
 71
3
 72
11
 73
7
 74
5
 42
0.0000001
 43
0.0000001
 44
0.0000000001
 12
-0.1766936964
 22
-0.1268681321
 32
0.0
 13
-0.2091127853
 23
0.0595696069
 33
0.0
 40
0.0
 40
0.0
 40
0.0
 40
0.0
 40
0.2555959576
 40
0.5146262268
 40
0.7575085216
 40
1.0
 40
1.0
 40
1.0
 40
1.0
 10
28.342015145
 20
10.3325058236
 30
0.0
 10
28.3269610802
 20
10.3216968297
 30
0.0
 10
28.2953384096
 20
10.3016615386
 30
0.0
 10
28.2443131597
 20
10.2803621257
 30
0.0
 10
28.1904010497
 20
10.2718840379
 30
0.0
 10
28.1549501552
 20
10.27672054
 30
0.0
 10
28.1380474657
 20
10.2815355807
 30
0.0
 11
28.342015145
 21
10.3325058236
 31
0.0
 11
28.2947990087
 21
10.3031680286
 31
0.0
 11
28.2425484944
 21
10.2821443978
 31
0.0
 11
28.1902979801
 21
10.2744748786
 31
0.0
 11
28.1380474657
 21
10.2815355807
 31
0.0
  0
SPLINE
  5
473
100
AcDbEntity
  8
0
100
AcDbSpline
 62
253
  6
CONTINUOUS
 70
0
 71
3
 72
12
 73
8
 74
6
 42
0.0000001
 43
0.0000001
 44
0.0000000001
 12
-0.1768726109
 22
-0.1492809993
 32
0.0
 13
-0.2227418853
 23
0.0628871193
 33
0.0
 40
0.0
 40
0.0
 40
0.0
 40
0.0
 40
0.2828271836
 40
0.5360207565
 40
0.7689716617
 40
0.8834058943
 40
1.0
 40
1.0
 40
1.0
 40
1.0
 10
28.2923671211
 20
10.4273281861
 30
0.0
 10
28.275692327
 20
10.4132546112
 30
0.0
 10
28.2423942689
 20
10.3884250682
 30
0.0
 10
28.1888370886
 20
10.3619248394
 30
0.0
 10
28.1427540198
 20
10.3524282332
 30
0.0
 10
28.1068437407
 20
10.3537132093
 30
0.0
 10
28.0892760121
 20
10.3572255024
 30
0.0
 10
28.0806192151
 20
10.3596695915
 30
0.0
 11
28.2923671211
 21
10.4273281861
 31
0.0
 11
28.2394301446
 21
10.3888222782
 31
0.0
 11
28.1864931681
 21
10.3636865114
 31
0.0
 11
28.1335561916
 21
10.3534569333
 31
0.0
 11
28.1070877033
 21
10.3544119799
 31
0.0
 11
28.0806192151
 21
10.3596695915
 31
0.0
  0
SPLINE
  5
474
100
AcDbEntity
  8
0
100
AcDbSpline
 62
253
  6
CONTINUOUS
 70
0
 71
3
 72
9
 73
5
 74
3
 42
0.0000001
 43
0.0000001
 44
0.0000000001
 12
0.9378824447
 22
-0.0052162297
 32
0.0
 13
0.8887384067
 23
-0.300771992
 33
0.0
 40
0.0
 40
0.0
 40
0.0
 40
0.0
 40
0.7729895004
 40
1.0
 40
1.0
 40
1.0
 40
1.0
 10
25.9494928274
 20
11.7439447188
 30
0.0
 10
26.1911505882
 20
11.7426006885
 30
0.0
 10
26.5054861829
 20
11.7031330586
 30
0.0
 10
26.8056174732
 20
11.6141032206
 30
0.0
 10
26.8728684564
 20
11.5913437539
 30
0.0
 11
25.9494928274
 21
11.7439447188
 31
0.0
 11
26.6686195636
 21
11.6519705094
 31
0.0
 11
26.8728684564
 21
11.5913437539
 31
0.0
  0
SPLINE
  5
475
100
AcDbEntity
  8
0
100
AcDbSpline
 62
253
  6
CONTINUOUS
 70
0
 71
3
 72
11
 73
7
 74
5
 42
0.0000001
 43
0.0000001
 44
0.0000000001
 12
0.6155608783
 22
0.7922702682
 32
0.0
 13
0.8848563663
 23
0.4740724265
 33
0.0
 40
0.0
 40
0.0
 40
0.0
 40
0.0
 40
0.2925880741
 40
0.5835922153
 40
0.8746226618
 40
1.0
 40
1.0
 40
1.0
 40
1.0
 10
23.8678314474
 20
10.4291947495
 30
0.0
 10
23.9278667047
 20
10.5064643602
 30
0.0
 10
24.0574625506
 20
10.6532101623
 30
0.0
 10
24.2773249658
 20
10.8471938035
 30
0.0
 10
24.4729018936
 20
10.9813367758
 30
0.0
 10
24.5940755372
 20
11.0502099808
 30
0.0
 10
24.6310558492
 20
11.0700226271
 30
0.0
 11
23.8678314474
 21
10.4291947495
 31
0.0
 11
24.0621143881
 21
10.6492573829
 31
0.0
 11
24.2809686168
 21
10.8425079239
 31
0.0
 11
24.521655026
 21
11.0078209882
 31
0.0
 11
24.6310558492
 21
11.0700226271
 31
0.0
  0
SPLINE
  5
476
100
AcDbEntity
  8
0
100
AcDbSpline
 62
253
  6
CONTINUOUS
 70
0
 71
3
 72
9
 73
5
 74
3
 42
0.0000001
 43
0.0000001
 44
0.0000000001
 12
0.957094736
 22
0.3497810551
 32
0.0
 13
1.0186199603
 23
-0.0056652683
 33
0.0
 40
0.0
 40
0.0
 40
0.0
 40
0.0
 40
0.2942479383
 40
1.0
 40
1.0
 40
1.0
 40
1.0
 10
24.9486102079
 20
11.5733648441
 30
0.0
 10
25.0424845922
 20
11.6076722955
 30
0.0
 10
25.3679098808
 20
11.7066106273
 30
0.0
 10
25.7098617818
 20
11.7452774771
 30
0.0
 10
25.9494928274
 20
11.7439447188
 30
0.0
 11
24.9486102079
 21
11.5733648441
 31
0.0
 11
25.2354269373
 21
11.6606786794
 31
0.0
 11
25.9494928274
 21
11.7439447188
 31
0.0
  0
SPLINE
  5
477
100
AcDbEntity
  8
0
100
AcDbSpline
 62
253
  6
CONTINUOUS
 70
0
 71
3
 72
9
 73
5
 74
3
 42
0.0000001
 43
0.0000001
 44
0.0000000001
 12
0.1195124218
 22
0.157229757
 32
0.0
 13
0.1211707634
 23
0.1559553191
 33
0.0
 40
0.0
 40
0.0
 40
0.0
 40
0.0
 40
0.2565483445
 40
1.0
 40
1.0
 40
1.0
 40
1.0
 10
23.7472012385
 20
10.2728218746
 30
0.0
 10
23.7574214765
 20
10.2862675525
 30
0.0
 10
23.7973982158
 20
10.338571758
 30
0.0
 10
23.8378032458
 20
10.3905463362
 30
0.0
 10
23.8678314474
 20
10.4291947495
 30
0.0
 11
23.7472012385
 21
10.2728218746
 31
0.0
 11
23.7779615979
 21
10.3130829721
 31
0.0
 11
23.8678314474
 21
10.4291947495
 31
0.0
  0
SPLINE
  5
478
100
AcDbEntity
  8
0
100
AcDbSpline
 62
253
  6
CONTINUOUS
 70
0
 71
3
 72
11
 73
7
 74
5
 42
0.0000001
 43
0.0000001
 44
0.0000000001
 12
0.235226115
 22
-0.0976408307
 32
0.0
 13
0.2416016842
 23
0.0805833929
 33
0.0
 40
0.0
 40
0.0
 40
0.0
 40
0.0
 40
0.2577618179
 40
0.5054749456
 40
0.7497330389
 40
1.0
 40
1.0
 40
1.0
 40
1.0
 10
23.6190326396
 20
10.4457380182
 30
0.0
 10
23.63924341
 20
10.4373486589
 30
0.0
 10
23.6799675308
 20
10.4233088491
 30
0.0
 10
23.7429671173
 20
10.4122411441
 30
0.0
 10
23.8063759598
 20
10.4131496963
 30
0.0
 10
23.8476764743
 20
10.4224722959
 30
0.0
 10
23.8678314474
 20
10.4291947495
 30
0.0
 11
23.6190326396
 21
10.4457380182
 31
0.0
 11
23.6812323416
 21
10.4247402476
 31
0.0
 11
23.7434320435
 21
10.4141840494
 31
0.0
 11
23.8056317455
 21
10.4152690184
 31
0.0
 11
23.8678314474
 21
10.4291947495
 31
0.0
  0
SPLINE
  5
479
100
AcDbEntity
  8
0
100
AcDbSpline
 62
253
  6
CONTINUOUS
 70
0
 71
3
 72
11
 73
7
 74
5
 42
0.0000001
 43
0.0000001
 44
0.0000000001
 12
0.2184045179
 22
-0.0393772775
 32
0.0
 13
0.2101150831
 23
0.0710021855
 33
0.0
 40
0.0
 40
0.0
 40
0.0
 40
0.0
 40
0.1562875464
 40
0.4343246105
 40
0.7133929133
 40
1.0
 40
1.0
 40
1.0
 40
1.0
 10
23.5280774494
 20
10.2589432625
 30
0.0
 10
23.5394554181
 20
10.2568918698
 30
0.0
 10
23.5712629947
 20
10.2522036138
 30
0.0
 10
23.6241017925
 20
10.2496686514
 30
0.0
 10
23.6864147244
 20
10.2556445999
 30
0.0
 10
23.7271277479
 20
10.2660386314
 30
0.0
 10
23.7472012385
 20
10.2728218746
 30
0.0
 11
23.5280774494
 21
10.2589432625
 31
0.0
 11
23.5623935297
 21
10.2539250437
 31
0.0
 11
23.6239960993
 21
10.2511482229
 31
0.0
 11
23.6855986689
 21
10.2571457737
 31
0.0
 11
23.7472012385
 21
10.2728218746
 31
0.0
  0
SPLINE
  5
47A
100
AcDbEntity
  8
0
100
AcDbSpline
 62
253
  6
CONTINUOUS
 70
0
 71
3
 72
11
 73
7
 74
5
 42
0.0000001
 43
0.0000001
 44
0.0000000001
 12
0.3233477564
 22
-0.1635135887
 32
0.0
 13
0.2412031505
 23
-0.2703603194
 33
0.0
 40
0.0
 40
0.0
 40
0.0
 40
0.0
 40
0.2793915187
 40
0.5918539332
 40
0.9003901337
 40
1.0
 40
1.0
 40
1.0
 40
1.0
 10
23.4139051048
 20
9.5771006152
 30
0.0
 10
23.444018645
 20
9.5618725119
 30
0.0
 10
23.5061478421
 20
9.52641143
 30
0.0
 10
23.5942838958
 20
9.4624117377
 30
0.0
 10
23.6583004039
 20
9.403273076
 30
0.0
 10
23.6918144058
 20
9.3671110547
 30
0.0
 10
23.6998231436
 20
9.3581342029
 30
0.0
 11
23.4139051048
 21
9.5771006152
 31
0.0
 11
23.5017415113
 21
9.5269203692
 31
0.0
 11
23.5932454226
 21
9.4604051851
 31
0.0
 11
23.6752924614
 21
9.3846032405
 31
0.0
 11
23.6998231436
 21
9.3581342029
 31
0.0
  0
SPLINE
  5
47B
100
AcDbEntity
  8
0
100
AcDbSpline
 62
253
  6
CONTINUOUS
 70
0
 71
3
 72
11
 73
7
 74
5
 42
0.0000001
 43
0.0000001
 44
0.0000000001
 12
0.2431915698
 22
0.0563767106
 32
0.0
 13
0.2365024785
 23
-0.0799190263
 33
0.0
 40
0.0
 40
0.0
 40
0.0
 40
0.0
 40
0.2504234483
 40
0.4974389604
 40
0.7453706523
 40
1.0
 40
1.0
 40
1.0
 40
1.0
 10
23.5007909601
 20
9.3088925991
 30
0.0
 10
23.5210912506
 20
9.3135986158
 30
0.0
 10
23.5619612711
 20
9.3208147893
 30
0.0
 10
23.6241017925
 20
9.3237960055
 30
0.0
 10
23.6864147244
 20
9.317820057
 30
0.0
 10
23.7271277479
 20
9.3074260256
 30
0.0
 10
23.7472012385
 20
9.3006427824
 30
0.0
 11
23.5007909601
 21
9.3088925991
 31
0.0
 11
23.5623935297
 21
9.3195396132
 31
0.0
 11
23.6239960993
 21
9.3223164341
 31
0.0
 11
23.6855986689
 21
9.3163188832
 31
0.0
 11
23.7472012385
 21
9.3006427824
 31
0.0
  0
SPLINE
  5
47C
100
AcDbEntity
  8
0
100
AcDbSpline
 62
253
  6
CONTINUOUS
 70
0
 71
3
 72
9
 73
5
 74
3
 42
0.0000001
 43
0.0000001
 44
0.0000000001
 12
0.1319116809
 22
-0.1716819867
 32
0.0
 13
0.1029847987
 23
-0.1904456021
 33
0.0
 40
0.0
 40
0.0
 40
0.0
 40
0.0
 40
0.4984797384
 40
1.0
 40
1.0
 40
1.0
 40
1.0
 10
23.5007909601
 20
9.3088925991
 30
0.0
 10
23.5227093935
 20
9.2803659351
 30
0.0
 10
23.5646057077
 20
9.2215146982
 30
0.0
 10
23.6018163186
 20
9.1595640815
 30
0.0
 10
23.6190326396
 20
9.1277266388
 30
0.0
 11
23.5007909601
 21
9.3088925991
 31
0.0
 11
23.5633140078
 21
9.2209234965
 31
0.0
 11
23.6190326396
 21
9.1277266388
 31
0.0
  0
SPLINE
  5
47D
100
AcDbEntity
  8
0
100
AcDbSpline
 62
253
  6
CONTINUOUS
 70
0
 71
3
 72
9
 73
5
 74
3
 42
0.0000001
 43
0.0000001
 44
0.0000000001
 12
0.1195124218
 22
-0.157229757
 32
0.0
 13
0.1211707634
 23
-0.1559553191
 33
0.0
 40
0.0
 40
0.0
 40
0.0
 40
0.0
 40
0.2565483445
 40
1.0
 40
1.0
 40
1.0
 40
1.0
 10
23.7472012385
 20
9.3006427824
 30
0.0
 10
23.7574214765
 20
9.2871971044
 30
0.0
 10
23.7973982158
 20
9.234892899
 30
0.0
 10
23.8378032458
 20
9.1829183208
 30
0.0
 10
23.8678314474
 20
9.1442699074
 30
0.0
 11
23.7472012385
 21
9.3006427824
 31
0.0
 11
23.7779615979
 21
9.2603816849
 31
0.0
 11
23.8678314474
 21
9.1442699074
 31
0.0
  0
SPLINE
  5
47E
100
AcDbEntity
  8
0
100
AcDbSpline
 62
253
  6
CONTINUOUS
 70
0
 71
3
 72
11
 73
7
 74
5
 42
0.0000001
 43
0.0000001
 44
0.0000000001
 12
0.235226115
 22
0.0976408307
 32
0.0
 13
0.2416016842
 23
-0.0805833929
 33
0.0
 40
0.0
 40
0.0
 40
0.0
 40
0.0
 40
0.2577618179
 40
0.5054749456
 40
0.7497330389
 40
1.0
 40
1.0
 40
1.0
 40
1.0
 10
23.6190326396
 20
9.1277266388
 30
0.0
 10
23.63924341
 20
9.1361159981
 30
0.0
 10
23.6799675308
 20
9.1501558078
 30
0.0
 10
23.7429671173
 20
9.1612235128
 30
0.0
 10
23.8063759598
 20
9.1603149607
 30
0.0
 10
23.8476764743
 20
9.150992361
 30
0.0
 10
23.8678314474
 20
9.1442699074
 30
0.0
 11
23.6190326396
 21
9.1277266388
 31
0.0
 11
23.6812323416
 21
9.1487244093
 31
0.0
 11
23.7434320435
 21
9.1592806076
 31
0.0
 11
23.8056317455
 21
9.1581956386
 31
0.0
 11
23.8678314474
 21
9.1442699074
 31
0.0
  0
SPLINE
  5
47F
100
AcDbEntity
  8
0
100
AcDbSpline
 62
253
  6
CONTINUOUS
 70
0
 71
3
 72
9
 73
5
 74
3
 42
0.0000001
 43
0.0000001
 44
0.0000000001
 12
0.957094736
 22
-0.3497810551
 32
0.0
 13
1.0186199603
 23
0.0056652683
 33
0.0
 40
0.0
 40
0.0
 40
0.0
 40
0.0
 40
0.2942479383
 40
1.0
 40
1.0
 40
1.0
 40
1.0
 10
24.9486102079
 20
8.0000998129
 30
0.0
 10
25.0424845922
 20
7.9657923615
 30
0.0
 10
25.3679098808
 20
7.8668540297
 30
0.0
 10
25.7098617818
 20
7.8281871799
 30
0.0
 10
25.9494928274
 20
7.8295199382
 30
0.0
 11
24.9486102079
 21
8.0000998129
 31
0.0
 11
25.2354269373
 21
7.9127859775
 31
0.0
 11
25.9494928274
 21
7.8295199382
 31
0.0
  0
SPLINE
  5
480
100
AcDbEntity
  8
0
100
AcDbSpline
 62
253
  6
CONTINUOUS
 70
0
 71
3
 72
11
 73
7
 74
5
 42
0.0000001
 43
0.0000001
 44
0.0000000001
 12
0.6155608783
 22
-0.7922702682
 32
0.0
 13
0.8848563663
 23
-0.4740724265
 33
0.0
 40
0.0
 40
0.0
 40
0.0
 40
0.0
 40
0.2925880741
 40
0.5835922153
 40
0.8746226618
 40
1.0
 40
1.0
 40
1.0
 40
1.0
 10
23.8678314474
 20
9.1442699074
 30
0.0
 10
23.9278667047
 20
9.0670002968
 30
0.0
 10
24.0574625506
 20
8.9202544947
 30
0.0
 10
24.2773249658
 20
8.7262708534
 30
0.0
 10
24.4729018936
 20
8.5921278811
 30
0.0
 10
24.5940755372
 20
8.5232546762
 30
0.0
 10
24.6310558492
 20
8.5034420299
 30
0.0
 11
23.8678314474
 21
9.1442699074
 31
0.0
 11
24.0621143881
 21
8.9242072741
 31
0.0
 11
24.2809686168
 21
8.730956733
 31
0.0
 11
24.521655026
 21
8.5656436688
 31
0.0
 11
24.6310558492
 21
8.5034420299
 31
0.0
  0
SPLINE
  5
481
100
AcDbEntity
  8
0
100
AcDbSpline
 62
253
  6
CONTINUOUS
 70
0
 71
3
 72
9
 73
5
 74
3
 42
0.0000001
 43
0.0000001
 44
0.0000000001
 12
0.9378824447
 22
0.0052162297
 32
0.0
 13
0.8887384067
 23
0.300771992
 33
0.0
 40
0.0
 40
0.0
 40
0.0
 40
0.0
 40
0.7729895004
 40
1.0
 40
1.0
 40
1.0
 40
1.0
 10
25.9494928274
 20
7.8295199382
 30
0.0
 10
26.1911505882
 20
7.8308639684
 30
0.0
 10
26.5054861829
 20
7.8703315983
 30
0.0
 10
26.8056174732
 20
7.9593614364
 30
0.0
 10
26.8728684564
 20
7.9821209031
 30
0.0
 11
25.9494928274
 21
7.8295199382
 31
0.0
 11
26.6686195636
 21
7.9214941476
 31
0.0
 11
26.8728684564
 21
7.9821209031
 31
0.0
  0
SPLINE
  5
482
100
AcDbEntity
  8
0
100
AcDbSpline
 62
253
  6
CONTINUOUS
 70
0
 71
3
 72
12
 73
8
 74
6
 42
0.0000001
 43
0.0000001
 44
0.0000000001
 12
-0.1768726109
 22
0.1492809993
 32
0.0
 13
-0.2227418853
 23
-0.0628871193
 33
0.0
 40
0.0
 40
0.0
 40
0.0
 40
0.0
 40
0.2828271836
 40
0.5360207565
 40
0.7689716617
 40
0.8834058943
 40
1.0
 40
1.0
 40
1.0
 40
1.0
 10
28.2923671211
 20
9.1461364709
 30
0.0
 10
28.275692327
 20
9.1602100458
 30
0.0
 10
28.2423942689
 20
9.1850395887
 30
0.0
 10
28.1888370886
 20
9.2115398176
 30
0.0
 10
28.1427540198
 20
9.2210364237
 30
0.0
 10
28.1068437407
 20
9.2197514477
 30
0.0
 10
28.0892760121
 20
9.2162391546
 30
0.0
 10
28.0806192151
 20
9.2137950654
 30
0.0
 11
28.2923671211
 21
9.1461364709
 31
0.0
 11
28.2394301446
 21
9.1846423788
 31
0.0
 11
28.1864931681
 21
9.2097781456
 31
0.0
 11
28.1335561916
 21
9.2200077237
 31
0.0
 11
28.1070877033
 21
9.2190526771
 31
0.0
 11
28.0806192151
 21
9.2137950654
 31
0.0
  0
SPLINE
  5
483
100
AcDbEntity
  8
0
100
AcDbSpline
 62
253
  6
CONTINUOUS
 70
0
 71
3
 72
11
 73
7
 74
5
 42
0.0000001
 43
0.0000001
 44
0.0000000001
 12
-0.1800045845
 22
0.132743652
 32
0.0
 13
-0.2150997217
 23
-0.0612750954
 33
0.0
 40
0.0
 40
0.0
 40
0.0
 40
0.0
 40
0.2763151829
 40
0.5281357834
 40
0.764257861
 40
1.0
 40
1.0
 40
1.0
 40
1.0
 10
28.347049523
 20
9.2372949958
 30
0.0
 10
28.3304701898
 20
9.2495213579
 30
0.0
 10
28.2972669186
 20
9.270998103
 30
0.0
 10
28.2443131597
 20
9.2931025313
 30
0.0
 10
28.1904010497
 20
9.3015806191
 30
0.0
 10
28.1549501552
 20
9.2967441169
 30
0.0
 10
28.1380474657
 20
9.2919290763
 30
0.0
 11
28.347049523
 21
9.2372949958
 31
0.0
 11
28.2947990087
 21
9.2702966283
 31
0.0
 11
28.2425484944
 21
9.2913202591
 31
0.0
 11
28.1902979801
 21
9.2989897783
 31
0.0
 11
28.1380474657
 21
9.2919290763
 31
0.0
  0
SPLINE
  5
484
100
AcDbEntity
  8
0
100
AcDbSpline
 62
253
  6
CONTINUOUS
 70
0
 71
3
 72
9
 73
5
 74
3
 42
0.0000001
 43
0.0000001
 44
0.0000000001
 12
0.2248311725
 22
0.2280772976
 32
0.0
 13
0.2874152985
 23
0.1405194277
 33
0.0
 40
0.0
 40
0.0
 40
0.0
 40
0.0
 40
0.3631916636
 40
1.0
 40
1.0
 40
1.0
 40
1.0
 10
28.22590784
 20
9.3951301547
 30
0.0
 10
28.2531267759
 20
9.4227420791
 30
0.0
 10
28.3328526786
 20
9.4941694544
 30
0.0
 10
28.4237759012
 20
9.5510487044
 30
0.0
 10
28.4847853872
 20
9.5808766854
 30
0.0
 11
28.22590784
 21
9.3951301547
 31
0.0
 11
28.3125153605
 21
9.4727067168
 31
0.0
 11
28.4847853872
 21
9.5808766854
 31
0.0
  0
SPLINE
  5
485
100
AcDbEntity
  8
0
100
AcDbSpline
 62
253
  6
CONTINUOUS
 70
0
 71
3
 72
11
 73
7
 74
5
 42
0.0000001
 43
0.0000001
 44
0.0000000001
 12
0.3149939164
 22
0.1881208591
 32
0.0
 13
0.2219322407
 23
0.2919725978
 33
0.0
 40
0.0
 40
0.0
 40
0.0
 40
0.0
 40
0.0855406352
 40
0.3939970763
 40
0.6985776399
 40
1.0
 40
1.0
 40
1.0
 40
1.0
 10
23.4750575196
 20
10.0300250517
 30
0.0
 10
23.4840391128
 20
10.0353890443
 30
0.0
 10
23.5250144848
 20
10.0607531746
 30
0.0
 10
23.5942838958
 20
10.1110529193
 30
0.0
 10
23.67657653
 20
10.1870751267
 30
0.0
 10
23.7249027919
 20
10.2434861847
 30
0.0
 10
23.7472012385
 20
10.2728218746
 30
0.0
 11
23.4750575196
 21
10.0300250517
 31
0.0
 11
23.5017415113
 21
10.0465442878
 31
0.0
 11
23.5932454226
 21
10.1130594718
 31
0.0
 11
23.6752924614
 21
10.1888614165
 31
0.0
 11
23.7472012385
 21
10.2728218746
 31
0.0
  0
SPLINE
  5
486
100
AcDbEntity
  8
RACCORDO
100
AcDbSpline
 62
253
  6
CONTINUOUS
 70
0
 71
3
 72
10
 73
6
 74
4
 42
0.0000001
 43
0.0000001
 44
0.0000000001
 12
5.7458095656
 22
-5.7453163885
 32
0.0
 13
5.7449941064
 23
-5.746131802
 33
0.0
 40
0.0
 40
0.0
 40
0.0
 40
0.0
 40
0.3333105501
 40
0.6666441543
 40
1.0
 40
1.0
 40
1.0
 40
1.0
 10
28.5167110851
 20
17.9322680454
 30
0.0
 10
29.1550907341
 20
17.29394319
 30
0.0
 10
30.4318639801
 20
16.0172191185
 30
0.0
 10
32.3469979138
 20
14.1019777309
 30
0.0
 10
33.6237370999
 20
12.825046107
 30
0.0
 10
34.2621128895
 20
12.1865438982
 30
0.0
 11
28.5167110851
 21
17.9322680454
 31
0.0
 11
30.4318047263
 21
16.0172481706
 31
0.0
 11
32.3469402186
 21
14.1020052306
 31
0.0
 11
34.2621128895
 21
12.1865438982
 31
0.0
  0
SPLINE
  5
487
100
AcDbEntity
  8
RACCORDO
100
AcDbSpline
 62
253
  6
CONTINUOUS
 70
0
 71
3
 72
10
 73
6
 74
4
 42
0.0000001
 43
0.0000001
 44
0.0000000001
 12
5.7449941064
 22
5.746131802
 32
0.0
 13
5.7458095656
 23
5.7453163885
 33
0.0
 40
0.0
 40
0.0
 40
0.0
 40
0.0
 40
0.3333560619
 40
0.666689666
 40
1.0
 40
1.0
 40
1.0
 40
1.0
 10
17.6368727654
 20
12.1865438982
 30
0.0
 10
18.275248969
 20
12.8250465211
 30
0.0
 10
19.5519885689
 20
14.1019785588
 30
0.0
 10
21.4671225027
 20
16.0172199463
 30
0.0
 10
22.7438953346
 20
17.2939436039
 30
0.0
 10
23.3822745698
 20
17.9322680454
 30
0.0
 11
17.6368727654
 21
12.1865438982
 31
0.0
 11
19.5520466782
 21
14.1020064727
 31
0.0
 11
21.4671821701
 21
16.0172494122
 31
0.0
 11
23.3822745698
 21
17.9322680454
 31
0.0
  0
SPLINE
  5
488
100
AcDbEntity
  8
RACCORDO
100
AcDbSpline
 62
253
  6
CONTINUOUS
 70
0
 71
3
 72
10
 73
6
 74
4
 42
0.0000001
 43
0.0000001
 44
0.0000000001
 12
-5.7458095656
 22
5.7453163885
 32
0.0
 13
-5.7449941064
 23
5.746131802
 33
0.0
 40
0.0
 40
0.0
 40
0.0
 40
0.0
 40
0.3333105501
 40
0.6666441543
 40
1.0
 40
1.0
 40
1.0
 40
1.0
 10
23.3822745698
 20
-17.9588033884
 30
0.0
 10
22.7438949208
 20
-17.3204785331
 30
0.0
 10
21.4671216748
 20
-16.0437544615
 30
0.0
 10
19.5519877411
 20
-14.1285130739
 30
0.0
 10
18.275248555
 20
-12.85158145
 30
0.0
 10
17.6368727654
 20
-12.2130792412
 30
0.0
 11
23.3822745698
 21
-17.9588033884
 31
0.0
 11
21.4671809286
 21
-16.0437835137
 31
0.0
 11
19.5520454362
 21
-14.1285405736
 31
0.0
 11
17.6368727654
 21
-12.2130792412
 31
0.0
  0
SPLINE
  5
489
100
AcDbEntity
  8
RACCORDO
100
AcDbSpline
 62
253
  6
CONTINUOUS
 70
0
 71
3
 72
10
 73
6
 74
4
 42
0.0000001
 43
0.0000001
 44
0.0000000001
 12
-0.0053217343
 22
17.4525605441
 32
0.0
 13
0.0053217333
 23
17.4525605441
 33
0.0
 40
0.0
 40
0.0
 40
0.0
 40
0.0
 40
0.3354634115
 40
0.6688021297
 40
1.0
 40
1.0
 40
1.0
 40
1.0
 10
16.6005877494
 20
-8.7395482291
 30
0.0
 10
16.599992667
 20
-6.7879830624
 30
0.0
 10
16.5992043697
 20
-2.8972130417
 30
0.0
 10
16.5992119346
 20
2.9203074462
 30
0.0
 10
16.6000002338
 20
6.7862625917
 30
0.0
 10
16.6005877494
 20
8.713012886
 30
0.0
 11
16.6005877494
 21
-8.7395482291
 31
0.0
 11
16.5994014668
 21
-2.8848525769
 31
0.0
 11
16.5994090325
 21
2.9327618545
 31
0.0
 11
16.6005877494
 21
8.713012886
 31
0.0
  0
SPLINE
  5
48A
100
AcDbEntity
  8
RACCORDO
100
AcDbSpline
 62
253
  6
CONTINUOUS
 70
0
 71
3
 72
10
 73
6
 74
4
 42
0.0000001
 43
0.0000001
 44
0.0000000001
 12
5.7449877051
 22
5.7415284991
 32
0.0
 13
5.7458025108
 23
5.7407130868
 33
0.0
 40
0.0
 40
0.0
 40
0.0
 40
0.0
 40
0.3333564279
 40
0.6666904649
 40
1.0
 40
1.0
 40
1.0
 40
1.0
 10
17.9196723996
 20
11.8939844148
 30
0.0
 10
18.5580485928
 20
12.5319762252
 30
0.0
 10
19.8347882759
 20
13.8078868005
 30
0.0
 10
21.7499199671
 20
15.7215937539
 30
0.0
 10
23.0266905545
 20
16.9972937899
 30
0.0
 10
23.6650674757
 20
17.63510526
 30
0.0
 11
17.9196723996
 21
11.8939844148
 31
0.0
 11
19.8348462451
 21
13.807914552
 31
0.0
 11
21.7499819814
 21
15.7216255414
 31
0.0
 11
23.6650674757
 21
17.63510526
 31
0.0
  0
SPLINE
  5
48B
100
AcDbEntity
  8
0
100
AcDbSpline
 62
253
  6
CONTINUOUS
 70
0
 71
3
 72
13
 73
9
 74
7
 42
0.0000001
 43
0.0000001
 44
0.0000000001
 12
0.1577378029
 22
-0.9435858985
 32
0.0
 13
0.0003490202
 23
-0.9566793822
 33
0.0
 40
0.0
 40
0.0
 40
0.0
 40
0.0
 40
0.0448208408
 40
0.1498261432
 40
0.3086281187
 40
0.5117190361
 40
0.7469352638
 40
1.0
 40
1.0
 40
1.0
 40
1.0
 10
15.4406947107
 20
21.9616394657
 30
0.0
 10
15.4430513577
 20
21.9475420279
 30
0.0
 10
15.4422632628
 20
21.8994572053
 30
0.0
 10
15.445801167
 20
21.8013172084
 30
0.0
 10
15.4464020073
 20
21.6523009503
 30
0.0
 10
15.4479917451
 20
21.461942482
 30
0.0
 10
15.4486775738
 20
21.2414522129
 30
0.0
 10
15.4489283233
 20
21.0857471646
 30
0.0
 10
15.4489577649
 20
21.0050465594
 30
0.0
 11
15.4406947107
 21
21.9616394657
 31
0.0
 11
15.4428040683
 21
21.9188122029
 31
0.0
 11
15.4447591425
 21
21.8183748148
 31
0.0
 11
15.446440864
 21
21.6664615373
 31
0.0
 11
15.4477490249
 21
21.4721730348
 31
0.0
 11
15.448605656
 21
21.2471481349
 31
0.0
 11
15.4489577649
 21
21.0050465594
 31
0.0
  0
SPLINE
  5
48C
100
AcDbEntity
  8
0
100
AcDbSpline
 62
253
  6
CONTINUOUS
 70
0
 71
3
 72
13
 73
9
 74
7
 42
0.0000001
 43
0.0000001
 44
0.0000000001
 12
0.151828344
 22
-0.4537411951
 32
0.0
 13
0.000349885
 23
-0.4784692214
 33
0.0
 40
0.0
 40
0.0
 40
0.0
 40
0.0
 40
0.0448720941
 40
0.1499620513
 40
0.3088769427
 40
0.5121305404
 40
0.7475203519
 40
1.0
 40
1.0
 40
1.0
 40
1.0
 10
14.9407708632
 20
21.4623246983
 30
0.0
 10
14.9430418151
 20
21.4555379258
 30
0.0
 10
14.9424283796
 20
21.431052663
 30
0.0
 10
14.94582634
 20
21.3823122045
 30
0.0
 10
14.9464996756
 20
21.3075562955
 30
0.0
 10
14.9480626983
 20
21.2123558066
 30
0.0
 10
14.948756695
 20
21.1020981702
 30
0.0
 10
14.949004471
 20
21.0242961587
 30
0.0
 10
14.9490339173
 20
20.9840282452
 30
0.0
 11
14.9407708632
 21
21.4623246983
 31
0.0
 11
14.9428773387
 21
21.4409583627
 31
0.0
 11
14.9448342961
 21
21.3907141355
 31
0.0
 11
14.94651769
 21
21.3146968678
 31
0.0
 11
14.9478268646
 21
21.2174550635
 31
0.0
 11
14.94868317
 21
21.1048315089
 31
0.0
 11
14.9490339173
 21
20.9840282452
 31
0.0
  0
SPLINE
  5
48D
100
AcDbEntity
  8
0
100
AcDbSpline
 62
253
  6
CONTINUOUS
 70
0
 71
3
 72
10
 73
6
 74
4
 42
0.0000001
 43
0.0000001
 44
0.0000000001
 12
0.0308408131
 22
-41.9945838615
 32
0.0
 13
-0.0308408106
 23
-41.9945838615
 33
0.0
 40
0.0
 40
0.0
 40
0.0
 40
0.0
 40
0.3332892101
 40
0.6667109287
 40
1.0
 40
1.0
 40
1.0
 40
1.0
 10
14.9490339173
 20
20.9840282452
 30
0.0
 10
14.9524602207
 20
16.3185810178
 30
0.0
 10
14.957026264
 20
6.9858298343
 30
0.0
 10
14.9570262629
 20
-7.0123690632
 30
0.0
 10
14.952460219
 20
-16.3451183037
 30
0.0
 10
14.9490339173
 20
-21.0105635882
 30
0.0
 11
14.9490339173
 21
20.9840282452
 31
0.0
 11
14.9558842992
 21
6.987684465
 31
0.0
 11
14.9558842978
 21
-7.0142256369
 31
0.0
 11
14.9490339173
 21
-21.0105635882
 31
0.0
  0
SPLINE
  5
48E
100
AcDbEntity
  8
0
100
AcDbSpline
 62
253
  6
CONTINUOUS
 70
0
 71
3
 72
12
 73
8
 74
6
 42
0.0000001
 43
0.0000001
 44
0.0000000001
 12
-0.5010580609
 22
-0.0003673192
 32
0.0
 13
-0.1919553163
 23
-0.4628309323
 33
0.0
 40
0.0
 40
0.0
 40
0.0
 40
0.0
 40
0.3050607102
 40
0.5809725745
 40
0.8013959844
 40
0.9453902239
 40
1.0
 40
1.0
 40
1.0
 40
1.0
 10
15.4489577649
 20
21.0050465589
 30
0.0
 10
15.3980067223
 20
21.0050092074
 30
0.0
 10
15.3004713742
 20
21.0047600013
 30
0.0
 10
15.168586822
 20
21.0003179356
 30
0.0
 10
15.0566905214
 20
21.0005027308
 30
0.0
 10
14.9967031505
 20
20.98723713
 30
0.0
 10
14.9525281296
 20
20.9924532764
 30
0.0
 10
14.9490339173
 20
20.9840282452
 30
0.0
 11
15.4489577649
 21
21.0050465589
 31
0.0
 11
15.2961086863
 21
21.003928327
 31
0.0
 11
15.1578938523
 21
21.0009047977
 31
0.0
 11
15.0475463792
 21
20.9962654549
 31
0.0
 11
14.975631276
 21
20.9904544839
 31
0.0
 11
14.9490339173
 21
20.9840282452
 31
0.0
  0
SPLINE
  5
48F
100
AcDbEntity
  8
0
100
AcDbSpline
 62
253
  6
CONTINUOUS
 70
0
 71
3
 72
13
 73
9
 74
7
 42
0.0000001
 43
0.0000001
 44
0.0000000001
 12
-0.00034902
 22
-0.9566793822
 32
0.0
 13
-0.1577378176
 23
-0.943585896
 33
0.0
 40
0.0
 40
0.0
 40
0.0
 40
0.0
 40
0.2530647362
 40
0.4882809639
 40
0.6913718813
 40
0.8501738568
 40
0.9551791592
 40
1.0
 40
1.0
 40
1.0
 40
1.0
 10
15.4489577649
 20
-21.0315819024
 30
0.0
 10
15.4489283234
 20
-21.1122825076
 30
0.0
 10
15.4486775737
 20
-21.2679875559
 30
0.0
 10
15.4479917451
 20
-21.488477825
 30
0.0
 10
15.4464020072
 20
-21.6788362934
 30
0.0
 10
15.4458011672
 20
-21.8278525515
 30
0.0
 10
15.4422632625
 20
-21.9259925483
 30
0.0
 10
15.4430513579
 20
-21.974077371
 30
0.0
 10
15.4406947107
 20
-21.9881748087
 30
0.0
 11
15.4489577649
 21
-21.0315819024
 31
0.0
 11
15.448605656
 21
-21.273683478
 31
0.0
 11
15.4477490249
 21
-21.4987083779
 31
0.0
 11
15.446440864
 21
-21.6929968803
 31
0.0
 11
15.4447591425
 21
-21.8449101579
 31
0.0
 11
15.4428040683
 21
-21.9453475459
 31
0.0
 11
15.4406947107
 21
-21.9881748087
 31
0.0
  0
SPLINE
  5
490
100
AcDbEntity
  8
0
100
AcDbSpline
 62
253
  6
CONTINUOUS
 70
0
 71
3
 72
13
 73
9
 74
7
 42
0.0000001
 43
0.0000001
 44
0.0000000001
 12
-0.0003498847
 22
-0.4784692214
 32
0.0
 13
-0.1518282341
 23
-0.4537412319
 33
0.0
 40
0.0
 40
0.0
 40
0.0
 40
0.0
 40
0.252479648
 40
0.4878694598
 40
0.6911230573
 40
0.8500379483
 40
0.9551279064
 40
1.0
 40
1.0
 40
1.0
 40
1.0
 10
14.9490339173
 20
-21.0105635882
 30
0.0
 10
14.9490044711
 20
-21.0508315017
 30
0.0
 10
14.948756695
 20
-21.1286335133
 30
0.0
 10
14.9480626981
 20
-21.2388911496
 30
0.0
 10
14.946499676
 20
-21.3340916386
 30
0.0
 10
14.9458263389
 20
-21.4088475472
 30
0.0
 10
14.9424283815
 20
-21.4575880066
 30
0.0
 10
14.9430418134
 20
-21.4820732683
 30
0.0
 10
14.9407708632
 20
-21.4888600413
 30
0.0
 11
14.9490339173
 21
-21.0105635882
 31
0.0
 11
14.94868317
 21
-21.1313668519
 31
0.0
 11
14.9478268646
 21
-21.2439904067
 31
0.0
 11
14.94651769
 21
-21.3412322109
 31
0.0
 11
14.9448342961
 21
-21.4172494783
 31
0.0
 11
14.9428773387
 21
-21.467493706
 31
0.0
 11
14.9407708632
 21
-21.4888600413
 31
0.0
  0
SPLINE
  5
491
100
AcDbEntity
  8
0
100
AcDbSpline
 62
253
  6
CONTINUOUS
 70
0
 71
3
 72
12
 73
8
 74
6
 42
0.0000001
 43
0.0000001
 44
0.0000000001
 12
-0.5010578743
 22
0.0003674018
 32
0.0
 13
-0.192189826
 23
0.4627333997
 33
0.0
 40
0.0
 40
0.0
 40
0.0
 40
0.0
 40
0.305056261
 40
0.5809650378
 40
0.8013878226
 40
0.9453845855
 40
1.0
 40
1.0
 40
1.0
 40
1.0
 10
15.4489577649
 20
-21.0315809593
 30
0.0
 10
15.3980074843
 20
-21.0315435998
 30
0.0
 10
15.3004738626
 20
-21.0312942891
 30
0.0
 10
15.1685890605
 20
-21.0268527995
 30
0.0
 10
15.0566972272
 20
-21.0270366345
 30
0.0
 10
14.9967005914
 20
-21.0137731745
 30
0.0
 10
14.9525327598
 20
-21.0189877137
 30
0.0
 10
14.9490339175
 20
-21.0105635882
 30
0.0
 11
15.4489577649
 21
-21.0315809593
 31
0.0
 11
15.2961109723
 21
-21.0304627592
 31
0.0
 11
15.1578977341
 21
-21.0274393672
 31
0.0
 11
15.0475506063
 21
-21.0228002464
 31
0.0
 11
14.9756342395
 21
-21.0169895477
 31
0.0
 11
14.9490339175
 21
-21.0105635882
 31
0.0
  0
SPLINE
  5
492
100
AcDbEntity
  8
0
100
AcDbSpline
 62
253
  6
CONTINUOUS
 70
0
 71
3
 72
13
 73
9
 74
7
 42
0.0000001
 43
0.0000001
 44
0.0000000001
 12
-0.1517233705
 22
-0.4537763541
 32
0.0
 13
-0.0003487208
 23
-0.4784692666
 33
0.0
 40
0.0
 40
0.0
 40
0.0
 40
0.0
 40
0.0447511791
 40
0.149661763
 40
0.308406925
 40
0.5114254892
 40
0.746790415
 40
1.0
 40
1.0
 40
1.0
 40
1.0
 10
36.9582147917
 20
21.4623246983
 30
0.0
 10
36.9559515252
 20
21.4555556893
 30
0.0
 10
36.9565554904
 20
21.4311211344
 30
0.0
 10
36.9531654601
 20
21.3824537687
 30
0.0
 10
36.9524890279
 20
21.3077918254
 30
0.0
 10
36.9509261485
 20
21.212659592
 30
0.0
 10
36.9502298623
 20
21.1023270356
 30
0.0
 10
36.9499811707
 20
21.02441258
 30
0.0
 10
36.9499517376
 20
20.9840282452
 30
0.0
 11
36.9582147917
 21
21.4623246983
 31
0.0
 11
36.9561116262
 21
21.4410161691
 31
0.0
 11
36.9541555663
 21
21.390857792
 31
0.0
 11
36.95247185
 21
21.3149217547
 31
0.0
 11
36.9511622313
 21
21.217792414
 31
0.0
 11
36.9503042675
 21
21.1051807689
 31
0.0
 11
36.9499517376
 21
20.9840282452
 31
0.0
  0
SPLINE
  5
493
100
AcDbEntity
  8
0
100
AcDbSpline
 62
253
  6
CONTINUOUS
 70
0
 71
3
 72
13
 73
9
 74
7
 42
0.0000001
 43
0.0000001
 44
0.0000000001
 12
-0.1577707702
 22
-0.943580375
 32
0.0
 13
-0.000344911
 23
-0.9566793721
 33
0.0
 40
0.0
 40
0.0
 40
0.0
 40
0.0
 40
0.0448247981
 40
0.1498254833
 40
0.3086663044
 40
0.5117002731
 40
0.746968974
 40
1.0
 40
1.0
 40
1.0
 40
1.0
 10
36.4582909442
 20
21.9616394657
 30
0.0
 10
36.4559335965
 20
21.9475408658
 30
0.0
 10
36.4567231959
 20
21.8994560527
 30
0.0
 10
36.4531844059
 20
21.8013040441
 30
0.0
 10
36.4525839342
 20
21.6522949463
 30
0.0
 10
36.4509940801
 20
21.4619255408
 30
0.0
 10
36.4503080759
 20
21.2414474417
 30
0.0
 10
36.450056981
 20
21.0857364138
 30
0.0
 10
36.45002789
 20
21.0050465594
 30
0.0
 11
36.4582909442
 21
21.9616394657
 31
0.0
 11
36.4561816348
 21
21.9188084106
 31
0.0
 11
36.4542270052
 21
21.8183754332
 31
0.0
 11
36.4525448169
 21
21.6664249974
 31
0.0
 11
36.4512369813
 21
21.4721909781
 31
0.0
 11
36.4503798928
 21
21.2471158823
 31
0.0
 11
36.45002789
 21
21.0050465594
 31
0.0
  0
SPLINE
  5
494
100
AcDbEntity
  8
0
100
AcDbSpline
 62
253
  6
CONTINUOUS
 70
0
 71
3
 72
10
 73
6
 74
4
 42
0.0000001
 43
0.0000001
 44
0.0000000001
 12
-0.0308407996
 22
-41.9945838615
 32
0.0
 13
0.0308408117
 23
-41.9945838615
 33
0.0
 40
0.0
 40
0.0
 40
0.0
 40
0.0
 40
0.3332886949
 40
0.6667106342
 40
1.0
 40
1.0
 40
1.0
 40
1.0
 10
36.9499517376
 20
20.9840282452
 30
0.0
 10
36.9465254409
 20
16.3185882295
 30
0.0
 10
36.9419593934
 20
6.985841169
 30
0.0
 10
36.9419593882
 20
-7.0123577285
 30
0.0
 10
36.9465254327
 20
-16.3451141808
 30
0.0
 10
36.9499517376
 20
-21.0105635882
 30
0.0
 11
36.9499517376
 21
20.9840282452
 31
0.0
 11
36.9431013607
 21
6.9877061003
 31
0.0
 11
36.9431013542
 21
-7.014213268
 31
0.0
 11
36.9499517376
 21
-21.0105635882
 31
0.0
  0
SPLINE
  5
495
100
AcDbEntity
  8
0
100
AcDbSpline
 62
253
  6
CONTINUOUS
 70
0
 71
3
 72
12
 73
8
 74
6
 42
0.0000001
 43
0.0000001
 44
0.0000000001
 12
-0.1919554566
 22
0.4628308739
 32
0.0
 13
-0.5010580608
 23
0.0003673235
 33
0.0
 40
0.0
 40
0.0
 40
0.0
 40
0.0
 40
0.0546097796
 40
0.1986040208
 40
0.4190274305
 40
0.6949392928
 40
1.0
 40
1.0
 40
1.0
 40
1.0
 10
36.9499517376
 20
20.9840282452
 30
0.0
 10
36.9464575225
 20
20.9924532758
 30
0.0
 10
36.9022825059
 20
20.9872371305
 30
0.0
 10
36.8422951293
 20
21.0005027298
 30
0.0
 10
36.7303988313
 20
21.000317935
 30
0.0
 10
36.598514279
 20
21.0047599998
 30
0.0
 10
36.5009789321
 20
21.0050092066
 30
0.0
 10
36.45002789
 20
21.0050465586
 30
0.0
 11
36.9499517376
 21
20.9840282452
 31
0.0
 11
36.9233543771
 21
20.9904544838
 31
0.0
 11
36.851439273
 21
20.9962654545
 31
0.0
 11
36.7410918
 21
21.0009047969
 31
0.0
 11
36.602876967
 21
21.0039283259
 31
0.0
 11
36.45002789
 21
21.0050465586
 31
0.0
  0
SPLINE
  5
496
100
AcDbEntity
  8
0
100
AcDbSpline
 62
253
  6
CONTINUOUS
 70
0
 71
3
 72
13
 73
9
 74
7
 42
0.0000001
 43
0.0000001
 44
0.0000000001
 12
0.0003487206
 22
-0.4784692666
 32
0.0
 13
0.1517232156
 23
-0.4537764059
 33
0.0
 40
0.0
 40
0.0
 40
0.0
 40
0.0
 40
0.2532095848
 40
0.488574511
 40
0.6915930751
 40
0.8503382364
 40
0.9552488215
 40
1.0
 40
1.0
 40
1.0
 40
1.0
 10
36.9499517376
 20
-21.0105635882
 30
0.0
 10
36.9499811707
 20
-21.050947923
 30
0.0
 10
36.9502298622
 20
-21.1288623787
 30
0.0
 10
36.9509261487
 20
-21.239194935
 30
0.0
 10
36.9524890273
 20
-21.3343271685
 30
0.0
 10
36.9531654616
 20
-21.4089891113
 30
0.0
 10
36.9565554877
 20
-21.4576564783
 30
0.0
 10
36.9559515275
 20
-21.4820910317
 30
0.0
 10
36.9582147917
 20
-21.4888600413
 30
0.0
 11
36.9499517376
 21
-21.0105635882
 31
0.0
 11
36.9503042675
 21
-21.1317161118
 31
0.0
 11
36.9511622313
 21
-21.2443277571
 31
0.0
 11
36.95247185
 21
-21.3414570978
 31
0.0
 11
36.9541555663
 21
-21.4173931348
 31
0.0
 11
36.9561116262
 21
-21.4675515125
 31
0.0
 11
36.9582147917
 21
-21.4888600413
 31
0.0
  0
SPLINE
  5
497
100
AcDbEntity
  8
0
100
AcDbSpline
 62
253
  6
CONTINUOUS
 70
0
 71
3
 72
13
 73
9
 74
7
 42
0.0000001
 43
0.0000001
 44
0.0000000001
 12
0.0003449115
 22
-0.9566793721
 32
0.0
 13
0.1577707732
 23
-0.9435803745
 33
0.0
 40
0.0
 40
0.0
 40
0.0
 40
0.0
 40
0.253031026
 40
0.4882997269
 40
0.6913336956
 40
0.8501745167
 40
0.9551752019
 40
1.0
 40
1.0
 40
1.0
 40
1.0
 10
36.45002789
 20
-21.0315819024
 30
0.0
 10
36.4500569811
 20
-21.1122717568
 30
0.0
 10
36.450308076
 20
-21.2679827847
 30
0.0
 10
36.45099408
 20
-21.4884608838
 30
0.0
 10
36.4525839342
 20
-21.6788302893
 30
0.0
 10
36.4531844059
 20
-21.8278393871
 30
0.0
 10
36.4567231959
 20
-21.9259913958
 30
0.0
 10
36.4559335965
 20
-21.9740762088
 30
0.0
 10
36.4582909442
 20
-21.9881748087
 30
0.0
 11
36.45002789
 21
-21.0315819024
 31
0.0
 11
36.4503798929
 21
-21.2736512253
 31
0.0
 11
36.4512369813
 21
-21.4987263212
 31
0.0
 11
36.4525448169
 21
-21.6929603404
 31
0.0
 11
36.4542270052
 21
-21.8449107762
 31
0.0
 11
36.4561816348
 21
-21.9453437536
 31
0.0
 11
36.4582909442
 21
-21.9881748087
 31
0.0
  0
SPLINE
  5
498
100
AcDbEntity
  8
0
100
AcDbSpline
 62
253
  6
CONTINUOUS
 70
0
 71
3
 72
12
 73
8
 74
6
 42
0.0000001
 43
0.0000001
 44
0.0000000001
 12
-0.1920144796
 22
-0.4628063375
 32
0.0
 13
-0.501058012
 23
-0.0003673725
 33
0.0
 40
0.0
 40
0.0
 40
0.0
 40
0.0
 40
0.0546111894
 40
0.198606063
 40
0.419029317
 40
0.6949404067
 40
1.0
 40
1.0
 40
1.0
 40
1.0
 10
36.9499517375
 20
-21.0105635882
 30
0.0
 10
36.9464563578
 20
-21.0189883897
 30
0.0
 10
36.9022831502
 20
-21.013772635
 30
0.0
 10
36.8422934463
 20
-21.027037702
 30
0.0
 10
36.730398271
 20
-21.026853145
 30
0.0
 10
36.598513655
 20
-21.0312950712
 30
0.0
 10
36.5009787411
 20
-21.0315443087
 30
0.0
 10
36.45002789
 20
-21.0315816655
 30
0.0
 11
36.9499517375
 21
-21.0105635882
 31
0.0
 11
36.9233536343
 21
-21.0169897491
 31
0.0
 11
36.8514382135
 21
-21.0228006476
 31
0.0
 11
36.7410908271
 21
-21.0274399345
 31
0.0
 11
36.602876394
 21
-21.0304634333
 31
0.0
 11
36.45002789
 21
-21.0315816655
 31
0.0
  0
SPLINE
  5
499
100
AcDbEntity
  8
RACCORDO
100
AcDbSpline
 62
253
  6
CONTINUOUS
 70
0
 71
3
 72
10
 73
6
 74
4
 42
0.0000001
 43
0.0000001
 44
0.0000000001
 12
5.7457559039
 22
-5.7406665212
 32
0.0
 13
5.7449411048
 23
-5.7414819269
 33
0.0
 40
0.0
 40
0.0
 40
0.0
 40
0.0
 40
0.3333043629
 40
0.6666411037
 40
1.0
 40
1.0
 40
1.0
 40
1.0
 10
28.233964785
 20
17.6350586933
 30
0.0
 10
28.872326622
 20
16.9972622941
 30
0.0
 10
30.1490821251
 20
15.7215773293
 30
0.0
 10
32.0641982814
 20
13.8078858985
 30
0.0
 10
33.3409375133
 20
12.5319757743
 30
0.0
 10
33.9793132553
 20
11.8939844148
 30
0.0
 11
28.233964785
 21
17.6350586933
 31
0.0
 11
30.1490050275
 21
15.7216241884
 31
0.0
 11
32.0641407634
 21
13.8079131993
 31
0.0
 11
33.9793132553
 21
11.8939844148
 31
0.0
  0
SPLINE
  5
49A
100
AcDbEntity
  8
RACCORDO
100
AcDbSpline
 62
253
  6
CONTINUOUS
 70
0
 71
3
 72
10
 73
6
 74
4
 42
0.0000001
 43
0.0000001
 44
0.0000000001
 12
0.0053217343
 22
-17.4525605441
 32
0.0
 13
-0.0053217332
 23
-17.4525605441
 33
0.0
 40
0.0
 40
0.0
 40
0.0
 40
0.0
 40
0.3347332487
 40
0.6680719659
 40
1.0
 40
1.0
 40
1.0
 40
1.0
 10
35.2983979055
 20
8.713012886
 30
0.0
 10
35.2989916927
 20
6.7656954564
 30
0.0
 10
35.2997799948
 20
2.8791731789
 30
0.0
 10
35.2997750198
 20
-2.938347309
 30
0.0
 10
35.2989867163
 20
-6.8085501921
 30
0.0
 10
35.2983979055
 20
-8.7395482291
 30
0.0
 11
35.2983979055
 21
8.713012886
 31
0.0
 11
35.2995829068
 21
2.8710604458
 31
0.0
 11
35.2995779312
 21
-2.946553969
 31
0.0
 11
35.2983979055
 21
-8.7395482291
 31
0.0
  0
SPLINE
  5
49B
100
AcDbEntity
  8
RACCORDO
100
AcDbSpline
 62
253
  6
CONTINUOUS
 70
0
 71
3
 72
10
 73
6
 74
4
 42
0.0000001
 43
0.0000001
 44
0.0000000001
 12
-5.7449877051
 22
-5.7415284991
 32
0.0
 13
-5.7458025108
 23
-5.7407130868
 33
0.0
 40
0.0
 40
0.0
 40
0.0
 40
0.0
 40
0.3333564279
 40
0.6666904649
 40
1.0
 40
1.0
 40
1.0
 40
1.0
 10
33.9793132553
 20
-11.9205197578
 30
0.0
 10
33.3409370621
 20
-12.5585115683
 30
0.0
 10
32.064197379
 20
-13.8344221435
 30
0.0
 10
30.1490656878
 20
-15.748129097
 30
0.0
 10
28.8722951004
 20
-17.023829133
 30
0.0
 10
28.2339181792
 20
-17.661640603
 30
0.0
 11
33.9793132553
 21
-11.9205197578
 31
0.0
 11
32.0641394098
 21
-13.834449895
 31
0.0
 11
30.1490036734
 21
-15.7481608844
 31
0.0
 11
28.2339181792
 21
-17.661640603
 31
0.0
  0
SPLINE
  5
49C
100
AcDbEntity
  8
RACCORDO
100
AcDbSpline
 62
253
  6
CONTINUOUS
 70
0
 71
3
 72
10
 73
6
 74
4
 42
0.0000001
 43
0.0000001
 44
0.0000000001
 12
-5.7457559039
 22
5.7406665212
 32
0.0
 13
-5.7449411048
 23
5.7414819269
 33
0.0
 40
0.0
 40
0.0
 40
0.0
 40
0.0
 40
0.3333043629
 40
0.6666411037
 40
1.0
 40
1.0
 40
1.0
 40
1.0
 10
23.6650208699
 20
-17.6615940363
 30
0.0
 10
23.0266590329
 20
-17.0237976372
 30
0.0
 10
21.7499035298
 20
-15.7481126723
 30
0.0
 10
19.8347873734
 20
-13.8344212415
 30
0.0
 10
18.5580481416
 20
-12.5585111173
 30
0.0
 10
17.9196723996
 20
-11.9205197578
 30
0.0
 11
23.6650208699
 21
-17.6615940363
 31
0.0
 11
21.7499806274
 21
-15.7481595315
 31
0.0
 11
19.8348448914
 21
-13.8344485423
 31
0.0
 11
17.9196723996
 21
-11.9205197578
 31
0.0
  0
SPLINE
  5
49D
100
AcDbEntity
  8
RACCORDO
100
AcDbSpline
 62
253
  6
CONTINUOUS
 70
0
 71
3
 72
10
 73
6
 74
4
 42
0.0000001
 43
0.0000001
 44
0.0000000001
 12
-0.2877689291
 22
0.2877708895
 32
0.0
 13
-0.002302297
 23
0.4069615962
 33
0.0
 40
0.0
 40
0.0
 40
0.0
 40
0.0
 40
0.4935865496
 40
0.8595409056
 40
1.0
 40
1.0
 40
1.0
 40
1.0
 10
34.2621128895
 20
-12.2130792412
 30
0.0
 10
34.2147665986
 20
-12.1657326278
 30
0.0
 10
34.1249400542
 20
-12.085595074
 30
0.0
 10
34.0526368218
 20
-11.9806902754
 30
0.0
 10
33.9794210482
 20
-11.9395735769
 30
0.0
 10
33.9793132553
 20
-11.9205197578
 30
0.0
 11
34.2621128895
 21
-12.2130792412
 31
0.0
 11
34.1207291388
 21
-12.0703872909
 31
0.0
 11
34.017219747
 21
-11.9633056744
 31
0.0
 11
33.9793132553
 21
-11.9205197578
 31
0.0
  0
SPLINE
  5
49E
100
AcDbEntity
  8
RACCORDO
100
AcDbSpline
 62
253
  6
CONTINUOUS
 70
0
 71
3
 72
10
 73
6
 74
4
 42
0.0000001
 43
0.0000001
 44
0.0000000001
 12
-0.400219624
 22
0.0001192252
 32
0.0
 13
-0.2829765889
 23
0.2830194548
 33
0.0
 40
0.0
 40
0.0
 40
0.0
 40
0.0
 40
0.4948378653
 40
0.8600422476
 40
1.0
 40
1.0
 40
1.0
 40
1.0
 10
35.6983369728
 20
-8.7465343764
 30
0.0
 10
35.6323223647
 20
-8.7465147107
 30
0.0
 10
35.5140076683
 20
-8.7532576548
 30
0.0
 10
35.3909147016
 20
-8.7304885804
 30
0.0
 10
35.3114505122
 20
-8.7527517334
 30
0.0
 10
35.2982489231
 20
-8.7395481445
 30
0.0
 11
35.6983369728
 21
-8.7465343764
 31
0.0
 11
35.5002955407
 21
-8.7455591663
 31
0.0
 11
35.3541558521
 21
-8.7430072958
 31
0.0
 11
35.2982489231
 21
-8.7395481445
 31
0.0
  0
SPLINE
  5
49F
100
AcDbEntity
  8
RACCORDO
100
AcDbSpline
 62
253
  6
CONTINUOUS
 70
0
 71
3
 72
10
 73
6
 74
4
 42
0.0000001
 43
0.0000001
 44
0.0000000001
 12
-0.4000706825
 22
-0.0001219476
 32
0.0
 13
-0.2827378861
 23
-0.2830474406
 33
0.0
 40
0.0
 40
0.0
 40
0.0
 40
0.0
 40
0.4948724701
 40
0.8600596843
 40
1.0
 40
1.0
 40
1.0
 40
1.0
 10
35.6983369836
 20
8.7199994997
 30
0.0
 10
35.632342328
 20
8.7199793835
 30
0.0
 10
35.5140649107
 20
8.7267234703
 30
0.0
 10
35.3910295883
 20
8.7039514674
 30
0.0
 10
35.3115867152
 20
8.7262161354
 30
0.0
 10
35.2983979055
 20
8.713012886
 30
0.0
 11
35.6983369836
 21
8.7199994997
 31
0.0
 11
35.5003554141
 21
8.7190233302
 31
0.0
 11
35.3542769977
 21
8.7164714289
 31
0.0
 11
35.2983979055
 21
8.713012886
 31
0.0
  0
SPLINE
  5
4A0
100
AcDbEntity
  8
RACCORDO
100
AcDbSpline
 62
253
  6
CONTINUOUS
 70
0
 71
3
 72
10
 73
6
 74
4
 42
0.0000001
 43
0.0000001
 44
0.0000000001
 12
-0.2878754574
 22
-0.2878738497
 32
0.0
 13
-0.0023409527
 23
-0.4071095089
 33
0.0
 40
0.0
 40
0.0
 40
0.0
 40
0.0
 40
0.4935555602
 40
0.8595278849
 40
1.0
 40
1.0
 40
1.0
 40
1.0
 10
34.2621128813
 20
12.1865433196
 30
0.0
 10
34.2147520371
 20
12.1391827399
 30
0.0
 10
34.1248950053
 20
12.0590177976
 30
0.0
 10
34.0525626365
 20
11.9540745033
 30
0.0
 10
33.9793177471
 20
11.9129419239
 30
0.0
 10
33.9792081342
 20
11.8938794126
 30
0.0
 11
34.2621128813
 21
12.1865433196
 31
0.0
 11
34.1206857149
 21
12.0438092197
 31
0.0
 11
34.0171327673
 21
11.9366841362
 31
0.0
 11
33.9792081342
 21
11.8938794126
 31
0.0
  0
SPLINE
  5
4A1
100
AcDbEntity
  8
RACCORDO
100
AcDbSpline
 62
253
  6
CONTINUOUS
 70
0
 71
3
 72
10
 73
6
 74
4
 42
0.0000001
 43
0.0000001
 44
0.0000000001
 12
-0.2902311833
 22
-0.2901142886
 32
0.0
 13
0.0747415756
 23
-0.4035023384
 33
0.0
 40
0.0
 40
0.0
 40
0.0
 40
0.0
 40
0.492800262
 40
0.8590472194
 40
1.0
 40
1.0
 40
1.0
 40
1.0
 10
28.5167110851
 20
17.9322680454
 30
0.0
 10
28.4690357507
 20
17.8846119129
 30
0.0
 10
28.3768386943
 20
17.8030358786
 30
0.0
 10
28.3098507763
 20
17.6985703779
 30
0.0
 10
28.2303997733
 20
17.6540702415
 30
0.0
 10
28.2339114509
 20
17.6351119826
 30
0.0
 11
28.5167110851
 21
17.9322680454
 31
0.0
 11
28.3746595942
 21
17.7883313433
 31
0.0
 11
28.2710472181
 21
17.6794590448
 31
0.0
 11
28.2339114509
 21
17.6351119826
 31
0.0
  0
SPLINE
  5
4A2
100
AcDbEntity
  8
RACCORDO
100
AcDbSpline
 62
253
  6
CONTINUOUS
 70
0
 71
3
 72
10
 73
6
 74
4
 42
0.0000001
 43
0.0000001
 44
0.0000000001
 12
0.2902309802
 22
-0.2901141042
 32
0.0
 13
-0.0747417033
 23
-0.403502036
 33
0.0
 40
0.0
 40
0.0
 40
0.0
 40
0.0
 40
0.4928003282
 40
0.8590472506
 40
1.0
 40
1.0
 40
1.0
 40
1.0
 10
23.3822745698
 20
17.9322680469
 30
0.0
 10
23.4299498772
 20
17.8846119383
 30
0.0
 10
23.5221468788
 20
17.8030359518
 30
0.0
 10
23.5891347394
 20
17.6985705263
 30
0.0
 10
23.6685856922
 20
17.6540704177
 30
0.0
 10
23.6650740093
 20
17.6351121773
 30
0.0
 11
23.3822745698
 21
17.9322680469
 31
0.0
 11
23.5243259815
 21
17.7883314183
 31
0.0
 11
23.6279382773
 21
17.6794592019
 31
0.0
 11
23.6650740093
 21
17.6351121773
 31
0.0
  0
SPLINE
  5
4A3
100
AcDbEntity
  8
RACCORDO
100
AcDbSpline
 62
253
  6
CONTINUOUS
 70
0
 71
3
 72
10
 73
6
 74
4
 42
0.0000001
 43
0.0000001
 44
0.0000000001
 12
0.2877689291
 22
-0.2877708895
 32
0.0
 13
0.002302297
 23
-0.4069615962
 33
0.0
 40
0.0
 40
0.0
 40
0.0
 40
0.0
 40
0.4935865496
 40
0.8595409056
 40
1.0
 40
1.0
 40
1.0
 40
1.0
 10
17.6368727654
 20
12.1865438982
 30
0.0
 10
17.6842190563
 20
12.1391972847
 30
0.0
 10
17.7740456007
 20
12.0590597309
 30
0.0
 10
17.8463488331
 20
11.9541549324
 30
0.0
 10
17.9195646067
 20
11.9130382339
 30
0.0
 10
17.9196723996
 20
11.8939844148
 30
0.0
 11
17.6368727654
 21
12.1865438982
 31
0.0
 11
17.778256516
 21
12.0438519479
 31
0.0
 11
17.8817659079
 21
11.9367703314
 31
0.0
 11
17.9196723996
 21
11.8939844148
 31
0.0
  0
SPLINE
  5
4A4
100
AcDbEntity
  8
RACCORDO
100
AcDbSpline
 62
253
  6
CONTINUOUS
 70
0
 71
3
 72
10
 73
6
 74
4
 42
0.0000001
 43
0.0000001
 44
0.0000000001
 12
0.400219624
 22
-0.0001192252
 32
0.0
 13
0.2829765889
 23
-0.2830194548
 33
0.0
 40
0.0
 40
0.0
 40
0.0
 40
0.0
 40
0.4948378653
 40
0.8600422476
 40
1.0
 40
1.0
 40
1.0
 40
1.0
 10
16.2006486821
 20
8.7199990334
 30
0.0
 10
16.2666632902
 20
8.7199793677
 30
0.0
 10
16.3849779866
 20
8.7267223118
 30
0.0
 10
16.5080709533
 20
8.7039532373
 30
0.0
 10
16.5875351427
 20
8.7262163904
 30
0.0
 10
16.6007367318
 20
8.7130128015
 30
0.0
 11
16.2006486821
 21
8.7199990334
 31
0.0
 11
16.3986901142
 21
8.7190238232
 31
0.0
 11
16.5448298028
 21
8.7164719528
 31
0.0
 11
16.6007367318
 21
8.7130128015
 31
0.0
  0
SPLINE
  5
4A5
100
AcDbEntity
  8
RACCORDO
100
AcDbSpline
 62
253
  6
CONTINUOUS
 70
0
 71
3
 72
10
 73
6
 74
4
 42
0.0000001
 43
0.0000001
 44
0.0000000001
 12
0.4000706825
 22
0.0001219476
 32
0.0
 13
0.2827378874
 23
0.2830474393
 33
0.0
 40
0.0
 40
0.0
 40
0.0
 40
0.0
 40
0.4948724701
 40
0.8600596842
 40
1.0
 40
1.0
 40
1.0
 40
1.0
 10
16.2006486713
 20
-8.7465348428
 30
0.0
 10
16.2666433269
 20
-8.7465147266
 30
0.0
 10
16.3849207441
 20
-8.7532588133
 30
0.0
 10
16.5079560667
 20
-8.7304868105
 30
0.0
 10
16.5873989396
 20
-8.7527514784
 30
0.0
 10
16.6005877494
 20
-8.7395482291
 30
0.0
 11
16.2006486713
 21
-8.7465348428
 31
0.0
 11
16.3986302408
 21
-8.7455586733
 31
0.0
 11
16.5447086572
 21
-8.743006772
 31
0.0
 11
16.6005877494
 21
-8.7395482291
 31
0.0
  0
SPLINE
  5
4A6
100
AcDbEntity
  8
RACCORDO
100
AcDbSpline
 62
253
  6
CONTINUOUS
 70
0
 71
3
 72
10
 73
6
 74
4
 42
0.0000001
 43
0.0000001
 44
0.0000000001
 12
0.2878754574
 22
0.2878738497
 32
0.0
 13
0.0023409527
 23
0.4071095089
 33
0.0
 40
0.0
 40
0.0
 40
0.0
 40
0.0
 40
0.4935555602
 40
0.8595278849
 40
1.0
 40
1.0
 40
1.0
 40
1.0
 10
17.6368727736
 20
-12.2130786626
 30
0.0
 10
17.6842336178
 20
-12.1657180829
 30
0.0
 10
17.7740906495
 20
-12.0855531406
 30
0.0
 10
17.8464230184
 20
-11.9806098464
 30
0.0
 10
17.9196679078
 20
-11.9394772669
 30
0.0
 10
17.9197775207
 20
-11.9204147557
 30
0.0
 11
17.6368727736
 21
-12.2130786626
 31
0.0
 11
17.77829994
 21
-12.0703445627
 31
0.0
 11
17.8818528876
 21
-11.9632194792
 31
0.0
 11
17.9197775207
 21
-11.9204147557
 31
0.0
  0
SPLINE
  5
4A7
100
AcDbEntity
  8
RACCORDO
100
AcDbSpline
 62
253
  6
CONTINUOUS
 70
0
 71
3
 72
10
 73
6
 74
4
 42
0.0000001
 43
0.0000001
 44
0.0000000001
 12
0.2902311833
 22
0.2901142886
 32
0.0
 13
-0.0747415756
 23
0.4035023384
 33
0.0
 40
0.0
 40
0.0
 40
0.0
 40
0.0
 40
0.492800262
 40
0.8590472194
 40
1.0
 40
1.0
 40
1.0
 40
1.0
 10
23.3822745698
 20
-17.9588033884
 30
0.0
 10
23.4299499042
 20
-17.9111472559
 30
0.0
 10
23.5221469606
 20
-17.8295712216
 30
0.0
 10
23.5891348786
 20
-17.7251057209
 30
0.0
 10
23.6685858816
 20
-17.6806055845
 30
0.0
 10
23.665074204
 20
-17.6616473257
 30
0.0
 11
23.3822745698
 21
-17.9588033884
 31
0.0
 11
23.5243260607
 21
-17.8148666863
 31
0.0
 11
23.6279384367
 21
-17.7059943878
 31
0.0
 11
23.665074204
 21
-17.6616473257
 31
0.0
  0
SPLINE
  5
4A8
100
AcDbEntity
  8
RACCORDO
100
AcDbSpline
 62
253
  6
CONTINUOUS
 70
0
 71
3
 72
10
 73
6
 74
4
 42
0.0000001
 43
0.0000001
 44
0.0000000001
 12
-0.2902309802
 22
0.2901141042
 32
0.0
 13
0.0747417033
 23
0.403502036
 33
0.0
 40
0.0
 40
0.0
 40
0.0
 40
0.0
 40
0.4928003282
 40
0.8590472506
 40
1.0
 40
1.0
 40
1.0
 40
1.0
 10
28.5167110851
 20
-17.95880339
 30
0.0
 10
28.4690357776
 20
-17.9111472814
 30
0.0
 10
28.376838776
 20
-17.8295712948
 30
0.0
 10
28.3098509155
 20
-17.7251058693
 30
0.0
 10
28.2303999627
 20
-17.6806057608
 30
0.0
 10
28.2339116456
 20
-17.6616475203
 30
0.0
 11
28.5167110851
 21
-17.95880339
 31
0.0
 11
28.3746596734
 21
-17.8148667613
 31
0.0
 11
28.2710473776
 21
-17.7059945449
 31
0.0
 11
28.2339116456
 21
-17.6616475203
 31
0.0
  0
SPLINE
  5
4A9
100
AcDbEntity
  8
RACCORDO
100
AcDbSpline
 62
253
  6
CONTINUOUS
 70
0
 71
3
 72
10
 73
6
 74
4
 42
0.0000001
 43
0.0000001
 44
0.0000000001
 12
-5.7449941064
 22
-5.746131802
 32
0.0
 13
-5.7458095656
 23
-5.7453163885
 33
0.0
 40
0.0
 40
0.0
 40
0.0
 40
0.0
 40
0.3333560619
 40
0.666689666
 40
1.0
 40
1.0
 40
1.0
 40
1.0
 10
34.2621128895
 20
-12.2130792412
 30
0.0
 10
33.6237366859
 20
-12.8515818641
 30
0.0
 10
32.346997086
 20
-14.1285139018
 30
0.0
 10
30.4318631522
 20
-16.0437552893
 30
0.0
 10
29.1550903203
 20
-17.3204789469
 30
0.0
 10
28.5167110851
 20
-17.9588033884
 30
0.0
 11
34.2621128895
 21
-12.2130792412
 31
0.0
 11
32.3469389767
 21
-14.1285418157
 31
0.0
 11
30.4318034848
 21
-16.0437847552
 31
0.0
 11
28.5167110851
 21
-17.9588033884
 31
0.0
  0
LINE
  5
4AA
100
AcDbEntity
  8
0
100
AcDbLine
 62
7
  6
CONTINUOUS
 10
25.0306875019
 20
-0.6351210187
 11
25.0281121662
 21
-0.6383236158
  0
LINE
  5
4AB
100
AcDbEntity
  8
0
100
AcDbLine
 62
7
  6
CONTINUOUS
 10
20.866611768
 20
-0.4995283645
 11
20.8638358287
 21
-0.4955562503
  0
LINE
  5
4AC
100
AcDbEntity
  8
0
100
AcDbLine
 62
7
  6
CONTINUOUS
 10
25.0306875019
 20
0.6085856756
 11
25.0281121662
 21
0.6117882728
  0
LINE
  5
4AD
100
AcDbEntity
  8
0
100
AcDbLine
 62
7
  6
CONTINUOUS
 10
20.866611768
 20
0.4729930215
 11
20.8638358287
 21
0.4690209073
  0
SPLINE
  5
4AE
100
AcDbEntity
  8
0
100
AcDbSpline
 62
253
  6
CONTINUOUS
 70
0
 71
3
 72
9
 73
5
 74
3
 42
0.0000001
 43
0.0000001
 44
0.0000000001
 12
-0.2713163957
 22
0.038933918
 32
0.0
 13
-0.2587302675
 23
0.0900597919
 33
0.0
 40
0.0
 40
0.0
 40
0.0
 40
0.0
 40
0.3555367106
 40
1.0
 40
1.0
 40
1.0
 40
1.0
 10
25.4645009751
 20
0.3100583948
 30
0.0
 10
25.4323466621
 20
0.3146725405
 30
0.0
 10
25.3422915817
 20
0.3304472127
 30
0.0
 10
25.2539698783
 20
0.3547808986
 30
0.0
 10
25.1983891586
 20
0.3741276419
 30
0.0
 11
25.4645009751
 21
0.3100583948
 31
0.0
 11
25.3685299979
 21
0.3269714043
 31
0.0
 11
25.1983891586
 21
0.3741276419
 31
0.0
  0
SPLINE
  5
4AF
100
AcDbEntity
  8
0
100
AcDbSpline
 62
253
  6
CONTINUOUS
 70
0
 71
3
 72
9
 73
5
 74
3
 42
0.0000001
 43
0.0000001
 44
0.0000000001
 12
-0.2513550906
 22
0.2691242501
 32
0.0
 13
-0.1927261129
 23
0.3135975529
 33
0.0
 40
0.0
 40
0.0
 40
0.0
 40
0.0
 40
0.3420506515
 40
1.0
 40
1.0
 40
1.0
 40
1.0
 10
25.4579613905
 20
0.3833301607
 30
0.0
 10
25.4293026663
 20
0.414014869
 30
0.0
 10
25.3480373961
 20
0.5061129309
 30
0.0
 10
25.2752061958
 20
0.6054473012
 30
0.0
 10
25.232938189
 20
0.6742244031
 30
0.0
 11
25.4579613905
 21
0.3833301607
 31
0.0
 11
25.3746957639
 21
0.4778659114
 31
0.0
 11
25.232938189
 21
0.6742244031
 31
0.0
  0
SPLINE
  5
4B0
100
AcDbEntity
  8
0
100
AcDbSpline
 62
253
  6
CONTINUOUS
 70
0
 71
3
 72
10
 73
6
 74
4
 42
0.0000001
 43
0.0000001
 44
0.0000000001
 12
-0.3172756026
 22
-0.0215914107
 32
0.0
 13
-0.2858289688
 23
0.1393979828
 33
0.0
 40
0.0
 40
0.0
 40
0.0
 40
0.0
 40
0.4867947193
 40
0.7375913752
 40
1.0
 40
1.0
 40
1.0
 40
1.0
 10
25.232938189
 20
0.6742244031
 30
0.0
 10
25.181455493
 20
0.6707208749
 30
0.0
 10
25.1022716561
 20
0.6743576458
 30
0.0
 10
24.9993101161
 20
0.7006190203
 30
0.0
 10
24.9487582528
 20
0.721287941
 30
0.0
 10
24.9237569239
 20
0.7334810187
 30
0.0
 11
25.232938189
 21
0.6742244031
 31
0.0
 11
25.0783475565
 21
0.6823742856
 31
0.0
 11
25.0010522402
 21
0.7020314975
 31
0.0
 11
24.9237569239
 21
0.7334810187
 31
0.0
  0
SPLINE
  5
4B1
100
AcDbEntity
  8
0
100
AcDbSpline
 62
253
  6
CONTINUOUS
 70
0
 71
3
 72
13
 73
9
 74
7
 42
0.0000001
 43
0.0000001
 44
0.0000000001
 12
-1.3826109361
 22
2.2497387602
 32
0.0
 13
-2.6406204412
 23
0.0078214405
 33
0.0
 40
0.0
 40
0.0
 40
0.0
 40
0.0
 40
0.121207042
 40
0.2436592959
 40
0.4920259594
 40
0.618259931
 40
0.7453512721
 40
1.0
 40
1.0
 40
1.0
 40
1.0
 10
25.232938189
 20
0.6742244031
 30
0.0
 10
25.1770774617
 20
0.7651191299
 30
0.0
 10
25.0527263327
 20
0.9407808283
 30
0.0
 10
24.7582781877
 20
1.2596051364
 30
0.0
 10
24.3990105505
 20
1.5196549509
 30
0.0
 10
23.9971514244
 20
1.7050342639
 30
0.0
 10
23.5699875386
 20
1.8402385701
 30
0.0
 10
23.2321113141
 20
1.8808596596
 30
0.0
 10
23.0079677688
 20
1.8815235662
 30
0.0
 11
25.232938189
 21
0.6742244031
 31
0.0
 11
25.0480504299
 21
0.9354847453
 31
0.0
 11
24.8286019676
 21
1.1729683522
 31
0.0
 11
24.2978542875
 21
1.5582468473
 31
0.0
 11
23.9953277682
 21
1.6982167468
 31
0.0
 11
23.6753834113
 21
1.7995279113
 31
0.0
 11
23.0079677688
 21
1.8815235662
 31
0.0
  0
SPLINE
  5
4B2
100
AcDbEntity
  8
0
100
AcDbSpline
 62
253
  6
CONTINUOUS
 70
0
 71
3
 72
23
 73
19
 74
17
 42
0.0000001
 43
0.0000001
 44
0.0000000001
 12
-0.0045383917
 22
-0.2989840099
 32
0.0
 13
-0.2831535262
 23
-0.0961047124
 33
0.0
 40
0.0
 40
0.0
 40
0.0
 40
0.0
 40
0.2215218603
 40
0.4182922246
 40
0.5888893499
 40
0.6639289177
 40
0.7318924776
 40
0.7926027272
 40
0.8458826294
 40
0.8915556026
 40
0.929445919
 40
0.9593796586
 40
0.9713097804
 40
0.9811881575
 40
0.9889963011
 40
0.9947199133
 40
0.9983587047
 40
1.0
 40
1.0
 40
1.0
 40
1.0
 10
23.0079677688
 20
1.8815235662
 30
0.0
 10
23.0076326511
 20
1.8594464015
 30
0.0
 10
23.0069704911
 20
1.8177592705
 30
0.0
 10
23.0059232815
 20
1.7590723118
 30
0.0
 10
23.0050202643
 20
1.7149855127
 30
0.0
 10
23.0042860614
 20
1.6837366874
 30
0.0
 10
23.0037599105
 20
1.663438807
 30
0.0
 10
23.00323482
 20
1.6453104965
 30
0.0
 10
23.002711034
 20
1.6294051106
 30
0.0
 10
23.0021898511
 20
1.6157750853
 30
0.0
 10
23.0016713671
 20
1.6044752415
 30
0.0
 10
23.0012186509
 20
1.5965362719
 30
0.0
 10
23.000841354
 20
1.591395998
 30
0.0
 10
23.0005829357
 20
1.5884480859
 30
0.0
 10
23.0003248837
 20
1.5861475341
 30
0.0
 10
23.0000801511
 20
1.5844091065
 30
0.0
 10
22.9998354985
 20
1.5834221166
 30
0.0
 10
22.9996477403
 20
1.5828224913
 30
0.0
 10
22.9994928274
 20
1.5827699125
 30
0.0
 11
23.0079677688
 21
1.8815235662
 31
0.0
 11
23.0069084011
 21
1.8152929141
 31
0.0
 11
23.0058490334
 21
1.7564644819
 31
0.0
 11
23.0047896658
 21
1.7054637946
 31
0.0
 11
23.0042599819
 21
1.6830318319
 31
0.0
 11
23.0037302981
 21
1.6627163774
 31
0.0
 11
23.0032006143
 21
1.6445706217
 31
0.0
 11
23.0026709304
 21
1.6286477555
 31
0.0
 11
23.0021412466
 21
1.6150009694
 31
0.0
 11
23.0016115628
 21
1.603683454
 31
0.0
 11
23.0010818789
 21
1.5947484
 31
0.0
 11
23.000817037
 21
1.591190918
 31
0.0
 11
23.0005521951
 21
1.5882489979
 31
0.0
 11
23.0002873532
 21
1.5859292885
 31
0.0
 11
23.0000225113
 21
1.5842384386
 31
0.0
 11
22.9997576694
 21
1.583183097
 31
0.0
 11
22.9994928274
 21
1.5827699125
 31
0.0
  0
SPLINE
  5
4B3
100
AcDbEntity
  8
0
100
AcDbSpline
 62
253
  6
CONTINUOUS
 70
0
 71
3
 72
16
 73
12
 74
10
 42
0.0000001
 43
0.0000001
 44
0.0000000001
 12
-2.6836171834
 22
0.0079487956
 32
0.0
 13
-1.3747187376
 23
-2.3047804153
 33
0.0
 40
0.0
 40
0.0
 40
0.0
 40
0.0
 40
0.0218702252
 40
0.0841925075
 40
0.1466148002
 40
0.2714109098
 40
0.5188100321
 40
0.641164773
 40
0.7621888187
 40
0.8817692268
 40
1.0
 40
1.0
 40
1.0
 40
1.0
 10
23.0079677688
 20
1.8815235662
 30
0.0
 10
22.988403998
 20
1.8815815135
 30
0.0
 10
22.9130884186
 20
1.8810380665
 30
0.0
 10
22.7819927878
 20
1.8749766306
 30
0.0
 10
22.5598749455
 20
1.8514926016
 30
0.0
 10
22.177742239
 20
1.7759661108
 30
0.0
 10
21.7617820325
 20
1.6092081049
 30
0.0
 10
21.3932185248
 20
1.3688541863
 30
0.0
 10
21.1457960976
 20
1.1570811774
 30
0.0
 10
20.9309642536
 20
0.9174155621
 30
0.0
 10
20.8101324395
 20
0.7414970273
 30
0.0
 10
20.7559544197
 20
0.6506650371
 30
0.0
 11
23.0079677688
 21
1.8815235662
 31
0.0
 11
22.9492777205
 21
1.8811009758
 31
0.0
 11
22.7822081057
 21
1.8733378215
 31
0.0
 11
22.6156204863
 21
1.855704427
 31
0.0
 11
22.2871359701
 21
1.790433797
 31
0.0
 11
21.6715248292
 21
1.5417923296
 31
0.0
 11
21.3964817944
 21
1.3624375003
 31
0.0
 11
21.1498639565
 21
1.1510987898
 31
0.0
 11
20.9356035146
 21
0.9121943416
 31
0.0
 11
20.7559544197
 21
0.6506650371
 31
0.0
  0
SPLINE
  5
4B4
100
AcDbEntity
  8
0
100
AcDbSpline
 62
253
  6
CONTINUOUS
 70
0
 71
3
 72
9
 73
5
 74
3
 42
0.0000001
 43
0.0000001
 44
0.0000000001
 12
0.3340837379
 22
0.0088178992
 32
0.0
 13
0.2948632031
 23
0.1573066774
 33
0.0
 40
0.0
 40
0.0
 40
0.0
 40
0.0
 40
0.4846053568
 40
1.0
 40
1.0
 40
1.0
 40
1.0
 10
20.7559544197
 20
0.6506650371
 30
0.0
 10
20.8099206761
 20
0.6520894375
 30
0.0
 10
20.9214280187
 20
0.6667546948
 30
0.0
 10
21.0262276943
 20
0.7081624325
 30
0.0
 10
21.0768846661
 20
0.7351874388
 30
0.0
 11
20.7559544197
 21
0.6506650371
 31
0.0
 11
20.9164195429
 21
0.672583429
 31
0.0
 11
21.0768846661
 21
0.7351874388
 31
0.0
  0
SPLINE
  5
4B5
100
AcDbEntity
  8
0
100
AcDbSpline
 62
253
  6
CONTINUOUS
 70
0
 71
3
 72
9
 73
5
 74
3
 42
0.0000001
 43
0.0000001
 44
0.0000000001
 12
-0.2651375414
 22
-0.4445155187
 32
0.0
 13
-0.3719488593
 23
-0.3599250037
 33
0.0
 40
0.0
 40
0.0
 40
0.0
 40
0.0
 40
0.5017966176
 40
1.0
 40
1.0
 40
1.0
 40
1.0
 10
20.7559544197
 20
0.6506650371
 30
0.0
 10
20.7116060459
 20
0.5763129092
 30
0.0
 10
20.6096119085
 20
0.4361686802
 30
0.0
 10
20.4914506461
 20
0.3100336438
 30
0.0
 10
20.4296819195
 20
0.2502616924
 30
0.0
 11
20.7559544197
 21
0.6506650371
 31
0.0
 11
20.60517454
 21
0.4391926215
 31
0.0
 11
20.4296819195
 21
0.2502616924
 31
0.0
  0
SPLINE
  5
4B6
100
AcDbEntity
  8
0
100
AcDbSpline
 62
253
  6
CONTINUOUS
 70
0
 71
3
 72
9
 73
5
 74
3
 42
0.0000001
 43
0.0000001
 44
0.0000000001
 12
0.362764332
 22
0.065808093
 32
0.0
 13
0.3440285727
 23
0.1325632183
 33
0.0
 40
0.0
 40
0.0
 40
0.0
 40
0.0
 40
0.4934631881
 40
1.0
 40
1.0
 40
1.0
 40
1.0
 10
20.4296819195
 20
0.2502616924
 30
0.0
 10
20.4893522008
 20
0.2610863162
 30
0.0
 10
20.6094593192
 20
0.2879006182
 30
0.0
 10
20.7265295228
 20
0.3260900205
 30
0.0
 10
20.7846172349
 20
0.3484727372
 30
0.0
 11
20.4296819195
 21
0.2502616924
 31
0.0
 11
20.6071495772
 21
0.2903199623
 31
0.0
 11
20.7846172349
 21
0.3484727372
 31
0.0
  0
SPLINE
  5
4B7
100
AcDbEntity
  8
0
100
AcDbSpline
 62
253
  6
CONTINUOUS
 70
0
 71
3
 72
9
 73
5
 74
3
 42
0.0000001
 43
0.0000001
 44
0.0000000001
 12
-0.2713163957
 22
-0.038933918
 32
0.0
 13
-0.2587302675
 23
-0.0900597919
 33
0.0
 40
0.0
 40
0.0
 40
0.0
 40
0.0
 40
0.3555367106
 40
1.0
 40
1.0
 40
1.0
 40
1.0
 10
25.4645009751
 20
-0.3365937378
 30
0.0
 10
25.4323466621
 20
-0.3412078835
 30
0.0
 10
25.3422915817
 20
-0.3569825557
 30
0.0
 10
25.2539698783
 20
-0.3813162417
 30
0.0
 10
25.1983891586
 20
-0.4006629849
 30
0.0
 11
25.4645009751
 21
-0.3365937378
 31
0.0
 11
25.3685299979
 21
-0.3535067474
 31
0.0
 11
25.1983891586
 21
-0.4006629849
 31
0.0
  0
SPLINE
  5
4B8
100
AcDbEntity
  8
0
100
AcDbSpline
 62
253
  6
CONTINUOUS
 70
0
 71
3
 72
9
 73
5
 74
3
 42
0.0000001
 43
0.0000001
 44
0.0000000001
 12
-0.2513550906
 22
-0.2691242501
 32
0.0
 13
-0.1927261129
 23
-0.3135975529
 33
0.0
 40
0.0
 40
0.0
 40
0.0
 40
0.0
 40
0.3420506515
 40
1.0
 40
1.0
 40
1.0
 40
1.0
 10
25.4579613905
 20
-0.4098655037
 30
0.0
 10
25.4293026663
 20
-0.4405502121
 30
0.0
 10
25.3480373961
 20
-0.5326482739
 30
0.0
 10
25.2752061958
 20
-0.6319826443
 30
0.0
 10
25.232938189
 20
-0.7007597461
 30
0.0
 11
25.4579613905
 21
-0.4098655037
 31
0.0
 11
25.3746957639
 21
-0.5044012545
 31
0.0
 11
25.232938189
 21
-0.7007597461
 31
0.0
  0
SPLINE
  5
4B9
100
AcDbEntity
  8
0
100
AcDbSpline
 62
253
  6
CONTINUOUS
 70
0
 71
3
 72
10
 73
6
 74
4
 42
0.0000001
 43
0.0000001
 44
0.0000000001
 12
-0.3172756026
 22
0.0215914107
 32
0.0
 13
-0.2858289688
 23
-0.1393979828
 33
0.0
 40
0.0
 40
0.0
 40
0.0
 40
0.0
 40
0.4867947193
 40
0.7375913752
 40
1.0
 40
1.0
 40
1.0
 40
1.0
 10
25.232938189
 20
-0.7007597461
 30
0.0
 10
25.181455493
 20
-0.6972562179
 30
0.0
 10
25.1022716561
 20
-0.7008929888
 30
0.0
 10
24.9993101161
 20
-0.7271543634
 30
0.0
 10
24.9487582528
 20
-0.747823284
 30
0.0
 10
24.9237569239
 20
-0.7600163617
 30
0.0
 11
25.232938189
 21
-0.7007597461
 31
0.0
 11
25.0783475565
 21
-0.7089096286
 31
0.0
 11
25.0010522402
 21
-0.7285668405
 31
0.0
 11
24.9237569239
 21
-0.7600163617
 31
0.0
  0
SPLINE
  5
4BA
100
AcDbEntity
  8
0
100
AcDbSpline
 62
253
  6
CONTINUOUS
 70
0
 71
3
 72
13
 73
9
 74
7
 42
0.0000001
 43
0.0000001
 44
0.0000000001
 12
-1.3826109361
 22
-2.2497387602
 32
0.0
 13
-2.6406204412
 23
-0.0078214405
 33
0.0
 40
0.0
 40
0.0
 40
0.0
 40
0.0
 40
0.121207042
 40
0.2436592959
 40
0.4920259594
 40
0.618259931
 40
0.7453512721
 40
1.0
 40
1.0
 40
1.0
 40
1.0
 10
25.232938189
 20
-0.7007597461
 30
0.0
 10
25.1770774617
 20
-0.7916544729
 30
0.0
 10
25.0527263327
 20
-0.9673161713
 30
0.0
 10
24.7582781877
 20
-1.2861404795
 30
0.0
 10
24.3990105505
 20
-1.5461902939
 30
0.0
 10
23.9971514244
 20
-1.7315696069
 30
0.0
 10
23.5699875386
 20
-1.8667739131
 30
0.0
 10
23.2321113141
 20
-1.9073950026
 30
0.0
 10
23.0079677688
 20
-1.9080589093
 30
0.0
 11
25.232938189
 21
-0.7007597461
 31
0.0
 11
25.0480504299
 21
-0.9620200884
 31
0.0
 11
24.8286019676
 21
-1.1995036953
 31
0.0
 11
24.2978542875
 21
-1.5847821904
 31
0.0
 11
23.9953277682
 21
-1.7247520898
 31
0.0
 11
23.6753834113
 21
-1.8260632544
 31
0.0
 11
23.0079677688
 21
-1.9080589093
 31
0.0
  0
SPLINE
  5
4BB
100
AcDbEntity
  8
0
100
AcDbSpline
 62
253
  6
CONTINUOUS
 70
0
 71
3
 72
23
 73
19
 74
17
 42
0.0000001
 43
0.0000001
 44
0.0000000001
 12
-0.0045383917
 22
0.2989840099
 32
0.0
 13
-0.2831535262
 23
0.0961047124
 33
0.0
 40
0.0
 40
0.0
 40
0.0
 40
0.0
 40
0.2215218603
 40
0.4182922246
 40
0.5888893499
 40
0.6639289177
 40
0.7318924776
 40
0.7926027272
 40
0.8458826294
 40
0.8915556026
 40
0.929445919
 40
0.9593796586
 40
0.9713097804
 40
0.9811881575
 40
0.9889963011
 40
0.9947199133
 40
0.9983587047
 40
1.0
 40
1.0
 40
1.0
 40
1.0
 10
23.0079677688
 20
-1.9080589093
 30
0.0
 10
23.0076326511
 20
-1.8859817446
 30
0.0
 10
23.0069704911
 20
-1.8442946135
 30
0.0
 10
23.0059232815
 20
-1.7856076548
 30
0.0
 10
23.0050202643
 20
-1.7415208557
 30
0.0
 10
23.0042860614
 20
-1.7102720304
 30
0.0
 10
23.0037599105
 20
-1.68997415
 30
0.0
 10
23.00323482
 20
-1.6718458395
 30
0.0
 10
23.002711034
 20
-1.6559404536
 30
0.0
 10
23.0021898511
 20
-1.6423104283
 30
0.0
 10
23.0016713671
 20
-1.6310105846
 30
0.0
 10
23.0012186509
 20
-1.6230716149
 30
0.0
 10
23.000841354
 20
-1.617931341
 30
0.0
 10
23.0005829357
 20
-1.6149834289
 30
0.0
 10
23.0003248837
 20
-1.6126828772
 30
0.0
 10
23.0000801511
 20
-1.6109444495
 30
0.0
 10
22.9998354985
 20
-1.6099574596
 30
0.0
 10
22.9996477403
 20
-1.6093578343
 30
0.0
 10
22.9994928274
 20
-1.6093052556
 30
0.0
 11
23.0079677688
 21
-1.9080589093
 31
0.0
 11
23.0069084011
 21
-1.8418282571
 31
0.0
 11
23.0058490334
 21
-1.7829998249
 31
0.0
 11
23.0047896658
 21
-1.7319991376
 31
0.0
 11
23.0042599819
 21
-1.709567175
 31
0.0
 11
23.0037302981
 21
-1.6892517205
 31
0.0
 11
23.0032006143
 21
-1.6711059648
 31
0.0
 11
23.0026709304
 21
-1.6551830986
 31
0.0
 11
23.0021412466
 21
-1.6415363124
 31
0.0
 11
23.0016115628
 21
-1.630218797
 31
0.0
 11
23.0010818789
 21
-1.621283743
 31
0.0
 11
23.000817037
 21
-1.6177262611
 31
0.0
 11
23.0005521951
 21
-1.614784341
 31
0.0
 11
23.0002873532
 21
-1.6124646316
 31
0.0
 11
23.0000225113
 21
-1.6107737816
 31
0.0
 11
22.9997576694
 21
-1.60971844
 31
0.0
 11
22.9994928274
 21
-1.6093052556
 31
0.0
  0
SPLINE
  5
4BC
100
AcDbEntity
  8
0
100
AcDbSpline
 62
253
  6
CONTINUOUS
 70
0
 71
3
 72
16
 73
12
 74
10
 42
0.0000001
 43
0.0000001
 44
0.0000000001
 12
-2.6836171834
 22
-0.0079487956
 32
0.0
 13
-1.3747187376
 23
2.3047804153
 33
0.0
 40
0.0
 40
0.0
 40
0.0
 40
0.0
 40
0.0218702252
 40
0.0841925075
 40
0.1466148002
 40
0.2714109098
 40
0.5188100321
 40
0.641164773
 40
0.7621888187
 40
0.8817692268
 40
1.0
 40
1.0
 40
1.0
 40
1.0
 10
23.0079677688
 20
-1.9080589093
 30
0.0
 10
22.988403998
 20
-1.9081168566
 30
0.0
 10
22.9130884186
 20
-1.9075734095
 30
0.0
 10
22.7819927878
 20
-1.9015119736
 30
0.0
 10
22.5598749455
 20
-1.8780279447
 30
0.0
 10
22.177742239
 20
-1.8025014538
 30
0.0
 10
21.7617820325
 20
-1.6357434479
 30
0.0
 10
21.3932185248
 20
-1.3953895293
 30
0.0
 10
21.1457960976
 20
-1.1836165204
 30
0.0
 10
20.9309642536
 20
-0.9439509051
 30
0.0
 10
20.8101324395
 20
-0.7680323703
 30
0.0
 10
20.7559544197
 20
-0.6772003801
 30
0.0
 11
23.0079677688
 21
-1.9080589093
 31
0.0
 11
22.9492777205
 21
-1.9076363188
 31
0.0
 11
22.7822081057
 21
-1.8998731645
 31
0.0
 11
22.6156204863
 21
-1.88223977
 31
0.0
 11
22.2871359701
 21
-1.81696914
 31
0.0
 11
21.6715248292
 21
-1.5683276726
 31
0.0
 11
21.3964817944
 21
-1.3889728433
 31
0.0
 11
21.1498639565
 21
-1.1776341329
 31
0.0
 11
20.9356035146
 21
-0.9387296846
 31
0.0
 11
20.7559544197
 21
-0.6772003801
 31
0.0
  0
SPLINE
  5
4BD
100
AcDbEntity
  8
0
100
AcDbSpline
 62
253
  6
CONTINUOUS
 70
0
 71
3
 72
9
 73
5
 74
3
 42
0.0000001
 43
0.0000001
 44
0.0000000001
 12
0.3340837379
 22
-0.0088178992
 32
0.0
 13
0.2948632031
 23
-0.1573066774
 33
0.0
 40
0.0
 40
0.0
 40
0.0
 40
0.0
 40
0.4846053568
 40
1.0
 40
1.0
 40
1.0
 40
1.0
 10
20.7559544197
 20
-0.6772003801
 30
0.0
 10
20.8099206761
 20
-0.6786247805
 30
0.0
 10
20.9214280187
 20
-0.6932900379
 30
0.0
 10
21.0262276943
 20
-0.7346977755
 30
0.0
 10
21.0768846661
 20
-0.7617227818
 30
0.0
 11
20.7559544197
 21
-0.6772003801
 31
0.0
 11
20.9164195429
 21
-0.699118772
 31
0.0
 11
21.0768846661
 21
-0.7617227818
 31
0.0
  0
SPLINE
  5
4BE
100
AcDbEntity
  8
0
100
AcDbSpline
 62
253
  6
CONTINUOUS
 70
0
 71
3
 72
9
 73
5
 74
3
 42
0.0000001
 43
0.0000001
 44
0.0000000001
 12
-0.2651375414
 22
0.4445155187
 32
0.0
 13
-0.3719488593
 23
0.3599250037
 33
0.0
 40
0.0
 40
0.0
 40
0.0
 40
0.0
 40
0.5017966176
 40
1.0
 40
1.0
 40
1.0
 40
1.0
 10
20.7559544197
 20
-0.6772003801
 30
0.0
 10
20.7116060459
 20
-0.6028482522
 30
0.0
 10
20.6096119085
 20
-0.4627040232
 30
0.0
 10
20.4914506461
 20
-0.3365689868
 30
0.0
 10
20.4296819195
 20
-0.2767970354
 30
0.0
 11
20.7559544197
 21
-0.6772003801
 31
0.0
 11
20.60517454
 21
-0.4657279646
 31
0.0
 11
20.4296819195
 21
-0.2767970354
 31
0.0
  0
SPLINE
  5
4BF
100
AcDbEntity
  8
0
100
AcDbSpline
 62
253
  6
CONTINUOUS
 70
0
 71
3
 72
9
 73
5
 74
3
 42
0.0000001
 43
0.0000001
 44
0.0000000001
 12
0.362764332
 22
-0.065808093
 32
0.0
 13
0.3440285727
 23
-0.1325632183
 33
0.0
 40
0.0
 40
0.0
 40
0.0
 40
0.0
 40
0.4934631881
 40
1.0
 40
1.0
 40
1.0
 40
1.0
 10
20.4296819195
 20
-0.2767970354
 30
0.0
 10
20.4893522008
 20
-0.2876216592
 30
0.0
 10
20.6094593192
 20
-0.3144359612
 30
0.0
 10
20.7265295228
 20
-0.3526253635
 30
0.0
 10
20.7846172349
 20
-0.3750080802
 30
0.0
 11
20.4296819195
 21
-0.2767970354
 31
0.0
 11
20.6071495772
 21
-0.3168553054
 31
0.0
 11
20.7846172349
 21
-0.3750080802
 31
0.0
  0
SPLINE
  5
4C0
100
AcDbEntity
  8
0
100
AcDbSpline
 62
7
  6
CONTINUOUS
 70
0
 71
3
 72
10
 73
6
 74
4
 42
0.0000001
 43
0.0000001
 44
0.0000000001
 12
-1.021933929
 22
0.336355955
 32
0.0
 13
-1.0749943175
 23
-0.0031025491
 33
0.0
 40
0.0
 40
0.0
 40
0.0
 40
0.0
 40
0.1581940248
 40
0.5816309769
 40
1.0
 40
1.0
 40
1.0
 40
1.0
 10
27.0076240508
 20
-7.2087565743
 30
0.0
 10
26.9537361036
 20
-7.1910200735
 30
0.0
 10
26.753925924
 20
-7.1309362431
 30
0.0
 10
26.4014899869
 20
-7.0605199354
 30
0.0
 10
26.0994076016
 20
-7.0414411965
 30
0.0
 10
25.9494928274
 20
-7.0418738667
 30
0.0
 11
27.0076240508
 21
-7.2087565743
 31
0.0
 11
26.8446629583
 21
-7.1597514123
 31
0.0
 11
26.3983376368
 21
-7.0703339697
 31
0.0
 11
25.9494928274
 21
-7.0418738667
 31
0.0
  0
SPLINE
  5
4C1
100
AcDbEntity
  8
0
100
AcDbSpline
 62
7
  6
CONTINUOUS
 70
0
 71
3
 72
10
 73
6
 74
4
 42
0.0000001
 43
0.0000001
 44
0.0000000001
 12
1.021933929
 22
-0.336355955
 32
0.0
 13
1.0749943175
 23
0.0031025491
 33
0.0
 40
0.0
 40
0.0
 40
0.0
 40
0.0
 40
0.1581940248
 40
0.5816309769
 40
1.0
 40
1.0
 40
1.0
 40
1.0
 10
24.8913616041
 20
7.1822212312
 30
0.0
 10
24.9452495513
 20
7.1644847305
 30
0.0
 10
25.1450597309
 20
7.1044009
 30
0.0
 10
25.497495668
 20
7.0339845924
 30
0.0
 10
25.7995780533
 20
7.0149058535
 30
0.0
 10
25.9494928274
 20
7.0153385236
 30
0.0
 11
24.8913616041
 21
7.1822212312
 31
0.0
 11
25.0543226966
 21
7.1332160693
 31
0.0
 11
25.5006480181
 21
7.0437986267
 31
0.0
 11
25.9494928274
 21
7.0153385236
 31
0.0
  0
ELLIPSE
  5
4C2
100
AcDbEntity
  8
0
100
AcDbEllipse
 62
7
  6
CONTINUOUS
 10
15.2995689915
 20
21.8860461555
 30
0.0
 11
-0.1582391023
 21
0.4751033573
 31
0.0
 40
0.9984778551
 41
-0.3210503505
 42
1.2488325878
  0
ELLIPSE
  5
4C3
100
AcDbEntity
  8
0
100
AcDbEllipse
 62
7
  6
CONTINUOUS
 10
15.2995689915
 20
-21.9125814985
 30
0.0
 11
0.1582391023
 21
0.4751033573
 31
0.0
 40
0.9984778551
 41
-4.3904252414
 42
-2.8205423031
  0
ELLIPSE
  5
4C4
100
AcDbEntity
  8
0
100
AcDbEllipse
 62
7
  6
CONTINUOUS
 10
36.5994166634
 20
21.8860461555
 30
0.0
 11
0.1582391023
 21
0.4751033573
 31
0.0
 40
0.9984778551
 41
-1.2488325878
 42
0.3210503505
  0
ELLIPSE
  5
4C5
100
AcDbEntity
  8
0
100
AcDbEllipse
 62
7
  6
CONTINUOUS
 10
36.5994166634
 20
-21.9125814985
 30
0.0
 11
-0.1582391023
 21
0.4751033573
 31
0.0
 40
0.9984778551
 41
-3.4626430041
 42
-1.8927600658
  0
ENDSEC
  0
SECTION
  2
OBJECTS
  0
DICTIONARY
  5
C
100
AcDbDictionary
280
0
281
1
  3
ACAD_GROUP
350
D
  3
ACAD_MLINESTYLE
350
17
  3
ACAD_LAYOUT
350
1A
  3
ACAD_PLOTSETTINGS
350
19
  3
ACAD_PLOTSTYLENAME
350
E
  0
DICTIONARY
  5
D
102
{ACAD_REACTORS
330
C
102
}
100
AcDbDictionary
280
0
281
1
  0
ACDBDICTIONARYWDFLT
  5
E
102
{ACAD_REACTORS
330
C
102
}
100
AcDbDictionary
281
1
  3
Normal
350
F
100
AcDbDictionaryWithDefault
340
F
  0
DICTIONARY
  5
17
102
{ACAD_REACTORS
330
C
102
}
100
AcDbDictionary
280
0
281
1
  3
Standard
350
18
  0
DICTIONARY
  5
19
102
{ACAD_REACTORS
330
C
102
}
100
AcDbDictionary
281
1
  0
DICTIONARY
  5
1A
102
{ACAD_REACTORS
330
C
102
}
100
AcDbDictionary
281
1
  3
Model
350
4C6
  3
Layout1
350
4C7
  0
ACDBPLACEHOLDER
  5
F
102
{ACAD_REACTORS
330
E
102
}
  0
MLINESTYLE
  5
18
102
{ACAD_REACTORS
330
17
102
}
100
AcDbMlineStyle
  2
STANDARD
 70
0
  3

 62
256
 51
90.0
 52
90.0
 71
2
 49
0.5
 62
256
  6
BYLAYER
 49
-0.5
 62
256
  6
BYLAYER
  0
LAYOUT
  5
4C6
102
{ACAD_REACTORS
330
1A
102
}
100
AcDbPlotSettings
  1

  2
none_device
  4
ANSI_A_(11.00_x_8.50_Inches)
  6

 40
0.0
 41
0.0
 42
0.0
 43
0.0
 44
279.4
 45
215.9
 46
0.0
 47
0.0
 48
0.0
 49
0.0
140
0.0
141
0.0
142
1.0
143
1.0
 70
1024
 72
1
 73
0
 74
0
  7

 75
0
147
1.0
148
0.0
149
0.0
100
AcDbLayout
  1
Model
 70
0
 71
0
 10
0.0
 20
0.0
 11
279.4
 21
215.9
 12
0.0
 22
0.0
 32
0.0
 14
0.0
 24
0.0
 34
0.0
 15
0.0
 25
0.0
 35
0.0
146
0.0
 13
0.0
 23
0.0
 33
0.0
 16
1.0
 26
0.0
 36
0.0
 17
0.0
 27
1.0
 37
0.0
 76
0
330
217
345
0
346
0
  0
LAYOUT
  5
4C7
102
{ACAD_REACTORS
330
1A
102
}
100
AcDbPlotSettings
  1

  2
none_device
  4
ANSI_A_(11.00_x_8.50_Inches)
  6

 40
0.0
 41
0.0
 42
0.0
 43
0.0
 44
279.4
 45
215.9
 46
0.0
 47
0.0
 48
0.0
 49
0.0
140
0.0
141
0.0
142
1.0
143
1.0
 70
0
 72
1
 73
0
 74
0
  7

 75
0
147
1.0
148
0.0
149
0.0
100
AcDbLayout
  1
Layout1
 70
0
 71
1
 10
0.0
 20
0.0
 11
279.4
 21
215.9
 12
0.0
 22
0.0
 32
0.0
 14
0.0
 24
0.0
 34
0.0
 15
0.0
 25
0.0
 35
0.0
146
0.0
 13
0.0
 23
0.0
 33
0.0
 16
1.0
 26
0.0
 36
0.0
 17
0.0
 27
1.0
 37
0.0
 76
0
330
218
345
0
346
0
  0
ENDSEC
  0
EOF
