  0
SECTION
  2
HEADER
  9
$ACADVER
  1
AC1024
  9
$DWGCODEPAGE
  3
ANSI_1252
  9
$EXTMAX
 10
210.0
 20
297.0
 30
0.0
  9
$EXTMIN
 10
0.0
 20
0.0
 30
0.0
  9
$LIMMIN
 10
0.0
 20
0.0
  9
$LIMMAX
 10
210.0
 20
297.0
  9
$VIEWCTR
 10
105.0
 20
148.5
  9
$VIEWSIZE
 40
297.0
  9
$CLAYER
  8
0
  9
$LTSCALE
 40
19.36
  9
$CELTYPE
  6
BYLAYER
  9
$DIMSCALE
 40
1.0
  9
$DIMASZ
 40
3.0
  9
$DIMEXO
 40
0.5
  9
$DIMDLI
 40
13.376
  9
$DIMEXE
 40
1.5
  9
$DIMCEN
 40
3.168
  9
$DIMLFAC
 40
1.0
  9
$DIMBLK
  1
_FILLED
  9
$DIMALT
 70
0
  9
$DIMALTF
 40
0.0393700787
  9
$DIMTXT
 40
3.0
  9
$DIMTOL
 70
1
  9
$DIMLIM
 70
0
  9
$DIMTFAC
 40
1.0
  9
$DIMTP
 40
0.01
  9
$DIMTM
 40
0.01
  9
$DIMGAP
 40
0.625
  9
$DIMDSEP
 70
44
  9
$AUNITS
 70
0
  9
$PDMODE
 70
3
  9
$PDSIZE
 40
3.0
  9
$HANDSEED
  5
90D
  9
$TILEMODE
 70
1
  9
$MEASUREMENT
 70
1
  9
$INSUNITS
 70
4
  0
ENDSEC
  0
SECTION
  2
CLASSES
  0
CLASS
  1
ACDBDICTIONARYWDFLT
  2
AcDbDictionaryWithDefault
  3
AutoCAD 2000
 90
0
 91
1
280
0
281
0
  0
CLASS
  1
ACDBPLACEHOLDER
  2
AcDbPlaceHolder
  3
AutoCAD 2000
 90
0
 91
1
280
0
281
0
  0
CLASS
  1
LAYOUT
  2
AcDbLayout
  3
AutoCAD 2000
 90
0
 91
0
280
0
281
0
  0
ENDSEC
  0
SECTION
  2
TABLES
  0
TABLE
  2
VPORT
  5
8
100
AcDbSymbolTable
 70
2
  0
VPORT
  5
1F4
100
AcDbSymbolTableRecord
100
AcDbViewportTableRecord
  2
*ACTIVE
 70
0
 10
0.0
 20
0.0
 11
1.0
 21
1.0
 12
105.0
 22
148.5
 13
0.0
 23
0.0
 14
1.0
 24
1.0
 15
0.0
 25
0.0
 16
0.0
 26
0.0
 36
1.0
 17
0.0
 27
0.0
 37
0.0
 40
297.0
 41
0.7070707071
 42
50.0
 43
0.0
 44
0.0
 50
0.0
 51
0.0
 71
0
 72
100
 73
1
 74
1
 75
0
 76
0
 77
0
 78
0
  0
ENDTAB
  0
TABLE
  2
LTYPE
  5
5
100
AcDbSymbolTable
 70
6
  0
LTYPE
  5
14
100
AcDbSymbolTableRecord
100
AcDbLinetypeTableRecord
  2
BYBLOCK
 70
0
  3

 72
65
 73
0
 40
0.0
  0
LTYPE
  5
15
100
AcDbSymbolTableRecord
100
AcDbLinetypeTableRecord
  2
BYLAYER
 70
0
  3

 72
65
 73
0
 40
0.0
  0
LTYPE
  5
16
100
AcDbSymbolTableRecord
100
AcDbLinetypeTableRecord
  2
CONTINUOUS
 70
64
  3
Solid line
 72
65
 73
0
 40
0.0
  0
LTYPE
  5
1F5
100
AcDbSymbolTableRecord
100
AcDbLinetypeTableRecord
  2
CENTER
 70
64
  3
____ _ ____ _ ____ _ ____ _ ____ _ ____ _ ____
 72
65
 73
4
 40
0.6
 49
0.375
 74
0
 49
-0.075
 74
0
 49
0.075
 74
0
 49
-0.075
 74
0
  0
LTYPE
  5
1F6
100
AcDbSymbolTableRecord
100
AcDbLinetypeTableRecord
  2
HIDDEN
 70
64
  3
- - - - - - - - - - - - - - - - - - - -
 72
65
 73
2
 40
0.2
 49
0.1
 74
0
 49
-0.1
 74
0
  0
LTYPE
  5
1F7
100
AcDbSymbolTableRecord
100
AcDbLinetypeTableRecord
  2
PHANTOM
 70
64
  3
_____ _ _ _____ _ _ _____ _ _ _____
 72
65
 73
6
 40
0.8
 49
0.45
 74
0
 49
-0.05
 74
0
 49
0.1
 74
0
 49
-0.05
 74
0
 49
0.1
 74
0
 49
-0.05
 74
0
  0
LTYPE
  5
1F8
100
AcDbSymbolTableRecord
100
AcDbLinetypeTableRecord
  2
DOT
 70
64
  3
. . . . . . . . . . . . . . . . . . . .
 72
65
 73
2
 40
0.2
 49
0.1
 74
0
 49
-0.1
 74
0
  0
LTYPE
  5
1F9
100
AcDbSymbolTableRecord
100
AcDbLinetypeTableRecord
  2
DASHED
 70
64
  3
- - - - - - - - - - - - - - - - - - - -
 72
65
 73
2
 40
0.2
 49
0.1
 74
0
 49
-0.1
 74
0
  0
ENDTAB
  0
TABLE
  2
LAYER
  5
2
100
AcDbSymbolTable
 70
36
  0
LAYER
  5
10
100
AcDbSymbolTableRecord
100
AcDbLayerTableRecord
  2
0
 70
0
 62
7
  6
CONTINUOUS
370
-3
390
F
  0
LAYER
  5
1FA
100
AcDbSymbolTableRecord
100
AcDbLayerTableRecord
  2
DEFAULT_1
 70
0
 62
7
  6
CENTER
370
-3
390
F
  0
LAYER
  5
1FB
100
AcDbSymbolTableRecord
100
AcDbLayerTableRecord
  2
DEFAULT_2
 70
0
 62
7
  6
HIDDEN
370
-3
390
F
  0
LAYER
  5
1FC
100
AcDbSymbolTableRecord
100
AcDbLayerTableRecord
  2
DEFAULT_3
 70
0
 62
7
  6
PHANTOM
370
-3
390
F
  0
LAYER
  5
1FD
100
AcDbSymbolTableRecord
100
AcDbLayerTableRecord
  2
0603_C_REF_90000
 70
0
 62
7
  6
CONTINUOUS
370
-3
390
F
  0
LAYER
  5
1FE
100
AcDbSymbolTableRecord
100
AcDbLayerTableRecord
  2
0603_C_REF_90000_1
 70
0
 62
7
  6
CONTINUOUS
370
-3
390
F
  0
LAYER
  5
1FF
100
AcDbSymbolTableRecord
100
AcDbLayerTableRecord
  2
0603_C_REF_90000_1_1
 70
0
 62
7
  6
CONTINUOUS
370
-3
390
F
  0
LAYER
  5
200
100
AcDbSymbolTableRecord
100
AcDbLayerTableRecord
  2
0603_C_REF_90000_1_2
 70
0
 62
7
  6
CONTINUOUS
370
-3
390
F
  0
LAYER
  5
201
100
AcDbSymbolTableRecord
100
AcDbLayerTableRecord
  2
0603_C_REF_90000_2
 70
0
 62
7
  6
CONTINUOUS
370
-3
390
F
  0
LAYER
  5
202
100
AcDbSymbolTableRecord
100
AcDbLayerTableRecord
  2
0603_C_REF_90000_2_1
 70
0
 62
7
  6
CONTINUOUS
370
-3
390
F
  0
LAYER
  5
203
100
AcDbSymbolTableRecord
100
AcDbLayerTableRecord
  2
0603_C_REF_90000_3
 70
0
 62
7
  6
CONTINUOUS
370
-3
390
F
  0
LAYER
  5
204
100
AcDbSymbolTableRecord
100
AcDbLayerTableRecord
  2
0603_C_REF_90000_3_1
 70
0
 62
7
  6
CONTINUOUS
370
-3
390
F
  0
LAYER
  5
205
100
AcDbSymbolTableRecord
100
AcDbLayerTableRecord
  2
0603_C_REF_90000_4
 70
0
 62
7
  6
CONTINUOUS
370
-3
390
F
  0
LAYER
  5
206
100
AcDbSymbolTableRecord
100
AcDbLayerTableRecord
  2
0603_C_REF_90000_4_1
 70
0
 62
7
  6
CONTINUOUS
370
-3
390
F
  0
LAYER
  5
207
100
AcDbSymbolTableRecord
100
AcDbLayerTableRecord
  2
0603_C_REF_90000_5
 70
0
 62
7
  6
CONTINUOUS
370
-3
390
F
  0
LAYER
  5
208
100
AcDbSymbolTableRecord
100
AcDbLayerTableRecord
  2
0603_C_REF_90000_5_1
 70
0
 62
7
  6
CONTINUOUS
370
-3
390
F
  0
LAYER
  5
209
100
AcDbSymbolTableRecord
100
AcDbLayerTableRecord
  2
0603_R_REF_55000
 70
0
 62
7
  6
CONTINUOUS
370
-3
390
F
  0
LAYER
  5
20A
100
AcDbSymbolTableRecord
100
AcDbLayerTableRecord
  2
0603_R_REF_55000_1
 70
0
 62
7
  6
CONTINUOUS
370
-3
390
F
  0
LAYER
  5
20B
100
AcDbSymbolTableRecord
100
AcDbLayerTableRecord
  2
0603_R_REF_55000_1_1
 70
0
 62
7
  6
CONTINUOUS
370
-3
390
F
  0
LAYER
  5
20C
100
AcDbSymbolTableRecord
100
AcDbLayerTableRecord
  2
0603_R_REF_55000_1_2
 70
0
 62
7
  6
CONTINUOUS
370
-3
390
F
  0
LAYER
  5
20D
100
AcDbSymbolTableRecord
100
AcDbLayerTableRecord
  2
0603_R_REF_55000_2
 70
0
 62
7
  6
CONTINUOUS
370
-3
390
F
  0
LAYER
  5
20E
100
AcDbSymbolTableRecord
100
AcDbLayerTableRecord
  2
0603_R_REF_55000_2_1
 70
0
 62
7
  6
CONTINUOUS
370
-3
390
F
  0
LAYER
  5
20F
100
AcDbSymbolTableRecord
100
AcDbLayerTableRecord
  2
0603_R_REF_55000_3
 70
0
 62
7
  6
CONTINUOUS
370
-3
390
F
  0
LAYER
  5
210
100
AcDbSymbolTableRecord
100
AcDbLayerTableRecord
  2
0603_R_REF_55000_3_1
 70
0
 62
7
  6
CONTINUOUS
370
-3
390
F
  0
LAYER
  5
211
100
AcDbSymbolTableRecord
100
AcDbLayerTableRecord
  2
06___PRT_ALL_SURFS
 70
0
 62
7
  6
CONTINUOUS
370
-3
390
F
  0
LAYER
  5
212
100
AcDbSymbolTableRecord
100
AcDbLayerTableRecord
  2
06___PRT_ALL_SURFS_1
 70
0
 62
7
  6
CONTINUOUS
370
-3
390
F
  0
LAYER
  5
213
100
AcDbSymbolTableRecord
100
AcDbLayerTableRecord
  2
06___PRT_ALL_SURFS_17
 70
0
 62
7
  6
CONTINUOUS
370
-3
390
F
  0
LAYER
  5
214
100
AcDbSymbolTableRecord
100
AcDbLayerTableRecord
  2
06___PRT_ALL_SURFS_19
 70
0
 62
7
  6
CONTINUOUS
370
-3
390
F
  0
LAYER
  5
215
100
AcDbSymbolTableRecord
100
AcDbLayerTableRecord
  2
06___PRT_ALL_SURFS_2
 70
0
 62
7
  6
CONTINUOUS
370
-3
390
F
  0
LAYER
  5
216
100
AcDbSymbolTableRecord
100
AcDbLayerTableRecord
  2
06___PRT_ALL_SURFS_21
 70
0
 62
7
  6
CONTINUOUS
370
-3
390
F
  0
LAYER
  5
217
100
AcDbSymbolTableRecord
100
AcDbLayerTableRecord
  2
06___PRT_ALL_SURFS_22
 70
0
 62
7
  6
CONTINUOUS
370
-3
390
F
  0
LAYER
  5
218
100
AcDbSymbolTableRecord
100
AcDbLayerTableRecord
  2
06___PRT_ALL_SURFS_23
 70
0
 62
7
  6
CONTINUOUS
370
-3
390
F
  0
LAYER
  5
219
100
AcDbSymbolTableRecord
100
AcDbLayerTableRecord
  2
06___PRT_ALL_SURFS_24
 70
0
 62
7
  6
CONTINUOUS
370
-3
390
F
  0
LAYER
  5
21A
100
AcDbSymbolTableRecord
100
AcDbLayerTableRecord
  2
06___PRT_ALL_SURFS_4
 70
0
 62
7
  6
CONTINUOUS
370
-3
390
F
  0
LAYER
  5
21B
100
AcDbSymbolTableRecord
100
AcDbLayerTableRecord
  2
06___PRT_ALL_SURFS_5
 70
0
 62
7
  6
CONTINUOUS
370
-3
390
F
  0
LAYER
  5
21C
100
AcDbSymbolTableRecord
100
AcDbLayerTableRecord
  2
06___PRT_ALL_SURFS_6
 70
0
 62
7
  6
CONTINUOUS
370
-3
390
F
  0
LAYER
  5
21D
100
AcDbSymbolTableRecord
100
AcDbLayerTableRecord
  2
06___PRT_ALL_SURFS_7
 70
0
 62
7
  6
CONTINUOUS
370
-3
390
F
  0
LAYER
  5
21E
100
AcDbSymbolTableRecord
100
AcDbLayerTableRecord
  2
0805_C_REF_145000
 70
0
 62
7
  6
CONTINUOUS
370
-3
390
F
  0
LAYER
  5
21F
100
AcDbSymbolTableRecord
100
AcDbLayerTableRecord
  2
0805_C_REF_145000_1
 70
0
 62
7
  6
CONTINUOUS
370
-3
390
F
  0
LAYER
  5
220
100
AcDbSymbolTableRecord
100
AcDbLayerTableRecord
  2
0805_R_REF_60000
 70
0
 62
7
  6
CONTINUOUS
370
-3
390
F
  0
LAYER
  5
221
100
AcDbSymbolTableRecord
100
AcDbLayerTableRecord
  2
0805_R_REF_60000_1
 70
0
 62
7
  6
CONTINUOUS
370
-3
390
F
  0
LAYER
  5
222
100
AcDbSymbolTableRecord
100
AcDbLayerTableRecord
  2
0805_R_REF_60000_2
 70
0
 62
7
  6
CONTINUOUS
370
-3
390
F
  0
LAYER
  5
223
100
AcDbSymbolTableRecord
100
AcDbLayerTableRecord
  2
1206_C_REF_180000
 70
0
 62
7
  6
CONTINUOUS
370
-3
390
F
  0
LAYER
  5
224
100
AcDbSymbolTableRecord
100
AcDbLayerTableRecord
  2
1206_C_REF_180000_1
 70
0
 62
7
  6
CONTINUOUS
370
-3
390
F
  0
LAYER
  5
225
100
AcDbSymbolTableRecord
100
AcDbLayerTableRecord
  2
1206_C_REF_180000_1_2
 70
0
 62
7
  6
CONTINUOUS
370
-3
390
F
  0
LAYER
  5
226
100
AcDbSymbolTableRecord
100
AcDbLayerTableRecord
  2
1206_C_REF_180000_1_3
 70
0
 62
7
  6
CONTINUOUS
370
-3
390
F
  0
LAYER
  5
227
100
AcDbSymbolTableRecord
100
AcDbLayerTableRecord
  2
1206_C_REF_180000_2_2
 70
0
 62
7
  6
CONTINUOUS
370
-3
390
F
  0
LAYER
  5
228
100
AcDbSymbolTableRecord
100
AcDbLayerTableRecord
  2
1206_C_REF_180000_2_3
 70
0
 62
7
  6
CONTINUOUS
370
-3
390
F
  0
LAYER
  5
229
100
AcDbSymbolTableRecord
100
AcDbLayerTableRecord
  2
1206_R_REF_65000
 70
0
 62
7
  6
CONTINUOUS
370
-3
390
F
  0
LAYER
  5
22A
100
AcDbSymbolTableRecord
100
AcDbLayerTableRecord
  2
1206_R_REF_65000_1
 70
0
 62
7
  6
CONTINUOUS
370
-3
390
F
  0
LAYER
  5
22B
100
AcDbSymbolTableRecord
100
AcDbLayerTableRecord
  2
1206_R_REF_65000_1_1
 70
0
 62
7
  6
CONTINUOUS
370
-3
390
F
  0
LAYER
  5
22C
100
AcDbSymbolTableRecord
100
AcDbLayerTableRecord
  2
1206_R_REF_65000_1_2
 70
0
 62
7
  6
CONTINUOUS
370
-3
390
F
  0
LAYER
  5
22D
100
AcDbSymbolTableRecord
100
AcDbLayerTableRecord
  2
1206_R_REF_65000_2
 70
0
 62
7
  6
CONTINUOUS
370
-3
390
F
  0
LAYER
  5
22E
100
AcDbSymbolTableRecord
100
AcDbLayerTableRecord
  2
1206_R_REF_65000_2_1
 70
0
 62
7
  6
CONTINUOUS
370
-3
390
F
  0
LAYER
  5
22F
100
AcDbSymbolTableRecord
100
AcDbLayerTableRecord
  2
1210_R_H1_REF_100000
 70
0
 62
7
  6
CONTINUOUS
370
-3
390
F
  0
LAYER
  5
230
100
AcDbSymbolTableRecord
100
AcDbLayerTableRecord
  2
1210_R_H1_REF_100000_1
 70
0
 62
7
  6
CONTINUOUS
370
-3
390
F
  0
LAYER
  5
231
100
AcDbSymbolTableRecord
100
AcDbLayerTableRecord
  2
2125-R1-RF-VIMAR_60000
 70
0
 62
7
  6
CONTINUOUS
370
-3
390
F
  0
LAYER
  5
232
100
AcDbSymbolTableRecord
100
AcDbLayerTableRecord
  2
43000943A0
 70
0
 62
7
  6
CONTINUOUS
370
-3
390
F
  0
LAYER
  5
233
100
AcDbSymbolTableRecord
100
AcDbLayerTableRecord
  2
43000943B0
 70
0
 62
7
  6
CONTINUOUS
370
-3
390
F
  0
LAYER
  5
234
100
AcDbSymbolTableRecord
100
AcDbLayerTableRecord
  2
43000943D0
 70
0
 62
7
  6
CONTINUOUS
370
-3
390
F
  0
LAYER
  5
235
100
AcDbSymbolTableRecord
100
AcDbLayerTableRecord
  2
43001021B0
 70
0
 62
7
  6
CONTINUOUS
370
-3
390
F
  0
LAYER
  5
236
100
AcDbSymbolTableRecord
100
AcDbLayerTableRecord
  2
ASSI
 70
0
 62
7
  6
CONTINUOUS
370
-3
390
F
  0
LAYER
  5
237
100
AcDbSymbolTableRecord
100
AcDbLayerTableRecord
  2
CAP-E-5_0-9_0-2_5_950000
 70
0
 62
7
  6
CONTINUOUS
370
-3
390
F
  0
LAYER
  5
238
100
AcDbSymbolTableRecord
100
AcDbLayerTableRecord
  2
CAP-E-6_3-11-2_5_1120000
 70
0
 62
7
  6
CONTINUOUS
370
-3
390
F
  0
LAYER
  5
239
100
AcDbSymbolTableRecord
100
AcDbLayerTableRecord
  2
CAP-E-6_3-11-2_5_1120000_1
 70
0
 62
7
  6
CONTINUOUS
370
-3
390
F
  0
LAYER
  5
23A
100
AcDbSymbolTableRecord
100
AcDbLayerTableRecord
  2
CAP-RND-8_0-12_5-7_0-10_0-0_0_1
 70
0
 62
7
  6
CONTINUOUS
370
-3
390
F
  0
LAYER
  5
23B
100
AcDbSymbolTableRecord
100
AcDbLayerTableRecord
  2
CAP-RND-8_0-12_5-7_0-10_0-0_0_2
 70
0
 62
7
  6
CONTINUOUS
370
-3
390
F
  0
LAYER
  5
23C
100
AcDbSymbolTableRecord
100
AcDbLayerTableRecord
  2
CN_STH_USB_TYPE-C_24P_90_SHORT
 70
0
 62
7
  6
CONTINUOUS
370
-3
390
F
  0
LAYER
  5
23D
100
AcDbSymbolTableRecord
100
AcDbLayerTableRecord
  2
COLOR16
 70
0
 62
7
  6
CONTINUOUS
370
-3
390
F
  0
LAYER
  5
23E
100
AcDbSymbolTableRecord
100
AcDbLayerTableRecord
  2
COLOR17
 70
0
 62
7
  6
CONTINUOUS
370
-3
390
F
  0
LAYER
  5
23F
100
AcDbSymbolTableRecord
100
AcDbLayerTableRecord
  2
COLOR26
 70
0
 62
7
  6
CONTINUOUS
370
-3
390
F
  0
LAYER
  5
240
100
AcDbSymbolTableRecord
100
AcDbLayerTableRecord
  2
COLOR27
 70
0
 62
7
  6
CONTINUOUS
370
-3
390
F
  0
LAYER
  5
241
100
AcDbSymbolTableRecord
100
AcDbLayerTableRecord
  2
COLOR28
 70
0
 62
7
  6
CONTINUOUS
370
-3
390
F
  0
LAYER
  5
242
100
AcDbSymbolTableRecord
100
AcDbLayerTableRecord
  2
COLOR32
 70
0
 62
7
  6
CONTINUOUS
370
-3
390
F
  0
LAYER
  5
243
100
AcDbSymbolTableRecord
100
AcDbLayerTableRecord
  2
COLOR34
 70
0
 62
7
  6
CONTINUOUS
370
-3
390
F
  0
LAYER
  5
244
100
AcDbSymbolTableRecord
100
AcDbLayerTableRecord
  2
COLOR36
 70
0
 62
7
  6
CONTINUOUS
370
-3
390
F
  0
LAYER
  5
245
100
AcDbSymbolTableRecord
100
AcDbLayerTableRecord
  2
COLOR37
 70
0
 62
7
  6
CONTINUOUS
370
-3
390
F
  0
LAYER
  5
246
100
AcDbSymbolTableRecord
100
AcDbLayerTableRecord
  2
COLOR40
 70
0
 62
7
  6
CONTINUOUS
370
-3
390
F
  0
LAYER
  5
247
100
AcDbSymbolTableRecord
100
AcDbLayerTableRecord
  2
COLOR42
 70
0
 62
7
  6
CONTINUOUS
370
-3
390
F
  0
LAYER
  5
248
100
AcDbSymbolTableRecord
100
AcDbLayerTableRecord
  2
COLOR44
 70
0
 62
7
  6
CONTINUOUS
370
-3
390
F
  0
LAYER
  5
249
100
AcDbSymbolTableRecord
100
AcDbLayerTableRecord
  2
COLOR45
 70
0
 62
7
  6
CONTINUOUS
370
-3
390
F
  0
LAYER
  5
24A
100
AcDbSymbolTableRecord
100
AcDbLayerTableRecord
  2
COLOR46
 70
0
 62
7
  6
CONTINUOUS
370
-3
390
F
  0
LAYER
  5
24B
100
AcDbSymbolTableRecord
100
AcDbLayerTableRecord
  2
COLOR47
 70
0
 62
7
  6
CONTINUOUS
370
-3
390
F
  0
LAYER
  5
24C
100
AcDbSymbolTableRecord
100
AcDbLayerTableRecord
  2
COLOR53
 70
0
 62
7
  6
CONTINUOUS
370
-3
390
F
  0
LAYER
  5
24D
100
AcDbSymbolTableRecord
100
AcDbLayerTableRecord
  2
COLOR56
 70
0
 62
7
  6
CONTINUOUS
370
-3
390
F
  0
LAYER
  5
24E
100
AcDbSymbolTableRecord
100
AcDbLayerTableRecord
  2
COLOR57
 70
0
 62
7
  6
CONTINUOUS
370
-3
390
F
  0
LAYER
  5
24F
100
AcDbSymbolTableRecord
100
AcDbLayerTableRecord
  2
COLOR6
 70
0
 62
7
  6
CONTINUOUS
370
-3
390
F
  0
LAYER
  5
250
100
AcDbSymbolTableRecord
100
AcDbLayerTableRecord
  2
COLOR7
 70
0
 62
7
  6
CONTINUOUS
370
-3
390
F
  0
LAYER
  5
251
100
AcDbSymbolTableRecord
100
AcDbLayerTableRecord
  2
COORDINATE
 70
0
 62
7
  6
CONTINUOUS
370
-3
390
F
  0
LAYER
  5
252
100
AcDbSymbolTableRecord
100
AcDbLayerTableRecord
  2
COORD_ORIGINE
 70
0
 62
7
  6
CONTINUOUS
370
-3
390
F
  0
LAYER
  5
253
100
AcDbSymbolTableRecord
100
AcDbLayerTableRecord
  2
COPY_PUBLISH
 70
0
 62
7
  6
CONTINUOUS
370
-3
390
F
  0
LAYER
  5
254
100
AcDbSymbolTableRecord
100
AcDbLayerTableRecord
  2
COSMETICI
 70
0
 62
7
  6
CONTINUOUS
370
-3
390
F
  0
LAYER
  5
255
100
AcDbSymbolTableRecord
100
AcDbLayerTableRecord
  2
CR_MR2P5_MSB_SW_PTH_1000000
 70
0
 62
7
  6
CONTINUOUS
370
-3
390
F
  0
LAYER
  5
256
100
AcDbSymbolTableRecord
100
AcDbLayerTableRecord
  2
CURVE
 70
0
 62
7
  6
CONTINUOUS
370
-3
390
F
  0
LAYER
  5
257
100
AcDbSymbolTableRecord
100
AcDbLayerTableRecord
  2
DRAFT
 70
0
 62
7
  6
CONTINUOUS
370
-3
390
F
  0
LAYER
  5
258
100
AcDbSymbolTableRecord
100
AcDbLayerTableRecord
  2
E2_MARK_10000
 70
0
 62
7
  6
CONTINUOUS
370
-3
390
F
  0
LAYER
  5
259
100
AcDbSymbolTableRecord
100
AcDbLayerTableRecord
  2
E2_MARK_10000_1
 70
0
 62
7
  6
CONTINUOUS
370
-3
390
F
  0
LAYER
  5
25A
100
AcDbSymbolTableRecord
100
AcDbLayerTableRecord
  2
E2_MARK_10000_2
 70
0
 62
7
  6
CONTINUOUS
370
-3
390
F
  0
LAYER
  5
25B
100
AcDbSymbolTableRecord
100
AcDbLayerTableRecord
  2
FIDUCIAL_1_2_MM_RUOTATO_45_1000
 70
0
 62
7
  6
CONTINUOUS
370
-3
390
F
  0
LAYER
  5
25C
100
AcDbSymbolTableRecord
100
AcDbLayerTableRecord
  2
FIDUCIAL_1_2_MM_RUOTATO_45_100_
 70
0
 62
7
  6
CONTINUOUS
370
-3
390
F
  0
LAYER
  5
25D
100
AcDbSymbolTableRecord
100
AcDbLayerTableRecord
  2
FIDUCIAL_1_2_MM_RUOTATO_45_10_1
 70
0
 62
7
  6
CONTINUOUS
370
-3
390
F
  0
LAYER
  5
25E
100
AcDbSymbolTableRecord
100
AcDbLayerTableRecord
  2
FIDUCIAL_1_2_MM_RUOTATO_45_10_2
 70
0
 62
7
  6
CONTINUOUS
370
-3
390
F
  0
LAYER
  5
25F
100
AcDbSymbolTableRecord
100
AcDbLayerTableRecord
  2
FIDUCIAL_1_2_MM_RUOTATO_45_10_3
 70
0
 62
7
  6
CONTINUOUS
370
-3
390
F
  0
LAYER
  5
260
100
AcDbSymbolTableRecord
100
AcDbLayerTableRecord
  2
FIDUCIAL_1_2_MM_RUOTATO_45_10__
 70
0
 62
7
  6
CONTINUOUS
370
-3
390
F
  0
LAYER
  5
261
100
AcDbSymbolTableRecord
100
AcDbLayerTableRecord
  2
GEOMETRIA_SOLIDA
 70
0
 62
7
  6
CONTINUOUS
370
-3
390
F
  0
LAYER
  5
262
100
AcDbSymbolTableRecord
100
AcDbLayerTableRecord
  2
GEOMETRIA_SOLIDA_1
 70
0
 62
7
  6
CONTINUOUS
370
-3
390
F
  0
LAYER
  5
263
100
AcDbSymbolTableRecord
100
AcDbLayerTableRecord
  2
GEOMETRIA_SOLIDA_1_1
 70
0
 62
7
  6
CONTINUOUS
370
-3
390
F
  0
LAYER
  5
264
100
AcDbSymbolTableRecord
100
AcDbLayerTableRecord
  2
GEOMETRIA_SOLIDA_1_2
 70
0
 62
7
  6
CONTINUOUS
370
-3
390
F
  0
LAYER
  5
265
100
AcDbSymbolTableRecord
100
AcDbLayerTableRecord
  2
GEOMETRIA_SOLIDA_2
 70
0
 62
7
  6
CONTINUOUS
370
-3
390
F
  0
LAYER
  5
266
100
AcDbSymbolTableRecord
100
AcDbLayerTableRecord
  2
GEOMETRIA_SOLIDA_3
 70
0
 62
7
  6
CONTINUOUS
370
-3
390
F
  0
LAYER
  5
267
100
AcDbSymbolTableRecord
100
AcDbLayerTableRecord
  2
IMPORT
 70
0
 62
7
  6
CONTINUOUS
370
-3
390
F
  0
LAYER
  5
268
100
AcDbSymbolTableRecord
100
AcDbLayerTableRecord
  2
IMPORT_IGES
 70
0
 62
7
  6
CONTINUOUS
370
-3
390
F
  0
LAYER
  5
269
100
AcDbSymbolTableRecord
100
AcDbLayerTableRecord
  2
IND-RAD-7_8-9_5-5_0-0_7_950000
 70
0
 62
7
  6
CONTINUOUS
370
-3
390
F
  0
LAYER
  5
26A
100
AcDbSymbolTableRecord
100
AcDbLayerTableRecord
  2
INTFCLR_17071
 70
0
 62
7
  6
CONTINUOUS
370
-3
390
F
  0
LAYER
  5
26B
100
AcDbSymbolTableRecord
100
AcDbLayerTableRecord
  2
INTFCLR_22671
 70
0
 62
7
  6
CONTINUOUS
370
-3
390
F
  0
LAYER
  5
26C
100
AcDbSymbolTableRecord
100
AcDbLayerTableRecord
  2
INTFCLR_22853
 70
0
 62
7
  6
CONTINUOUS
370
-3
390
F
  0
LAYER
  5
26D
100
AcDbSymbolTableRecord
100
AcDbLayerTableRecord
  2
INTFCLR_23215
 70
0
 62
7
  6
CONTINUOUS
370
-3
390
F
  0
LAYER
  5
26E
100
AcDbSymbolTableRecord
100
AcDbLayerTableRecord
  2
INTFCLR_23397
 70
0
 62
7
  6
CONTINUOUS
370
-3
390
F
  0
LAYER
  5
26F
100
AcDbSymbolTableRecord
100
AcDbLayerTableRecord
  2
INTFCLR_3
 70
0
 62
7
  6
CONTINUOUS
370
-3
390
F
  0
LAYER
  5
270
100
AcDbSymbolTableRecord
100
AcDbLayerTableRecord
  2
INTFCLR_30785
 70
0
 62
7
  6
CONTINUOUS
370
-3
390
F
  0
LAYER
  5
271
100
AcDbSymbolTableRecord
100
AcDbLayerTableRecord
  2
INTFCLR_31339
 70
0
 62
7
  6
CONTINUOUS
370
-3
390
F
  0
LAYER
  5
272
100
AcDbSymbolTableRecord
100
AcDbLayerTableRecord
  2
INTFCLR_31521
 70
0
 62
7
  6
CONTINUOUS
370
-3
390
F
  0
LAYER
  5
273
100
AcDbSymbolTableRecord
100
AcDbLayerTableRecord
  2
INTFCLR_33
 70
0
 62
7
  6
CONTINUOUS
370
-3
390
F
  0
LAYER
  5
274
100
AcDbSymbolTableRecord
100
AcDbLayerTableRecord
  2
INTFCLR_8687
 70
0
 62
7
  6
CONTINUOUS
370
-3
390
F
  0
LAYER
  5
275
100
AcDbSymbolTableRecord
100
AcDbLayerTableRecord
  2
INTFCLR_8913
 70
0
 62
7
  6
CONTINUOUS
370
-3
390
F
  0
LAYER
  5
276
100
AcDbSymbolTableRecord
100
AcDbLayerTableRecord
  2
INTFCLR_9095
 70
0
 62
7
  6
CONTINUOUS
370
-3
390
F
  0
LAYER
  5
277
100
AcDbSymbolTableRecord
100
AcDbLayerTableRecord
  2
INTF_1
 70
0
 62
7
  6
CONTINUOUS
370
-3
390
F
  0
LAYER
  5
278
100
AcDbSymbolTableRecord
100
AcDbLayerTableRecord
  2
INTF_11
 70
0
 62
7
  6
CONTINUOUS
370
-3
390
F
  0
LAYER
  5
279
100
AcDbSymbolTableRecord
100
AcDbLayerTableRecord
  2
INTF_2
 70
0
 62
7
  6
CONTINUOUS
370
-3
390
F
  0
LAYER
  5
27A
100
AcDbSymbolTableRecord
100
AcDbLayerTableRecord
  2
INTF_8
 70
0
 62
7
  6
CONTINUOUS
370
-3
390
F
  0
LAYER
  5
27B
100
AcDbSymbolTableRecord
100
AcDbLayerTableRecord
  2
INTF_BLANK
 70
0
 62
7
  6
CONTINUOUS
370
-3
390
F
  0
LAYER
  5
27C
100
AcDbSymbolTableRecord
100
AcDbLayerTableRecord
  2
INTF_GREEN
 70
0
 62
7
  6
CONTINUOUS
370
-3
390
F
  0
LAYER
  5
27D
100
AcDbSymbolTableRecord
100
AcDbLayerTableRecord
  2
LIVELLO_1
 70
0
 62
7
  6
CONTINUOUS
370
-3
390
F
  0
LAYER
  5
27E
100
AcDbSymbolTableRecord
100
AcDbLayerTableRecord
  2
LOGO_RESIST-RESTYLING_10000
 70
0
 62
7
  6
CONTINUOUS
370
-3
390
F
  0
LAYER
  5
27F
100
AcDbSymbolTableRecord
100
AcDbLayerTableRecord
  2
MSBR-1
 70
0
 62
7
  6
CONTINUOUS
370
-3
390
F
  0
LAYER
  5
280
100
AcDbSymbolTableRecord
100
AcDbLayerTableRecord
  2
MSBR-10
 70
0
 62
7
  6
CONTINUOUS
370
-3
390
F
  0
LAYER
  5
281
100
AcDbSymbolTableRecord
100
AcDbLayerTableRecord
  2
MSBR-10_1
 70
0
 62
7
  6
CONTINUOUS
370
-3
390
F
  0
LAYER
  5
282
100
AcDbSymbolTableRecord
100
AcDbLayerTableRecord
  2
MSBR-10_1_1
 70
0
 62
7
  6
CONTINUOUS
370
-3
390
F
  0
LAYER
  5
283
100
AcDbSymbolTableRecord
100
AcDbLayerTableRecord
  2
MSBR-11
 70
0
 62
7
  6
CONTINUOUS
370
-3
390
F
  0
LAYER
  5
284
100
AcDbSymbolTableRecord
100
AcDbLayerTableRecord
  2
MSBR-11_1
 70
0
 62
7
  6
CONTINUOUS
370
-3
390
F
  0
LAYER
  5
285
100
AcDbSymbolTableRecord
100
AcDbLayerTableRecord
  2
MSBR-11_1_1
 70
0
 62
7
  6
CONTINUOUS
370
-3
390
F
  0
LAYER
  5
286
100
AcDbSymbolTableRecord
100
AcDbLayerTableRecord
  2
MSBR-12
 70
0
 62
7
  6
CONTINUOUS
370
-3
390
F
  0
LAYER
  5
287
100
AcDbSymbolTableRecord
100
AcDbLayerTableRecord
  2
MSBR-12_1_1
 70
0
 62
7
  6
CONTINUOUS
370
-3
390
F
  0
LAYER
  5
288
100
AcDbSymbolTableRecord
100
AcDbLayerTableRecord
  2
MSBR-13
 70
0
 62
7
  6
CONTINUOUS
370
-3
390
F
  0
LAYER
  5
289
100
AcDbSymbolTableRecord
100
AcDbLayerTableRecord
  2
MSBR-13_1
 70
0
 62
7
  6
CONTINUOUS
370
-3
390
F
  0
LAYER
  5
28A
100
AcDbSymbolTableRecord
100
AcDbLayerTableRecord
  2
MSBR-13_1_1
 70
0
 62
7
  6
CONTINUOUS
370
-3
390
F
  0
LAYER
  5
28B
100
AcDbSymbolTableRecord
100
AcDbLayerTableRecord
  2
MSBR-14
 70
0
 62
7
  6
CONTINUOUS
370
-3
390
F
  0
LAYER
  5
28C
100
AcDbSymbolTableRecord
100
AcDbLayerTableRecord
  2
MSBR-14_1
 70
0
 62
7
  6
CONTINUOUS
370
-3
390
F
  0
LAYER
  5
28D
100
AcDbSymbolTableRecord
100
AcDbLayerTableRecord
  2
MSBR-14_1_1
 70
0
 62
7
  6
CONTINUOUS
370
-3
390
F
  0
LAYER
  5
28E
100
AcDbSymbolTableRecord
100
AcDbLayerTableRecord
  2
MSBR-15
 70
0
 62
7
  6
CONTINUOUS
370
-3
390
F
  0
LAYER
  5
28F
100
AcDbSymbolTableRecord
100
AcDbLayerTableRecord
  2
MSBR-15_1_1
 70
0
 62
7
  6
CONTINUOUS
370
-3
390
F
  0
LAYER
  5
290
100
AcDbSymbolTableRecord
100
AcDbLayerTableRecord
  2
MSBR-16
 70
0
 62
7
  6
CONTINUOUS
370
-3
390
F
  0
LAYER
  5
291
100
AcDbSymbolTableRecord
100
AcDbLayerTableRecord
  2
MSBR-16_1_1
 70
0
 62
7
  6
CONTINUOUS
370
-3
390
F
  0
LAYER
  5
292
100
AcDbSymbolTableRecord
100
AcDbLayerTableRecord
  2
MSBR-17
 70
0
 62
7
  6
CONTINUOUS
370
-3
390
F
  0
LAYER
  5
293
100
AcDbSymbolTableRecord
100
AcDbLayerTableRecord
  2
MSBR-17_1_1
 70
0
 62
7
  6
CONTINUOUS
370
-3
390
F
  0
LAYER
  5
294
100
AcDbSymbolTableRecord
100
AcDbLayerTableRecord
  2
MSBR-18
 70
0
 62
7
  6
CONTINUOUS
370
-3
390
F
  0
LAYER
  5
295
100
AcDbSymbolTableRecord
100
AcDbLayerTableRecord
  2
MSBR-18_1
 70
0
 62
7
  6
CONTINUOUS
370
-3
390
F
  0
LAYER
  5
296
100
AcDbSymbolTableRecord
100
AcDbLayerTableRecord
  2
MSBR-18_1_1
 70
0
 62
7
  6
CONTINUOUS
370
-3
390
F
  0
LAYER
  5
297
100
AcDbSymbolTableRecord
100
AcDbLayerTableRecord
  2
MSBR-19
 70
0
 62
7
  6
CONTINUOUS
370
-3
390
F
  0
LAYER
  5
298
100
AcDbSymbolTableRecord
100
AcDbLayerTableRecord
  2
MSBR-19_1
 70
0
 62
7
  6
CONTINUOUS
370
-3
390
F
  0
LAYER
  5
299
100
AcDbSymbolTableRecord
100
AcDbLayerTableRecord
  2
MSBR-19_1_1
 70
0
 62
7
  6
CONTINUOUS
370
-3
390
F
  0
LAYER
  5
29A
100
AcDbSymbolTableRecord
100
AcDbLayerTableRecord
  2
MSBR-1_1
 70
0
 62
7
  6
CONTINUOUS
370
-3
390
F
  0
LAYER
  5
29B
100
AcDbSymbolTableRecord
100
AcDbLayerTableRecord
  2
MSBR-1_1_1
 70
0
 62
7
  6
CONTINUOUS
370
-3
390
F
  0
LAYER
  5
29C
100
AcDbSymbolTableRecord
100
AcDbLayerTableRecord
  2
MSBR-2
 70
0
 62
7
  6
CONTINUOUS
370
-3
390
F
  0
LAYER
  5
29D
100
AcDbSymbolTableRecord
100
AcDbLayerTableRecord
  2
MSBR-20
 70
0
 62
7
  6
CONTINUOUS
370
-3
390
F
  0
LAYER
  5
29E
100
AcDbSymbolTableRecord
100
AcDbLayerTableRecord
  2
MSBR-20_1
 70
0
 62
7
  6
CONTINUOUS
370
-3
390
F
  0
LAYER
  5
29F
100
AcDbSymbolTableRecord
100
AcDbLayerTableRecord
  2
MSBR-20_1_1
 70
0
 62
7
  6
CONTINUOUS
370
-3
390
F
  0
LAYER
  5
2A0
100
AcDbSymbolTableRecord
100
AcDbLayerTableRecord
  2
MSBR-21
 70
0
 62
7
  6
CONTINUOUS
370
-3
390
F
  0
LAYER
  5
2A1
100
AcDbSymbolTableRecord
100
AcDbLayerTableRecord
  2
MSBR-21_1
 70
0
 62
7
  6
CONTINUOUS
370
-3
390
F
  0
LAYER
  5
2A2
100
AcDbSymbolTableRecord
100
AcDbLayerTableRecord
  2
MSBR-21_1_1
 70
0
 62
7
  6
CONTINUOUS
370
-3
390
F
  0
LAYER
  5
2A3
100
AcDbSymbolTableRecord
100
AcDbLayerTableRecord
  2
MSBR-22
 70
0
 62
7
  6
CONTINUOUS
370
-3
390
F
  0
LAYER
  5
2A4
100
AcDbSymbolTableRecord
100
AcDbLayerTableRecord
  2
MSBR-22_1_1
 70
0
 62
7
  6
CONTINUOUS
370
-3
390
F
  0
LAYER
  5
2A5
100
AcDbSymbolTableRecord
100
AcDbLayerTableRecord
  2
MSBR-23
 70
0
 62
7
  6
CONTINUOUS
370
-3
390
F
  0
LAYER
  5
2A6
100
AcDbSymbolTableRecord
100
AcDbLayerTableRecord
  2
MSBR-23_1
 70
0
 62
7
  6
CONTINUOUS
370
-3
390
F
  0
LAYER
  5
2A7
100
AcDbSymbolTableRecord
100
AcDbLayerTableRecord
  2
MSBR-23_1_1
 70
0
 62
7
  6
CONTINUOUS
370
-3
390
F
  0
LAYER
  5
2A8
100
AcDbSymbolTableRecord
100
AcDbLayerTableRecord
  2
MSBR-24
 70
0
 62
7
  6
CONTINUOUS
370
-3
390
F
  0
LAYER
  5
2A9
100
AcDbSymbolTableRecord
100
AcDbLayerTableRecord
  2
MSBR-24_1_1
 70
0
 62
7
  6
CONTINUOUS
370
-3
390
F
  0
LAYER
  5
2AA
100
AcDbSymbolTableRecord
100
AcDbLayerTableRecord
  2
MSBR-25
 70
0
 62
7
  6
CONTINUOUS
370
-3
390
F
  0
LAYER
  5
2AB
100
AcDbSymbolTableRecord
100
AcDbLayerTableRecord
  2
MSBR-25_1
 70
0
 62
7
  6
CONTINUOUS
370
-3
390
F
  0
LAYER
  5
2AC
100
AcDbSymbolTableRecord
100
AcDbLayerTableRecord
  2
MSBR-25_1_1
 70
0
 62
7
  6
CONTINUOUS
370
-3
390
F
  0
LAYER
  5
2AD
100
AcDbSymbolTableRecord
100
AcDbLayerTableRecord
  2
MSBR-26
 70
0
 62
7
  6
CONTINUOUS
370
-3
390
F
  0
LAYER
  5
2AE
100
AcDbSymbolTableRecord
100
AcDbLayerTableRecord
  2
MSBR-26_1
 70
0
 62
7
  6
CONTINUOUS
370
-3
390
F
  0
LAYER
  5
2AF
100
AcDbSymbolTableRecord
100
AcDbLayerTableRecord
  2
MSBR-26_1_1
 70
0
 62
7
  6
CONTINUOUS
370
-3
390
F
  0
LAYER
  5
2B0
100
AcDbSymbolTableRecord
100
AcDbLayerTableRecord
  2
MSBR-27
 70
0
 62
7
  6
CONTINUOUS
370
-3
390
F
  0
LAYER
  5
2B1
100
AcDbSymbolTableRecord
100
AcDbLayerTableRecord
  2
MSBR-27_1
 70
0
 62
7
  6
CONTINUOUS
370
-3
390
F
  0
LAYER
  5
2B2
100
AcDbSymbolTableRecord
100
AcDbLayerTableRecord
  2
MSBR-27_1_1
 70
0
 62
7
  6
CONTINUOUS
370
-3
390
F
  0
LAYER
  5
2B3
100
AcDbSymbolTableRecord
100
AcDbLayerTableRecord
  2
MSBR-28
 70
0
 62
7
  6
CONTINUOUS
370
-3
390
F
  0
LAYER
  5
2B4
100
AcDbSymbolTableRecord
100
AcDbLayerTableRecord
  2
MSBR-28_1
 70
0
 62
7
  6
CONTINUOUS
370
-3
390
F
  0
LAYER
  5
2B5
100
AcDbSymbolTableRecord
100
AcDbLayerTableRecord
  2
MSBR-28_1_1
 70
0
 62
7
  6
CONTINUOUS
370
-3
390
F
  0
LAYER
  5
2B6
100
AcDbSymbolTableRecord
100
AcDbLayerTableRecord
  2
MSBR-29
 70
0
 62
7
  6
CONTINUOUS
370
-3
390
F
  0
LAYER
  5
2B7
100
AcDbSymbolTableRecord
100
AcDbLayerTableRecord
  2
MSBR-29_1
 70
0
 62
7
  6
CONTINUOUS
370
-3
390
F
  0
LAYER
  5
2B8
100
AcDbSymbolTableRecord
100
AcDbLayerTableRecord
  2
MSBR-29_1_1
 70
0
 62
7
  6
CONTINUOUS
370
-3
390
F
  0
LAYER
  5
2B9
100
AcDbSymbolTableRecord
100
AcDbLayerTableRecord
  2
MSBR-2_1
 70
0
 62
7
  6
CONTINUOUS
370
-3
390
F
  0
LAYER
  5
2BA
100
AcDbSymbolTableRecord
100
AcDbLayerTableRecord
  2
MSBR-2_1_1
 70
0
 62
7
  6
CONTINUOUS
370
-3
390
F
  0
LAYER
  5
2BB
100
AcDbSymbolTableRecord
100
AcDbLayerTableRecord
  2
MSBR-3
 70
0
 62
7
  6
CONTINUOUS
370
-3
390
F
  0
LAYER
  5
2BC
100
AcDbSymbolTableRecord
100
AcDbLayerTableRecord
  2
MSBR-30
 70
0
 62
7
  6
CONTINUOUS
370
-3
390
F
  0
LAYER
  5
2BD
100
AcDbSymbolTableRecord
100
AcDbLayerTableRecord
  2
MSBR-30_1
 70
0
 62
7
  6
CONTINUOUS
370
-3
390
F
  0
LAYER
  5
2BE
100
AcDbSymbolTableRecord
100
AcDbLayerTableRecord
  2
MSBR-30_1_1
 70
0
 62
7
  6
CONTINUOUS
370
-3
390
F
  0
LAYER
  5
2BF
100
AcDbSymbolTableRecord
100
AcDbLayerTableRecord
  2
MSBR-31
 70
0
 62
7
  6
CONTINUOUS
370
-3
390
F
  0
LAYER
  5
2C0
100
AcDbSymbolTableRecord
100
AcDbLayerTableRecord
  2
MSBR-31_1_1
 70
0
 62
7
  6
CONTINUOUS
370
-3
390
F
  0
LAYER
  5
2C1
100
AcDbSymbolTableRecord
100
AcDbLayerTableRecord
  2
MSBR-32
 70
0
 62
7
  6
CONTINUOUS
370
-3
390
F
  0
LAYER
  5
2C2
100
AcDbSymbolTableRecord
100
AcDbLayerTableRecord
  2
MSBR-32_1_1
 70
0
 62
7
  6
CONTINUOUS
370
-3
390
F
  0
LAYER
  5
2C3
100
AcDbSymbolTableRecord
100
AcDbLayerTableRecord
  2
MSBR-33
 70
0
 62
7
  6
CONTINUOUS
370
-3
390
F
  0
LAYER
  5
2C4
100
AcDbSymbolTableRecord
100
AcDbLayerTableRecord
  2
MSBR-33_1
 70
0
 62
7
  6
CONTINUOUS
370
-3
390
F
  0
LAYER
  5
2C5
100
AcDbSymbolTableRecord
100
AcDbLayerTableRecord
  2
MSBR-33_1_1
 70
0
 62
7
  6
CONTINUOUS
370
-3
390
F
  0
LAYER
  5
2C6
100
AcDbSymbolTableRecord
100
AcDbLayerTableRecord
  2
MSBR-34
 70
0
 62
7
  6
CONTINUOUS
370
-3
390
F
  0
LAYER
  5
2C7
100
AcDbSymbolTableRecord
100
AcDbLayerTableRecord
  2
MSBR-34_1
 70
0
 62
7
  6
CONTINUOUS
370
-3
390
F
  0
LAYER
  5
2C8
100
AcDbSymbolTableRecord
100
AcDbLayerTableRecord
  2
MSBR-34_1_1
 70
0
 62
7
  6
CONTINUOUS
370
-3
390
F
  0
LAYER
  5
2C9
100
AcDbSymbolTableRecord
100
AcDbLayerTableRecord
  2
MSBR-35
 70
0
 62
7
  6
CONTINUOUS
370
-3
390
F
  0
LAYER
  5
2CA
100
AcDbSymbolTableRecord
100
AcDbLayerTableRecord
  2
MSBR-35_1_1
 70
0
 62
7
  6
CONTINUOUS
370
-3
390
F
  0
LAYER
  5
2CB
100
AcDbSymbolTableRecord
100
AcDbLayerTableRecord
  2
MSBR-36
 70
0
 62
7
  6
CONTINUOUS
370
-3
390
F
  0
LAYER
  5
2CC
100
AcDbSymbolTableRecord
100
AcDbLayerTableRecord
  2
MSBR-36_1
 70
0
 62
7
  6
CONTINUOUS
370
-3
390
F
  0
LAYER
  5
2CD
100
AcDbSymbolTableRecord
100
AcDbLayerTableRecord
  2
MSBR-36_1_1
 70
0
 62
7
  6
CONTINUOUS
370
-3
390
F
  0
LAYER
  5
2CE
100
AcDbSymbolTableRecord
100
AcDbLayerTableRecord
  2
MSBR-37
 70
0
 62
7
  6
CONTINUOUS
370
-3
390
F
  0
LAYER
  5
2CF
100
AcDbSymbolTableRecord
100
AcDbLayerTableRecord
  2
MSBR-37_1_1
 70
0
 62
7
  6
CONTINUOUS
370
-3
390
F
  0
LAYER
  5
2D0
100
AcDbSymbolTableRecord
100
AcDbLayerTableRecord
  2
MSBR-38
 70
0
 62
7
  6
CONTINUOUS
370
-3
390
F
  0
LAYER
  5
2D1
100
AcDbSymbolTableRecord
100
AcDbLayerTableRecord
  2
MSBR-38_1
 70
0
 62
7
  6
CONTINUOUS
370
-3
390
F
  0
LAYER
  5
2D2
100
AcDbSymbolTableRecord
100
AcDbLayerTableRecord
  2
MSBR-38_1_1
 70
0
 62
7
  6
CONTINUOUS
370
-3
390
F
  0
LAYER
  5
2D3
100
AcDbSymbolTableRecord
100
AcDbLayerTableRecord
  2
MSBR-39
 70
0
 62
7
  6
CONTINUOUS
370
-3
390
F
  0
LAYER
  5
2D4
100
AcDbSymbolTableRecord
100
AcDbLayerTableRecord
  2
MSBR-39_1
 70
0
 62
7
  6
CONTINUOUS
370
-3
390
F
  0
LAYER
  5
2D5
100
AcDbSymbolTableRecord
100
AcDbLayerTableRecord
  2
MSBR-39_1_1
 70
0
 62
7
  6
CONTINUOUS
370
-3
390
F
  0
LAYER
  5
2D6
100
AcDbSymbolTableRecord
100
AcDbLayerTableRecord
  2
MSBR-3_1
 70
0
 62
7
  6
CONTINUOUS
370
-3
390
F
  0
LAYER
  5
2D7
100
AcDbSymbolTableRecord
100
AcDbLayerTableRecord
  2
MSBR-3_1_1
 70
0
 62
7
  6
CONTINUOUS
370
-3
390
F
  0
LAYER
  5
2D8
100
AcDbSymbolTableRecord
100
AcDbLayerTableRecord
  2
MSBR-4
 70
0
 62
7
  6
CONTINUOUS
370
-3
390
F
  0
LAYER
  5
2D9
100
AcDbSymbolTableRecord
100
AcDbLayerTableRecord
  2
MSBR-40
 70
0
 62
7
  6
CONTINUOUS
370
-3
390
F
  0
LAYER
  5
2DA
100
AcDbSymbolTableRecord
100
AcDbLayerTableRecord
  2
MSBR-40_1
 70
0
 62
7
  6
CONTINUOUS
370
-3
390
F
  0
LAYER
  5
2DB
100
AcDbSymbolTableRecord
100
AcDbLayerTableRecord
  2
MSBR-40_1_1
 70
0
 62
7
  6
CONTINUOUS
370
-3
390
F
  0
LAYER
  5
2DC
100
AcDbSymbolTableRecord
100
AcDbLayerTableRecord
  2
MSBR-41
 70
0
 62
7
  6
CONTINUOUS
370
-3
390
F
  0
LAYER
  5
2DD
100
AcDbSymbolTableRecord
100
AcDbLayerTableRecord
  2
MSBR-41_1
 70
0
 62
7
  6
CONTINUOUS
370
-3
390
F
  0
LAYER
  5
2DE
100
AcDbSymbolTableRecord
100
AcDbLayerTableRecord
  2
MSBR-41_1_1
 70
0
 62
7
  6
CONTINUOUS
370
-3
390
F
  0
LAYER
  5
2DF
100
AcDbSymbolTableRecord
100
AcDbLayerTableRecord
  2
MSBR-42
 70
0
 62
7
  6
CONTINUOUS
370
-3
390
F
  0
LAYER
  5
2E0
100
AcDbSymbolTableRecord
100
AcDbLayerTableRecord
  2
MSBR-42_1_1
 70
0
 62
7
  6
CONTINUOUS
370
-3
390
F
  0
LAYER
  5
2E1
100
AcDbSymbolTableRecord
100
AcDbLayerTableRecord
  2
MSBR-43
 70
0
 62
7
  6
CONTINUOUS
370
-3
390
F
  0
LAYER
  5
2E2
100
AcDbSymbolTableRecord
100
AcDbLayerTableRecord
  2
MSBR-43_1
 70
0
 62
7
  6
CONTINUOUS
370
-3
390
F
  0
LAYER
  5
2E3
100
AcDbSymbolTableRecord
100
AcDbLayerTableRecord
  2
MSBR-43_1_1
 70
0
 62
7
  6
CONTINUOUS
370
-3
390
F
  0
LAYER
  5
2E4
100
AcDbSymbolTableRecord
100
AcDbLayerTableRecord
  2
MSBR-44
 70
0
 62
7
  6
CONTINUOUS
370
-3
390
F
  0
LAYER
  5
2E5
100
AcDbSymbolTableRecord
100
AcDbLayerTableRecord
  2
MSBR-44_1
 70
0
 62
7
  6
CONTINUOUS
370
-3
390
F
  0
LAYER
  5
2E6
100
AcDbSymbolTableRecord
100
AcDbLayerTableRecord
  2
MSBR-44_1_1
 70
0
 62
7
  6
CONTINUOUS
370
-3
390
F
  0
LAYER
  5
2E7
100
AcDbSymbolTableRecord
100
AcDbLayerTableRecord
  2
MSBR-45
 70
0
 62
7
  6
CONTINUOUS
370
-3
390
F
  0
LAYER
  5
2E8
100
AcDbSymbolTableRecord
100
AcDbLayerTableRecord
  2
MSBR-45_1
 70
0
 62
7
  6
CONTINUOUS
370
-3
390
F
  0
LAYER
  5
2E9
100
AcDbSymbolTableRecord
100
AcDbLayerTableRecord
  2
MSBR-45_1_1
 70
0
 62
7
  6
CONTINUOUS
370
-3
390
F
  0
LAYER
  5
2EA
100
AcDbSymbolTableRecord
100
AcDbLayerTableRecord
  2
MSBR-46
 70
0
 62
7
  6
CONTINUOUS
370
-3
390
F
  0
LAYER
  5
2EB
100
AcDbSymbolTableRecord
100
AcDbLayerTableRecord
  2
MSBR-46_1_1
 70
0
 62
7
  6
CONTINUOUS
370
-3
390
F
  0
LAYER
  5
2EC
100
AcDbSymbolTableRecord
100
AcDbLayerTableRecord
  2
MSBR-47
 70
0
 62
7
  6
CONTINUOUS
370
-3
390
F
  0
LAYER
  5
2ED
100
AcDbSymbolTableRecord
100
AcDbLayerTableRecord
  2
MSBR-47_1
 70
0
 62
7
  6
CONTINUOUS
370
-3
390
F
  0
LAYER
  5
2EE
100
AcDbSymbolTableRecord
100
AcDbLayerTableRecord
  2
MSBR-47_1_1
 70
0
 62
7
  6
CONTINUOUS
370
-3
390
F
  0
LAYER
  5
2EF
100
AcDbSymbolTableRecord
100
AcDbLayerTableRecord
  2
MSBR-48
 70
0
 62
7
  6
CONTINUOUS
370
-3
390
F
  0
LAYER
  5
2F0
100
AcDbSymbolTableRecord
100
AcDbLayerTableRecord
  2
MSBR-48_1_1
 70
0
 62
7
  6
CONTINUOUS
370
-3
390
F
  0
LAYER
  5
2F1
100
AcDbSymbolTableRecord
100
AcDbLayerTableRecord
  2
MSBR-49
 70
0
 62
7
  6
CONTINUOUS
370
-3
390
F
  0
LAYER
  5
2F2
100
AcDbSymbolTableRecord
100
AcDbLayerTableRecord
  2
MSBR-49_1_1
 70
0
 62
7
  6
CONTINUOUS
370
-3
390
F
  0
LAYER
  5
2F3
100
AcDbSymbolTableRecord
100
AcDbLayerTableRecord
  2
MSBR-4_1
 70
0
 62
7
  6
CONTINUOUS
370
-3
390
F
  0
LAYER
  5
2F4
100
AcDbSymbolTableRecord
100
AcDbLayerTableRecord
  2
MSBR-4_1_1
 70
0
 62
7
  6
CONTINUOUS
370
-3
390
F
  0
LAYER
  5
2F5
100
AcDbSymbolTableRecord
100
AcDbLayerTableRecord
  2
MSBR-5
 70
0
 62
7
  6
CONTINUOUS
370
-3
390
F
  0
LAYER
  5
2F6
100
AcDbSymbolTableRecord
100
AcDbLayerTableRecord
  2
MSBR-50
 70
0
 62
7
  6
CONTINUOUS
370
-3
390
F
  0
LAYER
  5
2F7
100
AcDbSymbolTableRecord
100
AcDbLayerTableRecord
  2
MSBR-50_1
 70
0
 62
7
  6
CONTINUOUS
370
-3
390
F
  0
LAYER
  5
2F8
100
AcDbSymbolTableRecord
100
AcDbLayerTableRecord
  2
MSBR-50_1_1
 70
0
 62
7
  6
CONTINUOUS
370
-3
390
F
  0
LAYER
  5
2F9
100
AcDbSymbolTableRecord
100
AcDbLayerTableRecord
  2
MSBR-51
 70
0
 62
7
  6
CONTINUOUS
370
-3
390
F
  0
LAYER
  5
2FA
100
AcDbSymbolTableRecord
100
AcDbLayerTableRecord
  2
MSBR-51_1
 70
0
 62
7
  6
CONTINUOUS
370
-3
390
F
  0
LAYER
  5
2FB
100
AcDbSymbolTableRecord
100
AcDbLayerTableRecord
  2
MSBR-51_1_1
 70
0
 62
7
  6
CONTINUOUS
370
-3
390
F
  0
LAYER
  5
2FC
100
AcDbSymbolTableRecord
100
AcDbLayerTableRecord
  2
MSBR-52
 70
0
 62
7
  6
CONTINUOUS
370
-3
390
F
  0
LAYER
  5
2FD
100
AcDbSymbolTableRecord
100
AcDbLayerTableRecord
  2
MSBR-52_1
 70
0
 62
7
  6
CONTINUOUS
370
-3
390
F
  0
LAYER
  5
2FE
100
AcDbSymbolTableRecord
100
AcDbLayerTableRecord
  2
MSBR-52_1_1
 70
0
 62
7
  6
CONTINUOUS
370
-3
390
F
  0
LAYER
  5
2FF
100
AcDbSymbolTableRecord
100
AcDbLayerTableRecord
  2
MSBR-5_1
 70
0
 62
7
  6
CONTINUOUS
370
-3
390
F
  0
LAYER
  5
300
100
AcDbSymbolTableRecord
100
AcDbLayerTableRecord
  2
MSBR-5_1_1
 70
0
 62
7
  6
CONTINUOUS
370
-3
390
F
  0
LAYER
  5
301
100
AcDbSymbolTableRecord
100
AcDbLayerTableRecord
  2
MSBR-6
 70
0
 62
7
  6
CONTINUOUS
370
-3
390
F
  0
LAYER
  5
302
100
AcDbSymbolTableRecord
100
AcDbLayerTableRecord
  2
MSBR-6_1_1
 70
0
 62
7
  6
CONTINUOUS
370
-3
390
F
  0
LAYER
  5
303
100
AcDbSymbolTableRecord
100
AcDbLayerTableRecord
  2
MSBR-7
 70
0
 62
7
  6
CONTINUOUS
370
-3
390
F
  0
LAYER
  5
304
100
AcDbSymbolTableRecord
100
AcDbLayerTableRecord
  2
MSBR-7_1_1
 70
0
 62
7
  6
CONTINUOUS
370
-3
390
F
  0
LAYER
  5
305
100
AcDbSymbolTableRecord
100
AcDbLayerTableRecord
  2
MSBR-8
 70
0
 62
7
  6
CONTINUOUS
370
-3
390
F
  0
LAYER
  5
306
100
AcDbSymbolTableRecord
100
AcDbLayerTableRecord
  2
MSBR-8_1
 70
0
 62
7
  6
CONTINUOUS
370
-3
390
F
  0
LAYER
  5
307
100
AcDbSymbolTableRecord
100
AcDbLayerTableRecord
  2
MSBR-8_1_1
 70
0
 62
7
  6
CONTINUOUS
370
-3
390
F
  0
LAYER
  5
308
100
AcDbSymbolTableRecord
100
AcDbLayerTableRecord
  2
MSBR-9
 70
0
 62
7
  6
CONTINUOUS
370
-3
390
F
  0
LAYER
  5
309
100
AcDbSymbolTableRecord
100
AcDbLayerTableRecord
  2
MSBR-9_1_1
 70
0
 62
7
  6
CONTINUOUS
370
-3
390
F
  0
LAYER
  5
30A
100
AcDbSymbolTableRecord
100
AcDbLayerTableRecord
  2
NO-PB_MARK_10000
 70
0
 62
7
  6
CONTINUOUS
370
-3
390
F
  0
LAYER
  5
30B
100
AcDbSymbolTableRecord
100
AcDbLayerTableRecord
  2
NONE
 70
0
 62
7
  6
CONTINUOUS
370
-3
390
F
  0
LAYER
  5
30C
100
AcDbSymbolTableRecord
100
AcDbLayerTableRecord
  2
NOTE
 70
0
 62
7
  6
CONTINUOUS
370
-3
390
F
  0
LAYER
  5
30D
100
AcDbSymbolTableRecord
100
AcDbLayerTableRecord
  2
PIANI
 70
0
 62
7
  6
CONTINUOUS
370
-3
390
F
  0
LAYER
  5
30E
100
AcDbSymbolTableRecord
100
AcDbLayerTableRecord
  2
PIANI_ORIGINE
 70
0
 62
7
  6
CONTINUOUS
370
-3
390
F
  0
LAYER
  5
30F
100
AcDbSymbolTableRecord
100
AcDbLayerTableRecord
  2
PRT0003
 70
0
 62
7
  6
CONTINUOUS
370
-3
390
F
  0
LAYER
  5
310
100
AcDbSymbolTableRecord
100
AcDbLayerTableRecord
  2
PTC_EPCOS_B57153S0100M051_13000
 70
0
 62
7
  6
CONTINUOUS
370
-3
390
F
  0
LAYER
  5
311
100
AcDbSymbolTableRecord
100
AcDbLayerTableRecord
  2
PUNTI
 70
0
 62
7
  6
CONTINUOUS
370
-3
390
F
  0
LAYER
  5
312
100
AcDbSymbolTableRecord
100
AcDbLayerTableRecord
  2
RACCORDO
 70
0
 62
7
  6
CONTINUOUS
370
-3
390
F
  0
LAYER
  5
313
100
AcDbSymbolTableRecord
100
AcDbLayerTableRecord
  2
RGB__255__255__255__
 70
0
 62
7
  6
CONTINUOUS
370
-3
390
F
  0
LAYER
  5
314
100
AcDbSymbolTableRecord
100
AcDbLayerTableRecord
  2
SIMBOLI
 70
0
 62
7
  6
CONTINUOUS
370
-3
390
F
  0
LAYER
  5
315
100
AcDbSymbolTableRecord
100
AcDbLayerTableRecord
  2
SMUSSO
 70
0
 62
7
  6
CONTINUOUS
370
-3
390
F
  0
LAYER
  5
316
100
AcDbSymbolTableRecord
100
AcDbLayerTableRecord
  2
SNAPLINE
 70
0
 62
7
  6
CONTINUOUS
370
-3
390
F
  0
LAYER
  5
317
100
AcDbSymbolTableRecord
100
AcDbLayerTableRecord
  2
SUB_SMA_143000
 70
0
 62
7
  6
CONTINUOUS
370
-3
390
F
  0
LAYER
  5
318
100
AcDbSymbolTableRecord
100
AcDbLayerTableRecord
  2
SUB_SMA_143000_1
 70
0
 62
7
  6
CONTINUOUS
370
-3
390
F
  0
LAYER
  5
319
100
AcDbSymbolTableRecord
100
AcDbLayerTableRecord
  2
SUPERFICI
 70
0
 62
7
  6
CONTINUOUS
370
-3
390
F
  0
LAYER
  5
31A
100
AcDbSymbolTableRecord
100
AcDbLayerTableRecord
  2
TRASH
 70
0
 62
7
  6
CONTINUOUS
370
-3
390
F
  0
LAYER
  5
31B
100
AcDbSymbolTableRecord
100
AcDbLayerTableRecord
  2
UMT-250_REF_300000
 70
0
 62
7
  6
CONTINUOUS
370
-3
390
F
  0
LAYER
  5
31C
100
AcDbSymbolTableRecord
100
AcDbLayerTableRecord
  2
VG_CAP-E-8_0-12_0-3_5-0_6_14000
 70
0
 62
7
  6
CONTINUOUS
370
-3
390
F
  0
LAYER
  5
31D
100
AcDbSymbolTableRecord
100
AcDbLayerTableRecord
  2
VG_CAP-E-8_0-12_0-3_5-0_6_1400_
 70
0
 62
7
  6
CONTINUOUS
370
-3
390
F
  0
LAYER
  5
31E
100
AcDbSymbolTableRecord
100
AcDbLayerTableRecord
  2
VG_CAP-E-8_0-12_0-3_5-0_6_140_1
 70
0
 62
7
  6
CONTINUOUS
370
-3
390
F
  0
LAYER
  5
31F
100
AcDbSymbolTableRecord
100
AcDbLayerTableRecord
  2
VG_CAP-E-8_0-12_0-3_5-0_6_140__
 70
0
 62
7
  6
CONTINUOUS
370
-3
390
F
  0
LAYER
  5
320
100
AcDbSymbolTableRecord
100
AcDbLayerTableRecord
  2
VG_CN_STH_USB_TYPE-C_24P_RIGHT_
 70
0
 62
7
  6
CONTINUOUS
370
-3
390
F
  0
LAYER
  5
321
100
AcDbSymbolTableRecord
100
AcDbLayerTableRecord
  2
VG_CN_STH_USB_TYPE-C_24P_RIGH_1
 70
0
 62
7
  6
CONTINUOUS
370
-3
390
F
  0
LAYER
  5
322
100
AcDbSymbolTableRecord
100
AcDbLayerTableRecord
  2
VG_DB_SOPA-4_150000
 70
0
 62
7
  6
CONTINUOUS
370
-3
390
F
  0
LAYER
  5
323
100
AcDbSymbolTableRecord
100
AcDbLayerTableRecord
  2
VG_INSOP24D-9_4-13_43-1_6-0_75-
 70
0
 62
7
  6
CONTINUOUS
370
-3
390
F
  0
LAYER
  5
324
100
AcDbSymbolTableRecord
100
AcDbLayerTableRecord
  2
VG_POWER56_110000
 70
0
 62
7
  6
CONTINUOUS
370
-3
390
F
  0
LAYER
  5
325
100
AcDbSymbolTableRecord
100
AcDbLayerTableRecord
  2
VG_TRA_RM7_85-265_1X5_3_15W_2_1
 70
0
 62
7
  6
CONTINUOUS
370
-3
390
F
  0
LAYER
  5
326
100
AcDbSymbolTableRecord
100
AcDbLayerTableRecord
  2
_43001021B0_ASM
 70
0
 62
7
  6
CONTINUOUS
370
-3
390
F
  0
LAYER
  5
327
100
AcDbSymbolTableRecord
100
AcDbLayerTableRecord
  2
___SHELL
 70
0
 62
7
  6
CONTINUOUS
370
-3
390
F
  0
LAYER
  5
328
100
AcDbSymbolTableRecord
100
AcDbLayerTableRecord
  2
___SHELL_1
 70
0
 62
7
  6
CONTINUOUS
370
-3
390
F
  0
LAYER
  5
329
100
AcDbSymbolTableRecord
100
AcDbLayerTableRecord
  2
___SHELL_10
 70
0
 62
7
  6
CONTINUOUS
370
-3
390
F
  0
LAYER
  5
32A
100
AcDbSymbolTableRecord
100
AcDbLayerTableRecord
  2
___SHELL_10_1
 70
0
 62
7
  6
CONTINUOUS
370
-3
390
F
  0
LAYER
  5
32B
100
AcDbSymbolTableRecord
100
AcDbLayerTableRecord
  2
___SHELL_11
 70
0
 62
7
  6
CONTINUOUS
370
-3
390
F
  0
LAYER
  5
32C
100
AcDbSymbolTableRecord
100
AcDbLayerTableRecord
  2
___SHELL_11_1
 70
0
 62
7
  6
CONTINUOUS
370
-3
390
F
  0
LAYER
  5
32D
100
AcDbSymbolTableRecord
100
AcDbLayerTableRecord
  2
___SHELL_12
 70
0
 62
7
  6
CONTINUOUS
370
-3
390
F
  0
LAYER
  5
32E
100
AcDbSymbolTableRecord
100
AcDbLayerTableRecord
  2
___SHELL_12_1
 70
0
 62
7
  6
CONTINUOUS
370
-3
390
F
  0
LAYER
  5
32F
100
AcDbSymbolTableRecord
100
AcDbLayerTableRecord
  2
___SHELL_13
 70
0
 62
7
  6
CONTINUOUS
370
-3
390
F
  0
LAYER
  5
330
100
AcDbSymbolTableRecord
100
AcDbLayerTableRecord
  2
___SHELL_13_1
 70
0
 62
7
  6
CONTINUOUS
370
-3
390
F
  0
LAYER
  5
331
100
AcDbSymbolTableRecord
100
AcDbLayerTableRecord
  2
___SHELL_14
 70
0
 62
7
  6
CONTINUOUS
370
-3
390
F
  0
LAYER
  5
332
100
AcDbSymbolTableRecord
100
AcDbLayerTableRecord
  2
___SHELL_14_1
 70
0
 62
7
  6
CONTINUOUS
370
-3
390
F
  0
LAYER
  5
333
100
AcDbSymbolTableRecord
100
AcDbLayerTableRecord
  2
___SHELL_15
 70
0
 62
7
  6
CONTINUOUS
370
-3
390
F
  0
LAYER
  5
334
100
AcDbSymbolTableRecord
100
AcDbLayerTableRecord
  2
___SHELL_15_1
 70
0
 62
7
  6
CONTINUOUS
370
-3
390
F
  0
LAYER
  5
335
100
AcDbSymbolTableRecord
100
AcDbLayerTableRecord
  2
___SHELL_16
 70
0
 62
7
  6
CONTINUOUS
370
-3
390
F
  0
LAYER
  5
336
100
AcDbSymbolTableRecord
100
AcDbLayerTableRecord
  2
___SHELL_16_1
 70
0
 62
7
  6
CONTINUOUS
370
-3
390
F
  0
LAYER
  5
337
100
AcDbSymbolTableRecord
100
AcDbLayerTableRecord
  2
___SHELL_17
 70
0
 62
7
  6
CONTINUOUS
370
-3
390
F
  0
LAYER
  5
338
100
AcDbSymbolTableRecord
100
AcDbLayerTableRecord
  2
___SHELL_17_1
 70
0
 62
7
  6
CONTINUOUS
370
-3
390
F
  0
LAYER
  5
339
100
AcDbSymbolTableRecord
100
AcDbLayerTableRecord
  2
___SHELL_18
 70
0
 62
7
  6
CONTINUOUS
370
-3
390
F
  0
LAYER
  5
33A
100
AcDbSymbolTableRecord
100
AcDbLayerTableRecord
  2
___SHELL_18_1
 70
0
 62
7
  6
CONTINUOUS
370
-3
390
F
  0
LAYER
  5
33B
100
AcDbSymbolTableRecord
100
AcDbLayerTableRecord
  2
___SHELL_19
 70
0
 62
7
  6
CONTINUOUS
370
-3
390
F
  0
LAYER
  5
33C
100
AcDbSymbolTableRecord
100
AcDbLayerTableRecord
  2
___SHELL_19_1
 70
0
 62
7
  6
CONTINUOUS
370
-3
390
F
  0
LAYER
  5
33D
100
AcDbSymbolTableRecord
100
AcDbLayerTableRecord
  2
___SHELL_1_1
 70
0
 62
7
  6
CONTINUOUS
370
-3
390
F
  0
LAYER
  5
33E
100
AcDbSymbolTableRecord
100
AcDbLayerTableRecord
  2
___SHELL_2
 70
0
 62
7
  6
CONTINUOUS
370
-3
390
F
  0
LAYER
  5
33F
100
AcDbSymbolTableRecord
100
AcDbLayerTableRecord
  2
___SHELL_20
 70
0
 62
7
  6
CONTINUOUS
370
-3
390
F
  0
LAYER
  5
340
100
AcDbSymbolTableRecord
100
AcDbLayerTableRecord
  2
___SHELL_20_1
 70
0
 62
7
  6
CONTINUOUS
370
-3
390
F
  0
LAYER
  5
341
100
AcDbSymbolTableRecord
100
AcDbLayerTableRecord
  2
___SHELL_21
 70
0
 62
7
  6
CONTINUOUS
370
-3
390
F
  0
LAYER
  5
342
100
AcDbSymbolTableRecord
100
AcDbLayerTableRecord
  2
___SHELL_21_1
 70
0
 62
7
  6
CONTINUOUS
370
-3
390
F
  0
LAYER
  5
343
100
AcDbSymbolTableRecord
100
AcDbLayerTableRecord
  2
___SHELL_22
 70
0
 62
7
  6
CONTINUOUS
370
-3
390
F
  0
LAYER
  5
344
100
AcDbSymbolTableRecord
100
AcDbLayerTableRecord
  2
___SHELL_22_1
 70
0
 62
7
  6
CONTINUOUS
370
-3
390
F
  0
LAYER
  5
345
100
AcDbSymbolTableRecord
100
AcDbLayerTableRecord
  2
___SHELL_23
 70
0
 62
7
  6
CONTINUOUS
370
-3
390
F
  0
LAYER
  5
346
100
AcDbSymbolTableRecord
100
AcDbLayerTableRecord
  2
___SHELL_23_1
 70
0
 62
7
  6
CONTINUOUS
370
-3
390
F
  0
LAYER
  5
347
100
AcDbSymbolTableRecord
100
AcDbLayerTableRecord
  2
___SHELL_24
 70
0
 62
7
  6
CONTINUOUS
370
-3
390
F
  0
LAYER
  5
348
100
AcDbSymbolTableRecord
100
AcDbLayerTableRecord
  2
___SHELL_24_1
 70
0
 62
7
  6
CONTINUOUS
370
-3
390
F
  0
LAYER
  5
349
100
AcDbSymbolTableRecord
100
AcDbLayerTableRecord
  2
___SHELL_25
 70
0
 62
7
  6
CONTINUOUS
370
-3
390
F
  0
LAYER
  5
34A
100
AcDbSymbolTableRecord
100
AcDbLayerTableRecord
  2
___SHELL_25_1
 70
0
 62
7
  6
CONTINUOUS
370
-3
390
F
  0
LAYER
  5
34B
100
AcDbSymbolTableRecord
100
AcDbLayerTableRecord
  2
___SHELL_26
 70
0
 62
7
  6
CONTINUOUS
370
-3
390
F
  0
LAYER
  5
34C
100
AcDbSymbolTableRecord
100
AcDbLayerTableRecord
  2
___SHELL_26_1
 70
0
 62
7
  6
CONTINUOUS
370
-3
390
F
  0
LAYER
  5
34D
100
AcDbSymbolTableRecord
100
AcDbLayerTableRecord
  2
___SHELL_27
 70
0
 62
7
  6
CONTINUOUS
370
-3
390
F
  0
LAYER
  5
34E
100
AcDbSymbolTableRecord
100
AcDbLayerTableRecord
  2
___SHELL_27_1
 70
0
 62
7
  6
CONTINUOUS
370
-3
390
F
  0
LAYER
  5
34F
100
AcDbSymbolTableRecord
100
AcDbLayerTableRecord
  2
___SHELL_28
 70
0
 62
7
  6
CONTINUOUS
370
-3
390
F
  0
LAYER
  5
350
100
AcDbSymbolTableRecord
100
AcDbLayerTableRecord
  2
___SHELL_28_1
 70
0
 62
7
  6
CONTINUOUS
370
-3
390
F
  0
LAYER
  5
351
100
AcDbSymbolTableRecord
100
AcDbLayerTableRecord
  2
___SHELL_29
 70
0
 62
7
  6
CONTINUOUS
370
-3
390
F
  0
LAYER
  5
352
100
AcDbSymbolTableRecord
100
AcDbLayerTableRecord
  2
___SHELL_29_1
 70
0
 62
7
  6
CONTINUOUS
370
-3
390
F
  0
LAYER
  5
353
100
AcDbSymbolTableRecord
100
AcDbLayerTableRecord
  2
___SHELL_2_1
 70
0
 62
7
  6
CONTINUOUS
370
-3
390
F
  0
LAYER
  5
354
100
AcDbSymbolTableRecord
100
AcDbLayerTableRecord
  2
___SHELL_3
 70
0
 62
7
  6
CONTINUOUS
370
-3
390
F
  0
LAYER
  5
355
100
AcDbSymbolTableRecord
100
AcDbLayerTableRecord
  2
___SHELL_30
 70
0
 62
7
  6
CONTINUOUS
370
-3
390
F
  0
LAYER
  5
356
100
AcDbSymbolTableRecord
100
AcDbLayerTableRecord
  2
___SHELL_30_1
 70
0
 62
7
  6
CONTINUOUS
370
-3
390
F
  0
LAYER
  5
357
100
AcDbSymbolTableRecord
100
AcDbLayerTableRecord
  2
___SHELL_31
 70
0
 62
7
  6
CONTINUOUS
370
-3
390
F
  0
LAYER
  5
358
100
AcDbSymbolTableRecord
100
AcDbLayerTableRecord
  2
___SHELL_31_1
 70
0
 62
7
  6
CONTINUOUS
370
-3
390
F
  0
LAYER
  5
359
100
AcDbSymbolTableRecord
100
AcDbLayerTableRecord
  2
___SHELL_32
 70
0
 62
7
  6
CONTINUOUS
370
-3
390
F
  0
LAYER
  5
35A
100
AcDbSymbolTableRecord
100
AcDbLayerTableRecord
  2
___SHELL_32_1
 70
0
 62
7
  6
CONTINUOUS
370
-3
390
F
  0
LAYER
  5
35B
100
AcDbSymbolTableRecord
100
AcDbLayerTableRecord
  2
___SHELL_33
 70
0
 62
7
  6
CONTINUOUS
370
-3
390
F
  0
LAYER
  5
35C
100
AcDbSymbolTableRecord
100
AcDbLayerTableRecord
  2
___SHELL_33_1
 70
0
 62
7
  6
CONTINUOUS
370
-3
390
F
  0
LAYER
  5
35D
100
AcDbSymbolTableRecord
100
AcDbLayerTableRecord
  2
___SHELL_34
 70
0
 62
7
  6
CONTINUOUS
370
-3
390
F
  0
LAYER
  5
35E
100
AcDbSymbolTableRecord
100
AcDbLayerTableRecord
  2
___SHELL_34_1
 70
0
 62
7
  6
CONTINUOUS
370
-3
390
F
  0
LAYER
  5
35F
100
AcDbSymbolTableRecord
100
AcDbLayerTableRecord
  2
___SHELL_35
 70
0
 62
7
  6
CONTINUOUS
370
-3
390
F
  0
LAYER
  5
360
100
AcDbSymbolTableRecord
100
AcDbLayerTableRecord
  2
___SHELL_35_1
 70
0
 62
7
  6
CONTINUOUS
370
-3
390
F
  0
LAYER
  5
361
100
AcDbSymbolTableRecord
100
AcDbLayerTableRecord
  2
___SHELL_36
 70
0
 62
7
  6
CONTINUOUS
370
-3
390
F
  0
LAYER
  5
362
100
AcDbSymbolTableRecord
100
AcDbLayerTableRecord
  2
___SHELL_36_1
 70
0
 62
7
  6
CONTINUOUS
370
-3
390
F
  0
LAYER
  5
363
100
AcDbSymbolTableRecord
100
AcDbLayerTableRecord
  2
___SHELL_37
 70
0
 62
7
  6
CONTINUOUS
370
-3
390
F
  0
LAYER
  5
364
100
AcDbSymbolTableRecord
100
AcDbLayerTableRecord
  2
___SHELL_37_1
 70
0
 62
7
  6
CONTINUOUS
370
-3
390
F
  0
LAYER
  5
365
100
AcDbSymbolTableRecord
100
AcDbLayerTableRecord
  2
___SHELL_38
 70
0
 62
7
  6
CONTINUOUS
370
-3
390
F
  0
LAYER
  5
366
100
AcDbSymbolTableRecord
100
AcDbLayerTableRecord
  2
___SHELL_38_1
 70
0
 62
7
  6
CONTINUOUS
370
-3
390
F
  0
LAYER
  5
367
100
AcDbSymbolTableRecord
100
AcDbLayerTableRecord
  2
___SHELL_39
 70
0
 62
7
  6
CONTINUOUS
370
-3
390
F
  0
LAYER
  5
368
100
AcDbSymbolTableRecord
100
AcDbLayerTableRecord
  2
___SHELL_39_1
 70
0
 62
7
  6
CONTINUOUS
370
-3
390
F
  0
LAYER
  5
369
100
AcDbSymbolTableRecord
100
AcDbLayerTableRecord
  2
___SHELL_3_1
 70
0
 62
7
  6
CONTINUOUS
370
-3
390
F
  0
LAYER
  5
36A
100
AcDbSymbolTableRecord
100
AcDbLayerTableRecord
  2
___SHELL_4
 70
0
 62
7
  6
CONTINUOUS
370
-3
390
F
  0
LAYER
  5
36B
100
AcDbSymbolTableRecord
100
AcDbLayerTableRecord
  2
___SHELL_40
 70
0
 62
7
  6
CONTINUOUS
370
-3
390
F
  0
LAYER
  5
36C
100
AcDbSymbolTableRecord
100
AcDbLayerTableRecord
  2
___SHELL_40_1
 70
0
 62
7
  6
CONTINUOUS
370
-3
390
F
  0
LAYER
  5
36D
100
AcDbSymbolTableRecord
100
AcDbLayerTableRecord
  2
___SHELL_41
 70
0
 62
7
  6
CONTINUOUS
370
-3
390
F
  0
LAYER
  5
36E
100
AcDbSymbolTableRecord
100
AcDbLayerTableRecord
  2
___SHELL_41_1
 70
0
 62
7
  6
CONTINUOUS
370
-3
390
F
  0
LAYER
  5
36F
100
AcDbSymbolTableRecord
100
AcDbLayerTableRecord
  2
___SHELL_42
 70
0
 62
7
  6
CONTINUOUS
370
-3
390
F
  0
LAYER
  5
370
100
AcDbSymbolTableRecord
100
AcDbLayerTableRecord
  2
___SHELL_42_1
 70
0
 62
7
  6
CONTINUOUS
370
-3
390
F
  0
LAYER
  5
371
100
AcDbSymbolTableRecord
100
AcDbLayerTableRecord
  2
___SHELL_43
 70
0
 62
7
  6
CONTINUOUS
370
-3
390
F
  0
LAYER
  5
372
100
AcDbSymbolTableRecord
100
AcDbLayerTableRecord
  2
___SHELL_43_1
 70
0
 62
7
  6
CONTINUOUS
370
-3
390
F
  0
LAYER
  5
373
100
AcDbSymbolTableRecord
100
AcDbLayerTableRecord
  2
___SHELL_44
 70
0
 62
7
  6
CONTINUOUS
370
-3
390
F
  0
LAYER
  5
374
100
AcDbSymbolTableRecord
100
AcDbLayerTableRecord
  2
___SHELL_44_1
 70
0
 62
7
  6
CONTINUOUS
370
-3
390
F
  0
LAYER
  5
375
100
AcDbSymbolTableRecord
100
AcDbLayerTableRecord
  2
___SHELL_45
 70
0
 62
7
  6
CONTINUOUS
370
-3
390
F
  0
LAYER
  5
376
100
AcDbSymbolTableRecord
100
AcDbLayerTableRecord
  2
___SHELL_45_1
 70
0
 62
7
  6
CONTINUOUS
370
-3
390
F
  0
LAYER
  5
377
100
AcDbSymbolTableRecord
100
AcDbLayerTableRecord
  2
___SHELL_46
 70
0
 62
7
  6
CONTINUOUS
370
-3
390
F
  0
LAYER
  5
378
100
AcDbSymbolTableRecord
100
AcDbLayerTableRecord
  2
___SHELL_46_1
 70
0
 62
7
  6
CONTINUOUS
370
-3
390
F
  0
LAYER
  5
379
100
AcDbSymbolTableRecord
100
AcDbLayerTableRecord
  2
___SHELL_47
 70
0
 62
7
  6
CONTINUOUS
370
-3
390
F
  0
LAYER
  5
37A
100
AcDbSymbolTableRecord
100
AcDbLayerTableRecord
  2
___SHELL_47_1
 70
0
 62
7
  6
CONTINUOUS
370
-3
390
F
  0
LAYER
  5
37B
100
AcDbSymbolTableRecord
100
AcDbLayerTableRecord
  2
___SHELL_48
 70
0
 62
7
  6
CONTINUOUS
370
-3
390
F
  0
LAYER
  5
37C
100
AcDbSymbolTableRecord
100
AcDbLayerTableRecord
  2
___SHELL_48_1
 70
0
 62
7
  6
CONTINUOUS
370
-3
390
F
  0
LAYER
  5
37D
100
AcDbSymbolTableRecord
100
AcDbLayerTableRecord
  2
___SHELL_49
 70
0
 62
7
  6
CONTINUOUS
370
-3
390
F
  0
LAYER
  5
37E
100
AcDbSymbolTableRecord
100
AcDbLayerTableRecord
  2
___SHELL_49_1
 70
0
 62
7
  6
CONTINUOUS
370
-3
390
F
  0
LAYER
  5
37F
100
AcDbSymbolTableRecord
100
AcDbLayerTableRecord
  2
___SHELL_4_1
 70
0
 62
7
  6
CONTINUOUS
370
-3
390
F
  0
LAYER
  5
380
100
AcDbSymbolTableRecord
100
AcDbLayerTableRecord
  2
___SHELL_5
 70
0
 62
7
  6
CONTINUOUS
370
-3
390
F
  0
LAYER
  5
381
100
AcDbSymbolTableRecord
100
AcDbLayerTableRecord
  2
___SHELL_50
 70
0
 62
7
  6
CONTINUOUS
370
-3
390
F
  0
LAYER
  5
382
100
AcDbSymbolTableRecord
100
AcDbLayerTableRecord
  2
___SHELL_50_1
 70
0
 62
7
  6
CONTINUOUS
370
-3
390
F
  0
LAYER
  5
383
100
AcDbSymbolTableRecord
100
AcDbLayerTableRecord
  2
___SHELL_51
 70
0
 62
7
  6
CONTINUOUS
370
-3
390
F
  0
LAYER
  5
384
100
AcDbSymbolTableRecord
100
AcDbLayerTableRecord
  2
___SHELL_51_1
 70
0
 62
7
  6
CONTINUOUS
370
-3
390
F
  0
LAYER
  5
385
100
AcDbSymbolTableRecord
100
AcDbLayerTableRecord
  2
___SHELL_52
 70
0
 62
7
  6
CONTINUOUS
370
-3
390
F
  0
LAYER
  5
386
100
AcDbSymbolTableRecord
100
AcDbLayerTableRecord
  2
___SHELL_52_1
 70
0
 62
7
  6
CONTINUOUS
370
-3
390
F
  0
LAYER
  5
387
100
AcDbSymbolTableRecord
100
AcDbLayerTableRecord
  2
___SHELL_5_1
 70
0
 62
7
  6
CONTINUOUS
370
-3
390
F
  0
LAYER
  5
388
100
AcDbSymbolTableRecord
100
AcDbLayerTableRecord
  2
___SHELL_6
 70
0
 62
7
  6
CONTINUOUS
370
-3
390
F
  0
LAYER
  5
389
100
AcDbSymbolTableRecord
100
AcDbLayerTableRecord
  2
___SHELL_6_1
 70
0
 62
7
  6
CONTINUOUS
370
-3
390
F
  0
LAYER
  5
38A
100
AcDbSymbolTableRecord
100
AcDbLayerTableRecord
  2
___SHELL_7
 70
0
 62
7
  6
CONTINUOUS
370
-3
390
F
  0
LAYER
  5
38B
100
AcDbSymbolTableRecord
100
AcDbLayerTableRecord
  2
___SHELL_7_1
 70
0
 62
7
  6
CONTINUOUS
370
-3
390
F
  0
LAYER
  5
38C
100
AcDbSymbolTableRecord
100
AcDbLayerTableRecord
  2
___SHELL_8
 70
0
 62
7
  6
CONTINUOUS
370
-3
390
F
  0
LAYER
  5
38D
100
AcDbSymbolTableRecord
100
AcDbLayerTableRecord
  2
___SHELL_8_1
 70
0
 62
7
  6
CONTINUOUS
370
-3
390
F
  0
LAYER
  5
38E
100
AcDbSymbolTableRecord
100
AcDbLayerTableRecord
  2
___SHELL_9
 70
0
 62
7
  6
CONTINUOUS
370
-3
390
F
  0
LAYER
  5
38F
100
AcDbSymbolTableRecord
100
AcDbLayerTableRecord
  2
___SHELL_9_1
 70
0
 62
7
  6
CONTINUOUS
370
-3
390
F
  0
ENDTAB
  0
TABLE
  2
STYLE
  5
3
100
AcDbSymbolTable
 70
1
  0
STYLE
  5
11
100
AcDbSymbolTableRecord
100
AcDbTextStyleTableRecord
  2
STANDARD
 70
0
 40
0.0
 41
0.8
 50
0.0
 71
0
 42
0.2
  3
txt
  4

  0
STYLE
  5
390
100
AcDbSymbolTableRecord
100
AcDbTextStyleTableRecord
  2
TEXTSTYLE_1
 70
0
 40
0.0
 41
0.8
 50
0.0
 71
0
 42
0.2
  3
gdt
  4

  0
ENDTAB
  0
TABLE
  2
VIEW
  5
6
100
AcDbSymbolTable
 70
0
  0
ENDTAB
  0
TABLE
  2
UCS
  5
7
100
AcDbSymbolTable
 70
0
  0
ENDTAB
  0
TABLE
  2
APPID
  5
9
100
AcDbSymbolTable
 70
1
  0
APPID
  5
391
100
AcDbSymbolTableRecord
100
AcDbRegAppTableRecord
  2
ACAD
 70
0
  0
ENDTAB
  0
TABLE
  2
BLOCK_RECORD
  5
1
100
AcDbSymbolTable
 70
0
  0
BLOCK_RECORD
  5
392
100
AcDbSymbolTableRecord
100
AcDbBlockTableRecord
  2
*Model_Space
  0
BLOCK_RECORD
  5
393
100
AcDbSymbolTableRecord
100
AcDbBlockTableRecord
  2
*Paper_Space
  0
BLOCK_RECORD
  5
394
100
AcDbSymbolTableRecord
100
AcDbBlockTableRecord
  2
_FILLED
  0
BLOCK_RECORD
  5
395
100
AcDbSymbolTableRecord
100
AcDbBlockTableRecord
  2
*D0
  0
BLOCK_RECORD
  5
396
100
AcDbSymbolTableRecord
100
AcDbBlockTableRecord
  2
*D1
  0
BLOCK_RECORD
  5
397
100
AcDbSymbolTableRecord
100
AcDbBlockTableRecord
  2
*D2
  0
BLOCK_RECORD
  5
398
100
AcDbSymbolTableRecord
100
AcDbBlockTableRecord
  2
*D3
  0
ENDTAB
  0
TABLE
  2
DIMSTYLE
  5
A
100
AcDbSymbolTable
 70
1
100
AcDbDimStyleTable
 71
0
  0
DIMSTYLE
105
399
100
AcDbSymbolTableRecord
100
AcDbDimStyleTableRecord
  2
STANDARD
 70
0
  3

  4

 40
1.0
 41
3.0
 42
0.5
 43
0.38
 44
1.5
 45
0.0
 46
0.0
 47
0.01
 48
0.01
140
3.0
141
0.09
142
0.0
143
25.4
144
1.0
145
0.0
146
1.0
147
0.625
 71
1
 72
0
 73
0
 74
0
 75
0
 76
0
 77
1
 78
8
 79
2
170
0
171
1
172
0
173
0
174
0
175
0
176
0
177
0
178
0
270
2
179
2
271
2
272
2
273
2
274
2
275
0
280
0
281
0
282
0
283
1
284
8
285
0
286
0
287
3
288
0
340
11
278
44
341
394
342
394
343
394
344
394
  0
DIMSTYLE
105
39A
100
AcDbSymbolTableRecord
100
AcDbDimStyleTableRecord
  2
DIMSTYLE_1
 70
0
  3

  4

 40
1.0
 41
3.0
 42
0.5
 43
0.38
 44
1.5
 45
0.0
 46
0.0
 47
0.0
 48
0.0
140
3.0
141
0.09
142
0.0
143
25.4
144
1.0
145
0.0
146
1.0
147
0.75
 71
0
 72
0
 73
0
 74
0
 75
0
 76
0
 77
1
 78
8
 79
2
170
0
171
1
172
0
173
0
174
0
175
0
176
0
177
0
178
0
270
2
179
2
271
2
272
2
273
2
274
2
275
0
280
0
281
0
282
0
283
1
284
8
285
0
286
0
287
3
288
0
340
11
278
44
341
394
342
394
343
394
344
394
  0
ENDTAB
  0
ENDSEC
  0
SECTION
  2
BLOCKS
  0
BLOCK
  5
20
100
AcDbEntity
  8
0
100
AcDbBlockBegin
  2
*Model_Space
 70
0
 10
0.0
 20
0.0
 30
0.0
  3
*Model_Space
  1

  0
ENDBLK
  5
21
100
AcDbEntity
  8
0
100
AcDbBlockEnd
  0
BLOCK
  5
1C
100
AcDbEntity
  8
0
100
AcDbBlockBegin
  2
*Paper_Space
 70
0
 10
0.0
 20
0.0
 30
0.0
  3
*Paper_Space
  1

  0
ENDBLK
  5
1D
100
AcDbEntity
  8
0
100
AcDbBlockEnd
  0
BLOCK
  5
39B
100
AcDbEntity
  8
0
100
AcDbBlockBegin
  2
_FILLED
 70
64
 10
0.0
 20
0.0
  3
_FILLED
  1

  0
SOLID
  5
39C
100
AcDbEntity
  8
0
  6
BYBLOCK
 62
0
100
AcDbTrace
 10
0.0
 20
0.0
 11
-1.0
 21
0.3166666667
 12
-1.0
 22
-0.3166666667
 13
-1.0
 23
-0.3166666667
  0
ENDBLK
  5
39D
100
AcDbEntity
  8
0
  6
BYBLOCK
 62
0
100
AcDbBlockEnd
  0
BLOCK
  5
39E
100
AcDbEntity
  8
0
100
AcDbBlockBegin
 62
7
  6
CONTINUOUS
  2
*D0
 70
65
 10
0.0
 20
0.0
  3
*D0
  1

  0
MTEXT
  5
39F
100
AcDbEntity
  8
0
100
AcDbMText
 62
7
  6
CONTINUOUS
  7
STANDARD
 71
2
 72
1
 10
-51.6715202611
 20
45.25
 30
0.0
 11
1.0
 21
0.0
 31
0.0
 73
2
 44
0.9
  1
{\ftxt;\W0.0001;\H0.0001;\~}{\ftxt;\W2.8571428571;\H3.0; }{\ftxt;\W0.0001;\H0.0001;\~}
 40
3.0
 41
12.8571428571
  0
LINE
  5
3A0
100
AcDbEntity
  8
0
100
AcDbLine
 62
7
  6
CONTINUOUS
 10
-28.4215202611
 20
10.1585499788
 11
-28.4215202611
 21
43.0
  0
LINE
  5
3A1
100
AcDbEntity
  8
0
100
AcDbLine
 62
7
  6
CONTINUOUS
 10
-74.9215202611
 20
0.5
 11
-74.9215202611
 21
43.0
  0
LINE
  5
3A2
100
AcDbEntity
  8
0
100
AcDbLine
 62
7
  6
CONTINUOUS
 10
-28.4215202611
 20
41.5
 11
-51.6715202611
 21
41.5
  0
LINE
  5
3A3
100
AcDbEntity
  8
0
100
AcDbLine
 62
7
  6
CONTINUOUS
 10
-74.9215202611
 20
41.5
 11
-51.6715202611
 21
41.5
  0
INSERT
  5
3A4
100
AcDbEntity
  8
0
100
AcDbBlockReference
 62
7
  6
CONTINUOUS
  2
_FILLED
 10
-28.4215202611
 20
41.5
 41
3.0
 42
3.0
 43
3.0
  0
INSERT
  5
3A5
100
AcDbEntity
  8
0
100
AcDbBlockReference
 62
7
  6
CONTINUOUS
  2
_FILLED
 10
-74.9215202611
 20
41.5
 41
3.0
 42
3.0
 43
3.0
 50
180.0
  0
ENDBLK
  5
3A6
100
AcDbEntity
  8
0
  6
BYBLOCK
 62
0
100
AcDbBlockEnd
  0
BLOCK
  5
3A7
100
AcDbEntity
  8
0
100
AcDbBlockBegin
 62
7
  6
CONTINUOUS
  2
*D1
 70
65
 10
0.0
 20
0.0
  3
*D1
  1

  0
MTEXT
  5
3A8
100
AcDbEntity
  8
0
100
AcDbMText
 62
7
  6
CONTINUOUS
  7
STANDARD
 71
2
 72
1
 10
-46.9215202611
 20
35.25
 30
0.0
 11
1.0
 21
0.0
 31
0.0
 73
2
 44
0.9
  1
{\ftxt;\W0.0001;\H0.0001;\~}{\ftxt;\W1.5;\H3.0; }{\ftxt;\W0.0001;\H0.0001;\~}
 40
3.0
 41
6.75
  0
LINE
  5
3A9
100
AcDbEntity
  8
0
100
AcDbLine
 62
7
  6
CONTINUOUS
 10
-65.4215202611
 20
16.6196591676
 11
-65.4215202611
 21
33.0
  0
LINE
  5
3AA
100
AcDbEntity
  8
0
100
AcDbLine
 62
7
  6
CONTINUOUS
 10
-28.4215202611
 20
17.6472402488
 11
-28.4215202611
 21
33.0
  0
LINE
  5
3AB
100
AcDbEntity
  8
0
100
AcDbLine
 62
7
  6
CONTINUOUS
 10
-65.4215202611
 20
31.5
 11
-46.9215202611
 21
31.5
  0
LINE
  5
3AC
100
AcDbEntity
  8
0
100
AcDbLine
 62
7
  6
CONTINUOUS
 10
-28.4215202611
 20
31.5
 11
-46.9215202611
 21
31.5
  0
INSERT
  5
3AD
100
AcDbEntity
  8
0
100
AcDbBlockReference
 62
7
  6
CONTINUOUS
  2
_FILLED
 10
-65.4215202611
 20
31.5
 41
3.0
 42
3.0
 43
3.0
 50
180.0
  0
INSERT
  5
3AE
100
AcDbEntity
  8
0
100
AcDbBlockReference
 62
7
  6
CONTINUOUS
  2
_FILLED
 10
-28.4215202611
 20
31.5
 41
3.0
 42
3.0
 43
3.0
  0
ENDBLK
  5
3AF
100
AcDbEntity
  8
0
  6
BYBLOCK
 62
0
100
AcDbBlockEnd
  0
BLOCK
  5
3B0
100
AcDbEntity
  8
0
100
AcDbBlockBegin
 62
7
  6
CONTINUOUS
  2
*D2
 70
65
 10
0.0
 20
0.0
  3
*D2
  1

  0
MTEXT
  5
3B1
100
AcDbEntity
  8
0
100
AcDbMText
 62
7
  6
CONTINUOUS
  7
STANDARD
 71
2
 72
1
 10
-0.0
 20
35.25
 30
0.0
 11
1.0
 21
0.0
 31
0.0
 73
2
 44
0.9
  1
{\ftxt;\W0.0001;\H0.0001;\~}{\ftxt;\W2.8571428571;\H3.0; }{\ftxt;\W0.0001;\H0.0001;\~}
 40
3.0
 41
12.8571428571
  0
LINE
  5
3B2
100
AcDbEntity
  8
0
100
AcDbLine
 62
7
  6
CONTINUOUS
 10
-11.15
 20
22.3997711479
 11
-11.15
 21
33.0
  0
LINE
  5
3B3
100
AcDbEntity
  8
0
100
AcDbLine
 62
7
  6
CONTINUOUS
 10
11.15
 20
22.3997711479
 11
11.15
 21
33.0
  0
LINE
  5
3B4
100
AcDbEntity
  8
0
100
AcDbLine
 62
7
  6
CONTINUOUS
 10
-11.15
 20
31.5
 11
0.0
 21
31.5
  0
LINE
  5
3B5
100
AcDbEntity
  8
0
100
AcDbLine
 62
7
  6
CONTINUOUS
 10
11.15
 20
31.5
 11
0.0
 21
31.5
  0
INSERT
  5
3B6
100
AcDbEntity
  8
0
100
AcDbBlockReference
 62
7
  6
CONTINUOUS
  2
_FILLED
 10
-11.15
 20
31.5
 41
3.0
 42
3.0
 43
3.0
 50
180.0
  0
INSERT
  5
3B7
100
AcDbEntity
  8
0
100
AcDbBlockReference
 62
7
  6
CONTINUOUS
  2
_FILLED
 10
11.15
 20
31.5
 41
3.0
 42
3.0
 43
3.0
 50
0.0
  0
ENDBLK
  5
3B8
100
AcDbEntity
  8
0
  6
BYBLOCK
 62
0
100
AcDbBlockEnd
  0
BLOCK
  5
3B9
100
AcDbEntity
  8
0
100
AcDbBlockBegin
 62
7
  6
CONTINUOUS
  2
*D3
 70
65
 10
0.0
 20
0.0
  3
*D3
  1

  0
MTEXT
  5
3BA
100
AcDbEntity
  8
0
100
AcDbMText
 62
7
  6
CONTINUOUS
  7
STANDARD
 71
2
 72
1
 10
15.4
 20
0.0
 30
0.0
 11
0.0
 21
1.0
 31
0.0
 73
2
 44
0.9
  1
{\ftxt;\W0.0001;\H0.0001;\~}{\ftxt;\W1.5714285714;\H3.0; }{\ftxt;\W0.0001;\H0.0001;\~}
 40
3.0
 41
7.0714285714
  0
LINE
  5
3BB
100
AcDbEntity
  8
0
100
AcDbLine
 62
7
  6
CONTINUOUS
 10
4.1748574782
 20
23.5
 11
20.65
 21
23.5
  0
LINE
  5
3BC
100
AcDbEntity
  8
0
100
AcDbLine
 62
7
  6
CONTINUOUS
 10
4.4140555432
 20
-23.5
 11
20.65
 21
-23.5
  0
LINE
  5
3BD
100
AcDbEntity
  8
0
100
AcDbLine
 62
7
  6
CONTINUOUS
 10
19.15
 20
23.5
 11
19.15
 21
0.0
  0
LINE
  5
3BE
100
AcDbEntity
  8
0
100
AcDbLine
 62
7
  6
CONTINUOUS
 10
19.15
 20
-23.5
 11
19.15
 21
0.0
  0
INSERT
  5
3BF
100
AcDbEntity
  8
0
100
AcDbBlockReference
 62
7
  6
CONTINUOUS
  2
_FILLED
 10
19.15
 20
23.5
 41
3.0
 42
3.0
 43
3.0
 50
90.0
  0
INSERT
  5
3C0
100
AcDbEntity
  8
0
100
AcDbBlockReference
 62
7
  6
CONTINUOUS
  2
_FILLED
 10
19.15
 20
-23.5
 41
3.0
 42
3.0
 43
3.0
 50
270.0
  0
ENDBLK
  5
3C1
100
AcDbEntity
  8
0
  6
BYBLOCK
 62
0
100
AcDbBlockEnd
  0
ENDSEC
  0
SECTION
  2
ENTITIES
  0
DIMENSION
  5
3C2
100
AcDbEntity
  8
0
100
AcDbDimension
 62
7
  6
CONTINUOUS
  2
*D0
 10
-74.9215202611
 20
41.5
 11
-52.1000919189
 21
41.5
 70
160
 71
2
 72
2
 41
0.9
 42
46.5
  1
{\ftxt;\W0.0001;\H0.0001;\~}{\ftxt;\W2.8571428571;\H3.0; }{\ftxt;\W0.0001;\H0.0001;\~}
  3
DIMSTYLE_1
100
AcDbAlignedDimension
 13
-28.4215202611
 23
9.6585499788
 14
-74.9215202611
 24
0.0
 50
180.0
100
AcDbRotatedDimension
  0
DIMENSION
  5
3C3
100
AcDbEntity
  8
0
100
AcDbDimension
 62
7
  6
CONTINUOUS
  2
*D1
 10
-28.4215202611
 20
31.5
 11
-47.3500913086
 21
31.5
 70
160
 71
2
 72
2
 41
0.9
 42
37.0
  1
{\ftxt;\W0.0001;\H0.0001;\~}{\ftxt;\W1.5;\H3.0; }{\ftxt;\W0.0001;\H0.0001;\~}
  3
DIMSTYLE_1
100
AcDbAlignedDimension
 13
-65.4215202611
 23
16.1196591676
 14
-28.4215202611
 24
17.1472402488
100
AcDbRotatedDimension
  0
DIMENSION
  5
3C4
100
AcDbEntity
  8
0
100
AcDbDimension
 62
7
  6
CONTINUOUS
  2
*D2
 10
11.15
 20
31.5
 11
-0.4285708008
 21
31.5
 70
160
 71
2
 72
2
 41
0.9
 42
22.3
  1
{\ftxt;\W0.0001;\H0.0001;\~}{\ftxt;\W2.8571428571;\H3.0; }{\ftxt;\W0.0001;\H0.0001;\~}
  3
DIMSTYLE_1
100
AcDbAlignedDimension
 13
-11.15
 23
21.8997711479
 14
11.15
 24
21.8997711479
100
AcDbRotatedDimension
  0
DIMENSION
  5
3C5
100
AcDbEntity
  8
0
100
AcDbDimension
 62
7
  6
CONTINUOUS
  2
*D3
 10
19.15
 20
-23.5
 11
19.15
 21
-0.4285713239
 70
160
 71
2
 72
2
 41
0.9
 42
47.0
  1
{\ftxt;\W0.0001;\H0.0001;\~}{\ftxt;\W1.5714285714;\H3.0; }{\ftxt;\W0.0001;\H0.0001;\~}
  3
DIMSTYLE_1
100
AcDbAlignedDimension
 13
3.6748574782
 23
23.5
 14
3.9140555432
 24
-23.5
 50
270.0
100
AcDbRotatedDimension
  0
LWPOLYLINE
  5
3C6
100
AcDbEntity
  8
0
100
AcDbPolyline
 62
7
  6
CONTINUOUS
 90
5
 70
0
 43
0.3500000019
 10
3.0000024414
 20
33.9642858887
 10
3.3571425781
 20
34.1785710449
 10
3.3571425781
 20
34.8214291992
 10
3.0000024414
 20
35.2499995117
 10
2.1428564453
 20
35.2499995117
  0
LINE
  5
3C7
100
AcDbEntity
  8
ASSI
100
AcDbLine
 62
7
  6
CONTINUOUS
 10
3.9140555432
 20
-23.5
 11
-3.9140555432
 21
-23.5
  0
LINE
  5
3C8
100
AcDbEntity
  8
0
100
AcDbLine
 62
7
  6
CONTINUOUS
 10
3.9140555432
 20
-23.5
 11
-3.9140555432
 21
-23.5
  0
LINE
  5
3C9
100
AcDbEntity
  8
ASSI
100
AcDbLine
 62
250
  6
CONTINUOUS
 10
-3.9355835677
 20
-23.4859750215
 11
3.9355835926
 21
-23.4859750215
  0
LINE
  5
3CA
100
AcDbEntity
  8
0
100
AcDbLine
 62
250
  6
CONTINUOUS
 10
-3.9355835677
 20
-23.4859750215
 11
3.9355835926
 21
-23.4859750215
  0
LINE
  5
3CB
100
AcDbEntity
  8
ASSI
100
AcDbLine
 62
250
  6
CONTINUOUS
 10
-3.9355890842
 20
-23.2860054824
 11
3.9355244278
 21
-23.2860054824
  0
LINE
  5
3CC
100
AcDbEntity
  8
0
100
AcDbLine
 62
250
  6
CONTINUOUS
 10
-3.9355890842
 20
-23.2860054824
 11
3.9355244278
 21
-23.2860054824
  0
LINE
  5
3CD
100
AcDbEntity
  8
ASSI
100
AcDbLine
 62
250
  6
CONTINUOUS
 10
-4.4
 20
-23.1114149286
 11
-4.2
 21
-23.1114149286
  0
LINE
  5
3CE
100
AcDbEntity
  8
0
100
AcDbLine
 62
250
  6
CONTINUOUS
 10
-4.4
 20
-23.1114149286
 11
-4.2
 21
-23.1114149286
  0
LINE
  5
3CF
100
AcDbEntity
  8
ASSI
100
AcDbLine
 62
250
  6
CONTINUOUS
 10
4.2
 20
-23.1114149286
 11
4.4
 21
-23.1114149286
  0
LINE
  5
3D0
100
AcDbEntity
  8
0
100
AcDbLine
 62
250
  6
CONTINUOUS
 10
4.2
 20
-23.1114149286
 11
4.4
 21
-23.1114149286
  0
LINE
  5
3D1
100
AcDbEntity
  8
ASSI
100
AcDbLine
 62
250
  6
CONTINUOUS
 10
-4.4
 20
-23.0992772252
 11
4.4
 21
-23.0992772252
  0
LINE
  5
3D2
100
AcDbEntity
  8
0
100
AcDbLine
 62
250
  6
CONTINUOUS
 10
-4.4
 20
-23.0992772252
 11
4.4
 21
-23.0992772252
  0
LINE
  5
3D3
100
AcDbEntity
  8
ASSI
100
AcDbLine
 62
250
  6
CONTINUOUS
 10
4.2
 20
-22.9590953724
 11
-4.2
 21
-22.9590953724
  0
LINE
  5
3D4
100
AcDbEntity
  8
0
100
AcDbLine
 62
250
  6
CONTINUOUS
 10
4.2
 20
-22.9590953724
 11
-4.2
 21
-22.9590953724
  0
LINE
  5
3D5
100
AcDbEntity
  8
ASSI
100
AcDbLine
 62
250
  6
CONTINUOUS
 10
-4.2
 20
-22.7129877857
 11
4.2
 21
-22.7129877857
  0
LINE
  5
3D6
100
AcDbEntity
  8
0
100
AcDbLine
 62
250
  6
CONTINUOUS
 10
-4.2
 20
-22.7129877857
 11
4.2
 21
-22.7129877857
  0
LINE
  5
3D7
100
AcDbEntity
  8
ASSI
100
AcDbLine
 62
250
  6
CONTINUOUS
 10
-4.2
 20
-22.5037308841
 11
4.2
 21
-22.5037308841
  0
LINE
  5
3D8
100
AcDbEntity
  8
0
100
AcDbLine
 62
250
  6
CONTINUOUS
 10
-4.2
 20
-22.5037308841
 11
4.2
 21
-22.5037308841
  0
LINE
  5
3D9
100
AcDbEntity
  8
ASSI
100
AcDbLine
 62
7
  6
CONTINUOUS
 10
4.2
 20
-22.5
 11
-4.2
 21
-22.5
  0
LINE
  5
3DA
100
AcDbEntity
  8
0
100
AcDbLine
 62
7
  6
CONTINUOUS
 10
4.2
 20
-22.5
 11
-4.2
 21
-22.5
  0
LINE
  5
3DB
100
AcDbEntity
  8
ASSI
100
AcDbLine
 62
7
  6
CONTINUOUS
 10
10.6503805997
 20
-22.4
 11
3.3
 21
-22.4
  0
LINE
  5
3DC
100
AcDbEntity
  8
0
100
AcDbLine
 62
7
  6
CONTINUOUS
 10
10.6503805997
 20
-22.4
 11
3.3
 21
-22.4
  0
LINE
  5
3DD
100
AcDbEntity
  8
ASSI
100
AcDbLine
 62
7
  6
CONTINUOUS
 10
-3.3
 20
-22.4
 11
-10.6503805997
 21
-22.4
  0
LINE
  5
3DE
100
AcDbEntity
  8
0
100
AcDbLine
 62
7
  6
CONTINUOUS
 10
-3.3
 20
-22.4
 11
-10.6503805997
 21
-22.4
  0
LINE
  5
3DF
100
AcDbEntity
  8
ASSI
100
AcDbLine
 62
250
  6
CONTINUOUS
 10
10.5087981167
 20
-21.9749071372
 11
-10.5087981167
 21
-21.9749071372
  0
LINE
  5
3E0
100
AcDbEntity
  8
0
100
AcDbLine
 62
250
  6
CONTINUOUS
 10
10.5087981167
 20
-21.9749071372
 11
-10.5087981167
 21
-21.9749071372
  0
LINE
  5
3E1
100
AcDbEntity
  8
ASSI
100
AcDbLine
 62
250
  6
CONTINUOUS
 10
10.5005350625
 20
-21.0183142309
 11
-10.5005350625
 21
-21.0183142309
  0
LINE
  5
3E2
100
AcDbEntity
  8
0
100
AcDbLine
 62
250
  6
CONTINUOUS
 10
10.5005350625
 20
-21.0183142309
 11
-10.5005350625
 21
-21.0183142309
  0
LINE
  5
3E3
100
AcDbEntity
  8
CURVE
100
AcDbLine
 62
250
  6
CONTINUOUS
 10
7.85
 20
-19.2
 11
4.7120000008
 21
-19.1999999999
  0
LINE
  5
3E4
100
AcDbEntity
  8
CURVE
100
AcDbLine
 62
250
  6
CONTINUOUS
 10
0.8834285502
 20
-19.1999999999
 11
1.3977142338
 21
-19.1999999999
  0
LINE
  5
3E5
100
AcDbEntity
  8
CURVE
100
AcDbLine
 62
250
  6
CONTINUOUS
 10
5.3192123425
 20
-18.5801009442
 11
7.2482054627
 21
-18.5801009442
  0
LINE
  5
3E6
100
AcDbEntity
  8
CURVE
100
AcDbLine
 62
250
  6
CONTINUOUS
 10
1.3977142338
 20
-18.1714285254
 11
0.8834285502
 21
-18.1714285254
  0
LINE
  5
3E7
100
AcDbEntity
  8
CURVE
100
AcDbLine
 62
250
  6
CONTINUOUS
 10
7.2482054627
 20
-17.6807177782
 11
5.3192123425
 21
-17.6807177782
  0
LINE
  5
3E8
100
AcDbEntity
  8
CURVE
100
AcDbLine
 62
250
  6
CONTINUOUS
 10
0.8834285502
 20
-17.3999999999
 11
1.6548570756
 21
-17.3999999999
  0
LINE
  5
3E9
100
AcDbEntity
  8
ASSI
100
AcDbLine
 62
7
  6
CONTINUOUS
 10
-3.2333672024
 20
22.5
 11
-3.3
 21
22.4
  0
LINE
  5
3EA
100
AcDbEntity
  8
0
100
AcDbLine
 62
7
  6
CONTINUOUS
 10
-3.2333672024
 20
22.5
 11
-3.3
 21
22.4
  0
LINE
  5
3EB
100
AcDbEntity
  8
CURVE
100
AcDbLine
 62
250
  6
CONTINUOUS
 10
4.712000001
 20
-13.7844068404
 11
7.85
 21
-13.7844068405
  0
LINE
  5
3EC
100
AcDbEntity
  8
ASSI
100
AcDbLine
 62
7
  6
CONTINUOUS
 10
-3.3
 20
-22.4
 11
-3.2333672024
 21
-22.5
  0
LINE
  5
3ED
100
AcDbEntity
  8
0
100
AcDbLine
 62
7
  6
CONTINUOUS
 10
-3.3
 20
-22.4
 11
-3.2333672024
 21
-22.5
  0
LINE
  5
3EE
100
AcDbEntity
  8
CURVE
100
AcDbLine
 62
250
  6
CONTINUOUS
 10
6.789067893
 20
-13.2697782268
 11
5.7729321081
 21
-13.2697782268
  0
LINE
  5
3EF
100
AcDbEntity
  8
ASSI
100
AcDbLine
 62
7
  6
CONTINUOUS
 10
-11.15
 20
-21.8997711479
 11
-11.15
 21
21.8997711479
  0
LINE
  5
3F0
100
AcDbEntity
  8
0
100
AcDbLine
 62
7
  6
CONTINUOUS
 10
-11.15
 20
-21.8997711479
 11
-11.15
 21
21.8997711479
  0
LINE
  5
3F1
100
AcDbEntity
  8
0
100
AcDbLine
 62
250
  6
CONTINUOUS
 10
4.0439342151
 20
23.4523145562
 11
4.0448323829
 21
23.4535307017
  0
LINE
  5
3F2
100
AcDbEntity
  8
CURVE
100
AcDbLine
 62
250
  6
CONTINUOUS
 10
1.6548570756
 20
-18.4285714208
 11
1.3977142338
 21
-18.1714285254
  0
LWPOLYLINE
  5
3F3
100
AcDbEntity
  8
0
100
AcDbPolyline
 62
7
  6
CONTINUOUS
 90
3
 70
0
 43
0.3500000019
 10
1.1428554688
 20
32.5357145996
 10
1.0714306641
 20
32.3214294434
 10
0.9285703125
 20
32.0357141113
  0
LINE
  5
3F4
100
AcDbEntity
  8
0
100
AcDbLine
 62
250
  6
CONTINUOUS
 10
3.9355835802
 20
23.2860054824
 11
4.0439342151
 21
23.4523145562
  0
LINE
  5
3F5
100
AcDbEntity
  8
ASSI
100
AcDbLine
 62
250
  6
CONTINUOUS
 10
3.9355835802
 20
23.2860054824
 11
4.0443973556
 21
23.4529057868
  0
LINE
  5
3F6
100
AcDbEntity
  8
ASSI
100
AcDbLine
 62
250
  6
CONTINUOUS
 10
4.2
 20
23.1114149286
 11
4.311151079
 21
23.2776841005
  0
LINE
  5
3F7
100
AcDbEntity
  8
0
100
AcDbLine
 62
250
  6
CONTINUOUS
 10
4.2
 20
23.1114149286
 11
4.311151079
 21
23.2776841005
  0
LINE
  5
3F8
100
AcDbEntity
  8
ASSI
100
AcDbLine
 62
250
  6
CONTINUOUS
 10
4.0443973556
 20
23.4529057868
 11
4.0448323829
 21
23.4535307017
  0
LINE
  5
3F9
100
AcDbEntity
  8
ASSI
100
AcDbLine
 62
250
  6
CONTINUOUS
 10
4.2
 20
-23.1114149286
 11
4.3111510791
 21
-23.2776841007
  0
LINE
  5
3FA
100
AcDbEntity
  8
0
100
AcDbLine
 62
250
  6
CONTINUOUS
 10
4.2
 20
-23.1114149286
 11
4.3111510791
 21
-23.2776841007
  0
LINE
  5
3FB
100
AcDbEntity
  8
ASSI
100
AcDbLine
 62
250
  6
CONTINUOUS
 10
4.0448323829
 20
-23.4535307017
 11
3.9355835802
 21
-23.2860054824
  0
LINE
  5
3FC
100
AcDbEntity
  8
0
100
AcDbLine
 62
250
  6
CONTINUOUS
 10
4.0448323829
 20
-23.4535307017
 11
3.9355835802
 21
-23.2860054824
  0
LINE
  5
3FD
100
AcDbEntity
  8
ASSI
100
AcDbLine
 62
7
  6
CONTINUOUS
 10
-3.3848722771
 20
22.4
 11
-3.3633443637
 21
22.5
  0
LINE
  5
3FE
100
AcDbEntity
  8
0
100
AcDbLine
 62
7
  6
CONTINUOUS
 10
-3.3848722771
 20
22.4
 11
-3.3633443637
 21
22.5
  0
LINE
  5
3FF
100
AcDbEntity
  8
ASSI
100
AcDbLine
 62
250
  6
CONTINUOUS
 10
5.5
 20
-7.0005197317
 11
-1.2
 21
-7.0005197317
  0
LINE
  5
400
100
AcDbEntity
  8
0
100
AcDbLine
 62
250
  6
CONTINUOUS
 10
5.5
 20
-7.0005197317
 11
-1.2
 21
-7.0005197317
  0
LINE
  5
401
100
AcDbEntity
  8
ASSI
100
AcDbLine
 62
7
  6
CONTINUOUS
 10
-3.3848722771
 20
-22.4
 11
-3.3633443637
 21
-22.5
  0
LINE
  5
402
100
AcDbEntity
  8
0
100
AcDbLine
 62
7
  6
CONTINUOUS
 10
-3.3848722771
 20
-22.4
 11
-3.3633443637
 21
-22.5
  0
LINE
  5
403
100
AcDbEntity
  8
ASSI
100
AcDbLine
 62
250
  6
CONTINUOUS
 10
5.5
 20
-6.6963651113
 11
-1.2
 21
-6.6963651113
  0
LINE
  5
404
100
AcDbEntity
  8
0
100
AcDbLine
 62
250
  6
CONTINUOUS
 10
5.5
 20
-6.6963651113
 11
-1.2
 21
-6.6963651113
  0
LINE
  5
405
100
AcDbEntity
  8
ASSI
100
AcDbLine
 62
7
  6
CONTINUOUS
 10
5.5
 20
-6.6622185454
 11
-1.2
 21
-6.6622185454
  0
LINE
  5
406
100
AcDbEntity
  8
0
100
AcDbLine
 62
7
  6
CONTINUOUS
 10
5.5
 20
-6.6622185454
 11
-1.2
 21
-6.6622185454
  0
LINE
  5
407
100
AcDbEntity
  8
ASSI
100
AcDbLine
 62
250
  6
CONTINUOUS
 10
7.046756823
 20
-5.15
 11
7.0122185454
 21
-5.15
  0
LINE
  5
408
100
AcDbEntity
  8
0
100
AcDbLine
 62
250
  6
CONTINUOUS
 10
7.046756823
 20
-5.15
 11
7.0122185454
 21
-5.15
  0
LINE
  5
409
100
AcDbEntity
  8
ASSI
100
AcDbLine
 62
250
  6
CONTINUOUS
 10
-2.746756823
 20
-5.15
 11
-2.7122185454
 21
-5.15
  0
LINE
  5
40A
100
AcDbEntity
  8
0
100
AcDbLine
 62
250
  6
CONTINUOUS
 10
-2.746756823
 20
-5.15
 11
-2.7122185454
 21
-5.15
  0
LINE
  5
40B
100
AcDbEntity
  8
ASSI
100
AcDbLine
 62
7
  6
CONTINUOUS
 10
-4.4
 20
-23.1114149286
 11
-4.4
 21
-22.7000304656
  0
LINE
  5
40C
100
AcDbEntity
  8
0
100
AcDbLine
 62
7
  6
CONTINUOUS
 10
-4.4
 20
-23.1114149286
 11
-4.4
 21
-22.7000304656
  0
LINE
  5
40D
100
AcDbEntity
  8
ASSI
100
AcDbLine
 62
7
  6
CONTINUOUS
 10
-4.4
 20
22.7000304656
 11
-4.4
 21
23.1114149286
  0
LINE
  5
40E
100
AcDbEntity
  8
0
100
AcDbLine
 62
7
  6
CONTINUOUS
 10
-4.4
 20
22.7000304656
 11
-4.4
 21
23.1114149286
  0
LINE
  5
40F
100
AcDbEntity
  8
ASSI
100
AcDbLine
 62
250
  6
CONTINUOUS
 10
-4.2
 20
-23.1114149286
 11
-4.2
 21
-22.5
  0
LINE
  5
410
100
AcDbEntity
  8
0
100
AcDbLine
 62
250
  6
CONTINUOUS
 10
-4.2
 20
-23.1114149286
 11
-4.2
 21
-22.5
  0
LINE
  5
411
100
AcDbEntity
  8
ASSI
100
AcDbLine
 62
250
  6
CONTINUOUS
 10
-4.2
 20
22.5
 11
-4.2
 21
23.1114149286
  0
LINE
  5
412
100
AcDbEntity
  8
0
100
AcDbLine
 62
250
  6
CONTINUOUS
 10
-4.2
 20
22.5
 11
-4.2
 21
23.1114149286
  0
LINE
  5
413
100
AcDbEntity
  8
ASSI
100
AcDbLine
 62
250
  6
CONTINUOUS
 10
-3.9355835802
 20
-23.4859750215
 11
-3.9355835802
 21
-23.2860054824
  0
LINE
  5
414
100
AcDbEntity
  8
0
100
AcDbLine
 62
250
  6
CONTINUOUS
 10
-3.9355835802
 20
-23.4859750215
 11
-3.9355835802
 21
-23.2860054824
  0
LINE
  5
415
100
AcDbEntity
  8
ASSI
100
AcDbLine
 62
250
  6
CONTINUOUS
 10
-3.9355835802
 20
23.2860054824
 11
-3.9355835802
 21
23.4859750215
  0
LINE
  5
416
100
AcDbEntity
  8
0
100
AcDbLine
 62
250
  6
CONTINUOUS
 10
-3.9355835802
 20
23.2860054824
 11
-3.9355835802
 21
23.4859750215
  0
LINE
  5
417
100
AcDbEntity
  8
ASSI
100
AcDbLine
 62
7
  6
CONTINUOUS
 10
-3.4698202597
 20
-22.5
 11
-3.4698202597
 21
-22.4
  0
LINE
  5
418
100
AcDbEntity
  8
0
100
AcDbLine
 62
7
  6
CONTINUOUS
 10
-3.4698202597
 20
-22.5
 11
-3.4698202597
 21
-22.4
  0
LINE
  5
419
100
AcDbEntity
  8
ASSI
100
AcDbLine
 62
7
  6
CONTINUOUS
 10
-3.4698202597
 20
22.4
 11
-3.4698202597
 21
22.5
  0
LINE
  5
41A
100
AcDbEntity
  8
0
100
AcDbLine
 62
7
  6
CONTINUOUS
 10
-3.4698202597
 20
22.4
 11
-3.4698202597
 21
22.5
  0
LINE
  5
41B
100
AcDbEntity
  8
ASSI
100
AcDbLine
 62
250
  6
CONTINUOUS
 10
-11.15
 20
-21.8997711479
 11
-11.0087219643
 21
-21.4755923698
  0
LINE
  5
41C
100
AcDbEntity
  8
0
100
AcDbLine
 62
250
  6
CONTINUOUS
 10
-11.15
 20
-21.8997711479
 11
-11.0087219643
 21
-21.4755923698
  0
LINE
  5
41D
100
AcDbEntity
  8
ASSI
100
AcDbLine
 62
250
  6
CONTINUOUS
 10
7.0469045881
 20
-4.25
 11
7.0122185454
 21
-4.25
  0
LINE
  5
41E
100
AcDbEntity
  8
0
100
AcDbLine
 62
250
  6
CONTINUOUS
 10
7.0469045881
 20
-4.25
 11
7.0122185454
 21
-4.25
  0
LINE
  5
41F
100
AcDbEntity
  8
ASSI
100
AcDbLine
 62
250
  6
CONTINUOUS
 10
-2.7469045881
 20
-4.25
 11
-2.7122185454
 21
-4.25
  0
LINE
  5
420
100
AcDbEntity
  8
0
100
AcDbLine
 62
250
  6
CONTINUOUS
 10
-2.7469045881
 20
-4.25
 11
-2.7122185454
 21
-4.25
  0
LINE
  5
421
100
AcDbEntity
  8
0
100
AcDbLine
 62
7
  6
CONTINUOUS
 10
-2.7122185454
 20
-4.2
 11
7.0122185454
 21
-4.2
  0
LINE
  5
422
100
AcDbEntity
  8
IMPORT_IGES
100
AcDbLine
 62
7
  6
CONTINUOUS
 10
-2.6548055056
 20
-3.84
 11
-1.996
 21
-3.84
  0
LINE
  5
423
100
AcDbEntity
  8
IMPORT_IGES
100
AcDbLine
 62
7
  6
CONTINUOUS
 10
-0.696
 20
-3.84
 11
1.004
 21
-3.84
  0
LINE
  5
424
100
AcDbEntity
  8
IMPORT_IGES
100
AcDbLine
 62
7
  6
CONTINUOUS
 10
2.304
 20
-3.84
 11
4.004
 21
-3.84
  0
LINE
  5
425
100
AcDbEntity
  8
ASSI
100
AcDbLine
 62
250
  6
CONTINUOUS
 10
-11.0087219643
 20
21.4755923698
 11
-11.15
 21
21.8997711479
  0
LINE
  5
426
100
AcDbEntity
  8
0
100
AcDbLine
 62
250
  6
CONTINUOUS
 10
-11.0087219643
 20
21.4755923698
 11
-11.15
 21
21.8997711479
  0
LINE
  5
427
100
AcDbEntity
  8
ASSI
100
AcDbLine
 62
250
  6
CONTINUOUS
 10
-3.0467111315
 20
-5.1530918551
 11
-3.0468588966
 21
-4.2525515309
  0
LINE
  5
428
100
AcDbEntity
  8
0
100
AcDbLine
 62
250
  6
CONTINUOUS
 10
-3.0467111315
 20
-5.1530918551
 11
-3.0468588966
 21
-4.2525515309
  0
LINE
  5
429
100
AcDbEntity
  8
ASSI
100
AcDbLine
 62
7
  6
CONTINUOUS
 10
-2.7122185454
 20
-5.15
 11
-2.7122185454
 21
-4.25
  0
LINE
  5
42A
100
AcDbEntity
  8
0
100
AcDbLine
 62
7
  6
CONTINUOUS
 10
-2.7122185454
 20
-5.15
 11
-2.7122185454
 21
-4.25
  0
LINE
  5
42B
100
AcDbEntity
  8
ASSI
100
AcDbLine
 62
7
  6
CONTINUOUS
 10
-2.7122185454
 20
4.25
 11
-2.7122185454
 21
5.15
  0
LINE
  5
42C
100
AcDbEntity
  8
0
100
AcDbLine
 62
7
  6
CONTINUOUS
 10
-2.7122185454
 20
4.25
 11
-2.7122185454
 21
5.15
  0
LINE
  5
42D
100
AcDbEntity
  8
IMPORT_IGES
100
AcDbLine
 62
7
  6
CONTINUOUS
 10
-1.996
 20
-3.84
 11
-1.996
 21
-2.9658434607
  0
LINE
  5
42E
100
AcDbEntity
  8
IMPORT_IGES
100
AcDbLine
 62
7
  6
CONTINUOUS
 10
-1.996
 20
5.56
 11
-1.996
 21
6.4341565393
  0
LINE
  5
42F
100
AcDbEntity
  8
ASSI
100
AcDbLine
 62
250
  6
CONTINUOUS
 10
-3.0468588966
 20
4.2525515309
 11
-3.0467111315
 21
5.1530918551
  0
LINE
  5
430
100
AcDbEntity
  8
0
100
AcDbLine
 62
250
  6
CONTINUOUS
 10
-3.0468588966
 20
4.2525515309
 11
-3.0467111315
 21
5.1530918551
  0
LINE
  5
431
100
AcDbEntity
  8
ASSI
100
AcDbLine
 62
250
  6
CONTINUOUS
 10
-10.6503805997
 20
-22.4
 11
-10.5087981167
 21
-21.9749071372
  0
LINE
  5
432
100
AcDbEntity
  8
0
100
AcDbLine
 62
250
  6
CONTINUOUS
 10
-10.6503805997
 20
-22.4
 11
-10.5087981167
 21
-21.9749071372
  0
LINE
  5
433
100
AcDbEntity
  8
IMPORT_IGES
100
AcDbLine
 62
7
  6
CONTINUOUS
 10
6.2553783417
 20
-2.94
 11
-1.9553783417
 21
-2.94
  0
LINE
  5
434
100
AcDbEntity
  8
ASSI
100
AcDbLine
 62
7
  6
CONTINUOUS
 10
-1.2
 20
-2.7377814546
 11
5.5
 21
-2.7377814546
  0
LINE
  5
435
100
AcDbEntity
  8
0
100
AcDbLine
 62
7
  6
CONTINUOUS
 10
-1.2
 20
-2.7377814546
 11
5.5
 21
-2.7377814546
  0
LINE
  5
436
100
AcDbEntity
  8
ASSI
100
AcDbLine
 62
250
  6
CONTINUOUS
 10
-1.2
 20
-2.7028807824
 11
5.5
 21
-2.7028807824
  0
LINE
  5
437
100
AcDbEntity
  8
0
100
AcDbLine
 62
250
  6
CONTINUOUS
 10
-1.2
 20
-2.7028807824
 11
5.5
 21
-2.7028807824
  0
LINE
  5
438
100
AcDbEntity
  8
ASSI
100
AcDbLine
 62
250
  6
CONTINUOUS
 10
-1.2
 20
-2.4043690953
 11
5.5
 21
-2.4043690953
  0
LINE
  5
439
100
AcDbEntity
  8
0
100
AcDbLine
 62
250
  6
CONTINUOUS
 10
-1.2
 20
-2.4043690953
 11
5.5
 21
-2.4043690953
  0
LINE
  5
43A
100
AcDbEntity
  8
ASSI
100
AcDbLine
 62
250
  6
CONTINUOUS
 10
-10.5087981167
 20
21.9749071372
 11
-10.6503805997
 21
22.4
  0
LINE
  5
43B
100
AcDbEntity
  8
0
100
AcDbLine
 62
250
  6
CONTINUOUS
 10
-10.5087981167
 20
21.9749071372
 11
-10.6503805997
 21
22.4
  0
LINE
  5
43C
100
AcDbEntity
  8
CURVE
100
AcDbLine
 62
250
  6
CONTINUOUS
 10
2.940571392
 20
-17.9142856835
 11
3.3262857084
 21
-19.1999999999
  0
LINE
  5
43D
100
AcDbEntity
  8
CURVE
100
AcDbLine
 62
250
  6
CONTINUOUS
 10
2.1691427593
 20
-17.3999999999
 11
2.5548570756
 21
-19.1999999999
  0
LINE
  5
43E
100
AcDbEntity
  8
ASSI
100
AcDbLine
 62
250
  6
CONTINUOUS
 10
-1.2
 20
-7.0005197317
 11
-1.2
 21
-6.6622185454
  0
LINE
  5
43F
100
AcDbEntity
  8
0
100
AcDbLine
 62
250
  6
CONTINUOUS
 10
-1.2
 20
-7.0005197317
 11
-1.2
 21
-6.6622185454
  0
LINE
  5
440
100
AcDbEntity
  8
ASSI
100
AcDbLine
 62
250
  6
CONTINUOUS
 10
-1.2
 20
2.4043690953
 11
-1.2
 21
2.7377814546
  0
LINE
  5
441
100
AcDbEntity
  8
ASSI
100
AcDbLine
 62
250
  6
CONTINUOUS
 10
-1.2
 20
-2.4043690953
 11
-1.2
 21
-2.7377814546
  0
LINE
  5
442
100
AcDbEntity
  8
0
100
AcDbLine
 62
250
  6
CONTINUOUS
 10
-1.2
 20
-2.4043690953
 11
-1.2
 21
-2.7377814546
  0
LINE
  5
443
100
AcDbEntity
  8
0
100
AcDbLine
 62
250
  6
CONTINUOUS
 10
-1.2
 20
2.4043690953
 11
-1.2
 21
2.7377814546
  0
LINE
  5
444
100
AcDbEntity
  8
ASSI
100
AcDbLine
 62
250
  6
CONTINUOUS
 10
-1.2
 20
6.6622185454
 11
-1.2
 21
7.0005197317
  0
LINE
  5
445
100
AcDbEntity
  8
0
100
AcDbLine
 62
250
  6
CONTINUOUS
 10
-1.2
 20
6.6622185454
 11
-1.2
 21
7.0005197317
  0
LINE
  5
446
100
AcDbEntity
  8
IMPORT_IGES
100
AcDbLine
 62
7
  6
CONTINUOUS
 10
-0.696
 20
-3.84
 11
-0.696
 21
-2.94
  0
LINE
  5
447
100
AcDbEntity
  8
IMPORT_IGES
100
AcDbLine
 62
7
  6
CONTINUOUS
 10
-0.696
 20
5.56
 11
-0.696
 21
6.46
  0
LINE
  5
448
100
AcDbEntity
  8
ASSI
100
AcDbLine
 62
7
  6
CONTINUOUS
 10
3.4151277229
 20
22.4
 11
3.4366556363
 21
22.5
  0
LINE
  5
449
100
AcDbEntity
  8
0
100
AcDbLine
 62
7
  6
CONTINUOUS
 10
3.4151277229
 20
22.4
 11
3.4366556363
 21
22.5
  0
LWPOLYLINE
  5
44A
100
AcDbEntity
  8
0
100
AcDbPolyline
 62
7
  6
CONTINUOUS
 90
2
 70
0
 43
0.3500000019
 10
18.4000024414
 20
-1.3571428757
 10
16.9000009766
 20
-1.3571428757
  0
LWPOLYLINE
  5
44B
100
AcDbEntity
  8
0
100
AcDbPolyline
 62
7
  6
CONTINUOUS
 90
4
 70
0
 43
0.3500000019
 10
16.0428549805
 20
0.0
 10
15.3999995117
 20
0.0
 10
15.3999995117
 20
1.4999999542
 10
18.4000024414
 20
0.6428571472
  0
LINE
  5
44C
100
AcDbEntity
  8
ASSI
100
AcDbLine
 62
7
  6
CONTINUOUS
 10
3.4151277229
 20
-22.4
 11
3.4366556363
 21
-22.5
  0
LINE
  5
44D
100
AcDbEntity
  8
0
100
AcDbLine
 62
7
  6
CONTINUOUS
 10
3.4151277229
 20
-22.4
 11
3.4366556363
 21
-22.5
  0
LINE
  5
44E
100
AcDbEntity
  8
CURVE
100
AcDbLine
 62
250
  6
CONTINUOUS
 10
0.3691428129
 20
-17.3999999999
 11
0.3691428129
 21
-19.1999999835
  0
LINE
  5
44F
100
AcDbEntity
  8
CURVE
100
AcDbLine
 62
250
  6
CONTINUOUS
 10
0.8834285502
 20
-18.1714285254
 11
0.8834285502
 21
-17.4000000087
  0
LINE
  5
450
100
AcDbEntity
  8
IMPORT_IGES
100
AcDbLine
 62
7
  6
CONTINUOUS
 10
1.004
 20
-3.84
 11
1.004
 21
-2.94
  0
LINE
  5
451
100
AcDbEntity
  8
IMPORT_IGES
100
AcDbLine
 62
7
  6
CONTINUOUS
 10
1.004
 20
5.56
 11
1.004
 21
6.46
  0
LINE
  5
452
100
AcDbEntity
  8
CURVE
100
AcDbLine
 62
250
  6
CONTINUOUS
 10
1.6548570756
 20
-18.9428571313
 11
1.6548570756
 21
-18.4285714166
  0
LINE
  5
453
100
AcDbEntity
  8
ASSI
100
AcDbLine
 62
7
  6
CONTINUOUS
 10
-3.4151277229
 20
-22.4
 11
-3.4366556363
 21
-22.5
  0
LINE
  5
454
100
AcDbEntity
  8
0
100
AcDbLine
 62
7
  6
CONTINUOUS
 10
-3.4151277229
 20
-22.4
 11
-3.4366556363
 21
-22.5
  0
LINE
  5
455
100
AcDbEntity
  8
ASSI
100
AcDbLine
 62
7
  6
CONTINUOUS
 10
-3.4151277229
 20
22.4
 11
-3.4366556363
 21
22.5
  0
LINE
  5
456
100
AcDbEntity
  8
0
100
AcDbLine
 62
7
  6
CONTINUOUS
 10
-3.4151277229
 20
22.4
 11
-3.4366556363
 21
22.5
  0
LINE
  5
457
100
AcDbEntity
  8
IMPORT_IGES
100
AcDbLine
 62
7
  6
CONTINUOUS
 10
2.304
 20
-3.84
 11
2.304
 21
-2.94
  0
LINE
  5
458
100
AcDbEntity
  8
IMPORT_IGES
100
AcDbLine
 62
7
  6
CONTINUOUS
 10
2.304
 20
5.56
 11
2.304
 21
6.46
  0
LINE
  5
459
100
AcDbEntity
  8
ASSI
100
AcDbLine
 62
7
  6
CONTINUOUS
 10
3.4698202597
 20
22.5
 11
3.4698202597
 21
22.4
  0
LINE
  5
45A
100
AcDbEntity
  8
0
100
AcDbLine
 62
7
  6
CONTINUOUS
 10
3.4698202597
 20
22.5
 11
3.4698202597
 21
22.4
  0
LINE
  5
45B
100
AcDbEntity
  8
ASSI
100
AcDbLine
 62
7
  6
CONTINUOUS
 10
3.4698202597
 20
-22.4
 11
3.4698202597
 21
-22.5
  0
LINE
  5
45C
100
AcDbEntity
  8
0
100
AcDbLine
 62
7
  6
CONTINUOUS
 10
3.4698202597
 20
-22.4
 11
3.4698202597
 21
-22.5
  0
LINE
  5
45D
100
AcDbEntity
  8
ASSI
100
AcDbLine
 62
250
  6
CONTINUOUS
 10
10.5087981167
 20
21.9749071372
 11
10.6503805997
 21
22.4
  0
LINE
  5
45E
100
AcDbEntity
  8
0
100
AcDbLine
 62
250
  6
CONTINUOUS
 10
10.5087981167
 20
21.9749071372
 11
10.6503805997
 21
22.4
  0
LINE
  5
45F
100
AcDbEntity
  8
ASSI
100
AcDbLine
 62
250
  6
CONTINUOUS
 10
11.0087219643
 20
21.4755923698
 11
11.15
 21
21.8997711479
  0
LINE
  5
460
100
AcDbEntity
  8
0
100
AcDbLine
 62
250
  6
CONTINUOUS
 10
11.0087219643
 20
21.4755923698
 11
11.15
 21
21.8997711479
  0
LINE
  5
461
100
AcDbEntity
  8
ASSI
100
AcDbLine
 62
250
  6
CONTINUOUS
 10
5.5
 20
2.4043690953
 11
-1.2
 21
2.4043690953
  0
LINE
  5
462
100
AcDbEntity
  8
0
100
AcDbLine
 62
250
  6
CONTINUOUS
 10
5.5
 20
2.4043690953
 11
-1.2
 21
2.4043690953
  0
LINE
  5
463
100
AcDbEntity
  8
ASSI
100
AcDbLine
 62
250
  6
CONTINUOUS
 10
5.5
 20
2.7028807824
 11
-1.2
 21
2.7028807824
  0
LINE
  5
464
100
AcDbEntity
  8
0
100
AcDbLine
 62
250
  6
CONTINUOUS
 10
5.5
 20
2.7028807824
 11
-1.2
 21
2.7028807824
  0
LINE
  5
465
100
AcDbEntity
  8
ASSI
100
AcDbLine
 62
7
  6
CONTINUOUS
 10
5.5
 20
2.7377814546
 11
-1.2
 21
2.7377814546
  0
LINE
  5
466
100
AcDbEntity
  8
0
100
AcDbLine
 62
7
  6
CONTINUOUS
 10
5.5
 20
2.7377814546
 11
-1.2
 21
2.7377814546
  0
LINE
  5
467
100
AcDbEntity
  8
ASSI
100
AcDbLine
 62
250
  6
CONTINUOUS
 10
10.6503805997
 20
-22.4
 11
10.5087981167
 21
-21.9749071372
  0
LINE
  5
468
100
AcDbEntity
  8
0
100
AcDbLine
 62
250
  6
CONTINUOUS
 10
10.6503805997
 20
-22.4
 11
10.5087981167
 21
-21.9749071372
  0
LINE
  5
469
100
AcDbEntity
  8
ASSI
100
AcDbLine
 62
250
  6
CONTINUOUS
 10
11.15
 20
-21.8997711479
 11
11.0087219643
 21
-21.4755923698
  0
LINE
  5
46A
100
AcDbEntity
  8
0
100
AcDbLine
 62
250
  6
CONTINUOUS
 10
11.15
 20
-21.8997711479
 11
11.0087219643
 21
-21.4755923698
  0
LINE
  5
46B
100
AcDbEntity
  8
ASSI
100
AcDbLine
 62
250
  6
CONTINUOUS
 10
3.9355835802
 20
23.4859750215
 11
3.9355835802
 21
23.2860054824
  0
LINE
  5
46C
100
AcDbEntity
  8
0
100
AcDbLine
 62
250
  6
CONTINUOUS
 10
3.9355835802
 20
23.4859750215
 11
3.9355835802
 21
23.2860054824
  0
LINE
  5
46D
100
AcDbEntity
  8
ASSI
100
AcDbLine
 62
250
  6
CONTINUOUS
 10
3.9355835802
 20
-23.2860054824
 11
3.9355835802
 21
-23.4859750215
  0
LINE
  5
46E
100
AcDbEntity
  8
0
100
AcDbLine
 62
250
  6
CONTINUOUS
 10
3.9355835802
 20
-23.2860054824
 11
3.9355835802
 21
-23.4859750215
  0
LINE
  5
46F
100
AcDbEntity
  8
IMPORT_IGES
100
AcDbLine
 62
7
  6
CONTINUOUS
 10
4.004
 20
6.46
 11
4.004
 21
5.56
  0
LINE
  5
470
100
AcDbEntity
  8
IMPORT_IGES
100
AcDbLine
 62
7
  6
CONTINUOUS
 10
4.004
 20
-2.94
 11
4.004
 21
-3.84
  0
LINE
  5
471
100
AcDbEntity
  8
ASSI
100
AcDbLine
 62
250
  6
CONTINUOUS
 10
4.2
 20
23.1114149286
 11
4.2
 21
22.5
  0
LINE
  5
472
100
AcDbEntity
  8
0
100
AcDbLine
 62
250
  6
CONTINUOUS
 10
4.2
 20
23.1114149286
 11
4.2
 21
22.5
  0
LINE
  5
473
100
AcDbEntity
  8
ASSI
100
AcDbLine
 62
250
  6
CONTINUOUS
 10
4.2
 20
-22.5
 11
4.2
 21
-23.1114149286
  0
LINE
  5
474
100
AcDbEntity
  8
0
100
AcDbLine
 62
250
  6
CONTINUOUS
 10
4.2
 20
-22.5
 11
4.2
 21
-23.1114149286
  0
LINE
  5
475
100
AcDbEntity
  8
ASSI
100
AcDbLine
 62
7
  6
CONTINUOUS
 10
4.4
 20
23.1114149286
 11
4.4
 21
22.7000304656
  0
LINE
  5
476
100
AcDbEntity
  8
0
100
AcDbLine
 62
7
  6
CONTINUOUS
 10
4.4
 20
23.1114149286
 11
4.4
 21
22.7000304656
  0
LINE
  5
477
100
AcDbEntity
  8
ASSI
100
AcDbLine
 62
7
  6
CONTINUOUS
 10
4.4
 20
-22.7000304656
 11
4.4
 21
-23.1114149286
  0
LINE
  5
478
100
AcDbEntity
  8
0
100
AcDbLine
 62
7
  6
CONTINUOUS
 10
4.4
 20
-22.7000304656
 11
4.4
 21
-23.1114149286
  0
LINE
  5
479
100
AcDbEntity
  8
CURVE
100
AcDbLine
 62
250
  6
CONTINUOUS
 10
4.7120000009
 20
-19.1999999999
 11
4.7120000009
 21
-13.7844066288
  0
LINE
  5
47A
100
AcDbEntity
  8
CURVE
100
AcDbLine
 62
250
  6
CONTINUOUS
 10
5.3192123425
 20
-17.6807177782
 11
5.3192123425
 21
-18.5801009268
  0
LINE
  5
47B
100
AcDbEntity
  8
ASSI
100
AcDbLine
 62
250
  6
CONTINUOUS
 10
7.0469045881
 20
4.25
 11
7.0122185454
 21
4.25
  0
LINE
  5
47C
100
AcDbEntity
  8
0
100
AcDbLine
 62
250
  6
CONTINUOUS
 10
7.0469045881
 20
4.25
 11
7.0122185454
 21
4.25
  0
LINE
  5
47D
100
AcDbEntity
  8
ASSI
100
AcDbLine
 62
250
  6
CONTINUOUS
 10
-2.7469045881
 20
4.25
 11
-2.7122185454
 21
4.25
  0
LINE
  5
47E
100
AcDbEntity
  8
0
100
AcDbLine
 62
250
  6
CONTINUOUS
 10
-2.7469045881
 20
4.25
 11
-2.7122185454
 21
4.25
  0
LINE
  5
47F
100
AcDbEntity
  8
ASSI
100
AcDbLine
 62
250
  6
CONTINUOUS
 10
7.046756823
 20
5.15
 11
7.0122185454
 21
5.15
  0
LINE
  5
480
100
AcDbEntity
  8
0
100
AcDbLine
 62
250
  6
CONTINUOUS
 10
7.046756823
 20
5.15
 11
7.0122185454
 21
5.15
  0
LINE
  5
481
100
AcDbEntity
  8
ASSI
100
AcDbLine
 62
250
  6
CONTINUOUS
 10
-2.746756823
 20
5.15
 11
-2.7122185454
 21
5.15
  0
LINE
  5
482
100
AcDbEntity
  8
0
100
AcDbLine
 62
250
  6
CONTINUOUS
 10
-2.746756823
 20
5.15
 11
-2.7122185454
 21
5.15
  0
LINE
  5
483
100
AcDbEntity
  8
ASSI
100
AcDbLine
 62
250
  6
CONTINUOUS
 10
5.5
 20
7.0005197317
 11
5.5
 21
6.6622185454
  0
LINE
  5
484
100
AcDbEntity
  8
0
100
AcDbLine
 62
250
  6
CONTINUOUS
 10
5.5
 20
7.0005197317
 11
5.5
 21
6.6622185454
  0
LINE
  5
485
100
AcDbEntity
  8
ASSI
100
AcDbLine
 62
250
  6
CONTINUOUS
 10
5.5
 20
-7.0005197317
 11
5.5
 21
-6.6622185454
  0
LINE
  5
486
100
AcDbEntity
  8
0
100
AcDbLine
 62
250
  6
CONTINUOUS
 10
5.5
 20
-7.0005197317
 11
5.5
 21
-6.6622185454
  0
LINE
  5
487
100
AcDbEntity
  8
ASSI
100
AcDbLine
 62
250
  6
CONTINUOUS
 10
5.5
 20
-2.4043690953
 11
5.5
 21
-2.7377814546
  0
LINE
  5
488
100
AcDbEntity
  8
0
100
AcDbLine
 62
250
  6
CONTINUOUS
 10
5.5
 20
-2.4043690953
 11
5.5
 21
-2.7377814546
  0
LINE
  5
489
100
AcDbEntity
  8
ASSI
100
AcDbLine
 62
250
  6
CONTINUOUS
 10
5.5
 20
2.4043690953
 11
5.5
 21
2.7377814546
  0
LINE
  5
48A
100
AcDbEntity
  8
0
100
AcDbLine
 62
250
  6
CONTINUOUS
 10
5.5
 20
2.4043690953
 11
5.5
 21
2.7377814546
  0
LINE
  5
48B
100
AcDbEntity
  8
CURVE
100
AcDbLine
 62
250
  6
CONTINUOUS
 10
5.7729321081
 20
-13.2697782268
 11
5.7729321081
 21
-13.7093112671
  0
LINE
  5
48C
100
AcDbEntity
  8
CURVE
100
AcDbLine
 62
250
  6
CONTINUOUS
 10
6.789067893
 20
-13.7093112738
 11
6.789067893
 21
-13.2697782335
  0
LINE
  5
48D
100
AcDbEntity
  8
ASSI
100
AcDbLine
 62
7
  6
CONTINUOUS
 10
7.0122185454
 20
5.15
 11
7.0122185454
 21
4.25
  0
LINE
  5
48E
100
AcDbEntity
  8
0
100
AcDbLine
 62
7
  6
CONTINUOUS
 10
7.0122185454
 20
5.15
 11
7.0122185454
 21
4.25
  0
LINE
  5
48F
100
AcDbEntity
  8
ASSI
100
AcDbLine
 62
7
  6
CONTINUOUS
 10
7.0122185454
 20
-4.25
 11
7.0122185454
 21
-5.15
  0
LINE
  5
490
100
AcDbEntity
  8
0
100
AcDbLine
 62
7
  6
CONTINUOUS
 10
7.0122185454
 20
-4.25
 11
7.0122185454
 21
-5.15
  0
LINE
  5
491
100
AcDbEntity
  8
IMPORT_IGES
100
AcDbLine
 62
7
  6
CONTINUOUS
 10
-2.6548055056
 20
5.56
 11
-1.996
 21
5.56
  0
LINE
  5
492
100
AcDbEntity
  8
IMPORT_IGES
100
AcDbLine
 62
7
  6
CONTINUOUS
 10
-0.696
 20
5.56
 11
1.004
 21
5.56
  0
LINE
  5
493
100
AcDbEntity
  8
IMPORT_IGES
100
AcDbLine
 62
7
  6
CONTINUOUS
 10
2.304
 20
5.56
 11
4.004
 21
5.56
  0
LINE
  5
494
100
AcDbEntity
  8
IMPORT_IGES
100
AcDbLine
 62
7
  6
CONTINUOUS
 10
6.2553783417
 20
6.46
 11
-1.9553783417
 21
6.46
  0
LINE
  5
495
100
AcDbEntity
  8
ASSI
100
AcDbLine
 62
7
  6
CONTINUOUS
 10
-1.2
 20
6.6622185454
 11
5.5
 21
6.6622185454
  0
LINE
  5
496
100
AcDbEntity
  8
0
100
AcDbLine
 62
7
  6
CONTINUOUS
 10
-1.2
 20
6.6622185454
 11
5.5
 21
6.6622185454
  0
LINE
  5
497
100
AcDbEntity
  8
ASSI
100
AcDbLine
 62
250
  6
CONTINUOUS
 10
-1.2
 20
6.6963651113
 11
5.5
 21
6.6963651113
  0
LINE
  5
498
100
AcDbEntity
  8
0
100
AcDbLine
 62
250
  6
CONTINUOUS
 10
-1.2
 20
6.6963651113
 11
5.5
 21
6.6963651113
  0
LINE
  5
499
100
AcDbEntity
  8
ASSI
100
AcDbLine
 62
250
  6
CONTINUOUS
 10
-1.2
 20
7.0005197317
 11
5.5
 21
7.0005197317
  0
LINE
  5
49A
100
AcDbEntity
  8
0
100
AcDbLine
 62
250
  6
CONTINUOUS
 10
-1.2
 20
7.0005197317
 11
5.5
 21
7.0005197317
  0
LINE
  5
49B
100
AcDbEntity
  8
ASSI
100
AcDbLine
 62
250
  6
CONTINUOUS
 10
7.3467111315
 20
5.1530918551
 11
7.3468588966
 21
4.2525515309
  0
LINE
  5
49C
100
AcDbEntity
  8
0
100
AcDbLine
 62
250
  6
CONTINUOUS
 10
7.3467111315
 20
5.1530918551
 11
7.3468588966
 21
4.2525515309
  0
LINE
  5
49D
100
AcDbEntity
  8
CURVE
100
AcDbLine
 62
250
  6
CONTINUOUS
 10
7.2482054627
 20
-18.5801009442
 11
7.2482054627
 21
-17.6807177956
  0
LINE
  5
49E
100
AcDbEntity
  8
CURVE
100
AcDbLine
 62
250
  6
CONTINUOUS
 10
7.85
 20
-13.7844068405
 11
7.85
 21
-19.2000002115
  0
LINE
  5
49F
100
AcDbEntity
  8
ASSI
100
AcDbLine
 62
250
  6
CONTINUOUS
 10
7.3468588966
 20
-4.2525515309
 11
7.3467111315
 21
-5.1530918551
  0
LINE
  5
4A0
100
AcDbEntity
  8
0
100
AcDbLine
 62
250
  6
CONTINUOUS
 10
7.3468588966
 20
-4.2525515309
 11
7.3467111315
 21
-5.1530918551
  0
LINE
  5
4A1
100
AcDbEntity
  8
CURVE
100
AcDbLine
 62
250
  6
CONTINUOUS
 10
3.3262857084
 20
-19.1999999999
 11
3.7119998102
 21
-17.3999999999
  0
LINE
  5
4A2
100
AcDbEntity
  8
ASSI
100
AcDbLine
 62
7
  6
CONTINUOUS
 10
3.3848722771
 20
-22.4
 11
3.3633443637
 21
-22.5
  0
LINE
  5
4A3
100
AcDbEntity
  8
0
100
AcDbLine
 62
7
  6
CONTINUOUS
 10
3.3848722771
 20
-22.4
 11
3.3633443637
 21
-22.5
  0
LINE
  5
4A4
100
AcDbEntity
  8
CURVE
100
AcDbLine
 62
250
  6
CONTINUOUS
 10
2.5548570756
 20
-19.1999999999
 11
2.940571392
 21
-17.9142856835
  0
LINE
  5
4A5
100
AcDbEntity
  8
ASSI
100
AcDbLine
 62
7
  6
CONTINUOUS
 10
3.3848722771
 20
22.4
 11
3.3633443637
 21
22.5
  0
LINE
  5
4A6
100
AcDbEntity
  8
0
100
AcDbLine
 62
7
  6
CONTINUOUS
 10
3.3848722771
 20
22.4
 11
3.3633443637
 21
22.5
  0
LINE
  5
4A7
100
AcDbEntity
  8
0
100
AcDbLine
 62
250
  6
CONTINUOUS
 10
-3.9355835802
 20
-23.2860054824
 11
-4.0439342151
 21
-23.4523145562
  0
LINE
  5
4A8
100
AcDbEntity
  8
ASSI
100
AcDbLine
 62
250
  6
CONTINUOUS
 10
-3.9355835802
 20
-23.2860054824
 11
-4.0443973556
 21
-23.4529057868
  0
LINE
  5
4A9
100
AcDbEntity
  8
ASSI
100
AcDbLine
 62
250
  6
CONTINUOUS
 10
-4.2
 20
-23.1114149286
 11
-4.311151079
 21
-23.2776841005
  0
LINE
  5
4AA
100
AcDbEntity
  8
0
100
AcDbLine
 62
250
  6
CONTINUOUS
 10
-4.2
 20
-23.1114149286
 11
-4.311151079
 21
-23.2776841005
  0
LINE
  5
4AB
100
AcDbEntity
  8
ASSI
100
AcDbLine
 62
250
  6
CONTINUOUS
 10
-4.0443973556
 20
-23.4529057868
 11
-4.0448323829
 21
-23.4535307017
  0
LINE
  5
4AC
100
AcDbEntity
  8
ASSI
100
AcDbLine
 62
250
  6
CONTINUOUS
 10
-4.2
 20
23.1114149286
 11
-4.3111510791
 21
23.2776841007
  0
LINE
  5
4AD
100
AcDbEntity
  8
0
100
AcDbLine
 62
250
  6
CONTINUOUS
 10
-4.2
 20
23.1114149286
 11
-4.3111510791
 21
23.2776841007
  0
LINE
  5
4AE
100
AcDbEntity
  8
ASSI
100
AcDbLine
 62
250
  6
CONTINUOUS
 10
-4.0448323829
 20
23.4535307017
 11
-3.9355835802
 21
23.2860054824
  0
LINE
  5
4AF
100
AcDbEntity
  8
0
100
AcDbLine
 62
250
  6
CONTINUOUS
 10
-4.0448323829
 20
23.4535307017
 11
-3.9355835802
 21
23.2860054824
  0
LINE
  5
4B0
100
AcDbEntity
  8
ASSI
100
AcDbLine
 62
7
  6
CONTINUOUS
 10
11.15
 20
21.8997711479
 11
11.15
 21
-21.8997711479
  0
LINE
  5
4B1
100
AcDbEntity
  8
0
100
AcDbLine
 62
7
  6
CONTINUOUS
 10
11.15
 20
21.8997711479
 11
11.15
 21
-21.8997711479
  0
LINE
  5
4B2
100
AcDbEntity
  8
0
100
AcDbLine
 62
250
  6
CONTINUOUS
 10
-4.0439342151
 20
-23.4523145562
 11
-4.0448323829
 21
-23.4535307017
  0
LINE
  5
4B3
100
AcDbEntity
  8
CURVE
100
AcDbLine
 62
250
  6
CONTINUOUS
 10
-0.1451429244
 20
-17.9142856835
 11
0.3691428129
 21
-17.3999999999
  0
LINE
  5
4B4
100
AcDbEntity
  8
ASSI
100
AcDbLine
 62
7
  6
CONTINUOUS
 10
3.3
 20
-22.4
 11
3.2333672024
 21
-22.5
  0
LINE
  5
4B5
100
AcDbEntity
  8
0
100
AcDbLine
 62
7
  6
CONTINUOUS
 10
3.3
 20
-22.4
 11
3.2333672024
 21
-22.5
  0
LINE
  5
4B6
100
AcDbEntity
  8
CURVE
100
AcDbLine
 62
250
  6
CONTINUOUS
 10
1.3977142338
 20
-19.1999999999
 11
1.6548570756
 21
-18.9428571313
  0
LINE
  5
4B7
100
AcDbEntity
  8
ASSI
100
AcDbLine
 62
7
  6
CONTINUOUS
 10
3.2333672024
 20
22.5
 11
3.3
 21
22.4
  0
LINE
  5
4B8
100
AcDbEntity
  8
0
100
AcDbLine
 62
7
  6
CONTINUOUS
 10
3.2333672024
 20
22.5
 11
3.3
 21
22.4
  0
LWPOLYLINE
  5
4B9
100
AcDbEntity
  8
0
100
AcDbPolyline
 62
7
  6
CONTINUOUS
 90
10
 70
0
 43
0.3500000019
 10
1.0714306641
 20
32.7499997559
 10
1.1428554688
 20
32.6071420898
 10
1.1428554688
 20
32.5357145996
 10
1.0000004883
 20
32.3928569336
 10
0.9285703125
 20
32.3928569336
 10
0.8571455078
 20
32.4642844238
 10
0.8571455078
 20
32.5357145996
 10
0.9285703125
 20
32.6785722656
 10
1.0000004883
 20
32.7499997559
 10
1.0714306641
 20
32.7499997559
  0
LWPOLYLINE
  5
4BA
100
AcDbEntity
  8
0
100
AcDbPolyline
 62
7
  6
CONTINUOUS
 90
3
 70
0
 43
0.3500000019
 10
17.7571416016
 20
-0.8571428909
 10
17.7571416016
 20
-2.3571429291
 10
15.3999995117
 20
-1.7142857819
  0
LINE
  5
4BB
100
AcDbEntity
  8
ASSI
100
AcDbLine
 62
250
  6
CONTINUOUS
 10
-10.5005350625
 20
21.0183142309
 11
10.5005350625
 21
21.0183142309
  0
LINE
  5
4BC
100
AcDbEntity
  8
0
100
AcDbLine
 62
250
  6
CONTINUOUS
 10
-10.5005350625
 20
21.0183142309
 11
10.5005350625
 21
21.0183142309
  0
LINE
  5
4BD
100
AcDbEntity
  8
ASSI
100
AcDbLine
 62
250
  6
CONTINUOUS
 10
-10.5087981167
 20
21.9749071372
 11
10.5087981167
 21
21.9749071372
  0
LINE
  5
4BE
100
AcDbEntity
  8
0
100
AcDbLine
 62
250
  6
CONTINUOUS
 10
-10.5087981167
 20
21.9749071372
 11
10.5087981167
 21
21.9749071372
  0
LINE
  5
4BF
100
AcDbEntity
  8
ASSI
100
AcDbLine
 62
7
  6
CONTINUOUS
 10
-10.6503805997
 20
22.4
 11
-3.3
 21
22.4
  0
LINE
  5
4C0
100
AcDbEntity
  8
0
100
AcDbLine
 62
7
  6
CONTINUOUS
 10
-10.6503805997
 20
22.4
 11
-3.3
 21
22.4
  0
LINE
  5
4C1
100
AcDbEntity
  8
ASSI
100
AcDbLine
 62
7
  6
CONTINUOUS
 10
3.3
 20
22.4
 11
10.6503805997
 21
22.4
  0
LINE
  5
4C2
100
AcDbEntity
  8
0
100
AcDbLine
 62
7
  6
CONTINUOUS
 10
3.3
 20
22.4
 11
10.6503805997
 21
22.4
  0
LINE
  5
4C3
100
AcDbEntity
  8
ASSI
100
AcDbLine
 62
7
  6
CONTINUOUS
 10
4.2
 20
22.5
 11
-4.2
 21
22.5
  0
LINE
  5
4C4
100
AcDbEntity
  8
0
100
AcDbLine
 62
7
  6
CONTINUOUS
 10
4.2
 20
22.5
 11
-4.2
 21
22.5
  0
LINE
  5
4C5
100
AcDbEntity
  8
ASSI
100
AcDbLine
 62
250
  6
CONTINUOUS
 10
4.2
 20
22.5037308841
 11
-4.2
 21
22.5037308841
  0
LINE
  5
4C6
100
AcDbEntity
  8
0
100
AcDbLine
 62
250
  6
CONTINUOUS
 10
4.2
 20
22.5037308841
 11
-4.2
 21
22.5037308841
  0
LINE
  5
4C7
100
AcDbEntity
  8
ASSI
100
AcDbLine
 62
250
  6
CONTINUOUS
 10
4.2
 20
22.7129877857
 11
-4.2
 21
22.7129877857
  0
LINE
  5
4C8
100
AcDbEntity
  8
0
100
AcDbLine
 62
250
  6
CONTINUOUS
 10
4.2
 20
22.7129877857
 11
-4.2
 21
22.7129877857
  0
LINE
  5
4C9
100
AcDbEntity
  8
ASSI
100
AcDbLine
 62
250
  6
CONTINUOUS
 10
-4.2
 20
22.9590953724
 11
4.2
 21
22.9590953724
  0
LINE
  5
4CA
100
AcDbEntity
  8
0
100
AcDbLine
 62
250
  6
CONTINUOUS
 10
-4.2
 20
22.9590953724
 11
4.2
 21
22.9590953724
  0
LINE
  5
4CB
100
AcDbEntity
  8
ASSI
100
AcDbLine
 62
250
  6
CONTINUOUS
 10
-4.4
 20
23.0992772252
 11
4.4
 21
23.0992772252
  0
LINE
  5
4CC
100
AcDbEntity
  8
0
100
AcDbLine
 62
250
  6
CONTINUOUS
 10
-4.4
 20
23.0992772252
 11
4.4
 21
23.0992772252
  0
LINE
  5
4CD
100
AcDbEntity
  8
ASSI
100
AcDbLine
 62
250
  6
CONTINUOUS
 10
4.4
 20
23.1114149286
 11
4.2
 21
23.1114149286
  0
LINE
  5
4CE
100
AcDbEntity
  8
0
100
AcDbLine
 62
250
  6
CONTINUOUS
 10
4.4
 20
23.1114149286
 11
4.2
 21
23.1114149286
  0
LINE
  5
4CF
100
AcDbEntity
  8
ASSI
100
AcDbLine
 62
250
  6
CONTINUOUS
 10
-4.2
 20
23.1114149286
 11
-4.4
 21
23.1114149286
  0
LINE
  5
4D0
100
AcDbEntity
  8
0
100
AcDbLine
 62
250
  6
CONTINUOUS
 10
-4.2
 20
23.1114149286
 11
-4.4
 21
23.1114149286
  0
LINE
  5
4D1
100
AcDbEntity
  8
ASSI
100
AcDbLine
 62
250
  6
CONTINUOUS
 10
-3.9355283051
 20
23.2860054824
 11
3.9355782522
 21
23.2860054824
  0
LINE
  5
4D2
100
AcDbEntity
  8
0
100
AcDbLine
 62
250
  6
CONTINUOUS
 10
-3.9355283051
 20
23.2860054824
 11
3.9355782522
 21
23.2860054824
  0
LINE
  5
4D3
100
AcDbEntity
  8
ASSI
100
AcDbLine
 62
250
  6
CONTINUOUS
 10
-3.9355835958
 20
23.4859750215
 11
3.9355835654
 21
23.4859750215
  0
LINE
  5
4D4
100
AcDbEntity
  8
0
100
AcDbLine
 62
250
  6
CONTINUOUS
 10
-3.9355835958
 20
23.4859750215
 11
3.9355835654
 21
23.4859750215
  0
LINE
  5
4D5
100
AcDbEntity
  8
ASSI
100
AcDbLine
 62
7
  6
CONTINUOUS
 10
3.9140555432
 20
23.5
 11
-3.9140555432
 21
23.5
  0
LINE
  5
4D6
100
AcDbEntity
  8
0
100
AcDbLine
 62
7
  6
CONTINUOUS
 10
3.9140555432
 20
23.5
 11
-3.9140555432
 21
23.5
  0
LWPOLYLINE
  5
4D7
100
AcDbEntity
  8
0
100
AcDbPolyline
 62
7
  6
CONTINUOUS
 90
7
 70
0
 43
0.3500000019
 10
-0.4285708008
 20
32.2499992676
 10
-1.9285722656
 20
32.2499992676
 10
-0.4285708008
 20
34.3928562012
 10
-0.4285708008
 20
34.8214291992
 10
-0.8571411133
 20
35.2499995117
 10
-1.5000019531
 20
35.2499995117
 10
-1.9285722656
 20
34.607144043
  0
LWPOLYLINE
  5
4D8
100
AcDbEntity
  8
0
100
AcDbPolyline
 62
7
  6
CONTINUOUS
 90
7
 70
0
 43
0.3500000019
 10
-2.7857128906
 20
32.2499992676
 10
-4.2857143555
 20
32.2499992676
 10
-2.7857128906
 20
34.3928562012
 10
-2.7857128906
 20
34.8214291992
 10
-3.2142832031
 20
35.2499995117
 10
-3.857144043
 20
35.2499995117
 10
-4.2857143555
 20
34.607144043
  0
LWPOLYLINE
  5
4D9
100
AcDbEntity
  8
0
100
AcDbPolyline
 62
7
  6
CONTINUOUS
 90
6
 70
0
 43
0.3500000019
 10
2.1428564453
 20
32.2499992676
 10
3.2142875977
 20
32.2499992676
 10
3.4285727539
 20
32.4642844238
 10
3.4285727539
 20
33.5357155762
 10
3.0000024414
 20
33.9642858887
 10
2.5714267578
 20
33.9642858887
  0
LWPOLYLINE
  5
4DA
100
AcDbEntity
  8
0
100
AcDbPolyline
 62
7
  6
CONTINUOUS
 90
10
 70
0
 43
0.3500000019
 10
-52.5286635742
 20
45.2499985352
 10
-53.1715203857
 20
44.6071430664
 10
-53.600092041
 20
43.7499997559
 10
-53.600092041
 20
42.6785712891
 10
-53.1715203857
 20
42.2500009766
 10
-52.5286635742
 20
42.2500009766
 10
-52.1000919189
 20
42.6785712891
 10
-52.1000919189
 20
43.5357145996
 10
-52.5286635742
 20
43.9642849121
 10
-53.457234375
 20
43.9642849121
  0
LWPOLYLINE
  5
4DB
100
AcDbEntity
  8
0
100
AcDbPolyline
 62
7
  6
CONTINUOUS
 90
5
 70
0
 43
0.3500000019
 10
-48.3143771973
 20
33.9642858887
 10
-47.957234375
 20
34.1785710449
 10
-47.957234375
 20
34.8214291992
 10
-48.3143771973
 20
35.2499995117
 10
-49.1715205078
 20
35.2499995117
  0
LINE
  5
4DC
100
AcDbEntity
  8
ASSI
100
AcDbLine
 62
250
  6
CONTINUOUS
 10
-66.2215202611
 20
23.0992772252
 11
-66.3641703509
 21
22.9590953724
  0
LINE
  5
4DD
100
AcDbEntity
  8
0
100
AcDbLine
 62
250
  6
CONTINUOUS
 10
-66.2215202611
 20
23.0992772252
 11
-66.3641703509
 21
22.9590953724
  0
LINE
  5
4DE
100
AcDbEntity
  8
ASSI
100
AcDbLine
 62
250
  6
CONTINUOUS
 10
-65.9796710092
 20
22.8531696386
 11
-66.1223210991
 21
22.7129877857
  0
LINE
  5
4DF
100
AcDbEntity
  8
0
100
AcDbLine
 62
250
  6
CONTINUOUS
 10
-65.9796710092
 20
22.8531696386
 11
-66.1223210991
 21
22.7129877857
  0
LINE
  5
4E0
100
AcDbEntity
  8
ASSI
100
AcDbLine
 62
250
  6
CONTINUOUS
 10
-66.2215202611
 20
-23.0992772252
 11
-66.3641703509
 21
-22.9590953724
  0
LINE
  5
4E1
100
AcDbEntity
  8
0
100
AcDbLine
 62
250
  6
CONTINUOUS
 10
-66.2215202611
 20
-23.0992772252
 11
-66.3641703509
 21
-22.9590953724
  0
LINE
  5
4E2
100
AcDbEntity
  8
ASSI
100
AcDbLine
 62
250
  6
CONTINUOUS
 10
-65.9796710092
 20
-22.8531696386
 11
-66.1223210991
 21
-22.7129877857
  0
LINE
  5
4E3
100
AcDbEntity
  8
0
100
AcDbLine
 62
250
  6
CONTINUOUS
 10
-65.9796710092
 20
-22.8531696386
 11
-66.1223210991
 21
-22.7129877857
  0
LINE
  5
4E4
100
AcDbEntity
  8
ASSI
100
AcDbLine
 62
7
  6
CONTINUOUS
 10
-61.4215202611
 20
-23.4301797403
 11
-65.4215202611
 21
-23.5
  0
LINE
  5
4E5
100
AcDbEntity
  8
0
100
AcDbLine
 62
7
  6
CONTINUOUS
 10
-61.4215202611
 20
-23.4301797403
 11
-65.4215202611
 21
-23.5
  0
LINE
  5
4E6
100
AcDbEntity
  8
ASSI
100
AcDbLine
 62
250
  6
CONTINUOUS
 10
-65.4215202611
 20
-22.7000304656
 11
-65.6317719879
 21
-22.7037004232
  0
LINE
  5
4E7
100
AcDbEntity
  8
0
100
AcDbLine
 62
250
  6
CONTINUOUS
 10
-65.4215202611
 20
-22.7000304656
 11
-65.6317719879
 21
-22.7037004232
  0
LINE
  5
4E8
100
AcDbEntity
  8
ASSI
100
AcDbLine
 62
7
  6
CONTINUOUS
 10
-65.4215202611
 20
-22.5
 11
-65.6352624692
 21
-22.5037308841
  0
LINE
  5
4E9
100
AcDbEntity
  8
0
100
AcDbLine
 62
7
  6
CONTINUOUS
 10
-65.4215202611
 20
-22.5
 11
-65.6352624692
 21
-22.5037308841
  0
LINE
  5
4EA
100
AcDbEntity
  8
0
100
AcDbLine
 62
7
  6
CONTINUOUS
 10
-64.9716406504
 20
-22.6590059354
 11
-65.4215202611
 21
-22.663166622
  0
LINE
  5
4EB
100
AcDbEntity
  8
ASSI
100
AcDbLine
 62
7
  6
CONTINUOUS
 10
-61.4215202611
 20
-22.6298666026
 11
-61.858926554
 21
-22.6330662119
  0
LINE
  5
4EC
100
AcDbEntity
  8
ASSI
100
AcDbLine
 62
250
  6
CONTINUOUS
 10
-66.2215202611
 20
-23.2776841007
 11
-65.4215202611
 21
-23.2776879029
  0
LINE
  5
4ED
100
AcDbEntity
  8
0
100
AcDbLine
 62
250
  6
CONTINUOUS
 10
-66.2215202611
 20
-23.2776841007
 11
-65.4215202611
 21
-23.2776879029
  0
LINE
  5
4EE
100
AcDbEntity
  8
ASSI
100
AcDbLine
 62
250
  6
CONTINUOUS
 10
-66.4215202611
 20
-23.1114149286
 11
-65.4215202611
 21
-23.1114149286
  0
LINE
  5
4EF
100
AcDbEntity
  8
0
100
AcDbLine
 62
250
  6
CONTINUOUS
 10
-66.4215202611
 20
-23.1114149286
 11
-65.4215202611
 21
-23.1114149286
  0
LINE
  5
4F0
100
AcDbEntity
  8
ASSI
100
AcDbLine
 62
250
  6
CONTINUOUS
 10
-66.2215202611
 20
-23.0992772252
 11
-66.4215202611
 21
-23.0992772252
  0
LINE
  5
4F1
100
AcDbEntity
  8
0
100
AcDbLine
 62
250
  6
CONTINUOUS
 10
-66.2215202611
 20
-23.0992772252
 11
-66.4215202611
 21
-23.0992772252
  0
LINE
  5
4F2
100
AcDbEntity
  8
ASSI
100
AcDbLine
 62
7
  6
CONTINUOUS
 10
-59.2720247772
 20
-22.2
 11
-59.8215202611
 21
-22.2
  0
LINE
  5
4F3
100
AcDbEntity
  8
0
100
AcDbLine
 62
7
  6
CONTINUOUS
 10
-59.2720247772
 20
-22.2
 11
-59.8215202611
 21
-22.2
  0
LINE
  5
4F4
100
AcDbEntity
  8
ASSI
100
AcDbLine
 62
7
  6
CONTINUOUS
 10
-65.4215202611
 20
-23.5
 11
-66.2250107423
 21
-23.4859750215
  0
LINE
  5
4F5
100
AcDbEntity
  8
0
100
AcDbLine
 62
7
  6
CONTINUOUS
 10
-65.4215202611
 20
-23.5
 11
-66.2250107423
 21
-23.4859750215
  0
LINE
  5
4F6
100
AcDbEntity
  8
0
100
AcDbLine
 62
250
  6
CONTINUOUS
 10
-65.4215202611
 20
-23.4675952145
 11
-66.2215202611
 21
-23.4535306962
  0
LINE
  5
4F7
100
AcDbEntity
  8
ASSI
100
AcDbLine
 62
250
  6
CONTINUOUS
 10
-65.4215202611
 20
-23.4675952145
 11
-66.2215202611
 21
-23.4535306962
  0
LINE
  5
4F8
100
AcDbEntity
  8
ASSI
100
AcDbLine
 62
7
  6
CONTINUOUS
 10
-65.4215202611
 20
-22.4
 11
-73.532775281
 21
-21.9749071372
  0
LINE
  5
4F9
100
AcDbEntity
  8
0
100
AcDbLine
 62
7
  6
CONTINUOUS
 10
-65.4215202611
 20
-22.4
 11
-73.532775281
 21
-21.9749071372
  0
LINE
  5
4FA
100
AcDbEntity
  8
ASSI
100
AcDbLine
 62
250
  6
CONTINUOUS
 10
-65.4215202611
 20
-21.8997711479
 11
-73.5153335061
 21
-21.4755923698
  0
LINE
  5
4FB
100
AcDbEntity
  8
0
100
AcDbLine
 62
250
  6
CONTINUOUS
 10
-65.4215202611
 20
-21.8997711479
 11
-73.5153335061
 21
-21.4755923698
  0
LINE
  5
4FC
100
AcDbEntity
  8
ASSI
100
AcDbLine
 62
250
  6
CONTINUOUS
 10
-74.4795553844
 20
-21.0183142305
 11
-73.9887235631
 21
-20.9972959167
  0
LINE
  5
4FD
100
AcDbEntity
  8
0
100
AcDbLine
 62
250
  6
CONTINUOUS
 10
-74.4795553844
 20
-21.0183142305
 11
-73.9887235631
 21
-20.9972959167
  0
LINE
  5
4FE
100
AcDbEntity
  8
ASSI
100
AcDbLine
 62
7
  6
CONTINUOUS
 10
-57.2486831178
 20
-21.1271628567
 11
-61.4215202611
 21
-21.2
  0
LINE
  5
4FF
100
AcDbEntity
  8
0
100
AcDbLine
 62
7
  6
CONTINUOUS
 10
-57.2486831178
 20
-21.1271628567
 11
-61.4215202611
 21
-21.2
  0
LINE
  5
500
100
AcDbEntity
  8
ASSI
100
AcDbLine
 62
7
  6
CONTINUOUS
 10
-56.2816378246
 20
-20.1601175636
 11
-28.4215202611
 21
-19.6738174026
  0
LINE
  5
501
100
AcDbEntity
  8
0
100
AcDbLine
 62
7
  6
CONTINUOUS
 10
-56.2816378246
 20
-20.1601175636
 11
-28.4215202611
 21
-19.6738174026
  0
LINE
  5
502
100
AcDbEntity
  8
CURVE
100
AcDbLine
 62
7
  6
CONTINUOUS
 10
-62.0180818789
 20
14.9900798967
 11
-61.8362651326
 21
15.171896643
  0
LINE
  5
503
100
AcDbEntity
  8
CURVE
100
AcDbLine
 62
7
  6
CONTINUOUS
 10
-61.7180749834
 20
15.2900867922
 11
-61.5132205803
 21
15.4949411953
  0
LINE
  5
504
100
AcDbEntity
  8
CURVE
100
AcDbLine
 62
7
  6
CONTINUOUS
 10
-62.0236530829
 20
14.7356071058
 11
-61.9116878011
 21
14.8475723875
  0
LINE
  5
505
100
AcDbEntity
  8
CURVE
100
AcDbLine
 62
7
  6
CONTINUOUS
 10
-61.3923510505
 20
15.3669091381
 11
-61.2801032506
 21
15.479156938
  0
LINE
  5
506
100
AcDbEntity
  8
CURVE
100
AcDbLine
 62
7
  6
CONTINUOUS
 10
-62.0236530829
 20
14.4867055188
 11
-61.9116878011
 21
14.5986708006
  0
LINE
  5
507
100
AcDbEntity
  8
CURVE
100
AcDbLine
 62
7
  6
CONTINUOUS
 10
-61.1999733978
 20
15.3103852038
 11
-61.1052458413
 21
15.4051127604
  0
LINE
  5
508
100
AcDbEntity
  8
CURVE
100
AcDbLine
 62
7
  6
CONTINUOUS
 10
-62.0236530829
 20
14.2378039318
 11
-61.9116878011
 21
14.3497692136
  0
LINE
  5
509
100
AcDbEntity
  8
CURVE
100
AcDbLine
 62
7
  6
CONTINUOUS
 10
-61.0663057672
 20
15.1951512474
 11
-60.9754878523
 21
15.2859691623
  0
LINE
  5
50A
100
AcDbEntity
  8
CURVE
100
AcDbLine
 62
7
  6
CONTINUOUS
 10
-62.0227007374
 20
13.9898546903
 11
-61.8929793578
 21
14.1195760699
  0
LINE
  5
50B
100
AcDbEntity
  8
CURVE
100
AcDbLine
 62
7
  6
CONTINUOUS
 10
-60.9879611776
 20
15.0245942501
 11
-60.8950345937
 21
15.117520834
  0
LINE
  5
50C
100
AcDbEntity
  8
CURVE
100
AcDbLine
 62
7
  6
CONTINUOUS
 10
-61.7737991504
 20
13.9898546903
 11
-61.6440777708
 21
14.1195760699
  0
LINE
  5
50D
100
AcDbEntity
  8
CURVE
100
AcDbLine
 62
7
  6
CONTINUOUS
 10
-60.9689306522
 20
14.7947231885
 11
-60.8590488193
 21
14.9046050214
  0
LINE
  5
50E
100
AcDbEntity
  8
CURVE
100
AcDbLine
 62
7
  6
CONTINUOUS
 10
-62.0236591574
 20
13.4910930964
 11
-61.8959812206
 21
13.6187710331
  0
LINE
  5
50F
100
AcDbEntity
  8
CURVE
100
AcDbLine
 62
7
  6
CONTINUOUS
 10
-61.5248975634
 20
13.9898546903
 11
-61.3951761839
 21
14.1195760699
  0
LINE
  5
510
100
AcDbEntity
  8
CURVE
100
AcDbLine
 62
7
  6
CONTINUOUS
 10
-60.9689306522
 20
14.5458216015
 11
-60.8569653705
 21
14.6577868833
  0
LINE
  5
511
100
AcDbEntity
  8
CURVE
100
AcDbLine
 62
7
  6
CONTINUOUS
 10
-61.7767196024
 20
13.4891310643
 11
-61.6470796336
 21
13.6187710331
  0
LINE
  5
512
100
AcDbEntity
  8
CURVE
100
AcDbLine
 62
7
  6
CONTINUOUS
 10
-61.2759959764
 20
13.9898546903
 11
-61.1462745969
 21
14.1195760699
  0
LINE
  5
513
100
AcDbEntity
  8
CURVE
100
AcDbLine
 62
7
  6
CONTINUOUS
 10
-60.9689306522
 20
14.2969200145
 11
-60.8569653705
 21
14.4088852963
  0
LINE
  5
514
100
AcDbEntity
  8
CURVE
100
AcDbLine
 62
7
  6
CONTINUOUS
 10
-61.5278180154
 20
13.4891310643
 11
-61.3981780466
 21
13.6187710331
  0
LINE
  5
515
100
AcDbEntity
  8
CURVE
100
AcDbLine
 62
7
  6
CONTINUOUS
 10
-61.0270943895
 20
13.9898546903
 11
-60.8569653705
 21
14.1599837093
  0
LINE
  5
516
100
AcDbEntity
  8
CURVE
100
AcDbLine
 62
7
  6
CONTINUOUS
 10
-61.2789164285
 20
13.4891310643
 11
-61.1492764597
 21
13.6187710331
  0
LINE
  5
517
100
AcDbEntity
  8
CURVE
100
AcDbLine
 62
7
  6
CONTINUOUS
 10
-60.7781928025
 20
13.9898546903
 11
-60.6484714229
 21
14.1195760699
  0
LINE
  5
518
100
AcDbEntity
  8
CURVE
100
AcDbLine
 62
7
  6
CONTINUOUS
 10
-61.0300148415
 20
13.4891310643
 11
-60.9003748727
 21
13.6187710331
  0
LINE
  5
519
100
AcDbEntity
  8
CURVE
100
AcDbLine
 62
7
  6
CONTINUOUS
 10
-60.5292912155
 20
13.9898546903
 11
-60.3995698359
 21
14.1195760699
  0
LINE
  5
51A
100
AcDbEntity
  8
CURVE
100
AcDbLine
 62
7
  6
CONTINUOUS
 10
-60.7811132545
 20
13.4891310643
 11
-60.654727059
 21
13.6155172599
  0
LINE
  5
51B
100
AcDbEntity
  8
CURVE
100
AcDbLine
 62
7
  6
CONTINUOUS
 10
-60.2803896285
 20
13.9898546903
 11
-60.150668249
 21
14.1195760699
  0
LINE
  5
51C
100
AcDbEntity
  8
CURVE
100
AcDbLine
 62
7
  6
CONTINUOUS
 10
-62.011394331
 20
12.0099484008
 11
-61.8817531471
 21
12.1395895847
  0
LINE
  5
51D
100
AcDbEntity
  8
CURVE
100
AcDbLine
 62
7
  6
CONTINUOUS
 10
-60.5463001972
 20
13.4750425346
 11
-60.436838393
 21
13.5845043388
  0
LINE
  5
51E
100
AcDbEntity
  8
CURVE
100
AcDbLine
 62
7
  6
CONTINUOUS
 10
-60.0314880416
 20
13.9898546903
 11
-59.9201193227
 21
14.1012234091
  0
LINE
  5
51F
100
AcDbEntity
  8
CURVE
100
AcDbLine
 62
250
  6
CONTINUOUS
 10
-58.3226016254
 20
-15.5
 11
-59.5224188596
 21
-15.5
  0
LINE
  5
520
100
AcDbEntity
  8
CURVE
100
AcDbLine
 62
250
  6
CONTINUOUS
 10
-60.5765844764
 20
-15.123585
 11
-62.0217373391
 21
-14.711093
  0
LINE
  5
521
100
AcDbEntity
  8
CURVE
100
AcDbLine
 62
250
  6
CONTINUOUS
 10
-58.3226016254
 20
-14.4714285612
 11
-59.5224188596
 21
-14.1285713673
  0
LINE
  5
522
100
AcDbEntity
  8
CURVE
100
AcDbLine
 62
250
  6
CONTINUOUS
 10
-62.0217373391
 20
-14.273077
 11
-59.9222341523
 21
-14.948044
  0
LINE
  5
523
100
AcDbEntity
  8
CURVE
100
AcDbLine
 62
250
  6
CONTINUOUS
 10
-58.8368090166
 20
-15.1571428418
 11
-59.5224188596
 21
-14.8142856836
  0
LINE
  5
524
100
AcDbEntity
  8
ASSI
100
AcDbLine
 62
250
  6
CONTINUOUS
 10
-65.6317719879
 20
-22.7037004232
 11
-65.6352624692
 21
-22.5037308841
  0
LINE
  5
525
100
AcDbEntity
  8
0
100
AcDbLine
 62
250
  6
CONTINUOUS
 10
-65.6317719879
 20
-22.7037004232
 11
-65.6352624692
 21
-22.5037308841
  0
LINE
  5
526
100
AcDbEntity
  8
ASSI
100
AcDbLine
 62
7
  6
CONTINUOUS
 10
-66.4215202611
 20
-23.0992772252
 11
-66.4215202611
 21
-23.2860054824
  0
LINE
  5
527
100
AcDbEntity
  8
0
100
AcDbLine
 62
7
  6
CONTINUOUS
 10
-66.4215202611
 20
-23.0992772252
 11
-66.4215202611
 21
-23.2860054824
  0
LINE
  5
528
100
AcDbEntity
  8
ASSI
100
AcDbLine
 62
7
  6
CONTINUOUS
 10
-66.4215202611
 20
23.0992772252
 11
-66.4215202611
 21
23.2860054824
  0
LINE
  5
529
100
AcDbEntity
  8
0
100
AcDbLine
 62
7
  6
CONTINUOUS
 10
-66.4215202611
 20
23.0992772252
 11
-66.4215202611
 21
23.2860054824
  0
LINE
  5
52A
100
AcDbEntity
  8
ASSI
100
AcDbLine
 62
250
  6
CONTINUOUS
 10
-66.2215202611
 20
-23.0992772252
 11
-66.2215202611
 21
-23.4535306962
  0
LINE
  5
52B
100
AcDbEntity
  8
0
100
AcDbLine
 62
250
  6
CONTINUOUS
 10
-66.2215202611
 20
-23.0992772252
 11
-66.2215202611
 21
-23.4535306962
  0
LINE
  5
52C
100
AcDbEntity
  8
ASSI
100
AcDbLine
 62
250
  6
CONTINUOUS
 10
-66.2215202611
 20
23.0992772252
 11
-66.2215202611
 21
23.4535307085
  0
LINE
  5
52D
100
AcDbEntity
  8
0
100
AcDbLine
 62
250
  6
CONTINUOUS
 10
-66.2215202611
 20
23.0992772252
 11
-66.2215202611
 21
23.4535307085
  0
LINE
  5
52E
100
AcDbEntity
  8
ASSI
100
AcDbLine
 62
250
  6
CONTINUOUS
 10
-65.6317719879
 20
22.7037004232
 11
-65.6352624692
 21
22.5037308841
  0
LINE
  5
52F
100
AcDbEntity
  8
0
100
AcDbLine
 62
250
  6
CONTINUOUS
 10
-65.6317719879
 20
22.7037004232
 11
-65.6352624692
 21
22.5037308841
  0
LINE
  5
530
100
AcDbEntity
  8
CURVE
100
AcDbLine
 62
7
  6
CONTINUOUS
 10
-61.762492744
 20
12.0099484008
 11
-61.6328515602
 21
12.1395895847
  0
LINE
  5
531
100
AcDbEntity
  8
CURVE
100
AcDbLine
 62
7
  6
CONTINUOUS
 10
-60.3469630722
 20
13.4254780727
 11
-60.2516127879
 21
13.5208283569
  0
LINE
  5
532
100
AcDbEntity
  8
CURVE
100
AcDbLine
 62
7
  6
CONTINUOUS
 10
-61.5135911571
 20
12.0099484008
 11
-61.3839499732
 21
12.1395895847
  0
LINE
  5
533
100
AcDbEntity
  8
CURVE
100
AcDbLine
 62
7
  6
CONTINUOUS
 10
-60.1894024906
 20
13.3341370673
 11
-60.1017784885
 21
13.4217610694
  0
LINE
  5
534
100
AcDbEntity
  8
CURVE
100
AcDbLine
 62
7
  6
CONTINUOUS
 10
-62.0216953455
 20
11.2529426254
 11
-61.9928209709
 21
11.281817
  0
LINE
  5
535
100
AcDbEntity
  8
CURVE
100
AcDbLine
 62
7
  6
CONTINUOUS
 10
-61.2646895701
 20
12.0099484008
 11
-61.1350483862
 21
12.1395895847
  0
LINE
  5
536
100
AcDbEntity
  8
CURVE
100
AcDbLine
 62
7
  6
CONTINUOUS
 10
-60.0753256907
 20
13.1993122802
 11
-59.9879919561
 21
13.2866460148
  0
LINE
  5
537
100
AcDbEntity
  8
CURVE
100
AcDbLine
 62
7
  6
CONTINUOUS
 10
-62.0216953455
 20
11.0040410385
 11
-61.7864381818
 21
11.2392982022
  0
LINE
  5
538
100
AcDbEntity
  8
CURVE
100
AcDbLine
 62
7
  6
CONTINUOUS
 10
-61.0157879831
 20
12.0099484008
 11
-60.8861467992
 21
12.1395895847
  0
LINE
  5
539
100
AcDbEntity
  8
CURVE
100
AcDbLine
 62
7
  6
CONTINUOUS
 10
-60.0046543424
 20
13.0210820416
 11
-59.9114114196
 21
13.1143249644
  0
LINE
  5
53A
100
AcDbEntity
  8
CURVE
100
AcDbLine
 62
7
  6
CONTINUOUS
 10
-62.0216953455
 20
10.7551394515
 11
-61.7864381818
 21
10.9903966152
  0
LINE
  5
53B
100
AcDbEntity
  8
CURVE
100
AcDbLine
 62
7
  6
CONTINUOUS
 10
-60.7668863961
 20
12.0099484008
 11
-60.6320544008
 21
12.1447803962
  0
LINE
  5
53C
100
AcDbEntity
  8
CURVE
100
AcDbLine
 62
7
  6
CONTINUOUS
 10
-59.9821269439
 20
12.7947078531
 11
-59.8741632767
 21
12.9026715203
  0
LINE
  5
53D
100
AcDbEntity
  8
CURVE
100
AcDbLine
 62
7
  6
CONTINUOUS
 10
-62.0216953455
 20
10.5062378645
 11
-61.7864381818
 21
10.7414950282
  0
LINE
  5
53E
100
AcDbEntity
  8
CURVE
100
AcDbLine
 62
7
  6
CONTINUOUS
 10
-60.498459904
 20
12.029473306
 11
-60.2942671413
 21
12.2336660687
  0
LINE
  5
53F
100
AcDbEntity
  8
CURVE
100
AcDbLine
 62
7
  6
CONTINUOUS
 10
-60.0475752056
 20
12.4803580044
 11
-59.8803955168
 21
12.6475376932
  0
LINE
  5
540
100
AcDbEntity
  8
CURVE
100
AcDbLine
 62
7
  6
CONTINUOUS
 10
-62.0216953455
 20
10.2573362775
 11
-61.7864381818
 21
10.4925934413
  0
LINE
  5
541
100
AcDbEntity
  8
CURVE
100
AcDbLine
 62
7
  6
CONTINUOUS
 10
-61.1188858687
 20
11.1601457543
 11
-61.076567623
 21
11.202464
  0
LINE
  5
542
100
AcDbEntity
  8
CURVE
100
AcDbLine
 62
7
  6
CONTINUOUS
 10
-62.0216953455
 20
10.0084346905
 11
-61.7864381818
 21
10.2436918543
  0
LINE
  5
543
100
AcDbEntity
  8
CURVE
100
AcDbLine
 62
7
  6
CONTINUOUS
 10
-61.1188858687
 20
10.9112441673
 11
-60.8836097079
 21
11.1465203282
  0
LINE
  5
544
100
AcDbEntity
  8
CURVE
100
AcDbLine
 62
7
  6
CONTINUOUS
 10
-61.9494084491
 20
9.83182
 11
-61.6700004491
 21
10.111228
  0
LINE
  5
545
100
AcDbEntity
  8
CURVE
100
AcDbLine
 62
7
  6
CONTINUOUS
 10
-61.1188858687
 20
10.6623425804
 11
-60.8836097079
 21
10.8976187412
  0
LINE
  5
546
100
AcDbEntity
  8
CURVE
100
AcDbLine
 62
7
  6
CONTINUOUS
 10
-61.7005068621
 20
9.83182
 11
-61.4210988621
 21
10.111228
  0
LINE
  5
547
100
AcDbEntity
  8
CURVE
100
AcDbLine
 62
7
  6
CONTINUOUS
 10
-61.1188858687
 20
10.4134409934
 11
-60.8836097079
 21
10.6487171542
  0
LINE
  5
548
100
AcDbEntity
  8
CURVE
100
AcDbLine
 62
7
  6
CONTINUOUS
 10
-62.0216893464
 20
9.2617359287
 11
-61.8636933813
 21
9.4197318938
  0
LINE
  5
549
100
AcDbEntity
  8
CURVE
100
AcDbLine
 62
7
  6
CONTINUOUS
 10
-61.4516052751
 20
9.83182
 11
-61.1721972751
 21
10.111228
  0
LINE
  5
54A
100
AcDbEntity
  8
CURVE
100
AcDbLine
 62
7
  6
CONTINUOUS
 10
-61.1188858687
 20
10.1645394064
 11
-60.8836097079
 21
10.3998155673
  0
LINE
  5
54B
100
AcDbEntity
  8
CURVE
100
AcDbLine
 62
7
  6
CONTINUOUS
 10
-60.1572583515
 20
11.1261669236
 11
-59.9927502751
 21
11.290675
  0
LINE
  5
54C
100
AcDbEntity
  8
CURVE
100
AcDbLine
 62
250
  6
CONTINUOUS
 10
-56.32831108
 20
14.9047620773
 11
-56.5996983237
 21
14.6333336353
  0
LINE
  5
54D
100
AcDbEntity
  8
CURVE
100
AcDbLine
 62
7
  6
CONTINUOUS
 10
-61.8927008738
 20
9.1418228143
 11
-61.6801115402
 21
9.354412148
  0
LINE
  5
54E
100
AcDbEntity
  8
CURVE
100
AcDbLine
 62
7
  6
CONTINUOUS
 10
-61.2027036881
 20
9.83182
 11
-60.8836097079
 21
10.1509139803
  0
LINE
  5
54F
100
AcDbEntity
  8
CURVE
100
AcDbLine
 62
7
  6
CONTINUOUS
 10
-60.1572583515
 20
10.8772653366
 11
-59.9220021876
 21
11.1125215005
  0
LINE
  5
550
100
AcDbEntity
  8
CURVE
100
AcDbLine
 62
250
  6
CONTINUOUS
 10
-56.5228757742
 20
-15.1571428418
 11
-57.7226930084
 21
-15.1571428418
  0
LINE
  5
551
100
AcDbEntity
  8
CURVE
100
AcDbLine
 62
250
  6
CONTINUOUS
 10
-59.5224188596
 20
-14.8142856836
 11
-58.3226016254
 21
-14.8142856836
  0
LINE
  5
552
100
AcDbEntity
  8
CURVE
100
AcDbLine
 62
250
  6
CONTINUOUS
 10
-57.7226930084
 20
-14.4714285612
 11
-56.6942782439
 21
-14.4714285612
  0
LINE
  5
553
100
AcDbEntity
  8
CURVE
100
AcDbLine
 62
250
  6
CONTINUOUS
 10
-62.0218633199
 20
-14.110417
 11
-59.9222341523
 21
-14.110417
  0
LINE
  5
554
100
AcDbEntity
  8
CURVE
100
AcDbLine
 62
250
  6
CONTINUOUS
 10
-56.6942782439
 20
-13.8714286327
 11
-57.7226930084
 21
-13.8714286327
  0
LINE
  5
555
100
AcDbEntity
  8
CURVE
100
AcDbLine
 62
250
  6
CONTINUOUS
 10
-59.9222341523
 20
-13.672102
 11
-62.0218633199
 21
-13.672102
  0
LINE
  5
556
100
AcDbEntity
  8
CURVE
100
AcDbLine
 62
250
  6
CONTINUOUS
 10
-56.5228757742
 20
-13.5285713673
 11
-57.7226930084
 21
-13.5285713673
  0
LINE
  5
557
100
AcDbEntity
  8
CURVE
100
AcDbLine
 62
250
  6
CONTINUOUS
 10
-58.3226016254
 20
-13.4428571224
 11
-59.5224188596
 21
-13.4428571224
  0
LINE
  5
558
100
AcDbEntity
  8
ASSI
100
AcDbLine
 62
7
  6
CONTINUOUS
 10
-28.4215202611
 20
-13.7344425119
 11
-53.170283893
 21
-13.5763271382
  0
LINE
  5
559
100
AcDbEntity
  8
0
100
AcDbLine
 62
7
  6
CONTINUOUS
 10
-28.4215202611
 20
-13.7344425119
 11
-53.170283893
 21
-13.5763271382
  0
LINE
  5
55A
100
AcDbEntity
  8
ASSI
100
AcDbLine
 62
7
  6
CONTINUOUS
 10
-53.1780651627
 20
-13.2499714423
 11
-28.4215202611
 21
-13.4660185366
  0
LINE
  5
55B
100
AcDbEntity
  8
0
100
AcDbLine
 62
7
  6
CONTINUOUS
 10
-53.1780651627
 20
-13.2499714423
 11
-28.4215202611
 21
-13.4660185366
  0
LINE
  5
55C
100
AcDbEntity
  8
CURVE
100
AcDbLine
 62
250
  6
CONTINUOUS
 10
-61.2931703203
 20
-12.922229
 11
-59.9222341523
 21
-13.016817
  0
LINE
  5
55D
100
AcDbEntity
  8
CURVE
100
AcDbLine
 62
250
  6
CONTINUOUS
 10
-59.9222341523
 20
-13.436142
 11
-62.0217373391
 21
-13.246541
  0
LINE
  5
55E
100
AcDbEntity
  8
CURVE
100
AcDbLine
 62
250
  6
CONTINUOUS
 10
-60.8560869003
 20
-12.374901
 11
-62.0217373391
 21
-11.936586
  0
LINE
  5
55F
100
AcDbEntity
  8
CURVE
100
AcDbLine
 62
250
  6
CONTINUOUS
 10
-61.2874551909
 20
-11.825401
 11
-59.9222341523
 21
-12.346558
  0
LINE
  5
560
100
AcDbEntity
  8
CURVE
100
AcDbLine
 62
250
  6
CONTINUOUS
 10
-58.4940040951
 20
-12.8428572655
 11
-58.3226016254
 21
-13.0142857552
  0
LINE
  5
561
100
AcDbEntity
  8
ASSI
100
AcDbLine
 62
7
  6
CONTINUOUS
 10
-65.4215202611
 20
-23.4987757857
 11
-65.4215202611
 21
23.5
  0
LINE
  5
562
100
AcDbEntity
  8
0
100
AcDbLine
 62
7
  6
CONTINUOUS
 10
-65.4215202611
 20
-23.4987757857
 11
-65.4215202611
 21
23.5
  0
LWPOLYLINE
  5
563
100
AcDbEntity
  8
0
100
AcDbPolyline
 62
7
  6
CONTINUOUS
 90
3
 70
0
 43
0.3500000019
 10
-50.5286629639
 20
42.535713623
 10
-50.6000917969
 20
42.3214284668
 10
-50.7429494629
 20
42.0357131348
  0
LINE
  5
564
100
AcDbEntity
  8
CURVE
100
AcDbLine
 62
7
  6
CONTINUOUS
 10
-61.7059541349
 20
9.0796679662
 11
-61.496529699
 21
9.2890924021
  0
LINE
  5
565
100
AcDbEntity
  8
CURVE
100
AcDbLine
 62
7
  6
CONTINUOUS
 10
-60.9538021012
 20
9.83182
 11
-60.6743941012
 21
10.111228
  0
LINE
  5
566
100
AcDbEntity
  8
CURVE
100
AcDbLine
 62
7
  6
CONTINUOUS
 10
-60.1572583515
 20
10.6283637496
 11
-59.9220021876
 21
10.8636199135
  0
LINE
  5
567
100
AcDbEntity
  8
CURVE
100
AcDbLine
 62
7
  6
CONTINUOUS
 10
-61.519207396
 20
9.0175131182
 11
-61.3129478579
 21
9.2237726563
  0
LINE
  5
568
100
AcDbEntity
  8
CURVE
100
AcDbLine
 62
7
  6
CONTINUOUS
 10
-60.7049005142
 20
9.83182
 11
-60.4254925142
 21
10.111228
  0
LINE
  5
569
100
AcDbEntity
  8
CURVE
100
AcDbLine
 62
7
  6
CONTINUOUS
 10
-60.1572583515
 20
10.3794621626
 11
-59.9220021876
 21
10.6147183265
  0
LINE
  5
56A
100
AcDbEntity
  8
CURVE
100
AcDbLine
 62
7
  6
CONTINUOUS
 10
-61.3324606571
 20
8.9553582701
 11
-61.1293660167
 21
9.1584529105
  0
LINE
  5
56B
100
AcDbEntity
  8
CURVE
100
AcDbLine
 62
7
  6
CONTINUOUS
 10
-60.4559989272
 20
9.83182
 11
-60.1765909272
 21
10.111228
  0
LINE
  5
56C
100
AcDbEntity
  8
CURVE
100
AcDbLine
 62
7
  6
CONTINUOUS
 10
-60.1572583515
 20
10.1305605757
 11
-59.9220021876
 21
10.3658167396
  0
LINE
  5
56D
100
AcDbEntity
  8
CURVE
100
AcDbLine
 62
7
  6
CONTINUOUS
 10
-61.1457139182
 20
8.893203422
 11
-60.9457841756
 21
9.0931331647
  0
LINE
  5
56E
100
AcDbEntity
  8
CURVE
100
AcDbLine
 62
7
  6
CONTINUOUS
 10
-60.2070973402
 20
9.83182
 11
-59.9220021876
 21
10.1169151526
  0
LINE
  5
56F
100
AcDbEntity
  8
CURVE
100
AcDbLine
 62
7
  6
CONTINUOUS
 10
-62.0216893464
 20
7.7683264068
 11
-61.7164365261
 21
8.0735792271
  0
LINE
  5
570
100
AcDbEntity
  8
CURVE
100
AcDbLine
 62
7
  6
CONTINUOUS
 10
-60.9589671794
 20
8.8310485739
 11
-60.7622023344
 21
9.0278134188
  0
LINE
  5
571
100
AcDbEntity
  8
CURVE
100
AcDbLine
 62
7
  6
CONTINUOUS
 10
-59.9581957532
 20
9.83182
 11
-59.9220021876
 21
9.8680135656
  0
LINE
  5
572
100
AcDbEntity
  8
CURVE
100
AcDbLine
 62
250
  6
CONTINUOUS
 10
-56.32831108
 20
13.321428442
 11
-56.5996983237
 21
13.05
  0
LINE
  5
573
100
AcDbEntity
  8
CURVE
100
AcDbLine
 62
7
  6
CONTINUOUS
 10
-61.7888760245
 20
7.7522381418
 11
-61.3451435038
 21
8.1959706624
  0
LINE
  5
574
100
AcDbEntity
  8
CURVE
100
AcDbLine
 62
7
  6
CONTINUOUS
 10
-60.7722204405
 20
8.7688937258
 11
-60.5786204932
 21
8.962493673
  0
LINE
  5
575
100
AcDbEntity
  8
CURVE
100
AcDbLine
 62
250
  6
CONTINUOUS
 10
-57.9566344855
 20
11.421428442
 11
-58.2280217008
 21
11.15
  0
LINE
  5
576
100
AcDbEntity
  8
CURVE
100
AcDbLine
 62
7
  6
CONTINUOUS
 10
-62.0216953455
 20
7.2705172338
 11
-61.8691775793
 21
7.423035
  0
LINE
  5
577
100
AcDbEntity
  8
CURVE
100
AcDbLine
 62
7
  6
CONTINUOUS
 10
-61.4041799706
 20
7.8880326087
 11
-60.9738504815
 21
8.3183620978
  0
LINE
  5
578
100
AcDbEntity
  8
CURVE
100
AcDbLine
 62
7
  6
CONTINUOUS
 10
-60.5854737016
 20
8.7067388777
 11
-60.3950386521
 21
8.8971739272
  0
LINE
  5
579
100
AcDbEntity
  8
CURVE
100
AcDbLine
 62
7
  6
CONTINUOUS
 10
-62.0216953455
 20
7.0216156468
 11
-61.7864381818
 21
7.2568728106
  0
LINE
  5
57A
100
AcDbEntity
  8
CURVE
100
AcDbLine
 62
7
  6
CONTINUOUS
 10
-61.0194839167
 20
8.0238270756
 11
-60.6025574592
 21
8.4407535331
  0
LINE
  5
57B
100
AcDbEntity
  8
CURVE
100
AcDbLine
 62
7
  6
CONTINUOUS
 10
-60.3987269627
 20
8.6445840296
 11
-60.2114568109
 21
8.8318541814
  0
LINE
  5
57C
100
AcDbEntity
  8
CURVE
100
AcDbLine
 62
7
  6
CONTINUOUS
 10
-62.0216953455
 20
6.7727140598
 11
-61.7864381818
 21
7.0079712236
  0
LINE
  5
57D
100
AcDbEntity
  8
CURVE
100
AcDbLine
 62
7
  6
CONTINUOUS
 10
-60.6347878629
 20
8.1596215425
 11
-60.2312644369
 21
8.5631449684
  0
LINE
  5
57E
100
AcDbEntity
  8
CURVE
100
AcDbLine
 62
7
  6
CONTINUOUS
 10
-60.2119802238
 20
8.5824291815
 11
-60.0278749698
 21
8.7665344355
  0
LINE
  5
57F
100
AcDbEntity
  8
CURVE
100
AcDbLine
 62
7
  6
CONTINUOUS
 10
-62.0216953455
 20
6.5238124729
 11
-61.7864381818
 21
6.7590696366
  0
LINE
  5
580
100
AcDbEntity
  8
CURVE
100
AcDbLine
 62
7
  6
CONTINUOUS
 10
-60.250091809
 20
8.2954160094
 11
-59.9219961886
 21
8.6235116298
  0
LINE
  5
581
100
AcDbEntity
  8
CURVE
100
AcDbLine
 62
7
  6
CONTINUOUS
 10
-62.0216953455
 20
6.2749108859
 11
-61.7864381818
 21
6.5101680496
  0
LINE
  5
582
100
AcDbEntity
  8
CURVE
100
AcDbLine
 62
7
  6
CONTINUOUS
 10
-61.1188858687
 20
7.1777203627
 11
-60.9529852314
 21
7.343621
  0
LINE
  5
583
100
AcDbEntity
  8
CURVE
100
AcDbLine
 62
7
  6
CONTINUOUS
 10
-62.0216953455
 20
6.0260092989
 11
-61.7864381818
 21
6.2612664626
  0
LINE
  5
584
100
AcDbEntity
  8
CURVE
100
AcDbLine
 62
7
  6
CONTINUOUS
 10
-61.1188858687
 20
6.9288187757
 11
-60.8836097079
 21
7.1640949365
  0
LINE
  5
585
100
AcDbEntity
  8
CURVE
100
AcDbLine
 62
250
  6
CONTINUOUS
 10
-57.9566344855
 20
9.928571558
 11
-58.2280217008
 21
9.657142663
  0
LINE
  5
586
100
AcDbEntity
  8
CURVE
100
AcDbLine
 62
7
  6
CONTINUOUS
 10
-61.8257850574
 20
5.973018
 11
-61.5463560574
 21
6.252447
  0
LINE
  5
587
100
AcDbEntity
  8
CURVE
100
AcDbLine
 62
7
  6
CONTINUOUS
 10
-61.1188858687
 20
6.6799171887
 11
-60.8836097079
 21
6.9151933496
  0
LINE
  5
588
100
AcDbEntity
  8
CURVE
100
AcDbLine
 62
250
  6
CONTINUOUS
 10
-56.6449295263
 20
12.371428442
 11
-56.554467107
 21
12.4166663647
  0
LINE
  5
589
100
AcDbEntity
  8
CURVE
100
AcDbLine
 62
250
  6
CONTINUOUS
 10
-56.4187734922
 20
12.2809525967
 11
-56.5092359044
 21
12.235714674
  0
LINE
  5
58A
100
AcDbEntity
  8
CURVE
100
AcDbLine
 62
250
  6
CONTINUOUS
 10
-62.0217373391
 20
-15.523849
 11
-60.5765844764
 21
-15.123585
  0
LINE
  5
58B
100
AcDbEntity
  8
CURVE
100
AcDbLine
 62
250
  6
CONTINUOUS
 10
-59.9222341523
 20
-11.735347
 11
-61.2874551909
 21
-11.825401
  0
LINE
  5
58C
100
AcDbEntity
  8
ASSI
100
AcDbLine
 62
7
  6
CONTINUOUS
 10
-28.4215202611
 20
-11.5339814634
 11
-53.1780651627
 21
-11.7500285577
  0
LINE
  5
58D
100
AcDbEntity
  8
0
100
AcDbLine
 62
7
  6
CONTINUOUS
 10
-28.4215202611
 20
-11.5339814634
 11
-53.1780651627
 21
-11.7500285577
  0
LINE
  5
58E
100
AcDbEntity
  8
ASSI
100
AcDbLine
 62
7
  6
CONTINUOUS
 10
-28.4215202611
 20
-11.2655574881
 11
-53.170283893
 21
-11.4236728618
  0
LINE
  5
58F
100
AcDbEntity
  8
0
100
AcDbLine
 62
7
  6
CONTINUOUS
 10
-28.4215202611
 20
-11.2655574881
 11
-53.170283893
 21
-11.4236728618
  0
LINE
  5
590
100
AcDbEntity
  8
IMPORT_IGES
100
AcDbLine
 62
7
  6
CONTINUOUS
 10
-49.6715202611
 20
-13.050472
 11
-52.5715202611
 21
-13.050472
  0
LINE
  5
591
100
AcDbEntity
  8
CURVE
100
AcDbLine
 62
250
  6
CONTINUOUS
 10
-56.5228757742
 20
-12.9285715103
 11
-57.7226930084
 21
-12.9285715103
  0
LINE
  5
592
100
AcDbEntity
  8
CURVE
100
AcDbLine
 62
250
  6
CONTINUOUS
 10
-59.3510164078
 20
-12.8428572655
 11
-58.4940040951
 21
-12.8428572655
  0
LINE
  5
593
100
AcDbEntity
  8
IMPORT_IGES
100
AcDbLine
 62
7
  6
CONTINUOUS
 10
-49.2215202611
 20
-12.7
 11
-49.6715202611
 21
-12.7
  0
LINE
  5
594
100
AcDbEntity
  8
IMPORT_IGES
100
AcDbLine
 62
7
  6
CONTINUOUS
 10
-52.5715202611
 20
-12.7
 11
-53.0215202611
 21
-12.7
  0
LINE
  5
595
100
AcDbEntity
  8
CURVE
100
AcDbLine
 62
250
  6
CONTINUOUS
 10
-56.5228757742
 20
-12.3571428299
 11
-57.7226930084
 21
-12.3571428299
  0
LINE
  5
596
100
AcDbEntity
  8
CURVE
100
AcDbLine
 62
250
  6
CONTINUOUS
 10
-58.3226016254
 20
-12.3571428299
 11
-59.5224188596
 21
-12.3571428299
  0
LINE
  5
597
100
AcDbEntity
  8
CURVE
100
AcDbLine
 62
250
  6
CONTINUOUS
 10
-57.3798881047
 20
-11.8142857552
 11
-57.5512905565
 21
-11.8142857552
  0
LINE
  5
598
100
AcDbEntity
  8
CURVE
100
AcDbLine
 62
250
  6
CONTINUOUS
 10
-56.6942782439
 20
-11.2142857552
 11
-56.8656807135
 21
-11.2142857552
  0
LINE
  5
599
100
AcDbEntity
  8
CURVE
100
AcDbLine
 62
250
  6
CONTINUOUS
 10
-61.4448472156
 20
-10.375319
 11
-60.6656949024
 21
-10.593564
  0
LINE
  5
59A
100
AcDbEntity
  8
CURVE
100
AcDbLine
 62
250
  6
CONTINUOUS
 10
-60.3413693063
 20
-10.683223
 11
-59.9222341523
 21
-10.804171
  0
LINE
  5
59B
100
AcDbEntity
  8
CURVE
100
AcDbLine
 62
250
  6
CONTINUOUS
 10
-59.9222341523
 20
-11.237731
 11
-62.0217373391
 21
-10.579093
  0
LINE
  5
59C
100
AcDbEntity
  8
CURVE
100
AcDbLine
 62
250
  6
CONTINUOUS
 10
-56.5228757742
 20
-14.0428571224
 11
-56.6942782439
 21
-13.8714286327
  0
LINE
  5
59D
100
AcDbEntity
  8
CURVE
100
AcDbLine
 62
250
  6
CONTINUOUS
 10
-57.5512905565
 20
-11.8142857552
 11
-57.7226930084
 21
-11.6428572655
  0
LINE
  5
59E
100
AcDbEntity
  8
CURVE
100
AcDbLine
 62
250
  6
CONTINUOUS
 10
-56.5228757742
 20
-11.3857142448
 11
-56.6942782439
 21
-11.2142857552
  0
LINE
  5
59F
100
AcDbEntity
  8
CURVE
100
AcDbLine
 62
250
  6
CONTINUOUS
 10
-62.0236591574
 20
12.0099484008
 11
-62.0236591574
 21
12.1395895847
  0
LINE
  5
5A0
100
AcDbEntity
  8
CURVE
100
AcDbLine
 62
250
  6
CONTINUOUS
 10
-62.0236591574
 20
13.4891310643
 11
-62.0236591574
 21
13.6187710331
  0
LINE
  5
5A1
100
AcDbEntity
  8
CURVE
100
AcDbLine
 62
250
  6
CONTINUOUS
 10
-62.0236530829
 20
13.9898546903
 11
-62.0236530829
 21
14.8856344076
  0
LINE
  5
5A2
100
AcDbEntity
  8
CURVE
100
AcDbLine
 62
250
  6
CONTINUOUS
 10
-62.0218633199
 20
-13.672102
 11
-62.0218633199
 21
-14.110417
  0
LINE
  5
5A3
100
AcDbEntity
  8
CURVE
100
AcDbLine
 62
250
  6
CONTINUOUS
 10
-62.0217373391
 20
-15.999995
 11
-62.0217373391
 21
-15.523849
  0
LINE
  5
5A4
100
AcDbEntity
  8
CURVE
100
AcDbLine
 62
250
  6
CONTINUOUS
 10
-62.0217373391
 20
-14.711093
 11
-62.0217373391
 21
-14.273077
  0
LINE
  5
5A5
100
AcDbEntity
  8
CURVE
100
AcDbLine
 62
250
  6
CONTINUOUS
 10
-62.0217373391
 20
-13.246541
 11
-62.0217373391
 21
-12.808587
  0
LINE
  5
5A6
100
AcDbEntity
  8
CURVE
100
AcDbLine
 62
250
  6
CONTINUOUS
 10
-62.0217373391
 20
-11.936586
 11
-62.0217373391
 21
-11.502915
  0
LINE
  5
5A7
100
AcDbEntity
  8
CURVE
100
AcDbLine
 62
250
  6
CONTINUOUS
 10
-62.0217373391
 20
-10.579093
 11
-62.0217373391
 21
-10.155075
  0
LINE
  5
5A8
100
AcDbEntity
  8
CURVE
100
AcDbLine
 62
250
  6
CONTINUOUS
 10
-62.0216953455
 20
3.714221
 11
-62.0216953455
 21
4.011288
  0
LINE
  5
5A9
100
AcDbEntity
  8
CURVE
100
AcDbLine
 62
250
  6
CONTINUOUS
 10
-62.0216953455
 20
5.123069
 11
-62.0216953455
 21
5.387785
  0
LINE
  5
5AA
100
AcDbEntity
  8
CURVE
100
AcDbLine
 62
250
  6
CONTINUOUS
 10
-62.0216953455
 20
5.973018
 11
-62.0216953455
 21
7.423035
  0
LINE
  5
5AB
100
AcDbEntity
  8
CURVE
100
AcDbLine
 62
250
  6
CONTINUOUS
 10
-62.0216953455
 20
9.83182
 11
-62.0216953455
 21
11.281817
  0
LINE
  5
5AC
100
AcDbEntity
  8
CURVE
100
AcDbLine
 62
250
  6
CONTINUOUS
 10
-62.0216893464
 20
7.670057
 11
-62.0216893464
 21
7.972957
  0
LINE
  5
5AD
100
AcDbEntity
  8
CURVE
100
AcDbLine
 62
250
  6
CONTINUOUS
 10
-62.0216893464
 20
9.184754
 11
-62.0216893464
 21
9.475948
  0
LINE
  5
5AE
100
AcDbEntity
  8
CURVE
100
AcDbLine
 62
250
  6
CONTINUOUS
 10
-61.9116878011
 20
14.8767752146
 11
-61.9116878011
 21
14.1195760699
  0
LINE
  5
5AF
100
AcDbEntity
  8
CURVE
100
AcDbLine
 62
250
  6
CONTINUOUS
 10
-61.7864381818
 20
11.281817
 11
-61.7864381818
 21
10.111228
  0
LINE
  5
5B0
100
AcDbEntity
  8
CURVE
100
AcDbLine
 62
250
  6
CONTINUOUS
 10
-61.7864381818
 20
7.423035
 11
-61.7864381818
 21
6.252447
  0
LINE
  5
5B1
100
AcDbEntity
  8
CURVE
100
AcDbLine
 62
250
  6
CONTINUOUS
 10
-61.60703451
 20
3.98483
 11
-61.60703451
 21
3.978917
  0
LINE
  5
5B2
100
AcDbEntity
  8
ASSI
100
AcDbLine
 62
7
  6
CONTINUOUS
 10
-61.4215202611
 20
21.2
 11
-61.4215202611
 21
23.4301797403
  0
LINE
  5
5B3
100
AcDbEntity
  8
ASSI
100
AcDbLine
 62
7
  6
CONTINUOUS
 10
-61.4215202611
 20
-21.2
 11
-61.4215202611
 21
-23.4301797403
  0
LINE
  5
5B4
100
AcDbEntity
  8
0
100
AcDbLine
 62
7
  6
CONTINUOUS
 10
-61.4215202611
 20
21.2
 11
-61.4215202611
 21
23.4301797403
  0
LINE
  5
5B5
100
AcDbEntity
  8
0
100
AcDbLine
 62
7
  6
CONTINUOUS
 10
-61.4215202611
 20
-21.2
 11
-61.4215202611
 21
-23.4301797403
  0
LINE
  5
5B6
100
AcDbEntity
  8
CURVE
100
AcDbLine
 62
250
  6
CONTINUOUS
 10
-61.1188858687
 20
6.252447
 11
-61.1188858687
 21
7.343621
  0
LINE
  5
5B7
100
AcDbEntity
  8
CURVE
100
AcDbLine
 62
250
  6
CONTINUOUS
 10
-61.1188858687
 20
10.111228
 11
-61.1188858687
 21
11.202464
  0
LINE
  5
5B8
100
AcDbEntity
  8
CURVE
100
AcDbLine
 62
250
  6
CONTINUOUS
 10
-61.0877114758
 20
-8.7095756109
 11
-61.0877114758
 21
-8.9600685904
  0
LINE
  5
5B9
100
AcDbEntity
  8
CURVE
100
AcDbLine
 62
250
  6
CONTINUOUS
 10
-60.9689306522
 20
14.1195760699
 11
-60.9689306522
 21
14.859116368
  0
LINE
  5
5BA
100
AcDbEntity
  8
CURVE
100
AcDbLine
 62
7
  6
CONTINUOUS
 10
-61.5768834704
 20
5.973018
 11
-61.2974544704
 21
6.252447
  0
LINE
  5
5BB
100
AcDbEntity
  8
CURVE
100
AcDbLine
 62
7
  6
CONTINUOUS
 10
-61.1188858687
 20
6.4310156017
 11
-60.8836097079
 21
6.6662917626
  0
LINE
  5
5BC
100
AcDbEntity
  8
CURVE
100
AcDbLine
 62
7
  6
CONTINUOUS
 10
-60.1572583515
 20
7.3926431189
 11
-60.1180474704
 21
7.431854
  0
LINE
  5
5BD
100
AcDbEntity
  8
CURVE
100
AcDbLine
 62
7
  6
CONTINUOUS
 10
-62.0216953455
 20
5.279304538
 11
-61.9132148835
 21
5.387785
  0
LINE
  5
5BE
100
AcDbEntity
  8
CURVE
100
AcDbLine
 62
7
  6
CONTINUOUS
 10
-61.3279818835
 20
5.973018
 11
-60.8836097079
 21
6.4173901756
  0
LINE
  5
5BF
100
AcDbEntity
  8
CURVE
100
AcDbLine
 62
7
  6
CONTINUOUS
 10
-60.1572583515
 20
7.1437415319
 11
-59.9220021876
 21
7.3789976958
  0
LINE
  5
5C0
100
AcDbEntity
  8
CURVE
100
AcDbLine
 62
7
  6
CONTINUOUS
 10
-61.9290292965
 20
5.123069
 11
-61.6643132965
 21
5.387785
  0
LINE
  5
5C1
100
AcDbEntity
  8
CURVE
100
AcDbLine
 62
7
  6
CONTINUOUS
 10
-61.0790802965
 20
5.973018
 11
-60.7996512965
 21
6.252447
  0
LINE
  5
5C2
100
AcDbEntity
  8
CURVE
100
AcDbLine
 62
7
  6
CONTINUOUS
 10
-60.1572583515
 20
6.894839945
 11
-59.9220021876
 21
7.1300961088
  0
LINE
  5
5C3
100
AcDbEntity
  8
CURVE
100
AcDbLine
 62
7
  6
CONTINUOUS
 10
-61.6801277095
 20
5.123069
 11
-61.4154117095
 21
5.387785
  0
LINE
  5
5C4
100
AcDbEntity
  8
CURVE
100
AcDbLine
 62
7
  6
CONTINUOUS
 10
-60.8301787095
 20
5.973018
 11
-60.5507497095
 21
6.252447
  0
LINE
  5
5C5
100
AcDbEntity
  8
CURVE
100
AcDbLine
 62
7
  6
CONTINUOUS
 10
-60.1572583515
 20
6.645938358
 11
-59.9220021876
 21
6.8811945219
  0
LINE
  5
5C6
100
AcDbEntity
  8
CURVE
100
AcDbLine
 62
7
  6
CONTINUOUS
 10
-61.4312261225
 20
5.123069
 11
-61.1665101225
 21
5.387785
  0
LINE
  5
5C7
100
AcDbEntity
  8
CURVE
100
AcDbLine
 62
7
  6
CONTINUOUS
 10
-60.5812771225
 20
5.973018
 11
-60.3018481225
 21
6.252447
  0
LINE
  5
5C8
100
AcDbEntity
  8
CURVE
100
AcDbLine
 62
7
  6
CONTINUOUS
 10
-60.1572583515
 20
6.397036771
 11
-59.9220021876
 21
6.6322929349
  0
LINE
  5
5C9
100
AcDbEntity
  8
CURVE
100
AcDbLine
 62
250
  6
CONTINUOUS
 10
-57.4138600547
 20
8.978571558
 11
-57.1424727828
 21
9.25
  0
LINE
  5
5CA
100
AcDbEntity
  8
CURVE
100
AcDbLine
 62
250
  6
CONTINUOUS
 10
-57.9566344855
 20
8.435714221
 11
-58.2280217008
 21
8.164285779
  0
LINE
  5
5CB
100
AcDbEntity
  8
CURVE
100
AcDbLine
 62
7
  6
CONTINUOUS
 10
-61.1823245356
 20
5.123069
 11
-60.9176085356
 21
5.387785
  0
LINE
  5
5CC
100
AcDbEntity
  8
CURVE
100
AcDbLine
 62
7
  6
CONTINUOUS
 10
-60.3323755356
 20
5.973018
 11
-59.9220021876
 21
6.3833913479
  0
LINE
  5
5CD
100
AcDbEntity
  8
CURVE
100
AcDbLine
 62
7
  6
CONTINUOUS
 10
-60.9334229486
 20
5.123069
 11
-60.6687069486
 21
5.387785
  0
LINE
  5
5CE
100
AcDbEntity
  8
CURVE
100
AcDbLine
 62
7
  6
CONTINUOUS
 10
-60.0834739486
 20
5.973018
 11
-59.9220021876
 21
6.1344897609
  0
LINE
  5
5CF
100
AcDbEntity
  8
CURVE
100
AcDbLine
 62
7
  6
CONTINUOUS
 10
-62.0216953455
 20
3.7858950161
 11
-61.378635025
 21
4.4289553366
  0
LINE
  5
5D0
100
AcDbEntity
  8
CURVE
100
AcDbLine
 62
7
  6
CONTINUOUS
 10
-60.6845213616
 20
5.123069
 11
-60.4198053616
 21
5.387785
  0
LINE
  5
5D1
100
AcDbEntity
  8
CURVE
100
AcDbLine
 62
7
  6
CONTINUOUS
 10
-61.8444677746
 20
3.714221
 11
-61.5797717746
 21
3.978917
  0
LINE
  5
5D2
100
AcDbEntity
  8
CURVE
100
AcDbLine
 62
7
  6
CONTINUOUS
 10
-61.5119568338
 20
4.0467319408
 11
-60.6685031854
 21
4.8901855892
  0
LINE
  5
5D3
100
AcDbEntity
  8
CURVE
100
AcDbLine
 62
7
  6
CONTINUOUS
 10
-60.4356197746
 20
5.123069
 11
-60.1709037746
 21
5.387785
  0
LINE
  5
5D4
100
AcDbEntity
  8
CURVE
100
AcDbLine
 62
7
  6
CONTINUOUS
 10
-61.5955661876
 20
3.714221
 11
-61.3308701876
 21
3.978917
  0
LINE
  5
5D5
100
AcDbEntity
  8
CURVE
100
AcDbLine
 62
7
  6
CONTINUOUS
 10
-60.7986347553
 20
4.5111524323
 11
-59.9220021876
 21
5.387785
  0
LINE
  5
5D6
100
AcDbEntity
  8
CURVE
100
AcDbLine
 62
7
  6
CONTINUOUS
 10
-61.3466646007
 20
3.714221
 11
-61.0819686007
 21
3.978917
  0
LINE
  5
5D7
100
AcDbEntity
  8
CURVE
100
AcDbLine
 62
7
  6
CONTINUOUS
 10
-60.0853126769
 20
4.9755729238
 11
-59.9220021876
 21
5.138883413
  0
LINE
  5
5D8
100
AcDbEntity
  8
CURVE
100
AcDbLine
 62
250
  6
CONTINUOUS
 10
-57.9566344855
 20
6.9428571105
 11
-58.2280217008
 21
6.6714286685
  0
LINE
  5
5D9
100
AcDbEntity
  8
CURVE
100
AcDbLine
 62
7
  6
CONTINUOUS
 10
-61.0977630137
 20
3.714221
 11
-60.8330670137
 21
3.978917
  0
LINE
  5
5DA
100
AcDbEntity
  8
CURVE
100
AcDbLine
 62
7
  6
CONTINUOUS
 10
-60.8488614267
 20
3.714221
 11
-60.5841654267
 21
3.978917
  0
LINE
  5
5DB
100
AcDbEntity
  8
CURVE
100
AcDbLine
 62
250
  6
CONTINUOUS
 10
-62.0216953455
 20
4.011288
 11
-60.3189857159
 21
5.117197
  0
LINE
  5
5DC
100
AcDbEntity
  8
CURVE
100
AcDbLine
 62
250
  6
CONTINUOUS
 10
-59.9219961886
 20
8.411231
 11
-62.0216893464
 21
7.670057
  0
LINE
  5
5DD
100
AcDbEntity
  8
CURVE
100
AcDbLine
 62
250
  6
CONTINUOUS
 10
-62.0216893464
 20
7.972957
 11
-60.2013616334
 21
8.573002
  0
LINE
  5
5DE
100
AcDbEntity
  8
CURVE
100
AcDbLine
 62
250
  6
CONTINUOUS
 10
-62.0217373391
 20
-11.502915
 11
-59.9222341523
 21
-11.306558
  0
LINE
  5
5DF
100
AcDbEntity
  8
CURVE
100
AcDbLine
 62
250
  6
CONTINUOUS
 10
-56.5228757742
 20
-10.6428573608
 11
-57.7226930084
 21
-10.6428573608
  0
LINE
  5
5E0
100
AcDbEntity
  8
CURVE
100
AcDbLine
 62
250
  6
CONTINUOUS
 10
-58.3226016254
 20
-10.328571701
 11
-59.5224188596
 21
-10.328571701
  0
LINE
  5
5E1
100
AcDbEntity
  8
CURVE
100
AcDbLine
 62
250
  6
CONTINUOUS
 10
-58.3226016254
 20
-9.7857143402
 11
-59.5224188596
 21
-9.7857143402
  0
LINE
  5
5E2
100
AcDbEntity
  8
CURVE
100
AcDbLine
 62
250
  6
CONTINUOUS
 10
-61.9972082393
 20
-9.3820865903
 11
-59.922233756
 21
-9.3820865903
  0
LINE
  5
5E3
100
AcDbEntity
  8
CURVE
100
AcDbLine
 62
250
  6
CONTINUOUS
 10
-58.3226016254
 20
-9.1857143402
 11
-59.5224188596
 21
-9.1857143402
  0
LINE
  5
5E4
100
AcDbEntity
  8
CURVE
100
AcDbLine
 62
250
  6
CONTINUOUS
 10
-61.0877114758
 20
-8.9600685904
 11
-61.6640661621
 21
-8.9600685904
  0
LINE
  5
5E5
100
AcDbEntity
  8
CURVE
100
AcDbLine
 62
250
  6
CONTINUOUS
 10
-59.922233756
 20
-8.9455347068
 11
-60.7438635095
 21
-8.9455347068
  0
LINE
  5
5E6
100
AcDbEntity
  8
CURVE
100
AcDbLine
 62
250
  6
CONTINUOUS
 10
-56.5228757742
 20
-10.1
 11
-57.7226930084
 21
-9.7571430206
  0
LINE
  5
5E7
100
AcDbEntity
  8
CURVE
100
AcDbLine
 62
250
  6
CONTINUOUS
 10
-60.8836097079
 20
11.202464
 11
-60.8836097079
 21
10.111228
  0
LINE
  5
5E8
100
AcDbEntity
  8
CURVE
100
AcDbLine
 62
250
  6
CONTINUOUS
 10
-60.8836097079
 20
7.343621
 11
-60.8836097079
 21
6.252447
  0
LINE
  5
5E9
100
AcDbEntity
  8
CURVE
100
AcDbLine
 62
250
  6
CONTINUOUS
 10
-60.8569653705
 20
14.8385121526
 11
-60.8569653705
 21
14.1195760699
  0
LINE
  5
5EA
100
AcDbEntity
  8
CURVE
100
AcDbLine
 62
250
  6
CONTINUOUS
 10
-60.7438635095
 20
-8.9455347068
 11
-60.7438635095
 21
-8.7105203921
  0
LINE
  5
5EB
100
AcDbEntity
  8
CURVE
100
AcDbLine
 62
250
  6
CONTINUOUS
 10
-60.6656949024
 20
-10.593564
 11
-60.6656949024
 21
-10.173908
  0
LINE
  5
5EC
100
AcDbEntity
  8
CURVE
100
AcDbLine
 62
250
  6
CONTINUOUS
 10
-60.3413693063
 20
-10.086311
 11
-60.3413693063
 21
-10.683223
  0
LINE
  5
5ED
100
AcDbEntity
  8
CURVE
100
AcDbLine
 62
250
  6
CONTINUOUS
 10
-60.3189857159
 20
5.117197
 11
-60.3189857159
 21
5.123069
  0
LINE
  5
5EE
100
AcDbEntity
  8
CURVE
100
AcDbLine
 62
250
  6
CONTINUOUS
 10
-60.2013616334
 20
8.573002
 11
-60.2013616334
 21
8.578895
  0
LINE
  5
5EF
100
AcDbEntity
  8
CURVE
100
AcDbLine
 62
250
  6
CONTINUOUS
 10
-60.1572583515
 20
6.252447
 11
-60.1572583515
 21
7.431854
  0
LINE
  5
5F0
100
AcDbEntity
  8
CURVE
100
AcDbLine
 62
250
  6
CONTINUOUS
 10
-60.1572583515
 20
10.111228
 11
-60.1572583515
 21
11.290675
  0
LINE
  5
5F1
100
AcDbEntity
  8
CURVE
100
AcDbLine
 62
250
  6
CONTINUOUS
 10
-59.9222341523
 20
-14.110417
 11
-59.9222341523
 21
-13.672102
  0
LINE
  5
5F2
100
AcDbEntity
  8
CURVE
100
AcDbLine
 62
250
  6
CONTINUOUS
 10
-59.9222341523
 20
-9.510797
 11
-59.9222341523
 21
-9.972764
  0
LINE
  5
5F3
100
AcDbEntity
  8
CURVE
100
AcDbLine
 62
250
  6
CONTINUOUS
 10
-59.9222341523
 20
-10.804171
 11
-59.9222341523
 21
-11.237731
  0
LINE
  5
5F4
100
AcDbEntity
  8
CURVE
100
AcDbLine
 62
250
  6
CONTINUOUS
 10
-59.9222341523
 20
-11.306558
 11
-59.9222341523
 21
-11.735347
  0
LINE
  5
5F5
100
AcDbEntity
  8
CURVE
100
AcDbLine
 62
250
  6
CONTINUOUS
 10
-59.9222341523
 20
-12.346558
 11
-59.9222341523
 21
-12.408032
  0
LINE
  5
5F6
100
AcDbEntity
  8
CURVE
100
AcDbLine
 62
250
  6
CONTINUOUS
 10
-59.9222341523
 20
-13.016817
 11
-59.9222341523
 21
-13.436142
  0
LINE
  5
5F7
100
AcDbEntity
  8
CURVE
100
AcDbLine
 62
250
  6
CONTINUOUS
 10
-59.9222341523
 20
-14.948044
 11
-59.9222341523
 21
-15.33431
  0
LINE
  5
5F8
100
AcDbEntity
  8
CURVE
100
AcDbLine
 62
250
  6
CONTINUOUS
 10
-59.922233756
 20
-9.3820865903
 11
-59.922233756
 21
-8.9455347068
  0
LINE
  5
5F9
100
AcDbEntity
  8
CURVE
100
AcDbLine
 62
250
  6
CONTINUOUS
 10
-59.922233756
 20
-8.2743149283
 11
-59.922233756
 21
-7.8527063336
  0
LINE
  5
5FA
100
AcDbEntity
  8
CURVE
100
AcDbLine
 62
250
  6
CONTINUOUS
 10
-59.9220021876
 20
11.290675
 11
-59.9220021876
 21
9.83182
  0
LINE
  5
5FB
100
AcDbEntity
  8
CURVE
100
AcDbLine
 62
250
  6
CONTINUOUS
 10
-59.9220021876
 20
7.431854
 11
-59.9220021876
 21
5.973018
  0
LINE
  5
5FC
100
AcDbEntity
  8
CURVE
100
AcDbLine
 62
250
  6
CONTINUOUS
 10
-59.9220021876
 20
5.387785
 11
-59.9220021876
 21
5.081899
  0
LINE
  5
5FD
100
AcDbEntity
  8
CURVE
100
AcDbLine
 62
250
  6
CONTINUOUS
 10
-59.9220021876
 20
3.978917
 11
-59.9220021876
 21
3.714221
  0
LINE
  5
5FE
100
AcDbEntity
  8
CURVE
100
AcDbLine
 62
250
  6
CONTINUOUS
 10
-59.9219961886
 20
8.728862
 11
-59.9219961886
 21
8.411231
  0
LINE
  5
5FF
100
AcDbEntity
  8
CURVE
100
AcDbLine
 62
250
  6
CONTINUOUS
 10
-59.9201193227
 20
14.1195760699
 11
-59.9201193227
 21
13.9898546903
  0
LINE
  5
600
100
AcDbEntity
  8
ASSI
100
AcDbLine
 62
7
  6
CONTINUOUS
 10
-59.8215202611
 20
22.2
 11
-59.8215202611
 21
21.1720718961
  0
LINE
  5
601
100
AcDbEntity
  8
0
100
AcDbLine
 62
7
  6
CONTINUOUS
 10
-59.8215202611
 20
22.2
 11
-59.8215202611
 21
21.1720718961
  0
LINE
  5
602
100
AcDbEntity
  8
ASSI
100
AcDbLine
 62
7
  6
CONTINUOUS
 10
-59.8215202611
 20
-22.2
 11
-59.8215202611
 21
-21.1720718961
  0
LINE
  5
603
100
AcDbEntity
  8
0
100
AcDbLine
 62
7
  6
CONTINUOUS
 10
-59.8215202611
 20
-22.2
 11
-59.8215202611
 21
-21.1720718961
  0
LINE
  5
604
100
AcDbEntity
  8
CURVE
100
AcDbLine
 62
250
  6
CONTINUOUS
 10
-59.5224188596
 20
-13.4428571224
 11
-59.5224188596
 21
-13.0142857552
  0
LINE
  5
605
100
AcDbEntity
  8
CURVE
100
AcDbLine
 62
250
  6
CONTINUOUS
 10
-59.5224188596
 20
-12.3571428299
 11
-59.5224188596
 21
-11.8428570747
  0
LINE
  5
606
100
AcDbEntity
  8
CURVE
100
AcDbLine
 62
250
  6
CONTINUOUS
 10
-59.0082115042
 20
-12.0142858505
 11
-59.0082115042
 21
-12.3571428299
  0
LINE
  5
607
100
AcDbEntity
  8
CURVE
100
AcDbLine
 62
7
  6
CONTINUOUS
 10
-60.5999598397
 20
3.714221
 11
-60.3352638397
 21
3.978917
  0
LINE
  5
608
100
AcDbEntity
  8
CURVE
100
AcDbLine
 62
7
  6
CONTINUOUS
 10
-60.3510582528
 20
3.714221
 11
-60.0863622528
 21
3.978917
  0
LINE
  5
609
100
AcDbEntity
  8
CURVE
100
AcDbLine
 62
7
  6
CONTINUOUS
 10
-60.1021566658
 20
3.714221
 11
-59.9220021876
 21
3.8943754781
  0
LINE
  5
60A
100
AcDbEntity
  8
CURVE
100
AcDbLine
 62
250
  6
CONTINUOUS
 10
-57.4138600547
 20
5.9928571105
 11
-57.1424727828
 21
6.2642856658
  0
LINE
  5
60B
100
AcDbEntity
  8
CURVE
100
AcDbLine
 62
250
  6
CONTINUOUS
 10
-58.2280217008
 20
5.0428571671
 11
-57.9566344855
 21
5.3142857224
  0
LINE
  5
60C
100
AcDbEntity
  8
CURVE
100
AcDbLine
 62
250
  6
CONTINUOUS
 10
-59.9220021876
 20
5.081899
 11
-61.60703451
 21
3.98483
  0
LINE
  5
60D
100
AcDbEntity
  8
CURVE
100
AcDbLine
 62
250
  6
CONTINUOUS
 10
-57.9566344855
 20
5.3142857224
 11
-57.6852472701
 21
5.45
  0
LINE
  5
60E
100
AcDbEntity
  8
CURVE
100
AcDbLine
 62
250
  6
CONTINUOUS
 10
-59.9222341523
 20
-9.972764
 11
-60.3413693063
 21
-10.086311
  0
LINE
  5
60F
100
AcDbEntity
  8
CURVE
100
AcDbLine
 62
250
  6
CONTINUOUS
 10
-60.6656949024
 20
-10.173908
 11
-61.4448472156
 21
-10.375319
  0
LINE
  5
610
100
AcDbEntity
  8
ASSI
100
AcDbLine
 62
7
  6
CONTINUOUS
 10
-28.4215202611
 20
-6.5339814634
 11
-53.1780651627
 21
-6.7500285577
  0
LINE
  5
611
100
AcDbEntity
  8
0
100
AcDbLine
 62
7
  6
CONTINUOUS
 10
-28.4215202611
 20
-6.5339814634
 11
-53.1780651627
 21
-6.7500285577
  0
LINE
  5
612
100
AcDbEntity
  8
ASSI
100
AcDbLine
 62
7
  6
CONTINUOUS
 10
-28.4215202611
 20
-6.2655574881
 11
-53.170283893
 21
-6.4236728618
  0
LINE
  5
613
100
AcDbEntity
  8
0
100
AcDbLine
 62
7
  6
CONTINUOUS
 10
-28.4215202611
 20
-6.2655574881
 11
-53.170283893
 21
-6.4236728618
  0
LINE
  5
614
100
AcDbEntity
  8
CURVE
100
AcDbLine
 62
250
  6
CONTINUOUS
 10
-60.9022634357
 20
-8.2551988561
 11
-60.9146696719
 21
-8.2551988561
  0
LINE
  5
615
100
AcDbEntity
  8
IMPORT_IGES
100
AcDbLine
 62
7
  6
CONTINUOUS
 10
-53.2215202611
 20
-6.9
 11
-51.4215202611
 21
-6.9
  0
LINE
  5
616
100
AcDbEntity
  8
ASSI
100
AcDbLine
 62
7
  6
CONTINUOUS
 10
-28.4215202611
 20
-8.7344425119
 11
-53.170283893
 21
-8.5763271382
  0
LINE
  5
617
100
AcDbEntity
  8
0
100
AcDbLine
 62
7
  6
CONTINUOUS
 10
-28.4215202611
 20
-8.7344425119
 11
-53.170283893
 21
-8.5763271382
  0
LINE
  5
618
100
AcDbEntity
  8
ASSI
100
AcDbLine
 62
7
  6
CONTINUOUS
 10
-53.1780651627
 20
-8.2499714423
 11
-28.4215202611
 21
-8.4660185366
  0
LINE
  5
619
100
AcDbEntity
  8
0
100
AcDbLine
 62
7
  6
CONTINUOUS
 10
-53.1780651627
 20
-8.2499714423
 11
-28.4215202611
 21
-8.4660185366
  0
LINE
  5
61A
100
AcDbEntity
  8
CURVE
100
AcDbLine
 62
250
  6
CONTINUOUS
 10
-58.6654065648
 20
-14.3571428537
 11
-58.6654065648
 21
-13.8999999523
  0
LINE
  5
61B
100
AcDbEntity
  8
CURVE
100
AcDbLine
 62
250
  6
CONTINUOUS
 10
-58.3226016254
 20
-12.3571428299
 11
-58.3226016254
 21
-11.8428570747
  0
LINE
  5
61C
100
AcDbEntity
  8
CURVE
100
AcDbLine
 62
250
  6
CONTINUOUS
 10
-58.3226016254
 20
-13.0142857552
 11
-58.3226016254
 21
-13.4428571224
  0
LINE
  5
61D
100
AcDbEntity
  8
CURVE
100
AcDbLine
 62
250
  6
CONTINUOUS
 10
-58.2280217008
 20
11.15
 11
-58.2280217008
 21
10.742857337
  0
LINE
  5
61E
100
AcDbEntity
  8
CURVE
100
AcDbLine
 62
250
  6
CONTINUOUS
 10
-58.2280217008
 20
9.657142663
 11
-58.2280217008
 21
9.25
  0
LINE
  5
61F
100
AcDbEntity
  8
CURVE
100
AcDbLine
 62
250
  6
CONTINUOUS
 10
-58.2280217008
 20
8.164285779
 11
-58.2280217008
 21
7.7571428895
  0
LINE
  5
620
100
AcDbEntity
  8
CURVE
100
AcDbLine
 62
250
  6
CONTINUOUS
 10
-58.2280217008
 20
6.6714286685
 11
-58.2280217008
 21
6.2642856658
  0
LINE
  5
621
100
AcDbEntity
  8
CURVE
100
AcDbLine
 62
250
  6
CONTINUOUS
 10
-58.2280217008
 20
4.9071428612
 11
-58.2280217008
 21
5.0428571671
  0
LINE
  5
622
100
AcDbEntity
  8
CURVE
100
AcDbLine
 62
250
  6
CONTINUOUS
 10
-58.2280217008
 20
13.321428442
 11
-58.2280217008
 21
13.864285326
  0
LINE
  5
623
100
AcDbEntity
  8
CURVE
100
AcDbLine
 62
250
  6
CONTINUOUS
 10
-58.2280217008
 20
14.9047620773
 11
-58.2280217008
 21
15.4476189613
  0
LINE
  5
624
100
AcDbEntity
  8
CURVE
100
AcDbLine
 62
250
  6
CONTINUOUS
 10
-57.7226930084
 20
-15.5
 11
-57.7226930084
 21
-14.8142856836
  0
LINE
  5
625
100
AcDbEntity
  8
CURVE
100
AcDbLine
 62
250
  6
CONTINUOUS
 10
-57.7226930084
 20
-11.6428572655
 11
-57.7226930084
 21
-11.3
  0
LINE
  5
626
100
AcDbEntity
  8
CURVE
100
AcDbLine
 62
250
  6
CONTINUOUS
 10
-57.1424727828
 20
6.2642856658
 11
-57.1424727828
 21
6.8523810387
  0
LINE
  5
627
100
AcDbEntity
  8
CURVE
100
AcDbLine
 62
250
  6
CONTINUOUS
 10
-57.1424727828
 20
9.25
 11
-57.1424727828
 21
9.8380952597
  0
LINE
  5
628
100
AcDbEntity
  8
CURVE
100
AcDbLine
 62
250
  6
CONTINUOUS
 10
-56.8656807135
 20
-9.9857141495
 11
-56.8656807135
 21
-9.5285713196
  0
LINE
  5
629
100
AcDbEntity
  8
CURVE
100
AcDbLine
 62
250
  6
CONTINUOUS
 10
-56.6449295263
 20
12.2809525967
 11
-56.6449295263
 21
12.371428442
  0
LINE
  5
62A
100
AcDbEntity
  8
CURVE
100
AcDbLine
 62
250
  6
CONTINUOUS
 10
-56.5228757742
 20
-14.3
 11
-56.5228757742
 21
-14.0428571224
  0
LINE
  5
62B
100
AcDbEntity
  8
CURVE
100
AcDbLine
 62
250
  6
CONTINUOUS
 10
-56.5228757742
 20
-11.7285715103
 11
-56.5228757742
 21
-11.3857142448
  0
LINE
  5
62C
100
AcDbEntity
  8
IMPORT_IGES
100
AcDbLine
 62
7
  6
CONTINUOUS
 10
-51.5232644627
 20
13.2644126692
 11
-52.401507193
 21
11.743251639
  0
LINE
  5
62D
100
AcDbEntity
  8
CURVE
100
AcDbLine
 62
250
  6
CONTINUOUS
 10
-56.32831108
 20
4.9071428612
 11
-56.5996983237
 21
4.6357142918
  0
LINE
  5
62E
100
AcDbEntity
  8
CURVE
100
AcDbLine
 62
250
  6
CONTINUOUS
 10
-56.5996983237
 20
4.6357142918
 11
-56.8710855674
 21
4.5
  0
LINE
  5
62F
100
AcDbEntity
  8
CURVE
100
AcDbLine
 62
250
  6
CONTINUOUS
 10
-56.4187734922
 20
12.371428442
 11
-56.4187734922
 21
12.2809525967
  0
LINE
  5
630
100
AcDbEntity
  8
CURVE
100
AcDbLine
 62
250
  6
CONTINUOUS
 10
-56.32831108
 20
15.4476189613
 11
-56.32831108
 21
14.9047620773
  0
LINE
  5
631
100
AcDbEntity
  8
CURVE
100
AcDbLine
 62
250
  6
CONTINUOUS
 10
-56.32831108
 20
13.864285326
 11
-56.32831108
 21
13.321428442
  0
LINE
  5
632
100
AcDbEntity
  8
CURVE
100
AcDbLine
 62
250
  6
CONTINUOUS
 10
-56.32831108
 20
11.421428442
 11
-56.32831108
 21
10.471428442
  0
LINE
  5
633
100
AcDbEntity
  8
CURVE
100
AcDbLine
 62
250
  6
CONTINUOUS
 10
-56.32831108
 20
8.435714221
 11
-56.32831108
 21
7.485714221
  0
LINE
  5
634
100
AcDbEntity
  8
CURVE
100
AcDbLine
 62
250
  6
CONTINUOUS
 10
-56.32831108
 20
5.0428571671
 11
-56.32831108
 21
4.9071428612
  0
LINE
  5
635
100
AcDbEntity
  8
CURVE
100
AcDbLine
 62
250
  6
CONTINUOUS
 10
-55.9215202611
 20
-2.0
 11
-55.9215202611
 21
-1.000000718
  0
LWPOLYLINE
  5
636
100
AcDbEntity
  8
0
100
AcDbPolyline
 62
7
  6
CONTINUOUS
 90
2
 70
0
 43
0.3500000019
 10
-54.9572344971
 20
42.2500009766
 10
-54.9572344971
 20
43.7499997559
  0
LINE
  5
637
100
AcDbEntity
  8
IMPORT_IGES
100
AcDbLine
 62
7
  6
CONTINUOUS
 10
-53.8933444888
 20
-2.7
 11
-50.9065202611
 21
-2.7
  0
LINE
  5
638
100
AcDbEntity
  8
ASSI
100
AcDbLine
 62
7
  6
CONTINUOUS
 10
-28.4215202611
 20
-3.7344425119
 11
-53.170283893
 21
-3.5763271382
  0
LINE
  5
639
100
AcDbEntity
  8
0
100
AcDbLine
 62
7
  6
CONTINUOUS
 10
-28.4215202611
 20
-3.7344425119
 11
-53.170283893
 21
-3.5763271382
  0
LINE
  5
63A
100
AcDbEntity
  8
ASSI
100
AcDbLine
 62
7
  6
CONTINUOUS
 10
-53.1780651627
 20
-3.2499714423
 11
-28.4215202611
 21
-3.4660185366
  0
LINE
  5
63B
100
AcDbEntity
  8
0
100
AcDbLine
 62
7
  6
CONTINUOUS
 10
-53.1780651627
 20
-3.2499714423
 11
-28.4215202611
 21
-3.4660185366
  0
LINE
  5
63C
100
AcDbEntity
  8
CURVE
100
AcDbLine
 62
250
  6
CONTINUOUS
 10
-59.53797092
 20
-0.3676329685
 11
-58.3323603485
 21
-0.9118127306
  0
LINE
  5
63D
100
AcDbEntity
  8
CURVE
100
AcDbLine
 62
250
  6
CONTINUOUS
 10
-57.1703860314
 20
-1.4362962353
 11
-55.9215202611
 21
-2.0
  0
LINE
  5
63E
100
AcDbEntity
  8
CURVE
100
AcDbLine
 62
250
  6
CONTINUOUS
 10
-57.393244385
 20
-0.2903314832
 11
-57.8633820234
 21
-0.0636291216
  0
LINE
  5
63F
100
AcDbEntity
  8
CURVE
100
AcDbLine
 62
250
  6
CONTINUOUS
 10
-55.9215202611
 20
-1.000000718
 11
-56.4730617207
 21
-0.7340457986
  0
LINE
  5
640
100
AcDbEntity
  8
ASSI
100
AcDbLine
 62
250
  6
CONTINUOUS
 10
-53.170283893
 20
-13.5763271382
 11
-53.1780651627
 21
-13.2499714423
  0
LINE
  5
641
100
AcDbEntity
  8
0
100
AcDbLine
 62
250
  6
CONTINUOUS
 10
-53.170283893
 20
-13.5763271382
 11
-53.1780651627
 21
-13.2499714423
  0
LINE
  5
642
100
AcDbEntity
  8
ASSI
100
AcDbLine
 62
250
  6
CONTINUOUS
 10
-53.170283893
 20
-8.5763271382
 11
-53.1780651627
 21
-8.2499714423
  0
LINE
  5
643
100
AcDbEntity
  8
0
100
AcDbLine
 62
250
  6
CONTINUOUS
 10
-53.170283893
 20
-8.5763271382
 11
-53.1780651627
 21
-8.2499714423
  0
LINE
  5
644
100
AcDbEntity
  8
ASSI
100
AcDbLine
 62
250
  6
CONTINUOUS
 10
-53.170283893
 20
-3.5763271382
 11
-53.1780651627
 21
-3.2499714423
  0
LINE
  5
645
100
AcDbEntity
  8
0
100
AcDbLine
 62
250
  6
CONTINUOUS
 10
-53.170283893
 20
-3.5763271382
 11
-53.1780651627
 21
-3.2499714423
  0
LINE
  5
646
100
AcDbEntity
  8
ASSI
100
AcDbLine
 62
250
  6
CONTINUOUS
 10
-53.170283893
 20
1.4236728618
 11
-53.1780651627
 21
1.7500285577
  0
LINE
  5
647
100
AcDbEntity
  8
0
100
AcDbLine
 62
250
  6
CONTINUOUS
 10
-53.170283893
 20
1.4236728618
 11
-53.1780651627
 21
1.7500285577
  0
LINE
  5
648
100
AcDbEntity
  8
ASSI
100
AcDbLine
 62
250
  6
CONTINUOUS
 10
-53.170283893
 20
6.4236728618
 11
-53.1780651627
 21
6.7500285577
  0
LINE
  5
649
100
AcDbEntity
  8
0
100
AcDbLine
 62
250
  6
CONTINUOUS
 10
-53.170283893
 20
6.4236728618
 11
-53.1780651627
 21
6.7500285577
  0
LINE
  5
64A
100
AcDbEntity
  8
ASSI
100
AcDbLine
 62
250
  6
CONTINUOUS
 10
-53.170283893
 20
11.4236728618
 11
-53.1780651627
 21
11.7500285577
  0
LINE
  5
64B
100
AcDbEntity
  8
0
100
AcDbLine
 62
250
  6
CONTINUOUS
 10
-53.170283893
 20
11.4236728618
 11
-53.1780651627
 21
11.7500285577
  0
LINE
  5
64C
100
AcDbEntity
  8
IMPORT_IGES
100
AcDbLine
 62
7
  6
CONTINUOUS
 10
-53.2215202611
 20
-8.2499714423
 11
-53.2215202611
 21
-6.9
  0
LINE
  5
64D
100
AcDbEntity
  8
IMPORT_IGES
100
AcDbLine
 62
7
  6
CONTINUOUS
 10
-53.0215202611
 20
-12.7
 11
-53.0215202611
 21
-11.748662411
  0
LINE
  5
64E
100
AcDbEntity
  8
IMPORT_IGES
100
AcDbLine
 62
7
  6
CONTINUOUS
 10
-52.5715202611
 20
-11.7447353205
 11
-52.5715202611
 21
-13.050472
  0
LINE
  5
64F
100
AcDbEntity
  8
IMPORT_IGES
100
AcDbLine
 62
7
  6
CONTINUOUS
 10
-52.3715202611
 20
-11.742989947
 11
-52.3715202611
 21
-13.050472
  0
LINE
  5
650
100
AcDbEntity
  8
ASSI
100
AcDbLine
 62
250
  6
CONTINUOUS
 10
-53.170283893
 20
13.5763271382
 11
-53.1780651627
 21
13.2499714423
  0
LINE
  5
651
100
AcDbEntity
  8
0
100
AcDbLine
 62
250
  6
CONTINUOUS
 10
-53.170283893
 20
13.5763271382
 11
-53.1780651627
 21
13.2499714423
  0
LINE
  5
652
100
AcDbEntity
  8
ASSI
100
AcDbLine
 62
250
  6
CONTINUOUS
 10
-53.170283893
 20
8.5763271382
 11
-53.1780651627
 21
8.2499714423
  0
LINE
  5
653
100
AcDbEntity
  8
0
100
AcDbLine
 62
250
  6
CONTINUOUS
 10
-53.170283893
 20
8.5763271382
 11
-53.1780651627
 21
8.2499714423
  0
LINE
  5
654
100
AcDbEntity
  8
ASSI
100
AcDbLine
 62
250
  6
CONTINUOUS
 10
-53.170283893
 20
3.5763271382
 11
-53.1780651627
 21
3.2499714423
  0
LINE
  5
655
100
AcDbEntity
  8
0
100
AcDbLine
 62
250
  6
CONTINUOUS
 10
-53.170283893
 20
3.5763271382
 11
-53.1780651627
 21
3.2499714423
  0
LINE
  5
656
100
AcDbEntity
  8
ASSI
100
AcDbLine
 62
250
  6
CONTINUOUS
 10
-53.170283893
 20
-1.4236728618
 11
-53.1780651627
 21
-1.7500285577
  0
LINE
  5
657
100
AcDbEntity
  8
0
100
AcDbLine
 62
250
  6
CONTINUOUS
 10
-53.170283893
 20
-1.4236728618
 11
-53.1780651627
 21
-1.7500285577
  0
LINE
  5
658
100
AcDbEntity
  8
ASSI
100
AcDbLine
 62
250
  6
CONTINUOUS
 10
-53.170283893
 20
-6.4236728618
 11
-53.1780651627
 21
-6.7500285577
  0
LINE
  5
659
100
AcDbEntity
  8
0
100
AcDbLine
 62
250
  6
CONTINUOUS
 10
-53.170283893
 20
-6.4236728618
 11
-53.1780651627
 21
-6.7500285577
  0
LINE
  5
65A
100
AcDbEntity
  8
ASSI
100
AcDbLine
 62
250
  6
CONTINUOUS
 10
-53.170283893
 20
-11.4236728618
 11
-53.1780651627
 21
-11.7500285577
  0
LINE
  5
65B
100
AcDbEntity
  8
0
100
AcDbLine
 62
250
  6
CONTINUOUS
 10
-53.170283893
 20
-11.4236728618
 11
-53.1780651627
 21
-11.7500285577
  0
LINE
  5
65C
100
AcDbEntity
  8
ASSI
100
AcDbLine
 62
7
  6
CONTINUOUS
 10
-28.4215202611
 20
-1.5339814634
 11
-53.1780651627
 21
-1.7500285577
  0
LINE
  5
65D
100
AcDbEntity
  8
0
100
AcDbLine
 62
7
  6
CONTINUOUS
 10
-28.4215202611
 20
-1.5339814634
 11
-53.1780651627
 21
-1.7500285577
  0
LINE
  5
65E
100
AcDbEntity
  8
ASSI
100
AcDbLine
 62
7
  6
CONTINUOUS
 10
-28.4215202611
 20
-1.2655574881
 11
-53.170283893
 21
-1.4236728618
  0
LINE
  5
65F
100
AcDbEntity
  8
0
100
AcDbLine
 62
7
  6
CONTINUOUS
 10
-28.4215202611
 20
-1.2655574881
 11
-53.170283893
 21
-1.4236728618
  0
LINE
  5
660
100
AcDbEntity
  8
CURVE
100
AcDbLine
 62
250
  6
CONTINUOUS
 10
-57.9566344855
 20
4.6357142918
 11
-58.2280217008
 21
4.9071428612
  0
LINE
  5
661
100
AcDbEntity
  8
CURVE
100
AcDbLine
 62
250
  6
CONTINUOUS
 10
-58.2280217008
 20
6.2642856658
 11
-57.9566344855
 21
5.9928571105
  0
LINE
  5
662
100
AcDbEntity
  8
IMPORT_IGES
100
AcDbLine
 62
7
  6
CONTINUOUS
 10
-51.4215202611
 20
-6.9
 11
-51.4215202611
 21
-8.2653005774
  0
LINE
  5
663
100
AcDbEntity
  8
IMPORT_IGES
100
AcDbLine
 62
7
  6
CONTINUOUS
 10
-50.9065202611
 20
-2.7
 11
-50.9065202611
 21
-1.7302050857
  0
LINE
  5
664
100
AcDbEntity
  8
IMPORT_IGES
100
AcDbLine
 62
7
  6
CONTINUOUS
 10
-50.2215202611
 20
-3.2757728188
 11
-50.2215202611
 21
-1.7242271812
  0
LINE
  5
665
100
AcDbEntity
  8
IMPORT_IGES
100
AcDbLine
 62
7
  6
CONTINUOUS
 10
-49.8715202611
 20
-13.050472
 11
-49.8715202611
 21
-11.7211727775
  0
LINE
  5
666
100
AcDbEntity
  8
CURVE
100
AcDbLine
 62
250
  6
CONTINUOUS
 10
-55.9215202611
 20
0.9999999992
 11
-56.9213683148
 21
0.9999999992
  0
LINE
  5
667
100
AcDbEntity
  8
CURVE
100
AcDbLine
 62
250
  6
CONTINUOUS
 10
-60.9207594532
 20
0.9999999992
 11
-61.9206064305
 21
0.9999999992
  0
LINE
  5
668
100
AcDbEntity
  8
ASSI
100
AcDbLine
 62
7
  6
CONTINUOUS
 10
-28.4215202611
 20
1.2655574881
 11
-53.170283893
 21
1.4236728618
  0
LINE
  5
669
100
AcDbEntity
  8
0
100
AcDbLine
 62
7
  6
CONTINUOUS
 10
-28.4215202611
 20
1.2655574881
 11
-53.170283893
 21
1.4236728618
  0
LINE
  5
66A
100
AcDbEntity
  8
ASSI
100
AcDbLine
 62
7
  6
CONTINUOUS
 10
-53.1780651627
 20
1.7500285577
 11
-28.4215202611
 21
1.5339814634
  0
LINE
  5
66B
100
AcDbEntity
  8
0
100
AcDbLine
 62
7
  6
CONTINUOUS
 10
-53.1780651627
 20
1.7500285577
 11
-28.4215202611
 21
1.5339814634
  0
LINE
  5
66C
100
AcDbEntity
  8
CURVE
100
AcDbLine
 62
250
  6
CONTINUOUS
 10
-57.6852472701
 20
4.5
 11
-57.9566344855
 21
4.6357142918
  0
LINE
  5
66D
100
AcDbEntity
  8
CURVE
100
AcDbLine
 62
250
  6
CONTINUOUS
 10
-56.5996983237
 20
5.3142857224
 11
-56.32831108
 21
5.0428571671
  0
LINE
  5
66E
100
AcDbEntity
  8
CURVE
100
AcDbLine
 62
250
  6
CONTINUOUS
 10
-56.32831108
 20
6.2642856658
 11
-56.8710855674
 21
6.8071428895
  0
LINE
  5
66F
100
AcDbEntity
  8
CURVE
100
AcDbLine
 62
250
  6
CONTINUOUS
 10
-58.2280217008
 20
9.25
 11
-57.9566344855
 21
8.978571558
  0
LINE
  5
670
100
AcDbEntity
  8
IMPORT_IGES
100
AcDbLine
 62
7
  6
CONTINUOUS
 10
-49.6715202611
 20
-11.7194274039
 11
-49.6715202611
 21
-13.050472
  0
LINE
  5
671
100
AcDbEntity
  8
IMPORT_IGES
100
AcDbLine
 62
7
  6
CONTINUOUS
 10
-49.2215202611
 20
-12.7
 11
-49.2215202611
 21
-11.7155003134
  0
LINE
  5
672
100
AcDbEntity
  8
IMPORT_IGES
100
AcDbLine
 62
7
  6
CONTINUOUS
 10
-48.4215202611
 20
-1.7085188192
 11
-48.4215202611
 21
-3.2914811808
  0
LINE
  5
673
100
AcDbEntity
  8
CURVE
100
AcDbLine
 62
250
  6
CONTINUOUS
 10
-56.8656807135
 20
-11.2142857552
 11
-57.3798881047
 21
-11.8142857552
  0
LINE
  5
674
100
AcDbEntity
  8
CURVE
100
AcDbLine
 62
250
  6
CONTINUOUS
 10
-59.5224188596
 20
-13.0142857552
 11
-59.3510164078
 21
-12.8428572655
  0
LINE
  5
675
100
AcDbEntity
  8
CURVE
100
AcDbLine
 62
250
  6
CONTINUOUS
 10
-57.7226930084
 20
-11.3
 11
-57.6369917467
 21
-11.2142857552
  0
LINE
  5
676
100
AcDbEntity
  8
ASSI
100
AcDbLine
 62
7
  6
CONTINUOUS
 10
-28.4215202611
 20
3.4660185366
 11
-53.1780651627
 21
3.2499714423
  0
LINE
  5
677
100
AcDbEntity
  8
0
100
AcDbLine
 62
7
  6
CONTINUOUS
 10
-28.4215202611
 20
3.4660185366
 11
-53.1780651627
 21
3.2499714423
  0
LINE
  5
678
100
AcDbEntity
  8
ASSI
100
AcDbLine
 62
7
  6
CONTINUOUS
 10
-28.4215202611
 20
3.7344425119
 11
-53.170283893
 21
3.5763271382
  0
LINE
  5
679
100
AcDbEntity
  8
0
100
AcDbLine
 62
7
  6
CONTINUOUS
 10
-28.4215202611
 20
3.7344425119
 11
-53.170283893
 21
3.5763271382
  0
LINE
  5
67A
100
AcDbEntity
  8
0
100
AcDbLine
 62
250
  6
CONTINUOUS
 10
-30.0215202611
 20
2.6
 11
-30.2215202611
 21
2.6
  0
LINE
  5
67B
100
AcDbEntity
  8
CURVE
100
AcDbLine
 62
250
  6
CONTINUOUS
 10
-59.9220021876
 20
3.714221
 11
-62.0216953455
 21
3.714221
  0
LINE
  5
67C
100
AcDbEntity
  8
CURVE
100
AcDbLine
 62
250
  6
CONTINUOUS
 10
-61.60703451
 20
3.978917
 11
-59.9220021876
 21
3.978917
  0
LINE
  5
67D
100
AcDbEntity
  8
CURVE
100
AcDbLine
 62
250
  6
CONTINUOUS
 10
-56.8710855674
 20
4.5
 11
-57.6852472701
 21
4.5
  0
LINE
  5
67E
100
AcDbEntity
  8
ASSI
100
AcDbLine
 62
7
  6
CONTINUOUS
 10
-29.9215202611
 20
3.0
 11
-30.2715202619
 21
3.0061092727
  0
LINE
  5
67F
100
AcDbEntity
  8
0
100
AcDbLine
 62
7
  6
CONTINUOUS
 10
-29.9215202611
 20
3.0
 11
-30.2715202619
 21
3.0061092727
  0
LINE
  5
680
100
AcDbEntity
  8
CURVE
100
AcDbLine
 62
250
  6
CONTINUOUS
 10
-56.8710855674
 20
5.45
 11
-56.5996983237
 21
5.3142857224
  0
LINE
  5
681
100
AcDbEntity
  8
CURVE
100
AcDbLine
 62
250
  6
CONTINUOUS
 10
-58.2280217008
 20
7.7571428895
 11
-57.8209408212
 21
7.485714221
  0
LINE
  5
682
100
AcDbEntity
  8
CURVE
100
AcDbLine
 62
250
  6
CONTINUOUS
 10
-56.32831108
 20
7.485714221
 11
-57.6852472701
 21
8.435714221
  0
LINE
  5
683
100
AcDbEntity
  8
CURVE
100
AcDbLine
 62
250
  6
CONTINUOUS
 10
-56.32831108
 20
9.25
 11
-56.8710855674
 21
9.792857337
  0
LWPOLYLINE
  5
684
100
AcDbEntity
  8
0
100
AcDbPolyline
 62
7
  6
CONTINUOUS
 90
4
 70
0
 43
0.3500000019
 10
-47.0286635742
 20
34.607144043
 10
-47.0286635742
 20
35.2499995117
 10
-45.5286621094
 20
35.2499995117
 10
-46.3858054199
 20
32.2499992676
  0
LINE
  5
685
100
AcDbEntity
  8
0
100
AcDbLine
 62
7
  6
CONTINUOUS
 10
-46.7215202611
 20
6.693683144
 11
-46.7215202611
 21
8.306316856
  0
LINE
  5
686
100
AcDbEntity
  8
0
100
AcDbLine
 62
7
  6
CONTINUOUS
 10
-46.7215202611
 20
11.693683144
 11
-46.7215202611
 21
13.306316856
  0
LINE
  5
687
100
AcDbEntity
  8
ASSI
100
AcDbLine
 62
7
  6
CONTINUOUS
 10
-66.1223210991
 20
-22.7129877857
 11
-66.3641703509
 21
-22.9590953724
  0
LINE
  5
688
100
AcDbEntity
  8
0
100
AcDbLine
 62
7
  6
CONTINUOUS
 10
-66.1223210991
 20
-22.7129877857
 11
-66.3641703509
 21
-22.9590953724
  0
LINE
  5
689
100
AcDbEntity
  8
ASSI
100
AcDbLine
 62
250
  6
CONTINUOUS
 10
-65.9796710092
 20
-22.8531696386
 11
-66.2215202611
 21
-23.0992772252
  0
LINE
  5
68A
100
AcDbEntity
  8
0
100
AcDbLine
 62
250
  6
CONTINUOUS
 10
-65.9796710092
 20
-22.8531696386
 11
-66.2215202611
 21
-23.0992772252
  0
LINE
  5
68B
100
AcDbEntity
  8
CURVE
100
AcDbLine
 62
250
  6
CONTINUOUS
 10
-56.608577009
 20
-11.8142857552
 11
-56.5228757742
 21
-11.7285715103
  0
LINE
  5
68C
100
AcDbEntity
  8
CURVE
100
AcDbLine
 62
250
  6
CONTINUOUS
 10
-59.5224188596
 20
-9.7857143402
 11
-58.3226016254
 21
-9.1857143402
  0
LINE
  5
68D
100
AcDbEntity
  8
CURVE
100
AcDbLine
 62
250
  6
CONTINUOUS
 10
-62.0217373391
 20
-10.155075
 11
-59.9222341523
 21
-9.510797
  0
LINE
  5
68E
100
AcDbEntity
  8
CURVE
100
AcDbLine
 62
250
  6
CONTINUOUS
 10
-60.3189857159
 20
5.123069
 11
-62.0216953455
 21
5.123069
  0
LINE
  5
68F
100
AcDbEntity
  8
CURVE
100
AcDbLine
 62
250
  6
CONTINUOUS
 10
-62.0216953455
 20
5.387785
 11
-59.9220021876
 21
5.387785
  0
LINE
  5
690
100
AcDbEntity
  8
CURVE
100
AcDbLine
 62
250
  6
CONTINUOUS
 10
-57.6852472701
 20
5.45
 11
-56.8710855674
 21
5.45
  0
LINE
  5
691
100
AcDbEntity
  8
IMPORT_IGES
100
AcDbLine
 62
7
  6
CONTINUOUS
 10
-31.2715524422
 20
5.5
 11
-35.7604831406
 21
5.5
  0
LINE
  5
692
100
AcDbEntity
  8
CURVE
100
AcDbLine
 62
250
  6
CONTINUOUS
 10
-59.9220021876
 20
5.973018
 11
-62.0216953455
 21
5.973018
  0
LINE
  5
693
100
AcDbEntity
  8
CURVE
100
AcDbLine
 62
250
  6
CONTINUOUS
 10
-57.9566344855
 20
5.9928571105
 11
-57.4138600547
 21
5.9928571105
  0
LINE
  5
694
100
AcDbEntity
  8
CURVE
100
AcDbLine
 62
250
  6
CONTINUOUS
 10
-61.7864381818
 20
6.252447
 11
-61.1188858687
 21
6.252447
  0
LINE
  5
695
100
AcDbEntity
  8
CURVE
100
AcDbLine
 62
250
  6
CONTINUOUS
 10
-60.8836097079
 20
6.252447
 11
-60.1572583515
 21
6.252447
  0
LINE
  5
696
100
AcDbEntity
  8
CURVE
100
AcDbLine
 62
250
  6
CONTINUOUS
 10
-57.4138600547
 20
6.9428571105
 11
-57.9566344855
 21
6.9428571105
  0
LINE
  5
697
100
AcDbEntity
  8
ASSI
100
AcDbLine
 62
7
  6
CONTINUOUS
 10
-36.858276295
 20
6.3194583962
 11
-53.170283893
 21
6.4236728618
  0
LINE
  5
698
100
AcDbEntity
  8
0
100
AcDbLine
 62
7
  6
CONTINUOUS
 10
-36.858276295
 20
6.3194583962
 11
-53.170283893
 21
6.4236728618
  0
LINE
  5
699
100
AcDbEntity
  8
ASSI
100
AcDbLine
 62
7
  6
CONTINUOUS
 10
-35.1398459856
 20
5.4000799616
 11
-28.4215202611
 21
5.3414500212
  0
LINE
  5
69A
100
AcDbEntity
  8
ASSI
100
AcDbLine
 62
7
  6
CONTINUOUS
 10
-37.0231517531
 20
6.6090467642
 11
-53.1780651627
 21
6.7500285577
  0
LINE
  5
69B
100
AcDbEntity
  8
0
100
AcDbLine
 62
7
  6
CONTINUOUS
 10
-37.0231517531
 20
6.6090467642
 11
-53.1780651627
 21
6.7500285577
  0
LINE
  5
69C
100
AcDbEntity
  8
CURVE
100
AcDbLine
 62
250
  6
CONTINUOUS
 10
-56.8710855674
 20
6.8071428895
 11
-57.4138600547
 21
6.9428571105
  0
LINE
  5
69D
100
AcDbEntity
  8
CURVE
100
AcDbLine
 62
250
  6
CONTINUOUS
 10
-60.2013616334
 20
8.578895
 11
-62.0216893464
 21
9.184754
  0
LINE
  5
69E
100
AcDbEntity
  8
CURVE
100
AcDbLine
 62
250
  6
CONTINUOUS
 10
-62.0216893464
 20
9.475948
 11
-59.9219961886
 21
8.728862
  0
LINE
  5
69F
100
AcDbEntity
  8
CURVE
100
AcDbLine
 62
250
  6
CONTINUOUS
 10
-58.2280217008
 20
10.742857337
 11
-57.8209408212
 21
10.471428442
  0
LINE
  5
6A0
100
AcDbEntity
  8
CURVE
100
AcDbLine
 62
250
  6
CONTINUOUS
 10
-56.32831108
 20
10.471428442
 11
-57.6852472701
 21
11.421428442
  0
LINE
  5
6A1
100
AcDbEntity
  8
CURVE
100
AcDbLine
 62
250
  6
CONTINUOUS
 10
-57.9566344855
 20
13.05
 11
-58.2280217008
 21
13.321428442
  0
LINE
  5
6A2
100
AcDbEntity
  8
CURVE
100
AcDbLine
 62
250
  6
CONTINUOUS
 10
-57.9566344855
 20
14.6333336353
 11
-58.2280217008
 21
14.9047620773
  0
LINE
  5
6A3
100
AcDbEntity
  8
ASSI
100
AcDbLine
 62
7
  6
CONTINUOUS
 10
-66.3641703509
 20
22.9590953724
 11
-66.1223210991
 21
22.7129877857
  0
LINE
  5
6A4
100
AcDbEntity
  8
0
100
AcDbLine
 62
7
  6
CONTINUOUS
 10
-66.3641703509
 20
22.9590953724
 11
-66.1223210991
 21
22.7129877857
  0
LINE
  5
6A5
100
AcDbEntity
  8
ASSI
100
AcDbLine
 62
250
  6
CONTINUOUS
 10
-66.2215202611
 20
23.0992772252
 11
-65.9796710092
 21
22.8531696386
  0
LINE
  5
6A6
100
AcDbEntity
  8
0
100
AcDbLine
 62
250
  6
CONTINUOUS
 10
-66.2215202611
 20
23.0992772252
 11
-65.9796710092
 21
22.8531696386
  0
LINE
  5
6A7
100
AcDbEntity
  8
IMPORT_IGES
100
AcDbLine
 62
7
  6
CONTINUOUS
 10
-52.0345330151
 20
11.7400491038
 11
-52.1913779028
 21
12.1072062458
  0
LINE
  5
6A8
100
AcDbEntity
  8
CURVE
100
AcDbLine
 62
250
  6
CONTINUOUS
 10
-56.6942782439
 20
-14.4714285612
 11
-56.5228757742
 21
-14.3
  0
LINE
  5
6A9
100
AcDbEntity
  8
CURVE
100
AcDbLine
 62
250
  6
CONTINUOUS
 10
-59.9222341523
 20
-12.408032
 11
-61.2931703203
 21
-12.922229
  0
LINE
  5
6AA
100
AcDbEntity
  8
CURVE
100
AcDbLine
 62
250
  6
CONTINUOUS
 10
-62.0217373391
 20
-12.808587
 11
-60.8560869003
 21
-12.374901
  0
LINE
  5
6AB
100
AcDbEntity
  8
CURVE
100
AcDbLine
 62
250
  6
CONTINUOUS
 10
-57.7226930084
 20
-9.7571430206
 11
-56.5228757742
 21
-9.4142854691
  0
LINE
  5
6AC
100
AcDbEntity
  8
ASSI
100
AcDbLine
 62
7
  6
CONTINUOUS
 10
-37.0231517531
 20
8.3909532358
 11
-53.1780651627
 21
8.2499714423
  0
LINE
  5
6AD
100
AcDbEntity
  8
0
100
AcDbLine
 62
7
  6
CONTINUOUS
 10
-37.0231517531
 20
8.3909532358
 11
-53.1780651627
 21
8.2499714423
  0
LINE
  5
6AE
100
AcDbEntity
  8
ASSI
100
AcDbLine
 62
7
  6
CONTINUOUS
 10
-36.858276295
 20
8.6805416038
 11
-53.170283893
 21
8.5763271382
  0
LINE
  5
6AF
100
AcDbEntity
  8
0
100
AcDbLine
 62
7
  6
CONTINUOUS
 10
-36.858276295
 20
8.6805416038
 11
-53.170283893
 21
8.5763271382
  0
LINE
  5
6B0
100
AcDbEntity
  8
CURVE
100
AcDbLine
 62
250
  6
CONTINUOUS
 10
-61.1188858687
 20
7.343621
 11
-60.8836097079
 21
7.343621
  0
LINE
  5
6B1
100
AcDbEntity
  8
CURVE
100
AcDbLine
 62
250
  6
CONTINUOUS
 10
-62.0216953455
 20
7.423035
 11
-61.7864381818
 21
7.423035
  0
LINE
  5
6B2
100
AcDbEntity
  8
CURVE
100
AcDbLine
 62
250
  6
CONTINUOUS
 10
-60.1572583515
 20
7.431854
 11
-59.9220021876
 21
7.431854
  0
LINE
  5
6B3
100
AcDbEntity
  8
CURVE
100
AcDbLine
 62
250
  6
CONTINUOUS
 10
-57.6852472701
 20
8.435714221
 11
-57.9566344855
 21
8.435714221
  0
LINE
  5
6B4
100
AcDbEntity
  8
CURVE
100
AcDbLine
 62
250
  6
CONTINUOUS
 10
-57.9566344855
 20
8.978571558
 11
-57.4138600547
 21
8.978571558
  0
LINE
  5
6B5
100
AcDbEntity
  8
CURVE
100
AcDbLine
 62
250
  6
CONTINUOUS
 10
-56.8710855674
 20
9.792857337
 11
-57.4138600547
 21
9.928571558
  0
LINE
  5
6B6
100
AcDbEntity
  8
CURVE
100
AcDbLine
 62
250
  6
CONTINUOUS
 10
-56.554467107
 20
12.235714674
 11
-56.6449295263
 21
12.2809525967
  0
LINE
  5
6B7
100
AcDbEntity
  8
CURVE
100
AcDbLine
 62
250
  6
CONTINUOUS
 10
-56.5092359044
 20
12.4166663647
 11
-56.4187734922
 21
12.371428442
  0
LINE
  5
6B8
100
AcDbEntity
  8
ASSI
100
AcDbLine
 62
7
  6
CONTINUOUS
 10
-56.2816378246
 20
-20.1601175636
 11
-57.7775907627
 21
-21.6560705017
  0
LINE
  5
6B9
100
AcDbEntity
  8
0
100
AcDbLine
 62
7
  6
CONTINUOUS
 10
-56.2816378246
 20
-20.1601175636
 11
-57.7775907627
 21
-21.6560705017
  0
LINE
  5
6BA
100
AcDbEntity
  8
CURVE
100
AcDbLine
 62
250
  6
CONTINUOUS
 10
-57.7226930084
 20
-13.5285713673
 11
-56.5228757742
 21
-12.9285715103
  0
LINE
  5
6BB
100
AcDbEntity
  8
CURVE
100
AcDbLine
 62
250
  6
CONTINUOUS
 10
-59.5224188596
 20
-15.5
 11
-58.8368090166
 21
-15.1571428418
  0
LINE
  5
6BC
100
AcDbEntity
  8
ASSI
100
AcDbLine
 62
7
  6
CONTINUOUS
 10
-28.4215202611
 20
9.6585499788
 11
-35.1398459856
 21
9.5999200384
  0
LINE
  5
6BD
100
AcDbEntity
  8
CURVE
100
AcDbLine
 62
250
  6
CONTINUOUS
 10
-59.9220021876
 20
9.83182
 11
-62.0216953455
 21
9.83182
  0
LINE
  5
6BE
100
AcDbEntity
  8
CURVE
100
AcDbLine
 62
250
  6
CONTINUOUS
 10
-57.4138600547
 20
9.928571558
 11
-57.9566344855
 21
9.928571558
  0
LINE
  5
6BF
100
AcDbEntity
  8
CURVE
100
AcDbLine
 62
250
  6
CONTINUOUS
 10
-61.7864381818
 20
10.111228
 11
-61.1188858687
 21
10.111228
  0
LINE
  5
6C0
100
AcDbEntity
  8
CURVE
100
AcDbLine
 62
250
  6
CONTINUOUS
 10
-60.8836097079
 20
10.111228
 11
-60.1572583515
 21
10.111228
  0
LINE
  5
6C1
100
AcDbEntity
  8
CURVE
100
AcDbLine
 62
250
  6
CONTINUOUS
 10
-61.1188858687
 20
11.202464
 11
-60.8836097079
 21
11.202464
  0
LINE
  5
6C2
100
AcDbEntity
  8
CURVE
100
AcDbLine
 62
250
  6
CONTINUOUS
 10
-62.0216953455
 20
11.281817
 11
-61.7864381818
 21
11.281817
  0
LINE
  5
6C3
100
AcDbEntity
  8
CURVE
100
AcDbLine
 62
250
  6
CONTINUOUS
 10
-60.1572583515
 20
11.290675
 11
-59.9220021876
 21
11.290675
  0
LINE
  5
6C4
100
AcDbEntity
  8
CURVE
100
AcDbLine
 62
250
  6
CONTINUOUS
 10
-57.6852472701
 20
11.421428442
 11
-57.9566344855
 21
11.421428442
  0
LINE
  5
6C5
100
AcDbEntity
  8
ASSI
100
AcDbLine
 62
7
  6
CONTINUOUS
 10
-36.858276295
 20
11.3194583962
 11
-53.170283893
 21
11.4236728618
  0
LINE
  5
6C6
100
AcDbEntity
  8
0
100
AcDbLine
 62
7
  6
CONTINUOUS
 10
-36.858276295
 20
11.3194583962
 11
-53.170283893
 21
11.4236728618
  0
LINE
  5
6C7
100
AcDbEntity
  8
ASSI
100
AcDbLine
 62
7
  6
CONTINUOUS
 10
-28.4215202611
 20
10.3414500212
 11
-35.1398459856
 21
10.4000799616
  0
LINE
  5
6C8
100
AcDbEntity
  8
ASSI
100
AcDbLine
 62
7
  6
CONTINUOUS
 10
-56.2816378246
 20
20.1601175636
 11
-57.7775907627
 21
21.6560705017
  0
LINE
  5
6C9
100
AcDbEntity
  8
0
100
AcDbLine
 62
7
  6
CONTINUOUS
 10
-56.2816378246
 20
20.1601175636
 11
-57.7775907627
 21
21.6560705017
  0
LINE
  5
6CA
100
AcDbEntity
  8
IMPORT_IGES
100
AcDbLine
 62
7
  6
CONTINUOUS
 10
-38.7715202604
 20
3.375695455
 11
-38.7715202596
 21
1.624304545
  0
LINE
  5
6CB
100
AcDbEntity
  8
0
100
AcDbLine
 62
250
  6
CONTINUOUS
 10
-38.6215202611
 20
6.6229955149
 11
-38.6215202611
 21
8.3770044851
  0
LINE
  5
6CC
100
AcDbEntity
  8
0
100
AcDbLine
 62
250
  6
CONTINUOUS
 10
-38.6215202611
 20
11.6229955149
 11
-38.6215202611
 21
13.3770044851
  0
LINE
  5
6CD
100
AcDbEntity
  8
CURVE
100
AcDbLine
 62
250
  6
CONTINUOUS
 10
-59.9222341523
 20
-15.33431
 11
-62.0217373391
 21
-15.999995
  0
LINE
  5
6CE
100
AcDbEntity
  8
CURVE
100
AcDbLine
 62
250
  6
CONTINUOUS
 10
-59.5224188596
 20
-14.1285713673
 11
-58.3226016254
 21
-13.7857142448
  0
LINE
  5
6CF
100
AcDbEntity
  8
ASSI
100
AcDbLine
 62
7
  6
CONTINUOUS
 10
-37.0231517531
 20
13.3909532358
 11
-53.1780651627
 21
13.2499714423
  0
LINE
  5
6D0
100
AcDbEntity
  8
0
100
AcDbLine
 62
7
  6
CONTINUOUS
 10
-37.0231517531
 20
13.3909532358
 11
-53.1780651627
 21
13.2499714423
  0
LINE
  5
6D1
100
AcDbEntity
  8
ASSI
100
AcDbLine
 62
7
  6
CONTINUOUS
 10
-36.858276295
 20
13.6805416038
 11
-53.170283893
 21
13.5763271382
  0
LINE
  5
6D2
100
AcDbEntity
  8
0
100
AcDbLine
 62
7
  6
CONTINUOUS
 10
-36.858276295
 20
13.6805416038
 11
-53.170283893
 21
13.5763271382
  0
LINE
  5
6D3
100
AcDbEntity
  8
CURVE
100
AcDbLine
 62
250
  6
CONTINUOUS
 10
-60.7626811513
 20
12.0099484008
 11
-62.0236591574
 21
12.0099484008
  0
LINE
  5
6D4
100
AcDbEntity
  8
CURVE
100
AcDbLine
 62
250
  6
CONTINUOUS
 10
-62.0236591574
 20
12.1395895847
 11
-60.7626811513
 21
12.1395895847
  0
LINE
  5
6D5
100
AcDbEntity
  8
CURVE
100
AcDbLine
 62
250
  6
CONTINUOUS
 10
-56.5092359044
 20
12.235714674
 11
-56.554467107
 21
12.235714674
  0
LINE
  5
6D6
100
AcDbEntity
  8
CURVE
100
AcDbLine
 62
250
  6
CONTINUOUS
 10
-56.554467107
 20
12.4166663647
 11
-56.5092359044
 21
12.4166663647
  0
LINE
  5
6D7
100
AcDbEntity
  8
CURVE
100
AcDbLine
 62
250
  6
CONTINUOUS
 10
-56.5996983237
 20
13.05
 11
-57.9566344855
 21
13.05
  0
LINE
  5
6D8
100
AcDbEntity
  8
CURVE
100
AcDbLine
 62
250
  6
CONTINUOUS
 10
-60.7626811513
 20
13.4891310643
 11
-62.0236591574
 21
13.4891310643
  0
LINE
  5
6D9
100
AcDbEntity
  8
CURVE
100
AcDbLine
 62
250
  6
CONTINUOUS
 10
-62.0236591574
 20
13.6187710331
 11
-60.7626811513
 21
13.6187710331
  0
LINE
  5
6DA
100
AcDbEntity
  8
ASSI
100
AcDbLine
 62
7
  6
CONTINUOUS
 10
-37.0231517531
 20
11.6090467642
 11
-53.1780651627
 21
11.7500285577
  0
LINE
  5
6DB
100
AcDbEntity
  8
0
100
AcDbLine
 62
7
  6
CONTINUOUS
 10
-37.0231517531
 20
11.6090467642
 11
-53.1780651627
 21
11.7500285577
  0
LINE
  5
6DC
100
AcDbEntity
  8
0
100
AcDbLine
 62
7
  6
CONTINUOUS
 10
-38.2215202611
 20
6.6195047677
 11
-38.2215202611
 21
8.3804952323
  0
LINE
  5
6DD
100
AcDbEntity
  8
0
100
AcDbLine
 62
7
  6
CONTINUOUS
 10
-38.2215202611
 20
11.6195047677
 11
-38.2215202611
 21
13.3804952323
  0
LINE
  5
6DE
100
AcDbEntity
  8
0
100
AcDbLine
 62
250
  6
CONTINUOUS
 10
-38.0215202611
 20
13.3822406058
 11
-38.0215202611
 21
11.6177593942
  0
LINE
  5
6DF
100
AcDbEntity
  8
0
100
AcDbLine
 62
250
  6
CONTINUOUS
 10
-38.0215202611
 20
8.3822406058
 11
-38.0215202611
 21
6.6177593942
  0
LINE
  5
6E0
100
AcDbEntity
  8
0
100
AcDbLine
 62
7
  6
CONTINUOUS
 10
-38.0215202611
 20
3.0
 11
-38.0215202611
 21
2.8
  0
LINE
  5
6E1
100
AcDbEntity
  8
ASSI
100
AcDbLine
 62
7
  6
CONTINUOUS
 10
-28.4215202611
 20
14.6585499788
 11
-35.1398459856
 21
14.5999200384
  0
LINE
  5
6E2
100
AcDbEntity
  8
CURVE
100
AcDbLine
 62
250
  6
CONTINUOUS
 10
-59.9201193227
 20
13.9898546903
 11
-62.0236530829
 21
13.9898546903
  0
LINE
  5
6E3
100
AcDbEntity
  8
CURVE
100
AcDbLine
 62
250
  6
CONTINUOUS
 10
-61.9116878011
 20
14.1195760699
 11
-60.9689306522
 21
14.1195760699
  0
LINE
  5
6E4
100
AcDbEntity
  8
CURVE
100
AcDbLine
 62
250
  6
CONTINUOUS
 10
-60.8569653705
 20
14.1195760699
 11
-59.9201193227
 21
14.1195760699
  0
LINE
  5
6E5
100
AcDbEntity
  8
CURVE
100
AcDbLine
 62
250
  6
CONTINUOUS
 10
-56.5996983237
 20
14.6333336353
 11
-57.9566344855
 21
14.6333336353
  0
LINE
  5
6E6
100
AcDbEntity
  8
ASSI
100
AcDbLine
 62
7
  6
CONTINUOUS
 10
-57.7775907627
 20
-21.6560705017
 11
-59.2720247772
 21
-22.2
  0
LINE
  5
6E7
100
AcDbEntity
  8
0
100
AcDbLine
 62
7
  6
CONTINUOUS
 10
-57.7775907627
 20
-21.6560705017
 11
-59.2720247772
 21
-22.2
  0
LINE
  5
6E8
100
AcDbEntity
  8
ASSI
100
AcDbLine
 62
7
  6
CONTINUOUS
 10
-28.4215202611
 20
19.6738174026
 11
-56.2816378246
 21
20.1601175636
  0
LINE
  5
6E9
100
AcDbEntity
  8
0
100
AcDbLine
 62
7
  6
CONTINUOUS
 10
-28.4215202611
 20
19.6738174026
 11
-56.2816378246
 21
20.1601175636
  0
LINE
  5
6EA
100
AcDbEntity
  8
ASSI
100
AcDbLine
 62
250
  6
CONTINUOUS
 10
-74.4795328945
 20
21.0183132877
 11
-73.9887235631
 21
20.9972959167
  0
LINE
  5
6EB
100
AcDbEntity
  8
0
100
AcDbLine
 62
250
  6
CONTINUOUS
 10
-74.4795328945
 20
21.0183132877
 11
-73.9887235631
 21
20.9972959167
  0
LINE
  5
6EC
100
AcDbEntity
  8
ASSI
100
AcDbLine
 62
7
  6
CONTINUOUS
 10
-57.7775907627
 20
21.6560705017
 11
-59.2720247772
 21
22.2
  0
LINE
  5
6ED
100
AcDbEntity
  8
0
100
AcDbLine
 62
7
  6
CONTINUOUS
 10
-57.7775907627
 20
21.6560705017
 11
-59.2720247772
 21
22.2
  0
LINE
  5
6EE
100
AcDbEntity
  8
0
100
AcDbLine
 62
250
  6
CONTINUOUS
 10
-30.4215202611
 20
3.0
 11
-30.4215202611
 21
2.8
  0
LINE
  5
6EF
100
AcDbEntity
  8
IMPORT_IGES
100
AcDbLine
 62
7
  6
CONTINUOUS
 10
-30.2715202626
 20
1.5501261688
 11
-30.271520262
 21
2.7313389796
  0
LINE
  5
6F0
100
AcDbEntity
  8
IMPORT_IGES
100
AcDbLine
 62
7
  6
CONTINUOUS
 10
-30.2715202619
 20
2.9696152427
 11
-30.2715202617
 21
3.4498738312
  0
LINE
  5
6F1
100
AcDbEntity
  8
0
100
AcDbLine
 62
7
  6
CONTINUOUS
 10
-30.2215202611
 20
1.5496898254
 11
-30.2215202611
 21
2.6
  0
LINE
  5
6F2
100
AcDbEntity
  8
0
100
AcDbLine
 62
7
  6
CONTINUOUS
 10
-30.0215202611
 20
1.5479444519
 11
-30.0215202611
 21
2.6
  0
LINE
  5
6F3
100
AcDbEntity
  8
ASSI
100
AcDbLine
 62
7
  6
CONTINUOUS
 10
-29.9215202611
 20
-13.4529282349
 11
-29.9215202611
 21
-11.5470717651
  0
LINE
  5
6F4
100
AcDbEntity
  8
0
100
AcDbLine
 62
7
  6
CONTINUOUS
 10
-29.9215202611
 20
-13.4529282349
 11
-29.9215202611
 21
-11.5470717651
  0
LINE
  5
6F5
100
AcDbEntity
  8
ASSI
100
AcDbLine
 62
7
  6
CONTINUOUS
 10
-29.9215202611
 20
-8.4529282349
 11
-29.9215202611
 21
-6.5470717651
  0
LINE
  5
6F6
100
AcDbEntity
  8
0
100
AcDbLine
 62
7
  6
CONTINUOUS
 10
-29.9215202611
 20
-8.4529282349
 11
-29.9215202611
 21
-6.5470717651
  0
LINE
  5
6F7
100
AcDbEntity
  8
ASSI
100
AcDbLine
 62
7
  6
CONTINUOUS
 10
-29.9215202611
 20
-3.4529282349
 11
-29.9215202611
 21
-1.5470717651
  0
LINE
  5
6F8
100
AcDbEntity
  8
0
100
AcDbLine
 62
7
  6
CONTINUOUS
 10
-29.9215202611
 20
-3.4529282349
 11
-29.9215202611
 21
-1.5470717651
  0
LINE
  5
6F9
100
AcDbEntity
  8
ASSI
100
AcDbLine
 62
7
  6
CONTINUOUS
 10
-29.9215202611
 20
1.5470717651
 11
-29.9215202611
 21
3.4529282349
  0
LINE
  5
6FA
100
AcDbEntity
  8
0
100
AcDbLine
 62
7
  6
CONTINUOUS
 10
-29.9215202611
 20
1.5470717651
 11
-29.9215202611
 21
3.4529282349
  0
LINE
  5
6FB
100
AcDbEntity
  8
ASSI
100
AcDbLine
 62
7
  6
CONTINUOUS
 10
-29.9215202611
 20
5.3545403229
 11
-29.9215202611
 21
9.6454596771
  0
LINE
  5
6FC
100
AcDbEntity
  8
0
100
AcDbLine
 62
7
  6
CONTINUOUS
 10
-29.9215202611
 20
5.3545403229
 11
-29.9215202611
 21
9.6454596771
  0
LINE
  5
6FD
100
AcDbEntity
  8
ASSI
100
AcDbLine
 62
7
  6
CONTINUOUS
 10
-29.9215202611
 20
10.3545403229
 11
-29.9215202611
 21
14.6454596771
  0
LINE
  5
6FE
100
AcDbEntity
  8
0
100
AcDbLine
 62
7
  6
CONTINUOUS
 10
-29.9215202611
 20
10.3545403229
 11
-29.9215202611
 21
14.6454596771
  0
LINE
  5
6FF
100
AcDbEntity
  8
ASSI
100
AcDbLine
 62
250
  6
CONTINUOUS
 10
-73.5153335061
 20
21.4755923698
 11
-65.4215202611
 21
21.8997711479
  0
LINE
  5
700
100
AcDbEntity
  8
0
100
AcDbLine
 62
250
  6
CONTINUOUS
 10
-73.5153335061
 20
21.4755923698
 11
-65.4215202611
 21
21.8997711479
  0
LINE
  5
701
100
AcDbEntity
  8
ASSI
100
AcDbLine
 62
7
  6
CONTINUOUS
 10
-59.2720247772
 20
22.2
 11
-59.8215202611
 21
22.2
  0
LINE
  5
702
100
AcDbEntity
  8
0
100
AcDbLine
 62
7
  6
CONTINUOUS
 10
-59.2720247772
 20
22.2
 11
-59.8215202611
 21
22.2
  0
LINE
  5
703
100
AcDbEntity
  8
0
100
AcDbLine
 62
7
  6
CONTINUOUS
 10
-61.4215202611
 20
22.6298666026
 11
-61.8589263558
 21
22.6330692283
  0
LINE
  5
704
100
AcDbEntity
  8
ASSI
100
AcDbLine
 62
7
  6
CONTINUOUS
 10
-64.9716407788
 20
22.6590025087
 11
-65.4215202611
 21
22.663166622
  0
LINE
  5
705
100
AcDbEntity
  8
ASSI
100
AcDbLine
 62
7
  6
CONTINUOUS
 10
-57.2486831178
 20
21.1271628567
 11
-61.4215202611
 21
21.2
  0
LINE
  5
706
100
AcDbEntity
  8
0
100
AcDbLine
 62
7
  6
CONTINUOUS
 10
-57.2486831178
 20
21.1271628567
 11
-61.4215202611
 21
21.2
  0
LINE
  5
707
100
AcDbEntity
  8
ASSI
100
AcDbLine
 62
7
  6
CONTINUOUS
 10
-65.6352624692
 20
22.5037308841
 11
-65.4215202611
 21
22.5
  0
LINE
  5
708
100
AcDbEntity
  8
0
100
AcDbLine
 62
7
  6
CONTINUOUS
 10
-65.6352624692
 20
22.5037308841
 11
-65.4215202611
 21
22.5
  0
LINE
  5
709
100
AcDbEntity
  8
ASSI
100
AcDbLine
 62
250
  6
CONTINUOUS
 10
-65.6317719879
 20
22.7037004232
 11
-65.4215202611
 21
22.7000304656
  0
LINE
  5
70A
100
AcDbEntity
  8
0
100
AcDbLine
 62
250
  6
CONTINUOUS
 10
-65.6317719879
 20
22.7037004232
 11
-65.4215202611
 21
22.7000304656
  0
LWPOLYLINE
  5
70B
100
AcDbEntity
  8
0
100
AcDbPolyline
 62
7
  6
CONTINUOUS
 90
10
 70
0
 43
0.3500000019
 10
-50.6000917969
 20
42.7499987793
 10
-50.5286629639
 20
42.6071437988
 10
-50.5286629639
 20
42.535713623
 10
-50.6715206299
 20
42.392855957
 10
-50.7429494629
 20
42.392855957
 10
-50.8143769531
 20
42.4642861328
 10
-50.8143769531
 20
42.535713623
 10
-50.7429494629
 20
42.6785712891
 10
-50.6715206299
 20
42.7499987793
 10
-50.6000917969
 20
42.7499987793
  0
LINE
  5
70C
100
AcDbEntity
  8
0
100
AcDbLine
 62
7
  6
CONTINUOUS
 10
-28.4215202611
 20
19.6738174026
 11
-28.4215202611
 21
15.8937104774
  0
LINE
  5
70D
100
AcDbEntity
  8
0
100
AcDbLine
 62
7
  6
CONTINUOUS
 10
-28.4215202611
 20
14.6585499788
 11
-28.4215202611
 21
10.3414500212
  0
LINE
  5
70E
100
AcDbEntity
  8
ASSI
100
AcDbLine
 62
7
  6
CONTINUOUS
 10
-28.4215202611
 20
19.6738174026
 11
-28.4215202611
 21
-19.6738174026
  0
LINE
  5
70F
100
AcDbEntity
  8
0
100
AcDbLine
 62
7
  6
CONTINUOUS
 10
-28.4215202611
 20
9.6585499788
 11
-28.4215202611
 21
-19.6738174026
  0
LINE
  5
710
100
AcDbEntity
  8
ASSI
100
AcDbLine
 62
7
  6
CONTINUOUS
 10
-73.532775281
 20
21.9749071372
 11
-65.4215202611
 21
22.4
  0
LINE
  5
711
100
AcDbEntity
  8
0
100
AcDbLine
 62
7
  6
CONTINUOUS
 10
-73.532775281
 20
21.9749071372
 11
-65.4215202611
 21
22.4
  0
LINE
  5
712
100
AcDbEntity
  8
0
100
AcDbLine
 62
250
  6
CONTINUOUS
 10
-66.2215202611
 20
23.4535307085
 11
-65.4215202611
 21
23.4675952145
  0
LINE
  5
713
100
AcDbEntity
  8
ASSI
100
AcDbLine
 62
250
  6
CONTINUOUS
 10
-66.2215202611
 20
23.4535307085
 11
-65.4215202611
 21
23.4675952145
  0
LINE
  5
714
100
AcDbEntity
  8
ASSI
100
AcDbLine
 62
7
  6
CONTINUOUS
 10
-65.4215202611
 20
23.5
 11
-66.2250107423
 21
23.4859750215
  0
LINE
  5
715
100
AcDbEntity
  8
0
100
AcDbLine
 62
7
  6
CONTINUOUS
 10
-65.4215202611
 20
23.5
 11
-66.2250107423
 21
23.4859750215
  0
LINE
  5
716
100
AcDbEntity
  8
ASSI
100
AcDbLine
 62
250
  6
CONTINUOUS
 10
-66.2215202611
 20
23.0992772252
 11
-66.4215202611
 21
23.0992772252
  0
LINE
  5
717
100
AcDbEntity
  8
0
100
AcDbLine
 62
250
  6
CONTINUOUS
 10
-66.2215202611
 20
23.0992772252
 11
-66.4215202611
 21
23.0992772252
  0
LINE
  5
718
100
AcDbEntity
  8
ASSI
100
AcDbLine
 62
250
  6
CONTINUOUS
 10
-65.4215202611
 20
23.1114149286
 11
-66.4215202611
 21
23.1114149286
  0
LINE
  5
719
100
AcDbEntity
  8
0
100
AcDbLine
 62
250
  6
CONTINUOUS
 10
-65.4215202611
 20
23.1114149286
 11
-66.4215202611
 21
23.1114149286
  0
LINE
  5
71A
100
AcDbEntity
  8
ASSI
100
AcDbLine
 62
250
  6
CONTINUOUS
 10
-65.4215202611
 20
23.2776879029
 11
-66.2215202611
 21
23.2776841007
  0
LINE
  5
71B
100
AcDbEntity
  8
0
100
AcDbLine
 62
250
  6
CONTINUOUS
 10
-65.4215202611
 20
23.2776879029
 11
-66.2215202611
 21
23.2776841007
  0
LINE
  5
71C
100
AcDbEntity
  8
ASSI
100
AcDbLine
 62
7
  6
CONTINUOUS
 10
-61.4215202611
 20
23.4301797403
 11
-65.4215202611
 21
23.5
  0
LINE
  5
71D
100
AcDbEntity
  8
0
100
AcDbLine
 62
7
  6
CONTINUOUS
 10
-61.4215202611
 20
23.4301797403
 11
-65.4215202611
 21
23.5
  0
LWPOLYLINE
  5
71E
100
AcDbEntity
  8
0
100
AcDbPolyline
 62
7
  6
CONTINUOUS
 90
6
 70
0
 43
0.3500000019
 10
-49.1715205078
 20
32.2499992676
 10
-48.100092041
 20
32.2499992676
 10
-47.8858068848
 20
32.4642844238
 10
-47.8858068848
 20
33.5357155762
 10
-48.3143771973
 20
33.9642858887
 10
-48.7429488525
 20
33.9642858887
  0
LWPOLYLINE
  5
71F
100
AcDbEntity
  8
0
100
AcDbPolyline
 62
7
  6
CONTINUOUS
 90
8
 70
0
 43
0.3500000019
 10
-49.5286633301
 20
42.2500009766
 10
-48.6715200195
 20
42.2500009766
 10
-48.242949707
 20
42.6785712891
 10
-48.242949707
 20
43.5357145996
 10
-48.6715200195
 20
43.9642849121
 10
-49.5286633301
 20
43.9642849121
 10
-49.5286633301
 20
45.2499985352
 10
-48.242949707
 20
45.2499985352
  0
LWPOLYLINE
  5
720
100
AcDbEntity
  8
0
100
AcDbPolyline
 62
7
  6
CONTINUOUS
 90
3
 70
0
 43
0.3500000019
 10
-54.4572340088
 20
42.8928564453
 10
-55.9572341309
 20
42.8928564453
 10
-55.3143773193
 20
45.2499985352
  0
ARC
  5
721
100
AcDbEntity
  8
ASSI
100
AcDbCircle
 62
250
  6
CONTINUOUS
 10
-10.5085552672
 20
-21.4746975272
 40
0.5001919746
100
AcDbArc
 50
180.1025071326
 51
269.9721831654
  0
ARC
  5
722
100
AcDbEntity
  8
0
100
AcDbCircle
 62
250
  6
CONTINUOUS
 10
-10.5085552672
 20
-21.4746975272
 40
0.5001919746
100
AcDbArc
 50
180.1025071326
 51
269.9721831654
  0
ARC
  5
723
100
AcDbEntity
  8
ASSI
100
AcDbCircle
 62
7
  6
CONTINUOUS
 10
-4.95
 20
-23.1
 40
0.5
100
AcDbArc
 50
350.803718421
 51
119.112422776
  0
ARC
  5
724
100
AcDbEntity
  8
0
100
AcDbCircle
 62
7
  6
CONTINUOUS
 10
-4.95
 20
-23.1
 40
0.5
100
AcDbArc
 50
350.803718421
 51
119.112422776
  0
ARC
  5
725
100
AcDbEntity
  8
0
100
AcDbCircle
 62
250
  6
CONTINUOUS
 10
-3.9356215587
 20
-23.2855292098
 40
0.2004458153
100
AcDbArc
 50
258.9988836996
 51
270.0108558435
  0
ARC
  5
726
100
AcDbEntity
  8
ASSI
100
AcDbCircle
 62
7
  6
CONTINUOUS
 10
-4.2
 20
-23.1114149286
 40
0.2
100
AcDbArc
 50
180.0
 51
236.2372396676
  0
ARC
  5
727
100
AcDbEntity
  8
0
100
AcDbCircle
 62
7
  6
CONTINUOUS
 10
-4.2
 20
-23.1114149286
 40
0.2
100
AcDbArc
 50
180.0
 51
236.2372396676
  0
ARC
  5
728
100
AcDbEntity
  8
ASSI
100
AcDbCircle
 62
250
  6
CONTINUOUS
 10
-4.2000162871
 20
-22.7037167124
 40
0.1999847713
100
AcDbArc
 50
89.9953337636
 51
179.9953331014
  0
ARC
  5
729
100
AcDbEntity
  8
0
100
AcDbCircle
 62
250
  6
CONTINUOUS
 10
-4.2000162872
 20
-22.7037167124
 40
0.1999847713
100
AcDbArc
 50
89.9953337424
 51
179.9953330802
  0
ARC
  5
72A
100
AcDbEntity
  8
ASSI
100
AcDbCircle
 62
7
  6
CONTINUOUS
 10
-3.9141424105
 20
-23.3001850565
 40
0.199804146
100
AcDbArc
 50
236.9919242694
 51
269.995423126
  0
ARC
  5
72B
100
AcDbEntity
  8
0
100
AcDbCircle
 62
7
  6
CONTINUOUS
 10
-3.9140365093
 20
-23.300393289
 40
0.1996067119
100
AcDbArc
 50
236.9911391105
 51
269.9945364367
  0
ARC
  5
72C
100
AcDbEntity
  8
ASSI
100
AcDbCircle
 62
250
  6
CONTINUOUS
 10
-3.9356659785
 20
-23.2864136134
 40
0.1995614251
100
AcDbArc
 50
266.3366096815
 51
270.0236572372
  0
ARC
  5
72D
100
AcDbEntity
  8
ASSI
100
AcDbCircle
 62
250
  6
CONTINUOUS
 10
-4.2709958486
 20
-23.1135107358
 40
0.1325041507
100
AcDbArc
 50
140.4515563924
 51
146.3015406919
  0
ARC
  5
72E
100
AcDbEntity
  8
ASSI
100
AcDbCircle
 62
250
  6
CONTINUOUS
 10
-4.2799641833
 20
-23.1075233747
 40
0.121720854
100
AcDbArc
 50
146.3041150813
 51
152.4899008043
  0
ARC
  5
72F
100
AcDbEntity
  8
0
100
AcDbCircle
 62
250
  6
CONTINUOUS
 10
-4.2861276092
 20
-23.1039761218
 40
0.1146103496
100
AcDbArc
 50
149.376595588
 51
159.0370701106
  0
ARC
  5
730
100
AcDbEntity
  8
ASSI
100
AcDbCircle
 62
250
  6
CONTINUOUS
 10
-4.2883934786
 20
-23.1031212973
 40
0.112211323
100
AcDbArc
 50
152.4954147037
 51
159.0342669719
  0
ARC
  5
731
100
AcDbEntity
  8
0
100
AcDbCircle
 62
250
  6
CONTINUOUS
 10
-4.3012828013
 20
-22.8532811333
 40
0.0987172616
100
AcDbArc
 50
169.2536152498
 51
179.9352881623
  0
ARC
  5
732
100
AcDbEntity
  8
ASSI
100
AcDbCircle
 62
250
  6
CONTINUOUS
 10
-1.1993939831
 20
-4.2517104299
 40
1.8474011128
100
AcDbArc
 50
90.0187957722
 51
180.0260852244
  0
ARC
  5
733
100
AcDbEntity
  8
0
100
AcDbCircle
 62
250
  6
CONTINUOUS
 10
-1.1993939831
 20
-4.2517104299
 40
1.8474011128
100
AcDbArc
 50
90.0187957722
 51
180.0260852244
  0
ARC
  5
734
100
AcDbEntity
  8
ASSI
100
AcDbCircle
 62
250
  6
CONTINUOUS
 10
-1.1993974019
 20
-5.153323127
 40
1.8472530777
100
AcDbArc
 50
179.9928269353
 51
269.981308798
  0
ARC
  5
735
100
AcDbEntity
  8
0
100
AcDbCircle
 62
250
  6
CONTINUOUS
 10
-1.1993974019
 20
-5.153323127
 40
1.8472530777
100
AcDbArc
 50
179.9928269353
 51
269.981308798
  0
ARC
  5
736
100
AcDbEntity
  8
ASSI
100
AcDbCircle
 62
250
  6
CONTINUOUS
 10
-1.2000085613
 20
-4.2497768245
 40
1.5468960421
100
AcDbArc
 50
89.9996828949
 51
180.0082662399
  0
ARC
  5
737
100
AcDbEntity
  8
0
100
AcDbCircle
 62
250
  6
CONTINUOUS
 10
-1.2000085613
 20
-4.2497768245
 40
1.5468960421
100
AcDbArc
 50
89.9996828949
 51
180.0082662399
  0
ARC
  5
738
100
AcDbEntity
  8
ASSI
100
AcDbCircle
 62
250
  6
CONTINUOUS
 10
-1.2000255842
 20
-5.149626462
 40
1.5467326144
100
AcDbArc
 50
180.0138370211
 51
270.0009477154
  0
ARC
  5
739
100
AcDbEntity
  8
0
100
AcDbCircle
 62
250
  6
CONTINUOUS
 10
-1.2000255842
 20
-5.149626462
 40
1.5467326144
100
AcDbArc
 50
180.0138370211
 51
270.0009477154
  0
ARC
  5
73A
100
AcDbEntity
  8
ASSI
100
AcDbCircle
 62
7
  6
CONTINUOUS
 10
-1.2
 20
-5.15
 40
1.5122185454
100
AcDbArc
 50
180.0
 51
270.0
  0
ARC
  5
73B
100
AcDbEntity
  8
ASSI
100
AcDbCircle
 62
7
  6
CONTINUOUS
 10
-1.2
 20
-4.25
 40
1.5122185454
100
AcDbArc
 50
90.0
 51
180.0
  0
ARC
  5
73C
100
AcDbEntity
  8
0
100
AcDbCircle
 62
7
  6
CONTINUOUS
 10
-1.2
 20
-5.15
 40
1.5122185454
100
AcDbArc
 50
180.0
 51
270.0
  0
ARC
  5
73D
100
AcDbEntity
  8
0
100
AcDbCircle
 62
7
  6
CONTINUOUS
 10
-1.2
 20
-4.25
 40
1.5122185454
100
AcDbArc
 50
90.0
 51
180.0
  0
ARC
  5
73E
100
AcDbEntity
  8
ASSI
100
AcDbCircle
 62
7
  6
CONTINUOUS
 10
-11.25
 20
-0.0
 40
28.0
100
AcDbArc
 50
53.1342616626
 51
54.0372348486
  0
ARC
  5
73F
100
AcDbEntity
  8
ASSI
100
AcDbCircle
 62
7
  6
CONTINUOUS
 10
-11.25
 20
-0.0
 40
28.0
100
AcDbArc
 50
305.9627651514
 51
306.8657383374
  0
ARC
  5
740
100
AcDbEntity
  8
ASSI
100
AcDbCircle
 62
7
  6
CONTINUOUS
 10
-11.25
 20
-0.0
 40
28.0
100
AcDbArc
 50
55.8789063483
 51
56.9430078706
  0
ARC
  5
741
100
AcDbEntity
  8
ASSI
100
AcDbCircle
 62
7
  6
CONTINUOUS
 10
-11.25
 20
0.0
 40
28.0
100
AcDbArc
 50
303.0569921294
 51
304.1210936517
  0
ARC
  5
742
100
AcDbEntity
  8
0
100
AcDbCircle
 62
7
  6
CONTINUOUS
 10
-11.25
 20
-0.0
 40
28.0
100
AcDbArc
 50
53.1385761675
 51
54.0372348486
  0
ARC
  5
743
100
AcDbEntity
  8
0
100
AcDbCircle
 62
7
  6
CONTINUOUS
 10
-11.25
 20
-0.0
 40
28.0
100
AcDbArc
 50
305.9627651514
 51
306.8614238325
  0
ARC
  5
744
100
AcDbEntity
  8
0
100
AcDbCircle
 62
7
  6
CONTINUOUS
 10
-11.25
 20
0.0
 40
28.0
100
AcDbArc
 50
303.0569921294
 51
304.1210936517
  0
ARC
  5
745
100
AcDbEntity
  8
0
100
AcDbCircle
 62
7
  6
CONTINUOUS
 10
-11.25
 20
-0.0
 40
28.0
100
AcDbArc
 50
55.8789063483
 51
56.9430078706
  0
ARC
  5
746
100
AcDbEntity
  8
ASSI
100
AcDbCircle
 62
250
  6
CONTINUOUS
 10
-11.25
 20
-0.0
 40
27.7999999997
100
AcDbArc
 50
56.2372396676
 51
56.8902929677
  0
ARC
  5
747
100
AcDbEntity
  8
ASSI
100
AcDbCircle
 62
250
  6
CONTINUOUS
 10
-11.25
 20
0.0
 40
27.7999999996
100
AcDbArc
 50
303.1096141126
 51
303.7627603324
  0
ARC
  5
748
100
AcDbEntity
  8
0
100
AcDbCircle
 62
250
  6
CONTINUOUS
 10
-11.25
 20
0.0
 40
27.7999999996
100
AcDbArc
 50
303.1096141126
 51
303.7627603324
  0
ARC
  5
749
100
AcDbEntity
  8
0
100
AcDbCircle
 62
250
  6
CONTINUOUS
 10
-11.25
 20
-0.0
 40
27.7999999997
100
AcDbArc
 50
56.2372396676
 51
56.8902929677
  0
ARC
  5
74A
100
AcDbEntity
  8
ASSI
100
AcDbCircle
 62
250
  6
CONTINUOUS
 10
-10.508555261
 20
21.4746975202
 40
0.5001919813
100
AcDbArc
 50
90.027817555
 51
179.8974920757
  0
ARC
  5
74B
100
AcDbEntity
  8
0
100
AcDbCircle
 62
250
  6
CONTINUOUS
 10
-10.508555261
 20
21.4746975202
 40
0.5001919813
100
AcDbArc
 50
90.027817555
 51
179.8974920757
  0
ARC
  5
74C
100
AcDbEntity
  8
ASSI
100
AcDbCircle
 62
250
  6
CONTINUOUS
 10
-1.1993970838
 20
4.2517138824
 40
1.8474013049
100
AcDbArc
 50
179.9740218066
 51
269.9813004292
  0
ARC
  5
74D
100
AcDbEntity
  8
0
100
AcDbCircle
 62
250
  6
CONTINUOUS
 10
-1.1993970838
 20
4.2517138824
 40
1.8474013049
100
AcDbArc
 50
179.9740218066
 51
269.9813004292
  0
ARC
  5
74E
100
AcDbEntity
  8
ASSI
100
AcDbCircle
 62
250
  6
CONTINUOUS
 10
-1.1993943136
 20
5.1533265907
 40
1.8472528717
100
AcDbArc
 50
90.0187870297
 51
180.0072804829
  0
ARC
  5
74F
100
AcDbEntity
  8
0
100
AcDbCircle
 62
250
  6
CONTINUOUS
 10
-1.1993943136
 20
5.1533265907
 40
1.8472528717
100
AcDbArc
 50
90.0187870297
 51
180.0072804829
  0
ARC
  5
750
100
AcDbEntity
  8
ASSI
100
AcDbCircle
 62
250
  6
CONTINUOUS
 10
-1.2000125789
 20
4.249780214
 40
1.5468961766
100
AcDbArc
 50
179.9918592813
 51
270.0004659098
  0
ARC
  5
751
100
AcDbEntity
  8
0
100
AcDbCircle
 62
250
  6
CONTINUOUS
 10
-1.2000125789
 20
4.249780214
 40
1.5468961766
100
AcDbArc
 50
179.9918592813
 51
270.0004659098
  0
ARC
  5
752
100
AcDbEntity
  8
ASSI
100
AcDbCircle
 62
250
  6
CONTINUOUS
 10
-1.2000085903
 20
5.1496168303
 40
1.546748281
100
AcDbArc
 50
89.9996817917
 51
179.985806347
  0
ARC
  5
753
100
AcDbEntity
  8
0
100
AcDbCircle
 62
250
  6
CONTINUOUS
 10
-1.2000085903
 20
5.1496168303
 40
1.546748281
100
AcDbArc
 50
89.9996817917
 51
179.985806347
  0
ARC
  5
754
100
AcDbEntity
  8
ASSI
100
AcDbCircle
 62
7
  6
CONTINUOUS
 10
-1.2
 20
5.15
 40
1.5122185454
100
AcDbArc
 50
90.0
 51
180.0
  0
ARC
  5
755
100
AcDbEntity
  8
ASSI
100
AcDbCircle
 62
7
  6
CONTINUOUS
 10
-1.2
 20
4.25
 40
1.5122185454
100
AcDbArc
 50
180.0
 51
270.0
  0
ARC
  5
756
100
AcDbEntity
  8
0
100
AcDbCircle
 62
7
  6
CONTINUOUS
 10
-1.2
 20
5.15
 40
1.5122185454
100
AcDbArc
 50
90.0
 51
180.0
  0
ARC
  5
757
100
AcDbEntity
  8
0
100
AcDbCircle
 62
7
  6
CONTINUOUS
 10
-1.2
 20
4.25
 40
1.5122185454
100
AcDbArc
 50
180.0
 51
270.0
  0
ARC
  5
758
100
AcDbEntity
  8
ASSI
100
AcDbCircle
 62
7
  6
CONTINUOUS
 10
-4.95
 20
23.1
 40
0.5
100
AcDbArc
 50
240.887577224
 51
9.196281579
  0
ARC
  5
759
100
AcDbEntity
  8
0
100
AcDbCircle
 62
7
  6
CONTINUOUS
 10
-4.95
 20
23.1
 40
0.5
100
AcDbArc
 50
240.887577224
 51
9.196281579
  0
ARC
  5
75A
100
AcDbEntity
  8
ASSI
100
AcDbCircle
 62
7
  6
CONTINUOUS
 10
-4.2
 20
23.1114149286
 40
0.2
100
AcDbArc
 50
123.7627603324
 51
180.0
  0
ARC
  5
75B
100
AcDbEntity
  8
0
100
AcDbCircle
 62
7
  6
CONTINUOUS
 10
-4.2
 20
23.1114149286
 40
0.2
100
AcDbArc
 50
123.7627603324
 51
180.0
  0
ARC
  5
75C
100
AcDbEntity
  8
ASSI
100
AcDbCircle
 62
250
  6
CONTINUOUS
 10
-4.2000162871
 20
22.7037167124
 40
0.1999847713
100
AcDbArc
 50
180.0046668986
 51
270.0046662364
  0
ARC
  5
75D
100
AcDbEntity
  8
0
100
AcDbCircle
 62
250
  6
CONTINUOUS
 10
-4.2000162872
 20
22.7037167124
 40
0.1999847713
100
AcDbArc
 50
180.0046669198
 51
270.0046662576
  0
ARC
  5
75E
100
AcDbEntity
  8
ASSI
100
AcDbCircle
 62
7
  6
CONTINUOUS
 10
-3.9140444426
 20
23.3001888863
 40
0.199811114
100
AcDbArc
 50
90.0031831
 51
123.0510638395
  0
ARC
  5
75F
100
AcDbEntity
  8
0
100
AcDbCircle
 62
7
  6
CONTINUOUS
 10
-3.9141864186
 20
23.3002073414
 40
0.1997697344
100
AcDbArc
 50
90.0082221166
 51
117.7030490046
  0
ARC
  5
760
100
AcDbEntity
  8
ASSI
100
AcDbCircle
 62
7
  6
CONTINUOUS
 10
-3.9358698772
 20
23.2864243858
 40
0.1994927279
100
AcDbArc
 50
119.4147407264
 51
123.1065608675
  0
ARC
  5
761
100
AcDbEntity
  8
0
100
AcDbCircle
 62
7
  6
CONTINUOUS
 10
-3.9358879909
 20
23.2864506545
 40
0.1994608301
100
AcDbArc
 50
119.3799861875
 51
123.106323847
  0
ARC
  5
762
100
AcDbEntity
  8
0
100
AcDbCircle
 62
7
  6
CONTINUOUS
 10
-3.9356975399
 20
23.286936627
 40
0.1990384271
100
AcDbArc
 50
89.9671952375
 51
93.6919478102
  0
ARC
  5
763
100
AcDbEntity
  8
ASSI
100
AcDbCircle
 62
250
  6
CONTINUOUS
 10
-4.2709958795
 20
23.1135107063
 40
0.1325041081
100
AcDbArc
 50
213.6983989268
 51
219.548450509
  0
ARC
  5
764
100
AcDbEntity
  8
ASSI
100
AcDbCircle
 62
250
  6
CONTINUOUS
 10
-4.2799643049
 20
23.1075233
 40
0.1217207108
100
AcDbArc
 50
207.5099208621
 51
213.6958251122
  0
ARC
  5
765
100
AcDbEntity
  8
0
100
AcDbCircle
 62
250
  6
CONTINUOUS
 10
-4.2861316887
 20
23.1039753493
 40
0.1146064574
100
AcDbArc
 50
200.9591707956
 51
210.6394008007
  0
ARC
  5
766
100
AcDbEntity
  8
ASSI
100
AcDbCircle
 62
250
  6
CONTINUOUS
 10
-4.2883936964
 20
23.1031212039
 40
0.112211086
100
AcDbArc
 50
200.9654806823
 51
207.5044060715
  0
ARC
  5
767
100
AcDbEntity
  8
0
100
AcDbCircle
 62
250
  6
CONTINUOUS
 10
-4.3012828013
 20
22.8532811333
 40
0.0987172616
100
AcDbArc
 50
180.0647118377
 51
190.7463847502
  0
ARC
  5
768
100
AcDbEntity
  8
ASSI
100
AcDbCircle
 62
7
  6
CONTINUOUS
 10
4.95
 20
-23.1
 40
0.5
100
AcDbArc
 50
60.887577224
 51
189.196281579
  0
ARC
  5
769
100
AcDbEntity
  8
0
100
AcDbCircle
 62
7
  6
CONTINUOUS
 10
4.95
 20
-23.1
 40
0.5
100
AcDbArc
 50
60.887577224
 51
189.196281579
  0
ARC
  5
76A
100
AcDbEntity
  8
ASSI
100
AcDbCircle
 62
7
  6
CONTINUOUS
 10
4.2
 20
-23.1114149286
 40
0.2
100
AcDbArc
 50
303.7627603324
 51
360.0
  0
ARC
  5
76B
100
AcDbEntity
  8
0
100
AcDbCircle
 62
7
  6
CONTINUOUS
 10
4.2
 20
-23.1114149286
 40
0.2
100
AcDbArc
 50
303.7627603324
 51
360.0
  0
ARC
  5
76C
100
AcDbEntity
  8
ASSI
100
AcDbCircle
 62
250
  6
CONTINUOUS
 10
4.2000162871
 20
-22.7037167124
 40
0.1999847713
100
AcDbArc
 50
0.0046668986
 51
90.0046662364
  0
ARC
  5
76D
100
AcDbEntity
  8
0
100
AcDbCircle
 62
250
  6
CONTINUOUS
 10
4.2000162872
 20
-22.7037167124
 40
0.1999847713
100
AcDbArc
 50
0.0046669198
 51
90.0046662576
  0
ARC
  5
76E
100
AcDbEntity
  8
ASSI
100
AcDbCircle
 62
7
  6
CONTINUOUS
 10
3.9140444423
 20
-23.300188889
 40
0.1998111113
100
AcDbArc
 50
270.0031831853
 51
303.0511490739
  0
ARC
  5
76F
100
AcDbEntity
  8
0
100
AcDbCircle
 62
7
  6
CONTINUOUS
 10
3.9140266763
 20
-23.3002008349
 40
0.1997991672
100
AcDbArc
 50
270.0082780757
 51
297.7494502859
  0
ARC
  5
770
100
AcDbEntity
  8
ASSI
100
AcDbCircle
 62
7
  6
CONTINUOUS
 10
3.9358698772
 20
-23.2864243858
 40
0.1994927279
100
AcDbArc
 50
299.4147407263
 51
303.1065608675
  0
ARC
  5
771
100
AcDbEntity
  8
0
100
AcDbCircle
 62
7
  6
CONTINUOUS
 10
3.9358879909
 20
-23.2864506545
 40
0.1994608301
100
AcDbArc
 50
299.3799861875
 51
303.106323847
  0
ARC
  5
772
100
AcDbEntity
  8
0
100
AcDbCircle
 62
7
  6
CONTINUOUS
 10
3.9356975399
 20
-23.286936627
 40
0.1990384271
100
AcDbArc
 50
269.9671952375
 51
273.6919478102
  0
ARC
  5
773
100
AcDbEntity
  8
ASSI
100
AcDbCircle
 62
250
  6
CONTINUOUS
 10
4.2709958795
 20
-23.1135107063
 40
0.1325041081
100
AcDbArc
 50
33.698398927
 51
39.5484505089
  0
ARC
  5
774
100
AcDbEntity
  8
ASSI
100
AcDbCircle
 62
250
  6
CONTINUOUS
 10
4.2799643049
 20
-23.1075233
 40
0.1217207108
100
AcDbArc
 50
27.509920862
 51
33.6958251122
  0
ARC
  5
775
100
AcDbEntity
  8
0
100
AcDbCircle
 62
250
  6
CONTINUOUS
 10
4.2861316887
 20
-23.1039753493
 40
0.1146064574
100
AcDbArc
 50
20.9591707957
 51
30.6394008007
  0
ARC
  5
776
100
AcDbEntity
  8
ASSI
100
AcDbCircle
 62
250
  6
CONTINUOUS
 10
4.2883936964
 20
-23.1031212039
 40
0.112211086
100
AcDbArc
 50
20.9654806824
 51
27.5044060714
  0
ARC
  5
777
100
AcDbEntity
  8
0
100
AcDbCircle
 62
250
  6
CONTINUOUS
 10
4.3012828013
 20
-22.8532811333
 40
0.0987172616
100
AcDbArc
 50
0.0647118377
 51
10.7463847502
  0
ARC
  5
778
100
AcDbEntity
  8
ASSI
100
AcDbCircle
 62
250
  6
CONTINUOUS
 10
5.499390583
 20
-4.2517203782
 40
1.8474094777
100
AcDbArc
 50
359.9742233538
 51
89.981098873
  0
ARC
  5
779
100
AcDbEntity
  8
0
100
AcDbCircle
 62
250
  6
CONTINUOUS
 10
5.499390583
 20
-4.2517203782
 40
1.8474094777
100
AcDbArc
 50
359.9742233538
 51
89.981098873
  0
ARC
  5
77A
100
AcDbEntity
  8
ASSI
100
AcDbCircle
 62
250
  6
CONTINUOUS
 10
5.4993879658
 20
-5.153320246
 40
1.8472609135
100
AcDbArc
 50
270.0189838607
 51
0.0070836723
  0
ARC
  5
77B
100
AcDbEntity
  8
0
100
AcDbCircle
 62
250
  6
CONTINUOUS
 10
5.4993879658
 20
-5.153320246
 40
1.8472609135
100
AcDbArc
 50
270.0189838607
 51
0.0070836723
  0
ARC
  5
77C
100
AcDbEntity
  8
ASSI
100
AcDbCircle
 62
250
  6
CONTINUOUS
 10
5.5000125054
 20
-4.2497802488
 40
1.5468961766
100
AcDbArc
 50
359.9918605705
 51
90.0004631877
  0
ARC
  5
77D
100
AcDbEntity
  8
0
100
AcDbCircle
 62
250
  6
CONTINUOUS
 10
5.5000125054
 20
-4.2497802488
 40
1.5468961766
100
AcDbArc
 50
359.9918605705
 51
90.0004631877
  0
ARC
  5
77E
100
AcDbEntity
  8
ASSI
100
AcDbCircle
 62
250
  6
CONTINUOUS
 10
5.5000085903
 20
-5.1496168303
 40
1.546748281
100
AcDbArc
 50
269.9996817917
 51
359.985806347
  0
ARC
  5
77F
100
AcDbEntity
  8
0
100
AcDbCircle
 62
250
  6
CONTINUOUS
 10
5.5000085903
 20
-5.1496168303
 40
1.546748281
100
AcDbArc
 50
269.9996817917
 51
359.985806347
  0
ARC
  5
780
100
AcDbEntity
  8
ASSI
100
AcDbCircle
 62
7
  6
CONTINUOUS
 10
5.5
 20
-5.15
 40
1.5122185454
100
AcDbArc
 50
270.0
 51
360.0
  0
ARC
  5
781
100
AcDbEntity
  8
ASSI
100
AcDbCircle
 62
7
  6
CONTINUOUS
 10
5.5
 20
-4.25
 40
1.5122185454
100
AcDbArc
 50
0.0
 51
90.0
  0
ARC
  5
782
100
AcDbEntity
  8
0
100
AcDbCircle
 62
7
  6
CONTINUOUS
 10
5.5
 20
-5.15
 40
1.5122185454
100
AcDbArc
 50
270.0
 51
360.0
  0
ARC
  5
783
100
AcDbEntity
  8
0
100
AcDbCircle
 62
7
  6
CONTINUOUS
 10
5.5
 20
-4.25
 40
1.5122185454
100
AcDbArc
 50
0.0
 51
90.0
  0
ARC
  5
784
100
AcDbEntity
  8
ASSI
100
AcDbCircle
 62
250
  6
CONTINUOUS
 10
10.5085552686
 20
-21.4746975229
 40
0.5001919762
100
AcDbArc
 50
270.0278166806
 51
359.8974923759
  0
ARC
  5
785
100
AcDbEntity
  8
0
100
AcDbCircle
 62
250
  6
CONTINUOUS
 10
10.5085552686
 20
-21.4746975229
 40
0.5001919762
100
AcDbArc
 50
270.0278166806
 51
359.8974923759
  0
ARC
  5
786
100
AcDbEntity
  8
ASSI
100
AcDbCircle
 62
250
  6
CONTINUOUS
 10
5.4993876267
 20
4.2517167811
 40
1.8474091526
100
AcDbArc
 50
270.0189928522
 51
0.0258881647
  0
ARC
  5
787
100
AcDbEntity
  8
0
100
AcDbCircle
 62
250
  6
CONTINUOUS
 10
5.4993876267
 20
4.2517167811
 40
1.8474091526
100
AcDbArc
 50
270.0189928522
 51
0.0258881647
  0
ARC
  5
788
100
AcDbEntity
  8
ASSI
100
AcDbCircle
 62
250
  6
CONTINUOUS
 10
5.499390906
 20
5.1533166339
 40
1.847261246
100
AcDbArc
 50
359.9930283462
 51
89.9811073745
  0
ARC
  5
789
100
AcDbEntity
  8
0
100
AcDbCircle
 62
250
  6
CONTINUOUS
 10
5.499390906
 20
5.1533166339
 40
1.847261246
100
AcDbArc
 50
359.9930283462
 51
89.9811073745
  0
ARC
  5
78A
100
AcDbEntity
  8
ASSI
100
AcDbCircle
 62
250
  6
CONTINUOUS
 10
5.5000085613
 20
4.2497768245
 40
1.5468960421
100
AcDbArc
 50
269.9996828949
 51
0.0082662399
  0
ARC
  5
78B
100
AcDbEntity
  8
0
100
AcDbCircle
 62
250
  6
CONTINUOUS
 10
5.5000085613
 20
4.2497768245
 40
1.5468960421
100
AcDbArc
 50
269.9996828949
 51
0.0082662399
  0
ARC
  5
78C
100
AcDbEntity
  8
ASSI
100
AcDbCircle
 62
250
  6
CONTINUOUS
 10
5.5000125401
 20
5.1496133735
 40
1.5467484236
100
AcDbArc
 50
0.0143217395
 51
90.0004645201
  0
ARC
  5
78D
100
AcDbEntity
  8
0
100
AcDbCircle
 62
250
  6
CONTINUOUS
 10
5.5000125401
 20
5.1496133735
 40
1.5467484236
100
AcDbArc
 50
0.0143217395
 51
90.0004645201
  0
ARC
  5
78E
100
AcDbEntity
  8
ASSI
100
AcDbCircle
 62
7
  6
CONTINUOUS
 10
5.5
 20
4.25
 40
1.5122185454
100
AcDbArc
 50
270.0
 51
360.0
  0
ARC
  5
78F
100
AcDbEntity
  8
ASSI
100
AcDbCircle
 62
7
  6
CONTINUOUS
 10
5.5
 20
5.15
 40
1.5122185454
100
AcDbArc
 50
0.0
 51
90.0
  0
ARC
  5
790
100
AcDbEntity
  8
0
100
AcDbCircle
 62
7
  6
CONTINUOUS
 10
5.5
 20
4.25
 40
1.5122185454
100
AcDbArc
 50
270.0
 51
360.0
  0
ARC
  5
791
100
AcDbEntity
  8
0
100
AcDbCircle
 62
7
  6
CONTINUOUS
 10
5.5
 20
5.15
 40
1.5122185454
100
AcDbArc
 50
0.0
 51
90.0
  0
ARC
  5
792
100
AcDbEntity
  8
ASSI
100
AcDbCircle
 62
7
  6
CONTINUOUS
 10
4.95
 20
23.1
 40
0.5
100
AcDbArc
 50
170.803718421
 51
299.112422776
  0
ARC
  5
793
100
AcDbEntity
  8
0
100
AcDbCircle
 62
7
  6
CONTINUOUS
 10
4.95
 20
23.1
 40
0.5
100
AcDbArc
 50
170.803718421
 51
299.112422776
  0
ARC
  5
794
100
AcDbEntity
  8
0
100
AcDbCircle
 62
250
  6
CONTINUOUS
 10
3.9356215587
 20
23.2855292098
 40
0.2004458153
100
AcDbArc
 50
78.9988836996
 51
90.0108558435
  0
ARC
  5
795
100
AcDbEntity
  8
ASSI
100
AcDbCircle
 62
7
  6
CONTINUOUS
 10
4.2
 20
23.1114149286
 40
0.2
100
AcDbArc
 50
0.0
 51
56.2372396676
  0
ARC
  5
796
100
AcDbEntity
  8
0
100
AcDbCircle
 62
7
  6
CONTINUOUS
 10
4.2
 20
23.1114149286
 40
0.2
100
AcDbArc
 50
0.0
 51
56.2372396676
  0
ARC
  5
797
100
AcDbEntity
  8
ASSI
100
AcDbCircle
 62
250
  6
CONTINUOUS
 10
4.2000162871
 20
22.7037167124
 40
0.1999847713
100
AcDbArc
 50
269.9953337636
 51
359.9953331014
  0
ARC
  5
798
100
AcDbEntity
  8
0
100
AcDbCircle
 62
250
  6
CONTINUOUS
 10
4.2000162872
 20
22.7037167124
 40
0.1999847713
100
AcDbArc
 50
269.9953337424
 51
359.9953330802
  0
ARC
  5
799
100
AcDbEntity
  8
ASSI
100
AcDbCircle
 62
7
  6
CONTINUOUS
 10
3.9141424105
 20
23.3001850565
 40
0.199804146
100
AcDbArc
 50
56.9919242693
 51
89.9954231261
  0
ARC
  5
79A
100
AcDbEntity
  8
0
100
AcDbCircle
 62
7
  6
CONTINUOUS
 10
3.9140365093
 20
23.300393289
 40
0.1996067119
100
AcDbArc
 50
56.9911391105
 51
89.9945364368
  0
ARC
  5
79B
100
AcDbEntity
  8
ASSI
100
AcDbCircle
 62
250
  6
CONTINUOUS
 10
3.9356659785
 20
23.2864136134
 40
0.1995614251
100
AcDbArc
 50
86.3366096815
 51
90.0236572372
  0
ARC
  5
79C
100
AcDbEntity
  8
ASSI
100
AcDbCircle
 62
250
  6
CONTINUOUS
 10
4.2709958486
 20
23.1135107358
 40
0.1325041507
100
AcDbArc
 50
320.4515563925
 51
326.3015406919
  0
ARC
  5
79D
100
AcDbEntity
  8
ASSI
100
AcDbCircle
 62
250
  6
CONTINUOUS
 10
4.2799641833
 20
23.1075233747
 40
0.121720854
100
AcDbArc
 50
326.3041150813
 51
332.4899008043
  0
ARC
  5
79E
100
AcDbEntity
  8
0
100
AcDbCircle
 62
250
  6
CONTINUOUS
 10
4.2861276092
 20
23.1039761218
 40
0.1146103496
100
AcDbArc
 50
329.3765955879
 51
339.0370701106
  0
ARC
  5
79F
100
AcDbEntity
  8
ASSI
100
AcDbCircle
 62
250
  6
CONTINUOUS
 10
4.2883934786
 20
23.1031212973
 40
0.112211323
100
AcDbArc
 50
332.4954147037
 51
339.0342669718
  0
ARC
  5
7A0
100
AcDbEntity
  8
0
100
AcDbCircle
 62
250
  6
CONTINUOUS
 10
4.3012828013
 20
22.8532811333
 40
0.0987172616
100
AcDbArc
 50
349.2536152498
 51
359.9352881623
  0
ARC
  5
7A1
100
AcDbEntity
  8
ASSI
100
AcDbCircle
 62
7
  6
CONTINUOUS
 10
11.25
 20
0.0
 40
28.0
100
AcDbArc
 50
233.1342616626
 51
234.0372348486
  0
ARC
  5
7A2
100
AcDbEntity
  8
ASSI
100
AcDbCircle
 62
7
  6
CONTINUOUS
 10
11.25
 20
0.0
 40
28.0
100
AcDbArc
 50
125.9627651514
 51
126.8657383374
  0
ARC
  5
7A3
100
AcDbEntity
  8
ASSI
100
AcDbCircle
 62
7
  6
CONTINUOUS
 10
11.25
 20
0.0
 40
28.0
100
AcDbArc
 50
123.0569921294
 51
124.1210936517
  0
ARC
  5
7A4
100
AcDbEntity
  8
ASSI
100
AcDbCircle
 62
7
  6
CONTINUOUS
 10
11.25
 20
0.0
 40
28.0
100
AcDbArc
 50
235.8789063483
 51
236.9430078706
  0
ARC
  5
7A5
100
AcDbEntity
  8
0
100
AcDbCircle
 62
7
  6
CONTINUOUS
 10
11.25
 20
0.0
 40
28.0
100
AcDbArc
 50
233.1385761675
 51
234.0372348486
  0
ARC
  5
7A6
100
AcDbEntity
  8
0
100
AcDbCircle
 62
7
  6
CONTINUOUS
 10
11.25
 20
0.0
 40
28.0
100
AcDbArc
 50
125.9627651514
 51
126.8614238325
  0
ARC
  5
7A7
100
AcDbEntity
  8
0
100
AcDbCircle
 62
7
  6
CONTINUOUS
 10
11.25
 20
0.0
 40
28.0
100
AcDbArc
 50
235.8789063483
 51
236.9430078706
  0
ARC
  5
7A8
100
AcDbEntity
  8
0
100
AcDbCircle
 62
7
  6
CONTINUOUS
 10
11.25
 20
0.0
 40
28.0
100
AcDbArc
 50
123.0569921294
 51
124.1210936517
  0
ARC
  5
7A9
100
AcDbEntity
  8
ASSI
100
AcDbCircle
 62
250
  6
CONTINUOUS
 10
11.25
 20
0.0
 40
27.7999999996
100
AcDbArc
 50
123.1096208062
 51
123.7627603324
  0
ARC
  5
7AA
100
AcDbEntity
  8
ASSI
100
AcDbCircle
 62
250
  6
CONTINUOUS
 10
11.25
 20
0.0
 40
27.7999999997
100
AcDbArc
 50
236.2372396676
 51
236.8902742679
  0
ARC
  5
7AB
100
AcDbEntity
  8
0
100
AcDbCircle
 62
250
  6
CONTINUOUS
 10
11.25
 20
0.0
 40
27.7999999997
100
AcDbArc
 50
236.2372396676
 51
236.8902742679
  0
ARC
  5
7AC
100
AcDbEntity
  8
0
100
AcDbCircle
 62
250
  6
CONTINUOUS
 10
11.25
 20
0.0
 40
27.7999999996
100
AcDbArc
 50
123.1096208062
 51
123.7627603324
  0
ARC
  5
7AD
100
AcDbEntity
  8
ASSI
100
AcDbCircle
 62
250
  6
CONTINUOUS
 10
10.5085552638
 20
21.4746975174
 40
0.5001919813
100
AcDbArc
 50
0.1025082492
 51
89.9721827724
  0
ARC
  5
7AE
100
AcDbEntity
  8
0
100
AcDbCircle
 62
250
  6
CONTINUOUS
 10
10.5085552638
 20
21.4746975174
 40
0.5001919813
100
AcDbArc
 50
0.1025082492
 51
89.9721827724
  0
ARC
  5
7AF
100
AcDbEntity
  8
ASSI
100
AcDbCircle
 62
7
  6
CONTINUOUS
 10
-101.4002622366
 20
-1875.367971639
 40
1898.8887601144
100
AcDbArc
 50
88.7936194629
 51
88.9143369151
  0
ARC
  5
7B0
100
AcDbEntity
  8
0
100
AcDbCircle
 62
7
  6
CONTINUOUS
 10
-101.4002622366
 20
-1875.367971639
 40
1898.8887601144
100
AcDbArc
 50
88.7936194629
 51
88.9143369151
  0
ARC
  5
7B1
100
AcDbEntity
  8
ASSI
100
AcDbCircle
 62
7
  6
CONTINUOUS
 10
-73.4804393247
 20
-20.9762776025
 40
1.0
100
AcDbArc
 50
182.4092313014
 51
267.0
  0
ARC
  5
7B2
100
AcDbEntity
  8
0
100
AcDbCircle
 62
7
  6
CONTINUOUS
 10
-73.4804393247
 20
-20.9762776025
 40
1.0
100
AcDbArc
 50
182.4092313014
 51
267.0
  0
ARC
  5
7B3
100
AcDbEntity
  8
ASSI
100
AcDbCircle
 62
250
  6
CONTINUOUS
 10
-73.4891516874
 20
-20.9762639039
 40
0.5000132837
100
AcDbArc
 50
182.4107329424
 51
266.9984983588
  0
ARC
  5
7B4
100
AcDbEntity
  8
0
100
AcDbCircle
 62
250
  6
CONTINUOUS
 10
-73.4891516874
 20
-20.9762639039
 40
0.5000132837
100
AcDbArc
 50
182.4107329424
 51
266.9984983588
  0
ARC
  5
7B5
100
AcDbEntity
  8
0
100
AcDbCircle
 62
250
  6
CONTINUOUS
 10
-66.2214183243
 20
-23.2158733757
 40
0.2376573479
100
AcDbArc
 50
257.3959565946
 51
269.9754245126
  0
ARC
  5
7B6
100
AcDbEntity
  8
ASSI
100
AcDbCircle
 62
250
  6
CONTINUOUS
 10
-66.2215541141
 20
-23.2162814711
 40
0.2372492331
100
AcDbArc
 50
257.4060282178
 51
270.0081755177
  0
ARC
  5
7B7
100
AcDbEntity
  8
ASSI
100
AcDbCircle
 62
250
  6
CONTINUOUS
 10
-66.2232940839
 20
-23.2248287819
 40
0.228528249
100
AcDbArc
 50
253.048471308
 51
257.3645209015
  0
ARC
  5
7B8
100
AcDbEntity
  8
0
100
AcDbCircle
 62
250
  6
CONTINUOUS
 10
-66.22366474
 20
-23.2255889785
 40
0.2276856942
100
AcDbArc
 50
250.9294578431
 51
257.4141298201
  0
ARC
  5
7B9
100
AcDbEntity
  8
ASSI
100
AcDbCircle
 62
7
  6
CONTINUOUS
 10
-66.2215202611
 20
-23.0992772252
 40
0.2
100
AcDbArc
 50
135.5
 51
180.0
  0
ARC
  5
7BA
100
AcDbEntity
  8
ASSI
100
AcDbCircle
 62
7
  6
CONTINUOUS
 10
-66.2215202611
 20
-23.2860054824
 40
0.2
100
AcDbArc
 50
180.0
 51
269.0
  0
ARC
  5
7BB
100
AcDbEntity
  8
0
100
AcDbCircle
 62
7
  6
CONTINUOUS
 10
-66.2215202611
 20
-23.2860054824
 40
0.2
100
AcDbArc
 50
180.0
 51
269.0
  0
ARC
  5
7BC
100
AcDbEntity
  8
0
100
AcDbCircle
 62
7
  6
CONTINUOUS
 10
-66.2215202611
 20
-23.0992772252
 40
0.2
100
AcDbArc
 50
135.5
 51
180.0
  0
ARC
  5
7BD
100
AcDbEntity
  8
ASSI
100
AcDbCircle
 62
250
  6
CONTINUOUS
 10
-66.270084679
 20
-23.1071999385
 40
0.1521716403
100
AcDbArc
 50
203.5405380202
 51
209.17007768
  0
ARC
  5
7BE
100
AcDbEntity
  8
0
100
AcDbCircle
 62
250
  6
CONTINUOUS
 10
-66.2740286598
 20
-23.1091770363
 40
0.1477604031
100
AcDbArc
 50
197.5360435547
 51
206.1651269076
  0
ARC
  5
7BF
100
AcDbEntity
  8
ASSI
100
AcDbCircle
 62
250
  6
CONTINUOUS
 10
-66.2754599048
 20
-23.1095504161
 40
0.1463049777
100
AcDbArc
 50
197.7515641062
 51
203.5374003052
  0
ARC
  5
7C0
100
AcDbEntity
  8
0
100
AcDbCircle
 62
250
  6
CONTINUOUS
 10
-66.2780862036
 20
-23.1104719762
 40
0.1435012509
100
AcDbArc
 50
188.8494560854
 51
197.5311725084
  0
ARC
  5
7C1
100
AcDbEntity
  8
ASSI
100
AcDbCircle
 62
250
  6
CONTINUOUS
 10
-66.2789257736
 20
-23.1107032813
 40
0.1426526362
100
AcDbArc
 50
191.8561098105
 51
197.7349903736
  0
ARC
  5
7C2
100
AcDbEntity
  8
ASSI
100
AcDbCircle
 62
250
  6
CONTINUOUS
 10
-66.2810995482
 20
-23.2859685693
 40
0.1404207177
100
AcDbArc
 50
180.0150616309
 51
186.7211554749
  0
ARC
  5
7C3
100
AcDbEntity
  8
ASSI
100
AcDbCircle
 62
250
  6
CONTINUOUS
 10
-66.2818587183
 20
-23.1112905921
 40
0.1396615981
100
AcDbArc
 50
180.0510086862
 51
191.8675168915
  0
ARC
  5
7C4
100
AcDbEntity
  8
0
100
AcDbCircle
 62
250
  6
CONTINUOUS
 10
-66.2834574123
 20
-23.1113241904
 40
0.1380628786
100
AcDbArc
 50
180.0376561095
 51
188.8429119058
  0
ARC
  5
7C5
100
AcDbEntity
  8
ASSI
100
AcDbCircle
 62
7
  6
CONTINUOUS
 10
-65.6230457847
 20
-23.2036242707
 40
0.7
100
AcDbArc
 50
91.0
 51
135.5
  0
ARC
  5
7C6
100
AcDbEntity
  8
0
100
AcDbCircle
 62
7
  6
CONTINUOUS
 10
-65.6230457847
 20
-23.2036242707
 40
0.7
100
AcDbArc
 50
91.0
 51
135.5
  0
ARC
  5
7C7
100
AcDbEntity
  8
ASSI
100
AcDbCircle
 62
250
  6
CONTINUOUS
 10
-65.6230457847
 20
-23.2036242707
 40
0.5
100
AcDbArc
 50
91.0
 51
135.5
  0
ARC
  5
7C8
100
AcDbEntity
  8
0
100
AcDbCircle
 62
250
  6
CONTINUOUS
 10
-65.6230457847
 20
-23.2036242707
 40
0.5
100
AcDbArc
 50
91.0
 51
135.5
  0
ARC
  5
7C9
100
AcDbEntity
  8
ASSI
100
AcDbCircle
 62
7
  6
CONTINUOUS
 10
-53.1634687479
 20
-2.5
 40
1.0765110898
100
AcDbArc
 50
90.362783598
 51
269.637216402
  0
ARC
  5
7CA
100
AcDbEntity
  8
ASSI
100
AcDbCircle
 62
7
  6
CONTINUOUS
 10
-53.1634687479
 20
-7.5
 40
1.0765110898
100
AcDbArc
 50
90.3627835981
 51
269.6372164019
  0
ARC
  5
7CB
100
AcDbEntity
  8
ASSI
100
AcDbCircle
 62
7
  6
CONTINUOUS
 10
-53.1634687479
 20
-12.5
 40
1.0765110898
100
AcDbArc
 50
90.362783598
 51
269.637216402
  0
ARC
  5
7CC
100
AcDbEntity
  8
0
100
AcDbCircle
 62
7
  6
CONTINUOUS
 10
-53.1635407296
 20
-2.5
 40
1.0764550729
100
AcDbArc
 50
90.3589519689
 51
269.6410480311
  0
ARC
  5
7CD
100
AcDbEntity
  8
0
100
AcDbCircle
 62
7
  6
CONTINUOUS
 10
-53.1635407296
 20
-7.5
 40
1.0764550729
100
AcDbArc
 50
90.3589519732
 51
269.6410480268
  0
ARC
  5
7CE
100
AcDbEntity
  8
0
100
AcDbCircle
 62
7
  6
CONTINUOUS
 10
-53.1635407297
 20
-12.5
 40
1.0764550729
100
AcDbArc
 50
90.3589519653
 51
269.6410480347
  0
ARC
  5
7CF
100
AcDbEntity
  8
IMPORT_IGES
100
AcDbCircle
 62
7
  6
CONTINUOUS
 10
-47.3215202591
 20
-13.2999999926
 40
0.1500000048
100
AcDbArc
 50
358.9481034129
 51
179.9721113777
  0
CIRCLE
  5
7D0
100
AcDbEntity
  8
IMPORT_IGES
100
AcDbCircle
 62
7
  6
CONTINUOUS
 10
-42.7215202643
 20
-12.800000002
 40
0.1500000048
  0
ARC
  5
7D1
100
AcDbEntity
  8
IMPORT_IGES
100
AcDbCircle
 62
7
  6
CONTINUOUS
 10
-43.4215202613
 20
-13.1999999894
 40
0.1500000048
100
AcDbArc
 50
294.4644871648
 51
246.3578099798
  0
CIRCLE
  5
7D2
100
AcDbEntity
  8
IMPORT_IGES
100
AcDbCircle
 62
7
  6
CONTINUOUS
 10
-44.1215202583
 20
-12.9000000052
 40
0.1500000048
  0
ARC
  5
7D3
100
AcDbEntity
  8
IMPORT_IGES
100
AcDbCircle
 62
7
  6
CONTINUOUS
 10
-44.8215202553
 20
-13.2999999926
 40
0.1500000048
100
AcDbArc
 50
350.813161663
 51
188.2122647318
  0
CIRCLE
  5
7D4
100
AcDbEntity
  8
IMPORT_IGES
100
AcDbCircle
 62
7
  6
CONTINUOUS
 10
-45.5215202523
 20
-12.9000000052
 40
0.1500000048
  0
ARC
  5
7D5
100
AcDbEntity
  8
IMPORT_IGES
100
AcDbCircle
 62
7
  6
CONTINUOUS
 10
-46.1215202715
 20
-13.1999999894
 40
0.1500000048
100
AcDbArc
 50
310.811243327
 51
228.3950680434
  0
ARC
  5
7D6
100
AcDbEntity
  8
IMPORT_IGES
100
AcDbCircle
 62
7
  6
CONTINUOUS
 10
-35.9215202499
 20
-13.3999999958
 40
0.1500000048
100
AcDbArc
 50
359.133611752
 51
179.7863059802
  0
ARC
  5
7D7
100
AcDbEntity
  8
IMPORT_IGES
100
AcDbCircle
 62
7
  6
CONTINUOUS
 10
-33.8215202589
 20
-13.3999999958
 40
0.1500000048
100
AcDbArc
 50
352.3667090829
 51
186.6460185577
  0
ARC
  5
7D8
100
AcDbEntity
  8
IMPORT_IGES
100
AcDbCircle
 62
7
  6
CONTINUOUS
 10
-37.9215202631
 20
-13.3999999958
 40
0.1500000048
100
AcDbArc
 50
5.7877312548
 51
173.1738713454
  0
ARC
  5
7D9
100
AcDbEntity
  8
IMPORT_IGES
100
AcDbCircle
 62
7
  6
CONTINUOUS
 10
-39.7215202699
 20
-13.3999999958
 40
0.1500000048
100
AcDbArc
 50
12.2963333622
 51
166.8048522723
  0
ARC
  5
7DA
100
AcDbEntity
  8
IMPORT_IGES
100
AcDbCircle
 62
7
  6
CONTINUOUS
 10
-41.3215202703
 20
-13.3999999958
 40
0.1500000048
100
AcDbArc
 50
18.2479445689
 51
160.9964295929
  0
CIRCLE
  5
7DB
100
AcDbEntity
  8
IMPORT_IGES
100
AcDbCircle
 62
7
  6
CONTINUOUS
 10
-46.7215202653
 20
-13.0000000084
 40
0.1500000048
  0
CIRCLE
  5
7DC
100
AcDbEntity
  8
IMPORT_IGES
100
AcDbCircle
 62
7
  6
CONTINUOUS
 10
-47.3215202591
 20
-12.6999999988
 40
0.1500000048
  0
CIRCLE
  5
7DD
100
AcDbEntity
  8
IMPORT_IGES
100
AcDbCircle
 62
7
  6
CONTINUOUS
 10
-44.1215202583
 20
-12.2000000082
 40
0.1500000048
  0
CIRCLE
  5
7DE
100
AcDbEntity
  8
IMPORT_IGES
100
AcDbCircle
 62
7
  6
CONTINUOUS
 10
-44.8215202553
 20
-11.8999999986
 40
0.1500000048
  0
CIRCLE
  5
7DF
100
AcDbEntity
  8
IMPORT_IGES
100
AcDbCircle
 62
7
  6
CONTINUOUS
 10
-44.8215202553
 20
-12.5999999956
 40
0.1500000048
  0
CIRCLE
  5
7E0
100
AcDbEntity
  8
IMPORT_IGES
100
AcDbCircle
 62
7
  6
CONTINUOUS
 10
-45.5215202523
 20
-12.2000000082
 40
0.1500000048
  0
ARC
  5
7E1
100
AcDbEntity
  8
IMPORT_IGES
100
AcDbCircle
 62
7
  6
CONTINUOUS
 10
-46.1215202715
 20
-11.7999999954
 40
0.1500000048
100
AcDbArc
 50
131.5903378902
 51
49.7770471657
  0
CIRCLE
  5
7E2
100
AcDbEntity
  8
IMPORT_IGES
100
AcDbCircle
 62
7
  6
CONTINUOUS
 10
-46.1215202715
 20
-12.4999999924
 40
0.1500000048
  0
CIRCLE
  5
7E3
100
AcDbEntity
  8
IMPORT_IGES
100
AcDbCircle
 62
7
  6
CONTINUOUS
 10
-47.3215202591
 20
-12.100000005
 40
0.1500000048
  0
CIRCLE
  5
7E4
100
AcDbEntity
  8
IMPORT_IGES
100
AcDbCircle
 62
7
  6
CONTINUOUS
 10
-46.7215202653
 20
-12.3000000114
 40
0.1500000048
  0
ARC
  5
7E5
100
AcDbEntity
  8
IMPORT_IGES
100
AcDbCircle
 62
7
  6
CONTINUOUS
 10
-46.7215202653
 20
-11.599999989
 40
0.1500000048
100
AcDbArc
 50
220.0698344314
 51
320.449585646
  0
CIRCLE
  5
7E6
100
AcDbEntity
  8
IMPORT_IGES
100
AcDbCircle
 62
7
  6
CONTINUOUS
 10
-40.6215202733
 20
-12.4999999924
 40
0.1500000048
  0
CIRCLE
  5
7E7
100
AcDbEntity
  8
IMPORT_IGES
100
AcDbCircle
 62
7
  6
CONTINUOUS
 10
-41.9215202641
 20
-12.4999999924
 40
0.1500000048
  0
CIRCLE
  5
7E8
100
AcDbEntity
  8
IMPORT_IGES
100
AcDbCircle
 62
7
  6
CONTINUOUS
 10
-42.7215202643
 20
-12.100000005
 40
0.1500000048
  0
ARC
  5
7E9
100
AcDbEntity
  8
IMPORT_IGES
100
AcDbCircle
 62
7
  6
CONTINUOUS
 10
-43.4215202613
 20
-11.7999999954
 40
0.1500000048
100
AcDbArc
 50
113.8398774226
 51
66.299246561
  0
CIRCLE
  5
7EA
100
AcDbEntity
  8
IMPORT_IGES
100
AcDbCircle
 62
7
  6
CONTINUOUS
 10
-43.4215202613
 20
-12.4999999924
 40
0.1500000048
  0
ARC
  5
7EB
100
AcDbEntity
  8
IMPORT_IGES
100
AcDbCircle
 62
7
  6
CONTINUOUS
 10
-39.7215202699
 20
-11.5000000112
 40
0.1500000048
100
AcDbArc
 50
244.9020280854
 51
298.0682927356
  0
ARC
  5
7EC
100
AcDbEntity
  8
IMPORT_IGES
100
AcDbCircle
 62
7
  6
CONTINUOUS
 10
-41.3215202703
 20
-11.5000000112
 40
0.1500000048
100
AcDbArc
 50
263.3098824174
 51
280.8556174445
  0
CIRCLE
  5
7ED
100
AcDbEntity
  8
IMPORT_IGES
100
AcDbCircle
 62
7
  6
CONTINUOUS
 10
-42.7215202643
 20
-7.8999999976
 40
0.1500000048
  0
ARC
  5
7EE
100
AcDbEntity
  8
IMPORT_IGES
100
AcDbCircle
 62
7
  6
CONTINUOUS
 10
-43.4215202613
 20
-8.3000000104
 40
0.1500000048
100
AcDbArc
 50
345.9301345168
 51
193.11109501
  0
CIRCLE
  5
7EF
100
AcDbEntity
  8
IMPORT_IGES
100
AcDbCircle
 62
7
  6
CONTINUOUS
 10
-39.7215202699
 20
-7.7999999944
 40
0.1500000048
  0
CIRCLE
  5
7F0
100
AcDbEntity
  8
IMPORT_IGES
100
AcDbCircle
 62
7
  6
CONTINUOUS
 10
-41.3215202703
 20
-7.7999999944
 40
0.1500000048
  0
ARC
  5
7F1
100
AcDbEntity
  8
IMPORT_IGES
100
AcDbCircle
 62
7
  6
CONTINUOUS
 10
-44.2015202507
 20
-3.2200000104
 40
0.5500000049
100
AcDbArc
 50
347.8943150907
 51
191.0546535859
  0
CIRCLE
  5
7F2
100
AcDbEntity
  8
IMPORT_IGES
100
AcDbCircle
 62
7
  6
CONTINUOUS
 10
-40.6215202733
 20
-6.7999999878
 40
0.1500000048
  0
CIRCLE
  5
7F3
100
AcDbEntity
  8
IMPORT_IGES
100
AcDbCircle
 62
7
  6
CONTINUOUS
 10
-38.8215202665
 20
-12.4999999924
 40
0.1500000048
  0
CIRCLE
  5
7F4
100
AcDbEntity
  8
IMPORT_IGES
100
AcDbCircle
 62
7
  6
CONTINUOUS
 10
-36.9215202565
 20
-12.4999999924
 40
0.1500000048
  0
CIRCLE
  5
7F5
100
AcDbEntity
  8
IMPORT_IGES
100
AcDbCircle
 62
7
  6
CONTINUOUS
 10
-34.8215202655
 20
-12.4999999924
 40
0.1500000048
  0
CIRCLE
  5
7F6
100
AcDbEntity
  8
IMPORT_IGES
100
AcDbCircle
 62
7
  6
CONTINUOUS
 10
-32.8215202523
 20
-12.4999999924
 40
0.1500000048
  0
CIRCLE
  5
7F7
100
AcDbEntity
  8
IMPORT_IGES
100
AcDbCircle
 62
7
  6
CONTINUOUS
 10
-30.7215202613
 20
-12.4999999924
 40
0.1500000048
  0
ARC
  5
7F8
100
AcDbEntity
  8
IMPORT_IGES
100
AcDbCircle
 62
7
  6
CONTINUOUS
 10
-35.9215202499
 20
-11.5000000112
 40
0.1500000048
100
AcDbArc
 50
222.7515033411
 51
317.4664083199
  0
CIRCLE
  5
7F9
100
AcDbEntity
  8
IMPORT_IGES
100
AcDbCircle
 62
7
  6
CONTINUOUS
 10
-35.9215202499
 20
-7.7999999944
 40
0.1500000048
  0
CIRCLE
  5
7FA
100
AcDbEntity
  8
IMPORT_IGES
100
AcDbCircle
 62
7
  6
CONTINUOUS
 10
-33.8215202589
 20
-7.7999999944
 40
0.1500000048
  0
ARC
  5
7FB
100
AcDbEntity
  8
IMPORT_IGES
100
AcDbCircle
 62
7
  6
CONTINUOUS
 10
-33.8215202589
 20
-11.5000000112
 40
0.1500000048
100
AcDbArc
 50
213.9663714036
 51
326.9497518735
  0
ARC
  5
7FC
100
AcDbEntity
  8
IMPORT_IGES
100
AcDbCircle
 62
7
  6
CONTINUOUS
 10
-31.7215202679
 20
-11.5000000112
 40
0.1500000048
100
AcDbArc
 50
205.7273216188
 51
335.0869197211
  0
CIRCLE
  5
7FD
100
AcDbEntity
  8
IMPORT_IGES
100
AcDbCircle
 62
7
  6
CONTINUOUS
 10
-31.7215202679
 20
-7.7999999944
 40
0.1500000048
  0
ARC
  5
7FE
100
AcDbEntity
  8
IMPORT_IGES
100
AcDbCircle
 62
7
  6
CONTINUOUS
 10
-37.9215202631
 20
-11.5000000112
 40
0.1500000048
100
AcDbArc
 50
232.8290916716
 51
308.4160562766
  0
CIRCLE
  5
7FF
100
AcDbEntity
  8
IMPORT_IGES
100
AcDbCircle
 62
7
  6
CONTINUOUS
 10
-37.9215202631
 20
-7.7999999944
 40
0.1500000048
  0
CIRCLE
  5
800
100
AcDbEntity
  8
IMPORT_IGES
100
AcDbCircle
 62
7
  6
CONTINUOUS
 10
-36.9215202565
 20
-6.7999999878
 40
0.1500000048
  0
CIRCLE
  5
801
100
AcDbEntity
  8
IMPORT_IGES
100
AcDbCircle
 62
7
  6
CONTINUOUS
 10
-34.8215202655
 20
-6.7999999878
 40
0.1500000048
  0
CIRCLE
  5
802
100
AcDbEntity
  8
IMPORT_IGES
100
AcDbCircle
 62
7
  6
CONTINUOUS
 10
-32.8215202523
 20
-6.7999999878
 40
0.1500000048
  0
CIRCLE
  5
803
100
AcDbEntity
  8
IMPORT_IGES
100
AcDbCircle
 62
7
  6
CONTINUOUS
 10
-30.7215202613
 20
-6.7999999878
 40
0.1500000048
  0
CIRCLE
  5
804
100
AcDbEntity
  8
IMPORT_IGES
100
AcDbCircle
 62
7
  6
CONTINUOUS
 10
-32.8215202523
 20
-2.2999999962
 40
0.1500000048
  0
CIRCLE
  5
805
100
AcDbEntity
  8
IMPORT_IGES
100
AcDbCircle
 62
7
  6
CONTINUOUS
 10
-34.8215202655
 20
-2.2999999962
 40
0.1500000048
  0
CIRCLE
  5
806
100
AcDbEntity
  8
IMPORT_IGES
100
AcDbCircle
 62
7
  6
CONTINUOUS
 10
-36.9215202565
 20
-2.2999999962
 40
0.1500000048
  0
CIRCLE
  5
807
100
AcDbEntity
  8
IMPORT_IGES
100
AcDbCircle
 62
7
  6
CONTINUOUS
 10
-38.8215202665
 20
-6.7999999878
 40
0.1500000048
  0
ARC
  5
808
100
AcDbEntity
  8
IMPORT_IGES
100
AcDbCircle
 62
7
  6
CONTINUOUS
 10
-35.9215202499
 20
-3.400000006
 40
0.1500000048
100
AcDbArc
 50
359.1336154414
 51
179.7863022856
  0
ARC
  5
809
100
AcDbEntity
  8
IMPORT_IGES
100
AcDbCircle
 62
7
  6
CONTINUOUS
 10
-33.8215202589
 20
-3.400000006
 40
0.1500000048
100
AcDbArc
 50
352.3667130093
 51
186.6460145957
  0
ARC
  5
80A
100
AcDbEntity
  8
IMPORT_IGES
100
AcDbCircle
 62
7
  6
CONTINUOUS
 10
-31.7215202679
 20
-3.400000006
 40
0.1500000048
100
AcDbArc
 50
345.0688368753
 51
193.9705682448
  0
ARC
  5
80B
100
AcDbEntity
  8
IMPORT_IGES
100
AcDbCircle
 62
7
  6
CONTINUOUS
 10
-37.9215202631
 20
-3.400000006
 40
0.1500000048
100
AcDbArc
 50
5.7877353338
 51
173.1738673238
  0
ARC
  5
80C
100
AcDbEntity
  8
ASSI
100
AcDbCircle
 62
7
  6
CONTINUOUS
 10
-73.4804393247
 20
20.9762776025
 40
1.0
100
AcDbArc
 50
93.0
 51
177.5907686986
  0
ARC
  5
80D
100
AcDbEntity
  8
0
100
AcDbCircle
 62
7
  6
CONTINUOUS
 10
-73.4804393247
 20
20.9762776025
 40
1.0
100
AcDbArc
 50
93.0
 51
177.5907686986
  0
ARC
  5
80E
100
AcDbEntity
  8
ASSI
100
AcDbCircle
 62
250
  6
CONTINUOUS
 10
-73.4891516874
 20
20.9762639039
 40
0.5000132837
100
AcDbArc
 50
93.0015016419
 51
177.589267057
  0
ARC
  5
80F
100
AcDbEntity
  8
0
100
AcDbCircle
 62
250
  6
CONTINUOUS
 10
-73.4891516874
 20
20.9762639039
 40
0.5000132837
100
AcDbArc
 50
93.0015016419
 51
177.589267057
  0
ARC
  5
810
100
AcDbEntity
  8
ASSI
100
AcDbCircle
 62
7
  6
CONTINUOUS
 10
-66.2215202611
 20
23.0992772252
 40
0.2
100
AcDbArc
 50
180.0
 51
224.5
  0
ARC
  5
811
100
AcDbEntity
  8
ASSI
100
AcDbCircle
 62
7
  6
CONTINUOUS
 10
-66.2215202611
 20
23.2860054824
 40
0.2
100
AcDbArc
 50
91.0
 51
180.0
  0
ARC
  5
812
100
AcDbEntity
  8
0
100
AcDbCircle
 62
7
  6
CONTINUOUS
 10
-66.2215202611
 20
23.2860054824
 40
0.2
100
AcDbArc
 50
91.0
 51
180.0
  0
ARC
  5
813
100
AcDbEntity
  8
0
100
AcDbCircle
 62
7
  6
CONTINUOUS
 10
-66.2215202611
 20
23.0992772252
 40
0.2
100
AcDbArc
 50
180.0
 51
224.5
  0
ARC
  5
814
100
AcDbEntity
  8
ASSI
100
AcDbCircle
 62
250
  6
CONTINUOUS
 10
-66.2700847145
 20
23.1072000494
 40
0.1521715578
100
AcDbArc
 50
150.8260406547
 51
156.464190657
  0
ARC
  5
815
100
AcDbEntity
  8
0
100
AcDbCircle
 62
250
  6
CONTINUOUS
 10
-66.2738875638
 20
23.1091247345
 40
0.1479099152
100
AcDbArc
 50
153.6677068382
 51
162.2651293395
  0
ARC
  5
816
100
AcDbEntity
  8
ASSI
100
AcDbCircle
 62
250
  6
CONTINUOUS
 10
-66.2754626142
 20
23.1095513918
 40
0.1463020991
100
AcDbArc
 50
156.4674103802
 51
162.2501373239
  0
ARC
  5
817
100
AcDbEntity
  8
0
100
AcDbCircle
 62
250
  6
CONTINUOUS
 10
-66.27795466
 20
23.1104371302
 40
0.1436363306
100
AcDbArc
 50
162.2695715125
 51
170.9804479612
  0
ARC
  5
818
100
AcDbEntity
  8
ASSI
100
AcDbCircle
 62
250
  6
CONTINUOUS
 10
-66.2789243898
 20
23.1107028312
 40
0.1426540919
100
AcDbArc
 50
162.2667102688
 51
168.1263688413
  0
ARC
  5
819
100
AcDbEntity
  8
ASSI
100
AcDbCircle
 62
250
  6
CONTINUOUS
 10
-66.2810806351
 20
23.2859676695
 40
0.140439631
100
AcDbArc
 50
173.2030604034
 51
179.9845732692
  0
ARC
  5
81A
100
AcDbEntity
  8
ASSI
100
AcDbCircle
 62
250
  6
CONTINUOUS
 10
-66.2818541239
 20
23.111290198
 40
0.1396661928
100
AcDbArc
 50
168.1148803613
 51
179.9488313055
  0
ARC
  5
81B
100
AcDbEntity
  8
0
100
AcDbCircle
 62
250
  6
CONTINUOUS
 10
-66.283425259
 20
23.1113195723
 40
0.138095035
100
AcDbArc
 50
170.9862136634
 51
179.9604365687
  0
ARC
  5
81C
100
AcDbEntity
  8
ASSI
100
AcDbCircle
 62
7
  6
CONTINUOUS
 10
-101.4002622366
 20
1875.367971639
 40
1898.8887601144
100
AcDbArc
 50
271.0856630849
 51
271.2063805371
  0
ARC
  5
81D
100
AcDbEntity
  8
0
100
AcDbCircle
 62
7
  6
CONTINUOUS
 10
-101.4002622366
 20
1875.367971639
 40
1898.8887601144
100
AcDbArc
 50
271.0856630849
 51
271.2063805371
  0
ARC
  5
81E
100
AcDbEntity
  8
IMPORT_IGES
100
AcDbCircle
 62
7
  6
CONTINUOUS
 10
-50.9215202611
 20
4.6
 40
4.25
100
AcDbArc
 50
121.7387836275
 51
135.1888551231
  0
ARC
  5
81F
100
AcDbEntity
  8
IMPORT_IGES
100
AcDbCircle
 62
7
  6
CONTINUOUS
 10
-50.9215202611
 20
4.6
 40
4.25
100
AcDbArc
 50
29.8019701874
 51
60.3777960388
  0
ARC
  5
820
100
AcDbEntity
  8
IMPORT_IGES
100
AcDbCircle
 62
7
  6
CONTINUOUS
 10
-50.9215202611
 20
4.6
 40
4.25
100
AcDbArc
 50
316.6921497186
 51
342.2493889363
  0
ARC
  5
821
100
AcDbEntity
  8
IMPORT_IGES
100
AcDbCircle
 62
7
  6
CONTINUOUS
 10
-50.9215202611
 20
4.6
 40
3.85
100
AcDbArc
 50
311.2908569667
 51
340.2728440013
  0
ARC
  5
822
100
AcDbEntity
  8
IMPORT_IGES
100
AcDbCircle
 62
250
  6
CONTINUOUS
 10
-50.9215202611
 20
4.6
 40
3.8499673866
100
AcDbArc
 50
311.1686204448
 51
311.2908569667
  0
ARC
  5
823
100
AcDbEntity
  8
IMPORT_IGES
100
AcDbCircle
 62
250
  6
CONTINUOUS
 10
-50.9215202611
 20
4.6
 40
3.8499656026
100
AcDbArc
 50
107.8220716165
 51
138.924241134
  0
ARC
  5
824
100
AcDbEntity
  8
IMPORT_IGES
100
AcDbCircle
 62
250
  6
CONTINUOUS
 10
-50.9215202611
 20
4.6
 40
3.8499656026
100
AcDbArc
 50
33.2718534126
 51
73.1569582918
  0
ARC
  5
825
100
AcDbEntity
  8
ASSI
100
AcDbCircle
 62
7
  6
CONTINUOUS
 10
-53.1634687479
 20
7.5
 40
1.0765110898
100
AcDbArc
 50
90.362783598
 51
269.637216402
  0
ARC
  5
826
100
AcDbEntity
  8
ASSI
100
AcDbCircle
 62
7
  6
CONTINUOUS
 10
-53.1634687479
 20
12.5
 40
1.0765110898
100
AcDbArc
 50
90.3627835981
 51
269.6372164019
  0
ARC
  5
827
100
AcDbEntity
  8
ASSI
100
AcDbCircle
 62
7
  6
CONTINUOUS
 10
-53.1634687479
 20
2.5
 40
1.0765110898
100
AcDbArc
 50
90.362783598
 51
269.637216402
  0
ARC
  5
828
100
AcDbEntity
  8
0
100
AcDbCircle
 62
7
  6
CONTINUOUS
 10
-53.1635407297
 20
7.5
 40
1.0764550729
100
AcDbArc
 50
90.3589519668
 51
269.6410480332
  0
ARC
  5
829
100
AcDbEntity
  8
0
100
AcDbCircle
 62
7
  6
CONTINUOUS
 10
-53.1635407297
 20
2.5
 40
1.0764550729
100
AcDbArc
 50
90.3589519669
 51
269.6410480331
  0
ARC
  5
82A
100
AcDbEntity
  8
0
100
AcDbCircle
 62
7
  6
CONTINUOUS
 10
-53.1635407296
 20
12.5
 40
1.0764550729
100
AcDbArc
 50
90.3589519691
 51
269.6410480309
  0
ARC
  5
82B
100
AcDbEntity
  8
ASSI
100
AcDbCircle
 62
7
  6
CONTINUOUS
 10
-65.6230457847
 20
23.2036242707
 40
0.7
100
AcDbArc
 50
224.5
 51
269.0
  0
ARC
  5
82C
100
AcDbEntity
  8
0
100
AcDbCircle
 62
7
  6
CONTINUOUS
 10
-65.6230457847
 20
23.2036242707
 40
0.7
100
AcDbArc
 50
224.5
 51
269.0
  0
ARC
  5
82D
100
AcDbEntity
  8
ASSI
100
AcDbCircle
 62
250
  6
CONTINUOUS
 10
-65.6230457847
 20
23.2036242707
 40
0.5
100
AcDbArc
 50
224.5
 51
269.0
  0
ARC
  5
82E
100
AcDbEntity
  8
0
100
AcDbCircle
 62
250
  6
CONTINUOUS
 10
-65.6230457847
 20
23.2036242707
 40
0.5
100
AcDbArc
 50
224.5
 51
269.0
  0
ARC
  5
82F
100
AcDbEntity
  8
IMPORT_IGES
100
AcDbCircle
 62
7
  6
CONTINUOUS
 10
-42.7215202611
 20
5.9
 40
4.25
100
AcDbArc
 50
217.7318672577
 51
268.6952984612
  0
ARC
  5
830
100
AcDbEntity
  8
IMPORT_IGES
100
AcDbCircle
 62
7
  6
CONTINUOUS
 10
-42.7215202611
 20
5.9
 40
4.25
100
AcDbArc
 50
160.8335726521
 51
169.1708514454
  0
ARC
  5
831
100
AcDbEntity
  8
IMPORT_IGES
100
AcDbCircle
 62
7
  6
CONTINUOUS
 10
-42.721520261
 20
5.9
 40
4.25
100
AcDbArc
 50
270.8276085291
 51
323.1745171189
  0
ARC
  5
832
100
AcDbEntity
  8
IMPORT_IGES
100
AcDbCircle
 62
250
  6
CONTINUOUS
 10
-42.7215202611
 20
5.9
 40
3.8499656026
100
AcDbArc
 50
222.2782598158
 51
318.7181675226
  0
ARC
  5
833
100
AcDbEntity
  8
ASSI
100
AcDbCircle
 62
7
  6
CONTINUOUS
 10
-35.1215202611
 20
7.5
 40
2.1
100
AcDbArc
 50
90.5
 51
154.8959491746
  0
ARC
  5
834
100
AcDbEntity
  8
ASSI
100
AcDbCircle
 62
7
  6
CONTINUOUS
 10
-35.1215202611
 20
7.5
 40
2.1
100
AcDbArc
 50
205.1040508254
 51
269.5
  0
ARC
  5
835
100
AcDbEntity
  8
0
100
AcDbCircle
 62
7
  6
CONTINUOUS
 10
-35.1215202611
 20
7.5
 40
2.1
100
AcDbArc
 50
90.5
 51
154.8959491746
  0
ARC
  5
836
100
AcDbEntity
  8
0
100
AcDbCircle
 62
7
  6
CONTINUOUS
 10
-35.1215202611
 20
7.5
 40
2.1
100
AcDbArc
 50
205.1040508254
 51
269.5
  0
CIRCLE
  5
837
100
AcDbEntity
  8
ASSI
100
AcDbCircle
 62
7
  6
CONTINUOUS
 10
-33.9215202611
 20
7.5
 40
1.0
  0
CIRCLE
  5
838
100
AcDbEntity
  8
IMPORT_IGES
100
AcDbCircle
 62
7
  6
CONTINUOUS
 10
-33.921520262
 20
7.5000000126
 40
0.5500000049
  0
ARC
  5
839
100
AcDbEntity
  8
IMPORT_IGES
100
AcDbCircle
 62
7
  6
CONTINUOUS
 10
-31.2715202612
 20
4.5
 40
1.0
100
AcDbArc
 50
59.6909852584
 51
90.0012863981
  0
ARC
  5
83A
100
AcDbEntity
  8
0
100
AcDbCircle
 62
7
  6
CONTINUOUS
 10
-30.4215202611
 20
2.6
 40
0.4
100
AcDbArc
 50
0.0
 51
90.0
  0
ARC
  5
83B
100
AcDbEntity
  8
0
100
AcDbCircle
 62
7
  6
CONTINUOUS
 10
-30.4215202611
 20
2.6
 40
0.2
100
AcDbArc
 50
0.0
 51
90.0
  0
ARC
  5
83C
100
AcDbEntity
  8
ASSI
100
AcDbCircle
 62
7
  6
CONTINUOUS
 10
-35.1215202611
 20
12.5
 40
2.1
100
AcDbArc
 50
90.5
 51
154.8959491746
  0
ARC
  5
83D
100
AcDbEntity
  8
ASSI
100
AcDbCircle
 62
7
  6
CONTINUOUS
 10
-35.1215202611
 20
12.5
 40
2.1
100
AcDbArc
 50
205.1040508254
 51
269.5
  0
ARC
  5
83E
100
AcDbEntity
  8
0
100
AcDbCircle
 62
7
  6
CONTINUOUS
 10
-35.1215202611
 20
12.5
 40
2.1
100
AcDbArc
 50
90.5
 51
154.8959491746
  0
ARC
  5
83F
100
AcDbEntity
  8
0
100
AcDbCircle
 62
7
  6
CONTINUOUS
 10
-35.1215202611
 20
12.5
 40
2.1
100
AcDbArc
 50
205.1040508254
 51
269.5
  0
CIRCLE
  5
840
100
AcDbEntity
  8
ASSI
100
AcDbCircle
 62
7
  6
CONTINUOUS
 10
-33.9215202611
 20
12.5
 40
1.0
  0
CIRCLE
  5
841
100
AcDbEntity
  8
IMPORT_IGES
100
AcDbCircle
 62
7
  6
CONTINUOUS
 10
-33.921520262
 20
12.4999999948
 40
0.5500000049
  0
ARC
  5
842
100
AcDbEntity
  8
ASSI
100
AcDbCircle
 62
7
  6
CONTINUOUS
 10
425.0784797389
 20
-0.0
 40
500.0
100
AcDbArc
 50
177.5907686986
 51
182.4092313014
  0
ARC
  5
843
100
AcDbEntity
  8
CURVE
100
AcDbCircle
 62
250
  6
CONTINUOUS
 10
425.0784797389
 20
0.0
 40
500.0
100
AcDbArc
 50
181.5207831374
 51
181.5711682564
  0
ARC
  5
844
100
AcDbEntity
  8
CURVE
100
AcDbCircle
 62
250
  6
CONTINUOUS
 10
425.0784797389
 20
0.0
 40
500.0
100
AcDbArc
 50
181.5797768287
 51
182.2006990032
  0
ARC
  5
845
100
AcDbEntity
  8
0
100
AcDbCircle
 62
7
  6
CONTINUOUS
 10
425.0784797389
 20
-0.0
 40
500.0
100
AcDbArc
 50
177.5907686986
 51
182.4092313014
  0
ARC
  5
846
100
AcDbEntity
  8
ASSI
100
AcDbCircle
 62
250
  6
CONTINUOUS
 10
425.0687092956
 20
0.0
 40
499.498956683
100
AcDbArc
 50
177.5907636634
 51
182.4092363366
  0
ARC
  5
847
100
AcDbEntity
  8
0
100
AcDbCircle
 62
250
  6
CONTINUOUS
 10
425.0687092956
 20
0.0
 40
499.498956683
100
AcDbArc
 50
177.5907636634
 51
182.4092363366
  0
SPLINE
  5
848
100
AcDbEntity
  8
ASSI
100
AcDbSpline
 62
7
  6
CONTINUOUS
 70
0
 71
3
 72
8
 73
4
 74
0
 42
0.0000001
 43
0.0000001
 44
0.0000000001
 40
0.0
 40
0.0
 40
0.0
 40
0.0
 40
1.0
 40
1.0
 40
1.0
 40
1.0
 10
3.9355835802
 20
-23.4859750215
 30
0.0
 10
3.969445904
 20
-23.4859967211
 30
0.0
 10
4.0043499025
 20
-23.4768318702
 30
0.0
 10
4.0338463173
 20
-23.4602000045
 30
0.0
  0
SPLINE
  5
849
100
AcDbEntity
  8
ASSI
100
AcDbSpline
 62
7
  6
CONTINUOUS
 70
0
 71
3
 72
8
 73
4
 74
0
 42
0.0000001
 43
0.0000001
 44
0.0000000001
 40
0.0
 40
0.0
 40
0.0
 40
0.0
 40
1.0
 40
1.0
 40
1.0
 40
1.0
 10
-3.9355835802
 20
23.4859750215
 30
0.0
 10
-3.969445904
 20
23.4859967211
 30
0.0
 10
-4.0043499025
 20
23.4768318702
 30
0.0
 10
-4.0338463173
 20
23.4602000045
 30
0.0
  0
SPLINE
  5
84A
100
AcDbEntity
  8
ASSI
100
AcDbSpline
 62
250
  6
CONTINUOUS
 70
0
 71
3
 72
8
 73
4
 74
0
 42
0.0000001
 43
0.0000001
 44
0.0000000001
 40
0.0
 40
0.0
 40
0.0
 40
0.0
 40
1.0
 40
1.0
 40
1.0
 40
1.0
 10
4.4
 20
-23.0992772252
 30
0.0
 10
4.4
 20
-23.0869633882
 30
0.0
 10
4.3975728269
 20
-23.0744735685
 30
0.0
 10
4.3931759782
 20
-23.0629714686
 30
0.0
  0
SPLINE
  5
84B
100
AcDbEntity
  8
ASSI
100
AcDbSpline
 62
250
  6
CONTINUOUS
 70
0
 71
3
 72
9
 73
5
 74
0
 42
0.0000001
 43
0.0000001
 44
0.0000000001
 40
0.0
 40
0.0
 40
0.0
 40
0.0
 40
0.2262132223
 40
1.0
 40
1.0
 40
1.0
 40
1.0
 10
4.3731679987
 20
-23.0291413
 30
0.0
 10
4.3640412032
 20
-23.0180730156
 30
0.0
 10
4.3161206626
 20
-22.9754286985
 30
0.0
 10
4.2490717574
 20
-22.9590953724
 30
0.0
 10
4.2
 20
-22.9590953724
 30
0.0
  0
SPLINE
  5
84C
100
AcDbEntity
  8
ASSI
100
AcDbSpline
 62
250
  6
CONTINUOUS
 70
0
 71
3
 72
8
 73
4
 74
0
 42
0.0000001
 43
0.0000001
 44
0.0000000001
 40
0.0
 40
0.0
 40
0.0
 40
0.0
 40
1.0
 40
1.0
 40
1.0
 40
1.0
 10
4.4
 20
-22.8531696386
 30
0.0
 10
4.4
 20
-22.8449925621
 30
0.0
 10
4.3989495807
 20
-22.8367584337
 30
0.0
 10
4.3969567662
 20
-22.8288279059
 30
0.0
  0
SPLINE
  5
84D
100
AcDbEntity
  8
ASSI
100
AcDbSpline
 62
250
  6
CONTINUOUS
 70
0
 71
3
 72
11
 73
7
 74
0
 42
0.0000001
 43
0.0000001
 44
0.0000000001
 40
0.0
 40
0.0
 40
0.0
 40
0.0
 40
0.2116992882
 40
0.4505680789
 40
0.716978663
 40
1.0
 40
1.0
 40
1.0
 40
1.0
 10
4.3969567662
 20
-22.8288279059
 30
0.0
 10
4.3927685048
 20
-22.8121604627
 30
0.0
 10
4.3745035255
 20
-22.7788153655
 30
0.0
 10
4.3280960205
 20
-22.7419376234
 30
0.0
 10
4.2677889748
 20
-22.7183336623
 30
0.0
 10
4.2229754876
 20
-22.7129877857
 30
0.0
 10
4.2
 20
-22.7129877857
 30
0.0
  0
SPLINE
  5
84E
100
AcDbEntity
  8
ASSI
100
AcDbSpline
 62
250
  6
CONTINUOUS
 70
0
 71
3
 72
8
 73
4
 74
0
 42
0.0000001
 43
0.0000001
 44
0.0000000001
 40
0.0
 40
0.0
 40
0.0
 40
0.0
 40
1.0
 40
1.0
 40
1.0
 40
1.0
 10
-4.4
 20
-22.8531696386
 30
0.0
 10
-4.4
 20
-22.8449925621
 30
0.0
 10
-4.3989495807
 20
-22.8367584337
 30
0.0
 10
-4.3969567662
 20
-22.8288279059
 30
0.0
  0
SPLINE
  5
84F
100
AcDbEntity
  8
ASSI
100
AcDbSpline
 62
250
  6
CONTINUOUS
 70
0
 71
3
 72
11
 73
7
 74
0
 42
0.0000001
 43
0.0000001
 44
0.0000000001
 40
0.0
 40
0.0
 40
0.0
 40
0.0
 40
0.2116992882
 40
0.4505680789
 40
0.716978663
 40
1.0
 40
1.0
 40
1.0
 40
1.0
 10
-4.3969567662
 20
-22.8288279059
 30
0.0
 10
-4.3927685048
 20
-22.8121604627
 30
0.0
 10
-4.3745035255
 20
-22.7788153655
 30
0.0
 10
-4.3280960205
 20
-22.7419376234
 30
0.0
 10
-4.2677889748
 20
-22.7183336623
 30
0.0
 10
-4.2229754876
 20
-22.7129877857
 30
0.0
 10
-4.2
 20
-22.7129877857
 30
0.0
  0
SPLINE
  5
850
100
AcDbEntity
  8
ASSI
100
AcDbSpline
 62
250
  6
CONTINUOUS
 70
0
 71
3
 72
8
 73
4
 74
0
 42
0.0000001
 43
0.0000001
 44
0.0000000001
 40
0.0
 40
0.0
 40
0.0
 40
0.0
 40
1.0
 40
1.0
 40
1.0
 40
1.0
 10
-4.4
 20
-23.0992772252
 30
0.0
 10
-4.4
 20
-23.0869632292
 30
0.0
 10
-4.3975727613
 20
-23.0744732448
 30
0.0
 10
-4.3931758049
 20
-23.0629710157
 30
0.0
  0
SPLINE
  5
851
100
AcDbEntity
  8
ASSI
100
AcDbSpline
 62
250
  6
CONTINUOUS
 70
0
 71
3
 72
9
 73
5
 74
0
 42
0.0000001
 43
0.0000001
 44
0.0000000001
 40
0.0
 40
0.0
 40
0.0
 40
0.0
 40
0.2262132289
 40
1.0
 40
1.0
 40
1.0
 40
1.0
 10
-4.3731680108
 20
-23.0291413147
 30
0.0
 10
-4.3640412154
 20
-23.0180730279
 30
0.0
 10
-4.3161206748
 20
-22.9754287011
 30
0.0
 10
-4.2490717617
 20
-22.9590953724
 30
0.0
 10
-4.2
 20
-22.9590953724
 30
0.0
  0
SPLINE
  5
852
100
AcDbEntity
  8
ASSI
100
AcDbSpline
 62
250
  6
CONTINUOUS
 70
0
 71
3
 72
8
 73
4
 74
0
 42
0.0000001
 43
0.0000001
 44
0.0000000001
 40
0.0
 40
0.0
 40
0.0
 40
0.0
 40
1.0
 40
1.0
 40
1.0
 40
1.0
 10
4.4
 20
22.8531696386
 30
0.0
 10
4.4
 20
22.8449925621
 30
0.0
 10
4.3989495807
 20
22.8367584337
 30
0.0
 10
4.3969567662
 20
22.8288279059
 30
0.0
  0
SPLINE
  5
853
100
AcDbEntity
  8
ASSI
100
AcDbSpline
 62
250
  6
CONTINUOUS
 70
0
 71
3
 72
11
 73
7
 74
0
 42
0.0000001
 43
0.0000001
 44
0.0000000001
 40
0.0
 40
0.0
 40
0.0
 40
0.0
 40
0.2116992882
 40
0.4505680789
 40
0.716978663
 40
1.0
 40
1.0
 40
1.0
 40
1.0
 10
4.3969567662
 20
22.8288279059
 30
0.0
 10
4.3927685048
 20
22.8121604627
 30
0.0
 10
4.3745035255
 20
22.7788153655
 30
0.0
 10
4.3280960205
 20
22.7419376234
 30
0.0
 10
4.2677889748
 20
22.7183336623
 30
0.0
 10
4.2229754876
 20
22.7129877857
 30
0.0
 10
4.2
 20
22.7129877857
 30
0.0
  0
SPLINE
  5
854
100
AcDbEntity
  8
ASSI
100
AcDbSpline
 62
250
  6
CONTINUOUS
 70
0
 71
3
 72
8
 73
4
 74
0
 42
0.0000001
 43
0.0000001
 44
0.0000000001
 40
0.0
 40
0.0
 40
0.0
 40
0.0
 40
1.0
 40
1.0
 40
1.0
 40
1.0
 10
4.4
 20
23.0992772252
 30
0.0
 10
4.4
 20
23.0869632292
 30
0.0
 10
4.3975727613
 20
23.0744732448
 30
0.0
 10
4.3931758049
 20
23.0629710157
 30
0.0
  0
SPLINE
  5
855
100
AcDbEntity
  8
ASSI
100
AcDbSpline
 62
250
  6
CONTINUOUS
 70
0
 71
3
 72
9
 73
5
 74
0
 42
0.0000001
 43
0.0000001
 44
0.0000000001
 40
0.0
 40
0.0
 40
0.0
 40
0.0
 40
0.2262132289
 40
1.0
 40
1.0
 40
1.0
 40
1.0
 10
4.3731680108
 20
23.0291413147
 30
0.0
 10
4.3640412154
 20
23.0180730279
 30
0.0
 10
4.3161206748
 20
22.9754287011
 30
0.0
 10
4.2490717617
 20
22.9590953724
 30
0.0
 10
4.2
 20
22.9590953724
 30
0.0
  0
SPLINE
  5
856
100
AcDbEntity
  8
ASSI
100
AcDbSpline
 62
250
  6
CONTINUOUS
 70
0
 71
3
 72
8
 73
4
 74
0
 42
0.0000001
 43
0.0000001
 44
0.0000000001
 40
0.0
 40
0.0
 40
0.0
 40
0.0
 40
1.0
 40
1.0
 40
1.0
 40
1.0
 10
-4.4
 20
23.0992772252
 30
0.0
 10
-4.4
 20
23.0869633882
 30
0.0
 10
-4.3975728269
 20
23.0744735685
 30
0.0
 10
-4.3931759782
 20
23.0629714686
 30
0.0
  0
SPLINE
  5
857
100
AcDbEntity
  8
ASSI
100
AcDbSpline
 62
250
  6
CONTINUOUS
 70
0
 71
3
 72
9
 73
5
 74
0
 42
0.0000001
 43
0.0000001
 44
0.0000000001
 40
0.0
 40
0.0
 40
0.0
 40
0.0
 40
0.2262132223
 40
1.0
 40
1.0
 40
1.0
 40
1.0
 10
-4.3731679987
 20
23.0291413
 30
0.0
 10
-4.3640412032
 20
23.0180730156
 30
0.0
 10
-4.3161206626
 20
22.9754286985
 30
0.0
 10
-4.2490717574
 20
22.9590953724
 30
0.0
 10
-4.2
 20
22.9590953724
 30
0.0
  0
SPLINE
  5
858
100
AcDbEntity
  8
ASSI
100
AcDbSpline
 62
250
  6
CONTINUOUS
 70
0
 71
3
 72
8
 73
4
 74
0
 42
0.0000001
 43
0.0000001
 44
0.0000000001
 40
0.0
 40
0.0
 40
0.0
 40
0.0
 40
1.0
 40
1.0
 40
1.0
 40
1.0
 10
-4.4
 20
22.8531696386
 30
0.0
 10
-4.4
 20
22.8449925621
 30
0.0
 10
-4.3989495807
 20
22.8367584337
 30
0.0
 10
-4.3969567662
 20
22.8288279059
 30
0.0
  0
SPLINE
  5
859
100
AcDbEntity
  8
ASSI
100
AcDbSpline
 62
250
  6
CONTINUOUS
 70
0
 71
3
 72
11
 73
7
 74
0
 42
0.0000001
 43
0.0000001
 44
0.0000000001
 40
0.0
 40
0.0
 40
0.0
 40
0.0
 40
0.2116992882
 40
0.4505680789
 40
0.716978663
 40
1.0
 40
1.0
 40
1.0
 40
1.0
 10
-4.3969567662
 20
22.8288279059
 30
0.0
 10
-4.3927685048
 20
22.8121604627
 30
0.0
 10
-4.3745035255
 20
22.7788153655
 30
0.0
 10
-4.3280960205
 20
22.7419376234
 30
0.0
 10
-4.2677889748
 20
22.7183336623
 30
0.0
 10
-4.2229754876
 20
22.7129877857
 30
0.0
 10
-4.2
 20
22.7129877857
 30
0.0
  0
SPLINE
  5
85A
100
AcDbEntity
  8
ASSI
100
AcDbSpline
 62
250
  6
CONTINUOUS
 70
0
 71
3
 72
8
 73
4
 74
0
 42
0.0000001
 43
0.0000001
 44
0.0000000001
 40
0.0
 40
0.0
 40
0.0
 40
0.0
 40
1.0
 40
1.0
 40
1.0
 40
1.0
 10
-4.0448323829
 20
-23.4535307017
 30
0.0
 10
-4.0164651519
 20
-23.4720299226
 30
0.0
 10
-3.9822139916
 20
-23.4834046607
 30
0.0
 10
-3.9484168893
 20
-23.4855672643
 30
0.0
  0
SPLINE
  5
85B
100
AcDbEntity
  8
ASSI
100
AcDbSpline
 62
250
  6
CONTINUOUS
 70
0
 71
3
 72
8
 73
4
 74
0
 42
0.0000001
 43
0.0000001
 44
0.0000000001
 40
0.0
 40
0.0
 40
0.0
 40
0.0
 40
1.0
 40
1.0
 40
1.0
 40
1.0
 10
4.0448323829
 20
23.4535307017
 30
0.0
 10
4.0164651519
 20
23.4720299226
 30
0.0
 10
3.9822139916
 20
23.4834046607
 30
0.0
 10
3.9484168893
 20
23.4855672643
 30
0.0
  0
SPLINE
  5
85C
100
AcDbEntity
  8
0
100
AcDbSpline
 62
7
  6
CONTINUOUS
 70
0
 71
3
 72
8
 73
4
 74
0
 42
0.0000001
 43
0.0000001
 44
0.0000000001
 40
0.0
 40
0.0
 40
0.0
 40
0.0
 40
1.0
 40
1.0
 40
1.0
 40
1.0
 10
-3.9485140349
 20
23.4855619852
 30
0.0
 10
-3.978088069
 20
23.4836551713
 30
0.0
 10
-4.007920079
 20
23.4747980916
 30
0.0
 10
-4.033743355
 20
23.4602578766
 30
0.0
  0
SPLINE
  5
85D
100
AcDbEntity
  8
0
100
AcDbSpline
 62
7
  6
CONTINUOUS
 70
0
 71
3
 72
8
 73
4
 74
0
 42
0.0000001
 43
0.0000001
 44
0.0000000001
 40
0.0
 40
0.0
 40
0.0
 40
0.0
 40
1.0
 40
1.0
 40
1.0
 40
1.0
 10
3.9485140349
 20
-23.4855619852
 30
0.0
 10
3.978088069
 20
-23.4836551713
 30
0.0
 10
4.007920079
 20
-23.4747980916
 30
0.0
 10
4.033743355
 20
-23.4602578766
 30
0.0
  0
SPLINE
  5
85E
100
AcDbEntity
  8
0
100
AcDbSpline
 62
250
  6
CONTINUOUS
 70
0
 71
3
 72
8
 73
4
 74
0
 42
0.0000001
 43
0.0000001
 44
0.0000000001
 40
0.0
 40
0.0
 40
0.0
 40
0.0
 40
1.0
 40
1.0
 40
1.0
 40
1.0
 10
4.0448323829
 20
23.4535307017
 30
0.0
 10
4.0234541759
 20
23.4674721461
 30
0.0
 10
3.9989247993
 20
23.4774169253
 30
0.0
 10
3.9738722569
 20
23.4822915257
 30
0.0
  0
SPLINE
  5
85F
100
AcDbEntity
  8
0
100
AcDbSpline
 62
250
  6
CONTINUOUS
 70
0
 71
3
 72
8
 73
4
 74
0
 42
0.0000001
 43
0.0000001
 44
0.0000000001
 40
0.0
 40
0.0
 40
0.0
 40
0.0
 40
1.0
 40
1.0
 40
1.0
 40
1.0
 10
-4.0448323829
 20
-23.4535307017
 30
0.0
 10
-4.0234541759
 20
-23.4674721461
 30
0.0
 10
-3.9989247993
 20
-23.4774169253
 30
0.0
 10
-3.9738722569
 20
-23.4822915257
 30
0.0
  0
LINE
  5
860
100
AcDbEntity
  8
0
100
AcDbLine
 62
250
  6
CONTINUOUS
 10
-3.9355835677
 20
-23.4859750215
 11
-3.9140555432
 21
-23.5
  0
LINE
  5
861
100
AcDbEntity
  8
0
100
AcDbLine
 62
250
  6
CONTINUOUS
 10
3.9355835654
 20
23.4859750215
 11
3.9140555432
 21
23.5
  0
SPLINE
  5
862
100
AcDbEntity
  8
0
100
AcDbSpline
 62
250
  6
CONTINUOUS
 70
0
 71
3
 72
11
 73
7
 74
0
 42
0.0000001
 43
0.0000001
 44
0.0000000001
 40
0.0
 40
0.0
 40
0.0
 40
0.0
 40
0.2108277746
 40
0.4486476793
 40
0.7155737559
 40
1.0
 40
1.0
 40
1.0
 40
1.0
 10
-4.3982687759
 20
22.8348741108
 30
0.0
 10
-4.3950107115
 20
22.8176395069
 30
0.0
 10
-4.3780329461
 20
22.7825825273
 30
0.0
 10
-4.3313931387
 20
22.7436209141
 30
0.0
 10
-4.2697661121
 20
22.7186541552
 30
0.0
 10
-4.2236628946
 20
22.7129877857
 30
0.0
 10
-4.2
 20
22.7129877857
 30
0.0
  0
SPLINE
  5
863
100
AcDbEntity
  8
0
100
AcDbSpline
 62
250
  6
CONTINUOUS
 70
0
 71
3
 72
8
 73
4
 74
0
 42
0.0000001
 43
0.0000001
 44
0.0000000001
 40
0.0
 40
0.0
 40
0.0
 40
0.0
 40
1.0
 40
1.0
 40
1.0
 40
1.0
 10
-4.4
 20
23.0992772252
 30
0.0
 10
-4.4
 20
23.0869650119
 30
0.0
 10
-4.3975438638
 20
23.0744838391
 30
0.0
 10
-4.3931552745
 20
23.0629803231
 30
0.0
  0
SPLINE
  5
864
100
AcDbEntity
  8
0
100
AcDbSpline
 62
250
  6
CONTINUOUS
 70
0
 71
3
 72
8
 73
4
 74
0
 42
0.0000001
 43
0.0000001
 44
0.0000000001
 40
0.0
 40
0.0
 40
0.0
 40
0.0
 40
1.0
 40
1.0
 40
1.0
 40
1.0
 10
-4.3847381414
 20
23.0455680931
 30
0.0
 10
-4.3813089576
 20
23.039764902
 30
0.0
 10
-4.3773779553
 20
23.0342380044
 30
0.0
 10
-4.3730831956
 20
23.0290426828
 30
0.0
  0
SPLINE
  5
865
100
AcDbEntity
  8
0
100
AcDbSpline
 62
250
  6
CONTINUOUS
 70
0
 71
3
 72
9
 73
5
 74
0
 42
0.0000001
 43
0.0000001
 44
0.0000000001
 40
0.0
 40
0.0
 40
0.0
 40
0.0
 40
0.2261905003
 40
1.0
 40
1.0
 40
1.0
 40
1.0
 10
-4.3730831956
 20
23.0290426828
 30
0.0
 10
-4.3639496975
 20
23.0179939949
 30
0.0
 10
-4.3160469803
 20
22.9753995607
 30
0.0
 10
-4.2490410296
 20
22.9590953724
 30
0.0
 10
-4.2
 20
22.9590953724
 30
0.0
  0
SPLINE
  5
866
100
AcDbEntity
  8
0
100
AcDbSpline
 62
250
  6
CONTINUOUS
 70
0
 71
3
 72
8
 73
4
 74
0
 42
0.0000001
 43
0.0000001
 44
0.0000000001
 40
0.0
 40
0.0
 40
0.0
 40
0.0
 40
1.0
 40
1.0
 40
1.0
 40
1.0
 10
4.4
 20
23.0992772252
 30
0.0
 10
4.4
 20
23.0869623152
 30
0.0
 10
4.3975425174
 20
23.0744784016
 30
0.0
 10
4.3931521397
 20
23.0629726816
 30
0.0
  0
SPLINE
  5
867
100
AcDbEntity
  8
0
100
AcDbSpline
 62
250
  6
CONTINUOUS
 70
0
 71
3
 72
8
 73
4
 74
0
 42
0.0000001
 43
0.0000001
 44
0.0000000001
 40
0.0
 40
0.0
 40
0.0
 40
0.0
 40
1.0
 40
1.0
 40
1.0
 40
1.0
 10
4.384753714
 20
23.0455944151
 30
0.0
 10
4.3813429295
 20
23.0398187384
 30
0.0
 10
4.3774351444
 20
23.0343165739
 30
0.0
 10
4.3731663746
 20
23.0291426492
 30
0.0
  0
SPLINE
  5
868
100
AcDbEntity
  8
0
100
AcDbSpline
 62
250
  6
CONTINUOUS
 70
0
 71
3
 72
9
 73
5
 74
0
 42
0.0000001
 43
0.0000001
 44
0.0000000001
 40
0.0
 40
0.0
 40
0.0
 40
0.0
 40
0.2261446672
 40
1.0
 40
1.0
 40
1.0
 40
1.0
 10
4.3731663746
 20
23.0291426492
 30
0.0
 10
4.3640393283
 20
23.0180802934
 30
0.0
 10
4.316133363
 20
22.9754232818
 30
0.0
 10
4.2490758779
 20
22.9590953724
 30
0.0
 10
4.2
 20
22.9590953724
 30
0.0
  0
SPLINE
  5
869
100
AcDbEntity
  8
0
100
AcDbSpline
 62
250
  6
CONTINUOUS
 70
0
 71
3
 72
11
 73
7
 74
0
 42
0.0000001
 43
0.0000001
 44
0.0000000001
 40
0.0
 40
0.0
 40
0.0
 40
0.0
 40
0.2108277746
 40
0.4486476793
 40
0.7155737559
 40
1.0
 40
1.0
 40
1.0
 40
1.0
 10
4.3982687759
 20
22.8348741108
 30
0.0
 10
4.3950107115
 20
22.8176395069
 30
0.0
 10
4.3780329461
 20
22.7825825273
 30
0.0
 10
4.3313931387
 20
22.7436209141
 30
0.0
 10
4.2697661121
 20
22.7186541552
 30
0.0
 10
4.2236628946
 20
22.7129877857
 30
0.0
 10
4.2
 20
22.7129877857
 30
0.0
  0
SPLINE
  5
86A
100
AcDbEntity
  8
0
100
AcDbSpline
 62
250
  6
CONTINUOUS
 70
0
 71
3
 72
8
 73
4
 74
0
 42
0.0000001
 43
0.0000001
 44
0.0000000001
 40
0.0
 40
0.0
 40
0.0
 40
0.0
 40
1.0
 40
1.0
 40
1.0
 40
1.0
 10
-4.4
 20
-23.0992772252
 30
0.0
 10
-4.4
 20
-23.0869623152
 30
0.0
 10
-4.3975425174
 20
-23.0744784016
 30
0.0
 10
-4.3931521397
 20
-23.0629726816
 30
0.0
  0
SPLINE
  5
86B
100
AcDbEntity
  8
0
100
AcDbSpline
 62
250
  6
CONTINUOUS
 70
0
 71
3
 72
8
 73
4
 74
0
 42
0.0000001
 43
0.0000001
 44
0.0000000001
 40
0.0
 40
0.0
 40
0.0
 40
0.0
 40
1.0
 40
1.0
 40
1.0
 40
1.0
 10
-4.384753714
 20
-23.0455944151
 30
0.0
 10
-4.3813429295
 20
-23.0398187384
 30
0.0
 10
-4.3774351444
 20
-23.0343165739
 30
0.0
 10
-4.3731663746
 20
-23.0291426492
 30
0.0
  0
SPLINE
  5
86C
100
AcDbEntity
  8
0
100
AcDbSpline
 62
250
  6
CONTINUOUS
 70
0
 71
3
 72
9
 73
5
 74
0
 42
0.0000001
 43
0.0000001
 44
0.0000000001
 40
0.0
 40
0.0
 40
0.0
 40
0.0
 40
0.2261446672
 40
1.0
 40
1.0
 40
1.0
 40
1.0
 10
-4.3731663746
 20
-23.0291426492
 30
0.0
 10
-4.3640393283
 20
-23.0180802934
 30
0.0
 10
-4.316133363
 20
-22.9754232818
 30
0.0
 10
-4.2490758779
 20
-22.9590953724
 30
0.0
 10
-4.2
 20
-22.9590953724
 30
0.0
  0
SPLINE
  5
86D
100
AcDbEntity
  8
0
100
AcDbSpline
 62
250
  6
CONTINUOUS
 70
0
 71
3
 72
11
 73
7
 74
0
 42
0.0000001
 43
0.0000001
 44
0.0000000001
 40
0.0
 40
0.0
 40
0.0
 40
0.0
 40
0.2108277746
 40
0.4486476793
 40
0.7155737559
 40
1.0
 40
1.0
 40
1.0
 40
1.0
 10
-4.3982687759
 20
-22.8348741108
 30
0.0
 10
-4.3950107115
 20
-22.8176395069
 30
0.0
 10
-4.3780329461
 20
-22.7825825273
 30
0.0
 10
-4.3313931387
 20
-22.7436209141
 30
0.0
 10
-4.2697661121
 20
-22.7186541552
 30
0.0
 10
-4.2236628946
 20
-22.7129877857
 30
0.0
 10
-4.2
 20
-22.7129877857
 30
0.0
  0
SPLINE
  5
86E
100
AcDbEntity
  8
0
100
AcDbSpline
 62
250
  6
CONTINUOUS
 70
0
 71
3
 72
11
 73
7
 74
0
 42
0.0000001
 43
0.0000001
 44
0.0000000001
 40
0.0
 40
0.0
 40
0.0
 40
0.0
 40
0.2108277746
 40
0.4486476793
 40
0.7155737559
 40
1.0
 40
1.0
 40
1.0
 40
1.0
 10
4.3982687759
 20
-22.8348741108
 30
0.0
 10
4.3950107115
 20
-22.8176395069
 30
0.0
 10
4.3780329461
 20
-22.7825825273
 30
0.0
 10
4.3313931387
 20
-22.7436209141
 30
0.0
 10
4.2697661121
 20
-22.7186541552
 30
0.0
 10
4.2236628946
 20
-22.7129877857
 30
0.0
 10
4.2
 20
-22.7129877857
 30
0.0
  0
SPLINE
  5
86F
100
AcDbEntity
  8
0
100
AcDbSpline
 62
250
  6
CONTINUOUS
 70
0
 71
3
 72
8
 73
4
 74
0
 42
0.0000001
 43
0.0000001
 44
0.0000000001
 40
0.0
 40
0.0
 40
0.0
 40
0.0
 40
1.0
 40
1.0
 40
1.0
 40
1.0
 10
4.4
 20
-23.0992772252
 30
0.0
 10
4.4
 20
-23.0869650119
 30
0.0
 10
4.3975438638
 20
-23.0744838391
 30
0.0
 10
4.3931552745
 20
-23.0629803231
 30
0.0
  0
SPLINE
  5
870
100
AcDbEntity
  8
0
100
AcDbSpline
 62
250
  6
CONTINUOUS
 70
0
 71
3
 72
8
 73
4
 74
0
 42
0.0000001
 43
0.0000001
 44
0.0000000001
 40
0.0
 40
0.0
 40
0.0
 40
0.0
 40
1.0
 40
1.0
 40
1.0
 40
1.0
 10
4.3847381414
 20
-23.0455680931
 30
0.0
 10
4.3813089576
 20
-23.039764902
 30
0.0
 10
4.3773779553
 20
-23.0342380044
 30
0.0
 10
4.3730831956
 20
-23.0290426828
 30
0.0
  0
SPLINE
  5
871
100
AcDbEntity
  8
0
100
AcDbSpline
 62
250
  6
CONTINUOUS
 70
0
 71
3
 72
9
 73
5
 74
0
 42
0.0000001
 43
0.0000001
 44
0.0000000001
 40
0.0
 40
0.0
 40
0.0
 40
0.0
 40
0.2261905003
 40
1.0
 40
1.0
 40
1.0
 40
1.0
 10
4.3730831956
 20
-23.0290426828
 30
0.0
 10
4.3639496975
 20
-23.0179939949
 30
0.0
 10
4.3160469803
 20
-22.9753995607
 30
0.0
 10
4.2490410296
 20
-22.9590953724
 30
0.0
 10
4.2
 20
-22.9590953724
 30
0.0
  0
LINE
  5
872
100
AcDbEntity
  8
ASSI
100
AcDbLine
 62
250
  6
CONTINUOUS
 10
-2.7469045881
 20
4.25
 11
-2.746756823
 21
5.15
  0
LINE
  5
873
100
AcDbEntity
  8
ASSI
100
AcDbLine
 62
250
  6
CONTINUOUS
 10
7.046756823
 20
5.15
 11
7.0469045881
 21
4.25
  0
SPLINE
  5
874
100
AcDbEntity
  8
ASSI
100
AcDbSpline
 62
250
  6
CONTINUOUS
 70
0
 71
3
 72
17
 73
13
 74
0
 42
0.0000001
 43
0.0000001
 44
0.0000000001
 40
0.0
 40
0.0
 40
0.0
 40
0.0
 40
0.378661921
 40
0.5502050858
 40
0.7009387667
 40
0.825320917
 40
0.8762058911
 40
0.9188458308
 40
0.9527668736
 40
0.9777218101
 40
0.9935226197
 40
1.0
 40
1.0
 40
1.0
 40
1.0
 10
7.3468588966
 20
4.2525515313
 30
0.0
 10
7.3089939424
 20
4.2525459106
 30
0.0
 10
7.2539753242
 20
4.2524532156
 30
0.0
 10
7.1838840196
 20
4.2521370611
 30
0.0
 10
7.1392215159
 20
4.2518298253
 30
0.0
 10
7.1066216678
 20
4.2515146628
 30
0.0
 10
7.084837408
 20
4.2512062893
 30
0.0
 10
7.0720869044
 20
4.2510086577
 30
0.0
 10
7.0619598601
 20
4.2507278923
 30
0.0
 10
7.0544443147
 20
4.2506328295
 30
0.0
 10
7.0498229358
 20
4.2501715423
 30
0.0
 10
7.0474868215
 20
4.2502837989
 30
0.0
 10
7.0469045874
 20
4.2500000024
 30
0.0
  0
SPLINE
  5
875
100
AcDbEntity
  8
ASSI
100
AcDbSpline
 62
250
  6
CONTINUOUS
 70
0
 71
3
 72
16
 73
12
 74
0
 42
0.0000001
 43
0.0000001
 44
0.0000000001
 40
0.0
 40
0.0
 40
0.0
 40
0.0
 40
0.009516323
 40
0.027818877
 40
0.0547607558
 40
0.0901211737
 40
0.1847844843
 40
0.30862854
 40
0.4574562602
 40
0.6261565798
 40
1.0
 40
1.0
 40
1.0
 40
1.0
 10
10.5087981167
 20
-21.9749071372
 30
0.0
 10
10.5082977502
 20
-21.9719139499
 30
0.0
 10
10.5078547024
 20
-21.9630276484
 30
0.0
 10
10.5070265244
 20
-21.9456023734
 30
0.0
 10
10.5063456215
 20
-21.919896643
 30
0.0
 10
10.5052440926
 20
-21.8698582114
 30
0.0
 10
10.5040997522
 20
-21.7889041041
 30
0.0
 10
10.5029144017
 20
-21.6717699283
 30
0.0
 10
10.5019374017
 20
-21.5310204539
 30
0.0
 10
10.50089938
 20
-21.3105471481
 30
0.0
 10
10.500578556
 20
-21.1375315734
 30
0.0
 10
10.5005350625
 20
-21.0183142309
 30
0.0
  0
SPLINE
  5
876
100
AcDbEntity
  8
ASSI
100
AcDbSpline
 62
250
  6
CONTINUOUS
 70
0
 71
3
 72
16
 73
12
 74
0
 42
0.0000001
 43
0.0000001
 44
0.0000000001
 40
0.0
 40
0.0
 40
0.0
 40
0.0
 40
0.0096159036
 40
0.0279701207
 40
0.0549445032
 40
0.0903232102
 40
0.184988416
 40
0.3088051173
 40
0.4576013364
 40
0.6262585176
 40
1.0
 40
1.0
 40
1.0
 40
1.0
 10
11.0087219643
 20
-21.4755923698
 30
0.0
 10
11.0082352887
 20
-21.4741379329
 30
0.0
 10
11.0077707891
 20
-21.4696532467
 30
0.0
 10
11.0069565246
 20
-21.4609605371
 30
0.0
 10
11.0062676687
 20
-21.4480880954
 30
0.0
 10
11.0051703645
 20
-21.4230776648
 30
0.0
 10
11.0040232599
 20
-21.3825955807
 30
0.0
 10
11.002838607
 20
-21.3240310648
 30
0.0
 10
11.0018609028
 20
-21.25365531
 30
0.0
 10
11.0008231219
 20
-21.143417441
 30
0.0
 10
11.0005025008
 20
-21.0569062955
 30
0.0
 10
11.0004589101
 20
-20.9972959167
 30
0.0
  0
SPLINE
  5
877
100
AcDbEntity
  8
ASSI
100
AcDbSpline
 62
250
  6
CONTINUOUS
 70
0
 71
3
 72
9
 73
5
 74
0
 42
0.0000001
 43
0.0000001
 44
0.0000000001
 40
0.0
 40
0.0
 40
0.0
 40
0.0
 40
0.2499439267
 40
1.0
 40
1.0
 40
1.0
 40
1.0
 10
10.5005350625
 20
-21.0183142309
 30
0.0
 10
10.4979655713
 20
-17.5160483361
 30
0.0
 10
10.490259949
 20
-3.5038401436
 30
0.0
 10
10.4928242836
 20
10.5083737031
 30
0.0
 10
10.5005350625
 20
21.0183142309
 30
0.0
  0
SPLINE
  5
878
100
AcDbEntity
  8
ASSI
100
AcDbSpline
 62
250
  6
CONTINUOUS
 70
0
 71
3
 72
9
 73
5
 74
0
 42
0.0000001
 43
0.0000001
 44
0.0000000001
 40
0.0
 40
0.0
 40
0.0
 40
0.0
 40
0.2499439267
 40
1.0
 40
1.0
 40
1.0
 40
1.0
 10
11.0004589101
 20
-20.9972959167
 30
0.0
 10
10.9978894189
 20
-17.4985322888
 30
0.0
 10
10.9901837966
 20
-3.5003363071
 30
0.0
 10
10.9927481312
 20
10.4978653344
 30
0.0
 10
11.0004589101
 20
20.9972959167
 30
0.0
  0
SPLINE
  5
879
100
AcDbEntity
  8
ASSI
100
AcDbSpline
 62
250
  6
CONTINUOUS
 70
0
 71
3
 72
18
 73
14
 74
0
 42
0.0000001
 43
0.0000001
 44
0.0000000001
 40
0.0
 40
0.0
 40
0.0
 40
0.0
 40
0.192282469
 40
0.3777070261
 40
0.5487339137
 40
0.6991742156
 40
0.8234830531
 40
0.8742943669
 40
0.9169375246
 40
0.9510094033
 40
0.976200234
 40
0.9924262434
 40
1.0
 40
1.0
 40
1.0
 40
1.0
 10
10.5005350625
 20
-21.0183142305
 30
0.0
 10
10.5326675573
 20
-21.0182906746
 30
0.0
 10
10.5957867702
 20
-21.0179890035
 30
0.0
 10
10.6874789258
 20
-21.0167916539
 30
0.0
 10
10.7721681786
 20
-21.0148969574
 30
0.0
 10
10.8466161933
 20
-21.0123796061
 30
0.0
 10
10.9009731179
 20
-21.0097408458
 30
0.0
 10
10.9372618646
 20
-21.0072735074
 30
0.0
 10
10.9585410331
 20
-21.0054779363
 30
0.0
 10
10.9753567037
 20
-21.0036106491
 30
0.0
 10
10.9881130048
 20
-21.0017802208
 30
0.0
 10
10.9955742199
 20
-20.9999076348
 30
0.0
 10
10.9999740369
 20
-20.9984650133
 30
0.0
 10
11.0004589101
 20
-20.9972959167
 30
0.0
  0
SPLINE
  5
87A
100
AcDbEntity
  8
ASSI
100
AcDbSpline
 62
250
  6
CONTINUOUS
 70
0
 71
3
 72
16
 73
12
 74
0
 42
0.0000001
 43
0.0000001
 44
0.0000000001
 40
0.0
 40
0.0
 40
0.0
 40
0.0
 40
0.3738434202
 40
0.5425437398
 40
0.69137146
 40
0.8152155157
 40
0.9098788264
 40
0.9452392442
 40
0.9721811228
 40
0.9904836768
 40
1.0
 40
1.0
 40
1.0
 40
1.0
 10
10.5005350625
 20
21.0183142309
 30
0.0
 10
10.5005785559
 20
21.1375315734
 30
0.0
 10
10.50089938
 20
21.3105471481
 30
0.0
 10
10.5019374016
 20
21.5310204539
 30
0.0
 10
10.5029144017
 20
21.6717699283
 30
0.0
 10
10.5040997522
 20
21.7889041042
 30
0.0
 10
10.5052440926
 20
21.8698582114
 30
0.0
 10
10.5063456216
 20
21.919896643
 30
0.0
 10
10.5070265244
 20
21.9456023733
 30
0.0
 10
10.5078547023
 20
21.9630276482
 30
0.0
 10
10.5082977501
 20
21.9719139498
 30
0.0
 10
10.5087981167
 20
21.9749071372
 30
0.0
  0
SPLINE
  5
87B
100
AcDbEntity
  8
ASSI
100
AcDbSpline
 62
250
  6
CONTINUOUS
 70
0
 71
3
 72
16
 73
12
 74
0
 42
0.0000001
 43
0.0000001
 44
0.0000000001
 40
0.0
 40
0.0
 40
0.0
 40
0.0
 40
0.3737414825
 40
0.5423986639
 40
0.6911948827
 40
0.8150115835
 40
0.9096767904
 40
0.9450554975
 40
0.9720298788
 40
0.9903840948
 40
1.0
 40
1.0
 40
1.0
 40
1.0
 10
11.0004589101
 20
20.9972959167
 30
0.0
 10
11.0005025007
 20
21.0569062955
 30
0.0
 10
11.0008231219
 20
21.143417441
 30
0.0
 10
11.0018609027
 20
21.25365531
 30
0.0
 10
11.002838607
 20
21.3240310648
 30
0.0
 10
11.0040232599
 20
21.3825955807
 30
0.0
 10
11.0051703645
 20
21.4230776649
 30
0.0
 10
11.0062676686
 20
21.4480880956
 30
0.0
 10
11.0069565247
 20
21.4609605368
 30
0.0
 10
11.007770789
 20
21.4696532464
 30
0.0
 10
11.008235289
 20
21.4741379326
 30
0.0
 10
11.0087219643
 20
21.4755923698
 30
0.0
  0
SPLINE
  5
87C
100
AcDbEntity
  8
ASSI
100
AcDbSpline
 62
250
  6
CONTINUOUS
 70
0
 71
3
 72
18
 73
14
 74
0
 42
0.0000001
 43
0.0000001
 44
0.0000000001
 40
0.0
 40
0.0
 40
0.0
 40
0.0
 40
0.1922777651
 40
0.3776984417
 40
0.5487229375
 40
0.6991626459
 40
0.8234726619
 40
0.8742851559
 40
0.9169298173
 40
0.9510034654
 40
0.9761962651
 40
0.9924243591
 40
1.0
 40
1.0
 40
1.0
 40
1.0
 10
10.5005350626
 20
21.0183132877
 30
0.0
 10
10.5326667497
 20
21.0182897271
 30
0.0
 10
10.5957844854
 20
21.0179880654
 30
0.0
 10
10.6874747463
 20
21.0167907814
 30
0.0
 10
10.7721627952
 20
21.0148961931
 30
0.0
 10
10.8466104667
 20
21.0123789752
 30
0.0
 10
10.9009676446
 20
21.0097403526
 30
0.0
 10
10.9372570394
 20
21.007273127
 30
0.0
 10
10.9585369085
 20
21.0054776462
 30
0.0
 10
10.9753535541
 20
21.0036103761
 30
0.0
 10
10.9881106123
 20
21.001780117
 30
0.0
 10
10.9955732448
 20
20.9999073248
 30
0.0
 10
10.9999733237
 20
20.9984650574
 30
0.0
 10
11.00045891
 20
20.9972959167
 30
0.0
  0
SPLINE
  5
87D
100
AcDbEntity
  8
ASSI
100
AcDbSpline
 62
250
  6
CONTINUOUS
 70
0
 71
3
 72
18
 73
14
 74
0
 42
0.0000001
 43
0.0000001
 44
0.0000000001
 40
0.0
 40
0.0
 40
0.0
 40
0.0
 40
0.1925558331
 40
0.378641094
 40
0.5501754766
 40
0.7009024739
 40
0.8252807938
 40
0.8761652637
 40
0.9188059018
 40
0.952729247
 40
0.9776888391
 40
0.9934986464
 40
1.0
 40
1.0
 40
1.0
 40
1.0
 10
7.3467111315
 20
5.1530918551
 30
0.0
 10
7.3274550981
 20
5.1530883912
 30
0.0
 10
7.2895900695
 20
5.1530436525
 30
0.0
 10
7.2345716054
 20
5.1528679907
 30
0.0
 10
7.1837360443
 20
5.1525894391
 30
0.0
 10
7.1390737746
 20
5.1522175185
 30
0.0
 10
7.1064730734
 20
5.1518349946
 30
0.0
 10
7.0846902164
 20
5.1514622733
 30
0.0
 10
7.07193672
 20
5.1512206963
 30
0.0
 10
7.0618171936
 20
5.1508860401
 30
0.0
 10
7.0542829616
 20
5.1507576975
 30
0.0
 10
7.0496942386
 20
5.150223222
 30
0.0
 10
7.0473166178
 20
5.150330644
 30
0.0
 10
7.046756823
 20
5.15
 30
0.0
  0
SPLINE
  5
87E
100
AcDbEntity
  8
ASSI
100
AcDbSpline
 62
250
  6
CONTINUOUS
 70
0
 71
3
 72
16
 73
12
 74
0
 42
0.0000001
 43
0.0000001
 44
0.0000000001
 40
0.0
 40
0.0
 40
0.0
 40
0.0
 40
0.0096175074
 40
0.0279708833
 40
0.0549448201
 40
0.0903243343
 40
0.1849904142
 40
0.3088036845
 40
0.4575968307
 40
0.6262531789
 40
1.0
 40
1.0
 40
1.0
 40
1.0
 10
-11.0087219643
 20
-21.4755923698
 30
0.0
 10
-11.0082355442
 20
-21.4741375778
 30
0.0
 10
-11.0077706549
 20
-21.4696529356
 30
0.0
 10
-11.0069566039
 20
-21.4609600588
 30
0.0
 10
-11.0062676414
 20
-21.4480877495
 30
0.0
 10
-11.005170443
 20
-21.4230770904
 30
0.0
 10
-11.0040233018
 20
-21.3825953076
 30
0.0
 10
-11.002838614
 20
-21.3240316829
 30
0.0
 10
-11.0018608611
 20
-21.2536571037
 30
0.0
 10
-11.0008231488
 20
-21.143419007
 30
0.0
 10
-11.0005023563
 20
-21.0569071457
 30
0.0
 10
-11.0004589101
 20
-20.9972959167
 30
0.0
  0
SPLINE
  5
87F
100
AcDbEntity
  8
ASSI
100
AcDbSpline
 62
250
  6
CONTINUOUS
 70
0
 71
3
 72
16
 73
12
 74
0
 42
0.0000001
 43
0.0000001
 44
0.0000000001
 40
0.0
 40
0.0
 40
0.0
 40
0.0
 40
0.0095172377
 40
0.0278193524
 40
0.054760625
 40
0.0901209217
 40
0.1847846043
 40
0.308628729
 40
0.4574561745
 40
0.6261566443
 40
1.0
 40
1.0
 40
1.0
 40
1.0
 10
-10.5087981167
 20
-21.9749071372
 30
0.0
 10
-10.5082975975
 20
-21.9719136797
 30
0.0
 10
-10.5078544819
 20
-21.9630272145
 30
0.0
 10
-10.5070265526
 20
-21.9456019787
 30
0.0
 10
-10.5063458948
 20
-21.9198966107
 30
0.0
 10
-10.5052445944
 20
-21.8698582899
 30
0.0
 10
-10.5041002376
 20
-21.7889040807
 30
0.0
 10
-10.5029147032
 20
-21.6717698543
 30
0.0
 10
-10.5019376942
 20
-21.5310203978
 30
0.0
 10
-10.5008995598
 20
-21.3105471542
 30
0.0
 10
-10.5005780439
 20
-21.1375315526
 30
0.0
 10
-10.5005350625
 20
-21.0183142309
 30
0.0
  0
SPLINE
  5
880
100
AcDbEntity
  8
ASSI
100
AcDbSpline
 62
250
  6
CONTINUOUS
 70
0
 71
3
 72
9
 73
5
 74
0
 42
0.0000001
 43
0.0000001
 44
0.0000000001
 40
0.0
 40
0.0
 40
0.0
 40
0.0
 40
0.2499439267
 40
1.0
 40
1.0
 40
1.0
 40
1.0
 10
-11.0004589101
 20
-20.9972959167
 30
0.0
 10
-10.99788942
 20
-17.4985322889
 30
0.0
 10
-10.9901837953
 20
-3.5003363072
 30
0.0
 10
-10.992748131
 20
10.4978653344
 30
0.0
 10
-11.0004589101
 20
20.9972959167
 30
0.0
  0
SPLINE
  5
881
100
AcDbEntity
  8
ASSI
100
AcDbSpline
 62
250
  6
CONTINUOUS
 70
0
 71
3
 72
9
 73
5
 74
0
 42
0.0000001
 43
0.0000001
 44
0.0000000001
 40
0.0
 40
0.0
 40
0.0
 40
0.0
 40
0.2499439267
 40
1.0
 40
1.0
 40
1.0
 40
1.0
 10
-10.5005350625
 20
-21.0183142309
 30
0.0
 10
-10.4979655724
 20
-17.516048336
 30
0.0
 10
-10.4902599477
 20
-3.5038401435
 30
0.0
 10
-10.4928242833
 20
10.5083737032
 30
0.0
 10
-10.5005350625
 20
21.0183142309
 30
0.0
  0
SPLINE
  5
882
100
AcDbEntity
  8
ASSI
100
AcDbSpline
 62
250
  6
CONTINUOUS
 70
0
 71
3
 72
18
 73
14
 74
0
 42
0.0000001
 43
0.0000001
 44
0.0000000001
 40
0.0
 40
0.0
 40
0.0
 40
0.0
 40
0.0075737577
 40
0.0237997682
 40
0.0489905999
 40
0.0830624793
 40
0.1257056375
 40
0.1765169517
 40
0.3008257893
 40
0.4512660906
 40
0.6222929771
 40
0.8077175327
 40
1.0
 40
1.0
 40
1.0
 40
1.0
 10
-11.0004589101
 20
-20.9972959167
 30
0.0
 10
-10.9999740365
 20
-20.9984650134
 30
0.0
 10
-10.9955742194
 20
-20.9999076347
 30
0.0
 10
-10.9881130035
 20
-21.0017802208
 30
0.0
 10
-10.9753567021
 20
-21.0036106489
 30
0.0
 10
-10.9585410311
 20
-21.0054779361
 30
0.0
 10
-10.9372618623
 20
-21.0072735071
 30
0.0
 10
-10.9009731154
 20
-21.0097408454
 30
0.0
 10
-10.8466161908
 20
-21.0123796055
 30
0.0
 10
-10.7721681765
 20
-21.0148969565
 30
0.0
 10
-10.6874789242
 20
-21.0167916528
 30
0.0
 10
-10.5957867693
 20
-21.0179890025
 30
0.0
 10
-10.532667557
 20
-21.018290674
 30
0.0
 10
-10.5005350625
 20
-21.0183142302
 30
0.0
  0
SPLINE
  5
883
100
AcDbEntity
  8
ASSI
100
AcDbSpline
 62
250
  6
CONTINUOUS
 70
0
 71
3
 72
16
 73
12
 74
0
 42
0.0000001
 43
0.0000001
 44
0.0000000001
 40
0.0
 40
0.0
 40
0.0
 40
0.0
 40
0.3737468212
 40
0.5424031696
 40
0.6911963156
 40
0.8150095851
 40
0.9096756665
 40
0.9450551809
 40
0.9720291161
 40
0.9903824903
 40
1.0
 40
1.0
 40
1.0
 40
1.0
 10
-11.0004589101
 20
20.9972959167
 30
0.0
 10
-11.0005023563
 20
21.0569071457
 30
0.0
 10
-11.0008231488
 20
21.1434190071
 30
0.0
 10
-11.0018608611
 20
21.2536571038
 30
0.0
 10
-11.002838614
 20
21.3240316828
 30
0.0
 10
-11.0040233018
 20
21.3825953076
 30
0.0
 10
-11.0051704431
 20
21.4230770906
 30
0.0
 10
-11.0062676413
 20
21.4480877497
 30
0.0
 10
-11.006956604
 20
21.4609600584
 30
0.0
 10
-11.0077706547
 20
21.4696529353
 30
0.0
 10
-11.0082355445
 20
21.4741375773
 30
0.0
 10
-11.0087219643
 20
21.4755923698
 30
0.0
  0
SPLINE
  5
884
100
AcDbEntity
  8
ASSI
100
AcDbSpline
 62
250
  6
CONTINUOUS
 70
0
 71
3
 72
16
 73
12
 74
0
 42
0.0000001
 43
0.0000001
 44
0.0000000001
 40
0.0
 40
0.0
 40
0.0
 40
0.0
 40
0.3738433557
 40
0.5425438255
 40
0.691371271
 40
0.8152153956
 40
0.9098790784
 40
0.945239375
 40
0.9721806474
 40
0.9904827618
 40
1.0
 40
1.0
 40
1.0
 40
1.0
 10
-10.5005350625
 20
21.0183142309
 30
0.0
 10
-10.5005780439
 20
21.1375315526
 30
0.0
 10
-10.5008995599
 20
21.3105471542
 30
0.0
 10
-10.5019376942
 20
21.5310203978
 30
0.0
 10
-10.5029147032
 20
21.6717698543
 30
0.0
 10
-10.5041002376
 20
21.7889040808
 30
0.0
 10
-10.5052445944
 20
21.86985829
 30
0.0
 10
-10.5063458948
 20
21.9198966107
 30
0.0
 10
-10.5070265526
 20
21.9456019785
 30
0.0
 10
-10.5078544818
 20
21.9630272143
 30
0.0
 10
-10.5082975975
 20
21.9719136795
 30
0.0
 10
-10.5087981167
 20
21.9749071372
 30
0.0
  0
SPLINE
  5
885
100
AcDbEntity
  8
ASSI
100
AcDbSpline
 62
250
  6
CONTINUOUS
 70
0
 71
3
 72
18
 73
14
 74
0
 42
0.0000001
 43
0.0000001
 44
0.0000000001
 40
0.0
 40
0.0
 40
0.0
 40
0.0
 40
0.0075742272
 40
0.0238007595
 40
0.0489920847
 40
0.0830644082
 40
0.1257079442
 40
0.1765195552
 40
0.3008286901
 40
0.451268844
 40
0.6222951312
 40
0.8077187133
 40
1.0
 40
1.0
 40
1.0
 40
1.0
 10
-11.0004589101
 20
20.9972959167
 30
0.0
 10
-10.9999738573
 20
20.9984650238
 30
0.0
 10
-10.9955739741
 20
20.9999075529
 30
0.0
 10
-10.9881124035
 20
21.0017801895
 30
0.0
 10
-10.9753559119
 20
21.0036105728
 30
0.0
 10
-10.9585399963
 20
21.0054778542
 30
0.0
 10
-10.9372606514
 20
21.0072734012
 30
0.0
 10
-10.9009717416
 20
21.0097407099
 30
0.0
 10
-10.8466147531
 20
21.0123794351
 30
0.0
 10
-10.7721668246
 20
21.0148967537
 30
0.0
 10
-10.6874778745
 20
21.0167914253
 30
0.0
 10
-10.5957861955
 20
21.0179887624
 30
0.0
 10
-10.5326673541
 20
21.0182904348
 30
0.0
 10
-10.5005350625
 20
21.018313994
 30
0.0
  0
SPLINE
  5
886
100
AcDbEntity
  8
ASSI
100
AcDbSpline
 62
250
  6
CONTINUOUS
 70
0
 71
3
 72
18
 73
14
 74
0
 42
0.0000001
 43
0.0000001
 44
0.0000000001
 40
0.0
 40
0.0
 40
0.0
 40
0.0
 40
0.1925558508
 40
0.3786411834
 40
0.5501755926
 40
0.7009025603
 40
0.8252808313
 40
0.8761652758
 40
0.9188059031
 40
0.9527292451
 40
0.9776888317
 40
0.9934986375
 40
1.0
 40
1.0
 40
1.0
 40
1.0
 10
-3.0467111315
 20
5.1530918548
 30
0.0
 10
-3.0274550964
 20
5.1530883905
 30
0.0
 10
-2.989590059
 20
5.1530436511
 30
0.0
 10
-2.9345715835
 20
5.1528679886
 30
0.0
 10
-2.8837360156
 20
5.1525894366
 30
0.0
 10
-2.8390737513
 20
5.1522175155
 30
0.0
 10
-2.8064730606
 20
5.1518349915
 30
0.0
 10
-2.7846902121
 20
5.1514622703
 30
0.0
 10
-2.7719367199
 20
5.1512206931
 30
0.0
 10
-2.7618171949
 20
5.150886038
 30
0.0
 10
-2.7542829654
 20
5.1507576936
 30
0.0
 10
-2.7496942395
 20
5.1502232219
 30
0.0
 10
-2.747316621
 20
5.1503306398
 30
0.0
 10
-2.7467568239
 20
5.1499999978
 30
0.0
  0
SPLINE
  5
887
100
AcDbEntity
  8
ASSI
100
AcDbSpline
 62
250
  6
CONTINUOUS
 70
0
 71
3
 72
17
 73
13
 74
0
 42
0.0000001
 43
0.0000001
 44
0.0000000001
 40
0.0
 40
0.0
 40
0.0
 40
0.0
 40
0.3786617627
 40
0.550204877
 40
0.7009385753
 40
0.8253207763
 40
0.8762057825
 40
0.9188457443
 40
0.9527668056
 40
0.977721767
 40
0.9935226013
 40
1.0
 40
1.0
 40
1.0
 40
1.0
 10
-3.0468588966
 20
4.2525515309
 30
0.0
 10
-3.0089939583
 20
4.2525459098
 30
0.0
 10
-2.9539753611
 20
4.2524532145
 30
0.0
 10
-2.8838840759
 20
4.2521370597
 30
0.0
 10
-2.8392215705
 20
4.2518298238
 30
0.0
 10
-2.8066217125
 20
4.2515146611
 30
0.0
 10
-2.7848374422
 20
4.2512062877
 30
0.0
 10
-2.7720869315
 20
4.2510086557
 30
0.0
 10
-2.7619598803
 20
4.2507278906
 30
0.0
 10
-2.7544443289
 20
4.2506328265
 30
0.0
 10
-2.7498229419
 20
4.2501715412
 30
0.0
 10
-2.7474868248
 20
4.2502837956
 30
0.0
 10
-2.7469045881
 20
4.25
 30
0.0
  0
LINE
  5
888
100
AcDbEntity
  8
ASSI
100
AcDbLine
 62
250
  6
CONTINUOUS
 10
7.0469045881
 20
-4.25
 11
7.046756823
 21
-5.15
  0
SPLINE
  5
889
100
AcDbEntity
  8
ASSI
100
AcDbSpline
 62
250
  6
CONTINUOUS
 70
0
 71
3
 72
18
 73
14
 74
0
 42
0.0000001
 43
0.0000001
 44
0.0000000001
 40
0.0
 40
0.0
 40
0.0
 40
0.0
 40
0.1925558508
 40
0.3786411834
 40
0.5501755926
 40
0.7009025603
 40
0.8252808313
 40
0.8761652758
 40
0.9188059031
 40
0.9527292451
 40
0.9776888317
 40
0.9934986375
 40
1.0
 40
1.0
 40
1.0
 40
1.0
 10
7.3467111315
 20
-5.1530918548
 30
0.0
 10
7.3274550964
 20
-5.1530883905
 30
0.0
 10
7.289590059
 20
-5.1530436511
 30
0.0
 10
7.2345715835
 20
-5.1528679886
 30
0.0
 10
7.1837360156
 20
-5.1525894366
 30
0.0
 10
7.1390737513
 20
-5.1522175155
 30
0.0
 10
7.1064730606
 20
-5.1518349915
 30
0.0
 10
7.0846902121
 20
-5.1514622703
 30
0.0
 10
7.0719367199
 20
-5.1512206931
 30
0.0
 10
7.0618171949
 20
-5.150886038
 30
0.0
 10
7.0542829654
 20
-5.1507576936
 30
0.0
 10
7.0496942395
 20
-5.1502232219
 30
0.0
 10
7.047316621
 20
-5.1503306398
 30
0.0
 10
7.0467568239
 20
-5.1499999978
 30
0.0
  0
SPLINE
  5
88A
100
AcDbEntity
  8
ASSI
100
AcDbSpline
 62
250
  6
CONTINUOUS
 70
0
 71
3
 72
17
 73
13
 74
0
 42
0.0000001
 43
0.0000001
 44
0.0000000001
 40
0.0
 40
0.0
 40
0.0
 40
0.0
 40
0.3786617627
 40
0.550204877
 40
0.7009385753
 40
0.8253207763
 40
0.8762057825
 40
0.9188457443
 40
0.9527668056
 40
0.977721767
 40
0.9935226013
 40
1.0
 40
1.0
 40
1.0
 40
1.0
 10
7.3468588966
 20
-4.2525515309
 30
0.0
 10
7.3089939583
 20
-4.2525459098
 30
0.0
 10
7.2539753611
 20
-4.2524532145
 30
0.0
 10
7.1838840759
 20
-4.2521370597
 30
0.0
 10
7.1392215705
 20
-4.2518298238
 30
0.0
 10
7.1066217125
 20
-4.2515146611
 30
0.0
 10
7.0848374422
 20
-4.2512062877
 30
0.0
 10
7.0720869315
 20
-4.2510086557
 30
0.0
 10
7.0619598803
 20
-4.2507278906
 30
0.0
 10
7.0544443289
 20
-4.2506328265
 30
0.0
 10
7.0498229419
 20
-4.2501715412
 30
0.0
 10
7.0474868248
 20
-4.2502837956
 30
0.0
 10
7.0469045881
 20
-4.25
 30
0.0
  0
LINE
  5
88B
100
AcDbEntity
  8
ASSI
100
AcDbLine
 62
250
  6
CONTINUOUS
 10
-2.746756823
 20
-5.15
 11
-2.7469045881
 21
-4.25
  0
SPLINE
  5
88C
100
AcDbEntity
  8
ASSI
100
AcDbSpline
 62
250
  6
CONTINUOUS
 70
0
 71
3
 72
17
 73
13
 74
0
 42
0.0000001
 43
0.0000001
 44
0.0000000001
 40
0.0
 40
0.0
 40
0.0
 40
0.0
 40
0.378661921
 40
0.5502050858
 40
0.7009387667
 40
0.825320917
 40
0.8762058911
 40
0.9188458308
 40
0.9527668736
 40
0.9777218101
 40
0.9935226197
 40
1.0
 40
1.0
 40
1.0
 40
1.0
 10
-3.0468588966
 20
-4.2525515313
 30
0.0
 10
-3.0089939424
 20
-4.2525459106
 30
0.0
 10
-2.9539753242
 20
-4.2524532156
 30
0.0
 10
-2.8838840196
 20
-4.2521370611
 30
0.0
 10
-2.8392215159
 20
-4.2518298253
 30
0.0
 10
-2.8066216678
 20
-4.2515146628
 30
0.0
 10
-2.784837408
 20
-4.2512062893
 30
0.0
 10
-2.7720869044
 20
-4.2510086577
 30
0.0
 10
-2.7619598601
 20
-4.2507278923
 30
0.0
 10
-2.7544443147
 20
-4.2506328295
 30
0.0
 10
-2.7498229358
 20
-4.2501715423
 30
0.0
 10
-2.7474868215
 20
-4.2502837989
 30
0.0
 10
-2.7469045874
 20
-4.2500000024
 30
0.0
  0
SPLINE
  5
88D
100
AcDbEntity
  8
ASSI
100
AcDbSpline
 62
250
  6
CONTINUOUS
 70
0
 71
3
 72
18
 73
14
 74
0
 42
0.0000001
 43
0.0000001
 44
0.0000000001
 40
0.0
 40
0.0
 40
0.0
 40
0.0
 40
0.1925558331
 40
0.378641094
 40
0.5501754766
 40
0.7009024739
 40
0.8252807938
 40
0.8761652637
 40
0.9188059018
 40
0.952729247
 40
0.9776888391
 40
0.9934986464
 40
1.0
 40
1.0
 40
1.0
 40
1.0
 10
-3.0467111315
 20
-5.1530918551
 30
0.0
 10
-3.0274550981
 20
-5.1530883912
 30
0.0
 10
-2.9895900695
 20
-5.1530436525
 30
0.0
 10
-2.9345716054
 20
-5.1528679907
 30
0.0
 10
-2.8837360443
 20
-5.1525894391
 30
0.0
 10
-2.8390737746
 20
-5.1522175185
 30
0.0
 10
-2.8064730734
 20
-5.1518349946
 30
0.0
 10
-2.7846902164
 20
-5.1514622733
 30
0.0
 10
-2.77193672
 20
-5.1512206963
 30
0.0
 10
-2.7618171936
 20
-5.1508860401
 30
0.0
 10
-2.7542829616
 20
-5.1507576975
 30
0.0
 10
-2.7496942386
 20
-5.150223222
 30
0.0
 10
-2.7473166178
 20
-5.150330644
 30
0.0
 10
-2.746756823
 20
-5.15
 30
0.0
  0
LINE
  5
88E
100
AcDbEntity
  8
0
100
AcDbLine
 62
250
  6
CONTINUOUS
 10
7.046756823
 20
5.15
 11
7.0469045881
 21
4.25
  0
SPLINE
  5
88F
100
AcDbEntity
  8
0
100
AcDbSpline
 62
250
  6
CONTINUOUS
 70
0
 71
3
 72
16
 73
12
 74
0
 42
0.0000001
 43
0.0000001
 44
0.0000000001
 40
0.0
 40
0.0
 40
0.0
 40
0.0
 40
0.3786619777
 40
0.5502051682
 40
0.7009388717
 40
0.8253210407
 40
0.9188458187
 40
0.9527668665
 40
0.9777218068
 40
0.9935226187
 40
1.0
 40
1.0
 40
1.0
 40
1.0
 10
7.3468588966
 20
4.2525515313
 30
0.0
 10
7.3089939424
 20
4.2525459106
 30
0.0
 10
7.2539745706
 20
4.2524553538
 30
0.0
 10
7.1838850958
 20
4.2521340074
 30
0.0
 10
7.1392182279
 20
4.2518391552
 30
0.0
 10
7.1023666552
 20
4.2514480839
 30
0.0
 10
7.0771661039
 20
4.2511407779
 30
0.0
 10
7.0619595277
 20
4.2507288398
 30
0.0
 10
7.0544443629
 20
4.2506326922
 30
0.0
 10
7.0498229316
 20
4.2501715543
 30
0.0
 10
7.0474868215
 20
4.2502837989
 30
0.0
 10
7.0469045874
 20
4.2500000024
 30
0.0
  0
SPLINE
  5
890
100
AcDbEntity
  8
0
100
AcDbSpline
 62
250
  6
CONTINUOUS
 70
0
 71
3
 72
18
 73
14
 74
0
 42
0.0000001
 43
0.0000001
 44
0.0000000001
 40
0.0
 40
0.0
 40
0.0
 40
0.0
 40
0.1925558331
 40
0.378641094
 40
0.5501754766
 40
0.7009024739
 40
0.8252807938
 40
0.8761652637
 40
0.9188059018
 40
0.952729247
 40
0.9776888391
 40
0.9934986464
 40
1.0
 40
1.0
 40
1.0
 40
1.0
 10
7.3467111315
 20
5.1530918551
 30
0.0
 10
7.3274550981
 20
5.1530883912
 30
0.0
 10
7.2895900695
 20
5.1530436525
 30
0.0
 10
7.2345716054
 20
5.1528679907
 30
0.0
 10
7.1837360443
 20
5.1525894391
 30
0.0
 10
7.1390737746
 20
5.1522175185
 30
0.0
 10
7.1064730734
 20
5.1518349946
 30
0.0
 10
7.0846902164
 20
5.1514622733
 30
0.0
 10
7.07193672
 20
5.1512206963
 30
0.0
 10
7.0618171936
 20
5.1508860401
 30
0.0
 10
7.0542829616
 20
5.1507576975
 30
0.0
 10
7.0496942386
 20
5.150223222
 30
0.0
 10
7.0473166178
 20
5.150330644
 30
0.0
 10
7.046756823
 20
5.15
 30
0.0
  0
SPLINE
  5
891
100
AcDbEntity
  8
0
100
AcDbSpline
 62
250
  6
CONTINUOUS
 70
0
 71
3
 72
18
 73
14
 74
0
 42
0.0000001
 43
0.0000001
 44
0.0000000001
 40
0.0
 40
0.0
 40
0.0
 40
0.0
 40
0.1925558508
 40
0.3786411834
 40
0.5501755926
 40
0.7009025603
 40
0.8252808313
 40
0.8761652758
 40
0.9188059031
 40
0.9527292451
 40
0.9776888317
 40
0.9934986375
 40
1.0
 40
1.0
 40
1.0
 40
1.0
 10
-3.0467111315
 20
5.1530918548
 30
0.0
 10
-3.0274550964
 20
5.1530883905
 30
0.0
 10
-2.989590059
 20
5.1530436511
 30
0.0
 10
-2.9345715835
 20
5.1528679886
 30
0.0
 10
-2.8837360156
 20
5.1525894366
 30
0.0
 10
-2.8390737513
 20
5.1522175155
 30
0.0
 10
-2.8064730606
 20
5.1518349915
 30
0.0
 10
-2.7846902121
 20
5.1514622703
 30
0.0
 10
-2.7719367199
 20
5.1512206931
 30
0.0
 10
-2.7618171949
 20
5.150886038
 30
0.0
 10
-2.7542829654
 20
5.1507576936
 30
0.0
 10
-2.7496942395
 20
5.1502232219
 30
0.0
 10
-2.747316621
 20
5.1503306398
 30
0.0
 10
-2.7467568239
 20
5.1499999978
 30
0.0
  0
SPLINE
  5
892
100
AcDbEntity
  8
0
100
AcDbSpline
 62
250
  6
CONTINUOUS
 70
0
 71
3
 72
16
 73
12
 74
0
 42
0.0000001
 43
0.0000001
 44
0.0000000001
 40
0.0
 40
0.0
 40
0.0
 40
0.0
 40
0.3786618195
 40
0.5502049595
 40
0.7009386803
 40
0.8253208999
 40
0.9188457321
 40
0.9527667985
 40
0.9777217636
 40
0.9935226003
 40
1.0
 40
1.0
 40
1.0
 40
1.0
 10
-3.0468588966
 20
4.2525515309
 30
0.0
 10
-3.0089939583
 20
4.2525459098
 30
0.0
 10
-2.9539746076
 20
4.2524553527
 30
0.0
 10
-2.8838851521
 20
4.2521340059
 30
0.0
 10
-2.8392182826
 20
4.2518391536
 30
0.0
 10
-2.8023666975
 20
4.2514480824
 30
0.0
 10
-2.7771661343
 20
4.2511407758
 30
0.0
 10
-2.761959548
 20
4.250728838
 30
0.0
 10
-2.7544443771
 20
4.2506326892
 30
0.0
 10
-2.7498229377
 20
4.2501715532
 30
0.0
 10
-2.7474868248
 20
4.2502837956
 30
0.0
 10
-2.7469045881
 20
4.25
 30
0.0
  0
LINE
  5
893
100
AcDbEntity
  8
0
100
AcDbLine
 62
250
  6
CONTINUOUS
 10
7.0469045881
 20
-4.25
 11
7.046756823
 21
-5.15
  0
SPLINE
  5
894
100
AcDbEntity
  8
0
100
AcDbSpline
 62
250
  6
CONTINUOUS
 70
0
 71
3
 72
18
 73
14
 74
0
 42
0.0000001
 43
0.0000001
 44
0.0000000001
 40
0.0
 40
0.0
 40
0.0
 40
0.0
 40
0.1925558508
 40
0.3786411834
 40
0.5501755926
 40
0.7009025603
 40
0.8252808313
 40
0.8761652758
 40
0.9188059031
 40
0.9527292451
 40
0.9776888317
 40
0.9934986375
 40
1.0
 40
1.0
 40
1.0
 40
1.0
 10
7.3467111315
 20
-5.1530918548
 30
0.0
 10
7.3274550964
 20
-5.1530883905
 30
0.0
 10
7.289590059
 20
-5.1530436511
 30
0.0
 10
7.2345715835
 20
-5.1528679886
 30
0.0
 10
7.1837360156
 20
-5.1525894366
 30
0.0
 10
7.1390737513
 20
-5.1522175155
 30
0.0
 10
7.1064730606
 20
-5.1518349915
 30
0.0
 10
7.0846902121
 20
-5.1514622703
 30
0.0
 10
7.0719367199
 20
-5.1512206931
 30
0.0
 10
7.0618171949
 20
-5.150886038
 30
0.0
 10
7.0542829654
 20
-5.1507576936
 30
0.0
 10
7.0496942395
 20
-5.1502232219
 30
0.0
 10
7.047316621
 20
-5.1503306398
 30
0.0
 10
7.0467568239
 20
-5.1499999978
 30
0.0
  0
LINE
  5
895
100
AcDbEntity
  8
0
100
AcDbLine
 62
250
  6
CONTINUOUS
 10
-2.7469045881
 20
4.25
 11
-2.746756823
 21
5.15
  0
LINE
  5
896
100
AcDbEntity
  8
0
100
AcDbLine
 62
250
  6
CONTINUOUS
 10
-2.746756823
 20
-5.15
 11
-2.7469045881
 21
-4.25
  0
SPLINE
  5
897
100
AcDbEntity
  8
0
100
AcDbSpline
 62
250
  6
CONTINUOUS
 70
0
 71
3
 72
16
 73
12
 74
0
 42
0.0000001
 43
0.0000001
 44
0.0000000001
 40
0.0
 40
0.0
 40
0.0
 40
0.0
 40
0.3786618195
 40
0.5502049595
 40
0.7009386803
 40
0.8253208999
 40
0.9188457321
 40
0.9527667985
 40
0.9777217636
 40
0.9935226003
 40
1.0
 40
1.0
 40
1.0
 40
1.0
 10
7.3468588966
 20
-4.2525515309
 30
0.0
 10
7.3089939583
 20
-4.2525459098
 30
0.0
 10
7.2539746076
 20
-4.2524553527
 30
0.0
 10
7.1838851521
 20
-4.2521340059
 30
0.0
 10
7.1392182826
 20
-4.2518391536
 30
0.0
 10
7.1023666975
 20
-4.2514480824
 30
0.0
 10
7.0771661343
 20
-4.2511407758
 30
0.0
 10
7.061959548
 20
-4.250728838
 30
0.0
 10
7.0544443771
 20
-4.2506326892
 30
0.0
 10
7.0498229377
 20
-4.2501715532
 30
0.0
 10
7.0474868248
 20
-4.2502837956
 30
0.0
 10
7.0469045881
 20
-4.25
 30
0.0
  0
SPLINE
  5
898
100
AcDbEntity
  8
0
100
AcDbSpline
 62
250
  6
CONTINUOUS
 70
0
 71
3
 72
16
 73
12
 74
0
 42
0.0000001
 43
0.0000001
 44
0.0000000001
 40
0.0
 40
0.0
 40
0.0
 40
0.0
 40
0.009516323
 40
0.027818877
 40
0.0547607558
 40
0.0901211737
 40
0.1847844843
 40
0.30862854
 40
0.4574562602
 40
0.6261565798
 40
1.0
 40
1.0
 40
1.0
 40
1.0
 10
10.5087981167
 20
-21.9749071372
 30
0.0
 10
10.5082977502
 20
-21.9719139499
 30
0.0
 10
10.5078547024
 20
-21.9630276484
 30
0.0
 10
10.5070265244
 20
-21.9456023734
 30
0.0
 10
10.5063456215
 20
-21.919896643
 30
0.0
 10
10.5052440926
 20
-21.8698582114
 30
0.0
 10
10.5040997522
 20
-21.7889041041
 30
0.0
 10
10.5029144017
 20
-21.6717699283
 30
0.0
 10
10.5019374017
 20
-21.5310204539
 30
0.0
 10
10.50089938
 20
-21.3105471481
 30
0.0
 10
10.500578556
 20
-21.1375315734
 30
0.0
 10
10.5005350625
 20
-21.0183142309
 30
0.0
  0
SPLINE
  5
899
100
AcDbEntity
  8
0
100
AcDbSpline
 62
250
  6
CONTINUOUS
 70
0
 71
3
 72
16
 73
12
 74
0
 42
0.0000001
 43
0.0000001
 44
0.0000000001
 40
0.0
 40
0.0
 40
0.0
 40
0.0
 40
0.0096159036
 40
0.0279701207
 40
0.0549445032
 40
0.0903232102
 40
0.184988416
 40
0.3088051173
 40
0.4576013364
 40
0.6262585176
 40
1.0
 40
1.0
 40
1.0
 40
1.0
 10
11.0087219643
 20
-21.4755923698
 30
0.0
 10
11.0082352887
 20
-21.4741379329
 30
0.0
 10
11.0077707891
 20
-21.4696532467
 30
0.0
 10
11.0069565246
 20
-21.4609605371
 30
0.0
 10
11.0062676687
 20
-21.4480880954
 30
0.0
 10
11.0051703645
 20
-21.4230776648
 30
0.0
 10
11.0040232599
 20
-21.3825955807
 30
0.0
 10
11.002838607
 20
-21.3240310648
 30
0.0
 10
11.0018609028
 20
-21.25365531
 30
0.0
 10
11.0008231219
 20
-21.143417441
 30
0.0
 10
11.0005025008
 20
-21.0569062955
 30
0.0
 10
11.0004589101
 20
-20.9972959167
 30
0.0
  0
SPLINE
  5
89A
100
AcDbEntity
  8
0
100
AcDbSpline
 62
250
  6
CONTINUOUS
 70
0
 71
3
 72
9
 73
5
 74
0
 42
0.0000001
 43
0.0000001
 44
0.0000000001
 40
0.0
 40
0.0
 40
0.0
 40
0.0
 40
0.2499439267
 40
1.0
 40
1.0
 40
1.0
 40
1.0
 10
10.5005350625
 20
-21.0183142309
 30
0.0
 10
10.4979655713
 20
-17.5160483361
 30
0.0
 10
10.490259949
 20
-3.5038401436
 30
0.0
 10
10.4928242836
 20
10.5083737031
 30
0.0
 10
10.5005350625
 20
21.0183142309
 30
0.0
  0
SPLINE
  5
89B
100
AcDbEntity
  8
0
100
AcDbSpline
 62
250
  6
CONTINUOUS
 70
0
 71
3
 72
9
 73
5
 74
0
 42
0.0000001
 43
0.0000001
 44
0.0000000001
 40
0.0
 40
0.0
 40
0.0
 40
0.0
 40
0.2499439267
 40
1.0
 40
1.0
 40
1.0
 40
1.0
 10
11.0004589101
 20
-20.9972959167
 30
0.0
 10
10.9978894189
 20
-17.4985322888
 30
0.0
 10
10.9901837966
 20
-3.5003363071
 30
0.0
 10
10.9927481312
 20
10.4978653344
 30
0.0
 10
11.0004589101
 20
20.9972959167
 30
0.0
  0
SPLINE
  5
89C
100
AcDbEntity
  8
0
100
AcDbSpline
 62
250
  6
CONTINUOUS
 70
0
 71
3
 72
18
 73
14
 74
0
 42
0.0000001
 43
0.0000001
 44
0.0000000001
 40
0.0
 40
0.0
 40
0.0
 40
0.0
 40
0.192282469
 40
0.3777070261
 40
0.5487339137
 40
0.6991742156
 40
0.8234830531
 40
0.8742943669
 40
0.9169375246
 40
0.9510094033
 40
0.976200234
 40
0.9924262434
 40
1.0
 40
1.0
 40
1.0
 40
1.0
 10
10.5005350625
 20
-21.0183142305
 30
0.0
 10
10.5326675573
 20
-21.0182906746
 30
0.0
 10
10.5957867702
 20
-21.0179890035
 30
0.0
 10
10.6874789258
 20
-21.0167916539
 30
0.0
 10
10.7721681786
 20
-21.0148969574
 30
0.0
 10
10.8466161933
 20
-21.0123796061
 30
0.0
 10
10.9009731179
 20
-21.0097408458
 30
0.0
 10
10.9372618646
 20
-21.0072735074
 30
0.0
 10
10.9585410331
 20
-21.0054779363
 30
0.0
 10
10.9753567037
 20
-21.0036106491
 30
0.0
 10
10.9881130048
 20
-21.0017802208
 30
0.0
 10
10.9955742199
 20
-20.9999076348
 30
0.0
 10
10.9999740369
 20
-20.9984650133
 30
0.0
 10
11.0004589101
 20
-20.9972959167
 30
0.0
  0
SPLINE
  5
89D
100
AcDbEntity
  8
0
100
AcDbSpline
 62
250
  6
CONTINUOUS
 70
0
 71
3
 72
16
 73
12
 74
0
 42
0.0000001
 43
0.0000001
 44
0.0000000001
 40
0.0
 40
0.0
 40
0.0
 40
0.0
 40
0.3738434202
 40
0.5425437398
 40
0.69137146
 40
0.8152155157
 40
0.9098788264
 40
0.9452392442
 40
0.9721811228
 40
0.9904836768
 40
1.0
 40
1.0
 40
1.0
 40
1.0
 10
10.5005350625
 20
21.0183142309
 30
0.0
 10
10.5005785559
 20
21.1375315734
 30
0.0
 10
10.50089938
 20
21.3105471481
 30
0.0
 10
10.5019374016
 20
21.5310204539
 30
0.0
 10
10.5029144017
 20
21.6717699283
 30
0.0
 10
10.5040997522
 20
21.7889041042
 30
0.0
 10
10.5052440926
 20
21.8698582114
 30
0.0
 10
10.5063456216
 20
21.919896643
 30
0.0
 10
10.5070265244
 20
21.9456023733
 30
0.0
 10
10.5078547023
 20
21.9630276482
 30
0.0
 10
10.5082977501
 20
21.9719139498
 30
0.0
 10
10.5087981167
 20
21.9749071372
 30
0.0
  0
SPLINE
  5
89E
100
AcDbEntity
  8
0
100
AcDbSpline
 62
250
  6
CONTINUOUS
 70
0
 71
3
 72
16
 73
12
 74
0
 42
0.0000001
 43
0.0000001
 44
0.0000000001
 40
0.0
 40
0.0
 40
0.0
 40
0.0
 40
0.3737414825
 40
0.5423986639
 40
0.6911948827
 40
0.8150115835
 40
0.9096767904
 40
0.9450554975
 40
0.9720298788
 40
0.9903840948
 40
1.0
 40
1.0
 40
1.0
 40
1.0
 10
11.0004589101
 20
20.9972959167
 30
0.0
 10
11.0005025007
 20
21.0569062955
 30
0.0
 10
11.0008231219
 20
21.143417441
 30
0.0
 10
11.0018609027
 20
21.25365531
 30
0.0
 10
11.002838607
 20
21.3240310648
 30
0.0
 10
11.0040232599
 20
21.3825955807
 30
0.0
 10
11.0051703645
 20
21.4230776649
 30
0.0
 10
11.0062676686
 20
21.4480880956
 30
0.0
 10
11.0069565247
 20
21.4609605368
 30
0.0
 10
11.007770789
 20
21.4696532464
 30
0.0
 10
11.008235289
 20
21.4741379326
 30
0.0
 10
11.0087219643
 20
21.4755923698
 30
0.0
  0
SPLINE
  5
89F
100
AcDbEntity
  8
0
100
AcDbSpline
 62
250
  6
CONTINUOUS
 70
0
 71
3
 72
18
 73
14
 74
0
 42
0.0000001
 43
0.0000001
 44
0.0000000001
 40
0.0
 40
0.0
 40
0.0
 40
0.0
 40
0.1922777651
 40
0.3776984417
 40
0.5487229375
 40
0.6991626459
 40
0.8234726619
 40
0.8742851559
 40
0.9169298173
 40
0.9510034654
 40
0.9761962651
 40
0.9924243591
 40
1.0
 40
1.0
 40
1.0
 40
1.0
 10
10.5005350626
 20
21.0183132877
 30
0.0
 10
10.5326667497
 20
21.0182897271
 30
0.0
 10
10.5957844854
 20
21.0179880654
 30
0.0
 10
10.6874747463
 20
21.0167907814
 30
0.0
 10
10.7721627952
 20
21.0148961931
 30
0.0
 10
10.8466104667
 20
21.0123789752
 30
0.0
 10
10.9009676446
 20
21.0097403526
 30
0.0
 10
10.9372570394
 20
21.007273127
 30
0.0
 10
10.9585369085
 20
21.0054776462
 30
0.0
 10
10.9753535541
 20
21.0036103761
 30
0.0
 10
10.9881106123
 20
21.001780117
 30
0.0
 10
10.9955732448
 20
20.9999073248
 30
0.0
 10
10.9999733237
 20
20.9984650574
 30
0.0
 10
11.00045891
 20
20.9972959167
 30
0.0
  0
SPLINE
  5
8A0
100
AcDbEntity
  8
0
100
AcDbSpline
 62
250
  6
CONTINUOUS
 70
0
 71
3
 72
16
 73
12
 74
0
 42
0.0000001
 43
0.0000001
 44
0.0000000001
 40
0.0
 40
0.0
 40
0.0
 40
0.0
 40
0.3786619777
 40
0.5502051682
 40
0.7009388717
 40
0.8253210407
 40
0.9188458187
 40
0.9527668665
 40
0.9777218068
 40
0.9935226187
 40
1.0
 40
1.0
 40
1.0
 40
1.0
 10
-3.0468588966
 20
-4.2525515313
 30
0.0
 10
-3.0089939424
 20
-4.2525459106
 30
0.0
 10
-2.9539745706
 20
-4.2524553538
 30
0.0
 10
-2.8838850958
 20
-4.2521340074
 30
0.0
 10
-2.8392182279
 20
-4.2518391552
 30
0.0
 10
-2.8023666552
 20
-4.2514480839
 30
0.0
 10
-2.7771661039
 20
-4.2511407779
 30
0.0
 10
-2.7619595277
 20
-4.2507288398
 30
0.0
 10
-2.7544443629
 20
-4.2506326922
 30
0.0
 10
-2.7498229316
 20
-4.2501715543
 30
0.0
 10
-2.7474868215
 20
-4.2502837989
 30
0.0
 10
-2.7469045874
 20
-4.2500000024
 30
0.0
  0
SPLINE
  5
8A1
100
AcDbEntity
  8
0
100
AcDbSpline
 62
250
  6
CONTINUOUS
 70
0
 71
3
 72
16
 73
12
 74
0
 42
0.0000001
 43
0.0000001
 44
0.0000000001
 40
0.0
 40
0.0
 40
0.0
 40
0.0
 40
0.0096175074
 40
0.0279708833
 40
0.0549448201
 40
0.0903243343
 40
0.1849904142
 40
0.3088036845
 40
0.4575968307
 40
0.6262531789
 40
1.0
 40
1.0
 40
1.0
 40
1.0
 10
-11.0087219643
 20
-21.4755923698
 30
0.0
 10
-11.0082355442
 20
-21.4741375778
 30
0.0
 10
-11.0077706549
 20
-21.4696529356
 30
0.0
 10
-11.0069566039
 20
-21.4609600588
 30
0.0
 10
-11.0062676414
 20
-21.4480877495
 30
0.0
 10
-11.005170443
 20
-21.4230770904
 30
0.0
 10
-11.0040233018
 20
-21.3825953076
 30
0.0
 10
-11.002838614
 20
-21.3240316829
 30
0.0
 10
-11.0018608611
 20
-21.2536571037
 30
0.0
 10
-11.0008231488
 20
-21.143419007
 30
0.0
 10
-11.0005023563
 20
-21.0569071457
 30
0.0
 10
-11.0004589101
 20
-20.9972959167
 30
0.0
  0
SPLINE
  5
8A2
100
AcDbEntity
  8
0
100
AcDbSpline
 62
250
  6
CONTINUOUS
 70
0
 71
3
 72
16
 73
12
 74
0
 42
0.0000001
 43
0.0000001
 44
0.0000000001
 40
0.0
 40
0.0
 40
0.0
 40
0.0
 40
0.0095172377
 40
0.0278193524
 40
0.054760625
 40
0.0901209217
 40
0.1847846043
 40
0.308628729
 40
0.4574561745
 40
0.6261566443
 40
1.0
 40
1.0
 40
1.0
 40
1.0
 10
-10.5087981167
 20
-21.9749071372
 30
0.0
 10
-10.5082975975
 20
-21.9719136797
 30
0.0
 10
-10.5078544819
 20
-21.9630272145
 30
0.0
 10
-10.5070265526
 20
-21.9456019787
 30
0.0
 10
-10.5063458948
 20
-21.9198966107
 30
0.0
 10
-10.5052445944
 20
-21.8698582899
 30
0.0
 10
-10.5041002376
 20
-21.7889040807
 30
0.0
 10
-10.5029147032
 20
-21.6717698543
 30
0.0
 10
-10.5019376942
 20
-21.5310203978
 30
0.0
 10
-10.5008995598
 20
-21.3105471542
 30
0.0
 10
-10.5005780439
 20
-21.1375315526
 30
0.0
 10
-10.5005350625
 20
-21.0183142309
 30
0.0
  0
SPLINE
  5
8A3
100
AcDbEntity
  8
0
100
AcDbSpline
 62
250
  6
CONTINUOUS
 70
0
 71
3
 72
9
 73
5
 74
0
 42
0.0000001
 43
0.0000001
 44
0.0000000001
 40
0.0
 40
0.0
 40
0.0
 40
0.0
 40
0.2499439267
 40
1.0
 40
1.0
 40
1.0
 40
1.0
 10
-11.0004589101
 20
-20.9972959167
 30
0.0
 10
-10.99788942
 20
-17.4985322889
 30
0.0
 10
-10.9901837953
 20
-3.5003363072
 30
0.0
 10
-10.992748131
 20
10.4978653344
 30
0.0
 10
-11.0004589101
 20
20.9972959167
 30
0.0
  0
SPLINE
  5
8A4
100
AcDbEntity
  8
0
100
AcDbSpline
 62
250
  6
CONTINUOUS
 70
0
 71
3
 72
9
 73
5
 74
0
 42
0.0000001
 43
0.0000001
 44
0.0000000001
 40
0.0
 40
0.0
 40
0.0
 40
0.0
 40
0.2499439267
 40
1.0
 40
1.0
 40
1.0
 40
1.0
 10
-10.5005350625
 20
-21.0183142309
 30
0.0
 10
-10.4979655724
 20
-17.516048336
 30
0.0
 10
-10.4902599477
 20
-3.5038401435
 30
0.0
 10
-10.4928242833
 20
10.5083737032
 30
0.0
 10
-10.5005350625
 20
21.0183142309
 30
0.0
  0
SPLINE
  5
8A5
100
AcDbEntity
  8
0
100
AcDbSpline
 62
250
  6
CONTINUOUS
 70
0
 71
3
 72
18
 73
14
 74
0
 42
0.0000001
 43
0.0000001
 44
0.0000000001
 40
0.0
 40
0.0
 40
0.0
 40
0.0
 40
0.0075737577
 40
0.0237997682
 40
0.0489905999
 40
0.0830624793
 40
0.1257056375
 40
0.1765169517
 40
0.3008257893
 40
0.4512660906
 40
0.6222929771
 40
0.8077175327
 40
1.0
 40
1.0
 40
1.0
 40
1.0
 10
-11.0004589101
 20
-20.9972959167
 30
0.0
 10
-10.9999740365
 20
-20.9984650134
 30
0.0
 10
-10.9955742194
 20
-20.9999076347
 30
0.0
 10
-10.9881130035
 20
-21.0017802208
 30
0.0
 10
-10.9753567021
 20
-21.0036106489
 30
0.0
 10
-10.9585410311
 20
-21.0054779361
 30
0.0
 10
-10.9372618623
 20
-21.0072735071
 30
0.0
 10
-10.9009731154
 20
-21.0097408454
 30
0.0
 10
-10.8466161908
 20
-21.0123796055
 30
0.0
 10
-10.7721681765
 20
-21.0148969565
 30
0.0
 10
-10.6874789242
 20
-21.0167916528
 30
0.0
 10
-10.5957867693
 20
-21.0179890025
 30
0.0
 10
-10.532667557
 20
-21.018290674
 30
0.0
 10
-10.5005350625
 20
-21.0183142302
 30
0.0
  0
SPLINE
  5
8A6
100
AcDbEntity
  8
0
100
AcDbSpline
 62
250
  6
CONTINUOUS
 70
0
 71
3
 72
16
 73
12
 74
0
 42
0.0000001
 43
0.0000001
 44
0.0000000001
 40
0.0
 40
0.0
 40
0.0
 40
0.0
 40
0.3737468212
 40
0.5424031696
 40
0.6911963156
 40
0.8150095851
 40
0.9096756665
 40
0.9450551809
 40
0.9720291161
 40
0.9903824903
 40
1.0
 40
1.0
 40
1.0
 40
1.0
 10
-11.0004589101
 20
20.9972959167
 30
0.0
 10
-11.0005023563
 20
21.0569071457
 30
0.0
 10
-11.0008231488
 20
21.1434190071
 30
0.0
 10
-11.0018608611
 20
21.2536571038
 30
0.0
 10
-11.002838614
 20
21.3240316828
 30
0.0
 10
-11.0040233018
 20
21.3825953076
 30
0.0
 10
-11.0051704431
 20
21.4230770906
 30
0.0
 10
-11.0062676413
 20
21.4480877497
 30
0.0
 10
-11.006956604
 20
21.4609600584
 30
0.0
 10
-11.0077706547
 20
21.4696529353
 30
0.0
 10
-11.0082355445
 20
21.4741375773
 30
0.0
 10
-11.0087219643
 20
21.4755923698
 30
0.0
  0
SPLINE
  5
8A7
100
AcDbEntity
  8
0
100
AcDbSpline
 62
250
  6
CONTINUOUS
 70
0
 71
3
 72
16
 73
12
 74
0
 42
0.0000001
 43
0.0000001
 44
0.0000000001
 40
0.0
 40
0.0
 40
0.0
 40
0.0
 40
0.3738433557
 40
0.5425438255
 40
0.691371271
 40
0.8152153956
 40
0.9098790784
 40
0.945239375
 40
0.9721806474
 40
0.9904827618
 40
1.0
 40
1.0
 40
1.0
 40
1.0
 10
-10.5005350625
 20
21.0183142309
 30
0.0
 10
-10.5005780439
 20
21.1375315526
 30
0.0
 10
-10.5008995599
 20
21.3105471542
 30
0.0
 10
-10.5019376942
 20
21.5310203978
 30
0.0
 10
-10.5029147032
 20
21.6717698543
 30
0.0
 10
-10.5041002376
 20
21.7889040808
 30
0.0
 10
-10.5052445944
 20
21.86985829
 30
0.0
 10
-10.5063458948
 20
21.9198966107
 30
0.0
 10
-10.5070265526
 20
21.9456019785
 30
0.0
 10
-10.5078544818
 20
21.9630272143
 30
0.0
 10
-10.5082975975
 20
21.9719136795
 30
0.0
 10
-10.5087981167
 20
21.9749071372
 30
0.0
  0
SPLINE
  5
8A8
100
AcDbEntity
  8
0
100
AcDbSpline
 62
250
  6
CONTINUOUS
 70
0
 71
3
 72
18
 73
14
 74
0
 42
0.0000001
 43
0.0000001
 44
0.0000000001
 40
0.0
 40
0.0
 40
0.0
 40
0.0
 40
0.0075742272
 40
0.0238007595
 40
0.0489920847
 40
0.0830644082
 40
0.1257079442
 40
0.1765195552
 40
0.3008286901
 40
0.451268844
 40
0.6222951312
 40
0.8077187133
 40
1.0
 40
1.0
 40
1.0
 40
1.0
 10
-11.0004589101
 20
20.9972959167
 30
0.0
 10
-10.9999738573
 20
20.9984650238
 30
0.0
 10
-10.9955739741
 20
20.9999075529
 30
0.0
 10
-10.9881124035
 20
21.0017801895
 30
0.0
 10
-10.9753559119
 20
21.0036105728
 30
0.0
 10
-10.9585399963
 20
21.0054778542
 30
0.0
 10
-10.9372606514
 20
21.0072734012
 30
0.0
 10
-10.9009717416
 20
21.0097407099
 30
0.0
 10
-10.8466147531
 20
21.0123794351
 30
0.0
 10
-10.7721668246
 20
21.0148967537
 30
0.0
 10
-10.6874778745
 20
21.0167914253
 30
0.0
 10
-10.5957861955
 20
21.0179887624
 30
0.0
 10
-10.5326673541
 20
21.0182904348
 30
0.0
 10
-10.5005350625
 20
21.018313994
 30
0.0
  0
SPLINE
  5
8A9
100
AcDbEntity
  8
0
100
AcDbSpline
 62
250
  6
CONTINUOUS
 70
0
 71
3
 72
18
 73
14
 74
0
 42
0.0000001
 43
0.0000001
 44
0.0000000001
 40
0.0
 40
0.0
 40
0.0
 40
0.0
 40
0.1925558331
 40
0.378641094
 40
0.5501754766
 40
0.7009024739
 40
0.8252807938
 40
0.8761652637
 40
0.9188059018
 40
0.952729247
 40
0.9776888391
 40
0.9934986464
 40
1.0
 40
1.0
 40
1.0
 40
1.0
 10
-3.0467111315
 20
-5.1530918551
 30
0.0
 10
-3.0274550981
 20
-5.1530883912
 30
0.0
 10
-2.9895900695
 20
-5.1530436525
 30
0.0
 10
-2.9345716054
 20
-5.1528679907
 30
0.0
 10
-2.8837360443
 20
-5.1525894391
 30
0.0
 10
-2.8390737746
 20
-5.1522175185
 30
0.0
 10
-2.8064730734
 20
-5.1518349946
 30
0.0
 10
-2.7846902164
 20
-5.1514622733
 30
0.0
 10
-2.77193672
 20
-5.1512206963
 30
0.0
 10
-2.7618171936
 20
-5.1508860401
 30
0.0
 10
-2.7542829616
 20
-5.1507576975
 30
0.0
 10
-2.7496942386
 20
-5.150223222
 30
0.0
 10
-2.7473166178
 20
-5.150330644
 30
0.0
 10
-2.746756823
 20
-5.15
 30
0.0
  0
SPLINE
  5
8AA
100
AcDbEntity
  8
ASSI
100
AcDbSpline
 62
250
  6
CONTINUOUS
 70
0
 71
3
 72
21
 73
17
 74
0
 42
0.0000001
 43
0.0000001
 44
0.0000000001
 40
0.0
 40
0.0
 40
0.0
 40
0.0
 40
0.0014805297
 40
0.0051988326
 40
0.0112680463
 40
0.0196913985
 40
0.0435509674
 40
0.0766298561
 40
0.1185876581
 40
0.1690012444
 40
0.2274362432
 40
0.2933198627
 40
0.4447118178
 40
0.6174575587
 40
0.8051562794
 40
1.0
 40
1.0
 40
1.0
 40
1.0
 10
-73.532775281
 20
21.9749071372
 30
0.0
 10
-73.5330216382
 20
21.9748942262
 30
0.0
 10
-73.5333029883
 20
21.973760016
 30
0.0
 10
-73.5335697796
 20
21.972164339
 30
0.0
 10
-73.5338129106
 20
21.9689945365
 30
0.0
 10
-73.5340914928
 20
21.962695644
 30
0.0
 10
-73.5342213425
 20
21.9517400877
 30
0.0
 10
-73.5341333466
 20
21.935291823
 30
0.0
 10
-73.5337886373
 20
21.9143793061
 30
0.0
 10
-73.5331918122
 20
21.8892620687
 30
0.0
 10
-73.5323424099
 20
21.8601579714
 30
0.0
 10
-73.5308109969
 20
21.8142433077
 30
0.0
 10
-73.5283101441
 20
21.7493028603
 30
0.0
 10
-73.524623139
 20
21.66409703
 30
0.0
 10
-73.5202591062
 20
21.5716740822
 30
0.0
 10
-73.5170321348
 20
21.5080140121
 30
0.0
 10
-73.5153335061
 20
21.4755923698
 30
0.0
  0
SPLINE
  5
8AB
100
AcDbEntity
  8
ASSI
100
AcDbSpline
 62
250
  6
CONTINUOUS
 70
0
 71
3
 72
21
 73
17
 74
0
 42
0.0000001
 43
0.0000001
 44
0.0000000001
 40
0.0
 40
0.0
 40
0.0
 40
0.0
 40
0.0014805244
 40
0.0051988267
 40
0.0112680414
 40
0.0196913953
 40
0.043550968
 40
0.0766298619
 40
0.1185876739
 40
0.1690012687
 40
0.2274362717
 40
0.2933198997
 40
0.4447118671
 40
0.6174576038
 40
0.8051562932
 40
1.0
 40
1.0
 40
1.0
 40
1.0
 10
-73.532775281
 20
-21.9749071372
 30
0.0
 10
-73.5330216373
 20
-21.9748942262
 30
0.0
 10
-73.5333029797
 20
-21.9737600126
 30
0.0
 10
-73.53356977
 20
-21.9721643394
 30
0.0
 10
-73.533812895
 20
-21.9689945343
 30
0.0
 10
-73.534091472
 20
-21.9626956417
 30
0.0
 10
-73.5342213145
 20
-21.9517400828
 30
0.0
 10
-73.5341333122
 20
-21.9352918156
 30
0.0
 10
-73.5337885969
 20
-21.914379295
 30
0.0
 10
-73.5331917672
 20
-21.8892620543
 30
0.0
 10
-73.5323423621
 20
-21.8601579539
 30
0.0
 10
-73.5308109473
 20
-21.8142432867
 30
0.0
 10
-73.5283100973
 20
-21.7493028372
 30
0.0
 10
-73.5246231016
 20
-21.6640970115
 30
0.0
 10
-73.5202590842
 20
-21.5716740723
 30
0.0
 10
-73.5170321268
 20
-21.5080140098
 30
0.0
 10
-73.5153335061
 20
-21.4755923698
 30
0.0
  0
SPLINE
  5
8AC
100
AcDbEntity
  8
0
100
AcDbSpline
 62
250
  6
CONTINUOUS
 70
0
 71
3
 72
21
 73
17
 74
0
 42
0.0000001
 43
0.0000001
 44
0.0000000001
 40
0.0
 40
0.0
 40
0.0
 40
0.0
 40
0.0014805297
 40
0.0051988326
 40
0.0112680463
 40
0.0196913985
 40
0.0435509674
 40
0.0766298561
 40
0.1185876581
 40
0.1690012444
 40
0.2274362432
 40
0.2933198627
 40
0.4447118178
 40
0.6174575587
 40
0.8051562794
 40
1.0
 40
1.0
 40
1.0
 40
1.0
 10
-73.532775281
 20
21.9749071372
 30
0.0
 10
-73.5330216382
 20
21.9748942262
 30
0.0
 10
-73.5333029883
 20
21.973760016
 30
0.0
 10
-73.5335697796
 20
21.972164339
 30
0.0
 10
-73.5338129106
 20
21.9689945365
 30
0.0
 10
-73.5340914928
 20
21.962695644
 30
0.0
 10
-73.5342213425
 20
21.9517400877
 30
0.0
 10
-73.5341333466
 20
21.935291823
 30
0.0
 10
-73.5337886373
 20
21.9143793061
 30
0.0
 10
-73.5331918122
 20
21.8892620687
 30
0.0
 10
-73.5323424099
 20
21.8601579714
 30
0.0
 10
-73.5308109969
 20
21.8142433077
 30
0.0
 10
-73.5283101441
 20
21.7493028603
 30
0.0
 10
-73.524623139
 20
21.66409703
 30
0.0
 10
-73.5202591062
 20
21.5716740822
 30
0.0
 10
-73.5170321348
 20
21.5080140121
 30
0.0
 10
-73.5153335061
 20
21.4755923698
 30
0.0
  0
SPLINE
  5
8AD
100
AcDbEntity
  8
0
100
AcDbSpline
 62
250
  6
CONTINUOUS
 70
0
 71
3
 72
21
 73
17
 74
0
 42
0.0000001
 43
0.0000001
 44
0.0000000001
 40
0.0
 40
0.0
 40
0.0
 40
0.0
 40
0.0014805244
 40
0.0051988267
 40
0.0112680414
 40
0.0196913953
 40
0.043550968
 40
0.0766298619
 40
0.1185876739
 40
0.1690012687
 40
0.2274362717
 40
0.2933198997
 40
0.4447118671
 40
0.6174576038
 40
0.8051562932
 40
1.0
 40
1.0
 40
1.0
 40
1.0
 10
-73.532775281
 20
-21.9749071372
 30
0.0
 10
-73.5330216373
 20
-21.9748942262
 30
0.0
 10
-73.5333029797
 20
-21.9737600126
 30
0.0
 10
-73.53356977
 20
-21.9721643394
 30
0.0
 10
-73.533812895
 20
-21.9689945343
 30
0.0
 10
-73.534091472
 20
-21.9626956417
 30
0.0
 10
-73.5342213145
 20
-21.9517400828
 30
0.0
 10
-73.5341333122
 20
-21.9352918156
 30
0.0
 10
-73.5337885969
 20
-21.914379295
 30
0.0
 10
-73.5331917672
 20
-21.8892620543
 30
0.0
 10
-73.5323423621
 20
-21.8601579539
 30
0.0
 10
-73.5308109473
 20
-21.8142432867
 30
0.0
 10
-73.5283100973
 20
-21.7493028372
 30
0.0
 10
-73.5246231016
 20
-21.6640970115
 30
0.0
 10
-73.5202590842
 20
-21.5716740723
 30
0.0
 10
-73.5170321268
 20
-21.5080140098
 30
0.0
 10
-73.5153335061
 20
-21.4755923698
 30
0.0
  0
SPLINE
  5
8AE
100
AcDbEntity
  8
ASSI
100
AcDbSpline
 62
7
  6
CONTINUOUS
 70
0
 71
3
 72
8
 73
4
 74
0
 42
0.0000001
 43
0.0000001
 44
0.0000000001
 40
0.0
 40
0.0
 40
0.0
 40
0.0
 40
1.0
 40
1.0
 40
1.0
 40
1.0
 10
-61.8589263712
 20
-22.633069229
 30
0.0
 10
-63.046467035
 20
-22.6419237503
 30
0.0
 10
-64.2339986555
 20
-22.6520460538
 30
0.0
 10
-65.4215202611
 20
-22.663166622
 30
0.0
  0
SPLINE
  5
8AF
100
AcDbEntity
  8
ASSI
100
AcDbSpline
 62
7
  6
CONTINUOUS
 70
0
 71
3
 72
8
 73
4
 74
0
 42
0.0000001
 43
0.0000001
 44
0.0000000001
 40
0.0
 40
0.0
 40
0.0
 40
0.0
 40
1.0
 40
1.0
 40
1.0
 40
1.0
 10
-61.4215202611
 20
22.6298666026
 30
0.0
 10
-62.6049030656
 20
22.6383704184
 30
0.0
 10
-63.7882769201
 20
22.6481787064
 30
0.0
 10
-64.9716407788
 20
22.6590025087
 30
0.0
  0
LINE
  5
8B0
100
AcDbEntity
  8
ASSI
100
AcDbLine
 62
250
  6
CONTINUOUS
 10
-65.4215202611
 20
23.3333596575
 11
-61.4215202611
 21
23.2631073618
  0
SPLINE
  5
8B1
100
AcDbEntity
  8
ASSI
100
AcDbSpline
 62
250
  6
CONTINUOUS
 70
0
 71
3
 72
8
 73
4
 74
0
 42
0.0000001
 43
0.0000001
 44
0.0000000001
 40
0.0
 40
0.0
 40
0.0
 40
0.0
 40
1.0
 40
1.0
 40
1.0
 40
1.0
 10
-28.4215202611
 20
15.8937104774
 30
0.0
 10
-40.7548503136
 20
15.9695620435
 30
0.0
 10
-53.0881837157
 20
16.0448707693
 30
0.0
 10
-65.4215202611
 20
16.119659166
 30
0.0
  0
SPLINE
  5
8B2
100
AcDbEntity
  8
ASSI
100
AcDbSpline
 62
250
  6
CONTINUOUS
 70
0
 71
3
 72
8
 73
4
 74
0
 42
0.0000001
 43
0.0000001
 44
0.0000000001
 40
0.0
 40
0.0
 40
0.0
 40
0.0
 40
1.0
 40
1.0
 40
1.0
 40
1.0
 10
-28.4215202611
 20
-15.8937104774
 30
0.0
 10
-40.7548503136
 20
-15.9695620435
 30
0.0
 10
-53.0881837157
 20
-16.0448707693
 30
0.0
 10
-65.4215202611
 20
-16.119659166
 30
0.0
  0
SPLINE
  5
8B3
100
AcDbEntity
  8
ASSI
100
AcDbSpline
 62
250
  6
CONTINUOUS
 70
0
 71
3
 72
8
 73
4
 74
0
 42
0.0000001
 43
0.0000001
 44
0.0000000001
 40
0.0
 40
0.0
 40
0.0
 40
0.0
 40
1.0
 40
1.0
 40
1.0
 40
1.0
 10
-28.4215202611
 20
-17.1472402523
 30
0.0
 10
-40.7548509435
 20
-17.2184307593
 30
0.0
 10
-53.0881843296
 20
-17.2891543061
 30
0.0
 10
-65.4215202611
 20
-17.3594295692
 30
0.0
  0
SPLINE
  5
8B4
100
AcDbEntity
  8
ASSI
100
AcDbSpline
 62
250
  6
CONTINUOUS
 70
0
 71
3
 72
9
 73
5
 74
0
 42
0.0000001
 43
0.0000001
 44
0.0000000001
 40
0.0
 40
0.0
 40
0.0
 40
0.0
 40
0.4790247838
 40
1.0
 40
1.0
 40
1.0
 40
1.0
 10
-66.4029574158
 20
-23.1813689613
 30
0.0
 10
-66.3864197569
 20
-23.2110163168
 30
0.0
 10
-66.3305265051
 20
-23.2615778741
 30
0.0
 10
-66.2584411358
 20
-23.2776841007
 30
0.0
 10
-66.2215202611
 20
-23.2776841007
 30
0.0
  0
SPLINE
  5
8B5
100
AcDbEntity
  8
ASSI
100
AcDbSpline
 62
250
  6
CONTINUOUS
 70
0
 71
3
 72
11
 73
7
 74
0
 42
0.0000001
 43
0.0000001
 44
0.0000000001
 40
0.0
 40
0.0
 40
0.0
 40
0.0
 40
0.0682795738
 40
0.2592742592
 40
0.5720739779
 40
1.0
 40
1.0
 40
1.0
 40
1.0
 10
-66.2250107423
 20
-23.4859750215
 30
0.0
 10
-66.2242658702
 20
-23.4859880233
 30
0.0
 10
-66.224137254
 20
-23.4817641363
 30
0.0
 10
-66.2230247771
 20
-23.4769007627
 30
0.0
 10
-66.2223719664
 20
-23.4660134018
 30
0.0
 10
-66.2218217935
 20
-23.4581899755
 30
0.0
 10
-66.2215202611
 20
-23.4535307017
 30
0.0
  0
SPLINE
  5
8B6
100
AcDbEntity
  8
ASSI
100
AcDbSpline
 62
250
  6
CONTINUOUS
 70
0
 71
3
 72
9
 73
5
 74
0
 42
0.0000001
 43
0.0000001
 44
0.0000000001
 40
0.0
 40
0.0
 40
0.0
 40
0.0
 40
0.2547638769
 40
1.0
 40
1.0
 40
1.0
 40
1.0
 10
-66.2899243702
 20
-23.4434278797
 30
0.0
 10
-66.2953644855
 20
-23.4417690222
 30
0.0
 10
-66.3164638365
 20
-23.4344622835
 30
0.0
 10
-66.3364637487
 20
-23.4239004493
 30
0.0
 10
-66.3500762561
 20
-23.4143357209
 30
0.0
  0
SPLINE
  5
8B7
100
AcDbEntity
  8
ASSI
100
AcDbSpline
 62
250
  6
CONTINUOUS
 70
0
 71
3
 72
9
 73
5
 74
0
 42
0.0000001
 43
0.0000001
 44
0.0000000001
 40
0.0
 40
0.0
 40
0.0
 40
0.0
 40
0.5149744245
 40
1.0
 40
1.0
 40
1.0
 40
1.0
 10
-66.3500762561
 20
-23.4143357209
 30
0.0
 10
-66.3690768538
 20
-23.4009850904
 30
0.0
 10
-66.4018364394
 20
-23.3680914727
 30
0.0
 10
-66.4179989681
 20
-23.3241246715
 30
0.0
 10
-66.420555225
 20
-23.3024030507
 30
0.0
  0
SPLINE
  5
8B8
100
AcDbEntity
  8
ASSI
100
AcDbSpline
 62
250
  6
CONTINUOUS
 70
0
 71
3
 72
8
 73
4
 74
0
 42
0.0000001
 43
0.0000001
 44
0.0000000001
 40
0.0
 40
0.0
 40
0.0
 40
0.0
 40
1.0
 40
1.0
 40
1.0
 40
1.0
 10
-28.4215202611
 20
17.1472402523
 30
0.0
 10
-40.7548509435
 20
17.2184307593
 30
0.0
 10
-53.0881843296
 20
17.2891543061
 30
0.0
 10
-65.4215202611
 20
17.3594295692
 30
0.0
  0
SPLINE
  5
8B9
100
AcDbEntity
  8
ASSI
100
AcDbSpline
 62
250
  6
CONTINUOUS
 70
0
 71
3
 72
9
 73
5
 74
0
 42
0.0000001
 43
0.0000001
 44
0.0000000001
 40
0.0
 40
0.0
 40
0.0
 40
0.0
 40
0.479026552
 40
1.0
 40
1.0
 40
1.0
 40
1.0
 10
-66.4029523542
 20
23.1813780337
 30
0.0
 10
-66.3864134246
 20
23.211023004
 30
0.0
 10
-66.3305210962
 20
23.2615793898
 30
0.0
 10
-66.2584392821
 20
23.2776841005
 30
0.0
 10
-66.2215202611
 20
23.2776841005
 30
0.0
  0
SPLINE
  5
8BA
100
AcDbEntity
  8
ASSI
100
AcDbSpline
 62
250
  6
CONTINUOUS
 70
0
 71
3
 72
13
 73
9
 74
0
 42
0.0000001
 43
0.0000001
 44
0.0000000001
 40
0.0
 40
0.0
 40
0.0
 40
0.0
 40
0.4275266942
 40
0.7400336646
 40
0.8509709047
 40
0.9310333677
 40
0.9801641024
 40
1.0
 40
1.0
 40
1.0
 40
1.0
 10
-66.2215202611
 20
23.4535307017
 30
0.0
 10
-66.2217929265
 20
23.4581917336
 30
0.0
 10
-66.2223080218
 20
23.4662385954
 30
0.0
 10
-66.2230795477
 20
23.4755544167
 30
0.0
 10
-66.22370796
 20
23.480947069
 30
0.0
 10
-66.2241262793
 20
23.4836562564
 30
0.0
 10
-66.2244574267
 20
23.4850302726
 30
0.0
 10
-66.2247941484
 20
23.4859788021
 30
0.0
 10
-66.2250107423
 20
23.4859750215
 30
0.0
  0
SPLINE
  5
8BB
100
AcDbEntity
  8
ASSI
100
AcDbSpline
 62
250
  6
CONTINUOUS
 70
0
 71
3
 72
9
 73
5
 74
0
 42
0.0000001
 43
0.0000001
 44
0.0000000001
 40
0.0
 40
0.0
 40
0.0
 40
0.0
 40
0.4850270508
 40
1.0
 40
1.0
 40
1.0
 40
1.0
 10
-66.4205332327
 20
23.3025888304
 30
0.0
 10
-66.4179504936
 20
23.3242887217
 30
0.0
 10
-66.4017556812
 20
23.3681969638
 30
0.0
 10
-66.3690087292
 20
23.4010429713
 30
0.0
 10
-66.3500195681
 20
23.4143755339
 30
0.0
  0
SPLINE
  5
8BC
100
AcDbEntity
  8
ASSI
100
AcDbSpline
 62
250
  6
CONTINUOUS
 70
0
 71
3
 72
9
 73
5
 74
0
 42
0.0000001
 43
0.0000001
 44
0.0000000001
 40
0.0
 40
0.0
 40
0.0
 40
0.0
 40
0.244159671
 40
1.0
 40
1.0
 40
1.0
 40
1.0
 10
-66.3500195681
 20
23.4143755339
 30
0.0
 10
-66.3409923964
 20
23.4207136408
 30
0.0
 10
-66.3018881252
 20
23.4435794678
 30
0.0
 10
-66.2556656909
 20
23.4535307017
 30
0.0
 10
-66.2215202611
 20
23.4535307017
 30
0.0
  0
LINE
  5
8BD
100
AcDbEntity
  8
ASSI
100
AcDbLine
 62
250
  6
CONTINUOUS
 10
-65.4215202611
 20
-23.3333596575
 11
-61.4215202611
 21
-23.2631073618
  0
SPLINE
  5
8BE
100
AcDbEntity
  8
CURVE
100
AcDbSpline
 62
250
  6
CONTINUOUS
 70
0
 71
3
 72
8
 73
4
 74
0
 42
0.0000001
 43
0.0000001
 44
0.0000000001
 40
0.0
 40
0.0
 40
0.0
 40
0.0
 40
1.0
 40
1.0
 40
1.0
 40
1.0
 10
-60.4208348881
 20
0.9999999992
 30
0.0
 10
-60.4208348881
 20
0.457014048
 30
0.0
 10
-60.0317660247
 20
-0.1449709778
 30
0.0
 10
-59.5368385173
 20
-0.3681432733
 30
0.0
  0
SPLINE
  5
8BF
100
AcDbEntity
  8
CURVE
100
AcDbSpline
 62
250
  6
CONTINUOUS
 70
0
 71
3
 72
10
 73
6
 74
0
 42
0.0000001
 43
0.0000001
 44
0.0000000001
 40
0.0
 40
0.0
 40
0.0
 40
0.0
 40
0.2641273634
 40
0.7505516486
 40
1.0
 40
1.0
 40
1.0
 40
1.0
 10
-57.8633820234
 20
-0.0636291216
 30
0.0
 10
-57.5919244261
 20
0.2078698263
 30
0.0
 10
-57.0584393908
 20
1.3200583709
 30
0.0
 10
-58.5514934545
 20
2.9024516243
 30
0.0
 10
-59.6862415437
 20
2.2876204935
 30
0.0
 10
-59.9707252591
 20
1.9901243152
 30
0.0
  0
SPLINE
  5
8C0
100
AcDbEntity
  8
CURVE
100
AcDbSpline
 62
250
  6
CONTINUOUS
 70
0
 71
3
 72
8
 73
4
 74
0
 42
0.0000001
 43
0.0000001
 44
0.0000000001
 40
0.0
 40
0.0
 40
0.0
 40
0.0
 40
1.0
 40
1.0
 40
1.0
 40
1.0
 10
-56.9213683148
 20
0.9999999992
 30
0.0
 10
-56.9213683148
 20
0.5419980072
 30
0.0
 10
-57.0975961541
 20
0.0593578791
 30
0.0
 10
-57.3932260858
 20
-0.290416534
 30
0.0
  0
SPLINE
  5
8C1
100
AcDbEntity
  8
CURVE
100
AcDbSpline
 62
250
  6
CONTINUOUS
 70
0
 71
3
 72
8
 73
4
 74
0
 42
0.0000001
 43
0.0000001
 44
0.0000000001
 40
0.0
 40
0.0
 40
0.0
 40
0.0
 40
1.0
 40
1.0
 40
1.0
 40
1.0
 10
-56.4730617207
 20
-0.7340457986
 30
0.0
 10
-56.1221207702
 20
-0.2393593862
 30
0.0
 10
-55.9215202611
 20
0.3934427295
 30
0.0
 10
-55.9215202611
 20
0.9999999992
 30
0.0
  0
SPLINE
  5
8C2
100
AcDbEntity
  8
CURVE
100
AcDbSpline
 62
250
  6
CONTINUOUS
 70
0
 71
3
 72
9
 73
5
 74
0
 42
0.0000001
 43
0.0000001
 44
0.0000000001
 40
0.0
 40
0.0
 40
0.0
 40
0.0
 40
0.6975631748
 40
1.0
 40
1.0
 40
1.0
 40
1.0
 10
-61.9206064305
 20
0.9999999992
 30
0.0
 10
-61.9206064305
 20
-0.4142135628
 30
0.0
 10
-59.7160022586
 20
-2.5807016056
 30
0.0
 10
-57.6679109622
 20
-1.7945494863
 30
0.0
 10
-57.1703860314
 20
-1.4362962353
 30
0.0
  0
SPLINE
  5
8C3
100
AcDbEntity
  8
CURVE
100
AcDbSpline
 62
250
  6
CONTINUOUS
 70
0
 71
3
 72
9
 73
5
 74
0
 42
0.0000001
 43
0.0000001
 44
0.0000000001
 40
0.0
 40
0.0
 40
0.0
 40
0.0
 40
0.1738893459
 40
1.0
 40
1.0
 40
1.0
 40
1.0
 10
-58.3323603485
 20
-0.9118127306
 30
0.0
 10
-58.522012797
 20
-0.9701630555
 30
0.0
 10
-59.6585051411
 20
-1.1821418002
 30
0.0
 10
-60.9207594532
 20
0.0571906196
 30
0.0
 10
-60.9207594532
 20
0.9999999992
 30
0.0
  0
SPLINE
  5
8C4
100
AcDbEntity
  8
CURVE
100
AcDbSpline
 62
250
  6
CONTINUOUS
 70
0
 71
3
 72
69
 73
65
 74
0
 42
0.0000001
 43
0.0000001
 44
0.0000000001
 40
0.0
 40
0.0
 40
0.0
 40
0.0
 40
0.03125
 40
0.046875
 40
0.0625
 40
0.078125
 40
0.09375
 40
0.109375
 40
0.125
 40
0.140625
 40
0.15625
 40
0.171875
 40
0.1875
 40
0.203125
 40
0.21875
 40
0.234375
 40
0.25
 40
0.265625
 40
0.28125
 40
0.296875
 40
0.3125
 40
0.328125
 40
0.34375
 40
0.359375
 40
0.375
 40
0.390625
 40
0.40625
 40
0.421875
 40
0.4375
 40
0.453125
 40
0.46875
 40
0.484375
 40
0.5
 40
0.515625
 40
0.53125
 40
0.546875
 40
0.5625
 40
0.578125
 40
0.59375
 40
0.609375
 40
0.625
 40
0.640625
 40
0.65625
 40
0.671875
 40
0.6875
 40
0.703125
 40
0.71875
 40
0.734375
 40
0.75
 40
0.765625
 40
0.78125
 40
0.796875
 40
0.8125
 40
0.828125
 40
0.84375
 40
0.859375
 40
0.875
 40
0.890625
 40
0.90625
 40
0.921875
 40
0.9375
 40
0.953125
 40
0.96875
 40
1.0
 40
1.0
 40
1.0
 40
1.0
 10
-58.9210573474
 20
1.499993
 30
0.0
 10
-58.9372410458
 20
1.4984059328
 30
0.0
 10
-58.9615591093
 20
1.4962389598
 30
0.0
 10
-58.99381313
 20
1.4924951511
 30
0.0
 10
-59.0184288053
 20
1.4918235732
 30
0.0
 10
-59.0414288733
 20
1.4830341366
 30
0.0
 10
-59.0649183227
 20
1.4765567041
 30
0.0
 10
-59.0880658537
 20
1.4689491141
 30
0.0
 10
-59.112091677
 20
1.4635501497
 30
0.0
 10
-59.1329462492
 20
1.4504468405
 30
0.0
 10
-59.1547230744
 20
1.4395405844
 30
0.0
 10
-59.1759821387
 20
1.4275504608
 30
0.0
 10
-59.1983899933
 20
1.4176987544
 30
0.0
 10
-59.2167204479
 20
1.4003772464
 30
0.0
 10
-59.2362594095
 20
1.3851543287
 30
0.0
 10
-59.2550417433
 20
1.3690068517
 30
0.0
 10
-59.2756420813
 20
1.3544590215
 30
0.0
 10
-59.2897270301
 20
1.3344371633
 30
0.0
 10
-59.3056808269
 20
1.3159642781
 30
0.0
 10
-59.3206746211
 20
1.2967695291
 30
0.0
 10
-59.3376395774
 20
1.2789132625
 30
0.0
 10
-59.3476798877
 20
1.2564249299
 30
0.0
 10
-59.3597123281
 20
1.2352345652
 30
0.0
 10
-59.3707008939
 20
1.2134843947
 30
0.0
 10
-59.3838728281
 20
1.1926754799
 30
0.0
 10
-59.3893551631
 20
1.1686613479
 30
0.0
 10
-59.3970430033
 20
1.1455485839
 30
0.0
 10
-59.4035984221
 20
1.122035565
 30
0.0
 10
-59.4124780215
 20
1.0992221979
 30
0.0
 10
-59.4131933197
 20
1.0740104787
 30
0.0
 10
-59.4162468631
 20
1.0494280136
 30
0.0
 10
-59.4181117272
 20
1.0247268844
 30
0.0
 10
-59.4223930633
 20
0.9998711574
 30
0.0
 10
-59.4181971907
 20
0.9757524858
 30
0.0
 10
-59.4164179156
 20
0.9514074272
 30
0.0
 10
-59.4134494591
 20
0.9272308614
 30
0.0
 10
-59.4128211306
 20
0.9026067112
 30
0.0
 10
-59.4040214715
 20
0.8796044058
 30
0.0
 10
-59.3975481233
 20
0.856111039
 30
0.0
 10
-59.389940862
 20
0.8329600729
 30
0.0
 10
-59.3845429423
 20
0.8089305654
 30
0.0
 10
-59.3714415692
 20
0.788072823
 30
0.0
 10
-59.3605369902
 20
0.7662926789
 30
0.0
 10
-59.3485486884
 20
0.7450303766
 30
0.0
 10
-59.3386984836
 20
0.7226191086
 30
0.0
 10
-59.3213796135
 20
0.7042858617
 30
0.0
 10
-59.3061590143
 20
0.6847439238
 30
0.0
 10
-59.2900139967
 20
0.6659587289
 30
0.0
 10
-59.2754683822
 20
0.6453552529
 30
0.0
 10
-59.2554495734
 20
0.6312681586
 30
0.0
 10
-59.2369795017
 20
0.6153119317
 30
0.0
 10
-59.2177876761
 20
0.6003158534
 30
0.0
 10
-59.1999341291
 20
0.5833483131
 30
0.0
 10
-59.1774492216
 20
0.5733064723
 30
0.0
 10
-59.1562620844
 20
0.5612722033
 30
0.0
 10
-59.1345152264
 20
0.5502819477
 30
0.0
 10
-59.1137094815
 20
0.5371080666
 30
0.0
 10
-59.0896990047
 20
0.531624674
 30
0.0
 10
-59.0665897695
 20
0.5239364928
 30
0.0
 10
-59.0430802998
 20
0.5173769777
 30
0.0
 10
-59.0202705264
 20
0.5085075867
 30
0.0
 10
-58.9950622023
 20
0.5077490332
 30
0.0
 10
-58.9622927002
 20
0.5038917206
 30
0.0
 10
-58.9375262144
 20
0.5016390655
 30
0.0
 10
-58.9210573037
 20
0.499995
 30
0.0
  0
SPLINE
  5
8C5
100
AcDbEntity
  8
CURVE
100
AcDbSpline
 62
250
  6
CONTINUOUS
 70
0
 71
3
 72
69
 73
65
 74
0
 42
0.0000001
 43
0.0000001
 44
0.0000000001
 40
0.0
 40
0.0
 40
0.0
 40
0.0
 40
0.03125
 40
0.046875
 40
0.0625
 40
0.078125
 40
0.09375
 40
0.109375
 40
0.125
 40
0.140625
 40
0.15625
 40
0.171875
 40
0.1875
 40
0.203125
 40
0.21875
 40
0.234375
 40
0.25
 40
0.265625
 40
0.28125
 40
0.296875
 40
0.3125
 40
0.328125
 40
0.34375
 40
0.359375
 40
0.375
 40
0.390625
 40
0.40625
 40
0.421875
 40
0.4375
 40
0.453125
 40
0.46875
 40
0.484375
 40
0.5
 40
0.515625
 40
0.53125
 40
0.546875
 40
0.5625
 40
0.578125
 40
0.59375
 40
0.609375
 40
0.625
 40
0.640625
 40
0.65625
 40
0.671875
 40
0.6875
 40
0.703125
 40
0.71875
 40
0.734375
 40
0.75
 40
0.765625
 40
0.78125
 40
0.796875
 40
0.8125
 40
0.828125
 40
0.84375
 40
0.859375
 40
0.875
 40
0.890625
 40
0.90625
 40
0.921875
 40
0.9375
 40
0.953125
 40
0.96875
 40
1.0
 40
1.0
 40
1.0
 40
1.0
 10
-58.9210573474
 20
0.499995
 30
0.0
 10
-58.9048736491
 20
0.5015820672
 30
0.0
 10
-58.8805555856
 20
0.5037490402
 30
0.0
 10
-58.8483015649
 20
0.5074928489
 30
0.0
 10
-58.8236858895
 20
0.5081644268
 30
0.0
 10
-58.8006858216
 20
0.5169538634
 30
0.0
 10
-58.7771963722
 20
0.5234312959
 30
0.0
 10
-58.7540488412
 20
0.5310388859
 30
0.0
 10
-58.7300230178
 20
0.5364378503
 30
0.0
 10
-58.7091684457
 20
0.5495411595
 30
0.0
 10
-58.6873916205
 20
0.5604474156
 30
0.0
 10
-58.6661325561
 20
0.5724375392
 30
0.0
 10
-58.6437247016
 20
0.5822892456
 30
0.0
 10
-58.6253942469
 20
0.5996107536
 30
0.0
 10
-58.6058552854
 20
0.6148336713
 30
0.0
 10
-58.5870729516
 20
0.6309811483
 30
0.0
 10
-58.5664726135
 20
0.6455289785
 30
0.0
 10
-58.5523876647
 20
0.6655508367
 30
0.0
 10
-58.536433868
 20
0.6840237219
 30
0.0
 10
-58.5214400738
 20
0.7032184709
 30
0.0
 10
-58.5044751175
 20
0.7210747375
 30
0.0
 10
-58.4944348072
 20
0.7435630701
 30
0.0
 10
-58.4824023668
 20
0.7647534348
 30
0.0
 10
-58.471413801
 20
0.7865036053
 30
0.0
 10
-58.4582418668
 20
0.8073125201
 30
0.0
 10
-58.4527595317
 20
0.8313266521
 30
0.0
 10
-58.4450716916
 20
0.8544394161
 30
0.0
 10
-58.4385162728
 20
0.877952435
 30
0.0
 10
-58.4296366734
 20
0.9007658021
 30
0.0
 10
-58.4289213751
 20
0.9259775213
 30
0.0
 10
-58.4258678318
 20
0.9505599864
 30
0.0
 10
-58.4240029677
 20
0.9752611156
 30
0.0
 10
-58.4197216316
 20
1.0001168426
 30
0.0
 10
-58.4239175042
 20
1.0242355142
 30
0.0
 10
-58.4256967793
 20
1.0485805728
 30
0.0
 10
-58.4286652358
 20
1.0727571386
 30
0.0
 10
-58.4292935642
 20
1.0973812888
 30
0.0
 10
-58.4380932234
 20
1.1203835942
 30
0.0
 10
-58.4445665715
 20
1.143876961
 30
0.0
 10
-58.4521738329
 20
1.1670279271
 30
0.0
 10
-58.4575717526
 20
1.1910574346
 30
0.0
 10
-58.4706731256
 20
1.211915177
 30
0.0
 10
-58.4815777047
 20
1.2336953211
 30
0.0
 10
-58.4935660065
 20
1.2549576234
 30
0.0
 10
-58.5034162113
 20
1.2773688914
 30
0.0
 10
-58.5207350814
 20
1.2957021383
 30
0.0
 10
-58.5359556805
 20
1.3152440762
 30
0.0
 10
-58.5521006982
 20
1.3340292711
 30
0.0
 10
-58.5666463127
 20
1.3546327471
 30
0.0
 10
-58.5866651214
 20
1.3687198414
 30
0.0
 10
-58.6051351931
 20
1.3846760683
 30
0.0
 10
-58.6243270187
 20
1.3996721466
 30
0.0
 10
-58.6421805657
 20
1.4166396869
 30
0.0
 10
-58.6646654733
 20
1.4266815277
 30
0.0
 10
-58.6858526104
 20
1.4387157967
 30
0.0
 10
-58.7075994685
 20
1.4497060523
 30
0.0
 10
-58.7284052134
 20
1.4628799334
 30
0.0
 10
-58.7524156902
 20
1.468363326
 30
0.0
 10
-58.7755249254
 20
1.4760515072
 30
0.0
 10
-58.7990343951
 20
1.4826110223
 30
0.0
 10
-58.8218441685
 20
1.4914804133
 30
0.0
 10
-58.8470524926
 20
1.4922389668
 30
0.0
 10
-58.8798219946
 20
1.4960962794
 30
0.0
 10
-58.9045884804
 20
1.4983489345
 30
0.0
 10
-58.9210573911
 20
1.499993
 30
0.0
  0
SPLINE
  5
8C6
100
AcDbEntity
  8
CURVE
100
AcDbSpline
 62
250
  6
CONTINUOUS
 70
0
 71
3
 72
10
 73
6
 74
0
 42
0.0000001
 43
0.0000001
 44
0.0000000001
 40
0.0
 40
0.0
 40
0.0
 40
0.0
 40
0.3247812427
 40
0.57190842
 40
1.0
 40
1.0
 40
1.0
 40
1.0
 10
-61.434447329
 20
15.4985214186
 30
0.0
 10
-61.5380702421
 20
15.4985214186
 30
0.0
 10
-61.7277418773
 20
15.4715327211
 30
0.0
 10
-61.9809691728
 20
15.2533033495
 30
0.0
 10
-62.0236530829
 20
15.0222397531
 30
0.0
 10
-62.0236530829
 20
14.8856344076
 30
0.0
  0
SPLINE
  5
8C7
100
AcDbEntity
  8
CURVE
100
AcDbSpline
 62
250
  6
CONTINUOUS
 70
0
 71
3
 72
9
 73
5
 74
0
 42
0.0000001
 43
0.0000001
 44
0.0000000001
 40
0.0
 40
0.0
 40
0.0
 40
0.0
 40
0.5252492858
 40
1.0
 40
1.0
 40
1.0
 40
1.0
 10
-60.8569653705
 20
14.8385121526
 30
0.0
 10
-60.8569653705
 20
15.0084039033
 30
0.0
 10
-60.9244854516
 20
15.3729145996
 30
0.0
 10
-61.2809127164
 20
15.4985214186
 30
0.0
 10
-61.434447329
 20
15.4985214186
 30
0.0
  0
SPLINE
  5
8C8
100
AcDbEntity
  8
CURVE
100
AcDbSpline
 62
250
  6
CONTINUOUS
 70
0
 71
3
 72
17
 73
13
 74
0
 42
0.0000001
 43
0.0000001
 44
0.0000000001
 40
0.0
 40
0.0
 40
0.0
 40
0.0
 40
0.1682311315
 40
0.2949067142
 40
0.4055182771
 40
0.4547323005
 40
0.4970194896
 40
0.5507091779
 40
0.6055967605
 40
0.7179988963
 40
0.8422555873
 40
1.0
 40
1.0
 40
1.0
 40
1.0
 10
-61.9116878011
 20
14.8767752146
 30
0.0
 10
-61.9116878011
 20
14.9634288925
 30
0.0
 10
-61.888460337
 20
15.120935358
 30
0.0
 10
-61.7481261226
 20
15.2881630692
 30
0.0
 10
-61.6088120468
 20
15.3472925177
 30
0.0
 10
-61.5063011832
 20
15.3659980492
 30
0.0
 10
-61.4314877355
 20
15.3705518119
 30
0.0
 10
-61.3536714666
 20
15.3646441817
 30
0.0
 10
-61.2426243615
 20
15.3383133707
 30
0.0
 10
-61.1070526432
 20
15.2633900229
 30
0.0
 10
-60.9889198836
 20
15.0889527144
 30
0.0
 10
-60.9689306522
 20
14.9403684728
 30
0.0
 10
-60.9689306522
 20
14.859116368
 30
0.0
  0
SPLINE
  5
8C9
100
AcDbEntity
  8
CURVE
100
AcDbSpline
 62
250
  6
CONTINUOUS
 70
0
 71
3
 72
10
 73
6
 74
0
 42
0.0000001
 43
0.0000001
 44
0.0000000001
 40
0.0
 40
0.0
 40
0.0
 40
0.0
 40
0.3202156399
 40
0.5700149228
 40
1.0
 40
1.0
 40
1.0
 40
1.0
 10
-59.981969632
 20
12.7996571749
 30
0.0
 10
-59.981969632
 20
12.6765019524
 30
0.0
 10
-60.022240129
 20
12.4450821056
 30
0.0
 10
-60.3214408471
 20
12.1721509172
 30
0.0
 10
-60.5973336917
 20
12.1395895847
 30
0.0
 10
-60.7626811513
 20
12.1395895847
 30
0.0
  0
SPLINE
  5
8CA
100
AcDbEntity
  8
CURVE
100
AcDbSpline
 62
250
  6
CONTINUOUS
 70
0
 71
3
 72
10
 73
6
 74
0
 42
0.0000001
 43
0.0000001
 44
0.0000000001
 40
0.0
 40
0.0
 40
0.0
 40
0.0
 40
0.4979450626
 40
0.7212351773
 40
1.0
 40
1.0
 40
1.0
 40
1.0
 10
-60.7626811513
 20
13.4891310643
 30
0.0
 10
-60.5663147423
 20
13.4891310643
 30
0.0
 10
-60.2459792903
 20
13.4497090183
 30
0.0
 10
-60.0036093446
 20
13.1130316251
 30
0.0
 10
-59.981969632
 20
12.9096058213
 30
0.0
 10
-59.981969632
 20
12.7996571749
 30
0.0
  0
SPLINE
  5
8CB
100
AcDbEntity
  8
CURVE
100
AcDbSpline
 62
250
  6
CONTINUOUS
 70
0
 71
3
 72
21
 73
17
 74
0
 42
0.0000001
 43
0.0000001
 44
0.0000000001
 40
0.0
 40
0.0
 40
0.0
 40
0.0
 40
0.0939119064
 40
0.2063177998
 40
0.2660571861
 40
0.3303789564
 40
0.404549629
 40
0.447575976
 40
0.4957276032
 40
0.5368963422
 40
0.5747104426
 40
0.6419938607
 40
0.7015977449
 40
0.7576336288
 40
0.8716159385
 40
1.0
 40
1.0
 40
1.0
 40
1.0
 10
-60.7626811513
 20
12.0099484008
 30
0.0
 10
-60.676621299
 20
12.0099484008
 30
0.0
 10
-60.4874564186
 20
12.0196898612
 30
0.0
 10
-60.2480399233
 20
12.0899410069
 30
0.0
 10
-60.0699385254
 20
12.2177011486
 30
0.0
 10
-59.9571446142
 20
12.3636779794
 30
0.0
 10
-59.8989108024
 20
12.5221079694
 30
0.0
 10
-59.8740503663
 20
12.6718423824
 30
0.0
 10
-59.8683176405
 20
12.7932663231
 30
0.0
 10
-59.8727479592
 20
12.9098311595
 30
0.0
 10
-59.8894458961
 20
13.042961529
 30
0.0
 10
-59.9297601691
 20
13.1897811959
 30
0.0
 10
-60.0127447428
 20
13.3375660288
 30
0.0
 10
-60.1622658318
 20
13.489206204
 30
0.0
 10
-60.4216255077
 20
13.6009996776
 30
0.0
 10
-60.64503139
 20
13.6187710331
 30
0.0
 10
-60.7626811513
 20
13.6187710331
 30
0.0
  0
SPLINE
  5
8CC
100
AcDbEntity
  8
CURVE
100
AcDbSpline
 62
250
  6
CONTINUOUS
 70
0
 71
3
 72
17
 73
13
 74
0
 42
0.0000001
 43
0.0000001
 44
0.0000000001
 40
0.0
 40
0.0
 40
0.0
 40
0.0
 40
0.0559780952
 40
0.1687540387
 40
0.321006234
 40
0.4122750837
 40
0.516613223
 40
0.6013931059
 40
0.6776022439
 40
0.8103422694
 40
0.9200404832
 40
1.0
 40
1.0
 40
1.0
 40
1.0
 10
-60.9146696719
 20
-8.2551988561
 30
0.0
 10
-60.9177930344
 20
-8.230989109
 30
0.0
 10
-60.9662518114
 20
-8.1694510625
 30
0.0
 10
-61.058627759
 20
-8.0673973772
 30
0.0
 10
-61.2008261884
 20
-7.9922533108
 30
0.0
 10
-61.3491713367
 20
-7.9587783512
 30
0.0
 10
-61.4722947131
 20
-7.9556334458
 30
0.0
 10
-61.587290948
 20
-7.9722074473
 30
0.0
 10
-61.7094834184
 20
-8.0123771362
 30
0.0
 10
-61.8292347032
 20
-8.0878240324
 30
0.0
 10
-61.9228833537
 20
-8.1943491793
 30
0.0
 10
-61.9632731589
 20
-8.2675918461
 30
0.0
 10
-61.9751037272
 20
-8.3003908885
 30
0.0
  0
SPLINE
  5
8CD
100
AcDbEntity
  8
CURVE
100
AcDbSpline
 62
250
  6
CONTINUOUS
 70
0
 71
3
 72
9
 73
5
 74
0
 42
0.0000001
 43
0.0000001
 44
0.0000000001
 40
0.0
 40
0.0
 40
0.0
 40
0.0
 40
0.2426586216
 40
1.0
 40
1.0
 40
1.0
 40
1.0
 10
-60.4904803058
 20
-8.0025486263
 30
0.0
 10
-60.5286318179
 20
-8.0129438305
 30
0.0
 10
-60.6826969212
 20
-8.052651906
 30
0.0
 10
-60.8565532856
 20
-8.1405477889
 30
0.0
 10
-60.9022634357
 20
-8.2551988561
 30
0.0
  0
SPLINE
  5
8CE
100
AcDbEntity
  8
CURVE
100
AcDbSpline
 62
250
  6
CONTINUOUS
 70
0
 71
3
 72
9
 73
5
 74
0
 42
0.0000001
 43
0.0000001
 44
0.0000000001
 40
0.0
 40
0.0
 40
0.0
 40
0.0
 40
0.1980141723
 40
1.0
 40
1.0
 40
1.0
 40
1.0
 10
-59.922233756
 20
-7.8527063336
 30
0.0
 10
-59.9596663776
 20
-7.8628744762
 30
0.0
 10
-60.1491314033
 20
-7.9126429783
 30
0.0
 10
-60.3389053554
 20
-7.9612465424
 30
0.0
 10
-60.4904803058
 20
-8.0025486263
 30
0.0
  0
SPLINE
  5
8CF
100
AcDbEntity
  8
CURVE
100
AcDbSpline
 62
250
  6
CONTINUOUS
 70
0
 71
3
 72
9
 73
5
 74
0
 42
0.0000001
 43
0.0000001
 44
0.0000000001
 40
0.0
 40
0.0
 40
0.0
 40
0.0
 40
0.5586214172
 40
1.0
 40
1.0
 40
1.0
 40
1.0
 10
-60.5588720441
 20
-8.4659795339
 30
0.0
 10
-60.4429762855
 20
-8.4224324704
 30
0.0
 10
-60.2283700548
 20
-8.3651642103
 30
0.0
 10
-60.0162461127
 20
-8.3013479756
 30
0.0
 10
-59.922233756
 20
-8.2743149283
 30
0.0
  0
SPLINE
  5
8D0
100
AcDbEntity
  8
CURVE
100
AcDbSpline
 62
250
  6
CONTINUOUS
 70
0
 71
3
 72
9
 73
5
 74
0
 42
0.0000001
 43
0.0000001
 44
0.0000000001
 40
0.0
 40
0.0
 40
0.0
 40
0.0
 40
0.3559141631
 40
1.0
 40
1.0
 40
1.0
 40
1.0
 10
-60.7438635095
 20
-8.7105203921
 30
0.0
 10
-60.7438635095
 20
-8.6723243561
 30
0.0
 10
-60.7207381206
 20
-8.5624446036
 30
0.0
 10
-60.6235770775
 20
-8.4902662468
 30
0.0
 10
-60.5588720441
 20
-8.4659795339
 30
0.0
  0
SPLINE
  5
8D1
100
AcDbEntity
  8
CURVE
100
AcDbSpline
 62
250
  6
CONTINUOUS
 70
0
 71
3
 72
9
 73
5
 74
0
 42
0.0000001
 43
0.0000001
 44
0.0000000001
 40
0.0
 40
0.0
 40
0.0
 40
0.0
 40
0.2957417834
 40
1.0
 40
1.0
 40
1.0
 40
1.0
 10
-61.9751037272
 20
-8.3003908885
 30
0.0
 10
-62.0115776516
 20
-8.4013645658
 30
0.0
 10
-62.0710323225
 20
-8.7643038101
 30
0.0
 10
-62.0344143161
 20
-9.1291468397
 30
0.0
 10
-61.9972082393
 20
-9.3820865903
 30
0.0
  0
SPLINE
  5
8D2
100
AcDbEntity
  8
CURVE
100
AcDbSpline
 62
250
  6
CONTINUOUS
 70
0
 71
3
 72
9
 73
5
 74
0
 42
0.0000001
 43
0.0000001
 44
0.0000000001
 40
0.0
 40
0.0
 40
0.0
 40
0.0
 40
0.5206208722
 40
1.0
 40
1.0
 40
1.0
 40
1.0
 10
-61.4139734448
 20
-8.3690922255
 30
0.0
 10
-61.3232107001
 20
-8.3676915153
 30
0.0
 10
-61.124940377
 20
-8.4318207561
 30
0.0
 10
-61.0895778927
 20
-8.6260009338
 30
0.0
 10
-61.0877114758
 20
-8.7095756109
 30
0.0
  0
SPLINE
  5
8D3
100
AcDbEntity
  8
CURVE
100
AcDbSpline
 62
250
  6
CONTINUOUS
 70
0
 71
3
 72
9
 73
5
 74
0
 42
0.0000001
 43
0.0000001
 44
0.0000000001
 40
0.0
 40
0.0
 40
0.0
 40
0.0
 40
0.5013510385
 40
1.0
 40
1.0
 40
1.0
 40
1.0
 10
-61.6764251663
 20
-8.6166878761
 30
0.0
 10
-61.6689680338
 20
-8.5524477116
 30
0.0
 10
-61.6124038512
 20
-8.4225144748
 30
0.0
 10
-61.4782788963
 20
-8.3700981474
 30
0.0
 10
-61.4139734448
 20
-8.3690922255
 30
0.0
  0
SPLINE
  5
8D4
100
AcDbEntity
  8
CURVE
100
AcDbSpline
 62
250
  6
CONTINUOUS
 70
0
 71
3
 72
9
 73
5
 74
0
 42
0.0000001
 43
0.0000001
 44
0.0000000001
 40
0.0
 40
0.0
 40
0.0
 40
0.0
 40
0.2703953699
 40
1.0
 40
1.0
 40
1.0
 40
1.0
 10
-61.6640661621
 20
-8.9600685904
 30
0.0
 10
-61.6692855069
 20
-8.9294760567
 30
0.0
 10
-61.6864515161
 20
-8.8159820689
 30
0.0
 10
-61.6860788614
 20
-8.6998699809
 30
0.0
 10
-61.6764251663
 20
-8.6166878761
 30
0.0
  0
SPLINE
  5
8D5
100
AcDbEntity
  8
CURVE
100
AcDbSpline
 62
250
  6
CONTINUOUS
 70
0
 71
3
 72
8
 73
4
 74
0
 42
0.0000001
 43
0.0000001
 44
0.0000000001
 40
0.0
 40
0.0
 40
0.0
 40
0.0
 40
1.0
 40
1.0
 40
1.0
 40
1.0
 10
-59.9707252591
 20
1.9901243152
 30
0.0
 10
-60.2409847887
 20
1.7075029459
 30
0.0
 10
-60.4208348881
 20
1.3444879182
 30
0.0
 10
-60.4208348881
 20
0.9999999992
 30
0.0
  0
SPLINE
  5
8D6
100
AcDbEntity
  8
0
100
AcDbSpline
 62
7
  6
CONTINUOUS
 70
0
 71
3
 72
8
 73
4
 74
0
 42
0.0000001
 43
0.0000001
 44
0.0000000001
 40
0.0
 40
0.0
 40
0.0
 40
0.0
 40
1.0
 40
1.0
 40
1.0
 40
1.0
 10
-61.4215202611
 20
-22.6298666026
 30
0.0
 10
-62.604903069
 20
-22.6383704184
 30
0.0
 10
-63.788276927
 20
-22.6481787083
 30
0.0
 10
-64.9716407892
 20
-22.6590025091
 30
0.0
  0
SPLINE
  5
8D7
100
AcDbEntity
  8
0
100
AcDbSpline
 62
7
  6
CONTINUOUS
 70
0
 71
3
 72
8
 73
4
 74
0
 42
0.0000001
 43
0.0000001
 44
0.0000000001
 40
0.0
 40
0.0
 40
0.0
 40
0.0
 40
1.0
 40
1.0
 40
1.0
 40
1.0
 10
-61.8589263558
 20
22.6330692283
 30
0.0
 10
-63.0464670248
 20
22.6419237468
 30
0.0
 10
-64.2339986503
 20
22.6520460538
 30
0.0
 10
-65.4215202611
 20
22.663166622
 30
0.0
  0
SPLINE
  5
8D8
100
AcDbEntity
  8
0
100
AcDbSpline
 62
250
  6
CONTINUOUS
 70
0
 71
3
 72
9
 73
5
 74
0
 42
0.0000001
 43
0.0000001
 44
0.0000000001
 40
0.0
 40
0.0
 40
0.0
 40
0.0
 40
0.4775862229
 40
1.0
 40
1.0
 40
1.0
 40
1.0
 10
-66.4066476002
 20
-23.1743334126
 30
0.0
 10
-66.3911961255
 20
-23.2057988999
 30
0.0
 10
-66.3346654912
 20
-23.2603883509
 30
0.0
 10
-66.2598651817
 20
-23.2776841007
 30
0.0
 10
-66.2215202611
 20
-23.2776841007
 30
0.0
  0
SPLINE
  5
8D9
100
AcDbEntity
  8
0
100
AcDbSpline
 62
250
  6
CONTINUOUS
 70
0
 71
3
 72
8
 73
4
 74
0
 42
0.0000001
 43
0.0000001
 44
0.0000000001
 40
0.0
 40
0.0
 40
0.0
 40
0.0
 40
1.0
 40
1.0
 40
1.0
 40
1.0
 10
-28.4215202611
 20
17.1472402523
 30
0.0
 10
-40.7548509435
 20
17.2184307593
 30
0.0
 10
-53.0881843296
 20
17.2891543061
 30
0.0
 10
-65.4215202611
 20
17.3594295692
 30
0.0
  0
SPLINE
  5
8DA
100
AcDbEntity
  8
0
100
AcDbSpline
 62
250
  6
CONTINUOUS
 70
0
 71
3
 72
8
 73
4
 74
0
 42
0.0000001
 43
0.0000001
 44
0.0000000001
 40
0.0
 40
0.0
 40
0.0
 40
0.0
 40
1.0
 40
1.0
 40
1.0
 40
1.0
 10
-28.4215202611
 20
15.8937104774
 30
0.0
 10
-40.7548503136
 20
15.9695620435
 30
0.0
 10
-53.0881837157
 20
16.0448707693
 30
0.0
 10
-65.4215202611
 20
16.119659166
 30
0.0
  0
LINE
  5
8DB
100
AcDbEntity
  8
0
100
AcDbLine
 62
250
  6
CONTINUOUS
 10
-65.4215202611
 20
23.3333596575
 11
-61.4215202611
 21
23.2631073618
  0
SPLINE
  5
8DC
100
AcDbEntity
  8
0
100
AcDbSpline
 62
250
  6
CONTINUOUS
 70
0
 71
3
 72
9
 73
5
 74
0
 42
0.0000001
 43
0.0000001
 44
0.0000000001
 40
0.0
 40
0.0
 40
0.0
 40
0.0
 40
0.477667351
 40
1.0
 40
1.0
 40
1.0
 40
1.0
 10
-66.4064498379
 20
23.1747340822
 30
0.0
 10
-66.3909340279
 20
23.2060988801
 30
0.0
 10
-66.334431296
 20
23.2604555858
 30
0.0
 10
-66.2597850566
 20
23.2776841005
 30
0.0
 10
-66.2215202611
 20
23.2776841005
 30
0.0
  0
SPLINE
  5
8DD
100
AcDbEntity
  8
0
100
AcDbSpline
 62
250
  6
CONTINUOUS
 70
0
 71
3
 72
11
 73
7
 74
0
 42
0.0000001
 43
0.0000001
 44
0.0000000001
 40
0.0
 40
0.0
 40
0.0
 40
0.0
 40
0.4280137836
 40
0.7408767992
 40
0.9320522808
 40
1.0
 40
1.0
 40
1.0
 40
1.0
 10
-66.2215202611
 20
23.4535307017
 30
0.0
 10
-66.2217929265
 20
23.4581917336
 30
0.0
 10
-66.2223997228
 20
23.4660066211
 30
0.0
 10
-66.222959782
 20
23.4769169236
 30
0.0
 10
-66.2242110757
 20
23.4817421465
 30
0.0
 10
-66.2242696456
 20
23.4859879574
 30
0.0
 10
-66.2250107423
 20
23.4859750215
 30
0.0
  0
LINE
  5
8DE
100
AcDbEntity
  8
0
100
AcDbLine
 62
250
  6
CONTINUOUS
 10
-65.4215202611
 20
-23.3333596575
 11
-61.4215202611
 21
-23.2631073618
  0
SPLINE
  5
8DF
100
AcDbEntity
  8
0
100
AcDbSpline
 62
250
  6
CONTINUOUS
 70
0
 71
3
 72
8
 73
4
 74
0
 42
0.0000001
 43
0.0000001
 44
0.0000000001
 40
0.0
 40
0.0
 40
0.0
 40
0.0
 40
1.0
 40
1.0
 40
1.0
 40
1.0
 10
-28.4215202611
 20
-17.1472402523
 30
0.0
 10
-40.7548509435
 20
-17.2184307593
 30
0.0
 10
-53.0881843296
 20
-17.2891543061
 30
0.0
 10
-65.4215202611
 20
-17.3594295692
 30
0.0
  0
SPLINE
  5
8E0
100
AcDbEntity
  8
0
100
AcDbSpline
 62
250
  6
CONTINUOUS
 70
0
 71
3
 72
8
 73
4
 74
0
 42
0.0000001
 43
0.0000001
 44
0.0000000001
 40
0.0
 40
0.0
 40
0.0
 40
0.0
 40
1.0
 40
1.0
 40
1.0
 40
1.0
 10
-28.4215202611
 20
-15.8937104774
 30
0.0
 10
-40.7548503136
 20
-15.9695620435
 30
0.0
 10
-53.0881837157
 20
-16.0448707693
 30
0.0
 10
-65.4215202611
 20
-16.119659166
 30
0.0
  0
SPLINE
  5
8E1
100
AcDbEntity
  8
0
100
AcDbSpline
 62
250
  6
CONTINUOUS
 70
0
 71
3
 72
8
 73
4
 74
0
 42
0.0000001
 43
0.0000001
 44
0.0000000001
 40
0.0
 40
0.0
 40
0.0
 40
0.0
 40
1.0
 40
1.0
 40
1.0
 40
1.0
 10
-66.2980569475
 20
-23.4407786037
 30
0.0
 10
-66.3138759173
 20
-23.4352984846
 30
0.0
 10
-66.3291845382
 20
-23.4279580917
 30
0.0
 10
-66.3432690892
 20
-23.4189083991
 30
0.0
  0
SPLINE
  5
8E2
100
AcDbEntity
  8
0
100
AcDbSpline
 62
250
  6
CONTINUOUS
 70
0
 71
3
 72
9
 73
5
 74
0
 42
0.0000001
 43
0.0000001
 44
0.0000000001
 40
0.0
 40
0.0
 40
0.0
 40
0.0
 40
0.5169129753
 40
1.0
 40
1.0
 40
1.0
 40
1.0
 10
-66.3432690892
 20
-23.4189083991
 30
0.0
 10
-66.3663537501
 20
-23.4040759003
 30
0.0
 10
-66.4059833744
 20
-23.3655072852
 30
0.0
 10
-66.4215202611
 20
-23.3116490185
 30
0.0
 10
-66.4215202611
 20
-23.2860054824
 30
0.0
  0
SPLINE
  5
8E3
100
AcDbEntity
  8
0
100
AcDbSpline
 62
250
  6
CONTINUOUS
 70
0
 71
3
 72
9
 73
5
 74
0
 42
0.0000001
 43
0.0000001
 44
0.0000000001
 40
0.0
 40
0.0
 40
0.0
 40
0.0
 40
0.4830394714
 40
1.0
 40
1.0
 40
1.0
 40
1.0
 10
-66.4215202611
 20
23.2860054824
 30
0.0
 10
-66.4215202611
 20
23.3116931328
 30
0.0
 10
-66.4059247901
 20
23.3656507387
 30
0.0
 10
-66.3661693604
 20
23.4042428298
 30
0.0
 10
-66.3430185257
 20
23.4190692891
 30
0.0
  0
SPLINE
  5
8E4
100
AcDbEntity
  8
0
100
AcDbSpline
 62
250
  6
CONTINUOUS
 70
0
 71
3
 72
9
 73
5
 74
0
 42
0.0000001
 43
0.0000001
 44
0.0000000001
 40
0.0
 40
0.0
 40
0.0
 40
0.0
 40
0.2447649789
 40
1.0
 40
1.0
 40
1.0
 40
1.0
 10
-66.3430185257
 20
23.4190692891
 30
0.0
 10
-66.3342748447
 20
23.4246689935
 30
0.0
 10
-66.2968278147
 20
23.4448007142
 30
0.0
 10
-66.2535578366
 20
23.4535307017
 30
0.0
 10
-66.2215202611
 20
23.4535307017
 30
0.0
  0
SPLINE
  5
8E5
100
AcDbEntity
  8
0
100
AcDbSpline
 62
250
  6
CONTINUOUS
 70
0
 71
3
 72
11
 73
7
 74
0
 42
0.0000001
 43
0.0000001
 44
0.0000000001
 40
0.0
 40
0.0
 40
0.0
 40
0.0
 40
0.0682529231
 40
0.2592670806
 40
0.5720418602
 40
1.0
 40
1.0
 40
1.0
 40
1.0
 10
-66.2250107423
 20
-23.4859750215
 30
0.0
 10
-66.2242661734
 20
-23.485988018
 30
0.0
 10
-66.2241434692
 20
-23.4817623693
 30
0.0
 10
-66.2230085488
 20
-23.4769035739
 30
0.0
 10
-66.2223913439
 20
-23.4660116447
 30
0.0
 10
-66.2218515
 20
-23.4581882305
 30
0.0
 10
-66.2215202611
 20
-23.4535307017
 30
0.0
  0
ELLIPSE
  5
8E6
100
AcDbEntity
  8
ASSI
100
AcDbEllipse
 62
7
  6
CONTINUOUS
 10
4.2
 20
-22.7000304656
 30
0.0
 11
0.0
 21
0.2000304656
 31
0.0
 40
0.9998476952
 41
-1.5707963268
 42
0.0
  0
ELLIPSE
  5
8E7
100
AcDbEntity
  8
ASSI
100
AcDbEllipse
 62
7
  6
CONTINUOUS
 10
-4.2
 20
-22.7000304656
 30
0.0
 11
-0.0
 21
0.2000304656
 31
0.0
 40
0.9998476952
 41
0.0
 42
1.5707963268
  0
ELLIPSE
  5
8E8
100
AcDbEntity
  8
ASSI
100
AcDbEllipse
 62
7
  6
CONTINUOUS
 10
4.2
 20
22.7000304656
 30
0.0
 11
0.0
 21
0.2000304656
 31
0.0
 40
0.9998476952
 41
-3.1415926536
 42
-1.5707963268
  0
ELLIPSE
  5
8E9
100
AcDbEntity
  8
ASSI
100
AcDbEllipse
 62
7
  6
CONTINUOUS
 10
-4.2
 20
22.7000304656
 30
0.0
 11
0.0
 21
0.2000304656
 31
0.0
 40
0.9998476952
 41
1.5707963268
 42
3.1415926536
  0
ELLIPSE
  5
8EA
100
AcDbEntity
  8
0
100
AcDbEllipse
 62
7
  6
CONTINUOUS
 10
-4.2
 20
22.7000304656
 30
0.0
 11
0.0
 21
0.2000304656
 31
0.0
 40
0.9998476952
 41
1.5707963268
 42
3.1415926536
  0
ELLIPSE
  5
8EB
100
AcDbEntity
  8
0
100
AcDbEllipse
 62
7
  6
CONTINUOUS
 10
4.2
 20
22.7000304656
 30
0.0
 11
0.0
 21
0.2000304656
 31
0.0
 40
0.9998476952
 41
-3.1415926536
 42
-1.5707963268
  0
ELLIPSE
  5
8EC
100
AcDbEntity
  8
0
100
AcDbEllipse
 62
7
  6
CONTINUOUS
 10
-4.2
 20
-22.7000304656
 30
0.0
 11
-0.0
 21
0.2000304656
 31
0.0
 40
0.9998476952
 41
0.0
 42
1.5707963268
  0
ELLIPSE
  5
8ED
100
AcDbEntity
  8
0
100
AcDbEllipse
 62
7
  6
CONTINUOUS
 10
4.2
 20
-22.7000304656
 30
0.0
 11
0.0
 21
0.2000304656
 31
0.0
 40
0.9998476952
 41
-1.5707963268
 42
0.0
  0
ELLIPSE
  5
8EE
100
AcDbEntity
  8
ASSI
100
AcDbEllipse
 62
7
  6
CONTINUOUS
 10
10.649923836
 20
-21.899313827
 30
0.0
 11
-0.1582391023
 21
0.4751033573
 31
0.0
 40
0.9984778551
 41
-3.4626430041
 42
-1.8927600658
  0
ELLIPSE
  5
8EF
100
AcDbEntity
  8
ASSI
100
AcDbEllipse
 62
7
  6
CONTINUOUS
 10
10.649923836
 20
21.899313827
 30
0.0
 11
0.1582391023
 21
0.4751033573
 31
0.0
 40
0.9984778551
 41
-1.2488325878
 42
0.3210503505
  0
ELLIPSE
  5
8F0
100
AcDbEntity
  8
ASSI
100
AcDbEllipse
 62
7
  6
CONTINUOUS
 10
-10.649923836
 20
-21.899313827
 30
0.0
 11
0.1582391023
 21
0.4751033573
 31
0.0
 40
0.9984778551
 41
-4.3904252414
 42
-2.8205423031
  0
ELLIPSE
  5
8F1
100
AcDbEntity
  8
ASSI
100
AcDbEllipse
 62
7
  6
CONTINUOUS
 10
-10.649923836
 20
21.899313827
 30
0.0
 11
-0.1582391023
 21
0.4751033573
 31
0.0
 40
0.9984778551
 41
-0.3210503505
 42
1.2488325878
  0
ELLIPSE
  5
8F2
100
AcDbEntity
  8
0
100
AcDbEllipse
 62
7
  6
CONTINUOUS
 10
10.649923836
 20
-21.899313827
 30
0.0
 11
-0.1582391023
 21
0.4751033573
 31
0.0
 40
0.9984778551
 41
-3.4626430041
 42
-1.8927600658
  0
ELLIPSE
  5
8F3
100
AcDbEntity
  8
0
100
AcDbEllipse
 62
7
  6
CONTINUOUS
 10
10.649923836
 20
21.899313827
 30
0.0
 11
0.1582391023
 21
0.4751033573
 31
0.0
 40
0.9984778551
 41
-1.2488325878
 42
0.3210503505
  0
ELLIPSE
  5
8F4
100
AcDbEntity
  8
0
100
AcDbEllipse
 62
7
  6
CONTINUOUS
 10
-10.649923836
 20
-21.899313827
 30
0.0
 11
0.1582391023
 21
0.4751033573
 31
0.0
 40
0.9984778551
 41
-4.3904252414
 42
-2.8205423031
  0
ELLIPSE
  5
8F5
100
AcDbEntity
  8
0
100
AcDbEllipse
 62
7
  6
CONTINUOUS
 10
-10.649923836
 20
21.899313827
 30
0.0
 11
-0.1582391023
 21
0.4751033573
 31
0.0
 40
0.9984778551
 41
-0.3210503505
 42
1.2488325878
  0
ELLIPSE
  5
8F6
100
AcDbEntity
  8
CURVE
100
AcDbEllipse
 62
250
  6
CONTINUOUS
 10
425.0784797389
 20
0.0
 30
0.0
 11
0.0
 21
500.0
 31
0.0
 40
1.0
 41
-4.6775819525
 42
-4.6739795369
  0
ELLIPSE
  5
8F7
100
AcDbEntity
  8
ASSI
100
AcDbEllipse
 62
7
  6
CONTINUOUS
 10
-53.1715202611
 20
2.5
 30
0.0
 11
0.0
 21
0.75
 31
0.0
 40
1.0
 41
0.0087266463
 42
0.1025194331
  0
ELLIPSE
  5
8F8
100
AcDbEntity
  8
ASSI
100
AcDbEllipse
 62
7
  6
CONTINUOUS
 10
-53.1715202611
 20
2.5
 30
0.0
 11
0.75
 21
0.0
 31
0.0
 40
1.0
 41
1.6733157598
 42
4.6098695473
  0
ELLIPSE
  5
8F9
100
AcDbEntity
  8
ASSI
100
AcDbEllipse
 62
7
  6
CONTINUOUS
 10
-53.1715202611
 20
2.5
 30
0.0
 11
-0.0
 21
0.75
 31
0.0
 40
1.0
 41
-3.2441120866
 42
-3.1503192998
  0
ELLIPSE
  5
8FA
100
AcDbEntity
  8
ASSI
100
AcDbEllipse
 62
7
  6
CONTINUOUS
 10
-53.1715202611
 20
7.5
 30
0.0
 11
0.75
 21
-0.0
 31
0.0
 40
1.0
 41
7.8627082802
 42
10.8930548545
  0
ELLIPSE
  5
8FB
100
AcDbEntity
  8
ASSI
100
AcDbEllipse
 62
7
  6
CONTINUOUS
 10
-53.1715202611
 20
7.5
 30
0.0
 11
-0.0
 21
0.75
 31
0.0
 40
1.0
 41
-3.2441120866
 42
-3.1503192998
  0
ELLIPSE
  5
8FC
100
AcDbEntity
  8
ASSI
100
AcDbEllipse
 62
7
  6
CONTINUOUS
 10
-53.1715202611
 20
12.5
 30
0.0
 11
0.75
 21
-0.0
 31
0.0
 40
1.0
 41
1.5795229731
 42
1.6733157598
  0
ELLIPSE
  5
8FD
100
AcDbEntity
  8
ASSI
100
AcDbEllipse
 62
7
  6
CONTINUOUS
 10
-53.1715202611
 20
12.5
 30
0.0
 11
0.0
 21
0.75
 31
0.0
 40
1.0
 41
0.1025194331
 42
3.0390732205
  0
ELLIPSE
  5
8FE
100
AcDbEntity
  8
ASSI
100
AcDbEllipse
 62
7
  6
CONTINUOUS
 10
-53.1715202611
 20
12.5
 30
0.0
 11
0.75
 21
0.0
 31
0.0
 40
1.0
 41
-1.6733157598
 42
-1.5795229731
  0
ELLIPSE
  5
8FF
100
AcDbEntity
  8
ASSI
100
AcDbEllipse
 62
7
  6
CONTINUOUS
 10
-53.1715202611
 20
-12.5
 30
0.0
 11
0.75
 21
0.0
 31
0.0
 40
1.0
 41
7.8627082802
 42
10.8930548545
  0
ELLIPSE
  5
900
100
AcDbEntity
  8
ASSI
100
AcDbEllipse
 62
7
  6
CONTINUOUS
 10
-53.1715202611
 20
-12.5
 30
0.0
 11
0.0
 21
0.75
 31
0.0
 40
1.0
 41
-3.2441120866
 42
-3.1503192998
  0
ELLIPSE
  5
901
100
AcDbEntity
  8
ASSI
100
AcDbEllipse
 62
7
  6
CONTINUOUS
 10
-53.1715202611
 20
-7.5
 30
0.0
 11
-0.0
 21
0.75
 31
0.0
 40
1.0
 41
0.0087266463
 42
0.1025194331
  0
ELLIPSE
  5
902
100
AcDbEntity
  8
ASSI
100
AcDbEllipse
 62
7
  6
CONTINUOUS
 10
-53.1715202611
 20
-7.5
 30
0.0
 11
0.75
 21
-0.0
 31
0.0
 40
1.0
 41
1.6733157598
 42
4.7036623341
  0
ELLIPSE
  5
903
100
AcDbEntity
  8
ASSI
100
AcDbEllipse
 62
7
  6
CONTINUOUS
 10
-53.1715202611
 20
-2.5
 30
0.0
 11
-0.0
 21
0.75
 31
0.0
 40
1.0
 41
0.0087266463
 42
0.1025194331
  0
ELLIPSE
  5
904
100
AcDbEntity
  8
ASSI
100
AcDbEllipse
 62
7
  6
CONTINUOUS
 10
-53.1715202611
 20
-2.5
 30
0.0
 11
0.75
 21
0.0
 31
0.0
 40
1.0
 41
1.6733157598
 42
4.7036623341
  0
ELLIPSE
  5
905
100
AcDbEntity
  8
0
100
AcDbEllipse
 62
7
  6
CONTINUOUS
 10
-53.1715202611
 20
-2.5
 30
0.0
 11
0.75
 21
-0.0
 31
0.0
 40
1.0
 41
1.5795229731
 42
4.7036623341
  0
ELLIPSE
  5
906
100
AcDbEntity
  8
0
100
AcDbEllipse
 62
7
  6
CONTINUOUS
 10
-53.1715202611
 20
-7.5
 30
0.0
 11
0.75
 21
0.0
 31
0.0
 40
1.0
 41
1.5795229731
 42
4.7036623341
  0
ELLIPSE
  5
907
100
AcDbEntity
  8
0
100
AcDbEllipse
 62
7
  6
CONTINUOUS
 10
-53.1715202611
 20
-12.5
 30
0.0
 11
0.0
 21
0.75
 31
0.0
 40
1.0
 41
0.0087266463
 42
3.1328660073
  0
ELLIPSE
  5
908
100
AcDbEntity
  8
0
100
AcDbEllipse
 62
7
  6
CONTINUOUS
 10
-53.1715202611
 20
12.5
 30
0.0
 11
0.0
 21
0.75
 31
0.0
 40
1.0
 41
0.0087266463
 42
3.1328660073
  0
ELLIPSE
  5
909
100
AcDbEntity
  8
0
100
AcDbEllipse
 62
7
  6
CONTINUOUS
 10
-53.1715202611
 20
7.5
 30
0.0
 11
0.75
 21
0.0
 31
0.0
 40
1.0
 41
1.5795229731
 42
4.7036623341
  0
ELLIPSE
  5
90A
100
AcDbEntity
  8
0
100
AcDbEllipse
 62
7
  6
CONTINUOUS
 10
-53.1715202611
 20
2.5
 30
0.0
 11
0.75
 21
-0.0
 31
0.0
 40
1.0
 41
1.5795229731
 42
4.7036623341
  0
ENDSEC
  0
SECTION
  2
OBJECTS
  0
DICTIONARY
  5
C
100
AcDbDictionary
280
0
281
1
  3
ACAD_GROUP
350
D
  3
ACAD_MLINESTYLE
350
17
  3
ACAD_LAYOUT
350
1A
  3
ACAD_PLOTSETTINGS
350
19
  3
ACAD_PLOTSTYLENAME
350
E
  0
DICTIONARY
  5
D
102
{ACAD_REACTORS
330
C
102
}
100
AcDbDictionary
280
0
281
1
  0
ACDBDICTIONARYWDFLT
  5
E
102
{ACAD_REACTORS
330
C
102
}
100
AcDbDictionary
281
1
  3
Normal
350
F
100
AcDbDictionaryWithDefault
340
F
  0
DICTIONARY
  5
17
102
{ACAD_REACTORS
330
C
102
}
100
AcDbDictionary
280
0
281
1
  3
Standard
350
18
  0
DICTIONARY
  5
19
102
{ACAD_REACTORS
330
C
102
}
100
AcDbDictionary
281
1
  0
DICTIONARY
  5
1A
102
{ACAD_REACTORS
330
C
102
}
100
AcDbDictionary
281
1
  3
Model
350
90B
  3
Layout1
350
90C
  0
ACDBPLACEHOLDER
  5
F
102
{ACAD_REACTORS
330
E
102
}
  0
MLINESTYLE
  5
18
102
{ACAD_REACTORS
330
17
102
}
100
AcDbMlineStyle
  2
STANDARD
 70
0
  3

 62
256
 51
90.0
 52
90.0
 71
2
 49
0.5
 62
256
  6
BYLAYER
 49
-0.5
 62
256
  6
BYLAYER
  0
LAYOUT
  5
90B
102
{ACAD_REACTORS
330
1A
102
}
100
AcDbPlotSettings
  1

  2
none_device
  4

  6

 40
0.0
 41
0.0
 42
0.0
 43
0.0
 44
210.0
 45
297.0
 46
0.0
 47
0.0
 48
0.0
 49
0.0
140
0.0
141
0.0
142
1.0
143
1.0
 70
1024
 72
1
 73
0
 74
0
  7

 75
0
147
1.0
148
0.0
149
0.0
100
AcDbLayout
  1
Model
 70
0
 71
0
 10
0.0
 20
0.0
 11
210.0
 21
297.0
 12
0.0
 22
0.0
 32
0.0
 14
0.0
 24
0.0
 34
0.0
 15
0.0
 25
0.0
 35
0.0
146
0.0
 13
0.0
 23
0.0
 33
0.0
 16
1.0
 26
0.0
 36
0.0
 17
0.0
 27
1.0
 37
0.0
 76
0
330
392
345
0
346
0
  0
LAYOUT
  5
90C
102
{ACAD_REACTORS
330
1A
102
}
100
AcDbPlotSettings
  1

  2
none_device
  4

  6

 40
0.0
 41
0.0
 42
0.0
 43
0.0
 44
210.0
 45
297.0
 46
0.0
 47
0.0
 48
0.0
 49
0.0
140
0.0
141
0.0
142
1.0
143
1.0
 70
0
 72
1
 73
0
 74
0
  7

 75
0
147
1.0
148
0.0
149
0.0
100
AcDbLayout
  1
Layout1
 70
0
 71
1
 10
0.0
 20
0.0
 11
210.0
 21
297.0
 12
0.0
 22
0.0
 32
0.0
 14
0.0
 24
0.0
 34
0.0
 15
0.0
 25
0.0
 35
0.0
146
0.0
 13
0.0
 23
0.0
 33
0.0
 16
1.0
 26
0.0
 36
0.0
 17
0.0
 27
1.0
 37
0.0
 76
0
330
393
345
0
346
0
  0
ENDSEC
  0
EOF
