  0
SECTION
  2
HEADER
  9
$ACADVER
  1
AC1024
  9
$DWGCODEPAGE
  3
ANSI_1252
  9
$EXTMAX
 10
210.0
 20
297.0
 30
0.0
  9
$EXTMIN
 10
0.0
 20
0.0
 30
0.0
  9
$LIMMIN
 10
0.0
 20
0.0
  9
$LIMMAX
 10
210.0
 20
297.0
  9
$VIEWCTR
 10
105.0
 20
148.5
  9
$VIEWSIZE
 40
297.0
  9
$CLAYER
  8
0
  9
$LTSCALE
 40
19.36
  9
$CELTYPE
  6
BYLAYER
  9
$DIMSCALE
 40
1.0
  9
$DIMASZ
 40
3.0
  9
$DIMEXO
 40
0.5
  9
$DIMDLI
 40
13.376
  9
$DIMEXE
 40
1.5
  9
$DIMCEN
 40
3.168
  9
$DIMLFAC
 40
1.0
  9
$DIMBLK
  1
_FILLED
  9
$DIMALT
 70
0
  9
$DIMALTF
 40
0.0393700787
  9
$DIMTXT
 40
3.0
  9
$DIMTOL
 70
1
  9
$DIMLIM
 70
0
  9
$DIMTFAC
 40
1.0
  9
$DIMTP
 40
0.01
  9
$DIMTM
 40
0.01
  9
$DIMGAP
 40
0.625
  9
$DIMDSEP
 70
44
  9
$AUNITS
 70
0
  9
$PDMODE
 70
3
  9
$PDSIZE
 40
3.0
  9
$HANDSEED
  5
51C
  9
$TILEMODE
 70
1
  9
$MEASUREMENT
 70
1
  9
$INSUNITS
 70
4
  0
ENDSEC
  0
SECTION
  2
CLASSES
  0
CLASS
  1
ACDBDICTIONARYWDFLT
  2
AcDbDictionaryWithDefault
  3
AutoCAD 2000
 90
0
 91
1
280
0
281
0
  0
CLASS
  1
ACDBPLACEHOLDER
  2
AcDbPlaceHolder
  3
AutoCAD 2000
 90
0
 91
1
280
0
281
0
  0
CLASS
  1
LAYOUT
  2
AcDbLayout
  3
AutoCAD 2000
 90
0
 91
0
280
0
281
0
  0
ENDSEC
  0
SECTION
  2
TABLES
  0
TABLE
  2
VPORT
  5
8
100
AcDbSymbolTable
 70
2
  0
VPORT
  5
1F4
100
AcDbSymbolTableRecord
100
AcDbViewportTableRecord
  2
*ACTIVE
 70
0
 10
0.0
 20
0.0
 11
1.0
 21
1.0
 12
105.0
 22
148.5
 13
0.0
 23
0.0
 14
1.0
 24
1.0
 15
0.0
 25
0.0
 16
0.0
 26
0.0
 36
1.0
 17
0.0
 27
0.0
 37
0.0
 40
297.0
 41
0.7070707071
 42
50.0
 43
0.0
 44
0.0
 50
0.0
 51
0.0
 71
0
 72
100
 73
1
 74
1
 75
0
 76
0
 77
0
 78
0
  0
ENDTAB
  0
TABLE
  2
LTYPE
  5
5
100
AcDbSymbolTable
 70
6
  0
LTYPE
  5
14
100
AcDbSymbolTableRecord
100
AcDbLinetypeTableRecord
  2
BYBLOCK
 70
0
  3

 72
65
 73
0
 40
0.0
  0
LTYPE
  5
15
100
AcDbSymbolTableRecord
100
AcDbLinetypeTableRecord
  2
BYLAYER
 70
0
  3

 72
65
 73
0
 40
0.0
  0
LTYPE
  5
16
100
AcDbSymbolTableRecord
100
AcDbLinetypeTableRecord
  2
CONTINUOUS
 70
64
  3
Solid line
 72
65
 73
0
 40
0.0
  0
LTYPE
  5
1F5
100
AcDbSymbolTableRecord
100
AcDbLinetypeTableRecord
  2
CENTER
 70
64
  3
____ _ ____ _ ____ _ ____ _ ____ _ ____ _ ____
 72
65
 73
4
 40
0.6
 49
0.375
 74
0
 49
-0.075
 74
0
 49
0.075
 74
0
 49
-0.075
 74
0
  0
LTYPE
  5
1F6
100
AcDbSymbolTableRecord
100
AcDbLinetypeTableRecord
  2
HIDDEN
 70
64
  3
- - - - - - - - - - - - - - - - - - - -
 72
65
 73
2
 40
0.2
 49
0.1
 74
0
 49
-0.1
 74
0
  0
LTYPE
  5
1F7
100
AcDbSymbolTableRecord
100
AcDbLinetypeTableRecord
  2
PHANTOM
 70
64
  3
_____ _ _ _____ _ _ _____ _ _ _____
 72
65
 73
6
 40
0.8
 49
0.45
 74
0
 49
-0.05
 74
0
 49
0.1
 74
0
 49
-0.05
 74
0
 49
0.1
 74
0
 49
-0.05
 74
0
  0
LTYPE
  5
1F8
100
AcDbSymbolTableRecord
100
AcDbLinetypeTableRecord
  2
DOT
 70
64
  3
. . . . . . . . . . . . . . . . . . . .
 72
65
 73
2
 40
0.2
 49
0.1
 74
0
 49
-0.1
 74
0
  0
LTYPE
  5
1F9
100
AcDbSymbolTableRecord
100
AcDbLinetypeTableRecord
  2
DASHED
 70
64
  3
- - - - - - - - - - - - - - - - - - - -
 72
65
 73
2
 40
0.2
 49
0.1
 74
0
 49
-0.1
 74
0
  0
ENDTAB
  0
TABLE
  2
LAYER
  5
2
100
AcDbSymbolTable
 70
36
  0
LAYER
  5
10
100
AcDbSymbolTableRecord
100
AcDbLayerTableRecord
  2
0
 70
0
 62
7
  6
CONTINUOUS
370
-3
390
F
  0
LAYER
  5
1FA
100
AcDbSymbolTableRecord
100
AcDbLayerTableRecord
  2
DEFAULT_1
 70
0
 62
7
  6
CENTER
370
-3
390
F
  0
LAYER
  5
1FB
100
AcDbSymbolTableRecord
100
AcDbLayerTableRecord
  2
DEFAULT_2
 70
0
 62
7
  6
HIDDEN
370
-3
390
F
  0
LAYER
  5
1FC
100
AcDbSymbolTableRecord
100
AcDbLayerTableRecord
  2
DEFAULT_3
 70
0
 62
7
  6
PHANTOM
370
-3
390
F
  0
LAYER
  5
1FD
100
AcDbSymbolTableRecord
100
AcDbLayerTableRecord
  2
06___PRT_ALL_SURFS_1
 70
0
 62
7
  6
CONTINUOUS
370
-3
390
F
  0
LAYER
  5
1FE
100
AcDbSymbolTableRecord
100
AcDbLayerTableRecord
  2
06___PRT_ALL_SURFS_10
 70
0
 62
7
  6
CONTINUOUS
370
-3
390
F
  0
LAYER
  5
1FF
100
AcDbSymbolTableRecord
100
AcDbLayerTableRecord
  2
06___PRT_ALL_SURFS_15
 70
0
 62
7
  6
CONTINUOUS
370
-3
390
F
  0
LAYER
  5
200
100
AcDbSymbolTableRecord
100
AcDbLayerTableRecord
  2
06___PRT_ALL_SURFS_16
 70
0
 62
7
  6
CONTINUOUS
370
-3
390
F
  0
LAYER
  5
201
100
AcDbSymbolTableRecord
100
AcDbLayerTableRecord
  2
06___PRT_ALL_SURFS_18
 70
0
 62
7
  6
CONTINUOUS
370
-3
390
F
  0
LAYER
  5
202
100
AcDbSymbolTableRecord
100
AcDbLayerTableRecord
  2
06___PRT_ALL_SURFS_2
 70
0
 62
7
  6
CONTINUOUS
370
-3
390
F
  0
LAYER
  5
203
100
AcDbSymbolTableRecord
100
AcDbLayerTableRecord
  2
06___PRT_ALL_SURFS_3
 70
0
 62
7
  6
CONTINUOUS
370
-3
390
F
  0
LAYER
  5
204
100
AcDbSymbolTableRecord
100
AcDbLayerTableRecord
  2
06___PRT_ALL_SURFS_4
 70
0
 62
7
  6
CONTINUOUS
370
-3
390
F
  0
LAYER
  5
205
100
AcDbSymbolTableRecord
100
AcDbLayerTableRecord
  2
06___PRT_ALL_SURFS_6
 70
0
 62
7
  6
CONTINUOUS
370
-3
390
F
  0
LAYER
  5
206
100
AcDbSymbolTableRecord
100
AcDbLayerTableRecord
  2
06___PRT_ALL_SURFS_7
 70
0
 62
7
  6
CONTINUOUS
370
-3
390
F
  0
LAYER
  5
207
100
AcDbSymbolTableRecord
100
AcDbLayerTableRecord
  2
1206_C_WAVE_180000
 70
0
 62
7
  6
CONTINUOUS
370
-3
390
F
  0
LAYER
  5
208
100
AcDbSymbolTableRecord
100
AcDbLayerTableRecord
  2
1206_R_REF_65000
 70
0
 62
7
  6
CONTINUOUS
370
-3
390
F
  0
LAYER
  5
209
100
AcDbSymbolTableRecord
100
AcDbLayerTableRecord
  2
2125-CC-H1_5-RF-VIMAR_150000
 70
0
 62
7
  6
CONTINUOUS
370
-3
390
F
  0
LAYER
  5
20A
100
AcDbSymbolTableRecord
100
AcDbLayerTableRecord
  2
2125-CC-RF-VIMAR_110000
 70
0
 62
7
  6
CONTINUOUS
370
-3
390
F
  0
LAYER
  5
20B
100
AcDbSymbolTableRecord
100
AcDbLayerTableRecord
  2
2125-CC-RF-VIMAR_110000_1
 70
0
 62
7
  6
CONTINUOUS
370
-3
390
F
  0
LAYER
  5
20C
100
AcDbSymbolTableRecord
100
AcDbLayerTableRecord
  2
2125-CC-RF-VIMAR_110000_2
 70
0
 62
7
  6
CONTINUOUS
370
-3
390
F
  0
LAYER
  5
20D
100
AcDbSymbolTableRecord
100
AcDbLayerTableRecord
  2
2125-CC-RF-VIMAR_110000_3
 70
0
 62
7
  6
CONTINUOUS
370
-3
390
F
  0
LAYER
  5
20E
100
AcDbSymbolTableRecord
100
AcDbLayerTableRecord
  2
2125-CC-RF-VIMAR_110000_4
 70
0
 62
7
  6
CONTINUOUS
370
-3
390
F
  0
LAYER
  5
20F
100
AcDbSymbolTableRecord
100
AcDbLayerTableRecord
  2
2125-R1-RF-VIMAR_60000
 70
0
 62
7
  6
CONTINUOUS
370
-3
390
F
  0
LAYER
  5
210
100
AcDbSymbolTableRecord
100
AcDbLayerTableRecord
  2
2125-R1-RF-VIMAR_60000_1
 70
0
 62
7
  6
CONTINUOUS
370
-3
390
F
  0
LAYER
  5
211
100
AcDbSymbolTableRecord
100
AcDbLayerTableRecord
  2
2125-R1-RF-VIMAR_60000_2
 70
0
 62
7
  6
CONTINUOUS
370
-3
390
F
  0
LAYER
  5
212
100
AcDbSymbolTableRecord
100
AcDbLayerTableRecord
  2
2125-R1-RF-VIMAR_60000_3
 70
0
 62
7
  6
CONTINUOUS
370
-3
390
F
  0
LAYER
  5
213
100
AcDbSymbolTableRecord
100
AcDbLayerTableRecord
  2
2125-R1-RF-VIMAR_60000_4
 70
0
 62
7
  6
CONTINUOUS
370
-3
390
F
  0
LAYER
  5
214
100
AcDbSymbolTableRecord
100
AcDbLayerTableRecord
  2
3216-CF-RF-VIMAR_100000
 70
0
 62
7
  6
CONTINUOUS
370
-3
390
F
  0
LAYER
  5
215
100
AcDbSymbolTableRecord
100
AcDbLayerTableRecord
  2
3216-CF-RF-VIMAR_100000_1
 70
0
 62
7
  6
CONTINUOUS
370
-3
390
F
  0
LAYER
  5
216
100
AcDbSymbolTableRecord
100
AcDbLayerTableRecord
  2
3216-CF-RF-VIMAR_100000_2
 70
0
 62
7
  6
CONTINUOUS
370
-3
390
F
  0
LAYER
  5
217
100
AcDbSymbolTableRecord
100
AcDbLayerTableRecord
  2
3216-R1-RF-VIMAR_60000
 70
0
 62
7
  6
CONTINUOUS
370
-3
390
F
  0
LAYER
  5
218
100
AcDbSymbolTableRecord
100
AcDbLayerTableRecord
  2
3216-R1-RF-VIMAR_60000_1
 70
0
 62
7
  6
CONTINUOUS
370
-3
390
F
  0
LAYER
  5
219
100
AcDbSymbolTableRecord
100
AcDbLayerTableRecord
  2
3225-L-RF-VIMAR_220000
 70
0
 62
7
  6
CONTINUOUS
370
-3
390
F
  0
LAYER
  5
21A
100
AcDbSymbolTableRecord
100
AcDbLayerTableRecord
  2
43000679B0
 70
0
 62
7
  6
CONTINUOUS
370
-3
390
F
  0
LAYER
  5
21B
100
AcDbSymbolTableRecord
100
AcDbLayerTableRecord
  2
ASSI
 70
0
 62
7
  6
CONTINUOUS
370
-3
390
F
  0
LAYER
  5
21C
100
AcDbSymbolTableRecord
100
AcDbLayerTableRecord
  2
CN-MSB02001-VIMAR_1000000
 70
0
 62
7
  6
CONTINUOUS
370
-3
390
F
  0
LAYER
  5
21D
100
AcDbSymbolTableRecord
100
AcDbLayerTableRecord
  2
CN1-REF_SQUAREHOLE12_SPEA-VIMAR
 70
0
 62
7
  6
CONTINUOUS
370
-3
390
F
  0
LAYER
  5
21E
100
AcDbSymbolTableRecord
100
AcDbLayerTableRecord
  2
CN1-REF_SQUAREHOLE12_SPEA-VIM_1
 70
0
 62
7
  6
CONTINUOUS
370
-3
390
F
  0
LAYER
  5
21F
100
AcDbSymbolTableRecord
100
AcDbLayerTableRecord
  2
CN1-REF_SQUAREHOLE12_SPEA-VIM_2
 70
0
 62
7
  6
CONTINUOUS
370
-3
390
F
  0
LAYER
  5
220
100
AcDbSymbolTableRecord
100
AcDbLayerTableRecord
  2
CN1-REF_SQUAREHOLE12_SPEA-VIM_3
 70
0
 62
7
  6
CONTINUOUS
370
-3
390
F
  0
LAYER
  5
221
100
AcDbSymbolTableRecord
100
AcDbLayerTableRecord
  2
CN_THT_USB_TYPE-A_4P_RIGHT_ANGL
 70
0
 62
7
  6
CONTINUOUS
370
-3
390
F
  0
LAYER
  5
222
100
AcDbSymbolTableRecord
100
AcDbLayerTableRecord
  2
COLOR16
 70
0
 62
7
  6
CONTINUOUS
370
-3
390
F
  0
LAYER
  5
223
100
AcDbSymbolTableRecord
100
AcDbLayerTableRecord
  2
COLOR6
 70
0
 62
7
  6
CONTINUOUS
370
-3
390
F
  0
LAYER
  5
224
100
AcDbSymbolTableRecord
100
AcDbLayerTableRecord
  2
COORDINATE
 70
0
 62
7
  6
CONTINUOUS
370
-3
390
F
  0
LAYER
  5
225
100
AcDbSymbolTableRecord
100
AcDbLayerTableRecord
  2
COORD_ORIGINE
 70
0
 62
7
  6
CONTINUOUS
370
-3
390
F
  0
LAYER
  5
226
100
AcDbSymbolTableRecord
100
AcDbLayerTableRecord
  2
COPY_PUBLISH
 70
0
 62
7
  6
CONTINUOUS
370
-3
390
F
  0
LAYER
  5
227
100
AcDbSymbolTableRecord
100
AcDbLayerTableRecord
  2
COSMETICI
 70
0
 62
7
  6
CONTINUOUS
370
-3
390
F
  0
LAYER
  5
228
100
AcDbSymbolTableRecord
100
AcDbLayerTableRecord
  2
CP-DO-SUB-SMA-VIMAR_145000
 70
0
 62
7
  6
CONTINUOUS
370
-3
390
F
  0
LAYER
  5
229
100
AcDbSymbolTableRecord
100
AcDbLayerTableRecord
  2
CP-DO-SUB-SMA-VIMAR_145000_1
 70
0
 62
7
  6
CONTINUOUS
370
-3
390
F
  0
LAYER
  5
22A
100
AcDbSymbolTableRecord
100
AcDbLayerTableRecord
  2
CURVE
 70
0
 62
7
  6
CONTINUOUS
370
-3
390
F
  0
LAYER
  5
22B
100
AcDbSymbolTableRecord
100
AcDbLayerTableRecord
  2
DRAFT
 70
0
 62
7
  6
CONTINUOUS
370
-3
390
F
  0
LAYER
  5
22C
100
AcDbSymbolTableRecord
100
AcDbLayerTableRecord
  2
E2_MARK_10000
 70
0
 62
7
  6
CONTINUOUS
370
-3
390
F
  0
LAYER
  5
22D
100
AcDbSymbolTableRecord
100
AcDbLayerTableRecord
  2
ESOP-12B-VIMAR_0
 70
0
 62
7
  6
CONTINUOUS
370
-3
390
F
  0
LAYER
  5
22E
100
AcDbSymbolTableRecord
100
AcDbLayerTableRecord
  2
FUSE-1A-250V_770000
 70
0
 62
7
  6
CONTINUOUS
370
-3
390
F
  0
LAYER
  5
22F
100
AcDbSymbolTableRecord
100
AcDbLayerTableRecord
  2
GEOMETRIA_SOLIDA
 70
0
 62
7
  6
CONTINUOUS
370
-3
390
F
  0
LAYER
  5
230
100
AcDbSymbolTableRecord
100
AcDbLayerTableRecord
  2
GEOMETRIA_SOLIDA_1
 70
0
 62
7
  6
CONTINUOUS
370
-3
390
F
  0
LAYER
  5
231
100
AcDbSymbolTableRecord
100
AcDbLayerTableRecord
  2
GEOMETRIA_SOLIDA_2
 70
0
 62
7
  6
CONTINUOUS
370
-3
390
F
  0
LAYER
  5
232
100
AcDbSymbolTableRecord
100
AcDbLayerTableRecord
  2
IMPORT
 70
0
 62
7
  6
CONTINUOUS
370
-3
390
F
  0
LAYER
  5
233
100
AcDbSymbolTableRecord
100
AcDbLayerTableRecord
  2
IMPORT_IGES
 70
0
 62
7
  6
CONTINUOUS
370
-3
390
F
  0
LAYER
  5
234
100
AcDbSymbolTableRecord
100
AcDbLayerTableRecord
  2
INTF_1
 70
0
 62
7
  6
CONTINUOUS
370
-3
390
F
  0
LAYER
  5
235
100
AcDbSymbolTableRecord
100
AcDbLayerTableRecord
  2
INTF_11
 70
0
 62
7
  6
CONTINUOUS
370
-3
390
F
  0
LAYER
  5
236
100
AcDbSymbolTableRecord
100
AcDbLayerTableRecord
  2
INTF_15
 70
0
 62
7
  6
CONTINUOUS
370
-3
390
F
  0
LAYER
  5
237
100
AcDbSymbolTableRecord
100
AcDbLayerTableRecord
  2
INTF_2
 70
0
 62
7
  6
CONTINUOUS
370
-3
390
F
  0
LAYER
  5
238
100
AcDbSymbolTableRecord
100
AcDbLayerTableRecord
  2
INTF_3
 70
0
 62
7
  6
CONTINUOUS
370
-3
390
F
  0
LAYER
  5
239
100
AcDbSymbolTableRecord
100
AcDbLayerTableRecord
  2
INTF_8
 70
0
 62
7
  6
CONTINUOUS
370
-3
390
F
  0
LAYER
  5
23A
100
AcDbSymbolTableRecord
100
AcDbLayerTableRecord
  2
INTF_BLANK
 70
0
 62
7
  6
CONTINUOUS
370
-3
390
F
  0
LAYER
  5
23B
100
AcDbSymbolTableRecord
100
AcDbLayerTableRecord
  2
LOGO_RESIST-RESTYLING_10000
 70
0
 62
7
  6
CONTINUOUS
370
-3
390
F
  0
LAYER
  5
23C
100
AcDbSymbolTableRecord
100
AcDbLayerTableRecord
  2
MM4-ABS-VIMAR_180000
 70
0
 62
7
  6
CONTINUOUS
370
-3
390
F
  0
LAYER
  5
23D
100
AcDbSymbolTableRecord
100
AcDbLayerTableRecord
  2
NO-PB_MARK_10000
 70
0
 62
7
  6
CONTINUOUS
370
-3
390
F
  0
LAYER
  5
23E
100
AcDbSymbolTableRecord
100
AcDbLayerTableRecord
  2
NOTE
 70
0
 62
7
  6
CONTINUOUS
370
-3
390
F
  0
LAYER
  5
23F
100
AcDbSymbolTableRecord
100
AcDbLayerTableRecord
  2
PIANI
 70
0
 62
7
  6
CONTINUOUS
370
-3
390
F
  0
LAYER
  5
240
100
AcDbSymbolTableRecord
100
AcDbLayerTableRecord
  2
PIANI_ORIGINE
 70
0
 62
7
  6
CONTINUOUS
370
-3
390
F
  0
LAYER
  5
241
100
AcDbSymbolTableRecord
100
AcDbLayerTableRecord
  2
PUNTI
 70
0
 62
7
  6
CONTINUOUS
370
-3
390
F
  0
LAYER
  5
242
100
AcDbSymbolTableRecord
100
AcDbLayerTableRecord
  2
RACCORDO
 70
0
 62
7
  6
CONTINUOUS
370
-3
390
F
  0
LAYER
  5
243
100
AcDbSymbolTableRecord
100
AcDbLayerTableRecord
  2
RD-C100-5-VIMAR_1250000
 70
0
 62
7
  6
CONTINUOUS
370
-3
390
F
  0
LAYER
  5
244
100
AcDbSymbolTableRecord
100
AcDbLayerTableRecord
  2
RD-C50-17-VIMAR_1300000
 70
0
 62
7
  6
CONTINUOUS
370
-3
390
F
  0
LAYER
  5
245
100
AcDbSymbolTableRecord
100
AcDbLayerTableRecord
  2
RD-CE25-1-VIMAR_1100000
 70
0
 62
7
  6
CONTINUOUS
370
-3
390
F
  0
LAYER
  5
246
100
AcDbSymbolTableRecord
100
AcDbLayerTableRecord
  2
RD-CE25-1-VIMAR_1100000_1
 70
0
 62
7
  6
CONTINUOUS
370
-3
390
F
  0
LAYER
  5
247
100
AcDbSymbolTableRecord
100
AcDbLayerTableRecord
  2
RD-CE50-1-VIMAR_1250000
 70
0
 62
7
  6
CONTINUOUS
370
-3
390
F
  0
LAYER
  5
248
100
AcDbSymbolTableRecord
100
AcDbLayerTableRecord
  2
RD-CE50-1-VIMAR_1250000_1
 70
0
 62
7
  6
CONTINUOUS
370
-3
390
F
  0
LAYER
  5
249
100
AcDbSymbolTableRecord
100
AcDbLayerTableRecord
  2
RD-CE50-3-VIMAR_2000000
 70
0
 62
7
  6
CONTINUOUS
370
-3
390
F
  0
LAYER
  5
24A
100
AcDbSymbolTableRecord
100
AcDbLayerTableRecord
  2
RD-CE50-3-VIMAR_2000000_1
 70
0
 62
7
  6
CONTINUOUS
370
-3
390
F
  0
LAYER
  5
24B
100
AcDbSymbolTableRecord
100
AcDbLayerTableRecord
  2
RD_D6H8_5_VIMAR_850000
 70
0
 62
7
  6
CONTINUOUS
370
-3
390
F
  0
LAYER
  5
24C
100
AcDbSymbolTableRecord
100
AcDbLayerTableRecord
  2
RESC1608N_45000
 70
0
 62
7
  6
CONTINUOUS
370
-3
390
F
  0
LAYER
  5
24D
100
AcDbSymbolTableRecord
100
AcDbLayerTableRecord
  2
RUBBERPAD-R-07X22_0
 70
0
 62
7
  6
CONTINUOUS
370
-3
390
F
  0
LAYER
  5
24E
100
AcDbSymbolTableRecord
100
AcDbLayerTableRecord
  2
SIMBOLI
 70
0
 62
7
  6
CONTINUOUS
370
-3
390
F
  0
LAYER
  5
24F
100
AcDbSymbolTableRecord
100
AcDbLayerTableRecord
  2
SMUSSO
 70
0
 62
7
  6
CONTINUOUS
370
-3
390
F
  0
LAYER
  5
250
100
AcDbSymbolTableRecord
100
AcDbLayerTableRecord
  2
SUPERFICI
 70
0
 62
7
  6
CONTINUOUS
370
-3
390
F
  0
LAYER
  5
251
100
AcDbSymbolTableRecord
100
AcDbLayerTableRecord
  2
TRA-RM6S_I_1250000
 70
0
 62
7
  6
CONTINUOUS
370
-3
390
F
  0
LAYER
  5
252
100
AcDbSymbolTableRecord
100
AcDbLayerTableRecord
  2
TRASH
 70
0
 62
7
  6
CONTINUOUS
370
-3
390
F
  0
LAYER
  5
253
100
AcDbSymbolTableRecord
100
AcDbLayerTableRecord
  2
VG_TO220FPAC_2000000
 70
0
 62
7
  6
CONTINUOUS
370
-3
390
F
  0
LAYER
  5
254
100
AcDbSymbolTableRecord
100
AcDbLayerTableRecord
  2
VG_TO220FPAC_A90_1200000
 70
0
 62
7
  6
CONTINUOUS
370
-3
390
F
  0
LAYER
  5
255
100
AcDbSymbolTableRecord
100
AcDbLayerTableRecord
  2
___SHELL
 70
0
 62
7
  6
CONTINUOUS
370
-3
390
F
  0
ENDTAB
  0
TABLE
  2
STYLE
  5
3
100
AcDbSymbolTable
 70
1
  0
STYLE
  5
11
100
AcDbSymbolTableRecord
100
AcDbTextStyleTableRecord
  2
STANDARD
 70
0
 40
0.0
 41
0.8
 50
0.0
 71
0
 42
0.2
  3
txt
  4

  0
STYLE
  5
256
100
AcDbSymbolTableRecord
100
AcDbTextStyleTableRecord
  2
TEXTSTYLE_1
 70
0
 40
0.0
 41
0.8
 50
0.0
 71
0
 42
0.2
  3
gdt
  4

  0
ENDTAB
  0
TABLE
  2
VIEW
  5
6
100
AcDbSymbolTable
 70
0
  0
ENDTAB
  0
TABLE
  2
UCS
  5
7
100
AcDbSymbolTable
 70
0
  0
ENDTAB
  0
TABLE
  2
APPID
  5
9
100
AcDbSymbolTable
 70
1
  0
APPID
  5
257
100
AcDbSymbolTableRecord
100
AcDbRegAppTableRecord
  2
ACAD
 70
0
  0
ENDTAB
  0
TABLE
  2
BLOCK_RECORD
  5
1
100
AcDbSymbolTable
 70
0
  0
BLOCK_RECORD
  5
258
100
AcDbSymbolTableRecord
100
AcDbBlockTableRecord
  2
*Model_Space
  0
BLOCK_RECORD
  5
259
100
AcDbSymbolTableRecord
100
AcDbBlockTableRecord
  2
*Paper_Space
  0
BLOCK_RECORD
  5
25A
100
AcDbSymbolTableRecord
100
AcDbBlockTableRecord
  2
_FILLED
  0
BLOCK_RECORD
  5
25B
100
AcDbSymbolTableRecord
100
AcDbBlockTableRecord
  2
*D0
  0
BLOCK_RECORD
  5
25C
100
AcDbSymbolTableRecord
100
AcDbBlockTableRecord
  2
*D1
  0
BLOCK_RECORD
  5
25D
100
AcDbSymbolTableRecord
100
AcDbBlockTableRecord
  2
*D2
  0
BLOCK_RECORD
  5
25E
100
AcDbSymbolTableRecord
100
AcDbBlockTableRecord
  2
*D3
  0
ENDTAB
  0
TABLE
  2
DIMSTYLE
  5
A
100
AcDbSymbolTable
 70
1
100
AcDbDimStyleTable
 71
0
  0
DIMSTYLE
105
25F
100
AcDbSymbolTableRecord
100
AcDbDimStyleTableRecord
  2
STANDARD
 70
0
  3

  4

 40
1.0
 41
3.0
 42
0.5
 43
0.38
 44
1.5
 45
0.0
 46
0.0
 47
0.01
 48
0.01
140
3.0
141
0.09
142
0.0
143
25.4
144
1.0
145
0.0
146
1.0
147
0.625
 71
1.0
 72
0.0
 73
0
 74
0
 75
0
 76
0
 77
1
 78
8
 79
2
170
0
171
1
172
0
173
0
174
0
175
0
176
0
177
0
178
0
270
2
179
2
271
2
272
2
273
2
274
2
275
0
280
0
281
0
282
0
283
1
284
8
285
0
286
0
287
3
288
0
340
11
278
44
341
25A
342
25A
343
25A
344
25A
  0
DIMSTYLE
105
260
100
AcDbSymbolTableRecord
100
AcDbDimStyleTableRecord
  2
DIMSTYLE_1
 70
0
  3

  4

 40
1.0
 41
3.0
 42
0.5
 43
0.38
 44
1.5
 45
0.0
 46
0.0
 47
0.0
 48
0.0
140
3.0
141
0.09
142
0.0
143
25.4
144
1.0
145
0.0
146
1.0
147
0.75
 71
0.0
 72
0.0
 73
0
 74
0
 75
0
 76
0
 77
1
 78
8
 79
2
170
0
171
1
172
0
173
0
174
0
175
0
176
0
177
0
178
0
270
2
179
2
271
2
272
2
273
2
274
2
275
0
280
0
281
0
282
0
283
1
284
8
285
0
286
0
287
3
288
0
340
11
278
44
341
25A
342
25A
343
25A
344
25A
  0
ENDTAB
  0
ENDSEC
  0
SECTION
  2
BLOCKS
  0
BLOCK
  5
20
100
AcDbEntity
  8
0
100
AcDbBlockBegin
  2
*Model_Space
 70
0
 10
0.0
 20
0.0
 30
0.0
  3
*Model_Space
  1

  0
ENDBLK
  5
21
100
AcDbEntity
  8
0
100
AcDbBlockEnd
  0
BLOCK
  5
1C
100
AcDbEntity
  8
0
100
AcDbBlockBegin
  2
*Paper_Space
 70
0
 10
0.0
 20
0.0
 30
0.0
  3
*Paper_Space
  1

  0
ENDBLK
  5
1D
100
AcDbEntity
  8
0
100
AcDbBlockEnd
  0
BLOCK
  5
261
100
AcDbEntity
  8
0
100
AcDbBlockBegin
  2
_FILLED
 70
64
 10
0.0
 20
0.0
  3
_FILLED
  1

  0
SOLID
  5
262
100
AcDbEntity
  8
0
  6
BYBLOCK
 62
0
100
AcDbTrace
 10
0.0
 20
0.0
 11
-1.0
 21
0.3166666667
 12
-1.0
 22
-0.3166666667
 13
-1.0
 23
-0.3166666667
  0
ENDBLK
  5
263
100
AcDbEntity
  8
0
  6
BYBLOCK
 62
0
100
AcDbBlockEnd
  0
BLOCK
  5
264
100
AcDbEntity
  8
0
100
AcDbBlockBegin
 62
7
  6
CONTINUOUS
  2
*D0
 70
65
 10
0.0
 20
0.0
  3
*D0
  1

  0
LINE
  5
265
100
AcDbEntity
  8
0
100
AcDbLine
 62
7
  6
CONTINUOUS
 10
-11.15
 20
22.3997711479
 11
-11.15
 21
30.4047444421
  0
LINE
  5
266
100
AcDbEntity
  8
0
100
AcDbLine
 62
7
  6
CONTINUOUS
 10
11.15
 20
22.3997711479
 11
11.15
 21
30.4047444421
  0
LINE
  5
267
100
AcDbEntity
  8
0
100
AcDbLine
 62
7
  6
CONTINUOUS
 10
-11.15
 20
28.9047444421
 11
0.0
 21
28.9047444421
  0
LINE
  5
268
100
AcDbEntity
  8
0
100
AcDbLine
 62
7
  6
CONTINUOUS
 10
11.15
 20
28.9047444421
 11
0.0
 21
28.9047444421
  0
INSERT
  5
269
100
AcDbEntity
  8
0
100
AcDbBlockReference
 62
7
  6
CONTINUOUS
  2
_FILLED
 10
-11.15
 20
28.9047444421
 41
3.0
 42
3.0
 43
3.0
 50
180.0
  0
INSERT
  5
26A
100
AcDbEntity
  8
0
100
AcDbBlockReference
 62
7
  6
CONTINUOUS
  2
_FILLED
 10
11.15
 20
28.9047444421
 41
3.0
 42
3.0
 43
3.0
 50
0.0
  0
ENDBLK
  5
26B
100
AcDbEntity
  8
0
  6
BYBLOCK
 62
0
100
AcDbBlockEnd
  0
BLOCK
  5
26C
100
AcDbEntity
  8
0
100
AcDbBlockBegin
 62
7
  6
CONTINUOUS
  2
*D1
 70
65
 10
0.0
 20
0.0
  3
*D1
  1

  0
LINE
  5
26D
100
AcDbEntity
  8
0
100
AcDbLine
 62
7
  6
CONTINUOUS
 10
4.174857677
 20
23.5
 11
22.989538945
 21
23.5
  0
LINE
  5
26E
100
AcDbEntity
  8
0
100
AcDbLine
 62
7
  6
CONTINUOUS
 10
4.1748580251
 20
-23.5
 11
22.989538945
 21
-23.5
  0
LINE
  5
26F
100
AcDbEntity
  8
0
100
AcDbLine
 62
7
  6
CONTINUOUS
 10
21.489538945
 20
23.5
 11
21.489538945
 21
0.0
  0
LINE
  5
270
100
AcDbEntity
  8
0
100
AcDbLine
 62
7
  6
CONTINUOUS
 10
21.489538945
 20
-23.5
 11
21.489538945
 21
0.0
  0
INSERT
  5
271
100
AcDbEntity
  8
0
100
AcDbBlockReference
 62
7
  6
CONTINUOUS
  2
_FILLED
 10
21.489538945
 20
23.5
 41
3.0
 42
3.0
 43
3.0
 50
90.0
  0
INSERT
  5
272
100
AcDbEntity
  8
0
100
AcDbBlockReference
 62
7
  6
CONTINUOUS
  2
_FILLED
 10
21.489538945
 20
-23.5
 41
3.0
 42
3.0
 43
3.0
 50
270.0
  0
ENDBLK
  5
273
100
AcDbEntity
  8
0
  6
BYBLOCK
 62
0
100
AcDbBlockEnd
  0
BLOCK
  5
274
100
AcDbEntity
  8
0
100
AcDbBlockBegin
 62
7
  6
CONTINUOUS
  2
*D2
 70
65
 10
0.0
 20
0.0
  3
*D2
  1

  0
LINE
  5
275
100
AcDbEntity
  8
0
100
AcDbLine
 62
7
  6
CONTINUOUS
 10
-78.7952999463
 20
22.3997711479
 11
-78.7952999463
 21
28.9674858572
  0
LINE
  5
276
100
AcDbEntity
  8
0
100
AcDbLine
 62
7
  6
CONTINUOUS
 10
-41.7952999463
 20
20.1738174026
 11
-41.7952999463
 21
28.9674858572
  0
LINE
  5
277
100
AcDbEntity
  8
0
100
AcDbLine
 62
7
  6
CONTINUOUS
 10
-78.7952999463
 20
27.4674858572
 11
-60.2952999463
 21
27.4674858572
  0
LINE
  5
278
100
AcDbEntity
  8
0
100
AcDbLine
 62
7
  6
CONTINUOUS
 10
-41.7952999463
 20
27.4674858572
 11
-60.2952999463
 21
27.4674858572
  0
INSERT
  5
279
100
AcDbEntity
  8
0
100
AcDbBlockReference
 62
7
  6
CONTINUOUS
  2
_FILLED
 10
-78.7952999463
 20
27.4674858572
 41
3.0
 42
3.0
 43
3.0
 50
180.0
  0
INSERT
  5
27A
100
AcDbEntity
  8
0
100
AcDbBlockReference
 62
7
  6
CONTINUOUS
  2
_FILLED
 10
-41.7952999463
 20
27.4674858572
 41
3.0
 42
3.0
 43
3.0
  0
ENDBLK
  5
27B
100
AcDbEntity
  8
0
  6
BYBLOCK
 62
0
100
AcDbBlockEnd
  0
BLOCK
  5
27C
100
AcDbEntity
  8
0
100
AcDbBlockBegin
 62
7
  6
CONTINUOUS
  2
*D3
 70
65
 10
0.0
 20
0.0
  3
*D3
  1

  0
LINE
  5
27D
100
AcDbEntity
  8
0
100
AcDbLine
 62
7
  6
CONTINUOUS
 10
-41.7952999463
 20
10.1585499788
 11
-41.7952999463
 21
35.7838640755
  0
LINE
  5
27E
100
AcDbEntity
  8
0
100
AcDbLine
 62
7
  6
CONTINUOUS
 10
-88.2952999463
 20
0.5
 11
-88.2952999463
 21
35.7838640755
  0
LINE
  5
27F
100
AcDbEntity
  8
0
100
AcDbLine
 62
7
  6
CONTINUOUS
 10
-41.7952999463
 20
34.2838640755
 11
-65.0452999463
 21
34.2838640755
  0
LINE
  5
280
100
AcDbEntity
  8
0
100
AcDbLine
 62
7
  6
CONTINUOUS
 10
-88.2952999463
 20
34.2838640755
 11
-65.0452999463
 21
34.2838640755
  0
INSERT
  5
281
100
AcDbEntity
  8
0
100
AcDbBlockReference
 62
7
  6
CONTINUOUS
  2
_FILLED
 10
-41.7952999463
 20
34.2838640755
 41
3.0
 42
3.0
 43
3.0
  0
INSERT
  5
282
100
AcDbEntity
  8
0
100
AcDbBlockReference
 62
7
  6
CONTINUOUS
  2
_FILLED
 10
-88.2952999463
 20
34.2838640755
 41
3.0
 42
3.0
 43
3.0
 50
180.0
  0
ENDBLK
  5
283
100
AcDbEntity
  8
0
  6
BYBLOCK
 62
0
100
AcDbBlockEnd
  0
ENDSEC
  0
SECTION
  2
ENTITIES
  0
DIMENSION
  5
284
100
AcDbEntity
  8
0
100
AcDbDimension
 62
7
  6
CONTINUOUS
  2
*D0
 10
11.15
 20
28.9047444421
 11
-4.2857142857
 21
28.9047444421
 70
160
 71
2
 72
2
 41
0.9
 42
22.3
  3
DIMSTYLE_1
100
AcDbAlignedDimension
 13
-11.15
 23
21.8997711479
 14
11.15
 24
21.8997711479
100
AcDbRotatedDimension
  0
DIMENSION
  5
285
100
AcDbEntity
  8
0
100
AcDbDimension
 62
7
  6
CONTINUOUS
  2
*D1
 10
21.489538945
 20
-23.5
 11
21.489538945
 21
-2.3571428571
 70
160
 71
2
 72
2
 41
0.9
 42
47.0
  3
DIMSTYLE_1
100
AcDbAlignedDimension
 13
3.674857677
 23
23.5
 14
3.6748580251
 24
-23.5
 50
270.0
100
AcDbRotatedDimension
  0
DIMENSION
  5
286
100
AcDbEntity
  8
0
100
AcDbDimension
 62
7
  6
CONTINUOUS
  2
*D2
 10
-41.7952999463
 20
27.4674858572
 11
-62.5452999463
 21
27.4674858572
 70
160
 71
2
 72
2
 41
0.9
 42
37.0
  3
DIMSTYLE_1
100
AcDbAlignedDimension
 13
-78.7952999463
 23
21.8997711479
 14
-41.7952999463
 24
19.6738174026
100
AcDbRotatedDimension
  0
DIMENSION
  5
287
100
AcDbEntity
  8
0
100
AcDbDimension
 62
7
  6
CONTINUOUS
  2
*D3
 10
-88.2952999463
 20
34.2838640755
 11
-69.331014232
 21
34.2838640755
 70
160
 71
2
 72
2
 41
0.9
 42
46.5
  3
DIMSTYLE_1
100
AcDbAlignedDimension
 13
-41.7952999463
 23
9.6585499788
 14
-88.2952999463
 24
0.0
 50
180.0
100
AcDbRotatedDimension
  0
LWPOLYLINE
  5
288
100
AcDbEntity
  8
0
100
AcDbPolyline
 62
7
  6
CONTINUOUS
 90
5
 70
0
 43
0.3500000019
 10
3.0000024414
 20
31.3690297852
 10
3.3571425781
 20
31.5833149414
 10
3.3571425781
 20
32.2261730957
 10
3.0000024414
 20
32.6547434082
 10
2.1428564453
 20
32.6547434082
  0
LWPOLYLINE
  5
289
100
AcDbEntity
  8
ASSI
100
AcDbPolyline
 62
250
  6
CONTINUOUS
 90
16
 70
0
 10
-11.0004589101
 20
20.9972959167
 10
-10.9968791436
 20
20.9994689314
 10
-10.9879813308
 20
21.0016186628
 10
-10.9738608069
 20
21.0037220776
 10
-10.9546688652
 20
21.005756639
 10
-10.9306111366
 20
21.0077005477
 10
-10.9019453861
 20
21.009532976
 10
-10.868978751
 20
21.0112342904
 10
-10.8320644502
 20
21.0127862623
 10
-10.7915979997
 20
21.014172263
 10
-10.7480129745
 20
21.0153774425
 10
-10.7017763638
 20
21.0163888878
 10
-10.6533835666
 20
21.0171957618
 10
-10.6033530845
 20
21.0177894192
 10
-10.5522209659
 20
21.0181634993
 10
-10.5005350625
 20
21.018313994
  0
LWPOLYLINE
  5
28A
100
AcDbEntity
  8
ASSI
100
AcDbPolyline
 62
250
  6
CONTINUOUS
 90
16
 70
0
 10
10.5087981167
 20
-21.9749071372
 10
10.5610250031
 20
-21.97212728
 10
10.6126802316
 20
-21.9639134406
 10
10.6631985021
 20
-21.9503555394
 10
10.7120269743
 20
-21.931601975
 10
10.7586312804
 20
-21.9078580123
 10
10.8025013793
 20
-21.8793835478
 10
10.8431571925
 20
-21.8464902344
 10
10.8801538308
 20
-21.8095380733
 10
10.9130864355
 20
-21.7689315022
 10
10.941594647
 20
-21.7251149336
 10
10.9653665353
 20
-21.6785678925
 10
10.9841419991
 20
-21.6297997904
 10
10.9977156235
 20
-21.5793443309
 10
11.0059389237
 20
-21.5277536674
 10
11.0087219643
 20
-21.4755923698
  0
LWPOLYLINE
  5
28B
100
AcDbEntity
  8
ASSI
100
AcDbPolyline
 62
7
  6
CONTINUOUS
 90
10
 70
0
 10
3.6748580251
 20
-23.5
 10
3.7403295821
 20
-23.4978096549
 10
3.804982696
 20
-23.4914785729
 10
3.8688173668
 20
-23.4810067538
 10
3.9320963945
 20
-23.46631496
 10
3.9945569791
 20
-23.4474824292
 10
4.0554107206
 20
-23.4247468744
 10
4.1143948191
 20
-23.3981875334
 10
4.1717720746
 20
-23.3677251683
 10
4.2275424871
 20
-23.3333597793
  0
LINE
  5
28C
100
AcDbEntity
  8
ASSI
100
AcDbLine
 62
7
  6
CONTINUOUS
 10
3.6748580251
 20
-23.5
 11
-3.6748580251
 21
-23.5
  0
LINE
  5
28D
100
AcDbEntity
  8
ASSI
100
AcDbLine
 62
7
  6
CONTINUOUS
 10
3.4698202597
 20
-22.5
 11
-3.4698202597
 21
-22.5
  0
LINE
  5
28E
100
AcDbEntity
  8
ASSI
100
AcDbLine
 62
7
  6
CONTINUOUS
 10
10.6503805997
 20
-22.4
 11
3.3
 21
-22.4
  0
LINE
  5
28F
100
AcDbEntity
  8
ASSI
100
AcDbLine
 62
7
  6
CONTINUOUS
 10
-3.3
 20
-22.4
 11
-10.6503805997
 21
-22.4
  0
LWPOLYLINE
  5
290
100
AcDbEntity
  8
ASSI
100
AcDbPolyline
 62
250
  6
CONTINUOUS
 90
16
 70
0
 10
-11.0004589101
 20
-20.9972959167
 10
-10.9968794369
 20
-20.9994689572
 10
-10.9879818724
 20
-21.0016187146
 10
-10.9738615497
 20
-21.0037221553
 10
-10.9546697613
 20
-21.005756742
 10
-10.9306121379
 20
-21.007700675
 10
-10.9019464456
 20
-21.009533126
 10
-10.8689798232
 20
-21.0112344612
 10
-10.8320654925
 20
-21.0127864516
 10
-10.7915989726
 20
-21.0141724684
 10
-10.7480138429
 20
-21.0153776611
 10
-10.701777097
 20
-21.0163891165
 10
-10.6533841395
 20
-21.0171959974
 10
-10.6033534777
 20
-21.0177896584
 10
-10.552221166
 20
-21.0181637387
 10
-10.5005350625
 20
-21.0183142301
  0
LWPOLYLINE
  5
291
100
AcDbEntity
  8
ASSI
100
AcDbPolyline
 62
250
  6
CONTINUOUS
 90
15
 70
0
 10
10.5522211666
 20
-21.0181637394
 10
10.6033534788
 20
-21.0177896594
 10
10.6533841411
 20
-21.0171959985
 10
10.701777099
 20
-21.0163891176
 10
10.7480138452
 20
-21.015377662
 10
10.7915989752
 20
-21.0141724692
 10
10.8320654952
 20
-21.0127864523
 10
10.868979826
 20
-21.0112344618
 10
10.9019464483
 20
-21.0095331264
 10
10.9306121405
 20
-21.0077006753
 10
10.9546697635
 20
-21.0057567422
 10
10.9738615515
 20
-21.0037221554
 10
10.9879818737
 20
-21.0016187147
 10
10.9968794376
 20
-20.9994689572
 10
11.0004589101
 20
-20.9972959167
  0
LINE
  5
292
100
AcDbEntity
  8
ASSI
100
AcDbLine
 62
250
  6
CONTINUOUS
 10
10.5087981167
 20
-21.9749071372
 11
-10.5087981167
 21
-21.9749071372
  0
LINE
  5
293
100
AcDbEntity
  8
ASSI
100
AcDbLine
 62
250
  6
CONTINUOUS
 10
10.5522211666
 20
-21.0181637394
 11
-10.5005350625
 21
-21.0183142309
  0
LWPOLYLINE
  5
294
100
AcDbEntity
  8
ASSI
100
AcDbPolyline
 62
7
  6
CONTINUOUS
 90
10
 70
0
 10
-4.2275424871
 20
-23.3333597793
 10
-4.1717720746
 20
-23.3677251683
 10
-4.1143948191
 20
-23.3981875334
 10
-4.0554107206
 20
-23.4247468744
 10
-3.9945569791
 20
-23.4474824292
 10
-3.9320963945
 20
-23.46631496
 10
-3.8688173668
 20
-23.4810067538
 10
-3.804982696
 20
-23.4914785729
 10
-3.7403295821
 20
-23.4978096549
 10
-3.6748580251
 20
-23.5
  0
LWPOLYLINE
  5
295
100
AcDbEntity
  8
0
100
AcDbPolyline
 62
250
  6
CONTINUOUS
 90
81
 70
0
 10
5.3929835836
 20
-19.3088488498
 10
5.4141484223
 20
-19.3084293747
 10
5.4349987463
 20
-19.3071831506
 10
5.4556025214
 20
-19.3051284794
 10
5.4760277137
 20
-19.3022836628
 10
5.4963285939
 20
-19.2986624954
 10
5.5165046514
 20
-19.2942607416
 10
5.5365416802
 20
-19.2890696589
 10
5.5564254743
 20
-19.2830805044
 10
5.57613535
 20
-19.2762886303
 10
5.5956247121
 20
-19.268705769
 10
5.6148404875
 20
-19.2603477476
 10
5.6337296033
 20
-19.2512303934
 10
5.6522433892
 20
-19.2413707258
 10
5.670350787
 20
-19.230790533
 10
5.688025141
 20
-19.2195127955
 10
5.7052397956
 20
-19.2075604937
 10
5.7219687608
 20
-19.1949554434
 10
5.7381887077
 20
-19.1817148019
 10
5.7538769728
 20
-19.167854562
 10
5.7690108925
 20
-19.1533907164
 10
5.783568821
 20
-19.1383398445
 10
5.7975331827
 20
-19.1227208722
 10
5.8108874194
 20
-19.1065533119
 10
5.8236149731
 20
-19.0898566762
 10
5.8356974931
 20
-19.0726523223
 10
5.8471094583
 20
-19.0549689867
 10
5.8578235551
 20
-19.0368372504
 10
5.8678124699
 20
-19.0182876947
 10
5.8770512414
 20
-18.9993521425
 10
5.8855243191
 20
-18.9800673842
 10
5.8932185051
 20
-18.9604714518
 10
5.9001206013
 20
-18.9406023777
 10
5.9062194876
 20
-18.9204963014
 10
5.9115123548
 20
-18.9001817928
 10
5.9159984717
 20
-18.879685529
 10
5.919677107
 20
-18.8590341875
 10
5.9225463944
 20
-18.8382545558
 10
5.924599927
 20
-18.8173738628
 10
5.9258301628
 20
-18.7964194476
 10
5.9262295599
 20
-18.7754186493
 10
5.9257927811
 20
-18.754400575
 10
5.9245233081
 20
-18.7334014034
 10
5.9224268273
 20
-18.7124590809
 10
5.919509025
 20
-18.6916115541
 10
5.9157755877
 20
-18.6708967695
 10
5.9112322019
 20
-18.6503526737
 10
5.9058845539
 20
-18.6300172133
 10
5.8997383301
 20
-18.6099283347
 10
5.8928009486
 20
-18.5901217155
 10
5.8850867535
 20
-18.5706239576
 10
5.8766118205
 20
-18.5514593938
 10
5.8673922256
 20
-18.532652357
 10
5.8574440443
 20
-18.51422718
 10
5.8467833526
 20
-18.4962081958
 10
5.8354262261
 20
-18.4786197372
 10
5.8233887407
 20
-18.461486137
 10
5.8106880011
 20
-18.4448321133
 10
5.7973452283
 20
-18.428683925
 10
5.7833826725
 20
-18.4130682158
 10
5.7688225836
 20
-18.3980116298
 10
5.7536875402
 20
-18.3835393045
 10
5.7380014353
 20
-18.3696703514
 10
5.7217884902
 20
-18.3564223756
 10
5.7050729263
 20
-18.3438129823
 10
5.6878789475
 20
-18.3318605479
 10
5.6702306877
 20
-18.3205865346
 10
5.6521522629
 20
-18.3100131761
 10
5.6336677895
 20
-18.300162706
 10
5.6148060592
 20
-18.291056281
 10
5.5956145662
 20
-18.2827107499
 10
5.5761454801
 20
-18.2751418845
 10
5.5564509706
 20
-18.2683654566
 10
5.5365770236
 20
-18.2623930145
 10
5.5165448904
 20
-18.2572192113
 10
5.4963696383
 20
-18.2528344765
 10
5.476066335
 20
-18.2492292395
 10
5.4556361357
 20
-18.2463984203
 10
5.4350245475
 20
-18.2443548995
 10
5.4141631651
 20
-18.2431160482
 10
5.3929835835
 20
-18.2426992375
  0
LWPOLYLINE
  5
296
100
AcDbEntity
  8
0
100
AcDbPolyline
 62
250
  6
CONTINUOUS
 90
81
 70
0
 10
5.3929835835
 20
-18.2426992375
 10
5.3718761331
 20
-18.2431132208
 10
5.3510820943
 20
-18.2443439405
 10
5.3305332376
 20
-18.2463745518
 10
5.3101613335
 20
-18.2491882097
 10
5.2899120107
 20
-18.2527725177
 10
5.269786332
 20
-18.2571328738
 10
5.2497992185
 20
-18.2622791242
 10
5.2299655911
 20
-18.2682211153
 10
5.2103065609
 20
-18.2749645461
 10
5.1908679982
 20
-18.2824985256
 10
5.1717019628
 20
-18.2908080158
 10
5.1528605149
 20
-18.2998779784
 10
5.134391297
 20
-18.3096920285
 10
5.1163242817
 20
-18.320228395
 10
5.098685024
 20
-18.3314639599
 10
5.0814990789
 20
-18.3433756053
 10
5.0647915542
 20
-18.3559412941
 10
5.0485857686
 20
-18.3691433117
 10
5.0329045936
 20
-18.3829650242
 10
5.0177709008
 20
-18.3973897979
 10
5.0032064542
 20
-18.4124008722
 10
4.9892285881
 20
-18.4279809793
 10
4.9758535296
 20
-18.4441127248
 10
4.9630975055
 20
-18.4607787142
 10
4.9509788878
 20
-18.4779591927
 10
4.9395246278
 20
-18.4956249632
 10
4.928763822
 20
-18.5137444683
 10
4.9187255666
 20
-18.5322861508
 10
4.9094363928
 20
-18.5512172761
 10
4.9009125704
 20
-18.5705004014
 10
4.8931678042
 20
-18.5900969068
 10
4.8862157988
 20
-18.6099681724
 10
4.8800680749
 20
-18.630077581
 10
4.8747274183
 20
-18.6503965268
 10
4.8701944304
 20
-18.6708984065
 10
4.8664697131
 20
-18.6915566169
 10
4.863554997
 20
-18.7123442264
 10
4.8614565287
 20
-18.7332329889
 10
4.8601816836
 20
-18.7541943301
 10
4.8597378373
 20
-18.7751996756
 10
4.8601301829
 20
-18.7962190427
 10
4.8613551844
 20
-18.8172168171
 10
4.8634071232
 20
-18.838155976
 10
4.8662802808
 20
-18.8589994971
 10
4.8699689388
 20
-18.8797103576
 10
4.8744673786
 20
-18.900251535
 10
4.8797698819
 20
-18.9205860067
 10
4.8858707301
 20
-18.9406767502
 10
4.8927626397
 20
-18.9604888794
 10
4.9004320675
 20
-18.9799960539
 10
4.9088639053
 20
-18.9991740699
 10
4.9180430448
 20
-19.0179987234
 10
4.9279543779
 20
-19.0364458105
 10
4.9385827963
 20
-19.0544911275
 10
4.9499131917
 20
-19.0721104703
 10
4.961930456
 20
-19.0892796352
 10
4.9746182621
 20
-19.1059737032
 10
4.9879554073
 20
-19.1221648955
 10
5.0019194701
 20
-19.1378247182
 10
5.016488029
 20
-19.1529246776
 10
5.0316382893
 20
-19.1674381597
 10
5.0473459622
 20
-19.1813460698
 10
5.0635863861
 20
-19.1946311932
 10
5.0803348988
 20
-19.2072763151
 10
5.0975667548
 20
-19.2192634712
 10
5.1152568723
 20
-19.2305716992
 10
5.1333800858
 20
-19.2411792871
 10
5.1519112298
 20
-19.2510645232
 10
5.1708203882
 20
-19.2602065914
 10
5.1900586423
 20
-19.2685882587
 10
5.2095723229
 20
-19.276193188
 10
5.2293077607
 20
-19.2830050421
 10
5.2492178701
 20
-19.2890116864
 10
5.2692818993
 20
-19.2942177964
 10
5.2894856798
 20
-19.2986322503
 10
5.3098150435
 20
-19.3022639262
 10
5.3302695505
 20
-19.3051171465
 10
5.3509036746
 20
-19.3071780111
 10
5.3717856182
 20
-19.3084280641
 10
5.3929835836
 20
-19.3088488498
  0
LINE
  5
297
100
AcDbEntity
  8
0
100
AcDbLine
 62
250
  6
CONTINUOUS
 10
-1.212967
 20
-18.6330431483
 11
-1.0046336716
 21
-18.6330431483
  0
LINE
  5
298
100
AcDbEntity
  8
0
100
AcDbLine
 62
250
  6
CONTINUOUS
 10
6.349125
 20
-18.4
 11
8.6
 21
-18.4
  0
LINE
  5
299
100
AcDbEntity
  8
0
100
AcDbLine
 62
250
  6
CONTINUOUS
 10
-6.243674
 20
-18.377724
 11
-6.016291
 21
-18.377724
  0
LINE
  5
29A
100
AcDbEntity
  8
0
100
AcDbLine
 62
250
  6
CONTINUOUS
 10
-1.948747
 20
-18.377724
 11
-1.712967
 21
-18.377724
  0
LINE
  5
29B
100
AcDbEntity
  8
0
100
AcDbLine
 62
250
  6
CONTINUOUS
 10
1.195555
 20
-18.377724
 11
1.462349
 21
-18.377724
  0
LINE
  5
29C
100
AcDbEntity
  8
0
100
AcDbLine
 62
250
  6
CONTINUOUS
 10
2.863149
 20
-18.377724
 11
3.138339
 21
-18.377724
  0
LINE
  5
29D
100
AcDbEntity
  8
0
100
AcDbLine
 62
250
  6
CONTINUOUS
 10
-0.7546336567
 20
-18.1649580381
 11
-0.962967
 21
-18.1649580381
  0
LINE
  5
29E
100
AcDbEntity
  8
0
100
AcDbLine
 62
250
  6
CONTINUOUS
 10
-6.12013
 20
-18.024055
 11
-6.125785
 21
-18.024055
  0
LINE
  5
29F
100
AcDbEntity
  8
0
100
AcDbLine
 62
250
  6
CONTINUOUS
 10
1.667286
 20
-17.88903
 11
2.661125
 21
-17.88903
  0
LINE
  5
2A0
100
AcDbEntity
  8
0
100
AcDbLine
 62
250
  6
CONTINUOUS
 10
8.003011
 20
-17.799584
 11
6.083873
 21
-17.799584
  0
LINE
  5
2A1
100
AcDbEntity
  8
0
100
AcDbLine
 62
250
  6
CONTINUOUS
 10
-3.210923
 20
-17.749207
 11
-3.363254
 21
-17.749207
  0
LINE
  5
2A2
100
AcDbEntity
  8
0
100
AcDbLine
 62
250
  6
CONTINUOUS
 10
-3.837898
 20
-17.749207
 11
-3.989887
 21
-17.749207
  0
LINE
  5
2A3
100
AcDbEntity
  8
0
100
AcDbLine
 62
250
  6
CONTINUOUS
 10
-4.464531
 20
-17.749207
 11
-4.619433
 21
-17.749207
  0
LINE
  5
2A4
100
AcDbEntity
  8
0
100
AcDbLine
 62
250
  6
CONTINUOUS
 10
2.571166
 20
-17.670042
 11
1.759816
 21
-17.670042
  0
LINE
  5
2A5
100
AcDbEntity
  8
0
100
AcDbLine
 62
250
  6
CONTINUOUS
 10
-3.207838
 20
-17.251602
 11
-4.616006
 21
-17.251602
  0
LWPOLYLINE
  5
2A6
100
AcDbEntity
  8
0
100
AcDbPolyline
 62
250
  6
CONTINUOUS
 90
89
 70
0
 10
4.2737149774
 20
-15.674138857
 10
4.2852426184
 20
-15.6739280943
 10
4.2965920888
 20
-15.6733124487
 10
4.3077924508
 20
-15.6723007041
 10
4.3188727664
 20
-15.6709016445
 10
4.3298620977
 20
-15.6691240537
 10
4.3407837545
 20
-15.6669744134
 10
4.3516380371
 20
-15.6644499962
 10
4.3624194934
 20
-15.6615457727
 10
4.3731226717
 20
-15.6582567131
 10
4.3837421198
 20
-15.6545777878
 10
4.3942693395
 20
-15.6505063815
 10
4.4046836474
 20
-15.6460495352
 10
4.4149613138
 20
-15.6412167044
 10
4.4250786089
 20
-15.6360173442
 10
4.4350118029
 20
-15.63046091
 10
4.4447388996
 20
-15.6245573469
 10
4.4542448357
 20
-15.6183185584
 10
4.4635162812
 20
-15.611756938
 10
4.4725399064
 20
-15.6048848787
 10
4.4813023813
 20
-15.5977147741
 10
4.4897917286
 20
-15.5902581963
 10
4.4980013815
 20
-15.5825234332
 10
4.5059261258
 20
-15.5745179516
 10
4.5135607472
 20
-15.5662492183
 10
4.5209000314
 20
-15.5577247001
 10
4.5279382909
 20
-15.5489522015
 10
4.5346679444
 20
-15.5399408774
 10
4.5410809372
 20
-15.5307002207
 10
4.5471692146
 20
-15.5212397239
 10
4.5529247219
 20
-15.5115688798
 10
4.5583395844
 20
-15.5016978235
 10
4.5634066468
 20
-15.4916392597
 10
4.5681189338
 20
-15.4814065358
 10
4.5724694702
 20
-15.4710129989
 10
4.5764512806
 20
-15.4604719962
 10
4.5800579501
 20
-15.4497966094
 10
4.5832853052
 20
-15.4389988573
 10
4.5861297327
 20
-15.4280904935
 10
4.5885876195
 20
-15.4170832713
 10
4.5906553525
 20
-15.405988944
 10
4.5924917381
 20
-15.3935751039
 10
4.5938423568
 20
-15.3810906898
 10
4.594707574
 20
-15.3685581548
 10
4.5950877547
 20
-15.3559999515
 10
4.5949832642
 20
-15.343438533
 10
4.5943944679
 20
-15.3308963521
 10
4.5933217308
 20
-15.3183958616
 10
4.5917654182
 20
-15.3059595145
 10
4.5897258954
 20
-15.2936097636
 10
4.5872045733
 20
-15.281367752
 10
4.5842070452
 20
-15.2692493842
 10
4.5807399503
 20
-15.2572692549
 10
4.5768099277
 20
-15.2454419587
 10
4.5724236165
 20
-15.2337820905
 10
4.5675876558
 20
-15.2223042448
 10
4.5623086846
 20
-15.2110230163
 10
4.5565933422
 20
-15.1999529999
 10
4.5504482674
 20
-15.1891087901
 10
4.5445566038
 20
-15.1795544083
 10
4.5383320995
 20
-15.1702070696
 10
4.5317846193
 20
-15.1610790921
 10
4.5249240279
 20
-15.1521827938
 10
4.51776019
 20
-15.1435304927
 10
4.510303301
 20
-15.1351341132
 10
4.5025648782
 20
-15.127004004
 10
4.4945567694
 20
-15.1191501205
 10
4.4862908227
 20
-15.1115824178
 10
4.4777788858
 20
-15.1043108511
 10
4.4690322405
 20
-15.0973447898
 10
4.4600599033
 20
-15.0906912598
 10
4.4508703248
 20
-15.0843567016
 10
4.4414719554
 20
-15.0783475554
 10
4.4318732456
 20
-15.0726702614
 10
4.4220845221
 20
-15.0673315567
 10
4.4121236176
 20
-15.0623393649
 10
4.4020102413
 20
-15.0577019068
 10
4.3917641021
 20
-15.0534274027
 10
4.3814049093
 20
-15.0495240732
 10
4.370950291
 20
-15.0459980614
 10
4.3604095521
 20
-15.0428472008
 10
4.3497899169
 20
-15.0400672476
 10
4.3390986094
 20
-15.0376539578
 10
4.3283428537
 20
-15.0356030876
 10
4.3175239495
 20
-15.0339123834
 10
4.3066194993
 20
-15.0325875524
 10
4.2956011807
 20
-15.031636292
 10
4.2844406717
 20
-15.0310662999
 10
4.2731096501
 20
-15.0308852734
  0
LINE
  5
2A7
100
AcDbEntity
  8
0
100
AcDbLine
 62
250
  6
CONTINUOUS
 10
6.083873
 20
-16.904786
 11
8.003011
 21
-16.904786
  0
LINE
  5
2A8
100
AcDbEntity
  8
0
100
AcDbLine
 62
250
  6
CONTINUOUS
 10
-1.954401
 20
-16.692995
 11
-1.948747
 21
-16.692995
  0
LINE
  5
2A9
100
AcDbEntity
  8
0
100
AcDbLine
 62
250
  6
CONTINUOUS
 10
2.172602
 20
-16.692995
 11
2.178256
 21
-16.692995
  0
LINE
  5
2AA
100
AcDbEntity
  8
0
100
AcDbLine
 62
250
  6
CONTINUOUS
 10
-8.0209331791
 20
-16.6086904457
 11
-7.2095833858
 21
-16.6086904457
  0
LINE
  5
2AB
100
AcDbEntity
  8
0
100
AcDbLine
 62
250
  6
CONTINUOUS
 10
0.1371161684
 20
-16.6086904457
 11
0.9484659617
 21
-16.6086904457
  0
LINE
  5
2AC
100
AcDbEntity
  8
0
100
AcDbLine
 62
250
  6
CONTINUOUS
 10
2.293233
 20
-16.390046
 11
2.071504
 21
-16.390046
  0
LINE
  5
2AD
100
AcDbEntity
  8
0
100
AcDbLine
 62
250
  6
CONTINUOUS
 10
0.9484659617
 20
-16.3900458129
 11
-0.0930090212
 21
-16.3900458129
  0
LINE
  5
2AE
100
AcDbEntity
  8
0
100
AcDbLine
 62
250
  6
CONTINUOUS
 10
-1.712967
 20
-16.390046
 11
-1.917903
 21
-16.390046
  0
LINE
  5
2AF
100
AcDbEntity
  8
0
100
AcDbLine
 62
250
  6
CONTINUOUS
 10
-5.238697
 20
-16.390046
 11
-5.488528
 21
-16.390046
  0
LINE
  5
2B0
100
AcDbEntity
  8
0
100
AcDbLine
 62
250
  6
CONTINUOUS
 10
-6.737852
 20
-16.390046
 11
-7.004476
 21
-16.390046
  0
LINE
  5
2B1
100
AcDbEntity
  8
0
100
AcDbLine
 62
250
  6
CONTINUOUS
 10
-7.2095833858
 20
-16.3900458129
 11
-8.2510583686
 21
-16.3900458129
  0
LWPOLYLINE
  5
2B2
100
AcDbEntity
  8
0
100
AcDbPolyline
 62
250
  6
CONTINUOUS
 90
89
 70
0
 10
-8.4083591311
 20
-18.0490719373
 10
-8.396360878
 20
-18.0725343287
 10
-8.3838362096
 20
-18.0951417248
 10
-8.3708162307
 20
-18.1169040305
 10
-8.3573320461
 20
-18.1378311504
 10
-8.3434147608
 20
-18.1579329893
 10
-8.3290954795
 20
-18.1772194517
 10
-8.3144053072
 20
-18.1957004425
 10
-8.2993753487
 20
-18.2133858662
 10
-8.2840275702
 20
-18.2302850403
 10
-8.2683473831
 20
-18.2464049321
 10
-8.2523110599
 20
-18.2617519216
 10
-8.2358948735
 20
-18.2763323888
 10
-8.219076392
 20
-18.2901516361
 10
-8.2018383669
 20
-18.3032106549
 10
-8.184164845
 20
-18.315509359
 10
-8.1660398732
 20
-18.3270476621
 10
-8.1474537603
 20
-18.3378259192
 10
-8.1284218623
 20
-18.3478462503
 10
-8.1089657969
 20
-18.3571112167
 10
-8.0891071819
 20
-18.3656233795
 10
-8.0688518433
 20
-18.3733850725
 10
-8.0481424399
 20
-18.3803977181
 10
-8.0269058389
 20
-18.3866625113
 10
-8.0050689075
 20
-18.3921806472
 10
-7.9825894924
 20
-18.3969571187
 10
-7.9595493587
 20
-18.4010121124
 10
-7.9360612513
 20
-18.4043696127
 10
-7.9122379148
 20
-18.4070536041
 10
-7.8800958957
 20
-18.4096161015
 10
-7.8475197726
 20
-18.4110211472
 10
-7.8144709692
 20
-18.4112659996
 10
-7.789364746
 20
-18.4106761596
 10
-7.7640373583
 20
-18.4093682943
 10
-7.7385552235
 20
-18.4072785291
 10
-7.7129847589
 20
-18.4043429897
 10
-7.6874271888
 20
-18.4005131621
 10
-7.6621229652
 20
-18.3958019733
 10
-7.6372958491
 20
-18.3902402445
 10
-7.6129636112
 20
-18.383868933
 10
-7.5890804547
 20
-18.3767210377
 10
-7.5655523049
 20
-18.3687875895
 10
-7.5423088163
 20
-18.3600586182
 10
-7.5194228382
 20
-18.3505621173
 10
-7.4969903099
 20
-18.3403317452
 10
-7.4750563354
 20
-18.329385855
 10
-7.4536533105
 20
-18.3177389741
 10
-7.4328136307
 20
-18.3054056295
 10
-7.4125670074
 20
-18.2923966486
 10
-7.3929324164
 20
-18.2787080591
 10
-7.3739261492
 20
-18.264332189
 10
-7.3555644974
 20
-18.2492613661
 10
-7.3378605312
 20
-18.2334883185
 10
-7.3208144346
 20
-18.2170073741
 10
-7.3044231699
 20
-18.1998132613
 10
-7.2886836996
 20
-18.1819007081
 10
-7.2735996162
 20
-18.1632743278
 10
-7.2592010316
 20
-18.1439782735
 10
-7.245524688
 20
-18.1240665837
 10
-7.2326073273
 20
-18.1035932967
 10
-7.2204829381
 20
-18.0826120238
 10
-7.2091744949
 20
-18.0611746678
 10
-7.1987022189
 20
-18.0393327047
 10
-7.1890863311
 20
-18.0171376104
 10
-7.1803426686
 20
-17.9946337895
 10
-7.1724695322
 20
-17.9718373617
 10
-7.1654608389
 20
-17.9487573752
 10
-7.1593105054
 20
-17.9254028787
 10
-7.1540110651
 20
-17.9017804954
 10
-7.1495495182
 20
-17.8778871499
 10
-7.1459114815
 20
-17.8537173414
 10
-7.1430825716
 20
-17.8292655695
 10
-7.1410489476
 20
-17.8045393064
 10
-7.1397989364
 20
-17.7795979151
 10
-7.1393214072
 20
-17.7545137315
 10
-7.1396052291
 20
-17.7293590913
 10
-7.1406451042
 20
-17.7042023273
 10
-7.1424590653
 20
-17.6790957593
 10
-7.1450709784
 20
-17.6540877039
 10
-7.1485047093
 20
-17.6292264778
 10
-7.1527807855
 20
-17.6045567947
 10
-7.1579063815
 20
-17.5801089568
 10
-7.1638853338
 20
-17.5559096634
 10
-7.1707214787
 20
-17.5319856138
 10
-7.1784199487
 20
-17.5083607701
 10
-7.1869910618
 20
-17.4850481463
 10
-7.1964464322
 20
-17.4620580195
 10
-7.2067976744
 20
-17.4394006666
 10
-7.2180494755
 20
-17.4170993006
  0
LINE
  5
2B3
100
AcDbEntity
  8
ASSI
100
AcDbLine
 62
7
  6
CONTINUOUS
 10
-3.2333672024
 20
22.5
 11
-3.3
 21
22.4
  0
LWPOLYLINE
  5
2B4
100
AcDbEntity
  8
0
100
AcDbPolyline
 62
250
  6
CONTINUOUS
 90
88
 70
0
 10
4.2731096501
 20
-15.0308852734
 10
4.2616183015
 20
-15.0311039638
 10
4.2503025411
 20
-15.0317221163
 10
4.2391333778
 20
-15.0327316051
 10
4.2280818203
 20
-15.0341243043
 10
4.2171188775
 20
-15.0358920881
 10
4.20622126
 20
-15.0380291363
 10
4.1953884858
 20
-15.0405388508
 10
4.1846257748
 20
-15.0434269387
 10
4.173938347
 20
-15.0466991076
 10
4.1633314224
 20
-15.0503610646
 10
4.1528133747
 20
-15.054415994
 10
4.1424051938
 20
-15.0588569867
 10
4.1321310233
 20
-15.0636746108
 10
4.122015007
 20
-15.0688594341
 10
4.1120812886
 20
-15.0744020245
 10
4.1023522088
 20
-15.0802924085
 10
4.0928428965
 20
-15.0865184476
 10
4.0835666777
 20
-15.0930674619
 10
4.0745368783
 20
-15.0999267714
 10
4.0657668244
 20
-15.1070836963
 10
4.0572685007
 20
-15.1145264361
 10
4.0490485276
 20
-15.1222467087
 10
4.041112184
 20
-15.1302371112
 10
4.0334647492
 20
-15.138490241
 10
4.0261115021
 20
-15.1469986954
 10
4.0190582299
 20
-15.1557547547
 10
4.0123127511
 20
-15.1647494317
 10
4.0058833923
 20
-15.1739734222
 10
3.99977848
 20
-15.1834174221
 10
3.9940063408
 20
-15.1930721272
 10
3.9885751095
 20
-15.2029275611
 10
3.9834921542
 20
-15.2129710578
 10
3.9787646514
 20
-15.2231892788
 10
3.9743997775
 20
-15.2335688859
 10
3.9704047089
 20
-15.2440965405
 10
3.9667859733
 20
-15.2547590381
 10
3.9635475032
 20
-15.2655437082
 10
3.9606925823
 20
-15.2764380143
 10
3.9582244943
 20
-15.2874294196
 10
3.9561465229
 20
-15.2985053876
 10
3.9542983327
 20
-15.3108952245
 10
3.9529350985
 20
-15.3233524386
 10
3.9520560969
 20
-15.3358554859
 10
3.9516606045
 20
-15.3483828226
 10
3.9517478978
 20
-15.360912905
 10
3.9523172535
 20
-15.373424189
 10
3.9533679481
 20
-15.385895131
 10
3.9548992582
 20
-15.3983041871
 10
3.9569104604
 20
-15.4106298134
 10
3.9594000086
 20
-15.4228516112
 10
3.9623630668
 20
-15.4349537616
 10
3.9657939763
 20
-15.4469215913
 10
3.9696870785
 20
-15.4587404264
 10
3.9740367146
 20
-15.4703955933
 10
3.978837226
 20
-15.4818724184
 10
3.9840829541
 20
-15.4931562282
 10
3.9897682401
 20
-15.5042323488
 10
3.9958874254
 20
-15.5150861067
 10
4.0024333861
 20
-15.5257025749
 10
4.0093931376
 20
-15.5360658124
 10
4.0167522296
 20
-15.5461596249
 10
4.0244962124
 20
-15.5559678183
 10
4.032610636
 20
-15.5654741981
 10
4.0410810502
 20
-15.5746625701
 10
4.0498930053
 20
-15.5835167399
 10
4.0590320511
 20
-15.5920205134
 10
4.0684837377
 20
-15.6001576961
 10
4.0772457573
 20
-15.6071554257
 10
4.0862395969
 20
-15.6138378027
 10
4.0954555421
 20
-15.6201995302
 10
4.1048838783
 20
-15.6262353115
 10
4.114514891
 20
-15.6319398497
 10
4.124337095
 20
-15.6373073061
 10
4.1343319228
 20
-15.6423296734
 10
4.1444790362
 20
-15.6469984028
 10
4.154758097
 20
-15.651304945
 10
4.1651487669
 20
-15.655240751
 10
4.1756329771
 20
-15.6587993363
 10
4.1862017355
 20
-15.6619824751
 10
4.1968483197
 20
-15.6647940063
 10
4.207566007
 20
-15.6672377686
 10
4.2183480748
 20
-15.6693176009
 10
4.2291936097
 20
-15.6710353155
 10
4.2401249348
 20
-15.6723846187
 10
4.2511701829
 20
-15.6733571902
 10
4.2623574862
 20
-15.6739447097
 10
4.2737149774
 20
-15.674138857
  0
LINE
  5
2B5
100
AcDbEntity
  8
0
100
AcDbLine
 62
250
  6
CONTINUOUS
 10
6.192853
 20
-14.862618
 11
6.830966
 21
-14.862618
  0
LINE
  5
2B6
100
AcDbEntity
  8
0
100
AcDbLine
 62
250
  6
CONTINUOUS
 10
6.830966
 20
-14.224847
 11
6.192853
 21
-14.224847
  0
LINE
  5
2B7
100
AcDbEntity
  8
ASSI
100
AcDbLine
 62
7
  6
CONTINUOUS
 10
-3.3
 20
-22.4
 11
-3.2333672024
 21
-22.5
  0
LWPOLYLINE
  5
2B8
100
AcDbEntity
  8
0
100
AcDbPolyline
 62
250
  6
CONTINUOUS
 90
55
 70
0
 10
-7.2180494755
 20
-17.4170993006
 10
-7.2270658491
 20
-17.4006512765
 10
-7.2365632044
 20
-17.3844827384
 10
-7.2465289077
 20
-17.3686307664
 10
-7.2569503251
 20
-17.3531324403
 10
-7.2685519245
 20
-17.3370300226
 10
-7.2806264637
 20
-17.3214024959
 10
-7.2931427554
 20
-17.306280192
 10
-7.3060696126
 20
-17.2916934428
 10
-7.319375848
 20
-17.2776725798
 10
-7.3330323793
 20
-17.2642405704
 10
-7.3470185421
 20
-17.251390923
 10
-7.3613157767
 20
-17.2391097815
 10
-7.3759055237
 20
-17.22738329
 10
-7.3907692233
 20
-17.2161975924
 10
-7.4058852404
 20
-17.2055419904
 10
-7.4212196382
 20
-17.1954184174
 10
-7.4367354046
 20
-17.1858319648
 10
-7.4523955272
 20
-17.1767877239
 10
-7.4681629939
 20
-17.1682907858
 10
-7.4840055337
 20
-17.1603432376
 10
-7.4999098413
 20
-17.1529351487
 10
-7.5158673528
 20
-17.1460535844
 10
-7.5318695041
 20
-17.1396856097
 10
-7.5479077314
 20
-17.13381829
 10
-7.5639698811
 20
-17.1284393336
 10
-7.5800294422
 20
-17.1235390213
 10
-7.596056314
 20
-17.1191082772
 10
-7.6120203958
 20
-17.1151380256
 10
-7.6278915871
 20
-17.1116191904
 10
-7.6436457035
 20
-17.1085406949
 10
-7.6592822254
 20
-17.1058834589
 10
-7.6748065494
 20
-17.1036264016
 10
-7.6902240722
 20
-17.1017484418
 10
-7.7055401904
 20
-17.1002284987
 10
-7.724537776
 20
-17.0988028469
 10
-7.743316789
 20
-17.0978800732
 10
-7.7618215231
 20
-17.0974345359
 10
-7.780047688
 20
-17.0974323618
 10
-7.7980056601
 20
-17.0978315495
 10
-7.8157130686
 20
-17.0985658166
 10
-7.8331809217
 20
-17.0995728684
 10
-7.8503864921
 20
-17.1008306421
 10
-7.8672999314
 20
-17.1023403574
 10
-7.8838966414
 20
-17.1041561317
 10
-7.90015477
 20
-17.1063376382
 10
-7.9160581978
 20
-17.1089138739
 10
-7.9315958278
 20
-17.111904575
 10
-7.9467709191
 20
-17.1153231084
 10
-7.9615801009
 20
-17.1191773617
 10
-7.9759791278
 20
-17.1234596743
 10
-7.989928301
 20
-17.1281644732
 10
-8.0034469852
 20
-17.133310083
 10
-8.0165693105
 20
-17.1389208029
 10
-8.0293294072
 20
-17.1450209321
  0
LWPOLYLINE
  5
2B9
100
AcDbEntity
  8
ASSI
100
AcDbPolyline
 62
250
  6
CONTINUOUS
 90
16
 70
0
 10
-11.0087219643
 20
-21.4755923698
 10
-11.0059389623
 20
-21.5277533032
 10
-10.9977157646
 20
-21.5793436708
 10
-10.9841422864
 20
-21.6297989096
 10
-10.9653669917
 20
-21.6785668706
 10
-10.9415952756
 20
-21.7251138478
 10
-10.9130872219
 20
-21.7689304222
 10
-10.8801547429
 20
-21.8095370623
 10
-10.843158184
 20
-21.8464893433
 10
-10.8025023985
 20
-21.8793828084
 10
-10.7586322667
 20
-21.9078574436
 10
-10.7120278628
 20
-21.9316015798
 10
-10.6631992385
 20
-21.9503553003
 10
-10.6126807679
 20
-21.9639133265
 10
-10.5610252917
 20
-21.9721272495
 10
-10.5087981166
 20
-21.974907137
  0
LWPOLYLINE
  5
2BA
100
AcDbEntity
  8
ASSI
100
AcDbPolyline
 62
250
  6
CONTINUOUS
 90
16
 70
0
 10
-11.0087219643
 20
21.4755923698
 10
-11.0059388076
 20
21.5277547588
 10
-10.9977152003
 20
21.5793463095
 10
-10.9841411372
 20
21.6298024308
 10
-10.9653651658
 20
21.6785709568
 10
-10.9415927608
 20
21.7251181902
 10
-10.913084075
 20
21.768934742
 10
-10.8801510927
 20
21.8095411066
 10
-10.8431542155
 20
21.8464929089
 10
-10.8024983179
 20
21.8793857675
 10
-10.7586283172
 20
21.90785972
 10
-10.712024304
 20
21.931603162
 10
-10.6631962884
 20
21.9503562578
 10
-10.612678619
 20
21.9639137831
 10
-10.5610241352
 20
21.9721273713
 10
-10.5087981167
 20
21.9749071372
  0
LINE
  5
2BB
100
AcDbEntity
  8
0
100
AcDbLine
 62
250
  6
CONTINUOUS
 10
5.050966
 20
-13.547323
 11
5.735001
 21
-13.547323
  0
LINE
  5
2BC
100
AcDbEntity
  8
0
100
AcDbLine
 62
250
  6
CONTINUOUS
 10
8.6
 20
-13.01202
 11
6.031097
 21
-13.01202
  0
LINE
  5
2BD
100
AcDbEntity
  8
0
100
AcDbLine
 62
250
  6
CONTINUOUS
 10
6.5335
 20
-12.500022
 11
7.544474
 21
-12.500022
  0
LINE
  5
2BE
100
AcDbEntity
  8
0
100
AcDbLine
 62
250
  6
CONTINUOUS
 10
-2.451321
 20
-16.822195
 11
-2.310984
 21
-16.993546
  0
LINE
  5
2BF
100
AcDbEntity
  8
0
100
AcDbLine
 62
250
  6
CONTINUOUS
 10
-7.004476
 20
-16.390046
 11
-6.243674
 21
-18.377724
  0
LINE
  5
2C0
100
AcDbEntity
  8
0
100
AcDbLine
 62
250
  6
CONTINUOUS
 10
-6.125785
 20
-18.024055
 11
-6.737852
 21
-16.390046
  0
LWPOLYLINE
  5
2C1
100
AcDbEntity
  8
ASSI
100
AcDbPolyline
 62
250
  6
CONTINUOUS
 90
7
 70
0
 10
-11.0046627389
 20
21.4041254633
 10
-11.0052891369
 20
21.4238228917
 10
-11.0059457953
 20
21.4406561357
 10
-11.0066187988
 20
21.4542838409
 10
-11.0073035089
 20
21.4645922227
 10
-11.0080045641
 20
21.4716950656
 10
-11.0087219643
 20
21.4755923698
  0
LINE
  5
2C2
100
AcDbEntity
  8
ASSI
100
AcDbLine
 62
250
  6
CONTINUOUS
 10
-11.0035024636
 20
21.3560260411
 11
-11.0046627389
 21
21.4041254633
  0
LINE
  5
2C3
100
AcDbEntity
  8
ASSI
100
AcDbLine
 62
250
  6
CONTINUOUS
 10
-11.0024980441
 20
21.2979562724
 11
-11.0035024636
 21
21.3560260411
  0
LINE
  5
2C4
100
AcDbEntity
  8
ASSI
100
AcDbLine
 62
250
  6
CONTINUOUS
 10
-11.0013312402
 20
21.1949860367
 11
-11.0024980441
 21
21.2979562724
  0
LINE
  5
2C5
100
AcDbEntity
  8
ASSI
100
AcDbLine
 62
250
  6
CONTINUOUS
 10
-10.5030519894
 20
21.6796926689
 11
-10.5047341778
 21
21.8316431047
  0
LINE
  5
2C6
100
AcDbEntity
  8
ASSI
100
AcDbLine
 62
250
  6
CONTINUOUS
 10
-11.0006377707
 20
21.0790132523
 11
-11.0013312402
 21
21.1949860367
  0
LINE
  5
2C7
100
AcDbEntity
  8
ASSI
100
AcDbLine
 62
250
  6
CONTINUOUS
 10
-10.5011186535
 20
21.3380089963
 11
-10.5030519894
 21
21.6796926689
  0
LINE
  5
2C8
100
AcDbEntity
  8
ASSI
100
AcDbLine
 62
250
  6
CONTINUOUS
 10
-10.9951308334
 20
11.6670144863
 11
-11.0006377707
 21
21.0790132523
  0
LINE
  5
2C9
100
AcDbEntity
  8
ASSI
100
AcDbLine
 62
250
  6
CONTINUOUS
 10
-10.4936846759
 20
7.0079400908
 11
-10.5011186535
 21
21.3380089963
  0
LINE
  5
2CA
100
AcDbEntity
  8
ASSI
100
AcDbLine
 62
7
  6
CONTINUOUS
 10
-11.15
 20
-21.8997711479
 11
-11.15
 21
21.8997711479
  0
LINE
  5
2CB
100
AcDbEntity
  8
ASSI
100
AcDbLine
 62
250
  6
CONTINUOUS
 10
-10.9928473781
 20
-2.3338756638
 11
-10.9951308334
 21
11.6670144863
  0
LINE
  5
2CC
100
AcDbEntity
  8
ASSI
100
AcDbLine
 62
250
  6
CONTINUOUS
 10
-10.4936846755
 20
-7.0079400855
 11
-10.4936846759
 21
7.0079400908
  0
LINE
  5
2CD
100
AcDbEntity
  8
ASSI
100
AcDbLine
 62
250
  6
CONTINUOUS
 10
-10.9974142989
 20
-16.3324771154
 11
-10.9928473781
 21
-2.3338756638
  0
LINE
  5
2CE
100
AcDbEntity
  8
ASSI
100
AcDbLine
 62
250
  6
CONTINUOUS
 10
-11.00081144
 20
-21.1184484404
 11
-10.9974142989
 21
-16.3324771154
  0
LINE
  5
2CF
100
AcDbEntity
  8
ASSI
100
AcDbLine
 62
250
  6
CONTINUOUS
 10
-10.5017441538
 20
-21.4854586496
 11
-10.4936846755
 21
-7.0079400855
  0
LINE
  5
2D0
100
AcDbEntity
  8
ASSI
100
AcDbLine
 62
250
  6
CONTINUOUS
 10
-11.0016694038
 20
-21.2310600855
 11
-11.00081144
 21
-21.1184484404
  0
LINE
  5
2D1
100
AcDbEntity
  8
ASSI
100
AcDbLine
 62
250
  6
CONTINUOUS
 10
-10.5035748986
 20
-21.7355556626
 11
-10.5017441538
 21
-21.4854586496
  0
LINE
  5
2D2
100
AcDbEntity
  8
ASSI
100
AcDbLine
 62
250
  6
CONTINUOUS
 10
-10.5047341778
 20
-21.8316431047
 11
-10.5035748986
 21
-21.7355556626
  0
LINE
  5
2D3
100
AcDbEntity
  8
ASSI
100
AcDbLine
 62
250
  6
CONTINUOUS
 10
-11.0024980441
 20
-21.2979562723
 11
-11.0016694038
 21
-21.2310600855
  0
LINE
  5
2D4
100
AcDbEntity
  8
ASSI
100
AcDbLine
 62
250
  6
CONTINUOUS
 10
-11.0035024636
 20
-21.3560260412
 11
-11.0024980441
 21
-21.2979562723
  0
LWPOLYLINE
  5
2D5
100
AcDbEntity
  8
ASSI
100
AcDbPolyline
 62
250
  6
CONTINUOUS
 90
5
 70
0
 10
-10.5060157159
 20
21.9047687004
 10
-10.5066888073
 20
21.9320760821
 10
-10.5073747238
 20
21.952953371
 10
-10.5080778269
 20
21.9672621499
 10
-10.5087981167
 20
21.9749071372
  0
LINE
  5
2D6
100
AcDbEntity
  8
ASSI
100
AcDbLine
 62
250
  6
CONTINUOUS
 10
-10.5047341778
 20
21.8316431047
 11
-10.5060157159
 21
21.9047687004
  0
LINE
  5
2D7
100
AcDbEntity
  8
0
100
AcDbLine
 62
250
  6
CONTINUOUS
 10
5.3381510737
 20
-17.5562647556
 11
4.436505826
 21
-16.654276677
  0
LWPOLYLINE
  5
2D8
100
AcDbEntity
  8
0
100
AcDbPolyline
 62
250
  6
CONTINUOUS
 90
37
 70
0
 10
4.4351436377
 20
-16.654967986
 10
4.4270211674
 20
-16.6467237972
 10
4.4191256758
 20
-16.6383184452
 10
4.4114439593
 20
-16.6297445182
 10
4.403962814
 20
-16.6209946047
 10
4.3966690364
 20
-16.6120612929
 10
4.3895494228
 20
-16.6029371712
 10
4.3825929266
 20
-16.5936147983
 10
4.37579713
 20
-16.5840866146
 10
4.3691617723
 20
-16.5743450309
 10
4.3626865927
 20
-16.5643824579
 10
4.3563713304
 20
-16.5541913066
 10
4.3502157248
 20
-16.5437639876
 10
4.3442221868
 20
-16.5330979961
 10
4.3384038141
 20
-16.5222111643
 10
4.3327763761
 20
-16.5111264088
 10
4.327355642
 20
-16.499866646
 10
4.3221573813
 20
-16.4884547925
 10
4.3171973633
 20
-16.4769137648
 10
4.3124895976
 20
-16.465267212
 10
4.3080410549
 20
-16.4535417129
 10
4.303856946
 20
-16.4417645789
 10
4.2999424819
 20
-16.4299631214
 10
4.2963028735
 20
-16.4181646518
 10
4.2929433317
 20
-16.4063964813
 10
4.2898673377
 20
-16.3946804492
 10
4.2870714549
 20
-16.3830165055
 10
4.2845505168
 20
-16.3713991283
 10
4.2822993571
 20
-16.3598227953
 10
4.2803128094
 20
-16.3482819845
 10
4.2785857073
 20
-16.3367711739
 10
4.2771144254
 20
-16.3252833306
 10
4.275901502
 20
-16.3138053793
 10
4.2749510163
 20
-16.3023227341
 10
4.2742670475
 20
-16.290820809
 10
4.2738536748
 20
-16.2792850181
 10
4.2737149774
 20
-16.2677007755
  0
LINE
  5
2D9
100
AcDbEntity
  8
0
100
AcDbLine
 62
250
  6
CONTINUOUS
 10
-7.2095833858
 20
-16.6086904457
 11
-7.2095833858
 21
-16.3900458148
  0
LINE
  5
2DA
100
AcDbEntity
  8
0
100
AcDbLine
 62
250
  6
CONTINUOUS
 10
-8.0293294072
 20
-17.1450209321
 11
-8.0209331791
 21
-16.6086904457
  0
LINE
  5
2DB
100
AcDbEntity
  8
0
100
AcDbLine
 62
250
  6
CONTINUOUS
 10
-8.2510583686
 20
-16.3900458129
 11
-8.2707638018
 21
-17.4229532161
  0
LWPOLYLINE
  5
2DC
100
AcDbEntity
  8
ASSI
100
AcDbPolyline
 62
250
  6
CONTINUOUS
 90
6
 70
0
 10
-10.5087981167
 20
-21.9749071372
 10
-10.5080778269
 20
-21.9672621499
 10
-10.5073747238
 20
-21.952953371
 10
-10.5066888073
 20
-21.9320760821
 10
-10.5060157159
 20
-21.9047687004
 10
-10.5047341778
 20
-21.8316431047
  0
LWPOLYLINE
  5
2DD
100
AcDbEntity
  8
ASSI
100
AcDbPolyline
 62
250
  6
CONTINUOUS
 90
8
 70
0
 10
-11.0087219643
 20
-21.4755923698
 10
-11.0080045641
 20
-21.4716950654
 10
-11.0073035089
 20
-21.4645922224
 10
-11.0066187988
 20
-21.4542838406
 10
-11.0059457953
 20
-21.4406561355
 10
-11.0052891369
 20
-21.4238228918
 10
-11.0046627389
 20
-21.4041254635
 10
-11.0035024636
 20
-21.3560260412
  0
LINE
  5
2DE
100
AcDbEntity
  8
ASSI
100
AcDbLine
 62
7
  6
CONTINUOUS
 10
-3.3848722771
 20
22.4
 11
-3.3633443637
 21
22.5
  0
LWPOLYLINE
  5
2DF
100
AcDbEntity
  8
0
100
AcDbPolyline
 62
7
  6
CONTINUOUS
 90
3
 70
0
 43
0.3500000019
 10
1.1428554688
 20
29.9404584961
 10
1.0714306641
 20
29.7261733398
 10
0.9285703125
 20
29.4404580078
  0
LINE
  5
2E0
100
AcDbEntity
  8
ASSI
100
AcDbLine
 62
250
  6
CONTINUOUS
 10
2.8463861929
 20
-7.1005551431
 11
-2.8463860254
 21
-7.1005551431
  0
LINE
  5
2E1
100
AcDbEntity
  8
ASSI
100
AcDbLine
 62
250
  6
CONTINUOUS
 10
2.8463861929
 20
-6.7963405014
 11
-2.8463861929
 21
-6.7963405014
  0
LINE
  5
2E2
100
AcDbEntity
  8
ASSI
100
AcDbLine
 62
7
  6
CONTINUOUS
 10
-2.8000456915
 20
-6.75
 11
2.8000456915
 21
-6.75
  0
LWPOLYLINE
  5
2E3
100
AcDbEntity
  8
ASSI
100
AcDbPolyline
 62
250
  6
CONTINUOUS
 90
19
 70
0
 10
-2.8463861806
 20
-6.7963404891
 10
-2.8731307467
 20
-6.7951555155
 10
-2.8997296615
 20
-6.7915808126
 10
-2.9259678853
 20
-6.7856268713
 10
-2.9517453931
 20
-6.7772808618
 10
-2.9767257479
 20
-6.7666148981
 10
-3.0003813502
 20
-6.7538876723
 10
-3.0224917358
 20
-6.7393214948
 10
-3.0430047912
 20
-6.7230589242
 10
-3.0617342809
 20
-6.7053655782
 10
-3.0784756108
 20
-6.6866185042
 10
-3.0933539414
 20
-6.6668743124
 10
-3.1066213941
 20
-6.6458554481
 10
-3.1181851808
 20
-6.6236323305
 10
-3.1278995439
 20
-6.6003955653
 10
-3.1357600927
 20
-6.5759495719
 10
-3.1416103518
 20
-6.5503171367
 10
-3.1452377927
 20
-6.5237788602
 10
-3.1464829002
 20
-6.4965285917
  0
LWPOLYLINE
  5
2E4
100
AcDbEntity
  8
ASSI
100
AcDbPolyline
 62
250
  6
CONTINUOUS
 90
19
 70
0
 10
-2.8463860254
 20
-7.1005551431
 10
-2.9005727022
 20
-7.0980671874
 10
-2.9536114876
 20
-7.0909047232
 10
-3.0055023819
 20
-7.0790677476
 10
-3.0568298246
 20
-7.0622416272
 10
-3.107009376
 20
-7.0407409837
 10
-3.1542877169
 20
-7.0155096962
 10
-3.1983325878
 20
-6.986432804
 10
-3.2394762482
 20
-6.9536252506
 10
-3.276962158
 20
-6.9183757752
 10
-3.3104850175
 20
-6.8810700626
 10
-3.3403501265
 20
-6.8413224143
 10
-3.3667168437
 20
-6.7992644981
 10
-3.3898357861
 20
-6.7548748443
 10
-3.4094563368
 20
-6.708174907
 10
-3.4249860038
 20
-6.6593607406
 10
-3.43622729
 20
-6.6084976917
 10
-3.4433776924
 20
-6.5555203981
 10
-3.4464372113
 20
-6.5004288515
  0
LWPOLYLINE
  5
2E5
100
AcDbEntity
  8
0
100
AcDbPolyline
 62
250
  6
CONTINUOUS
 90
55
 70
0
 10
0.9466223026
 20
-17.4299574235
 10
0.937475942
 20
-17.4123723863
 10
0.9277794429
 20
-17.39506762
 10
0.917547603
 20
-17.3780861604
 10
0.9067952201
 20
-17.3614710434
 10
0.8955370919
 20
-17.3452653048
 10
0.8837915743
 20
-17.3295098525
 10
0.8715912552
 20
-17.3142370819
 10
0.8589722807
 20
-17.2994772606
 10
0.8459707968
 20
-17.2852606559
 10
0.8326229495
 20
-17.2716175353
 10
0.8189613843
 20
-17.2585700331
 10
0.805004745
 20
-17.2461077511
 10
0.7907681746
 20
-17.2342121581
 10
0.7762668163
 20
-17.2228647228
 10
0.7615158134
 20
-17.2120469138
 10
0.7465329053
 20
-17.2017438827
 10
0.7313462173
 20
-17.1919555129
 10
0.7159864709
 20
-17.1826853705
 10
0.7004843878
 20
-17.1739370217
 10
0.6848706896
 20
-17.1657140325
 10
0.6691728844
 20
-17.1580176574
 10
0.6534056264
 20
-17.1508399039
 10
0.6375803564
 20
-17.1441704677
 10
0.621708515
 20
-17.1379990443
 10
0.6058015432
 20
-17.1323153295
 10
0.5898740486
 20
-17.1271092163
 10
0.5739533078
 20
-17.1223713871
 10
0.558069764
 20
-17.1180927216
 10
0.5422538609
 20
-17.1142640994
 10
0.5265360419
 20
-17.1108764002
 10
0.5070610065
 20
-17.1072440848
 10
0.4877738287
 20
-17.1042455765
 10
0.4686615415
 20
-17.1018399903
 10
0.4497111783
 20
-17.0999864417
 10
0.4309227221
 20
-17.098647201
 10
0.4123479548
 20
-17.0977971591
 10
0.3940390533
 20
-17.0974119859
 10
0.3759979743
 20
-17.0974578459
 10
0.358213062
 20
-17.0978926862
 10
0.3406684299
 20
-17.0986510912
 10
0.3233552595
 20
-17.0996727313
 10
0.3062972366
 20
-17.1009409851
 10
0.2895249319
 20
-17.1024619702
 10
0.2730639525
 20
-17.1042890521
 10
0.2569371194
 20
-17.1064798201
 10
0.2411610749
 20
-17.1090615101
 10
0.225747092
 20
-17.1120524655
 10
0.2106911474
 20
-17.1154658121
 10
0.1959956649
 20
-17.1193095016
 10
0.1817041545
 20
-17.1235760072
 10
0.1678558117
 20
-17.1282598492
 10
0.1544314861
 20
-17.1333792147
 10
0.1413974412
 20
-17.1389582077
 10
0.1287199404
 20
-17.1450209321
  0
LWPOLYLINE
  5
2E6
100
AcDbEntity
  8
0
100
AcDbPolyline
 62
250
  6
CONTINUOUS
 90
88
 70
0
 10
-0.2503097836
 20
-18.0490719373
 10
-0.2401147344
 20
-18.0691314997
 10
-0.2295771424
 20
-18.0884857426
 10
-0.2186958643
 20
-18.1071813431
 10
-0.2074697571
 20
-18.1252649786
 10
-0.1958976775
 20
-18.1427833263
 10
-0.1809561317
 20
-18.1639347556
 10
-0.1655408992
 20
-18.1842309459
 10
-0.1497206611
 20
-18.2036269872
 10
-0.133564099
 20
-18.2220779696
 10
-0.1171219428
 20
-18.2395517605
 10
-0.1003731169
 20
-18.2560673379
 10
-0.0832785947
 20
-18.2716564573
 10
-0.0657993492
 20
-18.2863508742
 10
-0.0479038179
 20
-18.3001777133
 10
-0.0295902957
 20
-18.3131455762
 10
-0.0108645415
 20
-18.3252584338
 10
0.0082676856
 20
-18.336520257
 10
0.0277985993
 20
-18.3469355973
 10
0.0477123037
 20
-18.3565113277
 10
0.0679908758
 20
-18.3652549021
 10
0.0886163925
 20
-18.373173774
 10
0.1095879384
 20
-18.3802782364
 10
0.1309726279
 20
-18.386589938
 10
0.1528545835
 20
-18.3921333665
 10
0.1753179274
 20
-18.39693301
 10
0.198411528
 20
-18.4010123523
 10
0.2220432389
 20
-18.4043908622
 10
0.2460856601
 20
-18.4070870043
 10
0.2704113914
 20
-18.4091192436
 10
0.3031165749
 20
-18.4108160511
 10
0.3360991554
 20
-18.4113370528
 10
0.3693593568
 20
-18.4106538882
 10
0.3944735636
 20
-18.4093269788
 10
0.4196645462
 20
-18.4072513605
 10
0.4448527928
 20
-18.4043716207
 10
0.4699587916
 20
-18.4006323467
 10
0.4949014716
 20
-18.395995274
 10
0.5195935254
 20
-18.3904907306
 10
0.5439460864
 20
-18.3841661927
 10
0.567870288
 20
-18.3770691365
 10
0.5912966816
 20
-18.3692396199
 10
0.6142334911
 20
-18.3606880274
 10
0.6367083586
 20
-18.3514173254
 10
0.6587489259
 20
-18.3414304804
 10
0.6803690563
 20
-18.330733037
 10
0.7015274987
 20
-18.3193408539
 10
0.7221692229
 20
-18.3072723683
 10
0.7422391991
 20
-18.2945460173
 10
0.7616906588
 20
-18.2811757373
 10
0.7805098798
 20
-18.2671574622
 10
0.7986914014
 20
-18.2524826255
 10
0.8162297628
 20
-18.2371426603
 10
0.8331208128
 20
-18.2211299485
 10
0.8493656376
 20
-18.2044406658
 10
0.8649666331
 20
-18.1870719363
 10
0.8799261947
 20
-18.1690208842
 10
0.8962327798
 20
-18.1475646437
 10
0.9116620732
 20
-18.1252854739
 10
0.9261714449
 20
-18.1022553988
 10
0.939718265
 20
-18.078546442
 10
0.9522599038
 20
-18.0542306274
 10
0.9637537312
 20
-18.0293799789
 10
0.9741571175
 20
-18.0040665201
 10
0.9823382103
 20
-17.9815879764
 10
0.9896601078
 20
-17.9588210556
 10
0.9961311223
 20
-17.9357765764
 10
1.001759566
 20
-17.9124653575
 10
1.0065551812
 20
-17.8888955617
 10
1.0105334311
 20
-17.8650647286
 10
1.0137112088
 20
-17.8409677418
 10
1.0161054076
 20
-17.8165994848
 10
1.0177306797
 20
-17.7919678105
 10
1.018592714
 20
-17.7671324491
 10
1.0186949584
 20
-17.7421660997
 10
1.0180408609
 20
-17.7171414617
 10
1.0166294906
 20
-17.692127349
 10
1.0144424025
 20
-17.6671770335
 10
1.0114567729
 20
-17.6423399017
 10
1.0076497779
 20
-17.6176653402
 10
1.0030021155
 20
-17.5931989332
 10
0.99750857
 20
-17.5689710567
 10
0.9911674477
 20
-17.5450082845
 10
0.9839770546
 20
-17.5213371903
 10
0.9759346563
 20
-17.4979821034
 10
0.9670333562
 20
-17.4749583754
 10
0.9572652174
 20
-17.4522791131
 10
0.9466223026
 20
-17.4299574235
  0
LINE
  5
2E7
100
AcDbEntity
  8
ASSI
100
AcDbLine
 62
7
  6
CONTINUOUS
 10
-3.3848722771
 20
-22.4
 11
-3.3633443637
 21
-22.5
  0
LWPOLYLINE
  5
2E8
100
AcDbEntity
  8
ASSI
100
AcDbPolyline
 62
250
  6
CONTINUOUS
 90
6
 70
0
 10
-3.210302715
 20
-6.4988807157
 10
-3.1883923231
 20
-6.4984593349
 10
-3.1707997243
 20
-6.4980056475
 10
-3.1578192908
 20
-6.497527245
 10
-3.1496682204
 20
-6.4970321324
 10
-3.1464829028
 20
-6.4965285942
  0
LINE
  5
2E9
100
AcDbEntity
  8
ASSI
100
AcDbLine
 62
250
  6
CONTINUOUS
 10
-3.2655442825
 20
-6.4995990128
 11
-3.210302715
 21
-6.4988807157
  0
LINE
  5
2EA
100
AcDbEntity
  8
ASSI
100
AcDbLine
 62
250
  6
CONTINUOUS
 10
-3.369634685
 20
-6.5002814463
 11
-3.2655442825
 21
-6.4995990128
  0
LINE
  5
2EB
100
AcDbEntity
  8
ASSI
100
AcDbLine
 62
250
  6
CONTINUOUS
 10
-3.4464372113
 20
-6.5004288515
 11
-3.369634685
 21
-6.5002814463
  0
LINE
  5
2EC
100
AcDbEntity
  8
ASSI
100
AcDbLine
 62
250
  6
CONTINUOUS
 10
3.4464371899
 20
-6.5004288581
 11
3.3328397649
 21
-6.5001126574
  0
LINE
  5
2ED
100
AcDbEntity
  8
ASSI
100
AcDbLine
 62
250
  6
CONTINUOUS
 10
3.3328397649
 20
-6.5001126574
 11
3.2655413498
 21
-6.499598993
  0
LWPOLYLINE
  5
2EE
100
AcDbEntity
  8
ASSI
100
AcDbPolyline
 62
250
  6
CONTINUOUS
 90
7
 70
0
 10
3.2655413498
 20
-6.499598993
 10
3.2103005799
 20
-6.4988806888
 10
3.1883907795
 20
-6.4984593091
 10
3.1707987489
 20
-6.4980056254
 10
3.1578187924
 20
-6.4975272288
 10
3.1496680649
 20
-6.4970321243
 10
3.1464828997
 20
-6.4965285963
  0
LINE
  5
2EF
100
AcDbEntity
  8
ASSI
100
AcDbLine
 62
7
  6
CONTINUOUS
 10
-3.4698202597
 20
22.4
 11
-3.4698202597
 21
22.5
  0
LINE
  5
2F0
100
AcDbEntity
  8
ASSI
100
AcDbLine
 62
7
  6
CONTINUOUS
 10
-3.4698202597
 20
-22.4
 11
-3.4698202597
 21
-22.5
  0
LWPOLYLINE
  5
2F1
100
AcDbEntity
  8
ASSI
100
AcDbPolyline
 62
250
  6
CONTINUOUS
 90
3
 70
0
 10
-3.4464372113
 20
-6.5004288515
 10
-3.4470754042
 20
2.3818754469
 10
-3.4464372113
 20
6.500428571
  0
LWPOLYLINE
  5
2F2
100
AcDbEntity
  8
ASSI
100
AcDbPolyline
 62
250
  6
CONTINUOUS
 90
16
 70
0
 10
-3.1464828985
 20
6.49652859
 10
-3.1448730476
 20
6.5275128217
 10
-3.1400526937
 20
6.558245594
 10
-3.1320480175
 20
6.5883924
 10
-3.1209109269
 20
6.6176417996
 10
-3.1067430446
 20
6.6456433734
 10
-3.0897169732
 20
6.6720224378
 10
-3.0700596758
 20
6.696437987
 10
-3.0479492387
 20
6.7186782743
 10
-3.0235197788
 20
6.7385739026
 10
-2.9968784853
 20
6.7559476727
 10
-2.9684141108
 20
6.7704624993
 10
-2.9387463261
 20
6.7818111097
 10
-2.9083377851
 20
6.7898994391
 10
-2.8774361864
 20
6.794740714
 10
-2.8463861743
 20
6.7963404829
  0
LWPOLYLINE
  5
2F3
100
AcDbEntity
  8
ASSI
100
AcDbPolyline
 62
250
  6
CONTINUOUS
 90
16
 70
0
 10
-3.4464372113
 20
6.500428571
 10
-3.4430093494
 20
6.5635350778
 10
-3.4333844714
 20
6.6248128465
 10
-3.4175625775
 20
6.6842618849
 10
-3.3952452061
 20
6.7425378231
 10
-3.3667308188
 20
6.7989850445
 10
-3.3329147996
 20
6.8516366965
 10
-3.2937038776
 20
6.9002994898
 10
-3.2491913237
 20
6.9451667447
 10
-3.200552335
 20
6.9848515354
 10
-3.1473648526
 20
7.0192915786
 10
-3.0900509353
 20
7.0485491894
 10
-3.0310519562
 20
7.0714243442
 10
-2.9711817063
 20
7.0875170433
 10
-2.9096263946
 20
7.0972273079
 10
-2.8463860211
 20
7.1005551431
  0
LINE
  5
2F4
100
AcDbEntity
  8
ASSI
100
AcDbLine
 62
250
  6
CONTINUOUS
 10
-11.15
 20
-21.8997711479
 11
-11.0087219643
 21
-21.4755923698
  0
LINE
  5
2F5
100
AcDbEntity
  8
RACCORDO
100
AcDbLine
 62
250
  6
CONTINUOUS
 10
2.95
 20
-4.0562159182
 11
3.1
 21
-4.0543033097
  0
LINE
  5
2F6
100
AcDbEntity
  8
RACCORDO
100
AcDbLine
 62
250
  6
CONTINUOUS
 10
2.95
 20
-3.7680009237
 11
3.1
 21
-3.7660883152
  0
LINE
  5
2F7
100
AcDbEntity
  8
RACCORDO
100
AcDbLine
 62
250
  6
CONTINUOUS
 10
2.95
 20
-3.4797859291
 11
3.1
 21
-3.4778733206
  0
LINE
  5
2F8
100
AcDbEntity
  8
0
100
AcDbLine
 62
250
  6
CONTINUOUS
 10
3.138339
 20
-18.377724
 11
2.293233
 21
-16.390046
  0
LINE
  5
2F9
100
AcDbEntity
  8
0
100
AcDbLine
 62
250
  6
CONTINUOUS
 10
2.661125
 20
-17.88903
 11
2.863149
 21
-18.377724
  0
LINE
  5
2FA
100
AcDbEntity
  8
0
100
AcDbLine
 62
250
  6
CONTINUOUS
 10
2.178256
 20
-16.692995
 11
2.571166
 21
-17.670042
  0
LINE
  5
2FB
100
AcDbEntity
  8
ASSI
100
AcDbLine
 62
250
  6
CONTINUOUS
 10
-11.0087219643
 20
21.4755923698
 11
-11.15
 21
21.8997711479
  0
LINE
  5
2FC
100
AcDbEntity
  8
ASSI
100
AcDbLine
 62
7
  6
CONTINUOUS
 10
-3.1
 20
6.4500456915
 11
-3.1
 21
-6.4500456914
  0
LINE
  5
2FD
100
AcDbEntity
  8
ASSI
100
AcDbLine
 62
250
  6
CONTINUOUS
 10
-2.8463861929
 20
7.1005551431
 11
-2.8463861929
 21
6.7963405014
  0
LINE
  5
2FE
100
AcDbEntity
  8
ASSI
100
AcDbLine
 62
250
  6
CONTINUOUS
 10
-2.8463861929
 20
-7.1005551431
 11
-2.8463861929
 21
-6.7963405014
  0
LINE
  5
2FF
100
AcDbEntity
  8
0
100
AcDbLine
 62
250
  6
CONTINUOUS
 10
-1.948747
 20
-16.692995
 11
-1.948747
 21
-18.3777240236
  0
LINE
  5
300
100
AcDbEntity
  8
0
100
AcDbLine
 62
250
  6
CONTINUOUS
 10
-1.712967
 20
-18.377724
 11
-1.712967
 21
-16.3900460234
  0
LWPOLYLINE
  5
301
100
AcDbEntity
  8
ASSI
100
AcDbPolyline
 62
250
  6
CONTINUOUS
 90
3
 70
0
 10
-3.1464829028
 20
-6.4965285942
 10
-3.1471210957
 20
2.3804463216
 10
-3.1464829028
 20
6.4965285942
  0
LINE
  5
302
100
AcDbEntity
  8
ASSI
100
AcDbLine
 62
250
  6
CONTINUOUS
 10
-10.6503805997
 20
-22.4
 11
-10.5087981167
 21
-21.9749071372
  0
LINE
  5
303
100
AcDbEntity
  8
ASSI
100
AcDbLine
 62
250
  6
CONTINUOUS
 10
2.8463861929
 20
6.7963405014
 11
2.8000456915
 21
6.75
  0
LINE
  5
304
100
AcDbEntity
  8
ASSI
100
AcDbLine
 62
250
  6
CONTINUOUS
 10
3.1464829028
 20
6.4965285942
 11
3.1
 21
6.4500456915
  0
LINE
  5
305
100
AcDbEntity
  8
ASSI
100
AcDbLine
 62
250
  6
CONTINUOUS
 10
2.8463861929
 20
-6.7963405014
 11
2.8000456915
 21
-6.75
  0
LINE
  5
306
100
AcDbEntity
  8
ASSI
100
AcDbLine
 62
250
  6
CONTINUOUS
 10
3.1464829028
 20
-6.4965285942
 11
3.1
 21
-6.4500456914
  0
LINE
  5
307
100
AcDbEntity
  8
ASSI
100
AcDbLine
 62
250
  6
CONTINUOUS
 10
-10.5087981167
 20
21.9749071372
 11
-10.6503805997
 21
22.4
  0
LINE
  5
308
100
AcDbEntity
  8
0
100
AcDbLine
 62
250
  6
CONTINUOUS
 10
-0.0930090212
 20
-16.3900458129
 11
-0.1127144544
 21
-17.4229532161
  0
LINE
  5
309
100
AcDbEntity
  8
ASSI
100
AcDbLine
 62
7
  6
CONTINUOUS
 10
3.4151277229
 20
22.4
 11
3.4366556363
 21
22.5
  0
LWPOLYLINE
  5
30A
100
AcDbEntity
  8
0
100
AcDbPolyline
 62
7
  6
CONTINUOUS
 90
2
 70
0
 43
0.3500000019
 10
20.7395380859
 20
-1.3571428757
 10
19.2395419922
 20
-1.3571428757
  0
LWPOLYLINE
  5
30B
100
AcDbEntity
  8
0
100
AcDbPolyline
 62
7
  6
CONTINUOUS
 90
4
 70
0
 43
0.3500000019
 10
18.3823959961
 20
0.0
 10
17.7395405273
 20
0.0
 10
17.7395405273
 20
1.4999999542
 10
20.7395380859
 20
0.6428571472
  0
LINE
  5
30C
100
AcDbEntity
  8
0
100
AcDbLine
 62
250
  6
CONTINUOUS
 10
5.735001
 20
-13.547323
 11
5.39504
 21
-12.857804
  0
LINE
  5
30D
100
AcDbEntity
  8
ASSI
100
AcDbLine
 62
7
  6
CONTINUOUS
 10
3.4151277229
 20
-22.4
 11
3.4366556363
 21
-22.5
  0
LINE
  5
30E
100
AcDbEntity
  8
0
100
AcDbLine
 62
250
  6
CONTINUOUS
 10
0.9484659617
 20
-16.6086904457
 11
0.9484659617
 21
-16.3900458148
  0
LINE
  5
30F
100
AcDbEntity
  8
DRAFT
100
AcDbLine
 62
7
  6
CONTINUOUS
 10
1.25
 20
-6.75
 11
1.25
 21
6.75
  0
LINE
  5
310
100
AcDbEntity
  8
0
100
AcDbLine
 62
250
  6
CONTINUOUS
 10
0.1287199404
 20
-17.1450209321
 11
0.1371161684
 21
-16.6086904457
  0
LINE
  5
311
100
AcDbEntity
  8
ASSI
100
AcDbLine
 62
7
  6
CONTINUOUS
 10
-3.4151277229
 20
-22.4
 11
-3.4366556363
 21
-22.5
  0
LINE
  5
312
100
AcDbEntity
  8
0
100
AcDbLine
 62
250
  6
CONTINUOUS
 10
-5.488528
 20
-16.390046
 11
-6.12013
 21
-18.024055
  0
LINE
  5
313
100
AcDbEntity
  8
0
100
AcDbLine
 62
250
  6
CONTINUOUS
 10
-6.016291
 20
-18.377724
 11
-5.238697
 21
-16.390046
  0
LINE
  5
314
100
AcDbEntity
  8
ASSI
100
AcDbLine
 62
7
  6
CONTINUOUS
 10
-3.4151277229
 20
22.4
 11
-3.4366556363
 21
22.5
  0
LINE
  5
315
100
AcDbEntity
  8
ASSI
100
AcDbLine
 62
250
  6
CONTINUOUS
 10
2.8463861929
 20
7.1005551431
 11
2.8463861929
 21
6.7963405014
  0
LINE
  5
316
100
AcDbEntity
  8
ASSI
100
AcDbLine
 62
250
  6
CONTINUOUS
 10
2.8463861929
 20
-7.1005551431
 11
2.8463861929
 21
-6.7963405014
  0
LINE
  5
317
100
AcDbEntity
  8
RACCORDO
100
AcDbLine
 62
7
  6
CONTINUOUS
 10
2.95
 20
-6.7097649035
 11
2.95
 21
-3.4797859291
  0
LINE
  5
318
100
AcDbEntity
  8
ASSI
100
AcDbLine
 62
7
  6
CONTINUOUS
 10
3.1
 20
-6.4500456914
 11
3.1
 21
6.4500456915
  0
LINE
  5
319
100
AcDbEntity
  8
ASSI
100
AcDbLine
 62
7
  6
CONTINUOUS
 10
3.4698202597
 20
22.5
 11
3.4698202597
 21
22.4
  0
LINE
  5
31A
100
AcDbEntity
  8
ASSI
100
AcDbLine
 62
7
  6
CONTINUOUS
 10
3.4698202597
 20
-22.5
 11
3.4698202597
 21
-22.4
  0
LINE
  5
31B
100
AcDbEntity
  8
ASSI
100
AcDbLine
 62
250
  6
CONTINUOUS
 10
3.1464829028
 20
6.4965285942
 11
3.1464829028
 21
-6.4965285942
  0
LINE
  5
31C
100
AcDbEntity
  8
ASSI
100
AcDbLine
 62
250
  6
CONTINUOUS
 10
3.4464372113
 20
6.5004288515
 11
3.4464372113
 21
-6.5004286932
  0
LWPOLYLINE
  5
31D
100
AcDbEntity
  8
ASSI
100
AcDbPolyline
 62
250
  6
CONTINUOUS
 90
19
 70
0
 10
3.1464828997
 20
-6.4965285911
 10
3.1452832636
 20
-6.5232787429
 10
3.1416899178
 20
-6.5498802034
 10
3.1357138541
 20
-6.5761175878
 10
3.1273423851
 20
-6.601890735
 10
3.1166485034
 20
-6.6268628756
 10
3.1038928643
 20
-6.6505060651
 10
3.0892987116
 20
-6.672600072
 10
3.0730092867
 20
-6.6930931199
 10
3.0552922166
 20
-6.7117993128
 10
3.0365262525
 20
-6.7285144131
 10
3.0167677138
 20
-6.7433649278
 10
2.9957378295
 20
-6.7566047497
 10
2.9735074124
 20
-6.7681414347
 10
2.9502668461
 20
-6.7778301218
 10
2.9258178007
 20
-6.7856680424
 10
2.9001818268
 20
-6.7914988952
 10
2.8736400965
 20
-6.7951096088
 10
2.8463861822
 20
-6.7963404907
  0
LINE
  5
31E
100
AcDbEntity
  8
ASSI
100
AcDbLine
 62
250
  6
CONTINUOUS
 10
10.5087981167
 20
21.9749071372
 11
10.6503805997
 21
22.4
  0
LINE
  5
31F
100
AcDbEntity
  8
ASSI
100
AcDbLine
 62
250
  6
CONTINUOUS
 10
11.0087219643
 20
21.4755923698
 11
11.15
 21
21.8997711479
  0
LINE
  5
320
100
AcDbEntity
  8
ASSI
100
AcDbLine
 62
250
  6
CONTINUOUS
 10
-3.1464829028
 20
-6.4965285942
 11
-3.1
 21
-6.4500456914
  0
LINE
  5
321
100
AcDbEntity
  8
ASSI
100
AcDbLine
 62
250
  6
CONTINUOUS
 10
-2.8463861929
 20
-6.7963405014
 11
-2.8000456915
 21
-6.75
  0
LINE
  5
322
100
AcDbEntity
  8
ASSI
100
AcDbLine
 62
250
  6
CONTINUOUS
 10
-3.1
 20
6.4500456915
 11
-3.1464829028
 21
6.4965285942
  0
LINE
  5
323
100
AcDbEntity
  8
ASSI
100
AcDbLine
 62
250
  6
CONTINUOUS
 10
-2.8000456915
 20
6.75
 11
-2.8463861929
 21
6.7963405014
  0
LINE
  5
324
100
AcDbEntity
  8
ASSI
100
AcDbLine
 62
250
  6
CONTINUOUS
 10
10.6503805997
 20
-22.4
 11
10.5087981167
 21
-21.9749071372
  0
LINE
  5
325
100
AcDbEntity
  8
ASSI
100
AcDbLine
 62
250
  6
CONTINUOUS
 10
11.15
 20
-21.8997711479
 11
11.0087219643
 21
-21.4755923698
  0
LINE
  5
326
100
AcDbEntity
  8
0
100
AcDbLine
 62
250
  6
CONTINUOUS
 10
4.2737149774
 20
-16.2677007755
 11
4.2737149774
 21
-15.7282859376
  0
LINE
  5
327
100
AcDbEntity
  8
0
100
AcDbLine
 62
250
  6
CONTINUOUS
 10
5.392984
 20
-18.179299
 11
5.392984
 21
-13.6062681774
  0
LWPOLYLINE
  5
328
100
AcDbEntity
  8
ASSI
100
AcDbPolyline
 62
250
  6
CONTINUOUS
 90
19
 70
0
 10
3.4464372113
 20
-6.5004286932
 10
3.4439326712
 20
-6.5546729303
 10
3.4367515221
 20
-6.6077623782
 10
3.4248937641
 20
-6.6596970413
 10
3.4080430003
 20
-6.711062138
 10
3.3865156276
 20
-6.7612724566
 10
3.3612608363
 20
-6.8085723637
 10
3.3321635975
 20
-6.8526282469
 10
3.2993389401
 20
-6.8937737403
 10
3.2640811407
 20
-6.9312540884
 10
3.2267780944
 20
-6.9647624982
 10
3.1870419062
 20
-6.9946057846
 10
3.1450031677
 20
-7.0209496044
 10
3.1006421566
 20
-7.0440454864
 10
3.0539785952
 20
-7.0636419159
 10
3.0052022422
 20
-7.0791499831
 10
2.9543763506
 20
-7.0903733884
 10
2.9014376675
 20
-7.0975084409
 10
2.8463861929
 20
-7.1005551431
  0
LINE
  5
329
100
AcDbEntity
  8
0
100
AcDbLine
 62
250
  6
CONTINUOUS
 10
6.083873
 20
-17.799584
 11
6.083873
 21
-16.9047860171
  0
LINE
  5
32A
100
AcDbEntity
  8
0
100
AcDbLine
 62
250
  6
CONTINUOUS
 10
6.192853
 20
-14.224847
 11
6.192853
 21
-14.8626179874
  0
LINE
  5
32B
100
AcDbEntity
  8
0
100
AcDbLine
 62
250
  6
CONTINUOUS
 10
6.5115667833
 20
-14.9277313174
 11
6.5115667833
 21
-15.3043621177
  0
LINE
  5
32C
100
AcDbEntity
  8
0
100
AcDbLine
 62
250
  6
CONTINUOUS
 10
6.5335
 20
-12.937311
 11
6.5335
 21
-12.5000219866
  0
LINE
  5
32D
100
AcDbEntity
  8
0
100
AcDbLine
 62
250
  6
CONTINUOUS
 10
6.830966
 20
-14.862618
 11
6.830966
 21
-14.2248470126
  0
LWPOLYLINE
  5
32E
100
AcDbEntity
  8
0
100
AcDbPolyline
 62
250
  6
CONTINUOUS
 90
37
 70
0
 10
6.512937596
 20
-15.304362119
 10
6.5128079341
 20
-15.3155963302
 10
6.5124213929
 20
-15.3267859312
 10
6.5117816393
 20
-15.3379442022
 10
6.5108923403
 20
-15.3490844236
 10
6.5097571628
 20
-15.3602198756
 10
6.5083797736
 20
-15.3713638385
 10
6.50676245
 20
-15.3825282644
 10
6.5049019103
 20
-15.3937197921
 10
6.5027934829
 20
-15.4049437323
 10
6.5004324965
 20
-15.4162053956
 10
6.4978142797
 20
-15.4275100925
 10
6.494934161
 20
-15.4388631339
 10
6.4917890273
 20
-15.4502647147
 10
6.4883819996
 20
-15.4616945688
 10
6.4847177572
 20
-15.4731273143
 10
6.4808009793
 20
-15.4845375695
 10
6.4766363453
 20
-15.4958999525
 10
6.4722285344
 20
-15.5071890818
 10
6.4675838443
 20
-15.518380222
 10
6.4627150467
 20
-15.5294512241
 10
6.4576365315
 20
-15.5403805857
 10
6.4523626886
 20
-15.5511468043
 10
6.4469079081
 20
-15.5617283775
 10
6.4412865799
 20
-15.5721038027
 10
6.4355106598
 20
-15.5822563782
 10
6.4295823676
 20
-15.592188604
 10
6.4235014887
 20
-15.6019077809
 10
6.4172678085
 20
-15.6114212095
 10
6.4108811127
 20
-15.6207361907
 10
6.4043411867
 20
-15.6298600252
 10
6.3976459224
 20
-15.6387999911
 10
6.390785638
 20
-15.6475632764
 10
6.3837487579
 20
-15.6561570465
 10
6.3765237065
 20
-15.664588467
 10
6.3690989083
 20
-15.6728647032
 10
6.3614627878
 20
-15.6809929207
  0
LWPOLYLINE
  5
32F
100
AcDbEntity
  8
ASSI
100
AcDbPolyline
 62
250
  6
CONTINUOUS
 90
6
 70
0
 10
3.210302715
 20
6.4988807157
 10
3.1883923231
 20
6.4984593349
 10
3.1707997243
 20
6.4980056475
 10
3.1578192908
 20
6.497527245
 10
3.1496682204
 20
6.4970321324
 10
3.1464829028
 20
6.4965285942
  0
LINE
  5
330
100
AcDbEntity
  8
ASSI
100
AcDbLine
 62
250
  6
CONTINUOUS
 10
3.2655442825
 20
6.4995990128
 11
3.210302715
 21
6.4988807157
  0
LINE
  5
331
100
AcDbEntity
  8
ASSI
100
AcDbLine
 62
250
  6
CONTINUOUS
 10
3.369634685
 20
6.5002814463
 11
3.2655442825
 21
6.4995990128
  0
LINE
  5
332
100
AcDbEntity
  8
ASSI
100
AcDbLine
 62
250
  6
CONTINUOUS
 10
3.4464372113
 20
6.5004288515
 11
3.369634685
 21
6.5002814463
  0
LINE
  5
333
100
AcDbEntity
  8
ASSI
100
AcDbLine
 62
7
  6
CONTINUOUS
 10
2.8000456915
 20
6.75
 11
-2.8000456915
 21
6.75
  0
LINE
  5
334
100
AcDbEntity
  8
ASSI
100
AcDbLine
 62
250
  6
CONTINUOUS
 10
-2.8463861929
 20
6.7963405014
 11
2.8463861929
 21
6.7963405014
  0
LINE
  5
335
100
AcDbEntity
  8
ASSI
100
AcDbLine
 62
250
  6
CONTINUOUS
 10
-2.8463860211
 20
7.1005551431
 11
2.8463860254
 21
7.1005551431
  0
LINE
  5
336
100
AcDbEntity
  8
ASSI
100
AcDbLine
 62
250
  6
CONTINUOUS
 10
-3.4464371673
 20
6.5004288516
 11
-3.3328428621
 21
6.5001126616
  0
LINE
  5
337
100
AcDbEntity
  8
ASSI
100
AcDbLine
 62
250
  6
CONTINUOUS
 10
-3.3328428621
 20
6.5001126616
 11
-3.2655446322
 21
6.4995990108
  0
LWPOLYLINE
  5
338
100
AcDbEntity
  8
ASSI
100
AcDbPolyline
 62
250
  6
CONTINUOUS
 90
7
 70
0
 10
-3.2655446322
 20
6.4995990108
 10
-3.2103029687
 20
6.4988807145
 10
-3.1883925093
 20
6.4984593341
 10
-3.1707998341
 20
6.4980056467
 10
-3.1578193304
 20
6.4975272438
 10
-3.1496682163
 20
6.4970321303
 10
-3.1464828985
 20
6.496528591
  0
LWPOLYLINE
  5
339
100
AcDbEntity
  8
ASSI
100
AcDbPolyline
 62
250
  6
CONTINUOUS
 90
19
 70
0
 10
2.8463861806
 20
6.7963404891
 10
2.8731307467
 20
6.7951555155
 10
2.8997296615
 20
6.7915808126
 10
2.9259678853
 20
6.7856268713
 10
2.9517453931
 20
6.7772808618
 10
2.9767257479
 20
6.7666148981
 10
3.0003813502
 20
6.7538876724
 10
3.0224917358
 20
6.7393214948
 10
3.0430047912
 20
6.7230589242
 10
3.0617342809
 20
6.7053655782
 10
3.0784756108
 20
6.6866185042
 10
3.0933539414
 20
6.6668743124
 10
3.1066213941
 20
6.6458554481
 10
3.1181851808
 20
6.6236323305
 10
3.1278995439
 20
6.6003955653
 10
3.1357600927
 20
6.5759495719
 10
3.1416103518
 20
6.5503171367
 10
3.1452377927
 20
6.5237788602
 10
3.1464829002
 20
6.4965285917
  0
LWPOLYLINE
  5
33A
100
AcDbEntity
  8
ASSI
100
AcDbPolyline
 62
250
  6
CONTINUOUS
 90
7
 70
0
 10
11.0087219643
 20
-21.4755923698
 10
11.0080031927
 20
-21.4716789126
 10
11.0073010341
 20
-21.4645568007
 10
11.0066154888
 20
-21.4542260342
 10
11.0059419622
 20
-21.4405716186
 10
11.0052850488
 20
-21.4237085484
 10
11.0046585314
 20
-21.403981807
  0
LWPOLYLINE
  5
33B
100
AcDbEntity
  8
ASSI
100
AcDbPolyline
 62
250
  6
CONTINUOUS
 90
5
 70
0
 10
10.5087981167
 20
-21.9749071372
 10
10.5080778549
 20
-21.9672631277
 10
10.5073747357
 20
-21.9529558612
 10
10.5066887591
 20
-21.9320798744
 10
10.5060155151
 20
-21.9047715709
  0
LINE
  5
33C
100
AcDbEntity
  8
0
100
AcDbLine
 62
250
  6
CONTINUOUS
 10
7.544474
 20
-12.500022
 11
7.544474
 21
-12.9373110134
  0
LINE
  5
33D
100
AcDbEntity
  8
0
100
AcDbLine
 62
250
  6
CONTINUOUS
 10
8.003011
 20
-16.904786
 11
8.003011
 21
-17.7995839829
  0
LINE
  5
33E
100
AcDbEntity
  8
0
100
AcDbLine
 62
250
  6
CONTINUOUS
 10
8.6
 20
-18.4
 11
8.6
 21
-13.0120199294
  0
LINE
  5
33F
100
AcDbEntity
  8
ASSI
100
AcDbLine
 62
7
  6
CONTINUOUS
 10
3.3848722771
 20
-22.4
 11
3.3633443637
 21
-22.5
  0
LINE
  5
340
100
AcDbEntity
  8
0
100
AcDbLine
 62
250
  6
CONTINUOUS
 10
1.462349
 20
-18.377724
 11
1.667286
 21
-17.88903
  0
LINE
  5
341
100
AcDbEntity
  8
0
100
AcDbLine
 62
250
  6
CONTINUOUS
 10
1.759816
 20
-17.670042
 11
2.172602
 21
-16.692995
  0
LINE
  5
342
100
AcDbEntity
  8
0
100
AcDbLine
 62
250
  6
CONTINUOUS
 10
2.071504
 20
-16.390046
 11
1.195555
 21
-18.377724
  0
LINE
  5
343
100
AcDbEntity
  8
0
100
AcDbLine
 62
250
  6
CONTINUOUS
 10
-0.962967
 20
-18.1649580381
 11
-1.212967
 21
-18.6330431483
  0
LINE
  5
344
100
AcDbEntity
  8
0
100
AcDbLine
 62
250
  6
CONTINUOUS
 10
-1.0046336716
 20
-18.6330431483
 11
-0.7546336567
 21
-18.1649580381
  0
LWPOLYLINE
  5
345
100
AcDbEntity
  8
ASSI
100
AcDbPolyline
 62
250
  6
CONTINUOUS
 90
19
 70
0
 10
2.8463860254
 20
7.1005551431
 10
2.9005727022
 20
7.0980671874
 10
2.9536114877
 20
7.0909047232
 10
3.0055023819
 20
7.0790677476
 10
3.0568298246
 20
7.0622416272
 10
3.107009376
 20
7.0407409837
 10
3.1542877169
 20
7.0155096962
 10
3.1983325878
 20
6.986432804
 10
3.2394762482
 20
6.9536252507
 10
3.276962158
 20
6.9183757753
 10
3.3104850175
 20
6.8810700626
 10
3.3403501265
 20
6.8413224143
 10
3.3667168437
 20
6.7992644982
 10
3.3898357861
 20
6.7548748443
 10
3.4094563368
 20
6.708174907
 10
3.4249860038
 20
6.6593607406
 10
3.43622729
 20
6.6084976917
 10
3.4433776924
 20
6.5555203981
 10
3.4464372113
 20
6.5004288515
  0
LINE
  5
346
100
AcDbEntity
  8
ASSI
100
AcDbLine
 62
7
  6
CONTINUOUS
 10
3.3848722771
 20
22.4
 11
3.3633443637
 21
22.5
  0
LWPOLYLINE
  5
347
100
AcDbEntity
  8
ASSI
100
AcDbPolyline
 62
250
  6
CONTINUOUS
 90
3
 70
0
 10
11.0046585314
 20
-21.403981807
 10
11.0034984168
 20
-21.3558303735
 10
11.0029751375
 20
-21.3279645393
  0
LINE
  5
348
100
AcDbEntity
  8
ASSI
100
AcDbLine
 62
250
  6
CONTINUOUS
 10
10.5060155151
 20
-21.9047715709
 11
10.5047336849
 21
-21.8316424864
  0
LINE
  5
349
100
AcDbEntity
  8
ASSI
100
AcDbLine
 62
250
  6
CONTINUOUS
 10
10.5047336849
 20
-21.8316424864
 11
10.5030519635
 21
-21.6797292088
  0
LINE
  5
34A
100
AcDbEntity
  8
ASSI
100
AcDbLine
 62
250
  6
CONTINUOUS
 10
10.5030519635
 20
-21.6797292088
 11
10.5011186198
 21
-21.3380251343
  0
LINE
  5
34B
100
AcDbEntity
  8
ASSI
100
AcDbLine
 62
250
  6
CONTINUOUS
 10
10.5011186198
 20
-21.3380251343
 11
10.495206984
 21
-11.6792204146
  0
LINE
  5
34C
100
AcDbEntity
  8
ASSI
100
AcDbLine
 62
250
  6
CONTINUOUS
 10
10.495206984
 20
-11.6792204146
 11
10.4929235217
 21
-2.3360479955
  0
LINE
  5
34D
100
AcDbEntity
  8
ASSI
100
AcDbLine
 62
250
  6
CONTINUOUS
 10
10.4929235217
 20
-2.3360479955
 11
10.4936846757
 21
7.0079400882
  0
LINE
  5
34E
100
AcDbEntity
  8
ASSI
100
AcDbLine
 62
250
  6
CONTINUOUS
 10
10.4936846757
 20
7.0079400882
 11
10.4974904462
 21
16.3494810544
  0
LINE
  5
34F
100
AcDbEntity
  8
ASSI
100
AcDbLine
 62
250
  6
CONTINUOUS
 10
10.4974904462
 20
16.3494810544
 11
10.5017438025
 21
21.4854407064
  0
LINE
  5
350
100
AcDbEntity
  8
ASSI
100
AcDbLine
 62
250
  6
CONTINUOUS
 10
10.5017438025
 20
21.4854407064
 11
10.503574742
 21
21.7355821182
  0
LINE
  5
351
100
AcDbEntity
  8
ASSI
100
AcDbLine
 62
250
  6
CONTINUOUS
 10
10.503574742
 20
21.7355821182
 11
10.5047336849
 21
21.8316424864
  0
LWPOLYLINE
  5
352
100
AcDbEntity
  8
ASSI
100
AcDbPolyline
 62
250
  6
CONTINUOUS
 90
6
 70
0
 10
10.5047336849
 20
21.8316424864
 10
10.5060155151
 20
21.9047715709
 10
10.5066887591
 20
21.9320798744
 10
10.5073747357
 20
21.9529558612
 10
10.5080778549
 20
21.9672631277
 10
10.5087981167
 20
21.9749071372
  0
LWPOLYLINE
  5
353
100
AcDbEntity
  8
ASSI
100
AcDbPolyline
 62
250
  6
CONTINUOUS
 90
9
 70
0
 10
11.0029751375
 20
21.3279645394
 10
11.0040632761
 20
21.3813379257
 10
11.0046585314
 20
21.4039818068
 10
11.0052850488
 20
21.4237085483
 10
11.0059419622
 20
21.4405716188
 10
11.0066154888
 20
21.4542260345
 10
11.0073010341
 20
21.464556801
 10
11.0080031927
 20
21.4716789127
 10
11.0087219643
 20
21.4755923698
  0
LINE
  5
354
100
AcDbEntity
  8
0
100
AcDbLine
 62
250
  6
CONTINUOUS
 10
5.39504
 20
-12.857804
 11
5.050966
 21
-13.547323
  0
LINE
  5
355
100
AcDbEntity
  8
ASSI
100
AcDbLine
 62
250
  6
CONTINUOUS
 10
11.0029751375
 20
-21.3279645393
 11
11.0020549485
 21
-21.2650621527
  0
LINE
  5
356
100
AcDbEntity
  8
ASSI
100
AcDbLine
 62
250
  6
CONTINUOUS
 10
11.0020549485
 20
-21.2650621527
 11
11.0010408709
 21
-21.1568159642
  0
LINE
  5
357
100
AcDbEntity
  8
ASSI
100
AcDbLine
 62
250
  6
CONTINUOUS
 10
11.0010408709
 20
-21.1568159642
 11
11.0005196528
 21
-21.0384725278
  0
LINE
  5
358
100
AcDbEntity
  8
ASSI
100
AcDbLine
 62
250
  6
CONTINUOUS
 10
11.0005196528
 20
-21.0384725278
 11
10.9951308352
 21
-11.6670185434
  0
LINE
  5
359
100
AcDbEntity
  8
ASSI
100
AcDbLine
 62
250
  6
CONTINUOUS
 10
10.9951308352
 20
-11.6670185434
 11
10.9928473752
 21
-2.3338547134
  0
LINE
  5
35A
100
AcDbEntity
  8
ASSI
100
AcDbLine
 62
7
  6
CONTINUOUS
 10
11.15
 20
21.8997711479
 11
11.15
 21
-21.8997711479
  0
LINE
  5
35B
100
AcDbEntity
  8
ASSI
100
AcDbLine
 62
250
  6
CONTINUOUS
 10
10.9928473752
 20
-2.3338547134
 11
10.9936085296
 21
7.0009579653
  0
LINE
  5
35C
100
AcDbEntity
  8
ASSI
100
AcDbLine
 62
250
  6
CONTINUOUS
 10
10.9936085296
 20
7.0009579653
 11
10.9974142967
 21
16.3324690607
  0
LINE
  5
35D
100
AcDbEntity
  8
ASSI
100
AcDbLine
 62
250
  6
CONTINUOUS
 10
10.9974142967
 20
16.3324690607
 11
11.0008096574
 21
21.1180991804
  0
LINE
  5
35E
100
AcDbEntity
  8
ASSI
100
AcDbLine
 62
250
  6
CONTINUOUS
 10
11.0008096574
 20
21.1180991804
 11
11.0016659628
 21
21.2307227352
  0
LWPOLYLINE
  5
35F
100
AcDbEntity
  8
ASSI
100
AcDbPolyline
 62
250
  6
CONTINUOUS
 90
3
 70
0
 10
11.0016659628
 20
21.2307227352
 10
11.002494253
 20
21.297692487
 10
11.0029751375
 20
21.3279645394
  0
LINE
  5
360
100
AcDbEntity
  8
0
100
AcDbLine
 62
250
  6
CONTINUOUS
 10
-2.310984
 20
-16.993546
 11
-1.954401
 21
-16.692995
  0
LINE
  5
361
100
AcDbEntity
  8
0
100
AcDbLine
 62
250
  6
CONTINUOUS
 10
-1.917903
 20
-16.390046
 11
-2.451321
 21
-16.822195
  0
LWPOLYLINE
  5
362
100
AcDbEntity
  8
0
100
AcDbPolyline
 62
250
  6
CONTINUOUS
 90
84
 70
0
 10
-8.2707638018
 20
-17.4229532161
 10
-8.2452446134
 20
-17.4082883562
 10
-8.2193112752
 20
-17.3944608351
 10
-8.1929449243
 20
-17.3814528106
 10
-8.1661266981
 20
-17.3692464405
 10
-8.1388552381
 20
-17.3578314107
 10
-8.1111992038
 20
-17.347227521
 10
-8.083225726
 20
-17.3374628012
 10
-8.0549258034
 20
-17.328568088
 10
-8.0358677814
 20
-17.3231460548
 10
-8.0166666793
 20
-17.3181872359
 10
-7.9973369633
 20
-17.3137541589
 10
-7.977898864
 20
-17.3099014595
 10
-7.9583956693
 20
-17.3066522059
 10
-7.9388764316
 20
-17.3040215744
 10
-7.9193771918
 20
-17.3020180279
 10
-7.899881945
 20
-17.3006231752
 10
-7.8803616748
 20
-17.2998119116
 10
-7.8607934697
 20
-17.2995657522
 10
-7.8411788386
 20
-17.2998926912
 10
-7.821525395
 20
-17.3008073426
 10
-7.8018408119
 20
-17.3023263268
 10
-7.7821329997
 20
-17.304474291
 10
-7.762409928
 20
-17.3072778887
 10
-7.7426790064
 20
-17.3107633972
 10
-7.7229454026
 20
-17.3149555891
 10
-7.7032137245
 20
-17.3198788606
 10
-7.6863082729
 20
-17.3247029364
 10
-7.6694248625
 20
-17.3301199577
 10
-7.6525807346
 20
-17.3361678263
 10
-7.6357931304
 20
-17.3428844442
 10
-7.6190792911
 20
-17.3503077134
 10
-7.602456458
 20
-17.3584755358
 10
-7.5859418723
 20
-17.3674258134
 10
-7.5716032056
 20
-17.3759269617
 10
-7.5574276377
 20
-17.3850695965
 10
-7.5434821903
 20
-17.3948671185
 10
-7.5298338849
 20
-17.4053329282
 10
-7.5165383823
 20
-17.4164856463
 10
-7.5036059003
 20
-17.4283647725
 10
-7.4910352956
 20
-17.4410150269
 10
-7.4788254253
 20
-17.4544811293
 10
-7.4669913744
 20
-17.4687881555
 10
-7.4556131406
 20
-17.483882606
 10
-7.44478695
 20
-17.4996913371
 10
-7.4346090284
 20
-17.5161412052
 10
-7.4251652215
 20
-17.5331579231
 10
-7.4164998531
 20
-17.5506626294
 10
-7.4086468667
 20
-17.568575319
 10
-7.4016402057
 20
-17.5868159869
 10
-7.3955051728
 20
-17.6053170156
 10
-7.3902325078
 20
-17.6240603378
 10
-7.3858043097
 20
-17.6430402741
 10
-7.3822026778
 20
-17.6622511446
 10
-7.3794045324
 20
-17.6816785586
 10
-7.3773660803
 20
-17.7012732799
 10
-7.3760383498
 20
-17.7209773609
 10
-7.375372369
 20
-17.7407328541
 10
-7.3753313474
 20
-17.7605053016
 10
-7.3759272193
 20
-17.7803542024
 10
-7.3771891449
 20
-17.8003233471
 10
-7.3791664621
 20
-17.8202997333
 10
-7.3819029438
 20
-17.8401340164
 10
-7.3853999242
 20
-17.8596882751
 10
-7.3896468758
 20
-17.8788565122
 10
-7.394628264
 20
-17.8976490019
 10
-7.400327815
 20
-17.9160958927
 10
-7.4067313068
 20
-17.9341905588
 10
-7.4138250301
 20
-17.9519171811
 10
-7.4215952755
 20
-17.9692599403
 10
-7.4300304287
 20
-17.9862021824
 10
-7.4391272552
 20
-18.0027239151
 10
-7.4488846152
 20
-18.0188043115
 10
-7.4593013692
 20
-18.0344225446
 10
-7.4703732782
 20
-18.0495542395
 10
-7.4820837076
 20
-18.0641608293
 10
-7.4944129231
 20
-18.0782001988
 10
-7.5073411911
 20
-18.0916302332
 10
-7.5208463698
 20
-18.1044133473
 10
-7.534896688
 20
-18.1165300764
 10
-7.5494579668
 20
-18.1279654853
 10
-7.5644960274
 20
-18.1387046391
 10
-7.5799771761
 20
-18.1487308423
 10
-7.5958696617
 20
-18.1580203576
  0
LWPOLYLINE
  5
363
100
AcDbEntity
  8
0
100
AcDbPolyline
 62
250
  6
CONTINUOUS
 90
56
 70
0
 10
-7.5958696617
 20
-18.1580203576
 10
-7.6066777324
 20
-18.1637915052
 10
-7.6176454594
 20
-18.1692163486
 10
-7.6287635787
 20
-18.174287333
 10
-7.6400226194
 20
-18.1789988326
 10
-7.6514122839
 20
-18.1833529386
 10
-7.6629220677
 20
-18.1873536716
 10
-7.6745414663
 20
-18.191005052
 10
-7.6862599752
 20
-18.1943111001
 10
-7.69806709
 20
-18.1972758366
 10
-7.7123376085
 20
-18.2003882742
 10
-7.7267013086
 20
-18.203019707
 10
-7.7411389062
 20
-18.2051748298
 10
-7.7556311168
 20
-18.2068583371
 10
-7.7701586562
 20
-18.2080749237
 10
-7.7847006817
 20
-18.2088285485
 10
-7.7992301168
 20
-18.209120227
 10
-7.8137183269
 20
-18.208950239
 10
-7.8281366771
 20
-18.2083188645
 10
-7.8424565328
 20
-18.2072263831
 10
-7.8542959605
 20
-18.2059625734
 10
-7.8660432062
 20
-18.2043706503
 10
-7.8776943721
 20
-18.2024425194
 10
-7.8892455604
 20
-18.2001700861
 10
-7.9006928734
 20
-18.1975452559
 10
-7.9120324133
 20
-18.1945599341
 10
-7.9232585328
 20
-18.1912091615
 10
-7.9343585861
 20
-18.1875005188
 10
-7.9453181776
 20
-18.183444722
 10
-7.9561229119
 20
-18.1790524871
 10
-7.9667583937
 20
-18.17433453
 10
-7.9772102273
 20
-18.1693015668
 10
-7.9874673433
 20
-18.1639626897
 10
-7.9975319748
 20
-18.1583204968
 10
-8.0074096809
 20
-18.1523759623
 10
-8.0171060206
 20
-18.1461300606
 10
-8.0266265532
 20
-18.1395837659
 10
-8.0359768375
 20
-18.1327380527
 10
-8.0451616398
 20
-18.1255936272
 10
-8.054182555
 20
-18.1181501243
 10
-8.0630403851
 20
-18.1104069108
 10
-8.0717354281
 20
-18.1023627748
 10
-8.080265966
 20
-18.0940141888
 10
-8.0886297767
 20
-18.0853570465
 10
-8.0968228286
 20
-18.0763900592
 10
-8.1048338507
 20
-18.0671232083
 10
-8.1126497627
 20
-18.0575692928
 10
-8.1202574837
 20
-18.0477411117
 10
-8.1276439334
 20
-18.0376514638
 10
-8.134796031
 20
-18.0273131483
 10
-8.1417031249
 20
-18.016732046
 10
-8.1483642786
 20
-18.0058863663
 10
-8.1547809845
 20
-17.9947474008
 10
-8.160954735
 20
-17.9832864406
 10
-8.1668870223
 20
-17.9714747774
 10
-8.172579339
 20
-17.9592837025
  0
LINE
  5
364
100
AcDbEntity
  8
0
100
AcDbLine
 62
250
  6
CONTINUOUS
 10
-8.172579339
 20
-17.9592837025
 11
-8.4083591311
 21
-18.0490719373
  0
LINE
  5
365
100
AcDbEntity
  8
ASSI
100
AcDbLine
 62
7
  6
CONTINUOUS
 10
3.3
 20
-22.4
 11
3.2333672024
 21
-22.5
  0
LINE
  5
366
100
AcDbEntity
  8
0
100
AcDbLine
 62
250
  6
CONTINUOUS
 10
6.3614627878
 20
-15.6809929207
 11
5.4649512526
 21
-16.5768190494
  0
LWPOLYLINE
  5
367
100
AcDbEntity
  8
0
100
AcDbPolyline
 62
250
  6
CONTINUOUS
 90
86
 70
0
 10
-0.1127144544
 20
-17.4229532161
 10
-0.0920364494
 20
-17.4109876164
 10
-0.0714285875
 20
-17.3997565256
 10
-0.0508826829
 20
-17.389219359
 10
-0.0303905501
 20
-17.3793355319
 10
-0.0099440035
 20
-17.3700644598
 10
0.0155564117
 20
-17.3592852902
 10
0.0409775783
 20
-17.3493797417
 10
0.0662986861
 20
-17.3403274195
 10
0.091498925
 20
-17.3321079286
 10
0.1115581506
 20
-17.3261254822
 10
0.131516315
 20
-17.3206958313
 10
0.1513630314
 20
-17.3158518122
 10
0.1710879132
 20
-17.3116262612
 10
0.1906805738
 20
-17.3080520145
 10
0.2101267016
 20
-17.3051502421
 10
0.2293962856
 20
-17.3028954483
 10
0.2484553895
 20
-17.3012504714
 10
0.2672700775
 20
-17.3001781493
 10
0.2858064134
 20
-17.2996413203
 10
0.3085485492
 20
-17.2996754595
 10
0.3308255416
 20
-17.3004681726
 10
0.3526601977
 20
-17.3019993913
 10
0.3740753242
 20
-17.304249047
 10
0.3950857174
 20
-17.3071974361
 10
0.4156741308
 20
-17.3108263135
 10
0.4358153072
 20
-17.3151177989
 10
0.4554839894
 20
-17.320054012
 10
0.4746602169
 20
-17.3256185026
 10
0.4933452162
 20
-17.3318005408
 10
0.5115455106
 20
-17.3385908271
 10
0.5292676234
 20
-17.3459800617
 10
0.546517361
 20
-17.3539634695
 10
0.563297663
 20
-17.3625543738
 10
0.5796107521
 20
-17.3717706223
 10
0.595458851
 20
-17.3816300629
 10
0.6108338953
 20
-17.3921469017
 10
0.625686671
 20
-17.4033207779
 10
0.6399654863
 20
-17.4151474047
 10
0.6536498851
 20
-17.4276213578
 10
0.666726176
 20
-17.4407291859
 10
0.6791764903
 20
-17.4544264661
 10
0.6909906039
 20
-17.4686782979
 10
0.7021930489
 20
-17.483518841
 10
0.7128024219
 20
-17.4989812013
 10
0.7227788221
 20
-17.5150252102
 10
0.7320677241
 20
-17.5315923803
 10
0.7406146029
 20
-17.5486242242
 10
0.7483728154
 20
-17.5660618874
 10
0.7553272484
 20
-17.5838450473
 10
0.7614706709
 20
-17.601913014
 10
0.766795852
 20
-17.6202050978
 10
0.7713020233
 20
-17.6386812635
 10
0.7750142672
 20
-17.6573840946
 10
0.7779630609
 20
-17.6763521561
 10
0.7801746116
 20
-17.6955253219
 10
0.7816795104
 20
-17.7148177707
 10
0.7825301544
 20
-17.7341395911
 10
0.7827748252
 20
-17.7534273048
 10
0.7824235358
 20
-17.7727272533
 10
0.7814646115
 20
-17.7921049867
 10
0.7798378945
 20
-17.8115930682
 10
0.7774805911
 20
-17.8311741405
 10
0.7743678485
 20
-17.8506641503
 10
0.7704931496
 20
-17.8698678647
 10
0.7658853823
 20
-17.8887120283
 10
0.7605822856
 20
-17.9071538797
 10
0.7546215984
 20
-17.9251506577
 10
0.7480378555
 20
-17.9426671078
 10
0.7408527747
 20
-17.9596980023
 10
0.7330848697
 20
-17.9762456203
 10
0.7247526541
 20
-17.9923122408
 10
0.7158746293
 20
-18.0078959944
 10
0.7064692477
 20
-18.0229784185
 10
0.6965549492
 20
-18.0375369017
 10
0.6861501741
 20
-18.0515488329
 10
0.6752756415
 20
-18.0649923085
 10
0.6639611879
 20
-18.0778482551
 10
0.6522389288
 20
-18.090098307
 10
0.64014098
 20
-18.1017240985
 10
0.6277100962
 20
-18.1127062054
 10
0.6150315881
 20
-18.1230209694
 10
0.6022014058
 20
-18.1326436739
 10
0.5893154992
 20
-18.141549602
 10
0.5764430698
 20
-18.1497321195
 10
0.5635463249
 20
-18.157256921
  0
LINE
  5
368
100
AcDbEntity
  8
ASSI
100
AcDbLine
 62
7
  6
CONTINUOUS
 10
3.2333672024
 20
22.5
 11
3.3
 21
22.4
  0
LWPOLYLINE
  5
369
100
AcDbEntity
  8
0
100
AcDbPolyline
 62
7
  6
CONTINUOUS
 90
10
 70
0
 43
0.3500000019
 10
1.0714306641
 20
30.1547436523
 10
1.1428554688
 20
30.0118859863
 10
1.1428554688
 20
29.9404584961
 10
1.0000004883
 20
29.7976008301
 10
0.9285703125
 20
29.7976008301
 10
0.8571455078
 20
29.8690310059
 10
0.8571455078
 20
29.9404584961
 10
0.9285703125
 20
30.0833161621
 10
1.0000004883
 20
30.1547436523
 10
1.0714306641
 20
30.1547436523
  0
LWPOLYLINE
  5
36A
100
AcDbEntity
  8
0
100
AcDbPolyline
 62
250
  6
CONTINUOUS
 90
58
 70
0
 10
0.5635463249
 20
-18.157256921
 10
0.5549086573
 20
-18.1619448931
 10
0.5462456337
 20
-18.1663753892
 10
0.5375713895
 20
-18.1705460171
 10
0.5288991096
 20
-18.1744557605
 10
0.5202381758
 20
-18.1781091067
 10
0.511597019
 20
-18.1815119185
 10
0.5029848463
 20
-18.1846705736
 10
0.4944139694
 20
-18.1875935084
 10
0.4858974759
 20
-18.190289674
 10
0.4757632435
 20
-18.1932383251
 10
0.4657208608
 20
-18.1958886925
 10
0.4557650186
 20
-18.1982561507
 10
0.4458904079
 20
-18.2003560739
 10
0.4360917195
 20
-18.2022038365
 10
0.4239442811
 20
-18.2041801103
 10
0.4119102712
 20
-18.2058029293
 10
0.3999927853
 20
-18.2070888174
 10
0.3881949187
 20
-18.2080542982
 10
0.3748620384
 20
-18.2087838162
 10
0.3616937743
 20
-18.2091245901
 10
0.3486944619
 20
-18.2090847852
 10
0.3358684372
 20
-18.2086725664
 10
0.3232200358
 20
-18.2078960989
 10
0.3107535936
 20
-18.2067635477
 10
0.2984734464
 20
-18.205283078
 10
0.2863821076
 20
-18.2034611295
 10
0.274474802
 20
-18.2012972405
 10
0.2627449321
 20
-18.198789224
 10
0.2511859004
 20
-18.1959348932
 10
0.2397911094
 20
-18.1927320611
 10
0.2285539618
 20
-18.1891785407
 10
0.2174678598
 20
-18.185272145
 10
0.2065277652
 20
-18.1810116088
 10
0.1957348757
 20
-18.1763993538
 10
0.1850919482
 20
-18.1714387233
 10
0.1746017396
 20
-18.1661330606
 10
0.1642670066
 20
-18.1604857092
 10
0.1540905063
 20
-18.1545000124
 10
0.1440749954
 20
-18.1481793135
 10
0.1325998041
 20
-18.1403891037
 10
0.1213663921
 20
-18.132170081
 10
0.1103936617
 20
-18.1235448569
 10
0.0997005153
 20
-18.114536043
 10
0.0893058551
 20
-18.1051662507
 10
0.0792285837
 20
-18.0954580915
 10
0.0694851539
 20
-18.0854338683
 10
0.0600822218
 20
-18.0751146502
 10
0.051023994
 20
-18.0645211976
 10
0.0423146771
 20
-18.0536742712
 10
0.0339584777
 20
-18.0425946314
 10
0.0259596026
 20
-18.0313030388
 10
0.0183211669
 20
-18.0198157106
 10
0.0110419209
 20
-18.0081306905
 10
0.0041195233
 20
-17.9962414791
 10
-0.0024483672
 20
-17.984141577
 10
-0.0086640917
 20
-17.9718244846
 10
-0.0145299915
 20
-17.9592837025
  0
LINE
  5
36B
100
AcDbEntity
  8
0
100
AcDbLine
 62
250
  6
CONTINUOUS
 10
-0.0145299915
 20
-17.9592837025
 11
-0.2503097836
 21
-18.0490719373
  0
LWPOLYLINE
  5
36C
100
AcDbEntity
  8
0
100
AcDbPolyline
 62
7
  6
CONTINUOUS
 90
3
 70
0
 43
0.3500000019
 10
20.0966826172
 20
-0.8571428909
 10
20.0966826172
 20
-2.3571429291
 10
17.7395405273
 20
-1.7142857819
  0
LINE
  5
36D
100
AcDbEntity
  8
ASSI
100
AcDbLine
 62
250
  6
CONTINUOUS
 10
-10.5005350625
 20
21.0183142309
 11
10.5005350625
 21
21.0183142309
  0
LINE
  5
36E
100
AcDbEntity
  8
ASSI
100
AcDbLine
 62
250
  6
CONTINUOUS
 10
-10.5087981167
 20
21.9749071372
 11
10.5087981167
 21
21.9749071372
  0
LINE
  5
36F
100
AcDbEntity
  8
ASSI
100
AcDbLine
 62
7
  6
CONTINUOUS
 10
-10.6503805997
 20
22.4
 11
-3.3
 21
22.4
  0
LINE
  5
370
100
AcDbEntity
  8
ASSI
100
AcDbLine
 62
7
  6
CONTINUOUS
 10
3.3
 20
22.4
 11
10.6503805997
 21
22.4
  0
LINE
  5
371
100
AcDbEntity
  8
ASSI
100
AcDbLine
 62
7
  6
CONTINUOUS
 10
3.4698202597
 20
22.5
 11
-3.4698202597
 21
22.5
  0
LWPOLYLINE
  5
372
100
AcDbEntity
  8
ASSI
100
AcDbPolyline
 62
250
  6
CONTINUOUS
 90
16
 70
0
 10
10.5005350626
 20
21.0183132877
 10
10.5522203681
 20
21.0181627949
 10
10.6033519099
 20
21.0177887256
 10
10.6533818551
 20
21.0171950877
 10
10.7017741735
 20
21.0163882415
 10
10.7480103807
 20
21.0153768319
 10
10.7915950934
 20
21.0141716957
 10
10.8320613367
 20
21.0127857448
 10
10.8689755479
 20
21.0112338287
 10
10.9019422211
 20
21.0095325749
 10
10.9306081453
 20
21.0077002109
 10
10.9546661883
 20
21.0057563691
 10
10.9738585879
 20
21.0037218762
 10
10.987979713
 20
21.00161853
 10
10.9968782673
 20
20.9994688662
 10
11.00045891
 20
20.9972959167
  0
LWPOLYLINE
  5
373
100
AcDbEntity
  8
ASSI
100
AcDbPolyline
 62
250
  6
CONTINUOUS
 90
16
 70
0
 10
10.5087981167
 20
21.9749071372
 10
10.5610241351
 20
21.9721273713
 10
10.6126786189
 20
21.9639137831
 10
10.6631962883
 20
21.9503562579
 10
10.7120243038
 20
21.9316031621
 10
10.7586283171
 20
21.90785972
 10
10.8024983178
 20
21.8793857676
 10
10.8431542153
 20
21.846492909
 10
10.8801510926
 20
21.8095411067
 10
10.9130840749
 20
21.7689347421
 10
10.9415927608
 20
21.7251181903
 10
10.9653651658
 20
21.6785709569
 10
10.9841411372
 20
21.6298024308
 10
10.9977152003
 20
21.5793463095
 10
11.0059388076
 20
21.5277547588
 10
11.0087219643
 20
21.4755923698
  0
LWPOLYLINE
  5
374
100
AcDbEntity
  8
ASSI
100
AcDbPolyline
 62
7
  6
CONTINUOUS
 90
10
 70
0
 10
4.2275424324
 20
23.3333598158
 10
4.1717727948
 20
23.3677249015
 10
4.1143959467
 20
23.3981870942
 10
4.055411888
 20
23.4247463939
 10
3.9945575979
 20
23.4474821133
 10
3.9320960973
 20
23.4663149397
 10
3.8688164486
 20
23.4810069354
 10
3.8049816727
 20
23.4914787877
 10
3.7403287489
 20
23.4978098092
 10
3.674857677
 20
23.5
  0
LWPOLYLINE
  5
375
100
AcDbEntity
  8
ASSI
100
AcDbPolyline
 62
7
  6
CONTINUOUS
 90
10
 70
0
 10
-3.674857677
 20
23.5
 10
-3.7403287489
 20
23.4978098092
 10
-3.8049816727
 20
23.4914787877
 10
-3.8688164486
 20
23.4810069354
 10
-3.9320960973
 20
23.4663149397
 10
-3.9945575979
 20
23.4474821133
 10
-4.055411888
 20
23.4247463939
 10
-4.1143959467
 20
23.3981870942
 10
-4.1717727948
 20
23.3677249015
 10
-4.2275424324
 20
23.3333598158
  0
LINE
  5
376
100
AcDbEntity
  8
ASSI
100
AcDbLine
 62
7
  6
CONTINUOUS
 10
3.674857677
 20
23.5
 11
-3.674857677
 21
23.5
  0
LWPOLYLINE
  5
377
100
AcDbEntity
  8
0
100
AcDbPolyline
 62
7
  6
CONTINUOUS
 90
7
 70
0
 43
0.3500000019
 10
-0.4285708008
 20
29.6547431641
 10
-1.9285722656
 20
29.6547431641
 10
-0.4285708008
 20
31.7976027832
 10
-0.4285708008
 20
32.2261730957
 10
-0.8571411133
 20
32.6547434082
 10
-1.5000019531
 20
32.6547434082
 10
-1.9285722656
 20
32.0118879395
  0
LWPOLYLINE
  5
378
100
AcDbEntity
  8
0
100
AcDbPolyline
 62
7
  6
CONTINUOUS
 90
7
 70
0
 43
0.3500000019
 10
-2.7857128906
 20
29.6547431641
 10
-4.2857143555
 20
29.6547431641
 10
-2.7857128906
 20
31.7976027832
 10
-2.7857128906
 20
32.2261730957
 10
-3.2142832031
 20
32.6547434082
 10
-3.857144043
 20
32.6547434082
 10
-4.2857143555
 20
32.0118879395
  0
LWPOLYLINE
  5
379
100
AcDbEntity
  8
0
100
AcDbPolyline
 62
7
  6
CONTINUOUS
 90
6
 70
0
 43
0.3500000019
 10
2.1428564453
 20
29.6547431641
 10
3.2142875977
 20
29.6547431641
 10
3.4285727539
 20
29.8690310059
 10
3.4285727539
 20
30.9404594727
 10
3.0000024414
 20
31.3690297852
 10
2.5714267578
 20
31.3690297852
  0
LWPOLYLINE
  5
37A
100
AcDbEntity
  8
ASSI
100
AcDbPolyline
 62
250
  6
CONTINUOUS
 90
8
 70
0
 10
-86.9065549662
 20
21.9749071372
 10
-86.9073208943
 20
21.9721273713
 10
-86.9077920714
 20
21.9639137831
 10
-86.9079633411
 20
21.9503562579
 10
-86.9078328292
 20
21.9316031621
 10
-86.9074019639
 20
21.90785972
 10
-86.9066754607
 20
21.8793857676
 10
-86.9043704909
 20
21.8095411067
  0
LWPOLYLINE
  5
37B
100
AcDbEntity
  8
0
100
AcDbPolyline
 62
7
  6
CONTINUOUS
 90
10
 70
0
 43
0.3500000019
 10
-65.9024429626
 20
38.0338642578
 10
-66.5453001099
 20
37.3910061035
 10
-66.9738714294
 20
36.533862793
 10
-66.9738714294
 20
35.4624343262
 10
-66.5453001099
 20
35.0338640137
 10
-65.9024429626
 20
35.0338640137
 10
-65.4738713074
 20
35.4624343262
 10
-65.4738713074
 20
36.3195776367
 10
-65.9024429626
 20
36.7481506348
 10
-66.8310140991
 20
36.7481506348
  0
LWPOLYLINE
  5
37C
100
AcDbEntity
  8
ASSI
100
AcDbPolyline
 62
250
  6
CONTINUOUS
 90
7
 70
0
 10
-86.9065549662
 20
-21.9749071372
 10
-86.9073208941
 20
-21.97212728
 10
-86.9077920617
 20
-21.9639134406
 10
-86.9079633141
 20
-21.9503555394
 10
-86.9078327783
 20
-21.931601975
 10
-86.9074018848
 20
-21.9078580123
 10
-86.9066753523
 20
-21.8793835478
  0
LWPOLYLINE
  5
37D
100
AcDbEntity
  8
ASSI
100
AcDbPolyline
 62
250
  6
CONTINUOUS
 90
19
 70
0
 10
-87.3625032483
 20
20.9972959167
 10
-87.3590233042
 20
21.0384725278
 10
-87.3523252043
 20
21.0787402824
 10
-87.3424089484
 20
21.1180991804
 10
-87.3291627388
 20
21.1568159642
 10
-87.3126983733
 20
21.1946238914
 10
-87.2933512453
 20
21.2307227352
 10
-87.2710662688
 20
21.2650621528
 10
-87.2458985297
 20
21.297692487
 10
-87.218348679
 20
21.3279645394
 10
-87.1883700238
 20
21.3558303734
 10
-87.1560092569
 20
21.3813379257
 10
-87.1219071076
 20
21.4039818068
 10
-87.0860139466
 20
21.4237085483
 10
-87.0483794031
 20
21.4405716188
 10
-87.0097930941
 20
21.4542260345
 10
-86.9705182253
 20
21.464556801
 10
-86.930291591
 20
21.4716789127
 10
-86.8891131913
 20
21.4755923698
  0
LWPOLYLINE
  5
37E
100
AcDbEntity
  8
ASSI
100
AcDbPolyline
 62
250
  6
CONTINUOUS
 90
10
 70
0
 10
-87.3625032483
 20
-20.9972959167
 10
-87.5369290851
 20
-16.3324664701
 10
-87.6677484562
 20
-11.6670185434
 10
-87.7549613618
 20
-7.0009521365
 10
-87.7985677931
 20
-2.3338547134
 10
-87.7985677587
 20
2.3338611899
 10
-87.7549612845
 20
7.0009579653
 10
-87.667748379
 20
11.667023077
 10
-87.5369290336
 20
16.3324690607
 10
-87.3625032483
 20
20.9972959167
  0
LINE
  5
37F
100
AcDbEntity
  8
0
100
AcDbLine
 62
250
  6
CONTINUOUS
 10
-87.9223291952
 20
-19.3088488498
 11
-87.970690446
 21
-18.0139983182
  0
LINE
  5
380
100
AcDbEntity
  8
0
100
AcDbLine
 62
250
  6
CONTINUOUS
 10
-87.9701356256
 20
-18.0293799789
 11
-88.0028453574
 21
-17.0988028469
  0
LINE
  5
381
100
AcDbEntity
  8
0
100
AcDbLine
 62
250
  6
CONTINUOUS
 10
-88.0178350008
 20
-16.654967986
 11
-88.0305917873
 21
-16.2677007755
  0
LINE
  5
382
100
AcDbEntity
  8
0
100
AcDbLine
 62
250
  6
CONTINUOUS
 10
-88.0692961999
 20
-15.0317221163
 11
-88.0493459139
 21
-15.6809929207
  0
LWPOLYLINE
  5
383
100
AcDbEntity
  8
0
100
AcDbPolyline
 62
7
  6
CONTINUOUS
 90
5
 70
0
 43
0.3500000019
 10
-61.6881569214
 20
29.931770752
 10
-61.3310140991
 20
30.1460585938
 10
-61.3310140991
 20
30.7889140625
 10
-61.6881569214
 20
31.2174870605
 10
-62.5453002319
 20
31.2174870605
  0
LINE
  5
384
100
AcDbEntity
  8
ASSI
100
AcDbLine
 62
7
  6
CONTINUOUS
 10
-74.7952999463
 20
-23.0998904748
 11
-77.4457458166
 21
-23.1538357078
  0
LINE
  5
385
100
AcDbEntity
  8
ASSI
100
AcDbLine
 62
7
  6
CONTINUOUS
 10
-77.4457458166
 20
-23.1538357078
 11
-78.7952999463
 21
-23.1799085617
  0
LINE
  5
386
100
AcDbEntity
  8
ASSI
100
AcDbLine
 62
7
  6
CONTINUOUS
 10
-78.7952999463
 20
-23.5
 11
-74.7952999463
 21
-23.4301797403
  0
LINE
  5
387
100
AcDbEntity
  8
ASSI
100
AcDbLine
 62
250
  6
CONTINUOUS
 10
-78.7952999463
 20
-23.3333596575
 11
-74.7952999463
 21
-23.2631073618
  0
LINE
  5
388
100
AcDbEntity
  8
ASSI
100
AcDbLine
 62
7
  6
CONTINUOUS
 10
-74.7952999463
 20
-22.6298666026
 11
-78.7952999463
 21
-22.663166622
  0
LINE
  5
389
100
AcDbEntity
  8
ASSI
100
AcDbLine
 62
7
  6
CONTINUOUS
 10
-72.6458044624
 20
-22.2
 11
-73.1952999463
 21
-22.2
  0
LINE
  5
38A
100
AcDbEntity
  8
ASSI
100
AcDbLine
 62
7
  6
CONTINUOUS
 10
-78.7952999463
 20
-22.4
 11
-86.9065549662
 21
-21.9749071372
  0
LINE
  5
38B
100
AcDbEntity
  8
ASSI
100
AcDbLine
 62
250
  6
CONTINUOUS
 10
-78.7952999463
 20
-21.8997711479
 11
-86.8891131913
 21
-21.4755923698
  0
LWPOLYLINE
  5
38C
100
AcDbEntity
  8
ASSI
100
AcDbPolyline
 62
250
  6
CONTINUOUS
 90
19
 70
0
 10
-86.8891131913
 20
-21.4755923698
 10
-86.930291591
 20
-21.4716789126
 10
-86.9705182252
 20
-21.4645568007
 10
-87.009793094
 20
-21.4542260342
 10
-87.048379403
 20
-21.4405716186
 10
-87.0860139466
 20
-21.4237085484
 10
-87.1219071077
 20
-21.403981807
 10
-87.156009257
 20
-21.3813379258
 10
-87.1883700239
 20
-21.3558303735
 10
-87.218348679
 20
-21.3279645393
 10
-87.2458985297
 20
-21.2976924869
 10
-87.2710662686
 20
-21.2650621527
 10
-87.2933512451
 20
-21.230722735
 10
-87.3126983733
 20
-21.1946238913
 10
-87.3291627389
 20
-21.1568159642
 10
-87.3424089486
 20
-21.1180991804
 10
-87.3523252045
 20
-21.0787402824
 10
-87.3590233044
 20
-21.0384725278
 10
-87.3625032483
 20
-20.9972959167
  0
LINE
  5
38D
100
AcDbEntity
  8
ASSI
100
AcDbLine
 62
250
  6
CONTINUOUS
 10
-86.8967659383
 20
21.6298024308
 11
-86.8891131913
 21
21.4755923698
  0
LINE
  5
38E
100
AcDbEntity
  8
ASSI
100
AcDbLine
 62
250
  6
CONTINUOUS
 10
-86.9010185412
 20
21.7251181903
 11
-86.8967659383
 21
21.6298024308
  0
LINE
  5
38F
100
AcDbEntity
  8
ASSI
100
AcDbLine
 62
250
  6
CONTINUOUS
 10
-86.9043704909
 20
21.8095411067
 11
-86.9010185412
 21
21.7251181903
  0
LINE
  5
390
100
AcDbEntity
  8
ASSI
100
AcDbLine
 62
250
  6
CONTINUOUS
 10
-86.9066753523
 20
-21.8793835478
 11
-86.9043703318
 21
-21.8095380733
  0
LINE
  5
391
100
AcDbEntity
  8
ASSI
100
AcDbLine
 62
250
  6
CONTINUOUS
 10
-86.9043703318
 20
-21.8095380733
 11
-86.9010183605
 21
-21.7251149336
  0
LINE
  5
392
100
AcDbEntity
  8
ASSI
100
AcDbLine
 62
250
  6
CONTINUOUS
 10
-86.9010183605
 20
-21.7251149336
 11
-86.8943584627
 21
-21.5793443309
  0
LINE
  5
393
100
AcDbEntity
  8
ASSI
100
AcDbLine
 62
250
  6
CONTINUOUS
 10
-86.8943584627
 20
-21.5793443309
 11
-86.8891131913
 21
-21.4755923698
  0
LINE
  5
394
100
AcDbEntity
  8
ASSI
100
AcDbLine
 62
250
  6
CONTINUOUS
 10
-87.8533350696
 20
-21.0183142305
 11
-87.8506604017
 21
-21.0181637394
  0
LINE
  5
395
100
AcDbEntity
  8
ASSI
100
AcDbLine
 62
250
  6
CONTINUOUS
 10
-87.8506604017
 20
-21.0181637394
 11
-87.3625032483
 21
-20.9972959167
  0
LINE
  5
396
100
AcDbEntity
  8
ASSI
100
AcDbLine
 62
7
  6
CONTINUOUS
 10
-70.622462803
 20
-21.1271628567
 11
-74.5987904275
 21
-21.1965699136
  0
LINE
  5
397
100
AcDbEntity
  8
ASSI
100
AcDbLine
 62
7
  6
CONTINUOUS
 10
-69.6554175098
 20
-20.1601175636
 11
-41.7952999463
 21
-19.6738174026
  0
LINE
  5
398
100
AcDbEntity
  8
CURVE
100
AcDbLine
 62
7
  6
CONTINUOUS
 10
-76.1948578515
 20
15.4005882445
 11
-76.1077156256
 21
15.4877304705
  0
LINE
  5
399
100
AcDbEntity
  8
CURVE
100
AcDbLine
 62
7
  6
CONTINUOUS
 10
-76.1948578515
 20
14.9027850706
 11
-75.8699788806
 21
15.2276640415
  0
LINE
  5
39A
100
AcDbEntity
  8
CURVE
100
AcDbLine
 62
7
  6
CONTINUOUS
 10
-76.1948578515
 20
14.4049818966
 11
-75.8699788806
 21
14.7298608675
  0
LINE
  5
39B
100
AcDbEntity
  8
CURVE
100
AcDbLine
 62
7
  6
CONTINUOUS
 10
-76.1948578515
 20
13.9071787226
 11
-75.8699788806
 21
14.2320576936
  0
LINE
  5
39C
100
AcDbEntity
  8
CURVE
100
AcDbLine
 62
7
  6
CONTINUOUS
 10
-74.9481152513
 20
15.1539213229
 11
-74.7238841067
 21
15.3781524675
  0
LINE
  5
39D
100
AcDbEntity
  8
CURVE
100
AcDbLine
 62
7
  6
CONTINUOUS
 10
-76.1188515952
 20
13.485381805
 11
-75.732998517
 21
13.8712348833
  0
LINE
  5
39E
100
AcDbEntity
  8
CURVE
100
AcDbLine
 62
7
  6
CONTINUOUS
 10
-74.9481152513
 20
14.6561181489
 11
-74.6232362804
 21
14.9809971199
  0
LINE
  5
39F
100
AcDbEntity
  8
CURVE
100
AcDbLine
 62
7
  6
CONTINUOUS
 10
-76.1948578515
 20
12.9115723747
 11
-76.1340832074
 21
12.9723470189
  0
LINE
  5
3A0
100
AcDbEntity
  8
CURVE
100
AcDbLine
 62
7
  6
CONTINUOUS
 10
-75.6210484213
 20
13.485381805
 11
-75.235195343
 21
13.8712348833
  0
LINE
  5
3A1
100
AcDbEntity
  8
CURVE
100
AcDbLine
 62
7
  6
CONTINUOUS
 10
-74.9481152513
 20
14.158314975
 11
-74.6232362804
 21
14.4831939459
  0
LINE
  5
3A2
100
AcDbEntity
  8
CURVE
100
AcDbLine
 62
7
  6
CONTINUOUS
 10
-73.6201789172
 20
15.4862513091
 11
-73.6064302263
 21
15.5
  0
LINE
  5
3A3
100
AcDbEntity
  8
CURVE
100
AcDbLine
 62
7
  6
CONTINUOUS
 10
-76.0612616078
 20
12.5473654445
 11
-75.7669200727
 21
12.8417069796
  0
LINE
  5
3A4
100
AcDbEntity
  8
CURVE
100
AcDbLine
 62
7
  6
CONTINUOUS
 10
-75.1232452473
 20
13.485381805
 11
-74.6232362804
 21
13.985390772
  0
LINE
  5
3A5
100
AcDbEntity
  8
CURVE
100
AcDbLine
 62
7
  6
CONTINUOUS
 10
-73.6201789172
 20
14.9884481351
 11
-73.2952999463
 21
15.3133271061
  0
LINE
  5
3A6
100
AcDbEntity
  8
CURVE
100
AcDbLine
 62
7
  6
CONTINUOUS
 10
-75.6877672677
 20
12.4230566107
 11
-75.399756938
 21
12.7110669404
  0
LINE
  5
3A7
100
AcDbEntity
  8
CURVE
100
AcDbLine
 62
7
  6
CONTINUOUS
 10
-74.6254420733
 20
13.485381805
 11
-74.2395889951
 21
13.8712348833
  0
LINE
  5
3A8
100
AcDbEntity
  8
CURVE
100
AcDbLine
 62
7
  6
CONTINUOUS
 10
-73.6201789172
 20
14.4906449612
 11
-73.2952999463
 21
14.8155239321
  0
LINE
  5
3A9
100
AcDbEntity
  8
CURVE
100
AcDbLine
 62
7
  6
CONTINUOUS
 10
-75.3142729275
 20
12.2987477769
 11
-75.0325938032
 21
12.5804269012
  0
LINE
  5
3AA
100
AcDbEntity
  8
CURVE
100
AcDbLine
 62
7
  6
CONTINUOUS
 10
-74.1276388994
 20
13.485381805
 11
-73.7417858211
 21
13.8712348833
  0
LINE
  5
3AB
100
AcDbEntity
  8
CURVE
100
AcDbLine
 62
7
  6
CONTINUOUS
 10
-73.6201789172
 20
13.9928417872
 11
-73.2952999463
 21
14.3177207582
  0
LINE
  5
3AC
100
AcDbEntity
  8
CURVE
100
AcDbLine
 62
7
  6
CONTINUOUS
 10
-74.9407785873
 20
12.1744389431
 11
-74.6654306685
 21
12.4497868619
  0
LINE
  5
3AD
100
AcDbEntity
  8
CURVE
100
AcDbLine
 62
7
  6
CONTINUOUS
 10
-73.6298357254
 20
13.485381805
 11
-73.2952999463
 21
13.8199175842
  0
LINE
  5
3AE
100
AcDbEntity
  8
CURVE
100
AcDbLine
 62
250
  6
CONTINUOUS
 10
-71.3304141707
 20
15.421428442
 11
-71.6018013861
 21
15.15
  0
LINE
  5
3AF
100
AcDbEntity
  8
CURVE
100
AcDbLine
 62
7
  6
CONTINUOUS
 10
-76.0749596321
 20
10.5424547244
 11
-75.4551600042
 21
11.1622543523
  0
LINE
  5
3B0
100
AcDbEntity
  8
CURVE
100
AcDbLine
 62
7
  6
CONTINUOUS
 10
-74.5672842472
 20
12.0501301093
 11
-74.2982675338
 21
12.3191468227
  0
LINE
  5
3B1
100
AcDbEntity
  8
ASSI
100
AcDbLine
 62
250
  6
CONTINUOUS
 10
-41.7952999463
 20
-15.8937104774
 11
-78.7952999463
 21
-16.119659166
  0
LINE
  5
3B2
100
AcDbEntity
  8
ASSI
100
AcDbLine
 62
250
  6
CONTINUOUS
 10
-41.7952999463
 20
-17.1472402523
 11
-78.7952999463
 21
-17.3594295691
  0
LINE
  5
3B3
100
AcDbEntity
  8
CURVE
100
AcDbLine
 62
250
  6
CONTINUOUS
 10
-74.2068970845
 20
-14.290021
 11
-76.202514096
 21
-13.72041
  0
LINE
  5
3B4
100
AcDbEntity
  8
CURVE
100
AcDbLine
 62
250
  6
CONTINUOUS
 10
-76.202514096
 20
-13.115552
 11
-73.3033027272
 21
-14.047617
  0
LINE
  5
3B5
100
AcDbEntity
  8
ASSI
100
AcDbLine
 62
7
  6
CONTINUOUS
 10
-78.7952999463
 20
-23.5
 11
-78.7952999463
 21
23.5
  0
LINE
  5
3B6
100
AcDbEntity
  8
CURVE
100
AcDbLine
 62
7
  6
CONTINUOUS
 10
-76.1948578515
 20
9.924753331
 11
-75.9605904263
 21
10.1590207562
  0
LINE
  5
3B7
100
AcDbEntity
  8
CURVE
100
AcDbLine
 62
7
  6
CONTINUOUS
 10
-75.3055684647
 20
10.8140427179
 11
-74.7125812236
 21
11.407029959
  0
LINE
  5
3B8
100
AcDbEntity
  8
CURVE
100
AcDbLine
 62
7
  6
CONTINUOUS
 10
-74.193789907
 20
11.9258212756
 11
-73.9311043991
 21
12.1885067834
  0
LINE
  5
3B9
100
AcDbEntity
  8
CURVE
100
AcDbLine
 62
7
  6
CONTINUOUS
 10
-76.1948578515
 20
9.426950157
 11
-75.8699788806
 21
9.751829128
  0
LINE
  5
3BA
100
AcDbEntity
  8
CURVE
100
AcDbLine
 62
7
  6
CONTINUOUS
 10
-74.5361772972
 20
11.0856307114
 11
-73.970002443
 21
11.6518055656
  0
LINE
  5
3BB
100
AcDbEntity
  8
CURVE
100
AcDbLine
 62
7
  6
CONTINUOUS
 10
-73.8202955668
 20
11.8015124418
 11
-73.5639412644
 21
12.0578667442
  0
LINE
  5
3BC
100
AcDbEntity
  8
CURVE
100
AcDbLine
 62
250
  6
CONTINUOUS
 10
-71.3304141707
 20
13.928571558
 11
-71.6018013861
 21
13.657142663
  0
LINE
  5
3BD
100
AcDbEntity
  8
CURVE
100
AcDbLine
 62
7
  6
CONTINUOUS
 10
-76.1948578515
 20
8.9291469831
 11
-75.8699788806
 21
9.254025954
  0
LINE
  5
3BE
100
AcDbEntity
  8
CURVE
100
AcDbLine
 62
7
  6
CONTINUOUS
 10
-73.7667861298
 20
11.3572187049
 11
-73.2952999463
 21
11.8287048884
  0
LINE
  5
3BF
100
AcDbEntity
  8
CURVE
100
AcDbLine
 62
7
  6
CONTINUOUS
 10
-76.1948578515
 20
8.4313438091
 11
-75.8699788806
 21
8.7562227801
  0
LINE
  5
3C0
100
AcDbEntity
  8
CURVE
100
AcDbLine
 62
7
  6
CONTINUOUS
 10
-74.9481152513
 20
9.6780864094
 11
-74.6232362804
 21
10.0029653803
  0
LINE
  5
3C1
100
AcDbEntity
  8
CURVE
100
AcDbLine
 62
7
  6
CONTINUOUS
 10
-75.9717519824
 20
8.1566465043
 11
-75.5859006099
 21
8.5424978768
  0
LINE
  5
3C2
100
AcDbEntity
  8
CURVE
100
AcDbLine
 62
7
  6
CONTINUOUS
 10
-74.9481152513
 20
9.1802832354
 11
-74.6232362804
 21
9.5051622064
  0
LINE
  5
3C3
100
AcDbEntity
  8
CURVE
100
AcDbLine
 62
250
  6
CONTINUOUS
 10
-70.78763974
 20
12.978571558
 11
-70.516252468
 21
13.25
  0
LINE
  5
3C4
100
AcDbEntity
  8
CURVE
100
AcDbLine
 62
250
  6
CONTINUOUS
 10
-71.3304141707
 20
12.435714221
 11
-71.6018013861
 21
12.164285779
  0
LINE
  5
3C5
100
AcDbEntity
  8
CURVE
100
AcDbLine
 62
7
  6
CONTINUOUS
 10
-75.4739488084
 20
8.1566465043
 11
-75.088097436
 21
8.5424978768
  0
LINE
  5
3C6
100
AcDbEntity
  8
CURVE
100
AcDbLine
 62
7
  6
CONTINUOUS
 10
-74.9481152513
 20
8.6824800615
 11
-74.6232362804
 21
9.0073590324
  0
LINE
  5
3C7
100
AcDbEntity
  8
CURVE
100
AcDbLine
 62
7
  6
CONTINUOUS
 10
-73.6201789172
 20
10.0104163956
 11
-73.4593851978
 21
10.171210115
  0
LINE
  5
3C8
100
AcDbEntity
  8
CURVE
100
AcDbLine
 62
250
  6
CONTINUOUS
 10
-73.2952999463
 20
11.5236489837
 11
-76.1948578515
 21
10.5001317576
  0
LINE
  5
3C9
100
AcDbEntity
  8
CURVE
100
AcDbLine
 62
250
  6
CONTINUOUS
 10
-76.1948578515
 20
10.9184283853
 11
-73.6810925517
 21
11.7470386853
  0
LINE
  5
3CA
100
AcDbEntity
  8
ASSI
100
AcDbLine
 62
7
  6
CONTINUOUS
 10
-41.7952999463
 20
-13.7344425119
 11
-66.5440635782
 21
-13.5763271382
  0
LINE
  5
3CB
100
AcDbEntity
  8
ASSI
100
AcDbLine
 62
7
  6
CONTINUOUS
 10
-66.5518448479
 20
-13.2499714423
 11
-41.7952999463
 21
-13.4660185366
  0
LINE
  5
3CC
100
AcDbEntity
  8
CURVE
100
AcDbLine
 62
250
  6
CONTINUOUS
 10
-74.592863291
 20
-10.494355
 11
-76.202514096
 21
-9.889084
  0
LINE
  5
3CD
100
AcDbEntity
  8
CURVE
100
AcDbLine
 62
250
  6
CONTINUOUS
 10
-76.2026880695
 20
-12.285664
 11
-76.2026880695
 21
-12.890935
  0
LINE
  5
3CE
100
AcDbEntity
  8
CURVE
100
AcDbLine
 62
250
  6
CONTINUOUS
 10
-76.202514096
 20
-15.50026
 11
-76.202514096
 21
-14.842748
  0
LINE
  5
3CF
100
AcDbEntity
  8
CURVE
100
AcDbLine
 62
250
  6
CONTINUOUS
 10
-76.202514096
 20
-13.72041
 11
-76.202514096
 21
-13.115552
  0
LINE
  5
3D0
100
AcDbEntity
  8
CURVE
100
AcDbLine
 62
250
  6
CONTINUOUS
 10
-76.202514096
 20
-11.698005
 11
-76.202514096
 21
-11.093234
  0
LINE
  5
3D1
100
AcDbEntity
  8
CURVE
100
AcDbLine
 62
250
  6
CONTINUOUS
 10
-76.202514096
 20
-9.889084
 11
-76.202514096
 21
-9.290227
  0
LINE
  5
3D2
100
AcDbEntity
  8
CURVE
100
AcDbLine
 62
250
  6
CONTINUOUS
 10
-76.202514096
 20
-8.014517
 11
-76.202514096
 21
-7.42899
  0
LINE
  5
3D3
100
AcDbEntity
  8
CURVE
100
AcDbLine
 62
250
  6
CONTINUOUS
 10
-76.1948578515
 20
5.0373834462
 11
-76.1948578515
 21
5.447615242
  0
LINE
  5
3D4
100
AcDbEntity
  8
CURVE
100
AcDbLine
 62
250
  6
CONTINUOUS
 10
-76.1948578515
 20
6.9829064331
 11
-76.1948578515
 21
7.3484763228
  0
LINE
  5
3D5
100
AcDbEntity
  8
CURVE
100
AcDbLine
 62
250
  6
CONTINUOUS
 10
-76.1948578515
 20
8.1566465043
 11
-76.1948578515
 21
10.1590207562
  0
LINE
  5
3D6
100
AcDbEntity
  8
CURVE
100
AcDbLine
 62
250
  6
CONTINUOUS
 10
-76.1948578515
 20
10.5001317576
 11
-76.1948578515
 21
10.9184283853
  0
LINE
  5
3D7
100
AcDbEntity
  8
CURVE
100
AcDbLine
 62
250
  6
CONTINUOUS
 10
-76.1948578515
 20
12.5918298218
 11
-76.1948578515
 21
12.9939711994
  0
LINE
  5
3D8
100
AcDbEntity
  8
CURVE
100
AcDbLine
 62
250
  6
CONTINUOUS
 10
-76.1948578515
 20
13.485381805
 11
-76.1948578515
 21
15.4877304705
  0
LINE
  5
3D9
100
AcDbEntity
  8
CURVE
100
AcDbLine
 62
250
  6
CONTINUOUS
 10
-75.8699788806
 20
15.4877304705
 11
-75.8699788806
 21
13.8712348833
  0
LINE
  5
3DA
100
AcDbEntity
  8
CURVE
100
AcDbLine
 62
250
  6
CONTINUOUS
 10
-75.8699788806
 20
10.1590207562
 11
-75.8699788806
 21
8.5424978768
  0
LINE
  5
3DB
100
AcDbEntity
  8
CURVE
100
AcDbLine
 62
7
  6
CONTINUOUS
 10
-76.1498857057
 20
6.9829064331
 11
-75.784315816
 21
7.3484763228
  0
LINE
  5
3DC
100
AcDbEntity
  8
CURVE
100
AcDbLine
 62
7
  6
CONTINUOUS
 10
-74.9761456345
 20
8.1566465043
 11
-74.590294262
 21
8.5424978768
  0
LINE
  5
3DD
100
AcDbEntity
  8
CURVE
100
AcDbLine
 62
7
  6
CONTINUOUS
 10
-73.6201789172
 20
9.5126132216
 11
-73.2952999463
 21
9.8374921926
  0
LINE
  5
3DE
100
AcDbEntity
  8
CURVE
100
AcDbLine
 62
7
  6
CONTINUOUS
 10
-75.6520825318
 20
6.9829064331
 11
-75.2865126421
 21
7.3484763228
  0
LINE
  5
3DF
100
AcDbEntity
  8
CURVE
100
AcDbLine
 62
7
  6
CONTINUOUS
 10
-74.4783424605
 20
8.1566465043
 11
-74.092491088
 21
8.5424978768
  0
LINE
  5
3E0
100
AcDbEntity
  8
CURVE
100
AcDbLine
 62
7
  6
CONTINUOUS
 10
-73.6201789172
 20
9.0148100477
 11
-73.2952999463
 21
9.3396890186
  0
LINE
  5
3E1
100
AcDbEntity
  8
CURVE
100
AcDbLine
 62
250
  6
CONTINUOUS
 10
-71.3304141707
 20
10.9428571105
 11
-71.6018013861
 21
10.6714286685
  0
LINE
  5
3E2
100
AcDbEntity
  8
CURVE
100
AcDbLine
 62
7
  6
CONTINUOUS
 10
-75.1542793578
 20
6.9829064331
 11
-74.7887094681
 21
7.3484763228
  0
LINE
  5
3E3
100
AcDbEntity
  8
CURVE
100
AcDbLine
 62
7
  6
CONTINUOUS
 10
-73.9805392866
 20
8.1566465043
 11
-73.2952999463
 21
8.8418858446
  0
LINE
  5
3E4
100
AcDbEntity
  8
CURVE
100
AcDbLine
 62
7
  6
CONTINUOUS
 10
-76.1948578515
 20
5.4445247654
 11
-76.1860406437
 21
5.4533419732
  0
LINE
  5
3E5
100
AcDbEntity
  8
CURVE
100
AcDbLine
 62
7
  6
CONTINUOUS
 10
-74.6564761838
 20
6.9829064331
 11
-74.2909062942
 21
7.3484763228
  0
LINE
  5
3E6
100
AcDbEntity
  8
CURVE
100
AcDbLine
 62
7
  6
CONTINUOUS
 10
-73.4827361126
 20
8.1566465043
 11
-73.2952999463
 21
8.3440826707
  0
LINE
  5
3E7
100
AcDbEntity
  8
CURVE
100
AcDbLine
 62
7
  6
CONTINUOUS
 10
-76.1041959968
 20
5.0373834462
 11
-74.765795633
 21
6.3757838099
  0
LINE
  5
3E8
100
AcDbEntity
  8
CURVE
100
AcDbLine
 62
7
  6
CONTINUOUS
 10
-74.1586730099
 20
6.9829064331
 11
-73.7931031202
 21
7.3484763228
  0
LINE
  5
3E9
100
AcDbEntity
  8
CURVE
100
AcDbLine
 62
250
  6
CONTINUOUS
 10
-70.78763974
 20
9.9928571105
 11
-70.516252468
 21
10.2642856658
  0
LINE
  5
3EA
100
AcDbEntity
  8
CURVE
100
AcDbLine
 62
250
  6
CONTINUOUS
 10
-71.6018013861
 20
9.0428571671
 11
-71.3304141707
 21
9.3142857224
  0
LINE
  5
3EB
100
AcDbEntity
  8
CURVE
100
AcDbLine
 62
7
  6
CONTINUOUS
 10
-75.6063928228
 20
5.0373834462
 11
-75.2408485196
 21
5.4029277495
  0
LINE
  5
3EC
100
AcDbEntity
  8
CURVE
100
AcDbLine
 62
7
  6
CONTINUOUS
 10
-74.5058831067
 20
6.1378931623
 11
-73.2952999463
 21
7.3484763228
  0
LINE
  5
3ED
100
AcDbEntity
  8
CURVE
100
AcDbLine
 62
250
  6
CONTINUOUS
 10
-71.3304141707
 20
9.3142857224
 11
-71.0590269553
 21
9.45
  0
LINE
  5
3EE
100
AcDbEntity
  8
CURVE
100
AcDbLine
 62
250
  6
CONTINUOUS
 10
-76.202514096
 20
-14.842748
 11
-74.2068970845
 21
-14.290021
  0
LWPOLYLINE
  5
3EF
100
AcDbEntity
  8
ASSI
100
AcDbPolyline
 62
7
  6
CONTINUOUS
 90
49
 70
0
 10
-66.5440635782
 20
-11.4236728618
 10
-66.6155117881
 20
-11.4265584139
 10
-66.68575606
 20
-11.4338752395
 10
-66.7547963939
 20
-11.4456233384
 10
-66.822816294
 20
-11.4618745384
 10
-66.8896322561
 20
-11.4825570117
 10
-66.9546937674
 20
-11.5074552756
 10
-67.0180386926
 20
-11.5366124635
 10
-67.079629167
 20
-11.569985442
 10
-67.1388010837
 20
-11.6072293267
 10
-67.1956064034
 20
-11.6484663746
 10
-67.2499931655
 20
-11.6935743287
 10
-67.3011413807
 20
-11.7418415343
 10
-67.3489827396
 20
-11.7932679425
 10
-67.3935855516
 20
-11.8478536021
 10
-67.4343347553
 20
-11.9048870052
 10
-67.4711550298
 20
-11.9643700399
 10
-67.5041216961
 20
-12.0263008181
 10
-67.5328456555
 20
-12.0899621677
 10
-67.5572664126
 20
-12.1553682874
 10
-67.5774444627
 20
-12.2225049785
 10
-67.5931721943
 20
-12.2906124722
 10
-67.6043987171
 20
-12.3597611131
 10
-67.6111749212
 20
-12.4298805566
 10
-67.6134458651
 20
-12.5000000001
 10
-67.6111749212
 20
-12.5701194436
 10
-67.604398717
 20
-12.6402388871
 10
-67.5931721942
 20
-12.709387528
 10
-67.5774444627
 20
-12.7774950217
 10
-67.5572664125
 20
-12.8446317127
 10
-67.5328456555
 20
-12.9100378324
 10
-67.5041216961
 20
-12.9736991819
 10
-67.4711550299
 20
-13.03562996
 10
-67.4343347553
 20
-13.0951129947
 10
-67.3935855516
 20
-13.1521463978
 10
-67.3489827396
 20
-13.2067320575
 10
-67.3011413806
 20
-13.2581584657
 10
-67.2499931654
 20
-13.3064256714
 10
-67.1956064033
 20
-13.3515336255
 10
-67.1388010834
 20
-13.3927706734
 10
-67.0796291668
 20
-13.4300145581
 10
-67.0180386925
 20
-13.4633875365
 10
-66.9546937673
 20
-13.4925447245
 10
-66.8896322561
 20
-13.5174429883
 10
-66.822816294
 20
-13.5381254616
 10
-66.7547963939
 20
-13.5543766616
 10
-66.68575606
 20
-13.5661247605
 10
-66.6155117881
 20
-13.573441586
 10
-66.5440635782
 20
-13.5763271382
  0
LINE
  5
3F0
100
AcDbEntity
  8
ASSI
100
AcDbLine
 62
7
  6
CONTINUOUS
 10
-41.7952999463
 20
-11.5339814634
 11
-66.5518448479
 21
-11.7500285577
  0
LINE
  5
3F1
100
AcDbEntity
  8
ASSI
100
AcDbLine
 62
7
  6
CONTINUOUS
 10
-41.7952999463
 20
-11.2655574881
 11
-66.5440635782
 21
-11.4236728618
  0
LINE
  5
3F2
100
AcDbEntity
  8
CURVE
100
AcDbLine
 62
250
  6
CONTINUOUS
 10
-76.2026880695
 20
-12.890935
 11
-73.3033027272
 21
-12.890935
  0
LINE
  5
3F3
100
AcDbEntity
  8
CURVE
100
AcDbLine
 62
250
  6
CONTINUOUS
 10
-73.3033027272
 20
-12.285664
 11
-76.2026880695
 21
-12.285664
  0
LINE
  5
3F4
100
AcDbEntity
  8
CURVE
100
AcDbLine
 62
250
  6
CONTINUOUS
 10
-75.1964333503
 20
-11.250162
 11
-73.3033027272
 21
-11.380779
  0
LINE
  5
3F5
100
AcDbEntity
  8
CURVE
100
AcDbLine
 62
250
  6
CONTINUOUS
 10
-73.3033027272
 20
-11.959827
 11
-76.202514096
 21
-11.698005
  0
LINE
  5
3F6
100
AcDbEntity
  8
CURVE
100
AcDbLine
 62
250
  6
CONTINUOUS
 10
-73.3033027272
 20
-8.924033
 11
-76.202514096
 21
-8.014517
  0
LINE
  5
3F7
100
AcDbEntity
  8
CURVE
100
AcDbLine
 62
250
  6
CONTINUOUS
 10
-75.1885415525
 20
-9.735548
 11
-73.3033027272
 21
-10.455216
  0
LWPOLYLINE
  5
3F8
100
AcDbEntity
  8
CURVE
100
AcDbPolyline
 62
250
  6
CONTINUOUS
 90
22
 70
0
 10
-75.7086045906
 20
-5.7788012718
 10
-75.7121373085
 20
-5.7576669794
 10
-75.7155100336
 20
-5.7365069869
 10
-75.7186957395
 20
-5.7153176235
 10
-75.7216673994
 20
-5.694095218
 10
-75.7243979868
 20
-5.6728360995
 10
-75.7268604751
 20
-5.6515365969
 10
-75.7291919534
 20
-5.6285001415
 10
-75.7311795216
 20
-5.6054195521
 10
-75.7328230677
 20
-5.5823020154
 10
-75.73412248
 20
-5.5591547184
 10
-75.7350776465
 20
-5.5359848478
 10
-75.7356884553
 20
-5.5127995905
 10
-75.7359547946
 20
-5.4896061331
 10
-75.7358765525
 20
-5.4664116625
 10
-75.7354536172
 20
-5.4432233656
 10
-75.7346858766
 20
-5.4200484291
 10
-75.7335732191
 20
-5.3968940398
 10
-75.7321155326
 20
-5.3737673846
 10
-75.7303127054
 20
-5.3506756501
 10
-75.7281646255
 20
-5.3276260233
 10
-75.7256711811
 20
-5.304625691
  0
LWPOLYLINE
  5
3F9
100
AcDbEntity
  8
CURVE
100
AcDbPolyline
 62
250
  6
CONTINUOUS
 90
66
 70
0
 10
-75.2943861157
 20
1.9999999993
 10
-75.2922223799
 20
1.9076468449
 10
-75.2857974999
 20
1.8151130512
 10
-75.2752109666
 20
1.7224931638
 10
-75.2605622711
 20
1.6298817288
 10
-75.2419509042
 20
1.5373732921
 10
-75.2194763571
 20
1.4450623995
 10
-75.1932381205
 20
1.353043597
 10
-75.1633356856
 20
1.2614114305
 10
-75.1298685434
 20
1.1702604459
 10
-75.0929361847
 20
1.0796851892
 10
-75.0526381005
 20
0.9897802061
 10
-75.009073782
 20
0.9006400428
 10
-74.9623427199
 20
0.812359245
 10
-74.9125444053
 20
0.7250323586
 10
-74.8597783292
 20
0.6387539297
 10
-74.8041439826
 20
0.5536185041
 10
-74.7457408564
 20
0.4697206276
 10
-74.6846684416
 20
0.3871548464
 10
-74.6210262292
 20
0.3060157061
 10
-74.5549137102
 20
0.2263977528
 10
-74.4864303755
 20
0.1483955324
 10
-74.4156757161
 20
0.0721035908
 10
-74.3427492231
 20
-0.0023835262
 10
-74.2677503873
 20
-0.0749712725
 10
-74.1907786998
 20
-0.1455651023
 10
-74.1119336515
 20
-0.2140704697
 10
-74.0313147334
 20
-0.2803928287
 10
-73.9490214365
 20
-0.3444376335
 10
-73.8651532518
 20
-0.4061103381
 10
-73.7798096702
 20
-0.4653163966
 10
-73.6930901828
 20
-0.5219612631
 10
-73.6050942804
 20
-0.5759503918
 10
-73.5159214542
 20
-0.6271892365
 10
-73.425671195
 20
-0.6755832516
 10
-73.3344429938
 20
-0.7210378909
 10
-73.2423363416
 20
-0.7634586088
 10
-73.1494507295
 20
-0.8027508591
 10
-73.0558856483
 20
-0.8388200961
 10
-72.961740589
 20
-0.8715717737
 10
-72.8671150427
 20
-0.9009113461
 10
-72.7721085003
 20
-0.9267442674
 10
-72.6768204527
 20
-0.9489759917
 10
-72.5813503911
 20
-0.967511973
 10
-72.4857978062
 20
-0.9822576654
 10
-72.3902621892
 20
-0.993118523
 10
-72.294843031
 20
-1.0
 10
-72.1949143965
 20
-1.0028791518
 10
-72.0953178045
 20
-1.0014004165
 10
-71.9961473598
 20
-0.9956946415
 10
-71.897497167
 20
-0.9858926739
 10
-71.7994613309
 20
-0.9721253611
 10
-71.7021339562
 20
-0.9545235505
 10
-71.6056091476
 20
-0.9332180893
 10
-71.5099810098
 20
-0.908339825
 10
-71.4153436476
 20
-0.8800196046
 10
-71.3217911656
 20
-0.8483882757
 10
-71.2294176685
 20
-0.8135766855
 10
-71.1383172611
 20
-0.7757156814
 10
-71.0485840482
 20
-0.7349361105
 10
-70.9603121343
 20
-0.6913688203
 10
-70.8735956242
 20
-0.6451446581
 10
-70.7885286227
 20
-0.5963944712
 10
-70.7052052345
 20
-0.5452491069
 10
-70.6237195642
 20
-0.4918394125
 10
-70.5441657166
 20
-0.4362962353
  0
LWPOLYLINE
  5
3FA
100
AcDbEntity
  8
CURVE
100
AcDbPolyline
 62
250
  6
CONTINUOUS
 90
44
 70
0
 10
-73.7946145733
 20
1.9999999993
 10
-73.7939868717
 20
1.9620270391
 10
-73.7921180152
 20
1.9238956667
 10
-73.7890293761
 20
1.8856389213
 10
-73.7847423271
 20
1.8472898427
 10
-73.7792782406
 20
1.8088814701
 10
-73.772658489
 20
1.7704468432
 10
-73.7649044449
 20
1.7320190013
 10
-73.7560374807
 20
1.6936309841
 10
-73.7460789689
 20
1.655315831
 10
-73.7350502819
 20
1.6171065814
 10
-73.7229727923
 20
1.5790362749
 10
-73.7098678725
 20
1.541137951
 10
-73.6957568949
 20
1.5034446492
 10
-73.6806612321
 20
1.4659894089
 10
-73.6646022566
 20
1.4288052696
 10
-73.6476013407
 20
1.3919252709
 10
-73.629679857
 20
1.3553824521
 10
-73.610859178
 20
1.3192098529
 10
-73.5911606761
 20
1.2834405127
 10
-73.5706057239
 20
1.248107471
 10
-73.5492156936
 20
1.2132437673
 10
-73.527011958
 20
1.1788824411
 10
-73.5040158894
 20
1.1450565318
 10
-73.4802488602
 20
1.111799079
 10
-73.4557322431
 20
1.0791431222
 10
-73.4304874104
 20
1.0471217008
 10
-73.4045357346
 20
1.0157678543
 10
-73.3778985882
 20
0.9851146223
 10
-73.3505973437
 20
0.9551950441
 10
-73.3226533735
 20
0.9260421594
 10
-73.2940880501
 20
0.8976890076
 10
-73.2649227461
 20
0.8701686282
 10
-73.2351788338
 20
0.8435140606
 10
-73.2048776857
 20
0.8177583444
 10
-73.1740406744
 20
0.7929345191
 10
-73.1426891723
 20
0.7690756242
 10
-73.1108445518
 20
0.7462146991
 10
-73.0785281855
 20
0.7243847833
 10
-73.0457614458
 20
0.7036189163
 10
-73.0125657051
 20
0.6839501377
 10
-72.9789623361
 20
0.6654114869
 10
-72.944972711
 20
0.6480360034
 10
-72.9106182025
 20
0.6318567267
  0
LINE
  5
3FB
100
AcDbEntity
  8
CURVE
100
AcDbLine
 62
250
  6
CONTINUOUS
 10
-75.6222481978
 20
5.411072752
 11
-75.6222481978
 21
5.4029277495
  0
LINE
  5
3FC
100
AcDbEntity
  8
CURVE
100
AcDbLine
 62
250
  6
CONTINUOUS
 10
-74.9481152513
 20
8.5424978768
 11
-74.9481152513
 21
10.0493625825
  0
LINE
  5
3FD
100
AcDbEntity
  8
CURVE
100
AcDbLine
 62
250
  6
CONTINUOUS
 10
-74.9481152513
 20
13.8712348833
 11
-74.9481152513
 21
15.3781524675
  0
LINE
  5
3FE
100
AcDbEntity
  8
CURVE
100
AcDbLine
 62
250
  6
CONTINUOUS
 10
-74.9127144698
 20
-5.4328946758
 11
-74.9127144698
 21
-5.7788012718
  0
LINE
  5
3FF
100
AcDbEntity
  8
ASSI
100
AcDbLine
 62
7
  6
CONTINUOUS
 10
-74.7952999463
 20
-21.3965394526
 11
-74.7952999463
 21
-23.4301797403
  0
LINE
  5
400
100
AcDbEntity
  8
ASSI
100
AcDbLine
 62
7
  6
CONTINUOUS
 10
-74.7952999463
 20
21.3965394526
 11
-74.7952999463
 21
23.4301797403
  0
LINE
  5
401
100
AcDbEntity
  8
CURVE
100
AcDbLine
 62
250
  6
CONTINUOUS
 10
-74.6232362804
 20
15.3781524675
 11
-74.6232362804
 21
13.8712348833
  0
LINE
  5
402
100
AcDbEntity
  8
CURVE
100
AcDbLine
 62
250
  6
CONTINUOUS
 10
-74.6232362804
 20
10.0493625825
 11
-74.6232362804
 21
8.5424978768
  0
LINE
  5
403
100
AcDbEntity
  8
CURVE
100
AcDbLine
 62
250
  6
CONTINUOUS
 10
-74.4378936592
 20
-5.7587313832
 11
-74.4378936592
 21
-5.4341993273
  0
LINE
  5
404
100
AcDbEntity
  8
CURVE
100
AcDbLine
 62
250
  6
CONTINUOUS
 10
-74.32995034
 20
-8.0345
 11
-74.32995034
 21
-7.454996
  0
LINE
  5
405
100
AcDbEntity
  8
CURVE
100
AcDbLine
 62
250
  6
CONTINUOUS
 10
-73.8820885619
 20
-7.334033
 11
-73.8820885619
 21
-8.158312
  0
LINE
  5
406
100
AcDbEntity
  8
CURVE
100
AcDbLine
 62
250
  6
CONTINUOUS
 10
-73.8435328899
 20
6.9747887227
 11
-73.8435328899
 21
6.9829064331
  0
LINE
  5
407
100
AcDbEntity
  8
CURVE
100
AcDbLine
 62
250
  6
CONTINUOUS
 10
-73.6810925517
 20
11.7470386853
 11
-73.6810925517
 21
11.7551819821
  0
LINE
  5
408
100
AcDbEntity
  8
CURVE
100
AcDbLine
 62
250
  6
CONTINUOUS
 10
-73.6201789172
 20
8.5424978768
 11
-73.6201789172
 21
10.171210115
  0
LINE
  5
409
100
AcDbEntity
  8
CURVE
100
AcDbLine
 62
250
  6
CONTINUOUS
 10
-73.6201789172
 20
13.8712348833
 11
-73.6201789172
 21
15.5
  0
LWPOLYLINE
  5
40A
100
AcDbEntity
  8
CURVE
100
AcDbPolyline
 62
250
  6
CONTINUOUS
 90
48
 70
0
 10
-74.4378936592
 20
-5.4341993273
 10
-74.4377753531
 20
-5.4248799094
 10
-74.4374191445
 20
-5.4155439447
 10
-74.4368230977
 20
-5.4062010248
 10
-74.4359852769
 20
-5.3968607414
 10
-74.4349037466
 20
-5.3875326859
 10
-74.4335765709
 20
-5.3782264502
 10
-74.4320018142
 20
-5.3689516259
 10
-74.4301775408
 20
-5.3597178045
 10
-74.4281018151
 20
-5.3505345776
 10
-74.4257727012
 20
-5.3414115371
 10
-74.4231882637
 20
-5.3323582743
 10
-74.4203465666
 20
-5.3233843811
 10
-74.4172456744
 20
-5.314499449
 10
-74.4138836514
 20
-5.3057130697
 10
-74.4102585619
 20
-5.2970348348
 10
-74.4063684702
 20
-5.2884743359
 10
-74.4022114405
 20
-5.2800411646
 10
-74.3976710568
 20
-5.2715340296
 10
-74.3928566974
 20
-5.2631728932
 10
-74.3877771351
 20
-5.2549597691
 10
-74.3824411429
 20
-5.2468966709
 10
-74.3768574935
 20
-5.2389856123
 10
-74.3710349598
 20
-5.231228607
 10
-74.3649823148
 20
-5.2236276687
 10
-74.3587083312
 20
-5.216184811
 10
-74.3522217819
 20
-5.2089020477
 10
-74.3455314399
 20
-5.2017813924
 10
-74.3386460779
 20
-5.1948248588
 10
-74.3315744689
 20
-5.1880344605
 10
-74.3243253856
 20
-5.1814122113
 10
-74.316907601
 20
-5.1749601249
 10
-74.309329888
 20
-5.1686802148
 10
-74.3016010193
 20
-5.1625744949
 10
-74.2937297679
 20
-5.1566449787
 10
-74.2857249066
 20
-5.15089368
 10
-74.2775952083
 20
-5.1453226124
 10
-74.2693494459
 20
-5.1399337896
 10
-74.2609963922
 20
-5.1347292253
 10
-74.25254482
 20
-5.1297109331
 10
-74.2440035023
 20
-5.1248809268
 10
-74.2353812119
 20
-5.1202412201
 10
-74.2266867218
 20
-5.1157938265
 10
-74.2179288046
 20
-5.1115407598
 10
-74.2091162334
 20
-5.1074840337
 10
-74.2002577809
 20
-5.1036256618
 10
-74.1913622201
 20
-5.0999676579
 10
-74.1824383238
 20
-5.0965120355
  0
LWPOLYLINE
  5
40B
100
AcDbEntity
  8
CURVE
100
AcDbPolyline
 62
250
  6
CONTINUOUS
 90
49
 70
0
 10
-75.7256711811
 20
-5.304625691
 10
-75.7242337971
 20
-5.2935325577
 10
-75.722496602
 20
-5.2824386681
 10
-75.7204604385
 20
-5.2713562406
 10
-75.7181261496
 20
-5.2602974936
 10
-75.715494578
 20
-5.2492746456
 10
-75.7125665667
 20
-5.2382999149
 10
-75.7093429583
 20
-5.22738552
 10
-75.7058245959
 20
-5.2165436793
 10
-75.7020123221
 20
-5.2057866112
 10
-75.6979069799
 20
-5.1951265341
 10
-75.6935094122
 20
-5.1845756664
 10
-75.6888204616
 20
-5.1741462266
 10
-75.6838409712
 20
-5.1638504331
 10
-75.6785717836
 20
-5.1537005042
 10
-75.6730137419
 20
-5.1437086584
 10
-75.6671676887
 20
-5.1338871141
 10
-75.661034467
 20
-5.1242480897
 10
-75.6546149195
 20
-5.1148038037
 10
-75.6479098892
 20
-5.1055664744
 10
-75.6409202189
 20
-5.0965483203
 10
-75.6336467514
 20
-5.0877615598
 10
-75.6260903295
 20
-5.0792184112
 10
-75.6182517961
 20
-5.0709310931
 10
-75.610131994
 20
-5.0629118238
 10
-75.6017798356
 20
-5.0552123402
 10
-75.5931633685
 20
-5.0477936213
 10
-75.5842956955
 20
-5.0406591771
 10
-75.5751899191
 20
-5.0338125182
 10
-75.565859142
 20
-5.0272571546
 10
-75.5563164668
 20
-5.0209965967
 10
-75.546574996
 20
-5.0150343547
 10
-75.5366478324
 20
-5.0093739389
 10
-75.5265480785
 20
-5.0040188595
 10
-75.5162888369
 20
-4.9989726269
 10
-75.5058832103
 20
-4.9942387513
 10
-75.4953443013
 20
-4.989820743
 10
-75.4846852125
 20
-4.9857221121
 10
-75.4739190465
 20
-4.9819463691
 10
-75.463058906
 20
-4.9784970241
 10
-75.4521178935
 20
-4.9753775875
 10
-75.4411091117
 20
-4.9725915695
 10
-75.4300456632
 20
-4.9701424803
 10
-75.4189406506
 20
-4.9680338302
 10
-75.4078071766
 20
-4.9662691295
 10
-75.3966583436
 20
-4.9648518885
 10
-75.3855072545
 20
-4.9637856174
 10
-75.3743670117
 20
-4.9630738265
 10
-75.363250718
 20
-4.9627200261
  0
LWPOLYLINE
  5
40C
100
AcDbEntity
  8
0
100
AcDbPolyline
 62
7
  6
CONTINUOUS
 90
3
 70
0
 43
0.3500000019
 10
-63.902442688
 20
35.3195793457
 10
-63.973871521
 20
35.1052915039
 10
-64.1167285156
 20
34.8195788574
  0
LWPOLYLINE
  5
40D
100
AcDbEntity
  8
CURVE
100
AcDbPolyline
 62
250
  6
CONTINUOUS
 90
32
 70
0
 10
-76.1381174081
 20
-4.8678501192
 10
-76.1501740676
 20
-4.9028869353
 10
-76.1611940883
 20
-4.9382601325
 10
-76.1712277576
 20
-4.9739400017
 10
-76.1803253628
 20
-5.0098968338
 10
-76.1885371912
 20
-5.0461009196
 10
-76.1959135299
 20
-5.0825225499
 10
-76.2025046664
 20
-5.1191320158
 10
-76.2083608878
 20
-5.1558996079
 10
-76.2135324815
 20
-5.1927956172
 10
-76.2180697347
 20
-5.2297903346
 10
-76.2220229347
 20
-5.266854051
 10
-76.2254423687
 20
-5.3039570571
 10
-76.2296694845
 20
-5.3597843467
 10
-76.2328467362
 20
-5.4156273306
 10
-76.2350178914
 20
-5.4714800315
 10
-76.2362267177
 20
-5.5273364723
 10
-76.2365169827
 20
-5.5831906757
 10
-76.235932454
 20
-5.6390366644
 10
-76.2345168991
 20
-5.6948684612
 10
-76.2323140857
 20
-5.7506800889
 10
-76.2293677813
 20
-5.8064655703
 10
-76.2257217536
 20
-5.8622189281
 10
-76.22141977
 20
-5.9179341851
 10
-76.2165055982
 20
-5.973605364
 10
-76.2110230058
 20
-6.0292264877
 10
-76.2050157604
 20
-6.0847915789
 10
-76.1985276295
 20
-6.1402946604
 10
-76.1916023808
 20
-6.1957297549
 10
-76.1842837817
 20
-6.2510908852
 10
-76.1766156
 20
-6.3063720741
 10
-76.1686416031
 20
-6.3615673443
  0
LINE
  5
40E
100
AcDbEntity
  8
CURVE
100
AcDbLine
 62
7
  6
CONTINUOUS
 10
-75.1085896489
 20
5.0373834462
 11
-74.7430453456
 21
5.4029277495
  0
LINE
  5
40F
100
AcDbEntity
  8
CURVE
100
AcDbLine
 62
7
  6
CONTINUOUS
 10
-74.6107864749
 20
5.0373834462
 11
-74.2452421716
 21
5.4029277495
  0
LINE
  5
410
100
AcDbEntity
  8
CURVE
100
AcDbLine
 62
7
  6
CONTINUOUS
 10
-74.112983301
 20
5.0373834462
 11
-73.7474389977
 21
5.4029277495
  0
LINE
  5
411
100
AcDbEntity
  8
CURVE
100
AcDbLine
 62
7
  6
CONTINUOUS
 10
-73.615180127
 20
5.0373834462
 11
-73.2952999463
 21
5.357263627
  0
LINE
  5
412
100
AcDbEntity
  8
CURVE
100
AcDbLine
 62
250
  6
CONTINUOUS
 10
-69.7020907653
 20
8.9071428612
 11
-69.9734780089
 21
8.6357142918
  0
LINE
  5
413
100
AcDbEntity
  8
CURVE
100
AcDbLine
 62
250
  6
CONTINUOUS
 10
-73.2952999463
 20
6.9260551681
 11
-75.6222481978
 21
5.411072752
  0
LINE
  5
414
100
AcDbEntity
  8
CURVE
100
AcDbLine
 62
250
  6
CONTINUOUS
 10
-76.1948578515
 20
5.447615242
 11
-73.8435328899
 21
6.9747887227
  0
LINE
  5
415
100
AcDbEntity
  8
CURVE
100
AcDbLine
 62
250
  6
CONTINUOUS
 10
-69.9734780089
 20
8.6357142918
 11
-70.2448652526
 21
8.5
  0
LINE
  5
416
100
AcDbEntity
  8
CURVE
100
AcDbLine
 62
250
  6
CONTINUOUS
 10
-73.3033027272
 20
-9.611193
 11
-75.1885415525
 21
-9.735548
  0
LINE
  5
417
100
AcDbEntity
  8
ASSI
100
AcDbLine
 62
7
  6
CONTINUOUS
 10
-41.7952999463
 20
-8.7344425119
 11
-66.5440635782
 21
-8.5763271382
  0
LINE
  5
418
100
AcDbEntity
  8
CURVE
100
AcDbLine
 62
250
  6
CONTINUOUS
 10
-75.4058844451
 20
-7.733126
 11
-74.32995034
 21
-8.0345
  0
LINE
  5
419
100
AcDbEntity
  8
CURVE
100
AcDbLine
 62
250
  6
CONTINUOUS
 10
-73.8820885619
 20
-8.158312
 11
-73.3033027272
 21
-8.325329
  0
LWPOLYLINE
  5
41A
100
AcDbEntity
  8
CURVE
100
AcDbPolyline
 62
250
  6
CONTINUOUS
 90
73
 70
0
 10
-74.673760462
 20
-4.80544429
 10
-74.6755730385
 20
-4.7955681361
 10
-74.678351457
 20
-4.7859822895
 10
-74.6819885065
 20
-4.7766624843
 10
-74.6863769763
 20
-4.7675844547
 10
-74.6914096555
 20
-4.7587239347
 10
-74.6969793331
 20
-4.7500566584
 10
-74.7029787984
 20
-4.7415583598
 10
-74.7093008405
 20
-4.7332047732
 10
-74.7158382485
 20
-4.7249716324
 10
-74.7224838115
 20
-4.7168346717
 10
-74.7392828333
 20
-4.696676441
 10
-74.7561735517
 20
-4.6770003765
 10
-74.7732416753
 20
-4.6578325755
 10
-74.790572913
 20
-4.639199135
 10
-74.8082529735
 20
-4.621126152
 10
-74.8263675654
 20
-4.6036397235
 10
-74.8450023976
 20
-4.5867659468
 10
-74.8642431787
 20
-4.5705309187
 10
-74.8857754867
 20
-4.5537407903
 10
-74.9080554851
 20
-4.5377390733
 10
-74.9310240653
 20
-4.5225386554
 10
-74.9546221189
 20
-4.5081524242
 10
-74.978790537
 20
-4.4945932675
 10
-75.0034702112
 20
-4.4818740729
 10
-75.0286020329
 20
-4.4700077281
 10
-75.0541268934
 20
-4.4590071208
 10
-75.0799856842
 20
-4.4488851387
 10
-75.1061192966
 20
-4.4396546695
 10
-75.1324520481
 20
-4.4313316319
 10
-75.1589849292
 20
-4.4238997742
 10
-75.1857027457
 20
-4.4173475077
 10
-75.2125903034
 20
-4.4116632441
 10
-75.2396324083
 20
-4.4068353946
 10
-75.266813866
 20
-4.4028523708
 10
-75.2980359742
 20
-4.3993188248
 10
-75.3293807006
 20
-4.3968554375
 10
-75.3608084006
 20
-4.3954434132
 10
-75.3922794297
 20
-4.3950639564
 10
-75.4237541436
 20
-4.3956982713
 10
-75.4551928978
 20
-4.3973275625
 10
-75.4857749963
 20
-4.399864942
 10
-75.516248072
 20
-4.4033646499
 10
-75.546574982
 20
-4.4078609201
 10
-75.5767185835
 20
-4.4133879866
 10
-75.6066417336
 20
-4.4199800835
 10
-75.6333201425
 20
-4.4268399201
 10
-75.659757986
 20
-4.4345946139
 10
-75.6859228426
 20
-4.4432507812
 10
-75.7117822911
 20
-4.4528150388
 10
-75.7373039105
 20
-4.463294003
 10
-75.7646645399
 20
-4.4757433907
 10
-75.791540874
 20
-4.4892582787
 10
-75.817887396
 20
-4.5038123201
 10
-75.8436585891
 20
-4.5193791685
 10
-75.8688089364
 20
-4.535932477
 10
-75.8932929211
 20
-4.553445899
 10
-75.9170650265
 20
-4.571893088
 10
-75.9400797358
 20
-4.591247697
 10
-75.9610836516
 20
-4.6103363322
 10
-75.9813548593
 20
-4.6301841074
 10
-76.0008768732
 20
-4.6507642192
 10
-76.019633207
 20
-4.6720498642
 10
-76.0376073751
 20
-4.6940142387
 10
-76.0547828913
 20
-4.7166305395
 10
-76.0711432697
 20
-4.739871963
 10
-76.0825360107
 20
-4.7571931602
 10
-76.093424474
 20
-4.7748332119
 10
-76.1037462247
 20
-4.7927930849
 10
-76.1134388281
 20
-4.8110737455
 10
-76.1224398497
 20
-4.8296761604
 10
-76.1306868546
 20
-4.8486012961
 10
-76.1381174081
 20
-4.8678501192
  0
LINE
  5
41B
100
AcDbEntity
  8
CURVE
100
AcDbLine
 62
250
  6
CONTINUOUS
 10
-73.3033027272
 20
-12.890935
 11
-73.3033027272
 21
-12.285664
  0
LINE
  5
41C
100
AcDbEntity
  8
CURVE
100
AcDbLine
 62
250
  6
CONTINUOUS
 10
-73.3033027272
 20
-6.539304
 11
-73.3033027272
 21
-7.177235
  0
LINE
  5
41D
100
AcDbEntity
  8
CURVE
100
AcDbLine
 62
250
  6
CONTINUOUS
 10
-73.3033027272
 20
-8.325329
 11
-73.3033027272
 21
-8.924033
  0
LINE
  5
41E
100
AcDbEntity
  8
CURVE
100
AcDbLine
 62
250
  6
CONTINUOUS
 10
-73.3033027272
 20
-9.019077
 11
-73.3033027272
 21
-9.611193
  0
LINE
  5
41F
100
AcDbEntity
  8
CURVE
100
AcDbLine
 62
250
  6
CONTINUOUS
 10
-73.3033027272
 20
-10.455216
 11
-73.3033027272
 21
-10.540105
  0
LINE
  5
420
100
AcDbEntity
  8
CURVE
100
AcDbLine
 62
250
  6
CONTINUOUS
 10
-73.3033027272
 20
-11.380779
 11
-73.3033027272
 21
-11.959827
  0
LINE
  5
421
100
AcDbEntity
  8
CURVE
100
AcDbLine
 62
250
  6
CONTINUOUS
 10
-73.3033027272
 20
-14.047617
 11
-73.3033027272
 21
-14.581013
  0
LINE
  5
422
100
AcDbEntity
  8
CURVE
100
AcDbLine
 62
250
  6
CONTINUOUS
 10
-73.303302375
 20
-6.3615673443
 11
-73.303302375
 21
-5.7587313832
  0
LINE
  5
423
100
AcDbEntity
  8
CURVE
100
AcDbLine
 62
250
  6
CONTINUOUS
 10
-73.303302375
 20
-4.8318417383
 11
-73.303302375
 21
-4.2496410148
  0
LINE
  5
424
100
AcDbEntity
  8
CURVE
100
AcDbLine
 62
250
  6
CONTINUOUS
 10
-73.2952999463
 20
15.5
 11
-73.2952999463
 21
13.485381805
  0
LINE
  5
425
100
AcDbEntity
  8
CURVE
100
AcDbLine
 62
250
  6
CONTINUOUS
 10
-73.2952999463
 20
11.9622816785
 11
-73.2952999463
 21
11.5236489837
  0
LINE
  5
426
100
AcDbEntity
  8
CURVE
100
AcDbLine
 62
250
  6
CONTINUOUS
 10
-73.2952999463
 20
10.171210115
 11
-73.2952999463
 21
8.1566465043
  0
LINE
  5
427
100
AcDbEntity
  8
CURVE
100
AcDbLine
 62
250
  6
CONTINUOUS
 10
-73.2952999463
 20
7.3484763228
 11
-73.2952999463
 21
6.9260551681
  0
LINE
  5
428
100
AcDbEntity
  8
CURVE
100
AcDbLine
 62
250
  6
CONTINUOUS
 10
-73.2952999463
 20
5.4029277495
 11
-73.2952999463
 21
5.0373834462
  0
LINE
  5
429
100
AcDbEntity
  8
ASSI
100
AcDbLine
 62
7
  6
CONTINUOUS
 10
-73.1952999463
 20
22.2
 11
-73.1952999463
 21
21.1720718961
  0
LINE
  5
42A
100
AcDbEntity
  8
ASSI
100
AcDbLine
 62
7
  6
CONTINUOUS
 10
-73.1952999463
 20
-22.2
 11
-73.1952999463
 21
-21.1720718961
  0
LINE
  5
42B
100
AcDbEntity
  8
CURVE
100
AcDbLine
 62
250
  6
CONTINUOUS
 10
-71.6018013861
 20
15.15
 11
-71.6018013861
 21
14.742857337
  0
LINE
  5
42C
100
AcDbEntity
  8
CURVE
100
AcDbLine
 62
250
  6
CONTINUOUS
 10
-71.6018013861
 20
13.657142663
 11
-71.6018013861
 21
13.25
  0
LINE
  5
42D
100
AcDbEntity
  8
CURVE
100
AcDbLine
 62
250
  6
CONTINUOUS
 10
-71.6018013861
 20
12.164285779
 11
-71.6018013861
 21
11.7571428895
  0
LINE
  5
42E
100
AcDbEntity
  8
CURVE
100
AcDbLine
 62
250
  6
CONTINUOUS
 10
-71.6018013861
 20
10.6714286685
 11
-71.6018013861
 21
10.2642856658
  0
LINE
  5
42F
100
AcDbEntity
  8
CURVE
100
AcDbLine
 62
250
  6
CONTINUOUS
 10
-71.6018013861
 20
8.9071428612
 11
-71.6018013861
 21
9.0428571671
  0
LWPOLYLINE
  5
430
100
AcDbEntity
  8
CURVE
100
AcDbPolyline
 62
250
  6
CONTINUOUS
 90
37
 70
0
 10
-73.3445049443
 20
2.9901243152
 10
-73.3668153737
 20
2.9663885582
 10
-73.3886957387
 20
2.9422933297
 10
-73.4101345373
 20
2.9178513508
 10
-73.4311202672
 20
2.893075343
 10
-73.4516414264
 20
2.8679780275
 10
-73.4716865128
 20
2.8425721255
 10
-73.491244024
 20
2.8168703585
 10
-73.5103024581
 20
2.7908854477
 10
-73.5288503129
 20
2.7646301143
 10
-73.5468760862
 20
2.7381170797
 10
-73.5643682759
 20
2.7113590651
 10
-73.5813153798
 20
2.6843687919
 10
-73.5977058958
 20
2.6571589813
 10
-73.6135283218
 20
2.6297423547
 10
-73.6287711556
 20
2.6021316333
 10
-73.6434228951
 20
2.5743395384
 10
-73.6574720381
 20
2.5463787913
 10
-73.6709070824
 20
2.5182621133
 10
-73.683716526
 20
2.4900022258
 10
-73.6958888667
 20
2.4616118499
 10
-73.7074126024
 20
2.433103707
 10
-73.7182762308
 20
2.4044905183
 10
-73.7284682499
 20
2.3757850052
 10
-73.7379771576
 20
2.346999889
 10
-73.7467914516
 20
2.3181478909
 10
-73.7548996298
 20
2.2892417323
 10
-73.7622901902
 20
2.2602941344
 10
-73.7689516304
 20
2.2313178185
 10
-73.7748724485
 20
2.2023255059
 10
-73.7800411422
 20
2.1733299179
 10
-73.7844462095
 20
2.1443437759
 10
-73.7880761481
 20
2.115379801
 10
-73.7909194559
 20
2.0864507146
 10
-73.7929646308
 20
2.057569238
 10
-73.7942001707
 20
2.0287480924
 10
-73.7946145733
 20
1.9999999993
  0
LINE
  5
431
100
AcDbEntity
  8
CURVE
100
AcDbLine
 62
250
  6
CONTINUOUS
 10
-76.202514096
 20
-9.290227
 11
-73.3033027272
 21
-9.019077
  0
LWPOLYLINE
  5
432
100
AcDbEntity
  8
ASSI
100
AcDbPolyline
 62
7
  6
CONTINUOUS
 90
49
 70
0
 10
-66.5440635782
 20
-6.4236728618
 10
-66.6155117881
 20
-6.4265584139
 10
-66.68575606
 20
-6.4338752395
 10
-66.7547963939
 20
-6.4456233384
 10
-66.822816294
 20
-6.4618745384
 10
-66.8896322561
 20
-6.4825570117
 10
-66.9546937674
 20
-6.5074552756
 10
-67.0180386926
 20
-6.5366124635
 10
-67.079629167
 20
-6.569985442
 10
-67.1388010837
 20
-6.6072293267
 10
-67.1956064034
 20
-6.6484663746
 10
-67.2499931655
 20
-6.6935743287
 10
-67.3011413807
 20
-6.7418415343
 10
-67.3489827396
 20
-6.7932679425
 10
-67.3935855516
 20
-6.8478536021
 10
-67.4343347553
 20
-6.9048870052
 10
-67.4711550298
 20
-6.9643700399
 10
-67.5041216961
 20
-7.0263008181
 10
-67.5328456555
 20
-7.0899621677
 10
-67.5572664126
 20
-7.1553682874
 10
-67.5774444627
 20
-7.2225049785
 10
-67.5931721943
 20
-7.2906124722
 10
-67.6043987171
 20
-7.3597611131
 10
-67.6111749212
 20
-7.4298805566
 10
-67.6134458651
 20
-7.5000000001
 10
-67.6111749212
 20
-7.5701194436
 10
-67.604398717
 20
-7.6402388871
 10
-67.5931721942
 20
-7.709387528
 10
-67.5774444627
 20
-7.7774950217
 10
-67.5572664125
 20
-7.8446317127
 10
-67.5328456555
 20
-7.9100378324
 10
-67.5041216961
 20
-7.9736991819
 10
-67.4711550299
 20
-8.03562996
 10
-67.4343347553
 20
-8.0951129947
 10
-67.3935855516
 20
-8.1521463978
 10
-67.3489827396
 20
-8.2067320575
 10
-67.3011413806
 20
-8.2581584657
 10
-67.2499931654
 20
-8.3064256714
 10
-67.1956064033
 20
-8.3515336255
 10
-67.1388010834
 20
-8.3927706734
 10
-67.0796291668
 20
-8.4300145581
 10
-67.0180386925
 20
-8.4633875365
 10
-66.9546937673
 20
-8.4925447245
 10
-66.8896322561
 20
-8.5174429883
 10
-66.822816294
 20
-8.5381254616
 10
-66.7547963939
 20
-8.5543766616
 10
-66.68575606
 20
-8.5661247605
 10
-66.6155117881
 20
-8.573441586
 10
-66.5440635782
 20
-8.5763271382
  0
LINE
  5
433
100
AcDbEntity
  8
ASSI
100
AcDbLine
 62
7
  6
CONTINUOUS
 10
-41.7952999463
 20
-6.5339814634
 11
-66.5518448479
 21
-6.7500285577
  0
LINE
  5
434
100
AcDbEntity
  8
ASSI
100
AcDbLine
 62
7
  6
CONTINUOUS
 10
-41.7952999463
 20
-6.2655574881
 11
-66.5440635782
 21
-6.4236728618
  0
LINE
  5
435
100
AcDbEntity
  8
CURVE
100
AcDbLine
 62
250
  6
CONTINUOUS
 10
-76.1686416031
 20
-6.3615673443
 11
-73.303302375
 21
-6.3615673443
  0
LINE
  5
436
100
AcDbEntity
  8
ASSI
100
AcDbLine
 62
7
  6
CONTINUOUS
 10
-66.5518448479
 20
-8.2499714423
 11
-41.7952999463
 21
-8.4660185366
  0
LINE
  5
437
100
AcDbEntity
  8
CURVE
100
AcDbLine
 62
250
  6
CONTINUOUS
 10
-70.516252468
 20
10.2642856658
 11
-70.516252468
 21
10.8523810387
  0
LINE
  5
438
100
AcDbEntity
  8
CURVE
100
AcDbLine
 62
250
  6
CONTINUOUS
 10
-70.516252468
 20
13.25
 11
-70.516252468
 21
13.8380952597
  0
LINE
  5
439
100
AcDbEntity
  8
CURVE
100
AcDbLine
 62
250
  6
CONTINUOUS
 10
-69.7020907653
 20
15.421428442
 11
-69.7020907653
 21
14.471428442
  0
LINE
  5
43A
100
AcDbEntity
  8
CURVE
100
AcDbLine
 62
250
  6
CONTINUOUS
 10
-69.7020907653
 20
12.435714221
 11
-69.7020907653
 21
11.485714221
  0
LINE
  5
43B
100
AcDbEntity
  8
CURVE
100
AcDbLine
 62
250
  6
CONTINUOUS
 10
-69.7020907653
 20
9.0428571671
 11
-69.7020907653
 21
8.9071428612
  0
LINE
  5
43C
100
AcDbEntity
  8
CURVE
100
AcDbLine
 62
250
  6
CONTINUOUS
 10
-69.2952999463
 20
-1.0
 11
-69.2952999463
 21
-0.000000718
  0
LWPOLYLINE
  5
43D
100
AcDbEntity
  8
CURVE
100
AcDbPolyline
 62
250
  6
CONTINUOUS
 90
33
 70
0
 10
-70.295148
 20
1.9999999993
 10
-70.2956625583
 20
1.9569949371
 10
-70.2971992965
 20
1.9138743507
 10
-70.2997478095
 20
1.8706670798
 10
-70.3032976922
 20
1.8274019643
 10
-70.3078385394
 20
1.784107844
 10
-70.3133599461
 20
1.7408135587
 10
-70.3198515072
 20
1.6975479482
 10
-70.3273028176
 20
1.6543398524
 10
-70.3357034721
 20
1.611218111
 10
-70.3450430656
 20
1.5682115639
 10
-70.3553111931
 20
1.5253490509
 10
-70.3664974494
 20
1.4826594117
 10
-70.3785914295
 20
1.4401714863
 10
-70.3915827282
 20
1.3979141144
 10
-70.4054609404
 20
1.3559161359
 10
-70.4202156611
 20
1.3142063906
 10
-70.4358364851
 20
1.2728137182
 10
-70.4523130072
 20
1.2317669586
 10
-70.4696348225
 20
1.1910949517
 10
-70.4877915258
 20
1.1508265371
 10
-70.506772712
 20
1.1109905549
 10
-70.5265679759
 20
1.0716158447
 10
-70.5471669126
 20
1.0327312464
 10
-70.5685591168
 20
0.9943655997
 10
-70.5907341835
 20
0.9565477446
 10
-70.6136817076
 20
0.9193065209
 10
-70.6373912839
 20
0.8826707683
 10
-70.6618525075
 20
0.8466693266
 10
-70.687054973
 20
0.8113310357
 10
-70.7129882755
 20
0.7766847355
 10
-70.7396420099
 20
0.7427592656
 10
-70.767005771
 20
0.709583466
  0
LWPOLYLINE
  5
43E
100
AcDbEntity
  8
CURVE
100
AcDbPolyline
 62
250
  6
CONTINUOUS
 90
84
 70
0
 10
-71.2371617087
 20
0.9363708784
 10
-71.1989646438
 20
0.9759601004
 10
-71.1619850802
 20
1.017108892
 10
-71.1263014935
 20
1.0597456334
 10
-71.0919923597
 20
1.1037987052
 10
-71.0591361547
 20
1.1491964875
 10
-71.0278113542
 20
1.1958673607
 10
-70.9980964342
 20
1.2437397052
 10
-70.9700698706
 20
1.2927419013
 10
-70.9438101391
 20
1.3428023293
 10
-70.9193957158
 20
1.3938493696
 10
-70.8969050763
 20
1.4458114025
 10
-70.8764166967
 20
1.4986168083
 10
-70.8580090527
 20
1.5521939674
 10
-70.8417606202
 20
1.6064712602
 10
-70.8277498752
 20
1.6613770669
 10
-70.8160552934
 20
1.7168397679
 10
-70.8067553507
 20
1.7727877436
 10
-70.799928523
 20
1.8291493742
 10
-70.7956532862
 20
1.8858530401
 10
-70.7940081161
 20
1.9428271217
 10
-70.7950714886
 20
1.9999999993
 10
-70.7986067026
 20
2.0540456958
 10
-70.8045625926
 20
2.1081341082
 10
-70.8128800472
 20
2.1621947956
 10
-70.8234999552
 20
2.2161573169
 10
-70.8363632052
 20
2.2699512313
 10
-70.851410686
 20
2.3235060977
 10
-70.8685832862
 20
2.3767514753
 10
-70.8878218946
 20
2.429616923
 10
-70.9090673997
 20
2.4820319999
 10
-70.9322606904
 20
2.5339262651
 10
-70.9573426553
 20
2.5852292775
 10
-70.9842541831
 20
2.6358705963
 10
-71.0129361625
 20
2.6857797805
 10
-71.0433294822
 20
2.734886389
 10
-71.0753750309
 20
2.7831199811
 10
-71.1090136973
 20
2.8304101156
 10
-71.14418637
 20
2.8766863518
 10
-71.1808339378
 20
2.9218782485
 10
-71.2188972894
 20
2.9659153648
 10
-71.2583173134
 20
3.0087272599
 10
-71.2990348985
 20
3.0502434926
 10
-71.3409909336
 20
3.0903936222
 10
-71.3841263071
 20
3.1291072075
 10
-71.4283819079
 20
3.1663138078
 10
-71.4736986246
 20
3.2019429819
 10
-71.5200173459
 20
3.235924289
 10
-71.5672789605
 20
3.268187288
 10
-71.6154243571
 20
3.2986615381
 10
-71.6643944244
 20
3.3272765983
 10
-71.7141300511
 20
3.3539620276
 10
-71.7645721259
 20
3.3786473851
 10
-71.8156615375
 20
3.4012622298
 10
-71.8673391745
 20
3.4217361207
 10
-71.9195459257
 20
3.439998617
 10
-71.9722226798
 20
3.4559792776
 10
-72.0253103254
 20
3.4696076616
 10
-72.0787497512
 20
3.480813328
 10
-72.132481846
 20
3.4895258359
 10
-72.1864474985
 20
3.4956747443
 10
-72.2405875972
 20
3.4991896123
 10
-72.294843031
 20
3.4999999989
 10
-72.349219637
 20
3.4980555811
 10
-72.403585018
 20
3.4934042102
 10
-72.4578715878
 20
3.486120636
 10
-72.5120117603
 20
3.4762796085
 10
-72.5659379494
 20
3.4639558772
 10
-72.6195825689
 20
3.4492241921
 10
-72.6728780327
 20
3.4321593029
 10
-72.7257567547
 20
3.4128359595
 10
-72.7781511487
 20
3.3913289116
 10
-72.8299936286
 20
3.367712909
 10
-72.8812166084
 20
3.3420627016
 10
-72.9317525017
 20
3.3144530391
 10
-72.9815337226
 20
3.2849586713
 10
-73.0304926849
 20
3.2536543481
 10
-73.0785618024
 20
3.2206148192
 10
-73.125673489
 20
3.1859148344
 10
-73.1717601586
 20
3.1496291435
 10
-73.2167542251
 20
3.1118324964
 10
-73.2605881023
 20
3.0725996427
 10
-73.3031942041
 20
3.0320053324
 10
-73.3445049443
 20
2.9901243152
  0
LINE
  5
43F
100
AcDbEntity
  8
CURVE
100
AcDbLine
 62
250
  6
CONTINUOUS
 10
-73.3033027272
 20
-7.177235
 11
-73.8820885619
 21
-7.334033
  0
LINE
  5
440
100
AcDbEntity
  8
CURVE
100
AcDbLine
 62
250
  6
CONTINUOUS
 10
-74.32995034
 20
-7.454996
 11
-75.4058844451
 21
-7.733126
  0
LWPOLYLINE
  5
441
100
AcDbEntity
  8
CURVE
100
AcDbPolyline
 62
250
  6
CONTINUOUS
 90
58
 70
0
 10
-75.363250718
 20
-4.9627200261
 10
-75.3498092407
 20
-4.9626288415
 10
-75.3363289632
 20
-4.9627794163
 10
-75.3228242571
 20
-4.9631867502
 10
-75.309309494
 20
-4.9638658427
 10
-75.2957990454
 20
-4.9648316936
 10
-75.2823072828
 20
-4.9660993025
 10
-75.2688485779
 20
-4.967683669
 10
-75.2554373022
 20
-4.9695997929
 10
-75.2420878273
 20
-4.9718626739
 10
-75.2288145248
 20
-4.9744873115
 10
-75.2156317661
 20
-4.9774887054
 10
-75.2025539229
 20
-4.9808818553
 10
-75.1895953668
 20
-4.9846817608
 10
-75.1767704692
 20
-4.9889034217
 10
-75.1640936018
 20
-4.9935618375
 10
-75.1515791362
 20
-4.998672008
 10
-75.1402763231
 20
-5.0037565073
 10
-75.1291370462
 20
-5.0092239619
 10
-75.1181766498
 20
-5.0150660392
 10
-75.107410478
 20
-5.0212744065
 10
-75.0968538751
 20
-5.0278407311
 10
-75.0865221852
 20
-5.0347566804
 10
-75.0764307527
 20
-5.0420139218
 10
-75.0665949216
 20
-5.0496041225
 10
-75.0570300363
 20
-5.0575189499
 10
-75.0477514408
 20
-5.0657500714
 10
-75.0387744795
 20
-5.0742891543
 10
-75.0301144965
 20
-5.083127866
 10
-75.0217868361
 20
-5.0922578737
 10
-75.0138068424
 20
-5.1016708449
 10
-75.0058605765
 20
-5.1117880987
 10
-74.9983020745
 20
-5.1221902311
 10
-74.9911235933
 20
-5.1328629055
 10
-74.98431739
 20
-5.1437917853
 10
-74.9778757216
 20
-5.1549625341
 10
-74.9717908449
 20
-5.1663608153
 10
-74.9660550171
 20
-5.1779722923
 10
-74.9606604951
 20
-5.1897826286
 10
-74.9555995359
 20
-5.2017774877
 10
-74.9508643964
 20
-5.2139425329
 10
-74.9464473337
 20
-5.2262634278
 10
-74.9423406048
 20
-5.2387258358
 10
-74.9385364666
 20
-5.2513154203
 10
-74.935027176
 20
-5.2640178449
 10
-74.9318049902
 20
-5.2768187729
 10
-74.9288621661
 20
-5.2897038678
 10
-74.9261909607
 20
-5.3026587931
 10
-74.9237836309
 20
-5.3156692122
 10
-74.9216324337
 20
-5.3287207886
 10
-74.9197296262
 20
-5.3417991857
 10
-74.9180674652
 20
-5.354890067
 10
-74.9166382079
 20
-5.3679790959
 10
-74.9154341112
 20
-5.3810519359
 10
-74.914447432
 20
-5.3940942504
 10
-74.9136704274
 20
-5.4070917029
 10
-74.9130953544
 20
-5.4200299569
 10
-74.9127144698
 20
-5.4328946758
  0
LINE
  5
442
100
AcDbEntity
  8
CURVE
100
AcDbLine
 62
250
  6
CONTINUOUS
 10
-74.9127144698
 20
-5.7788012718
 11
-75.7086045906
 21
-5.7788012718
  0
LINE
  5
443
100
AcDbEntity
  8
CURVE
100
AcDbLine
 62
250
  6
CONTINUOUS
 10
-73.303302375
 20
-5.7587313832
 11
-74.4378936592
 21
-5.7587313832
  0
LINE
  5
444
100
AcDbEntity
  8
CURVE
100
AcDbLine
 62
250
  6
CONTINUOUS
 10
-74.6566286489
 20
-4.80544429
 11
-74.673760462
 21
-4.80544429
  0
LWPOLYLINE
  5
445
100
AcDbEntity
  8
0
100
AcDbPolyline
 62
7
  6
CONTINUOUS
 90
2
 70
0
 43
0.3500000019
 10
-68.3310142212
 20
35.0338640137
 10
-68.3310142212
 20
36.533862793
  0
LINE
  5
446
100
AcDbEntity
  8
IMPORT_IGES
100
AcDbLine
 62
7
  6
CONTINUOUS
 10
-67.2452999463
 20
-2.7
 11
-67.2452999463
 21
-2.7683123487
  0
LINE
  5
447
100
AcDbEntity
  8
IMPORT_IGES
100
AcDbLine
 62
7
  6
CONTINUOUS
 10
-62.7159514887
 20
13.2834467765
 11
-63.3786036556
 21
11.7223361014
  0
LINE
  5
448
100
AcDbEntity
  8
IMPORT_IGES
100
AcDbLine
 62
7
  6
CONTINUOUS
 10
-64.8462167874
 20
8.2648562329
 11
-65.0967649449
 21
7.6746017633
  0
LWPOLYLINE
  5
449
100
AcDbEntity
  8
CURVE
100
AcDbPolyline
 62
250
  6
CONTINUOUS
 90
31
 70
0
 10
-69.8468414059
 20
0.2659542014
 10
-69.8122503072
 20
0.3158771409
 10
-69.7786726469
 20
0.3666843272
 10
-69.7461195941
 20
0.4183392357
 10
-69.7146023176
 20
0.4708053419
 10
-69.6841319863
 20
0.5240461211
 10
-69.6547197691
 20
0.5780250489
 10
-69.626376835
 20
0.6327056006
 10
-69.5991143528
 20
0.6880512517
 10
-69.5729434915
 20
0.7440254776
 10
-69.5478754199
 20
0.8005917538
 10
-69.5239213069
 20
0.8577135557
 10
-69.5010923215
 20
0.9153543587
 10
-69.4793996326
 20
0.9734776383
 10
-69.458854409
 20
1.0320468698
 10
-69.4394678197
 20
1.0910255288
 10
-69.4212510335
 20
1.1503770907
 10
-69.4042152194
 20
1.2100650308
 10
-69.3883715463
 20
1.2700528247
 10
-69.3737311831
 20
1.3303039477
 10
-69.3603052987
 20
1.3907818753
 10
-69.3481050619
 20
1.4514500829
 10
-69.3371416417
 20
1.512272046
 10
-69.3274262071
 20
1.57321124
 10
-69.3189699268
 20
1.6342311403
 10
-69.3117839699
 20
1.6952952224
 10
-69.3058795051
 20
1.7563669616
 10
-69.3012677015
 20
1.8174098335
 10
-69.2979597278
 20
1.8783873134
 10
-69.2959667531
 20
1.9392628769
 10
-69.2952999463
 20
1.9999999993
  0
LWPOLYLINE
  5
44A
100
AcDbEntity
  8
CURVE
100
AcDbPolyline
 62
250
  6
CONTINUOUS
 90
61
 70
0
 10
-71.7061400337
 20
0.0881872694
 10
-71.7580579362
 20
0.0728231668
 10
-71.8103523257
 20
0.0586256104
 10
-71.8630044099
 20
0.0456955522
 10
-71.9159953967
 20
0.0341339445
 10
-71.9693064937
 20
0.0240417394
 10
-72.022918909
 20
0.015519889
 10
-72.0768138502
 20
0.0086693454
 10
-72.1309725252
 20
0.0035910607
 10
-72.1853761418
 20
0.0003859872
 10
-72.2400059078
 20
-0.0008449231
 10
-72.294843031
 20
-0.000000718
 10
-72.3535284963
 20
0.0032705273
 10
-72.4123708837
 20
0.008962247
 10
-72.4713126358
 20
0.0170197969
 10
-72.5302961958
 20
0.0273885326
 10
-72.5892640064
 20
0.0400138096
 10
-72.6481585105
 20
0.0548409836
 10
-72.7069221512
 20
0.0718154101
 10
-72.7654973712
 20
0.0908824448
 10
-72.8238266135
 20
0.1119874432
 10
-72.881852321
 20
0.1350757611
 10
-72.9395169366
 20
0.1600927538
 10
-72.9967629032
 20
0.1869837772
 10
-73.0535326637
 20
0.2156941868
 10
-73.1097686611
 20
0.2461693381
 10
-73.1654133381
 20
0.2783545868
 10
-73.2204091378
 20
0.3121952885
 10
-73.274698503
 20
0.3476367988
 10
-73.3282238766
 20
0.3846244733
 10
-73.3809277016
 20
0.4231036677
 10
-73.4327524209
 20
0.4630197374
 10
-73.4836404773
 20
0.5043180381
 10
-73.5335343137
 20
0.5469439254
 10
-73.5823763732
 20
0.590842755
 10
-73.6301090985
 20
0.6359598824
 10
-73.6766749325
 20
0.6822406632
 10
-73.7220163183
 20
0.729630453
 10
-73.7660756986
 20
0.7780746075
 10
-73.8087955165
 20
0.8275184822
 10
-73.8501182147
 20
0.8779074327
 10
-73.8899862363
 20
0.9291868147
 10
-73.928342024
 20
0.9813019837
 10
-73.9651280209
 20
1.0341982954
 10
-74.0002866698
 20
1.0878211053
 10
-74.0337604137
 20
1.1421157691
 10
-74.0654916953
 20
1.1970276423
 10
-74.0954229577
 20
1.2525020806
 10
-74.1234966438
 20
1.3084844396
 10
-74.1496551964
 20
1.3649200749
 10
-74.1738410584
 20
1.421754342
 10
-74.1959966729
 20
1.4789325966
 10
-74.2160644825
 20
1.5364001943
 10
-74.2339869304
 20
1.5941024907
 10
-74.2497064594
 20
1.6519848413
 10
-74.2631655123
 20
1.7099926019
 10
-74.2743065321
 20
1.768071128
 10
-74.2830719617
 20
1.8261657751
 10
-74.289404244
 20
1.884221899
 10
-74.293245822
 20
1.9421848552
 10
-74.2945391384
 20
1.9999999993
  0
LINE
  5
44B
100
AcDbEntity
  8
CURVE
100
AcDbLine
 62
250
  6
CONTINUOUS
 10
-73.8158280593
 20
-4.9802156177
 11
-73.6923717213
 21
-4.9452023619
  0
LINE
  5
44C
100
AcDbEntity
  8
CURVE
100
AcDbLine
 62
250
  6
CONTINUOUS
 10
-73.9832745349
 20
-4.4282892942
 11
-74.1553588381
 21
-4.4748278306
  0
LINE
  5
44D
100
AcDbEntity
  8
CURVE
100
AcDbLine
 62
250
  6
CONTINUOUS
 10
-73.303302375
 20
-4.2496410148
 11
-73.4068094872
 21
-4.2772561472
  0
LINE
  5
44E
100
AcDbEntity
  8
CURVE
100
AcDbLine
 62
250
  6
CONTINUOUS
 10
-73.7735286803
 20
-4.3728827798
 11
-73.9832745349
 21
-4.4282892942
  0
LINE
  5
44F
100
AcDbEntity
  8
CURVE
100
AcDbLine
 62
250
  6
CONTINUOUS
 10
-73.4068094872
 20
-4.2772561472
 11
-73.7735286803
 21
-4.3728827798
  0
LINE
  5
450
100
AcDbEntity
  8
IMPORT_IGES
100
AcDbLine
 62
7
  6
CONTINUOUS
 10
-67.2676785168
 20
-2.7
 11
-67.2452999463
 21
-2.7
  0
LINE
  5
451
100
AcDbEntity
  8
ASSI
100
AcDbLine
 62
7
  6
CONTINUOUS
 10
-41.7952999463
 20
-3.7344425119
 11
-66.5440635782
 21
-3.5763271382
  0
LINE
  5
452
100
AcDbEntity
  8
ASSI
100
AcDbLine
 62
7
  6
CONTINUOUS
 10
-66.5518448479
 20
-3.2499714423
 11
-41.7952999463
 21
-3.4660185366
  0
LINE
  5
453
100
AcDbEntity
  8
CURVE
100
AcDbLine
 62
250
  6
CONTINUOUS
 10
-72.9117506052
 20
0.6323670315
 11
-71.7061400337
 21
0.0881872694
  0
LINE
  5
454
100
AcDbEntity
  8
CURVE
100
AcDbLine
 62
250
  6
CONTINUOUS
 10
-70.5441657166
 20
-0.4362962353
 11
-69.2952999463
 21
-1.0
  0
LINE
  5
455
100
AcDbEntity
  8
ASSI
100
AcDbLine
 62
250
  6
CONTINUOUS
 10
-66.5440635782
 20
-13.5763271382
 11
-66.5518448479
 21
-13.2499714423
  0
LINE
  5
456
100
AcDbEntity
  8
ASSI
100
AcDbLine
 62
250
  6
CONTINUOUS
 10
-66.5440635782
 20
-8.5763271382
 11
-66.5518448479
 21
-8.2499714423
  0
LINE
  5
457
100
AcDbEntity
  8
ASSI
100
AcDbLine
 62
250
  6
CONTINUOUS
 10
-66.5440635782
 20
-3.5763271382
 11
-66.5518448479
 21
-3.2499714423
  0
LINE
  5
458
100
AcDbEntity
  8
ASSI
100
AcDbLine
 62
250
  6
CONTINUOUS
 10
-66.5440635782
 20
1.4236728618
 11
-66.5518448479
 21
1.7500285577
  0
LINE
  5
459
100
AcDbEntity
  8
ASSI
100
AcDbLine
 62
250
  6
CONTINUOUS
 10
-66.5440635782
 20
6.4236728618
 11
-66.5518448479
 21
6.7500285577
  0
LINE
  5
45A
100
AcDbEntity
  8
ASSI
100
AcDbLine
 62
250
  6
CONTINUOUS
 10
-66.5440635782
 20
11.4236728618
 11
-66.5518448479
 21
11.7500285577
  0
LINE
  5
45B
100
AcDbEntity
  8
ASSI
100
AcDbLine
 62
250
  6
CONTINUOUS
 10
-66.5440635782
 20
13.5763271382
 11
-66.5518448479
 21
13.2499714423
  0
LINE
  5
45C
100
AcDbEntity
  8
ASSI
100
AcDbLine
 62
250
  6
CONTINUOUS
 10
-66.5440635782
 20
8.5763271382
 11
-66.5518448479
 21
8.2499714423
  0
LINE
  5
45D
100
AcDbEntity
  8
ASSI
100
AcDbLine
 62
250
  6
CONTINUOUS
 10
-66.5440635782
 20
3.5763271382
 11
-66.5518448479
 21
3.2499714423
  0
LINE
  5
45E
100
AcDbEntity
  8
ASSI
100
AcDbLine
 62
250
  6
CONTINUOUS
 10
-66.5440635782
 20
-1.4236728618
 11
-66.5518448479
 21
-1.7500285577
  0
LINE
  5
45F
100
AcDbEntity
  8
ASSI
100
AcDbLine
 62
250
  6
CONTINUOUS
 10
-66.5440635782
 20
-6.4236728618
 11
-66.5518448479
 21
-6.7500285577
  0
LINE
  5
460
100
AcDbEntity
  8
ASSI
100
AcDbLine
 62
250
  6
CONTINUOUS
 10
-66.5440635782
 20
-11.4236728618
 11
-66.5518448479
 21
-11.7500285577
  0
LWPOLYLINE
  5
461
100
AcDbEntity
  8
CURVE
100
AcDbPolyline
 62
250
  6
CONTINUOUS
 90
45
 70
0
 10
-74.1553588381
 20
-4.4748278306
 10
-74.1777717433
 20
-4.4810661081
 10
-74.2002417196
 20
-4.4875234955
 10
-74.2228154277
 20
-4.4942868847
 10
-74.2455395283
 20
-4.5014431675
 10
-74.2580277839
 20
-4.5055468879
 10
-74.2705622248
 20
-4.5097963799
 10
-74.2831302531
 20
-4.5141942904
 10
-74.2957192712
 20
-4.5187432662
 10
-74.3083166813
 20
-4.5234459541
 10
-74.3209098857
 20
-4.5283050008
 10
-74.3334862867
 20
-4.5333230533
 10
-74.3460332866
 20
-4.5385027582
 10
-74.3585382875
 20
-4.5438467623
 10
-74.3709886918
 20
-4.5493577126
 10
-74.3833719018
 20
-4.5550382558
 10
-74.3956753197
 20
-4.5608910386
 10
-74.4078863477
 20
-4.566918708
 10
-74.4199923883
 20
-4.5731239106
 10
-74.4319808435
 20
-4.5795092933
 10
-74.4438391157
 20
-4.586077503
 10
-74.4555546073
 20
-4.5928311863
 10
-74.4671147203
 20
-4.5997729901
 10
-74.4785068571
 20
-4.6069055613
 10
-74.4897184201
 20
-4.6142315465
 10
-74.5007368113
 20
-4.6217535927
 10
-74.5115494332
 20
-4.6294743466
 10
-74.522143688
 20
-4.637396455
 10
-74.5325069779
 20
-4.6455225647
 10
-74.5426267052
 20
-4.6538553225
 10
-74.5524902722
 20
-4.6623973753
 10
-74.5620850812
 20
-4.6711513698
 10
-74.5713985344
 20
-4.6801199528
 10
-74.5804180341
 20
-4.6893057711
 10
-74.5891309826
 20
-4.6987114716
 10
-74.5975247821
 20
-4.708339701
 10
-74.6055868349
 20
-4.7181931061
 10
-74.6133045433
 20
-4.7282743338
 10
-74.6206653096
 20
-4.7385860308
 10
-74.6276565359
 20
-4.749130844
 10
-74.6342656247
 20
-4.7599114201
 10
-74.6404799781
 20
-4.7709304059
 10
-74.6462869984
 20
-4.7821904484
 10
-74.6516740879
 20
-4.7936941941
 10
-74.6566286489
 20
-4.80544429
  0
LWPOLYLINE
  5
462
100
AcDbEntity
  8
ASSI
100
AcDbPolyline
 62
7
  6
CONTINUOUS
 90
49
 70
0
 10
-66.5440635782
 20
-1.4236728618
 10
-66.6155117881
 20
-1.4265584139
 10
-66.68575606
 20
-1.4338752395
 10
-66.7547963939
 20
-1.4456233384
 10
-66.822816294
 20
-1.4618745384
 10
-66.8896322561
 20
-1.4825570117
 10
-66.9546937674
 20
-1.5074552756
 10
-67.0180386926
 20
-1.5366124635
 10
-67.079629167
 20
-1.569985442
 10
-67.1388010837
 20
-1.6072293267
 10
-67.1956064034
 20
-1.6484663746
 10
-67.2499931655
 20
-1.6935743287
 10
-67.3011413807
 20
-1.7418415343
 10
-67.3489827396
 20
-1.7932679425
 10
-67.3935855516
 20
-1.8478536021
 10
-67.4343347553
 20
-1.9048870052
 10
-67.4711550298
 20
-1.9643700399
 10
-67.5041216961
 20
-2.0263008181
 10
-67.5328456555
 20
-2.0899621677
 10
-67.5572664126
 20
-2.1553682874
 10
-67.5774444627
 20
-2.2225049785
 10
-67.5931721943
 20
-2.2906124722
 10
-67.6043987171
 20
-2.3597611131
 10
-67.6111749212
 20
-2.4298805566
 10
-67.6134458651
 20
-2.5000000001
 10
-67.6111749212
 20
-2.5701194436
 10
-67.604398717
 20
-2.6402388871
 10
-67.5931721942
 20
-2.709387528
 10
-67.5774444627
 20
-2.7774950217
 10
-67.5572664125
 20
-2.8446317127
 10
-67.5328456555
 20
-2.9100378324
 10
-67.5041216961
 20
-2.9736991819
 10
-67.4711550299
 20
-3.03562996
 10
-67.4343347553
 20
-3.0951129947
 10
-67.3935855516
 20
-3.1521463978
 10
-67.3489827396
 20
-3.2067320575
 10
-67.3011413806
 20
-3.2581584657
 10
-67.2499931654
 20
-3.3064256714
 10
-67.1956064033
 20
-3.3515336255
 10
-67.1388010834
 20
-3.3927706734
 10
-67.0796291668
 20
-3.4300145581
 10
-67.0180386925
 20
-3.4633875365
 10
-66.9546937673
 20
-3.4925447245
 10
-66.8896322561
 20
-3.5174429883
 10
-66.822816294
 20
-3.5381254616
 10
-66.7547963939
 20
-3.5543766616
 10
-66.68575606
 20
-3.5661247605
 10
-66.6155117881
 20
-3.573441586
 10
-66.5440635782
 20
-3.5763271382
  0
LINE
  5
463
100
AcDbEntity
  8
ASSI
100
AcDbLine
 62
7
  6
CONTINUOUS
 10
-41.7952999463
 20
-1.5339814634
 11
-66.5518448479
 21
-1.7500285577
  0
LINE
  5
464
100
AcDbEntity
  8
ASSI
100
AcDbLine
 62
7
  6
CONTINUOUS
 10
-41.7952999463
 20
-1.2655574881
 11
-66.5440635782
 21
-1.4236728618
  0
LINE
  5
465
100
AcDbEntity
  8
CURVE
100
AcDbLine
 62
250
  6
CONTINUOUS
 10
-70.7670240702
 20
0.7096685168
 11
-71.2371617087
 21
0.9363708784
  0
LINE
  5
466
100
AcDbEntity
  8
CURVE
100
AcDbLine
 62
250
  6
CONTINUOUS
 10
-69.2952999463
 20
-0.000000718
 11
-69.8468414059
 21
0.2659542014
  0
LWPOLYLINE
  5
467
100
AcDbEntity
  8
CURVE
100
AcDbPolyline
 62
250
  6
CONTINUOUS
 90
8
 70
0
 10
-74.1824383238
 20
-5.0965120355
 10
-74.1423171926
 20
-5.0818000428
 10
-74.1019894435
 20
-5.0676877376
 10
-74.0614779118
 20
-5.0541099148
 10
-74.0208054327
 20
-5.0410013691
 10
-73.9799948415
 20
-5.0282968955
 10
-73.9390689733
 20
-5.0159312887
 10
-73.8980506633
 20
-5.0038393436
  0
LINE
  5
468
100
AcDbEntity
  8
CURVE
100
AcDbLine
 62
250
  6
CONTINUOUS
 10
-73.6923717213
 20
-4.9452023619
 11
-73.303302375
 21
-4.8318417383
  0
LINE
  5
469
100
AcDbEntity
  8
CURVE
100
AcDbLine
 62
250
  6
CONTINUOUS
 10
-73.8980506633
 20
-5.0038393436
 11
-73.8158280593
 21
-4.9802156177
  0
LWPOLYLINE
  5
46A
100
AcDbEntity
  8
CURVE
100
AcDbPolyline
 62
250
  6
CONTINUOUS
 90
17
 70
0
 10
-72.2948370326
 20
1.499995
 10
-72.1977348427
 20
1.5095174033
 10
-72.1043312449
 20
1.5377219077
 10
-72.0181839534
 20
1.5835342126
 10
-71.9413381969
 20
1.6464413165
 10
-71.8794089103
 20
1.7218467486
 10
-71.8333031519
 20
1.807846723
 10
-71.8047770755
 20
1.9011655275
 10
-71.7949141849
 20
1.999994
 10
-71.8044351379
 20
2.0971109814
 10
-71.8326353467
 20
2.1905288071
 10
-71.8784406741
 20
2.2766892212
 10
-71.9413381969
 20
2.3535466835
 10
-72.0167321444
 20
2.4154854037
 10
-72.1027190206
 20
2.4615981854
 10
-72.1960236122
 20
2.490128607
 10
-72.2948370763
 20
2.499993
  0
LINE
  5
46B
100
AcDbEntity
  8
CURVE
100
AcDbLine
 62
250
  6
CONTINUOUS
 10
-69.2952999463
 20
1.9999999993
 11
-70.295148
 21
1.9999999993
  0
LINE
  5
46C
100
AcDbEntity
  8
CURVE
100
AcDbLine
 62
250
  6
CONTINUOUS
 10
-74.2945391384
 20
1.9999999993
 11
-75.2943861157
 21
1.9999999993
  0
LINE
  5
46D
100
AcDbEntity
  8
ASSI
100
AcDbLine
 62
7
  6
CONTINUOUS
 10
-41.7952999463
 20
1.2655574881
 11
-66.5440635782
 21
1.4236728618
  0
LINE
  5
46E
100
AcDbEntity
  8
ASSI
100
AcDbLine
 62
7
  6
CONTINUOUS
 10
-66.5518448479
 20
1.7500285577
 11
-41.7952999463
 21
1.5339814634
  0
LINE
  5
46F
100
AcDbEntity
  8
CURVE
100
AcDbLine
 62
250
  6
CONTINUOUS
 10
-71.3304141707
 20
8.6357142918
 11
-71.6018013861
 21
8.9071428612
  0
LWPOLYLINE
  5
470
100
AcDbEntity
  8
0
100
AcDbPolyline
 62
7
  6
CONTINUOUS
 90
4
 70
0
 43
0.3500000019
 10
-60.402442627
 20
30.5746289063
 10
-60.402442627
 20
31.2174870605
 10
-58.9024425049
 20
31.2174870605
 10
-59.7595858154
 20
28.2174868164
  0
LINE
  5
471
100
AcDbEntity
  8
CURVE
100
AcDbLine
 62
250
  6
CONTINUOUS
 10
-76.202514096
 20
-7.42899
 11
-73.3033027272
 21
-6.539304
  0
LWPOLYLINE
  5
472
100
AcDbEntity
  8
CURVE
100
AcDbPolyline
 62
250
  6
CONTINUOUS
 90
17
 70
0
 10
-72.2948370326
 20
2.499993
 10
-72.3919392226
 20
2.4904705967
 10
-72.4853428204
 20
2.4622660923
 10
-72.5714901119
 20
2.4164537874
 10
-72.6483358683
 20
2.3535466835
 10
-72.7102651549
 20
2.2781412515
 10
-72.7563709134
 20
2.192141277
 10
-72.7848969898
 20
2.0988224725
 10
-72.7947598804
 20
1.999994
 10
-72.7852389274
 20
1.9028770186
 10
-72.7570387186
 20
1.8094591929
 10
-72.7112333912
 20
1.7232987788
 10
-72.6483358683
 20
1.6464413165
 10
-72.5729419209
 20
1.5845025964
 10
-72.4869550447
 20
1.5383898147
 10
-72.3936504531
 20
1.509859393
 10
-72.2948369889
 20
1.499995
  0
LWPOLYLINE
  5
473
100
AcDbEntity
  8
ASSI
100
AcDbPolyline
 62
7
  6
CONTINUOUS
 90
49
 70
0
 10
-66.5440635782
 20
3.5763271382
 10
-66.6155117881
 20
3.5734415861
 10
-66.68575606
 20
3.5661247605
 10
-66.7547963939
 20
3.5543766616
 10
-66.822816294
 20
3.5381254616
 10
-66.8896322561
 20
3.5174429883
 10
-66.9546937674
 20
3.4925447244
 10
-67.0180386926
 20
3.4633875365
 10
-67.079629167
 20
3.430014558
 10
-67.1388010837
 20
3.3927706733
 10
-67.1956064034
 20
3.3515336254
 10
-67.2499931655
 20
3.3064256713
 10
-67.3011413807
 20
3.2581584657
 10
-67.3489827396
 20
3.2067320575
 10
-67.3935855516
 20
3.1521463979
 10
-67.4343347553
 20
3.0951129948
 10
-67.4711550298
 20
3.0356299601
 10
-67.5041216961
 20
2.9736991819
 10
-67.5328456555
 20
2.9100378323
 10
-67.5572664126
 20
2.8446317126
 10
-67.5774444627
 20
2.7774950215
 10
-67.5931721943
 20
2.7093875278
 10
-67.6043987171
 20
2.6402388869
 10
-67.6111749212
 20
2.5701194434
 10
-67.6134458651
 20
2.4999999999
 10
-67.6111749212
 20
2.4298805564
 10
-67.604398717
 20
2.3597611129
 10
-67.5931721942
 20
2.290612472
 10
-67.5774444627
 20
2.2225049783
 10
-67.5572664125
 20
2.1553682873
 10
-67.5328456555
 20
2.0899621676
 10
-67.5041216961
 20
2.0263008181
 10
-67.4711550299
 20
1.96437004
 10
-67.4343347553
 20
1.9048870053
 10
-67.3935855516
 20
1.8478536022
 10
-67.3489827396
 20
1.7932679425
 10
-67.3011413806
 20
1.7418415343
 10
-67.2499931654
 20
1.6935743286
 10
-67.1956064033
 20
1.6484663745
 10
-67.1388010834
 20
1.6072293266
 10
-67.0796291668
 20
1.5699854419
 10
-67.0180386925
 20
1.5366124635
 10
-66.9546937673
 20
1.5074552755
 10
-66.8896322561
 20
1.4825570117
 10
-66.822816294
 20
1.4618745384
 10
-66.7547963939
 20
1.4456233384
 10
-66.68575606
 20
1.4338752395
 10
-66.6155117881
 20
1.426558414
 10
-66.5440635782
 20
1.4236728618
  0
LINE
  5
474
100
AcDbEntity
  8
ASSI
100
AcDbLine
 62
7
  6
CONTINUOUS
 10
-41.7952999463
 20
3.4660185366
 11
-66.5518448479
 21
3.2499714423
  0
LINE
  5
475
100
AcDbEntity
  8
ASSI
100
AcDbLine
 62
7
  6
CONTINUOUS
 10
-41.7952999463
 20
3.7344425119
 11
-66.5440635782
 21
3.5763271382
  0
LINE
  5
476
100
AcDbEntity
  8
CURVE
100
AcDbLine
 62
250
  6
CONTINUOUS
 10
-71.6018013861
 20
10.2642856658
 11
-71.3304141707
 21
9.9928571105
  0
LINE
  5
477
100
AcDbEntity
  8
CURVE
100
AcDbLine
 62
250
  6
CONTINUOUS
 10
-69.9734780089
 20
9.3142857224
 11
-69.7020907653
 21
9.0428571671
  0
LINE
  5
478
100
AcDbEntity
  8
CURVE
100
AcDbLine
 62
250
  6
CONTINUOUS
 10
-69.7020907653
 20
10.2642856658
 11
-70.2448652526
 21
10.8071428895
  0
LINE
  5
479
100
AcDbEntity
  8
CURVE
100
AcDbLine
 62
250
  6
CONTINUOUS
 10
-76.202514096
 20
-11.093234
 11
-74.592863291
 21
-10.494355
  0
LINE
  5
47A
100
AcDbEntity
  8
CURVE
100
AcDbLine
 62
250
  6
CONTINUOUS
 10
-73.2952999463
 20
5.0373834462
 11
-76.1948578515
 21
5.0373834462
  0
LINE
  5
47B
100
AcDbEntity
  8
CURVE
100
AcDbLine
 62
250
  6
CONTINUOUS
 10
-75.6222481978
 20
5.4029277495
 11
-73.2952999463
 21
5.4029277495
  0
LINE
  5
47C
100
AcDbEntity
  8
ASSI
100
AcDbLine
 62
7
  6
CONTINUOUS
 10
-50.2320559802
 20
6.3194583962
 11
-66.5440635782
 21
6.4236728618
  0
LINE
  5
47D
100
AcDbEntity
  8
ASSI
100
AcDbLine
 62
7
  6
CONTINUOUS
 10
-48.5136256708
 20
5.4000799616
 11
-41.7952999463
 21
5.3414500212
  0
LINE
  5
47E
100
AcDbEntity
  8
ASSI
100
AcDbLine
 62
7
  6
CONTINUOUS
 10
-50.3969314383
 20
6.6090467642
 11
-66.5518448479
 21
6.7500285577
  0
LINE
  5
47F
100
AcDbEntity
  8
CURVE
100
AcDbLine
 62
250
  6
CONTINUOUS
 10
-71.0590269553
 20
8.5
 11
-71.3304141707
 21
8.6357142918
  0
LINE
  5
480
100
AcDbEntity
  8
CURVE
100
AcDbLine
 62
250
  6
CONTINUOUS
 10
-70.2448652526
 20
9.45
 11
-69.9734780089
 21
9.3142857224
  0
LINE
  5
481
100
AcDbEntity
  8
CURVE
100
AcDbLine
 62
250
  6
CONTINUOUS
 10
-71.6018013861
 20
11.7571428895
 11
-71.1947205064
 21
11.485714221
  0
LINE
  5
482
100
AcDbEntity
  8
CURVE
100
AcDbLine
 62
250
  6
CONTINUOUS
 10
-69.7020907653
 20
11.485714221
 11
-71.0590269553
 21
12.435714221
  0
LINE
  5
483
100
AcDbEntity
  8
IMPORT_IGES
100
AcDbLine
 62
7
  6
CONTINUOUS
 10
-45.6624572338
 20
-12.5307611845
 11
-45.0260611307
 21
-13.1671572875
  0
LINE
  5
484
100
AcDbEntity
  8
CURVE
100
AcDbLine
 62
250
  6
CONTINUOUS
 10
-71.6018013861
 20
13.25
 11
-71.3304141707
 21
12.978571558
  0
LINE
  5
485
100
AcDbEntity
  8
CURVE
100
AcDbLine
 62
250
  6
CONTINUOUS
 10
-69.7020907653
 20
13.25
 11
-70.2448652526
 21
13.792857337
  0
LINE
  5
486
100
AcDbEntity
  8
CURVE
100
AcDbLine
 62
250
  6
CONTINUOUS
 10
-73.3033027272
 20
-10.540105
 11
-75.1964333503
 21
-11.250162
  0
LWPOLYLINE
  5
487
100
AcDbEntity
  8
ASSI
100
AcDbPolyline
 62
7
  6
CONTINUOUS
 90
49
 70
0
 10
-66.5440635782
 20
8.5763271382
 10
-66.6155117881
 20
8.5734415861
 10
-66.68575606
 20
8.5661247605
 10
-66.7547963939
 20
8.5543766616
 10
-66.822816294
 20
8.5381254616
 10
-66.8896322561
 20
8.5174429883
 10
-66.9546937674
 20
8.4925447244
 10
-67.0180386926
 20
8.4633875365
 10
-67.079629167
 20
8.430014558
 10
-67.1388010837
 20
8.3927706733
 10
-67.1956064034
 20
8.3515336254
 10
-67.2499931655
 20
8.3064256713
 10
-67.3011413807
 20
8.2581584657
 10
-67.3489827396
 20
8.2067320575
 10
-67.3935855516
 20
8.1521463979
 10
-67.4343347553
 20
8.0951129948
 10
-67.4711550298
 20
8.0356299601
 10
-67.5041216961
 20
7.9736991819
 10
-67.5328456555
 20
7.9100378323
 10
-67.5572664126
 20
7.8446317126
 10
-67.5774444627
 20
7.7774950215
 10
-67.5931721943
 20
7.7093875278
 10
-67.6043987171
 20
7.6402388869
 10
-67.6111749212
 20
7.5701194434
 10
-67.6134458651
 20
7.4999999999
 10
-67.6111749212
 20
7.4298805564
 10
-67.604398717
 20
7.3597611129
 10
-67.5931721942
 20
7.290612472
 10
-67.5774444627
 20
7.2225049783
 10
-67.5572664125
 20
7.1553682873
 10
-67.5328456555
 20
7.0899621676
 10
-67.5041216961
 20
7.0263008181
 10
-67.4711550299
 20
6.96437004
 10
-67.4343347553
 20
6.9048870053
 10
-67.3935855516
 20
6.8478536022
 10
-67.3489827396
 20
6.7932679425
 10
-67.3011413806
 20
6.7418415343
 10
-67.2499931654
 20
6.6935743286
 10
-67.1956064033
 20
6.6484663745
 10
-67.1388010834
 20
6.6072293266
 10
-67.0796291668
 20
6.5699854419
 10
-67.0180386925
 20
6.5366124635
 10
-66.9546937673
 20
6.5074552755
 10
-66.8896322561
 20
6.4825570117
 10
-66.822816294
 20
6.4618745384
 10
-66.7547963939
 20
6.4456233384
 10
-66.68575606
 20
6.4338752395
 10
-66.6155117881
 20
6.426558414
 10
-66.5440635782
 20
6.4236728618
  0
LINE
  5
488
100
AcDbEntity
  8
ASSI
100
AcDbLine
 62
7
  6
CONTINUOUS
 10
-50.3969314383
 20
8.3909532358
 11
-66.5518448479
 21
8.2499714423
  0
LINE
  5
489
100
AcDbEntity
  8
ASSI
100
AcDbLine
 62
7
  6
CONTINUOUS
 10
-50.2320559802
 20
8.6805416038
 11
-66.5440635782
 21
8.5763271382
  0
LINE
  5
48A
100
AcDbEntity
  8
CURVE
100
AcDbLine
 62
250
  6
CONTINUOUS
 10
-73.8435328899
 20
6.9829064331
 11
-76.1948578515
 21
6.9829064331
  0
LINE
  5
48B
100
AcDbEntity
  8
CURVE
100
AcDbLine
 62
250
  6
CONTINUOUS
 10
-76.1948578515
 20
7.3484763228
 11
-73.2952999463
 21
7.3484763228
  0
LINE
  5
48C
100
AcDbEntity
  8
CURVE
100
AcDbLine
 62
250
  6
CONTINUOUS
 10
-73.2952999463
 20
8.1566465043
 11
-76.1948578515
 21
8.1566465043
  0
LINE
  5
48D
100
AcDbEntity
  8
CURVE
100
AcDbLine
 62
250
  6
CONTINUOUS
 10
-70.2448652526
 20
8.5
 11
-71.0590269553
 21
8.5
  0
LINE
  5
48E
100
AcDbEntity
  8
CURVE
100
AcDbLine
 62
250
  6
CONTINUOUS
 10
-75.8699788806
 20
8.5424978768
 11
-74.9481152513
 21
8.5424978768
  0
LINE
  5
48F
100
AcDbEntity
  8
CURVE
100
AcDbLine
 62
250
  6
CONTINUOUS
 10
-74.6232362804
 20
8.5424978768
 11
-73.6201789172
 21
8.5424978768
  0
LINE
  5
490
100
AcDbEntity
  8
CURVE
100
AcDbLine
 62
250
  6
CONTINUOUS
 10
-73.6810925517
 20
11.7551819821
 11
-76.1948578515
 21
12.5918298218
  0
LINE
  5
491
100
AcDbEntity
  8
CURVE
100
AcDbLine
 62
250
  6
CONTINUOUS
 10
-76.1948578515
 20
12.9939711994
 11
-73.2952999463
 21
11.9622816785
  0
LINE
  5
492
100
AcDbEntity
  8
IMPORT_IGES
100
AcDbLine
 62
7
  6
CONTINUOUS
 10
-65.0967649449
 20
7.6746017633
 11
-66.4542572878
 21
8.250823076
  0
LINE
  5
493
100
AcDbEntity
  8
CURVE
100
AcDbLine
 62
250
  6
CONTINUOUS
 10
-71.6018013861
 20
14.742857337
 11
-71.1947205064
 21
14.471428442
  0
LINE
  5
494
100
AcDbEntity
  8
ASSI
100
AcDbLine
 62
7
  6
CONTINUOUS
 10
-69.6554175098
 20
-20.1601175636
 11
-71.1513704479
 21
-21.6560705017
  0
LINE
  5
495
100
AcDbEntity
  8
ASSI
100
AcDbLine
 62
7
  6
CONTINUOUS
 10
-41.7952999463
 20
9.6585499788
 11
-48.5136256708
 21
9.5999200384
  0
LINE
  5
496
100
AcDbEntity
  8
CURVE
100
AcDbLine
 62
250
  6
CONTINUOUS
 10
-71.0590269553
 20
9.45
 11
-70.2448652526
 21
9.45
  0
LINE
  5
497
100
AcDbEntity
  8
CURVE
100
AcDbLine
 62
250
  6
CONTINUOUS
 10
-71.3304141707
 20
9.9928571105
 11
-70.78763974
 21
9.9928571105
  0
LINE
  5
498
100
AcDbEntity
  8
CURVE
100
AcDbLine
 62
250
  6
CONTINUOUS
 10
-74.9481152513
 20
10.0493625825
 11
-74.6232362804
 21
10.0493625825
  0
LINE
  5
499
100
AcDbEntity
  8
CURVE
100
AcDbLine
 62
250
  6
CONTINUOUS
 10
-76.1948578515
 20
10.1590207562
 11
-75.8699788806
 21
10.1590207562
  0
LINE
  5
49A
100
AcDbEntity
  8
CURVE
100
AcDbLine
 62
250
  6
CONTINUOUS
 10
-73.6201789172
 20
10.171210115
 11
-73.2952999463
 21
10.171210115
  0
LINE
  5
49B
100
AcDbEntity
  8
CURVE
100
AcDbLine
 62
250
  6
CONTINUOUS
 10
-70.78763974
 20
10.9428571105
 11
-71.3304141707
 21
10.9428571105
  0
LINE
  5
49C
100
AcDbEntity
  8
ASSI
100
AcDbLine
 62
7
  6
CONTINUOUS
 10
-41.7952999463
 20
10.3414500212
 11
-48.5136256708
 21
10.4000799616
  0
LINE
  5
49D
100
AcDbEntity
  8
CURVE
100
AcDbLine
 62
250
  6
CONTINUOUS
 10
-70.2448652526
 20
10.8071428895
 11
-70.78763974
 21
10.9428571105
  0
LINE
  5
49E
100
AcDbEntity
  8
CURVE
100
AcDbLine
 62
250
  6
CONTINUOUS
 10
-69.7020907653
 20
14.471428442
 11
-71.0590269553
 21
15.421428442
  0
LINE
  5
49F
100
AcDbEntity
  8
ASSI
100
AcDbLine
 62
7
  6
CONTINUOUS
 10
-69.6554175098
 20
20.1601175636
 11
-71.1513704479
 21
21.6560705017
  0
LINE
  5
4A0
100
AcDbEntity
  8
CURVE
100
AcDbLine
 62
250
  6
CONTINUOUS
 10
-73.3033027272
 20
-14.581013
 11
-76.202514096
 21
-15.50026
  0
LINE
  5
4A1
100
AcDbEntity
  8
ASSI
100
AcDbLine
 62
7
  6
CONTINUOUS
 10
-50.3969314383
 20
13.3909532358
 11
-66.5518448479
 21
13.2499714423
  0
LINE
  5
4A2
100
AcDbEntity
  8
CURVE
100
AcDbLine
 62
250
  6
CONTINUOUS
 10
-71.0590269553
 20
12.435714221
 11
-71.3304141707
 21
12.435714221
  0
LINE
  5
4A3
100
AcDbEntity
  8
CURVE
100
AcDbLine
 62
250
  6
CONTINUOUS
 10
-71.3304141707
 20
12.978571558
 11
-70.78763974
 21
12.978571558
  0
LINE
  5
4A4
100
AcDbEntity
  8
IMPORT_IGES
100
AcDbLine
 62
7
  6
CONTINUOUS
 10
-58.8952999463
 20
13.15
 11
-52.3952999463
 21
13.15
  0
LINE
  5
4A5
100
AcDbEntity
  8
CURVE
100
AcDbLine
 62
250
  6
CONTINUOUS
 10
-73.2952999463
 20
13.485381805
 11
-76.1948578515
 21
13.485381805
  0
LINE
  5
4A6
100
AcDbEntity
  8
ASSI
100
AcDbLine
 62
7
  6
CONTINUOUS
 10
-50.2320559802
 20
11.3194583962
 11
-66.5440635782
 21
11.4236728618
  0
LINE
  5
4A7
100
AcDbEntity
  8
ASSI
100
AcDbLine
 62
7
  6
CONTINUOUS
 10
-50.3969314383
 20
11.6090467642
 11
-66.5518448479
 21
11.7500285577
  0
LINE
  5
4A8
100
AcDbEntity
  8
CURVE
100
AcDbLine
 62
250
  6
CONTINUOUS
 10
-70.2448652526
 20
13.792857337
 11
-70.78763974
 21
13.928571558
  0
LINE
  5
4A9
100
AcDbEntity
  8
IMPORT_IGES
100
AcDbLine
 62
7
  6
CONTINUOUS
 10
-51.1952999463
 20
6.6160140206
 11
-51.1952999463
 21
8.3839859794
  0
LINE
  5
4AA
100
AcDbEntity
  8
IMPORT_IGES
100
AcDbLine
 62
7
  6
CONTINUOUS
 10
-51.1952999463
 20
11.6160140206
 11
-51.1952999463
 21
13.3839859794
  0
LINE
  5
4AB
100
AcDbEntity
  8
IMPORT_IGES
100
AcDbLine
 62
7
  6
CONTINUOUS
 10
-49.7952999463
 20
5.8515610239
 11
-49.7952999463
 21
9.1484390351
  0
LINE
  5
4AC
100
AcDbEntity
  8
IMPORT_IGES
100
AcDbLine
 62
7
  6
CONTINUOUS
 10
-49.7952999463
 20
10.8515610239
 11
-49.7952999463
 21
14.1484390351
  0
LWPOLYLINE
  5
4AD
100
AcDbEntity
  8
ASSI
100
AcDbPolyline
 62
7
  6
CONTINUOUS
 90
49
 70
0
 10
-66.5440635782
 20
13.5763271382
 10
-66.6155117881
 20
13.5734415861
 10
-66.68575606
 20
13.5661247605
 10
-66.7547963939
 20
13.5543766616
 10
-66.822816294
 20
13.5381254616
 10
-66.8896322561
 20
13.5174429883
 10
-66.9546937674
 20
13.4925447244
 10
-67.0180386926
 20
13.4633875365
 10
-67.079629167
 20
13.430014558
 10
-67.1388010837
 20
13.3927706733
 10
-67.1956064034
 20
13.3515336254
 10
-67.2499931655
 20
13.3064256713
 10
-67.3011413807
 20
13.2581584657
 10
-67.3489827396
 20
13.2067320575
 10
-67.3935855516
 20
13.1521463979
 10
-67.4343347553
 20
13.0951129948
 10
-67.4711550298
 20
13.0356299601
 10
-67.5041216961
 20
12.9736991819
 10
-67.5328456555
 20
12.9100378323
 10
-67.5572664126
 20
12.8446317126
 10
-67.5774444627
 20
12.7774950215
 10
-67.5931721943
 20
12.7093875278
 10
-67.6043987171
 20
12.6402388869
 10
-67.6111749212
 20
12.5701194434
 10
-67.6134458651
 20
12.4999999999
 10
-67.6111749212
 20
12.4298805564
 10
-67.604398717
 20
12.3597611129
 10
-67.5931721942
 20
12.290612472
 10
-67.5774444627
 20
12.2225049783
 10
-67.5572664125
 20
12.1553682873
 10
-67.5328456555
 20
12.0899621676
 10
-67.5041216961
 20
12.0263008181
 10
-67.4711550299
 20
11.96437004
 10
-67.4343347553
 20
11.9048870053
 10
-67.3935855516
 20
11.8478536022
 10
-67.3489827396
 20
11.7932679425
 10
-67.3011413806
 20
11.7418415343
 10
-67.2499931654
 20
11.6935743286
 10
-67.1956064033
 20
11.6484663745
 10
-67.1388010834
 20
11.6072293266
 10
-67.0796291668
 20
11.5699854419
 10
-67.0180386925
 20
11.5366124635
 10
-66.9546937673
 20
11.5074552755
 10
-66.8896322561
 20
11.4825570117
 10
-66.822816294
 20
11.4618745384
 10
-66.7547963939
 20
11.4456233384
 10
-66.68575606
 20
11.4338752395
 10
-66.6155117881
 20
11.426558414
 10
-66.5440635782
 20
11.4236728618
  0
LINE
  5
4AE
100
AcDbEntity
  8
ASSI
100
AcDbLine
 62
7
  6
CONTINUOUS
 10
-41.7952999463
 20
14.6585499788
 11
-48.5136256708
 21
14.5999200384
  0
LINE
  5
4AF
100
AcDbEntity
  8
ASSI
100
AcDbLine
 62
7
  6
CONTINUOUS
 10
-50.2320559802
 20
13.6805416038
 11
-66.5440635782
 21
13.5763271382
  0
LINE
  5
4B0
100
AcDbEntity
  8
CURVE
100
AcDbLine
 62
250
  6
CONTINUOUS
 10
-75.8699788806
 20
13.8712348833
 11
-74.9481152513
 21
13.8712348833
  0
LINE
  5
4B1
100
AcDbEntity
  8
CURVE
100
AcDbLine
 62
250
  6
CONTINUOUS
 10
-74.6232362804
 20
13.8712348833
 11
-73.6201789172
 21
13.8712348833
  0
LINE
  5
4B2
100
AcDbEntity
  8
CURVE
100
AcDbLine
 62
250
  6
CONTINUOUS
 10
-70.78763974
 20
13.928571558
 11
-71.3304141707
 21
13.928571558
  0
LINE
  5
4B3
100
AcDbEntity
  8
CURVE
100
AcDbLine
 62
250
  6
CONTINUOUS
 10
-74.9481152513
 20
15.3781524675
 11
-74.6232362804
 21
15.3781524675
  0
LINE
  5
4B4
100
AcDbEntity
  8
CURVE
100
AcDbLine
 62
250
  6
CONTINUOUS
 10
-71.0590269553
 20
15.421428442
 11
-71.3304141707
 21
15.421428442
  0
LINE
  5
4B5
100
AcDbEntity
  8
CURVE
100
AcDbLine
 62
250
  6
CONTINUOUS
 10
-76.1948578515
 20
15.4877304705
 11
-75.8699788806
 21
15.4877304705
  0
LINE
  5
4B6
100
AcDbEntity
  8
CURVE
100
AcDbLine
 62
250
  6
CONTINUOUS
 10
-73.6201789172
 20
15.5
 11
-73.2952999463
 21
15.5
  0
LINE
  5
4B7
100
AcDbEntity
  8
ASSI
100
AcDbLine
 62
250
  6
CONTINUOUS
 10
-41.7952999463
 20
17.1472402523
 11
-78.7952999463
 21
17.3594295692
  0
LINE
  5
4B8
100
AcDbEntity
  8
ASSI
100
AcDbLine
 62
250
  6
CONTINUOUS
 10
-41.7952999463
 20
15.8937104774
 11
-78.7952999463
 21
16.119659166
  0
LINE
  5
4B9
100
AcDbEntity
  8
IMPORT_IGES
100
AcDbLine
 62
7
  6
CONTINUOUS
 10
-48.755222885
 20
8.4649481919
 11
-46.3303517544
 21
6.0400770613
  0
LWPOLYLINE
  5
4BA
100
AcDbEntity
  8
0
100
AcDbPolyline
 62
7
  6
CONTINUOUS
 90
10
 70
0
 43
0.3500000019
 10
-63.973871521
 20
35.533864502
 10
-63.902442688
 20
35.3910068359
 10
-63.902442688
 20
35.3195793457
 10
-64.0452996826
 20
35.1767216797
 10
-64.1167285156
 20
35.1767216797
 10
-64.1881573486
 20
35.2481491699
 10
-64.1881573486
 20
35.3195793457
 10
-64.1167285156
 20
35.4624343262
 10
-64.0452996826
 20
35.533864502
 10
-63.973871521
 20
35.533864502
  0
LINE
  5
4BB
100
AcDbEntity
  8
IMPORT_IGES
100
AcDbLine
 62
7
  6
CONTINUOUS
 10
-46.2952999463
 20
-8.4267476315
 11
-46.2952999463
 21
-6.5732523684
  0
LINE
  5
4BC
100
AcDbEntity
  8
ASSI
100
AcDbLine
 62
7
  6
CONTINUOUS
 10
-71.1513704479
 20
-21.6560705017
 11
-72.6458044624
 21
-22.2
  0
LINE
  5
4BD
100
AcDbEntity
  8
ASSI
100
AcDbLine
 62
7
  6
CONTINUOUS
 10
-41.7952999463
 20
19.6738174026
 11
-69.6554175098
 21
20.1601175636
  0
LWPOLYLINE
  5
4BE
100
AcDbEntity
  8
ASSI
100
AcDbPolyline
 62
250
  6
CONTINUOUS
 90
3
 70
0
 10
-87.8533125797
 20
21.0183132877
 10
-87.8506381077
 20
21.0181627949
 10
-87.3625032483
 20
20.9972959167
  0
LINE
  5
4BF
100
AcDbEntity
  8
ASSI
100
AcDbLine
 62
7
  6
CONTINUOUS
 10
-71.1513704479
 20
21.6560705017
 11
-72.6458044624
 21
22.2
  0
LINE
  5
4C0
100
AcDbEntity
  8
IMPORT_IGES
100
AcDbLine
 62
7
  6
CONTINUOUS
 10
-45.8353770075
 20
6.5350518081
 11
-48.2602481381
 21
8.9599229387
  0
LINE
  5
4C1
100
AcDbEntity
  8
IMPORT_IGES
100
AcDbLine
 62
7
  6
CONTINUOUS
 10
-44.5952999463
 20
5.365885251
 11
-44.5952999463
 21
9.634114749
  0
LINE
  5
4C2
100
AcDbEntity
  8
IMPORT_IGES
100
AcDbLine
 62
7
  6
CONTINUOUS
 10
-44.5952999463
 20
10.365885251
 11
-44.5952999463
 21
14.634114749
  0
LINE
  5
4C3
100
AcDbEntity
  8
IMPORT_IGES
100
AcDbLine
 62
7
  6
CONTINUOUS
 10
-43.9952999463
 20
-6.5531805725
 11
-43.9952999463
 21
-8.4468194275
  0
LINE
  5
4C4
100
AcDbEntity
  8
IMPORT_IGES
100
AcDbLine
 62
7
  6
CONTINUOUS
 10
-43.7952999463
 20
5.3589037568
 11
-43.7952999463
 21
9.6410962432
  0
LINE
  5
4C5
100
AcDbEntity
  8
IMPORT_IGES
100
AcDbLine
 62
7
  6
CONTINUOUS
 10
-43.7952999463
 20
10.3589037568
 11
-43.7952999463
 21
14.6410962432
  0
LINE
  5
4C6
100
AcDbEntity
  8
ASSI
100
AcDbLine
 62
7
  6
CONTINUOUS
 10
-43.2952999463
 20
-13.4529282349
 11
-43.2952999463
 21
-11.5470717651
  0
LINE
  5
4C7
100
AcDbEntity
  8
ASSI
100
AcDbLine
 62
7
  6
CONTINUOUS
 10
-43.2952999463
 20
-8.4529282349
 11
-43.2952999463
 21
-6.5470717651
  0
LINE
  5
4C8
100
AcDbEntity
  8
ASSI
100
AcDbLine
 62
7
  6
CONTINUOUS
 10
-43.2952999463
 20
-3.4529282349
 11
-43.2952999463
 21
-1.5470717651
  0
LINE
  5
4C9
100
AcDbEntity
  8
ASSI
100
AcDbLine
 62
7
  6
CONTINUOUS
 10
-43.2952999463
 20
1.5470717651
 11
-43.2952999463
 21
3.4529282349
  0
LINE
  5
4CA
100
AcDbEntity
  8
ASSI
100
AcDbLine
 62
7
  6
CONTINUOUS
 10
-43.2952999463
 20
5.3545403229
 11
-43.2952999463
 21
9.6454596771
  0
LINE
  5
4CB
100
AcDbEntity
  8
ASSI
100
AcDbLine
 62
7
  6
CONTINUOUS
 10
-43.2952999463
 20
10.3545403229
 11
-43.2952999463
 21
14.6454596771
  0
LINE
  5
4CC
100
AcDbEntity
  8
ASSI
100
AcDbLine
 62
7
  6
CONTINUOUS
 10
-72.6458044624
 20
22.2
 11
-73.1952999463
 21
22.2
  0
LINE
  5
4CD
100
AcDbEntity
  8
ASSI
100
AcDbLine
 62
7
  6
CONTINUOUS
 10
-70.622462803
 20
21.1271628567
 11
-74.5987904275
 21
21.1965699136
  0
LINE
  5
4CE
100
AcDbEntity
  8
IMPORT_IGES
100
AcDbLine
 62
7
  6
CONTINUOUS
 10
-48.755222885
 20
13.4649481919
 11
-46.3303517544
 21
11.0400770613
  0
LINE
  5
4CF
100
AcDbEntity
  8
IMPORT_IGES
100
AcDbLine
 62
7
  6
CONTINUOUS
 10
-45.8353770075
 20
11.5350518081
 11
-48.2602481381
 21
13.9599229387
  0
LINE
  5
4D0
100
AcDbEntity
  8
ASSI
100
AcDbLine
 62
7
  6
CONTINUOUS
 10
-41.7952999463
 20
19.6738174026
 11
-41.7952999463
 21
-19.6738174026
  0
LINE
  5
4D1
100
AcDbEntity
  8
IMPORT_IGES
100
AcDbLine
 62
7
  6
CONTINUOUS
 10
-46.5561671275
 20
-13.4244710781
 11
-45.6624572338
 21
-12.5307611845
  0
LINE
  5
4D2
100
AcDbEntity
  8
IMPORT_IGES
100
AcDbLine
 62
7
  6
CONTINUOUS
 10
-45.0260611307
 20
-13.1671572875
 11
-45.2943863157
 21
-13.4354824725
  0
LINE
  5
4D3
100
AcDbEntity
  8
ASSI
100
AcDbLine
 62
250
  6
CONTINUOUS
 10
-86.8891131913
 20
21.4755923698
 11
-78.7952999463
 21
21.8997711479
  0
LINE
  5
4D4
100
AcDbEntity
  8
ASSI
100
AcDbLine
 62
7
  6
CONTINUOUS
 10
-86.9065549662
 20
21.9749071372
 11
-78.7952999463
 21
22.4
  0
LINE
  5
4D5
100
AcDbEntity
  8
ASSI
100
AcDbLine
 62
7
  6
CONTINUOUS
 10
-74.7952999463
 20
22.6298666026
 11
-77.4457458166
 21
22.6509756219
  0
LINE
  5
4D6
100
AcDbEntity
  8
ASSI
100
AcDbLine
 62
7
  6
CONTINUOUS
 10
-77.4457458166
 20
22.6509756219
 11
-78.7952999463
 21
22.663166622
  0
LINE
  5
4D7
100
AcDbEntity
  8
ASSI
100
AcDbLine
 62
7
  6
CONTINUOUS
 10
-78.7952999463
 20
23.5
 11
-74.7952999463
 21
23.4301797403
  0
LINE
  5
4D8
100
AcDbEntity
  8
ASSI
100
AcDbLine
 62
250
  6
CONTINUOUS
 10
-78.7952999463
 20
23.3333596575
 11
-74.7952999463
 21
23.2631073618
  0
LINE
  5
4D9
100
AcDbEntity
  8
ASSI
100
AcDbLine
 62
7
  6
CONTINUOUS
 10
-74.7952999463
 20
23.0998904748
 11
-78.7952999463
 21
23.1799085618
  0
LWPOLYLINE
  5
4DA
100
AcDbEntity
  8
0
100
AcDbPolyline
 62
7
  6
CONTINUOUS
 90
6
 70
0
 43
0.3500000019
 10
-62.5453002319
 20
28.2174868164
 10
-61.4738710937
 20
28.2174868164
 10
-61.2595859375
 20
28.4317719727
 10
-61.2595859375
 20
29.5032004395
 10
-61.6881569214
 20
29.931770752
 10
-62.1167285767
 20
29.931770752
  0
LWPOLYLINE
  5
4DB
100
AcDbEntity
  8
0
100
AcDbPolyline
 62
7
  6
CONTINUOUS
 90
8
 70
0
 43
0.3500000019
 10
-62.9024430542
 20
35.0338640137
 10
-62.0452997437
 20
35.0338640137
 10
-61.6167287598
 20
35.4624343262
 10
-61.6167287598
 20
36.3195776367
 10
-62.0452997437
 20
36.7481506348
 10
-62.9024430542
 20
36.7481506348
 10
-62.9024430542
 20
38.0338642578
 10
-61.6167287598
 20
38.0338642578
  0
LWPOLYLINE
  5
4DC
100
AcDbEntity
  8
0
100
AcDbPolyline
 62
7
  6
CONTINUOUS
 90
3
 70
0
 43
0.3500000019
 10
-67.8310140686
 20
35.676722168
 10
-69.3310141907
 20
35.676722168
 10
-68.6881570435
 20
38.0338642578
  0
ARC
  5
4DD
100
AcDbEntity
  8
ASSI
100
AcDbCircle
 62
7
  6
CONTINUOUS
 10
11.25
 20
0.0
 40
28.0
100
AcDbArc
 50
125.9627651514
 51
126.8657383374
  0
ARC
  5
4DE
100
AcDbEntity
  8
ASSI
100
AcDbCircle
 62
7
  6
CONTINUOUS
 10
11.25
 20
0.0
 40
28.0
100
AcDbArc
 50
123.5572117297
 51
124.1210936517
  0
ARC
  5
4DF
100
AcDbEntity
  8
ASSI
100
AcDbCircle
 62
7
  6
CONTINUOUS
 10
-11.25
 20
0.0
 40
28.0
100
AcDbArc
 50
55.8789063483
 51
56.4427882703
  0
ARC
  5
4E0
100
AcDbEntity
  8
ASSI
100
AcDbCircle
 62
7
  6
CONTINUOUS
 10
-11.25
 20
0.0
 40
28.0
100
AcDbArc
 50
53.1342616626
 51
54.0372348486
  0
ARC
  5
4E1
100
AcDbEntity
  8
ASSI
100
AcDbCircle
 62
7
  6
CONTINUOUS
 10
-11.25
 20
0.0
 40
28.0
100
AcDbArc
 50
305.9627651514
 51
306.8657383374
  0
ARC
  5
4E2
100
AcDbEntity
  8
ASSI
100
AcDbCircle
 62
7
  6
CONTINUOUS
 10
-11.25
 20
0.0
 40
28.0
100
AcDbArc
 50
303.5572118642
 51
304.1210936517
  0
ARC
  5
4E3
100
AcDbEntity
  8
ASSI
100
AcDbCircle
 62
7
  6
CONTINUOUS
 10
11.25
 20
0.0
 40
28.0
100
AcDbArc
 50
235.8789063483
 51
236.4427881358
  0
ARC
  5
4E4
100
AcDbEntity
  8
ASSI
100
AcDbCircle
 62
7
  6
CONTINUOUS
 10
11.25
 20
0.0
 40
28.0
100
AcDbArc
 50
233.1342616626
 51
234.0372348486
  0
ARC
  5
4E5
100
AcDbEntity
  8
ASSI
100
AcDbCircle
 62
7
  6
CONTINUOUS
 10
-4.95
 20
23.1
 40
0.5
100
AcDbArc
 50
240.887577224
 51
9.196281579
  0
ARC
  5
4E6
100
AcDbEntity
  8
ASSI
100
AcDbCircle
 62
7
  6
CONTINUOUS
 10
4.95
 20
23.1
 40
0.5
100
AcDbArc
 50
170.803718421
 51
299.112422776
  0
ARC
  5
4E7
100
AcDbEntity
  8
ASSI
100
AcDbCircle
 62
7
  6
CONTINUOUS
 10
4.95
 20
-23.1
 40
0.5
100
AcDbArc
 50
60.887577224
 51
189.196281579
  0
ARC
  5
4E8
100
AcDbEntity
  8
ASSI
100
AcDbCircle
 62
7
  6
CONTINUOUS
 10
-4.95
 20
-23.1
 40
0.5
100
AcDbArc
 50
350.803718421
 51
119.112422776
  0
ARC
  5
4E9
100
AcDbEntity
  8
IMPORT_IGES
100
AcDbCircle
 62
7
  6
CONTINUOUS
 10
-68.7952999463
 20
-11.4
 40
5.0
100
AcDbArc
 50
39.1138724577
 51
67.1258710592
  0
ARC
  5
4EA
100
AcDbEntity
  8
IMPORT_IGES
100
AcDbCircle
 62
7
  6
CONTINUOUS
 10
-68.7952999463
 20
-11.4
 40
5.0
100
AcDbArc
 50
337.9116265869
 51
356.2474790243
  0
ARC
  5
4EB
100
AcDbEntity
  8
IMPORT_IGES
100
AcDbCircle
 62
250
  6
CONTINUOUS
 10
-68.7952999463
 20
-11.4
 40
4.6999794023
100
AcDbArc
 50
42.0112002407
 51
69.0657941175
  0
ARC
  5
4EC
100
AcDbEntity
  8
IMPORT_IGES
100
AcDbCircle
 62
250
  6
CONTINUOUS
 10
-68.7952999463
 20
-11.4
 40
4.6999794023
100
AcDbArc
 50
336.581407172
 51
355.9965501015
  0
ARC
  5
4ED
100
AcDbEntity
  8
ASSI
100
AcDbCircle
 62
7
  6
CONTINUOUS
 10
-86.8542190099
 20
-20.9762776024
 40
1.0
100
AcDbArc
 50
182.4092313014
 51
267.0
  0
ARC
  5
4EE
100
AcDbEntity
  8
ASSI
100
AcDbCircle
 62
7
  6
CONTINUOUS
 10
-74.5952999463
 20
-21.3965394526
 40
0.2
100
AcDbArc
 50
91.0
 51
180.0
  0
ARC
  5
4EF
100
AcDbEntity
  8
IMPORT_IGES
100
AcDbCircle
 62
7
  6
CONTINUOUS
 10
-59.793180057
 20
6.6339410909
 40
5.01
100
AcDbArc
 50
307.5423968762
 51
318.9120528686
  0
ARC
  5
4F0
100
AcDbEntity
  8
IMPORT_IGES
100
AcDbCircle
 62
7
  6
CONTINUOUS
 10
-59.793180057
 20
6.6339410909
 40
5.0
100
AcDbArc
 50
275.5336647993
 51
318.8156564081
  0
ARC
  5
4F1
100
AcDbEntity
  8
IMPORT_IGES
100
AcDbCircle
 62
7
  6
CONTINUOUS
 10
-59.793180057
 20
6.6339410909
 40
5.0
100
AcDbArc
 50
222.4438867585
 51
262.8312017488
  0
ARC
  5
4F2
100
AcDbEntity
  8
IMPORT_IGES
100
AcDbCircle
 62
7
  6
CONTINUOUS
 10
-59.793180057
 20
6.6339410909
 40
5.0
100
AcDbArc
 50
160.8870542125
 51
178.8748220918
  0
ARC
  5
4F3
100
AcDbEntity
  8
IMPORT_IGES
100
AcDbCircle
 62
7
  6
CONTINUOUS
 10
-59.793180057
 20
6.6339410909
 40
5.0
100
AcDbArc
 50
0.1775756772
 51
20.1667664031
  0
ARC
  5
4F4
100
AcDbEntity
  8
IMPORT_IGES
100
AcDbCircle
 62
250
  6
CONTINUOUS
 10
-59.793180057
 20
6.6339410909
 40
4.6999818957
100
AcDbArc
 50
0.197560959
 51
21.4518327459
  0
ARC
  5
4F5
100
AcDbEntity
  8
IMPORT_IGES
100
AcDbCircle
 62
250
  6
CONTINUOUS
 10
-59.793180057
 20
6.6339410909
 40
4.6999798673
100
AcDbArc
 50
225.6115976554
 51
315.4522510239
  0
ARC
  5
4F6
100
AcDbEntity
  8
IMPORT_IGES
100
AcDbCircle
 62
250
  6
CONTINUOUS
 10
-59.793180057
 20
6.6339410909
 40
4.6999798673
100
AcDbArc
 50
159.647002635
 51
178.797344502
  0
ARC
  5
4F7
100
AcDbEntity
  8
IMPORT_IGES
100
AcDbCircle
 62
7
  6
CONTINUOUS
 10
-67.6452999463
 20
0.95
 40
3.0
100
AcDbArc
 50
15.1598754498
 51
50.4573472529
  0
ARC
  5
4F8
100
AcDbEntity
  8
IMPORT_IGES
100
AcDbCircle
 62
7
  6
CONTINUOUS
 10
-67.6452999463
 20
0.95
 40
3.0
100
AcDbArc
 50
280.4247969404
 51
295.456513225
  0
ARC
  5
4F9
100
AcDbEntity
  8
ASSI
100
AcDbCircle
 62
7
  6
CONTINUOUS
 10
-48.4952999463
 20
7.5
 40
2.1
100
AcDbArc
 50
90.5
 51
154.8959491746
  0
ARC
  5
4FA
100
AcDbEntity
  8
ASSI
100
AcDbCircle
 62
7
  6
CONTINUOUS
 10
-48.4952999463
 20
7.5
 40
2.1
100
AcDbArc
 50
205.1040508254
 51
269.5
  0
ARC
  5
4FB
100
AcDbEntity
  8
ASSI
100
AcDbCircle
 62
7
  6
CONTINUOUS
 10
-48.4952999463
 20
12.5
 40
2.1
100
AcDbArc
 50
90.5
 51
154.8959491746
  0
ARC
  5
4FC
100
AcDbEntity
  8
ASSI
100
AcDbCircle
 62
7
  6
CONTINUOUS
 10
-48.4952999463
 20
12.5
 40
2.1
100
AcDbArc
 50
205.1040508254
 51
269.5
  0
CIRCLE
  5
4FD
100
AcDbEntity
  8
IMPORT_IGES
100
AcDbCircle
 62
7
  6
CONTINUOUS
 10
-47.2952999463
 20
12.5
 40
1.75
  0
CIRCLE
  5
4FE
100
AcDbEntity
  8
IMPORT_IGES
100
AcDbCircle
 62
7
  6
CONTINUOUS
 10
-47.2952999463
 20
7.5
 40
1.75
  0
ARC
  5
4FF
100
AcDbEntity
  8
IMPORT_IGES
100
AcDbCircle
 62
7
  6
CONTINUOUS
 10
-47.2952999473
 20
2.500000005
 40
1.0499999955
100
AcDbArc
 50
113.9749778285
 51
246.409813035
  0
ARC
  5
500
100
AcDbEntity
  8
IMPORT_IGES
100
AcDbCircle
 62
7
  6
CONTINUOUS
 10
-47.2952999473
 20
2.500000005
 40
1.0499999955
100
AcDbArc
 50
292.8303335653
 51
67.5181563804
  0
ARC
  5
501
100
AcDbEntity
  8
ASSI
100
AcDbCircle
 62
7
  6
CONTINUOUS
 10
-86.8542190099
 20
20.9762776025
 40
1.0
100
AcDbArc
 50
93.0
 51
177.5907686986
  0
ARC
  5
502
100
AcDbEntity
  8
IMPORT_IGES
100
AcDbCircle
 62
7
  6
CONTINUOUS
 10
-52.3952999464
 20
14.15
 40
1.0
100
AcDbArc
 50
270.0005096462
 51
309.5078630394
  0
ARC
  5
503
100
AcDbEntity
  8
IMPORT_IGES
100
AcDbCircle
 62
7
  6
CONTINUOUS
 10
-58.8952999461
 20
14.15
 40
1.0
100
AcDbArc
 50
237.1176554378
 51
269.9994903548
  0
ARC
  5
504
100
AcDbEntity
  8
ASSI
100
AcDbCircle
 62
7
  6
CONTINUOUS
 10
-87.944909773
 20
7.09629481
 40
0.3
100
AcDbArc
 50
179.1863089649
 51
180.3486677281
  0
ARC
  5
505
100
AcDbEntity
  8
IMPORT_IGES
100
AcDbCircle
 62
7
  6
CONTINUOUS
 10
-53.0952999463
 20
13.15
 40
0.25
100
AcDbArc
 50
179.9999999971
 51
360.0
  0
ARC
  5
506
100
AcDbEntity
  8
ASSI
100
AcDbCircle
 62
7
  6
CONTINUOUS
 10
-74.5952999463
 20
21.3965394526
 40
0.2
100
AcDbArc
 50
180.0
 51
269.0
  0
ARC
  5
507
100
AcDbEntity
  8
ASSI
100
AcDbCircle
 62
7
  6
CONTINUOUS
 10
411.7047000537
 20
0.0
 40
500.0
100
AcDbArc
 50
177.5907686986
 51
182.4092313014
  0
ARC
  5
508
100
AcDbEntity
  8
0
100
AcDbCircle
 62
250
  6
CONTINUOUS
 10
411.7047000537
 20
0.0
 40
500.0
100
AcDbArc
 50
181.4325462594
 51
181.482672109
  0
ARC
  5
509
100
AcDbEntity
  8
0
100
AcDbCircle
 62
250
  6
CONTINUOUS
 10
411.7047000537
 20
0.0
 40
500.0
100
AcDbArc
 50
181.4912360136
 51
182.1089608754
  0
ELLIPSE
  5
50A
100
AcDbEntity
  8
ASSI
100
AcDbEllipse
 62
7
  6
CONTINUOUS
 10
10.649923836
 20
-21.899313827
 30
0.0
 11
-0.1582391023
 21
0.4751033573
 31
0.0
 40
0.9984778551
 41
-3.4626430041
 42
-1.8927600658
  0
ELLIPSE
  5
50B
100
AcDbEntity
  8
ASSI
100
AcDbEllipse
 62
7
  6
CONTINUOUS
 10
10.649923836
 20
21.899313827
 30
0.0
 11
0.1582391023
 21
0.4751033573
 31
0.0
 40
0.9984778551
 41
-1.2488325878
 42
0.3210503505
  0
ELLIPSE
  5
50C
100
AcDbEntity
  8
ASSI
100
AcDbEllipse
 62
7
  6
CONTINUOUS
 10
-10.649923836
 20
-21.899313827
 30
0.0
 11
0.1582391023
 21
0.4751033573
 31
0.0
 40
0.9984778551
 41
-4.3904252414
 42
-2.8205423031
  0
ELLIPSE
  5
50D
100
AcDbEntity
  8
ASSI
100
AcDbEllipse
 62
7
  6
CONTINUOUS
 10
-10.649923836
 20
21.899313827
 30
0.0
 11
-0.1582391023
 21
0.4751033573
 31
0.0
 40
0.9984778551
 41
-0.3210503505
 42
1.2488325878
  0
ELLIPSE
  5
50E
100
AcDbEntity
  8
ASSI
100
AcDbEllipse
 62
7
  6
CONTINUOUS
 10
2.7999543016
 20
-6.4499543016
 30
0.0
 11
0.2121966568
 21
-0.2121966568
 31
0.0
 40
0.9996954599
 41
-0.7852458701
 42
0.7852458701
  0
ELLIPSE
  5
50F
100
AcDbEntity
  8
ASSI
100
AcDbEllipse
 62
7
  6
CONTINUOUS
 10
-2.7999543016
 20
-6.4499543016
 30
0.0
 11
-0.2121966568
 21
-0.2121966568
 31
0.0
 40
0.9996954599
 41
-0.7852458701
 42
0.7852458701
  0
ELLIPSE
  5
510
100
AcDbEntity
  8
ASSI
100
AcDbEllipse
 62
7
  6
CONTINUOUS
 10
-2.7999543016
 20
6.4499543016
 30
0.0
 11
0.2121966568
 21
-0.2121966568
 31
0.0
 40
0.9996954599
 41
2.3563467834
 42
3.9268385237
  0
ELLIPSE
  5
511
100
AcDbEntity
  8
ASSI
100
AcDbEllipse
 62
7
  6
CONTINUOUS
 10
2.7999543016
 20
6.4499543016
 30
0.0
 11
0.2121966568
 21
0.2121966568
 31
0.0
 40
0.9996954599
 41
-0.7852458701
 42
0.7852458701
  0
ELLIPSE
  5
512
100
AcDbEntity
  8
0
100
AcDbEllipse
 62
250
  6
CONTINUOUS
 10
411.7047000537
 20
0.0
 30
0.0
 11
500.0
 21
-0.0
 31
0.0
 40
1.0
 41
-3.1158742105
 42
-3.1144946914
  0
ELLIPSE
  5
513
100
AcDbEntity
  8
0
100
AcDbEllipse
 62
250
  6
CONTINUOUS
 10
411.7047000537
 20
0.0
 30
0.0
 11
500.0
 21
0.0
 31
0.0
 40
1.0
 41
3.1729597828
 42
3.1788673709
  0
ELLIPSE
  5
514
100
AcDbEntity
  8
ASSI
100
AcDbEllipse
 62
7
  6
CONTINUOUS
 10
-66.5452999463
 20
12.5
 30
0.0
 11
0.75
 21
-0.0
 31
0.0
 40
1.0
 41
1.5795229731
 42
4.7036623341
  0
ELLIPSE
  5
515
100
AcDbEntity
  8
ASSI
100
AcDbEllipse
 62
7
  6
CONTINUOUS
 10
-66.5452999463
 20
-12.5
 30
0.0
 11
0.75
 21
0.0
 31
0.0
 40
1.0
 41
1.5795229731
 42
4.7036623341
  0
ELLIPSE
  5
516
100
AcDbEntity
  8
ASSI
100
AcDbEllipse
 62
7
  6
CONTINUOUS
 10
-66.5452999463
 20
-7.5
 30
0.0
 11
0.0
 21
0.75
 31
0.0
 40
1.0
 41
0.0087266463
 42
3.1328660073
  0
ELLIPSE
  5
517
100
AcDbEntity
  8
ASSI
100
AcDbEllipse
 62
7
  6
CONTINUOUS
 10
-66.5452999463
 20
-2.5
 30
0.0
 11
0.75
 21
-0.0
 31
0.0
 40
1.0
 41
1.5795229731
 42
4.7036623341
  0
ELLIPSE
  5
518
100
AcDbEntity
  8
ASSI
100
AcDbEllipse
 62
7
  6
CONTINUOUS
 10
-66.5452999463
 20
2.5
 30
0.0
 11
0.75
 21
-0.0
 31
0.0
 40
1.0
 41
1.5795229731
 42
4.7036623341
  0
ELLIPSE
  5
519
100
AcDbEntity
  8
ASSI
100
AcDbEllipse
 62
7
  6
CONTINUOUS
 10
-66.5452999463
 20
7.5
 30
0.0
 11
0.0
 21
0.75
 31
0.0
 40
1.0
 41
0.0087266463
 42
3.1328660073
  0
ENDSEC
  0
SECTION
  2
OBJECTS
  0
DICTIONARY
  5
C
100
AcDbDictionary
280
0
281
1
  3
ACAD_GROUP
350
D
  3
ACAD_MLINESTYLE
350
17
  3
ACAD_LAYOUT
350
1A
  3
ACAD_PLOTSETTINGS
350
19
  3
ACAD_PLOTSTYLENAME
350
E
  0
DICTIONARY
  5
D
102
{ACAD_REACTORS
330
C
102
}
100
AcDbDictionary
280
0
281
1
  0
ACDBDICTIONARYWDFLT
  5
E
102
{ACAD_REACTORS
330
C
102
}
100
AcDbDictionary
281
1
  3
Normal
350
F
100
AcDbDictionaryWithDefault
340
F
  0
DICTIONARY
  5
17
102
{ACAD_REACTORS
330
C
102
}
100
AcDbDictionary
280
0
281
1
  3
Standard
350
18
  0
DICTIONARY
  5
19
102
{ACAD_REACTORS
330
C
102
}
100
AcDbDictionary
281
1
  0
DICTIONARY
  5
1A
102
{ACAD_REACTORS
330
C
102
}
100
AcDbDictionary
281
1
  3
Model
350
51A
  3
Layout1
350
51B
  0
ACDBPLACEHOLDER
  5
F
102
{ACAD_REACTORS
330
E
102
}
  0
MLINESTYLE
  5
18
102
{ACAD_REACTORS
330
17
102
}
100
AcDbMlineStyle
  2
STANDARD
 70
0
  3

 62
256
 51
90.0
 52
90.0
 71
2
 49
0.5
 62
256
  6
BYLAYER
 49
-0.5
 62
256
  6
BYLAYER
  0
LAYOUT
  5
51A
102
{ACAD_REACTORS
330
1A
102
}
100
AcDbPlotSettings
  1

  2
none_device
  4

  6

 40
0.0
 41
0.0
 42
0.0
 43
0.0
 44
210.0
 45
297.0
 46
0.0
 47
0.0
 48
0.0
 49
0.0
140
0.0
141
0.0
142
1.0
143
1.0
 70
1024
 72
1
 73
0
 74
0
  7

 75
0
147
1.0
148
0.0
149
0.0
100
AcDbLayout
  1
Model
 70
0
 71
0
 10
0.0
 20
0.0
 11
210.0
 21
297.0
 12
0.0
 22
0.0
 32
0.0
 14
0.0
 24
0.0
 34
0.0
 15
0.0
 25
0.0
 35
0.0
146
0.0
 13
0.0
 23
0.0
 33
0.0
 16
1.0
 26
0.0
 36
0.0
 17
0.0
 27
1.0
 37
0.0
 76
0
330
258
345
0
346
0
  0
LAYOUT
  5
51B
102
{ACAD_REACTORS
330
1A
102
}
100
AcDbPlotSettings
  1

  2
none_device
  4

  6

 40
0.0
 41
0.0
 42
0.0
 43
0.0
 44
210.0
 45
297.0
 46
0.0
 47
0.0
 48
0.0
 49
0.0
140
0.0
141
0.0
142
1.0
143
1.0
 70
0
 72
1
 73
0
 74
0
  7

 75
0
147
1.0
148
0.0
149
0.0
100
AcDbLayout
  1
Layout1
 70
0
 71
1
 10
0.0
 20
0.0
 11
210.0
 21
297.0
 12
0.0
 22
0.0
 32
0.0
 14
0.0
 24
0.0
 34
0.0
 15
0.0
 25
0.0
 35
0.0
146
0.0
 13
0.0
 23
0.0
 33
0.0
 16
1.0
 26
0.0
 36
0.0
 17
0.0
 27
1.0
 37
0.0
 76
0
330
259
345
0
346
0
  0
ENDSEC
  0
EOF
