  0
SECTION
  2
HEADER
  9
$ACADVER
  1
AC1024
  9
$DWGCODEPAGE
  3
ANSI_1252
  9
$EXTMAX
 10
210.0
 20
297.0
 30
0.0
  9
$EXTMIN
 10
0.0
 20
0.0
 30
0.0
  9
$LIMMIN
 10
0.0
 20
0.0
  9
$LIMMAX
 10
210.0
 20
297.0
  9
$VIEWCTR
 10
105.0
 20
148.5
  9
$VIEWSIZE
 40
297.0
  9
$CLAYER
  8
0
  9
$LTSCALE
 40
19.36
  9
$CELTYPE
  6
BYLAYER
  9
$DIMSCALE
 40
1.0
  9
$DIMASZ
 40
3.0
  9
$DIMEXO
 40
0.5
  9
$DIMDLI
 40
13.376
  9
$DIMEXE
 40
1.5
  9
$DIMCEN
 40
3.168
  9
$DIMLFAC
 40
1.0
  9
$DIMBLK
  1
_FILLED
  9
$DIMALT
 70
0
  9
$DIMALTF
 40
0.0393700787
  9
$DIMTXT
 40
3.0
  9
$DIMTOL
 70
1
  9
$DIMLIM
 70
0
  9
$DIMTFAC
 40
1.0
  9
$DIMTP
 40
0.01
  9
$DIMTM
 40
0.01
  9
$DIMGAP
 40
0.625
  9
$DIMDSEP
 70
44
  9
$AUNITS
 70
0
  9
$PDMODE
 70
3
  9
$PDSIZE
 40
3.0
  9
$HANDSEED
  5
506
  9
$TILEMODE
 70
1
  9
$MEASUREMENT
 70
1
  9
$INSUNITS
 70
4
  0
ENDSEC
  0
SECTION
  2
CLASSES
  0
CLASS
  1
ACDBDICTIONARYWDFLT
  2
AcDbDictionaryWithDefault
  3
AutoCAD 2000
 90
0
 91
1
280
0
281
0
  0
CLASS
  1
ACDBPLACEHOLDER
  2
AcDbPlaceHolder
  3
AutoCAD 2000
 90
0
 91
1
280
0
281
0
  0
CLASS
  1
LAYOUT
  2
AcDbLayout
  3
AutoCAD 2000
 90
0
 91
0
280
0
281
0
  0
ENDSEC
  0
SECTION
  2
TABLES
  0
TABLE
  2
VPORT
  5
8
100
AcDbSymbolTable
 70
2
  0
VPORT
  5
1F4
100
AcDbSymbolTableRecord
100
AcDbViewportTableRecord
  2
*ACTIVE
 70
0
 10
0.0
 20
0.0
 11
1.0
 21
1.0
 12
105.0
 22
148.5
 13
0.0
 23
0.0
 14
1.0
 24
1.0
 15
0.0
 25
0.0
 16
0.0
 26
0.0
 36
1.0
 17
0.0
 27
0.0
 37
0.0
 40
297.0
 41
0.7070707071
 42
50.0
 43
0.0
 44
0.0
 50
0.0
 51
0.0
 71
0
 72
100
 73
1
 74
1
 75
0
 76
0
 77
0
 78
0
  0
ENDTAB
  0
TABLE
  2
LTYPE
  5
5
100
AcDbSymbolTable
 70
6
  0
LTYPE
  5
14
100
AcDbSymbolTableRecord
100
AcDbLinetypeTableRecord
  2
BYBLOCK
 70
0
  3

 72
65
 73
0
 40
0.0
  0
LTYPE
  5
15
100
AcDbSymbolTableRecord
100
AcDbLinetypeTableRecord
  2
BYLAYER
 70
0
  3

 72
65
 73
0
 40
0.0
  0
LTYPE
  5
16
100
AcDbSymbolTableRecord
100
AcDbLinetypeTableRecord
  2
CONTINUOUS
 70
64
  3
Solid line
 72
65
 73
0
 40
0.0
  0
LTYPE
  5
1F5
100
AcDbSymbolTableRecord
100
AcDbLinetypeTableRecord
  2
CENTER
 70
64
  3
____ _ ____ _ ____ _ ____ _ ____ _ ____ _ ____
 72
65
 73
4
 40
0.6
 49
0.375
 74
0
 49
-0.075
 74
0
 49
0.075
 74
0
 49
-0.075
 74
0
  0
LTYPE
  5
1F6
100
AcDbSymbolTableRecord
100
AcDbLinetypeTableRecord
  2
HIDDEN
 70
64
  3
- - - - - - - - - - - - - - - - - - - -
 72
65
 73
2
 40
0.2
 49
0.1
 74
0
 49
-0.1
 74
0
  0
LTYPE
  5
1F7
100
AcDbSymbolTableRecord
100
AcDbLinetypeTableRecord
  2
PHANTOM
 70
64
  3
_____ _ _ _____ _ _ _____ _ _ _____
 72
65
 73
6
 40
0.8
 49
0.45
 74
0
 49
-0.05
 74
0
 49
0.1
 74
0
 49
-0.05
 74
0
 49
0.1
 74
0
 49
-0.05
 74
0
  0
LTYPE
  5
1F8
100
AcDbSymbolTableRecord
100
AcDbLinetypeTableRecord
  2
DOT
 70
64
  3
. . . . . . . . . . . . . . . . . . . .
 72
65
 73
2
 40
0.2
 49
0.1
 74
0
 49
-0.1
 74
0
  0
LTYPE
  5
1F9
100
AcDbSymbolTableRecord
100
AcDbLinetypeTableRecord
  2
DASHED
 70
64
  3
- - - - - - - - - - - - - - - - - - - -
 72
65
 73
2
 40
0.2
 49
0.1
 74
0
 49
-0.1
 74
0
  0
ENDTAB
  0
TABLE
  2
LAYER
  5
2
100
AcDbSymbolTable
 70
36
  0
LAYER
  5
10
100
AcDbSymbolTableRecord
100
AcDbLayerTableRecord
  2
0
 70
0
 62
7
  6
CONTINUOUS
370
-3
390
F
  0
LAYER
  5
1FA
100
AcDbSymbolTableRecord
100
AcDbLayerTableRecord
  2
DEFAULT_1
 70
0
 62
7
  6
CENTER
370
-3
390
F
  0
LAYER
  5
1FB
100
AcDbSymbolTableRecord
100
AcDbLayerTableRecord
  2
DEFAULT_2
 70
0
 62
7
  6
HIDDEN
370
-3
390
F
  0
LAYER
  5
1FC
100
AcDbSymbolTableRecord
100
AcDbLayerTableRecord
  2
DEFAULT_3
 70
0
 62
7
  6
PHANTOM
370
-3
390
F
  0
LAYER
  5
1FD
100
AcDbSymbolTableRecord
100
AcDbLayerTableRecord
  2
0603_C_REF_90000
 70
0
 62
7
  6
CONTINUOUS
370
-3
390
F
  0
LAYER
  5
1FE
100
AcDbSymbolTableRecord
100
AcDbLayerTableRecord
  2
0603_R_REF_55000
 70
0
 62
7
  6
CONTINUOUS
370
-3
390
F
  0
LAYER
  5
1FF
100
AcDbSymbolTableRecord
100
AcDbLayerTableRecord
  2
0603_R_REF_55000_1
 70
0
 62
7
  6
CONTINUOUS
370
-3
390
F
  0
LAYER
  5
200
100
AcDbSymbolTableRecord
100
AcDbLayerTableRecord
  2
06___PRT_ALL_SURFS
 70
0
 62
7
  6
CONTINUOUS
370
-3
390
F
  0
LAYER
  5
201
100
AcDbSymbolTableRecord
100
AcDbLayerTableRecord
  2
06___PRT_ALL_SURFS_1
 70
0
 62
7
  6
CONTINUOUS
370
-3
390
F
  0
LAYER
  5
202
100
AcDbSymbolTableRecord
100
AcDbLayerTableRecord
  2
06___PRT_ALL_SURFS_10
 70
0
 62
7
  6
CONTINUOUS
370
-3
390
F
  0
LAYER
  5
203
100
AcDbSymbolTableRecord
100
AcDbLayerTableRecord
  2
06___PRT_ALL_SURFS_12
 70
0
 62
7
  6
CONTINUOUS
370
-3
390
F
  0
LAYER
  5
204
100
AcDbSymbolTableRecord
100
AcDbLayerTableRecord
  2
06___PRT_ALL_SURFS_13
 70
0
 62
7
  6
CONTINUOUS
370
-3
390
F
  0
LAYER
  5
205
100
AcDbSymbolTableRecord
100
AcDbLayerTableRecord
  2
06___PRT_ALL_SURFS_14
 70
0
 62
7
  6
CONTINUOUS
370
-3
390
F
  0
LAYER
  5
206
100
AcDbSymbolTableRecord
100
AcDbLayerTableRecord
  2
06___PRT_ALL_SURFS_15
 70
0
 62
7
  6
CONTINUOUS
370
-3
390
F
  0
LAYER
  5
207
100
AcDbSymbolTableRecord
100
AcDbLayerTableRecord
  2
06___PRT_ALL_SURFS_16
 70
0
 62
7
  6
CONTINUOUS
370
-3
390
F
  0
LAYER
  5
208
100
AcDbSymbolTableRecord
100
AcDbLayerTableRecord
  2
06___PRT_ALL_SURFS_17
 70
0
 62
7
  6
CONTINUOUS
370
-3
390
F
  0
LAYER
  5
209
100
AcDbSymbolTableRecord
100
AcDbLayerTableRecord
  2
06___PRT_ALL_SURFS_18
 70
0
 62
7
  6
CONTINUOUS
370
-3
390
F
  0
LAYER
  5
20A
100
AcDbSymbolTableRecord
100
AcDbLayerTableRecord
  2
06___PRT_ALL_SURFS_19
 70
0
 62
7
  6
CONTINUOUS
370
-3
390
F
  0
LAYER
  5
20B
100
AcDbSymbolTableRecord
100
AcDbLayerTableRecord
  2
06___PRT_ALL_SURFS_21
 70
0
 62
7
  6
CONTINUOUS
370
-3
390
F
  0
LAYER
  5
20C
100
AcDbSymbolTableRecord
100
AcDbLayerTableRecord
  2
06___PRT_ALL_SURFS_23
 70
0
 62
7
  6
CONTINUOUS
370
-3
390
F
  0
LAYER
  5
20D
100
AcDbSymbolTableRecord
100
AcDbLayerTableRecord
  2
06___PRT_ALL_SURFS_29
 70
0
 62
7
  6
CONTINUOUS
370
-3
390
F
  0
LAYER
  5
20E
100
AcDbSymbolTableRecord
100
AcDbLayerTableRecord
  2
06___PRT_ALL_SURFS_3
 70
0
 62
7
  6
CONTINUOUS
370
-3
390
F
  0
LAYER
  5
20F
100
AcDbSymbolTableRecord
100
AcDbLayerTableRecord
  2
06___PRT_ALL_SURFS_30
 70
0
 62
7
  6
CONTINUOUS
370
-3
390
F
  0
LAYER
  5
210
100
AcDbSymbolTableRecord
100
AcDbLayerTableRecord
  2
06___PRT_ALL_SURFS_31
 70
0
 62
7
  6
CONTINUOUS
370
-3
390
F
  0
LAYER
  5
211
100
AcDbSymbolTableRecord
100
AcDbLayerTableRecord
  2
06___PRT_ALL_SURFS_32
 70
0
 62
7
  6
CONTINUOUS
370
-3
390
F
  0
LAYER
  5
212
100
AcDbSymbolTableRecord
100
AcDbLayerTableRecord
  2
06___PRT_ALL_SURFS_36
 70
0
 62
7
  6
CONTINUOUS
370
-3
390
F
  0
LAYER
  5
213
100
AcDbSymbolTableRecord
100
AcDbLayerTableRecord
  2
06___PRT_ALL_SURFS_4
 70
0
 62
7
  6
CONTINUOUS
370
-3
390
F
  0
LAYER
  5
214
100
AcDbSymbolTableRecord
100
AcDbLayerTableRecord
  2
06___PRT_ALL_SURFS_5
 70
0
 62
7
  6
CONTINUOUS
370
-3
390
F
  0
LAYER
  5
215
100
AcDbSymbolTableRecord
100
AcDbLayerTableRecord
  2
06___PRT_ALL_SURFS_6
 70
0
 62
7
  6
CONTINUOUS
370
-3
390
F
  0
LAYER
  5
216
100
AcDbSymbolTableRecord
100
AcDbLayerTableRecord
  2
06___PRT_ALL_SURFS_7
 70
0
 62
7
  6
CONTINUOUS
370
-3
390
F
  0
LAYER
  5
217
100
AcDbSymbolTableRecord
100
AcDbLayerTableRecord
  2
06___PRT_ALL_SURFS_9
 70
0
 62
7
  6
CONTINUOUS
370
-3
390
F
  0
LAYER
  5
218
100
AcDbSymbolTableRecord
100
AcDbLayerTableRecord
  2
0805_C_REF_145000
 70
0
 62
7
  6
CONTINUOUS
370
-3
390
F
  0
LAYER
  5
219
100
AcDbSymbolTableRecord
100
AcDbLayerTableRecord
  2
0805_C_WAVE_145000
 70
0
 62
7
  6
CONTINUOUS
370
-3
390
F
  0
LAYER
  5
21A
100
AcDbSymbolTableRecord
100
AcDbLayerTableRecord
  2
0805_C_WAVE_145000_1
 70
0
 62
7
  6
CONTINUOUS
370
-3
390
F
  0
LAYER
  5
21B
100
AcDbSymbolTableRecord
100
AcDbLayerTableRecord
  2
0805_C_WAVE_145000_2
 70
0
 62
7
  6
CONTINUOUS
370
-3
390
F
  0
LAYER
  5
21C
100
AcDbSymbolTableRecord
100
AcDbLayerTableRecord
  2
0805_C_WAVE_145000_3
 70
0
 62
7
  6
CONTINUOUS
370
-3
390
F
  0
LAYER
  5
21D
100
AcDbSymbolTableRecord
100
AcDbLayerTableRecord
  2
0805_C_WAVE_145000_4
 70
0
 62
7
  6
CONTINUOUS
370
-3
390
F
  0
LAYER
  5
21E
100
AcDbSymbolTableRecord
100
AcDbLayerTableRecord
  2
0805_R_REF_60000
 70
0
 62
7
  6
CONTINUOUS
370
-3
390
F
  0
LAYER
  5
21F
100
AcDbSymbolTableRecord
100
AcDbLayerTableRecord
  2
0805_R_WAVE_60000
 70
0
 62
7
  6
CONTINUOUS
370
-3
390
F
  0
LAYER
  5
220
100
AcDbSymbolTableRecord
100
AcDbLayerTableRecord
  2
0805_R_WAVE_60000_1
 70
0
 62
7
  6
CONTINUOUS
370
-3
390
F
  0
LAYER
  5
221
100
AcDbSymbolTableRecord
100
AcDbLayerTableRecord
  2
0805_R_WAVE_60000_2
 70
0
 62
7
  6
CONTINUOUS
370
-3
390
F
  0
LAYER
  5
222
100
AcDbSymbolTableRecord
100
AcDbLayerTableRecord
  2
0805_R_WAVE_60000_3
 70
0
 62
7
  6
CONTINUOUS
370
-3
390
F
  0
LAYER
  5
223
100
AcDbSymbolTableRecord
100
AcDbLayerTableRecord
  2
1206_C_WAVE_180000
 70
0
 62
7
  6
CONTINUOUS
370
-3
390
F
  0
LAYER
  5
224
100
AcDbSymbolTableRecord
100
AcDbLayerTableRecord
  2
1206_C_WAVE_180000_1
 70
0
 62
7
  6
CONTINUOUS
370
-3
390
F
  0
LAYER
  5
225
100
AcDbSymbolTableRecord
100
AcDbLayerTableRecord
  2
1206_C_WAVE_180000_2
 70
0
 62
7
  6
CONTINUOUS
370
-3
390
F
  0
LAYER
  5
226
100
AcDbSymbolTableRecord
100
AcDbLayerTableRecord
  2
1206_C_WAVE_180000_3
 70
0
 62
7
  6
CONTINUOUS
370
-3
390
F
  0
LAYER
  5
227
100
AcDbSymbolTableRecord
100
AcDbLayerTableRecord
  2
1206_R_REF_65000
 70
0
 62
7
  6
CONTINUOUS
370
-3
390
F
  0
LAYER
  5
228
100
AcDbSymbolTableRecord
100
AcDbLayerTableRecord
  2
1206_R_WAVE_65000
 70
0
 62
7
  6
CONTINUOUS
370
-3
390
F
  0
LAYER
  5
229
100
AcDbSymbolTableRecord
100
AcDbLayerTableRecord
  2
1206_R_WAVE_65000_1
 70
0
 62
7
  6
CONTINUOUS
370
-3
390
F
  0
LAYER
  5
22A
100
AcDbSymbolTableRecord
100
AcDbLayerTableRecord
  2
3216-CF-RF-VIMAR_100000
 70
0
 62
7
  6
CONTINUOUS
370
-3
390
F
  0
LAYER
  5
22B
100
AcDbSymbolTableRecord
100
AcDbLayerTableRecord
  2
3216-CF-RF-VIMAR_100000_1
 70
0
 62
7
  6
CONTINUOUS
370
-3
390
F
  0
LAYER
  5
22C
100
AcDbSymbolTableRecord
100
AcDbLayerTableRecord
  2
3216-CF-RF-VIMAR_100000_2
 70
0
 62
7
  6
CONTINUOUS
370
-3
390
F
  0
LAYER
  5
22D
100
AcDbSymbolTableRecord
100
AcDbLayerTableRecord
  2
43000940B0
 70
0
 62
7
  6
CONTINUOUS
370
-3
390
F
  0
LAYER
  5
22E
100
AcDbSymbolTableRecord
100
AcDbLayerTableRecord
  2
43000941C0
 70
0
 62
7
  6
CONTINUOUS
370
-3
390
F
  0
LAYER
  5
22F
100
AcDbSymbolTableRecord
100
AcDbLayerTableRecord
  2
43900940A0
 70
0
 62
7
  6
CONTINUOUS
370
-3
390
F
  0
LAYER
  5
230
100
AcDbSymbolTableRecord
100
AcDbLayerTableRecord
  2
43900941A0
 70
0
 62
7
  6
CONTINUOUS
370
-3
390
F
  0
LAYER
  5
231
100
AcDbSymbolTableRecord
100
AcDbLayerTableRecord
  2
ASSI
 70
0
 62
7
  6
CONTINUOUS
370
-3
390
F
  0
LAYER
  5
232
100
AcDbSymbolTableRecord
100
AcDbLayerTableRecord
  2
CAP-E-6_3-11-2_5_1120000
 70
0
 62
7
  6
CONTINUOUS
370
-3
390
F
  0
LAYER
  5
233
100
AcDbSymbolTableRecord
100
AcDbLayerTableRecord
  2
CN_STH_USB_TYPE-C_24P_90_SHORT
 70
0
 62
7
  6
CONTINUOUS
370
-3
390
F
  0
LAYER
  5
234
100
AcDbSymbolTableRecord
100
AcDbLayerTableRecord
  2
COLOR5
 70
0
 62
7
  6
CONTINUOUS
370
-3
390
F
  0
LAYER
  5
235
100
AcDbSymbolTableRecord
100
AcDbLayerTableRecord
  2
COORDINATE
 70
0
 62
7
  6
CONTINUOUS
370
-3
390
F
  0
LAYER
  5
236
100
AcDbSymbolTableRecord
100
AcDbLayerTableRecord
  2
COORD_ORIGINE
 70
0
 62
7
  6
CONTINUOUS
370
-3
390
F
  0
LAYER
  5
237
100
AcDbSymbolTableRecord
100
AcDbLayerTableRecord
  2
COPY_PUBLISH
 70
0
 62
7
  6
CONTINUOUS
370
-3
390
F
  0
LAYER
  5
238
100
AcDbSymbolTableRecord
100
AcDbLayerTableRecord
  2
COSMETICI
 70
0
 62
7
  6
CONTINUOUS
370
-3
390
F
  0
LAYER
  5
239
100
AcDbSymbolTableRecord
100
AcDbLayerTableRecord
  2
CR_MR2P5_MSB_SW_PTH_1000000
 70
0
 62
7
  6
CONTINUOUS
370
-3
390
F
  0
LAYER
  5
23A
100
AcDbSymbolTableRecord
100
AcDbLayerTableRecord
  2
CURVE
 70
0
 62
7
  6
CONTINUOUS
370
-3
390
F
  0
LAYER
  5
23B
100
AcDbSymbolTableRecord
100
AcDbLayerTableRecord
  2
DB-SMD-ABS_145000
 70
0
 62
7
  6
CONTINUOUS
370
-3
390
F
  0
LAYER
  5
23C
100
AcDbSymbolTableRecord
100
AcDbLayerTableRecord
  2
DRAFT
 70
0
 62
7
  6
CONTINUOUS
370
-3
390
F
  0
LAYER
  5
23D
100
AcDbSymbolTableRecord
100
AcDbLayerTableRecord
  2
E2_MARK_10000
 70
0
 62
7
  6
CONTINUOUS
370
-3
390
F
  0
LAYER
  5
23E
100
AcDbSymbolTableRecord
100
AcDbLayerTableRecord
  2
FIDUCIAL_1MM_0
 70
0
 62
7
  6
CONTINUOUS
370
-3
390
F
  0
LAYER
  5
23F
100
AcDbSymbolTableRecord
100
AcDbLayerTableRecord
  2
FIDUCIAL_1MM_0_1
 70
0
 62
7
  6
CONTINUOUS
370
-3
390
F
  0
LAYER
  5
240
100
AcDbSymbolTableRecord
100
AcDbLayerTableRecord
  2
FIDUCIAL_1MM_0_2
 70
0
 62
7
  6
CONTINUOUS
370
-3
390
F
  0
LAYER
  5
241
100
AcDbSymbolTableRecord
100
AcDbLayerTableRecord
  2
FIDUCIAL_1MM_0_3
 70
0
 62
7
  6
CONTINUOUS
370
-3
390
F
  0
LAYER
  5
242
100
AcDbSymbolTableRecord
100
AcDbLayerTableRecord
  2
FIDUCIAL_1_2_MM_RUOTATO_45_1000
 70
0
 62
7
  6
CONTINUOUS
370
-3
390
F
  0
LAYER
  5
243
100
AcDbSymbolTableRecord
100
AcDbLayerTableRecord
  2
FIDUCIAL_1_2_MM_RUOTATO_45_10_1
 70
0
 62
7
  6
CONTINUOUS
370
-3
390
F
  0
LAYER
  5
244
100
AcDbSymbolTableRecord
100
AcDbLayerTableRecord
  2
FIDUCIAL_1_2_MM_RUOTATO_45_10_2
 70
0
 62
7
  6
CONTINUOUS
370
-3
390
F
  0
LAYER
  5
245
100
AcDbSymbolTableRecord
100
AcDbLayerTableRecord
  2
FIDUCIAL_1_2_MM_RUOTATO_45_10_3
 70
0
 62
7
  6
CONTINUOUS
370
-3
390
F
  0
LAYER
  5
246
100
AcDbSymbolTableRecord
100
AcDbLayerTableRecord
  2
GEOMETRIA_SOLIDA
 70
0
 62
7
  6
CONTINUOUS
370
-3
390
F
  0
LAYER
  5
247
100
AcDbSymbolTableRecord
100
AcDbLayerTableRecord
  2
GEOMETRIA_SOLIDA_1
 70
0
 62
7
  6
CONTINUOUS
370
-3
390
F
  0
LAYER
  5
248
100
AcDbSymbolTableRecord
100
AcDbLayerTableRecord
  2
GEOMETRIA_SOLIDA_2
 70
0
 62
7
  6
CONTINUOUS
370
-3
390
F
  0
LAYER
  5
249
100
AcDbSymbolTableRecord
100
AcDbLayerTableRecord
  2
GEOMETRIA_SOLIDA_3
 70
0
 62
7
  6
CONTINUOUS
370
-3
390
F
  0
LAYER
  5
24A
100
AcDbSymbolTableRecord
100
AcDbLayerTableRecord
  2
GEOMETRIA_SOLIDA_4
 70
0
 62
7
  6
CONTINUOUS
370
-3
390
F
  0
LAYER
  5
24B
100
AcDbSymbolTableRecord
100
AcDbLayerTableRecord
  2
GEOMETRIA_SOLIDA_5
 70
0
 62
7
  6
CONTINUOUS
370
-3
390
F
  0
LAYER
  5
24C
100
AcDbSymbolTableRecord
100
AcDbLayerTableRecord
  2
GEOMETRIA_SOLIDA_6
 70
0
 62
7
  6
CONTINUOUS
370
-3
390
F
  0
LAYER
  5
24D
100
AcDbSymbolTableRecord
100
AcDbLayerTableRecord
  2
IMPORT
 70
0
 62
7
  6
CONTINUOUS
370
-3
390
F
  0
LAYER
  5
24E
100
AcDbSymbolTableRecord
100
AcDbLayerTableRecord
  2
IMPORT_IGES
 70
0
 62
7
  6
CONTINUOUS
370
-3
390
F
  0
LAYER
  5
24F
100
AcDbSymbolTableRecord
100
AcDbLayerTableRecord
  2
IND-CHIP-1210-H2_4_240000
 70
0
 62
7
  6
CONTINUOUS
370
-3
390
F
  0
LAYER
  5
250
100
AcDbSymbolTableRecord
100
AcDbLayerTableRecord
  2
IND-RAD-6_0-8_5-2_5-0_5_850000
 70
0
 62
7
  6
CONTINUOUS
370
-3
390
F
  0
LAYER
  5
251
100
AcDbSymbolTableRecord
100
AcDbLayerTableRecord
  2
INTF_1
 70
0
 62
7
  6
CONTINUOUS
370
-3
390
F
  0
LAYER
  5
252
100
AcDbSymbolTableRecord
100
AcDbLayerTableRecord
  2
INTF_11
 70
0
 62
7
  6
CONTINUOUS
370
-3
390
F
  0
LAYER
  5
253
100
AcDbSymbolTableRecord
100
AcDbLayerTableRecord
  2
INTF_15
 70
0
 62
7
  6
CONTINUOUS
370
-3
390
F
  0
LAYER
  5
254
100
AcDbSymbolTableRecord
100
AcDbLayerTableRecord
  2
INTF_2
 70
0
 62
7
  6
CONTINUOUS
370
-3
390
F
  0
LAYER
  5
255
100
AcDbSymbolTableRecord
100
AcDbLayerTableRecord
  2
INTF_3
 70
0
 62
7
  6
CONTINUOUS
370
-3
390
F
  0
LAYER
  5
256
100
AcDbSymbolTableRecord
100
AcDbLayerTableRecord
  2
INTF_8
 70
0
 62
7
  6
CONTINUOUS
370
-3
390
F
  0
LAYER
  5
257
100
AcDbSymbolTableRecord
100
AcDbLayerTableRecord
  2
INTF_BLANK
 70
0
 62
7
  6
CONTINUOUS
370
-3
390
F
  0
LAYER
  5
258
100
AcDbSymbolTableRecord
100
AcDbLayerTableRecord
  2
LOGO_RESIST-RESTYLING_10000
 70
0
 62
7
  6
CONTINUOUS
370
-3
390
F
  0
LAYER
  5
259
100
AcDbSymbolTableRecord
100
AcDbLayerTableRecord
  2
NO-PB_MARK_10000
 70
0
 62
7
  6
CONTINUOUS
370
-3
390
F
  0
LAYER
  5
25A
100
AcDbSymbolTableRecord
100
AcDbLayerTableRecord
  2
NONE
 70
0
 62
7
  6
CONTINUOUS
370
-3
390
F
  0
LAYER
  5
25B
100
AcDbSymbolTableRecord
100
AcDbLayerTableRecord
  2
NOTE
 70
0
 62
7
  6
CONTINUOUS
370
-3
390
F
  0
LAYER
  5
25C
100
AcDbSymbolTableRecord
100
AcDbLayerTableRecord
  2
PIANI
 70
0
 62
7
  6
CONTINUOUS
370
-3
390
F
  0
LAYER
  5
25D
100
AcDbSymbolTableRecord
100
AcDbLayerTableRecord
  2
PIANI_ORIGINE
 70
0
 62
7
  6
CONTINUOUS
370
-3
390
F
  0
LAYER
  5
25E
100
AcDbSymbolTableRecord
100
AcDbLayerTableRecord
  2
PTC_EPCOS_B57153S0100M051_13000
 70
0
 62
7
  6
CONTINUOUS
370
-3
390
F
  0
LAYER
  5
25F
100
AcDbSymbolTableRecord
100
AcDbLayerTableRecord
  2
PUNTI
 70
0
 62
7
  6
CONTINUOUS
370
-3
390
F
  0
LAYER
  5
260
100
AcDbSymbolTableRecord
100
AcDbLayerTableRecord
  2
RACCORDO
 70
0
 62
7
  6
CONTINUOUS
370
-3
390
F
  0
LAYER
  5
261
100
AcDbSymbolTableRecord
100
AcDbLayerTableRecord
  2
SIMBOLI
 70
0
 62
7
  6
CONTINUOUS
370
-3
390
F
  0
LAYER
  5
262
100
AcDbSymbolTableRecord
100
AcDbLayerTableRecord
  2
SMUSSO
 70
0
 62
7
  6
CONTINUOUS
370
-3
390
F
  0
LAYER
  5
263
100
AcDbSymbolTableRecord
100
AcDbLayerTableRecord
  2
SUB_SMA_143000
 70
0
 62
7
  6
CONTINUOUS
370
-3
390
F
  0
LAYER
  5
264
100
AcDbSymbolTableRecord
100
AcDbLayerTableRecord
  2
SUB_SMA_143000_1
 70
0
 62
7
  6
CONTINUOUS
370
-3
390
F
  0
LAYER
  5
265
100
AcDbSymbolTableRecord
100
AcDbLayerTableRecord
  2
SUPERFICI
 70
0
 62
7
  6
CONTINUOUS
370
-3
390
F
  0
LAYER
  5
266
100
AcDbSymbolTableRecord
100
AcDbLayerTableRecord
  2
SUPERFICI_5
 70
0
 62
7
  6
CONTINUOUS
370
-3
390
F
  0
LAYER
  5
267
100
AcDbSymbolTableRecord
100
AcDbLayerTableRecord
  2
SUPERFICI_6
 70
0
 62
7
  6
CONTINUOUS
370
-3
390
F
  0
LAYER
  5
268
100
AcDbSymbolTableRecord
100
AcDbLayerTableRecord
  2
TRASH
 70
0
 62
7
  6
CONTINUOUS
370
-3
390
F
  0
LAYER
  5
269
100
AcDbSymbolTableRecord
100
AcDbLayerTableRecord
  2
VG_CAP-E-8_0-12_0-3_5-0_6_14000
 70
0
 62
7
  6
CONTINUOUS
370
-3
390
F
  0
LAYER
  5
26A
100
AcDbSymbolTableRecord
100
AcDbLayerTableRecord
  2
VG_CAP-E-8_0-12_0-3_5-0_6_140_1
 70
0
 62
7
  6
CONTINUOUS
370
-3
390
F
  0
LAYER
  5
26B
100
AcDbSymbolTableRecord
100
AcDbLayerTableRecord
  2
VG_CAP-RND-9_0-12_0-4_0-10_0-0_
 70
0
 62
7
  6
CONTINUOUS
370
-3
390
F
  0
LAYER
  5
26C
100
AcDbSymbolTableRecord
100
AcDbLayerTableRecord
  2
VG_CN-STRIP-M-THT-P2-R1-P3-TET_
 70
0
 62
7
  6
CONTINUOUS
370
-3
390
F
  0
LAYER
  5
26D
100
AcDbSymbolTableRecord
100
AcDbLayerTableRecord
  2
VG_CN-STRIP-M-THT-P2-R1-P3-TE_1
 70
0
 62
7
  6
CONTINUOUS
370
-3
390
F
  0
LAYER
  5
26E
100
AcDbSymbolTableRecord
100
AcDbLayerTableRecord
  2
VG_CN_STH_USB_TYPE-C_24P_RIGHT_
 70
0
 62
7
  6
CONTINUOUS
370
-3
390
F
  0
LAYER
  5
26F
100
AcDbSymbolTableRecord
100
AcDbLayerTableRecord
  2
VG_CN_THT_USB_TYPE-C_24P_RIGHT_
 70
0
 62
7
  6
CONTINUOUS
370
-3
390
F
  0
LAYER
  5
270
100
AcDbSymbolTableRecord
100
AcDbLayerTableRecord
  2
VG_ESOP_12B_175000
 70
0
 62
7
  6
CONTINUOUS
370
-3
390
F
  0
LAYER
  5
271
100
AcDbSymbolTableRecord
100
AcDbLayerTableRecord
  2
VG_FUSE-RAD-8_5-4_3-7_85-5_08-0
 70
0
 62
7
  6
CONTINUOUS
370
-3
390
F
  0
LAYER
  5
272
100
AcDbSymbolTableRecord
100
AcDbLayerTableRecord
  2
VG_TO220FPAC_2000000
 70
0
 62
7
  6
CONTINUOUS
370
-3
390
F
  0
LAYER
  5
273
100
AcDbSymbolTableRecord
100
AcDbLayerTableRecord
  2
VG_TO220FPAC_A90_1200000
 70
0
 62
7
  6
CONTINUOUS
370
-3
390
F
  0
LAYER
  5
274
100
AcDbSymbolTableRecord
100
AcDbLayerTableRecord
  2
VG_TRA_RM6_1250000
 70
0
 62
7
  6
CONTINUOUS
370
-3
390
F
  0
LAYER
  5
275
100
AcDbSymbolTableRecord
100
AcDbLayerTableRecord
  2
___SHELL
 70
0
 62
7
  6
CONTINUOUS
370
-3
390
F
  0
ENDTAB
  0
TABLE
  2
STYLE
  5
3
100
AcDbSymbolTable
 70
1
  0
STYLE
  5
11
100
AcDbSymbolTableRecord
100
AcDbTextStyleTableRecord
  2
STANDARD
 70
0
 40
0.0
 41
0.8
 50
0.0
 71
0
 42
0.2
  3
txt
  4

  0
STYLE
  5
276
100
AcDbSymbolTableRecord
100
AcDbTextStyleTableRecord
  2
TEXTSTYLE_1
 70
0
 40
0.0
 41
0.8
 50
0.0
 71
0
 42
0.2
  3
gdt
  4

  0
ENDTAB
  0
TABLE
  2
VIEW
  5
6
100
AcDbSymbolTable
 70
0
  0
ENDTAB
  0
TABLE
  2
UCS
  5
7
100
AcDbSymbolTable
 70
0
  0
ENDTAB
  0
TABLE
  2
APPID
  5
9
100
AcDbSymbolTable
 70
1
  0
APPID
  5
277
100
AcDbSymbolTableRecord
100
AcDbRegAppTableRecord
  2
ACAD
 70
0
  0
ENDTAB
  0
TABLE
  2
BLOCK_RECORD
  5
1
100
AcDbSymbolTable
 70
0
  0
BLOCK_RECORD
  5
278
100
AcDbSymbolTableRecord
100
AcDbBlockTableRecord
  2
*Model_Space
  0
BLOCK_RECORD
  5
279
100
AcDbSymbolTableRecord
100
AcDbBlockTableRecord
  2
*Paper_Space
  0
BLOCK_RECORD
  5
27A
100
AcDbSymbolTableRecord
100
AcDbBlockTableRecord
  2
_FILLED
  0
BLOCK_RECORD
  5
27B
100
AcDbSymbolTableRecord
100
AcDbBlockTableRecord
  2
*D0
  0
BLOCK_RECORD
  5
27C
100
AcDbSymbolTableRecord
100
AcDbBlockTableRecord
  2
*D1
  0
BLOCK_RECORD
  5
27D
100
AcDbSymbolTableRecord
100
AcDbBlockTableRecord
  2
*D2
  0
BLOCK_RECORD
  5
27E
100
AcDbSymbolTableRecord
100
AcDbBlockTableRecord
  2
*D3
  0
ENDTAB
  0
TABLE
  2
DIMSTYLE
  5
A
100
AcDbSymbolTable
 70
1
100
AcDbDimStyleTable
 71
0
  0
DIMSTYLE
105
27F
100
AcDbSymbolTableRecord
100
AcDbDimStyleTableRecord
  2
STANDARD
 70
0
  3

  4

 40
1.0
 41
3.0
 42
0.5
 43
0.38
 44
1.5
 45
0.0
 46
0.0
 47
0.01
 48
0.01
140
3.0
141
0.09
142
0.0
143
25.4
144
1.0
145
0.0
146
1.0
147
0.625
 71
1.0
 72
0.0
 73
0
 74
0
 75
0
 76
0
 77
1
 78
8
 79
2
170
0
171
1
172
0
173
0
174
0
175
0
176
0
177
0
178
0
270
2
179
2
271
2
272
2
273
2
274
2
275
0
280
0
281
0
282
0
283
1
284
8
285
0
286
0
287
3
288
0
340
11
278
44
341
27A
342
27A
343
27A
344
27A
  0
DIMSTYLE
105
280
100
AcDbSymbolTableRecord
100
AcDbDimStyleTableRecord
  2
DIMSTYLE_1
 70
0
  3

  4

 40
1.0
 41
3.0
 42
0.5
 43
0.38
 44
1.5
 45
0.0
 46
0.0
 47
0.0
 48
0.0
140
3.0
141
0.09
142
0.0
143
25.4
144
1.0
145
0.0
146
1.0
147
0.75
 71
0.0
 72
0.0
 73
0
 74
0
 75
0
 76
0
 77
1
 78
8
 79
2
170
0
171
1
172
0
173
0
174
0
175
0
176
0
177
0
178
0
270
2
179
2
271
2
272
2
273
2
274
2
275
0
280
0
281
0
282
0
283
1
284
8
285
0
286
0
287
3
288
0
340
11
278
44
341
27A
342
27A
343
27A
344
27A
  0
ENDTAB
  0
ENDSEC
  0
SECTION
  2
BLOCKS
  0
BLOCK
  5
20
100
AcDbEntity
  8
0
100
AcDbBlockBegin
  2
*Model_Space
 70
0
 10
0.0
 20
0.0
 30
0.0
  3
*Model_Space
  1

  0
ENDBLK
  5
21
100
AcDbEntity
  8
0
100
AcDbBlockEnd
  0
BLOCK
  5
1C
100
AcDbEntity
  8
0
100
AcDbBlockBegin
  2
*Paper_Space
 70
0
 10
0.0
 20
0.0
 30
0.0
  3
*Paper_Space
  1

  0
ENDBLK
  5
1D
100
AcDbEntity
  8
0
100
AcDbBlockEnd
  0
BLOCK
  5
281
100
AcDbEntity
  8
0
100
AcDbBlockBegin
  2
_FILLED
 70
64
 10
0.0
 20
0.0
  3
_FILLED
  1

  0
SOLID
  5
282
100
AcDbEntity
  8
0
  6
BYBLOCK
 62
0
100
AcDbTrace
 10
0.0
 20
0.0
 11
-1.0
 21
0.3166666667
 12
-1.0
 22
-0.3166666667
 13
-1.0
 23
-0.3166666667
  0
ENDBLK
  5
283
100
AcDbEntity
  8
0
  6
BYBLOCK
 62
0
100
AcDbBlockEnd
  0
BLOCK
  5
284
100
AcDbEntity
  8
0
100
AcDbBlockBegin
 62
7
  6
CONTINUOUS
  2
*D0
 70
65
 10
0.0
 20
0.0
  3
*D0
  1

  0
LINE
  5
285
100
AcDbEntity
  8
0
100
AcDbLine
 62
7
  6
CONTINUOUS
 10
-11.15
 20
22.3997711479
 11
-11.15
 21
38.0799735316
  0
LINE
  5
286
100
AcDbEntity
  8
0
100
AcDbLine
 62
7
  6
CONTINUOUS
 10
11.15
 20
22.3997711479
 11
11.15
 21
38.0799735316
  0
LINE
  5
287
100
AcDbEntity
  8
0
100
AcDbLine
 62
7
  6
CONTINUOUS
 10
-11.15
 20
36.5799735316
 11
0.0
 21
36.5799735316
  0
LINE
  5
288
100
AcDbEntity
  8
0
100
AcDbLine
 62
7
  6
CONTINUOUS
 10
11.15
 20
36.5799735316
 11
0.0
 21
36.5799735316
  0
INSERT
  5
289
100
AcDbEntity
  8
0
100
AcDbBlockReference
 62
7
  6
CONTINUOUS
  2
_FILLED
 10
-11.15
 20
36.5799735316
 41
3.0
 42
3.0
 43
3.0
 50
180.0
  0
INSERT
  5
28A
100
AcDbEntity
  8
0
100
AcDbBlockReference
 62
7
  6
CONTINUOUS
  2
_FILLED
 10
11.15
 20
36.5799735316
 41
3.0
 42
3.0
 43
3.0
  0
ENDBLK
  5
28B
100
AcDbEntity
  8
0
  6
BYBLOCK
 62
0
100
AcDbBlockEnd
  0
BLOCK
  5
28C
100
AcDbEntity
  8
0
100
AcDbBlockBegin
 62
7
  6
CONTINUOUS
  2
*D1
 70
65
 10
0.0
 20
0.0
  3
*D1
  1

  0
LINE
  5
28D
100
AcDbEntity
  8
0
100
AcDbLine
 62
7
  6
CONTINUOUS
 10
4.174857677
 20
23.5
 11
25.6747237572
 21
23.5
  0
LINE
  5
28E
100
AcDbEntity
  8
0
100
AcDbLine
 62
7
  6
CONTINUOUS
 10
4.1748580251
 20
-23.5
 11
25.6747237572
 21
-23.5
  0
LINE
  5
28F
100
AcDbEntity
  8
0
100
AcDbLine
 62
7
  6
CONTINUOUS
 10
24.1747237572
 20
23.5
 11
24.1747237572
 21
0.0
  0
LINE
  5
290
100
AcDbEntity
  8
0
100
AcDbLine
 62
7
  6
CONTINUOUS
 10
24.1747237572
 20
-23.5
 11
24.1747237572
 21
0.0
  0
INSERT
  5
291
100
AcDbEntity
  8
0
100
AcDbBlockReference
 62
7
  6
CONTINUOUS
  2
_FILLED
 10
24.1747237572
 20
23.5
 41
3.0
 42
3.0
 43
3.0
 50
90.0
  0
INSERT
  5
292
100
AcDbEntity
  8
0
100
AcDbBlockReference
 62
7
  6
CONTINUOUS
  2
_FILLED
 10
24.1747237572
 20
-23.5
 41
3.0
 42
3.0
 43
3.0
 50
270.0
  0
ENDBLK
  5
293
100
AcDbEntity
  8
0
  6
BYBLOCK
 62
0
100
AcDbBlockEnd
  0
BLOCK
  5
294
100
AcDbEntity
  8
0
100
AcDbBlockBegin
 62
7
  6
CONTINUOUS
  2
*D2
 70
65
 10
0.0
 20
0.0
  3
*D2
  1

  0
LINE
  5
295
100
AcDbEntity
  8
0
100
AcDbLine
 62
7
  6
CONTINUOUS
 10
-74.0696653364
 20
16.6196591676
 11
-74.0696653364
 21
29.9755645828
  0
LINE
  5
296
100
AcDbEntity
  8
0
100
AcDbLine
 62
7
  6
CONTINUOUS
 10
-37.0696653364
 20
14.0
 11
-37.0696653364
 21
29.9755645828
  0
LINE
  5
297
100
AcDbEntity
  8
0
100
AcDbLine
 62
7
  6
CONTINUOUS
 10
-74.0696653364
 20
28.4755645828
 11
-55.5696653364
 21
28.4755645828
  0
LINE
  5
298
100
AcDbEntity
  8
0
100
AcDbLine
 62
7
  6
CONTINUOUS
 10
-37.0696653364
 20
28.4755645828
 11
-55.5696653364
 21
28.4755645828
  0
INSERT
  5
299
100
AcDbEntity
  8
0
100
AcDbBlockReference
 62
7
  6
CONTINUOUS
  2
_FILLED
 10
-74.0696653364
 20
28.4755645828
 41
3.0
 42
3.0
 43
3.0
 50
180.0
  0
INSERT
  5
29A
100
AcDbEntity
  8
0
100
AcDbBlockReference
 62
7
  6
CONTINUOUS
  2
_FILLED
 10
-37.0696653364
 20
28.4755645828
 41
3.0
 42
3.0
 43
3.0
  0
ENDBLK
  5
29B
100
AcDbEntity
  8
0
  6
BYBLOCK
 62
0
100
AcDbBlockEnd
  0
BLOCK
  5
29C
100
AcDbEntity
  8
0
100
AcDbBlockBegin
 62
7
  6
CONTINUOUS
  2
*D3
 70
65
 10
0.0
 20
0.0
  3
*D3
  1

  0
LINE
  5
29D
100
AcDbEntity
  8
0
100
AcDbLine
 62
7
  6
CONTINUOUS
 10
-37.0696653364
 20
10.1585499788
 11
-37.0696653364
 21
38.3937362401
  0
LINE
  5
29E
100
AcDbEntity
  8
0
100
AcDbLine
 62
7
  6
CONTINUOUS
 10
-83.5696653364
 20
0.5
 11
-83.5696653364
 21
38.3937362401
  0
LINE
  5
29F
100
AcDbEntity
  8
0
100
AcDbLine
 62
7
  6
CONTINUOUS
 10
-37.0696653364
 20
36.8937362401
 11
-60.3196653364
 21
36.8937362401
  0
LINE
  5
2A0
100
AcDbEntity
  8
0
100
AcDbLine
 62
7
  6
CONTINUOUS
 10
-83.5696653364
 20
36.8937362401
 11
-60.3196653364
 21
36.8937362401
  0
INSERT
  5
2A1
100
AcDbEntity
  8
0
100
AcDbBlockReference
 62
7
  6
CONTINUOUS
  2
_FILLED
 10
-37.0696653364
 20
36.8937362401
 41
3.0
 42
3.0
 43
3.0
  0
INSERT
  5
2A2
100
AcDbEntity
  8
0
100
AcDbBlockReference
 62
7
  6
CONTINUOUS
  2
_FILLED
 10
-83.5696653364
 20
36.8937362401
 41
3.0
 42
3.0
 43
3.0
 50
180.0
  0
ENDBLK
  5
2A3
100
AcDbEntity
  8
0
  6
BYBLOCK
 62
0
100
AcDbBlockEnd
  0
ENDSEC
  0
SECTION
  2
ENTITIES
  0
DIMENSION
  5
2A4
100
AcDbEntity
  8
0
100
AcDbDimension
 62
7
  6
CONTINUOUS
  2
*D0
 10
11.15
 20
36.5799735316
 11
-4.2857142857
 21
36.5799735316
 70
160
 71
2
 72
2
 41
0.9
 42
22.3
  3
DIMSTYLE_1
100
AcDbAlignedDimension
 13
-11.15
 23
21.8997711479
 14
11.15
 24
21.8997711479
100
AcDbRotatedDimension
  0
DIMENSION
  5
2A5
100
AcDbEntity
  8
0
100
AcDbDimension
 62
7
  6
CONTINUOUS
  2
*D1
 10
24.1747237572
 20
-23.5
 11
24.1747237572
 21
-2.3571428571
 70
160
 71
2
 72
2
 41
0.9
 42
47.0
  3
DIMSTYLE_1
100
AcDbAlignedDimension
 13
3.674857677
 23
23.5
 14
3.6748580251
 24
-23.5
 50
270.0
100
AcDbRotatedDimension
  0
DIMENSION
  5
2A6
100
AcDbEntity
  8
0
100
AcDbDimension
 62
7
  6
CONTINUOUS
  2
*D2
 10
-37.0696653364
 20
28.4755645828
 11
-57.8196653364
 21
28.4755645828
 70
160
 71
2
 72
2
 41
0.9
 42
37.0
  3
DIMSTYLE_1
100
AcDbAlignedDimension
 13
-74.0696653364
 23
16.1196591676
 14
-37.0696653364
 24
13.5
100
AcDbRotatedDimension
  0
DIMENSION
  5
2A7
100
AcDbEntity
  8
0
100
AcDbDimension
 62
7
  6
CONTINUOUS
  2
*D3
 10
-83.5696653364
 20
36.8937362401
 11
-64.6053796221
 21
36.8937362401
 70
160
 71
2
 72
2
 41
0.9
 42
46.5
  3
DIMSTYLE_1
100
AcDbAlignedDimension
 13
-37.0696653364
 23
9.6585499788
 14
-83.5696653364
 24
0.0
 50
180.0
100
AcDbRotatedDimension
  0
LWPOLYLINE
  5
2A8
100
AcDbEntity
  8
0
100
AcDbPolyline
 62
7
  6
CONTINUOUS
 90
5
 70
0
 43
0.3500000019
 10
3.0000024414
 20
39.0442583008
 10
3.3571425781
 20
39.2585461426
 10
3.3571425781
 20
39.9014016113
 10
3.0000024414
 20
40.3299746094
 10
2.1428564453
 20
40.3299746094
  0
LWPOLYLINE
  5
2A9
100
AcDbEntity
  8
ASSI
100
AcDbPolyline
 62
250
  6
CONTINUOUS
 90
16
 70
0
 10
-11.0004589101
 20
20.9972959167
 10
-10.9968791436
 20
20.9994689314
 10
-10.9879813308
 20
21.0016186628
 10
-10.9738608069
 20
21.0037220776
 10
-10.9546688652
 20
21.005756639
 10
-10.9306111366
 20
21.0077005477
 10
-10.9019453861
 20
21.009532976
 10
-10.868978751
 20
21.0112342904
 10
-10.8320644502
 20
21.0127862623
 10
-10.7915979997
 20
21.014172263
 10
-10.7480129745
 20
21.0153774425
 10
-10.7017763638
 20
21.0163888878
 10
-10.6533835666
 20
21.0171957618
 10
-10.6033530845
 20
21.0177894192
 10
-10.5522209659
 20
21.0181634993
 10
-10.5005350625
 20
21.018313994
  0
LWPOLYLINE
  5
2AA
100
AcDbEntity
  8
ASSI
100
AcDbPolyline
 62
250
  6
CONTINUOUS
 90
16
 70
0
 10
10.5087981167
 20
-21.9749071372
 10
10.5610250031
 20
-21.97212728
 10
10.6126802316
 20
-21.9639134406
 10
10.6631985021
 20
-21.9503555394
 10
10.7120269743
 20
-21.931601975
 10
10.7586312804
 20
-21.9078580123
 10
10.8025013793
 20
-21.8793835478
 10
10.8431571925
 20
-21.8464902344
 10
10.8801538308
 20
-21.8095380733
 10
10.9130864355
 20
-21.7689315022
 10
10.941594647
 20
-21.7251149336
 10
10.9653665353
 20
-21.6785678925
 10
10.9841419991
 20
-21.6297997904
 10
10.9977156235
 20
-21.5793443309
 10
11.0059389237
 20
-21.5277536674
 10
11.0087219643
 20
-21.4755923698
  0
LWPOLYLINE
  5
2AB
100
AcDbEntity
  8
ASSI
100
AcDbPolyline
 62
7
  6
CONTINUOUS
 90
10
 70
0
 10
3.6748580251
 20
-23.5
 10
3.7403295821
 20
-23.4978096549
 10
3.804982696
 20
-23.4914785729
 10
3.8688173668
 20
-23.4810067538
 10
3.9320963945
 20
-23.46631496
 10
3.9945569791
 20
-23.4474824292
 10
4.0554107206
 20
-23.4247468744
 10
4.1143948191
 20
-23.3981875334
 10
4.1717720746
 20
-23.3677251683
 10
4.2275424871
 20
-23.3333597793
  0
LINE
  5
2AC
100
AcDbEntity
  8
ASSI
100
AcDbLine
 62
7
  6
CONTINUOUS
 10
3.6748580251
 20
-23.5
 11
-3.6748580251
 21
-23.5
  0
LINE
  5
2AD
100
AcDbEntity
  8
ASSI
100
AcDbLine
 62
7
  6
CONTINUOUS
 10
3.4698202597
 20
-22.5
 11
-3.4698202597
 21
-22.5
  0
LINE
  5
2AE
100
AcDbEntity
  8
ASSI
100
AcDbLine
 62
7
  6
CONTINUOUS
 10
10.6503805997
 20
-22.4
 11
3.3
 21
-22.4
  0
LINE
  5
2AF
100
AcDbEntity
  8
ASSI
100
AcDbLine
 62
7
  6
CONTINUOUS
 10
-3.3
 20
-22.4
 11
-10.6503805997
 21
-22.4
  0
LWPOLYLINE
  5
2B0
100
AcDbEntity
  8
ASSI
100
AcDbPolyline
 62
250
  6
CONTINUOUS
 90
16
 70
0
 10
-11.0004589101
 20
-20.9972959167
 10
-10.9968794369
 20
-20.9994689572
 10
-10.9879818724
 20
-21.0016187146
 10
-10.9738615497
 20
-21.0037221553
 10
-10.9546697613
 20
-21.005756742
 10
-10.9306121379
 20
-21.007700675
 10
-10.9019464456
 20
-21.009533126
 10
-10.8689798232
 20
-21.0112344612
 10
-10.8320654925
 20
-21.0127864516
 10
-10.7915989726
 20
-21.0141724684
 10
-10.7480138429
 20
-21.0153776611
 10
-10.701777097
 20
-21.0163891165
 10
-10.6533841395
 20
-21.0171959974
 10
-10.6033534777
 20
-21.0177896584
 10
-10.552221166
 20
-21.0181637387
 10
-10.5005350625
 20
-21.0183142301
  0
LWPOLYLINE
  5
2B1
100
AcDbEntity
  8
ASSI
100
AcDbPolyline
 62
250
  6
CONTINUOUS
 90
15
 70
0
 10
10.5522211666
 20
-21.0181637394
 10
10.6033534788
 20
-21.0177896594
 10
10.6533841411
 20
-21.0171959985
 10
10.701777099
 20
-21.0163891176
 10
10.7480138452
 20
-21.015377662
 10
10.7915989752
 20
-21.0141724692
 10
10.8320654952
 20
-21.0127864523
 10
10.868979826
 20
-21.0112344618
 10
10.9019464483
 20
-21.0095331264
 10
10.9306121405
 20
-21.0077006753
 10
10.9546697635
 20
-21.0057567422
 10
10.9738615515
 20
-21.0037221554
 10
10.9879818737
 20
-21.0016187147
 10
10.9968794376
 20
-20.9994689572
 10
11.0004589101
 20
-20.9972959167
  0
LINE
  5
2B2
100
AcDbEntity
  8
ASSI
100
AcDbLine
 62
250
  6
CONTINUOUS
 10
10.5087981167
 20
-21.9749071372
 11
-10.5087981167
 21
-21.9749071372
  0
LINE
  5
2B3
100
AcDbEntity
  8
ASSI
100
AcDbLine
 62
250
  6
CONTINUOUS
 10
10.5522211666
 20
-21.0181637394
 11
-10.5005350625
 21
-21.0183142309
  0
LWPOLYLINE
  5
2B4
100
AcDbEntity
  8
ASSI
100
AcDbPolyline
 62
7
  6
CONTINUOUS
 90
10
 70
0
 10
-4.2275424871
 20
-23.3333597793
 10
-4.1717720746
 20
-23.3677251683
 10
-4.1143948191
 20
-23.3981875334
 10
-4.0554107206
 20
-23.4247468744
 10
-3.9945569791
 20
-23.4474824292
 10
-3.9320963945
 20
-23.46631496
 10
-3.8688173668
 20
-23.4810067538
 10
-3.804982696
 20
-23.4914785729
 10
-3.7403295821
 20
-23.4978096549
 10
-3.6748580251
 20
-23.5
  0
LWPOLYLINE
  5
2B5
100
AcDbEntity
  8
CURVE
100
AcDbPolyline
 62
250
  6
CONTINUOUS
 90
81
 70
0
 10
5.3929835836
 20
-19.3088488498
 10
5.4141484223
 20
-19.3084293747
 10
5.4349987463
 20
-19.3071831506
 10
5.4556025214
 20
-19.3051284794
 10
5.4760277137
 20
-19.3022836628
 10
5.4963285939
 20
-19.2986624954
 10
5.5165046514
 20
-19.2942607416
 10
5.5365416802
 20
-19.2890696589
 10
5.5564254743
 20
-19.2830805044
 10
5.57613535
 20
-19.2762886303
 10
5.5956247121
 20
-19.268705769
 10
5.6148404875
 20
-19.2603477476
 10
5.6337296033
 20
-19.2512303934
 10
5.6522433892
 20
-19.2413707258
 10
5.670350787
 20
-19.230790533
 10
5.688025141
 20
-19.2195127955
 10
5.7052397956
 20
-19.2075604937
 10
5.7219687608
 20
-19.1949554434
 10
5.7381887077
 20
-19.1817148019
 10
5.7538769728
 20
-19.167854562
 10
5.7690108925
 20
-19.1533907164
 10
5.783568821
 20
-19.1383398445
 10
5.7975331827
 20
-19.1227208722
 10
5.8108874194
 20
-19.1065533119
 10
5.8236149731
 20
-19.0898566762
 10
5.8356974931
 20
-19.0726523223
 10
5.8471094583
 20
-19.0549689867
 10
5.8578235551
 20
-19.0368372504
 10
5.8678124699
 20
-19.0182876947
 10
5.8770512414
 20
-18.9993521425
 10
5.8855243191
 20
-18.9800673842
 10
5.8932185051
 20
-18.9604714518
 10
5.9001206013
 20
-18.9406023777
 10
5.9062194876
 20
-18.9204963014
 10
5.9115123548
 20
-18.9001817928
 10
5.9159984717
 20
-18.879685529
 10
5.919677107
 20
-18.8590341875
 10
5.9225463944
 20
-18.8382545558
 10
5.924599927
 20
-18.8173738628
 10
5.9258301628
 20
-18.7964194476
 10
5.9262295599
 20
-18.7754186493
 10
5.9257927811
 20
-18.754400575
 10
5.9245233081
 20
-18.7334014034
 10
5.9224268273
 20
-18.7124590809
 10
5.919509025
 20
-18.6916115541
 10
5.9157755877
 20
-18.6708967695
 10
5.9112322019
 20
-18.6503526737
 10
5.9058845539
 20
-18.6300172133
 10
5.8997383301
 20
-18.6099283347
 10
5.8928009486
 20
-18.5901217155
 10
5.8850867535
 20
-18.5706239576
 10
5.8766118205
 20
-18.5514593938
 10
5.8673922256
 20
-18.532652357
 10
5.8574440443
 20
-18.51422718
 10
5.8467833526
 20
-18.4962081958
 10
5.8354262261
 20
-18.4786197372
 10
5.8233887407
 20
-18.461486137
 10
5.8106880011
 20
-18.4448321133
 10
5.7973452283
 20
-18.428683925
 10
5.7833826725
 20
-18.4130682158
 10
5.7688225836
 20
-18.3980116298
 10
5.7536875402
 20
-18.3835393045
 10
5.7380014353
 20
-18.3696703514
 10
5.7217884902
 20
-18.3564223756
 10
5.7050729263
 20
-18.3438129823
 10
5.6878789475
 20
-18.3318605479
 10
5.6702306877
 20
-18.3205865346
 10
5.6521522629
 20
-18.3100131761
 10
5.6336677895
 20
-18.300162706
 10
5.6148060592
 20
-18.291056281
 10
5.5956145662
 20
-18.2827107499
 10
5.5761454801
 20
-18.2751418845
 10
5.5564509706
 20
-18.2683654566
 10
5.5365770236
 20
-18.2623930145
 10
5.5165448904
 20
-18.2572192113
 10
5.4963696383
 20
-18.2528344765
 10
5.476066335
 20
-18.2492292395
 10
5.4556361357
 20
-18.2463984203
 10
5.4350245475
 20
-18.2443548995
 10
5.4141631651
 20
-18.2431160482
 10
5.3929835835
 20
-18.2426992375
  0
LWPOLYLINE
  5
2B6
100
AcDbEntity
  8
CURVE
100
AcDbPolyline
 62
250
  6
CONTINUOUS
 90
81
 70
0
 10
5.3929835835
 20
-18.2426992375
 10
5.3718761331
 20
-18.2431132208
 10
5.3510820943
 20
-18.2443439405
 10
5.3305332376
 20
-18.2463745518
 10
5.3101613335
 20
-18.2491882097
 10
5.2899120107
 20
-18.2527725177
 10
5.269786332
 20
-18.2571328738
 10
5.2497992185
 20
-18.2622791242
 10
5.2299655911
 20
-18.2682211153
 10
5.2103065609
 20
-18.2749645461
 10
5.1908679982
 20
-18.2824985256
 10
5.1717019628
 20
-18.2908080158
 10
5.1528605149
 20
-18.2998779784
 10
5.134391297
 20
-18.3096920285
 10
5.1163242817
 20
-18.320228395
 10
5.098685024
 20
-18.3314639599
 10
5.0814990789
 20
-18.3433756053
 10
5.0647915542
 20
-18.3559412941
 10
5.0485857686
 20
-18.3691433117
 10
5.0329045936
 20
-18.3829650242
 10
5.0177709008
 20
-18.3973897979
 10
5.0032064542
 20
-18.4124008722
 10
4.9892285881
 20
-18.4279809793
 10
4.9758535296
 20
-18.4441127248
 10
4.9630975055
 20
-18.4607787142
 10
4.9509788878
 20
-18.4779591927
 10
4.9395246278
 20
-18.4956249632
 10
4.928763822
 20
-18.5137444683
 10
4.9187255666
 20
-18.5322861508
 10
4.9094363928
 20
-18.5512172761
 10
4.9009125704
 20
-18.5705004014
 10
4.8931678042
 20
-18.5900969068
 10
4.8862157988
 20
-18.6099681724
 10
4.8800680749
 20
-18.630077581
 10
4.8747274183
 20
-18.6503965268
 10
4.8701944304
 20
-18.6708984065
 10
4.8664697131
 20
-18.6915566169
 10
4.863554997
 20
-18.7123442264
 10
4.8614565287
 20
-18.7332329889
 10
4.8601816836
 20
-18.7541943301
 10
4.8597378373
 20
-18.7751996756
 10
4.8601301829
 20
-18.7962190427
 10
4.8613551844
 20
-18.8172168171
 10
4.8634071232
 20
-18.838155976
 10
4.8662802808
 20
-18.8589994971
 10
4.8699689388
 20
-18.8797103576
 10
4.8744673786
 20
-18.900251535
 10
4.8797698819
 20
-18.9205860067
 10
4.8858707301
 20
-18.9406767502
 10
4.8927626397
 20
-18.9604888794
 10
4.9004320675
 20
-18.9799960539
 10
4.9088639053
 20
-18.9991740699
 10
4.9180430448
 20
-19.0179987234
 10
4.9279543779
 20
-19.0364458105
 10
4.9385827963
 20
-19.0544911275
 10
4.9499131917
 20
-19.0721104703
 10
4.961930456
 20
-19.0892796352
 10
4.9746182621
 20
-19.1059737032
 10
4.9879554073
 20
-19.1221648955
 10
5.0019194701
 20
-19.1378247182
 10
5.016488029
 20
-19.1529246776
 10
5.0316382893
 20
-19.1674381597
 10
5.0473459622
 20
-19.1813460698
 10
5.0635863861
 20
-19.1946311932
 10
5.0803348988
 20
-19.2072763151
 10
5.0975667548
 20
-19.2192634712
 10
5.1152568723
 20
-19.2305716992
 10
5.1333800858
 20
-19.2411792871
 10
5.1519112298
 20
-19.2510645232
 10
5.1708203882
 20
-19.2602065914
 10
5.1900586423
 20
-19.2685882587
 10
5.2095723229
 20
-19.276193188
 10
5.2293077607
 20
-19.2830050421
 10
5.2492178701
 20
-19.2890116864
 10
5.2692818993
 20
-19.2942177964
 10
5.2894856798
 20
-19.2986322503
 10
5.3098150435
 20
-19.3022639262
 10
5.3302695505
 20
-19.3051171465
 10
5.3509036746
 20
-19.3071780111
 10
5.3717856182
 20
-19.3084280641
 10
5.3929835836
 20
-19.3088488498
  0
LINE
  5
2B7
100
AcDbEntity
  8
CURVE
100
AcDbLine
 62
250
  6
CONTINUOUS
 10
-1.212967
 20
-18.7364474034
 11
-0.9202586736
 21
-18.7364474034
  0
LINE
  5
2B8
100
AcDbEntity
  8
CURVE
100
AcDbLine
 62
250
  6
CONTINUOUS
 10
6.349125
 20
-18.4
 11
8.6
 21
-18.4
  0
LINE
  5
2B9
100
AcDbEntity
  8
CURVE
100
AcDbLine
 62
250
  6
CONTINUOUS
 10
-6.243674
 20
-18.377724
 11
-6.016291
 21
-18.377724
  0
LINE
  5
2BA
100
AcDbEntity
  8
CURVE
100
AcDbLine
 62
250
  6
CONTINUOUS
 10
-1.948747
 20
-18.377724
 11
-1.712967
 21
-18.377724
  0
LINE
  5
2BB
100
AcDbEntity
  8
CURVE
100
AcDbLine
 62
250
  6
CONTINUOUS
 10
1.195555
 20
-18.377724
 11
1.462349
 21
-18.377724
  0
LINE
  5
2BC
100
AcDbEntity
  8
CURVE
100
AcDbLine
 62
250
  6
CONTINUOUS
 10
2.863149
 20
-18.377724
 11
3.138339
 21
-18.377724
  0
LINE
  5
2BD
100
AcDbEntity
  8
CURVE
100
AcDbLine
 62
250
  6
CONTINUOUS
 10
-0.5690086527
 20
-18.0787878235
 11
-0.861717
 21
-18.0787878235
  0
LINE
  5
2BE
100
AcDbEntity
  8
CURVE
100
AcDbLine
 62
250
  6
CONTINUOUS
 10
-6.12013
 20
-18.024055
 11
-6.125785
 21
-18.024055
  0
LINE
  5
2BF
100
AcDbEntity
  8
CURVE
100
AcDbLine
 62
250
  6
CONTINUOUS
 10
1.667286
 20
-17.88903
 11
2.661125
 21
-17.88903
  0
LINE
  5
2C0
100
AcDbEntity
  8
CURVE
100
AcDbLine
 62
250
  6
CONTINUOUS
 10
8.003011
 20
-17.799584
 11
6.083873
 21
-17.799584
  0
LINE
  5
2C1
100
AcDbEntity
  8
CURVE
100
AcDbLine
 62
250
  6
CONTINUOUS
 10
-3.210923
 20
-17.749207
 11
-3.363254
 21
-17.749207
  0
LINE
  5
2C2
100
AcDbEntity
  8
CURVE
100
AcDbLine
 62
250
  6
CONTINUOUS
 10
-3.837898
 20
-17.749207
 11
-3.989887
 21
-17.749207
  0
LINE
  5
2C3
100
AcDbEntity
  8
CURVE
100
AcDbLine
 62
250
  6
CONTINUOUS
 10
-4.464531
 20
-17.749207
 11
-4.619433
 21
-17.749207
  0
LINE
  5
2C4
100
AcDbEntity
  8
CURVE
100
AcDbLine
 62
250
  6
CONTINUOUS
 10
2.571166
 20
-17.670042
 11
1.759816
 21
-17.670042
  0
LINE
  5
2C5
100
AcDbEntity
  8
CURVE
100
AcDbLine
 62
250
  6
CONTINUOUS
 10
-3.207838
 20
-17.251602
 11
-4.616006
 21
-17.251602
  0
LWPOLYLINE
  5
2C6
100
AcDbEntity
  8
CURVE
100
AcDbPolyline
 62
250
  6
CONTINUOUS
 90
89
 70
0
 10
4.2737149774
 20
-15.674138857
 10
4.2852426184
 20
-15.6739280943
 10
4.2965920888
 20
-15.6733124487
 10
4.3077924508
 20
-15.6723007041
 10
4.3188727664
 20
-15.6709016445
 10
4.3298620977
 20
-15.6691240537
 10
4.3407837545
 20
-15.6669744134
 10
4.3516380371
 20
-15.6644499962
 10
4.3624194934
 20
-15.6615457727
 10
4.3731226717
 20
-15.6582567131
 10
4.3837421198
 20
-15.6545777878
 10
4.3942693395
 20
-15.6505063815
 10
4.4046836474
 20
-15.6460495352
 10
4.4149613138
 20
-15.6412167044
 10
4.4250786089
 20
-15.6360173442
 10
4.4350118029
 20
-15.63046091
 10
4.4447388996
 20
-15.6245573469
 10
4.4542448357
 20
-15.6183185584
 10
4.4635162812
 20
-15.611756938
 10
4.4725399064
 20
-15.6048848787
 10
4.4813023813
 20
-15.5977147741
 10
4.4897917286
 20
-15.5902581963
 10
4.4980013815
 20
-15.5825234332
 10
4.5059261258
 20
-15.5745179516
 10
4.5135607472
 20
-15.5662492183
 10
4.5209000314
 20
-15.5577247001
 10
4.5279382909
 20
-15.5489522015
 10
4.5346679444
 20
-15.5399408774
 10
4.5410809372
 20
-15.5307002207
 10
4.5471692146
 20
-15.5212397239
 10
4.5529247219
 20
-15.5115688798
 10
4.5583395844
 20
-15.5016978235
 10
4.5634066468
 20
-15.4916392597
 10
4.5681189338
 20
-15.4814065358
 10
4.5724694702
 20
-15.4710129989
 10
4.5764512806
 20
-15.4604719962
 10
4.5800579501
 20
-15.4497966094
 10
4.5832853052
 20
-15.4389988573
 10
4.5861297327
 20
-15.4280904935
 10
4.5885876195
 20
-15.4170832713
 10
4.5906553525
 20
-15.405988944
 10
4.5924917381
 20
-15.3935751039
 10
4.5938423568
 20
-15.3810906898
 10
4.594707574
 20
-15.3685581548
 10
4.5950877547
 20
-15.3559999515
 10
4.5949832642
 20
-15.343438533
 10
4.5943944679
 20
-15.3308963521
 10
4.5933217308
 20
-15.3183958616
 10
4.5917654182
 20
-15.3059595145
 10
4.5897258954
 20
-15.2936097636
 10
4.5872045733
 20
-15.281367752
 10
4.5842070452
 20
-15.2692493842
 10
4.5807399503
 20
-15.2572692549
 10
4.5768099277
 20
-15.2454419587
 10
4.5724236165
 20
-15.2337820905
 10
4.5675876558
 20
-15.2223042448
 10
4.5623086846
 20
-15.2110230163
 10
4.5565933422
 20
-15.1999529999
 10
4.5504482674
 20
-15.1891087901
 10
4.5445566038
 20
-15.1795544083
 10
4.5383320995
 20
-15.1702070696
 10
4.5317846193
 20
-15.1610790921
 10
4.5249240279
 20
-15.1521827938
 10
4.51776019
 20
-15.1435304927
 10
4.510303301
 20
-15.1351341132
 10
4.5025648782
 20
-15.127004004
 10
4.4945567694
 20
-15.1191501205
 10
4.4862908227
 20
-15.1115824178
 10
4.4777788858
 20
-15.1043108511
 10
4.4690322405
 20
-15.0973447898
 10
4.4600599033
 20
-15.0906912598
 10
4.4508703248
 20
-15.0843567016
 10
4.4414719554
 20
-15.0783475554
 10
4.4318732456
 20
-15.0726702614
 10
4.4220845221
 20
-15.0673315567
 10
4.4121236176
 20
-15.0623393649
 10
4.4020102413
 20
-15.0577019068
 10
4.3917641021
 20
-15.0534274027
 10
4.3814049093
 20
-15.0495240732
 10
4.370950291
 20
-15.0459980614
 10
4.3604095521
 20
-15.0428472008
 10
4.3497899169
 20
-15.0400672476
 10
4.3390986094
 20
-15.0376539578
 10
4.3283428537
 20
-15.0356030876
 10
4.3175239495
 20
-15.0339123834
 10
4.3066194993
 20
-15.0325875524
 10
4.2956011807
 20
-15.031636292
 10
4.2844406717
 20
-15.0310662999
 10
4.2731096501
 20
-15.0308852734
  0
LINE
  5
2C7
100
AcDbEntity
  8
CURVE
100
AcDbLine
 62
250
  6
CONTINUOUS
 10
6.083873
 20
-16.904786
 11
8.003011
 21
-16.904786
  0
LINE
  5
2C8
100
AcDbEntity
  8
CURVE
100
AcDbLine
 62
250
  6
CONTINUOUS
 10
-1.954401
 20
-16.692995
 11
-1.948747
 21
-16.692995
  0
LINE
  5
2C9
100
AcDbEntity
  8
CURVE
100
AcDbLine
 62
250
  6
CONTINUOUS
 10
2.172602
 20
-16.692995
 11
2.178256
 21
-16.692995
  0
LINE
  5
2CA
100
AcDbEntity
  8
CURVE
100
AcDbLine
 62
250
  6
CONTINUOUS
 10
-8.0209331791
 20
-16.6086904457
 11
-7.2095833858
 21
-16.6086904457
  0
LINE
  5
2CB
100
AcDbEntity
  8
CURVE
100
AcDbLine
 62
250
  6
CONTINUOUS
 10
0.1371161684
 20
-16.6086904457
 11
0.9484659617
 21
-16.6086904457
  0
LINE
  5
2CC
100
AcDbEntity
  8
CURVE
100
AcDbLine
 62
250
  6
CONTINUOUS
 10
2.293233
 20
-16.390046
 11
2.071504
 21
-16.390046
  0
LINE
  5
2CD
100
AcDbEntity
  8
CURVE
100
AcDbLine
 62
250
  6
CONTINUOUS
 10
0.9484659617
 20
-16.3900458129
 11
-0.0930090212
 21
-16.3900458129
  0
LINE
  5
2CE
100
AcDbEntity
  8
CURVE
100
AcDbLine
 62
250
  6
CONTINUOUS
 10
-1.712967
 20
-16.390046
 11
-1.917903
 21
-16.390046
  0
LINE
  5
2CF
100
AcDbEntity
  8
CURVE
100
AcDbLine
 62
250
  6
CONTINUOUS
 10
-5.238697
 20
-16.390046
 11
-5.488528
 21
-16.390046
  0
LINE
  5
2D0
100
AcDbEntity
  8
CURVE
100
AcDbLine
 62
250
  6
CONTINUOUS
 10
-6.737852
 20
-16.390046
 11
-7.004476
 21
-16.390046
  0
LINE
  5
2D1
100
AcDbEntity
  8
CURVE
100
AcDbLine
 62
250
  6
CONTINUOUS
 10
-7.2095833858
 20
-16.3900458129
 11
-8.2510583686
 21
-16.3900458129
  0
LWPOLYLINE
  5
2D2
100
AcDbEntity
  8
CURVE
100
AcDbPolyline
 62
250
  6
CONTINUOUS
 90
89
 70
0
 10
-8.4083591311
 20
-18.0490719373
 10
-8.396360878
 20
-18.0725343287
 10
-8.3838362096
 20
-18.0951417248
 10
-8.3708162307
 20
-18.1169040305
 10
-8.3573320461
 20
-18.1378311504
 10
-8.3434147608
 20
-18.1579329893
 10
-8.3290954795
 20
-18.1772194517
 10
-8.3144053072
 20
-18.1957004425
 10
-8.2993753487
 20
-18.2133858662
 10
-8.2840275702
 20
-18.2302850403
 10
-8.2683473831
 20
-18.2464049321
 10
-8.2523110599
 20
-18.2617519216
 10
-8.2358948735
 20
-18.2763323888
 10
-8.219076392
 20
-18.2901516361
 10
-8.2018383669
 20
-18.3032106549
 10
-8.184164845
 20
-18.315509359
 10
-8.1660398732
 20
-18.3270476621
 10
-8.1474537603
 20
-18.3378259192
 10
-8.1284218623
 20
-18.3478462503
 10
-8.1089657969
 20
-18.3571112167
 10
-8.0891071819
 20
-18.3656233795
 10
-8.0688518433
 20
-18.3733850725
 10
-8.0481424399
 20
-18.3803977181
 10
-8.0269058389
 20
-18.3866625113
 10
-8.0050689075
 20
-18.3921806472
 10
-7.9825894924
 20
-18.3969571187
 10
-7.9595493587
 20
-18.4010121124
 10
-7.9360612513
 20
-18.4043696127
 10
-7.9122379148
 20
-18.4070536041
 10
-7.8800958957
 20
-18.4096161015
 10
-7.8475197726
 20
-18.4110211472
 10
-7.8144709692
 20
-18.4112659996
 10
-7.789364746
 20
-18.4106761596
 10
-7.7640373583
 20
-18.4093682943
 10
-7.7385552235
 20
-18.4072785291
 10
-7.7129847589
 20
-18.4043429897
 10
-7.6874271888
 20
-18.4005131621
 10
-7.6621229652
 20
-18.3958019733
 10
-7.6372958491
 20
-18.3902402445
 10
-7.6129636112
 20
-18.383868933
 10
-7.5890804547
 20
-18.3767210377
 10
-7.5655523049
 20
-18.3687875895
 10
-7.5423088163
 20
-18.3600586182
 10
-7.5194228382
 20
-18.3505621173
 10
-7.4969903099
 20
-18.3403317452
 10
-7.4750563354
 20
-18.329385855
 10
-7.4536533105
 20
-18.3177389741
 10
-7.4328136307
 20
-18.3054056295
 10
-7.4125670074
 20
-18.2923966486
 10
-7.3929324164
 20
-18.2787080591
 10
-7.3739261492
 20
-18.264332189
 10
-7.3555644974
 20
-18.2492613661
 10
-7.3378605312
 20
-18.2334883185
 10
-7.3208144346
 20
-18.2170073741
 10
-7.3044231699
 20
-18.1998132613
 10
-7.2886836996
 20
-18.1819007081
 10
-7.2735996162
 20
-18.1632743278
 10
-7.2592010316
 20
-18.1439782735
 10
-7.245524688
 20
-18.1240665837
 10
-7.2326073273
 20
-18.1035932967
 10
-7.2204829381
 20
-18.0826120238
 10
-7.2091744949
 20
-18.0611746678
 10
-7.1987022189
 20
-18.0393327047
 10
-7.1890863311
 20
-18.0171376104
 10
-7.1803426686
 20
-17.9946337895
 10
-7.1724695322
 20
-17.9718373617
 10
-7.1654608389
 20
-17.9487573752
 10
-7.1593105054
 20
-17.9254028787
 10
-7.1540110651
 20
-17.9017804954
 10
-7.1495495182
 20
-17.8778871499
 10
-7.1459114815
 20
-17.8537173414
 10
-7.1430825716
 20
-17.8292655695
 10
-7.1410489476
 20
-17.8045393064
 10
-7.1397989364
 20
-17.7795979151
 10
-7.1393214072
 20
-17.7545137315
 10
-7.1396052291
 20
-17.7293590913
 10
-7.1406451042
 20
-17.7042023273
 10
-7.1424590653
 20
-17.6790957593
 10
-7.1450709784
 20
-17.6540877039
 10
-7.1485047093
 20
-17.6292264778
 10
-7.1527807855
 20
-17.6045567947
 10
-7.1579063815
 20
-17.5801089568
 10
-7.1638853338
 20
-17.5559096634
 10
-7.1707214787
 20
-17.5319856138
 10
-7.1784199487
 20
-17.5083607701
 10
-7.1869910618
 20
-17.4850481463
 10
-7.1964464322
 20
-17.4620580195
 10
-7.2067976744
 20
-17.4394006666
 10
-7.2180494755
 20
-17.4170993006
  0
LINE
  5
2D3
100
AcDbEntity
  8
ASSI
100
AcDbLine
 62
7
  6
CONTINUOUS
 10
-3.2333672024
 20
22.5
 11
-3.3
 21
22.4
  0
LWPOLYLINE
  5
2D4
100
AcDbEntity
  8
CURVE
100
AcDbPolyline
 62
250
  6
CONTINUOUS
 90
88
 70
0
 10
4.2731096501
 20
-15.0308852734
 10
4.2616183015
 20
-15.0311039638
 10
4.2503025411
 20
-15.0317221163
 10
4.2391333778
 20
-15.0327316051
 10
4.2280818203
 20
-15.0341243043
 10
4.2171188775
 20
-15.0358920881
 10
4.20622126
 20
-15.0380291363
 10
4.1953884858
 20
-15.0405388508
 10
4.1846257748
 20
-15.0434269387
 10
4.173938347
 20
-15.0466991076
 10
4.1633314224
 20
-15.0503610646
 10
4.1528133747
 20
-15.054415994
 10
4.1424051938
 20
-15.0588569867
 10
4.1321310233
 20
-15.0636746108
 10
4.122015007
 20
-15.0688594341
 10
4.1120812886
 20
-15.0744020245
 10
4.1023522088
 20
-15.0802924085
 10
4.0928428965
 20
-15.0865184476
 10
4.0835666777
 20
-15.0930674619
 10
4.0745368783
 20
-15.0999267714
 10
4.0657668244
 20
-15.1070836963
 10
4.0572685007
 20
-15.1145264361
 10
4.0490485276
 20
-15.1222467087
 10
4.041112184
 20
-15.1302371112
 10
4.0334647492
 20
-15.138490241
 10
4.0261115021
 20
-15.1469986954
 10
4.0190582299
 20
-15.1557547547
 10
4.0123127511
 20
-15.1647494317
 10
4.0058833923
 20
-15.1739734222
 10
3.99977848
 20
-15.1834174221
 10
3.9940063408
 20
-15.1930721272
 10
3.9885751095
 20
-15.2029275611
 10
3.9834921542
 20
-15.2129710578
 10
3.9787646514
 20
-15.2231892788
 10
3.9743997775
 20
-15.2335688859
 10
3.9704047089
 20
-15.2440965405
 10
3.9667859733
 20
-15.2547590381
 10
3.9635475032
 20
-15.2655437082
 10
3.9606925823
 20
-15.2764380143
 10
3.9582244943
 20
-15.2874294196
 10
3.9561465229
 20
-15.2985053876
 10
3.9542983327
 20
-15.3108952245
 10
3.9529350985
 20
-15.3233524386
 10
3.9520560969
 20
-15.3358554859
 10
3.9516606045
 20
-15.3483828226
 10
3.9517478978
 20
-15.360912905
 10
3.9523172535
 20
-15.373424189
 10
3.9533679481
 20
-15.385895131
 10
3.9548992582
 20
-15.3983041871
 10
3.9569104604
 20
-15.4106298134
 10
3.9594000086
 20
-15.4228516112
 10
3.9623630668
 20
-15.4349537616
 10
3.9657939763
 20
-15.4469215913
 10
3.9696870785
 20
-15.4587404264
 10
3.9740367146
 20
-15.4703955933
 10
3.978837226
 20
-15.4818724184
 10
3.9840829541
 20
-15.4931562282
 10
3.9897682401
 20
-15.5042323488
 10
3.9958874254
 20
-15.5150861067
 10
4.0024333861
 20
-15.5257025749
 10
4.0093931376
 20
-15.5360658124
 10
4.0167522296
 20
-15.5461596249
 10
4.0244962124
 20
-15.5559678183
 10
4.032610636
 20
-15.5654741981
 10
4.0410810502
 20
-15.5746625701
 10
4.0498930053
 20
-15.5835167399
 10
4.0590320511
 20
-15.5920205134
 10
4.0684837377
 20
-15.6001576961
 10
4.0772457573
 20
-15.6071554257
 10
4.0862395969
 20
-15.6138378027
 10
4.0954555421
 20
-15.6201995302
 10
4.1048838783
 20
-15.6262353115
 10
4.114514891
 20
-15.6319398497
 10
4.124337095
 20
-15.6373073061
 10
4.1343319228
 20
-15.6423296734
 10
4.1444790362
 20
-15.6469984028
 10
4.154758097
 20
-15.651304945
 10
4.1651487669
 20
-15.655240751
 10
4.1756329771
 20
-15.6587993363
 10
4.1862017355
 20
-15.6619824751
 10
4.1968483197
 20
-15.6647940063
 10
4.207566007
 20
-15.6672377686
 10
4.2183480748
 20
-15.6693176009
 10
4.2291936097
 20
-15.6710353155
 10
4.2401249348
 20
-15.6723846187
 10
4.2511701829
 20
-15.6733571902
 10
4.2623574862
 20
-15.6739447097
 10
4.2737149774
 20
-15.674138857
  0
LINE
  5
2D5
100
AcDbEntity
  8
CURVE
100
AcDbLine
 62
250
  6
CONTINUOUS
 10
6.192853
 20
-14.862618
 11
6.830966
 21
-14.862618
  0
LINE
  5
2D6
100
AcDbEntity
  8
CURVE
100
AcDbLine
 62
250
  6
CONTINUOUS
 10
6.830966
 20
-14.224847
 11
6.192853
 21
-14.224847
  0
LINE
  5
2D7
100
AcDbEntity
  8
ASSI
100
AcDbLine
 62
7
  6
CONTINUOUS
 10
-3.3
 20
-22.4
 11
-3.2333672024
 21
-22.5
  0
LWPOLYLINE
  5
2D8
100
AcDbEntity
  8
CURVE
100
AcDbPolyline
 62
250
  6
CONTINUOUS
 90
55
 70
0
 10
-7.2180494755
 20
-17.4170993006
 10
-7.2270658491
 20
-17.4006512765
 10
-7.2365632044
 20
-17.3844827384
 10
-7.2465289077
 20
-17.3686307664
 10
-7.2569503251
 20
-17.3531324403
 10
-7.2685519245
 20
-17.3370300226
 10
-7.2806264637
 20
-17.3214024959
 10
-7.2931427554
 20
-17.306280192
 10
-7.3060696126
 20
-17.2916934428
 10
-7.319375848
 20
-17.2776725798
 10
-7.3330323793
 20
-17.2642405704
 10
-7.3470185421
 20
-17.251390923
 10
-7.3613157767
 20
-17.2391097815
 10
-7.3759055237
 20
-17.22738329
 10
-7.3907692233
 20
-17.2161975924
 10
-7.4058852404
 20
-17.2055419904
 10
-7.4212196382
 20
-17.1954184174
 10
-7.4367354046
 20
-17.1858319648
 10
-7.4523955272
 20
-17.1767877239
 10
-7.4681629939
 20
-17.1682907858
 10
-7.4840055337
 20
-17.1603432376
 10
-7.4999098413
 20
-17.1529351487
 10
-7.5158673528
 20
-17.1460535844
 10
-7.5318695041
 20
-17.1396856097
 10
-7.5479077314
 20
-17.13381829
 10
-7.5639698811
 20
-17.1284393336
 10
-7.5800294422
 20
-17.1235390213
 10
-7.596056314
 20
-17.1191082772
 10
-7.6120203958
 20
-17.1151380256
 10
-7.6278915871
 20
-17.1116191904
 10
-7.6436457035
 20
-17.1085406949
 10
-7.6592822254
 20
-17.1058834589
 10
-7.6748065494
 20
-17.1036264016
 10
-7.6902240722
 20
-17.1017484418
 10
-7.7055401904
 20
-17.1002284987
 10
-7.724537776
 20
-17.0988028469
 10
-7.743316789
 20
-17.0978800732
 10
-7.7618215231
 20
-17.0974345359
 10
-7.780047688
 20
-17.0974323618
 10
-7.7980056601
 20
-17.0978315495
 10
-7.8157130686
 20
-17.0985658166
 10
-7.8331809217
 20
-17.0995728684
 10
-7.8503864921
 20
-17.1008306421
 10
-7.8672999314
 20
-17.1023403574
 10
-7.8838966414
 20
-17.1041561317
 10
-7.90015477
 20
-17.1063376382
 10
-7.9160581978
 20
-17.1089138739
 10
-7.9315958278
 20
-17.111904575
 10
-7.9467709191
 20
-17.1153231084
 10
-7.9615801009
 20
-17.1191773617
 10
-7.9759791278
 20
-17.1234596743
 10
-7.989928301
 20
-17.1281644732
 10
-8.0034469852
 20
-17.133310083
 10
-8.0165693105
 20
-17.1389208029
 10
-8.0293294072
 20
-17.1450209321
  0
LWPOLYLINE
  5
2D9
100
AcDbEntity
  8
ASSI
100
AcDbPolyline
 62
250
  6
CONTINUOUS
 90
16
 70
0
 10
-11.0087219643
 20
-21.4755923698
 10
-11.0059389623
 20
-21.5277533032
 10
-10.9977157646
 20
-21.5793436708
 10
-10.9841422864
 20
-21.6297989096
 10
-10.9653669917
 20
-21.6785668706
 10
-10.9415952756
 20
-21.7251138478
 10
-10.9130872219
 20
-21.7689304222
 10
-10.8801547429
 20
-21.8095370623
 10
-10.843158184
 20
-21.8464893433
 10
-10.8025023985
 20
-21.8793828084
 10
-10.7586322667
 20
-21.9078574436
 10
-10.7120278628
 20
-21.9316015798
 10
-10.6631992385
 20
-21.9503553003
 10
-10.6126807679
 20
-21.9639133265
 10
-10.5610252917
 20
-21.9721272495
 10
-10.5087981166
 20
-21.974907137
  0
LWPOLYLINE
  5
2DA
100
AcDbEntity
  8
ASSI
100
AcDbPolyline
 62
250
  6
CONTINUOUS
 90
16
 70
0
 10
-11.0087219643
 20
21.4755923698
 10
-11.0059388076
 20
21.5277547588
 10
-10.9977152003
 20
21.5793463095
 10
-10.9841411372
 20
21.6298024308
 10
-10.9653651658
 20
21.6785709568
 10
-10.9415927608
 20
21.7251181902
 10
-10.913084075
 20
21.768934742
 10
-10.8801510927
 20
21.8095411066
 10
-10.8431542155
 20
21.8464929089
 10
-10.8024983179
 20
21.8793857675
 10
-10.7586283172
 20
21.90785972
 10
-10.712024304
 20
21.931603162
 10
-10.6631962884
 20
21.9503562578
 10
-10.612678619
 20
21.9639137831
 10
-10.5610241352
 20
21.9721273713
 10
-10.5087981167
 20
21.9749071372
  0
LINE
  5
2DB
100
AcDbEntity
  8
CURVE
100
AcDbLine
 62
250
  6
CONTINUOUS
 10
5.050966
 20
-13.547323
 11
5.735001
 21
-13.547323
  0
LINE
  5
2DC
100
AcDbEntity
  8
CURVE
100
AcDbLine
 62
250
  6
CONTINUOUS
 10
8.6
 20
-13.01202
 11
6.031097
 21
-13.01202
  0
LINE
  5
2DD
100
AcDbEntity
  8
CURVE
100
AcDbLine
 62
250
  6
CONTINUOUS
 10
6.5335
 20
-12.500022
 11
7.544474
 21
-12.500022
  0
LINE
  5
2DE
100
AcDbEntity
  8
CURVE
100
AcDbLine
 62
250
  6
CONTINUOUS
 10
-2.451321
 20
-16.822195
 11
-2.310984
 21
-16.993546
  0
LINE
  5
2DF
100
AcDbEntity
  8
CURVE
100
AcDbLine
 62
250
  6
CONTINUOUS
 10
-7.004476
 20
-16.390046
 11
-6.243674
 21
-18.377724
  0
LINE
  5
2E0
100
AcDbEntity
  8
CURVE
100
AcDbLine
 62
250
  6
CONTINUOUS
 10
-6.125785
 20
-18.024055
 11
-6.737852
 21
-16.390046
  0
LWPOLYLINE
  5
2E1
100
AcDbEntity
  8
ASSI
100
AcDbPolyline
 62
250
  6
CONTINUOUS
 90
7
 70
0
 10
-11.0046627389
 20
21.4041254633
 10
-11.0052891369
 20
21.4238228917
 10
-11.0059457953
 20
21.4406561357
 10
-11.0066187988
 20
21.4542838409
 10
-11.0073035089
 20
21.4645922227
 10
-11.0080045641
 20
21.4716950656
 10
-11.0087219643
 20
21.4755923698
  0
LINE
  5
2E2
100
AcDbEntity
  8
ASSI
100
AcDbLine
 62
250
  6
CONTINUOUS
 10
-11.0035024636
 20
21.3560260411
 11
-11.0046627389
 21
21.4041254633
  0
LINE
  5
2E3
100
AcDbEntity
  8
ASSI
100
AcDbLine
 62
250
  6
CONTINUOUS
 10
-11.0024980441
 20
21.2979562724
 11
-11.0035024636
 21
21.3560260411
  0
LINE
  5
2E4
100
AcDbEntity
  8
ASSI
100
AcDbLine
 62
250
  6
CONTINUOUS
 10
-11.0013312402
 20
21.1949860367
 11
-11.0024980441
 21
21.2979562724
  0
LINE
  5
2E5
100
AcDbEntity
  8
ASSI
100
AcDbLine
 62
250
  6
CONTINUOUS
 10
-10.5030519894
 20
21.6796926689
 11
-10.5047341778
 21
21.8316431047
  0
LINE
  5
2E6
100
AcDbEntity
  8
ASSI
100
AcDbLine
 62
250
  6
CONTINUOUS
 10
-11.0006377707
 20
21.0790132523
 11
-11.0013312402
 21
21.1949860367
  0
LINE
  5
2E7
100
AcDbEntity
  8
ASSI
100
AcDbLine
 62
250
  6
CONTINUOUS
 10
-10.5011186535
 20
21.3380089963
 11
-10.5030519894
 21
21.6796926689
  0
LINE
  5
2E8
100
AcDbEntity
  8
ASSI
100
AcDbLine
 62
250
  6
CONTINUOUS
 10
-10.9951308334
 20
11.6670144863
 11
-11.0006377707
 21
21.0790132523
  0
LINE
  5
2E9
100
AcDbEntity
  8
ASSI
100
AcDbLine
 62
250
  6
CONTINUOUS
 10
-10.4936846759
 20
7.0079400908
 11
-10.5011186535
 21
21.3380089963
  0
LINE
  5
2EA
100
AcDbEntity
  8
ASSI
100
AcDbLine
 62
7
  6
CONTINUOUS
 10
-11.15
 20
-21.8997711479
 11
-11.15
 21
21.8997711479
  0
LINE
  5
2EB
100
AcDbEntity
  8
ASSI
100
AcDbLine
 62
250
  6
CONTINUOUS
 10
-10.9928473781
 20
-2.3338756638
 11
-10.9951308334
 21
11.6670144863
  0
LINE
  5
2EC
100
AcDbEntity
  8
ASSI
100
AcDbLine
 62
250
  6
CONTINUOUS
 10
-10.4936846755
 20
-7.0079400855
 11
-10.4936846759
 21
7.0079400908
  0
LINE
  5
2ED
100
AcDbEntity
  8
ASSI
100
AcDbLine
 62
250
  6
CONTINUOUS
 10
-10.9974142989
 20
-16.3324771154
 11
-10.9928473781
 21
-2.3338756638
  0
LINE
  5
2EE
100
AcDbEntity
  8
ASSI
100
AcDbLine
 62
250
  6
CONTINUOUS
 10
-11.00081144
 20
-21.1184484404
 11
-10.9974142989
 21
-16.3324771154
  0
LINE
  5
2EF
100
AcDbEntity
  8
ASSI
100
AcDbLine
 62
250
  6
CONTINUOUS
 10
-10.5017441538
 20
-21.4854586496
 11
-10.4936846755
 21
-7.0079400855
  0
LINE
  5
2F0
100
AcDbEntity
  8
ASSI
100
AcDbLine
 62
250
  6
CONTINUOUS
 10
-11.0016694038
 20
-21.2310600855
 11
-11.00081144
 21
-21.1184484404
  0
LINE
  5
2F1
100
AcDbEntity
  8
ASSI
100
AcDbLine
 62
250
  6
CONTINUOUS
 10
-10.5035748986
 20
-21.7355556626
 11
-10.5017441538
 21
-21.4854586496
  0
LINE
  5
2F2
100
AcDbEntity
  8
ASSI
100
AcDbLine
 62
250
  6
CONTINUOUS
 10
-10.5047341778
 20
-21.8316431047
 11
-10.5035748986
 21
-21.7355556626
  0
LINE
  5
2F3
100
AcDbEntity
  8
ASSI
100
AcDbLine
 62
250
  6
CONTINUOUS
 10
-11.0024980441
 20
-21.2979562723
 11
-11.0016694038
 21
-21.2310600855
  0
LINE
  5
2F4
100
AcDbEntity
  8
ASSI
100
AcDbLine
 62
250
  6
CONTINUOUS
 10
-11.0035024636
 20
-21.3560260412
 11
-11.0024980441
 21
-21.2979562723
  0
LWPOLYLINE
  5
2F5
100
AcDbEntity
  8
0
100
AcDbPolyline
 62
7
  6
CONTINUOUS
 90
3
 70
0
 43
0.3500000019
 10
1.1428554688
 20
37.6156870117
 10
1.0714306641
 20
37.4014018555
 10
0.9285703125
 20
37.1156865234
  0
LWPOLYLINE
  5
2F6
100
AcDbEntity
  8
ASSI
100
AcDbPolyline
 62
250
  6
CONTINUOUS
 90
5
 70
0
 10
-10.5060157159
 20
21.9047687004
 10
-10.5066888073
 20
21.9320760821
 10
-10.5073747238
 20
21.952953371
 10
-10.5080778269
 20
21.9672621499
 10
-10.5087981167
 20
21.9749071372
  0
LINE
  5
2F7
100
AcDbEntity
  8
ASSI
100
AcDbLine
 62
250
  6
CONTINUOUS
 10
-10.5047341778
 20
21.8316431047
 11
-10.5060157159
 21
21.9047687004
  0
LINE
  5
2F8
100
AcDbEntity
  8
CURVE
100
AcDbLine
 62
250
  6
CONTINUOUS
 10
5.3381510737
 20
-17.5562647556
 11
4.436505826
 21
-16.654276677
  0
LWPOLYLINE
  5
2F9
100
AcDbEntity
  8
CURVE
100
AcDbPolyline
 62
250
  6
CONTINUOUS
 90
37
 70
0
 10
4.4351436377
 20
-16.654967986
 10
4.4270211674
 20
-16.6467237972
 10
4.4191256758
 20
-16.6383184452
 10
4.4114439593
 20
-16.6297445182
 10
4.403962814
 20
-16.6209946047
 10
4.3966690364
 20
-16.6120612929
 10
4.3895494228
 20
-16.6029371712
 10
4.3825929266
 20
-16.5936147983
 10
4.37579713
 20
-16.5840866146
 10
4.3691617723
 20
-16.5743450309
 10
4.3626865927
 20
-16.5643824579
 10
4.3563713304
 20
-16.5541913066
 10
4.3502157248
 20
-16.5437639876
 10
4.3442221868
 20
-16.5330979961
 10
4.3384038141
 20
-16.5222111643
 10
4.3327763761
 20
-16.5111264088
 10
4.327355642
 20
-16.499866646
 10
4.3221573813
 20
-16.4884547925
 10
4.3171973633
 20
-16.4769137648
 10
4.3124895976
 20
-16.465267212
 10
4.3080410549
 20
-16.4535417129
 10
4.303856946
 20
-16.4417645789
 10
4.2999424819
 20
-16.4299631214
 10
4.2963028735
 20
-16.4181646518
 10
4.2929433317
 20
-16.4063964813
 10
4.2898673377
 20
-16.3946804492
 10
4.2870714549
 20
-16.3830165055
 10
4.2845505168
 20
-16.3713991283
 10
4.2822993571
 20
-16.3598227953
 10
4.2803128094
 20
-16.3482819845
 10
4.2785857073
 20
-16.3367711739
 10
4.2771144254
 20
-16.3252833306
 10
4.275901502
 20
-16.3138053793
 10
4.2749510163
 20
-16.3023227341
 10
4.2742670475
 20
-16.290820809
 10
4.2738536748
 20
-16.2792850181
 10
4.2737149774
 20
-16.2677007755
  0
LINE
  5
2FA
100
AcDbEntity
  8
CURVE
100
AcDbLine
 62
250
  6
CONTINUOUS
 10
-7.2095833858
 20
-16.6086904457
 11
-7.2095833858
 21
-16.3900458148
  0
LINE
  5
2FB
100
AcDbEntity
  8
CURVE
100
AcDbLine
 62
250
  6
CONTINUOUS
 10
-8.0293294072
 20
-17.1450209321
 11
-8.0209331791
 21
-16.6086904457
  0
LINE
  5
2FC
100
AcDbEntity
  8
CURVE
100
AcDbLine
 62
250
  6
CONTINUOUS
 10
-8.2510583686
 20
-16.3900458129
 11
-8.2707638018
 21
-17.4229532161
  0
LWPOLYLINE
  5
2FD
100
AcDbEntity
  8
ASSI
100
AcDbPolyline
 62
250
  6
CONTINUOUS
 90
6
 70
0
 10
-10.5087981167
 20
-21.9749071372
 10
-10.5080778269
 20
-21.9672621499
 10
-10.5073747238
 20
-21.952953371
 10
-10.5066888073
 20
-21.9320760821
 10
-10.5060157159
 20
-21.9047687004
 10
-10.5047341778
 20
-21.8316431047
  0
LWPOLYLINE
  5
2FE
100
AcDbEntity
  8
ASSI
100
AcDbPolyline
 62
250
  6
CONTINUOUS
 90
8
 70
0
 10
-11.0087219643
 20
-21.4755923698
 10
-11.0080045641
 20
-21.4716950654
 10
-11.0073035089
 20
-21.4645922224
 10
-11.0066187988
 20
-21.4542838406
 10
-11.0059457953
 20
-21.4406561355
 10
-11.0052891369
 20
-21.4238228918
 10
-11.0046627389
 20
-21.4041254635
 10
-11.0035024636
 20
-21.3560260412
  0
LINE
  5
2FF
100
AcDbEntity
  8
ASSI
100
AcDbLine
 62
7
  6
CONTINUOUS
 10
-3.3848722771
 20
22.4
 11
-3.3633443637
 21
22.5
  0
LWPOLYLINE
  5
300
100
AcDbEntity
  8
CURVE
100
AcDbPolyline
 62
250
  6
CONTINUOUS
 90
55
 70
0
 10
0.9466223026
 20
-17.4299574235
 10
0.937475942
 20
-17.4123723863
 10
0.9277794429
 20
-17.39506762
 10
0.917547603
 20
-17.3780861604
 10
0.9067952201
 20
-17.3614710434
 10
0.8955370919
 20
-17.3452653048
 10
0.8837915743
 20
-17.3295098525
 10
0.8715912552
 20
-17.3142370819
 10
0.8589722807
 20
-17.2994772606
 10
0.8459707968
 20
-17.2852606559
 10
0.8326229495
 20
-17.2716175353
 10
0.8189613843
 20
-17.2585700331
 10
0.805004745
 20
-17.2461077511
 10
0.7907681746
 20
-17.2342121581
 10
0.7762668163
 20
-17.2228647228
 10
0.7615158134
 20
-17.2120469138
 10
0.7465329053
 20
-17.2017438827
 10
0.7313462173
 20
-17.1919555129
 10
0.7159864709
 20
-17.1826853705
 10
0.7004843878
 20
-17.1739370217
 10
0.6848706896
 20
-17.1657140325
 10
0.6691728844
 20
-17.1580176574
 10
0.6534056264
 20
-17.1508399039
 10
0.6375803564
 20
-17.1441704677
 10
0.621708515
 20
-17.1379990443
 10
0.6058015432
 20
-17.1323153295
 10
0.5898740486
 20
-17.1271092163
 10
0.5739533078
 20
-17.1223713871
 10
0.558069764
 20
-17.1180927216
 10
0.5422538609
 20
-17.1142640994
 10
0.5265360419
 20
-17.1108764002
 10
0.5070610065
 20
-17.1072440848
 10
0.4877738287
 20
-17.1042455765
 10
0.4686615415
 20
-17.1018399903
 10
0.4497111783
 20
-17.0999864417
 10
0.4309227221
 20
-17.098647201
 10
0.4123479548
 20
-17.0977971591
 10
0.3940390533
 20
-17.0974119859
 10
0.3759979743
 20
-17.0974578459
 10
0.358213062
 20
-17.0978926862
 10
0.3406684299
 20
-17.0986510912
 10
0.3233552595
 20
-17.0996727313
 10
0.3062972366
 20
-17.1009409851
 10
0.2895249319
 20
-17.1024619702
 10
0.2730639525
 20
-17.1042890521
 10
0.2569371194
 20
-17.1064798201
 10
0.2411610749
 20
-17.1090615101
 10
0.225747092
 20
-17.1120524655
 10
0.2106911474
 20
-17.1154658121
 10
0.1959956649
 20
-17.1193095016
 10
0.1817041545
 20
-17.1235760072
 10
0.1678558117
 20
-17.1282598492
 10
0.1544314861
 20
-17.1333792147
 10
0.1413974412
 20
-17.1389582077
 10
0.1287199404
 20
-17.1450209321
  0
LWPOLYLINE
  5
301
100
AcDbEntity
  8
CURVE
100
AcDbPolyline
 62
250
  6
CONTINUOUS
 90
88
 70
0
 10
-0.2503097836
 20
-18.0490719373
 10
-0.2401147344
 20
-18.0691314997
 10
-0.2295771424
 20
-18.0884857426
 10
-0.2186958643
 20
-18.1071813431
 10
-0.2074697571
 20
-18.1252649786
 10
-0.1958976775
 20
-18.1427833263
 10
-0.1809561317
 20
-18.1639347556
 10
-0.1655408992
 20
-18.1842309459
 10
-0.1497206611
 20
-18.2036269872
 10
-0.133564099
 20
-18.2220779696
 10
-0.1171219428
 20
-18.2395517605
 10
-0.1003731169
 20
-18.2560673379
 10
-0.0832785947
 20
-18.2716564573
 10
-0.0657993492
 20
-18.2863508742
 10
-0.0479038179
 20
-18.3001777133
 10
-0.0295902957
 20
-18.3131455762
 10
-0.0108645415
 20
-18.3252584338
 10
0.0082676856
 20
-18.336520257
 10
0.0277985993
 20
-18.3469355973
 10
0.0477123037
 20
-18.3565113277
 10
0.0679908758
 20
-18.3652549021
 10
0.0886163925
 20
-18.373173774
 10
0.1095879384
 20
-18.3802782364
 10
0.1309726279
 20
-18.386589938
 10
0.1528545835
 20
-18.3921333665
 10
0.1753179274
 20
-18.39693301
 10
0.198411528
 20
-18.4010123523
 10
0.2220432389
 20
-18.4043908622
 10
0.2460856601
 20
-18.4070870043
 10
0.2704113914
 20
-18.4091192436
 10
0.3031165749
 20
-18.4108160511
 10
0.3360991554
 20
-18.4113370528
 10
0.3693593568
 20
-18.4106538882
 10
0.3944735636
 20
-18.4093269788
 10
0.4196645462
 20
-18.4072513605
 10
0.4448527928
 20
-18.4043716207
 10
0.4699587916
 20
-18.4006323467
 10
0.4949014716
 20
-18.395995274
 10
0.5195935254
 20
-18.3904907306
 10
0.5439460864
 20
-18.3841661927
 10
0.567870288
 20
-18.3770691365
 10
0.5912966816
 20
-18.3692396199
 10
0.6142334911
 20
-18.3606880274
 10
0.6367083586
 20
-18.3514173254
 10
0.6587489259
 20
-18.3414304804
 10
0.6803690563
 20
-18.330733037
 10
0.7015274987
 20
-18.3193408539
 10
0.7221692229
 20
-18.3072723683
 10
0.7422391991
 20
-18.2945460173
 10
0.7616906588
 20
-18.2811757373
 10
0.7805098798
 20
-18.2671574622
 10
0.7986914014
 20
-18.2524826255
 10
0.8162297628
 20
-18.2371426603
 10
0.8331208128
 20
-18.2211299485
 10
0.8493656376
 20
-18.2044406658
 10
0.8649666331
 20
-18.1870719363
 10
0.8799261947
 20
-18.1690208842
 10
0.8962327798
 20
-18.1475646437
 10
0.9116620732
 20
-18.1252854739
 10
0.9261714449
 20
-18.1022553988
 10
0.939718265
 20
-18.078546442
 10
0.9522599038
 20
-18.0542306274
 10
0.9637537312
 20
-18.0293799789
 10
0.9741571175
 20
-18.0040665201
 10
0.9823382103
 20
-17.9815879764
 10
0.9896601078
 20
-17.9588210556
 10
0.9961311223
 20
-17.9357765764
 10
1.001759566
 20
-17.9124653575
 10
1.0065551812
 20
-17.8888955617
 10
1.0105334311
 20
-17.8650647286
 10
1.0137112088
 20
-17.8409677418
 10
1.0161054076
 20
-17.8165994848
 10
1.0177306797
 20
-17.7919678105
 10
1.018592714
 20
-17.7671324491
 10
1.0186949584
 20
-17.7421660997
 10
1.0180408609
 20
-17.7171414617
 10
1.0166294906
 20
-17.692127349
 10
1.0144424025
 20
-17.6671770335
 10
1.0114567729
 20
-17.6423399017
 10
1.0076497779
 20
-17.6176653402
 10
1.0030021155
 20
-17.5931989332
 10
0.99750857
 20
-17.5689710567
 10
0.9911674477
 20
-17.5450082845
 10
0.9839770546
 20
-17.5213371903
 10
0.9759346563
 20
-17.4979821034
 10
0.9670333562
 20
-17.4749583754
 10
0.9572652174
 20
-17.4522791131
 10
0.9466223026
 20
-17.4299574235
  0
LINE
  5
302
100
AcDbEntity
  8
ASSI
100
AcDbLine
 62
7
  6
CONTINUOUS
 10
-3.3848722771
 20
-22.4
 11
-3.3633443637
 21
-22.5
  0
LWPOLYLINE
  5
303
100
AcDbEntity
  8
ASSI
100
AcDbPolyline
 62
250
  6
CONTINUOUS
 90
22
 70
0
 10
0.78
 20
-4.9697253488
 10
0.8851161256
 20
-4.9650094579
 10
0.9875590406
 20
-4.9526893143
 10
1.0873287451
 20
-4.9327649126
 10
1.184700028
 20
-4.905043769
 10
1.2793981004
 20
-4.8697183457
 10
1.3705985948
 20
-4.8273660522
 10
1.4587688953
 20
-4.7775519834
 10
1.5434416178
 20
-4.7207110071
 10
1.6223902427
 20
-4.6587251954
 10
1.6953459538
 20
-4.5910746086
 10
1.7625775673
 20
-4.5182791502
 10
1.8226650132
 20
-4.443780676
 10
1.8746509117
 20
-4.3688237143
 10
1.9194926424
 20
-4.2921637297
 10
1.9586422746
 20
-4.2135089947
 10
1.9925827571
 20
-4.1337586895
 10
2.0208311411
 20
-4.0520136241
 10
2.043390648
 20
-3.9652845033
 10
2.060262352
 20
-3.8725748774
 10
2.0714451789
 20
-3.7748811565
 10
2.0769391289
 20
-3.672203322
  0
LINE
  5
304
100
AcDbEntity
  8
ASSI
100
AcDbLine
 62
250
  6
CONTINUOUS
 10
-0.78
 20
-4.9697253488
 11
0.78
 21
-4.9697253488
  0
LINE
  5
305
100
AcDbEntity
  8
ASSI
100
AcDbLine
 62
7
  6
CONTINUOUS
 10
-3.4698202597
 20
22.4
 11
-3.4698202597
 21
22.5
  0
LINE
  5
306
100
AcDbEntity
  8
ASSI
100
AcDbLine
 62
7
  6
CONTINUOUS
 10
-3.4698202597
 20
-22.4
 11
-3.4698202597
 21
-22.5
  0
LINE
  5
307
100
AcDbEntity
  8
ASSI
100
AcDbLine
 62
250
  6
CONTINUOUS
 10
-11.15
 20
-21.8997711479
 11
-11.0087219643
 21
-21.4755923698
  0
LWPOLYLINE
  5
308
100
AcDbEntity
  8
ASSI
100
AcDbPolyline
 62
250
  6
CONTINUOUS
 90
4
 70
0
 10
-1.7769848213
 20
-3.6699999984
 10
-1.780169975
 20
-3.6702844453
 10
-1.7883205711
 20
-3.6705641343
 10
-1.8013003109
 20
-3.6708343857
  0
LWPOLYLINE
  5
309
100
AcDbEntity
  8
ASSI
100
AcDbPolyline
 62
250
  6
CONTINUOUS
 90
22
 70
0
 10
0.78
 20
-4.666789205
 10
0.8600461602
 20
-4.6635708401
 10
0.9389538997
 20
-4.6540367387
 10
1.0162398054
 20
-4.6383967182
 10
1.0912297682
 20
-4.616967245
 10
1.1637344133
 20
-4.589984171
 10
1.2339877187
 20
-4.5574302093
 10
1.3020031982
 20
-4.5192152272
 10
1.3668762521
 20
-4.4757598456
 10
1.4275418421
 20
-4.4278802205
 10
1.4838924235
 20
-4.3758682867
 10
1.5355573894
 20
-4.3202850978
 10
1.5814985587
 20
-4.2627570968
 10
1.6212683125
 20
-4.2048378378
 10
1.6557790242
 20
-4.1462542404
 10
1.6860318543
 20
-4.0858563879
 10
1.7117994834
 20
-4.0244053514
 10
1.7332751711
 20
-3.9617930666
 10
1.7511866889
 20
-3.8951605695
 10
1.7650537855
 20
-3.8236068219
 10
1.7738813675
 20
-3.7484334037
 10
1.776984821
 20
-3.67
  0
LINE
  5
30A
100
AcDbEntity
  8
ASSI
100
AcDbLine
 62
250
  6
CONTINUOUS
 10
-1.8013003109
 20
-3.6708343857
 11
-1.8408015871
 21
-3.6713287209
  0
LINE
  5
30B
100
AcDbEntity
  8
ASSI
100
AcDbLine
 62
250
  6
CONTINUOUS
 10
-1.8408015871
 20
-3.6713287209
 11
-1.9284486199
 21
-3.6718954533
  0
LINE
  5
30C
100
AcDbEntity
  8
ASSI
100
AcDbLine
 62
250
  6
CONTINUOUS
 10
-1.9284486199
 20
-3.6718954533
 11
-2.0769391289
 21
-3.6722033213
  0
LINE
  5
30D
100
AcDbEntity
  8
ASSI
100
AcDbLine
 62
250
  6
CONTINUOUS
 10
-0.78
 20
-4.666789205
 11
0.78
 21
-4.666789205
  0
LINE
  5
30E
100
AcDbEntity
  8
ASSI
100
AcDbLine
 62
7
  6
CONTINUOUS
 10
0.78
 20
-4.6322185454
 11
-0.78
 21
-4.6322185454
  0
LINE
  5
30F
100
AcDbEntity
  8
ASSI
100
AcDbLine
 62
250
  6
CONTINUOUS
 10
1.7769848203
 20
-3.67
 11
1.7422185454
 21
-3.67
  0
LINE
  5
310
100
AcDbEntity
  8
ASSI
100
AcDbLine
 62
250
  6
CONTINUOUS
 10
-1.7769848203
 20
-3.67
 11
-1.7422185454
 21
-3.67
  0
LINE
  5
311
100
AcDbEntity
  8
ASSI
100
AcDbLine
 62
250
  6
CONTINUOUS
 10
1.8960462971
 20
-3.6717345312
 11
2.0769391289
 21
-3.672203322
  0
LINE
  5
312
100
AcDbEntity
  8
ASSI
100
AcDbLine
 62
250
  6
CONTINUOUS
 10
1.8408047369
 20
-3.6713287529
 11
1.8960462971
 21
-3.6717345312
  0
LWPOLYLINE
  5
313
100
AcDbEntity
  8
ASSI
100
AcDbPolyline
 62
250
  6
CONTINUOUS
 90
5
 70
0
 10
1.7769848203
 20
-3.67
 10
1.7801701732
 20
-3.6702844571
 10
1.7883212718
 20
-3.6705641546
 10
1.8013017263
 20
-3.6708344121
 10
1.8408047369
 20
-3.6713287529
  0
LINE
  5
314
100
AcDbEntity
  8
CURVE
100
AcDbLine
 62
250
  6
CONTINUOUS
 10
3.138339
 20
-18.377724
 11
2.293233
 21
-16.390046
  0
LINE
  5
315
100
AcDbEntity
  8
CURVE
100
AcDbLine
 62
250
  6
CONTINUOUS
 10
2.661125
 20
-17.88903
 11
2.863149
 21
-18.377724
  0
LINE
  5
316
100
AcDbEntity
  8
CURVE
100
AcDbLine
 62
250
  6
CONTINUOUS
 10
2.178256
 20
-16.692995
 11
2.571166
 21
-17.670042
  0
LINE
  5
317
100
AcDbEntity
  8
ASSI
100
AcDbLine
 62
250
  6
CONTINUOUS
 10
-11.0087219643
 20
21.4755923698
 11
-11.15
 21
21.8997711479
  0
LWPOLYLINE
  5
318
100
AcDbEntity
  8
ASSI
100
AcDbPolyline
 62
250
  6
CONTINUOUS
 90
22
 70
0
 10
-2.0769391289
 20
-3.672203322
 10
-2.0721992748
 20
-3.7774865891
 10
-2.0598503871
 20
-3.8800802124
 10
-2.0398924657
 20
-3.9799842002
 10
-2.0121298528
 20
-4.0774744852
 10
-1.9767582063
 20
-4.1722751515
 10
-1.9343644998
 20
-4.2635584393
 10
-1.884512473
 20
-4.3517909226
 10
-1.8276383863
 20
-4.4365060524
 10
-1.7656379945
 20
-4.5154763985
 10
-1.6979972251
 20
-4.588427684
 10
-1.6252301505
 20
-4.6556342302
 10
-1.5507747433
 20
-4.7156915175
 10
-1.4758772446
 20
-4.767644749
 10
-1.3992914132
 20
-4.8124487673
 10
-1.3207164985
 20
-4.8515635097
 10
-1.2410483521
 20
-4.8854746
 10
-1.1593911222
 20
-4.9136964374
 10
-1.0727565027
 20
-4.9362321159
 10
-0.9801483915
 20
-4.9530826713
 10
-0.8825628906
 20
-4.964247081
 10
-0.78
 20
-4.9697253488
  0
LWPOLYLINE
  5
319
100
AcDbEntity
  8
ASSI
100
AcDbPolyline
 62
250
  6
CONTINUOUS
 90
22
 70
0
 10
-1.7769848213
 20
-3.67
 10
-1.7737458732
 20
-3.7501279879
 10
-1.7641792945
 20
-3.8291073894
 10
-1.7484970486
 20
-3.9064535292
 10
-1.7270175653
 20
-3.9814919347
 10
-1.6999791554
 20
-4.0540320391
 10
-1.6673678029
 20
-4.1243059338
 10
-1.6290950528
 20
-4.1923281112
 10
-1.5855847689
 20
-4.2571935767
 10
-1.5376598194
 20
-4.3178349878
 10
-1.485618145
 20
-4.3741438324
 10
-1.4300206877
 20
-4.4257558757
 10
-1.3724900232
 20
-4.47164198
 10
-1.3145796377
 20
-4.5113571254
 10
-1.2560162324
 20
-4.5458143504
 10
-1.1956434175
 20
-4.576018559
 10
-1.1342191766
 20
-4.6017437382
 10
-1.0716369516
 20
-4.6231819697
 10
-1.0050382894
 20
-4.6410602595
 10
-0.9335222999
 20
-4.6548986729
 10
-0.8583898124
 20
-4.6637030156
 10
-0.78
 20
-4.666789205
  0
LINE
  5
31A
100
AcDbEntity
  8
CURVE
100
AcDbLine
 62
250
  6
CONTINUOUS
 10
-1.948747
 20
-16.692995
 11
-1.948747
 21
-18.3777240236
  0
LINE
  5
31B
100
AcDbEntity
  8
ASSI
100
AcDbLine
 62
7
  6
CONTINUOUS
 10
-1.7422185454
 20
-3.67
 11
-1.7422185454
 21
3.67
  0
LINE
  5
31C
100
AcDbEntity
  8
CURVE
100
AcDbLine
 62
250
  6
CONTINUOUS
 10
-1.712967
 20
-18.377724
 11
-1.712967
 21
-16.3900460234
  0
LINE
  5
31D
100
AcDbEntity
  8
IMPORT_IGES
100
AcDbLine
 62
7
  6
CONTINUOUS
 10
-1.642
 20
-4.0973637972
 11
-1.642
 21
4.0973637972
  0
LINE
  5
31E
100
AcDbEntity
  8
ASSI
100
AcDbLine
 62
250
  6
CONTINUOUS
 10
-2.0769391289
 20
3.672203322
 11
-2.0769391289
 21
-3.672203322
  0
LINE
  5
31F
100
AcDbEntity
  8
ASSI
100
AcDbLine
 62
250
  6
CONTINUOUS
 10
-1.7769848203
 20
3.67
 11
-1.7769848203
 21
-3.67
  0
LINE
  5
320
100
AcDbEntity
  8
ASSI
100
AcDbLine
 62
250
  6
CONTINUOUS
 10
-10.6503805997
 20
-22.4
 11
-10.5087981167
 21
-21.9749071372
  0
LINE
  5
321
100
AcDbEntity
  8
ASSI
100
AcDbLine
 62
250
  6
CONTINUOUS
 10
-10.5087981167
 20
21.9749071372
 11
-10.6503805997
 21
22.4
  0
LINE
  5
322
100
AcDbEntity
  8
ASSI
100
AcDbLine
 62
250
  6
CONTINUOUS
 10
-0.78
 20
-4.6322185454
 11
-0.78
 21
-4.9697253488
  0
LINE
  5
323
100
AcDbEntity
  8
ASSI
100
AcDbLine
 62
250
  6
CONTINUOUS
 10
-0.78
 20
4.6322185455
 11
-0.78
 21
4.9697253488
  0
LINE
  5
324
100
AcDbEntity
  8
CURVE
100
AcDbLine
 62
250
  6
CONTINUOUS
 10
-0.0930090212
 20
-16.3900458129
 11
-0.1127144544
 21
-17.4229532161
  0
LINE
  5
325
100
AcDbEntity
  8
ASSI
100
AcDbLine
 62
7
  6
CONTINUOUS
 10
3.4151277229
 20
22.4
 11
3.4366556363
 21
22.5
  0
LWPOLYLINE
  5
326
100
AcDbEntity
  8
0
100
AcDbPolyline
 62
7
  6
CONTINUOUS
 90
2
 70
0
 43
0.3500000019
 10
23.4247197266
 20
-1.3571428757
 10
21.9247236328
 20
-1.3571428757
  0
LWPOLYLINE
  5
327
100
AcDbEntity
  8
0
100
AcDbPolyline
 62
7
  6
CONTINUOUS
 90
4
 70
0
 43
0.3500000019
 10
21.0675830078
 20
0.0
 10
20.4247275391
 20
0.0
 10
20.4247275391
 20
1.4999999542
 10
23.4247197266
 20
0.6428571472
  0
LINE
  5
328
100
AcDbEntity
  8
CURVE
100
AcDbLine
 62
250
  6
CONTINUOUS
 10
5.735001
 20
-13.547323
 11
5.39504
 21
-12.857804
  0
LINE
  5
329
100
AcDbEntity
  8
ASSI
100
AcDbLine
 62
7
  6
CONTINUOUS
 10
3.4151277229
 20
-22.4
 11
3.4366556363
 21
-22.5
  0
LWPOLYLINE
  5
32A
100
AcDbEntity
  8
ASSI
100
AcDbPolyline
 62
250
  6
CONTINUOUS
 90
22
 70
0
 10
1.7769848213
 20
3.67
 10
1.7737458732
 20
3.7501279879
 10
1.7641792945
 20
3.8291073894
 10
1.7484970486
 20
3.9064535292
 10
1.7270175653
 20
3.9814919347
 10
1.6999791554
 20
4.0540320391
 10
1.6673678029
 20
4.1243059338
 10
1.6290950528
 20
4.1923281112
 10
1.5855847689
 20
4.2571935767
 10
1.5376598194
 20
4.3178349878
 10
1.485618145
 20
4.3741438324
 10
1.4300206877
 20
4.4257558757
 10
1.3724900232
 20
4.47164198
 10
1.3145796377
 20
4.5113571254
 10
1.2560162324
 20
4.5458143504
 10
1.1956434175
 20
4.576018559
 10
1.1342191766
 20
4.6017437382
 10
1.0716369516
 20
4.6231819697
 10
1.0050382894
 20
4.6410602595
 10
0.9335222999
 20
4.654898673
 10
0.8583898124
 20
4.6637030156
 10
0.78
 20
4.666789205
  0
LINE
  5
32B
100
AcDbEntity
  8
ASSI
100
AcDbLine
 62
250
  6
CONTINUOUS
 10
0.78
 20
-4.6322185454
 11
0.78
 21
-4.9697253488
  0
LINE
  5
32C
100
AcDbEntity
  8
ASSI
100
AcDbLine
 62
250
  6
CONTINUOUS
 10
0.78
 20
4.6322185455
 11
0.78
 21
4.9697253488
  0
LINE
  5
32D
100
AcDbEntity
  8
CURVE
100
AcDbLine
 62
250
  6
CONTINUOUS
 10
0.9484659617
 20
-16.6086904457
 11
0.9484659617
 21
-16.3900458148
  0
LINE
  5
32E
100
AcDbEntity
  8
DRAFT
100
AcDbLine
 62
7
  6
CONTINUOUS
 10
1.284
 20
-4.4890555378
 11
1.284
 21
4.4890555378
  0
LINE
  5
32F
100
AcDbEntity
  8
ASSI
100
AcDbLine
 62
7
  6
CONTINUOUS
 10
1.7422185454
 20
3.67
 11
1.7422185454
 21
-3.67
  0
LINE
  5
330
100
AcDbEntity
  8
ASSI
100
AcDbLine
 62
250
  6
CONTINUOUS
 10
1.7769848203
 20
-3.67
 11
1.7769848203
 21
3.67
  0
LINE
  5
331
100
AcDbEntity
  8
CURVE
100
AcDbLine
 62
250
  6
CONTINUOUS
 10
0.1287199404
 20
-17.1450209321
 11
0.1371161684
 21
-16.6086904457
  0
LINE
  5
332
100
AcDbEntity
  8
ASSI
100
AcDbLine
 62
7
  6
CONTINUOUS
 10
-3.4151277229
 20
-22.4
 11
-3.4366556363
 21
-22.5
  0
LINE
  5
333
100
AcDbEntity
  8
CURVE
100
AcDbLine
 62
250
  6
CONTINUOUS
 10
-5.488528
 20
-16.390046
 11
-6.12013
 21
-18.024055
  0
LINE
  5
334
100
AcDbEntity
  8
CURVE
100
AcDbLine
 62
250
  6
CONTINUOUS
 10
-6.016291
 20
-18.377724
 11
-5.238697
 21
-16.390046
  0
LINE
  5
335
100
AcDbEntity
  8
ASSI
100
AcDbLine
 62
7
  6
CONTINUOUS
 10
-3.4151277229
 20
22.4
 11
-3.4366556363
 21
22.5
  0
LWPOLYLINE
  5
336
100
AcDbEntity
  8
ASSI
100
AcDbPolyline
 62
250
  6
CONTINUOUS
 90
22
 70
0
 10
2.0769391289
 20
3.672203322
 10
2.0721992748
 20
3.7774865891
 10
2.0598503871
 20
3.8800802124
 10
2.0398924657
 20
3.9799842002
 10
2.0121298528
 20
4.0774744852
 10
1.9767582063
 20
4.1722751515
 10
1.9343644998
 20
4.2635584393
 10
1.884512473
 20
4.3517909226
 10
1.8276383863
 20
4.4365060524
 10
1.7656379945
 20
4.5154763985
 10
1.6979972251
 20
4.588427684
 10
1.6252301505
 20
4.6556342302
 10
1.5507747433
 20
4.7156915175
 10
1.4758772446
 20
4.767644749
 10
1.3992914132
 20
4.8124487674
 10
1.3207164985
 20
4.8515635098
 10
1.2410483521
 20
4.8854746
 10
1.1593911222
 20
4.9136964374
 10
1.0727565027
 20
4.9362321159
 10
0.9801483915
 20
4.9530826713
 10
0.8825628906
 20
4.964247081
 10
0.78
 20
4.9697253488
  0
LINE
  5
337
100
AcDbEntity
  8
ASSI
100
AcDbLine
 62
7
  6
CONTINUOUS
 10
3.4698202597
 20
-22.5
 11
3.4698202597
 21
-22.4
  0
LINE
  5
338
100
AcDbEntity
  8
ASSI
100
AcDbLine
 62
7
  6
CONTINUOUS
 10
3.4698202597
 20
22.5
 11
3.4698202597
 21
22.4
  0
LINE
  5
339
100
AcDbEntity
  8
ASSI
100
AcDbLine
 62
250
  6
CONTINUOUS
 10
2.0769391289
 20
-3.672203322
 11
2.0769391289
 21
3.672203322
  0
LINE
  5
33A
100
AcDbEntity
  8
ASSI
100
AcDbLine
 62
250
  6
CONTINUOUS
 10
10.5087981167
 20
21.9749071372
 11
10.6503805997
 21
22.4
  0
LINE
  5
33B
100
AcDbEntity
  8
ASSI
100
AcDbLine
 62
250
  6
CONTINUOUS
 10
11.0087219643
 20
21.4755923698
 11
11.15
 21
21.8997711479
  0
LWPOLYLINE
  5
33C
100
AcDbEntity
  8
ASSI
100
AcDbPolyline
 62
250
  6
CONTINUOUS
 90
4
 70
0
 10
1.7769848213
 20
3.6699999984
 10
1.780169975
 20
3.6702844453
 10
1.7883205711
 20
3.6705641343
 10
1.8013003109
 20
3.6708343857
  0
LINE
  5
33D
100
AcDbEntity
  8
ASSI
100
AcDbLine
 62
250
  6
CONTINUOUS
 10
1.8013003109
 20
3.6708343857
 11
1.8408015871
 21
3.6713287209
  0
LINE
  5
33E
100
AcDbEntity
  8
ASSI
100
AcDbLine
 62
250
  6
CONTINUOUS
 10
1.8408015871
 20
3.6713287209
 11
1.9284486199
 21
3.6718954533
  0
LINE
  5
33F
100
AcDbEntity
  8
ASSI
100
AcDbLine
 62
250
  6
CONTINUOUS
 10
1.9284486199
 20
3.6718954533
 11
2.0769391289
 21
3.6722033213
  0
LINE
  5
340
100
AcDbEntity
  8
ASSI
100
AcDbLine
 62
250
  6
CONTINUOUS
 10
1.7769848203
 20
3.67
 11
1.7422185454
 21
3.67
  0
LINE
  5
341
100
AcDbEntity
  8
ASSI
100
AcDbLine
 62
250
  6
CONTINUOUS
 10
-1.7769848203
 20
3.67
 11
-1.7422185454
 21
3.67
  0
LINE
  5
342
100
AcDbEntity
  8
ASSI
100
AcDbLine
 62
250
  6
CONTINUOUS
 10
-1.8960462971
 20
3.6717345312
 11
-2.0769391289
 21
3.672203322
  0
LINE
  5
343
100
AcDbEntity
  8
ASSI
100
AcDbLine
 62
250
  6
CONTINUOUS
 10
-1.8408047369
 20
3.6713287529
 11
-1.8960462971
 21
3.6717345312
  0
LWPOLYLINE
  5
344
100
AcDbEntity
  8
ASSI
100
AcDbPolyline
 62
250
  6
CONTINUOUS
 90
5
 70
0
 10
-1.7769848203
 20
3.67
 10
-1.7801701732
 20
3.6702844572
 10
-1.7883212718
 20
3.6705641546
 10
-1.8013017263
 20
3.6708344121
 10
-1.8408047369
 20
3.6713287529
  0
LINE
  5
345
100
AcDbEntity
  8
ASSI
100
AcDbLine
 62
250
  6
CONTINUOUS
 10
10.6503805997
 20
-22.4
 11
10.5087981167
 21
-21.9749071372
  0
LINE
  5
346
100
AcDbEntity
  8
ASSI
100
AcDbLine
 62
250
  6
CONTINUOUS
 10
11.15
 20
-21.8997711479
 11
11.0087219643
 21
-21.4755923698
  0
LINE
  5
347
100
AcDbEntity
  8
CURVE
100
AcDbLine
 62
250
  6
CONTINUOUS
 10
4.2737149774
 20
-16.2677007755
 11
4.2737149774
 21
-15.7282859376
  0
LINE
  5
348
100
AcDbEntity
  8
CURVE
100
AcDbLine
 62
250
  6
CONTINUOUS
 10
5.392984
 20
-18.179299
 11
5.392984
 21
-13.6062681774
  0
LWPOLYLINE
  5
349
100
AcDbEntity
  8
ASSI
100
AcDbPolyline
 62
250
  6
CONTINUOUS
 90
22
 70
0
 10
-0.78
 20
4.9697253488
 10
-0.8851161256
 20
4.9650094579
 10
-0.9875590406
 20
4.9526893144
 10
-1.0873287451
 20
4.9327649126
 10
-1.184700028
 20
4.905043769
 10
-1.2793981004
 20
4.8697183457
 10
-1.3705985948
 20
4.8273660522
 10
-1.4587688953
 20
4.7775519834
 10
-1.5434416178
 20
4.7207110071
 10
-1.6223902427
 20
4.6587251954
 10
-1.6953459538
 20
4.5910746086
 10
-1.7625775673
 20
4.5182791503
 10
-1.8226650132
 20
4.443780676
 10
-1.8746509117
 20
4.3688237143
 10
-1.9194926424
 20
4.2921637297
 10
-1.9586422746
 20
4.2135089948
 10
-1.9925827571
 20
4.1337586895
 10
-2.0208311411
 20
4.0520136241
 10
-2.043390648
 20
3.9652845033
 10
-2.060262352
 20
3.8725748775
 10
-2.0714451789
 20
3.7748811565
 10
-2.0769391289
 20
3.672203322
  0
LWPOLYLINE
  5
34A
100
AcDbEntity
  8
ASSI
100
AcDbPolyline
 62
250
  6
CONTINUOUS
 90
22
 70
0
 10
-0.78
 20
4.666789205
 10
-0.8600461602
 20
4.6635708401
 10
-0.9389538997
 20
4.6540367388
 10
-1.0162398054
 20
4.6383967182
 10
-1.0912297682
 20
4.6169672451
 10
-1.1637344133
 20
4.5899841711
 10
-1.2339877187
 20
4.5574302093
 10
-1.3020031982
 20
4.5192152272
 10
-1.3668762521
 20
4.4757598456
 10
-1.4275418421
 20
4.4278802205
 10
-1.4838924235
 20
4.3758682867
 10
-1.5355573894
 20
4.3202850978
 10
-1.5814985587
 20
4.2627570968
 10
-1.6212683125
 20
4.2048378378
 10
-1.6557790242
 20
4.1462542404
 10
-1.6860318543
 20
4.0858563879
 10
-1.7117994834
 20
4.0244053514
 10
-1.7332751711
 20
3.9617930666
 10
-1.7511866889
 20
3.8951605695
 10
-1.7650537855
 20
3.8236068219
 10
-1.7738813675
 20
3.7484334037
 10
-1.776984821
 20
3.67
  0
LINE
  5
34B
100
AcDbEntity
  8
ASSI
100
AcDbLine
 62
7
  6
CONTINUOUS
 10
-0.78
 20
4.6322185455
 11
0.78
 21
4.6322185455
  0
LINE
  5
34C
100
AcDbEntity
  8
ASSI
100
AcDbLine
 62
250
  6
CONTINUOUS
 10
0.78
 20
4.666789205
 11
-0.78
 21
4.666789205
  0
LINE
  5
34D
100
AcDbEntity
  8
ASSI
100
AcDbLine
 62
250
  6
CONTINUOUS
 10
0.78
 20
4.9697253488
 11
-0.78
 21
4.9697253488
  0
LINE
  5
34E
100
AcDbEntity
  8
CURVE
100
AcDbLine
 62
250
  6
CONTINUOUS
 10
6.083873
 20
-17.799584
 11
6.083873
 21
-16.9047860171
  0
LINE
  5
34F
100
AcDbEntity
  8
CURVE
100
AcDbLine
 62
250
  6
CONTINUOUS
 10
6.192853
 20
-14.224847
 11
6.192853
 21
-14.8626179874
  0
LINE
  5
350
100
AcDbEntity
  8
CURVE
100
AcDbLine
 62
250
  6
CONTINUOUS
 10
6.5115667833
 20
-14.9277313174
 11
6.5115667833
 21
-15.3043621177
  0
LINE
  5
351
100
AcDbEntity
  8
CURVE
100
AcDbLine
 62
250
  6
CONTINUOUS
 10
6.5335
 20
-12.937311
 11
6.5335
 21
-12.5000219866
  0
LINE
  5
352
100
AcDbEntity
  8
CURVE
100
AcDbLine
 62
250
  6
CONTINUOUS
 10
6.830966
 20
-14.862618
 11
6.830966
 21
-14.2248470126
  0
LWPOLYLINE
  5
353
100
AcDbEntity
  8
CURVE
100
AcDbPolyline
 62
250
  6
CONTINUOUS
 90
37
 70
0
 10
6.512937596
 20
-15.304362119
 10
6.5128079341
 20
-15.3155963302
 10
6.5124213929
 20
-15.3267859312
 10
6.5117816393
 20
-15.3379442022
 10
6.5108923403
 20
-15.3490844236
 10
6.5097571628
 20
-15.3602198756
 10
6.5083797736
 20
-15.3713638385
 10
6.50676245
 20
-15.3825282644
 10
6.5049019103
 20
-15.3937197921
 10
6.5027934829
 20
-15.4049437323
 10
6.5004324965
 20
-15.4162053956
 10
6.4978142797
 20
-15.4275100925
 10
6.494934161
 20
-15.4388631339
 10
6.4917890273
 20
-15.4502647147
 10
6.4883819996
 20
-15.4616945688
 10
6.4847177572
 20
-15.4731273143
 10
6.4808009793
 20
-15.4845375695
 10
6.4766363453
 20
-15.4958999525
 10
6.4722285344
 20
-15.5071890818
 10
6.4675838443
 20
-15.518380222
 10
6.4627150467
 20
-15.5294512241
 10
6.4576365315
 20
-15.5403805857
 10
6.4523626886
 20
-15.5511468043
 10
6.4469079081
 20
-15.5617283775
 10
6.4412865799
 20
-15.5721038027
 10
6.4355106598
 20
-15.5822563782
 10
6.4295823676
 20
-15.592188604
 10
6.4235014887
 20
-15.6019077809
 10
6.4172678085
 20
-15.6114212095
 10
6.4108811127
 20
-15.6207361907
 10
6.4043411867
 20
-15.6298600252
 10
6.3976459224
 20
-15.6387999911
 10
6.390785638
 20
-15.6475632764
 10
6.3837487579
 20
-15.6561570465
 10
6.3765237065
 20
-15.664588467
 10
6.3690989083
 20
-15.6728647032
 10
6.3614627878
 20
-15.6809929207
  0
LWPOLYLINE
  5
354
100
AcDbEntity
  8
ASSI
100
AcDbPolyline
 62
250
  6
CONTINUOUS
 90
7
 70
0
 10
11.0087219643
 20
-21.4755923698
 10
11.0080031927
 20
-21.4716789126
 10
11.0073010341
 20
-21.4645568007
 10
11.0066154888
 20
-21.4542260342
 10
11.0059419622
 20
-21.4405716186
 10
11.0052850488
 20
-21.4237085484
 10
11.0046585314
 20
-21.403981807
  0
LWPOLYLINE
  5
355
100
AcDbEntity
  8
ASSI
100
AcDbPolyline
 62
250
  6
CONTINUOUS
 90
5
 70
0
 10
10.5087981167
 20
-21.9749071372
 10
10.5080778549
 20
-21.9672631277
 10
10.5073747357
 20
-21.9529558612
 10
10.5066887591
 20
-21.9320798744
 10
10.5060155151
 20
-21.9047715709
  0
LINE
  5
356
100
AcDbEntity
  8
CURVE
100
AcDbLine
 62
250
  6
CONTINUOUS
 10
7.544474
 20
-12.500022
 11
7.544474
 21
-12.9373110134
  0
LINE
  5
357
100
AcDbEntity
  8
CURVE
100
AcDbLine
 62
250
  6
CONTINUOUS
 10
8.003011
 20
-16.904786
 11
8.003011
 21
-17.7995839829
  0
LINE
  5
358
100
AcDbEntity
  8
CURVE
100
AcDbLine
 62
250
  6
CONTINUOUS
 10
8.6
 20
-18.4
 11
8.6
 21
-13.0120199294
  0
LINE
  5
359
100
AcDbEntity
  8
ASSI
100
AcDbLine
 62
7
  6
CONTINUOUS
 10
3.3848722771
 20
-22.4
 11
3.3633443637
 21
-22.5
  0
LINE
  5
35A
100
AcDbEntity
  8
CURVE
100
AcDbLine
 62
250
  6
CONTINUOUS
 10
1.462349
 20
-18.377724
 11
1.667286
 21
-17.88903
  0
LINE
  5
35B
100
AcDbEntity
  8
CURVE
100
AcDbLine
 62
250
  6
CONTINUOUS
 10
1.759816
 20
-17.670042
 11
2.172602
 21
-16.692995
  0
LINE
  5
35C
100
AcDbEntity
  8
CURVE
100
AcDbLine
 62
250
  6
CONTINUOUS
 10
2.071504
 20
-16.390046
 11
1.195555
 21
-18.377724
  0
LINE
  5
35D
100
AcDbEntity
  8
CURVE
100
AcDbLine
 62
250
  6
CONTINUOUS
 10
-0.861717
 20
-18.0787878235
 11
-1.212967
 21
-18.7364474034
  0
LINE
  5
35E
100
AcDbEntity
  8
CURVE
100
AcDbLine
 62
250
  6
CONTINUOUS
 10
-0.9202586736
 20
-18.7364474034
 11
-0.5690086527
 21
-18.0787878235
  0
LINE
  5
35F
100
AcDbEntity
  8
ASSI
100
AcDbLine
 62
7
  6
CONTINUOUS
 10
3.3848722771
 20
22.4
 11
3.3633443637
 21
22.5
  0
LWPOLYLINE
  5
360
100
AcDbEntity
  8
ASSI
100
AcDbPolyline
 62
250
  6
CONTINUOUS
 90
3
 70
0
 10
11.0046585314
 20
-21.403981807
 10
11.0034984168
 20
-21.3558303735
 10
11.0029751375
 20
-21.3279645393
  0
LINE
  5
361
100
AcDbEntity
  8
ASSI
100
AcDbLine
 62
250
  6
CONTINUOUS
 10
10.5060155151
 20
-21.9047715709
 11
10.5047336849
 21
-21.8316424864
  0
LINE
  5
362
100
AcDbEntity
  8
ASSI
100
AcDbLine
 62
250
  6
CONTINUOUS
 10
10.5047336849
 20
-21.8316424864
 11
10.5030519635
 21
-21.6797292088
  0
LINE
  5
363
100
AcDbEntity
  8
ASSI
100
AcDbLine
 62
250
  6
CONTINUOUS
 10
10.5030519635
 20
-21.6797292088
 11
10.5011186198
 21
-21.3380251343
  0
LINE
  5
364
100
AcDbEntity
  8
ASSI
100
AcDbLine
 62
250
  6
CONTINUOUS
 10
10.5011186198
 20
-21.3380251343
 11
10.495206984
 21
-11.6792204146
  0
LINE
  5
365
100
AcDbEntity
  8
ASSI
100
AcDbLine
 62
250
  6
CONTINUOUS
 10
10.495206984
 20
-11.6792204146
 11
10.4929235217
 21
-2.3360479955
  0
LINE
  5
366
100
AcDbEntity
  8
ASSI
100
AcDbLine
 62
250
  6
CONTINUOUS
 10
10.4929235217
 20
-2.3360479955
 11
10.4936846757
 21
7.0079400882
  0
LINE
  5
367
100
AcDbEntity
  8
ASSI
100
AcDbLine
 62
250
  6
CONTINUOUS
 10
10.4936846757
 20
7.0079400882
 11
10.4974904462
 21
16.3494810544
  0
LINE
  5
368
100
AcDbEntity
  8
ASSI
100
AcDbLine
 62
250
  6
CONTINUOUS
 10
10.4974904462
 20
16.3494810544
 11
10.5017438025
 21
21.4854407064
  0
LINE
  5
369
100
AcDbEntity
  8
ASSI
100
AcDbLine
 62
250
  6
CONTINUOUS
 10
10.5017438025
 20
21.4854407064
 11
10.503574742
 21
21.7355821182
  0
LINE
  5
36A
100
AcDbEntity
  8
ASSI
100
AcDbLine
 62
250
  6
CONTINUOUS
 10
10.503574742
 20
21.7355821182
 11
10.5047336849
 21
21.8316424864
  0
LWPOLYLINE
  5
36B
100
AcDbEntity
  8
ASSI
100
AcDbPolyline
 62
250
  6
CONTINUOUS
 90
6
 70
0
 10
10.5047336849
 20
21.8316424864
 10
10.5060155151
 20
21.9047715709
 10
10.5066887591
 20
21.9320798744
 10
10.5073747357
 20
21.9529558612
 10
10.5080778549
 20
21.9672631277
 10
10.5087981167
 20
21.9749071372
  0
LWPOLYLINE
  5
36C
100
AcDbEntity
  8
ASSI
100
AcDbPolyline
 62
250
  6
CONTINUOUS
 90
9
 70
0
 10
11.0029751375
 20
21.3279645394
 10
11.0040632761
 20
21.3813379257
 10
11.0046585314
 20
21.4039818068
 10
11.0052850488
 20
21.4237085483
 10
11.0059419622
 20
21.4405716188
 10
11.0066154888
 20
21.4542260345
 10
11.0073010341
 20
21.464556801
 10
11.0080031927
 20
21.4716789127
 10
11.0087219643
 20
21.4755923698
  0
LINE
  5
36D
100
AcDbEntity
  8
CURVE
100
AcDbLine
 62
250
  6
CONTINUOUS
 10
5.39504
 20
-12.857804
 11
5.050966
 21
-13.547323
  0
LINE
  5
36E
100
AcDbEntity
  8
ASSI
100
AcDbLine
 62
250
  6
CONTINUOUS
 10
11.0029751375
 20
-21.3279645393
 11
11.0020549485
 21
-21.2650621527
  0
LINE
  5
36F
100
AcDbEntity
  8
ASSI
100
AcDbLine
 62
250
  6
CONTINUOUS
 10
11.0020549485
 20
-21.2650621527
 11
11.0010408709
 21
-21.1568159642
  0
LINE
  5
370
100
AcDbEntity
  8
ASSI
100
AcDbLine
 62
250
  6
CONTINUOUS
 10
11.0010408709
 20
-21.1568159642
 11
11.0005196528
 21
-21.0384725278
  0
LINE
  5
371
100
AcDbEntity
  8
ASSI
100
AcDbLine
 62
250
  6
CONTINUOUS
 10
11.0005196528
 20
-21.0384725278
 11
10.9951308352
 21
-11.6670185434
  0
LINE
  5
372
100
AcDbEntity
  8
ASSI
100
AcDbLine
 62
250
  6
CONTINUOUS
 10
10.9951308352
 20
-11.6670185434
 11
10.9928473752
 21
-2.3338547134
  0
LINE
  5
373
100
AcDbEntity
  8
ASSI
100
AcDbLine
 62
7
  6
CONTINUOUS
 10
11.15
 20
21.8997711479
 11
11.15
 21
-21.8997711479
  0
LINE
  5
374
100
AcDbEntity
  8
ASSI
100
AcDbLine
 62
250
  6
CONTINUOUS
 10
10.9928473752
 20
-2.3338547134
 11
10.9936085296
 21
7.0009579653
  0
LINE
  5
375
100
AcDbEntity
  8
ASSI
100
AcDbLine
 62
250
  6
CONTINUOUS
 10
10.9936085296
 20
7.0009579653
 11
10.9974142967
 21
16.3324690607
  0
LINE
  5
376
100
AcDbEntity
  8
ASSI
100
AcDbLine
 62
250
  6
CONTINUOUS
 10
10.9974142967
 20
16.3324690607
 11
11.0008096574
 21
21.1180991804
  0
LINE
  5
377
100
AcDbEntity
  8
ASSI
100
AcDbLine
 62
250
  6
CONTINUOUS
 10
11.0008096574
 20
21.1180991804
 11
11.0016659628
 21
21.2307227352
  0
LWPOLYLINE
  5
378
100
AcDbEntity
  8
ASSI
100
AcDbPolyline
 62
250
  6
CONTINUOUS
 90
3
 70
0
 10
11.0016659628
 20
21.2307227352
 10
11.002494253
 20
21.297692487
 10
11.0029751375
 20
21.3279645394
  0
LINE
  5
379
100
AcDbEntity
  8
CURVE
100
AcDbLine
 62
250
  6
CONTINUOUS
 10
-2.310984
 20
-16.993546
 11
-1.954401
 21
-16.692995
  0
LINE
  5
37A
100
AcDbEntity
  8
CURVE
100
AcDbLine
 62
250
  6
CONTINUOUS
 10
-1.917903
 20
-16.390046
 11
-2.451321
 21
-16.822195
  0
LWPOLYLINE
  5
37B
100
AcDbEntity
  8
CURVE
100
AcDbPolyline
 62
250
  6
CONTINUOUS
 90
84
 70
0
 10
-8.2707638018
 20
-17.4229532161
 10
-8.2452446134
 20
-17.4082883562
 10
-8.2193112752
 20
-17.3944608351
 10
-8.1929449243
 20
-17.3814528106
 10
-8.1661266981
 20
-17.3692464405
 10
-8.1388552381
 20
-17.3578314107
 10
-8.1111992038
 20
-17.347227521
 10
-8.083225726
 20
-17.3374628012
 10
-8.0549258034
 20
-17.328568088
 10
-8.0358677814
 20
-17.3231460548
 10
-8.0166666793
 20
-17.3181872359
 10
-7.9973369633
 20
-17.3137541589
 10
-7.977898864
 20
-17.3099014595
 10
-7.9583956693
 20
-17.3066522059
 10
-7.9388764316
 20
-17.3040215744
 10
-7.9193771918
 20
-17.3020180279
 10
-7.899881945
 20
-17.3006231752
 10
-7.8803616748
 20
-17.2998119116
 10
-7.8607934697
 20
-17.2995657522
 10
-7.8411788386
 20
-17.2998926912
 10
-7.821525395
 20
-17.3008073426
 10
-7.8018408119
 20
-17.3023263268
 10
-7.7821329997
 20
-17.304474291
 10
-7.762409928
 20
-17.3072778887
 10
-7.7426790064
 20
-17.3107633972
 10
-7.7229454026
 20
-17.3149555891
 10
-7.7032137245
 20
-17.3198788606
 10
-7.6863082729
 20
-17.3247029364
 10
-7.6694248625
 20
-17.3301199577
 10
-7.6525807346
 20
-17.3361678263
 10
-7.6357931304
 20
-17.3428844442
 10
-7.6190792911
 20
-17.3503077134
 10
-7.602456458
 20
-17.3584755358
 10
-7.5859418723
 20
-17.3674258134
 10
-7.5716032056
 20
-17.3759269617
 10
-7.5574276377
 20
-17.3850695965
 10
-7.5434821903
 20
-17.3948671185
 10
-7.5298338849
 20
-17.4053329282
 10
-7.5165383823
 20
-17.4164856463
 10
-7.5036059003
 20
-17.4283647725
 10
-7.4910352956
 20
-17.4410150269
 10
-7.4788254253
 20
-17.4544811293
 10
-7.4669913744
 20
-17.4687881555
 10
-7.4556131406
 20
-17.483882606
 10
-7.44478695
 20
-17.4996913371
 10
-7.4346090284
 20
-17.5161412052
 10
-7.4251652215
 20
-17.5331579231
 10
-7.4164998531
 20
-17.5506626294
 10
-7.4086468667
 20
-17.568575319
 10
-7.4016402057
 20
-17.5868159869
 10
-7.3955051728
 20
-17.6053170156
 10
-7.3902325078
 20
-17.6240603378
 10
-7.3858043097
 20
-17.6430402741
 10
-7.3822026778
 20
-17.6622511446
 10
-7.3794045324
 20
-17.6816785586
 10
-7.3773660803
 20
-17.7012732799
 10
-7.3760383498
 20
-17.7209773609
 10
-7.375372369
 20
-17.7407328542
 10
-7.3753313474
 20
-17.7605053016
 10
-7.3759272193
 20
-17.7803542024
 10
-7.3771891449
 20
-17.8003233471
 10
-7.3791664621
 20
-17.8202997333
 10
-7.3819029438
 20
-17.8401340164
 10
-7.3853999242
 20
-17.8596882751
 10
-7.3896468758
 20
-17.8788565122
 10
-7.394628264
 20
-17.8976490019
 10
-7.400327815
 20
-17.9160958927
 10
-7.4067313068
 20
-17.9341905588
 10
-7.4138250301
 20
-17.9519171811
 10
-7.4215952755
 20
-17.9692599403
 10
-7.4300304287
 20
-17.9862021824
 10
-7.4391272552
 20
-18.0027239151
 10
-7.4488846152
 20
-18.0188043115
 10
-7.4593013692
 20
-18.0344225446
 10
-7.4703732782
 20
-18.0495542395
 10
-7.4820837076
 20
-18.0641608293
 10
-7.4944129231
 20
-18.0782001988
 10
-7.5073411911
 20
-18.0916302332
 10
-7.5208463698
 20
-18.1044133473
 10
-7.534896688
 20
-18.1165300764
 10
-7.5494579668
 20
-18.1279654853
 10
-7.5644960274
 20
-18.1387046391
 10
-7.5799771761
 20
-18.1487308423
 10
-7.5958696617
 20
-18.1580203576
  0
LWPOLYLINE
  5
37C
100
AcDbEntity
  8
CURVE
100
AcDbPolyline
 62
250
  6
CONTINUOUS
 90
56
 70
0
 10
-7.5958696617
 20
-18.1580203576
 10
-7.6066777324
 20
-18.1637915052
 10
-7.6176454594
 20
-18.1692163486
 10
-7.6287635787
 20
-18.174287333
 10
-7.6400226194
 20
-18.1789988326
 10
-7.6514122839
 20
-18.1833529386
 10
-7.6629220677
 20
-18.1873536716
 10
-7.6745414663
 20
-18.191005052
 10
-7.6862599752
 20
-18.1943111001
 10
-7.69806709
 20
-18.1972758366
 10
-7.7123376085
 20
-18.2003882742
 10
-7.7267013086
 20
-18.203019707
 10
-7.7411389062
 20
-18.2051748298
 10
-7.7556311168
 20
-18.2068583371
 10
-7.7701586562
 20
-18.2080749237
 10
-7.7847006817
 20
-18.2088285485
 10
-7.7992301168
 20
-18.209120227
 10
-7.8137183269
 20
-18.208950239
 10
-7.8281366771
 20
-18.2083188645
 10
-7.8424565328
 20
-18.2072263831
 10
-7.8542959605
 20
-18.2059625734
 10
-7.8660432062
 20
-18.2043706503
 10
-7.8776943721
 20
-18.2024425194
 10
-7.8892455604
 20
-18.2001700861
 10
-7.9006928734
 20
-18.1975452559
 10
-7.9120324133
 20
-18.1945599341
 10
-7.9232585328
 20
-18.1912091615
 10
-7.9343585861
 20
-18.1875005188
 10
-7.9453181776
 20
-18.183444722
 10
-7.9561229119
 20
-18.1790524871
 10
-7.9667583937
 20
-18.17433453
 10
-7.9772102273
 20
-18.1693015668
 10
-7.9874673433
 20
-18.1639626897
 10
-7.9975319748
 20
-18.1583204968
 10
-8.0074096809
 20
-18.1523759623
 10
-8.0171060206
 20
-18.1461300606
 10
-8.0266265532
 20
-18.1395837659
 10
-8.0359768375
 20
-18.1327380527
 10
-8.0451616398
 20
-18.1255936272
 10
-8.054182555
 20
-18.1181501243
 10
-8.0630403851
 20
-18.1104069108
 10
-8.0717354281
 20
-18.1023627748
 10
-8.080265966
 20
-18.0940141888
 10
-8.0886297767
 20
-18.0853570465
 10
-8.0968228286
 20
-18.0763900592
 10
-8.1048338507
 20
-18.0671232083
 10
-8.1126497627
 20
-18.0575692928
 10
-8.1202574837
 20
-18.0477411117
 10
-8.1276439334
 20
-18.0376514638
 10
-8.134796031
 20
-18.0273131483
 10
-8.1417031249
 20
-18.016732046
 10
-8.1483642786
 20
-18.0058863663
 10
-8.1547809845
 20
-17.9947474008
 10
-8.160954735
 20
-17.9832864406
 10
-8.1668870223
 20
-17.9714747774
 10
-8.172579339
 20
-17.9592837025
  0
LINE
  5
37D
100
AcDbEntity
  8
CURVE
100
AcDbLine
 62
250
  6
CONTINUOUS
 10
-8.172579339
 20
-17.9592837025
 11
-8.4083591311
 21
-18.0490719373
  0
LINE
  5
37E
100
AcDbEntity
  8
ASSI
100
AcDbLine
 62
7
  6
CONTINUOUS
 10
3.3
 20
-22.4
 11
3.2333672024
 21
-22.5
  0
LINE
  5
37F
100
AcDbEntity
  8
CURVE
100
AcDbLine
 62
250
  6
CONTINUOUS
 10
6.3614627878
 20
-15.6809929207
 11
5.4649512526
 21
-16.5768190494
  0
LWPOLYLINE
  5
380
100
AcDbEntity
  8
CURVE
100
AcDbPolyline
 62
250
  6
CONTINUOUS
 90
86
 70
0
 10
-0.1127144544
 20
-17.4229532161
 10
-0.0920364494
 20
-17.4109876164
 10
-0.0714285875
 20
-17.3997565256
 10
-0.0508826829
 20
-17.389219359
 10
-0.0303905501
 20
-17.3793355319
 10
-0.0099440035
 20
-17.3700644598
 10
0.0155564117
 20
-17.3592852902
 10
0.0409775783
 20
-17.3493797417
 10
0.0662986861
 20
-17.3403274195
 10
0.091498925
 20
-17.3321079286
 10
0.1115581506
 20
-17.3261254822
 10
0.131516315
 20
-17.3206958313
 10
0.1513630314
 20
-17.3158518122
 10
0.1710879132
 20
-17.3116262612
 10
0.1906805738
 20
-17.3080520145
 10
0.2101267016
 20
-17.3051502421
 10
0.2293962856
 20
-17.3028954483
 10
0.2484553895
 20
-17.3012504714
 10
0.2672700775
 20
-17.3001781493
 10
0.2858064134
 20
-17.2996413203
 10
0.3085485492
 20
-17.2996754595
 10
0.3308255416
 20
-17.3004681726
 10
0.3526601977
 20
-17.3019993913
 10
0.3740753242
 20
-17.304249047
 10
0.3950857174
 20
-17.3071974361
 10
0.4156741308
 20
-17.3108263135
 10
0.4358153072
 20
-17.3151177989
 10
0.4554839894
 20
-17.320054012
 10
0.4746602169
 20
-17.3256185026
 10
0.4933452162
 20
-17.3318005408
 10
0.5115455106
 20
-17.3385908271
 10
0.5292676234
 20
-17.3459800617
 10
0.546517361
 20
-17.3539634695
 10
0.563297663
 20
-17.3625543738
 10
0.5796107521
 20
-17.3717706223
 10
0.595458851
 20
-17.3816300629
 10
0.6108338953
 20
-17.3921469017
 10
0.625686671
 20
-17.4033207779
 10
0.6399654863
 20
-17.4151474047
 10
0.6536498851
 20
-17.4276213578
 10
0.666726176
 20
-17.4407291859
 10
0.6791764903
 20
-17.4544264661
 10
0.6909906039
 20
-17.4686782979
 10
0.7021930489
 20
-17.483518841
 10
0.7128024219
 20
-17.4989812013
 10
0.7227788221
 20
-17.5150252102
 10
0.7320677241
 20
-17.5315923803
 10
0.7406146029
 20
-17.5486242242
 10
0.7483728154
 20
-17.5660618874
 10
0.7553272484
 20
-17.5838450473
 10
0.7614706709
 20
-17.601913014
 10
0.766795852
 20
-17.6202050978
 10
0.7713020233
 20
-17.6386812635
 10
0.7750142672
 20
-17.6573840946
 10
0.7779630609
 20
-17.6763521561
 10
0.7801746116
 20
-17.6955253219
 10
0.7816795104
 20
-17.7148177707
 10
0.7825301544
 20
-17.7341395911
 10
0.7827748252
 20
-17.7534273048
 10
0.7824235358
 20
-17.7727272533
 10
0.7814646115
 20
-17.7921049867
 10
0.7798378945
 20
-17.8115930682
 10
0.7774805911
 20
-17.8311741405
 10
0.7743678485
 20
-17.8506641503
 10
0.7704931496
 20
-17.8698678647
 10
0.7658853823
 20
-17.8887120283
 10
0.7605822856
 20
-17.9071538797
 10
0.7546215984
 20
-17.9251506577
 10
0.7480378555
 20
-17.9426671078
 10
0.7408527747
 20
-17.9596980023
 10
0.7330848697
 20
-17.9762456203
 10
0.7247526541
 20
-17.9923122408
 10
0.7158746293
 20
-18.0078959944
 10
0.7064692477
 20
-18.0229784185
 10
0.6965549492
 20
-18.0375369017
 10
0.6861501741
 20
-18.0515488329
 10
0.6752756415
 20
-18.0649923085
 10
0.6639611879
 20
-18.0778482551
 10
0.6522389288
 20
-18.090098307
 10
0.64014098
 20
-18.1017240985
 10
0.6277100962
 20
-18.1127062054
 10
0.6150315881
 20
-18.1230209694
 10
0.6022014058
 20
-18.1326436739
 10
0.5893154992
 20
-18.141549602
 10
0.5764430698
 20
-18.1497321195
 10
0.5635463249
 20
-18.157256921
  0
LINE
  5
381
100
AcDbEntity
  8
ASSI
100
AcDbLine
 62
7
  6
CONTINUOUS
 10
3.2333672024
 20
22.5
 11
3.3
 21
22.4
  0
LWPOLYLINE
  5
382
100
AcDbEntity
  8
CURVE
100
AcDbPolyline
 62
250
  6
CONTINUOUS
 90
58
 70
0
 10
0.5635463249
 20
-18.157256921
 10
0.5549086573
 20
-18.1619448931
 10
0.5462456337
 20
-18.1663753892
 10
0.5375713895
 20
-18.1705460171
 10
0.5288991096
 20
-18.1744557605
 10
0.5202381758
 20
-18.1781091067
 10
0.511597019
 20
-18.1815119185
 10
0.5029848463
 20
-18.1846705736
 10
0.4944139694
 20
-18.1875935084
 10
0.4858974759
 20
-18.190289674
 10
0.4757632435
 20
-18.1932383251
 10
0.4657208608
 20
-18.1958886925
 10
0.4557650186
 20
-18.1982561507
 10
0.4458904079
 20
-18.2003560739
 10
0.4360917195
 20
-18.2022038365
 10
0.4239442811
 20
-18.2041801103
 10
0.4119102712
 20
-18.2058029293
 10
0.3999927853
 20
-18.2070888174
 10
0.3881949187
 20
-18.2080542982
 10
0.3748620384
 20
-18.2087838162
 10
0.3616937743
 20
-18.2091245901
 10
0.3486944619
 20
-18.2090847852
 10
0.3358684372
 20
-18.2086725664
 10
0.3232200358
 20
-18.2078960989
 10
0.3107535936
 20
-18.2067635477
 10
0.2984734464
 20
-18.205283078
 10
0.2863821076
 20
-18.2034611295
 10
0.274474802
 20
-18.2012972405
 10
0.2627449321
 20
-18.198789224
 10
0.2511859004
 20
-18.1959348932
 10
0.2397911094
 20
-18.1927320611
 10
0.2285539618
 20
-18.1891785407
 10
0.2174678598
 20
-18.185272145
 10
0.2065277652
 20
-18.1810116088
 10
0.1957348757
 20
-18.1763993538
 10
0.1850919482
 20
-18.1714387233
 10
0.1746017396
 20
-18.1661330606
 10
0.1642670066
 20
-18.1604857092
 10
0.1540905063
 20
-18.1545000124
 10
0.1440749954
 20
-18.1481793135
 10
0.1325998041
 20
-18.1403891037
 10
0.1213663921
 20
-18.132170081
 10
0.1103936617
 20
-18.1235448569
 10
0.0997005153
 20
-18.114536043
 10
0.0893058551
 20
-18.1051662507
 10
0.0792285837
 20
-18.0954580915
 10
0.0694851539
 20
-18.0854338683
 10
0.0600822218
 20
-18.0751146502
 10
0.051023994
 20
-18.0645211976
 10
0.0423146771
 20
-18.0536742712
 10
0.0339584777
 20
-18.0425946314
 10
0.0259596026
 20
-18.0313030388
 10
0.0183211669
 20
-18.0198157106
 10
0.0110419209
 20
-18.0081306905
 10
0.0041195233
 20
-17.9962414791
 10
-0.0024483672
 20
-17.984141577
 10
-0.0086640917
 20
-17.9718244846
 10
-0.0145299915
 20
-17.9592837025
  0
LINE
  5
383
100
AcDbEntity
  8
CURVE
100
AcDbLine
 62
250
  6
CONTINUOUS
 10
-0.0145299915
 20
-17.9592837025
 11
-0.2503097836
 21
-18.0490719373
  0
LWPOLYLINE
  5
384
100
AcDbEntity
  8
0
100
AcDbPolyline
 62
7
  6
CONTINUOUS
 90
10
 70
0
 43
0.3500000019
 10
1.0714306641
 20
37.8299748535
 10
1.1428554688
 20
37.6871171875
 10
1.1428554688
 20
37.6156870117
 10
1.0000004883
 20
37.4728293457
 10
0.9285703125
 20
37.4728293457
 10
0.8571455078
 20
37.5442595215
 10
0.8571455078
 20
37.6156870117
 10
0.9285703125
 20
37.7585446777
 10
1.0000004883
 20
37.8299748535
 10
1.0714306641
 20
37.8299748535
  0
LINE
  5
385
100
AcDbEntity
  8
ASSI
100
AcDbLine
 62
250
  6
CONTINUOUS
 10
-10.5005350625
 20
21.0183142309
 11
10.5005350625
 21
21.0183142309
  0
LINE
  5
386
100
AcDbEntity
  8
ASSI
100
AcDbLine
 62
250
  6
CONTINUOUS
 10
-10.5087981167
 20
21.9749071372
 11
10.5087981167
 21
21.9749071372
  0
LINE
  5
387
100
AcDbEntity
  8
ASSI
100
AcDbLine
 62
7
  6
CONTINUOUS
 10
-10.6503805997
 20
22.4
 11
-3.3
 21
22.4
  0
LINE
  5
388
100
AcDbEntity
  8
ASSI
100
AcDbLine
 62
7
  6
CONTINUOUS
 10
3.3
 20
22.4
 11
10.6503805997
 21
22.4
  0
LINE
  5
389
100
AcDbEntity
  8
ASSI
100
AcDbLine
 62
7
  6
CONTINUOUS
 10
3.4698202597
 20
22.5
 11
-3.4698202597
 21
22.5
  0
LWPOLYLINE
  5
38A
100
AcDbEntity
  8
ASSI
100
AcDbPolyline
 62
250
  6
CONTINUOUS
 90
16
 70
0
 10
10.5005350626
 20
21.0183132877
 10
10.5522203681
 20
21.0181627949
 10
10.6033519099
 20
21.0177887256
 10
10.6533818551
 20
21.0171950877
 10
10.7017741735
 20
21.0163882415
 10
10.7480103807
 20
21.0153768319
 10
10.7915950934
 20
21.0141716957
 10
10.8320613367
 20
21.0127857448
 10
10.8689755479
 20
21.0112338287
 10
10.9019422211
 20
21.0095325749
 10
10.9306081453
 20
21.0077002109
 10
10.9546661883
 20
21.0057563691
 10
10.9738585879
 20
21.0037218762
 10
10.987979713
 20
21.00161853
 10
10.9968782673
 20
20.9994688662
 10
11.00045891
 20
20.9972959167
  0
LWPOLYLINE
  5
38B
100
AcDbEntity
  8
ASSI
100
AcDbPolyline
 62
250
  6
CONTINUOUS
 90
16
 70
0
 10
10.5087981167
 20
21.9749071372
 10
10.5610241351
 20
21.9721273713
 10
10.6126786189
 20
21.9639137831
 10
10.6631962883
 20
21.9503562579
 10
10.7120243038
 20
21.9316031621
 10
10.7586283171
 20
21.90785972
 10
10.8024983178
 20
21.8793857676
 10
10.8431542153
 20
21.846492909
 10
10.8801510926
 20
21.8095411067
 10
10.9130840749
 20
21.7689347421
 10
10.9415927608
 20
21.7251181903
 10
10.9653651658
 20
21.6785709569
 10
10.9841411372
 20
21.6298024308
 10
10.9977152003
 20
21.5793463095
 10
11.0059388076
 20
21.5277547588
 10
11.0087219643
 20
21.4755923698
  0
LWPOLYLINE
  5
38C
100
AcDbEntity
  8
ASSI
100
AcDbPolyline
 62
7
  6
CONTINUOUS
 90
10
 70
0
 10
4.2275424324
 20
23.3333598158
 10
4.1717727948
 20
23.3677249015
 10
4.1143959467
 20
23.3981870942
 10
4.055411888
 20
23.4247463939
 10
3.9945575979
 20
23.4474821133
 10
3.9320960973
 20
23.4663149397
 10
3.8688164486
 20
23.4810069354
 10
3.8049816727
 20
23.4914787877
 10
3.7403287489
 20
23.4978098092
 10
3.674857677
 20
23.5
  0
LWPOLYLINE
  5
38D
100
AcDbEntity
  8
0
100
AcDbPolyline
 62
7
  6
CONTINUOUS
 90
3
 70
0
 43
0.3500000019
 10
22.7818642578
 20
-0.8571428909
 10
22.7818642578
 20
-2.3571429291
 10
20.4247275391
 20
-1.7142857819
  0
LWPOLYLINE
  5
38E
100
AcDbEntity
  8
ASSI
100
AcDbPolyline
 62
7
  6
CONTINUOUS
 90
10
 70
0
 10
-3.674857677
 20
23.5
 10
-3.7403287489
 20
23.4978098092
 10
-3.8049816727
 20
23.4914787877
 10
-3.8688164486
 20
23.4810069354
 10
-3.9320960973
 20
23.4663149397
 10
-3.9945575979
 20
23.4474821133
 10
-4.055411888
 20
23.4247463939
 10
-4.1143959467
 20
23.3981870942
 10
-4.1717727948
 20
23.3677249015
 10
-4.2275424324
 20
23.3333598158
  0
LINE
  5
38F
100
AcDbEntity
  8
ASSI
100
AcDbLine
 62
7
  6
CONTINUOUS
 10
3.674857677
 20
23.5
 11
-3.674857677
 21
23.5
  0
LWPOLYLINE
  5
390
100
AcDbEntity
  8
0
100
AcDbPolyline
 62
7
  6
CONTINUOUS
 90
7
 70
0
 43
0.3500000019
 10
-0.4285708008
 20
37.3299743652
 10
-1.9285722656
 20
37.3299743652
 10
-0.4285708008
 20
39.4728312988
 10
-0.4285708008
 20
39.9014016113
 10
-0.8571411133
 20
40.3299746094
 10
-1.5000019531
 20
40.3299746094
 10
-1.9285722656
 20
39.6871164551
  0
LWPOLYLINE
  5
391
100
AcDbEntity
  8
0
100
AcDbPolyline
 62
7
  6
CONTINUOUS
 90
7
 70
0
 43
0.3500000019
 10
-2.7857128906
 20
37.3299743652
 10
-4.2857143555
 20
37.3299743652
 10
-2.7857128906
 20
39.4728312988
 10
-2.7857128906
 20
39.9014016113
 10
-3.2142832031
 20
40.3299746094
 10
-3.857144043
 20
40.3299746094
 10
-4.2857143555
 20
39.6871164551
  0
LWPOLYLINE
  5
392
100
AcDbEntity
  8
0
100
AcDbPolyline
 62
7
  6
CONTINUOUS
 90
6
 70
0
 43
0.3500000019
 10
2.1428564453
 20
37.3299743652
 10
3.2142875977
 20
37.3299743652
 10
3.4285727539
 20
37.5442595215
 10
3.4285727539
 20
38.6156879883
 10
3.0000024414
 20
39.0442583008
 10
2.5714267578
 20
39.0442583008
  0
LWPOLYLINE
  5
393
100
AcDbEntity
  8
0
100
AcDbPolyline
 62
7
  6
CONTINUOUS
 90
10
 70
0
 43
0.3500000019
 10
-61.1768079834
 20
40.6437351074
 10
-61.8196654663
 20
40.0008796387
 10
-62.2482364502
 20
39.1437363281
 10
-62.2482364502
 20
38.0723078613
 10
-61.8196654663
 20
37.6437375488
 10
-61.1768079834
 20
37.6437375488
 10
-60.7482369995
 20
38.0723078613
 10
-60.7482369995
 20
38.9294511719
 10
-61.1768079834
 20
39.3580214844
 10
-62.1053794556
 20
39.3580214844
  0
LWPOLYLINE
  5
394
100
AcDbEntity
  8
ASSI
100
AcDbPolyline
 62
250
  6
CONTINUOUS
 90
8
 70
0
 10
-82.1809203563
 20
21.9749071372
 10
-82.1816862844
 20
21.9721273713
 10
-82.1821574614
 20
21.9639137831
 10
-82.1823287312
 20
21.9503562579
 10
-82.1821982193
 20
21.9316031621
 10
-82.181767354
 20
21.90785972
 10
-82.1810408508
 20
21.8793857676
 10
-82.178735881
 20
21.8095411067
  0
LWPOLYLINE
  5
395
100
AcDbEntity
  8
ASSI
100
AcDbPolyline
 62
250
  6
CONTINUOUS
 90
7
 70
0
 10
-82.1809203563
 20
-21.9749071372
 10
-82.1816862842
 20
-21.97212728
 10
-82.1821574518
 20
-21.9639134406
 10
-82.1823287042
 20
-21.9503555394
 10
-82.1821981684
 20
-21.931601975
 10
-82.1817672749
 20
-21.9078580123
 10
-82.1810407424
 20
-21.8793835478
  0
LWPOLYLINE
  5
396
100
AcDbEntity
  8
ASSI
100
AcDbPolyline
 62
250
  6
CONTINUOUS
 90
19
 70
0
 10
-82.6368686384
 20
20.9972959167
 10
-82.6333886943
 20
21.0384725278
 10
-82.6266905944
 20
21.0787402824
 10
-82.6167743385
 20
21.1180991804
 10
-82.6035281289
 20
21.1568159642
 10
-82.5870637634
 20
21.1946238914
 10
-82.5677166354
 20
21.2307227352
 10
-82.5454316589
 20
21.2650621528
 10
-82.5202639198
 20
21.297692487
 10
-82.4927140691
 20
21.3279645394
 10
-82.4627354139
 20
21.3558303734
 10
-82.430374647
 20
21.3813379257
 10
-82.3962724977
 20
21.4039818068
 10
-82.3603793367
 20
21.4237085483
 10
-82.3227447931
 20
21.4405716188
 10
-82.2841584842
 20
21.4542260345
 10
-82.2448836154
 20
21.464556801
 10
-82.2046569811
 20
21.4716789127
 10
-82.1634785814
 20
21.4755923698
  0
LWPOLYLINE
  5
397
100
AcDbEntity
  8
0
100
AcDbPolyline
 62
7
  6
CONTINUOUS
 90
5
 70
0
 43
0.3500000019
 10
-56.9625229492
 20
30.9398498535
 10
-56.605380127
 20
31.1541350098
 10
-56.605380127
 20
31.7969931641
 10
-56.9625229492
 20
32.2255634766
 10
-57.819664917
 20
32.2255634766
  0
LWPOLYLINE
  5
398
100
AcDbEntity
  8
ASSI
100
AcDbPolyline
 62
250
  6
CONTINUOUS
 90
10
 70
0
 10
-82.6368686384
 20
-20.9972959167
 10
-82.8112944752
 20
-16.3324664701
 10
-82.9421138463
 20
-11.6670185434
 10
-83.0293267519
 20
-7.0009521365
 10
-83.0729331832
 20
-2.3338547134
 10
-83.0729331488
 20
2.3338611899
 10
-83.0293266746
 20
7.0009579653
 10
-82.9421137691
 20
11.667023077
 10
-82.8112944237
 20
16.3324690607
 10
-82.6368686384
 20
20.9972959167
  0
LINE
  5
399
100
AcDbEntity
  8
CURVE
100
AcDbLine
 62
250
  6
CONTINUOUS
 10
-83.1966945853
 20
-19.3088488498
 11
-83.2450558361
 21
-18.0139983182
  0
LINE
  5
39A
100
AcDbEntity
  8
CURVE
100
AcDbLine
 62
250
  6
CONTINUOUS
 10
-83.2445010157
 20
-18.0293799789
 11
-83.2772107475
 21
-17.0988028469
  0
LINE
  5
39B
100
AcDbEntity
  8
CURVE
100
AcDbLine
 62
250
  6
CONTINUOUS
 10
-83.2922003909
 20
-16.654967986
 11
-83.3049571774
 21
-16.2677007755
  0
LINE
  5
39C
100
AcDbEntity
  8
CURVE
100
AcDbLine
 62
250
  6
CONTINUOUS
 10
-83.34366159
 20
-15.0317221163
 11
-83.323711304
 21
-15.6809929207
  0
LINE
  5
39D
100
AcDbEntity
  8
ASSI
100
AcDbLine
 62
7
  6
CONTINUOUS
 10
-70.0696653364
 20
-23.0998904748
 11
-72.7201112067
 21
-23.1538357078
  0
LINE
  5
39E
100
AcDbEntity
  8
ASSI
100
AcDbLine
 62
7
  6
CONTINUOUS
 10
-72.7201112067
 20
-23.1538357078
 11
-74.0696653364
 21
-23.1799085617
  0
LINE
  5
39F
100
AcDbEntity
  8
ASSI
100
AcDbLine
 62
7
  6
CONTINUOUS
 10
-74.0696653364
 20
-23.5
 11
-70.0696653364
 21
-23.4301797403
  0
LINE
  5
3A0
100
AcDbEntity
  8
ASSI
100
AcDbLine
 62
250
  6
CONTINUOUS
 10
-74.0696653364
 20
-23.3333596575
 11
-70.0696653364
 21
-23.2631073618
  0
LINE
  5
3A1
100
AcDbEntity
  8
ASSI
100
AcDbLine
 62
7
  6
CONTINUOUS
 10
-70.0696653364
 20
-22.6298666026
 11
-74.0696653364
 21
-22.663166622
  0
LINE
  5
3A2
100
AcDbEntity
  8
ASSI
100
AcDbLine
 62
7
  6
CONTINUOUS
 10
-67.9201698525
 20
-22.2
 11
-68.4696653364
 21
-22.2
  0
LINE
  5
3A3
100
AcDbEntity
  8
ASSI
100
AcDbLine
 62
7
  6
CONTINUOUS
 10
-74.0696653364
 20
-22.4
 11
-82.1809203563
 21
-21.9749071372
  0
LINE
  5
3A4
100
AcDbEntity
  8
ASSI
100
AcDbLine
 62
250
  6
CONTINUOUS
 10
-74.0696653364
 20
-21.8997711479
 11
-82.1634785814
 21
-21.4755923698
  0
LWPOLYLINE
  5
3A5
100
AcDbEntity
  8
ASSI
100
AcDbPolyline
 62
250
  6
CONTINUOUS
 90
19
 70
0
 10
-82.1634785814
 20
-21.4755923698
 10
-82.2046569811
 20
-21.4716789126
 10
-82.2448836153
 20
-21.4645568007
 10
-82.2841584841
 20
-21.4542260342
 10
-82.3227447931
 20
-21.4405716186
 10
-82.3603793367
 20
-21.4237085484
 10
-82.3962724978
 20
-21.403981807
 10
-82.4303746471
 20
-21.3813379258
 10
-82.462735414
 20
-21.3558303735
 10
-82.4927140691
 20
-21.3279645393
 10
-82.5202639198
 20
-21.2976924869
 10
-82.5454316587
 20
-21.2650621527
 10
-82.5677166352
 20
-21.230722735
 10
-82.5870637634
 20
-21.1946238913
 10
-82.603528129
 20
-21.1568159642
 10
-82.6167743387
 20
-21.1180991804
 10
-82.6266905946
 20
-21.0787402824
 10
-82.6333886945
 20
-21.0384725278
 10
-82.6368686384
 20
-20.9972959167
  0
LINE
  5
3A6
100
AcDbEntity
  8
ASSI
100
AcDbLine
 62
250
  6
CONTINUOUS
 10
-82.1711313284
 20
21.6298024308
 11
-82.1634785814
 21
21.4755923698
  0
LINE
  5
3A7
100
AcDbEntity
  8
ASSI
100
AcDbLine
 62
250
  6
CONTINUOUS
 10
-82.1753839313
 20
21.7251181903
 11
-82.1711313284
 21
21.6298024308
  0
LINE
  5
3A8
100
AcDbEntity
  8
ASSI
100
AcDbLine
 62
250
  6
CONTINUOUS
 10
-82.178735881
 20
21.8095411067
 11
-82.1753839313
 21
21.7251181903
  0
LINE
  5
3A9
100
AcDbEntity
  8
ASSI
100
AcDbLine
 62
250
  6
CONTINUOUS
 10
-82.1810407424
 20
-21.8793835478
 11
-82.1787357219
 21
-21.8095380733
  0
LINE
  5
3AA
100
AcDbEntity
  8
ASSI
100
AcDbLine
 62
250
  6
CONTINUOUS
 10
-82.1787357219
 20
-21.8095380733
 11
-82.1753837506
 21
-21.7251149336
  0
LINE
  5
3AB
100
AcDbEntity
  8
ASSI
100
AcDbLine
 62
250
  6
CONTINUOUS
 10
-82.1753837506
 20
-21.7251149336
 11
-82.1687238528
 21
-21.5793443309
  0
LINE
  5
3AC
100
AcDbEntity
  8
ASSI
100
AcDbLine
 62
250
  6
CONTINUOUS
 10
-82.1687238528
 20
-21.5793443309
 11
-82.1634785814
 21
-21.4755923698
  0
LINE
  5
3AD
100
AcDbEntity
  8
ASSI
100
AcDbLine
 62
250
  6
CONTINUOUS
 10
-83.1277004597
 20
-21.0183142305
 11
-83.1250257918
 21
-21.0181637394
  0
LINE
  5
3AE
100
AcDbEntity
  8
ASSI
100
AcDbLine
 62
250
  6
CONTINUOUS
 10
-83.1250257918
 20
-21.0181637394
 11
-82.6368686384
 21
-20.9972959167
  0
LINE
  5
3AF
100
AcDbEntity
  8
ASSI
100
AcDbLine
 62
7
  6
CONTINUOUS
 10
-65.8968281931
 20
-21.1271628567
 11
-69.8731558176
 21
-21.1965699136
  0
LINE
  5
3B0
100
AcDbEntity
  8
ASSI
100
AcDbLine
 62
7
  6
CONTINUOUS
 10
-64.9297828999
 20
-20.1601175636
 11
-37.0696653364
 21
-19.6738174026
  0
LWPOLYLINE
  5
3B1
100
AcDbEntity
  8
CURVE
100
AcDbPolyline
 62
250
  6
CONTINUOUS
 90
8
 70
0
 10
-68.6872115948
 20
14.071874
 10
-68.3274524263
 20
14.192081936
 10
-68.0012171456
 20
14.3856126972
 10
-67.7232412167
 20
14.6437248453
 10
-67.5030860691
 20
14.9602238793
 10
-67.3577710818
 20
15.3106424312
 10
-67.2897787543
 20
15.6838604314
 10
-67.3032308597
 20
16.0704099717
  0
LINE
  5
3B2
100
AcDbEntity
  8
ASSI
100
AcDbLine
 62
250
  6
CONTINUOUS
 10
-37.0696653364
 20
-15.8937104774
 11
-74.0696653364
 21
-16.119659166
  0
LINE
  5
3B3
100
AcDbEntity
  8
ASSI
100
AcDbLine
 62
250
  6
CONTINUOUS
 10
-37.0696653364
 20
-17.1472402523
 11
-74.0696653364
 21
-17.3594295691
  0
LINE
  5
3B4
100
AcDbEntity
  8
CURVE
100
AcDbLine
 62
250
  6
CONTINUOUS
 10
-72.8252605623
 20
-11.8085106611
 11
-72.7315248409
 21
-11.8404255509
  0
LINE
  5
3B5
100
AcDbEntity
  8
CURVE
100
AcDbLine
 62
250
  6
CONTINUOUS
 10
-72.8565058624
 20
-11.9680851102
 11
-72.9814867051
 21
-11.8723404407
  0
LINE
  5
3B6
100
AcDbEntity
  8
CURVE
100
AcDbLine
 62
250
  6
CONTINUOUS
 10
-72.8877509837
 20
-11.7446808815
 11
-72.8252605623
 21
-11.8085106611
  0
LINE
  5
3B7
100
AcDbEntity
  8
CURVE
100
AcDbLine
 62
250
  6
CONTINUOUS
 10
-72.9814867051
 20
-11.8723404407
 11
-73.0752224265
 21
-11.7446808815
  0
LINE
  5
3B8
100
AcDbEntity
  8
CURVE
100
AcDbLine
 62
250
  6
CONTINUOUS
 10
-70.5756032482
 20
-13.5
 11
-69.0758317055
 21
-16.0980762113
  0
LINE
  5
3B9
100
AcDbEntity
  8
CURVE
100
AcDbLine
 62
250
  6
CONTINUOUS
 10
-73.0752224265
 20
-11.7446808815
 11
-73.1064677266
 21
-11.6489362121
  0
LINE
  5
3BA
100
AcDbEntity
  8
CURVE
100
AcDbLine
 62
250
  6
CONTINUOUS
 10
-72.9189962838
 20
-11.6489362121
 11
-72.8877509837
 21
-11.7446808815
  0
LINE
  5
3BB
100
AcDbEntity
  8
ASSI
100
AcDbLine
 62
7
  6
CONTINUOUS
 10
-74.0696653364
 20
-23.5
 11
-74.0696653364
 21
23.5
  0
LINE
  5
3BC
100
AcDbEntity
  8
CURVE
100
AcDbLine
 62
250
  6
CONTINUOUS
 10
-69.8257174769
 20
-13.5
 11
-70.5756032482
 21
-13.5
  0
LINE
  5
3BD
100
AcDbEntity
  8
CURVE
100
AcDbLine
 62
250
  6
CONTINUOUS
 10
-68.3259459341
 20
-13.5
 11
-67.5760601628
 21
-13.5
  0
LINE
  5
3BE
100
AcDbEntity
  8
ASSI
100
AcDbLine
 62
7
  6
CONTINUOUS
 10
-37.0696653364
 20
-13.7344425119
 11
-61.8184289683
 21
-13.5763271382
  0
LINE
  5
3BF
100
AcDbEntity
  8
ASSI
100
AcDbLine
 62
7
  6
CONTINUOUS
 10
-61.826210238
 20
-13.2499714423
 11
-37.0696653364
 21
-13.4660185366
  0
LINE
  5
3C0
100
AcDbEntity
  8
CURVE
100
AcDbLine
 62
250
  6
CONTINUOUS
 10
-72.7002795408
 20
-12.0
 11
-72.8565058624
 21
-11.9680851102
  0
LINE
  5
3C1
100
AcDbEntity
  8
CURVE
100
AcDbLine
 62
250
  6
CONTINUOUS
 10
-71.0755271107
 20
-10.6914893612
 11
-70.9505461339
 21
-10.723404251
  0
LINE
  5
3C2
100
AcDbEntity
  8
CURVE
100
AcDbLine
 62
250
  6
CONTINUOUS
 10
-70.7943199241
 20
-10.5957446806
 11
-70.9193009009
 21
-10.5319148926
  0
LINE
  5
3C3
100
AcDbEntity
  8
CURVE
100
AcDbLine
 62
250
  6
CONTINUOUS
 10
-70.9505461339
 20
-10.723404251
 11
-70.8568104125
 21
-10.787234053
  0
LINE
  5
3C4
100
AcDbEntity
  8
CURVE
100
AcDbLine
 62
250
  6
CONTINUOUS
 10
-70.6693389696
 20
-10.723404251
 11
-70.7943199241
 21
-10.5957446806
  0
LINE
  5
3C5
100
AcDbEntity
  8
CURVE
100
AcDbLine
 62
250
  6
CONTINUOUS
 10
-70.8568104125
 20
-10.787234053
 11
-70.7943199241
 21
-10.8829787224
  0
LINE
  5
3C6
100
AcDbEntity
  8
CURVE
100
AcDbLine
 62
250
  6
CONTINUOUS
 10
-70.6068484896
 20
-10.8510638326
 11
-70.6693389696
 21
-10.723404251
  0
LWPOLYLINE
  5
3C7
100
AcDbEntity
  8
CURVE
100
AcDbPolyline
 62
250
  6
CONTINUOUS
 90
57
 70
0
 10
-72.6957723265
 20
0.3430726704
 10
-72.694097268
 20
0.3056019211
 10
-72.6917633695
 20
0.2680536133
 10
-72.6887836105
 20
0.2304820334
 10
-72.685170971
 20
0.1929414676
 10
-72.6809384305
 20
0.155486202
 10
-72.6760989688
 20
0.1181705228
 10
-72.6706655657
 20
0.0810487164
 10
-72.664651201
 20
0.0441750688
 10
-72.6580688542
 20
0.0076038664
 10
-72.6509315052
 20
-0.0286106047
 10
-72.6460543929
 20
-0.0516572028
 10
-72.640910345
 20
-0.0745639598
 10
-72.6354558827
 20
-0.0973604823
 10
-72.6296475272
 20
-0.1200763773
 10
-72.6234417995
 20
-0.1427412514
 10
-72.6167952209
 20
-0.1653847116
 10
-72.6096643126
 20
-0.1880363647
 10
-72.6020055956
 20
-0.2107258175
 10
-72.5937755912
 20
-0.2334826767
 10
-72.5849308205
 20
-0.2563365493
 10
-72.5754278046
 20
-0.279317042
 10
-72.5652230649
 20
-0.3024537617
 10
-72.5542731223
 20
-0.3257763151
 10
-72.5484853156
 20
-0.3375534086
 10
-72.5424992741
 20
-0.3493598698
 10
-72.5363153312
 20
-0.3611708242
 10
-72.5299338204
 20
-0.3729613974
 10
-72.5233550754
 20
-0.3847067151
 10
-72.5165794296
 20
-0.3963819029
 10
-72.5096072165
 20
-0.4079620864
 10
-72.5024387697
 20
-0.4194223912
 10
-72.4950744226
 20
-0.4307379428
 10
-72.4875145087
 20
-0.441883867
 10
-72.4797593616
 20
-0.4528352893
 10
-72.4718093149
 20
-0.4635673354
 10
-72.4636647019
 20
-0.4740551308
 10
-72.4553258563
 20
-0.4842738012
 10
-72.4467931114
 20
-0.4941984721
 10
-72.438066801
 20
-0.5038042692
 10
-72.4291472584
 20
-0.5130663181
 10
-72.4200348171
 20
-0.5219597444
 10
-72.4107298108
 20
-0.5304596738
 10
-72.4012325729
 20
-0.5385412317
 10
-72.3915434368
 20
-0.5461795439
 10
-72.3816627362
 20
-0.553349736
 10
-72.3715908046
 20
-0.5600269334
 10
-72.3613279754
 20
-0.566186262
 10
-72.3508745822
 20
-0.5718028473
 10
-72.3402309585
 20
-0.5768518148
 10
-72.3293974377
 20
-0.5813082902
 10
-72.3183743535
 20
-0.5851473992
 10
-72.3071620394
 20
-0.5883442673
 10
-72.2957608287
 20
-0.5908740201
 10
-72.2841710551
 20
-0.5927117832
 10
-72.2723930521
 20
-0.5938326823
 10
-72.2604271532
 20
-0.594211843
  0
LINE
  5
3C8
100
AcDbEntity
  8
CURVE
100
AcDbLine
 62
250
  6
CONTINUOUS
 10
-73.1064677266
 20
-11.6489362121
 11
-73.1064677266
 21
-11.5212765634
  0
LINE
  5
3C9
100
AcDbEntity
  8
CURVE
100
AcDbLine
 62
250
  6
CONTINUOUS
 10
-72.9189962838
 20
-11.5531914532
 11
-72.9189962838
 21
-11.6489362121
  0
LINE
  5
3CA
100
AcDbEntity
  8
CURVE
100
AcDbLine
 62
250
  6
CONTINUOUS
 10
-72.6549852075
 20
-0.281784
 11
-72.6549852075
 21
-0.18241
  0
LINE
  5
3CB
100
AcDbEntity
  8
CURVE
100
AcDbLine
 62
250
  6
CONTINUOUS
 10
-72.2604273097
 20
-0.809973
 11
-72.2604273097
 21
1.627934
  0
LINE
  5
3CC
100
AcDbEntity
  8
CURVE
100
AcDbLine
 62
250
  6
CONTINUOUS
 10
-72.1378652123
 20
-11.8404255509
 11
-72.1378652123
 21
-11.3617021143
  0
LINE
  5
3CD
100
AcDbEntity
  8
CURVE
100
AcDbLine
 62
250
  6
CONTINUOUS
 10
-72.1378652123
 20
-11.1702127755
 11
-72.1378652123
 21
-10.5
  0
LINE
  5
3CE
100
AcDbEntity
  8
CURVE
100
AcDbLine
 62
250
  6
CONTINUOUS
 10
-71.9503938589
 20
-10.5
 11
-71.9503938589
 21
-12.0
  0
LINE
  5
3CF
100
AcDbEntity
  8
CURVE
100
AcDbLine
 62
250
  6
CONTINUOUS
 10
-71.8975725826
 20
1.567887
 11
-71.8975725826
 21
1.917947
  0
LINE
  5
3D0
100
AcDbEntity
  8
CURVE
100
AcDbLine
 62
250
  6
CONTINUOUS
 10
-71.7004319053
 20
-11.0106382817
 11
-71.7004319053
 21
-12.0
  0
LINE
  5
3D1
100
AcDbEntity
  8
CURVE
100
AcDbLine
 62
250
  6
CONTINUOUS
 10
-71.5251653107
 20
1.917947
 11
-71.5251653107
 21
1.567887
  0
LINE
  5
3D2
100
AcDbEntity
  8
CURVE
100
AcDbLine
 62
250
  6
CONTINUOUS
 10
-71.5129604624
 20
-12.0
 11
-71.5129604624
 21
-11.0106382817
  0
LINE
  5
3D3
100
AcDbEntity
  8
CURVE
100
AcDbLine
 62
250
  6
CONTINUOUS
 10
-71.4327633861
 20
0.28807
 11
-71.4327633861
 21
1.11141
  0
LINE
  5
3D4
100
AcDbEntity
  8
CURVE
100
AcDbLine
 62
250
  6
CONTINUOUS
 10
-71.3754814044
 20
8.3
 11
-71.3754814044
 21
3.3
  0
LINE
  5
3D5
100
AcDbEntity
  8
CURVE
100
AcDbLine
 62
250
  6
CONTINUOUS
 10
-71.2171602285
 20
1.11141
 11
-71.2171602285
 21
0.28807
  0
LINE
  5
3D6
100
AcDbEntity
  8
CURVE
100
AcDbLine
 62
250
  6
CONTINUOUS
 10
-72.7479450471
 20
0.343073
 11
-72.7473871321
 21
0.916076
  0
LINE
  5
3D7
100
AcDbEntity
  8
CURVE
100
AcDbLine
 62
250
  6
CONTINUOUS
 10
-72.5299262575
 20
0.916076
 11
-72.5304841725
 21
0.343073
  0
LWPOLYLINE
  5
3D8
100
AcDbEntity
  8
CURVE
100
AcDbPolyline
 62
250
  6
CONTINUOUS
 90
17
 70
0
 10
-71.6064849076
 20
16.07041
 10
-71.6076935604
 20
15.5727386725
 10
-71.5096625443
 20
15.0757875954
 10
-71.3153544971
 20
14.6080202808
 10
-71.0324363578
 20
14.1878937282
 10
-70.6720714117
 20
13.8319851441
 10
-70.2563630437
 20
13.5584671162
 10
-69.7869172707
 20
13.3683963337
 10
-69.289169948
 20
13.2748789619
 10
-68.7827610156
 20
13.2816049764
 10
-68.2876721802
 20
13.3883089847
 10
-67.8312102993
 20
13.5864434861
 10
-67.4151388341
 20
13.8752430225
 10
-67.0643506243
 20
14.2405969899
 10
-66.7926869486
 20
14.668089379
 10
-66.6108670175
 20
15.1408523445
 10
-66.5261163903
 20
15.6394872127
  0
LWPOLYLINE
  5
3D9
100
AcDbEntity
  8
CURVE
100
AcDbPolyline
 62
250
  6
CONTINUOUS
 90
17
 70
0
 10
-71.6064849076
 20
11.73541
 10
-71.6076935604
 20
11.2377386725
 10
-71.5096625443
 20
10.7407875954
 10
-71.3153544971
 20
10.2730202808
 10
-71.0324363578
 20
9.8528937282
 10
-70.6720714117
 20
9.4969851441
 10
-70.2563630437
 20
9.2234671162
 10
-69.7869172707
 20
9.0333963337
 10
-69.289169948
 20
8.9398789619
 10
-68.7827610156
 20
8.9466049764
 10
-68.2876721802
 20
9.0533089847
 10
-67.8312102993
 20
9.2514434861
 10
-67.4151388341
 20
9.5402430225
 10
-67.0643506243
 20
9.9055969899
 10
-66.7926869486
 20
10.333089379
 10
-66.6108670175
 20
10.8058523445
 10
-66.5261163903
 20
11.3044872127
  0
LWPOLYLINE
  5
3DA
100
AcDbEntity
  8
CURVE
100
AcDbPolyline
 62
250
  6
CONTINUOUS
 90
8
 70
0
 10
-70.8360762624
 20
16.07041
 10
-70.8500627961
 20
15.6913052257
 10
-70.7836314189
 20
15.3178060422
 10
-70.6397827174
 20
14.9667827394
 10
-70.4209526784
 20
14.6493656747
 10
-70.1440582416
 20
14.3900931857
 10
-69.818634857
 20
14.195199708
 10
-69.4520951421
 20
14.0718735574
  0
LWPOLYLINE
  5
3DB
100
AcDbEntity
  8
CURVE
100
AcDbPolyline
 62
250
  6
CONTINUOUS
 90
7
 70
0
 10
-70.8360762624
 20
11.73541
 10
-70.8452034748
 20
11.6612049392
 10
-70.8512157688
 20
11.5866827027
 10
-70.854102597
 20
11.5119740278
 10
-70.8536972515
 20
11.4309812536
 10
-70.8500627961
 20
11.3563052257
 10
-70.8428428675
 20
11.2777611826
  0
LWPOLYLINE
  5
3DC
100
AcDbEntity
  8
0
100
AcDbPolyline
 62
7
  6
CONTINUOUS
 90
3
 70
0
 43
0.3500000019
 10
-59.1768087158
 20
37.9294501953
 10
-59.2482362061
 20
37.7151650391
 10
-59.3910938721
 20
37.429449707
  0
LWPOLYLINE
  5
3DD
100
AcDbEntity
  8
ASSI
100
AcDbPolyline
 62
7
  6
CONTINUOUS
 90
49
 70
0
 10
-61.8184289683
 20
-11.4236728618
 10
-61.8898771782
 20
-11.4265584139
 10
-61.9601214501
 20
-11.4338752395
 10
-62.029161784
 20
-11.4456233384
 10
-62.0971816841
 20
-11.4618745384
 10
-62.1639976462
 20
-11.4825570117
 10
-62.2290591575
 20
-11.5074552756
 10
-62.2924040827
 20
-11.5366124635
 10
-62.3539945571
 20
-11.569985442
 10
-62.4131664738
 20
-11.6072293267
 10
-62.4699717935
 20
-11.6484663746
 10
-62.5243585556
 20
-11.6935743287
 10
-62.5755067708
 20
-11.7418415343
 10
-62.6233481297
 20
-11.7932679425
 10
-62.6679509417
 20
-11.8478536021
 10
-62.7087001454
 20
-11.9048870052
 10
-62.7455204199
 20
-11.9643700399
 10
-62.7784870862
 20
-12.0263008181
 10
-62.8072110456
 20
-12.0899621677
 10
-62.8316318027
 20
-12.1553682874
 10
-62.8518098528
 20
-12.2225049785
 10
-62.8675375844
 20
-12.2906124722
 10
-62.8787641072
 20
-12.3597611131
 10
-62.8855403113
 20
-12.4298805566
 10
-62.8878112552
 20
-12.5000000001
 10
-62.8855403113
 20
-12.5701194436
 10
-62.8787641071
 20
-12.6402388871
 10
-62.8675375843
 20
-12.709387528
 10
-62.8518098528
 20
-12.7774950217
 10
-62.8316318026
 20
-12.8446317127
 10
-62.8072110456
 20
-12.9100378324
 10
-62.7784870862
 20
-12.9736991819
 10
-62.74552042
 20
-13.03562996
 10
-62.7087001454
 20
-13.0951129947
 10
-62.6679509417
 20
-13.1521463978
 10
-62.6233481297
 20
-13.2067320575
 10
-62.5755067707
 20
-13.2581584657
 10
-62.5243585555
 20
-13.3064256714
 10
-62.4699717934
 20
-13.3515336255
 10
-62.4131664735
 20
-13.3927706734
 10
-62.3539945569
 20
-13.4300145581
 10
-62.2924040826
 20
-13.4633875365
 10
-62.2290591574
 20
-13.4925447245
 10
-62.1639976462
 20
-13.5174429883
 10
-62.0971816841
 20
-13.5381254616
 10
-62.029161784
 20
-13.5543766616
 10
-61.9601214501
 20
-13.5661247605
 10
-61.8898771782
 20
-13.573441586
 10
-61.8184289683
 20
-13.5763271382
  0
LINE
  5
3DE
100
AcDbEntity
  8
ASSI
100
AcDbLine
 62
7
  6
CONTINUOUS
 10
-37.0696653364
 20
-11.5339814634
 11
-61.826210238
 21
-11.7500285577
  0
LINE
  5
3DF
100
AcDbEntity
  8
ASSI
100
AcDbLine
 62
7
  6
CONTINUOUS
 10
-37.0696653364
 20
-11.2655574881
 11
-61.8184289683
 21
-11.4236728618
  0
LINE
  5
3E0
100
AcDbEntity
  8
CURVE
100
AcDbLine
 62
250
  6
CONTINUOUS
 10
-71.7004319053
 20
-12.0
 11
-71.5129604624
 21
-12.0
  0
LINE
  5
3E1
100
AcDbEntity
  8
CURVE
100
AcDbLine
 62
250
  6
CONTINUOUS
 10
-70.7630746911
 20
-12.0
 11
-70.5756032482
 21
-12.0
  0
LINE
  5
3E2
100
AcDbEntity
  8
CURVE
100
AcDbLine
 62
250
  6
CONTINUOUS
 10
-71.9503938589
 20
-12.0
 11
-72.7002795408
 21
-12.0
  0
LINE
  5
3E3
100
AcDbEntity
  8
CURVE
100
AcDbLine
 62
250
  6
CONTINUOUS
 10
-72.7315248409
 20
-11.8404255509
 11
-72.1378652123
 21
-11.8404255509
  0
LINE
  5
3E4
100
AcDbEntity
  8
CURVE
100
AcDbLine
 62
250
  6
CONTINUOUS
 10
-72.1378652123
 20
-11.3617021143
 11
-72.7315248409
 21
-11.3617021143
  0
LINE
  5
3E5
100
AcDbEntity
  8
CURVE
100
AcDbLine
 62
250
  6
CONTINUOUS
 10
-72.7002795408
 20
-11.1702127755
 11
-72.1378652123
 21
-11.1702127755
  0
LINE
  5
3E6
100
AcDbEntity
  8
CURVE
100
AcDbLine
 62
250
  6
CONTINUOUS
 10
-70.9193009009
 20
-10.5319148926
 11
-71.0755271107
 21
-10.5
  0
LWPOLYLINE
  5
3E7
100
AcDbEntity
  8
CURVE
100
AcDbPolyline
 62
250
  6
CONTINUOUS
 90
8
 70
0
 10
-70.3174804919
 20
-6.478913
 10
-69.9731780807
 20
-6.6909273374
 10
-69.5913874262
 20
-6.8240507102
 10
-69.1833872611
 20
-6.8721314999
 10
-68.7811156182
 20
-6.8314059682
 10
-68.3910251665
 20
-6.7025273761
 10
-68.0436519761
 20
-6.4955842702
 10
-67.7424566603
 20
-6.2114121874
  0
LINE
  5
3E8
100
AcDbEntity
  8
CURVE
100
AcDbLine
 62
250
  6
CONTINUOUS
 10
-70.7943199241
 20
-10.8829787224
 11
-70.7630746911
 21
-11.0106382817
  0
LINE
  5
3E9
100
AcDbEntity
  8
CURVE
100
AcDbLine
 62
250
  6
CONTINUOUS
 10
-70.5756032482
 20
-11.0106382817
 11
-70.6068484896
 21
-10.8510638326
  0
LINE
  5
3EA
100
AcDbEntity
  8
CURVE
100
AcDbLine
 62
250
  6
CONTINUOUS
 10
-70.9865065805
 20
-5.275321
 11
-70.9865065805
 21
-4.724679
  0
LINE
  5
3EB
100
AcDbEntity
  8
CURVE
100
AcDbLine
 62
250
  6
CONTINUOUS
 10
-70.7630746911
 20
-11.0106382817
 11
-70.7630746911
 21
-12.0
  0
LINE
  5
3EC
100
AcDbEntity
  8
CURVE
100
AcDbLine
 62
250
  6
CONTINUOUS
 10
-70.5756032482
 20
-12.0
 11
-70.5756032482
 21
-11.0106382817
  0
LINE
  5
3ED
100
AcDbEntity
  8
CURVE
100
AcDbLine
 62
250
  6
CONTINUOUS
 10
-70.1256717854
 20
4.55
 11
-70.1256717854
 21
7.05
  0
LINE
  5
3EE
100
AcDbEntity
  8
ASSI
100
AcDbLine
 62
7
  6
CONTINUOUS
 10
-70.0696653364
 20
-21.3965394526
 11
-70.0696653364
 21
-23.4301797403
  0
LINE
  5
3EF
100
AcDbEntity
  8
ASSI
100
AcDbLine
 62
7
  6
CONTINUOUS
 10
-70.0696653364
 20
21.3965394526
 11
-70.0696653364
 21
23.4301797403
  0
LINE
  5
3F0
100
AcDbEntity
  8
CURVE
100
AcDbLine
 62
250
  6
CONTINUOUS
 10
-69.8257174769
 20
-8.5
 11
-69.8257174769
 21
-13.5
  0
LINE
  5
3F1
100
AcDbEntity
  8
CURVE
100
AcDbLine
 62
250
  6
CONTINUOUS
 10
-69.4520950816
 20
15.56041
 11
-69.4520950816
 21
14.071874
  0
LINE
  5
3F2
100
AcDbEntity
  8
CURVE
100
AcDbLine
 62
250
  6
CONTINUOUS
 10
-68.8987183922
 20
-0.274826
 11
-68.8987183922
 21
1.071041
  0
LINE
  5
3F3
100
AcDbEntity
  8
CURVE
100
AcDbLine
 62
250
  6
CONTINUOUS
 10
-71.6691866946
 20
-10.8510638326
 11
-71.7004319053
 21
-11.0106382817
  0
LINE
  5
3F4
100
AcDbEntity
  8
CURVE
100
AcDbLine
 62
250
  6
CONTINUOUS
 10
-73.1064677266
 20
-11.5212765634
 11
-73.0752224265
 21
-11.425531894
  0
LWPOLYLINE
  5
3F5
100
AcDbEntity
  8
CURVE
100
AcDbPolyline
 62
250
  6
CONTINUOUS
 90
36
 70
0
 10
-72.4135865693
 20
1.603542891
 10
-72.4267284092
 20
1.5901079138
 10
-72.4394688067
 20
1.5762969087
 10
-72.4518134588
 20
1.562124287
 10
-72.463768063
 20
1.5476044602
 10
-72.4753383162
 20
1.5327518397
 10
-72.4865299157
 20
1.517580837
 10
-72.4973485588
 20
1.5021058634
 10
-72.5077999425
 20
1.4863413305
 10
-72.5178897641
 20
1.4703016496
 10
-72.5276237209
 20
1.4540012322
 10
-72.5370075099
 20
1.4374544897
 10
-72.5460468284
 20
1.4206758336
 10
-72.5547473736
 20
1.4036796753
 10
-72.5631148426
 20
1.3864804262
 10
-72.5711549327
 20
1.3690924979
 10
-72.5788733411
 20
1.3515303016
 10
-72.5862757649
 20
1.3338082489
 10
-72.5933679014
 20
1.3159407511
 10
-72.6001554477
 20
1.2979422198
 10
-72.606644101
 20
1.2798270664
 10
-72.6128395586
 20
1.2616097022
 10
-72.6187475176
 20
1.2433045388
 10
-72.6243736752
 20
1.2249259875
 10
-72.6297237287
 20
1.2064884599
 10
-72.6348033751
 20
1.1880063672
 10
-72.6396183118
 20
1.1694941211
 10
-72.6441742358
 20
1.1509661329
 10
-72.6484768445
 20
1.132436814
 10
-72.6543212283
 20
1.1054102254
 10
-72.6596999011
 20
1.0784004564
 10
-72.6646746594
 20
1.0513964603
 10
-72.6693072997
 20
1.0243871904
 10
-72.6736596187
 20
0.9973615999
 10
-72.6777934127
 20
0.9703086422
 10
-72.6856526122
 20
0.9160764381
  0
LINE
  5
3F6
100
AcDbEntity
  8
CURVE
100
AcDbLine
 62
250
  6
CONTINUOUS
 10
-71.2005080428
 20
-10.6914893612
 11
-71.0755271107
 21
-10.6914893612
  0
LINE
  5
3F7
100
AcDbEntity
  8
CURVE
100
AcDbLine
 62
250
  6
CONTINUOUS
 10
-72.1378652123
 20
-10.5
 11
-71.9503938589
 21
-10.5
  0
LINE
  5
3F8
100
AcDbEntity
  8
CURVE
100
AcDbLine
 62
250
  6
CONTINUOUS
 10
-71.0755271107
 20
-10.5
 11
-71.2005080428
 21
-10.5
  0
LINE
  5
3F9
100
AcDbEntity
  8
ASSI
100
AcDbLine
 62
7
  6
CONTINUOUS
 10
-37.0696653364
 20
-8.7344425119
 11
-61.8184289683
 21
-8.5763271382
  0
LINE
  5
3FA
100
AcDbEntity
  8
CURVE
100
AcDbLine
 62
250
  6
CONTINUOUS
 10
-69.1696653364
 20
-5.0
 11
-70.3174804919
 21
-3.521087
  0
LINE
  5
3FB
100
AcDbEntity
  8
CURVE
100
AcDbLine
 62
250
  6
CONTINUOUS
 10
-68.7023003122
 20
-0.100497
 11
-68.7023003122
 21
-0.218117
  0
LINE
  5
3FC
100
AcDbEntity
  8
CURVE
100
AcDbLine
 62
250
  6
CONTINUOUS
 10
-68.6872115948
 20
15.56041
 11
-68.6872115948
 21
14.071874
  0
LINE
  5
3FD
100
AcDbEntity
  8
ASSI
100
AcDbLine
 62
7
  6
CONTINUOUS
 10
-68.4696653364
 20
22.2
 11
-68.4696653364
 21
21.1720718961
  0
LINE
  5
3FE
100
AcDbEntity
  8
ASSI
100
AcDbLine
 62
7
  6
CONTINUOUS
 10
-68.4696653364
 20
-22.2
 11
-68.4696653364
 21
-21.1720718961
  0
LINE
  5
3FF
100
AcDbEntity
  8
CURVE
100
AcDbLine
 62
250
  6
CONTINUOUS
 10
-68.3259459341
 20
-8.5
 11
-68.3259459341
 21
-13.5
  0
LINE
  5
400
100
AcDbEntity
  8
CURVE
100
AcDbLine
 62
250
  6
CONTINUOUS
 10
-67.6260525475
 20
4.55
 11
-67.6260525475
 21
7.05
  0
LINE
  5
401
100
AcDbEntity
  8
CURVE
100
AcDbLine
 62
250
  6
CONTINUOUS
 10
-67.3528240922
 20
-5.275321
 11
-67.3528240922
 21
-4.724679
  0
LINE
  5
402
100
AcDbEntity
  8
CURVE
100
AcDbLine
 62
250
  6
CONTINUOUS
 10
-67.0885221359
 20
-1.592362
 11
-67.0885221359
 21
2.592362
  0
LINE
  5
403
100
AcDbEntity
  8
CURVE
100
AcDbLine
 62
250
  6
CONTINUOUS
 10
-66.6701330852
 20
-4.405307
 11
-66.6701330852
 21
-5.0
  0
LWPOLYLINE
  5
404
100
AcDbEntity
  8
CURVE
100
AcDbPolyline
 62
250
  6
CONTINUOUS
 90
7
 70
0
 10
-66.5261163776
 20
15.6394873963
 10
-66.5221967651
 20
15.7105865243
 10
-66.5202635827
 20
15.7817673904
 10
-66.5203183377
 20
15.8529744901
 10
-66.5223609875
 20
15.9241522981
 10
-66.5263899392
 20
15.9952453121
 10
-66.5328217696
 20
16.0704100079
  0
LWPOLYLINE
  5
405
100
AcDbEntity
  8
CURVE
100
AcDbPolyline
 62
250
  6
CONTINUOUS
 90
7
 70
0
 10
-66.5261163776
 20
11.3044873963
 10
-66.5221967651
 20
11.3755865243
 10
-66.5202635827
 20
11.4467673904
 10
-66.5203183377
 20
11.5179744901
 10
-66.5223609875
 20
11.5891522981
 10
-66.5263899392
 20
11.6602453121
 10
-66.5328217696
 20
11.7354100079
  0
LINE
  5
406
100
AcDbEntity
  8
CURVE
100
AcDbLine
 62
250
  6
CONTINUOUS
 10
-71.5129604624
 20
-11.0106382817
 11
-71.4817152518
 21
-10.8829787224
  0
LINE
  5
407
100
AcDbEntity
  8
CURVE
100
AcDbLine
 62
250
  6
CONTINUOUS
 10
-72.8877509837
 20
-11.4574467838
 11
-72.9189962838
 21
-11.5531914532
  0
LINE
  5
408
100
AcDbEntity
  8
IMPORT_IGES
100
AcDbLine
 62
7
  6
CONTINUOUS
 10
-62.4579797248
 20
12.1070938604
 11
-61.9287919623
 21
13.2419406794
  0
LINE
  5
409
100
AcDbEntity
  8
CURVE
100
AcDbLine
 62
250
  6
CONTINUOUS
 10
-73.1449125778
 20
-2.00013
 11
-68.1683846426
 21
2.731556
  0
LINE
  5
40A
100
AcDbEntity
  8
CURVE
100
AcDbLine
 62
250
  6
CONTINUOUS
 10
-71.3254890196
 20
-10.723404251
 11
-71.2005080428
 21
-10.6914893612
  0
LINE
  5
40B
100
AcDbEntity
  8
CURVE
100
AcDbLine
 62
250
  6
CONTINUOUS
 10
-72.8565058624
 20
-11.2021276653
 11
-72.7002795408
 21
-11.1702127755
  0
LINE
  5
40C
100
AcDbEntity
  8
CURVE
100
AcDbLine
 62
250
  6
CONTINUOUS
 10
-71.2005080428
 20
-10.5
 11
-71.3567342303
 21
-10.5319148926
  0
LWPOLYLINE
  5
40D
100
AcDbEntity
  8
CURVE
100
AcDbPolyline
 62
250
  6
CONTINUOUS
 90
17
 70
0
 10
-69.1696653364
 20
-7.499913
 10
-68.6841703112
 20
-7.4523025453
 10
-68.2171676407
 20
-7.3112846485
 10
-67.7864453115
 20
-7.0822306376
 10
-67.4022291318
 20
-6.7677054347
 10
-67.0925928552
 20
-6.390690641
 10
-66.8620716241
 20
-5.960704873
 10
-66.7194459205
 20
-5.4941261548
 10
-66.6701330852
 20
-5.0
 10
-66.7177362886
 20
-4.5144310203
 10
-66.8587327077
 20
-4.0473572122
 10
-67.0877518325
 20
-3.616569272
 10
-67.4022291318
 20
-3.2322945653
 10
-67.7791865042
 20
-2.9226111225
 10
-68.2091067834
 20
-2.6920547765
 10
-68.6756144394
 20
-2.549407347
 10
-69.1696655549
 20
-2.500087
  0
LWPOLYLINE
  5
40E
100
AcDbEntity
  8
ASSI
100
AcDbPolyline
 62
7
  6
CONTINUOUS
 90
49
 70
0
 10
-61.8184289683
 20
-6.4236728618
 10
-61.8898771782
 20
-6.4265584139
 10
-61.9601214501
 20
-6.4338752395
 10
-62.029161784
 20
-6.4456233384
 10
-62.0971816841
 20
-6.4618745384
 10
-62.1639976462
 20
-6.4825570117
 10
-62.2290591575
 20
-6.5074552756
 10
-62.2924040827
 20
-6.5366124635
 10
-62.3539945571
 20
-6.569985442
 10
-62.4131664738
 20
-6.6072293267
 10
-62.4699717935
 20
-6.6484663746
 10
-62.5243585556
 20
-6.6935743287
 10
-62.5755067708
 20
-6.7418415343
 10
-62.6233481297
 20
-6.7932679425
 10
-62.6679509417
 20
-6.8478536021
 10
-62.7087001454
 20
-6.9048870052
 10
-62.7455204199
 20
-6.9643700399
 10
-62.7784870862
 20
-7.0263008181
 10
-62.8072110456
 20
-7.0899621677
 10
-62.8316318027
 20
-7.1553682874
 10
-62.8518098528
 20
-7.2225049785
 10
-62.8675375844
 20
-7.2906124722
 10
-62.8787641072
 20
-7.3597611131
 10
-62.8855403113
 20
-7.4298805566
 10
-62.8878112552
 20
-7.5000000001
 10
-62.8855403113
 20
-7.5701194436
 10
-62.8787641071
 20
-7.6402388871
 10
-62.8675375843
 20
-7.709387528
 10
-62.8518098528
 20
-7.7774950217
 10
-62.8316318026
 20
-7.8446317127
 10
-62.8072110456
 20
-7.9100378324
 10
-62.7784870862
 20
-7.9736991819
 10
-62.74552042
 20
-8.03562996
 10
-62.7087001454
 20
-8.0951129947
 10
-62.6679509417
 20
-8.1521463978
 10
-62.6233481297
 20
-8.2067320575
 10
-62.5755067707
 20
-8.2581584657
 10
-62.5243585555
 20
-8.3064256714
 10
-62.4699717934
 20
-8.3515336255
 10
-62.4131664735
 20
-8.3927706734
 10
-62.3539945569
 20
-8.4300145581
 10
-62.2924040826
 20
-8.4633875365
 10
-62.2290591574
 20
-8.4925447245
 10
-62.1639976462
 20
-8.5174429883
 10
-62.0971816841
 20
-8.5381254616
 10
-62.029161784
 20
-8.5543766616
 10
-61.9601214501
 20
-8.5661247605
 10
-61.8898771782
 20
-8.573441586
 10
-61.8184289683
 20
-8.5763271382
  0
LINE
  5
40F
100
AcDbEntity
  8
ASSI
100
AcDbLine
 62
7
  6
CONTINUOUS
 10
-37.0696653364
 20
-6.5339814634
 11
-61.826210238
 21
-6.7500285577
  0
LINE
  5
410
100
AcDbEntity
  8
ASSI
100
AcDbLine
 62
7
  6
CONTINUOUS
 10
-37.0696653364
 20
-6.2655574881
 11
-61.8184289683
 21
-6.4236728618
  0
LINE
  5
411
100
AcDbEntity
  8
CURVE
100
AcDbLine
 62
250
  6
CONTINUOUS
 10
-68.3259459341
 20
-8.5
 11
-69.8257174769
 21
-8.5
  0
LINE
  5
412
100
AcDbEntity
  8
IMPORT_IGES
100
AcDbLine
 62
7
  6
CONTINUOUS
 10
-39.4691933364
 20
-6.8
 11
-41.3701373364
 21
-6.8
  0
LINE
  5
413
100
AcDbEntity
  8
IMPORT_IGES
100
AcDbLine
 62
7
  6
CONTINUOUS
 10
-41.3701373364
 20
-6.6
 11
-39.4691933364
 21
-6.6
  0
LINE
  5
414
100
AcDbEntity
  8
ASSI
100
AcDbLine
 62
7
  6
CONTINUOUS
 10
-61.826210238
 20
-8.2499714423
 11
-37.0696653364
 21
-8.4660185366
  0
LWPOLYLINE
  5
415
100
AcDbEntity
  8
CURVE
100
AcDbPolyline
 62
250
  6
CONTINUOUS
 90
8
 70
0
 10
-67.7424567403
 20
-3.788588
 10
-68.0358435978
 20
-3.5103286928
 10
-68.3821294112
 20
-3.3015706609
 10
-68.7715402786
 20
-3.1706525303
 10
-69.1735933273
 20
-3.1278225016
 10
-69.5818393948
 20
-3.1737675932
 10
-69.9643211991
 20
-3.3048912481
 10
-70.3174803082
 20
-3.5210870881
  0
LINE
  5
416
100
AcDbEntity
  8
CURVE
100
AcDbLine
 62
250
  6
CONTINUOUS
 10
-68.1590690616
 20
-1.875622
 11
-73.168583972
 21
3.06101
  0
LWPOLYLINE
  5
417
100
AcDbEntity
  8
CURVE
100
AcDbPolyline
 62
250
  6
CONTINUOUS
 90
17
 70
0
 10
-70.8428428696
 20
11.2777612012
 10
-70.7697173874
 20
10.9371538339
 10
-70.628814906
 20
10.6117903147
 10
-70.4263915719
 20
10.3207004877
 10
-70.1704345345
 20
10.0753700736
 10
-69.8766048742
 20
9.88828675
 10
-69.5460377506
 20
9.7601732809
 10
-69.1966736173
 20
9.6999363114
 10
-68.8422975622
 20
9.7099526509
 10
-68.4968924318
 20
9.7898270782
 10
-68.1794813096
 20
9.9332907568
 10
-67.891290458
 20
10.1397894399
 10
-67.6495950374
 20
10.3991858607
 10
-67.4639317812
 20
10.7012448461
 10
-67.3431949106
 20
11.0280177193
 10
-67.2878508713
 20
11.3782420502
 10
-67.3032304141
 20
11.7354100011
  0
LINE
  5
418
100
AcDbEntity
  8
CURVE
100
AcDbLine
 62
250
  6
CONTINUOUS
 10
-66.3762429286
 20
8.3
 11
-66.3762429286
 21
3.3
  0
LINE
  5
419
100
AcDbEntity
  8
CURVE
100
AcDbLine
 62
250
  6
CONTINUOUS
 10
-66.0696653364
 20
2.592362
 11
-66.0696653364
 21
-1.592362
  0
LINE
  5
41A
100
AcDbEntity
  8
IMPORT_IGES
100
AcDbLine
 62
7
  6
CONTINUOUS
 10
-59.1557351131
 20
13.2732763257
 11
-59.873981622
 21
11.7329917167
  0
LINE
  5
41B
100
AcDbEntity
  8
CURVE
100
AcDbLine
 62
250
  6
CONTINUOUS
 10
-71.6066961839
 20
-10.723404251
 11
-71.6691866946
 21
-10.8510638326
  0
LINE
  5
41C
100
AcDbEntity
  8
CURVE
100
AcDbLine
 62
250
  6
CONTINUOUS
 10
-70.9865065805
 20
-5.0
 11
-67.3528240922
 21
-5.0
  0
LWPOLYLINE
  5
41D
100
AcDbEntity
  8
0
100
AcDbPolyline
 62
7
  6
CONTINUOUS
 90
2
 70
0
 43
0.3500000019
 10
-63.6053795776
 20
37.6437375488
 10
-63.6053795776
 20
39.1437363281
  0
LINE
  5
41E
100
AcDbEntity
  8
IMPORT_IGES
100
AcDbLine
 62
7
  6
CONTINUOUS
 10
-62.5196653364
 20
-2.7
 11
-62.5196653364
 21
-2.7683123487
  0
LINE
  5
41F
100
AcDbEntity
  8
CURVE
100
AcDbLine
 62
250
  6
CONTINUOUS
 10
-71.4817152518
 20
-10.8829787224
 11
-71.419224741
 21
-10.787234053
  0
LINE
  5
420
100
AcDbEntity
  8
CURVE
100
AcDbLine
 62
250
  6
CONTINUOUS
 10
-73.0752224265
 20
-11.425531894
 11
-72.9814867051
 21
-11.2978723347
  0
LINE
  5
421
100
AcDbEntity
  8
CURVE
100
AcDbLine
 62
250
  6
CONTINUOUS
 10
-70.3174804919
 20
-6.478913
 11
-69.1696653364
 21
-5.0
  0
LWPOLYLINE
  5
422
100
AcDbEntity
  8
CURVE
100
AcDbPolyline
 62
250
  6
CONTINUOUS
 90
7
 70
0
 10
-66.3287870818
 20
-3.608188
 10
-66.4275209354
 20
-3.7156900391
 10
-66.5131554245
 20
-3.8386006114
 10
-66.5798008028
 20
-3.968466206
 10
-66.629725937
 20
-4.1097079503
 10
-66.6600233712
 20
-4.2564195538
 10
-66.6701326242
 20
-4.4053069731
  0
LINE
  5
423
100
AcDbEntity
  8
IMPORT_IGES
100
AcDbLine
 62
7
  6
CONTINUOUS
 10
-62.5420439069
 20
-2.7
 11
-62.5196653364
 21
-2.7
  0
LINE
  5
424
100
AcDbEntity
  8
ASSI
100
AcDbLine
 62
7
  6
CONTINUOUS
 10
-37.0696653364
 20
-3.7344425119
 11
-61.8184289683
 21
-3.5763271382
  0
LINE
  5
425
100
AcDbEntity
  8
ASSI
100
AcDbLine
 62
7
  6
CONTINUOUS
 10
-61.826210238
 20
-3.2499714423
 11
-37.0696653364
 21
-3.4660185366
  0
LINE
  5
426
100
AcDbEntity
  8
ASSI
100
AcDbLine
 62
250
  6
CONTINUOUS
 10
-61.8184289683
 20
-13.5763271382
 11
-61.826210238
 21
-13.2499714423
  0
LINE
  5
427
100
AcDbEntity
  8
ASSI
100
AcDbLine
 62
250
  6
CONTINUOUS
 10
-61.8184289683
 20
-8.5763271382
 11
-61.826210238
 21
-8.2499714423
  0
LINE
  5
428
100
AcDbEntity
  8
ASSI
100
AcDbLine
 62
250
  6
CONTINUOUS
 10
-61.8184289683
 20
-3.5763271382
 11
-61.826210238
 21
-3.2499714423
  0
LINE
  5
429
100
AcDbEntity
  8
ASSI
100
AcDbLine
 62
250
  6
CONTINUOUS
 10
-61.8184289683
 20
1.4236728618
 11
-61.826210238
 21
1.7500285577
  0
LINE
  5
42A
100
AcDbEntity
  8
ASSI
100
AcDbLine
 62
250
  6
CONTINUOUS
 10
-61.8184289683
 20
6.4236728618
 11
-61.826210238
 21
6.7500285577
  0
LINE
  5
42B
100
AcDbEntity
  8
ASSI
100
AcDbLine
 62
250
  6
CONTINUOUS
 10
-61.8184289683
 20
11.4236728618
 11
-61.826210238
 21
11.7500285577
  0
LINE
  5
42C
100
AcDbEntity
  8
ASSI
100
AcDbLine
 62
250
  6
CONTINUOUS
 10
-61.8184289683
 20
13.5763271382
 11
-61.826210238
 21
13.2499714423
  0
LINE
  5
42D
100
AcDbEntity
  8
ASSI
100
AcDbLine
 62
250
  6
CONTINUOUS
 10
-61.8184289683
 20
8.5763271382
 11
-61.826210238
 21
8.2499714423
  0
LINE
  5
42E
100
AcDbEntity
  8
ASSI
100
AcDbLine
 62
250
  6
CONTINUOUS
 10
-61.8184289683
 20
3.5763271382
 11
-61.826210238
 21
3.2499714423
  0
LINE
  5
42F
100
AcDbEntity
  8
ASSI
100
AcDbLine
 62
250
  6
CONTINUOUS
 10
-61.8184289683
 20
-1.4236728618
 11
-61.826210238
 21
-1.7500285577
  0
LINE
  5
430
100
AcDbEntity
  8
ASSI
100
AcDbLine
 62
250
  6
CONTINUOUS
 10
-61.8184289683
 20
-6.4236728618
 11
-61.826210238
 21
-6.7500285577
  0
LINE
  5
431
100
AcDbEntity
  8
ASSI
100
AcDbLine
 62
250
  6
CONTINUOUS
 10
-61.8184289683
 20
-11.4236728618
 11
-61.826210238
 21
-11.7500285577
  0
LINE
  5
432
100
AcDbEntity
  8
CURVE
100
AcDbLine
 62
250
  6
CONTINUOUS
 10
-72.8252605623
 20
-11.3936170042
 11
-72.8877509837
 21
-11.4574467838
  0
LINE
  5
433
100
AcDbEntity
  8
CURVE
100
AcDbLine
 62
250
  6
CONTINUOUS
 10
-71.4817152518
 20
-10.5957446806
 11
-71.6066961839
 21
-10.723404251
  0
LWPOLYLINE
  5
434
100
AcDbEntity
  8
CURVE
100
AcDbPolyline
 62
250
  6
CONTINUOUS
 90
17
 70
0
 10
-69.1696653364
 20
-2.500087
 10
-69.6551603615
 20
-2.5476974547
 10
-70.122163032
 20
-2.6887153515
 10
-70.5528853612
 20
-2.9177693624
 10
-70.9371015409
 20
-3.2322945653
 10
-71.2467378175
 20
-3.609309359
 10
-71.4772590486
 20
-4.039295127
 10
-71.6198847522
 20
-4.5058738452
 10
-71.6691975875
 20
-5.0
 10
-71.6215943841
 20
-5.4855689797
 10
-71.480597965
 20
-5.9526427877
 10
-71.2515788402
 20
-6.383430728
 10
-70.9371015409
 20
-6.7677054347
 10
-70.5601441685
 20
-7.0773888775
 10
-70.1302238893
 20
-7.3079452235
 10
-69.6637162333
 20
-7.450592653
 10
-69.1696651178
 20
-7.499913
  0
LWPOLYLINE
  5
435
100
AcDbEntity
  8
ASSI
100
AcDbPolyline
 62
7
  6
CONTINUOUS
 90
49
 70
0
 10
-61.8184289683
 20
-1.4236728618
 10
-61.8898771782
 20
-1.4265584139
 10
-61.9601214501
 20
-1.4338752395
 10
-62.029161784
 20
-1.4456233384
 10
-62.0971816841
 20
-1.4618745384
 10
-62.1639976462
 20
-1.4825570117
 10
-62.2290591575
 20
-1.5074552756
 10
-62.2924040827
 20
-1.5366124635
 10
-62.3539945571
 20
-1.569985442
 10
-62.4131664738
 20
-1.6072293267
 10
-62.4699717935
 20
-1.6484663746
 10
-62.5243585556
 20
-1.6935743287
 10
-62.5755067708
 20
-1.7418415343
 10
-62.6233481297
 20
-1.7932679425
 10
-62.6679509417
 20
-1.8478536021
 10
-62.7087001454
 20
-1.9048870052
 10
-62.7455204199
 20
-1.9643700399
 10
-62.7784870862
 20
-2.0263008181
 10
-62.8072110456
 20
-2.0899621677
 10
-62.8316318027
 20
-2.1553682874
 10
-62.8518098528
 20
-2.2225049785
 10
-62.8675375844
 20
-2.2906124722
 10
-62.8787641072
 20
-2.3597611131
 10
-62.8855403113
 20
-2.4298805566
 10
-62.8878112552
 20
-2.5000000001
 10
-62.8855403113
 20
-2.5701194436
 10
-62.8787641071
 20
-2.6402388871
 10
-62.8675375843
 20
-2.709387528
 10
-62.8518098528
 20
-2.7774950217
 10
-62.8316318026
 20
-2.8446317127
 10
-62.8072110456
 20
-2.9100378324
 10
-62.7784870862
 20
-2.9736991819
 10
-62.74552042
 20
-3.03562996
 10
-62.7087001454
 20
-3.0951129947
 10
-62.6679509417
 20
-3.1521463978
 10
-62.6233481297
 20
-3.2067320575
 10
-62.5755067707
 20
-3.2581584657
 10
-62.5243585555
 20
-3.3064256714
 10
-62.4699717934
 20
-3.3515336255
 10
-62.4131664735
 20
-3.3927706734
 10
-62.3539945569
 20
-3.4300145581
 10
-62.2924040826
 20
-3.4633875365
 10
-62.2290591574
 20
-3.4925447245
 10
-62.1639976462
 20
-3.5174429883
 10
-62.0971816841
 20
-3.5381254616
 10
-62.029161784
 20
-3.5543766616
 10
-61.9601214501
 20
-3.5661247605
 10
-61.8898771782
 20
-3.573441586
 10
-61.8184289683
 20
-3.5763271382
  0
LINE
  5
436
100
AcDbEntity
  8
ASSI
100
AcDbLine
 62
7
  6
CONTINUOUS
 10
-37.0696653364
 20
-1.5339814634
 11
-61.826210238
 21
-1.7500285577
  0
LINE
  5
437
100
AcDbEntity
  8
ASSI
100
AcDbLine
 62
7
  6
CONTINUOUS
 10
-37.0696653364
 20
-1.2655574881
 11
-61.8184289683
 21
-1.4236728618
  0
LINE
  5
438
100
AcDbEntity
  8
CURVE
100
AcDbLine
 62
250
  6
CONTINUOUS
 10
-66.0696653364
 20
-1.592362
 11
-67.0885221359
 21
-1.592362
  0
LINE
  5
439
100
AcDbEntity
  8
CURVE
100
AcDbLine
 62
250
  6
CONTINUOUS
 10
-72.2604273097
 20
-0.281784
 11
-72.6549852075
 21
-0.281784
  0
LINE
  5
43A
100
AcDbEntity
  8
CURVE
100
AcDbLine
 62
250
  6
CONTINUOUS
 10
-68.7023003122
 20
-0.218117
 11
-68.8987183922
 21
-0.218117
  0
LINE
  5
43B
100
AcDbEntity
  8
CURVE
100
AcDbLine
 62
250
  6
CONTINUOUS
 10
-72.6549852075
 20
-0.18241
 11
-72.2604273097
 21
-0.18241
  0
LINE
  5
43C
100
AcDbEntity
  8
CURVE
100
AcDbLine
 62
250
  6
CONTINUOUS
 10
-68.8987183922
 20
-0.100497
 11
-68.7023003122
 21
-0.100497
  0
LINE
  5
43D
100
AcDbEntity
  8
CURVE
100
AcDbLine
 62
250
  6
CONTINUOUS
 10
-71.2171602285
 20
0.28807
 11
-71.4327633861
 21
0.28807
  0
LINE
  5
43E
100
AcDbEntity
  8
CURVE
100
AcDbLine
 62
250
  6
CONTINUOUS
 10
-67.5760601628
 20
-13.5
 11
-69.0758317055
 21
-16.0980762113
  0
LINE
  5
43F
100
AcDbEntity
  8
CURVE
100
AcDbLine
 62
250
  6
CONTINUOUS
 10
-72.9814867051
 20
-11.2978723347
 11
-72.8565058624
 21
-11.2021276653
  0
LWPOLYLINE
  5
440
100
AcDbEntity
  8
CURVE
100
AcDbPolyline
 62
250
  6
CONTINUOUS
 90
17
 70
0
 10
-69.0198439414
 20
1.047108
 10
-68.9581660606
 20
1.0531564903
 10
-68.8988374711
 20
1.0710715761
 10
-68.8441179805
 20
1.1001708773
 10
-68.7953066879
 20
1.1401285432
 10
-68.7559701172
 20
1.1880249629
 10
-68.7266844186
 20
1.2426508799
 10
-68.708565075
 20
1.30192561
 10
-68.7023003122
 20
1.3647
 10
-68.7083478813
 20
1.4263872761
 10
-68.7262602385
 20
1.485724903
 10
-68.7553551078
 20
1.5404527289
 10
-68.7953066879
 20
1.5892714569
 10
-68.8431958128
 20
1.6286140196
 10
-68.89781341
 20
1.6579041793
 10
-68.9570791122
 20
1.6760262829
 10
-69.0198439692
 20
1.682292
  0
LWPOLYLINE
  5
441
100
AcDbEntity
  8
CURVE
100
AcDbPolyline
 62
250
  6
CONTINUOUS
 90
17
 70
0
 10
-69.0198439414
 20
1.22419
 10
-68.9925562294
 20
1.2268659911
 10
-68.9663078979
 20
1.2347920368
 10
-68.9420987376
 20
1.2476662365
 10
-68.9205034999
 20
1.2653444262
 10
-68.903100097
 20
1.2865349031
 10
-68.8901434308
 20
1.3107026642
 10
-68.8821270168
 20
1.3369271671
 10
-68.8793553418
 20
1.3647
 10
-68.8820309253
 20
1.3919918687
 10
-68.8899557639
 20
1.4182441986
 10
-68.9028280027
 20
1.4424570466
 10
-68.9205034999
 20
1.4640555738
 10
-68.9416907494
 20
1.4814616278
 10
-68.9658548297
 20
1.4944202676
 10
-68.9920753385
 20
1.5024379028
 10
-69.0198439537
 20
1.50521
  0
LWPOLYLINE
  5
442
100
AcDbEntity
  8
CURVE
100
AcDbPolyline
 62
250
  6
CONTINUOUS
 90
17
 70
0
 10
-69.0198439414
 20
1.50521
 10
-69.0471316534
 20
1.5025340089
 10
-69.073379985
 20
1.4946079632
 10
-69.0975891452
 20
1.4817337635
 10
-69.1191843829
 20
1.4640555738
 10
-69.1365877858
 20
1.4428650969
 10
-69.149544452
 20
1.4186973358
 10
-69.157560866
 20
1.3924728329
 10
-69.1603325411
 20
1.3647
 10
-69.1576569575
 20
1.3374081313
 10
-69.149732119
 20
1.3111558014
 10
-69.1368598801
 20
1.2869429534
 10
-69.1191843829
 20
1.2653444262
 10
-69.0979971334
 20
1.2479383722
 10
-69.0738330532
 20
1.2349797324
 10
-69.0476125444
 20
1.2269620973
 10
-69.0198439291
 20
1.22419
  0
LINE
  5
443
100
AcDbEntity
  8
CURVE
100
AcDbLine
 62
250
  6
CONTINUOUS
 10
-72.2604273097
 20
-0.568876
 11
-68.8987183922
 21
-0.274826
  0
LINE
  5
444
100
AcDbEntity
  8
CURVE
100
AcDbLine
 62
250
  6
CONTINUOUS
 10
-72.5304841725
 20
0.343073
 11
-72.7479450471
 21
0.343073
  0
LINE
  5
445
100
AcDbEntity
  8
CURVE
100
AcDbLine
 62
250
  6
CONTINUOUS
 10
-72.7473871321
 20
0.916076
 11
-72.5299262575
 21
0.916076
  0
LINE
  5
446
100
AcDbEntity
  8
CURVE
100
AcDbLine
 62
250
  6
CONTINUOUS
 10
-71.4327633861
 20
1.11141
 11
-71.2171602285
 21
1.11141
  0
LINE
  5
447
100
AcDbEntity
  8
CURVE
100
AcDbLine
 62
250
  6
CONTINUOUS
 10
-71.5251653107
 20
1.567887
 11
-71.8975725826
 21
1.567887
  0
LINE
  5
448
100
AcDbEntity
  8
CURVE
100
AcDbLine
 62
250
  6
CONTINUOUS
 10
-71.8975725826
 20
1.917947
 11
-71.5251653107
 21
1.917947
  0
LINE
  5
449
100
AcDbEntity
  8
ASSI
100
AcDbLine
 62
7
  6
CONTINUOUS
 10
-37.0696653364
 20
1.2655574881
 11
-61.8184289683
 21
1.4236728618
  0
LINE
  5
44A
100
AcDbEntity
  8
ASSI
100
AcDbLine
 62
7
  6
CONTINUOUS
 10
-61.826210238
 20
1.7500285577
 11
-37.0696653364
 21
1.5339814634
  0
LINE
  5
44B
100
AcDbEntity
  8
CURVE
100
AcDbLine
 62
250
  6
CONTINUOUS
 10
-69.3367956608
 20
1.380593
 11
-72.232879506
 21
1.649839
  0
LWPOLYLINE
  5
44C
100
AcDbEntity
  8
0
100
AcDbPolyline
 62
7
  6
CONTINUOUS
 90
4
 70
0
 43
0.3500000019
 10
-55.6768079834
 20
31.5827080078
 10
-55.6768079834
 20
32.2255634766
 10
-54.1768078613
 20
32.2255634766
 10
-55.0339511719
 20
29.225565918
  0
LINE
  5
44D
100
AcDbEntity
  8
CURVE
100
AcDbLine
 62
250
  6
CONTINUOUS
 10
-71.419224741
 20
-10.787234053
 11
-71.3254890196
 21
-10.723404251
  0
LINE
  5
44E
100
AcDbEntity
  8
CURVE
100
AcDbLine
 62
250
  6
CONTINUOUS
 10
-71.3567342303
 20
-10.5319148926
 11
-71.4817152518
 21
-10.5957446806
  0
LWPOLYLINE
  5
44F
100
AcDbEntity
  8
CURVE
100
AcDbPolyline
 62
250
  6
CONTINUOUS
 90
17
 70
0
 10
-69.0198439414
 20
1.682292
 10
-69.0815218222
 20
1.6762435097
 10
-69.1408504117
 20
1.6583284239
 10
-69.1955699023
 20
1.6292291227
 10
-69.244381195
 20
1.5892714569
 10
-69.2837177656
 20
1.5413750371
 10
-69.3130034643
 20
1.4867491201
 10
-69.3311228078
 20
1.4274743901
 10
-69.3373875706
 20
1.3647
 10
-69.3313400015
 20
1.3030127239
 10
-69.3134276443
 20
1.243675097
 10
-69.284332775
 20
1.1889472711
 10
-69.244381195
 20
1.1401285432
 10
-69.1964920701
 20
1.1007859804
 10
-69.1418744729
 20
1.0714958207
 10
-69.0826087706
 20
1.0533737171
 10
-69.0198439137
 20
1.047108
  0
LWPOLYLINE
  5
450
100
AcDbEntity
  8
CURVE
100
AcDbPolyline
 62
250
  6
CONTINUOUS
 90
17
 70
0
 10
-72.3648883973
 20
1.597331
 10
-72.3274880546
 20
1.6009986943
 10
-72.2915122794
 20
1.6118620758
 10
-72.2583313776
 20
1.6295073616
 10
-72.2287330995
 20
1.6537369619
 10
-72.20488012
 20
1.6827804778
 10
-72.1871218062
 20
1.7159046382
 10
-72.1761345665
 20
1.7518477541
 10
-72.1723357285
 20
1.789913
 10
-72.1760028642
 20
1.8273190398
 10
-72.1868645911
 20
1.8633002952
 10
-72.2045071895
 20
1.8964862513
 10
-72.2287330995
 20
1.9260890381
 10
-72.2577721919
 20
1.9499456511
 10
-72.2908913073
 20
1.96770667
 10
-72.3268289489
 20
1.9786955834
 10
-72.3648884142
 20
1.982495
  0
LWPOLYLINE
  5
451
100
AcDbEntity
  8
CURVE
100
AcDbPolyline
 62
250
  6
CONTINUOUS
 90
17
 70
0
 10
-72.3648883973
 20
1.982495
 10
-72.4022887401
 20
1.9788273057
 10
-72.4382645153
 20
1.9679639243
 10
-72.4714454171
 20
1.9503186384
 10
-72.5010436952
 20
1.9260890381
 10
-72.5248966747
 20
1.8970455222
 10
-72.5426549885
 20
1.8639213618
 10
-72.5536422282
 20
1.8279782459
 10
-72.5574410662
 20
1.789913
 10
-72.5537739305
 20
1.7525069602
 10
-72.5429122036
 20
1.7165257048
 10
-72.5252696052
 20
1.6833397487
 10
-72.5010436952
 20
1.6537369619
 10
-72.4720046028
 20
1.6298803489
 10
-72.4388854873
 20
1.61211933
 10
-72.4029478457
 20
1.6011304167
 10
-72.3648883805
 20
1.597331
  0
LWPOLYLINE
  5
452
100
AcDbEntity
  8
ASSI
100
AcDbPolyline
 62
7
  6
CONTINUOUS
 90
49
 70
0
 10
-61.8184289683
 20
3.5763271382
 10
-61.8898771782
 20
3.5734415861
 10
-61.9601214501
 20
3.5661247605
 10
-62.029161784
 20
3.5543766616
 10
-62.0971816841
 20
3.5381254616
 10
-62.1639976462
 20
3.5174429883
 10
-62.2290591575
 20
3.4925447244
 10
-62.2924040827
 20
3.4633875365
 10
-62.3539945571
 20
3.430014558
 10
-62.4131664738
 20
3.3927706733
 10
-62.4699717935
 20
3.3515336254
 10
-62.5243585556
 20
3.3064256713
 10
-62.5755067708
 20
3.2581584657
 10
-62.6233481297
 20
3.2067320575
 10
-62.6679509417
 20
3.1521463979
 10
-62.7087001454
 20
3.0951129948
 10
-62.7455204199
 20
3.0356299601
 10
-62.7784870862
 20
2.9736991819
 10
-62.8072110456
 20
2.9100378323
 10
-62.8316318027
 20
2.8446317126
 10
-62.8518098528
 20
2.7774950215
 10
-62.8675375844
 20
2.7093875278
 10
-62.8787641072
 20
2.6402388869
 10
-62.8855403113
 20
2.5701194434
 10
-62.8878112552
 20
2.4999999999
 10
-62.8855403113
 20
2.4298805564
 10
-62.8787641071
 20
2.3597611129
 10
-62.8675375843
 20
2.290612472
 10
-62.8518098528
 20
2.2225049783
 10
-62.8316318026
 20
2.1553682873
 10
-62.8072110456
 20
2.0899621676
 10
-62.7784870862
 20
2.0263008181
 10
-62.74552042
 20
1.96437004
 10
-62.7087001454
 20
1.9048870053
 10
-62.6679509417
 20
1.8478536022
 10
-62.6233481297
 20
1.7932679425
 10
-62.5755067707
 20
1.7418415343
 10
-62.5243585555
 20
1.6935743286
 10
-62.4699717934
 20
1.6484663745
 10
-62.4131664735
 20
1.6072293266
 10
-62.3539945569
 20
1.5699854419
 10
-62.2924040826
 20
1.5366124635
 10
-62.2290591574
 20
1.5074552755
 10
-62.1639976462
 20
1.4825570117
 10
-62.0971816841
 20
1.4618745384
 10
-62.029161784
 20
1.4456233384
 10
-61.9601214501
 20
1.4338752395
 10
-61.8898771782
 20
1.426558414
 10
-61.8184289683
 20
1.4236728618
  0
LINE
  5
453
100
AcDbEntity
  8
ASSI
100
AcDbLine
 62
7
  6
CONTINUOUS
 10
-37.0696653364
 20
3.4660185366
 11
-61.826210238
 21
3.2499714423
  0
LINE
  5
454
100
AcDbEntity
  8
ASSI
100
AcDbLine
 62
7
  6
CONTINUOUS
 10
-37.0696653364
 20
3.7344425119
 11
-61.8184289683
 21
3.5763271382
  0
LINE
  5
455
100
AcDbEntity
  8
CURVE
100
AcDbLine
 62
250
  6
CONTINUOUS
 10
-67.0885221359
 20
2.592362
 11
-66.0696653364
 21
2.592362
  0
LINE
  5
456
100
AcDbEntity
  8
CURVE
100
AcDbLine
 62
250
  6
CONTINUOUS
 10
-66.3762429286
 20
3.3
 11
-71.3754814044
 21
3.3
  0
LINE
  5
457
100
AcDbEntity
  8
CURVE
100
AcDbLine
 62
250
  6
CONTINUOUS
 10
-70.1256717854
 20
4.55
 11
-67.6260525475
 21
4.55
  0
LINE
  5
458
100
AcDbEntity
  8
CURVE
100
AcDbLine
 62
250
  6
CONTINUOUS
 10
-72.7315248409
 20
-11.3617021143
 11
-72.8252605623
 21
-11.3936170042
  0
LINE
  5
459
100
AcDbEntity
  8
ASSI
100
AcDbLine
 62
7
  6
CONTINUOUS
 10
-45.5064213703
 20
6.3194583962
 11
-61.8184289683
 21
6.4236728618
  0
LINE
  5
45A
100
AcDbEntity
  8
ASSI
100
AcDbLine
 62
7
  6
CONTINUOUS
 10
-43.7879910609
 20
5.4000799616
 11
-37.0696653364
 21
5.3414500212
  0
LINE
  5
45B
100
AcDbEntity
  8
ASSI
100
AcDbLine
 62
7
  6
CONTINUOUS
 10
-45.6712968284
 20
6.6090467642
 11
-61.826210238
 21
6.7500285577
  0
LINE
  5
45C
100
AcDbEntity
  8
IMPORT_IGES
100
AcDbLine
 62
7
  6
CONTINUOUS
 10
-40.9368226239
 20
-12.5307611845
 11
-40.3004265208
 21
-13.1671572875
  0
LWPOLYLINE
  5
45D
100
AcDbEntity
  8
ASSI
100
AcDbPolyline
 62
7
  6
CONTINUOUS
 90
49
 70
0
 10
-61.8184289683
 20
8.5763271382
 10
-61.8898771782
 20
8.5734415861
 10
-61.9601214501
 20
8.5661247605
 10
-62.029161784
 20
8.5543766616
 10
-62.0971816841
 20
8.5381254616
 10
-62.1639976462
 20
8.5174429883
 10
-62.2290591575
 20
8.4925447244
 10
-62.2924040827
 20
8.4633875365
 10
-62.3539945571
 20
8.430014558
 10
-62.4131664738
 20
8.3927706733
 10
-62.4699717935
 20
8.3515336254
 10
-62.5243585556
 20
8.3064256713
 10
-62.5755067708
 20
8.2581584657
 10
-62.6233481297
 20
8.2067320575
 10
-62.6679509417
 20
8.1521463979
 10
-62.7087001454
 20
8.0951129948
 10
-62.7455204199
 20
8.0356299601
 10
-62.7784870862
 20
7.9736991819
 10
-62.8072110456
 20
7.9100378323
 10
-62.8316318027
 20
7.8446317126
 10
-62.8518098528
 20
7.7774950215
 10
-62.8675375844
 20
7.7093875278
 10
-62.8787641072
 20
7.6402388869
 10
-62.8855403113
 20
7.5701194434
 10
-62.8878112552
 20
7.4999999999
 10
-62.8855403113
 20
7.4298805564
 10
-62.8787641071
 20
7.3597611129
 10
-62.8675375843
 20
7.290612472
 10
-62.8518098528
 20
7.2225049783
 10
-62.8316318026
 20
7.1553682873
 10
-62.8072110456
 20
7.0899621676
 10
-62.7784870862
 20
7.0263008181
 10
-62.74552042
 20
6.96437004
 10
-62.7087001454
 20
6.9048870053
 10
-62.6679509417
 20
6.8478536022
 10
-62.6233481297
 20
6.7932679425
 10
-62.5755067707
 20
6.7418415343
 10
-62.5243585555
 20
6.6935743286
 10
-62.4699717934
 20
6.6484663745
 10
-62.4131664735
 20
6.6072293266
 10
-62.3539945569
 20
6.5699854419
 10
-62.2924040826
 20
6.5366124635
 10
-62.2290591574
 20
6.5074552755
 10
-62.1639976462
 20
6.4825570117
 10
-62.0971816841
 20
6.4618745384
 10
-62.029161784
 20
6.4456233384
 10
-61.9601214501
 20
6.4338752395
 10
-61.8898771782
 20
6.426558414
 10
-61.8184289683
 20
6.4236728618
  0
LINE
  5
45E
100
AcDbEntity
  8
ASSI
100
AcDbLine
 62
7
  6
CONTINUOUS
 10
-45.6712968284
 20
8.3909532358
 11
-61.826210238
 21
8.2499714423
  0
LINE
  5
45F
100
AcDbEntity
  8
ASSI
100
AcDbLine
 62
7
  6
CONTINUOUS
 10
-45.5064213703
 20
8.6805416038
 11
-61.8184289683
 21
8.5763271382
  0
LINE
  5
460
100
AcDbEntity
  8
CURVE
100
AcDbLine
 62
250
  6
CONTINUOUS
 10
-70.1256717854
 20
7.05
 11
-67.6260525475
 21
7.05
  0
LINE
  5
461
100
AcDbEntity
  8
CURVE
100
AcDbLine
 62
250
  6
CONTINUOUS
 10
-66.3762429286
 20
8.3
 11
-71.3754814044
 21
8.3
  0
LINE
  5
462
100
AcDbEntity
  8
ASSI
100
AcDbLine
 62
7
  6
CONTINUOUS
 10
-64.9297828999
 20
-20.1601175636
 11
-66.425735838
 21
-21.6560705017
  0
LINE
  5
463
100
AcDbEntity
  8
ASSI
100
AcDbLine
 62
7
  6
CONTINUOUS
 10
-37.0696653364
 20
9.6585499788
 11
-43.7879910609
 21
9.5999200384
  0
LINE
  5
464
100
AcDbEntity
  8
ASSI
100
AcDbLine
 62
7
  6
CONTINUOUS
 10
-37.0696653364
 20
10.3414500212
 11
-43.7879910609
 21
10.4000799616
  0
LINE
  5
465
100
AcDbEntity
  8
ASSI
100
AcDbLine
 62
7
  6
CONTINUOUS
 10
-64.9297828999
 20
20.1601175636
 11
-66.425735838
 21
21.6560705017
  0
LINE
  5
466
100
AcDbEntity
  8
ASSI
100
AcDbLine
 62
7
  6
CONTINUOUS
 10
-45.6712968284
 20
13.3909532358
 11
-61.826210238
 21
13.2499714423
  0
LINE
  5
467
100
AcDbEntity
  8
CURVE
100
AcDbLine
 62
250
  6
CONTINUOUS
 10
-71.6064849076
 20
11.73541
 11
-70.8360762624
 21
11.73541
  0
LINE
  5
468
100
AcDbEntity
  8
CURVE
100
AcDbLine
 62
250
  6
CONTINUOUS
 10
-67.3032304139
 20
11.73541
 11
-66.5328217688
 21
11.73541
  0
LINE
  5
469
100
AcDbEntity
  8
IMPORT_IGES
100
AcDbLine
 62
7
  6
CONTINUOUS
 10
-53.9696653364
 20
13.1
 11
-47.4696653364
 21
13.1
  0
LINE
  5
46A
100
AcDbEntity
  8
ASSI
100
AcDbLine
 62
7
  6
CONTINUOUS
 10
-45.5064213703
 20
11.3194583962
 11
-61.8184289683
 21
11.4236728618
  0
LINE
  5
46B
100
AcDbEntity
  8
ASSI
100
AcDbLine
 62
7
  6
CONTINUOUS
 10
-45.6712968284
 20
11.6090467642
 11
-61.826210238
 21
11.7500285577
  0
LINE
  5
46C
100
AcDbEntity
  8
IMPORT_IGES
100
AcDbLine
 62
7
  6
CONTINUOUS
 10
-45.0696653364
 20
-3.3962035943
 11
-45.0696653364
 21
-3.3115566969
  0
LINE
  5
46D
100
AcDbEntity
  8
IMPORT_IGES
100
AcDbLine
 62
7
  6
CONTINUOUS
 10
-45.0696653364
 20
-2.9881830822
 11
-45.0696653364
 21
-2.7115566777
  0
LINE
  5
46E
100
AcDbEntity
  8
IMPORT_IGES
100
AcDbLine
 62
7
  6
CONTINUOUS
 10
-45.0696653364
 20
-2.3881830884
 11
-45.0696653364
 21
-2.1115566839
  0
LINE
  5
46F
100
AcDbEntity
  8
IMPORT_IGES
100
AcDbLine
 62
7
  6
CONTINUOUS
 10
-45.0696653364
 20
-1.7881830946
 11
-45.0696653364
 21
-1.6037964057
  0
LWPOLYLINE
  5
470
100
AcDbEntity
  8
ASSI
100
AcDbPolyline
 62
7
  6
CONTINUOUS
 90
49
 70
0
 10
-61.8184289683
 20
13.5763271382
 10
-61.8898771782
 20
13.5734415861
 10
-61.9601214501
 20
13.5661247605
 10
-62.029161784
 20
13.5543766616
 10
-62.0971816841
 20
13.5381254616
 10
-62.1639976462
 20
13.5174429883
 10
-62.2290591575
 20
13.4925447244
 10
-62.2924040827
 20
13.4633875365
 10
-62.3539945571
 20
13.430014558
 10
-62.4131664738
 20
13.3927706733
 10
-62.4699717935
 20
13.3515336254
 10
-62.5243585556
 20
13.3064256713
 10
-62.5755067708
 20
13.2581584657
 10
-62.6233481297
 20
13.2067320575
 10
-62.6679509417
 20
13.1521463979
 10
-62.7087001454
 20
13.0951129948
 10
-62.7455204199
 20
13.0356299601
 10
-62.7784870862
 20
12.9736991819
 10
-62.8072110456
 20
12.9100378323
 10
-62.8316318027
 20
12.8446317126
 10
-62.8518098528
 20
12.7774950215
 10
-62.8675375844
 20
12.7093875278
 10
-62.8787641072
 20
12.6402388869
 10
-62.8855403113
 20
12.5701194434
 10
-62.8878112552
 20
12.4999999999
 10
-62.8855403113
 20
12.4298805564
 10
-62.8787641071
 20
12.3597611129
 10
-62.8675375843
 20
12.290612472
 10
-62.8518098528
 20
12.2225049783
 10
-62.8316318026
 20
12.1553682873
 10
-62.8072110456
 20
12.0899621676
 10
-62.7784870862
 20
12.0263008181
 10
-62.74552042
 20
11.96437004
 10
-62.7087001454
 20
11.9048870053
 10
-62.6679509417
 20
11.8478536022
 10
-62.6233481297
 20
11.7932679425
 10
-62.5755067707
 20
11.7418415343
 10
-62.5243585555
 20
11.6935743286
 10
-62.4699717934
 20
11.6484663745
 10
-62.4131664735
 20
11.6072293266
 10
-62.3539945569
 20
11.5699854419
 10
-62.2924040826
 20
11.5366124635
 10
-62.2290591574
 20
11.5074552755
 10
-62.1639976462
 20
11.4825570117
 10
-62.0971816841
 20
11.4618745384
 10
-62.029161784
 20
11.4456233384
 10
-61.9601214501
 20
11.4338752395
 10
-61.8898771782
 20
11.426558414
 10
-61.8184289683
 20
11.4236728618
  0
LINE
  5
471
100
AcDbEntity
  8
ASSI
100
AcDbLine
 62
7
  6
CONTINUOUS
 10
-37.0696653364
 20
14.6585499788
 11
-43.7879910609
 21
14.5999200384
  0
LINE
  5
472
100
AcDbEntity
  8
ASSI
100
AcDbLine
 62
7
  6
CONTINUOUS
 10
-45.5064213703
 20
13.6805416038
 11
-61.8184289683
 21
13.5763271382
  0
LINE
  5
473
100
AcDbEntity
  8
CURVE
100
AcDbLine
 62
250
  6
CONTINUOUS
 10
-69.4520950816
 20
15.56041
 11
-68.6872115948
 21
15.56041
  0
LINE
  5
474
100
AcDbEntity
  8
CURVE
100
AcDbLine
 62
250
  6
CONTINUOUS
 10
-71.6064849076
 20
16.07041
 11
-70.8360762624
 21
16.07041
  0
LINE
  5
475
100
AcDbEntity
  8
CURVE
100
AcDbLine
 62
250
  6
CONTINUOUS
 10
-67.3032304139
 20
16.07041
 11
-66.5328217688
 21
16.07041
  0
LINE
  5
476
100
AcDbEntity
  8
ASSI
100
AcDbLine
 62
250
  6
CONTINUOUS
 10
-37.0696653364
 20
17.1472402523
 11
-74.0696653364
 21
17.3594295692
  0
LINE
  5
477
100
AcDbEntity
  8
ASSI
100
AcDbLine
 62
250
  6
CONTINUOUS
 10
-37.0696653364
 20
15.8937104774
 11
-74.0696653364
 21
16.119659166
  0
LINE
  5
478
100
AcDbEntity
  8
IMPORT_IGES
100
AcDbLine
 62
7
  6
CONTINUOUS
 10
-41.3701373364
 20
-8.428488886
 11
-41.3701373364
 21
-6.6
  0
LINE
  5
479
100
AcDbEntity
  8
IMPORT_IGES
100
AcDbLine
 62
7
  6
CONTINUOUS
 10
-41.0196653364
 20
-6.5684525912
 11
-41.0196653364
 21
-6.6
  0
LINE
  5
47A
100
AcDbEntity
  8
ASSI
100
AcDbLine
 62
7
  6
CONTINUOUS
 10
-66.425735838
 20
-21.6560705017
 11
-67.9201698525
 21
-22.2
  0
LINE
  5
47B
100
AcDbEntity
  8
ASSI
100
AcDbLine
 62
7
  6
CONTINUOUS
 10
-37.0696653364
 20
19.6738174026
 11
-64.9297828999
 21
20.1601175636
  0
LWPOLYLINE
  5
47C
100
AcDbEntity
  8
ASSI
100
AcDbPolyline
 62
250
  6
CONTINUOUS
 90
3
 70
0
 10
-83.1276779698
 20
21.0183132877
 10
-83.1250034978
 20
21.0181627949
 10
-82.6368686384
 20
20.9972959167
  0
LINE
  5
47D
100
AcDbEntity
  8
ASSI
100
AcDbLine
 62
7
  6
CONTINUOUS
 10
-66.425735838
 20
21.6560705017
 11
-67.9201698525
 21
22.2
  0
LWPOLYLINE
  5
47E
100
AcDbEntity
  8
0
100
AcDbPolyline
 62
7
  6
CONTINUOUS
 90
10
 70
0
 43
0.3500000019
 10
-59.2482362061
 20
38.1437353516
 10
-59.1768087158
 20
38.0008803711
 10
-59.1768087158
 20
37.9294501953
 10
-59.3196650391
 20
37.7865925293
 10
-59.3910938721
 20
37.7865925293
 10
-59.4625227051
 20
37.8580227051
 10
-59.4625227051
 20
37.9294501953
 10
-59.3910938721
 20
38.0723078613
 10
-59.3196650391
 20
38.1437353516
 10
-59.2482362061
 20
38.1437353516
  0
LINE
  5
47F
100
AcDbEntity
  8
IMPORT_IGES
100
AcDbLine
 62
7
  6
CONTINUOUS
 10
-39.8196653364
 20
-6.5579803498
 11
-39.8196653364
 21
-6.6
  0
LINE
  5
480
100
AcDbEntity
  8
IMPORT_IGES
100
AcDbLine
 62
7
  6
CONTINUOUS
 10
-39.4691933364
 20
-6.6
 11
-39.4691933364
 21
-8.445078173
  0
LINE
  5
481
100
AcDbEntity
  8
ASSI
100
AcDbLine
 62
7
  6
CONTINUOUS
 10
-38.5696653364
 20
-13.4529282349
 11
-38.5696653364
 21
-11.5470717651
  0
LINE
  5
482
100
AcDbEntity
  8
ASSI
100
AcDbLine
 62
7
  6
CONTINUOUS
 10
-38.5696653364
 20
-8.4529282349
 11
-38.5696653364
 21
-6.5470717651
  0
LINE
  5
483
100
AcDbEntity
  8
ASSI
100
AcDbLine
 62
7
  6
CONTINUOUS
 10
-38.5696653364
 20
-3.4529282349
 11
-38.5696653364
 21
-1.5470717651
  0
LINE
  5
484
100
AcDbEntity
  8
ASSI
100
AcDbLine
 62
7
  6
CONTINUOUS
 10
-38.5696653364
 20
1.5470717651
 11
-38.5696653364
 21
3.4529282349
  0
LINE
  5
485
100
AcDbEntity
  8
ASSI
100
AcDbLine
 62
7
  6
CONTINUOUS
 10
-38.5696653364
 20
5.3545403229
 11
-38.5696653364
 21
9.6454596771
  0
LINE
  5
486
100
AcDbEntity
  8
ASSI
100
AcDbLine
 62
7
  6
CONTINUOUS
 10
-38.5696653364
 20
10.3545403229
 11
-38.5696653364
 21
14.6454596771
  0
LINE
  5
487
100
AcDbEntity
  8
ASSI
100
AcDbLine
 62
7
  6
CONTINUOUS
 10
-67.9201698525
 20
22.2
 11
-68.4696653364
 21
22.2
  0
LINE
  5
488
100
AcDbEntity
  8
ASSI
100
AcDbLine
 62
7
  6
CONTINUOUS
 10
-65.8968281931
 20
21.1271628567
 11
-69.8731558176
 21
21.1965699136
  0
LINE
  5
489
100
AcDbEntity
  8
ASSI
100
AcDbLine
 62
7
  6
CONTINUOUS
 10
-37.0696653364
 20
19.6738174026
 11
-37.0696653364
 21
-19.6738174026
  0
LINE
  5
48A
100
AcDbEntity
  8
IMPORT_IGES
100
AcDbLine
 62
7
  6
CONTINUOUS
 10
-41.8305325176
 20
-13.4244710781
 11
-40.9368226239
 21
-12.5307611845
  0
LINE
  5
48B
100
AcDbEntity
  8
IMPORT_IGES
100
AcDbLine
 62
7
  6
CONTINUOUS
 10
-40.3004265208
 20
-13.1671572875
 11
-40.5687517058
 21
-13.4354824725
  0
LINE
  5
48C
100
AcDbEntity
  8
ASSI
100
AcDbLine
 62
250
  6
CONTINUOUS
 10
-82.1634785814
 20
21.4755923698
 11
-74.0696653364
 21
21.8997711479
  0
LINE
  5
48D
100
AcDbEntity
  8
ASSI
100
AcDbLine
 62
7
  6
CONTINUOUS
 10
-82.1809203563
 20
21.9749071372
 11
-74.0696653364
 21
22.4
  0
LINE
  5
48E
100
AcDbEntity
  8
ASSI
100
AcDbLine
 62
7
  6
CONTINUOUS
 10
-70.0696653364
 20
22.6298666026
 11
-72.7201112067
 21
22.6509756219
  0
LINE
  5
48F
100
AcDbEntity
  8
ASSI
100
AcDbLine
 62
7
  6
CONTINUOUS
 10
-72.7201112067
 20
22.6509756219
 11
-74.0696653364
 21
22.663166622
  0
LINE
  5
490
100
AcDbEntity
  8
ASSI
100
AcDbLine
 62
7
  6
CONTINUOUS
 10
-74.0696653364
 20
23.5
 11
-70.0696653364
 21
23.4301797403
  0
LINE
  5
491
100
AcDbEntity
  8
ASSI
100
AcDbLine
 62
250
  6
CONTINUOUS
 10
-74.0696653364
 20
23.3333596575
 11
-70.0696653364
 21
23.2631073618
  0
LINE
  5
492
100
AcDbEntity
  8
ASSI
100
AcDbLine
 62
7
  6
CONTINUOUS
 10
-70.0696653364
 20
23.0998904748
 11
-74.0696653364
 21
23.1799085618
  0
LWPOLYLINE
  5
493
100
AcDbEntity
  8
0
100
AcDbPolyline
 62
7
  6
CONTINUOUS
 90
6
 70
0
 43
0.3500000019
 10
-57.819664917
 20
29.225565918
 10
-56.7482364502
 20
29.225565918
 10
-56.5339512939
 20
29.4398510742
 10
-56.5339512939
 20
30.511279541
 10
-56.9625229492
 20
30.9398498535
 10
-57.3910932617
 20
30.9398498535
  0
LWPOLYLINE
  5
494
100
AcDbEntity
  8
0
100
AcDbPolyline
 62
7
  6
CONTINUOUS
 90
8
 70
0
 43
0.3500000019
 10
-58.1768077393
 20
37.6437375488
 10
-57.3196657715
 20
37.6437375488
 10
-56.8910941162
 20
38.0723078613
 10
-56.8910941162
 20
38.9294511719
 10
-57.3196657715
 20
39.3580214844
 10
-58.1768077393
 20
39.3580214844
 10
-58.1768077393
 20
40.6437351074
 10
-56.8910941162
 20
40.6437351074
  0
LWPOLYLINE
  5
495
100
AcDbEntity
  8
0
100
AcDbPolyline
 62
7
  6
CONTINUOUS
 90
3
 70
0
 43
0.3500000019
 10
-63.1053797607
 20
38.2865930176
 10
-64.6053798828
 20
38.2865930176
 10
-63.9625223999
 20
40.6437351074
  0
ARC
  5
496
100
AcDbEntity
  8
ASSI
100
AcDbCircle
 62
7
  6
CONTINUOUS
 10
11.25
 20
0.0
 40
28.0
100
AcDbArc
 50
125.9627651514
 51
126.8657383374
  0
ARC
  5
497
100
AcDbEntity
  8
ASSI
100
AcDbCircle
 62
7
  6
CONTINUOUS
 10
11.25
 20
0.0
 40
28.0
100
AcDbArc
 50
123.5572117297
 51
124.1210936517
  0
ARC
  5
498
100
AcDbEntity
  8
ASSI
100
AcDbCircle
 62
7
  6
CONTINUOUS
 10
-11.25
 20
0.0
 40
28.0
100
AcDbArc
 50
55.8789063483
 51
56.4427882703
  0
ARC
  5
499
100
AcDbEntity
  8
ASSI
100
AcDbCircle
 62
7
  6
CONTINUOUS
 10
-11.25
 20
0.0
 40
28.0
100
AcDbArc
 50
53.1342616626
 51
54.0372348486
  0
ARC
  5
49A
100
AcDbEntity
  8
ASSI
100
AcDbCircle
 62
7
  6
CONTINUOUS
 10
-11.25
 20
0.0
 40
28.0
100
AcDbArc
 50
305.9627651514
 51
306.8657383374
  0
ARC
  5
49B
100
AcDbEntity
  8
ASSI
100
AcDbCircle
 62
7
  6
CONTINUOUS
 10
-11.25
 20
0.0
 40
28.0
100
AcDbArc
 50
303.5572118642
 51
304.1210936517
  0
ARC
  5
49C
100
AcDbEntity
  8
ASSI
100
AcDbCircle
 62
7
  6
CONTINUOUS
 10
11.25
 20
0.0
 40
28.0
100
AcDbArc
 50
235.8789063483
 51
236.4427881358
  0
ARC
  5
49D
100
AcDbEntity
  8
ASSI
100
AcDbCircle
 62
7
  6
CONTINUOUS
 10
11.25
 20
0.0
 40
28.0
100
AcDbArc
 50
233.1342616626
 51
234.0372348486
  0
ARC
  5
49E
100
AcDbEntity
  8
ASSI
100
AcDbCircle
 62
7
  6
CONTINUOUS
 10
0.78
 20
-3.67
 40
0.9622185454
100
AcDbArc
 50
270.0
 51
360.0
  0
ARC
  5
49F
100
AcDbEntity
  8
ASSI
100
AcDbCircle
 62
7
  6
CONTINUOUS
 10
0.78
 20
3.67
 40
0.9622185454
100
AcDbArc
 50
0.0
 51
90.0
  0
ARC
  5
4A0
100
AcDbEntity
  8
ASSI
100
AcDbCircle
 62
7
  6
CONTINUOUS
 10
-0.78
 20
3.67
 40
0.9622185454
100
AcDbArc
 50
90.0
 51
180.0
  0
ARC
  5
4A1
100
AcDbEntity
  8
ASSI
100
AcDbCircle
 62
7
  6
CONTINUOUS
 10
-0.78
 20
-3.67
 40
0.9622185454
100
AcDbArc
 50
180.0
 51
270.0
  0
ARC
  5
4A2
100
AcDbEntity
  8
ASSI
100
AcDbCircle
 62
7
  6
CONTINUOUS
 10
-4.95
 20
23.1
 40
0.5
100
AcDbArc
 50
240.887577224
 51
9.196281579
  0
ARC
  5
4A3
100
AcDbEntity
  8
ASSI
100
AcDbCircle
 62
7
  6
CONTINUOUS
 10
4.95
 20
23.1
 40
0.5
100
AcDbArc
 50
170.803718421
 51
299.112422776
  0
ARC
  5
4A4
100
AcDbEntity
  8
ASSI
100
AcDbCircle
 62
7
  6
CONTINUOUS
 10
4.95
 20
-23.1
 40
0.5
100
AcDbArc
 50
60.887577224
 51
189.196281579
  0
ARC
  5
4A5
100
AcDbEntity
  8
ASSI
100
AcDbCircle
 62
7
  6
CONTINUOUS
 10
-4.95
 20
-23.1
 40
0.5
100
AcDbArc
 50
350.803718421
 51
119.112422776
  0
ARC
  5
4A6
100
AcDbEntity
  8
IMPORT_IGES
100
AcDbCircle
 62
7
  6
CONTINUOUS
 10
-64.7696653364
 20
-12.1
 40
4.25
100
AcDbArc
 50
344.1086041514
 51
4.9038815074
  0
ARC
  5
4A7
100
AcDbEntity
  8
IMPORT_IGES
100
AcDbCircle
 62
250
  6
CONTINUOUS
 10
-64.7696653364
 20
-12.1
 40
3.8499999649
100
AcDbArc
 50
342.5055386832
 51
5.325978975
  0
ARC
  5
4A8
100
AcDbEntity
  8
ASSI
100
AcDbCircle
 62
7
  6
CONTINUOUS
 10
-82.1285844
 20
-20.9762776024
 40
1.0
100
AcDbArc
 50
182.4092313014
 51
267.0
  0
ARC
  5
4A9
100
AcDbEntity
  8
ASSI
100
AcDbCircle
 62
7
  6
CONTINUOUS
 10
-69.8696653364
 20
-21.3965394526
 40
0.2
100
AcDbArc
 50
91.0
 51
180.0
  0
CIRCLE
  5
4AA
100
AcDbEntity
  8
IMPORT_IGES
100
AcDbCircle
 62
7
  6
CONTINUOUS
 10
-59.1585453422
 20
-2.40478
 40
0.5500000049
  0
ARC
  5
4AB
100
AcDbEntity
  8
IMPORT_IGES
100
AcDbCircle
 62
7
  6
CONTINUOUS
 10
-56.7717253254
 20
-1.5360499874
 40
0.5500000049
100
AcDbArc
 50
199.1518020391
 51
341.8437606866
  0
CIRCLE
  5
4AC
100
AcDbEntity
  8
IMPORT_IGES
100
AcDbCircle
 62
7
  6
CONTINUOUS
 10
-51.0196653284
 20
-2.2499999946
 40
0.1500000048
  0
CIRCLE
  5
4AD
100
AcDbEntity
  8
IMPORT_IGES
100
AcDbCircle
 62
7
  6
CONTINUOUS
 10
-51.6196653476
 20
-2.2499999946
 40
0.1500000048
  0
CIRCLE
  5
4AE
100
AcDbEntity
  8
IMPORT_IGES
100
AcDbCircle
 62
7
  6
CONTINUOUS
 10
-52.2196653414
 20
-2.2499999946
 40
0.1500000048
  0
CIRCLE
  5
4AF
100
AcDbEntity
  8
IMPORT_IGES
100
AcDbCircle
 62
7
  6
CONTINUOUS
 10
-52.8196653352
 20
-2.2499999946
 40
0.1500000048
  0
CIRCLE
  5
4B0
100
AcDbEntity
  8
IMPORT_IGES
100
AcDbCircle
 62
7
  6
CONTINUOUS
 10
-53.419665329
 20
-2.2499999946
 40
0.1500000048
  0
CIRCLE
  5
4B1
100
AcDbEntity
  8
IMPORT_IGES
100
AcDbCircle
 62
7
  6
CONTINUOUS
 10
-54.0196653482
 20
-2.2499999946
 40
0.1500000048
  0
ARC
  5
4B2
100
AcDbEntity
  8
IMPORT_IGES
100
AcDbCircle
 62
7
  6
CONTINUOUS
 10
-54.0196653482
 20
-1.6500000008
 40
0.1500000048
100
AcDbArc
 50
192.8284153406
 51
348.248479485
  0
ARC
  5
4B3
100
AcDbEntity
  8
IMPORT_IGES
100
AcDbCircle
 62
7
  6
CONTINUOUS
 10
-53.419665329
 20
-1.6500000008
 40
0.1500000048
100
AcDbArc
 50
190.7181730107
 51
350.3329220795
  0
ARC
  5
4B4
100
AcDbEntity
  8
IMPORT_IGES
100
AcDbCircle
 62
7
  6
CONTINUOUS
 10
-52.8196653352
 20
-1.6500000008
 40
0.1500000048
100
AcDbArc
 50
188.6384233309
 51
352.3768236957
  0
ARC
  5
4B5
100
AcDbEntity
  8
IMPORT_IGES
100
AcDbCircle
 62
7
  6
CONTINUOUS
 10
-52.2196653414
 20
-1.6500000008
 40
0.1500000048
100
AcDbArc
 50
186.5929674055
 51
354.3790029641
  0
ARC
  5
4B6
100
AcDbEntity
  8
IMPORT_IGES
100
AcDbCircle
 62
7
  6
CONTINUOUS
 10
-51.6196653476
 20
-1.6500000008
 40
0.1500000048
100
AcDbArc
 50
184.5850630366
 51
356.3391681864
  0
ARC
  5
4B7
100
AcDbEntity
  8
IMPORT_IGES
100
AcDbCircle
 62
7
  6
CONTINUOUS
 10
-51.0196653284
 20
-1.6500000008
 40
0.1500000048
100
AcDbArc
 50
182.6174046461
 51
358.2183789553
  0
CIRCLE
  5
4B8
100
AcDbEntity
  8
IMPORT_IGES
100
AcDbCircle
 62
7
  6
CONTINUOUS
 10
-43.7495253348
 20
-7.6083999966
 40
0.5500000049
  0
CIRCLE
  5
4B9
100
AcDbEntity
  8
IMPORT_IGES
100
AcDbCircle
 62
7
  6
CONTINUOUS
 10
-46.8196653464
 20
-2.2499999946
 40
0.1500000048
  0
CIRCLE
  5
4BA
100
AcDbEntity
  8
IMPORT_IGES
100
AcDbCircle
 62
7
  6
CONTINUOUS
 10
-47.4196653402
 20
-2.2499999946
 40
0.1500000048
  0
CIRCLE
  5
4BB
100
AcDbEntity
  8
IMPORT_IGES
100
AcDbCircle
 62
7
  6
CONTINUOUS
 10
-48.019665334
 20
-2.2499999946
 40
0.1500000048
  0
CIRCLE
  5
4BC
100
AcDbEntity
  8
IMPORT_IGES
100
AcDbCircle
 62
7
  6
CONTINUOUS
 10
-48.6196653278
 20
-2.2499999946
 40
0.1500000048
  0
CIRCLE
  5
4BD
100
AcDbEntity
  8
IMPORT_IGES
100
AcDbCircle
 62
7
  6
CONTINUOUS
 10
-49.219665347
 20
-2.2499999946
 40
0.1500000048
  0
CIRCLE
  5
4BE
100
AcDbEntity
  8
IMPORT_IGES
100
AcDbCircle
 62
7
  6
CONTINUOUS
 10
-49.8196653408
 20
-2.2499999946
 40
0.1500000048
  0
CIRCLE
  5
4BF
100
AcDbEntity
  8
IMPORT_IGES
100
AcDbCircle
 62
7
  6
CONTINUOUS
 10
-50.4196653346
 20
-2.2499999946
 40
0.1500000048
  0
ARC
  5
4C0
100
AcDbEntity
  8
IMPORT_IGES
100
AcDbCircle
 62
7
  6
CONTINUOUS
 10
-50.4196653346
 20
-1.6500000008
 40
0.1500000048
100
AcDbArc
 50
180.6939652736
 51
0.1075227152
  0
ARC
  5
4C1
100
AcDbEntity
  8
IMPORT_IGES
100
AcDbCircle
 62
7
  6
CONTINUOUS
 10
-49.8196653408
 20
-1.6500000008
 40
0.1500000048
100
AcDbArc
 50
178.7913595581
 51
2.0589265841
  0
ARC
  5
4C2
100
AcDbEntity
  8
IMPORT_IGES
100
AcDbCircle
 62
7
  6
CONTINUOUS
 10
-49.219665347
 20
-1.6500000008
 40
0.1500000048
100
AcDbArc
 50
176.8343046089
 51
4.0706777533
  0
ARC
  5
4C3
100
AcDbEntity
  8
IMPORT_IGES
100
AcDbCircle
 62
7
  6
CONTINUOUS
 10
-48.6196653278
 20
-1.6500000008
 40
0.1500000048
100
AcDbArc
 50
174.8259050314
 51
6.1400356856
  0
ARC
  5
4C4
100
AcDbEntity
  8
IMPORT_IGES
100
AcDbCircle
 62
7
  6
CONTINUOUS
 10
-48.019665334
 20
-1.6500000008
 40
0.1500000048
100
AcDbArc
 50
172.7698831621
 51
8.2633805908
  0
ARC
  5
4C5
100
AcDbEntity
  8
IMPORT_IGES
100
AcDbCircle
 62
7
  6
CONTINUOUS
 10
-47.4196653402
 20
-1.6500000008
 40
0.1500000048
100
AcDbArc
 50
170.6705824253
 51
10.4361828709
  0
ARC
  5
4C6
100
AcDbEntity
  8
IMPORT_IGES
100
AcDbCircle
 62
7
  6
CONTINUOUS
 10
-46.8196653464
 20
-1.6500000008
 40
0.1500000048
100
AcDbArc
 50
168.5329518087
 51
12.6529971322
  0
ARC
  5
4C7
100
AcDbEntity
  8
IMPORT_IGES
100
AcDbCircle
 62
7
  6
CONTINUOUS
 10
-45.0196653396
 20
-3.4500000076
 40
0.1500000048
100
AcDbArc
 50
21.1948423006
 51
158.1372431701
  0
CIRCLE
  5
4C8
100
AcDbEntity
  8
IMPORT_IGES
100
AcDbCircle
 62
7
  6
CONTINUOUS
 10
-45.0196653396
 20
-2.8499999884
 40
0.1500000048
  0
CIRCLE
  5
4C9
100
AcDbEntity
  8
IMPORT_IGES
100
AcDbCircle
 62
7
  6
CONTINUOUS
 10
-44.4196653458
 20
-2.8499999884
 40
0.1500000048
  0
ARC
  5
4CA
100
AcDbEntity
  8
IMPORT_IGES
100
AcDbCircle
 62
7
  6
CONTINUOUS
 10
-44.4196653458
 20
-3.4500000076
 40
0.1500000048
100
AcDbArc
 50
18.9243077036
 51
160.3392129957
  0
CIRCLE
  5
4CB
100
AcDbEntity
  8
IMPORT_IGES
100
AcDbCircle
 62
7
  6
CONTINUOUS
 10
-43.8196653266
 20
-2.8499999884
 40
0.1500000048
  0
ARC
  5
4CC
100
AcDbEntity
  8
IMPORT_IGES
100
AcDbCircle
 62
7
  6
CONTINUOUS
 10
-43.8196653266
 20
-3.4500000076
 40
0.1500000048
100
AcDbArc
 50
16.669335583
 51
162.532938756
  0
CIRCLE
  5
4CD
100
AcDbEntity
  8
IMPORT_IGES
100
AcDbCircle
 62
7
  6
CONTINUOUS
 10
-43.2196653328
 20
-2.8499999884
 40
0.1500000048
  0
CIRCLE
  5
4CE
100
AcDbEntity
  8
IMPORT_IGES
100
AcDbCircle
 62
7
  6
CONTINUOUS
 10
-45.0196653396
 20
-2.2499999946
 40
0.1500000048
  0
ARC
  5
4CF
100
AcDbEntity
  8
IMPORT_IGES
100
AcDbCircle
 62
7
  6
CONTINUOUS
 10
-45.0196653396
 20
-1.6500000008
 40
0.1500000048
100
AcDbArc
 50
161.9829917481
 51
19.3128512216
  0
ARC
  5
4D0
100
AcDbEntity
  8
IMPORT_IGES
100
AcDbCircle
 62
7
  6
CONTINUOUS
 10
-44.4196653458
 20
-1.6500000008
 40
0.1500000048
100
AcDbArc
 50
159.7709106498
 51
21.5680756827
  0
CIRCLE
  5
4D1
100
AcDbEntity
  8
IMPORT_IGES
100
AcDbCircle
 62
7
  6
CONTINUOUS
 10
-44.4196653458
 20
-2.2499999946
 40
0.1500000048
  0
ARC
  5
4D2
100
AcDbEntity
  8
IMPORT_IGES
100
AcDbCircle
 62
7
  6
CONTINUOUS
 10
-43.8196653266
 20
-1.6500000008
 40
0.1500000048
100
AcDbArc
 50
157.552232279
 51
23.8290207657
  0
CIRCLE
  5
4D3
100
AcDbEntity
  8
IMPORT_IGES
100
AcDbCircle
 62
7
  6
CONTINUOUS
 10
-43.8196653266
 20
-2.2499999946
 40
0.1500000048
  0
ARC
  5
4D4
100
AcDbEntity
  8
IMPORT_IGES
100
AcDbCircle
 62
7
  6
CONTINUOUS
 10
-43.2196653328
 20
-1.6500000008
 40
0.1500000048
100
AcDbArc
 50
155.3338754007
 51
26.0871792629
  0
CIRCLE
  5
4D5
100
AcDbEntity
  8
IMPORT_IGES
100
AcDbCircle
 62
7
  6
CONTINUOUS
 10
-43.2196653328
 20
-2.2499999946
 40
0.1500000048
  0
CIRCLE
  5
4D6
100
AcDbEntity
  8
IMPORT_IGES
100
AcDbCircle
 62
7
  6
CONTINUOUS
 10
-42.619665339
 20
-2.2499999946
 40
0.1500000048
  0
ARC
  5
4D7
100
AcDbEntity
  8
IMPORT_IGES
100
AcDbCircle
 62
7
  6
CONTINUOUS
 10
-42.619665339
 20
-1.6500000008
 40
0.1500000048
100
AcDbArc
 50
153.1227277947
 51
28.3339241422
  0
CIRCLE
  5
4D8
100
AcDbEntity
  8
IMPORT_IGES
100
AcDbCircle
 62
7
  6
CONTINUOUS
 10
-45.6196653334
 20
-2.2499999946
 40
0.1500000048
  0
CIRCLE
  5
4D9
100
AcDbEntity
  8
IMPORT_IGES
100
AcDbCircle
 62
7
  6
CONTINUOUS
 10
-46.2196653272
 20
-2.2499999946
 40
0.1500000048
  0
ARC
  5
4DA
100
AcDbEntity
  8
IMPORT_IGES
100
AcDbCircle
 62
7
  6
CONTINUOUS
 10
-46.2196653272
 20
-1.6500000008
 40
0.1500000048
100
AcDbArc
 50
166.3625085386
 51
14.852042504
  0
ARC
  5
4DB
100
AcDbEntity
  8
IMPORT_IGES
100
AcDbCircle
 62
7
  6
CONTINUOUS
 10
-45.6196653334
 20
-1.6500000008
 40
0.1500000048
100
AcDbArc
 50
164.1816499647
 51
17.0715741511
  0
ARC
  5
4DC
100
AcDbEntity
  8
IMPORT_IGES
100
AcDbCircle
 62
7
  6
CONTINUOUS
 10
-62.9196653364
 20
0.95
 40
3.0
100
AcDbArc
 50
15.1579891629
 51
50.8315357933
  0
ARC
  5
4DD
100
AcDbEntity
  8
IMPORT_IGES
100
AcDbCircle
 62
7
  6
CONTINUOUS
 10
-62.9196653364
 20
0.95
 40
3.0
100
AcDbArc
 50
280.9997761842
 51
294.8735937373
  0
ARC
  5
4DE
100
AcDbEntity
  8
IMPORT_IGES
100
AcDbCircle
 62
7
  6
CONTINUOUS
 10
-62.9196653364
 20
0.95
 40
2.5
100
AcDbArc
 50
18.3990162322
 51
65.2982206752
  0
ARC
  5
4DF
100
AcDbEntity
  8
IMPORT_IGES
100
AcDbCircle
 62
250
  6
CONTINUOUS
 10
-62.9196653364
 20
0.95
 40
2.4999933399
100
AcDbArc
 50
65.2982206752
 51
66.6937623286
  0
ARC
  5
4E0
100
AcDbEntity
  8
ASSI
100
AcDbCircle
 62
7
  6
CONTINUOUS
 10
-82.1285844
 20
20.9762776025
 40
1.0
100
AcDbArc
 50
93.0
 51
177.5907686986
  0
ARC
  5
4E1
100
AcDbEntity
  8
ASSI
100
AcDbCircle
 62
7
  6
CONTINUOUS
 10
-69.8696653364
 20
21.3965394526
 40
0.2
100
AcDbArc
 50
180.0
 51
269.0
  0
ARC
  5
4E2
100
AcDbEntity
  8
IMPORT_IGES
100
AcDbCircle
 62
7
  6
CONTINUOUS
 10
-57.4696653364
 20
6.2
 40
4.25
100
AcDbArc
 50
6.4637494837
 51
29.930937766
  0
ARC
  5
4E3
100
AcDbEntity
  8
IMPORT_IGES
100
AcDbCircle
 62
7
  6
CONTINUOUS
 10
-57.4696653364
 20
6.2
 40
4.25
100
AcDbArc
 50
151.06659484
 51
172.491159947
  0
ARC
  5
4E4
100
AcDbEntity
  8
IMPORT_IGES
100
AcDbCircle
 62
7
  6
CONTINUOUS
 10
-57.4696653364
 20
6.2
 40
4.25
100
AcDbArc
 50
223.8738239056
 51
317.1599909446
  0
ARC
  5
4E5
100
AcDbEntity
  8
IMPORT_IGES
100
AcDbCircle
 62
250
  6
CONTINUOUS
 10
-57.4696653364
 20
6.2
 40
3.8500017531
100
AcDbArc
 50
147.5566023767
 51
171.856249049
  0
ARC
  5
4E6
100
AcDbEntity
  8
IMPORT_IGES
100
AcDbCircle
 62
250
  6
CONTINUOUS
 10
-57.4696653364
 20
6.2
 40
3.8500017531
100
AcDbArc
 50
7.1408456179
 51
33.445380444
  0
ARC
  5
4E7
100
AcDbEntity
  8
IMPORT_IGES
100
AcDbCircle
 62
250
  6
CONTINUOUS
 10
-57.4696653364
 20
6.2
 40
3.8500017531
100
AcDbArc
 50
229.8198448831
 51
270.0000000008
  0
ARC
  5
4E8
100
AcDbEntity
  8
IMPORT_IGES
100
AcDbCircle
 62
7
  6
CONTINUOUS
 10
-57.4696653364
 20
6.2
 40
3.85
100
AcDbArc
 50
270.0000000008
 51
311.3480945488
  0
ARC
  5
4E9
100
AcDbEntity
  8
ASSI
100
AcDbCircle
 62
7
  6
CONTINUOUS
 10
-43.7696653364
 20
7.5
 40
2.1
100
AcDbArc
 50
90.5
 51
154.8959491746
  0
ARC
  5
4EA
100
AcDbEntity
  8
ASSI
100
AcDbCircle
 62
7
  6
CONTINUOUS
 10
-43.7696653364
 20
7.5
 40
2.1
100
AcDbArc
 50
205.1040508254
 51
269.5
  0
ARC
  5
4EB
100
AcDbEntity
  8
IMPORT_IGES
100
AcDbCircle
 62
7
  6
CONTINUOUS
 10
-42.5696653374
 20
2.500000005
 40
1.0499999955
100
AcDbArc
 50
113.9749778285
 51
246.409813035
  0
ARC
  5
4EC
100
AcDbEntity
  8
IMPORT_IGES
100
AcDbCircle
 62
7
  6
CONTINUOUS
 10
-42.5696653374
 20
2.500000005
 40
1.0499999955
100
AcDbArc
 50
292.8303335653
 51
67.5181563804
  0
ARC
  5
4ED
100
AcDbEntity
  8
IMPORT_IGES
100
AcDbCircle
 62
7
  6
CONTINUOUS
 10
-47.2244453344
 20
1.9388799944
 40
0.5500000049
100
AcDbArc
 50
323.5522884294
 51
215.4519380237
  0
CIRCLE
  5
4EE
100
AcDbEntity
  8
IMPORT_IGES
100
AcDbCircle
 62
7
  6
CONTINUOUS
 10
-42.7696653438
 20
7.5000000126
 40
0.5500000049
  0
ARC
  5
4EF
100
AcDbEntity
  8
ASSI
100
AcDbCircle
 62
7
  6
CONTINUOUS
 10
-43.7696653364
 20
12.5
 40
2.1
100
AcDbArc
 50
90.5
 51
154.8959491746
  0
ARC
  5
4F0
100
AcDbEntity
  8
ASSI
100
AcDbCircle
 62
7
  6
CONTINUOUS
 10
-43.7696653364
 20
12.5
 40
2.1
100
AcDbArc
 50
205.1040508254
 51
269.5
  0
ARC
  5
4F1
100
AcDbEntity
  8
IMPORT_IGES
100
AcDbCircle
 62
7
  6
CONTINUOUS
 10
-47.4696653365
 20
14.1
 40
1.0
100
AcDbArc
 50
270.0005096462
 51
313.8130587398
  0
ARC
  5
4F2
100
AcDbEntity
  8
IMPORT_IGES
100
AcDbCircle
 62
7
  6
CONTINUOUS
 10
-53.9696653362
 20
14.1
 40
1.0
100
AcDbArc
 50
232.1249209885
 51
269.999490355
  0
CIRCLE
  5
4F3
100
AcDbEntity
  8
IMPORT_IGES
100
AcDbCircle
 62
7
  6
CONTINUOUS
 10
-42.7696653438
 20
12.4999999948
 40
0.5500000049
  0
ARC
  5
4F4
100
AcDbEntity
  8
IMPORT_IGES
100
AcDbCircle
 62
7
  6
CONTINUOUS
 10
-48.1696653364
 20
13.1
 40
0.25
100
AcDbArc
 50
179.9999999971
 51
360.0
  0
ARC
  5
4F5
100
AcDbEntity
  8
ASSI
100
AcDbCircle
 62
7
  6
CONTINUOUS
 10
416.4303346636
 20
0.0
 40
500.0
100
AcDbArc
 50
177.5907686986
 51
182.4092313014
  0
ARC
  5
4F6
100
AcDbEntity
  8
CURVE
100
AcDbCircle
 62
250
  6
CONTINUOUS
 10
416.4303346636
 20
0.0
 40
500.0
100
AcDbArc
 50
181.4325462594
 51
181.482672109
  0
ARC
  5
4F7
100
AcDbEntity
  8
CURVE
100
AcDbCircle
 62
250
  6
CONTINUOUS
 10
416.4303346636
 20
0.0
 40
500.0
100
AcDbArc
 50
181.4912360136
 51
182.1089608754
  0
ELLIPSE
  5
4F8
100
AcDbEntity
  8
ASSI
100
AcDbEllipse
 62
7
  6
CONTINUOUS
 10
10.649923836
 20
-21.899313827
 30
0.0
 11
-0.1582391023
 21
0.4751033573
 31
0.0
 40
0.9984778551
 41
-3.4626430041
 42
-1.8927600658
  0
ELLIPSE
  5
4F9
100
AcDbEntity
  8
ASSI
100
AcDbEllipse
 62
7
  6
CONTINUOUS
 10
10.649923836
 20
21.899313827
 30
0.0
 11
0.1582391023
 21
0.4751033573
 31
0.0
 40
0.9984778551
 41
-1.2488325878
 42
0.3210503505
  0
ELLIPSE
  5
4FA
100
AcDbEntity
  8
ASSI
100
AcDbEllipse
 62
7
  6
CONTINUOUS
 10
-10.649923836
 20
-21.899313827
 30
0.0
 11
0.1582391023
 21
0.4751033573
 31
0.0
 40
0.9984778551
 41
-4.3904252414
 42
-2.8205423031
  0
ELLIPSE
  5
4FB
100
AcDbEntity
  8
ASSI
100
AcDbEllipse
 62
7
  6
CONTINUOUS
 10
-10.649923836
 20
21.899313827
 30
0.0
 11
-0.1582391023
 21
0.4751033573
 31
0.0
 40
0.9984778551
 41
-0.3210503505
 42
1.2488325878
  0
ELLIPSE
  5
4FC
100
AcDbEntity
  8
CURVE
100
AcDbEllipse
 62
250
  6
CONTINUOUS
 10
416.4303346636
 20
0.0
 30
0.0
 11
500.0
 21
0.0
 31
0.0
 40
1.0
 41
-3.1158742105
 42
-3.1144946914
  0
ELLIPSE
  5
4FD
100
AcDbEntity
  8
CURVE
100
AcDbEllipse
 62
250
  6
CONTINUOUS
 10
416.4303346636
 20
0.0
 30
0.0
 11
0.0
 21
500.0
 31
0.0
 40
1.0
 41
1.6021634561
 42
1.6082779972
  0
ELLIPSE
  5
4FE
100
AcDbEntity
  8
ASSI
100
AcDbEllipse
 62
7
  6
CONTINUOUS
 10
-61.8196653364
 20
12.5
 30
0.0
 11
-0.0
 21
0.75
 31
0.0
 40
1.0
 41
0.0087266463
 42
3.1328660073
  0
ELLIPSE
  5
4FF
100
AcDbEntity
  8
ASSI
100
AcDbEllipse
 62
7
  6
CONTINUOUS
 10
-61.8196653364
 20
-12.5
 30
0.0
 11
0.0
 21
0.75
 31
0.0
 40
1.0
 41
0.0087266463
 42
3.1328660073
  0
ELLIPSE
  5
500
100
AcDbEntity
  8
ASSI
100
AcDbEllipse
 62
7
  6
CONTINUOUS
 10
-61.8196653364
 20
-7.5
 30
0.0
 11
0.0
 21
0.75
 31
0.0
 40
1.0
 41
0.0087266463
 42
3.1328660073
  0
ELLIPSE
  5
501
100
AcDbEntity
  8
ASSI
100
AcDbEllipse
 62
7
  6
CONTINUOUS
 10
-61.8196653364
 20
-2.5
 30
0.0
 11
0.75
 21
-0.0
 31
0.0
 40
1.0
 41
1.5795229731
 42
4.7036623341
  0
ELLIPSE
  5
502
100
AcDbEntity
  8
ASSI
100
AcDbEllipse
 62
7
  6
CONTINUOUS
 10
-61.8196653364
 20
2.5
 30
0.0
 11
0.75
 21
-0.0
 31
0.0
 40
1.0
 41
1.5795229731
 42
4.7036623341
  0
ELLIPSE
  5
503
100
AcDbEntity
  8
ASSI
100
AcDbEllipse
 62
7
  6
CONTINUOUS
 10
-61.8196653364
 20
7.5
 30
0.0
 11
0.0
 21
0.75
 31
0.0
 40
1.0
 41
0.0087266463
 42
3.1328660073
  0
ENDSEC
  0
SECTION
  2
OBJECTS
  0
DICTIONARY
  5
C
100
AcDbDictionary
280
0
281
1
  3
ACAD_GROUP
350
D
  3
ACAD_MLINESTYLE
350
17
  3
ACAD_LAYOUT
350
1A
  3
ACAD_PLOTSETTINGS
350
19
  3
ACAD_PLOTSTYLENAME
350
E
  0
DICTIONARY
  5
D
102
{ACAD_REACTORS
330
C
102
}
100
AcDbDictionary
280
0
281
1
  0
ACDBDICTIONARYWDFLT
  5
E
102
{ACAD_REACTORS
330
C
102
}
100
AcDbDictionary
281
1
  3
Normal
350
F
100
AcDbDictionaryWithDefault
340
F
  0
DICTIONARY
  5
17
102
{ACAD_REACTORS
330
C
102
}
100
AcDbDictionary
280
0
281
1
  3
Standard
350
18
  0
DICTIONARY
  5
19
102
{ACAD_REACTORS
330
C
102
}
100
AcDbDictionary
281
1
  0
DICTIONARY
  5
1A
102
{ACAD_REACTORS
330
C
102
}
100
AcDbDictionary
281
1
  3
Model
350
504
  3
Layout1
350
505
  0
ACDBPLACEHOLDER
  5
F
102
{ACAD_REACTORS
330
E
102
}
  0
MLINESTYLE
  5
18
102
{ACAD_REACTORS
330
17
102
}
100
AcDbMlineStyle
  2
STANDARD
 70
0
  3

 62
256
 51
90.0
 52
90.0
 71
2
 49
0.5
 62
256
  6
BYLAYER
 49
-0.5
 62
256
  6
BYLAYER
  0
LAYOUT
  5
504
102
{ACAD_REACTORS
330
1A
102
}
100
AcDbPlotSettings
  1

  2
none_device
  4

  6

 40
0.0
 41
0.0
 42
0.0
 43
0.0
 44
210.0
 45
297.0
 46
0.0
 47
0.0
 48
0.0
 49
0.0
140
0.0
141
0.0
142
1.0
143
1.0
 70
1024
 72
1
 73
0
 74
0
  7

 75
0
147
1.0
148
0.0
149
0.0
100
AcDbLayout
  1
Model
 70
0
 71
0
 10
0.0
 20
0.0
 11
210.0
 21
297.0
 12
0.0
 22
0.0
 32
0.0
 14
0.0
 24
0.0
 34
0.0
 15
0.0
 25
0.0
 35
0.0
146
0.0
 13
0.0
 23
0.0
 33
0.0
 16
1.0
 26
0.0
 36
0.0
 17
0.0
 27
1.0
 37
0.0
 76
0
330
278
345
0
346
0
  0
LAYOUT
  5
505
102
{ACAD_REACTORS
330
1A
102
}
100
AcDbPlotSettings
  1

  2
none_device
  4

  6

 40
0.0
 41
0.0
 42
0.0
 43
0.0
 44
210.0
 45
297.0
 46
0.0
 47
0.0
 48
0.0
 49
0.0
140
0.0
141
0.0
142
1.0
143
1.0
 70
0
 72
1
 73
0
 74
0
  7

 75
0
147
1.0
148
0.0
149
0.0
100
AcDbLayout
  1
Layout1
 70
0
 71
1
 10
0.0
 20
0.0
 11
210.0
 21
297.0
 12
0.0
 22
0.0
 32
0.0
 14
0.0
 24
0.0
 34
0.0
 15
0.0
 25
0.0
 35
0.0
146
0.0
 13
0.0
 23
0.0
 33
0.0
 16
1.0
 26
0.0
 36
0.0
 17
0.0
 27
1.0
 37
0.0
 76
0
330
279
345
0
346
0
  0
ENDSEC
  0
EOF
