  0
SECTION
  2
HEADER
  9
$ACADVER
  1
AC1015
  9
$DWGCODEPAGE
  3
ANSI_1252
  9
$EXTMAX
 10
210.0
 20
297.0
 30
0.0
  9
$EXTMIN
 10
0.0
 20
0.0
 30
0.0
  9
$LIMMIN
 10
0.0
 20
0.0
  9
$LIMMAX
 10
210.0
 20
297.0
  9
$VIEWCTR
 10
105.0
 20
148.5
  9
$VIEWSIZE
 40
297.0
  9
$CLAYER
  8
0
  9
$LTSCALE
 40
19.36
  9
$CELTYPE
  6
BYLAYER
  9
$DIMSCALE
 40
1.0
  9
$DIMASZ
 40
3.0
  9
$DIMEXO
 40
2.2
  9
$DIMDLI
 40
13.376
  9
$DIMEXE
 40
6.336
  9
$DIMCEN
 40
3.168
  9
$DIMLFAC
 40
1.0
  9
$DIMBLK
  1
_FILLED
  9
$DIMTXT
 40
3.0
  9
$DIMTOL
 70
1
  9
$DIMLIM
 70
0
  9
$DIMTFAC
 40
1.0
  9
$DIMTP
 40
0.01
  9
$DIMTM
 40
0.01
  9
$PDMODE
 70
3
  9
$PDSIZE
 40
3.0
  9
$HANDSEED
  5
772
  9
$TILEMODE
 70
1
  9
$MEASUREMENT
 70
1
  9
$INSUNITS
 70
4
  0
ENDSEC
  0
SECTION
  2
CLASSES
  0
CLASS
  1
ACDBDICTIONARYWDFLT
  2
AcDbDictionaryWithDefault
  3
AutoCAD 2000
 90
0
280
0
281
0
  0
CLASS
  1
ACDBPLACEHOLDER
  2
AcDbPlaceHolder
  3
AutoCAD 2000
 90
0
280
0
281
0
  0
CLASS
  1
LAYOUT
  2
AcDbLayout
  3
AutoCAD 2000
 90
0
280
0
281
0
  0
ENDSEC
  0
SECTION
  2
TABLES
  0
TABLE
  2
VPORT
  5
8
100
AcDbSymbolTable
 70
2
  0
VPORT
  5
1F4
100
AcDbSymbolTableRecord
100
AcDbViewportTableRecord
  2
*ACTIVE
 70
0
 10
0.0
 20
0.0
 11
1.0
 21
1.0
 12
105.0
 22
148.5
 13
0.0
 23
0.0
 14
1.0
 24
1.0
 15
0.0
 25
0.0
 16
0.0
 26
0.0
 36
1.0
 17
0.0
 27
0.0
 37
0.0
 40
297.0
 41
0.7070707071
 42
50.0
 43
0.0
 44
0.0
 50
0.0
 51
0.0
 71
0
 72
100
 73
1
 74
1
 75
0
 76
0
 77
0
 78
0
  0
ENDTAB
  0
TABLE
  2
LTYPE
  5
5
100
AcDbSymbolTable
 70
6
  0
LTYPE
  5
14
100
AcDbSymbolTableRecord
100
AcDbLinetypeTableRecord
  2
BYBLOCK
 70
0
  3

 72
65
 73
0
 40
0.0
  0
LTYPE
  5
15
100
AcDbSymbolTableRecord
100
AcDbLinetypeTableRecord
  2
BYLAYER
 70
0
  3

 72
65
 73
0
 40
0.0
  0
LTYPE
  5
16
100
AcDbSymbolTableRecord
100
AcDbLinetypeTableRecord
  2
CONTINUOUS
 70
64
  3
Solid line
 72
65
 73
0
 40
0.0
  0
LTYPE
  5
1F5
100
AcDbSymbolTableRecord
100
AcDbLinetypeTableRecord
  2
CENTER
 70
64
  3
____ _ ____ _ ____ _ ____ _ ____ _ ____ _ ____
 72
65
 73
4
 40
0.6
 49
0.375
 74
0
 49
-0.075
 74
0
 49
0.075
 74
0
 49
-0.075
 74
0
  0
LTYPE
  5
1F6
100
AcDbSymbolTableRecord
100
AcDbLinetypeTableRecord
  2
HIDDEN
 70
64
  3
- - - - - - - - - - - - - - - - - - - -
 72
65
 73
2
 40
0.2
 49
0.1
 74
0
 49
-0.1
 74
0
  0
LTYPE
  5
1F7
100
AcDbSymbolTableRecord
100
AcDbLinetypeTableRecord
  2
PHANTOM
 70
64
  3
_____ _ _ _____ _ _ _____ _ _ _____
 72
65
 73
6
 40
0.8
 49
0.45
 74
0
 49
-0.05
 74
0
 49
0.1
 74
0
 49
-0.05
 74
0
 49
0.1
 74
0
 49
-0.05
 74
0
  0
LTYPE
  5
1F8
100
AcDbSymbolTableRecord
100
AcDbLinetypeTableRecord
  2
DOT
 70
64
  3
. . . . . . . . . . . . . . . . . . . .
 72
65
 73
2
 40
0.2
 49
0.1
 74
0
 49
-0.1
 74
0
  0
LTYPE
  5
1F9
100
AcDbSymbolTableRecord
100
AcDbLinetypeTableRecord
  2
DASHED
 70
64
  3
- - - - - - - - - - - - - - - - - - - -
 72
65
 73
2
 40
0.2
 49
0.1
 74
0
 49
-0.1
 74
0
  0
ENDTAB
  0
TABLE
  2
LAYER
  5
2
100
AcDbSymbolTable
 70
36
  0
LAYER
  5
10
100
AcDbSymbolTableRecord
100
AcDbLayerTableRecord
  2
0
 70
0
 62
7
  6
CONTINUOUS
370
-3
390
F
  0
LAYER
  5
1FA
100
AcDbSymbolTableRecord
100
AcDbLayerTableRecord
  2
DEFAULT_1
 70
0
 62
7
  6
CENTER
370
-3
390
F
  0
LAYER
  5
1FB
100
AcDbSymbolTableRecord
100
AcDbLayerTableRecord
  2
DEFAULT_2
 70
0
 62
7
  6
HIDDEN
370
-3
390
F
  0
LAYER
  5
1FC
100
AcDbSymbolTableRecord
100
AcDbLayerTableRecord
  2
DEFAULT_3
 70
0
 62
7
  6
PHANTOM
370
-3
390
F
  0
LAYER
  5
1FD
100
AcDbSymbolTableRecord
100
AcDbLayerTableRecord
  2
ASSI
 70
0
 62
7
  6
CONTINUOUS
370
-3
390
F
  0
LAYER
  5
1FE
100
AcDbSymbolTableRecord
100
AcDbLayerTableRecord
  2
COORDINATE
 70
0
 62
7
  6
CONTINUOUS
370
-3
390
F
  0
LAYER
  5
1FF
100
AcDbSymbolTableRecord
100
AcDbLayerTableRecord
  2
COORD_ORIGINE
 70
0
 62
7
  6
CONTINUOUS
370
-3
390
F
  0
LAYER
  5
200
100
AcDbSymbolTableRecord
100
AcDbLayerTableRecord
  2
COPY_PUBLISH
 70
0
 62
7
  6
CONTINUOUS
370
-3
390
F
  0
LAYER
  5
201
100
AcDbSymbolTableRecord
100
AcDbLayerTableRecord
  2
COSMETIC
 70
0
 62
7
  6
CONTINUOUS
370
-3
390
F
  0
LAYER
  5
202
100
AcDbSymbolTableRecord
100
AcDbLayerTableRecord
  2
CURVE
 70
0
 62
7
  6
CONTINUOUS
370
-3
390
F
  0
LAYER
  5
203
100
AcDbSymbolTableRecord
100
AcDbLayerTableRecord
  2
DRAFT
 70
0
 62
7
  6
CONTINUOUS
370
-3
390
F
  0
LAYER
  5
204
100
AcDbSymbolTableRecord
100
AcDbLayerTableRecord
  2
IMPORT_FEATURES
 70
0
 62
7
  6
CONTINUOUS
370
-3
390
F
  0
LAYER
  5
205
100
AcDbSymbolTableRecord
100
AcDbLayerTableRecord
  2
IMPORT_IGES
 70
0
 62
7
  6
CONTINUOUS
370
-3
390
F
  0
LAYER
  5
206
100
AcDbSymbolTableRecord
100
AcDbLayerTableRecord
  2
NOTE
 70
0
 62
7
  6
CONTINUOUS
370
-3
390
F
  0
LAYER
  5
207
100
AcDbSymbolTableRecord
100
AcDbLayerTableRecord
  2
PIANI
 70
0
 62
7
  6
CONTINUOUS
370
-3
390
F
  0
LAYER
  5
208
100
AcDbSymbolTableRecord
100
AcDbLayerTableRecord
  2
PIANI_ORIGINE
 70
0
 62
7
  6
CONTINUOUS
370
-3
390
F
  0
LAYER
  5
209
100
AcDbSymbolTableRecord
100
AcDbLayerTableRecord
  2
PUNTI
 70
0
 62
7
  6
CONTINUOUS
370
-3
390
F
  0
LAYER
  5
20A
100
AcDbSymbolTableRecord
100
AcDbLayerTableRecord
  2
RACCORDO
 70
0
 62
7
  6
CONTINUOUS
370
-3
390
F
  0
LAYER
  5
20B
100
AcDbSymbolTableRecord
100
AcDbLayerTableRecord
  2
SMUSSO
 70
0
 62
7
  6
CONTINUOUS
370
-3
390
F
  0
LAYER
  5
20C
100
AcDbSymbolTableRecord
100
AcDbLayerTableRecord
  2
SNAPLINE
 70
0
 62
7
  6
CONTINUOUS
370
-3
390
F
  0
LAYER
  5
20D
100
AcDbSymbolTableRecord
100
AcDbLayerTableRecord
  2
SUPERFICI
 70
0
 62
7
  6
CONTINUOUS
370
-3
390
F
  0
LAYER
  5
20E
100
AcDbSymbolTableRecord
100
AcDbLayerTableRecord
  2
TRASH
 70
0
 62
7
  6
CONTINUOUS
370
-3
390
F
  0
LAYER
  5
20F
100
AcDbSymbolTableRecord
100
AcDbLayerTableRecord
  2
XSEC_DATUMS
 70
0
 62
7
  6
CONTINUOUS
370
-3
390
F
  0
ENDTAB
  0
TABLE
  2
STYLE
  5
3
100
AcDbSymbolTable
 70
1
  0
STYLE
  5
11
100
AcDbSymbolTableRecord
100
AcDbTextStyleTableRecord
  2
STANDARD
 70
0
 40
0.0
 41
0.8
 50
0.0
 71
0
 42
0.2
  3
txt
  4

  0
STYLE
  5
210
100
AcDbSymbolTableRecord
100
AcDbTextStyleTableRecord
  2
TEXTSTYLE_1
 70
0
 40
0.0
 41
0.8
 50
0.0
 71
0
 42
0.2
  3
gdt
  4

  0
ENDTAB
  0
TABLE
  2
VIEW
  5
6
100
AcDbSymbolTable
 70
0
  0
ENDTAB
  0
TABLE
  2
UCS
  5
7
100
AcDbSymbolTable
 70
0
  0
ENDTAB
  0
TABLE
  2
APPID
  5
9
100
AcDbSymbolTable
 70
1
  0
APPID
  5
211
100
AcDbSymbolTableRecord
100
AcDbRegAppTableRecord
  2
ACAD
 70
0
  0
ENDTAB
  0
TABLE
  2
BLOCK_RECORD
  5
1
100
AcDbSymbolTable
 70
0
  0
BLOCK_RECORD
  5
212
100
AcDbSymbolTableRecord
100
AcDbBlockTableRecord
  2
*Model_Space
  0
BLOCK_RECORD
  5
213
100
AcDbSymbolTableRecord
100
AcDbBlockTableRecord
  2
*Paper_Space
  0
BLOCK_RECORD
  5
214
100
AcDbSymbolTableRecord
100
AcDbBlockTableRecord
  2
_FILLED
  0
BLOCK_RECORD
  5
215
100
AcDbSymbolTableRecord
100
AcDbBlockTableRecord
  2
*D0
  0
BLOCK_RECORD
  5
216
100
AcDbSymbolTableRecord
100
AcDbBlockTableRecord
  2
*D1
  0
BLOCK_RECORD
  5
217
100
AcDbSymbolTableRecord
100
AcDbBlockTableRecord
  2
*D2
  0
BLOCK_RECORD
  5
218
100
AcDbSymbolTableRecord
100
AcDbBlockTableRecord
  2
*D3
  0
ENDTAB
  0
TABLE
  2
DIMSTYLE
  5
A
100
AcDbSymbolTable
 70
1
100
AcDbDimStyleTable
 71
0
  0
DIMSTYLE
105
219
100
AcDbSymbolTableRecord
100
AcDbDimStyleTableRecord
  2
STANDARD
 70
0
  3

  4

 40
1.0
 41
3.0
 42
0.0625
 43
0.38
 44
0.18
 45
0.0
 46
0.0
 47
0.01
 48
0.01
140
3.0
141
0.09
142
0.0
143
25.4
144
1.0
145
0.0
146
1.0
147
0.09
 71
1.0
 72
0.0
 73
0
 74
0
 75
0
 76
0
 77
1
 78
8
170
0
171
2
172
0
173
0
174
0
175
0
176
0
177
0
178
0
270
2
271
2
272
2
273
2
274
2
275
0
280
0
281
0
282
0
283
1
284
8
285
0
286
0
287
3
288
0
340
11
341
214
342
214
343
214
344
214
  0
DIMSTYLE
105
21A
100
AcDbSymbolTableRecord
100
AcDbDimStyleTableRecord
  2
DIMSTYLE_1
 70
0
  3

  4

 40
1.0
 41
3.0
 42
0.0625
 43
0.38
 44
0.18
 45
0.0
 46
0.0
 47
0.0
 48
0.0
140
3.0
141
0.09
142
0.0
143
25.4
144
1.0
145
0.0
146
1.0
147
0.09
 71
0.0
 72
0.0
 73
0
 74
0
 75
0
 76
0
 77
1
 78
8
170
0
171
2
172
0
173
0
174
0
175
0
176
0
177
0
178
0
270
2
271
2
272
2
273
2
274
2
275
0
280
0
281
0
282
0
283
1
284
8
285
0
286
0
287
3
288
0
340
11
341
214
342
214
343
214
344
214
  0
DIMSTYLE
105
21B
100
AcDbSymbolTableRecord
100
AcDbDimStyleTableRecord
  2
DIMSTYLE_2
 70
0
  3

  4

 40
1.0
 41
3.0
 42
0.0625
 43
0.38
 44
0.18
 45
0.0
 46
0.0
 47
0.0
 48
0.0
140
3.0
141
0.09
142
0.0
143
25.4
144
1.0
145
0.0
146
1.0
147
0.09
 71
0.0
 72
0.0
 73
0
 74
0
 75
0
 76
0
 77
1
 78
8
170
0
171
2
172
0
173
0
174
0
175
0
176
0
177
0
178
0
270
2
271
1
272
1
273
2
274
2
275
0
280
0
281
0
282
0
283
1
284
8
285
0
286
0
287
3
288
0
340
11
341
214
342
214
343
214
344
214
  0
ENDTAB
  0
ENDSEC
  0
SECTION
  2
BLOCKS
  0
BLOCK
  5
20
100
AcDbEntity
  8
0
100
AcDbBlockBegin
  2
*Model_Space
 70
0
 10
0.0
 20
0.0
 30
0.0
  3
*Model_Space
  1

  0
ENDBLK
  5
21
100
AcDbEntity
  8
0
100
AcDbBlockEnd
  0
BLOCK
  5
1C
100
AcDbEntity
  8
0
100
AcDbBlockBegin
  2
*Paper_Space
 70
0
 10
0.0
 20
0.0
 30
0.0
  3
*Paper_Space
  1

  0
ENDBLK
  5
1D
100
AcDbEntity
  8
0
100
AcDbBlockEnd
  0
BLOCK
  5
21C
100
AcDbEntity
  8
0
100
AcDbBlockBegin
  2
_FILLED
 70
64
 10
0.0
 20
0.0
  3
_FILLED
  1

  0
SOLID
  5
21D
100
AcDbEntity
  8
0
  6
BYBLOCK
 62
0
100
AcDbTrace
 10
0.0
 20
0.0
 11
-1.0
 21
0.3166666667
 12
-1.0
 22
-0.3166666667
 13
-1.0
 23
-0.3166666667
  0
ENDBLK
  5
21E
100
AcDbEntity
  8
0
  6
BYBLOCK
 62
0
100
AcDbBlockEnd
  0
BLOCK
  5
21F
100
AcDbEntity
  8
0
100
AcDbBlockBegin
 62
7
  6
CONTINUOUS
  2
*D0
 70
65
 10
0.0
 20
0.0
  3
*D0
  1

  0
MTEXT
  5
220
100
AcDbEntity
  8
0
100
AcDbMText
 62
7
  6
CONTINUOUS
  7
STANDARD
 71
2
 72
1
 10
0.0
 20
35.25
 30
0.0
 11
1.0
 21
0.0
 31
0.0
 44
0.9
  1
22,3
 40
3.0
 41
8.5714285714
  0
LINE
  5
221
100
AcDbEntity
  8
0
100
AcDbLine
 62
7
  6
CONTINUOUS
 10
11.15
 20
16.9632818592
 11
11.15
 21
33.0
  0
LINE
  5
222
100
AcDbEntity
  8
0
100
AcDbLine
 62
7
  6
CONTINUOUS
 10
-11.15
 20
16.9632818592
 11
-11.15
 21
33.0
  0
LINE
  5
223
100
AcDbEntity
  8
0
100
AcDbLine
 62
7
  6
CONTINUOUS
 10
11.15
 20
31.5
 11
0.0
 21
31.5
  0
LINE
  5
224
100
AcDbEntity
  8
0
100
AcDbLine
 62
7
  6
CONTINUOUS
 10
-11.15
 20
31.5
 11
0.0
 21
31.5
  0
INSERT
  5
225
100
AcDbEntity
  8
0
100
AcDbBlockReference
 62
7
  6
CONTINUOUS
  2
_FILLED
 10
11.15
 20
31.5
 41
3.0
 42
3.0
 43
3.0
 50
360.0
  0
INSERT
  5
226
100
AcDbEntity
  8
0
100
AcDbBlockReference
 62
7
  6
CONTINUOUS
  2
_FILLED
 10
-11.15
 20
31.5
 41
3.0
 42
3.0
 43
3.0
 50
180.0
  0
ENDBLK
  5
227
100
AcDbEntity
  8
0
  6
BYBLOCK
 62
0
100
AcDbBlockEnd
  0
BLOCK
  5
228
100
AcDbEntity
  8
0
100
AcDbBlockBegin
 62
7
  6
CONTINUOUS
  2
*D1
 70
65
 10
0.0
 20
0.0
  3
*D1
  1

  0
MTEXT
  5
229
100
AcDbEntity
  8
0
100
AcDbMText
 62
7
  6
CONTINUOUS
  7
STANDARD
 71
2
 72
1
 10
15.4
 20
0.0
 30
0.0
 11
0.0
 21
1.0
 31
0.0
 44
0.9
  1
47
 40
3.0
 41
4.7142857143
  0
LINE
  5
22A
100
AcDbEntity
  8
0
100
AcDbLine
 62
7
  6
CONTINUOUS
 10
4.4733373476
 20
-23.5
 11
20.65
 21
-23.5
  0
LINE
  5
22B
100
AcDbEntity
  8
0
100
AcDbLine
 62
7
  6
CONTINUOUS
 10
3.5
 20
23.5
 11
20.65
 21
23.5
  0
LINE
  5
22C
100
AcDbEntity
  8
0
100
AcDbLine
 62
7
  6
CONTINUOUS
 10
19.15
 20
-23.5
 11
19.15
 21
0.0
  0
LINE
  5
22D
100
AcDbEntity
  8
0
100
AcDbLine
 62
7
  6
CONTINUOUS
 10
19.15
 20
23.5
 11
19.15
 21
0.0
  0
INSERT
  5
22E
100
AcDbEntity
  8
0
100
AcDbBlockReference
 62
7
  6
CONTINUOUS
  2
_FILLED
 10
19.15
 20
-23.5
 41
3.0
 42
3.0
 43
3.0
 50
270.0
  0
INSERT
  5
22F
100
AcDbEntity
  8
0
100
AcDbBlockReference
 62
7
  6
CONTINUOUS
  2
_FILLED
 10
19.15
 20
23.5
 41
3.0
 42
3.0
 43
3.0
 50
90.0
  0
ENDBLK
  5
230
100
AcDbEntity
  8
0
  6
BYBLOCK
 62
0
100
AcDbBlockEnd
  0
BLOCK
  5
231
100
AcDbEntity
  8
0
100
AcDbBlockBegin
 62
7
  6
CONTINUOUS
  2
*D2
 70
65
 10
0.0
 20
0.0
  3
*D2
  1

  0
MTEXT
  5
232
100
AcDbEntity
  8
0
100
AcDbMText
 62
7
  6
CONTINUOUS
  7
STANDARD
 71
2
 72
1
 10
-29.0299067298
 20
35.25
 30
0.0
 11
1.0
 21
0.0
 31
0.0
 44
0.9
  1
22,3
 40
3.0
 41
8.5714285714
  0
LINE
  5
233
100
AcDbEntity
  8
0
100
AcDbLine
 62
7
  6
CONTINUOUS
 10
-17.8875601152
 20
14.2465639795
 11
-17.8875601152
 21
33.0
  0
LINE
  5
234
100
AcDbEntity
  8
0
100
AcDbLine
 62
7
  6
CONTINUOUS
 10
-40.1722533444
 20
22.3997711479
 11
-40.1722533444
 21
33.0
  0
LINE
  5
235
100
AcDbEntity
  8
0
100
AcDbLine
 62
7
  6
CONTINUOUS
 10
-17.8875601152
 20
31.5
 11
-29.0299067298
 21
31.5
  0
LINE
  5
236
100
AcDbEntity
  8
0
100
AcDbLine
 62
7
  6
CONTINUOUS
 10
-40.1722533444
 20
31.5
 11
-29.0299067298
 21
31.5
  0
INSERT
  5
237
100
AcDbEntity
  8
0
100
AcDbBlockReference
 62
7
  6
CONTINUOUS
  2
_FILLED
 10
-17.8875601152
 20
31.5
 41
3.0
 42
3.0
 43
3.0
  0
INSERT
  5
238
100
AcDbEntity
  8
0
100
AcDbBlockReference
 62
7
  6
CONTINUOUS
  2
_FILLED
 10
-40.1722533444
 20
31.5
 41
3.0
 42
3.0
 43
3.0
 50
180.0
  0
ENDBLK
  5
239
100
AcDbEntity
  8
0
  6
BYBLOCK
 62
0
100
AcDbBlockEnd
  0
BLOCK
  5
23A
100
AcDbEntity
  8
0
100
AcDbBlockBegin
 62
7
  6
CONTINUOUS
  2
*D3
 70
65
 10
0.0
 20
0.0
  3
*D3
  1

  0
MTEXT
  5
23B
100
AcDbEntity
  8
0
100
AcDbMText
 62
7
  6
CONTINUOUS
  7
STANDARD
 71
2
 72
1
 10
-33.9559871075
 20
45.25
 30
0.0
 11
1.0
 21
0.0
 31
0.0
 44
0.9
  1
32,1
 40
3.0
 41
7.9285714286
  0
LINE
  5
23C
100
AcDbEntity
  8
0
100
AcDbLine
 62
7
  6
CONTINUOUS
 10
-50.0244140999
 20
4.9884019009
 11
-50.0244140999
 21
43.0
  0
LINE
  5
23D
100
AcDbEntity
  8
0
100
AcDbLine
 62
7
  6
CONTINUOUS
 10
-17.8875601152
 20
14.2465639795
 11
-17.8875601152
 21
43.0
  0
LINE
  5
23E
100
AcDbEntity
  8
0
100
AcDbLine
 62
7
  6
CONTINUOUS
 10
-50.0244140999
 20
41.5
 11
-33.9559871075
 21
41.5
  0
LINE
  5
23F
100
AcDbEntity
  8
0
100
AcDbLine
 62
7
  6
CONTINUOUS
 10
-17.8875601152
 20
41.5
 11
-33.9559871075
 21
41.5
  0
INSERT
  5
240
100
AcDbEntity
  8
0
100
AcDbBlockReference
 62
7
  6
CONTINUOUS
  2
_FILLED
 10
-50.0244140999
 20
41.5
 41
3.0
 42
3.0
 43
3.0
 50
180.0
  0
INSERT
  5
241
100
AcDbEntity
  8
0
100
AcDbBlockReference
 62
7
  6
CONTINUOUS
  2
_FILLED
 10
-17.8875601152
 20
41.5
 41
3.0
 42
3.0
 43
3.0
 50
360.0
  0
ENDBLK
  5
242
100
AcDbEntity
  8
0
  6
BYBLOCK
 62
0
100
AcDbBlockEnd
  0
ENDSEC
  0
SECTION
  2
ENTITIES
  0
DIMENSION
  5
243
100
AcDbEntity
  8
0
100
AcDbDimension
 62
7
  6
CONTINUOUS
  2
*D0
 10
-11.15
 20
31.5
 11
-4.2857142857
 21
33.75
 70
160
 71
2
 42
22.3
  3
DIMSTYLE_1
100
AcDbAlignedDimension
 13
11.15
 23
16.9632818592
 14
-11.15
 24
16.9632818592
 50
180.0
100
AcDbRotatedDimension
  0
DIMENSION
  5
244
100
AcDbEntity
  8
0
100
AcDbDimension
 62
7
  6
CONTINUOUS
  2
*D1
 10
19.15
 20
23.5
 11
17.9561735237
 21
-2.1072778499
 70
160
 71
2
 42
47.0
  3
DIMSTYLE_1
100
AcDbAlignedDimension
 13
4.4733373476
 23
-23.5
 14
3.5
 24
23.5
 50
90.0
100
AcDbRotatedDimension
  0
DIMENSION
  5
245
100
AcDbEntity
  8
0
100
AcDbDimension
 62
7
  6
CONTINUOUS
  2
*D2
 10
-40.1722533444
 20
31.5
 11
-33.3156210155
 21
33.75
 70
160
 71
2
 42
22.2846932293
  3
DIMSTYLE_2
100
AcDbAlignedDimension
 13
-17.8875601152
 23
14.2465639795
 14
-40.1722533444
 24
22.3997711479
 50
180.0
100
AcDbRotatedDimension
  0
DIMENSION
  5
246
100
AcDbEntity
  8
0
100
AcDbDimension
 62
7
  6
CONTINUOUS
  2
*D3
 10
-17.8875601152
 20
41.5
 11
-37.9202728218
 21
43.75
 70
160
 71
2
 42
32.1368539847
  3
DIMSTYLE_2
100
AcDbAlignedDimension
 13
-50.0244140999
 23
4.9884019009
 14
-17.8875601152
 24
14.2465639795
 50
360.0
100
AcDbRotatedDimension
  0
LINE
  5
247
100
AcDbEntity
  8
ASSI
100
AcDbLine
 62
7
  6
CONTINUOUS
 10
-3.0
 20
-23.5
 11
-2.7812783412
 21
-23.4781828305
  0
LINE
  5
248
100
AcDbEntity
  8
DRAFT
100
AcDbLine
 62
7
  6
CONTINUOUS
 10
-3.0
 20
-23.5
 11
-2.7812783412
 21
-23.4781828305
  0
LINE
  5
249
100
AcDbEntity
  8
ASSI
100
AcDbLine
 62
7
  6
CONTINUOUS
 10
3.9733373476
 20
-23.5
 11
3.0
 21
-23.5
  0
LINE
  5
24A
100
AcDbEntity
  8
DRAFT
100
AcDbLine
 62
7
  6
CONTINUOUS
 10
3.9733373476
 20
-23.5
 11
3.0
 21
-23.5
  0
LINE
  5
24B
100
AcDbEntity
  8
ASSI
100
AcDbLine
 62
7
  6
CONTINUOUS
 10
-3.0
 20
-23.5
 11
-3.9733373476
 21
-23.5
  0
LINE
  5
24C
100
AcDbEntity
  8
DRAFT
100
AcDbLine
 62
7
  6
CONTINUOUS
 10
-3.0
 20
-23.5
 11
-3.9733373476
 21
-23.5
  0
LINE
  5
24D
100
AcDbEntity
  8
DRAFT
100
AcDbLine
 62
7
  6
CONTINUOUS
 10
2.7812783412
 20
-23.4781828305
 11
-2.7812783412
 21
-23.4781828305
  0
LINE
  5
24E
100
AcDbEntity
  8
ASSI
100
AcDbLine
 62
7
  6
CONTINUOUS
 10
-2.7812783412
 20
-23.4781828305
 11
2.7812783412
 21
-23.4781828305
  0
LINE
  5
24F
100
AcDbEntity
  8
ASSI
100
AcDbLine
 62
7
  6
CONTINUOUS
 10
2.7812783412
 20
-22.5310194482
 11
-2.7812783412
 21
-22.5310194482
  0
LINE
  5
250
100
AcDbEntity
  8
DRAFT
100
AcDbLine
 62
7
  6
CONTINUOUS
 10
-2.7812783412
 20
-22.5310194482
 11
2.7812783412
 21
-22.5310194482
  0
LINE
  5
251
100
AcDbEntity
  8
DRAFT
100
AcDbLine
 62
7
  6
CONTINUOUS
 10
10.6503805997
 20
-22.4
 11
3.0
 21
-22.4
  0
LINE
  5
252
100
AcDbEntity
  8
DRAFT
100
AcDbLine
 62
7
  6
CONTINUOUS
 10
-3.0
 20
-22.4
 11
-10.6503805997
 21
-22.4
  0
LINE
  5
253
100
AcDbEntity
  8
ASSI
100
AcDbLine
 62
7
  6
CONTINUOUS
 10
-10.6503805997
 20
-22.4
 11
-3.0
 21
-22.4
  0
LINE
  5
254
100
AcDbEntity
  8
ASSI
100
AcDbLine
 62
7
  6
CONTINUOUS
 10
3.0
 20
-22.4
 11
10.6503805997
 21
-22.4
  0
LINE
  5
255
100
AcDbEntity
  8
ASSI
100
AcDbLine
 62
7
  6
CONTINUOUS
 10
3.0
 20
-23.5
 11
2.7812783412
 21
-23.4781828305
  0
LINE
  5
256
100
AcDbEntity
  8
DRAFT
100
AcDbLine
 62
7
  6
CONTINUOUS
 10
3.0
 20
-23.5
 11
2.7812783412
 21
-23.4781828305
  0
LINE
  5
257
100
AcDbEntity
  8
DRAFT
100
AcDbLine
 62
7
  6
CONTINUOUS
 10
-2.7812783412
 20
22.5310194482
 11
-3.0
 21
22.4
  0
LINE
  5
258
100
AcDbEntity
  8
ASSI
100
AcDbLine
 62
7
  6
CONTINUOUS
 10
-3.0
 20
22.4
 11
-2.7812783412
 21
22.5310194482
  0
LINE
  5
259
100
AcDbEntity
  8
ASSI
100
AcDbLine
 62
253
  6
CONTINUOUS
 10
10.5087981167
 20
-21.9749071372
 11
-10.5087981167
 21
-21.9749071372
  0
LINE
  5
25A
100
AcDbEntity
  8
0
100
AcDbLine
 62
253
  6
CONTINUOUS
 10
10.5087981167
 20
-21.9749071372
 11
-10.5087981167
 21
-21.9749071372
  0
LINE
  5
25B
100
AcDbEntity
  8
ASSI
100
AcDbLine
 62
253
  6
CONTINUOUS
 10
10.5005350625
 20
-21.0183142309
 11
-10.5005350625
 21
-21.0183142309
  0
LINE
  5
25C
100
AcDbEntity
  8
0
100
AcDbLine
 62
253
  6
CONTINUOUS
 10
10.5005350625
 20
-21.0183142309
 11
-10.5005350625
 21
-21.0183142309
  0
LINE
  5
25D
100
AcDbEntity
  8
ASSI
100
AcDbLine
 62
7
  6
CONTINUOUS
 10
-2.7812783412
 20
-22.5310194482
 11
-3.0
 21
-22.4
  0
LINE
  5
25E
100
AcDbEntity
  8
DRAFT
100
AcDbLine
 62
7
  6
CONTINUOUS
 10
-3.0
 20
-22.4
 11
-2.7812783412
 21
-22.5310194482
  0
LINE
  5
25F
100
AcDbEntity
  8
CURVE
100
AcDbLine
 62
253
  6
CONTINUOUS
 10
11.0749501324
 20
-15.82
 11
11.0976348052
 21
-15.82
  0
LINE
  5
260
100
AcDbEntity
  8
CURVE
100
AcDbLine
 62
253
  6
CONTINUOUS
 10
11.0976348052
 20
-14.574264
 11
11.0749501324
 21
-14.574264
  0
LINE
  5
261
100
AcDbEntity
  8
CURVE
100
AcDbLine
 62
253
  6
CONTINUOUS
 10
11.0225891314
 20
-14.363717
 11
11.0539980154
 21
-14.363717
  0
LINE
  5
262
100
AcDbEntity
  8
CURVE
100
AcDbLine
 62
253
  6
CONTINUOUS
 10
11.0539980154
 20
-13.988017
 11
11.0225891314
 21
-13.988017
  0
LINE
  5
263
100
AcDbEntity
  8
CURVE
100
AcDbLine
 62
253
  6
CONTINUOUS
 10
11.0749501324
 20
-13.089593
 11
11.0976348052
 21
-13.089593
  0
LINE
  5
264
100
AcDbEntity
  8
ASSI
100
AcDbLine
 62
7
  6
CONTINUOUS
 10
-11.15
 20
21.8997711479
 11
-11.15
 21
-21.8997711479
  0
LINE
  5
265
100
AcDbEntity
  8
RACCORDO
100
AcDbLine
 62
7
  6
CONTINUOUS
 10
-11.15
 20
21.8997711479
 11
-11.15
 21
-21.8997711479
  0
LINE
  5
266
100
AcDbEntity
  8
CURVE
100
AcDbLine
 62
253
  6
CONTINUOUS
 10
11.0749501324
 20
-11.773245
 11
11.0976348052
 21
-11.773245
  0
LINE
  5
267
100
AcDbEntity
  8
CURVE
100
AcDbLine
 62
253
  6
CONTINUOUS
 10
11.022957967
 20
-10.3108500485
 11
11.0539980255
 21
-10.3108500485
  0
LINE
  5
268
100
AcDbEntity
  8
CURVE
100
AcDbLine
 62
253
  6
CONTINUOUS
 10
11.0749501324
 20
-9.965272
 11
11.0976348052
 21
-9.965272
  0
LINE
  5
269
100
AcDbEntity
  8
CURVE
100
AcDbLine
 62
253
  6
CONTINUOUS
 10
11.0365633549
 20
-9.9491192989
 11
11.027941522
 21
-9.9491192989
  0
LINE
  5
26A
100
AcDbEntity
  8
CURVE
100
AcDbLine
 62
253
  6
CONTINUOUS
 10
11.0539980255
 20
-9.9366616487
 11
11.041707062
 21
-9.9366616487
  0
LINE
  5
26B
100
AcDbEntity
  8
CURVE
100
AcDbLine
 62
253
  6
CONTINUOUS
 10
11.0749501324
 20
-9.576944
 11
11.0976348052
 21
-9.576944
  0
LINE
  5
26C
100
AcDbEntity
  8
CURVE
100
AcDbLine
 62
253
  6
CONTINUOUS
 10
11.0393375182
 20
-9.3449435115
 11
11.0391519302
 21
-9.3449435115
  0
LINE
  5
26D
100
AcDbEntity
  8
CURVE
100
AcDbLine
 62
253
  6
CONTINUOUS
 10
11.0749501324
 20
-8.544819
 11
11.0976348052
 21
-8.544819
  0
LINE
  5
26E
100
AcDbEntity
  8
CURVE
100
AcDbLine
 62
253
  6
CONTINUOUS
 10
11.0749501324
 20
-7.651288
 11
11.0976348052
 21
-7.651288
  0
LINE
  5
26F
100
AcDbEntity
  8
CURVE
100
AcDbLine
 62
253
  6
CONTINUOUS
 10
11.0976348052
 20
-6.847348
 11
11.0749501324
 21
-6.847348
  0
LINE
  5
270
100
AcDbEntity
  8
ASSI
100
AcDbLine
 62
253
  6
CONTINUOUS
 10
-11.15
 20
-21.8997711479
 11
-11.0087219643
 21
-21.4755923698
  0
LINE
  5
271
100
AcDbEntity
  8
0
100
AcDbLine
 62
253
  6
CONTINUOUS
 10
-11.0087219643
 20
-21.4755923698
 11
-11.15
 21
-21.8997711479
  0
LINE
  5
272
100
AcDbEntity
  8
CURVE
100
AcDbLine
 62
253
  6
CONTINUOUS
 10
11.0749501324
 20
-4.861082
 11
11.0976348052
 21
-4.861082
  0
LINE
  5
273
100
AcDbEntity
  8
CURVE
100
AcDbLine
 62
253
  6
CONTINUOUS
 10
11.0976348052
 20
-3.476396
 11
11.0888569711
 21
-3.476396
  0
LINE
  5
274
100
AcDbEntity
  8
0
100
AcDbLine
 62
253
  6
CONTINUOUS
 10
-11.15
 20
21.8997711479
 11
-11.0087219643
 21
21.4755923698
  0
LINE
  5
275
100
AcDbEntity
  8
ASSI
100
AcDbLine
 62
253
  6
CONTINUOUS
 10
-11.0087219643
 20
21.4755923698
 11
-11.15
 21
21.8997711479
  0
LINE
  5
276
100
AcDbEntity
  8
0
100
AcDbLine
 62
7
  6
CONTINUOUS
 10
-1.5
 20
-2.4996245727
 11
-1.4294895349
 21
-3.8450443944
  0
LINE
  5
277
100
AcDbEntity
  8
DRAFT
100
AcDbLine
 62
7
  6
CONTINUOUS
 10
-3.0
 20
23.5
 11
-3.0
 21
22.4
  0
LINE
  5
278
100
AcDbEntity
  8
ASSI
100
AcDbLine
 62
7
  6
CONTINUOUS
 10
-3.0
 20
-23.5
 11
-3.0
 21
-22.4
  0
LINE
  5
279
100
AcDbEntity
  8
DRAFT
100
AcDbLine
 62
7
  6
CONTINUOUS
 10
-3.0
 20
-22.4
 11
-3.0
 21
-23.5
  0
LINE
  5
27A
100
AcDbEntity
  8
ASSI
100
AcDbLine
 62
7
  6
CONTINUOUS
 10
-3.0
 20
22.4
 11
-3.0
 21
23.5
  0
LINE
  5
27B
100
AcDbEntity
  8
DRAFT
100
AcDbLine
 62
7
  6
CONTINUOUS
 10
-2.7812783412
 20
23.4781828305
 11
-2.7812783412
 21
22.5310194482
  0
LINE
  5
27C
100
AcDbEntity
  8
ASSI
100
AcDbLine
 62
7
  6
CONTINUOUS
 10
-2.7812783412
 20
-23.4781828305
 11
-2.7812783412
 21
-22.5310194482
  0
LINE
  5
27D
100
AcDbEntity
  8
DRAFT
100
AcDbLine
 62
7
  6
CONTINUOUS
 10
-2.7812783412
 20
-22.5310194482
 11
-2.7812783412
 21
-23.4781828305
  0
LINE
  5
27E
100
AcDbEntity
  8
ASSI
100
AcDbLine
 62
7
  6
CONTINUOUS
 10
-2.7812783412
 20
22.5310194482
 11
-2.7812783412
 21
23.4781828305
  0
LINE
  5
27F
100
AcDbEntity
  8
0
100
AcDbLine
 62
7
  6
CONTINUOUS
 10
-1.429399635
 20
3.8475106416
 11
-1.5
 21
2.5003754273
  0
LINE
  5
280
100
AcDbEntity
  8
ASSI
100
AcDbLine
 62
253
  6
CONTINUOUS
 10
-10.6503805997
 20
-22.4
 11
-10.5087981167
 21
-21.9749071372
  0
LINE
  5
281
100
AcDbEntity
  8
0
100
AcDbLine
 62
253
  6
CONTINUOUS
 10
-10.5087981167
 20
-21.9749071372
 11
-10.6503805997
 21
-22.4
  0
LINE
  5
282
100
AcDbEntity
  8
CURVE
100
AcDbLine
 62
7
  6
CONTINUOUS
 10
11.0225876003
 20
15.3169622903
 11
11.0261068609
 21
15.3204815509
  0
LINE
  5
283
100
AcDbEntity
  8
CURVE
100
AcDbLine
 62
7
  6
CONTINUOUS
 10
11.0360929746
 20
15.3304676646
 11
11.0396122352
 21
15.3339869252
  0
LINE
  5
284
100
AcDbEntity
  8
CURVE
100
AcDbLine
 62
7
  6
CONTINUOUS
 10
11.0504778823
 20
15.3448525723
 11
11.0539971429
 21
15.3483718329
  0
LINE
  5
285
100
AcDbEntity
  8
CURVE
100
AcDbLine
 62
7
  6
CONTINUOUS
 10
11.0225876003
 20
15.0680607033
 11
11.0261068609
 21
15.0715799639
  0
LINE
  5
286
100
AcDbEntity
  8
CURVE
100
AcDbLine
 62
7
  6
CONTINUOUS
 10
11.0360929746
 20
15.0815660776
 11
11.0396122352
 21
15.0850853382
  0
LINE
  5
287
100
AcDbEntity
  8
CURVE
100
AcDbLine
 62
7
  6
CONTINUOUS
 10
11.0504778823
 20
15.0959509853
 11
11.0539971429
 21
15.0994702459
  0
LINE
  5
288
100
AcDbEntity
  8
CURVE
100
AcDbLine
 62
7
  6
CONTINUOUS
 10
11.0225876003
 20
14.8191591163
 11
11.0261068609
 21
14.8226783769
  0
LINE
  5
289
100
AcDbEntity
  8
CURVE
100
AcDbLine
 62
7
  6
CONTINUOUS
 10
11.0360929746
 20
14.8326644906
 11
11.0396122352
 21
14.8361837512
  0
LINE
  5
28A
100
AcDbEntity
  8
CURVE
100
AcDbLine
 62
7
  6
CONTINUOUS
 10
11.0504778823
 20
14.8470493983
 11
11.0539971429
 21
14.8505686589
  0
LINE
  5
28B
100
AcDbEntity
  8
CURVE
100
AcDbLine
 62
7
  6
CONTINUOUS
 10
11.0225876003
 20
14.5702575294
 11
11.0261068609
 21
14.57377679
  0
LINE
  5
28C
100
AcDbEntity
  8
CURVE
100
AcDbLine
 62
7
  6
CONTINUOUS
 10
11.0360929746
 20
14.5837629037
 11
11.0396122352
 21
14.5872821642
  0
LINE
  5
28D
100
AcDbEntity
  8
CURVE
100
AcDbLine
 62
7
  6
CONTINUOUS
 10
11.0504778823
 20
14.5981478114
 11
11.0539971429
 21
14.6016670719
  0
LINE
  5
28E
100
AcDbEntity
  8
CURVE
100
AcDbLine
 62
7
  6
CONTINUOUS
 10
11.0225876003
 20
14.3213559424
 11
11.0539971429
 21
14.352765485
  0
LINE
  5
28F
100
AcDbEntity
  8
CURVE
100
AcDbLine
 62
7
  6
CONTINUOUS
 10
11.0225876003
 20
13.8235527684
 11
11.0279654827
 21
13.8289306509
  0
LINE
  5
290
100
AcDbEntity
  8
CURVE
100
AcDbLine
 62
7
  6
CONTINUOUS
 10
11.0282832926
 20
13.5803468737
 11
11.0396032483
 21
13.5916668295
  0
LINE
  5
291
100
AcDbEntity
  8
CURVE
100
AcDbLine
 62
7
  6
CONTINUOUS
 10
11.0406846417
 20
13.3438466359
 11
11.051241014
 21
13.3544030081
  0
LINE
  5
292
100
AcDbEntity
  8
0
100
AcDbLine
 62
7
  6
CONTINUOUS
 10
2.5
 20
-1.4996245879
 11
3.8467623429
 21
-1.4290437643
  0
LINE
  5
293
100
AcDbEntity
  8
0
100
AcDbLine
 62
7
  6
CONTINUOUS
 10
-2.5
 20
-1.4996245727
 11
-3.8453582109
 21
-1.4291173366
  0
LINE
  5
294
100
AcDbEntity
  8
0
100
AcDbLine
 62
253
  6
CONTINUOUS
 10
-10.6503805997
 20
22.4
 11
-10.5087981167
 21
21.9749071372
  0
LINE
  5
295
100
AcDbEntity
  8
ASSI
100
AcDbLine
 62
253
  6
CONTINUOUS
 10
-10.5087981167
 20
21.9749071372
 11
-10.6503805997
 21
22.4
  0
LINE
  5
296
100
AcDbEntity
  8
0
100
AcDbLine
 62
7
  6
CONTINUOUS
 10
0.0
 20
-4.1028546564
 11
0.0
 21
-1.1796247354
  0
LINE
  5
297
100
AcDbEntity
  8
0
100
AcDbLine
 62
7
  6
CONTINUOUS
 10
0.0
 20
1.1803755596
 11
0.0
 21
4.1036055109
  0
LINE
  5
298
100
AcDbEntity
  8
CURVE
100
AcDbLine
 62
7
  6
CONTINUOUS
 10
11.0464337836
 20
13.1006941908
 11
11.0539971429
 21
13.1082575501
  0
LINE
  5
299
100
AcDbEntity
  8
CURVE
100
AcDbLine
 62
7
  6
CONTINUOUS
 10
11.032518808
 20
12.8378776282
 11
11.0453316512
 21
12.8506904714
  0
LINE
  5
29A
100
AcDbEntity
  8
CURVE
100
AcDbLine
 62
7
  6
CONTINUOUS
 10
11.0225876003
 20
12.5790448335
 11
11.0323854968
 21
12.58884273
  0
LINE
  5
29B
100
AcDbEntity
  8
CURVE
100
AcDbLine
 62
7
  6
CONTINUOUS
 10
11.0225876003
 20
12.0812416596
 11
11.0261068609
 21
12.0847609202
  0
LINE
  5
29C
100
AcDbEntity
  8
CURVE
100
AcDbLine
 62
7
  6
CONTINUOUS
 10
11.0360929746
 20
12.0947470339
 11
11.0396122352
 21
12.0982662945
  0
LINE
  5
29D
100
AcDbEntity
  8
CURVE
100
AcDbLine
 62
7
  6
CONTINUOUS
 10
11.0504778823
 20
12.1091319416
 11
11.0539971429
 21
12.1126512022
  0
LINE
  5
29E
100
AcDbEntity
  8
CURVE
100
AcDbLine
 62
7
  6
CONTINUOUS
 10
11.0225876003
 20
11.8323400726
 11
11.0261068609
 21
11.8358593332
  0
LINE
  5
29F
100
AcDbEntity
  8
CURVE
100
AcDbLine
 62
7
  6
CONTINUOUS
 10
11.0360929746
 20
11.8458454469
 11
11.0396122352
 21
11.8493647075
  0
LINE
  5
2A0
100
AcDbEntity
  8
CURVE
100
AcDbLine
 62
7
  6
CONTINUOUS
 10
11.0504778823
 20
11.8602303546
 11
11.0539971429
 21
11.8637496152
  0
LINE
  5
2A1
100
AcDbEntity
  8
CURVE
100
AcDbLine
 62
7
  6
CONTINUOUS
 10
11.0225876003
 20
11.5834384856
 11
11.0261068609
 21
11.5869577462
  0
LINE
  5
2A2
100
AcDbEntity
  8
CURVE
100
AcDbLine
 62
7
  6
CONTINUOUS
 10
11.0360929746
 20
11.5969438599
 11
11.0396122352
 21
11.6004631205
  0
LINE
  5
2A3
100
AcDbEntity
  8
CURVE
100
AcDbLine
 62
7
  6
CONTINUOUS
 10
11.0504778823
 20
11.6113287676
 11
11.0539971429
 21
11.6148480282
  0
LINE
  5
2A4
100
AcDbEntity
  8
CURVE
100
AcDbLine
 62
7
  6
CONTINUOUS
 10
11.0225876003
 20
11.3345368987
 11
11.0261068609
 21
11.3380561592
  0
LINE
  5
2A5
100
AcDbEntity
  8
CURVE
100
AcDbLine
 62
7
  6
CONTINUOUS
 10
11.0360929746
 20
11.3480422729
 11
11.0396122352
 21
11.3515615335
  0
LINE
  5
2A6
100
AcDbEntity
  8
CURVE
100
AcDbLine
 62
7
  6
CONTINUOUS
 10
11.0504778823
 20
11.3624271806
 11
11.0539971429
 21
11.3659464412
  0
LINE
  5
2A7
100
AcDbEntity
  8
CURVE
100
AcDbLine
 62
7
  6
CONTINUOUS
 10
11.0225876003
 20
11.0856353117
 11
11.0539971429
 21
11.1170448543
  0
LINE
  5
2A8
100
AcDbEntity
  8
CURVE
100
AcDbLine
 62
253
  6
CONTINUOUS
 10
11.019903016
 20
-0.0
 11
11.0706362049
 21
-0.0
  0
LINE
  5
2A9
100
AcDbEntity
  8
0
100
AcDbLine
 62
7
  6
CONTINUOUS
 10
1.5
 20
2.5003754121
 11
1.4294895341
 21
3.8457952492
  0
LINE
  5
2AA
100
AcDbEntity
  8
0
100
AcDbLine
 62
7
  6
CONTINUOUS
 10
1.4293996358
 20
-3.8467597868
 11
1.5
 21
-2.4996245879
  0
LINE
  5
2AB
100
AcDbEntity
  8
CURVE
100
AcDbLine
 62
7
  6
CONTINUOUS
 10
11.0225876003
 20
10.3389305507
 11
11.0539971429
 21
10.3703400933
  0
LINE
  5
2AC
100
AcDbEntity
  8
CURVE
100
AcDbLine
 62
7
  6
CONTINUOUS
 10
11.0456553245
 20
10.113096688
 11
11.0525967663
 21
10.1200381297
  0
LINE
  5
2AD
100
AcDbEntity
  8
CURVE
100
AcDbLine
 62
7
  6
CONTINUOUS
 10
11.0387824766
 20
9.8573222531
 11
11.0457408933
 21
9.8642806698
  0
LINE
  5
2AE
100
AcDbEntity
  8
CURVE
100
AcDbLine
 62
7
  6
CONTINUOUS
 10
11.0319096287
 20
9.6015478182
 11
11.0388850203
 21
9.6085232098
  0
LINE
  5
2AF
100
AcDbEntity
  8
CURVE
100
AcDbLine
 62
7
  6
CONTINUOUS
 10
11.0250367808
 20
9.3457733833
 11
11.0320291474
 21
9.3527657499
  0
LINE
  5
2B0
100
AcDbEntity
  8
CURVE
100
AcDbLine
 62
7
  6
CONTINUOUS
 10
11.0225876003
 20
9.0944226159
 11
11.0539971429
 21
9.1258321584
  0
LINE
  5
2B1
100
AcDbEntity
  8
0
100
AcDbLine
 62
7
  6
CONTINUOUS
 10
-3.8467623492
 20
1.4297946033
 11
-2.5
 21
1.5003754273
  0
LINE
  5
2B2
100
AcDbEntity
  8
0
100
AcDbLine
 62
7
  6
CONTINUOUS
 10
3.8453582167
 20
1.4298681756
 11
2.5
 21
1.5003754121
  0
LINE
  5
2B3
100
AcDbEntity
  8
DRAFT
100
AcDbLine
 62
7
  6
CONTINUOUS
 10
2.7812783412
 20
23.4781828305
 11
2.7812783412
 21
22.5310194482
  0
LINE
  5
2B4
100
AcDbEntity
  8
ASSI
100
AcDbLine
 62
7
  6
CONTINUOUS
 10
2.7812783412
 20
-23.4781828305
 11
2.7812783412
 21
-22.5310194482
  0
LINE
  5
2B5
100
AcDbEntity
  8
DRAFT
100
AcDbLine
 62
7
  6
CONTINUOUS
 10
2.7812783412
 20
-22.5310194482
 11
2.7812783412
 21
-23.4781828305
  0
LINE
  5
2B6
100
AcDbEntity
  8
ASSI
100
AcDbLine
 62
7
  6
CONTINUOUS
 10
2.7812783412
 20
22.5310194482
 11
2.7812783412
 21
23.4781828305
  0
LINE
  5
2B7
100
AcDbEntity
  8
DRAFT
100
AcDbLine
 62
7
  6
CONTINUOUS
 10
3.0
 20
23.5
 11
3.0
 21
22.4
  0
LINE
  5
2B8
100
AcDbEntity
  8
ASSI
100
AcDbLine
 62
7
  6
CONTINUOUS
 10
3.0
 20
-23.5
 11
3.0
 21
-22.4
  0
LINE
  5
2B9
100
AcDbEntity
  8
DRAFT
100
AcDbLine
 62
7
  6
CONTINUOUS
 10
3.0
 20
-22.4
 11
3.0
 21
-23.5
  0
LINE
  5
2BA
100
AcDbEntity
  8
ASSI
100
AcDbLine
 62
7
  6
CONTINUOUS
 10
3.0
 20
22.4
 11
3.0
 21
23.5
  0
LINE
  5
2BB
100
AcDbEntity
  8
0
100
AcDbLine
 62
253
  6
CONTINUOUS
 10
10.6503805997
 20
22.4
 11
10.5087981167
 21
21.9749071372
  0
LINE
  5
2BC
100
AcDbEntity
  8
ASSI
100
AcDbLine
 62
253
  6
CONTINUOUS
 10
10.5087981167
 20
21.9749071372
 11
10.6503805997
 21
22.4
  0
LINE
  5
2BD
100
AcDbEntity
  8
0
100
AcDbLine
 62
253
  6
CONTINUOUS
 10
11.15
 20
21.8997711479
 11
11.0087219643
 21
21.4755923698
  0
LINE
  5
2BE
100
AcDbEntity
  8
ASSI
100
AcDbLine
 62
253
  6
CONTINUOUS
 10
11.0087219643
 20
21.4755923698
 11
11.15
 21
21.8997711479
  0
LINE
  5
2BF
100
AcDbEntity
  8
ASSI
100
AcDbLine
 62
253
  6
CONTINUOUS
 10
10.6503805997
 20
-22.4
 11
10.5087981167
 21
-21.9749071372
  0
LINE
  5
2C0
100
AcDbEntity
  8
0
100
AcDbLine
 62
253
  6
CONTINUOUS
 10
10.5087981167
 20
-21.9749071372
 11
10.6503805997
 21
-22.4
  0
LINE
  5
2C1
100
AcDbEntity
  8
ASSI
100
AcDbLine
 62
253
  6
CONTINUOUS
 10
11.15
 20
-21.8997711479
 11
11.0087219643
 21
-21.4755923698
  0
LINE
  5
2C2
100
AcDbEntity
  8
0
100
AcDbLine
 62
253
  6
CONTINUOUS
 10
11.0087219643
 20
-21.4755923698
 11
11.15
 21
-21.8997711479
  0
LINE
  5
2C3
100
AcDbEntity
  8
CURVE
100
AcDbLine
 62
253
  6
CONTINUOUS
 10
11.0334898496
 20
-13.345267
 11
11.0539980154
 21
-13.426343
  0
LINE
  5
2C4
100
AcDbEntity
  8
CURVE
100
AcDbLine
 62
253
  6
CONTINUOUS
 10
11.0539980154
 20
-13.785766
 11
11.022591016
 21
-13.623249
  0
LINE
  5
2C5
100
AcDbEntity
  8
CURVE
100
AcDbLine
 62
253
  6
CONTINUOUS
 10
11.0312208589
 20
-11.162195
 11
11.0428764008
 21
-11.349263
  0
LINE
  5
2C6
100
AcDbEntity
  8
CURVE
100
AcDbLine
 62
253
  6
CONTINUOUS
 10
11.044209422
 20
-15.232149
 11
11.022591016
 21
-14.878584
  0
LINE
  5
2C7
100
AcDbEntity
  8
CURVE
100
AcDbLine
 62
253
  6
CONTINUOUS
 10
11.0477280591
 20
-11.426114
 11
11.0539980154
 21
-11.529784
  0
LINE
  5
2C8
100
AcDbEntity
  8
CURVE
100
AcDbLine
 62
253
  6
CONTINUOUS
 10
11.0539980154
 20
-11.901408
 11
11.022591016
 21
-11.336859
  0
LINE
  5
2C9
100
AcDbEntity
  8
CURVE
100
AcDbLine
 62
253
  6
CONTINUOUS
 10
11.022591016
 20
-14.50314
 11
11.0539980154
 21
-15.081685
  0
LINE
  5
2CA
100
AcDbEntity
  8
CURVE
100
AcDbLine
 62
253
  6
CONTINUOUS
 10
11.0400282878
 20
-12.876128
 11
11.022591016
 21
-12.500428
  0
LINE
  5
2CB
100
AcDbEntity
  8
CURVE
100
AcDbLine
 62
253
  6
CONTINUOUS
 10
11.033575336
 20
-12.405126
 11
11.0539980154
 21
-12.851833
  0
LINE
  5
2CC
100
AcDbEntity
  8
CURVE
100
AcDbLine
 62
253
  6
CONTINUOUS
 10
11.0749501324
 20
-13.83011
 11
11.0976348052
 21
-14.400443
  0
LINE
  5
2CD
100
AcDbEntity
  8
CURVE
100
AcDbLine
 62
253
  6
CONTINUOUS
 10
11.0749501324
 20
-14.574264
 11
11.0976348052
 21
-15.197131
  0
LINE
  5
2CE
100
AcDbEntity
  8
CURVE
100
AcDbLine
 62
253
  6
CONTINUOUS
 10
11.0751920102
 20
16.2857143879
 11
11.0789318114
 21
16.3928568363
  0
LINE
  5
2CF
100
AcDbEntity
  8
CURVE
100
AcDbLine
 62
253
  6
CONTINUOUS
 10
11.0938910171
 20
15.75
 11
11.0901512156
 21
15.6428568363
  0
LINE
  5
2D0
100
AcDbEntity
  8
CURVE
100
AcDbLine
 62
253
  6
CONTINUOUS
 10
11.093267717
 20
15.1071431637
 11
11.0945143175
 21
15.1428573132
  0
LINE
  5
2D1
100
AcDbEntity
  8
CURVE
100
AcDbLine
 62
253
  6
CONTINUOUS
 10
11.0963842182
 20
15.0357141495
 11
11.0951376177
 21
15.0
  0
LINE
  5
2D2
100
AcDbEntity
  8
CURVE
100
AcDbLine
 62
253
  6
CONTINUOUS
 10
11.0751920102
 20
14.25
 11
11.0789318114
 21
14.3571428061
  0
LINE
  5
2D3
100
AcDbEntity
  8
CURVE
100
AcDbLine
 62
253
  6
CONTINUOUS
 10
11.0938910171
 20
13.7142856121
 11
11.0901512156
 21
13.6071428061
  0
LINE
  5
2D4
100
AcDbEntity
  8
CURVE
100
AcDbLine
 62
253
  6
CONTINUOUS
 10
11.0751920102
 20
13.0714284182
 11
11.0789318114
 21
13.1785715818
  0
LINE
  5
2D5
100
AcDbEntity
  8
CURVE
100
AcDbLine
 62
253
  6
CONTINUOUS
 10
11.0539971429
 20
13.0259579198
 11
11.0225876003
 21
12.3906713657
  0
LINE
  5
2D6
100
AcDbEntity
  8
CURVE
100
AcDbLine
 62
253
  6
CONTINUOUS
 10
11.0225876003
 20
12.6503037553
 11
11.0498180336
 21
13.1646135967
  0
LINE
  5
2D7
100
AcDbEntity
  8
CURVE
100
AcDbLine
 62
253
  6
CONTINUOUS
 10
11.0539971429
 20
9.0
 11
11.0225876003
 21
9.0
  0
LINE
  5
2D8
100
AcDbEntity
  8
CURVE
100
AcDbLine
 62
253
  6
CONTINUOUS
 10
11.0901512156
 20
9.0
 11
11.0789318114
 21
9.0
  0
LINE
  5
2D9
100
AcDbEntity
  8
CURVE
100
AcDbLine
 62
253
  6
CONTINUOUS
 10
11.0287904105
 20
9.2268895676
 11
11.0539971429
 21
9.2268895676
  0
LINE
  5
2DA
100
AcDbEntity
  8
CURVE
100
AcDbLine
 62
253
  6
CONTINUOUS
 10
11.0789318114
 20
9.75
 11
11.0901512156
 21
9.75
  0
LINE
  5
2DB
100
AcDbEntity
  8
CURVE
100
AcDbLine
 62
253
  6
CONTINUOUS
 10
11.0751920102
 20
10.178571403
 11
11.0826716125
 21
10.178571403
  0
LINE
  5
2DC
100
AcDbEntity
  8
CURVE
100
AcDbLine
 62
253
  6
CONTINUOUS
 10
11.0480583941
 20
10.2075659919
 11
11.0225876003
 21
10.2075659919
  0
LINE
  5
2DD
100
AcDbEntity
  8
CURVE
100
AcDbLine
 62
253
  6
CONTINUOUS
 10
11.0225876003
 20
10.4344714406
 11
11.0539971429
 21
10.4344714406
  0
LINE
  5
2DE
100
AcDbEntity
  8
CURVE
100
AcDbLine
 62
253
  6
CONTINUOUS
 10
11.0901512156
 20
10.821428597
 11
11.0826716125
 21
10.928571403
  0
LINE
  5
2DF
100
AcDbEntity
  8
CURVE
100
AcDbLine
 62
253
  6
CONTINUOUS
 10
11.0498180336
 20
13.1696680567
 11
11.0225876003
 21
13.6889667159
  0
LINE
  5
2E0
100
AcDbEntity
  8
CURVE
100
AcDbLine
 62
253
  6
CONTINUOUS
 10
11.0225876003
 20
13.9385717089
 11
11.0539971429
 21
13.2982126959
  0
LINE
  5
2E1
100
AcDbEntity
  8
CURVE
100
AcDbLine
 62
253
  6
CONTINUOUS
 10
11.0749501324
 20
-5.680387
 11
11.0976348052
 21
-6.250721
  0
LINE
  5
2E2
100
AcDbEntity
  8
CURVE
100
AcDbLine
 62
253
  6
CONTINUOUS
 10
11.0789318114
 20
9.0
 11
11.0751920102
 21
9.1071428619
  0
LINE
  5
2E3
100
AcDbEntity
  8
CURVE
100
AcDbLine
 62
253
  6
CONTINUOUS
 10
11.0901512156
 20
9.75
 11
11.0938910171
 21
9.6428571492
  0
LINE
  5
2E4
100
AcDbEntity
  8
CURVE
100
AcDbLine
 62
253
  6
CONTINUOUS
 10
11.0789318114
 20
12.4285715818
 11
11.0751920102
 21
12.5357143879
  0
LINE
  5
2E5
100
AcDbEntity
  8
CURVE
100
AcDbLine
 62
253
  6
CONTINUOUS
 10
11.0901512156
 20
13.1785715818
 11
11.0938910171
 21
13.0714284182
  0
LINE
  5
2E6
100
AcDbEntity
  8
CURVE
100
AcDbLine
 62
253
  6
CONTINUOUS
 10
11.0789318114
 20
13.6071428061
 11
11.0751920102
 21
13.7142856121
  0
LINE
  5
2E7
100
AcDbEntity
  8
CURVE
100
AcDbLine
 62
253
  6
CONTINUOUS
 10
11.0901512156
 20
14.3571428061
 11
11.0938910171
 21
14.25
  0
LINE
  5
2E8
100
AcDbEntity
  8
CURVE
100
AcDbLine
 62
253
  6
CONTINUOUS
 10
11.0945143175
 20
15.0
 11
11.093267717
 21
15.0357141495
  0
LINE
  5
2E9
100
AcDbEntity
  8
CURVE
100
AcDbLine
 62
253
  6
CONTINUOUS
 10
11.0951376177
 20
15.1428573132
 11
11.0963842182
 21
15.1071431637
  0
LINE
  5
2EA
100
AcDbEntity
  8
CURVE
100
AcDbLine
 62
253
  6
CONTINUOUS
 10
11.0789318114
 20
15.6428568363
 11
11.0751920102
 21
15.75
  0
LINE
  5
2EB
100
AcDbEntity
  8
CURVE
100
AcDbLine
 62
253
  6
CONTINUOUS
 10
11.0901512156
 20
16.3928568363
 11
11.0938910171
 21
16.2857143879
  0
LINE
  5
2EC
100
AcDbEntity
  8
CURVE
100
AcDbLine
 62
253
  6
CONTINUOUS
 10
11.0888569711
 20
-3.476396
 11
11.0749501324
 21
-3.000657
  0
LINE
  5
2ED
100
AcDbEntity
  8
CURVE
100
AcDbLine
 62
253
  6
CONTINUOUS
 10
11.0751920102
 20
9.1071428619
 11
11.071452209
 21
9.3214285746
  0
LINE
  5
2EE
100
AcDbEntity
  8
CURVE
100
AcDbLine
 62
253
  6
CONTINUOUS
 10
11.071452209
 20
10.3928571045
 11
11.0751920102
 21
10.178571403
  0
LINE
  5
2EF
100
AcDbEntity
  8
CURVE
100
AcDbLine
 62
253
  6
CONTINUOUS
 10
11.0938910171
 20
9.6428571492
 11
11.0976308187
 21
9.4285714477
  0
LINE
  5
2F0
100
AcDbEntity
  8
CURVE
100
AcDbLine
 62
253
  6
CONTINUOUS
 10
11.0976308187
 20
10.3928571045
 11
11.0901512156
 21
10.821428597
  0
LINE
  5
2F1
100
AcDbEntity
  8
CURVE
100
AcDbLine
 62
253
  6
CONTINUOUS
 10
11.0751920102
 20
12.5357143879
 11
11.071452209
 21
12.75
  0
LINE
  5
2F2
100
AcDbEntity
  8
CURVE
100
AcDbLine
 62
253
  6
CONTINUOUS
 10
11.0976308187
 20
11.8928571939
 11
11.0957609179
 21
12.0
  0
LINE
  5
2F3
100
AcDbEntity
  8
CURVE
100
AcDbLine
 62
253
  6
CONTINUOUS
 10
11.0751920102
 20
13.7142856121
 11
11.071452209
 21
13.9285715818
  0
LINE
  5
2F4
100
AcDbEntity
  8
CURVE
100
AcDbLine
 62
253
  6
CONTINUOUS
 10
11.0938910171
 20
13.0714284182
 11
11.0976308187
 21
12.8571428061
  0
LINE
  5
2F5
100
AcDbEntity
  8
CURVE
100
AcDbLine
 62
253
  6
CONTINUOUS
 10
11.0938910171
 20
14.25
 11
11.0976308187
 21
14.0357143879
  0
LINE
  5
2F6
100
AcDbEntity
  8
CURVE
100
AcDbLine
 62
253
  6
CONTINUOUS
 10
11.0751920102
 20
15.75
 11
11.071452209
 21
15.9642856121
  0
LINE
  5
2F7
100
AcDbEntity
  8
CURVE
100
AcDbLine
 62
253
  6
CONTINUOUS
 10
11.0789318114
 20
16.8214287758
 11
11.071452209
 21
17.25
  0
LINE
  5
2F8
100
AcDbEntity
  8
CURVE
100
AcDbLine
 62
253
  6
CONTINUOUS
 10
11.0938910171
 20
16.2857143879
 11
11.0976308187
 21
16.0714287758
  0
LINE
  5
2F9
100
AcDbEntity
  8
CURVE
100
AcDbLine
 62
253
  6
CONTINUOUS
 10
11.0452696104
 20
-0.0
 11
11.0292439011
 21
1.183131
  0
LINE
  5
2FA
100
AcDbEntity
  8
CURVE
100
AcDbLine
 62
253
  6
CONTINUOUS
 10
11.0826716125
 20
11.7857142091
 11
11.0808017127
 21
11.9642856717
  0
LINE
  5
2FB
100
AcDbEntity
  8
CURVE
100
AcDbLine
 62
253
  6
CONTINUOUS
 10
11.019903016
 20
-0.220257
 11
11.019903016
 21
0.220257
  0
LINE
  5
2FC
100
AcDbEntity
  8
CURVE
100
AcDbLine
 62
253
  6
CONTINUOUS
 10
11.0225876003
 20
9.0
 11
11.0225876003
 21
9.2546266319
  0
LINE
  5
2FD
100
AcDbEntity
  8
CURVE
100
AcDbLine
 62
253
  6
CONTINUOUS
 10
11.0225876003
 20
10.2075659919
 11
11.0225876003
 21
10.4344714406
  0
LINE
  5
2FE
100
AcDbEntity
  8
CURVE
100
AcDbLine
 62
253
  6
CONTINUOUS
 10
11.0225876003
 20
10.9360943119
 11
11.0225876003
 21
12.1789472959
  0
LINE
  5
2FF
100
AcDbEntity
  8
CURVE
100
AcDbLine
 62
253
  6
CONTINUOUS
 10
11.0225876003
 20
12.3906713657
 11
11.0225876003
 21
12.6503037553
  0
LINE
  5
300
100
AcDbEntity
  8
CURVE
100
AcDbLine
 62
253
  6
CONTINUOUS
 10
11.0225876003
 20
13.6889667159
 11
11.0225876003
 21
13.9385717089
  0
LINE
  5
301
100
AcDbEntity
  8
CURVE
100
AcDbLine
 62
253
  6
CONTINUOUS
 10
11.0225876003
 20
14.2435851882
 11
11.0225876003
 21
15.4864222909
  0
LINE
  5
302
100
AcDbEntity
  8
CURVE
100
AcDbLine
 62
253
  6
CONTINUOUS
 10
11.0225891314
 20
-13.988017
 11
11.0225891314
 21
-14.363717
  0
LINE
  5
303
100
AcDbEntity
  8
CURVE
100
AcDbLine
 62
253
  6
CONTINUOUS
 10
11.022591016
 20
-15.98336
 11
11.022591016
 21
-15.575234
  0
LINE
  5
304
100
AcDbEntity
  8
CURVE
100
AcDbLine
 62
253
  6
CONTINUOUS
 10
11.022591016
 20
-14.878584
 11
11.022591016
 21
-14.50314
  0
LINE
  5
305
100
AcDbEntity
  8
CURVE
100
AcDbLine
 62
253
  6
CONTINUOUS
 10
11.022591016
 20
-13.623249
 11
11.022591016
 21
-13.24786
  0
LINE
  5
306
100
AcDbEntity
  8
CURVE
100
AcDbLine
 62
253
  6
CONTINUOUS
 10
11.022591016
 20
-12.500428
 11
11.022591016
 21
-12.128709
  0
LINE
  5
307
100
AcDbEntity
  8
CURVE
100
AcDbLine
 62
253
  6
CONTINUOUS
 10
11.022591016
 20
-11.336859
 11
11.022591016
 21
-10.973414
  0
LINE
  5
308
100
AcDbEntity
  8
CURVE
100
AcDbLine
 62
253
  6
CONTINUOUS
 10
11.0261068609
 20
15.4864222909
 11
11.0261068609
 21
14.4830802023
  0
LINE
  5
309
100
AcDbEntity
  8
CURVE
100
AcDbLine
 62
253
  6
CONTINUOUS
 10
11.0261068609
 20
12.1789472959
 11
11.0261068609
 21
11.1755882673
  0
LINE
  5
30A
100
AcDbEntity
  8
CURVE
100
AcDbLine
 62
253
  6
CONTINUOUS
 10
11.0287904105
 20
9.2319450864
 11
11.0287904105
 21
9.2268895676
  0
LINE
  5
30B
100
AcDbEntity
  8
CURVE
100
AcDbLine
 62
253
  6
CONTINUOUS
 10
11.0360929746
 20
11.1755882673
 11
11.0360929746
 21
12.1108836018
  0
LINE
  5
30C
100
AcDbEntity
  8
CURVE
100
AcDbLine
 62
253
  6
CONTINUOUS
 10
11.0360929746
 20
14.4830802023
 11
11.0360929746
 21
15.418408358
  0
LINE
  5
30D
100
AcDbEntity
  8
CURVE
100
AcDbLine
 62
253
  6
CONTINUOUS
 10
11.0365633549
 20
-9.7344104162
 11
11.0365633549
 21
-9.9491192989
  0
LINE
  5
30E
100
AcDbEntity
  8
CURVE
100
AcDbLine
 62
253
  6
CONTINUOUS
 10
11.0396122352
 20
15.418408358
 11
11.0396122352
 21
14.4830802023
  0
LINE
  5
30F
100
AcDbEntity
  8
CURVE
100
AcDbLine
 62
253
  6
CONTINUOUS
 10
11.0396122352
 20
12.1108836018
 11
11.0396122352
 21
11.1755882673
  0
LINE
  5
310
100
AcDbEntity
  8
CURVE
100
AcDbLine
 62
253
  6
CONTINUOUS
 10
11.041707062
 20
-9.9366616487
 11
11.041707062
 21
-9.7352202309
  0
LINE
  5
311
100
AcDbEntity
  8
CURVE
100
AcDbLine
 62
253
  6
CONTINUOUS
 10
11.0428764008
 20
-11.349263
 11
11.0428764008
 21
-10.989556
  0
LINE
  5
312
100
AcDbEntity
  8
CURVE
100
AcDbLine
 62
253
  6
CONTINUOUS
 10
11.0477280591
 20
-10.914473
 11
11.0477280591
 21
-11.426114
  0
LINE
  5
313
100
AcDbEntity
  8
CURVE
100
AcDbLine
 62
253
  6
CONTINUOUS
 10
11.0480583941
 20
10.202527413
 11
11.0480583941
 21
10.2075659919
  0
LINE
  5
314
100
AcDbEntity
  8
CURVE
100
AcDbLine
 62
253
  6
CONTINUOUS
 10
11.0498180336
 20
13.1646135967
 11
11.0498180336
 21
13.1696680567
  0
LINE
  5
315
100
AcDbEntity
  8
CURVE
100
AcDbLine
 62
253
  6
CONTINUOUS
 10
11.0504778823
 20
11.1755882673
 11
11.0504778823
 21
12.1865131048
  0
LINE
  5
316
100
AcDbEntity
  8
CURVE
100
AcDbLine
 62
253
  6
CONTINUOUS
 10
11.0504778823
 20
14.4830802023
 11
11.0504778823
 21
15.494037861
  0
LINE
  5
317
100
AcDbEntity
  8
CURVE
100
AcDbLine
 62
253
  6
CONTINUOUS
 10
11.0539971429
 20
15.494037861
 11
11.0539971429
 21
14.2435851882
  0
LINE
  5
318
100
AcDbEntity
  8
CURVE
100
AcDbLine
 62
253
  6
CONTINUOUS
 10
11.0539971429
 20
13.2982126959
 11
11.0539971429
 21
13.0259579198
  0
LINE
  5
319
100
AcDbEntity
  8
CURVE
100
AcDbLine
 62
253
  6
CONTINUOUS
 10
11.0539971429
 20
12.1865131048
 11
11.0539971429
 21
10.9360943119
  0
LINE
  5
31A
100
AcDbEntity
  8
CURVE
100
AcDbLine
 62
253
  6
CONTINUOUS
 10
11.0539971429
 20
10.4344714406
 11
11.0539971429
 21
10.1722789998
  0
LINE
  5
31B
100
AcDbEntity
  8
CURVE
100
AcDbLine
 62
253
  6
CONTINUOUS
 10
11.0539971429
 20
9.2268895676
 11
11.0539971429
 21
9.0
  0
LINE
  5
31C
100
AcDbEntity
  8
CURVE
100
AcDbLine
 62
253
  6
CONTINUOUS
 10
11.0539980154
 20
-14.363717
 11
11.0539980154
 21
-13.988017
  0
LINE
  5
31D
100
AcDbEntity
  8
CURVE
100
AcDbLine
 62
253
  6
CONTINUOUS
 10
11.0539980255
 20
-10.3108500485
 11
11.0539980255
 21
-9.9366616487
  0
LINE
  5
31E
100
AcDbEntity
  8
CURVE
100
AcDbLine
 62
253
  6
CONTINUOUS
 10
11.0539980255
 20
-9.3613287632
 11
11.0539980255
 21
-8.9999489333
  0
LINE
  5
31F
100
AcDbEntity
  8
CURVE
100
AcDbLine
 62
253
  6
CONTINUOUS
 10
11.0539980154
 20
-10.421174
 11
11.0539980154
 21
-10.817147
  0
LINE
  5
320
100
AcDbEntity
  8
CURVE
100
AcDbLine
 62
253
  6
CONTINUOUS
 10
11.0539980154
 20
-11.529784
 11
11.0539980154
 21
-11.901408
  0
LINE
  5
321
100
AcDbEntity
  8
CURVE
100
AcDbLine
 62
253
  6
CONTINUOUS
 10
11.0539980154
 20
-11.960403
 11
11.0539980154
 21
-12.327937
  0
LINE
  5
322
100
AcDbEntity
  8
CURVE
100
AcDbLine
 62
253
  6
CONTINUOUS
 10
11.0539980154
 20
-12.851833
 11
11.0539980154
 21
-12.904525
  0
LINE
  5
323
100
AcDbEntity
  8
CURVE
100
AcDbLine
 62
253
  6
CONTINUOUS
 10
11.0539980154
 20
-13.426343
 11
11.0539980154
 21
-13.785766
  0
LINE
  5
324
100
AcDbEntity
  8
CURVE
100
AcDbLine
 62
253
  6
CONTINUOUS
 10
11.0539980154
 20
-15.081685
 11
11.0539980154
 21
-15.412771
  0
LINE
  5
325
100
AcDbEntity
  8
CURVE
100
AcDbLine
 62
253
  6
CONTINUOUS
 10
11.0706362049
 20
-0.220257
 11
11.0706362049
 21
0.220257
  0
LINE
  5
326
100
AcDbEntity
  8
CURVE
100
AcDbLine
 62
253
  6
CONTINUOUS
 10
11.071452209
 20
11.7857142091
 11
11.071452209
 21
11.3571428061
  0
LINE
  5
327
100
AcDbEntity
  8
CURVE
100
AcDbLine
 62
253
  6
CONTINUOUS
 10
11.071452209
 20
10.7142857909
 11
11.071452209
 21
10.3928571045
  0
LINE
  5
328
100
AcDbEntity
  8
CURVE
100
AcDbLine
 62
253
  6
CONTINUOUS
 10
11.071452209
 20
9.3214285746
 11
11.071452209
 21
9.4285714477
  0
LINE
  5
329
100
AcDbEntity
  8
CURVE
100
AcDbLine
 62
253
  6
CONTINUOUS
 10
11.071452209
 20
12.75
 11
11.071452209
 21
12.8571428061
  0
LINE
  5
32A
100
AcDbEntity
  8
CURVE
100
AcDbLine
 62
253
  6
CONTINUOUS
 10
11.071452209
 20
13.9285715818
 11
11.071452209
 21
14.0357143879
  0
LINE
  5
32B
100
AcDbEntity
  8
CURVE
100
AcDbLine
 62
253
  6
CONTINUOUS
 10
11.071452209
 20
15.9642856121
 11
11.071452209
 21
16.0714287758
  0
LINE
  5
32C
100
AcDbEntity
  8
CURVE
100
AcDbLine
 62
253
  6
CONTINUOUS
 10
11.0749501324
 20
-7.375145
 11
11.0749501324
 21
-6.319553
  0
LINE
  5
32D
100
AcDbEntity
  8
CURVE
100
AcDbLine
 62
253
  6
CONTINUOUS
 10
11.0749501324
 20
-10.826258
 11
11.0749501324
 21
-11.773245
  0
LINE
  5
32E
100
AcDbEntity
  8
CURVE
100
AcDbLine
 62
253
  6
CONTINUOUS
 10
11.0749501324
 20
-12.659757
 11
11.0749501324
 21
-13.089593
  0
LINE
  5
32F
100
AcDbEntity
  8
CURVE
100
AcDbLine
 62
253
  6
CONTINUOUS
 10
11.0801679031
 20
0.475754
 11
11.0801679031
 21
-0.0
  0
LINE
  5
330
100
AcDbEntity
  8
CURVE
100
AcDbLine
 62
253
  6
CONTINUOUS
 10
11.0826716125
 20
11.7857142091
 11
11.0826716125
 21
11.571428597
  0
LINE
  5
331
100
AcDbEntity
  8
CURVE
100
AcDbLine
 62
253
  6
CONTINUOUS
 10
11.0862924688
 20
-11.773245
 11
11.0862924688
 21
-10.892654
  0
LINE
  5
332
100
AcDbEntity
  8
CURVE
100
AcDbLine
 62
253
  6
CONTINUOUS
 10
11.0864114144
 20
10.3928571045
 11
11.0864114144
 21
10.8571429253
  0
LINE
  5
333
100
AcDbEntity
  8
CURVE
100
AcDbLine
 62
253
  6
CONTINUOUS
 10
11.0894012985
 20
-6.043716
 11
11.0894012985
 21
-5.317059
  0
LINE
  5
334
100
AcDbEntity
  8
CURVE
100
AcDbLine
 62
253
  6
CONTINUOUS
 10
11.0895311421
 20
-14.196702
 11
11.0895311421
 21
-13.463517
  0
LINE
  5
335
100
AcDbEntity
  8
CURVE
100
AcDbLine
 62
253
  6
CONTINUOUS
 10
11.093267717
 20
15.0357141495
 11
11.093267717
 21
15.1071431637
  0
LINE
  5
336
100
AcDbEntity
  8
CURVE
100
AcDbLine
 62
253
  6
CONTINUOUS
 10
11.0963842182
 20
15.1071431637
 11
11.0963842182
 21
15.0357141495
  0
LINE
  5
337
100
AcDbEntity
  8
CURVE
100
AcDbLine
 62
253
  6
CONTINUOUS
 10
11.0976308187
 20
16.0714287758
 11
11.0976308187
 21
15.9642856121
  0
LINE
  5
338
100
AcDbEntity
  8
CURVE
100
AcDbLine
 62
253
  6
CONTINUOUS
 10
11.0976308187
 20
14.0357143879
 11
11.0976308187
 21
13.9285715818
  0
LINE
  5
339
100
AcDbEntity
  8
CURVE
100
AcDbLine
 62
253
  6
CONTINUOUS
 10
11.0976308187
 20
12.8571428061
 11
11.0976308187
 21
12.75
  0
LINE
  5
33A
100
AcDbEntity
  8
CURVE
100
AcDbLine
 62
253
  6
CONTINUOUS
 10
11.0976308187
 20
9.4285714477
 11
11.0976308187
 21
9.3214285746
  0
LINE
  5
33B
100
AcDbEntity
  8
CURVE
100
AcDbLine
 62
253
  6
CONTINUOUS
 10
11.0976308187
 20
11.3571428061
 11
11.0976308187
 21
11.8928571939
  0
LINE
  5
33C
100
AcDbEntity
  8
CURVE
100
AcDbLine
 62
253
  6
CONTINUOUS
 10
11.0976348052
 20
-13.089593
 11
11.0976348052
 21
-12.659757
  0
LINE
  5
33D
100
AcDbEntity
  8
CURVE
100
AcDbLine
 62
253
  6
CONTINUOUS
 10
11.0976348052
 20
-11.773245
 11
11.0976348052
 21
-10.813568
  0
LINE
  5
33E
100
AcDbEntity
  8
CURVE
100
AcDbLine
 62
253
  6
CONTINUOUS
 10
11.0976348052
 20
-4.861082
 11
11.0976348052
 21
-4.114148
  0
LINE
  5
33F
100
AcDbEntity
  8
ASSI
100
AcDbLine
 62
7
  6
CONTINUOUS
 10
11.15
 20
-21.8997711479
 11
11.15
 21
21.8997711479
  0
LINE
  5
340
100
AcDbEntity
  8
RACCORDO
100
AcDbLine
 62
7
  6
CONTINUOUS
 10
11.15
 20
-21.8997711479
 11
11.15
 21
21.8997711479
  0
LINE
  5
341
100
AcDbEntity
  8
CURVE
100
AcDbLine
 62
253
  6
CONTINUOUS
 10
11.0292439011
 20
-1.183131
 11
11.0452696104
 21
-0.0
  0
LINE
  5
342
100
AcDbEntity
  8
CURVE
100
AcDbLine
 62
253
  6
CONTINUOUS
 10
11.071452209
 20
16.0714287758
 11
11.0751920102
 21
16.2857143879
  0
LINE
  5
343
100
AcDbEntity
  8
CURVE
100
AcDbLine
 62
253
  6
CONTINUOUS
 10
11.0976308187
 20
15.9642856121
 11
11.0938910171
 21
15.75
  0
LINE
  5
344
100
AcDbEntity
  8
CURVE
100
AcDbLine
 62
253
  6
CONTINUOUS
 10
11.071452209
 20
14.0357143879
 11
11.0751920102
 21
14.25
  0
LINE
  5
345
100
AcDbEntity
  8
CURVE
100
AcDbLine
 62
253
  6
CONTINUOUS
 10
11.071452209
 20
12.8571428061
 11
11.0751920102
 21
13.0714284182
  0
LINE
  5
346
100
AcDbEntity
  8
CURVE
100
AcDbLine
 62
253
  6
CONTINUOUS
 10
11.0976308187
 20
13.9285715818
 11
11.0938910171
 21
13.7142856121
  0
LINE
  5
347
100
AcDbEntity
  8
CURVE
100
AcDbLine
 62
253
  6
CONTINUOUS
 10
11.0976308187
 20
12.75
 11
11.0938910171
 21
12.5357143879
  0
LINE
  5
348
100
AcDbEntity
  8
CURVE
100
AcDbLine
 62
253
  6
CONTINUOUS
 10
11.0864114144
 20
12.0
 11
11.0826716125
 21
11.7857142091
  0
LINE
  5
349
100
AcDbEntity
  8
CURVE
100
AcDbLine
 62
253
  6
CONTINUOUS
 10
11.0751920102
 20
10.928571403
 11
11.071452209
 21
10.7142857909
  0
LINE
  5
34A
100
AcDbEntity
  8
CURVE
100
AcDbLine
 62
253
  6
CONTINUOUS
 10
11.0826716125
 20
10.178571403
 11
11.0864114144
 21
10.3928571045
  0
LINE
  5
34B
100
AcDbEntity
  8
CURVE
100
AcDbLine
 62
253
  6
CONTINUOUS
 10
11.071452209
 20
9.4285714477
 11
11.0751920102
 21
9.6428571492
  0
LINE
  5
34C
100
AcDbEntity
  8
CURVE
100
AcDbLine
 62
253
  6
CONTINUOUS
 10
11.0976308187
 20
9.3214285746
 11
11.0938910171
 21
9.1071428619
  0
LINE
  5
34D
100
AcDbEntity
  8
CURVE
100
AcDbLine
 62
253
  6
CONTINUOUS
 10
11.0751920102
 20
11.9642856717
 11
11.071452209
 21
11.7857142091
  0
LINE
  5
34E
100
AcDbEntity
  8
CURVE
100
AcDbLine
 62
253
  6
CONTINUOUS
 10
11.0976348052
 20
-8.544819
 11
11.0749501324
 21
-9.576944
  0
LINE
  5
34F
100
AcDbEntity
  8
CURVE
100
AcDbLine
 62
253
  6
CONTINUOUS
 10
11.0225876003
 20
9.2546266319
 11
11.0480583941
 21
10.202527413
  0
LINE
  5
350
100
AcDbEntity
  8
CURVE
100
AcDbLine
 62
253
  6
CONTINUOUS
 10
11.0539971429
 20
10.1722789998
 11
11.0287904105
 21
9.2319450864
  0
LINE
  5
351
100
AcDbEntity
  8
CURVE
100
AcDbLine
 62
253
  6
CONTINUOUS
 10
11.0749501324
 20
-3.952134
 11
11.0888569711
 21
-3.476396
  0
LINE
  5
352
100
AcDbEntity
  8
CURVE
100
AcDbLine
 62
253
  6
CONTINUOUS
 10
11.0938910171
 20
12.5357143879
 11
11.0901512156
 21
12.4285715818
  0
LINE
  5
353
100
AcDbEntity
  8
CURVE
100
AcDbLine
 62
253
  6
CONTINUOUS
 10
11.0751920102
 20
9.6428571492
 11
11.0789318114
 21
9.75
  0
LINE
  5
354
100
AcDbEntity
  8
CURVE
100
AcDbLine
 62
253
  6
CONTINUOUS
 10
11.0938910171
 20
9.1071428619
 11
11.0901512156
 21
9.0
  0
LINE
  5
355
100
AcDbEntity
  8
CURVE
100
AcDbLine
 62
253
  6
CONTINUOUS
 10
11.0976348052
 20
-15.197131
 11
11.0749501324
 21
-15.82
  0
LINE
  5
356
100
AcDbEntity
  8
CURVE
100
AcDbLine
 62
253
  6
CONTINUOUS
 10
11.0976348052
 20
-5.110054
 11
11.0749501324
 21
-5.680387
  0
LINE
  5
357
100
AcDbEntity
  8
CURVE
100
AcDbLine
 62
253
  6
CONTINUOUS
 10
11.0976348052
 20
-13.259776
 11
11.0749501324
 21
-13.83011
  0
LINE
  5
358
100
AcDbEntity
  8
CURVE
100
AcDbLine
 62
253
  6
CONTINUOUS
 10
11.0539980154
 20
-12.904525
 11
11.0334898496
 21
-13.345267
  0
LINE
  5
359
100
AcDbEntity
  8
CURVE
100
AcDbLine
 62
253
  6
CONTINUOUS
 10
11.022591016
 20
-13.24786
 11
11.0400282878
 21
-12.876128
  0
LINE
  5
35A
100
AcDbEntity
  8
CURVE
100
AcDbLine
 62
253
  6
CONTINUOUS
 10
11.0539980154
 20
-15.412771
 11
11.022591016
 21
-15.98336
  0
LINE
  5
35B
100
AcDbEntity
  8
CURVE
100
AcDbLine
 62
253
  6
CONTINUOUS
 10
11.022591016
 20
-10.973414
 11
11.0539980154
 21
-10.421174
  0
LINE
  5
35C
100
AcDbEntity
  8
CURVE
100
AcDbLine
 62
253
  6
CONTINUOUS
 10
11.022591016
 20
-15.575234
 11
11.044209422
 21
-15.232149
  0
LINE
  5
35D
100
AcDbEntity
  8
CURVE
100
AcDbLine
 62
253
  6
CONTINUOUS
 10
11.0539980154
 20
-10.817147
 11
11.0477280591
 21
-10.914473
  0
LINE
  5
35E
100
AcDbEntity
  8
CURVE
100
AcDbLine
 62
253
  6
CONTINUOUS
 10
11.0428764008
 20
-10.989556
 11
11.0312208589
 21
-11.162195
  0
LINE
  5
35F
100
AcDbEntity
  8
CURVE
100
AcDbLine
 62
253
  6
CONTINUOUS
 10
11.0826716125
 20
10.928571403
 11
11.0751920102
 21
10.928571403
  0
LINE
  5
360
100
AcDbEntity
  8
CURVE
100
AcDbLine
 62
253
  6
CONTINUOUS
 10
11.0539971429
 20
10.9360943119
 11
11.0225876003
 21
10.9360943119
  0
LINE
  5
361
100
AcDbEntity
  8
CURVE
100
AcDbLine
 62
253
  6
CONTINUOUS
 10
11.0396122352
 20
11.1755882673
 11
11.0504778823
 21
11.1755882673
  0
LINE
  5
362
100
AcDbEntity
  8
CURVE
100
AcDbLine
 62
253
  6
CONTINUOUS
 10
11.0261068609
 20
11.1755882673
 11
11.0360929746
 21
11.1755882673
  0
LINE
  5
363
100
AcDbEntity
  8
CURVE
100
AcDbLine
 62
253
  6
CONTINUOUS
 10
11.0808017127
 20
11.9642856717
 11
11.0751920102
 21
11.9642856717
  0
LINE
  5
364
100
AcDbEntity
  8
CURVE
100
AcDbLine
 62
253
  6
CONTINUOUS
 10
11.0957609179
 20
12.0
 11
11.0864114144
 21
12.0
  0
LINE
  5
365
100
AcDbEntity
  8
CURVE
100
AcDbLine
 62
253
  6
CONTINUOUS
 10
11.0360929746
 20
12.1108836018
 11
11.0396122352
 21
12.1108836018
  0
LINE
  5
366
100
AcDbEntity
  8
CURVE
100
AcDbLine
 62
253
  6
CONTINUOUS
 10
11.0225876003
 20
12.1789472959
 11
11.0261068609
 21
12.1789472959
  0
LINE
  5
367
100
AcDbEntity
  8
CURVE
100
AcDbLine
 62
253
  6
CONTINUOUS
 10
11.0504778823
 20
12.1865131048
 11
11.0539971429
 21
12.1865131048
  0
LINE
  5
368
100
AcDbEntity
  8
CURVE
100
AcDbLine
 62
253
  6
CONTINUOUS
 10
11.022591016
 20
-12.128709
 11
11.0539980154
 21
-11.960403
  0
LINE
  5
369
100
AcDbEntity
  8
CURVE
100
AcDbLine
 62
253
  6
CONTINUOUS
 10
11.0539980154
 20
-12.327937
 11
11.033575336
 21
-12.405126
  0
LINE
  5
36A
100
AcDbEntity
  8
CURVE
100
AcDbLine
 62
253
  6
CONTINUOUS
 10
11.0901512156
 20
12.4285715818
 11
11.0789318114
 21
12.4285715818
  0
LINE
  5
36B
100
AcDbEntity
  8
CURVE
100
AcDbLine
 62
253
  6
CONTINUOUS
 10
11.0789318114
 20
13.1785715818
 11
11.0901512156
 21
13.1785715818
  0
LINE
  5
36C
100
AcDbEntity
  8
CURVE
100
AcDbLine
 62
253
  6
CONTINUOUS
 10
11.0901512156
 20
13.6071428061
 11
11.0789318114
 21
13.6071428061
  0
LINE
  5
36D
100
AcDbEntity
  8
CURVE
100
AcDbLine
 62
7
  6
CONTINUOUS
 10
11.0508910839
 20
-9.0470897499
 11
11.0539980255
 21
-9.0439828083
  0
LINE
  5
36E
100
AcDbEntity
  8
CURVE
100
AcDbLine
 62
7
  6
CONTINUOUS
 10
11.0238112409
 20
-9.3230711799
 11
11.0539980255
 21
-9.2928843953
  0
LINE
  5
36F
100
AcDbEntity
  8
CURVE
100
AcDbLine
 62
7
  6
CONTINUOUS
 10
11.0224800799
 20
-9.5733039279
 11
11.0282121579
 21
-9.5675718499
  0
LINE
  5
370
100
AcDbEntity
  8
CURVE
100
AcDbLine
 62
7
  6
CONTINUOUS
 10
11.0358392578
 20
-9.55994475
 11
11.0435371867
 21
-9.5522468211
  0
LINE
  5
371
100
AcDbEntity
  8
CURVE
100
AcDbLine
 62
7
  6
CONTINUOUS
 10
11.02216928
 20
-9.8225163147
 11
11.0276726314
 21
-9.8170129634
  0
LINE
  5
372
100
AcDbEntity
  8
CURVE
100
AcDbLine
 62
7
  6
CONTINUOUS
 10
11.0365633549
 20
-9.8081222399
 11
11.041707062
 21
-9.8029785327
  0
LINE
  5
373
100
AcDbEntity
  8
CURVE
100
AcDbLine
 62
7
  6
CONTINUOUS
 10
11.0224173562
 20
-10.0711698255
 11
11.0539980255
 21
-10.0395891562
  0
LINE
  5
374
100
AcDbEntity
  8
CURVE
100
AcDbLine
 62
7
  6
CONTINUOUS
 10
11.0316387202
 20
-10.3108500485
 11
11.0539980255
 21
-10.2884907432
  0
LINE
  5
375
100
AcDbEntity
  8
CURVE
100
AcDbLine
 62
7
  6
CONTINUOUS
 10
11.0469898778
 20
-10.5444004779
 11
11.0539980154
 21
-10.5373923403
  0
LINE
  5
376
100
AcDbEntity
  8
CURVE
100
AcDbLine
 62
7
  6
CONTINUOUS
 10
11.0319807444
 20
-10.8083111983
 11
11.0539980154
 21
-10.7862939273
  0
LINE
  5
377
100
AcDbEntity
  8
CURVE
100
AcDbLine
 62
7
  6
CONTINUOUS
 10
11.022591016
 20
-11.0666025136
 11
11.0387667754
 21
-11.0504267543
  0
LINE
  5
378
100
AcDbEntity
  8
CURVE
100
AcDbLine
 62
7
  6
CONTINUOUS
 10
11.0428764008
 20
-11.0463171288
 11
11.0477280591
 21
-11.0414654706
  0
LINE
  5
379
100
AcDbEntity
  8
CURVE
100
AcDbLine
 62
7
  6
CONTINUOUS
 10
11.022591016
 20
-11.3155041006
 11
11.0397065931
 21
-11.2983885235
  0
LINE
  5
37A
100
AcDbEntity
  8
CURVE
100
AcDbLine
 62
7
  6
CONTINUOUS
 10
11.0428764008
 20
-11.2952187158
 11
11.0477280591
 21
-11.2903670576
  0
LINE
  5
37B
100
AcDbEntity
  8
CURVE
100
AcDbLine
 62
253
  6
CONTINUOUS
 10
11.0539971429
 20
14.2435851882
 11
11.0225876003
 21
14.2435851882
  0
LINE
  5
37C
100
AcDbEntity
  8
CURVE
100
AcDbLine
 62
253
  6
CONTINUOUS
 10
11.0789318114
 20
14.3571428061
 11
11.0901512156
 21
14.3571428061
  0
LINE
  5
37D
100
AcDbEntity
  8
CURVE
100
AcDbLine
 62
253
  6
CONTINUOUS
 10
11.0396122352
 20
14.4830802023
 11
11.0504778823
 21
14.4830802023
  0
LINE
  5
37E
100
AcDbEntity
  8
CURVE
100
AcDbLine
 62
253
  6
CONTINUOUS
 10
11.0261068609
 20
14.4830802023
 11
11.0360929746
 21
14.4830802023
  0
LINE
  5
37F
100
AcDbEntity
  8
CURVE
100
AcDbLine
 62
253
  6
CONTINUOUS
 10
11.0951376177
 20
15.0
 11
11.0945143175
 21
15.0
  0
LINE
  5
380
100
AcDbEntity
  8
CURVE
100
AcDbLine
 62
253
  6
CONTINUOUS
 10
11.0945143175
 20
15.1428573132
 11
11.0951376177
 21
15.1428573132
  0
LINE
  5
381
100
AcDbEntity
  8
CURVE
100
AcDbLine
 62
253
  6
CONTINUOUS
 10
11.0360929746
 20
15.418408358
 11
11.0396122352
 21
15.418408358
  0
LINE
  5
382
100
AcDbEntity
  8
CURVE
100
AcDbLine
 62
253
  6
CONTINUOUS
 10
11.0225876003
 20
15.4864222909
 11
11.0261068609
 21
15.4864222909
  0
LINE
  5
383
100
AcDbEntity
  8
CURVE
100
AcDbLine
 62
253
  6
CONTINUOUS
 10
11.0504778823
 20
15.494037861
 11
11.0539971429
 21
15.494037861
  0
LINE
  5
384
100
AcDbEntity
  8
CURVE
100
AcDbLine
 62
253
  6
CONTINUOUS
 10
11.0901512156
 20
15.6428568363
 11
11.0789318114
 21
15.6428568363
  0
LINE
  5
385
100
AcDbEntity
  8
CURVE
100
AcDbLine
 62
7
  6
CONTINUOUS
 10
11.0345827716
 20
-11.552413932
 11
11.0539980154
 21
-11.5329986882
  0
LINE
  5
386
100
AcDbEntity
  8
CURVE
100
AcDbLine
 62
7
  6
CONTINUOUS
 10
11.0476999346
 20
-11.788198356
 11
11.0539980154
 21
-11.7819002752
  0
LINE
  5
387
100
AcDbEntity
  8
CURVE
100
AcDbLine
 62
7
  6
CONTINUOUS
 10
11.0378472984
 20
-12.0469525792
 11
11.0539980154
 21
-12.0308018622
  0
LINE
  5
388
100
AcDbEntity
  8
CURVE
100
AcDbLine
 62
7
  6
CONTINUOUS
 10
11.022591016
 20
-12.3111104485
 11
11.0539980154
 21
-12.2797034492
  0
LINE
  5
389
100
AcDbEntity
  8
CURVE
100
AcDbLine
 62
7
  6
CONTINUOUS
 10
11.0252338156
 20
-12.5573692359
 11
11.0398666481
 21
-12.5427364035
  0
LINE
  5
38A
100
AcDbEntity
  8
CURVE
100
AcDbLine
 62
7
  6
CONTINUOUS
 10
11.0362736354
 20
-12.7952310031
 11
11.0507485028
 21
-12.7807561357
  0
LINE
  5
38B
100
AcDbEntity
  8
CURVE
100
AcDbLine
 62
7
  6
CONTINUOUS
 10
11.0319444227
 20
-13.0484618028
 11
11.0480498959
 21
-13.0323563296
  0
LINE
  5
38C
100
AcDbEntity
  8
CURVE
100
AcDbLine
 62
7
  6
CONTINUOUS
 10
11.022591016
 20
-13.3067167964
 11
11.0359030515
 21
-13.293404761
  0
LINE
  5
38D
100
AcDbEntity
  8
CURVE
100
AcDbLine
 62
7
  6
CONTINUOUS
 10
11.022591016
 20
-13.5556183834
 11
11.0539980154
 21
-13.524211384
  0
LINE
  5
38E
100
AcDbEntity
  8
CURVE
100
AcDbLine
 62
7
  6
CONTINUOUS
 10
11.0519487916
 20
-13.7751621948
 11
11.0539980154
 21
-13.773112971
  0
LINE
  5
38F
100
AcDbEntity
  8
CURVE
100
AcDbLine
 62
253
  6
CONTINUOUS
 10
11.0789318114
 20
16.3928568363
 11
11.0901512156
 21
16.3928568363
  0
LINE
  5
390
100
AcDbEntity
  8
CURVE
100
AcDbLine
 62
253
  6
CONTINUOUS
 10
11.071452209
 20
17.25
 11
11.0976308187
 21
17.25
  0
LINE
  5
391
100
AcDbEntity
  8
CURVE
100
AcDbLine
 62
7
  6
CONTINUOUS
 10
11.0225891314
 20
-14.0534234419
 11
11.0539980154
 21
-14.022014558
  0
LINE
  5
392
100
AcDbEntity
  8
CURVE
100
AcDbLine
 62
7
  6
CONTINUOUS
 10
11.0225891314
 20
-14.3023250289
 11
11.0539980154
 21
-14.270916145
  0
LINE
  5
393
100
AcDbEntity
  8
CURVE
100
AcDbLine
 62
7
  6
CONTINUOUS
 10
11.022591016
 20
-14.5512247313
 11
11.0250669438
 21
-14.5487488035
  0
LINE
  5
394
100
AcDbEntity
  8
CURVE
100
AcDbLine
 62
7
  6
CONTINUOUS
 10
11.022591016
 20
-14.8001263183
 11
11.0378831195
 21
-14.7848342148
  0
LINE
  5
395
100
AcDbEntity
  8
CURVE
100
AcDbLine
 62
7
  6
CONTINUOUS
 10
11.0324121474
 20
-15.0392067738
 11
11.0506992952
 21
-15.0209196261
  0
LINE
  5
396
100
AcDbEntity
  8
CURVE
100
AcDbLine
 62
7
  6
CONTINUOUS
 10
11.0412395523
 20
-15.279280956
 11
11.0539980154
 21
-15.2665224929
  0
LINE
  5
397
100
AcDbEntity
  8
CURVE
100
AcDbLine
 62
7
  6
CONTINUOUS
 10
11.0245010928
 20
-15.5449210025
 11
11.0480185405
 21
-15.5214035547
  0
LINE
  5
398
100
AcDbEntity
  8
CURVE
100
AcDbLine
 62
7
  6
CONTINUOUS
 10
11.022591016
 20
-15.7957326662
 11
11.0335201857
 21
-15.7848034966
  0
LINE
  5
399
100
AcDbEntity
  8
DRAFT
100
AcDbLine
 62
7
  6
CONTINUOUS
 10
3.0
 20
-22.4
 11
2.7812783412
 21
-22.5310194482
  0
LINE
  5
39A
100
AcDbEntity
  8
ASSI
100
AcDbLine
 62
7
  6
CONTINUOUS
 10
2.7812783412
 20
-22.5310194482
 11
3.0
 21
-22.4
  0
LINE
  5
39B
100
AcDbEntity
  8
ASSI
100
AcDbLine
 62
253
  6
CONTINUOUS
 10
-10.5005350625
 20
21.0183142309
 11
10.5005350625
 21
21.0183142309
  0
LINE
  5
39C
100
AcDbEntity
  8
0
100
AcDbLine
 62
253
  6
CONTINUOUS
 10
-10.5005350625
 20
21.0183142309
 11
10.5005350625
 21
21.0183142309
  0
LINE
  5
39D
100
AcDbEntity
  8
ASSI
100
AcDbLine
 62
7
  6
CONTINUOUS
 10
3.0
 20
22.4
 11
2.7812783412
 21
22.5310194482
  0
LINE
  5
39E
100
AcDbEntity
  8
DRAFT
100
AcDbLine
 62
7
  6
CONTINUOUS
 10
2.7812783412
 20
22.5310194482
 11
3.0
 21
22.4
  0
LINE
  5
39F
100
AcDbEntity
  8
ASSI
100
AcDbLine
 62
253
  6
CONTINUOUS
 10
-10.5087981167
 20
21.9749071372
 11
10.5087981167
 21
21.9749071372
  0
LINE
  5
3A0
100
AcDbEntity
  8
0
100
AcDbLine
 62
253
  6
CONTINUOUS
 10
-10.5087981167
 20
21.9749071372
 11
10.5087981167
 21
21.9749071372
  0
LINE
  5
3A1
100
AcDbEntity
  8
DRAFT
100
AcDbLine
 62
7
  6
CONTINUOUS
 10
-10.6503805997
 20
22.4
 11
-3.0
 21
22.4
  0
LINE
  5
3A2
100
AcDbEntity
  8
ASSI
100
AcDbLine
 62
7
  6
CONTINUOUS
 10
-10.6503805997
 20
22.4
 11
-3.0
 21
22.4
  0
LINE
  5
3A3
100
AcDbEntity
  8
ASSI
100
AcDbLine
 62
7
  6
CONTINUOUS
 10
3.0
 20
22.4
 11
10.6503805997
 21
22.4
  0
LINE
  5
3A4
100
AcDbEntity
  8
DRAFT
100
AcDbLine
 62
7
  6
CONTINUOUS
 10
3.0
 20
22.4
 11
10.6503805997
 21
22.4
  0
LINE
  5
3A5
100
AcDbEntity
  8
ASSI
100
AcDbLine
 62
7
  6
CONTINUOUS
 10
2.7812783412
 20
22.5310194482
 11
-2.7812783412
 21
22.5310194482
  0
LINE
  5
3A6
100
AcDbEntity
  8
DRAFT
100
AcDbLine
 62
7
  6
CONTINUOUS
 10
-2.7812783412
 20
22.5310194482
 11
2.7812783412
 21
22.5310194482
  0
LINE
  5
3A7
100
AcDbEntity
  8
ASSI
100
AcDbLine
 62
7
  6
CONTINUOUS
 10
3.0
 20
23.5
 11
2.7812783412
 21
23.4781828305
  0
LINE
  5
3A8
100
AcDbEntity
  8
DRAFT
100
AcDbLine
 62
7
  6
CONTINUOUS
 10
3.0
 20
23.5
 11
2.7812783412
 21
23.4781828305
  0
LINE
  5
3A9
100
AcDbEntity
  8
DRAFT
100
AcDbLine
 62
7
  6
CONTINUOUS
 10
2.7812783412
 20
23.4781828305
 11
-2.7812783412
 21
23.4781828305
  0
LINE
  5
3AA
100
AcDbEntity
  8
ASSI
100
AcDbLine
 62
7
  6
CONTINUOUS
 10
-2.7812783412
 20
23.4781828305
 11
2.7812783412
 21
23.4781828305
  0
LINE
  5
3AB
100
AcDbEntity
  8
ASSI
100
AcDbLine
 62
7
  6
CONTINUOUS
 10
-3.9733373476
 20
23.5
 11
-3.0
 21
23.5
  0
LINE
  5
3AC
100
AcDbEntity
  8
DRAFT
100
AcDbLine
 62
7
  6
CONTINUOUS
 10
-3.9733373476
 20
23.5
 11
-3.0
 21
23.5
  0
LINE
  5
3AD
100
AcDbEntity
  8
ASSI
100
AcDbLine
 62
7
  6
CONTINUOUS
 10
3.0
 20
23.5
 11
3.9733373476
 21
23.5
  0
LINE
  5
3AE
100
AcDbEntity
  8
DRAFT
100
AcDbLine
 62
7
  6
CONTINUOUS
 10
3.0
 20
23.5
 11
3.9733373476
 21
23.5
  0
LINE
  5
3AF
100
AcDbEntity
  8
ASSI
100
AcDbLine
 62
7
  6
CONTINUOUS
 10
-3.0
 20
23.5
 11
-2.7812783412
 21
23.4781828305
  0
LINE
  5
3B0
100
AcDbEntity
  8
DRAFT
100
AcDbLine
 62
7
  6
CONTINUOUS
 10
-3.0
 20
23.5
 11
-2.7812783412
 21
23.4781828305
  0
LINE
  5
3B1
100
AcDbEntity
  8
ASSI
100
AcDbLine
 62
7
  6
CONTINUOUS
 10
-40.1722533444
 20
-23.5
 11
-36.1722533444
 21
-23.4650925288
  0
LINE
  5
3B2
100
AcDbEntity
  8
DRAFT
100
AcDbLine
 62
7
  6
CONTINUOUS
 10
-40.1722533444
 20
-23.5
 11
-36.1722533444
 21
-23.4650925288
  0
LINE
  5
3B3
100
AcDbEntity
  8
ASSI
100
AcDbLine
 62
7
  6
CONTINUOUS
 10
-40.1722533444
 20
-22.4
 11
-48.2835083644
 21
-21.9749071372
  0
LINE
  5
3B4
100
AcDbEntity
  8
0
100
AcDbLine
 62
7
  6
CONTINUOUS
 10
-48.2835083644
 20
-21.9749071372
 11
-40.1722533444
 21
-22.4
  0
LINE
  5
3B5
100
AcDbEntity
  8
ASSI
100
AcDbLine
 62
7
  6
CONTINUOUS
 10
-34.0645796647
 20
-22.3955695989
 11
-34.5722533444
 21
-22.4
  0
LINE
  5
3B6
100
AcDbEntity
  8
DRAFT
100
AcDbLine
 62
7
  6
CONTINUOUS
 10
-34.5722533444
 20
-22.4
 11
-34.0645796647
 21
-22.3955695989
  0
LINE
  5
3B7
100
AcDbEntity
  8
ASSI
100
AcDbLine
 62
253
  6
CONTINUOUS
 10
-32.2176250786
 20
-21.3292298715
 11
-34.5630875013
 21
-21.349698412
  0
LINE
  5
3B8
100
AcDbEntity
  8
RACCORDO
100
AcDbLine
 62
253
  6
CONTINUOUS
 10
-32.2176250786
 20
-21.3292298715
 11
-34.5630875013
 21
-21.349698412
  0
LINE
  5
3B9
100
AcDbEntity
  8
ASSI
100
AcDbLine
 62
7
  6
CONTINUOUS
 10
-36.1722533444
 20
-21.2139629885
 11
-31.9542198078
 21
-21.1771527675
  0
LINE
  5
3BA
100
AcDbEntity
  8
DRAFT
100
AcDbLine
 62
7
  6
CONTINUOUS
 10
-36.1722533444
 20
-21.2139629885
 11
-31.9542198078
 21
-21.1771527675
  0
LINE
  5
3BB
100
AcDbEntity
  8
DRAFT
100
AcDbLine
 62
7
  6
CONTINUOUS
 10
-31.5313492347
 20
-20.9330083283
 11
-40.1722533444
 21
-20.9
  0
LINE
  5
3BC
100
AcDbEntity
  8
ASSI
100
AcDbLine
 62
253
  6
CONTINUOUS
 10
-40.1722533444
 20
-21.8997711479
 11
-48.2660665895
 21
-21.4755923698
  0
LINE
  5
3BD
100
AcDbEntity
  8
0
100
AcDbLine
 62
253
  6
CONTINUOUS
 10
-48.2660665895
 20
-21.4755923698
 11
-40.1722533444
 21
-21.8997711479
  0
LINE
  5
3BE
100
AcDbEntity
  8
CURVE
100
AcDbLine
 62
7
  6
CONTINUOUS
 10
-47.4717048339
 20
15.3145427958
 11
-47.2998253388
 21
15.4864222909
  0
LINE
  5
3BF
100
AcDbEntity
  8
CURVE
100
AcDbLine
 62
7
  6
CONTINUOUS
 10
-47.4717048339
 20
15.0656412089
 11
-47.2700865296
 21
15.2672595132
  0
LINE
  5
3C0
100
AcDbEntity
  8
CURVE
100
AcDbLine
 62
7
  6
CONTINUOUS
 10
-47.4717048339
 20
14.8167396219
 11
-47.2700865296
 21
15.0183579262
  0
LINE
  5
3C1
100
AcDbEntity
  8
CURVE
100
AcDbLine
 62
7
  6
CONTINUOUS
 10
-47.4717048339
 20
14.5678380349
 11
-47.2700865296
 21
14.7694563392
  0
LINE
  5
3C2
100
AcDbEntity
  8
CURVE
100
AcDbLine
 62
7
  6
CONTINUOUS
 10
-46.6979824589
 20
15.3415604099
 11
-46.6211345108
 21
15.418408358
  0
LINE
  5
3C3
100
AcDbEntity
  8
CURVE
100
AcDbLine
 62
7
  6
CONTINUOUS
 10
-47.4717048339
 20
14.3189364479
 11
-47.2700865296
 21
14.5205547523
  0
LINE
  5
3C4
100
AcDbEntity
  8
CURVE
100
AcDbLine
 62
7
  6
CONTINUOUS
 10
-46.6979824589
 20
15.092658823
 11
-46.4963641546
 21
15.2942771273
  0
LINE
  5
3C5
100
AcDbEntity
  8
CURVE
100
AcDbLine
 62
7
  6
CONTINUOUS
 10
-47.2981545066
 20
14.2435851882
 11
-47.0586594925
 21
14.4830802023
  0
LINE
  5
3C6
100
AcDbEntity
  8
CURVE
100
AcDbLine
 62
7
  6
CONTINUOUS
 10
-46.6979824589
 20
14.843757236
 11
-46.4963641546
 21
15.0453755403
  0
LINE
  5
3C7
100
AcDbEntity
  8
CURVE
100
AcDbLine
 62
7
  6
CONTINUOUS
 10
-47.4717048339
 20
13.821133274
 11
-47.3850895962
 21
13.9077485117
  0
LINE
  5
3C8
100
AcDbEntity
  8
CURVE
100
AcDbLine
 62
7
  6
CONTINUOUS
 10
-47.0492529196
 20
14.2435851882
 11
-46.8097579056
 21
14.4830802023
  0
LINE
  5
3C9
100
AcDbEntity
  8
CURVE
100
AcDbLine
 62
7
  6
CONTINUOUS
 10
-46.6979824589
 20
14.594855649
 11
-46.4963641546
 21
14.7964739533
  0
LINE
  5
3CA
100
AcDbEntity
  8
CURVE
100
AcDbLine
 62
7
  6
CONTINUOUS
 10
-45.8738716488
 20
15.4189664591
 11
-45.7988002469
 21
15.494037861
  0
LINE
  5
3CB
100
AcDbEntity
  8
CURVE
100
AcDbLine
 62
7
  6
CONTINUOUS
 10
-47.3841236041
 20
13.6598129168
 11
-47.2015153674
 21
13.8424211535
  0
LINE
  5
3CC
100
AcDbEntity
  8
CURVE
100
AcDbLine
 62
7
  6
CONTINUOUS
 10
-46.8003513327
 20
14.2435851882
 11
-46.4963641546
 21
14.5475723663
  0
LINE
  5
3CD
100
AcDbEntity
  8
CURVE
100
AcDbLine
 62
7
  6
CONTINUOUS
 10
-45.8738716488
 20
15.1700648721
 11
-45.6722533444
 21
15.3716831765
  0
LINE
  5
3CE
100
AcDbEntity
  8
CURVE
100
AcDbLine
 62
7
  6
CONTINUOUS
 10
-47.1973835373
 20
13.5976513966
 11
-47.0179411386
 21
13.7770937953
  0
LINE
  5
3CF
100
AcDbEntity
  8
CURVE
100
AcDbLine
 62
7
  6
CONTINUOUS
 10
-46.5514497457
 20
14.2435851882
 11
-46.3119547316
 21
14.4830802023
  0
LINE
  5
3D0
100
AcDbEntity
  8
CURVE
100
AcDbLine
 62
7
  6
CONTINUOUS
 10
-45.8738716488
 20
14.9211632852
 11
-45.6722533444
 21
15.1227815895
  0
LINE
  5
3D1
100
AcDbEntity
  8
CURVE
100
AcDbLine
 62
253
  6
CONTINUOUS
 10
-44.6722532748
 20
16.0714287758
 11
-44.4580002101
 21
16.2857143879
  0
LINE
  5
3D2
100
AcDbEntity
  8
CURVE
100
AcDbLine
 62
7
  6
CONTINUOUS
 10
-47.0106434706
 20
13.5354898764
 11
-46.8343669098
 21
13.7117664372
  0
LINE
  5
3D3
100
AcDbEntity
  8
CURVE
100
AcDbLine
 62
7
  6
CONTINUOUS
 10
-46.3025481587
 20
14.2435851882
 11
-46.0630531446
 21
14.4830802023
  0
LINE
  5
3D4
100
AcDbEntity
  8
CURVE
100
AcDbLine
 62
7
  6
CONTINUOUS
 10
-45.8738716488
 20
14.6722616982
 11
-45.6722533444
 21
14.8738800025
  0
LINE
  5
3D5
100
AcDbEntity
  8
CURVE
100
AcDbLine
 62
253
  6
CONTINUOUS
 10
-44.4580002101
 20
16.2857143879
 11
-44.2437471453
 21
16.3928568363
  0
LINE
  5
3D6
100
AcDbEntity
  8
ASSI
100
AcDbLine
 62
253
  6
CONTINUOUS
 10
-49.2302884677
 20
-21.0183142305
 11
-48.7394566465
 21
-20.9972959167
  0
LINE
  5
3D7
100
AcDbEntity
  8
0
100
AcDbLine
 62
253
  6
CONTINUOUS
 10
-48.7394566465
 20
-20.9972959167
 11
-49.2302828089
 21
-21.018313994
  0
LINE
  5
3D8
100
AcDbEntity
  8
ASSI
100
AcDbLine
 62
253
  6
CONTINUOUS
 10
-30.7222533444
 20
-19.25
 11
-40.1722533444
 21
-19.25
  0
LINE
  5
3D9
100
AcDbEntity
  8
DRAFT
100
AcDbLine
 62
7
  6
CONTINUOUS
 10
-40.1722533444
 20
-18.95
 11
-31.0222533444
 21
-18.95
  0
LINE
  5
3DA
100
AcDbEntity
  8
ASSI
100
AcDbLine
 62
7
  6
CONTINUOUS
 10
-40.1722533444
 20
-18.85
 11
-31.1222533444
 21
-18.85
  0
LINE
  5
3DB
100
AcDbEntity
  8
0
100
AcDbLine
 62
7
  6
CONTINUOUS
 10
-40.1722533444
 20
-18.85
 11
-31.1222533444
 21
-18.85
  0
LINE
  5
3DC
100
AcDbEntity
  8
CURVE
100
AcDbLine
 62
7
  6
CONTINUOUS
 10
-46.8239034038
 20
13.4733283561
 11
-46.650792681
 21
13.646439079
  0
LINE
  5
3DD
100
AcDbEntity
  8
CURVE
100
AcDbLine
 62
7
  6
CONTINUOUS
 10
-46.0536465717
 20
14.2435851882
 11
-45.6722533444
 21
14.6249784155
  0
LINE
  5
3DE
100
AcDbEntity
  8
CURVE
100
AcDbLine
 62
7
  6
CONTINUOUS
 10
-47.4717048339
 20
12.5766253391
 11
-47.3617896513
 21
12.6865405217
  0
LINE
  5
3DF
100
AcDbEntity
  8
CURVE
100
AcDbLine
 62
7
  6
CONTINUOUS
 10
-46.6371633371
 20
13.4111668359
 11
-46.4672184522
 21
13.5811117208
  0
LINE
  5
3E0
100
AcDbEntity
  8
CURVE
100
AcDbLine
 62
7
  6
CONTINUOUS
 10
-45.8047449848
 20
14.2435851882
 11
-45.6722533444
 21
14.3760768285
  0
LINE
  5
3E1
100
AcDbEntity
  8
CURVE
100
AcDbLine
 62
7
  6
CONTINUOUS
 10
-47.374406613
 20
12.425021973
 11
-46.9904724488
 21
12.8089561372
  0
LINE
  5
3E2
100
AcDbEntity
  8
CURVE
100
AcDbLine
 62
7
  6
CONTINUOUS
 10
-46.4504232703
 20
13.3490053157
 11
-46.2836442234
 21
13.5157843627
  0
LINE
  5
3E3
100
AcDbEntity
  8
CURVE
100
AcDbLine
 62
7
  6
CONTINUOUS
 10
-47.4717048339
 20
12.0788221651
 11
-47.3715797032
 21
12.1789472959
  0
LINE
  5
3E4
100
AcDbEntity
  8
CURVE
100
AcDbLine
 62
7
  6
CONTINUOUS
 10
-46.9896790561
 20
12.5608479429
 11
-46.6191552463
 21
12.9313717527
  0
LINE
  5
3E5
100
AcDbEntity
  8
CURVE
100
AcDbLine
 62
7
  6
CONTINUOUS
 10
-46.2636832036
 20
13.2868437955
 11
-46.1000699945
 21
13.4504570045
  0
LINE
  5
3E6
100
AcDbEntity
  8
CURVE
100
AcDbLine
 62
7
  6
CONTINUOUS
 10
-47.4717048339
 20
11.8299205782
 11
-47.2700865296
 21
12.0315388825
  0
LINE
  5
3E7
100
AcDbEntity
  8
CURVE
100
AcDbLine
 62
7
  6
CONTINUOUS
 10
-46.6049514992
 20
12.6966739129
 11
-46.2478380438
 21
13.0537873682
  0
LINE
  5
3E8
100
AcDbEntity
  8
CURVE
100
AcDbLine
 62
7
  6
CONTINUOUS
 10
-46.0769431368
 20
13.2246822753
 11
-45.9164957657
 21
13.3851296463
  0
LINE
  5
3E9
100
AcDbEntity
  8
CURVE
100
AcDbLine
 62
253
  6
CONTINUOUS
 10
-43.1724817321
 20
15.9642856121
 11
-43.3867348192
 21
15.75
  0
LINE
  5
3EA
100
AcDbEntity
  8
CURVE
100
AcDbLine
 62
7
  6
CONTINUOUS
 10
-47.4717048339
 20
11.5810189912
 11
-47.2700865296
 21
11.7826372955
  0
LINE
  5
3EB
100
AcDbEntity
  8
CURVE
100
AcDbLine
 62
7
  6
CONTINUOUS
 10
-46.2202239423
 20
12.8324998828
 11
-45.7329215369
 21
13.3198022881
  0
LINE
  5
3EC
100
AcDbEntity
  8
CURVE
100
AcDbLine
 62
7
  6
CONTINUOUS
 10
-47.4717048339
 20
11.3321174042
 11
-47.2700865296
 21
11.5337357085
  0
LINE
  5
3ED
100
AcDbEntity
  8
CURVE
100
AcDbLine
 62
7
  6
CONTINUOUS
 10
-46.6979824589
 20
12.1058397792
 11
-46.6929386363
 21
12.1108836018
  0
LINE
  5
3EE
100
AcDbEntity
  8
CURVE
100
AcDbLine
 62
7
  6
CONTINUOUS
 10
-45.8354963853
 20
12.9683258528
 11
-45.6722533444
 21
13.1315688937
  0
LINE
  5
3EF
100
AcDbEntity
  8
CURVE
100
AcDbLine
 62
253
  6
CONTINUOUS
 10
-44.6722532748
 20
14.0357143879
 11
-44.4580002101
 21
14.25
  0
LINE
  5
3F0
100
AcDbEntity
  8
CURVE
100
AcDbLine
 62
7
  6
CONTINUOUS
 10
-47.4717048339
 20
11.0832158172
 11
-47.2700865296
 21
11.2848341215
  0
LINE
  5
3F1
100
AcDbEntity
  8
CURVE
100
AcDbLine
 62
7
  6
CONTINUOUS
 10
-46.6979824589
 20
11.8569381922
 11
-46.4963641546
 21
12.0585564966
  0
LINE
  5
3F2
100
AcDbEntity
  8
CURVE
100
AcDbLine
 62
7
  6
CONTINUOUS
 10
-47.3699247522
 20
10.9360943119
 11
-47.1304307969
 21
11.1755882673
  0
LINE
  5
3F3
100
AcDbEntity
  8
CURVE
100
AcDbLine
 62
7
  6
CONTINUOUS
 10
-46.6979824589
 20
11.6080366053
 11
-46.4963641546
 21
11.8096549096
  0
LINE
  5
3F4
100
AcDbEntity
  8
CURVE
100
AcDbLine
 62
7
  6
CONTINUOUS
 10
-47.1210231652
 20
10.9360943119
 11
-46.8815292099
 21
11.1755882673
  0
LINE
  5
3F5
100
AcDbEntity
  8
CURVE
100
AcDbLine
 62
7
  6
CONTINUOUS
 10
-46.6979824589
 20
11.3591350183
 11
-46.4963641546
 21
11.5607533226
  0
LINE
  5
3F6
100
AcDbEntity
  8
CURVE
100
AcDbLine
 62
7
  6
CONTINUOUS
 10
-45.8738716488
 20
12.1832458284
 11
-45.8706043724
 21
12.1865131048
  0
LINE
  5
3F7
100
AcDbEntity
  8
CURVE
100
AcDbLine
 62
7
  6
CONTINUOUS
 10
-47.4717048339
 20
10.3365110563
 11
-47.3737444496
 21
10.4344714406
  0
LINE
  5
3F8
100
AcDbEntity
  8
CURVE
100
AcDbLine
 62
7
  6
CONTINUOUS
 10
-46.8721215782
 20
10.9360943119
 11
-46.4963641546
 21
11.3118517356
  0
LINE
  5
3F9
100
AcDbEntity
  8
CURVE
100
AcDbLine
 62
7
  6
CONTINUOUS
 10
-45.8738716488
 20
11.9343442414
 11
-45.6722533444
 21
12.1359625458
  0
LINE
  5
3FA
100
AcDbEntity
  8
0
100
AcDbLine
 62
7
  6
CONTINUOUS
 10
-38.2008352001
 20
18.4940055198
 11
-37.6300352592
 21
18.85
  0
LINE
  5
3FB
100
AcDbEntity
  8
0
100
AcDbLine
 62
253
  6
CONTINUOUS
 10
-38.636723283
 20
17.6669022149
 11
-38.6676980834
 21
17.6475839614
  0
LINE
  5
3FC
100
AcDbEntity
  8
0
100
AcDbLine
 62
253
  6
CONTINUOUS
 10
-37.4318628608
 20
18.41787002
 11
-37.4677652882
 21
18.3954785156
  0
LINE
  5
3FD
100
AcDbEntity
  8
0
100
AcDbLine
 62
253
  6
CONTINUOUS
 10
-37.467719421
 20
18.3619586248
 11
-37.9013221241
 21
18.0915307582
  0
LINE
  5
3FE
100
AcDbEntity
  8
CURVE
100
AcDbLine
 62
253
  6
CONTINUOUS
 10
-43.3867348192
 20
15.75
 11
-43.6009879063
 21
15.6428568363
  0
LINE
  5
3FF
100
AcDbEntity
  8
CURVE
100
AcDbLine
 62
253
  6
CONTINUOUS
 10
-43.4224436633
 20
15.1071431637
 11
-43.3510259639
 21
15.1428573132
  0
LINE
  5
400
100
AcDbEntity
  8
CURVE
100
AcDbLine
 62
253
  6
CONTINUOUS
 10
-43.2438994259
 20
15.0357141495
 11
-43.3153171198
 21
15.0
  0
LINE
  5
401
100
AcDbEntity
  8
CURVE
100
AcDbLine
 62
253
  6
CONTINUOUS
 10
-44.4580002101
 20
14.25
 11
-44.2437471453
 21
14.3571428061
  0
LINE
  5
402
100
AcDbEntity
  8
0
100
AcDbLine
 62
253
  6
CONTINUOUS
 10
-37.1563644984
 20
-18.6164378878
 11
-37.3971756864
 21
-18.6827703814
  0
LINE
  5
403
100
AcDbEntity
  8
ASSI
100
AcDbLine
 62
7
  6
CONTINUOUS
 10
-40.1722533444
 20
-18.3006191467
 11
-38.6722533444
 21
-18.2499082467
  0
LINE
  5
404
100
AcDbEntity
  8
RACCORDO
100
AcDbLine
 62
7
  6
CONTINUOUS
 10
-40.1722533444
 20
-18.3006191467
 11
-38.6722533444
 21
-18.2499082467
  0
LINE
  5
405
100
AcDbEntity
  8
0
100
AcDbLine
 62
253
  6
CONTINUOUS
 10
-33.6110654617
 20
-17.849847672
 11
-37.1505299472
 21
-17.849847672
  0
LINE
  5
406
100
AcDbEntity
  8
0
100
AcDbLine
 62
253
  6
CONTINUOUS
 10
-37.2029377265
 20
-17.8325
 11
-33.5235767982
 21
-17.8325
  0
LINE
  5
407
100
AcDbEntity
  8
0
100
AcDbLine
 62
253
  6
CONTINUOUS
 10
-38.1370278695
 20
-17.6669015493
 11
-38.636723283
 21
-17.6669015493
  0
LINE
  5
408
100
AcDbEntity
  8
0
100
AcDbLine
 62
7
  6
CONTINUOUS
 10
-34.6072601598
 20
-16.8325
 11
-36.1519004124
 21
-16.8325
  0
LINE
  5
409
100
AcDbEntity
  8
0
100
AcDbLine
 62
253
  6
CONTINUOUS
 10
-33.6110654617
 20
-17.849847672
 11
-32.9472753459
 21
-17.9822819681
  0
LINE
  5
40A
100
AcDbEntity
  8
CURVE
100
AcDbLine
 62
253
  6
CONTINUOUS
 10
-46.2329914991
 20
-15.232149
 11
-47.4715091484
 21
-14.878584
  0
LINE
  5
40B
100
AcDbEntity
  8
CURVE
100
AcDbLine
 62
253
  6
CONTINUOUS
 10
-47.4715091484
 20
-14.50314
 11
-45.6722033597
 21
-15.081685
  0
LINE
  5
40C
100
AcDbEntity
  8
CURVE
100
AcDbLine
 62
253
  6
CONTINUOUS
 10
-44.471857382
 20
-13.83011
 11
-43.1722533444
 21
-14.400443
  0
LINE
  5
40D
100
AcDbEntity
  8
CURVE
100
AcDbLine
 62
253
  6
CONTINUOUS
 10
-44.471857382
 20
-14.574264
 11
-43.1722533444
 21
-15.197131
  0
LINE
  5
40E
100
AcDbEntity
  8
0
100
AcDbLine
 62
7
  6
CONTINUOUS
 10
-37.6300352592
 20
-18.85
 11
-38.2008348986
 21
-18.4940050364
  0
LINE
  5
40F
100
AcDbEntity
  8
0
100
AcDbLine
 62
253
  6
CONTINUOUS
 10
-38.6676978162
 20
-17.6475834572
 11
-38.636723283
 21
-17.6669015493
  0
LINE
  5
410
100
AcDbEntity
  8
0
100
AcDbLine
 62
253
  6
CONTINUOUS
 10
-37.4677619218
 20
-18.3954810856
 11
-37.4318628666
 21
-18.4178704809
  0
LINE
  5
411
100
AcDbEntity
  8
0
100
AcDbLine
 62
253
  6
CONTINUOUS
 10
-37.9013152444
 20
-18.0915357145
 11
-37.467719421
 21
-18.3619592179
  0
LINE
  5
412
100
AcDbEntity
  8
0
100
AcDbLine
 62
7
  6
CONTINUOUS
 10
-50.0244140999
 20
4.5000847926
 11
-50.0244140999
 21
-4.4995242321
  0
LINE
  5
413
100
AcDbEntity
  8
0
100
AcDbLine
 62
253
  6
CONTINUOUS
 10
-49.7744140999
 20
-4.7496245727
 11
-49.7744140999
 21
4.7503754273
  0
LINE
  5
414
100
AcDbEntity
  8
CURVE
100
AcDbLine
 62
7
  6
CONTINUOUS
 10
-47.3517483113
 20
10.2075659919
 11
-47.1248428626
 21
10.4344714406
  0
LINE
  5
415
100
AcDbEntity
  8
CURVE
100
AcDbLine
 62
7
  6
CONTINUOUS
 10
-46.6232199913
 20
10.9360943119
 11
-46.3837260359
 21
11.1755882673
  0
LINE
  5
416
100
AcDbEntity
  8
CURVE
100
AcDbLine
 62
7
  6
CONTINUOUS
 10
-45.8738716488
 20
11.6854426545
 11
-45.6722533444
 21
11.8870609588
  0
LINE
  5
417
100
AcDbEntity
  8
CURVE
100
AcDbLine
 62
253
  6
CONTINUOUS
 10
-44.6722532748
 20
12.8571428061
 11
-44.4580002101
 21
13.0714284182
  0
LINE
  5
418
100
AcDbEntity
  8
CURVE
100
AcDbLine
 62
7
  6
CONTINUOUS
 10
-47.1028467244
 20
10.2075659919
 11
-46.8759412756
 21
10.4344714406
  0
LINE
  5
419
100
AcDbEntity
  8
CURVE
100
AcDbLine
 62
7
  6
CONTINUOUS
 10
-46.3743184043
 20
10.9360943119
 11
-46.134824449
 21
11.1755882673
  0
LINE
  5
41A
100
AcDbEntity
  8
CURVE
100
AcDbLine
 62
7
  6
CONTINUOUS
 10
-45.8738716488
 20
11.4365410675
 11
-45.6722533444
 21
11.6381593718
  0
LINE
  5
41B
100
AcDbEntity
  8
CURVE
100
AcDbLine
 62
253
  6
CONTINUOUS
 10
-43.1724817321
 20
13.9285715818
 11
-43.3867348192
 21
13.7142856121
  0
LINE
  5
41C
100
AcDbEntity
  8
CURVE
100
AcDbLine
 62
7
  6
CONTINUOUS
 10
-46.8539451374
 20
10.2075659919
 11
-46.6270396886
 21
10.4344714406
  0
LINE
  5
41D
100
AcDbEntity
  8
CURVE
100
AcDbLine
 62
7
  6
CONTINUOUS
 10
-46.1254168173
 20
10.9360943119
 11
-45.885922862
 21
11.1755882673
  0
LINE
  5
41E
100
AcDbEntity
  8
CURVE
100
AcDbLine
 62
7
  6
CONTINUOUS
 10
-45.8738716488
 20
11.1876394805
 11
-45.6722533444
 21
11.3892577848
  0
LINE
  5
41F
100
AcDbEntity
  8
CURVE
100
AcDbLine
 62
7
  6
CONTINUOUS
 10
-46.6050435504
 20
10.2075659919
 11
-46.3781381016
 21
10.4344714406
  0
LINE
  5
420
100
AcDbEntity
  8
CURVE
100
AcDbLine
 62
7
  6
CONTINUOUS
 10
-45.8765152303
 20
10.9360943119
 11
-45.6722533444
 21
11.1403561978
  0
LINE
  5
421
100
AcDbEntity
  8
CURVE
100
AcDbLine
 62
7
  6
CONTINUOUS
 10
-47.4717048339
 20
9.0920031214
 11
-47.0076048564
 21
9.5561030989
  0
LINE
  5
422
100
AcDbEntity
  8
CURVE
100
AcDbLine
 62
7
  6
CONTINUOUS
 10
-46.3561419634
 20
10.2075659919
 11
-46.1292365147
 21
10.4344714406
  0
LINE
  5
423
100
AcDbEntity
  8
CURVE
100
AcDbLine
 62
7
  6
CONTINUOUS
 10
-47.3148063683
 20
9.0
 11
-47.0879168008
 21
9.2268895676
  0
LINE
  5
424
100
AcDbEntity
  8
CURVE
100
AcDbLine
 62
7
  6
CONTINUOUS
 10
-47.0203573878
 20
9.2944489805
 11
-46.2972818498
 21
10.0175245185
  0
LINE
  5
425
100
AcDbEntity
  8
CURVE
100
AcDbLine
 62
7
  6
CONTINUOUS
 10
-46.1072403764
 20
10.2075659919
 11
-45.8803349277
 21
10.4344714406
  0
LINE
  5
426
100
AcDbEntity
  8
CURVE
100
AcDbLine
 62
7
  6
CONTINUOUS
 10
-47.0659047813
 20
9.0
 11
-46.8390152138
 21
9.2268895676
  0
LINE
  5
427
100
AcDbEntity
  8
CURVE
100
AcDbLine
 62
7
  6
CONTINUOUS
 10
-46.3068473519
 20
9.7590574295
 11
-45.6722533444
 21
10.3936514369
  0
LINE
  5
428
100
AcDbEntity
  8
CURVE
100
AcDbLine
 62
253
  6
CONTINUOUS
 10
-43.1724817321
 20
12.75
 11
-43.3867348192
 21
12.5357143879
  0
LINE
  5
429
100
AcDbEntity
  8
CURVE
100
AcDbLine
 62
7
  6
CONTINUOUS
 10
-46.8170031944
 20
9.0
 11
-46.5901136268
 21
9.2268895676
  0
LINE
  5
42A
100
AcDbEntity
  8
CURVE
100
AcDbLine
 62
253
  6
CONTINUOUS
 10
-43.8152409711
 20
12.0
 11
-44.0294940806
 21
11.7857142091
  0
LINE
  5
42B
100
AcDbEntity
  8
CURVE
100
AcDbLine
 62
7
  6
CONTINUOUS
 10
-46.5681016074
 20
9.0
 11
-46.3412120398
 21
9.2268895676
  0
LINE
  5
42C
100
AcDbEntity
  8
CURVE
100
AcDbLine
 62
253
  6
CONTINUOUS
 10
-44.4580002101
 20
10.928571403
 11
-44.6722532748
 21
10.7142857909
  0
LINE
  5
42D
100
AcDbEntity
  8
CURVE
100
AcDbLine
 62
7
  6
CONTINUOUS
 10
-46.3192000204
 20
9.0
 11
-46.0923104529
 21
9.2268895676
  0
LINE
  5
42E
100
AcDbEntity
  8
CURVE
100
AcDbLine
 62
7
  6
CONTINUOUS
 10
-46.0702984334
 20
9.0
 11
-45.8434088659
 21
9.2268895676
  0
LINE
  5
42F
100
AcDbEntity
  8
CURVE
100
AcDbLine
 62
253
  6
CONTINUOUS
 10
-44.4580002101
 20
11.9642856717
 11
-44.6722532748
 21
11.7857142091
  0
LINE
  5
430
100
AcDbEntity
  8
CURVE
100
AcDbLine
 62
253
  6
CONTINUOUS
 10
-47.4717048339
 20
9.2546266319
 11
-46.0124840345
 21
10.202527413
  0
LINE
  5
431
100
AcDbEntity
  8
CURVE
100
AcDbLine
 62
253
  6
CONTINUOUS
 10
-43.3867348192
 20
13.7142856121
 11
-43.6009879063
 21
13.6071428061
  0
LINE
  5
432
100
AcDbEntity
  8
CURVE
100
AcDbLine
 62
253
  6
CONTINUOUS
 10
-44.4580002101
 20
13.0714284182
 11
-44.2437471453
 21
13.1785715818
  0
LINE
  5
433
100
AcDbEntity
  8
CURVE
100
AcDbLine
 62
253
  6
CONTINUOUS
 10
-43.3867348192
 20
12.5357143879
 11
-43.6009879063
 21
12.4285715818
  0
LINE
  5
434
100
AcDbEntity
  8
CURVE
100
AcDbLine
 62
253
  6
CONTINUOUS
 10
-45.6722533444
 20
13.0259579198
 11
-47.4717048339
 21
12.3906713657
  0
LINE
  5
435
100
AcDbEntity
  8
CURVE
100
AcDbLine
 62
253
  6
CONTINUOUS
 10
-47.4717048339
 20
12.6503037553
 11
-45.9116743531
 21
13.1646135967
  0
LINE
  5
436
100
AcDbEntity
  8
CURVE
100
AcDbLine
 62
253
  6
CONTINUOUS
 10
-44.471857382
 20
-15.82
 11
-43.1722533444
 21
-15.82
  0
LINE
  5
437
100
AcDbEntity
  8
CURVE
100
AcDbLine
 62
253
  6
CONTINUOUS
 10
-46.4725285172
 20
-12.876128
 11
-47.4715091484
 21
-12.500428
  0
LINE
  5
438
100
AcDbEntity
  8
CURVE
100
AcDbLine
 62
253
  6
CONTINUOUS
 10
-46.8422178805
 20
-12.405126
 11
-45.6722033597
 21
-12.851833
  0
LINE
  5
439
100
AcDbEntity
  8
CURVE
100
AcDbLine
 62
253
  6
CONTINUOUS
 10
-47.6255045689
 20
-0.220257
 11
-47.6255045689
 21
0.220257
  0
LINE
  5
43A
100
AcDbEntity
  8
CURVE
100
AcDbLine
 62
253
  6
CONTINUOUS
 10
-47.4717048339
 20
9.0
 11
-47.4717048339
 21
9.2546266319
  0
LINE
  5
43B
100
AcDbEntity
  8
CURVE
100
AcDbLine
 62
253
  6
CONTINUOUS
 10
-47.4717048339
 20
10.2075659919
 11
-47.4717048339
 21
10.4344714406
  0
LINE
  5
43C
100
AcDbEntity
  8
CURVE
100
AcDbLine
 62
253
  6
CONTINUOUS
 10
-47.4717048339
 20
10.9360943119
 11
-47.4717048339
 21
12.1789472959
  0
LINE
  5
43D
100
AcDbEntity
  8
CURVE
100
AcDbLine
 62
253
  6
CONTINUOUS
 10
-47.4717048339
 20
12.3906713657
 11
-47.4717048339
 21
12.6503037553
  0
LINE
  5
43E
100
AcDbEntity
  8
CURVE
100
AcDbLine
 62
253
  6
CONTINUOUS
 10
-47.4717048339
 20
13.6889667159
 11
-47.4717048339
 21
13.9385717089
  0
LINE
  5
43F
100
AcDbEntity
  8
CURVE
100
AcDbLine
 62
253
  6
CONTINUOUS
 10
-47.4717048339
 20
14.2435851882
 11
-47.4717048339
 21
15.4864222909
  0
LINE
  5
440
100
AcDbEntity
  8
CURVE
100
AcDbLine
 62
253
  6
CONTINUOUS
 10
-47.4716171156
 20
-13.988017
 11
-47.4716171156
 21
-14.363717
  0
LINE
  5
441
100
AcDbEntity
  8
CURVE
100
AcDbLine
 62
253
  6
CONTINUOUS
 10
-47.4715091484
 20
-15.98336
 11
-47.4715091484
 21
-15.575234
  0
LINE
  5
442
100
AcDbEntity
  8
CURVE
100
AcDbLine
 62
253
  6
CONTINUOUS
 10
-47.4715091484
 20
-14.878584
 11
-47.4715091484
 21
-14.50314
  0
LINE
  5
443
100
AcDbEntity
  8
CURVE
100
AcDbLine
 62
253
  6
CONTINUOUS
 10
-47.4715091484
 20
-13.623249
 11
-47.4715091484
 21
-13.24786
  0
LINE
  5
444
100
AcDbEntity
  8
CURVE
100
AcDbLine
 62
253
  6
CONTINUOUS
 10
-47.4715091484
 20
-12.500428
 11
-47.4715091484
 21
-12.128709
  0
LINE
  5
445
100
AcDbEntity
  8
CURVE
100
AcDbLine
 62
253
  6
CONTINUOUS
 10
-47.4715091484
 20
-11.336859
 11
-47.4715091484
 21
-10.973414
  0
LINE
  5
446
100
AcDbEntity
  8
CURVE
100
AcDbLine
 62
253
  6
CONTINUOUS
 10
-47.2700865296
 20
15.4864222909
 11
-47.2700865296
 21
14.4830802023
  0
LINE
  5
447
100
AcDbEntity
  8
CURVE
100
AcDbLine
 62
253
  6
CONTINUOUS
 10
-47.2700865296
 20
12.1789472959
 11
-47.2700865296
 21
11.1755882673
  0
LINE
  5
448
100
AcDbEntity
  8
CURVE
100
AcDbLine
 62
253
  6
CONTINUOUS
 10
-47.1163460764
 20
9.2319450864
 11
-47.1163460764
 21
9.2268895676
  0
LINE
  5
449
100
AcDbEntity
  8
CURVE
100
AcDbLine
 62
7
  6
CONTINUOUS
 10
-45.8213968465
 20
9.0
 11
-45.6722533444
 21
9.149143502
  0
LINE
  5
44A
100
AcDbEntity
  8
CURVE
100
AcDbLine
 62
253
  6
CONTINUOUS
 10
-44.0294940806
 20
10.178571403
 11
-43.8152409711
 21
10.3928571045
  0
LINE
  5
44B
100
AcDbEntity
  8
CURVE
100
AcDbLine
 62
253
  6
CONTINUOUS
 10
-44.6722532748
 20
9.4285714477
 11
-44.4580002101
 21
9.6428571492
  0
LINE
  5
44C
100
AcDbEntity
  8
CURVE
100
AcDbLine
 62
253
  6
CONTINUOUS
 10
-43.1724817321
 20
9.3214285746
 11
-43.3867348192
 21
9.1071428619
  0
LINE
  5
44D
100
AcDbEntity
  8
CURVE
100
AcDbLine
 62
253
  6
CONTINUOUS
 10
-45.6722533444
 20
10.1722789998
 11
-47.1163460764
 21
9.2319450864
  0
LINE
  5
44E
100
AcDbEntity
  8
0
100
AcDbLine
 62
7
  6
CONTINUOUS
 10
-32.9472753076
 20
17.4750021957
 11
-33.2875408443
 21
17.2711750891
  0
LINE
  5
44F
100
AcDbEntity
  8
CURVE
100
AcDbLine
 62
253
  6
CONTINUOUS
 10
-44.4580002101
 20
9.6428571492
 11
-44.2437471453
 21
9.75
  0
LINE
  5
450
100
AcDbEntity
  8
CURVE
100
AcDbLine
 62
253
  6
CONTINUOUS
 10
-43.1722533444
 20
-14.574264
 11
-44.471857382
 21
-14.574264
  0
LINE
  5
451
100
AcDbEntity
  8
CURVE
100
AcDbLine
 62
253
  6
CONTINUOUS
 10
-47.4716171156
 20
-14.363717
 11
-45.6722033597
 21
-14.363717
  0
LINE
  5
452
100
AcDbEntity
  8
CURVE
100
AcDbLine
 62
253
  6
CONTINUOUS
 10
-45.6722033597
 20
-13.988017
 11
-47.4716171156
 21
-13.988017
  0
LINE
  5
453
100
AcDbEntity
  8
CURVE
100
AcDbLine
 62
253
  6
CONTINUOUS
 10
-44.471857382
 20
-13.089593
 11
-43.1722533444
 21
-13.089593
  0
LINE
  5
454
100
AcDbEntity
  8
CURVE
100
AcDbLine
 62
253
  6
CONTINUOUS
 10
-46.8471153883
 20
-13.345267
 11
-45.6722033597
 21
-13.426343
  0
LINE
  5
455
100
AcDbEntity
  8
CURVE
100
AcDbLine
 62
253
  6
CONTINUOUS
 10
-45.6722033597
 20
-13.785766
 11
-47.4715091484
 21
-13.623249
  0
LINE
  5
456
100
AcDbEntity
  8
CURVE
100
AcDbLine
 62
253
  6
CONTINUOUS
 10
-46.9771057829
 20
-11.162195
 11
-46.3093602312
 21
-11.349263
  0
LINE
  5
457
100
AcDbEntity
  8
CURVE
100
AcDbLine
 62
253
  6
CONTINUOUS
 10
-46.0314089172
 20
-11.426114
 11
-45.6722033597
 21
-11.529784
  0
LINE
  5
458
100
AcDbEntity
  8
CURVE
100
AcDbLine
 62
253
  6
CONTINUOUS
 10
-45.6722033597
 20
-11.901408
 11
-47.4715091484
 21
-11.336859
  0
LINE
  5
459
100
AcDbEntity
  8
CURVE
100
AcDbLine
 62
253
  6
CONTINUOUS
 10
-46.6979824589
 20
11.1755882673
 11
-46.6979824589
 21
12.1108836018
  0
LINE
  5
45A
100
AcDbEntity
  8
CURVE
100
AcDbLine
 62
253
  6
CONTINUOUS
 10
-46.6979824589
 20
14.4830802023
 11
-46.6979824589
 21
15.418408358
  0
LINE
  5
45B
100
AcDbEntity
  8
CURVE
100
AcDbLine
 62
253
  6
CONTINUOUS
 10
-46.6710343896
 20
-9.7344104162
 11
-46.6710343896
 21
-9.9491192989
  0
LINE
  5
45C
100
AcDbEntity
  8
CURVE
100
AcDbLine
 62
253
  6
CONTINUOUS
 10
-46.4963641546
 20
15.418408358
 11
-46.4963641546
 21
14.4830802023
  0
LINE
  5
45D
100
AcDbEntity
  8
CURVE
100
AcDbLine
 62
253
  6
CONTINUOUS
 10
-46.4963641546
 20
12.1108836018
 11
-46.4963641546
 21
11.1755882673
  0
LINE
  5
45E
100
AcDbEntity
  8
CURVE
100
AcDbLine
 62
253
  6
CONTINUOUS
 10
-46.3763516062
 20
-9.9366616487
 11
-46.3763516062
 21
-9.7352202309
  0
LINE
  5
45F
100
AcDbEntity
  8
CURVE
100
AcDbLine
 62
253
  6
CONTINUOUS
 10
-46.3093602312
 20
-11.349263
 11
-46.3093602312
 21
-10.989556
  0
LINE
  5
460
100
AcDbEntity
  8
CURVE
100
AcDbLine
 62
253
  6
CONTINUOUS
 10
-46.0314089172
 20
-10.914473
 11
-46.0314089172
 21
-11.426114
  0
LINE
  5
461
100
AcDbEntity
  8
CURVE
100
AcDbLine
 62
253
  6
CONTINUOUS
 10
-46.0124840345
 20
10.202527413
 11
-46.0124840345
 21
10.2075659919
  0
LINE
  5
462
100
AcDbEntity
  8
CURVE
100
AcDbLine
 62
253
  6
CONTINUOUS
 10
-45.9116743531
 20
13.1646135967
 11
-45.9116743531
 21
13.1696680567
  0
LINE
  5
463
100
AcDbEntity
  8
CURVE
100
AcDbLine
 62
253
  6
CONTINUOUS
 10
-45.8738716488
 20
11.1755882673
 11
-45.8738716488
 21
12.1865131048
  0
LINE
  5
464
100
AcDbEntity
  8
CURVE
100
AcDbLine
 62
253
  6
CONTINUOUS
 10
-45.8738716488
 20
14.4830802023
 11
-45.8738716488
 21
15.494037861
  0
LINE
  5
465
100
AcDbEntity
  8
CURVE
100
AcDbLine
 62
253
  6
CONTINUOUS
 10
-45.6722533444
 20
15.494037861
 11
-45.6722533444
 21
14.2435851882
  0
LINE
  5
466
100
AcDbEntity
  8
CURVE
100
AcDbLine
 62
253
  6
CONTINUOUS
 10
-45.6722533444
 20
13.2982126959
 11
-45.6722533444
 21
13.0259579198
  0
LINE
  5
467
100
AcDbEntity
  8
CURVE
100
AcDbLine
 62
253
  6
CONTINUOUS
 10
-45.6722533444
 20
12.1865131048
 11
-45.6722533444
 21
10.9360943119
  0
LINE
  5
468
100
AcDbEntity
  8
CURVE
100
AcDbLine
 62
253
  6
CONTINUOUS
 10
-45.6722533444
 20
10.4344714406
 11
-45.6722533444
 21
10.1722789998
  0
LINE
  5
469
100
AcDbEntity
  8
CURVE
100
AcDbLine
 62
253
  6
CONTINUOUS
 10
-45.6722533444
 20
9.2268895676
 11
-45.6722533444
 21
9.0
  0
LINE
  5
46A
100
AcDbEntity
  8
CURVE
100
AcDbLine
 62
253
  6
CONTINUOUS
 10
-45.6722033597
 20
-14.363717
 11
-45.6722033597
 21
-13.988017
  0
LINE
  5
46B
100
AcDbEntity
  8
CURVE
100
AcDbLine
 62
253
  6
CONTINUOUS
 10
-45.6722033597
 20
-10.421174
 11
-45.6722033597
 21
-10.817147
  0
LINE
  5
46C
100
AcDbEntity
  8
CURVE
100
AcDbLine
 62
253
  6
CONTINUOUS
 10
-45.6722033597
 20
-11.529784
 11
-45.6722033597
 21
-11.901408
  0
LINE
  5
46D
100
AcDbEntity
  8
CURVE
100
AcDbLine
 62
253
  6
CONTINUOUS
 10
-45.6722033597
 20
-11.960403
 11
-45.6722033597
 21
-12.327937
  0
LINE
  5
46E
100
AcDbEntity
  8
CURVE
100
AcDbLine
 62
253
  6
CONTINUOUS
 10
-45.6722033597
 20
-12.851833
 11
-45.6722033597
 21
-12.904525
  0
LINE
  5
46F
100
AcDbEntity
  8
CURVE
100
AcDbLine
 62
253
  6
CONTINUOUS
 10
-45.6722033597
 20
-13.426343
 11
-45.6722033597
 21
-13.785766
  0
LINE
  5
470
100
AcDbEntity
  8
CURVE
100
AcDbLine
 62
253
  6
CONTINUOUS
 10
-45.6722033597
 20
-15.081685
 11
-45.6722033597
 21
-15.412771
  0
LINE
  5
471
100
AcDbEntity
  8
CURVE
100
AcDbLine
 62
253
  6
CONTINUOUS
 10
-45.6722027775
 20
-10.3108500485
 11
-45.6722027775
 21
-9.9366616487
  0
LINE
  5
472
100
AcDbEntity
  8
CURVE
100
AcDbLine
 62
253
  6
CONTINUOUS
 10
-45.6722027775
 20
-9.3613287632
 11
-45.6722027775
 21
-8.9999489333
  0
LINE
  5
473
100
AcDbEntity
  8
0
100
AcDbLine
 62
7
  6
CONTINUOUS
 10
-31.0222533444
 20
18.95
 11
-31.1222533444
 21
18.85
  0
LINE
  5
474
100
AcDbEntity
  8
ASSI
100
AcDbLine
 62
7
  6
CONTINUOUS
 10
-31.1222533444
 20
18.85
 11
-30.1722533444
 21
19.8
  0
LINE
  5
475
100
AcDbEntity
  8
RACCORDO
100
AcDbLine
 62
7
  6
CONTINUOUS
 10
-30.7222533444
 20
19.25
 11
-30.1722533444
 21
19.8
  0
LINE
  5
476
100
AcDbEntity
  8
CURVE
100
AcDbLine
 62
253
  6
CONTINUOUS
 10
-43.3867348192
 20
9.1071428619
 11
-43.6009879063
 21
9.0
  0
LINE
  5
477
100
AcDbEntity
  8
CURVE
100
AcDbLine
 62
253
  6
CONTINUOUS
 10
-47.4715091484
 20
-15.575234
 11
-46.2329914991
 21
-15.232149
  0
LINE
  5
478
100
AcDbEntity
  8
CURVE
100
AcDbLine
 62
253
  6
CONTINUOUS
 10
-45.6722033597
 20
-12.327937
 11
-46.8422178805
 21
-12.405126
  0
LINE
  5
479
100
AcDbEntity
  8
CURVE
100
AcDbLine
 62
253
  6
CONTINUOUS
 10
-44.471857382
 20
-11.773245
 11
-43.1722533444
 21
-11.773245
  0
LINE
  5
47A
100
AcDbEntity
  8
ASSI
100
AcDbLine
 62
7
  6
CONTINUOUS
 10
-30.1722533444
 20
-19.8
 11
-30.7222533444
 21
-19.25
  0
LINE
  5
47B
100
AcDbEntity
  8
DRAFT
100
AcDbLine
 62
7
  6
CONTINUOUS
 10
-30.1722533444
 20
-19.8
 11
-31.0222533444
 21
-18.95
  0
LINE
  5
47C
100
AcDbEntity
  8
ASSI
100
AcDbLine
 62
7
  6
CONTINUOUS
 10
-31.1222533444
 20
-18.85
 11
-31.0222533444
 21
-18.95
  0
LINE
  5
47D
100
AcDbEntity
  8
0
100
AcDbLine
 62
7
  6
CONTINUOUS
 10
-31.1222533444
 20
-18.85
 11
-31.0222533444
 21
-18.95
  0
LINE
  5
47E
100
AcDbEntity
  8
CURVE
100
AcDbLine
 62
253
  6
CONTINUOUS
 10
-44.71900212
 20
-0.220257
 11
-44.71900212
 21
0.220257
  0
LINE
  5
47F
100
AcDbEntity
  8
CURVE
100
AcDbLine
 62
253
  6
CONTINUOUS
 10
-44.6722532748
 20
11.7857142091
 11
-44.6722532748
 21
11.3571428061
  0
LINE
  5
480
100
AcDbEntity
  8
CURVE
100
AcDbLine
 62
253
  6
CONTINUOUS
 10
-44.6722532748
 20
10.7142857909
 11
-44.6722532748
 21
10.3928571045
  0
LINE
  5
481
100
AcDbEntity
  8
CURVE
100
AcDbLine
 62
253
  6
CONTINUOUS
 10
-44.6722532748
 20
9.3214285746
 11
-44.6722532748
 21
9.4285714477
  0
LINE
  5
482
100
AcDbEntity
  8
CURVE
100
AcDbLine
 62
253
  6
CONTINUOUS
 10
-44.6722532748
 20
12.75
 11
-44.6722532748
 21
12.8571428061
  0
LINE
  5
483
100
AcDbEntity
  8
CURVE
100
AcDbLine
 62
253
  6
CONTINUOUS
 10
-44.6722532748
 20
13.9285715818
 11
-44.6722532748
 21
14.0357143879
  0
LINE
  5
484
100
AcDbEntity
  8
CURVE
100
AcDbLine
 62
253
  6
CONTINUOUS
 10
-44.6722532748
 20
15.9642856121
 11
-44.6722532748
 21
16.0714287758
  0
LINE
  5
485
100
AcDbEntity
  8
CURVE
100
AcDbLine
 62
253
  6
CONTINUOUS
 10
-44.471857382
 20
-7.375145
 11
-44.471857382
 21
-6.319553
  0
LINE
  5
486
100
AcDbEntity
  8
CURVE
100
AcDbLine
 62
253
  6
CONTINUOUS
 10
-44.471857382
 20
-10.826258
 11
-44.471857382
 21
-11.773245
  0
LINE
  5
487
100
AcDbEntity
  8
CURVE
100
AcDbLine
 62
253
  6
CONTINUOUS
 10
-44.471857382
 20
-12.659757
 11
-44.471857382
 21
-13.089593
  0
LINE
  5
488
100
AcDbEntity
  8
CURVE
100
AcDbLine
 62
253
  6
CONTINUOUS
 10
-44.1729314964
 20
0.475754
 11
-44.1729314964
 21
-0.0
  0
LINE
  5
489
100
AcDbEntity
  8
CURVE
100
AcDbLine
 62
253
  6
CONTINUOUS
 10
-44.0294940806
 20
11.7857142091
 11
-44.0294940806
 21
11.571428597
  0
LINE
  5
48A
100
AcDbEntity
  8
CURVE
100
AcDbLine
 62
253
  6
CONTINUOUS
 10
-43.8220553632
 20
-11.773245
 11
-43.8220553632
 21
-10.892654
  0
LINE
  5
48B
100
AcDbEntity
  8
CURVE
100
AcDbLine
 62
253
  6
CONTINUOUS
 10
-43.8152409711
 20
10.3928571045
 11
-43.8152409711
 21
10.8571429253
  0
LINE
  5
48C
100
AcDbEntity
  8
CURVE
100
AcDbLine
 62
253
  6
CONTINUOUS
 10
-43.643950628
 20
-6.043716
 11
-43.643950628
 21
-5.317059
  0
LINE
  5
48D
100
AcDbEntity
  8
CURVE
100
AcDbLine
 62
253
  6
CONTINUOUS
 10
-43.6365118945
 20
-14.196702
 11
-43.6365118945
 21
-13.463517
  0
LINE
  5
48E
100
AcDbEntity
  8
CURVE
100
AcDbLine
 62
253
  6
CONTINUOUS
 10
-43.4224436633
 20
15.0357141495
 11
-43.4224436633
 21
15.1071431637
  0
LINE
  5
48F
100
AcDbEntity
  8
CURVE
100
AcDbLine
 62
253
  6
CONTINUOUS
 10
-43.2438994259
 20
15.1071431637
 11
-43.2438994259
 21
15.0357141495
  0
LINE
  5
490
100
AcDbEntity
  8
CURVE
100
AcDbLine
 62
253
  6
CONTINUOUS
 10
-47.0903656146
 20
-1.183131
 11
-46.1722533444
 21
-0.0
  0
LINE
  5
491
100
AcDbEntity
  8
0
100
AcDbLine
 62
7
  6
CONTINUOUS
 10
-18.0205675998
 20
14.8503569597
 11
-18.2152655651
 21
14.7900396243
  0
LINE
  5
492
100
AcDbEntity
  8
CURVE
100
AcDbLine
 62
253
  6
CONTINUOUS
 10
-47.4715091484
 20
-12.128709
 11
-45.6722033597
 21
-11.960403
  0
LINE
  5
493
100
AcDbEntity
  8
CURVE
100
AcDbLine
 62
253
  6
CONTINUOUS
 10
-47.450486543
 20
-10.3108500485
 11
-45.6722027775
 21
-10.3108500485
  0
LINE
  5
494
100
AcDbEntity
  8
CURVE
100
AcDbLine
 62
253
  6
CONTINUOUS
 10
-44.471857382
 20
-9.965272
 11
-43.1722533444
 21
-9.965272
  0
LINE
  5
495
100
AcDbEntity
  8
CURVE
100
AcDbLine
 62
253
  6
CONTINUOUS
 10
-46.6710343896
 20
-9.9491192989
 11
-47.1649788646
 21
-9.9491192989
  0
LINE
  5
496
100
AcDbEntity
  8
CURVE
100
AcDbLine
 62
253
  6
CONTINUOUS
 10
-45.6722027775
 20
-9.9366616487
 11
-46.3763516062
 21
-9.9366616487
  0
LINE
  5
497
100
AcDbEntity
  8
CURVE
100
AcDbLine
 62
253
  6
CONTINUOUS
 10
-44.471857382
 20
-9.576944
 11
-43.1722533444
 21
-9.576944
  0
LINE
  5
498
100
AcDbEntity
  8
CURVE
100
AcDbLine
 62
253
  6
CONTINUOUS
 10
-46.5121026814
 20
-9.3449435115
 11
-46.522735009
 21
-9.3449435115
  0
LINE
  5
499
100
AcDbEntity
  8
CURVE
100
AcDbLine
 62
253
  6
CONTINUOUS
 10
-44.471857382
 20
-5.680387
 11
-43.1722533444
 21
-6.250721
  0
LINE
  5
49A
100
AcDbEntity
  8
CURVE
100
AcDbLine
 62
253
  6
CONTINUOUS
 10
-46.1722533444
 20
-0.0
 11
-47.0903656146
 21
1.183131
  0
LINE
  5
49B
100
AcDbEntity
  8
CURVE
100
AcDbLine
 62
253
  6
CONTINUOUS
 10
-43.1724817321
 20
16.0714287758
 11
-43.1724817321
 21
15.9642856121
  0
LINE
  5
49C
100
AcDbEntity
  8
CURVE
100
AcDbLine
 62
253
  6
CONTINUOUS
 10
-43.1724817321
 20
14.0357143879
 11
-43.1724817321
 21
13.9285715818
  0
LINE
  5
49D
100
AcDbEntity
  8
CURVE
100
AcDbLine
 62
253
  6
CONTINUOUS
 10
-43.1724817321
 20
12.8571428061
 11
-43.1724817321
 21
12.75
  0
LINE
  5
49E
100
AcDbEntity
  8
CURVE
100
AcDbLine
 62
253
  6
CONTINUOUS
 10
-43.1724817321
 20
9.4285714477
 11
-43.1724817321
 21
9.3214285746
  0
LINE
  5
49F
100
AcDbEntity
  8
CURVE
100
AcDbLine
 62
253
  6
CONTINUOUS
 10
-43.1724817321
 20
11.3571428061
 11
-43.1724817321
 21
11.8928571939
  0
LINE
  5
4A0
100
AcDbEntity
  8
CURVE
100
AcDbLine
 62
253
  6
CONTINUOUS
 10
-43.1722533444
 20
-13.089593
 11
-43.1722533444
 21
-12.659757
  0
LINE
  5
4A1
100
AcDbEntity
  8
CURVE
100
AcDbLine
 62
253
  6
CONTINUOUS
 10
-43.1722533444
 20
-11.773245
 11
-43.1722533444
 21
-10.813568
  0
LINE
  5
4A2
100
AcDbEntity
  8
CURVE
100
AcDbLine
 62
253
  6
CONTINUOUS
 10
-43.1722533444
 20
-4.861082
 11
-43.1722533444
 21
-4.114148
  0
LINE
  5
4A3
100
AcDbEntity
  8
0
100
AcDbLine
 62
7
  6
CONTINUOUS
 10
-18.0568080152
 20
13.6888931464
 11
-17.8875490204
 21
13.7464994892
  0
LINE
  5
4A4
100
AcDbEntity
  8
CURVE
100
AcDbLine
 62
253
  6
CONTINUOUS
 10
-45.6722033597
 20
-10.817147
 11
-46.0314089172
 21
-10.914473
  0
LINE
  5
4A5
100
AcDbEntity
  8
CURVE
100
AcDbLine
 62
253
  6
CONTINUOUS
 10
-46.3093602312
 20
-10.989556
 11
-46.9771057829
 21
-11.162195
  0
LINE
  5
4A6
100
AcDbEntity
  8
0
100
AcDbLine
 62
7
  6
CONTINUOUS
 10
-23.5722515293
 20
-8.1758515058
 11
-24.0570258536
 21
-8.2012573744
  0
LINE
  5
4A7
100
AcDbEntity
  8
0
100
AcDbLine
 62
7
  6
CONTINUOUS
 10
-22.4956425193
 20
-8.4330334866
 11
-23.88692407
 21
-8.4541253917
  0
LINE
  5
4A8
100
AcDbEntity
  8
CURVE
100
AcDbLine
 62
253
  6
CONTINUOUS
 10
-44.471857382
 20
-8.544819
 11
-43.1722533444
 21
-8.544819
  0
LINE
  5
4A9
100
AcDbEntity
  8
0
100
AcDbLine
 62
7
  6
CONTINUOUS
 10
-32.9472753459
 20
-8.3750010153
 11
-28.3277257697
 21
-8.3748812871
  0
LINE
  5
4AA
100
AcDbEntity
  8
0
100
AcDbLine
 62
7
  6
CONTINUOUS
 10
-33.2816102577
 20
-8.1747264921
 11
-22.7795948865
 21
-8.1754761059
  0
LINE
  5
4AB
100
AcDbEntity
  8
0
100
AcDbLine
 62
253
  6
CONTINUOUS
 10
-33.2863967247
 20
-8.1728159919
 11
-22.7795948865
 21
-8.1728160294
  0
LINE
  5
4AC
100
AcDbEntity
  8
0
100
AcDbLine
 62
253
  6
CONTINUOUS
 10
-38.636723283
 20
-8.1240383277
 11
-37.467719421
 21
-8.1240383277
  0
LINE
  5
4AD
100
AcDbEntity
  8
CURVE
100
AcDbLine
 62
253
  6
CONTINUOUS
 10
-44.471857382
 20
-7.651288
 11
-43.1722533444
 21
-7.651288
  0
LINE
  5
4AE
100
AcDbEntity
  8
0
100
AcDbLine
 62
253
  6
CONTINUOUS
 10
-22.7795339129
 20
-7.4232728903
 11
-33.3497232398
 21
-7.4232728903
  0
LINE
  5
4AF
100
AcDbEntity
  8
0
100
AcDbLine
 62
7
  6
CONTINUOUS
 10
-33.2863967247
 20
-8.1728159919
 11
-33.2816102577
 21
-8.1747264921
  0
LINE
  5
4B0
100
AcDbEntity
  8
CURVE
100
AcDbLine
 62
253
  6
CONTINUOUS
 10
-43.6751351268
 20
-3.476396
 11
-44.471857382
 21
-3.000657
  0
LINE
  5
4B1
100
AcDbEntity
  8
DRAFT
100
AcDbLine
 62
7
  6
CONTINUOUS
 10
-40.1722533444
 20
22.663166622
 11
-40.1722533444
 21
22.4
  0
LINE
  5
4B2
100
AcDbEntity
  8
0
100
AcDbLine
 62
7
  6
CONTINUOUS
 10
-40.1722533444
 20
22.4
 11
-40.1722533444
 21
21.8997711479
  0
LINE
  5
4B3
100
AcDbEntity
  8
RACCORDO
100
AcDbLine
 62
7
  6
CONTINUOUS
 10
-40.1722533444
 20
-21.8997711479
 11
-40.1722533444
 21
21.8997711479
  0
LINE
  5
4B4
100
AcDbEntity
  8
0
100
AcDbLine
 62
7
  6
CONTINUOUS
 10
-40.1722533444
 20
-21.8997711479
 11
-40.1722533444
 21
-22.4
  0
LINE
  5
4B5
100
AcDbEntity
  8
ASSI
100
AcDbLine
 62
7
  6
CONTINUOUS
 10
-40.1722533444
 20
22.6906339487
 11
-40.1722533444
 21
23.5
  0
LINE
  5
4B6
100
AcDbEntity
  8
DRAFT
100
AcDbLine
 62
7
  6
CONTINUOUS
 10
-40.1722533444
 20
22.7070775004
 11
-40.1722533444
 21
23.5
  0
LINE
  5
4B7
100
AcDbEntity
  8
ASSI
100
AcDbLine
 62
7
  6
CONTINUOUS
 10
-40.1722533444
 20
22.663166622
 11
-40.1722533444
 21
-23.5
  0
LINE
  5
4B8
100
AcDbEntity
  8
DRAFT
100
AcDbLine
 62
7
  6
CONTINUOUS
 10
-40.1722533444
 20
-22.4
 11
-40.1722533444
 21
-23.5
  0
LINE
  5
4B9
100
AcDbEntity
  8
0
100
AcDbLine
 62
7
  6
CONTINUOUS
 10
-22.8464756406
 20
-5.8371124907
 11
-22.4286750553
 21
-5.8307786108
  0
LINE
  5
4BA
100
AcDbEntity
  8
0
100
AcDbLine
 62
253
  6
CONTINUOUS
 10
-37.430725696
 20
-7.1682691127
 11
-38.1000529387
 21
-7.1682691127
  0
LINE
  5
4BB
100
AcDbEntity
  8
CURVE
100
AcDbLine
 62
253
  6
CONTINUOUS
 10
-43.1722533444
 20
-6.847348
 11
-44.471857382
 21
-6.847348
  0
LINE
  5
4BC
100
AcDbEntity
  8
0
100
AcDbLine
 62
7
  6
CONTINUOUS
 10
-26.7445243473
 20
-5.7746253779
 11
-22.8080627826
 21
-5.7746253779
  0
LINE
  5
4BD
100
AcDbEntity
  8
0
100
AcDbLine
 62
7
  6
CONTINUOUS
 10
-22.4991624597
 20
-5.7814603983
 11
-19.9829701146
 21
-5.7872335565
  0
LINE
  5
4BE
100
AcDbEntity
  8
0
100
AcDbLine
 62
7
  6
CONTINUOUS
 10
-20.9658172206
 20
-6.3271438899
 11
-22.8464756406
 21
-6.2285827582
  0
LINE
  5
4BF
100
AcDbEntity
  8
0
100
AcDbLine
 62
7
  6
CONTINUOUS
 10
-33.2816102577
 20
-8.1747264928
 11
-32.9472753459
 21
-8.3750010153
  0
LINE
  5
4C0
100
AcDbEntity
  8
ASSI
100
AcDbLine
 62
7
  6
CONTINUOUS
 10
-38.6722533444
 20
18.2498414532
 11
-38.6722533444
 21
-18.2491181437
  0
LINE
  5
4C1
100
AcDbEntity
  8
RACCORDO
100
AcDbLine
 62
7
  6
CONTINUOUS
 10
-38.6722533444
 20
18.2498768163
 11
-38.6722533444
 21
-18.2491181437
  0
LINE
  5
4C2
100
AcDbEntity
  8
0
100
AcDbLine
 62
253
  6
CONTINUOUS
 10
-38.636723283
 20
17.6669022149
 11
-38.636723283
 21
8.1240383277
  0
LINE
  5
4C3
100
AcDbEntity
  8
0
100
AcDbLine
 62
253
  6
CONTINUOUS
 10
-38.636723283
 20
-8.1240383277
 11
-38.636723283
 21
-17.6669015493
  0
LINE
  5
4C4
100
AcDbEntity
  8
0
100
AcDbLine
 62
253
  6
CONTINUOUS
 10
-38.1370278695
 20
-17.6669015493
 11
-38.1370278695
 21
-8.1240383277
  0
LINE
  5
4C5
100
AcDbEntity
  8
0
100
AcDbLine
 62
253
  6
CONTINUOUS
 10
-38.1370278695
 20
8.1240383277
 11
-38.1370278695
 21
17.6669022149
  0
LINE
  5
4C6
100
AcDbEntity
  8
0
100
AcDbLine
 62
7
  6
CONTINUOUS
 10
-18.0859400633
 20
13.9783886748
 11
-17.8948845851
 21
14.0897917046
  0
LINE
  5
4C7
100
AcDbEntity
  8
0
100
AcDbLine
 62
7
  6
CONTINUOUS
 10
-19.263864917
 20
-4.9336431306
 11
-19.4179151516
 21
-4.9359785406
  0
LINE
  5
4C8
100
AcDbEntity
  8
0
100
AcDbLine
 62
7
  6
CONTINUOUS
 10
-22.6446120638
 20
-3.574733425
 11
-22.6946377342
 21
-3.5754918169
  0
LINE
  5
4C9
100
AcDbEntity
  8
CURVE
100
AcDbLine
 62
253
  6
CONTINUOUS
 10
-44.471857382
 20
-4.861082
 11
-43.1722533444
 21
-4.861082
  0
LINE
  5
4CA
100
AcDbEntity
  8
0
100
AcDbLine
 62
7
  6
CONTINUOUS
 10
-49.7744140999
 20
-4.7496245727
 11
-49.6496738816
 21
-4.7496245727
  0
LINE
  5
4CB
100
AcDbEntity
  8
0
100
AcDbLine
 62
253
  6
CONTINUOUS
 10
-37.1505537053
 20
-17.8325
 11
-37.1505062107
 21
-17.8498397662
  0
LINE
  5
4CC
100
AcDbEntity
  8
0
100
AcDbLine
 62
253
  6
CONTINUOUS
 10
-37.150553727
 20
17.8498555921
 11
-37.1505061891
 21
17.8325
  0
LINE
  5
4CD
100
AcDbEntity
  8
0
100
AcDbLine
 62
7
  6
CONTINUOUS
 10
-37.4677652882
 20
18.3954785156
 11
-37.467719421
 21
8.1240383277
  0
LINE
  5
4CE
100
AcDbEntity
  8
0
100
AcDbLine
 62
7
  6
CONTINUOUS
 10
-37.467719421
 20
-8.1240383277
 11
-37.467719421
 21
-18.3619592179
  0
LINE
  5
4CF
100
AcDbEntity
  8
0
100
AcDbLine
 62
253
  6
CONTINUOUS
 10
-37.2029377265
 20
-17.8325
 11
-37.2029377265
 21
-3.6492319078
  0
LINE
  5
4D0
100
AcDbEntity
  8
0
100
AcDbLine
 62
253
  6
CONTINUOUS
 10
-37.2029377265
 20
3.6492319078
 11
-37.2029377265
 21
17.8325
  0
LINE
  5
4D1
100
AcDbEntity
  8
0
100
AcDbLine
 62
253
  6
CONTINUOUS
 10
-36.2043081917
 20
-16.8338723437
 11
-36.2043081917
 21
16.8338723437
  0
LINE
  5
4D2
100
AcDbEntity
  8
ASSI
100
AcDbLine
 62
7
  6
CONTINUOUS
 10
-36.1722533444
 20
23.4650925288
 11
-36.1722533444
 21
21.2139629885
  0
LINE
  5
4D3
100
AcDbEntity
  8
DRAFT
100
AcDbLine
 62
7
  6
CONTINUOUS
 10
-36.1722533444
 20
23.4650925288
 11
-36.1722533444
 21
21.2139629885
  0
LINE
  5
4D4
100
AcDbEntity
  8
DRAFT
100
AcDbLine
 62
7
  6
CONTINUOUS
 10
-36.1722533444
 20
-21.2139629885
 11
-36.1722533444
 21
-22.6454332982
  0
LINE
  5
4D5
100
AcDbEntity
  8
ASSI
100
AcDbLine
 62
7
  6
CONTINUOUS
 10
-36.1722533444
 20
-21.2139629885
 11
-36.1722533444
 21
-23.4650925288
  0
LINE
  5
4D6
100
AcDbEntity
  8
DRAFT
100
AcDbLine
 62
7
  6
CONTINUOUS
 10
-36.1722533444
 20
-22.690632645
 11
-36.1722533444
 21
-23.4650925288
  0
LINE
  5
4D7
100
AcDbEntity
  8
0
100
AcDbLine
 62
253
  6
CONTINUOUS
 10
-36.1519004124
 20
-18.8496953671
 11
-36.1519004124
 21
-16.8325
  0
LINE
  5
4D8
100
AcDbEntity
  8
0
100
AcDbLine
 62
253
  6
CONTINUOUS
 10
-36.1519004124
 20
16.8325
 11
-36.1519004124
 21
18.8496953671
  0
LINE
  5
4D9
100
AcDbEntity
  8
CURVE
100
AcDbLine
 62
7
  6
CONTINUOUS
 10
-47.4794325747
 20
-9.5833436428
 11
-46.9867327137
 21
-9.0906437817
  0
LINE
  5
4DA
100
AcDbEntity
  8
CURVE
100
AcDbLine
 62
7
  6
CONTINUOUS
 10
-47.4955908615
 20
-9.8484035165
 11
-46.7722723659
 21
-9.1250850209
  0
LINE
  5
4DB
100
AcDbEntity
  8
CURVE
100
AcDbLine
 62
7
  6
CONTINUOUS
 10
-47.4803630979
 20
-10.0820773398
 11
-47.1816525151
 21
-9.7833667571
  0
LINE
  5
4DC
100
AcDbEntity
  8
CURVE
100
AcDbLine
 62
7
  6
CONTINUOUS
 10
-46.8539754238
 20
-9.4556896658
 11
-46.6179430198
 21
-9.2196572617
  0
LINE
  5
4DD
100
AcDbEntity
  8
CURVE
100
AcDbLine
 62
7
  6
CONTINUOUS
 10
-47.4516899245
 20
-10.3023057534
 11
-47.0985034699
 21
-9.9491192989
  0
LINE
  5
4DE
100
AcDbEntity
  8
CURVE
100
AcDbLine
 62
7
  6
CONTINUOUS
 10
-46.711308481
 20
-9.56192431
 11
-46.3360817121
 21
-9.1866975411
  0
LINE
  5
4DF
100
AcDbEntity
  8
CURVE
100
AcDbLine
 62
7
  6
CONTINUOUS
 10
-47.2113326326
 20
-10.3108500485
 11
-46.8496018829
 21
-9.9491192989
  0
LINE
  5
4E0
100
AcDbEntity
  8
CURVE
100
AcDbLine
 62
7
  6
CONTINUOUS
 10
-46.6710343896
 20
-9.7705518055
 11
-45.9817885984
 21
-9.0813060143
  0
LINE
  5
4E1
100
AcDbEntity
  8
CURVE
100
AcDbLine
 62
7
  6
CONTINUOUS
 10
-46.9624310456
 20
-10.3108500485
 11
-46.375948755
 21
-9.7243677579
  0
LINE
  5
4E2
100
AcDbEntity
  8
CURVE
100
AcDbLine
 62
7
  6
CONTINUOUS
 10
-46.1550961322
 20
-9.5035151351
 11
-45.6722027775
 21
-9.0206217804
  0
LINE
  5
4E3
100
AcDbEntity
  8
CURVE
100
AcDbLine
 62
7
  6
CONTINUOUS
 10
-47.4715091484
 20
-11.0688297383
 11
-47.3338403166
 21
-10.9311609065
  0
LINE
  5
4E4
100
AcDbEntity
  8
CURVE
100
AcDbLine
 62
7
  6
CONTINUOUS
 10
-46.7135294586
 20
-10.3108500485
 11
-46.3393410588
 21
-9.9366616487
  0
LINE
  5
4E5
100
AcDbEntity
  8
CURVE
100
AcDbLine
 62
7
  6
CONTINUOUS
 10
-45.8016684148
 20
-9.3989890047
 11
-45.6722027775
 21
-9.2695233674
  0
LINE
  5
4E6
100
AcDbEntity
  8
0
100
AcDbLine
 62
7
  6
CONTINUOUS
 10
-18.0862567324
 20
13.991515598
 11
-17.8961484193
 21
14.1120250362
  0
LINE
  5
4E7
100
AcDbEntity
  8
CURVE
100
AcDbLine
 62
253
  6
CONTINUOUS
 10
-44.471857382
 20
-3.952134
 11
-43.6751351268
 21
-3.476396
  0
LINE
  5
4E8
100
AcDbEntity
  8
CURVE
100
AcDbLine
 62
253
  6
CONTINUOUS
 10
-43.1722533444
 20
-3.476396
 11
-43.6751351268
 21
-3.476396
  0
LINE
  5
4E9
100
AcDbEntity
  8
0
100
AcDbLine
 62
253
  6
CONTINUOUS
 10
-28.8658548344
 20
-2.2745664053
 11
-26.7445243473
 21
-2.2745660738
  0
LINE
  5
4EA
100
AcDbEntity
  8
CURVE
100
AcDbLine
 62
253
  6
CONTINUOUS
 10
-44.0294940806
 20
11.7857142091
 11
-44.1366205682
 21
11.9642856717
  0
LINE
  5
4EB
100
AcDbEntity
  8
ASSI
100
AcDbLine
 62
7
  6
CONTINUOUS
 10
-34.5617928539
 20
21.2013465124
 11
-34.5722533444
 21
22.4
  0
LINE
  5
4EC
100
AcDbEntity
  8
RACCORDO
100
AcDbLine
 62
7
  6
CONTINUOUS
 10
-34.5617928539
 20
21.2013465124
 11
-34.5722533444
 21
22.4
  0
LINE
  5
4ED
100
AcDbEntity
  8
0
100
AcDbLine
 62
253
  6
CONTINUOUS
 10
-34.6072601598
 20
18.8496953671
 11
-34.6072601598
 21
16.8325
  0
LINE
  5
4EE
100
AcDbEntity
  8
0
100
AcDbLine
 62
253
  6
CONTINUOUS
 10
-34.6072601598
 20
-16.8325
 11
-34.6072601598
 21
-18.8496953671
  0
LINE
  5
4EF
100
AcDbEntity
  8
0
100
AcDbLine
 62
253
  6
CONTINUOUS
 10
-34.5197714963
 20
16.8363053019
 11
-34.5197714963
 21
-16.8363053019
  0
LINE
  5
4F0
100
AcDbEntity
  8
ASSI
100
AcDbLine
 62
7
  6
CONTINUOUS
 10
-34.5617928539
 20
-21.2013465124
 11
-34.5722533444
 21
-22.4
  0
LINE
  5
4F1
100
AcDbEntity
  8
RACCORDO
100
AcDbLine
 62
7
  6
CONTINUOUS
 10
-34.5617803055
 20
-21.1999086032
 11
-34.5722533444
 21
-22.4
  0
LINE
  5
4F2
100
AcDbEntity
  8
CURVE
100
AcDbLine
 62
7
  6
CONTINUOUS
 10
-47.4715091484
 20
-11.3177313253
 11
-46.9747172693
 21
-10.8209394462
  0
LINE
  5
4F3
100
AcDbEntity
  8
CURVE
100
AcDbLine
 62
7
  6
CONTINUOUS
 10
-46.4646278716
 20
-10.3108500485
 11
-46.0904394718
 21
-9.9366616487
  0
LINE
  5
4F4
100
AcDbEntity
  8
CURVE
100
AcDbLine
 62
7
  6
CONTINUOUS
 10
-47.2966111249
 20
-11.3917348888
 11
-46.615594222
 21
-10.7107179858
  0
LINE
  5
4F5
100
AcDbEntity
  8
CURVE
100
AcDbLine
 62
7
  6
CONTINUOUS
 10
-46.2157262847
 20
-10.3108500485
 11
-45.8415378849
 21
-9.9366616487
  0
LINE
  5
4F6
100
AcDbEntity
  8
CURVE
100
AcDbLine
 62
7
  6
CONTINUOUS
 10
-47.1071536047
 20
-11.4511789556
 11
-46.8529513447
 21
-11.1969766955
  0
LINE
  5
4F7
100
AcDbEntity
  8
CURVE
100
AcDbLine
 62
7
  6
CONTINUOUS
 10
-46.7627501135
 20
-11.1067754644
 11
-46.2564711746
 21
-10.6004965255
  0
LINE
  5
4F8
100
AcDbEntity
  8
CURVE
100
AcDbLine
 62
7
  6
CONTINUOUS
 10
-45.9668246977
 20
-10.3108500485
 11
-45.6722027775
 21
-10.0162281283
  0
LINE
  5
4F9
100
AcDbEntity
  8
CURVE
100
AcDbLine
 62
7
  6
CONTINUOUS
 10
-46.9176960846
 20
-11.5106230224
 11
-46.6585195564
 21
-11.2514464942
  0
LINE
  5
4FA
100
AcDbEntity
  8
CURVE
100
AcDbLine
 62
7
  6
CONTINUOUS
 10
-46.4270588831
 20
-11.019985821
 11
-45.8973481273
 21
-10.4902750651
  0
LINE
  5
4FB
100
AcDbEntity
  8
CURVE
100
AcDbLine
 62
7
  6
CONTINUOUS
 10
-45.7179231107
 20
-10.3108500485
 11
-45.6722027775
 21
-10.2651297153
  0
LINE
  5
4FC
100
AcDbEntity
  8
CURVE
100
AcDbLine
 62
7
  6
CONTINUOUS
 10
-47.4715091484
 20
-12.3133376732
 11
-47.2678282879
 21
-12.1096568127
  0
LINE
  5
4FD
100
AcDbEntity
  8
CURVE
100
AcDbLine
 62
7
  6
CONTINUOUS
 10
-46.7282385644
 20
-11.5700670892
 11
-46.4640877681
 21
-11.3059162929
  0
LINE
  5
4FE
100
AcDbEntity
  8
CURVE
100
AcDbLine
 62
7
  6
CONTINUOUS
 10
-46.3093602312
 20
-11.1511887559
 11
-45.6722033597
 21
-10.5140318844
  0
LINE
  5
4FF
100
AcDbEntity
  8
CURVE
100
AcDbLine
 62
7
  6
CONTINUOUS
 10
-47.4265908959
 20
-12.5173210077
 11
-46.9932420682
 21
-12.08397218
  0
LINE
  5
500
100
AcDbEntity
  8
CURVE
100
AcDbLine
 62
7
  6
CONTINUOUS
 10
-46.5387810443
 20
-11.629511156
 11
-46.0314089172
 21
-11.1221390289
  0
LINE
  5
501
100
AcDbEntity
  8
CURVE
100
AcDbLine
 62
7
  6
CONTINUOUS
 10
-45.7465650278
 20
-10.8372951396
 11
-45.6722033597
 21
-10.7629334714
  0
LINE
  5
502
100
AcDbEntity
  8
CURVE
100
AcDbLine
 62
7
  6
CONTINUOUS
 10
-47.2457140735
 20
-12.5853457722
 11
-46.7186558486
 21
-12.0582875473
  0
LINE
  5
503
100
AcDbEntity
  8
CURVE
100
AcDbLine
 62
7
  6
CONTINUOUS
 10
-46.3493235241
 20
-11.6889552229
 11
-46.0314089172
 21
-11.3710406159
  0
LINE
  5
504
100
AcDbEntity
  8
CURVE
100
AcDbLine
 62
7
  6
CONTINUOUS
 10
-47.064837251
 20
-12.6533705367
 11
-46.8236730562
 21
-12.4122063419
  0
LINE
  5
505
100
AcDbEntity
  8
CURVE
100
AcDbLine
 62
7
  6
CONTINUOUS
 10
-46.8147827447
 20
-12.4033160304
 11
-46.4440696289
 21
-12.0326029146
  0
LINE
  5
506
100
AcDbEntity
  8
CURVE
100
AcDbLine
 62
7
  6
CONTINUOUS
 10
-46.159866004
 20
-11.7483992897
 11
-45.880992317
 21
-11.4695256027
  0
LINE
  5
507
100
AcDbEntity
  8
CURVE
100
AcDbLine
 62
7
  6
CONTINUOUS
 10
-47.4715091484
 20
-13.3089440211
 11
-47.3742243543
 21
-13.2116592269
  0
LINE
  5
508
100
AcDbEntity
  8
CURVE
100
AcDbLine
 62
7
  6
CONTINUOUS
 10
-46.8839604285
 20
-12.7213953012
 11
-46.6435440313
 21
-12.480978904
  0
LINE
  5
509
100
AcDbEntity
  8
CURVE
100
AcDbLine
 62
7
  6
CONTINUOUS
 10
-46.5483006161
 20
-12.3857354888
 11
-46.1694834092
 21
-12.0069182819
  0
LINE
  5
50A
100
AcDbEntity
  8
CURVE
100
AcDbLine
 62
7
  6
CONTINUOUS
 10
-45.9704084838
 20
-11.8078433565
 11
-45.6878370901
 21
-11.5252719628
  0
LINE
  5
50B
100
AcDbEntity
  8
CURVE
100
AcDbLine
 62
7
  6
CONTINUOUS
 10
-47.4715091484
 20
-13.5578456081
 11
-46.9778139803
 21
-13.06415044
  0
LINE
  5
50C
100
AcDbEntity
  8
CURVE
100
AcDbLine
 62
7
  6
CONTINUOUS
 10
-46.7030836061
 20
-12.7894200657
 11
-46.4634150065
 21
-12.5497514661
  0
LINE
  5
50D
100
AcDbEntity
  8
CURVE
100
AcDbLine
 62
7
  6
CONTINUOUS
 10
-46.2818184874
 20
-12.3681549471
 11
-45.8948971896
 21
-11.9812336492
  0
LINE
  5
50E
100
AcDbEntity
  8
CURVE
100
AcDbLine
 62
7
  6
CONTINUOUS
 10
-45.7809509637
 20
-11.8672874233
 11
-45.6722033597
 21
-11.7585398193
  0
LINE
  5
50F
100
AcDbEntity
  8
CURVE
100
AcDbLine
 62
7
  6
CONTINUOUS
 10
-47.3032119064
 20
-13.6384499531
 11
-46.5814036064
 21
-12.916641653
  0
LINE
  5
510
100
AcDbEntity
  8
CURVE
100
AcDbLine
 62
7
  6
CONTINUOUS
 10
-46.5222067836
 20
-12.8574448303
 11
-46.2832859816
 21
-12.6185240282
  0
LINE
  5
511
100
AcDbEntity
  8
CURVE
100
AcDbLine
 62
7
  6
CONTINUOUS
 10
-46.0153363588
 20
-12.3505744054
 11
-45.6722033597
 21
-12.0074414063
  0
LINE
  5
512
100
AcDbEntity
  8
CURVE
100
AcDbLine
 62
253
  6
CONTINUOUS
 10
-47.6255045689
 20
-0.0
 11
-44.71900212
 21
-0.0
  0
LINE
  5
513
100
AcDbEntity
  8
0
100
AcDbLine
 62
7
  6
CONTINUOUS
 10
-29.1942718156
 20
-4.5675185967
 11
-28.8658446909
 21
-4.8959457215
  0
LINE
  5
514
100
AcDbEntity
  8
CURVE
100
AcDbLine
 62
253
  6
CONTINUOUS
 10
-44.4580002101
 20
9.1071428619
 11
-44.6722532748
 21
9.3214285746
  0
LINE
  5
515
100
AcDbEntity
  8
CURVE
100
AcDbLine
 62
253
  6
CONTINUOUS
 10
-44.6722532748
 20
10.3928571045
 11
-44.4580002101
 21
10.178571403
  0
LINE
  5
516
100
AcDbEntity
  8
CURVE
100
AcDbLine
 62
253
  6
CONTINUOUS
 10
-43.3867348192
 20
9.6428571492
 11
-43.1724817321
 21
9.4285714477
  0
LINE
  5
517
100
AcDbEntity
  8
0
100
AcDbLine
 62
253
  6
CONTINUOUS
 10
-33.6110654617
 20
-17.849847672
 11
-33.6110654617
 21
-17.8325
  0
LINE
  5
518
100
AcDbEntity
  8
0
100
AcDbLine
 62
253
  6
CONTINUOUS
 10
-33.6110654617
 20
17.8325
 11
-33.6110654617
 21
17.849847672
  0
LINE
  5
519
100
AcDbEntity
  8
0
100
AcDbLine
 62
253
  6
CONTINUOUS
 10
-33.5235767982
 20
-17.8325
 11
-33.5235767982
 21
17.8325
  0
LINE
  5
51A
100
AcDbEntity
  8
0
100
AcDbLine
 62
7
  6
CONTINUOUS
 10
-33.3497232398
 20
-7.4232728293
 11
-33.3497232398
 21
16.5222029339
  0
LINE
  5
51B
100
AcDbEntity
  8
0
100
AcDbLine
 62
7
  6
CONTINUOUS
 10
-32.9472753459
 20
-8.3750010153
 11
-32.9472753459
 21
-17.9822819681
  0
LINE
  5
51C
100
AcDbEntity
  8
0
100
AcDbLine
 62
7
  6
CONTINUOUS
 10
-32.9472753459
 20
17.4750021728
 11
-32.9472753459
 21
17.9822819681
  0
LINE
  5
51D
100
AcDbEntity
  8
0
100
AcDbLine
 62
7
  6
CONTINUOUS
 10
-32.6138794101
 20
-8.1747264945
 11
-32.6138794101
 21
-8.1754760707
  0
LINE
  5
51E
100
AcDbEntity
  8
CURVE
100
AcDbLine
 62
7
  6
CONTINUOUS
 10
-47.4716171156
 20
-14.0557567492
 11
-47.4038773664
 21
-13.988017
  0
LINE
  5
51F
100
AcDbEntity
  8
CURVE
100
AcDbLine
 62
7
  6
CONTINUOUS
 10
-47.0749292762
 20
-13.6590689098
 11
-46.7666780282
 21
-13.3508176619
  0
LINE
  5
520
100
AcDbEntity
  8
CURVE
100
AcDbLine
 62
7
  6
CONTINUOUS
 10
-46.7095064458
 20
-13.2936460794
 11
-46.1031569567
 21
-12.6872965904
  0
LINE
  5
521
100
AcDbEntity
  8
CURVE
100
AcDbLine
 62
7
  6
CONTINUOUS
 10
-45.7488542301
 20
-12.3329938638
 11
-45.6722033597
 21
-12.2563429933
  0
LINE
  5
522
100
AcDbEntity
  8
CURVE
100
AcDbLine
 62
7
  6
CONTINUOUS
 10
-47.4716171156
 20
-14.3046583362
 11
-47.1549757794
 21
-13.988017
  0
LINE
  5
523
100
AcDbEntity
  8
CURVE
100
AcDbLine
 62
7
  6
CONTINUOUS
 10
-46.846646646
 20
-13.6796878666
 11
-46.5338434297
 21
-13.3668846503
  0
LINE
  5
524
100
AcDbEntity
  8
CURVE
100
AcDbLine
 62
7
  6
CONTINUOUS
 10
-46.3111825466
 20
-13.1442237672
 11
-45.9230279319
 21
-12.7560691525
  0
LINE
  5
525
100
AcDbEntity
  8
CURVE
100
AcDbLine
 62
7
  6
CONTINUOUS
 10
-47.4715091484
 20
-14.553451956
 11
-47.4334383855
 21
-14.5153811931
  0
LINE
  5
526
100
AcDbEntity
  8
CURVE
100
AcDbLine
 62
7
  6
CONTINUOUS
 10
-47.2817741924
 20
-14.363717
 11
-46.9060741924
 21
-13.988017
  0
LINE
  5
527
100
AcDbEntity
  8
CURVE
100
AcDbLine
 62
7
  6
CONTINUOUS
 10
-46.6183640157
 20
-13.7003068233
 11
-46.3010088311
 21
-13.3829516386
  0
LINE
  5
528
100
AcDbEntity
  8
CURVE
100
AcDbLine
 62
7
  6
CONTINUOUS
 10
-45.9128586474
 20
-12.9948014549
 11
-45.742898907
 21
-12.8248417146
  0
LINE
  5
529
100
AcDbEntity
  8
CURVE
100
AcDbLine
 62
7
  6
CONTINUOUS
 10
-47.4715091484
 20
-14.802353543
 11
-47.2450960099
 21
-14.5759404045
  0
LINE
  5
52A
100
AcDbEntity
  8
CURVE
100
AcDbLine
 62
7
  6
CONTINUOUS
 10
-47.0328726054
 20
-14.363717
 11
-46.6571726054
 21
-13.988017
  0
LINE
  5
52B
100
AcDbEntity
  8
CURVE
100
AcDbLine
 62
7
  6
CONTINUOUS
 10
-46.3900813855
 20
-13.72092578
 11
-46.0681742325
 21
-13.399018627
  0
LINE
  5
52C
100
AcDbEntity
  8
CURVE
100
AcDbLine
 62
7
  6
CONTINUOUS
 10
-47.3371843117
 20
-14.9169302932
 11
-47.0567536344
 21
-14.6364996159
  0
LINE
  5
52D
100
AcDbEntity
  8
CURVE
100
AcDbLine
 62
7
  6
CONTINUOUS
 10
-46.7839710185
 20
-14.363717
 11
-46.4082710185
 21
-13.988017
  0
LINE
  5
52E
100
AcDbEntity
  8
CURVE
100
AcDbLine
 62
7
  6
CONTINUOUS
 10
-46.1617987552
 20
-13.7415447368
 11
-45.8353396339
 21
-13.4150856154
  0
LINE
  5
52F
100
AcDbEntity
  8
CURVE
100
AcDbLine
 62
7
  6
CONTINUOUS
 10
-47.143558052
 20
-14.9722056205
 11
-46.8684112588
 21
-14.6970588273
  0
LINE
  5
530
100
AcDbEntity
  8
CURVE
100
AcDbLine
 62
7
  6
CONTINUOUS
 10
-46.5350694315
 20
-14.363717
 11
-46.1593694315
 21
-13.988017
  0
LINE
  5
531
100
AcDbEntity
  8
CURVE
100
AcDbLine
 62
7
  6
CONTINUOUS
 10
-45.933516125
 20
-13.7621636935
 11
-45.6722033597
 21
-13.5008509282
  0
LINE
  5
532
100
AcDbEntity
  8
CURVE
100
AcDbLine
 62
7
  6
CONTINUOUS
 10
-46.9499317924
 20
-15.0274809479
 11
-46.6800688832
 21
-14.7576180387
  0
LINE
  5
533
100
AcDbEntity
  8
CURVE
100
AcDbLine
 62
7
  6
CONTINUOUS
 10
-46.2861678445
 20
-14.363717
 11
-45.9104678445
 21
-13.988017
  0
LINE
  5
534
100
AcDbEntity
  8
CURVE
100
AcDbLine
 62
7
  6
CONTINUOUS
 10
-45.7052334948
 20
-13.7827826503
 11
-45.6722033597
 21
-13.7497525152
  0
LINE
  5
535
100
AcDbEntity
  8
CURVE
100
AcDbLine
 62
7
  6
CONTINUOUS
 10
-47.4715091484
 20
-15.7979598909
 11
-47.1634458373
 21
-15.4898965798
  0
LINE
  5
536
100
AcDbEntity
  8
CURVE
100
AcDbLine
 62
7
  6
CONTINUOUS
 10
-46.7563055328
 20
-15.0827562752
 11
-46.4917265077
 21
-14.8181772502
  0
LINE
  5
537
100
AcDbEntity
  8
CURVE
100
AcDbLine
 62
7
  6
CONTINUOUS
 10
-46.0372662575
 20
-14.363717
 11
-45.6722033597
 21
-13.9986541021
  0
LINE
  5
538
100
AcDbEntity
  8
CURVE
100
AcDbLine
 62
7
  6
CONTINUOUS
 10
-47.3785189836
 20
-15.953871313
 11
-46.8191776127
 21
-15.3945299422
  0
LINE
  5
539
100
AcDbEntity
  8
CURVE
100
AcDbLine
 62
7
  6
CONTINUOUS
 10
-46.5626792731
 20
-15.1380316026
 11
-46.3033841321
 21
-14.8787364616
  0
LINE
  5
53A
100
AcDbEntity
  8
CURVE
100
AcDbLine
 62
7
  6
CONTINUOUS
 10
-45.7883646706
 20
-14.363717
 11
-45.6722033597
 21
-14.2475556891
  0
LINE
  5
53B
100
AcDbEntity
  8
CURVE
100
AcDbLine
 62
7
  6
CONTINUOUS
 10
-47.0140329845
 20
-15.838286901
 11
-46.4749093881
 21
-15.2991633046
  0
LINE
  5
53C
100
AcDbEntity
  8
CURVE
100
AcDbLine
 62
7
  6
CONTINUOUS
 10
-46.3690530135
 20
-15.1933069299
 11
-46.1150417566
 21
-14.939295673
  0
LINE
  5
53D
100
AcDbEntity
  8
CURVE
100
AcDbLine
 62
7
  6
CONTINUOUS
 10
-46.6495469855
 20
-15.7227024889
 11
-45.926699381
 21
-14.9998548844
  0
LINE
  5
53E
100
AcDbEntity
  8
CURVE
100
AcDbLine
 62
253
  6
CONTINUOUS
 10
-43.1722533444
 20
-8.544819
 11
-44.471857382
 21
-9.576944
  0
LINE
  5
53F
100
AcDbEntity
  8
CURVE
100
AcDbLine
 62
253
  6
CONTINUOUS
 10
-43.1722533444
 20
-5.110054
 11
-44.471857382
 21
-5.680387
  0
LINE
  5
540
100
AcDbEntity
  8
0
100
AcDbLine
 62
7
  6
CONTINUOUS
 10
-22.8464756406
 20
1.5293327785
 11
-19.4269922793
 21
1.7085404473
  0
LINE
  5
541
100
AcDbEntity
  8
0
100
AcDbLine
 62
7
  6
CONTINUOUS
 10
-19.1640301596
 20
1.2085023699
 11
-22.60342963
 21
1.0962962512
  0
LINE
  5
542
100
AcDbEntity
  8
0
100
AcDbLine
 62
7
  6
CONTINUOUS
 10
-22.8080627826
 20
1.2254330435
 11
-26.7445243473
 21
1.2254330435
  0
LINE
  5
543
100
AcDbEntity
  8
CURVE
100
AcDbLine
 62
253
  6
CONTINUOUS
 10
-43.1724817321
 20
10.3928571045
 11
-43.6009879063
 21
10.821428597
  0
LINE
  5
544
100
AcDbEntity
  8
CURVE
100
AcDbLine
 62
253
  6
CONTINUOUS
 10
-44.4580002101
 20
12.5357143879
 11
-44.6722532748
 21
12.75
  0
LINE
  5
545
100
AcDbEntity
  8
CURVE
100
AcDbLine
 62
253
  6
CONTINUOUS
 10
-43.1724817321
 20
11.8928571939
 11
-43.2796082757
 21
12.0
  0
LINE
  5
546
100
AcDbEntity
  8
ASSI
100
AcDbLine
 62
7
  6
CONTINUOUS
 10
-30.1722533444
 20
20.1483339502
 11
-30.1722533444
 21
19.8
  0
LINE
  5
547
100
AcDbEntity
  8
DRAFT
100
AcDbLine
 62
7
  6
CONTINUOUS
 10
-30.1722533444
 20
20.1483339502
 11
-30.1722533444
 21
19.8
  0
LINE
  5
548
100
AcDbEntity
  8
ASSI
100
AcDbLine
 62
7
  6
CONTINUOUS
 10
-30.1722533444
 20
-19.8
 11
-30.1722533444
 21
-20.1483339502
  0
LINE
  5
549
100
AcDbEntity
  8
DRAFT
100
AcDbLine
 62
7
  6
CONTINUOUS
 10
-30.1722533444
 20
-19.8
 11
-30.1722533444
 21
-20.1483339502
  0
LINE
  5
54A
100
AcDbEntity
  8
0
100
AcDbLine
 62
7
  6
CONTINUOUS
 10
-30.4722523629
 20
17.4750021727
 11
-30.4775897927
 21
17.2711750891
  0
LINE
  5
54B
100
AcDbEntity
  8
CURVE
100
AcDbLine
 62
7
  6
CONTINUOUS
 10
-46.2850609865
 20
-15.6071180769
 11
-45.7383570055
 21
-15.0604140958
  0
LINE
  5
54C
100
AcDbEntity
  8
CURVE
100
AcDbLine
 62
7
  6
CONTINUOUS
 10
-45.9205749874
 20
-15.4915336648
 11
-45.6722033597
 21
-15.243162037
  0
LINE
  5
54D
100
AcDbEntity
  8
0
100
AcDbLine
 62
7
  6
CONTINUOUS
 10
-28.8658446909
 20
0.3467533871
 11
-29.1942718156
 21
0.0183262624
  0
LINE
  5
54E
100
AcDbEntity
  8
0
100
AcDbLine
 62
253
  6
CONTINUOUS
 10
-18.6564309374
 20
1.8189149054
 11
-18.6590725696
 21
1.8192276123
  0
LINE
  5
54F
100
AcDbEntity
  8
CURVE
100
AcDbLine
 62
253
  6
CONTINUOUS
 10
-44.2437471453
 20
9.0
 11
-44.4580002101
 21
9.1071428619
  0
LINE
  5
550
100
AcDbEntity
  8
CURVE
100
AcDbLine
 62
253
  6
CONTINUOUS
 10
-44.4580002101
 20
13.7142856121
 11
-44.6722532748
 21
13.9285715818
  0
LINE
  5
551
100
AcDbEntity
  8
CURVE
100
AcDbLine
 62
253
  6
CONTINUOUS
 10
-43.3867348192
 20
13.0714284182
 11
-43.1724817321
 21
12.8571428061
  0
LINE
  5
552
100
AcDbEntity
  8
CURVE
100
AcDbLine
 62
253
  6
CONTINUOUS
 10
-43.3867348192
 20
14.25
 11
-43.1724817321
 21
14.0357143879
  0
LINE
  5
553
100
AcDbEntity
  8
CURVE
100
AcDbLine
 62
253
  6
CONTINUOUS
 10
-44.4580002101
 20
15.75
 11
-44.6722532748
 21
15.9642856121
  0
LINE
  5
554
100
AcDbEntity
  8
0
100
AcDbLine
 62
7
  6
CONTINUOUS
 10
-29.4871650344
 20
-3.8604118155
 11
-29.4871650344
 21
-0.6887805188
  0
LINE
  5
555
100
AcDbEntity
  8
0
100
AcDbLine
 62
253
  6
CONTINUOUS
 10
-29.1942718156
 20
-4.5675185967
 11
-29.1942718156
 21
0.0183262624
  0
LINE
  5
556
100
AcDbEntity
  8
0
100
AcDbLine
 62
253
  6
CONTINUOUS
 10
-28.8658446909
 20
0.3467533871
 11
-28.8658446909
 21
-4.8959457215
  0
LINE
  5
557
100
AcDbEntity
  8
0
100
AcDbLine
 62
7
  6
CONTINUOUS
 10
-18.1553853338
 20
6.1503598399
 11
-18.2220969123
 21
6.1493484887
  0
LINE
  5
558
100
AcDbEntity
  8
0
100
AcDbLine
 62
7
  6
CONTINUOUS
 10
-49.7744140999
 20
4.7503754273
 11
-49.6496795517
 21
4.7503754273
  0
LINE
  5
559
100
AcDbEntity
  8
CURVE
100
AcDbLine
 62
253
  6
CONTINUOUS
 10
-43.6009879063
 20
9.75
 11
-43.3867348192
 21
9.6428571492
  0
LINE
  5
55A
100
AcDbEntity
  8
CURVE
100
AcDbLine
 62
253
  6
CONTINUOUS
 10
-44.2437471453
 20
16.8214287758
 11
-44.6722532748
 21
17.25
  0
LINE
  5
55B
100
AcDbEntity
  8
CURVE
100
AcDbLine
 62
253
  6
CONTINUOUS
 10
-43.3867348192
 20
16.2857143879
 11
-43.1724817321
 21
16.0714287758
  0
LINE
  5
55C
100
AcDbEntity
  8
0
100
AcDbLine
 62
253
  6
CONTINUOUS
 10
-20.9902462708
 20
-7.5259279089
 11
-20.988545532
 21
-7.5279732681
  0
LINE
  5
55D
100
AcDbEntity
  8
0
100
AcDbLine
 62
253
  6
CONTINUOUS
 10
-26.7445243473
 20
-5.7746253779
 11
-26.7445243473
 21
1.2254330435
  0
LINE
  5
55E
100
AcDbEntity
  8
0
100
AcDbLine
 62
253
  6
CONTINUOUS
 10
-38.1659146211
 20
-18.5157846625
 11
-37.9013190597
 21
-18.091533335
  0
LINE
  5
55F
100
AcDbEntity
  8
CURVE
100
AcDbLine
 62
253
  6
CONTINUOUS
 10
-47.4715091484
 20
-13.24786
 11
-46.4725285172
 21
-12.876128
  0
LINE
  5
560
100
AcDbEntity
  8
CURVE
100
AcDbLine
 62
253
  6
CONTINUOUS
 10
-47.4715091484
 20
-10.973414
 11
-45.6722033597
 21
-10.421174
  0
LINE
  5
561
100
AcDbEntity
  8
0
100
AcDbLine
 62
253
  6
CONTINUOUS
 10
-38.1000529387
 20
7.1682691127
 11
-37.430725696
 21
7.1682691127
  0
LINE
  5
562
100
AcDbEntity
  8
CURVE
100
AcDbLine
 62
253
  6
CONTINUOUS
 10
-44.2437471453
 20
12.4285715818
 11
-44.4580002101
 21
12.5357143879
  0
LINE
  5
563
100
AcDbEntity
  8
CURVE
100
AcDbLine
 62
253
  6
CONTINUOUS
 10
-43.6009879063
 20
13.1785715818
 11
-43.3867348192
 21
13.0714284182
  0
LINE
  5
564
100
AcDbEntity
  8
CURVE
100
AcDbLine
 62
253
  6
CONTINUOUS
 10
-44.2437471453
 20
13.6071428061
 11
-44.4580002101
 21
13.7142856121
  0
LINE
  5
565
100
AcDbEntity
  8
0
100
AcDbLine
 62
253
  6
CONTINUOUS
 10
-37.9013183268
 20
18.0915331265
 11
-38.1659139392
 21
18.5157844222
  0
LINE
  5
566
100
AcDbEntity
  8
0
100
AcDbLine
 62
253
  6
CONTINUOUS
 10
-37.7323150334
 20
18.7862099205
 11
-37.467719421
 21
18.3619586248
  0
LINE
  5
567
100
AcDbEntity
  8
CURVE
100
AcDbLine
 62
253
  6
CONTINUOUS
 10
-43.1722533444
 20
-15.197131
 11
-44.471857382
 21
-15.82
  0
LINE
  5
568
100
AcDbEntity
  8
CURVE
100
AcDbLine
 62
253
  6
CONTINUOUS
 10
-43.1722533444
 20
-13.259776
 11
-44.471857382
 21
-13.83011
  0
LINE
  5
569
100
AcDbEntity
  8
CURVE
100
AcDbLine
 62
253
  6
CONTINUOUS
 10
-45.6722033597
 20
-12.904525
 11
-46.8471153883
 21
-13.345267
  0
LINE
  5
56A
100
AcDbEntity
  8
0
100
AcDbLine
 62
253
  6
CONTINUOUS
 10
-17.9405922818
 20
12.7782208352
 11
-17.9360412715
 21
12.7793012453
  0
LINE
  5
56B
100
AcDbEntity
  8
0
100
AcDbLine
 62
253
  6
CONTINUOUS
 10
-37.467719421
 20
8.1240383277
 11
-38.636723283
 21
8.1240383277
  0
LINE
  5
56C
100
AcDbEntity
  8
CURVE
100
AcDbLine
 62
253
  6
CONTINUOUS
 10
-43.6009879063
 20
9.0
 11
-44.2437471453
 21
9.0
  0
LINE
  5
56D
100
AcDbEntity
  8
CURVE
100
AcDbLine
 62
253
  6
CONTINUOUS
 10
-45.6722533444
 20
9.0
 11
-47.4717048339
 21
9.0
  0
LINE
  5
56E
100
AcDbEntity
  8
CURVE
100
AcDbLine
 62
253
  6
CONTINUOUS
 10
-47.1163460764
 20
9.2268895676
 11
-45.6722533444
 21
9.2268895676
  0
LINE
  5
56F
100
AcDbEntity
  8
0
100
AcDbLine
 62
7
  6
CONTINUOUS
 10
-18.0708103198
 20
7.5378819614
 11
-18.0205055438
 21
7.5365524313
  0
LINE
  5
570
100
AcDbEntity
  8
CURVE
100
AcDbLine
 62
253
  6
CONTINUOUS
 10
-43.6009879063
 20
10.821428597
 11
-44.0294940806
 21
10.928571403
  0
LINE
  5
571
100
AcDbEntity
  8
CURVE
100
AcDbLine
 62
253
  6
CONTINUOUS
 10
-45.9116743531
 20
13.1696680567
 11
-47.4717048339
 21
13.6889667159
  0
LINE
  5
572
100
AcDbEntity
  8
CURVE
100
AcDbLine
 62
253
  6
CONTINUOUS
 10
-47.4717048339
 20
13.9385717089
 11
-45.6722533444
 21
13.2982126959
  0
LINE
  5
573
100
AcDbEntity
  8
CURVE
100
AcDbLine
 62
253
  6
CONTINUOUS
 10
-43.6009879063
 20
14.3571428061
 11
-43.3867348192
 21
14.25
  0
LINE
  5
574
100
AcDbEntity
  8
CURVE
100
AcDbLine
 62
253
  6
CONTINUOUS
 10
-43.3510259639
 20
15.0
 11
-43.4224436633
 21
15.0357141495
  0
LINE
  5
575
100
AcDbEntity
  8
CURVE
100
AcDbLine
 62
253
  6
CONTINUOUS
 10
-43.3153171198
 20
15.1428573132
 11
-43.2438994259
 21
15.1071431637
  0
LINE
  5
576
100
AcDbEntity
  8
CURVE
100
AcDbLine
 62
253
  6
CONTINUOUS
 10
-44.2437471453
 20
15.6428568363
 11
-44.4580002101
 21
15.75
  0
LINE
  5
577
100
AcDbEntity
  8
0
100
AcDbLine
 62
7
  6
CONTINUOUS
 10
-24.0840408655
 20
-8.2570907118
 11
-24.0848809017
 21
-8.201679556
  0
LINE
  5
578
100
AcDbEntity
  8
0
100
AcDbLine
 62
7
  6
CONTINUOUS
 10
-23.3914641208
 20
-8.4466141915
 11
-23.3955745892
 21
-8.1754761036
  0
LINE
  5
579
100
AcDbEntity
  8
0
100
AcDbLine
 62
7
  6
CONTINUOUS
 10
-22.429557088
 20
-5.781620101
 11
-22.4288137788
 21
-5.8307807138
  0
LINE
  5
57A
100
AcDbEntity
  8
0
100
AcDbLine
 62
7
  6
CONTINUOUS
 10
-22.8464756406
 20
1.5293327785
 11
-22.8464756406
 21
1.2254331014
  0
LINE
  5
57B
100
AcDbEntity
  8
0
100
AcDbLine
 62
7
  6
CONTINUOUS
 10
-22.8464756406
 20
-5.7746254357
 11
-22.8464756406
 21
-6.2285827582
  0
LINE
  5
57C
100
AcDbEntity
  8
0
100
AcDbLine
 62
253
  6
CONTINUOUS
 10
-22.7795890173
 20
-7.4232729091
 11
-22.7795948865
 21
-8.1754761059
  0
LINE
  5
57D
100
AcDbEntity
  8
CURVE
100
AcDbLine
 62
253
  6
CONTINUOUS
 10
-45.6722033597
 20
-15.412771
 11
-47.4715091484
 21
-15.98336
  0
LINE
  5
57E
100
AcDbEntity
  8
0
100
AcDbLine
 62
253
  6
CONTINUOUS
 10
-17.9789702323
 20
13.0032841332
 11
-18.7206647601
 21
12.8991341699
  0
LINE
  5
57F
100
AcDbEntity
  8
CURVE
100
AcDbLine
 62
253
  6
CONTINUOUS
 10
-44.2437471453
 20
9.75
 11
-43.6009879063
 21
9.75
  0
LINE
  5
580
100
AcDbEntity
  8
CURVE
100
AcDbLine
 62
253
  6
CONTINUOUS
 10
-44.4580002101
 20
10.178571403
 11
-44.0294940806
 21
10.178571403
  0
LINE
  5
581
100
AcDbEntity
  8
CURVE
100
AcDbLine
 62
253
  6
CONTINUOUS
 10
-46.0124840345
 20
10.2075659919
 11
-47.4717048339
 21
10.2075659919
  0
LINE
  5
582
100
AcDbEntity
  8
CURVE
100
AcDbLine
 62
253
  6
CONTINUOUS
 10
-47.4717048339
 20
10.4344714406
 11
-45.6722533444
 21
10.4344714406
  0
LINE
  5
583
100
AcDbEntity
  8
CURVE
100
AcDbLine
 62
253
  6
CONTINUOUS
 10
-44.0294940806
 20
10.928571403
 11
-44.4580002101
 21
10.928571403
  0
LINE
  5
584
100
AcDbEntity
  8
CURVE
100
AcDbLine
 62
253
  6
CONTINUOUS
 10
-45.6722533444
 20
10.9360943119
 11
-47.4717048339
 21
10.9360943119
  0
LINE
  5
585
100
AcDbEntity
  8
CURVE
100
AcDbLine
 62
253
  6
CONTINUOUS
 10
-47.2700865296
 20
11.1755882673
 11
-46.6979824589
 21
11.1755882673
  0
LINE
  5
586
100
AcDbEntity
  8
CURVE
100
AcDbLine
 62
253
  6
CONTINUOUS
 10
-46.4963641546
 20
11.1755882673
 11
-45.8738716488
 21
11.1755882673
  0
LINE
  5
587
100
AcDbEntity
  8
0
100
AcDbLine
 62
7
  6
CONTINUOUS
 10
-17.9683609795
 20
9.5095206821
 11
-17.9778394924
 21
9.5097711944
  0
LINE
  5
588
100
AcDbEntity
  8
CURVE
100
AcDbLine
 62
253
  6
CONTINUOUS
 10
-43.6009879063
 20
16.3928568363
 11
-43.3867348192
 21
16.2857143879
  0
LINE
  5
589
100
AcDbEntity
  8
0
100
AcDbLine
 62
253
  6
CONTINUOUS
 10
-20.7802351239
 20
16.0129554133
 11
-20.7302770196
 21
16.9644476203
  0
LINE
  5
58A
100
AcDbEntity
  8
0
100
AcDbLine
 62
7
  6
CONTINUOUS
 10
-17.887034515
 20
12.9787286108
 11
-17.9360369558
 21
12.779283038
  0
LINE
  5
58B
100
AcDbEntity
  8
0
100
AcDbLine
 62
7
  6
CONTINUOUS
 10
-18.659919636
 20
1.8120675673
 11
-18.6564304304
 21
1.8189148455
  0
LINE
  5
58C
100
AcDbEntity
  8
0
100
AcDbLine
 62
7
  6
CONTINUOUS
 10
-18.0568068358
 20
13.6888813767
 11
-18.0614608282
 21
13.6884130437
  0
LINE
  5
58D
100
AcDbEntity
  8
0
100
AcDbLine
 62
7
  6
CONTINUOUS
 10
-18.0906119017
 20
13.9780976837
 11
-18.0859400633
 21
13.9783886748
  0
LINE
  5
58E
100
AcDbEntity
  8
CURVE
100
AcDbLine
 62
253
  6
CONTINUOUS
 10
-44.1366205682
 20
11.9642856717
 11
-44.4580002101
 21
11.9642856717
  0
LINE
  5
58F
100
AcDbEntity
  8
CURVE
100
AcDbLine
 62
253
  6
CONTINUOUS
 10
-43.2796082757
 20
12.0
 11
-43.8152409711
 21
12.0
  0
LINE
  5
590
100
AcDbEntity
  8
CURVE
100
AcDbLine
 62
253
  6
CONTINUOUS
 10
-46.6979824589
 20
12.1108836018
 11
-46.4963641546
 21
12.1108836018
  0
LINE
  5
591
100
AcDbEntity
  8
CURVE
100
AcDbLine
 62
253
  6
CONTINUOUS
 10
-47.4717048339
 20
12.1789472959
 11
-47.2700865296
 21
12.1789472959
  0
LINE
  5
592
100
AcDbEntity
  8
CURVE
100
AcDbLine
 62
253
  6
CONTINUOUS
 10
-45.8738716488
 20
12.1865131048
 11
-45.6722533444
 21
12.1865131048
  0
LINE
  5
593
100
AcDbEntity
  8
CURVE
100
AcDbLine
 62
253
  6
CONTINUOUS
 10
-43.6009879063
 20
12.4285715818
 11
-44.2437471453
 21
12.4285715818
  0
LINE
  5
594
100
AcDbEntity
  8
CURVE
100
AcDbLine
 62
253
  6
CONTINUOUS
 10
-44.2437471453
 20
13.1785715818
 11
-43.6009879063
 21
13.1785715818
  0
LINE
  5
595
100
AcDbEntity
  8
0
100
AcDbLine
 62
7
  6
CONTINUOUS
 10
-17.8920640381
 20
11.9746406602
 11
-17.8873867827
 21
11.9745562577
  0
LINE
  5
596
100
AcDbEntity
  8
0
100
AcDbLine
 62
7
  6
CONTINUOUS
 10
-17.8918925721
 20
12.0289287274
 11
-17.8872156409
 21
12.0287417012
  0
LINE
  5
597
100
AcDbEntity
  8
0
100
AcDbLine
 62
7
  6
CONTINUOUS
 10
-18.4341234511
 20
3.8623204556
 11
-18.4303777262
 21
3.8596590592
  0
LINE
  5
598
100
AcDbEntity
  8
0
100
AcDbLine
 62
253
  6
CONTINUOUS
 10
-18.4347641419
 20
3.8627758084
 11
-18.4341234511
 21
3.8623204556
  0
LINE
  5
599
100
AcDbEntity
  8
0
100
AcDbLine
 62
7
  6
CONTINUOUS
 10
-19.954781248
 20
-6.9535311214
 11
-19.9724634472
 21
-5.7871633843
  0
LINE
  5
59A
100
AcDbEntity
  8
0
100
AcDbLine
 62
253
  6
CONTINUOUS
 10
-19.2773645517
 20
-4.0431691495
 11
-19.263864917
 21
-4.9336431306
  0
LINE
  5
59B
100
AcDbEntity
  8
0
100
AcDbLine
 62
7
  6
CONTINUOUS
 10
-18.8855195062
 20
11.5749886877
 11
-18.8688453615
 21
10.4751150709
  0
LINE
  5
59C
100
AcDbEntity
  8
0
100
AcDbLine
 62
7
  6
CONTINUOUS
 10
-18.5321681592
 20
-0.4221049472
 11
-18.4760845659
 21
-4.1215369498
  0
LINE
  5
59D
100
AcDbEntity
  8
0
100
AcDbLine
 62
7
  6
CONTINUOUS
 10
-19.1591391822
 20
1.208661932
 11
-19.1593041956
 21
1.2195755099
  0
LINE
  5
59E
100
AcDbEntity
  8
0
100
AcDbLine
 62
253
  6
CONTINUOUS
 10
-18.8395450076
 20
13.9794274996
 11
-18.8392327861
 21
13.936488036
  0
LINE
  5
59F
100
AcDbEntity
  8
0
100
AcDbLine
 62
7
  6
CONTINUOUS
 10
-20.1884773765
 20
-6.4312566708
 11
-20.1884773765
 21
-6.4378734758
  0
LINE
  5
5A0
100
AcDbEntity
  8
0
100
AcDbLine
 62
253
  6
CONTINUOUS
 10
-18.6407761524
 20
12.0578690525
 11
-18.6409426967
 21
11.988172543
  0
LINE
  5
5A1
100
AcDbEntity
  8
0
100
AcDbLine
 62
7
  6
CONTINUOUS
 10
-19.1585868588
 20
1.2195863848
 11
-19.1217125423
 21
1.7300790503
  0
LINE
  5
5A2
100
AcDbEntity
  8
0
100
AcDbLine
 62
253
  6
CONTINUOUS
 10
-18.6599213663
 20
1.8120523922
 11
-18.6590718971
 21
1.819229016
  0
LINE
  5
5A3
100
AcDbEntity
  8
0
100
AcDbLine
 62
7
  6
CONTINUOUS
 10
-18.0909337149
 20
13.9914378419
 11
-18.0862567325
 21
13.9915155979
  0
LINE
  5
5A4
100
AcDbEntity
  8
CURVE
100
AcDbLine
 62
253
  6
CONTINUOUS
 10
-43.6009879063
 20
13.6071428061
 11
-44.2437471453
 21
13.6071428061
  0
LINE
  5
5A5
100
AcDbEntity
  8
CURVE
100
AcDbLine
 62
253
  6
CONTINUOUS
 10
-45.6722533444
 20
14.2435851882
 11
-47.4717048339
 21
14.2435851882
  0
LINE
  5
5A6
100
AcDbEntity
  8
CURVE
100
AcDbLine
 62
253
  6
CONTINUOUS
 10
-44.2437471453
 20
14.3571428061
 11
-43.6009879063
 21
14.3571428061
  0
LINE
  5
5A7
100
AcDbEntity
  8
CURVE
100
AcDbLine
 62
253
  6
CONTINUOUS
 10
-47.2700865296
 20
14.4830802023
 11
-46.6979824589
 21
14.4830802023
  0
LINE
  5
5A8
100
AcDbEntity
  8
CURVE
100
AcDbLine
 62
253
  6
CONTINUOUS
 10
-46.4963641546
 20
14.4830802023
 11
-45.8738716488
 21
14.4830802023
  0
LINE
  5
5A9
100
AcDbEntity
  8
CURVE
100
AcDbLine
 62
253
  6
CONTINUOUS
 10
-43.3153171198
 20
15.0
 11
-43.3510259639
 21
15.0
  0
LINE
  5
5AA
100
AcDbEntity
  8
CURVE
100
AcDbLine
 62
253
  6
CONTINUOUS
 10
-43.3510259639
 20
15.1428573132
 11
-43.3153171198
 21
15.1428573132
  0
LINE
  5
5AB
100
AcDbEntity
  8
CURVE
100
AcDbLine
 62
253
  6
CONTINUOUS
 10
-46.6979824589
 20
15.418408358
 11
-46.4963641546
 21
15.418408358
  0
LINE
  5
5AC
100
AcDbEntity
  8
0
100
AcDbLine
 62
253
  6
CONTINUOUS
 10
-18.156617186
 20
14.5688925915
 11
-18.1517407261
 21
14.5688700193
  0
LINE
  5
5AD
100
AcDbEntity
  8
0
100
AcDbLine
 62
253
  6
CONTINUOUS
 10
-18.8062888553
 20
13.6096416539
 11
-18.8392327861
 21
13.936488036
  0
LINE
  5
5AE
100
AcDbEntity
  8
0
100
AcDbLine
 62
253
  6
CONTINUOUS
 10
-18.0614608282
 20
13.6884130437
 11
-18.0906119017
 21
13.9780976837
  0
LINE
  5
5AF
100
AcDbEntity
  8
0
100
AcDbLine
 62
253
  6
CONTINUOUS
 10
-18.0909337149
 20
13.9914378419
 11
-18.0906119017
 21
13.9780976837
  0
LINE
  5
5B0
100
AcDbEntity
  8
0
100
AcDbLine
 62
7
  6
CONTINUOUS
 10
-17.8872935193
 20
13.7465719425
 11
-17.887293221
 21
12.9787237856
  0
LINE
  5
5B1
100
AcDbEntity
  8
0
100
AcDbLine
 62
253
  6
CONTINUOUS
 10
-17.8920640381
 20
11.9746406602
 11
-17.8918925721
 21
12.0289287274
  0
LINE
  5
5B2
100
AcDbEntity
  8
0
100
AcDbLine
 62
7
  6
CONTINUOUS
 10
-18.0205055438
 20
7.5365524313
 11
-17.9683609795
 21
9.5095206821
  0
LINE
  5
5B3
100
AcDbEntity
  8
0
100
AcDbLine
 62
253
  6
CONTINUOUS
 10
-37.4205524196
 20
-17.9397820262
 11
-37.1505062107
 21
-17.8498397662
  0
LINE
  5
5B4
100
AcDbEntity
  8
CURVE
100
AcDbLine
 62
253
  6
CONTINUOUS
 10
-47.4717048339
 20
15.4864222909
 11
-47.2700865296
 21
15.4864222909
  0
LINE
  5
5B5
100
AcDbEntity
  8
CURVE
100
AcDbLine
 62
253
  6
CONTINUOUS
 10
-45.8738716488
 20
15.494037861
 11
-45.6722533444
 21
15.494037861
  0
LINE
  5
5B6
100
AcDbEntity
  8
CURVE
100
AcDbLine
 62
253
  6
CONTINUOUS
 10
-43.6009879063
 20
15.6428568363
 11
-44.2437471453
 21
15.6428568363
  0
LINE
  5
5B7
100
AcDbEntity
  8
CURVE
100
AcDbLine
 62
253
  6
CONTINUOUS
 10
-44.2437471453
 20
16.3928568363
 11
-43.6009879063
 21
16.3928568363
  0
LINE
  5
5B8
100
AcDbEntity
  8
0
100
AcDbLine
 62
253
  6
CONTINUOUS
 10
-33.3497232398
 20
16.5222029381
 11
-30.4972024284
 21
16.5222029381
  0
LINE
  5
5B9
100
AcDbEntity
  8
0
100
AcDbLine
 62
7
  6
CONTINUOUS
 10
-34.6072601598
 20
16.8325
 11
-36.1519004124
 21
16.8325
  0
LINE
  5
5BA
100
AcDbEntity
  8
CURVE
100
AcDbLine
 62
253
  6
CONTINUOUS
 10
-44.6722532748
 20
17.25
 11
-43.1724817321
 21
17.25
  0
LINE
  5
5BB
100
AcDbEntity
  8
0
100
AcDbLine
 62
253
  6
CONTINUOUS
 10
-30.4775897927
 20
17.2711750891
 11
-33.2875408443
 21
17.2711750891
  0
LINE
  5
5BC
100
AcDbEntity
  8
0
100
AcDbLine
 62
253
  6
CONTINUOUS
 10
-20.7802628752
 20
16.0129568677
 11
-30.4972024284
 21
16.5222029381
  0
LINE
  5
5BD
100
AcDbEntity
  8
0
100
AcDbLine
 62
253
  6
CONTINUOUS
 10
-37.3971754436
 20
18.6827708001
 11
-37.1563643158
 21
18.616438086
  0
LINE
  5
5BE
100
AcDbEntity
  8
0
100
AcDbLine
 62
253
  6
CONTINUOUS
 10
-37.150553727
 20
17.8498555921
 11
-37.4205524196
 21
17.9397820262
  0
LINE
  5
5BF
100
AcDbEntity
  8
0
100
AcDbLine
 62
253
  6
CONTINUOUS
 10
-32.9472753459
 20
17.9822819681
 11
-33.6110654617
 21
17.849847672
  0
LINE
  5
5C0
100
AcDbEntity
  8
0
100
AcDbLine
 62
7
  6
CONTINUOUS
 10
-32.9472753844
 20
17.4750021497
 11
-30.4722523635
 21
17.4750021497
  0
LINE
  5
5C1
100
AcDbEntity
  8
0
100
AcDbLine
 62
253
  6
CONTINUOUS
 10
-38.636723283
 20
17.6669022149
 11
-38.1370278695
 21
17.6669022149
  0
LINE
  5
5C2
100
AcDbEntity
  8
0
100
AcDbLine
 62
253
  6
CONTINUOUS
 10
-37.2029377265
 20
17.8325
 11
-33.5235767982
 21
17.8325
  0
LINE
  5
5C3
100
AcDbEntity
  8
0
100
AcDbLine
 62
253
  6
CONTINUOUS
 10
-37.1505299472
 20
17.849847672
 11
-33.6110654617
 21
17.849847672
  0
LINE
  5
5C4
100
AcDbEntity
  8
ASSI
100
AcDbLine
 62
7
  6
CONTINUOUS
 10
-40.1722533444
 20
18.85
 11
-31.1222533444
 21
18.85
  0
LINE
  5
5C5
100
AcDbEntity
  8
0
100
AcDbLine
 62
7
  6
CONTINUOUS
 10
-40.1722533444
 20
18.85
 11
-31.1222533444
 21
18.85
  0
LINE
  5
5C6
100
AcDbEntity
  8
ASSI
100
AcDbLine
 62
7
  6
CONTINUOUS
 10
-40.1722533444
 20
18.95
 11
-31.0222533444
 21
18.95
  0
LINE
  5
5C7
100
AcDbEntity
  8
ASSI
100
AcDbLine
 62
7
  6
CONTINUOUS
 10
-38.6722533444
 20
18.2499082467
 11
-40.1722533444
 21
18.3006191467
  0
LINE
  5
5C8
100
AcDbEntity
  8
RACCORDO
100
AcDbLine
 62
7
  6
CONTINUOUS
 10
-38.6722533444
 20
18.2499082467
 11
-40.1722533444
 21
18.3006191467
  0
LINE
  5
5C9
100
AcDbEntity
  8
0
100
AcDbLine
 62
253
  6
CONTINUOUS
 10
-30.4775897927
 20
17.2711750891
 11
-20.7409584975
 21
16.7608970125
  0
LINE
  5
5CA
100
AcDbEntity
  8
0
100
AcDbLine
 62
7
  6
CONTINUOUS
 10
-30.4722523629
 20
17.4750021727
 11
-20.7302770196
 21
16.9644476203
  0
LINE
  5
5CB
100
AcDbEntity
  8
RACCORDO
100
AcDbLine
 62
7
  6
CONTINUOUS
 10
-31.9552943162
 20
-21.1777731352
 11
-34.0645796647
 21
-22.3955695989
  0
LINE
  5
5CC
100
AcDbEntity
  8
ASSI
100
AcDbLine
 62
7
  6
CONTINUOUS
 10
-34.0645796647
 20
-22.3955695989
 11
-30.1722533444
 21
-20.1483339502
  0
LINE
  5
5CD
100
AcDbEntity
  8
DRAFT
100
AcDbLine
 62
7
  6
CONTINUOUS
 10
-31.9542198078
 20
-21.1771527675
 11
-30.1722533444
 21
-20.1483339502
  0
LINE
  5
5CE
100
AcDbEntity
  8
DRAFT
100
AcDbLine
 62
7
  6
CONTINUOUS
 10
-40.1722533444
 20
20.9
 11
-31.5313492347
 21
20.9330083283
  0
LINE
  5
5CF
100
AcDbEntity
  8
RACCORDO
100
AcDbLine
 62
253
  6
CONTINUOUS
 10
-30.7222533444
 20
19.25
 11
-40.1722533444
 21
19.25
  0
LINE
  5
5D0
100
AcDbEntity
  8
ASSI
100
AcDbLine
 62
253
  6
CONTINUOUS
 10
-49.2302659778
 20
21.0183132877
 11
-48.7394566465
 21
20.9972959167
  0
LINE
  5
5D1
100
AcDbEntity
  8
0
100
AcDbLine
 62
253
  6
CONTINUOUS
 10
-48.7394566465
 20
20.9972959167
 11
-49.2302884603
 21
21.0183142302
  0
LINE
  5
5D2
100
AcDbEntity
  8
RACCORDO
100
AcDbLine
 62
7
  6
CONTINUOUS
 10
-34.0645796647
 20
22.3955695989
 11
-31.9542198078
 21
21.1771527675
  0
LINE
  5
5D3
100
AcDbEntity
  8
ASSI
100
AcDbLine
 62
7
  6
CONTINUOUS
 10
-34.0645796647
 20
22.3955695989
 11
-30.1722533444
 21
20.1483339502
  0
LINE
  5
5D4
100
AcDbEntity
  8
DRAFT
100
AcDbLine
 62
7
  6
CONTINUOUS
 10
-31.9542198078
 20
21.1771527675
 11
-30.1722533444
 21
20.1483339502
  0
LINE
  5
5D5
100
AcDbEntity
  8
0
100
AcDbLine
 62
253
  6
CONTINUOUS
 10
-40.1722533444
 20
21.8997711479
 11
-48.2660665895
 21
21.4755923698
  0
LINE
  5
5D6
100
AcDbEntity
  8
ASSI
100
AcDbLine
 62
253
  6
CONTINUOUS
 10
-48.2660665895
 20
21.4755923698
 11
-40.1722533444
 21
21.8997711479
  0
LINE
  5
5D7
100
AcDbEntity
  8
0
100
AcDbLine
 62
7
  6
CONTINUOUS
 10
-40.1722533444
 20
22.4
 11
-48.2835083644
 21
21.9749071372
  0
LINE
  5
5D8
100
AcDbEntity
  8
ASSI
100
AcDbLine
 62
7
  6
CONTINUOUS
 10
-48.2835083644
 20
21.9749071372
 11
-40.1722533444
 21
22.4
  0
LINE
  5
5D9
100
AcDbEntity
  8
ASSI
100
AcDbLine
 62
7
  6
CONTINUOUS
 10
-36.1722533444
 20
21.2139629885
 11
-31.9542198078
 21
21.1771527675
  0
LINE
  5
5DA
100
AcDbEntity
  8
DRAFT
100
AcDbLine
 62
7
  6
CONTINUOUS
 10
-36.1722533444
 20
21.2139629885
 11
-31.9542198078
 21
21.1771527675
  0
LINE
  5
5DB
100
AcDbEntity
  8
ASSI
100
AcDbLine
 62
253
  6
CONTINUOUS
 10
-34.5630875013
 20
21.349698412
 11
-32.2176250786
 21
21.3292298715
  0
LINE
  5
5DC
100
AcDbEntity
  8
RACCORDO
100
AcDbLine
 62
253
  6
CONTINUOUS
 10
-34.5630875013
 20
21.349698412
 11
-32.2176250786
 21
21.3292298715
  0
LINE
  5
5DD
100
AcDbEntity
  8
ASSI
100
AcDbLine
 62
7
  6
CONTINUOUS
 10
-34.0645796647
 20
22.3955695989
 11
-34.5722533444
 21
22.4
  0
LINE
  5
5DE
100
AcDbEntity
  8
DRAFT
100
AcDbLine
 62
7
  6
CONTINUOUS
 10
-34.5722533444
 20
22.4
 11
-34.0645796647
 21
22.3955695989
  0
LINE
  5
5DF
100
AcDbEntity
  8
ASSI
100
AcDbLine
 62
7
  6
CONTINUOUS
 10
-40.1722533444
 20
23.5
 11
-36.1722533444
 21
23.4650925288
  0
LINE
  5
5E0
100
AcDbEntity
  8
DRAFT
100
AcDbLine
 62
7
  6
CONTINUOUS
 10
-40.1722533444
 20
23.5
 11
-36.1722533444
 21
23.4650925288
  0
ARC
  5
5E1
100
AcDbEntity
  8
0
100
AcDbCircle
 62
7
  6
CONTINUOUS
 10
2.5
 20
-2.4996245879
 40
1.0
100
AcDbArc
 50
90.0
 51
180.0
  0
ARC
  5
5E2
100
AcDbEntity
  8
0
100
AcDbCircle
 62
7
  6
CONTINUOUS
 10
-2.5
 20
-2.4996245727
 40
1.0
100
AcDbArc
 50
0.0
 51
90.0
  0
ARC
  5
5E3
100
AcDbEntity
  8
0
100
AcDbCircle
 62
253
  6
CONTINUOUS
 10
10.5085552638
 20
-21.4746975174
 40
0.5001919813
100
AcDbArc
 50
270.0278172244
 51
359.8974917516
  0
ARC
  5
5E4
100
AcDbEntity
  8
0
100
AcDbCircle
 62
253
  6
CONTINUOUS
 10
-10.5085552609
 20
-21.4746975202
 40
0.5001919813
100
AcDbArc
 50
180.1025079225
 51
269.9721824413
  0
ARC
  5
5E5
100
AcDbEntity
  8
ASSI
100
AcDbCircle
 62
253
  6
CONTINUOUS
 10
10.5085822799
 20
-21.4747245759
 40
0.5001623668
100
AcDbArc
 50
270.0247240425
 51
359.9005860188
  0
ARC
  5
5E6
100
AcDbEntity
  8
ASSI
100
AcDbCircle
 62
253
  6
CONTINUOUS
 10
-10.5085822784
 20
-21.47472458
 40
0.5001623654
100
AcDbArc
 50
180.0994135171
 51
269.9752757875
  0
ARC
  5
5E7
100
AcDbEntity
  8
ASSI
100
AcDbCircle
 62
7
  6
CONTINUOUS
 10
-4.95
 20
-23.1
 40
0.5
100
AcDbArc
 50
350.803718421
 51
119.112422776
  0
ARC
  5
5E8
100
AcDbEntity
  8
ASSI
100
AcDbCircle
 62
7
  6
CONTINUOUS
 10
4.95
 20
-23.1
 40
0.5
100
AcDbArc
 50
60.887577224
 51
189.196281579
  0
ARC
  5
5E9
100
AcDbEntity
  8
DRAFT
100
AcDbCircle
 62
7
  6
CONTINUOUS
 10
-4.95
 20
-23.1
 40
0.5
100
AcDbArc
 50
350.8037184209
 51
119.112422776
  0
ARC
  5
5EA
100
AcDbEntity
  8
DRAFT
100
AcDbCircle
 62
7
  6
CONTINUOUS
 10
4.95
 20
-23.1
 40
0.5
100
AcDbArc
 50
60.887577224
 51
189.196281579
  0
ARC
  5
5EB
100
AcDbEntity
  8
ASSI
100
AcDbCircle
 62
7
  6
CONTINUOUS
 10
-11.25
 20
0.0
 40
28.0
100
AcDbArc
 50
302.9352304972
 51
304.1210936517
  0
ARC
  5
5EC
100
AcDbEntity
  8
ASSI
100
AcDbCircle
 62
7
  6
CONTINUOUS
 10
-11.25
 20
0.0
 40
28.0
100
AcDbArc
 50
305.9627651514
 51
306.8698976458
  0
ARC
  5
5ED
100
AcDbEntity
  8
ASSI
100
AcDbCircle
 62
7
  6
CONTINUOUS
 10
-11.25
 20
0.0
 40
28.0
100
AcDbArc
 50
53.1301023542
 51
54.0372348486
  0
ARC
  5
5EE
100
AcDbEntity
  8
ASSI
100
AcDbCircle
 62
7
  6
CONTINUOUS
 10
-11.25
 20
0.0
 40
28.0
100
AcDbArc
 50
55.8789063483
 51
57.0647695028
  0
ARC
  5
5EF
100
AcDbEntity
  8
DRAFT
100
AcDbCircle
 62
7
  6
CONTINUOUS
 10
-11.25
 20
0.0
 40
28.0
100
AcDbArc
 50
53.1301023542
 51
54.0372348486
  0
ARC
  5
5F0
100
AcDbEntity
  8
DRAFT
100
AcDbCircle
 62
7
  6
CONTINUOUS
 10
-11.25
 20
0.0
 40
28.0
100
AcDbArc
 50
55.8789063483
 51
57.0647695028
  0
ARC
  5
5F1
100
AcDbEntity
  8
DRAFT
100
AcDbCircle
 62
7
  6
CONTINUOUS
 10
-11.25
 20
0.0
 40
28.0
100
AcDbArc
 50
302.9352304972
 51
304.1210936517
  0
ARC
  5
5F2
100
AcDbEntity
  8
DRAFT
100
AcDbCircle
 62
7
  6
CONTINUOUS
 10
-11.25
 20
0.0
 40
28.0
100
AcDbArc
 50
305.9627651514
 51
306.8698976458
  0
ARC
  5
5F3
100
AcDbEntity
  8
ASSI
100
AcDbCircle
 62
253
  6
CONTINUOUS
 10
-0.0011540523
 20
0.0
 40
7.1508121249
100
AcDbArc
 50
89.9907534123
 51
270.0092465877
  0
ARC
  5
5F4
100
AcDbEntity
  8
RACCORDO
100
AcDbCircle
 62
253
  6
CONTINUOUS
 10
-0.0011495071
 20
0.0000000001
 40
7.1508116035
100
AcDbArc
 50
89.9907898295
 51
270.0092101705
  0
ARC
  5
5F5
100
AcDbEntity
  8
0
100
AcDbCircle
 62
7
  6
CONTINUOUS
 10
-2.5
 20
2.5003754273
 40
1.0
100
AcDbArc
 50
270.0
 51
360.0
  0
ARC
  5
5F6
100
AcDbEntity
  8
0
100
AcDbCircle
 62
253
  6
CONTINUOUS
 10
-10.5085552658
 20
21.4746975258
 40
0.5001919761
100
AcDbArc
 50
90.0278170014
 51
179.8974927128
  0
ARC
  5
5F7
100
AcDbEntity
  8
ASSI
100
AcDbCircle
 62
253
  6
CONTINUOUS
 10
-10.5085822715
 20
21.474724573
 40
0.5001623724
100
AcDbArc
 50
90.0247250061
 51
179.9005856874
  0
ARC
  5
5F8
100
AcDbEntity
  8
ASSI
100
AcDbCircle
 62
7
  6
CONTINUOUS
 10
-4.95
 20
23.1
 40
0.5
100
AcDbArc
 50
240.887577224
 51
9.196281579
  0
ARC
  5
5F9
100
AcDbEntity
  8
DRAFT
100
AcDbCircle
 62
7
  6
CONTINUOUS
 10
-4.95
 20
23.1
 40
0.5
100
AcDbArc
 50
240.887577224
 51
9.196281579
  0
ARC
  5
5FA
100
AcDbEntity
  8
ASSI
100
AcDbCircle
 62
253
  6
CONTINUOUS
 10
0.0011540566
 20
-0.0
 40
7.1508124899
100
AcDbArc
 50
269.9907533782
 51
90.0092466218
  0
ARC
  5
5FB
100
AcDbEntity
  8
RACCORDO
100
AcDbCircle
 62
253
  6
CONTINUOUS
 10
0.0011495113
 20
-0.0000000001
 40
7.1508119681
100
AcDbArc
 50
269.9907897964
 51
90.0092102036
  0
CIRCLE
  5
5FC
100
AcDbEntity
  8
ASSI
100
AcDbCircle
 62
7
  6
CONTINUOUS
 10
0.0
 20
0.0
 40
7.0
  0
CIRCLE
  5
5FD
100
AcDbEntity
  8
DRAFT
100
AcDbCircle
 62
7
  6
CONTINUOUS
 10
0.0
 20
0.0
 40
7.0
  0
CIRCLE
  5
5FE
100
AcDbEntity
  8
ASSI
100
AcDbCircle
 62
7
  6
CONTINUOUS
 10
0.0
 20
0.0
 40
5.7
  0
CIRCLE
  5
5FF
100
AcDbEntity
  8
DRAFT
100
AcDbCircle
 62
7
  6
CONTINUOUS
 10
0.0
 20
0.0
 40
5.7
  0
CIRCLE
  5
600
100
AcDbEntity
  8
ASSI
100
AcDbCircle
 62
7
  6
CONTINUOUS
 10
0.0
 20
0.0
 40
5.6914247956
  0
CIRCLE
  5
601
100
AcDbEntity
  8
RACCORDO
100
AcDbCircle
 62
7
  6
CONTINUOUS
 10
0.0
 20
0.0
 40
5.6914247956
  0
CIRCLE
  5
602
100
AcDbEntity
  8
0
100
AcDbCircle
 62
7
  6
CONTINUOUS
 10
0.0
 20
0.0003754273
 40
5.675
  0
CIRCLE
  5
603
100
AcDbEntity
  8
0
100
AcDbCircle
 62
253
  6
CONTINUOUS
 10
0.0
 20
0.0003754273
 40
5.2125
  0
CIRCLE
  5
604
100
AcDbEntity
  8
0
100
AcDbCircle
 62
7
  6
CONTINUOUS
 10
-0.0
 20
0.0003754273
 40
4.75
  0
CIRCLE
  5
605
100
AcDbEntity
  8
0
100
AcDbCircle
 62
253
  6
CONTINUOUS
 10
-0.0
 20
0.0003754273
 40
4.5
  0
CIRCLE
  5
606
100
AcDbEntity
  8
0
100
AcDbCircle
 62
253
  6
CONTINUOUS
 10
-0.0
 20
0.0003754273
 40
4.3544018482
  0
CIRCLE
  5
607
100
AcDbEntity
  8
0
100
AcDbCircle
 62
7
  6
CONTINUOUS
 10
-0.0
 20
0.0003754273
 40
4.1044018482
  0
CIRCLE
  5
608
100
AcDbEntity
  8
0
100
AcDbCircle
 62
7
  6
CONTINUOUS
 10
-0.0
 20
0.0003754121
 40
1.1800001475
  0
CIRCLE
  5
609
100
AcDbEntity
  8
0
100
AcDbCircle
 62
253
  6
CONTINUOUS
 10
-0.0
 20
0.0003754121
 40
1.1431244734
  0
CIRCLE
  5
60A
100
AcDbEntity
  8
0
100
AcDbCircle
 62
253
  6
CONTINUOUS
 10
-0.0
 20
0.0003754121
 40
0.6634724723
  0
CIRCLE
  5
60B
100
AcDbEntity
  8
0
100
AcDbCircle
 62
253
  6
CONTINUOUS
 10
-0.0
 20
0.0003754121
 40
0.4320024962
  0
ARC
  5
60C
100
AcDbEntity
  8
0
100
AcDbCircle
 62
7
  6
CONTINUOUS
 10
2.5
 20
2.5003754121
 40
1.0
100
AcDbArc
 50
180.0
 51
270.0
  0
ARC
  5
60D
100
AcDbEntity
  8
ASSI
100
AcDbCircle
 62
7
  6
CONTINUOUS
 10
11.25
 20
-0.0
 40
28.0
100
AcDbArc
 50
233.1301023542
 51
234.0372348486
  0
ARC
  5
60E
100
AcDbEntity
  8
ASSI
100
AcDbCircle
 62
7
  6
CONTINUOUS
 10
11.25
 20
-0.0
 40
28.0
100
AcDbArc
 50
235.8789063483
 51
237.0647695028
  0
ARC
  5
60F
100
AcDbEntity
  8
ASSI
100
AcDbCircle
 62
7
  6
CONTINUOUS
 10
11.25
 20
-0.0
 40
28.0
100
AcDbArc
 50
122.9352304972
 51
124.1210936517
  0
ARC
  5
610
100
AcDbEntity
  8
ASSI
100
AcDbCircle
 62
7
  6
CONTINUOUS
 10
11.25
 20
-0.0
 40
28.0
100
AcDbArc
 50
125.9627651514
 51
126.8698976458
  0
ARC
  5
611
100
AcDbEntity
  8
DRAFT
100
AcDbCircle
 62
7
  6
CONTINUOUS
 10
11.25
 20
-0.0
 40
28.0
100
AcDbArc
 50
122.9352304972
 51
124.1210936517
  0
ARC
  5
612
100
AcDbEntity
  8
DRAFT
100
AcDbCircle
 62
7
  6
CONTINUOUS
 10
11.25
 20
-0.0
 40
28.0
100
AcDbArc
 50
125.9627651514
 51
126.8698976458
  0
ARC
  5
613
100
AcDbEntity
  8
DRAFT
100
AcDbCircle
 62
7
  6
CONTINUOUS
 10
11.25
 20
-0.0
 40
28.0
100
AcDbArc
 50
233.1301023542
 51
234.0372348486
  0
ARC
  5
614
100
AcDbEntity
  8
DRAFT
100
AcDbCircle
 62
7
  6
CONTINUOUS
 10
11.25
 20
-0.0
 40
28.0
100
AcDbArc
 50
235.8789063483
 51
237.0647695028
  0
ARC
  5
615
100
AcDbEntity
  8
0
100
AcDbCircle
 62
253
  6
CONTINUOUS
 10
10.5085552699
 20
21.4746975242
 40
0.5001919747
100
AcDbArc
 50
0.1025074705
 51
89.9721834822
  0
ARC
  5
616
100
AcDbEntity
  8
ASSI
100
AcDbCircle
 62
253
  6
CONTINUOUS
 10
10.5085822746
 20
21.4747245704
 40
0.5001623722
100
AcDbArc
 50
0.0994146151
 51
89.9752753497
  0
ARC
  5
617
100
AcDbEntity
  8
ASSI
100
AcDbCircle
 62
7
  6
CONTINUOUS
 10
4.95
 20
23.1
 40
0.5
100
AcDbArc
 50
170.803718421
 51
299.112422776
  0
ARC
  5
618
100
AcDbEntity
  8
DRAFT
100
AcDbCircle
 62
7
  6
CONTINUOUS
 10
4.95
 20
23.1
 40
0.5
100
AcDbArc
 50
170.8037184209
 51
299.112422776
  0
ARC
  5
619
100
AcDbEntity
  8
CURVE
100
AcDbCircle
 62
253
  6
CONTINUOUS
 10
67.3919049477
 20
-9.7665506704
 40
56.3642591041
100
AcDbArc
 50
179.8863943748
 51
180.1855862268
  0
ARC
  5
61A
100
AcDbEntity
  8
0
100
AcDbCircle
 62
7
  6
CONTINUOUS
 10
-31.034249766
 20
-15.4073129748
 40
9.9715135346
100
AcDbArc
 50
44.2111924213
 51
45.8126810349
  0
ARC
  5
61B
100
AcDbEntity
  8
0
100
AcDbCircle
 62
7
  6
CONTINUOUS
 10
-36.1514924124
 20
-17.8416722944
 40
1.0091810192
100
AcDbArc
 50
92.7228950424
 51
94.770824396
  0
ARC
  5
61C
100
AcDbEntity
  8
0
100
AcDbCircle
 62
7
  6
CONTINUOUS
 10
-36.4301737567
 20
-18.4166950956
 40
1.0029400729
100
AcDbArc
 50
195.3845001859
 51
205.6094089677
  0
ARC
  5
61D
100
AcDbEntity
  8
0
100
AcDbCircle
 62
7
  6
CONTINUOUS
 10
-37.6712037564
 20
-17.6445191848
 40
1.001061017
100
AcDbArc
 50
181.3851960765
 51
238.0575779952
  0
ARC
  5
61E
100
AcDbEntity
  8
0
100
AcDbCircle
 62
253
  6
CONTINUOUS
 10
-36.150164823
 20
-17.8494159795
 40
1.0003247438
100
AcDbArc
 50
180.0247251243
 51
269.9005859281
  0
ARC
  5
61F
100
AcDbEntity
  8
0
100
AcDbCircle
 62
253
  6
CONTINUOUS
 10
-37.6367209505
 20
-17.6672795388
 40
1.000002404
100
AcDbArc
 50
179.9783428465
 51
238.0473780578
  0
ARC
  5
620
100
AcDbEntity
  8
ASSI
100
AcDbCircle
 62
7
  6
CONTINUOUS
 10
-48.2311724081
 20
-20.9762776025
 40
1.0
100
AcDbArc
 50
182.4092313014
 51
267.0
  0
ARC
  5
621
100
AcDbEntity
  8
0
100
AcDbCircle
 62
7
  6
CONTINUOUS
 10
-48.2311724081
 20
-20.9762776025
 40
1.0
100
AcDbArc
 50
182.4092313014
 51
267.0
  0
ARC
  5
622
100
AcDbEntity
  8
0
100
AcDbCircle
 62
7
  6
CONTINUOUS
 10
-36.1519004124
 20
-17.8325
 40
1.0
100
AcDbArc
 50
90.0
 51
93.0041151424
  0
ARC
  5
623
100
AcDbEntity
  8
0
100
AcDbCircle
 62
7
  6
CONTINUOUS
 10
-36.4220029421
 20
-17.9398089295
 40
0.9985494779
100
AcDbArc
 50
179.9984563194
 51
222.6530876636
  0
ARC
  5
624
100
AcDbEntity
  8
0
100
AcDbCircle
 62
7
  6
CONTINUOUS
 10
-33.945011246
 20
-17.9818033822
 40
0.9977608771
100
AcDbArc
 50
299.450338271
 51
359.9725168266
  0
ARC
  5
625
100
AcDbEntity
  8
0
100
AcDbCircle
 62
7
  6
CONTINUOUS
 10
-36.4893090793
 20
-18.4170890679
 40
0.9759263639
100
AcDbArc
 50
199.970068958
 51
206.3572583226
  0
ARC
  5
626
100
AcDbEntity
  8
0
100
AcDbCircle
 62
253
  6
CONTINUOUS
 10
-36.4265776426
 20
-18.4143466925
 40
0.7572514154
100
AcDbArc
 50
195.4783737427
 51
215.1449362172
  0
ARC
  5
627
100
AcDbEntity
  8
0
100
AcDbCircle
 62
253
  6
CONTINUOUS
 10
-37.6365083645
 20
-17.6668032545
 40
0.5005197146
100
AcDbArc
 50
180.0112520594
 51
238.0578020313
  0
ARC
  5
628
100
AcDbEntity
  8
ASSI
100
AcDbCircle
 62
253
  6
CONTINUOUS
 10
-48.2398846311
 20
-20.9762637657
 40
0.5000132865
100
AcDbArc
 50
182.4107480919
 51
266.9984832092
  0
ARC
  5
629
100
AcDbEntity
  8
0
100
AcDbCircle
 62
253
  6
CONTINUOUS
 10
-48.2398855275
 20
-20.9762636007
 40
0.5000130687
100
AcDbArc
 50
182.4107712934
 51
266.9985867714
  0
ARC
  5
62A
100
AcDbEntity
  8
0
100
AcDbCircle
 62
7
  6
CONTINUOUS
 10
-27.8448374508
 20
-5.2502140598
 40
3.1131044784
100
AcDbArc
 50
276.1504093914
 51
276.309658378
  0
ARC
  5
62B
100
AcDbEntity
  8
0
100
AcDbCircle
 62
7
  6
CONTINUOUS
 10
-26.7445243473
 20
-1.7745669565
 40
3.0
100
AcDbArc
 50
90.0
 51
135.0
  0
ARC
  5
62C
100
AcDbEntity
  8
0
100
AcDbCircle
 62
7
  6
CONTINUOUS
 10
-26.7445243473
 20
-2.7746253779
 40
3.0
100
AcDbArc
 50
225.0
 51
270.0
  0
ARC
  5
62D
100
AcDbEntity
  8
0
100
AcDbCircle
 62
7
  6
CONTINUOUS
 10
-27.743723991
 20
-6.1889029283
 40
2.1689854597
100
AcDbArc
 50
275.8601448884
 51
276.1514289456
  0
ARC
  5
62E
100
AcDbEntity
  8
0
100
AcDbCircle
 62
7
  6
CONTINUOUS
 10
-27.6472917724
 20
-7.0653018376
 40
1.287304871
100
AcDbArc
 50
276.4490804851
 51
276.6552643914
  0
ARC
  5
62F
100
AcDbEntity
  8
0
100
AcDbCircle
 62
7
  6
CONTINUOUS
 10
-28.4871650344
 20
-3.8604118155
 40
1.0
100
AcDbArc
 50
180.0
 51
225.0
  0
ARC
  5
630
100
AcDbEntity
  8
0
100
AcDbCircle
 62
7
  6
CONTINUOUS
 10
-28.4871650344
 20
-0.6887805188
 40
1.0
100
AcDbArc
 50
135.0
 51
180.0
  0
ARC
  5
631
100
AcDbEntity
  8
0
100
AcDbCircle
 62
7
  6
CONTINUOUS
 10
-27.6127015752
 20
-7.3585799011
 40
0.9919943074
100
AcDbArc
 50
276.6340339592
 51
277.4349541165
  0
ARC
  5
632
100
AcDbEntity
  8
CURVE
100
AcDbCircle
 62
253
  6
CONTINUOUS
 10
-43.2917547925
 20
0.4757701886
 40
0.8811779991
100
AcDbArc
 50
133.641795133
 51
180.0010526148
  0
ARC
  5
633
100
AcDbEntity
  8
0
100
AcDbCircle
 62
7
  6
CONTINUOUS
 10
-27.5971244663
 20
-7.482923013
 40
0.8666811749
100
AcDbArc
 50
277.4775236153
 51
278.4090187666
  0
ARC
  5
634
100
AcDbEntity
  8
0
100
AcDbCircle
 62
7
  6
CONTINUOUS
 10
-49.7744140999
 20
-4.4996245727
 40
0.25
100
AcDbArc
 50
180.0
 51
270.0
  0
ARC
  5
635
100
AcDbEntity
  8
0
100
AcDbCircle
 62
253
  6
CONTINUOUS
 10
1.5870155989
 20
-8.1189976232
 40
40.2237392517
100
AcDbArc
 50
179.0866066305
 51
180.0071801155
  0
ARC
  5
636
100
AcDbEntity
  8
0
100
AcDbCircle
 62
253
  6
CONTINUOUS
 10
-8.1642606537
 20
-7.9854174793
 40
30.4715805101
100
AcDbArc
 50
178.9048824222
 51
179.0454611451
  0
ARC
  5
637
100
AcDbEntity
  8
0
100
AcDbCircle
 62
7
  6
CONTINUOUS
 10
-22.5411174594
 20
-5.4333781681
 40
3.0
100
AcDbArc
 50
270.8685406451
 51
350.3543741014
  0
ARC
  5
638
100
AcDbEntity
  8
0
100
AcDbCircle
 62
7
  6
CONTINUOUS
 10
-22.7782688617
 20
-5.3755986424
 40
2.7992545662
100
AcDbArc
 50
269.9987642779
 51
337.698137382
  0
ARC
  5
639
100
AcDbEntity
  8
0
100
AcDbCircle
 62
253
  6
CONTINUOUS
 10
-22.7782688617
 20
-5.3755986424
 40
2.7965944897
100
AcDbArc
 50
269.9987592503
 51
337.8234744192
  0
ARC
  5
63A
100
AcDbEntity
  8
0
100
AcDbCircle
 62
253
  6
CONTINUOUS
 10
-22.7782688617
 20
-5.3755986424
 40
2.0470513695
100
AcDbArc
 50
270.0000098767
 51
332.3003255701
  0
ARC
  5
63B
100
AcDbEntity
  8
0
100
AcDbCircle
 62
7
  6
CONTINUOUS
 10
-19.3320773272
 20
-0.4341601528
 40
0.8
100
AcDbArc
 50
0.8685406451
 51
40.1257177972
  0
ARC
  5
63C
100
AcDbEntity
  8
0
100
AcDbCircle
 62
7
  6
CONTINUOUS
 10
-19.2759915677
 20
-4.1337350456
 40
0.8
100
AcDbArc
 50
270.8685406451
 51
0.8685406451
  0
ARC
  5
63D
100
AcDbEntity
  8
0
100
AcDbCircle
 62
7
  6
CONTINUOUS
 10
-19.9818229163
 20
-5.2872348726
 40
0.5
100
AcDbArc
 50
269.8685406451
 51
350.6290578076
  0
ARC
  5
63E
100
AcDbEntity
  8
0
100
AcDbCircle
 62
7
  6
CONTINUOUS
 10
-19.1477269566
 20
0.7087682351
 40
0.5
100
AcDbArc
 50
353.5319101802
 51
356.6681189976
  0
ARC
  5
63F
100
AcDbEntity
  8
0
100
AcDbCircle
 62
7
  6
CONTINUOUS
 10
-19.1477269566
 20
0.7087682351
 40
0.5
100
AcDbArc
 50
2.0302036663
 51
91.8685406451
  0
ARC
  5
640
100
AcDbEntity
  8
0
100
AcDbCircle
 62
7
  6
CONTINUOUS
 10
-18.9906290748
 20
-0.6670694571
 40
0.4625393284
100
AcDbArc
 50
14.4882742473
 51
21.0046385682
  0
ARC
  5
641
100
AcDbEntity
  8
0
100
AcDbCircle
 62
7
  6
CONTINUOUS
 10
-18.975798483
 20
-0.6632933092
 40
0.4472356459
100
AcDbArc
 50
0.9330785716
 51
14.4952285001
  0
ARC
  5
642
100
AcDbEntity
  8
0
100
AcDbCircle
 62
7
  6
CONTINUOUS
 10
-126.2937504873
 20
12.4986624319
 40
108.2874402828
100
AcDbArc
 50
352.7292572087
 51
353.6709196799
  0
ARC
  5
643
100
AcDbEntity
  8
0
100
AcDbCircle
 62
7
  6
CONTINUOUS
 10
-120.6486991848
 20
11.7916285947
 40
102.5982997036
100
AcDbArc
 50
352.3963577487
 51
352.721953702
  0
ARC
  5
644
100
AcDbEntity
  8
0
100
AcDbCircle
 62
7
  6
CONTINUOUS
 10
-117.7681942448
 20
11.410244579
 40
99.692658211
100
AcDbArc
 50
352.1906594708
 51
352.3945668324
  0
ARC
  5
645
100
AcDbEntity
  8
0
100
AcDbCircle
 62
253
  6
CONTINUOUS
 10
-200.4632468085
 20
18.8474350729
 40
182.1587609149
100
AcDbArc
 50
353.3319816813
 51
353.5474498692
  0
ARC
  5
646
100
AcDbEntity
  8
0
100
AcDbCircle
 62
253
  6
CONTINUOUS
 10
-195.0871956532
 20
18.0928471064
 40
176.7323247761
100
AcDbArc
 50
353.8844216382
 51
354.0006183641
  0
ARC
  5
647
100
AcDbEntity
  8
0
100
AcDbCircle
 62
253
  6
CONTINUOUS
 10
-192.9420122862
 20
17.8163828552
 40
174.5700488919
100
AcDbArc
 50
354.0865776427
 51
354.253320089
  0
ARC
  5
648
100
AcDbEntity
  8
0
100
AcDbCircle
 62
253
  6
CONTINUOUS
 10
-174.5235447978
 20
15.8864195445
 40
156.0505994677
100
AcDbArc
 50
353.5574166518
 51
353.8019997995
  0
ARC
  5
649
100
AcDbEntity
  8
0
100
AcDbCircle
 62
7
  6
CONTINUOUS
 10
-137.8870794285
 20
14.1704239485
 40
120.0
100
AcDbArc
 50
353.5600827633
 51
358.3240813398
  0
ARC
  5
64A
100
AcDbEntity
  8
0
100
AcDbCircle
 62
7
  6
CONTINUOUS
 10
-137.8870794285
 20
14.1704239485
 40
120.0
100
AcDbArc
 50
350.3543741014
 51
352.1902368349
  0
ARC
  5
64B
100
AcDbEntity
  8
0
100
AcDbCircle
 62
7
  6
CONTINUOUS
 10
-137.8199906401
 20
15.9239496807
 40
119.9976115449
100
AcDbArc
 50
354.2298102338
 51
358.113925154
  0
ARC
  5
64C
100
AcDbEntity
  8
0
100
AcDbCircle
 62
7
  6
CONTINUOUS
 10
-137.8199906401
 20
15.9239496807
 40
119.9929340327
100
AcDbArc
 50
354.2311324064
 51
358.1138922005
  0
ARC
  5
64D
100
AcDbEntity
  8
0
100
AcDbCircle
 62
7
  6
CONTINUOUS
 10
-137.7893394008
 20
15.9214374712
 40
119.9647073999
100
AcDbArc
 50
353.248950075
 51
354.2295321965
  0
ARC
  5
64E
100
AcDbEntity
  8
0
100
AcDbCircle
 62
253
  6
CONTINUOUS
 10
-137.7893394008
 20
15.9214374712
 40
119.9620473234
100
AcDbArc
 50
353.248950075
 51
354.2306689094
  0
ARC
  5
64F
100
AcDbEntity
  8
0
100
AcDbCircle
 62
253
  6
CONTINUOUS
 10
-137.9534027985
 20
15.9428595599
 40
119.3779824127
100
AcDbArc
 50
357.8811093552
 51
358.1015901338
  0
ARC
  5
650
100
AcDbEntity
  8
0
100
AcDbCircle
 62
253
  6
CONTINUOUS
 10
-137.2669074773
 20
15.8893456686
 40
118.6898771746
100
AcDbArc
 50
354.1964129687
 51
357.3997169952
  0
ARC
  5
651
100
AcDbEntity
  8
0
100
AcDbCircle
 62
7
  6
CONTINUOUS
 10
-57.5800965981
 20
12.1011772282
 40
39.6928654159
100
AcDbArc
 50
359.8935590234
 51
0.026232554
  0
ARC
  5
652
100
AcDbEntity
  8
0
100
AcDbCircle
 62
253
  6
CONTINUOUS
 10
-0.0856865573
 20
8.105326602
 40
38.5510413208
100
AcDbArc
 50
179.9721900391
 51
180.8990834286
  0
ARC
  5
653
100
AcDbEntity
  8
0
100
AcDbCircle
 62
253
  6
CONTINUOUS
 10
-8.2824424893
 20
7.9835220393
 40
30.3533840372
100
AcDbArc
 50
180.9119728262
 51
181.0958039673
  0
ARC
  5
654
100
AcDbEntity
  8
0
100
AcDbCircle
 62
7
  6
CONTINUOUS
 10
-28.3847423202
 20
9.4380257372
 40
17.8128450896
100
AcDbArc
 50
270.3013243115
 51
270.4455976572
  0
ARC
  5
655
100
AcDbEntity
  8
0
100
AcDbCircle
 62
7
  6
CONTINUOUS
 10
-28.3813514787
 20
7.8247230549
 40
16.1995674134
100
AcDbArc
 50
270.4779813396
 51
270.8891850403
  0
ARC
  5
656
100
AcDbEntity
  8
0
100
AcDbCircle
 62
7
  6
CONTINUOUS
 10
-28.3795176853
 20
7.7185686435
 40
16.0933973283
100
AcDbArc
 50
270.8885221073
 51
271.0791367051
  0
ARC
  5
657
100
AcDbEntity
  8
0
100
AcDbCircle
 62
7
  6
CONTINUOUS
 10
-28.3718115241
 20
7.3110321764
 40
15.6857880104
100
AcDbArc
 50
271.0790289232
 51
271.2071855927
  0
ARC
  5
658
100
AcDbEntity
  8
0
100
AcDbCircle
 62
7
  6
CONTINUOUS
 10
-28.3521903491
 20
6.407943732
 40
14.7824861633
100
AcDbArc
 50
271.2825685681
 51
271.3996647939
  0
ARC
  5
659
100
AcDbEntity
  8
0
100
AcDbCircle
 62
253
  6
CONTINUOUS
 10
-32.6641412224
 20
12.0418390618
 40
14.7724632357
100
AcDbArc
 50
359.9499238958
 51
0.3005934488
  0
ARC
  5
65A
100
AcDbEntity
  8
0
100
AcDbCircle
 62
7
  6
CONTINUOUS
 10
-24.5966780623
 20
2.6643988979
 40
10.8790668399
100
AcDbArc
 50
271.4550968571
 51
272.7662846149
  0
ARC
  5
65B
100
AcDbEntity
  8
0
100
AcDbCircle
 62
253
  6
CONTINUOUS
 10
-28.0317772178
 20
12.0682976231
 40
10.1400244007
100
AcDbArc
 50
0.2884148638
 51
0.7951811359
  0
ARC
  5
65C
100
AcDbEntity
  8
0
100
AcDbCircle
 62
7
  6
CONTINUOUS
 10
-23.6362836524
 20
13.775111017
 40
5.7500152169
100
AcDbArc
 50
3.1375726835
 51
3.3578116212
  0
ARC
  5
65D
100
AcDbEntity
  8
0
100
AcDbCircle
 62
7
  6
CONTINUOUS
 10
-23.1602080867
 20
13.8094088631
 40
5.2729887788
100
AcDbArc
 50
359.7229854891
 51
0.1998251878
  0
ARC
  5
65E
100
AcDbEntity
  8
0
100
AcDbCircle
 62
7
  6
CONTINUOUS
 10
-23.1475267732
 20
13.8042118075
 40
5.2603907977
100
AcDbArc
 50
1.542844732
 51
3.1128805434
  0
ARC
  5
65F
100
AcDbEntity
  8
0
100
AcDbCircle
 62
7
  6
CONTINUOUS
 10
-23.0029835029
 20
13.8087925912
 40
5.1157766395
100
AcDbArc
 50
1.2811450764
 51
1.5351462826
  0
ARC
  5
660
100
AcDbEntity
  8
0
100
AcDbCircle
 62
7
  6
CONTINUOUS
 10
-22.9715518711
 20
13.8095002928
 40
5.0843370419
100
AcDbArc
 50
1.0667394268
 51
1.2810913713
  0
ARC
  5
661
100
AcDbEntity
  8
0
100
AcDbCircle
 62
7
  6
CONTINUOUS
 10
-22.9471705541
 20
13.8099557878
 40
5.0599514705
100
AcDbArc
 50
0.8445539009
 51
1.0667223499
  0
ARC
  5
662
100
AcDbEntity
  8
0
100
AcDbCircle
 62
7
  6
CONTINUOUS
 10
-22.9458788013
 20
13.8100628405
 40
5.0586585169
100
AcDbArc
 50
0.2008844384
 51
0.5708512425
  0
ARC
  5
663
100
AcDbEntity
  8
0
100
AcDbCircle
 62
7
  6
CONTINUOUS
 10
-22.9300530936
 20
13.810207784
 40
5.0428321506
100
AcDbArc
 50
0.5709959498
 51
0.7688271142
  0
CIRCLE
  5
664
100
AcDbEntity
  8
0
100
AcDbCircle
 62
7
  6
CONTINUOUS
 10
-18.8771824339
 20
11.0250518793
 40
0.55
  0
ARC
  5
665
100
AcDbEntity
  8
0
100
AcDbCircle
 62
7
  6
CONTINUOUS
 10
-49.7744140999
 20
4.5003754273
 40
0.25
100
AcDbArc
 50
90.0
 51
180.0
  0
ARC
  5
666
100
AcDbEntity
  8
0
100
AcDbCircle
 62
7
  6
CONTINUOUS
 10
-20.9075415649
 20
13.9670518212
 40
3.0203784756
100
AcDbArc
 50
4.6267870543
 51
6.9338241475
  0
ARC
  5
667
100
AcDbEntity
  8
0
100
AcDbCircle
 62
7
  6
CONTINUOUS
 10
-20.8874459422
 20
13.9693723921
 40
2.9991897098
100
AcDbArc
 50
17.0820627002
 51
86.9961142647
  0
ARC
  5
668
100
AcDbEntity
  8
0
100
AcDbCircle
 62
7
  6
CONTINUOUS
 10
-20.8854302556
 20
13.9689480008
 40
2.998200074
100
AcDbArc
 50
6.9488643312
 51
11.5437079589
  0
ARC
  5
669
100
AcDbEntity
  8
0
100
AcDbCircle
 62
7
  6
CONTINUOUS
 10
-20.8689961633
 20
13.967915169
 40
2.9819873356
100
AcDbArc
 50
11.6263408623
 51
17.2129558238
  0
ARC
  5
66A
100
AcDbEntity
  8
0
100
AcDbCircle
 62
7
  6
CONTINUOUS
 10
-20.8874459422
 20
13.9693723921
 40
2.7953625862
100
AcDbArc
 50
17.0774398252
 51
86.9961142648
  0
ARC
  5
66B
100
AcDbEntity
  8
0
100
AcDbCircle
 62
253
  6
CONTINUOUS
 10
-20.8814145568
 20
13.9659818144
 40
2.7952730798
100
AcDbArc
 50
0.5230233828
 51
12.4554955254
  0
ARC
  5
66C
100
AcDbEntity
  8
0
100
AcDbCircle
 62
253
  6
CONTINUOUS
 10
-20.8814145568
 20
13.9659818144
 40
2.7905970066
100
AcDbArc
 50
0.5230233827
 51
12.4767088009
  0
ARC
  5
66D
100
AcDbEntity
  8
0
100
AcDbCircle
 62
7
  6
CONTINUOUS
 10
-20.8689961632
 20
13.967915169
 40
2.7781601598
100
AcDbArc
 50
12.4931034392
 51
17.2129558238
  0
ARC
  5
66E
100
AcDbEntity
  8
0
100
AcDbCircle
 62
253
  6
CONTINUOUS
 10
-20.8875572039
 20
13.9692298074
 40
2.0465387209
100
AcDbArc
 50
17.0374643287
 51
86.9947681571
  0
ARC
  5
66F
100
AcDbEntity
  8
0
100
AcDbCircle
 62
253
  6
CONTINUOUS
 10
-20.8814145566
 20
13.9659818145
 40
2.0416247991
100
AcDbArc
 50
0.3772865309
 51
17.1751238587
  0
ARC
  5
670
100
AcDbEntity
  8
0
100
AcDbCircle
 62
7
  6
CONTINUOUS
 10
-16.2706673338
 20
13.9456846037
 40
1.6167882657
100
AcDbArc
 50
179.1892871508
 51
180.061465877
  0
ARC
  5
671
100
AcDbEntity
  8
0
100
AcDbCircle
 62
7
  6
CONTINUOUS
 10
-36.4637349371
 20
18.3940980817
 40
1.0042511854
100
AcDbArc
 50
152.9973139656
 51
158.2659803849
  0
ARC
  5
672
100
AcDbEntity
  8
0
100
AcDbCircle
 62
7
  6
CONTINUOUS
 10
-36.4301737617
 20
18.4166946314
 40
1.0029400681
100
AcDbArc
 50
154.3905616437
 51
164.6154474309
  0
ARC
  5
673
100
AcDbEntity
  8
0
100
AcDbCircle
 62
7
  6
CONTINUOUS
 10
-37.6712037508
 20
17.6445191862
 40
1.0010610211
100
AcDbArc
 50
121.9424223171
 51
178.6147658369
  0
ARC
  5
674
100
AcDbEntity
  8
0
100
AcDbCircle
 62
7
  6
CONTINUOUS
 10
-36.4668131837
 20
18.3954129919
 40
1.0009048568
100
AcDbArc
 50
158.2706496256
 51
179.9946116247
  0
ARC
  5
675
100
AcDbEntity
  8
0
100
AcDbCircle
 62
253
  6
CONTINUOUS
 10
-36.1501648174
 20
17.8494159854
 40
1.0003247436
100
AcDbArc
 50
90.0994143938
 51
179.9752752136
  0
ARC
  5
676
100
AcDbEntity
  8
0
100
AcDbCircle
 62
253
  6
CONTINUOUS
 10
-37.636722916
 20
17.667281853
 40
1.0000004392
100
AcDbArc
 50
121.9508150896
 51
180.0217516545
  0
ARC
  5
677
100
AcDbEntity
  8
0
100
AcDbCircle
 62
7
  6
CONTINUOUS
 10
-36.1519004124
 20
17.8325
 40
1.0
100
AcDbArc
 50
266.9958848576
 51
270.0
  0
ARC
  5
678
100
AcDbEntity
  8
0
100
AcDbCircle
 62
7
  6
CONTINUOUS
 10
-36.4220029421
 20
17.9398089295
 40
0.9985494779
100
AcDbArc
 50
137.3473456532
 51
180.0015436805
  0
ARC
  5
679
100
AcDbEntity
  8
0
100
AcDbCircle
 62
7
  6
CONTINUOUS
 10
-33.9450113432
 20
17.9818033092
 40
0.9977609734
100
AcDbArc
 50
0.0274873645
 51
60.5496936184
  0
ARC
  5
67A
100
AcDbEntity
  8
0
100
AcDbCircle
 62
253
  6
CONTINUOUS
 10
-36.4708053204
 20
18.426745852
 40
0.9610985292
100
AcDbArc
 50
164.5505660393
 51
180.5291399299
  0
ARC
  5
67B
100
AcDbEntity
  8
0
100
AcDbCircle
 62
253
  6
CONTINUOUS
 10
-36.4265776464
 20
18.4143462247
 40
0.7572514135
100
AcDbArc
 50
144.8550200513
 51
164.5215739293
  0
ARC
  5
67C
100
AcDbEntity
  8
0
100
AcDbCircle
 62
253
  6
CONTINUOUS
 10
-37.6365083725
 20
17.6668039229
 40
0.5005197066
100
AcDbArc
 50
121.9432061663
 51
179.9887482645
  0
ARC
  5
67D
100
AcDbEntity
  8
0
100
AcDbCircle
 62
7
  6
CONTINUOUS
 10
-24.8612151281
 20
25.0673482336
 40
33.2842722745
100
AcDbArc
 50
270.3248688367
 51
270.4408257745
  0
ARC
  5
67E
100
AcDbEntity
  8
ASSI
100
AcDbCircle
 62
7
  6
CONTINUOUS
 10
-48.2311724081
 20
20.9762776025
 40
1.0
100
AcDbArc
 50
93.0
 51
177.5907686986
  0
ARC
  5
67F
100
AcDbEntity
  8
0
100
AcDbCircle
 62
7
  6
CONTINUOUS
 10
-48.2311724081
 20
20.9762776025
 40
1.0
100
AcDbArc
 50
93.0
 51
177.5907686986
  0
ARC
  5
680
100
AcDbEntity
  8
ASSI
100
AcDbCircle
 62
253
  6
CONTINUOUS
 10
-48.2398846311
 20
20.9762637657
 40
0.5000132865
100
AcDbArc
 50
93.0015167914
 51
177.5892519075
  0
ARC
  5
681
100
AcDbEntity
  8
0
100
AcDbCircle
 62
253
  6
CONTINUOUS
 10
-48.2398855273
 20
20.9762636007
 40
0.5000130688
100
AcDbArc
 50
93.0014132479
 51
177.5892287009
  0
ARC
  5
682
100
AcDbEntity
  8
0
100
AcDbCircle
 62
7
  6
CONTINUOUS
 10
21.4144335189
 20
18.0182881448
 40
39.7079556063
100
AcDbArc
 50
186.2594538036
 51
186.9215447639
  0
ARC
  5
683
100
AcDbEntity
  8
ASSI
100
AcDbCircle
 62
7
  6
CONTINUOUS
 10
450.3277466556
 20
0.0
 40
500.0
100
AcDbArc
 50
177.5907686986
 51
182.4092313014
  0
ARC
  5
684
100
AcDbEntity
  8
RACCORDO
100
AcDbCircle
 62
7
  6
CONTINUOUS
 10
450.3277466556
 20
0.0
 40
500.0
100
AcDbArc
 50
179.0873010463
 51
179.9983962072
  0
ARC
  5
685
100
AcDbEntity
  8
RACCORDO
100
AcDbCircle
 62
7
  6
CONTINUOUS
 10
450.3277466556
 20
0.0
 40
500.0
100
AcDbArc
 50
180.5443162043
 51
180.9126019239
  0
ARC
  5
686
100
AcDbEntity
  8
0
100
AcDbCircle
 62
7
  6
CONTINUOUS
 10
450.3277466556
 20
0.0
 40
500.0
100
AcDbArc
 50
177.5907686986
 51
182.4092313014
  0
ARC
  5
687
100
AcDbEntity
  8
0
100
AcDbCircle
 62
253
  6
CONTINUOUS
 10
450.3214996036
 20
-0.0
 40
499.5024769599
100
AcDbArc
 50
177.5907806527
 51
182.4092193473
  0
ARC
  5
688
100
AcDbEntity
  8
ASSI
100
AcDbCircle
 62
253
  6
CONTINUOUS
 10
450.3184583605
 20
0.0
 40
499.499438405
100
AcDbArc
 50
177.5907659883
 51
182.4092340117
  0
SPLINE
  5
689
100
AcDbEntity
  8
ASSI
100
AcDbSpline
 62
253
  6
CONTINUOUS
 70
0
 71
3
 72
27
 73
23
 74
21
 42
0.0000001
 43
0.0000001
 44
0.0000000001
 12
24.9675258915
 22
-0.0003352643
 32
0.0
 13
-24.9675258915
 23
-0.0003370124
 33
0.0
 40
0.0
 40
0.0
 40
0.0
 40
0.0
 40
0.0624830981
 40
0.0937598976
 40
0.1250384368
 40
0.1875190441
 40
0.2499992562
 40
0.2812769889
 40
0.3125548097
 40
0.3750357995
 40
0.4375176107
 40
0.5000000025
 40
0.5624823906
 40
0.6249642011
 40
0.6874451914
 40
0.7187230137
 40
0.7500007448
 40
0.8124809581
 40
0.8749615662
 40
0.9062401075
 40
0.937516905
 40
1.0
 40
1.0
 40
1.0
 40
1.0
 10
0.0
 20
7.96361743
 30
0.0
 10
0.5200161234
 20
7.9636104472
 30
0.0
 10
1.303159387
 20
7.8862993664
 30
0.0
 10
2.3135936511
 20
7.6324493811
 30
0.0
 10
3.2946141408
 20
7.2807888677
 30
0.0
 10
4.4487432793
 20
6.6627247211
 30
0.0
 10
5.4597377985
 20
5.8309011772
 30
0.0
 10
6.158633493
 20
5.0579396131
 30
0.0
 10
6.7785988972
 20
4.2203681963
 30
0.0
 10
7.3948713924
 20
3.0650703602
 30
0.0
 10
7.849568715
 20
1.562547924
 30
0.0
 10
8.0031748504
 20
-0.0000000613
 30
0.0
 10
7.8495706784
 20
-1.5625484739
 30
0.0
 10
7.3948706244
 20
-3.0650702719
 30
0.0
 10
6.7785970162
 20
-4.2203671759
 30
0.0
 10
6.1586335677
 20
-5.057939985
 30
0.0
 10
5.4597391773
 20
-5.8309028477
 30
0.0
 10
4.4487433549
 20
-6.6627250636
 30
0.0
 10
3.2946139981
 20
-7.2807885812
 30
0.0
 10
2.3135934952
 20
-7.6324490734
 30
0.0
 10
1.3031593361
 20
-7.886299363
 30
0.0
 10
0.5200160977
 20
-7.9636104108
 30
0.0
 10
0.0
 20
-7.96361743
 30
0.0
 11
0.0
 21
7.96361743
 31
0.0
 11
1.5525028337
 21
7.8103664294
 31
0.0
 11
2.3099033945
 21
7.6202193378
 31
0.0
 11
3.0450163041
 21
7.3566128489
 31
0.0
 11
4.4201271615
 21
6.6199806386
 31
0.0
 11
5.6249506773
 21
5.6290586491
 31
0.0
 11
6.148760315
 21
5.0498597338
 31
0.0
 11
6.6133058407
 21
4.4221266631
 31
0.0
 11
7.3474260471
 21
3.045662278
 31
0.0
 11
7.7993854198
 21
1.5525502961
 31
0.0
 11
7.9519729743
 21
-0.0000001643
 31
0.0
 11
7.7993866058
 21
-1.5525506488
 31
0.0
 11
7.3474255186
 21
-3.0456620924
 31
0.0
 11
6.6133046893
 21
-4.4221261618
 31
0.0
 11
6.1487602921
 21
-5.0498601137
 31
0.0
 11
5.6249515503
 21
-5.6290597833
 31
0.0
 11
4.4201274557
 21
-6.6199811195
 31
0.0
 11
3.0450161809
 21
-7.356612593
 31
0.0
 11
2.3099032171
 21
-7.6202190817
 31
0.0
 11
1.5525027456
 21
-7.8103663225
 31
0.0
 11
0.0
 21
-7.96361743
 31
0.0
  0
SPLINE
  5
68A
100
AcDbEntity
  8
ASSI
100
AcDbSpline
 62
253
  6
CONTINUOUS
 70
0
 71
3
 72
16
 73
12
 74
10
 42
0.0000001
 43
0.0000001
 44
0.0000000001
 12
0.0003490237
 22
0.9566893764
 32
0.0
 13
0.1577394655
 23
0.9435957533
 33
0.0
 40
0.0
 40
0.0
 40
0.0
 40
0.0
 40
0.3738283099
 40
0.5425483826
 40
0.691368683
 40
0.8152141127
 40
0.9098874009
 40
0.9452370119
 40
0.9721821708
 40
0.9904841731
 40
1.0
 40
1.0
 40
1.0
 40
1.0
 10
10.5005350625
 20
21.0183142309
 30
0.0
 10
10.5005785542
 20
21.1375267551
 30
0.0
 10
10.5008992247
 20
21.3105438104
 30
0.0
 10
10.5019365826
 20
21.5310162349
 30
0.0
 10
10.5029142784
 20
21.6717700771
 30
0.0
 10
10.5041005453
 20
21.7889054979
 30
0.0
 10
10.5052446766
 20
21.8698597794
 30
0.0
 10
10.5063463634
 20
21.9198989948
 30
0.0
 10
10.5070266044
 20
21.945602155
 30
0.0
 10
10.5078541913
 20
21.9630281872
 30
0.0
 10
10.5082977762
 20
21.9719141059
 30
0.0
 10
10.5087981167
 20
21.9749071372
 30
0.0
 11
10.5005350625
 21
21.0183142309
 31
0.0
 11
10.5012546918
 21
21.3759511034
 31
0.0
 11
10.5020305043
 21
21.5373619509
 31
0.0
 11
10.5030519859
 21
21.6797330963
 31
0.0
 11
10.504284415
 21
21.7982083012
 31
0.0
 11
10.5056851816
 21
21.8887704036
 31
0.0
 11
10.506433865
 21
21.9225807149
 31
0.0
 11
10.5072066145
 21
21.948347279
 31
0.0
 11
10.5079970107
 21
21.9658387625
 31
0.0
 11
10.5087981167
 21
21.9749071372
 31
0.0
  0
SPLINE
  5
68B
100
AcDbEntity
  8
ASSI
100
AcDbSpline
 62
253
  6
CONTINUOUS
 70
0
 71
3
 72
27
 73
23
 74
21
 42
0.0000001
 43
0.0000001
 44
0.0000000001
 12
-24.9675258894
 22
0.0003359402
 32
0.0
 13
24.9675258894
 23
0.0003363945
 33
0.0
 40
0.0
 40
0.0
 40
0.0
 40
0.0
 40
0.0624830977
 40
0.0937598972
 40
0.1250384364
 40
0.1875190437
 40
0.2499992557
 40
0.2812769883
 40
0.3125548093
 40
0.3750357991
 40
0.4375176103
 40
0.5000000018
 40
0.5624823902
 40
0.6249642006
 40
0.687445191
 40
0.7187230131
 40
0.7500007443
 40
0.8124809577
 40
0.8749615658
 40
0.9062401072
 40
0.9375169046
 40
1.0
 40
1.0
 40
1.0
 40
1.0
 10
0.0
 20
-7.96361743
 30
0.0
 10
-0.5200161202
 20
-7.9636104331
 30
0.0
 10
-1.3031593824
 20
-7.8862993636
 30
0.0
 10
-2.3135936342
 20
-7.6324493434
 30
0.0
 10
-3.294614125
 20
-7.280788833
 30
0.0
 10
-4.4487432547
 20
-6.6627247031
 30
0.0
 10
-5.4597379216
 20
-5.8309013238
 30
0.0
 10
-6.1586335085
 20
-5.0579396507
 30
0.0
 10
-6.778598739
 20
-4.2203681104
 30
0.0
 10
-7.3948713205
 20
-3.0650703485
 30
0.0
 10
-7.8495688746
 20
-1.5625479677
 30
0.0
 10
-8.0031748655
 20
0.0000000528
 30
0.0
 10
-7.8495705078
 20
1.5625484277
 30
0.0
 10
-7.3948706777
 20
3.0650702735
 30
0.0
 10
-6.7785971838
 20
4.2203672657
 30
0.0
 10
-6.1586335691
 20
5.0579399579
 30
0.0
 10
-5.4597390582
 20
5.8309027009
 30
0.0
 10
-4.4487433729
 20
6.6627250661
 30
0.0
 10
-3.2946140125
 20
7.2807886086
 30
0.0
 10
-2.313593511
 20
7.632449105
 30
0.0
 10
-1.3031593406
 20
7.8862993638
 30
0.0
 10
-0.5200161008
 20
7.9636104237
 30
0.0
 10
0.0
 20
7.96361743
 30
0.0
 11
0.0
 21
-7.96361743
 31
0.0
 11
-1.5525028225
 21
-7.8103664143
 31
0.0
 11
-2.3099033797
 21
-7.6202193047
 31
0.0
 11
-3.0450162869
 21
-7.3566128145
 31
0.0
 11
-4.4201271678
 21
-6.6199806503
 31
0.0
 11
-5.6249507556
 21
-5.6290587475
 31
0.0
 11
-6.1487603206
 21
-5.0498597715
 31
0.0
 11
-6.6133057466
 21
-4.4221266224
 31
0.0
 11
-7.3474259968
 21
-3.0456622598
 31
0.0
 11
-7.7993855172
 21
-1.5525503226
 31
0.0
 11
-7.9519729825
 21
0.0000001391
 31
0.0
 11
-7.799386503
 21
1.5525506192
 31
0.0
 11
-7.3474255574
 21
3.0456621038
 31
0.0
 11
-6.6133047933
 21
4.4221262076
 31
0.0
 11
-6.1487603009
 21
5.0498600843
 31
0.0
 11
-5.6249514796
 21
5.6290596872
 31
0.0
 11
-4.4201274458
 21
6.6199810971
 31
0.0
 11
-3.0450161965
 21
7.35661262
 31
0.0
 11
-2.3099032309
 21
7.6202191091
 31
0.0
 11
-1.5525027562
 21
7.8103663344
 31
0.0
 11
0.0
 21
7.96361743
 31
0.0
  0
SPLINE
  5
68C
100
AcDbEntity
  8
ASSI
100
AcDbSpline
 62
253
  6
CONTINUOUS
 70
0
 71
3
 72
16
 73
12
 74
10
 42
0.0000001
 43
0.0000001
 44
0.0000000001
 12
0.000349899
 22
0.4784888648
 32
0.0
 13
0.1518344674
 23
0.4537598602
 33
0.0
 40
0.0
 40
0.0
 40
0.0
 40
0.0
 40
0.3737359017
 40
0.5423979346
 40
0.691195191
 40
0.8150127292
 40
0.9096787839
 40
0.945057555
 40
0.972031822
 40
0.9903848545
 40
1.0
 40
1.0
 40
1.0
 40
1.0
 10
11.0004589101
 20
20.9972959167
 30
0.0
 10
11.0005025001
 20
21.0569054058
 30
0.0
 10
11.0008231348
 20
21.1434164355
 30
0.0
 10
11.0018608845
 20
21.2536543548
 30
0.0
 10
11.0028386118
 20
21.3240311826
 30
0.0
 10
11.0040232635
 20
21.3825961337
 30
0.0
 10
11.0051704043
 20
21.4230784957
 30
0.0
 10
11.0062677388
 20
21.4480890536
 30
0.0
 10
11.0069565581
 20
21.460961297
 30
0.0
 10
11.0077707693
 20
21.4696536894
 30
0.0
 10
11.0082353275
 20
21.4741380475
 30
0.0
 10
11.0087219643
 20
21.4755923698
 30
0.0
 11
11.0004589101
 21
20.9972959167
 31
0.0
 11
11.0011787685
 21
21.176122983
 31
0.0
 11
11.0019547155
 21
21.2568221788
 31
0.0
 11
11.0029759695
 21
21.3280127034
 31
0.0
 11
11.0042080392
 21
21.38724522
 31
0.0
 11
11.0056085072
 21
21.4325202304
 31
0.0
 11
11.0063575155
 21
21.4494320046
 31
0.0
 11
11.0071310197
 21
21.4623156958
 31
0.0
 11
11.0079218276
 21
21.4710617405
 31
0.0
 11
11.0087219643
 21
21.4755923698
 31
0.0
  0
SPLINE
  5
68D
100
AcDbEntity
  8
ASSI
100
AcDbSpline
 62
253
  6
CONTINUOUS
 70
0
 71
3
 72
18
 73
14
 74
12
 42
0.0000001
 43
0.0000001
 44
0.0000000001
 12
0.5013336228
 22
-0.0003675978
 32
0.0
 13
0.192295595
 23
-0.4629880566
 33
0.0
 40
0.0
 40
0.0
 40
0.0
 40
0.0
 40
0.1923752926
 40
0.37768039
 40
0.5486974124
 40
0.6991918469
 40
0.8234697585
 40
0.8742985612
 40
0.9169263429
 40
0.9509999465
 40
0.9762072352
 40
0.9924281159
 40
1.0
 40
1.0
 40
1.0
 40
1.0
 10
10.5005350626
 20
21.0183132877
 30
0.0
 10
10.53268313
 20
21.0182897155
 30
0.0
 10
10.5957980165
 20
21.0179892674
 30
0.0
 10
10.6874842431
 20
21.0167903675
 30
0.0
 10
10.7721610258
 20
21.0148948158
 30
0.0
 10
10.8466116271
 20
21.0123820068
 30
0.0
 10
10.9009751522
 20
21.0097383766
 30
0.0
 10
10.9372593782
 20
21.0072733534
 30
0.0
 10
10.958538956
 20
21.0054766355
 30
0.0
 10
10.9753556581
 20
21.0036103087
 30
0.0
 10
10.9881135957
 20
21.0017825886
 30
0.0
 10
10.9955790075
 20
20.9999114445
 30
0.0
 10
10.9999735633
 20
20.9984644806
 30
0.0
 10
11.00045891
 20
20.9972959167
 30
0.0
 11
10.5005350626
 21
21.0183132877
 31
0.0
 11
10.596978166
 21
21.0178474898
 31
0.0
 11
10.6898696148
 21
21.0166092845
 31
0.0
 11
10.7755837288
 21
21.0146455271
 31
0.0
 11
10.8509863061
 21
21.012029609
 31
0.0
 11
10.9132103226
 21
21.0088595989
 31
0.0
 11
10.9386319696
 21
21.007104006
 31
0.0
 11
10.9599226657
 21
21.0052560216
 31
0.0
 11
10.9768962704
 21
21.0033325016
 31
0.0
 11
10.9893771641
 21
21.0013506461
 31
0.0
 11
10.9972544334
 21
20.9993309249
 31
0.0
 11
11.00045891
 21
20.9972959167
 31
0.0
  0
SPLINE
  5
68E
100
AcDbEntity
  8
ASSI
100
AcDbSpline
 62
253
  6
CONTINUOUS
 70
0
 71
3
 72
9
 73
5
 74
3
 42
0.0000001
 43
0.0000001
 44
0.0000000001
 12
0.0308407987
 22
41.9945826303
 32
0.0
 13
-0.0308408108
 23
41.9945826303
 33
0.0
 40
0.0
 40
0.0
 40
0.0
 40
0.0
 40
0.2499447445
 40
1.0
 40
1.0
 40
1.0
 40
1.0
 10
-11.0004589101
 20
-20.9972959167
 30
0.0
 10
-10.9978894116
 20
-17.4985208411
 30
0.0
 10
-10.9901837814
 20
-3.5003248594
 30
0.0
 10
-10.9927481394
 20
10.4978767822
 30
0.0
 10
-11.0004589101
 20
20.9972959167
 30
0.0
 11
-11.0004589101
 21
-20.9972959167
 31
0.0
 11
-10.9946790386
 21
-10.5009694508
 31
0.0
 11
-11.0004589101
 21
20.9972959167
 31
0.0
  0
SPLINE
  5
68F
100
AcDbEntity
  8
ASSI
100
AcDbSpline
 62
253
  6
CONTINUOUS
 70
0
 71
3
 72
9
 73
5
 74
3
 42
0.0000001
 43
0.0000001
 44
0.0000000001
 12
0.0308407988
 22
42.036619268
 32
0.0
 13
-0.030840811
 23
42.036619268
 33
0.0
 40
0.0
 40
0.0
 40
0.0
 40
0.0
 40
0.2499447445
 40
1.0
 40
1.0
 40
1.0
 40
1.0
 10
-10.5005350625
 20
-21.0183142309
 30
0.0
 10
-10.497965564
 20
-17.5160368767
 30
0.0
 10
-10.4902599339
 20
-3.5038286842
 30
0.0
 10
-10.4928242917
 20
10.5083851625
 30
0.0
 10
-10.5005350625
 20
21.0183142309
 30
0.0
 11
-10.5005350625
 21
-21.0183142309
 31
0.0
 11
-10.4947551911
 21
-10.5114809302
 31
0.0
 11
-10.5005350625
 21
21.0183142309
 31
0.0
  0
SPLINE
  5
690
100
AcDbEntity
  8
ASSI
100
AcDbSpline
 62
253
  6
CONTINUOUS
 70
0
 71
3
 72
18
 73
14
 74
12
 42
0.0000001
 43
0.0000001
 44
0.0000000001
 12
0.1920611539
 22
-0.463085724
 32
0.0
 13
0.5013339601
 23
-0.0003675254
 33
0.0
 40
0.0
 40
0.0
 40
0.0
 40
0.0
 40
0.0075700003
 40
0.0237887964
 40
0.0489941153
 40
0.0830659464
 40
0.1256922205
 40
0.1765198411
 40
0.3007965564
 40
0.4512915864
 40
0.6223110015
 40
0.8076199896
 40
1.0
 40
1.0
 40
1.0
 40
1.0
 10
-11.0004589101
 20
-20.9972959167
 30
0.0
 10
-10.9999742758
 20
-20.9984644364
 30
0.0
 10
-10.9955799846
 20
-20.9999117552
 30
0.0
 10
-10.9881159881
 20
-21.001782692
 30
0.0
 10
-10.9753588091
 20
-21.0036105813
 30
0.0
 10
-10.9585430828
 20
-21.0054769247
 30
0.0
 10
-10.9372642072
 20
-21.0072737328
 30
0.0
 10
-10.9009806331
 20
-21.0097388683
 30
0.0
 10
-10.8466173644
 20
-21.0123826364
 30
0.0
 10
-10.7721664222
 20
-21.0148955782
 30
0.0
 10
-10.6874884333
 20
-21.0167912378
 30
0.0
 10
-10.5958003077
 20
-21.0179902036
 30
0.0
 10
-10.53268394
 20
-21.018290662
 30
0.0
 10
-10.5005350625
 20
-21.0183142302
 30
0.0
 11
-11.0004589101
 21
-20.9972959167
 31
0.0
 11
-10.9972555905
 21
-20.9993309896
 31
0.0
 11
-10.989379412
 21
-21.0013507792
 31
0.0
 11
-10.976899521
 21
-21.0033327066
 31
0.0
 11
-10.9599268074
 21
-21.0052563018
 31
0.0
 11
-10.9386368624
 21
-21.0071043638
 31
0.0
 11
-10.9132157977
 21
-21.0088600359
 31
0.0
 11
-10.8509923478
 21
-21.0120302034
 31
0.0
 11
-10.775589426
 21
-21.014646266
 31
0.0
 11
-10.689874057
 21
-21.0166101386
 31
0.0
 11
-10.596980596
 21
-21.0178484152
 31
0.0
 11
-10.5005350625
 21
-21.0183142302
 31
0.0
  0
SPLINE
  5
691
100
AcDbEntity
  8
ASSI
100
AcDbSpline
 62
253
  6
CONTINUOUS
 70
0
 71
3
 72
16
 73
12
 74
10
 42
0.0000001
 43
0.0000001
 44
0.0000000001
 12
0.1517295817
 22
0.4537949304
 32
0.0
 13
0.0003487351
 23
0.4784888538
 33
0.0
 40
0.0
 40
0.0
 40
0.0
 40
0.0
 40
0.0096168902
 40
0.0279693862
 40
0.0549435302
 40
0.0903237577
 40
0.1849916967
 40
0.3088069688
 40
0.4576027392
 40
0.626264615
 40
1.0
 40
1.0
 40
1.0
 40
1.0
 10
-11.0087219643
 20
-21.4755923698
 30
0.0
 10
-11.0082355754
 20
-21.4741376712
 30
0.0
 10
-11.0077706367
 20
-21.4696532826
 30
0.0
 10
-11.006956625
 20
-21.4609606029
 30
0.0
 10
-11.0062676843
 20
-21.4480882879
 30
0.0
 10
-11.0051704574
 20
-21.4230771855
 30
0.0
 10
-11.0040232732
 20
-21.3825946742
 30
0.0
 10
-11.0028385901
 20
-21.3240300142
 30
0.0
 10
-11.001860821
 20
-21.2536538153
 30
0.0
 10
-11.0008231572
 20
-21.1434162413
 30
0.0
 10
-11.000502355
 20
-21.056905322
 30
0.0
 10
-11.0004589101
 20
-20.9972959167
 30
0.0
 11
-11.0087219643
 21
-21.4755923698
 31
0.0
 11
-11.0079218272
 21
-21.471060893
 31
0.0
 11
-11.0071310172
 21
-21.4623151064
 31
0.0
 11
-11.0063575121
 21
-21.4494314746
 31
0.0
 11
-11.0056085062
 21
-21.4325190031
 31
0.0
 11
-11.0042080388
 21
-21.3872430918
 31
0.0
 11
-11.0029759509
 21
-21.3280116616
 31
0.0
 11
-11.0019546728
 21
-21.2568218502
 31
0.0
 11
-11.0011787433
 21
-21.1761227314
 31
0.0
 11
-11.0004589101
 21
-20.9972959167
 31
0.0
  0
SPLINE
  5
692
100
AcDbEntity
  8
ASSI
100
AcDbSpline
 62
253
  6
CONTINUOUS
 70
0
 71
3
 72
16
 73
12
 74
10
 42
0.0000001
 43
0.0000001
 44
0.0000000001
 12
-0.0003487348
 22
0.4784888537
 32
0.0
 13
-0.1517294267
 23
0.4537949822
 33
0.0
 40
0.0
 40
0.0
 40
0.0
 40
0.0
 40
0.3737353852
 40
0.5423972612
 40
0.6911930313
 40
0.8150083027
 40
0.9096762431
 40
0.9450564709
 40
0.9720306132
 40
0.9903831076
 40
1.0
 40
1.0
 40
1.0
 40
1.0
 10
-11.0004589101
 20
20.9972959167
 30
0.0
 10
-11.000502355
 20
21.056905322
 30
0.0
 10
-11.0008231572
 20
21.1434162413
 30
0.0
 10
-11.0018608209
 20
21.2536538154
 30
0.0
 10
-11.0028385901
 20
21.3240300141
 30
0.0
 10
-11.0040232732
 20
21.3825946742
 30
0.0
 10
-11.0051704575
 20
21.4230771856
 30
0.0
 10
-11.0062676842
 20
21.4480882881
 30
0.0
 10
-11.0069566251
 20
21.4609606026
 30
0.0
 10
-11.0077706365
 20
21.4696532823
 30
0.0
 10
-11.0082355758
 20
21.4741376707
 30
0.0
 10
-11.0087219643
 20
21.4755923698
 30
0.0
 11
-11.0004589101
 21
20.9972959167
 31
0.0
 11
-11.0011787433
 21
21.1761227315
 31
0.0
 11
-11.0019546728
 21
21.2568218504
 31
0.0
 11
-11.0029759509
 21
21.3280116616
 31
0.0
 11
-11.0042080388
 21
21.3872430915
 31
0.0
 11
-11.0056085062
 21
21.4325190035
 31
0.0
 11
-11.0063575121
 21
21.4494314751
 31
0.0
 11
-11.0071310172
 21
21.4623151061
 31
0.0
 11
-11.0079218272
 21
21.4710608919
 31
0.0
 11
-11.0087219643
 21
21.4755923698
 31
0.0
  0
SPLINE
  5
693
100
AcDbEntity
  8
ASSI
100
AcDbSpline
 62
253
  6
CONTINUOUS
 70
0
 71
3
 72
16
 73
12
 74
10
 42
0.0000001
 43
0.0000001
 44
0.0000000001
 12
0.1577724203
 22
0.9435902438
 32
0.0
 13
0.0003449146
 23
0.9566893779
 33
0.0
 40
0.0
 40
0.0
 40
0.0
 40
0.0
 40
0.0095166029
 40
0.0278180584
 40
0.0547628932
 40
0.0901126925
 40
0.1847863271
 40
0.308631966
 40
0.4574525318
 40
0.6261729872
 40
1.0
 40
1.0
 40
1.0
 40
1.0
 10
-10.5087981167
 20
-21.9749071372
 30
0.0
 10
-10.5082976309
 20
-21.9719138793
 30
0.0
 10
-10.5078540423
 20
-21.9630278698
 30
0.0
 10
-10.5070267585
 20
-21.945601865
 30
0.0
 10
-10.5063467153
 20
-21.9198989135
 30
0.0
 10
-10.5052450581
 20
-21.8698596334
 30
0.0
 10
-10.5040999189
 20
-21.7889051287
 30
0.0
 10
-10.5029136275
 20
-21.6717694442
 30
0.0
 10
-10.5019369153
 20
-21.5310153218
 30
0.0
 10
-10.500899965
 20
-21.3105431039
 30
0.0
 10
-10.500578042
 20
-21.1375263417
 30
0.0
 10
-10.5005350625
 20
-21.0183142309
 30
0.0
 11
-10.5087981167
 21
-21.9749071372
 31
0.0
 11
-10.507996859
 21
-21.9658380305
 31
0.0
 11
-10.5072066992
 21
-21.9483470601
 31
0.0
 11
-10.5064341754
 21
-21.9225807995
 31
0.0
 11
-10.5056855128
 21
-21.8887703076
 31
0.0
 11
-10.5042840635
 21
-21.7982078841
 31
0.0
 11
-10.5030514657
 21
-21.6797324809
 31
0.0
 11
-10.5020306782
 21
-21.5373610765
 31
0.0
 11
-10.5012551572
 21
-21.3759498615
 31
0.0
 11
-10.5005350625
 21
-21.0183142309
 31
0.0
  0
SPLINE
  5
694
100
AcDbEntity
  8
ASSI
100
AcDbSpline
 62
253
  6
CONTINUOUS
 70
0
 71
3
 72
16
 73
12
 74
10
 42
0.0000001
 43
0.0000001
 44
0.0000000001
 12
-0.0003449152
 22
0.9566893779
 32
0.0
 13
-0.1577724233
 23
0.9435902433
 33
0.0
 40
0.0
 40
0.0
 40
0.0
 40
0.0
 40
0.3738270127
 40
0.5425474682
 40
0.691368034
 40
0.8152136728
 40
0.9098873076
 40
0.9452371069
 40
0.9721819415
 40
0.9904833967
 40
1.0
 40
1.0
 40
1.0
 40
1.0
 10
-10.5005350625
 20
21.0183142309
 30
0.0
 10
-10.5005780421
 20
21.1375263417
 30
0.0
 10
-10.500899965
 20
21.3105431039
 30
0.0
 10
-10.5019369153
 20
21.5310153218
 30
0.0
 10
-10.5029136275
 20
21.6717694441
 30
0.0
 10
-10.5040999188
 20
21.7889051287
 30
0.0
 10
-10.5052450582
 20
21.8698596335
 30
0.0
 10
-10.5063467153
 20
21.9198989135
 30
0.0
 10
-10.5070267584
 20
21.9456018649
 30
0.0
 10
-10.5078540422
 20
21.9630278697
 30
0.0
 10
-10.5082976309
 20
21.9719138792
 30
0.0
 10
-10.5087981167
 20
21.9749071372
 30
0.0
 11
-10.5005350625
 21
21.0183142309
 31
0.0
 11
-10.5012551572
 21
21.3759498615
 31
0.0
 11
-10.5020306782
 21
21.5373610765
 31
0.0
 11
-10.5030514657
 21
21.6797324809
 31
0.0
 11
-10.5042840635
 21
21.798207884
 31
0.0
 11
-10.5056855128
 21
21.8887703076
 31
0.0
 11
-10.5064341754
 21
21.9225807996
 31
0.0
 11
-10.5072066992
 21
21.94834706
 31
0.0
 11
-10.5079968589
 21
21.9658380302
 31
0.0
 11
-10.5087981167
 21
21.9749071372
 31
0.0
  0
SPLINE
  5
695
100
AcDbEntity
  8
ASSI
100
AcDbSpline
 62
253
  6
CONTINUOUS
 70
0
 71
3
 72
18
 73
14
 74
12
 42
0.0000001
 43
0.0000001
 44
0.0000000001
 12
0.192120195
 22
0.4630611383
 32
0.0
 13
0.5013338728
 23
0.0003675693
 33
0.0
 40
0.0
 40
0.0
 40
0.0
 40
0.0
 40
0.0075704703
 40
0.0237897891
 40
0.0489956025
 40
0.0830678796
 40
0.1256945334
 40
0.1765224515
 40
0.300799469
 40
0.4512943504
 40
0.622313165
 40
0.807621175
 40
1.0
 40
1.0
 40
1.0
 40
1.0
 10
-11.0004589101
 20
20.9972959167
 30
0.0
 10
-10.9999740967
 20
20.9984644469
 30
0.0
 10
-10.9955797383
 20
20.9999116731
 30
0.0
 10
-10.9881153873
 20
21.0017826609
 30
0.0
 10
-10.9753580173
 20
21.0036105053
 30
0.0
 10
-10.9585420457
 20
21.0054768432
 30
0.0
 10
-10.9372629933
 20
21.0072736273
 30
0.0
 10
-10.900979255
 20
21.0097387334
 30
0.0
 10
-10.8466159216
 20
21.0123824665
 30
0.0
 10
-10.7721650649
 20
21.014895376
 30
0.0
 10
-10.6874873794
 20
21.0167910112
 30
0.0
 10
-10.5957997314
 20
21.0179899644
 30
0.0
 10
-10.5326837363
 20
21.0182904232
 30
0.0
 10
-10.5005350625
 20
21.018313994
 30
0.0
 11
-11.0004589101
 21
20.9972959167
 31
0.0
 11
-10.9972553001
 21
20.9993309706
 31
0.0
 11
-10.9893788475
 21
21.0013507407
 31
0.0
 11
-10.9768987045
 21
21.0033326481
 31
0.0
 11
-10.9599257666
 21
21.0052562227
 31
0.0
 11
-10.9386356324
 21
21.0071042639
 31
0.0
 11
-10.9132144212
 21
21.0088599152
 31
0.0
 11
-10.8509908284
 21
21.0120300426
 31
0.0
 11
-10.775587993
 21
21.0146460699
 31
0.0
 11
-10.6898729396
 21
21.0166099161
 31
0.0
 11
-10.5969799849
 21
21.0178481787
 31
0.0
 11
-10.5005350625
 21
21.018313994
 31
0.0
  0
SPLINE
  5
696
100
AcDbEntity
  8
ASSI
100
AcDbSpline
 62
253
  6
CONTINUOUS
 70
0
 71
3
 72
16
 73
12
 74
10
 42
0.0000001
 43
0.0000001
 44
0.0000000001
 12
-0.1577394507
 22
0.9435957558
 32
0.0
 13
-0.0003490239
 23
0.9566893764
 33
0.0
 40
0.0
 40
0.0
 40
0.0
 40
0.0
 40
0.0095158267
 40
0.0278178291
 40
0.0547629882
 40
0.0901125992
 40
0.1847858872
 40
0.308631317
 40
0.4574516174
 40
0.6261716901
 40
1.0
 40
1.0
 40
1.0
 40
1.0
 10
10.5087981167
 20
-21.9749071372
 30
0.0
 10
10.5082977763
 20
-21.971914106
 30
0.0
 10
10.5078541913
 20
-21.9630281873
 30
0.0
 10
10.5070266044
 20
-21.9456021551
 30
0.0
 10
10.5063463634
 20
-21.9198989947
 30
0.0
 10
10.5052446765
 20
-21.8698597794
 30
0.0
 10
10.5041005453
 20
-21.7889054979
 30
0.0
 10
10.5029142784
 20
-21.6717700771
 30
0.0
 10
10.5019365826
 20
-21.5310162349
 30
0.0
 10
10.5008992247
 20
-21.3105438104
 30
0.0
 10
10.5005785542
 20
-21.1375267551
 30
0.0
 10
10.5005350625
 20
-21.0183142309
 30
0.0
 11
10.5087981167
 21
-21.9749071372
 31
0.0
 11
10.5079970108
 21
-21.9658387626
 31
0.0
 11
10.5072066145
 21
-21.9483472791
 31
0.0
 11
10.506433865
 21
-21.9225807149
 31
0.0
 11
10.5056851816
 21
-21.8887704036
 31
0.0
 11
10.504284415
 21
-21.7982083012
 31
0.0
 11
10.5030519859
 21
-21.6797330963
 31
0.0
 11
10.5020305043
 21
-21.5373619509
 31
0.0
 11
10.5012546917
 21
-21.3759511034
 31
0.0
 11
10.5005350625
 21
-21.0183142309
 31
0.0
  0
SPLINE
  5
697
100
AcDbEntity
  8
ASSI
100
AcDbSpline
 62
253
  6
CONTINUOUS
 70
0
 71
3
 72
16
 73
12
 74
10
 42
0.0000001
 43
0.0000001
 44
0.0000000001
 12
-0.1518345773
 22
0.4537598234
 32
0.0
 13
-0.0003498994
 23
0.4784888648
 33
0.0
 40
0.0
 40
0.0
 40
0.0
 40
0.0
 40
0.0096151439
 40
0.0279681776
 40
0.0549424458
 40
0.0903212168
 40
0.1849872704
 40
0.3088048091
 40
0.4576020658
 40
0.6262640985
 40
1.0
 40
1.0
 40
1.0
 40
1.0
 10
11.0087219643
 20
-21.4755923698
 30
0.0
 10
11.0082353272
 20
-21.4741380478
 30
0.0
 10
11.0077707694
 20
-21.4696536897
 30
0.0
 10
11.006956558
 20
-21.4609612973
 30
0.0
 10
11.0062677389
 20
-21.4480890534
 30
0.0
 10
11.0051704042
 20
-21.4230784956
 30
0.0
 10
11.0040232635
 20
-21.3825961337
 30
0.0
 10
11.0028386118
 20
-21.3240311826
 30
0.0
 10
11.0018608845
 20
-21.2536543547
 30
0.0
 10
11.0008231347
 20
-21.1434164354
 30
0.0
 10
11.0005025001
 20
-21.0569054058
 30
0.0
 10
11.0004589101
 20
-20.9972959167
 30
0.0
 11
11.0087219643
 21
-21.4755923698
 31
0.0
 11
11.0079218276
 21
-21.4710617413
 31
0.0
 11
11.0071310197
 21
-21.462315696
 31
0.0
 11
11.0063575155
 21
-21.4494320042
 31
0.0
 11
11.0056085072
 21
-21.4325202301
 31
0.0
 11
11.0042080392
 21
-21.3872452202
 31
0.0
 11
11.0029759695
 21
-21.3280127034
 31
0.0
 11
11.0019547155
 21
-21.2568221786
 31
0.0
 11
11.0011787685
 21
-21.1761229829
 31
0.0
 11
11.0004589101
 21
-20.9972959167
 31
0.0
  0
SPLINE
  5
698
100
AcDbEntity
  8
ASSI
100
AcDbSpline
 62
253
  6
CONTINUOUS
 70
0
 71
3
 72
9
 73
5
 74
3
 42
0.0000001
 43
0.0000001
 44
0.0000000001
 12
-0.0308408124
 22
42.036619268
 32
0.0
 13
0.0308408099
 23
42.036619268
 33
0.0
 40
0.0
 40
0.0
 40
0.0
 40
0.0
 40
0.2499447445
 40
1.0
 40
1.0
 40
1.0
 40
1.0
 10
10.5005350625
 20
-21.0183142309
 30
0.0
 10
10.4979655629
 20
-17.5160368768
 30
0.0
 10
10.4902599362
 20
-3.5038286843
 30
0.0
 10
10.492824292
 20
10.5083851624
 30
0.0
 10
10.5005350625
 20
21.0183142309
 30
0.0
 11
10.5005350625
 21
-21.0183142309
 31
0.0
 11
10.4947551913
 21
-10.5114809306
 31
0.0
 11
10.5005350625
 21
21.0183142309
 31
0.0
  0
SPLINE
  5
699
100
AcDbEntity
  8
ASSI
100
AcDbSpline
 62
253
  6
CONTINUOUS
 70
0
 71
3
 72
9
 73
5
 74
3
 42
0.0000001
 43
0.0000001
 44
0.0000000001
 12
-0.0308408122
 22
41.9945826303
 32
0.0
 13
0.0308408097
 23
41.9945826303
 33
0.0
 40
0.0
 40
0.0
 40
0.0
 40
0.0
 40
0.2499447445
 40
1.0
 40
1.0
 40
1.0
 40
1.0
 10
11.0004589101
 20
-20.9972959167
 30
0.0
 10
10.9978894105
 20
-17.498520841
 30
0.0
 10
10.9901837837
 20
-3.5003248593
 30
0.0
 10
10.9927481396
 20
10.4978767823
 30
0.0
 10
11.0004589101
 20
20.9972959167
 30
0.0
 11
11.0004589101
 21
-20.9972959167
 31
0.0
 11
10.9946790388
 21
-10.5009694504
 31
0.0
 11
11.0004589101
 21
20.9972959167
 31
0.0
  0
SPLINE
  5
69A
100
AcDbEntity
  8
ASSI
100
AcDbSpline
 62
253
  6
CONTINUOUS
 70
0
 71
3
 72
18
 73
14
 74
12
 42
0.0000001
 43
0.0000001
 44
0.0000000001
 12
0.5013339604
 22
0.0003675206
 32
0.0
 13
0.1920610138
 23
0.4630857824
 33
0.0
 40
0.0
 40
0.0
 40
0.0
 40
0.0
 40
0.1923800154
 40
0.3776890116
 40
0.5487084308
 40
0.6992034632
 40
0.8234801772
 40
0.8743077967
 40
0.9169340671
 40
0.9510058938
 40
0.9762112099
 40
0.9924300022
 40
1.0
 40
1.0
 40
1.0
 40
1.0
 10
10.5005350625
 20
-21.0183142305
 30
0.0
 10
10.5326839409
 20
-21.0182906626
 30
0.0
 10
10.5958003108
 20
-21.0179902047
 30
0.0
 10
10.6874884393
 20
-21.0167912389
 30
0.0
 10
10.7721664307
 20
-21.0148955789
 30
0.0
 10
10.8466173738
 20
-21.0123826368
 30
0.0
 10
10.9009806425
 20
-21.0097388683
 30
0.0
 10
10.9372642156
 20
-21.0072737327
 30
0.0
 10
10.9585430897
 20
-21.0054769244
 30
0.0
 10
10.9753588141
 20
-21.003610581
 30
0.0
 10
10.9881159913
 20
-21.0017826919
 30
0.0
 10
10.9955799864
 20
-20.9999117554
 30
0.0
 10
10.9999742763
 20
-20.9984644361
 30
0.0
 10
11.0004589101
 20
-20.9972959167
 30
0.0
 11
10.5005350625
 21
-21.0183142305
 31
0.0
 11
10.5969805986
 21
-21.0178484161
 31
0.0
 11
10.6898740637
 21
-21.0166101396
 31
0.0
 11
10.7755894347
 21
-21.0146462667
 31
0.0
 11
10.8509923578
 21
-21.0120302037
 31
0.0
 11
10.913215807
 21
-21.0088600358
 31
0.0
 11
10.9386368712
 21
-21.0071043636
 31
0.0
 11
10.9599268144
 21
-21.0052563015
 31
0.0
 11
10.9768995257
 21
-21.0033327063
 31
0.0
 11
10.9893794154
 21
-21.0013507791
 31
0.0
 11
10.9972555919
 21
-20.9993309895
 31
0.0
 11
11.0004589101
 21
-20.9972959167
 31
0.0
  0
SPLINE
  5
69B
100
AcDbEntity
  8
CURVE
100
AcDbSpline
 62
253
  6
CONTINUOUS
 70
0
 71
3
 72
12
 73
8
 74
6
 42
0.0000001
 43
0.0000001
 44
0.0000000001
 12
-0.0257256259
 22
-1.7371561489
 32
0.0
 13
-0.0314063124
 23
1.3970856626
 33
0.0
 40
0.0
 40
0.0
 40
0.0
 40
0.0
 40
0.2
 40
0.4
 40
0.6
 40
0.8
 40
1.0
 40
1.0
 40
1.0
 40
1.0
 10
11.0651962049
 20
-0.9691295536
 30
0.0
 10
11.0634811632
 20
-1.0849399635
 30
0.0
 10
11.0594036644
 20
-1.2877300566
 30
0.0
 10
11.0519976404
 20
-1.4715138894
 30
0.0
 10
11.043962387
 20
-1.5193426981
 30
0.0
 10
11.0360553652
 20
-1.4267077932
 30
0.0
 10
11.0313376553
 20
-1.2762700442
 30
0.0
 10
11.0292439011
 20
-1.183131
 30
0.0
 11
11.0651962049
 21
-0.9691295536
 31
0.0
 11
11.0591887018
 21
-1.2676631721
 31
0.0
 11
11.0518927689
 21
-1.4488547187
 31
0.0
 11
11.0439837589
 21
-1.4959320792
 31
0.0
 11
11.0361937747
 21
-1.4045375068
 31
0.0
 11
11.0292439011
 21
-1.183131
 31
0.0
  0
SPLINE
  5
69C
100
AcDbEntity
  8
CURVE
100
AcDbSpline
 62
253
  6
CONTINUOUS
 70
0
 71
3
 72
107
 73
103
 74
101
 42
0.0000001
 43
0.0000001
 44
0.0000000001
 12
0.1084551558
 22
0.6093211866
 32
0.0
 13
-0.1103665082
 23
0.6312044813
 33
0.0
 40
0.0
 40
0.0
 40
0.0
 40
0.0
 40
0.015625
 40
0.03125
 40
0.046875
 40
0.0546875
 40
0.05859375
 40
0.0625
 40
0.06640625
 40
0.0703125
 40
0.078125
 40
0.09375
 40
0.109375
 40
0.1171875
 40
0.12109375
 40
0.125
 40
0.12890625
 40
0.1328125
 40
0.140625
 40
0.15625
 40
0.171875
 40
0.1796875
 40
0.18359375
 40
0.1875
 40
0.19140625
 40
0.1953125
 40
0.203125
 40
0.21875
 40
0.234375
 40
0.2421875
 40
0.25
 40
0.2578125
 40
0.265625
 40
0.28125
 40
0.296875
 40
0.3046875
 40
0.3125
 40
0.3203125
 40
0.328125
 40
0.34375
 40
0.359375
 40
0.3671875
 40
0.375
 40
0.3828125
 40
0.390625
 40
0.40625
 40
0.421875
 40
0.4375
 40
0.453125
 40
0.46875
 40
0.5
 40
0.53125
 40
0.546875
 40
0.5625
 40
0.578125
 40
0.59375
 40
0.609375
 40
0.6171875
 40
0.625
 40
0.6328125
 40
0.640625
 40
0.65625
 40
0.671875
 40
0.6796875
 40
0.6875
 40
0.6953125
 40
0.703125
 40
0.71875
 40
0.734375
 40
0.7421875
 40
0.74609375
 40
0.75
 40
0.75390625
 40
0.7578125
 40
0.765625
 40
0.78125
 40
0.796875
 40
0.8046875
 40
0.80859375
 40
0.8125
 40
0.81640625
 40
0.8203125
 40
0.828125
 40
0.84375
 40
0.859375
 40
0.8671875
 40
0.87109375
 40
0.875
 40
0.87890625
 40
0.8828125
 40
0.890625
 40
0.90625
 40
0.921875
 40
0.9296875
 40
0.93359375
 40
0.9375
 40
0.94140625
 40
0.9453125
 40
0.953125
 40
0.96875
 40
0.984375
 40
1.0
 40
1.0
 40
1.0
 40
1.0
 10
11.0452696104
 20
-1.9996264008
 30
0.0
 10
11.045834481
 20
-1.996452853
 30
0.0
 10
11.0469641737
 20
-1.9900917023
 30
0.0
 10
11.048659004
 20
-1.980634306
 30
0.0
 10
11.0500705127
 20
-1.9725071809
 30
0.0
 10
11.0510602262
 20
-1.9672978183
 30
0.0
 10
11.0516231905
 20
-1.9635726139
 30
0.0
 10
11.0520526992
 20
-1.9628869522
 30
0.0
 10
11.0524543589
 20
-1.954142537
 30
0.0
 10
11.0529996245
 20
-1.9452950493
 30
0.0
 10
11.0539492577
 20
-1.9284943915
 30
0.0
 10
11.0553087007
 20
-1.9052427765
 30
0.0
 10
11.0566655741
 20
-1.8815034896
 30
0.0
 10
11.0576188048
 20
-1.8653855725
 30
0.0
 10
11.0581584172
 20
-1.8554652065
 30
0.0
 10
11.0585774221
 20
-1.8500125767
 30
0.0
 10
11.05894179
 20
-1.836964432
 30
0.0
 10
11.0594466787
 20
-1.8222170329
 30
0.0
 10
11.0603212825
 20
-1.7951670507
 30
0.0
 10
11.06157595
 20
-1.7572322466
 30
0.0
 10
11.0628267339
 20
-1.7188311103
 30
0.0
 10
11.0637067748
 20
-1.6924339932
 30
0.0
 10
11.0642031195
 20
-1.6766606631
 30
0.0
 10
11.0645937021
 20
-1.6667602615
 30
0.0
 10
11.064914256
 20
-1.6494861071
 30
0.0
 10
11.0653660579
 20
-1.6290245085
 30
0.0
 10
11.0661456474
 20
-1.5920334702
 30
0.0
 10
11.0672626908
 20
-1.5396914153
 30
0.0
 10
11.0683874315
 20
-1.4875940104
 30
0.0
 10
11.0692660753
 20
-1.444927098
 30
0.0
 10
11.0699838858
 20
-1.4157470892
 30
0.0
 10
11.0704769603
 20
-1.3757808725
 30
0.0
 10
11.0712132687
 20
-1.3262747183
 30
0.0
 10
11.0721039263
 20
-1.2629915344
 30
0.0
 10
11.0730149011
 20
-1.2005826468
 30
0.0
 10
11.0737187019
 20
-1.1496776185
 30
0.0
 10
11.0743092991
 20
-1.113908024
 30
0.0
 10
11.0746613994
 20
-1.068990682
 30
0.0
 10
11.0752145894
 20
-1.0123063056
 30
0.0
 10
11.075874397
 20
-0.9402796064
 30
0.0
 10
11.0765562706
 20
-0.868931056
 30
0.0
 10
11.077074155
 20
-0.8111616415
 30
0.0
 10
11.0775321722
 20
-0.769499414
 30
0.0
 10
11.077725581
 20
-0.72152314
 30
0.0
 10
11.0780747076
 20
-0.6597400013
 30
0.0
 10
11.0784882755
 20
-0.581906994
 30
0.0
 10
11.0789573185
 20
-0.4881291484
 30
0.0
 10
11.07957186
 20
-0.3968307845
 30
0.0
 10
11.079631646
 20
-0.2959927306
 30
0.0
 10
11.0798704036
 20
-0.1650451643
 30
0.0
 10
11.080362917
 20
0.0010638609
 30
0.0
 10
11.079880361
 20
0.1618535817
 30
0.0
 10
11.0796495273
 20
0.2910449858
 30
0.0
 10
11.0795958104
 20
0.389451239
 30
0.0
 10
11.0789868545
 20
0.4815268782
 30
0.0
 10
11.0785235219
 20
0.5752214407
 30
0.0
 10
11.0781146996
 20
0.6531793438
 30
0.0
 10
11.0777693384
 20
0.7150263621
 30
0.0
 10
11.0775788547
 20
0.7630420776
 30
0.0
 10
11.0771233736
 20
0.8047956383
 30
0.0
 10
11.0766090356
 20
0.862666994
 30
0.0
 10
11.0759313307
 20
0.9341620149
 30
0.0
 10
11.0752765427
 20
1.0062838039
 30
0.0
 10
11.0747255375
 20
1.0631523306
 30
0.0
 10
11.074380058
 20
1.1079143783
 30
0.0
 10
11.0737770684
 20
1.1446482673
 30
0.0
 10
11.0730629427
 20
1.1964244985
 30
0.0
 10
11.0721401069
 20
1.2602323402
 30
0.0
 10
11.0712256604
 20
1.3241928302
 30
0.0
 10
11.0705890554
 20
1.3692833249
 30
0.0
 10
11.0702167513
 20
1.3944581246
 30
0.0
 10
11.0699621104
 20
1.4150219156
 30
0.0
 10
11.0696133859
 20
1.4291505402
 30
0.0
 10
11.0691812452
 20
1.4502340355
 30
0.0
 10
11.0684096258
 20
1.4860772777
 30
0.0
 10
11.0673159869
 20
1.5378865652
 30
0.0
 10
11.0662169322
 20
1.589282705
 30
0.0
 10
11.0654528949
 20
1.6257043539
 30
0.0
 10
11.0650088396
 20
1.6458789244
 30
0.0
 10
11.0646966711
 20
1.6627962955
 30
0.0
 10
11.064304742
 20
1.6728867942
 30
0.0
 10
11.0638099968
 20
1.6887228267
 30
0.0
 10
11.0629311725
 20
1.7153185765
 30
0.0
 10
11.0616829596
 20
1.7539567942
 30
0.0
 10
11.0604305455
 20
1.7921460585
 30
0.0
 10
11.059557603
 20
1.8193703431
 30
0.0
 10
11.059053615
 20
1.8342186783
 30
0.0
 10
11.0586900444
 20
1.8473396119
 30
0.0
 10
11.0582713739
 20
1.8528760159
 30
0.0
 10
11.0577323703
 20
1.8629042483
 30
0.0
 10
11.0567801159
 20
1.8792127243
 30
0.0
 10
11.0554247893
 20
1.9032232449
 30
0.0
 10
11.0540664541
 20
1.9267466519
 30
0.0
 10
11.0531184119
 20
1.943737087
 30
0.0
 10
11.0525727891
 20
1.9526936693
 30
0.0
 10
11.0521744273
 20
1.9615180908
 30
0.0
 10
11.0517345864
 20
1.9622906919
 30
0.0
 10
11.0511626003
 20
1.9661293972
 30
0.0
 10
11.0501548832
 20
1.9715385132
 30
0.0
 10
11.048718814
 20
1.9799504108
 30
0.0
 10
11.0469940117
 20
1.9897497879
 30
0.0
 10
11.0458444329
 20
1.9963388775
 30
0.0
 10
11.0452696074
 20
1.9996264008
 30
0.0
 11
11.0452696104
 21
-1.9996264008
 31
0.0
 11
11.0469642222
 21
-1.9901057573
 31
0.0
 11
11.048658834
 21
-1.9805851137
 31
0.0
 11
11.0503534459
 21
-1.9710644702
 31
0.0
 11
11.0512007518
 21
-1.9663041484
 31
0.0
 11
11.0516244047
 21
-1.9639239875
 31
0.0
 11
11.0520480577
 21
-1.9615438267
 31
0.0
 11
11.0524555738
 21
-1.9544940036
 31
0.0
 11
11.05286309
 21
-1.9474441805
 31
0.0
 11
11.0536781222
 21
-1.9333445344
 31
0.0
 11
11.0553081868
 21
-1.9051452421
 31
0.0
 11
11.0569382514
 21
-1.8769459499
 31
0.0
 11
11.0577532837
 21
-1.8628463037
 31
0.0
 11
11.0581607998
 21
-1.8557964807
 31
0.0
 11
11.058568316
 21
-1.8487466576
 31
0.0
 11
11.0589441731
 21
-1.8372956979
 31
0.0
 11
11.0593200303
 21
-1.8258447382
 31
0.0
 11
11.0600717446
 21
-1.8029428189
 31
0.0
 11
11.0615751733
 21
-1.7571389802
 31
0.0
 11
11.063078602
 21
-1.7113351414
 31
0.0
 11
11.0638303163
 21
-1.6884332221
 31
0.0
 11
11.0642061735
 21
-1.6769822624
 31
0.0
 11
11.0645820307
 21
-1.6655313027
 31
0.0
 11
11.0649173056
 21
-1.649807433
 31
0.0
 11
11.0652525806
 21
-1.6340835634
 31
0.0
 11
11.0659231305
 21
-1.602635824
 31
0.0
 11
11.0672642303
 21
-1.5397403453
 31
0.0
 11
11.06860533
 21
-1.4768448666
 31
0.0
 11
11.0692758799
 21
-1.4453971272
 31
0.0
 11
11.0699464298
 21
-1.4139493879
 31
0.0
 11
11.0704868198
 21
-1.3762536393
 31
0.0
 11
11.0710272098
 21
-1.3385578907
 31
0.0
 11
11.0721079897
 21
-1.2631663936
 31
0.0
 11
11.0731887697
 21
-1.1877748965
 31
0.0
 11
11.0737291597
 21
-1.150079148
 31
0.0
 11
11.0742695496
 21
-1.1123833994
 31
0.0
 11
11.0746718648
 21
-1.0693913586
 31
0.0
 11
11.0750741799
 21
-1.0263993178
 31
0.0
 11
11.0758788102
 21
-0.9404152362
 31
0.0
 11
11.0766834405
 21
-0.8544311545
 31
0.0
 11
11.0770857556
 21
-0.8114391137
 31
0.0
 11
11.0774880708
 21
-0.7684470729
 31
0.0
 11
11.077736987
 21
-0.7217962933
 31
0.0
 11
11.0779859033
 21
-0.6751455137
 31
0.0
 11
11.0784837358
 21
-0.5818439545
 31
0.0
 11
11.0789815683
 21
-0.4885423953
 31
0.0
 11
11.0794794008
 21
-0.3952408361
 31
0.0
 11
11.0796515264
 21
-0.2964306271
 31
0.0
 11
11.0798236519
 21
-0.1976204181
 31
0.0
 11
11.0801679031
 21
-0.0
 31
0.0
 11
11.0798355868
 21
0.1941980683
 31
0.0
 11
11.0796694287
 21
0.2912971025
 31
0.0
 11
11.0795032705
 21
0.3883961366
 31
0.0
 11
11.079011125
 21
0.4817966988
 31
0.0
 11
11.0785189795
 21
0.5751972609
 31
0.0
 11
11.078026834
 21
0.668597823
 31
0.0
 11
11.0777807613
 21
0.7152981041
 31
0.0
 11
11.0775346885
 21
0.7619983851
 31
0.0
 11
11.0771349949
 21
0.805070631
 31
0.0
 11
11.0767353013
 21
0.8481428768
 31
0.0
 11
11.0759359141
 21
0.9342873685
 31
0.0
 11
11.0751365269
 21
1.0204318602
 31
0.0
 11
11.0747368333
 21
1.063504106
 31
0.0
 11
11.0743371397
 21
1.1065763519
 31
0.0
 11
11.0737883009
 21
1.1449979814
 31
0.0
 11
11.0732394622
 21
1.1834196109
 31
0.0
 11
11.0721417847
 21
1.2602628699
 31
0.0
 11
11.0710441073
 21
1.3371061289
 31
0.0
 11
11.0704952686
 21
1.3755277584
 31
0.0
 11
11.0702208492
 21
1.3947385731
 31
0.0
 11
11.0699464298
 21
1.4139493879
 31
0.0
 11
11.0696174891
 21
1.4294312063
 31
0.0
 11
11.0692885483
 21
1.4449130248
 31
0.0
 11
11.0686306668
 21
1.4758766618
 31
0.0
 11
11.0673149037
 21
1.5378039356
 31
0.0
 11
11.0659991407
 21
1.5997312095
 31
0.0
 11
11.0653412592
 21
1.6306948465
 31
0.0
 11
11.0650123184
 21
1.646176665
 31
0.0
 11
11.0646833776
 21
1.6616584834
 31
0.0
 11
11.0643082203
 21
1.6731845484
 31
0.0
 11
11.0639330631
 21
1.6847106135
 31
0.0
 11
11.0631827485
 21
1.7077627435
 31
0.0
 11
11.0616821194
 21
1.7538670035
 31
0.0
 11
11.0601814902
 21
1.7999712636
 31
0.0
 11
11.0594311756
 21
1.8230233936
 31
0.0
 11
11.0590560184
 21
1.8345494586
 31
0.0
 11
11.0586808611
 21
1.8460755236
 31
0.0
 11
11.0582737769
 21
1.853206811
 31
0.0
 11
11.0578666927
 21
1.8603380983
 31
0.0
 11
11.0570525243
 21
1.8746006729
 31
0.0
 11
11.0554241876
 21
1.9031258222
 31
0.0
 11
11.0537958509
 21
1.9316509715
 31
0.0
 11
11.0529816825
 21
1.9459135461
 31
0.0
 11
11.0525745983
 21
1.9530448334
 31
0.0
 11
11.0521675141
 21
1.9601761207
 31
0.0
 11
11.051736395
 21
1.9626417632
 31
0.0
 11
11.0513052758
 21
1.9651074057
 31
0.0
 11
11.0504430375
 21
1.9700386908
 31
0.0
 11
11.0487185608
 21
1.9799012608
 31
0.0
 11
11.0469940841
 21
1.9897638308
 31
0.0
 11
11.0452696074
 21
1.9996264008
 31
0.0
  0
SPLINE
  5
69D
100
AcDbEntity
  8
CURVE
100
AcDbSpline
 62
253
  6
CONTINUOUS
 70
0
 71
3
 72
107
 73
103
 74
101
 42
0.0000001
 43
0.0000001
 44
0.0000000001
 12
-0.1084551558
 22
-0.6093211866
 32
0.0
 13
0.1103665082
 23
-0.6312044813
 33
0.0
 40
0.0
 40
0.0
 40
0.0
 40
0.0
 40
0.015625
 40
0.03125
 40
0.046875
 40
0.0546875
 40
0.05859375
 40
0.0625
 40
0.06640625
 40
0.0703125
 40
0.078125
 40
0.09375
 40
0.109375
 40
0.1171875
 40
0.12109375
 40
0.125
 40
0.12890625
 40
0.1328125
 40
0.140625
 40
0.15625
 40
0.171875
 40
0.1796875
 40
0.18359375
 40
0.1875
 40
0.19140625
 40
0.1953125
 40
0.203125
 40
0.21875
 40
0.234375
 40
0.2421875
 40
0.25
 40
0.2578125
 40
0.265625
 40
0.28125
 40
0.296875
 40
0.3046875
 40
0.3125
 40
0.3203125
 40
0.328125
 40
0.34375
 40
0.359375
 40
0.3671875
 40
0.375
 40
0.3828125
 40
0.390625
 40
0.40625
 40
0.421875
 40
0.4375
 40
0.453125
 40
0.46875
 40
0.5
 40
0.53125
 40
0.546875
 40
0.5625
 40
0.578125
 40
0.59375
 40
0.609375
 40
0.6171875
 40
0.625
 40
0.6328125
 40
0.640625
 40
0.65625
 40
0.671875
 40
0.6796875
 40
0.6875
 40
0.6953125
 40
0.703125
 40
0.71875
 40
0.734375
 40
0.7421875
 40
0.74609375
 40
0.75
 40
0.75390625
 40
0.7578125
 40
0.765625
 40
0.78125
 40
0.796875
 40
0.8046875
 40
0.80859375
 40
0.8125
 40
0.81640625
 40
0.8203125
 40
0.828125
 40
0.84375
 40
0.859375
 40
0.8671875
 40
0.87109375
 40
0.875
 40
0.87890625
 40
0.8828125
 40
0.890625
 40
0.90625
 40
0.921875
 40
0.9296875
 40
0.93359375
 40
0.9375
 40
0.94140625
 40
0.9453125
 40
0.953125
 40
0.96875
 40
0.984375
 40
1.0
 40
1.0
 40
1.0
 40
1.0
 10
11.0452696104
 20
1.9996264008
 30
0.0
 10
11.0447047398
 20
1.996452853
 30
0.0
 10
11.0435750472
 20
1.9900917023
 30
0.0
 10
11.0418802168
 20
1.980634306
 30
0.0
 10
11.0404687082
 20
1.9725071809
 30
0.0
 10
11.0394789946
 20
1.9672978183
 30
0.0
 10
11.0389160304
 20
1.9635726139
 30
0.0
 10
11.0384865217
 20
1.9628869522
 30
0.0
 10
11.038084862
 20
1.954142537
 30
0.0
 10
11.0375395963
 20
1.9452950493
 30
0.0
 10
11.0365899631
 20
1.9284943915
 30
0.0
 10
11.0352305201
 20
1.9052427765
 30
0.0
 10
11.0338736468
 20
1.8815034896
 30
0.0
 10
11.0329204161
 20
1.8653855725
 30
0.0
 10
11.0323808037
 20
1.8554652065
 30
0.0
 10
11.0319617987
 20
1.8500125767
 30
0.0
 10
11.0315974308
 20
1.836964432
 30
0.0
 10
11.0310925421
 20
1.8222170329
 30
0.0
 10
11.0302179383
 20
1.7951670507
 30
0.0
 10
11.0289632708
 20
1.7572322466
 30
0.0
 10
11.027712487
 20
1.7188311103
 30
0.0
 10
11.026832446
 20
1.6924339932
 30
0.0
 10
11.0263361014
 20
1.6766606631
 30
0.0
 10
11.0259455187
 20
1.6667602615
 30
0.0
 10
11.0256249648
 20
1.6494861071
 30
0.0
 10
11.025173163
 20
1.6290245085
 30
0.0
 10
11.0243935735
 20
1.5920334702
 30
0.0
 10
11.0232765301
 20
1.5396914153
 30
0.0
 10
11.0221517894
 20
1.4875940104
 30
0.0
 10
11.0212731455
 20
1.444927098
 30
0.0
 10
11.020555335
 20
1.4157470892
 30
0.0
 10
11.0200622605
 20
1.3757808725
 30
0.0
 10
11.0193259521
 20
1.3262747183
 30
0.0
 10
11.0184352946
 20
1.2629915344
 30
0.0
 10
11.0175243198
 20
1.2005826468
 30
0.0
 10
11.016820519
 20
1.1496776185
 30
0.0
 10
11.0162299217
 20
1.113908024
 30
0.0
 10
11.0158778214
 20
1.068990682
 30
0.0
 10
11.0153246314
 20
1.0123063056
 30
0.0
 10
11.0146648239
 20
0.9402796064
 30
0.0
 10
11.0139829502
 20
0.868931056
 30
0.0
 10
11.0134650659
 20
0.8111616415
 30
0.0
 10
11.0130070487
 20
0.769499414
 30
0.0
 10
11.0128136398
 20
0.72152314
 30
0.0
 10
11.0124645132
 20
0.6597400013
 30
0.0
 10
11.0120509453
 20
0.581906994
 30
0.0
 10
11.0115819023
 20
0.4881291484
 30
0.0
 10
11.0109673608
 20
0.3968307845
 30
0.0
 10
11.0109075749
 20
0.2959927306
 30
0.0
 10
11.0106688173
 20
0.1650451643
 30
0.0
 10
11.0101763039
 20
-0.0010638609
 30
0.0
 10
11.0106588599
 20
-0.1618535817
 30
0.0
 10
11.0108896936
 20
-0.2910449858
 30
0.0
 10
11.0109434105
 20
-0.389451239
 30
0.0
 10
11.0115523664
 20
-0.4815268782
 30
0.0
 10
11.012015699
 20
-0.5752214407
 30
0.0
 10
11.0124245213
 20
-0.6531793438
 30
0.0
 10
11.0127698825
 20
-0.7150263621
 30
0.0
 10
11.0129603661
 20
-0.7630420776
 30
0.0
 10
11.0134158472
 20
-0.8047956383
 30
0.0
 10
11.0139301852
 20
-0.862666994
 30
0.0
 10
11.0146078902
 20
-0.9341620149
 30
0.0
 10
11.0152626781
 20
-1.0062838039
 30
0.0
 10
11.0158136833
 20
-1.0631523306
 30
0.0
 10
11.0161591628
 20
-1.1079143783
 30
0.0
 10
11.0167621525
 20
-1.1446482673
 30
0.0
 10
11.0174762782
 20
-1.1964244985
 30
0.0
 10
11.018399114
 20
-1.2602323402
 30
0.0
 10
11.0193135605
 20
-1.3241928302
 30
0.0
 10
11.0199501655
 20
-1.3692833249
 30
0.0
 10
11.0203224695
 20
-1.3944581246
 30
0.0
 10
11.0205771104
 20
-1.4150219156
 30
0.0
 10
11.020925835
 20
-1.4291505402
 30
0.0
 10
11.0213579757
 20
-1.4502340355
 30
0.0
 10
11.0221295951
 20
-1.4860772777
 30
0.0
 10
11.023223234
 20
-1.5378865652
 30
0.0
 10
11.0243222886
 20
-1.589282705
 30
0.0
 10
11.025086326
 20
-1.6257043539
 30
0.0
 10
11.0255303813
 20
-1.6458789244
 30
0.0
 10
11.0258425498
 20
-1.6627962955
 30
0.0
 10
11.0262344789
 20
-1.6728867942
 30
0.0
 10
11.0267292241
 20
-1.6887228267
 30
0.0
 10
11.0276080484
 20
-1.7153185765
 30
0.0
 10
11.0288562613
 20
-1.7539567942
 30
0.0
 10
11.0301086754
 20
-1.7921460585
 30
0.0
 10
11.0309816179
 20
-1.8193703431
 30
0.0
 10
11.0314856059
 20
-1.8342186783
 30
0.0
 10
11.0318491765
 20
-1.8473396119
 30
0.0
 10
11.0322678469
 20
-1.8528760159
 30
0.0
 10
11.0328068506
 20
-1.8629042483
 30
0.0
 10
11.033759105
 20
-1.8792127243
 30
0.0
 10
11.0351144315
 20
-1.9032232449
 30
0.0
 10
11.0364727667
 20
-1.9267466519
 30
0.0
 10
11.037420809
 20
-1.943737087
 30
0.0
 10
11.0379664318
 20
-1.9526936693
 30
0.0
 10
11.0383647935
 20
-1.9615180908
 30
0.0
 10
11.0388046344
 20
-1.9622906919
 30
0.0
 10
11.0393766206
 20
-1.9661293972
 30
0.0
 10
11.0403843377
 20
-1.9715385132
 30
0.0
 10
11.0418204069
 20
-1.9799504108
 30
0.0
 10
11.0435452091
 20
-1.9897497879
 30
0.0
 10
11.0446947879
 20
-1.9963388775
 30
0.0
 10
11.0452696135
 20
-1.9996264008
 30
0.0
 11
11.0452696104
 21
1.9996264008
 31
0.0
 11
11.0435749986
 21
1.9901057573
 31
0.0
 11
11.0418803868
 21
1.9805851137
 31
0.0
 11
11.040185775
 21
1.9710644702
 31
0.0
 11
11.0393384691
 21
1.9663041484
 31
0.0
 11
11.0389148161
 21
1.9639239875
 31
0.0
 11
11.0384911632
 21
1.9615438267
 31
0.0
 11
11.0380836471
 21
1.9544940036
 31
0.0
 11
11.0376761309
 21
1.9474441805
 31
0.0
 11
11.0368610986
 21
1.9333445344
 31
0.0
 11
11.0352310341
 21
1.9051452421
 31
0.0
 11
11.0336009695
 21
1.8769459499
 31
0.0
 11
11.0327859372
 21
1.8628463037
 31
0.0
 11
11.0323784211
 21
1.8557964807
 31
0.0
 11
11.0319709049
 21
1.8487466576
 31
0.0
 11
11.0315950477
 21
1.8372956979
 31
0.0
 11
11.0312191906
 21
1.8258447382
 31
0.0
 11
11.0304674762
 21
1.8029428189
 31
0.0
 11
11.0289640475
 21
1.7571389802
 31
0.0
 11
11.0274606189
 21
1.7113351414
 31
0.0
 11
11.0267089045
 21
1.6884332221
 31
0.0
 11
11.0263330474
 21
1.6769822624
 31
0.0
 11
11.0259571902
 21
1.6655313027
 31
0.0
 11
11.0256219152
 21
1.649807433
 31
0.0
 11
11.0252866403
 21
1.6340835634
 31
0.0
 11
11.0246160904
 21
1.602635824
 31
0.0
 11
11.0232749906
 21
1.5397403453
 31
0.0
 11
11.0219338908
 21
1.4768448666
 31
0.0
 11
11.0212633409
 21
1.4453971272
 31
0.0
 11
11.020592791
 21
1.4139493879
 31
0.0
 11
11.0200524011
 21
1.3762536393
 31
0.0
 11
11.0195120111
 21
1.3385578907
 31
0.0
 11
11.0184312311
 21
1.2631663936
 31
0.0
 11
11.0173504512
 21
1.1877748965
 31
0.0
 11
11.0168100612
 21
1.150079148
 31
0.0
 11
11.0162696712
 21
1.1123833994
 31
0.0
 11
11.0158673561
 21
1.0693913586
 31
0.0
 11
11.0154650409
 21
1.0263993178
 31
0.0
 11
11.0146604106
 21
0.9404152362
 31
0.0
 11
11.0138557804
 21
0.8544311545
 31
0.0
 11
11.0134534652
 21
0.8114391137
 31
0.0
 11
11.0130511501
 21
0.7684470729
 31
0.0
 11
11.0128022338
 21
0.7217962933
 31
0.0
 11
11.0125533176
 21
0.6751455137
 31
0.0
 11
11.0120554851
 21
0.5818439545
 31
0.0
 11
11.0115576526
 21
0.4885423953
 31
0.0
 11
11.0110598201
 21
0.3952408361
 31
0.0
 11
11.0108876945
 21
0.2964306271
 31
0.0
 11
11.0107155689
 21
0.1976204181
 31
0.0
 11
11.0103713178
 21
-0.0
 31
0.0
 11
11.010703634
 21
-0.1941980683
 31
0.0
 11
11.0108697922
 21
-0.2912971025
 31
0.0
 11
11.0110359503
 21
-0.3883961366
 31
0.0
 11
11.0115280958
 21
-0.4817966988
 31
0.0
 11
11.0120202413
 21
-0.5751972609
 31
0.0
 11
11.0125123869
 21
-0.668597823
 31
0.0
 11
11.0127584596
 21
-0.7152981041
 31
0.0
 11
11.0130045324
 21
-0.7619983851
 31
0.0
 11
11.013404226
 21
-0.805070631
 31
0.0
 11
11.0138039196
 21
-0.8481428768
 31
0.0
 11
11.0146033068
 21
-0.9342873685
 31
0.0
 11
11.015402694
 21
-1.0204318602
 31
0.0
 11
11.0158023876
 21
-1.063504106
 31
0.0
 11
11.0162020812
 21
-1.1065763519
 31
0.0
 11
11.0167509199
 21
-1.1449979814
 31
0.0
 11
11.0172997587
 21
-1.1834196109
 31
0.0
 11
11.0183974361
 21
-1.2602628699
 31
0.0
 11
11.0194951136
 21
-1.3371061289
 31
0.0
 11
11.0200439523
 21
-1.3755277584
 31
0.0
 11
11.0203183717
 21
-1.3947385731
 31
0.0
 11
11.020592791
 21
-1.4139493879
 31
0.0
 11
11.0209217318
 21
-1.4294312063
 31
0.0
 11
11.0212506726
 21
-1.4449130248
 31
0.0
 11
11.0219085541
 21
-1.4758766618
 31
0.0
 11
11.0232243171
 21
-1.5378039356
 31
0.0
 11
11.0245400802
 21
-1.5997312095
 31
0.0
 11
11.0251979617
 21
-1.6306948465
 31
0.0
 11
11.0255269025
 21
-1.646176665
 31
0.0
 11
11.0258558432
 21
-1.6616584834
 31
0.0
 11
11.0262310005
 21
-1.6731845484
 31
0.0
 11
11.0266061578
 21
-1.6847106135
 31
0.0
 11
11.0273564724
 21
-1.7077627435
 31
0.0
 11
11.0288571015
 21
-1.7538670035
 31
0.0
 11
11.0303577306
 21
-1.7999712636
 31
0.0
 11
11.0311080452
 21
-1.8230233936
 31
0.0
 11
11.0314832025
 21
-1.8345494586
 31
0.0
 11
11.0318583598
 21
-1.8460755236
 31
0.0
 11
11.032265444
 21
-1.853206811
 31
0.0
 11
11.0326725282
 21
-1.8603380983
 31
0.0
 11
11.0334866965
 21
-1.8746006729
 31
0.0
 11
11.0351150333
 21
-1.9031258222
 31
0.0
 11
11.03674337
 21
-1.9316509715
 31
0.0
 11
11.0375575384
 21
-1.9459135461
 31
0.0
 11
11.0379646225
 21
-1.9530448334
 31
0.0
 11
11.0383717067
 21
-1.9601761207
 31
0.0
 11
11.0388028259
 21
-1.9626417632
 31
0.0
 11
11.0392339451
 21
-1.9651074057
 31
0.0
 11
11.0400961834
 21
-1.9700386908
 31
0.0
 11
11.0418206601
 21
-1.9799012608
 31
0.0
 11
11.0435451368
 21
-1.9897638308
 31
0.0
 11
11.0452696135
 21
-1.9996264008
 31
0.0
  0
SPLINE
  5
69E
100
AcDbEntity
  8
CURVE
100
AcDbSpline
 62
253
  6
CONTINUOUS
 70
0
 71
3
 72
9
 73
5
 74
3
 42
0.0000001
 43
0.0000001
 44
0.0000000001
 12
0.0078269304
 22
0.0069211271
 32
0.0
 13
0.0001747708
 23
-0.4484144442
 33
0.0
 40
0.0
 40
0.0
 40
0.0
 40
0.0
 40
0.5020365432
 40
1.0
 40
1.0
 40
1.0
 40
1.0
 10
11.0316827211
 20
-9.442566679
 30
0.0
 10
11.0329925228
 20
-9.4414084594
 30
0.0
 10
11.0359425105
 20
-9.492348681
 30
0.0
 10
11.0365343451
 20
-9.6599790806
 30
0.0
 10
11.0365633549
 20
-9.7344104162
 30
0.0
 11
11.0316827211
 21
-9.442566679
 31
0.0
 11
11.0353601755
 21
-9.521966838
 31
0.0
 11
11.0365633549
 21
-9.7344104162
 31
0.0
  0
SPLINE
  5
69F
100
AcDbEntity
  8
CURVE
100
AcDbSpline
 62
253
  6
CONTINUOUS
 70
0
 71
3
 72
9
 73
5
 74
3
 42
0.0000001
 43
0.0000001
 44
0.0000000001
 12
0.0006674584
 22
0.3294607193
 32
0.0
 13
0.0057877846
 23
0.0051876841
 33
0.0
 40
0.0
 40
0.0
 40
0.0
 40
0.0
 40
0.5000882298
 40
1.0
 40
1.0
 40
1.0
 40
1.0
 10
11.0277566406
 20
-9.6547921298
 30
0.0
 10
11.0278679033
 20
-9.5998723205
 30
0.0
 10
11.0287113935
 20
-9.48852353
 30
0.0
 10
11.0307182605
 20
-9.4434311405
 30
0.0
 10
11.0316827211
 20
-9.442566679
 30
0.0
 11
11.0277566406
 21
-9.6547921298
 31
0.0
 11
11.0290024892
 21
-9.505073828
 31
0.0
 11
11.0316827211
 21
-9.442566679
 31
0.0
  0
SPLINE
  5
6A0
100
AcDbEntity
  8
CURVE
100
AcDbSpline
 62
253
  6
CONTINUOUS
 70
0
 71
3
 72
17
 73
13
 74
11
 42
0.0000001
 43
0.0000001
 44
0.0000000001
 12
-0.0025031339
 22
1.1117230867
 32
0.0
 13
-0.0066377637
 23
-1.0544403704
 33
0.0
 40
0.0
 40
0.0
 40
0.0
 40
0.0
 40
0.0626341368
 40
0.1256123062
 40
0.1874334728
 40
0.25012897
 40
0.3755999783
 40
0.5004417704
 40
0.6252962742
 40
0.7502511716
 40
0.8752241398
 40
1.0
 40
1.0
 40
1.0
 40
1.0
 10
11.0391519302
 20
-9.3449435115
 30
0.0
 10
11.0390996697
 20
-9.3217329062
 30
0.0
 10
11.0385257235
 20
-9.2830572006
 30
0.0
 10
11.0377454533
 20
-9.2310734555
 30
0.0
 10
11.0368140418
 20
-9.1845582279
 30
0.0
 10
11.0354229949
 20
-9.1355055581
 30
0.0
 10
11.0334704728
 20
-9.0959220999
 30
0.0
 10
11.0310090656
 20
-9.0854553438
 30
0.0
 10
11.0285685917
 20
-9.1061250925
 30
0.0
 10
11.0263092469
 20
-9.1651908537
 30
0.0
 10
11.0244663472
 20
-9.2593541122
 30
0.0
 10
11.0235647114
 20
-9.3398234154
 30
0.0
 10
11.0232886338
 20
-9.3836796502
 30
0.0
 11
11.0391519302
 21
-9.3449435115
 31
0.0
 11
11.0385399838
 21
-9.2841173178
 31
0.0
 11
11.0377150611
 21
-9.2316823836
 31
0.0
 11
11.0368000674
 21
-9.1863671418
 31
0.0
 11
11.0357582385
 21
-9.1492806294
 31
0.0
 11
11.0334462395
 21
-9.1020414377
 31
0.0
 11
11.0310120724
 21
-9.0906407102
 31
0.0
 11
11.0285995464
 21
-9.112511377
 31
0.0
 11
11.0263787091
 21
-9.1710417448
 31
0.0
 11
11.0245471818
 21
-9.2638374561
 31
0.0
 11
11.0232886338
 21
-9.3836796502
 31
0.0
  0
SPLINE
  5
6A1
100
AcDbEntity
  8
CURVE
100
AcDbSpline
 62
253
  6
CONTINUOUS
 70
0
 71
3
 72
9
 73
5
 74
3
 42
0.0000001
 43
0.0000001
 44
0.0000000001
 12
-0.0071417545
 22
-0.111498973
 32
0.0
 13
-0.0027413049
 23
-0.3939739264
 33
0.0
 40
0.0
 40
0.0
 40
0.0
 40
0.0
 40
0.506910518
 40
1.0
 40
1.0
 40
1.0
 40
1.0
 10
11.0454974843
 20
-9.1283855518
 30
0.0
 10
11.0442907408
 20
-9.1472255525
 30
0.0
 10
11.0419315334
 20
-9.1827564232
 30
0.0
 10
11.0397880877
 20
-9.2801887118
 30
0.0
 10
11.0393375182
 20
-9.3449435115
 30
0.0
 11
11.0454974843
 21
-9.1283855518
 31
0.0
 11
11.0419543685
 21
-9.1991535781
 31
0.0
 11
11.0393375182
 21
-9.3449435115
 31
0.0
  0
LINE
  5
6A2
100
AcDbEntity
  8
CURVE
100
AcDbLine
 62
253
  6
CONTINUOUS
 10
11.0539980255
 20
-8.9999489333
 11
11.0454974843
 21
-9.1283855518
  0
SPLINE
  5
6A3
100
AcDbEntity
  8
CURVE
100
AcDbSpline
 62
253
  6
CONTINUOUS
 70
0
 71
3
 72
9
 73
5
 74
3
 42
0.0000001
 43
0.0000001
 44
0.0000000001
 12
0.0093107584
 22
0.2004569281
 32
0.0
 13
0.0095589879
 23
0.1574949591
 33
0.0
 40
0.0
 40
0.0
 40
0.0
 40
0.0
 40
0.499968398
 40
1.0
 40
1.0
 40
1.0
 40
1.0
 10
11.0444743953
 20
-9.5256131811
 30
0.0
 10
11.0460260903
 20
-9.4922058047
 30
0.0
 10
11.0492290205
 20
-9.4417665169
 30
0.0
 10
11.0524047602
 20
-9.3875795821
 30
0.0
 10
11.0539980255
 20
-9.3613287632
 30
0.0
 11
11.0444743953
 21
-9.5256131811
 31
0.0
 11
11.0492220213
 21
-9.4408329115
 31
0.0
 11
11.0539980255
 21
-9.3613287632
 31
0.0
  0
SPLINE
  5
6A4
100
AcDbEntity
  8
CURVE
100
AcDbSpline
 62
253
  6
CONTINUOUS
 70
0
 71
3
 72
10
 73
6
 74
4
 42
0.0000001
 43
0.0000001
 44
0.0000000001
 12
0.0
 22
0.2784912461
 32
0.0
 13
0.004550364
 23
0.0978636695
 33
0.0
 40
0.0
 40
0.0
 40
0.0
 40
0.0
 40
0.2488469502
 40
0.4981920115
 40
1.0
 40
1.0
 40
1.0
 40
1.0
 10
11.041707062
 20
-9.7352202309
 30
0.0
 10
11.041707062
 20
-9.7121196652
 30
0.0
 10
11.0418252542
 20
-9.6653169385
 30
0.0
 10
11.0426266298
 20
-9.5826259642
 30
0.0
 10
11.0437132589
 20
-9.5419827715
 30
0.0
 10
11.0444743953
 20
-9.5256131811
 30
0.0
 11
11.041707062
 21
-9.7352202309
 31
0.0
 11
11.0418952573
 21
-9.6667626181
 31
0.0
 11
11.0424777186
 21
-9.6058682049
 31
0.0
 11
11.0444743953
 21
-9.5256131811
 31
0.0
  0
SPLINE
  5
6A5
100
AcDbEntity
  8
CURVE
100
AcDbSpline
 62
253
  6
CONTINUOUS
 70
0
 71
3
 72
10
 73
6
 74
4
 42
0.0000001
 43
0.0000001
 44
0.0000000001
 12
-0.0055473355
 22
-0.8799435117
 32
0.0
 13
0.0023762402
 23
-0.9256317354
 33
0.0
 40
0.0
 40
0.0
 40
0.0
 40
0.0
 40
0.2482613404
 40
0.497642669
 40
1.0
 40
1.0
 40
1.0
 40
1.0
 10
11.0232886338
 20
-9.3836796502
 30
0.0
 10
11.0228295709
 20
-9.456498302
 30
0.0
 10
11.0222692644
 20
-9.6098851906
 30
0.0
 10
11.0220267717
 20
-9.9221491954
 30
0.0
 10
11.0225600597
 20
-10.1558507525
 30
0.0
 10
11.022957967
 20
-10.3108500485
 30
0.0
 11
11.0232886338
 21
-9.3836796502
 31
0.0
 11
11.0223799392
 21
-9.6100399729
 31
0.0
 11
11.0221668667
 21
-9.8430395124
 31
0.0
 11
11.022957967
 21
-10.3108500485
 31
0.0
  0
SPLINE
  5
6A6
100
AcDbEntity
  8
CURVE
100
AcDbSpline
 62
253
  6
CONTINUOUS
 70
0
 71
3
 72
10
 73
6
 74
4
 42
0.0000001
 43
0.0000001
 44
0.0000000001
 12
-0.0089784018
 22
-0.4904943781
 32
0.0
 13
0.0
 23
-0.7108620398
 33
0.0
 40
0.0
 40
0.0
 40
0.0
 40
0.0
 40
0.3333333333
 40
0.6666666667
 40
1.0
 40
1.0
 40
1.0
 40
1.0
 10
11.0849337435
 20
1.11345
 30
0.0
 10
11.0839361433
 20
1.0589506247
 30
0.0
 10
11.0821894315
 20
0.933788099
 30
0.0
 10
11.0805434985
 20
0.713553781
 30
0.0
 10
11.0801678881
 20
0.5547386711
 30
0.0
 10
11.0801678881
 20
0.475754
 30
0.0
 11
11.0849337435
 21
1.11345
 31
0.0
 11
11.0823517873
 21
0.9283730108
 31
0.0
 11
11.080723918
 21
0.7105557232
 31
0.0
 11
11.0801678881
 21
0.475754
 31
0.0
  0
SPLINE
  5
6A7
100
AcDbEntity
  8
CURVE
100
AcDbSpline
 62
253
  6
CONTINUOUS
 70
0
 71
3
 72
12
 73
8
 74
6
 42
0.0000001
 43
0.0000001
 44
0.0000000001
 12
0.0314062944
 22
1.3970848646
 32
0.0
 13
0.0257256112
 23
-1.7371551566
 33
0.0
 40
0.0
 40
0.0
 40
0.0
 40
0.0
 40
0.2
 40
0.4
 40
0.6
 40
0.8
 40
1.0
 40
1.0
 40
1.0
 40
1.0
 10
11.0292439103
 20
1.1831303242
 30
0.0
 10
11.0313376633
 20
1.2762693152
 30
0.0
 10
11.0360553705
 20
1.4267069783
 30
0.0
 10
11.0439623877
 20
1.5193418303
 30
0.0
 10
11.0519976366
 20
1.4715130489
 30
0.0
 10
11.0594036564
 20
1.287729321
 30
0.0
 10
11.0634811528
 20
1.0849393438
 30
0.0
 10
11.0651961935
 20
0.969129
 30
0.0
 11
11.0292439103
 21
1.1831303242
 31
0.0
 11
11.0361937799
 21
1.4045367045
 31
0.0
 11
11.0439837597
 21
1.4959312247
 31
0.0
 11
11.0518927651
 21
1.4488538911
 31
0.0
 11
11.0591886938
 21
1.267662448
 31
0.0
 11
11.0651961935
 21
0.969129
 31
0.0
  0
SPLINE
  5
6A8
100
AcDbEntity
  8
RACCORDO
100
AcDbSpline
 62
253
  6
CONTINUOUS
 70
0
 71
3
 72
27
 73
23
 74
21
 42
0.0000001
 43
0.0000001
 44
0.0000000001
 12
-24.9675342843
 22
0.0003352644
 32
0.0
 13
24.9675342843
 23
0.0003370125
 33
0.0
 40
0.0
 40
0.0
 40
0.0
 40
0.0
 40
0.0624501167
 40
0.0937185019
 40
0.1249908002
 40
0.1874680078
 40
0.2499544728
 40
0.2812376763
 40
0.3125216662
 40
0.3750142942
 40
0.4375069914
 40
0.5000010135
 40
0.5624950272
 40
0.624987717
 40
0.6874803592
 40
0.7187643202
 40
0.7500474935
 40
0.8125336868
 40
0.8750104347
 40
0.9062824414
 40
0.9375505716
 40
1.0
 40
1.0
 40
1.0
 40
1.0
 10
0.0
 20
-7.96361743
 30
0.0
 10
-0.5197418096
 20
-7.9636104509
 30
0.0
 10
-1.3025365629
 20
-7.8863761654
 30
0.0
 10
-2.3126155322
 20
-7.6327412286
 30
0.0
 10
-3.2935437217
 20
-7.281269913
 30
0.0
 10
-4.4477428841
 20
-6.663400867
 30
0.0
 10
-5.4589272908
 20
-5.8316900615
 30
0.0
 10
-6.1580018924
 20
-5.0586888587
 30
0.0
 10
-6.7782038948
 20
-4.2210515966
 30
0.0
 10
-7.3947016193
 20
-3.0655926724
 30
0.0
 10
-7.849533289
 20
-1.5628076708
 30
0.0
 10
-8.0031820361
 20
0.0000264816
 30
0.0
 10
-7.8495223088
 20
1.5628596511
 30
0.0
 10
-7.3946798305
 20
3.0656409369
 30
0.0
 10
-6.7781784802
 20
4.2210979998
 30
0.0
 10
-6.157969161
 20
5.0587292941
 30
0.0
 10
-5.4588959734
 20
5.8317279376
 30
0.0
 10
-4.4477092194
 20
6.6634269401
 30
0.0
 10
-3.2935136443
 20
7.2812830574
 30
0.0
 10
-2.3125930474
 20
7.6327506809
 30
0.0
 10
-1.3025228009
 20
7.8863784817
 30
0.0
 10
-0.5197360817
 20
7.9636104146
 30
0.0
 10
0.0
 20
7.96361743
 30
0.0
 11
0.0
 21
-7.96361743
 31
0.0
 11
-1.551691935
 21
-7.8105289683
 31
0.0
 11
-2.3089112913
 21
-7.620521818
 31
0.0
 11
-3.0439149207
 21
-7.3570714511
 31
0.0
 11
-4.4190674142
 21
-6.6206956571
 31
0.0
 11
-5.624159659
 21
-5.6298538274
 31
0.0
 11
-6.1481284821
 21
-5.0506143627
 31
0.0
 11
-6.6128486881
 21
-4.4228186262
 31
0.0
 11
-7.3472362955
 21
-3.046166951
 31
0.0
 11
-7.7993336001
 21
-1.5528121967
 31
0.0
 11
-7.9519635952
 21
0.0000263978
 31
0.0
 11
-7.7993226567
 21
1.5528637069
 31
0.0
 11
-7.3472156329
 21
3.0462153248
 31
0.0
 11
-6.6128208143
 21
4.4228635575
 31
0.0
 11
-6.1480966416
 21
5.0506554586
 31
0.0
 11
-5.624126639
 21
5.6298928381
 31
0.0
 11
-4.419033275
 21
6.620722625
 31
0.0
 11
-3.0438863771
 21
7.3570845555
 31
0.0
 11
-2.3088890104
 21
7.6205308174
 31
0.0
 11
-1.5516751257
 21
7.8105336084
 31
0.0
 11
0.0
 21
7.96361743
 31
0.0
  0
SPLINE
  5
6A9
100
AcDbEntity
  8
0
100
AcDbSpline
 62
253
  6
CONTINUOUS
 70
0
 71
3
 72
15
 73
11
 74
9
 42
0.0000001
 43
0.0000001
 44
0.0000000001
 12
-0.1517292942
 22
-0.4537940707
 32
0.0
 13
-0.0003487344
 23
-0.4784879473
 33
0.0
 40
0.0
 40
0.0
 40
0.0
 40
0.0
 40
0.0096175256
 40
0.0279709361
 40
0.0903226165
 40
0.1849888751
 40
0.3088023792
 40
0.4575958065
 40
0.6262524731
 40
1.0
 40
1.0
 40
1.0
 40
1.0
 10
11.0087219643
 20
21.4755923698
 30
0.0
 10
11.0082355442
 20
21.4741375778
 30
0.0
 10
11.0077689917
 20
21.4696534679
 30
0.0
 10
11.0064566631
 20
21.4553551822
 30
0.0
 10
11.0053816849
 20
21.4273486909
 30
0.0
 10
11.0039859652
 20
21.3826076401
 30
0.0
 10
11.0028521477
 20
21.3240272126
 30
0.0
 10
11.0018564654
 20
21.2536585556
 30
0.0
 10
11.0008262348
 20
21.1434179877
 30
0.0
 10
11.0005023563
 20
21.0569071457
 30
0.0
 10
11.0004589101
 20
20.9972959167
 30
0.0
 11
11.0087219643
 21
21.4755923698
 31
0.0
 11
11.007921817
 21
21.4710605949
 31
0.0
 11
11.0071309876
 21
21.4623143874
 31
0.0
 11
11.0056084801
 21
21.4325187253
 31
0.0
 11
11.0042080566
 21
21.3872437029
 31
0.0
 11
11.0029759768
 21
21.3280132309
 31
0.0
 11
11.0019547029
 21
21.2568246756
 31
0.0
 11
11.0011787742
 21
21.1761282023
 31
0.0
 11
11.0004589101
 21
20.9972959167
 31
0.0
  0
SPLINE
  5
6AA
100
AcDbEntity
  8
0
100
AcDbSpline
 62
253
  6
CONTINUOUS
 70
0
 71
3
 72
16
 73
12
 74
10
 42
0.0000001
 43
0.0000001
 44
0.0000000001
 12
-0.1577724193
 22
-0.943590238
 32
0.0
 13
-0.0003449146
 23
-0.9566893721
 33
0.0
 40
0.0
 40
0.0
 40
0.0
 40
0.0
 40
0.0095172377
 40
0.0278193524
 40
0.054760625
 40
0.0901209217
 40
0.1847846043
 40
0.308628729
 40
0.4574561745
 40
0.6261566443
 40
1.0
 40
1.0
 40
1.0
 40
1.0
 10
10.5087981167
 20
21.9749071372
 30
0.0
 10
10.5082975975
 20
21.9719136797
 30
0.0
 10
10.5078544819
 20
21.9630272145
 30
0.0
 10
10.5070265526
 20
21.9456019787
 30
0.0
 10
10.5063458948
 20
21.9198966107
 30
0.0
 10
10.5052445944
 20
21.8698582899
 30
0.0
 10
10.5041002376
 20
21.7889040807
 30
0.0
 10
10.5029147032
 20
21.6717698543
 30
0.0
 10
10.5019376942
 20
21.5310203978
 30
0.0
 10
10.5008995598
 20
21.3105471542
 30
0.0
 10
10.5005780439
 20
21.1375315526
 30
0.0
 10
10.5005350625
 20
21.0183142309
 30
0.0
 11
10.5087981167
 21
21.9749071372
 31
0.0
 11
10.5079970451
 21
21.9658374045
 31
0.0
 11
10.5072065849
 21
21.9483458164
 31
0.0
 11
10.5064336293
 21
21.9225829783
 31
0.0
 11
10.5056848018
 21
21.8887624451
 31
0.0
 11
10.5042842797
 21
21.7982095299
 31
0.0
 11
10.5030523599
 21
21.6797355691
 31
0.0
 11
10.5020313521
 21
21.5373575853
 31
0.0
 11
10.501255274
 21
21.3759654942
 31
0.0
 11
10.5005350625
 21
21.0183142309
 31
0.0
  0
SPLINE
  5
6AB
100
AcDbEntity
  8
0
100
AcDbSpline
 62
253
  6
CONTINUOUS
 70
0
 71
3
 72
9
 73
5
 74
3
 42
0.0000001
 43
0.0000001
 44
0.0000000001
 12
-0.0308407987
 22
-41.9945826303
 32
0.0
 13
0.0308408108
 23
-41.9945826303
 33
0.0
 40
0.0
 40
0.0
 40
0.0
 40
0.0
 40
0.2499439267
 40
1.0
 40
1.0
 40
1.0
 40
1.0
 10
11.0004589101
 20
20.9972959167
 30
0.0
 10
10.99788942
 20
17.4985322889
 30
0.0
 10
10.9901837953
 20
3.5003363072
 30
0.0
 10
10.992748131
 20
-10.4978653344
 30
0.0
 10
11.0004589101
 20
-20.9972959167
 30
0.0
 11
11.0004589101
 21
20.9972959167
 31
0.0
 11
10.9946790564
 21
10.5010037942
 31
0.0
 11
11.0004589101
 21
-20.9972959167
 31
0.0
  0
SPLINE
  5
6AC
100
AcDbEntity
  8
0
100
AcDbSpline
 62
253
  6
CONTINUOUS
 70
0
 71
3
 72
9
 73
5
 74
3
 42
0.0000001
 43
0.0000001
 44
0.0000000001
 12
-0.0308407988
 22
-42.036619268
 32
0.0
 13
0.030840811
 23
-42.0366192679
 33
0.0
 40
0.0
 40
0.0
 40
0.0
 40
0.0
 40
0.2499439267
 40
1.0
 40
1.0
 40
1.0
 40
1.0
 10
10.5005350625
 20
21.0183142309
 30
0.0
 10
10.4979655724
 20
17.516048336
 30
0.0
 10
10.4902599477
 20
3.5038401435
 30
0.0
 10
10.4928242833
 20
-10.5083737032
 30
0.0
 10
10.5005350625
 20
-21.0183142309
 30
0.0
 11
10.5005350625
 21
21.0183142309
 31
0.0
 11
10.4947552088
 21
10.5115153081
 31
0.0
 11
10.5005350625
 21
-21.0183142309
 31
0.0
  0
SPLINE
  5
6AD
100
AcDbEntity
  8
0
100
AcDbSpline
 62
253
  6
CONTINUOUS
 70
0
 71
3
 72
18
 73
14
 74
12
 42
0.0000001
 43
0.0000001
 44
0.0000000001
 12
-0.1920606607
 22
0.4630845356
 32
0.0
 13
-0.5013326734
 23
0.0003675249
 33
0.0
 40
0.0
 40
0.0
 40
0.0
 40
0.0
 40
0.0075737577
 40
0.0237997682
 40
0.0489905999
 40
0.0830624793
 40
0.1257056375
 40
0.1765169517
 40
0.3008257893
 40
0.4512660906
 40
0.6222929771
 40
0.8077175327
 40
1.0
 40
1.0
 40
1.0
 40
1.0
 10
11.0004589101
 20
20.9972959167
 30
0.0
 10
10.9999740365
 20
20.9984650134
 30
0.0
 10
10.9955742194
 20
20.9999076347
 30
0.0
 10
10.9881130035
 20
21.0017802208
 30
0.0
 10
10.9753567021
 20
21.0036106489
 30
0.0
 10
10.9585410311
 20
21.0054779361
 30
0.0
 10
10.9372618623
 20
21.0072735071
 30
0.0
 10
10.9009731154
 20
21.0097408454
 30
0.0
 10
10.8466161908
 20
21.0123796055
 30
0.0
 10
10.7721681765
 20
21.0148969565
 30
0.0
 10
10.6874789242
 20
21.0167916528
 30
0.0
 10
10.5957867693
 20
21.0179890025
 30
0.0
 10
10.532667557
 20
21.018290674
 30
0.0
 10
10.5005350625
 20
21.0183142302
 30
0.0
 11
11.0004589101
 21
20.9972959167
 31
0.0
 11
10.9972522422
 21
20.9993292112
 31
0.0
 11
10.9893722777
 21
21.0013487129
 31
0.0
 11
10.9768999689
 21
21.0033318698
 31
0.0
 11
10.9599274108
 21
21.0052566619
 31
0.0
 11
10.9386290481
 21
21.0071049971
 31
0.0
 11
10.9132162348
 21
21.0088605442
 31
0.0
 11
10.8509767609
 21
21.0120295483
 31
0.0
 11
10.77560151
 21
21.0146462845
 31
0.0
 11
10.6898826147
 21
21.0166101641
 31
0.0
 11
10.5969314449
 21
21.0178481152
 31
0.0
 11
10.5005350625
 21
21.0183142302
 31
0.0
  0
SPLINE
  5
6AE
100
AcDbEntity
  8
0
100
AcDbSpline
 62
253
  6
CONTINUOUS
 70
0
 71
3
 72
15
 73
11
 74
9
 42
0.0000001
 43
0.0000001
 44
0.0000000001
 12
0.0003487342
 22
-0.4784879473
 32
0.0
 13
0.1517291392
 23
-0.4537941226
 33
0.0
 40
0.0
 40
0.0
 40
0.0
 40
0.0
 40
0.373747527
 40
0.5424041939
 40
0.6911976209
 40
0.8150111242
 40
0.9096773843
 40
0.9720290633
 40
0.9903824721
 40
1.0
 40
1.0
 40
1.0
 40
1.0
 10
11.0004589101
 20
-20.9972959167
 30
0.0
 10
11.0005023563
 20
-21.0569071457
 30
0.0
 10
11.0008262348
 20
-21.1434179877
 30
0.0
 10
11.0018564654
 20
-21.2536585557
 30
0.0
 10
11.0028521477
 20
-21.3240272126
 30
0.0
 10
11.0039859653
 20
-21.3826076401
 30
0.0
 10
11.0053816848
 20
-21.4273486909
 30
0.0
 10
11.0064566634
 20
-21.4553551817
 30
0.0
 10
11.0077689915
 20
-21.4696534675
 30
0.0
 10
11.0082355445
 20
-21.4741375773
 30
0.0
 10
11.0087219643
 20
-21.4755923698
 30
0.0
 11
11.0004589101
 21
-20.9972959167
 31
0.0
 11
11.0011787742
 21
-21.1761282023
 31
0.0
 11
11.0019547029
 21
-21.2568246758
 31
0.0
 11
11.0029759768
 21
-21.3280132309
 31
0.0
 11
11.0042080566
 21
-21.3872437026
 31
0.0
 11
11.0056084801
 21
-21.4325187257
 31
0.0
 11
11.0071309876
 21
-21.4623143871
 31
0.0
 11
11.007921817
 21
-21.4710605938
 31
0.0
 11
11.0087219643
 21
-21.4755923698
 31
0.0
  0
SPLINE
  5
6AF
100
AcDbEntity
  8
0
100
AcDbSpline
 62
253
  6
CONTINUOUS
 70
0
 71
3
 72
16
 73
12
 74
10
 42
0.0000001
 43
0.0000001
 44
0.0000000001
 12
0.0003449152
 22
-0.9566893721
 32
0.0
 13
0.1577724223
 23
-0.9435902375
 33
0.0
 40
0.0
 40
0.0
 40
0.0
 40
0.0
 40
0.3738433557
 40
0.5425438255
 40
0.691371271
 40
0.8152153956
 40
0.9098790784
 40
0.945239375
 40
0.9721806474
 40
0.9904827618
 40
1.0
 40
1.0
 40
1.0
 40
1.0
 10
10.5005350625
 20
-21.0183142309
 30
0.0
 10
10.5005780439
 20
-21.1375315526
 30
0.0
 10
10.5008995599
 20
-21.3105471542
 30
0.0
 10
10.5019376942
 20
-21.5310203978
 30
0.0
 10
10.5029147032
 20
-21.6717698543
 30
0.0
 10
10.5041002376
 20
-21.7889040808
 30
0.0
 10
10.5052445944
 20
-21.86985829
 30
0.0
 10
10.5063458948
 20
-21.9198966107
 30
0.0
 10
10.5070265526
 20
-21.9456019785
 30
0.0
 10
10.5078544818
 20
-21.9630272143
 30
0.0
 10
10.5082975975
 20
-21.9719136795
 30
0.0
 10
10.5087981167
 20
-21.9749071372
 30
0.0
 11
10.5005350625
 21
-21.0183142309
 31
0.0
 11
10.501255274
 21
-21.3759654942
 31
0.0
 11
10.5020313521
 21
-21.5373575853
 31
0.0
 11
10.5030523599
 21
-21.6797355691
 31
0.0
 11
10.5042842797
 21
-21.7982095299
 31
0.0
 11
10.5056848019
 21
-21.8887624452
 31
0.0
 11
10.5064336293
 21
-21.9225829784
 31
0.0
 11
10.5072065848
 21
-21.9483458162
 31
0.0
 11
10.507997045
 21
-21.965837404
 31
0.0
 11
10.5087981167
 21
-21.9749071372
 31
0.0
  0
SPLINE
  5
6B0
100
AcDbEntity
  8
0
100
AcDbSpline
 62
253
  6
CONTINUOUS
 70
0
 71
3
 72
18
 73
14
 74
12
 42
0.0000001
 43
0.0000001
 44
0.0000000001
 12
-0.1921197014
 22
-0.4630599502
 32
0.0
 13
-0.5013325863
 23
-0.0003675738
 33
0.0
 40
0.0
 40
0.0
 40
0.0
 40
0.0
 40
0.0075742272
 40
0.0238007595
 40
0.0489920847
 40
0.0830644082
 40
0.1257079442
 40
0.1765195552
 40
0.3008286901
 40
0.451268844
 40
0.6222951312
 40
0.8077187133
 40
1.0
 40
1.0
 40
1.0
 40
1.0
 10
11.0004589101
 20
-20.9972959167
 30
0.0
 10
10.9999738573
 20
-20.9984650238
 30
0.0
 10
10.9955739741
 20
-20.9999075529
 30
0.0
 10
10.9881124035
 20
-21.0017801895
 30
0.0
 10
10.9753559119
 20
-21.0036105728
 30
0.0
 10
10.9585399963
 20
-21.0054778542
 30
0.0
 10
10.9372606514
 20
-21.0072734012
 30
0.0
 10
10.9009717416
 20
-21.0097407099
 30
0.0
 10
10.8466147531
 20
-21.0123794351
 30
0.0
 10
10.7721668246
 20
-21.0148967537
 30
0.0
 10
10.6874778745
 20
-21.0167914253
 30
0.0
 10
10.5957861955
 20
-21.0179887624
 30
0.0
 10
10.5326673541
 20
-21.0182904348
 30
0.0
 10
10.5005350625
 20
-21.018313994
 30
0.0
 11
11.0004589101
 21
-20.9972959167
 31
0.0
 11
10.9972519523
 21
-20.9993291923
 31
0.0
 11
10.9893717141
 21
-21.0013486743
 31
0.0
 11
10.9768991538
 21
-21.0033318111
 31
0.0
 11
10.9599263723
 21
-21.0052565824
 31
0.0
 11
10.9386278215
 21
-21.0071048967
 31
0.0
 11
10.9132148619
 21
-21.008860423
 31
0.0
 11
10.8509752476
 21
-21.0120293869
 31
0.0
 11
10.7756000825
 21
-21.0146460878
 31
0.0
 11
10.689881502
 21
-21.0166099408
 31
0.0
 11
10.5969308363
 21
-21.017847878
 31
0.0
 11
10.5005350625
 21
-21.018313994
 31
0.0
  0
SPLINE
  5
6B1
100
AcDbEntity
  8
RACCORDO
100
AcDbSpline
 62
253
  6
CONTINUOUS
 70
0
 71
3
 72
27
 73
23
 74
21
 42
0.0000001
 43
0.0000001
 44
0.0000000001
 12
24.9675342871
 22
-0.0003359403
 32
0.0
 13
-24.9675342871
 23
-0.0003363946
 33
0.0
 40
0.0
 40
0.0
 40
0.0
 40
0.0
 40
0.0624501508
 40
0.0937185525
 40
0.1249908701
 40
0.1874681076
 40
0.2499545852
 40
0.281237788
 40
0.3125217773
 40
0.3750144032
 40
0.4375071018
 40
0.5000011242
 40
0.5624951371
 40
0.6249878252
 40
0.6874804692
 40
0.7187644305
 40
0.7500476044
 40
0.8125337848
 40
0.8750105028
 40
0.9062824907
 40
0.9375506047
 40
1.0
 40
1.0
 40
1.0
 40
1.0
 10
0.0
 20
7.96361743
 30
0.0
 10
0.5197420941
 20
7.9636104368
 30
0.0
 10
1.3025372831
 20
7.8863761121
 30
0.0
 10
2.312616757
 20
7.6327407989
 30
0.0
 10
3.2935454465
 20
7.2812692606
 30
0.0
 10
4.4477448725
 20
6.6633995213
 30
0.0
 10
5.4589291238
 20
5.8316880383
 30
0.0
 10
6.1580037891
 20
5.0586867578
 30
0.0
 10
6.7782052754
 20
4.2210491428
 30
0.0
 10
7.3947028301
 20
3.0655901655
 30
0.0
 10
7.8495339164
 20
1.5628049599
 30
0.0
 10
8.0031820508
 20
-0.000029252
 30
0.0
 10
7.8495216989
 20
-1.5628623477
 30
0.0
 10
7.3946786453
 20
-3.0656434341
 30
0.0
 10
6.778177031
 20
-4.2211003708
 30
0.0
 10
6.1579673296
 20
-5.0587314071
 30
0.0
 10
5.4588941317
 20
-5.8317299017
 30
0.0
 10
4.447707285
 20
-6.6634282849
 30
0.0
 10
3.2935119593
 20
-7.2812837002
 30
0.0
 10
2.3125918563
 20
-7.6327510989
 30
0.0
 10
1.3025221011
 20
-7.8863785291
 30
0.0
 10
0.5197358065
 20
-7.9636104274
 30
0.0
 10
0.0
 20
-7.96361743
 30
0.0
 11
0.0
 21
7.96361743
 31
0.0
 11
1.5516927754
 21
7.8105287943
 31
0.0
 11
2.3089124979
 21
7.6205214125
 31
0.0
 11
3.0439165499
 21
7.3570708032
 31
0.0
 11
4.4190694669
 21
6.620694215
 31
0.0
 11
5.6241615965
 21
5.6298517514
 31
0.0
 11
6.1481303159
 21
5.0506122167
 31
0.0
 11
6.6128502311
 21
4.4228162838
 31
0.0
 11
7.3472374314
 21
3.0461644486
 31
0.0
 11
7.7993342235
 21
1.5528095025
 31
0.0
 11
7.951963608
 21
-0.0000291602
 31
0.0
 11
7.7993220547
 21
-1.5528663871
 31
0.0
 11
7.3472145023
 21
-3.046217802
 31
0.0
 11
6.6128192525
 21
-4.4228658552
 31
0.0
 11
6.1480948489
 21
-5.0506575939
 31
0.0
 11
5.6241247205
 21
-5.6298948838
 31
0.0
 11
4.4190312656
 21
-6.6207240499
 31
0.0
 11
3.0438847896
 21
-7.3570851924
 31
0.0
 11
2.3088878369
 21
-7.6205312121
 31
0.0
 11
1.5516743125
 21
-7.8105337745
 31
0.0
 11
0.0
 21
-7.96361743
 31
0.0
  0
SPLINE
  5
6B2
100
AcDbEntity
  8
0
100
AcDbSpline
 62
253
  6
CONTINUOUS
 70
0
 71
3
 72
16
 73
12
 74
10
 42
0.0000001
 43
0.0000001
 44
0.0000000001
 12
0.1577394502
 22
-0.9435957528
 32
0.0
 13
0.0003490238
 23
-0.9566893734
 33
0.0
 40
0.0
 40
0.0
 40
0.0
 40
0.0
 40
0.009516323
 40
0.027818877
 40
0.0547607558
 40
0.0901211737
 40
0.1847844843
 40
0.30862854
 40
0.4574562602
 40
0.6261565798
 40
1.0
 40
1.0
 40
1.0
 40
1.0
 10
-10.5087981167
 20
21.9749071372
 30
0.0
 10
-10.5082977502
 20
21.9719139499
 30
0.0
 10
-10.5078547024
 20
21.9630276484
 30
0.0
 10
-10.5070265244
 20
21.9456023734
 30
0.0
 10
-10.5063456215
 20
21.919896643
 30
0.0
 10
-10.5052440926
 20
21.8698582114
 30
0.0
 10
-10.5040997522
 20
21.7889041041
 30
0.0
 10
-10.5029144017
 20
21.6717699283
 30
0.0
 10
-10.5019374017
 20
21.5310204539
 30
0.0
 10
-10.50089938
 20
21.3105471481
 30
0.0
 10
-10.500578556
 20
21.1375315734
 30
0.0
 10
-10.5005350625
 20
21.0183142309
 30
0.0
 11
-10.5087981167
 21
21.9749071372
 31
0.0
 11
-10.507997246
 21
21.9658382652
 31
0.0
 11
-10.5072066111
 21
21.9483462642
 31
0.0
 11
-10.5064333943
 21
21.9225828538
 31
0.0
 11
-10.5056843966
 21
21.8887622082
 31
0.0
 11
-10.5042838117
 21
21.7982096497
 31
0.0
 11
-10.50305202
 21
21.6797357531
 31
0.0
 11
-10.5020310684
 21
21.5373575057
 31
0.0
 11
-10.5012551192
 21
21.3759655573
 31
0.0
 11
-10.5005350625
 21
21.0183142309
 31
0.0
  0
SPLINE
  5
6B3
100
AcDbEntity
  8
0
100
AcDbSpline
 62
253
  6
CONTINUOUS
 70
0
 71
3
 72
15
 73
11
 74
9
 42
0.0000001
 43
0.0000001
 44
0.0000000001
 12
0.1518342895
 22
-0.4537589634
 32
0.0
 13
0.0003498987
 23
-0.478487958
 33
0.0
 40
0.0
 40
0.0
 40
0.0
 40
0.0
 40
0.0096159218
 40
0.0279701735
 40
0.0903214928
 40
0.1849868773
 40
0.3088038123
 40
0.4576003124
 40
0.6262578119
 40
1.0
 40
1.0
 40
1.0
 40
1.0
 10
-11.0087219643
 20
21.4755923698
 30
0.0
 10
-11.0082352887
 20
21.4741379329
 30
0.0
 10
-11.0077691234
 20
21.4696537802
 30
0.0
 10
-11.0064564955
 20
21.4553558437
 30
0.0
 10
-11.0053817487
 20
21.4273492667
 30
0.0
 10
-11.0039858613
 20
21.3826079438
 30
0.0
 10
-11.0028521632
 20
21.3240265835
 30
0.0
 10
-11.0018564998
 20
21.2536567655
 30
0.0
 10
-11.0008262129
 20
21.1434164192
 30
0.0
 10
-11.0005025008
 20
21.0569062955
 30
0.0
 10
-11.0004589101
 20
20.9972959167
 30
0.0
 11
-11.0087219643
 21
21.4755923698
 31
0.0
 11
-11.0079218146
 21
21.4710613745
 31
0.0
 11
-11.0071309793
 21
21.4623147631
 31
0.0
 11
-11.0056084523
 21
21.4325192744
 31
0.0
 11
-11.0042080262
 21
21.3872446694
 31
0.0
 11
-11.0029759669
 21
21.3280125535
 31
0.0
 11
-11.0019547207
 21
21.2568225257
 31
0.0
 11
-11.0011787816
 21
21.176125652
 31
0.0
 11
-11.0004589101
 21
20.9972959167
 31
0.0
  0
SPLINE
  5
6B4
100
AcDbEntity
  8
0
100
AcDbSpline
 62
253
  6
CONTINUOUS
 70
0
 71
3
 72
9
 73
5
 74
3
 42
0.0000001
 43
0.0000001
 44
0.0000000001
 12
0.0308408124
 22
-42.0366192679
 32
0.0
 13
-0.0308408099
 23
-42.0366192679
 33
0.0
 40
0.0
 40
0.0
 40
0.0
 40
0.0
 40
0.2499439267
 40
1.0
 40
1.0
 40
1.0
 40
1.0
 10
-10.5005350625
 20
21.0183142309
 30
0.0
 10
-10.4979655713
 20
17.5160483361
 30
0.0
 10
-10.490259949
 20
3.5038401436
 30
0.0
 10
-10.4928242836
 20
-10.5083737031
 30
0.0
 10
-10.5005350625
 20
-21.0183142309
 30
0.0
 11
-10.5005350625
 21
21.0183142309
 31
0.0
 11
-10.4947552087
 21
10.5115153085
 31
0.0
 11
-10.5005350625
 21
-21.0183142309
 31
0.0
  0
SPLINE
  5
6B5
100
AcDbEntity
  8
0
100
AcDbSpline
 62
253
  6
CONTINUOUS
 70
0
 71
3
 72
9
 73
5
 74
3
 42
0.0000001
 43
0.0000001
 44
0.0000000001
 12
0.0308408122
 22
-41.9945826303
 32
0.0
 13
-0.0308408097
 23
-41.9945826303
 33
0.0
 40
0.0
 40
0.0
 40
0.0
 40
0.0
 40
0.2499439267
 40
1.0
 40
1.0
 40
1.0
 40
1.0
 10
-11.0004589101
 20
20.9972959167
 30
0.0
 10
-10.9978894189
 20
17.4985322888
 30
0.0
 10
-10.9901837966
 20
3.5003363071
 30
0.0
 10
-10.9927481312
 20
-10.4978653344
 30
0.0
 10
-11.0004589101
 20
-20.9972959167
 30
0.0
 11
-11.0004589101
 21
20.9972959167
 31
0.0
 11
-10.9946790563
 21
10.501003794
 31
0.0
 11
-11.0004589101
 21
-20.9972959167
 31
0.0
  0
SPLINE
  5
6B6
100
AcDbEntity
  8
0
100
AcDbSpline
 62
253
  6
CONTINUOUS
 70
0
 71
3
 72
18
 73
14
 74
12
 42
0.0000001
 43
0.0000001
 44
0.0000000001
 12
-0.5013326736
 22
-0.0003675205
 32
0.0
 13
-0.1920605204
 23
-0.463084594
 33
0.0
 40
0.0
 40
0.0
 40
0.0
 40
0.0
 40
0.192282469
 40
0.3777070261
 40
0.5487339137
 40
0.6991742156
 40
0.8234830531
 40
0.8742943669
 40
0.9169375246
 40
0.9510094033
 40
0.976200234
 40
0.9924262434
 40
1.0
 40
1.0
 40
1.0
 40
1.0
 10
-10.5005350625
 20
21.0183142305
 30
0.0
 10
-10.5326675573
 20
21.0182906746
 30
0.0
 10
-10.5957867702
 20
21.0179890035
 30
0.0
 10
-10.6874789258
 20
21.0167916539
 30
0.0
 10
-10.7721681786
 20
21.0148969574
 30
0.0
 10
-10.8466161933
 20
21.0123796061
 30
0.0
 10
-10.9009731179
 20
21.0097408458
 30
0.0
 10
-10.9372618646
 20
21.0072735074
 30
0.0
 10
-10.9585410331
 20
21.0054779363
 30
0.0
 10
-10.9753567037
 20
21.0036106491
 30
0.0
 10
-10.9881130048
 20
21.0017802208
 30
0.0
 10
-10.9955742199
 20
20.9999076348
 30
0.0
 10
-10.9999740369
 20
20.9984650133
 30
0.0
 10
-11.0004589101
 20
20.9972959167
 30
0.0
 11
-10.5005350625
 21
21.0183142305
 31
0.0
 11
-10.5969314458
 21
21.0178481162
 31
0.0
 11
-10.6898826164
 21
21.0166101652
 31
0.0
 11
-10.7756015123
 21
21.0146462854
 31
0.0
 11
-10.8509767635
 21
21.0120295489
 31
0.0
 11
-10.9132162373
 21
21.0088605446
 31
0.0
 11
-10.9386290505
 21
21.0071049974
 31
0.0
 11
-10.9599274129
 21
21.0052566621
 31
0.0
 11
-10.9768999706
 21
21.00333187
 31
0.0
 11
-10.9893722789
 21
21.0013487129
 31
0.0
 11
-10.9972522429
 21
20.9993292112
 31
0.0
 11
-11.0004589101
 21
20.9972959167
 31
0.0
  0
SPLINE
  5
6B7
100
AcDbEntity
  8
0
100
AcDbSpline
 62
253
  6
CONTINUOUS
 70
0
 71
3
 72
16
 73
12
 74
10
 42
0.0000001
 43
0.0000001
 44
0.0000000001
 12
-0.0003490237
 22
-0.9566893734
 32
0.0
 13
-0.157739465
 23
-0.9435957504
 33
0.0
 40
0.0
 40
0.0
 40
0.0
 40
0.0
 40
0.3738434202
 40
0.5425437398
 40
0.69137146
 40
0.8152155157
 40
0.9098788264
 40
0.9452392442
 40
0.9721811228
 40
0.9904836768
 40
1.0
 40
1.0
 40
1.0
 40
1.0
 10
-10.5005350625
 20
-21.0183142309
 30
0.0
 10
-10.5005785559
 20
-21.1375315734
 30
0.0
 10
-10.50089938
 20
-21.3105471481
 30
0.0
 10
-10.5019374016
 20
-21.5310204539
 30
0.0
 10
-10.5029144017
 20
-21.6717699283
 30
0.0
 10
-10.5040997522
 20
-21.7889041042
 30
0.0
 10
-10.5052440926
 20
-21.8698582114
 30
0.0
 10
-10.5063456216
 20
-21.919896643
 30
0.0
 10
-10.5070265244
 20
-21.9456023733
 30
0.0
 10
-10.5078547023
 20
-21.9630276482
 30
0.0
 10
-10.5082977501
 20
-21.9719139498
 30
0.0
 10
-10.5087981167
 20
-21.9749071372
 30
0.0
 11
-10.5005350625
 21
-21.0183142309
 31
0.0
 11
-10.5012551192
 21
-21.3759655573
 31
0.0
 11
-10.5020310683
 21
-21.5373575057
 31
0.0
 11
-10.50305202
 21
-21.6797357531
 31
0.0
 11
-10.5042838117
 21
-21.7982096497
 31
0.0
 11
-10.5056843966
 21
-21.8887622083
 31
0.0
 11
-10.5064333943
 21
-21.9225828538
 31
0.0
 11
-10.5072066111
 21
-21.9483462641
 31
0.0
 11
-10.5079972459
 21
-21.965838265
 31
0.0
 11
-10.5087981167
 21
-21.9749071372
 31
0.0
  0
SPLINE
  5
6B8
100
AcDbEntity
  8
0
100
AcDbSpline
 62
253
  6
CONTINUOUS
 70
0
 71
3
 72
15
 73
11
 74
9
 42
0.0000001
 43
0.0000001
 44
0.0000000001
 12
-0.0003498984
 22
-0.478487958
 32
0.0
 13
-0.1518341796
 23
-0.4537590002
 33
0.0
 40
0.0
 40
0.0
 40
0.0
 40
0.0
 40
0.3737421881
 40
0.542399688
 40
0.6911961877
 40
0.8150131222
 40
0.9096785078
 40
0.972029826
 40
0.9903840766
 40
1.0
 40
1.0
 40
1.0
 40
1.0
 10
-11.0004589101
 20
-20.9972959167
 30
0.0
 10
-11.0005025007
 20
-21.0569062955
 30
0.0
 10
-11.0008262129
 20
-21.1434164192
 30
0.0
 10
-11.0018564998
 20
-21.2536567655
 30
0.0
 10
-11.0028521632
 20
-21.3240265834
 30
0.0
 10
-11.0039858613
 20
-21.3826079438
 30
0.0
 10
-11.0053817486
 20
-21.4273492667
 30
0.0
 10
-11.0064564956
 20
-21.4553558433
 30
0.0
 10
-11.0077691233
 20
-21.4696537799
 30
0.0
 10
-11.008235289
 20
-21.4741379326
 30
0.0
 10
-11.0087219643
 20
-21.4755923698
 30
0.0
 11
-11.0004589101
 21
-20.9972959167
 31
0.0
 11
-11.0011787816
 21
-21.176125652
 31
0.0
 11
-11.0019547207
 21
-21.2568225259
 31
0.0
 11
-11.0029759669
 21
-21.3280125535
 31
0.0
 11
-11.0042080262
 21
-21.3872446691
 31
0.0
 11
-11.0056084523
 21
-21.4325192746
 31
0.0
 11
-11.0071309793
 21
-21.4623147629
 31
0.0
 11
-11.0079218146
 21
-21.4710613737
 31
0.0
 11
-11.0087219643
 21
-21.4755923698
 31
0.0
  0
SPLINE
  5
6B9
100
AcDbEntity
  8
0
100
AcDbSpline
 62
253
  6
CONTINUOUS
 70
0
 71
3
 72
18
 73
14
 74
12
 42
0.0000001
 43
0.0000001
 44
0.0000000001
 12
-0.5013323368
 22
0.000367603
 32
0.0
 13
-0.1922951011
 23
0.4629868693
 33
0.0
 40
0.0
 40
0.0
 40
0.0
 40
0.0
 40
0.1922777651
 40
0.3776984417
 40
0.5487229375
 40
0.6991626459
 40
0.8234726619
 40
0.8742851559
 40
0.9169298173
 40
0.9510034654
 40
0.9761962651
 40
0.9924243591
 40
1.0
 40
1.0
 40
1.0
 40
1.0
 10
-10.5005350626
 20
-21.0183132877
 30
0.0
 10
-10.5326667497
 20
-21.0182897271
 30
0.0
 10
-10.5957844854
 20
-21.0179880654
 30
0.0
 10
-10.6874747463
 20
-21.0167907814
 30
0.0
 10
-10.7721627952
 20
-21.0148961931
 30
0.0
 10
-10.8466104667
 20
-21.0123789752
 30
0.0
 10
-10.9009676446
 20
-21.0097403526
 30
0.0
 10
-10.9372570394
 20
-21.007273127
 30
0.0
 10
-10.9585369085
 20
-21.0054776462
 30
0.0
 10
-10.9753535541
 20
-21.0036103761
 30
0.0
 10
-10.9881106123
 20
-21.001780117
 30
0.0
 10
-10.9955732448
 20
-20.9999073248
 30
0.0
 10
-10.9999733237
 20
-20.9984650574
 30
0.0
 10
-11.00045891
 20
-20.9972959167
 30
0.0
 11
-10.5005350626
 21
-21.0183132877
 31
0.0
 11
-10.5969290229
 21
-21.0178471891
 31
0.0
 11
-10.6898781864
 21
-21.016609309
 31
0.0
 11
-10.7755958279
 21
-21.0146455447
 31
0.0
 11
-10.8509707358
 21
-21.0120289529
 31
0.0
 11
-10.9132107673
 21
-21.0088601064
 31
0.0
 11
-10.9386241619
 21
-21.0071046385
 31
0.0
 11
-10.9599232733
 21
-21.0052563811
 31
0.0
 11
-10.9768967208
 21
-21.0033316645
 31
0.0
 11
-10.9893700315
 21
-21.0013485797
 31
0.0
 11
-10.9972510862
 21
-20.9993291466
 31
0.0
 11
-11.00045891
 21
-20.9972959167
 31
0.0
  0
SPLINE
  5
6BA
100
AcDbEntity
  8
ASSI
100
AcDbSpline
 62
7
  6
CONTINUOUS
 70
0
 71
3
 72
8
 73
4
 74
2
 42
0.0000001
 43
0.0000001
 44
0.0000000001
 12
3.5586818193
 22
-0.016661402
 32
0.0
 13
3.5586889299
 23
-0.0150663173
 33
0.0
 40
0.0
 40
0.0
 40
0.0
 40
0.0
 40
1.0
 40
1.0
 40
1.0
 40
1.0
 10
-40.1722533444
 20
22.663166622
 30
0.0
 10
-38.9860260713
 20
22.6576128213
 30
0.0
 10
-37.7997975866
 20
22.6523107703
 30
0.0
 10
-36.6135679433
 20
22.6472886645
 30
0.0
 11
-40.1722533444
 21
22.663166622
 31
0.0
 11
-36.6135679433
 21
22.6472886645
 31
0.0
  0
LINE
  5
6BB
100
AcDbEntity
  8
ASSI
100
AcDbLine
 62
7
  6
CONTINUOUS
 10
-36.6135679433
 20
22.6472886645
 11
-36.1722533444
 21
22.6454332982
  0
LINE
  5
6BC
100
AcDbEntity
  8
ASSI
100
AcDbLine
 62
7
  6
CONTINUOUS
 10
-40.1722533444
 20
-22.663166622
 11
-39.7251334128
 21
-22.6610852533
  0
SPLINE
  5
6BD
100
AcDbEntity
  8
ASSI
100
AcDbSpline
 62
7
  6
CONTINUOUS
 70
0
 71
3
 72
8
 73
4
 74
2
 42
0.0000001
 43
0.0000001
 44
0.0000000001
 12
3.5528764952
 22
0.0164430608
 32
0.0
 13
3.5528835873
 23
0.0148316925
 33
0.0
 40
0.0
 40
0.0
 40
0.0
 40
0.0
 40
1.0
 40
1.0
 40
1.0
 40
1.0
 10
-39.7251334128
 20
-22.6610852533
 30
0.0
 10
-38.5408412478
 20
-22.655604233
 30
0.0
 10
-37.3565478735
 20
-22.6503771957
 30
0.0
 10
-36.1722533444
 20
-22.6454332982
 30
0.0
 11
-39.7251334128
 21
-22.6610852533
 31
0.0
 11
-36.1722533444
 21
-22.6454332982
 31
0.0
  0
LINE
  5
6BE
100
AcDbEntity
  8
ASSI
100
AcDbLine
 62
253
  6
CONTINUOUS
 10
-38.6722533444
 20
-16.4758271194
 11
-40.1722533444
 21
-16.463281859
  0
LINE
  5
6BF
100
AcDbEntity
  8
ASSI
100
AcDbLine
 62
253
  6
CONTINUOUS
 10
-40.1722533444
 20
16.4632818589
 11
-38.6722533444
 21
16.4758271193
  0
SPLINE
  5
6C0
100
AcDbEntity
  8
ASSI
100
AcDbSpline
 62
7
  6
CONTINUOUS
 70
0
 71
3
 72
8
 73
4
 74
2
 42
0.0000001
 43
0.0000001
 44
0.0000000001
 12
4.0000092234
 22
0.0379979396
 32
0.0
 13
3.9999901392
 23
0.0399564424
 33
0.0
 40
0.0
 40
0.0
 40
0.0
 40
0.0
 40
1.0
 40
1.0
 40
1.0
 40
1.0
 10
-40.1722533444
 20
-23.1799085618
 30
0.0
 10
-38.8389169366
 20
-23.1672425819
 30
0.0
 10
-37.5055833908
 20
-23.1542705965
 30
0.0
 10
-36.1722533444
 20
-23.1409517823
 30
0.0
 11
-40.1722533444
 21
-23.1799085618
 31
0.0
 11
-36.1722533444
 21
-23.1409517823
 31
0.0
  0
SPLINE
  5
6C1
100
AcDbEntity
  8
ASSI
100
AcDbSpline
 62
253
  6
CONTINUOUS
 70
0
 71
3
 72
21
 73
17
 74
15
 42
0.0000001
 43
0.0000001
 44
0.0000000001
 12
-0.4991947841
 22
-0.0261616901
 32
0.0
 13
0.0261537428
 23
-0.4991952005
 33
0.0
 40
0.0
 40
0.0
 40
0.0
 40
0.0
 40
0.0014788705
 40
0.0051916154
 40
0.0112551638
 40
0.0196761193
 40
0.0435524213
 40
0.0766325832
 40
0.1185730078
 40
0.1690035965
 40
0.2274321583
 40
0.2932879893
 40
0.4447375815
 40
0.6174757169
 40
0.8050549971
 40
1.0
 40
1.0
 40
1.0
 40
1.0
 10
-48.2835083644
 20
21.9749071372
 30
0.0
 10
-48.2837544458
 20
21.9748942406
 30
0.0
 10
-48.2840374143
 20
21.9737629043
 30
0.0
 10
-48.2843036642
 20
21.9721681373
 30
0.0
 10
-48.2845475693
 20
21.9690012455
 30
0.0
 10
-48.2848259522
 20
21.9627006273
 30
0.0
 10
-48.2849543737
 20
21.9517425946
 30
0.0
 10
-48.2848661488
 20
21.935294126
 30
0.0
 10
-48.2845219348
 20
21.9143814601
 30
0.0
 10
-48.2839245469
 20
21.8892653277
 30
0.0
 10
-48.283075823
 20
21.8601640511
 30
0.0
 10
-48.2815451431
 20
21.8142453977
 30
0.0
 10
-48.2790425767
 20
21.7493012232
 30
0.0
 10
-48.2753565492
 20
21.6641068228
 30
0.0
 10
-48.2709934469
 20
21.5716880092
 30
0.0
 10
-48.2677661033
 20
21.5080309064
 30
0.0
 10
-48.2660665895
 20
21.4755923698
 30
0.0
 11
-48.2835083644
 21
21.9749071372
 31
0.0
 11
-48.2839026615
 21
21.9742818121
 31
0.0
 11
-48.2842335983
 21
21.9724556293
 31
0.0
 11
-48.2845003703
 21
21.9694363462
 31
0.0
 11
-48.2847021727
 21
21.9652317202
 31
0.0
 11
-48.2849077048
 21
21.9532982077
 31
0.0
 11
-48.2848470426
 21
21.9367622125
 31
0.0
 11
-48.2845220426
 21
21.9157995585
 31
0.0
 11
-48.2839352908
 21
21.8905971526
 31
0.0
 11
-48.2830928528
 21
21.8614020437
 31
0.0
 11
-48.2820030388
 21
21.8285000847
 31
0.0
 11
-48.279123525
 21
21.7528482662
 31
0.0
 11
-48.2754091868
 21
21.6665798771
 31
0.0
 11
-48.2709980447
 21
21.5729165898
 31
0.0
 11
-48.2660665895
 21
21.4755923698
 31
0.0
  0
LINE
  5
6C2
100
AcDbEntity
  8
ASSI
100
AcDbLine
 62
253
  6
CONTINUOUS
 10
-40.1722533444
 20
-18.2307790647
 11
-38.6722533444
 21
-18.1797639505
  0
LINE
  5
6C3
100
AcDbEntity
  8
ASSI
100
AcDbLine
 62
253
  6
CONTINUOUS
 10
-38.6722533444
 20
-17.0863903822
 11
-40.1722533444
 21
-17.0730847656
  0
SPLINE
  5
6C4
100
AcDbEntity
  8
ASSI
100
AcDbSpline
 62
7
  6
CONTINUOUS
 70
0
 71
3
 72
8
 73
4
 74
2
 42
0.0000001
 43
0.0000001
 44
0.0000000001
 12
4.0000092234
 22
-0.0379979396
 32
0.0
 13
3.9999901392
 23
-0.0399564424
 33
0.0
 40
0.0
 40
0.0
 40
0.0
 40
0.0
 40
1.0
 40
1.0
 40
1.0
 40
1.0
 10
-40.1722533444
 20
23.1799085618
 30
0.0
 10
-38.8389169366
 20
23.1672425819
 30
0.0
 10
-37.5055833908
 20
23.1542705965
 30
0.0
 10
-36.1722533444
 20
23.1409517823
 30
0.0
 11
-40.1722533444
 21
23.1799085618
 31
0.0
 11
-36.1722533444
 21
23.1409517823
 31
0.0
  0
SPLINE
  5
6C5
100
AcDbEntity
  8
ASSI
100
AcDbSpline
 62
253
  6
CONTINUOUS
 70
0
 71
3
 72
21
 73
17
 74
15
 42
0.0000001
 43
0.0000001
 44
0.0000000001
 12
-0.499194778
 22
0.0261616897
 32
0.0
 13
0.0261536221
 23
0.4991952008
 33
0.0
 40
0.0
 40
0.0
 40
0.0
 40
0.0
 40
0.0014788648
 40
0.0051916077
 40
0.0112551548
 40
0.0196761096
 40
0.0435524107
 40
0.0766325724
 40
0.1185729971
 40
0.1690035861
 40
0.2274321484
 40
0.2932879802
 40
0.4447375744
 40
0.617475712
 40
0.8050549946
 40
1.0
 40
1.0
 40
1.0
 40
1.0
 10
-48.2835083644
 20
-21.9749071372
 30
0.0
 10
-48.2837544449
 20
-21.9748942407
 30
0.0
 10
-48.284037406
 20
-21.9737629016
 30
0.0
 10
-48.2843036548
 20
-21.9721681388
 30
0.0
 10
-48.284547554
 20
-21.9690012455
 30
0.0
 10
-48.2848259317
 20
-21.9627006288
 30
0.0
 10
-48.2849543459
 20
-21.9517425956
 30
0.0
 10
-48.2848661144
 20
-21.9352941278
 30
0.0
 10
-48.2845218945
 20
-21.9143814621
 30
0.0
 10
-48.2839245024
 20
-21.88926533
 30
0.0
 10
-48.2830757758
 20
-21.8601640535
 30
0.0
 10
-48.2815450945
 20
-21.8142454002
 30
0.0
 10
-48.2790425308
 20
-21.7493012256
 30
0.0
 10
-48.2753565127
 20
-21.6641068247
 30
0.0
 10
-48.2709934256
 20
-21.5716880103
 30
0.0
 10
-48.2677660955
 20
-21.5080309069
 30
0.0
 10
-48.2660665895
 20
-21.4755923698
 30
0.0
 11
-48.2835083644
 21
-21.9749071372
 31
0.0
 11
-48.2839026566
 21
-21.9742818124
 31
0.0
 11
-48.2842335887
 21
-21.9724556298
 31
0.0
 11
-48.2845003561
 21
-21.9694363469
 31
0.0
 11
-48.2847021543
 21
-21.9652317212
 31
0.0
 11
-48.2849076784
 21
-21.9532982091
 31
0.0
 11
-48.2848470091
 21
-21.9367622143
 31
0.0
 11
-48.284522003
 21
-21.9157995606
 31
0.0
 11
-48.2839352468
 21
-21.8905971549
 31
0.0
 11
-48.283092806
 21
-21.8614020462
 31
0.0
 11
-48.2820029909
 21
-21.8285000872
 31
0.0
 11
-48.2791234797
 21
-21.7528482685
 31
0.0
 11
-48.2754091507
 21
-21.666579879
 31
0.0
 11
-48.2709980239
 21
-21.5729165909
 31
0.0
 11
-48.2660665895
 21
-21.4755923698
 31
0.0
  0
LINE
  5
6C6
100
AcDbEntity
  8
ASSI
100
AcDbLine
 62
253
  6
CONTINUOUS
 10
-38.6722533444
 20
18.1797639505
 11
-40.1722533444
 21
18.2307790647
  0
LINE
  5
6C7
100
AcDbEntity
  8
ASSI
100
AcDbLine
 62
253
  6
CONTINUOUS
 10
-40.1722533444
 20
17.0730847656
 11
-38.6722533444
 21
17.0863903821
  0
SPLINE
  5
6C8
100
AcDbEntity
  8
CURVE
100
AcDbSpline
 62
253
  6
CONTINUOUS
 70
0
 71
3
 72
9
 73
5
 74
3
 42
0.0000001
 43
0.0000001
 44
0.0000000001
 12
0.4484045427
 22
0.0069211271
 32
0.0
 13
0.0100126127
 23
-0.4484144442
 33
0.0
 40
0.0
 40
0.0
 40
0.0
 40
0.0
 40
0.5020365432
 40
1.0
 40
1.0
 40
1.0
 40
1.0
 10
-46.9506457138
 20
-9.442566679
 30
0.0
 10
-46.8756072249
 20
-9.4414084594
 30
0.0
 10
-46.7066025407
 20
-9.492348681
 30
0.0
 10
-46.6726963613
 20
-9.6599790806
 30
0.0
 10
-46.6710343896
 20
-9.7344104162
 30
0.0
 11
-46.9506457138
 21
-9.442566679
 31
0.0
 11
-46.7399644905
 21
-9.521966838
 31
0.0
 11
-46.6710343896
 21
-9.7344104162
 31
0.0
  0
SPLINE
  5
6C9
100
AcDbEntity
  8
CURVE
100
AcDbSpline
 62
253
  6
CONTINUOUS
 70
0
 71
3
 72
9
 73
5
 74
3
 42
0.0000001
 43
0.0000001
 44
0.0000000001
 12
0.0382386643
 22
0.3294607193
 32
0.0
 13
0.3315819597
 23
0.0051876841
 33
0.0
 40
0.0
 40
0.0
 40
0.0
 40
0.0
 40
0.5000882298
 40
1.0
 40
1.0
 40
1.0
 40
1.0
 10
-47.1755707137
 20
-9.6547921298
 30
0.0
 10
-47.1691964784
 20
-9.5998723205
 30
0.0
 10
-47.1208729542
 20
-9.48852353
 30
0.0
 10
-47.0058996219
 20
-9.4434311405
 30
0.0
 10
-46.9506457138
 20
-9.442566679
 30
0.0
 11
-47.1755707137
 21
-9.6547921298
 31
0.0
 11
-47.104196094
 21
-9.505073828
 31
0.0
 11
-46.9506457138
 21
-9.442566679
 31
0.0
  0
SPLINE
  5
6CA
100
AcDbEntity
  8
CURVE
100
AcDbSpline
 62
253
  6
CONTINUOUS
 70
0
 71
3
 72
9
 73
5
 74
3
 42
0.0000001
 43
0.0000001
 44
0.0000000001
 12
-0.0496619787
 22
0.2911317867
 32
0.0
 13
0.0340417819
 23
0.2933693658
 33
0.0
 40
0.0
 40
0.0
 40
0.0
 40
0.0
 40
0.4997637338
 40
1.0
 40
1.0
 40
1.0
 40
1.0
 10
-47.1649788646
 20
-9.9491192989
 30
0.0
 10
-47.1732519499
 20
-9.9006202626
 30
0.0
 10
-47.1852829969
 20
-9.8025844194
 30
0.0
 10
-47.181247025
 20
-9.7037101286
 30
0.0
 10
-47.1755707137
 20
-9.6547921298
 30
0.0
 11
-47.1649788646
 21
-9.9491192989
 31
0.0
 11
-47.1812643523
 21
-9.8024213307
 31
0.0
 11
-47.1755707137
 21
-9.6547921298
 31
0.0
  0
SPLINE
  5
6CB
100
AcDbEntity
  8
CURVE
100
AcDbSpline
 62
253
  6
CONTINUOUS
 70
0
 71
3
 72
17
 73
13
 74
11
 42
0.0000001
 43
0.0000001
 44
0.0000000001
 12
-0.1434044479
 22
1.1117230867
 32
0.0
 13
-0.3802772255
 23
-1.0544403704
 33
0.0
 40
0.0
 40
0.0
 40
0.0
 40
0.0
 40
0.0626341368
 40
0.1256123062
 40
0.1874334728
 40
0.25012897
 40
0.3755999783
 40
0.5004417704
 40
0.6252962742
 40
0.7502511716
 40
0.8752241398
 40
1.0
 40
1.0
 40
1.0
 40
1.0
 10
-46.522735009
 20
-9.3449435115
 30
0.0
 10
-46.5257290136
 20
-9.3217329062
 30
0.0
 10
-46.5586103678
 20
-9.2830572006
 30
0.0
 10
-46.6033120168
 20
-9.2310734555
 30
0.0
 10
-46.6566725463
 20
-9.1845582279
 30
0.0
 10
-46.7363655718
 20
-9.1355055581
 30
0.0
 10
-46.8482254838
 20
-9.0959220999
 30
0.0
 10
-46.9892394111
 20
-9.0854553438
 30
0.0
 10
-47.1290540668
 20
-9.1061250925
 30
0.0
 10
-47.2584918421
 20
-9.1651908537
 30
0.0
 10
-47.3640714976
 20
-9.2593541122
 30
0.0
 10
-47.4157261772
 20
-9.3398234154
 30
0.0
 10
-47.4315426498
 20
-9.3836796502
 30
0.0
 11
-46.522735009
 21
-9.3449435115
 31
0.0
 11
-46.5577933975
 21
-9.2841173178
 31
0.0
 11
-46.6050531838
 21
-9.2316823836
 31
0.0
 11
-46.6574731412
 21
-9.1863671418
 31
0.0
 11
-46.7171594791
 21
-9.1492806294
 31
0.0
 11
-46.8496138091
 21
-9.1020414377
 31
0.0
 11
-46.989067151
 21
-9.0906407102
 31
0.0
 11
-47.127280675
 21
-9.112511377
 31
0.0
 11
-47.2545123556
 21
-9.1710417448
 31
0.0
 11
-47.3594404879
 21
-9.2638374561
 31
0.0
 11
-47.4315426498
 21
-9.3836796502
 31
0.0
  0
SPLINE
  5
6CC
100
AcDbEntity
  8
CURVE
100
AcDbSpline
 62
253
  6
CONTINUOUS
 70
0
 71
3
 72
9
 73
5
 74
3
 42
0.0000001
 43
0.0000001
 44
0.0000000001
 12
-0.4091508424
 22
-0.111498973
 32
0.0
 13
-0.1570492535
 23
-0.3939739264
 33
0.0
 40
0.0
 40
0.0
 40
0.0
 40
0.0
 40
0.506910518
 40
1.0
 40
1.0
 40
1.0
 40
1.0
 10
-46.1591984598
 20
-9.1283855518
 30
0.0
 10
-46.2283327483
 20
-9.1472255525
 30
0.0
 10
-46.363491651
 20
-9.1827564232
 30
0.0
 10
-46.4862895697
 20
-9.2801887118
 30
0.0
 10
-46.5121026814
 20
-9.3449435115
 30
0.0
 11
-46.1591984598
 21
-9.1283855518
 31
0.0
 11
-46.3621834299
 21
-9.1991535781
 31
0.0
 11
-46.5121026814
 21
-9.3449435115
 31
0.0
  0
SPLINE
  5
6CD
100
AcDbEntity
  8
CURVE
100
AcDbSpline
 62
253
  6
CONTINUOUS
 70
0
 71
3
 72
8
 73
4
 74
2
 42
0.0000001
 43
0.0000001
 44
0.0000000001
 12
-0.4860301064
 22
-0.1320446193
 32
0.0
 13
-0.4859257543
 23
-0.1324282371
 33
0.0
 40
0.0
 40
0.0
 40
0.0
 40
0.0
 40
1.0
 40
1.0
 40
1.0
 40
1.0
 10
-45.6722027775
 20
-8.9999489333
 30
0.0
 10
-45.834212813
 20
-9.0439638064
 30
0.0
 10
-45.9972232084
 20
-9.0842428061
 30
0.0
 10
-46.1591984598
 20
-9.1283855518
 30
0.0
 11
-45.6722027775
 21
-8.9999489333
 31
0.0
 11
-46.1591984598
 21
-9.1283855518
 31
0.0
  0
SPLINE
  5
6CE
100
AcDbEntity
  8
CURVE
100
AcDbSpline
 62
253
  6
CONTINUOUS
 70
0
 71
3
 72
9
 73
5
 74
3
 42
0.0000001
 43
0.0000001
 44
0.0000000001
 12
0.5334129904
 22
0.2004569281
 32
0.0
 13
0.5476340496
 23
0.1574949591
 33
0.0
 40
0.0
 40
0.0
 40
0.0
 40
0.0
 40
0.499968398
 40
1.0
 40
1.0
 40
1.0
 40
1.0
 10
-46.2178111893
 20
-9.5256131811
 30
0.0
 10
-46.1289146432
 20
-9.4922058047
 30
0.0
 10
-45.945418891
 20
-9.4417665169
 30
0.0
 10
-45.7634808879
 20
-9.3875795821
 30
0.0
 10
-45.6722027775
 20
-9.3613287632
 30
0.0
 11
-46.2178111893
 21
-9.5256131811
 31
0.0
 11
-45.9458198767
 21
-9.4408329115
 31
0.0
 11
-45.6722027775
 21
-9.3613287632
 31
0.0
  0
SPLINE
  5
6CF
100
AcDbEntity
  8
CURVE
100
AcDbSpline
 62
253
  6
CONTINUOUS
 70
0
 71
3
 72
10
 73
6
 74
4
 42
0.0000001
 43
0.0000001
 44
0.0000000001
 12
0.0
 22
0.2784912461
 32
0.0
 13
0.2606901811
 23
0.0978636695
 33
0.0
 40
0.0
 40
0.0
 40
0.0
 40
0.0
 40
0.2488469502
 40
0.4981920115
 40
1.0
 40
1.0
 40
1.0
 40
1.0
 10
-46.3763516062
 20
-9.7352202309
 30
0.0
 10
-46.3763516062
 20
-9.7121196652
 30
0.0
 10
-46.3695803786
 20
-9.6653169385
 30
0.0
 10
-46.3236696051
 20
-9.5826259642
 30
0.0
 10
-46.2614166611
 20
-9.5419827715
 30
0.0
 10
-46.2178111893
 20
-9.5256131811
 30
0.0
 11
-46.3763516062
 21
-9.7352202309
 31
0.0
 11
-46.3655699057
 21
-9.6667626181
 31
0.0
 11
-46.3322007182
 21
-9.6058682049
 31
0.0
 11
-46.2178111893
 21
-9.5256131811
 31
0.0
  0
SPLINE
  5
6D0
100
AcDbEntity
  8
CURVE
100
AcDbSpline
 62
253
  6
CONTINUOUS
 70
0
 71
3
 72
10
 73
6
 74
4
 42
0.0000001
 43
0.0000001
 44
0.0000000001
 12
-0.3178066384
 22
-0.8799435117
 32
0.0
 13
0.1361347125
 23
-0.9256317354
 33
0.0
 40
0.0
 40
0.0
 40
0.0
 40
0.0
 40
0.2482613404
 40
0.497642669
 40
1.0
 40
1.0
 40
1.0
 40
1.0
 10
-47.4315426498
 20
-9.3836796502
 30
0.0
 10
-47.4578423505
 20
-9.456498302
 30
0.0
 10
-47.4899422879
 20
-9.6098851906
 30
0.0
 10
-47.5038346846
 20
-9.9221491954
 30
0.0
 10
-47.4732826333
 20
-10.1558507525
 30
0.0
 10
-47.450486543
 20
-10.3108500485
 30
0.0
 11
-47.4315426498
 21
-9.3836796502
 31
0.0
 11
-47.4836017325
 21
-9.6100399729
 31
0.0
 11
-47.4958086444
 21
-9.8430395124
 31
0.0
 11
-47.450486543
 21
-10.3108500485
 31
0.0
  0
SPLINE
  5
6D1
100
AcDbEntity
  8
CURVE
100
AcDbSpline
 62
253
  6
CONTINUOUS
 70
0
 71
3
 72
12
 73
8
 74
6
 42
0.0000001
 43
0.0000001
 44
0.0000000001
 12
1.7992654023
 22
1.3970848646
 32
0.0
 13
1.4738192779
 23
-1.7371551566
 33
0.0
 40
0.0
 40
0.0
 40
0.0
 40
0.0
 40
0.2
 40
0.4
 40
0.6
 40
0.8
 40
1.0
 40
1.0
 40
1.0
 40
1.0
 10
-47.0903650902
 20
1.1831303242
 30
0.0
 10
-46.9704140634
 20
1.2762693152
 30
0.0
 10
-46.7001367978
 20
1.4267069783
 30
0.0
 10
-46.2471440824
 20
1.5193418303
 30
0.0
 10
-45.7868049841
 20
1.4715130489
 30
0.0
 10
-45.3625143958
 20
1.287729321
 30
0.0
 10
-45.1289147828
 20
1.0849393438
 30
0.0
 10
-45.0306601642
 20
0.969129
 30
0.0
 11
-47.0903650902
 21
1.1831303242
 31
0.0
 11
-46.6922073283
 21
1.4045367045
 31
0.0
 11
-46.2459196852
 21
1.4959312247
 31
0.0
 11
-45.7928130691
 21
1.4488538911
 31
0.0
 11
-45.3748295906
 21
1.267662448
 31
0.0
 11
-45.0306601642
 21
0.969129
 31
0.0
  0
SPLINE
  5
6D2
100
AcDbEntity
  8
CURVE
100
AcDbSpline
 62
253
  6
CONTINUOUS
 70
0
 71
3
 72
12
 73
8
 74
6
 42
0.0000001
 43
0.0000001
 44
0.0000000001
 12
-1.4738201198
 22
-1.7371561489
 32
0.0
 13
-1.7992664301
 23
1.3970856626
 33
0.0
 40
0.0
 40
0.0
 40
0.0
 40
0.0
 40
0.2
 40
0.4
 40
0.6
 40
0.8
 40
1.0
 40
1.0
 40
1.0
 40
1.0
 10
-45.0306595122
 20
-0.9691295536
 30
0.0
 10
-45.1289141868
 20
-1.0849399635
 30
0.0
 10
-45.3625139333
 20
-1.2877300566
 30
0.0
 10
-45.7868047639
 20
-1.4715138894
 30
0.0
 10
-46.2471441252
 20
-1.5193426981
 30
0.0
 10
-46.7001370993
 20
-1.4267077932
 30
0.0
 10
-46.9704145193
 20
-1.2762700442
 30
0.0
 10
-47.0903656146
 20
-1.183131
 30
0.0
 11
-45.0306595122
 21
-0.9691295536
 31
0.0
 11
-45.3748291351
 21
-1.2676631721
 31
0.0
 11
-45.7928128523
 21
-1.4488547187
 31
0.0
 11
-46.2459197273
 21
-1.4959320792
 31
0.0
 11
-46.6922076253
 21
-1.4045375068
 31
0.0
 11
-47.0903656146
 21
-1.183131
 31
0.0
  0
SPLINE
  5
6D3
100
AcDbEntity
  8
CURVE
100
AcDbSpline
 62
253
  6
CONTINUOUS
 70
0
 71
3
 72
131
 73
127
 74
125
 42
0.0000001
 43
0.0000001
 44
0.0000000001
 12
6.2133917125
 22
0.6093211866
 32
0.0
 13
-6.3228930213
 23
0.6312044813
 33
0.0
 40
0.0
 40
0.0
 40
0.0
 40
0.0
 40
0.015625
 40
0.03125
 40
0.046875
 40
0.0546875
 40
0.05859375
 40
0.0625
 40
0.06640625
 40
0.0703125
 40
0.078125
 40
0.09375
 40
0.109375
 40
0.1171875
 40
0.12109375
 40
0.125
 40
0.12890625
 40
0.1328125
 40
0.140625
 40
0.15625
 40
0.171875
 40
0.1796875
 40
0.18359375
 40
0.1875
 40
0.19140625
 40
0.1953125
 40
0.203125
 40
0.21875
 40
0.234375
 40
0.2421875
 40
0.24609375
 40
0.25
 40
0.25390625
 40
0.2578125
 40
0.265625
 40
0.28125
 40
0.296875
 40
0.3046875
 40
0.30859375
 40
0.3125
 40
0.31640625
 40
0.3203125
 40
0.328125
 40
0.34375
 40
0.359375
 40
0.3671875
 40
0.37109375
 40
0.375
 40
0.37890625
 40
0.3828125
 40
0.390625
 40
0.40625
 40
0.421875
 40
0.4296875
 40
0.43359375
 40
0.4375
 40
0.44140625
 40
0.4453125
 40
0.453125
 40
0.46875
 40
0.484375
 40
0.4921875
 40
0.49609375
 40
0.5
 40
0.50390625
 40
0.5078125
 40
0.515625
 40
0.53125
 40
0.546875
 40
0.5546875
 40
0.55859375
 40
0.5625
 40
0.56640625
 40
0.5703125
 40
0.578125
 40
0.59375
 40
0.609375
 40
0.6171875
 40
0.62109375
 40
0.625
 40
0.62890625
 40
0.6328125
 40
0.640625
 40
0.65625
 40
0.671875
 40
0.6796875
 40
0.68359375
 40
0.6875
 40
0.69140625
 40
0.6953125
 40
0.703125
 40
0.71875
 40
0.734375
 40
0.7421875
 40
0.74609375
 40
0.75
 40
0.75390625
 40
0.7578125
 40
0.765625
 40
0.78125
 40
0.796875
 40
0.8046875
 40
0.80859375
 40
0.8125
 40
0.81640625
 40
0.8203125
 40
0.828125
 40
0.84375
 40
0.859375
 40
0.8671875
 40
0.87109375
 40
0.875
 40
0.87890625
 40
0.8828125
 40
0.890625
 40
0.90625
 40
0.921875
 40
0.9296875
 40
0.93359375
 40
0.9375
 40
0.94140625
 40
0.9453125
 40
0.953125
 40
0.96875
 40
0.984375
 40
1.0
 40
1.0
 40
1.0
 40
1.0
 10
-46.1722533444
 20
-1.9996264008
 30
0.0
 10
-46.1398919293
 20
-1.996452853
 30
0.0
 10
-46.0751718815
 20
-1.9900917023
 30
0.0
 10
-45.9780751144
 20
-1.980634306
 30
0.0
 10
-45.897209837
 20
-1.9725071809
 30
0.0
 10
-45.8405091871
 20
-1.9672978183
 30
0.0
 10
-45.8082569885
 20
-1.9635726139
 30
0.0
 10
-45.7836504513
 20
-1.9628869522
 30
0.0
 10
-45.7606393808
 20
-1.954142537
 30
0.0
 10
-45.7294011327
 20
-1.9452950493
 30
0.0
 10
-45.6749966839
 20
-1.9284943915
 30
0.0
 10
-45.5971142458
 20
-1.9052427765
 30
0.0
 10
-45.5193790232
 20
-1.8815034896
 30
0.0
 10
-45.4647684726
 20
-1.8653855725
 30
0.0
 10
-45.4338540987
 20
-1.8554652065
 30
0.0
 10
-45.4098493232
 20
-1.8500125767
 30
0.0
 10
-45.3889747006
 20
-1.836964432
 30
0.0
 10
-45.3600496454
 20
-1.822217033
 30
0.0
 10
-45.3099436276
 20
-1.7951670503
 30
0.0
 10
-45.2380637702
 20
-1.7572322493
 30
0.0
 10
-45.1664064239
 20
-1.7188311026
 30
0.0
 10
-45.1159888906
 20
-1.6924340038
 30
0.0
 10
-45.0875533597
 20
-1.6766606445
 30
0.0
 10
-45.0651767874
 20
-1.6667603326
 30
0.0
 10
-45.0468126676
 20
-1.6494858415
 30
0.0
 10
-45.0209269589
 20
-1.629025919
 30
0.0
 10
-44.9762856487
 20
-1.5920169929
 30
0.0
 10
-44.9121173286
 20
-1.5398198819
 30
0.0
 10
-44.8482744589
 20
-1.4872250878
 30
0.0
 10
-44.8031775182
 20
-1.4507729181
 30
0.0
 10
-44.7780078003
 20
-1.4294380926
 30
0.0
 10
-44.7574468906
 20
-1.4148479631
 30
0.0
 10
-44.7433204846
 20
-1.3948663822
 30
0.0
 10
-44.7222401787
 20
-1.3701053252
 30
0.0
 10
-44.6864024092
 20
-1.3258925225
 30
0.0
 10
-44.6346010049
 20
-1.2632284598
 30
0.0
 10
-44.5832126951
 20
-1.2002540662
 30
0.0
 10
-44.5467965932
 20
-1.1564757269
 30
0.0
 10
-44.5266250953
 20
-1.1310319416
 30
0.0
 10
-44.5097103009
 20
-1.1131450953
 30
0.0
 10
-44.499621339
 20
-1.0906880736
 30
0.0
 10
-44.4837877184
 20
-1.062339821
 30
0.0
 10
-44.4571960192
 20
-1.0119843424
 30
0.0
 10
-44.4185636863
 20
-0.9404633815
 30
0.0
 10
-44.3803802384
 20
-0.8687016939
 30
0.0
 10
-44.3531601003
 20
-0.8186832327
 30
0.0
 10
-44.3383140266
 20
-0.7898053813
 30
0.0
 10
-44.3251950913
 20
-0.7689732647
 30
0.0
 10
-44.3196595305
 20
-0.7449839974
 30
0.0
 10
-44.3096328254
 20
-0.7140997933
 30
0.0
 10
-44.2933268335
 20
-0.6595368651
 30
0.0
 10
-44.2693199685
 20
-0.5818784331
 30
0.0
 10
-44.2458001486
 20
-0.5040476081
 30
0.0
 10
-44.2288122936
 20
-0.4497260302
 30
0.0
 10
-44.2198570875
 20
-0.4184625613
 30
0.0
 10
-44.211033973
 20
-0.3956369474
 30
0.0
 10
-44.2102616287
 20
-0.3704346659
 30
0.0
 10
-44.206422815
 20
-0.3376605676
 30
0.0
 10
-44.2010219188
 20
-0.2799203234
 30
0.0
 10
-44.1925513742
 20
-0.1976306263
 30
0.0
 10
-44.1845921195
 20
-0.115289888
 30
0.0
 10
-44.1784754175
 20
-0.0576211015
 30
0.0
 10
-44.1757614414
 20
-0.0247347124
 30
0.0
 10
-44.171537891
 20
0.0001230404
 30
0.0
 10
-44.1756759729
 20
0.0242425508
 30
0.0
 10
-44.1782759903
 20
0.05665956
 30
0.0
 10
-44.1841932716
 20
0.1132677227
 30
0.0
 10
-44.1918675822
 20
0.1942126102
 30
0.0
 10
-44.2000533987
 20
0.2750847884
 30
0.0
 10
-44.2052545719
 20
0.331794744
 30
0.0
 10
-44.2089799019
 20
0.3640517929
 30
0.0
 10
-44.20966532
 20
0.3886620909
 30
0.0
 10
-44.2184084405
 20
0.4116766633
 30
0.0
 10
-44.2272545687
 20
0.442919671
 30
0.0
 10
-44.2440526752
 20
0.4973324064
 30
0.0
 10
-44.2673007445
 20
0.5752267086
 30
0.0
 10
-44.291036417
 20
0.6529737723
 30
0.0
 10
-44.3071518792
 20
0.7075926416
 30
0.0
 10
-44.3170707342
 20
0.7385117246
 30
0.0
 10
-44.3225225336
 20
0.7625201568
 30
0.0
 10
-44.335568691
 20
0.7833979591
 30
0.0
 10
-44.3503138439
 20
0.8123274204
 30
0.0
 10
-44.3773597068
 20
0.8624410708
 30
0.0
 10
-44.4152887301
 20
0.9343318775
 30
0.0
 10
-44.4536840281
 20
1.0060001392
 30
0.0
 10
-44.4800771065
 20
1.0564253525
 30
0.0
 10
-44.4958480635
 20
1.0848652149
 30
0.0
 10
-44.5057468675
 20
1.1072451958
 30
0.0
 10
-44.5230187276
 20
1.125612113
 30
0.0
 10
-44.5434755339
 20
1.1515017648
 30
0.0
 10
-44.5804788235
 20
1.1961498752
 30
0.0
 10
-44.6326679845
 20
1.2603279698
 30
0.0
 10
-44.6852547682
 20
1.3241805646
 30
0.0
 10
-44.7217013861
 20
1.3692843749
 30
0.0
 10
-44.7430329622
 20
1.3944579268
 30
0.0
 10
-44.7576208696
 20
1.4150219685
 30
0.0
 10
-44.7775994071
 20
1.4291505263
 30
0.0
 10
-44.8023566929
 20
1.4502340434
 30
0.0
 10
-44.8465627618
 20
1.486077272
 30
0.0
 10
-44.9092172804
 20
1.5378865672
 30
0.0
 10
-44.9721820828
 20
1.5892827048
 30
0.0
 10
-45.0159537543
 20
1.6257043539
 30
0.0
 10
-45.0413936645
 20
1.6458789244
 30
0.0
 10
-45.0592777865
 20
1.6627962955
 30
0.0
 10
-45.0817313879
 20
1.6728867942
 30
0.0
 10
-45.110075323
 20
1.6887228267
 30
0.0
 10
-45.1604231322
 20
1.7153185765
 30
0.0
 10
-45.2319332001
 20
1.7539567942
 30
0.0
 10
-45.303683958
 20
1.7921460585
 30
0.0
 10
-45.3536948012
 20
1.8193703431
 30
0.0
 10
-45.3825682543
 20
1.8342186783
 30
0.0
 10
-45.4033971981
 20
1.8473396119
 30
0.0
 10
-45.4273828117
 20
1.8528760159
 30
0.0
 10
-45.458262312
 20
1.8629042483
 30
0.0
 10
-45.51281693
 20
1.8792127243
 30
0.0
 10
-45.590463534
 20
1.9032232449
 30
0.0
 10
-45.6682825059
 20
1.9267466519
 30
0.0
 10
-45.7225958088
 20
1.943737087
 30
0.0
 10
-45.7538545185
 20
1.9526936693
 30
0.0
 10
-45.7766766489
 20
1.9615180908
 30
0.0
 10
-45.8018751181
 20
1.9622906919
 30
0.0
 10
-45.834644182
 20
1.9661293972
 30
0.0
 10
-45.892376257
 20
1.9715385132
 30
0.0
 10
-45.9746486066
 20
1.9799504108
 30
0.0
 10
-46.0734624602
 20
1.9897497879
 30
0.0
 10
-46.1393217847
 20
1.9963388775
 30
0.0
 10
-46.1722535192
 20
1.9996264008
 30
0.0
 11
-46.1722533444
 21
-1.9996264008
 31
0.0
 11
-46.0751690989
 21
-1.9901057573
 31
0.0
 11
-45.9780848534
 21
-1.9805851137
 31
0.0
 11
-45.8810006079
 21
-1.9710644702
 31
0.0
 11
-45.8324584852
 21
-1.9663041484
 31
0.0
 11
-45.8081874238
 21
-1.9639239875
 31
0.0
 11
-45.7839163624
 21
-1.9615438267
 31
0.0
 11
-45.7605697782
 21
-1.9544940036
 31
0.0
 11
-45.737223194
 21
-1.9474441805
 31
0.0
 11
-45.6905300256
 21
-1.9333445344
 31
0.0
 11
-45.5971436889
 21
-1.9051452421
 31
0.0
 11
-45.5037573521
 21
-1.8769459499
 31
0.0
 11
-45.4570641837
 21
-1.8628463037
 31
0.0
 11
-45.4337175995
 21
-1.8557964807
 31
0.0
 11
-45.4103710154
 21
-1.8487466576
 31
0.0
 11
-45.3888381725
 21
-1.8372956979
 31
0.0
 11
-45.3673053296
 21
-1.8258447382
 31
0.0
 11
-45.3242396439
 21
-1.8029428189
 31
0.0
 11
-45.2381082724
 21
-1.7571389802
 31
0.0
 11
-45.151976901
 21
-1.7113351414
 31
0.0
 11
-45.1089112152
 21
-1.6884332221
 31
0.0
 11
-45.0873783724
 21
-1.6769822624
 31
0.0
 11
-45.0658455295
 21
-1.6655313027
 31
0.0
 11
-45.0466376407
 21
-1.649807433
 31
0.0
 11
-45.0274297518
 21
-1.6340835634
 31
0.0
 11
-44.9890139741
 21
-1.602635824
 31
0.0
 11
-44.9121824187
 21
-1.5397403453
 31
0.0
 11
-44.8353508633
 21
-1.4768448666
 31
0.0
 11
-44.7969350856
 21
-1.4453971272
 31
0.0
 11
-44.7777271968
 21
-1.4296732575
 31
0.0
 11
-44.7585193079
 21
-1.4139493879
 31
0.0
 11
-44.7430398474
 21
-1.3951015136
 31
0.0
 11
-44.7275603869
 21
-1.3762536393
 31
0.0
 11
-44.6966014658
 21
-1.3385578907
 31
0.0
 11
-44.6346836238
 21
-1.2631663936
 31
0.0
 11
-44.5727657817
 21
-1.1877748965
 31
0.0
 11
-44.5418068607
 21
-1.150079148
 31
0.0
 11
-44.5263274002
 21
-1.1312312737
 31
0.0
 11
-44.5108479396
 21
-1.1123833994
 31
0.0
 11
-44.4993236301
 21
-1.090887379
 31
0.0
 11
-44.4877993206
 21
-1.0693913586
 31
0.0
 11
-44.4647507015
 21
-1.0263993178
 31
0.0
 11
-44.4186534633
 21
-0.9404152362
 31
0.0
 11
-44.3725562252
 21
-0.8544311545
 31
0.0
 11
-44.3495076061
 21
-0.8114391137
 31
0.0
 11
-44.3379832966
 21
-0.7899430933
 31
0.0
 11
-44.326458987
 21
-0.7684470729
 31
0.0
 11
-44.3193287858
 21
-0.7451216831
 31
0.0
 11
-44.3121985847
 21
-0.7217962933
 31
0.0
 11
-44.2979381823
 21
-0.6751455137
 31
0.0
 11
-44.2694173775
 21
-0.5818439545
 31
0.0
 11
-44.2408965728
 21
-0.4885423953
 31
0.0
 11
-44.2266361704
 21
-0.4418916157
 31
0.0
 11
-44.2195059692
 21
-0.4185662259
 31
0.0
 11
-44.212375768
 21
-0.3952408361
 31
0.0
 11
-44.209910501
 21
-0.3705382839
 31
0.0
 11
-44.2074452341
 21
-0.3458357316
 31
0.0
 11
-44.2025147001
 21
-0.2964306271
 31
0.0
 11
-44.1926536322
 21
-0.1976204181
 31
0.0
 11
-44.1827925643
 21
-0.098810209
 31
0.0
 11
-44.1778620303
 21
-0.0494051045
 31
0.0
 11
-44.1753967634
 21
-0.0247025523
 31
0.0
 11
-44.1729314964
 21
-0.0
 31
0.0
 11
-44.1753112948
 21
0.0242747585
 31
0.0
 11
-44.1776910931
 21
0.0485495171
 31
0.0
 11
-44.1824506899
 21
0.0970990342
 31
0.0
 11
-44.1919698834
 21
0.1941980683
 31
0.0
 11
-44.2014890769
 21
0.2912971025
 31
0.0
 11
-44.2062486736
 21
0.3398466196
 31
0.0
 11
-44.208628472
 21
0.3641213781
 31
0.0
 11
-44.2110082704
 21
0.3883961366
 31
0.0
 11
-44.2180570197
 21
0.4117462772
 31
0.0
 11
-44.2251057691
 21
0.4350964177
 31
0.0
 11
-44.2392032678
 21
0.4817966988
 31
0.0
 11
-44.2673982652
 21
0.5751972609
 31
0.0
 11
-44.2955932625
 21
0.668597823
 31
0.0
 11
-44.3096907612
 21
0.7152981041
 31
0.0
 11
-44.3167395106
 21
0.7386482446
 31
0.0
 11
-44.3237882599
 21
0.7619983851
 31
0.0
 11
-44.3352374756
 21
0.783534508
 31
0.0
 11
-44.3466866912
 21
0.805070631
 31
0.0
 11
-44.3695851225
 21
0.8481428768
 31
0.0
 11
-44.4153819851
 21
0.9342873685
 31
0.0
 11
-44.4611788476
 21
1.0204318602
 31
0.0
 11
-44.4840772789
 21
1.063504106
 31
0.0
 11
-44.4955264945
 21
1.0850402289
 31
0.0
 11
-44.5069757102
 21
1.1065763519
 31
0.0
 11
-44.522697185
 21
1.1257871666
 31
0.0
 11
-44.5384186599
 21
1.1449979814
 31
0.0
 11
-44.5698616096
 21
1.1834196109
 31
0.0
 11
-44.6327475091
 21
1.2602628699
 31
0.0
 11
-44.6956334085
 21
1.3371061289
 31
0.0
 11
-44.7270763582
 21
1.3755277584
 31
0.0
 11
-44.7427978331
 21
1.3947385731
 31
0.0
 11
-44.7585193079
 21
1.4139493879
 31
0.0
 11
-44.7773643116
 21
1.4294312063
 31
0.0
 11
-44.7962093152
 21
1.4449130248
 31
0.0
 11
-44.8338993225
 21
1.4758766618
 31
0.0
 11
-44.9092793372
 21
1.5378039356
 31
0.0
 11
-44.9846593518
 21
1.5997312095
 31
0.0
 11
-45.0223493591
 21
1.6306948465
 31
0.0
 11
-45.0411943627
 21
1.646176665
 31
0.0
 11
-45.0600393664
 21
1.6616584834
 31
0.0
 11
-45.0815321129
 21
1.6731845484
 31
0.0
 11
-45.1030248593
 21
1.6847106135
 31
0.0
 11
-45.1460103522
 21
1.7077627435
 31
0.0
 11
-45.2319813381
 21
1.7538670035
 31
0.0
 11
-45.3179523239
 21
1.7999712636
 31
0.0
 11
-45.3609378168
 21
1.8230233936
 31
0.0
 11
-45.3824305633
 21
1.8345494586
 31
0.0
 11
-45.4039233097
 21
1.8460755236
 31
0.0
 11
-45.427245147
 21
1.853206811
 31
0.0
 11
-45.4505669842
 21
1.8603380983
 31
0.0
 11
-45.4972106587
 21
1.8746006729
 31
0.0
 11
-45.5904980076
 21
1.9031258222
 31
0.0
 11
-45.6837853565
 21
1.9316509715
 31
0.0
 11
-45.7304290309
 21
1.9459135461
 31
0.0
 11
-45.7537508682
 21
1.9530448334
 31
0.0
 11
-45.7770727054
 21
1.9601761207
 31
0.0
 11
-45.8017715063
 21
1.9626417632
 31
0.0
 11
-45.8264703071
 21
1.9651074057
 31
0.0
 11
-45.8758679088
 21
1.9700386908
 31
0.0
 11
-45.9746631123
 21
1.9799012608
 31
0.0
 11
-46.0734583158
 21
1.9897638308
 31
0.0
 11
-46.1722535192
 21
1.9996264008
 31
0.0
  0
SPLINE
  5
6D4
100
AcDbEntity
  8
CURVE
100
AcDbSpline
 62
253
  6
CONTINUOUS
 70
0
 71
3
 72
131
 73
127
 74
125
 42
0.0000001
 43
0.0000001
 44
0.0000000001
 12
-6.2133917125
 22
-0.6093211866
 32
0.0
 13
6.3228930213
 23
-0.6312044813
 33
0.0
 40
0.0
 40
0.0
 40
0.0
 40
0.0
 40
0.015625
 40
0.03125
 40
0.046875
 40
0.0546875
 40
0.05859375
 40
0.0625
 40
0.06640625
 40
0.0703125
 40
0.078125
 40
0.09375
 40
0.109375
 40
0.1171875
 40
0.12109375
 40
0.125
 40
0.12890625
 40
0.1328125
 40
0.140625
 40
0.15625
 40
0.171875
 40
0.1796875
 40
0.18359375
 40
0.1875
 40
0.19140625
 40
0.1953125
 40
0.203125
 40
0.21875
 40
0.234375
 40
0.2421875
 40
0.24609375
 40
0.25
 40
0.25390625
 40
0.2578125
 40
0.265625
 40
0.28125
 40
0.296875
 40
0.3046875
 40
0.30859375
 40
0.3125
 40
0.31640625
 40
0.3203125
 40
0.328125
 40
0.34375
 40
0.359375
 40
0.3671875
 40
0.37109375
 40
0.375
 40
0.37890625
 40
0.3828125
 40
0.390625
 40
0.40625
 40
0.421875
 40
0.4296875
 40
0.43359375
 40
0.4375
 40
0.44140625
 40
0.4453125
 40
0.453125
 40
0.46875
 40
0.484375
 40
0.4921875
 40
0.49609375
 40
0.5
 40
0.50390625
 40
0.5078125
 40
0.515625
 40
0.53125
 40
0.546875
 40
0.5546875
 40
0.55859375
 40
0.5625
 40
0.56640625
 40
0.5703125
 40
0.578125
 40
0.59375
 40
0.609375
 40
0.6171875
 40
0.62109375
 40
0.625
 40
0.62890625
 40
0.6328125
 40
0.640625
 40
0.65625
 40
0.671875
 40
0.6796875
 40
0.68359375
 40
0.6875
 40
0.69140625
 40
0.6953125
 40
0.703125
 40
0.71875
 40
0.734375
 40
0.7421875
 40
0.74609375
 40
0.75
 40
0.75390625
 40
0.7578125
 40
0.765625
 40
0.78125
 40
0.796875
 40
0.8046875
 40
0.80859375
 40
0.8125
 40
0.81640625
 40
0.8203125
 40
0.828125
 40
0.84375
 40
0.859375
 40
0.8671875
 40
0.87109375
 40
0.875
 40
0.87890625
 40
0.8828125
 40
0.890625
 40
0.90625
 40
0.921875
 40
0.9296875
 40
0.93359375
 40
0.9375
 40
0.94140625
 40
0.9453125
 40
0.953125
 40
0.96875
 40
0.984375
 40
1.0
 40
1.0
 40
1.0
 40
1.0
 10
-46.1722533444
 20
1.9996264008
 30
0.0
 10
-46.2046147596
 20
1.996452853
 30
0.0
 10
-46.2693348074
 20
1.9900917023
 30
0.0
 10
-46.3664315745
 20
1.980634306
 30
0.0
 10
-46.4472968518
 20
1.9725071809
 30
0.0
 10
-46.5039975018
 20
1.9672978183
 30
0.0
 10
-46.5362497004
 20
1.9635726139
 30
0.0
 10
-46.5608562376
 20
1.9628869522
 30
0.0
 10
-46.583867308
 20
1.954142537
 30
0.0
 10
-46.6151055562
 20
1.9452950493
 30
0.0
 10
-46.669510005
 20
1.9284943915
 30
0.0
 10
-46.7473924431
 20
1.9052427765
 30
0.0
 10
-46.8251276656
 20
1.8815034896
 30
0.0
 10
-46.8797382162
 20
1.8653855725
 30
0.0
 10
-46.9106525901
 20
1.8554652065
 30
0.0
 10
-46.9346573657
 20
1.8500125767
 30
0.0
 10
-46.9555319882
 20
1.836964432
 30
0.0
 10
-46.9844570435
 20
1.822217033
 30
0.0
 10
-47.0345630612
 20
1.7951670503
 30
0.0
 10
-47.1064429186
 20
1.7572322493
 30
0.0
 10
-47.178100265
 20
1.7188311026
 30
0.0
 10
-47.2285177982
 20
1.6924340038
 30
0.0
 10
-47.2569533291
 20
1.6766606445
 30
0.0
 10
-47.2793299014
 20
1.6667603326
 30
0.0
 10
-47.2976940213
 20
1.6494858415
 30
0.0
 10
-47.3235797299
 20
1.629025919
 30
0.0
 10
-47.3682210402
 20
1.5920169929
 30
0.0
 10
-47.4323893602
 20
1.5398198819
 30
0.0
 10
-47.4962322299
 20
1.4872250878
 30
0.0
 10
-47.5413291706
 20
1.4507729181
 30
0.0
 10
-47.5664988886
 20
1.4294380926
 30
0.0
 10
-47.5870597982
 20
1.4148479631
 30
0.0
 10
-47.6011862042
 20
1.3948663822
 30
0.0
 10
-47.6222665102
 20
1.3701053252
 30
0.0
 10
-47.6581042797
 20
1.3258925225
 30
0.0
 10
-47.709905684
 20
1.2632284598
 30
0.0
 10
-47.7612939937
 20
1.2002540662
 30
0.0
 10
-47.7977100957
 20
1.1564757269
 30
0.0
 10
-47.8178815935
 20
1.1310319416
 30
0.0
 10
-47.834796388
 20
1.1131450953
 30
0.0
 10
-47.8448853498
 20
1.0906880736
 30
0.0
 10
-47.8607189705
 20
1.062339821
 30
0.0
 10
-47.8873106696
 20
1.0119843424
 30
0.0
 10
-47.9259430025
 20
0.9404633815
 30
0.0
 10
-47.9641264505
 20
0.8687016939
 30
0.0
 10
-47.9913465886
 20
0.8186832327
 30
0.0
 10
-48.0061926623
 20
0.7898053813
 30
0.0
 10
-48.0193115976
 20
0.7689732647
 30
0.0
 10
-48.0248471583
 20
0.7449839974
 30
0.0
 10
-48.0348738634
 20
0.7140997933
 30
0.0
 10
-48.0511798554
 20
0.6595368651
 30
0.0
 10
-48.0751867203
 20
0.5818784331
 30
0.0
 10
-48.0987065403
 20
0.5040476081
 30
0.0
 10
-48.1156943953
 20
0.4497260302
 30
0.0
 10
-48.1246496013
 20
0.4184625613
 30
0.0
 10
-48.1334727159
 20
0.3956369474
 30
0.0
 10
-48.1342450602
 20
0.3704346659
 30
0.0
 10
-48.1380838738
 20
0.3376605676
 30
0.0
 10
-48.1434847701
 20
0.2799203234
 30
0.0
 10
-48.1519553146
 20
0.1976306263
 30
0.0
 10
-48.1599145694
 20
0.115289888
 30
0.0
 10
-48.1660312713
 20
0.0576211015
 30
0.0
 10
-48.1687452474
 20
0.0247347124
 30
0.0
 10
-48.1729687979
 20
-0.0001230404
 30
0.0
 10
-48.168830716
 20
-0.0242425508
 30
0.0
 10
-48.1662306985
 20
-0.05665956
 30
0.0
 10
-48.1603134173
 20
-0.1132677227
 30
0.0
 10
-48.1526391066
 20
-0.1942126102
 30
0.0
 10
-48.1444532902
 20
-0.2750847884
 30
0.0
 10
-48.139252117
 20
-0.331794744
 30
0.0
 10
-48.1355267869
 20
-0.3640517929
 30
0.0
 10
-48.1348413689
 20
-0.3886620909
 30
0.0
 10
-48.1260982484
 20
-0.4116766633
 30
0.0
 10
-48.1172521202
 20
-0.442919671
 30
0.0
 10
-48.1004540137
 20
-0.4973324064
 30
0.0
 10
-48.0772059443
 20
-0.5752267086
 30
0.0
 10
-48.0534702718
 20
-0.6529737723
 30
0.0
 10
-48.0373548097
 20
-0.7075926416
 30
0.0
 10
-48.0274359546
 20
-0.7385117246
 30
0.0
 10
-48.0219841553
 20
-0.7625201568
 30
0.0
 10
-48.0089379978
 20
-0.7833979591
 30
0.0
 10
-47.9941928449
 20
-0.8123274204
 30
0.0
 10
-47.9671469821
 20
-0.8624410708
 30
0.0
 10
-47.9292179587
 20
-0.9343318775
 30
0.0
 10
-47.8908226608
 20
-1.0060001392
 30
0.0
 10
-47.8644295824
 20
-1.0564253525
 30
0.0
 10
-47.8486586254
 20
-1.0848652149
 30
0.0
 10
-47.8387598214
 20
-1.1072451958
 30
0.0
 10
-47.8214879613
 20
-1.125612113
 30
0.0
 10
-47.8010311549
 20
-1.1515017648
 30
0.0
 10
-47.7640278654
 20
-1.1961498752
 30
0.0
 10
-47.7118387043
 20
-1.2603279698
 30
0.0
 10
-47.6592519206
 20
-1.3241805646
 30
0.0
 10
-47.6228053028
 20
-1.3692843749
 30
0.0
 10
-47.6014737267
 20
-1.3944579268
 30
0.0
 10
-47.5868858193
 20
-1.4150219685
 30
0.0
 10
-47.5669072818
 20
-1.4291505263
 30
0.0
 10
-47.5421499959
 20
-1.4502340434
 30
0.0
 10
-47.497943927
 20
-1.486077272
 30
0.0
 10
-47.4352894085
 20
-1.5378865672
 30
0.0
 10
-47.3723246061
 20
-1.5892827048
 30
0.0
 10
-47.3285529345
 20
-1.6257043539
 30
0.0
 10
-47.3031130243
 20
-1.6458789244
 30
0.0
 10
-47.2852289024
 20
-1.6627962955
 30
0.0
 10
-47.262775301
 20
-1.6728867942
 30
0.0
 10
-47.2344313659
 20
-1.6887228267
 30
0.0
 10
-47.1840835567
 20
-1.7153185765
 30
0.0
 10
-47.1125734888
 20
-1.7539567942
 30
0.0
 10
-47.0408227309
 20
-1.7921460585
 30
0.0
 10
-46.9908118877
 20
-1.8193703431
 30
0.0
 10
-46.9619384346
 20
-1.8342186783
 30
0.0
 10
-46.9411094907
 20
-1.8473396119
 30
0.0
 10
-46.9171238772
 20
-1.8528760159
 30
0.0
 10
-46.8862443768
 20
-1.8629042483
 30
0.0
 10
-46.8316897589
 20
-1.8792127243
 30
0.0
 10
-46.7540431549
 20
-1.9032232449
 30
0.0
 10
-46.676224183
 20
-1.9267466519
 30
0.0
 10
-46.6219108801
 20
-1.943737087
 30
0.0
 10
-46.5906521704
 20
-1.9526936693
 30
0.0
 10
-46.5678300399
 20
-1.9615180908
 30
0.0
 10
-46.5426315707
 20
-1.9622906919
 30
0.0
 10
-46.5098625069
 20
-1.9661293972
 30
0.0
 10
-46.4521304319
 20
-1.9715385132
 30
0.0
 10
-46.3698580822
 20
-1.9799504108
 30
0.0
 10
-46.2710442286
 20
-1.9897497879
 30
0.0
 10
-46.2051849041
 20
-1.9963388775
 30
0.0
 10
-46.1722531696
 20
-1.9996264008
 30
0.0
 11
-46.1722533444
 21
1.9996264008
 31
0.0
 11
-46.2693375899
 21
1.9901057573
 31
0.0
 11
-46.3664218354
 21
1.9805851137
 31
0.0
 11
-46.463506081
 21
1.9710644702
 31
0.0
 11
-46.5120482037
 21
1.9663041484
 31
0.0
 11
-46.5363192651
 21
1.9639239875
 31
0.0
 11
-46.5605903265
 21
1.9615438267
 31
0.0
 11
-46.5839369107
 21
1.9544940036
 31
0.0
 11
-46.6072834948
 21
1.9474441805
 31
0.0
 11
-46.6539766632
 21
1.9333445344
 31
0.0
 11
-46.747363
 21
1.9051452421
 31
0.0
 11
-46.8407493367
 21
1.8769459499
 31
0.0
 11
-46.8874425051
 21
1.8628463037
 31
0.0
 11
-46.9107890893
 21
1.8557964807
 31
0.0
 11
-46.9341356735
 21
1.8487466576
 31
0.0
 11
-46.9556685164
 21
1.8372956979
 31
0.0
 11
-46.9772013592
 21
1.8258447382
 31
0.0
 11
-47.020267045
 21
1.8029428189
 31
0.0
 11
-47.1063984164
 21
1.7571389802
 31
0.0
 11
-47.1925297879
 21
1.7113351414
 31
0.0
 11
-47.2355954736
 21
1.6884332221
 31
0.0
 11
-47.2571283165
 21
1.6769822624
 31
0.0
 11
-47.2786611594
 21
1.6655313027
 31
0.0
 11
-47.2978690482
 21
1.649807433
 31
0.0
 11
-47.3170769371
 21
1.6340835634
 31
0.0
 11
-47.3554927148
 21
1.602635824
 31
0.0
 11
-47.4323242702
 21
1.5397403453
 31
0.0
 11
-47.5091558256
 21
1.4768448666
 31
0.0
 11
-47.5475716033
 21
1.4453971272
 31
0.0
 11
-47.5667794921
 21
1.4296732575
 31
0.0
 11
-47.585987381
 21
1.4139493879
 31
0.0
 11
-47.6014668415
 21
1.3951015136
 31
0.0
 11
-47.616946302
 21
1.3762536393
 31
0.0
 11
-47.647905223
 21
1.3385578907
 31
0.0
 11
-47.7098230651
 21
1.2631663936
 31
0.0
 11
-47.7717409072
 21
1.1877748965
 31
0.0
 11
-47.8026998282
 21
1.150079148
 31
0.0
 11
-47.8181792887
 21
1.1312312737
 31
0.0
 11
-47.8336587492
 21
1.1123833994
 31
0.0
 11
-47.8451830588
 21
1.090887379
 31
0.0
 11
-47.8567073683
 21
1.0693913586
 31
0.0
 11
-47.8797559874
 21
1.0263993178
 31
0.0
 11
-47.9258532255
 21
0.9404152362
 31
0.0
 11
-47.9719504637
 21
0.8544311545
 31
0.0
 11
-47.9949990828
 21
0.8114391137
 31
0.0
 11
-48.0065233923
 21
0.7899430933
 31
0.0
 11
-48.0180477018
 21
0.7684470729
 31
0.0
 11
-48.025177903
 21
0.7451216831
 31
0.0
 11
-48.0323081042
 21
0.7217962933
 31
0.0
 11
-48.0465685066
 21
0.6751455137
 31
0.0
 11
-48.0750893113
 21
0.5818439545
 31
0.0
 11
-48.1036101161
 21
0.4885423953
 31
0.0
 11
-48.1178705185
 21
0.4418916157
 31
0.0
 11
-48.1250007197
 21
0.4185662259
 31
0.0
 11
-48.1321309209
 21
0.3952408361
 31
0.0
 11
-48.1345961878
 21
0.3705382839
 31
0.0
 11
-48.1370614548
 21
0.3458357316
 31
0.0
 11
-48.1419919888
 21
0.2964306271
 31
0.0
 11
-48.1518530567
 21
0.1976204181
 31
0.0
 11
-48.1617141246
 21
0.098810209
 31
0.0
 11
-48.1666446585
 21
0.0494051045
 31
0.0
 11
-48.1691099255
 21
0.0247025523
 31
0.0
 11
-48.1715751925
 21
-0.0
 31
0.0
 11
-48.1691953941
 21
-0.0242747585
 31
0.0
 11
-48.1668155957
 21
-0.0485495171
 31
0.0
 11
-48.162055999
 21
-0.0970990342
 31
0.0
 11
-48.1525368055
 21
-0.1941980683
 31
0.0
 11
-48.143017612
 21
-0.2912971025
 31
0.0
 11
-48.1382580152
 21
-0.3398466196
 31
0.0
 11
-48.1358782168
 21
-0.3641213781
 31
0.0
 11
-48.1334984185
 21
-0.3883961366
 31
0.0
 11
-48.1264496691
 21
-0.4117462772
 31
0.0
 11
-48.1194009198
 21
-0.4350964177
 31
0.0
 11
-48.1053034211
 21
-0.4817966988
 31
0.0
 11
-48.0771084237
 21
-0.5751972609
 31
0.0
 11
-48.0489134263
 21
-0.668597823
 31
0.0
 11
-48.0348159276
 21
-0.7152981041
 31
0.0
 11
-48.0277671783
 21
-0.7386482446
 31
0.0
 11
-48.0207184289
 21
-0.7619983851
 31
0.0
 11
-48.0092692133
 21
-0.783534508
 31
0.0
 11
-47.9978199977
 21
-0.805070631
 31
0.0
 11
-47.9749215664
 21
-0.8481428768
 31
0.0
 11
-47.9291247038
 21
-0.9342873685
 31
0.0
 11
-47.8833278412
 21
-1.0204318602
 31
0.0
 11
-47.86042941
 21
-1.063504106
 31
0.0
 11
-47.8489801943
 21
-1.0850402289
 31
0.0
 11
-47.8375309787
 21
-1.1065763519
 31
0.0
 11
-47.8218095038
 21
-1.1257871666
 31
0.0
 11
-47.806088029
 21
-1.1449979814
 31
0.0
 11
-47.7746450792
 21
-1.1834196109
 31
0.0
 11
-47.7117591798
 21
-1.2602628699
 31
0.0
 11
-47.6488732804
 21
-1.3371061289
 31
0.0
 11
-47.6174303307
 21
-1.3755277584
 31
0.0
 11
-47.6017088558
 21
-1.3947385731
 31
0.0
 11
-47.585987381
 21
-1.4139493879
 31
0.0
 11
-47.5671423773
 21
-1.4294312063
 31
0.0
 11
-47.5482973736
 21
-1.4449130248
 31
0.0
 11
-47.5106073663
 21
-1.4758766618
 31
0.0
 11
-47.4352273517
 21
-1.5378039356
 31
0.0
 11
-47.3598473371
 21
-1.5997312095
 31
0.0
 11
-47.3221573298
 21
-1.6306948465
 31
0.0
 11
-47.3033123261
 21
-1.646176665
 31
0.0
 11
-47.2844673225
 21
-1.6616584834
 31
0.0
 11
-47.262974576
 21
-1.6731845484
 31
0.0
 11
-47.2414818296
 21
-1.6847106135
 31
0.0
 11
-47.1984963366
 21
-1.7077627435
 31
0.0
 11
-47.1125253508
 21
-1.7538670035
 31
0.0
 11
-47.026554365
 21
-1.7999712636
 31
0.0
 11
-46.983568872
 21
-1.8230233936
 31
0.0
 11
-46.9620761256
 21
-1.8345494586
 31
0.0
 11
-46.9405833791
 21
-1.8460755236
 31
0.0
 11
-46.9172615419
 21
-1.853206811
 31
0.0
 11
-46.8939397047
 21
-1.8603380983
 31
0.0
 11
-46.8472960302
 21
-1.8746006729
 31
0.0
 11
-46.7540086813
 21
-1.9031258222
 31
0.0
 11
-46.6607213324
 21
-1.9316509715
 31
0.0
 11
-46.6140776579
 21
-1.9459135461
 31
0.0
 11
-46.5907558207
 21
-1.9530448334
 31
0.0
 11
-46.5674339835
 21
-1.9601761207
 31
0.0
 11
-46.5427351826
 21
-1.9626417632
 31
0.0
 11
-46.5180363817
 21
-1.9651074057
 31
0.0
 11
-46.46863878
 21
-1.9700386908
 31
0.0
 11
-46.3698435766
 21
-1.9799012608
 31
0.0
 11
-46.2710483731
 21
-1.9897638308
 31
0.0
 11
-46.1722531696
 21
-1.9996264008
 31
0.0
  0
SPLINE
  5
6D5
100
AcDbEntity
  8
DRAFT
100
AcDbSpline
 62
7
  6
CONTINUOUS
 70
0
 71
3
 72
8
 73
4
 74
2
 42
0.0000001
 43
0.0000001
 44
0.0000000001
 12
3.5586818197
 22
0.016661402
 32
0.0
 13
3.5586889303
 23
0.0150663172
 33
0.0
 40
0.0
 40
0.0
 40
0.0
 40
0.0
 40
1.0
 40
1.0
 40
1.0
 40
1.0
 10
-40.1722533444
 20
-22.663166622
 30
0.0
 10
-38.9860260712
 20
-22.6576128213
 30
0.0
 10
-37.7997975864
 20
-22.6523107702
 30
0.0
 10
-36.6135679429
 20
-22.6472886645
 30
0.0
 11
-40.1722533444
 21
-22.663166622
 31
0.0
 11
-36.6135679429
 21
-22.6472886645
 31
0.0
  0
LINE
  5
6D6
100
AcDbEntity
  8
DRAFT
100
AcDbLine
 62
7
  6
CONTINUOUS
 10
-36.6135679429
 20
-22.6472886645
 11
-36.1722533444
 21
-22.6454332982
  0
LINE
  5
6D7
100
AcDbEntity
  8
DRAFT
100
AcDbLine
 62
7
  6
CONTINUOUS
 10
-40.1722533444
 20
22.663166622
 11
-39.7251334132
 21
22.6610852533
  0
SPLINE
  5
6D8
100
AcDbEntity
  8
DRAFT
100
AcDbSpline
 62
7
  6
CONTINUOUS
 70
0
 71
3
 72
8
 73
4
 74
2
 42
0.0000001
 43
0.0000001
 44
0.0000000001
 12
3.5528764955
 22
-0.0164430607
 32
0.0
 13
3.5528835876
 23
-0.0148316925
 33
0.0
 40
0.0
 40
0.0
 40
0.0
 40
0.0
 40
1.0
 40
1.0
 40
1.0
 40
1.0
 10
-39.7251334132
 20
22.6610852533
 30
0.0
 10
-38.540841248
 20
22.655604233
 30
0.0
 10
-37.3565478736
 20
22.6503771957
 30
0.0
 10
-36.1722533444
 20
22.6454332982
 30
0.0
 11
-39.7251334132
 21
22.6610852533
 31
0.0
 11
-36.1722533444
 21
22.6454332982
 31
0.0
  0
LINE
  5
6D9
100
AcDbEntity
  8
RACCORDO
100
AcDbLine
 62
253
  6
CONTINUOUS
 10
-38.6722533444
 20
-16.4758271193
 11
-40.1722533444
 21
-16.463281859
  0
LINE
  5
6DA
100
AcDbEntity
  8
RACCORDO
100
AcDbLine
 62
253
  6
CONTINUOUS
 10
-40.1722533444
 20
16.463281859
 11
-38.6722533444
 21
16.4758271193
  0
SPLINE
  5
6DB
100
AcDbEntity
  8
0
100
AcDbSpline
 62
253
  6
CONTINUOUS
 70
0
 71
3
 72
20
 73
16
 74
14
 42
0.0000001
 43
0.0000001
 44
0.0000000001
 12
-0.0261536363
 22
-0.4991931579
 32
0.0
 13
0.4991927415
 23
-0.026161583
 33
0.0
 40
0.0
 40
0.0
 40
0.0
 40
0.0
 40
0.1948442708
 40
0.3825435215
 40
0.5552897501
 40
0.7066821327
 40
0.7725659383
 40
0.831001102
 40
0.8814148307
 40
0.9233727512
 40
0.9564517333
 40
0.9803113696
 40
0.9948011526
 40
0.9985194661
 40
1.0
 40
1.0
 40
1.0
 40
1.0
 10
-48.2660665895
 20
-21.4755923698
 30
0.0
 10
-48.2677652182
 20
-21.5080140121
 30
0.0
 10
-48.2709921935
 20
-21.5716741224
 30
0.0
 10
-48.2753562096
 20
-21.6640968994
 30
0.0
 10
-48.2790432687
 20
-21.7493032802
 30
0.0
 10
-48.2815439788
 20
-21.8142422707
 30
0.0
 10
-48.2830756382
 20
-21.8601594498
 30
0.0
 10
-48.2839244385
 20
-21.8892574025
 30
0.0
 10
-48.2845230748
 20
-21.9143931242
 30
0.0
 10
-48.2848626544
 20
-21.9352532888
 30
0.0
 10
-48.2849640528
 20
-21.9518383346
 30
0.0
 10
-48.2847914066
 20
-21.9634969323
 30
0.0
 10
-48.2844972873
 20
-21.9709219778
 30
0.0
 10
-48.2840362986
 20
-21.9737623051
 30
0.0
 10
-48.2837547216
 20
-21.9748942262
 30
0.0
 10
-48.2835083644
 20
-21.9749071372
 30
0.0
 11
-48.2660665895
 21
-21.4755923698
 31
0.0
 11
-48.2709952443
 21
-21.5728659141
 31
0.0
 11
-48.2754096625
 21
-21.6665887001
 31
0.0
 11
-48.2791241914
 21
-21.7528607767
 31
0.0
 11
-48.2820018956
 21
-21.8284837356
 31
0.0
 11
-48.2830926607
 21
-21.8613995198
 31
0.0
 11
-48.2839355423
 21
-21.8905977979
 31
0.0
 11
-48.2845218988
 21
-21.9157916796
 31
0.0
 11
-48.2848472364
 21
-21.9367629895
 31
0.0
 11
-48.2849073519
 21
-21.9532983292
 31
0.0
 11
-48.2847008523
 21
-21.9652234441
 31
0.0
 11
-48.2842326147
 21
-21.9724514144
 31
0.0
 11
-48.2839021333
 21
-21.9742805006
 31
0.0
 11
-48.2835083644
 21
-21.9749071372
 31
0.0
  0
SPLINE
  5
6DC
100
AcDbEntity
  8
0
100
AcDbSpline
 62
253
  6
CONTINUOUS
 70
0
 71
3
 72
20
 73
16
 74
14
 42
0.0000001
 43
0.0000001
 44
0.0000000001
 12
-0.0261534917
 22
0.499193157
 32
0.0
 13
0.4991927331
 23
0.0261615826
 33
0.0
 40
0.0
 40
0.0
 40
0.0
 40
0.0
 40
0.1948442525
 40
0.3825434615
 40
0.5552896846
 40
0.7066820837
 40
0.7725659006
 40
0.83100107
 40
0.8814148101
 40
0.923372744
 40
0.9564517331
 40
0.9803113744
 40
0.994801161
 40
0.9985194736
 40
1.0
 40
1.0
 40
1.0
 40
1.0
 10
-48.2660665895
 20
21.4755923698
 30
0.0
 10
-48.2677652086
 20
21.508014009
 30
0.0
 10
-48.2709921674
 20
21.571674109
 30
0.0
 10
-48.275356165
 20
21.6640968744
 30
0.0
 10
-48.2790432129
 20
21.7493032492
 30
0.0
 10
-48.2815439197
 20
21.8142422423
 30
0.0
 10
-48.2830755813
 20
21.8601594262
 30
0.0
 10
-48.2839243847
 20
21.8892573829
 30
0.0
 10
-48.2845230264
 20
21.9143931094
 30
0.0
 10
-48.2848626124
 20
21.9352532781
 30
0.0
 10
-48.2849640206
 20
21.9518383297
 30
0.0
 10
-48.2847913801
 20
21.9634969255
 30
0.0
 10
-48.2844972769
 20
21.9709219802
 30
0.0
 10
-48.2840362911
 20
21.9737623002
 30
0.0
 10
-48.2837547249
 20
21.974894226
 30
0.0
 10
-48.2835083689
 20
21.974907137
 30
0.0
 11
-48.2660665895
 21
21.4755923698
 31
0.0
 11
-48.270995219
 21
21.5728659045
 31
0.0
 11
-48.2754096182
 21
21.666588669
 31
0.0
 11
-48.2791241361
 21
21.7528607418
 31
0.0
 11
-48.2820018375
 21
21.8284837078
 31
0.0
 11
-48.2830926043
 21
21.8613994971
 31
0.0
 11
-48.2839354893
 21
21.8905977774
 31
0.0
 11
-48.2845218512
 21
21.9157916642
 31
0.0
 11
-48.284847196
 21
21.9367629803
 31
0.0
 11
-48.2849073203
 21
21.9532983233
 31
0.0
 11
-48.284700831
 21
21.9652234406
 31
0.0
 11
-48.2842326055
 21
21.9724514134
 31
0.0
 11
-48.2839021308
 21
21.9742805004
 31
0.0
 11
-48.2835083689
 21
21.974907137
 31
0.0
  0
SPLINE
  5
6DD
100
AcDbEntity
  8
DRAFT
100
AcDbSpline
 62
7
  6
CONTINUOUS
 70
0
 71
3
 72
8
 73
4
 74
2
 42
0.0000001
 43
0.0000001
 44
0.0000000001
 12
4.0000092234
 22
0.0379979396
 32
0.0
 13
3.9999901392
 23
0.0399564424
 33
0.0
 40
0.0
 40
0.0
 40
0.0
 40
0.0
 40
1.0
 40
1.0
 40
1.0
 40
1.0
 10
-40.1722533444
 20
-23.1799085618
 30
0.0
 10
-38.8389169366
 20
-23.1672425819
 30
0.0
 10
-37.5055833908
 20
-23.1542705965
 30
0.0
 10
-36.1722533444
 20
-23.1409517823
 30
0.0
 11
-40.1722533444
 21
-23.1799085618
 31
0.0
 11
-36.1722533444
 21
-23.1409517823
 31
0.0
  0
LINE
  5
6DE
100
AcDbEntity
  8
RACCORDO
100
AcDbLine
 62
253
  6
CONTINUOUS
 10
-40.1722533444
 20
-18.2307790647
 11
-38.6722533444
 21
-18.1797639505
  0
LINE
  5
6DF
100
AcDbEntity
  8
RACCORDO
100
AcDbLine
 62
253
  6
CONTINUOUS
 10
-38.6722533444
 20
-17.0863903821
 11
-40.1722533444
 21
-17.0730847656
  0
SPLINE
  5
6E0
100
AcDbEntity
  8
DRAFT
100
AcDbSpline
 62
7
  6
CONTINUOUS
 70
0
 71
3
 72
8
 73
4
 74
2
 42
0.0000001
 43
0.0000001
 44
0.0000000001
 12
4.0000092234
 22
-0.0379979396
 32
0.0
 13
3.9999901392
 23
-0.0399564424
 33
0.0
 40
0.0
 40
0.0
 40
0.0
 40
0.0
 40
1.0
 40
1.0
 40
1.0
 40
1.0
 10
-40.1722533444
 20
23.1799085618
 30
0.0
 10
-38.8389169366
 20
23.1672425819
 30
0.0
 10
-37.5055833908
 20
23.1542705965
 30
0.0
 10
-36.1722533444
 20
23.1409517823
 30
0.0
 11
-40.1722533444
 21
23.1799085618
 31
0.0
 11
-36.1722533444
 21
23.1409517823
 31
0.0
  0
LINE
  5
6E1
100
AcDbEntity
  8
RACCORDO
100
AcDbLine
 62
253
  6
CONTINUOUS
 10
-38.6722533444
 20
18.1797639505
 11
-40.1722533444
 21
18.2307790647
  0
LINE
  5
6E2
100
AcDbEntity
  8
RACCORDO
100
AcDbLine
 62
253
  6
CONTINUOUS
 10
-40.1722533444
 20
17.0730847656
 11
-38.6722533444
 21
17.0863903821
  0
SPLINE
  5
6E3
100
AcDbEntity
  8
0
100
AcDbSpline
 62
7
  6
CONTINUOUS
 70
0
 71
3
 72
13
 73
9
 74
7
 42
0.0000001
 43
0.0000001
 44
0.0000000001
 12
2.7384040249
 22
0.4979953593
 32
0.0
 13
2.7832839443
 23
0.0136552791
 33
0.0
 40
0.0
 40
0.0
 40
0.0
 40
0.0
 40
0.0602900843
 40
0.1437132924
 40
0.2485774695
 40
0.3725820837
 40
0.666657297
 40
1.0
 40
1.0
 40
1.0
 40
1.0
 10
-27.4514989128
 20
-8.3372743771
 30
0.0
 10
-27.396466043
 20
-8.3272663164
 30
0.0
 10
-27.264124346
 20
-8.31009511
 30
0.0
 10
-27.0344628359
 20
-8.2890938111
 30
0.0
 10
-26.7453292609
 20
-8.2699048949
 30
0.0
 10
-26.2607400971
 20
-8.2459149044
 30
0.0
 10
-25.563833591
 20
-8.2252360443
 30
0.0
 10
-24.9817557535
 20
-8.217906306
 30
0.0
 10
-24.6724932891
 20
-8.2163890101
 30
0.0
 11
-27.4514989128
 21
-8.3372743771
 31
0.0
 11
-27.2853503764
 21
-8.3137442647
 31
0.0
 11
-27.05420049
 21
-8.2917568886
 31
0.0
 11
-26.7630112874
 21
-8.2718291083
 31
0.0
 11
-26.4183078361
 21
-8.2543919855
 31
0.0
 11
-25.600212805
 21
-8.2284995974
 31
0.0
 11
-24.6724932891
 21
-8.2163890101
 31
0.0
  0
LINE
  5
6E4
100
AcDbEntity
  8
0
100
AcDbLine
 62
7
  6
CONTINUOUS
 10
-27.4534156349
 20
-8.337647751
 11
-27.4514989128
 21
-8.3372743771
  0
SPLINE
  5
6E5
100
AcDbEntity
  8
0
100
AcDbSpline
 62
7
  6
CONTINUOUS
 70
0
 71
3
 72
9
 73
5
 74
3
 42
0.0000001
 43
0.0000001
 44
0.0000000001
 12
0.2365350234
 22
0.0107062281
 32
0.0
 13
0.2355427428
 23
0.0241465709
 33
0.0
 40
0.0
 40
0.0
 40
0.0
 40
0.0
 40
0.2943568533
 40
1.0
 40
1.0
 40
1.0
 40
1.0
 10
-27.7585101483
 20
-8.3622757805
 30
0.0
 10
-27.7353015799
 20
-8.3612252966
 30
0.0
 10
-27.6564801054
 20
-8.3572817935
 30
0.0
 10
-27.5776723284
 20
-8.3522330627
 30
0.0
 10
-27.5222692876
 20
-8.3465534419
 30
0.0
 11
-27.7585101483
 21
-8.3622757805
 31
0.0
 11
-27.6888994843
 21
-8.3588079388
 31
0.0
 11
-27.5222692876
 21
-8.3465534419
 31
0.0
  0
LINE
  5
6E6
100
AcDbEntity
  8
0
100
AcDbLine
 62
7
  6
CONTINUOUS
 10
-28.0413464094
 20
-8.3712743604
 11
-28.021311375
 21
-8.3708389064
  0
SPLINE
  5
6E7
100
AcDbEntity
  8
0
100
AcDbSpline
 62
7
  6
CONTINUOUS
 70
0
 71
3
 72
9
 73
5
 74
3
 42
0.0000001
 43
0.0000001
 44
0.0000000001
 12
0.2326636215
 22
0.0056863097
 32
0.0
 13
0.2324952575
 23
0.0105190351
 33
0.0
 40
0.0
 40
0.0
 40
0.0
 40
0.0
 40
0.2658463262
 40
1.0
 40
1.0
 40
1.0
 40
1.0
 10
-27.991108472
 20
-8.3701318209
 30
0.0
 10
-27.9704908823
 20
-8.3696279261
 30
0.0
 10
-27.8929408667
 20
-8.3675632029
 30
0.0
 10
-27.8154058975
 20
-8.3648499765
 30
0.0
 10
-27.7585101483
 20
-8.3622757805
 30
0.0
 11
-27.991108472
 21
-8.3701318209
 31
0.0
 11
-27.9292591722
 21
-8.3684842955
 31
0.0
 11
-27.7585101483
 21
-8.3622757805
 31
0.0
  0
LINE
  5
6E8
100
AcDbEntity
  8
0
100
AcDbLine
 62
7
  6
CONTINUOUS
 10
-28.3277257697
 20
-8.3748812871
 11
-28.2910631943
 21
-8.3745730179
  0
SPLINE
  5
6E9
100
AcDbEntity
  8
0
100
AcDbSpline
 62
7
  6
CONTINUOUS
 70
0
 71
3
 72
11
 73
7
 74
5
 42
0.0000001
 43
0.0000001
 44
0.0000000001
 12
-0.0024509653
 22
0.1070300836
 32
0.0
 13
-0.1049777455
 23
0.0210028325
 33
0.0
 40
0.0
 40
0.0
 40
0.0
 40
0.0
 40
0.0996637024
 40
0.2943517547
 40
0.5953600705
 40
1.0
 40
1.0
 40
1.0
 40
1.0
 10
-20.1884773765
 20
-6.4312566708
 30
0.0
 10
-20.1885588006
 20
-6.4277009993
 30
0.0
 10
-20.1979557454
 20
-6.4196410207
 30
0.0
 10
-20.2168463139
 20
-6.4122521909
 30
0.0
 10
-20.2481583915
 20
-6.4029263456
 30
0.0
 10
-20.2726461807
 20
-6.3976899137
 30
0.0
 10
-20.2868055765
 20
-6.3948570521
 30
0.0
 11
-20.1884773765
 21
-6.4312566708
 31
0.0
 11
-20.1949156039
 21
-6.4227481989
 31
0.0
 11
-20.2137059162
 21
-6.4137286441
 31
0.0
 11
-20.2445445557
 21
-6.404376951
 31
0.0
 11
-20.2868055765
 21
-6.3948570521
 31
0.0
  0
SPLINE
  5
6EA
100
AcDbEntity
  8
0
100
AcDbSpline
 62
7
  6
CONTINUOUS
 70
0
 71
3
 72
10
 73
6
 74
4
 42
0.0000001
 43
0.0000001
 44
0.0000000001
 12
-0.6694970985
 22
0.1339458696
 32
0.0
 13
-0.6818291595
 23
0.0357331522
 33
0.0
 40
0.0
 40
0.0
 40
0.0
 40
0.0
 40
0.1866389938
 40
0.4283285152
 40
1.0
 40
1.0
 40
1.0
 40
1.0
 10
-20.2868055765
 20
-6.3948570521
 30
0.0
 10
-20.3284569981
 20
-6.386523878
 30
0.0
 10
-20.4249265155
 20
-6.371955767
 30
0.0
 10
-20.6511176583
 20
-6.3467371133
 30
0.0
 10
-20.8358897913
 20
-6.3339530979
 30
0.0
 10
-20.9658172206
 20
-6.3271438899
 30
0.0
 11
-20.2868055765
 21
-6.3948570521
 31
0.0
 11
-20.4126065786
 21
-6.3745432074
 31
0.0
 11
-20.576549041
 21
-6.3557411652
 31
0.0
 11
-20.9658172206
 21
-6.3271438899
 31
0.0
  0
SPLINE
  5
6EB
100
AcDbEntity
  8
0
100
AcDbSpline
 62
7
  6
CONTINUOUS
 70
0
 71
3
 72
12
 73
8
 74
6
 42
0.0000001
 43
0.0000001
 44
0.0000000001
 12
0.2717706249
 22
-3.2236139167
 32
0.0
 13
-0.0000018574
 23
-3.2350496065
 33
0.0
 40
0.0
 40
0.0
 40
0.0
 40
0.0
 40
0.0717105725
 40
0.1634744417
 40
0.3988024897
 40
0.6858604025
 40
1.0
 40
1.0
 40
1.0
 40
1.0
 10
-22.7612901802
 20
0.959011374
 30
0.0
 10
-22.7547939045
 20
0.8819556408
 30
0.0
 10
-22.7432138621
 20
0.7060298199
 30
0.0
 10
-22.7225777929
 20
0.2764692377
 30
0.0
 10
-22.7033009301
 20
-0.3855697061
 30
0.0
 10
-22.6890342781
 20
-1.2875340008
 30
0.0
 10
-22.6858397837
 20
-1.9358437501
 30
0.0
 10
-22.6858399782
 20
-2.2745961439
 30
0.0
 11
-22.7612901802
 21
0.959011374
 31
0.0
 11
-22.7452349518
 21
0.7275803515
 31
0.0
 11
-22.7305306067
 21
0.43108408
 31
0.0
 11
-22.7064441185
 21
-0.3298327009
 31
0.0
 11
-22.6911054231
 21
-1.2583526033
 31
0.0
 11
-22.6858399782
 21
-2.2745961439
 31
0.0
  0
LINE
  5
6EC
100
AcDbEntity
  8
0
100
AcDbLine
 62
7
  6
CONTINUOUS
 10
-17.8873248468
 20
13.8709694924
 11
-17.8873835889
 21
13.9294108238
  0
LINE
  5
6ED
100
AcDbEntity
  8
0
100
AcDbLine
 62
7
  6
CONTINUOUS
 10
-17.8873835889
 20
13.9294108238
 11
-17.8874546692
 21
13.9439501428
  0
SPLINE
  5
6EE
100
AcDbEntity
  8
0
100
AcDbSpline
 62
7
  6
CONTINUOUS
 70
0
 71
3
 72
12
 73
8
 74
6
 42
0.0000001
 43
0.0000001
 44
0.0000000001
 12
0.2717706296
 22
3.2236139728
 32
0.0
 13
0.0
 23
3.2350496628
 33
0.0
 40
0.0
 40
0.0
 40
0.0
 40
0.0
 40
0.0717099589
 40
0.1634730791
 40
0.3988015614
 40
0.6858611318
 40
1.0
 40
1.0
 40
1.0
 40
1.0
 10
-22.7612901802
 20
-5.5082037084
 30
0.0
 10
-22.75479396
 20
-5.4311486332
 30
0.0
 10
-22.7432138628
 20
-5.2552242866
 30
0.0
 10
-22.7225777089
 20
-4.8256647014
 30
0.0
 10
-22.7033006974
 20
-4.163624302
 30
0.0
 10
-22.6890340631
 20
-3.2616585186
 30
0.0
 10
-22.6858399782
 20
-2.6133477571
 30
0.0
 10
-22.6858399782
 20
-2.2745961439
 30
0.0
 11
-22.7612901802
 21
-5.5082037084
 31
0.0
 11
-22.7452349748
 21
-5.27677467
 31
0.0
 11
-22.7305306277
 21
-4.9802808195
 31
0.0
 11
-22.7064439563
 21
-4.2193626257
 31
0.0
 11
-22.69110527
 21
-3.2908373434
 31
0.0
 11
-22.6858399782
 21
-2.2745961439
 31
0.0
  0
SPLINE
  5
6EF
100
AcDbEntity
  8
0
100
AcDbSpline
 62
7
  6
CONTINUOUS
 70
0
 71
3
 72
17
 73
13
 74
11
 42
0.0000001
 43
0.0000001
 44
0.0000000001
 12
0.7771922577
 22
0.0407269157
 32
0.0
 13
0.3533461503
 23
0.6934212177
 33
0.0
 40
0.0
 40
0.0
 40
0.0
 40
0.0
 40
0.1864903893
 40
0.3665431821
 40
0.5336397794
 40
0.6821361588
 40
0.8067486229
 40
0.9030278296
 40
0.9394628958
 40
0.9676890778
 40
0.9876727151
 40
1.0
 40
1.0
 40
1.0
 40
1.0
 10
-19.4269510577
 20
1.7085426077
 30
0.0
 10
-19.3786380955
 20
1.7110743338
 30
0.0
 10
-19.2837189112
 20
1.716826483
 30
0.0
 10
-19.1456870426
 20
1.7275036262
 30
0.0
 10
-19.0176904356
 20
1.7397994843
 30
0.0
 10
-18.9042627929
 20
1.7532178362
 30
0.0
 10
-18.8094800921
 20
1.7672813798
 30
0.0
 10
-18.7438293859
 20
1.7798355561
 30
0.0
 10
-18.7034517405
 20
1.7903395496
 30
0.0
 10
-18.6825086115
 20
1.7973162651
 30
0.0
 10
-18.6683895345
 20
1.8038273921
 30
0.0
 10
-18.6613715689
 20
1.8092182337
 30
0.0
 10
-18.659919636
 20
1.8120675673
 30
0.0
 11
-19.4269510577
 21
1.7085426077
 31
0.0
 11
-19.2820799866
 21
1.7173369448
 31
0.0
 11
-19.1423749096
 21
1.7282110733
 31
0.0
 11
-19.0129377104
 21
1.7407629302
 31
0.0
 11
-18.8981955024
 21
1.7545587354
 31
0.0
 11
-18.802313149
 21
1.7691132986
 31
0.0
 11
-18.7288577661
 21
1.7839062041
 31
0.0
 11
-18.7014633289
 21
1.791227552
 31
0.0
 11
-18.6807037718
 21
1.7984109859
 31
0.0
 11
-18.6668019536
 21
1.8053836309
 31
0.0
 11
-18.659919636
 21
1.8120675673
 31
0.0
  0
LINE
  5
6F0
100
AcDbEntity
  8
0
100
AcDbLine
 62
7
  6
CONTINUOUS
 10
-17.8872156409
 20
12.0287417012
 11
-17.8873632367
 21
11.9802502816
  0
LINE
  5
6F1
100
AcDbEntity
  8
0
100
AcDbLine
 62
7
  6
CONTINUOUS
 10
-17.8873632367
 20
11.9802502816
 11
-17.8873867827
 21
11.9745562577
  0
LINE
  5
6F2
100
AcDbEntity
  8
0
100
AcDbLine
 62
7
  6
CONTINUOUS
 10
-17.8873129439
 20
12.9787246483
 11
-17.8873024309
 21
12.839389636
  0
LINE
  5
6F3
100
AcDbEntity
  8
0
100
AcDbLine
 62
7
  6
CONTINUOUS
 10
-17.8873024309
 20
12.839389636
 11
-17.8872944356
 21
12.7386209766
  0
LINE
  5
6F4
100
AcDbEntity
  8
0
100
AcDbLine
 62
7
  6
CONTINUOUS
 10
-17.8872944356
 20
12.7386209766
 11
-17.8872923785
 21
12.6819274391
  0
LINE
  5
6F5
100
AcDbEntity
  8
0
100
AcDbLine
 62
7
  6
CONTINUOUS
 10
-17.8872923785
 20
12.6819274391
 11
-17.8872965596
 21
12.4898099617
  0
LINE
  5
6F6
100
AcDbEntity
  8
0
100
AcDbLine
 62
7
  6
CONTINUOUS
 10
-17.8872965596
 20
12.4898099617
 11
-17.8872353424
 21
12.1193503852
  0
SPLINE
  5
6F7
100
AcDbEntity
  8
0
100
AcDbSpline
 62
7
  6
CONTINUOUS
 70
0
 71
3
 72
8
 73
4
 74
2
 42
0.0000001
 43
0.0000001
 44
0.0000000001
 12
0.0195572758
 22
-0.2415395824
 32
0.0
 13
0.001364647
 23
-0.2423262154
 33
0.0
 40
0.0
 40
0.0
 40
0.0
 40
0.0
 40
1.0
 40
1.0
 40
1.0
 40
1.0
 10
-17.8970056729
 20
14.2106904452
 30
0.0
 10
-17.890486581
 20
14.1301772511
 30
0.0
 10
-17.8876449784
 20
14.0493346641
 30
0.0
 10
-17.8871900961
 20
13.968559259
 30
0.0
 11
-17.8970056729
 21
14.2106904452
 31
0.0
 11
-17.8871900961
 21
13.968559259
 31
0.0
  0
SPLINE
  5
6F8
100
AcDbEntity
  8
0
100
AcDbSpline
 62
7
  6
CONTINUOUS
 70
0
 71
3
 72
11
 73
7
 74
5
 42
0.0000001
 43
0.0000001
 44
0.0000000001
 12
-0.0088220745
 22
0.5819289158
 32
0.0
 13
-0.5091630099
 23
0.2819080016
 33
0.0
 40
0.0
 40
0.0
 40
0.0
 40
0.0
 40
0.2293043863
 40
0.4682922732
 40
0.7240819443
 40
1.0
 40
1.0
 40
1.0
 40
1.0
 10
-18.5186172657
 20
-1.3159601009
 30
0.0
 10
-18.5192915792
 20
-1.2714804833
 30
0.0
 10
-18.534747076
 20
-1.18029822
 30
0.0
 10
-18.5987232718
 20
-1.053189976
 30
0.0
 10
-18.6999294607
 20
-0.9410612426
 30
0.0
 10
-18.7856252824
 20
-0.8819710088
 30
0.0
 10
-18.8324543717
 20
-0.8560431729
 30
0.0
 11
-18.5186172657
 21
-1.3159601009
 31
0.0
 11
-18.5406423639
 21
-1.1843359587
 31
0.0
 11
-18.602198242
 21
-1.0596087124
 31
0.0
 11
-18.7009597427
 21
-0.9482175132
 31
0.0
 11
-18.8324543717
 21
-0.8560431729
 31
0.0
  0
LINE
  5
6F9
100
AcDbEntity
  8
0
100
AcDbLine
 62
7
  6
CONTINUOUS
 10
-24.6051330839
 20
-8.2159389061
 11
-24.5853719218
 21
-8.2157692187
  0
SPLINE
  5
6FA
100
AcDbEntity
  8
0
100
AcDbSpline
 62
7
  6
CONTINUOUS
 70
0
 71
3
 72
9
 73
5
 74
3
 42
0.0000001
 43
0.0000001
 44
0.0000000001
 12
0.1882864458
 22
0.0017505976
 32
0.0
 13
0.1882944059
 23
0.0002587786
 33
0.0
 40
0.0
 40
0.0
 40
0.0
 40
0.0
 40
0.7478595179
 40
1.0
 40
1.0
 40
1.0
 40
1.0
 10
-24.5853719218
 20
-8.2157692187
 30
0.0
 10
-24.5384346516
 20
-8.2153328184
 30
0.0
 10
-24.47567671
 20
-8.2144383221
 30
0.0
 10
-24.4129147501
 20
-8.2136961145
 30
0.0
 10
-24.3970892027
 20
-8.213674365
 30
0.0
 11
-24.5853719218
 21
-8.2157692187
 31
0.0
 11
-24.4445641563
 21
-8.2140800774
 31
0.0
 11
-24.3970892027
 21
-8.213674365
 31
0.0
  0
SPLINE
  5
6FB
100
AcDbEntity
  8
0
100
AcDbSpline
 62
7
  6
CONTINUOUS
 70
0
 71
3
 72
12
 73
8
 74
6
 42
0.0000001
 43
0.0000001
 44
0.0000000001
 12
-0.3616603976
 22
0.0154350937
 32
0.0
 13
0.3618678511
 23
0.0093884835
 33
0.0
 40
0.0
 40
0.0
 40
0.0
 40
0.0
 40
0.1340922863
 40
0.2656585522
 40
0.4789036442
 40
0.7464437858
 40
1.0
 40
1.0
 40
1.0
 40
1.0
 10
-24.3356731291
 20
-8.212672914
 30
0.0
 10
-24.351838419
 20
-8.211983005
 30
0.0
 10
-24.3853846397
 20
-8.2129934641
 30
0.0
 10
-24.4353104139
 20
-8.2136875792
 30
0.0
 10
-24.5605790366
 20
-8.2156799287
 30
0.0
 10
-24.3966876824
 20
-8.2131575032
 30
0.0
 10
-24.3510050794
 20
-8.2119533053
 30
0.0
 10
-24.3204204653
 20
-8.2111598025
 30
0.0
 11
-24.3356731291
 21
-8.212672914
 31
0.0
 11
-24.3842128444
 21
-8.2128437301
 31
0.0
 11
-24.4318314754
 21
-8.2136597679
 31
0.0
 11
-24.5090144873
 21
-8.2148706595
 31
0.0
 11
-24.4121810631
 21
-8.2132638694
 31
0.0
 11
-24.3204204653
 21
-8.2111598025
 31
0.0
  0
LINE
  5
6FC
100
AcDbEntity
  8
0
100
AcDbLine
 62
7
  6
CONTINUOUS
 10
-24.0716323273
 20
-8.2019906719
 11
-24.0570226929
 21
-8.201257224
  0
LINE
  5
6FD
100
AcDbEntity
  8
0
100
AcDbLine
 62
7
  6
CONTINUOUS
 10
-27.4863760283
 20
-8.3424774077
 11
-27.4777711708
 21
-8.3414319263
  0
LINE
  5
6FE
100
AcDbEntity
  8
0
100
AcDbLine
 62
7
  6
CONTINUOUS
 10
-27.4777711708
 20
-8.3414319263
 11
-27.4727835514
 21
-8.3408290881
  0
LINE
  5
6FF
100
AcDbEntity
  8
0
100
AcDbLine
 62
7
  6
CONTINUOUS
 10
-28.3277257695
 20
-8.3748812792
 11
-28.2910728048
 21
-8.3745730715
  0
LINE
  5
700
100
AcDbEntity
  8
0
100
AcDbLine
 62
7
  6
CONTINUOUS
 10
-27.4535627861
 20
-8.3376836924
 11
-27.4727842893
 21
-8.3408290767
  0
LINE
  5
701
100
AcDbEntity
  8
0
100
AcDbLine
 62
7
  6
CONTINUOUS
 10
-24.585374954
 20
-8.2157683844
 11
-24.6705282384
 21
-8.2164566975
  0
LINE
  5
702
100
AcDbEntity
  8
0
100
AcDbLine
 62
7
  6
CONTINUOUS
 10
-27.4534156349
 20
-8.337647751
 11
-27.4703820987
 21
-8.3402867813
  0
LINE
  5
703
100
AcDbEntity
  8
0
100
AcDbLine
 62
7
  6
CONTINUOUS
 10
-17.8877687738
 20
13.8845380178
 11
-17.887674937
 21
13.877873322
  0
LINE
  5
704
100
AcDbEntity
  8
0
100
AcDbLine
 62
7
  6
CONTINUOUS
 10
-17.8871110437
 20
13.7839147132
 11
-17.8871260365
 21
13.7807005286
  0
LINE
  5
705
100
AcDbEntity
  8
0
100
AcDbLine
 62
7
  6
CONTINUOUS
 10
-17.8871260365
 20
13.7807005286
 11
-17.8872581104
 21
13.7570060367
  0
SPLINE
  5
706
100
AcDbEntity
  8
0
100
AcDbSpline
 62
7
  6
CONTINUOUS
 70
0
 71
3
 72
22
 73
18
 74
16
 42
0.0000001
 43
0.0000001
 44
0.0000000001
 12
-3.3764334558
 22
-0.1101510813
 32
0.0
 13
0.048801077
 23
-3.3778772324
 33
0.0
 40
0.0
 40
0.0
 40
0.0
 40
0.0
 40
0.0021067233
 40
0.0060808713
 40
0.0122666984
 40
0.0207375351
 40
0.0445753945
 40
0.0774818439
 40
0.1192102138
 40
0.1693698452
 40
0.2275082669
 40
0.2930748158
 40
0.3654713623
 40
0.4440110504
 40
0.6165435163
 40
0.8042157746
 40
1.0
 40
1.0
 40
1.0
 40
1.0
 10
-22.6032628815
 20
1.096759152
 30
0.0
 10
-22.6056339518
 20
1.0966817994
 30
0.0
 10
-22.6110637859
 20
1.0907991615
 30
0.0
 10
-22.6155507953
 20
1.078220861
 30
0.0
 10
-22.6210348966
 20
1.0576976284
 30
0.0
 10
-22.6285711489
 20
1.0151186056
 30
0.0
 10
-22.6371039921
 20
0.9420427533
 30
0.0
 10
-22.6459545502
 20
0.8315471225
 30
0.0
 10
-22.6540871866
 20
0.6912275724
 30
0.0
 10
-22.6613532411
 20
0.5224452602
 30
0.0
 10
-22.6676408665
 20
0.3267561508
 30
0.0
 10
-22.6728803886
 20
0.1059916951
 30
0.0
 10
-22.6770043632
 20
-0.1377739502
 30
0.0
 10
-22.6810875339
 20
-0.5020030661
 30
0.0
 10
-22.6828996526
 20
-0.9960669138
 30
0.0
 10
-22.6803040388
 20
-1.6221525086
 30
0.0
 10
-22.6755008632
 20
-2.0539312155
 30
0.0
 10
-22.6723160361
 20
-2.2743762413
 30
0.0
 11
-22.6032628815
 21
1.096759152
 31
0.0
 11
-22.60901154
 21
1.092563375
 31
0.0
 11
-22.6146307487
 21
1.0803703104
 31
0.0
 11
-22.6201049194
 21
1.0602029075
 31
0.0
 11
-22.6254184636
 21
1.0320841158
 31
0.0
 11
-22.6355072357
 21
0.9521888107
 31
0.0
 11
-22.6448031466
 21
0.8414126192
 31
0.0
 11
-22.6532205846
 21
0.7006961331
 31
0.0
 11
-22.6606818045
 21
0.5314097202
 31
0.0
 11
-22.6671141503
 21
0.3351101342
 31
0.0
 11
-22.6724588936
 21
0.1136757627
 31
0.0
 11
-22.6766642377
 21
-0.1308602458
 31
0.0
 11
-22.6796923988
 21
-0.3961680749
 31
0.0
 11
-22.6821099938
 21
-0.9790173674
 31
0.0
 11
-22.6796201863
 21
-1.613012482
 31
0.0
 11
-22.6723160361
 21
-2.2743762413
 31
0.0
  0
LINE
  5
707
100
AcDbEntity
  8
0
100
AcDbLine
 62
7
  6
CONTINUOUS
 10
-22.6723160361
 20
-2.2743762413
 11
-22.671358533
 21
-2.3391729225
  0
SPLINE
  5
708
100
AcDbEntity
  8
0
100
AcDbSpline
 62
7
  6
CONTINUOUS
 70
0
 71
3
 72
22
 73
18
 74
16
 42
0.0000001
 43
0.0000001
 44
0.0000000001
 12
0.0521656133
 22
-3.4530897111
 32
0.0
 13
3.4534746267
 23
-0.0079250669
 33
0.0
 40
0.0
 40
0.0
 40
0.0
 40
0.0
 40
0.1946365647
 40
0.3818331933
 40
0.5543792615
 40
0.6330523797
 40
0.7056371803
 40
0.771425021
 40
0.829798093
 40
0.8801881123
 40
0.9221270925
 40
0.9552108573
 40
0.9791805679
 40
0.9876967555
 40
0.9939128357
 40
0.9979003874
 40
1.0
 40
1.0
 40
1.0
 40
1.0
 10
-22.671358533
 20
-2.3391729225
 30
0.0
 10
-22.6679740877
 20
-2.5632054288
 30
0.0
 10
-22.6598502668
 20
-3.0026861346
 30
0.0
 10
-22.6435780341
 20
-3.6406635345
 30
0.0
 10
-22.6267664102
 20
-4.1450782343
 30
0.0
 10
-22.6115541043
 20
-4.5175197767
 30
0.0
 10
-22.5999419686
 20
-4.7671063031
 30
0.0
 10
-22.5878871485
 20
-4.9932725709
 30
0.0
 10
-22.5755244337
 20
-5.1938335873
 30
0.0
 10
-22.5629841401
 20
-5.3668590819
 30
0.0
 10
-22.5504297512
 20
-5.5107108826
 30
0.0
 10
-22.5380602389
 20
-5.6239518158
 30
0.0
 10
-22.5271566642
 20
-5.6987856126
 30
0.0
 10
-22.5182077038
 20
-5.7423099583
 30
0.0
 10
-22.5120089423
 20
-5.7632428038
 30
0.0
 10
-22.5070927269
 20
-5.7759969835
 30
0.0
 10
-22.5013987191
 20
-5.7819140089
 30
0.0
 10
-22.4989817328
 20
-5.7819195554
 30
0.0
 11
-22.671358533
 21
-2.3391729225
 31
0.0
 11
-22.6588906869
 21
-3.01123149
 31
0.0
 11
-22.642271889
 21
-3.6574983576
 31
0.0
 11
-22.6221435466
 21
-4.2530433415
 31
0.0
 11
-22.6110012414
 21
-4.5245111046
 31
0.0
 11
-22.599282474
 21
-4.7749074575
 31
0.0
 11
-22.5870997748
 21
-5.0017778305
 31
0.0
 11
-22.5745709686
 21
-5.2029785765
 31
0.0
 11
-22.5618163567
 21
-5.3765316434
 31
0.0
 11
-22.5489607164
 21
-5.5207955657
 31
0.0
 11
-22.5361283981
 21
-5.6343268992
 31
0.0
 11
-22.5234384108
 21
-5.7161274368
 31
0.0
 11
-22.517184028
 21
-5.7448652361
 31
0.0
 11
-22.5110117791
 21
-5.7654259044
 31
0.0
 11
-22.5049386766
 21
-5.7777853686
 31
0.0
 11
-22.4989817328
 21
-5.7819195554
 31
0.0
  0
LINE
  5
709
100
AcDbEntity
  8
0
100
AcDbLine
 62
7
  6
CONTINUOUS
 10
-18.6663078508
 20
0.561187216
 11
-18.6487687473
 21
0.7198870744
  0
LINE
  5
70A
100
AcDbEntity
  8
0
100
AcDbLine
 62
7
  6
CONTINUOUS
 10
-18.6487687473
 20
0.7198870744
 11
-18.6480408112
 21
0.7264813971
  0
SPLINE
  5
70B
100
AcDbEntity
  8
0
100
AcDbSpline
 62
7
  6
CONTINUOUS
 70
0
 71
3
 72
13
 73
9
 74
7
 42
0.0000001
 43
0.0000001
 44
0.0000000001
 12
0.0157080049
 22
0.0010426306
 32
0.0
 13
-0.015728252
 23
0.0006712569
 33
0.0
 40
0.0
 40
0.0
 40
0.0
 40
0.0
 40
0.3225562586
 40
0.4578084915
 40
0.4856578382
 40
0.5383960919
 40
0.6881149174
 40
1.0
 40
1.0
 40
1.0
 40
1.0
 10
-24.3348629236
 20
-8.2158062799
 30
0.0
 10
-24.3331740185
 20
-8.2156941776
 30
0.0
 10
-24.3309675668
 20
-8.2150989476
 30
0.0
 10
-24.3281552898
 20
-8.2148488248
 30
0.0
 10
-24.3275689666
 20
-8.213626853
 30
0.0
 10
-24.329148539
 20
-8.2131931088
 30
0.0
 10
-24.3314392472
 20
-8.2128915883
 30
0.0
 10
-24.3340379934
 20
-8.212742699
 30
0.0
 10
-24.3356731291
 20
-8.212672914
 30
0.0
 11
-24.3348629236
 21
-8.2158062799
 31
0.0
 11
-24.3298441521
 21
-8.2150338559
 31
0.0
 11
-24.3278781511
 21
-8.2142162935
 31
0.0
 11
-24.3277287281
 21
-8.2138041222
 31
0.0
 11
-24.3284503529
 21
-8.2133935752
 31
0.0
 11
-24.3307741274
 21
-8.2129994586
 31
0.0
 11
-24.3356731291
 21
-8.212672914
 31
0.0
  0
SPLINE
  5
70C
100
AcDbEntity
  8
0
100
AcDbSpline
 62
253
  6
CONTINUOUS
 70
0
 71
3
 72
12
 73
8
 74
6
 42
0.0000001
 43
0.0000001
 44
0.0000000001
 12
0.0
 22
-0.9570211459
 32
0.0
 13
0.1605850982
 23
-0.9434521185
 33
0.0
 40
0.0
 40
0.0
 40
0.0
 40
0.0
 40
0.3267861165
 40
0.6208877341
 40
0.852938904
 40
0.9381975511
 40
1.0
 40
1.0
 40
1.0
 40
1.0
 10
-38.1370279086
 20
8.1240383277
 30
0.0
 10
-38.1370279086
 20
8.0197912531
 30
0.0
 10
-38.1354667268
 20
7.821714521
 30
0.0
 10
-38.1284424555
 20
7.549710995
 30
0.0
 10
-38.1191327275
 20
7.3548305722
 30
0.0
 10
-38.1089798565
 20
7.2343188499
 30
0.0
 10
-38.1033611615
 20
7.1877050496
 30
0.0
 10
-38.1000529774
 20
7.1682691658
 30
0.0
 11
-38.1370279086
 21
8.1240383277
 31
0.0
 11
-38.1344005746
 21
7.8113081403
 31
0.0
 11
-38.1267821364
 21
7.5299497979
 31
0.0
 11
-38.1149368456
 21
7.3081880511
 31
0.0
 11
-38.1077869176
 21
7.2269075927
 31
0.0
 11
-38.1000529774
 21
7.1682691658
 31
0.0
  0
SPLINE
  5
70D
100
AcDbEntity
  8
0
100
AcDbSpline
 62
7
  6
CONTINUOUS
 70
0
 71
3
 72
13
 73
9
 74
7
 42
0.0000001
 43
0.0000001
 44
0.0000000001
 12
-0.5251349717
 22
-0.1952515432
 32
0.0
 13
-0.4031680453
 23
-0.3890314009
 33
0.0
 40
0.0
 40
0.0
 40
0.0
 40
0.0
 40
0.3080685214
 40
0.5940299465
 40
0.7217412166
 40
0.8346896004
 40
0.9288138389
 40
1.0
 40
1.0
 40
1.0
 40
1.0
 10
-38.1000529387
 20
-7.1682691127
 30
0.0
 10
-38.1539787901
 20
-7.1883193974
 30
0.0
 10
-38.2587782639
 20
-7.2247187541
 30
0.0
 10
-38.3857773299
 20
-7.2699411066
 30
0.0
 10
-38.4773129483
 20
-7.3059024994
 30
0.0
 10
-38.5346641995
 20
-7.3309464916
 30
0.0
 10
-38.5807732647
 20
-7.3548298317
 30
0.0
 10
-38.6066057799
 20
-7.3722920262
 30
0.0
 10
-38.6161724417
 20
-7.3815232436
 30
0.0
 11
-38.1000529387
 21
-7.1682691127
 31
0.0
 11
-38.2626050684
 21
-7.2262941714
 31
0.0
 11
-38.4131992934
 21
-7.2809695085
 31
0.0
 11
-38.4797089735
 21
-7.3073524513
 31
0.0
 11
-38.5375437675
 21
-7.3330338847
 31
0.0
 11
-38.5840683783
 21
-7.3578598407
 31
0.0
 11
-38.6161724417
 21
-7.3815232436
 31
0.0
  0
SPLINE
  5
70E
100
AcDbEntity
  8
0
100
AcDbSpline
 62
7
  6
CONTINUOUS
 70
0
 71
3
 72
9
 73
5
 74
3
 42
0.0000001
 43
0.0000001
 44
0.0000000001
 12
-0.0105346154
 22
-0.0101652307
 32
0.0
 13
-0.0080326774
 23
-0.0122387145
 33
0.0
 40
0.0
 40
0.0
 40
0.0
 40
0.0
 40
0.2715434783
 40
1.0
 40
1.0
 40
1.0
 40
1.0
 10
-38.6161724417
 20
-7.3815232436
 30
0.0
 10
-38.6171259771
 20
-7.3824433443
 30
0.0
 10
-38.6205653912
 20
-7.3859021689
 30
0.0
 10
-38.6237124644
 20
-7.3896774817
 30
0.0
 10
-38.6256629498
 20
-7.3926492721
 30
0.0
 11
-38.6161724417
 21
-7.3815232436
 31
0.0
 11
-38.618972322
 21
-7.3843451233
 31
0.0
 11
-38.6256629498
 21
-7.3926492721
 31
0.0
  0
SPLINE
  5
70F
100
AcDbEntity
  8
0
100
AcDbSpline
 62
7
  6
CONTINUOUS
 70
0
 71
3
 72
9
 73
5
 74
3
 42
0.0000001
 43
0.0000001
 44
0.0000000001
 12
-0.0062552932
 22
-0.0095306638
 32
0.0
 13
-0.0023967144
 23
-0.0111453132
 33
0.0
 40
0.0
 40
0.0
 40
0.0
 40
0.0
 40
0.2709115349
 40
1.0
 40
1.0
 40
1.0
 40
1.0
 10
-38.6256629498
 20
-7.3926492721
 30
0.0
 10
-38.6262278268
 20
-7.3935099277
 30
0.0
 10
-38.6282023479
 20
-7.3967526832
 30
0.0
 10
-38.6296928559
 20
-7.4003290458
 30
0.0
 10
-38.6302753282
 20
-7.4030376855
 30
0.0
 11
-38.6256629498
 21
-7.3926492721
 31
0.0
 11
-38.6272621447
 21
-7.3952914119
 31
0.0
 11
-38.6302753282
 21
-7.4030376855
 31
0.0
  0
LINE
  5
710
100
AcDbEntity
  8
0
100
AcDbLine
 62
7
  6
CONTINUOUS
 10
-18.8398336277
 20
13.9794106916
 11
-18.0909337149
 21
13.9914378419
  0
SPLINE
  5
711
100
AcDbEntity
  8
0
100
AcDbSpline
 62
253
  6
CONTINUOUS
 70
0
 71
3
 72
12
 73
8
 74
6
 42
0.0000001
 43
0.0000001
 44
0.0000000001
 12
-0.1605850982
 22
-0.9434521185
 32
0.0
 13
-0.0
 23
-0.9570211459
 33
0.0
 40
0.0
 40
0.0
 40
0.0
 40
0.0
 40
0.0618024489
 40
0.147061096
 40
0.3791122659
 40
0.6732138835
 40
1.0
 40
1.0
 40
1.0
 40
1.0
 10
-38.1000529774
 20
-7.1682691658
 30
0.0
 10
-38.1033611615
 20
-7.1877050496
 30
0.0
 10
-38.1089798565
 20
-7.2343188499
 30
0.0
 10
-38.1191327275
 20
-7.3548305722
 30
0.0
 10
-38.1284424555
 20
-7.549710995
 30
0.0
 10
-38.1354667268
 20
-7.821714521
 30
0.0
 10
-38.1370279086
 20
-8.0197912531
 30
0.0
 10
-38.1370279086
 20
-8.1240383277
 30
0.0
 11
-38.1000529774
 21
-7.1682691658
 31
0.0
 11
-38.1077869176
 21
-7.2269075927
 31
0.0
 11
-38.1149368456
 21
-7.3081880511
 31
0.0
 11
-38.1267821364
 21
-7.5299497979
 31
0.0
 11
-38.1344005746
 21
-7.8113081403
 31
0.0
 11
-38.1370279086
 21
-8.1240383277
 31
0.0
  0
SPLINE
  5
712
100
AcDbEntity
  8
0
100
AcDbSpline
 62
7
  6
CONTINUOUS
 70
0
 71
3
 72
9
 73
5
 74
3
 42
0.0000001
 43
0.0000001
 44
0.0000000001
 12
0.0026108423
 22
-0.0121410606
 32
0.0
 13
0.0070401503
 23
-0.0102302558
 33
0.0
 40
0.0
 40
0.0
 40
0.0
 40
0.0
 40
0.2303339103
 40
1.0
 40
1.0
 40
1.0
 40
1.0
 10
-38.6302753282
 20
7.4030376855
 30
0.0
 10
-38.630074873
 20
7.4021055195
 30
0.0
 10
-38.6289455661
 20
7.398113074
 30
0.0
 10
-38.6269005391
 20
7.3944281359
 30
0.0
 10
-38.6250943508
 20
7.3918035089
 30
0.0
 11
-38.6302753282
 21
7.4030376855
 31
0.0
 11
-38.6295060553
 21
7.4002826428
 31
0.0
 11
-38.6250943508
 21
7.3918035089
 31
0.0
  0
SPLINE
  5
713
100
AcDbEntity
  8
0
100
AcDbSpline
 62
7
  6
CONTINUOUS
 70
0
 71
3
 72
9
 73
5
 74
3
 42
0.0000001
 43
0.0000001
 44
0.0000000001
 12
0.0077173891
 22
-0.011214372
 32
0.0
 13
0.0097950424
 23
-0.009453961
 33
0.0
 40
0.0
 40
0.0
 40
0.0
 40
0.0
 40
0.2308768707
 40
1.0
 40
1.0
 40
1.0
 40
1.0
 10
-38.6250943508
 20
7.3918035089
 30
0.0
 10
-38.6245004286
 20
7.3909404625
 30
0.0
 10
-38.6218048924
 20
7.3872869155
 30
0.0
 10
-38.6186923896
 20
7.3839554294
 30
0.0
 10
-38.6161811917
 20
7.381531676
 30
0.0
 11
-38.6250943508
 21
7.3918035089
 31
0.0
 11
-38.6232335286
 21
7.3892705907
 31
0.0
 11
-38.6161811917
 21
7.381531676
 31
0.0
  0
SPLINE
  5
714
100
AcDbEntity
  8
0
100
AcDbSpline
 62
7
  6
CONTINUOUS
 70
0
 71
3
 72
13
 73
9
 74
7
 42
0.0000001
 43
0.0000001
 44
0.0000000001
 12
0.403127981
 22
-0.3890903228
 32
0.0
 13
0.5251463017
 23
-0.1952557558
 33
0.0
 40
0.0
 40
0.0
 40
0.0
 40
0.0
 40
0.071179329
 40
0.1652995684
 40
0.2782464258
 40
0.4059580957
 40
0.6919244221
 40
1.0
 40
1.0
 40
1.0
 40
1.0
 10
-38.6161811917
 20
7.381531676
 30
0.0
 10
-38.6066163986
 20
7.3722999466
 30
0.0
 10
-38.5807857424
 20
7.3548370374
 30
0.0
 10
-38.5346783914
 20
7.3309531093
 30
0.0
 10
-38.4773270398
 20
7.3059082646
 30
0.0
 10
-38.3857890255
 20
7.269945266
 30
0.0
 10
-38.2587850084
 20
7.2247212209
 30
0.0
 10
-38.1539811888
 20
7.1883202893
 30
0.0
 10
-38.1000529387
 20
7.1682691127
 30
0.0
 11
-38.6161811917
 21
7.381531676
 31
0.0
 11
-38.5840812446
 21
7.3578676899
 31
0.0
 11
-38.5375583319
 21
7.3330408942
 31
0.0
 11
-38.479723421
 21
7.3073584674
 31
0.0
 11
-38.4132122734
 21
7.2809744297
 31
0.0
 11
-38.2626122877
 21
7.226296784
 31
0.0
 11
-38.1000529387
 21
7.1682691127
 31
0.0
  0
LINE
  5
715
100
AcDbEntity
  8
0
100
AcDbLine
 62
7
  6
CONTINUOUS
 10
-30.497202428
 20
16.522202938
 11
-30.4775897927
 21
17.2711750891
  0
LINE
  5
716
100
AcDbEntity
  8
0
100
AcDbLine
 62
7
  6
CONTINUOUS
 10
-17.9486231705
 20
14.568826298
 11
-18.1517407261
 21
14.5688700193
  0
SPLINE
  5
717
100
AcDbEntity
  8
0
100
AcDbSpline
 62
253
  6
CONTINUOUS
 70
0
 71
3
 72
9
 73
5
 74
3
 42
0.0000001
 43
0.0000001
 44
0.0000000001
 12
-0.008352244
 22
0.1420930995
 32
0.0
 13
-0.0123375698
 23
0.1418026561
 33
0.0
 40
0.0
 40
0.0
 40
0.0
 40
0.0
 40
0.2400024544
 40
1.0
 40
1.0
 40
1.0
 40
1.0
 10
-17.8961484193
 20
14.1120250362
 30
0.0
 10
-17.8968166057
 20
14.1233926004
 30
0.0
 10
-17.8997197941
 20
14.1707496432
 30
0.0
 10
-17.9032131503
 20
14.2180725611
 30
0.0
 10
-17.9063386578
 20
14.2539957846
 30
0.0
 11
-17.8961484193
 21
14.1120250362
 31
0.0
 11
-17.8982441447
 21
14.1461222478
 31
0.0
 11
-17.9063386578
 21
14.2539957846
 31
0.0
  0
SPLINE
  5
718
100
AcDbEntity
  8
0
100
AcDbSpline
 62
253
  6
CONTINUOUS
 70
0
 71
3
 72
9
 73
5
 74
3
 42
0.0000001
 43
0.0000001
 44
0.0000000001
 12
-0.013426751
 22
0.1543212305
 32
0.0
 13
-0.020113816
 23
0.1535928196
 33
0.0
 40
0.0
 40
0.0
 40
0.0
 40
0.0
 40
0.2436089369
 40
1.0
 40
1.0
 40
1.0
 40
1.0
 10
-17.9063386578
 20
14.2539957846
 30
0.0
 10
-17.90742895
 20
14.2665271282
 30
0.0
 10
-17.912138211
 20
14.3179465388
 30
0.0
 10
-17.9178855332
 20
14.3692741665
 30
0.0
 10
-17.9229568367
 20
14.4079995785
 30
0.0
 11
-17.9063386578
 21
14.2539957846
 31
0.0
 11
-17.9097849902
 21
14.2915741372
 31
0.0
 11
-17.9229568367
 21
14.4079995785
 31
0.0
  0
SPLINE
  5
719
100
AcDbEntity
  8
0
100
AcDbSpline
 62
253
  6
CONTINUOUS
 70
0
 71
3
 72
9
 73
5
 74
3
 42
0.0000001
 43
0.0000001
 44
0.0000000001
 12
-0.0211544904
 22
0.1615396014
 32
0.0
 13
-0.0305509654
 23
0.160028728
 33
0.0
 40
0.0
 40
0.0
 40
0.0
 40
0.0
 40
0.246628677
 40
1.0
 40
1.0
 40
1.0
 40
1.0
 10
-17.9229568367
 20
14.4079995785
 30
0.0
 10
-17.9246959381
 20
14.4212796779
 30
0.0
 10
-17.9320930367
 20
14.4750797494
 30
0.0
 10
-17.9409647012
 20
14.5286822642
 30
0.0
 10
-17.9486367749
 20
14.5688692823
 30
0.0
 11
-17.9229568367
 21
14.4079995785
 31
0.0
 11
-17.9284343029
 21
14.4478049423
 31
0.0
 11
-17.9486367749
 21
14.5688692823
 31
0.0
  0
SPLINE
  5
71A
100
AcDbEntity
  8
0
100
AcDbSpline
 62
7
  6
CONTINUOUS
 70
0
 71
3
 72
17
 73
13
 74
11
 42
0.0000001
 43
0.0000001
 44
0.0000000001
 12
-0.7040102643
 22
0.2810030396
 32
0.0
 13
0.0
 23
0.7580192349
 33
0.0
 40
0.0
 40
0.0
 40
0.0
 40
0.0
 40
0.0113708996
 40
0.0299379595
 40
0.056599405
 40
0.0915034094
 40
0.185382294
 40
0.3090368597
 40
0.4580936985
 40
0.627120908
 40
0.8100999764
 40
1.0
 40
1.0
 40
1.0
 40
1.0
 10
-33.2859643954
 20
-8.1737011425
 30
0.0
 10
-33.2886328055
 20
-8.1726360567
 30
0.0
 10
-33.2938021929
 20
-8.1663837811
 30
0.0
 10
-33.2994814154
 20
-8.1534330192
 30
0.0
 10
-33.3053874265
 20
-8.1339365343
 30
0.0
 10
-33.3138243742
 20
-8.095605722
 30
0.0
 10
-33.3230153637
 20
-8.0323920448
 30
0.0
 10
-33.3321879806
 20
-7.940226967
 30
0.0
 10
-33.339765556
 20
-7.8288461649
 30
0.0
 10
-33.3454403991
 20
-7.7023623599
 30
0.0
 10
-33.3489368003
 20
-7.5654737171
 30
0.0
 10
-33.3497232398
 20
-7.4712554528
 30
0.0
 10
-33.3497232398
 20
-7.4232728293
 30
0.0
 11
-33.2859643954
 21
-8.1737011425
 31
0.0
 11
-33.2922472529
 21
-8.167800373
 31
0.0
 11
-33.298466185
 21
-8.1551746982
 31
0.0
 11
-33.3045556243
 21
-8.1359040386
 31
0.0
 11
-33.3104544086
 21
-8.1101120791
 31
0.0
 11
-33.321469902
 21
-8.0398078176
 31
0.0
 11
-33.3311112644
 21
-7.9465724538
 31
0.0
 11
-33.3390158769
 21
-7.8338613446
 31
0.0
 11
-33.3448868284
 21
-7.7058700479
 31
0.0
 11
-33.3485021874
 21
-7.5672155209
 31
0.0
 11
-33.3497232398
 21
-7.4232728293
 31
0.0
  0
SPLINE
  5
71B
100
AcDbEntity
  8
0
100
AcDbSpline
 62
7
  6
CONTINUOUS
 70
0
 71
3
 72
8
 73
4
 74
2
 42
0.0000001
 43
0.0000001
 44
0.0000000001
 12
0.0123278156
 22
-0.2859387689
 32
0.0
 13
0.0020504822
 23
-0.2861970478
 33
0.0
 40
0.0
 40
0.0
 40
0.0
 40
0.0
 40
1.0
 40
1.0
 40
1.0
 40
1.0
 10
-17.8934183887
 20
12.4054442735
 30
0.0
 10
-17.8893091168
 20
12.3101313505
 30
0.0
 10
-17.8878147966
 20
12.2147079592
 30
0.0
 10
-17.8871313025
 20
12.1193089433
 30
0.0
 11
-17.8934183887
 21
12.4054442735
 31
0.0
 11
-17.8871313025
 21
12.1193089433
 31
0.0
  0
SPLINE
  5
71C
100
AcDbEntity
  8
0
100
AcDbSpline
 62
7
  6
CONTINUOUS
 70
0
 71
3
 72
9
 73
5
 74
3
 42
0.0000001
 43
0.0000001
 44
0.0000000001
 12
-0.1234700715
 22
0.3394280102
 32
0.0
 13
0.000917333
 23
0.3611860894
 33
0.0
 40
0.0
 40
0.0
 40
0.0
 40
0.0
 40
0.2406988129
 40
1.0
 40
1.0
 40
1.0
 40
1.0
 10
-37.4065541252
 20
-18.7503964238
 30
0.0
 10
-37.4164604918
 20
-18.7231631174
 30
0.0
 10
-37.4526708454
 20
-18.6082692121
 30
0.0
 10
-37.4679940992
 20
-18.4868974278
 30
0.0
 10
-37.4677619218
 20
-18.3954810856
 30
0.0
 11
-37.4065541252
 21
-18.7503964238
 31
0.0
 11
-37.4326819567
 21
-18.6674781623
 31
0.0
 11
-37.4677619218
 21
-18.3954810856
 31
0.0
  0
SPLINE
  5
71D
100
AcDbEntity
  8
0
100
AcDbSpline
 62
7
  6
CONTINUOUS
 70
0
 71
3
 72
11
 73
7
 74
5
 42
0.0000001
 43
0.0000001
 44
0.0000000001
 12
0.0939660578
 22
-0.3648544867
 32
0.0
 13
0.0174956524
 23
-0.3763539805
 33
0.0
 40
0.0
 40
0.0
 40
0.0
 40
0.0
 40
0.2496322762
 40
0.5003091925
 40
0.7499413382
 40
1.0
 40
1.0
 40
1.0
 40
1.0
 10
-17.9360369558
 20
12.779283038
 30
0.0
 10
-17.9282179689
 20
12.7489232193
 30
0.0
 10
-17.9173067369
 20
12.6869062516
 30
0.0
 10
-17.9057526269
 20
12.5934443598
 30
0.0
 10
-17.8980179002
 20
12.4994930329
 30
0.0
 10
-17.8948767019
 20
12.4368144644
 30
0.0
 10
-17.8934183887
 20
12.4054442735
 30
0.0
 11
-17.9360369558
 21
12.779283038
 31
0.0
 11
-17.9181269603
 21
12.6869524993
 31
0.0
 11
-17.9063769369
 21
12.5932411252
 31
0.0
 11
-17.8985238324
 21
12.4995180447
 31
0.0
 11
-17.8934183887
 21
12.4054442735
 31
0.0
  0
LINE
  5
71E
100
AcDbEntity
  8
0
100
AcDbLine
 62
7
  6
CONTINUOUS
 10
-18.0862567325
 20
13.9915155979
 11
-18.0859400633
 21
13.9783886748
  0
LINE
  5
71F
100
AcDbEntity
  8
0
100
AcDbLine
 62
7
  6
CONTINUOUS
 10
-18.0859400633
 20
13.9783886748
 11
-18.0568068358
 21
13.6888813767
  0
SPLINE
  5
720
100
AcDbEntity
  8
0
100
AcDbSpline
 62
253
  6
CONTINUOUS
 70
0
 71
3
 72
9
 73
5
 74
3
 42
0.0000001
 43
0.0000001
 44
0.0000000001
 12
-0.0995162674
 22
0.7087103146
 32
0.0
 13
-0.0788612668
 23
0.7113049262
 33
0.0
 40
0.0
 40
0.0
 40
0.0
 40
0.0
 40
0.4999901155
 40
1.0
 40
1.0
 40
1.0
 40
1.0
 10
-18.7206656196
 20
12.8991340493
 30
0.0
 10
-18.7372513363
 20
13.0172500999
 30
0.0
 10
-18.7663487942
 20
13.2540482149
 30
0.0
 10
-18.7931450305
 20
13.4910884915
 30
0.0
 10
-18.8062888348
 20
13.6096416561
 30
0.0
 11
-18.7206656196
 21
12.8991340493
 31
0.0
 11
-18.7657729363
 21
13.2541040716
 31
0.0
 11
-18.8062888348
 21
13.6096416561
 31
0.0
  0
SPLINE
  5
721
100
AcDbEntity
  8
0
100
AcDbSpline
 62
7
  6
CONTINUOUS
 70
0
 71
3
 72
8
 73
4
 74
2
 42
0.0000001
 43
0.0000001
 44
0.0000000001
 12
0.0277945502
 22
-0.2267603464
 32
0.0
 13
0.031755476
 23
-0.2262396549
 33
0.0
 40
0.0
 40
0.0
 40
0.0
 40
0.0
 40
1.0
 40
1.0
 40
1.0
 40
1.0
 10
-18.0041343602
 20
13.2330770953
 30
0.0
 10
-17.9948695101
 20
13.1574903132
 30
0.0
 10
-17.9852765218
 20
13.0819381085
 30
0.0
 10
-17.9746913631
 20
13.0065248902
 30
0.0
 11
-18.0041343602
 21
13.2330770953
 31
0.0
 11
-17.9746913631
 21
13.0065248902
 31
0.0
  0
SPLINE
  5
722
100
AcDbEntity
  8
0
100
AcDbSpline
 62
7
  6
CONTINUOUS
 70
0
 71
3
 72
8
 73
4
 74
2
 42
0.0000001
 43
0.0000001
 44
0.0000000001
 12
0.0313934427
 22
-0.2283585217
 32
0.0
 13
0.0500973987
 23
-0.224996474
 33
0.0
 40
0.0
 40
0.0
 40
0.0
 40
0.0
 40
1.0
 40
1.0
 40
1.0
 40
1.0
 10
-17.9747017471
 20
13.0065234327
 30
0.0
 10
-17.9642372662
 20
12.9304039255
 30
0.0
 10
-17.9527360821
 20
12.8542818646
 30
0.0
 10
-17.9360369491
 20
12.77928304
 30
0.0
 11
-17.9747017471
 21
13.0065234327
 31
0.0
 11
-17.9360369491
 21
12.77928304
 31
0.0
  0
SPLINE
  5
723
100
AcDbEntity
  8
0
100
AcDbSpline
 62
253
  6
CONTINUOUS
 70
0
 71
3
 72
10
 73
6
 74
4
 42
0.0000001
 43
0.0000001
 44
0.0000000001
 12
0.2577326191
 22
2.1772254444
 32
0.0
 13
0.2213120786
 23
2.1812284847
 33
0.0
 40
0.0
 40
0.0
 40
0.0
 40
0.0
 40
0.2499971855
 40
0.4999941708
 40
1.0
 40
1.0
 40
1.0
 40
1.0
 10
-19.4269966772
 20
1.7085409679
 30
0.0
 10
-19.4055192008
 20
1.889974379
 30
0.0
 10
-19.3625887679
 20
2.2528449978
 30
0.0
 10
-19.2805659364
 20
2.9790389225
 30
0.0
 10
-19.2226926687
 20
3.5240936232
 30
0.0
 10
-19.1858068922
 20
3.8876359423
 30
0.0
 11
-19.4269966772
 21
1.7085409679
 31
0.0
 11
-19.3630686249
 21
2.2529006707
 31
0.0
 11
-19.3014772554
 21
2.7975292634
 31
0.0
 11
-19.1858068922
 21
3.8876359423
 31
0.0
  0
SPLINE
  5
724
100
AcDbEntity
  8
0
100
AcDbSpline
 62
253
  6
CONTINUOUS
 70
0
 71
3
 72
12
 73
8
 74
6
 42
0.0000001
 43
0.0000001
 44
0.0000000001
 12
-1.4746796169
 22
-0.1261705774
 32
0.0
 13
0.0
 23
-1.4786541257
 33
0.0
 40
0.0
 40
0.0
 40
0.0
 40
0.0
 40
0.1039650061
 40
0.2324120827
 40
0.488153914
 40
0.7440147231
 40
1.0
 40
1.0
 40
1.0
 40
1.0
 10
-36.2354193987
 20
-16.8360696873
 30
0.0
 10
-36.2865244238
 20
-16.840442129
 30
0.0
 10
-36.4002244753
 20
-16.8588455235
 30
0.0
 10
-36.628751535
 20
-16.9377523028
 30
0.0
 10
-36.8925525497
 20
-17.1257606353
 30
0.0
 10
-37.1016406628
 20
-17.4514357075
 30
0.0
 10
-37.1505299472
 20
-17.7063287714
 30
0.0
 10
-37.1505299472
 20
-17.8325
 30
0.0
 11
-36.2354193987
 21
-16.8360696873
 31
0.0
 11
-36.3872674306
 21
-16.8607418202
 31
0.0
 11
-36.5667546944
 21
-16.9228487532
 31
0.0
 11
-36.8746363316
 21
-17.1424145265
 31
0.0
 11
-37.0789838402
 21
-17.4608095846
 31
0.0
 11
-37.1505299472
 21
-17.8325
 31
0.0
  0
SPLINE
  5
725
100
AcDbEntity
  8
0
100
AcDbSpline
 62
7
  6
CONTINUOUS
 70
0
 71
3
 72
12
 73
8
 74
6
 42
0.0000001
 43
0.0000001
 44
0.0000000001
 12
-1.5019442489
 22
-0.1253097284
 32
0.0
 13
-0.0787709899
 23
-1.5051027161
 33
0.0
 40
0.0
 40
0.0
 40
0.0
 40
0.0
 40
0.1494271191
 40
0.292182138
 40
0.5508463329
 40
0.7827879819
 40
1.0
 40
1.0
 40
1.0
 40
1.0
 10
-36.2354264095
 20
-16.8359877447
 30
0.0
 10
-36.3102368102
 20
-16.8422293019
 30
0.0
 10
-36.4556758323
 20
-16.8709449445
 30
0.0
 10
-36.711353067
 20
-16.9807677603
 30
0.0
 10
-36.9628999636
 20
-17.1881476173
 30
0.0
 10
-37.1480576967
 20
-17.4986451509
 30
0.0
 10
-37.1972343912
 20
-17.7235245338
 30
0.0
 10
-37.2029377265
 20
-17.8325
 30
0.0
 11
-36.2354264095
 21
-16.8359877447
 31
0.0
 11
-36.4564281538
 21
-16.8793260285
 31
0.0
 11
-36.6541524434
 21
-16.9641599209
 31
0.0
 11
-36.9550242216
 21
-17.2120679947
 31
0.0
 11
-37.1336929429
 21
-17.5125331544
 31
0.0
 11
-37.2029377265
 21
-17.8325
 31
0.0
  0
SPLINE
  5
726
100
AcDbEntity
  8
0
100
AcDbSpline
 62
7
  6
CONTINUOUS
 70
0
 71
3
 72
13
 73
9
 74
7
 42
0.0000001
 43
0.0000001
 44
0.0000000001
 12
-1.3024190368
 22
-3.5668214289
 32
0.0
 13
-0.1107838229
 23
-3.7955549525
 33
0.0
 40
0.0
 40
0.0
 40
0.0
 40
0.0
 40
0.2598684656
 40
0.5160571443
 40
0.6415153328
 40
0.7644226422
 40
0.8841517188
 40
1.0
 40
1.0
 40
1.0
 40
1.0
 10
-36.2043081917
 20
0.0
 30
0.0
 10
-36.3171274039
 20
-0.3089681373
 30
0.0
 10
-36.5411698832
 20
-0.922505175
 30
0.0
 10
-36.8011682653
 20
-1.6920317801
 30
0.0
 10
-36.9787625819
 20
-2.305596118
 30
0.0
 10
-37.0893965591
 20
-2.75839218
 30
0.0
 10
-37.1705950205
 20
-3.2051150498
 30
0.0
 10
-37.198659688
 20
-3.5026624019
 30
0.0
 10
-37.2029377265
 20
-3.6492319078
 30
0.0
 11
-36.2043081917
 21
0.0
 31
0.0
 11
-36.5389914621
 21
-0.9282739192
 31
0.0
 11
-36.8449847332
 21
-1.8516877002
 31
0.0
 11
-36.9764015298
 21
-2.3095888656
 31
0.0
 11
-37.0857413126
 21
-2.7633000195
 31
0.0
 11
-37.1649402982
 21
-3.2109802787
 31
0.0
 11
-37.2029377265
 21
-3.6492319078
 31
0.0
  0
SPLINE
  5
727
100
AcDbEntity
  8
0
100
AcDbSpline
 62
253
  6
CONTINUOUS
 70
0
 71
3
 72
11
 73
7
 74
5
 42
0.0000001
 43
0.0000001
 44
0.0000000001
 12
1.4708627651
 22
0.1317090184
 32
0.0
 13
-0.0
 23
1.4703578959
 33
0.0
 40
0.0
 40
0.0
 40
0.0
 40
0.0
 40
0.2049739656
 40
0.4696210817
 40
0.7346545764
 40
1.0
 40
1.0
 40
1.0
 40
1.0
 10
-34.519782275
 20
16.8364256732
 30
0.0
 10
-34.4192860837
 20
16.8454246464
 30
0.0
 10
-34.190727192
 20
16.9012825876
 30
0.0
 10
-33.8843960702
 20
17.1073041258
 30
0.0
 10
-33.6628435104
 20
17.4396694848
 30
0.0
 10
-33.6110654617
 20
17.7024490871
 30
0.0
 10
-33.6110654617
 20
17.8325
 30
0.0
 11
-34.519782275
 21
16.8364256732
 31
0.0
 11
-34.2260063859
 21
16.9086325574
 31
0.0
 11
-33.9028441334
 21
17.1253932188
 31
0.0
 11
-33.6869083117
 21
17.4497898986
 31
0.0
 11
-33.6110654617
 21
17.8325
 31
0.0
  0
LINE
  5
728
100
AcDbEntity
  8
0
100
AcDbLine
 62
7
  6
CONTINUOUS
 10
-17.8920642613
 20
11.9746405615
 11
-17.9258100904
 21
11.9752479711
  0
LINE
  5
729
100
AcDbEntity
  8
0
100
AcDbLine
 62
7
  6
CONTINUOUS
 10
-17.9258100904
 20
11.9752479711
 11
-18.640997314
 21
11.9881716201
  0
SPLINE
  5
72A
100
AcDbEntity
  8
0
100
AcDbSpline
 62
253
  6
CONTINUOUS
 70
0
 71
3
 72
10
 73
6
 74
4
 42
0.0000001
 43
0.0000001
 44
0.0000000001
 12
0.6695174966
 22
0.0011698653
 32
0.0
 13
0.6679536812
 23
-0.0457485144
 33
0.0
 40
0.0
 40
0.0
 40
0.0
 40
0.0
 40
0.5856721996
 40
0.8236635568
 40
1.0
 40
1.0
 40
1.0
 40
1.0
 10
-19.1850522516
 20
3.8875955678
 30
0.0
 10
-19.0543463233
 20
3.8878239536
 30
0.0
 10
-18.8705094578
 20
3.8860982201
 30
0.0
 10
-18.6474202699
 20
3.8800862993
 30
0.0
 10
-18.55502662
 20
3.8759766656
 30
0.0
 10
-18.5157650945
 20
3.8732876222
 30
0.0
 11
-19.1850522516
 21
3.8875955678
 31
0.0
 11
-18.792952837
 21
3.8837386534
 31
0.0
 11
-18.6336783957
 21
3.8791815527
 31
0.0
 11
-18.5157650945
 21
3.8732876222
 31
0.0
  0
SPLINE
  5
72B
100
AcDbEntity
  8
0
100
AcDbSpline
 62
253
  6
CONTINUOUS
 70
0
 71
3
 72
11
 73
7
 74
5
 42
0.0000001
 43
0.0000001
 44
0.0000000001
 12
0.0817574609
 22
-0.0055996134
 32
0.0
 13
0.0666561644
 23
-0.0476717298
 33
0.0
 40
0.0
 40
0.0
 40
0.0
 40
0.0
 40
0.3945495176
 40
0.6942537079
 40
0.8961272418
 40
1.0
 40
1.0
 40
1.0
 40
1.0
 10
-18.5157650945
 20
3.8732876222
 30
0.0
 10
-18.5050126389
 20
3.8725511806
 30
0.0
 10
-18.4861460673
 20
3.8710707138
 30
0.0
 10
-18.4616433768
 20
3.868729344
 30
0.0
 10
-18.4455709543
 20
3.8660111326
 30
0.0
 10
-18.4370391418
 20
3.8643494901
 30
0.0
 10
-18.4347312219
 20
3.862698892
 30
0.0
 11
-18.5157650945
 21
3.8732876222
 31
0.0
 11
-18.4835310472
 21
3.8707607631
 31
0.0
 11
-18.4591110698
 21
3.8681376373
 31
0.0
 11
-18.4427883089
 21
3.8654451734
 31
0.0
 11
-18.4347312219
 21
3.862698892
 31
0.0
  0
SPLINE
  5
72C
100
AcDbEntity
  8
0
100
AcDbSpline
 62
253
  6
CONTINUOUS
 70
0
 71
3
 72
9
 73
5
 74
3
 42
0.0000001
 43
0.0000001
 44
0.0000000001
 12
-0.0659952974
 22
0.2830905705
 32
0.0
 13
-0.0404205833
 23
0.2878573029
 33
0.0
 40
0.0
 40
0.0
 40
0.0
 40
0.0
 40
0.4996658813
 40
1.0
 40
1.0
 40
1.0
 40
1.0
 10
-18.6710920909
 20
12.6127935348
 30
0.0
 10
-18.6820839571
 20
12.6599437679
 30
0.0
 10
-18.7005130315
 20
12.7551568097
 30
0.0
 10
-18.7139243539
 20
12.8511257726
 30
0.0
 10
-18.7206656196
 20
12.8991340493
 30
0.0
 11
-18.6710920909
 21
12.6127935348
 31
0.0
 11
-18.6992479545
 21
12.7552819126
 31
0.0
 11
-18.7206656196
 21
12.8991340493
 31
0.0
  0
SPLINE
  5
72D
100
AcDbEntity
  8
0
100
AcDbSpline
 62
253
  6
CONTINUOUS
 70
0
 71
3
 72
15
 73
11
 74
9
 42
0.0000001
 43
0.0000001
 44
0.0000000001
 12
0.010908508
 22
0.5429096286
 32
0.0
 13
-0.5387973865
 23
0.0675813336
 33
0.0
 40
0.0
 40
0.0
 40
0.0
 40
0.0
 40
0.037464288
 40
0.0653560463
 40
0.1011979843
 40
0.1985429452
 40
0.3278053666
 40
0.483467153
 40
0.6547733672
 40
1.0
 40
1.0
 40
1.0
 40
1.0
 10
-18.9525354511
 20
-1.7841173126
 30
0.0
 10
-18.9523992246
 20
-1.7773374051
 30
0.0
 10
-18.959109913
 20
-1.7659998154
 30
0.0
 10
-18.9725997779
 20
-1.7539421118
 30
0.0
 10
-18.9969878703
 20
-1.7376052995
 30
0.0
 10
-19.0402274089
 20
-1.717642835
 30
0.0
 10
-19.1055195616
 20
-1.6945464755
 30
0.0
 10
-19.1852110325
 20
-1.6726848527
 30
0.0
 10
-19.3039778895
 20
-1.6461365679
 30
0.0
 10
-19.3964248848
 20
-1.63140438
 30
0.0
 10
-19.4584272873
 20
-1.6236274213
 30
0.0
 11
-18.9525354511
 21
-1.7841173126
 31
0.0
 11
-18.9607504588
 21
-1.7655058918
 31
0.0
 11
-18.9717609771
 21
-1.7551057693
 31
0.0
 11
-18.9878047702
 21
-1.7440876181
 31
0.0
 11
-19.0352217789
 21
-1.7207246924
 31
0.0
 11
-19.1012375881
 21
-1.6968746052
 31
0.0
 11
-19.182627427
 21
-1.6740587044
 31
0.0
 11
-19.2733788696
 21
-1.65362899
 31
0.0
 11
-19.4584272873
 21
-1.6236274213
 31
0.0
  0
SPLINE
  5
72E
100
AcDbEntity
  8
0
100
AcDbSpline
 62
253
  6
CONTINUOUS
 70
0
 71
3
 72
22
 73
18
 74
16
 42
0.0000001
 43
0.0000001
 44
0.0000000001
 12
-0.0700976033
 22
-0.5036362363
 32
0.0
 13
-0.5036306923
 23
0.0701374244
 33
0.0
 40
0.0
 40
0.0
 40
0.0
 40
0.0
 40
0.0010347016
 40
0.0041318223
 40
0.0093763652
 40
0.016843875
 40
0.0266088245
 40
0.038745394
 40
0.0704295899
 40
0.1122874859
 40
0.1639054745
 40
0.2246687262
 40
0.2939623539
 40
0.4543543495
 40
0.633528002
 40
0.81901547
 40
1.0
 40
1.0
 40
1.0
 40
1.0
 10
-19.0327554619
 20
-2.3719360536
 30
0.0
 10
-19.0327796386
 20
-2.372109758
 30
0.0
 10
-19.0338452572
 20
-2.3717795693
 30
0.0
 10
-19.0350751387
 20
-2.371953146
 30
0.0
 10
-19.0379469935
 20
-2.3715106026
 30
0.0
 10
-19.0416406604
 20
-2.3711695471
 30
0.0
 10
-19.0466217156
 20
-2.3705593002
 30
0.0
 10
-19.0556201287
 20
-2.3694812367
 30
0.0
 10
-19.0700409456
 20
-2.3676565951
 30
0.0
 10
-19.0910750406
 20
-2.3649445676
 30
0.0
 10
-19.1169978599
 20
-2.3615409057
 30
0.0
 10
-19.147522644
 20
-2.3574885548
 30
0.0
 10
-19.1963170682
 20
-2.3509501643
 30
0.0
 10
-19.2649895023
 20
-2.3416429101
 30
0.0
 10
-19.3531632569
 20
-2.3295804813
 30
0.0
 10
-19.4447813727
 20
-2.3169451263
 30
0.0
 10
-19.5063073002
 20
-2.3084041707
 30
0.0
 10
-19.5366904215
 20
-2.3041729077
 30
0.0
 11
-19.0327554619
 21
-2.3719360536
 31
0.0
 11
-19.0332805094
 21
-2.371969888
 31
0.0
 11
-19.0348515231
 21
-2.3718599161
 31
0.0
 11
-19.0375056853
 21
-2.371600567
 31
0.0
 11
-19.0412801779
 21
-2.3711862696
 31
0.0
 11
-19.0462121833
 21
-2.370611453
 31
0.0
 11
-19.0523388835
 21
-2.3698705462
 31
0.0
 11
-19.0683250968
 21
-2.3678681778
 31
0.0
 11
-19.0894349986
 21
-2.3651485758
 31
0.0
 11
-19.1154596329
 21
-2.3617370736
 31
0.0
 11
-19.1460887521
 21
-2.3576729862
 31
0.0
 11
-19.1810121087
 21
-2.3529956286
 31
0.0
 11
-19.2618327916
 21
-2.3420545623
 31
0.0
 11
-19.3521007314
 21
-2.3297094249
 31
0.0
 11
-19.4455355167
 21
-2.3168268472
 31
0.0
 11
-19.5366904215
 21
-2.3041729077
 31
0.0
  0
SPLINE
  5
72F
100
AcDbEntity
  8
0
100
AcDbSpline
 62
253
  6
CONTINUOUS
 70
0
 71
3
 72
11
 73
7
 74
5
 42
0.0000001
 43
0.0000001
 44
0.0000000001
 12
-0.0006143163
 22
0.5564255037
 32
0.0
 13
-0.1164375517
 23
0.544106621
 33
0.0
 40
0.0
 40
0.0
 40
0.0
 40
0.0
 40
0.2501373487
 40
0.5002523188
 40
0.7503603633
 40
1.0
 40
1.0
 40
1.0
 40
1.0
 10
-18.6406635889
 20
12.0578691767
 30
0.0
 10
-18.6407148101
 20
12.1042634435
 30
0.0
 10
-18.641199405
 20
12.1970453474
 30
0.0
 10
-18.6443787822
 20
12.336210993
 30
0.0
 10
-18.6509271379
 20
12.4750870574
 30
0.0
 10
-18.6614030931
 20
12.5675166443
 30
0.0
 10
-18.6710922358
 20
12.6127935041
 30
0.0
 11
-18.6406635889
 21
12.0578691767
 31
0.0
 11
-18.6416082235
 21
12.1970488562
 31
0.0
 11
-18.6449410285
 21
12.336179377
 31
0.0
 11
-18.6524620411
 21
12.4751425779
 31
0.0
 11
-18.6710922358
 21
12.6127935041
 31
0.0
  0
LINE
  5
730
100
AcDbEntity
  8
0
100
AcDbLine
 62
253
  6
CONTINUOUS
 10
-18.6303648154
 20
12.0567187121
 11
-18.6407788538
 21
12.0571491205
  0
LINE
  5
731
100
AcDbEntity
  8
0
100
AcDbLine
 62
253
  6
CONTINUOUS
 10
-17.8919009717
 20
12.0261982754
 11
-17.9250417713
 21
12.0275679723
  0
LINE
  5
732
100
AcDbEntity
  8
0
100
AcDbLine
 62
253
  6
CONTINUOUS
 10
-17.9250417713
 20
12.0275679723
 11
-18.6303648154
 21
12.0567187121
  0
SPLINE
  5
733
100
AcDbEntity
  8
0
100
AcDbSpline
 62
7
  6
CONTINUOUS
 70
0
 71
3
 72
11
 73
7
 74
5
 42
0.0000001
 43
0.0000001
 44
0.0000000001
 12
-1.5335984976
 22
0.0728899013
 32
0.0
 13
-0.0802431281
 23
1.5332313361
 33
0.0
 40
0.0
 40
0.0
 40
0.0
 40
0.0
 40
0.2913998227
 40
0.5509929582
 40
0.7830747713
 40
1.0
 40
1.0
 40
1.0
 40
1.0
 10
-36.2043081917
 20
16.8338704652
 30
0.0
 10
-36.3532716351
 20
16.8409505
 30
0.0
 10
-36.6349476078
 20
16.921458016
 30
0.0
 10
-36.9543968741
 20
17.1772721562
 30
0.0
 10
-37.1464566995
 20
17.492646666
 30
0.0
 10
-37.1971354735
 20
17.7216344806
 30
0.0
 10
-37.2029377265
 20
17.8325
 30
0.0
 11
-36.2043081917
 21
16.8338704652
 31
0.0
 11
-36.6352922103
 21
16.9539324701
 31
0.0
 11
-36.9468563499
 21
17.2024856804
 31
0.0
 11
-37.1315906928
 21
17.507180055
 31
0.0
 11
-37.2029377265
 21
17.8325
 31
0.0
  0
SPLINE
  5
734
100
AcDbEntity
  8
0
100
AcDbSpline
 62
7
  6
CONTINUOUS
 70
0
 71
3
 72
13
 73
9
 74
7
 42
0.0000001
 43
0.0000001
 44
0.0000000001
 12
0.1107838229
 22
-3.7955549527
 32
0.0
 13
1.3024190369
 23
-3.566821429
 33
0.0
 40
0.0
 40
0.0
 40
0.0
 40
0.0
 40
0.1158482848
 40
0.2355773767
 40
0.3584846881
 40
0.4839428725
 40
0.7401315445
 40
1.0
 40
1.0
 40
1.0
 40
1.0
 10
-37.2029377265
 20
3.6492319078
 30
0.0
 10
-37.1986596878
 20
3.5026623974
 30
0.0
 10
-37.1705950201
 20
3.2051150211
 30
0.0
 10
-37.0893965484
 20
2.7583921262
 30
0.0
 10
-36.9787625715
 20
2.3055960467
 30
0.0
 10
-36.801168236
 20
1.6920317257
 30
0.0
 10
-36.5411698684
 20
0.9225051444
 30
0.0
 10
-36.3171273996
 20
0.3089681253
 30
0.0
 10
-36.2043081917
 20
0.0
 30
0.0
 11
-37.2029377265
 21
3.6492319078
 31
0.0
 11
-37.1649402979
 21
3.2109802651
 31
0.0
 11
-37.0857412997
 21
2.7632999489
 31
0.0
 11
-36.976401514
 21
2.3095887877
 31
0.0
 11
-36.8449847109
 21
1.8516876405
 31
0.0
 11
-36.5389914456
 21
0.9282738845
 31
0.0
 11
-36.2043081917
 21
0.0
 31
0.0
  0
SPLINE
  5
735
100
AcDbEntity
  8
0
100
AcDbSpline
 62
253
  6
CONTINUOUS
 70
0
 71
3
 72
9
 73
5
 74
3
 42
0.0000001
 43
0.0000001
 44
0.0000000001
 12
0.12325579
 22
-0.5583576821
 32
0.0
 13
0.0080069862
 23
-0.5717439804
 33
0.0
 40
0.0
 40
0.0
 40
0.0
 40
0.0
 40
0.5818406477
 40
1.0
 40
1.0
 40
1.0
 40
1.0
 10
-17.9405965834
 20
12.7782390543
 30
0.0
 10
-17.9166915072
 20
12.6699473225
 30
0.0
 10
-17.8985966135
 20
12.4790827577
 30
0.0
 10
-17.8938454199
 20
12.2887150921
 30
0.0
 10
-17.8927293545
 20
12.2090217279
 30
0.0
 11
-17.9405965834
 21
12.7782390543
 31
0.0
 11
-17.9001521746
 21
12.448010018
 31
0.0
 11
-17.8927293545
 21
12.2090217279
 31
0.0
  0
SPLINE
  5
736
100
AcDbEntity
  8
0
100
AcDbSpline
 62
253
  6
CONTINUOUS
 70
0
 71
3
 72
12
 73
8
 74
6
 42
0.0000001
 43
0.0000001
 44
0.0000000001
 12
0.0
 22
-1.5147055873
 32
0.0
 13
1.5128132461
 23
-0.0756908101
 33
0.0
 40
0.0
 40
0.0
 40
0.0
 40
0.0
 40
0.2498925791
 40
0.4996636529
 40
0.7493185806
 40
0.8747084923
 40
1.0
 40
1.0
 40
1.0
 40
1.0
 10
-37.1505299472
 20
17.8325
 30
0.0
 10
-37.1505299472
 20
17.7063287714
 30
0.0
 10
-37.1016406628
 20
17.4514357075
 30
0.0
 10
-36.8925525497
 20
17.1257606353
 30
0.0
 10
-36.628751535
 20
16.9377523028
 30
0.0
 10
-36.3888104946
 20
16.8549044564
 30
0.0
 10
-36.2626150436
 20
16.8367918077
 30
0.0
 10
-36.1994341594
 20
16.8336306691
 30
0.0
 11
-37.1505299472
 21
17.8325
 31
0.0
 11
-37.0789838402
 21
17.4608095846
 31
0.0
 11
-36.8746363316
 21
17.1424145265
 31
0.0
 11
-36.5667546944
 21
16.9228487532
 31
0.0
 11
-36.3872674306
 21
16.8607418202
 31
0.0
 11
-36.1994341594
 21
16.8336306691
 31
0.0
  0
SPLINE
  5
737
100
AcDbEntity
  8
0
100
AcDbSpline
 62
7
  6
CONTINUOUS
 70
0
 71
3
 72
9
 73
5
 74
3
 42
0.0000001
 43
0.0000001
 44
0.0000000001
 12
0.0622748748
 22
0.0000855862
 32
0.0
 13
0.0622554933
 23
0.0015559284
 33
0.0
 40
0.0
 40
0.0
 40
0.0
 40
0.0
 40
0.5900860507
 40
1.0
 40
1.0
 40
1.0
 40
1.0
 10
-24.3970892027
 20
-8.213674365
 30
0.0
 10
-24.3848400244
 20
-8.2136575306
 30
0.0
 10
-24.3640606054
 20
-8.2133437535
 30
0.0
 10
-24.3433693886
 20
-8.2160188788
 30
0.0
 10
-24.3348629236
 20
-8.2158062799
 30
0.0
 11
-24.3970892027
 21
-8.213674365
 31
0.0
 11
-24.360347446
 21
-8.2143279601
 31
0.0
 11
-24.3348629236
 21
-8.2158062799
 31
0.0
  0
SPLINE
  5
738
100
AcDbEntity
  8
0
100
AcDbSpline
 62
253
  6
CONTINUOUS
 70
0
 71
3
 72
14
 73
10
 74
8
 42
0.0000001
 43
0.0000001
 44
0.0000000001
 12
-0.4054172513
 22
-0.2528455772
 32
0.0
 13
0.2507310995
 23
-0.4067283483
 33
0.0
 40
0.0
 40
0.0
 40
0.0
 40
0.0
 40
0.0235294515
 40
0.0786095801
 40
0.170558648
 40
0.2980213166
 40
0.4548673176
 40
0.6314697656
 40
1.0
 40
1.0
 40
1.0
 40
1.0
 10
-37.678523516
 20
18.8197584321
 30
0.0
 10
-37.6817032645
 20
18.8177753261
 30
0.0
 10
-37.6813804524
 20
18.8021549118
 30
0.0
 10
-37.6735941565
 20
18.7784165012
 30
0.0
 10
-37.6570229614
 20
18.7366166119
 30
0.0
 10
-37.6311815226
 20
18.6830937519
 30
0.0
 10
-37.5972235462
 20
18.6177942084
 30
0.0
 10
-37.5429473705
 20
18.5201253016
 30
0.0
 10
-37.4985195442
 20
18.4454701432
 30
0.0
 10
-37.4677188806
 20
18.3955062453
 30
0.0
 11
-37.678523516
 21
18.8197584321
 31
0.0
 11
-37.6812174196
 21
18.8088435582
 31
0.0
 11
-37.674973579
 21
18.7832776124
 31
0.0
 11
-37.6588467336
 21
18.7424111629
 31
0.0
 11
-37.632914102
 21
18.6873064392
 31
0.0
 11
-37.5984103438
 21
18.6207806818
 31
0.0
 11
-37.55754784
 21
18.5469539451
 31
0.0
 11
-37.4677188806
 21
18.3955062453
 31
0.0
  0
SPLINE
  5
739
100
AcDbEntity
  8
0
100
AcDbSpline
 62
253
  6
CONTINUOUS
 70
0
 71
3
 72
19
 73
15
 74
13
 42
0.0000001
 43
0.0000001
 44
0.0000000001
 12
0.6297384359
 22
3.1567760355
 32
0.0
 13
0.3800194842
 23
3.1964653334
 33
0.0
 40
0.0
 40
0.0
 40
0.0
 40
0.0
 40
0.0047904391
 40
0.0107465096
 40
0.0190343917
 40
0.0426023796
 40
0.0755528193
 40
0.1170987005
 40
0.166918135
 40
0.2905635696
 40
0.4406185115
 40
0.6134986148
 40
0.8014743192
 40
1.0
 40
1.0
 40
1.0
 40
1.0
 10
-19.9829698543
 20
-5.7872335571
 30
0.0
 10
-19.9819642798
 20
-5.782192776
 30
0.0
 10
-19.9808445302
 20
-5.7706925261
 30
0.0
 10
-19.9777952826
 20
-5.7505035229
 30
0.0
 10
-19.9723461889
 20
-5.7102948669
 30
0.0
 10
-19.9627087098
 20
-5.6414323291
 30
0.0
 10
-19.9483682521
 20
-5.5371903901
 30
0.0
 10
-19.9302190382
 20
-5.4050416165
 30
0.0
 10
-19.89910385
 20
-5.1764443974
 30
0.0
 10
-19.8527836254
 20
-4.8324143354
 30
0.0
 10
-19.7902262786
 20
-4.3573372998
 30
0.0
 10
-19.720322615
 20
-3.813608245
 30
0.0
 10
-19.6459743956
 20
-3.2180176348
 30
0.0
 10
-19.596146092
 20
-2.8063077936
 30
0.0
 10
-19.5709982164
 20
-2.5947809748
 30
0.0
 11
-19.9829698543
 21
-5.7872335571
 31
0.0
 11
-19.9808464012
 21
-5.7719601543
 31
0.0
 11
-19.9782088945
 21
-5.7529699914
 31
0.0
 11
-19.9745382887
 21
-5.726545219
 31
0.0
 11
-19.964128335
 21
-5.6513980418
 31
0.0
 11
-19.9496287409
 21
-5.546327113
 31
0.0
 11
-19.9314510674
 21
-5.4138330655
 31
0.0
 11
-19.9098095642
 21
-5.254932473
 31
0.0
 11
-19.8567377112
 21
-4.8604750418
 31
0.0
 11
-19.7936508856
 21
-4.3815893612
 31
0.0
 11
-19.7227118787
 21
-3.8296324523
 31
0.0
 11
-19.6477413897
 21
-3.2292055817
 31
0.0
 11
-19.5709982164
 21
-2.5947809748
 31
0.0
  0
LINE
  5
73A
100
AcDbEntity
  8
0
100
AcDbLine
 62
253
  6
CONTINUOUS
 10
-19.5709982164
 20
-2.5947809748
 11
-19.5638249088
 21
-2.5343390885
  0
LINE
  5
73B
100
AcDbEntity
  8
0
100
AcDbLine
 62
253
  6
CONTINUOUS
 10
-19.5638249088
 20
-2.5343390885
 11
-19.5366911084
 21
-2.3041728869
  0
LINE
  5
73C
100
AcDbEntity
  8
0
100
AcDbLine
 62
253
  6
CONTINUOUS
 10
-19.3850943004
 20
-0.9615305669
 11
-19.3624668471
 21
-0.7521298578
  0
LINE
  5
73D
100
AcDbEntity
  8
0
100
AcDbLine
 62
253
  6
CONTINUOUS
 10
-19.3624668471
 20
-0.7521298578
 11
-19.3606519134
 21
-0.7352288975
  0
LINE
  5
73E
100
AcDbEntity
  8
0
100
AcDbLine
 62
253
  6
CONTINUOUS
 10
-19.3228296786
 20
-0.3788142783
 11
-19.3203262521
 21
-0.3549698105
  0
LINE
  5
73F
100
AcDbEntity
  8
0
100
AcDbLine
 62
253
  6
CONTINUOUS
 10
-19.3203262521
 20
-0.3549698105
 11
-19.3009013898
 21
-0.1687937289
  0
LINE
  5
740
100
AcDbEntity
  8
0
100
AcDbLine
 62
253
  6
CONTINUOUS
 10
-19.2492962265
 20
0.3366128941
 11
-19.2472773702
 21
0.3567143755
  0
LINE
  5
741
100
AcDbEntity
  8
0
100
AcDbLine
 62
253
  6
CONTINUOUS
 10
-19.2472773702
 20
0.3567143755
 11
-19.1640302852
 21
1.2085023658
  0
SPLINE
  5
742
100
AcDbEntity
  8
0
100
AcDbSpline
 62
253
  6
CONTINUOUS
 70
0
 71
3
 72
9
 73
5
 74
3
 42
0.0000001
 43
0.0000001
 44
0.0000000001
 12
-0.014434912
 22
0.4780062836
 32
0.0
 13
-0.0059751956
 23
0.4781868577
 33
0.0
 40
0.0
 40
0.0
 40
0.0
 40
0.0
 40
0.2402099311
 40
1.0
 40
1.0
 40
1.0
 40
1.0
 10
-37.4205524196
 20
17.9397820262
 30
0.0
 10
-37.4217082227
 20
17.9780559784
 30
0.0
 10
-37.4264830688
 20
18.1373914952
 30
0.0
 10
-37.4303496136
 20
18.2967625797
 30
0.0
 10
-37.4318629117
 20
18.4178697882
 30
0.0
 11
-37.4205524196
 21
17.9397820262
 31
0.0
 11
-37.4239497439
 21
18.0546059777
 31
0.0
 11
-37.4318629117
 21
18.4178697882
 31
0.0
  0
SPLINE
  5
743
100
AcDbEntity
  8
0
100
AcDbSpline
 62
253
  6
CONTINUOUS
 70
0
 71
3
 72
14
 73
10
 74
8
 42
0.0000001
 43
0.0000001
 44
0.0000000001
 12
-0.0093192297
 22
0.5932177365
 32
0.0
 13
-0.5902371419
 23
0.0601186105
 33
0.0
 40
0.0
 40
0.0
 40
0.0
 40
0.0
 40
0.0628325388
 40
0.14363866
 40
0.2488636563
 40
0.3778072687
 40
0.5263078309
 40
0.6855492422
 40
1.0
 40
1.0
 40
1.0
 40
1.0
 10
-18.8770407659
 20
-1.2059829832
 30
0.0
 10
-18.8772359495
 20
-1.1935585244
 30
0.0
 10
-18.8853243605
 20
-1.165207789
 30
0.0
 10
-18.9161480119
 20
-1.1259079001
 30
0.0
 10
-18.965465599
 20
-1.0872508875
 30
0.0
 10
-19.0319506506
 20
-1.0505887691
 30
0.0
 10
-19.1123542572
 20
-1.0186027664
 30
0.0
 10
-19.2304396808
 20
-0.9836293577
 30
0.0
 10
-19.3232299114
 20
-0.9678317633
 30
0.0
 10
-19.3850967502
 20
-0.9615303158
 30
0.0
 11
-18.8770407659
 21
-1.2059829832
 31
0.0
 11
-18.8861687852
 21
-1.1698398411
 31
0.0
 11
-18.9142719659
 21
-1.1309991099
 31
0.0
 11
-18.9625633963
 21
-1.0914349555
 31
0.0
 11
-19.0291749927
 21
-1.0538143513
 31
0.0
 11
-19.1107826964
 21
-1.020610375
 31
0.0
 11
-19.2013090752
 21
-0.9935774127
 31
0.0
 11
-19.3850967502
 21
-0.9615303158
 31
0.0
  0
SPLINE
  5
744
100
AcDbEntity
  8
0
100
AcDbSpline
 62
253
  6
CONTINUOUS
 70
0
 71
3
 72
12
 73
8
 74
6
 42
0.0000001
 43
0.0000001
 44
0.0000000001
 12
0.0380662233
 22
0.1736565669
 32
0.0
 13
0.1769696539
 23
0.0169523503
 33
0.0
 40
0.0
 40
0.0
 40
0.0
 40
0.0
 40
0.1205976728
 40
0.2159359679
 40
0.3365460962
 40
0.6424030465
 40
1.0
 40
1.0
 40
1.0
 40
1.0
 10
-37.4318628641
 20
18.4178700053
 30
0.0
 10
-37.4303326314
 20
18.4248508646
 30
0.0
 10
-37.4194218238
 20
18.4343514753
 30
0.0
 10
-37.4020594074
 20
18.4432855957
 30
0.0
 10
-37.3728122905
 20
18.4540905579
 30
0.0
 10
-37.3274414264
 20
18.4642354492
 30
0.0
 10
-37.2883951586
 20
18.4693617786
 30
0.0
 10
-37.2673005555
 20
18.4713824816
 30
0.0
 11
-37.4318628641
 21
18.4178700053
 31
0.0
 11
-37.4180739881
 21
18.4342874648
 31
0.0
 11
-37.403175464
 21
18.4423689243
 31
0.0
 11
-37.3831333905
 21
18.4499897063
 31
0.0
 11
-37.3302962938
 21
18.4628310715
 31
0.0
 11
-37.2673005555
 21
18.4713824816
 31
0.0
  0
SPLINE
  5
745
100
AcDbEntity
  8
0
100
AcDbSpline
 62
253
  6
CONTINUOUS
 70
0
 71
3
 72
9
 73
5
 74
3
 42
0.0000001
 43
0.0000001
 44
0.0000000001
 12
0.7309914236
 22
0.1632381398
 32
0.0
 13
0.7308470461
 23
0.1638833331
 33
0.0
 40
0.0
 40
0.0
 40
0.0
 40
0.0
 40
0.6892933508
 40
1.0
 40
1.0
 40
1.0
 40
1.0
 10
-18.6710912439
 20
12.6127937242
 30
0.0
 10
-18.5031354013
 20
12.6503000457
 30
0.0
 10
-18.2595552642
 20
12.7050914804
 30
0.0
 10
-18.016289615
 20
12.7612658361
 30
0.0
 10
-17.9405966027
 20
12.7782390499
 30
0.0
 11
-18.6710912439
 21
12.6127937242
 31
0.0
 11
-18.1674884847
 21
12.7264918497
 31
0.0
 11
-17.9405966027
 21
12.7782390499
 31
0.0
  0
SPLINE
  5
746
100
AcDbEntity
  8
0
100
AcDbSpline
 62
253
  6
CONTINUOUS
 70
0
 71
3
 72
9
 73
5
 74
3
 42
0.0000001
 43
0.0000001
 44
0.0000000001
 12
0.0317538716
 22
-0.2261323314
 32
0.0
 13
0.0527463293
 23
-0.2221755261
 33
0.0
 40
0.0
 40
0.0
 40
0.0
 40
0.0
 40
0.3060695913
 40
1.0
 40
1.0
 40
1.0
 40
1.0
 10
-17.9789702278
 20
13.0032841338
 30
0.0
 10
-17.9757305963
 20
12.9802133904
 30
0.0
 10
-17.9652791776
 20
12.9048382938
 30
0.0
 10
-17.9527930349
 20
12.8296122882
 30
0.0
 10
-17.9405922743
 20
12.7782208369
 30
0.0
 11
-17.9789702278
 21
13.0032841338
 31
0.0
 11
-17.9691422633
 21
12.934087307
 31
0.0
 11
-17.9405922743
 21
12.7782208369
 31
0.0
  0
SPLINE
  5
747
100
AcDbEntity
  8
0
100
AcDbSpline
 62
253
  6
CONTINUOUS
 70
0
 71
3
 72
12
 73
8
 74
6
 42
0.0000001
 43
0.0000001
 44
0.0000000001
 12
-0.1769698439
 22
0.0169522847
 32
0.0
 13
-0.0380663477
 23
0.1736567268
 33
0.0
 40
0.0
 40
0.0
 40
0.0
 40
0.0
 40
0.3575970145
 40
0.6634540539
 40
0.7840642011
 40
0.8794024818
 40
1.0
 40
1.0
 40
1.0
 40
1.0
 10
-37.2673003264
 20
-18.4713828459
 30
0.0
 10
-37.2883949557
 20
-18.4693621505
 30
0.0
 10
-37.3274412754
 20
-18.4642358355
 30
0.0
 10
-37.3728122021
 20
-18.4540909658
 30
0.0
 10
-37.4020593666
 20
-18.4432860209
 30
0.0
 10
-37.4194218014
 20
-18.4343519177
 30
0.0
 10
-37.4303326341
 20
-18.424851323
 30
0.0
 10
-37.4318628698
 20
-18.4178704662
 30
0.0
 11
-37.2673003264
 21
-18.4713828459
 31
0.0
 11
-37.330296145
 21
-18.4628314605
 31
0.0
 11
-37.3831333215
 21
-18.4499901198
 31
0.0
 11
-37.4031754268
 21
-18.4423693498
 31
0.0
 11
-37.4180739743
 21
-18.4342879021
 31
0.0
 11
-37.4318628698
 21
-18.4178704662
 31
0.0
  0
SPLINE
  5
748
100
AcDbEntity
  8
0
100
AcDbSpline
 62
253
  6
CONTINUOUS
 70
0
 71
3
 72
9
 73
5
 74
3
 42
0.0000001
 43
0.0000001
 44
0.0000000001
 12
-0.0709547967
 22
0.2580692159
 32
0.0
 13
0.0026187688
 23
0.2676330425
 33
0.0
 40
0.0
 40
0.0
 40
0.0
 40
0.0
 40
0.2527135808
 40
1.0
 40
1.0
 40
1.0
 40
1.0
 10
-37.3971756885
 20
-18.6827703811
 30
0.0
 10
-37.4031527688
 20
-18.6610311825
 30
0.0
 10
-37.4238433141
 20
-18.5742229903
 30
0.0
 10
-37.4325151933
 20
-18.4845366486
 30
0.0
 10
-37.4318628699
 20
-18.4178704693
 30
0.0
 11
-37.3971756885
 21
-18.6827703811
 31
0.0
 11
-37.4128427704
 21
-18.6169721537
 31
0.0
 11
-37.4318628699
 21
-18.4178704693
 31
0.0
  0
SPLINE
  5
749
100
AcDbEntity
  8
0
100
AcDbSpline
 62
253
  6
CONTINUOUS
 70
0
 71
3
 72
9
 73
5
 74
3
 42
0.0000001
 43
0.0000001
 44
0.0000000001
 12
0.0760538001
 22
-0.6858756289
 32
0.0
 13
0.0959606068
 23
-0.6833748026
 33
0.0
 40
0.0
 40
0.0
 40
0.0
 40
0.0
 40
0.5076051056
 40
1.0
 40
1.0
 40
1.0
 40
1.0
 10
-18.0614595508
 20
13.6884012849
 30
0.0
 10
-18.0485911184
 20
13.5723499612
 30
0.0
 10
-18.022729347
 20
13.3437863971
 30
0.0
 10
-17.9947204
 20
13.1154475549
 30
0.0
 10
-17.9789702291
 20
13.0032841336
 30
0.0
 11
-18.0614595508
 21
13.6884012849
 31
0.0
 11
-18.0217827364
 21
13.3403677995
 31
0.0
 11
-17.9789702291
 21
13.0032841336
 31
0.0
  0
SPLINE
  5
74A
100
AcDbEntity
  8
0
100
AcDbSpline
 62
7
  6
CONTINUOUS
 70
0
 71
3
 72
9
 73
5
 74
3
 42
0.0000001
 43
0.0000001
 44
0.0000000001
 12
0.2615119626
 22
-0.1928050529
 32
0.0
 13
0.1163913321
 23
-0.3033403251
 33
0.0
 40
0.0
 40
0.0
 40
0.0
 40
0.0
 40
0.5199450981
 40
1.0
 40
1.0
 40
1.0
 40
1.0
 10
-18.7589514807
 20
-0.2495067952
 30
0.0
 10
-18.7136275264
 20
-0.2829228093
 30
0.0
 10
-18.6334529558
 20
-0.3577563521
 30
0.0
 10
-18.5774495755
 20
-0.4527352244
 30
0.0
 10
-18.5588248323
 20
-0.5012752277
 30
0.0
 11
-18.7589514807
 21
-0.2495067952
 31
0.0
 11
-18.6367892862
 21
-0.3661876237
 31
0.0
 11
-18.5588248323
 21
-0.5012752277
 31
0.0
  0
LINE
  5
74B
100
AcDbEntity
  8
0
100
AcDbLine
 62
253
  6
CONTINUOUS
 10
-18.8062888553
 20
13.6096416539
 11
-18.0614596442
 21
13.6884012786
  0
LINE
  5
74C
100
AcDbEntity
  8
0
100
AcDbLine
 62
7
  6
CONTINUOUS
 10
-18.838677931
 20
13.93150348
 11
-18.0906119017
 21
13.9780976837
  0
SPLINE
  5
74D
100
AcDbEntity
  8
0
100
AcDbSpline
 62
7
  6
CONTINUOUS
 70
0
 71
3
 72
12
 73
8
 74
6
 42
0.0000001
 43
0.0000001
 44
0.0000000001
 12
-0.0229081517
 22
0.1065209846
 32
0.0
 13
-0.1089564297
 23
0.0000008981
 33
0.0
 40
0.0
 40
0.0
 40
0.0
 40
0.0
 40
0.400480649
 40
0.6948758299
 40
0.8036253844
 40
0.8883815219
 40
1.0
 40
1.0
 40
1.0
 40
1.0
 10
-38.6302753282
 20
7.4030376855
 30
0.0
 10
-38.6333334187
 20
7.4172575499
 30
0.0
 10
-38.6392171225
 20
7.4418243026
 30
0.0
 10
-38.6480925124
 20
7.4696498469
 30
0.0
 10
-38.6558717505
 20
7.4857322089
 30
0.0
 10
-38.6617289051
 20
7.4948729206
 30
0.0
 10
-38.6681994941
 20
7.4999999377
 30
0.0
 10
-38.6722533444
 20
7.4999999711
 30
0.0
 11
-38.6302753282
 21
7.4030376855
 31
0.0
 11
-38.6407101565
 21
7.4454065714
 31
0.0
 11
-38.6511962495
 21
7.4757203889
 31
0.0
 11
-38.6564530407
 21
7.4863394319
 31
0.0
 11
-38.6617164026
 21
7.4939273953
 31
0.0
 11
-38.6722533444
 21
7.4999999711
 31
0.0
  0
SPLINE
  5
74E
100
AcDbEntity
  8
0
100
AcDbSpline
 62
7
  6
CONTINUOUS
 70
0
 71
3
 72
12
 73
8
 74
6
 42
0.0000001
 43
0.0000001
 44
0.0000000001
 12
0.1089564131
 22
0.0000008983
 32
0.0
 13
0.0229081482
 23
0.1065209683
 33
0.0
 40
0.0
 40
0.0
 40
0.0
 40
0.0
 40
0.1116183983
 40
0.1963744729
 40
0.3051240332
 40
0.5995192973
 40
1.0
 40
1.0
 40
1.0
 40
1.0
 10
-38.6722533444
 20
-7.4999999422
 30
0.0
 10
-38.6681994977
 20
-7.4999999087
 30
0.0
 10
-38.6617289043
 20
-7.4948729159
 30
0.0
 10
-38.6558717483
 20
-7.4857322089
 30
0.0
 10
-38.6480925121
 20
-7.4696498492
 30
0.0
 10
-38.6392171235
 20
-7.4418243028
 30
0.0
 10
-38.6333334186
 20
-7.4172575496
 30
0.0
 10
-38.6302753282
 20
-7.4030376855
 30
0.0
 11
-38.6722533444
 21
-7.4999999422
 31
0.0
 11
-38.6617164026
 21
-7.4939273875
 31
0.0
 11
-38.6564530407
 21
-7.4863394342
 31
0.0
 11
-38.6511962495
 21
-7.4757203925
 31
0.0
 11
-38.6407101565
 21
-7.4454065706
 31
0.0
 11
-38.6302753282
 21
-7.4030376855
 31
0.0
  0
SPLINE
  5
74F
100
AcDbEntity
  8
0
100
AcDbSpline
 62
253
  6
CONTINUOUS
 70
0
 71
3
 72
9
 73
5
 74
3
 42
0.0000001
 43
0.0000001
 44
0.0000000001
 12
0.0059752128
 22
0.4781893563
 32
0.0
 13
0.0144349874
 23
0.4780087811
 33
0.0
 40
0.0
 40
0.0
 40
0.0
 40
0.0
 40
0.2612226999
 40
1.0
 40
1.0
 40
1.0
 40
1.0
 10
-37.4318629174
 20
-18.417870249
 30
0.0
 10
-37.4313426304
 20
-18.3762322775
 30
0.0
 10
-37.4287254792
 20
-18.2168430326
 30
0.0
 10
-37.4241071667
 20
-18.0574960385
 30
0.0
 10
-37.4205524196
 20
-17.9397820262
 30
0.0
 11
-37.4318629174
 21
-18.417870249
 31
0.0
 11
-37.4298387579
 21
-18.2929629828
 31
0.0
 11
-37.4205524196
 21
-17.9397820262
 31
0.0
  0
SPLINE
  5
750
100
AcDbEntity
  8
0
100
AcDbSpline
 62
253
  6
CONTINUOUS
 70
0
 71
3
 72
11
 73
7
 74
5
 42
0.0000001
 43
0.0000001
 44
0.0000000001
 12
-0.0023595428
 22
1.5569195092
 32
0.0
 13
-1.5569194829
 23
0.0023768792
 33
0.0
 40
0.0
 40
0.0
 40
0.0
 40
0.0
 40
0.2503890946
 40
0.5005968885
 40
0.7504552924
 40
1.0
 40
1.0
 40
1.0
 40
1.0
 10
-33.6110654617
 20
17.849847672
 30
0.0
 10
-33.6112623963
 20
17.9797928941
 30
0.0
 10
-33.6633771088
 20
18.2423234067
 30
0.0
 10
-33.8849958082
 20
18.5743495509
 30
0.0
 10
-34.2158223571
 20
18.7970587009
 30
0.0
 10
-34.4777531541
 20
18.8494976546
 30
0.0
 10
-34.6072601598
 20
18.8496953671
 30
0.0
 11
-33.6110654617
 21
17.849847672
 31
0.0
 11
-33.6873427493
 21
18.2321485629
 31
0.0
 11
-33.9033792586
 21
18.5563096698
 31
0.0
 11
-34.2263560256
 21
18.7731383745
 31
0.0
 11
-34.6072601598
 21
18.8496953671
 31
0.0
  0
SPLINE
  5
751
100
AcDbEntity
  8
0
100
AcDbSpline
 62
7
  6
CONTINUOUS
 70
0
 71
3
 72
13
 73
9
 74
7
 42
0.0000001
 43
0.0000001
 44
0.0000000001
 12
1.5163294473
 22
0.1321568192
 32
0.0
 13
0.1321568192
 23
1.5163294473
 33
0.0
 40
0.0
 40
0.0
 40
0.0
 40
0.0
 40
0.1482525177
 40
0.2907077661
 40
0.4249557974
 40
0.551170257
 40
0.7837335794
 40
1.0
 40
1.0
 40
1.0
 40
1.0
 10
-34.5197714963
 20
16.8363053019
 30
0.0
 10
-34.4448382769
 20
16.8428361623
 30
0.0
 10
-34.2988715655
 20
16.8721302861
 30
0.0
 10
-34.0994892659
 20
16.9575884802
 30
0.0
 10
-33.9291125675
 20
17.0726716467
 30
0.0
 10
-33.7485589489
 20
17.2472387387
 30
0.0
 10
-33.5901799764
 20
17.498312215
 30
0.0
 10
-33.5331038256
 20
17.7231896193
 30
0.0
 10
-33.5235767982
 20
17.8325
 30
0.0
 11
-34.5197714963
 21
16.8363053019
 31
0.0
 11
-34.2984499447
 21
16.8802999196
 31
0.0
 11
-34.0990361613
 21
16.9654380644
 31
0.0
 11
-33.9296348152
 21
17.0797024779
 31
0.0
 11
-33.7915369149
 21
17.2132484784
 31
0.0
 11
-33.6035566393
 21
17.5131899044
 31
0.0
 11
-33.5235767982
 21
17.8325
 31
0.0
  0
SPLINE
  5
752
100
AcDbEntity
  8
0
100
AcDbSpline
 62
253
  6
CONTINUOUS
 70
0
 71
3
 72
8
 73
4
 74
2
 42
0.0000001
 43
0.0000001
 44
0.0000000001
 12
-0.0874258432
 22
0.0078285835
 32
0.0
 13
-0.0873958346
 23
0.0
 33
0.0
 40
0.0
 40
0.0
 40
0.0
 40
0.0
 40
1.0
 40
1.0
 40
1.0
 40
1.0
 10
-34.519782275
 20
-16.8364256732
 30
0.0
 10
-34.5489242227
 20
-16.8338161453
 30
0.0
 10
-34.5781282149
 20
-16.8325
 30
0.0
 10
-34.6072601598
 20
-16.8325
 30
0.0
 11
-34.519782275
 21
-16.8364256732
 31
0.0
 11
-34.6072601598
 21
-16.8325
 31
0.0
  0
SPLINE
  5
753
100
AcDbEntity
  8
0
100
AcDbSpline
 62
7
  6
CONTINUOUS
 70
0
 71
3
 72
13
 73
9
 74
7
 42
0.0000001
 43
0.0000001
 44
0.0000000001
 12
1.5163294473
 22
-0.1321568192
 32
0.0
 13
0.1321568192
 23
-1.5163294473
 33
0.0
 40
0.0
 40
0.0
 40
0.0
 40
0.0
 40
0.1482525177
 40
0.2907077661
 40
0.4249557974
 40
0.551170257
 40
0.7837335794
 40
1.0
 40
1.0
 40
1.0
 40
1.0
 10
-34.5197714963
 20
-16.8363053019
 30
0.0
 10
-34.4448382769
 20
-16.8428361623
 30
0.0
 10
-34.2988715655
 20
-16.8721302861
 30
0.0
 10
-34.0994892659
 20
-16.9575884802
 30
0.0
 10
-33.9291125675
 20
-17.0726716467
 30
0.0
 10
-33.7485589489
 20
-17.2472387387
 30
0.0
 10
-33.5901799764
 20
-17.498312215
 30
0.0
 10
-33.5331038256
 20
-17.7231896193
 30
0.0
 10
-33.5235767982
 20
-17.8325
 30
0.0
 11
-34.5197714963
 21
-16.8363053019
 31
0.0
 11
-34.2984499447
 21
-16.8802999196
 31
0.0
 11
-34.0990361613
 21
-16.9654380644
 31
0.0
 11
-33.9296348152
 21
-17.0797024779
 31
0.0
 11
-33.7915369149
 21
-17.2132484784
 31
0.0
 11
-33.6035566393
 21
-17.5131899044
 31
0.0
 11
-33.5235767982
 21
-17.8325
 31
0.0
  0
SPLINE
  5
754
100
AcDbEntity
  8
0
100
AcDbSpline
 62
253
  6
CONTINUOUS
 70
0
 71
3
 72
11
 73
7
 74
5
 42
0.0000001
 43
0.0000001
 44
0.0000000001
 12
1.5569194829
 22
0.0023768792
 32
0.0
 13
0.0023595428
 23
1.5569195092
 33
0.0
 40
0.0
 40
0.0
 40
0.0
 40
0.0
 40
0.2495447076
 40
0.4994031115
 40
0.7496109054
 40
1.0
 40
1.0
 40
1.0
 40
1.0
 10
-34.6072601598
 20
-18.8496953671
 30
0.0
 10
-34.4777531541
 20
-18.8494976546
 30
0.0
 10
-34.2158223571
 20
-18.7970587009
 30
0.0
 10
-33.8849958082
 20
-18.5743495509
 30
0.0
 10
-33.6633771088
 20
-18.2423234067
 30
0.0
 10
-33.6112623963
 20
-17.9797928941
 30
0.0
 10
-33.6110654617
 20
-17.849847672
 30
0.0
 11
-34.6072601598
 21
-18.8496953671
 31
0.0
 11
-34.2263560256
 21
-18.7731383745
 31
0.0
 11
-33.9033792586
 21
-18.5563096698
 31
0.0
 11
-33.6873427493
 21
-18.2321485629
 31
0.0
 11
-33.6110654617
 21
-17.849847672
 31
0.0
  0
SPLINE
  5
755
100
AcDbEntity
  8
0
100
AcDbSpline
 62
253
  6
CONTINUOUS
 70
0
 71
3
 72
8
 73
4
 74
2
 42
0.0000001
 43
0.0000001
 44
0.0000000001
 12
-0.036006422
 22
-0.0018015147
 32
0.0
 13
-0.035954558
 23
-0.0030761986
 33
0.0
 40
0.0
 40
0.0
 40
0.0
 40
0.0
 40
1.0
 40
1.0
 40
1.0
 40
1.0
 10
-36.1994341594
 20
-16.8336306691
 30
0.0
 10
-36.2114363001
 20
-16.834231174
 30
0.0
 10
-36.223434546
 20
-16.8350442878
 30
0.0
 10
-36.2354193987
 20
-16.8360696873
 30
0.0
 11
-36.1994341594
 21
-16.8336306691
 31
0.0
 11
-36.2354193987
 21
-16.8360696873
 31
0.0
  0
SPLINE
  5
756
100
AcDbEntity
  8
0
100
AcDbSpline
 62
253
  6
CONTINUOUS
 70
0
 71
3
 72
8
 73
4
 74
2
 42
0.0000001
 43
0.0000001
 44
0.0000000001
 12
0.0873958346
 22
0.0
 32
0.0
 13
0.0874258432
 23
0.0078285835
 33
0.0
 40
0.0
 40
0.0
 40
0.0
 40
0.0
 40
1.0
 40
1.0
 40
1.0
 40
1.0
 10
-34.6072601598
 20
16.8325
 30
0.0
 10
-34.5781282149
 20
16.8325
 30
0.0
 10
-34.5489242227
 20
16.8338161453
 30
0.0
 10
-34.519782275
 20
16.8364256732
 30
0.0
 11
-34.6072601598
 21
16.8325
 31
0.0
 11
-34.519782275
 21
16.8364256732
 31
0.0
  0
SPLINE
  5
757
100
AcDbEntity
  8
0
100
AcDbSpline
 62
253
  6
CONTINUOUS
 70
0
 71
3
 72
11
 73
7
 74
5
 42
0.0000001
 43
0.0000001
 44
0.0000000001
 12
0.0
 22
1.4703578959
 32
0.0
 13
-1.4708627651
 23
0.1317090184
 33
0.0
 40
0.0
 40
0.0
 40
0.0
 40
0.0
 40
0.2653454236
 40
0.5303789183
 40
0.7950260344
 40
1.0
 40
1.0
 40
1.0
 40
1.0
 10
-33.6110654617
 20
-17.8325
 30
0.0
 10
-33.6110654617
 20
-17.7024490871
 30
0.0
 10
-33.6628435104
 20
-17.4396694848
 30
0.0
 10
-33.8843960702
 20
-17.1073041258
 30
0.0
 10
-34.190727192
 20
-16.9012825876
 30
0.0
 10
-34.4192860837
 20
-16.8454246464
 30
0.0
 10
-34.519782275
 20
-16.8364256732
 30
0.0
 11
-33.6110654617
 21
-17.8325
 31
0.0
 11
-33.6869083117
 21
-17.4497898986
 31
0.0
 11
-33.9028441334
 21
-17.1253932188
 31
0.0
 11
-34.2260063859
 21
-16.9086325574
 31
0.0
 11
-34.519782275
 21
-16.8364256732
 31
0.0
  0
ELLIPSE
  5
758
100
AcDbEntity
  8
ASSI
100
AcDbEllipse
 62
7
  6
CONTINUOUS
 10
10.649923836
 20
-21.899313827
 30
0.0
 11
-0.1582391023
 21
0.4751033573
 31
0.0
 40
0.9984778551
 41
-3.4626430041
 42
-1.8927600658
  0
ELLIPSE
  5
759
100
AcDbEntity
  8
ASSI
100
AcDbEllipse
 62
7
  6
CONTINUOUS
 10
10.649923836
 20
21.899313827
 30
0.0
 11
0.1582391023
 21
0.4751033573
 31
0.0
 40
0.9984778551
 41
-1.2488325878
 42
0.3210503505
  0
ELLIPSE
  5
75A
100
AcDbEntity
  8
ASSI
100
AcDbEllipse
 62
7
  6
CONTINUOUS
 10
-10.649923836
 20
-21.899313827
 30
0.0
 11
0.1582391023
 21
0.4751033573
 31
0.0
 40
0.9984778551
 41
-4.3904252414
 42
-2.8205423031
  0
ELLIPSE
  5
75B
100
AcDbEntity
  8
ASSI
100
AcDbEllipse
 62
7
  6
CONTINUOUS
 10
-10.649923836
 20
21.899313827
 30
0.0
 11
-0.1582391023
 21
0.4751033573
 31
0.0
 40
0.9984778551
 41
-0.3210503505
 42
1.2488325878
  0
ELLIPSE
  5
75C
100
AcDbEntity
  8
CURVE
100
AcDbEllipse
 62
253
  6
CONTINUOUS
 10
11.0862924688
 20
-12.659757
 30
0.0
 11
-0.0
 21
0.65
 31
0.0
 40
0.0174497484
 41
-1.5707963268
 42
1.5707963268
  0
ELLIPSE
  5
75D
100
AcDbEntity
  8
0
100
AcDbEllipse
 62
7
  6
CONTINUOUS
 10
-10.649923836
 20
21.899313827
 30
0.0
 11
-0.1582391023
 21
0.4751033573
 31
0.0
 40
0.9984778551
 41
-0.3210503505
 42
1.2488325878
  0
ELLIPSE
  5
75E
100
AcDbEntity
  8
0
100
AcDbEllipse
 62
7
  6
CONTINUOUS
 10
-10.649923836
 20
-21.899313827
 30
0.0
 11
0.1582391023
 21
0.4751033573
 31
0.0
 40
0.9984778551
 41
-4.3904252414
 42
-2.8205423031
  0
ELLIPSE
  5
75F
100
AcDbEntity
  8
0
100
AcDbEllipse
 62
7
  6
CONTINUOUS
 10
10.649923836
 20
21.899313827
 30
0.0
 11
0.1582391023
 21
0.4751033573
 31
0.0
 40
0.9984778551
 41
-1.2488325878
 42
0.3210503505
  0
ELLIPSE
  5
760
100
AcDbEntity
  8
0
100
AcDbEllipse
 62
7
  6
CONTINUOUS
 10
10.649923836
 20
-21.899313827
 30
0.0
 11
-0.1582391023
 21
0.4751033573
 31
0.0
 40
0.9984778551
 41
-3.4626430041
 42
-1.8927600658
  0
ELLIPSE
  5
761
100
AcDbEntity
  8
ASSI
100
AcDbEllipse
 62
7
  6
CONTINUOUS
 10
313.7930972108
 20
0.0
 30
0.0
 11
1427.1497290694
 21
0.0
 31
0.0
 40
0.0151169134
 41
1.8151898521
 42
1.8214348428
  0
ELLIPSE
  5
762
100
AcDbEntity
  8
ASSI
100
AcDbEllipse
 62
7
  6
CONTINUOUS
 10
313.7930972108
 20
0.0
 30
0.0
 11
1427.1497290694
 21
0.0
 31
0.0
 40
0.0151169134
 41
-1.8214348428
 42
-1.8151898521
  0
ELLIPSE
  5
763
100
AcDbEntity
  8
CURVE
100
AcDbEllipse
 62
253
  6
CONTINUOUS
 10
-43.8220553632
 20
-12.659757
 30
0.0
 11
0.0
 21
0.65
 31
0.0
 40
0.9996954135
 41
-1.5707963268
 42
1.5707963268
  0
ELLIPSE
  5
764
100
AcDbEntity
  8
0
100
AcDbEllipse
 62
7
  6
CONTINUOUS
 10
-22.8080627859
 20
-2.274567394
 30
0.0
 11
-0.0
 21
3.5000004375
 31
0.0
 40
0.0349207695
 41
-0.3926990817
 42
0.0
  0
ELLIPSE
  5
765
100
AcDbEntity
  8
0
100
AcDbEllipse
 62
7
  6
CONTINUOUS
 10
-22.8080627859
 20
-2.2746249404
 30
0.0
 11
-0.0
 21
3.5000004375
 31
0.0
 40
0.0349207695
 41
-3.1415926536
 42
-2.7488935719
  0
ELLIPSE
  5
766
100
AcDbEntity
  8
0
100
AcDbEllipse
 62
7
  6
CONTINUOUS
 10
-37.4153116417
 20
8.1240383277
 30
0.0
 11
-0.0
 21
1.0
 31
0.0
 40
0.0524077793
 41
-4.7123889804
 42
-3.4401248855
  0
ELLIPSE
  5
767
100
AcDbEntity
  8
0
100
AcDbEllipse
 62
7
  6
CONTINUOUS
 10
-37.4153116417
 20
-8.1240383277
 30
0.0
 11
-0.0
 21
1.0
 31
0.0
 40
0.0524077793
 41
0.298532232
 42
1.5707963268
  0
ELLIPSE
  5
768
100
AcDbEntity
  8
0
100
AcDbEllipse
 62
7
  6
CONTINUOUS
 10
-33.2841067421
 20
16.522202938
 30
0.0
 11
-0.0
 21
0.75
 31
0.0
 40
0.0874886635
 41
0.0523598776
 42
1.5707963323
  0
ELLIPSE
  5
769
100
AcDbEntity
  8
0
100
AcDbEllipse
 62
7
  6
CONTINUOUS
 10
-34.6072601598
 20
17.8325
 30
0.0
 11
1.0038198375
 21
0.0
 31
0.0
 40
0.9961946981
 41
-1.5707963268
 42
-1.4835298642
  0
ELLIPSE
  5
76A
100
AcDbEntity
  8
0
100
AcDbEllipse
 62
7
  6
CONTINUOUS
 10
-37.546331103
 20
-0.0
 30
0.0
 11
0.0
 21
7.5
 31
0.0
 40
0.0524077793
 41
-1.0626435576
 42
-0.298532232
  0
ELLIPSE
  5
76B
100
AcDbEntity
  8
0
100
AcDbEllipse
 62
7
  6
CONTINUOUS
 10
-36.4191800736
 20
17.9388684987
 30
0.0
 11
0.9502067147
 21
-0.3164782047
 31
0.0
 40
0.9984778551
 41
2.3171514127
 42
2.7192442606
  0
ELLIPSE
  5
76C
100
AcDbEntity
  8
0
100
AcDbEllipse
 62
7
  6
CONTINUOUS
 10
-37.4939233106
 20
-18.3456164691
 30
0.0
 11
-0.0007278894
 21
0.5894999259
 31
0.0
 40
0.0444338954
 41
-1.6555403855
 42
-1.5985778162
  0
ELLIPSE
  5
76D
100
AcDbEntity
  8
0
100
AcDbEllipse
 62
7
  6
CONTINUOUS
 10
-37.546331103
 20
-0.0
 30
0.0
 11
0.0
 21
7.5
 31
0.0
 40
0.0524077793
 41
-2.8430604216
 42
-2.078949096
  0
ELLIPSE
  5
76E
100
AcDbEntity
  8
0
100
AcDbEllipse
 62
7
  6
CONTINUOUS
 10
-34.6072601598
 20
-17.8325
 30
0.0
 11
-1.0038198375
 21
-0.0
 31
0.0
 40
0.9961946981
 41
-1.6580627894
 42
-1.5707963268
  0
ELLIPSE
  5
76F
100
AcDbEntity
  8
0
100
AcDbEllipse
 62
7
  6
CONTINUOUS
 10
-36.4191800736
 20
-17.9388684987
 30
0.0
 11
-0.9502067147
 21
-0.3164782047
 31
0.0
 40
0.9984778551
 41
0.4223481236
 42
0.8244412375
  0
ENDSEC
  0
SECTION
  2
OBJECTS
  0
DICTIONARY
  5
C
100
AcDbDictionary
280
0
281
1
  3
ACAD_GROUP
350
D
  3
ACAD_MLINESTYLE
350
17
  3
ACAD_LAYOUT
350
1A
  3
ACAD_PLOTSETTINGS
350
19
  3
ACAD_PLOTSTYLENAME
350
E
  0
DICTIONARY
  5
D
102
{ACAD_REACTORS
330
C
102
}
100
AcDbDictionary
280
0
281
1
  0
ACDBDICTIONARYWDFLT
  5
E
102
{ACAD_REACTORS
330
C
102
}
100
AcDbDictionary
281
1
  3
Normal
350
F
100
AcDbDictionaryWithDefault
340
F
  0
DICTIONARY
  5
17
102
{ACAD_REACTORS
330
C
102
}
100
AcDbDictionary
280
0
281
1
  3
Standard
350
18
  0
DICTIONARY
  5
19
102
{ACAD_REACTORS
330
C
102
}
100
AcDbDictionary
281
1
  0
DICTIONARY
  5
1A
102
{ACAD_REACTORS
330
C
102
}
100
AcDbDictionary
281
1
  3
Model
350
770
  3
Layout1
350
771
  0
ACDBPLACEHOLDER
  5
F
102
{ACAD_REACTORS
330
E
102
}
  0
MLINESTYLE
  5
18
102
{ACAD_REACTORS
330
17
102
}
100
AcDbMlineStyle
  2
STANDARD
 70
0
  3

 62
256
 51
90.0
 52
90.0
 71
2
 49
0.5
 62
256
  6
BYLAYER
 49
-0.5
 62
256
  6
BYLAYER
  0
LAYOUT
  5
770
102
{ACAD_REACTORS
330
1A
102
}
100
AcDbPlotSettings
  1

  2
none_device
  4

  6

 40
0.0
 41
0.0
 42
0.0
 43
0.0
 44
210.0
 45
297.0
 46
0.0
 47
0.0
 48
0.0
 49
0.0
140
0.0
141
0.0
142
1.0
143
1.0
 70
1024
 72
1
 73
0
 74
0
  7

 75
0
147
1.0
148
0.0
149
0.0
100
AcDbLayout
  1
Model
 70
0
 71
0
 10
0.0
 20
0.0
 11
210.0
 21
297.0
 12
0.0
 22
0.0
 32
0.0
 14
0.0
 24
0.0
 34
0.0
 15
0.0
 25
0.0
 35
0.0
146
0.0
 13
0.0
 23
0.0
 33
0.0
 16
1.0
 26
0.0
 36
0.0
 17
0.0
 27
1.0
 37
0.0
 76
0
330
212
345
0
346
0
  0
LAYOUT
  5
771
102
{ACAD_REACTORS
330
1A
102
}
100
AcDbPlotSettings
  1

  2
none_device
  4

  6

 40
0.0
 41
0.0
 42
0.0
 43
0.0
 44
210.0
 45
297.0
 46
0.0
 47
0.0
 48
0.0
 49
0.0
140
0.0
141
0.0
142
1.0
143
1.0
 70
0
 72
1
 73
0
 74
0
  7

 75
0
147
1.0
148
0.0
149
0.0
100
AcDbLayout
  1
Layout1
 70
0
 71
1
 10
0.0
 20
0.0
 11
210.0
 21
297.0
 12
0.0
 22
0.0
 32
0.0
 14
0.0
 24
0.0
 34
0.0
 15
0.0
 25
0.0
 35
0.0
146
0.0
 13
0.0
 23
0.0
 33
0.0
 16
1.0
 26
0.0
 36
0.0
 17
0.0
 27
1.0
 37
0.0
 76
0
330
213
345
0
346
0
  0
ENDSEC
  0
EOF
