  0
SECTION
  2
HEADER
  9
$ACADVER
  1
AC1015
  9
$DWGCODEPAGE
  3
ANSI_1252
  9
$EXTMAX
 10
558.8
 20
431.8
 30
0.0
  9
$EXTMIN
 10
0.0
 20
0.0
 30
0.0
  9
$LIMMIN
 10
0.0
 20
0.0
  9
$LIMMAX
 10
558.8
 20
431.8
  9
$VIEWCTR
 10
279.4
 20
215.9
  9
$VIEWSIZE
 40
431.8
  9
$CLAYER
  8
0
  9
$LTSCALE
 40
30.734
  9
$CELTYPE
  6
BYLAYER
  9
$DIMSCALE
 40
1.0
  9
$DIMASZ
 40
3.0
  9
$DIMEXO
 40
3.4925
  9
$DIMDLI
 40
21.2344
  9
$DIMEXE
 40
10.0584
  9
$DIMCEN
 40
5.0292
  9
$DIMLFAC
 40
1.0
  9
$DIMBLK
  1
_FILLED
  9
$DIMTXT
 40
3.0
  9
$DIMTOL
 70
1
  9
$DIMLIM
 70
0
  9
$DIMTFAC
 40
1.0
  9
$DIMTP
 40
0.01
  9
$DIMTM
 40
0.01
  9
$PDMODE
 70
3
  9
$PDSIZE
 40
3.0
  9
$HANDSEED
  5
66D
  9
$TILEMODE
 70
1
  9
$MEASUREMENT
 70
1
  9
$INSUNITS
 70
4
  0
ENDSEC
  0
SECTION
  2
CLASSES
  0
CLASS
  1
ACDBDICTIONARYWDFLT
  2
AcDbDictionaryWithDefault
  3
AutoCAD 2000
 90
0
280
0
281
0
  0
CLASS
  1
ACDBPLACEHOLDER
  2
AcDbPlaceHolder
  3
AutoCAD 2000
 90
0
280
0
281
0
  0
CLASS
  1
LAYOUT
  2
AcDbLayout
  3
AutoCAD 2000
 90
0
280
0
281
0
  0
ENDSEC
  0
SECTION
  2
TABLES
  0
TABLE
  2
VPORT
  5
8
100
AcDbSymbolTable
 70
2
  0
VPORT
  5
1F4
100
AcDbSymbolTableRecord
100
AcDbViewportTableRecord
  2
*ACTIVE
 70
0
 10
0.0
 20
0.0
 11
1.0
 21
1.0
 12
279.4
 22
215.9
 13
0.0
 23
0.0
 14
1.0
 24
1.0
 15
0.0
 25
0.0
 16
0.0
 26
0.0
 36
1.0
 17
0.0
 27
0.0
 37
0.0
 40
431.8
 41
1.2941176471
 42
50.0
 43
0.0
 44
0.0
 50
0.0
 51
0.0
 71
0
 72
100
 73
1
 74
1
 75
0
 76
0
 77
0
 78
0
  0
ENDTAB
  0
TABLE
  2
LTYPE
  5
5
100
AcDbSymbolTable
 70
6
  0
LTYPE
  5
14
100
AcDbSymbolTableRecord
100
AcDbLinetypeTableRecord
  2
BYBLOCK
 70
0
  3

 72
65
 73
0
 40
0.0
  0
LTYPE
  5
15
100
AcDbSymbolTableRecord
100
AcDbLinetypeTableRecord
  2
BYLAYER
 70
0
  3

 72
65
 73
0
 40
0.0
  0
LTYPE
  5
16
100
AcDbSymbolTableRecord
100
AcDbLinetypeTableRecord
  2
CONTINUOUS
 70
64
  3
Solid line
 72
65
 73
0
 40
0.0
  0
LTYPE
  5
1F5
100
AcDbSymbolTableRecord
100
AcDbLinetypeTableRecord
  2
CENTER
 70
64
  3
____ _ ____ _ ____ _ ____ _ ____ _ ____ _ ____
 72
65
 73
4
 40
0.6
 49
0.375
 74
0
 49
-0.075
 74
0
 49
0.075
 74
0
 49
-0.075
 74
0
  0
LTYPE
  5
1F6
100
AcDbSymbolTableRecord
100
AcDbLinetypeTableRecord
  2
HIDDEN
 70
64
  3
- - - - - - - - - - - - - - - - - - - -
 72
65
 73
2
 40
0.2
 49
0.1
 74
0
 49
-0.1
 74
0
  0
LTYPE
  5
1F7
100
AcDbSymbolTableRecord
100
AcDbLinetypeTableRecord
  2
PHANTOM
 70
64
  3
_____ _ _ _____ _ _ _____ _ _ _____
 72
65
 73
6
 40
0.8
 49
0.45
 74
0
 49
-0.05
 74
0
 49
0.1
 74
0
 49
-0.05
 74
0
 49
0.1
 74
0
 49
-0.05
 74
0
  0
LTYPE
  5
1F8
100
AcDbSymbolTableRecord
100
AcDbLinetypeTableRecord
  2
DOT
 70
64
  3
. . . . . . . . . . . . . . . . . . . .
 72
65
 73
2
 40
0.2
 49
0.1
 74
0
 49
-0.1
 74
0
  0
LTYPE
  5
1F9
100
AcDbSymbolTableRecord
100
AcDbLinetypeTableRecord
  2
DASHED
 70
64
  3
- - - - - - - - - - - - - - - - - - - -
 72
65
 73
2
 40
0.2
 49
0.1
 74
0
 49
-0.1
 74
0
  0
ENDTAB
  0
TABLE
  2
LAYER
  5
2
100
AcDbSymbolTable
 70
36
  0
LAYER
  5
10
100
AcDbSymbolTableRecord
100
AcDbLayerTableRecord
  2
0
 70
0
 62
7
  6
CONTINUOUS
370
-3
390
F
  0
LAYER
  5
1FA
100
AcDbSymbolTableRecord
100
AcDbLayerTableRecord
  2
DEFAULT_1
 70
0
 62
7
  6
CENTER
370
-3
390
F
  0
LAYER
  5
1FB
100
AcDbSymbolTableRecord
100
AcDbLayerTableRecord
  2
DEFAULT_2
 70
0
 62
7
  6
HIDDEN
370
-3
390
F
  0
LAYER
  5
1FC
100
AcDbSymbolTableRecord
100
AcDbLayerTableRecord
  2
DEFAULT_3
 70
0
 62
7
  6
PHANTOM
370
-3
390
F
  0
LAYER
  5
1FD
100
AcDbSymbolTableRecord
100
AcDbLayerTableRecord
  2
ASSI
 70
0
 62
7
  6
CONTINUOUS
370
-3
390
F
  0
LAYER
  5
1FE
100
AcDbSymbolTableRecord
100
AcDbLayerTableRecord
  2
COORDINATE
 70
0
 62
7
  6
CONTINUOUS
370
-3
390
F
  0
LAYER
  5
1FF
100
AcDbSymbolTableRecord
100
AcDbLayerTableRecord
  2
COORD_ORIGINE
 70
0
 62
7
  6
CONTINUOUS
370
-3
390
F
  0
LAYER
  5
200
100
AcDbSymbolTableRecord
100
AcDbLayerTableRecord
  2
COPY_PUBLISH
 70
0
 62
7
  6
CONTINUOUS
370
-3
390
F
  0
LAYER
  5
201
100
AcDbSymbolTableRecord
100
AcDbLayerTableRecord
  2
COSMETIC
 70
0
 62
7
  6
CONTINUOUS
370
-3
390
F
  0
LAYER
  5
202
100
AcDbSymbolTableRecord
100
AcDbLayerTableRecord
  2
CURVE
 70
0
 62
7
  6
CONTINUOUS
370
-3
390
F
  0
LAYER
  5
203
100
AcDbSymbolTableRecord
100
AcDbLayerTableRecord
  2
DRAFT
 70
0
 62
7
  6
CONTINUOUS
370
-3
390
F
  0
LAYER
  5
204
100
AcDbSymbolTableRecord
100
AcDbLayerTableRecord
  2
IMPORT_FEATURES
 70
0
 62
7
  6
CONTINUOUS
370
-3
390
F
  0
LAYER
  5
205
100
AcDbSymbolTableRecord
100
AcDbLayerTableRecord
  2
IMPORT_IGES
 70
0
 62
7
  6
CONTINUOUS
370
-3
390
F
  0
LAYER
  5
206
100
AcDbSymbolTableRecord
100
AcDbLayerTableRecord
  2
PIANI
 70
0
 62
7
  6
CONTINUOUS
370
-3
390
F
  0
LAYER
  5
207
100
AcDbSymbolTableRecord
100
AcDbLayerTableRecord
  2
PIANI_ORIGINE
 70
0
 62
7
  6
CONTINUOUS
370
-3
390
F
  0
LAYER
  5
208
100
AcDbSymbolTableRecord
100
AcDbLayerTableRecord
  2
PUNTI
 70
0
 62
7
  6
CONTINUOUS
370
-3
390
F
  0
LAYER
  5
209
100
AcDbSymbolTableRecord
100
AcDbLayerTableRecord
  2
RACCORDO
 70
0
 62
7
  6
CONTINUOUS
370
-3
390
F
  0
LAYER
  5
20A
100
AcDbSymbolTableRecord
100
AcDbLayerTableRecord
  2
SMUSSO
 70
0
 62
7
  6
CONTINUOUS
370
-3
390
F
  0
LAYER
  5
20B
100
AcDbSymbolTableRecord
100
AcDbLayerTableRecord
  2
SNAPLINE
 70
0
 62
7
  6
CONTINUOUS
370
-3
390
F
  0
LAYER
  5
20C
100
AcDbSymbolTableRecord
100
AcDbLayerTableRecord
  2
SUPERFICI
 70
0
 62
7
  6
CONTINUOUS
370
-3
390
F
  0
LAYER
  5
20D
100
AcDbSymbolTableRecord
100
AcDbLayerTableRecord
  2
TRASH
 70
0
 62
7
  6
CONTINUOUS
370
-3
390
F
  0
LAYER
  5
20E
100
AcDbSymbolTableRecord
100
AcDbLayerTableRecord
  2
XSEC_DATUMS
 70
0
 62
7
  6
CONTINUOUS
370
-3
390
F
  0
ENDTAB
  0
TABLE
  2
STYLE
  5
3
100
AcDbSymbolTable
 70
1
  0
STYLE
  5
11
100
AcDbSymbolTableRecord
100
AcDbTextStyleTableRecord
  2
STANDARD
 70
0
 40
0.0
 41
0.8
 50
0.0
 71
0
 42
0.2
  3
txt
  4

  0
STYLE
  5
20F
100
AcDbSymbolTableRecord
100
AcDbTextStyleTableRecord
  2
TEXTSTYLE_1
 70
0
 40
0.0
 41
0.8
 50
0.0
 71
0
 42
0.2
  3
gdt
  4

  0
ENDTAB
  0
TABLE
  2
VIEW
  5
6
100
AcDbSymbolTable
 70
0
  0
ENDTAB
  0
TABLE
  2
UCS
  5
7
100
AcDbSymbolTable
 70
0
  0
ENDTAB
  0
TABLE
  2
APPID
  5
9
100
AcDbSymbolTable
 70
1
  0
APPID
  5
210
100
AcDbSymbolTableRecord
100
AcDbRegAppTableRecord
  2
ACAD
 70
0
  0
ENDTAB
  0
TABLE
  2
BLOCK_RECORD
  5
1
100
AcDbSymbolTable
 70
0
  0
BLOCK_RECORD
  5
211
100
AcDbSymbolTableRecord
100
AcDbBlockTableRecord
  2
*Model_Space
  0
BLOCK_RECORD
  5
212
100
AcDbSymbolTableRecord
100
AcDbBlockTableRecord
  2
*Paper_Space
  0
BLOCK_RECORD
  5
213
100
AcDbSymbolTableRecord
100
AcDbBlockTableRecord
  2
_FILLED
  0
BLOCK_RECORD
  5
214
100
AcDbSymbolTableRecord
100
AcDbBlockTableRecord
  2
*D0
  0
BLOCK_RECORD
  5
215
100
AcDbSymbolTableRecord
100
AcDbBlockTableRecord
  2
*D1
  0
BLOCK_RECORD
  5
216
100
AcDbSymbolTableRecord
100
AcDbBlockTableRecord
  2
*D2
  0
BLOCK_RECORD
  5
217
100
AcDbSymbolTableRecord
100
AcDbBlockTableRecord
  2
*D3
  0
ENDTAB
  0
TABLE
  2
DIMSTYLE
  5
A
100
AcDbSymbolTable
 70
1
100
AcDbDimStyleTable
 71
0
  0
DIMSTYLE
105
218
100
AcDbSymbolTableRecord
100
AcDbDimStyleTableRecord
  2
STANDARD
 70
0
  3

  4

 40
1.0
 41
3.0
 42
0.0625
 43
0.38
 44
0.18
 45
0.0
 46
0.0
 47
0.01
 48
0.01
140
3.0
141
0.09
142
0.0
143
25.4
144
1.0
145
0.0
146
1.0
147
0.09
 71
1.0
 72
0.0
 73
0
 74
0
 75
0
 76
0
 77
1
 78
8
170
0
171
2
172
0
173
0
174
0
175
0
176
0
177
0
178
0
270
2
271
2
272
2
273
2
274
2
275
0
280
0
281
0
282
0
283
1
284
8
285
0
286
0
287
3
288
0
340
11
341
213
342
213
343
213
344
213
  0
DIMSTYLE
105
219
100
AcDbSymbolTableRecord
100
AcDbDimStyleTableRecord
  2
DIMSTYLE_1
 70
0
  3

  4

 40
1.0
 41
3.0
 42
0.0625
 43
0.38
 44
0.18
 45
0.0
 46
0.0
 47
0.0
 48
0.0
140
3.0
141
0.09
142
0.0
143
25.4
144
1.0
145
0.0
146
1.0
147
0.09
 71
0.0
 72
0.0
 73
0
 74
0
 75
0
 76
0
 77
1
 78
8
170
0
171
2
172
0
173
0
174
0
175
0
176
0
177
0
178
0
270
2
271
1
272
1
273
2
274
2
275
0
280
0
281
0
282
0
283
1
284
8
285
0
286
0
287
3
288
0
340
11
341
213
342
213
343
213
344
213
  0
ENDTAB
  0
ENDSEC
  0
SECTION
  2
BLOCKS
  0
BLOCK
  5
20
100
AcDbEntity
  8
0
100
AcDbBlockBegin
  2
*Model_Space
 70
0
 10
0.0
 20
0.0
 30
0.0
  3
*Model_Space
  1

  0
ENDBLK
  5
21
100
AcDbEntity
  8
0
100
AcDbBlockEnd
  0
BLOCK
  5
1C
100
AcDbEntity
  8
0
100
AcDbBlockBegin
  2
*Paper_Space
 70
0
 10
0.0
 20
0.0
 30
0.0
  3
*Paper_Space
  1

  0
ENDBLK
  5
1D
100
AcDbEntity
  8
0
100
AcDbBlockEnd
  0
BLOCK
  5
21A
100
AcDbEntity
  8
0
100
AcDbBlockBegin
  2
_FILLED
 70
64
 10
0.0
 20
0.0
  3
_FILLED
  1

  0
SOLID
  5
21B
100
AcDbEntity
  8
0
  6
BYBLOCK
 62
0
100
AcDbTrace
 10
0.0
 20
0.0
 11
-1.0
 21
0.3166666667
 12
-1.0
 22
-0.3166666667
 13
-1.0
 23
-0.3166666667
  0
ENDBLK
  5
21C
100
AcDbEntity
  8
0
  6
BYBLOCK
 62
0
100
AcDbBlockEnd
  0
BLOCK
  5
21D
100
AcDbEntity
  8
0
100
AcDbBlockBegin
 62
7
  6
CONTINUOUS
  2
*D0
 70
65
 10
0.0
 20
0.0
  3
*D0
  1

  0
MTEXT
  5
21E
100
AcDbEntity
  8
0
100
AcDbMText
 62
7
  6
CONTINUOUS
  7
STANDARD
 71
2
 72
1
 10
0.0
 20
35.25
 30
0.0
 11
1.0
 21
0.0
 31
0.0
 44
0.9
  1
22,3
 40
3.0
 41
8.5714285714
  0
LINE
  5
21F
100
AcDbEntity
  8
0
100
AcDbLine
 62
7
  6
CONTINUOUS
 10
11.15
 20
16.9632818592
 11
11.15
 21
33.0
  0
LINE
  5
220
100
AcDbEntity
  8
0
100
AcDbLine
 62
7
  6
CONTINUOUS
 10
-11.15
 20
16.9632818592
 11
-11.15
 21
33.0
  0
LINE
  5
221
100
AcDbEntity
  8
0
100
AcDbLine
 62
7
  6
CONTINUOUS
 10
11.15
 20
31.5
 11
0.0
 21
31.5
  0
LINE
  5
222
100
AcDbEntity
  8
0
100
AcDbLine
 62
7
  6
CONTINUOUS
 10
-11.15
 20
31.5
 11
0.0
 21
31.5
  0
INSERT
  5
223
100
AcDbEntity
  8
0
100
AcDbBlockReference
 62
7
  6
CONTINUOUS
  2
_FILLED
 10
11.15
 20
31.5
 41
3.0
 42
3.0
 43
3.0
  0
INSERT
  5
224
100
AcDbEntity
  8
0
100
AcDbBlockReference
 62
7
  6
CONTINUOUS
  2
_FILLED
 10
-11.15
 20
31.5
 41
3.0
 42
3.0
 43
3.0
 50
180.0
  0
ENDBLK
  5
225
100
AcDbEntity
  8
0
  6
BYBLOCK
 62
0
100
AcDbBlockEnd
  0
BLOCK
  5
226
100
AcDbEntity
  8
0
100
AcDbBlockBegin
 62
7
  6
CONTINUOUS
  2
*D1
 70
65
 10
0.0
 20
0.0
  3
*D1
  1

  0
MTEXT
  5
227
100
AcDbEntity
  8
0
100
AcDbMText
 62
7
  6
CONTINUOUS
  7
STANDARD
 71
2
 72
1
 10
15.4
 20
0.0
 30
0.0
 11
0.0
 21
1.0
 31
0.0
 44
0.9
  1
47
 40
3.0
 41
4.7142857143
  0
LINE
  5
228
100
AcDbEntity
  8
0
100
AcDbLine
 62
7
  6
CONTINUOUS
 10
3.2812783412
 20
23.4781828305
 11
20.65
 21
23.4781828305
  0
LINE
  5
229
100
AcDbEntity
  8
0
100
AcDbLine
 62
7
  6
CONTINUOUS
 10
3.2812783412
 20
-23.4781828305
 11
20.65
 21
-23.4781828305
  0
LINE
  5
22A
100
AcDbEntity
  8
0
100
AcDbLine
 62
7
  6
CONTINUOUS
 10
19.15
 20
23.4781828305
 11
19.15
 21
0.0
  0
LINE
  5
22B
100
AcDbEntity
  8
0
100
AcDbLine
 62
7
  6
CONTINUOUS
 10
19.15
 20
-23.4781828305
 11
19.15
 21
0.0
  0
INSERT
  5
22C
100
AcDbEntity
  8
0
100
AcDbBlockReference
 62
7
  6
CONTINUOUS
  2
_FILLED
 10
19.15
 20
23.4781828305
 41
3.0
 42
3.0
 43
3.0
 50
90.0
  0
INSERT
  5
22D
100
AcDbEntity
  8
0
100
AcDbBlockReference
 62
7
  6
CONTINUOUS
  2
_FILLED
 10
19.15
 20
-23.4781828305
 41
3.0
 42
3.0
 43
3.0
 50
270.0
  0
ENDBLK
  5
22E
100
AcDbEntity
  8
0
  6
BYBLOCK
 62
0
100
AcDbBlockEnd
  0
BLOCK
  5
22F
100
AcDbEntity
  8
0
100
AcDbBlockBegin
 62
7
  6
CONTINUOUS
  2
*D2
 70
65
 10
0.0
 20
0.0
  3
*D2
  1

  0
MTEXT
  5
230
100
AcDbEntity
  8
0
100
AcDbMText
 62
7
  6
CONTINUOUS
  7
STANDARD
 71
2
 72
1
 10
-32.2844975753
 20
35.25
 30
0.0
 11
1.0
 21
0.0
 31
0.0
 44
0.9
  1
22,1
 40
3.0
 41
8.1428571429
  0
LINE
  5
231
100
AcDbEntity
  8
0
100
AcDbLine
 62
7
  6
CONTINUOUS
 10
-21.2344975762
 20
14.6806895397
 11
-21.2344975762
 21
33.0
  0
LINE
  5
232
100
AcDbEntity
  8
0
100
AcDbLine
 62
7
  6
CONTINUOUS
 10
-43.3344975744
 20
16.9632818592
 11
-43.3344975744
 21
33.0
  0
LINE
  5
233
100
AcDbEntity
  8
0
100
AcDbLine
 62
7
  6
CONTINUOUS
 10
-21.2344975762
 20
31.5
 11
-32.2844975753
 21
31.5
  0
LINE
  5
234
100
AcDbEntity
  8
0
100
AcDbLine
 62
7
  6
CONTINUOUS
 10
-43.3344975744
 20
31.5
 11
-32.2844975753
 21
31.5
  0
INSERT
  5
235
100
AcDbEntity
  8
0
100
AcDbBlockReference
 62
7
  6
CONTINUOUS
  2
_FILLED
 10
-21.2344975762
 20
31.5
 41
3.0
 42
3.0
 43
3.0
  0
INSERT
  5
236
100
AcDbEntity
  8
0
100
AcDbBlockReference
 62
7
  6
CONTINUOUS
  2
_FILLED
 10
-43.3344975744
 20
31.5
 41
3.0
 42
3.0
 43
3.0
 50
180.0
  0
ENDBLK
  5
237
100
AcDbEntity
  8
0
  6
BYBLOCK
 62
0
100
AcDbBlockEnd
  0
BLOCK
  5
238
100
AcDbEntity
  8
0
100
AcDbBlockBegin
 62
7
  6
CONTINUOUS
  2
*D3
 70
65
 10
0.0
 20
0.0
  3
*D3
  1

  0
MTEXT
  5
239
100
AcDbEntity
  8
0
100
AcDbMText
 62
7
  6
CONTINUOUS
  7
STANDARD
 71
2
 72
1
 10
-37.1844975753
 20
45.25
 30
0.0
 11
1.0
 21
0.0
 31
0.0
 44
0.9
  1
31,9
 40
3.0
 41
7.9285714286
  0
LINE
  5
23A
100
AcDbEntity
  8
0
100
AcDbLine
 62
7
  6
CONTINUOUS
 10
-21.2344975762
 20
14.6806895397
 11
-21.2344975762
 21
43.0
  0
LINE
  5
23B
100
AcDbEntity
  8
0
100
AcDbLine
 62
7
  6
CONTINUOUS
 10
-53.1344975744
 20
5.0
 11
-53.1344975744
 21
43.0
  0
LINE
  5
23C
100
AcDbEntity
  8
0
100
AcDbLine
 62
7
  6
CONTINUOUS
 10
-21.2344975762
 20
41.5
 11
-37.1844975753
 21
41.5
  0
LINE
  5
23D
100
AcDbEntity
  8
0
100
AcDbLine
 62
7
  6
CONTINUOUS
 10
-53.1344975744
 20
41.5
 11
-37.1844975753
 21
41.5
  0
INSERT
  5
23E
100
AcDbEntity
  8
0
100
AcDbBlockReference
 62
7
  6
CONTINUOUS
  2
_FILLED
 10
-21.2344975762
 20
41.5
 41
3.0
 42
3.0
 43
3.0
  0
INSERT
  5
23F
100
AcDbEntity
  8
0
100
AcDbBlockReference
 62
7
  6
CONTINUOUS
  2
_FILLED
 10
-53.1344975744
 20
41.5
 41
3.0
 42
3.0
 43
3.0
 50
180.0
  0
ENDBLK
  5
240
100
AcDbEntity
  8
0
  6
BYBLOCK
 62
0
100
AcDbBlockEnd
  0
ENDSEC
  0
SECTION
  2
ENTITIES
  0
DIMENSION
  5
241
100
AcDbEntity
  8
0
100
AcDbDimension
 62
7
  6
CONTINUOUS
  2
*D0
 10
-11.15
 20
31.5
 11
-4.2857142857
 21
33.75
 70
160
 71
2
 42
22.3
  3
DIMSTYLE_1
100
AcDbAlignedDimension
 13
11.15
 23
16.9632818592
 14
-11.15
 24
16.9632818592
 50
180.0
100
AcDbRotatedDimension
  0
DIMENSION
  5
242
100
AcDbEntity
  8
0
100
AcDbDimension
 62
7
  6
CONTINUOUS
  2
*D1
 10
19.15
 20
-23.4781828305
 11
17.9561735237
 21
-2.1072778499
 70
160
 71
2
 42
46.956365661
  3
DIMSTYLE_1
100
AcDbAlignedDimension
 13
3.2812783412
 23
23.4781828305
 14
3.2812783412
 24
-23.4781828305
 50
270.0
100
AcDbRotatedDimension
  0
DIMENSION
  5
243
100
AcDbEntity
  8
0
100
AcDbDimension
 62
7
  6
CONTINUOUS
  2
*D2
 10
-43.3344975744
 20
31.5
 11
-36.3559261467
 21
33.75
 70
160
 71
2
 42
22.0999999981
  3
DIMSTYLE_1
100
AcDbAlignedDimension
 13
-21.2344975762
 23
14.6806895397
 14
-43.3344975744
 24
16.9632818592
 50
180.0
100
AcDbRotatedDimension
  0
DIMENSION
  5
244
100
AcDbEntity
  8
0
100
AcDbDimension
 62
7
  6
CONTINUOUS
  2
*D3
 10
-53.1344975744
 20
41.5
 11
-41.1487832896
 21
43.75
 70
160
 71
2
 42
31.8999999981
  3
DIMSTYLE_1
100
AcDbAlignedDimension
 13
-21.2344975762
 23
14.6806895397
 14
-53.1344975744
 24
5.0
 50
180.0
100
AcDbRotatedDimension
  0
LINE
  5
245
100
AcDbEntity
  8
ASSI
100
AcDbLine
 62
7
  6
CONTINUOUS
 10
-3.0
 20
-23.5
 11
-2.7812783412
 21
-23.4781828305
  0
LINE
  5
246
100
AcDbEntity
  8
DRAFT
100
AcDbLine
 62
7
  6
CONTINUOUS
 10
-3.0
 20
-23.5
 11
-2.7812783412
 21
-23.4781828305
  0
LINE
  5
247
100
AcDbEntity
  8
ASSI
100
AcDbLine
 62
7
  6
CONTINUOUS
 10
3.9733373476
 20
-23.5
 11
3.0
 21
-23.5
  0
LINE
  5
248
100
AcDbEntity
  8
DRAFT
100
AcDbLine
 62
7
  6
CONTINUOUS
 10
3.9733373476
 20
-23.5
 11
3.0
 21
-23.5
  0
LINE
  5
249
100
AcDbEntity
  8
ASSI
100
AcDbLine
 62
7
  6
CONTINUOUS
 10
-3.0
 20
-23.5
 11
-3.9733373476
 21
-23.5
  0
LINE
  5
24A
100
AcDbEntity
  8
DRAFT
100
AcDbLine
 62
7
  6
CONTINUOUS
 10
-3.0
 20
-23.5
 11
-3.9733373476
 21
-23.5
  0
LINE
  5
24B
100
AcDbEntity
  8
ASSI
100
AcDbLine
 62
7
  6
CONTINUOUS
 10
-2.7812783412
 20
-23.4781828305
 11
2.7812783412
 21
-23.4781828305
  0
LINE
  5
24C
100
AcDbEntity
  8
DRAFT
100
AcDbLine
 62
7
  6
CONTINUOUS
 10
-2.7812783412
 20
-23.4781828305
 11
2.7812783412
 21
-23.4781828305
  0
LINE
  5
24D
100
AcDbEntity
  8
ASSI
100
AcDbLine
 62
7
  6
CONTINUOUS
 10
2.7812783412
 20
-22.5310194482
 11
-2.7812783412
 21
-22.5310194482
  0
LINE
  5
24E
100
AcDbEntity
  8
DRAFT
100
AcDbLine
 62
7
  6
CONTINUOUS
 10
2.7812783412
 20
-22.5310194482
 11
-2.7812783412
 21
-22.5310194482
  0
LINE
  5
24F
100
AcDbEntity
  8
ASSI
100
AcDbLine
 62
7
  6
CONTINUOUS
 10
3.0
 20
-22.4
 11
10.6503805997
 21
-22.4
  0
LINE
  5
250
100
AcDbEntity
  8
DRAFT
100
AcDbLine
 62
7
  6
CONTINUOUS
 10
3.0
 20
-22.4
 11
10.6503805997
 21
-22.4
  0
LINE
  5
251
100
AcDbEntity
  8
RACCORDO
100
AcDbLine
 62
7
  6
CONTINUOUS
 10
10.6503805997
 20
-22.4
 11
-10.6503805997
 21
-22.4
  0
LINE
  5
252
100
AcDbEntity
  8
ASSI
100
AcDbLine
 62
7
  6
CONTINUOUS
 10
-3.0
 20
-22.4
 11
-10.6503805997
 21
-22.4
  0
LINE
  5
253
100
AcDbEntity
  8
DRAFT
100
AcDbLine
 62
7
  6
CONTINUOUS
 10
-3.0
 20
-22.4
 11
-10.6503805997
 21
-22.4
  0
LINE
  5
254
100
AcDbEntity
  8
ASSI
100
AcDbLine
 62
7
  6
CONTINUOUS
 10
3.0
 20
-23.5
 11
2.7812783412
 21
-23.4781828305
  0
LINE
  5
255
100
AcDbEntity
  8
DRAFT
100
AcDbLine
 62
7
  6
CONTINUOUS
 10
3.0
 20
-23.5
 11
2.7812783412
 21
-23.4781828305
  0
LINE
  5
256
100
AcDbEntity
  8
ASSI
100
AcDbLine
 62
7
  6
CONTINUOUS
 10
-3.0
 20
22.4
 11
-2.7812783412
 21
22.5310194482
  0
LINE
  5
257
100
AcDbEntity
  8
DRAFT
100
AcDbLine
 62
7
  6
CONTINUOUS
 10
-3.0
 20
22.4
 11
-2.7812783412
 21
22.5310194482
  0
LINE
  5
258
100
AcDbEntity
  8
RACCORDO
100
AcDbLine
 62
253
  6
CONTINUOUS
 10
10.5087981167
 20
-21.9749071372
 11
-10.5087981167
 21
-21.9749071372
  0
LINE
  5
259
100
AcDbEntity
  8
ASSI
100
AcDbLine
 62
253
  6
CONTINUOUS
 10
10.5087981167
 20
-21.9749071372
 11
-10.5087981167
 21
-21.9749071372
  0
LINE
  5
25A
100
AcDbEntity
  8
0
100
AcDbLine
 62
253
  6
CONTINUOUS
 10
10.5087981167
 20
-21.9749071372
 11
-10.5087981167
 21
-21.9749071372
  0
LINE
  5
25B
100
AcDbEntity
  8
RACCORDO
100
AcDbLine
 62
253
  6
CONTINUOUS
 10
10.5005350625
 20
-21.0183142309
 11
-10.5005350625
 21
-21.0183142309
  0
LINE
  5
25C
100
AcDbEntity
  8
ASSI
100
AcDbLine
 62
253
  6
CONTINUOUS
 10
10.5005350625
 20
-21.0183142309
 11
-10.5005350625
 21
-21.0183142309
  0
LINE
  5
25D
100
AcDbEntity
  8
0
100
AcDbLine
 62
253
  6
CONTINUOUS
 10
10.5005350625
 20
-21.0183142309
 11
-10.5005350625
 21
-21.0183142309
  0
LINE
  5
25E
100
AcDbEntity
  8
ASSI
100
AcDbLine
 62
7
  6
CONTINUOUS
 10
-2.7812783412
 20
-22.5310194482
 11
-3.0
 21
-22.4
  0
LINE
  5
25F
100
AcDbEntity
  8
DRAFT
100
AcDbLine
 62
7
  6
CONTINUOUS
 10
-2.7812783412
 20
-22.5310194482
 11
-3.0
 21
-22.4
  0
LINE
  5
260
100
AcDbEntity
  8
CURVE
100
AcDbLine
 62
253
  6
CONTINUOUS
 10
11.0749501324
 20
-17.22
 11
11.0976348052
 21
-17.22
  0
LINE
  5
261
100
AcDbEntity
  8
CURVE
100
AcDbLine
 62
253
  6
CONTINUOUS
 10
11.0976348052
 20
-15.974264
 11
11.0749501324
 21
-15.974264
  0
LINE
  5
262
100
AcDbEntity
  8
CURVE
100
AcDbLine
 62
253
  6
CONTINUOUS
 10
11.0174411939
 20
-15.280952
 11
11.0540847755
 21
-15.280952
  0
LINE
  5
263
100
AcDbEntity
  8
CURVE
100
AcDbLine
 62
253
  6
CONTINUOUS
 10
11.0540847755
 20
-14.842636
 11
11.0174411939
 21
-14.842636
  0
LINE
  5
264
100
AcDbEntity
  8
CURVE
100
AcDbLine
 62
253
  6
CONTINUOUS
 10
11.0749501324
 20
-14.489593
 11
11.0976348052
 21
-14.489593
  0
LINE
  5
265
100
AcDbEntity
  8
CURVE
100
AcDbLine
 62
253
  6
CONTINUOUS
 10
11.0749501324
 20
-13.173245
 11
11.0976348052
 21
-13.173245
  0
LINE
  5
266
100
AcDbEntity
  8
ASSI
100
AcDbLine
 62
7
  6
CONTINUOUS
 10
-11.15
 20
21.8997711479
 11
-11.15
 21
-21.8997711479
  0
LINE
  5
267
100
AcDbEntity
  8
RACCORDO
100
AcDbLine
 62
7
  6
CONTINUOUS
 10
-11.15
 20
21.8997711479
 11
-11.15
 21
-21.8997711479
  0
LINE
  5
268
100
AcDbEntity
  8
RACCORDO
100
AcDbLine
 62
253
  6
CONTINUOUS
 10
-10.5005350625
 20
-21.0183142309
 11
-10.5005350625
 21
21.0183142309
  0
LINE
  5
269
100
AcDbEntity
  8
CURVE
100
AcDbLine
 62
253
  6
CONTINUOUS
 10
11.0749501324
 20
-11.365272
 11
11.0976348052
 21
-11.365272
  0
LINE
  5
26A
100
AcDbEntity
  8
CURVE
100
AcDbLine
 62
253
  6
CONTINUOUS
 10
11.0749501324
 20
-10.976944
 11
11.0976348052
 21
-10.976944
  0
LINE
  5
26B
100
AcDbEntity
  8
CURVE
100
AcDbLine
 62
253
  6
CONTINUOUS
 10
11.0178714834
 20
-10.5526213286
 11
11.0540847814
 21
-10.5526213286
  0
LINE
  5
26C
100
AcDbEntity
  8
CURVE
100
AcDbLine
 62
253
  6
CONTINUOUS
 10
11.0337443905
 20
-10.1306033287
 11
11.0236856143
 21
-10.1306033287
  0
LINE
  5
26D
100
AcDbEntity
  8
CURVE
100
AcDbLine
 62
253
  6
CONTINUOUS
 10
11.0540847814
 20
-10.1160694451
 11
11.039745365
 21
-10.1160694451
  0
LINE
  5
26E
100
AcDbEntity
  8
CURVE
100
AcDbLine
 62
253
  6
CONTINUOUS
 10
11.0749501324
 20
-9.944819
 11
11.0976348052
 21
-9.944819
  0
LINE
  5
26F
100
AcDbEntity
  8
CURVE
100
AcDbLine
 62
253
  6
CONTINUOUS
 10
11.0369809051
 20
-9.4257335944
 11
11.0367643864
 21
-9.4257335944
  0
LINE
  5
270
100
AcDbEntity
  8
CURVE
100
AcDbLine
 62
253
  6
CONTINUOUS
 10
11.0749501324
 20
-9.051288
 11
11.0976348052
 21
-9.051288
  0
LINE
  5
271
100
AcDbEntity
  8
CURVE
100
AcDbLine
 62
253
  6
CONTINUOUS
 10
11.0976348052
 20
-8.247348
 11
11.0749501324
 21
-8.247348
  0
LINE
  5
272
100
AcDbEntity
  8
CURVE
100
AcDbLine
 62
253
  6
CONTINUOUS
 10
11.0749501324
 20
-6.261082
 11
11.0976348052
 21
-6.261082
  0
LINE
  5
273
100
AcDbEntity
  8
RACCORDO
100
AcDbLine
 62
253
  6
CONTINUOUS
 10
-11.15
 20
-21.8997711479
 11
-11.0087219643
 21
-21.4755923698
  0
LINE
  5
274
100
AcDbEntity
  8
ASSI
100
AcDbLine
 62
253
  6
CONTINUOUS
 10
-11.15
 20
-21.8997711479
 11
-11.0087219643
 21
-21.4755923698
  0
LINE
  5
275
100
AcDbEntity
  8
0
100
AcDbLine
 62
253
  6
CONTINUOUS
 10
-11.15
 20
-21.8997711479
 11
-11.0087219643
 21
-21.4755923698
  0
LINE
  5
276
100
AcDbEntity
  8
CURVE
100
AcDbLine
 62
253
  6
CONTINUOUS
 10
11.0976348052
 20
-4.876396
 11
11.0888569711
 21
-4.876396
  0
LINE
  5
277
100
AcDbEntity
  8
RACCORDO
100
AcDbLine
 62
253
  6
CONTINUOUS
 10
-11.0087219643
 20
21.4755923698
 11
-11.15
 21
21.8997711479
  0
LINE
  5
278
100
AcDbEntity
  8
ASSI
100
AcDbLine
 62
253
  6
CONTINUOUS
 10
-11.0087219643
 20
21.4755923698
 11
-11.15
 21
21.8997711479
  0
LINE
  5
279
100
AcDbEntity
  8
0
100
AcDbLine
 62
253
  6
CONTINUOUS
 10
-11.0087219643
 20
21.4755923698
 11
-11.15
 21
21.8997711479
  0
LINE
  5
27A
100
AcDbEntity
  8
ASSI
100
AcDbLine
 62
7
  6
CONTINUOUS
 10
-3.0
 20
-23.5
 11
-3.0
 21
-22.4
  0
LINE
  5
27B
100
AcDbEntity
  8
DRAFT
100
AcDbLine
 62
7
  6
CONTINUOUS
 10
-3.0
 20
-23.5
 11
-3.0
 21
-22.4
  0
LINE
  5
27C
100
AcDbEntity
  8
ASSI
100
AcDbLine
 62
7
  6
CONTINUOUS
 10
-3.0
 20
22.4
 11
-3.0
 21
23.5
  0
LINE
  5
27D
100
AcDbEntity
  8
DRAFT
100
AcDbLine
 62
7
  6
CONTINUOUS
 10
-3.0
 20
22.4
 11
-3.0
 21
23.5
  0
LINE
  5
27E
100
AcDbEntity
  8
ASSI
100
AcDbLine
 62
7
  6
CONTINUOUS
 10
-2.7812783412
 20
-23.4781828305
 11
-2.7812783412
 21
-22.5310194482
  0
LINE
  5
27F
100
AcDbEntity
  8
DRAFT
100
AcDbLine
 62
7
  6
CONTINUOUS
 10
-2.7812783412
 20
-23.4781828305
 11
-2.7812783412
 21
-22.5310194482
  0
LINE
  5
280
100
AcDbEntity
  8
ASSI
100
AcDbLine
 62
7
  6
CONTINUOUS
 10
-2.7812783412
 20
22.5310194482
 11
-2.7812783412
 21
23.4781828305
  0
LINE
  5
281
100
AcDbEntity
  8
DRAFT
100
AcDbLine
 62
7
  6
CONTINUOUS
 10
-2.7812783412
 20
22.5310194482
 11
-2.7812783412
 21
23.4781828305
  0
LINE
  5
282
100
AcDbEntity
  8
RACCORDO
100
AcDbLine
 62
253
  6
CONTINUOUS
 10
-10.6503805997
 20
-22.4
 11
-10.5087981167
 21
-21.9749071372
  0
LINE
  5
283
100
AcDbEntity
  8
ASSI
100
AcDbLine
 62
253
  6
CONTINUOUS
 10
-10.6503805997
 20
-22.4
 11
-10.5087981167
 21
-21.9749071372
  0
LINE
  5
284
100
AcDbEntity
  8
0
100
AcDbLine
 62
253
  6
CONTINUOUS
 10
-10.6503805997
 20
-22.4
 11
-10.5087981167
 21
-21.9749071372
  0
LINE
  5
285
100
AcDbEntity
  8
CURVE
100
AcDbLine
 62
7
  6
CONTINUOUS
 10
11.0225876003
 20
15.2818450293
 11
11.0261068609
 21
15.2853642899
  0
LINE
  5
286
100
AcDbEntity
  8
CURVE
100
AcDbLine
 62
7
  6
CONTINUOUS
 10
11.0360929746
 20
15.2953504036
 11
11.0396122352
 21
15.2988696641
  0
LINE
  5
287
100
AcDbEntity
  8
CURVE
100
AcDbLine
 62
7
  6
CONTINUOUS
 10
11.0504778823
 20
15.3097353113
 11
11.0539971429
 21
15.3132545718
  0
LINE
  5
288
100
AcDbEntity
  8
CURVE
100
AcDbLine
 62
7
  6
CONTINUOUS
 10
11.0225876003
 20
14.8867137599
 11
11.0261068609
 21
14.8902330205
  0
LINE
  5
289
100
AcDbEntity
  8
CURVE
100
AcDbLine
 62
7
  6
CONTINUOUS
 10
11.0360929746
 20
14.9002191342
 11
11.0396122352
 21
14.9037383948
  0
LINE
  5
28A
100
AcDbEntity
  8
CURVE
100
AcDbLine
 62
7
  6
CONTINUOUS
 10
11.0504778823
 20
14.9146040419
 11
11.0539971429
 21
14.9181233025
  0
LINE
  5
28B
100
AcDbEntity
  8
CURVE
100
AcDbLine
 62
7
  6
CONTINUOUS
 10
11.0225876003
 20
14.4915824906
 11
11.0261068609
 21
14.4951017512
  0
LINE
  5
28C
100
AcDbEntity
  8
CURVE
100
AcDbLine
 62
7
  6
CONTINUOUS
 10
11.0360929746
 20
14.5050878649
 11
11.0396122352
 21
14.5086071255
  0
LINE
  5
28D
100
AcDbEntity
  8
CURVE
100
AcDbLine
 62
7
  6
CONTINUOUS
 10
11.0504778823
 20
14.5194727726
 11
11.0539971429
 21
14.5229920332
  0
LINE
  5
28E
100
AcDbEntity
  8
CURVE
100
AcDbLine
 62
7
  6
CONTINUOUS
 10
11.0225876003
 20
13.701319952
 11
11.0336806607
 21
13.7124130124
  0
LINE
  5
28F
100
AcDbEntity
  8
CURVE
100
AcDbLine
 62
7
  6
CONTINUOUS
 10
11.0416592506
 20
13.3252603329
 11
11.0521556136
 21
13.3357566959
  0
LINE
  5
290
100
AcDbEntity
  8
RACCORDO
100
AcDbLine
 62
253
  6
CONTINUOUS
 10
-10.5087981167
 20
21.9749071372
 11
-10.6503805997
 21
22.4
  0
LINE
  5
291
100
AcDbEntity
  8
ASSI
100
AcDbLine
 62
253
  6
CONTINUOUS
 10
-10.5087981167
 20
21.9749071372
 11
-10.6503805997
 21
22.4
  0
LINE
  5
292
100
AcDbEntity
  8
0
100
AcDbLine
 62
253
  6
CONTINUOUS
 10
-10.5087981167
 20
21.9749071372
 11
-10.6503805997
 21
22.4
  0
LINE
  5
293
100
AcDbEntity
  8
CURVE
100
AcDbLine
 62
7
  6
CONTINUOUS
 10
11.0371651722
 20
12.9256349852
 11
11.0496545153
 21
12.9381243283
  0
LINE
  5
294
100
AcDbEntity
  8
CURVE
100
AcDbLine
 62
7
  6
CONTINUOUS
 10
11.0225876003
 20
12.515926144
 11
11.0291024953
 21
12.5224410389
  0
LINE
  5
295
100
AcDbEntity
  8
CURVE
100
AcDbLine
 62
7
  6
CONTINUOUS
 10
11.0225876003
 20
12.1207948746
 11
11.0261068609
 21
12.1243141352
  0
LINE
  5
296
100
AcDbEntity
  8
CURVE
100
AcDbLine
 62
7
  6
CONTINUOUS
 10
11.0504778823
 20
12.1486851566
 11
11.0539971429
 21
12.1522044172
  0
LINE
  5
297
100
AcDbEntity
  8
CURVE
100
AcDbLine
 62
7
  6
CONTINUOUS
 10
11.0225876003
 20
11.7256636053
 11
11.0261068609
 21
11.7291828659
  0
LINE
  5
298
100
AcDbEntity
  8
CURVE
100
AcDbLine
 62
7
  6
CONTINUOUS
 10
11.0360929746
 20
11.7391689796
 11
11.0396122352
 21
11.7426882402
  0
LINE
  5
299
100
AcDbEntity
  8
CURVE
100
AcDbLine
 62
7
  6
CONTINUOUS
 10
11.0504778823
 20
11.7535538873
 11
11.0539971429
 21
11.7570731479
  0
LINE
  5
29A
100
AcDbEntity
  8
CURVE
100
AcDbLine
 62
7
  6
CONTINUOUS
 10
11.0225876003
 20
11.330532336
 11
11.0261068609
 21
11.3340515966
  0
LINE
  5
29B
100
AcDbEntity
  8
CURVE
100
AcDbLine
 62
7
  6
CONTINUOUS
 10
11.0360929746
 20
11.3440377103
 11
11.0396122352
 21
11.3475569709
  0
LINE
  5
29C
100
AcDbEntity
  8
CURVE
100
AcDbLine
 62
7
  6
CONTINUOUS
 10
11.0504778823
 20
11.358422618
 11
11.0539971429
 21
11.3619418786
  0
LINE
  5
29D
100
AcDbEntity
  8
CURVE
100
AcDbLine
 62
7
  6
CONTINUOUS
 10
11.0232808456
 20
10.9360943119
 11
11.0539971429
 21
10.9668106092
  0
LINE
  5
29E
100
AcDbEntity
  8
CURVE
100
AcDbLine
 62
253
  6
CONTINUOUS
 10
11.019903016
 20
0.0
 11
11.0706362049
 21
0.0
  0
LINE
  5
29F
100
AcDbEntity
  8
CURVE
100
AcDbLine
 62
7
  6
CONTINUOUS
 10
11.047177049
 20
10.1697279767
 11
11.0539971429
 21
10.1765480706
  0
LINE
  5
2A0
100
AcDbEntity
  8
CURVE
100
AcDbLine
 62
7
  6
CONTINUOUS
 10
11.036266403
 20
9.7636860614
 11
11.043231034
 21
9.7706506924
  0
LINE
  5
2A1
100
AcDbEntity
  8
CURVE
100
AcDbLine
 62
7
  6
CONTINUOUS
 10
11.025355757
 20
9.357644146
 11
11.0323473357
 21
9.3646357248
  0
LINE
  5
2A2
100
AcDbEntity
  8
ASSI
100
AcDbLine
 62
7
  6
CONTINUOUS
 10
2.7812783412
 20
-23.4781828305
 11
2.7812783412
 21
-22.5310194482
  0
LINE
  5
2A3
100
AcDbEntity
  8
DRAFT
100
AcDbLine
 62
7
  6
CONTINUOUS
 10
2.7812783412
 20
-23.4781828305
 11
2.7812783412
 21
-22.5310194482
  0
LINE
  5
2A4
100
AcDbEntity
  8
ASSI
100
AcDbLine
 62
7
  6
CONTINUOUS
 10
2.7812783412
 20
22.5310194482
 11
2.7812783412
 21
23.4781828305
  0
LINE
  5
2A5
100
AcDbEntity
  8
DRAFT
100
AcDbLine
 62
7
  6
CONTINUOUS
 10
2.7812783412
 20
22.5310194482
 11
2.7812783412
 21
23.4781828305
  0
LINE
  5
2A6
100
AcDbEntity
  8
ASSI
100
AcDbLine
 62
7
  6
CONTINUOUS
 10
3.0
 20
-23.5
 11
3.0
 21
-22.4
  0
LINE
  5
2A7
100
AcDbEntity
  8
DRAFT
100
AcDbLine
 62
7
  6
CONTINUOUS
 10
3.0
 20
-23.5
 11
3.0
 21
-22.4
  0
LINE
  5
2A8
100
AcDbEntity
  8
ASSI
100
AcDbLine
 62
7
  6
CONTINUOUS
 10
3.0
 20
22.4
 11
3.0
 21
23.5
  0
LINE
  5
2A9
100
AcDbEntity
  8
DRAFT
100
AcDbLine
 62
7
  6
CONTINUOUS
 10
3.0
 20
22.4
 11
3.0
 21
23.5
  0
LINE
  5
2AA
100
AcDbEntity
  8
RACCORDO
100
AcDbLine
 62
253
  6
CONTINUOUS
 10
10.5087981167
 20
21.9749071372
 11
10.6503805997
 21
22.4
  0
LINE
  5
2AB
100
AcDbEntity
  8
ASSI
100
AcDbLine
 62
253
  6
CONTINUOUS
 10
10.5087981167
 20
21.9749071372
 11
10.6503805997
 21
22.4
  0
LINE
  5
2AC
100
AcDbEntity
  8
0
100
AcDbLine
 62
253
  6
CONTINUOUS
 10
10.5087981167
 20
21.9749071372
 11
10.6503805997
 21
22.4
  0
LINE
  5
2AD
100
AcDbEntity
  8
RACCORDO
100
AcDbLine
 62
253
  6
CONTINUOUS
 10
11.0087219643
 20
21.4755923698
 11
11.15
 21
21.8997711479
  0
LINE
  5
2AE
100
AcDbEntity
  8
ASSI
100
AcDbLine
 62
253
  6
CONTINUOUS
 10
11.0087219643
 20
21.4755923698
 11
11.15
 21
21.8997711479
  0
LINE
  5
2AF
100
AcDbEntity
  8
0
100
AcDbLine
 62
253
  6
CONTINUOUS
 10
11.0087219643
 20
21.4755923698
 11
11.15
 21
21.8997711479
  0
LINE
  5
2B0
100
AcDbEntity
  8
RACCORDO
100
AcDbLine
 62
253
  6
CONTINUOUS
 10
10.6503805997
 20
-22.4
 11
10.5087981167
 21
-21.9749071372
  0
LINE
  5
2B1
100
AcDbEntity
  8
ASSI
100
AcDbLine
 62
253
  6
CONTINUOUS
 10
10.6503805997
 20
-22.4
 11
10.5087981167
 21
-21.9749071372
  0
LINE
  5
2B2
100
AcDbEntity
  8
0
100
AcDbLine
 62
253
  6
CONTINUOUS
 10
10.6503805997
 20
-22.4
 11
10.5087981167
 21
-21.9749071372
  0
LINE
  5
2B3
100
AcDbEntity
  8
RACCORDO
100
AcDbLine
 62
253
  6
CONTINUOUS
 10
11.15
 20
-21.8997711479
 11
11.0087219643
 21
-21.4755923698
  0
LINE
  5
2B4
100
AcDbEntity
  8
ASSI
100
AcDbLine
 62
253
  6
CONTINUOUS
 10
11.15
 20
-21.8997711479
 11
11.0087219643
 21
-21.4755923698
  0
LINE
  5
2B5
100
AcDbEntity
  8
0
100
AcDbLine
 62
253
  6
CONTINUOUS
 10
11.15
 20
-21.8997711479
 11
11.0087219643
 21
-21.4755923698
  0
LINE
  5
2B6
100
AcDbEntity
  8
CURVE
100
AcDbLine
 62
253
  6
CONTINUOUS
 10
11.0301586403
 20
-14.092764
 11
11.0540847755
 21
-14.187352
  0
LINE
  5
2B7
100
AcDbEntity
  8
CURVE
100
AcDbLine
 62
253
  6
CONTINUOUS
 10
11.0540847755
 20
-14.606677
 11
11.0174433926
 21
-14.417075
  0
LINE
  5
2B8
100
AcDbEntity
  8
CURVE
100
AcDbLine
 62
253
  6
CONTINUOUS
 10
11.0275115135
 20
-11.545854
 11
11.0411095964
 21
-11.764098
  0
LINE
  5
2B9
100
AcDbEntity
  8
CURVE
100
AcDbLine
 62
253
  6
CONTINUOUS
 10
11.0426647877
 20
-16.294119
 11
11.0174433926
 21
-15.881628
  0
LINE
  5
2BA
100
AcDbEntity
  8
CURVE
100
AcDbLine
 62
253
  6
CONTINUOUS
 10
11.0467698585
 20
-11.853758
 11
11.0540847755
 21
-11.974706
  0
LINE
  5
2BB
100
AcDbEntity
  8
CURVE
100
AcDbLine
 62
253
  6
CONTINUOUS
 10
11.0540847755
 20
-12.408266
 11
11.0174433926
 21
-11.749628
  0
LINE
  5
2BC
100
AcDbEntity
  8
CURVE
100
AcDbLine
 62
253
  6
CONTINUOUS
 10
11.0174433926
 20
-15.443612
 11
11.0540847755
 21
-16.118579
  0
LINE
  5
2BD
100
AcDbEntity
  8
CURVE
100
AcDbLine
 62
253
  6
CONTINUOUS
 10
11.0377867978
 20
-13.545436
 11
11.0174433926
 21
-13.107121
  0
LINE
  5
2BE
100
AcDbEntity
  8
CURVE
100
AcDbLine
 62
253
  6
CONTINUOUS
 10
11.0302583831
 20
-12.995936
 11
11.0540847755
 21
-13.517093
  0
LINE
  5
2BF
100
AcDbEntity
  8
CURVE
100
AcDbLine
 62
253
  6
CONTINUOUS
 10
11.0749501324
 20
-15.23011
 11
11.0976348052
 21
-15.800443
  0
LINE
  5
2C0
100
AcDbEntity
  8
CURVE
100
AcDbLine
 62
253
  6
CONTINUOUS
 10
11.0749501324
 20
-15.974264
 11
11.0976348052
 21
-16.597131
  0
LINE
  5
2C1
100
AcDbEntity
  8
RACCORDO
100
AcDbLine
 62
253
  6
CONTINUOUS
 10
10.5005350625
 20
-21.0183142309
 11
10.5005350625
 21
21.0183142309
  0
LINE
  5
2C2
100
AcDbEntity
  8
CURVE
100
AcDbLine
 62
253
  6
CONTINUOUS
 10
11.0751920102
 20
17.1428568363
 11
11.0789318114
 21
17.25
  0
LINE
  5
2C3
100
AcDbEntity
  8
CURVE
100
AcDbLine
 62
253
  6
CONTINUOUS
 10
11.0938910171
 20
16.6071431637
 11
11.0901512156
 21
16.5
  0
LINE
  5
2C4
100
AcDbEntity
  8
CURVE
100
AcDbLine
 62
253
  6
CONTINUOUS
 10
11.093267717
 20
15.1071431637
 11
11.0945143175
 21
15.1428573132
  0
LINE
  5
2C5
100
AcDbEntity
  8
CURVE
100
AcDbLine
 62
253
  6
CONTINUOUS
 10
11.0963842182
 20
15.0357141495
 11
11.0951376177
 21
15.0
  0
LINE
  5
2C6
100
AcDbEntity
  8
CURVE
100
AcDbLine
 62
253
  6
CONTINUOUS
 10
11.0751920102
 20
14.25
 11
11.0789318114
 21
14.3571428061
  0
LINE
  5
2C7
100
AcDbEntity
  8
CURVE
100
AcDbLine
 62
253
  6
CONTINUOUS
 10
11.0938910171
 20
13.7142856121
 11
11.0901512156
 21
13.6071428061
  0
LINE
  5
2C8
100
AcDbEntity
  8
CURVE
100
AcDbLine
 62
253
  6
CONTINUOUS
 10
11.0751920102
 20
13.0714284182
 11
11.0789318114
 21
13.1785715818
  0
LINE
  5
2C9
100
AcDbEntity
  8
CURVE
100
AcDbLine
 62
253
  6
CONTINUOUS
 10
11.0539971429
 20
13.0259579198
 11
11.0225876003
 21
12.3906713657
  0
LINE
  5
2CA
100
AcDbEntity
  8
CURVE
100
AcDbLine
 62
253
  6
CONTINUOUS
 10
11.0225876003
 20
12.6503037553
 11
11.0498180336
 21
13.1646135967
  0
LINE
  5
2CB
100
AcDbEntity
  8
CURVE
100
AcDbLine
 62
253
  6
CONTINUOUS
 10
11.0539971429
 20
9.0
 11
11.0225876003
 21
9.0
  0
LINE
  5
2CC
100
AcDbEntity
  8
CURVE
100
AcDbLine
 62
253
  6
CONTINUOUS
 10
11.0901512156
 20
9.0
 11
11.0789318114
 21
9.0
  0
LINE
  5
2CD
100
AcDbEntity
  8
CURVE
100
AcDbLine
 62
253
  6
CONTINUOUS
 10
11.0287904105
 20
9.2268895676
 11
11.0539971429
 21
9.2268895676
  0
LINE
  5
2CE
100
AcDbEntity
  8
CURVE
100
AcDbLine
 62
253
  6
CONTINUOUS
 10
11.0789318114
 20
9.75
 11
11.0901512156
 21
9.75
  0
LINE
  5
2CF
100
AcDbEntity
  8
CURVE
100
AcDbLine
 62
253
  6
CONTINUOUS
 10
11.0751920102
 20
10.178571403
 11
11.0826716125
 21
10.178571403
  0
LINE
  5
2D0
100
AcDbEntity
  8
CURVE
100
AcDbLine
 62
253
  6
CONTINUOUS
 10
11.0480583941
 20
10.2075659919
 11
11.0225876003
 21
10.2075659919
  0
LINE
  5
2D1
100
AcDbEntity
  8
CURVE
100
AcDbLine
 62
253
  6
CONTINUOUS
 10
11.0225876003
 20
10.4344714406
 11
11.0539971429
 21
10.4344714406
  0
LINE
  5
2D2
100
AcDbEntity
  8
CURVE
100
AcDbLine
 62
253
  6
CONTINUOUS
 10
11.0901512156
 20
10.821428597
 11
11.0826716125
 21
10.928571403
  0
LINE
  5
2D3
100
AcDbEntity
  8
CURVE
100
AcDbLine
 62
253
  6
CONTINUOUS
 10
11.0498180336
 20
13.1696680567
 11
11.0225876003
 21
13.6889667159
  0
LINE
  5
2D4
100
AcDbEntity
  8
CURVE
100
AcDbLine
 62
253
  6
CONTINUOUS
 10
11.0225876003
 20
13.9385717089
 11
11.0539971429
 21
13.2982126959
  0
LINE
  5
2D5
100
AcDbEntity
  8
CURVE
100
AcDbLine
 62
253
  6
CONTINUOUS
 10
11.0749501324
 20
-7.080387
 11
11.0976348052
 21
-7.650721
  0
LINE
  5
2D6
100
AcDbEntity
  8
CURVE
100
AcDbLine
 62
253
  6
CONTINUOUS
 10
11.0789318114
 20
9.0
 11
11.0751920102
 21
9.1071428619
  0
LINE
  5
2D7
100
AcDbEntity
  8
CURVE
100
AcDbLine
 62
253
  6
CONTINUOUS
 10
11.0901512156
 20
9.75
 11
11.0938910171
 21
9.6428571492
  0
LINE
  5
2D8
100
AcDbEntity
  8
CURVE
100
AcDbLine
 62
253
  6
CONTINUOUS
 10
11.0789318114
 20
12.4285715818
 11
11.0751920102
 21
12.5357143879
  0
LINE
  5
2D9
100
AcDbEntity
  8
CURVE
100
AcDbLine
 62
253
  6
CONTINUOUS
 10
11.0901512156
 20
13.1785715818
 11
11.0938910171
 21
13.0714284182
  0
LINE
  5
2DA
100
AcDbEntity
  8
CURVE
100
AcDbLine
 62
253
  6
CONTINUOUS
 10
11.0789318114
 20
13.6071428061
 11
11.0751920102
 21
13.7142856121
  0
LINE
  5
2DB
100
AcDbEntity
  8
CURVE
100
AcDbLine
 62
253
  6
CONTINUOUS
 10
11.0901512156
 20
14.3571428061
 11
11.0938910171
 21
14.25
  0
LINE
  5
2DC
100
AcDbEntity
  8
CURVE
100
AcDbLine
 62
253
  6
CONTINUOUS
 10
11.0945143175
 20
15.0
 11
11.093267717
 21
15.0357141495
  0
LINE
  5
2DD
100
AcDbEntity
  8
CURVE
100
AcDbLine
 62
253
  6
CONTINUOUS
 10
11.0951376177
 20
15.1428573132
 11
11.0963842182
 21
15.1071431637
  0
LINE
  5
2DE
100
AcDbEntity
  8
CURVE
100
AcDbLine
 62
253
  6
CONTINUOUS
 10
11.0789318114
 20
16.5
 11
11.0751920102
 21
16.6071431637
  0
LINE
  5
2DF
100
AcDbEntity
  8
CURVE
100
AcDbLine
 62
253
  6
CONTINUOUS
 10
11.0901512156
 20
17.25
 11
11.0938910171
 21
17.1428568363
  0
LINE
  5
2E0
100
AcDbEntity
  8
CURVE
100
AcDbLine
 62
253
  6
CONTINUOUS
 10
11.0888569711
 20
-4.876396
 11
11.0749501324
 21
-4.400657
  0
LINE
  5
2E1
100
AcDbEntity
  8
CURVE
100
AcDbLine
 62
253
  6
CONTINUOUS
 10
11.0751920102
 20
9.1071428619
 11
11.071452209
 21
9.3214285746
  0
LINE
  5
2E2
100
AcDbEntity
  8
CURVE
100
AcDbLine
 62
253
  6
CONTINUOUS
 10
11.071452209
 20
10.3928571045
 11
11.0751920102
 21
10.178571403
  0
LINE
  5
2E3
100
AcDbEntity
  8
CURVE
100
AcDbLine
 62
253
  6
CONTINUOUS
 10
11.0938910171
 20
9.6428571492
 11
11.0976308187
 21
9.4285714477
  0
LINE
  5
2E4
100
AcDbEntity
  8
CURVE
100
AcDbLine
 62
253
  6
CONTINUOUS
 10
11.0976308187
 20
10.3928571045
 11
11.0901512156
 21
10.821428597
  0
LINE
  5
2E5
100
AcDbEntity
  8
CURVE
100
AcDbLine
 62
253
  6
CONTINUOUS
 10
11.0751920102
 20
12.5357143879
 11
11.071452209
 21
12.75
  0
LINE
  5
2E6
100
AcDbEntity
  8
CURVE
100
AcDbLine
 62
253
  6
CONTINUOUS
 10
11.0976308187
 20
11.8928571939
 11
11.0957609179
 21
12.0
  0
LINE
  5
2E7
100
AcDbEntity
  8
CURVE
100
AcDbLine
 62
253
  6
CONTINUOUS
 10
11.0751920102
 20
13.7142856121
 11
11.071452209
 21
13.9285715818
  0
LINE
  5
2E8
100
AcDbEntity
  8
CURVE
100
AcDbLine
 62
253
  6
CONTINUOUS
 10
11.0938910171
 20
13.0714284182
 11
11.0976308187
 21
12.8571428061
  0
LINE
  5
2E9
100
AcDbEntity
  8
CURVE
100
AcDbLine
 62
253
  6
CONTINUOUS
 10
11.0938910171
 20
14.25
 11
11.0976308187
 21
14.0357143879
  0
LINE
  5
2EA
100
AcDbEntity
  8
CURVE
100
AcDbLine
 62
253
  6
CONTINUOUS
 10
11.0789318114
 20
15.6428568363
 11
11.071452209
 21
16.0714287758
  0
LINE
  5
2EB
100
AcDbEntity
  8
CURVE
100
AcDbLine
 62
253
  6
CONTINUOUS
 10
11.0751920102
 20
16.6071431637
 11
11.071452209
 21
16.8214287758
  0
LINE
  5
2EC
100
AcDbEntity
  8
CURVE
100
AcDbLine
 62
253
  6
CONTINUOUS
 10
11.0938910171
 20
17.1428568363
 11
11.0976308187
 21
16.9285712242
  0
LINE
  5
2ED
100
AcDbEntity
  8
CURVE
100
AcDbLine
 62
253
  6
CONTINUOUS
 10
11.0452696104
 20
0.0
 11
11.0292439011
 21
1.183131
  0
LINE
  5
2EE
100
AcDbEntity
  8
CURVE
100
AcDbLine
 62
253
  6
CONTINUOUS
 10
11.0826716125
 20
11.7857142091
 11
11.0808017127
 21
11.9642856717
  0
LINE
  5
2EF
100
AcDbEntity
  8
CURVE
100
AcDbLine
 62
253
  6
CONTINUOUS
 10
11.0174411939
 20
-14.842636
 11
11.0174411939
 21
-15.280952
  0
LINE
  5
2F0
100
AcDbEntity
  8
CURVE
100
AcDbLine
 62
253
  6
CONTINUOUS
 10
11.0174433926
 20
-17.17053
 11
11.0174433926
 21
-16.694384
  0
LINE
  5
2F1
100
AcDbEntity
  8
CURVE
100
AcDbLine
 62
253
  6
CONTINUOUS
 10
11.0174433926
 20
-15.881628
 11
11.0174433926
 21
-15.443612
  0
LINE
  5
2F2
100
AcDbEntity
  8
CURVE
100
AcDbLine
 62
253
  6
CONTINUOUS
 10
11.0174433926
 20
-14.417075
 11
11.0174433926
 21
-13.979122
  0
LINE
  5
2F3
100
AcDbEntity
  8
CURVE
100
AcDbLine
 62
253
  6
CONTINUOUS
 10
11.0174433926
 20
-13.107121
 11
11.0174433926
 21
-12.67345
  0
LINE
  5
2F4
100
AcDbEntity
  8
CURVE
100
AcDbLine
 62
253
  6
CONTINUOUS
 10
11.0174433926
 20
-11.749628
 11
11.0174433926
 21
-11.32561
  0
LINE
  5
2F5
100
AcDbEntity
  8
CURVE
100
AcDbLine
 62
253
  6
CONTINUOUS
 10
11.019903016
 20
-0.220257
 11
11.019903016
 21
0.220257
  0
LINE
  5
2F6
100
AcDbEntity
  8
CURVE
100
AcDbLine
 62
253
  6
CONTINUOUS
 10
11.0225876003
 20
9.0
 11
11.0225876003
 21
9.2546266319
  0
LINE
  5
2F7
100
AcDbEntity
  8
CURVE
100
AcDbLine
 62
253
  6
CONTINUOUS
 10
11.0225876003
 20
10.2075659919
 11
11.0225876003
 21
10.4344714406
  0
LINE
  5
2F8
100
AcDbEntity
  8
CURVE
100
AcDbLine
 62
253
  6
CONTINUOUS
 10
11.0225876003
 20
10.9360943119
 11
11.0225876003
 21
12.1789472959
  0
LINE
  5
2F9
100
AcDbEntity
  8
CURVE
100
AcDbLine
 62
253
  6
CONTINUOUS
 10
11.0225876003
 20
12.3906713657
 11
11.0225876003
 21
12.6503037553
  0
LINE
  5
2FA
100
AcDbEntity
  8
CURVE
100
AcDbLine
 62
253
  6
CONTINUOUS
 10
11.0225876003
 20
13.6889667159
 11
11.0225876003
 21
13.9385717089
  0
LINE
  5
2FB
100
AcDbEntity
  8
CURVE
100
AcDbLine
 62
253
  6
CONTINUOUS
 10
11.0225876003
 20
14.2435851882
 11
11.0225876003
 21
15.4864222909
  0
LINE
  5
2FC
100
AcDbEntity
  8
CURVE
100
AcDbLine
 62
253
  6
CONTINUOUS
 10
11.0261068609
 20
15.4864222909
 11
11.0261068609
 21
14.4830802023
  0
LINE
  5
2FD
100
AcDbEntity
  8
CURVE
100
AcDbLine
 62
253
  6
CONTINUOUS
 10
11.0261068609
 20
12.1789472959
 11
11.0261068609
 21
11.1755882673
  0
LINE
  5
2FE
100
AcDbEntity
  8
CURVE
100
AcDbLine
 62
253
  6
CONTINUOUS
 10
11.0287904105
 20
9.2319450864
 11
11.0287904105
 21
9.2268895676
  0
LINE
  5
2FF
100
AcDbEntity
  8
CURVE
100
AcDbLine
 62
253
  6
CONTINUOUS
 10
11.0337443905
 20
-9.8801103492
 11
11.0337443905
 21
-10.1306033287
  0
LINE
  5
300
100
AcDbEntity
  8
CURVE
100
AcDbLine
 62
253
  6
CONTINUOUS
 10
11.0360929746
 20
11.1755882673
 11
11.0360929746
 21
12.1108836018
  0
LINE
  5
301
100
AcDbEntity
  8
CURVE
100
AcDbLine
 62
253
  6
CONTINUOUS
 10
11.0360929746
 20
14.4830802023
 11
11.0360929746
 21
15.418408358
  0
LINE
  5
302
100
AcDbEntity
  8
CURVE
100
AcDbLine
 62
253
  6
CONTINUOUS
 10
11.0396122352
 20
15.418408358
 11
11.0396122352
 21
14.4830802023
  0
LINE
  5
303
100
AcDbEntity
  8
CURVE
100
AcDbLine
 62
253
  6
CONTINUOUS
 10
11.0396122352
 20
12.1108836018
 11
11.0396122352
 21
11.1755882673
  0
LINE
  5
304
100
AcDbEntity
  8
CURVE
100
AcDbLine
 62
253
  6
CONTINUOUS
 10
11.039745365
 20
-10.1160694451
 11
11.039745365
 21
-9.8810551304
  0
LINE
  5
305
100
AcDbEntity
  8
CURVE
100
AcDbLine
 62
253
  6
CONTINUOUS
 10
11.0411095964
 20
-11.764098
 11
11.0411095964
 21
-11.344442
  0
LINE
  5
306
100
AcDbEntity
  8
CURVE
100
AcDbLine
 62
253
  6
CONTINUOUS
 10
11.0467698585
 20
-11.256845
 11
11.0467698585
 21
-11.853758
  0
LINE
  5
307
100
AcDbEntity
  8
CURVE
100
AcDbLine
 62
253
  6
CONTINUOUS
 10
11.0480583941
 20
10.202527413
 11
11.0480583941
 21
10.2075659919
  0
LINE
  5
308
100
AcDbEntity
  8
CURVE
100
AcDbLine
 62
253
  6
CONTINUOUS
 10
11.0498180336
 20
13.1646135967
 11
11.0498180336
 21
13.1696680567
  0
LINE
  5
309
100
AcDbEntity
  8
CURVE
100
AcDbLine
 62
253
  6
CONTINUOUS
 10
11.0504778823
 20
11.1755882673
 11
11.0504778823
 21
12.1865131048
  0
LINE
  5
30A
100
AcDbEntity
  8
CURVE
100
AcDbLine
 62
253
  6
CONTINUOUS
 10
11.0504778823
 20
14.4830802023
 11
11.0504778823
 21
15.494037861
  0
LINE
  5
30B
100
AcDbEntity
  8
CURVE
100
AcDbLine
 62
253
  6
CONTINUOUS
 10
11.0539971429
 20
15.494037861
 11
11.0539971429
 21
14.2435851882
  0
LINE
  5
30C
100
AcDbEntity
  8
CURVE
100
AcDbLine
 62
253
  6
CONTINUOUS
 10
11.0539971429
 20
13.2982126959
 11
11.0539971429
 21
13.0259579198
  0
LINE
  5
30D
100
AcDbEntity
  8
CURVE
100
AcDbLine
 62
253
  6
CONTINUOUS
 10
11.0539971429
 20
12.1865131048
 11
11.0539971429
 21
10.9360943119
  0
LINE
  5
30E
100
AcDbEntity
  8
CURVE
100
AcDbLine
 62
253
  6
CONTINUOUS
 10
11.0539971429
 20
10.4344714406
 11
11.0539971429
 21
10.1722789998
  0
LINE
  5
30F
100
AcDbEntity
  8
CURVE
100
AcDbLine
 62
253
  6
CONTINUOUS
 10
11.0539971429
 20
9.2268895676
 11
11.0539971429
 21
9.0
  0
LINE
  5
310
100
AcDbEntity
  8
CURVE
100
AcDbLine
 62
253
  6
CONTINUOUS
 10
11.0540847755
 20
-10.681332
 11
11.0540847755
 21
-11.143299
  0
LINE
  5
311
100
AcDbEntity
  8
CURVE
100
AcDbLine
 62
253
  6
CONTINUOUS
 10
11.0540847755
 20
-11.974706
 11
11.0540847755
 21
-12.408266
  0
LINE
  5
312
100
AcDbEntity
  8
CURVE
100
AcDbLine
 62
253
  6
CONTINUOUS
 10
11.0540847755
 20
-12.477093
 11
11.0540847755
 21
-12.905882
  0
LINE
  5
313
100
AcDbEntity
  8
CURVE
100
AcDbLine
 62
253
  6
CONTINUOUS
 10
11.0540847755
 20
-13.517093
 11
11.0540847755
 21
-13.578566
  0
LINE
  5
314
100
AcDbEntity
  8
CURVE
100
AcDbLine
 62
253
  6
CONTINUOUS
 10
11.0540847755
 20
-14.187352
 11
11.0540847755
 21
-14.606677
  0
LINE
  5
315
100
AcDbEntity
  8
CURVE
100
AcDbLine
 62
253
  6
CONTINUOUS
 10
11.0540847755
 20
-16.118579
 11
11.0540847755
 21
-16.504845
  0
LINE
  5
316
100
AcDbEntity
  8
CURVE
100
AcDbLine
 62
253
  6
CONTINUOUS
 10
11.0540847755
 20
-15.280952
 11
11.0540847755
 21
-14.842636
  0
LINE
  5
317
100
AcDbEntity
  8
CURVE
100
AcDbLine
 62
253
  6
CONTINUOUS
 10
11.0540847814
 20
-10.5526213286
 11
11.0540847814
 21
-10.1160694451
  0
LINE
  5
318
100
AcDbEntity
  8
CURVE
100
AcDbLine
 62
253
  6
CONTINUOUS
 10
11.0540847814
 20
-9.4448496666
 11
11.0540847814
 21
-9.0232410719
  0
LINE
  5
319
100
AcDbEntity
  8
CURVE
100
AcDbLine
 62
253
  6
CONTINUOUS
 10
11.0706362049
 20
-0.220257
 11
11.0706362049
 21
0.220257
  0
LINE
  5
31A
100
AcDbEntity
  8
CURVE
100
AcDbLine
 62
253
  6
CONTINUOUS
 10
11.071452209
 20
11.7857142091
 11
11.071452209
 21
11.3571428061
  0
LINE
  5
31B
100
AcDbEntity
  8
CURVE
100
AcDbLine
 62
253
  6
CONTINUOUS
 10
11.071452209
 20
10.7142857909
 11
11.071452209
 21
10.3928571045
  0
LINE
  5
31C
100
AcDbEntity
  8
CURVE
100
AcDbLine
 62
253
  6
CONTINUOUS
 10
11.071452209
 20
9.3214285746
 11
11.071452209
 21
9.4285714477
  0
LINE
  5
31D
100
AcDbEntity
  8
CURVE
100
AcDbLine
 62
253
  6
CONTINUOUS
 10
11.071452209
 20
12.75
 11
11.071452209
 21
12.8571428061
  0
LINE
  5
31E
100
AcDbEntity
  8
CURVE
100
AcDbLine
 62
253
  6
CONTINUOUS
 10
11.071452209
 20
13.9285715818
 11
11.071452209
 21
14.0357143879
  0
LINE
  5
31F
100
AcDbEntity
  8
CURVE
100
AcDbLine
 62
253
  6
CONTINUOUS
 10
11.071452209
 20
16.8214287758
 11
11.071452209
 21
16.9285712242
  0
LINE
  5
320
100
AcDbEntity
  8
CURVE
100
AcDbLine
 62
253
  6
CONTINUOUS
 10
11.0749501324
 20
-12.226258
 11
11.0749501324
 21
-13.173245
  0
LINE
  5
321
100
AcDbEntity
  8
CURVE
100
AcDbLine
 62
253
  6
CONTINUOUS
 10
11.0749501324
 20
-14.059757
 11
11.0749501324
 21
-14.489593
  0
LINE
  5
322
100
AcDbEntity
  8
CURVE
100
AcDbLine
 62
253
  6
CONTINUOUS
 10
11.0749501324
 20
-8.775145
 11
11.0749501324
 21
-7.719553
  0
LINE
  5
323
100
AcDbEntity
  8
CURVE
100
AcDbLine
 62
253
  6
CONTINUOUS
 10
11.0801679031
 20
0.475754
 11
11.0801679031
 21
0.0
  0
LINE
  5
324
100
AcDbEntity
  8
CURVE
100
AcDbLine
 62
253
  6
CONTINUOUS
 10
11.0826716125
 20
11.7857142091
 11
11.0826716125
 21
11.571428597
  0
LINE
  5
325
100
AcDbEntity
  8
CURVE
100
AcDbLine
 62
253
  6
CONTINUOUS
 10
11.0862924688
 20
-13.173245
 11
11.0862924688
 21
-12.292654
  0
LINE
  5
326
100
AcDbEntity
  8
CURVE
100
AcDbLine
 62
253
  6
CONTINUOUS
 10
11.0864114144
 20
10.3928571045
 11
11.0864114144
 21
10.8571429253
  0
LINE
  5
327
100
AcDbEntity
  8
CURVE
100
AcDbLine
 62
253
  6
CONTINUOUS
 10
11.0894012985
 20
-7.443716
 11
11.0894012985
 21
-6.717059
  0
LINE
  5
328
100
AcDbEntity
  8
CURVE
100
AcDbLine
 62
253
  6
CONTINUOUS
 10
11.0895311421
 20
-15.596702
 11
11.0895311421
 21
-14.863517
  0
LINE
  5
329
100
AcDbEntity
  8
CURVE
100
AcDbLine
 62
253
  6
CONTINUOUS
 10
11.093267717
 20
15.0357141495
 11
11.093267717
 21
15.1071431637
  0
LINE
  5
32A
100
AcDbEntity
  8
CURVE
100
AcDbLine
 62
253
  6
CONTINUOUS
 10
11.0963842182
 20
15.1071431637
 11
11.0963842182
 21
15.0357141495
  0
LINE
  5
32B
100
AcDbEntity
  8
CURVE
100
AcDbLine
 62
253
  6
CONTINUOUS
 10
11.0976308187
 20
16.9285712242
 11
11.0976308187
 21
16.8214287758
  0
LINE
  5
32C
100
AcDbEntity
  8
CURVE
100
AcDbLine
 62
253
  6
CONTINUOUS
 10
11.0976308187
 20
14.0357143879
 11
11.0976308187
 21
13.9285715818
  0
LINE
  5
32D
100
AcDbEntity
  8
CURVE
100
AcDbLine
 62
253
  6
CONTINUOUS
 10
11.0976308187
 20
12.8571428061
 11
11.0976308187
 21
12.75
  0
LINE
  5
32E
100
AcDbEntity
  8
CURVE
100
AcDbLine
 62
253
  6
CONTINUOUS
 10
11.0976308187
 20
9.4285714477
 11
11.0976308187
 21
9.3214285746
  0
LINE
  5
32F
100
AcDbEntity
  8
CURVE
100
AcDbLine
 62
253
  6
CONTINUOUS
 10
11.0976308187
 20
11.3571428061
 11
11.0976308187
 21
11.8928571939
  0
LINE
  5
330
100
AcDbEntity
  8
CURVE
100
AcDbLine
 62
253
  6
CONTINUOUS
 10
11.0976348052
 20
-14.489593
 11
11.0976348052
 21
-14.059757
  0
LINE
  5
331
100
AcDbEntity
  8
CURVE
100
AcDbLine
 62
253
  6
CONTINUOUS
 10
11.0976348052
 20
-13.173245
 11
11.0976348052
 21
-12.213568
  0
LINE
  5
332
100
AcDbEntity
  8
CURVE
100
AcDbLine
 62
253
  6
CONTINUOUS
 10
11.0976348052
 20
-6.261082
 11
11.0976348052
 21
-5.514148
  0
LINE
  5
333
100
AcDbEntity
  8
RACCORDO
100
AcDbLine
 62
7
  6
CONTINUOUS
 10
11.15
 20
21.8997711479
 11
11.15
 21
-21.8997711479
  0
LINE
  5
334
100
AcDbEntity
  8
ASSI
100
AcDbLine
 62
7
  6
CONTINUOUS
 10
11.15
 20
-21.8997711479
 11
11.15
 21
21.8997711479
  0
LINE
  5
335
100
AcDbEntity
  8
CURVE
100
AcDbLine
 62
253
  6
CONTINUOUS
 10
11.0292439011
 20
-1.183131
 11
11.0452696104
 21
0.0
  0
LINE
  5
336
100
AcDbEntity
  8
CURVE
100
AcDbLine
 62
253
  6
CONTINUOUS
 10
11.071452209
 20
16.9285712242
 11
11.0751920102
 21
17.1428568363
  0
LINE
  5
337
100
AcDbEntity
  8
CURVE
100
AcDbLine
 62
253
  6
CONTINUOUS
 10
11.0976308187
 20
16.8214287758
 11
11.0938910171
 21
16.6071431637
  0
LINE
  5
338
100
AcDbEntity
  8
CURVE
100
AcDbLine
 62
253
  6
CONTINUOUS
 10
11.071452209
 20
14.0357143879
 11
11.0751920102
 21
14.25
  0
LINE
  5
339
100
AcDbEntity
  8
CURVE
100
AcDbLine
 62
253
  6
CONTINUOUS
 10
11.071452209
 20
12.8571428061
 11
11.0751920102
 21
13.0714284182
  0
LINE
  5
33A
100
AcDbEntity
  8
CURVE
100
AcDbLine
 62
253
  6
CONTINUOUS
 10
11.0976308187
 20
13.9285715818
 11
11.0938910171
 21
13.7142856121
  0
LINE
  5
33B
100
AcDbEntity
  8
CURVE
100
AcDbLine
 62
253
  6
CONTINUOUS
 10
11.0976308187
 20
12.75
 11
11.0938910171
 21
12.5357143879
  0
LINE
  5
33C
100
AcDbEntity
  8
CURVE
100
AcDbLine
 62
253
  6
CONTINUOUS
 10
11.0864114144
 20
12.0
 11
11.0826716125
 21
11.7857142091
  0
LINE
  5
33D
100
AcDbEntity
  8
CURVE
100
AcDbLine
 62
253
  6
CONTINUOUS
 10
11.0751920102
 20
10.928571403
 11
11.071452209
 21
10.7142857909
  0
LINE
  5
33E
100
AcDbEntity
  8
CURVE
100
AcDbLine
 62
253
  6
CONTINUOUS
 10
11.0826716125
 20
10.178571403
 11
11.0864114144
 21
10.3928571045
  0
LINE
  5
33F
100
AcDbEntity
  8
CURVE
100
AcDbLine
 62
253
  6
CONTINUOUS
 10
11.071452209
 20
9.4285714477
 11
11.0751920102
 21
9.6428571492
  0
LINE
  5
340
100
AcDbEntity
  8
CURVE
100
AcDbLine
 62
253
  6
CONTINUOUS
 10
11.0976308187
 20
9.3214285746
 11
11.0938910171
 21
9.1071428619
  0
LINE
  5
341
100
AcDbEntity
  8
CURVE
100
AcDbLine
 62
253
  6
CONTINUOUS
 10
11.0751920102
 20
11.9642856717
 11
11.071452209
 21
11.7857142091
  0
LINE
  5
342
100
AcDbEntity
  8
CURVE
100
AcDbLine
 62
253
  6
CONTINUOUS
 10
11.0976348052
 20
-9.944819
 11
11.0749501324
 21
-10.976944
  0
LINE
  5
343
100
AcDbEntity
  8
CURVE
100
AcDbLine
 62
253
  6
CONTINUOUS
 10
11.0225876003
 20
9.2546266319
 11
11.0480583941
 21
10.202527413
  0
LINE
  5
344
100
AcDbEntity
  8
CURVE
100
AcDbLine
 62
253
  6
CONTINUOUS
 10
11.0539971429
 20
10.1722789998
 11
11.0287904105
 21
9.2319450864
  0
LINE
  5
345
100
AcDbEntity
  8
CURVE
100
AcDbLine
 62
253
  6
CONTINUOUS
 10
11.0749501324
 20
-5.352134
 11
11.0888569711
 21
-4.876396
  0
LINE
  5
346
100
AcDbEntity
  8
CURVE
100
AcDbLine
 62
253
  6
CONTINUOUS
 10
11.0938910171
 20
12.5357143879
 11
11.0901512156
 21
12.4285715818
  0
LINE
  5
347
100
AcDbEntity
  8
CURVE
100
AcDbLine
 62
253
  6
CONTINUOUS
 10
11.0751920102
 20
9.6428571492
 11
11.0789318114
 21
9.75
  0
LINE
  5
348
100
AcDbEntity
  8
CURVE
100
AcDbLine
 62
253
  6
CONTINUOUS
 10
11.0938910171
 20
9.1071428619
 11
11.0901512156
 21
9.0
  0
LINE
  5
349
100
AcDbEntity
  8
CURVE
100
AcDbLine
 62
253
  6
CONTINUOUS
 10
11.0976348052
 20
-16.597131
 11
11.0749501324
 21
-17.22
  0
LINE
  5
34A
100
AcDbEntity
  8
CURVE
100
AcDbLine
 62
253
  6
CONTINUOUS
 10
11.0976348052
 20
-6.510054
 11
11.0749501324
 21
-7.080387
  0
LINE
  5
34B
100
AcDbEntity
  8
CURVE
100
AcDbLine
 62
253
  6
CONTINUOUS
 10
11.0976348052
 20
-14.659776
 11
11.0749501324
 21
-15.23011
  0
LINE
  5
34C
100
AcDbEntity
  8
CURVE
100
AcDbLine
 62
253
  6
CONTINUOUS
 10
11.0540847755
 20
-13.578566
 11
11.0301586403
 21
-14.092764
  0
LINE
  5
34D
100
AcDbEntity
  8
CURVE
100
AcDbLine
 62
253
  6
CONTINUOUS
 10
11.0174433926
 20
-13.979122
 11
11.0377867978
 21
-13.545436
  0
LINE
  5
34E
100
AcDbEntity
  8
CURVE
100
AcDbLine
 62
253
  6
CONTINUOUS
 10
11.0540847755
 20
-16.504845
 11
11.0174433926
 21
-17.17053
  0
LINE
  5
34F
100
AcDbEntity
  8
CURVE
100
AcDbLine
 62
253
  6
CONTINUOUS
 10
11.0174433926
 20
-11.32561
 11
11.0540847755
 21
-10.681332
  0
LINE
  5
350
100
AcDbEntity
  8
CURVE
100
AcDbLine
 62
253
  6
CONTINUOUS
 10
11.0174433926
 20
-16.694384
 11
11.0426647877
 21
-16.294119
  0
LINE
  5
351
100
AcDbEntity
  8
CURVE
100
AcDbLine
 62
253
  6
CONTINUOUS
 10
11.0540847755
 20
-11.143299
 11
11.0467698585
 21
-11.256845
  0
LINE
  5
352
100
AcDbEntity
  8
CURVE
100
AcDbLine
 62
253
  6
CONTINUOUS
 10
11.0411095964
 20
-11.344442
 11
11.0275115135
 21
-11.545854
  0
LINE
  5
353
100
AcDbEntity
  8
CURVE
100
AcDbLine
 62
253
  6
CONTINUOUS
 10
11.0826716125
 20
10.928571403
 11
11.0751920102
 21
10.928571403
  0
LINE
  5
354
100
AcDbEntity
  8
CURVE
100
AcDbLine
 62
253
  6
CONTINUOUS
 10
11.0539971429
 20
10.9360943119
 11
11.0225876003
 21
10.9360943119
  0
LINE
  5
355
100
AcDbEntity
  8
CURVE
100
AcDbLine
 62
253
  6
CONTINUOUS
 10
11.0396122352
 20
11.1755882673
 11
11.0504778823
 21
11.1755882673
  0
LINE
  5
356
100
AcDbEntity
  8
CURVE
100
AcDbLine
 62
253
  6
CONTINUOUS
 10
11.0261068609
 20
11.1755882673
 11
11.0360929746
 21
11.1755882673
  0
LINE
  5
357
100
AcDbEntity
  8
CURVE
100
AcDbLine
 62
253
  6
CONTINUOUS
 10
11.0808017127
 20
11.9642856717
 11
11.0751920102
 21
11.9642856717
  0
LINE
  5
358
100
AcDbEntity
  8
CURVE
100
AcDbLine
 62
253
  6
CONTINUOUS
 10
11.0957609179
 20
12.0
 11
11.0864114144
 21
12.0
  0
LINE
  5
359
100
AcDbEntity
  8
CURVE
100
AcDbLine
 62
253
  6
CONTINUOUS
 10
11.0360929746
 20
12.1108836018
 11
11.0396122352
 21
12.1108836018
  0
LINE
  5
35A
100
AcDbEntity
  8
CURVE
100
AcDbLine
 62
253
  6
CONTINUOUS
 10
11.0225876003
 20
12.1789472959
 11
11.0261068609
 21
12.1789472959
  0
LINE
  5
35B
100
AcDbEntity
  8
CURVE
100
AcDbLine
 62
253
  6
CONTINUOUS
 10
11.0504778823
 20
12.1865131048
 11
11.0539971429
 21
12.1865131048
  0
LINE
  5
35C
100
AcDbEntity
  8
CURVE
100
AcDbLine
 62
253
  6
CONTINUOUS
 10
11.0174433926
 20
-12.67345
 11
11.0540847755
 21
-12.477093
  0
LINE
  5
35D
100
AcDbEntity
  8
CURVE
100
AcDbLine
 62
253
  6
CONTINUOUS
 10
11.0540847755
 20
-12.905882
 11
11.0302583831
 21
-12.995936
  0
LINE
  5
35E
100
AcDbEntity
  8
CURVE
100
AcDbLine
 62
253
  6
CONTINUOUS
 10
11.0901512156
 20
12.4285715818
 11
11.0789318114
 21
12.4285715818
  0
LINE
  5
35F
100
AcDbEntity
  8
CURVE
100
AcDbLine
 62
253
  6
CONTINUOUS
 10
11.0789318114
 20
13.1785715818
 11
11.0901512156
 21
13.1785715818
  0
LINE
  5
360
100
AcDbEntity
  8
CURVE
100
AcDbLine
 62
253
  6
CONTINUOUS
 10
11.0901512156
 20
13.6071428061
 11
11.0789318114
 21
13.6071428061
  0
LINE
  5
361
100
AcDbEntity
  8
CURVE
100
AcDbLine
 62
7
  6
CONTINUOUS
 10
11.0220422081
 20
-9.2168390612
 11
11.0330615173
 21
-9.2058197521
  0
LINE
  5
362
100
AcDbEntity
  8
CURVE
100
AcDbLine
 62
7
  6
CONTINUOUS
 10
11.0427268445
 20
-9.1961544248
 11
11.0540847814
 21
-9.1847964879
  0
LINE
  5
363
100
AcDbEntity
  8
CURVE
100
AcDbLine
 62
7
  6
CONTINUOUS
 10
11.0175677223
 20
-9.6164448164
 11
11.0249947598
 21
-9.6090177788
  0
LINE
  5
364
100
AcDbEntity
  8
CURVE
100
AcDbLine
 62
7
  6
CONTINUOUS
 10
11.0317360803
 20
-9.6022764583
 11
11.045467049
 21
-9.5885454897
  0
LINE
  5
365
100
AcDbEntity
  8
CURVE
100
AcDbLine
 62
7
  6
CONTINUOUS
 10
11.0170176416
 20
-10.0121261664
 11
11.023404835
 21
-10.005738973
  0
LINE
  5
366
100
AcDbEntity
  8
CURVE
100
AcDbLine
 62
7
  6
CONTINUOUS
 10
11.0337443905
 20
-9.9953994174
 11
11.039745365
 21
-9.989398443
  0
LINE
  5
367
100
AcDbEntity
  8
CURVE
100
AcDbLine
 62
7
  6
CONTINUOUS
 10
11.0175275439
 20
-10.4067475334
 11
11.0540847814
 21
-10.3701902959
  0
LINE
  5
368
100
AcDbEntity
  8
CURVE
100
AcDbLine
 62
7
  6
CONTINUOUS
 10
11.0490200807
 20
-10.7703862659
 11
11.0540847755
 21
-10.7653215711
  0
LINE
  5
369
100
AcDbEntity
  8
CURVE
100
AcDbLine
 62
7
  6
CONTINUOUS
 10
11.0251930832
 20
-11.1893445328
 11
11.0529035872
 21
-11.1616340288
  0
LINE
  5
36A
100
AcDbEntity
  8
CURVE
100
AcDbLine
 62
253
  6
CONTINUOUS
 10
11.0539971429
 20
14.2435851882
 11
11.0225876003
 21
14.2435851882
  0
LINE
  5
36B
100
AcDbEntity
  8
CURVE
100
AcDbLine
 62
253
  6
CONTINUOUS
 10
11.0789318114
 20
14.3571428061
 11
11.0901512156
 21
14.3571428061
  0
LINE
  5
36C
100
AcDbEntity
  8
CURVE
100
AcDbLine
 62
253
  6
CONTINUOUS
 10
11.0396122352
 20
14.4830802023
 11
11.0504778823
 21
14.4830802023
  0
LINE
  5
36D
100
AcDbEntity
  8
CURVE
100
AcDbLine
 62
253
  6
CONTINUOUS
 10
11.0261068609
 20
14.4830802023
 11
11.0360929746
 21
14.4830802023
  0
LINE
  5
36E
100
AcDbEntity
  8
CURVE
100
AcDbLine
 62
253
  6
CONTINUOUS
 10
11.0951376177
 20
15.0
 11
11.0945143175
 21
15.0
  0
LINE
  5
36F
100
AcDbEntity
  8
CURVE
100
AcDbLine
 62
253
  6
CONTINUOUS
 10
11.0945143175
 20
15.1428573132
 11
11.0951376177
 21
15.1428573132
  0
LINE
  5
370
100
AcDbEntity
  8
CURVE
100
AcDbLine
 62
253
  6
CONTINUOUS
 10
11.0360929746
 20
15.418408358
 11
11.0396122352
 21
15.418408358
  0
LINE
  5
371
100
AcDbEntity
  8
CURVE
100
AcDbLine
 62
253
  6
CONTINUOUS
 10
11.0225876003
 20
15.4864222909
 11
11.0261068609
 21
15.4864222909
  0
LINE
  5
372
100
AcDbEntity
  8
CURVE
100
AcDbLine
 62
253
  6
CONTINUOUS
 10
11.0504778823
 20
15.494037861
 11
11.0539971429
 21
15.494037861
  0
LINE
  5
373
100
AcDbEntity
  8
CURVE
100
AcDbLine
 62
7
  6
CONTINUOUS
 10
11.0174433926
 20
-11.5922254927
 11
11.0296407915
 21
-11.5800280937
  0
LINE
  5
374
100
AcDbEntity
  8
CURVE
100
AcDbLine
 62
7
  6
CONTINUOUS
 10
11.0411095964
 20
-11.5685592889
 11
11.0467698585
 21
-11.5628990268
  0
LINE
  5
375
100
AcDbEntity
  8
CURVE
100
AcDbLine
 62
7
  6
CONTINUOUS
 10
11.0299717529
 20
-11.9748284017
 11
11.0527165749
 21
-11.9520835797
  0
LINE
  5
376
100
AcDbEntity
  8
CURVE
100
AcDbLine
 62
7
  6
CONTINUOUS
 10
11.0507952614
 20
-12.3491361626
 11
11.0540847755
 21
-12.3458466484
  0
LINE
  5
377
100
AcDbEntity
  8
CURVE
100
AcDbLine
 62
7
  6
CONTINUOUS
 10
11.0174433926
 20
-12.7776193007
 11
11.0540847755
 21
-12.7409779177
  0
LINE
  5
378
100
AcDbEntity
  8
CURVE
100
AcDbLine
 62
7
  6
CONTINUOUS
 10
11.0203543366
 20
-13.169839626
 11
11.03742836
 21
-13.1527656026
  0
LINE
  5
379
100
AcDbEntity
  8
CURVE
100
AcDbLine
 62
7
  6
CONTINUOUS
 10
11.0376833227
 20
-13.5476419092
 11
11.0540847755
 21
-13.5312404564
  0
LINE
  5
37A
100
AcDbEntity
  8
CURVE
100
AcDbLine
 62
253
  6
CONTINUOUS
 10
11.071452209
 20
16.0714287758
 11
11.0976308187
 21
16.0714287758
  0
LINE
  5
37B
100
AcDbEntity
  8
CURVE
100
AcDbLine
 62
253
  6
CONTINUOUS
 10
11.0901512156
 20
16.5
 11
11.0789318114
 21
16.5
  0
LINE
  5
37C
100
AcDbEntity
  8
CURVE
100
AcDbLine
 62
253
  6
CONTINUOUS
 10
11.0789318114
 20
17.25
 11
11.0901512156
 21
17.25
  0
LINE
  5
37D
100
AcDbEntity
  8
CURVE
100
AcDbLine
 62
7
  6
CONTINUOUS
 10
11.0182362209
 20
-13.9622202804
 11
11.0371112402
 21
-13.943345261
  0
LINE
  5
37E
100
AcDbEntity
  8
CURVE
100
AcDbLine
 62
7
  6
CONTINUOUS
 10
11.0174433926
 20
-14.358144378
 11
11.0540847755
 21
-14.321502995
  0
LINE
  5
37F
100
AcDbEntity
  8
CURVE
100
AcDbLine
 62
7
  6
CONTINUOUS
 10
11.0174411939
 20
-15.1484091153
 11
11.0540847755
 21
-15.1117655337
  0
LINE
  5
380
100
AcDbEntity
  8
CURVE
100
AcDbLine
 62
7
  6
CONTINUOUS
 10
11.0174433926
 20
-15.543538186
 11
11.0225886856
 21
-15.5383928929
  0
LINE
  5
381
100
AcDbEntity
  8
CURVE
100
AcDbLine
 62
7
  6
CONTINUOUS
 10
11.0207301743
 20
-15.9353826736
 11
11.0429343652
 21
-15.9131784827
  0
LINE
  5
382
100
AcDbEntity
  8
CURVE
100
AcDbLine
 62
7
  6
CONTINUOUS
 10
11.0416923416
 20
-16.3095517756
 11
11.0540847755
 21
-16.2971593417
  0
LINE
  5
383
100
AcDbEntity
  8
CURVE
100
AcDbLine
 62
7
  6
CONTINUOUS
 10
11.0174433926
 20
-16.7289319939
 11
11.0431661902
 21
-16.7032091963
  0
LINE
  5
384
100
AcDbEntity
  8
CURVE
100
AcDbLine
 62
7
  6
CONTINUOUS
 10
11.0174433926
 20
-17.1240632633
 11
11.0201500499
 21
-17.121356606
  0
LINE
  5
385
100
AcDbEntity
  8
ASSI
100
AcDbLine
 62
7
  6
CONTINUOUS
 10
2.7812783412
 20
-22.5310194482
 11
3.0
 21
-22.4
  0
LINE
  5
386
100
AcDbEntity
  8
DRAFT
100
AcDbLine
 62
7
  6
CONTINUOUS
 10
2.7812783412
 20
-22.5310194482
 11
3.0
 21
-22.4
  0
LINE
  5
387
100
AcDbEntity
  8
RACCORDO
100
AcDbLine
 62
253
  6
CONTINUOUS
 10
-10.5005350625
 20
21.0183142309
 11
10.5005350625
 21
21.0183142309
  0
LINE
  5
388
100
AcDbEntity
  8
ASSI
100
AcDbLine
 62
253
  6
CONTINUOUS
 10
-10.5005350625
 20
21.0183142309
 11
10.5005350625
 21
21.0183142309
  0
LINE
  5
389
100
AcDbEntity
  8
0
100
AcDbLine
 62
253
  6
CONTINUOUS
 10
-10.5005350625
 20
21.0183142309
 11
10.5005350625
 21
21.0183142309
  0
LINE
  5
38A
100
AcDbEntity
  8
ASSI
100
AcDbLine
 62
7
  6
CONTINUOUS
 10
3.0
 20
22.4
 11
2.7812783412
 21
22.5310194482
  0
LINE
  5
38B
100
AcDbEntity
  8
DRAFT
100
AcDbLine
 62
7
  6
CONTINUOUS
 10
3.0
 20
22.4
 11
2.7812783412
 21
22.5310194482
  0
LINE
  5
38C
100
AcDbEntity
  8
RACCORDO
100
AcDbLine
 62
253
  6
CONTINUOUS
 10
-10.5087981167
 20
21.9749071372
 11
10.5087981167
 21
21.9749071372
  0
LINE
  5
38D
100
AcDbEntity
  8
ASSI
100
AcDbLine
 62
253
  6
CONTINUOUS
 10
-10.5087981167
 20
21.9749071372
 11
10.5087981167
 21
21.9749071372
  0
LINE
  5
38E
100
AcDbEntity
  8
0
100
AcDbLine
 62
253
  6
CONTINUOUS
 10
-10.5087981167
 20
21.9749071372
 11
10.5087981167
 21
21.9749071372
  0
LINE
  5
38F
100
AcDbEntity
  8
ASSI
100
AcDbLine
 62
7
  6
CONTINUOUS
 10
-10.6503805997
 20
22.4
 11
-3.0
 21
22.4
  0
LINE
  5
390
100
AcDbEntity
  8
DRAFT
100
AcDbLine
 62
7
  6
CONTINUOUS
 10
-10.6503805997
 20
22.4
 11
-3.0
 21
22.4
  0
LINE
  5
391
100
AcDbEntity
  8
RACCORDO
100
AcDbLine
 62
7
  6
CONTINUOUS
 10
-10.6503805997
 20
22.4
 11
10.6503805997
 21
22.4
  0
LINE
  5
392
100
AcDbEntity
  8
ASSI
100
AcDbLine
 62
7
  6
CONTINUOUS
 10
3.0
 20
22.4
 11
10.6503805997
 21
22.4
  0
LINE
  5
393
100
AcDbEntity
  8
DRAFT
100
AcDbLine
 62
7
  6
CONTINUOUS
 10
3.0
 20
22.4
 11
10.6503805997
 21
22.4
  0
LINE
  5
394
100
AcDbEntity
  8
ASSI
100
AcDbLine
 62
7
  6
CONTINUOUS
 10
2.7812783412
 20
22.5310194482
 11
-2.7812783412
 21
22.5310194482
  0
LINE
  5
395
100
AcDbEntity
  8
DRAFT
100
AcDbLine
 62
7
  6
CONTINUOUS
 10
2.7812783412
 20
22.5310194482
 11
-2.7812783412
 21
22.5310194482
  0
LINE
  5
396
100
AcDbEntity
  8
ASSI
100
AcDbLine
 62
7
  6
CONTINUOUS
 10
3.0
 20
23.5
 11
2.7812783412
 21
23.4781828305
  0
LINE
  5
397
100
AcDbEntity
  8
DRAFT
100
AcDbLine
 62
7
  6
CONTINUOUS
 10
3.0
 20
23.5
 11
2.7812783412
 21
23.4781828305
  0
LINE
  5
398
100
AcDbEntity
  8
ASSI
100
AcDbLine
 62
7
  6
CONTINUOUS
 10
-2.7812783412
 20
23.4781828305
 11
2.7812783412
 21
23.4781828305
  0
LINE
  5
399
100
AcDbEntity
  8
DRAFT
100
AcDbLine
 62
7
  6
CONTINUOUS
 10
-2.7812783412
 20
23.4781828305
 11
2.7812783412
 21
23.4781828305
  0
LINE
  5
39A
100
AcDbEntity
  8
ASSI
100
AcDbLine
 62
7
  6
CONTINUOUS
 10
-3.9733373476
 20
23.5
 11
-3.0
 21
23.5
  0
LINE
  5
39B
100
AcDbEntity
  8
DRAFT
100
AcDbLine
 62
7
  6
CONTINUOUS
 10
-3.9733373476
 20
23.5
 11
-3.0
 21
23.5
  0
LINE
  5
39C
100
AcDbEntity
  8
ASSI
100
AcDbLine
 62
7
  6
CONTINUOUS
 10
3.0
 20
23.5
 11
3.9733373476
 21
23.5
  0
LINE
  5
39D
100
AcDbEntity
  8
DRAFT
100
AcDbLine
 62
7
  6
CONTINUOUS
 10
3.0
 20
23.5
 11
3.9733373476
 21
23.5
  0
LINE
  5
39E
100
AcDbEntity
  8
ASSI
100
AcDbLine
 62
7
  6
CONTINUOUS
 10
-3.0
 20
23.5
 11
-2.7812783412
 21
23.4781828305
  0
LINE
  5
39F
100
AcDbEntity
  8
DRAFT
100
AcDbLine
 62
7
  6
CONTINUOUS
 10
-3.0
 20
23.5
 11
-2.7812783412
 21
23.4781828305
  0
LINE
  5
3A0
100
AcDbEntity
  8
ASSI
100
AcDbLine
 62
7
  6
CONTINUOUS
 10
-43.3344975744
 20
-23.5
 11
-39.3344975744
 21
-23.4650925288
  0
LINE
  5
3A1
100
AcDbEntity
  8
DRAFT
100
AcDbLine
 62
7
  6
CONTINUOUS
 10
-43.3344975744
 20
-23.5
 11
-39.3344975744
 21
-23.4650925288
  0
LINE
  5
3A2
100
AcDbEntity
  8
RACCORDO
100
AcDbLine
 62
7
  6
CONTINUOUS
 10
-43.3344975744
 20
-22.4
 11
-51.4457525943
 21
-21.9749071372
  0
LINE
  5
3A3
100
AcDbEntity
  8
ASSI
100
AcDbLine
 62
7
  6
CONTINUOUS
 10
-43.3344975744
 20
-22.4
 11
-51.4457525943
 21
-21.9749071372
  0
LINE
  5
3A4
100
AcDbEntity
  8
0
100
AcDbLine
 62
7
  6
CONTINUOUS
 10
-43.3344975744
 20
-22.4
 11
-51.4457525943
 21
-21.9749071372
  0
LINE
  5
3A5
100
AcDbEntity
  8
ASSI
100
AcDbLine
 62
7
  6
CONTINUOUS
 10
-37.2268238946
 20
-22.3955695989
 11
-37.7344975744
 21
-22.4
  0
LINE
  5
3A6
100
AcDbEntity
  8
DRAFT
100
AcDbLine
 62
7
  6
CONTINUOUS
 10
-37.2268238946
 20
-22.3955695989
 11
-37.7344975744
 21
-22.4
  0
LINE
  5
3A7
100
AcDbEntity
  8
ASSI
100
AcDbLine
 62
253
  6
CONTINUOUS
 10
-35.3798693086
 20
-21.3292298715
 11
-37.7253317313
 21
-21.349698412
  0
LINE
  5
3A8
100
AcDbEntity
  8
RACCORDO
100
AcDbLine
 62
253
  6
CONTINUOUS
 10
-35.3798693086
 20
-21.3292298715
 11
-37.7253317313
 21
-21.349698412
  0
LINE
  5
3A9
100
AcDbEntity
  8
ASSI
100
AcDbLine
 62
7
  6
CONTINUOUS
 10
-39.3344975744
 20
-21.2139629885
 11
-35.1164640377
 21
-21.1771527675
  0
LINE
  5
3AA
100
AcDbEntity
  8
DRAFT
100
AcDbLine
 62
7
  6
CONTINUOUS
 10
-39.3344975744
 20
-21.2139629885
 11
-35.1164640377
 21
-21.1771527675
  0
LINE
  5
3AB
100
AcDbEntity
  8
DRAFT
100
AcDbLine
 62
7
  6
CONTINUOUS
 10
-34.6935934646
 20
-20.9330083283
 11
-43.3344975744
 21
-20.9
  0
LINE
  5
3AC
100
AcDbEntity
  8
RACCORDO
100
AcDbLine
 62
253
  6
CONTINUOUS
 10
-43.3344975744
 20
-21.8997711479
 11
-51.4283108194
 21
-21.4755923698
  0
LINE
  5
3AD
100
AcDbEntity
  8
ASSI
100
AcDbLine
 62
253
  6
CONTINUOUS
 10
-43.3344975744
 20
-21.8997711479
 11
-51.4283108194
 21
-21.4755923698
  0
LINE
  5
3AE
100
AcDbEntity
  8
0
100
AcDbLine
 62
253
  6
CONTINUOUS
 10
-43.3344975744
 20
-21.8997711479
 11
-51.4283108194
 21
-21.4755923698
  0
LINE
  5
3AF
100
AcDbEntity
  8
CURVE
100
AcDbLine
 62
7
  6
CONTINUOUS
 10
-50.6339490638
 20
15.2657863801
 11
-50.4323307595
 21
15.4674046845
  0
LINE
  5
3B0
100
AcDbEntity
  8
CURVE
100
AcDbLine
 62
7
  6
CONTINUOUS
 10
-50.6339490638
 20
14.8706551108
 11
-50.4323307595
 21
15.0722734151
  0
LINE
  5
3B1
100
AcDbEntity
  8
CURVE
100
AcDbLine
 62
7
  6
CONTINUOUS
 10
-50.6339490638
 20
14.4755238415
 11
-50.4323307595
 21
14.6771421458
  0
LINE
  5
3B2
100
AcDbEntity
  8
CURVE
100
AcDbLine
 62
7
  6
CONTINUOUS
 10
-49.8602266888
 20
15.2492462165
 11
-49.6910645473
 21
15.418408358
  0
LINE
  5
3B3
100
AcDbEntity
  8
CURVE
100
AcDbLine
 62
253
  6
CONTINUOUS
 10
-47.8344975048
 20
16.9285712242
 11
-47.62024444
 21
17.1428568363
  0
LINE
  5
3B4
100
AcDbEntity
  8
CURVE
100
AcDbLine
 62
7
  6
CONTINUOUS
 10
-50.4707564478
 20
14.2435851882
 11
-50.2312614337
 21
14.4830802023
  0
LINE
  5
3B5
100
AcDbEntity
  8
CURVE
100
AcDbLine
 62
7
  6
CONTINUOUS
 10
-49.8602266888
 20
14.8541149472
 11
-49.6586083845
 21
15.0557332515
  0
LINE
  5
3B6
100
AcDbEntity
  8
CURVE
100
AcDbLine
 62
7
  6
CONTINUOUS
 10
-50.6311690531
 20
13.6880413135
 11
-50.4471231661
 21
13.8720872006
  0
LINE
  5
3B7
100
AcDbEntity
  8
CURVE
100
AcDbLine
 62
7
  6
CONTINUOUS
 10
-50.0756251784
 20
14.2435851882
 11
-49.6586083845
 21
14.6606019822
  0
LINE
  5
3B8
100
AcDbEntity
  8
CURVE
100
AcDbLine
 62
7
  6
CONTINUOUS
 10
-49.0361158787
 20
15.283094488
 11
-48.8344975744
 21
15.4847127923
  0
LINE
  5
3B9
100
AcDbEntity
  8
CURVE
100
AcDbLine
 62
7
  6
CONTINUOUS
 10
-50.3347191971
 20
13.5893599002
 11
-50.1556990779
 21
13.7683800195
  0
LINE
  5
3BA
100
AcDbEntity
  8
CURVE
100
AcDbLine
 62
7
  6
CONTINUOUS
 10
-49.6804939091
 20
14.2435851882
 11
-49.440998895
 21
14.4830802023
  0
LINE
  5
3BB
100
AcDbEntity
  8
CURVE
100
AcDbLine
 62
7
  6
CONTINUOUS
 10
-49.0361158787
 20
14.8879632186
 11
-48.8344975744
 21
15.089581523
  0
LINE
  5
3BC
100
AcDbEntity
  8
CURVE
100
AcDbLine
 62
7
  6
CONTINUOUS
 10
-50.0382693412
 20
13.4906784869
 11
-49.8642749896
 21
13.6646728384
  0
LINE
  5
3BD
100
AcDbEntity
  8
CURVE
100
AcDbLine
 62
7
  6
CONTINUOUS
 10
-49.2853626398
 20
14.2435851882
 11
-49.0458676257
 21
14.4830802023
  0
LINE
  5
3BE
100
AcDbEntity
  8
CURVE
100
AcDbLine
 62
7
  6
CONTINUOUS
 10
-49.0361158787
 20
14.4928319493
 11
-48.8344975744
 21
14.6944502536
  0
LINE
  5
3BF
100
AcDbEntity
  8
CURVE
100
AcDbLine
 62
253
  6
CONTINUOUS
 10
-47.62024444
 20
17.1428568363
 11
-47.4059913753
 21
17.25
  0
LINE
  5
3C0
100
AcDbEntity
  8
CURVE
100
AcDbLine
 62
253
  6
CONTINUOUS
 10
-46.5489790492
 20
16.6071431637
 11
-46.7632321363
 21
16.5
  0
LINE
  5
3C1
100
AcDbEntity
  8
RACCORDO
100
AcDbLine
 62
253
  6
CONTINUOUS
 10
-52.3925326977
 20
-21.0183142305
 11
-51.9017008764
 21
-20.9972959167
  0
LINE
  5
3C2
100
AcDbEntity
  8
ASSI
100
AcDbLine
 62
253
  6
CONTINUOUS
 10
-52.3925326977
 20
-21.0183142305
 11
-51.9017008764
 21
-20.9972959167
  0
LINE
  5
3C3
100
AcDbEntity
  8
0
100
AcDbLine
 62
253
  6
CONTINUOUS
 10
-52.3925326977
 20
-21.0183142305
 11
-51.9017008764
 21
-20.9972959167
  0
LINE
  5
3C4
100
AcDbEntity
  8
ASSI
100
AcDbLine
 62
253
  6
CONTINUOUS
 10
-33.8844975744
 20
-19.25
 11
-36.8344975744
 21
-19.25
  0
LINE
  5
3C5
100
AcDbEntity
  8
RACCORDO
100
AcDbLine
 62
253
  6
CONTINUOUS
 10
-33.8844975744
 20
-19.25
 11
-36.8344975744
 21
-19.25
  0
LINE
  5
3C6
100
AcDbEntity
  8
ASSI
100
AcDbLine
 62
253
  6
CONTINUOUS
 10
-38.3344975744
 20
-19.25
 11
-43.3344975744
 21
-19.25
  0
LINE
  5
3C7
100
AcDbEntity
  8
RACCORDO
100
AcDbLine
 62
253
  6
CONTINUOUS
 10
-38.3344975744
 20
-19.25
 11
-43.3344975744
 21
-19.25
  0
LINE
  5
3C8
100
AcDbEntity
  8
ASSI
100
AcDbLine
 62
7
  6
CONTINUOUS
 10
-34.1844975744
 20
-18.95
 11
-36.8344975744
 21
-18.95
  0
LINE
  5
3C9
100
AcDbEntity
  8
RACCORDO
100
AcDbLine
 62
7
  6
CONTINUOUS
 10
-34.1844975744
 20
-18.95
 11
-36.8344975744
 21
-18.95
  0
LINE
  5
3CA
100
AcDbEntity
  8
ASSI
100
AcDbLine
 62
7
  6
CONTINUOUS
 10
-38.3344975744
 20
-18.95
 11
-43.3344975744
 21
-18.95
  0
LINE
  5
3CB
100
AcDbEntity
  8
RACCORDO
100
AcDbLine
 62
7
  6
CONTINUOUS
 10
-38.3344975744
 20
-18.95
 11
-43.3344975744
 21
-18.95
  0
LINE
  5
3CC
100
AcDbEntity
  8
ASSI
100
AcDbLine
 62
7
  6
CONTINUOUS
 10
-43.3344975744
 20
-18.85
 11
-38.3344975744
 21
-18.85
  0
LINE
  5
3CD
100
AcDbEntity
  8
0
100
AcDbLine
 62
7
  6
CONTINUOUS
 10
-43.3344975744
 20
-18.85
 11
-38.3344975744
 21
-18.85
  0
LINE
  5
3CE
100
AcDbEntity
  8
ASSI
100
AcDbLine
 62
7
  6
CONTINUOUS
 10
-36.8344975744
 20
-18.85
 11
-34.2844975744
 21
-18.85
  0
LINE
  5
3CF
100
AcDbEntity
  8
0
100
AcDbLine
 62
7
  6
CONTINUOUS
 10
-36.8344975744
 20
-18.85
 11
-34.2844975744
 21
-18.85
  0
LINE
  5
3D0
100
AcDbEntity
  8
0
100
AcDbLine
 62
7
  6
CONTINUOUS
 10
-37.8606655525
 20
-19.8462208151
 11
-36.8344975744
 21
-19.9
  0
LINE
  5
3D1
100
AcDbEntity
  8
0
100
AcDbLine
 62
253
  6
CONTINUOUS
 10
-36.8344975744
 20
-19.7537540906
 11
-37.8606655525
 21
-19.6999749057
  0
LINE
  5
3D2
100
AcDbEntity
  8
CURVE
100
AcDbLine
 62
253
  6
CONTINUOUS
 10
-49.4837277674
 20
-16.294119
 11
-50.9286605263
 21
-15.881628
  0
LINE
  5
3D3
100
AcDbEntity
  8
CURVE
100
AcDbLine
 62
253
  6
CONTINUOUS
 10
-50.9286605263
 20
-15.443612
 11
-48.829477104
 21
-16.118579
  0
LINE
  5
3D4
100
AcDbEntity
  8
CURVE
100
AcDbLine
 62
253
  6
CONTINUOUS
 10
-47.6341016119
 20
-15.974264
 11
-46.3344975744
 21
-16.597131
  0
LINE
  5
3D5
100
AcDbEntity
  8
CURVE
100
AcDbLine
 62
253
  6
CONTINUOUS
 10
-46.3347259621
 20
16.8214287758
 11
-46.5489790492
 21
16.6071431637
  0
LINE
  5
3D6
100
AcDbEntity
  8
CURVE
100
AcDbLine
 62
7
  6
CONTINUOUS
 10
-50.6339490638
 20
12.4998674948
 11
-50.4095247359
 21
12.7242918228
  0
LINE
  5
3D7
100
AcDbEntity
  8
CURVE
100
AcDbLine
 62
7
  6
CONTINUOUS
 10
-49.7418194852
 20
13.3919970735
 11
-49.5728509014
 21
13.5609656573
  0
LINE
  5
3D8
100
AcDbEntity
  8
CURVE
100
AcDbLine
 62
7
  6
CONTINUOUS
 10
-48.8902313704
 20
14.2435851882
 11
-48.8344975744
 21
14.2993189843
  0
LINE
  5
3D9
100
AcDbEntity
  8
CURVE
100
AcDbLine
 62
7
  6
CONTINUOUS
 10
-50.6339490638
 20
12.1047362255
 11
-50.5597379935
 21
12.1789472959
  0
LINE
  5
3DA
100
AcDbEntity
  8
CURVE
100
AcDbLine
 62
7
  6
CONTINUOUS
 10
-50.1919786881
 20
12.5467066012
 11
-49.820058677
 21
12.9186266124
  0
LINE
  5
3DB
100
AcDbEntity
  8
CURVE
100
AcDbLine
 62
7
  6
CONTINUOUS
 10
-49.4453696292
 20
13.2933156602
 11
-49.2814268132
 21
13.4572584762
  0
LINE
  5
3DC
100
AcDbEntity
  8
CURVE
100
AcDbLine
 62
7
  6
CONTINUOUS
 10
-50.6339490638
 20
11.7096049562
 11
-50.4323307595
 21
11.9112232605
  0
LINE
  5
3DD
100
AcDbEntity
  8
CURVE
100
AcDbLine
 62
7
  6
CONTINUOUS
 10
-49.5812236915
 20
12.7623303285
 11
-49.230592618
 21
13.112961402
  0
LINE
  5
3DE
100
AcDbEntity
  8
CURVE
100
AcDbLine
 62
7
  6
CONTINUOUS
 10
-49.1489197732
 20
13.1946342468
 11
-48.9900027249
 21
13.3535512951
  0
LINE
  5
3DF
100
AcDbEntity
  8
CURVE
100
AcDbLine
 62
7
  6
CONTINUOUS
 10
-50.6339490638
 20
11.3144736869
 11
-50.4323307595
 21
11.5160919912
  0
LINE
  5
3E0
100
AcDbEntity
  8
CURVE
100
AcDbLine
 62
7
  6
CONTINUOUS
 10
-49.8602266888
 20
12.0881960619
 11
-49.8375391489
 21
12.1108836018
  0
LINE
  5
3E1
100
AcDbEntity
  8
CURVE
100
AcDbLine
 62
7
  6
CONTINUOUS
 10
-48.9704686949
 20
12.9779540558
 11
-48.8344975744
 21
13.1139251763
  0
LINE
  5
3E2
100
AcDbEntity
  8
CURVE
100
AcDbLine
 62
253
  6
CONTINUOUS
 10
-47.8344975048
 20
14.0357143879
 11
-47.62024444
 21
14.25
  0
LINE
  5
3E3
100
AcDbEntity
  8
CURVE
100
AcDbLine
 62
7
  6
CONTINUOUS
 10
-50.6171971694
 20
10.9360943119
 11
-50.3777032141
 21
11.1755882673
  0
LINE
  5
3E4
100
AcDbEntity
  8
CURVE
100
AcDbLine
 62
7
  6
CONTINUOUS
 10
-49.8602266888
 20
11.6930647926
 11
-49.6586083845
 21
11.8946830969
  0
LINE
  5
3E5
100
AcDbEntity
  8
CURVE
100
AcDbLine
 62
7
  6
CONTINUOUS
 10
-50.2220659001
 20
10.9360943119
 11
-49.9825719448
 21
11.1755882673
  0
LINE
  5
3E6
100
AcDbEntity
  8
CURVE
100
AcDbLine
 62
7
  6
CONTINUOUS
 10
-49.8602266888
 20
11.2979335232
 11
-49.6586083845
 21
11.4995518275
  0
LINE
  5
3E7
100
AcDbEntity
  8
CURVE
100
AcDbLine
 62
7
  6
CONTINUOUS
 10
-49.0361158787
 20
12.1220443333
 11
-48.9716471073
 21
12.1865131048
  0
LINE
  5
3E8
100
AcDbEntity
  8
CURVE
100
AcDbLine
 62
7
  6
CONTINUOUS
 10
-50.5554629508
 20
10.2075659919
 11
-50.3285575021
 21
10.4344714406
  0
LINE
  5
3E9
100
AcDbEntity
  8
CURVE
100
AcDbLine
 62
7
  6
CONTINUOUS
 10
-49.8269346308
 20
10.9360943119
 11
-49.5874406754
 21
11.1755882673
  0
LINE
  5
3EA
100
AcDbEntity
  8
CURVE
100
AcDbLine
 62
7
  6
CONTINUOUS
 10
-49.0361158787
 20
11.726913064
 11
-48.8344975744
 21
11.9285313683
  0
LINE
  5
3EB
100
AcDbEntity
  8
CURVE
100
AcDbLine
 62
253
  6
CONTINUOUS
 10
-46.5846878933
 20
15.1071431637
 11
-46.5132701939
 21
15.1428573132
  0
LINE
  5
3EC
100
AcDbEntity
  8
CURVE
100
AcDbLine
 62
253
  6
CONTINUOUS
 10
-46.4061436559
 20
15.0357141495
 11
-46.4775613497
 21
15.0
  0
LINE
  5
3ED
100
AcDbEntity
  8
CURVE
100
AcDbLine
 62
253
  6
CONTINUOUS
 10
-47.62024444
 20
14.25
 11
-47.4059913753
 21
14.3571428061
  0
LINE
  5
3EE
100
AcDbEntity
  8
0
100
AcDbLine
 62
253
  6
CONTINUOUS
 10
-37.8606655525
 20
-18.4669314929
 11
-36.8344975744
 21
-18.4169891609
  0
LINE
  5
3EF
100
AcDbEntity
  8
0
100
AcDbLine
 62
253
  6
CONTINUOUS
 10
-36.8344976167
 20
-18.0622282529
 11
-37.8954322461
 21
-18.1138626349
  0
LINE
  5
3F0
100
AcDbEntity
  8
ASSI
100
AcDbLine
 62
7
  6
CONTINUOUS
 10
-43.3344975744
 20
-18.3006191467
 11
-41.8344975744
 21
-18.2499082467
  0
LINE
  5
3F1
100
AcDbEntity
  8
RACCORDO
100
AcDbLine
 62
7
  6
CONTINUOUS
 10
-43.3344975744
 20
-18.3006191467
 11
-41.8344975744
 21
-18.2499082467
  0
LINE
  5
3F2
100
AcDbEntity
  8
0
100
AcDbLine
 62
7
  6
CONTINUOUS
 10
-35.434497572
 20
-17.4749999999
 11
-33.169055204
 21
-17.4156773038
  0
LINE
  5
3F3
100
AcDbEntity
  8
0
100
AcDbLine
 62
7
  6
CONTINUOUS
 10
-36.8344974988
 20
-17.505548107
 11
-35.434497572
 21
-17.4749999999
  0
LINE
  5
3F4
100
AcDbEntity
  8
0
100
AcDbLine
 62
253
  6
CONTINUOUS
 10
-38.3344975744
 20
-18.1138626349
 11
-37.8954322461
 21
-18.1138626349
  0
LINE
  5
3F5
100
AcDbEntity
  8
0
100
AcDbLine
 62
253
  6
CONTINUOUS
 10
-40.0344975744
 20
-17.8831922438
 11
-39.1216546862
 21
-17.8831922438
  0
LINE
  5
3F6
100
AcDbEntity
  8
CURVE
100
AcDbLine
 62
253
  6
CONTINUOUS
 10
-47.6341016119
 20
-17.22
 11
-46.3344975744
 21
-17.22
  0
LINE
  5
3F7
100
AcDbEntity
  8
0
100
AcDbLine
 62
7
  6
CONTINUOUS
 10
-39.1563669178
 20
-17.2204584009
 11
-38.3344980515
 21
-17.3213712087
  0
LINE
  5
3F8
100
AcDbEntity
  8
CURVE
100
AcDbLine
 62
253
  6
CONTINUOUS
 10
-49.7631876218
 20
-13.545436
 11
-50.9286605263
 21
-13.107121
  0
LINE
  5
3F9
100
AcDbEntity
  8
CURVE
100
AcDbLine
 62
253
  6
CONTINUOUS
 10
-50.1944902128
 20
-12.995936
 11
-48.829477104
 21
-13.517093
  0
LINE
  5
3FA
100
AcDbEntity
  8
CURVE
100
AcDbLine
 62
253
  6
CONTINUOUS
 10
-47.6341016119
 20
-15.23011
 11
-46.3344975744
 21
-15.800443
  0
LINE
  5
3FB
100
AcDbEntity
  8
0
100
AcDbLine
 62
7
  6
CONTINUOUS
 10
-53.1344975744
 20
4.4998822442
 11
-53.1344975744
 21
-4.5
  0
LINE
  5
3FC
100
AcDbEntity
  8
0
100
AcDbLine
 62
253
  6
CONTINUOUS
 10
-52.8844975744
 20
4.75
 11
-52.8844975744
 21
-4.75
  0
LINE
  5
3FD
100
AcDbEntity
  8
CURVE
100
AcDbLine
 62
253
  6
CONTINUOUS
 10
-47.8344975048
 20
12.8571428061
 11
-47.62024444
 21
13.0714284182
  0
LINE
  5
3FE
100
AcDbEntity
  8
CURVE
100
AcDbLine
 62
7
  6
CONTINUOUS
 10
-50.1603316815
 20
10.2075659919
 11
-49.9334262328
 21
10.4344714406
  0
LINE
  5
3FF
100
AcDbEntity
  8
CURVE
100
AcDbLine
 62
7
  6
CONTINUOUS
 10
-49.4318033614
 20
10.9360943119
 11
-49.1923094061
 21
11.1755882673
  0
LINE
  5
400
100
AcDbEntity
  8
CURVE
100
AcDbLine
 62
7
  6
CONTINUOUS
 10
-49.0361158787
 20
11.3317817947
 11
-48.8344975744
 21
11.533400099
  0
LINE
  5
401
100
AcDbEntity
  8
CURVE
100
AcDbLine
 62
253
  6
CONTINUOUS
 10
-46.3347259621
 20
13.9285715818
 11
-46.5489790492
 21
13.7142856121
  0
LINE
  5
402
100
AcDbEntity
  8
CURVE
100
AcDbLine
 62
7
  6
CONTINUOUS
 10
-49.7652004122
 20
10.2075659919
 11
-49.5382949634
 21
10.4344714406
  0
LINE
  5
403
100
AcDbEntity
  8
CURVE
100
AcDbLine
 62
7
  6
CONTINUOUS
 10
-49.0366720921
 20
10.9360943119
 11
-48.8344975744
 21
11.1382688297
  0
LINE
  5
404
100
AcDbEntity
  8
CURVE
100
AcDbLine
 62
7
  6
CONTINUOUS
 10
-50.5776351347
 20
9.0
 11
-49.7465773245
 21
9.8310578103
  0
LINE
  5
405
100
AcDbEntity
  8
CURVE
100
AcDbLine
 62
7
  6
CONTINUOUS
 10
-49.3700691429
 20
10.2075659919
 11
-49.1431636941
 21
10.4344714406
  0
LINE
  5
406
100
AcDbEntity
  8
CURVE
100
AcDbLine
 62
7
  6
CONTINUOUS
 10
-50.1825038654
 20
9.0
 11
-49.9556142979
 21
9.2268895676
  0
LINE
  5
407
100
AcDbEntity
  8
CURVE
100
AcDbLine
 62
7
  6
CONTINUOUS
 10
-49.3382436026
 20
9.8442602628
 11
-48.8344975744
 21
10.348006291
  0
LINE
  5
408
100
AcDbEntity
  8
CURVE
100
AcDbLine
 62
253
  6
CONTINUOUS
 10
-46.3347259621
 20
12.75
 11
-46.5489790492
 21
12.5357143879
  0
LINE
  5
409
100
AcDbEntity
  8
CURVE
100
AcDbLine
 62
253
  6
CONTINUOUS
 10
-46.977485201
 20
12.0
 11
-47.1917383105
 21
11.7857142091
  0
LINE
  5
40A
100
AcDbEntity
  8
CURVE
100
AcDbLine
 62
7
  6
CONTINUOUS
 10
-49.7873725961
 20
9.0
 11
-49.5604830285
 21
9.2268895676
  0
LINE
  5
40B
100
AcDbEntity
  8
CURVE
100
AcDbLine
 62
253
  6
CONTINUOUS
 10
-47.62024444
 20
10.928571403
 11
-47.8344975048
 21
10.7142857909
  0
LINE
  5
40C
100
AcDbEntity
  8
CURVE
100
AcDbLine
 62
7
  6
CONTINUOUS
 10
-49.3922413268
 20
9.0
 11
-49.1653517592
 21
9.2268895676
  0
LINE
  5
40D
100
AcDbEntity
  8
CURVE
100
AcDbLine
 62
253
  6
CONTINUOUS
 10
-47.62024444
 20
11.9642856717
 11
-47.8344975048
 21
11.7857142091
  0
LINE
  5
40E
100
AcDbEntity
  8
0
100
AcDbLine
 62
253
  6
CONTINUOUS
 10
-38.7300177748
 20
18.6768353644
 11
-38.5041533636
 21
18.85
  0
LINE
  5
40F
100
AcDbEntity
  8
CURVE
100
AcDbLine
 62
253
  6
CONTINUOUS
 10
-48.8344975744
 20
10.1722789998
 11
-50.2785903064
 21
9.2319450864
  0
LINE
  5
410
100
AcDbEntity
  8
CURVE
100
AcDbLine
 62
253
  6
CONTINUOUS
 10
-50.6339490638
 20
9.2546266319
 11
-49.1747282645
 21
10.202527413
  0
LINE
  5
411
100
AcDbEntity
  8
CURVE
100
AcDbLine
 62
253
  6
CONTINUOUS
 10
-46.5489790492
 20
13.7142856121
 11
-46.7632321363
 21
13.6071428061
  0
LINE
  5
412
100
AcDbEntity
  8
CURVE
100
AcDbLine
 62
253
  6
CONTINUOUS
 10
-47.62024444
 20
13.0714284182
 11
-47.4059913753
 21
13.1785715818
  0
LINE
  5
413
100
AcDbEntity
  8
CURVE
100
AcDbLine
 62
253
  6
CONTINUOUS
 10
-46.5489790492
 20
12.5357143879
 11
-46.7632321363
 21
12.4285715818
  0
LINE
  5
414
100
AcDbEntity
  8
CURVE
100
AcDbLine
 62
253
  6
CONTINUOUS
 10
-48.8344975744
 20
13.0259579198
 11
-50.6339490638
 21
12.3906713657
  0
LINE
  5
415
100
AcDbEntity
  8
CURVE
100
AcDbLine
 62
253
  6
CONTINUOUS
 10
-50.6339490638
 20
12.6503037553
 11
-49.0739185831
 21
13.1646135967
  0
LINE
  5
416
100
AcDbEntity
  8
0
100
AcDbLine
 62
7
  6
CONTINUOUS
 10
-29.0240277254
 20
-15.7601106157
 11
-30.4528519949
 21
-15.8100062586
  0
LINE
  5
417
100
AcDbEntity
  8
0
100
AcDbLine
 62
253
  6
CONTINUOUS
 10
-33.1777792053
 20
-16.4160405963
 11
-35.4344974676
 21
-16.4752225241
  0
LINE
  5
418
100
AcDbEntity
  8
0
100
AcDbLine
 62
253
  6
CONTINUOUS
 10
-35.4344987286
 20
-16.4752225245
 11
-36.8344977271
 21
-16.5057861063
  0
LINE
  5
419
100
AcDbEntity
  8
0
100
AcDbLine
 62
253
  6
CONTINUOUS
 10
-40.0344975744
 20
-16.2279122492
 11
-39.1563669178
 21
-16.2279122492
  0
LINE
  5
41A
100
AcDbEntity
  8
CURVE
100
AcDbLine
 62
253
  6
CONTINUOUS
 10
-46.3344975744
 20
-15.974264
 11
-47.6341016119
 21
-15.974264
  0
LINE
  5
41B
100
AcDbEntity
  8
CURVE
100
AcDbLine
 62
253
  6
CONTINUOUS
 10
-50.9287864879
 20
-15.280952
 11
-48.829477104
 21
-15.280952
  0
LINE
  5
41C
100
AcDbEntity
  8
CURVE
100
AcDbLine
 62
253
  6
CONTINUOUS
 10
-48.829477104
 20
-14.606677
 11
-50.9286605263
 21
-14.417075
  0
LINE
  5
41D
100
AcDbEntity
  8
0
100
AcDbLine
 62
253
  6
CONTINUOUS
 10
-37.8954322461
 20
-16.3827355592
 11
-39.1563669178
 21
-16.2279122492
  0
LINE
  5
41E
100
AcDbEntity
  8
CURVE
100
AcDbLine
 62
253
  6
CONTINUOUS
 10
-48.829477104
 20
-12.408266
 11
-50.9286605263
 21
-11.749628
  0
LINE
  5
41F
100
AcDbEntity
  8
0
100
AcDbLine
 62
253
  6
CONTINUOUS
 10
-38.5041534062
 20
-18.85
 11
-38.7300177975
 21
-18.6768353847
  0
LINE
  5
420
100
AcDbEntity
  8
CURVE
100
AcDbLine
 62
253
  6
CONTINUOUS
 10
-50.9287864879
 20
-14.842636
 11
-50.9287864879
 21
-15.280952
  0
LINE
  5
421
100
AcDbEntity
  8
CURVE
100
AcDbLine
 62
253
  6
CONTINUOUS
 10
-50.9286605263
 20
-17.17053
 11
-50.9286605263
 21
-16.694384
  0
LINE
  5
422
100
AcDbEntity
  8
CURVE
100
AcDbLine
 62
253
  6
CONTINUOUS
 10
-50.9286605263
 20
-15.881628
 11
-50.9286605263
 21
-15.443612
  0
LINE
  5
423
100
AcDbEntity
  8
CURVE
100
AcDbLine
 62
253
  6
CONTINUOUS
 10
-50.9286605263
 20
-14.417075
 11
-50.9286605263
 21
-13.979122
  0
LINE
  5
424
100
AcDbEntity
  8
CURVE
100
AcDbLine
 62
253
  6
CONTINUOUS
 10
-50.9286605263
 20
-13.107121
 11
-50.9286605263
 21
-12.67345
  0
LINE
  5
425
100
AcDbEntity
  8
CURVE
100
AcDbLine
 62
253
  6
CONTINUOUS
 10
-50.9286605263
 20
-11.749628
 11
-50.9286605263
 21
-11.32561
  0
LINE
  5
426
100
AcDbEntity
  8
CURVE
100
AcDbLine
 62
253
  6
CONTINUOUS
 10
-50.7877487988
 20
-0.220257
 11
-50.7877487988
 21
0.220257
  0
LINE
  5
427
100
AcDbEntity
  8
CURVE
100
AcDbLine
 62
253
  6
CONTINUOUS
 10
-50.6339490638
 20
9.0
 11
-50.6339490638
 21
9.2546266319
  0
LINE
  5
428
100
AcDbEntity
  8
CURVE
100
AcDbLine
 62
253
  6
CONTINUOUS
 10
-50.6339490638
 20
10.2075659919
 11
-50.6339490638
 21
10.4344714406
  0
LINE
  5
429
100
AcDbEntity
  8
CURVE
100
AcDbLine
 62
253
  6
CONTINUOUS
 10
-50.6339490638
 20
10.9360943119
 11
-50.6339490638
 21
12.1789472959
  0
LINE
  5
42A
100
AcDbEntity
  8
CURVE
100
AcDbLine
 62
253
  6
CONTINUOUS
 10
-50.6339490638
 20
12.3906713657
 11
-50.6339490638
 21
12.6503037553
  0
LINE
  5
42B
100
AcDbEntity
  8
CURVE
100
AcDbLine
 62
253
  6
CONTINUOUS
 10
-50.6339490638
 20
13.6889667159
 11
-50.6339490638
 21
13.9385717089
  0
LINE
  5
42C
100
AcDbEntity
  8
CURVE
100
AcDbLine
 62
253
  6
CONTINUOUS
 10
-50.6339490638
 20
14.2435851882
 11
-50.6339490638
 21
15.4864222909
  0
LINE
  5
42D
100
AcDbEntity
  8
CURVE
100
AcDbLine
 62
253
  6
CONTINUOUS
 10
-50.4323307595
 20
15.4864222909
 11
-50.4323307595
 21
14.4830802023
  0
LINE
  5
42E
100
AcDbEntity
  8
CURVE
100
AcDbLine
 62
253
  6
CONTINUOUS
 10
-50.4323307595
 20
12.1789472959
 11
-50.4323307595
 21
11.1755882673
  0
LINE
  5
42F
100
AcDbEntity
  8
CURVE
100
AcDbLine
 62
253
  6
CONTINUOUS
 10
-50.2785903064
 20
9.2319450864
 11
-50.2785903064
 21
9.2268895676
  0
LINE
  5
430
100
AcDbEntity
  8
CURVE
100
AcDbLine
 62
253
  6
CONTINUOUS
 10
-49.9947769794
 20
-9.8801103492
 11
-49.9947769794
 21
-10.1306033287
  0
LINE
  5
431
100
AcDbEntity
  8
CURVE
100
AcDbLine
 62
7
  6
CONTINUOUS
 10
-48.9971100574
 20
9.0
 11
-48.8344975744
 21
9.162612483
  0
LINE
  5
432
100
AcDbEntity
  8
CURVE
100
AcDbLine
 62
253
  6
CONTINUOUS
 10
-47.1917383105
 20
10.178571403
 11
-46.977485201
 21
10.3928571045
  0
LINE
  5
433
100
AcDbEntity
  8
CURVE
100
AcDbLine
 62
253
  6
CONTINUOUS
 10
-47.8344975048
 20
9.4285714477
 11
-47.62024444
 21
9.6428571492
  0
LINE
  5
434
100
AcDbEntity
  8
CURVE
100
AcDbLine
 62
253
  6
CONTINUOUS
 10
-46.3347259621
 20
9.3214285746
 11
-46.5489790492
 21
9.1071428619
  0
LINE
  5
435
100
AcDbEntity
  8
CURVE
100
AcDbLine
 62
253
  6
CONTINUOUS
 10
-47.62024444
 20
9.6428571492
 11
-47.4059913753
 21
9.75
  0
LINE
  5
436
100
AcDbEntity
  8
0
100
AcDbLine
 62
253
  6
CONTINUOUS
 10
-31.7169654746
 20
-14.9165339913
 11
-30.7344975744
 21
-14.9165339913
  0
LINE
  5
437
100
AcDbEntity
  8
CURVE
100
AcDbLine
 62
253
  6
CONTINUOUS
 10
-48.829477104
 20
-14.842636
 11
-50.9287864879
 21
-14.842636
  0
LINE
  5
438
100
AcDbEntity
  8
CURVE
100
AcDbLine
 62
253
  6
CONTINUOUS
 10
-47.6341016119
 20
-14.489593
 11
-46.3344975744
 21
-14.489593
  0
LINE
  5
439
100
AcDbEntity
  8
0
100
AcDbLine
 62
253
  6
CONTINUOUS
 10
-30.7344974967
 20
-14.0
 11
-28.7344975744
 21
-14.0
  0
LINE
  5
43A
100
AcDbEntity
  8
CURVE
100
AcDbLine
 62
253
  6
CONTINUOUS
 10
-47.6341016119
 20
-13.173245
 11
-46.3344975744
 21
-13.173245
  0
LINE
  5
43B
100
AcDbEntity
  8
CURVE
100
AcDbLine
 62
253
  6
CONTINUOUS
 10
-50.2002044718
 20
-14.092764
 11
-48.829477104
 21
-14.187352
  0
LINE
  5
43C
100
AcDbEntity
  8
CURVE
100
AcDbLine
 62
253
  6
CONTINUOUS
 10
-50.351858266
 20
-11.545854
 11
-49.5728246214
 21
-11.764098
  0
LINE
  5
43D
100
AcDbEntity
  8
CURVE
100
AcDbLine
 62
253
  6
CONTINUOUS
 10
-49.2485484217
 20
-11.853758
 11
-48.829477104
 21
-11.974706
  0
LINE
  5
43E
100
AcDbEntity
  8
CURVE
100
AcDbLine
 62
253
  6
CONTINUOUS
 10
-49.8602266888
 20
11.1755882673
 11
-49.8602266888
 21
12.1108836018
  0
LINE
  5
43F
100
AcDbEntity
  8
CURVE
100
AcDbLine
 62
253
  6
CONTINUOUS
 10
-49.8602266888
 20
14.4830802023
 11
-49.8602266888
 21
15.418408358
  0
LINE
  5
440
100
AcDbEntity
  8
CURVE
100
AcDbLine
 62
253
  6
CONTINUOUS
 10
-49.6586083845
 20
15.418408358
 11
-49.6586083845
 21
14.4830802023
  0
LINE
  5
441
100
AcDbEntity
  8
CURVE
100
AcDbLine
 62
253
  6
CONTINUOUS
 10
-49.6586083845
 20
12.1108836018
 11
-49.6586083845
 21
11.1755882673
  0
LINE
  5
442
100
AcDbEntity
  8
CURVE
100
AcDbLine
 62
253
  6
CONTINUOUS
 10
-49.6509813828
 20
-10.1160694451
 11
-49.6509813828
 21
-9.8810551304
  0
LINE
  5
443
100
AcDbEntity
  8
CURVE
100
AcDbLine
 62
253
  6
CONTINUOUS
 10
-49.5728246214
 20
-11.764098
 11
-49.5728246214
 21
-11.344442
  0
LINE
  5
444
100
AcDbEntity
  8
CURVE
100
AcDbLine
 62
253
  6
CONTINUOUS
 10
-49.2485484217
 20
-11.256845
 11
-49.2485484217
 21
-11.853758
  0
LINE
  5
445
100
AcDbEntity
  8
CURVE
100
AcDbLine
 62
253
  6
CONTINUOUS
 10
-49.1747282645
 20
10.202527413
 11
-49.1747282645
 21
10.2075659919
  0
LINE
  5
446
100
AcDbEntity
  8
CURVE
100
AcDbLine
 62
253
  6
CONTINUOUS
 10
-49.0739185831
 20
13.1646135967
 11
-49.0739185831
 21
13.1696680567
  0
LINE
  5
447
100
AcDbEntity
  8
CURVE
100
AcDbLine
 62
253
  6
CONTINUOUS
 10
-49.0361158787
 20
11.1755882673
 11
-49.0361158787
 21
12.1865131048
  0
LINE
  5
448
100
AcDbEntity
  8
CURVE
100
AcDbLine
 62
253
  6
CONTINUOUS
 10
-49.0361158787
 20
14.4830802023
 11
-49.0361158787
 21
15.494037861
  0
LINE
  5
449
100
AcDbEntity
  8
CURVE
100
AcDbLine
 62
253
  6
CONTINUOUS
 10
-48.8344975744
 20
15.494037861
 11
-48.8344975744
 21
14.2435851882
  0
LINE
  5
44A
100
AcDbEntity
  8
CURVE
100
AcDbLine
 62
253
  6
CONTINUOUS
 10
-48.8344975744
 20
13.2982126959
 11
-48.8344975744
 21
13.0259579198
  0
LINE
  5
44B
100
AcDbEntity
  8
CURVE
100
AcDbLine
 62
253
  6
CONTINUOUS
 10
-48.8344975744
 20
12.1865131048
 11
-48.8344975744
 21
10.9360943119
  0
LINE
  5
44C
100
AcDbEntity
  8
CURVE
100
AcDbLine
 62
253
  6
CONTINUOUS
 10
-48.8344975744
 20
10.4344714406
 11
-48.8344975744
 21
10.1722789998
  0
LINE
  5
44D
100
AcDbEntity
  8
CURVE
100
AcDbLine
 62
253
  6
CONTINUOUS
 10
-48.8344975744
 20
9.2268895676
 11
-48.8344975744
 21
9.0
  0
LINE
  5
44E
100
AcDbEntity
  8
CURVE
100
AcDbLine
 62
253
  6
CONTINUOUS
 10
-48.829477104
 20
-10.681332
 11
-48.829477104
 21
-11.143299
  0
LINE
  5
44F
100
AcDbEntity
  8
CURVE
100
AcDbLine
 62
253
  6
CONTINUOUS
 10
-48.829477104
 20
-11.974706
 11
-48.829477104
 21
-12.408266
  0
LINE
  5
450
100
AcDbEntity
  8
CURVE
100
AcDbLine
 62
253
  6
CONTINUOUS
 10
-48.829477104
 20
-12.477093
 11
-48.829477104
 21
-12.905882
  0
LINE
  5
451
100
AcDbEntity
  8
CURVE
100
AcDbLine
 62
253
  6
CONTINUOUS
 10
-48.829477104
 20
-13.517093
 11
-48.829477104
 21
-13.578566
  0
LINE
  5
452
100
AcDbEntity
  8
CURVE
100
AcDbLine
 62
253
  6
CONTINUOUS
 10
-48.829477104
 20
-14.187352
 11
-48.829477104
 21
-14.606677
  0
LINE
  5
453
100
AcDbEntity
  8
CURVE
100
AcDbLine
 62
253
  6
CONTINUOUS
 10
-48.829477104
 20
-16.118579
 11
-48.829477104
 21
-16.504845
  0
LINE
  5
454
100
AcDbEntity
  8
CURVE
100
AcDbLine
 62
253
  6
CONTINUOUS
 10
-48.829477104
 20
-15.280952
 11
-48.829477104
 21
-14.842636
  0
LINE
  5
455
100
AcDbEntity
  8
CURVE
100
AcDbLine
 62
253
  6
CONTINUOUS
 10
-48.8294767675
 20
-10.5526213286
 11
-48.8294767675
 21
-10.1160694451
  0
LINE
  5
456
100
AcDbEntity
  8
CURVE
100
AcDbLine
 62
253
  6
CONTINUOUS
 10
-48.8294767675
 20
-9.4448496666
 11
-48.8294767675
 21
-9.0232410719
  0
LINE
  5
457
100
AcDbEntity
  8
0
100
AcDbLine
 62
7
  6
CONTINUOUS
 10
-34.1844975744
 20
18.95
 11
-34.2844975744
 21
18.85
  0
LINE
  5
458
100
AcDbEntity
  8
ASSI
100
AcDbLine
 62
7
  6
CONTINUOUS
 10
-34.2844975744
 20
18.85
 11
-33.3344975744
 21
19.8
  0
LINE
  5
459
100
AcDbEntity
  8
DRAFT
100
AcDbLine
 62
7
  6
CONTINUOUS
 10
-34.1844975744
 20
18.95
 11
-33.3344975744
 21
19.8
  0
LINE
  5
45A
100
AcDbEntity
  8
CURVE
100
AcDbLine
 62
253
  6
CONTINUOUS
 10
-46.5489790492
 20
9.1071428619
 11
-46.7632321363
 21
9.0
  0
LINE
  5
45B
100
AcDbEntity
  8
CURVE
100
AcDbLine
 62
253
  6
CONTINUOUS
 10
-50.9286605263
 20
-16.694384
 11
-49.4837277674
 21
-16.294119
  0
LINE
  5
45C
100
AcDbEntity
  8
CURVE
100
AcDbLine
 62
253
  6
CONTINUOUS
 10
-50.9286605263
 20
-12.67345
 11
-48.829477104
 21
-12.477093
  0
LINE
  5
45D
100
AcDbEntity
  8
CURVE
100
AcDbLine
 62
253
  6
CONTINUOUS
 10
-48.829477104
 20
-12.905882
 11
-50.1944902128
 21
-12.995936
  0
LINE
  5
45E
100
AcDbEntity
  8
CURVE
100
AcDbLine
 62
253
  6
CONTINUOUS
 10
-47.6341016119
 20
-11.365272
 11
-46.3344975744
 21
-11.365272
  0
LINE
  5
45F
100
AcDbEntity
  8
0
100
AcDbLine
 62
7
  6
CONTINUOUS
 10
-34.2844975744
 20
-18.85
 11
-34.1844975744
 21
-18.95
  0
LINE
  5
460
100
AcDbEntity
  8
ASSI
100
AcDbLine
 62
7
  6
CONTINUOUS
 10
-33.3344975744
 20
-19.8
 11
-34.2844975744
 21
-18.85
  0
LINE
  5
461
100
AcDbEntity
  8
RACCORDO
100
AcDbLine
 62
7
  6
CONTINUOUS
 10
-33.3344975744
 20
-19.8
 11
-34.1844975744
 21
-18.95
  0
LINE
  5
462
100
AcDbEntity
  8
CURVE
100
AcDbLine
 62
253
  6
CONTINUOUS
 10
-47.8812463499
 20
-0.220257
 11
-47.8812463499
 21
0.220257
  0
LINE
  5
463
100
AcDbEntity
  8
CURVE
100
AcDbLine
 62
253
  6
CONTINUOUS
 10
-47.8344975048
 20
11.7857142091
 11
-47.8344975048
 21
11.3571428061
  0
LINE
  5
464
100
AcDbEntity
  8
CURVE
100
AcDbLine
 62
253
  6
CONTINUOUS
 10
-47.8344975048
 20
10.7142857909
 11
-47.8344975048
 21
10.3928571045
  0
LINE
  5
465
100
AcDbEntity
  8
CURVE
100
AcDbLine
 62
253
  6
CONTINUOUS
 10
-47.8344975048
 20
9.3214285746
 11
-47.8344975048
 21
9.4285714477
  0
LINE
  5
466
100
AcDbEntity
  8
CURVE
100
AcDbLine
 62
253
  6
CONTINUOUS
 10
-47.8344975048
 20
12.75
 11
-47.8344975048
 21
12.8571428061
  0
LINE
  5
467
100
AcDbEntity
  8
CURVE
100
AcDbLine
 62
253
  6
CONTINUOUS
 10
-47.8344975048
 20
13.9285715818
 11
-47.8344975048
 21
14.0357143879
  0
LINE
  5
468
100
AcDbEntity
  8
CURVE
100
AcDbLine
 62
253
  6
CONTINUOUS
 10
-47.8344975048
 20
16.8214287758
 11
-47.8344975048
 21
16.9285712242
  0
LINE
  5
469
100
AcDbEntity
  8
CURVE
100
AcDbLine
 62
253
  6
CONTINUOUS
 10
-47.6341016119
 20
-12.226258
 11
-47.6341016119
 21
-13.173245
  0
LINE
  5
46A
100
AcDbEntity
  8
CURVE
100
AcDbLine
 62
253
  6
CONTINUOUS
 10
-47.6341016119
 20
-14.059757
 11
-47.6341016119
 21
-14.489593
  0
LINE
  5
46B
100
AcDbEntity
  8
CURVE
100
AcDbLine
 62
253
  6
CONTINUOUS
 10
-47.6341016119
 20
-8.775145
 11
-47.6341016119
 21
-7.719553
  0
LINE
  5
46C
100
AcDbEntity
  8
CURVE
100
AcDbLine
 62
253
  6
CONTINUOUS
 10
-47.3351757263
 20
0.475754
 11
-47.3351757263
 21
0.0
  0
LINE
  5
46D
100
AcDbEntity
  8
CURVE
100
AcDbLine
 62
253
  6
CONTINUOUS
 10
-47.1917383105
 20
11.7857142091
 11
-47.1917383105
 21
11.571428597
  0
LINE
  5
46E
100
AcDbEntity
  8
CURVE
100
AcDbLine
 62
253
  6
CONTINUOUS
 10
-46.9842995932
 20
-13.173245
 11
-46.9842995932
 21
-12.292654
  0
LINE
  5
46F
100
AcDbEntity
  8
CURVE
100
AcDbLine
 62
253
  6
CONTINUOUS
 10
-46.977485201
 20
10.3928571045
 11
-46.977485201
 21
10.8571429253
  0
LINE
  5
470
100
AcDbEntity
  8
CURVE
100
AcDbLine
 62
253
  6
CONTINUOUS
 10
-46.806194858
 20
-7.443716
 11
-46.806194858
 21
-6.717059
  0
LINE
  5
471
100
AcDbEntity
  8
CURVE
100
AcDbLine
 62
253
  6
CONTINUOUS
 10
-46.7987561244
 20
-15.596702
 11
-46.7987561244
 21
-14.863517
  0
LINE
  5
472
100
AcDbEntity
  8
CURVE
100
AcDbLine
 62
253
  6
CONTINUOUS
 10
-46.5846878933
 20
15.0357141495
 11
-46.5846878933
 21
15.1071431637
  0
LINE
  5
473
100
AcDbEntity
  8
CURVE
100
AcDbLine
 62
253
  6
CONTINUOUS
 10
-46.4061436559
 20
15.1071431637
 11
-46.4061436559
 21
15.0357141495
  0
LINE
  5
474
100
AcDbEntity
  8
CURVE
100
AcDbLine
 62
253
  6
CONTINUOUS
 10
-46.3347259621
 20
16.9285712242
 11
-46.3347259621
 21
16.8214287758
  0
LINE
  5
475
100
AcDbEntity
  8
CURVE
100
AcDbLine
 62
253
  6
CONTINUOUS
 10
-46.3347259621
 20
14.0357143879
 11
-46.3347259621
 21
13.9285715818
  0
LINE
  5
476
100
AcDbEntity
  8
CURVE
100
AcDbLine
 62
253
  6
CONTINUOUS
 10
-46.3347259621
 20
12.8571428061
 11
-46.3347259621
 21
12.75
  0
LINE
  5
477
100
AcDbEntity
  8
CURVE
100
AcDbLine
 62
253
  6
CONTINUOUS
 10
-46.3347259621
 20
9.4285714477
 11
-46.3347259621
 21
9.3214285746
  0
LINE
  5
478
100
AcDbEntity
  8
CURVE
100
AcDbLine
 62
253
  6
CONTINUOUS
 10
-46.3347259621
 20
11.3571428061
 11
-46.3347259621
 21
11.8928571939
  0
LINE
  5
479
100
AcDbEntity
  8
CURVE
100
AcDbLine
 62
253
  6
CONTINUOUS
 10
-46.3344975744
 20
-14.489593
 11
-46.3344975744
 21
-14.059757
  0
LINE
  5
47A
100
AcDbEntity
  8
CURVE
100
AcDbLine
 62
253
  6
CONTINUOUS
 10
-46.3344975744
 20
-13.173245
 11
-46.3344975744
 21
-12.213568
  0
LINE
  5
47B
100
AcDbEntity
  8
CURVE
100
AcDbLine
 62
253
  6
CONTINUOUS
 10
-46.3344975744
 20
-6.261082
 11
-46.3344975744
 21
-5.514148
  0
LINE
  5
47C
100
AcDbEntity
  8
CURVE
100
AcDbLine
 62
253
  6
CONTINUOUS
 10
-50.2526098446
 20
-1.183131
 11
-49.3344975744
 21
0.0
  0
LINE
  5
47D
100
AcDbEntity
  8
CURVE
100
AcDbLine
 62
253
  6
CONTINUOUS
 10
-47.6341016119
 20
-10.976944
 11
-46.3344975744
 21
-10.976944
  0
LINE
  5
47E
100
AcDbEntity
  8
CURVE
100
AcDbLine
 62
253
  6
CONTINUOUS
 10
-50.9041352221
 20
-10.5526213286
 11
-48.8294767675
 21
-10.5526213286
  0
LINE
  5
47F
100
AcDbEntity
  8
CURVE
100
AcDbLine
 62
253
  6
CONTINUOUS
 10
-49.9947769794
 20
-10.1306033287
 11
-50.5710438841
 21
-10.1306033287
  0
LINE
  5
480
100
AcDbEntity
  8
CURVE
100
AcDbLine
 62
253
  6
CONTINUOUS
 10
-48.8294767675
 20
-10.1160694451
 11
-49.6509813828
 21
-10.1160694451
  0
LINE
  5
481
100
AcDbEntity
  8
CURVE
100
AcDbLine
 62
253
  6
CONTINUOUS
 10
-47.6341016119
 20
-9.944819
 11
-46.3344975744
 21
-9.944819
  0
LINE
  5
482
100
AcDbEntity
  8
CURVE
100
AcDbLine
 62
253
  6
CONTINUOUS
 10
-49.8093571839
 20
-9.4257335944
 11
-49.8217615306
 21
-9.4257335944
  0
LINE
  5
483
100
AcDbEntity
  8
CURVE
100
AcDbLine
 62
253
  6
CONTINUOUS
 10
-47.6341016119
 20
-7.080387
 11
-46.3344975744
 21
-7.650721
  0
LINE
  5
484
100
AcDbEntity
  8
CURVE
100
AcDbLine
 62
253
  6
CONTINUOUS
 10
-46.8373793567
 20
-4.876396
 11
-47.6341016119
 21
-4.400657
  0
LINE
  5
485
100
AcDbEntity
  8
CURVE
100
AcDbLine
 62
253
  6
CONTINUOUS
 10
-49.3344975744
 20
0.0
 11
-50.2526098446
 21
1.183131
  0
LINE
  5
486
100
AcDbEntity
  8
CURVE
100
AcDbLine
 62
253
  6
CONTINUOUS
 10
-48.829477104
 20
-11.143299
 11
-49.2485484217
 21
-11.256845
  0
LINE
  5
487
100
AcDbEntity
  8
CURVE
100
AcDbLine
 62
253
  6
CONTINUOUS
 10
-49.5728246214
 20
-11.344442
 11
-50.351858266
 21
-11.545854
  0
LINE
  5
488
100
AcDbEntity
  8
0
100
AcDbLine
 62
7
  6
CONTINUOUS
 10
-26.510456685
 20
-8.0000021971
 11
-27.1344975677
 21
-8.0545986999
  0
LINE
  5
489
100
AcDbEntity
  8
0
100
AcDbLine
 62
7
  6
CONTINUOUS
 10
-31.06024338
 20
-8.1588829294
 11
-26.5104340761
 21
-8.0000000874
  0
LINE
  5
48A
100
AcDbEntity
  8
0
100
AcDbLine
 62
253
  6
CONTINUOUS
 10
-26.5103782991
 20
-7.7506693966
 11
-31.7169654746
 21
-7.9318963079
  0
LINE
  5
48B
100
AcDbEntity
  8
CURVE
100
AcDbLine
 62
253
  6
CONTINUOUS
 10
-47.6341016119
 20
-9.051288
 11
-46.3344975744
 21
-9.051288
  0
LINE
  5
48C
100
AcDbEntity
  8
CURVE
100
AcDbLine
 62
253
  6
CONTINUOUS
 10
-46.3344975744
 20
-8.247348
 11
-47.6341016119
 21
-8.247348
  0
LINE
  5
48D
100
AcDbEntity
  8
0
100
AcDbLine
 62
7
  6
CONTINUOUS
 10
-40.0344975744
 20
-7.5
 11
-41.3344975744
 21
-7.5
  0
LINE
  5
48E
100
AcDbEntity
  8
DRAFT
100
AcDbLine
 62
7
  6
CONTINUOUS
 10
-43.3344975744
 20
22.663166622
 11
-43.3344975744
 21
22.4
  0
LINE
  5
48F
100
AcDbEntity
  8
0
100
AcDbLine
 62
7
  6
CONTINUOUS
 10
-43.3344975744
 20
22.4
 11
-43.3344975744
 21
21.8997711479
  0
LINE
  5
490
100
AcDbEntity
  8
RACCORDO
100
AcDbLine
 62
7
  6
CONTINUOUS
 10
-43.3344975744
 20
22.4
 11
-43.3344975744
 21
-22.4
  0
LINE
  5
491
100
AcDbEntity
  8
0
100
AcDbLine
 62
7
  6
CONTINUOUS
 10
-43.3344975744
 20
-21.8997711479
 11
-43.3344975744
 21
-22.4
  0
LINE
  5
492
100
AcDbEntity
  8
DRAFT
100
AcDbLine
 62
7
  6
CONTINUOUS
 10
-43.3344975744
 20
-22.4
 11
-43.3344975744
 21
-23.5
  0
LINE
  5
493
100
AcDbEntity
  8
ASSI
100
AcDbLine
 62
7
  6
CONTINUOUS
 10
-43.3344975744
 20
-23.5
 11
-43.3344975744
 21
22.663166622
  0
LINE
  5
494
100
AcDbEntity
  8
ASSI
100
AcDbLine
 62
7
  6
CONTINUOUS
 10
-43.3344975744
 20
22.6906339487
 11
-43.3344975744
 21
23.5
  0
LINE
  5
495
100
AcDbEntity
  8
DRAFT
100
AcDbLine
 62
7
  6
CONTINUOUS
 10
-43.3344975744
 20
22.7070775004
 11
-43.3344975744
 21
23.5
  0
LINE
  5
496
100
AcDbEntity
  8
CURVE
100
AcDbLine
 62
253
  6
CONTINUOUS
 10
-47.6341016119
 20
-6.261082
 11
-46.3344975744
 21
-6.261082
  0
LINE
  5
497
100
AcDbEntity
  8
ASSI
100
AcDbLine
 62
7
  6
CONTINUOUS
 10
-41.8344975744
 20
18.2498414532
 11
-41.8344975744
 21
-18.2491181437
  0
LINE
  5
498
100
AcDbEntity
  8
RACCORDO
100
AcDbLine
 62
7
  6
CONTINUOUS
 10
-41.8344975744
 20
18.2498768163
 11
-41.8344975744
 21
-18.2491181437
  0
LINE
  5
499
100
AcDbEntity
  8
0
100
AcDbLine
 62
253
  6
CONTINUOUS
 10
-41.3344975744
 20
7.5
 11
-41.3344975744
 21
-7.5
  0
LINE
  5
49A
100
AcDbEntity
  8
CURVE
100
AcDbLine
 62
253
  6
CONTINUOUS
 10
-46.3344975744
 20
-4.876396
 11
-46.8373793567
 21
-4.876396
  0
LINE
  5
49B
100
AcDbEntity
  8
0
100
AcDbLine
 62
7
  6
CONTINUOUS
 10
-52.8119151374
 20
-4.75
 11
-52.8844975744
 21
-4.75
  0
LINE
  5
49C
100
AcDbEntity
  8
0
100
AcDbLine
 62
7
  6
CONTINUOUS
 10
-21.4144975744
 20
-4.15
 11
-22.3410463208
 21
-4.15
  0
LINE
  5
49D
100
AcDbEntity
  8
0
100
AcDbLine
 62
7
  6
CONTINUOUS
 10
-40.0344975744
 20
-17.8831922438
 11
-40.0344975744
 21
17.8831922438
  0
LINE
  5
49E
100
AcDbEntity
  8
ASSI
100
AcDbLine
 62
7
  6
CONTINUOUS
 10
-39.3344975744
 20
23.4650925288
 11
-39.3344975744
 21
21.2139629885
  0
LINE
  5
49F
100
AcDbEntity
  8
DRAFT
100
AcDbLine
 62
7
  6
CONTINUOUS
 10
-39.3344975744
 20
23.4650925288
 11
-39.3344975744
 21
21.2139629885
  0
LINE
  5
4A0
100
AcDbEntity
  8
DRAFT
100
AcDbLine
 62
7
  6
CONTINUOUS
 10
-39.3344975744
 20
-21.2139629885
 11
-39.3344975744
 21
-22.6454332982
  0
LINE
  5
4A1
100
AcDbEntity
  8
ASSI
100
AcDbLine
 62
7
  6
CONTINUOUS
 10
-39.3344975744
 20
-21.2139629885
 11
-39.3344975744
 21
-23.4650925288
  0
LINE
  5
4A2
100
AcDbEntity
  8
DRAFT
100
AcDbLine
 62
7
  6
CONTINUOUS
 10
-39.3344975744
 20
-22.690632645
 11
-39.3344975744
 21
-23.4650925288
  0
LINE
  5
4A3
100
AcDbEntity
  8
0
100
AcDbLine
 62
253
  6
CONTINUOUS
 10
-39.1563669178
 20
16.2279122492
 11
-39.1563669178
 21
-16.2279122492
  0
LINE
  5
4A4
100
AcDbEntity
  8
0
100
AcDbLine
 62
253
  6
CONTINUOUS
 10
-39.1216546862
 20
-17.224720527
 11
-39.1216546862
 21
-17.8832212479
  0
LINE
  5
4A5
100
AcDbEntity
  8
0
100
AcDbLine
 62
253
  6
CONTINUOUS
 10
-39.1216546596
 20
17.883221261
 11
-39.1216546596
 21
17.2247205303
  0
LINE
  5
4A6
100
AcDbEntity
  8
CURVE
100
AcDbLine
 62
7
  6
CONTINUOUS
 10
-50.8864833944
 20
-9.4848866487
 11
-50.5717092362
 21
-9.1701124905
  0
LINE
  5
4A7
100
AcDbEntity
  8
CURVE
100
AcDbLine
 62
7
  6
CONTINUOUS
 10
-50.95277195
 20
-9.9463064736
 11
-50.1599304194
 21
-9.153464943
  0
LINE
  5
4A8
100
AcDbEntity
  8
CURVE
100
AcDbLine
 62
7
  6
CONTINUOUS
 10
-50.9332801997
 20
-10.3219459927
 11
-50.5889475946
 21
-9.9776133876
  0
LINE
  5
4A9
100
AcDbEntity
  8
CURVE
100
AcDbLine
 62
7
  6
CONTINUOUS
 10
-50.1773088001
 20
-9.5659745931
 11
-49.9115734449
 21
-9.3002392379
  0
LINE
  5
4AA
100
AcDbEntity
  8
CURVE
100
AcDbLine
 62
7
  6
CONTINUOUS
 10
-50.7688242663
 20
-10.5526213286
 11
-50.3468062664
 21
-10.1306033287
  0
LINE
  5
4AB
100
AcDbEntity
  8
CURVE
100
AcDbLine
 62
7
  6
CONTINUOUS
 10
-50.0038085698
 20
-9.787605632
 11
-49.3862621021
 21
-9.1700591644
  0
LINE
  5
4AC
100
AcDbEntity
  8
CURVE
100
AcDbLine
 62
7
  6
CONTINUOUS
 10
-50.373692997
 20
-10.5526213286
 11
-49.6445600384
 21
-9.82348837
  0
LINE
  5
4AD
100
AcDbEntity
  8
CURVE
100
AcDbLine
 62
7
  6
CONTINUOUS
 10
-49.4529983534
 20
-9.631926685
 11
-48.8496702306
 21
-9.0285985622
  0
LINE
  5
4AE
100
AcDbEntity
  8
CURVE
100
AcDbLine
 62
7
  6
CONTINUOUS
 10
-50.9286605263
 20
-11.5027201272
 11
-50.6731204497
 21
-11.2471800507
  0
LINE
  5
4AF
100
AcDbEntity
  8
CURVE
100
AcDbLine
 62
7
  6
CONTINUOUS
 10
-49.9785617276
 20
-10.5526213286
 11
-49.5420098441
 21
-10.1160694451
  0
LINE
  5
4B0
100
AcDbEntity
  8
CURVE
100
AcDbLine
 62
7
  6
CONTINUOUS
 10
-48.8877375312
 20
-9.4617971322
 11
-48.8294767675
 21
-9.4035363685
  0
LINE
  5
4B1
100
AcDbEntity
  8
0
100
AcDbLine
 62
7
  6
CONTINUOUS
 10
-20.6144975751
 20
-0.9080095867
 11
-21.2251402092
 21
-0.9492535352
  0
LINE
  5
4B2
100
AcDbEntity
  8
CURVE
100
AcDbLine
 62
253
  6
CONTINUOUS
 10
-47.1917383105
 20
11.7857142091
 11
-47.2988647982
 21
11.9642856717
  0
LINE
  5
4B3
100
AcDbEntity
  8
ASSI
100
AcDbLine
 62
7
  6
CONTINUOUS
 10
-37.7240370839
 20
21.2013465124
 11
-37.7344975744
 21
22.4
  0
LINE
  5
4B4
100
AcDbEntity
  8
RACCORDO
100
AcDbLine
 62
7
  6
CONTINUOUS
 10
-37.7240370839
 20
21.2013465124
 11
-37.7344975744
 21
22.4
  0
LINE
  5
4B5
100
AcDbEntity
  8
0
100
AcDbLine
 62
7
  6
CONTINUOUS
 10
-38.3344975744
 20
-19.3469060477
 11
-38.3344975744
 21
-17.1562451654
  0
LINE
  5
4B6
100
AcDbEntity
  8
0
100
AcDbLine
 62
7
  6
CONTINUOUS
 10
-38.3344975744
 20
17.1562402412
 11
-38.3344975744
 21
19.3469060478
  0
LINE
  5
4B7
100
AcDbEntity
  8
0
100
AcDbLine
 62
253
  6
CONTINUOUS
 10
-37.8954350335
 20
18.1138632353
 11
-37.8954350335
 21
16.382735217
  0
LINE
  5
4B8
100
AcDbEntity
  8
0
100
AcDbLine
 62
253
  6
CONTINUOUS
 10
-37.8954322461
 20
-16.3827355592
 11
-37.8954322461
 21
-18.1138626349
  0
LINE
  5
4B9
100
AcDbEntity
  8
0
100
AcDbLine
 62
253
  6
CONTINUOUS
 10
-37.8606655525
 20
19.6999749057
 11
-37.8606655525
 21
18.4669314929
  0
LINE
  5
4BA
100
AcDbEntity
  8
0
100
AcDbLine
 62
253
  6
CONTINUOUS
 10
-37.8606655525
 20
-18.4669314929
 11
-37.8606655525
 21
-19.6999749057
  0
LINE
  5
4BB
100
AcDbEntity
  8
0
100
AcDbLine
 62
7
  6
CONTINUOUS
 10
-36.8344975744
 20
-19.9
 11
-36.8344975744
 21
19.9000000019
  0
LINE
  5
4BC
100
AcDbEntity
  8
ASSI
100
AcDbLine
 62
7
  6
CONTINUOUS
 10
-37.7240370839
 20
-21.2013465124
 11
-37.7344975744
 21
-22.4
  0
LINE
  5
4BD
100
AcDbEntity
  8
RACCORDO
100
AcDbLine
 62
7
  6
CONTINUOUS
 10
-37.7240245354
 20
-21.1999086032
 11
-37.7344975744
 21
-22.4
  0
LINE
  5
4BE
100
AcDbEntity
  8
CURVE
100
AcDbLine
 62
7
  6
CONTINUOUS
 10
-50.8158366522
 20
-11.7850275225
 11
-50.1030125943
 21
-11.0722034645
  0
LINE
  5
4BF
100
AcDbEntity
  8
CURVE
100
AcDbLine
 62
7
  6
CONTINUOUS
 10
-49.5834304583
 20
-10.5526213286
 11
-49.1468785748
 21
-10.1160694451
  0
LINE
  5
4C0
100
AcDbEntity
  8
CURVE
100
AcDbLine
 62
7
  6
CONTINUOUS
 10
-50.5150727944
 20
-11.879394934
 11
-50.2188060501
 21
-11.5831281897
  0
LINE
  5
4C1
100
AcDbEntity
  8
CURVE
100
AcDbLine
 62
7
  6
CONTINUOUS
 10
-50.1221404191
 20
-11.4864625587
 11
-49.5329047388
 21
-10.8972268784
  0
LINE
  5
4C2
100
AcDbEntity
  8
CURVE
100
AcDbLine
 62
7
  6
CONTINUOUS
 10
-49.188299189
 20
-10.5526213286
 11
-48.8294767675
 21
-10.1937989071
  0
LINE
  5
4C3
100
AcDbEntity
  8
CURVE
100
AcDbLine
 62
7
  6
CONTINUOUS
 10
-50.9286605263
 20
-12.6881139352
 11
-50.9124833861
 21
-12.6719367951
  0
LINE
  5
4C4
100
AcDbEntity
  8
CURVE
100
AcDbLine
 62
7
  6
CONTINUOUS
 10
-50.2143089365
 20
-11.9737623455
 11
-49.9101452127
 21
-11.6695986216
  0
LINE
  5
4C5
100
AcDbEntity
  8
CURVE
100
AcDbLine
 62
7
  6
CONTINUOUS
 10
-49.589230069
 20
-11.3486834779
 11
-48.9627968833
 21
-10.7222502923
  0
LINE
  5
4C6
100
AcDbEntity
  8
CURVE
100
AcDbLine
 62
7
  6
CONTINUOUS
 10
-50.9286605263
 20
-13.0832452045
 11
-50.4765776196
 21
-12.6311622979
  0
LINE
  5
4C7
100
AcDbEntity
  8
CURVE
100
AcDbLine
 62
7
  6
CONTINUOUS
 10
-49.9135450787
 20
-12.068129757
 11
-49.6014843754
 21
-11.7560690536
  0
LINE
  5
4C8
100
AcDbEntity
  8
CURVE
100
AcDbLine
 62
7
  6
CONTINUOUS
 10
-49.5728246214
 20
-11.7274092997
 11
-49.2485484217
 21
-11.4031330999
  0
LINE
  5
4C9
100
AcDbEntity
  8
CURVE
100
AcDbLine
 62
7
  6
CONTINUOUS
 10
-49.0478935389
 20
-11.2024782172
 11
-48.829477104
 21
-10.9840617823
  0
LINE
  5
4CA
100
AcDbEntity
  8
CURVE
100
AcDbLine
 62
7
  6
CONTINUOUS
 10
-50.6588691192
 20
-13.2085850668
 11
-50.0406718531
 21
-12.5903878006
  0
LINE
  5
4CB
100
AcDbEntity
  8
CURVE
100
AcDbLine
 62
7
  6
CONTINUOUS
 10
-49.6127812209
 20
-12.1624971684
 11
-49.2485484217
 21
-11.7982643692
  0
LINE
  5
4CC
100
AcDbEntity
  8
CURVE
100
AcDbLine
 62
7
  6
CONTINUOUS
 10
-50.371727168
 20
-13.3165743849
 11
-50.0907112215
 21
-13.0355584384
  0
LINE
  5
4CD
100
AcDbEntity
  8
CURVE
100
AcDbLine
 62
7
  6
CONTINUOUS
 10
-50.0409599309
 20
-12.9858071478
 11
-49.6047660865
 21
-12.5496133034
  0
LINE
  5
4CE
100
AcDbEntity
  8
CURVE
100
AcDbLine
 62
7
  6
CONTINUOUS
 10
-49.312017363
 20
-12.2568645799
 11
-48.9849793454
 21
-11.9298265623
  0
LINE
  5
4CF
100
AcDbEntity
  8
CURVE
100
AcDbLine
 62
7
  6
CONTINUOUS
 10
-50.9286605263
 20
-14.2686390125
 11
-50.4675642271
 21
-13.8075427133
  0
LINE
  5
4D0
100
AcDbEntity
  8
CURVE
100
AcDbLine
 62
7
  6
CONTINUOUS
 10
-50.0845852169
 20
-13.4245637031
 11
-49.8047564394
 21
-13.1447349257
  0
LINE
  5
4D1
100
AcDbEntity
  8
CURVE
100
AcDbLine
 62
7
  6
CONTINUOUS
 10
-49.6179194125
 20
-12.9578978987
 11
-49.16886032
 21
-12.5088388062
  0
LINE
  5
4D2
100
AcDbEntity
  8
CURVE
100
AcDbLine
 62
7
  6
CONTINUOUS
 10
-49.0112535052
 20
-12.3512319914
 11
-48.829477104
 21
-12.1694555902
  0
LINE
  5
4D3
100
AcDbEntity
  8
CURVE
100
AcDbLine
 62
253
  6
CONTINUOUS
 10
-47.6341016119
 20
-5.352134
 11
-46.8373793567
 21
-4.876396
  0
LINE
  5
4D4
100
AcDbEntity
  8
CURVE
100
AcDbLine
 62
253
  6
CONTINUOUS
 10
-50.7877487988
 20
0.0
 11
-47.8812463499
 21
0.0
  0
LINE
  5
4D5
100
AcDbEntity
  8
0
100
AcDbLine
 62
7
  6
CONTINUOUS
 10
-20.6214700502
 20
-1.213977859
 11
-20.6144975751
 21
-1.214448793
  0
LINE
  5
4D6
100
AcDbEntity
  8
CURVE
100
AcDbLine
 62
253
  6
CONTINUOUS
 10
-47.62024444
 20
9.1071428619
 11
-47.8344975048
 21
9.3214285746
  0
LINE
  5
4D7
100
AcDbEntity
  8
CURVE
100
AcDbLine
 62
253
  6
CONTINUOUS
 10
-47.8344975048
 20
10.3928571045
 11
-47.62024444
 21
10.178571403
  0
LINE
  5
4D8
100
AcDbEntity
  8
CURVE
100
AcDbLine
 62
253
  6
CONTINUOUS
 10
-46.5489790492
 20
9.6428571492
 11
-46.3347259621
 21
9.4285714477
  0
LINE
  5
4D9
100
AcDbEntity
  8
0
100
AcDbLine
 62
7
  6
CONTINUOUS
 10
-35.4344974676
 20
-16.4752225241
 11
-35.4344974676
 21
16.4751683849
  0
LINE
  5
4DA
100
AcDbEntity
  8
CURVE
100
AcDbLine
 62
7
  6
CONTINUOUS
 10
-50.7024013755
 20
-14.437511131
 11
-49.8382624655
 21
-13.573372221
  0
LINE
  5
4DB
100
AcDbEntity
  8
CURVE
100
AcDbLine
 62
7
  6
CONTINUOUS
 10
-49.7974432657
 20
-13.5325530213
 11
-49.5188016574
 21
-13.253911413
  0
LINE
  5
4DC
100
AcDbEntity
  8
CURVE
100
AcDbLine
 62
7
  6
CONTINUOUS
 10
-49.1948788941
 20
-12.9299886497
 11
-48.829477104
 21
-12.5645868596
  0
LINE
  5
4DD
100
AcDbEntity
  8
CURVE
100
AcDbLine
 62
7
  6
CONTINUOUS
 10
-50.9287864879
 20
-15.0590275128
 11
-50.7123949751
 21
-14.842636
  0
LINE
  5
4DE
100
AcDbEntity
  8
CURVE
100
AcDbLine
 62
7
  6
CONTINUOUS
 10
-50.3400026106
 20
-14.4702436355
 11
-49.9778656228
 21
-14.1081066477
  0
LINE
  5
4DF
100
AcDbEntity
  8
CURVE
100
AcDbLine
 62
7
  6
CONTINUOUS
 10
-49.8198362736
 20
-13.9500772985
 11
-49.2328468754
 21
-13.3630879003
  0
LINE
  5
4E0
100
AcDbEntity
  8
CURVE
100
AcDbLine
 62
7
  6
CONTINUOUS
 10
-50.9286605263
 20
-15.4540328205
 11
-50.9207751523
 21
-15.4461474465
  0
LINE
  5
4E1
100
AcDbEntity
  8
CURVE
100
AcDbLine
 62
7
  6
CONTINUOUS
 10
-50.7555797058
 20
-15.280952
 11
-50.3172637058
 21
-14.842636
  0
LINE
  5
4E2
100
AcDbEntity
  8
CURVE
100
AcDbLine
 62
7
  6
CONTINUOUS
 10
-49.9776038457
 20
-14.5029761399
 11
-49.6082405873
 21
-14.1336128816
  0
LINE
  5
4E3
100
AcDbEntity
  8
CURVE
100
AcDbLine
 62
7
  6
CONTINUOUS
 10
-49.187496899
 20
-13.7128691932
 11
-48.9468920934
 21
-13.4722643876
  0
LINE
  5
4E4
100
AcDbEntity
  8
CURVE
100
AcDbLine
 62
7
  6
CONTINUOUS
 10
-50.9286605263
 20
-15.8491640898
 11
-50.6217816285
 21
-15.5422851921
  0
LINE
  5
4E5
100
AcDbEntity
  8
CURVE
100
AcDbLine
 62
7
  6
CONTINUOUS
 10
-50.3604484365
 20
-15.280952
 11
-49.9221324365
 21
-14.842636
  0
LINE
  5
4E6
100
AcDbEntity
  8
CURVE
100
AcDbLine
 62
7
  6
CONTINUOUS
 10
-49.6152050807
 20
-14.5357086443
 11
-49.2386155519
 21
-14.1591191155
  0
LINE
  5
4E7
100
AcDbEntity
  8
CURVE
100
AcDbLine
 62
7
  6
CONTINUOUS
 10
-50.6465332275
 20
-15.9621680604
 11
-50.3227881048
 21
-15.6384229376
  0
LINE
  5
4E8
100
AcDbEntity
  8
CURVE
100
AcDbLine
 62
7
  6
CONTINUOUS
 10
-49.9653171671
 20
-15.280952
 11
-49.5270011671
 21
-14.842636
  0
LINE
  5
4E9
100
AcDbEntity
  8
CURVE
100
AcDbLine
 62
7
  6
CONTINUOUS
 10
-49.2528063158
 20
-14.5684411487
 11
-48.8689905165
 21
-14.1846253494
  0
LINE
  5
4EA
100
AcDbEntity
  8
CURVE
100
AcDbLine
 62
7
  6
CONTINUOUS
 10
-50.3391515046
 20
-16.0499176068
 11
-50.023794581
 21
-15.7345606832
  0
LINE
  5
4EB
100
AcDbEntity
  8
CURVE
100
AcDbLine
 62
7
  6
CONTINUOUS
 10
-49.5701858978
 20
-15.280952
 11
-49.1318698978
 21
-14.842636
  0
LINE
  5
4EC
100
AcDbEntity
  8
CURVE
100
AcDbLine
 62
7
  6
CONTINUOUS
 10
-48.8904075509
 20
-14.6011736531
 11
-48.829477104
 21
-14.5402432062
  0
LINE
  5
4ED
100
AcDbEntity
  8
CURVE
100
AcDbLine
 62
7
  6
CONTINUOUS
 10
-50.9286605263
 20
-17.0345578978
 11
-50.458148821
 21
-16.5640461926
  0
LINE
  5
4EE
100
AcDbEntity
  8
CURVE
100
AcDbLine
 62
7
  6
CONTINUOUS
 10
-50.0317697817
 20
-16.1376671533
 11
-49.7248010572
 21
-15.8306984288
  0
LINE
  5
4EF
100
AcDbEntity
  8
CURVE
100
AcDbLine
 62
7
  6
CONTINUOUS
 10
-49.1750546285
 20
-15.280952
 11
-48.829477104
 21
-14.9353744755
  0
LINE
  5
4F0
100
AcDbEntity
  8
CURVE
100
AcDbLine
 62
253
  6
CONTINUOUS
 10
-46.3344975744
 20
-9.944819
 11
-47.6341016119
 21
-10.976944
  0
LINE
  5
4F1
100
AcDbEntity
  8
CURVE
100
AcDbLine
 62
253
  6
CONTINUOUS
 10
-46.3344975744
 20
-6.510054
 11
-47.6341016119
 21
-7.080387
  0
LINE
  5
4F2
100
AcDbEntity
  8
0
100
AcDbLine
 62
7
  6
CONTINUOUS
 10
-21.4144975744
 20
1.15
 11
-21.7152184401
 21
1.15
  0
LINE
  5
4F3
100
AcDbEntity
  8
CURVE
100
AcDbLine
 62
253
  6
CONTINUOUS
 10
-46.3347259621
 20
10.3928571045
 11
-46.7632321363
 21
10.821428597
  0
LINE
  5
4F4
100
AcDbEntity
  8
CURVE
100
AcDbLine
 62
253
  6
CONTINUOUS
 10
-47.62024444
 20
12.5357143879
 11
-47.8344975048
 21
12.75
  0
LINE
  5
4F5
100
AcDbEntity
  8
CURVE
100
AcDbLine
 62
253
  6
CONTINUOUS
 10
-46.3347259621
 20
11.8928571939
 11
-46.4418525056
 21
12.0
  0
LINE
  5
4F6
100
AcDbEntity
  8
CURVE
100
AcDbLine
 62
253
  6
CONTINUOUS
 10
-47.62024444
 20
13.7142856121
 11
-47.8344975048
 21
13.9285715818
  0
LINE
  5
4F7
100
AcDbEntity
  8
ASSI
100
AcDbLine
 62
7
  6
CONTINUOUS
 10
-33.3344975744
 20
20.1483339502
 11
-33.3344975744
 21
19.8
  0
LINE
  5
4F8
100
AcDbEntity
  8
DRAFT
100
AcDbLine
 62
7
  6
CONTINUOUS
 10
-33.3344975744
 20
20.1483339502
 11
-33.3344975744
 21
19.8
  0
LINE
  5
4F9
100
AcDbEntity
  8
ASSI
100
AcDbLine
 62
7
  6
CONTINUOUS
 10
-33.3344975744
 20
-19.8
 11
-33.3344975744
 21
-20.1483339502
  0
LINE
  5
4FA
100
AcDbEntity
  8
DRAFT
100
AcDbLine
 62
7
  6
CONTINUOUS
 10
-33.3344975744
 20
-19.8
 11
-33.3344975744
 21
-20.1483339502
  0
LINE
  5
4FB
100
AcDbEntity
  8
CURVE
100
AcDbLine
 62
7
  6
CONTINUOUS
 10
-50.549153567
 20
-17.0501822078
 11
-49.9116227985
 21
-16.4126514394
  0
LINE
  5
4FC
100
AcDbEntity
  8
CURVE
100
AcDbLine
 62
7
  6
CONTINUOUS
 10
-49.7243880589
 20
-16.2254166997
 11
-49.4258075335
 21
-15.9268361743
  0
LINE
  5
4FD
100
AcDbEntity
  8
CURVE
100
AcDbLine
 62
7
  6
CONTINUOUS
 10
-49.970532065
 20
-16.8666919752
 11
-49.1268140097
 21
-16.0229739199
  0
LINE
  5
4FE
100
AcDbEntity
  8
CURVE
100
AcDbLine
 62
7
  6
CONTINUOUS
 10
-49.391910563
 20
-16.6832017425
 11
-48.829477104
 21
-16.1207682835
  0
LINE
  5
4FF
100
AcDbEntity
  8
CURVE
100
AcDbLine
 62
253
  6
CONTINUOUS
 10
-47.4059913753
 20
9.0
 11
-47.62024444
 21
9.1071428619
  0
LINE
  5
500
100
AcDbEntity
  8
CURVE
100
AcDbLine
 62
253
  6
CONTINUOUS
 10
-46.5489790492
 20
13.0714284182
 11
-46.3347259621
 21
12.8571428061
  0
LINE
  5
501
100
AcDbEntity
  8
CURVE
100
AcDbLine
 62
253
  6
CONTINUOUS
 10
-46.5489790492
 20
14.25
 11
-46.3347259621
 21
14.0357143879
  0
LINE
  5
502
100
AcDbEntity
  8
CURVE
100
AcDbLine
 62
253
  6
CONTINUOUS
 10
-47.4059913753
 20
15.6428568363
 11
-47.8344975048
 21
16.0714287758
  0
LINE
  5
503
100
AcDbEntity
  8
0
100
AcDbLine
 62
253
  6
CONTINUOUS
 10
-31.7169654746
 20
-14.9158299302
 11
-31.7169654746
 21
-7.9318963079
  0
LINE
  5
504
100
AcDbEntity
  8
0
100
AcDbLine
 62
7
  6
CONTINUOUS
 10
-52.811926517
 20
4.75
 11
-52.8844975744
 21
4.75
  0
LINE
  5
505
100
AcDbEntity
  8
0
100
AcDbLine
 62
7
  6
CONTINUOUS
 10
-21.3381917621
 20
3.2243062185
 11
-21.5365994488
 21
3.2531511097
  0
LINE
  5
506
100
AcDbEntity
  8
CURVE
100
AcDbLine
 62
253
  6
CONTINUOUS
 10
-46.7632321363
 20
9.75
 11
-46.5489790492
 21
9.6428571492
  0
LINE
  5
507
100
AcDbEntity
  8
CURVE
100
AcDbLine
 62
253
  6
CONTINUOUS
 10
-47.62024444
 20
16.6071431637
 11
-47.8344975048
 21
16.8214287758
  0
LINE
  5
508
100
AcDbEntity
  8
CURVE
100
AcDbLine
 62
253
  6
CONTINUOUS
 10
-46.5489790492
 20
17.1428568363
 11
-46.3347259621
 21
16.9285712242
  0
LINE
  5
509
100
AcDbEntity
  8
0
100
AcDbLine
 62
7
  6
CONTINUOUS
 10
-30.7344975744
 20
-8.1475094854
 11
-30.7344975744
 21
-14.9165339881
  0
LINE
  5
50A
100
AcDbEntity
  8
0
100
AcDbLine
 62
253
  6
CONTINUOUS
 10
-30.0105416682
 20
-8.1222264887
 11
-30.0106721969
 21
-14.6465054676
  0
LINE
  5
50B
100
AcDbEntity
  8
0
100
AcDbLine
 62
253
  6
CONTINUOUS
 10
-29.0240277254
 20
-15.7601106157
 11
-29.0240277254
 21
-8.0877767119
  0
LINE
  5
50C
100
AcDbEntity
  8
CURVE
100
AcDbLine
 62
253
  6
CONTINUOUS
 10
-50.9286605263
 20
-11.32561
 11
-48.829477104
 21
-10.681332
  0
LINE
  5
50D
100
AcDbEntity
  8
0
100
AcDbLine
 62
7
  6
CONTINUOUS
 10
-40.0344975744
 20
7.5
 11
-41.3344975744
 21
7.5
  0
LINE
  5
50E
100
AcDbEntity
  8
CURVE
100
AcDbLine
 62
253
  6
CONTINUOUS
 10
-47.4059913753
 20
12.4285715818
 11
-47.62024444
 21
12.5357143879
  0
LINE
  5
50F
100
AcDbEntity
  8
CURVE
100
AcDbLine
 62
253
  6
CONTINUOUS
 10
-46.7632321363
 20
13.1785715818
 11
-46.5489790492
 21
13.0714284182
  0
LINE
  5
510
100
AcDbEntity
  8
CURVE
100
AcDbLine
 62
253
  6
CONTINUOUS
 10
-47.4059913753
 20
13.6071428061
 11
-47.62024444
 21
13.7142856121
  0
LINE
  5
511
100
AcDbEntity
  8
0
100
AcDbLine
 62
7
  6
CONTINUOUS
 10
-28.7344975744
 20
-15.4603180845
 11
-28.7344975744
 21
-8.0776660962
  0
LINE
  5
512
100
AcDbEntity
  8
0
100
AcDbLine
 62
7
  6
CONTINUOUS
 10
-27.1344975744
 20
-8.021792865
 11
-27.1344975744
 21
-8.0545986235
  0
LINE
  5
513
100
AcDbEntity
  8
CURVE
100
AcDbLine
 62
253
  6
CONTINUOUS
 10
-46.3344975744
 20
-14.659776
 11
-47.6341016119
 21
-15.23011
  0
LINE
  5
514
100
AcDbEntity
  8
CURVE
100
AcDbLine
 62
253
  6
CONTINUOUS
 10
-48.829477104
 20
-13.578566
 11
-50.2002044718
 21
-14.092764
  0
LINE
  5
515
100
AcDbEntity
  8
CURVE
100
AcDbLine
 62
253
  6
CONTINUOUS
 10
-50.9286605263
 20
-13.979122
 11
-49.7631876218
 21
-13.545436
  0
LINE
  5
516
100
AcDbEntity
  8
CURVE
100
AcDbLine
 62
253
  6
CONTINUOUS
 10
-46.7632321363
 20
9.0
 11
-47.4059913753
 21
9.0
  0
LINE
  5
517
100
AcDbEntity
  8
CURVE
100
AcDbLine
 62
253
  6
CONTINUOUS
 10
-48.8344975744
 20
9.0
 11
-50.6339490638
 21
9.0
  0
LINE
  5
518
100
AcDbEntity
  8
CURVE
100
AcDbLine
 62
253
  6
CONTINUOUS
 10
-50.2785903064
 20
9.2268895676
 11
-48.8344975744
 21
9.2268895676
  0
LINE
  5
519
100
AcDbEntity
  8
CURVE
100
AcDbLine
 62
253
  6
CONTINUOUS
 10
-47.4059913753
 20
9.75
 11
-46.7632321363
 21
9.75
  0
LINE
  5
51A
100
AcDbEntity
  8
0
100
AcDbLine
 62
7
  6
CONTINUOUS
 10
-21.3547341973
 20
6.2582493056
 11
-21.1558699712
 21
6.2293380508
  0
LINE
  5
51B
100
AcDbEntity
  8
CURVE
100
AcDbLine
 62
253
  6
CONTINUOUS
 10
-46.7632321363
 20
10.821428597
 11
-47.1917383105
 21
10.928571403
  0
LINE
  5
51C
100
AcDbEntity
  8
CURVE
100
AcDbLine
 62
253
  6
CONTINUOUS
 10
-49.0739185831
 20
13.1696680567
 11
-50.6339490638
 21
13.6889667159
  0
LINE
  5
51D
100
AcDbEntity
  8
CURVE
100
AcDbLine
 62
253
  6
CONTINUOUS
 10
-50.6339490638
 20
13.9385717089
 11
-48.8344975744
 21
13.2982126959
  0
LINE
  5
51E
100
AcDbEntity
  8
CURVE
100
AcDbLine
 62
253
  6
CONTINUOUS
 10
-46.7632321363
 20
14.3571428061
 11
-46.5489790492
 21
14.25
  0
LINE
  5
51F
100
AcDbEntity
  8
CURVE
100
AcDbLine
 62
253
  6
CONTINUOUS
 10
-46.5132701939
 20
15.0
 11
-46.5846878933
 21
15.0357141495
  0
LINE
  5
520
100
AcDbEntity
  8
CURVE
100
AcDbLine
 62
253
  6
CONTINUOUS
 10
-46.4775613497
 20
15.1428573132
 11
-46.4061436559
 21
15.1071431637
  0
LINE
  5
521
100
AcDbEntity
  8
CURVE
100
AcDbLine
 62
253
  6
CONTINUOUS
 10
-46.3344975744
 20
-16.597131
 11
-47.6341016119
 21
-17.22
  0
LINE
  5
522
100
AcDbEntity
  8
CURVE
100
AcDbLine
 62
253
  6
CONTINUOUS
 10
-47.62024444
 20
10.178571403
 11
-47.1917383105
 21
10.178571403
  0
LINE
  5
523
100
AcDbEntity
  8
CURVE
100
AcDbLine
 62
253
  6
CONTINUOUS
 10
-49.1747282645
 20
10.2075659919
 11
-50.6339490638
 21
10.2075659919
  0
LINE
  5
524
100
AcDbEntity
  8
CURVE
100
AcDbLine
 62
253
  6
CONTINUOUS
 10
-50.6339490638
 20
10.4344714406
 11
-48.8344975744
 21
10.4344714406
  0
LINE
  5
525
100
AcDbEntity
  8
CURVE
100
AcDbLine
 62
253
  6
CONTINUOUS
 10
-47.1917383105
 20
10.928571403
 11
-47.62024444
 21
10.928571403
  0
LINE
  5
526
100
AcDbEntity
  8
CURVE
100
AcDbLine
 62
253
  6
CONTINUOUS
 10
-48.8344975744
 20
10.9360943119
 11
-50.6339490638
 21
10.9360943119
  0
LINE
  5
527
100
AcDbEntity
  8
CURVE
100
AcDbLine
 62
253
  6
CONTINUOUS
 10
-50.4323307595
 20
11.1755882673
 11
-49.8602266888
 21
11.1755882673
  0
LINE
  5
528
100
AcDbEntity
  8
CURVE
100
AcDbLine
 62
253
  6
CONTINUOUS
 10
-49.6586083845
 20
11.1755882673
 11
-49.0361158787
 21
11.1755882673
  0
LINE
  5
529
100
AcDbEntity
  8
0
100
AcDbLine
 62
253
  6
CONTINUOUS
 10
-21.4801200424
 20
11.4000000212
 11
-21.2344975762
 21
11.4000000212
  0
LINE
  5
52A
100
AcDbEntity
  8
CURVE
100
AcDbLine
 62
253
  6
CONTINUOUS
 10
-47.4059913753
 20
16.5
 11
-47.62024444
 21
16.6071431637
  0
LINE
  5
52B
100
AcDbEntity
  8
CURVE
100
AcDbLine
 62
253
  6
CONTINUOUS
 10
-46.7632321363
 20
17.25
 11
-46.5489790492
 21
17.1428568363
  0
LINE
  5
52C
100
AcDbEntity
  8
CURVE
100
AcDbLine
 62
253
  6
CONTINUOUS
 10
-48.829477104
 20
-16.504845
 11
-50.9286605263
 21
-17.17053
  0
LINE
  5
52D
100
AcDbEntity
  8
CURVE
100
AcDbLine
 62
253
  6
CONTINUOUS
 10
-47.2988647982
 20
11.9642856717
 11
-47.62024444
 21
11.9642856717
  0
LINE
  5
52E
100
AcDbEntity
  8
CURVE
100
AcDbLine
 62
253
  6
CONTINUOUS
 10
-46.4418525056
 20
12.0
 11
-46.977485201
 21
12.0
  0
LINE
  5
52F
100
AcDbEntity
  8
CURVE
100
AcDbLine
 62
253
  6
CONTINUOUS
 10
-49.8602266888
 20
12.1108836018
 11
-49.6586083845
 21
12.1108836018
  0
LINE
  5
530
100
AcDbEntity
  8
CURVE
100
AcDbLine
 62
253
  6
CONTINUOUS
 10
-50.6339490638
 20
12.1789472959
 11
-50.4323307595
 21
12.1789472959
  0
LINE
  5
531
100
AcDbEntity
  8
CURVE
100
AcDbLine
 62
253
  6
CONTINUOUS
 10
-49.0361158787
 20
12.1865131048
 11
-48.8344975744
 21
12.1865131048
  0
LINE
  5
532
100
AcDbEntity
  8
CURVE
100
AcDbLine
 62
253
  6
CONTINUOUS
 10
-46.7632321363
 20
12.4285715818
 11
-47.4059913753
 21
12.4285715818
  0
LINE
  5
533
100
AcDbEntity
  8
CURVE
100
AcDbLine
 62
253
  6
CONTINUOUS
 10
-47.4059913753
 20
13.1785715818
 11
-46.7632321363
 21
13.1785715818
  0
LINE
  5
534
100
AcDbEntity
  8
0
100
AcDbLine
 62
253
  6
CONTINUOUS
 10
-21.4800894574
 20
11.4000000322
 11
-21.4801200357
 21
14.1785873956
  0
LINE
  5
535
100
AcDbEntity
  8
0
100
AcDbLine
 62
253
  6
CONTINUOUS
 10
-21.4144975744
 20
-4.15
 11
-21.4144975744
 21
-0.9401307503
  0
LINE
  5
536
100
AcDbEntity
  8
0
100
AcDbLine
 62
7
  6
CONTINUOUS
 10
-21.4144975744
 20
-0.9401307503
 11
-21.4144975744
 21
-0.06258913
  0
LINE
  5
537
100
AcDbEntity
  8
0
100
AcDbLine
 62
253
  6
CONTINUOUS
 10
-21.4144975744
 20
-0.06258913
 11
-21.4144975744
 21
1.15
  0
LINE
  5
538
100
AcDbEntity
  8
0
100
AcDbLine
 62
7
  6
CONTINUOUS
 10
-31.0680251266
 20
-16.1646456674
 11
-31.0287089377
 21
-16.1067614223
  0
LINE
  5
539
100
AcDbEntity
  8
0
100
AcDbLine
 62
7
  6
CONTINUOUS
 10
-31.0287089377
 20
-16.1067614223
 11
-30.9849232299
 21
-16.0534229332
  0
LWPOLYLINE
  5
53A
100
AcDbEntity
  8
0
100
AcDbPolyline
 62
7
  6
CONTINUOUS
 90
10
 70
0
 10
-30.9849232299
 20
-16.0534229332
 10
-30.9368755673
 20
-16.0050439864
 10
-30.8853580828
 20
-15.9620382067
 10
-30.8311615938
 20
-15.9243531764
 10
-30.7744933155
 20
-15.891764635
 10
-30.7143560716
 20
-15.8640746912
 10
-30.6503110116
 20
-15.8415859641
 10
-30.5827521209
 20
-15.8247014792
 10
-30.5116474628
 20
-15.8139273211
 10
-30.4566455736
 20
-15.8101387403
  0
LINE
  5
53B
100
AcDbEntity
  8
CURVE
100
AcDbLine
 62
253
  6
CONTINUOUS
 10
-46.7632321363
 20
13.6071428061
 11
-47.4059913753
 21
13.6071428061
  0
LINE
  5
53C
100
AcDbEntity
  8
0
100
AcDbLine
 62
253
  6
CONTINUOUS
 10
-21.4801200424
 20
14.1806895397
 11
-21.2344975762
 21
14.1806895397
  0
LINE
  5
53D
100
AcDbEntity
  8
0
100
AcDbLine
 62
253
  6
CONTINUOUS
 10
-21.2344975744
 20
14.2
 11
-21.2351094488
 21
14.2
  0
LINE
  5
53E
100
AcDbEntity
  8
CURVE
100
AcDbLine
 62
253
  6
CONTINUOUS
 10
-48.8344975744
 20
14.2435851882
 11
-50.6339490638
 21
14.2435851882
  0
LINE
  5
53F
100
AcDbEntity
  8
CURVE
100
AcDbLine
 62
253
  6
CONTINUOUS
 10
-47.4059913753
 20
14.3571428061
 11
-46.7632321363
 21
14.3571428061
  0
LINE
  5
540
100
AcDbEntity
  8
CURVE
100
AcDbLine
 62
253
  6
CONTINUOUS
 10
-50.4323307595
 20
14.4830802023
 11
-49.8602266888
 21
14.4830802023
  0
LINE
  5
541
100
AcDbEntity
  8
CURVE
100
AcDbLine
 62
253
  6
CONTINUOUS
 10
-49.6586083845
 20
14.4830802023
 11
-49.0361158787
 21
14.4830802023
  0
LINE
  5
542
100
AcDbEntity
  8
CURVE
100
AcDbLine
 62
253
  6
CONTINUOUS
 10
-46.4775613497
 20
15.0
 11
-46.5132701939
 21
15.0
  0
LINE
  5
543
100
AcDbEntity
  8
CURVE
100
AcDbLine
 62
253
  6
CONTINUOUS
 10
-46.5132701939
 20
15.1428573132
 11
-46.4775613497
 21
15.1428573132
  0
LINE
  5
544
100
AcDbEntity
  8
CURVE
100
AcDbLine
 62
253
  6
CONTINUOUS
 10
-49.8602266888
 20
15.418408358
 11
-49.6586083845
 21
15.418408358
  0
LINE
  5
545
100
AcDbEntity
  8
CURVE
100
AcDbLine
 62
253
  6
CONTINUOUS
 10
-50.6339490638
 20
15.4864222909
 11
-50.4323307595
 21
15.4864222909
  0
LINE
  5
546
100
AcDbEntity
  8
CURVE
100
AcDbLine
 62
253
  6
CONTINUOUS
 10
-49.0361158787
 20
15.494037861
 11
-48.8344975744
 21
15.494037861
  0
LINE
  5
547
100
AcDbEntity
  8
0
100
AcDbLine
 62
7
  6
CONTINUOUS
 10
-21.2344975744
 20
14.2000000412
 11
-21.2344975744
 21
11.4000011727
  0
LINE
  5
548
100
AcDbEntity
  8
0
100
AcDbLine
 62
7
  6
CONTINUOUS
 10
-20.6144975744
 20
-3.3499598335
 11
-20.6144975744
 21
0.3500448143
  0
LINE
  5
549
100
AcDbEntity
  8
0
100
AcDbLine
 62
253
  6
CONTINUOUS
 10
-39.1563669178
 20
16.2279122492
 11
-37.8954350335
 21
16.382735217
  0
LINE
  5
54A
100
AcDbEntity
  8
0
100
AcDbLine
 62
7
  6
CONTINUOUS
 10
-38.3344975744
 20
17.3213712673
 11
-39.1563669178
 21
17.2204584009
  0
LINE
  5
54B
100
AcDbEntity
  8
CURVE
100
AcDbLine
 62
253
  6
CONTINUOUS
 10
-47.8344975048
 20
16.0714287758
 11
-46.3347259621
 21
16.0714287758
  0
LINE
  5
54C
100
AcDbEntity
  8
0
100
AcDbLine
 62
253
  6
CONTINUOUS
 10
-39.1563669178
 20
16.2279122492
 11
-40.0344975744
 21
16.2279122492
  0
LINE
  5
54D
100
AcDbEntity
  8
CURVE
100
AcDbLine
 62
253
  6
CONTINUOUS
 10
-46.7632321363
 20
16.5
 11
-47.4059913753
 21
16.5
  0
LINE
  5
54E
100
AcDbEntity
  8
CURVE
100
AcDbLine
 62
253
  6
CONTINUOUS
 10
-47.4059913753
 20
17.25
 11
-46.7632321363
 21
17.25
  0
LINE
  5
54F
100
AcDbEntity
  8
0
100
AcDbLine
 62
253
  6
CONTINUOUS
 10
-35.4344987286
 20
16.4753508643
 11
-35.448026236
 21
16.4754421043
  0
LINE
  5
550
100
AcDbEntity
  8
0
100
AcDbLine
 62
253
  6
CONTINUOUS
 10
-35.4344974676
 20
16.4751683849
 11
-22.2912199742
 21
16.1309532285
  0
LINE
  5
551
100
AcDbEntity
  8
0
100
AcDbLine
 62
7
  6
CONTINUOUS
 10
-36.8344977271
 20
16.512939088
 11
-35.448026236
 21
16.4754421043
  0
LINE
  5
552
100
AcDbEntity
  8
ASSI
100
AcDbLine
 62
7
  6
CONTINUOUS
 10
-33.3344975744
 20
-20.1483339502
 11
-37.2268238946
 21
-22.3955695989
  0
LINE
  5
553
100
AcDbEntity
  8
DRAFT
100
AcDbLine
 62
7
  6
CONTINUOUS
 10
-33.3344975744
 20
-20.1483339502
 11
-35.1164640377
 21
-21.1771527675
  0
LINE
  5
554
100
AcDbEntity
  8
RACCORDO
100
AcDbLine
 62
7
  6
CONTINUOUS
 10
-35.1175385461
 20
-21.1777731352
 11
-37.2268238946
 21
-22.3955695989
  0
LINE
  5
555
100
AcDbEntity
  8
0
100
AcDbLine
 62
253
  6
CONTINUOUS
 10
-39.1216546596
 20
17.8831922438
 11
-40.0344975744
 21
17.8831922438
  0
LINE
  5
556
100
AcDbEntity
  8
0
100
AcDbLine
 62
253
  6
CONTINUOUS
 10
-37.8954350335
 20
18.1138626349
 11
-38.3344975744
 21
18.1138626349
  0
LINE
  5
557
100
AcDbEntity
  8
ASSI
100
AcDbLine
 62
7
  6
CONTINUOUS
 10
-43.3344975744
 20
18.85
 11
-38.3344975744
 21
18.85
  0
LINE
  5
558
100
AcDbEntity
  8
0
100
AcDbLine
 62
7
  6
CONTINUOUS
 10
-43.3344975744
 20
18.85
 11
-38.3344975744
 21
18.85
  0
LINE
  5
559
100
AcDbEntity
  8
ASSI
100
AcDbLine
 62
7
  6
CONTINUOUS
 10
-36.8344975744
 20
18.85
 11
-34.2844975744
 21
18.85
  0
LINE
  5
55A
100
AcDbEntity
  8
0
100
AcDbLine
 62
7
  6
CONTINUOUS
 10
-36.8344975744
 20
18.85
 11
-34.2844975744
 21
18.85
  0
LINE
  5
55B
100
AcDbEntity
  8
ASSI
100
AcDbLine
 62
7
  6
CONTINUOUS
 10
-43.3344975744
 20
18.95
 11
-38.3344975744
 21
18.95
  0
LINE
  5
55C
100
AcDbEntity
  8
DRAFT
100
AcDbLine
 62
7
  6
CONTINUOUS
 10
-43.3344975744
 20
18.95
 11
-38.3344975744
 21
18.95
  0
LINE
  5
55D
100
AcDbEntity
  8
ASSI
100
AcDbLine
 62
7
  6
CONTINUOUS
 10
-36.8344975744
 20
18.95
 11
-34.1844975744
 21
18.95
  0
LINE
  5
55E
100
AcDbEntity
  8
DRAFT
100
AcDbLine
 62
7
  6
CONTINUOUS
 10
-36.8344975744
 20
18.95
 11
-34.1844975744
 21
18.95
  0
LINE
  5
55F
100
AcDbEntity
  8
0
100
AcDbLine
 62
7
  6
CONTINUOUS
 10
-35.4344975741
 20
17.475
 11
-36.8344973303
 21
17.5055481033
  0
LINE
  5
560
100
AcDbEntity
  8
0
100
AcDbLine
 62
7
  6
CONTINUOUS
 10
-24.15596689
 20
17.1796612801
 11
-35.4344975741
 21
17.475
  0
LINE
  5
561
100
AcDbEntity
  8
ASSI
100
AcDbLine
 62
7
  6
CONTINUOUS
 10
-41.8344975744
 20
18.2499082467
 11
-43.3344975744
 21
18.3006191467
  0
LINE
  5
562
100
AcDbEntity
  8
RACCORDO
100
AcDbLine
 62
7
  6
CONTINUOUS
 10
-41.8344975744
 20
18.2499082467
 11
-43.3344975744
 21
18.3006191467
  0
LINE
  5
563
100
AcDbEntity
  8
0
100
AcDbLine
 62
253
  6
CONTINUOUS
 10
-37.8954350335
 20
18.1138632353
 11
-36.8344987569
 21
18.0622181651
  0
LINE
  5
564
100
AcDbEntity
  8
0
100
AcDbLine
 62
253
  6
CONTINUOUS
 10
-36.8344974057
 20
18.4169543778
 11
-37.8606655525
 21
18.4669314929
  0
LINE
  5
565
100
AcDbEntity
  8
DRAFT
100
AcDbLine
 62
7
  6
CONTINUOUS
 10
-35.1164640377
 20
21.1771527675
 11
-33.3344975744
 21
20.1483339502
  0
LINE
  5
566
100
AcDbEntity
  8
ASSI
100
AcDbLine
 62
7
  6
CONTINUOUS
 10
-33.3344975744
 20
20.1483339502
 11
-37.2268238946
 21
22.3955695989
  0
LINE
  5
567
100
AcDbEntity
  8
RACCORDO
100
AcDbLine
 62
7
  6
CONTINUOUS
 10
-35.1164640377
 20
21.1771527675
 11
-37.2268238946
 21
22.3955695989
  0
LINE
  5
568
100
AcDbEntity
  8
0
100
AcDbLine
 62
253
  6
CONTINUOUS
 10
-37.8606655525
 20
19.6999749057
 11
-36.8344974057
 21
19.7537540994
  0
LINE
  5
569
100
AcDbEntity
  8
0
100
AcDbLine
 62
7
  6
CONTINUOUS
 10
-36.8344975378
 20
19.9000000019
 11
-37.8606655525
 21
19.8462208151
  0
LINE
  5
56A
100
AcDbEntity
  8
DRAFT
100
AcDbLine
 62
7
  6
CONTINUOUS
 10
-43.3344975744
 20
20.9
 11
-34.6935934646
 21
20.9330083283
  0
LINE
  5
56B
100
AcDbEntity
  8
ASSI
100
AcDbLine
 62
7
  6
CONTINUOUS
 10
-39.3344975744
 20
21.2139629885
 11
-35.1164640377
 21
21.1771527675
  0
LINE
  5
56C
100
AcDbEntity
  8
DRAFT
100
AcDbLine
 62
7
  6
CONTINUOUS
 10
-39.3344975744
 20
21.2139629885
 11
-35.1164640377
 21
21.1771527675
  0
LINE
  5
56D
100
AcDbEntity
  8
RACCORDO
100
AcDbLine
 62
253
  6
CONTINUOUS
 10
-52.3925102078
 20
21.0183132877
 11
-51.9017008764
 21
20.9972959167
  0
LINE
  5
56E
100
AcDbEntity
  8
ASSI
100
AcDbLine
 62
253
  6
CONTINUOUS
 10
-52.3925102078
 20
21.0183132877
 11
-51.9017008764
 21
20.9972959167
  0
LINE
  5
56F
100
AcDbEntity
  8
0
100
AcDbLine
 62
253
  6
CONTINUOUS
 10
-52.3925102078
 20
21.0183132877
 11
-51.9017008764
 21
20.9972959167
  0
LINE
  5
570
100
AcDbEntity
  8
RACCORDO
100
AcDbLine
 62
253
  6
CONTINUOUS
 10
-51.4283108194
 20
21.4755923698
 11
-43.3344975744
 21
21.8997711479
  0
LINE
  5
571
100
AcDbEntity
  8
ASSI
100
AcDbLine
 62
253
  6
CONTINUOUS
 10
-51.4283108194
 20
21.4755923698
 11
-43.3344975744
 21
21.8997711479
  0
LINE
  5
572
100
AcDbEntity
  8
0
100
AcDbLine
 62
253
  6
CONTINUOUS
 10
-51.4283108194
 20
21.4755923698
 11
-43.3344975744
 21
21.8997711479
  0
LINE
  5
573
100
AcDbEntity
  8
RACCORDO
100
AcDbLine
 62
7
  6
CONTINUOUS
 10
-51.4457525943
 20
21.9749071372
 11
-43.3344975744
 21
22.4
  0
LINE
  5
574
100
AcDbEntity
  8
ASSI
100
AcDbLine
 62
7
  6
CONTINUOUS
 10
-51.4457525943
 20
21.9749071372
 11
-43.3344975744
 21
22.4
  0
LINE
  5
575
100
AcDbEntity
  8
0
100
AcDbLine
 62
7
  6
CONTINUOUS
 10
-51.4457525943
 20
21.9749071372
 11
-43.3344975744
 21
22.4
  0
LINE
  5
576
100
AcDbEntity
  8
ASSI
100
AcDbLine
 62
253
  6
CONTINUOUS
 10
-37.7253317313
 20
21.349698412
 11
-35.3798693086
 21
21.3292298715
  0
LINE
  5
577
100
AcDbEntity
  8
RACCORDO
100
AcDbLine
 62
253
  6
CONTINUOUS
 10
-37.7253317313
 20
21.349698412
 11
-35.3798693086
 21
21.3292298715
  0
LINE
  5
578
100
AcDbEntity
  8
ASSI
100
AcDbLine
 62
7
  6
CONTINUOUS
 10
-37.2268238946
 20
22.3955695989
 11
-37.7344975744
 21
22.4
  0
LINE
  5
579
100
AcDbEntity
  8
DRAFT
100
AcDbLine
 62
7
  6
CONTINUOUS
 10
-37.2268238946
 20
22.3955695989
 11
-37.7344975744
 21
22.4
  0
LINE
  5
57A
100
AcDbEntity
  8
ASSI
100
AcDbLine
 62
7
  6
CONTINUOUS
 10
-43.3344975744
 20
23.5
 11
-39.3344975744
 21
23.4650925288
  0
LINE
  5
57B
100
AcDbEntity
  8
DRAFT
100
AcDbLine
 62
7
  6
CONTINUOUS
 10
-43.3344975744
 20
23.5
 11
-39.3344975744
 21
23.4650925288
  0
ARC
  5
57C
100
AcDbEntity
  8
RACCORDO
100
AcDbCircle
 62
253
  6
CONTINUOUS
 10
10.5085552687
 20
-21.474697523
 40
0.500191976
100
AcDbArc
 50
270.0278166694
 51
359.8974923871
  0
ARC
  5
57D
100
AcDbEntity
  8
0
100
AcDbCircle
 62
253
  6
CONTINUOUS
 10
10.5085552687
 20
-21.474697523
 40
0.500191976
100
AcDbArc
 50
270.0278166694
 51
359.8974923871
  0
ARC
  5
57E
100
AcDbEntity
  8
RACCORDO
100
AcDbCircle
 62
253
  6
CONTINUOUS
 10
-10.5085552672
 20
-21.4746975272
 40
0.5001919745
100
AcDbArc
 50
180.1025071299
 51
269.9721831681
  0
ARC
  5
57F
100
AcDbEntity
  8
0
100
AcDbCircle
 62
253
  6
CONTINUOUS
 10
-10.5085552672
 20
-21.4746975272
 40
0.5001919745
100
AcDbArc
 50
180.1025071299
 51
269.9721831681
  0
ARC
  5
580
100
AcDbEntity
  8
ASSI
100
AcDbCircle
 62
253
  6
CONTINUOUS
 10
10.5085822799
 20
-21.4747245759
 40
0.5001623668
100
AcDbArc
 50
270.0247240462
 51
359.9005860151
  0
ARC
  5
581
100
AcDbEntity
  8
ASSI
100
AcDbCircle
 62
253
  6
CONTINUOUS
 10
-10.5085822785
 20
-21.4747245801
 40
0.5001623653
100
AcDbArc
 50
180.0994135092
 51
269.9752757954
  0
ARC
  5
582
100
AcDbEntity
  8
ASSI
100
AcDbCircle
 62
7
  6
CONTINUOUS
 10
-4.95
 20
-23.1
 40
0.5
100
AcDbArc
 50
350.803718421
 51
119.112422776
  0
ARC
  5
583
100
AcDbEntity
  8
ASSI
100
AcDbCircle
 62
7
  6
CONTINUOUS
 10
4.95
 20
-23.1
 40
0.5
100
AcDbArc
 50
60.887577224
 51
189.196281579
  0
ARC
  5
584
100
AcDbEntity
  8
DRAFT
100
AcDbCircle
 62
7
  6
CONTINUOUS
 10
4.95
 20
-23.1
 40
0.5
100
AcDbArc
 50
60.887577224
 51
189.196281579
  0
ARC
  5
585
100
AcDbEntity
  8
DRAFT
100
AcDbCircle
 62
7
  6
CONTINUOUS
 10
-4.95
 20
-23.1
 40
0.5
100
AcDbArc
 50
350.803718421
 51
119.112422776
  0
ARC
  5
586
100
AcDbEntity
  8
ASSI
100
AcDbCircle
 62
7
  6
CONTINUOUS
 10
-11.25
 20
0.0
 40
28.0
100
AcDbArc
 50
302.9352304972
 51
304.1210936517
  0
ARC
  5
587
100
AcDbEntity
  8
ASSI
100
AcDbCircle
 62
7
  6
CONTINUOUS
 10
-11.25
 20
0.0
 40
28.0
100
AcDbArc
 50
305.9627651514
 51
306.8698976458
  0
ARC
  5
588
100
AcDbEntity
  8
ASSI
100
AcDbCircle
 62
7
  6
CONTINUOUS
 10
-11.25
 20
0.0
 40
28.0
100
AcDbArc
 50
53.1301023542
 51
54.0372348486
  0
ARC
  5
589
100
AcDbEntity
  8
ASSI
100
AcDbCircle
 62
7
  6
CONTINUOUS
 10
-11.25
 20
0.0
 40
28.0
100
AcDbArc
 50
55.8789063483
 51
57.0647695028
  0
ARC
  5
58A
100
AcDbEntity
  8
DRAFT
100
AcDbCircle
 62
7
  6
CONTINUOUS
 10
-11.25
 20
0.0
 40
28.0
100
AcDbArc
 50
302.9352304972
 51
304.1210936517
  0
ARC
  5
58B
100
AcDbEntity
  8
DRAFT
100
AcDbCircle
 62
7
  6
CONTINUOUS
 10
-11.25
 20
0.0
 40
28.0
100
AcDbArc
 50
305.9627651514
 51
306.8698976458
  0
ARC
  5
58C
100
AcDbEntity
  8
DRAFT
100
AcDbCircle
 62
7
  6
CONTINUOUS
 10
-11.25
 20
0.0
 40
28.0
100
AcDbArc
 50
53.1301023542
 51
54.0372348486
  0
ARC
  5
58D
100
AcDbEntity
  8
DRAFT
100
AcDbCircle
 62
7
  6
CONTINUOUS
 10
-11.25
 20
0.0
 40
28.0
100
AcDbArc
 50
55.8789063483
 51
57.0647695028
  0
ARC
  5
58E
100
AcDbEntity
  8
RACCORDO
100
AcDbCircle
 62
253
  6
CONTINUOUS
 10
-10.5085552609
 20
21.4746975202
 40
0.5001919814
100
AcDbArc
 50
90.02781756
 51
179.8974920706
  0
ARC
  5
58F
100
AcDbEntity
  8
0
100
AcDbCircle
 62
253
  6
CONTINUOUS
 10
-10.5085552609
 20
21.4746975202
 40
0.5001919814
100
AcDbArc
 50
90.02781756
 51
179.8974920706
  0
ARC
  5
590
100
AcDbEntity
  8
ASSI
100
AcDbCircle
 62
253
  6
CONTINUOUS
 10
-10.5085822717
 20
21.4747245732
 40
0.5001623723
100
AcDbArc
 50
90.0247249909
 51
179.9005857026
  0
ARC
  5
591
100
AcDbEntity
  8
ASSI
100
AcDbCircle
 62
7
  6
CONTINUOUS
 10
-4.95
 20
23.1
 40
0.5
100
AcDbArc
 50
240.887577224
 51
9.196281579
  0
ARC
  5
592
100
AcDbEntity
  8
DRAFT
100
AcDbCircle
 62
7
  6
CONTINUOUS
 10
-4.95
 20
23.1
 40
0.5
100
AcDbArc
 50
240.887577224
 51
9.196281579
  0
ARC
  5
593
100
AcDbEntity
  8
ASSI
100
AcDbCircle
 62
7
  6
CONTINUOUS
 10
11.25
 20
0.0
 40
28.0
100
AcDbArc
 50
233.1301023542
 51
234.0372348486
  0
ARC
  5
594
100
AcDbEntity
  8
ASSI
100
AcDbCircle
 62
7
  6
CONTINUOUS
 10
11.25
 20
0.0
 40
28.0
100
AcDbArc
 50
235.8789063483
 51
237.0647695028
  0
ARC
  5
595
100
AcDbEntity
  8
ASSI
100
AcDbCircle
 62
7
  6
CONTINUOUS
 10
11.25
 20
0.0
 40
28.0
100
AcDbArc
 50
122.9352304972
 51
124.1210936517
  0
ARC
  5
596
100
AcDbEntity
  8
ASSI
100
AcDbCircle
 62
7
  6
CONTINUOUS
 10
11.25
 20
0.0
 40
28.0
100
AcDbArc
 50
125.9627651514
 51
126.8698976458
  0
ARC
  5
597
100
AcDbEntity
  8
DRAFT
100
AcDbCircle
 62
7
  6
CONTINUOUS
 10
11.25
 20
0.0
 40
28.0
100
AcDbArc
 50
233.1301023542
 51
234.0372348486
  0
ARC
  5
598
100
AcDbEntity
  8
DRAFT
100
AcDbCircle
 62
7
  6
CONTINUOUS
 10
11.25
 20
0.0
 40
28.0
100
AcDbArc
 50
235.8789063483
 51
237.0647695028
  0
ARC
  5
599
100
AcDbEntity
  8
DRAFT
100
AcDbCircle
 62
7
  6
CONTINUOUS
 10
11.25
 20
0.0
 40
28.0
100
AcDbArc
 50
122.9352304972
 51
124.1210936517
  0
ARC
  5
59A
100
AcDbEntity
  8
DRAFT
100
AcDbCircle
 62
7
  6
CONTINUOUS
 10
11.25
 20
0.0
 40
28.0
100
AcDbArc
 50
125.9627651514
 51
126.8698976458
  0
CIRCLE
  5
59B
100
AcDbEntity
  8
0
100
AcDbCircle
 62
7
  6
CONTINUOUS
 10
0.0
 20
0.0
 40
4.75
  0
CIRCLE
  5
59C
100
AcDbEntity
  8
0
100
AcDbCircle
 62
253
  6
CONTINUOUS
 10
0.0
 20
0.0
 40
4.5
  0
CIRCLE
  5
59D
100
AcDbEntity
  8
0
100
AcDbCircle
 62
253
  6
CONTINUOUS
 10
0.0
 20
0.0
 40
4.3544587245
  0
CIRCLE
  5
59E
100
AcDbEntity
  8
0
100
AcDbCircle
 62
7
  6
CONTINUOUS
 10
0.0
 20
0.0
 40
4.1044018482
  0
ARC
  5
59F
100
AcDbEntity
  8
RACCORDO
100
AcDbCircle
 62
253
  6
CONTINUOUS
 10
10.5085552637
 20
21.4746975173
 40
0.5001919814
100
AcDbArc
 50
0.1025082612
 51
89.9721827603
  0
ARC
  5
5A0
100
AcDbEntity
  8
0
100
AcDbCircle
 62
253
  6
CONTINUOUS
 10
10.5085552637
 20
21.4746975173
 40
0.5001919814
100
AcDbArc
 50
0.1025082612
 51
89.9721827603
  0
ARC
  5
5A1
100
AcDbEntity
  8
ASSI
100
AcDbCircle
 62
253
  6
CONTINUOUS
 10
10.5085822746
 20
21.4747245704
 40
0.5001623722
100
AcDbArc
 50
0.099414615
 51
89.9752753497
  0
ARC
  5
5A2
100
AcDbEntity
  8
ASSI
100
AcDbCircle
 62
7
  6
CONTINUOUS
 10
4.95
 20
23.1
 40
0.5
100
AcDbArc
 50
170.803718421
 51
299.112422776
  0
ARC
  5
5A3
100
AcDbEntity
  8
DRAFT
100
AcDbCircle
 62
7
  6
CONTINUOUS
 10
4.95
 20
23.1
 40
0.5
100
AcDbArc
 50
170.803718421
 51
299.112422776
  0
ARC
  5
5A4
100
AcDbEntity
  8
CURVE
100
AcDbCircle
 62
253
  6
CONTINUOUS
 10
76.7814547183
 20
-9.9176072051
 40
65.7581140611
100
AcDbArc
 50
179.8863943748
 51
180.1855862268
  0
ARC
  5
5A5
100
AcDbEntity
  8
0
100
AcDbCircle
 62
7
  6
CONTINUOUS
 10
-38.0344975744
 20
-17.8831922438
 40
2.0
100
AcDbArc
 50
180.0
 51
208.9296748014
  0
ARC
  5
5A6
100
AcDbEntity
  8
RACCORDO
100
AcDbCircle
 62
7
  6
CONTINUOUS
 10
-51.3934166381
 20
-20.9762776025
 40
1.0
100
AcDbArc
 50
182.4092313014
 51
267.0
  0
ARC
  5
5A7
100
AcDbEntity
  8
ASSI
100
AcDbCircle
 62
7
  6
CONTINUOUS
 10
-51.3934166381
 20
-20.9762776025
 40
1.0
100
AcDbArc
 50
182.4092313014
 51
267.0
  0
ARC
  5
5A8
100
AcDbEntity
  8
0
100
AcDbCircle
 62
7
  6
CONTINUOUS
 10
-51.3934166381
 20
-20.9762776025
 40
1.0
100
AcDbArc
 50
182.4092313014
 51
267.0
  0
ARC
  5
5A9
100
AcDbEntity
  8
0
100
AcDbCircle
 62
7
  6
CONTINUOUS
 10
-39.0344975744
 20
-16.2279122492
 40
1.0
100
AcDbArc
 50
180.0
 51
262.9999999999
  0
ARC
  5
5AA
100
AcDbEntity
  8
0
100
AcDbCircle
 62
253
  6
CONTINUOUS
 10
-38.1218211339
 20
-17.8832587014
 40
0.999833553
100
AcDbArc
 50
179.9978537118
 51
232.5334675164
  0
ARC
  5
5AB
100
AcDbEntity
  8
ASSI
100
AcDbCircle
 62
253
  6
CONTINUOUS
 10
-51.4021288611
 20
-20.9762637657
 40
0.5000132865
100
AcDbArc
 50
182.4107480919
 51
266.9984832092
  0
ARC
  5
5AC
100
AcDbEntity
  8
RACCORDO
100
AcDbCircle
 62
253
  6
CONTINUOUS
 10
-51.4021290007
 20
-20.9762639039
 40
0.5000132837
100
AcDbArc
 50
182.4107329424
 51
266.9984983588
  0
ARC
  5
5AD
100
AcDbEntity
  8
0
100
AcDbCircle
 62
253
  6
CONTINUOUS
 10
-51.4021290007
 20
-20.9762639039
 40
0.5000132837
100
AcDbArc
 50
182.4107329424
 51
266.9984983588
  0
ARC
  5
5AE
100
AcDbEntity
  8
0
100
AcDbCircle
 62
7
  6
CONTINUOUS
 10
-37.8344975744
 20
-19.3469060477
 40
0.5
100
AcDbArc
 50
180.0
 51
267.0000000001
  0
ARC
  5
5AF
100
AcDbEntity
  8
0
100
AcDbCircle
 62
7
  6
CONTINUOUS
 10
-41.3344975744
 20
-7.0
 40
0.5
100
AcDbArc
 50
180.0
 51
270.0
  0
ARC
  5
5B0
100
AcDbEntity
  8
0
100
AcDbCircle
 62
7
  6
CONTINUOUS
 10
-52.8844975744
 20
-4.5
 40
0.25
100
AcDbArc
 50
180.0
 51
270.0
  0
ARC
  5
5B1
100
AcDbEntity
  8
0
100
AcDbCircle
 62
253
  6
CONTINUOUS
 10
-27.6260228644
 20
-27.1260465911
 40
13.9531352841
100
AcDbArc
 50
142.7319234137
 51
143.6211641843
  0
ARC
  5
5B2
100
AcDbEntity
  8
0
100
AcDbCircle
 62
7
  6
CONTINUOUS
 10
-29.0344975744
 20
-15.4602933676
 40
0.3
100
AcDbArc
 50
272.0000000002
 51
359.9952794156
  0
ARC
  5
5B3
100
AcDbEntity
  8
0
100
AcDbCircle
 62
7
  6
CONTINUOUS
 10
-26.5104315723
 20
-3.825
 40
4.175
100
AcDbArc
 50
269.9999815049
 51
351.7281774087
  0
ARC
  5
5B4
100
AcDbEntity
  8
0
100
AcDbCircle
 62
7
  6
CONTINUOUS
 10
-33.2344975744
 20
-14.9165339913
 40
2.5
100
AcDbArc
 50
271.49999999
 51
0.0000000743
  0
ARC
  5
5B5
100
AcDbEntity
  8
0
100
AcDbCircle
 62
7
  6
CONTINUOUS
 10
-26.245878799
 20
-8.8369491553
 40
0.8949153568
100
AcDbArc
 50
75.2916064599
 51
75.6618449159
  0
ARC
  5
5B6
100
AcDbEntity
  8
0
100
AcDbCircle
 62
7
  6
CONTINUOUS
 10
-21.4144975744
 20
-3.35
 40
0.8
100
AcDbArc
 50
270.0
 51
360.0
  0
ARC
  5
5B7
100
AcDbEntity
  8
0
100
AcDbCircle
 62
7
  6
CONTINUOUS
 10
-131.2344975736
 20
11.3999999999
 40
110.1999999992
100
AcDbArc
 50
355.7453399898
 51
357.3106540863
  0
ARC
  5
5B8
100
AcDbEntity
  8
0
100
AcDbCircle
 62
7
  6
CONTINUOUS
 10
-131.2344975743
 20
11.4
 40
110.0
100
AcDbArc
 50
351.7281746277
 51
0.0000006108
  0
ARC
  5
5B9
100
AcDbEntity
  8
0
100
AcDbCircle
 62
253
  6
CONTINUOUS
 10
-131.1158588072
 20
11.3912498646
 40
109.635769699
100
AcDbArc
 50
351.7237108665
 51
0.0045728477
  0
ARC
  5
5BA
100
AcDbEntity
  8
CURVE
100
AcDbCircle
 62
253
  6
CONTINUOUS
 10
-46.4539990224
 20
0.4757701886
 40
0.8811779991
100
AcDbArc
 50
133.641795133
 51
180.0010526148
  0
ARC
  5
5BB
100
AcDbEntity
  8
0
100
AcDbCircle
 62
7
  6
CONTINUOUS
 10
-21.4144975744
 20
0.35
 40
0.8
100
AcDbArc
 50
0.0060863887
 51
90.0
  0
ARC
  5
5BC
100
AcDbEntity
  8
0
100
AcDbCircle
 62
7
  6
CONTINUOUS
 10
-41.3344975744
 20
7.0
 40
0.5
100
AcDbArc
 50
90.0
 51
180.0
  0
ARC
  5
5BD
100
AcDbEntity
  8
0
100
AcDbCircle
 62
7
  6
CONTINUOUS
 10
-52.8844975744
 20
4.5
 40
0.25
100
AcDbArc
 50
90.0
 51
180.0
  0
ARC
  5
5BE
100
AcDbEntity
  8
0
100
AcDbCircle
 62
7
  6
CONTINUOUS
 10
-38.0344975744
 20
17.8831922438
 40
2.0
100
AcDbArc
 50
151.0703243502
 51
180.0
  0
ARC
  5
5BF
100
AcDbEntity
  8
0
100
AcDbCircle
 62
7
  6
CONTINUOUS
 10
-39.0344975744
 20
16.2279122492
 40
1.0
100
AcDbArc
 50
97.0
 51
180.0000000005
  0
ARC
  5
5C0
100
AcDbEntity
  8
0
100
AcDbCircle
 62
253
  6
CONTINUOUS
 10
-38.1218206654
 20
17.8832584662
 40
0.9998339949
100
AcDbArc
 50
127.4665452681
 51
180.0021320542
  0
ARC
  5
5C1
100
AcDbEntity
  8
0
100
AcDbCircle
 62
7
  6
CONTINUOUS
 10
-37.8344975744
 20
19.3469060477
 40
0.5
100
AcDbArc
 50
93.0000000005
 51
180.0
  0
ARC
  5
5C2
100
AcDbEntity
  8
RACCORDO
100
AcDbCircle
 62
7
  6
CONTINUOUS
 10
-51.3934166381
 20
20.9762776025
 40
1.0
100
AcDbArc
 50
93.0
 51
177.5907686986
  0
ARC
  5
5C3
100
AcDbEntity
  8
ASSI
100
AcDbCircle
 62
7
  6
CONTINUOUS
 10
-51.3934166381
 20
20.9762776025
 40
1.0
100
AcDbArc
 50
93.0
 51
177.5907686986
  0
ARC
  5
5C4
100
AcDbEntity
  8
0
100
AcDbCircle
 62
7
  6
CONTINUOUS
 10
-51.3934166381
 20
20.9762776025
 40
1.0
100
AcDbArc
 50
93.0
 51
177.5907686986
  0
ARC
  5
5C5
100
AcDbEntity
  8
ASSI
100
AcDbCircle
 62
253
  6
CONTINUOUS
 10
-51.4021288611
 20
20.9762637657
 40
0.5000132865
100
AcDbArc
 50
93.0015167914
 51
177.5892519075
  0
ARC
  5
5C6
100
AcDbEntity
  8
RACCORDO
100
AcDbCircle
 62
253
  6
CONTINUOUS
 10
-51.4021290007
 20
20.9762639039
 40
0.5000132837
100
AcDbArc
 50
93.0015016419
 51
177.589267057
  0
ARC
  5
5C7
100
AcDbEntity
  8
0
100
AcDbCircle
 62
253
  6
CONTINUOUS
 10
-51.4021290007
 20
20.9762639039
 40
0.5000132837
100
AcDbArc
 50
93.0015016419
 51
177.589267057
  0
ARC
  5
5C8
100
AcDbEntity
  8
0
100
AcDbCircle
 62
7
  6
CONTINUOUS
 10
-24.2344975744
 20
14.2
 40
3.0
100
AcDbArc
 50
0.0000007876
 51
30.5993514267
  0
ARC
  5
5C9
100
AcDbEntity
  8
0
100
AcDbCircle
 62
7
  6
CONTINUOUS
 10
-24.2344975744
 20
14.1806893009
 40
3.0
100
AcDbArc
 50
0.0
 51
88.5000030674
  0
ARC
  5
5CA
100
AcDbEntity
  8
0
100
AcDbCircle
 62
7
  6
CONTINUOUS
 10
-21.7382471474
 20
15.6760534563
 40
0.1
100
AcDbArc
 50
30.691472726
 51
58.3790856426
  0
ARC
  5
5CB
100
AcDbEntity
  8
0
100
AcDbCircle
 62
253
  6
CONTINUOUS
 10
-27.8396749641
 20
26.9660808947
 40
13.686242312
100
AcDbArc
 50
216.3700722223
 51
217.2767571783
  0
ARC
  5
5CC
100
AcDbEntity
  8
ASSI
100
AcDbCircle
 62
7
  6
CONTINUOUS
 10
447.1655024256
 20
-0.0
 40
500.0
100
AcDbArc
 50
177.5907686986
 51
182.4092313014
  0
ARC
  5
5CD
100
AcDbEntity
  8
RACCORDO
100
AcDbCircle
 62
7
  6
CONTINUOUS
 10
447.1655024256
 20
0.0
 40
500.0
100
AcDbArc
 50
177.5907686986
 51
182.4092313014
  0
ARC
  5
5CE
100
AcDbEntity
  8
0
100
AcDbCircle
 62
7
  6
CONTINUOUS
 10
447.1655024256
 20
-0.0
 40
500.0
100
AcDbArc
 50
177.5907686986
 51
182.4092313014
  0
ARC
  5
5CF
100
AcDbEntity
  8
RACCORDO
100
AcDbCircle
 62
253
  6
CONTINUOUS
 10
447.1592448457
 20
0.0
 40
499.5024664412
100
AcDbArc
 50
177.5907806019
 51
182.4092193981
  0
ARC
  5
5D0
100
AcDbEntity
  8
0
100
AcDbCircle
 62
253
  6
CONTINUOUS
 10
447.1592448457
 20
0.0
 40
499.5024664412
100
AcDbArc
 50
177.5907806019
 51
182.4092193981
  0
ARC
  5
5D1
100
AcDbEntity
  8
ASSI
100
AcDbCircle
 62
253
  6
CONTINUOUS
 10
447.1588263335
 20
0.0
 40
499.5020482989
100
AcDbArc
 50
177.5907785839
 51
182.4092214161
  0
SPLINE
  5
5D2
100
AcDbEntity
  8
RACCORDO
100
AcDbSpline
 62
253
  6
CONTINUOUS
 70
0
 71
3
 72
16
 73
12
 74
10
 42
0.0000001
 43
0.0000001
 44
0.0000000001
 12
0.1921183597
 22
0.4630567162
 32
0.0
 13
0.5013290849
 23
0.0003675713
 33
0.0
 40
0.0
 40
0.0
 40
0.0
 40
0.0
 40
0.0075742801
 40
0.0238009257
 40
0.0489924269
 40
0.0830649883
 40
0.1765171995
 40
0.3008272027
 40
0.4512684073
 40
0.6222958889
 40
1.0
 40
1.0
 40
1.0
 40
1.0
 10
-11.0004589101
 20
20.9972959167
 30
0.0
 10
-10.9999738573
 20
20.9984650238
 30
0.0
 10
-10.9955740016
 20
20.9999075684
 30
0.0
 10
-10.9881121318
 20
21.001780036
 30
0.0
 10
-10.975357755
 20
21.0036116141
 30
0.0
 10
-10.9501394427
 20
21.0063994398
 30
0.0
 10
-10.9080406825
 20
21.009367708
 30
0.0
 10
-10.8466332851
 20
21.0123893749
 30
0.0
 10
-10.772160704
 20
21.0148941186
 30
0.0
 10
-10.6553576232
 20
21.0175081725
 30
0.0
 10
-10.5636530813
 20
21.0182677163
 30
0.0
 10
-10.5005350625
 20
21.018313994
 30
0.0
 11
-11.0004589101
 21
20.9972959167
 31
0.0
 11
-10.9972519523
 21
20.9993291923
 31
0.0
 11
-10.9893717141
 21
21.0013486743
 31
0.0
 11
-10.9768991538
 21
21.0033318111
 31
0.0
 11
-10.9599263723
 21
21.0052565824
 31
0.0
 11
-10.9132148619
 21
21.008860423
 31
0.0
 11
-10.8509752476
 21
21.0120293869
 31
0.0
 11
-10.7756000825
 21
21.0146460878
 31
0.0
 11
-10.689881502
 21
21.0166099408
 31
0.0
 11
-10.5005350625
 21
21.018313994
 31
0.0
  0
SPLINE
  5
5D3
100
AcDbEntity
  8
RACCORDO
100
AcDbSpline
 62
253
  6
CONTINUOUS
 70
0
 71
3
 72
13
 73
9
 74
7
 42
0.0000001
 43
0.0000001
 44
0.0000000001
 12
-0.0003449129
 22
0.9566831887
 32
0.0
 13
-0.1577714026
 23
0.9435841388
 33
0.0
 40
0.0
 40
0.0
 40
0.0
 40
0.0
 40
0.3738457719
 40
0.6913755189
 40
0.815220444
 40
0.9098847386
 40
0.9721862384
 40
1.0
 40
1.0
 40
1.0
 40
1.0
 10
-10.5005350625
 20
21.0183142309
 30
0.0
 10
-10.5005780439
 20
21.1375315526
 30
0.0
 10
-10.5010502925
 20
21.3579995419
 30
0.0
 10
-10.50227865
 20
21.6179907295
 30
0.0
 10
-10.5042170869
 20
21.7888854302
 30
0.0
 10
-10.5050792141
 20
21.8784948363
 30
0.0
 10
-10.5072849656
 20
21.9372666436
 30
0.0
 10
-10.507335378
 20
21.9661589291
 30
0.0
 10
-10.5087981167
 20
21.9749071372
 30
0.0
 11
-10.5005350625
 21
21.0183142309
 31
0.0
 11
-10.501255274
 21
21.3759654942
 31
0.0
 11
-10.5030523599
 21
21.6797355691
 31
0.0
 11
-10.5042842797
 21
21.7982095299
 31
0.0
 11
-10.5056848019
 21
21.8887624452
 31
0.0
 11
-10.5072065848
 21
21.9483458162
 31
0.0
 11
-10.5087981167
 21
21.9749071372
 31
0.0
  0
SPLINE
  5
5D4
100
AcDbEntity
  8
RACCORDO
100
AcDbSpline
 62
253
  6
CONTINUOUS
 70
0
 71
3
 72
13
 73
9
 74
7
 42
0.0000001
 43
0.0000001
 44
0.0000000001
 12
-0.000348726
 22
0.4784767236
 32
0.0
 13
-0.1517255802
 23
0.4537834781
 33
0.0
 40
0.0
 40
0.0
 40
0.0
 40
0.0
 40
0.3737562941
 40
0.6912129501
 40
0.8150293578
 40
0.9096978385
 40
0.9720509801
 40
1.0
 40
1.0
 40
1.0
 40
1.0
 10
-11.0004589101
 20
20.9972959167
 30
0.0
 10
-11.0005023563
 20
21.0569071457
 30
0.0
 10
-11.0009691171
 20
21.1671358893
 30
0.0
 10
-11.0022116774
 20
21.2971667893
 30
0.0
 10
-11.0041295458
 20
21.3825608997
 30
0.0
 10
-11.0050312828
 20
21.42746235
 30
0.0
 10
-11.0071595118
 20
21.456678623
 30
0.0
 10
-11.0073084372
 20
21.4713647687
 30
0.0
 10
-11.0087219643
 20
21.4755923698
 30
0.0
 11
-11.0004589101
 21
20.9972959167
 31
0.0
 11
-11.0011787742
 21
21.1761282023
 31
0.0
 11
-11.0029759768
 21
21.3280132309
 31
0.0
 11
-11.0042080566
 21
21.3872437026
 31
0.0
 11
-11.0056084801
 21
21.4325187257
 31
0.0
 11
-11.0071309876
 21
21.4623143871
 31
0.0
 11
-11.0087219643
 21
21.4755923698
 31
0.0
  0
SPLINE
  5
5D5
100
AcDbEntity
  8
RACCORDO
100
AcDbSpline
 62
253
  6
CONTINUOUS
 70
0
 71
3
 72
16
 73
12
 74
10
 42
0.0000001
 43
0.0000001
 44
0.0000000001
 12
0.1920593193
 22
-0.4630813012
 32
0.0
 13
0.5013291719
 23
-0.0003675223
 33
0.0
 40
0.0
 40
0.0
 40
0.0
 40
0.0
 40
0.0075738106
 40
0.0237999345
 40
0.048990942
 40
0.0830630594
 40
0.1765145959
 40
0.3008243017
 40
0.4512656538
 40
0.6222937348
 40
1.0
 40
1.0
 40
1.0
 40
1.0
 10
-11.0004589101
 20
-20.9972959167
 30
0.0
 10
-10.9999740365
 20
-20.9984650134
 30
0.0
 10
-10.9955742469
 20
-20.9999076502
 30
0.0
 10
-10.9881127318
 20
-21.0017800673
 30
0.0
 10
-10.9753585456
 20
-21.0036116901
 30
0.0
 10
-10.9501405368
 20
-21.0063995324
 30
0.0
 10
-10.9080419838
 20
-21.0093678453
 30
0.0
 10
-10.8466347268
 20
-21.012389544
 30
0.0
 10
-10.7721620545
 20
-21.0148943218
 30
0.0
 10
-10.6553584711
 20
-21.0175084109
 30
0.0
 10
-10.5636534522
 20
-21.0182679583
 30
0.0
 10
-10.5005350625
 20
-21.0183142302
 30
0.0
 11
-11.0004589101
 21
-20.9972959167
 31
0.0
 11
-10.9972522422
 21
-20.9993292112
 31
0.0
 11
-10.9893722777
 21
-21.0013487129
 31
0.0
 11
-10.9768999689
 21
-21.0033318698
 31
0.0
 11
-10.9599274108
 21
-21.0052566619
 31
0.0
 11
-10.9132162348
 21
-21.0088605442
 31
0.0
 11
-10.8509767609
 21
-21.0120295483
 31
0.0
 11
-10.77560151
 21
-21.0146462845
 31
0.0
 11
-10.6898826147
 21
-21.0166101641
 31
0.0
 11
-10.5005350625
 21
-21.0183142302
 31
0.0
  0
SPLINE
  5
5D6
100
AcDbEntity
  8
RACCORDO
100
AcDbSpline
 62
253
  6
CONTINUOUS
 70
0
 71
3
 72
9
 73
5
 74
3
 42
0.0000001
 43
0.0000001
 44
0.0000000001
 12
0.0308407987
 22
41.9945826303
 32
0.0
 13
-0.0308408108
 23
41.9945826303
 33
0.0
 40
0.0
 40
0.0
 40
0.0
 40
0.0
 40
0.2499439267
 40
1.0
 40
1.0
 40
1.0
 40
1.0
 10
-11.0004589101
 20
-20.9972959167
 30
0.0
 10
-10.99788942
 20
-17.4985322889
 30
0.0
 10
-10.9901837953
 20
-3.5003363072
 30
0.0
 10
-10.992748131
 20
10.4978653344
 30
0.0
 10
-11.0004589101
 20
20.9972959167
 30
0.0
 11
-11.0004589101
 21
-20.9972959167
 31
0.0
 11
-10.9946790564
 21
-10.5010037942
 31
0.0
 11
-11.0004589101
 21
20.9972959167
 31
0.0
  0
SPLINE
  5
5D7
100
AcDbEntity
  8
RACCORDO
100
AcDbSpline
 62
253
  6
CONTINUOUS
 70
0
 71
3
 72
13
 73
9
 74
7
 42
0.0000001
 43
0.0000001
 44
0.0000000001
 12
0.1577713996
 22
0.9435841393
 32
0.0
 13
0.0003449124
 23
0.9566831887
 33
0.0
 40
0.0
 40
0.0
 40
0.0
 40
0.0
 40
0.0278137614
 40
0.0901152615
 40
0.184779556
 40
0.3086244811
 40
0.6261542281
 40
1.0
 40
1.0
 40
1.0
 40
1.0
 10
-10.5087981167
 20
-21.9749071372
 30
0.0
 10
-10.507335378
 20
-21.9661589292
 30
0.0
 10
-10.5072849657
 20
-21.9372666437
 30
0.0
 10
-10.5050792141
 20
-21.8784948364
 30
0.0
 10
-10.504217087
 20
-21.7888854302
 30
0.0
 10
-10.50227865
 20
-21.6179907295
 30
0.0
 10
-10.5010502925
 20
-21.3579995419
 30
0.0
 10
-10.5005780439
 20
-21.1375315526
 30
0.0
 10
-10.5005350625
 20
-21.0183142309
 30
0.0
 11
-10.5087981167
 21
-21.9749071372
 31
0.0
 11
-10.5072065849
 21
-21.9483458164
 31
0.0
 11
-10.5056848018
 21
-21.8887624451
 31
0.0
 11
-10.5042842797
 21
-21.7982095299
 31
0.0
 11
-10.5030523599
 21
-21.6797355691
 31
0.0
 11
-10.501255274
 21
-21.3759654942
 31
0.0
 11
-10.5005350625
 21
-21.0183142309
 31
0.0
  0
SPLINE
  5
5D8
100
AcDbEntity
  8
RACCORDO
100
AcDbSpline
 62
253
  6
CONTINUOUS
 70
0
 71
3
 72
13
 73
9
 74
7
 42
0.0000001
 43
0.0000001
 44
0.0000000001
 12
-0.1577384316
 22
0.9435896595
 32
0.0
 13
-0.0003490216
 23
0.9566831955
 33
0.0
 40
0.0
 40
0.0
 40
0.0
 40
0.0
 40
0.0278132923
 40
0.0901155188
 40
0.1847794407
 40
0.3086242962
 40
0.6261541657
 40
1.0
 40
1.0
 40
1.0
 40
1.0
 10
10.5087981167
 20
-21.9749071372
 30
0.0
 10
10.5073357083
 20
-21.9661590255
 30
0.0
 10
10.5072847253
 20
-21.9372667618
 30
0.0
 10
10.5050787515
 20
-21.8784949267
 30
0.0
 10
10.5042165864
 20
-21.7888854635
 30
0.0
 10
10.5022784409
 20
-21.6179908423
 30
0.0
 10
10.5010499027
 20
-21.3579996281
 30
0.0
 10
10.500578556
 20
-21.1375315734
 30
0.0
 10
10.5005350625
 20
-21.0183142309
 30
0.0
 11
10.5087981167
 21
-21.9749071372
 31
0.0
 11
10.5072066111
 21
-21.9483462642
 31
0.0
 11
10.5056843966
 21
-21.8887622082
 31
0.0
 11
10.5042838117
 21
-21.7982096497
 31
0.0
 11
10.50305202
 21
-21.6797357531
 31
0.0
 11
10.5012551192
 21
-21.3759655573
 31
0.0
 11
10.5005350625
 21
-21.0183142309
 31
0.0
  0
SPLINE
  5
5D9
100
AcDbEntity
  8
RACCORDO
100
AcDbSpline
 62
253
  6
CONTINUOUS
 70
0
 71
3
 72
13
 73
9
 74
7
 42
0.0000001
 43
0.0000001
 44
0.0000000001
 12
-0.1518307257
 22
0.4537483127
 32
0.0
 13
-0.0003498905
 23
0.4784767268
 33
0.0
 40
0.0
 40
0.0
 40
0.0
 40
0.0
 40
0.0279482414
 40
0.0903010242
 40
0.1849686308
 40
0.3087884721
 40
0.6262490392
 40
1.0
 40
1.0
 40
1.0
 40
1.0
 10
11.0087219643
 20
-21.4755923698
 30
0.0
 10
11.007307497
 20
-21.471365214
 30
0.0
 10
11.0071604822
 20
-21.456678593
 30
0.0
 10
11.0050307152
 20
-21.4274631659
 30
0.0
 10
11.004129706
 20
-21.3825611027
 30
0.0
 10
11.0022115368
 20
-21.2971660985
 30
0.0
 10
11.0009691605
 20
-21.1671347846
 30
0.0
 10
11.0005025008
 20
-21.0569062955
 30
0.0
 10
11.0004589101
 20
-20.9972959167
 30
0.0
 11
11.0087219643
 21
-21.4755923698
 31
0.0
 11
11.0071309793
 21
-21.4623147631
 31
0.0
 11
11.0056084523
 21
-21.4325192744
 31
0.0
 11
11.0042080262
 21
-21.3872446694
 31
0.0
 11
11.0029759669
 21
-21.3280125535
 31
0.0
 11
11.0011787816
 21
-21.176125652
 31
0.0
 11
11.0004589101
 21
-20.9972959167
 31
0.0
  0
SPLINE
  5
5DA
100
AcDbEntity
  8
RACCORDO
100
AcDbSpline
 62
253
  6
CONTINUOUS
 70
0
 71
3
 72
9
 73
5
 74
3
 42
0.0000001
 43
0.0000001
 44
0.0000000001
 12
-0.0308408122
 22
41.9945826303
 32
0.0
 13
0.0308408097
 23
41.9945826303
 33
0.0
 40
0.0
 40
0.0
 40
0.0
 40
0.0
 40
0.2499439267
 40
1.0
 40
1.0
 40
1.0
 40
1.0
 10
11.0004589101
 20
-20.9972959167
 30
0.0
 10
10.9978894189
 20
-17.4985322888
 30
0.0
 10
10.9901837966
 20
-3.5003363071
 30
0.0
 10
10.9927481312
 20
10.4978653344
 30
0.0
 10
11.0004589101
 20
20.9972959167
 30
0.0
 11
11.0004589101
 21
-20.9972959167
 31
0.0
 11
10.9946790563
 21
-10.501003794
 31
0.0
 11
11.0004589101
 21
20.9972959167
 31
0.0
  0
SPLINE
  5
5DB
100
AcDbEntity
  8
RACCORDO
100
AcDbSpline
 62
253
  6
CONTINUOUS
 70
0
 71
3
 72
16
 73
12
 74
10
 42
0.0000001
 43
0.0000001
 44
0.0000000001
 12
0.5013291721
 22
0.0003675179
 32
0.0
 13
0.192059179
 23
0.4630813596
 33
0.0
 40
0.0
 40
0.0
 40
0.0
 40
0.0
 40
0.3777062684
 40
0.5487343505
 40
0.6991757032
 40
0.8234854089
 40
0.9169369445
 40
0.9510090611
 40
0.9762000677
 40
0.9924261905
 40
1.0
 40
1.0
 40
1.0
 40
1.0
 10
10.5005350625
 20
-21.0183142305
 30
0.0
 10
10.5636534528
 20
-21.0182679592
 30
0.0
 10
10.6553584724
 20
-21.0175084122
 30
0.0
 10
10.7721620567
 20
-21.0148943227
 30
0.0
 10
10.8466347293
 20
-21.0123895446
 30
0.0
 10
10.9080419862
 20
-21.0093678457
 30
0.0
 10
10.9501405389
 20
-21.0063995326
 30
0.0
 10
10.9753585472
 20
-21.0036116903
 30
0.0
 10
10.9881127331
 20
-21.0017800674
 30
0.0
 10
10.9955742474
 20
-20.9999076504
 30
0.0
 10
10.9999740369
 20
-20.9984650133
 30
0.0
 10
11.0004589101
 20
-20.9972959167
 30
0.0
 11
10.5005350625
 21
-21.0183142305
 31
0.0
 11
10.6898826164
 21
-21.0166101652
 31
0.0
 11
10.7756015123
 21
-21.0146462854
 31
0.0
 11
10.8509767635
 21
-21.0120295489
 31
0.0
 11
10.9132162373
 21
-21.0088605446
 31
0.0
 11
10.9599274129
 21
-21.0052566621
 31
0.0
 11
10.9768999706
 21
-21.00333187
 31
0.0
 11
10.9893722789
 21
-21.0013487129
 31
0.0
 11
10.9972522429
 21
-20.9993292112
 31
0.0
 11
11.0004589101
 21
-20.9972959167
 31
0.0
  0
SPLINE
  5
5DC
100
AcDbEntity
  8
RACCORDO
100
AcDbSpline
 62
253
  6
CONTINUOUS
 70
0
 71
3
 72
13
 73
9
 74
7
 42
0.0000001
 43
0.0000001
 44
0.0000000001
 12
0.0003490214
 22
0.9566831955
 32
0.0
 13
0.1577384464
 23
0.9435896571
 33
0.0
 40
0.0
 40
0.0
 40
0.0
 40
0.0
 40
0.3738458343
 40
0.6913757038
 40
0.8152205593
 40
0.9098844813
 40
0.9721867076
 40
1.0
 40
1.0
 40
1.0
 40
1.0
 10
10.5005350625
 20
21.0183142309
 30
0.0
 10
10.5005785559
 20
21.1375315734
 30
0.0
 10
10.5010499027
 20
21.3579996281
 30
0.0
 10
10.5022784409
 20
21.6179908423
 30
0.0
 10
10.5042165864
 20
21.7888854635
 30
0.0
 10
10.5050787515
 20
21.8784949267
 30
0.0
 10
10.5072847254
 20
21.9372667618
 30
0.0
 10
10.5073357082
 20
21.9661590255
 30
0.0
 10
10.5087981167
 20
21.9749071372
 30
0.0
 11
10.5005350625
 21
21.0183142309
 31
0.0
 11
10.5012551192
 21
21.3759655573
 31
0.0
 11
10.50305202
 21
21.6797357531
 31
0.0
 11
10.5042838117
 21
21.7982096497
 31
0.0
 11
10.5056843966
 21
21.8887622083
 31
0.0
 11
10.5072066111
 21
21.9483462641
 31
0.0
 11
10.5087981167
 21
21.9749071372
 31
0.0
  0
SPLINE
  5
5DD
100
AcDbEntity
  8
RACCORDO
100
AcDbSpline
 62
253
  6
CONTINUOUS
 70
0
 71
3
 72
13
 73
9
 74
7
 42
0.0000001
 43
0.0000001
 44
0.0000000001
 12
0.0003498902
 22
0.4784767268
 32
0.0
 13
0.1518306157
 23
0.4537483495
 33
0.0
 40
0.0
 40
0.0
 40
0.0
 40
0.0
 40
0.3737509609
 40
0.6912115279
 40
0.8150313687
 40
0.9096989764
 40
0.9720517581
 40
1.0
 40
1.0
 40
1.0
 40
1.0
 10
11.0004589101
 20
20.9972959167
 30
0.0
 10
11.0005025007
 20
21.0569062955
 30
0.0
 10
11.0009691604
 20
21.1671347846
 30
0.0
 10
11.002211537
 20
21.2971660984
 30
0.0
 10
11.0041297058
 20
21.3825611028
 30
0.0
 10
11.0050307157
 20
21.4274631656
 30
0.0
 10
11.0071604812
 20
21.4566785933
 30
0.0
 10
11.007307498
 20
21.4713652136
 30
0.0
 10
11.0087219643
 20
21.4755923698
 30
0.0
 11
11.0004589101
 21
20.9972959167
 31
0.0
 11
11.0011787816
 21
21.176125652
 31
0.0
 11
11.0029759669
 21
21.3280125535
 31
0.0
 11
11.0042080262
 21
21.3872446691
 31
0.0
 11
11.0056084523
 21
21.4325192746
 31
0.0
 11
11.0071309793
 21
21.4623147629
 31
0.0
 11
11.0087219643
 21
21.4755923698
 31
0.0
  0
SPLINE
  5
5DE
100
AcDbEntity
  8
RACCORDO
100
AcDbSpline
 62
253
  6
CONTINUOUS
 70
0
 71
3
 72
16
 73
12
 74
10
 42
0.0000001
 43
0.0000001
 44
0.0000000001
 12
0.5013288359
 22
-0.0003676005
 32
0.0
 13
0.1922937582
 23
-0.4629836362
 33
0.0
 40
0.0
 40
0.0
 40
0.0
 40
0.0
 40
0.377697684
 40
0.5487233741
 40
0.699164133
 40
0.8234750171
 40
0.9169292372
 40
0.9510031232
 40
0.9761960988
 40
0.9924243062
 40
1.0
 40
1.0
 40
1.0
 40
1.0
 10
10.5005350626
 20
21.0183132877
 30
0.0
 10
10.563651976
 20
21.0182670071
 30
0.0
 10
10.6553550963
 20
21.0175074924
 30
0.0
 10
10.7721566786
 20
21.0148935567
 30
0.0
 10
10.8466289865
 20
21.0123889189
 30
0.0
 10
10.9080368019
 20
21.0093673454
 30
0.0
 10
10.9501361786
 20
21.0063992025
 30
0.0
 10
10.9753553961
 20
21.0036114179
 30
0.0
 10
10.9881103408
 20
21.0017799634
 30
0.0
 10
10.9955732723
 20
20.9999073403
 30
0.0
 10
10.9999733237
 20
20.9984650574
 30
0.0
 10
11.00045891
 20
20.9972959167
 30
0.0
 11
10.5005350626
 21
21.0183132877
 31
0.0
 11
10.6898781864
 21
21.016609309
 31
0.0
 11
10.7755958279
 21
21.0146455447
 31
0.0
 11
10.8509707358
 21
21.0120289529
 31
0.0
 11
10.9132107673
 21
21.0088601064
 31
0.0
 11
10.9599232733
 21
21.0052563811
 31
0.0
 11
10.9768967208
 21
21.0033316645
 31
0.0
 11
10.9893700315
 21
21.0013485797
 31
0.0
 11
10.9972510862
 21
20.9993291466
 31
0.0
 11
11.00045891
 21
20.9972959167
 31
0.0
  0
SPLINE
  5
5DF
100
AcDbEntity
  8
RACCORDO
100
AcDbSpline
 62
253
  6
CONTINUOUS
 70
0
 71
3
 72
13
 73
9
 74
7
 42
0.0000001
 43
0.0000001
 44
0.0000000001
 12
0.1517257352
 22
0.4537834262
 32
0.0
 13
0.0003487262
 23
0.4784767236
 33
0.0
 40
0.0
 40
0.0
 40
0.0
 40
0.0
 40
0.0279490193
 40
0.0903021623
 40
0.1849706415
 40
0.3087870499
 40
0.626243706
 40
1.0
 40
1.0
 40
1.0
 40
1.0
 10
-11.0087219643
 20
-21.4755923698
 30
0.0
 10
-11.0073084358
 20
-21.4713647693
 30
0.0
 10
-11.0071595133
 20
-21.4566786224
 30
0.0
 10
-11.0050312821
 20
-21.4274623503
 30
0.0
 10
-11.0041295461
 20
-21.3825608996
 30
0.0
 10
-11.0022116771
 20
-21.2971667895
 30
0.0
 10
-11.0009691172
 20
-21.1671358892
 30
0.0
 10
-11.0005023563
 20
-21.0569071457
 30
0.0
 10
-11.0004589101
 20
-20.9972959167
 30
0.0
 11
-11.0087219643
 21
-21.4755923698
 31
0.0
 11
-11.0071309876
 21
-21.4623143874
 31
0.0
 11
-11.0056084801
 21
-21.4325187253
 31
0.0
 11
-11.0042080566
 21
-21.3872437029
 31
0.0
 11
-11.0029759768
 21
-21.3280132309
 31
0.0
 11
-11.0011787742
 21
-21.1761282023
 31
0.0
 11
-11.0004589101
 21
-20.9972959167
 31
0.0
  0
SPLINE
  5
5E0
100
AcDbEntity
  8
ASSI
100
AcDbSpline
 62
253
  6
CONTINUOUS
 70
0
 71
3
 72
9
 73
5
 74
3
 42
0.0000001
 43
0.0000001
 44
0.0000000001
 12
-0.0308408124
 22
42.036619268
 32
0.0
 13
0.0308408099
 23
42.036619268
 33
0.0
 40
0.0
 40
0.0
 40
0.0
 40
0.0
 40
0.2499447445
 40
1.0
 40
1.0
 40
1.0
 40
1.0
 10
10.5005350625
 20
-21.0183142309
 30
0.0
 10
10.4979655629
 20
-17.5160368768
 30
0.0
 10
10.4902599362
 20
-3.5038286843
 30
0.0
 10
10.492824292
 20
10.5083851624
 30
0.0
 10
10.5005350625
 20
21.0183142309
 30
0.0
 11
10.5005350625
 21
-21.0183142309
 31
0.0
 11
10.4947551913
 21
-10.5114809306
 31
0.0
 11
10.5005350625
 21
21.0183142309
 31
0.0
  0
SPLINE
  5
5E1
100
AcDbEntity
  8
ASSI
100
AcDbSpline
 62
253
  6
CONTINUOUS
 70
0
 71
3
 72
9
 73
5
 74
3
 42
0.0000001
 43
0.0000001
 44
0.0000000001
 12
-0.0308408122
 22
41.9945826303
 32
0.0
 13
0.0308408097
 23
41.9945826303
 33
0.0
 40
0.0
 40
0.0
 40
0.0
 40
0.0
 40
0.2499447445
 40
1.0
 40
1.0
 40
1.0
 40
1.0
 10
11.0004589101
 20
-20.9972959167
 30
0.0
 10
10.9978894105
 20
-17.498520841
 30
0.0
 10
10.9901837837
 20
-3.5003248593
 30
0.0
 10
10.9927481396
 20
10.4978767823
 30
0.0
 10
11.0004589101
 20
20.9972959167
 30
0.0
 11
11.0004589101
 21
-20.9972959167
 31
0.0
 11
10.9946790388
 21
-10.5009694504
 31
0.0
 11
11.0004589101
 21
20.9972959167
 31
0.0
  0
SPLINE
  5
5E2
100
AcDbEntity
  8
ASSI
100
AcDbSpline
 62
253
  6
CONTINUOUS
 70
0
 71
3
 72
14
 73
10
 74
8
 42
0.0000001
 43
0.0000001
 44
0.0000000001
 12
0.1577714341
 22
0.9435843455
 32
0.0
 13
0.0003449125
 23
0.9566833978
 33
0.0
 40
0.0
 40
0.0
 40
0.0
 40
0.0
 40
0.0278124505
 40
0.0901070048
 40
0.1847812313
 40
0.3086276443
 40
0.4574491404
 40
0.6261706505
 40
1.0
 40
1.0
 40
1.0
 40
1.0
 10
-10.5087981167
 20
-21.9749071372
 30
0.0
 10
-10.5073354466
 20
-21.9661593396
 30
0.0
 10
-10.5072850905
 20
-21.9372696843
 30
0.0
 10
-10.5050796867
 20
-21.8784973792
 30
0.0
 10
-10.5042198579
 20
-21.788886046
 30
0.0
 10
-10.5028701535
 20
-21.671776361
 30
0.0
 10
-10.5019510384
 20
-21.5310130748
 30
0.0
 10
-10.5008900511
 20
-21.3105446812
 30
0.0
 10
-10.500578042
 20
-21.1375263417
 30
0.0
 10
-10.5005350625
 20
-21.0183142309
 30
0.0
 11
-10.5087981167
 21
-21.9749071372
 31
0.0
 11
-10.5072066992
 21
-21.9483470601
 31
0.0
 11
-10.5056855128
 21
-21.8887703076
 31
0.0
 11
-10.5042840635
 21
-21.7982078841
 31
0.0
 11
-10.5030514657
 21
-21.6797324809
 31
0.0
 11
-10.5020306782
 21
-21.5373610765
 31
0.0
 11
-10.5012551572
 21
-21.3759498615
 31
0.0
 11
-10.5005350625
 21
-21.0183142309
 31
0.0
  0
SPLINE
  5
5E3
100
AcDbEntity
  8
ASSI
100
AcDbSpline
 62
253
  6
CONTINUOUS
 70
0
 71
3
 72
18
 73
14
 74
12
 42
0.0000001
 43
0.0000001
 44
0.0000000001
 12
0.5013339604
 22
0.0003675206
 32
0.0
 13
0.1920610138
 23
0.4630857824
 33
0.0
 40
0.0
 40
0.0
 40
0.0
 40
0.0
 40
0.1923800154
 40
0.3776890116
 40
0.5487084308
 40
0.6992034632
 40
0.8234801772
 40
0.8743077967
 40
0.9169340671
 40
0.9510058938
 40
0.9762112099
 40
0.9924300022
 40
1.0
 40
1.0
 40
1.0
 40
1.0
 10
10.5005350625
 20
-21.0183142305
 30
0.0
 10
10.5326839409
 20
-21.0182906626
 30
0.0
 10
10.5958003108
 20
-21.0179902047
 30
0.0
 10
10.6874884393
 20
-21.0167912389
 30
0.0
 10
10.7721664307
 20
-21.0148955789
 30
0.0
 10
10.8466173738
 20
-21.0123826368
 30
0.0
 10
10.9009806425
 20
-21.0097388683
 30
0.0
 10
10.9372642156
 20
-21.0072737327
 30
0.0
 10
10.9585430897
 20
-21.0054769244
 30
0.0
 10
10.9753588141
 20
-21.003610581
 30
0.0
 10
10.9881159913
 20
-21.0017826919
 30
0.0
 10
10.9955799864
 20
-20.9999117554
 30
0.0
 10
10.9999742763
 20
-20.9984644361
 30
0.0
 10
11.0004589101
 20
-20.9972959167
 30
0.0
 11
10.5005350625
 21
-21.0183142305
 31
0.0
 11
10.5969805986
 21
-21.0178484161
 31
0.0
 11
10.6898740637
 21
-21.0166101396
 31
0.0
 11
10.7755894347
 21
-21.0146462667
 31
0.0
 11
10.8509923578
 21
-21.0120302037
 31
0.0
 11
10.913215807
 21
-21.0088600358
 31
0.0
 11
10.9386368712
 21
-21.0071043636
 31
0.0
 11
10.9599268144
 21
-21.0052563015
 31
0.0
 11
10.9768995257
 21
-21.0033327063
 31
0.0
 11
10.9893794154
 21
-21.0013507791
 31
0.0
 11
10.9972555919
 21
-20.9993309895
 31
0.0
 11
11.0004589101
 21
-20.9972959167
 31
0.0
  0
SPLINE
  5
5E4
100
AcDbEntity
  8
ASSI
100
AcDbSpline
 62
253
  6
CONTINUOUS
 70
0
 71
3
 72
14
 73
10
 74
8
 42
0.0000001
 43
0.0000001
 44
0.0000000001
 12
-0.000344913
 22
0.9566833978
 32
0.0
 13
-0.1577714371
 23
0.943584345
 33
0.0
 40
0.0
 40
0.0
 40
0.0
 40
0.0
 40
0.3738293495
 40
0.5425508596
 40
0.6913723557
 40
0.8152187687
 40
0.9098929952
 40
0.9721875494
 40
1.0
 40
1.0
 40
1.0
 40
1.0
 10
-10.5005350625
 20
21.0183142309
 30
0.0
 10
-10.5005780421
 20
21.1375263417
 30
0.0
 10
-10.5008900511
 20
21.3105446812
 30
0.0
 10
-10.5019510384
 20
21.5310130748
 30
0.0
 10
-10.5028701535
 20
21.671776361
 30
0.0
 10
-10.5042198579
 20
21.788886046
 30
0.0
 10
-10.5050796868
 20
21.8784973791
 30
0.0
 10
-10.5072850904
 20
21.9372696843
 30
0.0
 10
-10.5073354466
 20
21.9661593395
 30
0.0
 10
-10.5087981167
 20
21.9749071372
 30
0.0
 11
-10.5005350625
 21
21.0183142309
 31
0.0
 11
-10.5012551572
 21
21.3759498615
 31
0.0
 11
-10.5020306782
 21
21.5373610765
 31
0.0
 11
-10.5030514657
 21
21.6797324809
 31
0.0
 11
-10.5042840635
 21
21.798207884
 31
0.0
 11
-10.5056855128
 21
21.8887703076
 31
0.0
 11
-10.5072066992
 21
21.94834706
 31
0.0
 11
-10.5087981167
 21
21.9749071372
 31
0.0
  0
SPLINE
  5
5E5
100
AcDbEntity
  8
ASSI
100
AcDbSpline
 62
253
  6
CONTINUOUS
 70
0
 71
3
 72
18
 73
14
 74
12
 42
0.0000001
 43
0.0000001
 44
0.0000000001
 12
0.192120195
 22
0.4630611383
 32
0.0
 13
0.5013338728
 23
0.0003675693
 33
0.0
 40
0.0
 40
0.0
 40
0.0
 40
0.0
 40
0.0075704703
 40
0.0237897891
 40
0.0489956025
 40
0.0830678796
 40
0.1256945334
 40
0.1765224515
 40
0.300799469
 40
0.4512943504
 40
0.622313165
 40
0.807621175
 40
1.0
 40
1.0
 40
1.0
 40
1.0
 10
-11.0004589101
 20
20.9972959167
 30
0.0
 10
-10.9999740967
 20
20.9984644469
 30
0.0
 10
-10.9955797383
 20
20.9999116731
 30
0.0
 10
-10.9881153873
 20
21.0017826609
 30
0.0
 10
-10.9753580173
 20
21.0036105053
 30
0.0
 10
-10.9585420457
 20
21.0054768432
 30
0.0
 10
-10.9372629933
 20
21.0072736273
 30
0.0
 10
-10.900979255
 20
21.0097387334
 30
0.0
 10
-10.8466159216
 20
21.0123824665
 30
0.0
 10
-10.7721650649
 20
21.014895376
 30
0.0
 10
-10.6874873794
 20
21.0167910112
 30
0.0
 10
-10.5957997314
 20
21.0179899644
 30
0.0
 10
-10.5326837363
 20
21.0182904232
 30
0.0
 10
-10.5005350625
 20
21.018313994
 30
0.0
 11
-11.0004589101
 21
20.9972959167
 31
0.0
 11
-10.9972553001
 21
20.9993309706
 31
0.0
 11
-10.9893788475
 21
21.0013507407
 31
0.0
 11
-10.9768987045
 21
21.0033326481
 31
0.0
 11
-10.9599257666
 21
21.0052562227
 31
0.0
 11
-10.9386356324
 21
21.0071042639
 31
0.0
 11
-10.9132144212
 21
21.0088599152
 31
0.0
 11
-10.8509908284
 21
21.0120300426
 31
0.0
 11
-10.775587993
 21
21.0146460699
 31
0.0
 11
-10.6898729396
 21
21.0166099161
 31
0.0
 11
-10.5969799849
 21
21.0178481787
 31
0.0
 11
-10.5005350625
 21
21.018313994
 31
0.0
  0
SPLINE
  5
5E6
100
AcDbEntity
  8
ASSI
100
AcDbSpline
 62
253
  6
CONTINUOUS
 70
0
 71
3
 72
27
 73
23
 74
21
 42
0.0000001
 43
0.0000001
 44
0.0000000001
 12
-24.9675258894
 22
0.0003359402
 32
0.0
 13
24.9675258894
 23
0.0003363945
 33
0.0
 40
0.0
 40
0.0
 40
0.0
 40
0.0
 40
0.0624830977
 40
0.0937598972
 40
0.1250384364
 40
0.1875190437
 40
0.2499992557
 40
0.2812769883
 40
0.3125548093
 40
0.3750357991
 40
0.4375176103
 40
0.5000000018
 40
0.5624823902
 40
0.6249642006
 40
0.687445191
 40
0.7187230131
 40
0.7500007443
 40
0.8124809577
 40
0.8749615658
 40
0.9062401072
 40
0.9375169046
 40
1.0
 40
1.0
 40
1.0
 40
1.0
 10
0.0
 20
-7.96361743
 30
0.0
 10
-0.5200161202
 20
-7.9636104331
 30
0.0
 10
-1.3031593824
 20
-7.8862993636
 30
0.0
 10
-2.3135936342
 20
-7.6324493434
 30
0.0
 10
-3.294614125
 20
-7.280788833
 30
0.0
 10
-4.4487432547
 20
-6.6627247031
 30
0.0
 10
-5.4597379216
 20
-5.8309013238
 30
0.0
 10
-6.1586335085
 20
-5.0579396507
 30
0.0
 10
-6.778598739
 20
-4.2203681104
 30
0.0
 10
-7.3948713205
 20
-3.0650703485
 30
0.0
 10
-7.8495688746
 20
-1.5625479677
 30
0.0
 10
-8.0031748655
 20
0.0000000528
 30
0.0
 10
-7.8495705078
 20
1.5625484277
 30
0.0
 10
-7.3948706777
 20
3.0650702735
 30
0.0
 10
-6.7785971838
 20
4.2203672657
 30
0.0
 10
-6.1586335691
 20
5.0579399579
 30
0.0
 10
-5.4597390582
 20
5.8309027009
 30
0.0
 10
-4.4487433729
 20
6.6627250661
 30
0.0
 10
-3.2946140125
 20
7.2807886086
 30
0.0
 10
-2.313593511
 20
7.632449105
 30
0.0
 10
-1.3031593406
 20
7.8862993638
 30
0.0
 10
-0.5200161008
 20
7.9636104237
 30
0.0
 10
0.0
 20
7.96361743
 30
0.0
 11
0.0
 21
-7.96361743
 31
0.0
 11
-1.5525028225
 21
-7.8103664143
 31
0.0
 11
-2.3099033797
 21
-7.6202193047
 31
0.0
 11
-3.0450162869
 21
-7.3566128145
 31
0.0
 11
-4.4201271678
 21
-6.6199806503
 31
0.0
 11
-5.6249507556
 21
-5.6290587475
 31
0.0
 11
-6.1487603206
 21
-5.0498597715
 31
0.0
 11
-6.6133057466
 21
-4.4221266224
 31
0.0
 11
-7.3474259968
 21
-3.0456622598
 31
0.0
 11
-7.7993855172
 21
-1.5525503226
 31
0.0
 11
-7.9519729825
 21
0.0000001391
 31
0.0
 11
-7.799386503
 21
1.5525506192
 31
0.0
 11
-7.3474255574
 21
3.0456621038
 31
0.0
 11
-6.6133047933
 21
4.4221262076
 31
0.0
 11
-6.1487603009
 21
5.0498600843
 31
0.0
 11
-5.6249514796
 21
5.6290596872
 31
0.0
 11
-4.4201274458
 21
6.6199810971
 31
0.0
 11
-3.0450161965
 21
7.35661262
 31
0.0
 11
-2.3099032309
 21
7.6202191091
 31
0.0
 11
-1.5525027562
 21
7.8103663344
 31
0.0
 11
0.0
 21
7.96361743
 31
0.0
  0
SPLINE
  5
5E7
100
AcDbEntity
  8
ASSI
100
AcDbSpline
 62
253
  6
CONTINUOUS
 70
0
 71
3
 72
14
 73
10
 74
8
 42
0.0000001
 43
0.0000001
 44
0.0000000001
 12
0.0003490215
 22
0.9566834012
 32
0.0
 13
0.1577384803
 23
0.9435898599
 33
0.0
 40
0.0
 40
0.0
 40
0.0
 40
0.0
 40
0.3738306448
 40
0.5425517713
 40
0.6913730011
 40
0.8152192044
 40
0.9098930838
 40
0.9721877727
 40
1.0
 40
1.0
 40
1.0
 40
1.0
 10
10.5005350625
 20
21.0183142309
 30
0.0
 10
10.5005785542
 20
21.1375267551
 30
0.0
 10
10.5008893139
 20
21.3105453867
 30
0.0
 10
10.5019507011
 20
21.5310139893
 30
0.0
 10
10.5028708184
 20
21.6717769897
 30
0.0
 10
10.5042204454
 20
21.7888864268
 30
0.0
 10
10.5050792933
 20
21.878497602
 30
0.0
 10
10.5072846289
 20
21.937269848
 30
0.0
 10
10.5073357639
 20
21.9661593587
 30
0.0
 10
10.5087981167
 20
21.9749071372
 30
0.0
 11
10.5005350625
 21
21.0183142309
 31
0.0
 11
10.5012546918
 21
21.3759511034
 31
0.0
 11
10.5020305043
 21
21.5373619509
 31
0.0
 11
10.5030519859
 21
21.6797330963
 31
0.0
 11
10.504284415
 21
21.7982083012
 31
0.0
 11
10.5056851816
 21
21.8887704036
 31
0.0
 11
10.5072066145
 21
21.948347279
 31
0.0
 11
10.5087981167
 21
21.9749071372
 31
0.0
  0
SPLINE
  5
5E8
100
AcDbEntity
  8
ASSI
100
AcDbSpline
 62
253
  6
CONTINUOUS
 70
0
 71
3
 72
14
 73
10
 74
8
 42
0.0000001
 43
0.0000001
 44
0.0000000001
 12
0.0003498905
 22
0.4784771522
 32
0.0
 13
0.1518307507
 23
0.4537487529
 33
0.0
 40
0.0
 40
0.0
 40
0.0
 40
0.0
 40
0.3737450504
 40
0.542411212
 40
0.6912121108
 40
0.8150326799
 40
0.9097010519
 40
0.9720537288
 40
1.0
 40
1.0
 40
1.0
 40
1.0
 10
11.0004589101
 20
20.9972959167
 30
0.0
 10
11.0005025001
 20
21.0569054058
 30
0.0
 10
11.0008140891
 20
21.1434193512
 30
0.0
 10
11.00187377
 20
21.2536502014
 30
0.0
 10
11.0027989396
 20
21.3240439703
 30
0.0
 10
11.0041327105
 20
21.3825608552
 30
0.0
 10
11.0050303491
 20
21.4274640987
 30
0.0
 10
11.0071604738
 20
21.4566792208
 30
0.0
 10
11.0073075965
 20
21.4713655079
 30
0.0
 10
11.0087219643
 20
21.4755923698
 30
0.0
 11
11.0004589101
 21
20.9972959167
 31
0.0
 11
11.0011787685
 21
21.176122983
 31
0.0
 11
11.0019547155
 21
21.2568221788
 31
0.0
 11
11.0029759695
 21
21.3280127034
 31
0.0
 11
11.0042080392
 21
21.38724522
 31
0.0
 11
11.0056085072
 21
21.4325202304
 31
0.0
 11
11.0071310197
 21
21.4623156958
 31
0.0
 11
11.0087219643
 21
21.4755923698
 31
0.0
  0
SPLINE
  5
5E9
100
AcDbEntity
  8
ASSI
100
AcDbSpline
 62
253
  6
CONTINUOUS
 70
0
 71
3
 72
18
 73
14
 74
12
 42
0.0000001
 43
0.0000001
 44
0.0000000001
 12
0.5013336228
 22
-0.0003675978
 32
0.0
 13
0.192295595
 23
-0.4629880566
 33
0.0
 40
0.0
 40
0.0
 40
0.0
 40
0.0
 40
0.1923752926
 40
0.37768039
 40
0.5486974124
 40
0.6991918469
 40
0.8234697585
 40
0.8742985612
 40
0.9169263429
 40
0.9509999465
 40
0.9762072352
 40
0.9924281159
 40
1.0
 40
1.0
 40
1.0
 40
1.0
 10
10.5005350626
 20
21.0183132877
 30
0.0
 10
10.53268313
 20
21.0182897155
 30
0.0
 10
10.5957980165
 20
21.0179892674
 30
0.0
 10
10.6874842431
 20
21.0167903675
 30
0.0
 10
10.7721610258
 20
21.0148948158
 30
0.0
 10
10.8466116271
 20
21.0123820068
 30
0.0
 10
10.9009751522
 20
21.0097383766
 30
0.0
 10
10.9372593782
 20
21.0072733534
 30
0.0
 10
10.958538956
 20
21.0054766355
 30
0.0
 10
10.9753556581
 20
21.0036103087
 30
0.0
 10
10.9881135957
 20
21.0017825886
 30
0.0
 10
10.9955790075
 20
20.9999114445
 30
0.0
 10
10.9999735633
 20
20.9984644806
 30
0.0
 10
11.00045891
 20
20.9972959167
 30
0.0
 11
10.5005350626
 21
21.0183132877
 31
0.0
 11
10.596978166
 21
21.0178474898
 31
0.0
 11
10.6898696148
 21
21.0166092845
 31
0.0
 11
10.7755837288
 21
21.0146455271
 31
0.0
 11
10.8509863061
 21
21.012029609
 31
0.0
 11
10.9132103226
 21
21.0088595989
 31
0.0
 11
10.9386319696
 21
21.007104006
 31
0.0
 11
10.9599226657
 21
21.0052560216
 31
0.0
 11
10.9768962704
 21
21.0033325016
 31
0.0
 11
10.9893771641
 21
21.0013506461
 31
0.0
 11
10.9972544334
 21
20.9993309249
 31
0.0
 11
11.00045891
 21
20.9972959167
 31
0.0
  0
SPLINE
  5
5EA
100
AcDbEntity
  8
ASSI
100
AcDbSpline
 62
253
  6
CONTINUOUS
 70
0
 71
3
 72
9
 73
5
 74
3
 42
0.0000001
 43
0.0000001
 44
0.0000000001
 12
0.0308407987
 22
41.9945826303
 32
0.0
 13
-0.0308408108
 23
41.9945826303
 33
0.0
 40
0.0
 40
0.0
 40
0.0
 40
0.0
 40
0.2499447445
 40
1.0
 40
1.0
 40
1.0
 40
1.0
 10
-11.0004589101
 20
-20.9972959167
 30
0.0
 10
-10.9978894116
 20
-17.4985208411
 30
0.0
 10
-10.9901837814
 20
-3.5003248594
 30
0.0
 10
-10.9927481394
 20
10.4978767822
 30
0.0
 10
-11.0004589101
 20
20.9972959167
 30
0.0
 11
-11.0004589101
 21
-20.9972959167
 31
0.0
 11
-10.9946790386
 21
-10.5009694508
 31
0.0
 11
-11.0004589101
 21
20.9972959167
 31
0.0
  0
SPLINE
  5
5EB
100
AcDbEntity
  8
ASSI
100
AcDbSpline
 62
253
  6
CONTINUOUS
 70
0
 71
3
 72
9
 73
5
 74
3
 42
0.0000001
 43
0.0000001
 44
0.0000000001
 12
0.0308407988
 22
42.036619268
 32
0.0
 13
-0.030840811
 23
42.036619268
 33
0.0
 40
0.0
 40
0.0
 40
0.0
 40
0.0
 40
0.2499447445
 40
1.0
 40
1.0
 40
1.0
 40
1.0
 10
-10.5005350625
 20
-21.0183142309
 30
0.0
 10
-10.497965564
 20
-17.5160368767
 30
0.0
 10
-10.4902599339
 20
-3.5038286842
 30
0.0
 10
-10.4928242917
 20
10.5083851625
 30
0.0
 10
-10.5005350625
 20
21.0183142309
 30
0.0
 11
-10.5005350625
 21
-21.0183142309
 31
0.0
 11
-10.4947551911
 21
-10.5114809302
 31
0.0
 11
-10.5005350625
 21
21.0183142309
 31
0.0
  0
SPLINE
  5
5EC
100
AcDbEntity
  8
ASSI
100
AcDbSpline
 62
253
  6
CONTINUOUS
 70
0
 71
3
 72
18
 73
14
 74
12
 42
0.0000001
 43
0.0000001
 44
0.0000000001
 12
0.1920611539
 22
-0.463085724
 32
0.0
 13
0.5013339601
 23
-0.0003675254
 33
0.0
 40
0.0
 40
0.0
 40
0.0
 40
0.0
 40
0.0075700003
 40
0.0237887964
 40
0.0489941153
 40
0.0830659464
 40
0.1256922205
 40
0.1765198411
 40
0.3007965564
 40
0.4512915864
 40
0.6223110015
 40
0.8076199896
 40
1.0
 40
1.0
 40
1.0
 40
1.0
 10
-11.0004589101
 20
-20.9972959167
 30
0.0
 10
-10.9999742758
 20
-20.9984644364
 30
0.0
 10
-10.9955799846
 20
-20.9999117552
 30
0.0
 10
-10.9881159881
 20
-21.001782692
 30
0.0
 10
-10.9753588091
 20
-21.0036105813
 30
0.0
 10
-10.9585430828
 20
-21.0054769247
 30
0.0
 10
-10.9372642072
 20
-21.0072737328
 30
0.0
 10
-10.9009806331
 20
-21.0097388683
 30
0.0
 10
-10.8466173644
 20
-21.0123826364
 30
0.0
 10
-10.7721664222
 20
-21.0148955782
 30
0.0
 10
-10.6874884333
 20
-21.0167912378
 30
0.0
 10
-10.5958003077
 20
-21.0179902036
 30
0.0
 10
-10.53268394
 20
-21.018290662
 30
0.0
 10
-10.5005350625
 20
-21.0183142302
 30
0.0
 11
-11.0004589101
 21
-20.9972959167
 31
0.0
 11
-10.9972555905
 21
-20.9993309896
 31
0.0
 11
-10.989379412
 21
-21.0013507792
 31
0.0
 11
-10.976899521
 21
-21.0033327066
 31
0.0
 11
-10.9599268074
 21
-21.0052563018
 31
0.0
 11
-10.9386368624
 21
-21.0071043638
 31
0.0
 11
-10.9132157977
 21
-21.0088600359
 31
0.0
 11
-10.8509923478
 21
-21.0120302034
 31
0.0
 11
-10.775589426
 21
-21.014646266
 31
0.0
 11
-10.689874057
 21
-21.0166101386
 31
0.0
 11
-10.596980596
 21
-21.0178484152
 31
0.0
 11
-10.5005350625
 21
-21.0183142302
 31
0.0
  0
SPLINE
  5
5ED
100
AcDbEntity
  8
ASSI
100
AcDbSpline
 62
253
  6
CONTINUOUS
 70
0
 71
3
 72
27
 73
23
 74
21
 42
0.0000001
 43
0.0000001
 44
0.0000000001
 12
24.9675258915
 22
-0.0003352643
 32
0.0
 13
-24.9675258915
 23
-0.0003370124
 33
0.0
 40
0.0
 40
0.0
 40
0.0
 40
0.0
 40
0.0624830981
 40
0.0937598976
 40
0.1250384368
 40
0.1875190441
 40
0.2499992562
 40
0.2812769889
 40
0.3125548097
 40
0.3750357995
 40
0.4375176107
 40
0.5000000025
 40
0.5624823906
 40
0.6249642011
 40
0.6874451914
 40
0.7187230137
 40
0.7500007448
 40
0.8124809581
 40
0.8749615662
 40
0.9062401075
 40
0.937516905
 40
1.0
 40
1.0
 40
1.0
 40
1.0
 10
0.0
 20
7.96361743
 30
0.0
 10
0.5200161234
 20
7.9636104472
 30
0.0
 10
1.303159387
 20
7.8862993664
 30
0.0
 10
2.3135936511
 20
7.6324493811
 30
0.0
 10
3.2946141408
 20
7.2807888677
 30
0.0
 10
4.4487432793
 20
6.6627247211
 30
0.0
 10
5.4597377985
 20
5.8309011772
 30
0.0
 10
6.158633493
 20
5.0579396131
 30
0.0
 10
6.7785988972
 20
4.2203681963
 30
0.0
 10
7.3948713924
 20
3.0650703602
 30
0.0
 10
7.849568715
 20
1.562547924
 30
0.0
 10
8.0031748504
 20
-0.0000000613
 30
0.0
 10
7.8495706784
 20
-1.5625484739
 30
0.0
 10
7.3948706244
 20
-3.0650702719
 30
0.0
 10
6.7785970162
 20
-4.2203671759
 30
0.0
 10
6.1586335677
 20
-5.057939985
 30
0.0
 10
5.4597391773
 20
-5.8309028477
 30
0.0
 10
4.4487433549
 20
-6.6627250636
 30
0.0
 10
3.2946139981
 20
-7.2807885812
 30
0.0
 10
2.3135934952
 20
-7.6324490734
 30
0.0
 10
1.3031593361
 20
-7.886299363
 30
0.0
 10
0.5200160977
 20
-7.9636104108
 30
0.0
 10
0.0
 20
-7.96361743
 30
0.0
 11
0.0
 21
7.96361743
 31
0.0
 11
1.5525028337
 21
7.8103664294
 31
0.0
 11
2.3099033945
 21
7.6202193378
 31
0.0
 11
3.0450163041
 21
7.3566128489
 31
0.0
 11
4.4201271615
 21
6.6199806386
 31
0.0
 11
5.6249506773
 21
5.6290586491
 31
0.0
 11
6.148760315
 21
5.0498597338
 31
0.0
 11
6.6133058407
 21
4.4221266631
 31
0.0
 11
7.3474260471
 21
3.045662278
 31
0.0
 11
7.7993854198
 21
1.5525502961
 31
0.0
 11
7.9519729743
 21
-0.0000001643
 31
0.0
 11
7.7993866058
 21
-1.5525506488
 31
0.0
 11
7.3474255186
 21
-3.0456620924
 31
0.0
 11
6.6133046893
 21
-4.4221261618
 31
0.0
 11
6.1487602921
 21
-5.0498601137
 31
0.0
 11
5.6249515503
 21
-5.6290597833
 31
0.0
 11
4.4201274557
 21
-6.6199811195
 31
0.0
 11
3.0450161809
 21
-7.356612593
 31
0.0
 11
2.3099032171
 21
-7.6202190817
 31
0.0
 11
1.5525027456
 21
-7.8103663225
 31
0.0
 11
0.0
 21
-7.96361743
 31
0.0
  0
SPLINE
  5
5EE
100
AcDbEntity
  8
ASSI
100
AcDbSpline
 62
253
  6
CONTINUOUS
 70
0
 71
3
 72
14
 73
10
 74
8
 42
0.0000001
 43
0.0000001
 44
0.0000000001
 12
0.1517258699
 22
0.4537838292
 32
0.0
 13
0.0003487265
 23
0.4784771485
 33
0.0
 40
0.0
 40
0.0
 40
0.0
 40
0.0
 40
0.0279474951
 40
0.0903015039
 40
0.1849717588
 40
0.3087900599
 40
0.4575894703
 40
0.6262554721
 40
1.0
 40
1.0
 40
1.0
 40
1.0
 10
-11.0087219643
 20
-21.4755923698
 30
0.0
 10
-11.0073085116
 20
-21.4713649961
 30
0.0
 10
-11.0071595105
 20
-21.4566789484
 30
0.0
 10
-11.0050308756
 20
-21.4274626006
 30
0.0
 10
-11.0041325192
 20
-21.3825594664
 30
0.0
 10
-11.0027989909
 20
-21.3240427762
 30
0.0
 10
-11.001873683
 20
-21.2536496701
 30
0.0
 10
-11.0008141281
 20
-21.1434191512
 30
0.0
 10
-11.000502355
 20
-21.056905322
 30
0.0
 10
-11.0004589101
 20
-20.9972959167
 30
0.0
 11
-11.0087219643
 21
-21.4755923698
 31
0.0
 11
-11.0071310172
 21
-21.4623151064
 31
0.0
 11
-11.0056085062
 21
-21.4325190031
 31
0.0
 11
-11.0042080388
 21
-21.3872430918
 31
0.0
 11
-11.0029759509
 21
-21.3280116616
 31
0.0
 11
-11.0019546728
 21
-21.2568218502
 31
0.0
 11
-11.0011787433
 21
-21.1761227314
 31
0.0
 11
-11.0004589101
 21
-20.9972959167
 31
0.0
  0
SPLINE
  5
5EF
100
AcDbEntity
  8
ASSI
100
AcDbSpline
 62
253
  6
CONTINUOUS
 70
0
 71
3
 72
14
 73
10
 74
8
 42
0.0000001
 43
0.0000001
 44
0.0000000001
 12
-0.0003487263
 22
0.4784771485
 32
0.0
 13
-0.1517257149
 23
0.4537838811
 33
0.0
 40
0.0
 40
0.0
 40
0.0
 40
0.0
 40
0.373744528
 40
0.5424105301
 40
0.6912099403
 40
0.8150282406
 40
0.9096984969
 40
0.9720525043
 40
1.0
 40
1.0
 40
1.0
 40
1.0
 10
-11.0004589101
 20
20.9972959167
 30
0.0
 10
-11.000502355
 20
21.056905322
 30
0.0
 10
-11.0008141282
 20
21.1434191512
 30
0.0
 10
-11.0018736829
 20
21.2536496702
 30
0.0
 10
-11.002798991
 20
21.3240427761
 30
0.0
 10
-11.0041325189
 20
21.3825594666
 30
0.0
 10
-11.0050308763
 20
21.4274626002
 30
0.0
 10
-11.007159509
 20
21.4566789489
 30
0.0
 10
-11.007308513
 20
21.4713649955
 30
0.0
 10
-11.0087219643
 20
21.4755923698
 30
0.0
 11
-11.0004589101
 21
20.9972959167
 31
0.0
 11
-11.0011787433
 21
21.1761227315
 31
0.0
 11
-11.0019546728
 21
21.2568218504
 31
0.0
 11
-11.0029759509
 21
21.3280116616
 31
0.0
 11
-11.0042080388
 21
21.3872430915
 31
0.0
 11
-11.0056085062
 21
21.4325190035
 31
0.0
 11
-11.0071310172
 21
21.4623151061
 31
0.0
 11
-11.0087219643
 21
21.4755923698
 31
0.0
  0
SPLINE
  5
5F0
100
AcDbEntity
  8
ASSI
100
AcDbSpline
 62
253
  6
CONTINUOUS
 70
0
 71
3
 72
14
 73
10
 74
8
 42
0.0000001
 43
0.0000001
 44
0.0000000001
 12
-0.1577384655
 22
0.9435898624
 32
0.0
 13
-0.0003490217
 23
0.9566834012
 33
0.0
 40
0.0
 40
0.0
 40
0.0
 40
0.0
 40
0.0278122272
 40
0.0901069162
 40
0.1847807956
 40
0.3086269989
 40
0.4574482287
 40
0.6261693552
 40
1.0
 40
1.0
 40
1.0
 40
1.0
 10
10.5087981167
 20
-21.9749071372
 30
0.0
 10
10.507335764
 20
-21.9661593587
 30
0.0
 10
10.5072846288
 20
-21.9372698481
 30
0.0
 10
10.5050792933
 20
-21.8784976019
 30
0.0
 10
10.5042204453
 20
-21.7888864268
 30
0.0
 10
10.5028708184
 20
-21.6717769897
 30
0.0
 10
10.5019507011
 20
-21.5310139893
 30
0.0
 10
10.5008893139
 20
-21.3105453867
 30
0.0
 10
10.5005785542
 20
-21.1375267551
 30
0.0
 10
10.5005350625
 20
-21.0183142309
 30
0.0
 11
10.5087981167
 21
-21.9749071372
 31
0.0
 11
10.5072066145
 21
-21.9483472791
 31
0.0
 11
10.5056851816
 21
-21.8887704036
 31
0.0
 11
10.504284415
 21
-21.7982083012
 31
0.0
 11
10.5030519859
 21
-21.6797330963
 31
0.0
 11
10.5020305043
 21
-21.5373619509
 31
0.0
 11
10.5012546917
 21
-21.3759511034
 31
0.0
 11
10.5005350625
 21
-21.0183142309
 31
0.0
  0
SPLINE
  5
5F1
100
AcDbEntity
  8
ASSI
100
AcDbSpline
 62
253
  6
CONTINUOUS
 70
0
 71
3
 72
14
 73
10
 74
8
 42
0.0000001
 43
0.0000001
 44
0.0000000001
 12
-0.1518308606
 22
0.4537487161
 32
0.0
 13
-0.0003498908
 23
0.4784771522
 33
0.0
 40
0.0
 40
0.0
 40
0.0
 40
0.0
 40
0.0279462707
 40
0.0902989487
 40
0.1849673197
 40
0.3087878893
 40
0.4575887884
 40
0.6262549498
 40
1.0
 40
1.0
 40
1.0
 40
1.0
 10
11.0087219643
 20
-21.4755923698
 30
0.0
 10
11.0073075955
 20
-21.4713655083
 30
0.0
 10
11.0071604749
 20
-21.4566792205
 30
0.0
 10
11.0050303485
 20
-21.4274640989
 30
0.0
 10
11.0041327107
 20
-21.3825608551
 30
0.0
 10
11.0027989395
 20
-21.3240439704
 30
0.0
 10
11.0018737701
 20
-21.2536502012
 30
0.0
 10
11.0008140891
 20
-21.1434193511
 30
0.0
 10
11.0005025001
 20
-21.0569054058
 30
0.0
 10
11.0004589101
 20
-20.9972959167
 30
0.0
 11
11.0087219643
 21
-21.4755923698
 31
0.0
 11
11.0071310197
 21
-21.462315696
 31
0.0
 11
11.0056085072
 21
-21.4325202301
 31
0.0
 11
11.0042080392
 21
-21.3872452202
 31
0.0
 11
11.0029759695
 21
-21.3280127034
 31
0.0
 11
11.0019547155
 21
-21.2568221786
 31
0.0
 11
11.0011787685
 21
-21.1761229829
 31
0.0
 11
11.0004589101
 21
-20.9972959167
 31
0.0
  0
SPLINE
  5
5F2
100
AcDbEntity
  8
CURVE
100
AcDbSpline
 62
253
  6
CONTINUOUS
 70
0
 71
3
 72
12
 73
8
 74
6
 42
0.0000001
 43
0.0000001
 44
0.0000000001
 12
0.0314062944
 22
1.3970848646
 32
0.0
 13
0.0257256112
 23
-1.7371551566
 33
0.0
 40
0.0
 40
0.0
 40
0.0
 40
0.0
 40
0.2
 40
0.4
 40
0.6
 40
0.8
 40
1.0
 40
1.0
 40
1.0
 40
1.0
 10
11.0292439103
 20
1.1831303242
 30
0.0
 10
11.0313376633
 20
1.2762693152
 30
0.0
 10
11.0360553705
 20
1.4267069783
 30
0.0
 10
11.0439623877
 20
1.5193418303
 30
0.0
 10
11.0519976366
 20
1.4715130489
 30
0.0
 10
11.0594036564
 20
1.287729321
 30
0.0
 10
11.0634811528
 20
1.0849393438
 30
0.0
 10
11.0651961935
 20
0.969129
 30
0.0
 11
11.0292439103
 21
1.1831303242
 31
0.0
 11
11.0361937799
 21
1.4045367045
 31
0.0
 11
11.0439837597
 21
1.4959312247
 31
0.0
 11
11.0518927651
 21
1.4488538911
 31
0.0
 11
11.0591886938
 21
1.267662448
 31
0.0
 11
11.0651961935
 21
0.969129
 31
0.0
  0
SPLINE
  5
5F3
100
AcDbEntity
  8
CURVE
100
AcDbSpline
 62
253
  6
CONTINUOUS
 70
0
 71
3
 72
12
 73
8
 74
6
 42
0.0000001
 43
0.0000001
 44
0.0000000001
 12
-0.0257256259
 22
-1.7371561489
 32
0.0
 13
-0.0314063124
 23
1.3970856626
 33
0.0
 40
0.0
 40
0.0
 40
0.0
 40
0.0
 40
0.2
 40
0.4
 40
0.6
 40
0.8
 40
1.0
 40
1.0
 40
1.0
 40
1.0
 10
11.0651962049
 20
-0.9691295536
 30
0.0
 10
11.0634811632
 20
-1.0849399635
 30
0.0
 10
11.0594036644
 20
-1.2877300566
 30
0.0
 10
11.0519976404
 20
-1.4715138894
 30
0.0
 10
11.043962387
 20
-1.5193426981
 30
0.0
 10
11.0360553652
 20
-1.4267077932
 30
0.0
 10
11.0313376553
 20
-1.2762700442
 30
0.0
 10
11.0292439011
 20
-1.183131
 30
0.0
 11
11.0651962049
 21
-0.9691295536
 31
0.0
 11
11.0591887018
 21
-1.2676631721
 31
0.0
 11
11.0518927689
 21
-1.4488547187
 31
0.0
 11
11.0439837589
 21
-1.4959320792
 31
0.0
 11
11.0361937747
 21
-1.4045375068
 31
0.0
 11
11.0292439011
 21
-1.183131
 31
0.0
  0
SPLINE
  5
5F4
100
AcDbEntity
  8
CURVE
100
AcDbSpline
 62
253
  6
CONTINUOUS
 70
0
 71
3
 72
107
 73
103
 74
101
 42
0.0000001
 43
0.0000001
 44
0.0000000001
 12
0.1084551558
 22
0.6093211866
 32
0.0
 13
-0.1103665082
 23
0.6312044813
 33
0.0
 40
0.0
 40
0.0
 40
0.0
 40
0.0
 40
0.015625
 40
0.03125
 40
0.046875
 40
0.0546875
 40
0.05859375
 40
0.0625
 40
0.06640625
 40
0.0703125
 40
0.078125
 40
0.09375
 40
0.109375
 40
0.1171875
 40
0.12109375
 40
0.125
 40
0.12890625
 40
0.1328125
 40
0.140625
 40
0.15625
 40
0.171875
 40
0.1796875
 40
0.18359375
 40
0.1875
 40
0.19140625
 40
0.1953125
 40
0.203125
 40
0.21875
 40
0.234375
 40
0.2421875
 40
0.25
 40
0.2578125
 40
0.265625
 40
0.28125
 40
0.296875
 40
0.3046875
 40
0.3125
 40
0.3203125
 40
0.328125
 40
0.34375
 40
0.359375
 40
0.3671875
 40
0.375
 40
0.3828125
 40
0.390625
 40
0.40625
 40
0.421875
 40
0.4375
 40
0.453125
 40
0.46875
 40
0.5
 40
0.53125
 40
0.546875
 40
0.5625
 40
0.578125
 40
0.59375
 40
0.609375
 40
0.6171875
 40
0.625
 40
0.6328125
 40
0.640625
 40
0.65625
 40
0.671875
 40
0.6796875
 40
0.6875
 40
0.6953125
 40
0.703125
 40
0.71875
 40
0.734375
 40
0.7421875
 40
0.74609375
 40
0.75
 40
0.75390625
 40
0.7578125
 40
0.765625
 40
0.78125
 40
0.796875
 40
0.8046875
 40
0.80859375
 40
0.8125
 40
0.81640625
 40
0.8203125
 40
0.828125
 40
0.84375
 40
0.859375
 40
0.8671875
 40
0.87109375
 40
0.875
 40
0.87890625
 40
0.8828125
 40
0.890625
 40
0.90625
 40
0.921875
 40
0.9296875
 40
0.93359375
 40
0.9375
 40
0.94140625
 40
0.9453125
 40
0.953125
 40
0.96875
 40
0.984375
 40
1.0
 40
1.0
 40
1.0
 40
1.0
 10
11.0452696104
 20
-1.9996264008
 30
0.0
 10
11.045834481
 20
-1.996452853
 30
0.0
 10
11.0469641737
 20
-1.9900917023
 30
0.0
 10
11.048659004
 20
-1.980634306
 30
0.0
 10
11.0500705127
 20
-1.9725071809
 30
0.0
 10
11.0510602262
 20
-1.9672978183
 30
0.0
 10
11.0516231905
 20
-1.9635726139
 30
0.0
 10
11.0520526992
 20
-1.9628869522
 30
0.0
 10
11.0524543589
 20
-1.954142537
 30
0.0
 10
11.0529996245
 20
-1.9452950493
 30
0.0
 10
11.0539492577
 20
-1.9284943915
 30
0.0
 10
11.0553087007
 20
-1.9052427765
 30
0.0
 10
11.0566655741
 20
-1.8815034896
 30
0.0
 10
11.0576188048
 20
-1.8653855725
 30
0.0
 10
11.0581584172
 20
-1.8554652065
 30
0.0
 10
11.0585774221
 20
-1.8500125767
 30
0.0
 10
11.05894179
 20
-1.836964432
 30
0.0
 10
11.0594466787
 20
-1.8222170329
 30
0.0
 10
11.0603212825
 20
-1.7951670507
 30
0.0
 10
11.06157595
 20
-1.7572322466
 30
0.0
 10
11.0628267339
 20
-1.7188311103
 30
0.0
 10
11.0637067748
 20
-1.6924339932
 30
0.0
 10
11.0642031195
 20
-1.6766606631
 30
0.0
 10
11.0645937021
 20
-1.6667602615
 30
0.0
 10
11.064914256
 20
-1.6494861071
 30
0.0
 10
11.0653660579
 20
-1.6290245085
 30
0.0
 10
11.0661456474
 20
-1.5920334702
 30
0.0
 10
11.0672626908
 20
-1.5396914153
 30
0.0
 10
11.0683874315
 20
-1.4875940104
 30
0.0
 10
11.0692660753
 20
-1.444927098
 30
0.0
 10
11.0699838858
 20
-1.4157470892
 30
0.0
 10
11.0704769603
 20
-1.3757808725
 30
0.0
 10
11.0712132687
 20
-1.3262747183
 30
0.0
 10
11.0721039263
 20
-1.2629915344
 30
0.0
 10
11.0730149011
 20
-1.2005826468
 30
0.0
 10
11.0737187019
 20
-1.1496776185
 30
0.0
 10
11.0743092991
 20
-1.113908024
 30
0.0
 10
11.0746613994
 20
-1.068990682
 30
0.0
 10
11.0752145894
 20
-1.0123063056
 30
0.0
 10
11.075874397
 20
-0.9402796064
 30
0.0
 10
11.0765562706
 20
-0.868931056
 30
0.0
 10
11.077074155
 20
-0.8111616415
 30
0.0
 10
11.0775321722
 20
-0.769499414
 30
0.0
 10
11.077725581
 20
-0.72152314
 30
0.0
 10
11.0780747076
 20
-0.6597400013
 30
0.0
 10
11.0784882755
 20
-0.581906994
 30
0.0
 10
11.0789573185
 20
-0.4881291484
 30
0.0
 10
11.07957186
 20
-0.3968307845
 30
0.0
 10
11.079631646
 20
-0.2959927306
 30
0.0
 10
11.0798704036
 20
-0.1650451643
 30
0.0
 10
11.080362917
 20
0.0010638609
 30
0.0
 10
11.079880361
 20
0.1618535817
 30
0.0
 10
11.0796495273
 20
0.2910449858
 30
0.0
 10
11.0795958104
 20
0.389451239
 30
0.0
 10
11.0789868545
 20
0.4815268782
 30
0.0
 10
11.0785235219
 20
0.5752214407
 30
0.0
 10
11.0781146996
 20
0.6531793438
 30
0.0
 10
11.0777693384
 20
0.7150263621
 30
0.0
 10
11.0775788547
 20
0.7630420776
 30
0.0
 10
11.0771233736
 20
0.8047956383
 30
0.0
 10
11.0766090356
 20
0.862666994
 30
0.0
 10
11.0759313307
 20
0.9341620149
 30
0.0
 10
11.0752765427
 20
1.0062838039
 30
0.0
 10
11.0747255375
 20
1.0631523306
 30
0.0
 10
11.074380058
 20
1.1079143783
 30
0.0
 10
11.0737770684
 20
1.1446482673
 30
0.0
 10
11.0730629427
 20
1.1964244985
 30
0.0
 10
11.0721401069
 20
1.2602323402
 30
0.0
 10
11.0712256604
 20
1.3241928302
 30
0.0
 10
11.0705890554
 20
1.3692833249
 30
0.0
 10
11.0702167513
 20
1.3944581246
 30
0.0
 10
11.0699621104
 20
1.4150219156
 30
0.0
 10
11.0696133859
 20
1.4291505402
 30
0.0
 10
11.0691812452
 20
1.4502340355
 30
0.0
 10
11.0684096258
 20
1.4860772777
 30
0.0
 10
11.0673159869
 20
1.5378865652
 30
0.0
 10
11.0662169322
 20
1.589282705
 30
0.0
 10
11.0654528949
 20
1.6257043539
 30
0.0
 10
11.0650088396
 20
1.6458789244
 30
0.0
 10
11.0646966711
 20
1.6627962955
 30
0.0
 10
11.064304742
 20
1.6728867942
 30
0.0
 10
11.0638099968
 20
1.6887228267
 30
0.0
 10
11.0629311725
 20
1.7153185765
 30
0.0
 10
11.0616829596
 20
1.7539567942
 30
0.0
 10
11.0604305455
 20
1.7921460585
 30
0.0
 10
11.059557603
 20
1.8193703431
 30
0.0
 10
11.059053615
 20
1.8342186783
 30
0.0
 10
11.0586900444
 20
1.8473396119
 30
0.0
 10
11.0582713739
 20
1.8528760159
 30
0.0
 10
11.0577323703
 20
1.8629042483
 30
0.0
 10
11.0567801159
 20
1.8792127243
 30
0.0
 10
11.0554247893
 20
1.9032232449
 30
0.0
 10
11.0540664541
 20
1.9267466519
 30
0.0
 10
11.0531184119
 20
1.943737087
 30
0.0
 10
11.0525727891
 20
1.9526936693
 30
0.0
 10
11.0521744273
 20
1.9615180908
 30
0.0
 10
11.0517345864
 20
1.9622906919
 30
0.0
 10
11.0511626003
 20
1.9661293972
 30
0.0
 10
11.0501548832
 20
1.9715385132
 30
0.0
 10
11.048718814
 20
1.9799504108
 30
0.0
 10
11.0469940117
 20
1.9897497879
 30
0.0
 10
11.0458444329
 20
1.9963388775
 30
0.0
 10
11.0452696074
 20
1.9996264008
 30
0.0
 11
11.0452696104
 21
-1.9996264008
 31
0.0
 11
11.0469642222
 21
-1.9901057573
 31
0.0
 11
11.048658834
 21
-1.9805851137
 31
0.0
 11
11.0503534459
 21
-1.9710644702
 31
0.0
 11
11.0512007518
 21
-1.9663041484
 31
0.0
 11
11.0516244047
 21
-1.9639239875
 31
0.0
 11
11.0520480577
 21
-1.9615438267
 31
0.0
 11
11.0524555738
 21
-1.9544940036
 31
0.0
 11
11.05286309
 21
-1.9474441805
 31
0.0
 11
11.0536781222
 21
-1.9333445344
 31
0.0
 11
11.0553081868
 21
-1.9051452421
 31
0.0
 11
11.0569382514
 21
-1.8769459499
 31
0.0
 11
11.0577532837
 21
-1.8628463037
 31
0.0
 11
11.0581607998
 21
-1.8557964807
 31
0.0
 11
11.058568316
 21
-1.8487466576
 31
0.0
 11
11.0589441731
 21
-1.8372956979
 31
0.0
 11
11.0593200303
 21
-1.8258447382
 31
0.0
 11
11.0600717446
 21
-1.8029428189
 31
0.0
 11
11.0615751733
 21
-1.7571389802
 31
0.0
 11
11.063078602
 21
-1.7113351414
 31
0.0
 11
11.0638303163
 21
-1.6884332221
 31
0.0
 11
11.0642061735
 21
-1.6769822624
 31
0.0
 11
11.0645820307
 21
-1.6655313027
 31
0.0
 11
11.0649173056
 21
-1.649807433
 31
0.0
 11
11.0652525806
 21
-1.6340835634
 31
0.0
 11
11.0659231305
 21
-1.602635824
 31
0.0
 11
11.0672642303
 21
-1.5397403453
 31
0.0
 11
11.06860533
 21
-1.4768448666
 31
0.0
 11
11.0692758799
 21
-1.4453971272
 31
0.0
 11
11.0699464298
 21
-1.4139493879
 31
0.0
 11
11.0704868198
 21
-1.3762536393
 31
0.0
 11
11.0710272098
 21
-1.3385578907
 31
0.0
 11
11.0721079897
 21
-1.2631663936
 31
0.0
 11
11.0731887697
 21
-1.1877748965
 31
0.0
 11
11.0737291597
 21
-1.150079148
 31
0.0
 11
11.0742695496
 21
-1.1123833994
 31
0.0
 11
11.0746718648
 21
-1.0693913586
 31
0.0
 11
11.0750741799
 21
-1.0263993178
 31
0.0
 11
11.0758788102
 21
-0.9404152362
 31
0.0
 11
11.0766834405
 21
-0.8544311545
 31
0.0
 11
11.0770857556
 21
-0.8114391137
 31
0.0
 11
11.0774880708
 21
-0.7684470729
 31
0.0
 11
11.077736987
 21
-0.7217962933
 31
0.0
 11
11.0779859033
 21
-0.6751455137
 31
0.0
 11
11.0784837358
 21
-0.5818439545
 31
0.0
 11
11.0789815683
 21
-0.4885423953
 31
0.0
 11
11.0794794008
 21
-0.3952408361
 31
0.0
 11
11.0796515264
 21
-0.2964306271
 31
0.0
 11
11.0798236519
 21
-0.1976204181
 31
0.0
 11
11.0801679031
 21
0.0
 31
0.0
 11
11.0798355868
 21
0.1941980683
 31
0.0
 11
11.0796694287
 21
0.2912971025
 31
0.0
 11
11.0795032705
 21
0.3883961366
 31
0.0
 11
11.079011125
 21
0.4817966988
 31
0.0
 11
11.0785189795
 21
0.5751972609
 31
0.0
 11
11.078026834
 21
0.668597823
 31
0.0
 11
11.0777807613
 21
0.7152981041
 31
0.0
 11
11.0775346885
 21
0.7619983851
 31
0.0
 11
11.0771349949
 21
0.805070631
 31
0.0
 11
11.0767353013
 21
0.8481428768
 31
0.0
 11
11.0759359141
 21
0.9342873685
 31
0.0
 11
11.0751365269
 21
1.0204318602
 31
0.0
 11
11.0747368333
 21
1.063504106
 31
0.0
 11
11.0743371397
 21
1.1065763519
 31
0.0
 11
11.0737883009
 21
1.1449979814
 31
0.0
 11
11.0732394622
 21
1.1834196109
 31
0.0
 11
11.0721417847
 21
1.2602628699
 31
0.0
 11
11.0710441073
 21
1.3371061289
 31
0.0
 11
11.0704952686
 21
1.3755277584
 31
0.0
 11
11.0702208492
 21
1.3947385731
 31
0.0
 11
11.0699464298
 21
1.4139493879
 31
0.0
 11
11.0696174891
 21
1.4294312063
 31
0.0
 11
11.0692885483
 21
1.4449130248
 31
0.0
 11
11.0686306668
 21
1.4758766618
 31
0.0
 11
11.0673149037
 21
1.5378039356
 31
0.0
 11
11.0659991407
 21
1.5997312095
 31
0.0
 11
11.0653412592
 21
1.6306948465
 31
0.0
 11
11.0650123184
 21
1.646176665
 31
0.0
 11
11.0646833776
 21
1.6616584834
 31
0.0
 11
11.0643082203
 21
1.6731845484
 31
0.0
 11
11.0639330631
 21
1.6847106135
 31
0.0
 11
11.0631827485
 21
1.7077627435
 31
0.0
 11
11.0616821194
 21
1.7538670035
 31
0.0
 11
11.0601814902
 21
1.7999712636
 31
0.0
 11
11.0594311756
 21
1.8230233936
 31
0.0
 11
11.0590560184
 21
1.8345494586
 31
0.0
 11
11.0586808611
 21
1.8460755236
 31
0.0
 11
11.0582737769
 21
1.853206811
 31
0.0
 11
11.0578666927
 21
1.8603380983
 31
0.0
 11
11.0570525243
 21
1.8746006729
 31
0.0
 11
11.0554241876
 21
1.9031258222
 31
0.0
 11
11.0537958509
 21
1.9316509715
 31
0.0
 11
11.0529816825
 21
1.9459135461
 31
0.0
 11
11.0525745983
 21
1.9530448334
 31
0.0
 11
11.0521675141
 21
1.9601761207
 31
0.0
 11
11.051736395
 21
1.9626417632
 31
0.0
 11
11.0513052758
 21
1.9651074057
 31
0.0
 11
11.0504430375
 21
1.9700386908
 31
0.0
 11
11.0487185608
 21
1.9799012608
 31
0.0
 11
11.0469940841
 21
1.9897638308
 31
0.0
 11
11.0452696074
 21
1.9996264008
 31
0.0
  0
SPLINE
  5
5F5
100
AcDbEntity
  8
CURVE
100
AcDbSpline
 62
253
  6
CONTINUOUS
 70
0
 71
3
 72
107
 73
103
 74
101
 42
0.0000001
 43
0.0000001
 44
0.0000000001
 12
-0.1084551558
 22
-0.6093211866
 32
0.0
 13
0.1103665082
 23
-0.6312044813
 33
0.0
 40
0.0
 40
0.0
 40
0.0
 40
0.0
 40
0.015625
 40
0.03125
 40
0.046875
 40
0.0546875
 40
0.05859375
 40
0.0625
 40
0.06640625
 40
0.0703125
 40
0.078125
 40
0.09375
 40
0.109375
 40
0.1171875
 40
0.12109375
 40
0.125
 40
0.12890625
 40
0.1328125
 40
0.140625
 40
0.15625
 40
0.171875
 40
0.1796875
 40
0.18359375
 40
0.1875
 40
0.19140625
 40
0.1953125
 40
0.203125
 40
0.21875
 40
0.234375
 40
0.2421875
 40
0.25
 40
0.2578125
 40
0.265625
 40
0.28125
 40
0.296875
 40
0.3046875
 40
0.3125
 40
0.3203125
 40
0.328125
 40
0.34375
 40
0.359375
 40
0.3671875
 40
0.375
 40
0.3828125
 40
0.390625
 40
0.40625
 40
0.421875
 40
0.4375
 40
0.453125
 40
0.46875
 40
0.5
 40
0.53125
 40
0.546875
 40
0.5625
 40
0.578125
 40
0.59375
 40
0.609375
 40
0.6171875
 40
0.625
 40
0.6328125
 40
0.640625
 40
0.65625
 40
0.671875
 40
0.6796875
 40
0.6875
 40
0.6953125
 40
0.703125
 40
0.71875
 40
0.734375
 40
0.7421875
 40
0.74609375
 40
0.75
 40
0.75390625
 40
0.7578125
 40
0.765625
 40
0.78125
 40
0.796875
 40
0.8046875
 40
0.80859375
 40
0.8125
 40
0.81640625
 40
0.8203125
 40
0.828125
 40
0.84375
 40
0.859375
 40
0.8671875
 40
0.87109375
 40
0.875
 40
0.87890625
 40
0.8828125
 40
0.890625
 40
0.90625
 40
0.921875
 40
0.9296875
 40
0.93359375
 40
0.9375
 40
0.94140625
 40
0.9453125
 40
0.953125
 40
0.96875
 40
0.984375
 40
1.0
 40
1.0
 40
1.0
 40
1.0
 10
11.0452696104
 20
1.9996264008
 30
0.0
 10
11.0447047398
 20
1.996452853
 30
0.0
 10
11.0435750472
 20
1.9900917023
 30
0.0
 10
11.0418802168
 20
1.980634306
 30
0.0
 10
11.0404687082
 20
1.9725071809
 30
0.0
 10
11.0394789946
 20
1.9672978183
 30
0.0
 10
11.0389160304
 20
1.9635726139
 30
0.0
 10
11.0384865217
 20
1.9628869522
 30
0.0
 10
11.038084862
 20
1.954142537
 30
0.0
 10
11.0375395963
 20
1.9452950493
 30
0.0
 10
11.0365899631
 20
1.9284943915
 30
0.0
 10
11.0352305201
 20
1.9052427765
 30
0.0
 10
11.0338736468
 20
1.8815034896
 30
0.0
 10
11.0329204161
 20
1.8653855725
 30
0.0
 10
11.0323808037
 20
1.8554652065
 30
0.0
 10
11.0319617987
 20
1.8500125767
 30
0.0
 10
11.0315974308
 20
1.836964432
 30
0.0
 10
11.0310925421
 20
1.8222170329
 30
0.0
 10
11.0302179383
 20
1.7951670507
 30
0.0
 10
11.0289632708
 20
1.7572322466
 30
0.0
 10
11.027712487
 20
1.7188311103
 30
0.0
 10
11.026832446
 20
1.6924339932
 30
0.0
 10
11.0263361014
 20
1.6766606631
 30
0.0
 10
11.0259455187
 20
1.6667602615
 30
0.0
 10
11.0256249648
 20
1.6494861071
 30
0.0
 10
11.025173163
 20
1.6290245085
 30
0.0
 10
11.0243935735
 20
1.5920334702
 30
0.0
 10
11.0232765301
 20
1.5396914153
 30
0.0
 10
11.0221517894
 20
1.4875940104
 30
0.0
 10
11.0212731455
 20
1.444927098
 30
0.0
 10
11.020555335
 20
1.4157470892
 30
0.0
 10
11.0200622605
 20
1.3757808725
 30
0.0
 10
11.0193259521
 20
1.3262747183
 30
0.0
 10
11.0184352946
 20
1.2629915344
 30
0.0
 10
11.0175243198
 20
1.2005826468
 30
0.0
 10
11.016820519
 20
1.1496776185
 30
0.0
 10
11.0162299217
 20
1.113908024
 30
0.0
 10
11.0158778214
 20
1.068990682
 30
0.0
 10
11.0153246314
 20
1.0123063056
 30
0.0
 10
11.0146648239
 20
0.9402796064
 30
0.0
 10
11.0139829502
 20
0.868931056
 30
0.0
 10
11.0134650659
 20
0.8111616415
 30
0.0
 10
11.0130070487
 20
0.769499414
 30
0.0
 10
11.0128136398
 20
0.72152314
 30
0.0
 10
11.0124645132
 20
0.6597400013
 30
0.0
 10
11.0120509453
 20
0.581906994
 30
0.0
 10
11.0115819023
 20
0.4881291484
 30
0.0
 10
11.0109673608
 20
0.3968307845
 30
0.0
 10
11.0109075749
 20
0.2959927306
 30
0.0
 10
11.0106688173
 20
0.1650451643
 30
0.0
 10
11.0101763039
 20
-0.0010638609
 30
0.0
 10
11.0106588599
 20
-0.1618535817
 30
0.0
 10
11.0108896936
 20
-0.2910449858
 30
0.0
 10
11.0109434105
 20
-0.389451239
 30
0.0
 10
11.0115523664
 20
-0.4815268782
 30
0.0
 10
11.012015699
 20
-0.5752214407
 30
0.0
 10
11.0124245213
 20
-0.6531793438
 30
0.0
 10
11.0127698825
 20
-0.7150263621
 30
0.0
 10
11.0129603661
 20
-0.7630420776
 30
0.0
 10
11.0134158472
 20
-0.8047956383
 30
0.0
 10
11.0139301852
 20
-0.862666994
 30
0.0
 10
11.0146078902
 20
-0.9341620149
 30
0.0
 10
11.0152626781
 20
-1.0062838039
 30
0.0
 10
11.0158136833
 20
-1.0631523306
 30
0.0
 10
11.0161591628
 20
-1.1079143783
 30
0.0
 10
11.0167621525
 20
-1.1446482673
 30
0.0
 10
11.0174762782
 20
-1.1964244985
 30
0.0
 10
11.018399114
 20
-1.2602323402
 30
0.0
 10
11.0193135605
 20
-1.3241928302
 30
0.0
 10
11.0199501655
 20
-1.3692833249
 30
0.0
 10
11.0203224695
 20
-1.3944581246
 30
0.0
 10
11.0205771104
 20
-1.4150219156
 30
0.0
 10
11.020925835
 20
-1.4291505402
 30
0.0
 10
11.0213579757
 20
-1.4502340355
 30
0.0
 10
11.0221295951
 20
-1.4860772777
 30
0.0
 10
11.023223234
 20
-1.5378865652
 30
0.0
 10
11.0243222886
 20
-1.589282705
 30
0.0
 10
11.025086326
 20
-1.6257043539
 30
0.0
 10
11.0255303813
 20
-1.6458789244
 30
0.0
 10
11.0258425498
 20
-1.6627962955
 30
0.0
 10
11.0262344789
 20
-1.6728867942
 30
0.0
 10
11.0267292241
 20
-1.6887228267
 30
0.0
 10
11.0276080484
 20
-1.7153185765
 30
0.0
 10
11.0288562613
 20
-1.7539567942
 30
0.0
 10
11.0301086754
 20
-1.7921460585
 30
0.0
 10
11.0309816179
 20
-1.8193703431
 30
0.0
 10
11.0314856059
 20
-1.8342186783
 30
0.0
 10
11.0318491765
 20
-1.8473396119
 30
0.0
 10
11.0322678469
 20
-1.8528760159
 30
0.0
 10
11.0328068506
 20
-1.8629042483
 30
0.0
 10
11.033759105
 20
-1.8792127243
 30
0.0
 10
11.0351144315
 20
-1.9032232449
 30
0.0
 10
11.0364727667
 20
-1.9267466519
 30
0.0
 10
11.037420809
 20
-1.943737087
 30
0.0
 10
11.0379664318
 20
-1.9526936693
 30
0.0
 10
11.0383647935
 20
-1.9615180908
 30
0.0
 10
11.0388046344
 20
-1.9622906919
 30
0.0
 10
11.0393766206
 20
-1.9661293972
 30
0.0
 10
11.0403843377
 20
-1.9715385132
 30
0.0
 10
11.0418204069
 20
-1.9799504108
 30
0.0
 10
11.0435452091
 20
-1.9897497879
 30
0.0
 10
11.0446947879
 20
-1.9963388775
 30
0.0
 10
11.0452696135
 20
-1.9996264008
 30
0.0
 11
11.0452696104
 21
1.9996264008
 31
0.0
 11
11.0435749986
 21
1.9901057573
 31
0.0
 11
11.0418803868
 21
1.9805851137
 31
0.0
 11
11.040185775
 21
1.9710644702
 31
0.0
 11
11.0393384691
 21
1.9663041484
 31
0.0
 11
11.0389148161
 21
1.9639239875
 31
0.0
 11
11.0384911632
 21
1.9615438267
 31
0.0
 11
11.0380836471
 21
1.9544940036
 31
0.0
 11
11.0376761309
 21
1.9474441805
 31
0.0
 11
11.0368610986
 21
1.9333445344
 31
0.0
 11
11.0352310341
 21
1.9051452421
 31
0.0
 11
11.0336009695
 21
1.8769459499
 31
0.0
 11
11.0327859372
 21
1.8628463037
 31
0.0
 11
11.0323784211
 21
1.8557964807
 31
0.0
 11
11.0319709049
 21
1.8487466576
 31
0.0
 11
11.0315950477
 21
1.8372956979
 31
0.0
 11
11.0312191906
 21
1.8258447382
 31
0.0
 11
11.0304674762
 21
1.8029428189
 31
0.0
 11
11.0289640475
 21
1.7571389802
 31
0.0
 11
11.0274606189
 21
1.7113351414
 31
0.0
 11
11.0267089045
 21
1.6884332221
 31
0.0
 11
11.0263330474
 21
1.6769822624
 31
0.0
 11
11.0259571902
 21
1.6655313027
 31
0.0
 11
11.0256219152
 21
1.649807433
 31
0.0
 11
11.0252866403
 21
1.6340835634
 31
0.0
 11
11.0246160904
 21
1.602635824
 31
0.0
 11
11.0232749906
 21
1.5397403453
 31
0.0
 11
11.0219338908
 21
1.4768448666
 31
0.0
 11
11.0212633409
 21
1.4453971272
 31
0.0
 11
11.020592791
 21
1.4139493879
 31
0.0
 11
11.0200524011
 21
1.3762536393
 31
0.0
 11
11.0195120111
 21
1.3385578907
 31
0.0
 11
11.0184312311
 21
1.2631663936
 31
0.0
 11
11.0173504512
 21
1.1877748965
 31
0.0
 11
11.0168100612
 21
1.150079148
 31
0.0
 11
11.0162696712
 21
1.1123833994
 31
0.0
 11
11.0158673561
 21
1.0693913586
 31
0.0
 11
11.0154650409
 21
1.0263993178
 31
0.0
 11
11.0146604106
 21
0.9404152362
 31
0.0
 11
11.0138557804
 21
0.8544311545
 31
0.0
 11
11.0134534652
 21
0.8114391137
 31
0.0
 11
11.0130511501
 21
0.7684470729
 31
0.0
 11
11.0128022338
 21
0.7217962933
 31
0.0
 11
11.0125533176
 21
0.6751455137
 31
0.0
 11
11.0120554851
 21
0.5818439545
 31
0.0
 11
11.0115576526
 21
0.4885423953
 31
0.0
 11
11.0110598201
 21
0.3952408361
 31
0.0
 11
11.0108876945
 21
0.2964306271
 31
0.0
 11
11.0107155689
 21
0.1976204181
 31
0.0
 11
11.0103713178
 21
0.0
 31
0.0
 11
11.010703634
 21
-0.1941980683
 31
0.0
 11
11.0108697922
 21
-0.2912971025
 31
0.0
 11
11.0110359503
 21
-0.3883961366
 31
0.0
 11
11.0115280958
 21
-0.4817966988
 31
0.0
 11
11.0120202413
 21
-0.5751972609
 31
0.0
 11
11.0125123869
 21
-0.668597823
 31
0.0
 11
11.0127584596
 21
-0.7152981041
 31
0.0
 11
11.0130045324
 21
-0.7619983851
 31
0.0
 11
11.013404226
 21
-0.805070631
 31
0.0
 11
11.0138039196
 21
-0.8481428768
 31
0.0
 11
11.0146033068
 21
-0.9342873685
 31
0.0
 11
11.015402694
 21
-1.0204318602
 31
0.0
 11
11.0158023876
 21
-1.063504106
 31
0.0
 11
11.0162020812
 21
-1.1065763519
 31
0.0
 11
11.0167509199
 21
-1.1449979814
 31
0.0
 11
11.0172997587
 21
-1.1834196109
 31
0.0
 11
11.0183974361
 21
-1.2602628699
 31
0.0
 11
11.0194951136
 21
-1.3371061289
 31
0.0
 11
11.0200439523
 21
-1.3755277584
 31
0.0
 11
11.0203183717
 21
-1.3947385731
 31
0.0
 11
11.020592791
 21
-1.4139493879
 31
0.0
 11
11.0209217318
 21
-1.4294312063
 31
0.0
 11
11.0212506726
 21
-1.4449130248
 31
0.0
 11
11.0219085541
 21
-1.4758766618
 31
0.0
 11
11.0232243171
 21
-1.5378039356
 31
0.0
 11
11.0245400802
 21
-1.5997312095
 31
0.0
 11
11.0251979617
 21
-1.6306948465
 31
0.0
 11
11.0255269025
 21
-1.646176665
 31
0.0
 11
11.0258558432
 21
-1.6616584834
 31
0.0
 11
11.0262310005
 21
-1.6731845484
 31
0.0
 11
11.0266061578
 21
-1.6847106135
 31
0.0
 11
11.0273564724
 21
-1.7077627435
 31
0.0
 11
11.0288571015
 21
-1.7538670035
 31
0.0
 11
11.0303577306
 21
-1.7999712636
 31
0.0
 11
11.0311080452
 21
-1.8230233936
 31
0.0
 11
11.0314832025
 21
-1.8345494586
 31
0.0
 11
11.0318583598
 21
-1.8460755236
 31
0.0
 11
11.032265444
 21
-1.853206811
 31
0.0
 11
11.0326725282
 21
-1.8603380983
 31
0.0
 11
11.0334866965
 21
-1.8746006729
 31
0.0
 11
11.0351150333
 21
-1.9031258222
 31
0.0
 11
11.03674337
 21
-1.9316509715
 31
0.0
 11
11.0375575384
 21
-1.9459135461
 31
0.0
 11
11.0379646225
 21
-1.9530448334
 31
0.0
 11
11.0383717067
 21
-1.9601761207
 31
0.0
 11
11.0388028259
 21
-1.9626417632
 31
0.0
 11
11.0392339451
 21
-1.9651074057
 31
0.0
 11
11.0400961834
 21
-1.9700386908
 31
0.0
 11
11.0418206601
 21
-1.9799012608
 31
0.0
 11
11.0435451368
 21
-1.9897638308
 31
0.0
 11
11.0452696135
 21
-1.9996264008
 31
0.0
  0
SPLINE
  5
5F6
100
AcDbEntity
  8
CURVE
100
AcDbSpline
 62
253
  6
CONTINUOUS
 70
0
 71
3
 72
9
 73
5
 74
3
 42
0.0000001
 43
0.0000001
 44
0.0000000001
 12
0.0007786992
 22
0.384369739
 32
0.0
 13
0.0067523961
 23
0.0060522808
 33
0.0
 40
0.0
 40
0.0
 40
0.0
 40
0.0
 40
0.5000882298
 40
1.0
 40
1.0
 40
1.0
 40
1.0
 10
11.0234699199
 20
-9.7872226144
 30
0.0
 10
11.023599726
 20
-9.7231496869
 30
0.0
 10
11.0245837952
 20
-9.5932431364
 30
0.0
 10
11.0269251333
 20
-9.5406354993
 30
0.0
 10
11.0280503341
 20
-9.5396269638
 30
0.0
 11
11.0234699199
 21
-9.7872226144
 31
0.0
 11
11.0249234058
 21
-9.6125517622
 31
0.0
 11
11.0280503341
 21
-9.5396269638
 31
0.0
  0
SPLINE
  5
5F7
100
AcDbEntity
  8
CURVE
100
AcDbSpline
 62
253
  6
CONTINUOUS
 70
0
 71
3
 72
11
 73
7
 74
5
 42
0.0000001
 43
0.0000001
 44
0.0000000001
 12
0.0092956509
 22
0.008219874
 32
0.0
 13
0.0002075665
 23
-0.5325592443
 33
0.0
 40
0.0
 40
0.0
 40
0.0
 40
0.0
 40
0.2532883062
 40
0.5029209566
 40
0.7480829005
 40
1.0
 40
1.0
 40
1.0
 40
1.0
 10
11.0280503341
 20
-9.5396269638
 30
0.0
 10
11.0288351606
 20
-9.5389329645
 30
0.0
 10
11.0304004753
 20
-9.5536024712
 30
0.0
 10
11.0325027346
 20
-9.6224320885
 30
0.0
 10
11.0335658759
 20
-9.7469668671
 30
0.0
 10
11.0337269607
 20
-9.8353900892
 30
0.0
 10
11.0337443905
 20
-9.8801103492
 30
0.0
 11
11.0280503341
 21
-9.5396269638
 31
0.0
 11
11.0303732967
 21
-9.5617251908
 31
0.0
 11
11.0323406853
 21
-9.6322602174
 31
0.0
 11
11.0334232876
 21
-9.7471833891
 31
0.0
 11
11.0337443905
 21
-9.8801103492
 31
0.0
  0
SPLINE
  5
5F8
100
AcDbEntity
  8
CURVE
100
AcDbSpline
 62
253
  6
CONTINUOUS
 70
0
 71
3
 72
17
 73
13
 74
11
 42
0.0000001
 43
0.0000001
 44
0.0000000001
 12
-0.0029203146
 22
1.2970065553
 32
0.0
 13
-0.0077440354
 23
-1.2301769108
 33
0.0
 40
0.0
 40
0.0
 40
0.0
 40
0.0
 40
0.0626341368
 40
0.1256123062
 40
0.1874334728
 40
0.25012897
 40
0.3755999783
 40
0.5004417704
 40
0.6252962742
 40
0.7502511716
 40
0.8752241398
 40
1.0
 40
1.0
 40
1.0
 40
1.0
 10
11.0367643864
 20
-9.4257335944
 30
0.0
 10
11.036703416
 20
-9.3986546324
 30
0.0
 10
11.036033814
 20
-9.353533105
 30
0.0
 10
11.0351235014
 20
-9.292885576
 30
0.0
 10
11.0340368578
 20
-9.2386179657
 30
0.0
 10
11.0324139743
 20
-9.1813900148
 30
0.0
 10
11.0301360385
 20
-9.1352094458
 30
0.0
 10
11.0272644049
 20
-9.1229982653
 30
0.0
 10
11.0244171935
 20
-9.1471129031
 30
0.0
 10
11.0217812988
 20
-9.2160227605
 30
0.0
 10
11.0196312553
 20
-9.325879581
 30
0.0
 10
11.0185793499
 20
-9.419760166
 30
0.0
 10
11.0182572603
 20
-9.4709256268
 30
0.0
 11
11.0367643864
 21
-9.4257335944
 31
0.0
 11
11.036050451
 21
-9.3547699048
 31
0.0
 11
11.035088044
 21
-9.29359599
 31
0.0
 11
11.0340205543
 21
-9.2407283593
 31
0.0
 11
11.0328050907
 21
-9.1974608853
 31
0.0
 11
11.0301077664
 21
-9.1423486528
 31
0.0
 11
11.0272679128
 21
-9.1290478421
 31
0.0
 11
11.0244533072
 21
-9.1545635469
 31
0.0
 11
11.0218623378
 21
-9.2228487806
 31
0.0
 11
11.019725562
 21
-9.3311101339
 31
0.0
 11
11.0182572603
 21
-9.4709256268
 31
0.0
  0
SPLINE
  5
5F9
100
AcDbEntity
  8
CURVE
100
AcDbSpline
 62
253
  6
CONTINUOUS
 70
0
 71
3
 72
9
 73
5
 74
3
 42
0.0000001
 43
0.0000001
 44
0.0000000001
 12
-0.0083320231
 22
-0.1300817629
 32
0.0
 13
-0.0031981799
 23
-0.4596349318
 33
0.0
 40
0.0
 40
0.0
 40
0.0
 40
0.0
 40
0.506910518
 40
1.0
 40
1.0
 40
1.0
 40
1.0
 10
11.0441675117
 20
-9.1730833646
 30
0.0
 10
11.0427596483
 20
-9.1950633025
 30
0.0
 10
11.0400072475
 20
-9.2365158663
 30
0.0
 10
11.0375065681
 20
-9.3501865442
 30
0.0
 10
11.0369809051
 20
-9.4257335944
 30
0.0
 11
11.0441675117
 21
-9.1730833646
 31
0.0
 11
11.0400338884
 21
-9.2556458256
 31
0.0
 11
11.0369809051
 21
-9.4257335944
 31
0.0
  0
LINE
  5
5FA
100
AcDbEntity
  8
CURVE
100
AcDbLine
 62
253
  6
CONTINUOUS
 10
11.0540847814
 20
-9.0232410719
 11
11.0441675117
 21
-9.1730833646
  0
SPLINE
  5
5FB
100
AcDbEntity
  8
CURVE
100
AcDbSpline
 62
253
  6
CONTINUOUS
 70
0
 71
3
 72
9
 73
5
 74
3
 42
0.0000001
 43
0.0000001
 44
0.0000000001
 12
0.0108625204
 22
0.2338657467
 32
0.0
 13
0.0111521206
 23
0.183743593
 33
0.0
 40
0.0
 40
0.0
 40
0.0
 40
0.0
 40
0.499968398
 40
1.0
 40
1.0
 40
1.0
 40
1.0
 10
11.0429739112
 20
-9.6365142722
 30
0.0
 10
11.0447842169
 20
-9.5975391113
 30
0.0
 10
11.0485209582
 20
-9.538693444
 30
0.0
 10
11.0522259772
 20
-9.4754755343
 30
0.0
 10
11.0540847814
 20
-9.4448496666
 30
0.0
 11
11.0429739112
 21
-9.6365142722
 31
0.0
 11
11.0485127924
 21
-9.5376042409
 31
0.0
 11
11.0540847814
 21
-9.4448496666
 31
0.0
  0
SPLINE
  5
5FC
100
AcDbEntity
  8
CURVE
100
AcDbSpline
 62
253
  6
CONTINUOUS
 70
0
 71
3
 72
11
 73
7
 74
5
 42
0.0000001
 43
0.0000001
 44
0.0000000001
 12
0.0
 22
0.3263051424
 32
0.0
 13
0.0053316117
 23
0.1146657896
 33
0.0
 40
0.0
 40
0.0
 40
0.0
 40
0.0
 40
0.2477795725
 40
0.4960551195
 40
0.7486644071
 40
1.0
 40
1.0
 40
1.0
 40
1.0
 10
11.039745365
 20
-9.8810551304
 30
0.0
 10
11.039745365
 20
-9.8541045475
 30
0.0
 10
11.0398829956
 20
-9.7995568629
 30
0.0
 10
11.040587142
 20
-9.7267692852
 30
0.0
 10
11.0416699117
 20
-9.6716936142
 30
0.0
 10
11.0425272367
 20
-9.6461208036
 30
0.0
 10
11.0429739112
 20
-9.6365142722
 30
0.0
 11
11.039745365
 21
-9.8810551304
 31
0.0
 11
11.0399649255
 21
-9.801188144
 31
0.0
 11
11.0406444618
 21
-9.7301448653
 31
0.0
 11
11.0417048948
 21
-9.6744458757
 31
0.0
 11
11.0429739112
 21
-9.6365142722
 31
0.0
  0
SPLINE
  5
5FD
100
AcDbEntity
  8
CURVE
100
AcDbSpline
 62
253
  6
CONTINUOUS
 70
0
 71
3
 72
10
 73
6
 74
4
 42
0.0000001
 43
0.0000001
 44
0.0000000001
 12
-0.0064659687
 22
-1.0256612669
 32
0.0
 13
0.0027697432
 23
-1.0789154143
 33
0.0
 40
0.0
 40
0.0
 40
0.0
 40
0.0
 40
0.2496855723
 40
0.5000317551
 40
1.0
 40
1.0
 40
1.0
 40
1.0
 10
11.0182572603
 20
-9.4709256268
 30
0.0
 10
11.0177191073
 20
-9.5562899002
 30
0.0
 10
11.0171191853
 20
-9.7368067433
 30
0.0
 10
11.0168753159
 20
-10.1004106408
 30
0.0
 10
11.0174098888
 20
-10.3728135132
 30
0.0
 10
11.0178714834
 20
-10.5526213286
 30
0.0
 11
11.0182572603
 21
-9.4709256268
 31
0.0
 11
11.0172391572
 21
-9.7368915628
 31
0.0
 11
11.017016073
 21
-10.0096009552
 31
0.0
 11
11.0178714834
 21
-10.5526213286
 31
0.0
  0
SPLINE
  5
5FE
100
AcDbEntity
  8
CURVE
100
AcDbSpline
 62
253
  6
CONTINUOUS
 70
0
 71
3
 72
10
 73
6
 74
4
 42
0.0000001
 43
0.0000001
 44
0.0000000001
 12
-0.0089784018
 22
-0.4904943781
 32
0.0
 13
0.0
 23
-0.7108620398
 33
0.0
 40
0.0
 40
0.0
 40
0.0
 40
0.0
 40
0.3333333333
 40
0.6666666667
 40
1.0
 40
1.0
 40
1.0
 40
1.0
 10
11.0849337435
 20
1.11345
 30
0.0
 10
11.0839361433
 20
1.0589506247
 30
0.0
 10
11.0821894315
 20
0.933788099
 30
0.0
 10
11.0805434985
 20
0.713553781
 30
0.0
 10
11.0801678881
 20
0.5547386711
 30
0.0
 10
11.0801678881
 20
0.475754
 30
0.0
 11
11.0849337435
 21
1.11345
 31
0.0
 11
11.0823517873
 21
0.9283730108
 31
0.0
 11
11.080723918
 21
0.7105557232
 31
0.0
 11
11.0801678881
 21
0.475754
 31
0.0
  0
SPLINE
  5
5FF
100
AcDbEntity
  8
RACCORDO
100
AcDbSpline
 62
253
  6
CONTINUOUS
 70
0
 71
3
 72
23
 73
19
 74
17
 42
0.0000001
 43
0.0000001
 44
0.0000000001
 12
24.9600030244
 22
-0.0003351633
 32
0.0
 13
-24.9600030244
 23
-0.0003369108
 33
0.0
 40
0.0
 40
0.0
 40
0.0
 40
0.0
 40
0.0624689599
 40
0.1249529395
 40
0.1874489985
 40
0.2499543178
 40
0.3124650954
 40
0.3749765795
 40
0.4374881328
 40
0.5000010114
 40
0.5625138816
 40
0.6250254276
 40
0.6875369259
 40
0.7500476507
 40
0.8125526982
 40
0.8750482973
 40
0.9375317285
 40
1.0
 40
1.0
 40
1.0
 40
1.0
 10
0.0
 20
7.96361743
 30
0.0
 10
0.5197418096
 20
7.9636104509
 30
0.0
 10
1.5622401749
 20
7.8608833498
 30
0.0
 10
3.0635920107
 20
7.4044719604
 30
0.0
 10
4.4477207093
 20
6.6633142697
 30
0.0
 10
5.660503025
 20
5.6660676253
 30
0.0
 10
6.6555137132
 20
4.4512590097
 30
0.0
 10
7.3945863469
 20
3.0657379396
 30
0.0
 10
7.8495662166
 20
1.5627713595
 30
0.0
 10
8.0031656004
 20
-0.0000265072
 30
0.0
 10
7.849555123
 20
-1.5628232376
 30
0.0
 10
7.3945650117
 20
-3.0657865619
 30
0.0
 10
6.6554859505
 20
-4.4513035683
 30
0.0
 10
5.6604714184
 20
-5.6661058403
 30
0.0
 10
4.4476873747
 20
-6.663340443
 30
0.0
 10
3.0635633085
 20
-7.4044832472
 30
0.0
 10
1.5622243402
 20
-7.8608875944
 30
0.0
 10
0.5197360817
 20
-7.9636104146
 30
0.0
 10
0.0
 20
-7.96361743
 30
0.0
 11
0.0
 21
7.96361743
 31
0.0
 11
1.551691935
 21
7.8105289683
 31
0.0
 11
3.0439149207
 21
7.3570714511
 31
0.0
 11
4.4190674142
 21
6.6206956571
 31
0.0
 11
5.624159659
 21
5.6298538274
 31
0.0
 11
6.6128486881
 21
4.4228186262
 31
0.0
 11
7.3472362955
 21
3.046166951
 31
0.0
 11
7.7993336001
 21
1.5528121967
 31
0.0
 11
7.9519635952
 21
-0.0000263978
 31
0.0
 11
7.7993226567
 21
-1.5528637069
 31
0.0
 11
7.3472156329
 21
-3.0462153248
 31
0.0
 11
6.6128208143
 21
-4.4228635575
 31
0.0
 11
5.624126639
 21
-5.6298928381
 31
0.0
 11
4.419033275
 21
-6.620722625
 31
0.0
 11
3.0438863771
 21
-7.3570845555
 31
0.0
 11
1.5516751257
 21
-7.8105336084
 31
0.0
 11
0.0
 21
-7.96361743
 31
0.0
  0
SPLINE
  5
600
100
AcDbEntity
  8
0
100
AcDbSpline
 62
253
  6
CONTINUOUS
 70
0
 71
3
 72
14
 73
10
 74
8
 42
0.0000001
 43
0.0000001
 44
0.0000000001
 12
0.1517258693
 22
0.4537838275
 32
0.0
 13
0.0003487265
 23
0.4784771467
 33
0.0
 40
0.0
 40
0.0
 40
0.0
 40
0.0
 40
0.0279489945
 40
0.0903020824
 40
0.1849704779
 40
0.3087867769
 40
0.4575835628
 40
0.6262440365
 40
1.0
 40
1.0
 40
1.0
 40
1.0
 10
-11.0087219643
 20
-21.4755923698
 30
0.0
 10
-11.0073084358
 20
-21.4713647693
 30
0.0
 10
-11.0071595589
 20
-21.4566786104
 30
0.0
 10
-11.0050308176
 20
-21.4274624735
 30
0.0
 10
-11.0041325648
 20
-21.3825600994
 30
0.0
 10
-11.0027990086
 20
-21.3240444451
 30
0.0
 10
-11.0018737249
 20
-21.2536529586
 30
0.0
 10
-11.0008141179
 20
-21.1434219171
 30
0.0
 10
-11.0005023563
 20
-21.0569071457
 30
0.0
 10
-11.0004589101
 20
-20.9972959167
 30
0.0
 11
-11.0087219643
 21
-21.4755923698
 31
0.0
 11
-11.0071309876
 21
-21.4623143874
 31
0.0
 11
-11.0056084801
 21
-21.4325187253
 31
0.0
 11
-11.0042080566
 21
-21.3872437029
 31
0.0
 11
-11.0029759768
 21
-21.3280132309
 31
0.0
 11
-11.0019547029
 21
-21.2568246756
 31
0.0
 11
-11.0011787742
 21
-21.1761282023
 31
0.0
 11
-11.0004589101
 21
-20.9972959167
 31
0.0
  0
SPLINE
  5
601
100
AcDbEntity
  8
0
100
AcDbSpline
 62
253
  6
CONTINUOUS
 70
0
 71
3
 72
14
 73
10
 74
8
 42
0.0000001
 43
0.0000001
 44
0.0000000001
 12
0.1577714344
 22
0.9435843475
 32
0.0
 13
0.0003449125
 23
0.9566833998
 33
0.0
 40
0.0
 40
0.0
 40
0.0
 40
0.0
 40
0.0278137553
 40
0.0901152416
 40
0.1847795152
 40
0.308624413
 40
0.4574527876
 40
0.6261543105
 40
1.0
 40
1.0
 40
1.0
 40
1.0
 10
-10.5087981167
 20
-21.9749071372
 30
0.0
 10
-10.507335378
 20
-21.9661589292
 30
0.0
 10
-10.5072850147
 20
-21.9372666372
 30
0.0
 10
-10.505078712
 20
-21.8784949031
 30
0.0
 10
-10.5042203529
 20
-21.7888849963
 30
0.0
 10
-10.5028711608
 20
-21.6717767725
 30
0.0
 10
-10.5019518371
 20
-21.5310181507
 30
0.0
 10
-10.5008896309
 20
-21.3105487317
 30
0.0
 10
-10.5005780439
 20
-21.1375315526
 30
0.0
 10
-10.5005350625
 20
-21.0183142309
 30
0.0
 11
-10.5087981167
 21
-21.9749071372
 31
0.0
 11
-10.5072065849
 21
-21.9483458164
 31
0.0
 11
-10.5056848018
 21
-21.8887624451
 31
0.0
 11
-10.5042842797
 21
-21.7982095299
 31
0.0
 11
-10.5030523599
 21
-21.6797355691
 31
0.0
 11
-10.5020313521
 21
-21.5373575853
 31
0.0
 11
-10.501255274
 21
-21.3759654942
 31
0.0
 11
-10.5005350625
 21
-21.0183142309
 31
0.0
  0
SPLINE
  5
602
100
AcDbEntity
  8
0
100
AcDbSpline
 62
253
  6
CONTINUOUS
 70
0
 71
3
 72
9
 73
5
 74
3
 42
0.0000001
 43
0.0000001
 44
0.0000000001
 12
0.0308407987
 22
41.9945826303
 32
0.0
 13
-0.0308408108
 23
41.9945826303
 33
0.0
 40
0.0
 40
0.0
 40
0.0
 40
0.0
 40
0.2499439267
 40
1.0
 40
1.0
 40
1.0
 40
1.0
 10
-11.0004589101
 20
-20.9972959167
 30
0.0
 10
-10.99788942
 20
-17.4985322889
 30
0.0
 10
-10.9901837953
 20
-3.5003363072
 30
0.0
 10
-10.992748131
 20
10.4978653344
 30
0.0
 10
-11.0004589101
 20
20.9972959167
 30
0.0
 11
-11.0004589101
 21
-20.9972959167
 31
0.0
 11
-10.9946790564
 21
-10.5010037942
 31
0.0
 11
-11.0004589101
 21
20.9972959167
 31
0.0
  0
SPLINE
  5
603
100
AcDbEntity
  8
0
100
AcDbSpline
 62
253
  6
CONTINUOUS
 70
0
 71
3
 72
9
 73
5
 74
3
 42
0.0000001
 43
0.0000001
 44
0.0000000001
 12
0.0308407988
 22
42.036619268
 32
0.0
 13
-0.030840811
 23
42.0366192679
 33
0.0
 40
0.0
 40
0.0
 40
0.0
 40
0.0
 40
0.2499439267
 40
1.0
 40
1.0
 40
1.0
 40
1.0
 10
-10.5005350625
 20
-21.0183142309
 30
0.0
 10
-10.4979655724
 20
-17.516048336
 30
0.0
 10
-10.4902599477
 20
-3.5038401435
 30
0.0
 10
-10.4928242833
 20
10.5083737032
 30
0.0
 10
-10.5005350625
 20
21.0183142309
 30
0.0
 11
-10.5005350625
 21
-21.0183142309
 31
0.0
 11
-10.4947552088
 21
-10.5115153081
 31
0.0
 11
-10.5005350625
 21
21.0183142309
 31
0.0
  0
SPLINE
  5
604
100
AcDbEntity
  8
0
100
AcDbSpline
 62
253
  6
CONTINUOUS
 70
0
 71
3
 72
17
 73
13
 74
11
 42
0.0000001
 43
0.0000001
 44
0.0000000001
 12
0.1920599715
 22
-0.4630828737
 32
0.0
 13
0.5013308743
 23
-0.0003675235
 33
0.0
 40
0.0
 40
0.0
 40
0.0
 40
0.0
 40
0.0075737849
 40
0.0237998536
 40
0.0489907757
 40
0.0830627773
 40
0.1765139965
 40
0.3008232802
 40
0.4512641214
 40
0.6222916217
 40
0.8077168426
 40
1.0
 40
1.0
 40
1.0
 40
1.0
 10
-11.0004589101
 20
-20.9972959167
 30
0.0
 10
-10.9999740365
 20
-20.9984650134
 30
0.0
 10
-10.9955742469
 20
-20.9999076502
 30
0.0
 10
-10.9881127318
 20
-21.0017800673
 30
0.0
 10
-10.9753585456
 20
-21.0036116899
 30
0.0
 10
-10.9501405369
 20
-21.0063995345
 30
0.0
 10
-10.9080419821
 20
-21.0093678176
 30
0.0
 10
-10.8466347358
 20
-21.012389693
 30
0.0
 10
-10.7721620111
 20
-21.0148936029
 30
0.0
 10
-10.6874808343
 20
-21.0167926918
 30
0.0
 10
-10.5957861825
 20
-21.0179886832
 30
0.0
 10
-10.532667557
 20
-21.018290674
 30
0.0
 10
-10.5005350625
 20
-21.0183142302
 30
0.0
 11
-11.0004589101
 21
-20.9972959167
 31
0.0
 11
-10.9972522422
 21
-20.9993292112
 31
0.0
 11
-10.9893722777
 21
-21.0013487129
 31
0.0
 11
-10.9768999689
 21
-21.0033318698
 31
0.0
 11
-10.9599274108
 21
-21.0052566619
 31
0.0
 11
-10.9132162348
 21
-21.0088605442
 31
0.0
 11
-10.8509767609
 21
-21.0120295483
 31
0.0
 11
-10.77560151
 21
-21.0146462845
 31
0.0
 11
-10.6898826147
 21
-21.0166101641
 31
0.0
 11
-10.5969314449
 21
-21.0178481152
 31
0.0
 11
-10.5005350625
 21
-21.0183142302
 31
0.0
  0
SPLINE
  5
605
100
AcDbEntity
  8
0
100
AcDbSpline
 62
253
  6
CONTINUOUS
 70
0
 71
3
 72
14
 73
10
 74
8
 42
0.0000001
 43
0.0000001
 44
0.0000000001
 12
-0.0003487263
 22
0.4784771467
 32
0.0
 13
-0.1517257143
 23
0.4537838793
 33
0.0
 40
0.0
 40
0.0
 40
0.0
 40
0.0
 40
0.3737559635
 40
0.5424164375
 40
0.6912132232
 40
0.8150295214
 40
0.9096979184
 40
0.9720510048
 40
1.0
 40
1.0
 40
1.0
 40
1.0
 10
-11.0004589101
 20
20.9972959167
 30
0.0
 10
-11.0005023563
 20
21.0569071457
 30
0.0
 10
-11.000814118
 20
21.1434219171
 30
0.0
 10
-11.0018737248
 20
21.2536529587
 30
0.0
 10
-11.0027990087
 20
21.324044445
 30
0.0
 10
-11.0041325645
 20
21.3825600995
 30
0.0
 10
-11.0050308184
 20
21.4274624731
 30
0.0
 10
-11.0071595574
 20
21.4566786109
 30
0.0
 10
-11.0073084372
 20
21.4713647687
 30
0.0
 10
-11.0087219643
 20
21.4755923698
 30
0.0
 11
-11.0004589101
 21
20.9972959167
 31
0.0
 11
-11.0011787742
 21
21.1761282023
 31
0.0
 11
-11.0019547029
 21
21.2568246758
 31
0.0
 11
-11.0029759768
 21
21.3280132309
 31
0.0
 11
-11.0042080566
 21
21.3872437026
 31
0.0
 11
-11.0056084801
 21
21.4325187257
 31
0.0
 11
-11.0071309876
 21
21.4623143871
 31
0.0
 11
-11.0087219643
 21
21.4755923698
 31
0.0
  0
SPLINE
  5
606
100
AcDbEntity
  8
0
100
AcDbSpline
 62
253
  6
CONTINUOUS
 70
0
 71
3
 72
14
 73
10
 74
8
 42
0.0000001
 43
0.0000001
 44
0.0000000001
 12
-0.000344913
 22
0.9566833998
 32
0.0
 13
-0.1577714374
 23
0.943584347
 33
0.0
 40
0.0
 40
0.0
 40
0.0
 40
0.0
 40
0.3738456895
 40
0.5425472124
 40
0.691375587
 40
0.8152204848
 40
0.9098847585
 40
0.9721862445
 40
1.0
 40
1.0
 40
1.0
 40
1.0
 10
-10.5005350625
 20
21.0183142309
 30
0.0
 10
-10.5005780439
 20
21.1375315526
 30
0.0
 10
-10.5008896309
 20
21.3105487317
 30
0.0
 10
-10.5019518371
 20
21.5310181507
 30
0.0
 10
-10.5028711608
 20
21.6717767725
 30
0.0
 10
-10.5042203529
 20
21.7888849963
 30
0.0
 10
-10.505078712
 20
21.878494903
 30
0.0
 10
-10.5072850147
 20
21.9372666371
 30
0.0
 10
-10.507335378
 20
21.9661589291
 30
0.0
 10
-10.5087981167
 20
21.9749071372
 30
0.0
 11
-10.5005350625
 21
21.0183142309
 31
0.0
 11
-10.501255274
 21
21.3759654942
 31
0.0
 11
-10.5020313521
 21
21.5373575853
 31
0.0
 11
-10.5030523599
 21
21.6797355691
 31
0.0
 11
-10.5042842797
 21
21.7982095299
 31
0.0
 11
-10.5056848019
 21
21.8887624452
 31
0.0
 11
-10.5072065848
 21
21.9483458162
 31
0.0
 11
-10.5087981167
 21
21.9749071372
 31
0.0
  0
SPLINE
  5
607
100
AcDbEntity
  8
0
100
AcDbSpline
 62
253
  6
CONTINUOUS
 70
0
 71
3
 72
17
 73
13
 74
11
 42
0.0000001
 43
0.0000001
 44
0.0000000001
 12
0.192119012
 22
0.4630582886
 32
0.0
 13
0.5013307873
 23
0.0003675725
 33
0.0
 40
0.0
 40
0.0
 40
0.0
 40
0.0
 40
0.0075742544
 40
0.0238008449
 40
0.0489922605
 40
0.0830647063
 40
0.1765166001
 40
0.3008261812
 40
0.4512668749
 40
0.6222937759
 40
0.8077180233
 40
1.0
 40
1.0
 40
1.0
 40
1.0
 10
-11.0004589101
 20
20.9972959167
 30
0.0
 10
-10.9999738573
 20
20.9984650238
 30
0.0
 10
-10.9955740016
 20
20.9999075684
 30
0.0
 10
-10.9881121318
 20
21.001780036
 30
0.0
 10
-10.975357755
 20
21.0036116138
 30
0.0
 10
-10.9501394428
 20
21.0063994419
 30
0.0
 10
-10.9080406809
 20
21.0093676804
 30
0.0
 10
-10.8466332941
 20
21.0123895239
 30
0.0
 10
-10.7721606606
 20
21.0148933996
 30
0.0
 10
-10.6874797842
 20
21.0167924644
 30
0.0
 10
-10.5957856087
 20
21.0179884431
 30
0.0
 10
-10.5326673541
 20
21.0182904348
 30
0.0
 10
-10.5005350625
 20
21.018313994
 30
0.0
 11
-11.0004589101
 21
20.9972959167
 31
0.0
 11
-10.9972519523
 21
20.9993291923
 31
0.0
 11
-10.9893717141
 21
21.0013486743
 31
0.0
 11
-10.9768991538
 21
21.0033318111
 31
0.0
 11
-10.9599263723
 21
21.0052565824
 31
0.0
 11
-10.9132148619
 21
21.008860423
 31
0.0
 11
-10.8509752476
 21
21.0120293869
 31
0.0
 11
-10.7756000825
 21
21.0146460878
 31
0.0
 11
-10.689881502
 21
21.0166099408
 31
0.0
 11
-10.5969308363
 21
21.017847878
 31
0.0
 11
-10.5005350625
 21
21.018313994
 31
0.0
  0
SPLINE
  5
608
100
AcDbEntity
  8
RACCORDO
100
AcDbSpline
 62
253
  6
CONTINUOUS
 70
0
 71
3
 72
23
 73
19
 74
17
 42
0.0000001
 43
0.0000001
 44
0.0000000001
 12
-24.9600030226
 22
0.000335839
 32
0.0
 13
24.9600030226
 23
0.0003362931
 33
0.0
 40
0.0
 40
0.0
 40
0.0
 40
0.0
 40
0.0624689941
 40
0.1249530095
 40
0.1874490984
 40
0.2499544303
 40
0.3124652062
 40
0.3749766882
 40
0.437488243
 40
0.5000011219
 40
0.5625139913
 40
0.6250255355
 40
0.6875370357
 40
0.7500477617
 40
0.8125527962
 40
0.8750483655
 40
0.9375317616
 40
1.0
 40
1.0
 40
1.0
 40
1.0
 10
0.0
 20
-7.96361743
 30
0.0
 10
-0.5197420941
 20
-7.9636104368
 30
0.0
 10
-1.5622410383
 20
-7.8608832137
 30
0.0
 10
-3.0635936411
 20
-7.4044714101
 30
0.0
 10
-4.4477226721
 20
-6.6633129136
 30
0.0
 10
-5.6605048799
 20
-5.666065611
 30
0.0
 10
-6.6555152516
 20
-4.4512566527
 30
0.0
 10
-7.3945875255
 20
-3.0657354078
 30
0.0
 10
-7.8495668523
 20
-1.5627686555
 30
0.0
 10
-8.0031656142
 20
0.0000292804
 30
0.0
 10
-7.8495545088
 20
1.5628259298
 30
0.0
 10
-7.3945638447
 20
3.0657890737
 30
0.0
 10
-6.6554843767
 20
4.4513058666
 30
0.0
 10
-5.6604695891
 20
5.6661078281
 30
0.0
 10
-4.4476854526
 20
6.6633417872
 30
0.0
 10
-3.0635617171
 20
7.4044837894
 30
0.0
 10
-1.5622234994
 20
7.8608877214
 30
0.0
 10
-0.5197358065
 20
7.9636104274
 30
0.0
 10
0.0
 20
7.96361743
 30
0.0
 11
0.0
 21
-7.96361743
 31
0.0
 11
-1.5516927754
 21
-7.8105287943
 31
0.0
 11
-3.0439165499
 21
-7.3570708032
 31
0.0
 11
-4.4190694669
 21
-6.620694215
 31
0.0
 11
-5.6241615965
 21
-5.6298517514
 31
0.0
 11
-6.6128502311
 21
-4.4228162838
 31
0.0
 11
-7.3472374314
 21
-3.0461644486
 31
0.0
 11
-7.7993342235
 21
-1.5528095025
 31
0.0
 11
-7.951963608
 21
0.0000291602
 31
0.0
 11
-7.7993220547
 21
1.5528663871
 31
0.0
 11
-7.3472145023
 21
3.046217802
 31
0.0
 11
-6.6128192525
 21
4.4228658552
 31
0.0
 11
-5.6241247205
 21
5.6298948838
 31
0.0
 11
-4.4190312656
 21
6.6207240499
 31
0.0
 11
-3.0438847896
 21
7.3570851924
 31
0.0
 11
-1.5516743125
 21
7.8105337745
 31
0.0
 11
-0.0
 21
7.96361743
 31
0.0
  0
SPLINE
  5
609
100
AcDbEntity
  8
0
100
AcDbSpline
 62
253
  6
CONTINUOUS
 70
0
 71
3
 72
14
 73
10
 74
8
 42
0.0000001
 43
0.0000001
 44
0.0000000001
 12
-0.1577384664
 22
0.9435898678
 32
0.0
 13
-0.0003490217
 23
0.9566834067
 33
0.0
 40
0.0
 40
0.0
 40
0.0
 40
0.0
 40
0.0278132861
 40
0.0901154989
 40
0.1847793999
 40
0.3086242281
 40
0.4574528765
 40
0.6261542482
 40
1.0
 40
1.0
 40
1.0
 40
1.0
 10
10.5087981167
 20
-21.9749071372
 30
0.0
 10
10.5073357083
 20
-21.9661590255
 30
0.0
 10
10.5072847744
 20
-21.9372667553
 30
0.0
 10
10.5050782496
 20
-21.8784949934
 30
0.0
 10
10.5042198514
 20
-21.7888850298
 30
0.0
 10
10.502870865
 20
-21.6717768428
 30
0.0
 10
10.5019515427
 20
-21.531018208
 30
0.0
 10
10.5008894523
 20
-21.3105487248
 30
0.0
 10
10.500578556
 20
-21.1375315734
 30
0.0
 10
10.5005350625
 20
-21.0183142309
 30
0.0
 11
10.5087981167
 21
-21.9749071372
 31
0.0
 11
10.5072066111
 21
-21.9483462642
 31
0.0
 11
10.5056843966
 21
-21.8887622082
 31
0.0
 11
10.5042838117
 21
-21.7982096497
 31
0.0
 11
10.50305202
 21
-21.6797357531
 31
0.0
 11
10.5020310684
 21
-21.5373575057
 31
0.0
 11
10.5012551192
 21
-21.3759655573
 31
0.0
 11
10.5005350625
 21
-21.0183142309
 31
0.0
  0
SPLINE
  5
60A
100
AcDbEntity
  8
0
100
AcDbSpline
 62
253
  6
CONTINUOUS
 70
0
 71
3
 72
14
 73
10
 74
8
 42
0.0000001
 43
0.0000001
 44
0.0000000001
 12
-0.1518308599
 22
0.4537487138
 32
0.0
 13
-0.0003498908
 23
0.4784771498
 33
0.0
 40
0.0
 40
0.0
 40
0.0
 40
0.0
 40
0.0279482167
 40
0.0903009443
 40
0.1849684673
 40
0.3087881991
 40
0.4575880603
 40
0.6262493696
 40
1.0
 40
1.0
 40
1.0
 40
1.0
 10
11.0087219643
 20
-21.4755923698
 30
0.0
 10
11.007307497
 20
-21.471365214
 30
0.0
 10
11.0071605279
 20
-21.4566785808
 30
0.0
 10
11.0050302498
 20
-21.4274632892
 30
0.0
 10
11.0041327306
 20
-21.382560301
 30
0.0
 10
11.0027989261
 20
-21.324043853
 30
0.0
 10
11.0018737908
 20
-21.2536511565
 30
0.0
 10
11.0008140742
 20
-21.1434203568
 30
0.0
 10
11.0005025008
 20
-21.0569062955
 30
0.0
 10
11.0004589101
 20
-20.9972959167
 30
0.0
 11
11.0087219643
 21
-21.4755923698
 31
0.0
 11
11.0071309793
 21
-21.4623147631
 31
0.0
 11
11.0056084523
 21
-21.4325192744
 31
0.0
 11
11.0042080262
 21
-21.3872446694
 31
0.0
 11
11.0029759669
 21
-21.3280125535
 31
0.0
 11
11.0019547207
 21
-21.2568225257
 31
0.0
 11
11.0011787816
 21
-21.176125652
 31
0.0
 11
11.0004589101
 21
-20.9972959167
 31
0.0
  0
SPLINE
  5
60B
100
AcDbEntity
  8
0
100
AcDbSpline
 62
253
  6
CONTINUOUS
 70
0
 71
3
 72
9
 73
5
 74
3
 42
0.0000001
 43
0.0000001
 44
0.0000000001
 12
-0.0308408124
 22
42.0366192679
 32
0.0
 13
0.0308408099
 23
42.0366192679
 33
0.0
 40
0.0
 40
0.0
 40
0.0
 40
0.0
 40
0.2499439267
 40
1.0
 40
1.0
 40
1.0
 40
1.0
 10
10.5005350625
 20
-21.0183142309
 30
0.0
 10
10.4979655713
 20
-17.5160483361
 30
0.0
 10
10.490259949
 20
-3.5038401436
 30
0.0
 10
10.4928242836
 20
10.5083737031
 30
0.0
 10
10.5005350625
 20
21.0183142309
 30
0.0
 11
10.5005350625
 21
-21.0183142309
 31
0.0
 11
10.4947552087
 21
-10.5115153085
 31
0.0
 11
10.5005350625
 21
21.0183142309
 31
0.0
  0
SPLINE
  5
60C
100
AcDbEntity
  8
0
100
AcDbSpline
 62
253
  6
CONTINUOUS
 70
0
 71
3
 72
9
 73
5
 74
3
 42
0.0000001
 43
0.0000001
 44
0.0000000001
 12
-0.0308408122
 22
41.9945826303
 32
0.0
 13
0.0308408097
 23
41.9945826303
 33
0.0
 40
0.0
 40
0.0
 40
0.0
 40
0.0
 40
0.2499439267
 40
1.0
 40
1.0
 40
1.0
 40
1.0
 10
11.0004589101
 20
-20.9972959167
 30
0.0
 10
10.9978894189
 20
-17.4985322888
 30
0.0
 10
10.9901837966
 20
-3.5003363071
 30
0.0
 10
10.9927481312
 20
10.4978653344
 30
0.0
 10
11.0004589101
 20
20.9972959167
 30
0.0
 11
11.0004589101
 21
-20.9972959167
 31
0.0
 11
10.9946790563
 21
-10.501003794
 31
0.0
 11
11.0004589101
 21
20.9972959167
 31
0.0
  0
SPLINE
  5
60D
100
AcDbEntity
  8
0
100
AcDbSpline
 62
253
  6
CONTINUOUS
 70
0
 71
3
 72
17
 73
13
 74
11
 42
0.0000001
 43
0.0000001
 44
0.0000000001
 12
0.5013308745
 22
0.0003675192
 32
0.0
 13
0.1920598312
 23
0.4630829321
 33
0.0
 40
0.0
 40
0.0
 40
0.0
 40
0.0
 40
0.1922831591
 40
0.3777083815
 40
0.5487358829
 40
0.6991767247
 40
0.8234860083
 40
0.9169372265
 40
0.9510092275
 40
0.9762001486
 40
0.9924262162
 40
1.0
 40
1.0
 40
1.0
 40
1.0
 10
10.5005350625
 20
-21.0183142305
 30
0.0
 10
10.5326675573
 20
-21.0182906746
 30
0.0
 10
10.5957861833
 20
-21.0179886843
 30
0.0
 10
10.6874808359
 20
-21.0167926929
 30
0.0
 10
10.7721620133
 20
-21.0148936037
 30
0.0
 10
10.8466347383
 20
-21.0123896936
 30
0.0
 10
10.9080419845
 20
-21.0093678181
 30
0.0
 10
10.950140539
 20
-21.0063995348
 30
0.0
 10
10.9753585472
 20
-21.00361169
 30
0.0
 10
10.9881127331
 20
-21.0017800674
 30
0.0
 10
10.9955742474
 20
-20.9999076504
 30
0.0
 10
10.9999740369
 20
-20.9984650133
 30
0.0
 10
11.0004589101
 20
-20.9972959167
 30
0.0
 11
10.5005350625
 21
-21.0183142305
 31
0.0
 11
10.5969314458
 21
-21.0178481162
 31
0.0
 11
10.6898826164
 21
-21.0166101652
 31
0.0
 11
10.7756015123
 21
-21.0146462854
 31
0.0
 11
10.8509767635
 21
-21.0120295489
 31
0.0
 11
10.9132162373
 21
-21.0088605446
 31
0.0
 11
10.9599274129
 21
-21.0052566621
 31
0.0
 11
10.9768999706
 21
-21.00333187
 31
0.0
 11
10.9893722789
 21
-21.0013487129
 31
0.0
 11
10.9972522429
 21
-20.9993292112
 31
0.0
 11
11.0004589101
 21
-20.9972959167
 31
0.0
  0
SPLINE
  5
60E
100
AcDbEntity
  8
0
100
AcDbSpline
 62
253
  6
CONTINUOUS
 70
0
 71
3
 72
14
 73
10
 74
8
 42
0.0000001
 43
0.0000001
 44
0.0000000001
 12
0.0003490215
 22
0.9566834067
 32
0.0
 13
0.1577384812
 23
0.9435898653
 33
0.0
 40
0.0
 40
0.0
 40
0.0
 40
0.0
 40
0.3738457518
 40
0.5425471235
 40
0.6913757719
 40
0.8152206001
 40
0.9098845012
 40
0.9721867138
 40
1.0
 40
1.0
 40
1.0
 40
1.0
 10
10.5005350625
 20
21.0183142309
 30
0.0
 10
10.5005785559
 20
21.1375315734
 30
0.0
 10
10.5008894524
 20
21.3105487248
 30
0.0
 10
10.5019515426
 20
21.531018208
 30
0.0
 10
10.502870865
 20
21.6717768428
 30
0.0
 10
10.5042198514
 20
21.7888850298
 30
0.0
 10
10.5050782496
 20
21.8784949934
 30
0.0
 10
10.5072847745
 20
21.9372667552
 30
0.0
 10
10.5073357082
 20
21.9661590255
 30
0.0
 10
10.5087981167
 20
21.9749071372
 30
0.0
 11
10.5005350625
 21
21.0183142309
 31
0.0
 11
10.5012551192
 21
21.3759655573
 31
0.0
 11
10.5020310683
 21
21.5373575057
 31
0.0
 11
10.50305202
 21
21.6797357531
 31
0.0
 11
10.5042838117
 21
21.7982096497
 31
0.0
 11
10.5056843966
 21
21.8887622083
 31
0.0
 11
10.5072066111
 21
21.9483462641
 31
0.0
 11
10.5087981167
 21
21.9749071372
 31
0.0
  0
SPLINE
  5
60F
100
AcDbEntity
  8
0
100
AcDbSpline
 62
253
  6
CONTINUOUS
 70
0
 71
3
 72
14
 73
10
 74
8
 42
0.0000001
 43
0.0000001
 44
0.0000000001
 12
0.0003498905
 22
0.4784771498
 32
0.0
 13
0.15183075
 23
0.4537487506
 33
0.0
 40
0.0
 40
0.0
 40
0.0
 40
0.0
 40
0.3737506305
 40
0.54241194
 40
0.6912118009
 40
0.8150315322
 40
0.9096990562
 40
0.9720517829
 40
1.0
 40
1.0
 40
1.0
 40
1.0
 10
11.0004589101
 20
20.9972959167
 30
0.0
 10
11.0005025007
 20
21.0569062955
 30
0.0
 10
11.0008140742
 20
21.1434203569
 30
0.0
 10
11.0018737908
 20
21.2536511565
 30
0.0
 10
11.0027989262
 20
21.324043853
 30
0.0
 10
11.0041327304
 20
21.3825603011
 30
0.0
 10
11.0050302503
 20
21.427463289
 30
0.0
 10
11.0071605268
 20
21.4566785812
 30
0.0
 10
11.007307498
 20
21.4713652136
 30
0.0
 10
11.0087219643
 20
21.4755923698
 30
0.0
 11
11.0004589101
 21
20.9972959167
 31
0.0
 11
11.0011787816
 21
21.176125652
 31
0.0
 11
11.0019547207
 21
21.2568225259
 31
0.0
 11
11.0029759669
 21
21.3280125535
 31
0.0
 11
11.0042080262
 21
21.3872446691
 31
0.0
 11
11.0056084523
 21
21.4325192746
 31
0.0
 11
11.0071309793
 21
21.4623147629
 31
0.0
 11
11.0087219643
 21
21.4755923698
 31
0.0
  0
SPLINE
  5
610
100
AcDbEntity
  8
0
100
AcDbSpline
 62
253
  6
CONTINUOUS
 70
0
 71
3
 72
17
 73
13
 74
11
 42
0.0000001
 43
0.0000001
 44
0.0000000001
 12
0.501330538
 22
-0.0003676017
 32
0.0
 13
0.1922944111
 23
-0.4629852081
 33
0.0
 40
0.0
 40
0.0
 40
0.0
 40
0.0
 40
0.192278455
 40
0.3776997969
 40
0.5487249063
 40
0.6991651545
 40
0.8234756165
 40
0.9169295192
 40
0.9510032896
 40
0.9761961796
 40
0.9924243319
 40
1.0
 40
1.0
 40
1.0
 40
1.0
 10
10.5005350626
 20
21.0183132877
 30
0.0
 10
10.5326667497
 20
21.0182897271
 30
0.0
 10
10.5957838991
 20
21.017987746
 30
0.0
 10
10.6874766547
 20
21.0167918209
 30
0.0
 10
10.7721566353
 20
21.0148928378
 30
0.0
 10
10.8466289955
 20
21.0123890679
 30
0.0
 10
10.9080368002
 20
21.0093673178
 30
0.0
 10
10.9501361788
 20
21.0063992046
 30
0.0
 10
10.9753553961
 20
21.0036114177
 30
0.0
 10
10.9881103408
 20
21.0017799634
 30
0.0
 10
10.9955732723
 20
20.9999073403
 30
0.0
 10
10.9999733237
 20
20.9984650574
 30
0.0
 10
11.00045891
 20
20.9972959167
 30
0.0
 11
10.5005350626
 21
21.0183132877
 31
0.0
 11
10.5969290229
 21
21.0178471891
 31
0.0
 11
10.6898781864
 21
21.016609309
 31
0.0
 11
10.7755958279
 21
21.0146455447
 31
0.0
 11
10.8509707358
 21
21.0120289529
 31
0.0
 11
10.9132107673
 21
21.0088601064
 31
0.0
 11
10.9599232733
 21
21.0052563811
 31
0.0
 11
10.9768967208
 21
21.0033316645
 31
0.0
 11
10.9893700315
 21
21.0013485797
 31
0.0
 11
10.9972510862
 21
20.9993291466
 31
0.0
 11
11.00045891
 21
20.9972959167
 31
0.0
  0
SPLINE
  5
611
100
AcDbEntity
  8
RACCORDO
100
AcDbSpline
 62
253
  6
CONTINUOUS
 70
0
 71
3
 72
18
 73
14
 74
12
 42
0.0000001
 43
0.0000001
 44
0.0000000001
 12
-0.4991541606
 22
-0.0261595611
 32
0.0
 13
0.026151615
 23
-0.499154577
 33
0.0
 40
0.0
 40
0.0
 40
0.0
 40
0.0
 40
0.0051222386
 40
0.0196131415
 40
0.043474622
 40
0.0765561608
 40
0.1185173244
 40
0.1689349497
 40
0.2932632461
 40
0.4446673301
 40
0.6174269108
 40
0.8051406692
 40
1.0
 40
1.0
 40
1.0
 40
1.0
 10
-51.4457525943
 20
21.9749071372
 30
0.0
 10
-51.4466048565
 20
21.974862472
 30
0.0
 10
-51.4462492746
 20
21.9699374556
 30
0.0
 10
-51.4473368422
 20
21.9642662911
 30
0.0
 10
-51.4470709952
 20
21.9514876472
 30
0.0
 10
-51.4471606261
 20
21.9353906807
 30
0.0
 10
-51.4467485772
 20
21.9143446575
 30
0.0
 10
-51.4459206242
 20
21.8783153871
 30
0.0
 10
-51.4441535572
 20
21.8239597809
 30
0.0
 10
-51.4412906164
 20
21.7493072737
 30
0.0
 10
-51.4375994699
 20
21.6640956574
 30
0.0
 10
-51.4332367219
 20
21.5716745047
 30
0.0
 10
-51.4300094481
 20
21.5080140121
 30
0.0
 10
-51.4283108194
 20
21.4755923698
 30
0.0
 11
-51.4457525943
 21
21.9749071372
 31
0.0
 11
-51.4464768445
 21
21.9724514144
 31
0.0
 11
-51.4469450822
 21
21.9652234441
 31
0.0
 11
-51.4471515817
 21
21.9532983292
 31
0.0
 11
-51.4470914662
 21
21.9367629895
 31
0.0
 11
-51.4467661286
 21
21.9157916796
 31
0.0
 11
-51.4461797722
 21
21.8905977979
 31
0.0
 11
-51.4442461254
 21
21.8284837356
 31
0.0
 11
-51.4413684213
 21
21.7528607767
 31
0.0
 11
-51.4376538924
 21
21.6665887001
 31
0.0
 11
-51.4332394742
 21
21.5728659141
 31
0.0
 11
-51.4283108194
 21
21.4755923698
 31
0.0
  0
SPLINE
  5
612
100
AcDbEntity
  8
RACCORDO
100
AcDbSpline
 62
253
  6
CONTINUOUS
 70
0
 71
3
 72
18
 73
14
 74
12
 42
0.0000001
 43
0.0000001
 44
0.0000000001
 12
-0.4991541552
 22
0.0261595608
 32
0.0
 13
0.0261514932
 23
0.499154578
 33
0.0
 40
0.0
 40
0.0
 40
0.0
 40
0.0
 40
0.0051222342
 40
0.0196131399
 40
0.0434746241
 40
0.0765561681
 40
0.1185173416
 40
0.1689349752
 40
0.2932632841
 40
0.4446673803
 40
0.6174269564
 40
0.8051406833
 40
1.0
 40
1.0
 40
1.0
 40
1.0
 10
-51.4457525943
 20
-21.9749071372
 30
0.0
 10
-51.4466048558
 20
-21.9748624721
 30
0.0
 10
-51.4462492533
 20
-21.96993745
 30
0.0
 10
-51.4473368266
 20
-21.9642662907
 30
0.0
 10
-51.4470709652
 20
-21.9514876417
 30
0.0
 10
-51.4471605926
 20
-21.9353906736
 30
0.0
 10
-51.4467485365
 20
-21.9143446463
 30
0.0
 10
-51.4459205775
 20
-21.8783153716
 30
0.0
 10
-51.4441535072
 20
-21.8239597604
 30
0.0
 10
-51.4412905696
 20
-21.7493072507
 30
0.0
 10
-51.4375994325
 20
-21.6640956389
 30
0.0
 10
-51.4332367
 20
-21.5716744948
 30
0.0
 10
-51.4300094401
 20
-21.5080140098
 30
0.0
 10
-51.4283108194
 20
-21.4755923698
 30
0.0
 11
-51.4457525943
 21
-21.9749071372
 31
0.0
 11
-51.4464768347
 21
-21.9724514138
 31
0.0
 11
-51.4469450635
 21
-21.9652234416
 31
0.0
 11
-51.4471515552
 21
-21.9532983249
 31
0.0
 11
-51.4470914327
 21
-21.9367629828
 31
0.0
 11
-51.4467660889
 21
-21.9157916683
 31
0.0
 11
-51.4461797278
 21
-21.8905977828
 31
0.0
 11
-51.4442460766
 21
-21.828483715
 31
0.0
 11
-51.4413683749
 21
-21.7528607508
 31
0.0
 11
-51.4376538553
 21
-21.666588677
 31
0.0
 11
-51.433239453
 21
-21.572865907
 31
0.0
 11
-51.4283108194
 21
-21.4755923698
 31
0.0
  0
SPLINE
  5
613
100
AcDbEntity
  8
ASSI
100
AcDbSpline
 62
7
  6
CONTINUOUS
 70
0
 71
3
 72
8
 73
4
 74
2
 42
0.0000001
 43
0.0000001
 44
0.0000000001
 12
3.5586818193
 22
-0.016661402
 32
0.0
 13
3.5586889298
 23
-0.0150663173
 33
0.0
 40
0.0
 40
0.0
 40
0.0
 40
0.0
 40
1.0
 40
1.0
 40
1.0
 40
1.0
 10
-43.3344975744
 20
22.663166622
 30
0.0
 10
-42.1482703013
 20
22.6576128213
 30
0.0
 10
-40.9620418166
 20
22.6523107703
 30
0.0
 10
-39.7758121733
 20
22.6472886645
 30
0.0
 11
-43.3344975744
 21
22.663166622
 31
0.0
 11
-39.7758121733
 21
22.6472886645
 31
0.0
  0
LINE
  5
614
100
AcDbEntity
  8
ASSI
100
AcDbLine
 62
7
  6
CONTINUOUS
 10
-39.7758121733
 20
22.6472886645
 11
-39.3344975744
 21
22.6454332982
  0
LINE
  5
615
100
AcDbEntity
  8
ASSI
100
AcDbLine
 62
7
  6
CONTINUOUS
 10
-43.3344975744
 20
-22.663166622
 11
-42.8873776428
 21
-22.6610852533
  0
SPLINE
  5
616
100
AcDbEntity
  8
ASSI
100
AcDbSpline
 62
7
  6
CONTINUOUS
 70
0
 71
3
 72
8
 73
4
 74
2
 42
0.0000001
 43
0.0000001
 44
0.0000000001
 12
3.5528764952
 22
0.0164430608
 32
0.0
 13
3.5528835873
 23
0.0148316925
 33
0.0
 40
0.0
 40
0.0
 40
0.0
 40
0.0
 40
1.0
 40
1.0
 40
1.0
 40
1.0
 10
-42.8873776428
 20
-22.6610852533
 30
0.0
 10
-41.7030854777
 20
-22.655604233
 30
0.0
 10
-40.5187921035
 20
-22.6503771957
 30
0.0
 10
-39.3344975744
 20
-22.6454332982
 30
0.0
 11
-42.8873776428
 21
-22.6610852533
 31
0.0
 11
-39.3344975744
 21
-22.6454332982
 31
0.0
  0
SPLINE
  5
617
100
AcDbEntity
  8
ASSI
100
AcDbSpline
 62
7
  6
CONTINUOUS
 70
0
 71
3
 72
8
 73
4
 74
2
 42
0.0000001
 43
0.0000001
 44
0.0000000001
 12
4.0000092234
 22
0.0379979396
 32
0.0
 13
3.9999901392
 23
0.0399564424
 33
0.0
 40
0.0
 40
0.0
 40
0.0
 40
0.0
 40
1.0
 40
1.0
 40
1.0
 40
1.0
 10
-43.3344975744
 20
-23.1799085618
 30
0.0
 10
-42.0011611666
 20
-23.1672425819
 30
0.0
 10
-40.6678276208
 20
-23.1542705965
 30
0.0
 10
-39.3344975744
 20
-23.1409517823
 30
0.0
 11
-43.3344975744
 21
-23.1799085618
 31
0.0
 11
-39.3344975744
 21
-23.1409517823
 31
0.0
  0
LINE
  5
618
100
AcDbEntity
  8
ASSI
100
AcDbLine
 62
253
  6
CONTINUOUS
 10
-43.3344975744
 20
-18.2307790647
 11
-41.8344975744
 21
-18.1797639505
  0
LINE
  5
619
100
AcDbEntity
  8
ASSI
100
AcDbLine
 62
253
  6
CONTINUOUS
 10
-41.8344975744
 20
-17.0863903822
 11
-43.3344975744
 21
-17.0730847656
  0
SPLINE
  5
61A
100
AcDbEntity
  8
ASSI
100
AcDbSpline
 62
253
  6
CONTINUOUS
 70
0
 71
3
 72
18
 73
14
 74
12
 42
0.0000001
 43
0.0000001
 44
0.0000000001
 12
-0.4991546249
 22
-0.0261595854
 32
0.0
 13
0.0261516388
 23
-0.4991550413
 33
0.0
 40
0.0
 40
0.0
 40
0.0
 40
0.0
 40
0.0051147042
 40
0.0195975293
 40
0.0434757522
 40
0.0765585756
 40
0.1185023745
 40
0.1689370205
 40
0.2932311312
 40
0.4446929082
 40
0.6174449412
 40
0.8050393129
 40
1.0
 40
1.0
 40
1.0
 40
1.0
 10
-51.4457525943
 20
21.9749071372
 30
0.0
 10
-51.4466036037
 20
21.9748625377
 30
0.0
 10
-51.4462531224
 20
21.9699430925
 30
0.0
 10
-51.4473374826
 20
21.9642705555
 30
0.0
 10
-51.4470713886
 20
21.9514901281
 30
0.0
 10
-51.4471601347
 20
21.9353929206
 30
0.0
 10
-51.4467488467
 20
21.9143468094
 30
0.0
 10
-51.4459201235
 20
21.8783232528
 30
0.0
 10
-51.4441549597
 20
21.8239608025
 30
0.0
 10
-51.4412899162
 20
21.7493056358
 30
0.0
 10
-51.4375998129
 20
21.6641054517
 30
0.0
 10
-51.4332379746
 20
21.5716884317
 30
0.0
 10
-51.4300103332
 20
21.5080309064
 30
0.0
 10
-51.4283108194
 20
21.4755923698
 30
0.0
 11
-51.4457525943
 21
21.9749071372
 31
0.0
 11
-51.4464778283
 21
21.9724556293
 31
0.0
 11
-51.4469464027
 21
21.9652317202
 31
0.0
 11
-51.4471519347
 21
21.9532982077
 31
0.0
 11
-51.4470912726
 21
21.9367622125
 31
0.0
 11
-51.4467662725
 21
21.9157995585
 31
0.0
 11
-51.4461795207
 21
21.8905971526
 31
0.0
 11
-51.4442472688
 21
21.8285000847
 31
0.0
 11
-51.4413677549
 21
21.7528482662
 31
0.0
 11
-51.4376534167
 21
21.6665798771
 31
0.0
 11
-51.4332422747
 21
21.5729165898
 31
0.0
 11
-51.4283108194
 21
21.4755923698
 31
0.0
  0
SPLINE
  5
61B
100
AcDbEntity
  8
ASSI
100
AcDbSpline
 62
7
  6
CONTINUOUS
 70
0
 71
3
 72
8
 73
4
 74
2
 42
0.0000001
 43
0.0000001
 44
0.0000000001
 12
4.0000092234
 22
-0.0379979396
 32
0.0
 13
3.9999901392
 23
-0.0399564424
 33
0.0
 40
0.0
 40
0.0
 40
0.0
 40
0.0
 40
1.0
 40
1.0
 40
1.0
 40
1.0
 10
-43.3344975744
 20
23.1799085618
 30
0.0
 10
-42.0011611666
 20
23.1672425819
 30
0.0
 10
-40.6678276208
 20
23.1542705965
 30
0.0
 10
-39.3344975744
 20
23.1409517823
 30
0.0
 11
-43.3344975744
 21
23.1799085618
 31
0.0
 11
-39.3344975744
 21
23.1409517823
 31
0.0
  0
SPLINE
  5
61C
100
AcDbEntity
  8
ASSI
100
AcDbSpline
 62
253
  6
CONTINUOUS
 70
0
 71
3
 72
18
 73
14
 74
12
 42
0.0000001
 43
0.0000001
 44
0.0000000001
 12
-0.4991546196
 22
0.0261595851
 32
0.0
 13
0.0261515181
 23
0.4991550423
 33
0.0
 40
0.0
 40
0.0
 40
0.0
 40
0.0
 40
0.0051146978
 40
0.019597521
 40
0.0434757431
 40
0.0765585661
 40
0.1185023651
 40
0.1689370113
 40
0.2932311231
 40
0.4446929018
 40
0.6174449368
 40
0.8050393107
 40
1.0
 40
1.0
 40
1.0
 40
1.0
 10
-51.4457525943
 20
-21.9749071372
 30
0.0
 10
-51.4466036027
 20
-21.9748625377
 30
0.0
 10
-51.4462531021
 20
-21.969943089
 30
0.0
 10
-51.447337467
 20
-21.9642705582
 30
0.0
 10
-51.4470713588
 20
-21.9514901285
 30
0.0
 10
-51.4471601011
 20
-21.9353929226
 30
0.0
 10
-51.4467488061
 20
-21.9143468113
 30
0.0
 10
-51.4459200774
 20
-21.8783232553
 30
0.0
 10
-51.4441549106
 20
-21.823960805
 30
0.0
 10
-51.4412898703
 20
-21.7493056382
 30
0.0
 10
-51.4375997764
 20
-21.6641054536
 30
0.0
 10
-51.4332379533
 20
-21.5716884329
 30
0.0
 10
-51.4300103254
 20
-21.5080309069
 30
0.0
 10
-51.4283108194
 20
-21.4755923698
 30
0.0
 11
-51.4457525943
 21
-21.9749071372
 31
0.0
 11
-51.4464778186
 21
-21.9724556298
 31
0.0
 11
-51.4469463843
 21
-21.9652317212
 31
0.0
 11
-51.4471519083
 21
-21.9532982091
 31
0.0
 11
-51.4470912391
 21
-21.9367622143
 31
0.0
 11
-51.446766233
 21
-21.9157995606
 31
0.0
 11
-51.4461794767
 21
-21.8905971549
 31
0.0
 11
-51.4442472208
 21
-21.8285000872
 31
0.0
 11
-51.4413677097
 21
-21.7528482685
 31
0.0
 11
-51.4376533807
 21
-21.666579879
 31
0.0
 11
-51.4332422539
 21
-21.5729165909
 31
0.0
 11
-51.4283108194
 21
-21.4755923698
 31
0.0
  0
LINE
  5
61D
100
AcDbEntity
  8
ASSI
100
AcDbLine
 62
253
  6
CONTINUOUS
 10
-41.8344975744
 20
18.1797639505
 11
-43.3344975744
 21
18.2307790647
  0
LINE
  5
61E
100
AcDbEntity
  8
ASSI
100
AcDbLine
 62
253
  6
CONTINUOUS
 10
-43.3344975744
 20
17.0730847656
 11
-41.8344975744
 21
17.0863903821
  0
LINE
  5
61F
100
AcDbEntity
  8
ASSI
100
AcDbLine
 62
253
  6
CONTINUOUS
 10
-41.8344975744
 20
-16.4758271194
 11
-43.3344975744
 21
-16.463281859
  0
LINE
  5
620
100
AcDbEntity
  8
ASSI
100
AcDbLine
 62
253
  6
CONTINUOUS
 10
-43.3344975744
 20
16.4632818589
 11
-41.8344975744
 21
16.4758271193
  0
SPLINE
  5
621
100
AcDbEntity
  8
CURVE
100
AcDbSpline
 62
253
  6
CONTINUOUS
 70
0
 71
3
 72
9
 73
5
 74
3
 42
0.0000001
 43
0.0000001
 44
0.0000000001
 12
0.0446116473
 22
0.384369739
 32
0.0
 13
0.3868445124
 23
0.0060522808
 33
0.0
 40
0.0
 40
0.0
 40
0.0
 40
0.0
 40
0.5000882298
 40
1.0
 40
1.0
 40
1.0
 40
1.0
 10
-50.583401006
 20
-9.7872226144
 30
0.0
 10
-50.5759644194
 20
-9.7231496869
 30
0.0
 10
-50.5195871359
 20
-9.5932431364
 30
0.0
 10
-50.3854519655
 20
-9.5406354993
 30
0.0
 10
-50.3209892572
 20
-9.5396269638
 30
0.0
 11
-50.583401006
 21
-9.7872226144
 31
0.0
 11
-50.5001308547
 21
-9.6125517622
 31
0.0
 11
-50.3209892572
 21
-9.5396269638
 31
0.0
  0
SPLINE
  5
622
100
AcDbEntity
  8
CURVE
100
AcDbSpline
 62
253
  6
CONTINUOUS
 70
0
 71
3
 72
9
 73
5
 74
3
 42
0.0000001
 43
0.0000001
 44
0.0000000001
 12
-0.0579388093
 22
0.3396527789
 32
0.0
 13
0.0397152985
 23
0.3422632804
 33
0.0
 40
0.0
 40
0.0
 40
0.0
 40
0.0
 40
0.4997637338
 40
1.0
 40
1.0
 40
1.0
 40
1.0
 10
-50.5710438841
 20
-10.1306033287
 30
0.0
 10
-50.5806957893
 20
-10.0740212817
 30
0.0
 10
-50.5947319706
 20
-9.9596464586
 30
0.0
 10
-50.5900233502
 20
-9.8442934495
 30
0.0
 10
-50.583401006
 20
-9.7872226144
 30
0.0
 11
-50.5710438841
 21
-10.1306033287
 31
0.0
 11
-50.5900435653
 21
-9.959456189
 31
0.0
 11
-50.583401006
 21
-9.7872226144
 31
0.0
  0
SPLINE
  5
623
100
AcDbEntity
  8
CURVE
100
AcDbSpline
 62
253
  6
CONTINUOUS
 70
0
 71
3
 72
11
 73
7
 74
5
 42
0.0000001
 43
0.0000001
 44
0.0000000001
 12
0.5325474847
 22
0.008219874
 32
0.0
 13
0.0118914756
 23
-0.5325592443
 33
0.0
 40
0.0
 40
0.0
 40
0.0
 40
0.0
 40
0.2532883062
 40
0.5029209566
 40
0.7480829005
 40
1.0
 40
1.0
 40
1.0
 40
1.0
 10
-50.3209892572
 20
-9.5396269638
 30
0.0
 10
-50.2760265737
 20
-9.5389329645
 30
0.0
 10
-50.1863497574
 20
-9.5536024712
 30
0.0
 10
-50.0659114013
 20
-9.6224320885
 30
0.0
 10
-50.0050040755
 20
-9.7469668671
 30
0.0
 10
-49.9957755347
 20
-9.8353900892
 30
0.0
 10
-49.9947769794
 20
-9.8801103492
 30
0.0
 11
-50.3209892572
 21
-9.5396269638
 31
0.0
 11
-50.1879068142
 21
-9.5617251908
 31
0.0
 11
-50.0751952002
 21
-9.6322602174
 31
0.0
 11
-50.0131729533
 21
-9.7471833891
 31
0.0
 11
-49.9947769794
 21
-9.8801103492
 31
0.0
  0
SPLINE
  5
624
100
AcDbEntity
  8
CURVE
100
AcDbSpline
 62
253
  6
CONTINUOUS
 70
0
 71
3
 72
17
 73
13
 74
11
 42
0.0000001
 43
0.0000001
 44
0.0000000001
 12
-0.1673047103
 22
1.2970065553
 32
0.0
 13
-0.4436554932
 23
-1.2301769108
 33
0.0
 40
0.0
 40
0.0
 40
0.0
 40
0.0
 40
0.0626341368
 40
0.1256123062
 40
0.1874334728
 40
0.25012897
 40
0.3755999783
 40
0.5004417704
 40
0.6252962742
 40
0.7502511716
 40
0.8752241398
 40
1.0
 40
1.0
 40
1.0
 40
1.0
 10
-49.8217615306
 20
-9.4257335944
 30
0.0
 10
-49.8252545259
 20
-9.3986546324
 30
0.0
 10
-49.8636159961
 20
-9.353533105
 30
0.0
 10
-49.9157677707
 20
-9.292885576
 30
0.0
 10
-49.9780215435
 20
-9.2386179657
 30
0.0
 10
-50.0709964737
 20
-9.1813900148
 30
0.0
 10
-50.2014993309
 20
-9.1352094458
 30
0.0
 10
-50.3660151085
 20
-9.1229982653
 30
0.0
 10
-50.5291317399
 20
-9.1471129031
 30
0.0
 10
-50.6801420455
 20
-9.2160227605
 30
0.0
 10
-50.8033179577
 20
-9.325879581
 30
0.0
 10
-50.863581578
 20
-9.419760166
 30
0.0
 10
-50.8820340766
 20
-9.4709256268
 30
0.0
 11
-49.8217615306
 21
-9.4257335944
 31
0.0
 11
-49.8626628668
 21
-9.3547699048
 31
0.0
 11
-49.9177991263
 21
-9.29359599
 31
0.0
 11
-49.9789555682
 21
-9.2407283593
 31
0.0
 11
-50.0485894298
 21
-9.1974608853
 31
0.0
 11
-50.2031190392
 21
-9.1423486528
 31
0.0
 11
-50.365814139
 21
-9.1290478421
 31
0.0
 11
-50.5270627888
 21
-9.1545635469
 31
0.0
 11
-50.6754993246
 21
-9.2228487806
 31
0.0
 11
-50.7979151285
 21
-9.3311101339
 31
0.0
 11
-50.8820340766
 21
-9.4709256268
 31
0.0
  0
SPLINE
  5
625
100
AcDbEntity
  8
CURVE
100
AcDbSpline
 62
253
  6
CONTINUOUS
 70
0
 71
3
 72
9
 73
5
 74
3
 42
0.0000001
 43
0.0000001
 44
0.0000000001
 12
-0.4773412831
 22
-0.1300817629
 32
0.0
 13
-0.1832236046
 23
-0.4596349318
 33
0.0
 40
0.0
 40
0.0
 40
0.0
 40
0.0
 40
0.506910518
 40
1.0
 40
1.0
 40
1.0
 40
1.0
 10
-49.3976367706
 20
-9.1730833646
 30
0.0
 10
-49.4782932096
 20
-9.1950633025
 30
0.0
 10
-49.6359781447
 20
-9.2365158663
 30
0.0
 10
-49.7792419732
 20
-9.3501865442
 30
0.0
 10
-49.8093571839
 20
-9.4257335944
 30
0.0
 11
-49.3976367706
 21
-9.1730833646
 31
0.0
 11
-49.6344518912
 21
-9.2556458256
 31
0.0
 11
-49.8093571839
 21
-9.4257335944
 31
0.0
  0
SPLINE
  5
626
100
AcDbEntity
  8
CURVE
100
AcDbSpline
 62
253
  6
CONTINUOUS
 70
0
 71
3
 72
8
 73
4
 74
2
 42
0.0000001
 43
0.0000001
 44
0.0000000001
 12
-0.5670335011
 22
-0.1540516149
 32
0.0
 13
-0.5669117573
 23
-0.1544991677
 33
0.0
 40
0.0
 40
0.0
 40
0.0
 40
0.0
 40
1.0
 40
1.0
 40
1.0
 40
1.0
 10
-48.8294767675
 20
-9.0232410719
 30
0.0
 10
-49.0184879346
 20
-9.0745916102
 30
0.0
 10
-49.2086661848
 20
-9.121583642
 30
0.0
 10
-49.3976367706
 20
-9.1730833646
 30
0.0
 11
-48.8294767675
 21
-9.0232410719
 31
0.0
 11
-49.3976367706
 21
-9.1730833646
 31
0.0
  0
SPLINE
  5
627
100
AcDbEntity
  8
CURVE
100
AcDbSpline
 62
253
  6
CONTINUOUS
 70
0
 71
3
 72
9
 73
5
 74
3
 42
0.0000001
 43
0.0000001
 44
0.0000000001
 12
0.6223133742
 22
0.2338657467
 32
0.0
 13
0.6389045623
 23
0.183743593
 33
0.0
 40
0.0
 40
0.0
 40
0.0
 40
0.0
 40
0.499968398
 40
1.0
 40
1.0
 40
1.0
 40
1.0
 10
-49.4660180925
 20
-9.6365142722
 30
0.0
 10
-49.3623057523
 20
-9.5975391113
 30
0.0
 10
-49.1482279875
 20
-9.538693444
 30
0.0
 10
-48.9359675915
 20
-9.4754755343
 30
0.0
 10
-48.8294767675
 20
-9.4448496666
 30
0.0
 11
-49.4660180925
 21
-9.6365142722
 31
0.0
 11
-49.1486958028
 21
-9.5376042409
 31
0.0
 11
-48.8294767675
 21
-9.4448496666
 31
0.0
  0
SPLINE
  5
628
100
AcDbEntity
  8
CURVE
100
AcDbSpline
 62
253
  6
CONTINUOUS
 70
0
 71
3
 72
11
 73
7
 74
5
 42
0.0000001
 43
0.0000001
 44
0.0000000001
 12
0.0
 22
0.3263051424
 32
0.0
 13
0.3054478296
 23
0.1146657896
 33
0.0
 40
0.0
 40
0.0
 40
0.0
 40
0.0
 40
0.2477795725
 40
0.4960551195
 40
0.7486644071
 40
1.0
 40
1.0
 40
1.0
 40
1.0
 10
-49.6509813828
 20
-9.8810551304
 30
0.0
 10
-49.6509813828
 20
-9.8541045475
 30
0.0
 10
-49.6430965288
 20
-9.7995568629
 30
0.0
 10
-49.6027560093
 20
-9.7267692852
 30
0.0
 10
-49.5407241748
 20
-9.6716936142
 30
0.0
 10
-49.491608063
 20
-9.6461208036
 30
0.0
 10
-49.4660180925
 20
-9.6365142722
 30
0.0
 11
-49.6509813828
 21
-9.8810551304
 31
0.0
 11
-49.6384027683
 21
-9.801188144
 31
0.0
 11
-49.599472161
 21
-9.7301448653
 31
0.0
 11
-49.5387199977
 21
-9.6744458757
 31
0.0
 11
-49.4660180925
 21
-9.6365142722
 31
0.0
  0
SPLINE
  5
629
100
AcDbEntity
  8
CURVE
100
AcDbSpline
 62
253
  6
CONTINUOUS
 70
0
 71
3
 72
10
 73
6
 74
4
 42
0.0000001
 43
0.0000001
 44
0.0000000001
 12
-0.3704350962
 22
-1.0256612669
 32
0.0
 13
0.1586784831
 23
-1.0789154143
 33
0.0
 40
0.0
 40
0.0
 40
0.0
 40
0.0
 40
0.2496855723
 40
0.5000317551
 40
1.0
 40
1.0
 40
1.0
 40
1.0
 10
-50.8820340766
 20
-9.4709256268
 30
0.0
 10
-50.9128648429
 20
-9.5562899002
 30
0.0
 10
-50.9472343483
 20
-9.7368067433
 30
0.0
 10
-50.9612056195
 20
-10.1004106408
 30
0.0
 10
-50.9305799563
 20
-10.3728135132
 30
0.0
 10
-50.9041352221
 20
-10.5526213286
 30
0.0
 11
-50.8820340766
 21
-9.4709256268
 31
0.0
 11
-50.9403611616
 21
-9.7368915628
 31
0.0
 11
-50.9531416492
 21
-10.0096009552
 31
0.0
 11
-50.9041352221
 21
-10.5526213286
 31
0.0
  0
SPLINE
  5
62A
100
AcDbEntity
  8
CURVE
100
AcDbSpline
 62
253
  6
CONTINUOUS
 70
0
 71
3
 72
12
 73
8
 74
6
 42
0.0000001
 43
0.0000001
 44
0.0000000001
 12
1.7992654023
 22
1.3970848646
 32
0.0
 13
1.4738192779
 23
-1.7371551566
 33
0.0
 40
0.0
 40
0.0
 40
0.0
 40
0.0
 40
0.2
 40
0.4
 40
0.6
 40
0.8
 40
1.0
 40
1.0
 40
1.0
 40
1.0
 10
-50.2526093202
 20
1.1831303242
 30
0.0
 10
-50.1326582933
 20
1.2762693152
 30
0.0
 10
-49.8623810277
 20
1.4267069783
 30
0.0
 10
-49.4093883123
 20
1.5193418303
 30
0.0
 10
-48.949049214
 20
1.4715130489
 30
0.0
 10
-48.5247586257
 20
1.287729321
 30
0.0
 10
-48.2911590127
 20
1.0849393438
 30
0.0
 10
-48.1929043942
 20
0.969129
 30
0.0
 11
-50.2526093202
 21
1.1831303242
 31
0.0
 11
-49.8544515582
 21
1.4045367045
 31
0.0
 11
-49.4081639152
 21
1.4959312247
 31
0.0
 11
-48.955057299
 21
1.4488538911
 31
0.0
 11
-48.5370738205
 21
1.267662448
 31
0.0
 11
-48.1929043942
 21
0.969129
 31
0.0
  0
SPLINE
  5
62B
100
AcDbEntity
  8
CURVE
100
AcDbSpline
 62
253
  6
CONTINUOUS
 70
0
 71
3
 72
12
 73
8
 74
6
 42
0.0000001
 43
0.0000001
 44
0.0000000001
 12
-1.4738201198
 22
-1.7371561489
 32
0.0
 13
-1.7992664301
 23
1.3970856626
 33
0.0
 40
0.0
 40
0.0
 40
0.0
 40
0.0
 40
0.2
 40
0.4
 40
0.6
 40
0.8
 40
1.0
 40
1.0
 40
1.0
 40
1.0
 10
-48.1929037421
 20
-0.9691295536
 30
0.0
 10
-48.2911584167
 20
-1.0849399635
 30
0.0
 10
-48.5247581632
 20
-1.2877300566
 30
0.0
 10
-48.9490489939
 20
-1.4715138894
 30
0.0
 10
-49.4093883551
 20
-1.5193426981
 30
0.0
 10
-49.8623813292
 20
-1.4267077932
 30
0.0
 10
-50.1326587492
 20
-1.2762700442
 30
0.0
 10
-50.2526098446
 20
-1.183131
 30
0.0
 11
-48.1929037421
 21
-0.9691295536
 31
0.0
 11
-48.537073365
 21
-1.2676631721
 31
0.0
 11
-48.9550570823
 21
-1.4488547187
 31
0.0
 11
-49.4081639572
 21
-1.4959320792
 31
0.0
 11
-49.8544518552
 21
-1.4045375068
 31
0.0
 11
-50.2526098446
 21
-1.183131
 31
0.0
  0
SPLINE
  5
62C
100
AcDbEntity
  8
CURVE
100
AcDbSpline
 62
253
  6
CONTINUOUS
 70
0
 71
3
 72
131
 73
127
 74
125
 42
0.0000001
 43
0.0000001
 44
0.0000000001
 12
6.2133917125
 22
0.6093211866
 32
0.0
 13
-6.3228930213
 23
0.6312044813
 33
0.0
 40
0.0
 40
0.0
 40
0.0
 40
0.0
 40
0.015625
 40
0.03125
 40
0.046875
 40
0.0546875
 40
0.05859375
 40
0.0625
 40
0.06640625
 40
0.0703125
 40
0.078125
 40
0.09375
 40
0.109375
 40
0.1171875
 40
0.12109375
 40
0.125
 40
0.12890625
 40
0.1328125
 40
0.140625
 40
0.15625
 40
0.171875
 40
0.1796875
 40
0.18359375
 40
0.1875
 40
0.19140625
 40
0.1953125
 40
0.203125
 40
0.21875
 40
0.234375
 40
0.2421875
 40
0.24609375
 40
0.25
 40
0.25390625
 40
0.2578125
 40
0.265625
 40
0.28125
 40
0.296875
 40
0.3046875
 40
0.30859375
 40
0.3125
 40
0.31640625
 40
0.3203125
 40
0.328125
 40
0.34375
 40
0.359375
 40
0.3671875
 40
0.37109375
 40
0.375
 40
0.37890625
 40
0.3828125
 40
0.390625
 40
0.40625
 40
0.421875
 40
0.4296875
 40
0.43359375
 40
0.4375
 40
0.44140625
 40
0.4453125
 40
0.453125
 40
0.46875
 40
0.484375
 40
0.4921875
 40
0.49609375
 40
0.5
 40
0.50390625
 40
0.5078125
 40
0.515625
 40
0.53125
 40
0.546875
 40
0.5546875
 40
0.55859375
 40
0.5625
 40
0.56640625
 40
0.5703125
 40
0.578125
 40
0.59375
 40
0.609375
 40
0.6171875
 40
0.62109375
 40
0.625
 40
0.62890625
 40
0.6328125
 40
0.640625
 40
0.65625
 40
0.671875
 40
0.6796875
 40
0.68359375
 40
0.6875
 40
0.69140625
 40
0.6953125
 40
0.703125
 40
0.71875
 40
0.734375
 40
0.7421875
 40
0.74609375
 40
0.75
 40
0.75390625
 40
0.7578125
 40
0.765625
 40
0.78125
 40
0.796875
 40
0.8046875
 40
0.80859375
 40
0.8125
 40
0.81640625
 40
0.8203125
 40
0.828125
 40
0.84375
 40
0.859375
 40
0.8671875
 40
0.87109375
 40
0.875
 40
0.87890625
 40
0.8828125
 40
0.890625
 40
0.90625
 40
0.921875
 40
0.9296875
 40
0.93359375
 40
0.9375
 40
0.94140625
 40
0.9453125
 40
0.953125
 40
0.96875
 40
0.984375
 40
1.0
 40
1.0
 40
1.0
 40
1.0
 10
-49.3344975744
 20
-1.9996264008
 30
0.0
 10
-49.3021361592
 20
-1.996452853
 30
0.0
 10
-49.2374161115
 20
-1.9900917023
 30
0.0
 10
-49.1403193443
 20
-1.980634306
 30
0.0
 10
-49.059454067
 20
-1.9725071809
 30
0.0
 10
-49.002753417
 20
-1.9672978183
 30
0.0
 10
-48.9705012184
 20
-1.9635726139
 30
0.0
 10
-48.9458946812
 20
-1.9628869522
 30
0.0
 10
-48.9228836108
 20
-1.954142537
 30
0.0
 10
-48.8916453626
 20
-1.9452950493
 30
0.0
 10
-48.8372409138
 20
-1.9284943915
 30
0.0
 10
-48.7593584757
 20
-1.9052427765
 30
0.0
 10
-48.6816232532
 20
-1.8815034896
 30
0.0
 10
-48.6270127026
 20
-1.8653855725
 30
0.0
 10
-48.5960983287
 20
-1.8554652065
 30
0.0
 10
-48.5720935531
 20
-1.8500125767
 30
0.0
 10
-48.5512189306
 20
-1.836964432
 30
0.0
 10
-48.5222938753
 20
-1.822217033
 30
0.0
 10
-48.4721878576
 20
-1.7951670503
 30
0.0
 10
-48.4003080002
 20
-1.7572322493
 30
0.0
 10
-48.3286506538
 20
-1.7188311026
 30
0.0
 10
-48.2782331206
 20
-1.6924340038
 30
0.0
 10
-48.2497975897
 20
-1.6766606445
 30
0.0
 10
-48.2274210174
 20
-1.6667603326
 30
0.0
 10
-48.2090568976
 20
-1.6494858415
 30
0.0
 10
-48.1831711889
 20
-1.629025919
 30
0.0
 10
-48.1385298786
 20
-1.5920169929
 30
0.0
 10
-48.0743615586
 20
-1.5398198819
 30
0.0
 10
-48.0105186889
 20
-1.4872250878
 30
0.0
 10
-47.9654217482
 20
-1.4507729181
 30
0.0
 10
-47.9402520302
 20
-1.4294380926
 30
0.0
 10
-47.9196911206
 20
-1.4148479631
 30
0.0
 10
-47.9055647146
 20
-1.3948663822
 30
0.0
 10
-47.8844844086
 20
-1.3701053252
 30
0.0
 10
-47.8486466391
 20
-1.3258925225
 30
0.0
 10
-47.7968452348
 20
-1.2632284598
 30
0.0
 10
-47.7454569251
 20
-1.2002540662
 30
0.0
 10
-47.7090408231
 20
-1.1564757269
 30
0.0
 10
-47.6888693253
 20
-1.1310319416
 30
0.0
 10
-47.6719545308
 20
-1.1131450953
 30
0.0
 10
-47.661865569
 20
-1.0906880736
 30
0.0
 10
-47.6460319483
 20
-1.062339821
 30
0.0
 10
-47.6194402492
 20
-1.0119843424
 30
0.0
 10
-47.5808079163
 20
-0.9404633815
 30
0.0
 10
-47.5426244684
 20
-0.8687016939
 30
0.0
 10
-47.5154043302
 20
-0.8186832327
 30
0.0
 10
-47.5005582565
 20
-0.7898053813
 30
0.0
 10
-47.4874393212
 20
-0.7689732647
 30
0.0
 10
-47.4819037605
 20
-0.7449839974
 30
0.0
 10
-47.4718770554
 20
-0.7140997933
 30
0.0
 10
-47.4555710634
 20
-0.6595368651
 30
0.0
 10
-47.4315641985
 20
-0.5818784331
 30
0.0
 10
-47.4080443785
 20
-0.5040476081
 30
0.0
 10
-47.3910565235
 20
-0.4497260302
 30
0.0
 10
-47.3821013175
 20
-0.4184625613
 30
0.0
 10
-47.3732782029
 20
-0.3956369474
 30
0.0
 10
-47.3725058586
 20
-0.3704346659
 30
0.0
 10
-47.368667045
 20
-0.3376605676
 30
0.0
 10
-47.3632661487
 20
-0.2799203234
 30
0.0
 10
-47.3547956042
 20
-0.1976306263
 30
0.0
 10
-47.3468363494
 20
-0.115289888
 30
0.0
 10
-47.3407196475
 20
-0.0576211015
 30
0.0
 10
-47.3380056714
 20
-0.0247347124
 30
0.0
 10
-47.333782121
 20
0.0001230404
 30
0.0
 10
-47.3379202029
 20
0.0242425508
 30
0.0
 10
-47.3405202203
 20
0.05665956
 30
0.0
 10
-47.3464375015
 20
0.1132677227
 30
0.0
 10
-47.3541118122
 20
0.1942126102
 30
0.0
 10
-47.3622976286
 20
0.2750847884
 30
0.0
 10
-47.3674988018
 20
0.331794744
 30
0.0
 10
-47.3712241319
 20
0.3640517929
 30
0.0
 10
-47.3719095499
 20
0.3886620909
 30
0.0
 10
-47.3806526704
 20
0.4116766633
 30
0.0
 10
-47.3894987986
 20
0.442919671
 30
0.0
 10
-47.4062969051
 20
0.4973324064
 30
0.0
 10
-47.4295449745
 20
0.5752267086
 30
0.0
 10
-47.453280647
 20
0.6529737723
 30
0.0
 10
-47.4693961091
 20
0.7075926416
 30
0.0
 10
-47.4793149642
 20
0.7385117246
 30
0.0
 10
-47.4847667635
 20
0.7625201568
 30
0.0
 10
-47.497812921
 20
0.7833979591
 30
0.0
 10
-47.5125580739
 20
0.8123274204
 30
0.0
 10
-47.5396039367
 20
0.8624410708
 30
0.0
 10
-47.5775329601
 20
0.9343318775
 30
0.0
 10
-47.615928258
 20
1.0060001392
 30
0.0
 10
-47.6423213364
 20
1.0564253525
 30
0.0
 10
-47.6580922935
 20
1.0848652149
 30
0.0
 10
-47.6679910975
 20
1.1072451958
 30
0.0
 10
-47.6852629575
 20
1.125612113
 30
0.0
 10
-47.7057197639
 20
1.1515017648
 30
0.0
 10
-47.7427230534
 20
1.1961498752
 30
0.0
 10
-47.7949122145
 20
1.2603279698
 30
0.0
 10
-47.8474989982
 20
1.3241805646
 30
0.0
 10
-47.883945616
 20
1.3692843749
 30
0.0
 10
-47.9052771921
 20
1.3944579268
 30
0.0
 10
-47.9198650995
 20
1.4150219685
 30
0.0
 10
-47.939843637
 20
1.4291505263
 30
0.0
 10
-47.9646009229
 20
1.4502340434
 30
0.0
 10
-48.0088069918
 20
1.486077272
 30
0.0
 10
-48.0714615103
 20
1.5378865672
 30
0.0
 10
-48.1344263127
 20
1.5892827048
 30
0.0
 10
-48.1781979843
 20
1.6257043539
 30
0.0
 10
-48.2036378945
 20
1.6458789244
 30
0.0
 10
-48.2215220164
 20
1.6627962955
 30
0.0
 10
-48.2439756178
 20
1.6728867942
 30
0.0
 10
-48.2723195529
 20
1.6887228267
 30
0.0
 10
-48.3226673621
 20
1.7153185765
 30
0.0
 10
-48.39417743
 20
1.7539567942
 30
0.0
 10
-48.4659281879
 20
1.7921460585
 30
0.0
 10
-48.5159390311
 20
1.8193703431
 30
0.0
 10
-48.5448124842
 20
1.8342186783
 30
0.0
 10
-48.5656414281
 20
1.8473396119
 30
0.0
 10
-48.5896270416
 20
1.8528760159
 30
0.0
 10
-48.620506542
 20
1.8629042483
 30
0.0
 10
-48.6750611599
 20
1.8792127243
 30
0.0
 10
-48.7527077639
 20
1.9032232449
 30
0.0
 10
-48.8305267358
 20
1.9267466519
 30
0.0
 10
-48.8848400388
 20
1.943737087
 30
0.0
 10
-48.9160987484
 20
1.9526936693
 30
0.0
 10
-48.9389208789
 20
1.9615180908
 30
0.0
 10
-48.9641193481
 20
1.9622906919
 30
0.0
 10
-48.9968884119
 20
1.9661293972
 30
0.0
 10
-49.0546204869
 20
1.9715385132
 30
0.0
 10
-49.1368928366
 20
1.9799504108
 30
0.0
 10
-49.2357066902
 20
1.9897497879
 30
0.0
 10
-49.3015660147
 20
1.9963388775
 30
0.0
 10
-49.3344977492
 20
1.9996264008
 30
0.0
 11
-49.3344975744
 21
-1.9996264008
 31
0.0
 11
-49.2374133289
 21
-1.9901057573
 31
0.0
 11
-49.1403290834
 21
-1.9805851137
 31
0.0
 11
-49.0432448379
 21
-1.9710644702
 31
0.0
 11
-48.9947027151
 21
-1.9663041484
 31
0.0
 11
-48.9704316537
 21
-1.9639239875
 31
0.0
 11
-48.9461605923
 21
-1.9615438267
 31
0.0
 11
-48.9228140082
 21
-1.9544940036
 31
0.0
 11
-48.899467424
 21
-1.9474441805
 31
0.0
 11
-48.8527742556
 21
-1.9333445344
 31
0.0
 11
-48.7593879188
 21
-1.9051452421
 31
0.0
 11
-48.6660015821
 21
-1.8769459499
 31
0.0
 11
-48.6193084137
 21
-1.8628463037
 31
0.0
 11
-48.5959618295
 21
-1.8557964807
 31
0.0
 11
-48.5726152453
 21
-1.8487466576
 31
0.0
 11
-48.5510824024
 21
-1.8372956979
 31
0.0
 11
-48.5295495596
 21
-1.8258447382
 31
0.0
 11
-48.4864838738
 21
-1.8029428189
 31
0.0
 11
-48.4003525024
 21
-1.7571389802
 31
0.0
 11
-48.3142211309
 21
-1.7113351414
 31
0.0
 11
-48.2711554452
 21
-1.6884332221
 31
0.0
 11
-48.2496226023
 21
-1.6769822624
 31
0.0
 11
-48.2280897595
 21
-1.6655313027
 31
0.0
 11
-48.2088818706
 21
-1.649807433
 31
0.0
 11
-48.1896739818
 21
-1.6340835634
 31
0.0
 11
-48.1512582041
 21
-1.602635824
 31
0.0
 11
-48.0744266487
 21
-1.5397403453
 31
0.0
 11
-47.9975950933
 21
-1.4768448666
 31
0.0
 11
-47.9591793156
 21
-1.4453971272
 31
0.0
 11
-47.9399714267
 21
-1.4296732575
 31
0.0
 11
-47.9207635379
 21
-1.4139493879
 31
0.0
 11
-47.9052840773
 21
-1.3951015136
 31
0.0
 11
-47.8898046168
 21
-1.3762536393
 31
0.0
 11
-47.8588456958
 21
-1.3385578907
 31
0.0
 11
-47.7969278537
 21
-1.2631663936
 31
0.0
 11
-47.7350100116
 21
-1.1877748965
 31
0.0
 11
-47.7040510906
 21
-1.150079148
 31
0.0
 11
-47.6885716301
 21
-1.1312312737
 31
0.0
 11
-47.6730921696
 21
-1.1123833994
 31
0.0
 11
-47.66156786
 21
-1.090887379
 31
0.0
 11
-47.6500435505
 21
-1.0693913586
 31
0.0
 11
-47.6269949314
 21
-1.0263993178
 31
0.0
 11
-47.5808976933
 21
-0.9404152362
 31
0.0
 11
-47.5348004551
 21
-0.8544311545
 31
0.0
 11
-47.5117518361
 21
-0.8114391137
 31
0.0
 11
-47.5002275265
 21
-0.7899430933
 31
0.0
 11
-47.488703217
 21
-0.7684470729
 31
0.0
 11
-47.4815730158
 21
-0.7451216831
 31
0.0
 11
-47.4744428146
 21
-0.7217962933
 31
0.0
 11
-47.4601824122
 21
-0.6751455137
 31
0.0
 11
-47.4316616075
 21
-0.5818439545
 31
0.0
 11
-47.4031408027
 21
-0.4885423953
 31
0.0
 11
-47.3888804003
 21
-0.4418916157
 31
0.0
 11
-47.3817501991
 21
-0.4185662259
 31
0.0
 11
-47.374619998
 21
-0.3952408361
 31
0.0
 11
-47.372154731
 21
-0.3705382839
 31
0.0
 11
-47.369689464
 21
-0.3458357316
 31
0.0
 11
-47.3647589301
 21
-0.2964306271
 31
0.0
 11
-47.3548978622
 21
-0.1976204181
 31
0.0
 11
-47.3450367942
 21
-0.098810209
 31
0.0
 11
-47.3401062603
 21
-0.0494051045
 31
0.0
 11
-47.3376409933
 21
-0.0247025523
 31
0.0
 11
-47.3351757263
 21
0.0
 31
0.0
 11
-47.3375555247
 21
0.0242747585
 31
0.0
 11
-47.3399353231
 21
0.0485495171
 31
0.0
 11
-47.3446949198
 21
0.0970990342
 31
0.0
 11
-47.3542141133
 21
0.1941980683
 31
0.0
 11
-47.3637333068
 21
0.2912971025
 31
0.0
 11
-47.3684929036
 21
0.3398466196
 31
0.0
 11
-47.370872702
 21
0.3641213781
 31
0.0
 11
-47.3732525003
 21
0.3883961366
 31
0.0
 11
-47.3803012497
 21
0.4117462772
 31
0.0
 11
-47.387349999
 21
0.4350964177
 31
0.0
 11
-47.4014474977
 21
0.4817966988
 31
0.0
 11
-47.4296424951
 21
0.5751972609
 31
0.0
 11
-47.4578374925
 21
0.668597823
 31
0.0
 11
-47.4719349912
 21
0.7152981041
 31
0.0
 11
-47.4789837405
 21
0.7386482446
 31
0.0
 11
-47.4860324899
 21
0.7619983851
 31
0.0
 11
-47.4974817055
 21
0.783534508
 31
0.0
 11
-47.5089309211
 21
0.805070631
 31
0.0
 11
-47.5318293524
 21
0.8481428768
 31
0.0
 11
-47.577626215
 21
0.9342873685
 31
0.0
 11
-47.6234230776
 21
1.0204318602
 31
0.0
 11
-47.6463215088
 21
1.063504106
 31
0.0
 11
-47.6577707245
 21
1.0850402289
 31
0.0
 11
-47.6692199401
 21
1.1065763519
 31
0.0
 11
-47.684941415
 21
1.1257871666
 31
0.0
 11
-47.7006628898
 21
1.1449979814
 31
0.0
 11
-47.7321058396
 21
1.1834196109
 31
0.0
 11
-47.794991739
 21
1.2602628699
 31
0.0
 11
-47.8578776384
 21
1.3371061289
 31
0.0
 11
-47.8893205881
 21
1.3755277584
 31
0.0
 11
-47.905042063
 21
1.3947385731
 31
0.0
 11
-47.9207635379
 21
1.4139493879
 31
0.0
 11
-47.9396085415
 21
1.4294312063
 31
0.0
 11
-47.9584535452
 21
1.4449130248
 31
0.0
 11
-47.9961435525
 21
1.4758766618
 31
0.0
 11
-48.0715235671
 21
1.5378039356
 31
0.0
 11
-48.1469035817
 21
1.5997312095
 31
0.0
 11
-48.184593589
 21
1.6306948465
 31
0.0
 11
-48.2034385927
 21
1.646176665
 31
0.0
 11
-48.2222835963
 21
1.6616584834
 31
0.0
 11
-48.2437763428
 21
1.6731845484
 31
0.0
 11
-48.2652690893
 21
1.6847106135
 31
0.0
 11
-48.3082545822
 21
1.7077627435
 31
0.0
 11
-48.394225568
 21
1.7538670035
 31
0.0
 11
-48.4801965539
 21
1.7999712636
 31
0.0
 11
-48.5231820468
 21
1.8230233936
 31
0.0
 11
-48.5446747932
 21
1.8345494586
 31
0.0
 11
-48.5661675397
 21
1.8460755236
 31
0.0
 11
-48.5894893769
 21
1.853206811
 31
0.0
 11
-48.6128112141
 21
1.8603380983
 31
0.0
 11
-48.6594548886
 21
1.8746006729
 31
0.0
 11
-48.7527422375
 21
1.9031258222
 31
0.0
 11
-48.8460295864
 21
1.9316509715
 31
0.0
 11
-48.8926732609
 21
1.9459135461
 31
0.0
 11
-48.9159950981
 21
1.9530448334
 31
0.0
 11
-48.9393169353
 21
1.9601761207
 31
0.0
 11
-48.9640157362
 21
1.9626417632
 31
0.0
 11
-48.9887145371
 21
1.9651074057
 31
0.0
 11
-49.0381121388
 21
1.9700386908
 31
0.0
 11
-49.1369073422
 21
1.9799012608
 31
0.0
 11
-49.2357025457
 21
1.9897638308
 31
0.0
 11
-49.3344977492
 21
1.9996264008
 31
0.0
  0
SPLINE
  5
62D
100
AcDbEntity
  8
CURVE
100
AcDbSpline
 62
253
  6
CONTINUOUS
 70
0
 71
3
 72
131
 73
127
 74
125
 42
0.0000001
 43
0.0000001
 44
0.0000000001
 12
-6.2133917125
 22
-0.6093211866
 32
0.0
 13
6.3228930213
 23
-0.6312044813
 33
0.0
 40
0.0
 40
0.0
 40
0.0
 40
0.0
 40
0.015625
 40
0.03125
 40
0.046875
 40
0.0546875
 40
0.05859375
 40
0.0625
 40
0.06640625
 40
0.0703125
 40
0.078125
 40
0.09375
 40
0.109375
 40
0.1171875
 40
0.12109375
 40
0.125
 40
0.12890625
 40
0.1328125
 40
0.140625
 40
0.15625
 40
0.171875
 40
0.1796875
 40
0.18359375
 40
0.1875
 40
0.19140625
 40
0.1953125
 40
0.203125
 40
0.21875
 40
0.234375
 40
0.2421875
 40
0.24609375
 40
0.25
 40
0.25390625
 40
0.2578125
 40
0.265625
 40
0.28125
 40
0.296875
 40
0.3046875
 40
0.30859375
 40
0.3125
 40
0.31640625
 40
0.3203125
 40
0.328125
 40
0.34375
 40
0.359375
 40
0.3671875
 40
0.37109375
 40
0.375
 40
0.37890625
 40
0.3828125
 40
0.390625
 40
0.40625
 40
0.421875
 40
0.4296875
 40
0.43359375
 40
0.4375
 40
0.44140625
 40
0.4453125
 40
0.453125
 40
0.46875
 40
0.484375
 40
0.4921875
 40
0.49609375
 40
0.5
 40
0.50390625
 40
0.5078125
 40
0.515625
 40
0.53125
 40
0.546875
 40
0.5546875
 40
0.55859375
 40
0.5625
 40
0.56640625
 40
0.5703125
 40
0.578125
 40
0.59375
 40
0.609375
 40
0.6171875
 40
0.62109375
 40
0.625
 40
0.62890625
 40
0.6328125
 40
0.640625
 40
0.65625
 40
0.671875
 40
0.6796875
 40
0.68359375
 40
0.6875
 40
0.69140625
 40
0.6953125
 40
0.703125
 40
0.71875
 40
0.734375
 40
0.7421875
 40
0.74609375
 40
0.75
 40
0.75390625
 40
0.7578125
 40
0.765625
 40
0.78125
 40
0.796875
 40
0.8046875
 40
0.80859375
 40
0.8125
 40
0.81640625
 40
0.8203125
 40
0.828125
 40
0.84375
 40
0.859375
 40
0.8671875
 40
0.87109375
 40
0.875
 40
0.87890625
 40
0.8828125
 40
0.890625
 40
0.90625
 40
0.921875
 40
0.9296875
 40
0.93359375
 40
0.9375
 40
0.94140625
 40
0.9453125
 40
0.953125
 40
0.96875
 40
0.984375
 40
1.0
 40
1.0
 40
1.0
 40
1.0
 10
-49.3344975744
 20
1.9996264008
 30
0.0
 10
-49.3668589895
 20
1.996452853
 30
0.0
 10
-49.4315790373
 20
1.9900917023
 30
0.0
 10
-49.5286758045
 20
1.980634306
 30
0.0
 10
-49.6095410818
 20
1.9725071809
 30
0.0
 10
-49.6662417318
 20
1.9672978183
 30
0.0
 10
-49.6984939303
 20
1.9635726139
 30
0.0
 10
-49.7231004675
 20
1.9628869522
 30
0.0
 10
-49.746111538
 20
1.954142537
 30
0.0
 10
-49.7773497861
 20
1.9452950493
 30
0.0
 10
-49.8317542349
 20
1.9284943915
 30
0.0
 10
-49.909636673
 20
1.9052427765
 30
0.0
 10
-49.9873718956
 20
1.8815034896
 30
0.0
 10
-50.0419824462
 20
1.8653855725
 30
0.0
 10
-50.0728968201
 20
1.8554652065
 30
0.0
 10
-50.0969015956
 20
1.8500125767
 30
0.0
 10
-50.1177762182
 20
1.836964432
 30
0.0
 10
-50.1467012734
 20
1.822217033
 30
0.0
 10
-50.1968072912
 20
1.7951670503
 30
0.0
 10
-50.2686871486
 20
1.7572322493
 30
0.0
 10
-50.3403444949
 20
1.7188311026
 30
0.0
 10
-50.3907620282
 20
1.6924340038
 30
0.0
 10
-50.4191975591
 20
1.6766606445
 30
0.0
 10
-50.4415741314
 20
1.6667603326
 30
0.0
 10
-50.4599382512
 20
1.6494858415
 30
0.0
 10
-50.4858239599
 20
1.629025919
 30
0.0
 10
-50.5304652701
 20
1.5920169929
 30
0.0
 10
-50.5946335902
 20
1.5398198819
 30
0.0
 10
-50.6584764599
 20
1.4872250878
 30
0.0
 10
-50.7035734006
 20
1.4507729181
 30
0.0
 10
-50.7287431185
 20
1.4294380926
 30
0.0
 10
-50.7493040282
 20
1.4148479631
 30
0.0
 10
-50.7634304342
 20
1.3948663822
 30
0.0
 10
-50.7845107401
 20
1.3701053252
 30
0.0
 10
-50.8203485096
 20
1.3258925225
 30
0.0
 10
-50.872149914
 20
1.2632284598
 30
0.0
 10
-50.9235382237
 20
1.2002540662
 30
0.0
 10
-50.9599543256
 20
1.1564757269
 30
0.0
 10
-50.9801258235
 20
1.1310319416
 30
0.0
 10
-50.997040618
 20
1.1131450953
 30
0.0
 10
-51.0071295798
 20
1.0906880736
 30
0.0
 10
-51.0229632004
 20
1.062339821
 30
0.0
 10
-51.0495548996
 20
1.0119843424
 30
0.0
 10
-51.0881872325
 20
0.9404633815
 30
0.0
 10
-51.1263706804
 20
0.8687016939
 30
0.0
 10
-51.1535908185
 20
0.8186832327
 30
0.0
 10
-51.1684368922
 20
0.7898053813
 30
0.0
 10
-51.1815558275
 20
0.7689732647
 30
0.0
 10
-51.1870913883
 20
0.7449839974
 30
0.0
 10
-51.1971180934
 20
0.7140997933
 30
0.0
 10
-51.2134240853
 20
0.6595368651
 30
0.0
 10
-51.2374309503
 20
0.5818784331
 30
0.0
 10
-51.2609507702
 20
0.5040476081
 30
0.0
 10
-51.2779386252
 20
0.4497260302
 30
0.0
 10
-51.2868938313
 20
0.4184625613
 30
0.0
 10
-51.2957169459
 20
0.3956369474
 30
0.0
 10
-51.2964892901
 20
0.3704346659
 30
0.0
 10
-51.3003281038
 20
0.3376605676
 30
0.0
 10
-51.305729
 20
0.2799203234
 30
0.0
 10
-51.3141995446
 20
0.1976306263
 30
0.0
 10
-51.3221587993
 20
0.115289888
 30
0.0
 10
-51.3282755013
 20
0.0576211015
 30
0.0
 10
-51.3309894774
 20
0.0247347124
 30
0.0
 10
-51.3352130278
 20
-0.0001230404
 30
0.0
 10
-51.3310749459
 20
-0.0242425508
 30
0.0
 10
-51.3284749285
 20
-0.05665956
 30
0.0
 10
-51.3225576472
 20
-0.1132677227
 30
0.0
 10
-51.3148833366
 20
-0.1942126102
 30
0.0
 10
-51.3066975201
 20
-0.2750847884
 30
0.0
 10
-51.3014963469
 20
-0.331794744
 30
0.0
 10
-51.2977710169
 20
-0.3640517929
 30
0.0
 10
-51.2970855988
 20
-0.3886620909
 30
0.0
 10
-51.2883424783
 20
-0.4116766633
 30
0.0
 10
-51.2794963502
 20
-0.442919671
 30
0.0
 10
-51.2626982437
 20
-0.4973324064
 30
0.0
 10
-51.2394501743
 20
-0.5752267086
 30
0.0
 10
-51.2157145018
 20
-0.6529737723
 30
0.0
 10
-51.1995990397
 20
-0.7075926416
 30
0.0
 10
-51.1896801846
 20
-0.7385117246
 30
0.0
 10
-51.1842283852
 20
-0.7625201568
 30
0.0
 10
-51.1711822278
 20
-0.7833979591
 30
0.0
 10
-51.1564370749
 20
-0.8123274204
 30
0.0
 10
-51.1293912121
 20
-0.8624410708
 30
0.0
 10
-51.0914621887
 20
-0.9343318775
 30
0.0
 10
-51.0530668907
 20
-1.0060001392
 30
0.0
 10
-51.0266738123
 20
-1.0564253525
 30
0.0
 10
-51.0109028553
 20
-1.0848652149
 30
0.0
 10
-51.0010040513
 20
-1.1072451958
 30
0.0
 10
-50.9837321912
 20
-1.125612113
 30
0.0
 10
-50.9632753849
 20
-1.1515017648
 30
0.0
 10
-50.9262720954
 20
-1.1961498752
 30
0.0
 10
-50.8740829343
 20
-1.2603279698
 30
0.0
 10
-50.8214961506
 20
-1.3241805646
 30
0.0
 10
-50.7850495328
 20
-1.3692843749
 30
0.0
 10
-50.7637179566
 20
-1.3944579268
 30
0.0
 10
-50.7491300493
 20
-1.4150219685
 30
0.0
 10
-50.7291515117
 20
-1.4291505263
 30
0.0
 10
-50.7043942259
 20
-1.4502340434
 30
0.0
 10
-50.660188157
 20
-1.486077272
 30
0.0
 10
-50.5975336384
 20
-1.5378865672
 30
0.0
 10
-50.5345688361
 20
-1.5892827048
 30
0.0
 10
-50.4907971645
 20
-1.6257043539
 30
0.0
 10
-50.4653572543
 20
-1.6458789244
 30
0.0
 10
-50.4474731323
 20
-1.6627962955
 30
0.0
 10
-50.4250195309
 20
-1.6728867942
 30
0.0
 10
-50.3966755959
 20
-1.6887228267
 30
0.0
 10
-50.3463277866
 20
-1.7153185765
 30
0.0
 10
-50.2748177187
 20
-1.7539567942
 30
0.0
 10
-50.2030669608
 20
-1.7921460585
 30
0.0
 10
-50.1530561176
 20
-1.8193703431
 30
0.0
 10
-50.1241826645
 20
-1.8342186783
 30
0.0
 10
-50.1033537207
 20
-1.8473396119
 30
0.0
 10
-50.0793681071
 20
-1.8528760159
 30
0.0
 10
-50.0484886068
 20
-1.8629042483
 30
0.0
 10
-49.9939339888
 20
-1.8792127243
 30
0.0
 10
-49.9162873848
 20
-1.9032232449
 30
0.0
 10
-49.838468413
 20
-1.9267466519
 30
0.0
 10
-49.78415511
 20
-1.943737087
 30
0.0
 10
-49.7528964004
 20
-1.9526936693
 30
0.0
 10
-49.7300742699
 20
-1.9615180908
 30
0.0
 10
-49.7048758007
 20
-1.9622906919
 30
0.0
 10
-49.6721067369
 20
-1.9661293972
 30
0.0
 10
-49.6143746618
 20
-1.9715385132
 30
0.0
 10
-49.5321023122
 20
-1.9799504108
 30
0.0
 10
-49.4332884586
 20
-1.9897497879
 30
0.0
 10
-49.3674291341
 20
-1.9963388775
 30
0.0
 10
-49.3344973996
 20
-1.9996264008
 30
0.0
 11
-49.3344975744
 21
1.9996264008
 31
0.0
 11
-49.4315818199
 21
1.9901057573
 31
0.0
 11
-49.5286660654
 21
1.9805851137
 31
0.0
 11
-49.6257503109
 21
1.9710644702
 31
0.0
 11
-49.6742924337
 21
1.9663041484
 31
0.0
 11
-49.698563495
 21
1.9639239875
 31
0.0
 11
-49.7228345564
 21
1.9615438267
 31
0.0
 11
-49.7461811406
 21
1.9544940036
 31
0.0
 11
-49.7695277248
 21
1.9474441805
 31
0.0
 11
-49.8162208932
 21
1.9333445344
 31
0.0
 11
-49.9096072299
 21
1.9051452421
 31
0.0
 11
-50.0029935667
 21
1.8769459499
 31
0.0
 11
-50.0496867351
 21
1.8628463037
 31
0.0
 11
-50.0730333193
 21
1.8557964807
 31
0.0
 11
-50.0963799035
 21
1.8487466576
 31
0.0
 11
-50.1179127463
 21
1.8372956979
 31
0.0
 11
-50.1394455892
 21
1.8258447382
 31
0.0
 11
-50.1825112749
 21
1.8029428189
 31
0.0
 11
-50.2686426464
 21
1.7571389802
 31
0.0
 11
-50.3547740178
 21
1.7113351414
 31
0.0
 11
-50.3978397036
 21
1.6884332221
 31
0.0
 11
-50.4193725464
 21
1.6769822624
 31
0.0
 11
-50.4409053893
 21
1.6655313027
 31
0.0
 11
-50.4601132781
 21
1.649807433
 31
0.0
 11
-50.479321167
 21
1.6340835634
 31
0.0
 11
-50.5177369447
 21
1.602635824
 31
0.0
 11
-50.5945685001
 21
1.5397403453
 31
0.0
 11
-50.6714000555
 21
1.4768448666
 31
0.0
 11
-50.7098158332
 21
1.4453971272
 31
0.0
 11
-50.729023722
 21
1.4296732575
 31
0.0
 11
-50.7482316109
 21
1.4139493879
 31
0.0
 11
-50.7637110714
 21
1.3951015136
 31
0.0
 11
-50.7791905319
 21
1.3762536393
 31
0.0
 11
-50.810149453
 21
1.3385578907
 31
0.0
 11
-50.872067295
 21
1.2631663936
 31
0.0
 11
-50.9339851371
 21
1.1877748965
 31
0.0
 11
-50.9649440581
 21
1.150079148
 31
0.0
 11
-50.9804235187
 21
1.1312312737
 31
0.0
 11
-50.9959029792
 21
1.1123833994
 31
0.0
 11
-51.0074272887
 21
1.090887379
 31
0.0
 11
-51.0189515983
 21
1.0693913586
 31
0.0
 11
-51.0420002173
 21
1.0263993178
 31
0.0
 11
-51.0880974555
 21
0.9404152362
 31
0.0
 11
-51.1341946936
 21
0.8544311545
 31
0.0
 11
-51.1572433127
 21
0.8114391137
 31
0.0
 11
-51.1687676222
 21
0.7899430933
 31
0.0
 11
-51.1802919318
 21
0.7684470729
 31
0.0
 11
-51.187422133
 21
0.7451216831
 31
0.0
 11
-51.1945523342
 21
0.7217962933
 31
0.0
 11
-51.2088127365
 21
0.6751455137
 31
0.0
 11
-51.2373335413
 21
0.5818439545
 31
0.0
 11
-51.265854346
 21
0.4885423953
 31
0.0
 11
-51.2801147484
 21
0.4418916157
 31
0.0
 11
-51.2872449496
 21
0.4185662259
 31
0.0
 11
-51.2943751508
 21
0.3952408361
 31
0.0
 11
-51.2968404178
 21
0.3705382839
 31
0.0
 11
-51.2993056848
 21
0.3458357316
 31
0.0
 11
-51.3042362187
 21
0.2964306271
 31
0.0
 11
-51.3140972866
 21
0.1976204181
 31
0.0
 11
-51.3239583545
 21
0.098810209
 31
0.0
 11
-51.3288888885
 21
0.0494051045
 31
0.0
 11
-51.3313541554
 21
0.0247025523
 31
0.0
 11
-51.3338194224
 21
0.0
 31
0.0
 11
-51.331439624
 21
-0.0242747585
 31
0.0
 11
-51.3290598257
 21
-0.0485495171
 31
0.0
 11
-51.3243002289
 21
-0.0970990342
 31
0.0
 11
-51.3147810354
 21
-0.1941980683
 31
0.0
 11
-51.3052618419
 21
-0.2912971025
 31
0.0
 11
-51.3005022452
 21
-0.3398466196
 31
0.0
 11
-51.2981224468
 21
-0.3641213781
 31
0.0
 11
-51.2957426484
 21
-0.3883961366
 31
0.0
 11
-51.2886938991
 21
-0.4117462772
 31
0.0
 11
-51.2816451497
 21
-0.4350964177
 31
0.0
 11
-51.267547651
 21
-0.4817966988
 31
0.0
 11
-51.2393526537
 21
-0.5751972609
 31
0.0
 11
-51.2111576563
 21
-0.668597823
 31
0.0
 11
-51.1970601576
 21
-0.7152981041
 31
0.0
 11
-51.1900114082
 21
-0.7386482446
 31
0.0
 11
-51.1829626589
 21
-0.7619983851
 31
0.0
 11
-51.1715134433
 21
-0.783534508
 31
0.0
 11
-51.1600642276
 21
-0.805070631
 31
0.0
 11
-51.1371657963
 21
-0.8481428768
 31
0.0
 11
-51.0913689338
 21
-0.9342873685
 31
0.0
 11
-51.0455720712
 21
-1.0204318602
 31
0.0
 11
-51.0226736399
 21
-1.063504106
 31
0.0
 11
-51.0112244243
 21
-1.0850402289
 31
0.0
 11
-50.9997752086
 21
-1.1065763519
 31
0.0
 11
-50.9840537338
 21
-1.1257871666
 31
0.0
 11
-50.9683322589
 21
-1.1449979814
 31
0.0
 11
-50.9368893092
 21
-1.1834196109
 31
0.0
 11
-50.8740034098
 21
-1.2602628699
 31
0.0
 11
-50.8111175103
 21
-1.3371061289
 31
0.0
 11
-50.7796745606
 21
-1.3755277584
 31
0.0
 11
-50.7639530858
 21
-1.3947385731
 31
0.0
 11
-50.7482316109
 21
-1.4139493879
 31
0.0
 11
-50.7293866072
 21
-1.4294312063
 31
0.0
 11
-50.7105416036
 21
-1.4449130248
 31
0.0
 11
-50.6728515963
 21
-1.4758766618
 31
0.0
 11
-50.5974715817
 21
-1.5378039356
 31
0.0
 11
-50.522091567
 21
-1.5997312095
 31
0.0
 11
-50.4844015597
 21
-1.6306948465
 31
0.0
 11
-50.4655565561
 21
-1.646176665
 31
0.0
 11
-50.4467115524
 21
-1.6616584834
 31
0.0
 11
-50.425218806
 21
-1.6731845484
 31
0.0
 11
-50.4037260595
 21
-1.6847106135
 31
0.0
 11
-50.3607405666
 21
-1.7077627435
 31
0.0
 11
-50.2747695807
 21
-1.7538670035
 31
0.0
 11
-50.1887985949
 21
-1.7999712636
 31
0.0
 11
-50.145813102
 21
-1.8230233936
 31
0.0
 11
-50.1243203555
 21
-1.8345494586
 31
0.0
 11
-50.1028276091
 21
-1.8460755236
 31
0.0
 11
-50.0795057718
 21
-1.853206811
 31
0.0
 11
-50.0561839346
 21
-1.8603380983
 31
0.0
 11
-50.0095402602
 21
-1.8746006729
 31
0.0
 11
-49.9162529112
 21
-1.9031258222
 31
0.0
 11
-49.8229655623
 21
-1.9316509715
 31
0.0
 11
-49.7763218879
 21
-1.9459135461
 31
0.0
 11
-49.7530000507
 21
-1.9530448334
 31
0.0
 11
-49.7296782134
 21
-1.9601761207
 31
0.0
 11
-49.7049794126
 21
-1.9626417632
 31
0.0
 11
-49.6802806117
 21
-1.9651074057
 31
0.0
 11
-49.63088301
 21
-1.9700386908
 31
0.0
 11
-49.5320878065
 21
-1.9799012608
 31
0.0
 11
-49.433292603
 21
-1.9897638308
 31
0.0
 11
-49.3344973996
 21
-1.9996264008
 31
0.0
  0
LINE
  5
62E
100
AcDbEntity
  8
DRAFT
100
AcDbLine
 62
7
  6
CONTINUOUS
 10
-43.3344975744
 20
22.663166622
 11
-42.887377643
 21
22.6610852533
  0
SPLINE
  5
62F
100
AcDbEntity
  8
DRAFT
100
AcDbSpline
 62
7
  6
CONTINUOUS
 70
0
 71
3
 72
8
 73
4
 74
2
 42
0.0000001
 43
0.0000001
 44
0.0000000001
 12
3.5528764954
 22
-0.0164430607
 32
0.0
 13
3.5528835875
 23
-0.0148316925
 33
0.0
 40
0.0
 40
0.0
 40
0.0
 40
0.0
 40
1.0
 40
1.0
 40
1.0
 40
1.0
 10
-42.887377643
 20
22.6610852533
 30
0.0
 10
-41.7030854779
 20
22.655604233
 30
0.0
 10
-40.5187921035
 20
22.6503771957
 30
0.0
 10
-39.3344975744
 20
22.6454332982
 30
0.0
 11
-42.887377643
 21
22.6610852533
 31
0.0
 11
-39.3344975744
 21
22.6454332982
 31
0.0
  0
SPLINE
  5
630
100
AcDbEntity
  8
DRAFT
100
AcDbSpline
 62
7
  6
CONTINUOUS
 70
0
 71
3
 72
8
 73
4
 74
2
 42
0.0000001
 43
0.0000001
 44
0.0000000001
 12
3.5586818198
 22
0.016661402
 32
0.0
 13
3.5586889303
 23
0.0150663172
 33
0.0
 40
0.0
 40
0.0
 40
0.0
 40
0.0
 40
1.0
 40
1.0
 40
1.0
 40
1.0
 10
-43.3344975744
 20
-22.663166622
 30
0.0
 10
-42.1482703011
 20
-22.6576128213
 30
0.0
 10
-40.9620418163
 20
-22.6523107702
 30
0.0
 10
-39.7758121729
 20
-22.6472886645
 30
0.0
 11
-43.3344975744
 21
-22.663166622
 31
0.0
 11
-39.7758121729
 21
-22.6472886645
 31
0.0
  0
LINE
  5
631
100
AcDbEntity
  8
DRAFT
100
AcDbLine
 62
7
  6
CONTINUOUS
 10
-39.7758121729
 20
-22.6472886645
 11
-39.3344975744
 21
-22.6454332982
  0
SPLINE
  5
632
100
AcDbEntity
  8
DRAFT
100
AcDbSpline
 62
7
  6
CONTINUOUS
 70
0
 71
3
 72
8
 73
4
 74
2
 42
0.0000001
 43
0.0000001
 44
0.0000000001
 12
4.0000092234
 22
0.0379979396
 32
0.0
 13
3.9999901392
 23
0.0399564424
 33
0.0
 40
0.0
 40
0.0
 40
0.0
 40
0.0
 40
1.0
 40
1.0
 40
1.0
 40
1.0
 10
-43.3344975744
 20
-23.1799085618
 30
0.0
 10
-42.0011611666
 20
-23.1672425819
 30
0.0
 10
-40.6678276208
 20
-23.1542705965
 30
0.0
 10
-39.3344975744
 20
-23.1409517823
 30
0.0
 11
-43.3344975744
 21
-23.1799085618
 31
0.0
 11
-39.3344975744
 21
-23.1409517823
 31
0.0
  0
LINE
  5
633
100
AcDbEntity
  8
RACCORDO
100
AcDbLine
 62
253
  6
CONTINUOUS
 10
-43.3344975744
 20
-18.2307790647
 11
-41.8344975744
 21
-18.1797639505
  0
LINE
  5
634
100
AcDbEntity
  8
RACCORDO
100
AcDbLine
 62
253
  6
CONTINUOUS
 10
-43.3344975744
 20
16.4632818589
 11
-41.8344975744
 21
16.4758271193
  0
LINE
  5
635
100
AcDbEntity
  8
RACCORDO
100
AcDbLine
 62
253
  6
CONTINUOUS
 10
-41.8344975744
 20
-17.0863903822
 11
-43.3344975744
 21
-17.0730847656
  0
LINE
  5
636
100
AcDbEntity
  8
RACCORDO
100
AcDbLine
 62
253
  6
CONTINUOUS
 10
-41.8344975744
 20
-16.4758271194
 11
-43.3344975744
 21
-16.463281859
  0
SPLINE
  5
637
100
AcDbEntity
  8
0
100
AcDbSpline
 62
253
  6
CONTINUOUS
 70
0
 71
3
 72
18
 73
14
 74
12
 42
0.0000001
 43
0.0000001
 44
0.0000000001
 12
-0.4991541606
 22
-0.0261595611
 32
0.0
 13
0.026151615
 23
-0.499154577
 33
0.0
 40
0.0
 40
0.0
 40
0.0
 40
0.0
 40
0.0051222386
 40
0.0196131415
 40
0.043474622
 40
0.0765561608
 40
0.1185173244
 40
0.1689349497
 40
0.2932632461
 40
0.4446673301
 40
0.6174269108
 40
0.8051406692
 40
1.0
 40
1.0
 40
1.0
 40
1.0
 10
-51.4457525943
 20
21.9749071372
 30
0.0
 10
-51.4466048565
 20
21.974862472
 30
0.0
 10
-51.4462492746
 20
21.9699374556
 30
0.0
 10
-51.4473368422
 20
21.9642662911
 30
0.0
 10
-51.4470709952
 20
21.9514876472
 30
0.0
 10
-51.4471606261
 20
21.9353906807
 30
0.0
 10
-51.4467485772
 20
21.9143446575
 30
0.0
 10
-51.4459206242
 20
21.8783153871
 30
0.0
 10
-51.4441535572
 20
21.8239597809
 30
0.0
 10
-51.4412906164
 20
21.7493072737
 30
0.0
 10
-51.4375994699
 20
21.6640956574
 30
0.0
 10
-51.4332367219
 20
21.5716745047
 30
0.0
 10
-51.4300094481
 20
21.5080140121
 30
0.0
 10
-51.4283108194
 20
21.4755923698
 30
0.0
 11
-51.4457525943
 21
21.9749071372
 31
0.0
 11
-51.4464768445
 21
21.9724514144
 31
0.0
 11
-51.4469450822
 21
21.9652234441
 31
0.0
 11
-51.4471515817
 21
21.9532983292
 31
0.0
 11
-51.4470914662
 21
21.9367629895
 31
0.0
 11
-51.4467661286
 21
21.9157916796
 31
0.0
 11
-51.4461797722
 21
21.8905977979
 31
0.0
 11
-51.4442461254
 21
21.8284837356
 31
0.0
 11
-51.4413684213
 21
21.7528607767
 31
0.0
 11
-51.4376538924
 21
21.6665887001
 31
0.0
 11
-51.4332394742
 21
21.5728659141
 31
0.0
 11
-51.4283108194
 21
21.4755923698
 31
0.0
  0
SPLINE
  5
638
100
AcDbEntity
  8
0
100
AcDbSpline
 62
253
  6
CONTINUOUS
 70
0
 71
3
 72
18
 73
14
 74
12
 42
0.0000001
 43
0.0000001
 44
0.0000000001
 12
-0.4991541552
 22
0.0261595608
 32
0.0
 13
0.0261514932
 23
0.499154578
 33
0.0
 40
0.0
 40
0.0
 40
0.0
 40
0.0
 40
0.0051222342
 40
0.0196131399
 40
0.0434746241
 40
0.0765561681
 40
0.1185173416
 40
0.1689349752
 40
0.2932632841
 40
0.4446673803
 40
0.6174269564
 40
0.8051406833
 40
1.0
 40
1.0
 40
1.0
 40
1.0
 10
-51.4457525943
 20
-21.9749071372
 30
0.0
 10
-51.4466048558
 20
-21.9748624721
 30
0.0
 10
-51.4462492533
 20
-21.96993745
 30
0.0
 10
-51.4473368266
 20
-21.9642662907
 30
0.0
 10
-51.4470709652
 20
-21.9514876417
 30
0.0
 10
-51.4471605926
 20
-21.9353906736
 30
0.0
 10
-51.4467485365
 20
-21.9143446463
 30
0.0
 10
-51.4459205775
 20
-21.8783153716
 30
0.0
 10
-51.4441535072
 20
-21.8239597604
 30
0.0
 10
-51.4412905696
 20
-21.7493072507
 30
0.0
 10
-51.4375994325
 20
-21.6640956389
 30
0.0
 10
-51.4332367
 20
-21.5716744948
 30
0.0
 10
-51.4300094401
 20
-21.5080140098
 30
0.0
 10
-51.4283108194
 20
-21.4755923698
 30
0.0
 11
-51.4457525943
 21
-21.9749071372
 31
0.0
 11
-51.4464768347
 21
-21.9724514138
 31
0.0
 11
-51.4469450635
 21
-21.9652234416
 31
0.0
 11
-51.4471515552
 21
-21.9532983249
 31
0.0
 11
-51.4470914327
 21
-21.9367629828
 31
0.0
 11
-51.4467660889
 21
-21.9157916683
 31
0.0
 11
-51.4461797278
 21
-21.8905977828
 31
0.0
 11
-51.4442460766
 21
-21.828483715
 31
0.0
 11
-51.4413683749
 21
-21.7528607508
 31
0.0
 11
-51.4376538553
 21
-21.666588677
 31
0.0
 11
-51.433239453
 21
-21.572865907
 31
0.0
 11
-51.4283108194
 21
-21.4755923698
 31
0.0
  0
SPLINE
  5
639
100
AcDbEntity
  8
DRAFT
100
AcDbSpline
 62
7
  6
CONTINUOUS
 70
0
 71
3
 72
8
 73
4
 74
2
 42
0.0000001
 43
0.0000001
 44
0.0000000001
 12
4.0000092234
 22
-0.0379979396
 32
0.0
 13
3.9999901392
 23
-0.0399564424
 33
0.0
 40
0.0
 40
0.0
 40
0.0
 40
0.0
 40
1.0
 40
1.0
 40
1.0
 40
1.0
 10
-43.3344975744
 20
23.1799085618
 30
0.0
 10
-42.0011611666
 20
23.1672425819
 30
0.0
 10
-40.6678276208
 20
23.1542705965
 30
0.0
 10
-39.3344975744
 20
23.1409517823
 30
0.0
 11
-43.3344975744
 21
23.1799085618
 31
0.0
 11
-39.3344975744
 21
23.1409517823
 31
0.0
  0
LINE
  5
63A
100
AcDbEntity
  8
RACCORDO
100
AcDbLine
 62
253
  6
CONTINUOUS
 10
-41.8344975744
 20
18.1797639505
 11
-43.3344975744
 21
18.2307790647
  0
LINE
  5
63B
100
AcDbEntity
  8
RACCORDO
100
AcDbLine
 62
253
  6
CONTINUOUS
 10
-43.3344975744
 20
17.0730847656
 11
-41.8344975744
 21
17.0863903821
  0
SPLINE
  5
63C
100
AcDbEntity
  8
0
100
AcDbSpline
 62
7
  6
CONTINUOUS
 70
0
 71
3
 72
14
 73
10
 74
8
 42
0.0000001
 43
0.0000001
 44
0.0000000001
 12
0.0
 22
0.9156970519
 32
0.0
 13
-0.9156970519
 23
0.0
 33
0.0
 40
0.0
 40
0.0
 40
0.0
 40
0.0
 40
0.0680364073
 40
0.148235742
 40
0.2472993607
 40
0.3665583806
 40
0.5056842008
 40
0.6609316112
 40
1.0
 40
1.0
 40
1.0
 40
1.0
 10
-20.6144975746
 20
-1.2538810671
 30
0.0
 10
-20.6144975746
 20
-1.2331141545
 30
0.0
 10
-20.6263912389
 20
-1.1874260347
 30
0.0
 10
-20.675557171
 20
-1.1281954029
 30
0.0
 10
-20.7503723731
 20
-1.0751873069
 30
0.0
 10
-20.8493527355
 20
-1.0282571725
 30
0.0
 10
-20.9700912627
 20
-0.9903251238
 30
0.0
 10
-21.1596241393
 20
-0.9511068288
 30
0.0
 10
-21.3110029331
 20
-0.9401307503
 30
0.0
 10
-21.4144975744
 20
-0.9401307503
 30
0.0
 11
-20.6144975746
 21
-1.2538810671
 31
0.0
 11
-20.6291181367
 21
-1.1933201798
 31
0.0
 11
-20.6736655776
 21
-1.1349360331
 31
0.0
 11
-20.7464927319
 21
-1.0808535002
 31
0.0
 11
-20.8446765877
 21
-1.0330445939
 31
0.0
 11
-20.9658662546
 21
-0.9937624531
 31
0.0
 11
-21.1049654876
 21
-0.9644238413
 31
0.0
 11
-21.4144975744
 21
-0.9401307503
 31
0.0
  0
SPLINE
  5
63D
100
AcDbEntity
  8
0
100
AcDbSpline
 62
253
  6
CONTINUOUS
 70
0
 71
3
 72
11
 73
7
 74
5
 42
0.0000001
 43
0.0000001
 44
0.0000000001
 12
-0.6447318546
 22
0.0238924061
 32
0.0
 13
-0.0
 23
0.6451744038
 33
0.0
 40
0.0
 40
0.0
 40
0.0
 40
0.0
 40
0.2882246335
 40
0.5546529692
 40
0.7895510406
 40
1.0
 40
1.0
 40
1.0
 40
1.0
 10
-37.8606655525
 20
-18.4669314929
 30
0.0
 10
-37.9226080867
 20
-18.4646360329
 30
0.0
 10
-38.0419713704
 20
-18.4446165422
 30
0.0
 10
-38.1970481796
 20
-18.369232872
 30
0.0
 10
-38.3063301051
 20
-18.2560344218
 30
0.0
 10
-38.3344975744
 20
-18.1591213956
 30
0.0
 10
-38.3344975744
 20
-18.1138626349
 30
0.0
 11
-37.8606655525
 21
-18.4669314929
 31
0.0
 11
-38.0438474049
 21
-18.4349357271
 31
0.0
 11
-38.1971700081
 21
-18.3572228303
 31
0.0
 11
-38.2988977379
 21
-18.2448887788
 31
0.0
 11
-38.3344975744
 21
-18.1138626349
 31
0.0
  0
SPLINE
  5
63E
100
AcDbEntity
  8
0
100
AcDbSpline
 62
253
  6
CONTINUOUS
 70
0
 71
3
 72
11
 73
7
 74
5
 42
0.0000001
 43
0.0000001
 44
0.0000000001
 12
0.0
 22
-0.6451746371
 32
0.0
 13
0.6447320877
 23
-0.0238924147
 33
0.0
 40
0.0
 40
0.0
 40
0.0
 40
0.0
 40
0.2106665197
 40
0.4457065358
 40
0.712145759
 40
1.0
 40
1.0
 40
1.0
 40
1.0
 10
-38.3344975744
 20
-19.3469060477
 30
0.0
 10
-38.3344975744
 20
-19.3922116129
 30
0.0
 10
-38.3062725274
 20
-19.4892008101
 30
0.0
 10
-38.1968847023
 20
-19.6024123161
 30
0.0
 10
-38.0418090152
 20
-19.6776876789
 30
0.0
 10
-37.9225285078
 20
-19.6976823947
 30
0.0
 10
-37.8606655525
 20
-19.6999749057
 30
0.0
 11
-38.3344975744
 21
-19.3469060477
 31
0.0
 11
-38.2988268938
 21
-19.4780584424
 31
0.0
 11
-38.1969860833
 21
-19.5904136922
 31
0.0
 11
-38.0436175355
 21
-19.6680515681
 31
0.0
 11
-37.8606655525
 21
-19.6999749057
 31
0.0
  0
SPLINE
  5
63F
100
AcDbEntity
  8
0
100
AcDbSpline
 62
253
  6
CONTINUOUS
 70
0
 71
3
 72
9
 73
5
 74
3
 42
0.0000001
 43
0.0000001
 44
0.0000000001
 12
-0.0033133688
 22
-0.1081017895
 32
0.0
 13
0.0
 23
-0.1081525557
 33
0.0
 40
0.0
 40
0.0
 40
0.0
 40
0.0
 40
0.3039435389
 40
1.0
 40
1.0
 40
1.0
 40
1.0
 10
-37.8606655525
 20
-19.6999749057
 30
0.0
 10
-37.8610012448
 20
-19.7109271858
 30
0.0
 10
-37.8620179796
 20
-19.7469627802
 30
0.0
 10
-37.8628149367
 20
-19.7830109565
 30
0.0
 10
-37.8628149367
 20
-19.8081043849
 30
0.0
 11
-37.8606655525
 21
-19.6999749057
 31
0.0
 11
-37.8615990013
 21
-19.7328339203
 31
0.0
 11
-37.8628149367
 21
-19.8081043849
 31
0.0
  0
SPLINE
  5
640
100
AcDbEntity
  8
0
100
AcDbSpline
 62
253
  6
CONTINUOUS
 70
0
 71
3
 72
10
 73
6
 74
4
 42
0.0000001
 43
0.0000001
 44
0.0000000001
 12
0.0
 22
-0.0377102666
 32
0.0
 13
0.0149845673
 23
-0.0346053023
 33
0.0
 40
0.0
 40
0.0
 40
0.0
 40
0.0
 40
0.6946472574
 40
0.896429314
 40
1.0
 40
1.0
 40
1.0
 40
1.0
 10
-37.8628149367
 20
-19.8081043849
 30
0.0
 10
-37.8628149367
 20
-19.8168361627
 30
0.0
 10
-37.8628786146
 20
-19.8281720107
 30
0.0
 10
-37.8619694948
 20
-19.8406162633
 30
0.0
 10
-37.8616293562
 20
-19.8445268319
 30
0.0
 10
-37.8611120356
 20
-19.8457215302
 30
0.0
 11
-37.8628149367
 21
-19.8081043849
 31
0.0
 11
-37.8623860223
 21
-19.8342962065
 31
0.0
 11
-37.8618529006
 21
-19.8418867628
 31
0.0
 11
-37.8611120356
 21
-19.8457215302
 31
0.0
  0
SPLINE
  5
641
100
AcDbEntity
  8
0
100
AcDbSpline
 62
7
  6
CONTINUOUS
 70
0
 71
3
 72
23
 73
19
 74
17
 42
0.0000001
 43
0.0000001
 44
0.0000000001
 12
0.9994851267
 22
0.0261724391
 32
0.0
 13
0.0002567867
 23
0.9998277097
 33
0.0
 40
0.0
 40
0.0
 40
0.0
 40
0.0
 40
0.0012119143
 40
0.0048311001
 40
0.010842421
 40
0.0192302226
 40
0.0299787931
 40
0.0430710065
 40
0.0761399821
 40
0.1180886362
 40
0.168543657
 40
0.227005262
 40
0.2929028216
 40
0.3656280987
 40
0.4444497235
 40
0.6173165952
 40
0.8049994108
 40
1.0
 40
1.0
 40
1.0
 40
1.0
 10
-35.4344974767
 20
-17.4749999974
 30
0.0
 10
-35.4340937133
 20
-17.4749894245
 30
0.0
 10
-35.4349450352
 20
-17.4724272462
 30
0.0
 10
-35.4340299456
 20
-17.4697310719
 30
0.0
 10
-35.4344502154
 20
-17.4632056831
 30
0.0
 10
-35.4341570415
 20
-17.4550540933
 30
0.0
 10
-35.4341512983
 20
-17.4442250701
 30
0.0
 10
-35.4339676458
 20
-17.4253008039
 30
0.0
 10
-35.4337992055
 20
-17.3959094065
 30
0.0
 10
-35.4335728452
 20
-17.3541045933
 30
0.0
 10
-35.4333969952
 20
-17.3038210069
 30
0.0
 10
-35.4332765361
 20
-17.2455611284
 30
0.0
 10
-35.4332419226
 20
-17.1798771711
 30
0.0
 10
-35.4333109911
 20
-17.1074083204
 30
0.0
 10
-35.4335150008
 20
-16.9992891548
 30
0.0
 10
-35.4339188268
 20
-16.8528578537
 30
0.0
 10
-35.4343791295
 20
-16.6677068902
 30
0.0
 10
-35.4345144061
 20
-16.540167689
 30
0.0
 10
-35.4344977149
 20
-16.4751786915
 30
0.0
 11
-35.4344974767
 21
-17.4749999974
 31
0.0
 11
-35.4344416014
 21
-17.4737895809
 31
0.0
 11
-35.4343783549
 21
-17.4701715713
 31
0.0
 11
-35.4343069925
 21
-17.4641617095
 31
0.0
 11
-35.4342267695
 21
-17.4557757365
 31
0.0
 11
-35.4341369411
 21
-17.445029393
 31
0.0
 11
-35.4340369967
 21
-17.4319398163
 31
0.0
 11
-35.4338177501
 21
-17.3988772641
 31
0.0
 11
-35.4336003495
 21
-17.3569363994
 31
0.0
 11
-35.4334174659
 21
-17.3064904013
 31
0.0
 11
-35.4332957709
 21
-17.2480389935
 31
0.0
 11
-35.4332585737
 21
-17.1821527956
 31
0.0
 11
-35.4333199162
 21
-17.1094400719
 31
0.0
 11
-35.4334630244
 21
-17.0306321546
 31
0.0
 11
-35.4338977048
 21
-16.8577956071
 31
0.0
 11
-35.4343293387
 21
-16.6701456178
 31
0.0
 11
-35.4344977149
 21
-16.4751786915
 31
0.0
  0
SPLINE
  5
642
100
AcDbEntity
  8
0
100
AcDbSpline
 62
253
  6
CONTINUOUS
 70
0
 71
3
 72
13
 73
9
 74
7
 42
0.0000001
 43
0.0000001
 44
0.0000000001
 12
-1.3062271344
 22
1.7841977834
 32
0.0
 13
-2.2104842342
 23
0.0578835668
 33
0.0
 40
0.0
 40
0.0
 40
0.0
 40
0.0
 40
0.1381364012
 40
0.2733021353
 40
0.4038800952
 40
0.5297345525
 40
0.7691637756
 40
1.0
 40
1.0
 40
1.0
 40
1.0
 10
-22.29134905
 20
16.1309797716
 30
0.0
 10
-22.3514948884
 20
16.2131339919
 30
0.0
 10
-22.4812115824
 20
16.3679237768
 30
0.0
 10
-22.6938705558
 20
16.5768190415
 30
0.0
 10
-22.920026866
 20
16.7571506261
 30
0.0
 10
-23.2296362132
 20
16.9524811593
 30
0.0
 10
-23.6390206437
 20
17.1234123456
 30
0.0
 10
-23.9858801179
 20
17.1752074012
 30
0.0
 10
-24.1559667295
 20
17.1796612759
 30
0.0
 11
-22.29134905
 21
16.1309797716
 31
0.0
 11
-22.4862460131
 21
16.3661748266
 31
0.0
 11
-22.6997911617
 21
16.5752924999
 31
0.0
 11
-22.9258709305
 21
16.7548987835
 31
0.0
 11
-23.1614257771
 21
16.9030940301
 31
0.0
 11
-23.6511186251
 21
17.1043484381
 31
0.0
 11
-24.1559667295
 21
17.1796612759
 31
0.0
  0
SPLINE
  5
643
100
AcDbEntity
  8
0
100
AcDbSpline
 62
253
  6
CONTINUOUS
 70
0
 71
3
 72
21
 73
17
 74
15
 42
0.0000001
 43
0.0000001
 44
0.0000000001
 12
0.9998028078
 22
0.0261807576
 32
0.0
 13
-0.0261716609
 23
0.9998030459
 33
0.0
 40
0.0
 40
0.0
 40
0.0
 40
0.0
 40
0.0015613857
 40
0.0054926
 40
0.0118695588
 40
0.0206564392
 40
0.0452539144
 40
0.0788477649
 40
0.1209829488
 40
0.1712003112
 40
0.2290391227
 40
0.2940379274
 40
0.4434126793
 40
0.6143516043
 40
0.8016243544
 40
1.0
 40
1.0
 40
1.0
 40
1.0
 10
-33.1690552012
 20
-17.4156773037
 30
0.0
 10
-33.1685348419
 20
-17.4156636776
 30
0.0
 10
-33.1679189624
 20
-17.4132540999
 30
0.0
 10
-33.1672770415
 20
-17.4099233184
 30
0.0
 10
-33.1666296468
 20
-17.4032759253
 30
0.0
 10
-33.1657435793
 20
-17.3902329217
 30
0.0
 10
-33.1649280665
 20
-17.3677811178
 30
0.0
 10
-33.1642535038
 20
-17.3344036053
 30
0.0
 10
-33.1638590564
 20
-17.2923927202
 30
0.0
 10
-33.1637427854
 20
-17.2423298626
 30
0.0
 10
-33.163914365
 20
-17.1846337613
 30
0.0
 10
-33.1645609468
 20
-17.0938863265
 30
0.0
 10
-33.1661457072
 20
-16.965438461
 30
0.0
 10
-33.169024423
 20
-16.796242674
 30
0.0
 10
-33.1729047065
 20
-16.6107266424
 30
0.0
 10
-33.1760474507
 20
-16.4821965991
 30
0.0
 10
-33.1777780574
 20
-16.4160844076
 30
0.0
 11
-33.1690552012
 21
-17.4156773037
 31
0.0
 11
-33.1682104537
 21
-17.4143638973
 31
0.0
 11
-33.1674395614
 21
-17.4105084246
 31
0.0
 11
-33.1667425119
 21
-17.404168743
 31
0.0
 11
-33.1661192922
 21
-17.3954027097
 31
0.0
 11
-33.1650942921
 21
-17.3708230173
 31
0.0
 11
-33.1643644596
 21
-17.3372322054
 31
0.0
 11
-33.1639296932
 21
-17.2950931323
 31
0.0
 11
-33.1637898913
 21
-17.2448686562
 31
0.0
 11
-33.1639449524
 21
-17.1870216351
 31
0.0
 11
-33.1643947751
 21
-17.1220149273
 31
0.0
 11
-33.1661655765
 21
-16.9726289314
 31
0.0
 11
-33.1690378464
 21
-16.8016892587
 31
0.0
 11
-33.1729344013
 21
-16.6144297903
 31
0.0
 11
-33.1777780574
 21
-16.4160844076
 31
0.0
  0
SPLINE
  5
644
100
AcDbEntity
  8
0
100
AcDbSpline
 62
7
  6
CONTINUOUS
 70
0
 71
3
 72
11
 73
7
 74
5
 42
0.0000001
 43
0.0000001
 44
0.0000000001
 12
0.6337934198
 22
-0.2950069234
 32
0.0
 13
0.6986614608
 23
0.0243997337
 33
0.0
 40
0.0
 40
0.0
 40
0.0
 40
0.0
 40
0.2715280077
 40
0.5351769623
 40
0.7819287838
 40
1.0
 40
1.0
 40
1.0
 40
1.0
 10
-31.7169654746
 20
-7.9318567533
 30
0.0
 10
-31.6596012531
 20
-7.958557634
 30
0.0
 10
-31.5466061118
 20
-8.0112533318
 30
0.0
 10
-31.3792448282
 20
-8.0838056305
 30
0.0
 10
-31.2194095483
 20
-8.1403012472
 30
0.0
 10
-31.1110907176
 20
-8.160658565
 30
0.0
 10
-31.0603047328
 20
-8.1588849384
 30
0.0
 11
-31.7169654746
 21
-7.9318567533
 31
0.0
 11
-31.5445429865
 21
-8.0112469546
 31
0.0
 11
-31.3748961812
 21
-8.083298928
 31
0.0
 11
-31.2113325327
 21
-8.1381036558
 31
0.0
 11
-31.0603047328
 21
-8.1588849384
 31
0.0
  0
SPLINE
  5
645
100
AcDbEntity
  8
0
100
AcDbSpline
 62
253
  6
CONTINUOUS
 70
0
 71
3
 72
13
 73
9
 74
7
 42
0.0000001
 43
0.0000001
 44
0.0000000001
 12
0.8453000635
 22
0.9474518512
 32
0.0
 13
-0.0009509167
 23
1.2697229239
 33
0.0
 40
0.0
 40
0.0
 40
0.0
 40
0.0
 40
0.072827049
 40
0.1685569368
 40
0.3059148821
 40
0.472814622
 40
0.6501015591
 40
1.0
 40
1.0
 40
1.0
 40
1.0
 10
-30.4566455539
 20
-15.810138718
 30
0.0
 10
-30.4361253175
 20
-15.7871386772
 30
0.0
 10
-30.3929918918
 20
-15.7301625204
 30
0.0
 10
-30.3176452783
 20
-15.6248933067
 30
0.0
 10
-30.2287985208
 20
-15.4805400455
 30
0.0
 10
-30.1387788536
 20
-15.2971295274
 30
0.0
 10
-30.0432021554
 20
-15.018849601
 30
0.0
 10
-30.0105612888
 20
-14.7945968247
 30
0.0
 10
-30.0106721969
 20
-14.6465054676
 30
0.0
 11
-30.4566455539
 21
-15.810138718
 31
0.0
 11
-30.3991547278
 21
-15.737712599
 31
0.0
 11
-30.3288487353
 21
-15.6385582573
 31
0.0
 11
-30.2375422615
 21
-15.4899622167
 31
0.0
 11
-30.1447055091
 21
-15.2994630459
 31
0.0
 11
-30.071489415
 21
-15.0865973071
 31
0.0
 11
-30.0106721969
 21
-14.6465054676
 31
0.0
  0
SPLINE
  5
646
100
AcDbEntity
  8
0
100
AcDbSpline
 62
7
  6
CONTINUOUS
 70
0
 71
3
 72
17
 73
13
 74
11
 42
0.0000001
 43
0.0000001
 44
0.0000000001
 12
0.0054430451
 22
-0.2499452921
 32
0.0
 13
-0.2498511878
 23
-0.008755554
 33
0.0
 40
0.0
 40
0.0
 40
0.0
 40
0.0
 40
0.1947266115
 40
0.3823088396
 40
0.5549321685
 40
0.7062340476
 40
0.830502094
 40
0.9228374802
 40
0.9559315592
 40
0.9798481435
 40
0.994468396
 40
1.0
 40
1.0
 40
1.0
 40
1.0
 10
-26.5103829843
 20
-7.7502387288
 30
0.0
 10
-26.5100296824
 20
-7.7664623954
 30
0.0
 10
-26.5093835466
 20
-7.798314959
 30
0.0
 10
-26.5086248678
 20
-7.8445566367
 30
0.0
 10
-26.5081354684
 20
-7.8871721627
 30
0.0
 10
-26.5078950729
 20
-7.924546763
 30
0.0
 10
-26.5079548003
 20
-7.9551374242
 30
0.0
 10
-26.50822027
 20
-7.9760952715
 30
0.0
 10
-26.5087416369
 20
-7.9883256215
 30
0.0
 10
-26.5090947967
 20
-7.9946310213
 30
0.0
 10
-26.5096462847
 20
-7.9976427698
 30
0.0
 10
-26.5099730619
 20
-7.999983932
 30
0.0
 10
-26.5104337545
 20
-8.0000000761
 30
0.0
 11
-26.5103829843
 21
-7.7502387288
 31
0.0
 11
-26.5094035013
 21
-7.7989114135
 31
0.0
 11
-26.5086445048
 21
-7.8458016819
 31
0.0
 11
-26.5081537435
 21
-7.8889555094
 31
0.0
 11
-26.5079386164
 21
-7.9267810561
 31
0.0
 11
-26.5080242076
 21
-7.9578485154
 31
0.0
 11
-26.5084482806
 21
-7.9809288866
 31
0.0
 11
-26.5088013251
 21
-7.9891950212
 31
0.0
 11
-26.5092532008
 21
-7.9951571767
 31
0.0
 11
-26.509799284
 21
-7.9987712832
 31
0.0
 11
-26.5104337545
 21
-8.0000000761
 31
0.0
  0
SPLINE
  5
647
100
AcDbEntity
  8
0
100
AcDbSpline
 62
7
  6
CONTINUOUS
 70
0
 71
3
 72
15
 73
11
 74
9
 42
0.0000001
 43
0.0000001
 44
0.0000000001
 12
0.2426480613
 22
-0.0353000355
 32
0.0
 13
-0.2395478486
 23
-0.0523545833
 33
0.0
 40
0.0
 40
0.0
 40
0.0
 40
0.0
 40
0.3857190961
 40
0.559106148
 40
0.7105960464
 40
0.8345458558
 40
0.9261570787
 40
0.9587271607
 40
0.9819960515
 40
1.0
 40
1.0
 40
1.0
 40
1.0
 10
-22.6216923659
 20
-4.3897096431
 30
0.0
 10
-22.5904943689
 20
-4.3942482757
 30
0.0
 10
-22.545305103
 20
-4.4008475157
 30
0.0
 10
-22.487769121
 20
-4.4092828352
 30
0.0
 10
-22.4516470839
 20
-4.4146375759
 30
0.0
 10
-22.4215027357
 20
-4.4190397824
 30
0.0
 10
-22.4024617654
 20
-4.4220546923
 30
0.0
 10
-22.3891529046
 20
-4.4238587751
 30
0.0
 10
-22.38563292
 20
-4.4248058403
 30
0.0
 10
-22.3776978177
 20
-4.4253033025
 30
0.0
 10
-22.37913542
 20
-4.4256174989
 30
0.0
 11
-22.6216923659
 21
-4.3897096431
 31
0.0
 11
-22.5281051007
 21
-4.4033716929
 31
0.0
 11
-22.4860412594
 21
-4.4095483014
 31
0.0
 11
-22.4492935899
 21
-4.4149713861
 31
0.0
 11
-22.4192309377
 21
-4.4194388249
 31
0.0
 11
-22.3970171945
 21
-4.4227777963
 31
0.0
 11
-22.3891225178
 21
-4.4239837895
 31
0.0
 11
-22.3834851168
 21
-4.4248632327
 31
0.0
 11
-22.37913542
 21
-4.4256174989
 31
0.0
  0
SPLINE
  5
648
100
AcDbEntity
  8
0
100
AcDbSpline
 62
253
  6
CONTINUOUS
 70
0
 71
3
 72
16
 73
12
 74
10
 42
0.0000001
 43
0.0000001
 44
0.0000000001
 12
-0.1207810186
 22
-0.9985125021
 32
0.0
 13
0.9982887961
 23
-0.1226162745
 33
0.0
 40
0.0
 40
0.0
 40
0.0
 40
0.0
 40
0.3760723373
 40
0.5457395142
 40
0.694721779
 40
0.8175752879
 40
0.867855832
 40
0.9101504704
 40
0.9442537441
 40
0.9701394548
 40
1.0
 40
1.0
 40
1.0
 40
1.0
 10
-39.1563669178
 20
-16.2279122492
 30
0.0
 10
-39.1715077178
 20
-16.353083226
 30
0.0
 10
-39.1895341534
 20
-16.5352632455
 30
0.0
 10
-39.2029647388
 20
-16.7678137959
 30
0.0
 10
-39.2065585429
 20
-16.9158357749
 30
0.0
 10
-39.2044852858
 20
-17.0238310991
 30
0.0
 10
-39.1989844412
 20
-17.0959491557
 30
0.0
 10
-39.19376308
 20
-17.1379359704
 30
0.0
 10
-39.1868215619
 20
-17.1720852695
 30
0.0
 10
-39.1783609686
 20
-17.1995242136
 30
0.0
 10
-39.1663033992
 20
-17.219237938
 30
0.0
 10
-39.1563669167
 20
-17.220458401
 30
0.0
 11
-39.1563669178
 21
-16.2279122492
 31
0.0
 11
-39.1928018486
 21
-16.6044034857
 31
0.0
 11
-39.2023535
 21
-16.7747856595
 31
0.0
 11
-39.2055810574
 21
-16.9245958973
 31
0.0
 11
-39.202353305
 21
-17.04811867
 31
0.0
 11
-39.1983522385
 21
-17.098531858
 31
0.0
 11
-39.1928014983
 21
-17.1407077225
 31
0.0
 11
-39.1857540104
 21
-17.1742766834
 31
0.0
 11
-39.1772672551
 21
-17.1988902579
 31
0.0
 11
-39.1563669167
 21
-17.220458401
 31
0.0
  0
SPLINE
  5
649
100
AcDbEntity
  8
0
100
AcDbSpline
 62
7
  6
CONTINUOUS
 70
0
 71
3
 72
23
 73
19
 74
17
 42
0.0000001
 43
0.0000001
 44
0.0000000001
 12
0.0002509626
 22
0.9998610871
 32
0.0
 13
-0.9995184911
 23
0.0261733128
 33
0.0
 40
0.0
 40
0.0
 40
0.0
 40
0.0
 40
0.195005199
 40
0.3826693098
 40
0.5555207457
 40
0.6343526634
 40
0.7070888876
 40
0.7729897359
 40
0.8314498013
 40
0.8819032215
 40
0.9238550208
 40
0.9569292189
 40
0.9700234219
 40
0.9807727563
 40
0.9891603334
 40
0.9951708551
 40
0.9987890588
 40
1.0
 40
1.0
 40
1.0
 40
1.0
 10
-35.43449747
 20
16.4751452253
 30
0.0
 10
-35.434481157
 20
16.5401379287
 30
0.0
 10
-35.4343258593
 20
16.667676624
 30
0.0
 10
-35.4338705939
 20
16.8528239442
 30
0.0
 10
-35.433472805
 20
16.9992522002
 30
0.0
 10
-35.4332718033
 20
17.107376915
 30
0.0
 10
-35.4332035096
 20
17.1798563596
 30
0.0
 10
-35.4332366842
 20
17.2455467416
 30
0.0
 10
-35.4333570082
 20
17.3038086152
 30
0.0
 10
-35.4335391812
 20
17.3540938686
 30
0.0
 10
-35.4337805742
 20
17.3959022449
 30
0.0
 10
-35.4339634564
 20
17.425298009
 30
0.0
 10
-35.4341580597
 20
17.4442254313
 30
0.0
 10
-35.4341674957
 20
17.4550557177
 30
0.0
 10
-35.4344674788
 20
17.4632072277
 30
0.0
 10
-35.4340383265
 20
17.4697326267
 30
0.0
 10
-35.4349660985
 20
17.4724273738
 30
0.0
 10
-35.4340941217
 20
17.4749894352
 30
0.0
 10
-35.4344975744
 20
17.475
 30
0.0
 11
-35.43449747
 21
16.4751452253
 31
0.0
 11
-35.4342817693
 21
16.6701232224
 31
0.0
 11
-35.4338500651
 21
16.8577607735
 31
0.0
 11
-35.4334216107
 21
17.0305876725
 31
0.0
 11
-35.4332805538
 21
17.1094085156
 31
0.0
 11
-35.4332197702
 21
17.1821346127
 31
0.0
 11
-35.4332560953
 21
17.2480262987
 31
0.0
 11
-35.4333788118
 21
17.3064781162
 31
0.0
 11
-35.433569178
 21
17.3569241702
 31
0.0
 11
-35.433801209
 21
17.3988695014
 31
0.0
 11
-35.4340367585
 21
17.4319382672
 31
0.0
 11
-35.4341435959
 21
17.4450302158
 31
0.0
 11
-35.4342384463
 21
17.4557776388
 31
0.0
 11
-35.4343211583
 21
17.4641636431
 31
0.0
 11
-35.434391843
 21
17.4701729143
 31
0.0
 11
-35.4344506113
 21
17.4737901381
 31
0.0
 11
-35.4344975744
 21
17.475
 31
0.0
  0
SPLINE
  5
64A
100
AcDbEntity
  8
0
100
AcDbSpline
 62
253
  6
CONTINUOUS
 70
0
 71
3
 72
11
 73
7
 74
5
 42
0.0000001
 43
0.0000001
 44
0.0000000001
 12
-0.038274296
 22
-0.0020058709
 32
0.0
 13
0.0
 23
-0.0383268215
 33
0.0
 40
0.0
 40
0.0
 40
0.0
 40
0.0
 40
0.0684864333
 40
0.2577723638
 40
0.5691731861
 40
1.0
 40
1.0
 40
1.0
 40
1.0
 10
-37.8606655525
 20
19.8462208151
 30
0.0
 10
-37.8615393092
 20
19.8461750235
 30
0.0
 10
-37.8615984049
 20
19.8413531883
 30
0.0
 10
-37.8626138234
 20
19.8355452125
 30
0.0
 10
-37.8626673395
 20
19.8228222823
 30
0.0
 10
-37.8628149367
 20
19.813608459
 30
0.0
 10
-37.8628149367
 20
19.8081043849
 30
0.0
 11
-37.8606655525
 21
19.8462208151
 31
0.0
 11
-37.8615990013
 21
19.8437675312
 31
0.0
 11
-37.8622724139
 21
19.8365441252
 31
0.0
 11
-37.8626789529
 21
19.8246160474
 31
0.0
 11
-37.8628149367
 21
19.8081043849
 31
0.0
  0
SPLINE
  5
64B
100
AcDbEntity
  8
0
100
AcDbSpline
 62
253
  6
CONTINUOUS
 70
0
 71
3
 72
9
 73
5
 74
3
 42
0.0000001
 43
0.0000001
 44
0.0000000001
 12
0.0
 22
-0.1081531649
 32
0.0
 13
0.0033133874
 23
-0.1081023984
 33
0.0
 40
0.0
 40
0.0
 40
0.0
 40
0.0
 40
0.1936289123
 40
1.0
 40
1.0
 40
1.0
 40
1.0
 10
-37.8628149367
 20
19.8081043849
 30
0.0
 10
-37.8628149367
 20
19.8011238583
 30
0.0
 10
-37.862530604
 20
19.7650730118
 30
0.0
 10
-37.8615561591
 20
19.7290317885
 30
0.0
 10
-37.8606655525
 20
19.6999749057
 30
0.0
 11
-37.8628149367
 21
19.8081043849
 31
0.0
 11
-37.8626789529
 21
19.7871632467
 31
0.0
 11
-37.8606655525
 21
19.6999749057
 31
0.0
  0
LINE
  5
64C
100
AcDbEntity
  8
0
100
AcDbLine
 62
253
  6
CONTINUOUS
 10
-37.8606655525
 20
19.6999749057
 11
-37.8683599849
 21
19.6996266301
  0
SPLINE
  5
64D
100
AcDbEntity
  8
0
100
AcDbSpline
 62
253
  6
CONTINUOUS
 70
0
 71
3
 72
11
 73
7
 74
5
 42
0.0000001
 43
0.0000001
 44
0.0000000001
 12
-0.6368401864
 22
-0.0305699617
 32
0.0
 13
-0.0000000004
 23
-0.6375734825
 33
0.0
 40
0.0
 40
0.0
 40
0.0
 40
0.0
 40
0.2878923525
 40
0.5540651331
 40
0.7890381238
 40
1.0
 40
1.0
 40
1.0
 40
1.0
 10
-37.8683625692
 20
19.6996475694
 30
0.0
 10
-37.9294763757
 20
19.69671395
 30
0.0
 10
-38.0470826093
 20
19.675834074
 30
0.0
 10
-38.1996411939
 20
19.6002189911
 30
0.0
 10
-38.3069179418
 20
19.4876332221
 30
0.0
 10
-38.3344975744
 20
19.391740614
 30
0.0
 10
-38.3344975744
 20
19.3469060479
 30
0.0
 11
-37.8683625692
 21
19.6996475694
 31
0.0
 11
-38.0488636269
 21
19.6663174125
 31
0.0
 11
-38.1996369115
 21
19.5884257946
 31
0.0
 11
-38.2995405856
 21
19.4767877392
 31
0.0
 11
-38.3344975744
 21
19.3469060479
 31
0.0
  0
SPLINE
  5
64E
100
AcDbEntity
  8
0
100
AcDbSpline
 62
253
  6
CONTINUOUS
 70
0
 71
3
 72
11
 73
7
 74
5
 42
0.0000001
 43
0.0000001
 44
0.0000000001
 12
0.0000000001
 22
0.6451743984
 32
0.0
 13
0.6447319199
 23
0.0238904953
 33
0.0
 40
0.0
 40
0.0
 40
0.0
 40
0.0
 40
0.2104489953
 40
0.4453471322
 40
0.7117754826
 40
1.0
 40
1.0
 40
1.0
 40
1.0
 10
-38.3344975744
 20
18.1138626349
 30
0.0
 10
-38.3344975744
 20
18.1591214029
 30
0.0
 10
-38.3063300907
 20
18.2560344428
 30
0.0
 10
-38.1970481442
 20
18.3692329358
 30
0.0
 10
-38.0419713086
 20
18.4446164368
 30
0.0
 10
-37.922608068
 20
18.4646362174
 30
0.0
 10
-37.8606655525
 20
18.4669314929
 30
0.0
 11
-38.3344975744
 21
18.1138626349
 31
0.0
 11
-38.2988977261
 21
18.2448887984
 31
0.0
 11
-38.197169959
 21
18.3572228715
 31
0.0
 11
-38.043847328
 21
18.4349357311
 31
0.0
 11
-37.8606655525
 21
18.4669314929
 31
0.0
  0
SPLINE
  5
64F
100
AcDbEntity
  8
0
100
AcDbSpline
 62
253
  6
CONTINUOUS
 70
0
 71
3
 72
9
 73
5
 74
3
 42
0.0000001
 43
0.0000001
 44
0.0000000001
 12
-0.0594467784
 22
-0.3498911976
 32
0.0
 13
-0.0169949512
 23
-0.3544981541
 33
0.0
 40
0.0
 40
0.0
 40
0.0
 40
0.0
 40
0.4602503042
 40
1.0
 40
1.0
 40
1.0
 40
1.0
 10
-37.8606647339
 20
18.4669140651
 30
0.0
 10
-37.8697848665
 20
18.4132348884
 30
0.0
 10
-37.884003034
 20
18.2956759187
 30
0.0
 10
-37.8923710557
 20
18.1776377148
 30
0.0
 10
-37.8954287289
 20
18.1138576245
 30
0.0
 11
-37.8606647339
 21
18.4669140651
 31
0.0
 11
-37.88163346
 21
18.3049202689
 31
0.0
 11
-37.8954287289
 21
18.1138576245
 31
0.0
  0
SPLINE
  5
650
100
AcDbEntity
  8
0
100
AcDbSpline
 62
7
  6
CONTINUOUS
 70
0
 71
3
 72
14
 73
10
 74
8
 42
0.0000001
 43
0.0000001
 44
0.0000000001
 12
-0.5448877558
 22
0.7152152373
 32
0.0
 13
0.0
 23
0.8991304144
 33
0.0
 40
0.0
 40
0.0
 40
0.0
 40
0.0
 40
0.2910821207
 40
0.4313444863
 40
0.5652809602
 40
0.6913898406
 40
0.808294801
 40
0.9119014446
 40
1.0
 40
1.0
 40
1.0
 40
1.0
 10
-37.8954350335
 20
16.3827391956
 30
0.0
 10
-37.9483040613
 20
16.4521346517
 30
0.0
 10
-38.0255143649
 20
16.5558746896
 30
0.0
 10
-38.1217209741
 20
16.6953455025
 30
0.0
 10
-38.1880312776
 20
16.7953378262
 30
0.0
 10
-38.2466166429
 20
16.8920297831
 30
0.0
 10
-38.2921657399
 20
16.9856278605
 30
0.0
 10
-38.3239953968
 20
17.0725576298
 30
0.0
 10
-38.3344975744
 20
17.1298362109
 30
0.0
 10
-38.3344975744
 20
17.1562402411
 30
0.0
 11
-37.8954350335
 21
16.3827391956
 31
0.0
 11
-38.0507810961
 21
16.5933700851
 31
0.0
 11
-38.1224715494
 21
16.697125856
 31
0.0
 11
-38.1886222679
 21
16.7977568153
 31
0.0
 11
-38.246475821
 21
16.8952754277
 31
0.0
 11
-38.2921611292
 21
16.989940915
 31
0.0
 11
-38.3228872496
 21
17.0778836482
 31
0.0
 11
-38.3344975744
 21
17.1562402411
 31
0.0
  0
SPLINE
  5
651
100
AcDbEntity
  8
0
100
AcDbSpline
 62
7
  6
CONTINUOUS
 70
0
 71
3
 72
14
 73
10
 74
8
 42
0.0000001
 43
0.0000001
 44
0.0000000001
 12
0.9157070065
 22
0.0
 32
0.0
 13
0.0002454322
 23
-0.9157069736
 33
0.0
 40
0.0
 40
0.0
 40
0.0
 40
0.0
 40
0.3390869679
 40
0.4943241038
 40
0.6334375991
 40
0.7527378389
 40
0.8517868992
 40
0.9319661128
 40
1.0
 40
1.0
 40
1.0
 40
1.0
 10
-21.4144975744
 20
-0.06258913
 30
0.0
 10
-21.3109961369
 20
-0.06258913
 30
0.0
 10
-21.159612266
 20
-0.0735427704
 30
0.0
 10
-20.9700768518
 20
-0.1127690586
 30
0.0
 10
-20.8493456036
 20
-0.1507366678
 30
0.0
 10
-20.750330952
 20
-0.1976034264
 30
0.0
 10
-20.6755119718
 20
-0.2506260597
 30
0.0
 10
-20.6264004136
 20
-0.3098832995
 30
0.0
 10
-20.614503141
 20
-0.3555577863
 30
0.0
 10
-20.6144975751
 20
-0.3763241546
 30
0.0
 11
-21.4144975744
 21
-0.06258913
 31
0.0
 11
-21.1049438062
 21
-0.0868665381
 31
0.0
 11
-20.9658541016
 21
-0.116212224
 31
0.0
 11
-20.8446767161
 21
-0.1555001427
 31
0.0
 11
-20.7464401841
 21
-0.2032897821
 31
0.0
 11
-20.6736293563
 21
-0.2573735927
 31
0.0
 11
-20.629121494
 21
-0.3157657551
 31
0.0
 11
-20.6144975751
 21
-0.3763241546
 31
0.0
  0
SPLINE
  5
652
100
AcDbEntity
  8
0
100
AcDbSpline
 62
253
  6
CONTINUOUS
 70
0
 71
3
 72
14
 73
10
 74
8
 42
0.0000001
 43
0.0000001
 44
0.0000000001
 12
0.0000000003
 22
0.8183618726
 32
0.0
 13
0.81829712
 23
0.0102945635
 33
0.0
 40
0.0
 40
0.0
 40
0.0
 40
0.0
 40
0.0665004285
 40
0.1457935437
 40
0.2441779137
 40
0.3628736779
 40
0.5008248615
 40
0.6553193012
 40
1.0
 40
1.0
 40
1.0
 40
1.0
 10
-30.7344975744
 20
-14.9165339846
 30
0.0
 10
-30.7344975744
 20
-14.8983935128
 30
0.0
 10
-30.7220436015
 20
-14.8584580524
 30
0.0
 10
-30.6762648885
 20
-14.8085244073
 30
0.0
 10
-30.6083078091
 20
-14.7638420094
 30
0.0
 10
-30.5193022981
 20
-14.7248229823
 30
0.0
 10
-30.4116762972
 20
-14.6925466308
 30
0.0
 10
-30.2411074615
 20
-14.6583500556
 30
0.0
 10
-30.1046892713
 20
-14.6476882452
 30
0.0
 10
-30.0106721969
 20
-14.6465054661
 30
0.0
 11
-30.7344975744
 21
-14.9165339846
 31
0.0
 11
-30.7200406566
 21
-14.8640679197
 31
0.0
 11
-30.6783644593
 21
-14.8143299396
 31
0.0
 11
-30.6120108169
 21
-14.7687261994
 31
0.0
 11
-30.5235215634
 21
-14.7286628547
 31
0.0
 11
-30.4156202062
 21
-14.6954612003
 31
0.0
 11
-30.2917569446
 21
-14.6701030892
 31
0.0
 11
-30.0106721969
 21
-14.6465054661
 31
0.0
  0
SPLINE
  5
653
100
AcDbEntity
  8
0
100
AcDbSpline
 62
253
  6
CONTINUOUS
 70
0
 71
3
 72
16
 73
12
 74
10
 42
0.0000001
 43
0.0000001
 44
0.0000000001
 12
-0.99829375
 22
-0.1225750598
 32
0.0
 13
0.1207810058
 23
-0.9985123961
 33
0.0
 40
0.0
 40
0.0
 40
0.0
 40
0.0
 40
0.0298610309
 40
0.0557472196
 40
0.0898510597
 40
0.1321461108
 40
0.1824266693
 40
0.3052802048
 40
0.4542618538
 40
0.6239280984
 40
1.0
 40
1.0
 40
1.0
 40
1.0
 10
-39.1563669178
 20
17.2204584009
 30
0.0
 10
-39.1663036113
 20
17.2192383283
 30
0.0
 10
-39.1783608965
 20
17.199523314
 30
0.0
 10
-39.1868219825
 20
17.1720843232
 30
0.0
 10
-39.1937633626
 20
17.1379343681
 30
0.0
 10
-39.198984626
 20
17.0959472609
 30
0.0
 10
-39.2044853954
 20
17.0238290333
 30
0.0
 10
-39.2065585121
 20
16.915833924
 30
0.0
 10
-39.2029646753
 20
16.7678124685
 30
0.0
 10
-39.1895341004
 20
16.5352626104
 30
0.0
 10
-39.1715076986
 20
16.3530830678
 30
0.0
 10
-39.1563669178
 20
16.2279122492
 30
0.0
 11
-39.1563669178
 21
17.2204584009
 31
0.0
 11
-39.1772673231
 21
17.1988896469
 31
0.0
 11
-39.1857543158
 21
17.1742756486
 31
0.0
 11
-39.1928018206
 21
17.1407061129
 31
0.0
 11
-39.1983524573
 21
17.0985298207
 31
0.0
 11
-39.2023534431
 21
17.0481166171
 31
0.0
 11
-39.2055810576
 21
16.924593827
 31
0.0
 11
-39.2023534431
 21
16.7747842259
 31
0.0
 11
-39.1928018206
 21
16.6044030079
 31
0.0
 11
-39.1563669178
 21
16.2279122492
 31
0.0
  0
SPLINE
  5
654
100
AcDbEntity
  8
0
100
AcDbSpline
 62
7
  6
CONTINUOUS
 70
0
 71
3
 72
11
 73
7
 74
5
 42
0.0000001
 43
0.0000001
 44
0.0000000001
 12
0.0058229309
 22
-0.0098334854
 32
0.0
 13
-0.0097171145
 23
-0.0060151182
 33
0.0
 40
0.0
 40
0.0
 40
0.0
 40
0.0
 40
0.0674662407
 40
0.2574340875
 40
0.5695757615
 40
1.0
 40
1.0
 40
1.0
 40
1.0
 10
-21.6521700647
 20
15.7269526752
 30
0.0
 10
-21.6520391143
 20
15.7267315324
 30
0.0
 10
-21.6533016836
 20
15.72597775
 30
0.0
 10
-21.6545967825
 20
15.7248351384
 30
0.0
 10
-21.6578460824
 20
15.7228337325
 30
0.0
 10
-21.6601559796
 20
15.721354035
 30
0.0
 10
-21.6615501401
 20
15.7204910174
 30
0.0
 11
-21.6521700647
 21
15.7269526752
 31
0.0
 11
-21.6526543698
 21
15.7263527437
 31
0.0
 11
-21.6544059915
 21
15.725070157
 31
0.0
 11
-21.6573849104
 21
15.7231077343
 31
0.0
 11
-21.6615501401
 21
15.7204910174
 31
0.0
  0
SPLINE
  5
655
100
AcDbEntity
  8
0
100
AcDbSpline
 62
253
  6
CONTINUOUS
 70
0
 71
3
 72
18
 73
14
 74
12
 42
0.0000001
 43
0.0000001
 44
0.0000000001
 12
0.1550888779
 22
-0.1922422357
 32
0.0
 13
-0.1741435111
 23
-0.175167562
 33
0.0
 40
0.0
 40
0.0
 40
0.0
 40
0.0
 40
0.0050673741
 40
0.0195605085
 40
0.0434097033
 40
0.0764551453
 40
0.1183517893
 40
0.1686878193
 40
0.2928396619
 40
0.44410048
 40
0.6168266547
 40
0.8046670188
 40
1.0
 40
1.0
 40
1.0
 40
1.0
 10
-22.1193048247
 20
16.3082453039
 30
0.0
 10
-22.1190428603
 20
16.3079205828
 30
0.0
 10
-22.1209793081
 20
16.3064445484
 30
0.0
 10
-22.1224262207
 20
16.3039293425
 30
0.0
 10
-22.1268831118
 20
16.2994779277
 30
0.0
 10
-22.1322128681
 20
16.2935748878
 30
0.0
 10
-22.1393867812
 20
16.2860670172
 30
0.0
 10
-22.1516614767
 20
16.2731987926
 30
0.0
 10
-22.1703317688
 20
16.253915722
 30
0.0
 10
-22.1960871064
 20
16.2275066502
 30
0.0
 10
-22.2256163275
 20
16.1974384246
 30
0.0
 10
-22.2577703925
 20
16.1648674158
 30
0.0
 10
-22.279987492
 20
16.1424687959
 30
0.0
 10
-22.2913261491
 20
16.1310634619
 30
0.0
 11
-22.1193048247
 21
16.3082453039
 31
0.0
 11
-22.1199599742
 21
16.3071788136
 31
0.0
 11
-22.1222737906
 21
16.3044472599
 31
0.0
 11
-22.1262241699
 21
16.300077384
 31
0.0
 11
-22.1317836413
 21
16.2941011916
 31
0.0
 11
-22.138893278
 21
16.2865815481
 31
0.0
 11
-22.1474827265
 21
16.277592529
 31
0.0
 11
-22.1687867908
 21
16.2555353336
 31
0.0
 11
-22.1948691268
 21
16.2287845918
 31
0.0
 11
-22.2247565624
 21
16.1983391828
 31
0.0
 11
-22.2573499317
 21
16.1653189395
 31
0.0
 11
-22.2913261491
 21
16.1310634619
 31
0.0
  0
SPLINE
  5
656
100
AcDbEntity
  8
0
100
AcDbSpline
 62
253
  6
CONTINUOUS
 70
0
 71
3
 72
11
 73
7
 74
5
 42
0.0000001
 43
0.0000001
 44
0.0000000001
 12
1.5332740364
 22
-1.5304936079
 32
0.0
 13
0.0047680227
 23
-2.1664065225
 33
0.0
 40
0.0
 40
0.0
 40
0.0
 40
0.0
 40
0.2499907919
 40
0.4999884801
 40
0.749991757
 40
1.0
 40
1.0
 40
1.0
 40
1.0
 10
-22.2912199742
 20
16.1309532285
 30
0.0
 10
-22.163451844
 20
16.0034167922
 30
0.0
 10
-21.9316070295
 20
15.7230785326
 30
0.0
 10
-21.6742871906
 20
15.2426233865
 30
0.0
 10
-21.5154795364
 20
14.7212171476
 30
0.0
 10
-21.480517384
 20
14.359127225
 30
0.0
 10
-21.4801200357
 20
14.1785873956
 30
0.0
 11
-22.2912199742
 21
16.1309532285
 31
0.0
 11
-21.946684892
 21
15.7130923469
 31
0.0
 11
-21.6907082664
 21
15.2358038709
 31
0.0
 11
-21.5332079249
 21
14.7176001663
 31
0.0
 11
-21.4801200357
 21
14.1785873956
 31
0.0
  0
SPLINE
  5
657
100
AcDbEntity
  8
0
100
AcDbSpline
 62
7
  6
CONTINUOUS
 70
0
 71
3
 72
15
 73
11
 74
9
 42
0.0000001
 43
0.0000001
 44
0.0000000001
 12
-0.8135700739
 22
-5.5360264755
 32
0.0
 13
-5.5954879165
 23
-0.0006159657
 33
0.0
 40
0.0
 40
0.0
 40
0.0
 40
0.0
 40
0.1250096492
 40
0.2500172255
 40
0.3750216228
 40
0.5000225793
 40
0.6250201906
 40
0.7500149747
 40
0.8750079147
 40
1.0
 40
1.0
 40
1.0
 40
1.0
 10
-22.6218970097
 20
-4.3904563477
 30
0.0
 10
-22.6557983795
 20
-4.6211419235
 30
0.0
 10
-22.7639341138
 20
-5.0777236637
 30
0.0
 10
-23.0458183045
 20
-5.7218160631
 30
0.0
 10
-23.4373017489
 20
-6.3059651519
 30
0.0
 10
-23.9262676661
 20
-6.8112800566
 30
0.0
 10
-24.4970952015
 20
-7.2218498281
 30
0.0
 10
-25.1317734583
 20
-7.5244900973
 30
0.0
 10
-25.8098432169
 20
-7.7100840228
 30
0.0
 10
-26.2772477314
 20
-7.7506437329
 30
0.0
 10
-26.5103782991
 20
-7.7506693966
 30
0.0
 11
-22.6218970097
 21
-4.3904563477
 31
0.0
 11
-22.783882634
 21
-5.0709318412
 31
0.0
 11
-23.0640890348
 21
-5.7118330715
 31
0.0
 11
-23.4535548202
 21
-6.292833529
 31
0.0
 11
-23.9399182488
 21
-6.7954952555
 31
0.0
 11
-24.5077436593
 21
-7.2038655729
 31
0.0
 11
-25.1390101964
 21
-7.5049842248
 31
0.0
 11
-25.8136849752
 21
-7.6892920976
 31
0.0
 11
-26.5103782991
 21
-7.7506693966
 31
0.0
  0
SPLINE
  5
658
100
AcDbEntity
  8
0
100
AcDbSpline
 62
7
  6
CONTINUOUS
 70
0
 71
3
 72
13
 73
9
 74
7
 42
0.0000001
 43
0.0000001
 44
0.0000000001
 12
-0.5443971185
 22
-0.7145709843
 32
0.0
 13
0.0
 23
-0.8983206077
 33
0.0
 40
0.0
 40
0.0
 40
0.0
 40
0.0
 40
0.291306631
 40
0.4316319354
 40
0.5658842221
 40
0.6924708275
 40
0.8089906261
 40
1.0
 40
1.0
 40
1.0
 40
1.0
 10
-37.8954322461
 20
-16.3827355592
 30
0.0
 10
-37.9482944096
 20
-16.4521219812
 30
0.0
 10
-38.0251121018
 20
-16.5560638127
 30
0.0
 10
-38.1240487348
 20
-16.6936808939
 30
0.0
 10
-38.1887771311
 20
-16.7949200522
 30
0.0
 10
-38.2438681195
 20
-16.8938058236
 30
0.0
 10
-38.3041483424
 20
-17.0082140543
 30
0.0
 10
-38.3344950206
 20
-17.0990411672
 30
0.0
 10
-38.3344950206
 20
-17.1562370528
 30
0.0
 11
-37.8954322461
 21
-16.3827355592
 31
0.0
 11
-38.0513659778
 21
-16.5928893751
 31
0.0
 11
-38.1241435091
 21
-16.6958156915
 31
0.0
 11
-38.1889526172
 21
-16.7975237266
 31
0.0
 11
-38.2448675799
 21
-16.8965424077
 31
0.0
 11
-38.2920311006
 21
-16.9899868213
 31
0.0
 11
-38.3344950206
 21
-17.1562370528
 31
0.0
  0
SPLINE
  5
659
100
AcDbEntity
  8
0
100
AcDbSpline
 62
253
  6
CONTINUOUS
 70
0
 71
3
 72
13
 73
9
 74
7
 42
0.0000001
 43
0.0000001
 44
0.0000000001
 12
-0.0073645016
 22
-2.3085477388
 32
0.0
 13
-2.3075317653
 23
-0.0688770668
 33
0.0
 40
0.0
 40
0.0
 40
0.0
 40
0.0
 40
0.1266071389
 40
0.2514214353
 40
0.5000170045
 40
0.7486128706
 40
0.8734158524
 40
1.0
 40
1.0
 40
1.0
 40
1.0
 10
-31.717041294
 20
-14.9158296882
 30
0.0
 10
-31.7173520935
 20
-15.0132558963
 30
0.0
 10
-31.7361031703
 20
-15.2072820435
 30
0.0
 10
-31.8466595543
 20
-15.5778421606
 30
0.0
 10
-32.1153507724
 20
-15.9893096973
 30
0.0
 10
-32.5195199698
 20
-16.2688431385
 30
0.0
 10
-32.886982783
 20
-16.3892098755
 30
0.0
 10
-33.0804141289
 20
-16.413115219
 30
0.0
 10
-33.1777797761
 20
-16.4160214673
 30
0.0
 11
-31.717041294
 21
-14.9158296882
 31
0.0
 11
-31.7455785779
 21
-15.2067133195
 31
0.0
 11
-31.8280883421
 21
-15.4827885014
 31
0.0
 11
-32.14242518
 21
-15.9629456378
 31
0.0
 11
-32.6140537462
 21
-16.2899407535
 31
0.0
 11
-32.8878116477
 21
-16.3797568238
 31
0.0
 11
-33.1777797761
 21
-16.4160214673
 31
0.0
  0
SPLINE
  5
65A
100
AcDbEntity
  8
0
100
AcDbSpline
 62
253
  6
CONTINUOUS
 70
0
 71
3
 72
9
 73
5
 74
3
 42
0.0000001
 43
0.0000001
 44
0.0000000001
 12
0.0169973466
 22
-0.3545107045
 32
0.0
 13
0.059451065
 23
-0.3499033013
 33
0.0
 40
0.0
 40
0.0
 40
0.0
 40
0.0
 40
0.5397611339
 40
1.0
 40
1.0
 40
1.0
 40
1.0
 10
-37.8954322461
 20
-18.1138626349
 30
0.0
 10
-37.892374077
 20
-18.1776463349
 30
0.0
 10
-37.8840060595
 20
-18.2956887785
 30
0.0
 10
-37.8697861161
 20
-18.4132517933
 30
0.0
 10
-37.8606655525
 20
-18.4669314929
 30
0.0
 11
-37.8954322461
 21
-18.1138626349
 31
0.0
 11
-37.8816357035
 21
-18.3049361035
 31
0.0
 11
-37.8606655525
 21
-18.4669314929
 31
0.0
  0
ELLIPSE
  5
65B
100
AcDbEntity
  8
RACCORDO
100
AcDbEllipse
 62
7
  6
CONTINUOUS
 10
-10.649923836
 20
21.899313827
 30
0.0
 11
-0.1582391023
 21
0.4751033573
 31
0.0
 40
0.9984778551
 41
-0.3210503505
 42
1.2488325878
  0
ELLIPSE
  5
65C
100
AcDbEntity
  8
RACCORDO
100
AcDbEllipse
 62
7
  6
CONTINUOUS
 10
10.649923836
 20
-21.899313827
 30
0.0
 11
-0.1582391023
 21
0.4751033573
 31
0.0
 40
0.9984778551
 41
-3.4626430041
 42
-1.8927600658
  0
ELLIPSE
  5
65D
100
AcDbEntity
  8
RACCORDO
100
AcDbEllipse
 62
7
  6
CONTINUOUS
 10
10.649923836
 20
21.899313827
 30
0.0
 11
0.1582391023
 21
0.4751033573
 31
0.0
 40
0.9984778551
 41
-1.2488325878
 42
0.3210503505
  0
ELLIPSE
  5
65E
100
AcDbEntity
  8
RACCORDO
100
AcDbEllipse
 62
7
  6
CONTINUOUS
 10
-10.649923836
 20
-21.899313827
 30
0.0
 11
0.1582391023
 21
0.4751033573
 31
0.0
 40
0.9984778551
 41
-4.3904252414
 42
-2.8205423031
  0
ELLIPSE
  5
65F
100
AcDbEntity
  8
ASSI
100
AcDbEllipse
 62
7
  6
CONTINUOUS
 10
10.649923836
 20
-21.899313827
 30
0.0
 11
-0.1582391023
 21
0.4751033573
 31
0.0
 40
0.9984778551
 41
-3.4626430041
 42
-1.8927600658
  0
ELLIPSE
  5
660
100
AcDbEntity
  8
ASSI
100
AcDbEllipse
 62
7
  6
CONTINUOUS
 10
10.649923836
 20
21.899313827
 30
0.0
 11
0.1582391023
 21
0.4751033573
 31
0.0
 40
0.9984778551
 41
-1.2488325878
 42
0.3210503505
  0
ELLIPSE
  5
661
100
AcDbEntity
  8
ASSI
100
AcDbEllipse
 62
7
  6
CONTINUOUS
 10
-10.649923836
 20
-21.899313827
 30
0.0
 11
0.1582391023
 21
0.4751033573
 31
0.0
 40
0.9984778551
 41
-4.3904252414
 42
-2.8205423031
  0
ELLIPSE
  5
662
100
AcDbEntity
  8
ASSI
100
AcDbEllipse
 62
7
  6
CONTINUOUS
 10
-10.649923836
 20
21.899313827
 30
0.0
 11
-0.1582391023
 21
0.4751033573
 31
0.0
 40
0.9984778551
 41
-0.3210503505
 42
1.2488325878
  0
ELLIPSE
  5
663
100
AcDbEntity
  8
CURVE
100
AcDbEllipse
 62
253
  6
CONTINUOUS
 10
11.0862924688
 20
-14.059757
 30
0.0
 11
0.0
 21
0.65
 31
0.0
 40
0.0174497484
 41
-1.5707963268
 42
1.5707963268
  0
ELLIPSE
  5
664
100
AcDbEntity
  8
0
100
AcDbEllipse
 62
7
  6
CONTINUOUS
 10
10.649923836
 20
-21.899313827
 30
0.0
 11
-0.1582391023
 21
0.4751033573
 31
0.0
 40
0.9984778551
 41
-3.4626430041
 42
-1.8927600658
  0
ELLIPSE
  5
665
100
AcDbEntity
  8
0
100
AcDbEllipse
 62
7
  6
CONTINUOUS
 10
10.649923836
 20
21.899313827
 30
0.0
 11
0.1582391023
 21
0.4751033573
 31
0.0
 40
0.9984778551
 41
-1.2488325878
 42
0.3210503505
  0
ELLIPSE
  5
666
100
AcDbEntity
  8
0
100
AcDbEllipse
 62
7
  6
CONTINUOUS
 10
-10.649923836
 20
-21.899313827
 30
0.0
 11
0.1582391023
 21
0.4751033573
 31
0.0
 40
0.9984778551
 41
-4.3904252414
 42
-2.8205423031
  0
ELLIPSE
  5
667
100
AcDbEntity
  8
0
100
AcDbEllipse
 62
7
  6
CONTINUOUS
 10
-10.649923836
 20
21.899313827
 30
0.0
 11
-0.1582391023
 21
0.4751033573
 31
0.0
 40
0.9984778551
 41
-0.3210503505
 42
1.2488325878
  0
ELLIPSE
  5
668
100
AcDbEntity
  8
ASSI
100
AcDbEllipse
 62
7
  6
CONTINUOUS
 10
310.6308529809
 20
0.0
 30
0.0
 11
1427.1497290694
 21
0.0
 31
0.0
 40
0.0151169134
 41
1.8151898521
 42
1.8214348428
  0
ELLIPSE
  5
669
100
AcDbEntity
  8
ASSI
100
AcDbEllipse
 62
7
  6
CONTINUOUS
 10
310.6308529809
 20
0.0
 30
0.0
 11
1427.1497290694
 21
0.0
 31
0.0
 40
0.0151169134
 41
-1.8214348428
 42
-1.8151898521
  0
ELLIPSE
  5
66A
100
AcDbEntity
  8
CURVE
100
AcDbEllipse
 62
253
  6
CONTINUOUS
 10
-46.9842995932
 20
-14.059757
 30
0.0
 11
0.0
 21
0.65
 31
0.0
 40
0.9996954135
 41
-1.5707963268
 42
1.5707963268
  0
ENDSEC
  0
SECTION
  2
OBJECTS
  0
DICTIONARY
  5
C
100
AcDbDictionary
280
0
281
1
  3
ACAD_GROUP
350
D
  3
ACAD_MLINESTYLE
350
17
  3
ACAD_LAYOUT
350
1A
  3
ACAD_PLOTSETTINGS
350
19
  3
ACAD_PLOTSTYLENAME
350
E
  0
DICTIONARY
  5
D
102
{ACAD_REACTORS
330
C
102
}
100
AcDbDictionary
280
0
281
1
  0
ACDBDICTIONARYWDFLT
  5
E
102
{ACAD_REACTORS
330
C
102
}
100
AcDbDictionary
281
1
  3
Normal
350
F
100
AcDbDictionaryWithDefault
340
F
  0
DICTIONARY
  5
17
102
{ACAD_REACTORS
330
C
102
}
100
AcDbDictionary
280
0
281
1
  3
Standard
350
18
  0
DICTIONARY
  5
19
102
{ACAD_REACTORS
330
C
102
}
100
AcDbDictionary
281
1
  0
DICTIONARY
  5
1A
102
{ACAD_REACTORS
330
C
102
}
100
AcDbDictionary
281
1
  3
Model
350
66B
  3
Layout1
350
66C
  0
ACDBPLACEHOLDER
  5
F
102
{ACAD_REACTORS
330
E
102
}
  0
MLINESTYLE
  5
18
102
{ACAD_REACTORS
330
17
102
}
100
AcDbMlineStyle
  2
STANDARD
 70
0
  3

 62
256
 51
90.0
 52
90.0
 71
2
 49
0.5
 62
256
  6
BYLAYER
 49
-0.5
 62
256
  6
BYLAYER
  0
LAYOUT
  5
66B
102
{ACAD_REACTORS
330
1A
102
}
100
AcDbPlotSettings
  1

  2
none_device
  4
ANSI_C_(22.00_x_17.00_Inches)
  6

 40
0.0
 41
0.0
 42
0.0
 43
0.0
 44
558.8
 45
431.8
 46
0.0
 47
0.0
 48
0.0
 49
0.0
140
0.0
141
0.0
142
1.0
143
1.0
 70
1024
 72
1
 73
0
 74
0
  7

 75
0
147
1.0
148
0.0
149
0.0
100
AcDbLayout
  1
Model
 70
0
 71
0
 10
0.0
 20
0.0
 11
558.8
 21
431.8
 12
0.0
 22
0.0
 32
0.0
 14
0.0
 24
0.0
 34
0.0
 15
0.0
 25
0.0
 35
0.0
146
0.0
 13
0.0
 23
0.0
 33
0.0
 16
1.0
 26
0.0
 36
0.0
 17
0.0
 27
1.0
 37
0.0
 76
0
330
211
345
0
346
0
  0
LAYOUT
  5
66C
102
{ACAD_REACTORS
330
1A
102
}
100
AcDbPlotSettings
  1

  2
none_device
  4
ANSI_C_(22.00_x_17.00_Inches)
  6

 40
0.0
 41
0.0
 42
0.0
 43
0.0
 44
558.8
 45
431.8
 46
0.0
 47
0.0
 48
0.0
 49
0.0
140
0.0
141
0.0
142
1.0
143
1.0
 70
0
 72
1
 73
0
 74
0
  7

 75
0
147
1.0
148
0.0
149
0.0
100
AcDbLayout
  1
Layout1
 70
0
 71
1
 10
0.0
 20
0.0
 11
558.8
 21
431.8
 12
0.0
 22
0.0
 32
0.0
 14
0.0
 24
0.0
 34
0.0
 15
0.0
 25
0.0
 35
0.0
146
0.0
 13
0.0
 23
0.0
 33
0.0
 16
1.0
 26
0.0
 36
0.0
 17
0.0
 27
1.0
 37
0.0
 76
0
330
212
345
0
346
0
  0
ENDSEC
  0
EOF
