  0
SECTION
  2
HEADER
  9
$ACADVER
  1
AC1024
  9
$DWGCODEPAGE
  3
ANSI_1252
  9
$EXTMAX
 10
297.0
 20
210.0
 30
0.0
  9
$EXTMIN
 10
0.0
 20
0.0
 30
0.0
  9
$LIMMIN
 10
0.0
 20
0.0
  9
$LIMMAX
 10
297.0
 20
210.0
  9
$VIEWCTR
 10
148.5
 20
105.0
  9
$VIEWSIZE
 40
210.0
  9
$CLAYER
  8
0
  9
$LTSCALE
 40
16.335
  9
$CELTYPE
  6
BYLAYER
  9
$DIMSCALE
 40
1.0
  9
$DIMASZ
 40
3.0
  9
$DIMEXO
 40
0.5
  9
$DIMDLI
 40
11.286
  9
$DIMEXE
 40
1.5
  9
$DIMCEN
 40
2.673
  9
$DIMLFAC
 40
1.0
  9
$DIMBLK
  1
_FILLED
  9
$DIMALT
 70
0
  9
$DIMALTF
 40
0.0393700787
  9
$DIMTXT
 40
3.0
  9
$DIMTOL
 70
1
  9
$DIMLIM
 70
0
  9
$DIMTFAC
 40
1.0
  9
$DIMTP
 40
0.01
  9
$DIMTM
 40
0.01
  9
$DIMGAP
 40
0.625
  9
$DIMDSEP
 70
44
  9
$AUNITS
 70
0
  9
$PDMODE
 70
3
  9
$PDSIZE
 40
3.0
  9
$HANDSEED
  5
869
  9
$TILEMODE
 70
1
  9
$MEASUREMENT
 70
1
  9
$INSUNITS
 70
4
  0
ENDSEC
  0
SECTION
  2
CLASSES
  0
CLASS
  1
ACDBDICTIONARYWDFLT
  2
AcDbDictionaryWithDefault
  3
AutoCAD 2000
 90
0
 91
1
280
0
281
0
  0
CLASS
  1
ACDBPLACEHOLDER
  2
AcDbPlaceHolder
  3
AutoCAD 2000
 90
0
 91
1
280
0
281
0
  0
CLASS
  1
LAYOUT
  2
AcDbLayout
  3
AutoCAD 2000
 90
0
 91
0
280
0
281
0
  0
ENDSEC
  0
SECTION
  2
TABLES
  0
TABLE
  2
VPORT
  5
8
100
AcDbSymbolTable
 70
2
  0
VPORT
  5
1F4
100
AcDbSymbolTableRecord
100
AcDbViewportTableRecord
  2
*ACTIVE
 70
0
 10
0.0
 20
0.0
 11
1.0
 21
1.0
 12
148.5
 22
105.0
 13
0.0
 23
0.0
 14
1.0
 24
1.0
 15
0.0
 25
0.0
 16
0.0
 26
0.0
 36
1.0
 17
0.0
 27
0.0
 37
0.0
 40
210.0
 41
1.4142857143
 42
50.0
 43
0.0
 44
0.0
 50
0.0
 51
0.0
 71
0
 72
100
 73
1
 74
1
 75
0
 76
0
 77
0
 78
0
  0
ENDTAB
  0
TABLE
  2
LTYPE
  5
5
100
AcDbSymbolTable
 70
6
  0
LTYPE
  5
14
100
AcDbSymbolTableRecord
100
AcDbLinetypeTableRecord
  2
BYBLOCK
 70
0
  3

 72
65
 73
0
 40
0.0
  0
LTYPE
  5
15
100
AcDbSymbolTableRecord
100
AcDbLinetypeTableRecord
  2
BYLAYER
 70
0
  3

 72
65
 73
0
 40
0.0
  0
LTYPE
  5
16
100
AcDbSymbolTableRecord
100
AcDbLinetypeTableRecord
  2
CONTINUOUS
 70
64
  3
Solid line
 72
65
 73
0
 40
0.0
  0
LTYPE
  5
1F5
100
AcDbSymbolTableRecord
100
AcDbLinetypeTableRecord
  2
CENTER
 70
64
  3
____ _ ____ _ ____ _ ____ _ ____ _ ____ _ ____
 72
65
 73
4
 40
0.6
 49
0.375
 74
0
 49
-0.075
 74
0
 49
0.075
 74
0
 49
-0.075
 74
0
  0
LTYPE
  5
1F6
100
AcDbSymbolTableRecord
100
AcDbLinetypeTableRecord
  2
HIDDEN
 70
64
  3
- - - - - - - - - - - - - - - - - - - -
 72
65
 73
2
 40
0.2
 49
0.1
 74
0
 49
-0.1
 74
0
  0
LTYPE
  5
1F7
100
AcDbSymbolTableRecord
100
AcDbLinetypeTableRecord
  2
PHANTOM
 70
64
  3
_____ _ _ _____ _ _ _____ _ _ _____
 72
65
 73
6
 40
0.8
 49
0.45
 74
0
 49
-0.05
 74
0
 49
0.1
 74
0
 49
-0.05
 74
0
 49
0.1
 74
0
 49
-0.05
 74
0
  0
LTYPE
  5
1F8
100
AcDbSymbolTableRecord
100
AcDbLinetypeTableRecord
  2
DOT
 70
64
  3
. . . . . . . . . . . . . . . . . . . .
 72
65
 73
2
 40
0.2
 49
0.1
 74
0
 49
-0.1
 74
0
  0
LTYPE
  5
1F9
100
AcDbSymbolTableRecord
100
AcDbLinetypeTableRecord
  2
DASHED
 70
64
  3
- - - - - - - - - - - - - - - - - - - -
 72
65
 73
2
 40
0.2
 49
0.1
 74
0
 49
-0.1
 74
0
  0
ENDTAB
  0
TABLE
  2
LAYER
  5
2
100
AcDbSymbolTable
 70
36
  0
LAYER
  5
10
100
AcDbSymbolTableRecord
100
AcDbLayerTableRecord
  2
0
 70
0
 62
7
  6
CONTINUOUS
370
-3
390
F
  0
LAYER
  5
1FA
100
AcDbSymbolTableRecord
100
AcDbLayerTableRecord
  2
DEFAULT_1
 70
0
 62
7
  6
CENTER
370
-3
390
F
  0
LAYER
  5
1FB
100
AcDbSymbolTableRecord
100
AcDbLayerTableRecord
  2
DEFAULT_2
 70
0
 62
7
  6
HIDDEN
370
-3
390
F
  0
LAYER
  5
1FC
100
AcDbSymbolTableRecord
100
AcDbLayerTableRecord
  2
DEFAULT_3
 70
0
 62
7
  6
PHANTOM
370
-3
390
F
  0
LAYER
  5
1FD
100
AcDbSymbolTableRecord
100
AcDbLayerTableRecord
  2
ASSI
 70
0
 62
7
  6
CONTINUOUS
370
-3
390
F
  0
LAYER
  5
1FE
100
AcDbSymbolTableRecord
100
AcDbLayerTableRecord
  2
COORDINATE
 70
0
 62
7
  6
CONTINUOUS
370
-3
390
F
  0
LAYER
  5
1FF
100
AcDbSymbolTableRecord
100
AcDbLayerTableRecord
  2
COORD_ORIGINE
 70
0
 62
7
  6
CONTINUOUS
370
-3
390
F
  0
LAYER
  5
200
100
AcDbSymbolTableRecord
100
AcDbLayerTableRecord
  2
COPY_PUBLISH
 70
0
 62
7
  6
CONTINUOUS
370
-3
390
F
  0
LAYER
  5
201
100
AcDbSymbolTableRecord
100
AcDbLayerTableRecord
  2
COSMETIC
 70
0
 62
7
  6
CONTINUOUS
370
-3
390
F
  0
LAYER
  5
202
100
AcDbSymbolTableRecord
100
AcDbLayerTableRecord
  2
COSMETICI
 70
0
 62
7
  6
CONTINUOUS
370
-3
390
F
  0
LAYER
  5
203
100
AcDbSymbolTableRecord
100
AcDbLayerTableRecord
  2
CURVE
 70
0
 62
7
  6
CONTINUOUS
370
-3
390
F
  0
LAYER
  5
204
100
AcDbSymbolTableRecord
100
AcDbLayerTableRecord
  2
DRAFT
 70
0
 62
7
  6
CONTINUOUS
370
-3
390
F
  0
LAYER
  5
205
100
AcDbSymbolTableRecord
100
AcDbLayerTableRecord
  2
IMPORT_IGES
 70
0
 62
7
  6
CONTINUOUS
370
-3
390
F
  0
LAYER
  5
206
100
AcDbSymbolTableRecord
100
AcDbLayerTableRecord
  2
INTF_1
 70
0
 62
7
  6
CONTINUOUS
370
-3
390
F
  0
LAYER
  5
207
100
AcDbSymbolTableRecord
100
AcDbLayerTableRecord
  2
INTF_11
 70
0
 62
7
  6
CONTINUOUS
370
-3
390
F
  0
LAYER
  5
208
100
AcDbSymbolTableRecord
100
AcDbLayerTableRecord
  2
INTF_2
 70
0
 62
7
  6
CONTINUOUS
370
-3
390
F
  0
LAYER
  5
209
100
AcDbSymbolTableRecord
100
AcDbLayerTableRecord
  2
NOTE
 70
0
 62
7
  6
CONTINUOUS
370
-3
390
F
  0
LAYER
  5
20A
100
AcDbSymbolTableRecord
100
AcDbLayerTableRecord
  2
PIANI
 70
0
 62
7
  6
CONTINUOUS
370
-3
390
F
  0
LAYER
  5
20B
100
AcDbSymbolTableRecord
100
AcDbLayerTableRecord
  2
PIANI_ORIGINE
 70
0
 62
7
  6
CONTINUOUS
370
-3
390
F
  0
LAYER
  5
20C
100
AcDbSymbolTableRecord
100
AcDbLayerTableRecord
  2
PUNTI
 70
0
 62
7
  6
CONTINUOUS
370
-3
390
F
  0
LAYER
  5
20D
100
AcDbSymbolTableRecord
100
AcDbLayerTableRecord
  2
RACCORDO
 70
0
 62
7
  6
CONTINUOUS
370
-3
390
F
  0
LAYER
  5
20E
100
AcDbSymbolTableRecord
100
AcDbLayerTableRecord
  2
RGB
 70
0
 62
7
  6
CONTINUOUS
370
-3
390
F
  0
LAYER
  5
20F
100
AcDbSymbolTableRecord
100
AcDbLayerTableRecord
  2
SIMBOLI
 70
0
 62
7
  6
CONTINUOUS
370
-3
390
F
  0
LAYER
  5
210
100
AcDbSymbolTableRecord
100
AcDbLayerTableRecord
  2
SMUSSO
 70
0
 62
7
  6
CONTINUOUS
370
-3
390
F
  0
LAYER
  5
211
100
AcDbSymbolTableRecord
100
AcDbLayerTableRecord
  2
SNAPLINE
 70
0
 62
7
  6
CONTINUOUS
370
-3
390
F
  0
LAYER
  5
212
100
AcDbSymbolTableRecord
100
AcDbLayerTableRecord
  2
SUPERFICI
 70
0
 62
7
  6
CONTINUOUS
370
-3
390
F
  0
LAYER
  5
213
100
AcDbSymbolTableRecord
100
AcDbLayerTableRecord
  2
TRASH
 70
0
 62
7
  6
CONTINUOUS
370
-3
390
F
  0
LAYER
  5
214
100
AcDbSymbolTableRecord
100
AcDbLayerTableRecord
  2
XSEC_DATUMS
 70
0
 62
7
  6
CONTINUOUS
370
-3
390
F
  0
ENDTAB
  0
TABLE
  2
STYLE
  5
3
100
AcDbSymbolTable
 70
1
  0
STYLE
  5
11
100
AcDbSymbolTableRecord
100
AcDbTextStyleTableRecord
  2
STANDARD
 70
0
 40
0.0
 41
0.8
 50
0.0
 71
0
 42
0.2
  3
txt
  4

  0
STYLE
  5
215
100
AcDbSymbolTableRecord
100
AcDbTextStyleTableRecord
  2
TEXTSTYLE_1
 70
0
 40
0.0
 41
0.8
 50
0.0
 71
0
 42
0.2
  3
gdt
  4

  0
ENDTAB
  0
TABLE
  2
VIEW
  5
6
100
AcDbSymbolTable
 70
0
  0
ENDTAB
  0
TABLE
  2
UCS
  5
7
100
AcDbSymbolTable
 70
0
  0
ENDTAB
  0
TABLE
  2
APPID
  5
9
100
AcDbSymbolTable
 70
1
  0
APPID
  5
216
100
AcDbSymbolTableRecord
100
AcDbRegAppTableRecord
  2
ACAD
 70
0
  0
ENDTAB
  0
TABLE
  2
BLOCK_RECORD
  5
1
100
AcDbSymbolTable
 70
0
  0
BLOCK_RECORD
  5
217
100
AcDbSymbolTableRecord
100
AcDbBlockTableRecord
  2
*Model_Space
  0
BLOCK_RECORD
  5
218
100
AcDbSymbolTableRecord
100
AcDbBlockTableRecord
  2
*Paper_Space
  0
BLOCK_RECORD
  5
219
100
AcDbSymbolTableRecord
100
AcDbBlockTableRecord
  2
_FILLED
  0
BLOCK_RECORD
  5
21A
100
AcDbSymbolTableRecord
100
AcDbBlockTableRecord
  2
*D0
  0
BLOCK_RECORD
  5
21B
100
AcDbSymbolTableRecord
100
AcDbBlockTableRecord
  2
*D1
  0
BLOCK_RECORD
  5
21C
100
AcDbSymbolTableRecord
100
AcDbBlockTableRecord
  2
*D2
  0
BLOCK_RECORD
  5
21D
100
AcDbSymbolTableRecord
100
AcDbBlockTableRecord
  2
*D3
  0
ENDTAB
  0
TABLE
  2
DIMSTYLE
  5
A
100
AcDbSymbolTable
 70
1
100
AcDbDimStyleTable
 71
0
  0
DIMSTYLE
105
21E
100
AcDbSymbolTableRecord
100
AcDbDimStyleTableRecord
  2
STANDARD
 70
0
  3

  4

 40
1.0
 41
3.0
 42
0.5
 43
0.38
 44
1.5
 45
0.0
 46
0.0
 47
0.01
 48
0.01
140
3.0
141
0.09
142
0.0
143
25.4
144
1.0
145
0.0
146
1.0
147
0.625
 71
1
 72
0
 73
0
 74
0
 75
0
 76
0
 77
1
 78
8
 79
2
170
0
171
1
172
0
173
0
174
0
175
0
176
0
177
0
178
0
270
2
179
2
271
2
272
2
273
2
274
2
275
0
280
0
281
0
282
0
283
1
284
8
285
0
286
0
287
3
288
0
340
11
278
44
341
219
342
219
343
219
344
219
  0
DIMSTYLE
105
21F
100
AcDbSymbolTableRecord
100
AcDbDimStyleTableRecord
  2
DIMSTYLE_1
 70
0
  3

  4

 40
1.0
 41
3.0
 42
0.5
 43
0.38
 44
1.5
 45
0.0
 46
0.0
 47
0.0
 48
0.0
140
3.0
141
0.09
142
0.0
143
25.4
144
1.0
145
0.0
146
1.0
147
0.75
 71
0
 72
0
 73
0
 74
0
 75
0
 76
0
 77
1
 78
8
 79
2
170
0
171
1
172
0
173
0
174
0
175
0
176
0
177
0
178
0
270
2
179
2
271
2
272
2
273
2
274
2
275
0
280
0
281
0
282
0
283
1
284
8
285
0
286
0
287
3
288
0
340
11
278
44
341
219
342
219
343
219
344
219
  0
DIMSTYLE
105
220
100
AcDbSymbolTableRecord
100
AcDbDimStyleTableRecord
  2
DIMSTYLE_2
 70
0
  3

  4

 40
1.0
 41
3.0
 42
0.5
 43
0.38
 44
1.5
 45
0.0
 46
0.0
 47
0.0
 48
0.0
140
3.0
141
0.09
142
0.0
143
25.4
144
1.0
145
0.0
146
1.0
147
0.75
 71
0
 72
0
 73
0
 74
0
 75
0
 76
0
 77
1
 78
8
 79
2
170
0
171
1
172
0
173
0
174
0
175
0
176
0
177
0
178
0
270
2
179
2
271
1
272
1
273
2
274
2
275
0
280
0
281
0
282
0
283
1
284
8
285
0
286
0
287
3
288
0
340
11
278
44
341
219
342
219
343
219
344
219
  0
ENDTAB
  0
ENDSEC
  0
SECTION
  2
BLOCKS
  0
BLOCK
  5
20
100
AcDbEntity
  8
0
100
AcDbBlockBegin
  2
*Model_Space
 70
0
 10
0.0
 20
0.0
 30
0.0
  3
*Model_Space
  1

  0
ENDBLK
  5
21
100
AcDbEntity
  8
0
100
AcDbBlockEnd
  0
BLOCK
  5
1C
100
AcDbEntity
  8
0
100
AcDbBlockBegin
  2
*Paper_Space
 70
0
 10
0.0
 20
0.0
 30
0.0
  3
*Paper_Space
  1

  0
ENDBLK
  5
1D
100
AcDbEntity
  8
0
100
AcDbBlockEnd
  0
BLOCK
  5
221
100
AcDbEntity
  8
0
100
AcDbBlockBegin
  2
_FILLED
 70
64
 10
0.0
 20
0.0
  3
_FILLED
  1

  0
SOLID
  5
222
100
AcDbEntity
  8
0
  6
BYBLOCK
 62
0
100
AcDbTrace
 10
0.0
 20
0.0
 11
-1.0
 21
0.3166666667
 12
-1.0
 22
-0.3166666667
 13
-1.0
 23
-0.3166666667
  0
ENDBLK
  5
223
100
AcDbEntity
  8
0
  6
BYBLOCK
 62
0
100
AcDbBlockEnd
  0
BLOCK
  5
224
100
AcDbEntity
  8
0
100
AcDbBlockBegin
 62
7
  6
CONTINUOUS
  2
*D0
 70
65
 10
0.0
 20
0.0
  3
*D0
  1

  0
LINE
  5
225
100
AcDbEntity
  8
0
100
AcDbLine
 62
7
  6
CONTINUOUS
 10
15.7233373476
 20
23.5
 11
31.9
 21
23.5
  0
LINE
  5
226
100
AcDbEntity
  8
0
100
AcDbLine
 62
7
  6
CONTINUOUS
 10
15.7233373476
 20
-23.5
 11
31.9
 21
-23.5
  0
LINE
  5
227
100
AcDbEntity
  8
0
100
AcDbLine
 62
7
  6
CONTINUOUS
 10
30.4
 20
23.5
 11
30.4
 21
0.0
  0
LINE
  5
228
100
AcDbEntity
  8
0
100
AcDbLine
 62
7
  6
CONTINUOUS
 10
30.4
 20
-23.5
 11
30.4
 21
0.0
  0
INSERT
  5
229
100
AcDbEntity
  8
0
100
AcDbBlockReference
 62
7
  6
CONTINUOUS
  2
_FILLED
 10
30.4
 20
23.5
 41
3.0
 42
3.0
 43
3.0
 50
90.0
  0
INSERT
  5
22A
100
AcDbEntity
  8
0
100
AcDbBlockReference
 62
7
  6
CONTINUOUS
  2
_FILLED
 10
30.4
 20
-23.5
 41
3.0
 42
3.0
 43
3.0
 50
270.0
  0
ENDBLK
  5
22B
100
AcDbEntity
  8
0
  6
BYBLOCK
 62
0
100
AcDbBlockEnd
  0
BLOCK
  5
22C
100
AcDbEntity
  8
0
100
AcDbBlockBegin
 62
7
  6
CONTINUOUS
  2
*D1
 70
65
 10
0.0
 20
0.0
  3
*D1
  1

  0
LINE
  5
22D
100
AcDbEntity
  8
0
100
AcDbLine
 62
7
  6
CONTINUOUS
 10
-22.4
 20
22.3997711479
 11
-22.4
 21
33.0
  0
LINE
  5
22E
100
AcDbEntity
  8
0
100
AcDbLine
 62
7
  6
CONTINUOUS
 10
22.4
 20
22.3997711479
 11
22.4
 21
33.0
  0
LINE
  5
22F
100
AcDbEntity
  8
0
100
AcDbLine
 62
7
  6
CONTINUOUS
 10
-22.4
 20
31.5
 11
-0.0
 21
31.5
  0
LINE
  5
230
100
AcDbEntity
  8
0
100
AcDbLine
 62
7
  6
CONTINUOUS
 10
22.4
 20
31.5
 11
-0.0
 21
31.5
  0
INSERT
  5
231
100
AcDbEntity
  8
0
100
AcDbBlockReference
 62
7
  6
CONTINUOUS
  2
_FILLED
 10
-22.4
 20
31.5
 41
3.0
 42
3.0
 43
3.0
 50
180.0
  0
INSERT
  5
232
100
AcDbEntity
  8
0
100
AcDbBlockReference
 62
7
  6
CONTINUOUS
  2
_FILLED
 10
22.4
 20
31.5
 41
3.0
 42
3.0
 43
3.0
 50
0.0
  0
ENDBLK
  5
233
100
AcDbEntity
  8
0
  6
BYBLOCK
 62
0
100
AcDbBlockEnd
  0
BLOCK
  5
234
100
AcDbEntity
  8
0
100
AcDbBlockBegin
 62
7
  6
CONTINUOUS
  2
*D2
 70
65
 10
0.0
 20
0.0
  3
*D2
  1

  0
LINE
  5
235
100
AcDbEntity
  8
0
100
AcDbLine
 62
7
  6
CONTINUOUS
 10
-61.8711274803
 20
24.0
 11
-61.8711274803
 21
33.0
  0
LINE
  5
236
100
AcDbEntity
  8
0
100
AcDbLine
 62
7
  6
CONTINUOUS
 10
-39.8511274803
 20
0.85
 11
-39.8511274803
 21
33.0
  0
LINE
  5
237
100
AcDbEntity
  8
0
100
AcDbLine
 62
7
  6
CONTINUOUS
 10
-61.8711274803
 20
31.5
 11
-50.8611274803
 21
31.5
  0
LINE
  5
238
100
AcDbEntity
  8
0
100
AcDbLine
 62
7
  6
CONTINUOUS
 10
-39.8511274803
 20
31.5
 11
-50.8611274803
 21
31.5
  0
INSERT
  5
239
100
AcDbEntity
  8
0
100
AcDbBlockReference
 62
7
  6
CONTINUOUS
  2
_FILLED
 10
-61.8711274803
 20
31.5
 41
3.0
 42
3.0
 43
3.0
 50
180.0
  0
INSERT
  5
23A
100
AcDbEntity
  8
0
100
AcDbBlockReference
 62
7
  6
CONTINUOUS
  2
_FILLED
 10
-39.8511274803
 20
31.5
 41
3.0
 42
3.0
 43
3.0
  0
ENDBLK
  5
23B
100
AcDbEntity
  8
0
  6
BYBLOCK
 62
0
100
AcDbBlockEnd
  0
BLOCK
  5
23C
100
AcDbEntity
  8
0
100
AcDbBlockBegin
 62
7
  6
CONTINUOUS
  2
*D3
 70
65
 10
0.0
 20
0.0
  3
*D3
  1

  0
LINE
  5
23D
100
AcDbEntity
  8
0
100
AcDbLine
 62
7
  6
CONTINUOUS
 10
-79.67112748
 20
-5.3500186729
 11
-79.67112748
 21
43.0
  0
LINE
  5
23E
100
AcDbEntity
  8
0
100
AcDbLine
 62
7
  6
CONTINUOUS
 10
-39.8511274803
 20
0.85
 11
-39.8511274803
 21
43.0
  0
LINE
  5
23F
100
AcDbEntity
  8
0
100
AcDbLine
 62
7
  6
CONTINUOUS
 10
-79.67112748
 20
41.5
 11
-59.7611274801
 21
41.5
  0
LINE
  5
240
100
AcDbEntity
  8
0
100
AcDbLine
 62
7
  6
CONTINUOUS
 10
-39.8511274803
 20
41.5
 11
-59.7611274801
 21
41.5
  0
INSERT
  5
241
100
AcDbEntity
  8
0
100
AcDbBlockReference
 62
7
  6
CONTINUOUS
  2
_FILLED
 10
-79.67112748
 20
41.5
 41
3.0
 42
3.0
 43
3.0
 50
180.0
  0
INSERT
  5
242
100
AcDbEntity
  8
0
100
AcDbBlockReference
 62
7
  6
CONTINUOUS
  2
_FILLED
 10
-39.8511274803
 20
41.5
 41
3.0
 42
3.0
 43
3.0
 50
360.0
  0
ENDBLK
  5
243
100
AcDbEntity
  8
0
  6
BYBLOCK
 62
0
100
AcDbBlockEnd
  0
ENDSEC
  0
SECTION
  2
ENTITIES
  0
DIMENSION
  5
244
100
AcDbEntity
  8
0
100
AcDbDimension
 62
7
  6
CONTINUOUS
  2
*D0
 10
30.4
 20
-23.5
 11
30.4
 21
-2.3571428571
 70
160
 71
2
 72
2
 41
0.9
 42
47.0
  3
DIMSTYLE_1
100
AcDbAlignedDimension
 13
15.2233373476
 23
23.5
 14
15.2233373476
 24
-23.5
 50
270.0
100
AcDbRotatedDimension
  0
DIMENSION
  5
245
100
AcDbEntity
  8
0
100
AcDbDimension
 62
7
  6
CONTINUOUS
  2
*D1
 10
22.4
 20
31.5
 11
-4.3928571429
 21
31.5
 70
160
 71
2
 72
2
 41
0.9
 42
44.8
  3
DIMSTYLE_1
100
AcDbAlignedDimension
 13
-22.4
 23
21.8997711479
 14
22.4
 24
21.8997711479
100
AcDbRotatedDimension
  0
DIMENSION
  5
246
100
AcDbEntity
  8
0
100
AcDbDimension
 62
7
  6
CONTINUOUS
  2
*D2
 10
-39.8511274803
 20
31.5
 11
-53.2182703374
 21
31.5
 70
160
 71
2
 72
2
 41
0.9
 42
22.02
  3
DIMSTYLE_2
100
AcDbAlignedDimension
 13
-61.8711274803
 23
23.5
 14
-39.8511274803
 24
0.35
100
AcDbRotatedDimension
  0
DIMENSION
  5
247
100
AcDbEntity
  8
0
100
AcDbDimension
 62
7
  6
CONTINUOUS
  2
*D3
 10
-39.8511274803
 20
41.5
 11
-64.0468417658
 21
41.5
 70
160
 71
2
 72
2
 41
0.9
 42
39.8199999997
  3
DIMSTYLE_2
100
AcDbAlignedDimension
 13
-79.67112748
 23
-5.8500186729
 14
-39.8511274803
 24
0.35
 50
360.0
100
AcDbRotatedDimension
  0
LINE
  5
248
100
AcDbEntity
  8
CURVE
100
AcDbLine
 62
7
  6
CONTINUOUS
 10
-22.2679925335
 20
19.9882000185
 11
-22.2673433008
 21
19.9888492512
  0
LINE
  5
249
100
AcDbEntity
  8
CURVE
100
AcDbLine
 62
7
  6
CONTINUOUS
 10
-22.2802255214
 20
19.7659563166
 11
-22.2673433008
 21
19.7788385372
  0
LINE
  5
24A
100
AcDbEntity
  8
CURVE
100
AcDbLine
 62
7
  6
CONTINUOUS
 10
-22.2924585094
 20
19.5437126146
 11
-22.2673433008
 21
19.5688278231
  0
LINE
  5
24B
100
AcDbEntity
  8
CURVE
100
AcDbLine
 62
7
  6
CONTINUOUS
 10
-22.3039846838
 20
19.3221757262
 11
-22.2784415987
 21
19.3477188113
  0
LINE
  5
24C
100
AcDbEntity
  8
CURVE
100
AcDbLine
 62
7
  6
CONTINUOUS
 10
-22.3039846838
 20
19.1121650122
 11
-22.292564696
 21
19.123585
  0
LINE
  5
24D
100
AcDbEntity
  8
CURVE
100
AcDbLine
 62
7
  6
CONTINUOUS
 10
-22.30162178
 20
18.904517202
 11
-22.280463711
 21
18.9256752709
  0
LINE
  5
24E
100
AcDbEntity
  8
CURVE
100
AcDbLine
 62
7
  6
CONTINUOUS
 10
-22.2908081314
 20
18.7053201365
 11
-22.2683627261
 21
18.7277655418
  0
LINE
  5
24F
100
AcDbEntity
  8
CURVE
100
AcDbLine
 62
7
  6
CONTINUOUS
 10
-22.2799944828
 20
18.5061230711
 11
-22.2673433008
 21
18.5187742531
  0
LINE
  5
250
100
AcDbEntity
  8
CURVE
100
AcDbLine
 62
7
  6
CONTINUOUS
 10
-22.2691808342
 20
18.3069260057
 11
-22.2673433008
 21
18.3087635391
  0
LINE
  5
251
100
AcDbEntity
  8
CURVE
100
AcDbLine
 62
7
  6
CONTINUOUS
 10
-22.3039846838
 20
18.0621114421
 11
-22.2673411022
 21
18.0987550237
  0
LINE
  5
252
100
AcDbEntity
  8
CURVE
100
AcDbLine
 62
7
  6
CONTINUOUS
 10
-22.3039846838
 20
17.8521007281
 11
-22.2673411022
 21
17.8887443097
  0
LINE
  5
253
100
AcDbEntity
  8
CURVE
100
AcDbLine
 62
7
  6
CONTINUOUS
 10
-22.2739726979
 20
17.672102
 11
-22.2673411022
 21
17.6787335957
  0
LINE
  5
254
100
AcDbEntity
  8
CURVE
100
AcDbLine
 62
7
  6
CONTINUOUS
 10
-22.3039846838
 20
17.4320793001
 11
-22.3033267039
 21
17.43273728
  0
LINE
  5
255
100
AcDbEntity
  8
CURVE
100
AcDbLine
 62
7
  6
CONTINUOUS
 10
-22.3039846838
 20
17.2220685861
 11
-22.2693141422
 21
17.2567391276
  0
LINE
  5
256
100
AcDbEntity
  8
CURVE
100
AcDbLine
 62
7
  6
CONTINUOUS
 10
-22.3030238909
 20
17.013018665
 11
-22.2673433008
 21
17.048699255
  0
LINE
  5
257
100
AcDbEntity
  8
CURVE
100
AcDbLine
 62
7
  6
CONTINUOUS
 10
-22.2847560071
 20
16.8212758347
 11
-22.2673433008
 21
16.838688541
  0
LINE
  5
258
100
AcDbEntity
  8
CURVE
100
AcDbLine
 62
7
  6
CONTINUOUS
 10
-22.2950049227
 20
16.6010162051
 11
-22.276197857
 21
16.6198232708
  0
LINE
  5
259
100
AcDbEntity
  8
CURVE
100
AcDbLine
 62
7
  6
CONTINUOUS
 10
-22.3039846838
 20
16.38202573
 11
-22.286533915
 21
16.3994764988
  0
LINE
  5
25A
100
AcDbEntity
  8
CURVE
100
AcDbLine
 62
7
  6
CONTINUOUS
 10
-22.2963537547
 20
16.1796459451
 11
-22.279410753
 21
16.1965889468
  0
LINE
  5
25B
100
AcDbEntity
  8
CURVE
100
AcDbLine
 62
7
  6
CONTINUOUS
 10
-22.2871721947
 20
15.9788167911
 11
-22.2700959056
 21
15.9958930802
  0
LINE
  5
25C
100
AcDbEntity
  8
CURVE
100
AcDbLine
 62
7
  6
CONTINUOUS
 10
-22.2979958197
 20
15.757982452
 11
-22.2673433008
 21
15.7886349709
  0
LINE
  5
25D
100
AcDbEntity
  8
CURVE
100
AcDbLine
 62
7
  6
CONTINUOUS
 10
-22.3039846838
 20
15.541982874
 11
-22.2673433008
 21
15.5786242569
  0
LINE
  5
25E
100
AcDbEntity
  8
CURVE
100
AcDbLine
 62
7
  6
CONTINUOUS
 10
-22.3039846838
 20
15.33197216
 11
-22.2981542585
 21
15.3378025852
  0
LINE
  5
25F
100
AcDbEntity
  8
CURVE
100
AcDbLine
 62
7
  6
CONTINUOUS
 10
-22.3039846838
 20
15.121961446
 11
-22.2978836017
 21
15.128062528
  0
LINE
  5
260
100
AcDbEntity
  8
CURVE
100
AcDbLine
 62
7
  6
CONTINUOUS
 10
-22.3039846838
 20
14.9119507319
 11
-22.2868159889
 21
14.9291194268
  0
LINE
  5
261
100
AcDbEntity
  8
CURVE
100
AcDbLine
 62
7
  6
CONTINUOUS
 10
-22.2981543848
 20
14.7077703169
 11
-22.2757483761
 21
14.7301763256
  0
LINE
  5
262
100
AcDbEntity
  8
CURVE
100
AcDbLine
 62
7
  6
CONTINUOUS
 10
-22.2858094381
 20
14.5101045496
 11
-22.2673433008
 21
14.5285706869
  0
LINE
  5
263
100
AcDbEntity
  8
CURVE
100
AcDbLine
 62
7
  6
CONTINUOUS
 10
-22.2966697667
 20
14.499244221
 11
-22.2910095046
 21
14.5049044831
  0
LINE
  5
264
100
AcDbEntity
  8
CURVE
100
AcDbLine
 62
7
  6
CONTINUOUS
 10
-22.2822498594
 20
14.3036534143
 11
-22.2673433008
 21
14.3185599728
  0
LINE
  5
265
100
AcDbEntity
  8
CURVE
100
AcDbLine
 62
7
  6
CONTINUOUS
 10
-22.2966697667
 20
14.289233507
 11
-22.2910095046
 21
14.2948937691
  0
LINE
  5
266
100
AcDbEntity
  8
CURVE
100
AcDbLine
 62
7
  6
CONTINUOUS
 10
-22.2971578457
 20
14.078734714
 11
-22.2701488716
 21
14.1057436881
  0
LINE
  5
267
100
AcDbEntity
  8
CURVE
100
AcDbLine
 62
250
  6
CONTINUOUS
 10
-22.2673433008
 20
15.502915
 11
-22.3039846838
 21
15.306558
  0
LINE
  5
268
100
AcDbEntity
  8
CURVE
100
AcDbLine
 62
250
  6
CONTINUOUS
 10
-22.3039846838
 20
15.735347
 11
-22.2801582913
 21
15.825401
  0
LINE
  5
269
100
AcDbEntity
  8
CURVE
100
AcDbLine
 62
7
  6
CONTINUOUS
 10
-22.3039846838
 20
13.8618971619
 11
-22.2828128269
 21
13.8830690187
  0
LINE
  5
26A
100
AcDbEntity
  8
CURVE
100
AcDbLine
 62
7
  6
CONTINUOUS
 10
-22.3039846838
 20
13.6518864479
 11
-22.2954767823
 21
13.6603943494
  0
LINE
  5
26B
100
AcDbEntity
  8
CURVE
100
AcDbLine
 62
7
  6
CONTINUOUS
 10
-22.3039846907
 20
13.2318650129
 11
-22.2674896312
 21
13.2683600724
  0
LINE
  5
26C
100
AcDbEntity
  8
CURVE
100
AcDbLine
 62
7
  6
CONTINUOUS
 10
-22.3039846907
 20
13.0218542989
 11
-22.2670574217
 21
13.0587815679
  0
LINE
  5
26D
100
AcDbEntity
  8
CURVE
100
AcDbLine
 62
7
  6
CONTINUOUS
 10
-22.2733181624
 20
12.8425101132
 11
-22.2668280456
 21
12.84900023
  0
LINE
  5
26E
100
AcDbEntity
  8
CURVE
100
AcDbLine
 62
7
  6
CONTINUOUS
 10
-22.2896452743
 20
12.8261830013
 11
-22.2836442998
 21
12.8321839758
  0
LINE
  5
26F
100
AcDbEntity
  8
CURVE
100
AcDbLine
 62
7
  6
CONTINUOUS
 10
-22.2733291513
 20
12.6324884103
 11
-22.2669274854
 21
12.6388900762
  0
LINE
  5
270
100
AcDbEntity
  8
CURVE
100
AcDbLine
 62
7
  6
CONTINUOUS
 10
-22.2900223977
 20
12.6157951638
 11
-22.2834951912
 21
12.6223223704
  0
LINE
  5
271
100
AcDbEntity
  8
CURVE
100
AcDbLine
 62
7
  6
CONTINUOUS
 10
-22.2752743848
 20
12.4205324627
 11
-22.2675089508
 21
12.4282978967
  0
LINE
  5
272
100
AcDbEntity
  8
CURVE
100
AcDbLine
 62
7
  6
CONTINUOUS
 10
-22.2963055275
 20
12.3995013201
 11
-22.2811871475
 21
12.4146197001
  0
LINE
  5
273
100
AcDbEntity
  8
CURVE
100
AcDbLine
 62
7
  6
CONTINUOUS
 10
-22.3039846907
 20
12.1818114429
 11
-22.2688846532
 21
12.2169114804
  0
LINE
  5
274
100
AcDbEntity
  8
CURVE
100
AcDbLine
 62
7
  6
CONTINUOUS
 10
-22.2813238499
 20
11.9944615697
 11
-22.273530658
 21
12.0022547616
  0
LINE
  5
275
100
AcDbEntity
  8
CURVE
100
AcDbLine
 62
7
  6
CONTINUOUS
 10
-22.3039846907
 20
11.9718007289
 11
-22.2955310921
 21
11.9802543275
  0
LINE
  5
276
100
AcDbEntity
  8
CURVE
100
AcDbLine
 62
250
  6
CONTINUOUS
 10
-22.3326733203
 20
-16.678571403
 11
-22.3401540628
 21
-16.571428597
  0
LINE
  5
277
100
AcDbEntity
  8
0
100
AcDbLine
 62
250
  6
CONTINUOUS
 10
-22.3600483307
 20
5.5452386856
 11
-22.3827330035
 21
5.9166670799
  0
LINE
  5
278
100
AcDbEntity
  8
CURVE
100
AcDbLine
 62
250
  6
CONTINUOUS
 10
-22.2966697667
 20
14.683223
 11
-22.3039846838
 21
14.804171
  0
LINE
  5
279
100
AcDbEntity
  8
CURVE
100
AcDbLine
 62
250
  6
CONTINUOUS
 10
-22.3039846838
 20
15.237731
 11
-22.2673433008
 21
14.579093
  0
LWPOLYLINE
  5
27A
100
AcDbEntity
  8
CURVE
100
AcDbPolyline
 62
250
  6
CONTINUOUS
 90
24
 70
0
 10
-22.2810392837
 20
11.9880777369
 10
-22.2807053508
 20
11.9819158446
 10
-22.2803681748
 20
11.9764165057
 10
-22.2800281241
 20
11.9716233776
 10
-22.2796763788
 20
11.9674708272
 10
-22.2793223349
 20
11.9640840059
 10
-22.2789663359
 20
11.9614381877
 10
-22.2786087252
 20
11.9595086465
 10
-22.2782498463
 20
11.9582706564
 10
-22.2778900424
 20
11.9576994912
 10
-22.2775296571
 20
11.957770425
 10
-22.2771690337
 20
11.9584587316
 10
-22.2767911904
 20
11.959821984
 10
-22.2764139276
 20
11.961844729
 10
-22.2760377099
 20
11.9645354134
 10
-22.2756630021
 20
11.9679024843
 10
-22.2752902688
 20
11.9719543888
 10
-22.2749199748
 20
11.9766995737
 10
-22.2745525848
 20
11.9821464861
 10
-22.2741885635
 20
11.9883035729
 10
-22.2738283756
 20
11.9951792812
 10
-22.2734724859
 20
12.002782058
 10
-22.2731213591
 20
12.0111203501
 10
-22.2724352529
 20
12.0300372688
  0
LWPOLYLINE
  5
27B
100
AcDbEntity
  8
CURVE
100
AcDbPolyline
 62
250
  6
CONTINUOUS
 90
13
 70
0
 10
-22.2811192347
 20
-19.9644232895
 10
-22.2808301293
 20
-19.9698062162
 10
-22.2805388545
 20
-19.9747375305
 10
-22.2802458019
 20
-19.9792140933
 10
-22.2799513629
 20
-19.9832327658
 10
-22.2796559291
 20
-19.986790409
 10
-22.279359892
 20
-19.9898838839
 10
-22.2790636432
 20
-19.9925100517
 10
-22.278767574
 20
-19.9946657732
 10
-22.278472076
 20
-19.9963479096
 10
-22.2781775409
 20
-19.997553322
 10
-22.2778843599
 20
-19.9982788713
 10
-22.2775929248
 20
-19.9985214186
  0
LINE
  5
27C
100
AcDbEntity
  8
CURVE
100
AcDbLine
 62
250
  6
CONTINUOUS
 10
-22.2991132375
 20
-13.078895
 11
-22.2673441384
 21
-13.684754
  0
LINE
  5
27D
100
AcDbEntity
  8
CURVE
100
AcDbLine
 62
250
  6
CONTINUOUS
 10
-22.2673441384
 20
-13.975948
 11
-22.3039888368
 21
-13.228862
  0
LWPOLYLINE
  5
27E
100
AcDbEntity
  8
0
100
AcDbPolyline
 62
250
  6
CONTINUOUS
 90
24
 70
0
 10
-22.3090944545
 20
0.3709077386
 10
-22.3102200169
 20
0.3938816367
 10
-22.3113559576
 20
0.4146085235
 10
-22.3124988247
 20
0.4330783649
 10
-22.3136451667
 20
0.4492811268
 10
-22.3147915315
 20
0.4632067751
 10
-22.3159344676
 20
0.4748452757
 10
-22.3169296835
 20
0.483153774
 10
-22.3179213569
 20
0.489750016
 10
-22.3189112134
 20
0.494680525
 10
-22.3199009785
 20
0.4979918245
 10
-22.3208920479
 20
0.4997189444
 10
-22.3218844986
 20
0.4998509399
 10
-22.3228780775
 20
0.498365373
 10
-22.3238725318
 20
0.4952398052
 10
-22.3248671565
 20
0.4904632633
 10
-22.3258594381
 20
0.4840706323
 10
-22.326846411
 20
0.4761082625
 10
-22.3278251095
 20
0.4666225036
 10
-22.3286011721
 20
0.4579477249
 10
-22.3293748478
 20
0.4482284997
 10
-22.3301509436
 20
0.4373656866
 10
-22.3309342661
 20
0.4252601441
 10
-22.3317296222
 20
0.4118127306
  0
LWPOLYLINE
  5
27F
100
AcDbEntity
  8
CURVE
100
AcDbPolyline
 62
250
  6
CONTINUOUS
 90
17
 70
0
 10
-22.2972741561
 20
-18.0459786534
 10
-22.2968034769
 20
-18.0558960896
 10
-22.296325309
 20
-18.064960575
 10
-22.2958404956
 20
-18.0732015159
 10
-22.2953498801
 20
-18.0806483185
 10
-22.2948543056
 20
-18.087330389
 10
-22.2943546154
 20
-18.0932771337
 10
-22.2938516527
 20
-18.0985179589
 10
-22.2933462608
 20
-18.1030822706
 10
-22.2928392828
 20
-18.1069994753
 10
-22.2923315621
 20
-18.1102989791
 10
-22.2918239419
 20
-18.1130101883
 10
-22.2913172654
 20
-18.1151625091
 10
-22.2908123758
 20
-18.1167853477
 10
-22.2903101164
 20
-18.1179081104
 10
-22.2898113304
 20
-18.1185602035
 10
-22.2893168612
 20
-18.1187710331
  0
LINE
  5
280
100
AcDbEntity
  8
CURVE
100
AcDbLine
 62
250
  6
CONTINUOUS
 10
-22.2876867061
 20
16.374901
 11
-22.2673433008
 21
15.936586
  0
LINE
  5
281
100
AcDbEntity
  8
CURVE
100
AcDbLine
 62
250
  6
CONTINUOUS
 10
-22.2959599155
 20
-17.9381965101
 11
-22.2966165722
 21
-17.9245974796
  0
LINE
  5
282
100
AcDbEntity
  8
CURVE
100
AcDbLine
 62
250
  6
CONTINUOUS
 10
-22.2801582913
 20
15.825401
 11
-22.3039846838
 21
16.346558
  0
LINE
  5
283
100
AcDbEntity
  8
CURVE
100
AcDbLine
 62
250
  6
CONTINUOUS
 10
-22.28020251
 20
12.3892920065
 11
-22.280511906
 21
12.3958607248
  0
LINE
  5
284
100
AcDbEntity
  8
CURVE
100
AcDbLine
 62
250
  6
CONTINUOUS
 10
-22.2816893713
 20
-19.9523151547
 11
-22.2811192347
 21
-19.9644232895
  0
LINE
  5
285
100
AcDbEntity
  8
CURVE
100
AcDbLine
 62
250
  6
CONTINUOUS
 10
-22.2816959469
 20
12.0022145513
 11
-22.2810392837
 21
11.9880777369
  0
LINE
  5
286
100
AcDbEntity
  8
CURVE
100
AcDbLine
 62
250
  6
CONTINUOUS
 10
-22.2806789268
 20
-19.8358431172
 11
-22.2812473429
 21
-19.8223109651
  0
LINE
  5
287
100
AcDbEntity
  8
0
100
AcDbLine
 62
250
  6
CONTINUOUS
 10
-22.3068878424
 20
0.318265587
 11
-22.3090944545
 21
0.3709077386
  0
LINE
  5
288
100
AcDbEntity
  8
CURVE
100
AcDbLine
 62
250
  6
CONTINUOUS
 10
-22.2966165722
 20
-17.9245974796
 11
-22.2972536223
 21
-17.9089471644
  0
LINE
  5
289
100
AcDbEntity
  8
CURVE
100
AcDbLine
 62
250
  6
CONTINUOUS
 10
-22.2822461323
 20
-19.9384382376
 11
-22.2816893713
 21
-19.9523151547
  0
LINE
  5
28A
100
AcDbEntity
  8
CURVE
100
AcDbLine
 62
250
  6
CONTINUOUS
 10
-22.2981896755
 20
-18.0234673036
 11
-22.2972741561
 21
-18.0459786534
  0
LINE
  5
28B
100
AcDbEntity
  8
0
100
AcDbLine
 62
250
  6
CONTINUOUS
 10
-22.3738174026
 20
1.5
 11
-22.3520150489
 21
0.9362962353
  0
LINE
  5
28C
100
AcDbEntity
  8
CURVE
100
AcDbLine
 62
250
  6
CONTINUOUS
 10
-22.280511906
 20
12.3958607248
 11
-22.2808129396
 21
12.4033686529
  0
LINE
  5
28D
100
AcDbEntity
  8
CURVE
100
AcDbLine
 62
250
  6
CONTINUOUS
 10
-22.2823352171
 20
12.0184776892
 11
-22.2816959469
 21
12.0022145513
  0
LINE
  5
28E
100
AcDbEntity
  8
0
100
AcDbLine
 62
250
  6
CONTINUOUS
 10
-22.3399169163
 20
-0.4363708784
 11
-22.3481244493
 21
-0.2096685168
  0
LINE
  5
28F
100
AcDbEntity
  8
0
100
AcDbLine
 62
250
  6
CONTINUOUS
 10
-22.3641887441
 20
0.2340457986
 11
-22.3738174026
 21
0.500000718
  0
LINE
  5
290
100
AcDbEntity
  8
0
100
AcDbLine
 62
250
  6
CONTINUOUS
 10
-22.3011671633
 20
1.266469741
 11
-22.2976002346
 21
1.1715480476
  0
LINE
  5
291
100
AcDbEntity
  8
CURVE
100
AcDbLine
 62
250
  6
CONTINUOUS
 10
-22.343894434
 20
-18.8214284182
 11
-22.3401540628
 21
-18.9285715818
  0
LINE
  5
292
100
AcDbEntity
  8
CURVE
100
AcDbLine
 62
250
  6
CONTINUOUS
 10
-22.3251925787
 20
-18.2857143879
 11
-22.3289329495
 21
-18.1785715818
  0
LINE
  5
293
100
AcDbEntity
  8
CURVE
100
AcDbLine
 62
250
  6
CONTINUOUS
 10
-22.343894434
 20
-15.3928571492
 11
-22.3401540628
 21
-15.5
  0
LINE
  5
294
100
AcDbEntity
  8
CURVE
100
AcDbLine
 62
250
  6
CONTINUOUS
 10
-22.3251925787
 20
-14.8571428619
 11
-22.3289329495
 21
-14.75
  0
LINE
  5
295
100
AcDbEntity
  8
0
100
AcDbLine
 62
250
  6
CONTINUOUS
 10
-22.3216588843
 20
12.2928574085
 11
-22.3346215544
 21
12.6642858028
  0
LINE
  5
296
100
AcDbEntity
  8
0
100
AcDbLine
 62
250
  6
CONTINUOUS
 10
-22.3411028895
 20
14.5214283943
 11
-22.3378622218
 21
14.4285716057
  0
LINE
  5
297
100
AcDbEntity
  8
0
100
AcDbLine
 62
250
  6
CONTINUOUS
 10
-22.3248995517
 20
14.9857141972
 11
-22.328140219
 21
15.0785712957
  0
LINE
  5
298
100
AcDbEntity
  8
0
100
AcDbLine
 62
250
  6
CONTINUOUS
 10
-22.3411028895
 20
15.5428570986
 11
-22.3378622218
 21
15.45
  0
LINE
  5
299
100
AcDbEntity
  8
0
100
AcDbLine
 62
250
  6
CONTINUOUS
 10
-22.3248995517
 20
16.0071429014
 11
-22.328140219
 21
16.1
  0
LINE
  5
29A
100
AcDbEntity
  8
0
100
AcDbLine
 62
250
  6
CONTINUOUS
 10
-22.3600483307
 20
19.2571428239
 11
-22.3730110008
 21
19.628571412
  0
LINE
  5
29B
100
AcDbEntity
  8
0
100
AcDbLine
 62
250
  6
CONTINUOUS
 10
-22.3317296222
 20
0.4118127306
 11
-22.3094105214
 21
-0.1677374374
  0
LINE
  5
29C
100
AcDbEntity
  8
0
100
AcDbLine
 62
250
  6
CONTINUOUS
 10
-22.3316641237
 20
-2.8816265779
 11
-22.3337863707
 21
-2.8233326354
  0
LINE
  5
29D
100
AcDbEntity
  8
CURVE
100
AcDbLine
 62
250
  6
CONTINUOUS
 10
-22.2827863855
 20
-19.9228176499
 11
-22.2822461323
 21
-19.9384382376
  0
LINE
  5
29E
100
AcDbEntity
  8
0
100
AcDbLine
 62
250
  6
CONTINUOUS
 10
-22.3047534332
 20
0.2569193511
 11
-22.3068878424
 21
0.318265587
  0
LINE
  5
29F
100
AcDbEntity
  8
CURVE
100
AcDbLine
 62
250
  6
CONTINUOUS
 10
-22.2808129396
 20
12.4033686529
 11
-22.281103853
 21
12.4118219414
  0
LINE
  5
2A0
100
AcDbEntity
  8
CURVE
100
AcDbLine
 62
250
  6
CONTINUOUS
 10
-22.2812473429
 20
-19.8223109651
 11
-22.2817925937
 21
-19.8065176402
  0
LINE
  5
2A1
100
AcDbEntity
  8
CURVE
100
AcDbLine
 62
250
  6
CONTINUOUS
 10
-22.2972536223
 20
-17.9089471644
 11
-22.2978680685
 21
-17.8911197634
  0
LINE
  5
2A2
100
AcDbEntity
  8
0
100
AcDbLine
 62
250
  6
CONTINUOUS
 10
-22.2811346574
 20
-4.014363236
 11
-22.2814814573
 21
-4.0042833034
  0
LINE
  5
2A3
100
AcDbEntity
  8
CURVE
100
AcDbLine
 62
250
  6
CONTINUOUS
 10
-22.2990651214
 20
-17.9971912759
 11
-22.2981896755
 21
-18.0234673036
  0
LINE
  5
2A4
100
AcDbEntity
  8
CURVE
100
AcDbLine
 62
250
  6
CONTINUOUS
 10
-22.2832887641
 20
12.0472870652
 11
-22.2823352171
 21
12.0184776892
  0
LINE
  5
2A5
100
AcDbEntity
  8
0
100
AcDbLine
 62
250
  6
CONTINUOUS
 10
-22.2976002346
 20
1.1715480476
 11
-22.2941703053
 21
1.0613419392
  0
LINE
  5
2A6
100
AcDbEntity
  8
0
100
AcDbLine
 62
250
  6
CONTINUOUS
 10
-22.3443435572
 20
10.9
 11
-22.328140219
 21
10.3428574085
  0
LINE
  5
2A7
100
AcDbEntity
  8
0
100
AcDbLine
 62
250
  6
CONTINUOUS
 10
-22.3094105214
 20
-0.1677374374
 11
-22.3075589574
 21
-0.2286101325
  0
LINE
  5
2A8
100
AcDbEntity
  8
0
100
AcDbLine
 62
250
  6
CONTINUOUS
 10
-22.3026986659
 20
0.1872567809
 11
-22.3047534332
 21
0.2569193511
  0
LINE
  5
2A9
100
AcDbEntity
  8
CURVE
100
AcDbLine
 62
250
  6
CONTINUOUS
 10
-22.2978680685
 20
-17.8911197634
 11
-22.2984569134
 21
-17.8709894755
  0
LINE
  5
2AA
100
AcDbEntity
  8
0
100
AcDbLine
 62
250
  6
CONTINUOUS
 10
-22.3337863707
 20
-2.8233326354
 11
-22.3358130145
 21
-2.7541420379
  0
LINE
  5
2AB
100
AcDbEntity
  8
CURVE
100
AcDbLine
 62
250
  6
CONTINUOUS
 10
-22.2817925937
 20
-19.8065176402
 11
-22.282310871
 21
-19.7884838006
  0
LINE
  5
2AC
100
AcDbEntity
  8
CURVE
100
AcDbLine
 62
250
  6
CONTINUOUS
 10
-22.2835589617
 20
-19.8961723176
 11
-22.2827863855
 21
-19.9228176499
  0
LINE
  5
2AD
100
AcDbEntity
  8
CURVE
100
AcDbLine
 62
250
  6
CONTINUOUS
 10
-22.281103853
 20
12.4118219414
 11
-22.2815174024
 21
12.4262878784
  0
LINE
  5
2AE
100
AcDbEntity
  8
0
100
AcDbLine
 62
250
  6
CONTINUOUS
 10
-22.326519886
 20
18.1428570986
 11
-22.3216588843
 21
17.9571429014
  0
LINE
  5
2AF
100
AcDbEntity
  8
CURVE
100
AcDbLine
 62
250
  6
CONTINUOUS
 10
-22.2998937478
 20
-17.9669153202
 11
-22.2990651214
 21
-17.9971912759
  0
LINE
  5
2B0
100
AcDbEntity
  8
0
100
AcDbLine
 62
250
  6
CONTINUOUS
 10
-22.2806465776
 20
-4.031908983
 11
-22.2811346574
 21
-4.014363236
  0
LINE
  5
2B1
100
AcDbEntity
  8
CURVE
100
AcDbLine
 62
250
  6
CONTINUOUS
 10
-22.2842118093
 20
12.0813159927
 11
-22.2832887641
 21
12.0472870652
  0
LINE
  5
2B2
100
AcDbEntity
  8
0
100
AcDbLine
 62
250
  6
CONTINUOUS
 10
-22.328140219
 20
17.4928570986
 11
-22.3443435572
 21
18.1428570986
  0
LINE
  5
2B3
100
AcDbEntity
  8
0
100
AcDbLine
 62
250
  6
CONTINUOUS
 10
-22.2941703053
 20
1.0613419392
 11
-22.2893248666
 21
0.8692098411
  0
LINE
  5
2B4
100
AcDbEntity
  8
0
100
AcDbLine
 62
250
  6
CONTINUOUS
 10
-22.3075589574
 20
-0.2286101325
 11
-22.3052396652
 21
-0.3226469231
  0
LINE
  5
2B5
100
AcDbEntity
  8
0
100
AcDbLine
 62
250
  6
CONTINUOUS
 10
-22.2997812305
 20
0.0680311847
 11
-22.3026986659
 21
0.1872567809
  0
LINE
  5
2B6
100
AcDbEntity
  8
RACCORDO
100
AcDbLine
 62
250
  6
CONTINUOUS
 10
-22.2546585314
 20
21.403981807
 11
-22.2534984168
 21
21.3558303735
  0
LINE
  5
2B7
100
AcDbEntity
  8
0
100
AcDbLine
 62
250
  6
CONTINUOUS
 10
-22.2546585314
 20
21.403981807
 11
-22.2534984168
 21
21.3558303735
  0
LINE
  5
2B8
100
AcDbEntity
  8
ASSI
100
AcDbLine
 62
250
  6
CONTINUOUS
 10
-22.2546585314
 20
21.403981807
 11
-22.2534984168
 21
21.3558303735
  0
LINE
  5
2B9
100
AcDbEntity
  8
CURVE
100
AcDbLine
 62
250
  6
CONTINUOUS
 10
-22.2842767773
 20
-19.8657449793
 11
-22.2835589617
 21
-19.8961723176
  0
LINE
  5
2BA
100
AcDbEntity
  8
CURVE
100
AcDbLine
 62
250
  6
CONTINUOUS
 10
-22.2984569134
 20
-17.8709894755
 11
-22.2992856215
 21
-17.8362009409
  0
LINE
  5
2BB
100
AcDbEntity
  8
CURVE
100
AcDbLine
 62
250
  6
CONTINUOUS
 10
-22.2815174024
 20
12.4262878784
 11
-22.2818982938
 21
12.4429154718
  0
LINE
  5
2BC
100
AcDbEntity
  8
CURVE
100
AcDbLine
 62
250
  6
CONTINUOUS
 10
-22.282310871
 20
-19.7884838006
 11
-22.283029381
 21
-19.7572772653
  0
LINE
  5
2BD
100
AcDbEntity
  8
0
100
AcDbLine
 62
250
  6
CONTINUOUS
 10
-22.3358130145
 20
-2.7541420379
 11
-22.3386396918
 21
-2.6312451666
  0
LINE
  5
2BE
100
AcDbEntity
  8
0
100
AcDbLine
 62
250
  6
CONTINUOUS
 10
-22.279874648
 20
-4.0666776898
 11
-22.2806465776
 21
-4.031908983
  0
LINE
  5
2BF
100
AcDbEntity
  8
CURVE
100
AcDbLine
 62
250
  6
CONTINUOUS
 10
-22.2852350158
 20
12.1281142299
 11
-22.2842118093
 21
12.0813159927
  0
LINE
  5
2C0
100
AcDbEntity
  8
CURVE
100
AcDbLine
 62
250
  6
CONTINUOUS
 10
-22.301036398
 20
-17.9133858386
 11
-22.2998937478
 21
-17.9669153202
  0
LINE
  5
2C1
100
AcDbEntity
  8
0
100
AcDbLine
 62
250
  6
CONTINUOUS
 10
-22.2669924052
 20
-7.64101
 11
-22.354447133
 21
-2.704378
  0
LINE
  5
2C2
100
AcDbEntity
  8
CURVE
100
AcDbLine
 62
250
  6
CONTINUOUS
 10
-22.3457646196
 20
-20.0
 11
-22.3476348052
 21
-19.8928571939
  0
LINE
  5
2C3
100
AcDbEntity
  8
CURVE
100
AcDbLine
 62
250
  6
CONTINUOUS
 10
-22.3476348052
 20
-18.6071428061
 11
-22.343894434
 21
-18.8214284182
  0
LINE
  5
2C4
100
AcDbEntity
  8
CURVE
100
AcDbLine
 62
250
  6
CONTINUOUS
 10
-22.3457646196
 20
-17.75
 11
-22.3476348052
 21
-17.6428571939
  0
LINE
  5
2C5
100
AcDbEntity
  8
CURVE
100
AcDbLine
 62
250
  6
CONTINUOUS
 10
-22.3214522078
 20
-18.5
 11
-22.3251925787
 21
-18.2857143879
  0
LINE
  5
2C6
100
AcDbEntity
  8
CURVE
100
AcDbLine
 62
250
  6
CONTINUOUS
 10
-22.3401540628
 20
-16.571428597
 11
-22.3476348052
 21
-16.1428571045
  0
LINE
  5
2C7
100
AcDbEntity
  8
CURVE
100
AcDbLine
 62
250
  6
CONTINUOUS
 10
-22.3476348052
 20
-15.1785714477
 11
-22.343894434
 21
-15.3928571492
  0
LINE
  5
2C8
100
AcDbEntity
  8
CURVE
100
AcDbLine
 62
250
  6
CONTINUOUS
 10
-22.3251925787
 20
-15.928571403
 11
-22.3214522078
 21
-16.1428571045
  0
LINE
  5
2C9
100
AcDbEntity
  8
CURVE
100
AcDbLine
 62
250
  6
CONTINUOUS
 10
-22.3214522078
 20
-15.0714285746
 11
-22.3251925787
 21
-14.8571428619
  0
LINE
  5
2CA
100
AcDbEntity
  8
0
100
AcDbLine
 62
250
  6
CONTINUOUS
 10
-22.3794923358
 20
7.1238090515
 11
-22.3827330035
 21
7.3095238686
  0
LINE
  5
2CB
100
AcDbEntity
  8
0
100
AcDbLine
 62
250
  6
CONTINUOUS
 10
-22.3600483307
 20
7.5880954742
 11
-22.363288998
 21
7.7738090515
  0
LINE
  5
2CC
100
AcDbEntity
  8
0
100
AcDbLine
 62
250
  6
CONTINUOUS
 10
-22.3794923358
 20
10.0023806572
 11
-22.3827330035
 21
10.1880954742
  0
LINE
  5
2CD
100
AcDbEntity
  8
0
100
AcDbLine
 62
250
  6
CONTINUOUS
 10
-22.3443435572
 20
14.7071425915
 11
-22.3411028895
 21
14.5214283943
  0
LINE
  5
2CE
100
AcDbEntity
  8
0
100
AcDbLine
 62
250
  6
CONTINUOUS
 10
-22.3827330035
 20
17.3071429014
 11
-22.3794923358
 21
17.1214287043
  0
LINE
  5
2CF
100
AcDbEntity
  8
0
100
AcDbLine
 62
250
  6
CONTINUOUS
 10
-22.3443435572
 20
15.7285712957
 11
-22.3411028895
 21
15.5428570986
  0
LINE
  5
2D0
100
AcDbEntity
  8
0
100
AcDbLine
 62
250
  6
CONTINUOUS
 10
-22.3216588843
 20
14.8
 11
-22.3248995517
 21
14.9857141972
  0
LINE
  5
2D1
100
AcDbEntity
  8
0
100
AcDbLine
 62
250
  6
CONTINUOUS
 10
-22.3216588843
 20
15.8214287043
 11
-22.3248995517
 21
16.0071429014
  0
LINE
  5
2D2
100
AcDbEntity
  8
0
100
AcDbLine
 62
250
  6
CONTINUOUS
 10
-22.3411028895
 20
19.4428571373
 11
-22.3443435572
 21
19.628571412
  0
LINE
  5
2D3
100
AcDbEntity
  8
0
100
AcDbLine
 62
250
  6
CONTINUOUS
 10
-22.3052396652
 20
-0.3226469231
 11
-22.3025979914
 21
-0.459550223
  0
LINE
  5
2D4
100
AcDbEntity
  8
0
100
AcDbLine
 62
250
  6
CONTINUOUS
 10
-22.2962419248
 20
-0.1165017696
 11
-22.2997812305
 21
0.0680311847
  0
LINE
  5
2D5
100
AcDbEntity
  8
0
100
AcDbLine
 62
250
  6
CONTINUOUS
 10
-22.2893248666
 20
0.8692098411
 11
-22.2835218565
 21
0.5682089901
  0
LINE
  5
2D6
100
AcDbEntity
  8
CURVE
100
AcDbLine
 62
250
  6
CONTINUOUS
 10
-22.2851304108
 20
-19.8194385593
 11
-22.2842767773
 21
-19.8657449793
  0
LINE
  5
2D7
100
AcDbEntity
  8
CURVE
100
AcDbLine
 62
250
  6
CONTINUOUS
 10
-22.283029381
 20
-19.7572772653
 11
-22.2836657792
 21
-19.7211457724
  0
LINE
  5
2D8
100
AcDbEntity
  8
0
100
AcDbLine
 62
250
  6
CONTINUOUS
 10
-22.3386396918
 20
-2.6312451666
 11
-22.3411637507
 21
-2.4872257573
  0
LINE
  5
2D9
100
AcDbEntity
  8
CURVE
100
AcDbLine
 62
250
  6
CONTINUOUS
 10
-22.2992856215
 20
-17.8362009409
 11
-22.3002729182
 21
-17.7812108796
  0
LINE
  5
2DA
100
AcDbEntity
  8
RACCORDO
100
AcDbLine
 62
250
  6
CONTINUOUS
 10
-22.2534984168
 20
21.3558303735
 11
-22.252494253
 21
21.2976924869
  0
LINE
  5
2DB
100
AcDbEntity
  8
0
100
AcDbLine
 62
250
  6
CONTINUOUS
 10
-22.2534984168
 20
21.3558303735
 11
-22.252494253
 21
21.2976924869
  0
LINE
  5
2DC
100
AcDbEntity
  8
ASSI
100
AcDbLine
 62
250
  6
CONTINUOUS
 10
-22.2534984168
 20
21.3558303735
 11
-22.252494253
 21
21.2976924869
  0
LINE
  5
2DD
100
AcDbEntity
  8
0
100
AcDbLine
 62
250
  6
CONTINUOUS
 10
-22.2789404006
 20
-4.1202945254
 11
-22.279874648
 21
-4.0666776898
  0
LINE
  5
2DE
100
AcDbEntity
  8
CURVE
100
AcDbLine
 62
250
  6
CONTINUOUS
 10
-22.2858858358
 20
12.1655991303
 11
-22.2852350158
 21
12.1281142299
  0
LINE
  5
2DF
100
AcDbEntity
  8
CURVE
100
AcDbLine
 62
250
  6
CONTINUOUS
 10
-22.2818982938
 20
12.4429154718
 11
-22.2823443174
 21
12.4684262882
  0
LINE
  5
2E0
100
AcDbEntity
  8
CURVE
100
AcDbLine
 62
250
  6
CONTINUOUS
 10
-22.3023478362
 20
-17.8274270383
 11
-22.301036398
 21
-17.9133858386
  0
LINE
  5
2E1
100
AcDbEntity
  8
RACCORDO
100
AcDbLine
 62
250
  6
CONTINUOUS
 10
-21.7553594138
 20
21.8712144185
 11
-21.7541390272
 21
21.786331002
  0
LINE
  5
2E2
100
AcDbEntity
  8
0
100
AcDbLine
 62
250
  6
CONTINUOUS
 10
-21.7553594138
 20
21.8712144185
 11
-21.7541390272
 21
21.786331002
  0
LINE
  5
2E3
100
AcDbEntity
  8
ASSI
100
AcDbLine
 62
250
  6
CONTINUOUS
 10
-21.7553594138
 20
21.8712144185
 11
-21.7541390272
 21
21.786331002
  0
LINE
  5
2E4
100
AcDbEntity
  8
0
100
AcDbLine
 62
250
  6
CONTINUOUS
 10
-22.3025979914
 20
-0.459550223
 11
-22.2998881073
 21
-0.6489566352
  0
LINE
  5
2E5
100
AcDbEntity
  8
0
100
AcDbLine
 62
250
  6
CONTINUOUS
 10
-22.2924885106
 20
-0.3837685126
 11
-22.2962419248
 21
-0.1165017696
  0
LINE
  5
2E6
100
AcDbEntity
  8
0
100
AcDbLine
 62
250
  6
CONTINUOUS
 10
-22.2835218565
 20
0.5682089901
 11
-22.2775200253
 21
0.1329771703
  0
LINE
  5
2E7
100
AcDbEntity
  8
0
100
AcDbLine
 62
250
  6
CONTINUOUS
 10
-22.3411637507
 20
-2.4872257573
 11
-22.3438137298
 21
-2.2808058695
  0
LINE
  5
2E8
100
AcDbEntity
  8
CURVE
100
AcDbLine
 62
250
  6
CONTINUOUS
 10
-22.2860080992
 20
-19.7522229846
 11
-22.2851304108
 21
-19.8194385593
  0
LINE
  5
2E9
100
AcDbEntity
  8
CURVE
100
AcDbLine
 62
250
  6
CONTINUOUS
 10
-22.2836657792
 20
-19.7211457724
 11
-22.2843779892
 21
-19.6650801341
  0
LINE
  5
2EA
100
AcDbEntity
  8
CURVE
100
AcDbLine
 62
250
  6
CONTINUOUS
 10
-22.3002729182
 20
-17.7812108796
 11
-22.3013012935
 21
-17.7009214456
  0
LINE
  5
2EB
100
AcDbEntity
  8
CURVE
100
AcDbLine
 62
250
  6
CONTINUOUS
 10
-22.2863103757
 20
12.199003729
 11
-22.2858858358
 21
12.1655991303
  0
LINE
  5
2EC
100
AcDbEntity
  8
CURVE
100
AcDbLine
 62
250
  6
CONTINUOUS
 10
-22.3308031357
 20
-19.9642858505
 11
-22.3326733203
 21
-19.7857143879
  0
LINE
  5
2ED
100
AcDbEntity
  8
CURVE
100
AcDbLine
 62
250
  6
CONTINUOUS
 10
-22.3308031357
 20
-17.7142856717
 11
-22.3326733203
 21
-17.5357142091
  0
LINE
  5
2EE
100
AcDbEntity
  8
0
100
AcDbLine
 62
250
  6
CONTINUOUS
 10
-22.2777355376
 20
-4.2169129479
 11
-22.2789404006
 21
-4.1202945254
  0
LINE
  5
2EF
100
AcDbEntity
  8
CURVE
100
AcDbLine
 62
250
  6
CONTINUOUS
 10
-22.2823443174
 20
12.4684262882
 11
-22.2827931306
 21
12.5051614396
  0
LINE
  5
2F0
100
AcDbEntity
  8
RACCORDO
100
AcDbLine
 62
250
  6
CONTINUOUS
 10
-22.252494253
 20
21.2976924869
 11
-22.2513282574
 21
21.1946238913
  0
LINE
  5
2F1
100
AcDbEntity
  8
0
100
AcDbLine
 62
250
  6
CONTINUOUS
 10
-22.252494253
 20
21.2976924869
 11
-22.2513282574
 21
21.1946238913
  0
LINE
  5
2F2
100
AcDbEntity
  8
ASSI
100
AcDbLine
 62
250
  6
CONTINUOUS
 10
-22.252494253
 20
21.2976924869
 11
-22.2513282574
 21
21.1946238913
  0
LINE
  5
2F3
100
AcDbEntity
  8
CURVE
100
AcDbLine
 62
250
  6
CONTINUOUS
 10
-22.3036059026
 20
-17.703085173
 11
-22.3023478362
 21
-17.8274270383
  0
LINE
  5
2F4
100
AcDbEntity
  8
0
100
AcDbLine
 62
250
  6
CONTINUOUS
 10
-22.2998881073
 20
-0.6489566352
 11
-22.2974683326
 21
-0.8993614716
  0
LINE
  5
2F5
100
AcDbEntity
  8
0
100
AcDbLine
 62
250
  6
CONTINUOUS
 10
-22.2889187039
 20
-0.7743636745
 11
-22.2924885106
 21
-0.3837685126
  0
LINE
  5
2F6
100
AcDbEntity
  8
0
100
AcDbLine
 62
250
  6
CONTINUOUS
 10
-22.2775200253
 20
0.1329771703
 11
-22.2723671381
 21
-0.4542254681
  0
LINE
  5
2F7
100
AcDbEntity
  8
RACCORDO
100
AcDbLine
 62
250
  6
CONTINUOUS
 10
-21.7541390272
 20
21.786331002
 11
-21.752132574
 21
21.5542389643
  0
LINE
  5
2F8
100
AcDbEntity
  8
0
100
AcDbLine
 62
250
  6
CONTINUOUS
 10
-21.7541390272
 20
21.786331002
 11
-21.752132574
 21
21.5542389643
  0
LINE
  5
2F9
100
AcDbEntity
  8
ASSI
100
AcDbLine
 62
250
  6
CONTINUOUS
 10
-21.7541390272
 20
21.786331002
 11
-21.752132574
 21
21.5542389643
  0
LINE
  5
2FA
100
AcDbEntity
  8
0
100
AcDbLine
 62
250
  6
CONTINUOUS
 10
-22.3438137298
 20
-2.2808058695
 11
-22.3461585895
 21
-1.9972798356
  0
LINE
  5
2FB
100
AcDbEntity
  8
CURVE
100
AcDbLine
 62
250
  6
CONTINUOUS
 10
-22.2868836559
 20
-19.6446638095
 11
-22.2860080992
 21
-19.7522229846
  0
LINE
  5
2FC
100
AcDbEntity
  8
CURVE
100
AcDbLine
 62
250
  6
CONTINUOUS
 10
-22.2843779892
 20
-19.6650801341
 11
-22.2851447353
 21
-19.5689667381
  0
LINE
  5
2FD
100
AcDbEntity
  8
CURVE
100
AcDbLine
 62
250
  6
CONTINUOUS
 10
-22.3013012935
 20
-17.7009214456
 11
-22.3023183693
 21
-17.5726661379
  0
LINE
  5
2FE
100
AcDbEntity
  8
CURVE
100
AcDbLine
 62
250
  6
CONTINUOUS
 10
-22.2865927662
 20
12.2356273821
 11
-22.2863103757
 21
12.199003729
  0
LINE
  5
2FF
100
AcDbEntity
  8
0
100
AcDbLine
 62
250
  6
CONTINUOUS
 10
-22.2764078399
 20
-4.3961986309
 11
-22.2777355376
 21
-4.2169129479
  0
LINE
  5
300
100
AcDbEntity
  8
CURVE
100
AcDbLine
 62
250
  6
CONTINUOUS
 10
-22.2827931306
 20
12.5051614396
 11
-22.2832914753
 21
12.5724937409
  0
LINE
  5
301
100
AcDbEntity
  8
RACCORDO
100
AcDbLine
 62
250
  6
CONTINUOUS
 10
-22.2513282574
 20
21.1946238913
 11
-22.2506365685
 21
21.0787402824
  0
LINE
  5
302
100
AcDbEntity
  8
0
100
AcDbLine
 62
250
  6
CONTINUOUS
 10
-22.2513282574
 20
21.1946238913
 11
-22.2506365685
 21
21.0787402824
  0
LINE
  5
303
100
AcDbEntity
  8
ASSI
100
AcDbLine
 62
250
  6
CONTINUOUS
 10
-22.2513282574
 20
21.1946238913
 11
-22.2506365685
 21
21.0787402824
  0
LINE
  5
304
100
AcDbEntity
  8
CURVE
100
AcDbLine
 62
250
  6
CONTINUOUS
 10
-22.3045550638
 20
-17.5294331301
 11
-22.3036059026
 21
-17.703085173
  0
LINE
  5
305
100
AcDbEntity
  8
0
100
AcDbLine
 62
250
  6
CONTINUOUS
 10
-22.2974683326
 20
-0.8993614716
 11
-22.2956351335
 21
-1.2530494171
  0
LINE
  5
306
100
AcDbEntity
  8
CURVE
100
AcDbLine
 62
250
  6
CONTINUOUS
 10
-22.2866642957
 20
12.2551988561
 11
-22.2865927662
 21
12.2356273821
  0
LINE
  5
307
100
AcDbEntity
  8
0
100
AcDbLine
 62
250
  6
CONTINUOUS
 10
-22.2867751636
 20
-1.2706966483
 11
-22.2889187039
 21
-0.7743636745
  0
LINE
  5
308
100
AcDbEntity
  8
0
100
AcDbLine
 62
250
  6
CONTINUOUS
 10
-22.2723671381
 20
-0.4542254681
 11
-22.2693899445
 21
-1.1781627584
  0
LINE
  5
309
100
AcDbEntity
  8
0
100
AcDbLine
 62
250
  6
CONTINUOUS
 10
-22.3461585895
 20
-1.9972798356
 11
-22.3475349549
 21
-1.6307668062
  0
LINE
  5
30A
100
AcDbEntity
  8
CURVE
100
AcDbLine
 62
250
  6
CONTINUOUS
 10
-22.2875980452
 20
-19.4410747908
 11
-22.2868836559
 21
-19.6446638095
  0
LINE
  5
30B
100
AcDbEntity
  8
CURVE
100
AcDbLine
 62
250
  6
CONTINUOUS
 10
-22.2851447353
 20
-19.5689667381
 11
-22.2856836512
 21
-19.4115975156
  0
LINE
  5
30C
100
AcDbEntity
  8
RACCORDO
100
AcDbLine
 62
250
  6
CONTINUOUS
 10
-21.752132574
 20
21.5542389643
 11
-21.7505963741
 21
21.1000229543
  0
LINE
  5
30D
100
AcDbEntity
  8
0
100
AcDbLine
 62
250
  6
CONTINUOUS
 10
-21.752132574
 20
21.5542389643
 11
-21.7505963741
 21
21.1000229543
  0
LINE
  5
30E
100
AcDbEntity
  8
ASSI
100
AcDbLine
 62
250
  6
CONTINUOUS
 10
-21.752132574
 20
21.5542389643
 11
-21.7505963741
 21
21.1000229543
  0
LINE
  5
30F
100
AcDbEntity
  8
CURVE
100
AcDbLine
 62
250
  6
CONTINUOUS
 10
-22.3023183693
 20
-17.5726661379
 11
-22.302917903
 21
-17.363310618
  0
LINE
  5
310
100
AcDbEntity
  8
CURVE
100
AcDbLine
 62
250
  6
CONTINUOUS
 10
-22.2832914753
 20
12.5724937409
 11
-22.2836396776
 21
12.700556729
  0
LINE
  5
311
100
AcDbEntity
  8
0
100
AcDbLine
 62
250
  6
CONTINUOUS
 10
-22.2752466204
 20
-4.9230726704
 11
-22.2764078399
 21
-4.3961986309
  0
LINE
  5
312
100
AcDbEntity
  8
RACCORDO
100
AcDbLine
 62
250
  6
CONTINUOUS
 10
-22.2506365685
 20
21.0787402824
 11
-22.2451308352
 21
11.6670185434
  0
LINE
  5
313
100
AcDbEntity
  8
0
100
AcDbLine
 62
250
  6
CONTINUOUS
 10
-22.2506365685
 20
21.0787402824
 11
-22.2451308352
 21
11.6670185434
  0
LINE
  5
314
100
AcDbEntity
  8
ASSI
100
AcDbLine
 62
250
  6
CONTINUOUS
 10
-22.2506365685
 20
21.0787402824
 11
-22.2451308352
 21
11.6670185434
  0
LINE
  5
315
100
AcDbEntity
  8
RACCORDO
100
AcDbLine
 62
250
  6
CONTINUOUS
 10
-21.7505963741
 20
21.1000229543
 11
-21.745206984
 21
11.6792204147
  0
LINE
  5
316
100
AcDbEntity
  8
0
100
AcDbLine
 62
250
  6
CONTINUOUS
 10
-21.7505963741
 20
21.1000229543
 11
-21.745206984
 21
11.6792204147
  0
LINE
  5
317
100
AcDbEntity
  8
ASSI
100
AcDbLine
 62
250
  6
CONTINUOUS
 10
-21.7505963741
 20
21.1000229543
 11
-21.745206984
 21
11.6792204147
  0
LINE
  5
318
100
AcDbEntity
  8
0
100
AcDbLine
 62
250
  6
CONTINUOUS
 10
-22.2693899445
 20
-1.1781627584
 11
-22.2690870131
 21
-1.4999999992
  0
LINE
  5
319
100
AcDbEntity
  8
0
100
AcDbLine
 62
250
  6
CONTINUOUS
 10
-22.2865420655
 20
-1.4999999992
 11
-22.2867751636
 21
-1.2706966483
  0
LINE
  5
31A
100
AcDbEntity
  8
RACCORDO
100
AcDbLine
 62
250
  6
CONTINUOUS
 10
-22.2451308352
 20
11.6670185434
 11
-22.2428473752
 21
2.3338547134
  0
LINE
  5
31B
100
AcDbEntity
  8
0
100
AcDbLine
 62
250
  6
CONTINUOUS
 10
-22.2451308352
 20
11.6670185434
 11
-22.2428473752
 21
2.3338547134
  0
LINE
  5
31C
100
AcDbEntity
  8
ASSI
100
AcDbLine
 62
250
  6
CONTINUOUS
 10
-22.2451308352
 20
11.6670185434
 11
-22.2428473752
 21
2.3338547134
  0
LINE
  5
31D
100
AcDbEntity
  8
RACCORDO
100
AcDbLine
 62
250
  6
CONTINUOUS
 10
-21.745206984
 20
11.6792204147
 11
-21.7429235217
 21
2.3360479955
  0
LINE
  5
31E
100
AcDbEntity
  8
0
100
AcDbLine
 62
250
  6
CONTINUOUS
 10
-21.745206984
 20
11.6792204147
 11
-21.7429235217
 21
2.3360479955
  0
LINE
  5
31F
100
AcDbEntity
  8
ASSI
100
AcDbLine
 62
250
  6
CONTINUOUS
 10
-21.745206984
 20
11.6792204147
 11
-21.7429235217
 21
2.3360479955
  0
LINE
  5
320
100
AcDbEntity
  8
RACCORDO
100
AcDbLine
 62
7
  6
CONTINUOUS
 10
-22.4
 20
-21.8997711479
 11
-22.4
 21
21.8997711479
  0
LINE
  5
321
100
AcDbEntity
  8
ASSI
100
AcDbLine
 62
7
  6
CONTINUOUS
 10
-22.4
 20
-21.8997711479
 11
-22.4
 21
21.8997711479
  0
LINE
  5
322
100
AcDbEntity
  8
0
100
AcDbLine
 62
250
  6
CONTINUOUS
 10
-22.3909233662
 20
-7.172362
 11
-22.3909233662
 21
-2.987638
  0
LINE
  5
323
100
AcDbEntity
  8
0
100
AcDbLine
 62
250
  6
CONTINUOUS
 10
-22.3827330035
 20
17.7714285493
 11
-22.3827330035
 21
17.3071429014
  0
LINE
  5
324
100
AcDbEntity
  8
0
100
AcDbLine
 62
250
  6
CONTINUOUS
 10
-22.3827330035
 20
7.3095238686
 11
-22.3827330035
 21
7.6809522629
  0
LINE
  5
325
100
AcDbEntity
  8
0
100
AcDbLine
 62
250
  6
CONTINUOUS
 10
-22.3827330035
 20
10.1880954742
 11
-22.3827330035
 21
10.46666646
  0
LINE
  5
326
100
AcDbEntity
  8
0
100
AcDbLine
 62
250
  6
CONTINUOUS
 10
-22.3827330035
 20
16.0380951643
 11
-22.3827330035
 21
16.5952380657
  0
LINE
  5
327
100
AcDbEntity
  8
0
100
AcDbLine
 62
250
  6
CONTINUOUS
 10
-22.3762516682
 20
5.2976193428
 11
-22.3762516682
 21
5.7928567886
  0
LINE
  5
328
100
AcDbEntity
  8
0
100
AcDbLine
 62
250
  6
CONTINUOUS
 10
-22.3762516682
 20
18.266666615
 11
-22.3762516682
 21
18.7619047582
  0
LINE
  5
329
100
AcDbEntity
  8
0
100
AcDbLine
 62
250
  6
CONTINUOUS
 10
-22.3738174026
 20
0.500000718
 11
-22.3738174026
 21
1.5
  0
LINE
  5
32A
100
AcDbEntity
  8
0
100
AcDbLine
 62
250
  6
CONTINUOUS
 10
-22.3731418633
 20
-2.987638
 11
-22.3731418633
 21
-7.172362
  0
LINE
  5
32B
100
AcDbEntity
  8
0
100
AcDbLine
 62
250
  6
CONTINUOUS
 10
-22.3697703328
 20
16.5952380657
 11
-22.3697703328
 21
16.2238096714
  0
LINE
  5
32C
100
AcDbEntity
  8
0
100
AcDbLine
 62
250
  6
CONTINUOUS
 10
-22.3600483307
 20
7.2166670799
 11
-22.3600483307
 21
7.5880954742
  0
LINE
  5
32D
100
AcDbEntity
  8
0
100
AcDbLine
 62
250
  6
CONTINUOUS
 10
-22.3600483307
 20
11.0238096714
 11
-22.3600483307
 21
11.76666646
  0
LINE
  5
32E
100
AcDbEntity
  8
0
100
AcDbLine
 62
250
  6
CONTINUOUS
 10
-22.3600483307
 20
16.0380951643
 11
-22.3600483307
 21
16.5952380657
  0
LINE
  5
32F
100
AcDbEntity
  8
0
100
AcDbLine
 62
250
  6
CONTINUOUS
 10
-22.3600483307
 20
17.3071429014
 11
-22.3600483307
 21
17.7714285493
  0
LINE
  5
330
100
AcDbEntity
  8
CURVE
100
AcDbLine
 62
250
  6
CONTINUOUS
 10
-22.3476348052
 20
-15.0714285746
 11
-22.3476348052
 21
-15.1785714477
  0
LINE
  5
331
100
AcDbEntity
  8
CURVE
100
AcDbLine
 62
250
  6
CONTINUOUS
 10
-22.3476348052
 20
-18.5
 11
-22.3476348052
 21
-18.6071428061
  0
LINE
  5
332
100
AcDbEntity
  8
CURVE
100
AcDbLine
 62
250
  6
CONTINUOUS
 10
-22.3476348052
 20
-19.8928571939
 11
-22.3476348052
 21
-19.3571428061
  0
LINE
  5
333
100
AcDbEntity
  8
CURVE
100
AcDbLine
 62
250
  6
CONTINUOUS
 10
-22.3476348052
 20
-17.6428571939
 11
-22.3476348052
 21
-17.1071428061
  0
LINE
  5
334
100
AcDbEntity
  8
0
100
AcDbLine
 62
250
  6
CONTINUOUS
 10
-22.3449635519
 20
-4.361883
 11
-22.3449635519
 21
-4.479503
  0
LINE
  5
335
100
AcDbEntity
  8
0
100
AcDbLine
 62
250
  6
CONTINUOUS
 10
-22.3443435572
 20
18.1428570986
 11
-22.3443435572
 21
17.4928570986
  0
LINE
  5
336
100
AcDbEntity
  8
0
100
AcDbLine
 62
250
  6
CONTINUOUS
 10
-22.3443435572
 20
15.8214287043
 11
-22.3443435572
 21
15.7285712957
  0
LINE
  5
337
100
AcDbEntity
  8
0
100
AcDbLine
 62
250
  6
CONTINUOUS
 10
-22.3443435572
 20
14.8
 11
-22.3443435572
 21
14.7071425915
  0
LINE
  5
338
100
AcDbEntity
  8
0
100
AcDbLine
 62
250
  6
CONTINUOUS
 10
-22.3443435572
 20
10.3428574085
 11
-22.3443435572
 21
10.9
  0
LINE
  5
339
100
AcDbEntity
  8
0
100
AcDbLine
 62
250
  6
CONTINUOUS
 10
-22.3443435572
 20
19.628571412
 11
-22.3443435572
 21
20.0
  0
LINE
  5
33A
100
AcDbEntity
  8
0
100
AcDbLine
 62
250
  6
CONTINUOUS
 10
-22.3415345393
 20
-4.305174
 11
-22.3415345393
 21
-5.651041
  0
LINE
  5
33B
100
AcDbEntity
  8
0
100
AcDbLine
 62
250
  6
CONTINUOUS
 10
-22.3394825558
 20
17.1214287043
 11
-22.3394825558
 21
16.4714287043
  0
LINE
  5
33C
100
AcDbEntity
  8
CURVE
100
AcDbLine
 62
250
  6
CONTINUOUS
 10
-22.3364136919
 20
-16.6071429253
 11
-22.3364136919
 21
-16.1428571045
  0
LINE
  5
33D
100
AcDbEntity
  8
0
100
AcDbLine
 62
250
  6
CONTINUOUS
 10
-22.3362418881
 20
18.5142856479
 11
-22.3362418881
 21
19.0714285493
  0
LINE
  5
33E
100
AcDbEntity
  8
CURVE
100
AcDbLine
 62
250
  6
CONTINUOUS
 10
-22.3326733203
 20
-17.321428597
 11
-22.3326733203
 21
-17.5357142091
  0
LINE
  5
33F
100
AcDbEntity
  8
CURVE
100
AcDbLine
 62
250
  6
CONTINUOUS
 10
-22.3326733203
 20
-19.5714284182
 11
-22.3326733203
 21
-19.7857143879
  0
LINE
  5
340
100
AcDbEntity
  8
0
100
AcDbLine
 62
250
  6
CONTINUOUS
 10
-22.3313808864
 20
20.0
 11
-22.3313808864
 21
19.628571412
  0
LINE
  5
341
100
AcDbEntity
  8
0
100
AcDbLine
 62
250
  6
CONTINUOUS
 10
-22.3313808864
 20
11.2714283943
 11
-22.3313808864
 21
11.9214283943
  0
LINE
  5
342
100
AcDbEntity
  8
0
100
AcDbLine
 62
250
  6
CONTINUOUS
 10
-22.328140219
 20
10.3428574085
 11
-22.328140219
 21
10.9
  0
LINE
  5
343
100
AcDbEntity
  8
0
100
AcDbLine
 62
250
  6
CONTINUOUS
 10
-22.3216588843
 20
17.9571429014
 11
-22.3216588843
 21
17.6785714507
  0
LINE
  5
344
100
AcDbEntity
  8
0
100
AcDbLine
 62
250
  6
CONTINUOUS
 10
-22.3216588843
 20
14.7071425915
 11
-22.3216588843
 21
14.8
  0
LINE
  5
345
100
AcDbEntity
  8
0
100
AcDbLine
 62
250
  6
CONTINUOUS
 10
-22.3216588843
 20
15.7285712957
 11
-22.3216588843
 21
15.8214287043
  0
LINE
  5
346
100
AcDbEntity
  8
0
100
AcDbLine
 62
250
  6
CONTINUOUS
 10
-22.3216588843
 20
19.4428571373
 11
-22.3216588843
 21
20.0
  0
LINE
  5
347
100
AcDbEntity
  8
CURVE
100
AcDbLine
 62
250
  6
CONTINUOUS
 10
-22.3214522078
 20
-16.1428571045
 11
-22.3214522078
 21
-16.4642857909
  0
LINE
  5
348
100
AcDbEntity
  8
CURVE
100
AcDbLine
 62
250
  6
CONTINUOUS
 10
-22.3214522078
 20
-17.1071428061
 11
-22.3214522078
 21
-17.5357142091
  0
LINE
  5
349
100
AcDbEntity
  8
CURVE
100
AcDbLine
 62
250
  6
CONTINUOUS
 10
-22.3214522078
 20
-19.3571428061
 11
-22.3214522078
 21
-19.7857143879
  0
LINE
  5
34A
100
AcDbEntity
  8
CURVE
100
AcDbLine
 62
250
  6
CONTINUOUS
 10
-22.3214522078
 20
-18.6071428061
 11
-22.3214522078
 21
-18.5
  0
LINE
  5
34B
100
AcDbEntity
  8
CURVE
100
AcDbLine
 62
250
  6
CONTINUOUS
 10
-22.3214522078
 20
-15.1785714477
 11
-22.3214522078
 21
-15.0714285746
  0
LINE
  5
34C
100
AcDbEntity
  8
0
100
AcDbLine
 62
250
  6
CONTINUOUS
 10
-22.3071808681
 20
2.73959
 11
-22.3071808681
 21
4.228126
  0
LINE
  5
34D
100
AcDbEntity
  8
CURVE
100
AcDbLine
 62
250
  6
CONTINUOUS
 10
-22.3040215926
 20
-18.6195760699
 11
-22.3040215926
 21
-18.4898546903
  0
LINE
  5
34E
100
AcDbEntity
  8
CURVE
100
AcDbLine
 62
250
  6
CONTINUOUS
 10
-22.3039887321
 20
-15.790675
 11
-22.3039887321
 21
-14.33182
  0
LINE
  5
34F
100
AcDbEntity
  8
CURVE
100
AcDbLine
 62
250
  6
CONTINUOUS
 10
-22.3039888368
 20
-13.228862
 11
-22.3039888368
 21
-12.911231
  0
LINE
  5
350
100
AcDbEntity
  8
CURVE
100
AcDbLine
 62
250
  6
CONTINUOUS
 10
-22.3039887321
 20
-11.931854
 11
-22.3039887321
 21
-10.473018
  0
LINE
  5
351
100
AcDbEntity
  8
CURVE
100
AcDbLine
 62
250
  6
CONTINUOUS
 10
-22.3039887321
 20
-9.887785
 11
-22.3039887321
 21
-9.581899
  0
LINE
  5
352
100
AcDbEntity
  8
CURVE
100
AcDbLine
 62
250
  6
CONTINUOUS
 10
-22.3039887321
 20
-8.478917
 11
-22.3039887321
 21
-8.214221
  0
LINE
  5
353
100
AcDbEntity
  8
CURVE
100
AcDbLine
 62
250
  6
CONTINUOUS
 10
-22.3039846838
 20
18.110417
 11
-22.3039846838
 21
17.672102
  0
LINE
  5
354
100
AcDbEntity
  8
CURVE
100
AcDbLine
 62
250
  6
CONTINUOUS
 10
-22.3039846907
 20
13.3820865903
 11
-22.3039846907
 21
12.9455347068
  0
LINE
  5
355
100
AcDbEntity
  8
CURVE
100
AcDbLine
 62
250
  6
CONTINUOUS
 10
-22.3039846907
 20
12.2743149283
 11
-22.3039846907
 21
11.8527063336
  0
LINE
  5
356
100
AcDbEntity
  8
CURVE
100
AcDbLine
 62
250
  6
CONTINUOUS
 10
-22.3039846838
 20
13.510797
 11
-22.3039846838
 21
13.972764
  0
LINE
  5
357
100
AcDbEntity
  8
CURVE
100
AcDbLine
 62
250
  6
CONTINUOUS
 10
-22.3039846838
 20
14.804171
 11
-22.3039846838
 21
15.237731
  0
LINE
  5
358
100
AcDbEntity
  8
CURVE
100
AcDbLine
 62
250
  6
CONTINUOUS
 10
-22.3039846838
 20
15.306558
 11
-22.3039846838
 21
15.735347
  0
LINE
  5
359
100
AcDbEntity
  8
CURVE
100
AcDbLine
 62
250
  6
CONTINUOUS
 10
-22.3039846838
 20
16.346558
 11
-22.3039846838
 21
16.408032
  0
LINE
  5
35A
100
AcDbEntity
  8
CURVE
100
AcDbLine
 62
250
  6
CONTINUOUS
 10
-22.3039846838
 20
17.016817
 11
-22.3039846838
 21
17.436142
  0
LINE
  5
35B
100
AcDbEntity
  8
CURVE
100
AcDbLine
 62
250
  6
CONTINUOUS
 10
-22.3039846838
 20
18.948044
 11
-22.3039846838
 21
19.33431
  0
LINE
  5
35C
100
AcDbEntity
  8
0
100
AcDbLine
 62
250
  6
CONTINUOUS
 10
-22.301059822
 20
-4.86807
 11
-22.301059822
 21
-5.69141
  0
LINE
  5
35D
100
AcDbEntity
  8
CURVE
100
AcDbLine
 62
250
  6
CONTINUOUS
 10
-22.2998829459
 20
-10.752447
 11
-22.2998829459
 21
-11.931854
  0
LINE
  5
35E
100
AcDbEntity
  8
CURVE
100
AcDbLine
 62
250
  6
CONTINUOUS
 10
-22.2998829459
 20
-14.611228
 11
-22.2998829459
 21
-15.790675
  0
LINE
  5
35F
100
AcDbEntity
  8
0
100
AcDbLine
 62
250
  6
CONTINUOUS
 10
-22.2972958816
 20
-5.69141
 11
-22.2972958816
 21
-4.86807
  0
LINE
  5
360
100
AcDbEntity
  8
CURVE
100
AcDbLine
 62
250
  6
CONTINUOUS
 10
-22.2966697667
 20
14.086311
 11
-22.2966697667
 21
14.683223
  0
LINE
  5
361
100
AcDbEntity
  8
0
100
AcDbLine
 62
250
  6
CONTINUOUS
 10
-22.2956827544
 20
-6.147887
 11
-22.2956827544
 21
-6.497947
  0
LINE
  5
362
100
AcDbEntity
  8
0
100
AcDbLine
 62
250
  6
CONTINUOUS
 10
-22.2938318106
 20
2.73959
 11
-22.2938318106
 21
4.228126
  0
LINE
  5
363
100
AcDbEntity
  8
CURVE
100
AcDbLine
 62
250
  6
CONTINUOUS
 10
-22.2910095046
 20
14.593564
 11
-22.2910095046
 21
14.173908
  0
LINE
  5
364
100
AcDbEntity
  8
0
100
AcDbLine
 62
250
  6
CONTINUOUS
 10
-22.2891813711
 20
-6.497947
 11
-22.2891813711
 21
-6.147887
  0
LINE
  5
365
100
AcDbEntity
  8
CURVE
100
AcDbLine
 62
250
  6
CONTINUOUS
 10
-22.2875980452
 20
-19.4410747908
 11
-22.2876713746
 21
-18.6195760699
  0
LINE
  5
366
100
AcDbEntity
  8
CURVE
100
AcDbLine
 62
250
  6
CONTINUOUS
 10
-22.2872063668
 20
-15.702464
 11
-22.2872063668
 21
-14.611228
  0
LINE
  5
367
100
AcDbEntity
  8
CURVE
100
AcDbLine
 62
250
  6
CONTINUOUS
 10
-22.2872063668
 20
-11.843621
 11
-22.2872063668
 21
-10.752447
  0
LINE
  5
368
100
AcDbEntity
  8
CURVE
100
AcDbLine
 62
250
  6
CONTINUOUS
 10
-22.285717311
 20
-18.6195760699
 11
-22.2856836512
 21
-19.4115975156
  0
LINE
  5
369
100
AcDbEntity
  8
CURVE
100
AcDbLine
 62
250
  6
CONTINUOUS
 10
-22.2836396776
 20
12.700556729
 11
-22.2836442998
 21
12.9600685904
  0
LINE
  5
36A
100
AcDbEntity
  8
CURVE
100
AcDbLine
 62
250
  6
CONTINUOUS
 10
-22.2831002317
 20
-10.752447
 11
-22.2831002317
 21
-11.843621
  0
LINE
  5
36B
100
AcDbEntity
  8
CURVE
100
AcDbLine
 62
250
  6
CONTINUOUS
 10
-22.2831002317
 20
-14.611228
 11
-22.2831002317
 21
-15.702464
  0
LINE
  5
36C
100
AcDbEntity
  8
0
100
AcDbLine
 62
250
  6
CONTINUOUS
 10
-22.2828467534
 20
-6.2324000916
 11
-22.2828467534
 21
-3.770027
  0
LINE
  5
36D
100
AcDbEntity
  8
0
100
AcDbLine
 62
250
  6
CONTINUOUS
 10
-22.2781321753
 20
-4.923073
 11
-22.2781419152
 21
-5.496076
  0
LINE
  5
36E
100
AcDbEntity
  8
0
100
AcDbLine
 62
250
  6
CONTINUOUS
 10
-22.2759586706
 20
-4.39759
 11
-22.2759586706
 21
-4.298216
  0
LINE
  5
36F
100
AcDbEntity
  8
CURVE
100
AcDbLine
 62
250
  6
CONTINUOUS
 10
-22.2714498374
 20
-15.781817
 11
-22.2714498374
 21
-14.611228
  0
LINE
  5
370
100
AcDbEntity
  8
CURVE
100
AcDbLine
 62
250
  6
CONTINUOUS
 10
-22.2714498374
 20
-11.923035
 11
-22.2714498374
 21
-10.752447
  0
LINE
  5
371
100
AcDbEntity
  8
CURVE
100
AcDbLine
 62
250
  6
CONTINUOUS
 10
-22.2673433008
 20
19.999995
 11
-22.2673433008
 21
19.523849
  0
LINE
  5
372
100
AcDbEntity
  8
CURVE
100
AcDbLine
 62
250
  6
CONTINUOUS
 10
-22.2673433008
 20
18.711093
 11
-22.2673433008
 21
18.273077
  0
LINE
  5
373
100
AcDbEntity
  8
CURVE
100
AcDbLine
 62
250
  6
CONTINUOUS
 10
-22.2673433008
 20
17.246541
 11
-22.2673433008
 21
16.808587
  0
LINE
  5
374
100
AcDbEntity
  8
CURVE
100
AcDbLine
 62
250
  6
CONTINUOUS
 10
-22.2673433008
 20
15.936586
 11
-22.2673433008
 21
15.502915
  0
LINE
  5
375
100
AcDbEntity
  8
CURVE
100
AcDbLine
 62
250
  6
CONTINUOUS
 10
-22.2673433008
 20
14.579093
 11
-22.2673433008
 21
14.155075
  0
LINE
  5
376
100
AcDbEntity
  8
CURVE
100
AcDbLine
 62
250
  6
CONTINUOUS
 10
-22.2673440337
 20
-8.214221
 11
-22.2673440337
 21
-8.511288
  0
LINE
  5
377
100
AcDbEntity
  8
CURVE
100
AcDbLine
 62
250
  6
CONTINUOUS
 10
-22.2673440337
 20
-9.623069
 11
-22.2673440337
 21
-9.887785
  0
LINE
  5
378
100
AcDbEntity
  8
CURVE
100
AcDbLine
 62
250
  6
CONTINUOUS
 10
-22.2673440337
 20
-10.473018
 11
-22.2673440337
 21
-11.923035
  0
LINE
  5
379
100
AcDbEntity
  8
CURVE
100
AcDbLine
 62
250
  6
CONTINUOUS
 10
-22.2673441384
 20
-12.170057
 11
-22.2673441384
 21
-12.472957
  0
LINE
  5
37A
100
AcDbEntity
  8
CURVE
100
AcDbLine
 62
250
  6
CONTINUOUS
 10
-22.2673441384
 20
-13.684754
 11
-22.2673441384
 21
-13.975948
  0
LINE
  5
37B
100
AcDbEntity
  8
CURVE
100
AcDbLine
 62
250
  6
CONTINUOUS
 10
-22.2673440337
 20
-14.33182
 11
-22.2673440337
 21
-15.781817
  0
LINE
  5
37C
100
AcDbEntity
  8
CURVE
100
AcDbLine
 62
250
  6
CONTINUOUS
 10
-22.2673411022
 20
17.672102
 11
-22.2673411022
 21
18.110417
  0
LINE
  5
37D
100
AcDbEntity
  8
CURVE
100
AcDbLine
 62
250
  6
CONTINUOUS
 10
-22.2673097605
 20
-16.5099484008
 11
-22.2673097605
 21
-16.6395895847
  0
LINE
  5
37E
100
AcDbEntity
  8
CURVE
100
AcDbLine
 62
250
  6
CONTINUOUS
 10
-22.2673097605
 20
-17.9891310643
 11
-22.2673097605
 21
-18.1187710331
  0
LINE
  5
37F
100
AcDbEntity
  8
RACCORDO
100
AcDbLine
 62
250
  6
CONTINUOUS
 10
-22.2428473752
 20
2.3338547134
 11
-22.2436085296
 21
-7.0009579653
  0
LINE
  5
380
100
AcDbEntity
  8
0
100
AcDbLine
 62
250
  6
CONTINUOUS
 10
-22.2428473752
 20
2.3338547134
 11
-22.2436085296
 21
-7.0009579653
  0
LINE
  5
381
100
AcDbEntity
  8
ASSI
100
AcDbLine
 62
250
  6
CONTINUOUS
 10
-22.2428473752
 20
2.3338547134
 11
-22.2436085296
 21
-7.0009579653
  0
LINE
  5
382
100
AcDbEntity
  8
RACCORDO
100
AcDbLine
 62
250
  6
CONTINUOUS
 10
-21.7429235217
 20
2.3360479955
 11
-21.7436846757
 21
-7.0079400882
  0
LINE
  5
383
100
AcDbEntity
  8
0
100
AcDbLine
 62
250
  6
CONTINUOUS
 10
-21.7429235217
 20
2.3360479955
 11
-21.7436846757
 21
-7.0079400882
  0
LINE
  5
384
100
AcDbEntity
  8
ASSI
100
AcDbLine
 62
250
  6
CONTINUOUS
 10
-21.7429235217
 20
2.3360479955
 11
-21.7436846757
 21
-7.0079400882
  0
LINE
  5
385
100
AcDbEntity
  8
RACCORDO
100
AcDbLine
 62
250
  6
CONTINUOUS
 10
-22.2436085296
 20
-7.0009579653
 11
-22.2474142967
 21
-16.3324690607
  0
LINE
  5
386
100
AcDbEntity
  8
0
100
AcDbLine
 62
250
  6
CONTINUOUS
 10
-22.2436085296
 20
-7.0009579653
 11
-22.2474142967
 21
-16.3324690607
  0
LINE
  5
387
100
AcDbEntity
  8
ASSI
100
AcDbLine
 62
250
  6
CONTINUOUS
 10
-22.2436085296
 20
-7.0009579653
 11
-22.2474142967
 21
-16.3324690607
  0
LINE
  5
388
100
AcDbEntity
  8
RACCORDO
100
AcDbLine
 62
250
  6
CONTINUOUS
 10
-21.7436846757
 20
-7.0079400882
 11
-21.7474904462
 21
-16.3494810544
  0
LINE
  5
389
100
AcDbEntity
  8
0
100
AcDbLine
 62
250
  6
CONTINUOUS
 10
-21.7436846757
 20
-7.0079400882
 11
-21.7474904462
 21
-16.3494810544
  0
LINE
  5
38A
100
AcDbEntity
  8
ASSI
100
AcDbLine
 62
250
  6
CONTINUOUS
 10
-21.7436846757
 20
-7.0079400882
 11
-21.7474904462
 21
-16.3494810544
  0
LINE
  5
38B
100
AcDbEntity
  8
CURVE
100
AcDbLine
 62
250
  6
CONTINUOUS
 10
-22.3048523801
 20
-17.2172688482
 11
-22.3045550638
 21
-17.5294331301
  0
LINE
  5
38C
100
AcDbEntity
  8
0
100
AcDbLine
 62
250
  6
CONTINUOUS
 10
-22.2956351335
 20
-1.2530494171
 11
-22.2953767035
 21
-1.6350765366
  0
LINE
  5
38D
100
AcDbEntity
  8
CURVE
100
AcDbLine
 62
250
  6
CONTINUOUS
 10
-22.2735855236
 20
12.9600685904
 11
-22.2732561126
 21
12.665529443
  0
LINE
  5
38E
100
AcDbEntity
  8
CURVE
100
AcDbLine
 62
250
  6
CONTINUOUS
 10
-22.2671225861
 20
12.5393680663
 11
-22.2677713927
 21
13.3820865903
  0
LINE
  5
38F
100
AcDbEntity
  8
0
100
AcDbLine
 62
250
  6
CONTINUOUS
 10
-22.3475349549
 20
-1.6307668062
 11
-22.347291513
 21
-1.2590297143
  0
LINE
  5
390
100
AcDbEntity
  8
CURVE
100
AcDbLine
 62
250
  6
CONTINUOUS
 10
-22.302917903
 20
-17.363310618
 11
-22.3026604884
 21
-17.1250604968
  0
LINE
  5
391
100
AcDbEntity
  8
CURVE
100
AcDbLine
 62
250
  6
CONTINUOUS
 10
-22.2692639301
 20
-18.6195760699
 11
-22.2695509871
 21
-19.5315304428
  0
LINE
  5
392
100
AcDbEntity
  8
0
100
AcDbLine
 62
250
  6
CONTINUOUS
 10
-22.3738174026
 20
-1.4999999992
 11
-22.3722411913
 21
-0.7663667522
  0
LINE
  5
393
100
AcDbEntity
  8
CURVE
100
AcDbLine
 62
250
  6
CONTINUOUS
 10
-22.2677440671
 20
-19.5923511124
 11
-22.2673098665
 21
-18.4898546903
  0
LINE
  5
394
100
AcDbEntity
  8
CURVE
100
AcDbLine
 62
250
  6
CONTINUOUS
 10
-22.2896452743
 20
12.9455347068
 11
-22.2897708367
 21
12.6560599229
  0
LINE
  5
395
100
AcDbEntity
  8
0
100
AcDbLine
 62
250
  6
CONTINUOUS
 10
-22.276224125
 20
-5.7487516358
 11
-22.2743358034
 21
-4.923073
  0
LINE
  5
396
100
AcDbEntity
  8
RACCORDO
100
AcDbLine
 62
250
  6
CONTINUOUS
 10
-22.2474142967
 20
-16.3324690607
 11
-22.2508096574
 21
-21.1180991804
  0
LINE
  5
397
100
AcDbEntity
  8
0
100
AcDbLine
 62
250
  6
CONTINUOUS
 10
-22.2474142967
 20
-16.3324690607
 11
-22.2508096574
 21
-21.1180991804
  0
LINE
  5
398
100
AcDbEntity
  8
ASSI
100
AcDbLine
 62
250
  6
CONTINUOUS
 10
-22.2474142967
 20
-16.3324690607
 11
-22.2508096574
 21
-21.1180991804
  0
LINE
  5
399
100
AcDbEntity
  8
0
100
AcDbLine
 62
250
  6
CONTINUOUS
 10
-22.355186681
 20
-0.9840124392
 11
-22.3563623314
 21
-1.4999999992
  0
LINE
  5
39A
100
AcDbEntity
  8
RACCORDO
100
AcDbLine
 62
250
  6
CONTINUOUS
 10
-21.7474904462
 20
-16.3494810544
 11
-21.7517438025
 21
-21.4854407064
  0
LINE
  5
39B
100
AcDbEntity
  8
0
100
AcDbLine
 62
250
  6
CONTINUOUS
 10
-21.7474904462
 20
-16.3494810544
 11
-21.7517438025
 21
-21.4854407064
  0
LINE
  5
39C
100
AcDbEntity
  8
ASSI
100
AcDbLine
 62
250
  6
CONTINUOUS
 10
-21.7474904462
 20
-16.3494810544
 11
-21.7517438025
 21
-21.4854407064
  0
LINE
  5
39D
100
AcDbEntity
  8
CURVE
100
AcDbLine
 62
250
  6
CONTINUOUS
 10
-22.304202618
 20
-17.0022826292
 11
-22.3048523801
 21
-17.2172688482
  0
LINE
  5
39E
100
AcDbEntity
  8
CURVE
100
AcDbLine
 62
250
  6
CONTINUOUS
 10
-22.2732561126
 20
12.665529443
 11
-22.2736432377
 21
12.5556880773
  0
LINE
  5
39F
100
AcDbEntity
  8
0
100
AcDbLine
 62
250
  6
CONTINUOUS
 10
-22.2953767035
 20
-1.6350765366
 11
-22.2969167611
 21
-2.0235467069
  0
LINE
  5
3A0
100
AcDbEntity
  8
CURVE
100
AcDbLine
 62
250
  6
CONTINUOUS
 10
-22.268270153
 20
12.2836117233
 11
-22.2671225861
 21
12.5393680663
  0
LINE
  5
3A1
100
AcDbEntity
  8
0
100
AcDbLine
 62
250
  6
CONTINUOUS
 10
-22.347291513
 20
-1.2590297143
 11
-22.3455478216
 21
-0.9139298774
  0
LINE
  5
3A2
100
AcDbEntity
  8
CURVE
100
AcDbLine
 62
250
  6
CONTINUOUS
 10
-22.3026604884
 20
-17.1250604968
 11
-22.3019300785
 21
-16.9956774645
  0
LINE
  5
3A3
100
AcDbEntity
  8
CURVE
100
AcDbLine
 62
250
  6
CONTINUOUS
 10
-22.2685783787
 20
-19.7229971371
 11
-22.2677440671
 21
-19.5923511124
  0
LINE
  5
3A4
100
AcDbEntity
  8
CURVE
100
AcDbLine
 62
250
  6
CONTINUOUS
 10
-22.2695509871
 20
-19.5315304428
 11
-22.2702097648
 21
-19.6345690162
  0
LINE
  5
3A5
100
AcDbEntity
  8
CURVE
100
AcDbLine
 62
250
  6
CONTINUOUS
 10
-22.2897708367
 20
12.6560599229
 11
-22.2901210877
 21
12.6039868016
  0
LINE
  5
3A6
100
AcDbEntity
  8
0
100
AcDbLine
 62
250
  6
CONTINUOUS
 10
-22.3722411913
 20
-0.7663667522
 11
-22.3681440991
 21
-0.1399837716
  0
LINE
  5
3A7
100
AcDbEntity
  8
0
100
AcDbLine
 62
250
  6
CONTINUOUS
 10
-22.277806465
 20
-5.9947386814
 11
-22.276224125
 21
-5.7487516358
  0
LINE
  5
3A8
100
AcDbEntity
  8
0
100
AcDbLine
 62
250
  6
CONTINUOUS
 10
-22.3524029585
 20
-0.5741097642
 11
-22.355186681
 21
-0.9840124392
  0
LINE
  5
3A9
100
AcDbEntity
  8
CURVE
100
AcDbLine
 62
250
  6
CONTINUOUS
 10
-22.3031949869
 20
-16.8681288908
 11
-22.304202618
 21
-17.0022826292
  0
LINE
  5
3AA
100
AcDbEntity
  8
RACCORDO
100
AcDbLine
 62
250
  6
CONTINUOUS
 10
-22.2508096574
 20
-21.1180991804
 11
-22.2516659628
 21
-21.2307227352
  0
LINE
  5
3AB
100
AcDbEntity
  8
0
100
AcDbLine
 62
250
  6
CONTINUOUS
 10
-22.2508096574
 20
-21.1180991804
 11
-22.2516659628
 21
-21.2307227352
  0
LINE
  5
3AC
100
AcDbEntity
  8
ASSI
100
AcDbLine
 62
250
  6
CONTINUOUS
 10
-22.2508096574
 20
-21.1180991804
 11
-22.2516659628
 21
-21.2307227352
  0
LINE
  5
3AD
100
AcDbEntity
  8
RACCORDO
100
AcDbLine
 62
250
  6
CONTINUOUS
 10
-21.7517438025
 20
-21.4854407064
 11
-21.753574742
 21
-21.7355821182
  0
LINE
  5
3AE
100
AcDbEntity
  8
0
100
AcDbLine
 62
250
  6
CONTINUOUS
 10
-21.7517438025
 20
-21.4854407064
 11
-21.753574742
 21
-21.7355821182
  0
LINE
  5
3AF
100
AcDbEntity
  8
ASSI
100
AcDbLine
 62
250
  6
CONTINUOUS
 10
-21.7517438025
 20
-21.4854407064
 11
-21.753574742
 21
-21.7355821182
  0
LINE
  5
3B0
100
AcDbEntity
  8
CURVE
100
AcDbLine
 62
250
  6
CONTINUOUS
 10
-22.2736432377
 20
12.5556880773
 11
-22.2741718847
 21
12.4900328615
  0
LINE
  5
3B1
100
AcDbEntity
  8
0
100
AcDbLine
 62
250
  6
CONTINUOUS
 10
-22.2969167611
 20
-2.0235467069
 11
-22.2992335194
 21
-2.2932294304
  0
LINE
  5
3B2
100
AcDbEntity
  8
CURVE
100
AcDbLine
 62
250
  6
CONTINUOUS
 10
-22.2690180761
 20
12.2039903382
 11
-22.268270153
 21
12.2836117233
  0
LINE
  5
3B3
100
AcDbEntity
  8
0
100
AcDbLine
 62
250
  6
CONTINUOUS
 10
-22.3455478216
 20
-0.9139298774
 11
-22.3431288363
 21
-0.6598777108
  0
LINE
  5
3B4
100
AcDbEntity
  8
CURVE
100
AcDbLine
 62
250
  6
CONTINUOUS
 10
-22.2873424714
 20
12.2059783284
 11
-22.2868808144
 21
12.2551988561
  0
LINE
  5
3B5
100
AcDbEntity
  8
0
100
AcDbLine
 62
250
  6
CONTINUOUS
 10
-22.3681440991
 20
-0.1399837716
 11
-22.3641887441
 21
0.2340457986
  0
LINE
  5
3B6
100
AcDbEntity
  8
CURVE
100
AcDbLine
 62
250
  6
CONTINUOUS
 10
-22.3019300785
 20
-16.9956774645
 11
-22.3008847812
 21
-16.8961878787
  0
LINE
  5
3B7
100
AcDbEntity
  8
CURVE
100
AcDbLine
 62
250
  6
CONTINUOUS
 10
-22.2901210877
 20
12.6039868016
 11
-22.2905806987
 21
12.5624894236
  0
LINE
  5
3B8
100
AcDbEntity
  8
0
100
AcDbLine
 62
250
  6
CONTINUOUS
 10
-22.2791589841
 20
-6.1176070521
 11
-22.277806465
 21
-5.9947386814
  0
LWPOLYLINE
  5
3B9
100
AcDbEntity
  8
RACCORDO
100
AcDbPolyline
 62
250
  6
CONTINUOUS
 90
8
 70
0
 10
-21.753574742
 20
-21.7355821182
 10
-21.7547336849
 20
-21.8316424864
 10
-21.7553594138
 20
-21.8712144185
 10
-21.7560155151
 20
-21.9047715709
 10
-21.7566887591
 20
-21.9320798744
 10
-21.7573747357
 20
-21.9529558612
 10
-21.7580778549
 20
-21.9672631277
 10
-21.7587981167
 20
-21.9749071372
  0
LWPOLYLINE
  5
3BA
100
AcDbEntity
  8
0
100
AcDbPolyline
 62
250
  6
CONTINUOUS
 90
8
 70
0
 10
-21.753574742
 20
-21.7355821182
 10
-21.7547336849
 20
-21.8316424864
 10
-21.7553594138
 20
-21.8712144185
 10
-21.7560155151
 20
-21.9047715709
 10
-21.7566887591
 20
-21.9320798744
 10
-21.7573747357
 20
-21.9529558612
 10
-21.7580778549
 20
-21.9672631277
 10
-21.7587981167
 20
-21.9749071372
  0
LWPOLYLINE
  5
3BB
100
AcDbEntity
  8
ASSI
100
AcDbPolyline
 62
250
  6
CONTINUOUS
 90
8
 70
0
 10
-21.753574742
 20
-21.7355821182
 10
-21.7547336849
 20
-21.8316424864
 10
-21.7553594138
 20
-21.8712144185
 10
-21.7560155151
 20
-21.9047715709
 10
-21.7566887591
 20
-21.9320798744
 10
-21.7573747357
 20
-21.9529558612
 10
-21.7580778549
 20
-21.9672631277
 10
-21.7587981167
 20
-21.9749071372
  0
LINE
  5
3BC
100
AcDbEntity
  8
CURVE
100
AcDbLine
 62
250
  6
CONTINUOUS
 10
-22.2695327435
 20
-19.8096118129
 11
-22.2685783787
 21
-19.7229971371
  0
LINE
  5
3BD
100
AcDbEntity
  8
0
100
AcDbLine
 62
250
  6
CONTINUOUS
 10
-22.3490080338
 20
-0.2719352502
 11
-22.3524029585
 21
-0.5741097642
  0
LINE
  5
3BE
100
AcDbEntity
  8
RACCORDO
100
AcDbLine
 62
250
  6
CONTINUOUS
 10
-22.2516659628
 20
-21.2307227352
 11
-22.252494253
 21
-21.297692487
  0
LINE
  5
3BF
100
AcDbEntity
  8
0
100
AcDbLine
 62
250
  6
CONTINUOUS
 10
-22.2516659628
 20
-21.2307227352
 11
-22.252494253
 21
-21.297692487
  0
LINE
  5
3C0
100
AcDbEntity
  8
ASSI
100
AcDbLine
 62
250
  6
CONTINUOUS
 10
-22.2516659628
 20
-21.2307227352
 11
-22.252494253
 21
-21.297692487
  0
LINE
  5
3C1
100
AcDbEntity
  8
CURVE
100
AcDbLine
 62
250
  6
CONTINUOUS
 10
-22.3020685189
 20
-16.7729267089
 11
-22.3031949869
 21
-16.8681288908
  0
LINE
  5
3C2
100
AcDbEntity
  8
CURVE
100
AcDbLine
 62
250
  6
CONTINUOUS
 10
-22.2702097648
 20
-19.6345690162
 11
-22.2710487365
 21
-19.7087988693
  0
LINE
  5
3C3
100
AcDbEntity
  8
CURVE
100
AcDbLine
 62
250
  6
CONTINUOUS
 10
-22.2741718847
 20
12.4900328615
 11
-22.2745884748
 21
12.456769205
  0
LINE
  5
3C4
100
AcDbEntity
  8
0
100
AcDbLine
 62
250
  6
CONTINUOUS
 10
-22.3481247688
 20
-0.209583466
 11
-22.3490080338
 21
-0.2719352502
  0
LINE
  5
3C5
100
AcDbEntity
  8
0
100
AcDbLine
 62
250
  6
CONTINUOUS
 10
-22.2992335194
 20
-2.2932294304
 11
-22.3018477312
 21
-2.4942332507
  0
LINE
  5
3C6
100
AcDbEntity
  8
0
100
AcDbLine
 62
250
  6
CONTINUOUS
 10
-22.3665296654
 20
7.7738090515
 11
-22.3762516682
 21
7.1238090515
  0
LWPOLYLINE
  5
3C7
100
AcDbEntity
  8
0
100
AcDbPolyline
 62
250
  6
CONTINUOUS
 90
3
 70
0
 10
-22.3431288363
 20
-0.6598777108
 10
-22.3404627914
 20
-0.4685592932
 10
-22.3399169163
 20
-0.4363708784
  0
LINE
  5
3C8
100
AcDbEntity
  8
CURVE
100
AcDbLine
 62
250
  6
CONTINUOUS
 10
-22.2878570473
 20
12.1701014789
 11
-22.2873424714
 21
12.2059783284
  0
LINE
  5
3C9
100
AcDbEntity
  8
CURVE
100
AcDbLine
 62
250
  6
CONTINUOUS
 10
-22.2700285074
 20
12.1329956955
 11
-22.2690180761
 21
12.2039903382
  0
LINE
  5
3CA
100
AcDbEntity
  8
0
100
AcDbLine
 62
250
  6
CONTINUOUS
 10
-22.2801729414
 20
-6.183542891
 11
-22.2791589841
 21
-6.1176070521
  0
LINE
  5
3CB
100
AcDbEntity
  8
CURVE
100
AcDbLine
 62
250
  6
CONTINUOUS
 10
-22.2905806987
 20
12.5624894236
 11
-22.2910390141
 21
12.5328353301
  0
LINE
  5
3CC
100
AcDbEntity
  8
0
100
AcDbLine
 62
250
  6
CONTINUOUS
 10
-22.3313808864
 20
19.628571412
 11
-22.3346215544
 21
19.4428571373
  0
LINE
  5
3CD
100
AcDbEntity
  8
0
100
AcDbLine
 62
250
  6
CONTINUOUS
 10
-22.363288998
 20
17.1214287043
 11
-22.3600483307
 21
17.3071429014
  0
LINE
  5
3CE
100
AcDbEntity
  8
0
100
AcDbLine
 62
250
  6
CONTINUOUS
 10
-22.3216588843
 20
17.6785714507
 11
-22.3248995517
 21
17.4928570986
  0
LINE
  5
3CF
100
AcDbEntity
  8
0
100
AcDbLine
 62
250
  6
CONTINUOUS
 10
-22.3411028895
 20
16.0071429014
 11
-22.3443435572
 21
15.8214287043
  0
LINE
  5
3D0
100
AcDbEntity
  8
0
100
AcDbLine
 62
250
  6
CONTINUOUS
 10
-22.3411028895
 20
14.9857141972
 11
-22.3443435572
 21
14.8
  0
LINE
  5
3D1
100
AcDbEntity
  8
0
100
AcDbLine
 62
250
  6
CONTINUOUS
 10
-22.3248995517
 20
15.5428570986
 11
-22.3216588843
 21
15.7285712957
  0
LINE
  5
3D2
100
AcDbEntity
  8
0
100
AcDbLine
 62
250
  6
CONTINUOUS
 10
-22.3248995517
 20
14.5214283943
 11
-22.3216588843
 21
14.7071425915
  0
LINE
  5
3D3
100
AcDbEntity
  8
0
100
AcDbLine
 62
250
  6
CONTINUOUS
 10
-22.3827330035
 20
10.46666646
 11
-22.3794923358
 21
10.6523806572
  0
LINE
  5
3D4
100
AcDbEntity
  8
0
100
AcDbLine
 62
250
  6
CONTINUOUS
 10
-22.3827330035
 20
7.6809522629
 11
-22.3811126697
 21
7.7738090515
  0
LINE
  5
3D5
100
AcDbEntity
  8
0
100
AcDbLine
 62
250
  6
CONTINUOUS
 10
-22.361668665
 20
7.1238090515
 11
-22.3600483307
 21
7.2166670799
  0
LINE
  5
3D6
100
AcDbEntity
  8
CURVE
100
AcDbLine
 62
250
  6
CONTINUOUS
 10
-22.343894434
 20
-14.8571428619
 11
-22.3476348052
 21
-15.0714285746
  0
LINE
  5
3D7
100
AcDbEntity
  8
CURVE
100
AcDbLine
 62
250
  6
CONTINUOUS
 10
-22.3251925787
 20
-15.3928571492
 11
-22.3214522078
 21
-15.1785714477
  0
LINE
  5
3D8
100
AcDbEntity
  8
CURVE
100
AcDbLine
 62
250
  6
CONTINUOUS
 10
-22.3364136919
 20
-16.1428571045
 11
-22.3326733203
 21
-15.928571403
  0
LINE
  5
3D9
100
AcDbEntity
  8
CURVE
100
AcDbLine
 62
250
  6
CONTINUOUS
 10
-22.3214522078
 20
-16.4642857909
 11
-22.3251925787
 21
-16.678571403
  0
LINE
  5
3DA
100
AcDbEntity
  8
CURVE
100
AcDbLine
 62
250
  6
CONTINUOUS
 10
-22.3326733203
 20
-17.5357142091
 11
-22.3364136919
 21
-17.75
  0
LINE
  5
3DB
100
AcDbEntity
  8
CURVE
100
AcDbLine
 62
250
  6
CONTINUOUS
 10
-22.343894434
 20
-18.2857143879
 11
-22.3476348052
 21
-18.5
  0
LINE
  5
3DC
100
AcDbEntity
  8
CURVE
100
AcDbLine
 62
250
  6
CONTINUOUS
 10
-22.3251925787
 20
-18.8214284182
 11
-22.3214522078
 21
-18.6071428061
  0
LINE
  5
3DD
100
AcDbEntity
  8
CURVE
100
AcDbLine
 62
250
  6
CONTINUOUS
 10
-22.3326733203
 20
-19.7857143879
 11
-22.3364136919
 21
-20.0
  0
LINE
  5
3DE
100
AcDbEntity
  8
CURVE
100
AcDbLine
 62
250
  6
CONTINUOUS
 10
-22.2710487365
 20
-19.7087988693
 11
-22.2716722292
 21
-19.7472670305
  0
LINE
  5
3DF
100
AcDbEntity
  8
CURVE
100
AcDbLine
 62
250
  6
CONTINUOUS
 10
-22.3010477618
 20
-16.7103279015
 11
-22.3020685189
 21
-16.7729267089
  0
LINE
  5
3E0
100
AcDbEntity
  8
CURVE
100
AcDbLine
 62
250
  6
CONTINUOUS
 10
-22.3008847812
 20
-16.8961878787
 11
-22.2997544979
 21
-16.8240583124
  0
LINE
  5
3E1
100
AcDbEntity
  8
CURVE
100
AcDbLine
 62
250
  6
CONTINUOUS
 10
-22.2703132963
 20
-19.8580995823
 11
-22.2695327435
 21
-19.8096118129
  0
LINE
  5
3E2
100
AcDbEntity
  8
0
100
AcDbLine
 62
250
  6
CONTINUOUS
 10
-22.3542845042
 20
-7.311556
 11
-22.2674056539
 21
-2.57987
  0
LINE
  5
3E3
100
AcDbEntity
  8
CURVE
100
AcDbLine
 62
250
  6
CONTINUOUS
 10
-22.2745884748
 20
12.456769205
 11
-22.2749601764
 21
12.4347138533
  0
LINE
  5
3E4
100
AcDbEntity
  8
RACCORDO
100
AcDbLine
 62
250
  6
CONTINUOUS
 10
-22.252494253
 20
-21.297692487
 11
-22.2534984168
 21
-21.3558303734
  0
LINE
  5
3E5
100
AcDbEntity
  8
0
100
AcDbLine
 62
250
  6
CONTINUOUS
 10
-22.252494253
 20
-21.297692487
 11
-22.2534984168
 21
-21.3558303734
  0
LINE
  5
3E6
100
AcDbEntity
  8
ASSI
100
AcDbLine
 62
250
  6
CONTINUOUS
 10
-22.252494253
 20
-21.297692487
 11
-22.2534984168
 21
-21.3558303734
  0
LINE
  5
3E7
100
AcDbEntity
  8
0
100
AcDbLine
 62
250
  6
CONTINUOUS
 10
-22.3018477312
 20
-2.4942332507
 11
-22.3041832903
 21
-2.6275547563
  0
LINE
  5
3E8
100
AcDbEntity
  8
CURVE
100
AcDbLine
 62
250
  6
CONTINUOUS
 10
-22.3214522078
 20
-17.5357142091
 11
-22.3251925787
 21
-17.7142856717
  0
LINE
  5
3E9
100
AcDbEntity
  8
CURVE
100
AcDbLine
 62
250
  6
CONTINUOUS
 10
-22.3214522078
 20
-19.7857143879
 11
-22.3251925787
 21
-19.9642858505
  0
LINE
  5
3EA
100
AcDbEntity
  8
CURVE
100
AcDbLine
 62
250
  6
CONTINUOUS
 10
-22.2910390141
 20
12.5328353301
 11
-22.2914520102
 21
12.5119677857
  0
LINE
  5
3EB
100
AcDbEntity
  8
CURVE
100
AcDbLine
 62
250
  6
CONTINUOUS
 10
-22.2884708885
 20
12.138472626
 11
-22.2878570473
 21
12.1701014789
  0
LINE
  5
3EC
100
AcDbEntity
  8
CURVE
100
AcDbLine
 62
250
  6
CONTINUOUS
 10
-22.2709869112
 20
12.0837882324
 11
-22.2700285074
 21
12.1329956955
  0
LINE
  5
3ED
100
AcDbEntity
  8
CURVE
100
AcDbLine
 62
250
  6
CONTINUOUS
 10
-22.3002929119
 20
-16.6739606223
 11
-22.3010477618
 21
-16.7103279015
  0
LINE
  5
3EE
100
AcDbEntity
  8
CURVE
100
AcDbLine
 62
250
  6
CONTINUOUS
 10
-22.2997544979
 20
-16.8240583124
 11
-22.2989819496
 21
-16.7866785564
  0
LINE
  5
3EF
100
AcDbEntity
  8
CURVE
100
AcDbLine
 62
250
  6
CONTINUOUS
 10
-22.2709577968
 20
-19.8890252013
 11
-22.2703132963
 21
-19.8580995823
  0
LINE
  5
3F0
100
AcDbEntity
  8
CURVE
100
AcDbLine
 62
250
  6
CONTINUOUS
 10
-22.2716722292
 20
-19.7472670305
 11
-22.2723693802
 21
-19.7801413861
  0
LINE
  5
3F1
100
AcDbEntity
  8
CURVE
100
AcDbLine
 62
250
  6
CONTINUOUS
 10
-22.2749601764
 20
12.4347138533
 11
-22.2753850984
 21
12.4155355508
  0
LINE
  5
3F2
100
AcDbEntity
  8
0
100
AcDbLine
 62
250
  6
CONTINUOUS
 10
-22.3041832903
 20
-2.6275547563
 11
-22.3067870935
 21
-2.7427614544
  0
LINE
  5
3F3
100
AcDbEntity
  8
CURVE
100
AcDbLine
 62
250
  6
CONTINUOUS
 10
-22.2890215942
 20
12.1159603738
 11
-22.2884708885
 21
12.138472626
  0
LWPOLYLINE
  5
3F4
100
AcDbEntity
  8
RACCORDO
100
AcDbPolyline
 62
250
  6
CONTINUOUS
 90
8
 70
0
 10
-22.2534984168
 20
-21.3558303734
 10
-22.2546585314
 20
-21.4039818068
 10
-22.2552850488
 20
-21.4237085483
 10
-22.2559419622
 20
-21.4405716188
 10
-22.2566154888
 20
-21.4542260345
 10
-22.2573010341
 20
-21.464556801
 10
-22.2580031927
 20
-21.4716789127
 10
-22.2587219643
 20
-21.4755923698
  0
LWPOLYLINE
  5
3F5
100
AcDbEntity
  8
0
100
AcDbPolyline
 62
250
  6
CONTINUOUS
 90
8
 70
0
 10
-22.2534984168
 20
-21.3558303734
 10
-22.2546585314
 20
-21.4039818068
 10
-22.2552850488
 20
-21.4237085483
 10
-22.2559419622
 20
-21.4405716188
 10
-22.2566154888
 20
-21.4542260345
 10
-22.2573010341
 20
-21.464556801
 10
-22.2580031927
 20
-21.4716789127
 10
-22.2587219643
 20
-21.4755923698
  0
LWPOLYLINE
  5
3F6
100
AcDbEntity
  8
ASSI
100
AcDbPolyline
 62
250
  6
CONTINUOUS
 90
8
 70
0
 10
-22.2534984168
 20
-21.3558303734
 10
-22.2546585314
 20
-21.4039818068
 10
-22.2552850488
 20
-21.4237085483
 10
-22.2559419622
 20
-21.4405716188
 10
-22.2566154888
 20
-21.4542260345
 10
-22.2573010341
 20
-21.464556801
 10
-22.2580031927
 20
-21.4716789127
 10
-22.2587219643
 20
-21.4755923698
  0
LINE
  5
3F7
100
AcDbEntity
  8
CURVE
100
AcDbLine
 62
250
  6
CONTINUOUS
 10
-22.2717737747
 20
12.0519976132
 11
-22.2709869112
 21
12.0837882324
  0
LINE
  5
3F8
100
AcDbEntity
  8
CURVE
100
AcDbLine
 62
250
  6
CONTINUOUS
 10
-22.2994854308
 20
-16.6421092152
 11
-22.3002929119
 21
-16.6739606223
  0
LINE
  5
3F9
100
AcDbEntity
  8
CURVE
100
AcDbLine
 62
250
  6
CONTINUOUS
 10
-22.2914520102
 20
12.5119677857
 11
-22.2918995621
 21
12.4937814434
  0
LINE
  5
3FA
100
AcDbEntity
  8
CURVE
100
AcDbLine
 62
250
  6
CONTINUOUS
 10
-22.3039887321
 20
-9.581899
 11
-22.2745808632
 21
-8.48483
  0
LINE
  5
3FB
100
AcDbEntity
  8
CURVE
100
AcDbLine
 62
250
  6
CONTINUOUS
 10
-22.2673440337
 20
-8.511288
 11
-22.2970604142
 21
-9.617197
  0
LINE
  5
3FC
100
AcDbEntity
  8
CURVE
100
AcDbLine
 62
250
  6
CONTINUOUS
 10
-22.2723693802
 20
-19.7801413861
 11
-22.2728742442
 21
-19.799239952
  0
LINE
  5
3FD
100
AcDbEntity
  8
CURVE
100
AcDbLine
 62
250
  6
CONTINUOUS
 10
-22.2716560221
 20
-19.9161385512
 11
-22.2709577968
 21
-19.8890252013
  0
LINE
  5
3FE
100
AcDbEntity
  8
CURVE
100
AcDbLine
 62
250
  6
CONTINUOUS
 10
-22.2989819496
 20
-16.7866785564
 11
-22.2980909126
 21
-16.7522510297
  0
LINE
  5
3FF
100
AcDbEntity
  8
CURVE
100
AcDbLine
 62
250
  6
CONTINUOUS
 10
-22.2753850984
 20
12.4155355508
 11
-22.2756931808
 21
12.4044901025
  0
LINE
  5
400
100
AcDbEntity
  8
0
100
AcDbLine
 62
250
  6
CONTINUOUS
 10
-22.3520150489
 20
0.9362962353
 11
-22.3473242536
 21
1.1088715299
  0
LINE
  5
401
100
AcDbEntity
  8
0
100
AcDbLine
 62
250
  6
CONTINUOUS
 10
-22.3067870935
 20
-2.7427614544
 11
-22.3086492729
 21
-2.8086827524
  0
LINE
  5
402
100
AcDbEntity
  8
CURVE
100
AcDbLine
 62
250
  6
CONTINUOUS
 10
-22.2896155354
 20
12.095707878
 11
-22.2890215942
 21
12.1159603738
  0
LINE
  5
403
100
AcDbEntity
  8
CURVE
100
AcDbLine
 62
250
  6
CONTINUOUS
 10
-22.2724352529
 20
12.0300372688
 11
-22.2717737747
 21
12.0519976132
  0
LINE
  5
404
100
AcDbEntity
  8
CURVE
100
AcDbLine
 62
250
  6
CONTINUOUS
 10
-22.2918995621
 20
12.4937814434
 11
-22.2922542168
 21
12.4819805068
  0
LINE
  5
405
100
AcDbEntity
  8
CURVE
100
AcDbLine
 62
250
  6
CONTINUOUS
 10
-22.2721463758
 20
-19.9320348777
 11
-22.2716560221
 21
-19.9161385512
  0
LINE
  5
406
100
AcDbEntity
  8
CURVE
100
AcDbLine
 62
250
  6
CONTINUOUS
 10
-22.2986290877
 20
-16.6143953634
 11
-22.2994854308
 21
-16.6421092152
  0
LINE
  5
407
100
AcDbEntity
  8
CURVE
100
AcDbLine
 62
250
  6
CONTINUOUS
 10
-22.2980909126
 20
-16.7522510297
 11
-22.2974638262
 21
-16.7323523077
  0
LINE
  5
408
100
AcDbEntity
  8
CURVE
100
AcDbLine
 62
250
  6
CONTINUOUS
 10
-22.2728742442
 20
-19.799239952
 11
-22.2734070627
 21
-19.8160657118
  0
LINE
  5
409
100
AcDbEntity
  8
0
100
AcDbLine
 62
250
  6
CONTINUOUS
 10
-22.3730110008
 20
19.628571412
 11
-22.3600483307
 21
20.0
  0
LINE
  5
40A
100
AcDbEntity
  8
0
100
AcDbLine
 62
250
  6
CONTINUOUS
 10
-22.3378622218
 20
16.1
 11
-22.3411028895
 21
16.0071429014
  0
LINE
  5
40B
100
AcDbEntity
  8
0
100
AcDbLine
 62
250
  6
CONTINUOUS
 10
-22.328140219
 20
15.45
 11
-22.3248995517
 21
15.5428570986
  0
LINE
  5
40C
100
AcDbEntity
  8
0
100
AcDbLine
 62
250
  6
CONTINUOUS
 10
-22.3378622218
 20
15.0785712957
 11
-22.3411028895
 21
14.9857141972
  0
LINE
  5
40D
100
AcDbEntity
  8
0
100
AcDbLine
 62
250
  6
CONTINUOUS
 10
-22.3827330035
 20
13.1595238686
 11
-22.3600483307
 21
13.8095238686
  0
LINE
  5
40E
100
AcDbEntity
  8
0
100
AcDbLine
 62
250
  6
CONTINUOUS
 10
-22.328140219
 20
14.4285716057
 11
-22.3248995517
 21
14.5214283943
  0
LINE
  5
40F
100
AcDbEntity
  8
0
100
AcDbLine
 62
250
  6
CONTINUOUS
 10
-22.3346215544
 20
12.6642858028
 11
-22.3216588843
 21
13.0357141972
  0
LINE
  5
410
100
AcDbEntity
  8
0
100
AcDbLine
 62
250
  6
CONTINUOUS
 10
-22.3827330035
 20
8.9809522629
 11
-22.3600483307
 21
9.6309522629
  0
LINE
  5
411
100
AcDbEntity
  8
0
100
AcDbLine
 62
250
  6
CONTINUOUS
 10
-22.3473242536
 20
1.1088715299
 11
-22.3440814742
 21
1.2059532829
  0
LINE
  5
412
100
AcDbEntity
  8
CURVE
100
AcDbLine
 62
250
  6
CONTINUOUS
 10
-22.3401540628
 20
-14.75
 11
-22.343894434
 21
-14.8571428619
  0
LINE
  5
413
100
AcDbEntity
  8
CURVE
100
AcDbLine
 62
250
  6
CONTINUOUS
 10
-22.3289329495
 20
-15.5
 11
-22.3251925787
 21
-15.3928571492
  0
LINE
  5
414
100
AcDbEntity
  8
CURVE
100
AcDbLine
 62
250
  6
CONTINUOUS
 10
-22.3401540628
 20
-18.1785715818
 11
-22.343894434
 21
-18.2857143879
  0
LINE
  5
415
100
AcDbEntity
  8
CURVE
100
AcDbLine
 62
250
  6
CONTINUOUS
 10
-22.3289329495
 20
-18.9285715818
 11
-22.3251925787
 21
-18.8214284182
  0
LWPOLYLINE
  5
416
100
AcDbEntity
  8
CURVE
100
AcDbPolyline
 62
250
  6
CONTINUOUS
 90
13
 70
0
 10
-22.2756931808
 20
12.4044901025
 10
-22.2760174491
 20
12.3948760648
 10
-22.2761846739
 20
12.3906163626
 10
-22.2763547703
 20
12.3867271585
 10
-22.2765273466
 20
12.3832126674
 10
-22.2767020114
 20
12.3800771046
 10
-22.2768783729
 20
12.3773246852
 10
-22.2770560395
 20
12.3749596242
 10
-22.2772346197
 20
12.3729861368
 10
-22.2774137218
 20
12.3714084381
 10
-22.2775929542
 20
12.3702307432
 10
-22.2777719252
 20
12.3694572673
 10
-22.2779502433
 20
12.3690922255
  0
LINE
  5
417
100
AcDbEntity
  8
CURVE
100
AcDbLine
 62
250
  6
CONTINUOUS
 10
-22.2922542168
 20
12.4819805068
 11
-22.2924982601
 21
12.4750197331
  0
LWPOLYLINE
  5
418
100
AcDbEntity
  8
0
100
AcDbPolyline
 62
250
  6
CONTINUOUS
 90
21
 70
0
 10
-22.3086492729
 20
-2.8086827524
 10
-22.3105981745
 20
-2.8653932991
 10
-22.3116014773
 20
-2.890166913
 10
-22.3126220581
 20
-2.9124846859
 10
-22.3136583071
 20
-2.9323021499
 10
-22.3147080455
 20
-2.9496011703
 10
-22.3157689522
 20
-2.9643701954
 10
-22.3168387063
 20
-2.9765976736
 10
-22.3179149866
 20
-2.9862720533
 10
-22.3189954722
 20
-2.9933817828
 10
-22.3201764174
 20
-2.9982046959
 10
-22.321357582
 20
-2.9999790653
 10
-22.3225369427
 20
-2.9987222406
 10
-22.3237124766
 20
-2.9944515711
 10
-22.3248821605
 20
-2.9871844061
 10
-22.3260439715
 20
-2.9769380951
 10
-22.3271958864
 20
-2.9637299874
 10
-22.3283358821
 20
-2.9475774325
 10
-22.3294619356
 20
-2.9284977797
 10
-22.3305720239
 20
-2.9065083784
 10
-22.3316641237
 20
-2.8816265779
  0
LINE
  5
419
100
AcDbEntity
  8
CURVE
100
AcDbLine
 62
250
  6
CONTINUOUS
 10
-22.2902436926
 20
12.0775111558
 11
-22.2896155354
 21
12.095707878
  0
LINE
  5
41A
100
AcDbEntity
  8
CURVE
100
AcDbLine
 62
250
  6
CONTINUOUS
 10
-22.2726531417
 20
-19.9461448932
 11
-22.2721463758
 21
-19.9320348777
  0
LINE
  5
41B
100
AcDbEntity
  8
CURVE
100
AcDbLine
 62
250
  6
CONTINUOUS
 10
-22.2974638262
 20
-16.7323523077
 11
-22.2968136488
 21
-16.714758659
  0
LWPOLYLINE
  5
41C
100
AcDbEntity
  8
CURVE
100
AcDbPolyline
 62
250
  6
CONTINUOUS
 90
24
 70
0
 10
-22.2734070627
 20
-19.8160657118
 10
-22.2739643015
 20
-19.830602663
 10
-22.2742509741
 20
-19.8370078347
 10
-22.2745424266
 20
-19.8428348033
 10
-22.2748382171
 20
-19.8480815687
 10
-22.2751379039
 20
-19.8527461305
 10
-22.2754410453
 20
-19.8568264885
 10
-22.2757471994
 20
-19.8603206423
 10
-22.2760559246
 20
-19.8632265916
 10
-22.276366779
 20
-19.8655423363
 10
-22.276679321
 20
-19.8672658759
 10
-22.2769931087
 20
-19.8683952102
 10
-22.2773077005
 20
-19.8689283389
 10
-22.2776226545
 20
-19.8688632617
 10
-22.2779364916
 20
-19.8682019004
 10
-22.2782497737
 20
-19.8669468413
 10
-22.2785620248
 20
-19.8651006667
 10
-22.2788727688
 20
-19.8626659588
 10
-22.2791815297
 20
-19.8596452998
 10
-22.2794878315
 20
-19.856041272
 10
-22.2797911982
 20
-19.8518564576
 10
-22.2800911536
 20
-19.8470934389
 10
-22.2803872218
 20
-19.841754798
 10
-22.2806789268
 20
-19.8358431172
  0
LINE
  5
41D
100
AcDbEntity
  8
CURVE
100
AcDbLine
 62
250
  6
CONTINUOUS
 10
-22.2924982601
 20
12.4750197331
 11
-22.2927474954
 21
12.4688033932
  0
LWPOLYLINE
  5
41E
100
AcDbEntity
  8
0
100
AcDbPolyline
 62
250
  6
CONTINUOUS
 90
23
 70
0
 10
-22.3440814742
 20
1.2059532829
 10
-22.3407119556
 20
1.2903986415
 10
-22.3389776794
 20
1.3277746565
 10
-22.3372104982
 20
1.3617688394
 10
-22.3354104915
 20
1.3922681483
 10
-22.3335784942
 20
1.4191630659
 10
-22.3317183621
 20
1.4423581741
 10
-22.3298347064
 20
1.4617615795
 10
-22.3279321383
 20
1.477281389
 10
-22.3260152689
 20
1.488825709
 10
-22.3240883353
 20
1.4963160245
 10
-22.3221540783
 20
1.4997273331
 10
-22.3202148646
 20
1.4990480108
 10
-22.3182730609
 20
1.4942664335
 10
-22.3163310337
 20
1.4853709771
 10
-22.3143913434
 20
1.4723530689
 10
-22.312457324
 20
1.4552163427
 10
-22.310532503
 20
1.4339674839
 10
-22.3086204082
 20
1.4086131776
 10
-22.3067245669
 20
1.3791601092
 10
-22.3048484077
 20
1.3456221697
 10
-22.3029949624
 20
1.3080420736
 10
-22.3011671633
 20
1.266469741
  0
LINE
  5
41F
100
AcDbEntity
  8
CURVE
100
AcDbLine
 62
250
  6
CONTINUOUS
 10
-22.2908970462
 20
12.0611662244
 11
-22.2902436926
 21
12.0775111558
  0
LWPOLYLINE
  5
420
100
AcDbEntity
  8
CURVE
100
AcDbPolyline
 62
250
  6
CONTINUOUS
 90
21
 70
0
 10
-22.2968136488
 20
-16.714758659
 10
-22.2961432592
 20
-16.699352401
 10
-22.2958013845
 20
-16.6924327676
 10
-22.2954555363
 20
-16.6860158508
 10
-22.2951060744
 20
-16.6800869403
 10
-22.2947533587
 20
-16.6746313257
 10
-22.2943977491
 20
-16.6696342967
 10
-22.2940396053
 20
-16.665081143
 10
-22.2936792873
 20
-16.6609571541
 10
-22.2933171548
 20
-16.6572476198
 10
-22.2929535677
 20
-16.6539378298
 10
-22.2925888859
 20
-16.6510130736
 10
-22.2922234693
 20
-16.6484586409
 10
-22.2918576775
 20
-16.6462598214
 10
-22.2914918706
 20
-16.6444019047
 10
-22.2911264083
 20
-16.6428701805
 10
-22.2907616505
 20
-16.6416499384
 10
-22.2903979571
 20
-16.6407264682
 10
-22.2900356878
 20
-16.6400850594
 10
-22.2896752025
 20
-16.6397110017
 10
-22.2893168612
 20
-16.6395895847
  0
LINE
  5
421
100
AcDbEntity
  8
CURVE
100
AcDbLine
 62
250
  6
CONTINUOUS
 10
-22.3039846838
 20
16.408032
 11
-22.2800585486
 21
16.922229
  0
LINE
  5
422
100
AcDbEntity
  8
CURVE
100
AcDbLine
 62
250
  6
CONTINUOUS
 10
-22.2673433008
 20
16.808587
 11
-22.2876867061
 21
16.374901
  0
LINE
  5
423
100
AcDbEntity
  8
CURVE
100
AcDbLine
 62
250
  6
CONTINUOUS
 10
-22.2927474954
 20
12.4688033932
 11
-22.2934786404
 21
12.4532176865
  0
LINE
  5
424
100
AcDbEntity
  8
CURVE
100
AcDbLine
 62
250
  6
CONTINUOUS
 10
-22.2915665764
 20
12.0464691009
 11
-22.2908970462
 21
12.0611662244
  0
LINE
  5
425
100
AcDbEntity
  8
CURVE
100
AcDbLine
 62
250
  6
CONTINUOUS
 10
-22.3039888368
 20
-12.911231
 11
-22.2673441384
 21
-12.170057
  0
LINE
  5
426
100
AcDbEntity
  8
CURVE
100
AcDbLine
 62
250
  6
CONTINUOUS
 10
-22.2934786404
 20
12.4532176865
 11
-22.2953078841
 21
12.4174111769
  0
LINE
  5
427
100
AcDbEntity
  8
CURVE
100
AcDbLine
 62
250
  6
CONTINUOUS
 10
-22.2673441384
 20
-12.472957
 11
-22.2991132375
 21
-13.073002
  0
LINE
  5
428
100
AcDbEntity
  8
CURVE
100
AcDbLine
 62
250
  6
CONTINUOUS
 10
-22.2922432638
 20
12.0332158025
 11
-22.2915665764
 21
12.0464691009
  0
LINE
  5
429
100
AcDbEntity
  8
CURVE
100
AcDbLine
 62
250
  6
CONTINUOUS
 10
-22.3039846838
 20
19.33431
 11
-22.2673433008
 21
19.999995
  0
LINE
  5
42A
100
AcDbEntity
  8
CURVE
100
AcDbLine
 62
250
  6
CONTINUOUS
 10
-22.2673433008
 20
14.155075
 11
-22.3039846838
 21
13.510797
  0
LINE
  5
42B
100
AcDbEntity
  8
CURVE
100
AcDbLine
 62
250
  6
CONTINUOUS
 10
-22.2953078841
 20
12.4174111769
 11
-22.2971548078
 21
12.3845830198
  0
LINE
  5
42C
100
AcDbEntity
  8
CURVE
100
AcDbLine
 62
250
  6
CONTINUOUS
 10
-22.2929180886
 20
12.0212023463
 11
-22.2922432638
 21
12.0332158025
  0
LINE
  5
42D
100
AcDbEntity
  8
0
100
AcDbLine
 62
250
  6
CONTINUOUS
 10
-22.3827330035
 20
18.1428570986
 11
-22.3600483307
 21
18.5142856479
  0
LINE
  5
42E
100
AcDbEntity
  8
0
100
AcDbLine
 62
250
  6
CONTINUOUS
 10
-22.3827330035
 20
5.1738090515
 11
-22.3600483307
 21
5.5452386856
  0
LINE
  5
42F
100
AcDbEntity
  8
CURVE
100
AcDbLine
 62
250
  6
CONTINUOUS
 10
-22.2673433008
 20
19.523849
 11
-22.292564696
 21
19.123585
  0
LINE
  5
430
100
AcDbEntity
  8
CURVE
100
AcDbLine
 62
250
  6
CONTINUOUS
 10
-22.2971548078
 20
12.3845830198
 11
-22.3039846907
 21
12.2743149283
  0
LINE
  5
431
100
AcDbEntity
  8
CURVE
100
AcDbLine
 62
250
  6
CONTINUOUS
 10
-22.2939071031
 20
12.0050606538
 11
-22.2929180886
 21
12.0212023463
  0
LINE
  5
432
100
AcDbEntity
  8
CURVE
100
AcDbLine
 62
250
  6
CONTINUOUS
 10
-22.3039846838
 20
13.972764
 11
-22.2966697667
 21
14.086311
  0
LINE
  5
433
100
AcDbEntity
  8
CURVE
100
AcDbLine
 62
250
  6
CONTINUOUS
 10
-22.3039846907
 20
11.8527063336
 11
-22.2939071031
 21
12.0050606538
  0
LINE
  5
434
100
AcDbEntity
  8
CURVE
100
AcDbLine
 62
250
  6
CONTINUOUS
 10
-22.2910095046
 20
14.173908
 11
-22.2774114217
 21
14.375319
  0
LINE
  5
435
100
AcDbEntity
  8
0
100
AcDbLine
 62
7
  6
CONTINUOUS
 10
-22.3205757645
 20
9.0954774738
 11
-22.2820227526
 21
9.1340304857
  0
LINE
  5
436
100
AcDbEntity
  8
0
100
AcDbLine
 62
7
  6
CONTINUOUS
 10
-22.3311286576
 20
8.6649031526
 11
-22.2709733515
 21
8.7250584588
  0
LINE
  5
437
100
AcDbEntity
  8
0
100
AcDbLine
 62
7
  6
CONTINUOUS
 10
-22.337409536
 20
8.2386008463
 11
-22.3188976369
 21
8.2571127453
  0
LINE
  5
438
100
AcDbEntity
  8
0
100
AcDbLine
 62
7
  6
CONTINUOUS
 10
-22.2830427285
 20
8.2929676538
 11
-22.2645401349
 21
8.3114702473
  0
LINE
  5
439
100
AcDbEntity
  8
DRAFT
100
AcDbLine
 62
7
  6
CONTINUOUS
 10
15.2233373476
 20
-23.5
 11
14.25
 21
-23.5
  0
LINE
  5
43A
100
AcDbEntity
  8
ASSI
100
AcDbLine
 62
7
  6
CONTINUOUS
 10
15.2233373476
 20
-23.5
 11
14.25
 21
-23.5
  0
LINE
  5
43B
100
AcDbEntity
  8
DRAFT
100
AcDbLine
 62
7
  6
CONTINUOUS
 10
8.25
 20
-23.5
 11
7.2766626524
 21
-23.5
  0
LINE
  5
43C
100
AcDbEntity
  8
ASSI
100
AcDbLine
 62
7
  6
CONTINUOUS
 10
8.25
 20
-23.5
 11
7.2766626524
 21
-23.5
  0
LINE
  5
43D
100
AcDbEntity
  8
DRAFT
100
AcDbLine
 62
7
  6
CONTINUOUS
 10
-7.2766626524
 20
-23.5
 11
-8.25
 21
-23.5
  0
LINE
  5
43E
100
AcDbEntity
  8
ASSI
100
AcDbLine
 62
7
  6
CONTINUOUS
 10
-7.2766626524
 20
-23.5
 11
-8.25
 21
-23.5
  0
LINE
  5
43F
100
AcDbEntity
  8
DRAFT
100
AcDbLine
 62
7
  6
CONTINUOUS
 10
-14.25
 20
-23.5
 11
-15.2233373476
 21
-23.5
  0
LINE
  5
440
100
AcDbEntity
  8
ASSI
100
AcDbLine
 62
7
  6
CONTINUOUS
 10
-14.25
 20
-23.5
 11
-15.2233373476
 21
-23.5
  0
LINE
  5
441
100
AcDbEntity
  8
DRAFT
100
AcDbLine
 62
7
  6
CONTINUOUS
 10
14.25
 20
-23.4781828305
 11
8.25
 21
-23.4781828305
  0
LINE
  5
442
100
AcDbEntity
  8
ASSI
100
AcDbLine
 62
7
  6
CONTINUOUS
 10
14.25
 20
-23.4781828305
 11
8.25
 21
-23.4781828305
  0
LINE
  5
443
100
AcDbEntity
  8
DRAFT
100
AcDbLine
 62
7
  6
CONTINUOUS
 10
-8.25
 20
-23.4781828305
 11
-14.25
 21
-23.4781828305
  0
LINE
  5
444
100
AcDbEntity
  8
ASSI
100
AcDbLine
 62
7
  6
CONTINUOUS
 10
-8.25
 20
-23.4781828305
 11
-14.25
 21
-23.4781828305
  0
LINE
  5
445
100
AcDbEntity
  8
0
100
AcDbLine
 62
7
  6
CONTINUOUS
 10
14.25
 20
-22.5310194482
 11
8.25
 21
-22.5310194482
  0
LINE
  5
446
100
AcDbEntity
  8
ASSI
100
AcDbLine
 62
7
  6
CONTINUOUS
 10
14.25
 20
-22.5310194482
 11
8.25
 21
-22.5310194482
  0
LINE
  5
447
100
AcDbEntity
  8
0
100
AcDbLine
 62
7
  6
CONTINUOUS
 10
-8.25
 20
-22.5310194482
 11
-14.25
 21
-22.5310194482
  0
LINE
  5
448
100
AcDbEntity
  8
ASSI
100
AcDbLine
 62
7
  6
CONTINUOUS
 10
-8.25
 20
-22.5310194482
 11
-14.25
 21
-22.5310194482
  0
LINE
  5
449
100
AcDbEntity
  8
DRAFT
100
AcDbLine
 62
7
  6
CONTINUOUS
 10
21.9003805997
 20
-22.4
 11
14.25
 21
-22.4
  0
LINE
  5
44A
100
AcDbEntity
  8
ASSI
100
AcDbLine
 62
7
  6
CONTINUOUS
 10
21.9003805997
 20
-22.4
 11
14.25
 21
-22.4
  0
LINE
  5
44B
100
AcDbEntity
  8
DRAFT
100
AcDbLine
 62
7
  6
CONTINUOUS
 10
8.25
 20
-22.4
 11
-8.25
 21
-22.4
  0
LINE
  5
44C
100
AcDbEntity
  8
ASSI
100
AcDbLine
 62
7
  6
CONTINUOUS
 10
8.25
 20
-22.4
 11
-8.25
 21
-22.4
  0
LINE
  5
44D
100
AcDbEntity
  8
RACCORDO
100
AcDbLine
 62
7
  6
CONTINUOUS
 10
21.9003805997
 20
-22.4
 11
-21.9003805997
 21
-22.4
  0
LINE
  5
44E
100
AcDbEntity
  8
DRAFT
100
AcDbLine
 62
7
  6
CONTINUOUS
 10
-14.25
 20
-22.4
 11
-21.9003805997
 21
-22.4
  0
LINE
  5
44F
100
AcDbEntity
  8
ASSI
100
AcDbLine
 62
7
  6
CONTINUOUS
 10
-14.25
 20
-22.4
 11
-21.9003805997
 21
-22.4
  0
LINE
  5
450
100
AcDbEntity
  8
RACCORDO
100
AcDbLine
 62
250
  6
CONTINUOUS
 10
21.7587981167
 20
-21.9749071372
 11
-21.7587981167
 21
-21.9749071372
  0
LINE
  5
451
100
AcDbEntity
  8
0
100
AcDbLine
 62
250
  6
CONTINUOUS
 10
21.7587981167
 20
-21.9749071372
 11
-21.7587981167
 21
-21.9749071372
  0
LINE
  5
452
100
AcDbEntity
  8
ASSI
100
AcDbLine
 62
250
  6
CONTINUOUS
 10
21.7587981167
 20
-21.9749071372
 11
-21.7587981167
 21
-21.9749071372
  0
LWPOLYLINE
  5
453
100
AcDbEntity
  8
RACCORDO
100
AcDbPolyline
 62
250
  6
CONTINUOUS
 90
13
 70
0
 10
-21.7587981167
 20
-21.9749071372
 10
-21.8240135735
 20
-21.9705808949
 10
-21.8881144712
 20
-21.9577950944
 10
-21.950005299
 20
-21.9367682503
 10
-22.0086283171
 20
-21.90785972
 10
-22.0629816339
 20
-21.8715635623
 10
-22.1121363289
 20
-21.8285000935
 10
-22.1552523279
 20
-21.779405286
 10
-22.1915927608
 20
-21.7251181903
 10
-22.2205365546
 20
-21.6665665954
 10
-22.2415890478
 20
-21.6047511721
 10
-22.2543904448
 20
-21.5407283715
 10
-22.2587219643
 20
-21.4755923698
  0
LWPOLYLINE
  5
454
100
AcDbEntity
  8
0
100
AcDbPolyline
 62
250
  6
CONTINUOUS
 90
13
 70
0
 10
-21.7587981167
 20
-21.9749071372
 10
-21.8240135735
 20
-21.9705808949
 10
-21.8881144712
 20
-21.9577950944
 10
-21.950005299
 20
-21.9367682503
 10
-22.0086283171
 20
-21.90785972
 10
-22.0629816339
 20
-21.8715635623
 10
-22.1121363289
 20
-21.8285000935
 10
-22.1552523279
 20
-21.779405286
 10
-22.1915927608
 20
-21.7251181903
 10
-22.2205365546
 20
-21.6665665954
 10
-22.2415890478
 20
-21.6047511721
 10
-22.2543904448
 20
-21.5407283715
 10
-22.2587219643
 20
-21.4755923698
  0
LWPOLYLINE
  5
455
100
AcDbEntity
  8
ASSI
100
AcDbPolyline
 62
250
  6
CONTINUOUS
 90
13
 70
0
 10
-21.7587981167
 20
-21.9749071372
 10
-21.8240135735
 20
-21.9705808949
 10
-21.8881144712
 20
-21.9577950944
 10
-21.950005299
 20
-21.9367682503
 10
-22.0086283171
 20
-21.90785972
 10
-22.0629816339
 20
-21.8715635623
 10
-22.1121363289
 20
-21.8285000935
 10
-22.1552523279
 20
-21.779405286
 10
-22.1915927608
 20
-21.7251181903
 10
-22.2205365546
 20
-21.6665665954
 10
-22.2415890478
 20
-21.6047511721
 10
-22.2543904448
 20
-21.5407283715
 10
-22.2587219643
 20
-21.4755923698
  0
LWPOLYLINE
  5
456
100
AcDbEntity
  8
CURVE
100
AcDbPolyline
 62
250
  6
CONTINUOUS
 90
20
 70
0
 10
-22.2893168612
 20
-17.9891310643
 10
-22.2896622777
 20
-17.9890371468
 10
-22.2900102859
 20
-17.9887449107
 10
-22.2903605114
 20
-17.988238631
 10
-22.2907125793
 20
-17.9875025825
 10
-22.2910661149
 20
-17.9865210401
 10
-22.2914207437
 20
-17.9852782786
 10
-22.2917760909
 20
-17.983758573
 10
-22.2921317819
 20
-17.981946198
 10
-22.292487442
 20
-17.9798254286
 10
-22.2928426966
 20
-17.9773805396
 10
-22.2931971708
 20
-17.9745958058
 10
-22.2935504902
 20
-17.9714555022
 10
-22.29390228
 20
-17.9679439037
 10
-22.2942521655
 20
-17.964045285
 10
-22.294599772
 20
-17.959743921
 10
-22.294944725
 20
-17.9550240867
 10
-22.2952866497
 20
-17.9498700569
 10
-22.2956251714
 20
-17.9442661064
 10
-22.2959599155
 20
-17.9381965101
  0
LINE
  5
457
100
AcDbEntity
  8
0
100
AcDbLine
 62
250
  6
CONTINUOUS
 10
-22.3338867073
 20
-5.960593
 11
-22.2828467534
 21
-6.2324000916
  0
LWPOLYLINE
  5
458
100
AcDbEntity
  8
RACCORDO
100
AcDbPolyline
 62
250
  6
CONTINUOUS
 90
6
 70
0
 10
-21.7587981167
 20
21.9749071372
 10
-21.7580778549
 20
21.9672631277
 10
-21.7573747357
 20
21.9529558612
 10
-21.7566887591
 20
21.9320798744
 10
-21.7560155151
 20
21.9047715709
 10
-21.7553594138
 20
21.8712144185
  0
LWPOLYLINE
  5
459
100
AcDbEntity
  8
0
100
AcDbPolyline
 62
250
  6
CONTINUOUS
 90
6
 70
0
 10
-21.7587981167
 20
21.9749071372
 10
-21.7580778549
 20
21.9672631277
 10
-21.7573747357
 20
21.9529558612
 10
-21.7566887591
 20
21.9320798744
 10
-21.7560155151
 20
21.9047715709
 10
-21.7553594138
 20
21.8712144185
  0
LWPOLYLINE
  5
45A
100
AcDbEntity
  8
ASSI
100
AcDbPolyline
 62
250
  6
CONTINUOUS
 90
6
 70
0
 10
-21.7587981167
 20
21.9749071372
 10
-21.7580778549
 20
21.9672631277
 10
-21.7573747357
 20
21.9529558612
 10
-21.7566887591
 20
21.9320798744
 10
-21.7560155151
 20
21.9047715709
 10
-21.7553594138
 20
21.8712144185
  0
LINE
  5
45B
100
AcDbEntity
  8
0
100
AcDbLine
 62
250
  6
CONTINUOUS
 10
-22.3216588843
 20
16.8428570986
 11
-22.3394825558
 21
17.1214287043
  0
LINE
  5
45C
100
AcDbEntity
  8
CURVE
100
AcDbLine
 62
250
  6
CONTINUOUS
 10
-22.2774114217
 20
14.375319
 11
-22.2910095046
 21
14.593564
  0
LINE
  5
45D
100
AcDbEntity
  8
CURVE
100
AcDbLine
 62
250
  6
CONTINUOUS
 10
-22.292564696
 20
19.123585
 11
-22.2673433008
 21
18.711093
  0
LINE
  5
45E
100
AcDbEntity
  8
0
100
AcDbLine
 62
250
  6
CONTINUOUS
 10
-22.3600483307
 20
18.5142856479
 11
-22.3827330035
 21
18.8857142746
  0
LINE
  5
45F
100
AcDbEntity
  8
CURVE
100
AcDbLine
 62
250
  6
CONTINUOUS
 10
-22.2673433008
 20
18.273077
 11
-22.3039846838
 21
18.948044
  0
LINE
  5
460
100
AcDbEntity
  8
0
100
AcDbLine
 62
250
  6
CONTINUOUS
 10
-22.2814814573
 20
-4.0042833034
 11
-22.3415345393
 21
-4.305174
  0
LINE
  5
461
100
AcDbEntity
  8
0
100
AcDbLine
 62
7
  6
CONTINUOUS
 10
-22.3413957032
 20
7.814593251
 11
-22.326111304
 21
7.8298776502
  0
LINE
  5
462
100
AcDbEntity
  8
0
100
AcDbLine
 62
7
  6
CONTINUOUS
 10
-22.2754825496
 20
7.8805064046
 11
-22.2601706279
 21
7.8958183263
  0
LINE
  5
463
100
AcDbEntity
  8
0
100
AcDbLine
 62
7
  6
CONTINUOUS
 10
-22.3437659872
 20
7.392201539
 11
-22.3298579725
 21
7.4061095537
  0
LINE
  5
464
100
AcDbEntity
  8
0
100
AcDbLine
 62
7
  6
CONTINUOUS
 10
-22.2714901407
 20
7.4644773854
 11
-22.2576051125
 21
7.4783624137
  0
LINE
  5
465
100
AcDbEntity
  8
0
100
AcDbLine
 62
7
  6
CONTINUOUS
 10
-22.3448621531
 20
6.9710839451
 11
-22.3314758044
 21
6.9844702937
  0
LINE
  5
466
100
AcDbEntity
  8
0
100
AcDbLine
 62
7
  6
CONTINUOUS
 10
-22.2696246671
 20
7.046321431
 11
-22.2563061143
 21
7.0596399838
  0
LINE
  5
467
100
AcDbEntity
  8
0
100
AcDbLine
 62
7
  6
CONTINUOUS
 10
-22.269594434
 20
6.6263302361
 11
-22.2561888041
 21
6.639735866
  0
LINE
  5
468
100
AcDbEntity
  8
0
100
AcDbLine
 62
7
  6
CONTINUOUS
 10
-22.3146100124
 20
4.9012289456
 11
-22.2880920146
 21
4.9277469434
  0
LINE
  5
469
100
AcDbEntity
  8
RACCORDO
100
AcDbLine
 62
250
  6
CONTINUOUS
 10
21.8150774602
 20
-21.0180908245
 11
-21.7505350625
 21
-21.0183142309
  0
LINE
  5
46A
100
AcDbEntity
  8
0
100
AcDbLine
 62
250
  6
CONTINUOUS
 10
21.8150774602
 20
-21.0180908245
 11
-21.7505350625
 21
-21.0183142309
  0
LINE
  5
46B
100
AcDbEntity
  8
ASSI
100
AcDbLine
 62
250
  6
CONTINUOUS
 10
21.8150774602
 20
-21.0180908245
 11
-21.7505350625
 21
-21.0183142309
  0
LINE
  5
46C
100
AcDbEntity
  8
0
100
AcDbLine
 62
250
  6
CONTINUOUS
 10
-1.8071428359
 20
-20.3
 11
-2.5214285634
 21
-20.3
  0
LINE
  5
46D
100
AcDbEntity
  8
CURVE
100
AcDbLine
 62
250
  6
CONTINUOUS
 10
-22.3364136919
 20
-20.0
 11
-22.3457646196
 21
-20.0
  0
LINE
  5
46E
100
AcDbEntity
  8
CURVE
100
AcDbLine
 62
250
  6
CONTINUOUS
 10
-22.3251925787
 20
-19.9642858505
 11
-22.3308031357
 21
-19.9642858505
  0
LINE
  5
46F
100
AcDbEntity
  8
0
100
AcDbLine
 62
250
  6
CONTINUOUS
 10
0.4547617912
 20
-19.5857142538
 11
-0.4976191044
 21
-19.5857142538
  0
LWPOLYLINE
  5
470
100
AcDbEntity
  8
RACCORDO
100
AcDbPolyline
 62
250
  6
CONTINUOUS
 90
13
 70
0
 10
-21.7505350626
 20
-21.0183132877
 10
-21.8150767155
 20
-21.0180901218
 10
-21.8785384287
 20
-21.0175190094
 10
-21.9398583289
 20
-21.0166095067
 10
-21.9980103807
 20
-21.015376832
 10
-22.0520215548
 20
-21.0138416113
 10
-22.1009881092
 20
-21.0120295328
 10
-22.1440907108
 20
-21.0099709175
 10
-22.1806081453
 20
-21.0077002109
 10
-22.2099293846
 20
-21.0052554078
 10
-22.2315638111
 20
-21.0026774158
 10
-22.2451494267
 20
-21.0000093711
 10
-22.25045891
 20
-20.9972959167
  0
LWPOLYLINE
  5
471
100
AcDbEntity
  8
0
100
AcDbPolyline
 62
250
  6
CONTINUOUS
 90
13
 70
0
 10
-21.7505350626
 20
-21.0183132877
 10
-21.8150767155
 20
-21.0180901218
 10
-21.8785384287
 20
-21.0175190094
 10
-21.9398583289
 20
-21.0166095067
 10
-21.9980103807
 20
-21.015376832
 10
-22.0520215548
 20
-21.0138416113
 10
-22.1009881092
 20
-21.0120295328
 10
-22.1440907108
 20
-21.0099709175
 10
-22.1806081453
 20
-21.0077002109
 10
-22.2099293846
 20
-21.0052554078
 10
-22.2315638111
 20
-21.0026774158
 10
-22.2451494267
 20
-21.0000093711
 10
-22.25045891
 20
-20.9972959167
  0
LWPOLYLINE
  5
472
100
AcDbEntity
  8
ASSI
100
AcDbPolyline
 62
250
  6
CONTINUOUS
 90
13
 70
0
 10
-21.7505350626
 20
-21.0183132877
 10
-21.8150767155
 20
-21.0180901218
 10
-21.8785384287
 20
-21.0175190094
 10
-21.9398583289
 20
-21.0166095067
 10
-21.9980103807
 20
-21.015376832
 10
-22.0520215548
 20
-21.0138416113
 10
-22.1009881092
 20
-21.0120295328
 10
-22.1440907108
 20
-21.0099709175
 10
-22.1806081453
 20
-21.0077002109
 10
-22.2099293846
 20
-21.0052554078
 10
-22.2315638111
 20
-21.0026774158
 10
-22.2451494267
 20
-21.0000093711
 10
-22.25045891
 20
-20.9972959167
  0
LWPOLYLINE
  5
473
100
AcDbEntity
  8
0
100
AcDbPolyline
 62
250
  6
CONTINUOUS
 90
3
 70
0
 10
-18.1830777562
 20
8.7292062672
 10
-18.19812658
 20
8.997656409
 10
-18.2
 20
9.2537014806
  0
LWPOLYLINE
  5
474
100
AcDbEntity
  8
ASSI
100
AcDbPolyline
 62
250
  6
CONTINUOUS
 90
3
 70
0
 10
-18.1830777562
 20
8.7292062672
 10
-18.19812658
 20
8.997656409
 10
-18.2
 20
9.2537014806
  0
LINE
  5
475
100
AcDbEntity
  8
0
100
AcDbLine
 62
250
  6
CONTINUOUS
 10
-18.2
 20
9.2537014806
 11
-18.190316055
 21
9.6269796329
  0
LINE
  5
476
100
AcDbEntity
  8
ASSI
100
AcDbLine
 62
250
  6
CONTINUOUS
 10
-18.2
 20
9.2537014806
 11
-18.190316055
 21
9.6269796329
  0
LWPOLYLINE
  5
477
100
AcDbEntity
  8
0
100
AcDbPolyline
 62
250
  6
CONTINUOUS
 90
49
 70
0
 10
-18.190316055
 20
9.6269796329
 10
-18.1615287259
 20
9.9977362094
 10
-18.1136380127
 20
10.3659711159
 10
-18.0485027518
 20
10.7287472807
 10
-17.9642641069
 20
11.0890017025
 10
-17.8553455687
 20
11.4555449867
 10
-17.7220366894
 20
11.8328449004
 10
-17.5640479168
 20
12.2164324675
 10
-17.374934085
 20
12.6017129749
 10
-17.1544369752
 20
12.9901754548
 10
-16.9028148061
 20
13.3803301543
 10
-16.6143970685
 20
13.7631149848
 10
-16.2898893739
 20
14.1391814536
 10
-15.9285861107
 20
14.5078785116
 10
-15.5226999352
 20
14.8581915127
 10
-15.0672224346
 20
15.1937212309
 10
-14.5671620216
 20
15.5108686687
 10
-14.0297565909
 20
15.7878214644
 10
-13.4466125896
 20
16.0223790277
 10
-12.8261235705
 20
16.2167457716
 10
-12.2007080869
 20
16.3557183017
 10
-11.5714131914
 20
16.4314837015
 10
-10.9371918313
 20
16.4518573133
 10
-10.3273214024
 20
16.4250777912
 10
-9.7479224407
 20
16.3478280406
 10
-9.1928744102
 20
16.2234241703
 10
-8.6730930986
 20
16.0700543894
 10
-8.1932599973
 20
15.8892412231
 10
-7.748693615
 20
15.6794603519
 10
-7.3362652647
 20
15.4543304713
 10
-6.9573695497
 20
15.216491203
 10
-6.6106118667
 20
14.9633017829
 10
-6.2886797188
 20
14.7004610874
 10
-5.9911531514
 20
14.4298907685
 10
-5.7184521191
 20
14.1496684786
 10
-5.4645239896
 20
13.8597273516
 10
-5.2273780668
 20
13.5588835617
 10
-5.0090050468
 20
13.2483201479
 10
-4.8093243852
 20
12.9315207192
 10
-4.6281756597
 20
12.607327167
 10
-4.4657192927
 20
12.2768972052
 10
-4.3223560066
 20
11.9471887064
 10
-4.1989297199
 20
11.6183905722
 10
-4.0945965141
 20
11.2903142612
 10
-4.0072253567
 20
10.9693521082
 10
-3.9373999537
 20
10.6558607023
 10
-3.884536599
 20
10.3494843152
 10
-3.8447531414
 20
10.0555472621
 10
-3.8167555305
 20
9.7758247541
  0
LWPOLYLINE
  5
478
100
AcDbEntity
  8
ASSI
100
AcDbPolyline
 62
250
  6
CONTINUOUS
 90
49
 70
0
 10
-18.190316055
 20
9.6269796329
 10
-18.1615287259
 20
9.9977362094
 10
-18.1136380127
 20
10.3659711159
 10
-18.0485027518
 20
10.7287472807
 10
-17.9642641069
 20
11.0890017025
 10
-17.8553455687
 20
11.4555449867
 10
-17.7220366894
 20
11.8328449004
 10
-17.5640479168
 20
12.2164324675
 10
-17.374934085
 20
12.6017129749
 10
-17.1544369752
 20
12.9901754548
 10
-16.9028148061
 20
13.3803301543
 10
-16.6143970685
 20
13.7631149848
 10
-16.2898893739
 20
14.1391814536
 10
-15.9285861107
 20
14.5078785116
 10
-15.5226999352
 20
14.8581915127
 10
-15.0672224346
 20
15.1937212309
 10
-14.5671620216
 20
15.5108686687
 10
-14.0297565909
 20
15.7878214644
 10
-13.4466125896
 20
16.0223790277
 10
-12.8261235705
 20
16.2167457716
 10
-12.2007080869
 20
16.3557183017
 10
-11.5714131914
 20
16.4314837015
 10
-10.9371918313
 20
16.4518573133
 10
-10.3273214024
 20
16.4250777912
 10
-9.7479224407
 20
16.3478280406
 10
-9.1928744102
 20
16.2234241703
 10
-8.6730930986
 20
16.0700543894
 10
-8.1932599973
 20
15.8892412231
 10
-7.748693615
 20
15.6794603519
 10
-7.3362652647
 20
15.4543304713
 10
-6.9573695497
 20
15.216491203
 10
-6.6106118667
 20
14.9633017829
 10
-6.2886797188
 20
14.7004610874
 10
-5.9911531514
 20
14.4298907685
 10
-5.7184521191
 20
14.1496684786
 10
-5.4645239896
 20
13.8597273516
 10
-5.2273780668
 20
13.5588835617
 10
-5.0090050468
 20
13.2483201479
 10
-4.8093243852
 20
12.9315207192
 10
-4.6281756597
 20
12.607327167
 10
-4.4657192927
 20
12.2768972052
 10
-4.3223560066
 20
11.9471887064
 10
-4.1989297199
 20
11.6183905722
 10
-4.0945965141
 20
11.2903142612
 10
-4.0072253567
 20
10.9693521082
 10
-3.9373999537
 20
10.6558607023
 10
-3.884536599
 20
10.3494843152
 10
-3.8447531414
 20
10.0555472621
 10
-3.8167555305
 20
9.7758247541
  0
LINE
  5
479
100
AcDbEntity
  8
0
100
AcDbLine
 62
7
  6
CONTINUOUS
 10
-22.3283282097
 20
4.4674893203
 11
-22.2738875342
 21
4.5219299957
  0
LINE
  5
47A
100
AcDbEntity
  8
0
100
AcDbLine
 62
7
  6
CONTINUOUS
 10
-22.3071808681
 20
4.0686152339
 11
-22.2938318091
 21
4.0819642929
  0
LINE
  5
47B
100
AcDbEntity
  8
0
100
AcDbLine
 62
7
  6
CONTINUOUS
 10
-22.3356538159
 20
4.0401422861
 11
-22.3150582535
 21
4.0607378485
  0
LINE
  5
47C
100
AcDbEntity
  8
0
100
AcDbLine
 62
7
  6
CONTINUOUS
 10
-22.2869311174
 20
4.0888649845
 11
-22.2662512762
 21
4.1095448257
  0
LINE
  5
47D
100
AcDbEntity
  8
0
100
AcDbLine
 62
7
  6
CONTINUOUS
 10
-22.3071808681
 20
3.6485938059
 11
-22.2938318095
 21
3.6619428644
  0
LINE
  5
47E
100
AcDbEntity
  8
0
100
AcDbLine
 62
7
  6
CONTINUOUS
 10
-22.3403194973
 20
3.6154551767
 11
-22.324324737
 21
3.631449937
  0
LINE
  5
47F
100
AcDbEntity
  8
0
100
AcDbLine
 62
7
  6
CONTINUOUS
 10
-22.2773857384
 20
3.6783889355
 11
-22.2614475225
 21
3.6943271514
  0
LINE
  5
480
100
AcDbEntity
  8
0
100
AcDbLine
 62
7
  6
CONTINUOUS
 10
-22.3071808681
 20
3.2285723779
 11
-22.29383181
 21
3.2419214359
  0
LINE
  5
481
100
AcDbEntity
  8
0
100
AcDbLine
 62
7
  6
CONTINUOUS
 10
-22.3432029492
 20
3.1925502967
 11
-22.3289504102
 21
3.2068028357
  0
LINE
  5
482
100
AcDbEntity
  8
0
100
AcDbLine
 62
7
  6
CONTINUOUS
 10
-22.2724858056
 20
3.2632674403
 11
-22.2582584631
 21
3.2774947829
  0
LINE
  5
483
100
AcDbEntity
  8
0
100
AcDbLine
 62
7
  6
CONTINUOUS
 10
-22.3071808681
 20
2.8085509498
 11
-22.2938318105
 21
2.8219000074
  0
LINE
  5
484
100
AcDbEntity
  8
0
100
AcDbLine
 62
7
  6
CONTINUOUS
 10
-22.3446249242
 20
2.7711068937
 11
-22.3311937966
 21
2.7845380213
  0
LINE
  5
485
100
AcDbEntity
  8
0
100
AcDbLine
 62
7
  6
CONTINUOUS
 10
-22.2700421105
 20
2.8456897074
 11
-22.2565425111
 21
2.8591893068
  0
LINE
  5
486
100
AcDbEntity
  8
0
100
AcDbLine
 62
7
  6
CONTINUOUS
 10
-22.3448507091
 20
2.3508596808
 11
-22.3315546376
 21
2.3641557522
  0
LINE
  5
487
100
AcDbEntity
  8
0
100
AcDbLine
 62
7
  6
CONTINUOUS
 10
-22.2693901371
 20
2.4263202528
 11
-22.2561103407
 21
2.4396000491
  0
LINE
  5
488
100
AcDbEntity
  8
CURVE
100
AcDbLine
 62
250
  6
CONTINUOUS
 10
-22.3401540628
 20
-18.9285715818
 11
-22.3289329495
 21
-18.9285715818
  0
LINE
  5
489
100
AcDbEntity
  8
CURVE
100
AcDbLine
 62
250
  6
CONTINUOUS
 10
-22.2876713746
 20
-18.6195760699
 11
-22.3040215926
 21
-18.6195760699
  0
LINE
  5
48A
100
AcDbEntity
  8
CURVE
100
AcDbLine
 62
250
  6
CONTINUOUS
 10
-22.2692639301
 20
-18.6195760699
 11
-22.285717311
 21
-18.6195760699
  0
LINE
  5
48B
100
AcDbEntity
  8
CURVE
100
AcDbLine
 62
250
  6
CONTINUOUS
 10
-22.3040215926
 20
-18.4898546903
 11
-22.2673098665
 21
-18.4898546903
  0
LINE
  5
48C
100
AcDbEntity
  8
CURVE
100
AcDbLine
 62
250
  6
CONTINUOUS
 10
-22.3289329495
 20
-18.1785715818
 11
-22.3401540628
 21
-18.1785715818
  0
LINE
  5
48D
100
AcDbEntity
  8
CURVE
100
AcDbLine
 62
250
  6
CONTINUOUS
 10
-22.2673097605
 20
-18.1187710331
 11
-22.2893168612
 21
-18.1187710331
  0
LINE
  5
48E
100
AcDbEntity
  8
CURVE
100
AcDbLine
 62
250
  6
CONTINUOUS
 10
-22.2893168612
 20
-17.9891310643
 11
-22.2673097605
 21
-17.9891310643
  0
LINE
  5
48F
100
AcDbEntity
  8
0
100
AcDbLine
 62
250
  6
CONTINUOUS
 10
2.8357140303
 20
-17.8
 11
1.4071429849
 21
-17.8
  0
LINE
  5
490
100
AcDbEntity
  8
0
100
AcDbLine
 62
250
  6
CONTINUOUS
 10
-1.6285714179
 20
-17.8
 11
-2.3428571269
 21
-17.8
  0
LINE
  5
491
100
AcDbEntity
  8
CURVE
100
AcDbLine
 62
250
  6
CONTINUOUS
 10
-22.3364136919
 20
-17.75
 11
-22.3457646196
 21
-17.75
  0
LINE
  5
492
100
AcDbEntity
  8
CURVE
100
AcDbLine
 62
250
  6
CONTINUOUS
 10
-22.3251925787
 20
-17.7142856717
 11
-22.3308031357
 21
-17.7142856717
  0
LINE
  5
493
100
AcDbEntity
  8
CURVE
100
AcDbLine
 62
250
  6
CONTINUOUS
 10
-22.2800585486
 20
16.922229
 11
-22.3039846838
 21
17.016817
  0
LINE
  5
494
100
AcDbEntity
  8
CURVE
100
AcDbLine
 62
250
  6
CONTINUOUS
 10
-22.3039846838
 20
17.436142
 11
-22.2673433008
 21
17.246541
  0
LWPOLYLINE
  5
495
100
AcDbEntity
  8
RACCORDO
100
AcDbPolyline
 62
250
  6
CONTINUOUS
 90
7
 70
0
 10
-22.2587219643
 20
21.4755923698
 10
-22.2580031927
 20
21.4716789126
 10
-22.2573010341
 20
21.4645568007
 10
-22.2566154888
 20
21.4542260342
 10
-22.2559419622
 20
21.4405716186
 10
-22.2552850488
 20
21.4237085484
 10
-22.2546585314
 20
21.403981807
  0
LWPOLYLINE
  5
496
100
AcDbEntity
  8
0
100
AcDbPolyline
 62
250
  6
CONTINUOUS
 90
7
 70
0
 10
-22.2587219643
 20
21.4755923698
 10
-22.2580031927
 20
21.4716789126
 10
-22.2573010341
 20
21.4645568007
 10
-22.2566154888
 20
21.4542260342
 10
-22.2559419622
 20
21.4405716186
 10
-22.2552850488
 20
21.4237085484
 10
-22.2546585314
 20
21.403981807
  0
LWPOLYLINE
  5
497
100
AcDbEntity
  8
ASSI
100
AcDbPolyline
 62
250
  6
CONTINUOUS
 90
7
 70
0
 10
-22.2587219643
 20
21.4755923698
 10
-22.2580031927
 20
21.4716789126
 10
-22.2573010341
 20
21.4645568007
 10
-22.2566154888
 20
21.4542260342
 10
-22.2559419622
 20
21.4405716186
 10
-22.2552850488
 20
21.4237085484
 10
-22.2546585314
 20
21.403981807
  0
LINE
  5
498
100
AcDbEntity
  8
CURVE
100
AcDbLine
 62
250
  6
CONTINUOUS
 10
-22.3251925787
 20
-16.678571403
 11
-22.3326733203
 21
-16.678571403
  0
LINE
  5
499
100
AcDbEntity
  8
CURVE
100
AcDbLine
 62
250
  6
CONTINUOUS
 10
-22.2673097605
 20
-16.6395895847
 11
-22.2893168612
 21
-16.6395895847
  0
LINE
  5
49A
100
AcDbEntity
  8
CURVE
100
AcDbLine
 62
250
  6
CONTINUOUS
 10
-22.2893168612
 20
-16.5099484008
 11
-22.2673097605
 21
-16.5099484008
  0
LINE
  5
49B
100
AcDbEntity
  8
CURVE
100
AcDbLine
 62
250
  6
CONTINUOUS
 10
-22.3326733203
 20
-15.928571403
 11
-22.3251925787
 21
-15.928571403
  0
LINE
  5
49C
100
AcDbEntity
  8
CURVE
100
AcDbLine
 62
250
  6
CONTINUOUS
 10
-22.2998829459
 20
-15.790675
 11
-22.3039887321
 21
-15.790675
  0
LINE
  5
49D
100
AcDbEntity
  8
CURVE
100
AcDbLine
 62
250
  6
CONTINUOUS
 10
-22.2673440337
 20
-15.781817
 11
-22.2714498374
 21
-15.781817
  0
LINE
  5
49E
100
AcDbEntity
  8
CURVE
100
AcDbLine
 62
250
  6
CONTINUOUS
 10
-22.2831002317
 20
-15.702464
 11
-22.2872063668
 21
-15.702464
  0
LINE
  5
49F
100
AcDbEntity
  8
CURVE
100
AcDbLine
 62
250
  6
CONTINUOUS
 10
-22.3401540628
 20
-15.5
 11
-22.3289329495
 21
-15.5
  0
LINE
  5
4A0
100
AcDbEntity
  8
0
100
AcDbLine
 62
250
  6
CONTINUOUS
 10
-2.7
 20
-18.5142856717
 11
-1.45
 21
-19.5857142538
  0
LINE
  5
4A1
100
AcDbEntity
  8
0
100
AcDbLine
 62
250
  6
CONTINUOUS
 10
-2.5214285634
 20
-20.3
 11
-2.7
 21
-20.1214285634
  0
LINE
  5
4A2
100
AcDbEntity
  8
DRAFT
100
AcDbLine
 62
7
  6
CONTINUOUS
 10
-14.25
 20
-22.4
 11
-14.25
 21
-23.5
  0
LINE
  5
4A3
100
AcDbEntity
  8
ASSI
100
AcDbLine
 62
7
  6
CONTINUOUS
 10
-14.25
 20
-22.4
 11
-14.25
 21
-23.5
  0
LINE
  5
4A4
100
AcDbEntity
  8
DRAFT
100
AcDbLine
 62
7
  6
CONTINUOUS
 10
-14.25
 20
22.4
 11
-14.25
 21
23.5
  0
LINE
  5
4A5
100
AcDbEntity
  8
ASSI
100
AcDbLine
 62
7
  6
CONTINUOUS
 10
-14.25
 20
22.4
 11
-14.25
 21
23.5
  0
LINE
  5
4A6
100
AcDbEntity
  8
RACCORDO
100
AcDbLine
 62
250
  6
CONTINUOUS
 10
-22.2587219643
 20
-21.4755923698
 11
-22.4
 21
-21.8997711479
  0
LINE
  5
4A7
100
AcDbEntity
  8
0
100
AcDbLine
 62
250
  6
CONTINUOUS
 10
-22.2587219643
 20
-21.4755923698
 11
-22.4
 21
-21.8997711479
  0
LINE
  5
4A8
100
AcDbEntity
  8
ASSI
100
AcDbLine
 62
250
  6
CONTINUOUS
 10
-22.2587219643
 20
-21.4755923698
 11
-22.4
 21
-21.8997711479
  0
LINE
  5
4A9
100
AcDbEntity
  8
RACCORDO
100
AcDbLine
 62
250
  6
CONTINUOUS
 10
-21.7587981167
 20
-21.9749071372
 11
-21.9003805997
 21
-22.4
  0
LINE
  5
4AA
100
AcDbEntity
  8
0
100
AcDbLine
 62
250
  6
CONTINUOUS
 10
-21.7587981167
 20
-21.9749071372
 11
-21.9003805997
 21
-22.4
  0
LINE
  5
4AB
100
AcDbEntity
  8
ASSI
100
AcDbLine
 62
250
  6
CONTINUOUS
 10
-21.7587981167
 20
-21.9749071372
 11
-21.9003805997
 21
-22.4
  0
LINE
  5
4AC
100
AcDbEntity
  8
0
100
AcDbLine
 62
7
  6
CONTINUOUS
 10
-22.3909233662
 20
-2.9899292227
 11
-22.3886321435
 21
-2.987638
  0
LINE
  5
4AD
100
AcDbEntity
  8
0
100
AcDbLine
 62
7
  6
CONTINUOUS
 10
-22.3909233662
 20
-3.4099506507
 11
-22.3731418633
 21
-3.3921691478
  0
LINE
  5
4AE
100
AcDbEntity
  8
0
100
AcDbLine
 62
7
  6
CONTINUOUS
 10
-22.3909233662
 20
-3.8299720788
 11
-22.3731418633
 21
-3.8121905758
  0
LINE
  5
4AF
100
AcDbEntity
  8
0
100
AcDbLine
 62
7
  6
CONTINUOUS
 10
-22.3909233662
 20
-4.2499935068
 11
-22.3731418633
 21
-4.2322120038
  0
LINE
  5
4B0
100
AcDbEntity
  8
CURVE
100
AcDbLine
 62
250
  6
CONTINUOUS
 10
-22.3289329495
 20
-14.75
 11
-22.3401540628
 21
-14.75
  0
LINE
  5
4B1
100
AcDbEntity
  8
CURVE
100
AcDbLine
 62
250
  6
CONTINUOUS
 10
-22.2872063668
 20
-14.611228
 11
-22.2998829459
 21
-14.611228
  0
LINE
  5
4B2
100
AcDbEntity
  8
CURVE
100
AcDbLine
 62
250
  6
CONTINUOUS
 10
-22.2714498374
 20
-14.611228
 11
-22.2831002317
 21
-14.611228
  0
LINE
  5
4B3
100
AcDbEntity
  8
CURVE
100
AcDbLine
 62
250
  6
CONTINUOUS
 10
-22.3039887321
 20
-14.33182
 11
-22.2673440337
 21
-14.33182
  0
LINE
  5
4B4
100
AcDbEntity
  8
CURVE
100
AcDbLine
 62
250
  6
CONTINUOUS
 10
-22.2745808632
 20
-8.48483
 11
-22.3039887321
 21
-8.478917
  0
LINE
  5
4B5
100
AcDbEntity
  8
0
100
AcDbLine
 62
250
  6
CONTINUOUS
 10
-1.45
 20
-17.9785714924
 11
-1.6285714179
 21
-17.8
  0
LINE
  5
4B6
100
AcDbEntity
  8
RACCORDO
100
AcDbLine
 62
250
  6
CONTINUOUS
 10
-22.4
 20
21.8997711479
 11
-22.2587219643
 21
21.4755923698
  0
LINE
  5
4B7
100
AcDbEntity
  8
0
100
AcDbLine
 62
250
  6
CONTINUOUS
 10
-22.4
 20
21.8997711479
 11
-22.2587219643
 21
21.4755923698
  0
LINE
  5
4B8
100
AcDbEntity
  8
ASSI
100
AcDbLine
 62
250
  6
CONTINUOUS
 10
-22.4
 20
21.8997711479
 11
-22.2587219643
 21
21.4755923698
  0
LINE
  5
4B9
100
AcDbEntity
  8
RACCORDO
100
AcDbLine
 62
250
  6
CONTINUOUS
 10
-21.9003805997
 20
22.4
 11
-21.7587981167
 21
21.9749071372
  0
LINE
  5
4BA
100
AcDbEntity
  8
0
100
AcDbLine
 62
250
  6
CONTINUOUS
 10
-21.9003805997
 20
22.4
 11
-21.7587981167
 21
21.9749071372
  0
LINE
  5
4BB
100
AcDbEntity
  8
ASSI
100
AcDbLine
 62
250
  6
CONTINUOUS
 10
-21.9003805997
 20
22.4
 11
-21.7587981167
 21
21.9749071372
  0
LINE
  5
4BC
100
AcDbEntity
  8
0
100
AcDbLine
 62
250
  6
CONTINUOUS
 10
-11.9857142538
 20
0.0
 11
-11.9857142538
 21
-2.5000000047
  0
LINE
  5
4BD
100
AcDbEntity
  8
0
100
AcDbLine
 62
7
  6
CONTINUOUS
 10
-22.3909233662
 20
-4.6700149348
 11
-22.3731418633
 21
-4.6522334319
  0
LINE
  5
4BE
100
AcDbEntity
  8
0
100
AcDbLine
 62
7
  6
CONTINUOUS
 10
-22.3909233662
 20
-5.0900363628
 11
-22.3731418633
 21
-5.0722548599
  0
LINE
  5
4BF
100
AcDbEntity
  8
0
100
AcDbLine
 62
7
  6
CONTINUOUS
 10
-22.3909233662
 20
-5.5100577909
 11
-22.3731418633
 21
-5.4922762879
  0
LINE
  5
4C0
100
AcDbEntity
  8
0
100
AcDbLine
 62
7
  6
CONTINUOUS
 10
-22.3909233662
 20
-5.9300792189
 11
-22.3731418633
 21
-5.9122977159
  0
LINE
  5
4C1
100
AcDbEntity
  8
0
100
AcDbLine
 62
7
  6
CONTINUOUS
 10
-22.3909233662
 20
-6.3501006469
 11
-22.3731418633
 21
-6.332319144
  0
LINE
  5
4C2
100
AcDbEntity
  8
0
100
AcDbLine
 62
7
  6
CONTINUOUS
 10
-22.3909233662
 20
-6.7701220749
 11
-22.3731418633
 21
-6.752340572
  0
LINE
  5
4C3
100
AcDbEntity
  8
CURVE
100
AcDbLine
 62
250
  6
CONTINUOUS
 10
-22.2998829459
 20
-11.931854
 11
-22.3039887321
 21
-11.931854
  0
LINE
  5
4C4
100
AcDbEntity
  8
CURVE
100
AcDbLine
 62
250
  6
CONTINUOUS
 10
-22.2673440337
 20
-11.923035
 11
-22.2714498374
 21
-11.923035
  0
LINE
  5
4C5
100
AcDbEntity
  8
CURVE
100
AcDbLine
 62
250
  6
CONTINUOUS
 10
-22.2831002317
 20
-11.843621
 11
-22.2872063668
 21
-11.843621
  0
LINE
  5
4C6
100
AcDbEntity
  8
CURVE
100
AcDbLine
 62
250
  6
CONTINUOUS
 10
-22.2714498374
 20
-10.752447
 11
-22.2831002317
 21
-10.752447
  0
LINE
  5
4C7
100
AcDbEntity
  8
CURVE
100
AcDbLine
 62
250
  6
CONTINUOUS
 10
-22.2872063668
 20
-10.752447
 11
-22.2998829459
 21
-10.752447
  0
LINE
  5
4C8
100
AcDbEntity
  8
0
100
AcDbLine
 62
250
  6
CONTINUOUS
 10
-9.1285713434
 20
-0.0
 11
-9.8428570151
 21
-2.5
  0
LWPOLYLINE
  5
4C9
100
AcDbEntity
  8
0
100
AcDbPolyline
 62
7
  6
CONTINUOUS
 90
3
 70
0
 43
0.3500000006
 10
1.035714268
 20
32.5357161255
 10
0.9642857051
 20
32.3214271088
 10
0.8214285793
 20
32.0357159729
  0
LINE
  5
4CA
100
AcDbEntity
  8
CURVE
100
AcDbLine
 62
7
  6
CONTINUOUS
 10
-22.3039887321
 20
-8.3699330338
 11
-22.2673440337
 21
-8.3332883354
  0
LINE
  5
4CB
100
AcDbEntity
  8
CURVE
100
AcDbLine
 62
7
  6
CONTINUOUS
 10
-22.2763906789
 20
-8.5523456946
 11
-22.2682279392
 21
-8.5441829549
  0
LINE
  5
4CC
100
AcDbEntity
  8
CURVE
100
AcDbLine
 62
7
  6
CONTINUOUS
 10
-22.2821752554
 20
-8.7681409851
 11
-22.2740268623
 21
-8.759992592
  0
LINE
  5
4CD
100
AcDbEntity
  8
CURVE
100
AcDbLine
 62
7
  6
CONTINUOUS
 10
-22.287959832
 20
-8.9839362757
 11
-22.2798257855
 21
-8.9758022292
  0
LINE
  5
4CE
100
AcDbEntity
  8
CURVE
100
AcDbLine
 62
7
  6
CONTINUOUS
 10
-22.2937444086
 20
-9.1997315663
 11
-22.2856247086
 21
-9.1916118664
  0
LINE
  5
4CF
100
AcDbEntity
  8
CURVE
100
AcDbLine
 62
7
  6
CONTINUOUS
 10
-22.2995289851
 20
-9.4155268569
 11
-22.2914236318
 21
-9.4074215035
  0
LINE
  5
4D0
100
AcDbEntity
  8
CURVE
100
AcDbLine
 62
7
  6
CONTINUOUS
 10
-22.3039887321
 20
-9.6299973179
 11
-22.2970604142
 21
-9.623069
  0
LINE
  5
4D1
100
AcDbEntity
  8
CURVE
100
AcDbLine
 62
7
  6
CONTINUOUS
 10
-22.3039887321
 20
-9.8400080319
 11
-22.2673440337
 21
-9.8033633335
  0
LWPOLYLINE
  5
4D2
100
AcDbEntity
  8
0
100
AcDbPolyline
 62
250
  6
CONTINUOUS
 90
6
 70
0
 10
-7.0713936426
 20
-9.2528348564
 10
-7.0467527773
 20
-9.2523785649
 10
-7.0267694707
 20
-9.2518500947
 10
-7.0120482884
 20
-9.2512655027
 10
-7.0030347001
 20
-9.2506425738
 10
-7.0
 20
-9.2500002292
  0
LWPOLYLINE
  5
4D3
100
AcDbEntity
  8
ASSI
100
AcDbPolyline
 62
250
  6
CONTINUOUS
 90
6
 70
0
 10
-7.0713936426
 20
-9.2528348564
 10
-7.0467527773
 20
-9.2523785649
 10
-7.0267694707
 20
-9.2518500947
 10
-7.0120482884
 20
-9.2512655027
 10
-7.0030347001
 20
-9.2506425738
 10
-7.0
 20
-9.2500002292
  0
LINE
  5
4D4
100
AcDbEntity
  8
0
100
AcDbLine
 62
250
  6
CONTINUOUS
 10
-7.13155104
 20
-9.2534780106
 11
-7.0713936426
 21
-9.2528348564
  0
LINE
  5
4D5
100
AcDbEntity
  8
ASSI
100
AcDbLine
 62
250
  6
CONTINUOUS
 10
-7.13155104
 20
-9.2534780106
 11
-7.0713936426
 21
-9.2528348564
  0
LINE
  5
4D6
100
AcDbEntity
  8
0
100
AcDbLine
 62
250
  6
CONTINUOUS
 10
-7.2
 20
-9.2537014821
 11
-7.13155104
 21
-9.2534780106
  0
LINE
  5
4D7
100
AcDbEntity
  8
ASSI
100
AcDbLine
 62
250
  6
CONTINUOUS
 10
-7.2
 20
-9.2537014821
 11
-7.13155104
 21
-9.2534780106
  0
LINE
  5
4D8
100
AcDbEntity
  8
CURVE
100
AcDbLine
 62
250
  6
CONTINUOUS
 10
-22.3039887321
 20
-10.473018
 11
-22.2673440337
 21
-10.473018
  0
LINE
  5
4D9
100
AcDbEntity
  8
CURVE
100
AcDbLine
 62
250
  6
CONTINUOUS
 10
-22.2673440337
 20
-9.887785
 11
-22.3039887321
 21
-9.887785
  0
LINE
  5
4DA
100
AcDbEntity
  8
CURVE
100
AcDbLine
 62
250
  6
CONTINUOUS
 10
-22.2970604142
 20
-9.623069
 11
-22.2673440337
 21
-9.623069
  0
LINE
  5
4DB
100
AcDbEntity
  8
0
100
AcDbLine
 62
250
  6
CONTINUOUS
 10
3.6
 20
-9.45
 11
4.2
 21
-9.45
  0
LINE
  5
4DC
100
AcDbEntity
  8
0
100
AcDbLine
 62
250
  6
CONTINUOUS
 10
7.2
 20
-9.2537014791
 11
7.1315510837
 21
-9.2534778934
  0
LINE
  5
4DD
100
AcDbEntity
  8
ASSI
100
AcDbLine
 62
250
  6
CONTINUOUS
 10
7.2
 20
-9.2537014791
 11
7.1315510837
 21
-9.2534778934
  0
LWPOLYLINE
  5
4DE
100
AcDbEntity
  8
0
100
AcDbPolyline
 62
250
  6
CONTINUOUS
 90
7
 70
0
 10
7.1315510837
 20
-9.2534778934
 10
7.0713936902
 20
-9.2528346262
 10
7.0467528148
 20
-9.252378278
 10
7.0267694957
 20
-9.2518497564
 10
7.0120483014
 20
-9.2512651197
 10
7.0030347038
 20
-9.2506421509
 10
7.0
 20
-9.2499997711
  0
LWPOLYLINE
  5
4DF
100
AcDbEntity
  8
ASSI
100
AcDbPolyline
 62
250
  6
CONTINUOUS
 90
7
 70
0
 10
7.1315510837
 20
-9.2534778934
 10
7.0713936902
 20
-9.2528346262
 10
7.0467528148
 20
-9.252378278
 10
7.0267694957
 20
-9.2518497564
 10
7.0120483014
 20
-9.2512651197
 10
7.0030347038
 20
-9.2506421509
 10
7.0
 20
-9.2499997711
  0
LINE
  5
4E0
100
AcDbEntity
  8
0
100
AcDbLine
 62
250
  6
CONTINUOUS
 10
-4.5255148929
 20
-8.3812554307
 11
-4.0875618387
 21
-8.4846823245
  0
LINE
  5
4E1
100
AcDbEntity
  8
0
100
AcDbLine
 62
250
  6
CONTINUOUS
 10
4.5255148929
 20
-10.5187445693
 11
4.0875618387
 21
-10.4153176755
  0
LINE
  5
4E2
100
AcDbEntity
  8
0
100
AcDbLine
 62
250
  6
CONTINUOUS
 10
-9.8428570151
 20
-2.5
 11
-10.5571428359
 21
0.0
  0
LWPOLYLINE
  5
4E3
100
AcDbEntity
  8
0
100
AcDbPolyline
 62
250
  6
CONTINUOUS
 90
3
 70
0
 10
-7.1832444695
 20
-9.7758247541
 10
-7.1981621833
 20
-9.508542673
 10
-7.2
 20
-9.2537014806
  0
LWPOLYLINE
  5
4E4
100
AcDbEntity
  8
ASSI
100
AcDbPolyline
 62
250
  6
CONTINUOUS
 90
3
 70
0
 10
-7.1832444695
 20
-9.7758247541
 10
-7.1981621833
 20
-9.508542673
 10
-7.2
 20
-9.2537014806
  0
LINE
  5
4E5
100
AcDbEntity
  8
DRAFT
100
AcDbLine
 62
7
  6
CONTINUOUS
 10
-8.25
 20
-22.4
 11
-8.25
 21
-23.5
  0
LINE
  5
4E6
100
AcDbEntity
  8
ASSI
100
AcDbLine
 62
7
  6
CONTINUOUS
 10
-8.25
 20
-22.4
 11
-8.25
 21
-23.5
  0
LINE
  5
4E7
100
AcDbEntity
  8
DRAFT
100
AcDbLine
 62
7
  6
CONTINUOUS
 10
-8.25
 20
22.4
 11
-8.25
 21
23.5
  0
LINE
  5
4E8
100
AcDbEntity
  8
ASSI
100
AcDbLine
 62
7
  6
CONTINUOUS
 10
-8.25
 20
22.4
 11
-8.25
 21
23.5
  0
LINE
  5
4E9
100
AcDbEntity
  8
0
100
AcDbLine
 62
250
  6
CONTINUOUS
 10
-7.2
 20
-9.2537014806
 11
-7.1903228376
 21
-8.8805024583
  0
LINE
  5
4EA
100
AcDbEntity
  8
ASSI
100
AcDbLine
 62
250
  6
CONTINUOUS
 10
-7.2
 20
-9.2537014806
 11
-7.1903228376
 21
-8.8805024583
  0
LWPOLYLINE
  5
4EB
100
AcDbEntity
  8
0
100
AcDbPolyline
 62
250
  6
CONTINUOUS
 90
49
 70
0
 10
-7.1903228376
 20
-8.8805024583
 10
-7.161546038
 20
-8.5098132154
 10
-7.1136696012
 20
-8.141634053
 10
-7.0485560774
 20
-7.7789063845
 10
-6.9643429164
 20
-7.4186894368
 10
-6.855442467
 20
-7.0521599278
 10
-6.7221493494
 20
-6.6748487379
 10
-6.5641689435
 20
-6.2912249081
 10
-6.3750297373
 20
-5.9058722694
 10
-6.154471968
 20
-5.5172907821
 10
-5.9027553985
 20
-5.1269808276
 10
-5.6141878056
 20
-4.7440272396
 10
-5.2894445697
 20
-4.3677618552
 10
-4.9278503104
 20
-3.9988535841
 10
-4.5216866627
 20
-3.6483932567
 10
-4.0659225027
 20
-3.3128090197
 10
-3.5655889543
 20
-2.9956735707
 10
-3.0280610244
 20
-2.7187949304
 10
-2.4449897089
 20
-2.4844177652
 10
-1.8247240119
 20
-2.2902982396
 10
-1.1996859517
 20
-2.1515117888
 10
-0.5709877443
 20
-2.0758443224
 10
0.0624828262
 20
-2.0555102726
 10
0.6716403892
 20
-2.0822277834
 10
1.2504078372
 20
-2.1592765591
 10
1.8048622776
 20
-2.2833767658
 10
2.3241496627
 20
-2.4364071994
 10
2.8036249529
 20
-2.6168582689
 10
3.2479331879
 20
-2.8262392471
 10
3.6601554382
 20
-3.0509573102
 10
4.0388981064
 20
-3.2883929033
 10
4.3855547901
 20
-3.5411652365
 10
4.7073873528
 20
-3.8035397427
 10
5.0047941861
 20
-4.0735899469
 10
5.2773768985
 20
-4.3532419548
 10
5.5312021795
 20
-4.6425400981
 10
5.7682223063
 20
-4.942577299
 10
5.9864850018
 20
-5.2522601009
 10
6.186200124
 20
-5.56835329
 10
6.3675962596
 20
-5.892063441
 10
6.530444822
 20
-6.2221834253
 10
6.6742699098
 20
-6.5518576711
 10
6.7982433386
 20
-6.8809668145
 10
6.9031932928
 20
-7.2096299586
 10
6.9911284237
 20
-7.5313495772
 10
7.0614384754
 20
-7.8457808675
 10
7.114733704
 20
-8.1532687801
 10
7.1548535287
 20
-8.4483507786
 10
7.1830777562
 20
-8.7292062672
  0
LWPOLYLINE
  5
4EC
100
AcDbEntity
  8
ASSI
100
AcDbPolyline
 62
250
  6
CONTINUOUS
 90
49
 70
0
 10
-7.1903228376
 20
-8.8805024583
 10
-7.161546038
 20
-8.5098132154
 10
-7.1136696012
 20
-8.141634053
 10
-7.0485560774
 20
-7.7789063845
 10
-6.9643429164
 20
-7.4186894368
 10
-6.855442467
 20
-7.0521599278
 10
-6.7221493494
 20
-6.6748487379
 10
-6.5641689435
 20
-6.2912249081
 10
-6.3750297373
 20
-5.9058722694
 10
-6.154471968
 20
-5.5172907821
 10
-5.9027553985
 20
-5.1269808276
 10
-5.6141878056
 20
-4.7440272396
 10
-5.2894445697
 20
-4.3677618552
 10
-4.9278503104
 20
-3.9988535841
 10
-4.5216866627
 20
-3.6483932567
 10
-4.0659225027
 20
-3.3128090197
 10
-3.5655889543
 20
-2.9956735707
 10
-3.0280610244
 20
-2.7187949304
 10
-2.4449897089
 20
-2.4844177652
 10
-1.8247240119
 20
-2.2902982396
 10
-1.1996859517
 20
-2.1515117888
 10
-0.5709877443
 20
-2.0758443224
 10
0.0624828262
 20
-2.0555102726
 10
0.6716403892
 20
-2.0822277834
 10
1.2504078372
 20
-2.1592765591
 10
1.8048622776
 20
-2.2833767658
 10
2.3241496627
 20
-2.4364071994
 10
2.8036249529
 20
-2.6168582689
 10
3.2479331879
 20
-2.8262392471
 10
3.6601554382
 20
-3.0509573102
 10
4.0388981064
 20
-3.2883929033
 10
4.3855547901
 20
-3.5411652365
 10
4.7073873528
 20
-3.8035397427
 10
5.0047941861
 20
-4.0735899469
 10
5.2773768985
 20
-4.3532419548
 10
5.5312021795
 20
-4.6425400981
 10
5.7682223063
 20
-4.942577299
 10
5.9864850018
 20
-5.2522601009
 10
6.186200124
 20
-5.56835329
 10
6.3675962596
 20
-5.892063441
 10
6.530444822
 20
-6.2221834253
 10
6.6742699098
 20
-6.5518576711
 10
6.7982433386
 20
-6.8809668145
 10
6.9031932928
 20
-7.2096299586
 10
6.9911284237
 20
-7.5313495772
 10
7.0614384754
 20
-7.8457808675
 10
7.114733704
 20
-8.1532687801
 10
7.1548535287
 20
-8.4483507786
 10
7.1830777562
 20
-8.7292062672
  0
LINE
  5
4ED
100
AcDbEntity
  8
CURVE
100
AcDbLine
 62
7
  6
CONTINUOUS
 10
-22.3039887321
 20
-10.6800508879
 11
-22.2673440337
 21
-10.6434061896
  0
LINE
  5
4EE
100
AcDbEntity
  8
CURVE
100
AcDbLine
 62
7
  6
CONTINUOUS
 10
-22.2714498374
 20
-10.8575227072
 11
-22.2673440337
 21
-10.8534169036
  0
LINE
  5
4EF
100
AcDbEntity
  8
CURVE
100
AcDbLine
 62
7
  6
CONTINUOUS
 10
-22.2872063668
 20
-10.8732792367
 11
-22.2831002317
 21
-10.8691731015
  0
LINE
  5
4F0
100
AcDbEntity
  8
CURVE
100
AcDbLine
 62
7
  6
CONTINUOUS
 10
-22.3039887321
 20
-10.890061602
 11
-22.2998829459
 21
-10.8859558158
  0
LINE
  5
4F1
100
AcDbEntity
  8
CURVE
100
AcDbLine
 62
7
  6
CONTINUOUS
 10
-22.2714498374
 20
-11.0675334212
 11
-22.2673440337
 21
-11.0634276176
  0
LINE
  5
4F2
100
AcDbEntity
  8
CURVE
100
AcDbLine
 62
7
  6
CONTINUOUS
 10
-22.2872063668
 20
-11.0832899507
 11
-22.2831002317
 21
-11.0791838155
  0
LINE
  5
4F3
100
AcDbEntity
  8
CURVE
100
AcDbLine
 62
7
  6
CONTINUOUS
 10
-22.3039887321
 20
-11.100072316
 11
-22.2998829459
 21
-11.0959665298
  0
LINE
  5
4F4
100
AcDbEntity
  8
CURVE
100
AcDbLine
 62
7
  6
CONTINUOUS
 10
-22.2714498374
 20
-11.2775441352
 11
-22.2673440337
 21
-11.2734383316
  0
LINE
  5
4F5
100
AcDbEntity
  8
CURVE
100
AcDbLine
 62
7
  6
CONTINUOUS
 10
-22.2872063668
 20
-11.2933006647
 11
-22.2831002317
 21
-11.2891945295
  0
LINE
  5
4F6
100
AcDbEntity
  8
CURVE
100
AcDbLine
 62
7
  6
CONTINUOUS
 10
-22.3039887321
 20
-11.31008303
 11
-22.2998829459
 21
-11.3059772438
  0
LINE
  5
4F7
100
AcDbEntity
  8
CURVE
100
AcDbLine
 62
7
  6
CONTINUOUS
 10
-22.2714498374
 20
-11.4875548493
 11
-22.2673440337
 21
-11.4834490456
  0
LINE
  5
4F8
100
AcDbEntity
  8
CURVE
100
AcDbLine
 62
7
  6
CONTINUOUS
 10
-22.2872063668
 20
-11.5033113787
 11
-22.2831002317
 21
-11.4992052435
  0
LINE
  5
4F9
100
AcDbEntity
  8
CURVE
100
AcDbLine
 62
7
  6
CONTINUOUS
 10
-22.3039887321
 20
-11.520093744
 11
-22.2998829459
 21
-11.5159879578
  0
LINE
  5
4FA
100
AcDbEntity
  8
CURVE
100
AcDbLine
 62
7
  6
CONTINUOUS
 10
-22.2714498374
 20
-11.6975655633
 11
-22.2673440337
 21
-11.6934597596
  0
LINE
  5
4FB
100
AcDbEntity
  8
CURVE
100
AcDbLine
 62
7
  6
CONTINUOUS
 10
-22.2872063668
 20
-11.7133220927
 11
-22.2831002317
 21
-11.7092159575
  0
LINE
  5
4FC
100
AcDbEntity
  8
CURVE
100
AcDbLine
 62
7
  6
CONTINUOUS
 10
-22.3039887321
 20
-11.730104458
 11
-22.2998829459
 21
-11.7259986718
  0
LINE
  5
4FD
100
AcDbEntity
  8
CURVE
100
AcDbLine
 62
7
  6
CONTINUOUS
 10
-22.2714498374
 20
-11.9075762773
 11
-22.2673440337
 21
-11.9034704736
  0
LINE
  5
4FE
100
AcDbEntity
  8
CURVE
100
AcDbLine
 62
7
  6
CONTINUOUS
 10
-22.2753247569
 20
-12.3314726248
 11
-22.2673441384
 21
-12.3234920064
  0
LINE
  5
4FF
100
AcDbEntity
  8
CURVE
100
AcDbLine
 62
7
  6
CONTINUOUS
 10
-22.2862480488
 20
-12.5524066308
 11
-22.270728908
 21
-12.53688749
  0
LINE
  5
500
100
AcDbEntity
  8
CURVE
100
AcDbLine
 62
7
  6
CONTINUOUS
 10
-22.2971713408
 20
-12.7733406368
 11
-22.282469422
 21
-12.758638718
  0
LINE
  5
501
100
AcDbEntity
  8
CURVE
100
AcDbLine
 62
7
  6
CONTINUOUS
 10
-22.3039888368
 20
-12.9901688468
 11
-22.2942099361
 21
-12.980389946
  0
LINE
  5
502
100
AcDbEntity
  8
CURVE
100
AcDbLine
 62
7
  6
CONTINUOUS
 10
-22.3039888368
 20
-13.2001795608
 11
-22.2933132926
 21
-13.1895040166
  0
LINE
  5
503
100
AcDbEntity
  8
CURVE
100
AcDbLine
 62
7
  6
CONTINUOUS
 10
-22.2955105165
 20
-13.4017119544
 11
-22.2828497463
 21
-13.3890511843
  0
LINE
  5
504
100
AcDbEntity
  8
CURVE
100
AcDbLine
 62
250
  6
CONTINUOUS
 10
-22.3039887321
 20
-8.214221
 11
-22.2673440337
 21
-8.214221
  0
LINE
  5
505
100
AcDbEntity
  8
0
100
AcDbLine
 62
250
  6
CONTINUOUS
 10
-22.3731418633
 20
-7.172362
 11
-22.3909233662
 21
-7.172362
  0
LINE
  5
506
100
AcDbEntity
  8
0
100
AcDbLine
 62
250
  6
CONTINUOUS
 10
-22.2956827544
 20
-6.497947
 11
-22.2891813711
 21
-6.497947
  0
LINE
  5
507
100
AcDbEntity
  8
0
100
AcDbLine
 62
250
  6
CONTINUOUS
 10
-3.8
 20
9.2537014806
 11
-3.8096771624
 21
8.8805024583
  0
LINE
  5
508
100
AcDbEntity
  8
ASSI
100
AcDbLine
 62
250
  6
CONTINUOUS
 10
-3.8
 20
9.2537014806
 11
-3.8096771624
 21
8.8805024583
  0
LWPOLYLINE
  5
509
100
AcDbEntity
  8
0
100
AcDbPolyline
 62
250
  6
CONTINUOUS
 90
49
 70
0
 10
-3.8096771624
 20
8.8805024583
 10
-3.838453962
 20
8.5098132154
 10
-3.8863303988
 20
8.141634053
 10
-3.9514439226
 20
7.7789063845
 10
-4.0356570836
 20
7.4186894368
 10
-4.144557533
 20
7.0521599278
 10
-4.2778506506
 20
6.6748487379
 10
-4.4358310565
 20
6.2912249081
 10
-4.6249702627
 20
5.9058722694
 10
-4.845528032
 20
5.5172907821
 10
-5.0972446015
 20
5.1269808276
 10
-5.3858121944
 20
4.7440272396
 10
-5.7105554303
 20
4.3677618552
 10
-6.0721496896
 20
3.9988535841
 10
-6.4783133373
 20
3.6483932567
 10
-6.9340774973
 20
3.3128090197
 10
-7.4344110457
 20
2.9956735707
 10
-7.9719389757
 20
2.7187949304
 10
-8.5550102911
 20
2.4844177652
 10
-9.1752759881
 20
2.2902982396
 10
-9.8003140483
 20
2.1515117888
 10
-10.4290122557
 20
2.0758443224
 10
-11.0624828262
 20
2.0555102726
 10
-11.6716403893
 20
2.0822277834
 10
-12.2504078372
 20
2.1592765591
 10
-12.8048622776
 20
2.2833767658
 10
-13.3241496627
 20
2.4364071994
 10
-13.8036249529
 20
2.6168582689
 10
-14.2479331879
 20
2.8262392471
 10
-14.6601554383
 20
3.0509573102
 10
-15.0388981064
 20
3.2883929033
 10
-15.3855547901
 20
3.5411652366
 10
-15.7073873528
 20
3.8035397427
 10
-16.0047941861
 20
4.0735899469
 10
-16.2773768985
 20
4.3532419548
 10
-16.5312021795
 20
4.6425400981
 10
-16.7682223063
 20
4.942577299
 10
-16.9864850018
 20
5.252260101
 10
-17.186200124
 20
5.56835329
 10
-17.3675962596
 20
5.892063441
 10
-17.5304448221
 20
6.2221834253
 10
-17.6742699098
 20
6.5518576711
 10
-17.7982433386
 20
6.8809668146
 10
-17.9031932928
 20
7.2096299586
 10
-17.9911284237
 20
7.5313495772
 10
-18.0614384754
 20
7.8457808675
 10
-18.114733704
 20
8.1532687801
 10
-18.1548535287
 20
8.4483507786
 10
-18.1830777562
 20
8.7292062672
  0
LWPOLYLINE
  5
50A
100
AcDbEntity
  8
ASSI
100
AcDbPolyline
 62
250
  6
CONTINUOUS
 90
49
 70
0
 10
-3.8096771624
 20
8.8805024583
 10
-3.838453962
 20
8.5098132154
 10
-3.8863303988
 20
8.141634053
 10
-3.9514439226
 20
7.7789063845
 10
-4.0356570836
 20
7.4186894368
 10
-4.144557533
 20
7.0521599278
 10
-4.2778506506
 20
6.6748487379
 10
-4.4358310565
 20
6.2912249081
 10
-4.6249702627
 20
5.9058722694
 10
-4.845528032
 20
5.5172907821
 10
-5.0972446015
 20
5.1269808276
 10
-5.3858121944
 20
4.7440272396
 10
-5.7105554303
 20
4.3677618552
 10
-6.0721496896
 20
3.9988535841
 10
-6.4783133373
 20
3.6483932567
 10
-6.9340774973
 20
3.3128090197
 10
-7.4344110457
 20
2.9956735707
 10
-7.9719389757
 20
2.7187949304
 10
-8.5550102911
 20
2.4844177652
 10
-9.1752759881
 20
2.2902982396
 10
-9.8003140483
 20
2.1515117888
 10
-10.4290122557
 20
2.0758443224
 10
-11.0624828262
 20
2.0555102726
 10
-11.6716403893
 20
2.0822277834
 10
-12.2504078372
 20
2.1592765591
 10
-12.8048622776
 20
2.2833767658
 10
-13.3241496627
 20
2.4364071994
 10
-13.8036249529
 20
2.6168582689
 10
-14.2479331879
 20
2.8262392471
 10
-14.6601554383
 20
3.0509573102
 10
-15.0388981064
 20
3.2883929033
 10
-15.3855547901
 20
3.5411652366
 10
-15.7073873528
 20
3.8035397427
 10
-16.0047941861
 20
4.0735899469
 10
-16.2773768985
 20
4.3532419548
 10
-16.5312021795
 20
4.6425400981
 10
-16.7682223063
 20
4.942577299
 10
-16.9864850018
 20
5.252260101
 10
-17.186200124
 20
5.56835329
 10
-17.3675962596
 20
5.892063441
 10
-17.5304448221
 20
6.2221834253
 10
-17.6742699098
 20
6.5518576711
 10
-17.7982433386
 20
6.8809668146
 10
-17.9031932928
 20
7.2096299586
 10
-17.9911284237
 20
7.5313495772
 10
-18.0614384754
 20
7.8457808675
 10
-18.114733704
 20
8.1532687801
 10
-18.1548535287
 20
8.4483507786
 10
-18.1830777562
 20
8.7292062672
  0
LINE
  5
50B
100
AcDbEntity
  8
CURVE
100
AcDbLine
 62
7
  6
CONTINUOUS
 10
-22.2856910985
 20
-13.6019032505
 11
-22.2723861999
 21
-13.5885983519
  0
LINE
  5
50C
100
AcDbEntity
  8
CURVE
100
AcDbLine
 62
7
  6
CONTINUOUS
 10
-22.2758716806
 20
-13.8020945466
 11
-22.2673441384
 21
-13.7935670044
  0
LINE
  5
50D
100
AcDbEntity
  8
CURVE
100
AcDbLine
 62
7
  6
CONTINUOUS
 10
-22.3039887321
 20
-14.4602437402
 11
-22.2673440337
 21
-14.4235990418
  0
LINE
  5
50E
100
AcDbEntity
  8
CURVE
100
AcDbLine
 62
7
  6
CONTINUOUS
 10
-22.2714498374
 20
-14.6377155594
 11
-22.2673440337
 21
-14.6336097558
  0
LINE
  5
50F
100
AcDbEntity
  8
CURVE
100
AcDbLine
 62
7
  6
CONTINUOUS
 10
-22.2872063668
 20
-14.6534720889
 11
-22.2831002317
 21
-14.6493659537
  0
LINE
  5
510
100
AcDbEntity
  8
CURVE
100
AcDbLine
 62
7
  6
CONTINUOUS
 10
-22.3039887321
 20
-14.6702544542
 11
-22.2998829459
 21
-14.666148668
  0
LINE
  5
511
100
AcDbEntity
  8
CURVE
100
AcDbLine
 62
7
  6
CONTINUOUS
 10
-22.2714498374
 20
-14.8477262734
 11
-22.2673440337
 21
-14.8436204698
  0
LINE
  5
512
100
AcDbEntity
  8
CURVE
100
AcDbLine
 62
7
  6
CONTINUOUS
 10
-22.2872063668
 20
-14.8634828029
 11
-22.2831002317
 21
-14.8593766677
  0
LINE
  5
513
100
AcDbEntity
  8
CURVE
100
AcDbLine
 62
7
  6
CONTINUOUS
 10
-22.3039887321
 20
-14.8802651682
 11
-22.2998829459
 21
-14.876159382
  0
LINE
  5
514
100
AcDbEntity
  8
CURVE
100
AcDbLine
 62
7
  6
CONTINUOUS
 10
-22.2714498374
 20
-15.0577369875
 11
-22.2673440337
 21
-15.0536311838
  0
LINE
  5
515
100
AcDbEntity
  8
CURVE
100
AcDbLine
 62
7
  6
CONTINUOUS
 10
-22.2872063668
 20
-15.0734935169
 11
-22.2831002317
 21
-15.0693873817
  0
LINE
  5
516
100
AcDbEntity
  8
CURVE
100
AcDbLine
 62
7
  6
CONTINUOUS
 10
-22.3039887321
 20
-15.0902758822
 11
-22.2998829459
 21
-15.086170096
  0
LINE
  5
517
100
AcDbEntity
  8
CURVE
100
AcDbLine
 62
7
  6
CONTINUOUS
 10
-22.2714498374
 20
-15.2677477015
 11
-22.2673440337
 21
-15.2636418978
  0
LINE
  5
518
100
AcDbEntity
  8
CURVE
100
AcDbLine
 62
7
  6
CONTINUOUS
 10
-22.2872063668
 20
-15.2835042309
 11
-22.2831002317
 21
-15.2793980958
  0
LINE
  5
519
100
AcDbEntity
  8
CURVE
100
AcDbLine
 62
7
  6
CONTINUOUS
 10
-22.3039887321
 20
-15.3002865962
 11
-22.2998829459
 21
-15.29618081
  0
LINE
  5
51A
100
AcDbEntity
  8
CURVE
100
AcDbLine
 62
7
  6
CONTINUOUS
 10
-22.2714498374
 20
-15.4777584155
 11
-22.2673440337
 21
-15.4736526118
  0
LINE
  5
51B
100
AcDbEntity
  8
CURVE
100
AcDbLine
 62
7
  6
CONTINUOUS
 10
-22.2872063668
 20
-15.493514945
 11
-22.2831002317
 21
-15.4894088098
  0
LINE
  5
51C
100
AcDbEntity
  8
CURVE
100
AcDbLine
 62
7
  6
CONTINUOUS
 10
-22.3039887321
 20
-15.5102973102
 11
-22.2998829459
 21
-15.506191524
  0
LINE
  5
51D
100
AcDbEntity
  8
CURVE
100
AcDbLine
 62
7
  6
CONTINUOUS
 10
-22.2714498374
 20
-15.6877691295
 11
-22.2673440337
 21
-15.6836633259
  0
LINE
  5
51E
100
AcDbEntity
  8
CURVE
100
AcDbLine
 62
7
  6
CONTINUOUS
 10
-22.2861447079
 20
-15.702464
 11
-22.2831002317
 21
-15.6994195238
  0
LINE
  5
51F
100
AcDbEntity
  8
CURVE
100
AcDbLine
 62
7
  6
CONTINUOUS
 10
-22.3039887321
 20
-15.7203080242
 11
-22.2998829459
 21
-15.7162022381
  0
LINE
  5
520
100
AcDbEntity
  8
CURVE
100
AcDbLine
 62
7
  6
CONTINUOUS
 10
-22.2956849595
 20
-16.5520471077
 11
-22.2673097605
 21
-16.5236719087
  0
LINE
  5
521
100
AcDbEntity
  8
0
100
AcDbLine
 62
250
  6
CONTINUOUS
 10
-22.2891813711
 20
-6.147887
 11
-22.2956827544
 21
-6.147887
  0
LINE
  5
522
100
AcDbEntity
  8
0
100
AcDbLine
 62
250
  6
CONTINUOUS
 10
-22.301059822
 20
-5.69141
 11
-22.2972958816
 21
-5.69141
  0
LINE
  5
523
100
AcDbEntity
  8
0
100
AcDbLine
 62
250
  6
CONTINUOUS
 10
-22.2781419152
 20
-5.496076
 11
-22.2743455434
 21
-5.496076
  0
LINE
  5
524
100
AcDbEntity
  8
0
100
AcDbLine
 62
250
  6
CONTINUOUS
 10
-22.2743358034
 20
-4.923073
 11
-22.2781321753
 21
-4.923073
  0
LINE
  5
525
100
AcDbEntity
  8
0
100
AcDbLine
 62
250
  6
CONTINUOUS
 10
-22.2972958816
 20
-4.86807
 11
-22.301059822
 21
-4.86807
  0
LINE
  5
526
100
AcDbEntity
  8
0
100
AcDbLine
 62
250
  6
CONTINUOUS
 10
-22.3449635519
 20
-4.479503
 11
-22.3415345393
 21
-4.479503
  0
LINE
  5
527
100
AcDbEntity
  8
0
100
AcDbLine
 62
250
  6
CONTINUOUS
 10
-22.2828467534
 20
-4.39759
 11
-22.2759586706
 21
-4.39759
  0
LINE
  5
528
100
AcDbEntity
  8
0
100
AcDbLine
 62
250
  6
CONTINUOUS
 10
-22.3415345393
 20
-4.361883
 11
-22.3449635519
 21
-4.361883
  0
LINE
  5
529
100
AcDbEntity
  8
0
100
AcDbLine
 62
250
  6
CONTINUOUS
 10
-22.2759586706
 20
-4.298216
 11
-22.2828467534
 21
-4.298216
  0
LINE
  5
52A
100
AcDbEntity
  8
0
100
AcDbLine
 62
250
  6
CONTINUOUS
 10
0.6928570151
 20
-20.3
 11
-0.0214286566
 21
-17.8
  0
LWPOLYLINE
  5
52B
100
AcDbEntity
  8
0
100
AcDbPolyline
 62
250
  6
CONTINUOUS
 90
3
 70
0
 10
-3.8167555305
 20
9.7758247541
 10
-3.8018378167
 20
9.508542673
 10
-3.8
 20
9.2537014806
  0
LWPOLYLINE
  5
52C
100
AcDbEntity
  8
ASSI
100
AcDbPolyline
 62
250
  6
CONTINUOUS
 90
3
 70
0
 10
-3.8167555305
 20
9.7758247541
 10
-3.8018378167
 20
9.508542673
 10
-3.8
 20
9.2537014806
  0
LWPOLYLINE
  5
52D
100
AcDbEntity
  8
0
100
AcDbPolyline
 62
7
  6
CONTINUOUS
 90
2
 70
0
 43
0.3500000006
 10
-3.3928571262
 20
32.2500004578
 10
-3.3928571262
 20
33.7500009155
  0
LINE
  5
52E
100
AcDbEntity
  8
0
100
AcDbLine
 62
250
  6
CONTINUOUS
 10
-2.7
 20
-18.1571428359
 11
-2.7
 21
-18.5142856659
  0
LINE
  5
52F
100
AcDbEntity
  8
CURVE
100
AcDbLine
 62
7
  6
CONTINUOUS
 10
-22.3019783121
 20
-16.7683511743
 11
-22.2984128982
 21
-16.7647857604
  0
LINE
  5
530
100
AcDbEntity
  8
CURVE
100
AcDbLine
 62
7
  6
CONTINUOUS
 10
-22.3040689759
 20
-16.9804525521
 11
-22.3017674759
 21
-16.9781510521
  0
LINE
  5
531
100
AcDbEntity
  8
CURVE
100
AcDbLine
 62
7
  6
CONTINUOUS
 10
-22.3048054895
 20
-17.1911997798
 11
-22.3028341756
 21
-17.1892284658
  0
LINE
  5
532
100
AcDbEntity
  8
CURVE
100
AcDbLine
 62
7
  6
CONTINUOUS
 10
-22.3048370615
 20
-17.4012420657
 11
-22.3028726881
 21
-17.3992776923
  0
LINE
  5
533
100
AcDbEntity
  8
CURVE
100
AcDbLine
 62
7
  6
CONTINUOUS
 10
-22.3041870456
 20
-17.6106027639
 11
-22.3020859897
 21
-17.6085017079
  0
LINE
  5
534
100
AcDbEntity
  8
CURVE
100
AcDbLine
 62
7
  6
CONTINUOUS
 10
-22.302434403
 20
-17.8188608353
 11
-22.2996610067
 21
-17.816087439
  0
LINE
  5
535
100
AcDbEntity
  8
CURVE
100
AcDbLine
 62
7
  6
CONTINUOUS
 10
-22.2981421427
 20
-18.0245792889
 11
-22.2673097605
 21
-17.9937469068
  0
LINE
  5
536
100
AcDbEntity
  8
CURVE
100
AcDbLine
 62
7
  6
CONTINUOUS
 10
-22.2692639301
 20
-18.6257332184
 11
-22.2673098665
 21
-18.6237791548
  0
LINE
  5
537
100
AcDbEntity
  8
CURVE
100
AcDbLine
 62
7
  6
CONTINUOUS
 10
-22.2876713746
 20
-18.6441406629
 11
-22.285717311
 21
-18.6421865993
  0
LINE
  5
538
100
AcDbEntity
  8
CURVE
100
AcDbLine
 62
7
  6
CONTINUOUS
 10
-22.2692639301
 20
-18.8357439324
 11
-22.2673098665
 21
-18.8337898688
  0
LINE
  5
539
100
AcDbEntity
  8
CURVE
100
AcDbLine
 62
7
  6
CONTINUOUS
 10
-22.2876713746
 20
-18.854151377
 11
-22.285717311
 21
-18.8521973134
  0
LINE
  5
53A
100
AcDbEntity
  8
CURVE
100
AcDbLine
 62
7
  6
CONTINUOUS
 10
-22.2692639301
 20
-19.0457546464
 11
-22.2673098665
 21
-19.0438005828
  0
LINE
  5
53B
100
AcDbEntity
  8
CURVE
100
AcDbLine
 62
7
  6
CONTINUOUS
 10
-22.2876713746
 20
-19.064162091
 11
-22.285717311
 21
-19.0622080274
  0
LINE
  5
53C
100
AcDbEntity
  8
CURVE
100
AcDbLine
 62
7
  6
CONTINUOUS
 10
-22.2692639301
 20
-19.2557653604
 11
-22.2673098665
 21
-19.2538112968
  0
LINE
  5
53D
100
AcDbEntity
  8
CURVE
100
AcDbLine
 62
7
  6
CONTINUOUS
 10
-22.2876713746
 20
-19.274172805
 11
-22.285717311
 21
-19.2722187414
  0
LINE
  5
53E
100
AcDbEntity
  8
CURVE
100
AcDbLine
 62
7
  6
CONTINUOUS
 10
-22.2693540684
 20
-19.4658662127
 11
-22.267376842
 21
-19.4638889863
  0
LINE
  5
53F
100
AcDbEntity
  8
CURVE
100
AcDbLine
 62
7
  6
CONTINUOUS
 10
-22.2875124107
 20
-19.484024555
 11
-22.2855222352
 21
-19.4820343796
  0
LINE
  5
540
100
AcDbEntity
  8
0
100
AcDbLine
 62
250
  6
CONTINUOUS
 10
-22.3909233662
 20
-2.987638
 11
-22.3731418633
 21
-2.987638
  0
LINE
  5
541
100
AcDbEntity
  8
0
100
AcDbLine
 62
250
  6
CONTINUOUS
 10
-1.45
 20
-19.5857142538
 11
-1.45
 21
-19.9428571204
  0
LWPOLYLINE
  5
542
100
AcDbEntity
  8
0
100
AcDbPolyline
 62
7
  6
CONTINUOUS
 90
2
 70
0
 43
0.3500000006
 10
-1.035714268
 20
32.2500004578
 10
-1.035714268
 20
33.7500009155
  0
LINE
  5
543
100
AcDbEntity
  8
CURVE
100
AcDbLine
 62
7
  6
CONTINUOUS
 10
-22.2706585829
 20
-19.6771814412
 11
-22.2682146738
 21
-19.6747375322
  0
LINE
  5
544
100
AcDbEntity
  8
CURVE
100
AcDbLine
 62
7
  6
CONTINUOUS
 10
-22.2865373651
 20
-19.6930602235
 11
-22.2840694879
 21
-19.6905923463
  0
LINE
  5
545
100
AcDbEntity
  8
CURVE
100
AcDbLine
 62
7
  6
CONTINUOUS
 10
-22.2834370898
 20
-19.8999706622
 11
-22.2709385967
 21
-19.8874721691
  0
LINE
  5
546
100
AcDbEntity
  8
0
100
AcDbLine
 62
7
  6
CONTINUOUS
 10
16.604210915
 20
8.7772006725
 11
16.4282771198
 21
8.6864298118
  0
LWPOLYLINE
  5
547
100
AcDbEntity
  8
0
100
AcDbPolyline
 62
7
  6
CONTINUOUS
 90
3
 70
0
 10
16.4282771198
 20
8.6864298118
 10
16.2557039871
 20
8.598479658
 10
16.2132176686
 20
8.5769997693
  0
LINE
  5
548
100
AcDbEntity
  8
0
100
AcDbLine
 62
250
  6
CONTINUOUS
 10
-22.2690870131
 20
-1.4999999992
 11
-22.2865420655
 21
-1.4999999992
  0
LINE
  5
549
100
AcDbEntity
  8
0
100
AcDbLine
 62
250
  6
CONTINUOUS
 10
-22.3563623314
 20
-1.4999999992
 11
-22.3738174026
 21
-1.4999999992
  0
LWPOLYLINE
  5
54A
100
AcDbEntity
  8
0
100
AcDbPolyline
 62
7
  6
CONTINUOUS
 90
2
 70
0
 43
0.3500000006
 10
29.6499999847
 20
-1.3571429443
 10
28.149999527
 20
-1.3571429443
  0
LINE
  5
54B
100
AcDbEntity
  8
0
100
AcDbLine
 62
250
  6
CONTINUOUS
 10
9.6
 20
-1.0714285076
 11
10.6714285821
 21
-1.0714285076
  0
LWPOLYLINE
  5
54C
100
AcDbEntity
  8
0
100
AcDbPolyline
 62
7
  6
CONTINUOUS
 90
4
 70
0
 43
0.3500000006
 10
27.2928570557
 20
-0.0000003204
 10
26.6499990692
 20
-0.0000003204
 10
26.6499990692
 20
1.5000001373
 10
29.6499999847
 20
0.642857666
  0
LINE
  5
54D
100
AcDbEntity
  8
0
100
AcDbLine
 62
250
  6
CONTINUOUS
 10
10.6714285821
 20
-0.0
 11
9.6
 21
-0.0
  0
LINE
  5
54E
100
AcDbEntity
  8
0
100
AcDbLine
 62
250
  6
CONTINUOUS
 10
-11.2714285076
 20
-0.0
 11
-12.7
 21
-0.0
  0
LWPOLYLINE
  5
54F
100
AcDbEntity
  8
0
100
AcDbPolyline
 62
7
  6
CONTINUOUS
 90
4
 70
0
 43
0.3500000006
 10
2.0357142191
 20
32.6785694275
 10
2.0357142191
 20
33.5357164307
 10
2.464285738
 20
33.9642854004
 10
3.1071428747
 20
33.9642854004
  0
LINE
  5
550
100
AcDbEntity
  8
0
100
AcDbLine
 62
250
  6
CONTINUOUS
 10
2.1214286566
 20
-17.8
 11
2.1214286566
 21
-20.2999999384
  0
LINE
  5
551
100
AcDbEntity
  8
0
100
AcDbLine
 62
250
  6
CONTINUOUS
 10
-22.2562325237
 20
2.22959
 11
-22.2696780085
 21
2.22959
  0
LINE
  5
552
100
AcDbEntity
  8
0
100
AcDbLine
 62
250
  6
CONTINUOUS
 10
-22.3313346701
 20
2.22959
 11
-22.3447801549
 21
2.22959
  0
LWPOLYLINE
  5
553
100
AcDbEntity
  8
0
100
AcDbPolyline
 62
250
  6
CONTINUOUS
 90
3
 70
0
 10
3.8169222438
 20
8.7292062672
 10
3.80187342
 20
8.997656409
 10
3.8
 20
9.2537014806
  0
LWPOLYLINE
  5
554
100
AcDbEntity
  8
ASSI
100
AcDbPolyline
 62
250
  6
CONTINUOUS
 90
3
 70
0
 10
3.8169222438
 20
8.7292062672
 10
3.80187342
 20
8.997656409
 10
3.8
 20
9.2537014806
  0
LINE
  5
555
100
AcDbEntity
  8
0
100
AcDbLine
 62
250
  6
CONTINUOUS
 10
3.8
 20
9.2537014806
 11
3.809683945
 21
9.6269796329
  0
LINE
  5
556
100
AcDbEntity
  8
ASSI
100
AcDbLine
 62
250
  6
CONTINUOUS
 10
3.8
 20
9.2537014806
 11
3.809683945
 21
9.6269796329
  0
LWPOLYLINE
  5
557
100
AcDbEntity
  8
0
100
AcDbPolyline
 62
250
  6
CONTINUOUS
 90
49
 70
0
 10
3.809683945
 20
9.6269796329
 10
3.8384712741
 20
9.9977362094
 10
3.8863619873
 20
10.3659711159
 10
3.9514972482
 20
10.7287472807
 10
4.0357358931
 20
11.0890017025
 10
4.1446544313
 20
11.4555449867
 10
4.2779633106
 20
11.8328449004
 10
4.4359520832
 20
12.2164324675
 10
4.625065915
 20
12.601712975
 10
4.8455630248
 20
12.9901754549
 10
5.0971851939
 20
13.3803301543
 10
5.3856029315
 20
13.7631149849
 10
5.7101106261
 20
14.1391814536
 10
6.0714138893
 20
14.5078785116
 10
6.4773000648
 20
14.8581915127
 10
6.9327775655
 20
15.1937212309
 10
7.4328379784
 20
15.5108686687
 10
7.9702434091
 20
15.7878214644
 10
8.5533874105
 20
16.0223790277
 10
9.1738764295
 20
16.2167457716
 10
9.7992919131
 20
16.3557183017
 10
10.4285868087
 20
16.4314837015
 10
11.0628081688
 20
16.4518573133
 10
11.6726785976
 20
16.4250777912
 10
12.2520775593
 20
16.3478280406
 10
12.8071255899
 20
16.2234241702
 10
13.3269069015
 20
16.0700543893
 10
13.8067400027
 20
15.8892412231
 10
14.2513063851
 20
15.6794603519
 10
14.6637347354
 20
15.4543304713
 10
15.0426304504
 20
15.216491203
 10
15.3893881334
 20
14.9633017829
 10
15.7113202812
 20
14.7004610873
 10
16.0088468487
 20
14.4298907685
 10
16.281547881
 20
14.1496684786
 10
16.5354760105
 20
13.8597273515
 10
16.7726219333
 20
13.5588835616
 10
16.9909949533
 20
13.2483201478
 10
17.1906756149
 20
12.9315207191
 10
17.3718243403
 20
12.6073271669
 10
17.5342807073
 20
12.2768972052
 10
17.6776439934
 20
11.9471887064
 10
17.8010702801
 20
11.6183905721
 10
17.9054034859
 20
11.2903142612
 10
17.9927746433
 20
10.9693521081
 10
18.0626000463
 20
10.6558607023
 10
18.115463401
 20
10.3494843152
 10
18.1552468586
 20
10.0555472621
 10
18.1832444695
 20
9.7758247541
  0
LWPOLYLINE
  5
558
100
AcDbEntity
  8
ASSI
100
AcDbPolyline
 62
250
  6
CONTINUOUS
 90
49
 70
0
 10
3.809683945
 20
9.6269796329
 10
3.8384712741
 20
9.9977362094
 10
3.8863619873
 20
10.3659711159
 10
3.9514972482
 20
10.7287472807
 10
4.0357358931
 20
11.0890017025
 10
4.1446544313
 20
11.4555449867
 10
4.2779633106
 20
11.8328449004
 10
4.4359520832
 20
12.2164324675
 10
4.625065915
 20
12.601712975
 10
4.8455630248
 20
12.9901754549
 10
5.0971851939
 20
13.3803301543
 10
5.3856029315
 20
13.7631149849
 10
5.7101106261
 20
14.1391814536
 10
6.0714138893
 20
14.5078785116
 10
6.4773000648
 20
14.8581915127
 10
6.9327775655
 20
15.1937212309
 10
7.4328379784
 20
15.5108686687
 10
7.9702434091
 20
15.7878214644
 10
8.5533874105
 20
16.0223790277
 10
9.1738764295
 20
16.2167457716
 10
9.7992919131
 20
16.3557183017
 10
10.4285868087
 20
16.4314837015
 10
11.0628081688
 20
16.4518573133
 10
11.6726785976
 20
16.4250777912
 10
12.2520775593
 20
16.3478280406
 10
12.8071255899
 20
16.2234241702
 10
13.3269069015
 20
16.0700543893
 10
13.8067400027
 20
15.8892412231
 10
14.2513063851
 20
15.6794603519
 10
14.6637347354
 20
15.4543304713
 10
15.0426304504
 20
15.216491203
 10
15.3893881334
 20
14.9633017829
 10
15.7113202812
 20
14.7004610873
 10
16.0088468487
 20
14.4298907685
 10
16.281547881
 20
14.1496684786
 10
16.5354760105
 20
13.8597273515
 10
16.7726219333
 20
13.5588835616
 10
16.9909949533
 20
13.2483201478
 10
17.1906756149
 20
12.9315207191
 10
17.3718243403
 20
12.6073271669
 10
17.5342807073
 20
12.2768972052
 10
17.6776439934
 20
11.9471887064
 10
17.8010702801
 20
11.6183905721
 10
17.9054034859
 20
11.2903142612
 10
17.9927746433
 20
10.9693521081
 10
18.0626000463
 20
10.6558607023
 10
18.115463401
 20
10.3494843152
 10
18.1552468586
 20
10.0555472621
 10
18.1832444695
 20
9.7758247541
  0
LINE
  5
559
100
AcDbEntity
  8
0
100
AcDbLine
 62
250
  6
CONTINUOUS
 10
-22.2938318106
 20
2.73959
 11
-22.3071808681
 21
2.73959
  0
LWPOLYLINE
  5
55A
100
AcDbEntity
  8
0
100
AcDbPolyline
 62
250
  6
CONTINUOUS
 90
3
 70
0
 10
7.1830777562
 20
-8.7292062672
 10
7.19812658
 20
-8.997656409
 10
7.2
 20
-9.2537014806
  0
LWPOLYLINE
  5
55B
100
AcDbEntity
  8
ASSI
100
AcDbPolyline
 62
250
  6
CONTINUOUS
 90
3
 70
0
 10
7.1830777562
 20
-8.7292062672
 10
7.19812658
 20
-8.997656409
 10
7.2
 20
-9.2537014806
  0
LINE
  5
55C
100
AcDbEntity
  8
0
100
AcDbLine
 62
250
  6
CONTINUOUS
 10
-0.0214286566
 20
-17.8
 11
-0.7357143283
 21
-20.3
  0
LINE
  5
55D
100
AcDbEntity
  8
0
100
AcDbLine
 62
250
  6
CONTINUOUS
 10
-22.3600483307
 20
6.5047613144
 11
-22.3827330035
 21
6.5047613144
  0
LINE
  5
55E
100
AcDbEntity
  8
0
100
AcDbLine
 62
250
  6
CONTINUOUS
 10
-22.2562325237
 20
6.56459
 11
-22.2696780085
 21
6.56459
  0
LINE
  5
55F
100
AcDbEntity
  8
0
100
AcDbLine
 62
250
  6
CONTINUOUS
 10
-22.3313346701
 20
6.56459
 11
-22.3447801549
 21
6.56459
  0
LINE
  5
560
100
AcDbEntity
  8
DRAFT
100
AcDbLine
 62
7
  6
CONTINUOUS
 10
8.25
 20
23.5
 11
8.25
 21
22.4
  0
LINE
  5
561
100
AcDbEntity
  8
ASSI
100
AcDbLine
 62
7
  6
CONTINUOUS
 10
8.25
 20
23.5
 11
8.25
 21
22.4
  0
LINE
  5
562
100
AcDbEntity
  8
DRAFT
100
AcDbLine
 62
7
  6
CONTINUOUS
 10
8.25
 20
-22.4
 11
8.25
 21
-23.5
  0
LINE
  5
563
100
AcDbEntity
  8
ASSI
100
AcDbLine
 62
7
  6
CONTINUOUS
 10
8.25
 20
-22.4
 11
8.25
 21
-23.5
  0
LINE
  5
564
100
AcDbEntity
  8
0
100
AcDbLine
 62
250
  6
CONTINUOUS
 10
7.2
 20
-9.2537014806
 11
7.190316055
 21
-9.6269796329
  0
LINE
  5
565
100
AcDbEntity
  8
ASSI
100
AcDbLine
 62
250
  6
CONTINUOUS
 10
7.2
 20
-9.2537014806
 11
7.190316055
 21
-9.6269796329
  0
LWPOLYLINE
  5
566
100
AcDbEntity
  8
0
100
AcDbPolyline
 62
250
  6
CONTINUOUS
 90
49
 70
0
 10
7.190316055
 20
-9.6269796329
 10
7.1615287259
 20
-9.9977362094
 10
7.1136380127
 20
-10.3659711159
 10
7.0485027519
 20
-10.7287472807
 10
6.9642641069
 20
-11.0890017025
 10
6.8553455687
 20
-11.4555449866
 10
6.7220366894
 20
-11.8328449004
 10
6.5640479168
 20
-12.2164324675
 10
6.374934085
 20
-12.6017129749
 10
6.1544369752
 20
-12.9901754548
 10
5.9028148061
 20
-13.3803301543
 10
5.6143970686
 20
-13.7631149848
 10
5.2898893739
 20
-14.1391814536
 10
4.9285861107
 20
-14.5078785116
 10
4.5226999352
 20
-14.8581915127
 10
4.0672224346
 20
-15.1937212309
 10
3.5671620217
 20
-15.5108686686
 10
3.029756591
 20
-15.7878214644
 10
2.4466125896
 20
-16.0223790277
 10
1.8261235706
 20
-16.2167457716
 10
1.200708087
 20
-16.3557183017
 10
0.5714131914
 20
-16.4314837015
 10
-0.0628081686
 20
-16.4518573133
 10
-0.6726785975
 20
-16.4250777912
 10
-1.2520775592
 20
-16.3478280406
 10
-1.8071255898
 20
-16.2234241703
 10
-2.3269069014
 20
-16.0700543894
 10
-2.8067400026
 20
-15.8892412232
 10
-3.251306385
 20
-15.6794603519
 10
-3.6637347353
 20
-15.4543304713
 10
-4.0426304503
 20
-15.2164912031
 10
-4.3893881333
 20
-14.9633017829
 10
-4.7113202812
 20
-14.7004610874
 10
-5.0088468486
 20
-14.4298907685
 10
-5.2815478809
 20
-14.1496684786
 10
-5.5354760104
 20
-13.8597273516
 10
-5.7726219332
 20
-13.5588835617
 10
-5.9909949532
 20
-13.2483201479
 10
-6.1906756148
 20
-12.9315207192
 10
-6.3718243403
 20
-12.607327167
 10
-6.5342807073
 20
-12.2768972052
 10
-6.6776439934
 20
-11.9471887064
 10
-6.8010702801
 20
-11.6183905722
 10
-6.9054034859
 20
-11.2903142612
 10
-6.9927746433
 20
-10.9693521082
 10
-7.0626000463
 20
-10.6558607023
 10
-7.115463401
 20
-10.3494843152
 10
-7.1552468586
 20
-10.0555472621
 10
-7.1832444695
 20
-9.7758247541
  0
LWPOLYLINE
  5
567
100
AcDbEntity
  8
ASSI
100
AcDbPolyline
 62
250
  6
CONTINUOUS
 90
49
 70
0
 10
7.190316055
 20
-9.6269796329
 10
7.1615287259
 20
-9.9977362094
 10
7.1136380127
 20
-10.3659711159
 10
7.0485027519
 20
-10.7287472807
 10
6.9642641069
 20
-11.0890017025
 10
6.8553455687
 20
-11.4555449866
 10
6.7220366894
 20
-11.8328449004
 10
6.5640479168
 20
-12.2164324675
 10
6.374934085
 20
-12.6017129749
 10
6.1544369752
 20
-12.9901754548
 10
5.9028148061
 20
-13.3803301543
 10
5.6143970686
 20
-13.7631149848
 10
5.2898893739
 20
-14.1391814536
 10
4.9285861107
 20
-14.5078785116
 10
4.5226999352
 20
-14.8581915127
 10
4.0672224346
 20
-15.1937212309
 10
3.5671620217
 20
-15.5108686686
 10
3.029756591
 20
-15.7878214644
 10
2.4466125896
 20
-16.0223790277
 10
1.8261235706
 20
-16.2167457716
 10
1.200708087
 20
-16.3557183017
 10
0.5714131914
 20
-16.4314837015
 10
-0.0628081686
 20
-16.4518573133
 10
-0.6726785975
 20
-16.4250777912
 10
-1.2520775592
 20
-16.3478280406
 10
-1.8071255898
 20
-16.2234241703
 10
-2.3269069014
 20
-16.0700543894
 10
-2.8067400026
 20
-15.8892412232
 10
-3.251306385
 20
-15.6794603519
 10
-3.6637347353
 20
-15.4543304713
 10
-4.0426304503
 20
-15.2164912031
 10
-4.3893881333
 20
-14.9633017829
 10
-4.7113202812
 20
-14.7004610874
 10
-5.0088468486
 20
-14.4298907685
 10
-5.2815478809
 20
-14.1496684786
 10
-5.5354760104
 20
-13.8597273516
 10
-5.7726219332
 20
-13.5588835617
 10
-5.9909949532
 20
-13.2483201479
 10
-6.1906756148
 20
-12.9315207192
 10
-6.3718243403
 20
-12.607327167
 10
-6.5342807073
 20
-12.2768972052
 10
-6.6776439934
 20
-11.9471887064
 10
-6.8010702801
 20
-11.6183905722
 10
-6.9054034859
 20
-11.2903142612
 10
-6.9927746433
 20
-10.9693521082
 10
-7.0626000463
 20
-10.6558607023
 10
-7.115463401
 20
-10.3494843152
 10
-7.1552468586
 20
-10.0555472621
 10
-7.1832444695
 20
-9.7758247541
  0
LINE
  5
568
100
AcDbEntity
  8
0
100
AcDbLine
 62
7
  6
CONTINUOUS
 10
11.7000000016
 20
4.0637864065
 11
11.6124091714
 21
3.8913559018
  0
LWPOLYLINE
  5
569
100
AcDbEntity
  8
0
100
AcDbPolyline
 62
7
  6
CONTINUOUS
 90
3
 70
0
 10
11.6124091714
 20
3.8913559018
 10
11.5226354958
 20
3.7168415934
 10
11.4997993275
 20
3.672789085
  0
LWPOLYLINE
  5
56A
100
AcDbEntity
  8
CURVE
100
AcDbPolyline
 62
250
  6
CONTINUOUS
 90
16
 70
0
 10
-22.2775929248
 20
-19.9985214186
 10
-22.2772695961
 20
-19.998367953
 10
-22.2769458243
 20
-19.9978903854
 10
-22.2766218977
 20
-19.9970629595
 10
-22.2762981044
 20
-19.995859919
 10
-22.2759747329
 20
-19.9942555077
 10
-22.2756520712
 20
-19.9922239691
 10
-22.2753304078
 20
-19.9897395471
 10
-22.2750100307
 20
-19.9867764854
 10
-22.2746912284
 20
-19.9833090276
 10
-22.274374289
 20
-19.9793114175
 10
-22.2740595009
 20
-19.9747578988
 10
-22.2737471522
 20
-19.9696227152
 10
-22.2734375313
 20
-19.9638801104
 10
-22.2731733337
 20
-19.9584318101
 10
-22.2726531417
 20
-19.9461448932
  0
LWPOLYLINE
  5
56B
100
AcDbEntity
  8
CURVE
100
AcDbPolyline
 62
250
  6
CONTINUOUS
 90
19
 70
0
 10
-22.2893168612
 20
-16.5099484008
 10
-22.2898106456
 20
-16.510144509
 10
-22.2903086909
 20
-16.5107535488
 10
-22.2908101731
 20
-16.5118065931
 10
-22.2913142686
 20
-16.5133347147
 10
-22.2918201534
 20
-16.5153689865
 10
-22.2923270038
 20
-16.5179404813
 10
-22.2928339959
 20
-16.5210802721
 10
-22.293340306
 20
-16.5248194316
 10
-22.2938451101
 20
-16.5291890327
 10
-22.2943475845
 20
-16.5342201484
 10
-22.2948469054
 20
-16.5399438514
 10
-22.295342249
 20
-16.5463912146
 10
-22.2958327914
 20
-16.5535933109
 10
-22.2963177088
 20
-16.5615812131
 10
-22.2967961775
 20
-16.5703859942
 10
-22.2972673735
 20
-16.5800387268
 10
-22.2977304731
 20
-16.590570484
 10
-22.2986290877
 20
-16.6143953634
  0
LINE
  5
56C
100
AcDbEntity
  8
0
100
AcDbLine
 62
7
  6
CONTINUOUS
 10
6.3169783814
 20
8.5854938342
 11
6.0407227357
 21
8.577
  0
LWPOLYLINE
  5
56D
100
AcDbEntity
  8
0
100
AcDbPolyline
 62
250
  6
CONTINUOUS
 90
6
 70
0
 10
18.0713936426
 20
9.2528348564
 10
18.0467527773
 20
9.2523785649
 10
18.0267694707
 20
9.2518500947
 10
18.0120482884
 20
9.2512655027
 10
18.0030347001
 20
9.2506425738
 10
18.0
 20
9.2500002292
  0
LWPOLYLINE
  5
56E
100
AcDbEntity
  8
ASSI
100
AcDbPolyline
 62
250
  6
CONTINUOUS
 90
6
 70
0
 10
18.0713936426
 20
9.2528348564
 10
18.0467527773
 20
9.2523785649
 10
18.0267694707
 20
9.2518500947
 10
18.0120482884
 20
9.2512655027
 10
18.0030347001
 20
9.2506425738
 10
18.0
 20
9.2500002292
  0
LINE
  5
56F
100
AcDbEntity
  8
0
100
AcDbLine
 62
250
  6
CONTINUOUS
 10
-22.3762516682
 20
7.1238090515
 11
-22.3794923358
 21
7.1238090515
  0
LINE
  5
570
100
AcDbEntity
  8
0
100
AcDbLine
 62
250
  6
CONTINUOUS
 10
-22.363288998
 20
7.7738090515
 11
-22.3665296654
 21
7.7738090515
  0
LINE
  5
571
100
AcDbEntity
  8
0
100
AcDbLine
 62
250
  6
CONTINUOUS
 10
-22.3600483307
 20
8.3619045258
 11
-22.3827330035
 21
8.3619045258
  0
LINE
  5
572
100
AcDbEntity
  8
0
100
AcDbLine
 62
7
  6
CONTINUOUS
 10
5.7867823314
 20
8.5769997693
 11
6.0407227357
 21
8.577
  0
LINE
  5
573
100
AcDbEntity
  8
0
100
AcDbLine
 62
7
  6
CONTINUOUS
 10
15.9592772643
 20
8.577
 11
16.2132176686
 21
8.5769997693
  0
LINE
  5
574
100
AcDbEntity
  8
0
100
AcDbLine
 62
7
  6
CONTINUOUS
 10
10.308493953
 20
13.9600055877
 11
10.3
 21
14.2362772643
  0
LINE
  5
575
100
AcDbEntity
  8
0
100
AcDbLine
 62
250
  6
CONTINUOUS
 10
9.6
 20
-0.0
 11
9.6
 21
-2.5000000047
  0
LINE
  5
576
100
AcDbEntity
  8
0
100
AcDbLine
 62
7
  6
CONTINUOUS
 10
10.3
 20
14.4902139799
 11
10.3
 21
14.2362772643
  0
LINE
  5
577
100
AcDbEntity
  8
0
100
AcDbLine
 62
7
  6
CONTINUOUS
 10
10.3
 20
4.3177227357
 11
10.2999999984
 21
4.0637864065
  0
LINE
  5
578
100
AcDbEntity
  8
0
100
AcDbLine
 62
7
  6
CONTINUOUS
 10
10.3
 20
4.3177227357
 11
10.308493953
 21
4.5939944123
  0
LINE
  5
579
100
AcDbEntity
  8
0
100
AcDbLine
 62
250
  6
CONTINUOUS
 10
-2.3428571269
 20
-17.8
 11
-2.7
 21
-18.1571428359
  0
LINE
  5
57A
100
AcDbEntity
  8
0
100
AcDbLine
 62
7
  6
CONTINUOUS
 10
15.6830216186
 20
9.9685061658
 11
15.9592772643
 21
9.977
  0
LWPOLYLINE
  5
57B
100
AcDbEntity
  8
0
100
AcDbPolyline
 62
250
  6
CONTINUOUS
 90
6
 70
0
 10
-3.9286063574
 20
9.2528348564
 10
-3.9532472227
 20
9.2523785649
 10
-3.9732305293
 20
9.2518500947
 10
-3.9879517116
 20
9.2512655027
 10
-3.9969652999
 20
9.2506425738
 10
-4.0
 20
9.2500002292
  0
LWPOLYLINE
  5
57C
100
AcDbEntity
  8
ASSI
100
AcDbPolyline
 62
250
  6
CONTINUOUS
 90
6
 70
0
 10
-3.9286063574
 20
9.2528348564
 10
-3.9532472227
 20
9.2523785649
 10
-3.9732305293
 20
9.2518500947
 10
-3.9879517116
 20
9.2512655027
 10
-3.9969652999
 20
9.2506425738
 10
-4.0
 20
9.2500002292
  0
LINE
  5
57D
100
AcDbEntity
  8
0
100
AcDbLine
 62
250
  6
CONTINUOUS
 10
18.13155104
 20
9.2534780106
 11
18.0713936426
 21
9.2528348564
  0
LINE
  5
57E
100
AcDbEntity
  8
ASSI
100
AcDbLine
 62
250
  6
CONTINUOUS
 10
18.13155104
 20
9.2534780106
 11
18.0713936426
 21
9.2528348564
  0
LINE
  5
57F
100
AcDbEntity
  8
0
100
AcDbLine
 62
250
  6
CONTINUOUS
 10
-3.86844896
 20
9.2534780106
 11
-3.9286063574
 21
9.2528348564
  0
LINE
  5
580
100
AcDbEntity
  8
ASSI
100
AcDbLine
 62
250
  6
CONTINUOUS
 10
-3.86844896
 20
9.2534780106
 11
-3.9286063574
 21
9.2528348564
  0
LINE
  5
581
100
AcDbEntity
  8
0
100
AcDbLine
 62
250
  6
CONTINUOUS
 10
18.2
 20
9.2537014821
 11
18.13155104
 21
9.2534780106
  0
LINE
  5
582
100
AcDbEntity
  8
ASSI
100
AcDbLine
 62
250
  6
CONTINUOUS
 10
18.2
 20
9.2537014821
 11
18.13155104
 21
9.2534780106
  0
LINE
  5
583
100
AcDbEntity
  8
0
100
AcDbLine
 62
250
  6
CONTINUOUS
 10
-3.8
 20
9.2537014821
 11
-3.86844896
 21
9.2534780106
  0
LINE
  5
584
100
AcDbEntity
  8
ASSI
100
AcDbLine
 62
250
  6
CONTINUOUS
 10
-3.8
 20
9.2537014821
 11
-3.86844896
 21
9.2534780106
  0
LINE
  5
585
100
AcDbEntity
  8
0
100
AcDbLine
 62
250
  6
CONTINUOUS
 10
-22.3600483307
 20
8.9809522629
 11
-22.3827330035
 21
8.9809522629
  0
LINE
  5
586
100
AcDbEntity
  8
0
100
AcDbLine
 62
250
  6
CONTINUOUS
 10
-6.25
 20
9.277
 11
-6.5
 21
9.277
  0
LINE
  5
587
100
AcDbEntity
  8
0
100
AcDbLine
 62
250
  6
CONTINUOUS
 10
-22.3600483307
 20
9.6309522629
 11
-22.3827330035
 21
9.6309522629
  0
LINE
  5
588
100
AcDbEntity
  8
0
100
AcDbLine
 62
7
  6
CONTINUOUS
 10
16.2132176686
 20
9.9770002307
 11
15.9592772643
 21
9.977
  0
LINE
  5
589
100
AcDbEntity
  8
0
100
AcDbLine
 62
7
  6
CONTINUOUS
 10
6.0407227357
 20
9.977
 11
5.7867860201
 21
9.977
  0
LINE
  5
58A
100
AcDbEntity
  8
0
100
AcDbLine
 62
250
  6
CONTINUOUS
 10
-22.3600483307
 20
10.0023806572
 11
-22.3794923358
 21
10.0023806572
  0
LINE
  5
58B
100
AcDbEntity
  8
0
100
AcDbLine
 62
250
  6
CONTINUOUS
 10
-22.3794923358
 20
10.6523806572
 11
-22.3600483307
 21
10.6523806572
  0
LINE
  5
58C
100
AcDbEntity
  8
0
100
AcDbLine
 62
250
  6
CONTINUOUS
 10
-18.2
 20
9.2537014791
 11
-18.1315510837
 21
9.2534778934
  0
LINE
  5
58D
100
AcDbEntity
  8
ASSI
100
AcDbLine
 62
250
  6
CONTINUOUS
 10
-18.2
 20
9.2537014791
 11
-18.1315510837
 21
9.2534778934
  0
LINE
  5
58E
100
AcDbEntity
  8
0
100
AcDbLine
 62
250
  6
CONTINUOUS
 10
3.8
 20
9.2537014791
 11
3.8684489163
 21
9.2534778934
  0
LINE
  5
58F
100
AcDbEntity
  8
ASSI
100
AcDbLine
 62
250
  6
CONTINUOUS
 10
3.8
 20
9.2537014791
 11
3.8684489163
 21
9.2534778934
  0
LWPOLYLINE
  5
590
100
AcDbEntity
  8
0
100
AcDbPolyline
 62
250
  6
CONTINUOUS
 90
7
 70
0
 10
-18.1315510837
 20
9.2534778934
 10
-18.0713936902
 20
9.2528346262
 10
-18.0467528148
 20
9.252378278
 10
-18.0267694957
 20
9.2518497564
 10
-18.0120483014
 20
9.2512651197
 10
-18.0030347038
 20
9.2506421509
 10
-18.0
 20
9.2499997711
  0
LWPOLYLINE
  5
591
100
AcDbEntity
  8
ASSI
100
AcDbPolyline
 62
250
  6
CONTINUOUS
 90
7
 70
0
 10
-18.1315510837
 20
9.2534778934
 10
-18.0713936902
 20
9.2528346262
 10
-18.0467528148
 20
9.252378278
 10
-18.0267694957
 20
9.2518497564
 10
-18.0120483014
 20
9.2512651197
 10
-18.0030347038
 20
9.2506421509
 10
-18.0
 20
9.2499997711
  0
LWPOLYLINE
  5
592
100
AcDbEntity
  8
0
100
AcDbPolyline
 62
250
  6
CONTINUOUS
 90
7
 70
0
 10
3.8684489163
 20
9.2534778934
 10
3.9286063098
 20
9.2528346262
 10
3.9532471852
 20
9.252378278
 10
3.9732305043
 20
9.2518497564
 10
3.9879516986
 20
9.2512651197
 10
3.9969652962
 20
9.2506421509
 10
4.0
 20
9.2499997711
  0
LWPOLYLINE
  5
593
100
AcDbEntity
  8
ASSI
100
AcDbPolyline
 62
250
  6
CONTINUOUS
 90
7
 70
0
 10
3.8684489163
 20
9.2534778934
 10
3.9286063098
 20
9.2528346262
 10
3.9532471852
 20
9.252378278
 10
3.9732305043
 20
9.2518497564
 10
3.9879516986
 20
9.2512651197
 10
3.9969652962
 20
9.2506421509
 10
4.0
 20
9.2499997711
  0
LINE
  5
594
100
AcDbEntity
  8
0
100
AcDbLine
 62
7
  6
CONTINUOUS
 10
15.9592772643
 20
8.577
 11
15.6830216186
 21
8.5854938342
  0
LINE
  5
595
100
AcDbEntity
  8
0
100
AcDbLine
 62
7
  6
CONTINUOUS
 10
6.0407227357
 20
9.977
 11
6.3169783814
 21
9.9685061658
  0
LINE
  5
596
100
AcDbEntity
  8
0
100
AcDbLine
 62
250
  6
CONTINUOUS
 10
12.1
 20
-1.4285714179
 11
11.3857143283
 21
0.0
  0
LINE
  5
597
100
AcDbEntity
  8
0
100
AcDbLine
 62
7
  6
CONTINUOUS
 10
11.691506047
 20
4.5939944123
 11
11.7
 21
4.3177227357
  0
LINE
  5
598
100
AcDbEntity
  8
0
100
AcDbLine
 62
250
  6
CONTINUOUS
 10
11.3857143283
 20
-0.0
 11
11.3857143283
 21
-2.5000000047
  0
LINE
  5
599
100
AcDbEntity
  8
0
100
AcDbLine
 62
7
  6
CONTINUOUS
 10
11.7000000016
 20
4.0637864065
 11
11.7
 21
4.3177227357
  0
LINE
  5
59A
100
AcDbEntity
  8
0
100
AcDbLine
 62
7
  6
CONTINUOUS
 10
11.7
 20
14.2362772643
 11
11.7000000016
 21
14.4902135935
  0
LINE
  5
59B
100
AcDbEntity
  8
0
100
AcDbLine
 62
250
  6
CONTINUOUS
 10
12.8142856717
 20
-2.5
 11
12.8142856717
 21
0.0000000047
  0
LINE
  5
59C
100
AcDbEntity
  8
0
100
AcDbLine
 62
7
  6
CONTINUOUS
 10
11.7
 20
14.2362772643
 11
11.691506047
 21
13.9600055877
  0
LINE
  5
59D
100
AcDbEntity
  8
0
100
AcDbLine
 62
250
  6
CONTINUOUS
 10
12.8142856717
 20
-0.0
 11
12.1
 21
-1.4285714179
  0
LINE
  5
59E
100
AcDbEntity
  8
0
100
AcDbLine
 62
250
  6
CONTINUOUS
 10
-1.45
 20
-19.9428571269
 11
-1.8071428359
 21
-20.3
  0
LINE
  5
59F
100
AcDbEntity
  8
0
100
AcDbLine
 62
250
  6
CONTINUOUS
 10
-22.3443435572
 20
11.2714283943
 11
-22.3216588843
 21
11.2714283943
  0
LINE
  5
5A0
100
AcDbEntity
  8
0
100
AcDbLine
 62
250
  6
CONTINUOUS
 10
-22.3600483307
 20
11.3952380657
 11
-22.3827330035
 21
11.3952380657
  0
LINE
  5
5A1
100
AcDbEntity
  8
0
100
AcDbLine
 62
250
  6
CONTINUOUS
 10
-22.3216588843
 20
11.9214283943
 11
-22.3443435572
 21
11.9214283943
  0
LINE
  5
5A2
100
AcDbEntity
  8
0
100
AcDbLine
 62
250
  6
CONTINUOUS
 10
-22.3443435572
 20
12.2928574085
 11
-22.3216588843
 21
12.2928574085
  0
LINE
  5
5A3
100
AcDbEntity
  8
CURVE
100
AcDbLine
 62
250
  6
CONTINUOUS
 10
-22.3039846907
 20
12.9455347068
 11
-22.2896452743
 21
12.9455347068
  0
LINE
  5
5A4
100
AcDbEntity
  8
CURVE
100
AcDbLine
 62
250
  6
CONTINUOUS
 10
-22.2836442998
 20
12.9600685904
 11
-22.2735855236
 21
12.9600685904
  0
LINE
  5
5A5
100
AcDbEntity
  8
0
100
AcDbLine
 62
250
  6
CONTINUOUS
 10
-22.3216588843
 20
13.0357141972
 11
-22.3443435572
 21
13.0357141972
  0
LINE
  5
5A6
100
AcDbEntity
  8
0
100
AcDbLine
 62
250
  6
CONTINUOUS
 10
-22.3600483307
 20
13.1595238686
 11
-22.3827330035
 21
13.1595238686
  0
LINE
  5
5A7
100
AcDbEntity
  8
DRAFT
100
AcDbLine
 62
7
  6
CONTINUOUS
 10
14.25
 20
23.5
 11
14.25
 21
22.4
  0
LINE
  5
5A8
100
AcDbEntity
  8
ASSI
100
AcDbLine
 62
7
  6
CONTINUOUS
 10
14.25
 20
23.5
 11
14.25
 21
22.4
  0
LINE
  5
5A9
100
AcDbEntity
  8
DRAFT
100
AcDbLine
 62
7
  6
CONTINUOUS
 10
14.25
 20
-22.4
 11
14.25
 21
-23.5
  0
LINE
  5
5AA
100
AcDbEntity
  8
ASSI
100
AcDbLine
 62
7
  6
CONTINUOUS
 10
14.25
 20
-22.4
 11
14.25
 21
-23.5
  0
LINE
  5
5AB
100
AcDbEntity
  8
RACCORDO
100
AcDbLine
 62
250
  6
CONTINUOUS
 10
21.9003805997
 20
22.4
 11
21.7587981167
 21
21.9749071372
  0
LINE
  5
5AC
100
AcDbEntity
  8
0
100
AcDbLine
 62
250
  6
CONTINUOUS
 10
21.9003805997
 20
22.4
 11
21.7587981167
 21
21.9749071372
  0
LINE
  5
5AD
100
AcDbEntity
  8
ASSI
100
AcDbLine
 62
250
  6
CONTINUOUS
 10
21.9003805997
 20
22.4
 11
21.7587981167
 21
21.9749071372
  0
LINE
  5
5AE
100
AcDbEntity
  8
RACCORDO
100
AcDbLine
 62
250
  6
CONTINUOUS
 10
22.4
 20
21.8997711479
 11
22.2587219643
 21
21.4755923698
  0
LINE
  5
5AF
100
AcDbEntity
  8
0
100
AcDbLine
 62
250
  6
CONTINUOUS
 10
22.4
 20
21.8997711479
 11
22.2587219643
 21
21.4755923698
  0
LINE
  5
5B0
100
AcDbEntity
  8
ASSI
100
AcDbLine
 62
250
  6
CONTINUOUS
 10
22.4
 20
21.8997711479
 11
22.2587219643
 21
21.4755923698
  0
LINE
  5
5B1
100
AcDbEntity
  8
CURVE
100
AcDbLine
 62
250
  6
CONTINUOUS
 10
-22.2677713927
 20
13.3820865903
 11
-22.3039846907
 21
13.3820865903
  0
LINE
  5
5B2
100
AcDbEntity
  8
0
100
AcDbLine
 62
250
  6
CONTINUOUS
 10
-22.3600483307
 20
13.8095238686
 11
-22.3827330035
 21
13.8095238686
  0
LINE
  5
5B3
100
AcDbEntity
  8
0
100
AcDbLine
 62
250
  6
CONTINUOUS
 10
-22.3600483307
 20
14.3976193428
 11
-22.3827330035
 21
14.3976193428
  0
LINE
  5
5B4
100
AcDbEntity
  8
0
100
AcDbLine
 62
250
  6
CONTINUOUS
 10
-22.3378622218
 20
14.4285716057
 11
-22.328140219
 21
14.4285716057
  0
LINE
  5
5B5
100
AcDbEntity
  8
0
100
AcDbLine
 62
250
  6
CONTINUOUS
 10
-22.328140219
 20
15.0785712957
 11
-22.3378622218
 21
15.0785712957
  0
LINE
  5
5B6
100
AcDbEntity
  8
RACCORDO
100
AcDbLine
 62
250
  6
CONTINUOUS
 10
21.7587981167
 20
-21.9749071372
 11
21.9003805997
 21
-22.4
  0
LINE
  5
5B7
100
AcDbEntity
  8
0
100
AcDbLine
 62
250
  6
CONTINUOUS
 10
21.7587981167
 20
-21.9749071372
 11
21.9003805997
 21
-22.4
  0
LINE
  5
5B8
100
AcDbEntity
  8
ASSI
100
AcDbLine
 62
250
  6
CONTINUOUS
 10
21.7587981167
 20
-21.9749071372
 11
21.9003805997
 21
-22.4
  0
LINE
  5
5B9
100
AcDbEntity
  8
RACCORDO
100
AcDbLine
 62
250
  6
CONTINUOUS
 10
22.2587219643
 20
-21.4755923698
 11
22.4
 21
-21.8997711479
  0
LINE
  5
5BA
100
AcDbEntity
  8
0
100
AcDbLine
 62
250
  6
CONTINUOUS
 10
22.2587219643
 20
-21.4755923698
 11
22.4
 21
-21.8997711479
  0
LINE
  5
5BB
100
AcDbEntity
  8
ASSI
100
AcDbLine
 62
250
  6
CONTINUOUS
 10
22.2587219643
 20
-21.4755923698
 11
22.4
 21
-21.8997711479
  0
LWPOLYLINE
  5
5BC
100
AcDbEntity
  8
0
100
AcDbPolyline
 62
250
  6
CONTINUOUS
 90
49
 70
0
 10
18.1903228376
 20
8.8805024583
 10
18.161546038
 20
8.5098132154
 10
18.1136696012
 20
8.141634053
 10
18.0485560774
 20
7.7789063845
 10
17.9643429164
 20
7.4186894368
 10
17.855442467
 20
7.0521599278
 10
17.7221493494
 20
6.6748487379
 10
17.5641689435
 20
6.2912249081
 10
17.3750297372
 20
5.9058722694
 10
17.154471968
 20
5.5172907821
 10
16.9027553985
 20
5.1269808275
 10
16.6141878055
 20
4.7440272395
 10
16.2894445697
 20
4.3677618552
 10
15.9278503104
 20
3.9988535841
 10
15.5216866627
 20
3.6483932566
 10
15.0659225027
 20
3.3128090197
 10
14.5655889543
 20
2.9956735706
 10
14.0280610243
 20
2.7187949304
 10
13.4449897089
 20
2.4844177652
 10
12.8247240118
 20
2.2902982396
 10
12.1996859516
 20
2.1515117888
 10
11.5709877443
 20
2.0758443224
 10
10.9375171737
 20
2.0555102726
 10
10.3283596107
 20
2.0822277834
 10
9.7495921628
 20
2.1592765591
 10
9.1951377224
 20
2.2833767658
 10
8.6758503373
 20
2.4364071994
 10
8.1963750471
 20
2.6168582689
 10
7.7520668121
 20
2.8262392471
 10
7.3398445618
 20
3.0509573102
 10
6.9611018936
 20
3.2883929033
 10
6.61444521
 20
3.5411652365
 10
6.2926126472
 20
3.8035397427
 10
5.9952058139
 20
4.0735899469
 10
5.7226231015
 20
4.3532419548
 10
5.4687978205
 20
4.642540098
 10
5.2317776937
 20
4.942577299
 10
5.0135149983
 20
5.2522601009
 10
4.813799876
 20
5.5683532899
 10
4.6324037404
 20
5.8920634409
 10
4.469555178
 20
6.2221834252
 10
4.3257300902
 20
6.551857671
 10
4.2017566614
 20
6.8809668145
 10
4.0968067072
 20
7.2096299586
 10
4.0088715763
 20
7.5313495772
 10
3.9385615246
 20
7.8457808675
 10
3.885266296
 20
8.15326878
 10
3.8451464713
 20
8.4483507786
 10
3.8169222438
 20
8.7292062672
  0
LWPOLYLINE
  5
5BD
100
AcDbEntity
  8
ASSI
100
AcDbPolyline
 62
250
  6
CONTINUOUS
 90
49
 70
0
 10
18.1903228376
 20
8.8805024583
 10
18.161546038
 20
8.5098132154
 10
18.1136696012
 20
8.141634053
 10
18.0485560774
 20
7.7789063845
 10
17.9643429164
 20
7.4186894368
 10
17.855442467
 20
7.0521599278
 10
17.7221493494
 20
6.6748487379
 10
17.5641689435
 20
6.2912249081
 10
17.3750297372
 20
5.9058722694
 10
17.154471968
 20
5.5172907821
 10
16.9027553985
 20
5.1269808275
 10
16.6141878055
 20
4.7440272395
 10
16.2894445697
 20
4.3677618552
 10
15.9278503104
 20
3.9988535841
 10
15.5216866627
 20
3.6483932566
 10
15.0659225027
 20
3.3128090197
 10
14.5655889543
 20
2.9956735706
 10
14.0280610243
 20
2.7187949304
 10
13.4449897089
 20
2.4844177652
 10
12.8247240118
 20
2.2902982396
 10
12.1996859516
 20
2.1515117888
 10
11.5709877443
 20
2.0758443224
 10
10.9375171737
 20
2.0555102726
 10
10.3283596107
 20
2.0822277834
 10
9.7495921628
 20
2.1592765591
 10
9.1951377224
 20
2.2833767658
 10
8.6758503373
 20
2.4364071994
 10
8.1963750471
 20
2.6168582689
 10
7.7520668121
 20
2.8262392471
 10
7.3398445618
 20
3.0509573102
 10
6.9611018936
 20
3.2883929033
 10
6.61444521
 20
3.5411652365
 10
6.2926126472
 20
3.8035397427
 10
5.9952058139
 20
4.0735899469
 10
5.7226231015
 20
4.3532419548
 10
5.4687978205
 20
4.642540098
 10
5.2317776937
 20
4.942577299
 10
5.0135149983
 20
5.2522601009
 10
4.813799876
 20
5.5683532899
 10
4.6324037404
 20
5.8920634409
 10
4.469555178
 20
6.2221834252
 10
4.3257300902
 20
6.551857671
 10
4.2017566614
 20
6.8809668145
 10
4.0968067072
 20
7.2096299586
 10
4.0088715763
 20
7.5313495772
 10
3.9385615246
 20
7.8457808675
 10
3.885266296
 20
8.15326878
 10
3.8451464713
 20
8.4483507786
 10
3.8169222438
 20
8.7292062672
  0
LWPOLYLINE
  5
5BE
100
AcDbEntity
  8
CURVE
100
AcDbPolyline
 62
250
  6
CONTINUOUS
 90
15
 70
0
 10
-22.2779502433
 20
12.3690922255
 10
-22.2781089983
 20
12.3690638198
 10
-22.2782689584
 20
12.3692586846
 10
-22.2784299041
 20
12.3696775888
 10
-22.2785916156
 20
12.3703213011
 10
-22.2787538732
 20
12.3711905903
 10
-22.2789164571
 20
12.3722862253
 10
-22.2790791476
 20
12.3736089748
 10
-22.279241725
 20
12.3751596076
 10
-22.2794039696
 20
12.3769388925
 10
-22.2795656617
 20
12.3789475983
 10
-22.2797265814
 20
12.3811864938
 10
-22.2798865092
 20
12.3836563478
 10
-22.2800452253
 20
12.3863579291
 10
-22.28020251
 20
12.3892920065
  0
LINE
  5
5BF
100
AcDbEntity
  8
0
100
AcDbLine
 62
250
  6
CONTINUOUS
 10
-22.3378622218
 20
15.45
 11
-22.328140219
 21
15.45
  0
LINE
  5
5C0
100
AcDbEntity
  8
0
100
AcDbLine
 62
250
  6
CONTINUOUS
 10
-22.328140219
 20
16.1
 11
-22.3378622218
 21
16.1
  0
LINE
  5
5C1
100
AcDbEntity
  8
0
100
AcDbLine
 62
250
  6
CONTINUOUS
 10
-22.3600483307
 20
16.5952380657
 11
-22.3827330035
 21
16.5952380657
  0
LINE
  5
5C2
100
AcDbEntity
  8
0
100
AcDbLine
 62
250
  6
CONTINUOUS
 10
-22.3330012207
 20
16.6880951643
 11
-22.3443435572
 21
16.6880951643
  0
LINE
  5
5C3
100
AcDbEntity
  8
0
100
AcDbLine
 62
250
  6
CONTINUOUS
 10
-22.3794923358
 20
17.1214287043
 11
-22.363288998
 21
17.1214287043
  0
LINE
  5
5C4
100
AcDbEntity
  8
0
100
AcDbLine
 62
250
  6
CONTINUOUS
 10
-22.3248995517
 20
17.4928570986
 11
-22.328140219
 21
17.4928570986
  0
LWPOLYLINE
  5
5C5
100
AcDbEntity
  8
0
100
AcDbPolyline
 62
7
  6
CONTINUOUS
 90
10
 70
0
 43
0.3500000006
 10
0.9642857051
 20
32.7500006104
 10
1.035714268
 20
32.6071427765
 10
1.035714268
 20
32.5357161255
 10
0.8928571422
 20
32.3928582916
 10
0.8214285793
 20
32.3928582916
 10
0.7500000165
 20
32.4642849426
 10
0.7500000165
 20
32.5357161255
 10
0.8214285793
 20
32.6785694275
 10
0.8928571422
 20
32.7500006104
 10
0.9642857051
 20
32.7500006104
  0
LWPOLYLINE
  5
5C6
100
AcDbEntity
  8
0
100
AcDbPolyline
 62
250
  6
CONTINUOUS
 90
3
 70
0
 10
18.1832444695
 20
9.7758247541
 10
18.1981621833
 20
9.508542673
 10
18.2
 20
9.2537014806
  0
LWPOLYLINE
  5
5C7
100
AcDbEntity
  8
ASSI
100
AcDbPolyline
 62
250
  6
CONTINUOUS
 90
3
 70
0
 10
18.1832444695
 20
9.7758247541
 10
18.1981621833
 20
9.508542673
 10
18.2
 20
9.2537014806
  0
LINE
  5
5C8
100
AcDbEntity
  8
0
100
AcDbLine
 62
250
  6
CONTINUOUS
 10
18.2
 20
9.2537014806
 11
18.1903228376
 21
8.8805024583
  0
LINE
  5
5C9
100
AcDbEntity
  8
ASSI
100
AcDbLine
 62
250
  6
CONTINUOUS
 10
18.2
 20
9.2537014806
 11
18.1903228376
 21
8.8805024583
  0
LWPOLYLINE
  5
5CA
100
AcDbEntity
  8
RACCORDO
100
AcDbPolyline
 62
250
  6
CONTINUOUS
 90
6
 70
0
 10
21.7587981167
 20
21.9749071372
 10
21.7580778269
 20
21.9672621499
 10
21.7573747238
 20
21.952953371
 10
21.7566888073
 20
21.9320760821
 10
21.7560157159
 20
21.9047687004
 10
21.7547341778
 20
21.8316431047
  0
LWPOLYLINE
  5
5CB
100
AcDbEntity
  8
0
100
AcDbPolyline
 62
250
  6
CONTINUOUS
 90
6
 70
0
 10
21.7587981167
 20
21.9749071372
 10
21.7580778269
 20
21.9672621499
 10
21.7573747238
 20
21.952953371
 10
21.7566888073
 20
21.9320760821
 10
21.7560157159
 20
21.9047687004
 10
21.7547341778
 20
21.8316431047
  0
LWPOLYLINE
  5
5CC
100
AcDbEntity
  8
ASSI
100
AcDbPolyline
 62
250
  6
CONTINUOUS
 90
6
 70
0
 10
21.7587981167
 20
21.9749071372
 10
21.7580778269
 20
21.9672621499
 10
21.7573747238
 20
21.952953371
 10
21.7566888073
 20
21.9320760821
 10
21.7560157159
 20
21.9047687004
 10
21.7547341778
 20
21.8316431047
  0
LWPOLYLINE
  5
5CD
100
AcDbEntity
  8
RACCORDO
100
AcDbPolyline
 62
250
  6
CONTINUOUS
 90
8
 70
0
 10
22.2587219643
 20
21.4755923698
 10
22.2580045641
 20
21.4716950654
 10
22.2573035089
 20
21.4645922224
 10
22.2566187988
 20
21.4542838406
 10
22.2559457953
 20
21.4406561355
 10
22.2552891369
 20
21.4238228918
 10
22.2546627389
 20
21.4041254635
 10
22.2535024636
 20
21.3560260412
  0
LWPOLYLINE
  5
5CE
100
AcDbEntity
  8
0
100
AcDbPolyline
 62
250
  6
CONTINUOUS
 90
8
 70
0
 10
22.2587219643
 20
21.4755923698
 10
22.2580045641
 20
21.4716950654
 10
22.2573035089
 20
21.4645922224
 10
22.2566187988
 20
21.4542838406
 10
22.2559457953
 20
21.4406561355
 10
22.2552891369
 20
21.4238228918
 10
22.2546627389
 20
21.4041254635
 10
22.2535024636
 20
21.3560260412
  0
LWPOLYLINE
  5
5CF
100
AcDbEntity
  8
ASSI
100
AcDbPolyline
 62
250
  6
CONTINUOUS
 90
8
 70
0
 10
22.2587219643
 20
21.4755923698
 10
22.2580045641
 20
21.4716950654
 10
22.2573035089
 20
21.4645922224
 10
22.2566187988
 20
21.4542838406
 10
22.2559457953
 20
21.4406561355
 10
22.2552891369
 20
21.4238228918
 10
22.2546627389
 20
21.4041254635
 10
22.2535024636
 20
21.3560260412
  0
LINE
  5
5D0
100
AcDbEntity
  8
CURVE
100
AcDbLine
 62
250
  6
CONTINUOUS
 10
-22.3039846838
 20
17.672102
 11
-22.2673411022
 21
17.672102
  0
LINE
  5
5D1
100
AcDbEntity
  8
0
100
AcDbLine
 62
250
  6
CONTINUOUS
 10
-22.3600483307
 20
17.7714285493
 11
-22.3827330035
 21
17.7714285493
  0
LINE
  5
5D2
100
AcDbEntity
  8
CURVE
100
AcDbLine
 62
250
  6
CONTINUOUS
 10
-22.2673411022
 20
18.110417
 11
-22.3039846838
 21
18.110417
  0
LINE
  5
5D3
100
AcDbEntity
  8
0
100
AcDbLine
 62
250
  6
CONTINUOUS
 10
-22.3827330035
 20
19.2571428239
 11
-22.3600483307
 21
19.2571428239
  0
LINE
  5
5D4
100
AcDbEntity
  8
0
100
AcDbLine
 62
250
  6
CONTINUOUS
 10
-22.3346215544
 20
19.4428571373
 11
-22.3411028895
 21
19.4428571373
  0
LWPOLYLINE
  5
5D5
100
AcDbEntity
  8
RACCORDO
100
AcDbPolyline
 62
250
  6
CONTINUOUS
 90
7
 70
0
 10
22.2546627389
 20
-21.4041254633
 10
22.2552891369
 20
-21.4238228917
 10
22.2559457953
 20
-21.4406561357
 10
22.2566187988
 20
-21.4542838409
 10
22.2573035089
 20
-21.4645922227
 10
22.2580045641
 20
-21.4716950656
 10
22.2587219643
 20
-21.4755923698
  0
LWPOLYLINE
  5
5D6
100
AcDbEntity
  8
0
100
AcDbPolyline
 62
250
  6
CONTINUOUS
 90
7
 70
0
 10
22.2546627389
 20
-21.4041254633
 10
22.2552891369
 20
-21.4238228917
 10
22.2559457953
 20
-21.4406561357
 10
22.2566187988
 20
-21.4542838409
 10
22.2573035089
 20
-21.4645922227
 10
22.2580045641
 20
-21.4716950656
 10
22.2587219643
 20
-21.4755923698
  0
LWPOLYLINE
  5
5D7
100
AcDbEntity
  8
ASSI
100
AcDbPolyline
 62
250
  6
CONTINUOUS
 90
7
 70
0
 10
22.2546627389
 20
-21.4041254633
 10
22.2552891369
 20
-21.4238228917
 10
22.2559457953
 20
-21.4406561357
 10
22.2566187988
 20
-21.4542838409
 10
22.2573035089
 20
-21.4645922227
 10
22.2580045641
 20
-21.4716950656
 10
22.2587219643
 20
-21.4755923698
  0
LWPOLYLINE
  5
5D8
100
AcDbEntity
  8
RACCORDO
100
AcDbPolyline
 62
250
  6
CONTINUOUS
 90
5
 70
0
 10
21.7560157159
 20
-21.9047687004
 10
21.7566888073
 20
-21.9320760821
 10
21.7573747238
 20
-21.952953371
 10
21.7580778269
 20
-21.9672621499
 10
21.7587981167
 20
-21.9749071372
  0
LWPOLYLINE
  5
5D9
100
AcDbEntity
  8
0
100
AcDbPolyline
 62
250
  6
CONTINUOUS
 90
5
 70
0
 10
21.7560157159
 20
-21.9047687004
 10
21.7566888073
 20
-21.9320760821
 10
21.7573747238
 20
-21.952953371
 10
21.7580778269
 20
-21.9672621499
 10
21.7587981167
 20
-21.9749071372
  0
LWPOLYLINE
  5
5DA
100
AcDbEntity
  8
ASSI
100
AcDbPolyline
 62
250
  6
CONTINUOUS
 90
5
 70
0
 10
21.7560157159
 20
-21.9047687004
 10
21.7566888073
 20
-21.9320760821
 10
21.7573747238
 20
-21.952953371
 10
21.7580778269
 20
-21.9672621499
 10
21.7587981167
 20
-21.9749071372
  0
LINE
  5
5DB
100
AcDbEntity
  8
RACCORDO
100
AcDbLine
 62
250
  6
CONTINUOUS
 10
22.2535024636
 20
-21.3560260411
 11
22.2546627389
 21
-21.4041254633
  0
LINE
  5
5DC
100
AcDbEntity
  8
0
100
AcDbLine
 62
250
  6
CONTINUOUS
 10
22.2535024636
 20
-21.3560260411
 11
22.2546627389
 21
-21.4041254633
  0
LINE
  5
5DD
100
AcDbEntity
  8
ASSI
100
AcDbLine
 62
250
  6
CONTINUOUS
 10
22.2535024636
 20
-21.3560260411
 11
22.2546627389
 21
-21.4041254633
  0
LINE
  5
5DE
100
AcDbEntity
  8
RACCORDO
100
AcDbLine
 62
250
  6
CONTINUOUS
 10
22.2524980441
 20
-21.2979562724
 11
22.2535024636
 21
-21.3560260411
  0
LINE
  5
5DF
100
AcDbEntity
  8
0
100
AcDbLine
 62
250
  6
CONTINUOUS
 10
22.2524980441
 20
-21.2979562724
 11
22.2535024636
 21
-21.3560260411
  0
LINE
  5
5E0
100
AcDbEntity
  8
ASSI
100
AcDbLine
 62
250
  6
CONTINUOUS
 10
22.2524980441
 20
-21.2979562724
 11
22.2535024636
 21
-21.3560260411
  0
LINE
  5
5E1
100
AcDbEntity
  8
RACCORDO
100
AcDbLine
 62
250
  6
CONTINUOUS
 10
21.7547341778
 20
-21.8316431047
 11
21.7560157159
 21
-21.9047687004
  0
LINE
  5
5E2
100
AcDbEntity
  8
0
100
AcDbLine
 62
250
  6
CONTINUOUS
 10
21.7547341778
 20
-21.8316431047
 11
21.7560157159
 21
-21.9047687004
  0
LINE
  5
5E3
100
AcDbEntity
  8
ASSI
100
AcDbLine
 62
250
  6
CONTINUOUS
 10
21.7547341778
 20
-21.8316431047
 11
21.7560157159
 21
-21.9047687004
  0
LINE
  5
5E4
100
AcDbEntity
  8
RACCORDO
100
AcDbLine
 62
250
  6
CONTINUOUS
 10
21.7530519894
 20
-21.6796926689
 11
21.7547341778
 21
-21.8316431047
  0
LINE
  5
5E5
100
AcDbEntity
  8
0
100
AcDbLine
 62
250
  6
CONTINUOUS
 10
21.7530519894
 20
-21.6796926689
 11
21.7547341778
 21
-21.8316431047
  0
LINE
  5
5E6
100
AcDbEntity
  8
ASSI
100
AcDbLine
 62
250
  6
CONTINUOUS
 10
21.7530519894
 20
-21.6796926689
 11
21.7547341778
 21
-21.8316431047
  0
LINE
  5
5E7
100
AcDbEntity
  8
RACCORDO
100
AcDbLine
 62
250
  6
CONTINUOUS
 10
21.7511186535
 20
-21.3380089963
 11
21.7530519894
 21
-21.6796926689
  0
LINE
  5
5E8
100
AcDbEntity
  8
0
100
AcDbLine
 62
250
  6
CONTINUOUS
 10
21.7511186535
 20
-21.3380089963
 11
21.7530519894
 21
-21.6796926689
  0
LINE
  5
5E9
100
AcDbEntity
  8
ASSI
100
AcDbLine
 62
250
  6
CONTINUOUS
 10
21.7511186535
 20
-21.3380089963
 11
21.7530519894
 21
-21.6796926689
  0
LINE
  5
5EA
100
AcDbEntity
  8
RACCORDO
100
AcDbLine
 62
250
  6
CONTINUOUS
 10
21.7452069841
 20
-11.6792204157
 11
21.7511186535
 21
-21.3380089963
  0
LINE
  5
5EB
100
AcDbEntity
  8
0
100
AcDbLine
 62
250
  6
CONTINUOUS
 10
21.7452069841
 20
-11.6792204157
 11
21.7511186535
 21
-21.3380089963
  0
LINE
  5
5EC
100
AcDbEntity
  8
ASSI
100
AcDbLine
 62
250
  6
CONTINUOUS
 10
21.7452069841
 20
-11.6792204157
 11
21.7511186535
 21
-21.3380089963
  0
LINE
  5
5ED
100
AcDbEntity
  8
RACCORDO
100
AcDbLine
 62
250
  6
CONTINUOUS
 10
21.7429235215
 20
2.3360479917
 11
21.7452069841
 21
-11.6792204157
  0
LINE
  5
5EE
100
AcDbEntity
  8
0
100
AcDbLine
 62
250
  6
CONTINUOUS
 10
21.7429235215
 20
2.3360479917
 11
21.7452069841
 21
-11.6792204157
  0
LINE
  5
5EF
100
AcDbEntity
  8
ASSI
100
AcDbLine
 62
250
  6
CONTINUOUS
 10
21.7429235215
 20
2.3360479917
 11
21.7452069841
 21
-11.6792204157
  0
LINE
  5
5F0
100
AcDbEntity
  8
RACCORDO
100
AcDbLine
 62
250
  6
CONTINUOUS
 10
21.747490446
 20
16.349481053
 11
21.7429235215
 21
2.3360479917
  0
LINE
  5
5F1
100
AcDbEntity
  8
0
100
AcDbLine
 62
250
  6
CONTINUOUS
 10
21.747490446
 20
16.349481053
 11
21.7429235215
 21
2.3360479917
  0
LINE
  5
5F2
100
AcDbEntity
  8
ASSI
100
AcDbLine
 62
250
  6
CONTINUOUS
 10
21.747490446
 20
16.349481053
 11
21.7429235215
 21
2.3360479917
  0
LINE
  5
5F3
100
AcDbEntity
  8
RACCORDO
100
AcDbLine
 62
250
  6
CONTINUOUS
 10
21.7517441538
 20
21.4854586496
 11
21.747490446
 21
16.349481053
  0
LINE
  5
5F4
100
AcDbEntity
  8
0
100
AcDbLine
 62
250
  6
CONTINUOUS
 10
21.7517441538
 20
21.4854586496
 11
21.747490446
 21
16.349481053
  0
LINE
  5
5F5
100
AcDbEntity
  8
ASSI
100
AcDbLine
 62
250
  6
CONTINUOUS
 10
21.7517441538
 20
21.4854586496
 11
21.747490446
 21
16.349481053
  0
LINE
  5
5F6
100
AcDbEntity
  8
RACCORDO
100
AcDbLine
 62
250
  6
CONTINUOUS
 10
21.7535748986
 20
21.7355556626
 11
21.7517441538
 21
21.4854586496
  0
LINE
  5
5F7
100
AcDbEntity
  8
0
100
AcDbLine
 62
250
  6
CONTINUOUS
 10
21.7535748986
 20
21.7355556626
 11
21.7517441538
 21
21.4854586496
  0
LINE
  5
5F8
100
AcDbEntity
  8
ASSI
100
AcDbLine
 62
250
  6
CONTINUOUS
 10
21.7535748986
 20
21.7355556626
 11
21.7517441538
 21
21.4854586496
  0
LINE
  5
5F9
100
AcDbEntity
  8
RACCORDO
100
AcDbLine
 62
250
  6
CONTINUOUS
 10
21.7547341778
 20
21.8316431047
 11
21.7535748986
 21
21.7355556626
  0
LINE
  5
5FA
100
AcDbEntity
  8
0
100
AcDbLine
 62
250
  6
CONTINUOUS
 10
21.7547341778
 20
21.8316431047
 11
21.7535748986
 21
21.7355556626
  0
LINE
  5
5FB
100
AcDbEntity
  8
ASSI
100
AcDbLine
 62
250
  6
CONTINUOUS
 10
21.7547341778
 20
21.8316431047
 11
21.7535748986
 21
21.7355556626
  0
LINE
  5
5FC
100
AcDbEntity
  8
RACCORDO
100
AcDbLine
 62
250
  6
CONTINUOUS
 10
22.2535024636
 20
21.3560260412
 11
22.2524980441
 21
21.2979562723
  0
LINE
  5
5FD
100
AcDbEntity
  8
0
100
AcDbLine
 62
250
  6
CONTINUOUS
 10
22.2535024636
 20
21.3560260412
 11
22.2524980441
 21
21.2979562723
  0
LINE
  5
5FE
100
AcDbEntity
  8
ASSI
100
AcDbLine
 62
250
  6
CONTINUOUS
 10
22.2535024636
 20
21.3560260412
 11
22.2524980441
 21
21.2979562723
  0
LWPOLYLINE
  5
5FF
100
AcDbEntity
  8
RACCORDO
100
AcDbPolyline
 62
250
  6
CONTINUOUS
 90
12
 70
0
 10
-21.8150777102
 20
21.0180910648
 10
-21.8785403643
 20
21.0175199332
 10
-21.9398611031
 20
21.0166103926
 10
-21.9980138452
 20
21.0153776621
 10
-22.0520255197
 20
21.0138423692
 10
-22.100992348
 20
21.0120302041
 10
-22.1440949673
 20
21.00997149
 10
-22.1806121405
 20
21.0077006753
 10
-22.2099328249
 20
21.0052557576
 10
-22.231566397
 20
21.0026776477
 10
-22.2451508618
 20
21.0000094853
 10
-22.2504589101
 20
20.9972959167
  0
LWPOLYLINE
  5
600
100
AcDbEntity
  8
0
100
AcDbPolyline
 62
250
  6
CONTINUOUS
 90
12
 70
0
 10
-21.8150777102
 20
21.0180910648
 10
-21.8785403643
 20
21.0175199332
 10
-21.9398611031
 20
21.0166103926
 10
-21.9980138452
 20
21.0153776621
 10
-22.0520255197
 20
21.0138423692
 10
-22.100992348
 20
21.0120302041
 10
-22.1440949673
 20
21.00997149
 10
-22.1806121405
 20
21.0077006753
 10
-22.2099328249
 20
21.0052557576
 10
-22.231566397
 20
21.0026776477
 10
-22.2451508618
 20
21.0000094853
 10
-22.2504589101
 20
20.9972959167
  0
LWPOLYLINE
  5
601
100
AcDbEntity
  8
ASSI
100
AcDbPolyline
 62
250
  6
CONTINUOUS
 90
12
 70
0
 10
-21.8150777102
 20
21.0180910648
 10
-21.8785403643
 20
21.0175199332
 10
-21.9398611031
 20
21.0166103926
 10
-21.9980138452
 20
21.0153776621
 10
-22.0520255197
 20
21.0138423692
 10
-22.100992348
 20
21.0120302041
 10
-22.1440949673
 20
21.00997149
 10
-22.1806121405
 20
21.0077006753
 10
-22.2099328249
 20
21.0052557576
 10
-22.231566397
 20
21.0026776477
 10
-22.2451508618
 20
21.0000094853
 10
-22.2504589101
 20
20.9972959167
  0
LINE
  5
602
100
AcDbEntity
  8
0
100
AcDbLine
 62
250
  6
CONTINUOUS
 10
-22.3216588843
 20
20.0
 11
-22.3313808864
 21
20.0
  0
LINE
  5
603
100
AcDbEntity
  8
0
100
AcDbLine
 62
250
  6
CONTINUOUS
 10
-22.3600483307
 20
20.0
 11
-22.3827330035
 21
20.0
  0
LINE
  5
604
100
AcDbEntity
  8
RACCORDO
100
AcDbLine
 62
250
  6
CONTINUOUS
 10
-21.8150777102
 20
21.0180910648
 11
21.7505350625
 21
21.0183142309
  0
LINE
  5
605
100
AcDbEntity
  8
0
100
AcDbLine
 62
250
  6
CONTINUOUS
 10
-21.8150777102
 20
21.0180910648
 11
21.7505350625
 21
21.0183142309
  0
LINE
  5
606
100
AcDbEntity
  8
ASSI
100
AcDbLine
 62
250
  6
CONTINUOUS
 10
-21.8150777102
 20
21.0180910648
 11
21.7505350625
 21
21.0183142309
  0
LWPOLYLINE
  5
607
100
AcDbEntity
  8
RACCORDO
100
AcDbPolyline
 62
250
  6
CONTINUOUS
 90
13
 70
0
 10
22.2587219643
 20
21.4755923698
 10
22.2543906806
 20
21.5407265974
 10
22.2415898866
 20
21.6047480578
 10
22.2205382078
 20
21.666562619
 10
22.1915952759
 20
21.7251138473
 10
22.155255606
 20
21.7794010248
 10
22.1121401662
 20
21.8284962648
 10
22.0629857116
 20
21.8715604395
 10
22.0086322488
 20
21.9078574539
 10
21.9500087331
 20
21.9367668297
 10
21.8881170803
 20
21.9577943958
 10
21.8240150231
 20
21.9705807038
 10
21.7587981166
 20
21.974907137
  0
LWPOLYLINE
  5
608
100
AcDbEntity
  8
0
100
AcDbPolyline
 62
250
  6
CONTINUOUS
 90
13
 70
0
 10
22.2587219643
 20
21.4755923698
 10
22.2543906806
 20
21.5407265974
 10
22.2415898866
 20
21.6047480578
 10
22.2205382078
 20
21.666562619
 10
22.1915952759
 20
21.7251138473
 10
22.155255606
 20
21.7794010248
 10
22.1121401662
 20
21.8284962648
 10
22.0629857116
 20
21.8715604395
 10
22.0086322488
 20
21.9078574539
 10
21.9500087331
 20
21.9367668297
 10
21.8881170803
 20
21.9577943958
 10
21.8240150231
 20
21.9705807038
 10
21.7587981166
 20
21.974907137
  0
LWPOLYLINE
  5
609
100
AcDbEntity
  8
ASSI
100
AcDbPolyline
 62
250
  6
CONTINUOUS
 90
13
 70
0
 10
22.2587219643
 20
21.4755923698
 10
22.2543906806
 20
21.5407265974
 10
22.2415898866
 20
21.6047480578
 10
22.2205382078
 20
21.666562619
 10
22.1915952759
 20
21.7251138473
 10
22.155255606
 20
21.7794010248
 10
22.1121401662
 20
21.8284962648
 10
22.0629857116
 20
21.8715604395
 10
22.0086322488
 20
21.9078574539
 10
21.9500087331
 20
21.9367668297
 10
21.8881170803
 20
21.9577943958
 10
21.8240150231
 20
21.9705807038
 10
21.7587981166
 20
21.974907137
  0
LINE
  5
60A
100
AcDbEntity
  8
RACCORDO
100
AcDbLine
 62
250
  6
CONTINUOUS
 10
22.2513312402
 20
-21.1949860367
 11
22.2524980441
 21
-21.2979562724
  0
LINE
  5
60B
100
AcDbEntity
  8
0
100
AcDbLine
 62
250
  6
CONTINUOUS
 10
22.2513312402
 20
-21.1949860367
 11
22.2524980441
 21
-21.2979562724
  0
LINE
  5
60C
100
AcDbEntity
  8
ASSI
100
AcDbLine
 62
250
  6
CONTINUOUS
 10
22.2513312402
 20
-21.1949860367
 11
22.2524980441
 21
-21.2979562724
  0
LINE
  5
60D
100
AcDbEntity
  8
RACCORDO
100
AcDbLine
 62
250
  6
CONTINUOUS
 10
22.2506377707
 20
-21.0790132523
 11
22.2513312402
 21
-21.1949860367
  0
LINE
  5
60E
100
AcDbEntity
  8
0
100
AcDbLine
 62
250
  6
CONTINUOUS
 10
22.2506377707
 20
-21.0790132523
 11
22.2513312402
 21
-21.1949860367
  0
LINE
  5
60F
100
AcDbEntity
  8
ASSI
100
AcDbLine
 62
250
  6
CONTINUOUS
 10
22.2506377707
 20
-21.0790132523
 11
22.2513312402
 21
-21.1949860367
  0
LINE
  5
610
100
AcDbEntity
  8
RACCORDO
100
AcDbLine
 62
250
  6
CONTINUOUS
 10
22.2451308334
 20
-11.6670144863
 11
22.2506377707
 21
-21.0790132523
  0
LINE
  5
611
100
AcDbEntity
  8
0
100
AcDbLine
 62
250
  6
CONTINUOUS
 10
22.2451308334
 20
-11.6670144863
 11
22.2506377707
 21
-21.0790132523
  0
LINE
  5
612
100
AcDbEntity
  8
ASSI
100
AcDbLine
 62
250
  6
CONTINUOUS
 10
22.2451308334
 20
-11.6670144863
 11
22.2506377707
 21
-21.0790132523
  0
LINE
  5
613
100
AcDbEntity
  8
RACCORDO
100
AcDbLine
 62
250
  6
CONTINUOUS
 10
22.2428473781
 20
2.3338756638
 11
22.2451308334
 21
-11.6670144863
  0
LINE
  5
614
100
AcDbEntity
  8
0
100
AcDbLine
 62
250
  6
CONTINUOUS
 10
22.2428473781
 20
2.3338756638
 11
22.2451308334
 21
-11.6670144863
  0
LINE
  5
615
100
AcDbEntity
  8
ASSI
100
AcDbLine
 62
250
  6
CONTINUOUS
 10
22.2428473781
 20
2.3338756638
 11
22.2451308334
 21
-11.6670144863
  0
LINE
  5
616
100
AcDbEntity
  8
RACCORDO
100
AcDbLine
 62
7
  6
CONTINUOUS
 10
22.4
 20
21.8997711479
 11
22.4
 21
-21.8997711479
  0
LINE
  5
617
100
AcDbEntity
  8
ASSI
100
AcDbLine
 62
7
  6
CONTINUOUS
 10
22.4
 20
-21.8997711479
 11
22.4
 21
21.8997711479
  0
LINE
  5
618
100
AcDbEntity
  8
RACCORDO
100
AcDbLine
 62
250
  6
CONTINUOUS
 10
22.2474142989
 20
16.3324771154
 11
22.2428473781
 21
2.3338756638
  0
LINE
  5
619
100
AcDbEntity
  8
0
100
AcDbLine
 62
250
  6
CONTINUOUS
 10
22.2474142989
 20
16.3324771154
 11
22.2428473781
 21
2.3338756638
  0
LINE
  5
61A
100
AcDbEntity
  8
ASSI
100
AcDbLine
 62
250
  6
CONTINUOUS
 10
22.2474142989
 20
16.3324771154
 11
22.2428473781
 21
2.3338756638
  0
LINE
  5
61B
100
AcDbEntity
  8
RACCORDO
100
AcDbLine
 62
250
  6
CONTINUOUS
 10
22.25081144
 20
21.1184484404
 11
22.2474142989
 21
16.3324771154
  0
LINE
  5
61C
100
AcDbEntity
  8
0
100
AcDbLine
 62
250
  6
CONTINUOUS
 10
22.25081144
 20
21.1184484404
 11
22.2474142989
 21
16.3324771154
  0
LINE
  5
61D
100
AcDbEntity
  8
ASSI
100
AcDbLine
 62
250
  6
CONTINUOUS
 10
22.25081144
 20
21.1184484404
 11
22.2474142989
 21
16.3324771154
  0
LINE
  5
61E
100
AcDbEntity
  8
RACCORDO
100
AcDbLine
 62
250
  6
CONTINUOUS
 10
22.2516694038
 20
21.2310600855
 11
22.25081144
 21
21.1184484404
  0
LINE
  5
61F
100
AcDbEntity
  8
0
100
AcDbLine
 62
250
  6
CONTINUOUS
 10
22.2516694038
 20
21.2310600855
 11
22.25081144
 21
21.1184484404
  0
LINE
  5
620
100
AcDbEntity
  8
ASSI
100
AcDbLine
 62
250
  6
CONTINUOUS
 10
22.2516694038
 20
21.2310600855
 11
22.25081144
 21
21.1184484404
  0
LINE
  5
621
100
AcDbEntity
  8
RACCORDO
100
AcDbLine
 62
250
  6
CONTINUOUS
 10
22.2524980441
 20
21.2979562723
 11
22.2516694038
 21
21.2310600855
  0
LINE
  5
622
100
AcDbEntity
  8
0
100
AcDbLine
 62
250
  6
CONTINUOUS
 10
22.2524980441
 20
21.2979562723
 11
22.2516694038
 21
21.2310600855
  0
LINE
  5
623
100
AcDbEntity
  8
ASSI
100
AcDbLine
 62
250
  6
CONTINUOUS
 10
22.2524980441
 20
21.2979562723
 11
22.2516694038
 21
21.2310600855
  0
LWPOLYLINE
  5
624
100
AcDbEntity
  8
RACCORDO
100
AcDbPolyline
 62
250
  6
CONTINUOUS
 90
13
 70
0
 10
22.2587219643
 20
-21.4755923698
 10
22.2543904448
 20
-21.5407283715
 10
22.2415890478
 20
-21.604751172
 10
22.2205365546
 20
-21.6665665953
 10
22.1915927608
 20
-21.7251181902
 10
22.155252328
 20
-21.7794052859
 10
22.112136329
 20
-21.8285000934
 10
22.062981634
 20
-21.8715635622
 10
22.0086283172
 20
-21.90785972
 10
21.9500052991
 20
-21.9367682503
 10
21.8881144713
 20
-21.9577950944
 10
21.8240135736
 20
-21.9705808949
 10
21.7587981167
 20
-21.9749071372
  0
LWPOLYLINE
  5
625
100
AcDbEntity
  8
0
100
AcDbPolyline
 62
250
  6
CONTINUOUS
 90
13
 70
0
 10
22.2587219643
 20
-21.4755923698
 10
22.2543904448
 20
-21.5407283715
 10
22.2415890478
 20
-21.604751172
 10
22.2205365546
 20
-21.6665665953
 10
22.1915927608
 20
-21.7251181902
 10
22.155252328
 20
-21.7794052859
 10
22.112136329
 20
-21.8285000934
 10
22.062981634
 20
-21.8715635622
 10
22.0086283172
 20
-21.90785972
 10
21.9500052991
 20
-21.9367682503
 10
21.8881144713
 20
-21.9577950944
 10
21.8240135736
 20
-21.9705808949
 10
21.7587981167
 20
-21.9749071372
  0
LWPOLYLINE
  5
626
100
AcDbEntity
  8
ASSI
100
AcDbPolyline
 62
250
  6
CONTINUOUS
 90
13
 70
0
 10
22.2587219643
 20
-21.4755923698
 10
22.2543904448
 20
-21.5407283715
 10
22.2415890478
 20
-21.604751172
 10
22.2205365546
 20
-21.6665665953
 10
22.1915927608
 20
-21.7251181902
 10
22.155252328
 20
-21.7794052859
 10
22.112136329
 20
-21.8285000934
 10
22.062981634
 20
-21.8715635622
 10
22.0086283172
 20
-21.90785972
 10
21.9500052991
 20
-21.9367682503
 10
21.8881144713
 20
-21.9577950944
 10
21.8240135736
 20
-21.9705808949
 10
21.7587981167
 20
-21.9749071372
  0
LWPOLYLINE
  5
627
100
AcDbEntity
  8
RACCORDO
100
AcDbPolyline
 62
250
  6
CONTINUOUS
 90
13
 70
0
 10
-21.7587981167
 20
21.9749071372
 10
-21.8240146614
 20
21.9705807517
 10
-21.8881164291
 20
21.9577945704
 10
-21.9500078758
 20
21.9367671846
 10
-22.008631267
 20
21.90785802
 10
-22.0629846931
 20
21.8715612199
 10
-22.1121392075
 20
21.8284972217
 10
-22.1552547868
 20
21.7794020901
 10
-22.1915946472
 20
21.7251149332
 10
-22.2205377945
 20
21.6665636135
 10
-22.2415896769
 20
21.6047488368
 10
-22.2543906216
 20
21.5407270412
 10
-22.2587219643
 20
21.4755923698
  0
LWPOLYLINE
  5
628
100
AcDbEntity
  8
0
100
AcDbPolyline
 62
250
  6
CONTINUOUS
 90
13
 70
0
 10
-21.7587981167
 20
21.9749071372
 10
-21.8240146614
 20
21.9705807517
 10
-21.8881164291
 20
21.9577945704
 10
-21.9500078758
 20
21.9367671846
 10
-22.008631267
 20
21.90785802
 10
-22.0629846931
 20
21.8715612199
 10
-22.1121392075
 20
21.8284972217
 10
-22.1552547868
 20
21.7794020901
 10
-22.1915946472
 20
21.7251149332
 10
-22.2205377945
 20
21.6665636135
 10
-22.2415896769
 20
21.6047488368
 10
-22.2543906216
 20
21.5407270412
 10
-22.2587219643
 20
21.4755923698
  0
LWPOLYLINE
  5
629
100
AcDbEntity
  8
ASSI
100
AcDbPolyline
 62
250
  6
CONTINUOUS
 90
13
 70
0
 10
-21.7587981167
 20
21.9749071372
 10
-21.8240146614
 20
21.9705807517
 10
-21.8881164291
 20
21.9577945704
 10
-21.9500078758
 20
21.9367671846
 10
-22.008631267
 20
21.90785802
 10
-22.0629846931
 20
21.8715612199
 10
-22.1121392075
 20
21.8284972217
 10
-22.1552547868
 20
21.7794020901
 10
-22.1915946472
 20
21.7251149332
 10
-22.2205377945
 20
21.6665636135
 10
-22.2415896769
 20
21.6047488368
 10
-22.2543906216
 20
21.5407270412
 10
-22.2587219643
 20
21.4755923698
  0
LINE
  5
62A
100
AcDbEntity
  8
RACCORDO
100
AcDbLine
 62
250
  6
CONTINUOUS
 10
-21.7587981167
 20
21.9749071372
 11
21.7587981167
 21
21.9749071372
  0
LINE
  5
62B
100
AcDbEntity
  8
0
100
AcDbLine
 62
250
  6
CONTINUOUS
 10
-21.7587981167
 20
21.9749071372
 11
21.7587981167
 21
21.9749071372
  0
LINE
  5
62C
100
AcDbEntity
  8
ASSI
100
AcDbLine
 62
250
  6
CONTINUOUS
 10
-21.7587981167
 20
21.9749071372
 11
21.7587981167
 21
21.9749071372
  0
LINE
  5
62D
100
AcDbEntity
  8
DRAFT
100
AcDbLine
 62
7
  6
CONTINUOUS
 10
8.25
 20
22.4
 11
-8.25
 21
22.4
  0
LINE
  5
62E
100
AcDbEntity
  8
ASSI
100
AcDbLine
 62
7
  6
CONTINUOUS
 10
8.25
 20
22.4
 11
-8.25
 21
22.4
  0
LINE
  5
62F
100
AcDbEntity
  8
RACCORDO
100
AcDbLine
 62
7
  6
CONTINUOUS
 10
-21.9003805997
 20
22.4
 11
21.9003805997
 21
22.4
  0
LINE
  5
630
100
AcDbEntity
  8
DRAFT
100
AcDbLine
 62
7
  6
CONTINUOUS
 10
14.25
 20
22.4
 11
21.9003805997
 21
22.4
  0
LINE
  5
631
100
AcDbEntity
  8
DRAFT
100
AcDbLine
 62
7
  6
CONTINUOUS
 10
-14.25
 20
22.4
 11
-21.9003805997
 21
22.4
  0
LINE
  5
632
100
AcDbEntity
  8
ASSI
100
AcDbLine
 62
7
  6
CONTINUOUS
 10
14.25
 20
22.4
 11
21.9003805997
 21
22.4
  0
LINE
  5
633
100
AcDbEntity
  8
ASSI
100
AcDbLine
 62
7
  6
CONTINUOUS
 10
-14.25
 20
22.4
 11
-21.9003805997
 21
22.4
  0
LINE
  5
634
100
AcDbEntity
  8
0
100
AcDbLine
 62
7
  6
CONTINUOUS
 10
14.25
 20
22.5310194482
 11
8.25
 21
22.5310194482
  0
LINE
  5
635
100
AcDbEntity
  8
ASSI
100
AcDbLine
 62
7
  6
CONTINUOUS
 10
14.25
 20
22.5310194482
 11
8.25
 21
22.5310194482
  0
LINE
  5
636
100
AcDbEntity
  8
0
100
AcDbLine
 62
7
  6
CONTINUOUS
 10
-8.25
 20
22.5310194482
 11
-14.25
 21
22.5310194482
  0
LINE
  5
637
100
AcDbEntity
  8
ASSI
100
AcDbLine
 62
7
  6
CONTINUOUS
 10
-8.25
 20
22.5310194482
 11
-14.25
 21
22.5310194482
  0
LINE
  5
638
100
AcDbEntity
  8
DRAFT
100
AcDbLine
 62
7
  6
CONTINUOUS
 10
14.25
 20
23.4781828305
 11
8.25
 21
23.4781828305
  0
LINE
  5
639
100
AcDbEntity
  8
ASSI
100
AcDbLine
 62
7
  6
CONTINUOUS
 10
14.25
 20
23.4781828305
 11
8.25
 21
23.4781828305
  0
LINE
  5
63A
100
AcDbEntity
  8
DRAFT
100
AcDbLine
 62
7
  6
CONTINUOUS
 10
-8.25
 20
23.4781828305
 11
-14.25
 21
23.4781828305
  0
LINE
  5
63B
100
AcDbEntity
  8
ASSI
100
AcDbLine
 62
7
  6
CONTINUOUS
 10
-8.25
 20
23.4781828305
 11
-14.25
 21
23.4781828305
  0
LINE
  5
63C
100
AcDbEntity
  8
DRAFT
100
AcDbLine
 62
7
  6
CONTINUOUS
 10
-15.2233373476
 20
23.5
 11
-14.25
 21
23.5
  0
LINE
  5
63D
100
AcDbEntity
  8
ASSI
100
AcDbLine
 62
7
  6
CONTINUOUS
 10
-15.2233373476
 20
23.5
 11
-14.25
 21
23.5
  0
LINE
  5
63E
100
AcDbEntity
  8
DRAFT
100
AcDbLine
 62
7
  6
CONTINUOUS
 10
-8.25
 20
23.5
 11
-7.2766626524
 21
23.5
  0
LINE
  5
63F
100
AcDbEntity
  8
ASSI
100
AcDbLine
 62
7
  6
CONTINUOUS
 10
-8.25
 20
23.5
 11
-7.2766626524
 21
23.5
  0
LINE
  5
640
100
AcDbEntity
  8
DRAFT
100
AcDbLine
 62
7
  6
CONTINUOUS
 10
7.2766626524
 20
23.5
 11
8.25
 21
23.5
  0
LINE
  5
641
100
AcDbEntity
  8
ASSI
100
AcDbLine
 62
7
  6
CONTINUOUS
 10
7.2766626524
 20
23.5
 11
8.25
 21
23.5
  0
LINE
  5
642
100
AcDbEntity
  8
DRAFT
100
AcDbLine
 62
7
  6
CONTINUOUS
 10
14.25
 20
23.5
 11
15.2233373476
 21
23.5
  0
LINE
  5
643
100
AcDbEntity
  8
ASSI
100
AcDbLine
 62
7
  6
CONTINUOUS
 10
14.25
 20
23.5
 11
15.2233373476
 21
23.5
  0
LWPOLYLINE
  5
644
100
AcDbEntity
  8
0
100
AcDbPolyline
 62
7
  6
CONTINUOUS
 90
3
 70
0
 43
0.3500000006
 10
29.0071419983
 20
-0.8571427917
 10
29.0071419983
 20
-2.3571432495
 10
26.6499990692
 20
-1.7142852631
  0
LWPOLYLINE
  5
645
100
AcDbEntity
  8
RACCORDO
100
AcDbPolyline
 62
250
  6
CONTINUOUS
 90
12
 70
0
 10
22.2504589101
 20
-20.9972959167
 10
22.2451505013
 20
-21.000009453
 10
22.2315657473
 20
-21.0026775828
 10
22.2099319605
 20
-21.0052556606
 10
22.1806111366
 20
-21.0077005477
 10
22.1440938977
 20
-21.0099713342
 10
22.1009912828
 20
-21.0120300231
 10
22.0520245233
 20
-21.0138421667
 10
21.9980129745
 20
-21.0153774425
 10
21.9398604058
 20
-21.0166101608
 10
21.8785398778
 20
-21.0175196945
 10
21.8150774602
 20
-21.0180908245
  0
LWPOLYLINE
  5
646
100
AcDbEntity
  8
0
100
AcDbPolyline
 62
250
  6
CONTINUOUS
 90
12
 70
0
 10
22.2504589101
 20
-20.9972959167
 10
22.2451505013
 20
-21.000009453
 10
22.2315657473
 20
-21.0026775828
 10
22.2099319605
 20
-21.0052556606
 10
22.1806111366
 20
-21.0077005477
 10
22.1440938977
 20
-21.0099713342
 10
22.1009912828
 20
-21.0120300231
 10
22.0520245233
 20
-21.0138421667
 10
21.9980129745
 20
-21.0153774425
 10
21.9398604058
 20
-21.0166101608
 10
21.8785398778
 20
-21.0175196945
 10
21.8150774602
 20
-21.0180908245
  0
LWPOLYLINE
  5
647
100
AcDbEntity
  8
ASSI
100
AcDbPolyline
 62
250
  6
CONTINUOUS
 90
12
 70
0
 10
22.2504589101
 20
-20.9972959167
 10
22.2451505013
 20
-21.000009453
 10
22.2315657473
 20
-21.0026775828
 10
22.2099319605
 20
-21.0052556606
 10
22.1806111366
 20
-21.0077005477
 10
22.1440938977
 20
-21.0099713342
 10
22.1009912828
 20
-21.0120300231
 10
22.0520245233
 20
-21.0138421667
 10
21.9980129745
 20
-21.0153774425
 10
21.9398604058
 20
-21.0166101608
 10
21.8785398778
 20
-21.0175196945
 10
21.8150774602
 20
-21.0180908245
  0
LWPOLYLINE
  5
648
100
AcDbEntity
  8
0
100
AcDbPolyline
 62
7
  6
CONTINUOUS
 90
3
 70
0
 43
0.3500000006
 10
-0.5357142924
 20
32.8928584442
 10
-2.0357142191
 20
32.8928584442
 10
-1.3928570824
 20
35.2500013733
  0
LWPOLYLINE
  5
649
100
AcDbEntity
  8
0
100
AcDbPolyline
 62
7
  6
CONTINUOUS
 90
3
 70
0
 43
0.3500000006
 10
-2.8928572569
 20
32.8928584442
 10
-4.3928571482
 20
32.8928584442
 10
-3.7500000114
 20
35.2500013733
  0
LWPOLYLINE
  5
64A
100
AcDbEntity
  8
RACCORDO
100
AcDbPolyline
 62
250
  6
CONTINUOUS
 90
13
 70
0
 10
22.2504589101
 20
20.9972959167
 10
22.2451508609
 20
21.0000094852
 10
22.2315663954
 20
21.0026776476
 10
22.2099328228
 20
21.0052557574
 10
22.1806121379
 20
21.007700675
 10
22.1440949646
 20
21.0099714896
 10
22.1009923453
 20
21.0120302035
 10
22.0520255171
 20
21.0138423684
 10
21.9980138429
 20
21.0153776611
 10
21.9398611012
 20
21.0166103915
 10
21.878540363
 20
21.0175199323
 10
21.8150777095
 20
21.0180910641
 10
21.7505350625
 20
21.0183142302
  0
LWPOLYLINE
  5
64B
100
AcDbEntity
  8
0
100
AcDbPolyline
 62
250
  6
CONTINUOUS
 90
13
 70
0
 10
22.2504589101
 20
20.9972959167
 10
22.2451508609
 20
21.0000094852
 10
22.2315663954
 20
21.0026776476
 10
22.2099328228
 20
21.0052557574
 10
22.1806121379
 20
21.007700675
 10
22.1440949646
 20
21.0099714896
 10
22.1009923453
 20
21.0120302035
 10
22.0520255171
 20
21.0138423684
 10
21.9980138429
 20
21.0153776611
 10
21.9398611012
 20
21.0166103915
 10
21.878540363
 20
21.0175199323
 10
21.8150777095
 20
21.0180910641
 10
21.7505350625
 20
21.0183142302
  0
LWPOLYLINE
  5
64C
100
AcDbEntity
  8
ASSI
100
AcDbPolyline
 62
250
  6
CONTINUOUS
 90
13
 70
0
 10
22.2504589101
 20
20.9972959167
 10
22.2451508609
 20
21.0000094852
 10
22.2315663954
 20
21.0026776476
 10
22.2099328228
 20
21.0052557574
 10
22.1806121379
 20
21.007700675
 10
22.1440949646
 20
21.0099714896
 10
22.1009923453
 20
21.0120302035
 10
22.0520255171
 20
21.0138423684
 10
21.9980138429
 20
21.0153776611
 10
21.9398611012
 20
21.0166103915
 10
21.878540363
 20
21.0175199323
 10
21.8150777095
 20
21.0180910641
 10
21.7505350625
 20
21.0183142302
  0
LWPOLYLINE
  5
64D
100
AcDbEntity
  8
0
100
AcDbPolyline
 62
7
  6
CONTINUOUS
 90
13
 70
0
 43
0.3500000006
 10
2.464285738
 20
33.9642854004
 10
2.1785714865
 20
34.1785698853
 10
2.1785714865
 20
34.8214278717
 10
2.464285738
 20
35.2500013733
 10
3.1071428747
 20
35.2500013733
 10
3.3928571262
 20
34.8214278717
 10
3.3928571262
 20
34.1785698853
 10
3.1071428747
 20
33.9642854004
 10
3.5357143936
 20
33.5357164307
 10
3.5357143936
 20
32.6785694275
 10
3.1071428747
 20
32.2500004578
 10
2.464285738
 20
32.2500004578
 10
2.0357142191
 20
32.6785694275
  0
LWPOLYLINE
  5
64E
100
AcDbEntity
  8
0
100
AcDbPolyline
 62
7
  6
CONTINUOUS
 90
10
 70
0
 43
0.3500000006
 10
-61.4754152985
 20
42.2499989777
 10
-60.6182682953
 20
43.107141449
 10
-60.4039838104
 20
43.9642839203
 10
-60.4039838104
 20
44.8214263916
 10
-60.832557312
 20
45.2499998932
 10
-61.4754152985
 20
45.2499998932
 10
-61.9039842682
 20
44.8214263916
 10
-61.9039842682
 20
43.9642839203
 10
-61.4754152985
 20
43.5357149506
 10
-60.5468416443
 20
43.5357149506
  0
LWPOLYLINE
  5
64F
100
AcDbEntity
  8
0
100
AcDbPolyline
 62
7
  6
CONTINUOUS
 90
5
 70
0
 43
0.3500000006
 10
-63.1897002411
 20
43.9642839203
 10
-62.8325579224
 20
44.178572937
 10
-62.8325579224
 20
44.8214263916
 10
-63.1897002411
 20
45.2499998932
 10
-64.0468427124
 20
45.2499998932
  0
LINE
  5
650
100
AcDbEntity
  8
DRAFT
100
AcDbLine
 62
7
  6
CONTINUOUS
 10
-61.8711274803
 20
-23.1799085618
 11
-57.8711274803
 21
-23.1409517823
  0
LINE
  5
651
100
AcDbEntity
  8
ASSI
100
AcDbLine
 62
7
  6
CONTINUOUS
 10
-61.8711274803
 20
-23.1799085618
 11
-57.8711274803
 21
-23.1409517823
  0
LINE
  5
652
100
AcDbEntity
  8
DRAFT
100
AcDbLine
 62
7
  6
CONTINUOUS
 10
-61.8711274803
 20
-23.5
 11
-57.8711274803
 21
-23.4650925288
  0
LINE
  5
653
100
AcDbEntity
  8
ASSI
100
AcDbLine
 62
7
  6
CONTINUOUS
 10
-61.8711274803
 20
-23.5
 11
-57.8711274803
 21
-23.4650925288
  0
LINE
  5
654
100
AcDbEntity
  8
DRAFT
100
AcDbLine
 62
7
  6
CONTINUOUS
 10
-61.8711274803
 20
-22.663166622
 11
-57.8711274803
 21
-22.6454332982
  0
LINE
  5
655
100
AcDbEntity
  8
ASSI
100
AcDbLine
 62
7
  6
CONTINUOUS
 10
-61.8711274803
 20
-22.663166622
 11
-57.8711274803
 21
-22.6454332982
  0
LINE
  5
656
100
AcDbEntity
  8
RACCORDO
100
AcDbLine
 62
7
  6
CONTINUOUS
 10
-69.9823825002
 20
-21.9749071372
 11
-61.8711274803
 21
-22.4
  0
LINE
  5
657
100
AcDbEntity
  8
0
100
AcDbLine
 62
7
  6
CONTINUOUS
 10
-69.9823825002
 20
-21.9749071372
 11
-61.8711274803
 21
-22.4
  0
LINE
  5
658
100
AcDbEntity
  8
ASSI
100
AcDbLine
 62
7
  6
CONTINUOUS
 10
-69.9823825002
 20
-21.9749071372
 11
-61.8711274803
 21
-22.4
  0
LINE
  5
659
100
AcDbEntity
  8
RACCORDO
100
AcDbLine
 62
250
  6
CONTINUOUS
 10
-70.9249794505
 20
-21.0180908245
 11
-70.9291569447
 21
-21.018313994
  0
LINE
  5
65A
100
AcDbEntity
  8
0
100
AcDbLine
 62
250
  6
CONTINUOUS
 10
-70.9249794505
 20
-21.0180908245
 11
-70.9291569447
 21
-21.018313994
  0
LINE
  5
65B
100
AcDbEntity
  8
ASSI
100
AcDbLine
 62
250
  6
CONTINUOUS
 10
-70.9249794505
 20
-21.0180908245
 11
-70.9291569447
 21
-21.018313994
  0
LINE
  5
65C
100
AcDbEntity
  8
RACCORDO
100
AcDbLine
 62
250
  6
CONTINUOUS
 10
-70.4383307823
 20
-20.9972959167
 11
-70.9249794505
 21
-21.0180908245
  0
LINE
  5
65D
100
AcDbEntity
  8
0
100
AcDbLine
 62
250
  6
CONTINUOUS
 10
-70.4383307823
 20
-20.9972959167
 11
-70.9249794505
 21
-21.0180908245
  0
LINE
  5
65E
100
AcDbEntity
  8
ASSI
100
AcDbLine
 62
250
  6
CONTINUOUS
 10
-70.4383307823
 20
-20.9972959167
 11
-70.9249794505
 21
-21.0180908245
  0
LINE
  5
65F
100
AcDbEntity
  8
DRAFT
100
AcDbLine
 62
7
  6
CONTINUOUS
 10
-56.1711274803
 20
-22.1851643248
 11
-55.6373632893
 21
-22.1805062352
  0
LINE
  5
660
100
AcDbEntity
  8
ASSI
100
AcDbLine
 62
7
  6
CONTINUOUS
 10
-56.1711274803
 20
-22.1851643248
 11
-55.6373632893
 21
-22.1805062352
  0
LINE
  5
661
100
AcDbEntity
  8
DRAFT
100
AcDbLine
 62
7
  6
CONTINUOUS
 10
-57.8711274803
 20
-21.2
 11
-53.8787300752
 21
-21.1651588757
  0
LINE
  5
662
100
AcDbEntity
  8
ASSI
100
AcDbLine
 62
7
  6
CONTINUOUS
 10
-57.8711274803
 20
-21.2
 11
-53.8787300752
 21
-21.1651588757
  0
LINE
  5
663
100
AcDbEntity
  8
RACCORDO
100
AcDbLine
 62
250
  6
CONTINUOUS
 10
-69.9649407253
 20
-21.4755923698
 11
-61.8711274803
 21
-21.8997711479
  0
LINE
  5
664
100
AcDbEntity
  8
0
100
AcDbLine
 62
250
  6
CONTINUOUS
 10
-69.9649407253
 20
-21.4755923698
 11
-61.8711274803
 21
-21.8997711479
  0
LINE
  5
665
100
AcDbEntity
  8
ASSI
100
AcDbLine
 62
250
  6
CONTINUOUS
 10
-69.9649407253
 20
-21.4755923698
 11
-61.8711274803
 21
-21.8997711479
  0
LINE
  5
666
100
AcDbEntity
  8
0
100
AcDbLine
 62
7
  6
CONTINUOUS
 10
-78.6212849004
 20
-14.1
 11
-78.750320324
 21
-13.65
  0
LINE
  5
667
100
AcDbEntity
  8
0
100
AcDbLine
 62
7
  6
CONTINUOUS
 10
-77.8212849004
 20
-14.1
 11
-77.950320324
 21
-13.65
  0
LINE
  5
668
100
AcDbEntity
  8
0
100
AcDbLine
 62
7
  6
CONTINUOUS
 10
-77.0212849004
 20
-14.1
 11
-77.150320324
 21
-13.65
  0
LINE
  5
669
100
AcDbEntity
  8
0
100
AcDbLine
 62
7
  6
CONTINUOUS
 10
-79.6711274803
 20
-5.85
 11
-79.6711274803
 21
-13.0482981758
  0
LINE
  5
66A
100
AcDbEntity
  8
0
100
AcDbLine
 62
250
  6
CONTINUOUS
 10
-79.0711274803
 20
-13.65
 11
-79.0711274803
 21
-5.25
  0
LINE
  5
66B
100
AcDbEntity
  8
0
100
AcDbLine
 62
7
  6
CONTINUOUS
 10
-78.750320324
 20
-5.25
 11
-78.750320324
 21
-13.65
  0
LINE
  5
66C
100
AcDbEntity
  8
0
100
AcDbLine
 62
7
  6
CONTINUOUS
 10
-78.6212849004
 20
-14.1
 11
-78.6212849004
 21
-4.8
  0
LINE
  5
66D
100
AcDbEntity
  8
0
100
AcDbLine
 62
7
  6
CONTINUOUS
 10
-78.3209700602
 20
-14.1
 11
-78.3209700602
 21
-4.8
  0
LINE
  5
66E
100
AcDbEntity
  8
0
100
AcDbLine
 62
7
  6
CONTINUOUS
 10
-78.1919346366
 20
-13.65
 11
-78.1919346366
 21
-5.25
  0
LINE
  5
66F
100
AcDbEntity
  8
0
100
AcDbLine
 62
7
  6
CONTINUOUS
 10
-61.8711274803
 20
-18.9430185058
 11
-52.6476166146
 21
-19.0235108657
  0
LINE
  5
670
100
AcDbEntity
  8
ASSI
100
AcDbLine
 62
7
  6
CONTINUOUS
 10
-61.8711274803
 20
-18.9430185058
 11
-52.6476166146
 21
-19.0235108657
  0
LINE
  5
671
100
AcDbEntity
  8
0
100
AcDbLine
 62
250
  6
CONTINUOUS
 10
-78.6212849004
 20
-10.5187445693
 11
-78.750320324
 21
-10.4153176755
  0
LINE
  5
672
100
AcDbEntity
  8
0
100
AcDbLine
 62
250
  6
CONTINUOUS
 10
-77.8212849004
 20
-10.5187445693
 11
-77.950320324
 21
-10.4153176755
  0
LINE
  5
673
100
AcDbEntity
  8
0
100
AcDbLine
 62
250
  6
CONTINUOUS
 10
-77.0212849004
 20
-10.5187445693
 11
-77.150320324
 21
-10.4153176755
  0
LINE
  5
674
100
AcDbEntity
  8
0
100
AcDbLine
 62
250
  6
CONTINUOUS
 10
-76.2212849004
 20
-10.5187445693
 11
-76.350320324
 21
-10.4153176755
  0
LINE
  5
675
100
AcDbEntity
  8
0
100
AcDbLine
 62
7
  6
CONTINUOUS
 10
-76.2212849004
 20
-14.1
 11
-76.350320324
 21
-13.65
  0
LINE
  5
676
100
AcDbEntity
  8
0
100
AcDbLine
 62
7
  6
CONTINUOUS
 10
-78.3209700602
 20
-4.8
 11
-78.1919346366
 21
-5.25
  0
LINE
  5
677
100
AcDbEntity
  8
0
100
AcDbLine
 62
7
  6
CONTINUOUS
 10
-75.4212849004
 20
-14.1
 11
-75.550320324
 21
-13.65
  0
LINE
  5
678
100
AcDbEntity
  8
0
100
AcDbLine
 62
7
  6
CONTINUOUS
 10
-77.5209700602
 20
-4.8
 11
-77.3919346366
 21
-5.25
  0
LINE
  5
679
100
AcDbEntity
  8
0
100
AcDbLine
 62
7
  6
CONTINUOUS
 10
-77.950320324
 20
-13.65
 11
-77.950320324
 21
-5.25
  0
LINE
  5
67A
100
AcDbEntity
  8
0
100
AcDbLine
 62
7
  6
CONTINUOUS
 10
-77.8212849004
 20
-14.1
 11
-77.8212849004
 21
-4.8
  0
LINE
  5
67B
100
AcDbEntity
  8
0
100
AcDbLine
 62
7
  6
CONTINUOUS
 10
-77.5209700602
 20
-14.1
 11
-77.5209700602
 21
-4.8
  0
LINE
  5
67C
100
AcDbEntity
  8
0
100
AcDbLine
 62
7
  6
CONTINUOUS
 10
-77.3919346366
 20
-13.65
 11
-77.3919346366
 21
-5.25
  0
LINE
  5
67D
100
AcDbEntity
  8
0
100
AcDbLine
 62
7
  6
CONTINUOUS
 10
-77.150320324
 20
-13.65
 11
-77.150320324
 21
-5.25
  0
LINE
  5
67E
100
AcDbEntity
  8
0
100
AcDbLine
 62
7
  6
CONTINUOUS
 10
-77.0212849004
 20
-14.1
 11
-77.0212849004
 21
-4.8
  0
LINE
  5
67F
100
AcDbEntity
  8
0
100
AcDbLine
 62
7
  6
CONTINUOUS
 10
-76.7209700602
 20
-14.1
 11
-76.7209700602
 21
-4.8
  0
LINE
  5
680
100
AcDbEntity
  8
0
100
AcDbLine
 62
7
  6
CONTINUOUS
 10
-76.5919346366
 20
-13.65
 11
-76.5919346366
 21
-5.25
  0
LINE
  5
681
100
AcDbEntity
  8
0
100
AcDbLine
 62
7
  6
CONTINUOUS
 10
-76.350320324
 20
-13.65
 11
-76.350320324
 21
-5.25
  0
LINE
  5
682
100
AcDbEntity
  8
0
100
AcDbLine
 62
7
  6
CONTINUOUS
 10
-76.2212849004
 20
-14.1
 11
-76.2212849004
 21
-4.8
  0
LINE
  5
683
100
AcDbEntity
  8
0
100
AcDbLine
 62
7
  6
CONTINUOUS
 10
-75.9209700602
 20
-14.1
 11
-75.9209700602
 21
-4.8
  0
LINE
  5
684
100
AcDbEntity
  8
0
100
AcDbLine
 62
7
  6
CONTINUOUS
 10
-78.6212849004
 20
-4.8
 11
-78.750320324
 21
-5.25
  0
LINE
  5
685
100
AcDbEntity
  8
RACCORDO
100
AcDbLine
 62
250
  6
CONTINUOUS
 10
-60.3711274803
 20
-18.1595749722
 11
-61.8711274803
 21
-18.2308351883
  0
LINE
  5
686
100
AcDbEntity
  8
ASSI
100
AcDbLine
 62
250
  6
CONTINUOUS
 10
-60.3711274803
 20
-18.1595749722
 11
-61.8711274803
 21
-18.2308351883
  0
LINE
  5
687
100
AcDbEntity
  8
RACCORDO
100
AcDbLine
 62
7
  6
CONTINUOUS
 10
-61.8711274803
 20
-18.3006924206
 11
-60.3711274803
 21
-18.2298208413
  0
LINE
  5
688
100
AcDbEntity
  8
ASSI
100
AcDbLine
 62
7
  6
CONTINUOUS
 10
-61.8711274803
 20
-18.3006924206
 11
-60.3711274803
 21
-18.2298208413
  0
LINE
  5
689
100
AcDbEntity
  8
0
100
AcDbLine
 62
7
  6
CONTINUOUS
 10
-51.7925966354
 20
-17.3996230171
 11
-59.5711274803
 21
-17.6033110157
  0
LINE
  5
68A
100
AcDbEntity
  8
RACCORDO
100
AcDbLine
 62
250
  6
CONTINUOUS
 10
-60.3711274803
 20
-16.4544358981
 11
-61.8711274803
 21
-16.4633443083
  0
LINE
  5
68B
100
AcDbEntity
  8
ASSI
100
AcDbLine
 62
250
  6
CONTINUOUS
 10
-60.3711274803
 20
-16.4544358981
 11
-61.8711274803
 21
-16.4633443083
  0
LINE
  5
68C
100
AcDbEntity
  8
RACCORDO
100
AcDbLine
 62
250
  6
CONTINUOUS
 10
-60.3711274803
 20
-17.0643546451
 11
-61.8711274803
 21
-17.0730014938
  0
LINE
  5
68D
100
AcDbEntity
  8
ASSI
100
AcDbLine
 62
250
  6
CONTINUOUS
 10
-60.3711274803
 20
-17.0643546451
 11
-61.8711274803
 21
-17.0730014938
  0
LINE
  5
68E
100
AcDbEntity
  8
0
100
AcDbLine
 62
7
  6
CONTINUOUS
 10
-60.053677732
 20
-16.4855301281
 11
-60.3718253464
 21
-16.4744201686
  0
LINE
  5
68F
100
AcDbEntity
  8
0
100
AcDbLine
 62
250
  6
CONTINUOUS
 10
-75.4212849004
 20
-10.5187445693
 11
-75.550320324
 21
-10.4153176755
  0
LINE
  5
690
100
AcDbEntity
  8
0
100
AcDbLine
 62
250
  6
CONTINUOUS
 10
-74.6212849004
 20
-10.5187445693
 11
-74.750320324
 21
-10.4153176755
  0
LINE
  5
691
100
AcDbEntity
  8
0
100
AcDbLine
 62
250
  6
CONTINUOUS
 10
-73.8212849004
 20
-10.5187445693
 11
-73.950320324
 21
-10.4153176755
  0
LINE
  5
692
100
AcDbEntity
  8
0
100
AcDbLine
 62
250
  6
CONTINUOUS
 10
-73.0212849004
 20
-10.5187445693
 11
-73.150320324
 21
-10.4153176755
  0
LINE
  5
693
100
AcDbEntity
  8
0
100
AcDbLine
 62
7
  6
CONTINUOUS
 10
-74.6212849004
 20
-14.1
 11
-74.750320324
 21
-13.65
  0
LINE
  5
694
100
AcDbEntity
  8
0
100
AcDbLine
 62
7
  6
CONTINUOUS
 10
-76.7209700602
 20
-4.8
 11
-76.5919346366
 21
-5.25
  0
LINE
  5
695
100
AcDbEntity
  8
0
100
AcDbLine
 62
7
  6
CONTINUOUS
 10
-73.8212849004
 20
-14.1
 11
-73.950320324
 21
-13.65
  0
LINE
  5
696
100
AcDbEntity
  8
0
100
AcDbLine
 62
7
  6
CONTINUOUS
 10
-75.9209700602
 20
-4.8
 11
-75.7919346366
 21
-5.25
  0
LINE
  5
697
100
AcDbEntity
  8
0
100
AcDbLine
 62
7
  6
CONTINUOUS
 10
-73.0212849004
 20
-14.1
 11
-73.150320324
 21
-13.65
  0
LINE
  5
698
100
AcDbEntity
  8
0
100
AcDbLine
 62
7
  6
CONTINUOUS
 10
-75.7919346366
 20
-13.65
 11
-75.7919346366
 21
-5.25
  0
LINE
  5
699
100
AcDbEntity
  8
0
100
AcDbLine
 62
7
  6
CONTINUOUS
 10
-75.550320324
 20
-13.65
 11
-75.550320324
 21
-5.25
  0
LINE
  5
69A
100
AcDbEntity
  8
0
100
AcDbLine
 62
7
  6
CONTINUOUS
 10
-75.4212849004
 20
-14.1
 11
-75.4212849004
 21
-4.8
  0
LINE
  5
69B
100
AcDbEntity
  8
0
100
AcDbLine
 62
7
  6
CONTINUOUS
 10
-75.1209700602
 20
-14.1
 11
-75.1209700602
 21
-4.8
  0
LINE
  5
69C
100
AcDbEntity
  8
0
100
AcDbLine
 62
7
  6
CONTINUOUS
 10
-74.9919346366
 20
-13.65
 11
-74.9919346366
 21
-5.25
  0
LINE
  5
69D
100
AcDbEntity
  8
0
100
AcDbLine
 62
7
  6
CONTINUOUS
 10
-74.750320324
 20
-13.65
 11
-74.750320324
 21
-5.25
  0
LINE
  5
69E
100
AcDbEntity
  8
0
100
AcDbLine
 62
7
  6
CONTINUOUS
 10
-74.6212849004
 20
-14.1
 11
-74.6212849004
 21
-4.8
  0
LINE
  5
69F
100
AcDbEntity
  8
0
100
AcDbLine
 62
7
  6
CONTINUOUS
 10
-74.3209700602
 20
-14.1
 11
-74.3209700602
 21
-4.8
  0
LINE
  5
6A0
100
AcDbEntity
  8
0
100
AcDbLine
 62
7
  6
CONTINUOUS
 10
-74.1919346366
 20
-13.65
 11
-74.1919346366
 21
-5.25
  0
LINE
  5
6A1
100
AcDbEntity
  8
0
100
AcDbLine
 62
7
  6
CONTINUOUS
 10
-73.950320324
 20
-13.65
 11
-73.950320324
 21
-5.25
  0
LINE
  5
6A2
100
AcDbEntity
  8
0
100
AcDbLine
 62
7
  6
CONTINUOUS
 10
-77.8212849004
 20
-4.8
 11
-77.950320324
 21
-5.25
  0
LINE
  5
6A3
100
AcDbEntity
  8
0
100
AcDbLine
 62
7
  6
CONTINUOUS
 10
-77.0212849004
 20
-4.8
 11
-77.150320324
 21
-5.25
  0
LINE
  5
6A4
100
AcDbEntity
  8
0
100
AcDbLine
 62
7
  6
CONTINUOUS
 10
-76.2212849004
 20
-4.8
 11
-76.350320324
 21
-5.25
  0
LINE
  5
6A5
100
AcDbEntity
  8
0
100
AcDbLine
 62
250
  6
CONTINUOUS
 10
-54.67111657
 20
-14.4755137495
 11
-51.7925966354
 21
-14.4006510421
  0
LINE
  5
6A6
100
AcDbEntity
  8
0
100
AcDbLine
 62
250
  6
CONTINUOUS
 10
-48.8711274803
 20
-14.4006510421
 11
-51.7925966354
 21
-14.4006510421
  0
LINE
  5
6A7
100
AcDbEntity
  8
0
100
AcDbLine
 62
7
  6
CONTINUOUS
 10
-78.6212849004
 20
-14.1
 11
-78.3209700602
 21
-14.1
  0
LINE
  5
6A8
100
AcDbEntity
  8
0
100
AcDbLine
 62
7
  6
CONTINUOUS
 10
-77.8212849004
 20
-14.1
 11
-77.5209700602
 21
-14.1
  0
LINE
  5
6A9
100
AcDbEntity
  8
0
100
AcDbLine
 62
7
  6
CONTINUOUS
 10
-77.0212849004
 20
-14.1
 11
-76.7209700602
 21
-14.1
  0
LINE
  5
6AA
100
AcDbEntity
  8
0
100
AcDbLine
 62
7
  6
CONTINUOUS
 10
-76.2212849004
 20
-14.1
 11
-75.9209700602
 21
-14.1
  0
LINE
  5
6AB
100
AcDbEntity
  8
0
100
AcDbLine
 62
7
  6
CONTINUOUS
 10
-75.4212849004
 20
-14.1
 11
-75.1209700602
 21
-14.1
  0
LINE
  5
6AC
100
AcDbEntity
  8
0
100
AcDbLine
 62
7
  6
CONTINUOUS
 10
-74.6212849004
 20
-14.1
 11
-74.3209700602
 21
-14.1
  0
LINE
  5
6AD
100
AcDbEntity
  8
0
100
AcDbLine
 62
7
  6
CONTINUOUS
 10
-73.8212849004
 20
-14.1
 11
-73.5209700602
 21
-14.1
  0
LINE
  5
6AE
100
AcDbEntity
  8
0
100
AcDbLine
 62
7
  6
CONTINUOUS
 10
-73.0212849004
 20
-14.1
 11
-72.7209700602
 21
-14.1
  0
LINE
  5
6AF
100
AcDbEntity
  8
0
100
AcDbLine
 62
7
  6
CONTINUOUS
 10
-72.2212849004
 20
-14.1
 11
-71.9209700602
 21
-14.1
  0
LINE
  5
6B0
100
AcDbEntity
  8
0
100
AcDbLine
 62
7
  6
CONTINUOUS
 10
-71.4212849004
 20
-14.1
 11
-71.172264724
 21
-14.1
  0
LINE
  5
6B1
100
AcDbEntity
  8
0
100
AcDbLine
 62
250
  6
CONTINUOUS
 10
-54.67111657
 20
-14.4755137495
 11
-59.5711274803
 21
-14.475
  0
LINE
  5
6B2
100
AcDbEntity
  8
0
100
AcDbLine
 62
250
  6
CONTINUOUS
 10
-72.2212849004
 20
-10.5187445693
 11
-72.350320324
 21
-10.4153176755
  0
LINE
  5
6B3
100
AcDbEntity
  8
0
100
AcDbLine
 62
250
  6
CONTINUOUS
 10
-71.4212849004
 20
-10.5187445693
 11
-71.550320324
 21
-10.4153176755
  0
LINE
  5
6B4
100
AcDbEntity
  8
0
100
AcDbLine
 62
7
  6
CONTINUOUS
 10
-75.1209700602
 20
-4.8
 11
-74.9919346366
 21
-5.25
  0
LINE
  5
6B5
100
AcDbEntity
  8
0
100
AcDbLine
 62
7
  6
CONTINUOUS
 10
-72.2212849004
 20
-14.1
 11
-72.350320324
 21
-13.65
  0
LINE
  5
6B6
100
AcDbEntity
  8
0
100
AcDbLine
 62
7
  6
CONTINUOUS
 10
-74.3209700602
 20
-4.8
 11
-74.1919346366
 21
-5.25
  0
LINE
  5
6B7
100
AcDbEntity
  8
0
100
AcDbLine
 62
7
  6
CONTINUOUS
 10
-71.4212849004
 20
-14.1
 11
-71.550320324
 21
-13.65
  0
LINE
  5
6B8
100
AcDbEntity
  8
0
100
AcDbLine
 62
7
  6
CONTINUOUS
 10
-73.5209700602
 20
-4.8
 11
-73.3919346366
 21
-5.25
  0
LWPOLYLINE
  5
6B9
100
AcDbEntity
  8
RACCORDO
100
AcDbPolyline
 62
250
  6
CONTINUOUS
 90
19
 70
0
 10
-70.4383307823
 20
-20.9972959167
 10
-70.4348160056
 20
-21.0386290777
 10
-70.4280838638
 20
-21.0790132523
 10
-70.4181343567
 20
-21.1184484403
 10
-70.4048533737
 20
-21.1571917317
 10
-70.3883550255
 20
-21.1949860367
 10
-70.3689816444
 20
-21.2310600856
 10
-70.3466827762
 20
-21.265368307
 10
-70.3215088752
 20
-21.2979562724
 10
-70.2939536367
 20
-21.3281894263
 10
-70.2639657192
 20
-21.3560260411
 10
-70.2315964643
 20
-21.3815078444
 10
-70.1974935925
 20
-21.4041254633
 10
-70.1616072746
 20
-21.4238228917
 10
-70.1239873398
 20
-21.4406561357
 10
-70.0854309967
 20
-21.4542838409
 10
-70.0462039813
 20
-21.4645922227
 10
-70.0060405575
 20
-21.4716950656
 10
-69.9649407253
 20
-21.4755923698
  0
LWPOLYLINE
  5
6BA
100
AcDbEntity
  8
0
100
AcDbPolyline
 62
250
  6
CONTINUOUS
 90
19
 70
0
 10
-70.4383307823
 20
-20.9972959167
 10
-70.4348160056
 20
-21.0386290777
 10
-70.4280838638
 20
-21.0790132523
 10
-70.4181343567
 20
-21.1184484403
 10
-70.4048533737
 20
-21.1571917317
 10
-70.3883550255
 20
-21.1949860367
 10
-70.3689816444
 20
-21.2310600856
 10
-70.3466827762
 20
-21.265368307
 10
-70.3215088752
 20
-21.2979562724
 10
-70.2939536367
 20
-21.3281894263
 10
-70.2639657192
 20
-21.3560260411
 10
-70.2315964643
 20
-21.3815078444
 10
-70.1974935925
 20
-21.4041254633
 10
-70.1616072746
 20
-21.4238228917
 10
-70.1239873398
 20
-21.4406561357
 10
-70.0854309967
 20
-21.4542838409
 10
-70.0462039813
 20
-21.4645922227
 10
-70.0060405575
 20
-21.4716950656
 10
-69.9649407253
 20
-21.4755923698
  0
LWPOLYLINE
  5
6BB
100
AcDbEntity
  8
ASSI
100
AcDbPolyline
 62
250
  6
CONTINUOUS
 90
19
 70
0
 10
-70.4383307823
 20
-20.9972959167
 10
-70.4348160056
 20
-21.0386290777
 10
-70.4280838638
 20
-21.0790132523
 10
-70.4181343567
 20
-21.1184484403
 10
-70.4048533737
 20
-21.1571917317
 10
-70.3883550255
 20
-21.1949860367
 10
-70.3689816444
 20
-21.2310600856
 10
-70.3466827762
 20
-21.265368307
 10
-70.3215088752
 20
-21.2979562724
 10
-70.2939536367
 20
-21.3281894263
 10
-70.2639657192
 20
-21.3560260411
 10
-70.2315964643
 20
-21.3815078444
 10
-70.1974935925
 20
-21.4041254633
 10
-70.1616072746
 20
-21.4238228917
 10
-70.1239873398
 20
-21.4406561357
 10
-70.0854309967
 20
-21.4542838409
 10
-70.0462039813
 20
-21.4645922227
 10
-70.0060405575
 20
-21.4716950656
 10
-69.9649407253
 20
-21.4755923698
  0
LINE
  5
6BC
100
AcDbEntity
  8
0
100
AcDbLine
 62
7
  6
CONTINUOUS
 10
-73.8212849004
 20
-14.1
 11
-73.8212849004
 21
-4.8
  0
LINE
  5
6BD
100
AcDbEntity
  8
0
100
AcDbLine
 62
7
  6
CONTINUOUS
 10
-73.5209700602
 20
-14.1
 11
-73.5209700602
 21
-4.8
  0
LINE
  5
6BE
100
AcDbEntity
  8
0
100
AcDbLine
 62
7
  6
CONTINUOUS
 10
-73.3919346366
 20
-13.65
 11
-73.3919346366
 21
-5.25
  0
LINE
  5
6BF
100
AcDbEntity
  8
0
100
AcDbLine
 62
7
  6
CONTINUOUS
 10
-73.150320324
 20
-13.65
 11
-73.150320324
 21
-5.25
  0
LINE
  5
6C0
100
AcDbEntity
  8
0
100
AcDbLine
 62
7
  6
CONTINUOUS
 10
-73.0212849004
 20
-14.1
 11
-73.0212849004
 21
-4.8
  0
LINE
  5
6C1
100
AcDbEntity
  8
0
100
AcDbLine
 62
7
  6
CONTINUOUS
 10
-72.7209700602
 20
-14.1
 11
-72.7209700602
 21
-4.8
  0
LINE
  5
6C2
100
AcDbEntity
  8
0
100
AcDbLine
 62
7
  6
CONTINUOUS
 10
-72.5919346366
 20
-13.65
 11
-72.5919346366
 21
-5.25
  0
LINE
  5
6C3
100
AcDbEntity
  8
0
100
AcDbLine
 62
7
  6
CONTINUOUS
 10
-72.3711274803
 20
4.7770000059
 11
-72.3711274803
 21
13.7770000903
  0
LINE
  5
6C4
100
AcDbEntity
  8
0
100
AcDbLine
 62
7
  6
CONTINUOUS
 10
-72.350320324
 20
-13.65
 11
-72.350320324
 21
-5.25
  0
LINE
  5
6C5
100
AcDbEntity
  8
0
100
AcDbLine
 62
7
  6
CONTINUOUS
 10
-72.2212849004
 20
-14.1
 11
-72.2212849004
 21
-4.8
  0
LINE
  5
6C6
100
AcDbEntity
  8
0
100
AcDbLine
 62
7
  6
CONTINUOUS
 10
-72.1711274803
 20
4.0637866494
 11
-72.1711274803
 21
8.5770309907
  0
LINE
  5
6C7
100
AcDbEntity
  8
0
100
AcDbLine
 62
7
  6
CONTINUOUS
 10
-72.1711274803
 20
9.9769690093
 11
-72.1711274803
 21
14.4902133514
  0
LINE
  5
6C8
100
AcDbEntity
  8
0
100
AcDbLine
 62
250
  6
CONTINUOUS
 10
-72.1211274803
 20
9.977
 11
-72.1211274803
 21
8.577
  0
LINE
  5
6C9
100
AcDbEntity
  8
0
100
AcDbLine
 62
7
  6
CONTINUOUS
 10
-71.9209700602
 20
-14.1
 11
-71.9209700602
 21
-4.8
  0
LINE
  5
6CA
100
AcDbEntity
  8
0
100
AcDbLine
 62
7
  6
CONTINUOUS
 10
-78.3209700602
 20
-14.1
 11
-78.1919346366
 21
-13.65
  0
LINE
  5
6CB
100
AcDbEntity
  8
0
100
AcDbLine
 62
7
  6
CONTINUOUS
 10
-75.4212849004
 20
-4.8
 11
-75.550320324
 21
-5.25
  0
LINE
  5
6CC
100
AcDbEntity
  8
0
100
AcDbLine
 62
7
  6
CONTINUOUS
 10
-77.5209700602
 20
-14.1
 11
-77.3919346366
 21
-13.65
  0
LINE
  5
6CD
100
AcDbEntity
  8
0
100
AcDbLine
 62
7
  6
CONTINUOUS
 10
-74.6212849004
 20
-4.8
 11
-74.750320324
 21
-5.25
  0
LINE
  5
6CE
100
AcDbEntity
  8
0
100
AcDbLine
 62
7
  6
CONTINUOUS
 10
-76.7209700602
 20
-14.1
 11
-76.5919346366
 21
-13.65
  0
LINE
  5
6CF
100
AcDbEntity
  8
0
100
AcDbLine
 62
7
  6
CONTINUOUS
 10
-73.8212849004
 20
-4.8
 11
-73.950320324
 21
-5.25
  0
LWPOLYLINE
  5
6D0
100
AcDbEntity
  8
0
100
AcDbPolyline
 62
7
  6
CONTINUOUS
 90
3
 70
0
 43
0.3500000006
 10
-58.8325567017
 20
42.5357146454
 10
-58.9039833527
 20
42.3214301605
 10
-59.0468411865
 20
42.0357144928
  0
LINE
  5
6D1
100
AcDbEntity
  8
0
100
AcDbLine
 62
7
  6
CONTINUOUS
 10
-79.0711274803
 20
-13.65
 11
-78.750320324
 21
-13.65
  0
LINE
  5
6D2
100
AcDbEntity
  8
0
100
AcDbLine
 62
7
  6
CONTINUOUS
 10
-71.550320324
 20
-13.65
 11
-71.7919346366
 21
-13.65
  0
LINE
  5
6D3
100
AcDbEntity
  8
0
100
AcDbLine
 62
7
  6
CONTINUOUS
 10
-72.350320324
 20
-13.65
 11
-72.5919346366
 21
-13.65
  0
LINE
  5
6D4
100
AcDbEntity
  8
0
100
AcDbLine
 62
7
  6
CONTINUOUS
 10
-73.150320324
 20
-13.65
 11
-73.3919346366
 21
-13.65
  0
LINE
  5
6D5
100
AcDbEntity
  8
0
100
AcDbLine
 62
7
  6
CONTINUOUS
 10
-73.950320324
 20
-13.65
 11
-74.1919346366
 21
-13.65
  0
LINE
  5
6D6
100
AcDbEntity
  8
0
100
AcDbLine
 62
7
  6
CONTINUOUS
 10
-74.750320324
 20
-13.65
 11
-74.9919346366
 21
-13.65
  0
LINE
  5
6D7
100
AcDbEntity
  8
0
100
AcDbLine
 62
7
  6
CONTINUOUS
 10
-75.550320324
 20
-13.65
 11
-75.7919346366
 21
-13.65
  0
LINE
  5
6D8
100
AcDbEntity
  8
0
100
AcDbLine
 62
7
  6
CONTINUOUS
 10
-76.350320324
 20
-13.65
 11
-76.5919346366
 21
-13.65
  0
LINE
  5
6D9
100
AcDbEntity
  8
0
100
AcDbLine
 62
7
  6
CONTINUOUS
 10
-77.150320324
 20
-13.65
 11
-77.3919346366
 21
-13.65
  0
LINE
  5
6DA
100
AcDbEntity
  8
0
100
AcDbLine
 62
7
  6
CONTINUOUS
 10
-77.950320324
 20
-13.65
 11
-78.1919346366
 21
-13.65
  0
LINE
  5
6DB
100
AcDbEntity
  8
0
100
AcDbLine
 62
7
  6
CONTINUOUS
 10
-72.7209700602
 20
-4.8
 11
-72.5919346366
 21
-5.25
  0
LINE
  5
6DC
100
AcDbEntity
  8
0
100
AcDbLine
 62
7
  6
CONTINUOUS
 10
-71.9209700602
 20
-4.8
 11
-71.7919346366
 21
-5.25
  0
LINE
  5
6DD
100
AcDbEntity
  8
0
100
AcDbLine
 62
7
  6
CONTINUOUS
 10
-71.7919346366
 20
-13.65
 11
-71.7919346366
 21
-5.25
  0
LINE
  5
6DE
100
AcDbEntity
  8
ASSI
100
AcDbLine
 62
7
  6
CONTINUOUS
 10
-71.5711274803
 20
8.5940041912
 11
-71.5711274803
 21
9.9599958088
  0
LINE
  5
6DF
100
AcDbEntity
  8
0
100
AcDbLine
 62
7
  6
CONTINUOUS
 10
-71.550320324
 20
-13.65
 11
-71.550320324
 21
-5.25
  0
LINE
  5
6E0
100
AcDbEntity
  8
0
100
AcDbLine
 62
7
  6
CONTINUOUS
 10
-71.4212849004
 20
-14.1
 11
-71.4212849004
 21
-4.8
  0
LWPOLYLINE
  5
6E1
100
AcDbEntity
  8
RACCORDO
100
AcDbPolyline
 62
250
  6
CONTINUOUS
 90
10
 70
0
 10
-70.4383307823
 20
20.9972959167
 10
-70.6127564417
 20
16.3324771154
 10
-70.7435757173
 20
11.6670364005
 10
-70.8307886092
 20
7.0009737718
 10
-70.8743951588
 20
2.3338756638
 10
-70.8743953247
 20
-2.3338443579
 10
-70.8307889824
 20
-7.0009455965
 10
-70.7435760905
 20
-11.6670144863
 10
-70.6127566905
 20
-16.3324645931
 10
-70.4383307823
 20
-20.9972959167
  0
LWPOLYLINE
  5
6E2
100
AcDbEntity
  8
0
100
AcDbPolyline
 62
250
  6
CONTINUOUS
 90
10
 70
0
 10
-70.4383307823
 20
20.9972959167
 10
-70.6127564417
 20
16.3324771154
 10
-70.7435757173
 20
11.6670364005
 10
-70.8307886092
 20
7.0009737718
 10
-70.8743951588
 20
2.3338756638
 10
-70.8743953247
 20
-2.3338443579
 10
-70.8307889824
 20
-7.0009455965
 10
-70.7435760905
 20
-11.6670144863
 10
-70.6127566905
 20
-16.3324645931
 10
-70.4383307823
 20
-20.9972959167
  0
LWPOLYLINE
  5
6E3
100
AcDbEntity
  8
ASSI
100
AcDbPolyline
 62
250
  6
CONTINUOUS
 90
10
 70
0
 10
-70.4383307823
 20
20.9972959167
 10
-70.6127564417
 20
16.3324771154
 10
-70.7435757173
 20
11.6670364005
 10
-70.8307886092
 20
7.0009737718
 10
-70.8743951588
 20
2.3338756638
 10
-70.8743953247
 20
-2.3338443579
 10
-70.8307889824
 20
-7.0009455965
 10
-70.7435760905
 20
-11.6670144863
 10
-70.6127566905
 20
-16.3324645931
 10
-70.4383307823
 20
-20.9972959167
  0
LINE
  5
6E4
100
AcDbEntity
  8
0
100
AcDbLine
 62
7
  6
CONTINUOUS
 10
-75.9209700602
 20
-14.1
 11
-75.7919346366
 21
-13.65
  0
LINE
  5
6E5
100
AcDbEntity
  8
0
100
AcDbLine
 62
7
  6
CONTINUOUS
 10
-73.0212849004
 20
-4.8
 11
-73.150320324
 21
-5.25
  0
LINE
  5
6E6
100
AcDbEntity
  8
0
100
AcDbLine
 62
7
  6
CONTINUOUS
 10
-75.1209700602
 20
-14.1
 11
-74.9919346366
 21
-13.65
  0
LINE
  5
6E7
100
AcDbEntity
  8
0
100
AcDbLine
 62
7
  6
CONTINUOUS
 10
-72.2212849004
 20
-4.8
 11
-72.350320324
 21
-5.25
  0
LINE
  5
6E8
100
AcDbEntity
  8
0
100
AcDbLine
 62
7
  6
CONTINUOUS
 10
-74.3209700602
 20
-14.1
 11
-74.1919346366
 21
-13.65
  0
LINE
  5
6E9
100
AcDbEntity
  8
0
100
AcDbLine
 62
250
  6
CONTINUOUS
 10
-78.6212849004
 20
-10.5187445693
 11
-78.3209700602
 21
-10.5187445693
  0
LINE
  5
6EA
100
AcDbEntity
  8
0
100
AcDbLine
 62
250
  6
CONTINUOUS
 10
-77.8212849004
 20
-10.5187445693
 11
-77.5209700602
 21
-10.5187445693
  0
LINE
  5
6EB
100
AcDbEntity
  8
0
100
AcDbLine
 62
250
  6
CONTINUOUS
 10
-77.0212849004
 20
-10.5187445693
 11
-76.7209700602
 21
-10.5187445693
  0
LINE
  5
6EC
100
AcDbEntity
  8
0
100
AcDbLine
 62
250
  6
CONTINUOUS
 10
-76.2212849004
 20
-10.5187445693
 11
-75.9209700602
 21
-10.5187445693
  0
LINE
  5
6ED
100
AcDbEntity
  8
0
100
AcDbLine
 62
250
  6
CONTINUOUS
 10
-75.4212849004
 20
-10.5187445693
 11
-75.1209700602
 21
-10.5187445693
  0
LINE
  5
6EE
100
AcDbEntity
  8
0
100
AcDbLine
 62
250
  6
CONTINUOUS
 10
-74.6212849004
 20
-10.5187445693
 11
-74.3209700602
 21
-10.5187445693
  0
LINE
  5
6EF
100
AcDbEntity
  8
0
100
AcDbLine
 62
250
  6
CONTINUOUS
 10
-73.8212849004
 20
-10.5187445693
 11
-73.5209700602
 21
-10.5187445693
  0
LINE
  5
6F0
100
AcDbEntity
  8
0
100
AcDbLine
 62
250
  6
CONTINUOUS
 10
-73.0212849004
 20
-10.5187445693
 11
-72.7209700602
 21
-10.5187445693
  0
LINE
  5
6F1
100
AcDbEntity
  8
0
100
AcDbLine
 62
250
  6
CONTINUOUS
 10
-72.2212849004
 20
-10.5187445693
 11
-71.9209700602
 21
-10.5187445693
  0
LINE
  5
6F2
100
AcDbEntity
  8
0
100
AcDbLine
 62
250
  6
CONTINUOUS
 10
-71.4212849004
 20
-10.5187445693
 11
-71.260439144
 21
-10.5187445693
  0
LINE
  5
6F3
100
AcDbEntity
  8
0
100
AcDbLine
 62
250
  6
CONTINUOUS
 10
-79.0711274803
 20
-10.4153176755
 11
-78.750320324
 21
-10.4153176755
  0
LINE
  5
6F4
100
AcDbEntity
  8
0
100
AcDbLine
 62
250
  6
CONTINUOUS
 10
-71.550320324
 20
-10.4153176755
 11
-71.7919346366
 21
-10.4153176755
  0
LINE
  5
6F5
100
AcDbEntity
  8
0
100
AcDbLine
 62
250
  6
CONTINUOUS
 10
-72.350320324
 20
-10.4153176755
 11
-72.5919346366
 21
-10.4153176755
  0
LINE
  5
6F6
100
AcDbEntity
  8
0
100
AcDbLine
 62
250
  6
CONTINUOUS
 10
-73.150320324
 20
-10.4153176755
 11
-73.3919346366
 21
-10.4153176755
  0
LINE
  5
6F7
100
AcDbEntity
  8
0
100
AcDbLine
 62
250
  6
CONTINUOUS
 10
-73.950320324
 20
-10.4153176755
 11
-74.1919346366
 21
-10.4153176755
  0
LINE
  5
6F8
100
AcDbEntity
  8
0
100
AcDbLine
 62
250
  6
CONTINUOUS
 10
-74.750320324
 20
-10.4153176755
 11
-74.9919346366
 21
-10.4153176755
  0
LINE
  5
6F9
100
AcDbEntity
  8
0
100
AcDbLine
 62
250
  6
CONTINUOUS
 10
-75.550320324
 20
-10.4153176755
 11
-75.7919346366
 21
-10.4153176755
  0
LINE
  5
6FA
100
AcDbEntity
  8
0
100
AcDbLine
 62
250
  6
CONTINUOUS
 10
-76.350320324
 20
-10.4153176755
 11
-76.5919346366
 21
-10.4153176755
  0
LINE
  5
6FB
100
AcDbEntity
  8
0
100
AcDbLine
 62
250
  6
CONTINUOUS
 10
-77.150320324
 20
-10.4153176755
 11
-77.3919346366
 21
-10.4153176755
  0
LINE
  5
6FC
100
AcDbEntity
  8
0
100
AcDbLine
 62
250
  6
CONTINUOUS
 10
-77.950320324
 20
-10.4153176755
 11
-78.1919346366
 21
-10.4153176755
  0
LINE
  5
6FD
100
AcDbEntity
  8
RACCORDO
100
AcDbLine
 62
250
  6
CONTINUOUS
 10
-69.9649407253
 20
21.4755923698
 11
-69.9714104149
 21
21.6047480578
  0
LINE
  5
6FE
100
AcDbEntity
  8
0
100
AcDbLine
 62
250
  6
CONTINUOUS
 10
-69.9649407253
 20
21.4755923698
 11
-69.9714104149
 21
21.6047480578
  0
LINE
  5
6FF
100
AcDbEntity
  8
ASSI
100
AcDbLine
 62
250
  6
CONTINUOUS
 10
-69.9649407253
 20
21.4755923698
 11
-69.9714104149
 21
21.6047480578
  0
LINE
  5
700
100
AcDbEntity
  8
RACCORDO
100
AcDbLine
 62
250
  6
CONTINUOUS
 10
-69.9714104149
 20
21.6047480578
 11
-69.9768458406
 21
21.7251138473
  0
LINE
  5
701
100
AcDbEntity
  8
0
100
AcDbLine
 62
250
  6
CONTINUOUS
 10
-69.9714104149
 20
21.6047480578
 11
-69.9768458406
 21
21.7251138473
  0
LINE
  5
702
100
AcDbEntity
  8
ASSI
100
AcDbLine
 62
250
  6
CONTINUOUS
 10
-69.9714104149
 20
21.6047480578
 11
-69.9768458406
 21
21.7251138473
  0
LWPOLYLINE
  5
703
100
AcDbEntity
  8
RACCORDO
100
AcDbPolyline
 62
250
  6
CONTINUOUS
 90
8
 70
0
 10
-69.9768458406
 20
21.7251138473
 10
-69.9808769838
 20
21.8284962648
 10
-69.98227589
 20
21.8715604395
 10
-69.9832293988
 20
21.9078574539
 10
-69.9837212066
 20
21.9367668297
 10
-69.9837429033
 20
21.9577943958
 10
-69.9832941142
 20
21.9705807038
 10
-69.9823825048
 20
21.974907137
  0
LWPOLYLINE
  5
704
100
AcDbEntity
  8
0
100
AcDbPolyline
 62
250
  6
CONTINUOUS
 90
8
 70
0
 10
-69.9768458406
 20
21.7251138473
 10
-69.9808769838
 20
21.8284962648
 10
-69.98227589
 20
21.8715604395
 10
-69.9832293988
 20
21.9078574539
 10
-69.9837212066
 20
21.9367668297
 10
-69.9837429033
 20
21.9577943958
 10
-69.9832941142
 20
21.9705807038
 10
-69.9823825048
 20
21.974907137
  0
LWPOLYLINE
  5
705
100
AcDbEntity
  8
ASSI
100
AcDbPolyline
 62
250
  6
CONTINUOUS
 90
8
 70
0
 10
-69.9768458406
 20
21.7251138473
 10
-69.9808769838
 20
21.8284962648
 10
-69.98227589
 20
21.8715604395
 10
-69.9832293988
 20
21.9078574539
 10
-69.9837212066
 20
21.9367668297
 10
-69.9837429033
 20
21.9577943958
 10
-69.9832941142
 20
21.9705807038
 10
-69.9823825048
 20
21.974907137
  0
LWPOLYLINE
  5
706
100
AcDbEntity
  8
RACCORDO
100
AcDbPolyline
 62
250
  6
CONTINUOUS
 90
7
 70
0
 10
-69.9808771746
 20
-21.8285000934
 10
-69.9822760374
 20
-21.8715635622
 10
-69.9832294982
 20
-21.90785972
 10
-69.9837212615
 20
-21.9367682503
 10
-69.983742923
 20
-21.9577950944
 10
-69.9832941125
 20
-21.9705808949
 10
-69.9823825002
 20
-21.9749071372
  0
LWPOLYLINE
  5
707
100
AcDbEntity
  8
0
100
AcDbPolyline
 62
250
  6
CONTINUOUS
 90
7
 70
0
 10
-69.9808771746
 20
-21.8285000934
 10
-69.9822760374
 20
-21.8715635622
 10
-69.9832294982
 20
-21.90785972
 10
-69.9837212615
 20
-21.9367682503
 10
-69.983742923
 20
-21.9577950944
 10
-69.9832941125
 20
-21.9705808949
 10
-69.9823825002
 20
-21.9749071372
  0
LWPOLYLINE
  5
708
100
AcDbEntity
  8
ASSI
100
AcDbPolyline
 62
250
  6
CONTINUOUS
 90
7
 70
0
 10
-69.9808771746
 20
-21.8285000934
 10
-69.9822760374
 20
-21.8715635622
 10
-69.9832294982
 20
-21.90785972
 10
-69.9837212615
 20
-21.9367682503
 10
-69.983742923
 20
-21.9577950944
 10
-69.9832941125
 20
-21.9705808949
 10
-69.9823825002
 20
-21.9749071372
  0
LINE
  5
709
100
AcDbEntity
  8
RACCORDO
100
AcDbLine
 62
250
  6
CONTINUOUS
 10
-69.9768460753
 20
-21.7251181902
 11
-69.9808771746
 21
-21.8285000934
  0
LINE
  5
70A
100
AcDbEntity
  8
0
100
AcDbLine
 62
250
  6
CONTINUOUS
 10
-69.9768460753
 20
-21.7251181902
 11
-69.9808771746
 21
-21.8285000934
  0
LINE
  5
70B
100
AcDbEntity
  8
ASSI
100
AcDbLine
 62
250
  6
CONTINUOUS
 10
-69.9768460753
 20
-21.7251181902
 11
-69.9808771746
 21
-21.8285000934
  0
LINE
  5
70C
100
AcDbEntity
  8
RACCORDO
100
AcDbLine
 62
250
  6
CONTINUOUS
 10
-69.9714105953
 20
-21.604751172
 11
-69.9768460753
 21
-21.7251181902
  0
LINE
  5
70D
100
AcDbEntity
  8
0
100
AcDbLine
 62
250
  6
CONTINUOUS
 10
-69.9714105953
 20
-21.604751172
 11
-69.9768460753
 21
-21.7251181902
  0
LINE
  5
70E
100
AcDbEntity
  8
ASSI
100
AcDbLine
 62
250
  6
CONTINUOUS
 10
-69.9714105953
 20
-21.604751172
 11
-69.9768460753
 21
-21.7251181902
  0
LINE
  5
70F
100
AcDbEntity
  8
RACCORDO
100
AcDbLine
 62
250
  6
CONTINUOUS
 10
-69.9649407253
 20
-21.4755923698
 11
-69.9714105953
 21
-21.604751172
  0
LINE
  5
710
100
AcDbEntity
  8
0
100
AcDbLine
 62
250
  6
CONTINUOUS
 10
-69.9649407253
 20
-21.4755923698
 11
-69.9714105953
 21
-21.604751172
  0
LINE
  5
711
100
AcDbEntity
  8
ASSI
100
AcDbLine
 62
250
  6
CONTINUOUS
 10
-69.9649407253
 20
-21.4755923698
 11
-69.9714105953
 21
-21.604751172
  0
LINE
  5
712
100
AcDbEntity
  8
0
100
AcDbLine
 62
7
  6
CONTINUOUS
 10
-71.4212849004
 20
-4.8
 11
-71.550320324
 21
-5.25
  0
LINE
  5
713
100
AcDbEntity
  8
0
100
AcDbLine
 62
7
  6
CONTINUOUS
 10
-73.5209700602
 20
-14.1
 11
-73.3919346366
 21
-13.65
  0
LINE
  5
714
100
AcDbEntity
  8
0
100
AcDbLine
 62
7
  6
CONTINUOUS
 10
-72.7209700602
 20
-14.1
 11
-72.5919346366
 21
-13.65
  0
LINE
  5
715
100
AcDbEntity
  8
DRAFT
100
AcDbLine
 62
7
  6
CONTINUOUS
 10
-51.8711274803
 20
19.8
 11
-52.6476166146
 21
19.0235108657
  0
LINE
  5
716
100
AcDbEntity
  8
ASSI
100
AcDbLine
 62
7
  6
CONTINUOUS
 10
-51.8711274803
 20
19.8
 11
-52.6476166146
 21
19.0235108657
  0
LINE
  5
717
100
AcDbEntity
  8
0
100
AcDbLine
 62
7
  6
CONTINUOUS
 10
-45.8809568409
 20
-8.0117143263
 11
-46.3711274803
 21
-8.0545987005
  0
LINE
  5
718
100
AcDbEntity
  8
0
100
AcDbLine
 62
250
  6
CONTINUOUS
 10
-48.86515912
 20
-7.867340083
 11
-48.8711274803
 21
-7.867672595
  0
LINE
  5
719
100
AcDbEntity
  8
0
100
AcDbLine
 62
250
  6
CONTINUOUS
 10
-48.7194081517
 20
-7.8613642782
 11
-48.86515912
 21
-7.867340083
  0
LINE
  5
71A
100
AcDbEntity
  8
0
100
AcDbLine
 62
7
  6
CONTINUOUS
 10
-45.7470614783
 20
-8.0
 11
-48.8711274803
 21
-8.1090947887
  0
LINE
  5
71B
100
AcDbEntity
  8
0
100
AcDbLine
 62
250
  6
CONTINUOUS
 10
-45.7469948047
 20
-7.7499976485
 11
-48.7194081517
 21
-7.8613642782
  0
LWPOLYLINE
  5
71C
100
AcDbEntity
  8
0
100
AcDbPolyline
 62
250
  6
CONTINUOUS
 90
25
 70
0
 10
-45.7469948047
 20
-7.7499976485
 10
-45.5101352635
 20
-7.7427280411
 10
-45.2767819749
 20
-7.7220458318
 10
-45.046934939
 20
-7.6879510205
 10
-44.8202756303
 20
-7.6403073168
 10
-44.5971225743
 20
-7.5792510112
 10
-44.3784313468
 20
-7.505190975
 10
-44.163798621
 20
-7.417890182
 10
-43.9536277239
 20
-7.3175856585
 10
-43.7500842121
 20
-7.2053973552
 10
-43.5530908188
 20
-7.0812723444
 10
-43.3627248109
 20
-6.9452635539
 10
-43.1813835459
 20
-6.7986497172
 10
-43.009315923
 20
-6.6413074705
 10
-42.8462730431
 20
-6.4733601775
 10
-42.6939055657
 20
-6.2964566628
 10
-42.5522875619
 20
-6.1104141261
 10
-42.4213449607
 20
-5.9154153677
 10
-42.3025062086
 20
-5.7136576131
 10
-42.1958022661
 20
-5.5049798799
 10
-42.1012021727
 20
-5.2895431506
 10
-42.0200414935
 20
-5.0700275971
 10
-41.9527654169
 20
-4.8473266103
 10
-41.8989287545
 20
-4.6205467994
 10
-41.8585315063
 20
-4.3896881644
  0
LINE
  5
71D
100
AcDbEntity
  8
0
100
AcDbLine
 62
250
  6
CONTINUOUS
 10
-79.6711274803
 20
-9.45
 11
-79.0711274803
 21
-9.45
  0
LINE
  5
71E
100
AcDbEntity
  8
0
100
AcDbLine
 62
250
  6
CONTINUOUS
 10
-59.5711274803
 20
-9.45
 11
-60.3711274803
 21
-9.45
  0
LINE
  5
71F
100
AcDbEntity
  8
DRAFT
100
AcDbLine
 62
7
  6
CONTINUOUS
 10
-52.6476166146
 20
-19.0235108657
 11
-51.8711274803
 21
-19.8
  0
LINE
  5
720
100
AcDbEntity
  8
ASSI
100
AcDbLine
 62
7
  6
CONTINUOUS
 10
-52.6476166146
 20
-19.0235108657
 11
-51.8711274803
 21
-19.8
  0
LINE
  5
721
100
AcDbEntity
  8
0
100
AcDbLine
 62
7
  6
CONTINUOUS
 10
-71.9209700602
 20
-14.1
 11
-71.7919346366
 21
-13.65
  0
LINE
  5
722
100
AcDbEntity
  8
0
100
AcDbLine
 62
7
  6
CONTINUOUS
 10
-79.0711274803
 20
-5.25
 11
-78.750320324
 21
-5.25
  0
LINE
  5
723
100
AcDbEntity
  8
0
100
AcDbLine
 62
7
  6
CONTINUOUS
 10
-71.550320324
 20
-5.25
 11
-71.7919346366
 21
-5.25
  0
LINE
  5
724
100
AcDbEntity
  8
0
100
AcDbLine
 62
7
  6
CONTINUOUS
 10
-72.350320324
 20
-5.25
 11
-72.5919346366
 21
-5.25
  0
LINE
  5
725
100
AcDbEntity
  8
0
100
AcDbLine
 62
7
  6
CONTINUOUS
 10
-73.150320324
 20
-5.25
 11
-73.3919346366
 21
-5.25
  0
LINE
  5
726
100
AcDbEntity
  8
0
100
AcDbLine
 62
7
  6
CONTINUOUS
 10
-73.950320324
 20
-5.25
 11
-74.1919346366
 21
-5.25
  0
LINE
  5
727
100
AcDbEntity
  8
0
100
AcDbLine
 62
7
  6
CONTINUOUS
 10
-74.750320324
 20
-5.25
 11
-74.9919346366
 21
-5.25
  0
LINE
  5
728
100
AcDbEntity
  8
0
100
AcDbLine
 62
7
  6
CONTINUOUS
 10
-75.550320324
 20
-5.25
 11
-75.7919346366
 21
-5.25
  0
LINE
  5
729
100
AcDbEntity
  8
0
100
AcDbLine
 62
7
  6
CONTINUOUS
 10
-76.350320324
 20
-5.25
 11
-76.5919346366
 21
-5.25
  0
LINE
  5
72A
100
AcDbEntity
  8
0
100
AcDbLine
 62
7
  6
CONTINUOUS
 10
-77.150320324
 20
-5.25
 11
-77.3919346366
 21
-5.25
  0
LINE
  5
72B
100
AcDbEntity
  8
0
100
AcDbLine
 62
7
  6
CONTINUOUS
 10
-77.950320324
 20
-5.25
 11
-78.1919346366
 21
-5.25
  0
LINE
  5
72C
100
AcDbEntity
  8
0
100
AcDbLine
 62
7
  6
CONTINUOUS
 10
-78.6212849004
 20
-4.8
 11
-78.3209700602
 21
-4.8
  0
LINE
  5
72D
100
AcDbEntity
  8
0
100
AcDbLine
 62
7
  6
CONTINUOUS
 10
-77.8212849004
 20
-4.8
 11
-77.5209700602
 21
-4.8
  0
LINE
  5
72E
100
AcDbEntity
  8
0
100
AcDbLine
 62
7
  6
CONTINUOUS
 10
-77.0212849004
 20
-4.8
 11
-76.7209700602
 21
-4.8
  0
LINE
  5
72F
100
AcDbEntity
  8
0
100
AcDbLine
 62
7
  6
CONTINUOUS
 10
-76.2212849004
 20
-4.8
 11
-75.9209700602
 21
-4.8
  0
LINE
  5
730
100
AcDbEntity
  8
0
100
AcDbLine
 62
7
  6
CONTINUOUS
 10
-75.4212849004
 20
-4.8
 11
-75.1209700602
 21
-4.8
  0
LINE
  5
731
100
AcDbEntity
  8
0
100
AcDbLine
 62
7
  6
CONTINUOUS
 10
-74.6212849004
 20
-4.8
 11
-74.3209700602
 21
-4.8
  0
LINE
  5
732
100
AcDbEntity
  8
0
100
AcDbLine
 62
7
  6
CONTINUOUS
 10
-73.8212849004
 20
-4.8
 11
-73.5209700602
 21
-4.8
  0
LINE
  5
733
100
AcDbEntity
  8
0
100
AcDbLine
 62
7
  6
CONTINUOUS
 10
-73.0212849004
 20
-4.8
 11
-72.7209700602
 21
-4.8
  0
LINE
  5
734
100
AcDbEntity
  8
0
100
AcDbLine
 62
7
  6
CONTINUOUS
 10
-72.2212849004
 20
-4.8
 11
-71.9209700602
 21
-4.8
  0
LINE
  5
735
100
AcDbEntity
  8
0
100
AcDbLine
 62
7
  6
CONTINUOUS
 10
-71.4212849004
 20
-4.8
 11
-71.3480644961
 21
-4.8
  0
LINE
  5
736
100
AcDbEntity
  8
0
100
AcDbLine
 62
7
  6
CONTINUOUS
 10
-41.577674665
 20
-4.15
 11
-40.6511274803
 21
-4.15
  0
LINE
  5
737
100
AcDbEntity
  8
0
100
AcDbLine
 62
7
  6
CONTINUOUS
 10
-45.2591843412
 20
-7.9707182259
 11
-45.2515858077
 21
-7.9723196171
  0
LINE
  5
738
100
AcDbEntity
  8
0
100
AcDbLine
 62
7
  6
CONTINUOUS
 10
-61.8711274803
 20
22.4
 11
-61.8711274803
 21
21.8997711479
  0
LINE
  5
739
100
AcDbEntity
  8
RACCORDO
100
AcDbLine
 62
7
  6
CONTINUOUS
 10
-61.8711274803
 20
22.4
 11
-61.8711274803
 21
-22.3988907273
  0
LINE
  5
73A
100
AcDbEntity
  8
0
100
AcDbLine
 62
7
  6
CONTINUOUS
 10
-61.8711274803
 20
-21.8997711479
 11
-61.8711274803
 21
-22.4
  0
LINE
  5
73B
100
AcDbEntity
  8
DRAFT
100
AcDbLine
 62
7
  6
CONTINUOUS
 10
-61.8711274803
 20
-22.4295193807
 11
-61.8711274803
 21
-23.5
  0
LINE
  5
73C
100
AcDbEntity
  8
ASSI
100
AcDbLine
 62
7
  6
CONTINUOUS
 10
-61.8711274803
 20
-22.4295193807
 11
-61.8711274803
 21
-23.5
  0
LINE
  5
73D
100
AcDbEntity
  8
ASSI
100
AcDbLine
 62
7
  6
CONTINUOUS
 10
-61.8711274803
 20
-22.4
 11
-61.8711274803
 21
22.4
  0
LINE
  5
73E
100
AcDbEntity
  8
DRAFT
100
AcDbLine
 62
7
  6
CONTINUOUS
 10
-61.8711274803
 20
22.4295193807
 11
-61.8711274803
 21
23.5
  0
LINE
  5
73F
100
AcDbEntity
  8
ASSI
100
AcDbLine
 62
7
  6
CONTINUOUS
 10
-61.8711274803
 20
22.4295193807
 11
-61.8711274803
 21
23.5
  0
LINE
  5
740
100
AcDbEntity
  8
0
100
AcDbLine
 62
250
  6
CONTINUOUS
 10
-78.3209700602
 20
-10.5187445693
 11
-78.1919346366
 21
-10.4153176755
  0
LINE
  5
741
100
AcDbEntity
  8
0
100
AcDbLine
 62
250
  6
CONTINUOUS
 10
-77.5209700602
 20
-10.5187445693
 11
-77.3919346366
 21
-10.4153176755
  0
LINE
  5
742
100
AcDbEntity
  8
0
100
AcDbLine
 62
250
  6
CONTINUOUS
 10
-76.7209700602
 20
-10.5187445693
 11
-76.5919346366
 21
-10.4153176755
  0
LINE
  5
743
100
AcDbEntity
  8
0
100
AcDbLine
 62
250
  6
CONTINUOUS
 10
-75.9209700602
 20
-10.5187445693
 11
-75.7919346366
 21
-10.4153176755
  0
LWPOLYLINE
  5
744
100
AcDbEntity
  8
0
100
AcDbPolyline
 62
250
  6
CONTINUOUS
 90
16
 70
0
 10
-40.8976296766
 20
15.7207930263
 10
-40.8972833881
 20
15.7210066078
 10
-40.8958096885
 20
15.7219252758
 10
-40.8945106299
 20
15.7227453663
 10
-40.8933748465
 20
15.7234732315
 10
-40.892392762
 20
15.72411407
 10
-40.8915683437
 20
15.7246638759
 10
-40.8908989624
 20
15.7251220647
 10
-40.8903520788
 20
15.7255083306
 10
-40.8898929634
 20
15.7258457397
 10
-40.8895125769
 20
15.7261407183
 10
-40.8892159644
 20
15.7263890735
 10
-40.8890002571
 20
15.7265921514
 10
-40.8888615987
 20
15.7267519801
 10
-40.8887958232
 20
15.726870906
 10
-40.8887990045
 20
15.7269510642
  0
LINE
  5
745
100
AcDbEntity
  8
0
100
AcDbLine
 62
7
  6
CONTINUOUS
 10
-40.4611960806
 20
-0.9492147638
 11
-39.8511274803
 21
-0.9080095866
  0
LINE
  5
746
100
AcDbEntity
  8
0
100
AcDbLine
 62
7
  6
CONTINUOUS
 10
-60.053677732
 20
-2.4144698719
 11
-60.3711274803
 21
-2.4255554614
  0
LINE
  5
747
100
AcDbEntity
  8
RACCORDO
100
AcDbLine
 62
7
  6
CONTINUOUS
 10
-60.3711274803
 20
18.2295031644
 11
-60.3711274803
 21
-18.2294085613
  0
LINE
  5
748
100
AcDbEntity
  8
ASSI
100
AcDbLine
 62
7
  6
CONTINUOUS
 10
-60.3711274803
 20
18.2295031644
 11
-60.3711274803
 21
-18.2294085613
  0
LINE
  5
749
100
AcDbEntity
  8
0
100
AcDbLine
 62
250
  6
CONTINUOUS
 10
-60.0536791965
 20
2.241469923
 11
-60.053677732
 21
16.3125301281
  0
LINE
  5
74A
100
AcDbEntity
  8
0
100
AcDbLine
 62
250
  6
CONTINUOUS
 10
-60.0536791965
 20
-16.485530077
 11
-60.053677732
 21
-2.4144698719
  0
LINE
  5
74B
100
AcDbEntity
  8
RACCORDO
100
AcDbLine
 62
7
  6
CONTINUOUS
 10
-59.5711274803
 20
18.9630903017
 11
-59.5711274803
 21
17.6033110157
  0
LINE
  5
74C
100
AcDbEntity
  8
RACCORDO
100
AcDbLine
 62
7
  6
CONTINUOUS
 10
-59.5711274803
 20
-18.9630903017
 11
-59.5711274803
 21
-17.6033110157
  0
LINE
  5
74D
100
AcDbEntity
  8
0
100
AcDbLine
 62
7
  6
CONTINUOUS
 10
-59.5711274803
 20
-17.6033110157
 11
-59.5711274803
 21
17.6033110157
  0
LINE
  5
74E
100
AcDbEntity
  8
0
100
AcDbLine
 62
250
  6
CONTINUOUS
 10
-75.1209700602
 20
-10.5187445693
 11
-74.9919346366
 21
-10.4153176755
  0
LINE
  5
74F
100
AcDbEntity
  8
0
100
AcDbLine
 62
250
  6
CONTINUOUS
 10
-74.3209700602
 20
-10.5187445693
 11
-74.1919346366
 21
-10.4153176755
  0
LINE
  5
750
100
AcDbEntity
  8
0
100
AcDbLine
 62
250
  6
CONTINUOUS
 10
-73.5209700602
 20
-10.5187445693
 11
-73.3919346366
 21
-10.4153176755
  0
LINE
  5
751
100
AcDbEntity
  8
0
100
AcDbLine
 62
250
  6
CONTINUOUS
 10
-72.7209700602
 20
-10.5187445693
 11
-72.5919346366
 21
-10.4153176755
  0
LWPOLYLINE
  5
752
100
AcDbEntity
  8
0
100
AcDbPolyline
 62
7
  6
CONTINUOUS
 90
19
 70
0
 10
-40.6511274803
 20
-0.9401307503
 10
-40.5809155967
 20
-0.9413499139
 10
-40.5122219326
 20
-0.9448395056
 10
-40.4450464878
 20
-0.9505995254
 10
-40.3788826866
 20
-0.9587093807
 10
-40.3142371047
 20
-0.969089664
 10
-40.2526294698
 20
-0.9815021536
 10
-40.1943553748
 20
-0.9959180774
 10
-40.1391192266
 20
-1.0123662074
 10
-40.0875539744
 20
-1.030694637
 10
-40.039091097
 20
-1.0511978841
 10
-39.9942991154
 20
-1.0735814308
 10
-39.9555165421
 20
-1.0968098162
 10
-39.9236180006
 20
-1.1204624885
 10
-39.8977288673
 20
-1.1449599994
 10
-39.8775637845
 20
-1.170528544
 10
-39.8630276327
 20
-1.1972435206
 10
-39.8542155313
 20
-1.2250295309
 10
-39.8511274803
 20
-1.2538865748
  0
LINE
  5
753
100
AcDbEntity
  8
0
100
AcDbLine
 62
7
  6
CONTINUOUS
 10
-39.8511274803
 20
-1.2144487931
 11
-39.8577121703
 21
-1.2140040508
  0
LINE
  5
754
100
AcDbEntity
  8
0
100
AcDbLine
 62
250
  6
CONTINUOUS
 10
-41.6154954442
 20
-4.4256555634
 11
-41.8585315063
 21
-4.3896881644
  0
LINE
  5
755
100
AcDbEntity
  8
DRAFT
100
AcDbLine
 62
7
  6
CONTINUOUS
 10
-57.8711274803
 20
23.4650925288
 11
-57.8711274803
 21
21.2
  0
LINE
  5
756
100
AcDbEntity
  8
ASSI
100
AcDbLine
 62
7
  6
CONTINUOUS
 10
-57.8711274803
 20
23.4650925288
 11
-57.8711274803
 21
21.2
  0
LINE
  5
757
100
AcDbEntity
  8
DRAFT
100
AcDbLine
 62
7
  6
CONTINUOUS
 10
-57.8711274803
 20
-21.2
 11
-57.8711274803
 21
-23.4650925288
  0
LINE
  5
758
100
AcDbEntity
  8
ASSI
100
AcDbLine
 62
7
  6
CONTINUOUS
 10
-57.8711274803
 20
-21.2
 11
-57.8711274803
 21
-23.4650925288
  0
LWPOLYLINE
  5
759
100
AcDbEntity
  8
0
100
AcDbPolyline
 62
7
  6
CONTINUOUS
 90
4
 70
0
 43
0.3500000006
 10
-57.8325563965
 20
42.6785724792
 10
-57.8325563965
 20
43.5357149506
 10
-57.4039828949
 20
43.9642839203
 10
-56.7611294403
 20
43.9642839203
  0
LINE
  5
75A
100
AcDbEntity
  8
0
100
AcDbLine
 62
250
  6
CONTINUOUS
 10
-71.9209700602
 20
-10.5187445693
 11
-71.7919346366
 21
-10.4153176755
  0
LINE
  5
75B
100
AcDbEntity
  8
0
100
AcDbLine
 62
7
  6
CONTINUOUS
 10
-40.9518498927
 20
1.15
 11
-40.6511274803
 21
1.15
  0
LINE
  5
75C
100
AcDbEntity
  8
0
100
AcDbLine
 62
7
  6
CONTINUOUS
 10
-60.053677732
 20
2.2414698719
 11
-60.3711274803
 21
2.2525554614
  0
LINE
  5
75D
100
AcDbEntity
  8
DRAFT
100
AcDbLine
 62
7
  6
CONTINUOUS
 10
-56.1711274803
 20
-21.1851643248
 11
-56.1711274803
 21
-22.1851643248
  0
LINE
  5
75E
100
AcDbEntity
  8
ASSI
100
AcDbLine
 62
7
  6
CONTINUOUS
 10
-56.1711274803
 20
-21.1851643248
 11
-56.1711274803
 21
-22.1851643248
  0
LINE
  5
75F
100
AcDbEntity
  8
DRAFT
100
AcDbLine
 62
7
  6
CONTINUOUS
 10
-56.1711274803
 20
21.1851643248
 11
-56.1711274803
 21
22.1851643248
  0
LINE
  5
760
100
AcDbEntity
  8
ASSI
100
AcDbLine
 62
7
  6
CONTINUOUS
 10
-56.1711274803
 20
21.1851643248
 11
-56.1711274803
 21
22.1851643248
  0
LINE
  5
761
100
AcDbEntity
  8
RACCORDO
100
AcDbLine
 62
250
  6
CONTINUOUS
 10
-55.864147581
 20
18.9954406252
 11
-55.864147581
 21
17.5062403308
  0
LINE
  5
762
100
AcDbEntity
  8
RACCORDO
100
AcDbLine
 62
250
  6
CONTINUOUS
 10
-55.864147581
 20
-17.5062403308
 11
-55.864147581
 21
-18.9954406252
  0
LINE
  5
763
100
AcDbEntity
  8
RACCORDO
100
AcDbLine
 62
7
  6
CONTINUOUS
 10
-55.6711274803
 20
18.9971250861
 11
-55.6711274803
 21
17.5011859216
  0
LINE
  5
764
100
AcDbEntity
  8
RACCORDO
100
AcDbLine
 62
7
  6
CONTINUOUS
 10
-55.6711274803
 20
-17.5011859216
 11
-55.6711274803
 21
-18.9971250861
  0
LINE
  5
765
100
AcDbEntity
  8
0
100
AcDbLine
 62
7
  6
CONTINUOUS
 10
-72.1711275374
 20
4.0637864065
 11
-71.3549758459
 21
4.0180421137
  0
LINE
  5
766
100
AcDbEntity
  8
0
100
AcDbLine
 62
7
  6
CONTINUOUS
 10
-54.6711339456
 20
17.4749994685
 11
-54.6709947425
 21
17.4492464833
  0
LINE
  5
767
100
AcDbEntity
  8
0
100
AcDbLine
 62
7
  6
CONTINUOUS
 10
-54.6709947425
 20
17.4492464833
 11
-54.6711290819
 21
14.4755148373
  0
LWPOLYLINE
  5
768
100
AcDbEntity
  8
0
100
AcDbPolyline
 62
7
  6
CONTINUOUS
 90
4
 70
0
 10
-54.6711290948
 20
-14.4755148376
 10
-54.6709846462
 20
-17.4494835711
 10
-54.6710700515
 20
-17.4686496288
 10
-54.6711338944
 20
-17.4749994671
  0
LINE
  5
769
100
AcDbEntity
  8
0
100
AcDbLine
 62
7
  6
CONTINUOUS
 10
-40.574821669
 20
3.2243062056
 11
-40.7732293538
 21
3.2531511227
  0
LINE
  5
76A
100
AcDbEntity
  8
0
100
AcDbLine
 62
250
  6
CONTINUOUS
 10
-51.7925966354
 20
-14.4006510421
 11
-51.7787470075
 21
-14.988035006
  0
LINE
  5
76B
100
AcDbEntity
  8
0
100
AcDbLine
 62
250
  6
CONTINUOUS
 10
-51.7787470075
 20
-14.988035006
 11
-51.7683890544
 21
-15.558364645
  0
LINE
  5
76C
100
AcDbEntity
  8
0
100
AcDbLine
 62
250
  6
CONTINUOUS
 10
-51.7683890544
 20
-15.558364645
 11
-51.7636936291
 21
-15.9171121168
  0
LINE
  5
76D
100
AcDbEntity
  8
0
100
AcDbLine
 62
250
  6
CONTINUOUS
 10
-51.7636936291
 20
-15.9171121168
 11
-51.7609181452
 21
-16.2489156992
  0
LINE
  5
76E
100
AcDbEntity
  8
0
100
AcDbLine
 62
250
  6
CONTINUOUS
 10
-51.7609181452
 20
-16.2489156992
 11
-51.7601140353
 21
-16.5456888713
  0
LINE
  5
76F
100
AcDbEntity
  8
0
100
AcDbLine
 62
250
  6
CONTINUOUS
 10
-51.7609181452
 20
16.7611110947
 11
-51.7601140353
 21
16.4950456388
  0
LINE
  5
770
100
AcDbEntity
  8
DRAFT
100
AcDbLine
 62
7
  6
CONTINUOUS
 10
-51.8711274803
 20
20.0060689771
 11
-51.8711274803
 21
19.8
  0
LINE
  5
771
100
AcDbEntity
  8
ASSI
100
AcDbLine
 62
7
  6
CONTINUOUS
 10
-51.8711274803
 20
20.0060689771
 11
-51.8711274803
 21
19.8
  0
LINE
  5
772
100
AcDbEntity
  8
DRAFT
100
AcDbLine
 62
7
  6
CONTINUOUS
 10
-51.8711274803
 20
-19.8
 11
-51.8711274803
 21
-20.0060689771
  0
LINE
  5
773
100
AcDbEntity
  8
ASSI
100
AcDbLine
 62
7
  6
CONTINUOUS
 10
-51.8711274803
 20
-19.8
 11
-51.8711274803
 21
-20.0060689771
  0
LINE
  5
774
100
AcDbEntity
  8
0
100
AcDbLine
 62
250
  6
CONTINUOUS
 10
-51.7925966354
 20
-14.4006510421
 11
-51.7925966354
 21
14.4006510421
  0
LINE
  5
775
100
AcDbEntity
  8
0
100
AcDbLine
 62
250
  6
CONTINUOUS
 10
-51.7601140353
 20
16.4950456388
 11
-51.7612014191
 21
16.2023629838
  0
LWPOLYLINE
  5
776
100
AcDbEntity
  8
0
100
AcDbPolyline
 62
250
  6
CONTINUOUS
 90
12
 70
0
 10
-51.7601140353
 20
-16.5456888713
 10
-51.7612014191
 20
-16.7968460134
 10
-51.7624169195
 20
-16.9069487468
 10
-51.7640755154
 20
-17.0068896488
 10
-51.7661662338
 20
-17.0960777307
 10
-51.7686927508
 20
-17.1745858083
 10
-51.7716547317
 20
-17.2420793943
 10
-51.7750403783
 20
-17.2980106074
 10
-51.7788400668
 20
-17.3420214007
 10
-51.7830421438
 20
-17.3737969384
 10
-51.7876328819
 20
-17.3930696179
 10
-51.7925966354
 20
-17.3996230171
  0
LINE
  5
777
100
AcDbEntity
  8
0
100
AcDbLine
 62
250
  6
CONTINUOUS
 10
-51.7612014191
 20
16.2023629838
 11
-51.7640755154
 21
15.8825620388
  0
LINE
  5
778
100
AcDbEntity
  8
0
100
AcDbLine
 62
250
  6
CONTINUOUS
 10
-51.7640755154
 20
15.8825620388
 11
-51.7716547317
 21
15.3579337025
  0
LINE
  5
779
100
AcDbEntity
  8
0
100
AcDbLine
 62
250
  6
CONTINUOUS
 10
-51.7716547317
 20
15.3579337025
 11
-51.7830421438
 21
14.7913484353
  0
LINE
  5
77A
100
AcDbEntity
  8
0
100
AcDbLine
 62
250
  6
CONTINUOUS
 10
-51.7830421438
 20
14.7913484353
 11
-51.7925966354
 21
14.4006510421
  0
LINE
  5
77B
100
AcDbEntity
  8
0
100
AcDbLine
 62
7
  6
CONTINUOUS
 10
-71.297105914
 20
8.6017700497
 11
-72.1711356209
 21
8.5769997693
  0
LINE
  5
77C
100
AcDbEntity
  8
0
100
AcDbLine
 62
250
  6
CONTINUOUS
 10
-59.5711274803
 20
9.277
 11
-60.3711274803
 21
9.277
  0
LINE
  5
77D
100
AcDbEntity
  8
0
100
AcDbLine
 62
250
  6
CONTINUOUS
 10
-71.5711274803
 20
9.277
 11
-72.3711274803
 21
9.277
  0
LINE
  5
77E
100
AcDbEntity
  8
0
100
AcDbLine
 62
7
  6
CONTINUOUS
 10
-72.1711356209
 20
9.9770002307
 11
-71.2720666261
 21
9.9515203289
  0
LINE
  5
77F
100
AcDbEntity
  8
0
100
AcDbLine
 62
7
  6
CONTINUOUS
 10
-40.5913641028
 20
6.2582493161
 11
-40.3924998782
 21
6.2293380263
  0
LINE
  5
780
100
AcDbEntity
  8
0
100
AcDbLine
 62
7
  6
CONTINUOUS
 10
-48.8711274803
 20
-14.4006510421
 11
-48.8711274803
 21
14.4006510421
  0
LINE
  5
781
100
AcDbEntity
  8
0
100
AcDbLine
 62
250
  6
CONTINUOUS
 10
-40.4711274803
 20
11.4
 11
-40.7167643787
 21
11.4
  0
LINE
  5
782
100
AcDbEntity
  8
0
100
AcDbLine
 62
250
  6
CONTINUOUS
 10
-45.9209993767
 20
-7.8334896182
 11
-45.9234846996
 21
-7.7561608114
  0
LINE
  5
783
100
AcDbEntity
  8
0
100
AcDbLine
 62
250
  6
CONTINUOUS
 10
-45.9197061426
 20
-7.8811649589
 11
-45.9209993767
 21
-7.8334896182
  0
LINE
  5
784
100
AcDbEntity
  8
0
100
AcDbLine
 62
250
  6
CONTINUOUS
 10
-45.9187695035
 20
-7.9233196031
 11
-45.9197061426
 21
-7.8811649589
  0
LINE
  5
785
100
AcDbEntity
  8
0
100
AcDbLine
 62
250
  6
CONTINUOUS
 10
-45.7454952029
 20
-7.8274622182
 11
-45.7469948047
 21
-7.7499976485
  0
LINE
  5
786
100
AcDbEntity
  8
0
100
AcDbLine
 62
250
  6
CONTINUOUS
 10
-45.7447850469
 20
-7.8749802711
 11
-45.7454952029
 21
-7.8274622182
  0
LINE
  5
787
100
AcDbEntity
  8
0
100
AcDbLine
 62
7
  6
CONTINUOUS
 10
-46.3711274803
 20
-8.0545987005
 11
-46.3711274803
 21
-8.021792865
  0
LINE
  5
788
100
AcDbEntity
  8
0
100
AcDbLine
 62
250
  6
CONTINUOUS
 10
-45.9234846996
 20
-7.7561608114
 11
-45.9234846996
 21
14.4006510421
  0
LWPOLYLINE
  5
789
100
AcDbEntity
  8
0
100
AcDbPolyline
 62
250
  6
CONTINUOUS
 90
7
 70
0
 10
-46.5178819797
 20
17.2113770369
 10
-46.5178788302
 20
17.2260646474
 10
-46.517964011
 20
17.2384775469
 10
-46.5181384855
 20
17.2483846069
 10
-46.5184017941
 20
17.2556135099
 10
-46.5187527406
 20
17.2600333182
 10
-46.5191888894
 20
17.2615339754
  0
LINE
  5
78A
100
AcDbEntity
  8
0
100
AcDbLine
 62
250
  6
CONTINUOUS
 10
-46.5181417215
 20
17.1761653988
 11
-46.5178819797
 21
17.2113770369
  0
LINE
  5
78B
100
AcDbEntity
  8
0
100
AcDbLine
 62
250
  6
CONTINUOUS
 10
-46.518713434
 20
17.1347255003
 11
-46.5181417215
 21
17.1761653988
  0
LINE
  5
78C
100
AcDbEntity
  8
0
100
AcDbLine
 62
250
  6
CONTINUOUS
 10
-46.5201028535
 20
17.06368244
 11
-46.518713434
 21
17.1347255003
  0
LINE
  5
78D
100
AcDbEntity
  8
0
100
AcDbLine
 62
250
  6
CONTINUOUS
 10
-46.5213700249
 20
17.0116196442
 11
-46.5201028535
 21
17.06368244
  0
LINE
  5
78E
100
AcDbEntity
  8
0
100
AcDbLine
 62
250
  6
CONTINUOUS
 10
-40.4711274803
 20
14.1806892821
 11
-40.7167643787
 21
14.180689301
  0
LINE
  5
78F
100
AcDbEntity
  8
0
100
AcDbLine
 62
250
  6
CONTINUOUS
 10
-40.4716178695
 20
14.2
 11
-40.4711274803
 21
14.2
  0
LINE
  5
790
100
AcDbEntity
  8
0
100
AcDbLine
 62
250
  6
CONTINUOUS
 10
-51.7925966354
 20
14.4006510421
 11
-45.9234846996
 21
14.4006510421
  0
LINE
  5
791
100
AcDbEntity
  8
0
100
AcDbLine
 62
250
  6
CONTINUOUS
 10
-59.5711274803
 20
14.475
 11
-54.67111657
 21
14.4755137495
  0
LINE
  5
792
100
AcDbEntity
  8
0
100
AcDbLine
 62
250
  6
CONTINUOUS
 10
-51.7925966354
 20
14.4006510421
 11
-54.67111657
 21
14.4755137495
  0
LINE
  5
793
100
AcDbEntity
  8
0
100
AcDbLine
 62
250
  6
CONTINUOUS
 10
-43.3912837234
 20
17.1318373595
 11
-43.3915207601
 21
17.0969799355
  0
LINE
  5
794
100
AcDbEntity
  8
0
100
AcDbLine
 62
250
  6
CONTINUOUS
 10
-43.3915207601
 20
17.0969799355
 11
-43.3920893285
 21
17.0548200139
  0
LINE
  5
795
100
AcDbEntity
  8
0
100
AcDbLine
 62
250
  6
CONTINUOUS
 10
-43.3920893285
 20
17.0548200139
 11
-43.3935098958
 21
16.9818410714
  0
LINE
  5
796
100
AcDbEntity
  8
0
100
AcDbLine
 62
250
  6
CONTINUOUS
 10
-43.3935098958
 20
16.9818410714
 11
-43.3947777708
 21
16.9297469446
  0
LWPOLYLINE
  5
797
100
AcDbEntity
  8
0
100
AcDbPolyline
 62
250
  6
CONTINUOUS
 90
8
 70
0
 10
-45.9191229271
 20
-8.0060085182
 10
-45.9187143065
 20
-8.0046169737
 10
-45.9184064878
 20
-8.0004944376
 10
-45.9182025821
 20
-7.9936934527
 10
-45.91810455
 20
-7.9842964468
 10
-45.9181131634
 20
-7.9724127657
 10
-45.9182280785
 20
-7.9581755997
 10
-45.9187695035
 20
-7.9233196031
  0
LWPOLYLINE
  5
798
100
AcDbEntity
  8
0
100
AcDbPolyline
 62
250
  6
CONTINUOUS
 90
10
 70
0
 10
-45.7470614783
 20
-8.0
 10
-45.7463302094
 20
-7.9985890906
 10
-45.7457114752
 20
-7.9944389804
 10
-45.7452079856
 20
-7.9876134967
 10
-45.7448242136
 20
-7.9782170711
 10
-45.7445573352
 20
-7.9663629993
 10
-45.7443984185
 20
-7.9521449118
 10
-45.7443463351
 20
-7.935676637
 10
-45.7443996311
 20
-7.9171565427
 10
-45.7447850469
 20
-7.8749802711
  0
LINE
  5
799
100
AcDbEntity
  8
0
100
AcDbLine
 62
7
  6
CONTINUOUS
 10
-71.1594528452
 20
14.5468844159
 11
-72.1711275374
 21
14.4902135935
  0
LINE
  5
79A
100
AcDbEntity
  8
0
100
AcDbLine
 62
7
  6
CONTINUOUS
 10
-60.053677732
 20
16.3125301281
 11
-60.3711274803
 21
16.3014445386
  0
LINE
  5
79B
100
AcDbEntity
  8
RACCORDO
100
AcDbLine
 62
250
  6
CONTINUOUS
 10
-60.3711274803
 20
16.4544358981
 11
-61.8711274803
 21
16.4633443083
  0
LINE
  5
79C
100
AcDbEntity
  8
ASSI
100
AcDbLine
 62
250
  6
CONTINUOUS
 10
-60.3711274803
 20
16.4544358981
 11
-61.8711274803
 21
16.4633443083
  0
LWPOLYLINE
  5
79D
100
AcDbEntity
  8
0
100
AcDbPolyline
 62
250
  6
CONTINUOUS
 90
10
 70
0
 10
-41.8585315063
 20
-4.3896881644
 10
-41.6190539259
 20
-2.6375478803
 10
-41.4077088811
 20
-0.8846005505
 10
-41.224496372
 20
0.8691538248
 10
-41.0693882572
 20
2.6240348025
 10
-40.9424126781
 20
4.3797228257
 10
-40.8436540583
 20
6.1352592241
 10
-40.7731405391
 20
7.8903244409
 10
-40.7308439792
 20
9.6452380329
 10
-40.7167643787
 20
11.4
  0
LINE
  5
79E
100
AcDbEntity
  8
RACCORDO
100
AcDbLine
 62
250
  6
CONTINUOUS
 10
-60.3711274803
 20
17.0643546451
 11
-61.8711274803
 21
17.0730014938
  0
LINE
  5
79F
100
AcDbEntity
  8
ASSI
100
AcDbLine
 62
250
  6
CONTINUOUS
 10
-60.3711274803
 20
17.0643546451
 11
-61.8711274803
 21
17.0730014938
  0
LINE
  5
7A0
100
AcDbEntity
  8
0
100
AcDbLine
 62
250
  6
CONTINUOUS
 10
-43.3947777708
 20
16.9297469446
 11
-46.5213700249
 21
17.0116196442
  0
LINE
  5
7A1
100
AcDbEntity
  8
0
100
AcDbLine
 62
7
  6
CONTINUOUS
 10
-46.5191888894
 20
17.2615339754
 11
-43.3925966354
 21
17.1796612759
  0
LINE
  5
7A2
100
AcDbEntity
  8
DRAFT
100
AcDbLine
 62
7
  6
CONTINUOUS
 10
-46.5191888893
 20
17.2615339754
 11
-51.7853930326
 21
17.3994343841
  0
LINE
  5
7A3
100
AcDbEntity
  8
0
100
AcDbLine
 62
7
  6
CONTINUOUS
 10
-51.7853930835
 20
17.3994324401
 11
-59.5711274803
 21
17.6033110157
  0
LINE
  5
7A4
100
AcDbEntity
  8
0
100
AcDbLine
 62
250
  6
CONTINUOUS
 10
-51.6951797379
 20
17.3967481296
 11
-51.7853930835
 21
17.3994324401
  0
LINE
  5
7A5
100
AcDbEntity
  8
0
100
AcDbLine
 62
250
  6
CONTINUOUS
 10
-51.5696654542
 20
17.3922490722
 11
-51.6951797379
 21
17.3967481296
  0
LINE
  5
7A6
100
AcDbEntity
  8
0
100
AcDbLine
 62
250
  6
CONTINUOUS
 10
-51.415152018
 20
17.3857013958
 11
-51.5696654542
 21
17.3922490722
  0
LINE
  5
7A7
100
AcDbEntity
  8
RACCORDO
100
AcDbLine
 62
7
  6
CONTINUOUS
 10
-60.3711274803
 20
18.2298208404
 11
-61.8711274803
 21
18.3006924206
  0
LINE
  5
7A8
100
AcDbEntity
  8
ASSI
100
AcDbLine
 62
7
  6
CONTINUOUS
 10
-60.3711274803
 20
18.2298208404
 11
-61.8711274803
 21
18.3006924206
  0
LINE
  5
7A9
100
AcDbEntity
  8
RACCORDO
100
AcDbLine
 62
250
  6
CONTINUOUS
 10
-60.3711274803
 20
18.1595749722
 11
-61.8711274803
 21
18.2308351883
  0
LINE
  5
7AA
100
AcDbEntity
  8
ASSI
100
AcDbLine
 62
250
  6
CONTINUOUS
 10
-60.3711274803
 20
18.1595749722
 11
-61.8711274803
 21
18.2308351883
  0
LINE
  5
7AB
100
AcDbEntity
  8
0
100
AcDbLine
 62
250
  6
CONTINUOUS
 10
-46.5213700249
 20
17.0116196442
 11
-47.1895175642
 21
17.0535905681
  0
LWPOLYLINE
  5
7AC
100
AcDbEntity
  8
0
100
AcDbPolyline
 62
250
  6
CONTINUOUS
 90
5
 70
0
 10
-50.9241229169
 20
17.3579225916
 10
-51.0313328904
 20
17.3649070426
 10
-51.1344217928
 20
17.371139191
 10
-51.2333865406
 20
17.376670802
 10
-51.415152018
 20
17.3857013958
  0
LINE
  5
7AD
100
AcDbEntity
  8
0
100
AcDbLine
 62
250
  6
CONTINUOUS
 10
-47.1895175642
 20
17.0535905681
 11
-47.8646443886
 21
17.10081343
  0
LINE
  5
7AE
100
AcDbEntity
  8
0
100
AcDbLine
 62
250
  6
CONTINUOUS
 10
-50.6959099087
 20
17.3415585733
 11
-50.9241229169
 21
17.3579225916
  0
LINE
  5
7AF
100
AcDbEntity
  8
0
100
AcDbLine
 62
250
  6
CONTINUOUS
 10
-47.8646443886
 20
17.10081343
 11
-48.3265903227
 21
17.1368109601
  0
LINE
  5
7B0
100
AcDbEntity
  8
0
100
AcDbLine
 62
250
  6
CONTINUOUS
 10
-50.4460112495
 20
17.32155468
 11
-50.6959099087
 21
17.3415585733
  0
LINE
  5
7B1
100
AcDbEntity
  8
0
100
AcDbLine
 62
250
  6
CONTINUOUS
 10
-48.3265903227
 20
17.1368109601
 11
-48.9405130146
 21
17.1876793916
  0
LINE
  5
7B2
100
AcDbEntity
  8
0
100
AcDbLine
 62
250
  6
CONTINUOUS
 10
-50.0298353748
 20
17.2856787085
 11
-50.4460112495
 21
17.32155468
  0
LINE
  5
7B3
100
AcDbEntity
  8
0
100
AcDbLine
 62
250
  6
CONTINUOUS
 10
-48.9405130146
 20
17.1876793916
 11
-50.0298353748
 21
17.2856787085
  0
LWPOLYLINE
  5
7B4
100
AcDbEntity
  8
0
100
AcDbPolyline
 62
250
  6
CONTINUOUS
 90
11
 70
0
 10
-51.7925966354
 20
17.3996230171
 10
-51.7876296876
 20
17.3930609642
 10
-51.7830052022
 20
17.3735817268
 10
-51.7787470075
 20
17.3411350035
 10
-51.7748766006
 20
17.2957127012
 10
-51.7714165454
 20
17.2373891189
 10
-51.7683890544
 20
17.1663596366
 10
-51.7658086625
 20
17.0827561247
 10
-51.7636936291
 20
16.9869232197
 10
-51.7620623808
 20
16.8796340229
 10
-51.7609181452
 20
16.7611110947
  0
LWPOLYLINE
  5
7B5
100
AcDbEntity
  8
0
100
AcDbPolyline
 62
250
  6
CONTINUOUS
 90
25
 70
0
 10
-40.7167643787
 20
14.180689301
 10
-40.723010373
 20
14.360560789
 10
-40.7402180262
 20
14.5374735466
 10
-40.7683873382
 20
14.7114275738
 10
-40.8076515372
 20
14.8827739775
 10
-40.8578773951
 20
15.0511616509
 10
-40.9186652279
 20
15.2155372729
 10
-40.9902146485
 20
15.3761914989
 10
-41.0723260441
 20
15.5328336734
 10
-41.1640008915
 20
15.6835385097
 10
-41.2653374802
 20
15.8283378061
 10
-41.3762375207
 20
15.9671997643
 10
-41.4954076221
 20
16.0981037023
 10
-41.6230728943
 20
16.2208473369
 10
-41.7590082274
 20
16.3356329513
 10
-41.9012449001
 20
16.4410467134
 10
-42.0497853745
 20
16.5369813746
 10
-42.2046271885
 20
16.6235441835
 10
-42.3637942342
 20
16.6996430538
 10
-42.5270313788
 20
16.7650829364
 10
-42.6945937551
 20
16.8200588804
 10
-42.8652706534
 20
16.8640639471
 10
-43.0386585039
 20
16.8969291569
 10
-43.2151608764
 20
16.9188234894
 10
-43.3947777708
 20
16.9297469446
  0
LINE
  5
7B6
100
AcDbEntity
  8
0
100
AcDbLine
 62
250
  6
CONTINUOUS
 10
-40.7167643787
 20
14.180689301
 11
-40.7167643787
 21
11.4
  0
LINE
  5
7B7
100
AcDbEntity
  8
0
100
AcDbLine
 62
250
  6
CONTINUOUS
 10
-40.6511274803
 20
1.15
 11
-40.6511274803
 21
-0.06258913
  0
LINE
  5
7B8
100
AcDbEntity
  8
0
100
AcDbLine
 62
7
  6
CONTINUOUS
 10
-40.6511274803
 20
-0.06258913
 11
-40.6511274803
 21
-0.9402415126
  0
LINE
  5
7B9
100
AcDbEntity
  8
0
100
AcDbLine
 62
250
  6
CONTINUOUS
 10
-40.6511274803
 20
-0.9402435035
 11
-40.6511274803
 21
-4.15
  0
LINE
  5
7BA
100
AcDbEntity
  8
0
100
AcDbLine
 62
7
  6
CONTINUOUS
 10
-40.4711274803
 20
11.4
 11
-40.4711274803
 21
14.2
  0
LINE
  5
7BB
100
AcDbEntity
  8
0
100
AcDbLine
 62
7
  6
CONTINUOUS
 10
-39.8511274803
 20
-3.3498905407
 11
-39.8511274803
 21
0.3498905407
  0
LINE
  5
7BC
100
AcDbEntity
  8
0
100
AcDbLine
 62
7
  6
CONTINUOUS
 10
-49.8646190695
 20
-16.6308754635
 11
-49.8260285425
 21
-16.5955832061
  0
LINE
  5
7BD
100
AcDbEntity
  8
0
100
AcDbLine
 62
7
  6
CONTINUOUS
 10
-49.9098394799
 20
-16.6708157615
 11
-49.8646190695
 21
-16.6308754635
  0
LINE
  5
7BE
100
AcDbEntity
  8
0
100
AcDbLine
 62
7
  6
CONTINUOUS
 10
-49.9539367409
 20
-16.7083385322
 11
-49.9048172257
 21
-16.6665033564
  0
LINE
  5
7BF
100
AcDbEntity
  8
0
100
AcDbLine
 62
7
  6
CONTINUOUS
 10
-49.9967241268
 20
-16.7433947994
 11
-49.9491513331
 21
-16.7044191175
  0
LINE
  5
7C0
100
AcDbEntity
  8
0
100
AcDbLine
 62
7
  6
CONTINUOUS
 10
-50.0383731526
 20
-16.7762457231
 11
-49.9926334096
 21
-16.7401870945
  0
LINE
  5
7C1
100
AcDbEntity
  8
0
100
AcDbLine
 62
7
  6
CONTINUOUS
 10
-50.0638396032
 20
-16.7957221469
 11
-50.0347677586
 21
-16.7735219141
  0
LINE
  5
7C2
100
AcDbEntity
  8
0
100
AcDbLine
 62
7
  6
CONTINUOUS
 10
-50.2827062297
 20
-16.9457112083
 11
-50.2653145181
 21
-16.9346940247
  0
LWPOLYLINE
  5
7C3
100
AcDbEntity
  8
0
100
AcDbPolyline
 62
7
  6
CONTINUOUS
 90
3
 70
0
 10
-50.3161948812
 20
-16.9664586607
 10
-50.2988766854
 20
-16.9558154946
 10
-50.2807194008
 20
-16.9444556441
  0
LINE
  5
7C4
100
AcDbEntity
  8
0
100
AcDbLine
 62
7
  6
CONTINUOUS
 10
-50.3407282121
 20
-16.9812281542
 11
-50.3161948812
 21
-16.9664586607
  0
LINE
  5
7C5
100
AcDbEntity
  8
0
100
AcDbLine
 62
7
  6
CONTINUOUS
 10
-52.6476166146
 20
19.0235108657
 11
-61.8711274803
 21
18.9430185058
  0
LINE
  5
7C6
100
AcDbEntity
  8
ASSI
100
AcDbLine
 62
7
  6
CONTINUOUS
 10
-52.6476166146
 20
19.0235108657
 11
-61.8711274803
 21
18.9430185058
  0
LWPOLYLINE
  5
7C7
100
AcDbEntity
  8
RACCORDO
100
AcDbPolyline
 62
250
  6
CONTINUOUS
 90
3
 70
0
 10
-70.4383307823
 20
20.9972959167
 10
-70.9249850295
 20
21.0180910641
 10
-70.9291625961
 20
21.0183142302
  0
LWPOLYLINE
  5
7C8
100
AcDbEntity
  8
0
100
AcDbPolyline
 62
250
  6
CONTINUOUS
 90
3
 70
0
 10
-70.4383307823
 20
20.9972959167
 10
-70.9249850295
 20
21.0180910641
 10
-70.9291625961
 20
21.0183142302
  0
LWPOLYLINE
  5
7C9
100
AcDbEntity
  8
ASSI
100
AcDbPolyline
 62
250
  6
CONTINUOUS
 90
3
 70
0
 10
-70.4383307823
 20
20.9972959167
 10
-70.9249850295
 20
21.0180910641
 10
-70.9291625961
 20
21.0183142302
  0
LWPOLYLINE
  5
7CA
100
AcDbEntity
  8
0
100
AcDbPolyline
 62
7
  6
CONTINUOUS
 90
10
 70
0
 43
0.3500000006
 10
-58.9039833527
 20
42.7499991302
 10
-58.8325567017
 20
42.6071412964
 10
-58.8325567017
 20
42.5357146454
 10
-58.9754145355
 20
42.3928568115
 10
-59.0468411865
 20
42.3928568115
 10
-59.1182723694
 20
42.4642834625
 10
-59.1182723694
 20
42.5357146454
 10
-59.0468411865
 20
42.6785724792
 10
-58.9754145355
 20
42.7499991302
 10
-58.9039833527
 20
42.7499991302
  0
LWPOLYLINE
  5
7CB
100
AcDbEntity
  8
0
100
AcDbPolyline
 62
250
  6
CONTINUOUS
 90
10
 70
0
 10
-46.5213700249
 20
17.0116196442
 10
-46.3953500621
 20
16.7334680866
 10
-46.284182205
 20
16.4519043465
 10
-46.1878664535
 20
16.1669284239
 10
-46.1063428619
 20
15.877976097
 10
-46.039671376
 20
15.5856115876
 10
-45.9880318331
 20
15.2915275609
 10
-45.9514841789
 20
14.9962882386
 10
-45.9299684678
 20
14.699329399
 10
-45.9234846996
 20
14.4006510421
  0
LWPOLYLINE
  5
7CC
100
AcDbEntity
  8
0
100
AcDbPolyline
 62
250
  6
CONTINUOUS
 90
7
 70
0
 10
-43.3925966354
 20
17.1796612759
 10
-43.3921757302
 20
17.1782730942
 10
-43.3918318171
 20
17.1741528342
 10
-43.3915684595
 20
17.167353297
 10
-43.3913883319
 20
17.1579572908
 10
-43.3912931493
 20
17.1460743466
 10
-43.3912837234
 20
17.1318373595
  0
LWPOLYLINE
  5
7CD
100
AcDbEntity
  8
0
100
AcDbPolyline
 62
7
  6
CONTINUOUS
 90
19
 70
0
 10
-39.8511274803
 20
-0.3763449545
 10
-39.8547631242
 20
-0.3463534066
 10
-39.8641525115
 20
-0.3177226955
 10
-39.8792956422
 20
-0.2904528214
 10
-39.9002643446
 20
-0.2646487073
 10
-39.9269867903
 20
-0.2402054302
 10
-39.9592474944
 20
-0.2168082204
 10
-39.9975189062
 20
-0.1941338097
 10
-40.0413285765
 20
-0.1725054665
 10
-40.0890436719
 20
-0.1525782262
 10
-40.140411539
 20
-0.1344634626
 10
-40.1956848313
 20
-0.1180498019
 10
-40.2539886756
 20
-0.1036581588
 10
-40.3155713031
 20
-0.0913148887
 10
-40.3801844826
 20
-0.0809936361
 10
-40.4462086468
 20
-0.0729362492
 10
-40.5131039399
 20
-0.0672233438
 10
-40.5814102178
 20
-0.0637743041
 10
-40.6511274803
 20
-0.06258913
  0
LINE
  5
7CE
100
AcDbEntity
  8
DRAFT
100
AcDbLine
 62
7
  6
CONTINUOUS
 10
-51.8711274803
 20
-20.0060689771
 11
-55.6373632893
 21
-22.1805062352
  0
LINE
  5
7CF
100
AcDbEntity
  8
ASSI
100
AcDbLine
 62
7
  6
CONTINUOUS
 10
-51.8711274803
 20
-20.0060689771
 11
-55.6373632893
 21
-22.1805062352
  0
LWPOLYLINE
  5
7D0
100
AcDbEntity
  8
RACCORDO
100
AcDbPolyline
 62
250
  6
CONTINUOUS
 90
19
 70
0
 10
-69.9649407253
 20
21.4755923698
 10
-70.0060405574
 20
21.4716950654
 10
-70.0462039812
 20
21.4645922224
 10
-70.0854309966
 20
21.4542838406
 10
-70.1239873398
 20
21.4406561355
 10
-70.1616072747
 20
21.4238228918
 10
-70.1974935927
 20
21.4041254635
 10
-70.2315964644
 20
21.3815078446
 10
-70.2639657193
 20
21.3560260412
 10
-70.2939536367
 20
21.3281894262
 10
-70.3215088751
 20
21.2979562723
 10
-70.3466827761
 20
21.2653683069
 10
-70.3689816443
 20
21.2310600855
 10
-70.3883550254
 20
21.1949860366
 10
-70.4048533738
 20
21.1571917318
 10
-70.4181343569
 20
21.1184484404
 10
-70.428083864
 20
21.0790132523
 10
-70.4348160058
 20
21.0386290778
 10
-70.4383307823
 20
20.9972959167
  0
LWPOLYLINE
  5
7D1
100
AcDbEntity
  8
0
100
AcDbPolyline
 62
250
  6
CONTINUOUS
 90
19
 70
0
 10
-69.9649407253
 20
21.4755923698
 10
-70.0060405574
 20
21.4716950654
 10
-70.0462039812
 20
21.4645922224
 10
-70.0854309966
 20
21.4542838406
 10
-70.1239873398
 20
21.4406561355
 10
-70.1616072747
 20
21.4238228918
 10
-70.1974935927
 20
21.4041254635
 10
-70.2315964644
 20
21.3815078446
 10
-70.2639657193
 20
21.3560260412
 10
-70.2939536367
 20
21.3281894262
 10
-70.3215088751
 20
21.2979562723
 10
-70.3466827761
 20
21.2653683069
 10
-70.3689816443
 20
21.2310600855
 10
-70.3883550254
 20
21.1949860366
 10
-70.4048533738
 20
21.1571917318
 10
-70.4181343569
 20
21.1184484404
 10
-70.428083864
 20
21.0790132523
 10
-70.4348160058
 20
21.0386290778
 10
-70.4383307823
 20
20.9972959167
  0
LWPOLYLINE
  5
7D2
100
AcDbEntity
  8
ASSI
100
AcDbPolyline
 62
250
  6
CONTINUOUS
 90
19
 70
0
 10
-69.9649407253
 20
21.4755923698
 10
-70.0060405574
 20
21.4716950654
 10
-70.0462039812
 20
21.4645922224
 10
-70.0854309966
 20
21.4542838406
 10
-70.1239873398
 20
21.4406561355
 10
-70.1616072747
 20
21.4238228918
 10
-70.1974935927
 20
21.4041254635
 10
-70.2315964644
 20
21.3815078446
 10
-70.2639657193
 20
21.3560260412
 10
-70.2939536367
 20
21.3281894262
 10
-70.3215088751
 20
21.2979562723
 10
-70.3466827761
 20
21.2653683069
 10
-70.3689816443
 20
21.2310600855
 10
-70.3883550254
 20
21.1949860366
 10
-70.4048533738
 20
21.1571917318
 10
-70.4181343569
 20
21.1184484404
 10
-70.428083864
 20
21.0790132523
 10
-70.4348160058
 20
21.0386290778
 10
-70.4383307823
 20
20.9972959167
  0
LINE
  5
7D3
100
AcDbEntity
  8
RACCORDO
100
AcDbLine
 62
250
  6
CONTINUOUS
 10
-61.8711274803
 20
21.8997711479
 11
-69.9649407253
 21
21.4755923698
  0
LINE
  5
7D4
100
AcDbEntity
  8
0
100
AcDbLine
 62
250
  6
CONTINUOUS
 10
-61.8711274803
 20
21.8997711479
 11
-69.9649407253
 21
21.4755923698
  0
LINE
  5
7D5
100
AcDbEntity
  8
ASSI
100
AcDbLine
 62
250
  6
CONTINUOUS
 10
-61.8711274803
 20
21.8997711479
 11
-69.9649407253
 21
21.4755923698
  0
LINE
  5
7D6
100
AcDbEntity
  8
RACCORDO
100
AcDbLine
 62
7
  6
CONTINUOUS
 10
-61.8711274803
 20
22.4
 11
-69.9823825002
 21
21.9749071372
  0
LINE
  5
7D7
100
AcDbEntity
  8
0
100
AcDbLine
 62
7
  6
CONTINUOUS
 10
-61.8711274803
 20
22.4
 11
-69.9823825002
 21
21.9749071372
  0
LINE
  5
7D8
100
AcDbEntity
  8
ASSI
100
AcDbLine
 62
7
  6
CONTINUOUS
 10
-61.8711274803
 20
22.4
 11
-69.9823825002
 21
21.9749071372
  0
LINE
  5
7D9
100
AcDbEntity
  8
DRAFT
100
AcDbLine
 62
7
  6
CONTINUOUS
 10
-61.8711274803
 20
22.663166622
 11
-57.8711274803
 21
22.6454332982
  0
LINE
  5
7DA
100
AcDbEntity
  8
ASSI
100
AcDbLine
 62
7
  6
CONTINUOUS
 10
-61.8711274803
 20
22.663166622
 11
-57.8711274803
 21
22.6454332982
  0
LINE
  5
7DB
100
AcDbEntity
  8
DRAFT
100
AcDbLine
 62
7
  6
CONTINUOUS
 10
-57.8711274803
 20
21.2
 11
-53.8787300752
 21
21.1651588757
  0
LINE
  5
7DC
100
AcDbEntity
  8
ASSI
100
AcDbLine
 62
7
  6
CONTINUOUS
 10
-57.8711274803
 20
21.2
 11
-53.8787300752
 21
21.1651588757
  0
LINE
  5
7DD
100
AcDbEntity
  8
DRAFT
100
AcDbLine
 62
7
  6
CONTINUOUS
 10
-55.6373632893
 20
22.1805062352
 11
-56.1711274803
 21
22.1851643248
  0
LINE
  5
7DE
100
AcDbEntity
  8
ASSI
100
AcDbLine
 62
7
  6
CONTINUOUS
 10
-55.6373632893
 20
22.1805062352
 11
-56.1711274803
 21
22.1851643248
  0
LINE
  5
7DF
100
AcDbEntity
  8
DRAFT
100
AcDbLine
 62
7
  6
CONTINUOUS
 10
-51.8711274803
 20
20.0060689771
 11
-55.6373632893
 21
22.1805062352
  0
LINE
  5
7E0
100
AcDbEntity
  8
ASSI
100
AcDbLine
 62
7
  6
CONTINUOUS
 10
-51.8711274803
 20
20.0060689771
 11
-55.6373632893
 21
22.1805062352
  0
LINE
  5
7E1
100
AcDbEntity
  8
DRAFT
100
AcDbLine
 62
7
  6
CONTINUOUS
 10
-61.8711274803
 20
23.5
 11
-57.8711274803
 21
23.4650925288
  0
LINE
  5
7E2
100
AcDbEntity
  8
ASSI
100
AcDbLine
 62
7
  6
CONTINUOUS
 10
-61.8711274803
 20
23.5
 11
-57.8711274803
 21
23.4650925288
  0
LINE
  5
7E3
100
AcDbEntity
  8
DRAFT
100
AcDbLine
 62
7
  6
CONTINUOUS
 10
-61.8711274803
 20
23.1799085618
 11
-57.8711274803
 21
23.1409517823
  0
LINE
  5
7E4
100
AcDbEntity
  8
ASSI
100
AcDbLine
 62
7
  6
CONTINUOUS
 10
-61.8711274803
 20
23.1799085618
 11
-57.8711274803
 21
23.1409517823
  0
LWPOLYLINE
  5
7E5
100
AcDbEntity
  8
0
100
AcDbPolyline
 62
7
  6
CONTINUOUS
 90
7
 70
0
 43
0.3500000006
 10
-49.361127182
 20
32.2500004578
 10
-50.8611276398
 20
32.2500004578
 10
-49.361127182
 20
34.392858902
 10
-49.361127182
 20
34.8214278717
 10
-49.7897006836
 20
35.2500013733
 10
-50.4325541382
 20
35.2500013733
 10
-50.8611276398
 20
34.6071433868
  0
LWPOLYLINE
  5
7E6
100
AcDbEntity
  8
0
100
AcDbPolyline
 62
7
  6
CONTINUOUS
 90
7
 70
0
 43
0.3500000006
 10
-51.7182701111
 20
32.2500004578
 10
-53.2182705688
 20
32.2500004578
 10
-51.7182701111
 20
34.392858902
 10
-51.7182701111
 20
34.8214278717
 10
-52.1468436127
 20
35.2500013733
 10
-52.7896970673
 20
35.2500013733
 10
-53.2182705688
 20
34.6071433868
  0
LWPOLYLINE
  5
7E7
100
AcDbEntity
  8
0
100
AcDbPolyline
 62
7
  6
CONTINUOUS
 90
6
 70
0
 43
0.3500000006
 10
-64.0468427124
 20
42.2499989777
 10
-62.9754112244
 20
42.2499989777
 10
-62.7611267395
 20
42.4642834625
 10
-62.7611267395
 20
43.5357149506
 10
-63.1897002411
 20
43.9642839203
 10
-63.6182692108
 20
43.9642839203
  0
LWPOLYLINE
  5
7E8
100
AcDbEntity
  8
0
100
AcDbPolyline
 62
7
  6
CONTINUOUS
 90
13
 70
0
 43
0.3500000006
 10
-57.4039828949
 20
43.9642839203
 10
-57.6896985626
 20
44.178572937
 10
-57.6896985626
 20
44.8214263916
 10
-57.4039828949
 20
45.2499998932
 10
-56.7611294403
 20
45.2499998932
 10
-56.4754137726
 20
44.8214263916
 10
-56.4754137726
 20
44.178572937
 10
-56.7611294403
 20
43.9642839203
 10
-56.3325559387
 20
43.5357149506
 10
-56.3325559387
 20
42.6785724792
 10
-56.7611294403
 20
42.2499989777
 10
-57.4039828949
 20
42.2499989777
 10
-57.8325563965
 20
42.6785724792
  0
ARC
  5
7E9
100
AcDbEntity
  8
DRAFT
100
AcDbCircle
 62
7
  6
CONTINUOUS
 10
-6.3
 20
-23.1
 40
0.5
100
AcDbArc
 50
60.887577224
 51
189.196281579
  0
ARC
  5
7EA
100
AcDbEntity
  8
DRAFT
100
AcDbCircle
 62
7
  6
CONTINUOUS
 10
-16.2
 20
-23.1
 40
0.5
100
AcDbArc
 50
350.803718421
 51
119.112422776
  0
ARC
  5
7EB
100
AcDbEntity
  8
ASSI
100
AcDbCircle
 62
7
  6
CONTINUOUS
 10
-6.3
 20
-23.1
 40
0.5
100
AcDbArc
 50
60.887577224
 51
189.196281579
  0
ARC
  5
7EC
100
AcDbEntity
  8
ASSI
100
AcDbCircle
 62
7
  6
CONTINUOUS
 10
-16.2
 20
-23.1
 40
0.5
100
AcDbArc
 50
350.803718421
 51
119.112422776
  0
ARC
  5
7ED
100
AcDbEntity
  8
DRAFT
100
AcDbCircle
 62
7
  6
CONTINUOUS
 10
-22.5
 20
-0.0
 40
28.0
100
AcDbArc
 50
53.1301023542
 51
54.0372348486
  0
ARC
  5
7EE
100
AcDbEntity
  8
DRAFT
100
AcDbCircle
 62
7
  6
CONTINUOUS
 10
-22.5
 20
-0.0
 40
28.0
100
AcDbArc
 50
55.8789063483
 51
57.0647695028
  0
ARC
  5
7EF
100
AcDbEntity
  8
DRAFT
100
AcDbCircle
 62
7
  6
CONTINUOUS
 10
-22.5
 20
0.0
 40
28.0
100
AcDbArc
 50
302.9352304972
 51
304.1210936517
  0
ARC
  5
7F0
100
AcDbEntity
  8
DRAFT
100
AcDbCircle
 62
7
  6
CONTINUOUS
 10
-22.5
 20
0.0
 40
28.0
100
AcDbArc
 50
305.9627651514
 51
306.8698976458
  0
ARC
  5
7F1
100
AcDbEntity
  8
ASSI
100
AcDbCircle
 62
7
  6
CONTINUOUS
 10
-22.5
 20
-0.0
 40
28.0
100
AcDbArc
 50
53.1301023542
 51
54.0372348486
  0
ARC
  5
7F2
100
AcDbEntity
  8
ASSI
100
AcDbCircle
 62
7
  6
CONTINUOUS
 10
-22.5
 20
-0.0
 40
28.0
100
AcDbArc
 50
55.8789063483
 51
57.0647695028
  0
ARC
  5
7F3
100
AcDbEntity
  8
ASSI
100
AcDbCircle
 62
7
  6
CONTINUOUS
 10
-22.5
 20
0.0
 40
28.0
100
AcDbArc
 50
302.9352304972
 51
304.1210936517
  0
ARC
  5
7F4
100
AcDbEntity
  8
ASSI
100
AcDbCircle
 62
7
  6
CONTINUOUS
 10
-22.5
 20
0.0
 40
28.0
100
AcDbArc
 50
305.9627651514
 51
306.8698976458
  0
CIRCLE
  5
7F5
100
AcDbEntity
  8
0
100
AcDbCircle
 62
7
  6
CONTINUOUS
 10
-11.0
 20
9.277
 40
4.75
  0
CIRCLE
  5
7F6
100
AcDbEntity
  8
0
100
AcDbCircle
 62
250
  6
CONTINUOUS
 10
-11.0
 20
9.277
 40
4.4999727518
  0
CIRCLE
  5
7F7
100
AcDbEntity
  8
RACCORDO
100
AcDbCircle
 62
250
  6
CONTINUOUS
 10
-11.0
 20
9.277
 40
4.1152023307
  0
CIRCLE
  5
7F8
100
AcDbEntity
  8
RACCORDO
100
AcDbCircle
 62
7
  6
CONTINUOUS
 10
-11.0
 20
9.277
 40
4.0652023307
  0
CIRCLE
  5
7F9
100
AcDbEntity
  8
SMUSSO
100
AcDbCircle
 62
7
  6
CONTINUOUS
 10
-11.0
 20
9.277
 40
0.6784390092
  0
ARC
  5
7FA
100
AcDbEntity
  8
DRAFT
100
AcDbCircle
 62
7
  6
CONTINUOUS
 10
-6.3
 20
23.1
 40
0.5
100
AcDbArc
 50
170.803718421
 51
299.112422776
  0
ARC
  5
7FB
100
AcDbEntity
  8
DRAFT
100
AcDbCircle
 62
7
  6
CONTINUOUS
 10
-16.2
 20
23.1
 40
0.5
100
AcDbArc
 50
240.887577224
 51
9.196281579
  0
ARC
  5
7FC
100
AcDbEntity
  8
ASSI
100
AcDbCircle
 62
7
  6
CONTINUOUS
 10
-6.3
 20
23.1
 40
0.5
100
AcDbArc
 50
170.803718421
 51
299.112422776
  0
ARC
  5
7FD
100
AcDbEntity
  8
ASSI
100
AcDbCircle
 62
7
  6
CONTINUOUS
 10
-16.2
 20
23.1
 40
0.5
100
AcDbArc
 50
240.887577224
 51
9.196281579
  0
CIRCLE
  5
7FE
100
AcDbEntity
  8
0
100
AcDbCircle
 62
7
  6
CONTINUOUS
 10
0.0
 20
-9.45
 40
4.6499755877
  0
CIRCLE
  5
7FF
100
AcDbEntity
  8
0
100
AcDbCircle
 62
7
  6
CONTINUOUS
 10
0.0
 20
-9.45
 40
4.2
  0
CIRCLE
  5
800
100
AcDbEntity
  8
0
100
AcDbCircle
 62
250
  6
CONTINUOUS
 10
0.0
 20
-9.45
 40
3.5999813318
  0
CIRCLE
  5
801
100
AcDbEntity
  8
ASSI
100
AcDbCircle
 62
7
  6
CONTINUOUS
 10
-0.0
 20
-9.45
 40
3.46822795
  0
CIRCLE
  5
802
100
AcDbEntity
  8
ASSI
100
AcDbCircle
 62
7
  6
CONTINUOUS
 10
-0.0
 20
-9.45
 40
0.75
  0
ARC
  5
803
100
AcDbEntity
  8
DRAFT
100
AcDbCircle
 62
7
  6
CONTINUOUS
 10
6.3
 20
-23.1
 40
0.5
100
AcDbArc
 50
350.803718421
 51
119.112422776
  0
ARC
  5
804
100
AcDbEntity
  8
DRAFT
100
AcDbCircle
 62
7
  6
CONTINUOUS
 10
16.2
 20
-23.1
 40
0.5
100
AcDbArc
 50
60.887577224
 51
189.196281579
  0
ARC
  5
805
100
AcDbEntity
  8
ASSI
100
AcDbCircle
 62
7
  6
CONTINUOUS
 10
6.3
 20
-23.1
 40
0.5
100
AcDbArc
 50
350.803718421
 51
119.112422776
  0
ARC
  5
806
100
AcDbEntity
  8
ASSI
100
AcDbCircle
 62
7
  6
CONTINUOUS
 10
16.2
 20
-23.1
 40
0.5
100
AcDbArc
 50
60.887577224
 51
189.196281579
  0
ARC
  5
807
100
AcDbEntity
  8
DRAFT
100
AcDbCircle
 62
7
  6
CONTINUOUS
 10
0.0
 20
0.0
 40
28.0
100
AcDbArc
 50
122.9352304972
 51
124.1210936517
  0
ARC
  5
808
100
AcDbEntity
  8
DRAFT
100
AcDbCircle
 62
7
  6
CONTINUOUS
 10
0.0
 20
0.0
 40
28.0
100
AcDbArc
 50
125.9627651514
 51
126.8698976458
  0
ARC
  5
809
100
AcDbEntity
  8
DRAFT
100
AcDbCircle
 62
7
  6
CONTINUOUS
 10
0.0
 20
0.0
 40
28.0
100
AcDbArc
 50
233.1301023542
 51
234.0372348486
  0
ARC
  5
80A
100
AcDbEntity
  8
DRAFT
100
AcDbCircle
 62
7
  6
CONTINUOUS
 10
0.0
 20
0.0
 40
28.0
100
AcDbArc
 50
235.8789063483
 51
237.0647695028
  0
ARC
  5
80B
100
AcDbEntity
  8
DRAFT
100
AcDbCircle
 62
7
  6
CONTINUOUS
 10
0.0
 20
0.0
 40
28.0
100
AcDbArc
 50
53.1301023542
 51
54.0372348486
  0
ARC
  5
80C
100
AcDbEntity
  8
DRAFT
100
AcDbCircle
 62
7
  6
CONTINUOUS
 10
0.0
 20
0.0
 40
28.0
100
AcDbArc
 50
55.8789063483
 51
57.0647695028
  0
ARC
  5
80D
100
AcDbEntity
  8
DRAFT
100
AcDbCircle
 62
7
  6
CONTINUOUS
 10
0.0
 20
0.0
 40
28.0
100
AcDbArc
 50
302.9352304972
 51
304.1210936517
  0
ARC
  5
80E
100
AcDbEntity
  8
DRAFT
100
AcDbCircle
 62
7
  6
CONTINUOUS
 10
0.0
 20
0.0
 40
28.0
100
AcDbArc
 50
305.9627651514
 51
306.8698976458
  0
ARC
  5
80F
100
AcDbEntity
  8
ASSI
100
AcDbCircle
 62
7
  6
CONTINUOUS
 10
0.0
 20
0.0
 40
28.0
100
AcDbArc
 50
122.9352304972
 51
124.1210936517
  0
ARC
  5
810
100
AcDbEntity
  8
ASSI
100
AcDbCircle
 62
7
  6
CONTINUOUS
 10
0.0
 20
0.0
 40
28.0
100
AcDbArc
 50
125.9627651514
 51
126.8698976458
  0
ARC
  5
811
100
AcDbEntity
  8
ASSI
100
AcDbCircle
 62
7
  6
CONTINUOUS
 10
0.0
 20
0.0
 40
28.0
100
AcDbArc
 50
233.1301023542
 51
234.0372348486
  0
ARC
  5
812
100
AcDbEntity
  8
ASSI
100
AcDbCircle
 62
7
  6
CONTINUOUS
 10
0.0
 20
0.0
 40
28.0
100
AcDbArc
 50
235.8789063483
 51
237.0647695028
  0
ARC
  5
813
100
AcDbEntity
  8
ASSI
100
AcDbCircle
 62
7
  6
CONTINUOUS
 10
0.0
 20
0.0
 40
28.0
100
AcDbArc
 50
53.1301023542
 51
54.0372348486
  0
ARC
  5
814
100
AcDbEntity
  8
ASSI
100
AcDbCircle
 62
7
  6
CONTINUOUS
 10
0.0
 20
0.0
 40
28.0
100
AcDbArc
 50
55.8789063483
 51
57.0647695028
  0
ARC
  5
815
100
AcDbEntity
  8
ASSI
100
AcDbCircle
 62
7
  6
CONTINUOUS
 10
0.0
 20
0.0
 40
28.0
100
AcDbArc
 50
302.9352304972
 51
304.1210936517
  0
ARC
  5
816
100
AcDbEntity
  8
ASSI
100
AcDbCircle
 62
7
  6
CONTINUOUS
 10
0.0
 20
0.0
 40
28.0
100
AcDbArc
 50
305.9627651514
 51
306.8698976458
  0
ARC
  5
817
100
AcDbEntity
  8
0
100
AcDbCircle
 62
7
  6
CONTINUOUS
 10
11.0
 20
9.277
 40
5.2599999333
100
AcDbArc
 50
187.6472570584
 51
262.3523664975
  0
ARC
  5
818
100
AcDbEntity
  8
0
100
AcDbCircle
 62
7
  6
CONTINUOUS
 10
11.0
 20
9.277
 40
5.2599999333
100
AcDbArc
 50
7.6472570584
 51
82.3523664975
  0
ARC
  5
819
100
AcDbEntity
  8
0
100
AcDbCircle
 62
7
  6
CONTINUOUS
 10
11.0
 20
9.277
 40
5.2599999306
100
AcDbArc
 50
97.6476014215
 51
172.3523985786
  0
ARC
  5
81A
100
AcDbEntity
  8
0
100
AcDbCircle
 62
7
  6
CONTINUOUS
 10
11.0
 20
9.277
 40
5.2599999306
100
AcDbArc
 50
277.6476335037
 51
352.3527429285
  0
ARC
  5
81B
100
AcDbEntity
  8
0
100
AcDbCircle
 62
7
  6
CONTINUOUS
 10
11.0
 20
9.277
 40
5.0084359819
100
AcDbArc
 50
188.0342011946
 51
261.9657988054
  0
ARC
  5
81C
100
AcDbEntity
  8
0
100
AcDbCircle
 62
7
  6
CONTINUOUS
 10
11.0
 20
9.277
 40
5.0084359819
100
AcDbArc
 50
98.0342011945
 51
171.9657988055
  0
ARC
  5
81D
100
AcDbEntity
  8
0
100
AcDbCircle
 62
7
  6
CONTINUOUS
 10
11.0
 20
9.277
 40
5.0084359819
100
AcDbArc
 50
8.0342011945
 51
81.9657988054
  0
ARC
  5
81E
100
AcDbEntity
  8
0
100
AcDbCircle
 62
7
  6
CONTINUOUS
 10
11.0
 20
9.277
 40
5.0084359819
100
AcDbArc
 50
278.0342011945
 51
351.9657988054
  0
ARC
  5
81F
100
AcDbEntity
  8
0
100
AcDbCircle
 62
7
  6
CONTINUOUS
 10
11.0
 20
9.277
 40
4.7337982729
100
AcDbArc
 50
278.4008373477
 51
351.6005171018
  0
ARC
  5
820
100
AcDbEntity
  8
0
100
AcDbCircle
 62
7
  6
CONTINUOUS
 10
11.0
 20
9.277
 40
4.7337982729
100
AcDbArc
 50
98.4008373477
 51
171.6005171018
  0
ARC
  5
821
100
AcDbEntity
  8
0
100
AcDbCircle
 62
7
  6
CONTINUOUS
 10
11.0
 20
9.277
 40
4.7337982729
100
AcDbArc
 50
188.3994828982
 51
261.5991626523
  0
ARC
  5
822
100
AcDbEntity
  8
0
100
AcDbCircle
 62
7
  6
CONTINUOUS
 10
11.0
 20
9.277
 40
4.7337982729
100
AcDbArc
 50
8.3994828982
 51
81.5991626523
  0
CIRCLE
  5
823
100
AcDbEntity
  8
ASSI
100
AcDbCircle
 62
7
  6
CONTINUOUS
 10
11.0
 20
9.277
 40
2.05
  0
CIRCLE
  5
824
100
AcDbEntity
  8
0
100
AcDbCircle
 62
7
  6
CONTINUOUS
 10
11.0
 20
9.277
 40
1.3
  0
CIRCLE
  5
825
100
AcDbEntity
  8
0
100
AcDbCircle
 62
7
  6
CONTINUOUS
 10
11.0
 20
9.277
 40
1.05
  0
ARC
  5
826
100
AcDbEntity
  8
DRAFT
100
AcDbCircle
 62
7
  6
CONTINUOUS
 10
6.3
 20
23.1
 40
0.5
100
AcDbArc
 50
240.887577224
 51
9.196281579
  0
ARC
  5
827
100
AcDbEntity
  8
ASSI
100
AcDbCircle
 62
7
  6
CONTINUOUS
 10
6.3
 20
23.1
 40
0.5
100
AcDbArc
 50
240.887577224
 51
9.196281579
  0
ARC
  5
828
100
AcDbEntity
  8
DRAFT
100
AcDbCircle
 62
7
  6
CONTINUOUS
 10
22.5
 20
-0.0
 40
28.0
100
AcDbArc
 50
122.9352304972
 51
124.1210936517
  0
ARC
  5
829
100
AcDbEntity
  8
DRAFT
100
AcDbCircle
 62
7
  6
CONTINUOUS
 10
22.5
 20
-0.0
 40
28.0
100
AcDbArc
 50
125.9627651514
 51
126.8698976458
  0
ARC
  5
82A
100
AcDbEntity
  8
DRAFT
100
AcDbCircle
 62
7
  6
CONTINUOUS
 10
22.5
 20
0.0
 40
28.0
100
AcDbArc
 50
233.1301023542
 51
234.0372348486
  0
ARC
  5
82B
100
AcDbEntity
  8
DRAFT
100
AcDbCircle
 62
7
  6
CONTINUOUS
 10
22.5
 20
0.0
 40
28.0
100
AcDbArc
 50
235.8789063483
 51
237.0647695028
  0
ARC
  5
82C
100
AcDbEntity
  8
ASSI
100
AcDbCircle
 62
7
  6
CONTINUOUS
 10
22.5
 20
-0.0
 40
28.0
100
AcDbArc
 50
122.9352304972
 51
124.1210936517
  0
ARC
  5
82D
100
AcDbEntity
  8
ASSI
100
AcDbCircle
 62
7
  6
CONTINUOUS
 10
22.5
 20
-0.0
 40
28.0
100
AcDbArc
 50
125.9627651514
 51
126.8698976458
  0
ARC
  5
82E
100
AcDbEntity
  8
ASSI
100
AcDbCircle
 62
7
  6
CONTINUOUS
 10
22.5
 20
0.0
 40
28.0
100
AcDbArc
 50
233.1301023542
 51
234.0372348486
  0
ARC
  5
82F
100
AcDbEntity
  8
ASSI
100
AcDbCircle
 62
7
  6
CONTINUOUS
 10
22.5
 20
0.0
 40
28.0
100
AcDbArc
 50
235.8789063483
 51
237.0647695028
  0
ARC
  5
830
100
AcDbEntity
  8
DRAFT
100
AcDbCircle
 62
7
  6
CONTINUOUS
 10
16.2
 20
23.1
 40
0.5
100
AcDbArc
 50
170.803718421
 51
299.112422776
  0
ARC
  5
831
100
AcDbEntity
  8
ASSI
100
AcDbCircle
 62
7
  6
CONTINUOUS
 10
16.2
 20
23.1
 40
0.5
100
AcDbArc
 50
170.803718421
 51
299.112422776
  0
ARC
  5
832
100
AcDbEntity
  8
RACCORDO
100
AcDbCircle
 62
7
  6
CONTINUOUS
 10
-69.930046544
 20
-20.9762776025
 40
1.0
100
AcDbArc
 50
182.4092313014
 51
267.0
  0
ARC
  5
833
100
AcDbEntity
  8
0
100
AcDbCircle
 62
7
  6
CONTINUOUS
 10
-69.930046544
 20
-20.9762776025
 40
1.0
100
AcDbArc
 50
182.4092313014
 51
267.0
  0
ARC
  5
834
100
AcDbEntity
  8
ASSI
100
AcDbCircle
 62
7
  6
CONTINUOUS
 10
-69.930046544
 20
-20.9762776025
 40
1.0
100
AcDbArc
 50
182.4092313014
 51
267.0
  0
ARC
  5
835
100
AcDbEntity
  8
0
100
AcDbCircle
 62
7
  6
CONTINUOUS
 10
-79.0711274803
 20
-13.05
 40
0.6
100
AcDbArc
 50
180.0
 51
270.0
  0
ARC
  5
836
100
AcDbEntity
  8
0
100
AcDbCircle
 62
7
  6
CONTINUOUS
 10
-60.0711274803
 20
-16.9852255416
 40
0.5
100
AcDbArc
 50
0.0
 51
88.0
  0
ARC
  5
837
100
AcDbEntity
  8
0
100
AcDbCircle
 62
7
  6
CONTINUOUS
 10
-79.0711274803
 20
-5.85
 40
0.6
100
AcDbArc
 50
90.0
 51
180.0
  0
ARC
  5
838
100
AcDbEntity
  8
0
100
AcDbCircle
 62
7
  6
CONTINUOUS
 10
-60.0711274803
 20
-1.9147744584
 40
0.5
100
AcDbArc
 50
272.0
 51
360.0
  0
ARC
  5
839
100
AcDbEntity
  8
0
100
AcDbCircle
 62
7
  6
CONTINUOUS
 10
-51.8711274803
 20
-14.4006510421
 40
3.0
100
AcDbArc
 50
271.5
 51
360.0
  0
ARC
  5
83A
100
AcDbEntity
  8
0
100
AcDbCircle
 62
7
  6
CONTINUOUS
 10
-45.7470614783
 20
-3.825
 40
4.175
100
AcDbArc
 50
269.9999999999
 51
351.728174518
  0
ARC
  5
83B
100
AcDbEntity
  8
0
100
AcDbCircle
 62
7
  6
CONTINUOUS
 10
-40.6511274803
 20
-3.35
 40
0.8
100
AcDbArc
 50
270.0
 51
360.0
  0
ARC
  5
83C
100
AcDbEntity
  8
0
100
AcDbCircle
 62
7
  6
CONTINUOUS
 10
-150.4711274797
 20
11.3999999999
 40
110.1999999994
100
AcDbArc
 50
355.7453399876
 51
357.310654079
  0
ARC
  5
83D
100
AcDbEntity
  8
0
100
AcDbCircle
 62
7
  6
CONTINUOUS
 10
-150.4711274803
 20
11.4
 40
110.0
100
AcDbArc
 50
351.728174518
 51
360.0
  0
ARC
  5
83E
100
AcDbEntity
  8
0
100
AcDbCircle
 62
7
  6
CONTINUOUS
 10
-40.6511274803
 20
0.35
 40
0.8
100
AcDbArc
 50
0.0
 51
90.0
  0
ARC
  5
83F
100
AcDbEntity
  8
0
100
AcDbCircle
 62
7
  6
CONTINUOUS
 10
-60.0711274803
 20
1.7417744584
 40
0.5
100
AcDbArc
 50
0.0
 51
88.0
  0
ARC
  5
840
100
AcDbEntity
  8
0
100
AcDbCircle
 62
7
  6
CONTINUOUS
 10
-72.1211274803
 20
4.777
 40
0.25
100
AcDbArc
 50
180.0
 51
258.4591592887
  0
ARC
  5
841
100
AcDbEntity
  8
0
100
AcDbCircle
 62
7
  6
CONTINUOUS
 10
-60.0711274804
 20
16.8122255416
 40
0.5
100
AcDbArc
 50
272.0000000002
 51
360.0
  0
ARC
  5
842
100
AcDbEntity
  8
0
100
AcDbCircle
 62
7
  6
CONTINUOUS
 10
-72.1211274803
 20
13.777
 40
0.25
100
AcDbArc
 50
101.5408407015
 51
180.0
  0
ARC
  5
843
100
AcDbEntity
  8
RACCORDO
100
AcDbCircle
 62
7
  6
CONTINUOUS
 10
-69.930046544
 20
20.9762776025
 40
1.0
100
AcDbArc
 50
93.0
 51
177.5907686986
  0
ARC
  5
844
100
AcDbEntity
  8
0
100
AcDbCircle
 62
7
  6
CONTINUOUS
 10
-69.930046544
 20
20.9762776025
 40
1.0
100
AcDbArc
 50
93.0
 51
177.5907686986
  0
ARC
  5
845
100
AcDbEntity
  8
ASSI
100
AcDbCircle
 62
7
  6
CONTINUOUS
 10
-69.930046544
 20
20.9762776025
 40
1.0
100
AcDbArc
 50
93.0
 51
177.5907686986
  0
ARC
  5
846
100
AcDbEntity
  8
0
100
AcDbCircle
 62
7
  6
CONTINUOUS
 10
-43.4711274803
 20
14.2
 40
3.0
100
AcDbArc
 50
0.0
 51
30.59618554
  0
ARC
  5
847
100
AcDbEntity
  8
0
100
AcDbCircle
 62
7
  6
CONTINUOUS
 10
-51.8711274803
 20
14.4006510421
 40
3.0
100
AcDbArc
 50
0.0
 51
88.4999999999
  0
ARC
  5
848
100
AcDbEntity
  8
0
100
AcDbCircle
 62
7
  6
CONTINUOUS
 10
-43.4711274803
 20
14.180689301
 40
3.0
100
AcDbArc
 50
359.9999996394
 51
88.5
  0
ARC
  5
849
100
AcDbEntity
  8
0
100
AcDbCircle
 62
7
  6
CONTINUOUS
 10
-40.9748770533
 20
15.6760534563
 40
0.1
100
AcDbArc
 50
30.5961748662
 51
57.143392842
  0
ARC
  5
84A
100
AcDbEntity
  8
RACCORDO
100
AcDbCircle
 62
7
  6
CONTINUOUS
 10
428.6288725197
 20
0.0
 40
500.0
100
AcDbArc
 50
177.5907686986
 51
182.4092313014
  0
ARC
  5
84B
100
AcDbEntity
  8
0
100
AcDbCircle
 62
7
  6
CONTINUOUS
 10
428.6288725197
 20
0.0
 40
500.0
100
AcDbArc
 50
177.5907686986
 51
182.4092313014
  0
ARC
  5
84C
100
AcDbEntity
  8
ASSI
100
AcDbCircle
 62
7
  6
CONTINUOUS
 10
428.6288725197
 20
0.0
 40
500.0
100
AcDbArc
 50
177.5907686986
 51
182.4092313014
  0
ELLIPSE
  5
84D
100
AcDbEntity
  8
RACCORDO
100
AcDbEllipse
 62
7
  6
CONTINUOUS
 10
21.899923836
 20
-21.899313827
 30
0.0
 11
-0.1582391023
 21
0.4751033573
 31
0.0
 40
0.9984778551
 41
-3.4626430041
 42
-1.8927600658
  0
ELLIPSE
  5
84E
100
AcDbEntity
  8
RACCORDO
100
AcDbEllipse
 62
7
  6
CONTINUOUS
 10
-21.899923836
 20
21.899313827
 30
0.0
 11
-0.1582391023
 21
0.4751033573
 31
0.0
 40
0.9984778551
 41
-0.3210503505
 42
1.2488325878
  0
ELLIPSE
  5
84F
100
AcDbEntity
  8
RACCORDO
100
AcDbEllipse
 62
7
  6
CONTINUOUS
 10
-21.899923836
 20
-21.899313827
 30
0.0
 11
0.1582391023
 21
0.4751033573
 31
0.0
 40
0.9984778551
 41
-4.3904252414
 42
-2.8205423031
  0
ELLIPSE
  5
850
100
AcDbEntity
  8
RACCORDO
100
AcDbEllipse
 62
7
  6
CONTINUOUS
 10
21.899923836
 20
21.899313827
 30
0.0
 11
0.1582391023
 21
0.4751033573
 31
0.0
 40
0.9984778551
 41
-1.2488325878
 42
0.3210503505
  0
ELLIPSE
  5
851
100
AcDbEntity
  8
0
100
AcDbEllipse
 62
7
  6
CONTINUOUS
 10
-21.899923836
 20
21.899313827
 30
0.0
 11
-0.1582391023
 21
0.4751033573
 31
0.0
 40
0.9984778551
 41
-0.3210503505
 42
1.2488325878
  0
ELLIPSE
  5
852
100
AcDbEntity
  8
0
100
AcDbEllipse
 62
7
  6
CONTINUOUS
 10
-21.899923836
 20
-21.899313827
 30
0.0
 11
0.1582391023
 21
0.4751033573
 31
0.0
 40
0.9984778551
 41
-4.3904252414
 42
-2.8205423031
  0
ELLIPSE
  5
853
100
AcDbEntity
  8
0
100
AcDbEllipse
 62
7
  6
CONTINUOUS
 10
21.899923836
 20
21.899313827
 30
0.0
 11
0.1582391023
 21
0.4751033573
 31
0.0
 40
0.9984778551
 41
-1.2488325878
 42
0.3210503505
  0
ELLIPSE
  5
854
100
AcDbEntity
  8
0
100
AcDbEllipse
 62
7
  6
CONTINUOUS
 10
21.899923836
 20
-21.899313827
 30
0.0
 11
-0.1582391023
 21
0.4751033573
 31
0.0
 40
0.9984778551
 41
-3.4626430041
 42
-1.8927600658
  0
ELLIPSE
  5
855
100
AcDbEntity
  8
ASSI
100
AcDbEllipse
 62
7
  6
CONTINUOUS
 10
-21.899923836
 20
21.899313827
 30
0.0
 11
-0.1582391023
 21
0.4751033573
 31
0.0
 40
0.9984778551
 41
-0.3210503505
 42
1.2488325878
  0
ELLIPSE
  5
856
100
AcDbEntity
  8
ASSI
100
AcDbEllipse
 62
7
  6
CONTINUOUS
 10
-21.899923836
 20
-21.899313827
 30
0.0
 11
0.1582391023
 21
0.4751033573
 31
0.0
 40
0.9984778551
 41
-4.3904252414
 42
-2.8205423031
  0
ELLIPSE
  5
857
100
AcDbEntity
  8
ASSI
100
AcDbEllipse
 62
7
  6
CONTINUOUS
 10
21.899923836
 20
21.899313827
 30
0.0
 11
0.1582391023
 21
0.4751033573
 31
0.0
 40
0.9984778551
 41
-1.2488325878
 42
0.3210503505
  0
ELLIPSE
  5
858
100
AcDbEntity
  8
ASSI
100
AcDbEllipse
 62
7
  6
CONTINUOUS
 10
21.899923836
 20
-21.899313827
 30
0.0
 11
-0.1582391023
 21
0.4751033573
 31
0.0
 40
0.9984778551
 41
-3.4626430041
 42
-1.8927600658
  0
ELLIPSE
  5
859
100
AcDbEntity
  8
0
100
AcDbEllipse
 62
250
  6
CONTINUOUS
 10
-22.3394199629
 20
-5.9447
 30
0.0
 11
-0.0
 21
0.14051
 31
0.0
 40
0.0174550649
 41
-0.0
 42
3.1415926536
  0
ELLIPSE
  5
85A
100
AcDbEntity
  8
0
100
AcDbEllipse
 62
250
  6
CONTINUOUS
 10
-22.3394199629
 20
-5.9447
 30
0.0
 11
-0.0
 21
0.317592
 31
0.0
 40
0.0174550649
 41
0.0
 42
6.2831853072
  0
ELLIPSE
  5
85B
100
AcDbEntity
  8
0
100
AcDbEllipse
 62
250
  6
CONTINUOUS
 10
-22.2810231006
 20
-6.369913
 30
0.0
 11
-0.0
 21
0.192582
 31
0.0
 40
0.0174550649
 41
0.0
 42
6.2831853072
  0
ELLIPSE
  5
85C
100
AcDbEntity
  8
0
100
AcDbEllipse
 62
250
  6
CONTINUOUS
 10
-22.3005063393
 20
2.48459
 30
0.0
 11
0.0
 21
2.5500000352
 31
0.0
 40
0.0174497484
 41
-1.6709637466
 42
1.6709637466
  0
ELLIPSE
  5
85D
100
AcDbEntity
  8
0
100
AcDbEllipse
 62
250
  6
CONTINUOUS
 10
-22.3005063393
 20
2.48459
 30
0.0
 11
-0.0
 21
1.7850001745
 31
0.0
 40
0.0174497484
 41
-1.7141438816
 42
-0.215960532
  0
ELLIPSE
  5
85E
100
AcDbEntity
  8
0
100
AcDbEllipse
 62
250
  6
CONTINUOUS
 10
-22.3005063393
 20
2.48459
 30
0.0
 11
0.0
 21
1.7849997292
 31
0.0
 40
0.0174497484
 41
0.215960532
 42
1.7141438816
  0
ELLIPSE
  5
85F
100
AcDbEntity
  8
0
100
AcDbEllipse
 62
250
  6
CONTINUOUS
 10
-22.3005063393
 20
6.81959
 30
0.0
 11
0.0
 21
2.5500000352
 31
0.0
 40
0.0174497484
 41
-1.6709637466
 42
1.6709637466
  0
ELLIPSE
  5
860
100
AcDbEntity
  8
0
100
AcDbEllipse
 62
250
  6
CONTINUOUS
 10
-22.3005063393
 20
6.81959
 30
0.0
 11
-0.0
 21
1.7850001745
 31
0.0
 40
0.0174497484
 41
-1.7141438816
 42
1.7141438816
  0
ELLIPSE
  5
861
100
AcDbEntity
  8
0
100
AcDbEllipse
 62
250
  6
CONTINUOUS
 10
-22.3214523126
 20
-1.499994
 30
0.0
 11
0.0
 21
0.499999
 31
0.0
 40
0.0174550649
 41
0.0
 42
6.2831853072
  0
ELLIPSE
  5
862
100
AcDbEntity
  8
DRAFT
100
AcDbEllipse
 62
7
  6
CONTINUOUS
 10
292.0942230749
 20
0.0
 30
0.0
 11
1427.1497290694
 21
-0.0
 31
0.0
 40
0.0151169134
 41
1.815366648
 42
1.8214348428
  0
ELLIPSE
  5
863
100
AcDbEntity
  8
DRAFT
100
AcDbEllipse
 62
7
  6
CONTINUOUS
 10
292.0942230749
 20
0.0
 30
0.0
 11
1427.1497290694
 21
-0.0
 31
0.0
 40
0.0151169134
 41
-1.8214348428
 42
-1.815366648
  0
ELLIPSE
  5
864
100
AcDbEntity
  8
ASSI
100
AcDbEllipse
 62
7
  6
CONTINUOUS
 10
292.0942230749
 20
0.0
 30
0.0
 11
1427.1497290694
 21
-0.0
 31
0.0
 40
0.0151169134
 41
1.815366648
 42
1.8214348428
  0
ELLIPSE
  5
865
100
AcDbEntity
  8
ASSI
100
AcDbEllipse
 62
7
  6
CONTINUOUS
 10
292.0942230749
 20
0.0
 30
0.0
 11
1427.1497290694
 21
-0.0
 31
0.0
 40
0.0151169134
 41
-1.8214348428
 42
-1.815366648
  0
ELLIPSE
  5
866
100
AcDbEntity
  8
0
100
AcDbEllipse
 62
250
  6
CONTINUOUS
 10
428.6288725197
 20
0.0
 30
0.0
 11
-0.0
 21
500.0
 31
0.0
 40
1.0
 41
-4.6767814564
 42
-4.6717778182
  0
ENDSEC
  0
SECTION
  2
OBJECTS
  0
DICTIONARY
  5
C
100
AcDbDictionary
280
0
281
1
  3
ACAD_GROUP
350
D
  3
ACAD_MLINESTYLE
350
17
  3
ACAD_LAYOUT
350
1A
  3
ACAD_PLOTSETTINGS
350
19
  3
ACAD_PLOTSTYLENAME
350
E
  0
DICTIONARY
  5
D
102
{ACAD_REACTORS
330
C
102
}
100
AcDbDictionary
280
0
281
1
  0
ACDBDICTIONARYWDFLT
  5
E
102
{ACAD_REACTORS
330
C
102
}
100
AcDbDictionary
281
1
  3
Normal
350
F
100
AcDbDictionaryWithDefault
340
F
  0
DICTIONARY
  5
17
102
{ACAD_REACTORS
330
C
102
}
100
AcDbDictionary
280
0
281
1
  3
Standard
350
18
  0
DICTIONARY
  5
19
102
{ACAD_REACTORS
330
C
102
}
100
AcDbDictionary
281
1
  0
DICTIONARY
  5
1A
102
{ACAD_REACTORS
330
C
102
}
100
AcDbDictionary
281
1
  3
Model
350
867
  3
Layout1
350
868
  0
ACDBPLACEHOLDER
  5
F
102
{ACAD_REACTORS
330
E
102
}
  0
MLINESTYLE
  5
18
102
{ACAD_REACTORS
330
17
102
}
100
AcDbMlineStyle
  2
STANDARD
 70
0
  3

 62
256
 51
90.0
 52
90.0
 71
2
 49
0.5
 62
256
  6
BYLAYER
 49
-0.5
 62
256
  6
BYLAYER
  0
LAYOUT
  5
867
102
{ACAD_REACTORS
330
1A
102
}
100
AcDbPlotSettings
  1

  2
none_device
  4
ISO_A4_(297.00_x_210.00_MM)
  6

 40
0.0
 41
0.0
 42
0.0
 43
0.0
 44
297.0
 45
210.0
 46
0.0
 47
0.0
 48
0.0
 49
0.0
140
0.0
141
0.0
142
1.0
143
1.0
 70
1024
 72
1
 73
0
 74
0
  7

 75
0
147
1.0
148
0.0
149
0.0
100
AcDbLayout
  1
Model
 70
0
 71
0
 10
0.0
 20
0.0
 11
297.0
 21
210.0
 12
0.0
 22
0.0
 32
0.0
 14
0.0
 24
0.0
 34
0.0
 15
0.0
 25
0.0
 35
0.0
146
0.0
 13
0.0
 23
0.0
 33
0.0
 16
1.0
 26
0.0
 36
0.0
 17
0.0
 27
1.0
 37
0.0
 76
0
330
217
345
0
346
0
  0
LAYOUT
  5
868
102
{ACAD_REACTORS
330
1A
102
}
100
AcDbPlotSettings
  1

  2
none_device
  4
ISO_A4_(297.00_x_210.00_MM)
  6

 40
0.0
 41
0.0
 42
0.0
 43
0.0
 44
297.0
 45
210.0
 46
0.0
 47
0.0
 48
0.0
 49
0.0
140
0.0
141
0.0
142
1.0
143
1.0
 70
0
 72
1
 73
0
 74
0
  7

 75
0
147
1.0
148
0.0
149
0.0
100
AcDbLayout
  1
Layout1
 70
0
 71
1
 10
0.0
 20
0.0
 11
297.0
 21
210.0
 12
0.0
 22
0.0
 32
0.0
 14
0.0
 24
0.0
 34
0.0
 15
0.0
 25
0.0
 35
0.0
146
0.0
 13
0.0
 23
0.0
 33
0.0
 16
1.0
 26
0.0
 36
0.0
 17
0.0
 27
1.0
 37
0.0
 76
0
330
218
345
0
346
0
  0
ENDSEC
  0
EOF
