0
SECTION
2
HEADER
9
$ACADVER
1
AC1015
9
$DWGCODEPAGE
3
ANSI_1252
9
$EXTMAX
10
431.8000000000
20
558.8000000000
30
0.0000000000
9
$EXTMIN
10
0.0000000000
20
0.0000000000
30
0.0000000000
9
$LIMMIN
10
0.0000000000
20
0.0000000000
9
$LIMMAX
10
431.8000000000
20
558.8000000000
9
$VIEWCTR
10
215.9000000000
20
279.4000000000
9
$VIEWSIZE
40
558.8000000000
9
$CLAYER
8
0
9
$LTSCALE
40
36.4254814815
9
$CELTYPE
6
BYLAYER
9
$DIMSCALE
40
1
9
$DIMASZ
40
3.0000000000
9
$DIMEXO
40
4.1392592593
9
$DIMDLI
40
25.1666962963
9
$DIMEXE
40
11.9210666667
9
$DIMCEN
40
5.9605333333
9
$DIMLFAC
40
1.0000000000
9
$DIMBLK
1
_FILLED
9
$DIMTXT
40
3.0000000000
9
$DIMTOL
70
1
9
$DIMLIM
70
0
9
$DIMTFAC
40
1.0000000000
9
$DIMTP
40
0.0100000000
9
$DIMTM
40
0.0100000000
9
$PDMODE
70
3
9
$PDSIZE
40
3.0000000000
9
$HANDSEED
5
50C
9
$MEASUREMENT
70
1
9
$INSUNITS
70
4
0
ENDSEC
0
SECTION
2
CLASSES
0
CLASS
1
ACDBDICTIONARYWDFLT
2
AcDbDictionaryWithDefault
3
AutoCAD 2000
90
0
280
0
281
0
0
CLASS
1
ACDBPLACEHOLDER
2
AcDbPlaceHolder
3
AutoCAD 2000
90
0
280
0
281
0
0
CLASS
1
LAYOUT
2
AcDbLayout
3
AutoCAD 2000
90
0
280
0
281
0
0
ENDSEC
0
SECTION
2
TABLES
0
TABLE
2
VPORT
5
8
100
AcDbSymbolTable
70
2
0
VPORT
5
1F4
100
AcDbSymbolTableRecord
100
AcDbViewportTableRecord
2
*ACTIVE
70
0
10
0.0
20
0.0
11
1.0
21
1.0
12
215.9000000000
22
279.4000000000
13
0.0
23
0.0
14
1.0
24
1.0
15
0.0
25
0.0
16
0.0
26
0.0
36
1.0
17
0.0
27
0.0
37
0.0
40
558.8000000000
41
0.7727272727
42
50.0
43
0.0
44
0.0
50
0.0
51
0.0
71
0
72
100
73
1
74
1
75
0
76
0
77
0
78
0
0
ENDTAB
0
TABLE
2
LTYPE
5
5
100
AcDbSymbolTable
70
6
0
LTYPE
5
14
100
AcDbSymbolTableRecord
100
AcDbLinetypeTableRecord
2
BYBLOCK
70
0
3

72
65
73
0
40
0.0
0
LTYPE
5
15
100
AcDbSymbolTableRecord
100
AcDbLinetypeTableRecord
2
BYLAYER
70
0
3

72
65
73
0
40
0.0
0
LTYPE
5
16
100
AcDbSymbolTableRecord
100
AcDbLinetypeTableRecord
2
CONTINUOUS
70
64
3
Solid line
72
65
73
0
40
0
0
LTYPE
5
1F5
100
AcDbSymbolTableRecord
100
AcDbLinetypeTableRecord
2
CENTER
70
64
3
____ _ ____ _ ____ _ ____ _ ____ _ ____ _ ____
72
65
73
4
40
0.6
49
0.375
74
0
49
-0.075
74
0
49
0.075
74
0
49
-0.075
74
0
0
LTYPE
5
1F6
100
AcDbSymbolTableRecord
100
AcDbLinetypeTableRecord
2
HIDDEN
70
64
3
- - - - - - - - - - - - - - - - - - - -
72
65
73
2
40
0.2
49
0.1
74
0
49
-0.1
74
0
0
LTYPE
5
1F7
100
AcDbSymbolTableRecord
100
AcDbLinetypeTableRecord
2
PHANTOM
70
64
3
_____ _ _ _____ _ _ _____ _ _ _____
72
65
73
6
40
0.8
49
0.45
74
0
49
-0.05
74
0
49
0.1
74
0
49
-0.05
74
0
49
0.1
74
0
49
-0.05
74
0
0
LTYPE
5
1F8
100
AcDbSymbolTableRecord
100
AcDbLinetypeTableRecord
2
DOT
70
64
3
. . . . . . . . . . . . . . . . . . . .
72
65
73
2
40
0.2
49
0.1
74
0
49
-0.1
74
0
0
LTYPE
5
1F9
100
AcDbSymbolTableRecord
100
AcDbLinetypeTableRecord
2
DASHED
70
64
3
- - - - - - - - - - - - - - - - - - - -
72
65
73
2
40
0.2
49
0.1
74
0
49
-0.1
74
0
0
ENDTAB
0
TABLE
2
LAYER
5
2
100
AcDbSymbolTable
70
36
0
LAYER
5
10
100
AcDbSymbolTableRecord
100
AcDbLayerTableRecord
2
0
70
0
62
7
6
CONTINUOUS
370
-3
390
F
0
LAYER
5
1FA
100
AcDbSymbolTableRecord
100
AcDbLayerTableRecord
2
DEFAULT_1
70
0
62
7
6
CENTER
370
-3
390
F
0
LAYER
5
1FB
100
AcDbSymbolTableRecord
100
AcDbLayerTableRecord
2
DEFAULT_2
70
0
62
8
6
HIDDEN
370
-3
390
F
0
LAYER
5
1FC
100
AcDbSymbolTableRecord
100
AcDbLayerTableRecord
2
DEFAULT_3
70
0
62
7
6
PHANTOM
370
-3
390
F
0
LAYER
5
1FD
100
AcDbSymbolTableRecord
100
AcDbLayerTableRecord
2
_2D_DELETED_OBJS
70
0
62
7
6
CONTINUOUS
370
-3
390
F
0
LAYER
5
1FE
100
AcDbSymbolTableRecord
100
AcDbLayerTableRecord
2
_BLACK_HOLE
70
0
62
7
6
CONTINUOUS
370
-3
390
F
0
LAYER
5
1FF
100
AcDbSymbolTableRecord
100
AcDbLayerTableRecord
2
ASSI
70
0
62
7
6
CONTINUOUS
370
-3
390
F
0
LAYER
5
200
100
AcDbSymbolTableRecord
100
AcDbLayerTableRecord
2
COORDINATE
70
0
62
7
6
CONTINUOUS
370
-3
390
F
0
LAYER
5
201
100
AcDbSymbolTableRecord
100
AcDbLayerTableRecord
2
COORD_ORIGINE
70
0
62
7
6
CONTINUOUS
370
-3
390
F
0
LAYER
5
202
100
AcDbSymbolTableRecord
100
AcDbLayerTableRecord
2
COPY_PUBLISH
70
0
62
7
6
CONTINUOUS
370
-3
390
F
0
LAYER
5
203
100
AcDbSymbolTableRecord
100
AcDbLayerTableRecord
2
COSMETIC
70
0
62
7
6
CONTINUOUS
370
-3
390
F
0
LAYER
5
204
100
AcDbSymbolTableRecord
100
AcDbLayerTableRecord
2
COSMETICHE
70
0
62
7
6
CONTINUOUS
370
-3
390
F
0
LAYER
5
205
100
AcDbSymbolTableRecord
100
AcDbLayerTableRecord
2
CURVE
70
0
62
7
6
CONTINUOUS
370
-3
390
F
0
LAYER
5
206
100
AcDbSymbolTableRecord
100
AcDbLayerTableRecord
2
DRAFT
70
0
62
7
6
CONTINUOUS
370
-3
390
F
0
LAYER
5
207
100
AcDbSymbolTableRecord
100
AcDbLayerTableRecord
2
IGES
70
0
62
7
6
CONTINUOUS
370
-3
390
F
0
LAYER
5
208
100
AcDbSymbolTableRecord
100
AcDbLayerTableRecord
2
IMPORT_FEATURES
70
0
62
7
6
CONTINUOUS
370
-3
390
F
0
LAYER
5
209
100
AcDbSymbolTableRecord
100
AcDbLayerTableRecord
2
IMPORT_IGES
70
0
62
7
6
CONTINUOUS
370
-3
390
F
0
LAYER
5
20A
100
AcDbSymbolTableRecord
100
AcDbLayerTableRecord
2
INTF_1
70
0
62
7
6
CONTINUOUS
370
-3
390
F
0
LAYER
5
20B
100
AcDbSymbolTableRecord
100
AcDbLayerTableRecord
2
NOTE
70
0
62
7
6
CONTINUOUS
370
-3
390
F
0
LAYER
5
20C
100
AcDbSymbolTableRecord
100
AcDbLayerTableRecord
2
PIANI
70
0
62
7
6
CONTINUOUS
370
-3
390
F
0
LAYER
5
20D
100
AcDbSymbolTableRecord
100
AcDbLayerTableRecord
2
PIANI_ORIGINE
70
0
62
7
6
CONTINUOUS
370
-3
390
F
0
LAYER
5
20E
100
AcDbSymbolTableRecord
100
AcDbLayerTableRecord
2
PUNTI
70
0
62
7
6
CONTINUOUS
370
-3
390
F
0
LAYER
5
20F
100
AcDbSymbolTableRecord
100
AcDbLayerTableRecord
2
RACCORDO
70
0
62
7
6
CONTINUOUS
370
-3
390
F
0
LAYER
5
210
100
AcDbSymbolTableRecord
100
AcDbLayerTableRecord
2
RGB____0____0____0__
70
0
62
7
6
CONTINUOUS
370
-3
390
F
0
LAYER
5
211
100
AcDbSymbolTableRecord
100
AcDbLayerTableRecord
2
SMUSSO
70
0
62
7
6
CONTINUOUS
370
-3
390
F
0
LAYER
5
212
100
AcDbSymbolTableRecord
100
AcDbLayerTableRecord
2
SNAPLINE
70
0
62
7
6
CONTINUOUS
370
-3
390
F
0
LAYER
5
213
100
AcDbSymbolTableRecord
100
AcDbLayerTableRecord
2
SUPERFICI
70
0
62
7
6
CONTINUOUS
370
-3
390
F
0
LAYER
5
214
100
AcDbSymbolTableRecord
100
AcDbLayerTableRecord
2
TRASH
70
0
62
7
6
CONTINUOUS
370
-3
390
F
0
LAYER
5
215
100
AcDbSymbolTableRecord
100
AcDbLayerTableRecord
2
XSEC_DATUMS
70
0
62
7
6
CONTINUOUS
370
-3
390
F
0
ENDTAB
0
TABLE
2
STYLE
5
3
100
AcDbSymbolTable
70
1
0
STYLE
5
11
100
AcDbSymbolTableRecord
100
AcDbTextStyleTableRecord
2
STANDARD
70
0
40
0.0
41
0.8000000000
50
0.0
71
0
42
0.2
3
txt
4

0
ENDTAB
0
TABLE
2
VIEW
5
6
100
AcDbSymbolTable
70
0
0
ENDTAB
0
TABLE
2
UCS
5
7
100
AcDbSymbolTable
70
0
0
ENDTAB
0
TABLE
2
APPID
5
9
100
AcDbSymbolTable
70
1
0
APPID
5
216
100
AcDbSymbolTableRecord
100
AcDbRegAppTableRecord
2
ACAD
70
0
0
ENDTAB
0
TABLE
2
BLOCK_RECORD
5
1
100
AcDbSymbolTable
70
0
0
BLOCK_RECORD
5
1F
100
AcDbSymbolTableRecord
100
AcDbBlockTableRecord
2
*MODEL_SPACE
0
BLOCK_RECORD
5
1B
100
AcDbSymbolTableRecord
100
AcDbBlockTableRecord
2
*PAPER_SPACE
0
BLOCK_RECORD
5
217
100
AcDbSymbolTableRecord
100
AcDbBlockTableRecord
2
_FILLED
0
BLOCK_RECORD
5
218
100
AcDbSymbolTableRecord
100
AcDbBlockTableRecord
2
*D0
0
BLOCK_RECORD
5
219
100
AcDbSymbolTableRecord
100
AcDbBlockTableRecord
2
*D1
0
BLOCK_RECORD
5
21A
100
AcDbSymbolTableRecord
100
AcDbBlockTableRecord
2
*D2
0
BLOCK_RECORD
5
21B
100
AcDbSymbolTableRecord
100
AcDbBlockTableRecord
2
*D3
0
ENDTAB
0
TABLE
2
DIMSTYLE
5
A
100
AcDbSymbolTable
70
1
100
AcDbDimStyleTable
71
0
0
DIMSTYLE
105
21C
100
AcDbSymbolTableRecord
100
AcDbDimStyleTableRecord
2
STANDARD
70
0
3

4

40
1.0
41
3.0000000000
42
0.0625
43
0.38
44
0.18
45
0.0
46
0.0
47
0.0100000000
48
0.0100000000
140
3.0000000000
141
0.09
142
0.0
143
25.4
144
1.0000000000
145
0.0
146
1.0000000000
147
0.09
71
1
72
0
73
0
74
0
75
0
76
0
77
1
78
8
170
0
171
2
172
0
173
0
174
0
175
0
176
0
177
0
178
0
270
2
271
2
272
2
273
2
274
2
275
0
280
0
281
0
282
0
283
1
284
8
285
0
286
0
287
3
288
0
340
11
341
217
342
217
343
217
344
217
0
DIMSTYLE
105
21D
100
AcDbSymbolTableRecord
100
AcDbDimStyleTableRecord
2
DIMSTYLE_1
70
0
3

4

40
1.0
41
3.0000000000
42
0.0625
43
0.38
44
0.18
45
0.0
46
0.0
47
0.0000000000
48
0.0000000000
140
3.0000000000
141
0.09
142
0.0
143
25.4
144
1.0000000000
145
0.0
146
1.0000000000
147
0.09
71
0
72
0
73
0
74
0
75
0
76
0
77
1
78
8
170
0
171
2
172
0
173
0
174
0
175
0
176
0
177
0
178
0
270
2
271
2
272
2
273
2
274
2
275
0
280
0
281
0
282
0
283
1
284
8
285
0
286
0
287
3
288
0
340
11
341
217
342
217
343
217
344
217
0
ENDTAB
0
ENDSEC
0
SECTION
2
BLOCKS
0
BLOCK
5
20
100
AcDbEntity
8
0
100
AcDbBlockBegin
2
*MODEL_SPACE
70
0
10
0.0
20
0.0
30
0.0
3
*MODEL_SPACE
1

0
ENDBLK
5
21
100
AcDbEntity
8
0
100
AcDbBlockEnd
0
BLOCK
5
1C
100
AcDbEntity
8
0
100
AcDbBlockBegin
2
*PAPER_SPACE
70
0
10
0.0
20
0.0
30
0.0
3
*PAPER_SPACE
1

0
ENDBLK
5
1D
100
AcDbEntity
8
0
100
AcDbBlockEnd
0
BLOCK
5
21E
100
AcDbEntity
8
0
100
AcDbBlockBegin
62
2
6
CONTINUOUS
2
*D0
70
65
10
0.0000000000
20
0.0000000000
3
*D0
1

0
TEXT
5
21F
100
AcDbEntity
8
0
100
AcDbText
62
2
6
CONTINUOUS
10
-38.4738919320
20
35.0827441568
7
STANDARD
40
3.0000000000
1
22,35
41
0.7142857143
72
0
100
AcDbText
0
LINE
5
220
100
AcDbEntity
8
0
100
AcDbLine
62
2
6
CONTINUOUS
10
-44.2929316723
20
-13.0744247657
11
-44.2929316723
21
35.8327441568
0
LINE
5
221
100
AcDbEntity
8
0
100
AcDbLine
62
2
6
CONTINUOUS
10
-21.9405664775
20
-13.0744247657
11
-21.9405664775
21
35.8327441568
0
LINE
5
222
100
AcDbEntity
8
0
100
AcDbLine
62
2
6
CONTINUOUS
10
-44.2929316723
20
34.3327441568
11
-33.1167490749
21
34.3327441568
0
LINE
5
223
100
AcDbEntity
8
0
100
AcDbLine
62
2
6
CONTINUOUS
10
-21.9405664775
20
34.3327441568
11
-33.1167490749
21
34.3327441568
0
INSERT
5
224
100
AcDbEntity
8
0
100
AcDbBlockReference
62
2
6
CONTINUOUS
2
_FILLED
10
-44.2929316723
20
34.3327441568
41
  3.000000
42
  3.000000
43
  3.000000
50
180.000000
0
INSERT
5
225
100
AcDbEntity
8
0
100
AcDbBlockReference
62
2
6
CONTINUOUS
2
_FILLED
10
-21.9405664775
20
34.3327441568
41
  3.000000
42
  3.000000
43
  3.000000
0
ENDBLK
5
226
100
AcDbEntity
8
0
6
BYBLOCK
62
0
100
AcDbBlockEnd
0
BLOCK
5
227
100
AcDbEntity
8
0
100
AcDbBlockBegin
62
2
6
CONTINUOUS
2
*D1
70
65
10
0.0000000000
20
0.0000000000
3
*D1
1

0
TEXT
5
228
100
AcDbEntity
8
0
100
AcDbText
62
2
6
CONTINUOUS
10
-14.6905664775
20
-1.0240732458
7
STANDARD
40
3.0000000000
1
47
50
90.0000000000
41
0.7857142857
72
0
100
AcDbText
0
LINE
5
229
100
AcDbEntity
8
0
100
AcDbLine
62
2
6
CONTINUOUS
10
-35.6167490749
20
-20.6672558432
11
-12.4405664775
21
-20.6672558432
0
LINE
5
22A
100
AcDbEntity
8
0
100
AcDbLine
62
2
6
CONTINUOUS
10
-36.5900864225
20
26.3327441568
11
-12.4405664775
21
26.3327441568
0
LINE
5
22B
100
AcDbEntity
8
0
100
AcDbLine
62
2
6
CONTINUOUS
10
-13.9405664775
20
-20.6672558432
11
-13.9405664775
21
2.8327441568
0
LINE
5
22C
100
AcDbEntity
8
0
100
AcDbLine
62
2
6
CONTINUOUS
10
-13.9405664775
20
26.3327441568
11
-13.9405664775
21
2.8327441568
0
INSERT
5
22D
100
AcDbEntity
8
0
100
AcDbBlockReference
62
2
6
CONTINUOUS
2
_FILLED
10
-13.9405664775
20
-20.6672558432
41
  3.000000
42
  3.000000
43
  3.000000
50
270.000000
0
INSERT
5
22E
100
AcDbEntity
8
0
100
AcDbBlockReference
62
2
6
CONTINUOUS
2
_FILLED
10
-13.9405664775
20
26.3327441568
41
  3.000000
42
  3.000000
43
  3.000000
50
 90.000000
0
ENDBLK
5
22F
100
AcDbEntity
8
0
6
BYBLOCK
62
0
100
AcDbBlockEnd
0
BLOCK
5
230
100
AcDbEntity
8
0
100
AcDbBlockBegin
62
2
6
CONTINUOUS
2
*D2
70
65
10
0.0000000000
20
0.0000000000
3
*D2
1

0
TEXT
5
231
100
AcDbEntity
8
0
100
AcDbText
62
2
6
CONTINUOUS
10
-78.6897167640
20
35.0827441568
7
STANDARD
40
3.0000000000
1
29
41
0.7857142857
72
0
100
AcDbText
0
LINE
5
232
100
AcDbEntity
8
0
100
AcDbLine
62
2
6
CONTINUOUS
10
-61.8325739069
20
18.6006742030
11
-61.8325739069
21
35.8327441568
0
LINE
5
233
100
AcDbEntity
8
0
100
AcDbLine
62
2
6
CONTINUOUS
10
-90.8325739069
20
25.2325153047
11
-90.8325739069
21
35.8327441568
0
LINE
5
234
100
AcDbEntity
8
0
100
AcDbLine
62
2
6
CONTINUOUS
10
-61.8325739069
20
34.3327441568
11
-76.3325739069
21
34.3327441568
0
LINE
5
235
100
AcDbEntity
8
0
100
AcDbLine
62
2
6
CONTINUOUS
10
-90.8325739069
20
34.3327441568
11
-76.3325739069
21
34.3327441568
0
INSERT
5
236
100
AcDbEntity
8
0
100
AcDbBlockReference
62
2
6
CONTINUOUS
2
_FILLED
10
-61.8325739069
20
34.3327441568
41
  3.000000
42
  3.000000
43
  3.000000
0
INSERT
5
237
100
AcDbEntity
8
0
100
AcDbBlockReference
62
2
6
CONTINUOUS
2
_FILLED
10
-90.8325739069
20
34.3327441568
41
  3.000000
42
  3.000000
43
  3.000000
50
180.000000
0
ENDBLK
5
238
100
AcDbEntity
8
0
6
BYBLOCK
62
0
100
AcDbBlockEnd
0
BLOCK
5
239
100
AcDbEntity
8
0
100
AcDbBlockBegin
62
2
6
CONTINUOUS
2
*D3
70
65
10
0.0000000000
20
0.0000000000
3
*D3
1

0
TEXT
5
23A
100
AcDbEntity
8
0
100
AcDbText
62
2
6
CONTINUOUS
10
-85.2611453354
20
45.0827441568
7
STANDARD
40
3.0000000000
1
38,5
41
0.6964285714
72
0
100
AcDbText
0
LINE
5
23B
100
AcDbEntity
8
0
100
AcDbLine
62
2
6
CONTINUOUS
10
-61.8325739069
20
18.6006742030
11
-61.8325739069
21
45.8327441568
0
LINE
5
23C
100
AcDbEntity
8
0
100
AcDbLine
62
2
6
CONTINUOUS
10
-100.3325739069
20
3.3327441568
11
-100.3325739069
21
45.8327441568
0
LINE
5
23D
100
AcDbEntity
8
0
100
AcDbLine
62
2
6
CONTINUOUS
10
-61.8325739069
20
44.3327441568
11
-81.0825739069
21
44.3327441568
0
LINE
5
23E
100
AcDbEntity
8
0
100
AcDbLine
62
2
6
CONTINUOUS
10
-100.3325739069
20
44.3327441568
11
-81.0825739069
21
44.3327441568
0
INSERT
5
23F
100
AcDbEntity
8
0
100
AcDbBlockReference
62
2
6
CONTINUOUS
2
_FILLED
10
-61.8325739069
20
44.3327441568
41
  3.000000
42
  3.000000
43
  3.000000
0
INSERT
5
240
100
AcDbEntity
8
0
100
AcDbBlockReference
62
2
6
CONTINUOUS
2
_FILLED
10
-100.3325739069
20
44.3327441568
41
  3.000000
42
  3.000000
43
  3.000000
50
180.000000
0
ENDBLK
5
241
100
AcDbEntity
8
0
6
BYBLOCK
62
0
100
AcDbBlockEnd
0
BLOCK
5
242
100
AcDbEntity
8
0
100
AcDbBlockBegin
2
_FILLED
70
64
10
0.0000000000
20
0.0000000000
3
_FILLED
1

0
SOLID
5
243
100
AcDbEntity
8
0
6
BYBLOCK
62
0
100
AcDbTrace
10
0.0000000000
20
0.0000000000
11
-1.0000000000
21
0.3166666667
12
-1.0000000000
22
-0.3166666667
13
-1.0000000000
23
-0.3166666667
0
ENDBLK
5
244
100
AcDbEntity
8
0
6
BYBLOCK
62
0
100
AcDbBlockEnd
0
ENDSEC
0
SECTION
2
ENTITIES
0
DIMENSION
5
245
100
AcDbEntity
8
0
100
AcDbDimension
62
2
6
CONTINUOUS
2
*D0
10
-21.9405664775
20
34.3327441568
11
-33.1167490749
21
36.5827441568
70
160
3
DIMSTYLE_1
100
AcDbAlignedDimension
13
-44.2929316723
23
-13.0744247657
14
-21.9405664775
24
-13.0744247657
100
AcDbRotatedDimension
0
DIMENSION
5
246
100
AcDbEntity
8
0
100
AcDbDimension
62
2
6
CONTINUOUS
2
*D1
10
-13.9405664775
20
26.3327441568
11
-16.1905664775
21
1.3330696114
70
160
3
DIMSTYLE_1
100
AcDbAlignedDimension
13
-35.6167490749
23
-20.6672558432
14
-36.5900864225
24
26.3327441568
50
90.000000
100
AcDbRotatedDimension
0
DIMENSION
5
247
100
AcDbEntity
8
0
100
AcDbDimension
62
2
6
CONTINUOUS
2
*D2
10
-90.8325739069
20
34.3327441568
11
-76.3325739069
21
36.5827441568
70
160
3
DIMSTYLE_1
100
AcDbAlignedDimension
13
-61.8325739069
23
18.6006742030
14
-90.8325739069
24
25.2325153047
50
180.000000
100
AcDbRotatedDimension
0
DIMENSION
5
248
100
AcDbEntity
8
0
100
AcDbDimension
62
2
6
CONTINUOUS
2
*D3
10
-100.3325739069
20
44.3327441568
11
-81.0825739069
21
46.5827441568
70
160
3
DIMSTYLE_1
100
AcDbAlignedDimension
13
-61.8325739069
23
18.6006742030
14
-100.3325739069
24
3.3327441568
50
180.000000
100
AcDbRotatedDimension
0
LINE
5
249
100
AcDbEntity
8
0
100
AcDbLine
62
7
6
CONTINUOUS
10
-36.1167490749
20
-20.6672558432
11
-35.8980274161
21
-20.6236181809
0
LINE
5
24A
100
AcDbEntity
8
0
100
AcDbLine
62
7
6
CONTINUOUS
10
-29.1434117272
20
-20.6672558432
11
-30.1167490749
21
-20.6672558432
0
LINE
5
24B
100
AcDbEntity
8
0
100
AcDbLine
62
7
6
CONTINUOUS
10
-36.1167490749
20
-20.6672558432
11
-37.0900864225
21
-20.6672558432
0
LINE
5
24C
100
AcDbEntity
8
0
100
AcDbLine
62
7
6
CONTINUOUS
10
-35.8980274161
20
-20.6236181809
11
-30.3354707337
21
-20.6236181809
0
LINE
5
24D
100
AcDbEntity
8
0
100
AcDbLine
62
7
6
CONTINUOUS
10
-30.3354707337
20
-19.6982752915
11
-35.8980274161
21
-19.6982752915
0
LINE
5
24E
100
AcDbEntity
8
0
100
AcDbLine
62
7
6
CONTINUOUS
10
-43.7671296746
20
-19.5672558432
11
-36.1167490749
21
-19.5672558432
0
LINE
5
24F
100
AcDbEntity
8
0
100
AcDbLine
62
7
6
CONTINUOUS
10
-30.1167490749
20
-19.5672558432
11
-22.4663684752
21
-19.5672558432
0
LINE
5
250
100
AcDbEntity
8
0
100
AcDbLine
62
7
6
CONTINUOUS
10
-30.1167490749
20
-20.6672558432
11
-30.3354707337
21
-20.6236181809
0
LINE
5
251
100
AcDbEntity
8
0
100
AcDbLine
62
7
6
CONTINUOUS
10
-36.1167490749
20
25.2327441568
11
-35.8980274161
21
25.3637636050
0
LINE
5
252
100
AcDbEntity
8
0
100
AcDbLine
62
9
6
CONTINUOUS
10
-22.6079509582
20
-19.1421629805
11
-43.6255471916
21
-19.1421629805
0
LINE
5
253
100
AcDbEntity
8
0
100
AcDbLine
62
9
6
CONTINUOUS
10
-22.6162140124
20
-18.1855700742
11
-43.6172841374
21
-18.1855700742
0
LINE
5
254
100
AcDbEntity
8
0
100
AcDbLine
62
7
6
CONTINUOUS
10
-35.8980274161
20
-19.6982752915
11
-36.1167490749
21
-19.5672558432
0
LINE
5
255
100
AcDbEntity
8
0
100
AcDbLine
62
7
6
CONTINUOUS
10
-44.2929316723
20
-13.5744247657
11
-44.2929316723
21
19.2399130792
0
LINE
5
256
100
AcDbEntity
8
0
100
AcDbLine
62
7
6
CONTINUOUS
10
-44.2667490749
20
24.7325153047
11
-44.2667490749
21
19.2955264482
0
LINE
5
257
100
AcDbEntity
8
0
100
AcDbLine
62
7
6
CONTINUOUS
10
-44.2667490749
20
-13.6300381347
11
-44.2667490749
21
-19.0670269912
0
LINE
5
258
100
AcDbEntity
8
0
100
AcDbLine
62
9
6
CONTINUOUS
10
-36.5246091802
20
3.8434347200
11
-36.4030554556
21
4.5328001471
0
LINE
5
259
100
AcDbEntity
8
0
100
AcDbLine
62
9
6
CONTINUOUS
10
-44.2667490749
20
-19.0670269912
11
-44.1254710392
21
-18.6428482131
0
LINE
5
25A
100
AcDbEntity
8
0
100
AcDbLine
62
9
6
CONTINUOUS
10
-44.1254710392
20
24.3083365266
11
-44.2667490749
21
24.7325153047
0
LINE
5
25B
100
AcDbEntity
8
0
100
AcDbLine
62
9
6
CONTINUOUS
10
-36.5246091802
20
1.8220535935
11
-36.4030554559
21
1.1326881664
0
LINE
5
25C
100
AcDbEntity
8
0
100
AcDbLine
62
7
6
CONTINUOUS
10
-36.1167490749
20
-20.6672558432
11
-36.1167490749
21
-19.5672558432
0
LINE
5
25D
100
AcDbEntity
8
0
100
AcDbLine
62
7
6
CONTINUOUS
10
-36.1167490749
20
25.2327441568
11
-36.1167490749
21
26.3327441568
0
LINE
5
25E
100
AcDbEntity
8
0
100
AcDbLine
62
7
6
CONTINUOUS
10
-35.8980274161
20
-20.6236181809
11
-35.8980274161
21
-19.6982752915
0
LINE
5
25F
100
AcDbEntity
8
0
100
AcDbLine
62
7
6
CONTINUOUS
10
-35.8980274161
20
25.3637636050
11
-35.8980274161
21
26.2891064944
0
LINE
5
260
100
AcDbEntity
8
0
100
AcDbLine
62
9
6
CONTINUOUS
10
-43.7671296746
20
-19.5672558432
11
-43.6255471916
21
-19.1421629805
0
LINE
5
261
100
AcDbEntity
8
0
100
AcDbLine
62
9
6
CONTINUOUS
10
-43.6255471916
20
24.8076512940
11
-43.7671296746
21
25.2327441568
0
LINE
5
262
100
AcDbEntity
8
0
100
AcDbLine
62
7
6
CONTINUOUS
10
-34.9180829889
20
-1.1602649210
11
-35.1109425337
21
-1.5877758378
0
LINE
5
263
100
AcDbEntity
8
0
100
AcDbLine
62
7
6
CONTINUOUS
10
-31.3154151608
20
6.8257532345
11
-31.1225556161
21
7.2532641513
0
LINE
5
264
100
AcDbEntity
8
0
100
AcDbLine
62
9
6
CONTINUOUS
10
-36.4030554559
20
1.1326881664
11
-34.0651301946
21
1.5449274688
0
LINE
5
265
100
AcDbEntity
8
0
100
AcDbLine
62
7
6
CONTINUOUS
10
-37.8043419232
20
1.5964021828
11
-34.7625954372
21
2.1327441568
0
LINE
5
266
100
AcDbEntity
8
0
100
AcDbLine
62
7
6
CONTINUOUS
10
-28.6633817271
20
1.3327441568
11
-28.5066661875
21
1.3327441568
0
LINE
5
267
100
AcDbEntity
8
0
100
AcDbLine
62
7
6
CONTINUOUS
10
-34.7625954372
20
2.1327441568
11
-34.6731873165
21
2.1327441568
0
LINE
5
268
100
AcDbEntity
8
0
100
AcDbLine
62
7
6
CONTINUOUS
10
-31.6786170245
20
2.1327441568
11
-30.1167490749
21
2.1327441568
0
LINE
5
269
100
AcDbEntity
8
0
100
AcDbLine
62
7
6
CONTINUOUS
10
-31.5237958427
20
2.6827441568
11
-32.1280630782
21
2.6827441568
0
LINE
5
26A
100
AcDbEntity
8
0
100
AcDbLine
62
7
6
CONTINUOUS
10
-34.1054350716
20
2.6827441568
11
-34.7097023071
21
2.6827441568
0
LINE
5
26B
100
AcDbEntity
8
0
100
AcDbLine
62
7
6
CONTINUOUS
10
-34.7097023071
20
2.9827441568
11
-34.1054350716
21
2.9827441568
0
LINE
5
26C
100
AcDbEntity
8
0
100
AcDbLine
62
7
6
CONTINUOUS
10
-32.1280630782
20
2.9827441568
11
-31.5237958427
21
2.9827441568
0
LINE
5
26D
100
AcDbEntity
8
0
100
AcDbLine
62
7
6
CONTINUOUS
10
-34.9180829889
20
6.8257532345
11
-35.1109425337
21
7.2532641513
0
LINE
5
26E
100
AcDbEntity
8
0
100
AcDbLine
62
7
6
CONTINUOUS
10
-31.3154151608
20
-1.1602649210
11
-31.1225556161
21
-1.5877758378
0
LINE
5
26F
100
AcDbEntity
8
0
100
AcDbLine
62
7
6
CONTINUOUS
10
-30.1167490749
20
3.5327441568
11
-31.6786170245
21
3.5327441568
0
LINE
5
270
100
AcDbEntity
8
0
100
AcDbLine
62
7
6
CONTINUOUS
10
-34.6731873165
20
3.5327441568
11
-34.7625954372
21
3.5327441568
0
LINE
5
271
100
AcDbEntity
8
0
100
AcDbLine
62
7
6
CONTINUOUS
10
-28.5066661875
20
4.3327441568
11
-28.6633817271
21
4.3327441568
0
LINE
5
272
100
AcDbEntity
8
0
100
AcDbLine
62
7
6
CONTINUOUS
10
-34.7625954372
20
3.5327441568
11
-37.8043419232
21
4.0690861307
0
LINE
5
273
100
AcDbEntity
8
0
100
AcDbLine
62
9
6
CONTINUOUS
10
-34.0651301946
20
4.1205608447
11
-36.4030554559
21
4.5328001471
0
LINE
5
274
100
AcDbEntity
8
0
100
AcDbLine
62
7
6
CONTINUOUS
10
-30.8667490749
20
-1.2936949861
11
-30.8667490749
21
-1.4617790670
0
LINE
5
275
100
AcDbEntity
8
0
100
AcDbLine
62
7
6
CONTINUOUS
10
-30.8667490749
20
6.9591832996
11
-30.8667490749
21
7.1272673805
0
LINE
5
276
100
AcDbEntity
8
0
100
AcDbLine
62
7
6
CONTINUOUS
10
-30.6167490749
20
6.9866795580
11
-30.6167490749
21
6.8114229365
0
LINE
5
277
100
AcDbEntity
8
0
100
AcDbLine
62
7
6
CONTINUOUS
10
-30.6167490749
20
-1.3211912445
11
-30.6167490749
21
-1.1459339328
0
LINE
5
278
100
AcDbEntity
8
0
100
AcDbLine
62
7
6
CONTINUOUS
10
-30.3667490749
20
-0.9785669198
11
-30.3667490749
21
-1.1607488782
0
LINE
5
279
100
AcDbEntity
8
0
100
AcDbLine
62
7
6
CONTINUOUS
10
-30.3354707337
20
-20.6236181809
11
-30.3354707337
21
-19.6982752915
0
LINE
5
27A
100
AcDbEntity
8
0
100
AcDbLine
62
7
6
CONTINUOUS
10
-30.3354707337
20
25.3637636050
11
-30.3354707337
21
26.2891064944
0
LINE
5
27B
100
AcDbEntity
8
0
100
AcDbLine
62
7
6
CONTINUOUS
10
-30.1167490749
20
-20.6672558432
11
-30.1167490749
21
-19.5672558432
0
LINE
5
27C
100
AcDbEntity
8
0
100
AcDbLine
62
7
6
CONTINUOUS
10
-30.1167490749
20
25.2327441568
11
-30.1167490749
21
26.3327441568
0
LINE
5
27D
100
AcDbEntity
8
0
100
AcDbLine
62
9
6
CONTINUOUS
10
-22.6079509582
20
24.8076512940
11
-22.4663684752
21
25.2327441568
0
LINE
5
27E
100
AcDbEntity
8
0
100
AcDbLine
62
9
6
CONTINUOUS
10
-22.1080271106
20
24.3083365266
11
-21.9667490749
21
24.7325153047
0
LINE
5
27F
100
AcDbEntity
8
0
100
AcDbLine
62
7
6
CONTINUOUS
10
-28.9628136737
20
5.3327441568
11
-29.1386058041
21
5.3327441568
0
LINE
5
280
100
AcDbEntity
8
0
100
AcDbLine
62
9
6
CONTINUOUS
10
-22.4663684752
20
-19.5672558432
11
-22.6079509582
21
-19.1421629805
0
LINE
5
281
100
AcDbEntity
8
0
100
AcDbLine
62
9
6
CONTINUOUS
10
-21.9667490749
20
-19.0670269912
11
-22.1080271106
21
-18.6428482131
0
LINE
5
282
100
AcDbEntity
8
0
100
AcDbLine
62
7
6
CONTINUOUS
10
-21.9667490749
20
-19.0670269912
11
-21.9667490749
21
-13.6300381347
0
LINE
5
283
100
AcDbEntity
8
0
100
AcDbLine
62
7
6
CONTINUOUS
10
-21.9667490749
20
19.2955264482
11
-21.9667490749
21
24.7325153047
0
LINE
5
284
100
AcDbEntity
8
0
100
AcDbLine
62
7
6
CONTINUOUS
10
-21.9405664775
20
19.2399130792
11
-21.9405664775
21
-13.5744247657
0
LINE
5
285
100
AcDbEntity
8
0
100
AcDbLine
62
7
6
CONTINUOUS
10
-30.3354707337
20
-19.6982752915
11
-30.1167490749
21
-19.5672558432
0
LINE
5
286
100
AcDbEntity
8
0
100
AcDbLine
62
9
6
CONTINUOUS
10
-43.6172841374
20
23.8510583877
11
-22.6162140124
21
23.8510583877
0
LINE
5
287
100
AcDbEntity
8
0
100
AcDbLine
62
7
6
CONTINUOUS
10
-30.1167490749
20
25.2327441568
11
-30.3354707337
21
25.3637636050
0
LINE
5
288
100
AcDbEntity
8
0
100
AcDbLine
62
7
6
CONTINUOUS
10
-30.1167490749
20
26.3327441568
11
-30.3354707337
21
26.2891064944
0
LINE
5
289
100
AcDbEntity
8
0
100
AcDbLine
62
9
6
CONTINUOUS
10
-43.6255471916
20
24.8076512940
11
-22.6079509582
21
24.8076512940
0
LINE
5
28A
100
AcDbEntity
8
0
100
AcDbLine
62
7
6
CONTINUOUS
10
-43.7671296746
20
25.2327441568
11
-36.1167490749
21
25.2327441568
0
LINE
5
28B
100
AcDbEntity
8
0
100
AcDbLine
62
7
6
CONTINUOUS
10
-30.1167490749
20
25.2327441568
11
-22.4663684752
21
25.2327441568
0
LINE
5
28C
100
AcDbEntity
8
0
100
AcDbLine
62
7
6
CONTINUOUS
10
-30.3354707337
20
25.3637636050
11
-35.8980274161
21
25.3637636050
0
LINE
5
28D
100
AcDbEntity
8
0
100
AcDbLine
62
7
6
CONTINUOUS
10
-36.1167490749
20
26.3327441568
11
-35.8980274161
21
26.2891064944
0
LINE
5
28E
100
AcDbEntity
8
0
100
AcDbLine
62
7
6
CONTINUOUS
10
-35.8980274161
20
26.2891064944
11
-30.3354707337
21
26.2891064944
0
LINE
5
28F
100
AcDbEntity
8
0
100
AcDbLine
62
7
6
CONTINUOUS
10
-37.0900864225
20
26.3327441568
11
-36.1167490749
21
26.3327441568
0
LINE
5
290
100
AcDbEntity
8
0
100
AcDbLine
62
7
6
CONTINUOUS
10
-30.1167490749
20
26.3327441568
11
-29.1434117272
21
26.3327441568
0
LINE
5
291
100
AcDbEntity
8
0
100
AcDbLine
62
7
6
CONTINUOUS
10
-86.8325739069
20
-20.5974355835
11
-90.8325739069
21
-20.6672558432
0
LINE
5
292
100
AcDbEntity
8
0
100
AcDbLine
62
7
6
CONTINUOUS
10
-84.7249002271
20
-19.3628254422
11
-85.2325739069
21
-19.3672558432
0
LINE
5
293
100
AcDbEntity
8
0
100
AcDbLine
62
7
6
CONTINUOUS
10
-90.8325739069
20
-19.5672558432
11
-98.9438289268
21
-19.1421629805
0
LINE
5
294
100
AcDbEntity
8
0
100
AcDbLine
62
9
6
CONTINUOUS
10
-90.8325739069
20
-19.0670269912
11
-98.9263871519
21
-18.6428482131
0
LINE
5
295
100
AcDbEntity
8
0
100
AcDbLine
62
9
6
CONTINUOUS
10
-99.8906090302
20
-18.1855700737
11
-99.3997772089
21
-18.1645517599
0
LINE
5
296
100
AcDbEntity
8
0
100
AcDbLine
62
7
6
CONTINUOUS
10
-86.8325739069
20
-18.3812188317
11
-82.9662670130
21
-18.3474780826
0
LINE
5
297
100
AcDbEntity
8
0
100
AcDbLine
62
7
6
CONTINUOUS
10
-89.3325739069
20
-16.1672558432
11
-62.7247200249
21
-15.9350526202
0
LINE
5
298
100
AcDbEntity
8
0
100
AcDbLine
62
9
6
CONTINUOUS
10
-81.4325739069
20
-16.3672558432
11
-90.8325739069
21
-16.3672558432
0
LINE
5
299
100
AcDbEntity
8
0
100
AcDbLine
62
7
6
CONTINUOUS
10
-89.3325739069
20
-16.0672558432
11
-90.8325739069
21
-16.0672558432
0
LINE
5
29A
100
AcDbEntity
8
0
100
AcDbLine
62
7
6
CONTINUOUS
10
-90.8325739069
20
-15.4678749899
11
-89.3325739069
21
-15.4171640899
0
LINE
5
29B
100
AcDbEntity
8
0
100
AcDbLine
62
7
6
CONTINUOUS
10
-61.6325739069
20
-13.8633898432
11
-61.8325739069
21
-13.8633898432
0
LINE
5
29C
100
AcDbEntity
8
0
100
AcDbLine
62
7
6
CONTINUOUS
10
-61.6325739069
20
-13.5922988432
11
-61.8325739069
21
-13.5922988432
0
LINE
5
29D
100
AcDbEntity
8
0
100
AcDbLine
62
7
6
CONTINUOUS
10
-61.8325739069
20
-13.2672558432
11
-61.6325739069
21
-13.2672558432
0
LINE
5
29E
100
AcDbEntity
8
0
100
AcDbLine
62
9
6
CONTINUOUS
10
-89.3325739069
20
-12.6673891125
11
-62.7247200249
21
-12.4351858895
0
LINE
5
29F
100
AcDbEntity
8
0
100
AcDbLine
62
9
6
CONTINUOUS
10
-61.8325739069
20
-12.4351858895
11
-62.7247200249
21
-12.4351858886
0
LINE
5
2A0
100
AcDbEntity
8
CURVE
100
AcDbLine
62
9
6
CONTINUOUS
10
-81.1506507632
20
-12.1672558432
11
-79.8507497613
21
-12.1672558432
0
LINE
5
2A1
100
AcDbEntity
8
CURVE
100
AcDbLine
62
9
6
CONTINUOUS
10
-73.1512599825
20
-11.9196367910
11
-71.8513589807
21
-11.9196367910
0
LINE
5
2A2
100
AcDbEntity
8
CURVE
100
AcDbLine
62
9
6
CONTINUOUS
10
-80.0364499127
20
-11.5172558432
11
-80.9649506311
21
-11.5172558432
0
LINE
5
2A3
100
AcDbEntity
8
CURVE
100
AcDbLine
62
9
6
CONTINUOUS
10
-73.1512599825
20
-11.3315415686
11
-71.8513589807
21
-11.3315415686
0
LINE
5
2A4
100
AcDbEntity
8
0
100
AcDbLine
62
7
6
CONTINUOUS
10
-80.8325739069
20
22.6327441568
11
-81.6991894439
21
21.7661286197
0
LINE
5
2A5
100
AcDbEntity
8
CURVE
100
AcDbLine
62
2
6
CONTINUOUS
10
-85.6324365776
20
17.4324072713
11
-85.4307722028
21
17.6340716461
0
LINE
5
2A6
100
AcDbEntity
8
CURVE
100
AcDbLine
62
2
6
CONTINUOUS
10
-85.6324365776
20
16.4957998181
11
-85.5767373287
21
16.5514990670
0
LINE
5
2A7
100
AcDbEntity
8
CURVE
100
AcDbLine
62
2
6
CONTINUOUS
10
-85.2519070507
20
16.8763293450
11
-85.0124120366
21
17.1158243591
0
LINE
5
2A8
100
AcDbEntity
8
CURVE
100
AcDbLine
62
2
6
CONTINUOUS
10
-84.8585374042
20
17.2696989915
11
-84.6568730293
21
17.4713633663
0
LINE
5
2A9
100
AcDbEntity
8
CURVE
100
AcDbLine
62
2
6
CONTINUOUS
10
-84.0342382817
20
18.0939981139
11
-84.0014543779
21
18.1267820177
0
LINE
5
2AA
100
AcDbEntity
8
CURVE
100
AcDbLine
62
2
6
CONTINUOUS
10
-85.0617064674
20
16.1299224750
11
-84.8859128829
21
16.3057160596
0
LINE
5
2AB
100
AcDbEntity
8
CURVE
100
AcDbLine
62
2
6
CONTINUOUS
10
-84.3152995975
20
16.8763293450
11
-84.0758045834
21
17.1158243591
0
LINE
5
2AC
100
AcDbEntity
8
CURVE
100
AcDbLine
62
2
6
CONTINUOUS
10
-84.0342382817
20
17.1573906607
11
-83.8325739069
21
17.3590550356
0
LINE
5
2AD
100
AcDbEntity
8
0
100
AcDbLine
62
9
6
CONTINUOUS
10
-83.8325739069
20
15.6587020766
11
-85.6325736519
21
15.0234155224
0
LINE
5
2AE
100
AcDbEntity
8
CURVE
100
AcDbLine
62
9
6
CONTINUOUS
10
-83.8325739069
20
15.6587020766
11
-85.6324365776
21
15.0234155224
0
LINE
5
2AF
100
AcDbEntity
8
0
100
AcDbLine
62
9
6
CONTINUOUS
10
-85.6325736519
20
15.2830479120
11
-84.0720678622
21
15.7973577534
0
LINE
5
2B0
100
AcDbEntity
8
CURVE
100
AcDbLine
62
9
6
CONTINUOUS
10
-85.6324365776
20
15.2830479120
11
-84.0720496242
21
15.7973577534
0
LINE
5
2B1
100
AcDbEntity
8
CURVE
100
AcDbLine
62
9
6
CONTINUOUS
10
-81.1506507632
20
-10.7434463268
11
-79.8507497613
21
-10.7434463268
0
LINE
5
2B2
100
AcDbEntity
8
0
100
AcDbLine
62
7
6
CONTINUOUS
10
-61.8325739069
20
-10.6394990297
11
-61.6325739069
21
-10.6394990297
0
LINE
5
2B3
100
AcDbEntity
8
CURVE
100
AcDbLine
62
9
6
CONTINUOUS
10
-72.9655598505
20
-10.4029701954
11
-72.0370591321
21
-10.4029701954
0
LINE
5
2B4
100
AcDbEntity
8
CURVE
100
AcDbLine
62
9
6
CONTINUOUS
10
-81.1506507632
20
-10.1553510075
11
-79.8507497613
21
-10.1553510075
0
LINE
5
2B5
100
AcDbEntity
8
CURVE
100
AcDbLine
62
9
6
CONTINUOUS
10
-80.5935503670
20
-9.5053510075
11
-80.9649506311
21
-9.5053510075
0
LINE
5
2B6
100
AcDbEntity
8
CURVE
100
AcDbLine
62
9
6
CONTINUOUS
10
-81.1506507632
20
-9.1339226132
11
-79.8507497613
21
-9.1339226132
0
LINE
5
2B7
100
AcDbEntity
8
0
100
AcDbLine
62
7
6
CONTINUOUS
10
-81.6991894439
20
-16.1006403062
11
-80.8325739069
21
-16.9672558432
0
LINE
5
2B8
100
AcDbEntity
8
CURVE
100
AcDbLine
62
2
6
CONTINUOUS
10
-85.6324365776
20
14.6225849116
11
-85.4433300366
21
14.8116914526
0
LINE
5
2B9
100
AcDbEntity
8
CURVE
100
AcDbLine
62
2
6
CONTINUOUS
10
-85.0129493295
20
15.2420721597
11
-84.6472531364
21
15.6077683529
0
LINE
5
2BA
100
AcDbEntity
8
CURVE
100
AcDbLine
62
2
6
CONTINUOUS
10
-84.3606742046
20
15.8943472846
11
-84.1950884371
21
16.0599330521
0
LINE
5
2BB
100
AcDbEntity
8
CURVE
100
AcDbLine
62
2
6
CONTINUOUS
10
-85.6324365776
20
13.6859774584
11
-85.4307722028
21
13.8876418333
0
LINE
5
2BC
100
AcDbEntity
8
CURVE
100
AcDbLine
62
2
6
CONTINUOUS
10
-84.8585374042
20
14.4598766318
11
-84.6568730293
21
14.6615410067
0
LINE
5
2BD
100
AcDbEntity
8
CURVE
100
AcDbLine
62
9
6
CONTINUOUS
10
-80.5935503670
20
17.9184583539
11
-80.4078501962
21
18.1041728610
0
LINE
5
2BE
100
AcDbEntity
8
CURVE
100
AcDbLine
62
2
6
CONTINUOUS
10
-85.5418092918
20
12.8399972910
11
-85.3145909854
21
13.0672155974
0
LINE
5
2BF
100
AcDbEntity
8
CURVE
100
AcDbLine
62
2
6
CONTINUOUS
10
-84.8129681141
20
13.5688384687
11
-84.5734741588
21
13.8083324240
0
LINE
5
2C0
100
AcDbEntity
8
CURVE
100
AcDbLine
62
2
6
CONTINUOUS
10
-84.0342382817
20
14.3475683011
11
-83.8325739069
21
14.5492326759
0
LINE
5
2C1
100
AcDbEntity
8
CURVE
100
AcDbLine
62
9
6
CONTINUOUS
10
-81.1506507632
20
17.9184583539
11
-80.9649506311
21
18.0732202882
0
LINE
5
2C2
100
AcDbEntity
8
CURVE
100
AcDbLine
62
9
6
CONTINUOUS
10
-81.1506507632
20
16.2470298046
11
-80.9649506311
21
16.4017917389
0
LINE
5
2C3
100
AcDbEntity
8
0
100
AcDbLine
62
9
6
CONTINUOUS
10
-83.8325739069
20
12.8050231566
11
-85.2771066240
21
11.8646892431
0
LINE
5
2C4
100
AcDbEntity
8
CURVE
100
AcDbLine
62
9
6
CONTINUOUS
10
-83.8325739069
20
12.8050231566
11
-85.2769966194
21
11.8646892431
0
LINE
5
2C5
100
AcDbEntity
8
0
100
AcDbLine
62
9
6
CONTINUOUS
10
-85.6325736519
20
11.8873707887
11
-84.1729082582
21
12.8352715697
0
LINE
5
2C6
100
AcDbEntity
8
CURVE
100
AcDbLine
62
9
6
CONTINUOUS
10
-85.6324365776
20
11.8873707887
11
-84.1728823409
21
12.8352715697
0
LINE
5
2C7
100
AcDbEntity
8
CURVE
100
AcDbLine
62
9
6
CONTINUOUS
10
-77.0057283383
20
16.9851251239
11
-77.0676283920
21
16.9541728610
0
LINE
5
2C8
100
AcDbEntity
8
CURVE
100
AcDbLine
62
9
6
CONTINUOUS
10
-76.9747783163
20
16.8613154525
11
-76.9128782674
21
16.8922680253
0
LINE
5
2C9
100
AcDbEntity
8
CURVE
100
AcDbLine
62
9
6
CONTINUOUS
10
-80.7792504991
20
14.4827441568
11
-80.9649506311
21
14.3898870194
0
LINE
5
2CA
100
AcDbEntity
8
CURVE
100
AcDbLine
62
9
6
CONTINUOUS
10
-80.9649506311
20
-8.2053510075
11
-80.0364499127
21
-8.2053510075
0
LINE
5
2CB
100
AcDbEntity
8
CURVE
100
AcDbLine
62
9
6
CONTINUOUS
10
-71.8513589807
20
-7.9267797118
11
-73.1512599825
21
-7.9267797118
0
LINE
5
2CC
100
AcDbEntity
8
CURVE
100
AcDbLine
62
9
6
CONTINUOUS
10
-72.0370591321
20
-7.5553510075
11
-72.5013094816
21
-7.5553510075
0
LINE
5
2CD
100
AcDbEntity
8
0
100
AcDbLine
62
7
6
CONTINUOUS
10
-61.8325739069
20
-7.4672558432
11
-61.6325739069
21
-7.4672558432
0
LINE
5
2CE
100
AcDbEntity
8
0
100
AcDbLine
62
7
6
CONTINUOUS
10
-90.8325739069
20
-13.6300381347
11
-90.8325739069
21
-20.6672558432
0
LINE
5
2CF
100
AcDbEntity
8
0
100
AcDbLine
62
7
6
CONTINUOUS
10
-90.8325739069
20
19.2955264482
11
-90.8325739069
21
25.4959107787
0
LINE
5
2D0
100
AcDbEntity
8
0
100
AcDbLine
62
7
6
CONTINUOUS
10
-90.8325739069
20
25.5394240117
11
-90.8325739069
21
26.3327441568
0
LINE
5
2D1
100
AcDbEntity
8
0
100
AcDbLine
62
7
6
CONTINUOUS
10
-89.3325739069
20
21.0826283876
11
-89.3325739069
21
-16.1672558432
0
LINE
5
2D2
100
AcDbEntity
8
0
100
AcDbLine
62
7
6
CONTINUOUS
10
-89.3325739069
20
21.1096430695
11
-89.3325739069
21
21.8327441568
0
LINE
5
2D3
100
AcDbEntity
8
CURVE
100
AcDbLine
62
2
6
CONTINUOUS
10
-85.6324365776
20
11.8127625520
11
-85.4196074317
21
12.0255916979
0
LINE
5
2D4
100
AcDbEntity
8
CURVE
100
AcDbLine
62
2
6
CONTINUOUS
10
-84.6084240110
20
12.8367751186
11
-84.3779835322
21
13.0672155974
0
LINE
5
2D5
100
AcDbEntity
8
CURVE
100
AcDbLine
62
2
6
CONTINUOUS
10
-83.8763606609
20
13.5688384687
11
-83.8325739069
21
13.6126252227
0
LINE
5
2D6
100
AcDbEntity
8
CURVE
100
AcDbLine
62
9
6
CONTINUOUS
10
-80.5935503670
20
16.2470298046
11
-80.4078501962
21
16.4327441568
0
LINE
5
2D7
100
AcDbEntity
8
CURVE
100
AcDbLine
62
2
6
CONTINUOUS
10
-84.8758475196
20
11.6327441568
11
-84.6461105516
21
11.8624811247
0
LINE
5
2D8
100
AcDbEntity
8
CURVE
100
AcDbLine
62
9
6
CONTINUOUS
10
-81.1506507632
20
15.3184585089
11
-80.9649506311
21
15.5041727060
0
LINE
5
2D9
100
AcDbEntity
8
CURVE
100
AcDbLine
62
9
6
CONTINUOUS
10
-78.0580291157
20
18.0684583539
11
-78.1508792204
21
17.9756015653
0
LINE
5
2DA
100
AcDbEntity
8
CURVE
100
AcDbLine
62
2
6
CONTINUOUS
10
-83.9392400664
20
11.6327441568
11
-83.8325739069
21
11.7394103163
0
LINE
5
2DB
100
AcDbEntity
8
CURVE
100
AcDbLine
62
9
6
CONTINUOUS
10
-80.4078501962
20
15.0398869807
11
-80.5935503670
21
14.8541727060
0
LINE
5
2DC
100
AcDbEntity
8
CURVE
100
AcDbLine
62
9
6
CONTINUOUS
10
-80.9649506311
20
14.3898870194
11
-81.1506507632
21
14.2041727448
0
LINE
5
2DD
100
AcDbEntity
8
CURVE
100
AcDbLine
62
9
6
CONTINUOUS
10
-78.1508792204
20
16.1184583539
11
-77.9651790884
21
16.2732202882
0
LINE
5
2DE
100
AcDbEntity
8
CURVE
100
AcDbLine
62
9
6
CONTINUOUS
10
-80.2221500642
20
13.8327441568
11
-80.0364499127
21
13.9256013038
0
LINE
5
2DF
100
AcDbEntity
8
CURVE
100
AcDbLine
62
9
6
CONTINUOUS
10
-72.4084594156
20
-6.9053513175
11
-72.0370591321
21
-6.9053513175
0
LINE
5
2E0
100
AcDbEntity
8
CURVE
100
AcDbLine
62
9
6
CONTINUOUS
10
-81.1506507632
20
-6.7505893832
11
-79.8507497613
21
-6.7505893832
0
LINE
5
2E1
100
AcDbEntity
8
CURVE
100
AcDbLine
62
9
6
CONTINUOUS
10
-72.5941595864
20
-6.5339223033
11
-72.9655598505
21
-6.5339223033
0
LINE
5
2E2
100
AcDbEntity
8
CURVE
100
AcDbLine
62
9
6
CONTINUOUS
10
-72.9655598505
20
-5.8839223033
11
-72.5941595864
21
-5.8839223033
0
LINE
5
2E3
100
AcDbEntity
8
CURVE
100
AcDbLine
62
9
6
CONTINUOUS
10
-79.8507497613
20
-11.7029701179
11
-80.0364499127
21
-11.5172558432
0
LINE
5
2E4
100
AcDbEntity
8
CURVE
100
AcDbLine
62
9
6
CONTINUOUS
10
-80.4078501962
20
-9.6910653597
11
-80.5935503670
21
-9.5053510075
0
LINE
5
2E5
100
AcDbEntity
8
0
100
AcDbLine
62
7
6
CONTINUOUS
10
-86.8325739069
20
26.2629238970
11
-86.8325739069
21
24.0467071452
0
LINE
5
2E6
100
AcDbEntity
8
0
100
AcDbLine
62
7
6
CONTINUOUS
10
-86.8325739069
20
-18.3812188317
11
-86.8325739069
21
-19.8126891415
0
LINE
5
2E7
100
AcDbEntity
8
0
100
AcDbLine
62
7
6
CONTINUOUS
10
-86.8325739069
20
-19.8440714337
11
-86.8325739069
21
-20.5974355835
0
LINE
5
2E8
100
AcDbEntity
8
CURVE
100
AcDbLine
62
9
6
CONTINUOUS
10
-77.7794789563
20
17.4184583539
11
-77.2223785214
21
18.0684583539
0
LINE
5
2E9
100
AcDbEntity
8
CURVE
100
AcDbLine
62
9
6
CONTINUOUS
10
-76.8509782186
20
17.5113157624
11
-76.9438282943
21
17.4184583539
0
LINE
5
2EA
100
AcDbEntity
8
CURVE
100
AcDbLine
62
9
6
CONTINUOUS
10
-80.0364499127
20
13.9256013038
11
-79.8507497613
21
14.1113155881
0
LINE
5
2EB
100
AcDbEntity
8
CURVE
100
AcDbLine
62
9
6
CONTINUOUS
10
-77.5937788243
20
16.1184583539
11
-77.4080786535
21
16.3041728610
0
LINE
5
2EC
100
AcDbEntity
8
CURVE
100
AcDbLine
62
9
6
CONTINUOUS
10
-77.5937788243
20
14.4470298046
11
-77.4080786535
21
14.6327441568
0
LINE
5
2ED
100
AcDbEntity
8
CURVE
100
AcDbLine
62
9
6
CONTINUOUS
10
-78.1508792204
20
14.4470298046
11
-77.9651790884
21
14.6017917389
0
LINE
5
2EE
100
AcDbEntity
8
CURVE
100
AcDbLine
62
9
6
CONTINUOUS
10
-77.7794789563
20
12.6827441568
11
-77.9651790884
21
12.5898870194
0
LINE
5
2EF
100
AcDbEntity
8
CURVE
100
AcDbLine
62
9
6
CONTINUOUS
10
-72.4084594156
20
15.3613157624
11
-73.1512599825
21
14.9898867482
0
LINE
5
2F0
100
AcDbEntity
8
CURVE
100
AcDbLine
62
9
6
CONTINUOUS
10
-77.2223785214
20
12.0327441568
11
-77.0366783700
21
12.1256013038
0
LINE
5
2F1
100
AcDbEntity
8
CURVE
100
AcDbLine
62
9
6
CONTINUOUS
10
-80.7792504991
20
-4.9863035804
11
-80.2221500642
21
-4.9863035804
0
LINE
5
2F2
100
AcDbEntity
8
CURVE
100
AcDbLine
62
9
6
CONTINUOUS
10
-80.2221500642
20
-4.3363035804
11
-80.7792504991
21
-4.3363035804
0
LINE
5
2F3
100
AcDbEntity
8
CURVE
100
AcDbLine
62
9
6
CONTINUOUS
10
-72.9655598505
20
-3.9339223033
11
-72.7798597184
21
-3.9339223033
0
LINE
5
2F4
100
AcDbEntity
8
CURVE
100
AcDbLine
62
9
6
CONTINUOUS
10
-72.5941595864
20
-5.8839223033
11
-72.2227592835
21
-5.9767797118
0
LINE
5
2F5
100
AcDbEntity
8
CURVE
100
AcDbLine
62
9
6
CONTINUOUS
10
-80.9649506311
20
-4.8934461718
11
-80.7792504991
21
-4.9863035804
0
LINE
5
2F6
100
AcDbEntity
8
CURVE
100
AcDbLine
62
9
6
CONTINUOUS
10
-80.0364499127
20
-4.4291603690
11
-80.2221500642
21
-4.3363035804
0
LINE
5
2F7
100
AcDbEntity
8
CURVE
100
AcDbLine
62
9
6
CONTINUOUS
10
-81.1506507632
20
-8.0196368104
11
-80.9649506311
21
-8.2053510075
0
LINE
5
2F8
100
AcDbEntity
8
0
100
AcDbLine
62
7
6
CONTINUOUS
10
-85.2238463744
20
24.0326679927
11
-85.2325739069
21
25.0327441568
0
LINE
5
2F9
100
AcDbEntity
8
0
100
AcDbLine
62
9
6
CONTINUOUS
10
-85.6325736519
20
11.6327441568
11
-85.6325736519
21
11.8873707887
0
LINE
5
2FA
100
AcDbEntity
8
0
100
AcDbLine
62
9
6
CONTINUOUS
10
-85.6325736519
20
12.8403101486
11
-85.6325736519
21
13.0672155974
0
LINE
5
2FB
100
AcDbEntity
8
0
100
AcDbLine
62
9
6
CONTINUOUS
10
-85.6325736519
20
13.5688384687
11
-85.6325736519
21
14.8116914526
0
LINE
5
2FC
100
AcDbEntity
8
0
100
AcDbLine
62
9
6
CONTINUOUS
10
-85.6325736519
20
15.0234155224
11
-85.6325736519
21
15.2830479120
0
LINE
5
2FD
100
AcDbEntity
8
0
100
AcDbLine
62
9
6
CONTINUOUS
10
-85.6325736519
20
16.3217108726
11
-85.6325736519
21
16.5713158656
0
LINE
5
2FE
100
AcDbEntity
8
0
100
AcDbLine
62
9
6
CONTINUOUS
10
-85.6325736519
20
16.8763293450
11
-85.6325736519
21
18.1191664477
0
LINE
5
2FF
100
AcDbEntity
8
CURVE
100
AcDbLine
62
9
6
CONTINUOUS
10
-85.6324365776
20
11.6327441568
11
-85.6324365776
21
11.8873707887
0
LINE
5
300
100
AcDbEntity
8
CURVE
100
AcDbLine
62
9
6
CONTINUOUS
10
-85.6324365776
20
12.8403101486
11
-85.6324365776
21
13.0672155974
0
LINE
5
301
100
AcDbEntity
8
CURVE
100
AcDbLine
62
9
6
CONTINUOUS
10
-85.6324365776
20
13.5688384687
11
-85.6324365776
21
14.8116914526
0
LINE
5
302
100
AcDbEntity
8
CURVE
100
AcDbLine
62
9
6
CONTINUOUS
10
-85.6324365776
20
15.0234155224
11
-85.6324365776
21
15.2830479120
0
LINE
5
303
100
AcDbEntity
8
CURVE
100
AcDbLine
62
9
6
CONTINUOUS
10
-85.6324365776
20
16.3217108726
11
-85.6324365776
21
16.5713158656
0
LINE
5
304
100
AcDbEntity
8
CURVE
100
AcDbLine
62
9
6
CONTINUOUS
10
-85.6324365776
20
16.8763293450
11
-85.6324365776
21
18.1191664477
0
LINE
5
305
100
AcDbEntity
8
0
100
AcDbLine
62
9
6
CONTINUOUS
10
-85.4308939187
20
18.1191664477
11
-85.4308939187
21
17.1158243591
0
LINE
5
306
100
AcDbEntity
8
0
100
AcDbLine
62
9
6
CONTINUOUS
10
-85.4308939187
20
14.8116914526
11
-85.4308939187
21
13.8083324240
0
LINE
5
307
100
AcDbEntity
8
CURVE
100
AcDbLine
62
9
6
CONTINUOUS
10
-85.4307722028
20
18.1191664477
11
-85.4307722028
21
17.1158243591
0
LINE
5
308
100
AcDbEntity
8
CURVE
100
AcDbLine
62
9
6
CONTINUOUS
10
-85.4307722028
20
14.8116914526
11
-85.4307722028
21
13.8083324240
0
LINE
5
309
100
AcDbEntity
8
0
100
AcDbLine
62
9
6
CONTINUOUS
10
-84.8586155397
20
13.8083324240
11
-84.8586155397
21
14.7436277586
0
LINE
5
30A
100
AcDbEntity
8
0
100
AcDbLine
62
9
6
CONTINUOUS
10
-84.8586155397
20
17.1158243591
11
-84.8586155397
21
18.0511525148
0
LINE
5
30B
100
AcDbEntity
8
CURVE
100
AcDbLine
62
9
6
CONTINUOUS
10
-84.8585374042
20
13.8083324240
11
-84.8585374042
21
14.7436277586
0
LINE
5
30C
100
AcDbEntity
8
CURVE
100
AcDbLine
62
9
6
CONTINUOUS
10
-84.8585374042
20
17.1158243591
11
-84.8585374042
21
18.0511525148
0
LINE
5
30D
100
AcDbEntity
8
0
100
AcDbLine
62
7
6
CONTINUOUS
10
-85.2238463744
20
-18.3671796792
11
-85.2325739069
21
-19.3672558432
0
LINE
5
30E
100
AcDbEntity
8
CURVE
100
AcDbLine
62
9
6
CONTINUOUS
10
-78.1508792204
20
13.5184585089
11
-77.9651790884
21
13.7041727060
0
LINE
5
30F
100
AcDbEntity
8
CURVE
100
AcDbLine
62
9
6
CONTINUOUS
10
-77.4080786535
20
13.2398869807
11
-77.5937788243
21
13.0541727060
0
LINE
5
310
100
AcDbEntity
8
CURVE
100
AcDbLine
62
9
6
CONTINUOUS
10
-77.9651790884
20
12.5898870194
11
-78.1508792204
21
12.4041727448
0
LINE
5
311
100
AcDbEntity
8
CURVE
100
AcDbLine
62
9
6
CONTINUOUS
10
-80.6864003943
20
-2.9434461718
11
-79.9435998370
21
-2.9434461718
0
LINE
5
312
100
AcDbEntity
8
CURVE
100
AcDbLine
62
9
6
CONTINUOUS
10
-79.8507497613
20
-2.3863035804
11
-81.1506507632
21
-2.3863035804
0
LINE
5
313
100
AcDbEntity
8
CURVE
100
AcDbLine
62
9
6
CONTINUOUS
10
-81.1506507632
20
-2.0148751861
11
-79.8507497613
21
-2.0148751861
0
LINE
5
314
100
AcDbEntity
8
CURVE
100
AcDbLine
62
9
6
CONTINUOUS
10
-80.6864003943
20
-1.4577319747
11
-80.9649506311
21
-1.4577319747
0
LINE
5
315
100
AcDbEntity
8
CURVE
100
AcDbLine
62
9
6
CONTINUOUS
10
-80.0364499127
20
-1.3648751861
11
-80.3150001302
21
-1.3648751861
0
LINE
5
316
100
AcDbEntity
8
CURVE
100
AcDbLine
62
9
6
CONTINUOUS
10
-72.5013094816
20
-7.5553510075
11
-72.8727097457
21
-7.3696368104
0
LINE
5
317
100
AcDbEntity
8
CURVE
100
AcDbLine
62
9
6
CONTINUOUS
10
-81.1506507632
20
-4.7077319747
11
-80.9649506311
21
-4.8934461718
0
LINE
5
318
100
AcDbEntity
8
CURVE
100
AcDbLine
62
9
6
CONTINUOUS
10
-79.8507497613
20
-4.6148751861
11
-80.0364499127
21
-4.4291603690
0
LINE
5
319
100
AcDbEntity
8
0
100
AcDbLine
62
9
6
CONTINUOUS
10
-84.6569358065
20
18.0511525148
11
-84.6569358065
21
17.1158243591
0
LINE
5
31A
100
AcDbEntity
8
0
100
AcDbLine
62
9
6
CONTINUOUS
10
-84.6569358065
20
14.7436277586
11
-84.6569358065
21
13.8083324240
0
LINE
5
31B
100
AcDbEntity
8
CURVE
100
AcDbLine
62
9
6
CONTINUOUS
10
-84.6568730293
20
18.0511525148
11
-84.6568730293
21
17.1158243591
0
LINE
5
31C
100
AcDbEntity
8
CURVE
100
AcDbLine
62
9
6
CONTINUOUS
10
-84.6568730293
20
14.7436277586
11
-84.6568730293
21
13.8083324240
0
LINE
5
31D
100
AcDbEntity
8
0
100
AcDbLine
62
9
6
CONTINUOUS
10
-84.0342536401
20
13.8083324240
11
-84.0342536401
21
14.8192572615
0
LINE
5
31E
100
AcDbEntity
8
0
100
AcDbLine
62
9
6
CONTINUOUS
10
-84.0342536401
20
17.1158243591
11
-84.0342536401
21
18.1267820177
0
LINE
5
31F
100
AcDbEntity
8
CURVE
100
AcDbLine
62
9
6
CONTINUOUS
10
-84.0342382817
20
13.8083324240
11
-84.0342382817
21
14.8192572615
0
LINE
5
320
100
AcDbEntity
8
CURVE
100
AcDbLine
62
9
6
CONTINUOUS
10
-84.0342382817
20
17.1158243591
11
-84.0342382817
21
18.1267820177
0
LINE
5
321
100
AcDbEntity
8
CURVE
100
AcDbLine
62
9
6
CONTINUOUS
10
-83.8325739069
20
18.1267820177
11
-83.8325739069
21
16.8763293450
0
LINE
5
322
100
AcDbEntity
8
0
100
AcDbLine
62
9
6
CONTINUOUS
10
-83.8325739069
20
18.1267820177
11
-83.8325739069
21
16.8763293450
0
LINE
5
323
100
AcDbEntity
8
CURVE
100
AcDbLine
62
9
6
CONTINUOUS
10
-83.8325739069
20
15.9309568527
11
-83.8325739069
21
15.6587020766
0
LINE
5
324
100
AcDbEntity
8
0
100
AcDbLine
62
9
6
CONTINUOUS
10
-83.8325739069
20
15.9309568527
11
-83.8325739069
21
15.6587020766
0
LINE
5
325
100
AcDbEntity
8
CURVE
100
AcDbLine
62
9
6
CONTINUOUS
10
-83.8325739069
20
14.8192572615
11
-83.8325739069
21
13.5688384687
0
LINE
5
326
100
AcDbEntity
8
0
100
AcDbLine
62
9
6
CONTINUOUS
10
-83.8325739069
20
14.8192572615
11
-83.8325739069
21
13.5688384687
0
LINE
5
327
100
AcDbEntity
8
CURVE
100
AcDbLine
62
9
6
CONTINUOUS
10
-83.8325739069
20
13.0672155974
11
-83.8325739069
21
12.8050231566
0
LINE
5
328
100
AcDbEntity
8
0
100
AcDbLine
62
9
6
CONTINUOUS
10
-83.8325739069
20
13.0672155974
11
-83.8325739069
21
12.8050231566
0
LINE
5
329
100
AcDbEntity
8
CURVE
100
AcDbLine
62
9
6
CONTINUOUS
10
-83.8325739069
20
11.8596337243
11
-83.8325739069
21
11.6327441568
0
LINE
5
32A
100
AcDbEntity
8
0
100
AcDbLine
62
9
6
CONTINUOUS
10
-83.8325739069
20
11.8596337243
11
-83.8325739069
21
11.6327441568
0
LINE
5
32B
100
AcDbEntity
8
CURVE
100
AcDbLine
62
9
6
CONTINUOUS
10
-80.9649506311
20
7.3517918939
11
-81.1197007024
21
7.1660773868
0
LINE
5
32C
100
AcDbEntity
8
CURVE
100
AcDbLine
62
9
6
CONTINUOUS
10
-77.7794789563
20
9.8589344853
11
-77.2223785214
21
10.5089344853
0
LINE
5
32D
100
AcDbEntity
8
CURVE
100
AcDbLine
62
9
6
CONTINUOUS
10
-77.0366783700
20
12.1256013038
11
-76.8509782186
21
12.3113155881
0
LINE
5
32E
100
AcDbEntity
8
CURVE
100
AcDbLine
62
9
6
CONTINUOUS
10
-78.0580291157
20
10.5089344853
11
-78.1508792204
21
10.4160776967
0
LINE
5
32F
100
AcDbEntity
8
CURVE
100
AcDbLine
62
9
6
CONTINUOUS
10
-80.3150001302
20
7.4446489925
11
-80.5007002622
21
7.2589344853
0
LINE
5
330
100
AcDbEntity
8
CURVE
100
AcDbLine
62
9
6
CONTINUOUS
10
-76.8509782186
20
9.9517918939
11
-76.9438282943
21
9.8589344853
0
LINE
5
331
100
AcDbEntity
8
CURVE
100
AcDbLine
62
9
6
CONTINUOUS
10
-73.1512599825
20
13.4113157624
11
-72.9655598505
21
13.5970299596
0
LINE
5
332
100
AcDbEntity
8
CURVE
100
AcDbLine
62
9
6
CONTINUOUS
10
-72.9655598505
20
11.4922680253
11
-73.1512599825
21
11.3684583539
0
LINE
5
333
100
AcDbEntity
8
CURVE
100
AcDbLine
62
9
6
CONTINUOUS
10
-72.7798597184
20
9.6041727060
11
-72.9655598505
21
9.5113156075
0
LINE
5
334
100
AcDbEntity
8
CURVE
100
AcDbLine
62
9
6
CONTINUOUS
10
-79.8507497613
20
6.4232202882
11
-81.1506507632
21
6.0517918939
0
LINE
5
335
100
AcDbEntity
8
CURVE
100
AcDbLine
62
9
6
CONTINUOUS
10
-76.8509782186
20
6.7017918939
11
-78.1508792204
21
6.3303631896
0
LINE
5
336
100
AcDbEntity
8
CURVE
100
AcDbLine
62
9
6
CONTINUOUS
10
-73.1512599825
20
-10.2172558432
11
-72.9655598505
21
-10.4029701954
0
LINE
5
337
100
AcDbEntity
8
CURVE
100
AcDbLine
62
9
6
CONTINUOUS
10
-80.5007002622
20
-1.6434467917
11
-80.6864003943
21
-1.4577319747
0
LINE
5
338
100
AcDbEntity
8
CURVE
100
AcDbLine
62
9
6
CONTINUOUS
10
-79.8507497613
20
-1.5505887633
11
-80.0364499127
21
-1.3648751861
0
LINE
5
339
100
AcDbEntity
8
CURVE
100
AcDbLine
62
9
6
CONTINUOUS
10
-73.1512599825
20
-7.9267797118
11
-72.7798597184
21
-8.2982081061
0
LINE
5
33A
100
AcDbEntity
8
CURVE
100
AcDbLine
62
9
6
CONTINUOUS
10
-80.7792504991
20
-2.7577319747
11
-80.6864003943
21
-2.9434461718
0
LINE
5
33B
100
AcDbEntity
8
CURVE
100
AcDbLine
62
9
6
CONTINUOUS
10
-81.1506507632
20
14.2041727448
11
-81.1506507632
21
14.1113155881
0
LINE
5
33C
100
AcDbEntity
8
CURVE
100
AcDbLine
62
9
6
CONTINUOUS
10
-81.1506507632
20
9.2089344853
11
-81.1506507632
21
8.6517918939
0
LINE
5
33D
100
AcDbEntity
8
CURVE
100
AcDbLine
62
9
6
CONTINUOUS
10
-81.1506507632
20
7.0732202882
11
-81.1506507632
21
6.7946489925
0
LINE
5
33E
100
AcDbEntity
8
CURVE
100
AcDbLine
62
9
6
CONTINUOUS
10
-81.1506507632
20
5.1541727060
11
-81.1506507632
21
4.7827441568
0
LINE
5
33F
100
AcDbEntity
8
CURVE
100
AcDbLine
62
9
6
CONTINUOUS
10
-81.1506507632
20
-1.7363035804
11
-81.1506507632
21
-2.0148751861
0
LINE
5
340
100
AcDbEntity
8
CURVE
100
AcDbLine
62
9
6
CONTINUOUS
10
-81.1506507632
20
-4.6148751861
11
-81.1506507632
21
-4.7077319747
0
LINE
5
341
100
AcDbEntity
8
CURVE
100
AcDbLine
62
9
6
CONTINUOUS
10
-81.1506507632
20
-6.3791603690
11
-81.1506507632
21
-7.1220177775
0
LINE
5
342
100
AcDbEntity
8
CURVE
100
AcDbLine
62
9
6
CONTINUOUS
10
-81.1506507632
20
-7.6482081061
11
-81.1506507632
21
-8.0196368104
0
LINE
5
343
100
AcDbEntity
8
CURVE
100
AcDbLine
62
9
6
CONTINUOUS
10
-81.1506507632
20
-8.5767797118
11
-81.1506507632
21
-9.1339226132
0
LINE
5
344
100
AcDbEntity
8
CURVE
100
AcDbLine
62
9
6
CONTINUOUS
10
-81.1506507632
20
-9.6910653597
11
-81.1506507632
21
-10.1553510075
0
LINE
5
345
100
AcDbEntity
8
CURVE
100
AcDbLine
62
9
6
CONTINUOUS
10
-81.1506507632
20
-11.7029701179
11
-81.1506507632
21
-12.1672558432
0
LINE
5
346
100
AcDbEntity
8
CURVE
100
AcDbLine
62
9
6
CONTINUOUS
10
-81.1506507632
20
15.0398869807
11
-81.1506507632
21
15.3184585089
0
LINE
5
347
100
AcDbEntity
8
CURVE
100
AcDbLine
62
9
6
CONTINUOUS
10
-81.1506507632
20
15.8756012553
11
-81.1506507632
21
16.2470298046
0
LINE
5
348
100
AcDbEntity
8
CURVE
100
AcDbLine
62
9
6
CONTINUOUS
10
-81.1506507632
20
17.5470299596
11
-81.1506507632
21
17.9184583539
0
LINE
5
349
100
AcDbEntity
8
0
100
AcDbLine
62
7
6
CONTINUOUS
10
-80.8325739069
20
-17.1155897934
11
-80.8325739069
21
-16.9672558432
0
LINE
5
34A
100
AcDbEntity
8
0
100
AcDbLine
62
7
6
CONTINUOUS
10
-80.8325739069
20
22.6327441568
11
-80.8325739069
21
22.7810781069
0
LINE
5
34B
100
AcDbEntity
8
CURVE
100
AcDbLine
62
9
6
CONTINUOUS
10
-80.7792504991
20
-2.3863035804
11
-80.7792504991
21
-2.7577319747
0
LINE
5
34C
100
AcDbEntity
8
CURVE
100
AcDbLine
62
9
6
CONTINUOUS
10
-81.1197007024
20
7.1660773868
11
-81.1506507632
21
7.0732202882
0
LINE
5
34D
100
AcDbEntity
8
CURVE
100
AcDbLine
62
9
6
CONTINUOUS
10
-77.9651790884
20
7.6303631896
11
-78.1199291597
21
7.4446489925
0
LINE
5
34E
100
AcDbEntity
8
CURVE
100
AcDbLine
62
9
6
CONTINUOUS
10
-77.3152285875
20
7.7232202882
11
-77.5009287195
21
7.5375060910
0
LINE
5
34F
100
AcDbEntity
8
CURVE
100
AcDbLine
62
9
6
CONTINUOUS
10
-72.5941595864
20
12.3898870582
11
-72.4084594156
21
12.5756012553
0
LINE
5
350
100
AcDbEntity
8
CURVE
100
AcDbLine
62
9
6
CONTINUOUS
10
-80.0364499127
20
4.5970298046
11
-79.8507497613
21
4.7827441568
0
LINE
5
351
100
AcDbEntity
8
CURVE
100
AcDbLine
62
9
6
CONTINUOUS
10
-71.8513589807
20
12.1113154525
11
-72.0370591321
21
11.9256012553
0
LINE
5
352
100
AcDbEntity
8
CURVE
100
AcDbLine
62
9
6
CONTINUOUS
10
-72.4084594156
20
11.5541728610
11
-72.5941595864
21
11.3684583539
0
LINE
5
353
100
AcDbEntity
8
CURVE
100
AcDbLine
62
9
6
CONTINUOUS
10
-72.2227592835
20
8.9541727060
11
-72.0370591321
21
9.0470298821
0
LINE
5
354
100
AcDbEntity
8
CURVE
100
AcDbLine
62
9
6
CONTINUOUS
10
-72.5846364908
20
3.2702441568
11
-72.3554872648
21
3.3160774955
0
LINE
5
355
100
AcDbEntity
8
CURVE
100
AcDbLine
62
9
6
CONTINUOUS
10
-72.5846364908
20
4.4619108671
11
-72.8596155489
21
4.4160774464
0
LINE
5
356
100
AcDbEntity
8
CURVE
100
AcDbLine
62
9
6
CONTINUOUS
10
-73.1512599825
20
1.3541727060
11
-72.8727097457
21
1.3541727060
0
LINE
5
357
100
AcDbEntity
8
CURVE
100
AcDbLine
62
9
6
CONTINUOUS
10
-73.1512599825
20
2.3756012553
11
-72.5941595864
21
2.3756012553
0
LINE
5
358
100
AcDbEntity
8
CURVE
100
AcDbLine
62
9
6
CONTINUOUS
10
-72.4084594156
20
2.9327441568
11
-72.0370591321
21
2.9327441568
0
LINE
5
359
100
AcDbEntity
8
CURVE
100
AcDbLine
62
9
6
CONTINUOUS
10
-72.8727097457
20
-4.5839223033
11
-73.1512599825
21
-4.3982081061
0
LINE
5
35A
100
AcDbEntity
8
CURVE
100
AcDbLine
62
9
6
CONTINUOUS
10
-72.7798597184
20
-3.9339223033
11
-71.8513589807
21
-4.5839223033
0
LINE
5
35B
100
AcDbEntity
8
CURVE
100
AcDbLine
62
9
6
CONTINUOUS
10
-72.8727097457
20
-7.3696368104
11
-73.1512599825
21
-7.0910655147
0
LINE
5
35C
100
AcDbEntity
8
CURVE
100
AcDbLine
62
9
6
CONTINUOUS
10
-72.9655598505
20
-6.5339223033
11
-73.1512599825
21
-6.3482081061
0
LINE
5
35D
100
AcDbEntity
8
CURVE
100
AcDbLine
62
9
6
CONTINUOUS
10
-72.0370591321
20
-6.9053513175
11
-71.8513589807
21
-7.0910655147
0
LINE
5
35E
100
AcDbEntity
8
CURVE
100
AcDbLine
62
9
6
CONTINUOUS
10
-72.2227592835
20
-5.9767797118
11
-71.8513589807
21
-6.3482081061
0
LINE
5
35F
100
AcDbEntity
8
CURVE
100
AcDbLine
62
9
6
CONTINUOUS
10
-81.1506507632
20
3.2041727448
11
-80.7792504991
21
2.8327441568
0
LINE
5
360
100
AcDbEntity
8
CURVE
100
AcDbLine
62
9
6
CONTINUOUS
10
-80.5935503670
20
-9.1339226132
11
-80.5935503670
21
-8.7624939090
0
LINE
5
361
100
AcDbEntity
8
CURVE
100
AcDbLine
62
9
6
CONTINUOUS
10
-80.5935503670
20
8.6517918939
11
-80.5935503670
21
9.0232202882
0
LINE
5
362
100
AcDbEntity
8
CURVE
100
AcDbLine
62
9
6
CONTINUOUS
10
-80.5935503670
20
16.0613156075
11
-80.5935503670
21
16.2470298046
0
LINE
5
363
100
AcDbEntity
8
CURVE
100
AcDbLine
62
9
6
CONTINUOUS
10
-80.5935503670
20
17.7327441568
11
-80.5935503670
21
17.9184583539
0
LINE
5
364
100
AcDbEntity
8
CURVE
100
AcDbLine
62
9
6
CONTINUOUS
10
-80.5007002622
20
-1.5505887633
11
-80.5007002622
21
-2.0148751861
0
LINE
5
365
100
AcDbEntity
8
CURVE
100
AcDbLine
62
9
6
CONTINUOUS
10
-80.5007002622
20
6.7946489925
11
-80.5007002622
21
7.2589344853
0
LINE
5
366
100
AcDbEntity
8
CURVE
100
AcDbLine
62
9
6
CONTINUOUS
10
-80.4078501962
20
15.4422680253
11
-80.4078501962
21
15.0398869807
0
LINE
5
367
100
AcDbEntity
8
CURVE
100
AcDbLine
62
9
6
CONTINUOUS
10
-80.4078501962
20
-10.1553510075
11
-80.4078501962
21
-9.6910653597
0
LINE
5
368
100
AcDbEntity
8
CURVE
100
AcDbLine
62
9
6
CONTINUOUS
10
-80.2221500642
20
6.2994109267
11
-80.2221500642
21
5.8041728610
0
LINE
5
369
100
AcDbEntity
8
CURVE
100
AcDbLine
62
9
6
CONTINUOUS
10
-79.8507497613
20
18.0113154525
11
-79.8507497613
21
17.5470299596
0
LINE
5
36A
100
AcDbEntity
8
CURVE
100
AcDbLine
62
9
6
CONTINUOUS
10
-79.8507497613
20
16.3398870582
11
-79.8507497613
21
15.8756012553
0
LINE
5
36B
100
AcDbEntity
8
CURVE
100
AcDbLine
62
9
6
CONTINUOUS
10
-79.8507497613
20
-12.1672558432
11
-79.8507497613
21
-11.7029701179
0
LINE
5
36C
100
AcDbEntity
8
CURVE
100
AcDbLine
62
9
6
CONTINUOUS
10
-79.8507497613
20
9.2089344853
11
-79.8507497613
21
8.6517918939
0
LINE
5
36D
100
AcDbEntity
8
CURVE
100
AcDbLine
62
9
6
CONTINUOUS
10
-79.8507497613
20
8.2803634996
11
-79.8507497613
21
7.8160773868
0
LINE
5
36E
100
AcDbEntity
8
CURVE
100
AcDbLine
62
9
6
CONTINUOUS
10
-79.8507497613
20
-8.0196368104
11
-79.8507497613
21
-7.6482081061
0
LINE
5
36F
100
AcDbEntity
8
CURVE
100
AcDbLine
62
9
6
CONTINUOUS
10
-79.8507497613
20
-4.7077319747
11
-79.8507497613
21
-4.6148751861
0
LINE
5
370
100
AcDbEntity
8
CURVE
100
AcDbLine
62
9
6
CONTINUOUS
10
-79.8507497613
20
-2.7577319747
11
-79.8507497613
21
-2.3863035804
0
LINE
5
371
100
AcDbEntity
8
CURVE
100
AcDbLine
62
9
6
CONTINUOUS
10
-79.8507497613
20
-2.0148751861
11
-79.8507497613
21
-1.5505887633
0
LINE
5
372
100
AcDbEntity
8
CURVE
100
AcDbLine
62
9
6
CONTINUOUS
10
-79.8507497613
20
4.7827441568
11
-79.8507497613
21
5.1541727060
0
LINE
5
373
100
AcDbEntity
8
CURVE
100
AcDbLine
62
9
6
CONTINUOUS
10
-79.8507497613
20
6.7946489925
11
-79.8507497613
21
7.2589344853
0
LINE
5
374
100
AcDbEntity
8
CURVE
100
AcDbLine
62
9
6
CONTINUOUS
10
-79.8507497613
20
-8.5767797118
11
-79.8507497613
21
-9.1339226132
0
LINE
5
375
100
AcDbEntity
8
CURVE
100
AcDbLine
62
9
6
CONTINUOUS
10
-79.8507497613
20
14.1113155881
11
-79.8507497613
21
14.2041727448
0
LINE
5
376
100
AcDbEntity
8
CURVE
100
AcDbLine
62
9
6
CONTINUOUS
10
-78.1199291597
20
7.4446489925
11
-78.1508792204
21
7.3517918939
0
LINE
5
377
100
AcDbEntity
8
CURVE
100
AcDbLine
62
9
6
CONTINUOUS
10
-81.1197007024
20
-1.6434467917
11
-81.1506507632
21
-1.7363035804
0
LINE
5
378
100
AcDbEntity
8
CURVE
100
AcDbLine
62
9
6
CONTINUOUS
10
-72.6870096137
20
10.9660773868
11
-72.5941595864
21
11.0898870582
0
LINE
5
379
100
AcDbEntity
8
CURVE
100
AcDbLine
62
9
6
CONTINUOUS
10
-72.0370591321
20
10.9041728610
11
-71.8513589807
21
11.0898870582
0
LINE
5
37A
100
AcDbEntity
8
CURVE
100
AcDbLine
62
9
6
CONTINUOUS
10
-72.9655598505
20
9.5113156075
11
-73.1512599825
21
9.3256012553
0
LINE
5
37B
100
AcDbEntity
8
CURVE
100
AcDbLine
62
9
6
CONTINUOUS
10
-77.0366783700
20
4.8756012553
11
-76.8509782186
21
5.0613156075
0
LINE
5
37C
100
AcDbEntity
8
CURVE
100
AcDbLine
62
9
6
CONTINUOUS
10
-78.1508792204
20
3.2970298821
11
-77.9651790884
21
3.4827441568
0
LINE
5
37D
100
AcDbEntity
8
CURVE
100
AcDbLine
62
9
6
CONTINUOUS
10
-72.0370591321
20
9.0470298821
11
-71.8513589807
21
9.2327441568
0
LINE
5
37E
100
AcDbEntity
8
CURVE
100
AcDbLine
62
9
6
CONTINUOUS
10
-79.8507497613
20
3.2041727448
11
-81.1506507632
21
3.2041727448
0
LINE
5
37F
100
AcDbEntity
8
CURVE
100
AcDbLine
62
9
6
CONTINUOUS
10
-77.9651790884
20
3.4827441568
11
-77.7794789563
21
3.4827441568
0
LINE
5
380
100
AcDbEntity
8
CURVE
100
AcDbLine
62
9
6
CONTINUOUS
10
-80.9649506311
20
4.5970298046
11
-80.0364499127
21
4.5970298046
0
LINE
5
381
100
AcDbEntity
8
CURVE
100
AcDbLine
62
9
6
CONTINUOUS
10
-77.9651790884
20
4.8756012553
11
-77.0366783700
21
4.8756012553
0
LINE
5
382
100
AcDbEntity
8
CURVE
100
AcDbLine
62
9
6
CONTINUOUS
10
-72.8596155489
20
3.3160774955
11
-72.5846364908
21
3.2702441568
0
LINE
5
383
100
AcDbEntity
8
CURVE
100
AcDbLine
62
9
6
CONTINUOUS
10
-71.8513589807
20
1.6327441568
11
-73.1512599825
21
2.0041727060
0
LINE
5
384
100
AcDbEntity
8
CURVE
100
AcDbLine
62
9
6
CONTINUOUS
10
-71.8513589807
20
0.3327441568
11
-73.1512599825
21
0.9827441568
0
LINE
5
385
100
AcDbEntity
8
CURVE
100
AcDbLine
62
9
6
CONTINUOUS
10
-77.8723289836
20
2.8327441568
11
-78.1508792204
21
3.0184584508
0
LINE
5
386
100
AcDbEntity
8
CURVE
100
AcDbLine
62
9
6
CONTINUOUS
10
-81.1506507632
20
4.7827441568
11
-80.9649506311
21
4.5970298046
0
LINE
5
387
100
AcDbEntity
8
CURVE
100
AcDbLine
62
9
6
CONTINUOUS
10
-78.1508792204
20
17.9756015653
11
-78.1508792204
21
17.6041725511
0
LINE
5
388
100
AcDbEntity
8
CURVE
100
AcDbLine
62
9
6
CONTINUOUS
10
-78.1508792204
20
12.4041727448
11
-78.1508792204
21
12.3113155881
0
LINE
5
389
100
AcDbEntity
8
CURVE
100
AcDbLine
62
9
6
CONTINUOUS
10
-78.1508792204
20
10.4160776967
11
-78.1508792204
21
10.0446486825
0
LINE
5
38A
100
AcDbEntity
8
CURVE
100
AcDbLine
62
9
6
CONTINUOUS
10
-78.1508792204
20
9.4875060910
11
-78.1508792204
21
8.9303634996
0
LINE
5
38B
100
AcDbEntity
8
CURVE
100
AcDbLine
62
9
6
CONTINUOUS
10
-78.1508792204
20
7.3517918939
11
-78.1508792204
21
7.0732202882
0
LINE
5
38C
100
AcDbEntity
8
CURVE
100
AcDbLine
62
9
6
CONTINUOUS
10
-78.1508792204
20
5.4327441568
11
-78.1508792204
21
5.0613156075
0
LINE
5
38D
100
AcDbEntity
8
CURVE
100
AcDbLine
62
9
6
CONTINUOUS
10
-78.1508792204
20
3.0184584508
11
-78.1508792204
21
3.2970298821
0
LINE
5
38E
100
AcDbEntity
8
CURVE
100
AcDbLine
62
9
6
CONTINUOUS
10
-78.1508792204
20
13.2398869807
11
-78.1508792204
21
13.5184585089
0
LINE
5
38F
100
AcDbEntity
8
CURVE
100
AcDbLine
62
9
6
CONTINUOUS
10
-78.1508792204
20
14.0756012553
11
-78.1508792204
21
14.4470298046
0
LINE
5
390
100
AcDbEntity
8
CURVE
100
AcDbLine
62
9
6
CONTINUOUS
10
-78.1508792204
20
15.7470299596
11
-78.1508792204
21
16.1184583539
0
LINE
5
391
100
AcDbEntity
8
CURVE
100
AcDbLine
62
9
6
CONTINUOUS
10
-77.5937788243
20
8.9303634996
11
-77.5937788243
21
9.3017918939
0
LINE
5
392
100
AcDbEntity
8
CURVE
100
AcDbLine
62
9
6
CONTINUOUS
10
-77.5937788243
20
14.2613156075
11
-77.5937788243
21
14.4470298046
0
LINE
5
393
100
AcDbEntity
8
CURVE
100
AcDbLine
62
9
6
CONTINUOUS
10
-77.5937788243
20
15.9327441568
11
-77.5937788243
21
16.1184583539
0
LINE
5
394
100
AcDbEntity
8
CURVE
100
AcDbLine
62
9
6
CONTINUOUS
10
-77.5009287195
20
7.0732202882
11
-77.5009287195
21
7.5375060910
0
LINE
5
395
100
AcDbEntity
8
CURVE
100
AcDbLine
62
9
6
CONTINUOUS
10
-77.4080786535
20
13.6422680253
11
-77.4080786535
21
13.2398869807
0
LINE
5
396
100
AcDbEntity
8
CURVE
100
AcDbLine
62
9
6
CONTINUOUS
10
-77.2223785214
20
6.5779822225
11
-77.2223785214
21
6.0827441568
0
LINE
5
397
100
AcDbEntity
8
CURVE
100
AcDbLine
62
9
6
CONTINUOUS
10
-77.0676283920
20
16.9541728610
11
-77.0676283920
21
16.8922680253
0
LINE
5
398
100
AcDbEntity
8
CURVE
100
AcDbLine
62
9
6
CONTINUOUS
10
-76.9128782674
20
16.8922680253
11
-76.9128782674
21
16.9541728610
0
LINE
5
399
100
AcDbEntity
8
CURVE
100
AcDbLine
62
9
6
CONTINUOUS
10
-76.8509782186
20
17.8827441568
11
-76.8509782186
21
17.5113157624
0
LINE
5
39A
100
AcDbEntity
8
CURVE
100
AcDbLine
62
9
6
CONTINUOUS
10
-76.8509782186
20
16.2113154525
11
-76.8509782186
21
15.7470299596
0
LINE
5
39B
100
AcDbEntity
8
CURVE
100
AcDbLine
62
9
6
CONTINUOUS
10
-76.8509782186
20
14.5398870582
11
-76.8509782186
21
14.0756012553
0
LINE
5
39C
100
AcDbEntity
8
CURVE
100
AcDbLine
62
9
6
CONTINUOUS
10
-76.8509782186
20
10.3232202882
11
-76.8509782186
21
9.9517918939
0
LINE
5
39D
100
AcDbEntity
8
CURVE
100
AcDbLine
62
9
6
CONTINUOUS
10
-76.8509782186
20
9.4875060910
11
-76.8509782186
21
8.9303634996
0
LINE
5
39E
100
AcDbEntity
8
CURVE
100
AcDbLine
62
9
6
CONTINUOUS
10
-76.8509782186
20
8.5589344853
11
-76.8509782186
21
8.0946486825
0
LINE
5
39F
100
AcDbEntity
8
CURVE
100
AcDbLine
62
9
6
CONTINUOUS
10
-76.8509782186
20
2.8327441568
11
-76.8509782186
21
3.4827441568
0
LINE
5
3A0
100
AcDbEntity
8
CURVE
100
AcDbLine
62
9
6
CONTINUOUS
10
-76.8509782186
20
5.0613156075
11
-76.8509782186
21
5.4327441568
0
LINE
5
3A1
100
AcDbEntity
8
CURVE
100
AcDbLine
62
9
6
CONTINUOUS
10
-76.8509782186
20
7.0732202882
11
-76.8509782186
21
7.5375060910
0
LINE
5
3A2
100
AcDbEntity
8
CURVE
100
AcDbLine
62
9
6
CONTINUOUS
10
-76.8509782186
20
12.3113155881
11
-76.8509782186
21
12.4041727448
0
LINE
5
3A3
100
AcDbEntity
8
CURVE
100
AcDbLine
62
9
6
CONTINUOUS
10
-79.9435998370
20
-2.9434461718
11
-79.8507497613
21
-2.7577319747
0
LINE
5
3A4
100
AcDbEntity
8
CURVE
100
AcDbLine
62
9
6
CONTINUOUS
10
-80.9649506311
20
-1.4577319747
11
-81.1197007024
21
-1.6434467917
0
LINE
5
3A5
100
AcDbEntity
8
CURVE
100
AcDbLine
62
9
6
CONTINUOUS
10
-80.3150001302
20
-1.3648751861
11
-80.5007002622
21
-1.5505887633
0
LINE
5
3A6
100
AcDbEntity
8
CURVE
100
AcDbLine
62
9
6
CONTINUOUS
10
-72.8596155489
20
4.4160774464
11
-72.9971050123
21
4.3244108671
0
LINE
5
3A7
100
AcDbEntity
8
CURVE
100
AcDbLine
62
9
6
CONTINUOUS
10
-72.3554872648
20
3.3160774955
11
-72.1263380388
21
3.4077441568
0
LINE
5
3A8
100
AcDbEntity
8
CURVE
100
AcDbLine
62
9
6
CONTINUOUS
10
-81.1506507632
20
6.7946489925
11
-79.8507497613
21
6.7946489925
0
LINE
5
3A9
100
AcDbEntity
8
CURVE
100
AcDbLine
62
9
6
CONTINUOUS
10
-78.1508792204
20
7.0732202882
11
-76.8509782186
21
7.0732202882
0
LINE
5
3AA
100
AcDbEntity
8
CURVE
100
AcDbLine
62
9
6
CONTINUOUS
10
-72.3554872648
20
4.4160774464
11
-72.5846364908
21
4.4619108671
0
LINE
5
3AB
100
AcDbEntity
8
CURVE
100
AcDbLine
62
9
6
CONTINUOUS
10
-81.1506507632
20
6.0517918939
11
-79.8507497613
21
5.6803631896
0
LINE
5
3AC
100
AcDbEntity
8
CURVE
100
AcDbLine
62
9
6
CONTINUOUS
10
-78.1508792204
20
6.3303631896
11
-76.8509782186
21
5.9589344853
0
LINE
5
3AD
100
AcDbEntity
8
CURVE
100
AcDbLine
62
9
6
CONTINUOUS
10
-77.7794789563
20
3.4827441568
11
-76.8509782186
21
2.8327441568
0
LINE
5
3AE
100
AcDbEntity
8
CURVE
100
AcDbLine
62
9
6
CONTINUOUS
10
-80.5007002622
20
7.1660773868
11
-80.6864003943
21
7.3517918939
0
LINE
5
3AF
100
AcDbEntity
8
CURVE
100
AcDbLine
62
9
6
CONTINUOUS
10
-78.1508792204
20
5.0613156075
11
-77.9651790884
21
4.8756012553
0
LINE
5
3B0
100
AcDbEntity
8
CURVE
100
AcDbLine
62
9
6
CONTINUOUS
10
-79.8507497613
20
7.2589344853
11
-80.0364499127
21
7.4446489925
0
LINE
5
3B1
100
AcDbEntity
8
CURVE
100
AcDbLine
62
9
6
CONTINUOUS
10
-72.9971050123
20
4.3244108671
11
-73.0887647421
21
4.2327441568
0
LINE
5
3B2
100
AcDbEntity
8
CURVE
100
AcDbLine
62
9
6
CONTINUOUS
10
-80.9649506311
20
-4.4291603690
11
-81.1506507632
21
-4.6148751861
0
LINE
5
3B3
100
AcDbEntity
8
CURVE
100
AcDbLine
62
9
6
CONTINUOUS
10
-72.5941595864
20
2.7470298046
11
-72.4084594156
21
2.9327441568
0
LINE
5
3B4
100
AcDbEntity
8
CURVE
100
AcDbLine
62
9
6
CONTINUOUS
10
-80.0364499127
20
-4.8934461718
11
-79.8507497613
21
-4.7077319747
0
LINE
5
3B5
100
AcDbEntity
8
CURVE
100
AcDbLine
62
9
6
CONTINUOUS
10
-72.1263380388
20
3.4077441568
11
-71.8513589807
21
3.6369108343
0
LINE
5
3B6
100
AcDbEntity
8
CURVE
100
AcDbLine
62
9
6
CONTINUOUS
10
-80.6864003943
20
7.3517918939
11
-80.9649506311
21
7.3517918939
0
LINE
5
3B7
100
AcDbEntity
8
CURVE
100
AcDbLine
62
9
6
CONTINUOUS
10
-80.0364499127
20
7.4446489925
11
-80.3150001302
21
7.4446489925
0
LINE
5
3B8
100
AcDbEntity
8
CURVE
100
AcDbLine
62
9
6
CONTINUOUS
10
-77.6866288516
20
7.6303631896
11
-77.9651790884
21
7.6303631896
0
LINE
5
3B9
100
AcDbEntity
8
CURVE
100
AcDbLine
62
9
6
CONTINUOUS
10
-77.0366783700
20
7.7232202882
11
-77.3152285875
21
7.7232202882
0
LINE
5
3BA
100
AcDbEntity
8
CURVE
100
AcDbLine
62
9
6
CONTINUOUS
10
-79.8507497613
20
7.8160773868
11
-81.1506507632
21
7.8160773868
0
LINE
5
3BB
100
AcDbEntity
8
CURVE
100
AcDbLine
62
9
6
CONTINUOUS
10
-76.8509782186
20
8.0946486825
11
-78.1508792204
21
8.0946486825
0
LINE
5
3BC
100
AcDbEntity
8
CURVE
100
AcDbLine
62
9
6
CONTINUOUS
10
-72.5013094816
20
8.3660775030
11
-71.8513589807
21
8.3660775030
0
LINE
5
3BD
100
AcDbEntity
8
CURVE
100
AcDbLine
62
9
6
CONTINUOUS
10
-81.1506507632
20
8.6517918939
11
-79.8507497613
21
8.6517918939
0
LINE
5
3BE
100
AcDbEntity
8
CURVE
100
AcDbLine
62
9
6
CONTINUOUS
10
-78.1508792204
20
8.9303634996
11
-76.8509782186
21
8.9303634996
0
LINE
5
3BF
100
AcDbEntity
8
CURVE
100
AcDbLine
62
9
6
CONTINUOUS
10
-72.7798597184
20
8.9541727060
11
-72.2227592835
21
8.9541727060
0
LINE
5
3C0
100
AcDbEntity
8
CURVE
100
AcDbLine
62
9
6
CONTINUOUS
10
-72.1263380388
20
4.3244108671
11
-72.3554872648
21
4.4160774464
0
LINE
5
3C1
100
AcDbEntity
8
CURVE
100
AcDbLine
62
9
6
CONTINUOUS
10
-72.9971050123
20
3.4077441568
11
-72.8596155489
21
3.3160774955
0
LINE
5
3C2
100
AcDbEntity
8
CURVE
100
AcDbLine
62
9
6
CONTINUOUS
10
-77.5009287195
20
7.4446489925
11
-77.6866288516
21
7.6303631896
0
LINE
5
3C3
100
AcDbEntity
8
CURVE
100
AcDbLine
62
9
6
CONTINUOUS
10
-73.0887647421
20
3.4994108343
11
-72.9971050123
21
3.4077441568
0
LINE
5
3C4
100
AcDbEntity
8
CURVE
100
AcDbLine
62
9
6
CONTINUOUS
10
-76.8509782186
20
7.5375060910
11
-77.0366783700
21
7.7232202882
0
LINE
5
3C5
100
AcDbEntity
8
CURVE
100
AcDbLine
62
9
6
CONTINUOUS
10
-73.1512599825
20
11.3684583539
11
-73.1512599825
21
11.0898870582
0
LINE
5
3C6
100
AcDbEntity
8
CURVE
100
AcDbLine
62
9
6
CONTINUOUS
10
-73.1512599825
20
9.3256012553
11
-73.1512599825
21
9.2327441568
0
LINE
5
3C7
100
AcDbEntity
8
CURVE
100
AcDbLine
62
9
6
CONTINUOUS
10
-73.1512599825
20
-6.3482081061
11
-73.1512599825
21
-6.0696365004
0
LINE
5
3C8
100
AcDbEntity
8
CURVE
100
AcDbLine
62
9
6
CONTINUOUS
10
-73.1512599825
20
-4.3982081061
11
-73.1512599825
21
-4.1196365004
0
LINE
5
3C9
100
AcDbEntity
8
CURVE
100
AcDbLine
62
9
6
CONTINUOUS
10
-73.1512599825
20
2.9327441568
11
-73.1512599825
21
2.3756012553
0
LINE
5
3CA
100
AcDbEntity
8
CURVE
100
AcDbLine
62
9
6
CONTINUOUS
10
-73.1512599825
20
2.0041727060
11
-73.1512599825
21
1.3541727060
0
LINE
5
3CB
100
AcDbEntity
8
CURVE
100
AcDbLine
62
9
6
CONTINUOUS
10
-73.1512599825
20
0.9827441568
11
-73.1512599825
21
0.3327441568
0
LINE
5
3CC
100
AcDbEntity
8
CURVE
100
AcDbLine
62
9
6
CONTINUOUS
10
-73.1512599825
20
-9.8458272940
11
-73.1512599825
21
-10.2172558432
0
LINE
5
3CD
100
AcDbEntity
8
CURVE
100
AcDbLine
62
9
6
CONTINUOUS
10
-73.1512599825
20
-10.7743987447
11
-73.1512599825
21
-11.3315415686
0
LINE
5
3CE
100
AcDbEntity
8
CURVE
100
AcDbLine
62
9
6
CONTINUOUS
10
-73.1512599825
20
13.1327441568
11
-73.1512599825
21
13.4113157624
0
LINE
5
3CF
100
AcDbEntity
8
CURVE
100
AcDbLine
62
9
6
CONTINUOUS
10
-72.7798597184
20
17.6827441568
11
-72.7798597184
21
17.1256015653
0
LINE
5
3D0
100
AcDbEntity
8
CURVE
100
AcDbLine
62
9
6
CONTINUOUS
10
-72.5941595864
20
16.7541725511
11
-72.5941595864
21
16.1041725511
0
LINE
5
3D1
100
AcDbEntity
8
CURVE
100
AcDbLine
62
9
6
CONTINUOUS
10
-72.5941595864
20
11.3684583539
11
-72.5941595864
21
11.0898870582
0
LINE
5
3D2
100
AcDbEntity
8
CURVE
100
AcDbLine
62
9
6
CONTINUOUS
10
-72.5941595864
20
-11.3315415686
11
-72.5941595864
21
-10.9601130193
0
LINE
5
3D3
100
AcDbEntity
8
CURVE
100
AcDbLine
62
9
6
CONTINUOUS
10
-72.5941595864
20
-7.4934461718
11
-72.5941595864
21
-7.0910655147
0
LINE
5
3D4
100
AcDbEntity
8
CURVE
100
AcDbLine
62
9
6
CONTINUOUS
10
-72.5941595864
20
2.3756012553
11
-72.5941595864
21
2.7470298046
0
LINE
5
3D5
100
AcDbEntity
8
CURVE
100
AcDbLine
62
9
6
CONTINUOUS
10
-72.5941595864
20
11.9875060910
11
-72.5941595864
21
12.3898870582
0
LINE
5
3D6
100
AcDbEntity
8
CURVE
100
AcDbLine
62
9
6
CONTINUOUS
10
-73.1804244718
20
4.0494108016
11
-73.2262542711
21
3.8660775119
0
LINE
5
3D7
100
AcDbEntity
8
CURVE
100
AcDbLine
62
9
6
CONTINUOUS
10
-73.0887647421
20
4.2327441568
11
-73.1804244718
21
4.0494108016
0
LINE
5
3D8
100
AcDbEntity
8
CURVE
100
AcDbLine
62
9
6
CONTINUOUS
10
-80.7792504991
20
-4.3363035804
11
-80.9649506311
21
-4.4291603690
0
LINE
5
3D9
100
AcDbEntity
8
CURVE
100
AcDbLine
62
9
6
CONTINUOUS
10
-80.2221500642
20
-4.9863035804
11
-80.0364499127
21
-4.8934461718
0
LINE
5
3DA
100
AcDbEntity
8
CURVE
100
AcDbLine
62
9
6
CONTINUOUS
10
-72.2227592835
20
9.6041727060
11
-72.7798597184
21
9.6041727060
0
LINE
5
3DB
100
AcDbEntity
8
CURVE
100
AcDbLine
62
9
6
CONTINUOUS
10
-77.9651790884
20
9.8589344853
11
-77.7794789563
21
9.8589344853
0
LINE
5
3DC
100
AcDbEntity
8
CURVE
100
AcDbLine
62
9
6
CONTINUOUS
10
-77.2223785214
20
10.5089344853
11
-77.0366783700
21
10.5089344853
0
LINE
5
3DD
100
AcDbEntity
8
CURVE
100
AcDbLine
62
9
6
CONTINUOUS
10
-72.4084594156
20
10.9041728610
11
-72.0370591321
21
10.9041728610
0
LINE
5
3DE
100
AcDbEntity
8
CURVE
100
AcDbLine
62
9
6
CONTINUOUS
10
-72.9655598505
20
10.9660773868
11
-72.6870096137
21
10.9660773868
0
LINE
5
3DF
100
AcDbEntity
8
CURVE
100
AcDbLine
62
9
6
CONTINUOUS
10
-73.1512599825
20
8.2113155881
11
-72.1299091981
21
7.9327441568
0
LINE
5
3E0
100
AcDbEntity
8
CURVE
100
AcDbLine
62
9
6
CONTINUOUS
10
-71.8513589807
20
4.0952441568
11
-72.1263380388
21
4.3244108671
0
LINE
5
3E1
100
AcDbEntity
8
CURVE
100
AcDbLine
62
9
6
CONTINUOUS
10
-72.0370591321
20
2.9327441568
11
-71.8513589807
21
2.7470298046
0
LINE
5
3E2
100
AcDbEntity
8
CURVE
100
AcDbLine
62
9
6
CONTINUOUS
10
-78.1508792204
20
10.0446486825
11
-77.9651790884
21
9.8589344853
0
LINE
5
3E3
100
AcDbEntity
8
CURVE
100
AcDbLine
62
9
6
CONTINUOUS
10
-81.1506507632
20
14.1113155881
11
-80.9649506311
21
13.9256013038
0
LINE
5
3E4
100
AcDbEntity
8
CURVE
100
AcDbLine
62
9
6
CONTINUOUS
10
-77.0366783700
20
10.5089344853
11
-76.8509782186
21
10.3232202882
0
LINE
5
3E5
100
AcDbEntity
8
CURVE
100
AcDbLine
62
9
6
CONTINUOUS
10
-80.6864003943
20
16.4017917389
11
-80.5935503670
21
16.2470298046
0
LINE
5
3E6
100
AcDbEntity
8
CURVE
100
AcDbLine
62
9
6
CONTINUOUS
10
-80.6864003943
20
18.0732202882
11
-80.5935503670
21
17.9184583539
0
LINE
5
3E7
100
AcDbEntity
8
CURVE
100
AcDbLine
62
9
6
CONTINUOUS
10
-73.1804244718
20
3.6827441568
11
-73.0887647421
21
3.4994108343
0
LINE
5
3E8
100
AcDbEntity
8
CURVE
100
AcDbLine
62
9
6
CONTINUOUS
10
-73.2262542711
20
3.8660775119
11
-73.1804244718
21
3.6827441568
0
LINE
5
3E9
100
AcDbEntity
8
CURVE
100
AcDbLine
62
9
6
CONTINUOUS
10
-72.4084594156
20
-5.9458274489
11
-72.4084594156
21
-6.3482081061
0
LINE
5
3EA
100
AcDbEntity
8
CURVE
100
AcDbLine
62
9
6
CONTINUOUS
10
-72.3156093496
20
10.5327441568
11
-72.3156093496
21
9.9756012553
0
LINE
5
3EB
100
AcDbEntity
8
CURVE
100
AcDbLine
62
9
6
CONTINUOUS
10
-72.3156093496
20
-4.9553513175
11
-72.3156093496
21
-5.5124939090
0
LINE
5
3EC
100
AcDbEntity
8
CURVE
100
AcDbLine
62
9
6
CONTINUOUS
10
-72.1299091981
20
7.9327441568
11
-72.1299091981
21
8.5827441568
0
LINE
5
3ED
100
AcDbEntity
8
CURVE
100
AcDbLine
62
9
6
CONTINUOUS
10
-71.8513589807
20
17.6827441568
11
-71.8513589807
21
17.1256015653
0
LINE
5
3EE
100
AcDbEntity
8
CURVE
100
AcDbLine
62
9
6
CONTINUOUS
10
-71.8513589807
20
12.3898870582
11
-71.8513589807
21
12.1113154525
0
LINE
5
3EF
100
AcDbEntity
8
CURVE
100
AcDbLine
62
9
6
CONTINUOUS
10
-71.8513589807
20
-10.2172558432
11
-71.8513589807
21
-9.8458272940
0
LINE
5
3F0
100
AcDbEntity
8
CURVE
100
AcDbLine
62
9
6
CONTINUOUS
10
-71.8513589807
20
4.5994108671
11
-71.8513589807
21
4.0952441568
0
LINE
5
3F1
100
AcDbEntity
8
CURVE
100
AcDbLine
62
9
6
CONTINUOUS
10
-71.8513589807
20
3.6369108343
11
-71.8513589807
21
3.1327441568
0
LINE
5
3F2
100
AcDbEntity
8
CURVE
100
AcDbLine
62
9
6
CONTINUOUS
10
-71.8513589807
20
-4.5839223033
11
-71.8513589807
21
-3.9339223033
0
LINE
5
3F3
100
AcDbEntity
8
CURVE
100
AcDbLine
62
9
6
CONTINUOUS
10
-71.8513589807
20
2.7470298046
11
-71.8513589807
21
2.3756012553
0
LINE
5
3F4
100
AcDbEntity
8
CURVE
100
AcDbLine
62
9
6
CONTINUOUS
10
-71.8513589807
20
0.9827441568
11
-71.8513589807
21
0.3327441568
0
LINE
5
3F5
100
AcDbEntity
8
CURVE
100
AcDbLine
62
9
6
CONTINUOUS
10
-71.8513589807
20
-7.0910655147
11
-71.8513589807
21
-7.3696368104
0
LINE
5
3F6
100
AcDbEntity
8
CURVE
100
AcDbLine
62
9
6
CONTINUOUS
10
-71.8513589807
20
9.2327441568
11
-71.8513589807
21
9.3256012553
0
LINE
5
3F7
100
AcDbEntity
8
CURVE
100
AcDbLine
62
9
6
CONTINUOUS
10
-71.8513589807
20
-10.7743987447
11
-71.8513589807
21
-11.3315415686
0
LINE
5
3F8
100
AcDbEntity
8
CURVE
100
AcDbLine
62
9
6
CONTINUOUS
10
-71.8513589807
20
11.0898870582
11
-71.8513589807
21
11.3684583539
0
LINE
5
3F9
100
AcDbEntity
8
CURVE
100
AcDbLine
62
9
6
CONTINUOUS
10
-71.8513589807
20
12.9470299596
11
-71.8513589807
21
13.5970299596
0
LINE
5
3FA
100
AcDbEntity
8
CURVE
100
AcDbLine
62
9
6
CONTINUOUS
10
-80.0364499127
20
-8.2053510075
11
-79.8507497613
21
-8.0196368104
0
LINE
5
3FB
100
AcDbEntity
8
CURVE
100
AcDbLine
62
9
6
CONTINUOUS
10
-80.9649506311
20
-9.5053510075
11
-81.1506507632
21
-9.6910653597
0
LINE
5
3FC
100
AcDbEntity
8
CURVE
100
AcDbLine
62
9
6
CONTINUOUS
10
-80.9649506311
20
-11.5172558432
11
-81.1506507632
21
-11.7029701179
0
LINE
5
3FD
100
AcDbEntity
8
CURVE
100
AcDbLine
62
9
6
CONTINUOUS
10
-72.6870096137
20
11.4922680253
11
-72.9655598505
21
11.4922680253
0
LINE
5
3FE
100
AcDbEntity
8
CURVE
100
AcDbLine
62
9
6
CONTINUOUS
10
-72.0370591321
20
11.5541728610
11
-72.4084594156
21
11.5541728610
0
LINE
5
3FF
100
AcDbEntity
8
CURVE
100
AcDbLine
62
9
6
CONTINUOUS
10
-83.8325739069
20
11.6327441568
11
-85.6324365776
21
11.6327441568
0
LINE
5
400
100
AcDbEntity
8
0
100
AcDbLine
62
9
6
CONTINUOUS
10
-83.8325739069
20
11.6327441568
11
-85.6325736519
21
11.6327441568
0
LINE
5
401
100
AcDbEntity
8
CURVE
100
AcDbLine
62
9
6
CONTINUOUS
10
-85.2769966194
20
11.8596337243
11
-83.8325739069
21
11.8596337243
0
LINE
5
402
100
AcDbEntity
8
0
100
AcDbLine
62
9
6
CONTINUOUS
10
-85.2771066240
20
11.8596337243
11
-83.8325739069
21
11.8596337243
0
LINE
5
403
100
AcDbEntity
8
CURVE
100
AcDbLine
62
9
6
CONTINUOUS
10
-72.0370591321
20
11.9256012553
11
-72.5013094816
21
11.9256012553
0
LINE
5
404
100
AcDbEntity
8
CURVE
100
AcDbLine
62
9
6
CONTINUOUS
10
-77.7794789563
20
12.0327441568
11
-77.2223785214
21
12.0327441568
0
LINE
5
405
100
AcDbEntity
8
CURVE
100
AcDbLine
62
9
6
CONTINUOUS
10
-72.4084594156
20
12.5756012553
11
-72.0370591321
21
12.5756012553
0
LINE
5
406
100
AcDbEntity
8
0
100
AcDbLine
62
7
6
CONTINUOUS
10
-61.8325739069
20
12.6327441568
11
-61.6325739069
21
12.6327441568
0
LINE
5
407
100
AcDbEntity
8
CURVE
100
AcDbLine
62
9
6
CONTINUOUS
10
-77.2223785214
20
12.6827441568
11
-77.7794789563
21
12.6827441568
0
LINE
5
408
100
AcDbEntity
8
CURVE
100
AcDbLine
62
9
6
CONTINUOUS
10
-84.1728823409
20
12.8403101486
11
-85.6324365776
21
12.8403101486
0
LINE
5
409
100
AcDbEntity
8
0
100
AcDbLine
62
9
6
CONTINUOUS
10
-84.1729082582
20
12.8403101486
11
-85.6325736519
21
12.8403101486
0
LINE
5
40A
100
AcDbEntity
8
CURVE
100
AcDbLine
62
9
6
CONTINUOUS
10
-77.5937788243
20
13.0541727060
11
-77.9651790884
21
13.0541727060
0
LINE
5
40B
100
AcDbEntity
8
CURVE
100
AcDbLine
62
9
6
CONTINUOUS
10
-85.6324365776
20
13.0672155974
11
-83.8325739069
21
13.0672155974
0
LINE
5
40C
100
AcDbEntity
8
0
100
AcDbLine
62
9
6
CONTINUOUS
10
-85.6325736519
20
13.0672155974
11
-83.8325739069
21
13.0672155974
0
LINE
5
40D
100
AcDbEntity
8
CURVE
100
AcDbLine
62
9
6
CONTINUOUS
10
-72.9655598505
20
9.0470298821
11
-72.7798597184
21
8.9541727060
0
LINE
5
40E
100
AcDbEntity
8
CURVE
100
AcDbLine
62
9
6
CONTINUOUS
10
-77.9651790884
20
12.1256013038
11
-77.7794789563
21
12.0327441568
0
LINE
5
40F
100
AcDbEntity
8
CURVE
100
AcDbLine
62
9
6
CONTINUOUS
10
-80.9649506311
20
13.9256013038
11
-80.7792504991
21
13.8327441568
0
LINE
5
410
100
AcDbEntity
8
CURVE
100
AcDbLine
62
9
6
CONTINUOUS
10
-72.0370591321
20
9.5113156075
11
-72.2227592835
21
9.6041727060
0
LINE
5
411
100
AcDbEntity
8
CURVE
100
AcDbLine
62
9
6
CONTINUOUS
10
-80.9649506311
20
14.8541727060
11
-81.1506507632
21
15.0398869807
0
LINE
5
412
100
AcDbEntity
8
CURVE
100
AcDbLine
62
9
6
CONTINUOUS
10
-78.1508792204
20
12.3113155881
11
-77.9651790884
21
12.1256013038
0
LINE
5
413
100
AcDbEntity
8
CURVE
100
AcDbLine
62
9
6
CONTINUOUS
10
-79.8507497613
20
14.2041727448
11
-80.0364499127
21
14.3898870194
0
LINE
5
414
100
AcDbEntity
8
CURVE
100
AcDbLine
62
9
6
CONTINUOUS
10
-77.9651790884
20
13.0541727060
11
-78.1508792204
21
13.2398869807
0
LINE
5
415
100
AcDbEntity
8
CURVE
100
AcDbLine
62
9
6
CONTINUOUS
10
-80.2221500642
20
15.4113156075
11
-79.8507497613
21
15.0398869807
0
LINE
5
416
100
AcDbEntity
8
CURVE
100
AcDbLine
62
9
6
CONTINUOUS
10
-76.8509782186
20
12.4041727448
11
-77.0366783700
21
12.5898870194
0
LINE
5
417
100
AcDbEntity
8
CURVE
100
AcDbLine
62
9
6
CONTINUOUS
10
-81.1506507632
20
17.1756012553
11
-80.7792504991
21
16.8041728610
0
LINE
5
418
100
AcDbEntity
8
CURVE
100
AcDbLine
62
9
6
CONTINUOUS
10
-73.1512599825
20
9.2327441568
11
-72.9655598505
21
9.0470298821
0
LINE
5
419
100
AcDbEntity
8
CURVE
100
AcDbLine
62
9
6
CONTINUOUS
10
-77.2223785214
20
13.6113156075
11
-76.8509782186
21
13.2398869807
0
LINE
5
41A
100
AcDbEntity
8
CURVE
100
AcDbLine
62
9
6
CONTINUOUS
10
-79.9435998370
20
16.4327441568
11
-79.8507497613
21
16.3398870582
0
LINE
5
41B
100
AcDbEntity
8
CURVE
100
AcDbLine
62
9
6
CONTINUOUS
10
-77.6866288516
20
14.6017917389
11
-77.5937788243
21
14.4470298046
0
LINE
5
41C
100
AcDbEntity
8
CURVE
100
AcDbLine
62
9
6
CONTINUOUS
10
-77.6866288516
20
16.2732202882
11
-77.5937788243
21
16.1184583539
0
LINE
5
41D
100
AcDbEntity
8
CURVE
100
AcDbLine
62
9
6
CONTINUOUS
10
-73.1512599825
20
-4.1196365004
11
-72.9655598505
21
-3.9339223033
0
LINE
5
41E
100
AcDbEntity
8
CURVE
100
AcDbLine
62
9
6
CONTINUOUS
10
-73.1512599825
20
-6.0696365004
11
-72.9655598505
21
-5.8839223033
0
LINE
5
41F
100
AcDbEntity
8
CURVE
100
AcDbLine
62
9
6
CONTINUOUS
10
-79.8507497613
20
-9.5053510075
11
-80.4078501962
21
-9.8767797118
0
LINE
5
420
100
AcDbEntity
8
CURVE
100
AcDbLine
62
9
6
CONTINUOUS
10
-83.8325739069
20
13.5688384687
11
-85.6324365776
21
13.5688384687
0
LINE
5
421
100
AcDbEntity
8
0
100
AcDbLine
62
9
6
CONTINUOUS
10
-83.8325739069
20
13.5688384687
11
-85.6325736519
21
13.5688384687
0
LINE
5
422
100
AcDbEntity
8
CURVE
100
AcDbLine
62
9
6
CONTINUOUS
10
-72.9655598505
20
13.5970299596
11
-72.7798597184
21
13.5970299596
0
LINE
5
423
100
AcDbEntity
8
CURVE
100
AcDbLine
62
9
6
CONTINUOUS
10
-77.9651790884
20
13.7041727060
11
-77.5937788243
21
13.7041727060
0
LINE
5
424
100
AcDbEntity
8
CURVE
100
AcDbLine
62
9
6
CONTINUOUS
10
-85.4307722028
20
13.8083324240
11
-84.8585374042
21
13.8083324240
0
LINE
5
425
100
AcDbEntity
8
0
100
AcDbLine
62
9
6
CONTINUOUS
10
-85.4308939187
20
13.8083324240
11
-84.8586155397
21
13.8083324240
0
LINE
5
426
100
AcDbEntity
8
CURVE
100
AcDbLine
62
9
6
CONTINUOUS
10
-84.6568730293
20
13.8083324240
11
-84.0342382817
21
13.8083324240
0
LINE
5
427
100
AcDbEntity
8
0
100
AcDbLine
62
9
6
CONTINUOUS
10
-84.6569358065
20
13.8083324240
11
-84.0342536401
21
13.8083324240
0
LINE
5
428
100
AcDbEntity
8
CURVE
100
AcDbLine
62
9
6
CONTINUOUS
10
-80.7792504991
20
13.8327441568
11
-80.2221500642
21
13.8327441568
0
LINE
5
429
100
AcDbEntity
8
CURVE
100
AcDbLine
62
9
6
CONTINUOUS
10
-80.2221500642
20
14.4827441568
11
-80.7792504991
21
14.4827441568
0
LINE
5
42A
100
AcDbEntity
8
CURVE
100
AcDbLine
62
9
6
CONTINUOUS
10
-77.9651790884
20
14.6017917389
11
-77.6866288516
21
14.6017917389
0
LINE
5
42B
100
AcDbEntity
8
CURVE
100
AcDbLine
62
9
6
CONTINUOUS
10
-77.4080786535
20
14.6327441568
11
-76.9438282943
21
14.6327441568
0
LINE
5
42C
100
AcDbEntity
8
CURVE
100
AcDbLine
62
9
6
CONTINUOUS
10
-84.8585374042
20
14.7436277586
11
-84.6568730293
21
14.7436277586
0
LINE
5
42D
100
AcDbEntity
8
0
100
AcDbLine
62
9
6
CONTINUOUS
10
-84.8586155397
20
14.7436277586
11
-84.6569358065
21
14.7436277586
0
LINE
5
42E
100
AcDbEntity
8
CURVE
100
AcDbLine
62
9
6
CONTINUOUS
10
-85.6324365776
20
14.8116914526
11
-85.4307722028
21
14.8116914526
0
LINE
5
42F
100
AcDbEntity
8
0
100
AcDbLine
62
9
6
CONTINUOUS
10
-85.6325736519
20
14.8116914526
11
-85.4308939187
21
14.8116914526
0
LINE
5
430
100
AcDbEntity
8
CURVE
100
AcDbLine
62
9
6
CONTINUOUS
10
-84.0342382817
20
14.8192572615
11
-83.8325739069
21
14.8192572615
0
LINE
5
431
100
AcDbEntity
8
0
100
AcDbLine
62
9
6
CONTINUOUS
10
-84.0342536401
20
14.8192572615
11
-83.8325739069
21
14.8192572615
0
LINE
5
432
100
AcDbEntity
8
CURVE
100
AcDbLine
62
9
6
CONTINUOUS
10
-80.5935503670
20
14.8541727060
11
-80.9649506311
21
14.8541727060
0
LINE
5
433
100
AcDbEntity
8
CURVE
100
AcDbLine
62
9
6
CONTINUOUS
10
-73.1512599825
20
14.9898867482
11
-71.8513589807
21
14.9898867482
0
LINE
5
434
100
AcDbEntity
8
0
100
AcDbLine
62
7
6
CONTINUOUS
10
-61.8325739069
20
15.2605009703
11
-61.6325739069
21
15.2605009703
0
LINE
5
435
100
AcDbEntity
8
CURVE
100
AcDbLine
62
9
6
CONTINUOUS
10
-77.5937788243
20
13.7041727060
11
-77.2223785214
21
13.6113156075
0
LINE
5
436
100
AcDbEntity
8
CURVE
100
AcDbLine
62
9
6
CONTINUOUS
10
-80.5935503670
20
15.5041727060
11
-80.2221500642
21
15.4113156075
0
LINE
5
437
100
AcDbEntity
8
CURVE
100
AcDbLine
62
9
6
CONTINUOUS
10
-84.0720496242
20
15.8024122135
11
-85.6324365776
21
16.3217108726
0
LINE
5
438
100
AcDbEntity
8
0
100
AcDbLine
62
9
6
CONTINUOUS
10
-84.0720678622
20
15.8024122135
11
-85.6325736519
21
16.3217108726
0
LINE
5
439
100
AcDbEntity
8
CURVE
100
AcDbLine
62
9
6
CONTINUOUS
10
-85.6324365776
20
16.5713158656
11
-83.8325739069
21
15.9309568527
0
LINE
5
43A
100
AcDbEntity
8
0
100
AcDbLine
62
9
6
CONTINUOUS
10
-85.6325736519
20
16.5713158656
11
-83.8325739069
21
15.9309568527
0
LINE
5
43B
100
AcDbEntity
8
CURVE
100
AcDbLine
62
9
6
CONTINUOUS
10
-77.0366783700
20
12.5898870194
11
-77.2223785214
21
12.6827441568
0
LINE
5
43C
100
AcDbEntity
8
CURVE
100
AcDbLine
62
9
6
CONTINUOUS
10
-80.0364499127
20
14.3898870194
11
-80.2221500642
21
14.4827441568
0
LINE
5
43D
100
AcDbEntity
8
CURVE
100
AcDbLine
62
9
6
CONTINUOUS
10
-72.5013094816
20
11.9256012553
11
-72.8727097457
21
12.1113154525
0
LINE
5
43E
100
AcDbEntity
8
CURVE
100
AcDbLine
62
9
6
CONTINUOUS
10
-73.1512599825
20
11.0898870582
11
-72.9655598505
21
10.9660773868
0
LINE
5
43F
100
AcDbEntity
8
CURVE
100
AcDbLine
62
9
6
CONTINUOUS
10
-78.1508792204
20
15.3756012553
11
-77.7794789563
21
15.0041728610
0
LINE
5
440
100
AcDbEntity
8
CURVE
100
AcDbLine
62
9
6
CONTINUOUS
10
-71.8513589807
20
9.3256012553
11
-72.0370591321
21
9.5113156075
0
LINE
5
441
100
AcDbEntity
8
CURVE
100
AcDbLine
62
9
6
CONTINUOUS
10
-76.9438282943
20
14.6327441568
11
-76.8509782186
21
14.5398870582
0
LINE
5
442
100
AcDbEntity
8
CURVE
100
AcDbLine
62
9
6
CONTINUOUS
10
-79.9435998370
20
18.1041728610
11
-79.8507497613
21
18.0113154525
0
LINE
5
443
100
AcDbEntity
8
CURVE
100
AcDbLine
62
9
6
CONTINUOUS
10
-72.5941595864
20
11.0898870582
11
-72.4084594156
21
10.9041728610
0
LINE
5
444
100
AcDbEntity
8
CURVE
100
AcDbLine
62
9
6
CONTINUOUS
10
-72.8727097457
20
12.1113154525
11
-73.1512599825
21
12.3898870582
0
LINE
5
445
100
AcDbEntity
8
CURVE
100
AcDbLine
62
9
6
CONTINUOUS
10
-76.9438282943
20
16.3041728610
11
-76.8509782186
21
16.2113154525
0
LINE
5
446
100
AcDbEntity
8
CURVE
100
AcDbLine
62
9
6
CONTINUOUS
10
-78.1508792204
20
17.6041725511
11
-77.9651790884
21
17.4184583539
0
LINE
5
447
100
AcDbEntity
8
CURVE
100
AcDbLine
62
9
6
CONTINUOUS
10
-72.5941595864
20
11.3684583539
11
-72.6870096137
21
11.4922680253
0
LINE
5
448
100
AcDbEntity
8
CURVE
100
AcDbLine
62
9
6
CONTINUOUS
10
-72.4084594156
20
-6.3482081061
11
-72.5941595864
21
-6.5339223033
0
LINE
5
449
100
AcDbEntity
8
CURVE
100
AcDbLine
62
9
6
CONTINUOUS
10
-72.5941595864
20
-7.0910655147
11
-72.4084594156
21
-6.9053513175
0
LINE
5
44A
100
AcDbEntity
8
CURVE
100
AcDbLine
62
9
6
CONTINUOUS
10
-71.8513589807
20
-7.3696368104
11
-72.0370591321
21
-7.5553510075
0
LINE
5
44B
100
AcDbEntity
8
CURVE
100
AcDbLine
62
9
6
CONTINUOUS
10
-76.8509782186
20
15.3756012553
11
-78.1508792204
21
15.3756012553
0
LINE
5
44C
100
AcDbEntity
8
CURVE
100
AcDbLine
62
9
6
CONTINUOUS
10
-80.9649506311
20
15.5041727060
11
-80.5935503670
21
15.5041727060
0
LINE
5
44D
100
AcDbEntity
8
CURVE
100
AcDbLine
62
9
6
CONTINUOUS
10
-71.8513589807
20
15.7327441568
11
-73.1512599825
21
15.7327441568
0
LINE
5
44E
100
AcDbEntity
8
CURVE
100
AcDbLine
62
9
6
CONTINUOUS
10
-73.1512599825
20
16.1041725511
11
-71.8513589807
21
16.1041725511
0
LINE
5
44F
100
AcDbEntity
8
CURVE
100
AcDbLine
62
9
6
CONTINUOUS
10
-77.9651790884
20
16.2732202882
11
-77.6866288516
21
16.2732202882
0
LINE
5
450
100
AcDbEntity
8
CURVE
100
AcDbLine
62
9
6
CONTINUOUS
10
-77.4080786535
20
16.3041728610
11
-76.9438282943
21
16.3041728610
0
LINE
5
451
100
AcDbEntity
8
CURVE
100
AcDbLine
62
9
6
CONTINUOUS
10
-80.9649506311
20
16.4017917389
11
-80.6864003943
21
16.4017917389
0
LINE
5
452
100
AcDbEntity
8
CURVE
100
AcDbLine
62
9
6
CONTINUOUS
10
-80.4078501962
20
16.4327441568
11
-79.9435998370
21
16.4327441568
0
LINE
5
453
100
AcDbEntity
8
CURVE
100
AcDbLine
62
9
6
CONTINUOUS
10
-71.8513589807
20
16.7541725511
11
-73.1512599825
21
16.7541725511
0
LINE
5
454
100
AcDbEntity
8
CURVE
100
AcDbLine
62
9
6
CONTINUOUS
10
-77.0057283383
20
16.8613154525
11
-76.9747783163
21
16.8613154525
0
LINE
5
455
100
AcDbEntity
8
CURVE
100
AcDbLine
62
9
6
CONTINUOUS
10
-83.8325739069
20
16.8763293450
11
-85.6324365776
21
16.8763293450
0
LINE
5
456
100
AcDbEntity
8
0
100
AcDbLine
62
9
6
CONTINUOUS
10
-83.8325739069
20
16.8763293450
11
-85.6325736519
21
16.8763293450
0
LINE
5
457
100
AcDbEntity
8
CURVE
100
AcDbLine
62
9
6
CONTINUOUS
10
-76.9747783163
20
16.9851251239
11
-77.0057283383
21
16.9851251239
0
LINE
5
458
100
AcDbEntity
8
CURVE
100
AcDbLine
62
9
6
CONTINUOUS
10
-85.4307722028
20
17.1158243591
11
-84.8585374042
21
17.1158243591
0
LINE
5
459
100
AcDbEntity
8
0
100
AcDbLine
62
9
6
CONTINUOUS
10
-85.4308939187
20
17.1158243591
11
-84.8586155397
21
17.1158243591
0
LINE
5
45A
100
AcDbEntity
8
CURVE
100
AcDbLine
62
9
6
CONTINUOUS
10
-84.6568730293
20
17.1158243591
11
-84.0342382817
21
17.1158243591
0
LINE
5
45B
100
AcDbEntity
8
0
100
AcDbLine
62
9
6
CONTINUOUS
10
-84.6569358065
20
17.1158243591
11
-84.0342536401
21
17.1158243591
0
LINE
5
45C
100
AcDbEntity
8
CURVE
100
AcDbLine
62
9
6
CONTINUOUS
10
-79.8507497613
20
17.1756012553
11
-81.1506507632
21
17.1756012553
0
LINE
5
45D
100
AcDbEntity
8
CURVE
100
AcDbLine
62
9
6
CONTINUOUS
10
-77.0676283920
20
16.8922680253
11
-77.0057283383
21
16.8613154525
0
LINE
5
45E
100
AcDbEntity
8
CURVE
100
AcDbLine
62
9
6
CONTINUOUS
10
-76.9128782674
20
16.9541728610
11
-76.9747783163
21
16.9851251239
0
LINE
5
45F
100
AcDbEntity
8
CURVE
100
AcDbLine
62
9
6
CONTINUOUS
10
-72.8727097457
20
12.9470299596
11
-73.1512599825
21
13.1327441568
0
LINE
5
460
100
AcDbEntity
8
CURVE
100
AcDbLine
62
9
6
CONTINUOUS
10
-72.7798597184
20
13.5970299596
11
-71.8513589807
21
12.9470299596
0
LINE
5
461
100
AcDbEntity
8
CURVE
100
AcDbLine
62
9
6
CONTINUOUS
10
-71.8513589807
20
11.3684583539
11
-72.0370591321
21
11.5541728610
0
LINE
5
462
100
AcDbEntity
8
CURVE
100
AcDbLine
62
9
6
CONTINUOUS
10
-72.0370591321
20
12.5756012553
11
-71.8513589807
21
12.3898870582
0
LINE
5
463
100
AcDbEntity
8
CURVE
100
AcDbLine
62
9
6
CONTINUOUS
10
-77.0366783700
20
18.0684583539
11
-76.8509782186
21
17.8827441568
0
LINE
5
464
100
AcDbEntity
8
CURVE
100
AcDbLine
62
9
6
CONTINUOUS
10
-72.0370591321
20
-10.4029701954
11
-71.8513589807
21
-10.2172558432
0
LINE
5
465
100
AcDbEntity
8
CURVE
100
AcDbLine
62
9
6
CONTINUOUS
10
-77.9651790884
20
17.4184583539
11
-77.7794789563
21
17.4184583539
0
LINE
5
466
100
AcDbEntity
8
CURVE
100
AcDbLine
62
9
6
CONTINUOUS
10
-84.8585374042
20
18.0511525148
11
-84.6568730293
21
18.0511525148
0
LINE
5
467
100
AcDbEntity
8
0
100
AcDbLine
62
9
6
CONTINUOUS
10
-84.8586155397
20
18.0511525148
11
-84.6569358065
21
18.0511525148
0
LINE
5
468
100
AcDbEntity
8
CURVE
100
AcDbLine
62
9
6
CONTINUOUS
10
-77.2223785214
20
18.0684583539
11
-77.0366783700
21
18.0684583539
0
LINE
5
469
100
AcDbEntity
8
CURVE
100
AcDbLine
62
9
6
CONTINUOUS
10
-80.9649506311
20
18.0732202882
11
-80.6864003943
21
18.0732202882
0
LINE
5
46A
100
AcDbEntity
8
0
100
AcDbLine
62
9
6
CONTINUOUS
10
-61.8325739069
20
18.1006742030
11
-62.7247200249
21
18.1006742030
0
LINE
5
46B
100
AcDbEntity
8
CURVE
100
AcDbLine
62
9
6
CONTINUOUS
10
-80.4078501962
20
18.1041728610
11
-79.9435998370
21
18.1041728610
0
LINE
5
46C
100
AcDbEntity
8
CURVE
100
AcDbLine
62
9
6
CONTINUOUS
10
-85.6324365776
20
18.1191664477
11
-85.4307722028
21
18.1191664477
0
LINE
5
46D
100
AcDbEntity
8
0
100
AcDbLine
62
9
6
CONTINUOUS
10
-85.6325736519
20
18.1191664477
11
-85.4308939187
21
18.1191664477
0
LINE
5
46E
100
AcDbEntity
8
CURVE
100
AcDbLine
62
9
6
CONTINUOUS
10
-84.0342382817
20
18.1267820177
11
-83.8325739069
21
18.1267820177
0
LINE
5
46F
100
AcDbEntity
8
0
100
AcDbLine
62
9
6
CONTINUOUS
10
-84.0342536401
20
18.1267820177
11
-83.8325739069
21
18.1267820177
0
LINE
5
470
100
AcDbEntity
8
0
100
AcDbLine
62
7
6
CONTINUOUS
10
-61.8325739069
20
18.4327441568
11
-61.6325739069
21
18.4327441568
0
LINE
5
471
100
AcDbEntity
8
0
100
AcDbLine
62
7
6
CONTINUOUS
10
-61.8325739069
20
18.6000181568
11
-61.6325739069
21
18.6000181568
0
LINE
5
472
100
AcDbEntity
8
0
100
AcDbLine
62
7
6
CONTINUOUS
10
-61.8325739069
20
18.6314238828
11
-61.6325739069
21
18.6314238828
0
LINE
5
473
100
AcDbEntity
8
0
100
AcDbLine
62
7
6
CONTINUOUS
10
-61.8325739069
20
18.7863581568
11
-61.6325739069
21
18.7863581568
0
LINE
5
474
100
AcDbEntity
8
0
100
AcDbLine
62
7
6
CONTINUOUS
10
-61.8325739069
20
18.9677761568
11
-61.6325739069
21
18.9677761568
0
LINE
5
475
100
AcDbEntity
8
0
100
AcDbLine
62
7
6
CONTINUOUS
10
-61.8325739069
20
19.0480941568
11
-61.6325739069
21
19.0480941568
0
LINE
5
476
100
AcDbEntity
8
0
100
AcDbLine
62
9
6
CONTINUOUS
10
-89.3325739069
20
18.3328774260
11
-62.7247200249
21
18.1006742030
0
LINE
5
477
100
AcDbEntity
8
CURVE
100
AcDbLine
62
9
6
CONTINUOUS
10
-73.1512599825
20
15.7327441568
11
-72.4084594156
21
15.3613157624
0
LINE
5
478
100
AcDbEntity
8
0
100
AcDbLine
62
9
6
CONTINUOUS
10
-62.8238473714
20
18.0015392742
11
-62.8238473714
21
-12.3360509607
0
LINE
5
479
100
AcDbEntity
8
0
100
AcDbLine
62
9
6
CONTINUOUS
10
-62.7247200249
20
18.1006742030
11
-62.7247200249
21
-12.4351858895
0
LINE
5
47A
100
AcDbEntity
8
0
100
AcDbLine
62
7
6
CONTINUOUS
10
-84.7249002271
20
-19.3628254422
11
-80.8325739069
21
-17.1155897934
0
LINE
5
47B
100
AcDbEntity
8
0
100
AcDbLine
62
7
6
CONTINUOUS
10
-89.3325739069
20
21.0826524034
11
-90.8325739069
21
21.1333633034
0
LINE
5
47C
100
AcDbEntity
8
0
100
AcDbLine
62
7
6
CONTINUOUS
10
-84.7249002271
20
25.0283137557
11
-80.8325739069
21
22.7810781069
0
LINE
5
47D
100
AcDbEntity
8
CURVE
100
AcDbLine
62
9
6
CONTINUOUS
10
-71.8513589807
20
17.1256015653
11
-72.7798597184
21
17.6827441568
0
LINE
5
47E
100
AcDbEntity
8
0
100
AcDbLine
62
7
6
CONTINUOUS
10
-61.8325739069
20
20.7005752030
11
-61.8325739069
21
-15.0350868895
0
LINE
5
47F
100
AcDbEntity
8
0
100
AcDbLine
62
7
6
CONTINUOUS
10
-61.6325739069
20
18.6314238828
11
-61.6325739069
21
18.6261161188
0
LINE
5
480
100
AcDbEntity
8
0
100
AcDbLine
62
7
6
CONTINUOUS
10
-61.6325739069
20
19.0480941568
11
-61.6325739069
21
18.7863581568
0
LINE
5
481
100
AcDbEntity
8
0
100
AcDbLine
62
7
6
CONTINUOUS
10
-61.6325739069
20
18.6000181568
11
-61.6325739069
21
12.6327441568
0
LINE
5
482
100
AcDbEntity
8
0
100
AcDbLine
62
7
6
CONTINUOUS
10
-61.6325739069
20
-7.4672558432
11
-61.6325739069
21
-13.8633898432
0
LINE
5
483
100
AcDbEntity
8
0
100
AcDbLine
62
7
6
CONTINUOUS
10
-89.3325739069
20
21.7327441568
11
-90.8325739069
21
21.7327441568
0
LINE
5
484
100
AcDbEntity
8
0
100
AcDbLine
62
9
6
CONTINUOUS
10
-81.4325739069
20
22.0327441568
11
-90.8325739069
21
22.0327441568
0
LINE
5
485
100
AcDbEntity
8
0
100
AcDbLine
62
7
6
CONTINUOUS
10
-89.3325739069
20
21.8327441568
11
-62.7247200249
21
21.6005409337
0
LINE
5
486
100
AcDbEntity
8
0
100
AcDbLine
62
9
6
CONTINUOUS
10
-99.8905865403
20
23.8510574445
11
-99.3997772089
21
23.8300400734
0
LINE
5
487
100
AcDbEntity
8
0
100
AcDbLine
62
9
6
CONTINUOUS
10
-98.9263871519
20
24.3083365266
11
-90.8325739069
21
24.7325153047
0
LINE
5
488
100
AcDbEntity
8
0
100
AcDbLine
62
7
6
CONTINUOUS
10
-82.9662670130
20
24.0129663961
11
-86.8325739069
21
24.0467071452
0
LINE
5
489
100
AcDbEntity
8
0
100
AcDbLine
62
7
6
CONTINUOUS
10
-84.7249002271
20
25.0283137557
11
-85.2325739069
21
25.0327441568
0
LINE
5
48A
100
AcDbEntity
8
0
100
AcDbLine
62
7
6
CONTINUOUS
10
-98.9438289268
20
24.8076512940
11
-90.8325739069
21
25.2327441568
0
LINE
5
48B
100
AcDbEntity
8
0
100
AcDbLine
62
7
6
CONTINUOUS
10
-90.8325739069
20
26.3327441568
11
-86.8325739069
21
26.2629238970
0
ARC
5
48C
100
AcDbEntity
8
0
100
AcDbCircle
62
7
6
CONTINUOUS
10
-33.1167490749
20
2.8327441568
40
1.6000000000
100
AcDbArc
50
185.3793789911
51
174.6206210089
0
ARC
5
48D
100
AcDbEntity
8
0
100
AcDbCircle
62
7
6
CONTINUOUS
10
-33.1167490749
20
2.8327441568
40
1.0000000000
100
AcDbArc
50
188.6269265587
51
171.3730734413
0
ARC
5
48E
100
AcDbEntity
8
0
100
AcDbCircle
62
9
6
CONTINUOUS
10
-33.1167490749
20
2.8327441568
40
1.7000000000
100
AcDbArc
50
335.6682737626
51
24.3316407812
0
CIRCLE
5
48F
100
AcDbEntity
8
0
100
AcDbCircle
62
7
6
CONTINUOUS
10
-33.1167490749
20
2.8327441568
40
4.8500000000
0
ARC
5
490
100
AcDbEntity
8
0
100
AcDbCircle
62
7
6
CONTINUOUS
10
-33.1167490749
20
2.8327441568
40
4.2766674765
100
AcDbArc
50
66.4918653923
51
113.5079715636
0
ARC
5
491
100
AcDbEntity
8
0
100
AcDbCircle
62
7
6
CONTINUOUS
10
-33.1167490749
20
2.8327441568
40
4.2766674765
100
AcDbArc
50
246.4918653923
51
293.5079715636
0
ARC
5
492
100
AcDbEntity
8
0
100
AcDbCircle
62
9
6
CONTINUOUS
10
-33.1167490749
20
2.8327441568
40
4.7803944007
100
AcDbArc
50
69.0093145697
51
69.1681365031
0
ARC
5
493
100
AcDbEntity
8
0
100
AcDbCircle
62
9
6
CONTINUOUS
10
-33.1167490749
20
2.8327441568
40
4.7803944007
100
AcDbArc
50
110.8317771076
51
110.9906854303
0
ARC
5
494
100
AcDbEntity
8
0
100
AcDbCircle
62
9
6
CONTINUOUS
10
-33.1167490749
20
2.8327441568
40
4.5695606953
100
AcDbArc
50
69.0791381144
51
110.9208618856
0
ARC
5
495
100
AcDbEntity
8
0
100
AcDbCircle
62
9
6
CONTINUOUS
10
-33.1167490749
20
2.8327441568
40
4.7803944007
100
AcDbArc
50
249.0093145697
51
249.1681365031
0
ARC
5
496
100
AcDbEntity
8
0
100
AcDbCircle
62
9
6
CONTINUOUS
10
-33.1167490749
20
2.8327441568
40
4.7803944007
100
AcDbArc
50
290.8317771076
51
290.9906854303
0
ARC
5
497
100
AcDbEntity
8
0
100
AcDbCircle
62
9
6
CONTINUOUS
10
-33.1167490749
20
2.8327441568
40
4.5695606953
100
AcDbArc
50
249.0791381144
51
290.9208618856
0
ARC
5
498
100
AcDbEntity
8
0
100
AcDbCircle
62
7
6
CONTINUOUS
10
-34.6731873165
20
1.8327441568
40
0.3000000000
100
AcDbArc
50
63.3944050933
51
90.0000000000
0
ARC
5
499
100
AcDbEntity
8
0
100
AcDbCircle
62
7
6
CONTINUOUS
10
-30.1167490749
20
2.8327441568
40
0.7000000000
100
AcDbArc
50
270.0000000000
51
90.0000000000
0
ARC
5
49A
100
AcDbEntity
8
0
100
AcDbCircle
62
7
6
CONTINUOUS
10
-36.7114598933
20
1.0783081431
40
0.7000000000
100
AcDbArc
50
100.0000894753
51
206.0151420596
0
ARC
5
49B
100
AcDbEntity
8
0
100
AcDbCircle
62
7
6
CONTINUOUS
10
-34.6731873165
20
3.8327441568
40
0.3000000000
100
AcDbArc
50
270.0000000000
51
296.6054938983
0
ARC
5
49C
100
AcDbEntity
8
0
100
AcDbCircle
62
7
6
CONTINUOUS
10
-36.7114609699
20
4.5871803602
40
0.7000000000
100
AcDbArc
50
153.9848332550
51
260.0000000000
0
ARC
5
49D
100
AcDbEntity
8
0
100
AcDbCircle
62
7
6
CONTINUOUS
10
-33.1167490749
20
2.8327441568
40
4.7000000000
100
AcDbArc
50
114.2812025058
51
153.9848332550
0
ARC
5
49E
100
AcDbEntity
8
0
100
AcDbCircle
62
7
6
CONTINUOUS
10
-33.1167490749
20
2.8327441568
40
4.7000000000
100
AcDbArc
50
294.2812643401
51
65.7187324697
0
ARC
5
49F
100
AcDbEntity
8
0
100
AcDbCircle
62
7
6
CONTINUOUS
10
-33.1167490749
20
2.8327441568
40
4.7000000000
100
AcDbArc
50
206.0151667450
51
245.7187937754
0
ARC
5
4A0
100
AcDbEntity
8
0
100
AcDbCircle
62
9
6
CONTINUOUS
10
-33.1167490749
20
2.8327441568
40
3.7000000000
100
AcDbArc
50
207.3532090805
51
152.6467909195
0
ARC
5
4A1
100
AcDbEntity
8
0
100
AcDbCircle
62
7
6
CONTINUOUS
10
-44.3667490749
20
2.8327441568
40
28.0000000000
100
AcDbArc
50
53.1301023542
51
54.0372348486
0
ARC
5
4A2
100
AcDbEntity
8
0
100
AcDbCircle
62
7
6
CONTINUOUS
10
-44.3667490749
20
2.8327441568
40
28.0000000000
100
AcDbArc
50
55.8789063483
51
57.0647695028
0
ARC
5
4A3
100
AcDbEntity
8
0
100
AcDbCircle
62
7
6
CONTINUOUS
10
-21.8667490749
20
2.8327441568
40
28.0000000000
100
AcDbArc
50
122.9352304972
51
124.1210936517
0
ARC
5
4A4
100
AcDbEntity
8
0
100
AcDbCircle
62
7
6
CONTINUOUS
10
-21.8667490749
20
2.8327441568
40
28.0000000000
100
AcDbArc
50
125.9627651514
51
126.8698976458
0
ARC
5
4A5
100
AcDbEntity
8
0
100
AcDbCircle
62
7
6
CONTINUOUS
10
-21.8667490749
20
2.8327441568
40
28.0000000000
100
AcDbArc
50
233.1301023542
51
234.0372348486
0
ARC
5
4A6
100
AcDbEntity
8
0
100
AcDbCircle
62
7
6
CONTINUOUS
10
-21.8667490749
20
2.8327441568
40
28.0000000000
100
AcDbArc
50
235.8789063483
51
237.0647695028
0
ARC
5
4A7
100
AcDbEntity
8
0
100
AcDbCircle
62
7
6
CONTINUOUS
10
-44.3667490749
20
2.8327441568
40
28.0000000000
100
AcDbArc
50
302.9352304972
51
304.1210936517
0
ARC
5
4A8
100
AcDbEntity
8
0
100
AcDbCircle
62
7
6
CONTINUOUS
10
-44.3667490749
20
2.8327441568
40
28.0000000000
100
AcDbArc
50
305.9627651514
51
306.8698976458
0
CIRCLE
5
4A9
100
AcDbEntity
8
0
100
AcDbCircle
62
7
6
CONTINUOUS
10
-33.1167490749
20
2.8327441568
40
4.9000000000
0
ARC
5
4AA
100
AcDbEntity
8
0
100
AcDbCircle
62
7
6
CONTINUOUS
10
-38.0667490749
20
-20.2672558432
40
0.5000000000
100
AcDbArc
50
350.8037184210
51
119.1124227760
0
ARC
5
4AB
100
AcDbEntity
8
0
100
AcDbCircle
62
7
6
CONTINUOUS
10
-38.0667490749
20
25.9327441568
40
0.5000000000
100
AcDbArc
50
240.8875772240
51
9.1962815790
0
ARC
5
4AC
100
AcDbEntity
8
0
100
AcDbCircle
62
7
6
CONTINUOUS
10
-28.1667490749
20
-20.2672558432
40
0.5000000000
100
AcDbArc
50
60.8875772240
51
189.1962815790
0
ARC
5
4AD
100
AcDbEntity
8
0
100
AcDbCircle
62
7
6
CONTINUOUS
10
-28.1667490749
20
25.9327441568
40
0.5000000000
100
AcDbArc
50
170.8037184210
51
299.1124227760
0
ARC
5
4AE
100
AcDbEntity
8
0
100
AcDbCircle
62
7
6
CONTINUOUS
10
-98.8914929706
20
-18.1435334457
40
1.0000000000
100
AcDbArc
50
182.4092313014
51
267.0000000000
0
ARC
5
4AF
100
AcDbEntity
8
0
100
AcDbCircle
62
7
6
CONTINUOUS
10
399.6674260931
20
2.8327441568
40
500.0000000000
100
AcDbArc
50
177.5907686986
51
182.4092313014
0
ARC
5
4B0
100
AcDbEntity
8
0
100
AcDbCircle
62
7
6
CONTINUOUS
10
-98.8914929706
20
23.8090217592
40
1.0000000000
100
AcDbArc
50
93.0000000000
51
177.5907686986
0
ARC
5
4B1
100
AcDbEntity
8
0
100
AcDbCircle
62
7
6
CONTINUOUS
10
-62.7325739069
20
-15.0350868895
40
0.9000000000
100
AcDbArc
50
270.5000000000
51
360.0000000000
0
ARC
5
4B2
100
AcDbEntity
8
0
100
AcDbCircle
62
7
6
CONTINUOUS
10
-62.7325739069
20
20.7005688873
40
0.9000000000
100
AcDbArc
50
0.0004020710
51
89.5000035087
0
SPLINE
5
4B3
100
AcDbEntity
8
0
100
AcDbSpline
62
7
6
CONTINUOUS
70
0
71
3
72
12
73
8
74
6
42
0.0000001000
43
0.0000001000
44
0.0000000001
12
0.0869289106
22
0.0247112715
32
0.0000000000
13
0.0141154732
23
0.0916244159
33
0.0000000000
40
0.0000000000
40
0.0000000000
40
0.0000000000
40
0.0000000000
40
0.0836541435
40
0.2314286834
40
0.4445678959
40
0.7210805603
40
1.0000000000
40
1.0000000000
40
1.0000000000
40
1.0000000000
10
-34.8227499886
20
7.2943340222
30
0.0000000000
10
-34.8203260008
20
7.2950230890
30
0.0000000000
10
-34.8154301546
20
7.3014985450
30
0.0000000000
10
-34.8101794366
20
7.3136409947
30
0.0000000000
10
-34.8046416529
20
7.3328261319
30
0.0000000000
10
-34.7997641932
20
7.3559700340
30
0.0000000000
10
-34.7969142197
20
7.3728988168
30
0.0000000000
10
-34.7956018597
20
7.3814174271
30
0.0000000000
11
-34.8227499886
21
7.2943340222
31
0.0000000000
11
-34.8170691622
21
7.2996842519
31
0.0000000000
11
-34.8111404138
21
7.3120241953
31
0.0000000000
11
-34.8054094684
21
7.3309201292
31
0.0000000000
11
-34.7999467267
21
7.3559478994
31
0.0000000000
11
-34.7956018597
21
7.3814174271
31
0.0000000000
0
SPLINE
5
4B4
100
AcDbEntity
8
0
100
AcDbSpline
62
7
6
CONTINUOUS
70
0
71
3
72
9
73
5
74
3
42
0.0000001000
43
0.0000001000
44
0.0000000001
12
-0.0123207333
22
-0.0039754431
32
0.0000000000
13
-0.0101248103
23
0.0084780990
33
0.0000000000
40
0.0000000000
40
0.0000000000
40
0.0000000000
40
0.0000000000
40
0.0611245960
40
1.0000000000
40
1.0000000000
40
1.0000000000
40
1.0000000000
10
-34.8227336062
20
6.7543258732
30
0.0000000000
10
-34.8229846395
20
6.7542448741
30
0.0000000000
10
-34.8271550783
20
6.7530601087
30
0.0000000000
10
-34.8323995082
20
6.7542922478
30
0.0000000000
10
-34.8355681533
20
6.7569455407
30
0.0000000000
11
-34.8227336062
21
6.7543258732
31
0.0000000000
11
-34.8234984849
21
6.7541090675
31
0.0000000000
11
-34.8355681533
21
6.7569455407
31
0.0000000000
0
SPLINE
5
4B5
100
AcDbEntity
8
0
100
AcDbSpline
62
7
6
CONTINUOUS
70
0
71
3
72
12
73
8
74
6
42
0.0000001000
43
0.0000001000
44
0.0000000001
12
-0.0869289106
22
-0.0247112715
32
0.0000000000
13
-0.0141154732
23
-0.0916244159
33
0.0000000000
40
0.0000000000
40
0.0000000000
40
0.0000000000
40
0.0000000000
40
0.0836541435
40
0.2314286834
40
0.4445678959
40
0.7210805603
40
1.0000000000
40
1.0000000000
40
1.0000000000
40
1.0000000000
10
-31.4107481612
20
-1.6288457087
30
0.0000000000
10
-31.4131721490
20
-1.6295347755
30
0.0000000000
10
-31.4180679952
20
-1.6360102315
30
0.0000000000
10
-31.4233187132
20
-1.6481526812
30
0.0000000000
10
-31.4288564969
20
-1.6673378184
30
0.0000000000
10
-31.4337339566
20
-1.6904817205
30
0.0000000000
10
-31.4365839301
20
-1.7074105033
30
0.0000000000
10
-31.4378962900
20
-1.7159291136
30
0.0000000000
11
-31.4107481612
21
-1.6288457087
31
0.0000000000
11
-31.4164289876
21
-1.6341959384
31
0.0000000000
11
-31.4223577360
21
-1.6465358818
31
0.0000000000
11
-31.4280886813
21
-1.6654318157
31
0.0000000000
11
-31.4335514231
21
-1.6904595859
31
0.0000000000
11
-31.4378962900
21
-1.7159291136
31
0.0000000000
0
SPLINE
5
4B6
100
AcDbEntity
8
0
100
AcDbSpline
62
7
6
CONTINUOUS
70
0
71
3
72
9
73
5
74
3
42
0.0000001000
43
0.0000001000
44
0.0000000001
12
0.0123207333
22
0.0039754431
32
0.0000000000
13
0.0101248103
23
-0.0084780990
33
0.0000000000
40
0.0000000000
40
0.0000000000
40
0.0000000000
40
0.0000000000
40
0.0611245960
40
1.0000000000
40
1.0000000000
40
1.0000000000
40
1.0000000000
10
-31.4107645436
20
-1.0888375597
30
0.0000000000
10
-31.4105135103
20
-1.0887565606
30
0.0000000000
10
-31.4063430715
20
-1.0875717952
30
0.0000000000
10
-31.4010986416
20
-1.0888039343
30
0.0000000000
10
-31.3979299965
20
-1.0914572272
30
0.0000000000
11
-31.4107645436
21
-1.0888375597
31
0.0000000000
11
-31.4099996648
21
-1.0886207540
31
0.0000000000
11
-31.3979299965
21
-1.0914572272
31
0.0000000000
0
SPLINE
5
4B7
100
AcDbEntity
8
0
100
AcDbSpline
62
7
6
CONTINUOUS
70
0
71
3
72
10
73
6
74
4
42
0.0000001000
43
0.0000001000
44
0.0000000001
12
-0.0823738738
22
0.0689764878
32
0.0000000000
13
-0.0826536006
23
0.0686410465
33
0.0000000000
40
0.0000000000
40
0.0000000000
40
0.0000000000
40
0.0000000000
40
0.3318672950
40
0.6651984721
40
1.0000000000
40
1.0000000000
40
1.0000000000
40
1.0000000000
10
-34.8355681533
20
6.7569455407
30
0.0000000000
10
-34.8446805515
20
6.7645758875
30
0.0000000000
10
-34.8629560811
20
6.7798576593
30
0.0000000000
10
-34.8904611314
20
6.8027934809
30
0.0000000000
10
-34.9088588050
20
6.8180928588
30
0.0000000000
10
-34.9180829889
20
6.8257532345
30
0.0000000000
11
-34.8355681533
21
6.7569455407
31
0.0000000000
11
-34.8629210368
21
6.7798178320
31
0.0000000000
11
-34.8904258291
21
6.8027535858
31
0.0000000000
11
-34.9180829889
21
6.8257532345
31
0.0000000000
0
SPLINE
5
4B8
100
AcDbEntity
8
0
100
AcDbSpline
62
7
6
CONTINUOUS
70
0
71
3
72
10
73
6
74
4
42
0.0000001000
43
0.0000001000
44
0.0000000001
12
0.0826536006
22
0.0686410465
32
0.0000000000
13
0.0823738738
23
0.0689764878
33
0.0000000000
40
0.0000000000
40
0.0000000000
40
0.0000000000
40
0.0000000000
40
0.3347947820
40
0.6681259700
40
1.0000000000
40
1.0000000000
40
1.0000000000
40
1.0000000000
10
-34.9180829889
20
-1.1602649210
30
0.0000000000
10
-34.9088589909
20
-1.1526046996
30
0.0000000000
10
-34.8904615025
20
-1.1373054762
30
0.0000000000
10
-34.8629564516
20
-1.1143696554
30
0.0000000000
10
-34.8446807364
20
-1.0990877289
30
0.0000000000
10
-34.8355681533
20
-1.0914572272
30
0.0000000000
11
-34.9180829889
21
-1.1602649210
31
0.0000000000
11
-34.8904263861
21
-1.1372657361
31
0.0000000000
11
-34.8629215922
21
-1.1143299822
31
0.0000000000
11
-34.8355681533
21
-1.0914572272
31
0.0000000000
0
SPLINE
5
4B9
100
AcDbEntity
8
0
100
AcDbSpline
62
7
6
CONTINUOUS
70
0
71
3
72
10
73
6
74
4
42
0.0000001000
43
0.0000001000
44
0.0000000001
12
-0.0826536006
22
-0.0686410465
32
0.0000000000
13
-0.0823738738
23
-0.0689764878
33
0.0000000000
40
0.0000000000
40
0.0000000000
40
0.0000000000
40
0.0000000000
40
0.3347947820
40
0.6681259700
40
1.0000000000
40
1.0000000000
40
1.0000000000
40
1.0000000000
10
-31.3154151608
20
6.8257532345
30
0.0000000000
10
-31.3246391589
20
6.8180930131
30
0.0000000000
10
-31.3430366473
20
6.8027937897
30
0.0000000000
10
-31.3705416982
20
6.7798579689
30
0.0000000000
10
-31.3888174133
20
6.7645760424
30
0.0000000000
10
-31.3979299965
20
6.7569455407
30
0.0000000000
11
-31.3154151608
21
6.8257532345
31
0.0000000000
11
-31.3430717637
21
6.8027540496
31
0.0000000000
11
-31.3705765575
21
6.7798182958
31
0.0000000000
11
-31.3979299965
21
6.7569455407
31
0.0000000000
0
SPLINE
5
4BA
100
AcDbEntity
8
0
100
AcDbSpline
62
7
6
CONTINUOUS
70
0
71
3
72
10
73
6
74
4
42
0.0000001000
43
0.0000001000
44
0.0000000001
12
0.0823738738
22
-0.0689764878
32
0.0000000000
13
0.0826536006
23
-0.0686410465
33
0.0000000000
40
0.0000000000
40
0.0000000000
40
0.0000000000
40
0.0000000000
40
0.3318672950
40
0.6651984721
40
1.0000000000
40
1.0000000000
40
1.0000000000
40
1.0000000000
10
-31.3979299965
20
-1.0914572272
30
0.0000000000
10
-31.3888175983
20
-1.0990875740
30
0.0000000000
10
-31.3705420687
20
-1.1143693458
30
0.0000000000
10
-31.3430370184
20
-1.1373051674
30
0.0000000000
10
-31.3246393448
20
-1.1526045453
30
0.0000000000
10
-31.3154151608
20
-1.1602649210
30
0.0000000000
11
-31.3979299965
21
-1.0914572272
31
0.0000000000
11
-31.3705771130
21
-1.1143295185
31
0.0000000000
11
-31.3430723207
21
-1.1372652723
31
0.0000000000
11
-31.3154151608
21
-1.1602649210
31
0.0000000000
0
SPLINE
5
4BB
100
AcDbEntity
8
0
100
AcDbSpline
62
7
6
CONTINUOUS
70
0
71
3
72
12
73
8
74
6
42
0.0000001000
43
0.0000001000
44
0.0000000001
12
0.0141159471
22
-0.0916221570
32
0.0000000000
13
0.0867513611
23
-0.0250624003
33
0.0000000000
40
0.0000000000
40
0.0000000000
40
0.0000000000
40
0.0000000000
40
0.2861348468
40
0.5620578291
40
0.7728142455
40
0.9181168810
40
1.0000000000
40
1.0000000000
40
1.0000000000
40
1.0000000000
10
-31.4378962343
20
7.3814173413
30
0.0000000000
10
-31.4365498795
20
7.3726785774
30
0.0000000000
10
-31.4336598866
20
7.3555482351
30
0.0000000000
10
-31.4287252114
20
7.3322809929
30
0.0000000000
10
-31.4231851429
20
7.3132793118
30
0.0000000000
10
-31.4179716779
20
7.3013220511
30
0.0000000000
10
-31.4131170741
20
7.2950161482
30
0.0000000000
10
-31.4107492501
20
7.2943320857
30
0.0000000000
11
-31.4378962343
21
7.3814173413
31
0.0000000000
11
-31.4334262389
21
7.3552910034
31
0.0000000000
11
-31.4279366541
21
7.3303253255
31
0.0000000000
11
-31.4222198637
21
7.3116560739
31
0.0000000000
11
-31.4163371955
21
7.2995483630
31
0.0000000000
11
-31.4107492501
21
7.2943320857
31
0.0000000000
0
SPLINE
5
4BC
100
AcDbEntity
8
0
100
AcDbSpline
62
7
6
CONTINUOUS
70
0
71
3
72
9
73
5
74
3
42
0.0000001000
43
0.0000001000
44
0.0000000001
12
-0.0101136593
22
-0.0084687616
32
0.0000000000
13
-0.0123355142
23
0.0039260631
33
0.0000000000
40
0.0000000000
40
0.0000000000
40
0.0000000000
40
0.0000000000
40
0.9444086113
40
1.0000000000
40
1.0000000000
40
1.0000000000
40
1.0000000000
10
-31.3979299965
20
6.7569455407
30
0.0000000000
10
-31.4011138055
20
6.7542795502
30
0.0000000000
10
-31.4063631798
20
6.7530754905
30
0.0000000000
10
-31.4105332505
20
6.7542574561
30
0.0000000000
10
-31.4107618333
20
6.7543302078
30
0.0000000000
11
-31.3979299965
21
6.7569455407
31
0.0000000000
11
-31.4100662750
21
6.7541334156
31
0.0000000000
11
-31.4107618333
21
6.7543302078
31
0.0000000000
0
SPLINE
5
4BD
100
AcDbEntity
8
0
100
AcDbSpline
62
7
6
CONTINUOUS
70
0
71
3
72
9
73
5
74
3
42
0.0000001000
43
0.0000001000
44
0.0000000001
12
0.0101136593
22
0.0084687616
32
0.0000000000
13
0.0123355142
23
-0.0039260631
33
0.0000000000
40
0.0000000000
40
0.0000000000
40
0.0000000000
40
0.0000000000
40
0.9444086113
40
1.0000000000
40
1.0000000000
40
1.0000000000
40
1.0000000000
10
-34.8355681533
20
-1.0914572272
30
0.0000000000
10
-34.8323843443
20
-1.0887912367
30
0.0000000000
10
-34.8271349700
20
-1.0875871770
30
0.0000000000
10
-34.8229648992
20
-1.0887691426
30
0.0000000000
10
-34.8227363165
20
-1.0888418943
30
0.0000000000
11
-34.8355681533
21
-1.0914572272
31
0.0000000000
11
-34.8234318748
21
-1.0886451021
31
0.0000000000
11
-34.8227363165
21
-1.0888418943
31
0.0000000000
0
SPLINE
5
4BE
100
AcDbEntity
8
0
100
AcDbSpline
62
7
6
CONTINUOUS
70
0
71
3
72
12
73
8
74
6
42
0.0000001000
43
0.0000001000
44
0.0000000001
12
-0.0141159471
22
0.0916221570
32
0.0000000000
13
-0.0867513611
23
0.0250624003
33
0.0000000000
40
0.0000000000
40
0.0000000000
40
0.0000000000
40
0.0000000000
40
0.2861348468
40
0.5620578291
40
0.7728142455
40
0.9181168810
40
1.0000000000
40
1.0000000000
40
1.0000000000
40
1.0000000000
10
-34.7956019155
20
-1.7159290278
30
0.0000000000
10
-34.7969482703
20
-1.7071902639
30
0.0000000000
10
-34.7998382632
20
-1.6900599216
30
0.0000000000
10
-34.8047729384
20
-1.6667926794
30
0.0000000000
10
-34.8103130069
20
-1.6477909983
30
0.0000000000
10
-34.8155264719
20
-1.6358337376
30
0.0000000000
10
-34.8203810757
20
-1.6295278347
30
0.0000000000
10
-34.8227488997
20
-1.6288437722
30
0.0000000000
11
-34.7956019155
21
-1.7159290278
31
0.0000000000
11
-34.8000719108
21
-1.6898026899
31
0.0000000000
11
-34.8055614956
21
-1.6648370120
31
0.0000000000
11
-34.8112782860
21
-1.6461677604
31
0.0000000000
11
-34.8171609543
21
-1.6340600495
31
0.0000000000
11
-34.8227488997
21
-1.6288437722
31
0.0000000000
0
SPLINE
5
4BF
100
AcDbEntity
8
0
100
AcDbSpline
62
7
6
CONTINUOUS
70
0
71
3
72
8
73
4
74
2
42
0.0000001000
43
0.0000001000
44
0.0000000001
12
0.0292349992
22
-0.3089599485
32
0.0000000000
13
0.0296174411
23
-0.3089235503
33
0.0000000000
40
0.0000000000
40
0.0000000000
40
0.0000000000
40
0.0000000000
40
1.0000000000
40
1.0000000000
40
1.0000000000
40
1.0000000000
10
-34.7484392517
20
-1.4355660610
30
0.0000000000
10
-34.7386942519
20
-1.5385527105
30
0.0000000000
10
-34.7288801127
20
-1.6415328266
30
0.0000000000
10
-34.7190076324
20
-1.7445073434
30
0.0000000000
11
-34.7484392517
21
-1.4355660610
31
0.0000000000
11
-34.7190076324
21
-1.7445073434
31
0.0000000000
0
SPLINE
5
4C0
100
AcDbEntity
8
0
100
AcDbSpline
62
7
6
CONTINUOUS
70
0
71
3
72
9
73
5
74
3
42
0.0000001000
43
0.0000001000
44
0.0000000001
12
-0.0062400157
22
0.0018027357
32
0.0000000000
13
-0.0050334526
23
-0.0043668939
33
0.0000000000
40
0.0000000000
40
0.0000000000
40
0.0000000000
40
0.0000000000
40
0.0630332824
40
1.0000000000
40
1.0000000000
40
1.0000000000
40
1.0000000000
10
-34.8227488997
20
-1.6288437722
30
0.0000000000
10
-34.8228800093
20
-1.6288058948
30
0.0000000000
10
-34.8249900798
20
-1.6282822600
30
0.0000000000
10
-34.8275916020
20
-1.6290530546
30
0.0000000000
10
-34.8291636612
20
-1.6304169327
30
0.0000000000
11
-34.8227488997
21
-1.6288437722
31
0.0000000000
11
-34.8231479712
21
-1.6287450249
31
0.0000000000
11
-34.8291636612
21
-1.6304169327
31
0.0000000000
0
SPLINE
5
4C1
100
AcDbEntity
8
0
100
AcDbSpline
62
7
6
CONTINUOUS
70
0
71
3
72
8
73
4
74
2
42
0.0000001000
43
0.0000001000
44
0.0000000001
12
-0.0590445308
22
-0.0509279946
32
0.0000000000
13
-0.0588973658
23
-0.0510978391
33
0.0000000000
40
0.0000000000
40
0.0000000000
40
0.0000000000
40
0.0000000000
40
1.0000000000
40
1.0000000000
40
1.0000000000
40
1.0000000000
10
-31.3453631776
20
7.3469178371
30
0.0000000000
10
-31.3650446879
20
7.3299418389
30
0.0000000000
10
-31.3847020333
20
7.3129378592
30
0.0000000000
10
-31.4043344886
20
7.2959052462
30
0.0000000000
11
-31.3453631776
21
7.3469178371
31
0.0000000000
11
-31.4043344886
21
7.2959052462
31
0.0000000000
0
SPLINE
5
4C2
100
AcDbEntity
8
0
100
AcDbSpline
62
7
6
CONTINUOUS
70
0
71
3
72
14
73
10
74
8
42
0.0000001000
43
0.0000001000
44
0.0000000001
12
0.3353985941
22
-0.1067483710
32
0.0000000000
13
0.0337871386
23
-0.3570676554
33
0.0000000000
40
0.0000000000
40
0.0000000000
40
0.0000000000
40
0.0000000000
40
0.0448764730
40
0.1237651459
40
0.2367044053
40
0.3822617114
40
0.5588285402
40
0.7650825167
40
1.0000000000
40
1.0000000000
40
1.0000000000
40
1.0000000000
10
-34.8227363165
20
-1.0888418943
30
0.0000000000
10
-34.8177191478
20
-1.0904387244
30
0.0000000000
10
-34.8081834100
20
-1.1042025097
30
0.0000000000
10
-34.7975204962
20
-1.1292707089
30
0.0000000000
10
-34.7865306142
20
-1.1686974057
30
0.0000000000
10
-34.7760261690
20
-1.2194455162
30
0.0000000000
10
-34.7659649970
20
-1.2819010613
30
0.0000000000
10
-34.7565439390
20
-1.3551331984
30
0.0000000000
10
-34.7510849815
20
-1.4076055827
30
0.0000000000
10
-34.7484392517
20
-1.4355660610
30
0.0000000000
11
-34.8227363165
21
-1.0888418943
31
0.0000000000
11
-34.8113246454
21
-1.1003337472
31
0.0000000000
11
-34.7994590667
21
-1.1260199726
31
0.0000000000
11
-34.7880090285
21
-1.1648751023
31
0.0000000000
11
-34.7771105210
21
-1.2159308113
31
0.0000000000
11
-34.7668389942
21
-1.2784201829
31
0.0000000000
11
-34.7572585133
21
-1.3517727753
31
0.0000000000
11
-34.7484392517
21
-1.4355660610
31
0.0000000000
0
SPLINE
5
4C3
100
AcDbEntity
8
0
100
AcDbSpline
62
7
6
CONTINUOUS
70
0
71
3
72
9
73
5
74
3
42
0.0000001000
43
0.0000001000
44
0.0000000001
12
0.0050275600
22
-0.0043617817
32
0.0000000000
13
0.0062453985
23
0.0017753787
33
0.0000000000
40
0.0000000000
40
0.0000000000
40
0.0000000000
40
0.0000000000
40
0.9429760364
40
1.0000000000
40
1.0000000000
40
1.0000000000
40
1.0000000000
10
-34.8291636612
20
7.2959052462
30
0.0000000000
10
-34.8275833717
20
7.2945342277
30
0.0000000000
10
-34.8249780205
20
7.2937779503
30
0.0000000000
10
-34.8228687011
20
7.2943002758
30
0.0000000000
10
-34.8227499886
20
7.2943340222
30
0.0000000000
11
-34.8291636612
21
7.2959052462
31
0.0000000000
11
-34.8231108776
21
7.2942448634
31
0.0000000000
11
-34.8227499886
21
7.2943340222
31
0.0000000000
0
SPLINE
5
4C4
100
AcDbEntity
8
0
100
AcDbSpline
62
7
6
CONTINUOUS
70
0
71
3
72
8
73
4
74
2
42
0.0000001000
43
0.0000001000
44
0.0000000001
12
-0.0292349992
22
0.3089599485
32
0.0000000000
13
-0.0296174411
23
0.3089235503
33
0.0000000000
40
0.0000000000
40
0.0000000000
40
0.0000000000
40
0.0000000000
40
1.0000000000
40
1.0000000000
40
1.0000000000
40
1.0000000000
10
-31.4850588981
20
7.1010543745
30
0.0000000000
10
-31.4948038979
20
7.2040410240
30
0.0000000000
10
-31.5046180370
20
7.3070211401
30
0.0000000000
10
-31.5144905174
20
7.4099956569
30
0.0000000000
11
-31.4850588981
21
7.1010543745
31
0.0000000000
11
-31.5144905174
21
7.4099956569
31
0.0000000000
0
SPLINE
5
4C5
100
AcDbEntity
8
0
100
AcDbSpline
62
7
6
CONTINUOUS
70
0
71
3
72
14
73
10
74
8
42
0.0000001000
43
0.0000001000
44
0.0000000001
12
-0.3353985941
22
0.1067483710
32
0.0000000000
13
-0.0337871386
23
0.3570676554
33
0.0000000000
40
0.0000000000
40
0.0000000000
40
0.0000000000
40
0.0000000000
40
0.0448764730
40
0.1237651459
40
0.2367044053
40
0.3822617114
40
0.5588285402
40
0.7650825167
40
1.0000000000
40
1.0000000000
40
1.0000000000
40
1.0000000000
10
-31.4107618333
20
6.7543302078
30
0.0000000000
10
-31.4157790020
20
6.7559270379
30
0.0000000000
10
-31.4253147398
20
6.7696908232
30
0.0000000000
10
-31.4359776535
20
6.7947590224
30
0.0000000000
10
-31.4469675355
20
6.8341857192
30
0.0000000000
10
-31.4574719807
20
6.8849338297
30
0.0000000000
10
-31.4675331528
20
6.9473893748
30
0.0000000000
10
-31.4769542108
20
7.0206215119
30
0.0000000000
10
-31.4824131683
20
7.0730938962
30
0.0000000000
10
-31.4850588981
20
7.1010543745
30
0.0000000000
11
-31.4107618333
21
6.7543302078
31
0.0000000000
11
-31.4221735044
21
6.7658220607
31
0.0000000000
11
-31.4340390831
21
6.7915082861
31
0.0000000000
11
-31.4454891213
21
6.8303634158
31
0.0000000000
11
-31.4563876287
21
6.8814191248
31
0.0000000000
11
-31.4666591556
21
6.9439084964
31
0.0000000000
11
-31.4762396365
21
7.0172610888
31
0.0000000000
11
-31.4850588981
21
7.1010543745
31
0.0000000000
0
SPLINE
5
4C6
100
AcDbEntity
8
0
100
AcDbSpline
62
7
6
CONTINUOUS
70
0
71
3
72
14
73
10
74
8
42
0.0000001000
43
0.0000001000
44
0.0000000001
12
-0.0337870996
22
-0.3570672424
32
0.0000000000
13
-0.3346273718
23
-0.1079718270
33
0.0000000000
40
0.0000000000
40
0.0000000000
40
0.0000000000
40
0.0000000000
40
0.2361509353
40
0.4440779867
40
0.6216447942
40
0.7669385722
40
0.8785568127
40
0.9560604941
40
1.0000000000
40
1.0000000000
40
1.0000000000
40
1.0000000000
10
-34.7484392517
20
7.1010543745
30
0.0000000000
10
-34.7510988700
20
7.0729471201
30
0.0000000000
10
-34.7565964298
20
7.0201294156
30
0.0000000000
10
-34.7660949792
20
6.9464360603
30
0.0000000000
10
-34.7762455403
20
6.8837032840
30
0.0000000000
10
-34.7868018227
20
6.8330330472
30
0.0000000000
10
-34.7977962311
20
6.7939906106
30
0.0000000000
10
-34.8083773736
20
6.7693182266
30
0.0000000000
10
-34.8178324857
20
6.7559072828
30
0.0000000000
10
-34.8227336062
20
6.7543258732
30
0.0000000000
11
-34.7484392517
21
7.1010543745
31
0.0000000000
11
-34.7573100137
21
7.0168217712
31
0.0000000000
11
-34.7669899708
21
6.9428770955
31
0.0000000000
11
-34.7773678866
21
6.8800418371
31
0.0000000000
11
-34.7883250343
21
6.8290954174
31
0.0000000000
11
-34.7997428432
21
6.7907249292
31
0.0000000000
11
-34.8115065275
21
6.7655391270
31
0.0000000000
11
-34.8227336062
21
6.7543258732
31
0.0000000000
0
SPLINE
5
4C7
100
AcDbEntity
8
0
100
AcDbSpline
62
7
6
CONTINUOUS
70
0
71
3
72
8
73
4
74
2
42
0.0000001000
43
0.0000001000
44
0.0000000001
12
0.0296174479
22
0.3089235990
32
0.0000000000
13
0.0292350038
23
0.3089599973
33
0.0000000000
40
0.0000000000
40
0.0000000000
40
0.0000000000
40
0.0000000000
40
1.0000000000
40
1.0000000000
40
1.0000000000
40
1.0000000000
10
-31.5144905219
20
-1.7445073922
30
0.0000000000
10
-31.5046180393
20
-1.6415328592
30
0.0000000000
10
-31.4948038994
20
-1.5385527268
30
0.0000000000
10
-31.4850588981
20
-1.4355660610
30
0.0000000000
11
-31.5144905219
21
-1.7445073922
31
0.0000000000
11
-31.4850588981
21
-1.4355660610
31
0.0000000000
0
SPLINE
5
4C8
100
AcDbEntity
8
0
100
AcDbSpline
62
7
6
CONTINUOUS
70
0
71
3
72
8
73
4
74
2
42
0.0000001000
43
0.0000001000
44
0.0000000001
12
-0.0296174479
22
-0.3089235990
32
0.0000000000
13
-0.0292350038
23
-0.3089599973
33
0.0000000000
40
0.0000000000
40
0.0000000000
40
0.0000000000
40
0.0000000000
40
1.0000000000
40
1.0000000000
40
1.0000000000
40
1.0000000000
10
-34.7190076279
20
7.4099957057
30
0.0000000000
10
-34.7288801105
20
7.3070211727
30
0.0000000000
10
-34.7386942504
20
7.2040410403
30
0.0000000000
10
-34.7484392517
20
7.1010543745
30
0.0000000000
11
-34.7190076279
21
7.4099957057
31
0.0000000000
11
-34.7484392517
21
7.1010543745
31
0.0000000000
0
SPLINE
5
4C9
100
AcDbEntity
8
0
100
AcDbSpline
62
7
6
CONTINUOUS
70
0
71
3
72
14
73
10
74
8
42
0.0000001000
43
0.0000001000
44
0.0000000001
12
0.0337870996
22
0.3570672424
32
0.0000000000
13
0.3346273718
23
0.1079718270
33
0.0000000000
40
0.0000000000
40
0.0000000000
40
0.0000000000
40
0.0000000000
40
0.2361509353
40
0.4440779867
40
0.6216447942
40
0.7669385722
40
0.8785568127
40
0.9560604941
40
1.0000000000
40
1.0000000000
40
1.0000000000
40
1.0000000000
10
-31.4850588981
20
-1.4355660610
30
0.0000000000
10
-31.4823992797
20
-1.4074588066
30
0.0000000000
10
-31.4769017200
20
-1.3546411021
30
0.0000000000
10
-31.4674031705
20
-1.2809477468
30
0.0000000000
10
-31.4572526095
20
-1.2182149705
30
0.0000000000
10
-31.4466963271
20
-1.1675447337
30
0.0000000000
10
-31.4357019186
20
-1.1285022971
30
0.0000000000
10
-31.4251207762
20
-1.1038299131
30
0.0000000000
10
-31.4156656640
20
-1.0904189693
30
0.0000000000
10
-31.4107645436
20
-1.0888375597
30
0.0000000000
11
-31.4850588981
21
-1.4355660610
31
0.0000000000
11
-31.4761881360
21
-1.3513334577
31
0.0000000000
11
-31.4665081790
21
-1.2773887820
31
0.0000000000
11
-31.4561302632
21
-1.2145535236
31
0.0000000000
11
-31.4451731154
21
-1.1636071039
31
0.0000000000
11
-31.4337553066
21
-1.1252366157
31
0.0000000000
11
-31.4219916223
21
-1.1000508135
31
0.0000000000
11
-31.4107645436
21
-1.0888375597
31
0.0000000000
0
SPLINE
5
4CA
100
AcDbEntity
8
0
100
AcDbSpline
62
7
6
CONTINUOUS
70
0
71
3
72
9
73
5
74
3
42
0.0000001000
43
0.0000001000
44
0.0000000001
12
0.0062400157
22
-0.0018027357
32
0.0000000000
13
0.0050334526
23
0.0043668939
33
0.0000000000
40
0.0000000000
40
0.0000000000
40
0.0000000000
40
0.0000000000
40
0.0630332824
40
1.0000000000
40
1.0000000000
40
1.0000000000
40
1.0000000000
10
-31.4107492501
20
7.2943320857
30
0.0000000000
10
-31.4106181405
20
7.2942942083
30
0.0000000000
10
-31.4085080699
20
7.2937705735
30
0.0000000000
10
-31.4059065477
20
7.2945413681
30
0.0000000000
10
-31.4043344886
20
7.2959052462
30
0.0000000000
11
-31.4107492501
21
7.2943320857
31
0.0000000000
11
-31.4103501785
21
7.2942333384
31
0.0000000000
11
-31.4043344886
21
7.2959052462
31
0.0000000000
0
SPLINE
5
4CB
100
AcDbEntity
8
0
100
AcDbSpline
62
7
6
CONTINUOUS
70
0
71
3
72
8
73
4
74
2
42
0.0000001000
43
0.0000001000
44
0.0000000001
12
-0.0588973654
22
0.0510978387
32
0.0000000000
13
-0.0590445303
23
0.0509279942
33
0.0000000000
40
0.0000000000
40
0.0000000000
40
0.0000000000
40
0.0000000000
40
1.0000000000
40
1.0000000000
40
1.0000000000
40
1.0000000000
10
-34.8291636612
20
7.2959052462
30
0.0000000000
10
-34.8487961163
20
7.3129378591
30
0.0000000000
10
-34.8684534616
20
7.3299418386
30
0.0000000000
10
-34.8881349717
20
7.3469178367
30
0.0000000000
11
-34.8291636612
21
7.2959052462
31
0.0000000000
11
-34.8881349717
21
7.3469178367
31
0.0000000000
0
SPLINE
5
4CC
100
AcDbEntity
8
0
100
AcDbSpline
62
7
6
CONTINUOUS
70
0
71
3
72
9
73
5
74
3
42
0.0000001000
43
0.0000001000
44
0.0000000001
12
-0.0050275600
22
0.0043617817
32
0.0000000000
13
-0.0062453985
23
-0.0017753787
33
0.0000000000
40
0.0000000000
40
0.0000000000
40
0.0000000000
40
0.0000000000
40
0.9429760364
40
1.0000000000
40
1.0000000000
40
1.0000000000
40
1.0000000000
10
-31.4043344886
20
-1.6304169327
30
0.0000000000
10
-31.4059147781
20
-1.6290459142
30
0.0000000000
10
-31.4085201292
20
-1.6282896368
30
0.0000000000
10
-31.4106294487
20
-1.6288119623
30
0.0000000000
10
-31.4107481612
20
-1.6288457087
30
0.0000000000
11
-31.4043344886
21
-1.6304169327
31
0.0000000000
11
-31.4103872722
21
-1.6287565499
31
0.0000000000
11
-31.4107481612
21
-1.6288457087
31
0.0000000000
0
SPLINE
5
4CD
100
AcDbEntity
8
0
100
AcDbSpline
62
7
6
CONTINUOUS
70
0
71
3
72
8
73
4
74
2
42
0.0000001000
43
0.0000001000
44
0.0000000001
12
0.0590445308
22
0.0509279946
32
0.0000000000
13
0.0588973658
23
0.0510978391
33
0.0000000000
40
0.0000000000
40
0.0000000000
40
0.0000000000
40
0.0000000000
40
1.0000000000
40
1.0000000000
40
1.0000000000
40
1.0000000000
10
-34.8881349722
20
-1.6814295236
30
0.0000000000
10
-34.8684534619
20
-1.6644535254
30
0.0000000000
10
-34.8487961165
20
-1.6474495457
30
0.0000000000
10
-34.8291636612
20
-1.6304169327
30
0.0000000000
11
-34.8881349722
21
-1.6814295236
31
0.0000000000
11
-34.8291636612
21
-1.6304169327
31
0.0000000000
0
SPLINE
5
4CE
100
AcDbEntity
8
0
100
AcDbSpline
62
7
6
CONTINUOUS
70
0
71
3
72
8
73
4
74
2
42
0.0000001000
43
0.0000001000
44
0.0000000001
12
0.0588973654
22
-0.0510978387
32
0.0000000000
13
0.0590445303
23
-0.0509279942
33
0.0000000000
40
0.0000000000
40
0.0000000000
40
0.0000000000
40
0.0000000000
40
1.0000000000
40
1.0000000000
40
1.0000000000
40
1.0000000000
10
-31.4043344886
20
-1.6304169327
30
0.0000000000
10
-31.3847020334
20
-1.6474495456
30
0.0000000000
10
-31.3650446882
20
-1.6644535251
30
0.0000000000
10
-31.3453631781
20
-1.6814295232
30
0.0000000000
11
-31.4043344886
21
-1.6304169327
31
0.0000000000
11
-31.3453631781
21
-1.6814295232
31
0.0000000000
0
SPLINE
5
4CF
100
AcDbEntity
8
0
100
AcDbSpline
62
9
6
CONTINUOUS
70
0
71
3
72
15
73
11
74
9
42
0.0000001000
43
0.0000001000
44
0.0000000001
12
0.9427351955
22
0.3475792519
32
0.0000000000
13
0.9316406175
23
0.3763066169
33
0.0000000000
40
0.0000000000
40
0.0000000000
40
0.0000000000
40
0.0000000000
40
0.0191230356
40
0.0757772537
40
0.1679605793
40
0.2921380936
40
0.4436024553
40
0.6166551483
40
0.8045106854
40
1.0000000000
40
1.0000000000
40
1.0000000000
40
1.0000000000
10
-37.3405355515
20
0.7712816176
30
0.0000000000
10
-37.3345262319
20
0.7734972078
30
0.0000000000
10
-37.3107161103
20
0.7822835366
30
0.0000000000
10
-37.2579619648
20
0.8018155555
30
0.0000000000
10
-37.1722701186
20
0.8337219966
30
0.0000000000
10
-37.0569579592
20
0.8770777675
30
0.0000000000
10
-36.9165064173
20
0.9305289395
30
0.0000000000
10
-36.7564191063
20
0.9923411845
30
0.0000000000
10
-36.5829717775
20
1.0604798947
30
0.0000000000
10
-36.4637640511
20
1.1081668588
30
0.0000000000
10
-36.4030554559
20
1.1326881664
30
0.0000000000
11
-37.3405355515
21
0.7712816176
31
0.0000000000
11
-37.3225094636
21
0.7779334579
31
0.0000000000
11
-37.2691257968
21
0.7976963576
31
0.0000000000
11
-37.1823269371
21
0.8300223509
31
0.0000000000
11
-37.0655388569
21
0.8739316797
31
0.0000000000
11
-36.9233050162
21
0.9280641894
31
0.0000000000
11
-36.7611031027
21
0.9907067997
31
0.0000000000
11
-36.5854219368
21
1.0597229747
31
0.0000000000
11
-36.4030554559
21
1.1326881664
31
0.0000000000
0
SPLINE
5
4D0
100
AcDbEntity
8
0
100
AcDbSpline
62
9
6
CONTINUOUS
70
0
71
3
72
15
73
11
74
9
42
0.0000001000
43
0.0000001000
44
0.0000000001
12
-0.9316406285
22
0.3763065897
32
0.0000000000
13
-0.9427351866
23
0.3475792759
33
0.0000000000
40
0.0000000000
40
0.0000000000
40
0.0000000000
40
0.0000000000
40
0.1954893146
40
0.3833448517
40
0.5563975447
40
0.7078619064
40
0.8320394207
40
0.9242227463
40
0.9808769644
40
1.0000000000
40
1.0000000000
40
1.0000000000
40
1.0000000000
10
-36.4030554559
20
4.5328001471
30
0.0000000000
10
-36.4637640518
20
4.5573214529
30
0.0000000000
10
-36.5829717748
20
4.6050084257
30
0.0000000000
10
-36.7564191080
20
4.6731471247
30
0.0000000000
10
-36.9165064165
20
4.7349593759
30
0.0000000000
10
-37.0569579593
20
4.7884105457
30
0.0000000000
10
-37.1722701188
20
4.8317663163
30
0.0000000000
10
-37.2579619644
20
4.8636727589
30
0.0000000000
10
-37.3107161105
20
4.8832047765
30
0.0000000000
10
-37.3345262320
20
4.8919911056
30
0.0000000000
10
-37.3405355515
20
4.8942066959
30
0.0000000000
11
-36.4030554559
21
4.5328001471
31
0.0000000000
11
-36.5854219356
21
4.6057653416
31
0.0000000000
11
-36.7611031033
21
4.6747815123
31
0.0000000000
11
-36.9233050160
21
4.7374241247
31
0.0000000000
11
-37.0655388570
21
4.7915566337
31
0.0000000000
11
-37.1823269371
21
4.8354659624
31
0.0000000000
11
-37.2691257967
21
4.8677919562
31
0.0000000000
11
-37.3225094637
21
4.8875548554
31
0.0000000000
11
-37.3405355515
21
4.8942066959
31
0.0000000000
0
SPLINE
5
4D1
100
AcDbEntity
8
0
100
AcDbSpline
62
7
6
CONTINUOUS
70
0
71
3
72
15
73
11
74
9
42
0.0000001000
43
0.0000001000
44
0.0000000001
12
0.0000000000
22
-0.7840504605
32
0.0000000000
13
-0.7840504605
23
-0.0000000000
33
0.0000000000
40
0.0000000000
40
0.0000000000
40
0.0000000000
40
0.0000000000
40
0.1250035856
40
0.2500003382
40
0.3749971738
40
0.4999931596
40
0.6249941993
40
0.7499962985
40
0.8749988330
40
1.0000000000
40
1.0000000000
40
1.0000000000
40
1.0000000000
10
-21.9667490749
20
-19.0670269912
30
0.0000000000
10
-21.9667490749
20
-19.0996966975
30
0.0000000000
10
-21.9731770124
20
-19.1652146776
30
0.0000000000
10
-22.0017461864
20
-19.2595912169
30
0.0000000000
10
-22.0481626896
20
-19.3466294615
30
0.0000000000
10
-22.1106632305
20
-19.4229354003
30
0.0000000000
10
-22.1868550514
20
-19.4855787250
30
0.0000000000
10
-22.2738267078
20
-19.5321346404
30
0.0000000000
10
-22.3681792850
20
-19.5608037809
30
0.0000000000
10
-22.4336994010
20
-19.5672558432
30
0.0000000000
10
-22.4663684752
20
-19.5672558432
30
0.0000000000
11
-21.9667490749
21
-19.0670269912
31
0.0000000000
11
-21.9763319475
21
-19.1645665008
31
0.0000000000
11
-22.0047208359
21
-19.2583684639
31
0.0000000000
11
-22.0508433644
21
-19.3448407852
31
0.0000000000
11
-22.1129440079
21
-19.4206572049
31
0.0000000000
11
-22.1886512337
21
-19.4828971604
31
0.0000000000
11
-22.2750567549
21
-19.5291534558
31
0.0000000000
11
-22.3688342461
21
-19.5576386795
31
0.0000000000
11
-22.4663684752
21
-19.5672558432
31
0.0000000000
0
SPLINE
5
4D2
100
AcDbEntity
8
0
100
AcDbSpline
62
7
6
CONTINUOUS
70
0
71
3
72
15
73
11
74
9
42
0.0000001000
43
0.0000001000
44
0.0000000001
12
0.7840504604
22
0.0000000000
32
0.0000000000
13
0.0000000000
23
-0.7840504604
33
0.0000000000
40
0.0000000000
40
0.0000000000
40
0.0000000000
40
0.0000000000
40
0.1250026133
40
0.2500082844
40
0.3750136098
40
0.5000160060
40
0.6250106349
40
0.7500042447
40
0.8749978606
40
1.0000000000
40
1.0000000000
40
1.0000000000
40
1.0000000000
10
-22.4663684752
20
25.2327441568
30
0.0000000000
10
-22.4336990230
20
25.2327441568
30
0.0000000000
10
-22.3681777031
20
25.2262919010
30
0.0000000000
10
-22.2738232664
20
25.1976217054
30
0.0000000000
10
-22.1868502451
20
25.1510639651
30
0.0000000000
10
-22.1106585973
20
25.0884190717
30
0.0000000000
10
-22.0481596247
20
25.0121129637
30
0.0000000000
10
-22.0017449422
20
24.9250760878
30
0.0000000000
10
-21.9731768198
20
24.8307014092
30
0.0000000000
10
-21.9667490749
20
24.7651846330
30
0.0000000000
10
-21.9667490749
20
24.7325153047
30
0.0000000000
11
-22.4663684752
21
25.2327441568
31
0.0000000000
11
-22.3688331286
21
25.2231267705
31
0.0000000000
11
-22.2750534197
21
25.1946403859
31
0.0000000000
11
-22.1886461209
21
25.1483820519
31
0.0000000000
11
-22.1129389066
21
25.0861404076
31
0.0000000000
11
-22.0508399514
21
25.0103239802
31
0.0000000000
11
-22.0047194568
21
24.9238534405
31
0.0000000000
11
-21.9763317257
21
24.8300536967
31
0.0000000000
11
-21.9667490749
21
24.7325153047
31
0.0000000000
0
SPLINE
5
4D3
100
AcDbEntity
8
0
100
AcDbSpline
62
7
6
CONTINUOUS
70
0
71
3
72
15
73
11
74
9
42
0.0000001000
43
0.0000001000
44
0.0000000001
12
-0.7840504604
22
0.0000000000
32
0.0000000000
13
0.0000000000
23
0.7840504604
33
0.0000000000
40
0.0000000000
40
0.0000000000
40
0.0000000000
40
0.0000000000
40
0.1250026133
40
0.2500082844
40
0.3750136098
40
0.5000160060
40
0.6250106349
40
0.7500042447
40
0.8749978606
40
1.0000000000
40
1.0000000000
40
1.0000000000
40
1.0000000000
10
-43.7671296746
20
-19.5672558432
30
0.0000000000
10
-43.7997991268
20
-19.5672558432
30
0.0000000000
10
-43.8653204467
20
-19.5608035875
30
0.0000000000
10
-43.9596748834
20
-19.5321333919
30
0.0000000000
10
-44.0466479046
20
-19.4855756516
30
0.0000000000
10
-44.1228395525
20
-19.4229307582
30
0.0000000000
10
-44.1853385251
20
-19.3466246502
30
0.0000000000
10
-44.2317532076
20
-19.2595877743
30
0.0000000000
10
-44.2603213300
20
-19.1652130957
30
0.0000000000
10
-44.2667490749
20
-19.0996963195
30
0.0000000000
10
-44.2667490749
20
-19.0670269912
30
0.0000000000
11
-43.7671296746
21
-19.5672558432
31
0.0000000000
11
-43.8646650211
21
-19.5576384570
31
0.0000000000
11
-43.9584447300
21
-19.5291520723
31
0.0000000000
11
-44.0448520289
21
-19.4828937384
31
0.0000000000
11
-44.1205592432
21
-19.4206520941
31
0.0000000000
11
-44.1826581984
21
-19.3448356667
31
0.0000000000
11
-44.2287786930
21
-19.2583651270
31
0.0000000000
11
-44.2571664240
21
-19.1645653832
31
0.0000000000
11
-44.2667490749
21
-19.0670269912
31
0.0000000000
0
SPLINE
5
4D4
100
AcDbEntity
8
0
100
AcDbSpline
62
7
6
CONTINUOUS
70
0
71
3
72
15
73
11
74
9
42
0.0000001000
43
0.0000001000
44
0.0000000001
12
0.0000000000
22
0.7840504605
32
0.0000000000
13
0.7840504605
23
0.0000000000
33
0.0000000000
40
0.0000000000
40
0.0000000000
40
0.0000000000
40
0.0000000000
40
0.1250035856
40
0.2500003382
40
0.3749971738
40
0.4999931596
40
0.6249941993
40
0.7499962985
40
0.8749988330
40
1.0000000000
40
1.0000000000
40
1.0000000000
40
1.0000000000
10
-44.2667490749
20
24.7325153047
30
0.0000000000
10
-44.2667490749
20
24.7651850110
30
0.0000000000
10
-44.2603211373
20
24.8307029911
30
0.0000000000
10
-44.2317519634
20
24.9250795304
30
0.0000000000
10
-44.1853354601
20
25.0121177750
30
0.0000000000
10
-44.1228349192
20
25.0884237138
30
0.0000000000
10
-44.0466430984
20
25.1510670385
30
0.0000000000
10
-43.9596714420
20
25.1976229539
30
0.0000000000
10
-43.8653188647
20
25.2262920944
30
0.0000000000
10
-43.7997987488
20
25.2327441568
30
0.0000000000
10
-43.7671296746
20
25.2327441568
30
0.0000000000
11
-44.2667490749
21
24.7325153047
31
0.0000000000
11
-44.2571662023
21
24.8300548143
31
0.0000000000
11
-44.2287773139
21
24.9238567774
31
0.0000000000
11
-44.1826547853
21
25.0103290987
31
0.0000000000
11
-44.1205541419
21
25.0861455184
31
0.0000000000
11
-44.0448469160
21
25.1483854739
31
0.0000000000
11
-43.9584413949
21
25.1946417693
31
0.0000000000
11
-43.8646639037
21
25.2231269930
31
0.0000000000
11
-43.7671296746
21
25.2327441568
31
0.0000000000
0
SPLINE
5
4D5
100
AcDbEntity
8
0
100
AcDbSpline
62
7
6
CONTINUOUS
70
0
71
3
72
9
73
5
74
3
42
0.0000001000
43
0.0000001000
44
0.0000000001
12
-0.0186736316
22
0.0806414253
32
0.0000000000
13
-0.0119554205
23
0.0819360913
33
0.0000000000
40
0.0000000000
40
0.0000000000
40
0.0000000000
40
0.0000000000
40
0.1280116470
40
1.0000000000
40
1.0000000000
40
1.0000000000
40
1.0000000000
10
-44.2670888517
20
-13.8004580694
30
0.0000000000
10
-44.2678856658
20
-13.7970170555
30
0.0000000000
10
-44.2739678426
20
-13.7701022647
30
0.0000000000
10
-44.2789343402
20
-13.7429298246
30
0.0000000000
10
-44.2824093361
20
-13.7191140521
30
0.0000000000
11
-44.2670888517
21
-13.8004580694
31
0.0000000000
11
-44.2694245621
21
-13.7901220200
31
0.0000000000
11
-44.2824093361
21
-13.7191140521
31
0.0000000000
0
SPLINE
5
4D6
100
AcDbEntity
8
0
100
AcDbSpline
62
7
6
CONTINUOUS
70
0
71
3
72
8
73
4
74
2
42
0.0000001000
43
0.0000001000
44
0.0000000001
12
-0.0209842359
22
0.1438147885
32
0.0000000000
13
0.0000000000
23
0.1449587570
33
0.0000000000
40
0.0000000000
40
0.0000000000
40
0.0000000000
40
0.0000000000
40
1.0000000000
40
1.0000000000
40
1.0000000000
40
1.0000000000
10
-44.2824093361
20
-13.7191140521
30
0.0000000000
10
-44.2894040814
20
-13.6711757893
30
0.0000000000
10
-44.2929316723
20
-13.6227443513
30
0.0000000000
10
-44.2929316723
20
-13.5744247657
30
0.0000000000
11
-44.2824093361
21
-13.7191140521
31
0.0000000000
11
-44.2929316723
21
-13.5744247657
31
0.0000000000
0
SPLINE
5
4D7
100
AcDbEntity
8
0
100
AcDbSpline
62
7
6
CONTINUOUS
70
0
71
3
72
9
73
5
74
3
42
0.0000001000
43
0.0000001000
44
0.0000000001
12
0.0186736316
22
-0.0806414253
32
0.0000000000
13
0.0119554205
23
-0.0819360913
33
0.0000000000
40
0.0000000000
40
0.0000000000
40
0.0000000000
40
0.0000000000
40
0.1280116470
40
1.0000000000
40
1.0000000000
40
1.0000000000
40
1.0000000000
10
-21.9664092981
20
19.4659463829
30
0.0000000000
10
-21.9656124840
20
19.4625053690
30
0.0000000000
10
-21.9595303072
20
19.4355905782
30
0.0000000000
10
-21.9545638095
20
19.4084181381
30
0.0000000000
10
-21.9510888137
20
19.3846023656
30
0.0000000000
11
-21.9664092981
21
19.4659463829
31
0.0000000000
11
-21.9640735877
21
19.4556103335
31
0.0000000000
11
-21.9510888137
21
19.3846023656
31
0.0000000000
0
SPLINE
5
4D8
100
AcDbEntity
8
0
100
AcDbSpline
62
7
6
CONTINUOUS
70
0
71
3
72
8
73
4
74
2
42
0.0000001000
43
0.0000001000
44
0.0000000001
12
0.0209842359
22
-0.1438147885
32
0.0000000000
13
0.0000000000
23
-0.1449587570
33
0.0000000000
40
0.0000000000
40
0.0000000000
40
0.0000000000
40
0.0000000000
40
1.0000000000
40
1.0000000000
40
1.0000000000
40
1.0000000000
10
-21.9510888137
20
19.3846023656
30
0.0000000000
10
-21.9440940684
20
19.3366641028
30
0.0000000000
10
-21.9405664775
20
19.2882326648
30
0.0000000000
10
-21.9405664775
20
19.2399130792
30
0.0000000000
11
-21.9510888137
21
19.3846023656
31
0.0000000000
11
-21.9405664775
21
19.2399130792
31
0.0000000000
0
SPLINE
5
4D9
100
AcDbEntity
8
0
100
AcDbSpline
62
7
6
CONTINUOUS
70
0
71
3
72
8
73
4
74
2
42
0.0000001000
43
0.0000001000
44
0.0000000001
12
0.0000000000
22
0.1449587569
32
0.0000000000
13
0.0209842359
23
0.1438147884
33
0.0000000000
40
0.0000000000
40
0.0000000000
40
0.0000000000
40
0.0000000000
40
1.0000000000
40
1.0000000000
40
1.0000000000
40
1.0000000000
10
-44.2929316723
20
19.2399130792
30
0.0000000000
10
-44.2929316723
20
19.2882326648
30
0.0000000000
10
-44.2894040818
20
19.3366641029
30
0.0000000000
10
-44.2824093365
20
19.3846023657
30
0.0000000000
11
-44.2929316723
21
19.2399130792
31
0.0000000000
11
-44.2824093365
21
19.3846023657
31
0.0000000000
0
SPLINE
5
4DA
100
AcDbEntity
8
0
100
AcDbSpline
62
7
6
CONTINUOUS
70
0
71
3
72
9
73
5
74
3
42
0.0000001000
43
0.0000001000
44
0.0000000001
12
0.0119554209
22
0.0819360939
32
0.0000000000
13
0.0186736337
23
0.0806414272
33
0.0000000000
40
0.0000000000
40
0.0000000000
40
0.0000000000
40
0.0000000000
40
0.8719883269
40
1.0000000000
40
1.0000000000
40
1.0000000000
40
1.0000000000
10
-44.2824093365
20
19.3846023657
30
0.0000000000
10
-44.2789343407
20
19.4084181382
30
0.0000000000
10
-44.2739678427
20
19.4355905791
30
0.0000000000
10
-44.2678856653
20
19.4625053706
30
0.0000000000
10
-44.2670888510
20
19.4659463852
30
0.0000000000
11
-44.2824093365
21
19.3846023657
31
0.0000000000
11
-44.2694245621
21
19.4556103335
31
0.0000000000
11
-44.2670888510
21
19.4659463852
31
0.0000000000
0
SPLINE
5
4DB
100
AcDbEntity
8
0
100
AcDbSpline
62
7
6
CONTINUOUS
70
0
71
3
72
8
73
4
74
2
42
0.0000001000
43
0.0000001000
44
0.0000000001
12
0.0000000000
22
-0.1449587569
32
0.0000000000
13
-0.0209842359
23
-0.1438147884
33
0.0000000000
40
0.0000000000
40
0.0000000000
40
0.0000000000
40
0.0000000000
40
1.0000000000
40
1.0000000000
40
1.0000000000
40
1.0000000000
10
-21.9405664775
20
-13.5744247657
30
0.0000000000
10
-21.9405664775
20
-13.6227443513
30
0.0000000000
10
-21.9440940680
20
-13.6711757894
30
0.0000000000
10
-21.9510888133
20
-13.7191140522
30
0.0000000000
11
-21.9405664775
21
-13.5744247657
31
0.0000000000
11
-21.9510888133
21
-13.7191140522
31
0.0000000000
0
SPLINE
5
4DC
100
AcDbEntity
8
0
100
AcDbSpline
62
7
6
CONTINUOUS
70
0
71
3
72
9
73
5
74
3
42
0.0000001000
43
0.0000001000
44
0.0000000001
12
-0.0119554209
22
-0.0819360939
32
0.0000000000
13
-0.0186736337
23
-0.0806414272
33
0.0000000000
40
0.0000000000
40
0.0000000000
40
0.0000000000
40
0.0000000000
40
0.8719883269
40
1.0000000000
40
1.0000000000
40
1.0000000000
40
1.0000000000
10
-21.9510888133
20
-13.7191140522
30
0.0000000000
10
-21.9545638091
20
-13.7429298247
30
0.0000000000
10
-21.9595303071
20
-13.7701022656
30
0.0000000000
10
-21.9656124844
20
-13.7970170571
30
0.0000000000
10
-21.9664092988
20
-13.8004580717
30
0.0000000000
11
-21.9510888133
21
-13.7191140522
31
0.0000000000
11
-21.9640735877
21
-13.7901220200
31
0.0000000000
11
-21.9664092988
21
-13.8004580717
31
0.0000000000
0
SPLINE
5
4DD
100
AcDbEntity
8
0
100
AcDbSpline
62
9
6
CONTINUOUS
70
0
71
3
72
9
73
5
74
3
42
0.0000001000
43
0.0000001000
44
0.0000000001
12
0.0261396009
22
-0.0556317813
32
0.0000000000
13
0.0262241782
23
-0.0555919625
33
0.0000000000
40
0.0000000000
40
0.0000000000
40
0.0000000000
40
0.0000000000
40
0.5004496203
40
1.0000000000
40
1.0000000000
40
1.0000000000
40
1.0000000000
10
-44.2929316723
20
-13.5744244958
30
0.0000000000
10
-44.2885711545
20
-13.5837047971
30
0.0000000000
10
-44.2798514549
20
-13.6022456718
30
0.0000000000
10
-44.2711158410
20
-13.6207790534
30
0.0000000000
10
-44.2667490749
20
-13.6300360487
30
0.0000000000
11
-44.2929316723
21
-13.5744244958
31
0.0000000000
11
-44.2798396280
21
-13.6022604679
31
0.0000000000
11
-44.2667490749
21
-13.6300360487
31
0.0000000000
0
SPLINE
5
4DE
100
AcDbEntity
8
0
100
AcDbSpline
62
9
6
CONTINUOUS
70
0
71
3
72
9
73
5
74
3
42
0.0000001000
43
0.0000001000
44
0.0000000001
12
-0.0262240658
22
-0.0555917242
32
0.0000000000
13
-0.0261394888
23
-0.0556315428
33
0.0000000000
40
0.0000000000
40
0.0000000000
40
0.0000000000
40
0.0000000000
40
0.4995535981
40
1.0000000000
40
1.0000000000
40
1.0000000000
40
1.0000000000
10
-44.2667490749
20
19.2955244354
30
0.0000000000
10
-44.2711158504
20
19.2862674201
30
0.0000000000
10
-44.2798513145
20
19.2677340651
30
0.0000000000
10
-44.2885712012
20
19.2491933754
30
0.0000000000
10
-44.2929316723
20
19.2399131736
30
0.0000000000
11
-44.2667490749
21
19.2955244354
31
0.0000000000
11
-44.2798396280
21
19.2677487814
31
0.0000000000
11
-44.2929316723
21
19.2399131736
31
0.0000000000
0
SPLINE
5
4DF
100
AcDbEntity
8
0
100
AcDbSpline
62
9
6
CONTINUOUS
70
0
71
3
72
9
73
5
74
3
42
0.0000001000
43
0.0000001000
44
0.0000000001
12
-0.0261396009
22
0.0556317813
32
0.0000000000
13
-0.0262241782
23
0.0555919625
33
0.0000000000
40
0.0000000000
40
0.0000000000
40
0.0000000000
40
0.0000000000
40
0.5004496203
40
1.0000000000
40
1.0000000000
40
1.0000000000
40
1.0000000000
10
-21.9405664775
20
19.2399128093
30
0.0000000000
10
-21.9449269953
20
19.2491931106
30
0.0000000000
10
-21.9536466949
20
19.2677339853
30
0.0000000000
10
-21.9623823088
20
19.2862673669
30
0.0000000000
10
-21.9667490749
20
19.2955243622
30
0.0000000000
11
-21.9405664775
21
19.2399128093
31
0.0000000000
11
-21.9536585217
21
19.2677487814
31
0.0000000000
11
-21.9667490749
21
19.2955243622
31
0.0000000000
0
SPLINE
5
4E0
100
AcDbEntity
8
0
100
AcDbSpline
62
9
6
CONTINUOUS
70
0
71
3
72
9
73
5
74
3
42
0.0000001000
43
0.0000001000
44
0.0000000001
12
0.0262240658
22
0.0555917242
32
0.0000000000
13
0.0261394888
23
0.0556315428
33
0.0000000000
40
0.0000000000
40
0.0000000000
40
0.0000000000
40
0.0000000000
40
0.4995535981
40
1.0000000000
40
1.0000000000
40
1.0000000000
40
1.0000000000
10
-21.9667490749
20
-13.6300361219
30
0.0000000000
10
-21.9623822994
20
-13.6207791066
30
0.0000000000
10
-21.9536468353
20
-13.6022457516
30
0.0000000000
10
-21.9449269485
20
-13.5837050619
30
0.0000000000
10
-21.9405664775
20
-13.5744248601
30
0.0000000000
11
-21.9667490749
21
-13.6300361219
31
0.0000000000
11
-21.9536585217
21
-13.6022604679
31
0.0000000000
11
-21.9405664775
21
-13.5744248601
31
0.0000000000
0
SPLINE
5
4E1
100
AcDbEntity
8
0
100
AcDbSpline
62
9
6
CONTINUOUS
70
0
71
3
72
28
73
24
74
22
42
0.0000001000
43
0.0000001000
44
0.0000000001
12
15.3915094942
22
-0.0000924287
32
0.0000000000
13
-15.3915094942
23
-0.0000799193
33
0.0000000000
40
0.0000000000
40
0.0000000000
40
0.0000000000
40
0.0000000000
40
0.0302303196
40
0.0655826429
40
0.1056660955
40
0.1500988841
40
0.1984556734
40
0.2502789354
40
0.3049330928
40
0.3609486676
40
0.4167841120
40
0.4721096313
40
0.5271934069
40
0.5824819010
40
0.6382967364
40
0.6943462302
40
0.7490911118
40
0.8010068384
40
0.8494258784
40
0.8939152805
40
0.9340788580
40
0.9695615425
40
1.0000000000
40
1.0000000000
40
1.0000000000
40
1.0000000000
10
-33.1167490749
20
7.7368789214
30
0.0000000000
10
-32.9616523245
20
7.7368779900
30
0.0000000000
10
-32.6249797699
20
7.7208987583
30
0.0000000000
10
-32.0879099587
20
7.6395110487
30
0.0000000000
10
-31.4934305205
20
7.4757447686
30
0.0000000000
10
-30.8639054824
20
7.2084524091
30
0.0000000000
10
-30.2278777789
20
6.8209041248
30
0.0000000000
10
-29.6199879021
20
6.3040775133
30
0.0000000000
10
-29.0809712080
20
5.6627101933
30
0.0000000000
10
-28.6505793386
20
4.9196668730
30
0.0000000000
10
-28.3555721969
20
4.1095989715
30
0.0000000000
10
-28.2066769869
20
3.2654039249
30
0.0000000000
10
-28.2057406903
20
2.4110383186
30
0.0000000000
10
-28.3526837389
20
1.5668092810
30
0.0000000000
10
-28.6457505202
20
0.7561711605
30
0.0000000000
10
-29.0746873711
20
0.0116615587
30
0.0000000000
10
-29.6130681019
20
-0.6317185621
30
0.0000000000
10
-30.2209804558
20
-1.1504891728
30
0.0000000000
10
-30.8573252894
20
-1.5396207857
30
0.0000000000
10
-31.4874215246
20
-1.8082009346
30
0.0000000000
10
-32.0830363522
20
-1.9730425563
30
0.0000000000
10
-32.6221710238
20
-2.0552169308
30
0.0000000000
10
-32.9605844723
20
-2.0713897970
30
0.0000000000
10
-33.1167490749
20
-2.0713906079
30
0.0000000000
11
-33.1167490749
21
7.7368789214
31
0.0000000000
11
-32.6519825372
21
7.7148089565
31
0.0000000000
11
-32.1139993476
21
7.6332811857
31
0.0000000000
11
-31.5192140646
21
7.4694172013
31
0.0000000000
11
-30.8897233375
21
7.2021274837
31
0.0000000000
11
-30.2541428024
21
6.8148342767
31
0.0000000000
11
-29.6464603295
21
6.2981634358
31
0.0000000000
11
-29.1052530557
21
5.6541689325
31
0.0000000000
11
-28.6731230295
21
4.9081187750
31
0.0000000000
11
-28.3790443123
21
4.1006090683
31
0.0000000000
11
-28.2311339010
21
3.2620099825
31
0.0000000000
11
-28.2302046233
21
2.4141880375
31
0.0000000000
11
-28.3761297023
21
1.5758196398
31
0.0000000000
11
-28.6682092112
21
0.7679219518
31
0.0000000000
11
-29.0988677142
21
0.0204188181
31
0.0000000000
11
-29.6396021703
21
-0.6257945631
31
0.0000000000
11
-30.2474179416
21
-1.1445036396
31
0.0000000000
11
-30.8831986260
21
-1.5333078706
31
0.0000000000
11
-31.5131148653
21
-1.8018232215
31
0.0000000000
11
-32.1088933513
21
-1.9667236159
31
0.0000000000
11
-32.6487898770
21
-2.0490156903
31
0.0000000000
11
-33.1167490749
21
-2.0713906079
31
0.0000000000
0
SPLINE
5
4E2
100
AcDbEntity
8
0
100
AcDbSpline
62
9
6
CONTINUOUS
70
0
71
3
72
28
73
24
74
22
42
0.0000001000
43
0.0000001000
44
0.0000000001
12
-15.3915042525
22
0.0000919567
32
0.0000000000
13
15.3915042526
23
0.0000800632
33
0.0000000000
40
0.0000000000
40
0.0000000000
40
0.0000000000
40
0.0000000000
40
0.0301786631
40
0.0654682600
40
0.1054864117
40
0.1498594728
40
0.1981703777
40
0.2499694513
40
0.3046275948
40
0.3606662924
40
0.4165260120
40
0.4718679095
40
0.5269643604
40
0.5822707693
40
0.6381063322
40
0.6941799699
40
0.7489528527
40
0.8008975300
40
0.8493441725
40
0.8938589772
40
0.9340450554
40
0.9695467069
40
1.0000000000
40
1.0000000000
40
1.0000000000
40
1.0000000000
10
-33.1167490749
20
-2.0713906079
30
0.0000000000
10
-33.2715807484
20
-2.0713896828
30
0.0000000000
10
-33.6076653252
20
-2.0554656519
30
0.0000000000
10
-34.1438390239
20
-1.9743568304
30
0.0000000000
10
-34.7374574318
20
-1.8111228473
30
0.0000000000
10
-35.3663427274
20
-1.5445910244
30
0.0000000000
10
-36.0021139212
20
-1.1579180306
30
0.0000000000
10
-36.6102246254
20
-0.6418830747
30
0.0000000000
10
-37.1498715406
20
-0.0010257504
30
0.0000000000
10
-37.5810851839
20
0.7418514680
30
0.0000000000
10
-37.8768948885
20
1.5519806393
30
0.0000000000
10
-38.0265020380
20
2.3963313459
30
0.0000000000
10
-38.0280714149
20
3.2509397858
30
0.0000000000
10
-37.8816672805
20
4.0955336017
30
0.0000000000
10
-37.5890015832
20
4.9066640024
30
0.0000000000
10
-37.1602931859
20
5.6517428846
30
0.0000000000
10
-36.6219498030
20
6.2957045414
30
0.0000000000
10
-36.0139051839
20
6.8149970320
30
0.0000000000
10
-35.3773145310
20
7.2045415039
30
0.0000000000
10
-34.7469169105
20
7.4734116110
30
0.0000000000
10
-34.1509923083
20
7.6384297315
30
0.0000000000
10
-33.6115767950
20
7.7206890555
30
0.0000000000
10
-33.2729897385
20
7.7368781087
30
0.0000000000
10
-33.1167490749
20
7.7368789214
30
0.0000000000
11
-33.1167490749
21
-2.0713906079
31
0.0000000000
11
-33.5807230637
21
-2.0493960184
31
0.0000000000
11
-34.1177727314
21
-1.9681530501
31
0.0000000000
11
-34.7116643817
21
-1.8048305494
31
0.0000000000
11
-35.3404844520
21
-1.5383144616
31
0.0000000000
11
-35.9757807116
21
-1.1519129117
31
0.0000000000
11
-36.5836621647
21
-0.6360518121
31
0.0000000000
11
-37.1255314733
21
0.0074655769
31
0.0000000000
11
-37.5585297135
21
0.7534233643
31
0.0000000000
11
-37.8534228612
21
1.5610334665
31
0.0000000000
11
-38.0020364273
21
2.3997639458
31
0.0000000000
11
-38.0035938343
21
3.2477797745
31
0.0000000000
11
-37.8582021647
21
4.0865203954
31
0.0000000000
11
-37.5665247194
21
4.8949021860
31
0.0000000000
11
-37.1361003401
21
5.6429685810
31
0.0000000000
11
-36.5953990902
21
6.2897712095
31
0.0000000000
11
-35.9874465756
21
6.8090059716
31
0.0000000000
11
-35.3514204577
21
7.1982226353
31
0.0000000000
11
-34.7212030242
21
7.4670278460
31
0.0000000000
11
-34.1251143240
21
7.6321049176
31
0.0000000000
11
-33.5849356741
21
7.7144822028
31
0.0000000000
11
-33.1167490749
21
7.7368789214
31
0.0000000000
0
SPLINE
5
4E3
100
AcDbEntity
8
0
100
AcDbSpline
62
9
6
CONTINUOUS
70
0
71
3
72
13
73
9
74
7
42
0.0000001000
43
0.0000001000
44
0.0000000001
12
-0.1577378029
22
0.9435858985
32
0.0000000000
13
-0.0003490202
23
0.9566793822
33
0.0000000000
40
0.0000000000
40
0.0000000000
40
0.0000000000
40
0.0000000000
40
0.0448208408
40
0.1498261432
40
0.3086281187
40
0.5117190361
40
0.7469352638
40
1.0000000000
40
1.0000000000
40
1.0000000000
40
1.0000000000
10
-22.6079509582
20
-19.1421629805
30
0.0000000000
10
-22.6103076052
20
-19.1280655427
30
0.0000000000
10
-22.6095195102
20
-19.0799807201
30
0.0000000000
10
-22.6130574144
20
-18.9818407232
30
0.0000000000
10
-22.6136582548
20
-18.8328244651
30
0.0000000000
10
-22.6152479925
20
-18.6424659967
30
0.0000000000
10
-22.6159338213
20
-18.4219757277
30
0.0000000000
10
-22.6161845708
20
-18.2662706793
30
0.0000000000
10
-22.6162140124
20
-18.1855700742
30
0.0000000000
11
-22.6079509582
21
-19.1421629805
31
0.0000000000
11
-22.6100603158
21
-19.0993357176
31
0.0000000000
11
-22.6120153900
21
-18.9988983296
31
0.0000000000
11
-22.6136971114
21
-18.8469850520
31
0.0000000000
11
-22.6150052723
21
-18.6526965496
31
0.0000000000
11
-22.6158619034
21
-18.4276716497
31
0.0000000000
11
-22.6162140124
21
-18.1855700742
31
0.0000000000
0
SPLINE
5
4E4
100
AcDbEntity
8
0
100
AcDbSpline
62
9
6
CONTINUOUS
70
0
71
3
72
13
73
9
74
7
42
0.0000001000
43
0.0000001000
44
0.0000000001
12
-0.1518283440
22
0.4537411951
32
0.0000000000
13
-0.0003498850
23
0.4784692214
33
0.0000000000
40
0.0000000000
40
0.0000000000
40
0.0000000000
40
0.0000000000
40
0.0448720941
40
0.1499620513
40
0.3088769427
40
0.5121305404
40
0.7475203519
40
1.0000000000
40
1.0000000000
40
1.0000000000
40
1.0000000000
10
-22.1080271106
20
-18.6428482131
30
0.0000000000
10
-22.1102980625
20
-18.6360614405
30
0.0000000000
10
-22.1096846271
20
-18.6115761777
30
0.0000000000
10
-22.1130825874
20
-18.5628357193
30
0.0000000000
10
-22.1137559231
20
-18.4880798102
30
0.0000000000
10
-22.1153189457
20
-18.3928793214
30
0.0000000000
10
-22.1160129424
20
-18.2826216850
30
0.0000000000
10
-22.1162607185
20
-18.2048196735
30
0.0000000000
10
-22.1162901648
20
-18.1645517599
30
0.0000000000
11
-22.1080271106
21
-18.6428482131
31
0.0000000000
11
-22.1101335861
21
-18.6214818775
31
0.0000000000
11
-22.1120905435
21
-18.5712376503
31
0.0000000000
11
-22.1137739374
21
-18.4952203826
31
0.0000000000
11
-22.1150831121
21
-18.3979785783
31
0.0000000000
11
-22.1159394175
21
-18.2853550237
31
0.0000000000
11
-22.1162901648
21
-18.1645517599
31
0.0000000000
0
SPLINE
5
4E5
100
AcDbEntity
8
0
100
AcDbSpline
62
9
6
CONTINUOUS
70
0
71
3
72
12
73
8
74
6
42
0.0000001000
43
0.0000001000
44
0.0000000001
12
0.7813571085
22
0.0007128051
32
0.0000000000
13
0.0007145497
23
0.7813571069
33
0.0000000000
40
0.0000000000
40
0.0000000000
40
0.0000000000
40
0.0000000000
40
0.2000879484
40
0.4001761228
40
0.6002085985
40
0.8001502331
40
1.0000000000
40
1.0000000000
40
1.0000000000
40
1.0000000000
10
-22.6079509582
20
-19.1421629805
30
0.0000000000
10
-22.5558375779
20
-19.1421154392
30
0.0000000000
10
-22.4508949315
20
-19.1254725603
30
0.0000000000
10
-22.3094275732
20
-19.0533477461
30
0.0000000000
10
-22.1969803977
20
-18.9410496844
30
0.0000000000
10
-22.1247460404
20
-18.7997440585
30
0.0000000000
10
-22.1080747115
20
-18.6948995583
30
0.0000000000
10
-22.1080271106
20
-18.6428482131
30
0.0000000000
11
-22.6079509582
21
-19.1421629805
31
0.0000000000
11
-22.4535505727
21
-19.1176113827
31
0.0000000000
11
-22.3142476956
21
-19.0466393911
31
0.0000000000
11
-22.2036626394
21
-18.9361873454
31
0.0000000000
11
-22.1326070758
21
-18.7970556336
31
0.0000000000
11
-22.1080271106
21
-18.6428482131
31
0.0000000000
0
SPLINE
5
4E6
100
AcDbEntity
8
0
100
AcDbSpline
62
9
6
CONTINUOUS
70
0
71
3
72
10
73
6
74
4
42
0.0000001000
43
0.0000001000
44
0.0000000001
12
-0.0308408133
22
42.0366204979
32
0.0000000000
13
0.0308408108
23
42.0366204979
33
0.0000000000
40
0.0000000000
40
0.0000000000
40
0.0000000000
40
0.0000000000
40
0.3332896860
40
0.6667103140
40
1.0000000000
40
1.0000000000
40
1.0000000000
40
1.0000000000
10
-22.6162140124
20
-18.1855700742
30
0.0000000000
10
-22.6196403207
20
-13.5154460589
30
0.0000000000
10
-22.6242063564
20
-4.1733613963
30
0.0000000000
10
-22.6242063568
20
9.8388497091
30
0.0000000000
10
-22.6196403204
20
19.1809343720
30
0.0000000000
10
-22.6162140124
20
23.8510583877
30
0.0000000000
11
-22.6162140124
21
-18.1855700742
31
0.0000000000
11
-22.6230643991
21
-4.1751959325
31
0.0000000000
11
-22.6230643992
21
9.8406842449
31
0.0000000000
11
-22.6162140124
21
23.8510583877
31
0.0000000000
0
SPLINE
5
4E7
100
AcDbEntity
8
0
100
AcDbSpline
62
9
6
CONTINUOUS
70
0
71
3
72
10
73
6
74
4
42
0.0000001000
43
0.0000001000
44
0.0000000001
12
-0.0308408131
22
41.9945838615
32
0.0000000000
13
0.0308408106
23
41.9945838615
33
0.0000000000
40
0.0000000000
40
0.0000000000
40
0.0000000000
40
0.0000000000
40
0.3332892101
40
0.6667109287
40
1.0000000000
40
1.0000000000
40
1.0000000000
40
1.0000000000
10
-22.1162901648
20
-18.1645517599
30
0.0000000000
10
-22.1197164682
20
-13.4991045325
30
0.0000000000
10
-22.1242825114
20
-4.1663533491
30
0.0000000000
10
-22.1242825103
20
9.8318455485
30
0.0000000000
10
-22.1197164665
20
19.1645947890
30
0.0000000000
10
-22.1162901648
20
23.8300400734
30
0.0000000000
11
-22.1162901648
21
-18.1645517599
31
0.0000000000
11
-22.1231405466
21
-4.1682079798
31
0.0000000000
11
-22.1231405453
21
9.8337021221
31
0.0000000000
11
-22.1162901648
21
23.8300400734
31
0.0000000000
0
SPLINE
5
4E8
100
AcDbEntity
8
0
100
AcDbSpline
62
9
6
CONTINUOUS
70
0
71
3
72
12
73
8
74
6
42
0.0000001000
43
0.0000001000
44
0.0000000001
12
0.5010580609
22
0.0003673192
32
0.0000000000
13
0.1919553163
23
0.4628309323
33
0.0000000000
40
0.0000000000
40
0.0000000000
40
0.0000000000
40
0.0000000000
40
0.3050607102
40
0.5809725745
40
0.8013959844
40
0.9453902239
40
1.0000000000
40
1.0000000000
40
1.0000000000
40
1.0000000000
10
-22.6162140124
20
-18.1855700737
30
0.0000000000
10
-22.5652629697
20
-18.1855327222
30
0.0000000000
10
-22.4677276217
20
-18.1852835160
30
0.0000000000
10
-22.3358430695
20
-18.1808414503
30
0.0000000000
10
-22.2239467689
20
-18.1810262456
30
0.0000000000
10
-22.1639593979
20
-18.1677606448
30
0.0000000000
10
-22.1197843771
20
-18.1729767911
30
0.0000000000
10
-22.1162901648
20
-18.1645517599
30
0.0000000000
11
-22.6162140124
21
-18.1855700737
31
0.0000000000
11
-22.4633649338
21
-18.1844518418
31
0.0000000000
11
-22.3251500997
21
-18.1814283124
31
0.0000000000
11
-22.2148026266
21
-18.1767889697
31
0.0000000000
11
-22.1428875234
21
-18.1709779987
31
0.0000000000
11
-22.1162901648
21
-18.1645517599
31
0.0000000000
0
SPLINE
5
4E9
100
AcDbEntity
8
0
100
AcDbSpline
62
9
6
CONTINUOUS
70
0
71
3
72
13
73
9
74
7
42
0.0000001000
43
0.0000001000
44
0.0000000001
12
0.0003490200
22
0.9566793822
32
0.0000000000
13
0.1577378176
23
0.9435858960
33
0.0000000000
40
0.0000000000
40
0.0000000000
40
0.0000000000
40
0.0000000000
40
0.2530647362
40
0.4882809639
40
0.6913718813
40
0.8501738568
40
0.9551791592
40
1.0000000000
40
1.0000000000
40
1.0000000000
40
1.0000000000
10
-22.6162140124
20
23.8510583877
30
0.0000000000
10
-22.6161845708
20
23.9317589928
30
0.0000000000
10
-22.6159338212
20
24.0874640412
30
0.0000000000
10
-22.6152479926
20
24.3079543102
30
0.0000000000
10
-22.6136582547
20
24.4983127786
30
0.0000000000
10
-22.6130574146
20
24.6473290367
30
0.0000000000
10
-22.6095195099
20
24.7454690335
30
0.0000000000
10
-22.6103076054
20
24.7935538562
30
0.0000000000
10
-22.6079509582
20
24.8076512940
30
0.0000000000
11
-22.6162140124
21
23.8510583877
31
0.0000000000
11
-22.6158619034
21
24.0931599632
31
0.0000000000
11
-22.6150052723
21
24.3181848631
31
0.0000000000
11
-22.6136971114
21
24.5124733655
31
0.0000000000
11
-22.6120153900
21
24.6643866431
31
0.0000000000
11
-22.6100603158
21
24.7648240311
31
0.0000000000
11
-22.6079509582
21
24.8076512940
31
0.0000000000
0
SPLINE
5
4EA
100
AcDbEntity
8
0
100
AcDbSpline
62
9
6
CONTINUOUS
70
0
71
3
72
13
73
9
74
7
42
0.0000001000
43
0.0000001000
44
0.0000000001
12
0.0003498847
22
0.4784692214
32
0.0000000000
13
0.1518282341
23
0.4537412319
33
0.0000000000
40
0.0000000000
40
0.0000000000
40
0.0000000000
40
0.0000000000
40
0.2524796480
40
0.4878694598
40
0.6911230573
40
0.8500379483
40
0.9551279064
40
1.0000000000
40
1.0000000000
40
1.0000000000
40
1.0000000000
10
-22.1162901648
20
23.8300400734
30
0.0000000000
10
-22.1162607185
20
23.8703079870
30
0.0000000000
10
-22.1160129424
20
23.9481099985
30
0.0000000000
10
-22.1153189456
20
24.0583676348
30
0.0000000000
10
-22.1137559235
20
24.1535681238
30
0.0000000000
10
-22.1130825864
20
24.2283240325
30
0.0000000000
10
-22.1096846289
20
24.2770644919
30
0.0000000000
10
-22.1102980608
20
24.3015497536
30
0.0000000000
10
-22.1080271106
20
24.3083365266
30
0.0000000000
11
-22.1162901648
21
23.8300400734
31
0.0000000000
11
-22.1159394175
21
23.9508433371
31
0.0000000000
11
-22.1150831121
21
24.0634668919
31
0.0000000000
11
-22.1137739374
21
24.1607086961
31
0.0000000000
11
-22.1120905435
21
24.2367259636
31
0.0000000000
11
-22.1101335861
21
24.2869701912
31
0.0000000000
11
-22.1080271106
21
24.3083365266
31
0.0000000000
0
SPLINE
5
4EB
100
AcDbEntity
8
0
100
AcDbSpline
62
9
6
CONTINUOUS
70
0
71
3
72
12
73
8
74
6
42
0.0000001000
43
0.0000001000
44
0.0000000001
12
0.5010578743
22
-0.0003674018
32
0.0000000000
13
0.1921898260
23
-0.4627333997
33
0.0000000000
40
0.0000000000
40
0.0000000000
40
0.0000000000
40
0.0000000000
40
0.3050562610
40
0.5809650378
40
0.8013878226
40
0.9453845855
40
1.0000000000
40
1.0000000000
40
1.0000000000
40
1.0000000000
10
-22.6162140123
20
23.8510574445
30
0.0000000000
10
-22.5652637318
20
23.8510200851
30
0.0000000000
10
-22.4677301101
20
23.8507707744
30
0.0000000000
10
-22.3358453080
20
23.8463292847
30
0.0000000000
10
-22.2239534746
20
23.8465131197
30
0.0000000000
10
-22.1639568389
20
23.8332496597
30
0.0000000000
10
-22.1197890073
20
23.8384641989
30
0.0000000000
10
-22.1162901649
20
23.8300400734
30
0.0000000000
11
-22.6162140123
21
23.8510574445
31
0.0000000000
11
-22.4633672198
21
23.8499392444
31
0.0000000000
11
-22.3251539815
21
23.8469158524
31
0.0000000000
11
-22.2148068538
21
23.8422767316
31
0.0000000000
11
-22.1428904870
21
23.8364660329
31
0.0000000000
11
-22.1162901649
21
23.8300400734
31
0.0000000000
0
SPLINE
5
4EC
100
AcDbEntity
8
0
100
AcDbSpline
62
9
6
CONTINUOUS
70
0
71
3
72
12
73
8
74
6
42
0.0000001000
43
0.0000001000
44
0.0000000001
12
0.7813571062
22
-0.0007128138
32
0.0000000000
13
0.0007145531
23
-0.7813571046
33
0.0000000000
40
0.0000000000
40
0.0000000000
40
0.0000000000
40
0.0000000000
40
0.2000850064
40
0.4001713425
40
0.6002035309
40
0.8001467217
40
1.0000000000
40
1.0000000000
40
1.0000000000
40
1.0000000000
10
-22.6079509582
20
24.8076512940
30
0.0000000000
10
-22.5558383443
20
24.8076037528
30
0.0000000000
10
-22.4508969749
20
24.7909613239
30
0.0000000000
10
-22.3094304105
20
24.7188380063
30
0.0000000000
10
-22.1969824724
20
24.6065409334
30
0.0000000000
10
-22.1247465562
20
24.4652346436
30
0.0000000000
10
-22.1080747125
20
24.3603887862
30
0.0000000000
10
-22.1080271106
20
24.3083365266
30
0.0000000000
11
-22.6079509582
21
24.8076512940
31
0.0000000000
11
-22.4535527866
21
24.7831004146
31
0.0000000000
11
-22.3142507571
21
24.7121299244
31
0.0000000000
11
-22.2036649999
21
24.6016788989
31
0.0000000000
11
-22.1326079377
21
24.4625465876
31
0.0000000000
11
-22.1080271106
21
24.3083365266
31
0.0000000000
0
SPLINE
5
4ED
100
AcDbEntity
8
0
100
AcDbSpline
62
9
6
CONTINUOUS
70
0
71
3
72
28
73
24
74
22
42
0.0000001000
43
0.0000001000
44
0.0000000001
12
18.5483421701
22
-0.0002182079
32
0.0000000000
13
-18.5483421705
23
-0.0001885055
33
0.0000000000
40
0.0000000000
40
0.0000000000
40
0.0000000000
40
0.0000000000
40
0.0301758538
40
0.0654913995
40
0.1055380759
40
0.1499388286
40
0.1982740216
40
0.2500918772
40
0.3047617322
40
0.3608146344
40
0.4167035818
40
0.4720909634
40
0.5272388533
40
0.5825881150
40
0.6384539471
40
0.6945368056
40
0.7492920496
40
0.8011976190
40
0.8495917657
40
0.8940469421
40
0.9341724352
40
0.9696176626
40
1.0000000000
40
1.0000000000
40
1.0000000000
40
1.0000000000
10
-33.1167490749
20
8.7486727015
30
0.0000000000
10
-32.9301783879
20
8.7486705067
30
0.0000000000
10
-32.5250175199
20
8.7294187286
30
0.0000000000
10
-31.8785946719
20
8.6313103149
30
0.0000000000
10
-31.1628965002
20
8.4338168142
30
0.0000000000
10
-30.4049719227
20
8.1114281812
30
0.0000000000
10
-29.6391844926
20
7.6439508781
30
0.0000000000
10
-28.9072468597
20
7.0204824926
30
0.0000000000
10
-28.2582202816
20
6.2467295210
30
0.0000000000
10
-27.7399894793
20
5.3502800660
30
0.0000000000
10
-27.3847907111
20
4.3729568289
30
0.0000000000
10
-27.2055418623
20
3.3544690367
30
0.0000000000
10
-27.2044591820
20
2.3237302210
30
0.0000000000
10
-27.3814400647
20
1.3052399616
30
0.0000000000
10
-27.7343625420
20
0.3273041650
30
0.0000000000
10
-28.2508637787
20
-0.5708105490
30
0.0000000000
10
-28.8991055823
20
-1.3468865479
30
0.0000000000
10
-29.6310258913
20
-1.9726178469
30
0.0000000000
10
-30.3971493662
20
-2.4419536647
30
0.0000000000
10
-31.1557261147
20
-2.7658690347
30
0.0000000000
10
-31.8727683240
20
-2.9646470870
30
0.0000000000
10
-32.5216573825
20
-3.0636981418
30
0.0000000000
10
-32.9289017448
20
-3.0831824790
30
0.0000000000
10
-33.1167490749
20
-3.0831843880
30
0.0000000000
11
-33.1167490749
21
8.7486727015
31
0.0000000000
11
-32.5576685425
21
8.7220917033
31
0.0000000000
11
-31.9100398560
21
8.6238022903
31
0.0000000000
11
-31.1940047912
21
8.4262046738
31
0.0000000000
11
-30.4361545711
21
8.1038466417
31
0.0000000000
11
-29.6709310786
21
7.6367140559
31
0.0000000000
11
-28.9392520656
21
7.0134750028
31
0.0000000000
11
-28.2875672876
21
6.2365745639
31
0.0000000000
11
-27.7672005666
21
5.3364798661
31
0.0000000000
11
-27.4130790901
21
4.3621926176
31
0.0000000000
11
-27.2349951647
21
3.3504011225
31
0.0000000000
11
-27.2339204928
21
2.3274997552
31
0.0000000000
11
-27.4096960428
21
1.3160223322
31
0.0000000000
11
-27.7614704041
21
0.3413409878
31
0.0000000000
11
-28.2800880224
21
-0.5604036808
31
0.0000000000
11
-28.9311780239
21
-1.3398674489
31
0.0000000000
11
-29.6629702955
21
-1.9654801457
31
0.0000000000
11
-30.4283914358
21
-2.4343855027
31
0.0000000000
11
-31.1867200966
21
-2.7581956845
31
0.0000000000
11
-31.9039295257
21
-2.9570313737
31
0.0000000000
11
-32.5538516889
21
-3.0562380035
31
0.0000000000
11
-33.1167490749
21
-3.0831843880
31
0.0000000000
0
SPLINE
5
4EE
100
AcDbEntity
8
0
100
AcDbSpline
62
9
6
CONTINUOUS
70
0
71
3
72
13
73
9
74
7
42
0.0000001000
43
0.0000001000
44
0.0000000001
12
0.1517233705
22
0.4537763541
32
0.0000000000
13
0.0003487208
23
0.4784692666
33
0.0000000000
40
0.0000000000
40
0.0000000000
40
0.0000000000
40
0.0000000000
40
0.0447511791
40
0.1496617630
40
0.3084069250
40
0.5114254892
40
0.7467904150
40
1.0000000000
40
1.0000000000
40
1.0000000000
40
1.0000000000
10
-44.1254710392
20
-18.6428482131
30
0.0000000000
10
-44.1232077726
20
-18.6360792041
30
0.0000000000
10
-44.1238117378
20
-18.6116446492
30
0.0000000000
10
-44.1204217076
20
-18.5629772835
30
0.0000000000
10
-44.1197452754
20
-18.4883153401
30
0.0000000000
10
-44.1181823960
20
-18.3931831067
30
0.0000000000
10
-44.1174861097
20
-18.2828505504
30
0.0000000000
10
-44.1172374181
20
-18.2049360947
30
0.0000000000
10
-44.1172079850
20
-18.1645517599
30
0.0000000000
11
-44.1254710392
21
-18.6428482131
31
0.0000000000
11
-44.1233678737
21
-18.6215396839
31
0.0000000000
11
-44.1214118138
21
-18.5713813068
31
0.0000000000
11
-44.1197280974
21
-18.4954452695
31
0.0000000000
11
-44.1184184787
21
-18.3983159287
31
0.0000000000
11
-44.1175605149
21
-18.2857042836
31
0.0000000000
11
-44.1172079850
21
-18.1645517599
31
0.0000000000
0
SPLINE
5
4EF
100
AcDbEntity
8
0
100
AcDbSpline
62
9
6
CONTINUOUS
70
0
71
3
72
13
73
9
74
7
42
0.0000001000
43
0.0000001000
44
0.0000000001
12
0.1577707702
22
0.9435803750
32
0.0000000000
13
0.0003449110
23
0.9566793721
33
0.0000000000
40
0.0000000000
40
0.0000000000
40
0.0000000000
40
0.0000000000
40
0.0448247981
40
0.1498254833
40
0.3086663044
40
0.5117002731
40
0.7469689740
40
1.0000000000
40
1.0000000000
40
1.0000000000
40
1.0000000000
10
-43.6255471916
20
-19.1421629805
30
0.0000000000
10
-43.6231898440
20
-19.1280643805
30
0.0000000000
10
-43.6239794433
20
-19.0799795675
30
0.0000000000
10
-43.6204406534
20
-18.9818275588
30
0.0000000000
10
-43.6198401816
20
-18.8328184611
30
0.0000000000
10
-43.6182503275
20
-18.6424490556
30
0.0000000000
10
-43.6175643233
20
-18.4219709565
30
0.0000000000
10
-43.6173132285
20
-18.2662599285
30
0.0000000000
10
-43.6172841374
20
-18.1855700742
30
0.0000000000
11
-43.6255471916
21
-19.1421629805
31
0.0000000000
11
-43.6234378822
21
-19.0993319253
31
0.0000000000
11
-43.6214832526
21
-18.9988989479
31
0.0000000000
11
-43.6198010643
21
-18.8469485122
31
0.0000000000
11
-43.6184932287
21
-18.6527144929
31
0.0000000000
11
-43.6176361403
21
-18.4276393970
31
0.0000000000
11
-43.6172841374
21
-18.1855700742
31
0.0000000000
0
SPLINE
5
4F0
100
AcDbEntity
8
0
100
AcDbSpline
62
9
6
CONTINUOUS
70
0
71
3
72
12
73
8
74
6
42
0.0000001000
43
0.0000001000
44
0.0000000001
12
0.0007145491
22
-0.7813571074
32
0.0000000000
13
0.7813571090
23
-0.0007128017
33
0.0000000000
40
0.0000000000
40
0.0000000000
40
0.0000000000
40
0.0000000000
40
0.1998485957
40
0.3997897125
40
0.5998222854
40
0.7999110728
40
1.0000000000
40
1.0000000000
40
1.0000000000
40
1.0000000000
10
-44.1254710392
20
-18.6428482131
30
0.0000000000
10
-44.1254234386
20
-18.6948992533
30
0.0000000000
10
-44.1087522813
20
-18.7997433011
30
0.0000000000
10
-44.0365184433
20
-18.9410487060
30
0.0000000000
10
-43.9240715213
20
-19.0533470976
30
0.0000000000
10
-43.7826038984
20
-19.1254724104
30
0.0000000000
10
-43.6776608267
20
-19.1421154390
30
0.0000000000
10
-43.6255471915
20
-19.1421629802
30
0.0000000000
11
-44.1254710392
21
-18.6428482131
31
0.0000000000
11
-44.1008913613
21
-18.7970547529
31
0.0000000000
11
-44.0298362968
21
-18.9361862655
31
0.0000000000
11
-43.9192514734
21
-19.0466386517
31
0.0000000000
11
-43.7799483134
21
-19.1176111435
31
0.0000000000
11
-43.6255471915
21
-19.1421629802
31
0.0000000000
0
SPLINE
5
4F1
100
AcDbEntity
8
0
100
AcDbSpline
62
9
6
CONTINUOUS
70
0
71
3
72
10
73
6
74
4
42
0.0000001000
43
0.0000001000
44
0.0000000001
12
0.0308407996
22
41.9945838615
32
0.0000000000
13
-0.0308408117
23
41.9945838615
33
0.0000000000
40
0.0000000000
40
0.0000000000
40
0.0000000000
40
0.0000000000
40
0.3332886949
40
0.6667106342
40
1.0000000000
40
1.0000000000
40
1.0000000000
40
1.0000000000
10
-44.1172079850
20
-18.1645517599
30
0.0000000000
10
-44.1137816884
20
-13.4991117443
30
0.0000000000
10
-44.1092156408
20
-4.1663646838
30
0.0000000000
10
-44.1092156356
20
9.8318342137
30
0.0000000000
10
-44.1137816801
20
19.1645906660
30
0.0000000000
10
-44.1172079850
20
23.8300400734
30
0.0000000000
11
-44.1172079850
21
-18.1645517599
31
0.0000000000
11
-44.1103576081
21
-4.1682296151
31
0.0000000000
11
-44.1103576016
21
9.8336897532
31
0.0000000000
11
-44.1172079850
21
23.8300400734
31
0.0000000000
0
SPLINE
5
4F2
100
AcDbEntity
8
0
100
AcDbSpline
62
9
6
CONTINUOUS
70
0
71
3
72
10
73
6
74
4
42
0.0000001000
43
0.0000001000
44
0.0000000001
12
0.0308407997
22
42.0366204979
32
0.0000000000
13
-0.0308408119
23
42.0366204979
33
0.0000000000
40
0.0000000000
40
0.0000000000
40
0.0000000000
40
0.0000000000
40
0.3332896861
40
0.6667103140
40
1.0000000000
40
1.0000000000
40
1.0000000000
40
1.0000000000
10
-43.6172841374
20
-18.1855700742
30
0.0000000000
10
-43.6138578306
20
-13.5154460577
30
0.0000000000
10
-43.6092917920
20
-4.1733613942
30
0.0000000000
10
-43.6092917937
20
9.8388497112
30
0.0000000000
10
-43.6138578292
20
19.1809343729
30
0.0000000000
10
-43.6172841374
20
23.8510583877
30
0.0000000000
11
-43.6172841374
21
-18.1855700742
31
0.0000000000
11
-43.6104337504
21
-4.1751959287
31
0.0000000000
11
-43.6104337508
21
9.8406842475
31
0.0000000000
11
-43.6172841374
21
23.8510583877
31
0.0000000000
0
SPLINE
5
4F3
100
AcDbEntity
8
0
100
AcDbSpline
62
9
6
CONTINUOUS
70
0
71
3
72
12
73
8
74
6
42
0.0000001000
43
0.0000001000
44
0.0000000001
12
0.1919554566
22
-0.4628308739
32
0.0000000000
13
0.5010580608
23
-0.0003673235
33
0.0000000000
40
0.0000000000
40
0.0000000000
40
0.0000000000
40
0.0000000000
40
0.0546097796
40
0.1986040208
40
0.4190274305
40
0.6949392928
40
1.0000000000
40
1.0000000000
40
1.0000000000
40
1.0000000000
10
-44.1172079850
20
-18.1645517599
30
0.0000000000
10
-44.1137137699
20
-18.1729767906
30
0.0000000000
10
-44.0695387533
20
-18.1677606453
30
0.0000000000
10
-44.0095513767
20
-18.1810262446
30
0.0000000000
10
-43.8976550787
20
-18.1808414497
30
0.0000000000
10
-43.7657705265
20
-18.1852835146
30
0.0000000000
10
-43.6682351795
20
-18.1855327214
30
0.0000000000
10
-43.6172841374
20
-18.1855700734
30
0.0000000000
11
-44.1172079850
21
-18.1645517599
31
0.0000000000
11
-44.0906106245
21
-18.1709779986
31
0.0000000000
11
-44.0186955205
21
-18.1767889693
31
0.0000000000
11
-43.9083480475
21
-18.1814283117
31
0.0000000000
11
-43.7701332144
21
-18.1844518407
31
0.0000000000
11
-43.6172841374
21
-18.1855700734
31
0.0000000000
0
SPLINE
5
4F4
100
AcDbEntity
8
0
100
AcDbSpline
62
9
6
CONTINUOUS
70
0
71
3
72
13
73
9
74
7
42
0.0000001000
43
0.0000001000
44
0.0000000001
12
-0.0003487206
22
0.4784692666
32
0.0000000000
13
-0.1517232156
23
0.4537764059
33
0.0000000000
40
0.0000000000
40
0.0000000000
40
0.0000000000
40
0.0000000000
40
0.2532095848
40
0.4885745110
40
0.6915930751
40
0.8503382364
40
0.9552488215
40
1.0000000000
40
1.0000000000
40
1.0000000000
40
1.0000000000
10
-44.1172079850
20
23.8300400734
30
0.0000000000
10
-44.1172374181
20
23.8704244082
30
0.0000000000
10
-44.1174861097
20
23.9483388639
30
0.0000000000
10
-44.1181823962
20
24.0586714202
30
0.0000000000
10
-44.1197452748
20
24.1538036538
30
0.0000000000
10
-44.1204217090
20
24.2284655965
30
0.0000000000
10
-44.1238117352
20
24.2771329636
30
0.0000000000
10
-44.1232077749
20
24.3015675169
30
0.0000000000
10
-44.1254710392
20
24.3083365266
30
0.0000000000
11
-44.1172079850
21
23.8300400734
31
0.0000000000
11
-44.1175605149
21
23.9511925971
31
0.0000000000
11
-44.1184184787
21
24.0638042423
31
0.0000000000
11
-44.1197280974
21
24.1609335830
31
0.0000000000
11
-44.1214118138
21
24.2368696200
31
0.0000000000
11
-44.1233678737
21
24.2870279977
31
0.0000000000
11
-44.1254710392
21
24.3083365266
31
0.0000000000
0
SPLINE
5
4F5
100
AcDbEntity
8
0
100
AcDbSpline
62
9
6
CONTINUOUS
70
0
71
3
72
13
73
9
74
7
42
0.0000001000
43
0.0000001000
44
0.0000000001
12
-0.0003449115
22
0.9566793721
32
0.0000000000
13
-0.1577707732
23
0.9435803745
33
0.0000000000
40
0.0000000000
40
0.0000000000
40
0.0000000000
40
0.0000000000
40
0.2530310260
40
0.4882997269
40
0.6913336956
40
0.8501745167
40
0.9551752019
40
1.0000000000
40
1.0000000000
40
1.0000000000
40
1.0000000000
10
-43.6172841374
20
23.8510583877
30
0.0000000000
10
-43.6173132285
20
23.9317482420
30
0.0000000000
10
-43.6175643234
20
24.0874592700
30
0.0000000000
10
-43.6182503275
20
24.3079373691
30
0.0000000000
10
-43.6198401816
20
24.4983067746
30
0.0000000000
10
-43.6204406533
20
24.6473158723
30
0.0000000000
10
-43.6239794434
20
24.7454678810
30
0.0000000000
10
-43.6231898439
20
24.7935526940
30
0.0000000000
10
-43.6255471916
20
24.8076512940
30
0.0000000000
11
-43.6172841374
21
23.8510583877
31
0.0000000000
11
-43.6176361403
21
24.0931277105
31
0.0000000000
11
-43.6184932287
21
24.3182028064
31
0.0000000000
11
-43.6198010643
21
24.5124368257
31
0.0000000000
11
-43.6214832526
21
24.6643872614
31
0.0000000000
11
-43.6234378822
21
24.7648202388
31
0.0000000000
11
-43.6255471916
21
24.8076512940
31
0.0000000000
0
SPLINE
5
4F6
100
AcDbEntity
8
0
100
AcDbSpline
62
9
6
CONTINUOUS
70
0
71
3
72
12
73
8
74
6
42
0.0000001000
43
0.0000001000
44
0.0000000001
12
0.1920144796
22
0.4628063375
32
0.0000000000
13
0.5010580120
23
0.0003673725
33
0.0000000000
40
0.0000000000
40
0.0000000000
40
0.0000000000
40
0.0000000000
40
0.0546111894
40
0.1986060630
40
0.4190293170
40
0.6949404067
40
1.0000000000
40
1.0000000000
40
1.0000000000
40
1.0000000000
10
-44.1172079850
20
23.8300400734
30
0.0000000000
10
-44.1137126053
20
23.8384648750
30
0.0000000000
10
-44.0695393977
20
23.8332491202
30
0.0000000000
10
-44.0095496938
20
23.8465141872
30
0.0000000000
10
-43.8976545185
20
23.8463296303
30
0.0000000000
10
-43.7657699025
20
23.8507715565
30
0.0000000000
10
-43.6682349885
20
23.8510207939
30
0.0000000000
10
-43.6172841374
20
23.8510581508
30
0.0000000000
11
-44.1172079850
21
23.8300400734
31
0.0000000000
11
-44.0906098818
21
23.8364662343
31
0.0000000000
11
-44.0186944610
21
23.8422771328
31
0.0000000000
11
-43.9083470745
21
23.8469164198
31
0.0000000000
11
-43.7701326415
21
23.8499399186
31
0.0000000000
11
-43.6172841374
21
23.8510581508
31
0.0000000000
0
SPLINE
5
4F7
100
AcDbEntity
8
0
100
AcDbSpline
62
9
6
CONTINUOUS
70
0
71
3
72
12
73
8
74
6
42
0.0000001000
43
0.0000001000
44
0.0000000001
12
0.0007145531
22
0.7813571046
32
0.0000000000
13
0.7813571062
23
0.0007128139
33
0.0000000000
40
0.0000000000
40
0.0000000000
40
0.0000000000
40
0.0000000000
40
0.1998532782
40
0.3997964689
40
0.5998286573
40
0.7999149934
40
1.0000000000
40
1.0000000000
40
1.0000000000
40
1.0000000000
10
-44.1254710392
20
24.3083365266
30
0.0000000000
10
-44.1254234373
20
24.3603887862
30
0.0000000000
10
-44.1087515936
20
24.4652346435
30
0.0000000000
10
-44.0365156774
20
24.6065409333
30
0.0000000000
10
-43.9240677394
20
24.7188380062
30
0.0000000000
10
-43.7826011749
20
24.7909613239
30
0.0000000000
10
-43.6776598055
20
24.8076037528
30
0.0000000000
10
-43.6255471916
20
24.8076512940
30
0.0000000000
11
-44.1254710392
21
24.3083365266
31
0.0000000000
11
-44.1008902121
21
24.4625465875
31
0.0000000000
11
-44.0298331499
21
24.6016788988
31
0.0000000000
11
-43.9192473928
21
24.7121299243
31
0.0000000000
11
-43.7799453633
21
24.7831004146
31
0.0000000000
11
-43.6255471916
21
24.8076512940
31
0.0000000000
0
SPLINE
5
4F8
100
AcDbEntity
8
0
100
AcDbSpline
62
9
6
CONTINUOUS
70
0
71
3
72
28
73
24
74
22
42
0.0000001000
43
0.0000001000
44
0.0000000001
12
-18.5483358717
22
0.0002170923
32
0.0000000000
13
18.5483358720
23
0.0001888454
33
0.0000000000
40
0.0000000000
40
0.0000000000
40
0.0000000000
40
0.0000000000
40
0.0301243736
40
0.0653772692
40
0.1053586895
40
0.1496997027
40
0.1979889298
40
0.2497824566
40
0.3044561529
40
0.3605320864
40
0.4164452736
40
0.4718490344
40
0.5270096258
40
0.5823768615
40
0.6382634982
40
0.6943705850
40
0.7491538964
40
0.8010884473
40
0.8495101986
40
0.8939907603
40
0.9341387259
40
0.9696028895
40
1.0000000000
40
1.0000000000
40
1.0000000000
40
1.0000000000
10
-33.1167490749
20
-3.0831843880
30
0.0000000000
10
-33.3030014081
20
-3.0831822081
30
0.0000000000
10
-33.7074552666
20
-3.0639968507
30
0.0000000000
10
-34.3528000654
20
-2.9662243614
30
0.0000000000
10
-35.0674615077
20
-2.7693725749
30
0.0000000000
10
-35.8246154504
20
-2.4479011381
30
0.0000000000
10
-36.5900934285
20
-1.9814797231
30
0.0000000000
10
-37.3222963457
20
-1.3589665690
30
0.0000000000
10
-37.9720813477
20
-0.5858291118
30
0.0000000000
10
-38.4913014154
20
0.3104198055
30
0.0000000000
10
-38.8474664109
20
1.2878170126
30
0.0000000000
10
-39.0275723456
20
2.3064927990
30
0.0000000000
10
-39.0294170791
20
3.3375248187
30
0.0000000000
10
-38.8530847809
20
4.3564553238
30
0.0000000000
10
-38.5006448722
20
5.3349851201
30
0.0000000000
10
-37.9844183183
20
6.2337865924
30
0.0000000000
10
-37.3362211519
20
7.0105639687
30
0.0000000000
10
-36.6041414092
20
7.6369245522
30
0.0000000000
10
-35.8377219468
20
8.1067580895
30
0.0000000000
10
-35.0787824303
20
8.4310229457
30
0.0000000000
10
-34.3613674319
20
8.6300136673
30
0.0000000000
10
-33.7121406803
20
8.7291669871
30
0.0000000000
10
-33.3046876799
20
8.7486707881
30
0.0000000000
10
-33.1167490749
20
8.7486727015
30
0.0000000000
11
-33.1167490749
21
-3.0831843880
31
0.0000000000
11
-33.6748777745
21
-3.0566940247
31
0.0000000000
11
-34.3213829270
21
-2.9587477374
31
0.0000000000
11
-35.0363421341
21
-2.7618028291
31
0.0000000000
11
-35.7933845200
21
-2.4403776775
31
0.0000000000
11
-36.5582649972
21
-1.9743206813
31
0.0000000000
11
-37.2901826568
21
-1.3520588631
31
0.0000000000
11
-37.9426639051
21
-0.5757345975
31
0.0000000000
11
-38.4640758345
21
0.3242483651
31
0.0000000000
11
-38.8191779603
21
1.2986567946
31
0.0000000000
11
-38.9981085123
21
2.3106070772
31
0.0000000000
11
-38.9999393666
21
3.3337426156
31
0.0000000000
11
-38.8248058292
21
4.3456693902
31
0.0000000000
11
-38.4735152233
21
5.3209349875
31
0.0000000000
11
-37.9551790174
21
6.2233593268
31
0.0000000000
11
-37.3041285451
21
7.0035338444
31
0.0000000000
11
-36.5721714263
21
7.6297803532
31
0.0000000000
11
-35.8064547818
21
8.0991828465
31
0.0000000000
11
-35.0477636183
21
8.4233423432
31
0.0000000000
11
-34.3301809209
21
8.6223908865
31
0.0000000000
11
-33.6799193454
21
8.7217001240
31
0.0000000000
11
-33.1167490749
21
8.7486727015
31
0.0000000000
0
SPLINE
5
4F9
100
AcDbEntity
8
0
100
AcDbSpline
62
7
6
CONTINUOUS
70
0
71
3
72
10
73
6
74
4
42
0.0000001000
43
0.0000001000
44
0.0000000001
12
3.9999955066
22
0.0187275898
32
0.0000000000
13
4.0000044931
23
0.0166982213
33
0.0000000000
40
0.0000000000
40
0.0000000000
40
0.0000000000
40
0.0000000000
40
0.3466405985
40
0.6796164020
40
1.0000000000
40
1.0000000000
40
1.0000000000
40
1.0000000000
10
-90.8325739069
20
-19.8304224652
30
0.0000000000
10
-90.3703869614
20
-19.8282585509
30
0.0000000000
10
-89.4642324228
20
-19.8240911428
30
0.0000000000
10
-88.1308990519
20
-19.8181843774
30
0.0000000000
10
-87.2597525173
20
-19.8144724202
30
0.0000000000
10
-86.8325739069
20
-19.8126891415
30
0.0000000000
11
-90.8325739069
21
-19.8304224652
31
0.0000000000
11
-89.4460125301
21
-19.8240471730
31
0.0000000000
11
-88.1141092774
21
-19.8181482521
31
0.0000000000
11
-86.8325739069
21
-19.8126891415
31
0.0000000000
0
SPLINE
5
4FA
100
AcDbEntity
8
0
100
AcDbSpline
62
7
6
CONTINUOUS
70
0
71
3
72
10
73
6
74
4
42
0.0000001000
43
0.0000001000
44
0.0000000001
12
-4.0000044931
22
0.0166982213
32
0.0000000000
13
-3.9999955066
23
0.0187275898
33
0.0000000000
40
0.0000000000
40
0.0000000000
40
0.0000000000
40
0.0000000000
40
0.3203641232
40
0.6533186616
40
1.0000000000
40
1.0000000000
40
1.0000000000
40
1.0000000000
10
-86.8325739069
20
25.4781774550
30
0.0000000000
10
-87.2597265509
20
25.4799606253
30
0.0000000000
10
-88.1308187655
20
25.4836723465
30
0.0000000000
10
-89.4641521366
20
25.4895790914
30
0.0000000000
10
-90.3703326416
20
25.4937466101
30
0.0000000000
10
-90.8325739069
20
25.4959107787
30
0.0000000000
11
-86.8325739069
21
25.4781774550
31
0.0000000000
11
-88.1140313783
21
25.4836362272
31
0.0000000000
11
-89.4458495705
21
25.4895347511
31
0.0000000000
11
-90.8325739069
21
25.4959107787
31
0.0000000000
0
SPLINE
5
4FB
100
AcDbEntity
8
0
100
AcDbSpline
62
9
6
CONTINUOUS
70
0
71
3
72
9
73
5
74
3
42
0.0000001000
43
0.0000001000
44
0.0000000001
12
1.5000042960
22
0.0572600260
32
0.0000000000
13
1.4999955392
23
0.0574889639
33
0.0000000000
40
0.0000000000
40
0.0000000000
40
0.0000000000
40
0.0000000000
40
0.4999707769
40
1.0000000000
40
1.0000000000
40
1.0000000000
40
1.0000000000
10
-90.8325739069
20
-14.2407494846
30
0.0000000000
10
-90.5825878024
20
-14.2312067047
30
0.0000000000
10
-90.0825869949
20
-14.2121036629
30
0.0000000000
10
-89.5825877749
20
-14.1929591128
30
0.0000000000
10
-89.3325739069
20
-14.1833770588
30
0.0000000000
11
-90.8325739069
21
-14.2407494846
31
0.0000000000
11
-90.0826166149
21
-14.2120944035
31
0.0000000000
11
-89.3325739069
21
-14.1833770588
31
0.0000000000
0
SPLINE
5
4FC
100
AcDbEntity
8
0
100
AcDbSpline
62
9
6
CONTINUOUS
70
0
71
3
72
9
73
5
74
3
42
0.0000001000
43
0.0000001000
44
0.0000000001
12
-1.4999970685
22
-0.0511012536
32
0.0000000000
13
-1.5000029196
23
-0.0509292160
33
0.0000000000
40
0.0000000000
40
0.0000000000
40
0.0000000000
40
0.0000000000
40
0.5000291634
40
1.0000000000
40
1.0000000000
40
1.0000000000
40
1.0000000000
10
-89.3325739069
20
-15.3470197938
30
0.0000000000
10
-89.5825880000
20
-15.3555371661
30
0.0000000000
10
-90.0825875134
20
-15.3725565203
30
0.0000000000
10
-90.5825880020
20
-15.3895472004
30
0.0000000000
10
-90.8325739069
20
-15.3980349079
30
0.0000000000
11
-89.3325739069
21
-15.3470197938
31
0.0000000000
11
-90.0826169206
21
-15.3725503436
31
0.0000000000
11
-90.8325739069
21
-15.3980349079
31
0.0000000000
0
SPLINE
5
4FD
100
AcDbEntity
8
0
100
AcDbSpline
62
9
6
CONTINUOUS
70
0
71
3
72
9
73
5
74
3
42
0.0000001000
43
0.0000001000
44
0.0000000001
12
-1.4999955514
22
0.0574889647
32
0.0000000000
13
-1.5000043083
23
0.0572600265
33
0.0000000000
40
0.0000000000
40
0.0000000000
40
0.0000000000
40
0.0000000000
40
0.5000292292
40
1.0000000000
40
1.0000000000
40
1.0000000000
40
1.0000000000
10
-89.3325739069
20
19.8488649702
30
0.0000000000
10
-89.5825877800
20
19.8584470245
30
0.0000000000
10
-90.0825869795
20
19.8775922181
30
0.0000000000
10
-90.5825878035
20
19.8966949355
30
0.0000000000
10
-90.8325739069
20
19.9062377153
30
0.0000000000
11
-89.3325739069
21
19.8488649702
31
0.0000000000
11
-90.0826166148
21
19.8775827170
31
0.0000000000
11
-90.8325739069
21
19.9062377153
31
0.0000000000
0
SPLINE
5
4FE
100
AcDbEntity
8
0
100
AcDbSpline
62
9
6
CONTINUOUS
70
0
71
3
72
9
73
5
74
3
42
0.0000001000
43
0.0000001000
44
0.0000000001
12
1.5000029196
22
-0.0509292160
32
0.0000000000
13
1.4999970685
23
-0.0511012536
33
0.0000000000
40
0.0000000000
40
0.0000000000
40
0.0000000000
40
0.0000000000
40
0.4999708366
40
1.0000000000
40
1.0000000000
40
1.0000000000
40
1.0000000000
10
-90.8325739069
20
21.0635232214
30
0.0000000000
10
-90.5825880020
20
21.0550355139
30
0.0000000000
10
-90.0825875134
20
21.0380448338
30
0.0000000000
10
-89.5825880000
20
21.0210254796
30
0.0000000000
10
-89.3325739069
20
21.0125081073
30
0.0000000000
11
-90.8325739069
21
21.0635232214
31
0.0000000000
11
-90.0826169207
21
21.0380386571
31
0.0000000000
11
-89.3325739069
21
21.0125081073
31
0.0000000000
0
SPLINE
5
4FF
100
AcDbEntity
8
0
100
AcDbSpline
62
7
6
CONTINUOUS
70
0
71
3
72
10
73
6
74
4
42
0.0000001000
43
0.0000001000
44
0.0000000001
12
8.2967408185
22
-0.0321105865
32
0.0000000000
13
8.2967438767
23
-0.0313104392
33
0.0000000000
40
0.0000000000
40
0.0000000000
40
0.0000000000
40
0.0000000000
40
0.3330804207
40
0.6664143772
40
1.0000000000
40
1.0000000000
40
1.0000000000
40
1.0000000000
10
-90.8325739069
20
-18.0672558432
30
0.0000000000
10
-89.9114132662
20
-18.0708209791
30
0.0000000000
10
-88.0683906962
20
-18.0779242956
30
0.0000000000
10
-85.3028099096
20
-18.0884943655
30
0.0000000000
10
-83.4583897092
20
-18.0954844822
30
0.0000000000
10
-82.5358315513
20
-18.0989660529
30
0.0000000000
11
-90.8325739069
21
-18.0672558432
31
0.0000000000
11
-88.0690918131
21
-18.0779067870
31
0.0000000000
11
-85.3035058568
21
-18.0884768991
31
0.0000000000
11
-82.5358315513
21
-18.0989660529
31
0.0000000000
0
SPLINE
5
500
100
AcDbEntity
8
0
100
AcDbSpline
62
9
6
CONTINUOUS
70
0
71
3
72
12
73
8
74
6
42
0.0000001000
43
0.0000001000
44
0.0000000001
12
-0.4990705807
22
0.0261551808
32
0.0000000000
13
0.0261471146
23
0.4990710033
33
0.0000000000
40
0.0000000000
40
0.0000000000
40
0.0000000000
40
0.0000000000
40
0.0492079808
40
0.1912447975
40
0.4123917745
40
0.6910545422
40
1.0000000000
40
1.0000000000
40
1.0000000000
40
1.0000000000
10
-98.9438289268
20
-19.1421629805
30
0.0000000000
10
-98.9520150120
20
-19.1417339659
30
0.0000000000
10
-98.9359871459
20
-19.0914774807
30
0.0000000000
10
-98.9493148461
20
-19.0397723140
30
0.0000000000
10
-98.9376029119
20
-18.9240376520
30
0.0000000000
10
-98.9347359904
20
-18.7929085660
30
0.0000000000
10
-98.9290798293
20
-18.6942434529
30
0.0000000000
10
-98.9263871519
20
-18.6428482131
30
0.0000000000
11
-98.9438289268
21
-19.1421629805
31
0.0000000000
11
-98.9452372747
21
-19.1176113827
31
0.0000000000
11
-98.9439493129
21
-19.0466393911
31
0.0000000000
11
-98.9400910342
21
-18.9361873454
31
0.0000000000
11
-98.9340397449
21
-18.7970556336
31
0.0000000000
11
-98.9263871519
21
-18.6428482131
31
0.0000000000
0
SPLINE
5
501
100
AcDbEntity
8
0
100
AcDbSpline
62
9
6
CONTINUOUS
70
0
71
3
72
10
73
6
74
4
42
0.0000001000
43
0.0000001000
44
0.0000000001
12
-1.7657700567
22
41.9684643682
32
0.0000000000
13
1.7657699116
23
41.9684643743
33
0.0000000000
40
0.0000000000
40
0.0000000000
40
0.0000000000
40
0.0000000000
40
0.3333328627
40
0.6666672760
40
1.0000000000
40
1.0000000000
40
1.0000000000
40
1.0000000000
10
-99.3997772089
20
-18.1645517599
30
0.0000000000
10
-99.5959736049
20
-13.5013956357
30
0.0000000000
10
-99.8576563142
20
-4.1690116681
30
0.0000000000
10
-99.8576562529
20
9.8345038685
30
0.0000000000
10
-99.5959735071
20
19.1668858897
30
0.0000000000
10
-99.3997772089
20
23.8300400734
30
0.0000000000
11
-99.3997772089
21
-18.1645517599
31
0.0000000000
11
-99.7922353224
21
-4.1682079798
31
0.0000000000
11
-99.7922352451
21
9.8337021221
31
0.0000000000
11
-99.3997772089
21
23.8300400734
31
0.0000000000
0
SPLINE
5
502
100
AcDbEntity
8
0
100
AcDbSpline
62
9
6
CONTINUOUS
70
0
71
3
72
13
73
9
74
7
42
0.0000001000
43
0.0000001000
44
0.0000000001
12
0.0308204848
22
0.7356818212
32
0.0000000000
13
0.7353273388
23
0.0383581706
33
0.0000000000
40
0.0000000000
40
0.0000000000
40
0.0000000000
40
0.0000000000
40
0.1663161506
40
0.3331500210
40
0.4999320895
40
0.6667044713
40
0.8335566435
40
1.0000000000
40
1.0000000000
40
1.0000000000
40
1.0000000000
10
-99.3997772089
20
23.8300400734
30
0.0000000000
10
-99.3980685608
20
23.8708253296
30
0.0000000000
10
-99.3845016255
20
23.9524502927
30
0.0000000000
10
-99.3350014585
20
24.0660264563
30
0.0000000000
10
-99.2592393845
20
24.1642841572
30
0.0000000000
10
-99.1617808804
20
24.2410793042
30
0.0000000000
10
-99.0487002960
20
24.2917826448
30
0.0000000000
10
-98.9671839353
20
24.3062083724
30
0.0000000000
10
-98.9263871519
20
24.3083365266
30
0.0000000000
11
-99.3997772089
21
23.8300400734
31
0.0000000000
11
-99.3796829090
21
23.9508433371
31
0.0000000000
11
-99.3306252059
21
24.0634668919
31
0.0000000000
11
-99.2556226396
21
24.1607086961
31
0.0000000000
11
-99.1591810682
21
24.2367259636
31
0.0000000000
11
-99.0470670547
21
24.2869701912
31
0.0000000000
11
-98.9263871519
21
24.3083365266
31
0.0000000000
0
SPLINE
5
503
100
AcDbEntity
8
0
100
AcDbSpline
62
7
6
CONTINUOUS
70
0
71
3
72
10
73
6
74
4
42
0.0000001000
43
0.0000001000
44
0.0000000001
12
-8.2967438767
22
-0.0313104392
32
0.0000000000
13
-8.2967408185
23
-0.0321105865
33
0.0000000000
40
0.0000000000
40
0.0000000000
40
0.0000000000
40
0.0000000000
40
0.3335856228
40
0.6669195793
40
1.0000000000
40
1.0000000000
40
1.0000000000
40
1.0000000000
10
-82.5358315513
20
23.7644543664
30
0.0000000000
10
-83.4583897092
20
23.7609727957
30
0.0000000000
10
-85.3028099096
20
23.7539826790
30
0.0000000000
10
-88.0683906962
20
23.7434126091
30
0.0000000000
10
-89.9114132662
20
23.7363092926
30
0.0000000000
10
-90.8325739069
20
23.7327441568
30
0.0000000000
11
-82.5358315513
21
23.7644543664
31
0.0000000000
11
-85.3035058567
21
23.7539652126
31
0.0000000000
11
-88.0690918132
21
23.7433951005
31
0.0000000000
11
-90.8325739069
21
23.7327441568
31
0.0000000000
0
SPLINE
5
504
100
AcDbEntity
8
0
100
AcDbSpline
62
7
6
CONTINUOUS
70
0
71
3
72
10
73
6
74
4
42
0.0000001000
43
0.0000001000
44
0.0000000001
12
-3.9999901746
22
-0.0399564427
32
0.0000000000
13
-4.0000092589
23
-0.0379979400
33
0.0000000000
40
0.0000000000
40
0.0000000000
40
0.0000000000
40
0.0000000000
40
0.3203648921
40
0.6533194507
40
1.0000000000
40
1.0000000000
40
1.0000000000
40
1.0000000000
10
-86.8325739069
20
-20.3082076256
30
0.0000000000
10
-87.2597260471
20
-20.3124745061
30
0.0000000000
10
-88.1308172375
20
-20.3211031183
30
0.0000000000
10
-89.4641505484
20
-20.3340927645
30
0.0000000000
10
-90.3703321046
20
-20.3427733561
30
0.0000000000
10
-90.8325739069
20
-20.3471644050
30
0.0000000000
11
-86.8325739069
21
-20.3082076256
31
0.0000000000
11
-88.1140313783
21
-20.3209026435
31
0.0000000000
11
-89.4458495705
21
-20.3338790375
31
0.0000000000
11
-90.8325739069
21
-20.3471644050
31
0.0000000000
0
SPLINE
5
505
100
AcDbEntity
8
0
100
AcDbSpline
62
7
6
CONTINUOUS
70
0
71
3
72
10
73
6
74
4
42
0.0000001000
43
0.0000001000
44
0.0000000001
12
4.0000092589
22
-0.0379979400
32
0.0000000000
13
3.9999901746
23
-0.0399564427
33
0.0000000000
40
0.0000000000
40
0.0000000000
40
0.0000000000
40
0.0000000000
40
0.3466398094
40
0.6796156331
40
1.0000000000
40
1.0000000000
40
1.0000000000
40
1.0000000000
10
-90.8325739069
20
26.0126527185
30
0.0000000000
10
-90.3703864245
20
26.0082621856
30
0.0000000000
10
-89.4642308348
20
25.9995818513
30
0.0000000000
10
-88.1308975236
20
25.9865922249
30
0.0000000000
10
-87.2597520134
20
25.9779630790
30
0.0000000000
10
-86.8325739069
20
25.9736959391
30
0.0000000000
11
-90.8325739069
21
26.0126527185
31
0.0000000000
11
-89.4460125301
21
25.9993689255
31
0.0000000000
11
-88.1141092774
21
25.9863917224
31
0.0000000000
11
-86.8325739069
21
25.9736959391
31
0.0000000000
0
SPLINE
5
506
100
AcDbEntity
8
0
100
AcDbSpline
62
9
6
CONTINUOUS
70
0
71
3
72
9
73
5
74
3
42
0.0000001000
43
0.0000001000
44
0.0000000001
12
-1.4999958601
22
0.0557231352
32
0.0000000000
13
-1.5000039860
23
0.0555039639
33
0.0000000000
40
0.0000000000
40
0.0000000000
40
0.0000000000
40
0.0000000000
40
0.5000291811
40
1.0000000000
40
1.0000000000
40
1.0000000000
40
1.0000000000
10
-89.3325739069
20
19.2399128093
30
0.0000000000
10
-89.5825878074
20
19.2492005405
30
0.0000000000
10
-90.0825870560
20
19.2677580080
30
0.0000000000
10
-90.5825878331
20
19.2862742415
30
0.0000000000
10
-90.8325739069
20
19.2955243622
30
0.0000000000
11
-89.3325739069
21
19.2399128093
31
0.0000000000
11
-90.0826166193
21
19.2677487814
31
0.0000000000
11
-90.8325739069
21
19.2955243622
31
0.0000000000
0
SPLINE
5
507
100
AcDbEntity
8
0
100
AcDbSpline
62
9
6
CONTINUOUS
70
0
71
3
72
13
73
9
74
7
42
0.0000001000
43
0.0000001000
44
0.0000000001
12
-0.7353273404
22
0.0383581398
32
0.0000000000
13
-0.0308205180
23
0.7356818199
33
0.0000000000
40
0.0000000000
40
0.0000000000
40
0.0000000000
40
0.0000000000
40
0.1664433564
40
0.3332955287
40
0.5000679105
40
0.6668499789
40
0.8336838494
40
1.0000000000
40
1.0000000000
40
1.0000000000
40
1.0000000000
10
-98.9263871519
20
-18.6428482131
30
0.0000000000
10
-98.9671839354
20
-18.6407200606
30
0.0000000000
10
-99.0487002958
20
-18.6262943300
30
0.0000000000
10
-99.1617808806
20
-18.5755909913
30
0.0000000000
10
-99.2592393846
20
-18.4987958436
30
0.0000000000
10
-99.3350014579
20
-18.4005381426
30
0.0000000000
10
-99.3845016269
20
-18.2869619794
30
0.0000000000
10
-99.3980685589
20
-18.2053370161
30
0.0000000000
10
-99.3997772089
20
-18.1645517599
30
0.0000000000
11
-98.9263871519
21
-18.6428482131
31
0.0000000000
11
-99.0470670546
21
-18.6214818775
31
0.0000000000
11
-99.1591810683
21
-18.5712376503
31
0.0000000000
11
-99.2556226396
21
-18.4952203826
31
0.0000000000
11
-99.3306252057
21
-18.3979785783
31
0.0000000000
11
-99.3796829092
21
-18.2853550237
31
0.0000000000
11
-99.3997772089
21
-18.1645517599
31
0.0000000000
0
SPLINE
5
508
100
AcDbEntity
8
0
100
AcDbSpline
62
9
6
CONTINUOUS
70
0
71
3
72
9
73
5
74
3
42
0.0000001000
43
0.0000001000
44
0.0000000001
12
1.5000039752
22
0.0555039635
32
0.0000000000
13
1.4999958493
23
0.0557231348
33
0.0000000000
40
0.0000000000
40
0.0000000000
40
0.0000000000
40
0.0000000000
40
0.4999708243
40
1.0000000000
40
1.0000000000
40
1.0000000000
40
1.0000000000
10
-90.8325739069
20
-13.6300361219
30
0.0000000000
10
-90.5825878322
20
-13.6207860011
30
0.0000000000
10
-90.0825870695
20
-13.6022694763
30
0.0000000000
10
-89.5825878029
20
-13.5837125912
30
0.0000000000
10
-89.3325739069
20
-13.5744248601
30
0.0000000000
11
-90.8325739069
21
-13.6300361219
31
0.0000000000
11
-90.0826166192
21
-13.6022604679
31
0.0000000000
11
-89.3325739069
21
-13.5744248601
31
0.0000000000
0
SPLINE
5
509
100
AcDbEntity
8
0
100
AcDbSpline
62
9
6
CONTINUOUS
70
0
71
3
72
12
73
8
74
6
42
0.0000001000
43
0.0000001000
44
0.0000000001
12
-0.4990705852
22
-0.0261551811
32
0.0000000000
13
0.0261472363
23
-0.4990710015
33
0.0000000000
40
0.0000000000
40
0.0000000000
40
0.0000000000
40
0.0000000000
40
0.0492065483
40
0.1912403570
40
0.4123852873
40
0.6910492528
40
1.0000000000
40
1.0000000000
40
1.0000000000
40
1.0000000000
10
-98.9438289268
20
24.8076512940
30
0.0000000000
10
-98.9520147737
20
24.8072222919
30
0.0000000000
10
-98.9359874552
20
24.7569670056
30
0.0000000000
10
-98.9493148806
20
24.7052626383
30
0.0000000000
10
-98.9376030612
20
24.5895286382
30
0.0000000000
10
-98.9347361359
20
24.4583988649
30
0.0000000000
10
-98.9290798880
20
24.3597326462
30
0.0000000000
10
-98.9263871519
20
24.3083365266
30
0.0000000000
11
-98.9438289268
21
24.8076512940
31
0.0000000000
11
-98.9452373017
21
24.7831004146
31
0.0000000000
11
-98.9439494213
21
24.7121299244
31
0.0000000000
11
-98.9400912092
21
24.6016788989
31
0.0000000000
11
-98.9340398989
21
24.4625465876
31
0.0000000000
11
-98.9263871519
21
24.3083365266
31
0.0000000000
0
SPLINE
5
50A
100
AcDbEntity
8
0
100
AcDbSpline
62
9
6
CONTINUOUS
70
0
71
3
72
15
73
11
74
9
42
0.0000001000
43
0.0000001000
44
0.0000000001
12
0.0078588341
22
-3.4998779711
32
0.0000000000
13
-3.4972510008
23
-0.1358050477
33
0.0000000000
40
0.0000000000
40
0.0000000000
40
0.0000000000
40
0.0000000000
40
0.1951142840
40
0.3826811569
40
0.5555699116
40
0.7071008538
40
0.8314596752
40
0.9238718540
40
0.9807740836
40
1.0000000000
40
1.0000000000
40
1.0000000000
40
1.0000000000
10
-62.7247200249
20
-12.4351858895
30
0.0000000000
10
-62.7242089013
20
-12.6628112843
30
0.0000000000
10
-62.7234035338
20
-13.1091579808
30
0.0000000000
10
-62.7219615539
20
-13.7577225223
30
0.0000000000
10
-62.7226736607
20
-14.3536609796
30
0.0000000000
10
-62.7183163289
20
-14.8813569923
30
0.0000000000
10
-62.7298514838
20
-15.2995954126
30
0.0000000000
10
-62.7032411859
20
-15.6461435102
30
0.0000000000
10
-62.7532267712
20
-15.7933209755
30
0.0000000000
10
-62.7023074065
20
-15.9341822947
30
0.0000000000
10
-62.7247200249
20
-15.9350526202
30
0.0000000000
11
-62.7247200249
21
-12.4351858895
31
0.0000000000
11
-62.7233388089
21
-13.1180623985
31
0.0000000000
11
-62.7223125358
21
-13.7745244179
31
0.0000000000
11
-62.7216806473
21
-14.3796151574
31
0.0000000000
11
-62.7214672612
21
-14.9099562581
31
0.0000000000
11
-62.7216806293
21
-15.3451980027
31
0.0000000000
11
-62.7223124937
21
-15.6686295498
31
0.0000000000
11
-62.7233387929
21
-15.8677782672
31
0.0000000000
11
-62.7247200249
21
-15.9350526202
31
0.0000000000
0
SPLINE
5
50B
100
AcDbEntity
8
0
100
AcDbSpline
62
9
6
CONTINUOUS
70
0
71
3
72
15
73
11
74
9
42
0.0000001000
43
0.0000001000
44
0.0000000001
12
3.4976358983
22
-0.1255017571
32
0.0000000000
13
-0.0078567324
23
-3.4998779750
33
0.0000000000
40
0.0000000000
40
0.0000000000
40
0.0000000000
40
0.0000000000
40
0.0192264980
40
0.0761291597
40
0.1685416175
40
0.2929009116
40
0.4444320234
40
0.6173212914
40
0.8048886409
40
1.0000000000
40
1.0000000000
40
1.0000000000
40
1.0000000000
10
-62.7247200249
20
21.6005409337
30
0.0000000000
10
-62.7023042618
20
21.5997366140
30
0.0000000000
10
-62.7532305650
20
21.4587137321
30
0.0000000000
10
-62.7032390787
20
21.3116864555
30
0.0000000000
10
-62.7298524368
20
20.9650534609
30
0.0000000000
10
-62.7183159866
20
20.5468489649
30
0.0000000000
10
-62.7226737579
20
20.0191389443
30
0.0000000000
10
-62.7219614775
20
19.4232032953
30
0.0000000000
10
-62.7234034552
20
18.7746397233
30
0.0000000000
10
-62.7242090457
20
18.3282961858
30
0.0000000000
10
-62.7247200249
20
18.1006742030
30
0.0000000000
11
-62.7247200249
21
21.6005409337
31
0.0000000000
11
-62.7233388089
21
21.5332645444
31
0.0000000000
11
-62.7223125358
21
21.3341143144
31
0.0000000000
11
-62.7216806473
21
21.0106817910
31
0.0000000000
11
-62.7214672612
21
20.5754383922
31
0.0000000000
11
-62.7216806293
21
20.0450966981
31
0.0000000000
11
-62.7223124937
21
19.4400041622
31
0.0000000000
11
-62.7233387929
21
18.7835404750
31
0.0000000000
11
-62.7247200249
21
18.1006742030
31
0.0000000000
0
ENDSEC
0
SECTION
2
OBJECTS
0
DICTIONARY
5
C
100
AcDbDictionary
280
0
281
1
3
ACAD_GROUP
350
D
3
ACAD_MLINESTYLE
350
17
3
ACAD_LAYOUT
350
1A
3
ACAD_PLOTSETTINGS
350
19
3
ACAD_PLOTSTYLENAME
350
E
0
DICTIONARY
5
D
102
{ACAD_REACTORS
330
C
102
}
100
AcDbDictionary
280
0
281
1
0
ACDBDICTIONARYWDFLT
5
E
102
{ACAD_REACTORS
330
C
102
}
100
AcDbDictionary
281
1
3
Normal
350
F
100
AcDbDictionaryWithDefault
340
F
0
DICTIONARY
5
17
102
{ACAD_REACTORS
330
C
102
}
100
AcDbDictionary
280
0
281
1
3
Standard
350
18
0
DICTIONARY
5
19
102
{ACAD_REACTORS
330
C
102
}
100
AcDbDictionary
281
1
0
DICTIONARY
5
1A
102
{ACAD_REACTORS
330
C
102
}
100
AcDbDictionary
281
1
3
Layout1
350
1E
3
Model
350
22
0
ACDBPLACEHOLDER
5
F
102
{ACAD_REACTORS
330
E
102
}
0
MLINESTYLE
5
18
102
{ACAD_REACTORS
330
17
102
}
100
AcDbMlineStyle
2
STANDARD
70
0
3

62
256
51
90.0
52
90.0
71
2
49
0.5
62
256
6
BYLAYER
49
-0.5
62
256
6
BYLAYER
0
LAYOUT
5
1E
102
{ACAD_REACTORS
330
1A
102
}
100
AcDbPlotSettings
1

2

4

6

40
0.0
41
0.0
42
0.0
43
0.0
44
0.0
45
0.0
46
0.0
47
0.0
48
0.0
49
0.0
140
0.0
141
0.0
142
1.0
143
1.0
70
0
72
0
73
0
74
0
7

75
0
147
1.0
148
0.0
149
0.0
100
AcDbLayout
1
Layout1
70
0
71
0
10
0.0
20
0.0
11
0.0
21
0.0
12
0.0
22
0.0
32
0.0
14
0.0
24
0.0
34
0.0
15
0.0
25
0.0
35
0.0
146
0.0
13
0.0
23
0.0
33
0.0
16
0.0
26
0.0
36
0.0
17
0.0
27
0.0
37
0.0
76
0
330
1B
331
0
345
0
346
0
0
LAYOUT
5
22
102
{ACAD_REACTORS
330
1A
102
}
100
AcDbPlotSettings
1

2

4

6

40
0.0
41
0.0
42
0.0
43
0.0
44
0.0
45
0.0
46
0.0
47
0.0
48
0.0
49
0.0
140
0.0
141
0.0
142
1.0
143
1.0
70
0
72
0
73
0
74
0
7

75
0
147
1.0
148
0.0
149
0.0
100
AcDbLayout
1
Model
70
0
71
0
10
0.0
20
0.0
11
0.0
21
0.0
12
0.0
22
0.0
32
0.0
14
0.0
24
0.0
34
0.0
15
0.0
25
0.0
35
0.0
146
0.0
13
0.0
23
0.0
33
0.0
16
0.0
26
0.0
36
0.0
17
0.0
27
0.0
37
0.0
76
0
330
1F
331
0
345
0
346
0
0
ENDSEC
0
EOF
