  0
SECTION
  2
HEADER
  9
$ACADVER
  1
AC1024
  9
$DWGCODEPAGE
  3
ANSI_1252
  9
$EXTMAX
 10
297.0
 20
210.0
 30
0.0
  9
$EXTMIN
 10
0.0
 20
0.0
 30
0.0
  9
$LIMMIN
 10
0.0
 20
0.0
  9
$LIMMAX
 10
297.0
 20
210.0
  9
$VIEWCTR
 10
148.5
 20
105.0
  9
$VIEWSIZE
 40
210.0
  9
$CLAYER
  8
0
  9
$LTSCALE
 40
16.335
  9
$CELTYPE
  6
BYLAYER
  9
$DIMSCALE
 40
1.0
  9
$DIMASZ
 40
3.0
  9
$DIMEXO
 40
0.5
  9
$DIMDLI
 40
11.286
  9
$DIMEXE
 40
1.5
  9
$DIMCEN
 40
2.673
  9
$DIMLFAC
 40
1.0
  9
$DIMBLK
  1
_FILLED
  9
$DIMALT
 70
0
  9
$DIMALTF
 40
0.0393700787
  9
$DIMTXT
 40
3.0
  9
$DIMTOL
 70
1
  9
$DIMLIM
 70
0
  9
$DIMTFAC
 40
1.0
  9
$DIMTP
 40
0.01
  9
$DIMTM
 40
0.01
  9
$DIMGAP
 40
0.625
  9
$DIMDSEP
 70
44
  9
$AUNITS
 70
0
  9
$PDMODE
 70
3
  9
$PDSIZE
 40
3.0
  9
$HANDSEED
  5
631
  9
$TILEMODE
 70
1
  9
$MEASUREMENT
 70
1
  9
$INSUNITS
 70
4
  0
ENDSEC
  0
SECTION
  2
CLASSES
  0
CLASS
  1
ACDBDICTIONARYWDFLT
  2
AcDbDictionaryWithDefault
  3
AutoCAD 2000
 90
0
 91
1
280
0
281
0
  0
CLASS
  1
ACDBPLACEHOLDER
  2
AcDbPlaceHolder
  3
AutoCAD 2000
 90
0
 91
1
280
0
281
0
  0
CLASS
  1
LAYOUT
  2
AcDbLayout
  3
AutoCAD 2000
 90
0
 91
0
280
0
281
0
  0
ENDSEC
  0
SECTION
  2
TABLES
  0
TABLE
  2
VPORT
  5
8
100
AcDbSymbolTable
 70
2
  0
VPORT
  5
1F4
100
AcDbSymbolTableRecord
100
AcDbViewportTableRecord
  2
*ACTIVE
 70
0
 10
0.0
 20
0.0
 11
1.0
 21
1.0
 12
148.5
 22
105.0
 13
0.0
 23
0.0
 14
1.0
 24
1.0
 15
0.0
 25
0.0
 16
0.0
 26
0.0
 36
1.0
 17
0.0
 27
0.0
 37
0.0
 40
210.0
 41
1.4142857143
 42
50.0
 43
0.0
 44
0.0
 50
0.0
 51
0.0
 71
0
 72
100
 73
1
 74
1
 75
0
 76
0
 77
0
 78
0
  0
ENDTAB
  0
TABLE
  2
LTYPE
  5
5
100
AcDbSymbolTable
 70
6
  0
LTYPE
  5
14
100
AcDbSymbolTableRecord
100
AcDbLinetypeTableRecord
  2
BYBLOCK
 70
0
  3

 72
65
 73
0
 40
0.0
  0
LTYPE
  5
15
100
AcDbSymbolTableRecord
100
AcDbLinetypeTableRecord
  2
BYLAYER
 70
0
  3

 72
65
 73
0
 40
0.0
  0
LTYPE
  5
16
100
AcDbSymbolTableRecord
100
AcDbLinetypeTableRecord
  2
CONTINUOUS
 70
64
  3
Solid line
 72
65
 73
0
 40
0.0
  0
LTYPE
  5
1F5
100
AcDbSymbolTableRecord
100
AcDbLinetypeTableRecord
  2
CENTER
 70
64
  3
____ _ ____ _ ____ _ ____ _ ____ _ ____ _ ____
 72
65
 73
4
 40
0.6
 49
0.375
 74
0
 49
-0.075
 74
0
 49
0.075
 74
0
 49
-0.075
 74
0
  0
LTYPE
  5
1F6
100
AcDbSymbolTableRecord
100
AcDbLinetypeTableRecord
  2
HIDDEN
 70
64
  3
- - - - - - - - - - - - - - - - - - - -
 72
65
 73
2
 40
0.2
 49
0.1
 74
0
 49
-0.1
 74
0
  0
LTYPE
  5
1F7
100
AcDbSymbolTableRecord
100
AcDbLinetypeTableRecord
  2
PHANTOM
 70
64
  3
_____ _ _ _____ _ _ _____ _ _ _____
 72
65
 73
6
 40
0.8
 49
0.45
 74
0
 49
-0.05
 74
0
 49
0.1
 74
0
 49
-0.05
 74
0
 49
0.1
 74
0
 49
-0.05
 74
0
  0
LTYPE
  5
1F8
100
AcDbSymbolTableRecord
100
AcDbLinetypeTableRecord
  2
DOT
 70
64
  3
. . . . . . . . . . . . . . . . . . . .
 72
65
 73
2
 40
0.2
 49
0.1
 74
0
 49
-0.1
 74
0
  0
LTYPE
  5
1F9
100
AcDbSymbolTableRecord
100
AcDbLinetypeTableRecord
  2
DASHED
 70
64
  3
- - - - - - - - - - - - - - - - - - - -
 72
65
 73
2
 40
0.2
 49
0.1
 74
0
 49
-0.1
 74
0
  0
ENDTAB
  0
TABLE
  2
LAYER
  5
2
100
AcDbSymbolTable
 70
36
  0
LAYER
  5
10
100
AcDbSymbolTableRecord
100
AcDbLayerTableRecord
  2
0
 70
0
 62
7
  6
CONTINUOUS
370
-3
390
F
  0
LAYER
  5
1FA
100
AcDbSymbolTableRecord
100
AcDbLayerTableRecord
  2
DEFAULT_1
 70
0
 62
7
  6
CENTER
370
-3
390
F
  0
LAYER
  5
1FB
100
AcDbSymbolTableRecord
100
AcDbLayerTableRecord
  2
DEFAULT_2
 70
0
 62
7
  6
HIDDEN
370
-3
390
F
  0
LAYER
  5
1FC
100
AcDbSymbolTableRecord
100
AcDbLayerTableRecord
  2
DEFAULT_3
 70
0
 62
7
  6
PHANTOM
370
-3
390
F
  0
LAYER
  5
1FD
100
AcDbSymbolTableRecord
100
AcDbLayerTableRecord
  2
ASSI
 70
0
 62
7
  6
CONTINUOUS
370
-3
390
F
  0
LAYER
  5
1FE
100
AcDbSymbolTableRecord
100
AcDbLayerTableRecord
  2
COORDINATE
 70
0
 62
7
  6
CONTINUOUS
370
-3
390
F
  0
LAYER
  5
1FF
100
AcDbSymbolTableRecord
100
AcDbLayerTableRecord
  2
COORD_ORIGINE
 70
0
 62
7
  6
CONTINUOUS
370
-3
390
F
  0
LAYER
  5
200
100
AcDbSymbolTableRecord
100
AcDbLayerTableRecord
  2
COPY_PUBLISH
 70
0
 62
7
  6
CONTINUOUS
370
-3
390
F
  0
LAYER
  5
201
100
AcDbSymbolTableRecord
100
AcDbLayerTableRecord
  2
COSMETIC
 70
0
 62
7
  6
CONTINUOUS
370
-3
390
F
  0
LAYER
  5
202
100
AcDbSymbolTableRecord
100
AcDbLayerTableRecord
  2
COSMETICHE
 70
0
 62
7
  6
CONTINUOUS
370
-3
390
F
  0
LAYER
  5
203
100
AcDbSymbolTableRecord
100
AcDbLayerTableRecord
  2
CURVE
 70
0
 62
7
  6
CONTINUOUS
370
-3
390
F
  0
LAYER
  5
204
100
AcDbSymbolTableRecord
100
AcDbLayerTableRecord
  2
DRAFT
 70
0
 62
7
  6
CONTINUOUS
370
-3
390
F
  0
LAYER
  5
205
100
AcDbSymbolTableRecord
100
AcDbLayerTableRecord
  2
IGES
 70
0
 62
7
  6
CONTINUOUS
370
-3
390
F
  0
LAYER
  5
206
100
AcDbSymbolTableRecord
100
AcDbLayerTableRecord
  2
IMPORT_FEATURES
 70
0
 62
7
  6
CONTINUOUS
370
-3
390
F
  0
LAYER
  5
207
100
AcDbSymbolTableRecord
100
AcDbLayerTableRecord
  2
IMPORT_IGES
 70
0
 62
7
  6
CONTINUOUS
370
-3
390
F
  0
LAYER
  5
208
100
AcDbSymbolTableRecord
100
AcDbLayerTableRecord
  2
INTF_1
 70
0
 62
7
  6
CONTINUOUS
370
-3
390
F
  0
LAYER
  5
209
100
AcDbSymbolTableRecord
100
AcDbLayerTableRecord
  2
INTF_11
 70
0
 62
7
  6
CONTINUOUS
370
-3
390
F
  0
LAYER
  5
20A
100
AcDbSymbolTableRecord
100
AcDbLayerTableRecord
  2
INTF_2
 70
0
 62
7
  6
CONTINUOUS
370
-3
390
F
  0
LAYER
  5
20B
100
AcDbSymbolTableRecord
100
AcDbLayerTableRecord
  2
INTF_8
 70
0
 62
7
  6
CONTINUOUS
370
-3
390
F
  0
LAYER
  5
20C
100
AcDbSymbolTableRecord
100
AcDbLayerTableRecord
  2
NOTE
 70
0
 62
7
  6
CONTINUOUS
370
-3
390
F
  0
LAYER
  5
20D
100
AcDbSymbolTableRecord
100
AcDbLayerTableRecord
  2
PIANI
 70
0
 62
7
  6
CONTINUOUS
370
-3
390
F
  0
LAYER
  5
20E
100
AcDbSymbolTableRecord
100
AcDbLayerTableRecord
  2
PIANI_ORIGINE
 70
0
 62
7
  6
CONTINUOUS
370
-3
390
F
  0
LAYER
  5
20F
100
AcDbSymbolTableRecord
100
AcDbLayerTableRecord
  2
PUNTI
 70
0
 62
7
  6
CONTINUOUS
370
-3
390
F
  0
LAYER
  5
210
100
AcDbSymbolTableRecord
100
AcDbLayerTableRecord
  2
RACCORDO
 70
0
 62
7
  6
CONTINUOUS
370
-3
390
F
  0
LAYER
  5
211
100
AcDbSymbolTableRecord
100
AcDbLayerTableRecord
  2
RGB____0____0____0__
 70
0
 62
7
  6
CONTINUOUS
370
-3
390
F
  0
LAYER
  5
212
100
AcDbSymbolTableRecord
100
AcDbLayerTableRecord
  2
SMUSSO
 70
0
 62
7
  6
CONTINUOUS
370
-3
390
F
  0
LAYER
  5
213
100
AcDbSymbolTableRecord
100
AcDbLayerTableRecord
  2
SNAPLINE
 70
0
 62
7
  6
CONTINUOUS
370
-3
390
F
  0
LAYER
  5
214
100
AcDbSymbolTableRecord
100
AcDbLayerTableRecord
  2
SUPERFICI
 70
0
 62
7
  6
CONTINUOUS
370
-3
390
F
  0
LAYER
  5
215
100
AcDbSymbolTableRecord
100
AcDbLayerTableRecord
  2
TRASH
 70
0
 62
7
  6
CONTINUOUS
370
-3
390
F
  0
LAYER
  5
216
100
AcDbSymbolTableRecord
100
AcDbLayerTableRecord
  2
VARIANTE_COLORE
 70
0
 62
7
  6
CONTINUOUS
370
-3
390
F
  0
LAYER
  5
217
100
AcDbSymbolTableRecord
100
AcDbLayerTableRecord
  2
XSEC_DATUMS
 70
0
 62
7
  6
CONTINUOUS
370
-3
390
F
  0
ENDTAB
  0
TABLE
  2
STYLE
  5
3
100
AcDbSymbolTable
 70
1
  0
STYLE
  5
11
100
AcDbSymbolTableRecord
100
AcDbTextStyleTableRecord
  2
STANDARD
 70
0
 40
0.0
 41
0.8
 50
0.0
 71
0
 42
0.2
  3
txt
  4

  0
STYLE
  5
218
100
AcDbSymbolTableRecord
100
AcDbTextStyleTableRecord
  2
TEXTSTYLE_1
 70
0
 40
0.0
 41
0.8
 50
0.0
 71
0
 42
0.2
  3
gdt
  4

  0
ENDTAB
  0
TABLE
  2
VIEW
  5
6
100
AcDbSymbolTable
 70
0
  0
ENDTAB
  0
TABLE
  2
UCS
  5
7
100
AcDbSymbolTable
 70
0
  0
ENDTAB
  0
TABLE
  2
APPID
  5
9
100
AcDbSymbolTable
 70
1
  0
APPID
  5
219
100
AcDbSymbolTableRecord
100
AcDbRegAppTableRecord
  2
ACAD
 70
0
  0
ENDTAB
  0
TABLE
  2
BLOCK_RECORD
  5
1
100
AcDbSymbolTable
 70
0
  0
BLOCK_RECORD
  5
21A
100
AcDbSymbolTableRecord
100
AcDbBlockTableRecord
  2
*Model_Space
  0
BLOCK_RECORD
  5
21B
100
AcDbSymbolTableRecord
100
AcDbBlockTableRecord
  2
*Paper_Space
  0
BLOCK_RECORD
  5
21C
100
AcDbSymbolTableRecord
100
AcDbBlockTableRecord
  2
_FILLED
  0
BLOCK_RECORD
  5
21D
100
AcDbSymbolTableRecord
100
AcDbBlockTableRecord
  2
*D0
  0
BLOCK_RECORD
  5
21E
100
AcDbSymbolTableRecord
100
AcDbBlockTableRecord
  2
*D1
  0
BLOCK_RECORD
  5
21F
100
AcDbSymbolTableRecord
100
AcDbBlockTableRecord
  2
*D2
  0
BLOCK_RECORD
  5
220
100
AcDbSymbolTableRecord
100
AcDbBlockTableRecord
  2
*D3
  0
ENDTAB
  0
TABLE
  2
DIMSTYLE
  5
A
100
AcDbSymbolTable
 70
1
100
AcDbDimStyleTable
 71
0
  0
DIMSTYLE
105
221
100
AcDbSymbolTableRecord
100
AcDbDimStyleTableRecord
  2
STANDARD
 70
0
  3

  4

 40
1.0
 41
3.0
 42
0.5
 43
0.38
 44
1.5
 45
0.0
 46
0.0
 47
0.01
 48
0.01
140
3.0
141
0.09
142
0.0
143
25.4
144
1.0
145
0.0
146
1.0
147
0.625
 71
1
 72
0
 73
0
 74
0
 75
0
 76
0
 77
1
 78
8
 79
2
170
0
171
1
172
0
173
0
174
0
175
0
176
0
177
0
178
0
270
2
179
2
271
2
272
2
273
2
274
2
275
0
280
0
281
0
282
0
283
1
284
8
285
0
286
0
287
3
288
0
340
11
278
44
341
21C
342
21C
343
21C
344
21C
  0
DIMSTYLE
105
222
100
AcDbSymbolTableRecord
100
AcDbDimStyleTableRecord
  2
DIMSTYLE_1
 70
0
  3

  4

 40
1.0
 41
3.0
 42
0.5
 43
0.38
 44
1.5
 45
0.0
 46
0.0
 47
0.0
 48
0.0
140
3.0
141
0.09
142
0.0
143
25.4
144
1.0
145
0.0
146
1.0
147
0.75
 71
0
 72
0
 73
0
 74
0
 75
0
 76
0
 77
1
 78
8
 79
2
170
0
171
1
172
0
173
0
174
0
175
0
176
0
177
0
178
0
270
2
179
2
271
2
272
2
273
2
274
2
275
0
280
0
281
0
282
0
283
1
284
8
285
0
286
0
287
3
288
0
340
11
278
44
341
21C
342
21C
343
21C
344
21C
  0
ENDTAB
  0
ENDSEC
  0
SECTION
  2
BLOCKS
  0
BLOCK
  5
20
100
AcDbEntity
  8
0
100
AcDbBlockBegin
  2
*Model_Space
 70
0
 10
0.0
 20
0.0
 30
0.0
  3
*Model_Space
  1

  0
ENDBLK
  5
21
100
AcDbEntity
  8
0
100
AcDbBlockEnd
  0
BLOCK
  5
1C
100
AcDbEntity
  8
0
100
AcDbBlockBegin
  2
*Paper_Space
 70
0
 10
0.0
 20
0.0
 30
0.0
  3
*Paper_Space
  1

  0
ENDBLK
  5
1D
100
AcDbEntity
  8
0
100
AcDbBlockEnd
  0
BLOCK
  5
223
100
AcDbEntity
  8
0
100
AcDbBlockBegin
  2
_FILLED
 70
64
 10
0.0
 20
0.0
  3
_FILLED
  1

  0
SOLID
  5
224
100
AcDbEntity
  8
0
  6
BYBLOCK
 62
0
100
AcDbTrace
 10
0.0
 20
0.0
 11
-1.0
 21
0.3166666667
 12
-1.0
 22
-0.3166666667
 13
-1.0
 23
-0.3166666667
  0
ENDBLK
  5
225
100
AcDbEntity
  8
0
  6
BYBLOCK
 62
0
100
AcDbBlockEnd
  0
BLOCK
  5
226
100
AcDbEntity
  8
0
100
AcDbBlockBegin
 62
7
  6
CONTINUOUS
  2
*D0
 70
65
 10
0.0
 20
0.0
  3
*D0
  1

  0
LINE
  5
227
100
AcDbEntity
  8
0
100
AcDbLine
 62
7
  6
CONTINUOUS
 10
32.0915057678
 20
22.3997711479
 11
32.0915057678
 21
33.0
  0
LINE
  5
228
100
AcDbEntity
  8
0
100
AcDbLine
 62
7
  6
CONTINUOUS
 10
54.3915057678
 20
22.3997711479
 11
54.3915057678
 21
33.0
  0
LINE
  5
229
100
AcDbEntity
  8
0
100
AcDbLine
 62
7
  6
CONTINUOUS
 10
32.0915057678
 20
31.5
 11
43.2415057678
 21
31.5
  0
LINE
  5
22A
100
AcDbEntity
  8
0
100
AcDbLine
 62
7
  6
CONTINUOUS
 10
54.3915057678
 20
31.5
 11
43.2415057678
 21
31.5
  0
INSERT
  5
22B
100
AcDbEntity
  8
0
100
AcDbBlockReference
 62
7
  6
CONTINUOUS
  2
_FILLED
 10
32.0915057678
 20
31.5
 41
3.0
 42
3.0
 43
3.0
 50
180.0
  0
INSERT
  5
22C
100
AcDbEntity
  8
0
100
AcDbBlockReference
 62
7
  6
CONTINUOUS
  2
_FILLED
 10
54.3915057678
 20
31.5
 41
3.0
 42
3.0
 43
3.0
  0
ENDBLK
  5
22D
100
AcDbEntity
  8
0
  6
BYBLOCK
 62
0
100
AcDbBlockEnd
  0
BLOCK
  5
22E
100
AcDbEntity
  8
0
100
AcDbBlockBegin
 62
7
  6
CONTINUOUS
  2
*D1
 70
65
 10
0.0
 20
0.0
  3
*D1
  1

  0
LINE
  5
22F
100
AcDbEntity
  8
0
100
AcDbLine
 62
7
  6
CONTINUOUS
 10
47.7148431154
 20
23.5
 11
63.9176883652
 21
23.5
  0
LINE
  5
230
100
AcDbEntity
  8
0
100
AcDbLine
 62
7
  6
CONTINUOUS
 10
47.7148431154
 20
-23.5
 11
63.9176883652
 21
-23.5
  0
LINE
  5
231
100
AcDbEntity
  8
0
100
AcDbLine
 62
7
  6
CONTINUOUS
 10
62.4176883652
 20
23.5
 11
62.4176883652
 21
0.0
  0
LINE
  5
232
100
AcDbEntity
  8
0
100
AcDbLine
 62
7
  6
CONTINUOUS
 10
62.4176883652
 20
-23.5
 11
62.4176883652
 21
0.0
  0
INSERT
  5
233
100
AcDbEntity
  8
0
100
AcDbBlockReference
 62
7
  6
CONTINUOUS
  2
_FILLED
 10
62.4176883652
 20
23.5
 41
3.0
 42
3.0
 43
3.0
 50
90.0
  0
INSERT
  5
234
100
AcDbEntity
  8
0
100
AcDbBlockReference
 62
7
  6
CONTINUOUS
  2
_FILLED
 10
62.4176883652
 20
-23.5
 41
3.0
 42
3.0
 43
3.0
 50
270.0
  0
ENDBLK
  5
235
100
AcDbEntity
  8
0
  6
BYBLOCK
 62
0
100
AcDbBlockEnd
  0
BLOCK
  5
236
100
AcDbEntity
  8
0
100
AcDbBlockBegin
 62
7
  6
CONTINUOUS
  2
*D2
 70
65
 10
0.0
 20
0.0
  3
*D2
  1

  0
LINE
  5
237
100
AcDbEntity
  8
0
100
AcDbLine
 62
7
  6
CONTINUOUS
 10
19.1498743846
 20
18.1686999252
 11
19.1498743846
 21
33.0
  0
LINE
  5
238
100
AcDbEntity
  8
0
100
AcDbLine
 62
7
  6
CONTINUOUS
 10
-8.3501256154
 20
16.9071689224
 11
-8.3501256154
 21
33.0
  0
LINE
  5
239
100
AcDbEntity
  8
0
100
AcDbLine
 62
7
  6
CONTINUOUS
 10
19.1498743846
 20
31.5
 11
5.3998743846
 21
31.5
  0
LINE
  5
23A
100
AcDbEntity
  8
0
100
AcDbLine
 62
7
  6
CONTINUOUS
 10
-8.3501256154
 20
31.5
 11
5.3998743846
 21
31.5
  0
INSERT
  5
23B
100
AcDbEntity
  8
0
100
AcDbBlockReference
 62
7
  6
CONTINUOUS
  2
_FILLED
 10
19.1498743846
 20
31.5
 41
3.0
 42
3.0
 43
3.0
  0
INSERT
  5
23C
100
AcDbEntity
  8
0
100
AcDbBlockReference
 62
7
  6
CONTINUOUS
  2
_FILLED
 10
-8.3501256154
 20
31.5
 41
3.0
 42
3.0
 43
3.0
 50
180.0
  0
ENDBLK
  5
23D
100
AcDbEntity
  8
0
  6
BYBLOCK
 62
0
100
AcDbBlockEnd
  0
BLOCK
  5
23E
100
AcDbEntity
  8
0
100
AcDbBlockBegin
 62
7
  6
CONTINUOUS
  2
*D3
 70
65
 10
0.0
 20
0.0
  3
*D3
  1

  0
LINE
  5
23F
100
AcDbEntity
  8
0
100
AcDbLine
 62
7
  6
CONTINUOUS
 10
19.1498743846
 20
15.6687951175
 11
19.1498743846
 21
43.0
  0
LINE
  5
240
100
AcDbEntity
  8
0
100
AcDbLine
 62
7
  6
CONTINUOUS
 10
-19.3501256154
 20
0.5
 11
-19.3501256154
 21
43.0
  0
LINE
  5
241
100
AcDbEntity
  8
0
100
AcDbLine
 62
7
  6
CONTINUOUS
 10
19.1498743846
 20
41.5
 11
-0.1001256154
 21
41.5
  0
LINE
  5
242
100
AcDbEntity
  8
0
100
AcDbLine
 62
7
  6
CONTINUOUS
 10
-19.3501256154
 20
41.5
 11
-0.1001256154
 21
41.5
  0
INSERT
  5
243
100
AcDbEntity
  8
0
100
AcDbBlockReference
 62
7
  6
CONTINUOUS
  2
_FILLED
 10
19.1498743846
 20
41.5
 41
3.0
 42
3.0
 43
3.0
 50
0.0
  0
INSERT
  5
244
100
AcDbEntity
  8
0
100
AcDbBlockReference
 62
7
  6
CONTINUOUS
  2
_FILLED
 10
-19.3501256154
 20
41.5
 41
3.0
 42
3.0
 43
3.0
 50
180.0
  0
ENDBLK
  5
245
100
AcDbEntity
  8
0
  6
BYBLOCK
 62
0
100
AcDbBlockEnd
  0
ENDSEC
  0
SECTION
  2
ENTITIES
  0
DIMENSION
  5
246
100
AcDbEntity
  8
0
100
AcDbDimension
 62
7
  6
CONTINUOUS
  2
*D0
 10
54.3915057678
 20
31.5
 11
38.9557914821
 21
31.5
 70
160
 71
2
 72
2
 41
0.9
 42
22.3
  3
DIMSTYLE_1
100
AcDbAlignedDimension
 13
32.0915057678
 23
21.8997711479
 14
54.3915057678
 24
21.8997711479
100
AcDbRotatedDimension
  0
DIMENSION
  5
247
100
AcDbEntity
  8
0
100
AcDbDimension
 62
7
  6
CONTINUOUS
  2
*D1
 10
62.4176883652
 20
-23.5
 11
62.4176883652
 21
-2.3571428571
 70
160
 71
2
 72
2
 41
0.9
 42
47.0
  3
DIMSTYLE_1
100
AcDbAlignedDimension
 13
47.2148431154
 23
23.5
 14
47.2148431154
 24
-23.5
 50
270.0
100
AcDbRotatedDimension
  0
DIMENSION
  5
248
100
AcDbEntity
  8
0
100
AcDbDimension
 62
7
  6
CONTINUOUS
  2
*D2
 10
-8.3501256154
 20
31.5
 11
1.1141600989
 21
31.5
 70
160
 71
2
 72
2
 41
0.9
 42
27.5
  3
DIMSTYLE_1
100
AcDbAlignedDimension
 13
19.1498743846
 23
17.6686999252
 14
-8.3501256154
 24
16.4071689224
 50
180.0
100
AcDbRotatedDimension
  0
DIMENSION
  5
249
100
AcDbEntity
  8
0
100
AcDbDimension
 62
7
  6
CONTINUOUS
  2
*D3
 10
-19.3501256154
 20
41.5
 11
-4.278697044
 21
41.5
 70
160
 71
2
 72
2
 41
0.9
 42
38.5
  3
DIMSTYLE_1
100
AcDbAlignedDimension
 13
19.1498743846
 23
15.1687951175
 14
-19.3501256154
 24
-0.0
 50
180.0
100
AcDbRotatedDimension
  0
LWPOLYLINE
  5
24A
100
AcDbEntity
  8
0
100
AcDbPolyline
 62
7
  6
CONTINUOUS
 90
5
 70
0
 43
0.3500000006
 10
-3.4215542822
 20
43.9642839203
 10
-3.064411397
 20
44.178572937
 10
-3.064411397
 20
44.8214263916
 10
-3.4215542822
 20
45.2499998932
 10
-4.2786970367
 20
45.2499998932
  0
LWPOLYLINE
  5
24B
100
AcDbEntity
  8
0
100
AcDbPolyline
 62
250
  6
CONTINUOUS
 90
8
 70
0
 10
-17.9613806353
 20
21.9749071372
 10
-17.9621465634
 20
21.9721273713
 10
-17.9626177405
 20
21.9639137831
 10
-17.9627890103
 20
21.9503562579
 10
-17.9626584983
 20
21.9316031621
 10
-17.962227633
 20
21.90785972
 10
-17.9615011298
 20
21.8793857676
 10
-17.95919616
 20
21.8095411067
  0
LINE
  5
24C
100
AcDbEntity
  8
DRAFT
100
AcDbLine
 62
7
  6
CONTINUOUS
 10
-5.8501256154
 20
-23.4301797403
 11
-9.8501256154
 21
-23.5
  0
LINE
  5
24D
100
AcDbEntity
  8
DRAFT
100
AcDbLine
 62
7
  6
CONTINUOUS
 10
-5.8501256154
 20
-23.1409517823
 11
-9.3817834873
 21
-23.1754465963
  0
LINE
  5
24E
100
AcDbEntity
  8
DRAFT
100
AcDbLine
 62
7
  6
CONTINUOUS
 10
-9.3817834873
 20
-23.1754465963
 11
-9.8501256154
 21
-23.1799085618
  0
LINE
  5
24F
100
AcDbEntity
  8
DRAFT
100
AcDbLine
 62
7
  6
CONTINUOUS
 10
-3.7424519356
 20
-22.1955695989
 11
-4.2501256154
 21
-22.2
  0
LINE
  5
250
100
AcDbEntity
  8
DRAFT
100
AcDbLine
 62
7
  6
CONTINUOUS
 10
-9.8501256154
 20
-22.663166622
 11
-7.131660986
 21
-22.6508924088
  0
LINE
  5
251
100
AcDbEntity
  8
DRAFT
100
AcDbLine
 62
7
  6
CONTINUOUS
 10
-7.131660986
 20
-22.6508924088
 11
-5.8501256154
 21
-22.6454332982
  0
LINE
  5
252
100
AcDbEntity
  8
0
100
AcDbLine
 62
7
  6
CONTINUOUS
 10
-9.8501256154
 20
-22.4
 11
-17.9613806353
 21
-21.9749071372
  0
LINE
  5
253
100
AcDbEntity
  8
0
100
AcDbLine
 62
250
  6
CONTINUOUS
 10
-9.8501256154
 20
-21.8997711479
 11
-17.9439388604
 21
-21.4755923698
  0
LWPOLYLINE
  5
254
100
AcDbEntity
  8
0
100
AcDbPolyline
 62
250
  6
CONTINUOUS
 90
19
 70
0
 10
-17.9439388604
 20
-21.4755923698
 10
-17.9851172601
 20
-21.4716789126
 10
-18.0253438944
 20
-21.4645568007
 10
-18.0646187632
 20
-21.4542260342
 10
-18.1032050722
 20
-21.4405716186
 10
-18.1408396158
 20
-21.4237085484
 10
-18.1767327769
 20
-21.403981807
 10
-18.2108349262
 20
-21.3813379258
 10
-18.243195693
 20
-21.3558303735
 10
-18.2731743481
 20
-21.3279645393
 10
-18.3007241988
 20
-21.2976924869
 10
-18.3258919378
 20
-21.2650621527
 10
-18.3481769142
 20
-21.2307227351
 10
-18.3675240424
 20
-21.1946238913
 10
-18.3839884081
 20
-21.1568159642
 10
-18.3972346178
 20
-21.1180991805
 10
-18.4071508736
 20
-21.0787402824
 10
-18.4138489735
 20
-21.0384725278
 10
-18.4173289174
 20
-20.9972959167
  0
LWPOLYLINE
  5
255
100
AcDbEntity
  8
0
100
AcDbPolyline
 62
250
  6
CONTINUOUS
 90
7
 70
0
 10
-17.9613806353
 20
-21.9749071372
 10
-17.9621465633
 20
-21.97212728
 10
-17.9626177308
 20
-21.9639134406
 10
-17.9627889832
 20
-21.9503555394
 10
-17.9626584475
 20
-21.931601975
 10
-17.962227554
 20
-21.9078580123
 10
-17.9615010215
 20
-21.8793835478
  0
LWPOLYLINE
  5
256
100
AcDbEntity
  8
0
100
AcDbPolyline
 62
250
  6
CONTINUOUS
 90
19
 70
0
 10
-18.4173289174
 20
20.9972959167
 10
-18.4138489734
 20
21.0384725278
 10
-18.4071508734
 20
21.0787402824
 10
-18.3972346175
 20
21.1180991804
 10
-18.383988408
 20
21.1568159641
 10
-18.3675240425
 20
21.1946238914
 10
-18.3481769144
 20
21.2307227352
 10
-18.3258919379
 20
21.2650621528
 10
-18.3007241989
 20
21.297692487
 10
-18.2731743481
 20
21.3279645393
 10
-18.2431956929
 20
21.3558303734
 10
-18.2108349261
 20
21.3813379257
 10
-18.1767327767
 20
21.4039818068
 10
-18.1408396157
 20
21.4237085483
 10
-18.1032050722
 20
21.4405716188
 10
-18.0646187632
 20
21.4542260345
 10
-18.0253438944
 20
21.464556801
 10
-17.9851172602
 20
21.4716789127
 10
-17.9439388604
 20
21.4755923698
  0
LINE
  5
257
100
AcDbEntity
  8
0
100
AcDbLine
 62
250
  6
CONTINUOUS
 10
-18.9054860708
 20
-21.0181637394
 11
-18.5696018914
 21
-21.0037221554
  0
LWPOLYLINE
  5
258
100
AcDbEntity
  8
0
100
AcDbPolyline
 62
250
  6
CONTINUOUS
 90
3
 70
0
 10
-18.5696018914
 20
-21.0037221554
 10
-18.4689147208
 20
-20.9994689572
 10
-18.4173289174
 20
-20.9972959167
  0
LINE
  5
259
100
AcDbEntity
  8
DRAFT
100
AcDbLine
 62
7
  6
CONTINUOUS
 10
-5.8501256154
 20
-21.2139629885
 11
-1.9838187216
 21
-21.1802222394
  0
LWPOLYLINE
  5
25A
100
AcDbEntity
  8
0
100
AcDbPolyline
 62
250
  6
CONTINUOUS
 90
10
 70
0
 10
-18.4173289174
 20
-20.9972959167
 10
-18.5917547542
 20
-16.3324664701
 10
-18.7225741254
 20
-11.6670185434
 10
-18.8097870309
 20
-7.0009521365
 10
-18.8533934622
 20
-2.3338547134
 10
-18.8533934279
 20
2.3338611899
 10
-18.8097869537
 20
7.0009579653
 10
-18.7225740482
 20
11.667023077
 10
-18.5917547027
 20
16.3324690607
 10
-18.4173289174
 20
20.9972959167
  0
LINE
  5
25B
100
AcDbEntity
  8
0
100
AcDbLine
 62
250
  6
CONTINUOUS
 10
-18.9081607387
 20
-21.0183142305
 11
-18.9054860708
 21
-21.0181637394
  0
LINE
  5
25C
100
AcDbEntity
  8
RACCORDO
100
AcDbLine
 62
7
  6
CONTINUOUS
 10
-8.3501256154
 20
-18.9
 11
18.1586009201
 21
-18.6686618482
  0
LINE
  5
25D
100
AcDbEntity
  8
ASSI
100
AcDbLine
 62
7
  6
CONTINUOUS
 10
-8.3501256154
 20
-18.9
 11
18.1586009201
 21
-18.6686618482
  0
LINE
  5
25E
100
AcDbEntity
  8
RACCORDO
100
AcDbLine
 62
250
  6
CONTINUOUS
 10
-0.4501256154
 20
-19.2
 11
-9.8501256154
 21
-19.2
  0
LINE
  5
25F
100
AcDbEntity
  8
RACCORDO
100
AcDbLine
 62
7
  6
CONTINUOUS
 10
-0.7501256154
 20
-18.9
 11
-9.8501256154
 21
-18.9
  0
LINE
  5
260
100
AcDbEntity
  8
0
100
AcDbLine
 62
250
  6
CONTINUOUS
 10
-17.9515916075
 20
21.6298024308
 11
-17.9439388604
 21
21.4755923698
  0
LINE
  5
261
100
AcDbEntity
  8
0
100
AcDbLine
 62
250
  6
CONTINUOUS
 10
-17.9558442104
 20
21.7251181903
 11
-17.9515916075
 21
21.6298024308
  0
LINE
  5
262
100
AcDbEntity
  8
0
100
AcDbLine
 62
250
  6
CONTINUOUS
 10
-17.95919616
 20
21.8095411067
 11
-17.9558442104
 21
21.7251181903
  0
LINE
  5
263
100
AcDbEntity
  8
0
100
AcDbLine
 62
250
  6
CONTINUOUS
 10
-17.9615010215
 20
-21.8793835478
 11
-17.9591960009
 21
-21.8095380733
  0
LINE
  5
264
100
AcDbEntity
  8
0
100
AcDbLine
 62
250
  6
CONTINUOUS
 10
-17.9591960009
 20
-21.8095380733
 11
-17.9558440297
 21
-21.7251149336
  0
LINE
  5
265
100
AcDbEntity
  8
0
100
AcDbLine
 62
250
  6
CONTINUOUS
 10
-17.9558440297
 20
-21.7251149336
 11
-17.9491841318
 21
-21.5793443309
  0
LINE
  5
266
100
AcDbEntity
  8
0
100
AcDbLine
 62
250
  6
CONTINUOUS
 10
-17.9491841318
 20
-21.5793443309
 11
-17.9439388604
 21
-21.4755923698
  0
LINE
  5
267
100
AcDbEntity
  8
RACCORDO
100
AcDbLine
 62
250
  6
CONTINUOUS
 10
-9.8501256154
 20
-17.0734936413
 11
-8.3501256154
 21
-17.0161212155
  0
LINE
  5
268
100
AcDbEntity
  8
RACCORDO
100
AcDbLine
 62
250
  6
CONTINUOUS
 10
-9.8501256154
 20
-16.4627802787
 11
-8.3501256154
 21
-16.4071690169
  0
LINE
  5
269
100
AcDbEntity
  8
RACCORDO
100
AcDbLine
 62
250
  6
CONTINUOUS
 10
-8.3501256154
 20
-18.1797639505
 11
-9.8501256154
 21
-18.2307790647
  0
LINE
  5
26A
100
AcDbEntity
  8
RACCORDO
100
AcDbLine
 62
7
  6
CONTINUOUS
 10
-9.8501256154
 20
-18.3006191466
 11
-8.3501256154
 21
-18.2499082467
  0
LINE
  5
26B
100
AcDbEntity
  8
0
100
AcDbLine
 62
7
  6
CONTINUOUS
 10
19.1498743846
 20
-16.1
 11
19.3498743846
 21
-16.1
  0
LINE
  5
26C
100
AcDbEntity
  8
ASSI
100
AcDbLine
 62
7
  6
CONTINUOUS
 10
19.1498743846
 20
-16.1
 11
19.3498743846
 21
-16.1
  0
LINE
  5
26D
100
AcDbEntity
  8
RACCORDO
100
AcDbLine
 62
250
  6
CONTINUOUS
 10
-8.3501256154
 20
-15.4001332693
 11
18.1586009201
 21
-15.1687951175
  0
LINE
  5
26E
100
AcDbEntity
  8
ASSI
100
AcDbLine
 62
250
  6
CONTINUOUS
 10
-8.3501256154
 20
-15.4001332693
 11
18.1586009201
 21
-15.1687951175
  0
LINE
  5
26F
100
AcDbEntity
  8
RACCORDO
100
AcDbLine
 62
250
  6
CONTINUOUS
 10
19.1498743846
 20
-15.1687951175
 11
18.1586009201
 21
-15.1687951167
  0
LINE
  5
270
100
AcDbEntity
  8
ASSI
100
AcDbLine
 62
250
  6
CONTINUOUS
 10
19.1498743846
 20
-15.1687951175
 11
18.1586009201
 21
-15.1687951167
  0
LINE
  5
271
100
AcDbEntity
  8
CURVE
100
AcDbLine
 62
250
  6
CONTINUOUS
 10
-0.1769286749
 20
-15.0
 11
1.1229723269
 21
-15.0
  0
LINE
  5
272
100
AcDbEntity
  8
CURVE
100
AcDbLine
 62
250
  6
CONTINUOUS
 10
2.2228885593
 20
-14.7523809478
 11
3.5227895611
 21
-14.7523809478
  0
LINE
  5
273
100
AcDbEntity
  8
0
100
AcDbLine
 62
250
  6
CONTINUOUS
 10
14.0498743846
 20
-14.5
 11
12.7498743846
 21
-14.5
  0
LINE
  5
274
100
AcDbEntity
  8
CURVE
100
AcDbLine
 62
250
  6
CONTINUOUS
 10
0.9372721755
 20
-14.35
 11
0.0087714571
 21
-14.35
  0
LINE
  5
275
100
AcDbEntity
  8
CURVE
100
AcDbLine
 62
250
  6
CONTINUOUS
 10
2.2228885593
 20
-14.1642857254
 11
3.5227895611
 21
-14.1642857254
  0
LWPOLYLINE
  5
276
100
AcDbEntity
  8
0
100
AcDbPolyline
 62
7
  6
CONTINUOUS
 90
3
 70
0
 43
0.3500000006
 10
0.9355886908
 20
42.5357146454
 10
0.8641601279
 20
42.3214301605
 10
0.7213029313
 20
42.0357144928
  0
LINE
  5
277
100
AcDbEntity
  8
RACCORDO
100
AcDbLine
 62
7
  6
CONTINUOUS
 10
0.1498743846
 20
19.8
 11
-0.7501256154
 21
18.9
  0
LINE
  5
278
100
AcDbEntity
  8
0
100
AcDbLine
 62
7
  6
CONTINUOUS
 10
-4.5707784774
 20
14.7983108322
 11
-4.4472355517
 21
14.9218537579
  0
LINE
  5
279
100
AcDbEntity
  8
0
100
AcDbLine
 62
7
  6
CONTINUOUS
 10
-4.6510403315
 20
14.5080382641
 11
-4.5344787653
 21
14.6245998303
  0
LINE
  5
27A
100
AcDbEntity
  8
0
100
AcDbLine
 62
7
  6
CONTINUOUS
 10
-4.2942478815
 20
14.864830714
 11
-4.1606512431
 21
14.9984273525
  0
LINE
  5
27B
100
AcDbEntity
  8
0
100
AcDbLine
 62
7
  6
CONTINUOUS
 10
-4.6520909829
 20
14.2969768987
 11
-4.5561134319
 21
14.3929544497
  0
LINE
  5
27C
100
AcDbEntity
  8
0
100
AcDbLine
 62
7
  6
CONTINUOUS
 10
-4.0692113496
 20
14.879856532
 11
-3.9747015271
 21
14.9743663544
  0
LINE
  5
27D
100
AcDbEntity
  8
0
100
AcDbLine
 62
7
  6
CONTINUOUS
 10
-4.6520909829
 20
14.0869661847
 11
-4.5561134319
 21
14.1829437357
  0
LINE
  5
27E
100
AcDbEntity
  8
0
100
AcDbLine
 62
7
  6
CONTINUOUS
 10
-3.9181874714
 20
14.8208696962
 11
-3.8368466896
 21
14.9022104779
  0
LINE
  5
27F
100
AcDbEntity
  8
0
100
AcDbLine
 62
7
  6
CONTINUOUS
 10
-4.6520909829
 20
13.8769554707
 11
-4.5561134319
 21
13.9729330217
  0
LINE
  5
280
100
AcDbEntity
  8
0
100
AcDbLine
 62
7
  6
CONTINUOUS
 10
-3.8147925126
 20
14.7142539409
 11
-3.7382083378
 21
14.7908381158
  0
LINE
  5
281
100
AcDbEntity
  8
0
100
AcDbLine
 62
7
  6
CONTINUOUS
 10
-4.613446005
 20
13.7055897345
 11
-4.5022562511
 21
13.8167794885
  0
LINE
  5
282
100
AcDbEntity
  8
0
100
AcDbLine
 62
7
  6
CONTINUOUS
 10
-3.7571968674
 20
14.5618388722
 11
-3.6770774323
 21
14.6419583072
  0
LINE
  5
283
100
AcDbEntity
  8
0
100
AcDbLine
 62
7
  6
CONTINUOUS
 10
-4.403435291
 20
13.7055897345
 11
-4.2922455371
 21
13.8167794885
  0
LINE
  5
284
100
AcDbEntity
  8
0
100
AcDbLine
 62
7
  6
CONTINUOUS
 10
-3.7479743293
 20
14.3610506962
 11
-3.6526326461
 21
14.4563923794
  0
LINE
  5
285
100
AcDbEntity
  8
0
100
AcDbLine
 62
7
  6
CONTINUOUS
 10
-4.6226162564
 20
13.2763980551
 11
-4.5114962831
 21
13.3875180284
  0
LINE
  5
286
100
AcDbEntity
  8
0
100
AcDbLine
 62
7
  6
CONTINUOUS
 10
-4.193424577
 20
13.7055897345
 11
-4.082234823
 21
13.8167794885
  0
LINE
  5
287
100
AcDbEntity
  8
0
100
AcDbLine
 62
7
  6
CONTINUOUS
 10
-3.7479743293
 20
14.1510399822
 11
-3.6519967783
 21
14.2470175332
  0
LINE
  5
288
100
AcDbEntity
  8
0
100
AcDbLine
 62
7
  6
CONTINUOUS
 10
-4.4126055423
 20
13.2763980551
 11
-4.3014855691
 21
13.3875180284
  0
LINE
  5
289
100
AcDbEntity
  8
0
100
AcDbLine
 62
7
  6
CONTINUOUS
 10
-3.983413863
 20
13.7055897345
 11
-3.872224109
 21
13.8167794885
  0
LINE
  5
28A
100
AcDbEntity
  8
0
100
AcDbLine
 62
7
  6
CONTINUOUS
 10
-3.7479743293
 20
13.9410292682
 11
-3.6519967783
 21
14.0370068192
  0
LINE
  5
28B
100
AcDbEntity
  8
0
100
AcDbLine
 62
7
  6
CONTINUOUS
 10
-4.2025948283
 20
13.2763980551
 11
-4.0914748551
 21
13.3875180284
  0
LINE
  5
28C
100
AcDbEntity
  8
0
100
AcDbLine
 62
7
  6
CONTINUOUS
 10
-3.7734031489
 20
13.7055897345
 11
-3.6519967783
 21
13.8269961052
  0
LINE
  5
28D
100
AcDbEntity
  8
0
100
AcDbLine
 62
7
  6
CONTINUOUS
 10
-3.9925841143
 20
13.2763980551
 11
-3.8814641411
 21
13.3875180284
  0
LINE
  5
28E
100
AcDbEntity
  8
0
100
AcDbLine
 62
7
  6
CONTINUOUS
 10
-3.5633924349
 20
13.7055897345
 11
-3.452202681
 21
13.8167794885
  0
LINE
  5
28F
100
AcDbEntity
  8
0
100
AcDbLine
 62
7
  6
CONTINUOUS
 10
-3.7825734003
 20
13.2763980551
 11
-3.6714534271
 21
13.3875180284
  0
LINE
  5
290
100
AcDbEntity
  8
0
100
AcDbLine
 62
7
  6
CONTINUOUS
 10
-3.3533817209
 20
13.7055897345
 11
-3.242191967
 21
13.8167794885
  0
LINE
  5
291
100
AcDbEntity
  8
0
100
AcDbLine
 62
7
  6
CONTINUOUS
 10
-3.5725626863
 20
13.2763980551
 11
-3.4650878557
 21
13.3838728857
  0
LINE
  5
292
100
AcDbEntity
  8
0
100
AcDbLine
 62
7
  6
CONTINUOUS
 10
-3.1433710069
 20
13.7055897345
 11
-3.032181253
 21
13.8167794885
  0
LINE
  5
293
100
AcDbEntity
  8
0
100
AcDbLine
 62
250
  6
CONTINUOUS
 10
12.7498743846
 20
-13.7571428239
 11
14.0498743846
 21
-13.7571428239
  0
LINE
  5
294
100
AcDbEntity
  8
CURVE
100
AcDbLine
 62
250
  6
CONTINUOUS
 10
-0.1769286749
 20
-13.5761904836
 11
1.1229723269
 21
-13.5761904836
  0
LINE
  5
295
100
AcDbEntity
  8
0
100
AcDbLine
 62
7
  6
CONTINUOUS
 10
19.1498743846
 20
-13.4722431864
 11
19.3498743846
 21
-13.4722431864
  0
LINE
  5
296
100
AcDbEntity
  8
ASSI
100
AcDbLine
 62
7
  6
CONTINUOUS
 10
19.1498743846
 20
-13.4722431864
 11
19.3498743846
 21
-13.4722431864
  0
LINE
  5
297
100
AcDbEntity
  8
CURVE
100
AcDbLine
 62
250
  6
CONTINUOUS
 10
2.4085886913
 20
-13.2357143521
 11
3.3370894097
 21
-13.2357143521
  0
LINE
  5
298
100
AcDbEntity
  8
CURVE
100
AcDbLine
 62
250
  6
CONTINUOUS
 10
-0.1769286749
 20
-12.9880951643
 11
1.1229723269
 21
-12.9880951643
  0
LINE
  5
299
100
AcDbEntity
  8
CURVE
100
AcDbLine
 62
250
  6
CONTINUOUS
 10
0.3801717212
 20
-12.3380951643
 11
0.0087714571
 21
-12.3380951643
  0
LINE
  5
29A
100
AcDbEntity
  8
0
100
AcDbLine
 62
250
  6
CONTINUOUS
 10
14.0498743846
 20
-12.2714285493
 11
12.7498743846
 21
-12.2714285493
  0
LINE
  5
29B
100
AcDbEntity
  8
CURVE
100
AcDbLine
 62
250
  6
CONTINUOUS
 10
-0.1769286749
 20
-11.96666677
 11
1.1229723269
 21
-11.96666677
  0
LINE
  5
29C
100
AcDbEntity
  8
RACCORDO
100
AcDbLine
 62
7
  6
CONTINUOUS
 10
-0.7501256154
 20
-18.9
 11
0.1498743846
 21
-19.8
  0
LINE
  5
29D
100
AcDbEntity
  8
0
100
AcDbLine
 62
7
  6
CONTINUOUS
 10
-4.6304228267
 20
12.0085272007
 11
-4.519301812
 21
12.1196482155
  0
LINE
  5
29E
100
AcDbEntity
  8
0
100
AcDbLine
 62
7
  6
CONTINUOUS
 10
-3.3761436989
 20
13.2628063286
 11
-3.2823844026
 21
13.3565656248
  0
LINE
  5
29F
100
AcDbEntity
  8
0
100
AcDbLine
 62
7
  6
CONTINUOUS
 10
-2.9333602929
 20
13.7055897345
 11
-2.8489247197
 21
13.7900253078
  0
LINE
  5
2A0
100
AcDbEntity
  8
0
100
AcDbLine
 62
7
  6
CONTINUOUS
 10
-4.4204121127
 20
12.0085272007
 11
-4.3092910979
 21
12.1196482155
  0
LINE
  5
2A1
100
AcDbEntity
  8
0
100
AcDbLine
 62
7
  6
CONTINUOUS
 10
-3.2100291269
 20
13.2189101865
 11
-3.1280522418
 21
13.3008870716
  0
LINE
  5
2A2
100
AcDbEntity
  8
0
100
AcDbLine
 62
7
  6
CONTINUOUS
 10
-4.2104013987
 20
12.0085272007
 11
-4.0992803839
 21
12.1196482155
  0
LINE
  5
2A3
100
AcDbEntity
  8
0
100
AcDbLine
 62
7
  6
CONTINUOUS
 10
-3.0775416103
 20
13.1413869891
 11
-3.0022493138
 21
13.2166792856
  0
LINE
  5
2A4
100
AcDbEntity
  8
0
100
AcDbLine
 62
7
  6
CONTINUOUS
 10
-4.6504125088
 20
11.3585053766
 11
-4.6245028854
 21
11.384415
  0
LINE
  5
2A5
100
AcDbEntity
  8
0
100
AcDbLine
 62
7
  6
CONTINUOUS
 10
-4.0003906847
 20
12.0085272007
 11
-3.8892696699
 21
12.1196482155
  0
LINE
  5
2A6
100
AcDbEntity
  8
0
100
AcDbLine
 62
7
  6
CONTINUOUS
 10
-2.9814529378
 20
13.0274649476
 11
-2.9067046835
 21
13.1022132019
  0
LINE
  5
2A7
100
AcDbEntity
  8
0
100
AcDbLine
 62
7
  6
CONTINUOUS
 10
-4.6504125088
 20
11.1484946626
 11
-4.4487488671
 21
11.3501583043
  0
LINE
  5
2A8
100
AcDbEntity
  8
0
100
AcDbLine
 62
7
  6
CONTINUOUS
 10
-3.7903799707
 20
12.0085272007
 11
-3.6792589559
 21
12.1196482155
  0
LINE
  5
2A9
100
AcDbEntity
  8
0
100
AcDbLine
 62
7
  6
CONTINUOUS
 10
-2.9215272638
 20
12.8773799076
 11
-2.8424240541
 21
12.9564831173
  0
LINE
  5
2AA
100
AcDbEntity
  8
0
100
AcDbLine
 62
7
  6
CONTINUOUS
 10
-4.6504125088
 20
10.9384839486
 11
-4.4487488671
 21
11.1401475903
  0
LINE
  5
2AB
100
AcDbEntity
  8
0
100
AcDbLine
 62
7
  6
CONTINUOUS
 10
-3.5803692567
 20
12.0085272007
 11
-3.4648048812
 21
12.1240915762
  0
LINE
  5
2AC
100
AcDbEntity
  8
0
100
AcDbLine
 62
7
  6
CONTINUOUS
 10
-2.9019744585
 20
12.6869219989
 11
-2.8098758299
 21
12.7790206274
  0
LINE
  5
2AD
100
AcDbEntity
  8
0
100
AcDbLine
 62
7
  6
CONTINUOUS
 10
-4.6504125088
 20
10.7284732346
 11
-4.4487488671
 21
10.9301368763
  0
LINE
  5
2AE
100
AcDbEntity
  8
0
100
AcDbLine
 62
7
  6
CONTINUOUS
 10
-3.3547912673
 20
12.024094476
 11
-3.1876827348
 21
12.1912030086
  0
LINE
  5
2AF
100
AcDbEntity
  8
0
100
AcDbLine
 62
7
  6
CONTINUOUS
 10
-2.9501908946
 20
12.4286948488
 11
-2.8132218049
 21
12.5656639385
  0
LINE
  5
2B0
100
AcDbEntity
  8
0
100
AcDbLine
 62
7
  6
CONTINUOUS
 10
-4.6504125088
 20
10.5184625206
 11
-4.4487488671
 21
10.7201261622
  0
LINE
  5
2B1
100
AcDbEntity
  8
0
100
AcDbLine
 62
7
  6
CONTINUOUS
 10
-3.8765174472
 20
11.2923575821
 11
-3.8524770293
 21
11.316398
  0
LINE
  5
2B2
100
AcDbEntity
  8
0
100
AcDbLine
 62
7
  6
CONTINUOUS
 10
-4.6504125088
 20
10.3084518066
 11
-4.4487488671
 21
10.5101154482
  0
LINE
  5
2B3
100
AcDbEntity
  8
0
100
AcDbLine
 62
7
  6
CONTINUOUS
 10
-3.8765174472
 20
11.0823468681
 11
-3.6748368069
 21
11.2840275085
  0
LINE
  5
2B4
100
AcDbEntity
  8
0
100
AcDbLine
 62
7
  6
CONTINUOUS
 10
-4.6072936013
 20
10.14156
 11
-4.3678006013
 21
10.381053
  0
LINE
  5
2B5
100
AcDbEntity
  8
0
100
AcDbLine
 62
7
  6
CONTINUOUS
 10
-3.8765174472
 20
10.8723361541
 11
-3.6748368069
 21
11.0740167944
  0
LINE
  5
2B6
100
AcDbEntity
  8
CURVE
100
AcDbLine
 62
250
  6
CONTINUOUS
 10
0.3801717212
 20
15.0857141972
 11
0.565871892
 21
15.2714287043
  0
LINE
  5
2B7
100
AcDbEntity
  8
0
100
AcDbLine
 62
7
  6
CONTINUOUS
 10
-4.3972828873
 20
10.14156
 11
-4.1577898873
 21
10.381053
  0
LINE
  5
2B8
100
AcDbEntity
  8
0
100
AcDbLine
 62
7
  6
CONTINUOUS
 10
-3.8765174472
 20
10.6623254401
 11
-3.6748368069
 21
10.8640060804
  0
LINE
  5
2B9
100
AcDbEntity
  8
0
100
AcDbLine
 62
7
  6
CONTINUOUS
 10
-4.6504075091
 20
9.6784246642
 11
-4.5337939874
 21
9.7950381859
  0
LINE
  5
2BA
100
AcDbEntity
  8
0
100
AcDbLine
 62
7
  6
CONTINUOUS
 10
-4.1872721733
 20
10.14156
 11
-3.9477791733
 21
10.381053
  0
LINE
  5
2BB
100
AcDbEntity
  8
0
100
AcDbLine
 62
7
  6
CONTINUOUS
 10
-3.8765174472
 20
10.4523147261
 11
-3.6748368069
 21
10.6539953664
  0
LINE
  5
2BC
100
AcDbEntity
  8
0
100
AcDbLine
 62
7
  6
CONTINUOUS
 10
-3.0522022256
 20
11.2766299477
 11
-2.9368251733
 21
11.392007
  0
LINE
  5
2BD
100
AcDbEntity
  8
0
100
AcDbLine
 62
7
  6
CONTINUOUS
 10
-4.5614837082
 20
9.5573377511
 11
-4.3788937526
 21
9.7399277067
  0
LINE
  5
2BE
100
AcDbEntity
  8
0
100
AcDbLine
 62
7
  6
CONTINUOUS
 10
-3.9772614593
 20
10.14156
 11
-3.6748368069
 21
10.4439846524
  0
LINE
  5
2BF
100
AcDbEntity
  8
0
100
AcDbLine
 62
7
  6
CONTINUOUS
 10
-3.0522022256
 20
11.0666192337
 11
-2.850538584
 21
11.2682828753
  0
LINE
  5
2C0
100
AcDbEntity
  8
CURVE
100
AcDbLine
 62
250
  6
CONTINUOUS
 10
-0.1769286749
 20
15.0857141972
 11
0.0087714571
 21
15.2404761314
  0
LINE
  5
2C1
100
AcDbEntity
  8
CURVE
100
AcDbLine
 62
250
  6
CONTINUOUS
 10
-0.1769286749
 20
13.4142856479
 11
0.0087714571
 21
13.5690475821
  0
LINE
  5
2C2
100
AcDbEntity
  8
CURVE
100
AcDbLine
 62
250
  6
CONTINUOUS
 10
0.1944715892
 20
11.65
 11
0.0087714571
 21
11.5571428627
  0
LINE
  5
2C3
100
AcDbEntity
  8
CURVE
100
AcDbLine
 62
250
  6
CONTINUOUS
 10
2.9386063653
 20
12.5285716057
 11
2.1958057984
 21
12.1571425915
  0
LINE
  5
2C4
100
AcDbEntity
  8
0
100
AcDbLine
 62
250
  6
CONTINUOUS
 10
6.5127649936
 20
-11.76459
 11
7.2832616543
 21
-11.76459
  0
LINE
  5
2C5
100
AcDbEntity
  8
0
100
AcDbLine
 62
250
  6
CONTINUOUS
 10
10.8165111139
 20
-11.76459
 11
11.5870077746
 21
-11.76459
  0
LINE
  5
2C6
100
AcDbEntity
  8
0
100
AcDbLine
 62
250
  6
CONTINUOUS
 10
12.9355886592
 20
-11.6214287043
 11
13.8641600906
 21
-11.6214287043
  0
LINE
  5
2C7
100
AcDbEntity
  8
0
100
AcDbLine
 62
250
  6
CONTINUOUS
 10
14.0498743846
 20
-11.0952380657
 11
12.7498743846
 21
-11.0952380657
  0
LINE
  5
2C8
100
AcDbEntity
  8
CURVE
100
AcDbLine
 62
250
  6
CONTINUOUS
 10
0.0087714571
 20
-11.0380951643
 11
0.9372721755
 21
-11.0380951643
  0
LINE
  5
2C9
100
AcDbEntity
  8
CURVE
100
AcDbLine
 62
250
  6
CONTINUOUS
 10
3.5227895611
 20
-10.7595238686
 11
2.2228885593
 21
-10.7595238686
  0
LINE
  5
2CA
100
AcDbEntity
  8
CURVE
100
AcDbLine
 62
250
  6
CONTINUOUS
 10
3.3370894097
 20
-10.3880951643
 11
2.8728390602
 21
-10.3880951643
  0
LINE
  5
2CB
100
AcDbEntity
  8
0
100
AcDbLine
 62
7
  6
CONTINUOUS
 10
19.1498743846
 20
-10.3
 11
19.3498743846
 21
-10.3
  0
LINE
  5
2CC
100
AcDbEntity
  8
ASSI
100
AcDbLine
 62
7
  6
CONTINUOUS
 10
19.1498743846
 20
-10.3
 11
19.3498743846
 21
-10.3
  0
LINE
  5
2CD
100
AcDbEntity
  8
0
100
AcDbLine
 62
7
  6
CONTINUOUS
 10
-9.8501256154
 20
22.4
 11
-9.8501256154
 21
21.8997711479
  0
LINE
  5
2CE
100
AcDbEntity
  8
0
100
AcDbLine
 62
7
  6
CONTINUOUS
 10
-9.8501256154
 20
-21.8997711479
 11
-9.8501256154
 21
-22.4
  0
LINE
  5
2CF
100
AcDbEntity
  8
DRAFT
100
AcDbLine
 62
7
  6
CONTINUOUS
 10
-9.8501256154
 20
-22.4
 11
-9.8501256154
 21
-23.5
  0
LINE
  5
2D0
100
AcDbEntity
  8
RACCORDO
100
AcDbLine
 62
7
  6
CONTINUOUS
 10
-9.8501256154
 20
-21.8997711479
 11
-9.8501256154
 21
-16.4627822915
  0
LINE
  5
2D1
100
AcDbEntity
  8
RACCORDO
100
AcDbLine
 62
7
  6
CONTINUOUS
 10
-9.8501256154
 20
16.4627822915
 11
-9.8501256154
 21
21.8997711479
  0
LINE
  5
2D2
100
AcDbEntity
  8
DRAFT
100
AcDbLine
 62
7
  6
CONTINUOUS
 10
-9.8501256154
 20
22.4
 11
-9.8501256154
 21
23.5
  0
LINE
  5
2D3
100
AcDbEntity
  8
ASSI
100
AcDbLine
 62
7
  6
CONTINUOUS
 10
-8.3501256154
 20
-18.9
 11
-8.3501256154
 21
-18.1768989128
  0
LINE
  5
2D4
100
AcDbEntity
  8
RACCORDO
100
AcDbLine
 62
7
  6
CONTINUOUS
 10
-8.3501256154
 20
-18.9
 11
-8.3501256154
 21
18.9
  0
LINE
  5
2D5
100
AcDbEntity
  8
ASSI
100
AcDbLine
 62
7
  6
CONTINUOUS
 10
-8.3501256154
 20
18.1768989128
 11
-8.3501256154
 21
18.9
  0
LINE
  5
2D6
100
AcDbEntity
  8
RACCORDO
100
AcDbLine
 62
250
  6
CONTINUOUS
 10
-4.6709695146
 20
18.8678924911
 11
-4.6653080945
 21
18.9
  0
LINE
  5
2D7
100
AcDbEntity
  8
ASSI
100
AcDbLine
 62
250
  6
CONTINUOUS
 10
-4.6709695146
 20
18.8678924911
 11
-4.6653080945
 21
18.9
  0
LINE
  5
2D8
100
AcDbEntity
  8
0
100
AcDbLine
 62
7
  6
CONTINUOUS
 10
-4.4039131866
 20
9.5048975586
 11
-4.2239935177
 21
9.6848172276
  0
LINE
  5
2D9
100
AcDbEntity
  8
0
100
AcDbLine
 62
7
  6
CONTINUOUS
 10
-3.7672507453
 20
10.14156
 11
-3.5277577453
 21
10.381053
  0
LINE
  5
2DA
100
AcDbEntity
  8
0
100
AcDbLine
 62
7
  6
CONTINUOUS
 10
-3.0522022256
 20
10.8566085197
 11
-2.850538584
 21
11.0582721613
  0
LINE
  5
2DB
100
AcDbEntity
  8
0
100
AcDbLine
 62
7
  6
CONTINUOUS
 10
-4.2463426651
 20
9.4524573662
 11
-4.0690932828
 21
9.6297067484
  0
LINE
  5
2DC
100
AcDbEntity
  8
0
100
AcDbLine
 62
7
  6
CONTINUOUS
 10
-3.5572400313
 20
10.14156
 11
-3.3177470313
 21
10.381053
  0
LINE
  5
2DD
100
AcDbEntity
  8
0
100
AcDbLine
 62
7
  6
CONTINUOUS
 10
-3.0522022256
 20
10.6465978056
 11
-2.850538584
 21
10.8482614473
  0
LINE
  5
2DE
100
AcDbEntity
  8
0
100
AcDbLine
 62
7
  6
CONTINUOUS
 10
-4.0887721435
 20
9.4000171737
 11
-3.914193048
 21
9.5745962693
  0
LINE
  5
2DF
100
AcDbEntity
  8
0
100
AcDbLine
 62
7
  6
CONTINUOUS
 10
-3.3472293172
 20
10.14156
 11
-3.1077363172
 21
10.381053
  0
LINE
  5
2E0
100
AcDbEntity
  8
0
100
AcDbLine
 62
7
  6
CONTINUOUS
 10
-3.0522022256
 20
10.4365870916
 11
-2.850538584
 21
10.6382507333
  0
LINE
  5
2E1
100
AcDbEntity
  8
0
100
AcDbLine
 62
7
  6
CONTINUOUS
 10
-3.931201622
 20
9.3475769813
 11
-3.7592928131
 21
9.5194857901
  0
LINE
  5
2E2
100
AcDbEntity
  8
0
100
AcDbLine
 62
7
  6
CONTINUOUS
 10
-3.1372186032
 20
10.14156
 11
-2.850538584
 21
10.4282400193
  0
LINE
  5
2E3
100
AcDbEntity
  8
0
100
AcDbLine
 62
7
  6
CONTINUOUS
 10
-4.6504075091
 20
8.4183603801
 11
-4.4566565236
 21
8.6121113657
  0
LINE
  5
2E4
100
AcDbEntity
  8
0
100
AcDbLine
 62
7
  6
CONTINUOUS
 10
-3.7736311004
 20
9.2951367888
 11
-3.6043925782
 21
9.464375311
  0
LINE
  5
2E5
100
AcDbEntity
  8
0
100
AcDbLine
 62
7
  6
CONTINUOUS
 10
-2.9272078892
 20
10.14156
 11
-2.850538584
 21
10.2182293053
  0
LINE
  5
2E6
100
AcDbEntity
  8
CURVE
100
AcDbLine
 62
250
  6
CONTINUOUS
 10
0.3801717212
 20
13.4142856479
 11
0.565871892
 21
13.6
  0
LINE
  5
2E7
100
AcDbEntity
  8
0
100
AcDbLine
 62
7
  6
CONTINUOUS
 10
-4.5263488423
 20
8.3324083329
 11
-4.1433897967
 21
8.7153673785
  0
LINE
  5
2E8
100
AcDbEntity
  8
0
100
AcDbLine
 62
7
  6
CONTINUOUS
 10
-3.6160605789
 20
9.2426965963
 11
-3.4494923434
 21
9.4092648318
  0
LINE
  5
2E9
100
AcDbEntity
  8
CURVE
100
AcDbLine
 62
250
  6
CONTINUOUS
 10
-0.1769286749
 20
12.4857143521
 11
0.0087714571
 21
12.6714285493
  0
LINE
  5
2EA
100
AcDbEntity
  8
0
100
AcDbLine
 62
7
  6
CONTINUOUS
 10
-4.6504125088
 20
7.9983339524
 11
-4.5718594612
 21
8.076887
  0
LINE
  5
2EB
100
AcDbEntity
  8
0
100
AcDbLine
 62
7
  6
CONTINUOUS
 10
-4.2017750189
 20
8.4469714423
 11
-3.8301230698
 21
8.8186233914
  0
LINE
  5
2EC
100
AcDbEntity
  8
0
100
AcDbLine
 62
7
  6
CONTINUOUS
 10
-3.4584900573
 20
9.1902564039
 11
-3.2945921085
 21
9.3541543527
  0
LINE
  5
2ED
100
AcDbEntity
  8
0
100
AcDbLine
 62
7
  6
CONTINUOUS
 10
-4.6504125088
 20
7.7883232384
 11
-4.4487488671
 21
7.9899868801
  0
LINE
  5
2EE
100
AcDbEntity
  8
0
100
AcDbLine
 62
7
  6
CONTINUOUS
 10
-3.8772011954
 20
8.5615345518
 11
-3.5168563429
 21
8.9218794043
  0
LINE
  5
2EF
100
AcDbEntity
  8
0
100
AcDbLine
 62
7
  6
CONTINUOUS
 10
-3.3009195358
 20
9.1378162114
 11
-3.1396918737
 21
9.2990438735
  0
LINE
  5
2F0
100
AcDbEntity
  8
0
100
AcDbLine
 62
7
  6
CONTINUOUS
 10
-4.6504125088
 20
7.5783125244
 11
-4.4487488671
 21
7.7799761661
  0
LINE
  5
2F1
100
AcDbEntity
  8
0
100
AcDbLine
 62
7
  6
CONTINUOUS
 10
-3.5526273719
 20
8.6760976613
 11
-3.203589616
 21
9.0251354172
  0
LINE
  5
2F2
100
AcDbEntity
  8
0
100
AcDbLine
 62
7
  6
CONTINUOUS
 10
-3.1433490142
 20
9.085376019
 11
-2.9847916388
 21
9.2439333944
  0
LINE
  5
2F3
100
AcDbEntity
  8
0
100
AcDbLine
 62
7
  6
CONTINUOUS
 10
-4.6504125088
 20
7.3683018104
 11
-4.4487488671
 21
7.5699654521
  0
LINE
  5
2F4
100
AcDbEntity
  8
0
100
AcDbLine
 62
7
  6
CONTINUOUS
 10
-3.2280535484
 20
8.7906607707
 11
-2.8505335843
 21
9.1681807348
  0
LINE
  5
2F5
100
AcDbEntity
  8
0
100
AcDbLine
 62
7
  6
CONTINUOUS
 10
-4.6504125088
 20
7.1582910964
 11
-4.4487488671
 21
7.359954738
  0
LINE
  5
2F6
100
AcDbEntity
  8
0
100
AcDbLine
 62
7
  6
CONTINUOUS
 10
-3.8765174472
 20
7.9321861579
 11
-3.7998856051
 21
8.008818
  0
LINE
  5
2F7
100
AcDbEntity
  8
0
100
AcDbLine
 62
7
  6
CONTINUOUS
 10
-2.903479725
 20
8.9052238802
 11
-2.8505335843
 21
8.9581700208
  0
LINE
  5
2F8
100
AcDbEntity
  8
CURVE
100
AcDbLine
 62
250
  6
CONTINUOUS
 10
0.565871892
 20
12.2071428239
 11
0.3801717212
 21
12.0214285493
  0
LINE
  5
2F9
100
AcDbEntity
  8
0
100
AcDbLine
 62
7
  6
CONTINUOUS
 10
-4.6504125088
 20
6.9482803824
 11
-4.4487488671
 21
7.149944024
  0
LINE
  5
2FA
100
AcDbEntity
  8
0
100
AcDbLine
 62
7
  6
CONTINUOUS
 10
-3.8765174472
 20
7.7221754439
 11
-3.6748368069
 21
7.9238560843
  0
LINE
  5
2FB
100
AcDbEntity
  8
CURVE
100
AcDbLine
 62
250
  6
CONTINUOUS
 10
0.0087714571
 20
11.5571428627
 11
-0.1769286749
 21
11.371428588
  0
LINE
  5
2FC
100
AcDbEntity
  8
0
100
AcDbLine
 62
7
  6
CONTINUOUS
 10
-4.5546671771
 20
6.834015
 11
-4.3151561771
 21
7.073526
  0
LINE
  5
2FD
100
AcDbEntity
  8
0
100
AcDbLine
 62
7
  6
CONTINUOUS
 10
-3.8765174472
 20
7.5121647299
 11
-3.6748368069
 21
7.7138453702
  0
LINE
  5
2FE
100
AcDbEntity
  8
0
100
AcDbLine
 62
7
  6
CONTINUOUS
 10
-4.3446564631
 20
6.834015
 11
-4.1051454631
 21
7.073526
  0
LINE
  5
2FF
100
AcDbEntity
  8
0
100
AcDbLine
 62
7
  6
CONTINUOUS
 10
-3.8765174472
 20
7.3021540159
 11
-3.6748368069
 21
7.5038346562
  0
LINE
  5
300
100
AcDbEntity
  8
CURVE
100
AcDbLine
 62
250
  6
CONTINUOUS
 10
0.7515720241
 20
11.0
 11
0.9372721755
 21
11.092857147
  0
LINE
  5
301
100
AcDbEntity
  8
0
100
AcDbLine
 62
250
  6
CONTINUOUS
 10
-2.8505335843
 20
8.923912
 11
-4.6504075091
 21
8.28862
  0
LINE
  5
302
100
AcDbEntity
  8
0
100
AcDbLine
 62
250
  6
CONTINUOUS
 10
-4.6504075091
 20
8.548249
 11
-3.0823832185
 21
9.0650863225
  0
LINE
  5
303
100
AcDbEntity
  8
CURVE
100
AcDbLine
 62
250
  6
CONTINUOUS
 10
2.9656891262
 20
-9.7380954742
 11
3.3370894097
 21
-9.7380954742
  0
LINE
  5
304
100
AcDbEntity
  8
CURVE
100
AcDbLine
 62
250
  6
CONTINUOUS
 10
-0.1769286749
 20
-9.58333354
 11
1.1229723269
 21
-9.58333354
  0
LINE
  5
305
100
AcDbEntity
  8
CURVE
100
AcDbLine
 62
250
  6
CONTINUOUS
 10
2.7799889554
 20
-9.36666646
 11
2.4085886913
 21
-9.36666646
  0
LINE
  5
306
100
AcDbEntity
  8
0
100
AcDbLine
 62
250
  6
CONTINUOUS
 10
14.0498743846
 20
-8.8976193428
 11
12.7498743846
 21
-8.8976193428
  0
LINE
  5
307
100
AcDbEntity
  8
CURVE
100
AcDbLine
 62
250
  6
CONTINUOUS
 10
2.4085886913
 20
-8.71666646
 11
2.7799889554
 21
-8.71666646
  0
LINE
  5
308
100
AcDbEntity
  8
0
100
AcDbLine
 62
250
  6
CONTINUOUS
 10
14.0498743846
 20
-8.3095238686
 11
12.7498743846
 21
-8.3095238686
  0
LINE
  5
309
100
AcDbEntity
  8
0
100
AcDbLine
 62
250
  6
CONTINUOUS
 10
8.6674009486
 20
-7.93959
 11
9.4323718197
 21
-7.93959
  0
LINE
  5
30A
100
AcDbEntity
  8
0
100
AcDbLine
 62
250
  6
CONTINUOUS
 10
14.0498743846
 20
-13.3857142746
 11
12.7498743846
 21
-13.0142856479
  0
LINE
  5
30B
100
AcDbEntity
  8
CURVE
100
AcDbLine
 62
250
  6
CONTINUOUS
 10
2.8728390602
 20
-10.3880951643
 11
2.5014387961
 21
-10.2023809671
  0
LINE
  5
30C
100
AcDbEntity
  8
CURVE
100
AcDbLine
 62
250
  6
CONTINUOUS
 10
1.1229723269
 20
-14.5357142746
 11
0.9372721755
 21
-14.35
  0
LINE
  5
30D
100
AcDbEntity
  8
CURVE
100
AcDbLine
 62
250
  6
CONTINUOUS
 10
0.565871892
 20
-12.5238095164
 11
0.3801717212
 21
-12.3380951643
  0
LINE
  5
30E
100
AcDbEntity
  8
RACCORDO
100
AcDbLine
 62
250
  6
CONTINUOUS
 10
-4.6653080945
 20
-18.9
 11
-4.6709695146
 21
-18.8678924911
  0
LINE
  5
30F
100
AcDbEntity
  8
ASSI
100
AcDbLine
 62
250
  6
CONTINUOUS
 10
-4.6653080945
 20
-18.9
 11
-4.6709695146
 21
-18.8678924911
  0
LINE
  5
310
100
AcDbEntity
  8
DRAFT
100
AcDbLine
 62
7
  6
CONTINUOUS
 10
-5.8501256154
 20
23.4301797403
 11
-5.8501256154
 21
21.2139629885
  0
LINE
  5
311
100
AcDbEntity
  8
DRAFT
100
AcDbLine
 62
7
  6
CONTINUOUS
 10
-5.8501256154
 20
-21.2139629885
 11
-5.8501256154
 21
-23.4301797403
  0
LINE
  5
312
100
AcDbEntity
  8
RACCORDO
100
AcDbLine
 62
7
  6
CONTINUOUS
 10
-3.6571030225
 20
18.8590446123
 11
-3.6498814826
 21
18.9
  0
LINE
  5
313
100
AcDbEntity
  8
ASSI
100
AcDbLine
 62
7
  6
CONTINUOUS
 10
-3.6571030225
 20
18.8590446123
 11
-3.6498814826
 21
18.9
  0
LINE
  5
314
100
AcDbEntity
  8
0
100
AcDbLine
 62
7
  6
CONTINUOUS
 10
-4.6504125088
 20
6.3182482403
 11
-4.6362737491
 21
6.332387
  0
LINE
  5
315
100
AcDbEntity
  8
0
100
AcDbLine
 62
7
  6
CONTINUOUS
 10
-4.1346457491
 20
6.834015
 11
-3.8951347491
 21
7.073526
  0
LINE
  5
316
100
AcDbEntity
  8
0
100
AcDbLine
 62
7
  6
CONTINUOUS
 10
-3.8765174472
 20
7.0921433019
 11
-3.6748368069
 21
7.2938239422
  0
LINE
  5
317
100
AcDbEntity
  8
0
100
AcDbLine
 62
7
  6
CONTINUOUS
 10
-3.0522022256
 20
7.9164585235
 11
-2.8842147491
 21
8.084446
  0
LINE
  5
318
100
AcDbEntity
  8
0
100
AcDbLine
 62
7
  6
CONTINUOUS
 10
-4.6504125088
 20
6.1082375263
 11
-4.4262630351
 21
6.332387
  0
LINE
  5
319
100
AcDbEntity
  8
0
100
AcDbLine
 62
7
  6
CONTINUOUS
 10
-3.9246350351
 20
6.834015
 11
-3.6748368069
 21
7.0838132282
  0
LINE
  5
31A
100
AcDbEntity
  8
0
100
AcDbLine
 62
7
  6
CONTINUOUS
 10
-3.0522022256
 20
7.7064478095
 11
-2.850538584
 21
7.9081114511
  0
LINE
  5
31B
100
AcDbEntity
  8
0
100
AcDbLine
 62
7
  6
CONTINUOUS
 10
-4.4431513211
 20
6.105488
 11
-4.2162523211
 21
6.332387
  0
LINE
  5
31C
100
AcDbEntity
  8
0
100
AcDbLine
 62
7
  6
CONTINUOUS
 10
-3.7146243211
 20
6.834015
 11
-3.4751133211
 21
7.073526
  0
LINE
  5
31D
100
AcDbEntity
  8
0
100
AcDbLine
 62
7
  6
CONTINUOUS
 10
-3.0522022256
 20
7.4964370955
 11
-2.850538584
 21
7.6981007371
  0
LINE
  5
31E
100
AcDbEntity
  8
0
100
AcDbLine
 62
7
  6
CONTINUOUS
 10
-4.2331406071
 20
6.105488
 11
-4.0062416071
 21
6.332387
  0
LINE
  5
31F
100
AcDbEntity
  8
0
100
AcDbLine
 62
7
  6
CONTINUOUS
 10
-3.5046136071
 20
6.834015
 11
-3.2651026071
 21
7.073526
  0
LINE
  5
320
100
AcDbEntity
  8
0
100
AcDbLine
 62
7
  6
CONTINUOUS
 10
-3.0522022256
 20
7.2864263814
 11
-2.850538584
 21
7.4880900231
  0
LINE
  5
321
100
AcDbEntity
  8
CURVE
100
AcDbLine
 62
250
  6
CONTINUOUS
 10
0.9372721755
 20
11.092857147
 11
1.1229723269
 21
11.2785714313
  0
LINE
  5
322
100
AcDbEntity
  8
0
100
AcDbLine
 62
7
  6
CONTINUOUS
 10
-4.023129893
 20
6.105488
 11
-3.796230893
 21
6.332387
  0
LINE
  5
323
100
AcDbEntity
  8
0
100
AcDbLine
 62
7
  6
CONTINUOUS
 10
-3.294602893
 20
6.834015
 11
-3.055091893
 21
7.073526
  0
LINE
  5
324
100
AcDbEntity
  8
0
100
AcDbLine
 62
7
  6
CONTINUOUS
 10
-3.0522022256
 20
7.0764156674
 11
-2.850538584
 21
7.2780793091
  0
LINE
  5
325
100
AcDbEntity
  8
0
100
AcDbLine
 62
7
  6
CONTINUOUS
 10
-3.813119179
 20
6.105488
 11
-3.586220179
 21
6.332387
  0
LINE
  5
326
100
AcDbEntity
  8
0
100
AcDbLine
 62
7
  6
CONTINUOUS
 10
-3.084592179
 20
6.834015
 11
-2.850538584
 21
7.0680685951
  0
LINE
  5
327
100
AcDbEntity
  8
0
100
AcDbLine
 62
7
  6
CONTINUOUS
 10
-4.6504125088
 20
5.0581839563
 11
-4.3812665085
 21
5.3273299565
  0
LINE
  5
328
100
AcDbEntity
  8
0
100
AcDbLine
 62
7
  6
CONTINUOUS
 10
-3.603108465
 20
6.105488
 11
-3.376209465
 21
6.332387
  0
LINE
  5
329
100
AcDbEntity
  8
0
100
AcDbLine
 62
7
  6
CONTINUOUS
 10
-2.874581465
 20
6.834015
 11
-2.850538584
 21
6.8580578811
  0
LINE
  5
32A
100
AcDbEntity
  8
0
100
AcDbLine
 62
7
  6
CONTINUOUS
 10
-4.600681751
 20
4.897904
 11
-3.7821767728
 21
5.7164089782
  0
LINE
  5
32B
100
AcDbEntity
  8
0
100
AcDbLine
 62
7
  6
CONTINUOUS
 10
-3.393097751
 20
6.105488
 11
-3.166198751
 21
6.332387
  0
LINE
  5
32C
100
AcDbEntity
  8
0
100
AcDbLine
 62
7
  6
CONTINUOUS
 10
-4.390671037
 20
4.897904
 11
-4.163789037
 21
5.124786
  0
LINE
  5
32D
100
AcDbEntity
  8
0
100
AcDbLine
 62
7
  6
CONTINUOUS
 10
-3.9045663227
 20
5.3840087143
 11
-2.956188037
 21
6.332387
  0
LINE
  5
32E
100
AcDbEntity
  8
0
100
AcDbLine
 62
7
  6
CONTINUOUS
 10
-4.180660323
 20
4.897904
 11
-3.953778323
 21
5.124786
  0
LINE
  5
32F
100
AcDbEntity
  8
0
100
AcDbLine
 62
7
  6
CONTINUOUS
 10
-3.3027866068
 20
5.7757777162
 11
-2.850538584
 21
6.228025739
  0
LINE
  5
330
100
AcDbEntity
  8
0
100
AcDbLine
 62
7
  6
CONTINUOUS
 10
-3.970649609
 20
4.897904
 11
-3.743767609
 21
5.124786
  0
LINE
  5
331
100
AcDbEntity
  8
0
100
AcDbLine
 62
7
  6
CONTINUOUS
 10
-3.760638895
 20
4.897904
 11
-3.533756895
 21
5.124786
  0
LINE
  5
332
100
AcDbEntity
  8
0
100
AcDbLine
 62
7
  6
CONTINUOUS
 10
-3.550628181
 20
4.897904
 11
-3.323746181
 21
5.124786
  0
LINE
  5
333
100
AcDbEntity
  8
CURVE
100
AcDbLine
 62
250
  6
CONTINUOUS
 10
2.1958057984
 20
10.5785716057
 11
2.3815059304
 21
10.7642858028
  0
LINE
  5
334
100
AcDbEntity
  8
0
100
AcDbLine
 62
7
  6
CONTINUOUS
 10
-3.3406174669
 20
4.897904
 11
-3.1137354669
 21
5.124786
  0
LINE
  5
335
100
AcDbEntity
  8
CURVE
100
AcDbLine
 62
250
  6
CONTINUOUS
 10
2.3815059304
 20
8.6595238686
 11
2.1958057984
 21
8.5357141972
  0
LINE
  5
336
100
AcDbEntity
  8
0
100
AcDbLine
 62
250
  6
CONTINUOUS
 10
-2.850538584
 20
6.070199
 11
-4.3027473186
 21
5.124786
  0
LINE
  5
337
100
AcDbEntity
  8
0
100
AcDbLine
 62
250
  6
CONTINUOUS
 10
-4.6504125088
 20
5.152533
 11
-3.183087037
 21
6.105488
  0
LINE
  5
338
100
AcDbEntity
  8
CURVE
100
AcDbLine
 62
250
  6
CONTINUOUS
 10
0.1944715892
 20
-7.8190477371
 11
0.7515720241
 21
-7.8190477371
  0
LINE
  5
339
100
AcDbEntity
  8
0
100
AcDbLine
 62
250
  6
CONTINUOUS
 10
14.0498743846
 20
-7.6595238686
 11
12.7498743846
 21
-7.6595238686
  0
LINE
  5
33A
100
AcDbEntity
  8
0
100
AcDbLine
 62
250
  6
CONTINUOUS
 10
6.5127649936
 20
-7.42959
 11
7.2832616543
 21
-7.42959
  0
LINE
  5
33B
100
AcDbEntity
  8
0
100
AcDbLine
 62
250
  6
CONTINUOUS
 10
10.8165111139
 20
-7.42959
 11
11.5870077746
 21
-7.42959
  0
LINE
  5
33C
100
AcDbEntity
  8
CURVE
100
AcDbLine
 62
250
  6
CONTINUOUS
 10
0.7515720241
 20
-7.1690477371
 11
0.1944715892
 21
-7.1690477371
  0
LINE
  5
33D
100
AcDbEntity
  8
CURVE
100
AcDbLine
 62
250
  6
CONTINUOUS
 10
2.4085886913
 20
-6.76666646
 11
2.5942888234
 21
-6.76666646
  0
LINE
  5
33E
100
AcDbEntity
  8
0
100
AcDbLine
 62
250
  6
CONTINUOUS
 10
14.0498743846
 20
-5.8952380657
 11
12.7498743846
 21
-5.8952380657
  0
LINE
  5
33F
100
AcDbEntity
  8
CURVE
100
AcDbLine
 62
250
  6
CONTINUOUS
 10
2.7799889554
 20
-8.71666646
 11
3.1513892583
 21
-8.8095238686
  0
LINE
  5
340
100
AcDbEntity
  8
CURVE
100
AcDbLine
 62
250
  6
CONTINUOUS
 10
0.0087714571
 20
-7.7261903286
 11
0.1944715892
 21
-7.8190477371
  0
LINE
  5
341
100
AcDbEntity
  8
0
100
AcDbLine
 62
250
  6
CONTINUOUS
 10
13.4927315219
 20
-14.128571412
 11
12.7498743846
 21
-13.7571428239
  0
LINE
  5
342
100
AcDbEntity
  8
CURVE
100
AcDbLine
 62
250
  6
CONTINUOUS
 10
0.9372721755
 20
-7.2619045258
 11
0.7515720241
 21
-7.1690477371
  0
LINE
  5
343
100
AcDbEntity
  8
CURVE
100
AcDbLine
 62
250
  6
CONTINUOUS
 10
-0.1769286749
 20
-10.8523809671
 11
0.0087714571
 21
-11.0380951643
  0
LINE
  5
344
100
AcDbEntity
  8
CURVE
100
AcDbLine
 62
250
  6
CONTINUOUS
 10
2.2228885593
 20
-13.05
 11
2.4085886913
 21
-13.2357143521
  0
LINE
  5
345
100
AcDbEntity
  8
CURVE
100
AcDbLine
 62
250
  6
CONTINUOUS
 10
2.2228885593
 20
-10.7595238686
 11
2.5942888234
 21
-11.1309522629
  0
LINE
  5
346
100
AcDbEntity
  8
RACCORDO
100
AcDbLine
 62
7
  6
CONTINUOUS
 10
-3.6498814826
 20
-18.9
 11
-3.6571030225
 21
-18.8590446123
  0
LINE
  5
347
100
AcDbEntity
  8
ASSI
100
AcDbLine
 62
7
  6
CONTINUOUS
 10
-3.6498814826
 20
-18.9
 11
-3.6571030225
 21
-18.8590446123
  0
LINE
  5
348
100
AcDbEntity
  8
DRAFT
100
AcDbLine
 62
7
  6
CONTINUOUS
 10
-4.2413980829
 20
21.199923836
 11
-4.2501256154
 21
22.2
  0
LINE
  5
349
100
AcDbEntity
  8
0
100
AcDbLine
 62
250
  6
CONTINUOUS
 10
-4.65209619
 20
12.0085272007
 11
-4.65209619
 21
12.1196482155
  0
LINE
  5
34A
100
AcDbEntity
  8
0
100
AcDbLine
 62
250
  6
CONTINUOUS
 10
-4.65209619
 20
13.2763980551
 11
-4.65209619
 21
13.3875180284
  0
LINE
  5
34B
100
AcDbEntity
  8
0
100
AcDbLine
 62
250
  6
CONTINUOUS
 10
-4.6520909829
 20
13.7055897345
 11
-4.6520909829
 21
14.4734009208
  0
LINE
  5
34C
100
AcDbEntity
  8
0
100
AcDbLine
 62
250
  6
CONTINUOUS
 10
-4.6504125088
 20
4.897904
 11
-4.6504125088
 21
5.152533
  0
LINE
  5
34D
100
AcDbEntity
  8
0
100
AcDbLine
 62
250
  6
CONTINUOUS
 10
-4.6504125088
 20
6.105488
 11
-4.6504125088
 21
6.332387
  0
LINE
  5
34E
100
AcDbEntity
  8
0
100
AcDbLine
 62
250
  6
CONTINUOUS
 10
-4.6504125088
 20
6.834015
 11
-4.6504125088
 21
8.076887
  0
LINE
  5
34F
100
AcDbEntity
  8
0
100
AcDbLine
 62
250
  6
CONTINUOUS
 10
-4.6504125088
 20
10.14156
 11
-4.6504125088
 21
11.384415
  0
LINE
  5
350
100
AcDbEntity
  8
0
100
AcDbLine
 62
250
  6
CONTINUOUS
 10
-4.6504075091
 20
8.28862
 11
-4.6504075091
 21
8.548249
  0
LINE
  5
351
100
AcDbEntity
  8
0
100
AcDbLine
 62
250
  6
CONTINUOUS
 10
-4.6504075091
 20
9.586932
 11
-4.6504075091
 21
9.836527
  0
LINE
  5
352
100
AcDbEntity
  8
0
100
AcDbLine
 62
250
  6
CONTINUOUS
 10
-4.5561134319
 20
14.4658073268
 11
-4.5561134319
 21
13.8167794885
  0
LINE
  5
353
100
AcDbEntity
  8
0
100
AcDbLine
 62
250
  6
CONTINUOUS
 10
-4.4487488671
 20
11.384415
 11
-4.4487488671
 21
10.381053
  0
LINE
  5
354
100
AcDbEntity
  8
0
100
AcDbLine
 62
250
  6
CONTINUOUS
 10
-4.4487488671
 20
8.076887
 11
-4.4487488671
 21
7.073526
  0
LINE
  5
355
100
AcDbEntity
  8
0
100
AcDbLine
 62
250
  6
CONTINUOUS
 10
-3.8765174472
 20
7.073526
 11
-3.8765174472
 21
8.008818
  0
LINE
  5
356
100
AcDbEntity
  8
0
100
AcDbLine
 62
250
  6
CONTINUOUS
 10
-3.8765174472
 20
10.381053
 11
-3.8765174472
 21
11.316398
  0
LINE
  5
357
100
AcDbEntity
  8
DRAFT
100
AcDbLine
 62
7
  6
CONTINUOUS
 10
-4.2413980829
 20
-21.199923836
 11
-4.2501256154
 21
-22.2
  0
LWPOLYLINE
  5
358
100
AcDbEntity
  8
0
100
AcDbPolyline
 62
250
  6
CONTINUOUS
 90
85
 70
0
 10
-4.5561134319
 20
14.4658073268
 10
-4.5559315512
 20
14.482489976
 10
-4.5553635608
 20
14.4991926597
 10
-4.5543759384
 20
14.5158928614
 10
-4.5529351615
 20
14.5325680645
 10
-4.5510077077
 20
14.5491957525
 10
-4.5485600546
 20
14.5657534087
 10
-4.5455586799
 20
14.5822185167
 10
-4.541970061
 20
14.5985685597
 10
-4.5377606755
 20
14.6147810214
 10
-4.5328970012
 20
14.6308333851
 10
-4.5279097906
 20
14.6451971633
 10
-4.522364088
 20
14.6593784415
 10
-4.516264414
 20
14.6733442
 10
-4.5096152892
 20
14.6870614193
 10
-4.5024212343
 20
14.7004970797
 10
-4.4946867698
 20
14.7136181616
 10
-4.4864164164
 20
14.7263916454
 10
-4.4776146946
 20
14.7387845114
 10
-4.4682861252
 20
14.7507637401
 10
-4.4584352286
 20
14.7622963117
 10
-4.4480665256
 20
14.7733492068
 10
-4.4372569044
 20
14.7838322067
 10
-4.4259721435
 20
14.793808398
 10
-4.4142441587
 20
14.8032774453
 10
-4.4021048659
 20
14.812239013
 10
-4.3895861811
 20
14.8206927659
 10
-4.37672002
 20
14.8286383683
 10
-4.3635382986
 20
14.8360754848
 10
-4.3500729327
 20
14.8430037801
 10
-4.3363558382
 20
14.8494229186
 10
-4.322418931
 20
14.8553325648
 10
-4.308294127
 20
14.8607323834
 10
-4.2925561887
 20
14.8660898044
 10
-4.2766476943
 20
14.8708353914
 10
-4.260587248
 20
14.8749759933
 10
-4.2443934544
 20
14.8785184594
 10
-4.2280849179
 20
14.8814696387
 10
-4.211680243
 20
14.8838363803
 10
-4.195198034
 20
14.8856255333
 10
-4.1786568955
 20
14.8868439468
 10
-4.1620754318
 20
14.88749847
 10
-4.1454722475
 20
14.8875959519
 10
-4.1288799462
 20
14.887140459
 10
-4.1123099655
 20
14.886122394
 10
-4.0957877373
 20
14.884528525
 10
-4.0793386935
 20
14.8823456205
 10
-4.0629882662
 20
14.8795604486
 10
-4.0467618873
 20
14.8761597778
 10
-4.0306849887
 20
14.8721303763
 10
-4.0147830024
 20
14.8674590125
 10
-3.9990813603
 20
14.8621324545
 10
-3.9836054945
 20
14.8561374708
 10
-3.9697781159
 20
14.8501102084
 10
-3.956185689
 20
14.8435320623
 10
-3.9428562429
 20
14.8364136368
 10
-3.9298178066
 20
14.8287655366
 10
-3.9170984091
 20
14.820598366
 10
-3.9047260795
 20
14.8119227294
 10
-3.8927288467
 20
14.8027492315
 10
-3.8811347397
 20
14.7930884765
 10
-3.8699717877
 20
14.7829510691
 10
-3.8592680196
 20
14.7723476136
 10
-3.8490514645
 20
14.7612887145
 10
-3.8392692158
 20
14.7496937947
 10
-3.8300089649
 20
14.7376766107
 10
-3.8212691433
 20
14.725266924
 10
-3.8130481824
 20
14.7124944965
 10
-3.8053445137
 20
14.69938909
 10
-3.7981565687
 20
14.6859804661
 10
-3.7914827788
 20
14.6722983866
 10
-3.7853215756
 20
14.6583726133
 10
-3.7796713904
 20
14.6442329078
 10
-3.7745306547
 20
14.629909032
 10
-3.7698978
 20
14.6154307475
 10
-3.765375772
 20
14.5993330502
 10
-3.7614418842
 20
14.5831023959
 10
-3.7580697241
 20
14.5667571219
 10
-3.7552328791
 20
14.5503155653
 10
-3.7529049369
 20
14.5337960633
 10
-3.7510594848
 20
14.517216953
 10
-3.7496701105
 20
14.5005965716
 10
-3.7487104015
 20
14.4839532563
 10
-3.7481539453
 20
14.4673053443
 10
-3.7479743293
 20
14.4506711726
  0
LWPOLYLINE
  5
359
100
AcDbEntity
  8
0
100
AcDbPolyline
 62
7
  6
CONTINUOUS
 90
3
 70
0
 43
0.3500000006
 10
6.5427317619
 20
32.5357161255
 10
6.471302845
 20
32.3214271088
 10
6.3284455776
 20
32.0357159729
  0
LINE
  5
35A
100
AcDbEntity
  8
0
100
AcDbLine
 62
7
  6
CONTINUOUS
 10
-3.1306067529
 20
4.897904
 11
-2.9037247529
 21
5.124786
  0
LINE
  5
35B
100
AcDbEntity
  8
0
100
AcDbLine
 62
7
  6
CONTINUOUS
 10
-2.9205960389
 20
4.897904
 11
-2.850538584
 21
4.967961455
  0
LINE
  5
35C
100
AcDbEntity
  8
CURVE
100
AcDbLine
 62
250
  6
CONTINUOUS
 10
2.7529061945
 20
9.5571429014
 11
2.9386063653
 21
9.7428570986
  0
LINE
  5
35D
100
AcDbEntity
  8
CURVE
100
AcDbLine
 62
250
  6
CONTINUOUS
 10
3.4957068002
 20
9.2785712957
 11
3.3100066488
 21
9.0928570986
  0
LINE
  5
35E
100
AcDbEntity
  8
CURVE
100
AcDbLine
 62
250
  6
CONTINUOUS
 10
2.9386063653
 20
8.7214287043
 11
2.7529061945
 21
8.5357141972
  0
LINE
  5
35F
100
AcDbEntity
  8
CURVE
100
AcDbLine
 62
250
  6
CONTINUOUS
 10
2.5672060625
 20
6.7714285493
 11
2.3815059304
 21
6.6785714507
  0
LINE
  5
360
100
AcDbEntity
  8
CURVE
100
AcDbLine
 62
250
  6
CONTINUOUS
 10
3.1243064974
 20
6.1214285493
 11
3.3100066488
 21
6.2142857254
  0
LINE
  5
361
100
AcDbEntity
  8
0
100
AcDbLine
 62
250
  6
CONTINUOUS
 10
5.3584051457
 20
-4.568876
 11
8.7204981227
 21
-4.274826
  0
LINE
  5
362
100
AcDbEntity
  8
CURVE
100
AcDbLine
 62
250
  6
CONTINUOUS
 10
0.2873216939
 20
-5.7761903286
 11
1.0301222512
 21
-5.7761903286
  0
LINE
  5
363
100
AcDbEntity
  8
0
100
AcDbLine
 62
250
  6
CONTINUOUS
 10
11.5498743846
 20
-5.592362
 11
10.5309011854
 21
-5.592362
  0
LINE
  5
364
100
AcDbEntity
  8
CURVE
100
AcDbLine
 62
250
  6
CONTINUOUS
 10
1.1229723269
 20
-5.2190477371
 11
-0.1769286749
 21
-5.2190477371
  0
LINE
  5
365
100
AcDbEntity
  8
0
100
AcDbLine
 62
250
  6
CONTINUOUS
 10
12.7498743846
 20
-5.1523806572
 11
13.8641600906
 21
-5.1523806572
  0
LINE
  5
366
100
AcDbEntity
  8
CURVE
100
AcDbLine
 62
250
  6
CONTINUOUS
 10
-0.1769286749
 20
-4.8476193428
 11
1.1229723269
 21
-4.8476193428
  0
LINE
  5
367
100
AcDbEntity
  8
0
100
AcDbLine
 62
250
  6
CONTINUOUS
 10
13.8641600906
 20
-4.5023806572
 11
12.7498743846
 21
-4.5023806572
  0
LINE
  5
368
100
AcDbEntity
  8
CURVE
100
AcDbLine
 62
250
  6
CONTINUOUS
 10
0.2873216939
 20
-4.2904761314
 11
0.0087714571
 21
-4.2904761314
  0
LINE
  5
369
100
AcDbEntity
  8
0
100
AcDbLine
 62
250
  6
CONTINUOUS
 10
5.3584051457
 20
-4.281784
 11
4.9638021716
 21
-4.281784
  0
LINE
  5
36A
100
AcDbEntity
  8
0
100
AcDbLine
 62
250
  6
CONTINUOUS
 10
8.9169386425
 20
-4.218117
 11
8.7204981227
 21
-4.218117
  0
LINE
  5
36B
100
AcDbEntity
  8
CURVE
100
AcDbLine
 62
250
  6
CONTINUOUS
 10
0.9372721755
 20
-4.1976193428
 11
0.6587219581
 21
-4.1976193428
  0
LINE
  5
36C
100
AcDbEntity
  8
0
100
AcDbLine
 62
250
  6
CONTINUOUS
 10
4.9638021716
 20
-4.18241
 11
5.3584051457
 21
-4.18241
  0
LINE
  5
36D
100
AcDbEntity
  8
0
100
AcDbLine
 62
250
  6
CONTINUOUS
 10
14.0498743846
 20
-4.1309522629
 11
12.7498743846
 21
-4.1309522629
  0
LINE
  5
36E
100
AcDbEntity
  8
0
100
AcDbLine
 62
250
  6
CONTINUOUS
 10
8.7204981227
 20
-4.100497
 11
8.9169386425
 21
-4.100497
  0
LINE
  5
36F
100
AcDbEntity
  8
CURVE
100
AcDbLine
 62
250
  6
CONTINUOUS
 10
2.5014387961
 20
-7.41666646
 11
2.2228885593
 21
-7.2309522629
  0
LINE
  5
370
100
AcDbEntity
  8
CURVE
100
AcDbLine
 62
250
  6
CONTINUOUS
 10
2.5942888234
 20
-6.76666646
 11
3.5227895611
 21
-7.41666646
  0
LINE
  5
371
100
AcDbEntity
  8
CURVE
100
AcDbLine
 62
250
  6
CONTINUOUS
 10
-0.1769286749
 20
-7.5404761314
 11
0.0087714571
 21
-7.7261903286
  0
LINE
  5
372
100
AcDbEntity
  8
CURVE
100
AcDbLine
 62
250
  6
CONTINUOUS
 10
2.5014387961
 20
-10.2023809671
 11
2.2228885593
 21
-9.9238096714
  0
LINE
  5
373
100
AcDbEntity
  8
CURVE
100
AcDbLine
 62
250
  6
CONTINUOUS
 10
2.4085886913
 20
-9.36666646
 11
2.2228885593
 21
-9.1809522629
  0
LINE
  5
374
100
AcDbEntity
  8
CURVE
100
AcDbLine
 62
250
  6
CONTINUOUS
 10
3.3370894097
 20
-9.7380954742
 11
3.5227895611
 21
-9.9238096714
  0
LINE
  5
375
100
AcDbEntity
  8
CURVE
100
AcDbLine
 62
250
  6
CONTINUOUS
 10
1.1229723269
 20
-7.4476193428
 11
0.9372721755
 21
-7.2619045258
  0
LINE
  5
376
100
AcDbEntity
  8
CURVE
100
AcDbLine
 62
250
  6
CONTINUOUS
 10
3.1513892583
 20
-8.8095238686
 11
3.5227895611
 21
-9.1809522629
  0
LWPOLYLINE
  5
377
100
AcDbEntity
  8
0
100
AcDbPolyline
 62
250
  6
CONTINUOUS
 90
54
 70
0
 10
-3.6519967783
 20
14.4330104165
 10
-3.6521858142
 20
14.4526190777
 10
-3.6527640429
 20
14.4722293156
 10
-3.6537481454
 20
14.4918306079
 10
-3.655154803
 20
14.5114124325
 10
-3.6570006968
 20
14.5309642671
 10
-3.6593025079
 20
14.5504755896
 10
-3.6620769177
 20
14.5699358778
 10
-3.6653406072
 20
14.5893346093
 10
-3.6691102576
 20
14.6086612621
 10
-3.6734025501
 20
14.627905314
 10
-3.6782341658
 20
14.6470562427
 10
-3.6823487284
 20
14.6617838376
 10
-3.6868055769
 20
14.6764283184
 10
-3.6916148984
 20
14.6909684778
 10
-3.6967868797
 20
14.7053831084
 10
-3.7023317076
 20
14.7196510032
 10
-3.7082595691
 20
14.7337509549
 10
-3.7145806511
 20
14.7476617562
 10
-3.7213051404
 20
14.7613621998
 10
-3.728443224
 20
14.7748310786
 10
-3.7360050888
 20
14.7880471854
 10
-3.7440009215
 20
14.8009893128
 10
-3.7524409093
 20
14.8136362536
 10
-3.7613352388
 20
14.8259668006
 10
-3.7706940971
 20
14.8379597466
 10
-3.7804143056
 20
14.8494722887
 10
-3.7905788143
 20
14.8606226124
 10
-3.8011673661
 20
14.8713996291
 10
-3.8121597042
 20
14.8817922506
 10
-3.8235355716
 20
14.8917893885
 10
-3.8352747112
 20
14.9013799543
 10
-3.8473568662
 20
14.9105528597
 10
-3.8597617796
 20
14.9192970163
 10
-3.8724691943
 20
14.9276013357
 10
-3.8854588535
 20
14.9354547295
 10
-3.8987105001
 20
14.9428461094
 10
-3.9122038773
 20
14.9497643869
 10
-3.925918728
 20
14.9561984737
 10
-3.9398347952
 20
14.9621372813
 10
-3.9539706711
 20
14.9675879142
 10
-3.9682724937
 20
14.9725439904
 10
-3.9827242763
 20
14.9770200461
 10
-3.997310032
 20
14.9810306174
 10
-4.012013774
 20
14.9845902406
 10
-4.0268195155
 20
14.9877134517
 10
-4.0417112697
 20
14.9904147869
 10
-4.0566730499
 20
14.9927087823
 10
-4.0716888692
 20
14.9946099742
 10
-4.0867427408
 20
14.9961328986
 10
-4.1018186779
 20
14.9972920916
 10
-4.1169006937
 20
14.9981020896
 10
-4.1319728014
 20
14.9985774285
 10
-4.1470190142
 20
14.9987326445
  0
LINE
  5
378
100
AcDbEntity
  8
0
100
AcDbLine
 62
250
  6
CONTINUOUS
 10
-3.7479743293
 20
13.8167794885
 11
-3.7479743293
 21
14.4506711726
  0
LINE
  5
379
100
AcDbEntity
  8
0
100
AcDbLine
 62
250
  6
CONTINUOUS
 10
-3.6748368069
 20
11.316398
 11
-3.6748368069
 21
10.381053
  0
LINE
  5
37A
100
AcDbEntity
  8
0
100
AcDbLine
 62
250
  6
CONTINUOUS
 10
-3.6748368069
 20
8.008818
 11
-3.6748368069
 21
7.073526
  0
LINE
  5
37B
100
AcDbEntity
  8
0
100
AcDbLine
 62
250
  6
CONTINUOUS
 10
-3.6519967783
 20
14.4330104165
 11
-3.6519967783
 21
13.8167794885
  0
LINE
  5
37C
100
AcDbEntity
  8
0
100
AcDbLine
 62
250
  6
CONTINUOUS
 10
-3.0522022256
 20
7.073526
 11
-3.0522022256
 21
8.084446
  0
LINE
  5
37D
100
AcDbEntity
  8
0
100
AcDbLine
 62
250
  6
CONTINUOUS
 10
-3.0522022256
 20
10.381053
 11
-3.0522022256
 21
11.392007
  0
LINE
  5
37E
100
AcDbEntity
  8
0
100
AcDbLine
 62
250
  6
CONTINUOUS
 10
-2.850538584
 20
11.392007
 11
-2.850538584
 21
10.14156
  0
LINE
  5
37F
100
AcDbEntity
  8
0
100
AcDbLine
 62
250
  6
CONTINUOUS
 10
-2.850538584
 20
8.084446
 11
-2.850538584
 21
6.834015
  0
LINE
  5
380
100
AcDbEntity
  8
0
100
AcDbLine
 62
250
  6
CONTINUOUS
 10
-2.850538584
 20
6.332387
 11
-2.850538584
 21
6.070199
  0
LINE
  5
381
100
AcDbEntity
  8
0
100
AcDbLine
 62
250
  6
CONTINUOUS
 10
-2.850538584
 20
5.124786
 11
-2.850538584
 21
4.897904
  0
LINE
  5
382
100
AcDbEntity
  8
0
100
AcDbLine
 62
250
  6
CONTINUOUS
 10
-2.8505335843
 20
9.196167
 11
-2.8505335843
 21
8.923912
  0
LINE
  5
383
100
AcDbEntity
  8
0
100
AcDbLine
 62
250
  6
CONTINUOUS
 10
-2.8489247197
 20
13.8167794885
 11
-2.8489247197
 21
13.7055897345
  0
LWPOLYLINE
  5
384
100
AcDbEntity
  8
0
100
AcDbPolyline
 62
7
  6
CONTINUOUS
 90
4
 70
0
 43
0.3500000006
 10
-2.1358398671
 20
42.6785724792
 10
-2.1358398671
 20
43.5357149506
 10
-1.7072684898
 20
43.9642839203
 10
-1.0644113531
 20
43.9642839203
  0
LWPOLYLINE
  5
385
100
AcDbEntity
  8
0
100
AcDbPolyline
 62
250
  6
CONTINUOUS
 90
56
 70
0
 10
-2.9019433083
 20
12.6854204356
 10
-2.902121724
 20
12.6675414861
 10
-2.9026700599
 20
12.6496169679
 10
-2.9036079487
 20
12.6316698332
 10
-2.9049550234
 20
12.6137230338
 10
-2.9067309168
 20
12.5957995218
 10
-2.9089552619
 20
12.5779222492
 10
-2.9116476916
 20
12.560114168
 10
-2.9148278387
 20
12.5423982301
 10
-2.9185153361
 20
12.5247973877
 10
-2.9227298167
 20
12.5073345926
 10
-2.9274909135
 20
12.4900327969
 10
-2.9328182593
 20
12.4729149525
 10
-2.938731487
 20
12.4560040115
 10
-2.9452502295
 20
12.4393229259
 10
-2.9514358511
 20
12.4249952939
 10
-2.9580919086
 20
12.4108790869
 10
-2.9652142873
 20
12.3969938234
 10
-2.9727988726
 20
12.3833590218
 10
-2.9808415497
 20
12.3699942007
 10
-2.9893382039
 20
12.3569188785
 10
-2.9982847204
 20
12.3441525738
 10
-3.0076769846
 20
12.3317148049
 10
-3.017575035
 20
12.3195434059
 10
-3.0279001575
 20
12.3077296247
 10
-3.038631898
 20
12.2962783801
 10
-3.0497498027
 20
12.2851945913
 10
-3.0612334174
 20
12.2744831771
 10
-3.0730622882
 20
12.2641490566
 10
-3.0852159611
 20
12.2541971486
 10
-3.0976739822
 20
12.2446323721
 10
-3.11221203
 20
12.2342135645
 10
-3.1270966198
 20
12.2243059972
 10
-3.1423058765
 20
12.2149121367
 10
-3.1578179253
 20
12.2060344494
 10
-3.1736108914
 20
12.1976754016
 10
-3.1896628999
 20
12.1898374599
 10
-3.2059520758
 20
12.1825230904
 10
-3.2223990696
 20
12.1757531516
 10
-3.2390403797
 20
12.1694820114
 10
-3.255856527
 20
12.1636860877
 10
-3.2728280323
 20
12.1583417985
 10
-3.2899354166
 20
12.1534255618
 10
-3.3071592008
 20
12.1489137956
 10
-3.3244799056
 20
12.1447829178
 10
-3.3465659719
 20
12.1400580363
 10
-3.3687625501
 20
12.1358864154
 10
-3.3910555237
 20
12.1322462955
 10
-3.4134307763
 20
12.1291159169
 10
-3.4358741915
 20
12.12647352
 10
-3.4583716528
 20
12.1242973452
 10
-3.480909044
 20
12.1225656328
 10
-3.5034722485
 20
12.1212566233
 10
-3.5260471499
 20
12.120348557
 10
-3.5486196319
 20
12.1198196742
 10
-3.571175578
 20
12.1196482155
  0
LINE
  5
386
100
AcDbEntity
  8
CURVE
100
AcDbLine
 62
250
  6
CONTINUOUS
 10
2.6600561672
 20
8.13333323
 11
2.7529061945
 21
8.2571429014
  0
LINE
  5
387
100
AcDbEntity
  8
CURVE
100
AcDbLine
 62
250
  6
CONTINUOUS
 10
0.0087714571
 20
4.5190477371
 11
-0.1459786142
 21
4.33333323
  0
LINE
  5
388
100
AcDbEntity
  8
CURVE
100
AcDbLine
 62
250
  6
CONTINUOUS
 10
3.3100066488
 20
8.0714287043
 11
3.4957068002
 21
8.2571429014
  0
LINE
  5
389
100
AcDbEntity
  8
CURVE
100
AcDbLine
 62
250
  6
CONTINUOUS
 10
2.3815059304
 20
6.6785714507
 11
2.1958057984
 21
6.4928570986
  0
LINE
  5
38A
100
AcDbEntity
  8
CURVE
100
AcDbLine
 62
250
  6
CONTINUOUS
 10
0.6587219581
 20
4.6119048357
 11
0.473021826
 21
4.4261903286
  0
LINE
  5
38B
100
AcDbEntity
  8
CURVE
100
AcDbLine
 62
250
  6
CONTINUOUS
 10
3.3100066488
 20
6.2142857254
 11
3.4957068002
 21
6.4
  0
LINE
  5
38C
100
AcDbEntity
  8
CURVE
100
AcDbLine
 62
250
  6
CONTINUOUS
 10
1.1229723269
 20
3.5904761314
 11
-0.1769286749
 21
3.2190477371
  0
LWPOLYLINE
  5
38D
100
AcDbEntity
  8
0
100
AcDbPolyline
 62
250
  6
CONTINUOUS
 90
17
 70
0
 10
8.5993587355
 20
-2.952892
 10
8.6610436627
 20
-2.9468435097
 10
8.7203790302
 20
-2.9289284239
 10
8.7751047722
 20
-2.8998291227
 10
8.8239216413
 20
-2.8598714569
 10
8.863262706
 20
-2.8119750371
 10
8.8925517504
 20
-2.7573491201
 10
8.910673164
 20
-2.69807439
 10
8.9169386425
 20
-2.6353
 10
8.9108903825
 20
-2.5736127239
 10
8.8929759789
 20
-2.514275097
 10
8.8638777857
 20
-2.4595472711
 10
8.8239216413
 20
-2.4107285431
 10
8.7760270453
 20
-2.3713859804
 10
8.7214032083
 20
-2.3420958207
 10
8.6621307353
 20
-2.3239737171
 10
8.5993587077
 20
-2.317708
  0
LWPOLYLINE
  5
38E
100
AcDbEntity
  8
0
100
AcDbPolyline
 62
250
  6
CONTINUOUS
 90
17
 70
0
 10
8.5993587355
 20
-2.77581
 10
8.626649565
 20
-2.7731340089
 10
8.6529008952
 20
-2.7652079632
 10
8.6771128213
 20
-2.7523337635
 10
8.6987105261
 20
-2.7346555738
 10
8.7161159173
 20
-2.7134650969
 10
8.7290740637
 20
-2.6892973358
 10
8.7370913936
 20
-2.6630728329
 10
8.7398633853
 20
-2.6353
 10
8.737187496
 20
-2.6080081313
 10
8.7292617521
 20
-2.5817558014
 10
8.7163880427
 20
-2.5575429534
 10
8.6987105261
 20
-2.5359444262
 10
8.6775208561
 20
-2.5185383722
 10
8.6533540152
 20
-2.5055797324
 10
8.6271305109
 20
-2.4975620973
 10
8.5993587232
 20
-2.49479
  0
LWPOLYLINE
  5
38F
100
AcDbEntity
  8
0
100
AcDbPolyline
 62
250
  6
CONTINUOUS
 90
17
 70
0
 10
8.5993587355
 20
-2.49479
 10
8.572067906
 20
-2.4974659911
 10
8.5458165757
 20
-2.5053920368
 10
8.5216046496
 20
-2.5182662365
 10
8.5000069448
 20
-2.5359444262
 10
8.4826015536
 20
-2.5571349031
 10
8.4696434072
 20
-2.5813026642
 10
8.4616260774
 20
-2.6075271671
 10
8.4588540857
 20
-2.6353
 10
8.4615299749
 20
-2.6625918687
 10
8.4694557188
 20
-2.6888441986
 10
8.4823294282
 20
-2.7130570466
 10
8.5000069448
 20
-2.7346555738
 10
8.5211966148
 20
-2.7520616278
 10
8.5453634557
 20
-2.7650202676
 10
8.5715869601
 20
-2.7730379027
 10
8.5993587477
 20
-2.77581
  0
LWPOLYLINE
  5
390
100
AcDbEntity
  8
0
100
AcDbPolyline
 62
250
  6
CONTINUOUS
 90
17
 70
0
 10
8.5993587355
 20
-2.317708
 10
8.5376738083
 20
-2.3237564903
 10
8.4783384408
 20
-2.3416715761
 10
8.4236126987
 20
-2.3707708773
 10
8.3747958296
 20
-2.4107285431
 10
8.3354547649
 20
-2.4586249629
 10
8.3061657205
 20
-2.5132508799
 10
8.2880443069
 20
-2.57252561
 10
8.2817788284
 20
-2.6353
 10
8.2878270884
 20
-2.6969872761
 10
8.305741492
 20
-2.756324903
 10
8.3348396852
 20
-2.8110527289
 10
8.3747958296
 20
-2.8598714569
 10
8.4226904256
 20
-2.8992140196
 10
8.4773142626
 20
-2.9285041793
 10
8.5365867357
 20
-2.9466262829
 10
8.5993587632
 20
-2.952892
  0
LWPOLYLINE
  5
391
100
AcDbEntity
  8
0
100
AcDbPolyline
 62
250
  6
CONTINUOUS
 90
17
 70
0
 10
5.2539321239
 20
-2.402669
 10
5.2913367394
 20
-2.3990013057
 10
5.3273166248
 20
-2.3881379242
 10
5.3605013173
 20
-2.3704926384
 10
5.3901029769
 20
-2.3462630381
 10
5.4139586814
 20
-2.3172195222
 10
5.4317190241
 20
-2.2840953618
 10
5.442707519
 20
-2.2481522459
 10
5.446506791
 20
-2.210087
 10
5.4428392364
 20
-2.1726809602
 10
5.4319762685
 20
-2.1366997048
 10
5.4143316545
 20
-2.1035137487
 10
5.3901029769
 20
-2.0739109619
 10
5.3610605669
 20
-2.0500543489
 10
5.3279376677
 20
-2.03229333
 10
5.2919959204
 20
-2.0213044166
 10
5.2539321071
 20
-2.017505
  0
LWPOLYLINE
  5
392
100
AcDbEntity
  8
0
100
AcDbPolyline
 62
250
  6
CONTINUOUS
 90
17
 70
0
 10
5.2539321239
 20
-2.017505
 10
5.2165275084
 20
-2.0211726943
 10
5.1805476231
 20
-2.0320360758
 10
5.1473629306
 20
-2.0496813616
 10
5.1177612709
 20
-2.0739109619
 10
5.0939055664
 20
-2.1029544778
 10
5.0761452237
 20
-2.1360786382
 10
5.0651567288
 20
-2.1720217541
 10
5.0613574568
 20
-2.210087
 10
5.0650250115
 20
-2.2474930398
 10
5.0758879793
 20
-2.2834742952
 10
5.0935325933
 20
-2.3166602513
 10
5.1177612709
 20
-2.3462630381
 10
5.146803681
 20
-2.3701196511
 10
5.1799265801
 20
-2.38788067
 10
5.2158683274
 20
-2.3988695834
 10
5.2539321407
 20
-2.402669
  0
LINE
  5
393
100
AcDbEntity
  8
0
100
AcDbLine
 62
250
  6
CONTINUOUS
 10
6.4017914153
 20
-3.71193
 11
6.186163626
 21
-3.71193
  0
LINE
  5
394
100
AcDbEntity
  8
0
100
AcDbLine
 62
250
  6
CONTINUOUS
 10
5.0883174302
 20
-3.656927
 11
4.8708317118
 21
-3.656927
  0
LINE
  5
395
100
AcDbEntity
  8
0
100
AcDbLine
 62
250
  6
CONTINUOUS
 10
14.0498743846
 20
-3.4809522629
 11
12.7498743846
 21
-3.4809522629
  0
LINE
  5
396
100
AcDbEntity
  8
0
100
AcDbLine
 62
250
  6
CONTINUOUS
 10
4.8713896905
 20
-3.083924
 11
5.088875409
 21
-3.083924
  0
LINE
  5
397
100
AcDbEntity
  8
0
100
AcDbLine
 62
250
  6
CONTINUOUS
 10
6.186163626
 20
-2.88859
 11
6.4017914153
 21
-2.88859
  0
LINE
  5
398
100
AcDbEntity
  8
0
100
AcDbLine
 62
250
  6
CONTINUOUS
 10
14.0498743846
 20
-2.8619045258
 11
12.7498743846
 21
-2.8619045258
  0
LINE
  5
399
100
AcDbEntity
  8
0
100
AcDbLine
 62
250
  6
CONTINUOUS
 10
6.093751145
 20
-2.432113
 11
5.7213013272
 21
-2.432113
  0
LINE
  5
39A
100
AcDbEntity
  8
0
100
AcDbLine
 62
250
  6
CONTINUOUS
 10
13.1213029339
 20
-2.2738090515
 11
12.9355886592
 21
-2.2738090515
  0
LINE
  5
39B
100
AcDbEntity
  8
0
100
AcDbLine
 62
250
  6
CONTINUOUS
 10
5.7213013272
 20
-2.082053
 11
6.093751145
 21
-2.082053
  0
LINE
  5
39C
100
AcDbEntity
  8
0
100
AcDbLine
 62
250
  6
CONTINUOUS
 10
8.2823708058
 20
-2.619407
 11
5.3859560966
 21
-2.350161
  0
LINE
  5
39D
100
AcDbEntity
  8
CURVE
100
AcDbLine
 62
250
  6
CONTINUOUS
 10
0.473021826
 20
-4.4761909485
 11
0.2873216939
 21
-4.2904761314
  0
LINE
  5
39E
100
AcDbEntity
  8
CURVE
100
AcDbLine
 62
250
  6
CONTINUOUS
 10
1.1229723269
 20
-4.3833329201
 11
0.9372721755
 21
-4.1976193428
  0
LINE
  5
39F
100
AcDbEntity
  8
CURVE
100
AcDbLine
 62
250
  6
CONTINUOUS
 10
0.1944715892
 20
-5.5904761314
 11
0.2873216939
 21
-5.7761903286
  0
LINE
  5
3A0
100
AcDbEntity
  8
CURVE
100
AcDbLine
 62
250
  6
CONTINUOUS
 10
-0.1769286749
 20
11.371428588
 11
-0.1769286749
 21
11.2785714313
  0
LINE
  5
3A1
100
AcDbEntity
  8
CURVE
100
AcDbLine
 62
250
  6
CONTINUOUS
 10
-0.1769286749
 20
6.3761903286
 11
-0.1769286749
 21
5.8190477371
  0
LINE
  5
3A2
100
AcDbEntity
  8
CURVE
100
AcDbLine
 62
250
  6
CONTINUOUS
 10
-0.1769286749
 20
4.2404761314
 11
-0.1769286749
 21
3.9619048357
  0
LINE
  5
3A3
100
AcDbEntity
  8
CURVE
100
AcDbLine
 62
250
  6
CONTINUOUS
 10
-0.1769286749
 20
2.3214285493
 11
-0.1769286749
 21
1.95
  0
LINE
  5
3A4
100
AcDbEntity
  8
CURVE
100
AcDbLine
 62
250
  6
CONTINUOUS
 10
-0.1769286749
 20
-4.5690477371
 11
-0.1769286749
 21
-4.8476193428
  0
LINE
  5
3A5
100
AcDbEntity
  8
CURVE
100
AcDbLine
 62
250
  6
CONTINUOUS
 10
-0.1769286749
 20
-7.4476193428
 11
-0.1769286749
 21
-7.5404761314
  0
LINE
  5
3A6
100
AcDbEntity
  8
CURVE
100
AcDbLine
 62
250
  6
CONTINUOUS
 10
-0.1769286749
 20
-9.2119045258
 11
-0.1769286749
 21
-9.9547619343
  0
LINE
  5
3A7
100
AcDbEntity
  8
CURVE
100
AcDbLine
 62
250
  6
CONTINUOUS
 10
-0.1769286749
 20
-10.4809522629
 11
-0.1769286749
 21
-10.8523809671
  0
LINE
  5
3A8
100
AcDbEntity
  8
CURVE
100
AcDbLine
 62
250
  6
CONTINUOUS
 10
-0.1769286749
 20
-11.4095238686
 11
-0.1769286749
 21
-11.96666677
  0
LINE
  5
3A9
100
AcDbEntity
  8
CURVE
100
AcDbLine
 62
250
  6
CONTINUOUS
 10
-0.1769286749
 20
-12.5238095164
 11
-0.1769286749
 21
-12.9880951643
  0
LINE
  5
3AA
100
AcDbEntity
  8
CURVE
100
AcDbLine
 62
250
  6
CONTINUOUS
 10
-0.1769286749
 20
-14.5357142746
 11
-0.1769286749
 21
-15.0
  0
LINE
  5
3AB
100
AcDbEntity
  8
CURVE
100
AcDbLine
 62
250
  6
CONTINUOUS
 10
-0.1769286749
 20
12.2071428239
 11
-0.1769286749
 21
12.4857143521
  0
LINE
  5
3AC
100
AcDbEntity
  8
CURVE
100
AcDbLine
 62
250
  6
CONTINUOUS
 10
-0.1769286749
 20
13.0428570986
 11
-0.1769286749
 21
13.4142856479
  0
LINE
  5
3AD
100
AcDbEntity
  8
CURVE
100
AcDbLine
 62
250
  6
CONTINUOUS
 10
-0.1769286749
 20
14.7142858028
 11
-0.1769286749
 21
15.0857141972
  0
LINE
  5
3AE
100
AcDbEntity
  8
DRAFT
100
AcDbLine
 62
7
  6
CONTINUOUS
 10
0.1498743846
 20
-19.9483339502
 11
0.1498743846
 21
-19.8
  0
LINE
  5
3AF
100
AcDbEntity
  8
DRAFT
100
AcDbLine
 62
7
  6
CONTINUOUS
 10
0.1498743846
 20
19.8
 11
0.1498743846
 21
19.9483339502
  0
LINE
  5
3B0
100
AcDbEntity
  8
CURVE
100
AcDbLine
 62
250
  6
CONTINUOUS
 10
0.1944715892
 20
-5.2190477371
 11
0.1944715892
 21
-5.5904761314
  0
LINE
  5
3B1
100
AcDbEntity
  8
CURVE
100
AcDbLine
 62
250
  6
CONTINUOUS
 10
-0.1459786142
 20
4.33333323
 11
-0.1769286749
 21
4.2404761314
  0
LINE
  5
3B2
100
AcDbEntity
  8
CURVE
100
AcDbLine
 62
250
  6
CONTINUOUS
 10
0.9372721755
 20
1.7642856479
 11
1.1229723269
 21
1.95
  0
LINE
  5
3B3
100
AcDbEntity
  8
CURVE
100
AcDbLine
 62
250
  6
CONTINUOUS
 10
2.514532993
 20
1.5833332896
 11
2.3770435295
 21
1.4916667104
  0
LINE
  5
3B4
100
AcDbEntity
  8
CURVE
100
AcDbLine
 62
250
  6
CONTINUOUS
 10
2.789512051
 20
0.4375
 11
3.018661277
 21
0.4833333388
  0
LINE
  5
3B5
100
AcDbEntity
  8
0
100
AcDbLine
 62
250
  6
CONTINUOUS
 10
13.8641600906
 20
-1.6238090515
 11
13.6784457966
 21
-1.6238090515
  0
LINE
  5
3B6
100
AcDbEntity
  8
CURVE
100
AcDbLine
 62
250
  6
CONTINUOUS
 10
2.2228885593
 20
-1.4785714507
 11
2.5014387961
 21
-1.4785714507
  0
LINE
  5
3B7
100
AcDbEntity
  8
0
100
AcDbLine
 62
250
  6
CONTINUOUS
 10
10.5309011854
 20
-1.407638
 11
11.5498743846
 21
-1.407638
  0
LINE
  5
3B8
100
AcDbEntity
  8
0
100
AcDbLine
 62
250
  6
CONTINUOUS
 10
14.0498743846
 20
-1.0047613144
 11
12.7498743846
 21
-1.0047613144
  0
LINE
  5
3B9
100
AcDbEntity
  8
CURVE
100
AcDbLine
 62
250
  6
CONTINUOUS
 10
2.2228885593
 20
-0.4571429014
 11
2.7799889554
 21
-0.4571429014
  0
LINE
  5
3BA
100
AcDbEntity
  8
CURVE
100
AcDbLine
 62
250
  6
CONTINUOUS
 10
2.9656891262
 20
0.1
 11
3.3370894097
 21
0.1
  0
LINE
  5
3BB
100
AcDbEntity
  8
CURVE
100
AcDbLine
 62
250
  6
CONTINUOUS
 10
3.5227895611
 20
-1.2
 11
2.2228885593
 21
-0.8285714507
  0
LINE
  5
3BC
100
AcDbEntity
  8
CURVE
100
AcDbLine
 62
250
  6
CONTINUOUS
 10
3.5227895611
 20
-2.5
 11
2.2228885593
 21
-1.85
  0
LINE
  5
3BD
100
AcDbEntity
  8
CURVE
100
AcDbLine
 62
250
  6
CONTINUOUS
 10
-0.1769286749
 20
0.371428588
 11
0.1944715892
 21
0.0
  0
LINE
  5
3BE
100
AcDbEntity
  8
CURVE
100
AcDbLine
 62
250
  6
CONTINUOUS
 10
0.3801717212
 20
-11.96666677
 11
0.3801717212
 21
-11.5952380657
  0
LINE
  5
3BF
100
AcDbEntity
  8
CURVE
100
AcDbLine
 62
250
  6
CONTINUOUS
 10
0.3801717212
 20
5.8190477371
 11
0.3801717212
 21
6.1904761314
  0
LINE
  5
3C0
100
AcDbEntity
  8
CURVE
100
AcDbLine
 62
250
  6
CONTINUOUS
 10
0.3801717212
 20
13.2285714507
 11
0.3801717212
 21
13.4142856479
  0
LINE
  5
3C1
100
AcDbEntity
  8
CURVE
100
AcDbLine
 62
250
  6
CONTINUOUS
 10
0.3801717212
 20
14.9
 11
0.3801717212
 21
15.0857141972
  0
LINE
  5
3C2
100
AcDbEntity
  8
CURVE
100
AcDbLine
 62
250
  6
CONTINUOUS
 10
0.473021826
 20
-4.8476193428
 11
0.473021826
 21
-4.3833329201
  0
LINE
  5
3C3
100
AcDbEntity
  8
CURVE
100
AcDbLine
 62
250
  6
CONTINUOUS
 10
0.473021826
 20
3.9619048357
 11
0.473021826
 21
4.4261903286
  0
LINE
  5
3C4
100
AcDbEntity
  8
CURVE
100
AcDbLine
 62
250
  6
CONTINUOUS
 10
0.565871892
 20
12.6095238686
 11
0.565871892
 21
12.2071428239
  0
LINE
  5
3C5
100
AcDbEntity
  8
CURVE
100
AcDbLine
 62
250
  6
CONTINUOUS
 10
0.565871892
 20
-12.9880951643
 11
0.565871892
 21
-12.5238095164
  0
LINE
  5
3C6
100
AcDbEntity
  8
CURVE
100
AcDbLine
 62
250
  6
CONTINUOUS
 10
0.7515720241
 20
3.46666677
 11
0.7515720241
 21
2.9714287043
  0
LINE
  5
3C7
100
AcDbEntity
  8
CURVE
100
AcDbLine
 62
250
  6
CONTINUOUS
 10
1.1229723269
 20
15.1785712957
 11
1.1229723269
 21
14.7142858028
  0
LINE
  5
3C8
100
AcDbEntity
  8
CURVE
100
AcDbLine
 62
250
  6
CONTINUOUS
 10
1.1229723269
 20
13.5071429014
 11
1.1229723269
 21
13.0428570986
  0
LINE
  5
3C9
100
AcDbEntity
  8
CURVE
100
AcDbLine
 62
250
  6
CONTINUOUS
 10
1.1229723269
 20
6.3761903286
 11
1.1229723269
 21
5.8190477371
  0
LINE
  5
3CA
100
AcDbEntity
  8
CURVE
100
AcDbLine
 62
250
  6
CONTINUOUS
 10
1.1229723269
 20
5.4476193428
 11
1.1229723269
 21
4.98333323
  0
LINE
  5
3CB
100
AcDbEntity
  8
CURVE
100
AcDbLine
 62
250
  6
CONTINUOUS
 10
1.1229723269
 20
-11.4095238686
 11
1.1229723269
 21
-11.96666677
  0
LINE
  5
3CC
100
AcDbEntity
  8
CURVE
100
AcDbLine
 62
250
  6
CONTINUOUS
 10
1.1229723269
 20
-15.0
 11
1.1229723269
 21
-14.5357142746
  0
LINE
  5
3CD
100
AcDbEntity
  8
CURVE
100
AcDbLine
 62
250
  6
CONTINUOUS
 10
1.1229723269
 20
-10.8523809671
 11
1.1229723269
 21
-10.4809522629
  0
LINE
  5
3CE
100
AcDbEntity
  8
CURVE
100
AcDbLine
 62
250
  6
CONTINUOUS
 10
1.1229723269
 20
-7.5404761314
 11
1.1229723269
 21
-7.4476193428
  0
LINE
  5
3CF
100
AcDbEntity
  8
CURVE
100
AcDbLine
 62
250
  6
CONTINUOUS
 10
1.1229723269
 20
-5.5904761314
 11
1.1229723269
 21
-5.2190477371
  0
LINE
  5
3D0
100
AcDbEntity
  8
CURVE
100
AcDbLine
 62
250
  6
CONTINUOUS
 10
1.1229723269
 20
-4.8476193428
 11
1.1229723269
 21
-4.3833329201
  0
LINE
  5
3D1
100
AcDbEntity
  8
CURVE
100
AcDbLine
 62
250
  6
CONTINUOUS
 10
1.1229723269
 20
1.95
 11
1.1229723269
 21
2.3214285493
  0
LINE
  5
3D2
100
AcDbEntity
  8
CURVE
100
AcDbLine
 62
250
  6
CONTINUOUS
 10
1.1229723269
 20
3.9619048357
 11
1.1229723269
 21
4.4261903286
  0
LINE
  5
3D3
100
AcDbEntity
  8
CURVE
100
AcDbLine
 62
250
  6
CONTINUOUS
 10
1.1229723269
 20
11.2785714313
 11
1.1229723269
 21
11.371428588
  0
LINE
  5
3D4
100
AcDbEntity
  8
CURVE
100
AcDbLine
 62
250
  6
CONTINUOUS
 10
2.1958057984
 20
8.5357141972
 11
2.1958057984
 21
8.2571429014
  0
LINE
  5
3D5
100
AcDbEntity
  8
CURVE
100
AcDbLine
 62
250
  6
CONTINUOUS
 10
2.1958057984
 20
6.4928570986
 11
2.1958057984
 21
6.4
  0
LINE
  5
3D6
100
AcDbEntity
  8
CURVE
100
AcDbLine
 62
250
  6
CONTINUOUS
 10
2.1958057984
 20
10.3
 11
2.1958057984
 21
10.5785716057
  0
LINE
  5
3D7
100
AcDbEntity
  8
CURVE
100
AcDbLine
 62
250
  6
CONTINUOUS
 10
2.2228885593
 20
0.1
 11
2.2228885593
 21
-0.4571429014
  0
LINE
  5
3D8
100
AcDbEntity
  8
CURVE
100
AcDbLine
 62
250
  6
CONTINUOUS
 10
2.2228885593
 20
-0.8285714507
 11
2.2228885593
 21
-1.4785714507
  0
LINE
  5
3D9
100
AcDbEntity
  8
CURVE
100
AcDbLine
 62
250
  6
CONTINUOUS
 10
2.2228885593
 20
-1.85
 11
2.2228885593
 21
-2.5
  0
LINE
  5
3DA
100
AcDbEntity
  8
CURVE
100
AcDbLine
 62
250
  6
CONTINUOUS
 10
2.2228885593
 20
-12.6785714507
 11
2.2228885593
 21
-13.05
  0
LINE
  5
3DB
100
AcDbEntity
  8
CURVE
100
AcDbLine
 62
250
  6
CONTINUOUS
 10
2.2228885593
 20
-13.6071429014
 11
2.2228885593
 21
-14.1642857254
  0
LINE
  5
3DC
100
AcDbEntity
  8
CURVE
100
AcDbLine
 62
250
  6
CONTINUOUS
 10
2.2228885593
 20
-9.1809522629
 11
2.2228885593
 21
-8.9023806572
  0
LINE
  5
3DD
100
AcDbEntity
  8
CURVE
100
AcDbLine
 62
250
  6
CONTINUOUS
 10
2.2228885593
 20
-7.2309522629
 11
2.2228885593
 21
-6.9523806572
  0
LINE
  5
3DE
100
AcDbEntity
  8
CURVE
100
AcDbLine
 62
250
  6
CONTINUOUS
 10
2.19372407
 20
1.2166666448
 11
2.1478942707
 21
1.0333333552
  0
LINE
  5
3DF
100
AcDbEntity
  8
CURVE
100
AcDbLine
 62
250
  6
CONTINUOUS
 10
-0.1459786142
 20
-4.4761909485
 11
-0.1769286749
 21
-4.5690477371
  0
LINE
  5
3E0
100
AcDbEntity
  8
CURVE
100
AcDbLine
 62
250
  6
CONTINUOUS
 10
2.2853837997
 20
1.4
 11
2.19372407
 21
1.2166666448
  0
LWPOLYLINE
  5
3E1
100
AcDbEntity
  8
0
100
AcDbPolyline
 62
250
  6
CONTINUOUS
 90
37
 70
0
 10
7.4860107333
 20
5.0574526837
 10
7.4631637739
 20
5.0340054799
 10
7.440869899
 20
5.0101012262
 10
7.4191310418
 20
4.985747003
 10
7.3979491357
 20
4.9609498908
 10
7.3773261137
 20
4.9357169698
 10
7.3572639092
 20
4.9100553204
 10
7.3377653636
 20
4.8839720951
 10
7.3188369513
 20
4.8574747341
 10
7.300486055
 20
4.8305707499
 10
7.2827200575
 20
4.8032676546
 10
7.2655463413
 20
4.7755729608
 10
7.2489722893
 20
4.7474941806
 10
7.2330058869
 20
4.7190400451
 10
7.2176575317
 20
4.6902241594
 10
7.2029382239
 20
4.6610613476
 10
7.1888589639
 20
4.6315664335
 10
7.1754307519
 20
4.6017542409
 10
7.1626645885
 20
4.5716395938
 10
7.1505701881
 20
4.5412393518
 10
7.1391521233
 20
4.510578518
 10
7.1284136806
 20
4.479684131
 10
7.1183581469
 20
4.4485832298
 10
7.1089888086
 20
4.417302853
 10
7.1003089526
 20
4.3858700394
 10
7.0923209159
 20
4.3543090364
 10
7.0850232364
 20
4.3226329256
 10
7.0784135024
 20
4.2908519972
 10
7.0724893024
 20
4.2589765412
 10
7.0672482245
 20
4.227016848
 10
7.0626878571
 20
4.1949832075
 10
7.0588075888
 20
4.1628775547
 10
7.0556140095
 20
4.130668404
 10
7.0531155094
 20
4.098315914
 10
7.0513204786
 20
4.065780244
 10
7.0502373073
 20
4.0330215527
 10
7.0498743857
 20
3.9999999992
  0
LINE
  5
3E2
100
AcDbEntity
  8
CURVE
100
AcDbLine
 62
250
  6
CONTINUOUS
 10
2.3770435295
 20
1.4916667104
 11
2.2853837997
 21
1.4
  0
LINE
  5
3E3
100
AcDbEntity
  8
CURVE
100
AcDbLine
 62
250
  6
CONTINUOUS
 10
2.7799889554
 20
-0.0857143521
 11
2.9656891262
 21
0.1
  0
LINE
  5
3E4
100
AcDbEntity
  8
CURVE
100
AcDbLine
 62
250
  6
CONTINUOUS
 10
3.247810503
 20
0.575
 11
3.5227895611
 21
0.8041666776
  0
LINE
  5
3E5
100
AcDbEntity
  8
CURVE
100
AcDbLine
 62
250
  6
CONTINUOUS
 10
3.018661277
 20
0.4833333388
 11
3.247810503
 21
0.575
  0
LWPOLYLINE
  5
3E6
100
AcDbEntity
  8
0
100
AcDbPolyline
 62
250
  6
CONTINUOUS
 90
59
 70
0
 10
9.1386670586
 20
2.0881872694
 10
9.0742685643
 20
2.0695342496
 10
9.0096750707
 20
2.0531325749
 10
8.9448527842
 20
2.038966549
 10
8.8797679111
 20
2.0270204758
 10
8.8143866575
 20
2.0172786592
 10
8.7486752299
 20
2.0097254031
 10
8.6825998344
 20
2.0043450112
 10
8.6161509186
 20
2.0011266646
 10
8.5494158946
 20
2.0000790528
 10
8.4825064159
 20
2.0012157428
 10
8.4155341358
 20
2.0045503012
 10
8.3486107078
 20
2.0100962947
 10
8.2818477853
 20
2.0178672902
 10
8.2153570218
 20
2.0278768543
 10
8.1492432019
 20
2.0401336306
 10
8.0835836359
 20
2.0546265694
 10
8.0184487652
 20
2.0713396977
 10
7.9539090315
 20
2.0902570426
 10
7.8900348762
 20
2.1113626311
 10
7.8268967409
 20
2.1346404903
 10
7.7645650671
 20
2.1600746472
 10
7.7031105222
 20
2.1876429187
 10
7.6426046768
 20
2.2172982805
 10
7.5831193275
 20
2.2489874982
 10
7.5247262709
 20
2.2826573374
 10
7.4674973034
 20
2.3182545636
 10
7.4115042215
 20
2.3557259425
 10
7.3568188219
 20
2.3950182396
 10
7.3035098422
 20
2.4360787887
 10
7.2516337857
 20
2.4788571965
 10
7.2012440967
 20
2.523303638
 10
7.1523942195
 20
2.5693682879
 10
7.1051375986
 20
2.6170013213
 10
7.0595276783
 20
2.6661529131
 10
7.015617903
 20
2.7167732381
 10
6.973459922
 20
2.7688091575
 10
6.9330982041
 20
2.8221942765
 10
6.8945754229
 20
2.8768588868
 10
6.857934252
 20
2.9327332799
 10
6.8232173653
 20
2.9897477471
 10
6.7904674362
 20
3.0478325802
 10
6.7597271385
 20
3.1069180705
 10
6.7345083869
 20
3.1593856092
 10
6.7108711352
 20
3.2125293049
 10
6.6888255873
 20
3.2663125571
 10
6.6683819471
 20
3.3206987649
 10
6.6495497626
 20
3.3756441506
 10
6.632335959
 20
3.4310762267
 10
6.6167468056
 20
3.4869153287
 10
6.6027885718
 20
3.543081792
 10
6.590465556
 20
3.5995029559
 10
6.5797741736
 20
3.6561341767
 10
6.5707088689
 20
3.7129378143
 10
6.5632640863
 20
3.769876229
 10
6.5574388734
 20
3.8269395173
 10
6.5532506905
 20
3.8842287222
 10
6.5507216009
 20
3.941872623
 10
6.5498736681
 20
3.9999999992
  0
LINE
  5
3E7
100
AcDbEntity
  8
CURVE
100
AcDbLine
 62
250
  6
CONTINUOUS
 10
2.789512051
 20
1.6291667104
 11
2.514532993
 21
1.5833332896
  0
LINE
  5
3E8
100
AcDbEntity
  8
CURVE
100
AcDbLine
 62
250
  6
CONTINUOUS
 10
1.1229723269
 20
0.371428588
 11
-0.1769286749
 21
0.371428588
  0
LINE
  5
3E9
100
AcDbEntity
  8
CURVE
100
AcDbLine
 62
250
  6
CONTINUOUS
 10
0.0087714571
 20
1.7642856479
 11
0.9372721755
 21
1.7642856479
  0
LINE
  5
3EA
100
AcDbEntity
  8
CURVE
100
AcDbLine
 62
250
  6
CONTINUOUS
 10
2.514532993
 20
0.4833333388
 11
2.789512051
 21
0.4375
  0
LINE
  5
3EB
100
AcDbEntity
  8
CURVE
100
AcDbLine
 62
250
  6
CONTINUOUS
 10
3.018661277
 20
1.5833332896
 11
2.789512051
 21
1.6291667104
  0
LINE
  5
3EC
100
AcDbEntity
  8
CURVE
100
AcDbLine
 62
250
  6
CONTINUOUS
 10
2.3770435295
 20
0.575
 11
2.514532993
 21
0.4833333388
  0
LINE
  5
3ED
100
AcDbEntity
  8
CURVE
100
AcDbLine
 62
250
  6
CONTINUOUS
 10
-0.1769286749
 20
1.95
 11
0.0087714571
 21
1.7642856479
  0
LINE
  5
3EE
100
AcDbEntity
  8
0
100
AcDbLine
 62
250
  6
CONTINUOUS
 10
13.8641600906
 20
-11.6214287043
 11
14.0498743846
 21
-11.8071429014
  0
LINE
  5
3EF
100
AcDbEntity
  8
CURVE
100
AcDbLine
 62
250
  6
CONTINUOUS
 10
2.2853837997
 20
0.6666666776
 11
2.3770435295
 21
0.575
  0
LINE
  5
3F0
100
AcDbEntity
  8
CURVE
100
AcDbLine
 62
250
  6
CONTINUOUS
 10
2.5672060625
 20
14.85
 11
2.5672060625
 21
14.2928574085
  0
LINE
  5
3F1
100
AcDbEntity
  8
CURVE
100
AcDbLine
 62
250
  6
CONTINUOUS
 10
2.7529061945
 20
13.9214283943
 11
2.7529061945
 21
13.2714283943
  0
LINE
  5
3F2
100
AcDbEntity
  8
CURVE
100
AcDbLine
 62
250
  6
CONTINUOUS
 10
2.7529061945
 20
8.5357141972
 11
2.7529061945
 21
8.2571429014
  0
LINE
  5
3F3
100
AcDbEntity
  8
CURVE
100
AcDbLine
 62
250
  6
CONTINUOUS
 10
2.7529061945
 20
9.1547619343
 11
2.7529061945
 21
9.5571429014
  0
LINE
  5
3F4
100
AcDbEntity
  8
CURVE
100
AcDbLine
 62
250
  6
CONTINUOUS
 10
2.7799889554
 20
-14.1642857254
 11
2.7799889554
 21
-13.7928571761
  0
LINE
  5
3F5
100
AcDbEntity
  8
CURVE
100
AcDbLine
 62
250
  6
CONTINUOUS
 10
2.7799889554
 20
-10.3261903286
 11
2.7799889554
 21
-9.9238096714
  0
LINE
  5
3F6
100
AcDbEntity
  8
CURVE
100
AcDbLine
 62
250
  6
CONTINUOUS
 10
2.7799889554
 20
-0.4571429014
 11
2.7799889554
 21
-0.0857143521
  0
LINE
  5
3F7
100
AcDbEntity
  8
CURVE
100
AcDbLine
 62
250
  6
CONTINUOUS
 10
2.9656891262
 20
-8.7785716057
 11
2.9656891262
 21
-9.1809522629
  0
LINE
  5
3F8
100
AcDbEntity
  8
CURVE
100
AcDbLine
 62
250
  6
CONTINUOUS
 10
3.0314564313
 20
7.7
 11
3.0314564313
 21
7.1428570986
  0
LINE
  5
3F9
100
AcDbEntity
  8
CURVE
100
AcDbLine
 62
250
  6
CONTINUOUS
 10
3.0585391922
 20
-7.7880954742
 11
3.0585391922
 21
-8.3452380657
  0
LINE
  5
3FA
100
AcDbEntity
  8
CURVE
100
AcDbLine
 62
250
  6
CONTINUOUS
 10
3.2171565828
 20
5.1
 11
3.2171565828
 21
5.75
  0
LWPOLYLINE
  5
3FB
100
AcDbEntity
  8
0
100
AcDbPolyline
 62
7
  6
CONTINUOUS
 90
4
 70
0
 43
0.3500000006
 10
3.4713030624
 20
34.6071433868
 10
3.4713030624
 20
35.2500013733
 10
4.9713029537
 20
35.2500013733
 10
4.1141601992
 20
32.2500004578
  0
LINE
  5
3FC
100
AcDbEntity
  8
CURVE
100
AcDbLine
 62
250
  6
CONTINUOUS
 10
3.4957068002
 20
14.85
 11
3.4957068002
 21
14.2928574085
  0
LINE
  5
3FD
100
AcDbEntity
  8
CURVE
100
AcDbLine
 62
250
  6
CONTINUOUS
 10
3.4957068002
 20
9.5571429014
 11
3.4957068002
 21
9.2785712957
  0
LINE
  5
3FE
100
AcDbEntity
  8
CURVE
100
AcDbLine
 62
250
  6
CONTINUOUS
 10
3.4957068002
 20
6.4
 11
3.4957068002
 21
6.4928570986
  0
LINE
  5
3FF
100
AcDbEntity
  8
CURVE
100
AcDbLine
 62
250
  6
CONTINUOUS
 10
3.4957068002
 20
8.2571429014
 11
3.4957068002
 21
8.5357141972
  0
LINE
  5
400
100
AcDbEntity
  8
CURVE
100
AcDbLine
 62
250
  6
CONTINUOUS
 10
3.4957068002
 20
10.1142858028
 11
3.4957068002
 21
10.7642858028
  0
LINE
  5
401
100
AcDbEntity
  8
CURVE
100
AcDbLine
 62
250
  6
CONTINUOUS
 10
3.5227895611
 20
1.7666667104
 11
3.5227895611
 21
1.2625
  0
LINE
  5
402
100
AcDbEntity
  8
CURVE
100
AcDbLine
 62
250
  6
CONTINUOUS
 10
3.5227895611
 20
0.8041666776
 11
3.5227895611
 21
0.3
  0
LINE
  5
403
100
AcDbEntity
  8
CURVE
100
AcDbLine
 62
250
  6
CONTINUOUS
 10
3.5227895611
 20
-0.0857143521
 11
3.5227895611
 21
-0.4571429014
  0
LINE
  5
404
100
AcDbEntity
  8
CURVE
100
AcDbLine
 62
250
  6
CONTINUOUS
 10
3.5227895611
 20
-1.85
 11
3.5227895611
 21
-2.5
  0
LINE
  5
405
100
AcDbEntity
  8
CURVE
100
AcDbLine
 62
250
  6
CONTINUOUS
 10
3.5227895611
 20
-9.9238096714
 11
3.5227895611
 21
-10.2023809671
  0
LINE
  5
406
100
AcDbEntity
  8
CURVE
100
AcDbLine
 62
250
  6
CONTINUOUS
 10
3.5227895611
 20
-13.6071429014
 11
3.5227895611
 21
-14.1642857254
  0
LINE
  5
407
100
AcDbEntity
  8
CURVE
100
AcDbLine
 62
250
  6
CONTINUOUS
 10
3.5227895611
 20
-13.05
 11
3.5227895611
 21
-12.6785714507
  0
LINE
  5
408
100
AcDbEntity
  8
CURVE
100
AcDbLine
 62
250
  6
CONTINUOUS
 10
3.5227895611
 20
-7.41666646
 11
3.5227895611
 21
-6.76666646
  0
LINE
  5
409
100
AcDbEntity
  8
CURVE
100
AcDbLine
 62
250
  6
CONTINUOUS
 10
1.0301222512
 20
-5.7761903286
 11
1.1229723269
 21
-5.5904761314
  0
LINE
  5
40A
100
AcDbEntity
  8
CURVE
100
AcDbLine
 62
250
  6
CONTINUOUS
 10
0.0087714571
 20
-4.2904761314
 11
-0.1459786142
 21
-4.4761909485
  0
LINE
  5
40B
100
AcDbEntity
  8
CURVE
100
AcDbLine
 62
250
  6
CONTINUOUS
 10
0.6587219581
 20
-4.1976193428
 11
0.473021826
 21
-4.3833329201
  0
LINE
  5
40C
100
AcDbEntity
  8
0
100
AcDbLine
 62
250
  6
CONTINUOUS
 10
12.7498743846
 20
-0.0452386856
 11
14.0498743846
 21
0.3261909485
  0
LINE
  5
40D
100
AcDbEntity
  8
CURVE
100
AcDbLine
 62
250
  6
CONTINUOUS
 10
-0.1769286749
 20
3.9619048357
 11
1.1229723269
 21
3.9619048357
  0
LINE
  5
40E
100
AcDbEntity
  8
0
100
AcDbLine
 62
250
  6
CONTINUOUS
 10
11.5498743846
 20
3.9999999992
 11
10.549874026
 21
3.9999999992
  0
LINE
  5
40F
100
AcDbEntity
  8
0
100
AcDbLine
 62
250
  6
CONTINUOUS
 10
6.5498736681
 20
3.9999999992
 11
5.5498743861
 21
3.9999999992
  0
LINE
  5
410
100
AcDbEntity
  8
CURVE
100
AcDbLine
 62
250
  6
CONTINUOUS
 10
-0.1769286749
 20
3.2190477371
 11
1.1229723269
 21
2.8476190329
  0
LINE
  5
411
100
AcDbEntity
  8
0
100
AcDbLine
 62
250
  6
CONTINUOUS
 10
14.0498743846
 20
-0.4166670799
 11
12.7498743846
 21
-0.0452386856
  0
LINE
  5
412
100
AcDbEntity
  8
CURVE
100
AcDbLine
 62
250
  6
CONTINUOUS
 10
3.247810503
 20
1.4916667104
 11
3.018661277
 21
1.5833332896
  0
LINE
  5
413
100
AcDbEntity
  8
CURVE
100
AcDbLine
 62
250
  6
CONTINUOUS
 10
3.5227895611
 20
1.2625
 11
3.247810503
 21
1.4916667104
  0
LINE
  5
414
100
AcDbEntity
  8
0
100
AcDbLine
 62
250
  6
CONTINUOUS
 10
9.4602319548
 20
-5.875622
 11
4.4501447308
 21
-0.93899
  0
LINE
  5
415
100
AcDbEntity
  8
CURVE
100
AcDbLine
 62
250
  6
CONTINUOUS
 10
3.3370894097
 20
0.1
 11
3.5227895611
 21
-0.0857143521
  0
LINE
  5
416
100
AcDbEntity
  8
CURVE
100
AcDbLine
 62
250
  6
CONTINUOUS
 10
0.473021826
 20
4.33333323
 11
0.2873216939
 21
4.5190477371
  0
LINE
  5
417
100
AcDbEntity
  8
CURVE
100
AcDbLine
 62
250
  6
CONTINUOUS
 10
1.1229723269
 20
4.4261903286
 11
0.9372721755
 21
4.6119048357
  0
LINE
  5
418
100
AcDbEntity
  8
CURVE
100
AcDbLine
 62
250
  6
CONTINUOUS
 10
2.19372407
 20
0.85
 11
2.2853837997
 21
0.6666666776
  0
LINE
  5
419
100
AcDbEntity
  8
CURVE
100
AcDbLine
 62
250
  6
CONTINUOUS
 10
2.1478942707
 20
1.0333333552
 11
2.19372407
 21
0.85
  0
LWPOLYLINE
  5
41A
100
AcDbEntity
  8
0
100
AcDbPolyline
 62
250
  6
CONTINUOUS
 90
57
 70
0
 10
4.9230103928
 20
-3.6569273296
 10
4.9246856426
 20
-3.6943980789
 10
4.9270198078
 20
-3.7319463867
 10
4.9299999072
 20
-3.7695179666
 10
4.9336129595
 20
-3.8070585324
 10
4.9378459835
 20
-3.844513798
 10
4.9426859981
 20
-3.8818294772
 10
4.9481200219
 20
-3.9189512836
 10
4.9541350738
 20
-3.9558249312
 10
4.9607181726
 20
-3.9923961336
 10
4.967856337
 20
-4.0286106047
 10
4.9727340065
 20
-4.0516572029
 10
4.977878642
 20
-4.0745639598
 10
4.9833337274
 20
-4.0973604823
 10
4.9891427466
 20
-4.1200763773
 10
4.9953491832
 20
-4.1427412514
 10
5.0019965211
 20
-4.1653847116
 10
5.0091282442
 20
-4.1880363647
 10
5.0167878361
 20
-4.2107258175
 10
5.0250187808
 20
-4.2334826768
 10
5.033864562
 20
-4.2563365493
 10
5.0433686635
 20
-4.279317042
 10
5.0535745691
 20
-4.3024537617
 10
5.0645257626
 20
-4.3257763151
 10
5.0703142305
 20
-4.3375534086
 10
5.076300956
 20
-4.3493598698
 10
5.0824856054
 20
-4.3611708242
 10
5.0888678451
 20
-4.3729613974
 10
5.0954473418
 20
-4.3847067151
 10
5.1022237617
 20
-4.3963819029
 10
5.1091967713
 20
-4.4079620864
 10
5.1163660371
 20
-4.4194223912
 10
5.1237312256
 20
-4.4307379428
 10
5.1312920031
 20
-4.441883867
 10
5.1390480361
 20
-4.4528352893
 10
5.1469989912
 20
-4.4635673354
 10
5.1551445346
 20
-4.4740551308
 10
5.1634843329
 20
-4.4842738012
 10
5.1720180526
 20
-4.4941984721
 10
5.18074536
 20
-4.5038042692
 10
5.1896659216
 20
-4.5130663181
 10
5.1987794039
 20
-4.5219597444
 10
5.2080854733
 20
-4.5304596738
 10
5.2175837962
 20
-4.5385412317
 10
5.2272740392
 20
-4.5461795439
 10
5.2371558686
 20
-4.553349736
 10
5.2472289509
 20
-4.5600269335
 10
5.2574929526
 20
-4.566186262
 10
5.2679475401
 20
-4.5718028473
 10
5.2785923798
 20
-4.5768518148
 10
5.2894271382
 20
-4.5813082902
 10
5.3004514817
 20
-4.5851473992
 10
5.3116650769
 20
-4.5883442673
 10
5.32306759
 20
-4.5908740201
 10
5.3346586877
 20
-4.5927117832
 10
5.3464380363
 20
-4.5938326824
 10
5.3584053022
 20
-4.594211843
  0
LWPOLYLINE
  5
41B
100
AcDbEntity
  8
0
100
AcDbPolyline
 62
250
  6
CONTINUOUS
 90
61
 70
0
 10
5.5498743861
 20
3.9999999992
 10
5.5518531595
 20
3.8902331858
 10
5.5577742856
 20
3.7813267464
 10
5.5676149726
 20
3.6732142291
 10
5.5813524292
 20
3.5658291819
 10
5.5989638637
 20
3.4591051529
 10
5.6204264847
 20
3.3529756902
 10
5.6457184424
 20
3.2474186264
 10
5.6748216538
 20
3.1425889332
 10
5.7077189775
 20
3.0386858669
 10
5.7443932723
 20
2.9359086838
 10
5.784827397
 20
2.8344566403
 10
5.8290042102
 20
2.7345289926
 10
5.8768942414
 20
2.636309146
 10
5.9284187032
 20
2.5399171013
 10
5.9834864792
 20
2.4454570082
 10
6.0420064525
 20
2.3530330164
 10
6.1038875068
 20
2.2627492757
 10
6.1690385254
 20
2.1747099358
 10
6.2373691734
 20
2.0890213336
 10
6.3087922431
 20
2.0057985551
 10
6.3832213083
 20
1.9251588735
 10
6.4605699432
 20
1.8472195622
 10
6.5407517216
 20
1.7720978942
 10
6.6236802174
 20
1.6999111428
 10
6.709262042
 20
1.6307727034
 10
6.7973759557
 20
1.5647804592
 10
6.887893756
 20
1.5020284156
 10
6.9806872405
 20
1.4426105782
 10
7.0756282069
 20
1.3866209522
 10
7.1725884528
 20
1.3341535431
 10
7.2714355036
 20
1.2852971238
 10
7.3720197969
 20
1.2401195373
 10
7.474187498
 20
1.1986833941
 10
7.5777847722
 20
1.1610513047
 10
7.682657785
 20
1.1272858796
 10
7.7886527016
 20
1.0974497292
 10
7.8956174989
 20
1.0715940091
 10
8.0034073983
 20
1.0497240552
 10
8.1118794329
 20
1.0318337482
 10
8.2208906356
 20
1.0179169691
 10
8.3302980392
 20
1.0079675988
 10
8.4399586769
 20
1.001979518
 10
8.5497320996
 20
0.9999496611
 10
8.6594879315
 20
1.0018871767
 10
8.7690983148
 20
1.0078042665
 10
8.8784353919
 20
1.0177131325
 10
8.9873713051
 20
1.0316259766
 10
9.0957781965
 20
1.0495550007
 10
9.2035188559
 20
1.0714991404
 10
9.3104186624
 20
1.0974042654
 10
9.4162936425
 20
1.1272029791
 10
9.5209598227
 20
1.1608278851
 10
9.6242332294
 20
1.1982115866
 10
9.7259298891
 20
1.2392866872
 10
9.8259034336
 20
1.2840053333
 10
9.9241579156
 20
1.3323978436
 10
10.020734993
 20
1.3845140801
 10
10.1156763237
 20
1.4404039045
 10
10.2090235658
 20
1.5001171788
 10
10.300818377
 20
1.5637037647
  0
LINE
  5
41C
100
AcDbEntity
  8
0
100
AcDbLine
 62
250
  6
CONTINUOUS
 10
4.9638021716
 20
-4.281784
 11
4.9638021716
 21
-4.18241
  0
LINE
  5
41D
100
AcDbEntity
  8
0
100
AcDbLine
 62
250
  6
CONTINUOUS
 10
5.3584051457
 20
-4.809973
 11
5.3584051457
 21
-2.372066
  0
LINE
  5
41E
100
AcDbEntity
  8
0
100
AcDbLine
 62
250
  6
CONTINUOUS
 10
5.7213013272
 20
-2.432113
 11
5.7213013272
 21
-2.082053
  0
LINE
  5
41F
100
AcDbEntity
  8
0
100
AcDbLine
 62
250
  6
CONTINUOUS
 10
6.093751145
 20
-2.082053
 11
6.093751145
 21
-2.432113
  0
LINE
  5
420
100
AcDbEntity
  8
0
100
AcDbLine
 62
250
  6
CONTINUOUS
 10
6.186163626
 20
-3.71193
 11
6.186163626
 21
-2.88859
  0
LINE
  5
421
100
AcDbEntity
  8
0
100
AcDbLine
 62
250
  6
CONTINUOUS
 10
4.8708317118
 20
-3.656927
 11
4.8713896905
 21
-3.083924
  0
LINE
  5
422
100
AcDbEntity
  8
0
100
AcDbLine
 62
250
  6
CONTINUOUS
 10
5.088875409
 20
-3.083924
 11
5.0883174302
 21
-3.656927
  0
LWPOLYLINE
  5
423
100
AcDbEntity
  8
0
100
AcDbPolyline
 62
250
  6
CONTINUOUS
 90
83
 70
0
 10
9.6077168222
 20
2.9363708784
 10
9.6421182868
 20
2.9719249461
 10
9.6749866538
 20
3.008221591
 10
9.7064443116
 20
3.0453389048
 10
9.7366136485
 20
3.0833549791
 10
9.7749857228
 20
3.1355355365
 10
9.8112079987
 20
3.1893943062
 10
9.8452034468
 20
3.2448728745
 10
9.8768864848
 20
3.3018939194
 10
9.906137321
 20
3.3603044865
 10
9.932827611
 20
3.4199327129
 10
9.956846854
 20
3.4806153328
 10
9.9781559231
 20
3.5422234676
 10
9.9967335348
 20
3.6046368356
 10
10.0125591349
 20
3.6677393904
 10
10.0256150864
 20
3.7314320271
 10
10.0358844814
 20
3.7956198757
 10
10.0433518457
 20
3.8602158752
 10
10.0480074399
 20
3.9251641985
 10
10.0498429584
 20
3.9904168271
 10
10.0488495813
 20
4.0559000395
 10
10.0450164324
 20
4.1214373032
 10
10.0383321214
 20
4.1868263828
 10
10.0287954023
 20
4.2518626755
 10
10.0164456078
 20
4.3163321089
 10
10.0013322148
 20
4.3800182434
 10
9.9834999891
 20
4.4427389889
 10
9.9629748513
 20
4.5044496536
 10
9.9397780105
 20
4.565139895
 10
9.9139279058
 20
4.624795716
 10
9.8854318945
 20
4.6833884995
 10
9.8542945637
 20
4.7408859738
 10
9.8205365839
 20
4.797228239
 10
9.7842429597
 20
4.8522448826
 10
9.7455147792
 20
4.9057378641
 10
9.7149350359
 20
4.9447405906
 10
9.6831049166
 20
4.9827034747
 10
9.650086621
 20
5.0195551316
 10
9.6159423491
 20
5.0552241767
 10
9.5807275797
 20
5.089651707
 10
9.5444709092
 20
5.1228287472
 10
9.507194213
 20
5.1547588035
 10
9.4689193666
 20
5.1854453822
 10
9.4296626138
 20
5.2148895761
 10
9.3894176725
 20
5.2430828231
 10
9.3481726291
 20
5.2700141475
 10
9.3059155699
 20
5.2956725736
 10
9.2626522535
 20
5.3200365738
 10
9.2184591274
 20
5.3430424123
 10
9.1734303111
 20
5.3646158015
 10
9.1276599243
 20
5.3846824537
 10
9.0812444586
 20
5.4031774471
 10
9.0342898936
 20
5.4200733234
 10
8.9869045811
 20
5.43535199
 10
8.9391968727
 20
5.4489953545
 10
8.8912574284
 20
5.4609915384
 10
8.8431061413
 20
5.4713535194
 10
8.7947452129
 20
5.4801004893
 10
8.7461768445
 20
5.4872516398
 10
8.6811036812
 20
5.494326852
 10
8.6156921117
 20
5.4985820212
 10
8.5499685986
 20
5.4999999976
 10
8.5005019339
 20
5.499191256
 10
8.4509744364
 20
5.496769713
 10
8.4014858566
 20
5.4927281347
 10
8.3521359447
 20
5.4870592873
 10
8.3030237317
 20
5.4797617204
 10
8.2542453706
 20
5.4708571182
 10
8.2058962946
 20
5.4603729485
 10
8.1580719373
 20
5.4483366789
 10
8.1108516186
 20
5.4347726971
 10
8.0642502057
 20
5.4196930698
 10
8.0182664522
 20
5.4031067837
 10
7.9728991118
 20
5.3850228253
 10
7.9133720469
 20
5.3585960193
 10
7.854971726
 20
5.3295398726
 10
7.7977312633
 20
5.2978715967
 10
7.741710263
 20
5.2636240138
 10
7.6870742902
 20
5.2268923883
 10
7.6340154004
 20
5.1877875956
 10
7.5827178322
 20
5.1464245743
 10
7.533334558
 20
5.102934518
 10
7.4860107333
 20
5.0574526837
  0
LWPOLYLINE
  5
424
100
AcDbEntity
  8
0
100
AcDbPolyline
 62
250
  6
CONTINUOUS
 90
36
 70
0
 10
5.2052283884
 20
-2.396457109
 10
5.1920850471
 20
-2.4098920862
 10
5.1793431941
 20
-2.4237030913
 10
5.1669971316
 20
-2.437875713
 10
5.1550411618
 20
-2.4523955398
 10
5.1434695867
 20
-2.4672481603
 10
5.1322767086
 20
-2.482419163
 10
5.1214568295
 20
-2.4978941366
 10
5.1110042518
 20
-2.5136586695
 10
5.1009132774
 20
-2.5296983504
 10
5.0911782086
 20
-2.5459987678
 10
5.0817933476
 20
-2.5625455103
 10
5.0727529964
 20
-2.5793241664
 10
5.0640514572
 20
-2.5963203247
 10
5.0556830322
 20
-2.6135195738
 10
5.0476420235
 20
-2.6309075021
 10
5.0399227334
 20
-2.6484696984
 10
5.0325194639
 20
-2.6661917511
 10
5.0254265172
 20
-2.6840592489
 10
5.0186381954
 20
-2.7020577802
 10
5.0121488008
 20
-2.7201729336
 10
5.0059526354
 20
-2.7383902978
 10
5.0000440014
 20
-2.7566954612
 10
4.994417201
 20
-2.7750740125
 10
4.9890665364
 20
-2.7935115401
 10
4.9839863096
 20
-2.8119936328
 10
4.9791708229
 20
-2.8305058789
 10
4.9746143783
 20
-2.8490338671
 10
4.9703112781
 20
-2.867563186
 10
4.9644662266
 20
-2.8945897746
 10
4.9590869393
 20
-2.9215995436
 10
4.9541116127
 20
-2.9486035397
 10
4.9494784431
 20
-2.9756128096
 10
4.9451256269
 20
-3.0026384001
 10
4.9409913606
 20
-3.0296913578
 10
4.9331312633
 20
-3.0839235619
  0
LINE
  5
425
100
AcDbEntity
  8
CURVE
100
AcDbLine
 62
250
  6
CONTINUOUS
 10
0.0087714571
 20
-7.2619045258
 11
-0.1769286749
 21
-7.4476193428
  0
LINE
  5
426
100
AcDbEntity
  8
CURVE
100
AcDbLine
 62
250
  6
CONTINUOUS
 10
0.9372721755
 20
-7.7261903286
 11
1.1229723269
 21
-7.5404761314
  0
LINE
  5
427
100
AcDbEntity
  8
CURVE
100
AcDbLine
 62
250
  6
CONTINUOUS
 10
0.2873216939
 20
4.5190477371
 11
0.0087714571
 21
4.5190477371
  0
LINE
  5
428
100
AcDbEntity
  8
CURVE
100
AcDbLine
 62
250
  6
CONTINUOUS
 10
0.9372721755
 20
4.6119048357
 11
0.6587219581
 21
4.6119048357
  0
LINE
  5
429
100
AcDbEntity
  8
0
100
AcDbLine
 62
250
  6
CONTINUOUS
 10
-2.850538584
 20
4.897904
 11
-4.6504125088
 21
4.897904
  0
LINE
  5
42A
100
AcDbEntity
  8
CURVE
100
AcDbLine
 62
250
  6
CONTINUOUS
 10
1.1229723269
 20
4.98333323
 11
-0.1769286749
 21
4.98333323
  0
LINE
  5
42B
100
AcDbEntity
  8
0
100
AcDbLine
 62
250
  6
CONTINUOUS
 10
-4.3027473186
 20
5.124786
 11
-2.850538584
 21
5.124786
  0
LINE
  5
42C
100
AcDbEntity
  8
CURVE
100
AcDbLine
 62
250
  6
CONTINUOUS
 10
2.8457562993
 20
5.5333333462
 11
3.4957068002
 21
5.5333333462
  0
LINE
  5
42D
100
AcDbEntity
  8
CURVE
100
AcDbLine
 62
250
  6
CONTINUOUS
 10
-0.1769286749
 20
5.8190477371
 11
1.1229723269
 21
5.8190477371
  0
LINE
  5
42E
100
AcDbEntity
  8
0
100
AcDbLine
 62
250
  6
CONTINUOUS
 10
-3.183087037
 20
6.105488
 11
-4.6504125088
 21
6.105488
  0
LINE
  5
42F
100
AcDbEntity
  8
CURVE
100
AcDbLine
 62
250
  6
CONTINUOUS
 10
2.5672060625
 20
6.1214285493
 11
3.1243064974
 21
6.1214285493
  0
LINE
  5
430
100
AcDbEntity
  8
0
100
AcDbLine
 62
250
  6
CONTINUOUS
 10
-4.6504125088
 20
6.332387
 11
-2.850538584
 21
6.332387
  0
LINE
  5
431
100
AcDbEntity
  8
CURVE
100
AcDbLine
 62
250
  6
CONTINUOUS
 10
2.1958057984
 20
5.3785714313
 11
3.2171565828
 21
5.1
  0
LINE
  5
432
100
AcDbEntity
  8
0
100
AcDbLine
 62
250
  6
CONTINUOUS
 10
10.300818377
 20
1.5637037647
 11
11.5498743846
 21
1.0
  0
LINE
  5
433
100
AcDbEntity
  8
0
100
AcDbLine
 62
250
  6
CONTINUOUS
 10
7.9334992951
 20
2.6320843092
 11
9.1386670586
 21
2.0881872694
  0
LINE
  5
434
100
AcDbEntity
  8
CURVE
100
AcDbLine
 62
250
  6
CONTINUOUS
 10
2.1958057984
 20
6.4
 11
2.3815059304
 21
6.2142857254
  0
LWPOLYLINE
  5
435
100
AcDbEntity
  8
0
100
AcDbPolyline
 62
250
  6
CONTINUOUS
 90
17
 70
0
 10
7.2764942742
 20
-12.2222387988
 10
7.3496281106
 20
-12.5628461661
 10
7.4905466895
 20
-12.8882096853
 10
7.6929931494
 20
-13.1792995123
 10
7.9489794287
 20
-13.4246299264
 10
8.2428426577
 20
-13.61171325
 10
8.573447547
 20
-13.7398267191
 10
8.9228515936
 20
-13.8000636886
 10
9.2772681345
 20
-13.7900473491
 10
9.6227127257
 20
-13.7101729218
 10
9.9401601107
 20
-13.5667092432
 10
10.2283838868
 20
-13.3602105601
 10
10.47010692
 20
-13.1008141393
 10
10.6557913872
 20
-12.7987551539
 10
10.7765420515
 20
-12.4719822807
 10
10.8318924136
 20
-12.1217579498
 10
10.8165111138
 20
-11.7645899989
  0
LWPOLYLINE
  5
436
100
AcDbEntity
  8
0
100
AcDbPolyline
 62
250
  6
CONTINUOUS
 90
41
 70
0
 10
7.0498743857
 20
3.9999999992
 10
7.0504915231
 20
3.9567212492
 10
7.0523395464
 20
3.9136301953
 10
7.0554133727
 20
3.8707100365
 10
7.0597079186
 20
3.8279439723
 10
7.0652181013
 20
3.7853152018
 10
7.0719396418
 20
3.7428181237
 10
7.0798714794
 20
3.7004919351
 10
7.0890133573
 20
3.6583870326
 10
7.0993650191
 20
3.6165538126
 10
7.1109262081
 20
3.5750426717
 10
7.123693902
 20
3.5339004834
 10
7.1376540156
 20
3.4931600293
 10
7.1527896977
 20
3.4528505679
 10
7.1690840973
 20
3.4130013578
 10
7.1865203634
 20
3.3736416573
 10
7.205081424
 20
3.3348012117
 10
7.2247493237
 20
3.2965117118
 10
7.2455058862
 20
3.2588053351
 10
7.2673329352
 20
3.221714259
 10
7.2902122942
 20
3.1852706611
 10
7.3141249328
 20
3.1495056759
 10
7.3390484027
 20
3.1144462664
 10
7.3649594015
 20
3.0801183529
 10
7.3918346267
 20
3.0465478555
 10
7.4196507759
 20
3.0137606946
 10
7.4483850907
 20
2.981782476
 10
7.4780169898
 20
2.9506375495
 10
7.508526436
 20
2.9203499505
 10
7.5398933919
 20
2.8909437143
 10
7.5720978204
 20
2.8624428766
 10
7.6051161493
 20
2.8348715039
 10
7.6389106675
 20
2.8082537879
 10
7.6734401287
 20
2.7826139516
 10
7.7086632868
 20
2.7579762176
 10
7.7445388956
 20
2.7343648091
 10
7.7810356249
 20
2.7118002244
 10
7.8181618075
 20
2.6902880648
 10
7.8559356923
 20
2.669830207
 10
7.8943755281
 20
2.6504285279
 10
7.9334995636
 20
2.6320849042
  0
LINE
  5
437
100
AcDbEntity
  8
0
100
AcDbLine
 62
250
  6
CONTINUOUS
 10
6.4017914153
 20
-2.88859
 11
6.4017914153
 21
-3.71193
  0
LWPOLYLINE
  5
438
100
AcDbEntity
  8
0
100
AcDbPolyline
 62
250
  6
CONTINUOUS
 90
17
 70
0
 10
6.5127649936
 20
-7.42959
 10
6.5115562027
 20
-7.9272613275
 10
6.6095984184
 20
-8.4242124046
 10
6.8039286644
 20
-8.8919797192
 10
7.0868791257
 20
-9.3121062718
 10
7.4472852419
 20
-9.6680148559
 10
7.8630411026
 20
-9.9415328838
 10
8.3325405076
 20
-10.1316036663
 10
8.8303446956
 20
-10.2251210381
 10
9.3368114829
 20
-10.2183950236
 10
9.8319568798
 20
-10.1116910153
 10
10.2884709093
 20
-9.9135565139
 10
10.7045899088
 20
-9.6247569775
 10
11.0554181945
 20
-9.2594030101
 10
11.3271129064
 20
-8.831910621
 10
11.5089536096
 20
-8.3591476555
 10
11.5937139192
 20
-7.8605127873
  0
LWPOLYLINE
  5
439
100
AcDbEntity
  8
0
100
AcDbPolyline
 62
250
  6
CONTINUOUS
 90
17
 70
0
 10
6.5127649936
 20
-11.76459
 10
6.5115562027
 20
-12.2622613275
 10
6.6095984184
 20
-12.7592124046
 10
6.8039286644
 20
-13.2269797192
 10
7.0868791257
 20
-13.6471062718
 10
7.4472852419
 20
-14.0030148559
 10
7.8630411026
 20
-14.2765328838
 10
8.3325405076
 20
-14.4666036663
 10
8.8303446956
 20
-14.5601210381
 10
9.3368114829
 20
-14.5533950236
 10
9.8319568798
 20
-14.4466910153
 10
10.2884709093
 20
-14.2485565139
 10
10.7045899088
 20
-13.9597569775
 10
11.0554181945
 20
-13.5944030101
 10
11.3271129064
 20
-13.166910621
 10
11.5089536096
 20
-12.6941476555
 10
11.5937139192
 20
-12.1955127873
  0
LWPOLYLINE
  5
43A
100
AcDbEntity
  8
0
100
AcDbPolyline
 62
250
  6
CONTINUOUS
 90
8
 70
0
 10
7.2832616543
 20
-7.42959
 10
7.2692735228
 20
-7.8086947743
 10
7.3357124894
 20
-8.1821939578
 10
7.479577625
 20
-8.5332172606
 10
7.6984326643
 20
-8.8506343253
 10
7.975358735
 20
-9.1099068143
 10
8.3008192977
 20
-9.304800292
 10
8.667400888
 20
-9.4281264426
  0
LWPOLYLINE
  5
43B
100
AcDbEntity
  8
0
100
AcDbPolyline
 62
250
  6
CONTINUOUS
 90
31
 70
0
 10
10.9982489097
 20
2.2659542014
 10
11.0336068738
 20
2.3168903931
 10
11.0677238508
 20
2.3682736169
 10
11.1006449796
 20
2.4201520074
 10
11.1324153986
 20
2.4725736995
 10
11.1630802467
 20
2.5255868277
 10
11.1926747387
 20
2.5792293172
 10
11.2211943947
 20
2.6334982545
 10
11.2486248109
 20
2.6883805164
 10
11.2749515837
 20
2.7438629799
 10
11.3001603093
 20
2.7999325217
 10
11.3242355712
 20
2.8565727451
 10
11.3471579013
 20
2.9137541581
 10
11.3689068186
 20
2.9714439953
 10
11.3894618421
 20
3.0296094911
 10
11.4088024908
 20
3.0882178798
 10
11.4269112572
 20
3.1472354686
 10
11.4437825276
 20
3.2066248554
 10
11.4594136619
 20
3.2663477104
 10
11.4738020197
 20
3.3263657043
 10
11.4869449608
 20
3.3866405073
 10
11.4988406919
 20
3.4471369294
 10
11.5094908066
 20
3.507832338
 10
11.5188977456
 20
3.5687072399
 10
11.5270639494
 20
3.629742142
 10
11.5339918586
 20
3.6909175511
 10
11.5396817695
 20
3.7522282145
 10
11.544125402
 20
3.8137258414
 10
11.5473123316
 20
3.8754763813
 10
11.5492321339
 20
3.9375457841
 10
11.5498743846
 20
3.9999999992
  0
LINE
  5
43C
100
AcDbEntity
  8
CURVE
100
AcDbLine
 62
250
  6
CONTINUOUS
 10
2.2228885593
 20
-6.9523806572
 11
2.4085886913
 21
-6.76666646
  0
LINE
  5
43D
100
AcDbEntity
  8
CURVE
100
AcDbLine
 62
250
  6
CONTINUOUS
 10
2.2228885593
 20
-8.9023806572
 11
2.4085886913
 21
-8.71666646
  0
LINE
  5
43E
100
AcDbEntity
  8
0
100
AcDbLine
 62
250
  6
CONTINUOUS
 10
4.4738188294
 20
-6.00013
 11
9.4509153096
 21
-1.268444
  0
LINE
  5
43F
100
AcDbEntity
  8
CURVE
100
AcDbLine
 62
250
  6
CONTINUOUS
 10
0.1944715892
 20
-7.1690477371
 11
0.0087714571
 21
-7.2619045258
  0
LINE
  5
440
100
AcDbEntity
  8
CURVE
100
AcDbLine
 62
250
  6
CONTINUOUS
 10
0.7515720241
 20
-7.8190477371
 11
0.9372721755
 21
-7.7261903286
  0
LINE
  5
441
100
AcDbEntity
  8
CURVE
100
AcDbLine
 62
250
  6
CONTINUOUS
 10
3.1243064974
 20
6.7714285493
 11
2.5672060625
 21
6.7714285493
  0
LINE
  5
442
100
AcDbEntity
  8
0
100
AcDbLine
 62
250
  6
CONTINUOUS
 10
-2.850538584
 20
6.834015
 11
-4.6504125088
 21
6.834015
  0
LINE
  5
443
100
AcDbEntity
  8
0
100
AcDbLine
 62
250
  6
CONTINUOUS
 10
-4.4487488671
 20
7.073526
 11
-3.8765174472
 21
7.073526
  0
LINE
  5
444
100
AcDbEntity
  8
0
100
AcDbLine
 62
250
  6
CONTINUOUS
 10
-3.6748368069
 20
7.073526
 11
-3.0522022256
 21
7.073526
  0
LINE
  5
445
100
AcDbEntity
  8
0
100
AcDbLine
 62
250
  6
CONTINUOUS
 10
-3.8765174472
 20
8.008818
 11
-3.6748368069
 21
8.008818
  0
LINE
  5
446
100
AcDbEntity
  8
CURVE
100
AcDbLine
 62
250
  6
CONTINUOUS
 10
2.9386063653
 20
8.0714287043
 11
3.3100066488
 21
8.0714287043
  0
LINE
  5
447
100
AcDbEntity
  8
0
100
AcDbLine
 62
250
  6
CONTINUOUS
 10
-4.6504125088
 20
8.076887
 11
-4.4487488671
 21
8.076887
  0
LINE
  5
448
100
AcDbEntity
  8
0
100
AcDbLine
 62
250
  6
CONTINUOUS
 10
-3.0522022256
 20
8.084446
 11
-2.850538584
 21
8.084446
  0
LINE
  5
449
100
AcDbEntity
  8
CURVE
100
AcDbLine
 62
250
  6
CONTINUOUS
 10
2.3815059304
 20
8.13333323
 11
2.6600561672
 21
8.13333323
  0
LINE
  5
44A
100
AcDbEntity
  8
0
100
AcDbLine
 62
250
  6
CONTINUOUS
 10
-3.0823832185
 20
9.0650863225
 11
-4.6504075091
 21
9.586932
  0
LINE
  5
44B
100
AcDbEntity
  8
0
100
AcDbLine
 62
250
  6
CONTINUOUS
 10
-4.6504075091
 20
9.836527
 11
-2.8505335843
 21
9.196167
  0
LINE
  5
44C
100
AcDbEntity
  8
0
100
AcDbLine
 62
250
  6
CONTINUOUS
 10
11.5498743846
 20
1.999999282
 11
10.9982489097
 21
2.2659542014
  0
LINE
  5
44D
100
AcDbEntity
  8
0
100
AcDbLine
 62
250
  6
CONTINUOUS
 10
10.0779901557
 20
2.7096376218
 11
9.6077168222
 21
2.9363708784
  0
LINE
  5
44E
100
AcDbEntity
  8
CURVE
100
AcDbLine
 62
250
  6
CONTINUOUS
 10
2.3815059304
 20
6.2142857254
 11
2.5672060625
 21
6.1214285493
  0
LINE
  5
44F
100
AcDbEntity
  8
CURVE
100
AcDbLine
 62
250
  6
CONTINUOUS
 10
3.3100066488
 20
6.6785714507
 11
3.1243064974
 21
6.7714285493
  0
LINE
  5
450
100
AcDbEntity
  8
CURVE
100
AcDbLine
 62
250
  6
CONTINUOUS
 10
2.1958057984
 20
8.2571429014
 11
2.3815059304
 21
8.13333323
  0
LINE
  5
451
100
AcDbEntity
  8
0
100
AcDbLine
 62
250
  6
CONTINUOUS
 10
14.0498743846
 20
-4.6880954742
 11
13.8641600906
 21
-4.5023806572
  0
LINE
  5
452
100
AcDbEntity
  8
CURVE
100
AcDbLine
 62
250
  6
CONTINUOUS
 10
3.4957068002
 20
6.4928570986
 11
3.3100066488
 21
6.6785714507
  0
LINE
  5
453
100
AcDbEntity
  8
0
100
AcDbLine
 62
250
  6
CONTINUOUS
 10
12.9355886592
 20
-2.2738090515
 11
12.7498743846
 21
-2.0880954742
  0
LINE
  5
454
100
AcDbEntity
  8
CURVE
100
AcDbLine
 62
250
  6
CONTINUOUS
 10
2.7529061945
 20
8.2571429014
 11
2.9386063653
 21
8.0714287043
  0
LINE
  5
455
100
AcDbEntity
  8
CURVE
100
AcDbLine
 62
250
  6
CONTINUOUS
 10
-0.1769286749
 20
11.2785714313
 11
0.0087714571
 21
11.092857147
  0
LINE
  5
456
100
AcDbEntity
  8
CURVE
100
AcDbLine
 62
250
  6
CONTINUOUS
 10
2.4743560352
 20
9.2785712957
 11
2.1958057984
 21
9.5571429014
  0
LINE
  5
457
100
AcDbEntity
  8
CURVE
100
AcDbLine
 62
250
  6
CONTINUOUS
 10
2.7529061945
 20
8.5357141972
 11
2.6600561672
 21
8.6595238686
  0
LINE
  5
458
100
AcDbEntity
  8
CURVE
100
AcDbLine
 62
250
  6
CONTINUOUS
 10
0.2873216939
 20
13.5690475821
 11
0.3801717212
 21
13.4142856479
  0
LINE
  5
459
100
AcDbEntity
  8
CURVE
100
AcDbLine
 62
250
  6
CONTINUOUS
 10
0.2873216939
 20
15.2404761314
 11
0.3801717212
 21
15.0857141972
  0
LINE
  5
45A
100
AcDbEntity
  8
0
100
AcDbLine
 62
250
  6
CONTINUOUS
 10
8.6674009486
 20
-7.93959
 11
8.6674009486
 21
-9.428126
  0
LINE
  5
45B
100
AcDbEntity
  8
0
100
AcDbLine
 62
250
  6
CONTINUOUS
 10
8.7204981227
 20
-4.274826
 11
8.7204981227
 21
-2.928959
  0
LINE
  5
45C
100
AcDbEntity
  8
0
100
AcDbLine
 62
250
  6
CONTINUOUS
 10
8.9169386425
 20
-4.100497
 11
8.9169386425
 21
-4.218117
  0
LINE
  5
45D
100
AcDbEntity
  8
0
100
AcDbLine
 62
250
  6
CONTINUOUS
 10
9.4323718197
 20
-7.93959
 11
9.4323718197
 21
-9.428126
  0
LWPOLYLINE
  5
45E
100
AcDbEntity
  8
0
100
AcDbPolyline
 62
250
  6
CONTINUOUS
 90
7
 70
0
 10
7.2832616543
 20
-11.76459
 10
7.2741333993
 20
-11.8387950608
 10
7.2681204184
 20
-11.9133172973
 10
7.2652332604
 20
-11.9880259722
 10
7.2656386521
 20
-12.0690187464
 10
7.2692735228
 20
-12.1436947743
 10
7.2764942763
 20
-12.2222388174
  0
LINE
  5
45F
100
AcDbEntity
  8
CURVE
100
AcDbLine
 62
250
  6
CONTINUOUS
 10
0.9372721755
 20
-11.0380951643
 11
1.1229723269
 21
-10.8523809671
  0
LINE
  5
460
100
AcDbEntity
  8
0
100
AcDbLine
 62
7
  6
CONTINUOUS
 10
10.5309011854
 20
-1.5865683431
 11
10.7098315285
 21
-1.407638
  0
LINE
  5
461
100
AcDbEntity
  8
CURVE
100
AcDbLine
 62
250
  6
CONTINUOUS
 10
2.9656891262
 20
-9.1809522629
 11
2.7799889554
 21
-9.36666646
  0
LINE
  5
462
100
AcDbEntity
  8
0
100
AcDbLine
 62
7
  6
CONTINUOUS
 10
10.5309011854
 20
-1.7965790571
 11
10.9198422426
 21
-1.407638
  0
LINE
  5
463
100
AcDbEntity
  8
CURVE
100
AcDbLine
 62
250
  6
CONTINUOUS
 10
0.0087714571
 20
-12.3380951643
 11
-0.1769286749
 21
-12.5238095164
  0
LINE
  5
464
100
AcDbEntity
  8
0
100
AcDbLine
 62
7
  6
CONTINUOUS
 10
10.5309011854
 20
-2.0065897711
 11
11.1298529566
 21
-1.407638
  0
LINE
  5
465
100
AcDbEntity
  8
CURVE
100
AcDbLine
 62
250
  6
CONTINUOUS
 10
2.7799889554
 20
-9.9238096714
 11
2.9656891262
 21
-9.7380954742
  0
LINE
  5
466
100
AcDbEntity
  8
0
100
AcDbLine
 62
7
  6
CONTINUOUS
 10
10.5309011854
 20
-2.2166004851
 11
11.3398636706
 21
-1.407638
  0
LINE
  5
467
100
AcDbEntity
  8
0
100
AcDbLine
 62
7
  6
CONTINUOUS
 10
10.5309011854
 20
-2.4266111991
 11
11.5498743846
 21
-1.407638
  0
LINE
  5
468
100
AcDbEntity
  8
0
100
AcDbLine
 62
7
  6
CONTINUOUS
 10
10.5309011854
 20
-2.6366219132
 11
11.5498743846
 21
-1.617648714
  0
LINE
  5
469
100
AcDbEntity
  8
0
100
AcDbLine
 62
7
  6
CONTINUOUS
 10
10.5309011854
 20
-2.8466326272
 11
11.5498743846
 21
-1.827659428
  0
LINE
  5
46A
100
AcDbEntity
  8
0
100
AcDbLine
 62
7
  6
CONTINUOUS
 10
10.5309011854
 20
-3.0566433412
 11
11.5498743846
 21
-2.037670142
  0
LINE
  5
46B
100
AcDbEntity
  8
CURVE
100
AcDbLine
 62
250
  6
CONTINUOUS
 10
3.5227895611
 20
-10.2023809671
 11
3.3370894097
 21
-10.3880951643
  0
LINE
  5
46C
100
AcDbEntity
  8
0
100
AcDbLine
 62
7
  6
CONTINUOUS
 10
10.5309011854
 20
-3.2666540552
 11
11.5498743846
 21
-2.247680856
  0
LINE
  5
46D
100
AcDbEntity
  8
0
100
AcDbLine
 62
7
  6
CONTINUOUS
 10
10.5309011854
 20
-3.4766647692
 11
11.5498743846
 21
-2.4576915701
  0
LINE
  5
46E
100
AcDbEntity
  8
0
100
AcDbLine
 62
7
  6
CONTINUOUS
 10
6.4999864333
 20
-7.6806861201
 11
6.7510825534
 21
-7.42959
  0
LINE
  5
46F
100
AcDbEntity
  8
0
100
AcDbLine
 62
7
  6
CONTINUOUS
 10
10.5309011854
 20
-3.6866754832
 11
11.5498743846
 21
-2.6677022841
  0
LINE
  5
470
100
AcDbEntity
  8
CURVE
100
AcDbLine
 62
250
  6
CONTINUOUS
 10
0.0087714571
 20
-14.35
 11
-0.1769286749
 21
-14.5357142746
  0
LINE
  5
471
100
AcDbEntity
  8
0
100
AcDbLine
 62
7
  6
CONTINUOUS
 10
10.5309011854
 20
-3.8966861972
 11
11.5498743846
 21
-2.8777129981
  0
LINE
  5
472
100
AcDbEntity
  8
0
100
AcDbLine
 62
250
  6
CONTINUOUS
 10
12.7498743846
 20
-1.7166670799
 11
12.8427315607
 21
-1.6238090515
  0
LINE
  5
473
100
AcDbEntity
  8
0
100
AcDbLine
 62
7
  6
CONTINUOUS
 10
6.529464531
 20
-8.0712294504
 11
7.1711039814
 21
-7.42959
  0
LINE
  5
474
100
AcDbEntity
  8
0
100
AcDbLine
 62
7
  6
CONTINUOUS
 10
10.5309011854
 20
-4.1066969112
 11
11.5498743846
 21
-3.0877237121
  0
LINE
  5
475
100
AcDbEntity
  8
0
100
AcDbLine
 62
250
  6
CONTINUOUS
 10
12.7498743846
 20
-4.1309522629
 11
14.0498743846
 21
-3.4809522629
  0
LINE
  5
476
100
AcDbEntity
  8
CURVE
100
AcDbLine
 62
250
  6
CONTINUOUS
 10
2.6600561672
 20
8.6595238686
 11
2.3815059304
 21
8.6595238686
  0
LINE
  5
477
100
AcDbEntity
  8
CURVE
100
AcDbLine
 62
250
  6
CONTINUOUS
 10
3.3100066488
 20
8.7214287043
 11
2.9386063653
 21
8.7214287043
  0
LINE
  5
478
100
AcDbEntity
  8
CURVE
100
AcDbLine
 62
250
  6
CONTINUOUS
 10
3.3100066488
 20
9.0928570986
 11
2.8457562993
 21
9.0928570986
  0
LINE
  5
479
100
AcDbEntity
  8
CURVE
100
AcDbLine
 62
250
  6
CONTINUOUS
 10
2.9386063653
 20
9.7428570986
 11
3.3100066488
 21
9.7428570986
  0
LINE
  5
47A
100
AcDbEntity
  8
0
100
AcDbLine
 62
7
  6
CONTINUOUS
 10
19.1498743846
 20
9.8
 11
19.3498743846
 21
9.8
  0
LINE
  5
47B
100
AcDbEntity
  8
ASSI
100
AcDbLine
 62
7
  6
CONTINUOUS
 10
19.1498743846
 20
9.8
 11
19.3498743846
 21
9.8
  0
LINE
  5
47C
100
AcDbEntity
  8
0
100
AcDbLine
 62
250
  6
CONTINUOUS
 10
-2.850538584
 20
10.14156
 11
-4.6504125088
 21
10.14156
  0
LINE
  5
47D
100
AcDbEntity
  8
0
100
AcDbLine
 62
250
  6
CONTINUOUS
 10
-4.4487488671
 20
10.381053
 11
-3.8765174472
 21
10.381053
  0
LINE
  5
47E
100
AcDbEntity
  8
0
100
AcDbLine
 62
250
  6
CONTINUOUS
 10
-3.6748368069
 20
10.381053
 11
-3.0522022256
 21
10.381053
  0
LINE
  5
47F
100
AcDbEntity
  8
CURVE
100
AcDbLine
 62
250
  6
CONTINUOUS
 10
2.8457562993
 20
9.0928570986
 11
2.4743560352
 21
9.2785712957
  0
LINE
  5
480
100
AcDbEntity
  8
CURVE
100
AcDbLine
 62
250
  6
CONTINUOUS
 10
0.0087714571
 20
11.092857147
 11
0.1944715892
 21
11.0
  0
LINE
  5
481
100
AcDbEntity
  8
CURVE
100
AcDbLine
 62
250
  6
CONTINUOUS
 10
2.4743560352
 20
10.1142858028
 11
2.1958057984
 21
10.3
  0
LINE
  5
482
100
AcDbEntity
  8
CURVE
100
AcDbLine
 62
250
  6
CONTINUOUS
 10
2.5672060625
 20
10.7642858028
 11
3.4957068002
 21
10.1142858028
  0
LINE
  5
483
100
AcDbEntity
  8
CURVE
100
AcDbLine
 62
250
  6
CONTINUOUS
 10
0.0087714571
 20
12.0214285493
 11
-0.1769286749
 21
12.2071428239
  0
LINE
  5
484
100
AcDbEntity
  8
CURVE
100
AcDbLine
 62
250
  6
CONTINUOUS
 10
3.4957068002
 20
8.5357141972
 11
3.3100066488
 21
8.7214287043
  0
LINE
  5
485
100
AcDbEntity
  8
0
100
AcDbLine
 62
250
  6
CONTINUOUS
 10
14.0498743846
 20
-1.8095238686
 11
13.8641600906
 21
-1.6238090515
  0
LINE
  5
486
100
AcDbEntity
  8
CURVE
100
AcDbLine
 62
250
  6
CONTINUOUS
 10
1.1229723269
 20
11.371428588
 11
0.9372721755
 21
11.5571428627
  0
LINE
  5
487
100
AcDbEntity
  8
CURVE
100
AcDbLine
 62
250
  6
CONTINUOUS
 10
3.3100066488
 20
9.7428570986
 11
3.4957068002
 21
9.5571429014
  0
LINE
  5
488
100
AcDbEntity
  8
CURVE
100
AcDbLine
 62
250
  6
CONTINUOUS
 10
0.7515720241
 20
12.5785714507
 11
1.1229723269
 21
12.2071428239
  0
LINE
  5
489
100
AcDbEntity
  8
CURVE
100
AcDbLine
 62
250
  6
CONTINUOUS
 10
-0.1769286749
 20
14.3428570986
 11
0.1944715892
 21
13.9714287043
  0
LINE
  5
48A
100
AcDbEntity
  8
CURVE
100
AcDbLine
 62
250
  6
CONTINUOUS
 10
1.0301222512
 20
13.6
 11
1.1229723269
 21
13.5071429014
  0
LINE
  5
48B
100
AcDbEntity
  8
0
100
AcDbLine
 62
250
  6
CONTINUOUS
 10
10.5309011854
 20
-5.592362
 11
10.5309011854
 21
-1.407638
  0
LINE
  5
48C
100
AcDbEntity
  8
0
100
AcDbLine
 62
250
  6
CONTINUOUS
 10
11.5498743846
 20
-1.407638
 11
11.5498743846
 21
-5.592362
  0
LINE
  5
48D
100
AcDbEntity
  8
0
100
AcDbLine
 62
250
  6
CONTINUOUS
 10
11.5498743846
 20
1.0
 11
11.5498743846
 21
1.999999282
  0
LWPOLYLINE
  5
48E
100
AcDbEntity
  8
0
100
AcDbPolyline
 62
250
  6
CONTINUOUS
 90
35
 70
0
 10
10.549874026
 20
3.9999999992
 10
10.5494880903
 20
3.9605105284
 10
10.5483346778
 20
3.9212787878
 10
10.5464203797
 20
3.8822674851
 10
10.5437517877
 20
3.8434393282
 10
10.5403354932
 20
3.8047570249
 10
10.5361780876
 20
3.7661832829
 10
10.5302176911
 20
3.7199992148
 10
10.5231958317
 20
3.6739351061
 10
10.5151087545
 20
3.6280082883
 10
10.5059527049
 20
3.5822360932
 10
10.4957239279
 20
3.5366358525
 10
10.4863784608
 20
3.4987817861
 10
10.4762872654
 20
3.4610828551
 10
10.4654521708
 20
3.4235627463
 10
10.4538750057
 20
3.3862451464
 10
10.441557599
 20
3.3491537422
 10
10.4285017796
 20
3.3123122206
 10
10.4147113482
 20
3.2757435403
 10
10.4001979924
 20
3.2394677495
 10
10.3849753721
 20
3.2035041683
 10
10.3690571467
 20
3.1678721169
 10
10.352456976
 20
3.1325909156
 10
10.3351885195
 20
3.0976798845
 10
10.3136019702
 20
3.0562985304
 10
10.2910873805
 20
3.0154877621
 10
10.2676593717
 20
2.9752572991
 10
10.243332565
 20
2.9356168611
 10
10.2181215817
 20
2.8965761674
 10
10.1964414277
 20
2.864502446
 10
10.1741290549
 20
2.8328278264
 10
10.1511561022
 20
2.8015281713
 10
10.1274942088
 20
2.7705793436
 10
10.1031150136
 20
2.7399572062
 10
10.0779901557
 20
2.7096376218
  0
LWPOLYLINE
  5
48F
100
AcDbEntity
  8
0
100
AcDbPolyline
 62
250
  6
CONTINUOUS
 90
7
 70
0
 10
11.5937139319
 20
-7.8605126037
 10
11.5976339921
 20
-7.7894134757
 10
11.5995673954
 20
-7.7182326096
 10
11.5995126342
 20
-7.6470255099
 10
11.5974697511
 20
-7.5758477019
 10
11.5934403391
 20
-7.5047546879
 10
11.5870077739
 20
-7.4295899921
  0
LWPOLYLINE
  5
490
100
AcDbEntity
  8
0
100
AcDbPolyline
 62
250
  6
CONTINUOUS
 90
7
 70
0
 10
11.5937139319
 20
-12.1955126037
 10
11.5976339921
 20
-12.1244134757
 10
11.5995673954
 20
-12.0532326096
 10
11.5995126342
 20
-11.9820255099
 10
11.5974697511
 20
-11.9108477019
 10
11.5934403391
 20
-11.8397546879
 10
11.5870077739
 20
-11.7645899921
  0
LINE
  5
491
100
AcDbEntity
  8
0
100
AcDbLine
 62
250
  6
CONTINUOUS
 10
13.6784457966
 20
-1.6238090515
 11
13.1213029339
 21
-2.2738090515
  0
LINE
  5
492
100
AcDbEntity
  8
0
100
AcDbLine
 62
7
  6
CONTINUOUS
 10
10.5309011854
 20
-4.3167076253
 11
11.5498743846
 21
-3.2977344261
  0
LINE
  5
493
100
AcDbEntity
  8
0
100
AcDbLine
 62
7
  6
CONTINUOUS
 10
6.6065700816
 20
-8.4141453279
 11
7.2663195917
 21
-7.7543958177
  0
LINE
  5
494
100
AcDbEntity
  8
0
100
AcDbLine
 62
7
  6
CONTINUOUS
 10
10.5309011854
 20
-4.5267183393
 11
11.5498743846
 21
-3.5077451401
  0
LINE
  5
495
100
AcDbEntity
  8
0
100
AcDbLine
 62
7
  6
CONTINUOUS
 10
10.5309011854
 20
-4.7367290533
 11
11.5498743846
 21
-3.7177558541
  0
LINE
  5
496
100
AcDbEntity
  8
0
100
AcDbLine
 62
7
  6
CONTINUOUS
 10
6.71998278
 20
-8.7207540575
 11
7.3192462216
 21
-8.1214906159
  0
LINE
  5
497
100
AcDbEntity
  8
0
100
AcDbLine
 62
7
  6
CONTINUOUS
 10
10.5309011854
 20
-4.9467397673
 11
11.5498743846
 21
-3.9277665681
  0
LINE
  5
498
100
AcDbEntity
  8
0
100
AcDbLine
 62
7
  6
CONTINUOUS
 10
10.5309011854
 20
-5.1567504813
 11
11.5498743846
 21
-4.1377772822
  0
LINE
  5
499
100
AcDbEntity
  8
0
100
AcDbLine
 62
7
  6
CONTINUOUS
 10
6.8636782308
 20
-8.9970800347
 11
7.4288960328
 21
-8.4318622327
  0
LINE
  5
49A
100
AcDbEntity
  8
0
100
AcDbLine
 62
7
  6
CONTINUOUS
 10
10.5309011854
 20
-5.3667611953
 11
11.5498743846
 21
-4.3477879962
  0
LINE
  5
49B
100
AcDbEntity
  8
0
100
AcDbLine
 62
7
  6
CONTINUOUS
 10
10.5309011854
 20
-5.5767719093
 11
11.5498743846
 21
-4.5577987102
  0
LINE
  5
49C
100
AcDbEntity
  8
0
100
AcDbLine
 62
250
  6
CONTINUOUS
 10
13.9570172376
 20
-2.2738090515
 11
14.0498743846
 21
-2.1809522629
  0
LINE
  5
49D
100
AcDbEntity
  8
0
100
AcDbLine
 62
7
  6
CONTINUOUS
 10
7.03428562
 20
-9.2464940736
 11
7.5814380517
 21
-8.6993416419
  0
LINE
  5
49E
100
AcDbEntity
  8
0
100
AcDbLine
 62
7
  6
CONTINUOUS
 10
10.7253218088
 20
-5.592362
 11
11.5498743846
 21
-4.7678094242
  0
LINE
  5
49F
100
AcDbEntity
  8
0
100
AcDbLine
 62
7
  6
CONTINUOUS
 10
10.9353325228
 20
-5.592362
 11
11.5498743846
 21
-4.9778201382
  0
LINE
  5
4A0
100
AcDbEntity
  8
CURVE
100
AcDbLine
 62
250
  6
CONTINUOUS
 10
3.3370894097
 20
-13.2357143521
 11
3.5227895611
 21
-13.05
  0
LINE
  5
4A1
100
AcDbEntity
  8
0
100
AcDbLine
 62
7
  6
CONTINUOUS
 10
7.2300400252
 20
-9.4707610964
 11
7.7710000116
 21
-8.92980111
  0
LINE
  5
4A2
100
AcDbEntity
  8
0
100
AcDbLine
 62
7
  6
CONTINUOUS
 10
8.6674009425
 20
-8.033400179
 11
8.7612111216
 21
-7.93959
  0
LINE
  5
4A3
100
AcDbEntity
  8
0
100
AcDbLine
 62
7
  6
CONTINUOUS
 10
11.1453432368
 20
-5.592362
 11
11.5498743846
 21
-5.1878308522
  0
LINE
  5
4A4
100
AcDbEntity
  8
0
100
AcDbLine
 62
7
  6
CONTINUOUS
 10
11.3553539508
 20
-5.592362
 11
11.5498743846
 21
-5.3978415662
  0
LINE
  5
4A5
100
AcDbEntity
  8
0
100
AcDbLine
 62
7
  6
CONTINUOUS
 10
7.4503417471
 20
-9.6704808025
 11
7.9957605216
 21
-9.1250620279
  0
LINE
  5
4A6
100
AcDbEntity
  8
0
100
AcDbLine
 62
7
  6
CONTINUOUS
 10
8.6674009156
 20
-8.453421634
 11
9.1812325496
 21
-7.93959
  0
LINE
  5
4A7
100
AcDbEntity
  8
0
100
AcDbLine
 62
7
  6
CONTINUOUS
 10
7.6956222933
 20
-9.8452216843
 11
8.2570218124
 21
-9.2838221652
  0
LINE
  5
4A8
100
AcDbEntity
  8
0
100
AcDbLine
 62
7
  6
CONTINUOUS
 10
8.6674008887
 20
-8.8734430889
 11
9.4323718197
 21
-8.1084721579
  0
LINE
  5
4A9
100
AcDbEntity
  8
CURVE
100
AcDbLine
 62
250
  6
CONTINUOUS
 10
1.1229723269
 20
-12.3380951643
 11
0.565871892
 21
-12.7095238686
  0
LWPOLYLINE
  5
4AA
100
AcDbEntity
  8
0
100
AcDbPolyline
 62
250
  6
CONTINUOUS
 90
8
 70
0
 10
9.4323718197
 20
-9.428126
 10
9.792172089
 20
-9.307918064
 10
10.1184446406
 20
-9.1143873028
 10
10.3964523269
 20
-8.8562751548
 10
10.6166326262
 20
-8.5397761207
 10
10.761964215
 20
-8.1893575688
 10
10.8299643104
 20
-7.8161395686
 10
10.8165106681
 20
-7.4295900283
  0
LWPOLYLINE
  5
4AB
100
AcDbEntity
  8
0
100
AcDbPolyline
 62
250
  6
CONTINUOUS
 90
90
 70
0
 10
-3.571175578
 20
12.0085272007
 10
-3.5417081238
 20
12.0087330309
 10
-3.5122321578
 20
12.0093921219
 10
-3.4827644051
 20
12.0105668744
 10
-3.4533215907
 20
12.0123196891
 10
-3.4239204396
 20
12.0147129665
 10
-3.3945776769
 20
12.0178091073
 10
-3.3653100275
 20
12.0216705122
 10
-3.3361342164
 20
12.0263595819
 10
-3.3070669688
 20
12.0319387169
 10
-3.2781250095
 20
12.038470318
 10
-3.2542495631
 20
12.0446480707
 10
-3.2305252647
 20
12.0515419945
 10
-3.2070056907
 20
12.0591709871
 10
-3.1837444175
 20
12.0675539463
 10
-3.1607950215
 20
12.0767097697
 10
-3.1382110791
 20
12.0866573551
 10
-3.1160461667
 20
12.0974156002
 10
-3.0943538608
 20
12.1090034027
 10
-3.0731877377
 20
12.1214396605
 10
-3.0526013738
 20
12.1347432712
 10
-3.0326483456
 20
12.1489331325
 10
-3.0133822294
 20
12.1640281422
 10
-2.9947307212
 20
12.1801482157
 10
-2.9768693646
 20
12.1971572896
 10
-2.9598377143
 20
12.2150077041
 10
-2.9436753251
 20
12.2336517994
 10
-2.9284217515
 20
12.2530419154
 10
-2.9141165484
 20
12.2731303924
 10
-2.9008095344
 20
12.2938363511
 10
-2.8884741954
 20
12.3151320707
 10
-2.8770972165
 20
12.3369585443
 10
-2.866665283
 20
12.3592567649
 10
-2.8571650799
 20
12.3819677257
 10
-2.8485832924
 20
12.4050324199
 10
-2.8402718544
 20
12.4304573297
 10
-2.8329855998
 20
12.4561933296
 10
-2.8266790316
 20
12.4822028659
 10
-2.8213066525
 20
12.5084483847
 10
-2.8168229651
 20
12.5348923323
 10
-2.8131824722
 20
12.5614971547
 10
-2.8103396766
 20
12.5882252981
 10
-2.808249081
 20
12.6150392088
 10
-2.8068651881
 20
12.6419013329
 10
-2.8061425007
 20
12.6687741166
 10
-2.8060355216
 20
12.6956200061
 10
-2.8065959585
 20
12.725195786
 10
-2.8078980383
 20
12.7546894137
 10
-2.8099881182
 20
12.7840973217
 10
-2.8129125549
 20
12.8134159426
 10
-2.8167177055
 20
12.8426417087
 10
-2.8205946564
 20
12.8669051742
 10
-2.8251528336
 20
12.891065285
 10
-2.8304303064
 20
12.9150855793
 10
-2.8364651444
 20
12.9389295956
 10
-2.843295417
 20
12.962560872
 10
-2.8509591937
 20
12.9859429471
 10
-2.8594966791
 20
13.0090500739
 10
-2.8689245367
 20
13.0318140987
 10
-2.87926049
 20
13.0541779347
 10
-2.8905222628
 20
13.0760844952
 10
-2.9027275787
 20
13.0974766935
 10
-2.9158941615
 20
13.118297443
 10
-2.9300274046
 20
13.138485883
 10
-2.9451033794
 20
13.1579941507
 10
-2.961086283
 20
13.1767703165
 10
-2.9779403126
 20
13.1947624507
 10
-2.9956296656
 20
13.2119186239
 10
-3.014118539
 20
13.2281869062
 10
-3.0332460899
 20
13.2434350557
 10
-3.053073482
 20
13.2577752082
 10
-3.0735462937
 20
13.2712275521
 10
-3.0946101034
 20
13.2838122758
 10
-3.1162104894
 20
13.2955495679
 10
-3.13829303
 20
13.3064596167
 10
-3.1608033035
 20
13.3165626108
 10
-3.1836868883
 20
13.3258787385
 10
-3.2068893626
 20
13.3344281883
 10
-3.2303563048
 20
13.3422311487
 10
-3.2540332932
 20
13.3493078081
 10
-3.2778659062
 20
13.355678355
 10
-3.3100369009
 20
13.3631620286
 10
-3.3423670629
 20
13.3694839406
 10
-3.3748330672
 20
13.3747192106
 10
-3.4074115887
 20
13.3789429577
 10
-3.4400793023
 20
13.3822303014
 10
-3.4728128831
 20
13.384656361
 10
-3.505589006
 20
13.3862962558
 10
-3.538384346
 20
13.3872251051
 10
-3.571175578
 20
13.3875180284
  0
LINE
  5
4AC
100
AcDbEntity
  8
CURVE
100
AcDbLine
 62
250
  6
CONTINUOUS
 10
2.3815059304
 20
10.7642858028
 11
2.5672060625
 21
10.7642858028
  0
LINE
  5
4AD
100
AcDbEntity
  8
CURVE
100
AcDbLine
 62
250
  6
CONTINUOUS
 10
0.1944715892
 20
11.0
 11
0.7515720241
 21
11.0
  0
LINE
  5
4AE
100
AcDbEntity
  8
0
100
AcDbLine
 62
250
  6
CONTINUOUS
 10
-3.8765174472
 20
11.316398
 11
-3.6748368069
 21
11.316398
  0
LINE
  5
4AF
100
AcDbEntity
  8
0
100
AcDbLine
 62
250
  6
CONTINUOUS
 10
-4.6504125088
 20
11.384415
 11
-4.4487488671
 21
11.384415
  0
LINE
  5
4B0
100
AcDbEntity
  8
0
100
AcDbLine
 62
250
  6
CONTINUOUS
 10
-3.0522022256
 20
11.392007
 11
-2.850538584
 21
11.392007
  0
LINE
  5
4B1
100
AcDbEntity
  8
CURVE
100
AcDbLine
 62
250
  6
CONTINUOUS
 10
0.7515720241
 20
11.65
 11
0.1944715892
 21
11.65
  0
LINE
  5
4B2
100
AcDbEntity
  8
0
100
AcDbLine
 62
250
  6
CONTINUOUS
 10
-3.571175578
 20
12.0085272007
 11
-4.65209619
 21
12.0085272007
  0
LINE
  5
4B3
100
AcDbEntity
  8
CURVE
100
AcDbLine
 62
250
  6
CONTINUOUS
 10
0.3801717212
 20
12.0214285493
 11
0.0087714571
 21
12.0214285493
  0
LINE
  5
4B4
100
AcDbEntity
  8
0
100
AcDbLine
 62
250
  6
CONTINUOUS
 10
-4.65209619
 20
12.1196482155
 11
-3.571175578
 21
12.1196482155
  0
LINE
  5
4B5
100
AcDbEntity
  8
CURVE
100
AcDbLine
 62
250
  6
CONTINUOUS
 10
2.1958057984
 20
12.1571425915
 11
3.4957068002
 21
12.1571425915
  0
LINE
  5
4B6
100
AcDbEntity
  8
0
100
AcDbLine
 62
7
  6
CONTINUOUS
 10
19.1498743846
 20
12.4277568136
 11
19.3498743846
 21
12.4277568136
  0
LINE
  5
4B7
100
AcDbEntity
  8
ASSI
100
AcDbLine
 62
7
  6
CONTINUOUS
 10
19.1498743846
 20
12.4277568136
 11
19.3498743846
 21
12.4277568136
  0
LINE
  5
4B8
100
AcDbEntity
  8
CURVE
100
AcDbLine
 62
250
  6
CONTINUOUS
 10
0.3801717212
 20
12.6714285493
 11
0.7515720241
 21
12.5785714507
  0
LINE
  5
4B9
100
AcDbEntity
  8
CURVE
100
AcDbLine
 62
250
  6
CONTINUOUS
 10
0.9372721755
 20
11.5571428627
 11
0.7515720241
 21
11.65
  0
LINE
  5
4BA
100
AcDbEntity
  8
CURVE
100
AcDbLine
 62
250
  6
CONTINUOUS
 10
1.0301222512
 20
15.2714287043
 11
1.1229723269
 21
15.1785712957
  0
LINE
  5
4BB
100
AcDbEntity
  8
0
100
AcDbLine
 62
250
  6
CONTINUOUS
 10
12.7498743846
 20
-12.2714285493
 11
12.7498743846
 21
-11.8071429014
  0
LINE
  5
4BC
100
AcDbEntity
  8
0
100
AcDbLine
 62
250
  6
CONTINUOUS
 10
12.7498743846
 20
-11.0952380657
 11
12.7498743846
 21
-10.5380951643
  0
LINE
  5
4BD
100
AcDbEntity
  8
0
100
AcDbLine
 62
250
  6
CONTINUOUS
 10
12.7498743846
 20
-6.26666646
 11
12.7498743846
 21
-5.5238096714
  0
LINE
  5
4BE
100
AcDbEntity
  8
0
100
AcDbLine
 62
250
  6
CONTINUOUS
 10
12.7498743846
 20
-2.0880954742
 11
12.7498743846
 21
-1.7166670799
  0
LINE
  5
4BF
100
AcDbEntity
  8
0
100
AcDbLine
 62
250
  6
CONTINUOUS
 10
13.3070172085
 20
-10.7238096714
 11
13.3070172085
 21
-11.0952380657
  0
LINE
  5
4C0
100
AcDbEntity
  8
0
100
AcDbLine
 62
250
  6
CONTINUOUS
 10
13.6784457966
 20
-13.2619047582
 11
13.6784457966
 21
-12.766666615
  0
LINE
  5
4C1
100
AcDbEntity
  8
0
100
AcDbLine
 62
250
  6
CONTINUOUS
 10
13.6784457966
 20
-0.2928567886
 11
13.6784457966
 21
0.2023806572
  0
LINE
  5
4C2
100
AcDbEntity
  8
0
100
AcDbLine
 62
250
  6
CONTINUOUS
 10
14.0498743846
 20
-10.5380951643
 11
14.0498743846
 21
-11.0952380657
  0
LINE
  5
4C3
100
AcDbEntity
  8
0
100
AcDbLine
 62
250
  6
CONTINUOUS
 10
14.0498743846
 20
-11.8071429014
 11
14.0498743846
 21
-12.2714285493
  0
LINE
  5
4C4
100
AcDbEntity
  8
0
100
AcDbLine
 62
250
  6
CONTINUOUS
 10
14.0498743846
 20
-4.96666646
 11
14.0498743846
 21
-4.6880954742
  0
LINE
  5
4C5
100
AcDbEntity
  8
0
100
AcDbLine
 62
250
  6
CONTINUOUS
 10
14.0498743846
 20
-2.1809522629
 11
14.0498743846
 21
-1.8095238686
  0
LINE
  5
4C6
100
AcDbEntity
  8
0
100
AcDbLine
 62
7
  6
CONTINUOUS
 10
7.9674400235
 20
-9.9934253822
 11
8.5598600831
 21
-9.4010053226
  0
LINE
  5
4C7
100
AcDbEntity
  8
0
100
AcDbLine
 62
7
  6
CONTINUOUS
 10
8.6674008618
 20
-9.2934645439
 11
9.4323718197
 21
-8.5284935859
  0
LINE
  5
4C8
100
AcDbEntity
  8
0
100
AcDbLine
 62
7
  6
CONTINUOUS
 10
6.5039781804
 20
-11.8769086533
 11
6.6162968337
 21
-11.76459
  0
LINE
  5
4C9
100
AcDbEntity
  8
0
100
AcDbLine
 62
7
  6
CONTINUOUS
 10
8.2688596994
 20
-10.1120271342
 11
9.4323718197
 21
-8.948515014
  0
LINE
  5
4CA
100
AcDbEntity
  8
0
100
AcDbLine
 62
7
  6
CONTINUOUS
 10
10.829817554
 20
-7.5510692797
 11
10.9512968337
 21
-7.42959
  0
LINE
  5
4CB
100
AcDbEntity
  8
0
100
AcDbLine
 62
7
  6
CONTINUOUS
 10
6.5140300315
 20
-12.2868782301
 11
7.0363182617
 21
-11.76459
  0
LINE
  5
4CC
100
AcDbEntity
  8
0
100
AcDbLine
 62
7
  6
CONTINUOUS
 10
8.6053650698
 20
-10.1955431919
 11
9.4323718197
 21
-9.368536442
  0
LINE
  5
4CD
100
AcDbEntity
  8
0
100
AcDbLine
 62
7
  6
CONTINUOUS
 10
10.8079879284
 20
-7.9929203333
 11
11.3713182617
 21
-7.42959
  0
LINE
  5
4CE
100
AcDbEntity
  8
0
100
AcDbLine
 62
250
  6
CONTINUOUS
 10
13.8641600906
 20
-5.1523806572
 11
14.0498743846
 21
-4.96666646
  0
LINE
  5
4CF
100
AcDbEntity
  8
0
100
AcDbLine
 62
7
  6
CONTINUOUS
 10
6.5774734765
 20
-12.6434562132
 11
7.2661303835
 21
-11.9547993062
  0
LINE
  5
4D0
100
AcDbEntity
  8
0
100
AcDbLine
 62
7
  6
CONTINUOUS
 10
8.9871124896
 20
-10.2338172001
 11
10.0752610911
 21
-9.1456685987
  0
LINE
  5
4D1
100
AcDbEntity
  8
0
100
AcDbLine
 62
7
  6
CONTINUOUS
 10
10.5108703045
 20
-8.7100593853
 11
11.5990189059
 21
-7.6219107838
  0
LINE
  5
4D2
100
AcDbEntity
  8
0
100
AcDbLine
 62
7
  6
CONTINUOUS
 10
6.6800679147
 20
-12.960883203
 11
7.2950352456
 21
-12.3459158722
  0
LINE
  5
4D3
100
AcDbEntity
  8
0
100
AcDbLine
 62
7
  6
CONTINUOUS
 10
9.4357224315
 20
-10.2052286862
 11
11.5704143986
 21
-8.0705367192
  0
LINE
  5
4D4
100
AcDbEntity
  8
0
100
AcDbLine
 62
7
  6
CONTINUOUS
 10
6.8145106063
 20
-13.2464619395
 11
7.3885961253
 21
-12.6723764205
  0
LINE
  5
4D5
100
AcDbEntity
  8
0
100
AcDbLine
 62
7
  6
CONTINUOUS
 10
10.016844075
 20
-10.0441284708
 11
11.4092981897
 21
-8.651674356
  0
LINE
  5
4D6
100
AcDbEntity
  8
0
100
AcDbLine
 62
250
  6
CONTINUOUS
 10
12.7498743846
 20
-8.3095238686
 11
14.0498743846
 21
-7.6595238686
  0
LINE
  5
4D7
100
AcDbEntity
  8
CURVE
100
AcDbLine
 62
250
  6
CONTINUOUS
 10
0.0087714571
 20
12.6714285493
 11
0.3801717212
 21
12.6714285493
  0
LINE
  5
4D8
100
AcDbEntity
  8
CURVE
100
AcDbLine
 62
250
  6
CONTINUOUS
 10
3.4957068002
 20
12.9
 11
2.1958057984
 21
12.9
  0
LINE
  5
4D9
100
AcDbEntity
  8
CURVE
100
AcDbLine
 62
250
  6
CONTINUOUS
 10
2.1958057984
 20
13.2714283943
 11
3.4957068002
 21
13.2714283943
  0
LINE
  5
4DA
100
AcDbEntity
  8
0
100
AcDbLine
 62
250
  6
CONTINUOUS
 10
-3.571175578
 20
13.2763980551
 11
-4.65209619
 21
13.2763980551
  0
LINE
  5
4DB
100
AcDbEntity
  8
0
100
AcDbLine
 62
250
  6
CONTINUOUS
 10
-4.65209619
 20
13.3875180284
 11
-3.571175578
 21
13.3875180284
  0
LINE
  5
4DC
100
AcDbEntity
  8
CURVE
100
AcDbLine
 62
250
  6
CONTINUOUS
 10
0.0087714571
 20
13.5690475821
 11
0.2873216939
 21
13.5690475821
  0
LINE
  5
4DD
100
AcDbEntity
  8
CURVE
100
AcDbLine
 62
250
  6
CONTINUOUS
 10
0.565871892
 20
13.6
 11
1.0301222512
 21
13.6
  0
LINE
  5
4DE
100
AcDbEntity
  8
0
100
AcDbLine
 62
250
  6
CONTINUOUS
 10
-2.8489247197
 20
13.7055897345
 11
-4.6520909829
 21
13.7055897345
  0
LINE
  5
4DF
100
AcDbEntity
  8
0
100
AcDbLine
 62
250
  6
CONTINUOUS
 10
-4.5561134319
 20
13.8167794885
 11
-3.7479743293
 21
13.8167794885
  0
LINE
  5
4E0
100
AcDbEntity
  8
0
100
AcDbLine
 62
250
  6
CONTINUOUS
 10
-3.6519967783
 20
13.8167794885
 11
-2.8489247197
 21
13.8167794885
  0
LINE
  5
4E1
100
AcDbEntity
  8
CURVE
100
AcDbLine
 62
250
  6
CONTINUOUS
 10
3.4957068002
 20
13.9214283943
 11
2.1958057984
 21
13.9214283943
  0
LINE
  5
4E2
100
AcDbEntity
  8
CURVE
100
AcDbLine
 62
250
  6
CONTINUOUS
 10
1.1229723269
 20
14.3428570986
 11
-0.1769286749
 21
14.3428570986
  0
LWPOLYLINE
  5
4E3
100
AcDbEntity
  8
0
100
AcDbPolyline
 62
250
  6
CONTINUOUS
 90
58
 70
0
 10
-3.571175578
 20
13.2763980551
 10
-3.5479665742
 20
13.2762491111
 10
-3.5247628206
 20
13.2757804178
 10
-3.5015697323
 20
13.2749591833
 10
-3.478392724
 20
13.273752616
 10
-3.4552372106
 20
13.272127924
 10
-3.432108607
 20
13.2700523155
 10
-3.4090123281
 20
13.2674929988
 10
-3.3859537887
 20
13.2644171819
 10
-3.3629384036
 20
13.2607920732
 10
-3.3399715878
 20
13.2565848808
 10
-3.3170587561
 20
13.251762813
 10
-3.3013584361
 20
13.2480771956
 10
-3.2857082582
 20
13.244073386
 10
-3.2701303419
 20
13.2397387418
 10
-3.2546468067
 20
13.2350606206
 10
-3.239279772
 20
13.2300263802
 10
-3.2240513574
 20
13.2246233784
 10
-3.2089836823
 20
13.2188389728
 10
-3.1940988661
 20
13.2126605211
 10
-3.1794190284
 20
13.206075381
 10
-3.1649662886
 20
13.1990709102
 10
-3.1507627663
 20
13.1916344665
 10
-3.1368305808
 20
13.1837534075
 10
-3.1231918517
 20
13.1754150909
 10
-3.1098686984
 20
13.1666068745
 10
-3.0968832405
 20
13.157316116
 10
-3.0842575973
 20
13.147530173
 10
-3.0720351386
 20
13.1372631972
 10
-3.0602000448
 20
13.1265137227
 10
-3.0487592517
 20
13.1153050763
 10
-3.037719695
 20
13.1036605847
 10
-3.0270883106
 20
13.0916035747
 10
-3.0168720343
 20
13.0791573729
 10
-3.0070778018
 20
13.0663453061
 10
-2.997712549
 20
13.0531907012
 10
-2.9887832116
 20
13.0397168848
 10
-2.9802967254
 20
13.0259471836
 10
-2.9722600263
 20
13.0119049245
 10
-2.9646800499
 20
12.9976134341
 10
-2.9575637322
 20
12.9830960392
 10
-2.9509180089
 20
12.9683760666
 10
-2.9447498158
 20
12.953476843
 10
-2.9390660887
 20
12.9384216951
 10
-2.9331411443
 20
12.9209737706
 10
-2.9278349719
 20
12.9033668693
 10
-2.9231187752
 20
12.885616751
 10
-2.9189637581
 20
12.8677391755
 10
-2.9153411245
 20
12.8497499026
 10
-2.912222078
 20
12.8316646921
 10
-2.9095778227
 20
12.813499304
 10
-2.9073795623
 20
12.7952694979
 10
-2.9055985007
 20
12.7769910337
 10
-2.9042058417
 20
12.7586796713
 10
-2.9031727891
 20
12.7403511705
 10
-2.9024705468
 20
12.722021291
 10
-2.9020703186
 20
12.7037057928
 10
-2.9019433083
 20
12.6854204356
  0
LINE
  5
4E4
100
AcDbEntity
  8
CURVE
100
AcDbLine
 62
250
  6
CONTINUOUS
 10
2.1958057984
 20
12.9
 11
2.9386063653
 21
12.5285716057
  0
LINE
  5
4E5
100
AcDbEntity
  8
CURVE
100
AcDbLine
 62
250
  6
CONTINUOUS
 10
3.4957068002
 20
14.2928574085
 11
2.5672060625
 21
14.85
  0
LINE
  5
4E6
100
AcDbEntity
  8
0
100
AcDbLine
 62
7
  6
CONTINUOUS
 10
6.9767386212
 20
-13.5042553526
 11
7.5282712508
 21
-12.952722723
  0
LINE
  5
4E7
100
AcDbEntity
  8
0
100
AcDbLine
 62
7
  6
CONTINUOUS
 10
7.1645395834
 20
-13.7364758184
 11
7.7063111048
 21
-13.1947042971
  0
LINE
  5
4E8
100
AcDbEntity
  8
0
100
AcDbLine
 62
7
  6
CONTINUOUS
 10
7.3769662832
 20
-13.9440705466
 11
7.9197830475
 21
-13.4012537823
  0
LINE
  5
4E9
100
AcDbEntity
  8
0
100
AcDbLine
 62
7
  6
CONTINUOUS
 10
7.6141198031
 20
-14.1269384548
 11
8.1689901346
 21
-13.5720681233
  0
LINE
  5
4EA
100
AcDbEntity
  8
0
100
AcDbLine
 62
7
  6
CONTINUOUS
 10
7.8771717334
 20
-14.2839079525
 11
8.4576194905
 21
-13.7034601954
  0
LINE
  5
4EB
100
AcDbEntity
  8
0
100
AcDbLine
 62
7
  6
CONTINUOUS
 10
8.1686379112
 20
-14.4124632027
 11
8.794828825
 21
-13.7862722889
  0
LINE
  5
4EC
100
AcDbEntity
  8
0
100
AcDbLine
 62
7
  6
CONTINUOUS
 10
8.4930722561
 20
-14.5080502858
 11
9.2031224231
 21
-13.7980001189
  0
LINE
  5
4ED
100
AcDbEntity
  8
0
100
AcDbLine
 62
7
  6
CONTINUOUS
 10
10.8282229504
 20
-12.1728995915
 11
11.2365325419
 21
-11.76459
  0
LINE
  5
4EE
100
AcDbEntity
  8
0
100
AcDbLine
 62
250
  6
CONTINUOUS
 10
12.7498743846
 20
-13.0142856479
 11
14.0498743846
 21
-12.6428570986
  0
LWPOLYLINE
  5
4EF
100
AcDbEntity
  8
0
100
AcDbPolyline
 62
250
  6
CONTINUOUS
 90
54
 70
0
 10
-4.1470190142
 20
14.9987326445
 10
-4.162972452
 20
14.9986012211
 10
-4.17895115
 20
14.9981915932
 10
-4.1949397795
 20
14.9974807245
 10
-4.2109230119
 20
14.9964455786
 10
-4.2268855187
 20
14.9950631193
 10
-4.2428119712
 20
14.9933103101
 10
-4.2586870409
 20
14.9911641148
 10
-4.2744953993
 20
14.988601497
 10
-4.2902217177
 20
14.9855994203
 10
-4.3058506675
 20
14.9821348484
 10
-4.3213669203
 20
14.978184745
 10
-4.3367551473
 20
14.9737260738
 10
-4.35200002
 20
14.9687357983
 10
-4.3659312263
 20
14.9636414376
 10
-4.3797065972
 20
14.9580813052
 10
-4.3933055244
 20
14.9520622863
 10
-4.4067073998
 20
14.9455912663
 10
-4.4198916151
 20
14.9386751302
 10
-4.4328375623
 20
14.9313207633
 10
-4.4455246331
 20
14.9235350509
 10
-4.4579322194
 20
14.9153248782
 10
-4.470039713
 20
14.9066971303
 10
-4.4818265057
 20
14.8976586926
 10
-4.4932719894
 20
14.8882164502
 10
-4.5043555558
 20
14.8783772883
 10
-4.5150565969
 20
14.8681480923
 10
-4.5253545044
 20
14.8575357472
 10
-4.5352722334
 20
14.8465021252
 10
-4.5447584253
 20
14.8351092109
 10
-4.5538088723
 20
14.823377162
 10
-4.5624193668
 20
14.8113261357
 10
-4.5705857012
 20
14.7989762895
 10
-4.5783036679
 20
14.7863477809
 10
-4.5855690591
 20
14.7734607672
 10
-4.5923867464
 20
14.7603233349
 10
-4.5987616094
 20
14.7469662986
 10
-4.604708428
 20
14.7334088306
 10
-4.6102419825
 20
14.7196701032
 10
-4.6153770529
 20
14.7057692885
 10
-4.6201284193
 20
14.6917255588
 10
-4.6245108619
 20
14.6775580865
 10
-4.6291537519
 20
14.6609770528
 10
-4.6333310662
 20
14.644269464
 10
-4.6370545931
 20
14.6274497195
 10
-4.640336121
 20
14.6105322188
 10
-4.6431874383
 20
14.5935313613
 10
-4.6456203333
 20
14.5764615464
 10
-4.6476465944
 20
14.5593371736
 10
-4.6492780098
 20
14.5421726423
 10
-4.6505263681
 20
14.5249823519
 10
-4.6514034574
 20
14.5077807019
 10
-4.6519210662
 20
14.4905820917
 10
-4.6520909829
 20
14.4734009208
  0
LINE
  5
4F0
100
AcDbEntity
  8
RACCORDO
100
AcDbLine
 62
250
  6
CONTINUOUS
 10
19.1498743846
 20
15.1687951175
 11
18.1586009201
 21
15.1687951175
  0
LINE
  5
4F1
100
AcDbEntity
  8
ASSI
100
AcDbLine
 62
250
  6
CONTINUOUS
 10
19.1498743846
 20
15.1687951175
 11
18.1586009201
 21
15.1687951175
  0
LINE
  5
4F2
100
AcDbEntity
  8
CURVE
100
AcDbLine
 62
250
  6
CONTINUOUS
 10
0.0087714571
 20
15.2404761314
 11
0.2873216939
 21
15.2404761314
  0
LINE
  5
4F3
100
AcDbEntity
  8
CURVE
100
AcDbLine
 62
250
  6
CONTINUOUS
 10
0.565871892
 20
15.2714287043
 11
1.0301222512
 21
15.2714287043
  0
LINE
  5
4F4
100
AcDbEntity
  8
0
100
AcDbLine
 62
7
  6
CONTINUOUS
 10
19.1498743846
 20
15.6
 11
19.3498743846
 21
15.6
  0
LINE
  5
4F5
100
AcDbEntity
  8
ASSI
100
AcDbLine
 62
7
  6
CONTINUOUS
 10
19.1498743846
 20
15.6
 11
19.3498743846
 21
15.6
  0
LINE
  5
4F6
100
AcDbEntity
  8
0
100
AcDbLine
 62
7
  6
CONTINUOUS
 10
19.1498743846
 20
15.767274
 11
19.3498743846
 21
15.767274
  0
LINE
  5
4F7
100
AcDbEntity
  8
ASSI
100
AcDbLine
 62
7
  6
CONTINUOUS
 10
19.1498743846
 20
15.767274
 11
19.3498743846
 21
15.767274
  0
LINE
  5
4F8
100
AcDbEntity
  8
0
100
AcDbLine
 62
7
  6
CONTINUOUS
 10
19.1498743846
 20
15.798679726
 11
19.3498743846
 21
15.798679726
  0
LINE
  5
4F9
100
AcDbEntity
  8
ASSI
100
AcDbLine
 62
7
  6
CONTINUOUS
 10
19.1498743846
 20
15.798679726
 11
19.3498743846
 21
15.798679726
  0
LINE
  5
4FA
100
AcDbEntity
  8
0
100
AcDbLine
 62
7
  6
CONTINUOUS
 10
19.1498743846
 20
15.953614
 11
19.3498743846
 21
15.953614
  0
LINE
  5
4FB
100
AcDbEntity
  8
ASSI
100
AcDbLine
 62
7
  6
CONTINUOUS
 10
19.1498743846
 20
15.953614
 11
19.3498743846
 21
15.953614
  0
LINE
  5
4FC
100
AcDbEntity
  8
0
100
AcDbLine
 62
7
  6
CONTINUOUS
 10
19.1498743846
 20
16.135032
 11
19.3498743846
 21
16.135032
  0
LINE
  5
4FD
100
AcDbEntity
  8
ASSI
100
AcDbLine
 62
7
  6
CONTINUOUS
 10
19.1498743846
 20
16.135032
 11
19.3498743846
 21
16.135032
  0
LINE
  5
4FE
100
AcDbEntity
  8
0
100
AcDbLine
 62
7
  6
CONTINUOUS
 10
19.1498743846
 20
16.21535
 11
19.3498743846
 21
16.21535
  0
LINE
  5
4FF
100
AcDbEntity
  8
ASSI
100
AcDbLine
 62
7
  6
CONTINUOUS
 10
19.1498743846
 20
16.21535
 11
19.3498743846
 21
16.21535
  0
LINE
  5
500
100
AcDbEntity
  8
RACCORDO
100
AcDbLine
 62
250
  6
CONTINUOUS
 10
-8.3501256154
 20
15.4001332693
 11
18.1586009201
 21
15.1687951175
  0
LINE
  5
501
100
AcDbEntity
  8
ASSI
100
AcDbLine
 62
250
  6
CONTINUOUS
 10
-8.3501256154
 20
15.4001332693
 11
18.1586009201
 21
15.1687951175
  0
LINE
  5
502
100
AcDbEntity
  8
RACCORDO
100
AcDbLine
 62
250
  6
CONTINUOUS
 10
-8.3501256154
 20
16.4071686525
 11
-9.8501256154
 21
16.4627802055
  0
LINE
  5
503
100
AcDbEntity
  8
RACCORDO
100
AcDbLine
 62
250
  6
CONTINUOUS
 10
18.1601356015
 20
18.6013844103
 11
18.1612759129
 21
18.4022330747
  0
LINE
  5
504
100
AcDbEntity
  8
ASSI
100
AcDbLine
 62
250
  6
CONTINUOUS
 10
18.1601356015
 20
18.6013844103
 11
18.1612759129
 21
18.4022330747
  0
LINE
  5
505
100
AcDbEntity
  8
RACCORDO
100
AcDbLine
 62
250
  6
CONTINUOUS
 10
18.1586009201
 20
-15.1687951175
 11
18.1591446326
 21
-15.3977454219
  0
LINE
  5
506
100
AcDbEntity
  8
ASSI
100
AcDbLine
 62
250
  6
CONTINUOUS
 10
18.1586009201
 20
-15.1687951175
 11
18.1591446326
 21
-15.3977454219
  0
LINE
  5
507
100
AcDbEntity
  8
RACCORDO
100
AcDbLine
 62
250
  6
CONTINUOUS
 10
18.1591446326
 20
-15.3977454219
 11
18.1612759129
 21
-16.5081308762
  0
LINE
  5
508
100
AcDbEntity
  8
ASSI
100
AcDbLine
 62
250
  6
CONTINUOUS
 10
18.1591446326
 20
-15.3977454219
 11
18.1612759129
 21
-16.5081308762
  0
LINE
  5
509
100
AcDbEntity
  8
RACCORDO
100
AcDbLine
 62
250
  6
CONTINUOUS
 10
18.1612759129
 20
18.4022330747
 11
18.1621107397
 21
17.9453991378
  0
LINE
  5
50A
100
AcDbEntity
  8
ASSI
100
AcDbLine
 62
250
  6
CONTINUOUS
 10
18.1612759129
 20
18.4022330747
 11
18.1621107397
 21
17.9453991378
  0
LINE
  5
50B
100
AcDbEntity
  8
RACCORDO
100
AcDbLine
 62
250
  6
CONTINUOUS
 10
18.1612759129
 20
-16.5081308762
 11
18.1621107397
 21
-17.2993789482
  0
LINE
  5
50C
100
AcDbEntity
  8
ASSI
100
AcDbLine
 62
250
  6
CONTINUOUS
 10
18.1612759129
 20
-16.5081308762
 11
18.1621107397
 21
-17.2993789482
  0
LINE
  5
50D
100
AcDbEntity
  8
RACCORDO
100
AcDbLine
 62
250
  6
CONTINUOUS
 10
18.1586009201
 20
15.1687951175
 11
18.1586009201
 21
-15.1687951175
  0
LINE
  5
50E
100
AcDbEntity
  8
ASSI
100
AcDbLine
 62
250
  6
CONTINUOUS
 10
18.1586009201
 20
15.1687951175
 11
18.1586009201
 21
-15.1687951175
  0
LINE
  5
50F
100
AcDbEntity
  8
RACCORDO
100
AcDbLine
 62
250
  6
CONTINUOUS
 10
18.1621107397
 20
17.9453991378
 11
18.1621107532
 21
17.2993725077
  0
LINE
  5
510
100
AcDbEntity
  8
ASSI
100
AcDbLine
 62
250
  6
CONTINUOUS
 10
18.1621107397
 20
17.9453991378
 11
18.1621107532
 21
17.2993725077
  0
LINE
  5
511
100
AcDbEntity
  8
RACCORDO
100
AcDbLine
 62
250
  6
CONTINUOUS
 10
18.1621107397
 20
-17.2993789482
 11
18.1621107532
 21
-17.9454040795
  0
LINE
  5
512
100
AcDbEntity
  8
ASSI
100
AcDbLine
 62
250
  6
CONTINUOUS
 10
18.1621107397
 20
-17.2993789482
 11
18.1621107532
 21
-17.9454040795
  0
LINE
  5
513
100
AcDbEntity
  8
RACCORDO
100
AcDbLine
 62
250
  6
CONTINUOUS
 10
18.1621107532
 20
17.2993725077
 11
18.1612759587
 21
16.508122451
  0
LINE
  5
514
100
AcDbEntity
  8
ASSI
100
AcDbLine
 62
250
  6
CONTINUOUS
 10
18.1621107532
 20
17.2993725077
 11
18.1612759587
 21
16.508122451
  0
LWPOLYLINE
  5
515
100
AcDbEntity
  8
RACCORDO
100
AcDbPolyline
 62
250
  6
CONTINUOUS
 90
3
 70
0
 10
18.1612759587
 20
16.508122451
 10
18.1591446363
 20
15.3977407545
 10
18.1586009201
 20
15.1687951175
  0
LWPOLYLINE
  5
516
100
AcDbEntity
  8
ASSI
100
AcDbPolyline
 62
250
  6
CONTINUOUS
 90
3
 70
0
 10
18.1612759587
 20
16.508122451
 10
18.1591446363
 20
15.3977407545
 10
18.1586009201
 20
15.1687951175
  0
LINE
  5
517
100
AcDbEntity
  8
RACCORDO
100
AcDbLine
 62
250
  6
CONTINUOUS
 10
18.1621107532
 20
-17.9454040795
 11
18.1612759587
 21
-18.4022365638
  0
LINE
  5
518
100
AcDbEntity
  8
ASSI
100
AcDbLine
 62
250
  6
CONTINUOUS
 10
18.1621107532
 20
-17.9454040795
 11
18.1612759587
 21
-18.4022365638
  0
LWPOLYLINE
  5
519
100
AcDbEntity
  8
RACCORDO
100
AcDbPolyline
 62
250
  6
CONTINUOUS
 90
5
 70
0
 10
18.1612759587
 20
-18.4022365638
 10
18.1601356243
 20
-18.6013864085
 10
18.159658753
 20
-18.638702622
 10
18.1591446363
 20
-18.6611609986
 10
18.1586009201
 20
-18.6686618482
  0
LWPOLYLINE
  5
51A
100
AcDbEntity
  8
ASSI
100
AcDbPolyline
 62
250
  6
CONTINUOUS
 90
5
 70
0
 10
18.1612759587
 20
-18.4022365638
 10
18.1601356243
 20
-18.6013864085
 10
18.159658753
 20
-18.638702622
 10
18.1591446363
 20
-18.6611609986
 10
18.1586009201
 20
-18.6686618482
  0
LINE
  5
51B
100
AcDbEntity
  8
0
100
AcDbLine
 62
7
  6
CONTINUOUS
 10
8.8587294712
 20
-14.5624144987
 11
9.766908532
 21
-13.6542354379
  0
LINE
  5
51C
100
AcDbEntity
  8
0
100
AcDbLine
 62
7
  6
CONTINUOUS
 10
10.6844422761
 20
-12.7367016939
 11
11.5926213368
 21
-11.8285226331
  0
LINE
  5
51D
100
AcDbEntity
  8
0
100
AcDbLine
 62
7
  6
CONTINUOUS
 10
9.2821785352
 20
-14.5589868628
 11
11.5891777075
 21
-12.2519876905
  0
LINE
  5
51E
100
AcDbEntity
  8
0
100
AcDbLine
 62
7
  6
CONTINUOUS
 10
9.8064118667
 20
-14.4547749593
 11
11.4849498106
 21
-12.7762370154
  0
LINE
  5
51F
100
AcDbEntity
  8
0
100
AcDbLine
 62
250
  6
CONTINUOUS
 10
12.7498743846
 20
-11.8071429014
 11
12.9355886592
 21
-11.6214287043
  0
LINE
  5
520
100
AcDbEntity
  8
DRAFT
100
AcDbLine
 62
7
  6
CONTINUOUS
 10
0.1498743846
 20
-19.9483339502
 11
-3.7424519356
 21
-22.1955695989
  0
LINE
  5
521
100
AcDbEntity
  8
RACCORDO
100
AcDbLine
 62
7
  6
CONTINUOUS
 10
-8.3501256154
 20
18.2499082467
 11
-9.8501256154
 21
18.3006191466
  0
LINE
  5
522
100
AcDbEntity
  8
RACCORDO
100
AcDbLine
 62
250
  6
CONTINUOUS
 10
-9.8501256154
 20
18.2307790647
 11
-8.3501256154
 21
18.1797639505
  0
LINE
  5
523
100
AcDbEntity
  8
RACCORDO
100
AcDbLine
 62
250
  6
CONTINUOUS
 10
-8.3501256154
 20
17.0161208135
 11
-9.8501256154
 21
17.0734935586
  0
LINE
  5
524
100
AcDbEntity
  8
DRAFT
100
AcDbLine
 62
7
  6
CONTINUOUS
 10
0.1498743846
 20
19.9483339502
 11
-3.7424519356
 21
22.1955695989
  0
LWPOLYLINE
  5
525
100
AcDbEntity
  8
RACCORDO
100
AcDbPolyline
 62
250
  6
CONTINUOUS
 90
4
 70
0
 10
18.1586009201
 20
18.6686618482
 10
18.1591446326
 20
18.6611606927
 10
18.159658741
 20
18.6387015658
 10
18.1601356015
 20
18.6013844103
  0
LWPOLYLINE
  5
526
100
AcDbEntity
  8
ASSI
100
AcDbPolyline
 62
250
  6
CONTINUOUS
 90
4
 70
0
 10
18.1586009201
 20
18.6686618482
 10
18.1591446326
 20
18.6611606927
 10
18.159658741
 20
18.6387015658
 10
18.1601356015
 20
18.6013844103
  0
LINE
  5
527
100
AcDbEntity
  8
RACCORDO
100
AcDbLine
 62
7
  6
CONTINUOUS
 10
19.1498743846
 20
17.6686999252
 11
19.1498743846
 21
-17.6686999252
  0
LINE
  5
528
100
AcDbEntity
  8
ASSI
100
AcDbLine
 62
7
  6
CONTINUOUS
 10
19.1498743846
 20
17.6686999252
 11
19.1498743846
 21
-17.6686999252
  0
LINE
  5
529
100
AcDbEntity
  8
0
100
AcDbLine
 62
7
  6
CONTINUOUS
 10
19.3498743846
 20
16.21535
 11
19.3498743846
 21
15.953614
  0
LINE
  5
52A
100
AcDbEntity
  8
ASSI
100
AcDbLine
 62
7
  6
CONTINUOUS
 10
19.3498743846
 20
16.21535
 11
19.3498743846
 21
15.953614
  0
LINE
  5
52B
100
AcDbEntity
  8
0
100
AcDbLine
 62
7
  6
CONTINUOUS
 10
19.3498743846
 20
15.798679726
 11
19.3498743846
 21
9.8
  0
LINE
  5
52C
100
AcDbEntity
  8
ASSI
100
AcDbLine
 62
7
  6
CONTINUOUS
 10
19.3498743846
 20
15.798679726
 11
19.3498743846
 21
9.8
  0
LINE
  5
52D
100
AcDbEntity
  8
0
100
AcDbLine
 62
7
  6
CONTINUOUS
 10
19.3498743846
 20
-10.3
 11
19.3498743846
 21
-16.1
  0
LINE
  5
52E
100
AcDbEntity
  8
ASSI
100
AcDbLine
 62
7
  6
CONTINUOUS
 10
19.3498743846
 20
-10.3
 11
19.3498743846
 21
-16.1
  0
LINE
  5
52F
100
AcDbEntity
  8
0
100
AcDbLine
 62
250
  6
CONTINUOUS
 10
12.7498743846
 20
-14.5
 11
13.4927315219
 21
-14.128571412
  0
LINE
  5
530
100
AcDbEntity
  8
RACCORDO
100
AcDbLine
 62
7
  6
CONTINUOUS
 10
-0.7501256154
 20
18.9
 11
-9.8501256154
 21
18.9
  0
LINE
  5
531
100
AcDbEntity
  8
RACCORDO
100
AcDbLine
 62
250
  6
CONTINUOUS
 10
-0.4501256154
 20
19.2
 11
-9.8501256154
 21
19.2
  0
LINE
  5
532
100
AcDbEntity
  8
RACCORDO
100
AcDbLine
 62
7
  6
CONTINUOUS
 10
-8.3501256154
 20
18.9
 11
18.1586009201
 21
18.6686618482
  0
LINE
  5
533
100
AcDbEntity
  8
ASSI
100
AcDbLine
 62
7
  6
CONTINUOUS
 10
-8.3501256154
 20
18.9
 11
18.1586009201
 21
18.6686618482
  0
LWPOLYLINE
  5
534
100
AcDbEntity
  8
0
100
AcDbPolyline
 62
250
  6
CONTINUOUS
 90
4
 70
0
 10
-18.9081382488
 20
21.0183132877
 10
-18.9054637769
 20
21.0181627949
 10
-18.8974657092
 20
21.0177887256
 10
-18.4173289174
 20
20.9972959167
  0
LWPOLYLINE
  5
535
100
AcDbEntity
  8
0
100
AcDbPolyline
 62
7
  6
CONTINUOUS
 90
10
 70
0
 43
0.3500000006
 10
0.8641601279
 20
42.7499991302
 10
0.9355886908
 20
42.6071412964
 10
0.9355886908
 20
42.5357146454
 10
0.7927314942
 20
42.3928568115
 10
0.7213029313
 20
42.3928568115
 10
0.6498743684
 20
42.4642834625
 10
0.6498743684
 20
42.5357146454
 10
0.7213029313
 20
42.6785724792
 10
0.7927314942
 20
42.7499991302
 10
0.8641601279
 20
42.7499991302
  0
LWPOLYLINE
  5
536
100
AcDbEntity
  8
0
100
AcDbPolyline
 62
7
  6
CONTINUOUS
 90
10
 70
0
 43
0.3500000006
 10
6.471302845
 20
32.7500006104
 10
6.5427317619
 20
32.6071427765
 10
6.5427317619
 20
32.5357161255
 10
6.3998744946
 20
32.3928582916
 10
6.3284455776
 20
32.3928582916
 10
6.2570172272
 20
32.4642849426
 10
6.2570172272
 20
32.5357161255
 10
6.3284455776
 20
32.6785694275
 10
6.3998744946
 20
32.7500006104
 10
6.471302845
 20
32.7500006104
  0
LINE
  5
537
100
AcDbEntity
  8
0
100
AcDbLine
 62
250
  6
CONTINUOUS
 10
-17.9439388604
 20
21.4755923698
 11
-9.8501256154
 21
21.8997711479
  0
LINE
  5
538
100
AcDbEntity
  8
DRAFT
100
AcDbLine
 62
7
  6
CONTINUOUS
 10
-1.9838187216
 20
21.1802222394
 11
-5.8501256154
 21
21.2139629885
  0
LINE
  5
539
100
AcDbEntity
  8
DRAFT
100
AcDbLine
 62
7
  6
CONTINUOUS
 10
-3.7424519356
 20
22.1955695989
 11
-4.2501256154
 21
22.2
  0
LINE
  5
53A
100
AcDbEntity
  8
0
100
AcDbLine
 62
7
  6
CONTINUOUS
 10
-17.9613806353
 20
21.9749071372
 11
-9.8501256154
 21
22.4
  0
LINE
  5
53B
100
AcDbEntity
  8
DRAFT
100
AcDbLine
 62
7
  6
CONTINUOUS
 10
-5.8501256154
 20
22.6454332982
 11
-8.9195420418
 21
22.6588618451
  0
LINE
  5
53C
100
AcDbEntity
  8
DRAFT
100
AcDbLine
 62
7
  6
CONTINUOUS
 10
-8.9195420418
 20
22.6588618451
 11
-9.8501256154
 21
22.663166622
  0
LINE
  5
53D
100
AcDbEntity
  8
DRAFT
100
AcDbLine
 62
7
  6
CONTINUOUS
 10
-9.8501256154
 20
23.1799085618
 11
-5.8501256154
 21
23.1409517823
  0
LINE
  5
53E
100
AcDbEntity
  8
DRAFT
100
AcDbLine
 62
7
  6
CONTINUOUS
 10
-9.8501256154
 20
23.5
 11
-5.8501256154
 21
23.4301797403
  0
LWPOLYLINE
  5
53F
100
AcDbEntity
  8
0
100
AcDbPolyline
 62
7
  6
CONTINUOUS
 90
7
 70
0
 43
0.3500000006
 10
2.6141600246
 20
32.2500004578
 10
1.1141601334
 20
32.2500004578
 10
2.6141600246
 20
34.392858902
 10
2.6141600246
 20
34.8214278717
 10
2.1855886474
 20
35.2500013733
 10
1.5427315106
 20
35.2500013733
 10
1.1141601334
 20
34.6071433868
  0
LWPOLYLINE
  5
540
100
AcDbEntity
  8
0
100
AcDbPolyline
 62
7
  6
CONTINUOUS
 90
8
 70
0
 43
0.3500000006
 10
7.5427315006
 20
32.2500004578
 10
8.3998745384
 20
32.2500004578
 10
8.8284457741
 20
32.6785694275
 10
8.8284457741
 20
33.5357164307
 10
8.3998745384
 20
33.9642854004
 10
7.5427315006
 20
33.9642854004
 10
7.5427315006
 20
35.2500013733
 10
8.8284457741
 20
35.2500013733
  0
LWPOLYLINE
  5
541
100
AcDbEntity
  8
0
100
AcDbPolyline
 62
7
  6
CONTINUOUS
 90
6
 70
0
 43
0.3500000006
 10
-4.2786970367
 20
42.2499989777
 10
-3.2072683811
 20
42.2499989777
 10
-2.9929827633
 20
42.4642834625
 10
-2.9929827633
 20
43.5357149506
 10
-3.4215542822
 20
43.9642839203
 10
-3.8501255178
 20
43.9642839203
  0
LWPOLYLINE
  5
542
100
AcDbEntity
  8
0
100
AcDbPolyline
 62
7
  6
CONTINUOUS
 90
8
 70
0
 43
0.3500000006
 10
1.9355887127
 20
42.2499989777
 10
2.7927314672
 20
42.2499989777
 10
3.2213029861
 20
42.6785724792
 10
3.2213029861
 20
43.5357149506
 10
2.7927314672
 20
43.9642839203
 10
1.9355887127
 20
43.9642839203
 10
1.9355887127
 20
45.2499998932
 10
3.2213029861
 20
45.2499998932
  0
LWPOLYLINE
  5
543
100
AcDbEntity
  8
0
100
AcDbPolyline
 62
7
  6
CONTINUOUS
 90
13
 70
0
 43
0.3500000006
 10
-1.7072684898
 20
43.9642839203
 10
-1.9929827414
 20
44.178572937
 10
-1.9929827414
 20
44.8214263916
 10
-1.7072684898
 20
45.2499998932
 10
-1.0644113531
 20
45.2499998932
 10
-0.7786970308
 20
44.8214263916
 10
-0.7786970308
 20
44.178572937
 10
-1.0644113531
 20
43.9642839203
 10
-0.635839905
 20
43.5357149506
 10
-0.635839905
 20
42.6785724792
 10
-1.0644113531
 20
42.2499989777
 10
-1.7072684898
 20
42.2499989777
 10
-2.1358398671
 20
42.6785724792
  0
LWPOLYLINE
  5
544
100
AcDbEntity
  8
0
100
AcDbPolyline
 62
7
  6
CONTINUOUS
 90
5
 70
0
 43
0.3500000006
 10
46.2415078125
 20
33.9642854004
 10
46.5986501312
 20
34.1785698853
 10
46.5986501312
 20
34.8214278717
 10
46.2415078125
 20
35.2500013733
 10
45.3843608093
 20
35.2500013733
  0
LWPOLYLINE
  5
545
100
AcDbEntity
  8
0
100
AcDbPolyline
 62
250
  6
CONTINUOUS
 90
15
 70
0
 10
32.2410468577
 20
20.9972959167
 10
32.2446266242
 20
20.9994689314
 10
32.253524437
 20
21.0016186628
 10
32.2676449609
 20
21.0037220776
 10
32.2868369026
 20
21.005756639
 10
32.3108946312
 20
21.0077005477
 10
32.3395603817
 20
21.009532976
 10
32.3725270168
 20
21.0112342904
 10
32.4094413176
 20
21.0127862623
 10
32.4499077682
 20
21.014172263
 10
32.4934927933
 20
21.0153774425
 10
32.539729404
 20
21.0163888878
 10
32.5881222012
 20
21.0171957618
 10
32.6381526833
 20
21.0177894192
 10
32.689284802
 20
21.0181634993
  0
LINE
  5
546
100
AcDbEntity
  8
DRAFT
100
AcDbLine
 62
7
  6
CONTINUOUS
 10
40.2415057678
 20
-23.5
 11
40.4602274266
 21
-23.4563623377
  0
LWPOLYLINE
  5
547
100
AcDbEntity
  8
0
100
AcDbPolyline
 62
250
  6
CONTINUOUS
 90
16
 70
0
 10
53.7503038845
 20
-21.9749071372
 10
53.8025307709
 20
-21.97212728
 10
53.8541859995
 20
-21.9639134406
 10
53.90470427
 20
-21.9503555394
 10
53.9535327421
 20
-21.931601975
 10
54.0001370482
 20
-21.9078580123
 10
54.0440071471
 20
-21.8793835478
 10
54.0846629603
 20
-21.8464902344
 10
54.1216595986
 20
-21.8095380733
 10
54.1545922033
 20
-21.7689315022
 10
54.1831004148
 20
-21.7251149336
 10
54.2068723031
 20
-21.6785678925
 10
54.2256477669
 20
-21.6297997904
 10
54.2392213913
 20
-21.5793443309
 10
54.2474446915
 20
-21.5277536674
 10
54.2502277321
 20
-21.4755923698
  0
LINE
  5
548
100
AcDbEntity
  8
DRAFT
100
AcDbLine
 62
7
  6
CONTINUOUS
 10
47.2148431154
 20
-23.5
 11
46.2415057678
 21
-23.5
  0
LINE
  5
549
100
AcDbEntity
  8
DRAFT
100
AcDbLine
 62
7
  6
CONTINUOUS
 10
40.2415057678
 20
-23.5
 11
39.2681684202
 21
-23.5
  0
LINE
  5
54A
100
AcDbEntity
  8
DRAFT
100
AcDbLine
 62
7
  6
CONTINUOUS
 10
40.4602274266
 20
-23.4563623377
 11
46.022784109
 21
-23.4563623377
  0
LINE
  5
54B
100
AcDbEntity
  8
DRAFT
100
AcDbLine
 62
7
  6
CONTINUOUS
 10
46.022784109
 20
-22.5310194482
 11
40.4602274266
 21
-22.5310194482
  0
LINE
  5
54C
100
AcDbEntity
  8
DRAFT
100
AcDbLine
 62
7
  6
CONTINUOUS
 10
32.5911251681
 20
-22.4
 11
40.2415057678
 21
-22.4
  0
LINE
  5
54D
100
AcDbEntity
  8
DRAFT
100
AcDbLine
 62
7
  6
CONTINUOUS
 10
46.2415057678
 20
-22.4
 11
53.8918863675
 21
-22.4
  0
LINE
  5
54E
100
AcDbEntity
  8
DRAFT
100
AcDbLine
 62
7
  6
CONTINUOUS
 10
46.2415057678
 20
-23.5
 11
46.022784109
 21
-23.4563623377
  0
LWPOLYLINE
  5
54F
100
AcDbEntity
  8
0
100
AcDbPolyline
 62
250
  6
CONTINUOUS
 90
16
 70
0
 10
32.2410468577
 20
-20.9972959167
 10
32.2446263309
 20
-20.9994689572
 10
32.2535238955
 20
-21.0016187146
 10
32.2676442182
 20
-21.0037221553
 10
32.2868360066
 20
-21.005756742
 10
32.3108936299
 20
-21.007700675
 10
32.3395593222
 20
-21.009533126
 10
32.3725259446
 20
-21.0112344612
 10
32.4094402753
 20
-21.0127864516
 10
32.4499067952
 20
-21.0141724684
 10
32.4934919249
 20
-21.0153776611
 10
32.5397286708
 20
-21.0163891165
 10
32.5881216283
 20
-21.0171959974
 10
32.6381522901
 20
-21.0177896584
 10
32.6892846018
 20
-21.0181637387
 10
32.7409707053
 20
-21.0183142302
  0
LINE
  5
550
100
AcDbEntity
  8
DRAFT
100
AcDbLine
 62
7
  6
CONTINUOUS
 10
40.2415057678
 20
22.4
 11
40.4602274266
 21
22.5310194482
  0
LWPOLYLINE
  5
551
100
AcDbEntity
  8
0
100
AcDbPolyline
 62
250
  6
CONTINUOUS
 90
15
 70
0
 10
53.7937269344
 20
-21.0181637394
 10
53.8448592466
 20
-21.0177896594
 10
53.8948899089
 20
-21.0171959985
 10
53.9432828668
 20
-21.0163891176
 10
53.989519613
 20
-21.015377662
 10
54.033104743
 20
-21.0141724692
 10
54.073571263
 20
-21.0127864523
 10
54.1104855938
 20
-21.0112344618
 10
54.1434522161
 20
-21.0095331264
 10
54.1721179083
 20
-21.0077006753
 10
54.1961755313
 20
-21.0057567422
 10
54.2153673193
 20
-21.0037221554
 10
54.2294876415
 20
-21.0016187147
 10
54.2383852054
 20
-20.9994689572
 10
54.2419646779
 20
-20.9972959167
  0
LINE
  5
552
100
AcDbEntity
  8
0
100
AcDbLine
 62
250
  6
CONTINUOUS
 10
53.7503038845
 20
-21.9749071372
 11
32.7327076511
 21
-21.9749071372
  0
LINE
  5
553
100
AcDbEntity
  8
0
100
AcDbLine
 62
250
  6
CONTINUOUS
 10
53.7937269344
 20
-21.0181637394
 11
32.7409707053
 21
-21.0183142309
  0
LINE
  5
554
100
AcDbEntity
  8
DRAFT
100
AcDbLine
 62
7
  6
CONTINUOUS
 10
40.4602274266
 20
-22.5310194482
 11
40.2415057678
 21
-22.4
  0
LINE
  5
555
100
AcDbEntity
  8
RACCORDO
100
AcDbLine
 62
250
  6
CONTINUOUS
 10
32.0915057678
 20
16.4627802787
 11
32.0653231704
 21
16.4071690169
  0
LINE
  5
556
100
AcDbEntity
  8
RACCORDO
100
AcDbLine
 62
250
  6
CONTINUOUS
 10
32.0653231704
 20
-16.4071686525
 11
32.0915057678
 21
-16.4627802055
  0
LWPOLYLINE
  5
557
100
AcDbEntity
  8
RACCORDO
100
AcDbPolyline
 62
7
  6
CONTINUOUS
 90
3
 70
0
 10
32.075789435
 20
16.5518663904
 10
32.0888302806
 20
16.6228661767
 10
32.0915057678
 20
16.6331235486
  0
LWPOLYLINE
  5
558
100
AcDbEntity
  8
RACCORDO
100
AcDbPolyline
 62
7
  6
CONTINUOUS
 90
3
 70
0
 10
32.0915057678
 20
-16.6331235461
 10
32.0888302806
 20
-16.6228661767
 10
32.075789435
 20
-16.5518663904
  0
LWPOLYLINE
  5
559
100
AcDbEntity
  8
RACCORDO
100
AcDbPolyline
 62
7
  6
CONTINUOUS
 90
3
 70
0
 10
32.075789435
 20
-16.5518663904
 10
32.0679537316
 20
-16.4799673056
 10
32.0653231704
 20
-16.4071689224
  0
LWPOLYLINE
  5
55A
100
AcDbEntity
  8
0
100
AcDbPolyline
 62
250
  6
CONTINUOUS
 90
16
 70
0
 10
32.2327838035
 20
-21.4755923698
 10
32.2355668055
 20
-21.5277533032
 10
32.2437900032
 20
-21.5793436708
 10
32.2573634814
 20
-21.6297989097
 10
32.2761387761
 20
-21.6785668706
 10
32.2999104922
 20
-21.7251138478
 10
32.3284185459
 20
-21.7689304222
 10
32.361351025
 20
-21.8095370623
 10
32.3983475838
 20
-21.8464893433
 10
32.4390033693
 20
-21.8793828084
 10
32.4828735011
 20
-21.9078574436
 10
32.529477905
 20
-21.9316015798
 10
32.5783065293
 20
-21.9503553003
 10
32.6288249999
 20
-21.9639133265
 10
32.6804804761
 20
-21.9721272495
 10
32.7327076512
 20
-21.974907137
  0
LWPOLYLINE
  5
55B
100
AcDbEntity
  8
0
100
AcDbPolyline
 62
250
  6
CONTINUOUS
 90
16
 70
0
 10
32.2327838035
 20
21.4755923698
 10
32.2355669602
 20
21.5277547588
 10
32.2437905675
 20
21.5793463095
 10
32.2573646306
 20
21.6298024308
 10
32.276140602
 20
21.6785709568
 10
32.299913007
 20
21.7251181902
 10
32.3284216928
 20
21.768934742
 10
32.3613546751
 20
21.8095411066
 10
32.3983515524
 20
21.8464929089
 10
32.4390074499
 20
21.8793857675
 10
32.4828774506
 20
21.90785972
 10
32.5294814638
 20
21.931603162
 10
32.5783094794
 20
21.9503562578
 10
32.6288271488
 20
21.9639137831
 10
32.6804816327
 20
21.9721273713
 10
32.7327076511
 20
21.9749071372
  0
LWPOLYLINE
  5
55C
100
AcDbEntity
  8
0
100
AcDbPolyline
 62
250
  6
CONTINUOUS
 90
7
 70
0
 10
32.2368430289
 20
21.4041254633
 10
32.2362166309
 20
21.4238228917
 10
32.2355599725
 20
21.4406561357
 10
32.234886969
 20
21.4542838409
 10
32.2342022589
 20
21.4645922227
 10
32.2335012038
 20
21.4716950656
 10
32.2327838035
 20
21.4755923698
  0
LINE
  5
55D
100
AcDbEntity
  8
0
100
AcDbLine
 62
250
  6
CONTINUOUS
 10
32.2380033042
 20
21.3560260411
 11
32.2368430289
 21
21.4041254633
  0
LINE
  5
55E
100
AcDbEntity
  8
0
100
AcDbLine
 62
250
  6
CONTINUOUS
 10
32.2390077237
 20
21.2979562724
 11
32.2380033042
 21
21.3560260411
  0
LINE
  5
55F
100
AcDbEntity
  8
0
100
AcDbLine
 62
250
  6
CONTINUOUS
 10
32.2401745276
 20
21.1949860367
 11
32.2390077237
 21
21.2979562724
  0
LINE
  5
560
100
AcDbEntity
  8
0
100
AcDbLine
 62
250
  6
CONTINUOUS
 10
32.7384537784
 20
21.6796926689
 11
32.73677159
 21
21.8316431047
  0
LINE
  5
561
100
AcDbEntity
  8
0
100
AcDbLine
 62
250
  6
CONTINUOUS
 10
32.2408679971
 20
21.0790132523
 11
32.2401745276
 21
21.1949860367
  0
LINE
  5
562
100
AcDbEntity
  8
0
100
AcDbLine
 62
250
  6
CONTINUOUS
 10
32.7403871143
 20
21.3380089963
 11
32.7384537784
 21
21.6796926689
  0
LINE
  5
563
100
AcDbEntity
  8
0
100
AcDbLine
 62
250
  6
CONTINUOUS
 10
32.7409707053
 20
21.0183142309
 11
32.7403871143
 21
21.3380089963
  0
LINE
  5
564
100
AcDbEntity
  8
RACCORDO
100
AcDbLine
 62
7
  6
CONTINUOUS
 10
32.0653231704
 20
-16.4071689224
 11
32.0653231704
 21
16.4071689224
  0
LINE
  5
565
100
AcDbEntity
  8
RACCORDO
100
AcDbLine
 62
7
  6
CONTINUOUS
 10
32.0915057678
 20
21.8997711479
 11
32.0915057678
 21
16.4627822915
  0
LINE
  5
566
100
AcDbEntity
  8
RACCORDO
100
AcDbLine
 62
7
  6
CONTINUOUS
 10
32.0915057678
 20
-16.4627822915
 11
32.0915057678
 21
-21.8997711479
  0
LWPOLYLINE
  5
567
100
AcDbEntity
  8
0
100
AcDbPolyline
 62
250
  6
CONTINUOUS
 90
9
 70
0
 10
32.2440914689
 20
-16.3324771154
 10
32.2463749279
 20
-11.6670364005
 10
32.2478972345
 20
-7.0009737718
 10
32.2486583897
 20
-2.3338756638
 10
32.2486583926
 20
2.3338443579
 10
32.2478972411
 20
7.0009455965
 10
32.2463749344
 20
11.6670144863
 10
32.2440914733
 20
16.3324645931
 10
32.2408679971
 20
21.0790132523
  0
LWPOLYLINE
  5
568
100
AcDbEntity
  8
0
100
AcDbPolyline
 62
250
  6
CONTINUOUS
 90
9
 70
0
 10
32.7440153218
 20
-16.349481053
 10
32.7462987841
 20
-11.6792204116
 10
32.7478210923
 20
-7.0079400855
 10
32.7485822463
 20
-2.3360479917
 10
32.7485822461
 20
2.3360479976
 10
32.7478210919
 20
7.0079400907
 10
32.7462987837
 20
11.6792204157
 10
32.7440153215
 20
16.3494810554
 10
32.7409707053
 20
21.0183142309
  0
LINE
  5
569
100
AcDbEntity
  8
0
100
AcDbLine
 62
250
  6
CONTINUOUS
 10
32.2406943278
 20
-21.1184484404
 11
32.2440914689
 21
-16.3324771154
  0
LINE
  5
56A
100
AcDbEntity
  8
0
100
AcDbLine
 62
250
  6
CONTINUOUS
 10
32.739761614
 20
-21.4854586496
 11
32.7440153218
 21
-16.349481053
  0
LINE
  5
56B
100
AcDbEntity
  8
0
100
AcDbLine
 62
250
  6
CONTINUOUS
 10
32.239836364
 20
-21.2310600855
 11
32.2406943278
 21
-21.1184484404
  0
LINE
  5
56C
100
AcDbEntity
  8
0
100
AcDbLine
 62
250
  6
CONTINUOUS
 10
32.7379308692
 20
-21.7355556626
 11
32.739761614
 21
-21.4854586496
  0
LINE
  5
56D
100
AcDbEntity
  8
0
100
AcDbLine
 62
250
  6
CONTINUOUS
 10
32.7367715901
 20
-21.8316431047
 11
32.7379308692
 21
-21.7355556626
  0
LINE
  5
56E
100
AcDbEntity
  8
0
100
AcDbLine
 62
250
  6
CONTINUOUS
 10
32.2390077237
 20
-21.2979562723
 11
32.239836364
 21
-21.2310600855
  0
LINE
  5
56F
100
AcDbEntity
  8
0
100
AcDbLine
 62
250
  6
CONTINUOUS
 10
32.2380033042
 20
-21.3560260412
 11
32.2390077237
 21
-21.2979562723
  0
LWPOLYLINE
  5
570
100
AcDbEntity
  8
RACCORDO
100
AcDbPolyline
 62
7
  6
CONTINUOUS
 90
3
 70
0
 10
32.0653231704
 20
16.4071689224
 10
32.0679537316
 20
16.4799673056
 10
32.075789435
 20
16.5518663904
  0
LWPOLYLINE
  5
571
100
AcDbEntity
  8
0
100
AcDbPolyline
 62
250
  6
CONTINUOUS
 90
5
 70
0
 10
32.7354900519
 20
21.9047687004
 10
32.7348169605
 20
21.9320760821
 10
32.734131044
 20
21.952953371
 10
32.7334279409
 20
21.9672621499
 10
32.7327076511
 20
21.9749071372
  0
LINE
  5
572
100
AcDbEntity
  8
0
100
AcDbLine
 62
250
  6
CONTINUOUS
 10
32.73677159
 20
21.8316431047
 11
32.7354900519
 21
21.9047687004
  0
LWPOLYLINE
  5
573
100
AcDbEntity
  8
0
100
AcDbPolyline
 62
7
  6
CONTINUOUS
 90
3
 70
0
 43
0.3500000006
 10
44.384365036
 20
32.5357161255
 10
44.3129338531
 20
32.3214271088
 10
44.1700760193
 20
32.0357159729
  0
LWPOLYLINE
  5
574
100
AcDbEntity
  8
0
100
AcDbPolyline
 62
250
  6
CONTINUOUS
 90
6
 70
0
 10
32.7327076511
 20
-21.9749071372
 10
32.7334279409
 20
-21.9672621499
 10
32.734131044
 20
-21.952953371
 10
32.7348169605
 20
-21.9320760821
 10
32.7354900519
 20
-21.9047687004
 10
32.7367715901
 20
-21.8316431047
  0
LWPOLYLINE
  5
575
100
AcDbEntity
  8
0
100
AcDbPolyline
 62
250
  6
CONTINUOUS
 90
8
 70
0
 10
32.2327838035
 20
-21.4755923698
 10
32.2335012038
 20
-21.4716950654
 10
32.2342022589
 20
-21.4645922224
 10
32.234886969
 20
-21.4542838406
 10
32.2355599725
 20
-21.4406561355
 10
32.2362166309
 20
-21.4238228918
 10
32.2368430289
 20
-21.4041254635
 10
32.2380033042
 20
-21.3560260412
  0
LWPOLYLINE
  5
576
100
AcDbEntity
  8
RACCORDO
100
AcDbPolyline
 62
250
  6
CONTINUOUS
 90
64
 70
0
 10
43.2415057678
 20
-5.9159285448
 10
43.0652824738
 20
-5.9150379552
 10
42.879239574
 20
-5.9062078357
 10
42.6833770682
 20
-5.8894381815
 10
42.47695709
 20
-5.865749059
 10
42.2607175059
 20
-5.8341203801
 10
42.0368719157
 20
-5.7914918942
 10
41.805181487
 20
-5.7377871966
 10
41.5658850522
 20
-5.6730826193
 10
41.3219127086
 20
-5.5945469858
 10
41.0729728188
 20
-5.5019827676
 10
40.8193570203
 20
-5.3955873389
 10
40.5648703227
 20
-5.2731218343
 10
40.3092699179
 20
-5.1342683623
 10
40.0527986141
 20
-4.9793445658
 10
39.7999898455
 20
-4.8070648381
 10
39.5506335128
 20
-4.6169210318
 10
39.3049397154
 20
-4.4094209773
 10
39.0680721859
 20
-4.1848030198
 10
38.8398398387
 20
-3.9420203364
 10
38.6204337593
 20
-3.6821194444
 10
38.4155909376
 20
-3.4084787543
 10
38.2259185003
 20
-3.1204009125
 10
38.0508093207
 20
-2.8185831305
 10
37.8941790082
 20
-2.5084957917
 10
37.7569675151
 20
-2.1905964384
 10
37.6382348891
 20
-1.8644276232
 10
37.5390768824
 20
-1.5340873622
 10
37.4598243708
 20
-1.1999657234
 10
37.4001464785
 20
-0.8616728829
 10
37.3601463304
 20
-0.5221370795
 10
37.3398633128
 20
-0.1815052472
 10
37.3392580393
 20
0.1603692384
 10
37.3583154761
 20
0.5009984589
 10
37.3970605126
 20
0.8404955495
 10
37.4554682592
 20
1.1787470653
 10
37.5334490135
 20
1.5129252335
 10
37.6313103363
 20
1.843427307
 10
37.7487446667
 20
2.1698557867
 10
37.8847396194
 20
2.4881908307
 10
38.0402292634
 20
2.7989224332
 10
38.2142795295
 20
3.1015604995
 10
38.4030758253
 20
3.3906151701
 10
38.6072654206
 20
3.6654299395
 10
38.8262010454
 20
3.9266614489
 10
39.0541262976
 20
4.1707896876
 10
39.2908685662
 20
4.3967495917
 10
39.5366004621
 20
4.6056065296
 10
39.7860834164
 20
4.7970361965
 10
40.0390817953
 20
4.9705010725
 10
40.2958312326
 20
5.1265389969
 10
40.5518000609
 20
5.2664386898
 10
40.8067400572
 20
5.3898842724
 10
41.0608994444
 20
5.4971918746
 10
41.3104912244
 20
5.5905981864
 10
41.5552239033
 20
5.6699091832
 10
41.7953889748
 20
5.7353190458
 10
42.0280739218
 20
5.7896467298
 10
42.253040134
 20
5.8328170174
 10
42.4705262215
 20
5.8649052005
 10
42.6783354973
 20
5.8889559673
 10
42.8757357325
 20
5.9059842188
 10
43.063459156
 20
5.9149750762
 10
43.2415057678
 20
5.9159285448
  0
LINE
  5
577
100
AcDbEntity
  8
RACCORDO
100
AcDbLine
 62
250
  6
CONTINUOUS
 10
39.8336456625
 20
1.0106905633
 11
39.9551993871
 21
1.7000559903
  0
LINE
  5
578
100
AcDbEntity
  8
0
100
AcDbLine
 62
250
  6
CONTINUOUS
 10
32.0915057678
 20
-21.8997711479
 11
32.2327838035
 21
-21.4755923698
  0
LWPOLYLINE
  5
579
100
AcDbEntity
  8
0
100
AcDbPolyline
 62
7
  6
CONTINUOUS
 90
16
 70
0
 10
41.535495675
 20
4.461622871
 10
41.5371628741
 20
4.462532351
 10
41.5391805532
 20
4.4643528589
 10
41.5411856805
 20
4.4669400951
 10
41.5431776239
 20
4.4702994429
 10
41.5451570155
 20
4.4744255191
 10
41.5471144289
 20
4.4792800386
 10
41.5490493296
 20
4.4848659492
 10
41.5509622521
 20
4.4911803032
 10
41.5528453742
 20
4.4981759724
 10
41.5546977766
 20
4.5058510088
 10
41.5565203785
 20
4.5142073603
 10
41.558308116
 20
4.5232037427
 10
41.560060745
 20
4.5328379495
 10
41.5617785096
 20
4.5431121871
 10
41.5626368879
 20
4.5486757499
  0
LWPOLYLINE
  5
57A
100
AcDbEntity
  8
0
100
AcDbPolyline
 62
7
  6
CONTINUOUS
 90
5
 70
0
 10
41.5354956871
 20
3.9216567534
 10
41.5347563578
 20
3.9213649108
 10
41.5307417695
 20
3.9207252315
 10
41.5267185467
 20
3.9216707226
 10
41.5226866894
 20
3.9242013839
  0
LWPOLYLINE
  5
57B
100
AcDbEntity
  8
RACCORDO
100
AcDbPolyline
 62
250
  6
CONTINUOUS
 90
64
 70
0
 10
43.2415057678
 20
-4.9041347646
 10
43.0953898767
 20
-4.9019576664
 10
42.9406676264
 20
-4.8948998101
 10
42.777531779
 20
-4.8821401751
 10
42.6060176277
 20
-4.8627917124
 10
42.4266586538
 20
-4.8359739816
 10
42.2404821113
 20
-4.8008972069
 10
42.0479448948
 20
-4.7566929442
 10
41.8495742503
 20
-4.7024786414
 10
41.646590461
 20
-4.6375747062
 10
41.4396502437
 20
-4.5611685378
 10
41.2295454898
 20
-4.4724777517
 10
41.0177703907
 20
-4.3710586184
 10
40.8052130147
 20
-4.2562604981
 10
40.5928806107
 20
-4.1274926227
 10
40.3824741311
 20
-3.9846570684
 10
40.1750016766
 20
-3.8273044328
 10
39.971710565
 20
-3.655175388
 10
39.774592678
 20
-3.4687959688
 10
39.5844860005
 20
-3.2677830439
 10
39.4029610787
 20
-3.0525308944
 10
39.2327233694
 20
-2.8252785799
 10
39.074648023
 20
-2.5865017897
 10
38.9296488768
 20
-2.3368224826
 10
38.7997251292
 20
-2.0793207924
 10
38.6855365082
 20
-1.8155608219
 10
38.587092816
 20
-1.5458559784
 10
38.5048319815
 20
-1.2717106902
 10
38.4389563431
 20
-0.9944461657
 10
38.3894274495
 20
-0.7147027554
 10
38.3562184154
 20
-0.432980211
 10
38.3393711247
 20
-0.1503345925
 10
38.3388536465
 20
0.1323909244
 10
38.3546610084
 20
0.4150356178
 10
38.3868139192
 20
0.6967311145
 10
38.4352647566
 20
0.9764506712
 10
38.500052678
 20
1.2537762387
 10
38.5812219884
 20
1.5280682286
 10
38.6785791312
 20
1.7980059479
 10
38.7917301233
 20
2.0621580292
 10
38.9206902762
 20
2.3202181438
 10
39.0648159082
 20
2.570596617
 10
39.2221545026
 20
2.8102244242
 10
39.391837253
 20
3.0384919164
 10
39.5729855269
 20
3.2548685515
 10
39.7628557525
 20
3.4570270527
 10
39.9598758521
 20
3.6445551886
 10
40.1632094132
 20
3.8178275386
 10
40.3708082671
 20
3.9762618148
 10
40.5813886868
 20
4.1200965135
 10
40.7939588124
 20
4.2497995877
 10
41.006834385
 20
4.3654784786
 10
41.218999266
 20
4.4677191214
 10
41.4295609062
 20
4.5571704059
 10
41.6370518185
 20
4.6342836893
 10
41.8406762325
 20
4.6998360006
 10
42.0397709266
 20
4.7546346997
 10
42.2331405187
 20
4.7993607608
 10
42.420252676
 20
4.8348903647
 10
42.6006458204
 20
4.8620867736
 10
42.7733191686
 20
4.881738046
 10
42.9377450329
 20
4.8947193367
 10
43.0938729833
 20
4.9019122234
 10
43.2415057678
 20
4.9041347646
  0
LWPOLYLINE
  5
57C
100
AcDbEntity
  8
0
100
AcDbPolyline
 62
7
  6
CONTINUOUS
 90
5
 70
0
 10
41.5354956778
 20
-4.4616222046
 10
41.5351068714
 20
-4.4614891817
 10
41.5331048273
 20
-4.4612701585
 10
41.5310995974
 20
-4.4618274611
 10
41.5290911815
 20
-4.4631610895
  0
LWPOLYLINE
  5
57D
100
AcDbEntity
  8
0
100
AcDbPolyline
 62
7
  6
CONTINUOUS
 90
21
 70
0
 10
41.5354956789
 20
-3.9216585122
 10
41.5388698129
 20
-3.9236929139
 10
41.5429134301
 20
-3.9276077655
 10
41.5469301973
 20
-3.9330779039
 10
41.5509186806
 20
-3.9401153841
 10
41.5548803139
 20
-3.9487081509
 10
41.558795776
 20
-3.9587641294
 10
41.5626636632
 20
-3.9702884916
 10
41.5664853793
 20
-3.9832760653
 10
41.5702458142
 20
-3.997619259
 10
41.5739427256
 20
-4.0133106131
 10
41.5775783559
 20
-4.0303575871
 10
41.5811443217
 20
-4.0486749681
 10
41.5846402013
 20
-4.0682554791
 10
41.5880664163
 20
-4.0891063971
 10
41.5914158485
 20
-4.1111643397
 10
41.5946887241
 20
-4.1344238284
 10
41.5978848167
 20
-4.1588903417
 10
41.6009963294
 20
-4.184516932
 10
41.6040206632
 20
-4.2112879502
 10
41.6069604171
 20
-4.2392190455
  0
LINE
  5
57E
100
AcDbEntity
  8
0
100
AcDbLine
 62
250
  6
CONTINUOUS
 10
32.2327838035
 20
21.4755923698
 11
32.0915057678
 21
21.8997711479
  0
LINE
  5
57F
100
AcDbEntity
  8
RACCORDO
100
AcDbLine
 62
250
  6
CONTINUOUS
 10
39.8336456625
 20
-1.0106905633
 11
39.9551993868
 21
-1.7000559904
  0
LINE
  5
580
100
AcDbEntity
  8
0
100
AcDbLine
 62
7
  6
CONTINUOUS
 10
41.6069604171
 20
-4.2392190455
 11
41.6392505745
 21
-4.5772511776
  0
LINE
  5
581
100
AcDbEntity
  8
DRAFT
100
AcDbLine
 62
7
  6
CONTINUOUS
 10
40.2415057678
 20
-23.5
 11
40.2415057678
 21
-22.4
  0
LINE
  5
582
100
AcDbEntity
  8
DRAFT
100
AcDbLine
 62
7
  6
CONTINUOUS
 10
40.2415057678
 20
22.4
 11
40.2415057678
 21
23.5
  0
LINE
  5
583
100
AcDbEntity
  8
DRAFT
100
AcDbLine
 62
7
  6
CONTINUOUS
 10
40.4602274266
 20
-23.4563623377
 11
40.4602274266
 21
-22.5310194482
  0
LINE
  5
584
100
AcDbEntity
  8
DRAFT
100
AcDbLine
 62
7
  6
CONTINUOUS
 10
40.4602274266
 20
22.5310194482
 11
40.4602274266
 21
23.4563623377
  0
LWPOLYLINE
  5
585
100
AcDbEntity
  8
0
100
AcDbPolyline
 62
7
  6
CONTINUOUS
 90
22
 70
0
 10
41.6392506796
 20
4.5772512168
 10
41.6069485809
 20
4.2390895802
 10
41.6039916602
 20
4.2110120458
 10
41.600944829
 20
4.1840776144
 10
41.5978039673
 20
4.1582558606
 10
41.5945731951
 20
4.1335772098
 10
41.5912648719
 20
4.1101329388
 10
41.5878787203
 20
4.0879246055
 10
41.5844150178
 20
4.0669506519
 10
41.5808869561
 20
4.0472976804
 10
41.5772945411
 20
4.0289691105
 10
41.573637767
 20
4.0119615227
 10
41.5699298084
 20
3.9963512607
 10
41.5661708053
 20
3.9821412257
 10
41.5623606177
 20
3.9693285165
 10
41.5585119995
 20
3.9579807724
 10
41.5546248464
 20
3.9480993897
 10
41.5506992626
 20
3.9396829721
 10
41.5467483152
 20
3.9327949703
 10
41.5427707834
 20
3.9274376165
 10
41.5387678878
 20
3.9236086785
 10
41.5354956871
 20
3.9216567534
  0
LINE
  5
586
100
AcDbEntity
  8
0
100
AcDbLine
 62
250
  6
CONTINUOUS
 10
32.5911251681
 20
-22.4
 11
32.7327076511
 21
-21.9749071372
  0
LINE
  5
587
100
AcDbEntity
  8
0
100
AcDbLine
 62
7
  6
CONTINUOUS
 10
45.0128980154
 20
4.5141663179
 11
44.9539203541
 21
4.4631610895
  0
LINE
  5
588
100
AcDbEntity
  8
0
100
AcDbLine
 62
7
  6
CONTINUOUS
 10
45.0428396819
 20
3.9930090778
 11
44.9603248462
 21
3.9242013839
  0
LWPOLYLINE
  5
589
100
AcDbEntity
  8
0
100
AcDbPolyline
 62
7
  6
CONTINUOUS
 90
5
 70
0
 10
44.9603248462
 20
3.9242013839
 10
44.9562761924
 20
3.9216528122
 10
44.9522307662
 20
3.9207154372
 10
44.9481885677
 20
3.9213892589
 10
44.9475158568
 20
3.9216585122
  0
LWPOLYLINE
  5
58A
100
AcDbEntity
  8
0
100
AcDbPolyline
 62
7
  6
CONTINUOUS
 90
5
 70
0
 10
44.9539203541
 20
-4.4631610895
 10
44.9519015298
 20
-4.461818765
 10
44.9498839352
 20
-4.4612653041
 10
44.9478675705
 20
-4.4615007066
 10
44.9475158606
 20
-4.461622871
  0
LINE
  5
58B
100
AcDbEntity
  8
0
100
AcDbLine
 62
7
  6
CONTINUOUS
 10
44.9603248462
 20
-3.9242013839
 11
45.0428396819
 21
-3.9930090778
  0
LINE
  5
58C
100
AcDbEntity
  8
0
100
AcDbLine
 62
7
  6
CONTINUOUS
 10
44.9539203541
 20
-4.4631610895
 11
45.0128980142
 21
-4.5141663184
  0
LINE
  5
58D
100
AcDbEntity
  8
0
100
AcDbLine
 62
250
  6
CONTINUOUS
 10
32.7327076511
 20
21.9749071372
 11
32.5911251681
 21
22.4
  0
LWPOLYLINE
  5
58E
100
AcDbEntity
  8
0
100
AcDbPolyline
 62
7
  6
CONTINUOUS
 90
16
 70
0
 10
41.5626367092
 20
-4.5486756832
 10
41.5616853049
 20
-4.5425345902
 10
41.5599503163
 20
-4.5322092136
 10
41.5581829319
 20
-4.5225468467
 10
41.5563830825
 20
-4.5135497466
 10
41.5545508373
 20
-4.5052156562
 10
41.5526933471
 20
-4.4975811688
 10
41.5508107239
 20
-4.4906486629
 10
41.5489028557
 20
-4.48441576
 10
41.5469765567
 20
-4.4789119172
 10
41.5450318193
 20
-4.4741383925
 10
41.543068651
 20
-4.4700939279
 10
41.5410938884
 20
-4.4668042063
 10
41.5391070076
 20
-4.4642705942
 10
41.5371085325
 20
-4.462491725
 10
41.5354956778
 20
-4.4616222046
  0
LINE
  5
58F
100
AcDbEntity
  8
0
100
AcDbLine
 62
7
  6
CONTINUOUS
 10
41.4401718538
 20
-3.9930090778
 11
41.247312309
 21
-4.4205199945
  0
LINE
  5
590
100
AcDbEntity
  8
0
100
AcDbLine
 62
7
  6
CONTINUOUS
 10
45.0428396819
 20
3.9930090778
 11
45.2356992266
 21
4.4205199945
  0
LINE
  5
591
100
AcDbEntity
  8
RACCORDO
100
AcDbLine
 62
250
  6
CONTINUOUS
 10
39.9551993868
 20
-1.7000559904
 11
42.2931246481
 21
-1.2878166879
  0
LINE
  5
592
100
AcDbEntity
  8
RACCORDO
100
AcDbLine
 62
7
  6
CONTINUOUS
 10
38.5539129195
 20
-1.236341974
 11
41.5956594055
 21
-0.7
  0
LINE
  5
593
100
AcDbEntity
  8
SMUSSO
100
AcDbLine
 62
7
  6
CONTINUOUS
 10
47.6948728992
 20
-1.5
 11
47.8515886552
 21
-1.5
  0
LWPOLYLINE
  5
594
100
AcDbEntity
  8
0
100
AcDbPolyline
 62
7
  6
CONTINUOUS
 90
2
 70
0
 43
0.3500000006
 10
61.6676885376
 20
-1.3571429443
 10
60.1676880798
 20
-1.3571429443
  0
LINE
  5
595
100
AcDbEntity
  8
RACCORDO
100
AcDbLine
 62
7
  6
CONTINUOUS
 10
41.5956594055
 20
-0.7
 11
41.6850675262
 21
-0.7
  0
LINE
  5
596
100
AcDbEntity
  8
0
100
AcDbLine
 62
7
  6
CONTINUOUS
 10
44.6796378182
 20
-0.7
 11
46.2415057678
 21
-0.7
  0
LINE
  5
597
100
AcDbEntity
  8
0
100
AcDbLine
 62
7
  6
CONTINUOUS
 10
44.834459
 20
-0.15
 11
44.2301917645
 21
-0.15
  0
LINE
  5
598
100
AcDbEntity
  8
0
100
AcDbLine
 62
7
  6
CONTINUOUS
 10
42.2528197711
 20
-0.15
 11
41.6485525356
 21
-0.15
  0
LWPOLYLINE
  5
599
100
AcDbEntity
  8
0
100
AcDbPolyline
 62
7
  6
CONTINUOUS
 90
4
 70
0
 43
0.3500000006
 10
59.3105456085
 20
-0.0000003204
 10
58.6676876221
 20
-0.0000003204
 10
58.6676876221
 20
1.5000001373
 10
61.6676885376
 20
0.642857666
  0
LINE
  5
59A
100
AcDbEntity
  8
0
100
AcDbLine
 62
7
  6
CONTINUOUS
 10
41.6485525356
 20
0.15
 11
42.2528197711
 21
0.15
  0
LINE
  5
59B
100
AcDbEntity
  8
0
100
AcDbLine
 62
7
  6
CONTINUOUS
 10
44.2301917645
 20
0.15
 11
44.834459
 21
0.15
  0
LINE
  5
59C
100
AcDbEntity
  8
0
100
AcDbLine
 62
7
  6
CONTINUOUS
 10
45.0428396819
 20
-3.9930090778
 11
45.2356992266
 21
-4.4205199945
  0
LINE
  5
59D
100
AcDbEntity
  8
0
100
AcDbLine
 62
7
  6
CONTINUOUS
 10
41.4401718538
 20
3.9930090778
 11
41.247312309
 21
4.4205199945
  0
LINE
  5
59E
100
AcDbEntity
  8
0
100
AcDbLine
 62
7
  6
CONTINUOUS
 10
41.4401718538
 20
-3.9930090778
 11
41.5226866894
 21
-3.9242013839
  0
LINE
  5
59F
100
AcDbEntity
  8
RACCORDO
100
AcDbLine
 62
250
  6
CONTINUOUS
 10
39.7728329059
 20
-1.7730211821
 11
39.9551993868
 21
-1.7000559904
  0
LINE
  5
5A0
100
AcDbEntity
  8
RACCORDO
100
AcDbLine
 62
250
  6
CONTINUOUS
 10
39.59715174
 20
-1.842037357
 11
39.7728329059
 21
-1.7730211821
  0
LINE
  5
5A1
100
AcDbEntity
  8
RACCORDO
100
AcDbLine
 62
250
  6
CONTINUOUS
 10
39.4349498265
 20
-1.9046799674
 11
39.59715174
 21
-1.842037357
  0
LINE
  5
5A2
100
AcDbEntity
  8
RACCORDO
100
AcDbLine
 62
250
  6
CONTINUOUS
 10
39.2507149181
 20
-1.9746648593
 11
39.4349498265
 21
-1.9046799674
  0
LINE
  5
5A3
100
AcDbEntity
  8
RACCORDO
100
AcDbLine
 62
250
  6
CONTINUOUS
 10
39.0675013886
 20
-2.0430678939
 11
39.2507149181
 21
-1.9746648593
  0
LINE
  5
5A4
100
AcDbEntity
  8
RACCORDO
100
AcDbLine
 62
250
  6
CONTINUOUS
 10
39.0177192912
 20
-2.0614625391
 11
39.0675013886
 21
-2.0430678939
  0
LINE
  5
5A5
100
AcDbEntity
  8
0
100
AcDbLine
 62
7
  6
CONTINUOUS
 10
46.2415057678
 20
0.7
 11
44.6796378182
 21
0.7
  0
LINE
  5
5A6
100
AcDbEntity
  8
RACCORDO
100
AcDbLine
 62
7
  6
CONTINUOUS
 10
41.6850675262
 20
0.7
 11
41.5956594055
 21
0.7
  0
LINE
  5
5A7
100
AcDbEntity
  8
SMUSSO
100
AcDbLine
 62
7
  6
CONTINUOUS
 10
47.8515886552
 20
1.5
 11
47.6948728945
 21
1.5
  0
LINE
  5
5A8
100
AcDbEntity
  8
RACCORDO
100
AcDbLine
 62
7
  6
CONTINUOUS
 10
41.5956594055
 20
0.7
 11
38.5539129195
 21
1.236341974
  0
LINE
  5
5A9
100
AcDbEntity
  8
RACCORDO
100
AcDbLine
 62
250
  6
CONTINUOUS
 10
42.2931246481
 20
1.2878166879
 11
39.9551993868
 21
1.7000559904
  0
LINE
  5
5AA
100
AcDbEntity
  8
RACCORDO
100
AcDbLine
 62
250
  6
CONTINUOUS
 10
39.1144880844
 20
2.0256292852
 11
39.0177192912
 21
2.0614625391
  0
LINE
  5
5AB
100
AcDbEntity
  8
RACCORDO
100
AcDbLine
 62
250
  6
CONTINUOUS
 10
39.2507149181
 20
1.9746648591
 11
39.1144880844
 21
2.0256292852
  0
LINE
  5
5AC
100
AcDbEntity
  8
RACCORDO
100
AcDbLine
 62
250
  6
CONTINUOUS
 10
39.4349498267
 20
1.904679968
 11
39.2507149181
 21
1.9746648591
  0
LINE
  5
5AD
100
AcDbEntity
  8
RACCORDO
100
AcDbLine
 62
250
  6
CONTINUOUS
 10
39.5971517394
 20
1.8420373556
 11
39.4349498267
 21
1.904679968
  0
LINE
  5
5AE
100
AcDbEntity
  8
RACCORDO
100
AcDbLine
 62
250
  6
CONTINUOUS
 10
39.7728329071
 20
1.7730211849
 11
39.5971517394
 21
1.8420373556
  0
LINE
  5
5AF
100
AcDbEntity
  8
RACCORDO
100
AcDbLine
 62
250
  6
CONTINUOUS
 10
39.9551993868
 20
1.7000559904
 11
39.7728329071
 21
1.7730211849
  0
LINE
  5
5B0
100
AcDbEntity
  8
0
100
AcDbLine
 62
7
  6
CONTINUOUS
 10
41.5226866894
 20
3.9242013839
 11
41.4401718538
 21
3.9930090778
  0
LINE
  5
5B1
100
AcDbEntity
  8
0
100
AcDbLine
 62
7
  6
CONTINUOUS
 10
44.8760511185
 20
4.2392190455
 11
44.8437609611
 21
4.5772511776
  0
LINE
  5
5B2
100
AcDbEntity
  8
0
100
AcDbLine
 62
7
  6
CONTINUOUS
 10
45.4915057678
 20
-4.1264391429
 11
45.4915057678
 21
-4.2945232237
  0
LINE
  5
5B3
100
AcDbEntity
  8
0
100
AcDbLine
 62
7
  6
CONTINUOUS
 10
45.4915057678
 20
4.1264391429
 11
45.4915057678
 21
4.2945232237
  0
LINE
  5
5B4
100
AcDbEntity
  8
0
100
AcDbLine
 62
7
  6
CONTINUOUS
 10
45.7415057678
 20
4.1539354012
 11
45.7415057678
 21
3.9786787797
  0
LINE
  5
5B5
100
AcDbEntity
  8
RACCORDO
100
AcDbLine
 62
7
  6
CONTINUOUS
 10
45.7415057678
 20
-4.1539354012
 11
45.7415057678
 21
-3.9786787757
  0
LINE
  5
5B6
100
AcDbEntity
  8
0
100
AcDbLine
 62
7
  6
CONTINUOUS
 10
45.9915057678
 20
-3.8113096792
 11
45.9915057678
 21
-3.9925684948
  0
LINE
  5
5B7
100
AcDbEntity
  8
ASSI
100
AcDbLine
 62
7
  6
CONTINUOUS
 10
45.9915057678
 20
-3.8113096792
 11
45.9915057678
 21
-3.9925684948
  0
LINE
  5
5B8
100
AcDbEntity
  8
DRAFT
100
AcDbLine
 62
7
  6
CONTINUOUS
 10
46.022784109
 20
-23.4563623377
 11
46.022784109
 21
-22.5310194482
  0
LINE
  5
5B9
100
AcDbEntity
  8
DRAFT
100
AcDbLine
 62
7
  6
CONTINUOUS
 10
46.022784109
 20
22.5310194482
 11
46.022784109
 21
23.4563623377
  0
LINE
  5
5BA
100
AcDbEntity
  8
DRAFT
100
AcDbLine
 62
7
  6
CONTINUOUS
 10
46.2415057678
 20
-23.5
 11
46.2415057678
 21
-22.4
  0
LINE
  5
5BB
100
AcDbEntity
  8
DRAFT
100
AcDbLine
 62
7
  6
CONTINUOUS
 10
46.2415057678
 20
22.4
 11
46.2415057678
 21
23.5
  0
LWPOLYLINE
  5
5BC
100
AcDbEntity
  8
0
100
AcDbPolyline
 62
7
  6
CONTINUOUS
 90
22
 70
0
 10
44.843760856
 20
-4.5772512168
 10
44.8760629547
 20
-4.2390895802
 10
44.8790198754
 20
-4.2110120458
 10
44.8820667067
 20
-4.1840776144
 10
44.8852075683
 20
-4.1582558606
 10
44.8884383405
 20
-4.1335772098
 10
44.8917466637
 20
-4.1101329388
 10
44.8951328153
 20
-4.0879246055
 10
44.8985965178
 20
-4.0669506519
 10
44.9021245795
 20
-4.0472976804
 10
44.9057169945
 20
-4.0289691105
 10
44.9093737686
 20
-4.0119615227
 10
44.9130817273
 20
-3.9963512607
 10
44.9168407303
 20
-3.9821412257
 10
44.9206509179
 20
-3.9693285165
 10
44.9244995361
 20
-3.9579807724
 10
44.9283866892
 20
-3.9480993897
 10
44.932312273
 20
-3.9396829721
 10
44.9362632204
 20
-3.9327949703
 10
44.9402407523
 20
-3.9274376165
 10
44.9442436478
 20
-3.9236086785
 10
44.9475158485
 20
-3.9216567534
  0
LINE
  5
5BD
100
AcDbEntity
  8
0
100
AcDbLine
 62
250
  6
CONTINUOUS
 10
53.7503038845
 20
21.9749071372
 11
53.8918863675
 21
22.4
  0
LINE
  5
5BE
100
AcDbEntity
  8
0
100
AcDbLine
 62
250
  6
CONTINUOUS
 10
54.2502277321
 20
21.4755923698
 11
54.3915057678
 21
21.8997711479
  0
LINE
  5
5BF
100
AcDbEntity
  8
0
100
AcDbLine
 62
7
  6
CONTINUOUS
 10
41.4701135202
 20
-4.5141663179
 11
41.5290911815
 21
-4.4631610895
  0
LWPOLYLINE
  5
5C0
100
AcDbEntity
  8
0
100
AcDbPolyline
 62
7
  6
CONTINUOUS
 90
5
 70
0
 10
41.5226866894
 20
-3.9242013839
 10
41.5267353433
 20
-3.9216528122
 10
41.5307807694
 20
-3.9207154372
 10
41.5348229679
 20
-3.9213892589
 10
41.5354956789
 20
-3.9216585122
  0
LINE
  5
5C1
100
AcDbEntity
  8
SMUSSO
100
AcDbLine
 62
7
  6
CONTINUOUS
 10
47.395441169
 20
2.5
 11
47.2196490386
 21
2.5
  0
LWPOLYLINE
  5
5C2
100
AcDbEntity
  8
0
100
AcDbPolyline
 62
7
  6
CONTINUOUS
 90
5
 70
0
 10
41.5290911815
 20
4.4631610895
 10
41.5311100059
 20
4.461818765
 10
41.5331276004
 20
4.4612653041
 10
41.5351439651
 20
4.4615007066
 10
41.535495675
 20
4.461622871
  0
LINE
  5
5C3
100
AcDbEntity
  8
0
100
AcDbLine
 62
7
  6
CONTINUOUS
 10
41.5290911815
 20
4.4631610895
 11
41.4701135214
 21
4.5141663184
  0
LINE
  5
5C4
100
AcDbEntity
  8
0
100
AcDbLine
 62
250
  6
CONTINUOUS
 10
53.8918863675
 20
-22.4
 11
53.7503038845
 21
-21.9749071372
  0
LINE
  5
5C5
100
AcDbEntity
  8
0
100
AcDbLine
 62
250
  6
CONTINUOUS
 10
54.3915057678
 20
-21.8997711479
 11
54.2502277321
 21
-21.4755923698
  0
LWPOLYLINE
  5
5C6
100
AcDbEntity
  8
0
100
AcDbPolyline
 62
7
  6
CONTINUOUS
 90
16
 70
0
 10
44.9203748264
 20
4.5486756832
 10
44.9213262307
 20
4.5425345902
 10
44.9230612193
 20
4.5322092136
 10
44.9248286038
 20
4.5225468467
 10
44.9266284531
 20
4.5135497466
 10
44.9284606983
 20
4.5052156562
 10
44.9303181886
 20
4.4975811688
 10
44.9322008117
 20
4.4906486629
 10
44.9341086799
 20
4.48441576
 10
44.936034979
 20
4.4789119172
 10
44.9379797164
 20
4.4741383925
 10
44.9399428846
 20
4.4700939279
 10
44.9419176472
 20
4.4668042063
 10
44.943904528
 20
4.4642705942
 10
44.9459030032
 20
4.462491725
 10
44.9475158578
 20
4.4616222046
  0
LWPOLYLINE
  5
5C7
100
AcDbEntity
  8
0
100
AcDbPolyline
 62
7
  6
CONTINUOUS
 90
16
 70
0
 10
44.9475158606
 20
-4.461622871
 10
44.9458486615
 20
-4.462532351
 10
44.9438309824
 20
-4.4643528589
 10
44.9418258551
 20
-4.4669400951
 10
44.9398339117
 20
-4.4702994429
 10
44.9378545202
 20
-4.4744255191
 10
44.9358971067
 20
-4.4792800386
 10
44.9339622061
 20
-4.4848659492
 10
44.9320492835
 20
-4.4911803032
 10
44.9301661614
 20
-4.4981759724
 10
44.928313759
 20
-4.5058510088
 10
44.9264911571
 20
-4.5142073603
 10
44.9247034196
 20
-4.5232037427
 10
44.9229507906
 20
-4.5328379495
 10
44.921233026
 20
-4.5431121871
 10
44.9203746477
 20
-4.5486757499
  0
LWPOLYLINE
  5
5C8
100
AcDbEntity
  8
0
100
AcDbPolyline
 62
7
  6
CONTINUOUS
 90
5
 70
0
 10
44.9475158485
 20
-3.9216567534
 10
44.9482551779
 20
-3.9213649108
 10
44.9522697661
 20
-3.9207252315
 10
44.9562929889
 20
-3.9216707226
 10
44.9603248462
 20
-3.9242013839
  0
LWPOLYLINE
  5
5C9
100
AcDbEntity
  8
RACCORDO
100
AcDbPolyline
 62
250
  6
CONTINUOUS
 90
64
 70
0
 10
43.2415057678
 20
4.9041347646
 10
43.3878679247
 20
4.90195032
 10
43.5428546944
 20
4.8948683941
 10
43.7062723055
 20
4.8820647997
 10
43.8780889291
 20
4.8626485035
 10
44.0577645196
 20
4.8357359427
 10
44.2442554951
 20
4.8005370289
 10
44.4371026292
 20
4.7561816697
 10
44.635776426
 20
4.7017857105
 10
44.8390407781
 20
4.6366730445
 10
45.0462367391
 20
4.5600317072
 10
45.2565699823
 20
4.4710803134
 10
45.4685315052
 20
4.369383327
 10
45.6812317406
 20
4.2542937208
 10
45.8936626482
 20
4.1252244527
 10
46.1041120403
 20
3.98209012
 10
46.3115722924
 20
3.8244477785
 10
46.5147986124
 20
3.6520438911
 10
46.7117945132
 20
3.4654192791
 10
46.9017205441
 20
3.2642043891
 10
47.0830189037
 20
3.0487948189
 10
47.253001787
 20
2.8214247757
 10
47.4107967886
 20
2.5825781461
 10
47.555499308
 20
2.3328761621
 10
47.6851318132
 20
2.0753746183
 10
47.7990387506
 20
1.8116323794
 10
47.897208955
 20
1.5419662638
 10
47.9792105304
 20
1.2678649116
 10
48.0448417568
 20
0.990640434
 10
48.0941370807
 20
0.7109388458
 10
48.1271209417
 20
0.4292658258
 10
48.1437513206
 20
0.1466738675
 10
48.1440593121
 20
-0.1359919185
 10
48.1280502194
 20
-0.4185561193
 10
48.0957064248
 20
-0.7001446867
 10
48.0470775724
 20
-0.9797384363
 10
47.9821251404
 20
-1.256924517
 10
47.9008053688
 20
-1.5310661337
 10
47.8033136024
 20
-1.8008422729
 10
47.6900456315
 20
-2.064822205
 10
47.5609869159
 20
-2.3227009981
 10
47.4167824598
 20
-2.5728910259
 10
47.2593871285
 20
-2.8123253387
 10
47.0896713281
 20
-3.0403949057
 10
46.9085128869
 20
-3.256572962
 10
46.7186526724
 20
-3.4585387198
 10
46.5216615846
 20
-3.6458817918
 10
46.3183749846
 20
-3.8189776502
 10
46.1108369011
 20
-3.9772477963
 10
45.9003287218
 20
-4.1209316674
 10
45.6878413215
 20
-4.2504969424
 10
45.4750562167
 20
-4.3660520274
 10
45.2629878763
 20
-4.4681826581
 10
45.0525274491
 20
-4.5575373113
 10
44.8451399774
 20
-4.6345673782
 10
44.641619889
 20
-4.7000491506
 10
44.4426292849
 20
-4.7547891509
 10
44.2493614914
 20
-4.7994677727
 10
44.0623479048
 20
-4.8349601428
 10
43.882049351
 20
-4.8621284571
 10
43.7094649657
 20
-4.881759847
 10
43.5451215691
 20
-4.894728328
 10
43.3890695192
 20
-4.901914302
 10
43.2415057678
 20
-4.9041347646
  0
LWPOLYLINE
  5
5CA
100
AcDbEntity
  8
0
100
AcDbPolyline
 62
7
  6
CONTINUOUS
 90
5
 70
0
 10
44.9475158578
 20
4.4616222046
 10
44.9479046642
 20
4.4614891817
 10
44.9499067083
 20
4.4612701585
 10
44.9519119383
 20
4.4618274611
 10
44.9539203541
 20
4.4631610895
  0
LWPOLYLINE
  5
5CB
100
AcDbEntity
  8
0
100
AcDbPolyline
 62
7
  6
CONTINUOUS
 90
21
 70
0
 10
44.9475158568
 20
3.9216585122
 10
44.9441417228
 20
3.9236929139
 10
44.9400981055
 20
3.9276077655
 10
44.9360813383
 20
3.9330779039
 10
44.932092855
 20
3.9401153841
 10
44.9281312217
 20
3.9487081509
 10
44.9242157596
 20
3.9587641294
 10
44.9203478724
 20
3.9702884916
 10
44.9165261563
 20
3.9832760653
 10
44.9127657214
 20
3.997619259
 10
44.90906881
 20
4.0133106131
 10
44.9054331797
 20
4.0303575871
 10
44.901867214
 20
4.0486749681
 10
44.8983713344
 20
4.0682554791
 10
44.8949451193
 20
4.0891063971
 10
44.8915956871
 20
4.1111643397
 10
44.8883228116
 20
4.1344238284
 10
44.8851267189
 20
4.1588903417
 10
44.8820152062
 20
4.184516932
 10
44.8789908724
 20
4.2112879502
 10
44.8760511185
 20
4.2392190455
  0
LWPOLYLINE
  5
5CC
100
AcDbEntity
  8
RACCORDO
100
AcDbPolyline
 62
250
  6
CONTINUOUS
 90
64
 70
0
 10
43.2415057678
 20
5.9159285448
 10
43.4180272615
 20
5.915035798
 10
43.6043874389
 20
5.9061754669
 10
43.8005863002
 20
5.8893475466
 10
44.0073698369
 20
5.8655742178
 10
44.2239920575
 20
5.8338332781
 10
44.4482149867
 20
5.7910581336
 10
44.680277493
 20
5.7371691754
 10
44.9199407081
 20
5.6722459393
 10
45.1642500515
 20
5.5934605171
 10
45.4134962885
 20
5.5006113778
 10
45.6673886538
 20
5.3938998975
 10
45.9221002716
 20
5.2711024849
 10
46.1778709889
 20
5.1318974117
 10
46.4344609587
 20
4.9766061569
 10
46.6873237641
 20
4.8039698992
 10
46.9366642941
 20
4.6134782086
 10
47.1822776598
 20
4.405641198
 10
47.4190027771
 20
4.1807308461
 10
47.6470201671
 20
3.9377091951
 10
47.8661493087
 20
3.6776138985
 10
48.0706875551
 20
3.4038304072
 10
48.2600276236
 20
3.1156722904
 10
48.4347767968
 20
2.8138258386
 10
48.5910542761
 20
2.5037357093
 10
48.7279291401
 20
2.1858581035
 10
48.8463323103
 20
1.8597369158
 10
48.9451757526
 20
1.5294484608
 10
49.0241327779
 20
1.1953741735
 10
49.0835300754
 20
0.8571328631
 10
49.123259678
 20
0.5176569658
 10
49.1432797067
 20
0.1770896368
 10
49.1436320406
 20
-0.1647119695
 10
49.1243343499
 20
-0.5052444015
 10
49.0853609908
 20
-0.8446126439
 10
49.0267376071
 20
-1.1827114027
 10
48.9485587999
 20
-1.5167218245
 10
48.8505170083
 20
-1.8470426737
 10
48.7329197933
 20
-2.1732749403
 10
48.5967844386
 20
-2.4914031689
 10
48.4411770435
 20
-2.8019164334
 10
48.2670315087
 20
-3.10432556
 10
48.0781668203
 20
-3.3931478376
 10
47.8739385619
 20
-3.6677251429
 10
47.6549911498
 20
-3.9287157353
 10
47.4270768188
 20
-4.1726116057
 10
47.1903695212
 20
-4.3983494779
 10
46.9446953047
 20
-4.6069929325
 10
46.6952845472
 20
-4.7982243025
 10
46.44237251
 20
-4.9715078674
 10
46.1857239318
 20
-5.1273796668
 10
45.9298634068
 20
-5.2671296594
 10
45.6750388832
 20
-5.3904428001
 10
45.4210024129
 20
-5.4976343846
 10
45.1715347461
 20
-5.5909398413
 10
44.9269269464
 20
-5.6701656953
 10
44.6868879503
 20
-5.7355055774
 10
44.454325317
 20
-5.7897755305
 10
44.2294772141
 20
-5.832900619
 10
44.0121054741
 20
-5.8649558525
 10
43.8044031538
 20
-5.8889821603
 10
43.6071012721
 20
-5.9059931903
 10
43.4194688101
 20
-5.9149753168
 10
43.2415057678
 20
-5.9159285448
  0
LWPOLYLINE
  5
5CD
100
AcDbEntity
  8
0
100
AcDbPolyline
 62
250
  6
CONTINUOUS
 90
7
 70
0
 10
54.2502277321
 20
-21.4755923698
 10
54.2495089605
 20
-21.4716789126
 10
54.2488068019
 20
-21.4645568007
 10
54.2481212566
 20
-21.4542260342
 10
54.24744773
 20
-21.4405716186
 10
54.2467908166
 20
-21.4237085484
 10
54.2461642992
 20
-21.403981807
  0
LWPOLYLINE
  5
5CE
100
AcDbEntity
  8
0
100
AcDbPolyline
 62
250
  6
CONTINUOUS
 90
5
 70
0
 10
53.7503038845
 20
-21.9749071372
 10
53.7495836227
 20
-21.9672631277
 10
53.7488805035
 20
-21.9529558612
 10
53.7481945269
 20
-21.9320798744
 10
53.7475212829
 20
-21.9047715709
  0
LWPOLYLINE
  5
5CF
100
AcDbEntity
  8
0
100
AcDbPolyline
 62
250
  6
CONTINUOUS
 90
3
 70
0
 10
54.2461642992
 20
-21.403981807
 10
54.2450041847
 20
-21.3558303735
 10
54.2444809053
 20
-21.3279645393
  0
LINE
  5
5D0
100
AcDbEntity
  8
0
100
AcDbLine
 62
250
  6
CONTINUOUS
 10
53.7475212829
 20
-21.9047715709
 11
53.7462394527
 21
-21.8316424864
  0
LINE
  5
5D1
100
AcDbEntity
  8
0
100
AcDbLine
 62
250
  6
CONTINUOUS
 10
53.7462394527
 20
-21.8316424864
 11
53.7445577313
 21
-21.6797292088
  0
LINE
  5
5D2
100
AcDbEntity
  8
0
100
AcDbLine
 62
250
  6
CONTINUOUS
 10
53.7445577313
 20
-21.6797292088
 11
53.7432495704
 21
-21.4854407064
  0
LINE
  5
5D3
100
AcDbEntity
  8
0
100
AcDbLine
 62
250
  6
CONTINUOUS
 10
53.7432495704
 20
-21.4854407064
 11
53.7422195116
 21
-21.1809048162
  0
LINE
  5
5D4
100
AcDbEntity
  8
0
100
AcDbLine
 62
250
  6
CONTINUOUS
 10
53.7422195116
 20
-21.1809048162
 11
53.7420408303
 21
-21.0183142309
  0
LWPOLYLINE
  5
5D5
100
AcDbEntity
  8
0
100
AcDbPolyline
 62
250
  6
CONTINUOUS
 90
9
 70
0
 10
53.7420408303
 20
-21.0183142309
 10
53.738996214
 20
-16.3494810548
 10
53.7367127518
 20
-11.6792204147
 10
53.7351904436
 20
-7.0079400892
 10
53.7344292895
 20
-2.3360479955
 10
53.7344292895
 20
2.3360479943
 10
53.7351904435
 20
7.0079400882
 10
53.7367127517
 20
11.6792204138
 10
53.738996214
 20
16.3494810544
  0
LINE
  5
5D6
100
AcDbEntity
  8
0
100
AcDbLine
 62
250
  6
CONTINUOUS
 10
53.738996214
 20
16.3494810544
 11
53.7426243876
 21
21.3380251343
  0
LINE
  5
5D7
100
AcDbEntity
  8
0
100
AcDbLine
 62
250
  6
CONTINUOUS
 10
53.7426243876
 20
21.3380251343
 11
53.7440772832
 21
21.6191453064
  0
LINE
  5
5D8
100
AcDbEntity
  8
0
100
AcDbLine
 62
250
  6
CONTINUOUS
 10
53.7440772832
 20
21.6191453064
 11
53.745644795
 21
21.786331002
  0
LWPOLYLINE
  5
5D9
100
AcDbEntity
  8
0
100
AcDbPolyline
 62
250
  6
CONTINUOUS
 90
7
 70
0
 10
53.745644795
 20
21.786331002
 10
53.7468651816
 20
21.8712144185
 10
53.7475212829
 20
21.9047715709
 10
53.7481945269
 20
21.9320798744
 10
53.7488805035
 20
21.9529558612
 10
53.7495836227
 20
21.9672631277
 10
53.7503038845
 20
21.9749071372
  0
LWPOLYLINE
  5
5DA
100
AcDbEntity
  8
0
100
AcDbPolyline
 62
250
  6
CONTINUOUS
 90
9
 70
0
 10
54.2444809053
 20
21.3279645393
 10
54.2455690439
 20
21.3813379257
 10
54.2461642992
 20
21.4039818068
 10
54.2467908166
 20
21.4237085483
 10
54.24744773
 20
21.4405716188
 10
54.2481212566
 20
21.4542260345
 10
54.2488068019
 20
21.464556801
 10
54.2495089605
 20
21.4716789127
 10
54.2502277321
 20
21.4755923698
  0
LINE
  5
5DB
100
AcDbEntity
  8
0
100
AcDbLine
 62
250
  6
CONTINUOUS
 10
54.2444809053
 20
-21.3279645393
 11
54.2435607163
 21
-21.2650621527
  0
LINE
  5
5DC
100
AcDbEntity
  8
0
100
AcDbLine
 62
250
  6
CONTINUOUS
 10
54.2435607163
 20
-21.2650621527
 11
54.2425466387
 21
-21.1568159642
  0
LINE
  5
5DD
100
AcDbEntity
  8
0
100
AcDbLine
 62
250
  6
CONTINUOUS
 10
54.2425466387
 20
-21.1568159642
 11
54.2420254206
 21
-21.0384725278
  0
LWPOLYLINE
  5
5DE
100
AcDbEntity
  8
0
100
AcDbPolyline
 62
250
  6
CONTINUOUS
 90
9
 70
0
 10
54.2420254206
 20
-21.0384725278
 10
54.2389200636
 20
-16.3324664701
 10
54.236636603
 20
-11.6670185434
 10
54.2351142961
 20
-7.0009521365
 10
54.234353143
 20
-2.3338547134
 10
54.2343531436
 20
2.3338611899
 10
54.2351142974
 20
7.0009579653
 10
54.2366366043
 20
11.667023077
 10
54.2389200645
 20
16.3324690607
  0
LINE
  5
5DF
100
AcDbEntity
  8
RACCORDO
100
AcDbLine
 62
7
  6
CONTINUOUS
 10
54.3915057678
 20
-21.8997711479
 11
54.3915057678
 21
-16.4627822915
  0
LINE
  5
5E0
100
AcDbEntity
  8
RACCORDO
100
AcDbLine
 62
7
  6
CONTINUOUS
 10
54.3915057678
 20
16.4627822915
 11
54.3915057678
 21
21.8997711479
  0
LINE
  5
5E1
100
AcDbEntity
  8
RACCORDO
100
AcDbLine
 62
7
  6
CONTINUOUS
 10
54.4176883652
 20
16.4071689224
 11
54.4176883652
 21
-16.4071689224
  0
LINE
  5
5E2
100
AcDbEntity
  8
0
100
AcDbLine
 62
250
  6
CONTINUOUS
 10
54.2389200645
 20
16.3324690607
 11
54.2423154252
 21
21.1180991804
  0
LINE
  5
5E3
100
AcDbEntity
  8
0
100
AcDbLine
 62
250
  6
CONTINUOUS
 10
54.2423154252
 20
21.1180991804
 11
54.2431717306
 21
21.2307227352
  0
LWPOLYLINE
  5
5E4
100
AcDbEntity
  8
0
100
AcDbPolyline
 62
250
  6
CONTINUOUS
 90
3
 70
0
 10
54.2431717306
 20
21.2307227352
 10
54.2440000209
 20
21.297692487
 10
54.2444809053
 20
21.3279645393
  0
LWPOLYLINE
  5
5E5
100
AcDbEntity
  8
RACCORDO
100
AcDbPolyline
 62
7
  6
CONTINUOUS
 90
3
 70
0
 10
54.4176883652
 20
-16.4071689224
 10
54.415057804
 20
-16.4799673056
 10
54.4072221006
 20
-16.5518663904
  0
LWPOLYLINE
  5
5E6
100
AcDbEntity
  8
RACCORDO
100
AcDbPolyline
 62
7
  6
CONTINUOUS
 90
3
 70
0
 10
54.4072221006
 20
16.5518663904
 10
54.415057804
 20
16.4799673056
 10
54.4176883652
 20
16.4071689224
  0
LWPOLYLINE
  5
5E7
100
AcDbEntity
  8
RACCORDO
100
AcDbPolyline
 62
7
  6
CONTINUOUS
 90
3
 70
0
 10
54.4072221006
 20
-16.5518663904
 10
54.394181255
 20
-16.6228661767
 10
54.3915057678
 20
-16.6331235486
  0
LWPOLYLINE
  5
5E8
100
AcDbEntity
  8
0
100
AcDbPolyline
 62
7
  6
CONTINUOUS
 90
10
 70
0
 43
0.3500000006
 10
44.3129338531
 20
32.7500006104
 10
44.384365036
 20
32.6071427765
 10
44.384365036
 20
32.5357161255
 10
44.2415072021
 20
32.3928582916
 10
44.1700760193
 20
32.3928582916
 10
44.0986493683
 20
32.4642849426
 10
44.0986493683
 20
32.5357161255
 10
44.1700760193
 20
32.6785694275
 10
44.2415072021
 20
32.7500006104
 10
44.3129338531
 20
32.7500006104
  0
LWPOLYLINE
  5
5E9
100
AcDbEntity
  8
RACCORDO
100
AcDbPolyline
 62
7
  6
CONTINUOUS
 90
3
 70
0
 10
54.3915057678
 20
16.6331235461
 10
54.394181255
 20
16.6228661767
 10
54.4072221006
 20
16.5518663904
  0
LINE
  5
5EA
100
AcDbEntity
  8
RACCORDO
100
AcDbLine
 62
250
  6
CONTINUOUS
 10
54.3915057678
 20
-16.4627802787
 11
54.4176883652
 21
-16.4071690169
  0
LINE
  5
5EB
100
AcDbEntity
  8
RACCORDO
100
AcDbLine
 62
250
  6
CONTINUOUS
 10
54.4176883652
 20
16.4071686525
 11
54.3915057678
 21
16.4627802055
  0
LWPOLYLINE
  5
5EC
100
AcDbEntity
  8
0
100
AcDbPolyline
 62
7
  6
CONTINUOUS
 90
3
 70
0
 43
0.3500000006
 10
61.0248305511
 20
-0.8571427917
 10
61.0248305511
 20
-2.3571432495
 10
58.6676876221
 20
-1.7142852631
  0
LINE
  5
5ED
100
AcDbEntity
  8
DRAFT
100
AcDbLine
 62
7
  6
CONTINUOUS
 10
46.022784109
 20
-22.5310194482
 11
46.2415057678
 21
-22.4
  0
LINE
  5
5EE
100
AcDbEntity
  8
0
100
AcDbLine
 62
250
  6
CONTINUOUS
 10
32.689284802
 20
21.0181634993
 11
53.7420408303
 21
21.0183142309
  0
LWPOLYLINE
  5
5EF
100
AcDbEntity
  8
0
100
AcDbPolyline
 62
250
  6
CONTINUOUS
 90
16
 70
0
 10
53.7420408304
 20
21.0183132877
 10
53.7937261359
 20
21.0181627949
 10
53.8448576777
 20
21.0177887256
 10
53.8948876229
 20
21.0171950877
 10
53.9432799413
 20
21.0163882415
 10
53.9895161485
 20
21.0153768319
 10
54.0331008612
 20
21.0141716956
 10
54.0735671045
 20
21.0127857448
 10
54.1104813157
 20
21.0112338287
 10
54.1434479889
 20
21.0095325749
 10
54.1721139131
 20
21.0077002109
 10
54.1961719562
 20
21.0057563691
 10
54.2153643557
 20
21.0037218762
 10
54.2294854808
 20
21.00161853
 10
54.2383840351
 20
20.9994688662
 10
54.2419646778
 20
20.9972959167
  0
LINE
  5
5F0
100
AcDbEntity
  8
DRAFT
100
AcDbLine
 62
7
  6
CONTINUOUS
 10
46.2415057678
 20
22.4
 11
46.022784109
 21
22.5310194482
  0
LINE
  5
5F1
100
AcDbEntity
  8
DRAFT
100
AcDbLine
 62
7
  6
CONTINUOUS
 10
46.2415057678
 20
23.5
 11
46.022784109
 21
23.4563623377
  0
LINE
  5
5F2
100
AcDbEntity
  8
0
100
AcDbLine
 62
250
  6
CONTINUOUS
 10
32.7327076511
 20
21.9749071372
 11
53.7503038845
 21
21.9749071372
  0
LINE
  5
5F3
100
AcDbEntity
  8
DRAFT
100
AcDbLine
 62
7
  6
CONTINUOUS
 10
32.5911251681
 20
22.4
 11
40.2415057678
 21
22.4
  0
LINE
  5
5F4
100
AcDbEntity
  8
DRAFT
100
AcDbLine
 62
7
  6
CONTINUOUS
 10
46.2415057678
 20
22.4
 11
53.8918863675
 21
22.4
  0
LINE
  5
5F5
100
AcDbEntity
  8
DRAFT
100
AcDbLine
 62
7
  6
CONTINUOUS
 10
46.022784109
 20
22.5310194482
 11
40.4602274266
 21
22.5310194482
  0
LWPOLYLINE
  5
5F6
100
AcDbEntity
  8
0
100
AcDbPolyline
 62
250
  6
CONTINUOUS
 90
16
 70
0
 10
53.7503038845
 20
21.9749071372
 10
53.8025299029
 20
21.9721273713
 10
53.8541843868
 20
21.9639137831
 10
53.9047020561
 20
21.9503562579
 10
53.9535300717
 20
21.9316031621
 10
54.0001340849
 20
21.90785972
 10
54.0440040856
 20
21.8793857676
 10
54.0846599831
 20
21.846492909
 10
54.1216568604
 20
21.8095411067
 10
54.1545898427
 20
21.7689347421
 10
54.1830985286
 20
21.7251181903
 10
54.2068709336
 20
21.6785709569
 10
54.225646905
 20
21.6298024308
 10
54.2392209681
 20
21.5793463095
 10
54.2474445754
 20
21.5277547588
 10
54.2502277321
 20
21.4755923698
  0
LINE
  5
5F7
100
AcDbEntity
  8
DRAFT
100
AcDbLine
 62
7
  6
CONTINUOUS
 10
40.2415057678
 20
23.5
 11
40.4602274266
 21
23.4563623377
  0
LINE
  5
5F8
100
AcDbEntity
  8
DRAFT
100
AcDbLine
 62
7
  6
CONTINUOUS
 10
40.4602274266
 20
23.4563623377
 11
46.022784109
 21
23.4563623377
  0
LINE
  5
5F9
100
AcDbEntity
  8
DRAFT
100
AcDbLine
 62
7
  6
CONTINUOUS
 10
39.2681684202
 20
23.5
 11
40.2415057678
 21
23.5
  0
LINE
  5
5FA
100
AcDbEntity
  8
DRAFT
100
AcDbLine
 62
7
  6
CONTINUOUS
 10
46.2415057678
 20
23.5
 11
47.2148431154
 21
23.5
  0
LWPOLYLINE
  5
5FB
100
AcDbEntity
  8
0
100
AcDbPolyline
 62
7
  6
CONTINUOUS
 90
7
 70
0
 43
0.3500000006
 10
42.8129333954
 20
32.2500004578
 10
41.3129329376
 20
32.2500004578
 10
42.8129333954
 20
34.392858902
 10
42.8129333954
 20
34.8214278717
 10
42.3843644257
 20
35.2500013733
 10
41.7415064392
 20
35.2500013733
 10
41.3129329376
 20
34.6071433868
  0
LWPOLYLINE
  5
5FC
100
AcDbEntity
  8
0
100
AcDbPolyline
 62
7
  6
CONTINUOUS
 90
7
 70
0
 43
0.3500000006
 10
40.4557904663
 20
32.2500004578
 10
38.9557900085
 20
32.2500004578
 10
40.4557904663
 20
34.392858902
 10
40.4557904663
 20
34.8214278717
 10
40.0272214966
 20
35.2500013733
 10
39.3843635101
 20
35.2500013733
 10
38.9557900085
 20
34.6071433868
  0
LWPOLYLINE
  5
5FD
100
AcDbEntity
  8
0
100
AcDbPolyline
 62
7
  6
CONTINUOUS
 90
6
 70
0
 43
0.3500000006
 10
45.3843608093
 20
32.2500004578
 10
46.4557922974
 20
32.2500004578
 10
46.6700767822
 20
32.4642849426
 10
46.6700767822
 20
33.5357164307
 10
46.2415078125
 20
33.9642854004
 10
45.8129343109
 20
33.9642854004
  0
ARC
  5
5FE
100
AcDbEntity
  8
RACCORDO
100
AcDbCircle
 62
7
  6
CONTINUOUS
 10
480.6498743846
 20
-0.0
 40
500.0
100
AcDbArc
 50
179.3220687067
 51
180.267215846
  0
ARC
  5
5FF
100
AcDbEntity
  8
0
100
AcDbCircle
 62
7
  6
CONTINUOUS
 10
480.6498743846
 20
-0.0
 40
500.0
100
AcDbArc
 50
177.5907686986
 51
182.4092313014
  0
ARC
  5
600
100
AcDbEntity
  8
0
100
AcDbCircle
 62
7
  6
CONTINUOUS
 10
-17.9090446791
 20
-20.9762776025
 40
1.0
100
AcDbArc
 50
182.4092313014
 51
267.0
  0
ARC
  5
601
100
AcDbEntity
  8
0
100
AcDbCircle
 62
7
  6
CONTINUOUS
 10
-17.9090446791
 20
20.9762776025
 40
1.0
100
AcDbArc
 50
93.0
 51
177.5907686986
  0
ARC
  5
602
100
AcDbEntity
  8
RACCORDO
100
AcDbCircle
 62
7
  6
CONTINUOUS
 10
18.1498743846
 20
-17.6686999252
 40
1.0
100
AcDbArc
 50
270.5
 51
360.0
  0
ARC
  5
603
100
AcDbEntity
  8
RACCORDO
100
AcDbCircle
 62
7
  6
CONTINUOUS
 10
18.1498743846
 20
17.6686999252
 40
1.0
100
AcDbArc
 50
0.00034519
 51
89.5
  0
ARC
  5
604
100
AcDbEntity
  8
ASSI
100
AcDbCircle
 62
7
  6
CONTINUOUS
 10
18.1498743846
 20
-17.6686999252
 40
1.0
100
AcDbArc
 50
270.5
 51
360.0
  0
ARC
  5
605
100
AcDbEntity
  8
ASSI
100
AcDbCircle
 62
7
  6
CONTINUOUS
 10
18.1498743846
 20
17.6686999252
 40
1.0
100
AcDbArc
 50
0.0
 51
89.5
  0
ARC
  5
606
100
AcDbEntity
  8
RACCORDO
100
AcDbCircle
 62
7
  6
CONTINUOUS
 10
39.6467949494
 20
-1.7544360137
 40
0.7
100
AcDbArc
 50
100.0000894753
 51
206.0151420595
  0
ARC
  5
607
100
AcDbEntity
  8
DRAFT
100
AcDbCircle
 62
7
  6
CONTINUOUS
 10
38.2915057678
 20
-23.1
 40
0.5
100
AcDbArc
 50
350.803718421
 51
119.112422776
  0
ARC
  5
608
100
AcDbEntity
  8
RACCORDO
100
AcDbCircle
 62
7
  6
CONTINUOUS
 10
41.6850675262
 20
-1.0
 40
0.3
100
AcDbArc
 50
63.3944050933
 51
90.0
  0
ARC
  5
609
100
AcDbEntity
  8
DRAFT
100
AcDbCircle
 62
7
  6
CONTINUOUS
 10
31.9915057678
 20
0.0
 40
28.0
100
AcDbArc
 50
53.1301023542
 51
54.0372348486
  0
ARC
  5
60A
100
AcDbEntity
  8
DRAFT
100
AcDbCircle
 62
7
  6
CONTINUOUS
 10
31.9915057678
 20
0.0
 40
28.0
100
AcDbArc
 50
55.8789063483
 51
57.0647695028
  0
ARC
  5
60B
100
AcDbEntity
  8
DRAFT
100
AcDbCircle
 62
7
  6
CONTINUOUS
 10
31.9915057678
 20
0.0
 40
28.0
100
AcDbArc
 50
302.9352304972
 51
304.1210936517
  0
ARC
  5
60C
100
AcDbEntity
  8
DRAFT
100
AcDbCircle
 62
7
  6
CONTINUOUS
 10
31.9915057678
 20
0.0
 40
28.0
100
AcDbArc
 50
305.9627651514
 51
306.8698976458
  0
ARC
  5
60D
100
AcDbEntity
  8
RACCORDO
100
AcDbCircle
 62
7
  6
CONTINUOUS
 10
39.6467938728
 20
1.7544362035
 40
0.7
100
AcDbArc
 50
153.984833255
 51
260.0
  0
ARC
  5
60E
100
AcDbEntity
  8
DRAFT
100
AcDbCircle
 62
7
  6
CONTINUOUS
 10
38.2915057678
 20
23.1
 40
0.5
100
AcDbArc
 50
240.887577224
 51
9.196281579
  0
ARC
  5
60F
100
AcDbEntity
  8
RACCORDO
100
AcDbCircle
 62
7
  6
CONTINUOUS
 10
41.6850675262
 20
1.0
 40
0.3
100
AcDbArc
 50
270.0
 51
296.6054938983
  0
ARC
  5
610
100
AcDbEntity
  8
DRAFT
100
AcDbCircle
 62
7
  6
CONTINUOUS
 10
48.1915057678
 20
-23.1
 40
0.5
100
AcDbArc
 50
60.887577224
 51
189.196281579
  0
ARC
  5
611
100
AcDbEntity
  8
DRAFT
100
AcDbCircle
 62
7
  6
CONTINUOUS
 10
54.4915057678
 20
0.0
 40
28.0
100
AcDbArc
 50
122.9352304972
 51
124.1210936517
  0
ARC
  5
612
100
AcDbEntity
  8
DRAFT
100
AcDbCircle
 62
7
  6
CONTINUOUS
 10
54.4915057678
 20
0.0
 40
28.0
100
AcDbArc
 50
125.9627651514
 51
126.8698976458
  0
ARC
  5
613
100
AcDbEntity
  8
DRAFT
100
AcDbCircle
 62
7
  6
CONTINUOUS
 10
54.4915057678
 20
0.0
 40
28.0
100
AcDbArc
 50
233.1301023542
 51
234.0372348486
  0
ARC
  5
614
100
AcDbEntity
  8
DRAFT
100
AcDbCircle
 62
7
  6
CONTINUOUS
 10
54.4915057678
 20
0.0
 40
28.0
100
AcDbArc
 50
235.8789063483
 51
237.0647695028
  0
CIRCLE
  5
615
100
AcDbEntity
  8
DRAFT
100
AcDbCircle
 62
7
  6
CONTINUOUS
 10
43.2415057678
 20
0.0
 40
4.9
  0
CIRCLE
  5
616
100
AcDbEntity
  8
0
100
AcDbCircle
 62
7
  6
CONTINUOUS
 10
43.2415057678
 20
0.0
 40
4.85
  0
ARC
  5
617
100
AcDbEntity
  8
0
100
AcDbCircle
 62
250
  6
CONTINUOUS
 10
43.2415057678
 20
0.0
 40
4.7803944007
100
AcDbArc
 50
69.0093145697
 51
69.1681365031
  0
ARC
  5
618
100
AcDbEntity
  8
0
100
AcDbCircle
 62
250
  6
CONTINUOUS
 10
43.2415057678
 20
0.0
 40
4.7803944007
100
AcDbArc
 50
110.8317771076
 51
110.9906854303
  0
ARC
  5
619
100
AcDbEntity
  8
0
100
AcDbCircle
 62
250
  6
CONTINUOUS
 10
43.2415057678
 20
0.0
 40
4.7803944007
100
AcDbArc
 50
249.0093145697
 51
249.1681365031
  0
ARC
  5
61A
100
AcDbEntity
  8
0
100
AcDbCircle
 62
250
  6
CONTINUOUS
 10
43.2415057678
 20
0.0
 40
4.7803944007
100
AcDbArc
 50
290.8317771076
 51
290.9906854303
  0
ARC
  5
61B
100
AcDbEntity
  8
RACCORDO
100
AcDbCircle
 62
7
  6
CONTINUOUS
 10
43.2415057678
 20
-0.0
 40
4.7
100
AcDbArc
 50
114.2812062477
 51
153.984833255
  0
ARC
  5
61C
100
AcDbEntity
  8
RACCORDO
100
AcDbCircle
 62
7
  6
CONTINUOUS
 10
43.2415057678
 20
-0.0
 40
4.7
100
AcDbArc
 50
294.2812643401
 51
65.7187356634
  0
ARC
  5
61D
100
AcDbEntity
  8
RACCORDO
100
AcDbCircle
 62
7
  6
CONTINUOUS
 10
43.2415057678
 20
-0.0
 40
4.7
100
AcDbArc
 50
206.015166745
 51
245.7187937754
  0
ARC
  5
61E
100
AcDbEntity
  8
0
100
AcDbCircle
 62
250
  6
CONTINUOUS
 10
43.2415057678
 20
0.0
 40
4.5695606953
100
AcDbArc
 50
69.0791381144
 51
110.9208618856
  0
ARC
  5
61F
100
AcDbEntity
  8
0
100
AcDbCircle
 62
250
  6
CONTINUOUS
 10
43.2415057678
 20
0.0
 40
4.5695606953
100
AcDbArc
 50
249.0791381144
 51
290.9208618856
  0
ARC
  5
620
100
AcDbEntity
  8
0
100
AcDbCircle
 62
7
  6
CONTINUOUS
 10
43.2415057678
 20
0.0
 40
4.2766674765
100
AcDbArc
 50
66.4898767705
 51
113.5101232295
  0
ARC
  5
621
100
AcDbEntity
  8
0
100
AcDbCircle
 62
7
  6
CONTINUOUS
 10
43.2415057678
 20
0.0
 40
4.2766674765
100
AcDbArc
 50
246.4898767705
 51
293.5101232295
  0
ARC
  5
622
100
AcDbEntity
  8
RACCORDO
100
AcDbCircle
 62
250
  6
CONTINUOUS
 10
43.2415057678
 20
-0.0
 40
3.7
100
AcDbArc
 50
207.3532090805
 51
152.6467909195
  0
ARC
  5
623
100
AcDbEntity
  8
RACCORDO
100
AcDbCircle
 62
250
  6
CONTINUOUS
 10
43.2415057678
 20
0.0
 40
1.7
100
AcDbArc
 50
335.6682737626
 51
24.3316407812
  0
ARC
  5
624
100
AcDbEntity
  8
0
100
AcDbCircle
 62
7
  6
CONTINUOUS
 10
43.2415057678
 20
0.0
 40
1.6
100
AcDbArc
 50
185.3793789911
 51
174.6206210089
  0
ARC
  5
625
100
AcDbEntity
  8
0
100
AcDbCircle
 62
7
  6
CONTINUOUS
 10
43.2415057678
 20
0.0
 40
1.0
100
AcDbArc
 50
188.6269265587
 51
171.3730734413
  0
ARC
  5
626
100
AcDbEntity
  8
RACCORDO
100
AcDbCircle
 62
7
  6
CONTINUOUS
 10
46.2415057678
 20
-0.0
 40
0.7
100
AcDbArc
 50
270.0
 51
90.0
  0
ARC
  5
627
100
AcDbEntity
  8
DRAFT
100
AcDbCircle
 62
7
  6
CONTINUOUS
 10
48.1915057678
 20
23.1
 40
0.5
100
AcDbArc
 50
170.803718421
 51
299.112422776
  0
ELLIPSE
  5
628
100
AcDbEntity
  8
DRAFT
100
AcDbEllipse
 62
7
  6
CONTINUOUS
 10
344.1152249398
 20
-0.0
 30
0.0
 11
1427.1497290694
 21
-0.0
 31
0.0
 40
0.0151169134
 41
-1.8214348428
 42
-1.8154383985
  0
ELLIPSE
  5
629
100
AcDbEntity
  8
DRAFT
100
AcDbEllipse
 62
7
  6
CONTINUOUS
 10
344.1152249398
 20
-0.0
 30
0.0
 11
1427.1497290694
 21
-0.0
 31
0.0
 40
0.0151169134
 41
1.8154383985
 42
1.8214348428
  0
ELLIPSE
  5
62A
100
AcDbEntity
  8
0
100
AcDbEllipse
 62
250
  6
CONTINUOUS
 10
8.5498803846
 20
3.999994
 30
0.0
 11
0.0
 21
0.499999
 31
0.0
 40
1.0
 41
0.0
 42
6.2831853072
  0
ELLIPSE
  5
62B
100
AcDbEntity
  8
0
100
AcDbEllipse
 62
7
  6
CONTINUOUS
 10
53.8914296038
 20
-21.899313827
 30
0.0
 11
-0.1582391023
 21
0.4751033573
 31
0.0
 40
0.9984778551
 41
-3.4626430041
 42
-1.8927600658
  0
ELLIPSE
  5
62C
100
AcDbEntity
  8
0
100
AcDbEllipse
 62
7
  6
CONTINUOUS
 10
53.8914296038
 20
21.899313827
 30
0.0
 11
0.1582391023
 21
0.4751033573
 31
0.0
 40
0.9984778551
 41
-1.2488325878
 42
0.3210503505
  0
ELLIPSE
  5
62D
100
AcDbEntity
  8
0
100
AcDbEllipse
 62
7
  6
CONTINUOUS
 10
32.5915819318
 20
-21.899313827
 30
0.0
 11
0.1582391023
 21
0.4751033573
 31
0.0
 40
0.9984778551
 41
-4.3904252414
 42
-2.8205423031
  0
ELLIPSE
  5
62E
100
AcDbEntity
  8
0
100
AcDbEllipse
 62
7
  6
CONTINUOUS
 10
32.5915819318
 20
21.899313827
 30
0.0
 11
-0.1582391023
 21
0.4751033573
 31
0.0
 40
0.9984778551
 41
-0.3210503505
 42
1.2488325878
  0
ENDSEC
  0
SECTION
  2
OBJECTS
  0
DICTIONARY
  5
C
100
AcDbDictionary
280
0
281
1
  3
ACAD_GROUP
350
D
  3
ACAD_MLINESTYLE
350
17
  3
ACAD_LAYOUT
350
1A
  3
ACAD_PLOTSETTINGS
350
19
  3
ACAD_PLOTSTYLENAME
350
E
  0
DICTIONARY
  5
D
102
{ACAD_REACTORS
330
C
102
}
100
AcDbDictionary
280
0
281
1
  0
ACDBDICTIONARYWDFLT
  5
E
102
{ACAD_REACTORS
330
C
102
}
100
AcDbDictionary
281
1
  3
Normal
350
F
100
AcDbDictionaryWithDefault
340
F
  0
DICTIONARY
  5
17
102
{ACAD_REACTORS
330
C
102
}
100
AcDbDictionary
280
0
281
1
  3
Standard
350
18
  0
DICTIONARY
  5
19
102
{ACAD_REACTORS
330
C
102
}
100
AcDbDictionary
281
1
  0
DICTIONARY
  5
1A
102
{ACAD_REACTORS
330
C
102
}
100
AcDbDictionary
281
1
  3
Model
350
62F
  3
Layout1
350
630
  0
ACDBPLACEHOLDER
  5
F
102
{ACAD_REACTORS
330
E
102
}
  0
MLINESTYLE
  5
18
102
{ACAD_REACTORS
330
17
102
}
100
AcDbMlineStyle
  2
STANDARD
 70
0
  3

 62
256
 51
90.0
 52
90.0
 71
2
 49
0.5
 62
256
  6
BYLAYER
 49
-0.5
 62
256
  6
BYLAYER
  0
LAYOUT
  5
62F
102
{ACAD_REACTORS
330
1A
102
}
100
AcDbPlotSettings
  1

  2
none_device
  4
ISO_A4_(297.00_x_210.00_MM)
  6

 40
0.0
 41
0.0
 42
0.0
 43
0.0
 44
297.0
 45
210.0
 46
0.0
 47
0.0
 48
0.0
 49
0.0
140
0.0
141
0.0
142
1.0
143
1.0
 70
1024
 72
1
 73
0
 74
0
  7

 75
0
147
1.0
148
0.0
149
0.0
100
AcDbLayout
  1
Model
 70
0
 71
0
 10
0.0
 20
0.0
 11
297.0
 21
210.0
 12
0.0
 22
0.0
 32
0.0
 14
0.0
 24
0.0
 34
0.0
 15
0.0
 25
0.0
 35
0.0
146
0.0
 13
0.0
 23
0.0
 33
0.0
 16
1.0
 26
0.0
 36
0.0
 17
0.0
 27
1.0
 37
0.0
 76
0
330
21A
345
0
346
0
  0
LAYOUT
  5
630
102
{ACAD_REACTORS
330
1A
102
}
100
AcDbPlotSettings
  1

  2
none_device
  4
ISO_A4_(297.00_x_210.00_MM)
  6

 40
0.0
 41
0.0
 42
0.0
 43
0.0
 44
297.0
 45
210.0
 46
0.0
 47
0.0
 48
0.0
 49
0.0
140
0.0
141
0.0
142
1.0
143
1.0
 70
0
 72
1
 73
0
 74
0
  7

 75
0
147
1.0
148
0.0
149
0.0
100
AcDbLayout
  1
Layout1
 70
0
 71
1
 10
0.0
 20
0.0
 11
297.0
 21
210.0
 12
0.0
 22
0.0
 32
0.0
 14
0.0
 24
0.0
 34
0.0
 15
0.0
 25
0.0
 35
0.0
146
0.0
 13
0.0
 23
0.0
 33
0.0
 16
1.0
 26
0.0
 36
0.0
 17
0.0
 27
1.0
 37
0.0
 76
0
330
21B
345
0
346
0
  0
ENDSEC
  0
EOF
