0
SECTION
2
HEADER
9
$ACADVER
1
AC1015
9
$DWGCODEPAGE
3
ANSI_1252
9
$EXTMAX
10
297.0000000000
20
210.0000000000
30
0.0000000000
9
$EXTMIN
10
0.0000000000
20
0.0000000000
30
0.0000000000
9
$LIMMIN
10
0.0000000000
20
0.0000000000
9
$LIMMAX
10
297.0000000000
20
210.0000000000
9
$VIEWCTR
10
148.5000000000
20
105.0000000000
9
$VIEWSIZE
40
210.0000000000
9
$CLAYER
8
0
9
$LTSCALE
40
16.3350000000
9
$CELTYPE
6
BYLAYER
9
$DIMSCALE
40
1
9
$DIMASZ
40
3.0000000000
9
$DIMEXO
40
1.8562500000
9
$DIMDLI
40
11.2860000000
9
$DIMEXE
40
5.3460000000
9
$DIMCEN
40
2.6730000000
9
$DIMLFAC
40
1.0000000000
9
$DIMBLK
1
_FILLED
9
$DIMTXT
40
3.0000000000
9
$DIMTOL
70
1
9
$DIMLIM
70
0
9
$DIMTFAC
40
1.0000000000
9
$DIMTP
40
0.0100000000
9
$DIMTM
40
0.0100000000
9
$PDMODE
70
3
9
$PDSIZE
40
3.0000000000
9
$HANDSEED
5
3CD
9
$MEASUREMENT
70
1
9
$INSUNITS
70
4
0
ENDSEC
0
SECTION
2
CLASSES
0
CLASS
1
ACDBDICTIONARYWDFLT
2
AcDbDictionaryWithDefault
3
AutoCAD 2000
90
0
280
0
281
0
0
CLASS
1
ACDBPLACEHOLDER
2
AcDbPlaceHolder
3
AutoCAD 2000
90
0
280
0
281
0
0
CLASS
1
LAYOUT
2
AcDbLayout
3
AutoCAD 2000
90
0
280
0
281
0
0
ENDSEC
0
SECTION
2
TABLES
0
TABLE
2
VPORT
5
8
100
AcDbSymbolTable
70
2
0
VPORT
5
1F4
100
AcDbSymbolTableRecord
100
AcDbViewportTableRecord
2
*ACTIVE
70
0
10
0.0
20
0.0
11
1.0
21
1.0
12
148.5000000000
22
105.0000000000
13
0.0
23
0.0
14
1.0
24
1.0
15
0.0
25
0.0
16
0.0
26
0.0
36
1.0
17
0.0
27
0.0
37
0.0
40
210.0000000000
41
1.4142857143
42
50.0
43
0.0
44
0.0
50
0.0
51
0.0
71
0
72
100
73
1
74
1
75
0
76
0
77
0
78
0
0
ENDTAB
0
TABLE
2
LTYPE
5
5
100
AcDbSymbolTable
70
6
0
LTYPE
5
14
100
AcDbSymbolTableRecord
100
AcDbLinetypeTableRecord
2
BYBLOCK
70
0
3

72
65
73
0
40
0.0
0
LTYPE
5
15
100
AcDbSymbolTableRecord
100
AcDbLinetypeTableRecord
2
BYLAYER
70
0
3

72
65
73
0
40
0.0
0
LTYPE
5
16
100
AcDbSymbolTableRecord
100
AcDbLinetypeTableRecord
2
CONTINUOUS
70
64
3
Solid line
72
65
73
0
40
0
0
LTYPE
5
1F5
100
AcDbSymbolTableRecord
100
AcDbLinetypeTableRecord
2
CENTER
70
64
3
____ _ ____ _ ____ _ ____ _ ____ _ ____ _ ____
72
65
73
4
40
0.6
49
0.375
74
0
49
-0.075
74
0
49
0.075
74
0
49
-0.075
74
0
0
LTYPE
5
1F6
100
AcDbSymbolTableRecord
100
AcDbLinetypeTableRecord
2
HIDDEN
70
64
3
- - - - - - - - - - - - - - - - - - - -
72
65
73
2
40
0.2
49
0.1
74
0
49
-0.1
74
0
0
LTYPE
5
1F7
100
AcDbSymbolTableRecord
100
AcDbLinetypeTableRecord
2
PHANTOM
70
64
3
_____ _ _ _____ _ _ _____ _ _ _____
72
65
73
6
40
0.8
49
0.45
74
0
49
-0.05
74
0
49
0.1
74
0
49
-0.05
74
0
49
0.1
74
0
49
-0.05
74
0
0
LTYPE
5
1F8
100
AcDbSymbolTableRecord
100
AcDbLinetypeTableRecord
2
DOT
70
64
3
. . . . . . . . . . . . . . . . . . . .
72
65
73
2
40
0.2
49
0.1
74
0
49
-0.1
74
0
0
LTYPE
5
1F9
100
AcDbSymbolTableRecord
100
AcDbLinetypeTableRecord
2
DASHED
70
64
3
- - - - - - - - - - - - - - - - - - - -
72
65
73
2
40
0.2
49
0.1
74
0
49
-0.1
74
0
0
ENDTAB
0
TABLE
2
LAYER
5
2
100
AcDbSymbolTable
70
36
0
LAYER
5
10
100
AcDbSymbolTableRecord
100
AcDbLayerTableRecord
2
0
70
0
62
7
6
CONTINUOUS
370
-3
390
F
0
LAYER
5
1FA
100
AcDbSymbolTableRecord
100
AcDbLayerTableRecord
2
DEFAULT_1
70
0
62
7
6
CENTER
370
-3
390
F
0
LAYER
5
1FB
100
AcDbSymbolTableRecord
100
AcDbLayerTableRecord
2
DEFAULT_2
70
0
62
8
6
HIDDEN
370
-3
390
F
0
LAYER
5
1FC
100
AcDbSymbolTableRecord
100
AcDbLayerTableRecord
2
DEFAULT_3
70
0
62
7
6
PHANTOM
370
-3
390
F
0
LAYER
5
1FD
100
AcDbSymbolTableRecord
100
AcDbLayerTableRecord
2
_BLACK_HOLE
70
0
62
7
6
CONTINUOUS
370
-3
390
F
0
LAYER
5
1FE
100
AcDbSymbolTableRecord
100
AcDbLayerTableRecord
2
ASSI
70
0
62
7
6
CONTINUOUS
370
-3
390
F
0
LAYER
5
1FF
100
AcDbSymbolTableRecord
100
AcDbLayerTableRecord
2
COORDINATE
70
0
62
7
6
CONTINUOUS
370
-3
390
F
0
LAYER
5
200
100
AcDbSymbolTableRecord
100
AcDbLayerTableRecord
2
COORD_ORIGINE
70
0
62
7
6
CONTINUOUS
370
-3
390
F
0
LAYER
5
201
100
AcDbSymbolTableRecord
100
AcDbLayerTableRecord
2
DRAFT
70
0
62
7
6
CONTINUOUS
370
-3
390
F
0
LAYER
5
202
100
AcDbSymbolTableRecord
100
AcDbLayerTableRecord
2
IMPORT_FEATURES
70
0
62
7
6
CONTINUOUS
370
-3
390
F
0
LAYER
5
203
100
AcDbSymbolTableRecord
100
AcDbLayerTableRecord
2
INTF_1
70
0
62
7
6
CONTINUOUS
370
-3
390
F
0
LAYER
5
204
100
AcDbSymbolTableRecord
100
AcDbLayerTableRecord
2
NOTE
70
0
62
7
6
CONTINUOUS
370
-3
390
F
0
LAYER
5
205
100
AcDbSymbolTableRecord
100
AcDbLayerTableRecord
2
PIANI
70
0
62
7
6
CONTINUOUS
370
-3
390
F
0
LAYER
5
206
100
AcDbSymbolTableRecord
100
AcDbLayerTableRecord
2
PIANI_ORIGINE
70
0
62
7
6
CONTINUOUS
370
-3
390
F
0
LAYER
5
207
100
AcDbSymbolTableRecord
100
AcDbLayerTableRecord
2
PUNTI
70
0
62
7
6
CONTINUOUS
370
-3
390
F
0
LAYER
5
208
100
AcDbSymbolTableRecord
100
AcDbLayerTableRecord
2
RACCORDO
70
0
62
7
6
CONTINUOUS
370
-3
390
F
0
LAYER
5
209
100
AcDbSymbolTableRecord
100
AcDbLayerTableRecord
2
RGB____0____0____0__
70
0
62
7
6
CONTINUOUS
370
-3
390
F
0
LAYER
5
20A
100
AcDbSymbolTableRecord
100
AcDbLayerTableRecord
2
SMUSSO
70
0
62
7
6
CONTINUOUS
370
-3
390
F
0
LAYER
5
20B
100
AcDbSymbolTableRecord
100
AcDbLayerTableRecord
2
SNAPLINE
70
0
62
7
6
CONTINUOUS
370
-3
390
F
0
LAYER
5
20C
100
AcDbSymbolTableRecord
100
AcDbLayerTableRecord
2
SUPERFICI
70
0
62
7
6
CONTINUOUS
370
-3
390
F
0
LAYER
5
20D
100
AcDbSymbolTableRecord
100
AcDbLayerTableRecord
2
TRASH
70
0
62
7
6
CONTINUOUS
370
-3
390
F
0
LAYER
5
20E
100
AcDbSymbolTableRecord
100
AcDbLayerTableRecord
2
XSEC_DATUMS
70
0
62
7
6
CONTINUOUS
370
-3
390
F
0
ENDTAB
0
TABLE
2
STYLE
5
3
100
AcDbSymbolTable
70
1
0
STYLE
5
11
100
AcDbSymbolTableRecord
100
AcDbTextStyleTableRecord
2
STANDARD
70
0
40
0.0
41
0.8000000000
50
0.0
71
0
42
0.2
3
txt
4

0
ENDTAB
0
TABLE
2
VIEW
5
6
100
AcDbSymbolTable
70
0
0
ENDTAB
0
TABLE
2
UCS
5
7
100
AcDbSymbolTable
70
0
0
ENDTAB
0
TABLE
2
APPID
5
9
100
AcDbSymbolTable
70
1
0
APPID
5
20F
100
AcDbSymbolTableRecord
100
AcDbRegAppTableRecord
2
ACAD
70
0
0
ENDTAB
0
TABLE
2
BLOCK_RECORD
5
1
100
AcDbSymbolTable
70
0
0
BLOCK_RECORD
5
1F
100
AcDbSymbolTableRecord
100
AcDbBlockTableRecord
2
*MODEL_SPACE
0
BLOCK_RECORD
5
1B
100
AcDbSymbolTableRecord
100
AcDbBlockTableRecord
2
*PAPER_SPACE
0
BLOCK_RECORD
5
210
100
AcDbSymbolTableRecord
100
AcDbBlockTableRecord
2
_FILLED
0
BLOCK_RECORD
5
211
100
AcDbSymbolTableRecord
100
AcDbBlockTableRecord
2
*D0
0
BLOCK_RECORD
5
212
100
AcDbSymbolTableRecord
100
AcDbBlockTableRecord
2
*D1
0
BLOCK_RECORD
5
213
100
AcDbSymbolTableRecord
100
AcDbBlockTableRecord
2
*D2
0
BLOCK_RECORD
5
214
100
AcDbSymbolTableRecord
100
AcDbBlockTableRecord
2
*D3
0
ENDTAB
0
TABLE
2
DIMSTYLE
5
A
100
AcDbSymbolTable
70
1
100
AcDbDimStyleTable
71
0
0
DIMSTYLE
105
215
100
AcDbSymbolTableRecord
100
AcDbDimStyleTableRecord
2
STANDARD
70
0
3

4

40
1.0
41
3.0000000000
42
0.0625
43
0.38
44
0.18
45
0.0
46
0.0
47
0.0100000000
48
0.0100000000
140
3.0000000000
141
0.09
142
0.0
143
25.4
144
1.0000000000
145
0.0
146
1.0000000000
147
0.09
71
1
72
0
73
0
74
0
75
0
76
0
77
1
78
8
170
0
171
2
172
0
173
0
174
0
175
0
176
0
177
0
178
0
270
2
271
2
272
2
273
2
274
2
275
0
280
0
281
0
282
0
283
1
284
8
285
0
286
0
287
3
288
0
340
11
341
210
342
210
343
210
344
210
0
DIMSTYLE
105
216
100
AcDbSymbolTableRecord
100
AcDbDimStyleTableRecord
2
DIMSTYLE_1
70
0
3

4

40
1.0
41
3.0000000000
42
0.0625
43
0.38
44
0.18
45
0.0
46
0.0
47
0.0000000000
48
0.0000000000
140
3.0000000000
141
0.09
142
0.0
143
25.4
144
1.0000000000
145
0.0
146
1.0000000000
147
0.09
71
0
72
0
73
0
74
0
75
0
76
0
77
1
78
8
170
0
171
2
172
0
173
0
174
0
175
0
176
0
177
0
178
0
270
2
271
2
272
2
273
2
274
2
275
0
280
0
281
0
282
0
283
1
284
8
285
0
286
0
287
3
288
0
340
11
341
210
342
210
343
210
344
210
0
ENDTAB
0
ENDSEC
0
SECTION
2
BLOCKS
0
BLOCK
5
20
100
AcDbEntity
8
0
100
AcDbBlockBegin
2
*MODEL_SPACE
70
0
10
0.0
20
0.0
30
0.0
3
*MODEL_SPACE
1

0
ENDBLK
5
21
100
AcDbEntity
8
0
100
AcDbBlockEnd
0
BLOCK
5
1C
100
AcDbEntity
8
0
100
AcDbBlockBegin
2
*PAPER_SPACE
70
0
10
0.0
20
0.0
30
0.0
3
*PAPER_SPACE
1

0
ENDBLK
5
1D
100
AcDbEntity
8
0
100
AcDbBlockEnd
0
BLOCK
5
217
100
AcDbEntity
8
0
100
AcDbBlockBegin
62
2
6
CONTINUOUS
2
*D0
70
65
10
0.0000000000
20
0.0000000000
3
*D0
1

0
TEXT
5
218
100
AcDbEntity
8
0
100
AcDbText
62
2
6
CONTINUOUS
10
18.4000000000
20
-2.3571428571
7
STANDARD
40
3.0000000000
1
47
50
90.0000000000
41
0.7857142857
72
0
100
AcDbText
0
LINE
5
219
100
AcDbEntity
8
0
100
AcDbLine
62
2
6
CONTINUOUS
10
4.4733373476
20
-23.5000000000
11
20.6500000000
21
-23.5000000000
0
LINE
5
21A
100
AcDbEntity
8
0
100
AcDbLine
62
2
6
CONTINUOUS
10
4.4733373476
20
23.5000000000
11
20.6500000000
21
23.5000000000
0
LINE
5
21B
100
AcDbEntity
8
0
100
AcDbLine
62
2
6
CONTINUOUS
10
19.1500000000
20
-23.5000000000
11
19.1500000000
21
0.0000000000
0
LINE
5
21C
100
AcDbEntity
8
0
100
AcDbLine
62
2
6
CONTINUOUS
10
19.1500000000
20
23.5000000000
11
19.1500000000
21
0.0000000000
0
INSERT
5
21D
100
AcDbEntity
8
0
100
AcDbBlockReference
62
2
6
CONTINUOUS
2
_FILLED
10
19.1500000000
20
-23.5000000000
41
  3.000000
42
  3.000000
43
  3.000000
50
270.000000
0
INSERT
5
21E
100
AcDbEntity
8
0
100
AcDbBlockReference
62
2
6
CONTINUOUS
2
_FILLED
10
19.1500000000
20
23.5000000000
41
  3.000000
42
  3.000000
43
  3.000000
50
 90.000000
0
ENDBLK
5
21F
100
AcDbEntity
8
0
6
BYBLOCK
62
0
100
AcDbBlockEnd
0
BLOCK
5
220
100
AcDbEntity
8
0
100
AcDbBlockBegin
62
2
6
CONTINUOUS
2
*D1
70
65
10
0.0000000000
20
0.0000000000
3
*D1
1

0
TEXT
5
221
100
AcDbEntity
8
0
100
AcDbText
62
2
6
CONTINUOUS
10
-4.2857142857
20
32.2500000000
7
STANDARD
40
3.0000000000
1
22,3
41
0.7142857143
72
0
100
AcDbText
0
LINE
5
222
100
AcDbEntity
8
0
100
AcDbLine
62
2
6
CONTINUOUS
10
11.1500000000
20
22.3997711479
11
11.1500000000
21
33.0000000000
0
LINE
5
223
100
AcDbEntity
8
0
100
AcDbLine
62
2
6
CONTINUOUS
10
-11.1500000000
20
22.3997711479
11
-11.1500000000
21
33.0000000000
0
LINE
5
224
100
AcDbEntity
8
0
100
AcDbLine
62
2
6
CONTINUOUS
10
11.1500000000
20
31.5000000000
11
0.0000000000
21
31.5000000000
0
LINE
5
225
100
AcDbEntity
8
0
100
AcDbLine
62
2
6
CONTINUOUS
10
-11.1500000000
20
31.5000000000
11
0.0000000000
21
31.5000000000
0
INSERT
5
226
100
AcDbEntity
8
0
100
AcDbBlockReference
62
2
6
CONTINUOUS
2
_FILLED
10
11.1500000000
20
31.5000000000
41
  3.000000
42
  3.000000
43
  3.000000
0
INSERT
5
227
100
AcDbEntity
8
0
100
AcDbBlockReference
62
2
6
CONTINUOUS
2
_FILLED
10
-11.1500000000
20
31.5000000000
41
  3.000000
42
  3.000000
43
  3.000000
50
180.000000
0
ENDBLK
5
228
100
AcDbEntity
8
0
6
BYBLOCK
62
0
100
AcDbBlockEnd
0
BLOCK
5
229
100
AcDbEntity
8
0
100
AcDbBlockBegin
62
2
6
CONTINUOUS
2
*D2
70
65
10
0.0000000000
20
0.0000000000
3
*D2
1

0
TEXT
5
22A
100
AcDbEntity
8
0
100
AcDbText
62
2
6
CONTINUOUS
10
-25.4803148036
20
32.2500000000
7
STANDARD
40
3.0000000000
1
9
41
0.7857142857
72
0
100
AcDbText
0
LINE
5
22B
100
AcDbEntity
8
0
100
AcDbLine
62
2
6
CONTINUOUS
10
-19.8017433750
20
20.6171572875
11
-19.8017433750
21
33.0000000000
0
LINE
5
22C
100
AcDbEntity
8
0
100
AcDbLine
62
2
6
CONTINUOUS
10
-28.8017433750
20
22.3997711479
11
-28.8017433750
21
33.0000000000
0
LINE
5
22D
100
AcDbEntity
8
0
100
AcDbLine
62
2
6
CONTINUOUS
10
-19.8017433750
20
31.5000000000
11
-24.3017433750
21
31.5000000000
0
LINE
5
22E
100
AcDbEntity
8
0
100
AcDbLine
62
2
6
CONTINUOUS
10
-28.8017433750
20
31.5000000000
11
-24.3017433750
21
31.5000000000
0
INSERT
5
22F
100
AcDbEntity
8
0
100
AcDbBlockReference
62
2
6
CONTINUOUS
2
_FILLED
10
-19.8017433750
20
31.5000000000
41
  3.000000
42
  3.000000
43
  3.000000
0
INSERT
5
230
100
AcDbEntity
8
0
100
AcDbBlockReference
62
2
6
CONTINUOUS
2
_FILLED
10
-28.8017433750
20
31.5000000000
41
  3.000000
42
  3.000000
43
  3.000000
50
180.000000
0
ENDBLK
5
231
100
AcDbEntity
8
0
6
BYBLOCK
62
0
100
AcDbBlockEnd
0
BLOCK
5
232
100
AcDbEntity
8
0
100
AcDbBlockBegin
62
2
6
CONTINUOUS
2
*D3
70
65
10
0.0000000000
20
0.0000000000
3
*D3
1

0
TEXT
5
233
100
AcDbEntity
8
0
100
AcDbText
62
2
6
CONTINUOUS
10
-39.0446005179
20
42.2500000000
7
STANDARD
40
3.0000000000
1
29,7
41
0.7321428571
72
0
100
AcDbText
0
LINE
5
234
100
AcDbEntity
8
0
100
AcDbLine
62
2
6
CONTINUOUS
10
-19.8017433750
20
20.6171572875
11
-19.8017433750
21
43.0000000000
0
LINE
5
235
100
AcDbEntity
8
0
100
AcDbLine
62
2
6
CONTINUOUS
10
-49.5017433750
20
3.8854755959
11
-49.5017433750
21
43.0000000000
0
LINE
5
236
100
AcDbEntity
8
0
100
AcDbLine
62
2
6
CONTINUOUS
10
-19.8017433750
20
41.5000000000
11
-34.6517433750
21
41.5000000000
0
LINE
5
237
100
AcDbEntity
8
0
100
AcDbLine
62
2
6
CONTINUOUS
10
-49.5017433750
20
41.5000000000
11
-34.6517433750
21
41.5000000000
0
INSERT
5
238
100
AcDbEntity
8
0
100
AcDbBlockReference
62
2
6
CONTINUOUS
2
_FILLED
10
-19.8017433750
20
41.5000000000
41
  3.000000
42
  3.000000
43
  3.000000
0
INSERT
5
239
100
AcDbEntity
8
0
100
AcDbBlockReference
62
2
6
CONTINUOUS
2
_FILLED
10
-49.5017433750
20
41.5000000000
41
  3.000000
42
  3.000000
43
  3.000000
50
180.000000
0
ENDBLK
5
23A
100
AcDbEntity
8
0
6
BYBLOCK
62
0
100
AcDbBlockEnd
0
BLOCK
5
23B
100
AcDbEntity
8
0
100
AcDbBlockBegin
2
_FILLED
70
64
10
0.0000000000
20
0.0000000000
3
_FILLED
1

0
SOLID
5
23C
100
AcDbEntity
8
0
6
BYBLOCK
62
0
100
AcDbTrace
10
0.0000000000
20
0.0000000000
11
-1.0000000000
21
0.3166666667
12
-1.0000000000
22
-0.3166666667
13
-1.0000000000
23
-0.3166666667
0
ENDBLK
5
23D
100
AcDbEntity
8
0
6
BYBLOCK
62
0
100
AcDbBlockEnd
0
ENDSEC
0
SECTION
2
ENTITIES
0
DIMENSION
5
23E
100
AcDbEntity
8
0
100
AcDbDimension
62
2
6
CONTINUOUS
2
*D0
10
19.1500000000
20
23.5000000000
11
16.9000000000
21
0.0000000000
70
160
3
DIMSTYLE_1
100
AcDbAlignedDimension
13
4.4733373476
23
-23.5000000000
14
4.4733373476
24
23.5000000000
50
90.000000
100
AcDbRotatedDimension
0
DIMENSION
5
23F
100
AcDbEntity
8
0
100
AcDbDimension
62
2
6
CONTINUOUS
2
*D1
10
-11.1500000000
20
31.5000000000
11
0.0000000000
21
33.7500000000
70
160
3
DIMSTYLE_1
100
AcDbAlignedDimension
13
11.1500000000
23
22.3997711479
14
-11.1500000000
24
22.3997711479
50
180.000000
100
AcDbRotatedDimension
0
DIMENSION
5
240
100
AcDbEntity
8
0
100
AcDbDimension
62
2
6
CONTINUOUS
2
*D2
10
-28.8017433750
20
31.5000000000
11
-24.3017433750
21
33.7500000000
70
160
3
DIMSTYLE_1
100
AcDbAlignedDimension
13
-19.8017433750
23
20.6171572875
14
-28.8017433750
24
22.3997711479
50
180.000000
100
AcDbRotatedDimension
0
DIMENSION
5
241
100
AcDbEntity
8
0
100
AcDbDimension
62
2
6
CONTINUOUS
2
*D3
10
-49.5017433750
20
41.5000000000
11
-34.6517433750
21
43.7500000000
70
160
3
DIMSTYLE_1
100
AcDbAlignedDimension
13
-19.8017433750
23
20.6171572875
14
-49.5017433750
24
3.8854755959
50
180.000000
100
AcDbRotatedDimension
0
LINE
5
242
100
AcDbEntity
8
0
100
AcDbLine
62
7
6
CONTINUOUS
10
-3.0000000000
20
-23.5000000000
11
-2.7812783412
21
-23.4563623377
0
LINE
5
243
100
AcDbEntity
8
0
100
AcDbLine
62
7
6
CONTINUOUS
10
3.9733373476
20
-23.5000000000
11
3.0000000000
21
-23.5000000000
0
LINE
5
244
100
AcDbEntity
8
0
100
AcDbLine
62
7
6
CONTINUOUS
10
-3.0000000000
20
-23.5000000000
11
-3.9733373476
21
-23.5000000000
0
LINE
5
245
100
AcDbEntity
8
0
100
AcDbLine
62
7
6
CONTINUOUS
10
2.7812783412
20
-23.4563623377
11
-2.7812783412
21
-23.4563623377
0
LINE
5
246
100
AcDbEntity
8
0
100
AcDbLine
62
7
6
CONTINUOUS
10
-2.7812783412
20
-22.5310194482
11
2.7812783412
21
-22.5310194482
0
LINE
5
247
100
AcDbEntity
8
0
100
AcDbLine
62
7
6
CONTINUOUS
10
10.6503805997
20
-22.4000000000
11
3.0000000000
21
-22.4000000000
0
LINE
5
248
100
AcDbEntity
8
0
100
AcDbLine
62
7
6
CONTINUOUS
10
-3.0000000000
20
-22.4000000000
11
-10.6503805997
21
-22.4000000000
0
LINE
5
249
100
AcDbEntity
8
0
100
AcDbLine
62
7
6
CONTINUOUS
10
3.0000000000
20
-23.5000000000
11
2.7812783412
21
-23.4563623377
0
LINE
5
24A
100
AcDbEntity
8
0
100
AcDbLine
62
7
6
CONTINUOUS
10
-2.7812783412
20
22.5310194482
11
-3.0000000000
21
22.4000000000
0
LINE
5
24B
100
AcDbEntity
8
0
100
AcDbLine
62
9
6
CONTINUOUS
10
10.5087981167
20
-21.9749071372
11
-10.5087981167
21
-21.9749071372
0
LINE
5
24C
100
AcDbEntity
8
0
100
AcDbLine
62
9
6
CONTINUOUS
10
10.5005350625
20
-21.0183142309
11
-10.5005350625
21
-21.0183142309
0
LINE
5
24D
100
AcDbEntity
8
0
100
AcDbLine
62
7
6
CONTINUOUS
10
-3.0000000000
20
-22.4000000000
11
-2.7812783412
21
-22.5310194482
0
LINE
5
24E
100
AcDbEntity
8
0
100
AcDbLine
62
7
6
CONTINUOUS
10
-11.1500000000
20
-21.8997711479
11
-11.1500000000
21
21.8997711479
0
LINE
5
24F
100
AcDbEntity
8
0
100
AcDbLine
62
9
6
CONTINUOUS
10
-10.5005350625
20
21.0183142309
11
-10.5005350625
21
-21.0183142309
0
LINE
5
250
100
AcDbEntity
8
0
100
AcDbLine
62
7
6
CONTINUOUS
10
-5.5000000000
20
3.1754264805
11
-5.5000000000
21
-3.1754264805
0
LINE
5
251
100
AcDbEntity
8
0
100
AcDbLine
62
7
6
CONTINUOUS
10
0.0000000000
20
6.3508529611
11
-5.5000000000
21
3.1754264805
0
LINE
5
252
100
AcDbEntity
8
0
100
AcDbLine
62
7
6
CONTINUOUS
10
-5.5000000000
20
-3.1754264805
11
0.0000000000
21
-6.3508529611
0
LINE
5
253
100
AcDbEntity
8
0
100
AcDbLine
62
9
6
CONTINUOUS
10
-11.0087219643
20
-21.4755923698
11
-11.1500000000
21
-21.8997711479
0
LINE
5
254
100
AcDbEntity
8
0
100
AcDbLine
62
9
6
CONTINUOUS
10
-11.1500000000
20
21.8997711479
11
-11.0087219643
21
21.4755923698
0
LINE
5
255
100
AcDbEntity
8
0
100
AcDbLine
62
7
6
CONTINUOUS
10
-3.0000000000
20
23.5000000000
11
-3.0000000000
21
22.4000000000
0
LINE
5
256
100
AcDbEntity
8
0
100
AcDbLine
62
7
6
CONTINUOUS
10
-3.0000000000
20
-22.4000000000
11
-3.0000000000
21
-23.5000000000
0
LINE
5
257
100
AcDbEntity
8
0
100
AcDbLine
62
7
6
CONTINUOUS
10
-2.7812783412
20
23.4563623377
11
-2.7812783412
21
22.5310194482
0
LINE
5
258
100
AcDbEntity
8
0
100
AcDbLine
62
7
6
CONTINUOUS
10
-2.7812783412
20
-22.5310194482
11
-2.7812783412
21
-23.4563623377
0
LINE
5
259
100
AcDbEntity
8
0
100
AcDbLine
62
9
6
CONTINUOUS
10
-10.5087981167
20
-21.9749071372
11
-10.6503805997
21
-22.4000000000
0
LINE
5
25A
100
AcDbEntity
8
0
100
AcDbLine
62
9
6
CONTINUOUS
10
-10.6503805997
20
22.4000000000
11
-10.5087981167
21
21.9749071372
0
LINE
5
25B
100
AcDbEntity
8
0
100
AcDbLine
62
7
6
CONTINUOUS
10
2.7812783412
20
23.4563623377
11
2.7812783412
21
22.5310194482
0
LINE
5
25C
100
AcDbEntity
8
0
100
AcDbLine
62
7
6
CONTINUOUS
10
2.7812783412
20
-22.5310194482
11
2.7812783412
21
-23.4563623377
0
LINE
5
25D
100
AcDbEntity
8
0
100
AcDbLine
62
7
6
CONTINUOUS
10
3.0000000000
20
23.5000000000
11
3.0000000000
21
22.4000000000
0
LINE
5
25E
100
AcDbEntity
8
0
100
AcDbLine
62
7
6
CONTINUOUS
10
3.0000000000
20
-22.4000000000
11
3.0000000000
21
-23.5000000000
0
LINE
5
25F
100
AcDbEntity
8
0
100
AcDbLine
62
9
6
CONTINUOUS
10
10.6503805997
20
22.4000000000
11
10.5087981167
21
21.9749071372
0
LINE
5
260
100
AcDbEntity
8
0
100
AcDbLine
62
9
6
CONTINUOUS
10
11.1500000000
20
21.8997711479
11
11.0087219643
21
21.4755923698
0
LINE
5
261
100
AcDbEntity
8
0
100
AcDbLine
62
9
6
CONTINUOUS
10
10.5087981167
20
-21.9749071372
11
10.6503805997
21
-22.4000000000
0
LINE
5
262
100
AcDbEntity
8
0
100
AcDbLine
62
9
6
CONTINUOUS
10
11.0087219643
20
-21.4755923698
11
11.1500000000
21
-21.8997711479
0
LINE
5
263
100
AcDbEntity
8
0
100
AcDbLine
62
7
6
CONTINUOUS
10
5.5000000000
20
-3.1754264805
11
5.5000000000
21
3.1754264805
0
LINE
5
264
100
AcDbEntity
8
0
100
AcDbLine
62
7
6
CONTINUOUS
10
0.0000000000
20
-6.3508529611
11
5.5000000000
21
-3.1754264805
0
LINE
5
265
100
AcDbEntity
8
0
100
AcDbLine
62
7
6
CONTINUOUS
10
5.5000000000
20
3.1754264805
11
0.0000000000
21
6.3508529611
0
LINE
5
266
100
AcDbEntity
8
0
100
AcDbLine
62
9
6
CONTINUOUS
10
10.5005350625
20
21.0183142309
11
10.5005350625
21
-21.0183142309
0
LINE
5
267
100
AcDbEntity
8
0
100
AcDbLine
62
7
6
CONTINUOUS
10
11.1500000000
20
21.8997711479
11
11.1500000000
21
-21.8997711479
0
LINE
5
268
100
AcDbEntity
8
0
100
AcDbLine
62
7
6
CONTINUOUS
10
3.0000000000
20
-22.4000000000
11
2.7812783412
21
-22.5310194482
0
LINE
5
269
100
AcDbEntity
8
0
100
AcDbLine
62
9
6
CONTINUOUS
10
-10.5005350625
20
21.0183142309
11
10.5005350625
21
21.0183142309
0
LINE
5
26A
100
AcDbEntity
8
0
100
AcDbLine
62
7
6
CONTINUOUS
10
2.7812783412
20
22.5310194482
11
3.0000000000
21
22.4000000000
0
LINE
5
26B
100
AcDbEntity
8
0
100
AcDbLine
62
7
6
CONTINUOUS
10
3.0000000000
20
23.5000000000
11
2.7812783412
21
23.4563623377
0
LINE
5
26C
100
AcDbEntity
8
0
100
AcDbLine
62
9
6
CONTINUOUS
10
-10.5087981167
20
21.9749071372
11
10.5087981167
21
21.9749071372
0
LINE
5
26D
100
AcDbEntity
8
0
100
AcDbLine
62
7
6
CONTINUOUS
10
3.0000000000
20
22.4000000000
11
10.6503805997
21
22.4000000000
0
LINE
5
26E
100
AcDbEntity
8
0
100
AcDbLine
62
7
6
CONTINUOUS
10
-3.0000000000
20
22.4000000000
11
-10.6503805997
21
22.4000000000
0
LINE
5
26F
100
AcDbEntity
8
0
100
AcDbLine
62
7
6
CONTINUOUS
10
-2.7812783412
20
22.5310194482
11
2.7812783412
21
22.5310194482
0
LINE
5
270
100
AcDbEntity
8
0
100
AcDbLine
62
7
6
CONTINUOUS
10
-3.0000000000
20
23.5000000000
11
-2.7812783412
21
23.4563623377
0
LINE
5
271
100
AcDbEntity
8
0
100
AcDbLine
62
7
6
CONTINUOUS
10
2.7812783412
20
23.4563623377
11
-2.7812783412
21
23.4563623377
0
LINE
5
272
100
AcDbEntity
8
0
100
AcDbLine
62
7
6
CONTINUOUS
10
-3.9733373476
20
23.5000000000
11
-3.0000000000
21
23.5000000000
0
LINE
5
273
100
AcDbEntity
8
0
100
AcDbLine
62
7
6
CONTINUOUS
10
3.0000000000
20
23.5000000000
11
3.9733373476
21
23.5000000000
0
LINE
5
274
100
AcDbEntity
8
0
100
AcDbLine
62
7
6
CONTINUOUS
10
-28.8017433750
20
-23.5000000000
11
-24.8017433750
21
-23.4301797403
0
LINE
5
275
100
AcDbEntity
8
0
100
AcDbLine
62
7
6
CONTINUOUS
10
-23.2017433750
20
-22.2000000000
11
-22.7017433750
21
-22.2000000000
0
LINE
5
276
100
AcDbEntity
8
0
100
AcDbLine
62
7
6
CONTINUOUS
10
-36.9129983949
20
-21.9749071372
11
-28.8017433750
21
-22.4000000000
0
LINE
5
277
100
AcDbEntity
8
0
100
AcDbLine
62
9
6
CONTINUOUS
10
-37.3689466770
20
-20.9972959167
11
-37.8597728394
21
-21.0183139940
0
LINE
5
278
100
AcDbEntity
8
0
100
AcDbLine
62
7
6
CONTINUOUS
10
-20.7665285891
20
-21.1647852141
11
-24.8017433750
21
-21.2000000000
0
LINE
5
279
100
AcDbEntity
8
0
100
AcDbLine
62
7
6
CONTINUOUS
10
-20.7177585137
20
-20.8366629075
11
-28.8017433750
21
-20.9000000000
0
LINE
5
27A
100
AcDbEntity
8
0
100
AcDbLine
62
7
6
CONTINUOUS
10
-20.8017433750
20
-21.2000000000
11
-24.8017433750
21
-21.2000000000
0
LINE
5
27B
100
AcDbEntity
8
0
100
AcDbLine
62
9
6
CONTINUOUS
10
-36.8955566200
20
-21.4755923698
11
-28.8017433750
21
-21.8997711479
0
LINE
5
27C
100
AcDbEntity
8
0
100
AcDbLine
62
9
6
CONTINUOUS
10
-19.9982528937
20
-20.1171572875
11
-19.8017433750
21
-20.1171572875
0
LINE
5
27D
100
AcDbEntity
8
0
100
AcDbLine
62
9
6
CONTINUOUS
10
-19.9982528937
20
-19.0000000000
11
-19.8017433750
21
-18.9999999999
0
LINE
5
27E
100
AcDbEntity
8
0
100
AcDbLine
62
9
6
CONTINUOUS
10
-20.2982528937
20
-18.7000000000
11
-24.5566342008
21
-18.7000000000
0
LINE
5
27F
100
AcDbEntity
8
0
100
AcDbLine
62
7
6
CONTINUOUS
10
-20.3017433750
20
-18.5000000000
11
-24.5337941826
21
-18.5000000000
0
LINE
5
280
100
AcDbEntity
8
0
100
AcDbLine
62
7
6
CONTINUOUS
10
-49.5017433750
20
-3.3854755959
11
-49.5017433750
21
3.3854755959
0
LINE
5
281
100
AcDbEntity
8
0
100
AcDbLine
62
9
6
CONTINUOUS
10
-24.5566342008
20
-18.7000000000
11
-28.8017433750
21
-17.5625264250
0
LINE
5
282
100
AcDbEntity
8
0
100
AcDbLine
62
7
6
CONTINUOUS
10
-24.5337941826
20
-18.5000000000
11
-28.8017433750
21
-17.3564064606
0
LINE
5
283
100
AcDbEntity
8
0
100
AcDbLine
62
7
6
CONTINUOUS
10
-47.4673354042
20
4.5570449316
11
-47.6717433761
21
4.2032521501
0
LINE
5
284
100
AcDbEntity
8
0
100
AcDbLine
62
7
6
CONTINUOUS
10
-46.8153309677
20
4.6470612089
11
-47.0717433761
21
4.2032521501
0
LINE
5
285
100
AcDbEntity
8
0
100
AcDbLine
62
7
6
CONTINUOUS
10
-47.9121422009
20
-4.3032322616
11
-47.9176490950
21
-4.2968754067
0
LINE
5
286
100
AcDbEntity
8
0
100
AcDbLine
62
7
6
CONTINUOUS
10
-47.9755020047
20
-4.1967470338
11
-47.9176490950
21
-4.2968754067
0
LINE
5
287
100
AcDbEntity
8
0
100
AcDbLine
62
7
6
CONTINUOUS
10
-47.3755020047
20
-4.1967470338
11
-47.1153309677
21
-4.6470612089
0
LINE
5
288
100
AcDbEntity
8
0
100
AcDbLine
62
7
6
CONTINUOUS
10
-47.3115228597
20
2.3075662287
11
-47.3115228597
21
4.5481012871
0
LINE
5
289
100
AcDbEntity
8
0
100
AcDbLine
62
7
6
CONTINUOUS
10
-46.2153309677
20
4.6470612089
11
-46.4717433761
21
4.2032521501
0
LINE
5
28A
100
AcDbEntity
8
0
100
AcDbLine
62
7
6
CONTINUOUS
10
-45.6153309677
20
4.6470612089
11
-45.8717433761
21
4.2032521501
0
LINE
5
28B
100
AcDbEntity
8
0
100
AcDbLine
62
7
6
CONTINUOUS
10
-45.0153309677
20
4.6470612089
11
-45.2717433761
21
4.2032521501
0
LINE
5
28C
100
AcDbEntity
8
0
100
AcDbLine
62
7
6
CONTINUOUS
10
-47.4621399959
20
4.5630411553
11
-47.4673354042
21
4.5570449316
0
LINE
5
28D
100
AcDbEntity
8
0
100
AcDbLine
62
7
6
CONTINUOUS
10
-28.8017433750
20
-12.6007591949
11
-24.9982528892
21
-12.5343690215
0
LINE
5
28E
100
AcDbEntity
8
0
100
AcDbLine
62
7
6
CONTINUOUS
10
-47.1153309677
20
-4.6470612089
11
-47.1119357539
21
-4.6500000000
0
LINE
5
28F
100
AcDbEntity
8
0
100
AcDbLine
62
7
6
CONTINUOUS
10
-46.5153309677
20
-4.6470612089
11
-46.5119357539
21
-4.6500000000
0
LINE
5
290
100
AcDbEntity
8
0
100
AcDbLine
62
7
6
CONTINUOUS
10
-45.9153309677
20
-4.6470612089
11
-45.9119357539
21
-4.6500000000
0
LINE
5
291
100
AcDbEntity
8
0
100
AcDbLine
62
7
6
CONTINUOUS
10
-46.7755020047
20
-4.1967470338
11
-46.5153309677
21
-4.6470612089
0
LINE
5
292
100
AcDbEntity
8
0
100
AcDbLine
62
7
6
CONTINUOUS
10
-46.1755020047
20
-4.1967470338
11
-45.9153309677
21
-4.6470612089
0
LINE
5
293
100
AcDbEntity
8
0
100
AcDbLine
62
7
6
CONTINUOUS
10
-45.5755020047
20
-4.1967470338
11
-45.3153309677
21
-4.6470612089
0
LINE
5
294
100
AcDbEntity
8
0
100
AcDbLine
62
7
6
CONTINUOUS
10
-44.9755020047
20
-4.1967470338
11
-44.7153309677
21
-4.6470612089
0
LINE
5
295
100
AcDbEntity
8
0
100
AcDbLine
62
7
6
CONTINUOUS
10
-44.4153309677
20
4.6470612089
11
-44.6717433761
21
4.2032521501
0
LINE
5
296
100
AcDbEntity
8
0
100
AcDbLine
62
7
6
CONTINUOUS
10
-43.8153309677
20
4.6470612089
11
-44.0717433761
21
4.2032521501
0
LINE
5
297
100
AcDbEntity
8
0
100
AcDbLine
62
7
6
CONTINUOUS
10
-43.2153309677
20
4.6470612089
11
-43.4717433761
21
4.2032521501
0
LINE
5
298
100
AcDbEntity
8
0
100
AcDbLine
62
7
6
CONTINUOUS
10
-47.9987602296
20
-4.2500109670
11
-47.9717433761
21
-4.2032521501
0
LINE
5
299
100
AcDbEntity
8
0
100
AcDbLine
62
7
6
CONTINUOUS
10
-42.6153309677
20
4.6470612089
11
-42.8717433761
21
4.2032521501
0
LINE
5
29A
100
AcDbEntity
8
0
100
AcDbLine
62
7
6
CONTINUOUS
10
-47.3265439620
20
4.6413275625
11
-47.4621422009
21
4.5630398828
0
LINE
5
29B
100
AcDbEntity
8
0
100
AcDbLine
62
7
6
CONTINUOUS
10
-47.7765439620
20
4.3815199414
11
-49.5017433750
21
3.3854755959
0
LINE
5
29C
100
AcDbEntity
8
0
100
AcDbLine
62
7
6
CONTINUOUS
10
-47.5515439620
20
-4.5114237520
11
-47.9121422009
21
-4.3032322616
0
LINE
5
29D
100
AcDbEntity
8
0
100
AcDbLine
62
7
6
CONTINUOUS
10
-48.0057715100
20
-4.2491753549
11
-49.5017433750
21
-3.3854755959
0
LINE
5
29E
100
AcDbEntity
8
0
100
AcDbLine
62
7
6
CONTINUOUS
10
-45.3153309677
20
-4.6470612089
11
-45.3119357539
21
-4.6500000000
0
LINE
5
29F
100
AcDbEntity
8
0
100
AcDbLine
62
7
6
CONTINUOUS
10
-44.7153309677
20
-4.6470612089
11
-44.7119357539
21
-4.6500000000
0
LINE
5
2A0
100
AcDbEntity
8
0
100
AcDbLine
62
7
6
CONTINUOUS
10
-44.1153309677
20
-4.6470612089
11
-44.1119357539
21
-4.6500000000
0
LINE
5
2A1
100
AcDbEntity
8
0
100
AcDbLine
62
7
6
CONTINUOUS
10
-43.5153309677
20
-4.6470612089
11
-43.5119357539
21
-4.6500000000
0
LINE
5
2A2
100
AcDbEntity
8
0
100
AcDbLine
62
7
6
CONTINUOUS
10
-44.3755020047
20
-4.1967470338
11
-44.1153309677
21
-4.6470612089
0
LINE
5
2A3
100
AcDbEntity
8
0
100
AcDbLine
62
7
6
CONTINUOUS
10
-43.7755020047
20
-4.1967470338
11
-43.5153309677
21
-4.6470612089
0
LINE
5
2A4
100
AcDbEntity
8
0
100
AcDbLine
62
7
6
CONTINUOUS
10
-43.1755020047
20
-4.1967470338
11
-42.9153309677
21
-4.6470612089
0
LINE
5
2A5
100
AcDbEntity
8
0
100
AcDbLine
62
7
6
CONTINUOUS
10
-47.6679847453
20
4.1967470339
11
-47.7738426211
21
4.3799621695
0
LINE
5
2A6
100
AcDbEntity
8
0
100
AcDbLine
62
7
6
CONTINUOUS
10
-47.5489202820
20
-4.5099106638
11
-47.3717433761
21
-4.2032521501
0
LINE
5
2A7
100
AcDbEntity
8
0
100
AcDbLine
62
7
6
CONTINUOUS
10
-42.0153309677
20
4.6470612089
11
-42.2717433761
21
4.2032521501
0
LINE
5
2A8
100
AcDbEntity
8
0
100
AcDbLine
62
7
6
CONTINUOUS
10
-47.0281557822
20
-4.6470612087
11
-46.7717433761
21
-4.2032521501
0
LINE
5
2A9
100
AcDbEntity
8
0
100
AcDbLine
62
7
6
CONTINUOUS
10
-41.4153309677
20
4.6470612089
11
-41.6717433761
21
4.2032521501
0
LINE
5
2AA
100
AcDbEntity
8
0
100
AcDbLine
62
7
6
CONTINUOUS
10
-46.4281557822
20
-4.6470612087
11
-46.1717433761
21
-4.2032521501
0
LINE
5
2AB
100
AcDbEntity
8
0
100
AcDbLine
62
7
6
CONTINUOUS
10
-40.9517433750
20
4.4109452876
11
-41.0717433761
21
4.2032521501
0
LINE
5
2AC
100
AcDbEntity
8
0
100
AcDbLine
62
7
6
CONTINUOUS
10
-45.8281557822
20
-4.6470612087
11
-45.5717433761
21
-4.2032521501
0
LINE
5
2AD
100
AcDbEntity
8
0
100
AcDbLine
62
7
6
CONTINUOUS
10
-28.8017433750
20
-7.3992408051
11
-24.9982528892
21
-7.4656309785
0
LINE
5
2AE
100
AcDbEntity
8
0
100
AcDbLine
62
7
6
CONTINUOUS
10
-42.9153309677
20
-4.6470612089
11
-42.9119357539
21
-4.6500000000
0
LINE
5
2AF
100
AcDbEntity
8
0
100
AcDbLine
62
7
6
CONTINUOUS
10
-42.3153309677
20
-4.6470612089
11
-42.3119357539
21
-4.6500000000
0
LINE
5
2B0
100
AcDbEntity
8
0
100
AcDbLine
62
7
6
CONTINUOUS
10
-41.7153309677
20
-4.6470612089
11
-41.7119357539
21
-4.6500000000
0
LINE
5
2B1
100
AcDbEntity
8
0
100
AcDbLine
62
7
6
CONTINUOUS
10
-41.1153309677
20
-4.6470612089
11
-41.1119357539
21
-4.6500000000
0
LINE
5
2B2
100
AcDbEntity
8
0
100
AcDbLine
62
7
6
CONTINUOUS
10
-42.5755020047
20
-4.1967470338
11
-42.3153309677
21
-4.6470612089
0
LINE
5
2B3
100
AcDbEntity
8
0
100
AcDbLine
62
7
6
CONTINUOUS
10
-41.9755020047
20
-4.1967470338
11
-41.7153309677
21
-4.6470612089
0
LINE
5
2B4
100
AcDbEntity
8
0
100
AcDbLine
62
7
6
CONTINUOUS
10
-46.4679847454
20
4.1967470339
11
-46.7281557822
21
4.6470612087
0
LINE
5
2B5
100
AcDbEntity
8
0
100
AcDbLine
62
7
6
CONTINUOUS
10
-41.3755020047
20
-4.1967470338
11
-41.1153309677
21
-4.6470612089
0
LINE
5
2B6
100
AcDbEntity
8
0
100
AcDbLine
62
7
6
CONTINUOUS
10
-45.8679847453
20
4.1967470339
11
-46.1281557822
21
4.6470612087
0
LINE
5
2B7
100
AcDbEntity
8
0
100
AcDbLine
62
7
6
CONTINUOUS
10
-47.0679847454
20
4.1967470339
11
-47.3239936061
21
4.6398566715
0
LINE
5
2B8
100
AcDbEntity
8
0
100
AcDbLine
62
7
6
CONTINUOUS
10
-40.9517433750
20
-6.3508529611
11
-40.9517433750
21
6.3508529611
0
LINE
5
2B9
100
AcDbEntity
8
0
100
AcDbLine
62
7
6
CONTINUOUS
10
-45.2281557822
20
-4.6470612087
11
-44.9717433761
21
-4.2032521501
0
LINE
5
2BA
100
AcDbEntity
8
0
100
AcDbLine
62
7
6
CONTINUOUS
10
-44.6281557822
20
-4.6470612087
11
-44.3717433761
21
-4.2032521501
0
LINE
5
2BB
100
AcDbEntity
8
0
100
AcDbLine
62
7
6
CONTINUOUS
10
-44.0281557822
20
-4.6470612087
11
-43.7717433761
21
-4.2032521501
0
LINE
5
2BC
100
AcDbEntity
8
0
100
AcDbLine
62
7
6
CONTINUOUS
10
-38.5517433750
20
-6.3508529611
11
-40.9517433750
21
-6.3508529611
0
LINE
5
2BD
100
AcDbEntity
8
0
100
AcDbLine
62
7
6
CONTINUOUS
10
-38.2620484327
20
-6.0000000000
11
-38.5517433750
21
-6.0000000000
0
LINE
5
2BE
100
AcDbEntity
8
0
100
AcDbLine
62
7
6
CONTINUOUS
10
-45.2679847454
20
4.1967470339
11
-45.5281557822
21
4.6470612087
0
LINE
5
2BF
100
AcDbEntity
8
0
100
AcDbLine
62
7
6
CONTINUOUS
10
-44.6679847454
20
4.1967470339
11
-44.9281557822
21
4.6470612087
0
LINE
5
2C0
100
AcDbEntity
8
0
100
AcDbLine
62
7
6
CONTINUOUS
10
-44.0679847454
20
4.1967470339
11
-44.3281557822
21
4.6470612087
0
LINE
5
2C1
100
AcDbEntity
8
0
100
AcDbLine
62
7
6
CONTINUOUS
10
-43.4679847453
20
4.1967470339
11
-43.7281557822
21
4.6470612087
0
LINE
5
2C2
100
AcDbEntity
8
0
100
AcDbLine
62
7
6
CONTINUOUS
10
-38.5517433750
20
-6.3508529611
11
-38.5517433750
21
6.3508529611
0
LINE
5
2C3
100
AcDbEntity
8
0
100
AcDbLine
62
7
6
CONTINUOUS
10
-43.4281557822
20
-4.6470612087
11
-43.1717433761
21
-4.2032521501
0
LINE
5
2C4
100
AcDbEntity
8
0
100
AcDbLine
62
7
6
CONTINUOUS
10
-42.8281557822
20
-4.6470612087
11
-42.5717433761
21
-4.2032521501
0
LINE
5
2C5
100
AcDbEntity
8
0
100
AcDbLine
62
7
6
CONTINUOUS
10
-42.2281557822
20
-4.6470612087
11
-41.9717433761
21
-4.2032521501
0
LINE
5
2C6
100
AcDbEntity
8
0
100
AcDbLine
62
7
6
CONTINUOUS
10
-41.6281557822
20
-4.6470612087
11
-41.3717433761
21
-4.2032521501
0
LINE
5
2C7
100
AcDbEntity
8
0
100
AcDbLine
62
7
6
CONTINUOUS
10
-27.8315509961
20
-4.6500000000
11
-27.9119357539
21
-4.6500000000
0
LINE
5
2C8
100
AcDbEntity
8
0
100
AcDbLine
62
7
6
CONTINUOUS
10
-28.4315509961
20
-4.6500000000
11
-28.5119357539
21
-4.6500000000
0
LINE
5
2C9
100
AcDbEntity
8
0
100
AcDbLine
62
7
6
CONTINUOUS
10
-41.0315509961
20
-4.6500000000
11
-41.1119357539
21
-4.6500000000
0
LINE
5
2CA
100
AcDbEntity
8
0
100
AcDbLine
62
7
6
CONTINUOUS
10
-41.6315509961
20
-4.6500000000
11
-41.7119357539
21
-4.6500000000
0
LINE
5
2CB
100
AcDbEntity
8
0
100
AcDbLine
62
7
6
CONTINUOUS
10
-42.2315509961
20
-4.6500000000
11
-42.3119357539
21
-4.6500000000
0
LINE
5
2CC
100
AcDbEntity
8
0
100
AcDbLine
62
7
6
CONTINUOUS
10
-42.8315509961
20
-4.6500000000
11
-42.9119357539
21
-4.6500000000
0
LINE
5
2CD
100
AcDbEntity
8
0
100
AcDbLine
62
7
6
CONTINUOUS
10
-43.4315509961
20
-4.6500000000
11
-43.5119357539
21
-4.6500000000
0
LINE
5
2CE
100
AcDbEntity
8
0
100
AcDbLine
62
7
6
CONTINUOUS
10
-44.0315509961
20
-4.6500000000
11
-44.1119357539
21
-4.6500000000
0
LINE
5
2CF
100
AcDbEntity
8
0
100
AcDbLine
62
7
6
CONTINUOUS
10
-44.6315509961
20
-4.6500000000
11
-44.7119357539
21
-4.6500000000
0
LINE
5
2D0
100
AcDbEntity
8
0
100
AcDbLine
62
7
6
CONTINUOUS
10
-45.2315509961
20
-4.6500000000
11
-45.3119357539
21
-4.6500000000
0
LINE
5
2D1
100
AcDbEntity
8
0
100
AcDbLine
62
7
6
CONTINUOUS
10
-45.8315509961
20
-4.6500000000
11
-45.9119357539
21
-4.6500000000
0
LINE
5
2D2
100
AcDbEntity
8
0
100
AcDbLine
62
7
6
CONTINUOUS
10
-46.4315509961
20
-4.6500000000
11
-46.5119357539
21
-4.6500000000
0
LINE
5
2D3
100
AcDbEntity
8
0
100
AcDbLine
62
7
6
CONTINUOUS
10
-47.0315509961
20
-4.6500000000
11
-47.1119357539
21
-4.6500000000
0
LINE
5
2D4
100
AcDbEntity
8
0
100
AcDbLine
62
7
6
CONTINUOUS
10
-46.7281557822
20
4.6470612087
11
-46.7315509961
21
4.6500000000
0
LINE
5
2D5
100
AcDbEntity
8
0
100
AcDbLine
62
7
6
CONTINUOUS
10
-46.1281557822
20
4.6470612087
11
-46.1315509961
21
4.6500000000
0
LINE
5
2D6
100
AcDbEntity
8
0
100
AcDbLine
62
7
6
CONTINUOUS
10
-45.5281557822
20
4.6470612087
11
-45.5315509961
21
4.6500000000
0
LINE
5
2D7
100
AcDbEntity
8
0
100
AcDbLine
62
7
6
CONTINUOUS
10
-42.8679847454
20
4.1967470339
11
-43.1281557822
21
4.6470612087
0
LINE
5
2D8
100
AcDbEntity
8
0
100
AcDbLine
62
7
6
CONTINUOUS
10
-42.2679847454
20
4.1967470339
11
-42.5281557822
21
4.6470612087
0
LINE
5
2D9
100
AcDbEntity
8
0
100
AcDbLine
62
7
6
CONTINUOUS
10
-41.6679847453
20
4.1967470339
11
-41.9281557822
21
4.6470612087
0
LINE
5
2DA
100
AcDbEntity
8
0
100
AcDbLine
62
7
6
CONTINUOUS
10
-41.0281557822
20
-4.6470612087
11
-40.9517433750
21
-4.5147971272
0
LINE
5
2DB
100
AcDbEntity
8
0
100
AcDbLine
62
7
6
CONTINUOUS
10
-48.0015439620
20
-4.2516161308
11
-47.9987602296
21
-4.2500109670
0
LINE
5
2DC
100
AcDbEntity
8
0
100
AcDbLine
62
7
6
CONTINUOUS
10
-47.5515439620
20
-4.5114237520
11
-47.5489202820
21
-4.5099106638
0
LINE
5
2DD
100
AcDbEntity
8
0
100
AcDbLine
62
7
6
CONTINUOUS
10
-38.5517433750
20
-3.1754264805
11
-40.9517433750
21
-3.1754264805
0
LINE
5
2DE
100
AcDbEntity
8
0
100
AcDbLine
62
7
6
CONTINUOUS
10
-47.7765439620
20
4.3815199414
11
-47.7738426211
21
4.3799621695
0
LINE
5
2DF
100
AcDbEntity
8
0
100
AcDbLine
62
7
6
CONTINUOUS
10
-47.3265430192
20
4.6413281065
11
-47.3239936061
21
4.6398566715
0
LINE
5
2E0
100
AcDbEntity
8
0
100
AcDbLine
62
7
6
CONTINUOUS
10
-44.9281557822
20
4.6470612087
11
-44.9315509961
21
4.6500000000
0
LINE
5
2E1
100
AcDbEntity
8
0
100
AcDbLine
62
7
6
CONTINUOUS
10
-44.3281557822
20
4.6470612087
11
-44.3315509961
21
4.6500000000
0
LINE
5
2E2
100
AcDbEntity
8
0
100
AcDbLine
62
7
6
CONTINUOUS
10
-43.7281557822
20
4.6470612087
11
-43.7315509961
21
4.6500000000
0
LINE
5
2E3
100
AcDbEntity
8
0
100
AcDbLine
62
7
6
CONTINUOUS
10
-43.1281557822
20
4.6470612087
11
-43.1315509961
21
4.6500000000
0
LINE
5
2E4
100
AcDbEntity
8
0
100
AcDbLine
62
7
6
CONTINUOUS
10
-42.5281557822
20
4.6470612087
11
-42.5315509961
21
4.6500000000
0
LINE
5
2E5
100
AcDbEntity
8
0
100
AcDbLine
62
7
6
CONTINUOUS
10
-41.0679847453
20
4.1967470339
11
-41.3281557822
21
4.6470612087
0
LINE
5
2E6
100
AcDbEntity
8
0
100
AcDbLine
62
7
6
CONTINUOUS
10
-41.9281557822
20
4.6470612087
11
-41.9315509961
21
4.6500000000
0
LINE
5
2E7
100
AcDbEntity
8
0
100
AcDbLine
62
7
6
CONTINUOUS
10
-41.3281557822
20
4.6470612087
11
-41.3315509961
21
4.6500000000
0
LINE
5
2E8
100
AcDbEntity
8
0
100
AcDbLine
62
7
6
CONTINUOUS
10
-27.6119359120
20
4.6500000000
11
-27.6153309677
21
4.6470612089
0
LINE
5
2E9
100
AcDbEntity
8
0
100
AcDbLine
62
7
6
CONTINUOUS
10
-28.5153309677
20
-4.6470612089
11
-28.5119357539
21
-4.6500000000
0
LINE
5
2EA
100
AcDbEntity
8
0
100
AcDbLine
62
7
6
CONTINUOUS
10
-27.9153309677
20
-4.6470612089
11
-27.9119357539
21
-4.6500000000
0
LINE
5
2EB
100
AcDbEntity
8
0
100
AcDbLine
62
7
6
CONTINUOUS
10
-28.2153309677
20
4.6470612089
11
-28.4717433761
21
4.2032521501
0
LINE
5
2EC
100
AcDbEntity
8
0
100
AcDbLine
62
7
6
CONTINUOUS
10
-27.6153309677
20
4.6470612089
11
-27.8717433761
21
4.2032521501
0
LINE
5
2ED
100
AcDbEntity
8
0
100
AcDbLine
62
7
6
CONTINUOUS
10
-38.5517433750
20
3.1754264805
11
-40.9517433750
21
3.1754264805
0
LINE
5
2EE
100
AcDbEntity
8
0
100
AcDbLine
62
7
6
CONTINUOUS
10
-28.7755020047
20
-4.1967470338
11
-28.5153309677
21
-4.6470612089
0
LINE
5
2EF
100
AcDbEntity
8
0
100
AcDbLine
62
7
6
CONTINUOUS
10
-28.1755020047
20
-4.1967470338
11
-27.9153309677
21
-4.6470612089
0
LINE
5
2F0
100
AcDbEntity
8
0
100
AcDbLine
62
7
6
CONTINUOUS
10
-27.5315509961
20
4.6500000000
11
-27.6119357539
21
4.6500000000
0
LINE
5
2F1
100
AcDbEntity
8
0
100
AcDbLine
62
7
6
CONTINUOUS
10
-28.1315509961
20
4.6500000000
11
-28.2119357539
21
4.6500000000
0
LINE
5
2F2
100
AcDbEntity
8
0
100
AcDbLine
62
7
6
CONTINUOUS
10
-28.7315509961
20
4.6500000000
11
-28.8017433750
21
4.6500000000
0
LINE
5
2F3
100
AcDbEntity
8
0
100
AcDbLine
62
7
6
CONTINUOUS
10
-41.3315509961
20
4.6500000000
11
-41.4119357539
21
4.6500000000
0
LINE
5
2F4
100
AcDbEntity
8
0
100
AcDbLine
62
7
6
CONTINUOUS
10
-41.9315509961
20
4.6500000000
11
-42.0119357539
21
4.6500000000
0
LINE
5
2F5
100
AcDbEntity
8
0
100
AcDbLine
62
7
6
CONTINUOUS
10
-42.5315509961
20
4.6500000000
11
-42.6119357539
21
4.6500000000
0
LINE
5
2F6
100
AcDbEntity
8
0
100
AcDbLine
62
7
6
CONTINUOUS
10
-43.1315509961
20
4.6500000000
11
-43.2119357539
21
4.6500000000
0
LINE
5
2F7
100
AcDbEntity
8
0
100
AcDbLine
62
7
6
CONTINUOUS
10
-43.7315509961
20
4.6500000000
11
-43.8119357539
21
4.6500000000
0
LINE
5
2F8
100
AcDbEntity
8
0
100
AcDbLine
62
7
6
CONTINUOUS
10
-44.3315509961
20
4.6500000000
11
-44.4119357539
21
4.6500000000
0
LINE
5
2F9
100
AcDbEntity
8
0
100
AcDbLine
62
7
6
CONTINUOUS
10
-44.9315509961
20
4.6500000000
11
-45.0119357539
21
4.6500000000
0
LINE
5
2FA
100
AcDbEntity
8
0
100
AcDbLine
62
7
6
CONTINUOUS
10
-45.5315509961
20
4.6500000000
11
-45.6119357539
21
4.6500000000
0
LINE
5
2FB
100
AcDbEntity
8
0
100
AcDbLine
62
7
6
CONTINUOUS
10
-46.1315509961
20
4.6500000000
11
-46.2119357539
21
4.6500000000
0
LINE
5
2FC
100
AcDbEntity
8
0
100
AcDbLine
62
7
6
CONTINUOUS
10
-46.7315509961
20
4.6500000000
11
-46.8119357539
21
4.6500000000
0
LINE
5
2FD
100
AcDbEntity
8
0
100
AcDbLine
62
7
6
CONTINUOUS
10
-27.5755020047
20
-4.1967470338
11
-27.5017433750
21
-4.3244046940
0
LINE
5
2FE
100
AcDbEntity
8
0
100
AcDbLine
62
7
6
CONTINUOUS
10
-28.8017433750
20
22.6631666220
11
-28.8017433750
21
-23.5000000000
0
LINE
5
2FF
100
AcDbEntity
8
0
100
AcDbLine
62
7
6
CONTINUOUS
10
-28.8017433750
20
22.7738536449
11
-28.8017433750
21
23.5000000000
0
LINE
5
300
100
AcDbEntity
8
0
100
AcDbLine
62
7
6
CONTINUOUS
10
-27.5017433750
20
-4.3245696117
11
-27.5017433750
21
4.6011744462
0
LINE
5
301
100
AcDbEntity
8
0
100
AcDbLine
62
7
6
CONTINUOUS
10
-28.8017433750
20
-4.2551741314
11
-28.7717433761
21
-4.2032521501
0
LINE
5
302
100
AcDbEntity
8
0
100
AcDbLine
62
7
6
CONTINUOUS
10
-38.2620484327
20
6.0000000000
11
-38.5517433750
21
6.0000000000
0
LINE
5
303
100
AcDbEntity
8
0
100
AcDbLine
62
7
6
CONTINUOUS
10
-38.5517433750
20
6.3508529611
11
-40.9517433750
21
6.3508529611
0
LINE
5
304
100
AcDbEntity
8
0
100
AcDbLine
62
7
6
CONTINUOUS
10
-28.7281557822
20
4.6470612087
11
-28.7315509961
21
4.6500000000
0
LINE
5
305
100
AcDbEntity
8
0
100
AcDbLine
62
7
6
CONTINUOUS
10
-28.4679847454
20
4.1967470339
11
-28.7281557822
21
4.6470612087
0
LINE
5
306
100
AcDbEntity
8
0
100
AcDbLine
62
7
6
CONTINUOUS
10
-28.4281557822
20
-4.6470612087
11
-28.1717433761
21
-4.2032521501
0
LINE
5
307
100
AcDbEntity
8
0
100
AcDbLine
62
7
6
CONTINUOUS
10
-27.8281557822
20
-4.6470612087
11
-27.5717433761
21
-4.2032521501
0
LINE
5
308
100
AcDbEntity
8
0
100
AcDbLine
62
7
6
CONTINUOUS
10
-27.8315509961
20
-4.6500000000
11
-27.8281557822
21
-4.6470612087
0
LINE
5
309
100
AcDbEntity
8
0
100
AcDbLine
62
7
6
CONTINUOUS
10
-28.1281557822
20
4.6470612087
11
-28.1315509961
21
4.6500000000
0
LINE
5
30A
100
AcDbEntity
8
0
100
AcDbLine
62
7
6
CONTINUOUS
10
-27.5315509513
20
4.6500000000
11
-27.5281557822
21
4.6470612087
0
LINE
5
30B
100
AcDbEntity
8
0
100
AcDbLine
62
7
6
CONTINUOUS
10
-27.8679847454
20
4.1967470339
11
-28.1281557822
21
4.6470612087
0
LINE
5
30C
100
AcDbEntity
8
0
100
AcDbLine
62
7
6
CONTINUOUS
10
-27.5017433750
20
4.6013427766
11
-27.5281557822
21
4.6470612087
0
LINE
5
30D
100
AcDbEntity
8
0
100
AcDbLine
62
9
6
CONTINUOUS
10
-24.9982528898
20
-7.4656309785
11
-24.9982528898
21
-12.5343690215
0
LINE
5
30E
100
AcDbEntity
8
0
100
AcDbLine
62
7
6
CONTINUOUS
10
-24.8017433750
20
23.4301797403
11
-24.8017433750
21
21.2000000000
0
LINE
5
30F
100
AcDbEntity
8
0
100
AcDbLine
62
7
6
CONTINUOUS
10
-24.8017433750
20
-7.6657055688
11
-24.8017433750
21
-12.3342944311
0
LINE
5
310
100
AcDbEntity
8
0
100
AcDbLine
62
7
6
CONTINUOUS
10
-24.8017433750
20
-21.2000000000
11
-24.8017433750
21
-23.4301797403
0
LINE
5
311
100
AcDbEntity
8
0
100
AcDbLine
62
7
6
CONTINUOUS
10
-23.2017433750
20
-21.2000000000
11
-23.2017433750
21
-22.2000000000
0
LINE
5
312
100
AcDbEntity
8
0
100
AcDbLine
62
7
6
CONTINUOUS
10
-23.2017433750
20
21.2000000000
11
-23.2017433750
21
22.2000000000
0
LINE
5
313
100
AcDbEntity
8
0
100
AcDbLine
62
9
6
CONTINUOUS
10
-19.9982528937
20
20.1171572875
11
-19.9982528937
21
19.0000000000
0
LINE
5
314
100
AcDbEntity
8
0
100
AcDbLine
62
9
6
CONTINUOUS
10
-19.9982528937
20
-20.1171572875
11
-19.9982528937
21
-19.0000000000
0
LINE
5
315
100
AcDbEntity
8
0
100
AcDbLine
62
7
6
CONTINUOUS
10
-19.8017433750
20
20.1171572875
11
-19.8017433750
21
19.0000000000
0
LINE
5
316
100
AcDbEntity
8
0
100
AcDbLine
62
7
6
CONTINUOUS
10
-19.8017433750
20
-20.1171572875
11
-19.8017433750
21
-19.0000000000
0
LINE
5
317
100
AcDbEntity
8
0
100
AcDbLine
62
7
6
CONTINUOUS
10
-28.8017433750
20
17.3564064606
11
-24.5337941826
21
18.5000000000
0
LINE
5
318
100
AcDbEntity
8
0
100
AcDbLine
62
9
6
CONTINUOUS
10
-28.8017433750
20
17.5625264250
11
-24.5566342008
21
18.7000000000
0
LINE
5
319
100
AcDbEntity
8
0
100
AcDbLine
62
7
6
CONTINUOUS
10
-20.3017433750
20
18.5000000000
11
-24.5337941826
21
18.5000000000
0
LINE
5
31A
100
AcDbEntity
8
0
100
AcDbLine
62
9
6
CONTINUOUS
10
-20.2982528937
20
18.7000000000
11
-24.5566342008
21
18.7000000000
0
LINE
5
31B
100
AcDbEntity
8
0
100
AcDbLine
62
9
6
CONTINUOUS
10
-19.8017433750
20
19.0000000000
11
-19.9982528937
21
19.0000000000
0
LINE
5
31C
100
AcDbEntity
8
0
100
AcDbLine
62
9
6
CONTINUOUS
10
-19.8017433750
20
20.1171572875
11
-19.9982528937
21
20.1171572875
0
LINE
5
31D
100
AcDbEntity
8
0
100
AcDbLine
62
9
6
CONTINUOUS
10
-28.8017433750
20
21.8997711479
11
-36.8955566200
21
21.4755923698
0
LINE
5
31E
100
AcDbEntity
8
0
100
AcDbLine
62
7
6
CONTINUOUS
10
-28.8017433750
20
22.4000000000
11
-36.9129983995
21
21.9749071370
0
LINE
5
31F
100
AcDbEntity
8
0
100
AcDbLine
62
7
6
CONTINUOUS
10
-24.8017433750
20
21.2000000000
11
-20.8017433750
21
21.2000000000
0
LINE
5
320
100
AcDbEntity
8
0
100
AcDbLine
62
7
6
CONTINUOUS
10
-23.2017433750
20
22.2000000000
11
-22.7017433750
21
22.2000000000
0
LINE
5
321
100
AcDbEntity
8
0
100
AcDbLine
62
7
6
CONTINUOUS
10
-20.7177585137
20
20.8366629075
11
-28.8017433750
21
20.9000000000
0
LINE
5
322
100
AcDbEntity
8
0
100
AcDbLine
62
7
6
CONTINUOUS
10
-24.8017433750
20
21.2000000000
11
-20.7665285891
21
21.1647852141
0
LINE
5
323
100
AcDbEntity
8
0
100
AcDbLine
62
9
6
CONTINUOUS
10
-37.3689466770
20
20.9972959167
11
-37.8597784908
21
21.0183142302
0
LINE
5
324
100
AcDbEntity
8
0
100
AcDbLine
62
7
6
CONTINUOUS
10
-28.8017433750
20
23.5000000000
11
-24.8017433750
21
23.4301797403
0
LINE
5
325
100
AcDbEntity
8
0
100
AcDbLine
62
9
6
CONTINUOUS
10
-20.7177585137
20
-20.8366629075
11
-19.9982528937
21
-20.1171572875
0
LINE
5
326
100
AcDbEntity
8
0
100
AcDbLine
62
7
6
CONTINUOUS
10
-19.8603220188
20
-20.2585786438
11
-20.8017433750
21
-21.2000000000
0
LINE
5
327
100
AcDbEntity
8
0
100
AcDbLine
62
7
6
CONTINUOUS
10
-20.8017433750
20
-21.2000000000
11
-22.7017433750
21
-22.2000000000
0
LINE
5
328
100
AcDbEntity
8
0
100
AcDbLine
62
7
6
CONTINUOUS
10
-22.7017433750
20
22.2000000000
11
-20.8017433750
21
21.2000000000
0
LINE
5
329
100
AcDbEntity
8
0
100
AcDbLine
62
9
6
CONTINUOUS
10
-20.7177585137
20
20.8366629075
11
-19.9982528937
21
20.1171572875
0
LINE
5
32A
100
AcDbEntity
8
0
100
AcDbLine
62
7
6
CONTINUOUS
10
-20.8017433750
20
21.2000000000
11
-19.8603220188
21
20.2585786438
0
CIRCLE
5
32B
100
AcDbEntity
8
0
100
AcDbCircle
62
7
6
CONTINUOUS
10
0.0000000000
20
-0.0000000000
40
4.6500000000
0
ARC
5
32C
100
AcDbEntity
8
0
100
AcDbCircle
62
7
6
CONTINUOUS
10
0.0000000000
20
0.0000000000
40
6.0000000000
100
AcDbArc
50
156.4435356909
51
203.5564643091
0
ARC
5
32D
100
AcDbEntity
8
0
100
AcDbCircle
62
7
6
CONTINUOUS
10
0.0000000000
20
0.0000000000
40
6.0000000000
100
AcDbArc
50
216.4435356909
51
263.5564643091
0
ARC
5
32E
100
AcDbEntity
8
0
100
AcDbCircle
62
7
6
CONTINUOUS
10
0.0000000000
20
0.0000000000
40
6.0000000000
100
AcDbArc
50
276.4435356909
51
323.5564643091
0
ARC
5
32F
100
AcDbEntity
8
0
100
AcDbCircle
62
7
6
CONTINUOUS
10
0.0000000000
20
0.0000000000
40
6.0000000000
100
AcDbArc
50
336.4435356909
51
23.5564643091
0
ARC
5
330
100
AcDbEntity
8
0
100
AcDbCircle
62
7
6
CONTINUOUS
10
0.0000000000
20
0.0000000000
40
6.0000000000
100
AcDbArc
50
36.4435356909
51
83.5564643091
0
ARC
5
331
100
AcDbEntity
8
0
100
AcDbCircle
62
7
6
CONTINUOUS
10
0.0000000000
20
0.0000000000
40
6.0000000000
100
AcDbArc
50
96.4435356909
51
143.5564643091
0
CIRCLE
5
332
100
AcDbEntity
8
0
100
AcDbCircle
62
7
6
CONTINUOUS
10
0.0000000000
20
0.0000000000
40
3.3854755959
0
ARC
5
333
100
AcDbEntity
8
0
100
AcDbCircle
62
7
6
CONTINUOUS
10
-4.9500000000
20
-23.1000000000
40
0.5000000000
100
AcDbArc
50
350.8037184210
51
119.1124227760
0
ARC
5
334
100
AcDbEntity
8
0
100
AcDbCircle
62
7
6
CONTINUOUS
10
-4.9500000000
20
23.1000000000
40
0.5000000000
100
AcDbArc
50
240.8875772240
51
9.1962815790
0
ARC
5
335
100
AcDbEntity
8
0
100
AcDbCircle
62
7
6
CONTINUOUS
10
4.9500000000
20
-23.1000000000
40
0.5000000000
100
AcDbArc
50
60.8875772240
51
189.1962815790
0
ARC
5
336
100
AcDbEntity
8
0
100
AcDbCircle
62
7
6
CONTINUOUS
10
4.9500000000
20
23.1000000000
40
0.5000000000
100
AcDbArc
50
170.8037184210
51
299.1124227760
0
ARC
5
337
100
AcDbEntity
8
0
100
AcDbCircle
62
7
6
CONTINUOUS
10
11.2500000000
20
0.0000000000
40
28.0000000000
100
AcDbArc
50
235.8789063483
51
237.0647695028
0
ARC
5
338
100
AcDbEntity
8
0
100
AcDbCircle
62
7
6
CONTINUOUS
10
11.2500000000
20
0.0000000000
40
28.0000000000
100
AcDbArc
50
233.1301023542
51
234.0372348486
0
ARC
5
339
100
AcDbEntity
8
0
100
AcDbCircle
62
7
6
CONTINUOUS
10
11.2500000000
20
0.0000000000
40
28.0000000000
100
AcDbArc
50
125.9627651514
51
126.8698976458
0
ARC
5
33A
100
AcDbEntity
8
0
100
AcDbCircle
62
7
6
CONTINUOUS
10
11.2500000000
20
0.0000000000
40
28.0000000000
100
AcDbArc
50
122.9352304972
51
124.1210936517
0
ARC
5
33B
100
AcDbEntity
8
0
100
AcDbCircle
62
7
6
CONTINUOUS
10
-11.2500000000
20
0.0000000000
40
28.0000000000
100
AcDbArc
50
305.9627651514
51
306.8698976458
0
ARC
5
33C
100
AcDbEntity
8
0
100
AcDbCircle
62
7
6
CONTINUOUS
10
-11.2500000000
20
0.0000000000
40
28.0000000000
100
AcDbArc
50
302.9352304972
51
304.1210936517
0
ARC
5
33D
100
AcDbEntity
8
0
100
AcDbCircle
62
7
6
CONTINUOUS
10
-11.2500000000
20
0.0000000000
40
28.0000000000
100
AcDbArc
50
55.8789063483
51
57.0647695028
0
ARC
5
33E
100
AcDbEntity
8
0
100
AcDbCircle
62
7
6
CONTINUOUS
10
-11.2500000000
20
0.0000000000
40
28.0000000000
100
AcDbArc
50
53.1301023542
51
54.0372348486
0
ARC
5
33F
100
AcDbEntity
8
0
100
AcDbCircle
62
7
6
CONTINUOUS
10
-25.0017433750
20
-7.6656005175
40
0.2000000000
100
AcDbArc
50
0.0000000000
51
88.9999987214
0
ARC
5
340
100
AcDbEntity
8
0
100
AcDbCircle
62
7
6
CONTINUOUS
10
-25.0017433750
20
-12.3343994825
40
0.2000000000
100
AcDbArc
50
271.0000012791
51
360.0000000000
0
ARC
5
341
100
AcDbEntity
8
0
100
AcDbCircle
62
7
6
CONTINUOUS
10
-36.8606624387
20
20.9762776025
40
1.0000000000
100
AcDbArc
50
93.0000000000
51
177.5907686986
0
ARC
5
342
100
AcDbEntity
8
0
100
AcDbCircle
62
7
6
CONTINUOUS
10
461.6982566250
20
0.0000000000
40
500.0000000000
100
AcDbArc
50
177.5907686986
51
182.4092313014
0
ARC
5
343
100
AcDbEntity
8
0
100
AcDbCircle
62
7
6
CONTINUOUS
10
-36.8606624387
20
-20.9762776025
40
1.0000000000
100
AcDbArc
50
182.4092313014
51
267.0000000000
0
ARC
5
344
100
AcDbEntity
8
0
100
AcDbCircle
62
7
6
CONTINUOUS
10
-20.3017433750
20
19.0000000000
40
0.5000000000
100
AcDbArc
50
270.0000000000
51
360.0000000000
0
ARC
5
345
100
AcDbEntity
8
0
100
AcDbCircle
62
7
6
CONTINUOUS
10
-20.3017433750
20
-19.0000000000
40
0.5000000000
100
AcDbArc
50
0.0000000000
51
90.0000000000
0
ARC
5
346
100
AcDbEntity
8
0
100
AcDbCircle
62
7
6
CONTINUOUS
10
-20.0017433750
20
-20.1171572875
40
0.2000000000
100
AcDbArc
50
315.0000000000
51
360.0000000000
0
ARC
5
347
100
AcDbEntity
8
0
100
AcDbCircle
62
7
6
CONTINUOUS
10
-20.0017433750
20
20.1171572875
40
0.2000000000
100
AcDbArc
50
0.0000000000
51
45.0000000000
0
SPLINE
5
348
100
AcDbEntity
8
0
100
AcDbSpline
62
7
6
CONTINUOUS
70
0
71
3
72
26
73
22
74
20
42
0.0000001000
43
0.0000001000
44
0.0000000001
12
13.9530729504
22
0.1316791730
32
0.0000000000
13
-13.9531082149
23
-0.1278878714
33
0.0000000000
40
0.0000000000
40
0.0000000000
40
0.0000000000
40
0.0000000000
40
0.0518956670
40
0.1039508046
40
0.1557689811
40
0.2076896319
40
0.2603025520
40
0.3134647219
40
0.3664358867
40
0.4187086001
40
0.4712202842
40
0.5236122246
40
0.5759551715
40
0.6284641953
40
0.6818327528
40
0.7354833084
40
0.7886725745
40
0.8414093368
40
0.8944232172
40
0.9471879011
40
1.0000000000
40
1.0000000000
40
1.0000000000
40
1.0000000000
10
0.0000000000
20
4.3815199414
30
0.0000000000
10
0.2413680094
20
4.3837978009
30
0.0000000000
10
0.7261714048
20
4.3482336870
30
0.0000000000
10
1.4332028229
20
4.1760996984
30
0.0000000000
10
2.1026012333
20
3.8900651961
30
0.0000000000
10
2.7182236389
20
3.4968096558
30
0.0000000000
10
3.2653297450
20
3.0031783807
30
0.0000000000
10
3.7256615295
20
2.4214209810
30
0.0000000000
10
4.0816909730
20
1.7724349879
30
0.0000000000
10
4.3245767494
20
1.0765298065
30
0.0000000000
10
4.4494203687
20
0.3528154832
30
0.0000000000
10
4.4537575136
20
-0.3818700393
30
0.0000000000
10
4.3378034660
20
-1.1073336829
30
0.0000000000
10
4.1032851843
20
-1.8083864528
30
0.0000000000
10
3.7534334472
20
-2.4666535494
30
0.0000000000
10
3.2969420534
20
-3.0600453706
30
0.0000000000
10
2.7505401488
20
-3.5674153141
30
0.0000000000
10
2.1307864301
20
-3.9764704836
30
0.0000000000
10
1.4541416785
20
-4.2777380080
30
0.0000000000
10
0.7372527962
20
-4.4643765016
30
0.0000000000
10
0.2456309772
20
-4.5091724097
30
0.0000000000
10
0.0000000000
20
-4.5114237520
30
0.0000000000
11
0.0000000000
21
4.3815199414
31
0.0000000000
11
0.7221942748
21
4.3285221050
31
0.0000000000
11
1.4279579299
21
4.1567703764
31
0.0000000000
11
2.0928617483
21
3.8726727944
31
0.0000000000
11
2.7034278386
21
3.4826889461
31
0.0000000000
11
3.2485183178
21
2.9909118967
31
0.0000000000
11
3.7088474531
21
2.4092099243
31
0.0000000000
11
4.0643861255
21
1.7611935075
31
0.0000000000
11
4.3047726854
21
1.0725463121
31
0.0000000000
11
4.4293619281
21
0.3504842064
31
0.0000000000
11
4.4337096521
21
-0.3805639852
31
0.0000000000
11
4.3184640614
21
-1.1017919071
31
0.0000000000
11
4.0860485595
21
-1.7966478624
31
0.0000000000
11
3.7365846209
21
-2.4542465018
31
0.0000000000
11
3.2801442763
21
-3.0476260470
31
0.0000000000
11
2.7362983825
21
-3.5526733989
31
0.0000000000
11
2.1221535260
21
-3.9580555219
31
0.0000000000
11
1.4463895504
21
-4.2589833305
31
0.0000000000
11
0.7338765006
21
-4.4444753276
31
0.0000000000
11
0.0000000000
21
-4.5114237520
31
0.0000000000
0
SPLINE
5
349
100
AcDbEntity
8
0
100
AcDbSpline
62
7
6
CONTINUOUS
70
0
71
3
72
26
73
22
74
20
42
0.0000001000
43
0.0000001000
44
0.0000000001
12
-13.5454313746
22
-0.1317379231
32
0.0000000000
13
13.5454687944
23
0.1278324950
33
0.0000000000
40
0.0000000000
40
0.0000000000
40
0.0000000000
40
0.0000000000
40
0.0520802062
40
0.1048360732
40
0.1575193334
40
0.2095129149
40
0.2615601404
40
0.3135713186
40
0.3655797839
40
0.4176636198
40
0.4705535942
40
0.5238529634
40
0.5768329678
40
0.6291832505
40
0.6817813084
40
0.7341909031
40
0.7867136540
40
0.8394662760
40
0.8930508734
40
0.9468124230
40
1.0000000000
40
1.0000000000
40
1.0000000000
40
1.0000000000
10
0.0000000000
20
-4.2516161308
30
0.0000000000
10
-0.2351496195
20
-4.2539031102
30
0.0000000000
10
-0.7098130092
20
-4.2190630635
30
0.0000000000
10
-1.4037345718
20
-4.0490031441
30
0.0000000000
10
-2.0593740866
20
-3.7656829198
30
0.0000000000
10
-2.6562847290
20
-3.3796467177
30
0.0000000000
10
-3.1795108990
20
-2.9029265483
30
0.0000000000
10
-3.6175571581
20
-2.3468612869
30
0.0000000000
10
-3.9588228813
20
-1.7264940365
30
0.0000000000
10
-4.1954370891
20
-1.0549443329
30
0.0000000000
10
-4.3193542810
20
-0.3477478682
30
0.0000000000
10
-4.3240530854
20
0.3743142884
30
0.0000000000
10
-4.2091831498
20
1.0846643017
30
0.0000000000
10
-3.9802033982
20
1.7633745255
30
0.0000000000
10
-3.6445541226
20
2.3932718703
30
0.0000000000
10
-3.2100936826
20
2.9604835306
30
0.0000000000
10
-2.6884963643
20
3.4498106557
30
0.0000000000
10
-2.0896038164
20
3.8504129314
30
0.0000000000
10
-1.4276716593
20
4.1493305457
30
0.0000000000
10
-0.7236052190
20
4.3348050654
30
0.0000000000
10
-0.2401502214
20
4.3792535745
30
0.0000000000
10
0.0000000000
20
4.3815199414
30
0.0000000000
11
0.0000000000
21
-4.2516161308
31
0.0000000000
11
-0.7035880569
21
-4.1999536618
31
0.0000000000
11
-1.3976998156
21
-4.0299191850
31
0.0000000000
11
-2.0528096167
21
-3.7468481087
31
0.0000000000
11
-2.6442378155
21
-3.3644039066
31
0.0000000000
11
-3.1654150608
21
-2.8895889083
31
0.0000000000
11
-3.6014243709
21
-2.3361608768
31
0.0000000000
11
-3.9410170449
21
-1.7188993921
31
0.0000000000
11
-4.1755038162
21
-1.0534743435
31
0.0000000000
11
-4.2991866069
21
-0.3477795255
31
0.0000000000
11
-4.3039173612
21
0.3742020674
31
0.0000000000
11
-4.1893868896
21
1.0826753328
31
0.0000000000
11
-3.9627237328
21
1.7546160618
31
0.0000000000
11
-3.6276879425
21
2.3834269269
31
0.0000000000
11
-3.1960113429
21
2.9470544633
31
0.0000000000
11
-2.6771479721
21
3.4338606589
31
0.0000000000
11
-2.0831991766
21
3.8311827713
31
0.0000000000
11
-1.4216824952
21
4.1299629581
31
0.0000000000
11
-0.7174493825
21
4.3154762369
31
0.0000000000
11
0.0000000000
21
4.3815199414
31
0.0000000000
0
SPLINE
5
34A
100
AcDbEntity
8
0
100
AcDbSpline
62
7
6
CONTINUOUS
70
0
71
3
72
15
73
11
74
9
42
0.0000001000
43
0.0000001000
44
0.0000000001
12
-1.6210126959
22
-5.0144057616
32
0.0000000000
13
-5.2696603930
23
-0.0512507942
33
0.0000000000
40
0.0000000000
40
0.0000000000
40
0.0000000000
40
0.0000000000
40
0.1246585475
40
0.2508190186
40
0.3770630550
40
0.5021527017
40
0.6263140694
40
0.7509381464
40
0.8753352259
40
1.0000000000
40
1.0000000000
40
1.0000000000
40
1.0000000000
10
3.9834570363
20
-1.3311912109
30
0.0000000000
10
3.9160993402
20
-1.5395540572
30
0.0000000000
10
3.7474142633
20
-1.9488799064
30
0.0000000000
10
3.4007972234
20
-2.5164066964
30
0.0000000000
10
2.9686224044
20
-3.0230348496
30
0.0000000000
10
2.4652394308
20
-3.4534262012
30
0.0000000000
10
1.9037331268
20
-3.7991090966
30
0.0000000000
10
1.2966460607
20
-4.0534650048
30
0.0000000000
10
0.6568981749
20
-4.2112857891
30
0.0000000000
10
0.2189803408
20
-4.2494864079
30
0.0000000000
10
0.0000000000
20
-4.2516161308
30
0.0000000000
11
3.9834570363
21
-1.3311912109
31
0.0000000000
11
3.7331387032
21
-1.9385707846
31
0.0000000000
11
3.3866480509
21
-2.5059995818
31
0.0000000000
11
2.9548889799
21
-3.0121626887
31
0.0000000000
11
2.4538707936
21
-3.4405784826
31
0.0000000000
11
1.8966868663
21
-3.7836231829
31
0.0000000000
11
1.2909623181
21
-4.0374505745
31
0.0000000000
11
0.6544812671
21
-4.1944619595
31
0.0000000000
11
0.0000000000
21
-4.2516161308
31
0.0000000000
0
SPLINE
5
34B
100
AcDbEntity
8
0
100
AcDbSpline
62
7
6
CONTINUOUS
70
0
71
3
72
27
73
23
74
21
42
0.0000001000
43
0.0000001000
44
0.0000000001
12
-14.5975010414
22
-0.1337940842
32
0.0000000000
13
14.6046356914
23
-0.6131474497
33
0.0000000000
40
0.0000000000
40
0.0000000000
40
0.0000000000
40
0.0000000000
40
0.0494875950
40
0.0990310173
40
0.1486278258
40
0.1982766810
40
0.2479797604
40
0.2977369168
40
0.3475474516
40
0.3974121362
40
0.4473321286
40
0.4973066868
40
0.5473346987
40
0.5974157145
40
0.6475506280
40
0.6977394053
40
0.7479817787
40
0.7982780747
40
0.8486289177
40
0.8990344464
40
0.9494937835
40
1.0000000000
40
1.0000000000
40
1.0000000000
40
1.0000000000
10
0.0000000000
20
-4.5114237520
30
0.0000000000
10
-0.2407984065
20
-4.5136308011
30
0.0000000000
10
-0.7239097935
20
-4.4793072155
30
0.0000000000
10
-1.4307661811
20
-4.3129024698
30
0.0000000000
10
-2.1029695673
20
-4.0356138825
30
0.0000000000
10
-2.7230047259
20
-3.6543444887
30
0.0000000000
10
-3.2749917230
20
-3.1786607480
30
0.0000000000
10
-3.7446901307
20
-2.6205452879
30
0.0000000000
10
-4.1199629412
20
-1.9941029773
30
0.0000000000
10
-4.3910664987
20
-1.3151907415
30
0.0000000000
10
-4.5508996121
20
-0.6010185826
30
0.0000000000
10
-4.5951840902
20
0.1302768555
30
0.0000000000
10
-4.5225838357
20
0.8600943200
30
0.0000000000
10
-4.3347404101
20
1.5698588724
30
0.0000000000
10
-4.0362257594
20
2.2414918052
30
0.0000000000
10
-3.6344260384
20
2.8578643645
30
0.0000000000
10
-3.1393579144
20
3.4032299711
30
0.0000000000
10
-2.5634136246
20
3.8636291089
30
0.0000000000
10
-1.9210397291
20
4.2272390197
30
0.0000000000
10
-1.2284071765
20
4.4846751888
30
0.0000000000
10
-0.5029336099
20
4.6292078881
30
0.0000000000
10
-0.0100020744
20
4.6477567943
30
0.0000000000
10
0.2358728896
20
4.6374342083
30
0.0000000000
11
0.0000000000
21
-4.5114237520
31
0.0000000000
11
-0.7206079742
21
-4.4602100792
31
0.0000000000
11
-1.4246184363
21
-4.2945413118
31
0.0000000000
11
-2.0939334947
21
-4.0184577547
31
0.0000000000
11
-2.7113451237
21
-3.6388415902
31
0.0000000000
11
-3.2609994690
21
-3.1652027965
31
0.0000000000
11
-3.7287253283
21
-2.6094759625
31
0.0000000000
11
-4.1024257767
21
-1.9857128892
31
0.0000000000
11
-4.3724024560
21
-1.3096986881
31
0.0000000000
11
-4.5315856576
21
-0.5985591695
31
0.0000000000
11
-4.5757107558
21
0.1296394853
31
0.0000000000
11
-4.5034457888
21
0.8563699944
31
0.0000000000
11
-4.3164257723
21
1.5631328567
31
0.0000000000
11
-4.0191994530
21
2.2319361242
31
0.0000000000
11
-3.6191208960
21
2.8457194925
31
0.0000000000
11
-3.1261659674
21
3.3887990423
31
0.0000000000
11
-2.5526718526
21
3.8472745234
31
0.0000000000
11
-1.9130247983
21
4.2093751423
31
0.0000000000
11
-1.2233070714
21
4.4657515548
31
0.0000000000
11
-0.5009014666
21
4.6097173472
31
0.0000000000
11
0.2358728896
21
4.6374342083
31
0.0000000000
0
SPLINE
5
34C
100
AcDbEntity
8
0
100
AcDbSpline
62
7
6
CONTINUOUS
70
0
71
3
72
8
73
4
74
2
42
0.0000001000
43
0.0000001000
44
0.0000000001
12
0.7380151747
22
-0.0309841431
32
0.0000000000
13
0.7228573703
23
-0.1471641979
33
0.0000000000
40
0.0000000000
40
0.0000000000
40
0.0000000000
40
0.0000000000
40
1.0000000000
40
1.0000000000
40
1.0000000000
40
1.0000000000
10
0.2358728896
20
4.6374342083
30
0.0000000000
10
0.4818779479
20
4.6271061606
30
0.0000000000
10
0.7271770191
20
4.5971560198
30
0.0000000000
10
0.9681294759
20
4.5481012871
30
0.0000000000
11
0.2358728896
21
4.6374342083
31
0.0000000000
11
0.9681294759
21
4.5481012871
31
0.0000000000
0
SPLINE
5
34D
100
AcDbEntity
8
0
100
AcDbSpline
62
7
6
CONTINUOUS
70
0
71
3
72
15
73
11
74
9
42
0.0000001000
43
0.0000001000
44
0.0000000001
12
5.3018614844
22
0.1018909482
32
0.0000000000
13
1.5813990614
23
5.0615505503
33
0.0000000000
40
0.0000000000
40
0.0000000000
40
0.0000000000
40
0.0000000000
40
0.1251581945
40
0.2499129891
40
0.3747530481
40
0.4989908225
40
0.6240158700
40
0.7500531860
40
0.8758571836
40
1.0000000000
40
1.0000000000
40
1.0000000000
40
1.0000000000
10
0.0000000000
20
-4.3032322616
30
0.0000000000
10
0.2211904703
20
-4.2989814326
30
0.0000000000
10
0.6629661960
20
-4.2562765363
30
0.0000000000
10
1.3070502331
20
-4.0910667542
30
0.0000000000
10
1.9166202432
20
-3.8290835457
30
0.0000000000
10
2.4787743960
20
-3.4758742166
30
0.0000000000
10
2.9810447310
20
-3.0383848479
30
0.0000000000
10
3.4104536307
20
-2.5254238182
30
0.0000000000
10
3.7528423154
20
-1.9527162776
30
0.0000000000
10
3.9180172585
20
-1.5406429244
30
0.0000000000
10
3.9834570363
20
-1.3311912109
30
0.0000000000
11
0.0000000000
21
-4.3032322616
31
0.0000000000
11
0.6606061571
21
-4.2392858120
31
0.0000000000
11
1.3014105430
21
-4.0748946440
31
0.0000000000
11
1.9095980324
21
-3.8134350206
31
0.0000000000
11
2.4674140044
21
-3.4628982345
31
0.0000000000
11
2.9673065819
21
-3.0273981299
31
0.0000000000
11
3.3962891598
21
-2.5148814034
31
0.0000000000
11
3.7385373174
21
-1.9422442321
31
0.0000000000
11
3.9834570363
21
-1.3311912109
31
0.0000000000
0
SPLINE
5
34E
100
AcDbEntity
8
0
100
AcDbSpline
62
7
6
CONTINUOUS
70
0
71
3
72
26
73
22
74
20
42
0.0000001000
43
0.0000001000
44
0.0000000001
12
-7.3421950511
22
12.3307591524
32
0.0000000000
13
7.8231228447
23
-12.0515968677
33
0.0000000000
40
0.0000000000
40
0.0000000000
40
0.0000000000
40
0.0000000000
40
0.0537061736
40
0.1072947284
40
0.1607642566
40
0.2141151105
40
0.2673469014
40
0.3204585588
40
0.3734563038
40
0.4263362450
40
0.4790956059
40
0.5317328357
40
0.5842485124
40
0.6366428076
40
0.6889161775
40
0.7410675748
40
0.7930987252
40
0.8450089729
40
0.8967963499
40
0.9484595305
40
1.0000000000
40
1.0000000000
40
1.0000000000
40
1.0000000000
10
4.0370333291
20
2.3075662287
30
0.0000000000
10
3.9055929283
20
2.5283121928
30
0.0000000000
10
3.6057518706
20
2.9483352955
30
0.0000000000
10
3.0590223433
20
3.4939972439
30
0.0000000000
10
2.4307140984
20
3.9407471516
30
0.0000000000
10
1.7386172163
20
4.2763741509
30
0.0000000000
10
1.0020683371
20
4.4920692729
30
0.0000000000
10
0.2416143261
20
4.5822905752
30
0.0000000000
10
-0.5215781169
20
4.5449922673
30
0.0000000000
10
-1.2662940965
20
4.3816646990
30
0.0000000000
10
-1.9718426463
20
4.0973263127
30
0.0000000000
10
-2.6186957700
20
3.7003683008
30
0.0000000000
10
-3.1890247887
20
3.2023045842
30
0.0000000000
10
-3.6671881918
20
2.6174410392
30
0.0000000000
10
-4.0401539117
20
1.9624842793
30
0.0000000000
10
-4.2978728171
20
1.2560616251
30
0.0000000000
10
-4.4335505618
20
0.5182063051
30
0.0000000000
10
-4.4438386105
20
-0.2302049958
30
0.0000000000
10
-4.3289354292
20
-0.9680304140
30
0.0000000000
10
-4.0925810443
20
-1.6744880737
30
0.0000000000
10
-3.8585398339
20
-2.1118447702
30
0.0000000000
10
-3.7241373592
20
-2.3188930904
30
0.0000000000
11
4.0370333291
21
2.3075662287
31
0.0000000000
11
3.5891253834
21
2.9348035911
31
0.0000000000
11
3.0447736480
21
3.4780625442
31
0.0000000000
11
2.4193486290
21
3.9226614744
31
0.0000000000
11
1.7304099981
21
4.2566934517
31
0.0000000000
11
0.9972443494
21
4.4713288268
31
0.0000000000
11
0.2403320156
21
4.5610660489
31
0.0000000000
11
-0.5193366487
21
4.5238753478
31
0.0000000000
11
-1.2605928411
21
4.3612406420
31
0.0000000000
11
-1.9628420453
21
4.0781622443
31
0.0000000000
11
-2.6066454856
21
3.6829998010
31
0.0000000000
11
-3.1742701985
21
3.1872115849
31
0.0000000000
11
-3.6501474646
21
2.6050415613
31
0.0000000000
11
-4.0213134496
21
1.9531135363
31
0.0000000000
11
-4.2777601110
21
1.2499875175
31
0.0000000000
11
-4.4127369856
21
0.5155814977
31
0.0000000000
11
-4.4229111237
21
-0.2293206729
31
0.0000000000
11
-4.3084831375
21
-0.9636672062
31
0.0000000000
11
-4.0731832481
21
-1.6667649271
31
0.0000000000
11
-3.7241373592
21
-2.3188930904
31
0.0000000000
0
SPLINE
5
34F
100
AcDbEntity
8
0
100
AcDbSpline
62
7
6
CONTINUOUS
70
0
71
3
72
13
73
9
74
7
42
0.0000001000
43
0.0000001000
44
0.0000000001
12
2.3990853268
22
-3.6958142911
32
0.0000000000
13
4.4001958211
23
0.0845627759
33
0.0000000000
40
0.0000000000
40
0.0000000000
40
0.0000000000
40
0.0000000000
40
0.1676671385
40
0.3349341547
40
0.5017994619
40
0.6682703443
40
0.8343400993
40
1.0000000000
40
1.0000000000
40
1.0000000000
40
1.0000000000
10
-3.7241373592
20
-2.3188930904
30
0.0000000000
10
-3.5900547686
20
-2.5254486259
30
0.0000000000
10
-3.2873757628
20
-2.9154618610
30
0.0000000000
10
-2.7421903352
20
-3.4153155484
30
0.0000000000
10
-2.1222307412
20
-3.8154595385
30
0.0000000000
10
-1.4453479162
20
-4.1049059999
30
0.0000000000
10
-0.7313320339
20
-4.2758494035
30
0.0000000000
10
-0.2429786676
20
-4.3079018153
30
0.0000000000
10
0.0000000000
20
-4.3032322616
30
0.0000000000
11
-3.7241373592
21
-2.3188930904
31
0.0000000000
11
-3.2716741347
21
-2.9017996322
31
0.0000000000
11
-2.7290293008
21
-3.3992369431
31
0.0000000000
11
-2.1119732102
21
-3.7974194484
31
0.0000000000
11
-1.4383195660
21
-4.0854329044
31
0.0000000000
11
-0.7275061877
21
-4.2554966818
31
0.0000000000
11
0.0000000000
21
-4.3032322616
31
0.0000000000
0
SPLINE
5
350
100
AcDbEntity
8
0
100
AcDbSpline
62
7
6
CONTINUOUS
70
0
71
3
72
15
73
11
74
9
42
0.0000001000
43
0.0000001000
44
0.0000000001
12
0.0000000000
22
-0.7840504605
32
0.0000000000
13
-0.7840504605
23
0.0000000000
33
0.0000000000
40
0.0000000000
40
0.0000000000
40
0.0000000000
40
0.0000000000
40
0.1250035856
40
0.2500003382
40
0.3749971738
40
0.4999931596
40
0.6249941993
40
0.7499962985
40
0.8749988330
40
1.0000000000
40
1.0000000000
40
1.0000000000
40
1.0000000000
10
11.1500000000
20
-21.8997711479
30
0.0000000000
10
11.1500000000
20
-21.9324408542
30
0.0000000000
10
11.1435720625
20
-21.9979588343
30
0.0000000000
10
11.1150028885
20
-22.0923353736
30
0.0000000000
10
11.0685863853
20
-22.1793736183
30
0.0000000000
10
11.0060858443
20
-22.2556795571
30
0.0000000000
10
10.9298940235
20
-22.3183228818
30
0.0000000000
10
10.8429223671
20
-22.3648787971
30
0.0000000000
10
10.7485697898
20
-22.3935479377
30
0.0000000000
10
10.6830496739
20
-22.4000000000
30
0.0000000000
10
10.6503805997
20
-22.4000000000
30
0.0000000000
11
11.1500000000
21
-21.8997711479
31
0.0000000000
11
11.1404171274
21
-21.9973106575
31
0.0000000000
11
11.1120282390
21
-22.0911126206
31
0.0000000000
11
11.0659057104
21
-22.1775849419
31
0.0000000000
11
11.0038050670
21
-22.2534013617
31
0.0000000000
11
10.9280978412
21
-22.3156413172
31
0.0000000000
11
10.8416923200
21
-22.3618976126
31
0.0000000000
11
10.7479148288
21
-22.3903828363
31
0.0000000000
11
10.6503805997
21
-22.4000000000
31
0.0000000000
0
SPLINE
5
351
100
AcDbEntity
8
0
100
AcDbSpline
62
7
6
CONTINUOUS
70
0
71
3
72
15
73
11
74
9
42
0.0000001000
43
0.0000001000
44
0.0000000001
12
0.7840504604
22
0.0000000000
32
0.0000000000
13
0.0000000000
23
-0.7840504604
33
0.0000000000
40
0.0000000000
40
0.0000000000
40
0.0000000000
40
0.0000000000
40
0.1250026133
40
0.2500082844
40
0.3750136098
40
0.5000160060
40
0.6250106349
40
0.7500042447
40
0.8749978606
40
1.0000000000
40
1.0000000000
40
1.0000000000
40
1.0000000000
10
10.6503805997
20
22.4000000000
30
0.0000000000
10
10.6830500519
20
22.4000000000
30
0.0000000000
10
10.7485713718
20
22.3935477443
30
0.0000000000
10
10.8429258085
20
22.3648775487
30
0.0000000000
10
10.9298988298
20
22.3183198083
30
0.0000000000
10
11.0060904776
20
22.2556749149
30
0.0000000000
10
11.0685894502
20
22.1793688070
30
0.0000000000
10
11.1150041327
20
22.0923319310
30
0.0000000000
10
11.1435722551
20
21.9979572524
30
0.0000000000
10
11.1500000000
20
21.9324404763
30
0.0000000000
10
11.1500000000
20
21.8997711479
30
0.0000000000
11
10.6503805997
21
22.4000000000
31
0.0000000000
11
10.7479159463
21
22.3903826137
31
0.0000000000
11
10.8416956551
21
22.3618962291
31
0.0000000000
11
10.9281029540
21
22.3156378952
31
0.0000000000
11
11.0038101683
21
22.2533962508
31
0.0000000000
11
11.0659091235
21
22.1775798235
31
0.0000000000
11
11.1120296181
21
22.0911092838
31
0.0000000000
11
11.1404173492
21
21.9973095399
31
0.0000000000
11
11.1500000000
21
21.8997711479
31
0.0000000000
0
SPLINE
5
352
100
AcDbEntity
8
0
100
AcDbSpline
62
7
6
CONTINUOUS
70
0
71
3
72
15
73
11
74
9
42
0.0000001000
43
0.0000001000
44
0.0000000001
12
-0.7840504604
22
0.0000000000
32
0.0000000000
13
-0.0000000000
23
0.7840504604
33
0.0000000000
40
0.0000000000
40
0.0000000000
40
0.0000000000
40
0.0000000000
40
0.1250026133
40
0.2500082844
40
0.3750136098
40
0.5000160060
40
0.6250106349
40
0.7500042447
40
0.8749978606
40
1.0000000000
40
1.0000000000
40
1.0000000000
40
1.0000000000
10
-10.6503805997
20
-22.4000000000
30
0.0000000000
10
-10.6830500519
20
-22.4000000000
30
0.0000000000
10
-10.7485713718
20
-22.3935477443
30
0.0000000000
10
-10.8429258085
20
-22.3648775487
30
0.0000000000
10
-10.9298988298
20
-22.3183198083
30
0.0000000000
10
-11.0060904776
20
-22.2556749149
30
0.0000000000
10
-11.0685894502
20
-22.1793688070
30
0.0000000000
10
-11.1150041327
20
-22.0923319310
30
0.0000000000
10
-11.1435722551
20
-21.9979572524
30
0.0000000000
10
-11.1500000000
20
-21.9324404763
30
0.0000000000
10
-11.1500000000
20
-21.8997711479
30
0.0000000000
11
-10.6503805997
21
-22.4000000000
31
0.0000000000
11
-10.7479159463
21
-22.3903826137
31
0.0000000000
11
-10.8416956551
21
-22.3618962291
31
0.0000000000
11
-10.9281029540
21
-22.3156378952
31
0.0000000000
11
-11.0038101683
21
-22.2533962508
31
0.0000000000
11
-11.0659091235
21
-22.1775798235
31
0.0000000000
11
-11.1120296181
21
-22.0911092838
31
0.0000000000
11
-11.1404173492
21
-21.9973095399
31
0.0000000000
11
-11.1500000000
21
-21.8997711479
31
0.0000000000
0
SPLINE
5
353
100
AcDbEntity
8
0
100
AcDbSpline
62
7
6
CONTINUOUS
70
0
71
3
72
15
73
11
74
9
42
0.0000001000
43
0.0000001000
44
0.0000000001
12
0.0000000000
22
0.7840504605
32
0.0000000000
13
0.7840504605
23
0.0000000000
33
0.0000000000
40
0.0000000000
40
0.0000000000
40
0.0000000000
40
0.0000000000
40
0.1250035856
40
0.2500003382
40
0.3749971738
40
0.4999931596
40
0.6249941993
40
0.7499962985
40
0.8749988330
40
1.0000000000
40
1.0000000000
40
1.0000000000
40
1.0000000000
10
-11.1500000000
20
21.8997711479
30
0.0000000000
10
-11.1500000000
20
21.9324408542
30
0.0000000000
10
-11.1435720625
20
21.9979588343
30
0.0000000000
10
-11.1150028885
20
22.0923353736
30
0.0000000000
10
-11.0685863853
20
22.1793736183
30
0.0000000000
10
-11.0060858443
20
22.2556795571
30
0.0000000000
10
-10.9298940235
20
22.3183228818
30
0.0000000000
10
-10.8429223671
20
22.3648787971
30
0.0000000000
10
-10.7485697898
20
22.3935479377
30
0.0000000000
10
-10.6830496739
20
22.4000000000
30
0.0000000000
10
-10.6503805997
20
22.4000000000
30
0.0000000000
11
-11.1500000000
21
21.8997711479
31
0.0000000000
11
-11.1404171274
21
21.9973106575
31
0.0000000000
11
-11.1120282390
21
22.0911126206
31
0.0000000000
11
-11.0659057104
21
22.1775849419
31
0.0000000000
11
-11.0038050670
21
22.2534013617
31
0.0000000000
11
-10.9280978412
21
22.3156413172
31
0.0000000000
11
-10.8416923200
21
22.3618976126
31
0.0000000000
11
-10.7479148288
21
22.3903828363
31
0.0000000000
11
-10.6503805997
21
22.4000000000
31
0.0000000000
0
SPLINE
5
354
100
AcDbEntity
8
0
100
AcDbSpline
62
9
6
CONTINUOUS
70
0
71
3
72
12
73
8
74
6
42
0.0000001000
43
0.0000001000
44
0.0000000001
12
-0.0007145531
22
-0.7813571046
32
0.0000000000
13
-0.7813571062
23
-0.0007128139
33
0.0000000000
40
0.0000000000
40
0.0000000000
40
0.0000000000
40
0.0000000000
40
0.1998532782
40
0.3997964689
40
0.5998286573
40
0.7999149934
40
1.0000000000
40
1.0000000000
40
1.0000000000
40
1.0000000000
10
11.0087219643
20
-21.4755923698
30
0.0000000000
10
11.0086743624
20
-21.5276446294
30
0.0000000000
10
10.9920025187
20
-21.6324904868
30
0.0000000000
10
10.9197666025
20
-21.7737967765
30
0.0000000000
10
10.8073186645
20
-21.8860938494
30
0.0000000000
10
10.6658521001
20
-21.9582171671
30
0.0000000000
10
10.5609107306
20
-21.9748595961
30
0.0000000000
10
10.5087981167
20
-21.9749071372
30
0.0000000000
11
11.0087219643
21
-21.4755923698
31
0.0000000000
11
10.9841411372
21
-21.6298024308
31
0.0000000000
11
10.9130840750
21
-21.7689347420
31
0.0000000000
11
10.8024983179
21
-21.8793857675
31
0.0000000000
11
10.6631962884
21
-21.9503562578
31
0.0000000000
11
10.5087981167
21
-21.9749071372
31
0.0000000000
0
SPLINE
5
355
100
AcDbEntity
8
0
100
AcDbSpline
62
9
6
CONTINUOUS
70
0
71
3
72
12
73
8
74
6
42
0.0000001000
43
0.0000001000
44
0.0000000001
12
-0.1920144796
22
-0.4628063375
32
0.0000000000
13
-0.5010580120
23
-0.0003673725
33
0.0000000000
40
0.0000000000
40
0.0000000000
40
0.0000000000
40
0.0000000000
40
0.0546111894
40
0.1986060630
40
0.4190293170
40
0.6949404067
40
1.0000000000
40
1.0000000000
40
1.0000000000
40
1.0000000000
10
11.0004589101
20
-20.9972959167
30
0.0000000000
10
10.9969635304
20
-21.0057207182
30
0.0000000000
10
10.9527903228
20
-21.0005049635
30
0.0000000000
10
10.8928006189
20
-21.0137700305
30
0.0000000000
10
10.7809054436
20
-21.0135854735
30
0.0000000000
10
10.6490208276
20
-21.0180273997
30
0.0000000000
10
10.5514859137
20
-21.0182766372
30
0.0000000000
10
10.5005350625
20
-21.0183139940
30
0.0000000000
11
11.0004589101
21
-20.9972959167
31
0.0000000000
11
10.9738608069
21
-21.0037220776
31
0.0000000000
11
10.9019453861
21
-21.0095329760
31
0.0000000000
11
10.7915979997
21
-21.0141722630
31
0.0000000000
11
10.6533835666
21
-21.0171957618
31
0.0000000000
11
10.5005350625
21
-21.0183139940
31
0.0000000000
0
SPLINE
5
356
100
AcDbEntity
8
0
100
AcDbSpline
62
9
6
CONTINUOUS
70
0
71
3
72
13
73
9
74
7
42
0.0000001000
43
0.0000001000
44
0.0000000001
12
0.0003449115
22
-0.9566793721
32
0.0000000000
13
0.1577707732
23
-0.9435803745
33
0.0000000000
40
0.0000000000
40
0.0000000000
40
0.0000000000
40
0.0000000000
40
0.2530310260
40
0.4882997269
40
0.6913336956
40
0.8501745167
40
0.9551752019
40
1.0000000000
40
1.0000000000
40
1.0000000000
40
1.0000000000
10
10.5005350625
20
-21.0183142309
30
0.0000000000
10
10.5005641536
20
-21.0990040853
30
0.0000000000
10
10.5008152485
20
-21.2547151132
30
0.0000000000
10
10.5015012526
20
-21.4751932123
30
0.0000000000
10
10.5030911067
20
-21.6655626178
30
0.0000000000
10
10.5036915785
20
-21.8145717156
30
0.0000000000
10
10.5072303685
20
-21.9127237242
30
0.0000000000
10
10.5064407690
20
-21.9608085373
30
0.0000000000
10
10.5087981167
20
-21.9749071372
30
0.0000000000
11
10.5005350625
21
-21.0183142309
31
0.0000000000
11
10.5008870654
21
-21.2603835538
31
0.0000000000
11
10.5017441538
21
-21.4854586496
31
0.0000000000
11
10.5030519894
21
-21.6796926689
31
0.0000000000
11
10.5047341778
21
-21.8316431047
31
0.0000000000
11
10.5066888073
21
-21.9320760821
31
0.0000000000
11
10.5087981167
21
-21.9749071372
31
0.0000000000
0
SPLINE
5
357
100
AcDbEntity
8
0
100
AcDbSpline
62
9
6
CONTINUOUS
70
0
71
3
72
13
73
9
74
7
42
0.0000001000
43
0.0000001000
44
0.0000000001
12
0.0003487206
22
-0.4784692666
32
0.0000000000
13
0.1517232156
23
-0.4537764059
33
0.0000000000
40
0.0000000000
40
0.0000000000
40
0.0000000000
40
0.0000000000
40
0.2532095848
40
0.4885745110
40
0.6915930751
40
0.8503382364
40
0.9552488215
40
1.0000000000
40
1.0000000000
40
1.0000000000
40
1.0000000000
10
11.0004589101
20
-20.9972959167
30
0.0000000000
10
11.0004883432
20
-21.0376802515
30
0.0000000000
10
11.0007370348
20
-21.1155947072
30
0.0000000000
10
11.0014333213
20
-21.2259272634
30
0.0000000000
10
11.0029961999
20
-21.3210594970
30
0.0000000000
10
11.0036726342
20
-21.3957214398
30
0.0000000000
10
11.0070626603
20
-21.4443888068
30
0.0000000000
10
11.0064587001
20
-21.4688233602
30
0.0000000000
10
11.0087219643
20
-21.4755923698
30
0.0000000000
11
11.0004589101
21
-20.9972959167
31
0.0000000000
11
11.0008114400
21
-21.1184484403
31
0.0000000000
11
11.0016694038
21
-21.2310600856
31
0.0000000000
11
11.0029790226
21
-21.3281894263
31
0.0000000000
11
11.0046627389
21
-21.4041254633
31
0.0000000000
11
11.0066187988
21
-21.4542838409
31
0.0000000000
11
11.0087219643
21
-21.4755923698
31
0.0000000000
0
SPLINE
5
358
100
AcDbEntity
8
0
100
AcDbSpline
62
9
6
CONTINUOUS
70
0
71
3
72
12
73
8
74
6
42
0.0000001000
43
0.0000001000
44
0.0000000001
12
-0.1919554566
22
0.4628308739
32
0.0000000000
13
-0.5010580608
23
0.0003673235
33
0.0000000000
40
0.0000000000
40
0.0000000000
40
0.0000000000
40
0.0000000000
40
0.0546097796
40
0.1986040208
40
0.4190274305
40
0.6949392928
40
1.0000000000
40
1.0000000000
40
1.0000000000
40
1.0000000000
10
11.0004589101
20
20.9972959167
30
0.0000000000
10
10.9969646951
20
21.0057209474
30
0.0000000000
10
10.9527896784
20
21.0005048020
30
0.0000000000
10
10.8928023018
20
21.0137704013
30
0.0000000000
10
10.7809060038
20
21.0135856065
30
0.0000000000
10
10.6490214516
20
21.0180276713
30
0.0000000000
10
10.5514861046
20
21.0182768782
30
0.0000000000
10
10.5005350625
20
21.0183142302
30
0.0000000000
11
11.0004589101
21
20.9972959167
31
0.0000000000
11
10.9738615497
21
21.0037221553
31
0.0000000000
11
10.9019464456
21
21.0095331260
31
0.0000000000
11
10.7915989726
21
21.0141724684
31
0.0000000000
11
10.6533841395
21
21.0171959974
31
0.0000000000
11
10.5005350625
21
21.0183142302
31
0.0000000000
0
SPLINE
5
359
100
AcDbEntity
8
0
100
AcDbSpline
62
9
6
CONTINUOUS
70
0
71
3
72
10
73
6
74
4
42
0.0000001000
43
0.0000001000
44
0.0000000001
12
-0.0308407996
22
-41.9945838615
32
0.0000000000
13
0.0308408117
23
-41.9945838615
33
0.0000000000
40
0.0000000000
40
0.0000000000
40
0.0000000000
40
0.0000000000
40
0.3332886949
40
0.6667106342
40
1.0000000000
40
1.0000000000
40
1.0000000000
40
1.0000000000
10
11.0004589101
20
20.9972959167
30
0.0000000000
10
10.9970326135
20
16.3318559011
30
0.0000000000
10
10.9924665659
20
6.9991088406
30
0.0000000000
10
10.9924665607
20
-6.9990900570
30
0.0000000000
10
10.9970326052
20
-16.3318465093
30
0.0000000000
10
11.0004589101
20
-20.9972959167
30
0.0000000000
11
11.0004589101
21
20.9972959167
31
0.0000000000
11
10.9936085333
21
7.0009737718
31
0.0000000000
11
10.9936085267
21
-7.0009455965
31
0.0000000000
11
11.0004589101
21
-20.9972959167
31
0.0000000000
0
SPLINE
5
35A
100
AcDbEntity
8
0
100
AcDbSpline
62
9
6
CONTINUOUS
70
0
71
3
72
12
73
8
74
6
42
0.0000001000
43
0.0000001000
44
0.0000000001
12
-0.0007145491
22
0.7813571074
32
0.0000000000
13
-0.7813571090
23
0.0007128017
33
0.0000000000
40
0.0000000000
40
0.0000000000
40
0.0000000000
40
0.0000000000
40
0.1998485957
40
0.3997897125
40
0.5998222854
40
0.7999110728
40
1.0000000000
40
1.0000000000
40
1.0000000000
40
1.0000000000
10
11.0087219643
20
21.4755923698
30
0.0000000000
10
11.0086743637
20
21.5276434101
30
0.0000000000
10
10.9920032064
20
21.6324874578
30
0.0000000000
10
10.9197693684
20
21.7737928627
30
0.0000000000
10
10.8073224464
20
21.8860912544
30
0.0000000000
10
10.6658548235
20
21.9582165671
30
0.0000000000
10
10.5609117519
20
21.9748595957
30
0.0000000000
10
10.5087981166
20
21.9749071370
30
0.0000000000
11
11.0087219643
21
21.4755923698
31
0.0000000000
11
10.9841422864
21
21.6297989097
31
0.0000000000
11
10.9130872219
21
21.7689304222
31
0.0000000000
11
10.8025023985
21
21.8793828084
31
0.0000000000
11
10.6631992385
21
21.9503553003
31
0.0000000000
11
10.5087981166
21
21.9749071370
31
0.0000000000
0
SPLINE
5
35B
100
AcDbEntity
8
0
100
AcDbSpline
62
9
6
CONTINUOUS
70
0
71
3
72
13
73
9
74
7
42
0.0000001000
43
0.0000001000
44
0.0000000001
12
-0.1577707702
22
-0.9435803750
32
0.0000000000
13
-0.0003449110
23
-0.9566793721
33
0.0000000000
40
0.0000000000
40
0.0000000000
40
0.0000000000
40
0.0000000000
40
0.0448247981
40
0.1498254833
40
0.3086663044
40
0.5117002731
40
0.7469689740
40
1.0000000000
40
1.0000000000
40
1.0000000000
40
1.0000000000
10
10.5087981167
20
21.9749071372
30
0.0000000000
10
10.5064407691
20
21.9608085373
30
0.0000000000
10
10.5072303684
20
21.9127237243
30
0.0000000000
10
10.5036915785
20
21.8145717156
30
0.0000000000
10
10.5030911067
20
21.6655626178
30
0.0000000000
10
10.5015012527
20
21.4751932123
30
0.0000000000
10
10.5008152484
20
21.2547151132
30
0.0000000000
10
10.5005641536
20
21.0990040853
30
0.0000000000
10
10.5005350625
20
21.0183142309
30
0.0000000000
11
10.5087981167
21
21.9749071372
31
0.0000000000
11
10.5066888073
21
21.9320760821
31
0.0000000000
11
10.5047341778
21
21.8316431047
31
0.0000000000
11
10.5030519894
21
21.6796926689
31
0.0000000000
11
10.5017441538
21
21.4854586496
31
0.0000000000
11
10.5008870654
21
21.2603835538
31
0.0000000000
11
10.5005350625
21
21.0183142309
31
0.0000000000
0
SPLINE
5
35C
100
AcDbEntity
8
0
100
AcDbSpline
62
9
6
CONTINUOUS
70
0
71
3
72
13
73
9
74
7
42
0.0000001000
43
0.0000001000
44
0.0000000001
12
-0.1517233705
22
-0.4537763541
32
0.0000000000
13
-0.0003487208
23
-0.4784692666
33
0.0000000000
40
0.0000000000
40
0.0000000000
40
0.0000000000
40
0.0000000000
40
0.0447511791
40
0.1496617630
40
0.3084069250
40
0.5114254892
40
0.7467904150
40
1.0000000000
40
1.0000000000
40
1.0000000000
40
1.0000000000
10
11.0087219643
20
21.4755923698
30
0.0000000000
10
11.0064586977
20
21.4688233609
30
0.0000000000
10
11.0070626629
20
21.4443888060
30
0.0000000000
10
11.0036726327
20
21.3957214402
30
0.0000000000
10
11.0029962005
20
21.3210594969
30
0.0000000000
10
11.0014333211
20
21.2259272635
30
0.0000000000
10
11.0007370348
20
21.1155947072
30
0.0000000000
10
11.0004883433
20
21.0376802515
30
0.0000000000
10
11.0004589101
20
20.9972959167
30
0.0000000000
11
11.0087219643
21
21.4755923698
31
0.0000000000
11
11.0066187988
21
21.4542838406
31
0.0000000000
11
11.0046627389
21
21.4041254635
31
0.0000000000
11
11.0029790226
21
21.3281894262
31
0.0000000000
11
11.0016694038
21
21.2310600855
31
0.0000000000
11
11.0008114400
21
21.1184484404
31
0.0000000000
11
11.0004589101
21
20.9972959167
31
0.0000000000
0
SPLINE
5
35D
100
AcDbEntity
8
0
100
AcDbSpline
62
9
6
CONTINUOUS
70
0
71
3
72
12
73
8
74
6
42
0.0000001000
43
0.0000001000
44
0.0000000001
12
-0.7813571062
22
0.0007128138
32
0.0000000000
13
-0.0007145531
23
0.7813571046
33
0.0000000000
40
0.0000000000
40
0.0000000000
40
0.0000000000
40
0.0000000000
40
0.2000850064
40
0.4001713425
40
0.6002035309
40
0.8001467217
40
1.0000000000
40
1.0000000000
40
1.0000000000
40
1.0000000000
10
-10.5087981167
20
-21.9749071372
30
0.0000000000
10
-10.5609107306
20
-21.9748595961
30
0.0000000000
10
-10.6658521000
20
-21.9582171671
30
0.0000000000
10
-10.8073186644
20
-21.8860938495
30
0.0000000000
10
-10.9197666024
20
-21.7737967766
30
0.0000000000
10
-10.9920025187
20
-21.6324904868
30
0.0000000000
10
-11.0086743624
20
-21.5276446294
30
0.0000000000
10
-11.0087219643
20
-21.4755923698
30
0.0000000000
11
-10.5087981167
21
-21.9749071372
31
0.0000000000
11
-10.6631962883
21
-21.9503562579
31
0.0000000000
11
-10.8024983178
21
-21.8793857676
31
0.0000000000
11
-10.9130840749
21
-21.7689347421
31
0.0000000000
11
-10.9841411372
21
-21.6298024308
31
0.0000000000
11
-11.0087219643
21
-21.4755923698
31
0.0000000000
0
SPLINE
5
35E
100
AcDbEntity
8
0
100
AcDbSpline
62
9
6
CONTINUOUS
70
0
71
3
72
12
73
8
74
6
42
0.0000001000
43
0.0000001000
44
0.0000000001
12
-0.5010578743
22
0.0003674018
32
0.0000000000
13
-0.1921898260
23
0.4627333997
33
0.0000000000
40
0.0000000000
40
0.0000000000
40
0.0000000000
40
0.0000000000
40
0.3050562610
40
0.5809650378
40
0.8013878226
40
0.9453845855
40
1.0000000000
40
1.0000000000
40
1.0000000000
40
1.0000000000
10
-10.5005350626
20
-21.0183132877
30
0.0000000000
10
-10.5514853431
20
-21.0182759283
30
0.0000000000
10
-10.6490189648
20
-21.0180266176
30
0.0000000000
10
-10.7809037669
20
-21.0135851280
30
0.0000000000
10
-10.8927956002
20
-21.0137689630
30
0.0000000000
10
-10.9527922360
20
-21.0005055030
30
0.0000000000
10
-10.9969600676
20
-21.0057200422
30
0.0000000000
10
-11.0004589100
20
-20.9972959167
30
0.0000000000
11
-10.5005350626
21
-21.0183132877
31
0.0000000000
11
-10.6533818551
21
-21.0171950877
31
0.0000000000
11
-10.7915950934
21
-21.0141716956
31
0.0000000000
11
-10.9019422211
21
-21.0095325749
31
0.0000000000
11
-10.9738585879
21
-21.0037218762
31
0.0000000000
11
-11.0004589100
21
-20.9972959167
31
0.0000000000
0
SPLINE
5
35F
100
AcDbEntity
8
0
100
AcDbSpline
62
9
6
CONTINUOUS
70
0
71
3
72
13
73
9
74
7
42
0.0000001000
43
0.0000001000
44
0.0000000001
12
-0.0003498847
22
-0.4784692214
32
0.0000000000
13
-0.1518282341
23
-0.4537412319
33
0.0000000000
40
0.0000000000
40
0.0000000000
40
0.0000000000
40
0.0000000000
40
0.2524796480
40
0.4878694598
40
0.6911230573
40
0.8500379483
40
0.9551279064
40
1.0000000000
40
1.0000000000
40
1.0000000000
40
1.0000000000
10
-11.0004589101
20
-20.9972959167
30
0.0000000000
10
-11.0004883564
20
-21.0375638302
30
0.0000000000
10
-11.0007361325
20
-21.1153658418
30
0.0000000000
10
-11.0014301293
20
-21.2256234781
30
0.0000000000
10
-11.0029931514
20
-21.3208239671
30
0.0000000000
10
-11.0036664885
20
-21.3955798757
30
0.0000000000
10
-11.0070644460
20
-21.4443203351
30
0.0000000000
10
-11.0064510140
20
-21.4688055968
30
0.0000000000
10
-11.0087219643
20
-21.4755923698
30
0.0000000000
11
-11.0004589101
21
-20.9972959167
31
0.0000000000
11
-11.0008096574
21
-21.1180991804
31
0.0000000000
11
-11.0016659628
21
-21.2307227352
31
0.0000000000
11
-11.0029751375
21
-21.3279645393
31
0.0000000000
11
-11.0046585314
21
-21.4039818068
31
0.0000000000
11
-11.0066154888
21
-21.4542260345
31
0.0000000000
11
-11.0087219643
21
-21.4755923698
31
0.0000000000
0
SPLINE
5
360
100
AcDbEntity
8
0
100
AcDbSpline
62
9
6
CONTINUOUS
70
0
71
3
72
13
73
9
74
7
42
0.0000001000
43
0.0000001000
44
0.0000000001
12
-0.0003490200
22
-0.9566793822
32
0.0000000000
13
-0.1577378176
23
-0.9435858960
33
0.0000000000
40
0.0000000000
40
0.0000000000
40
0.0000000000
40
0.0000000000
40
0.2530647362
40
0.4882809639
40
0.6913718813
40
0.8501738568
40
0.9551791592
40
1.0000000000
40
1.0000000000
40
1.0000000000
40
1.0000000000
10
-10.5005350625
20
-21.0183142309
30
0.0000000000
10
-10.5005645041
20
-21.0990148361
30
0.0000000000
10
-10.5008152537
20
-21.2547198844
30
0.0000000000
10
-10.5015010823
20
-21.4752101535
30
0.0000000000
10
-10.5030908202
20
-21.6655686219
30
0.0000000000
10
-10.5036916603
20
-21.8145848800
30
0.0000000000
10
-10.5072295650
20
-21.9127248768
30
0.0000000000
10
-10.5064414695
20
-21.9608096995
30
0.0000000000
10
-10.5087981167
20
-21.9749071372
30
0.0000000000
11
-10.5005350625
21
-21.0183142309
31
0.0000000000
11
-10.5008871715
21
-21.2604158065
31
0.0000000000
11
-10.5017438025
21
-21.4854407064
31
0.0000000000
11
-10.5030519635
21
-21.6797292088
31
0.0000000000
11
-10.5047336849
21
-21.8316424864
31
0.0000000000
11
-10.5066887591
21
-21.9320798744
31
0.0000000000
11
-10.5087981167
21
-21.9749071372
31
0.0000000000
0
SPLINE
5
361
100
AcDbEntity
8
0
100
AcDbSpline
62
9
6
CONTINUOUS
70
0
71
3
72
12
73
8
74
6
42
0.0000001000
43
0.0000001000
44
0.0000000001
12
-0.5010580609
22
-0.0003673192
32
0.0000000000
13
-0.1919553163
23
-0.4628309323
33
0.0000000000
40
0.0000000000
40
0.0000000000
40
0.0000000000
40
0.0000000000
40
0.3050607102
40
0.5809725745
40
0.8013959844
40
0.9453902239
40
1.0000000000
40
1.0000000000
40
1.0000000000
40
1.0000000000
10
-10.5005350625
20
21.0183142305
30
0.0000000000
10
-10.5514861052
20
21.0182768789
30
0.0000000000
10
-10.6490214532
20
21.0180276728
30
0.0000000000
10
-10.7809060054
20
21.0135856071
30
0.0000000000
10
-10.8928023060
20
21.0137704023
30
0.0000000000
10
-10.9527896770
20
21.0005048015
30
0.0000000000
10
-10.9969646978
20
21.0057209479
30
0.0000000000
10
-11.0004589101
20
20.9972959167
30
0.0000000000
11
-10.5005350625
21
21.0183142305
31
0.0000000000
11
-10.6533841411
21
21.0171959985
31
0.0000000000
11
-10.7915989752
21
21.0141724692
31
0.0000000000
11
-10.9019464483
21
21.0095331264
31
0.0000000000
11
-10.9738615515
21
21.0037221554
31
0.0000000000
11
-11.0004589101
21
20.9972959167
31
0.0000000000
0
SPLINE
5
362
100
AcDbEntity
8
0
100
AcDbSpline
62
9
6
CONTINUOUS
70
0
71
3
72
10
73
6
74
4
42
0.0000001000
43
0.0000001000
44
0.0000000001
12
0.0308408131
22
-41.9945838615
32
0.0000000000
13
-0.0308408106
23
-41.9945838615
33
0.0000000000
40
0.0000000000
40
0.0000000000
40
0.0000000000
40
0.0000000000
40
0.3332892101
40
0.6667109287
40
1.0000000000
40
1.0000000000
40
1.0000000000
40
1.0000000000
10
-11.0004589101
20
20.9972959167
30
0.0000000000
10
-10.9970326067
20
16.3318486893
30
0.0000000000
10
-10.9924665635
20
6.9990975058
30
0.0000000000
10
-10.9924665646
20
-6.9991013917
30
0.0000000000
10
-10.9970326084
20
-16.3318506322
30
0.0000000000
10
-11.0004589101
20
-20.9972959167
30
0.0000000000
11
-11.0004589101
21
20.9972959167
31
0.0000000000
11
-10.9936085283
21
7.0009521365
31
0.0000000000
11
-10.9936085296
21
-7.0009579653
31
0.0000000000
11
-11.0004589101
21
-20.9972959167
31
0.0000000000
0
SPLINE
5
363
100
AcDbEntity
8
0
100
AcDbSpline
62
9
6
CONTINUOUS
70
0
71
3
72
12
73
8
74
6
42
0.0000001000
43
0.0000001000
44
0.0000000001
12
-0.7813571085
22
-0.0007128051
32
0.0000000000
13
-0.0007145497
23
-0.7813571069
33
0.0000000000
40
0.0000000000
40
0.0000000000
40
0.0000000000
40
0.0000000000
40
0.2000879484
40
0.4001761228
40
0.6002085985
40
0.8001502331
40
1.0000000000
40
1.0000000000
40
1.0000000000
40
1.0000000000
10
-10.5087981167
20
21.9749071372
30
0.0000000000
10
-10.5609114970
20
21.9748595960
30
0.0000000000
10
-10.6658541434
20
21.9582167171
30
0.0000000000
10
-10.8073215017
20
21.8860919029
30
0.0000000000
10
-10.9197686772
20
21.7737938411
30
0.0000000000
10
-10.9920030345
20
21.6324882152
30
0.0000000000
10
-11.0086743634
20
21.5276437151
30
0.0000000000
10
-11.0087219643
20
21.4755923698
30
0.0000000000
11
-10.5087981167
21
21.9749071372
31
0.0000000000
11
-10.6631985021
21
21.9503555394
31
0.0000000000
11
-10.8025013793
21
21.8793835478
31
0.0000000000
11
-10.9130864355
21
21.7689315022
31
0.0000000000
11
-10.9841419991
21
21.6297997904
31
0.0000000000
11
-11.0087219643
21
21.4755923698
31
0.0000000000
0
SPLINE
5
364
100
AcDbEntity
8
0
100
AcDbSpline
62
9
6
CONTINUOUS
70
0
71
3
72
13
73
9
74
7
42
0.0000001000
43
0.0000001000
44
0.0000000001
12
0.1518283440
22
-0.4537411951
32
0.0000000000
13
0.0003498850
23
-0.4784692214
33
0.0000000000
40
0.0000000000
40
0.0000000000
40
0.0000000000
40
0.0000000000
40
0.0448720941
40
0.1499620513
40
0.3088769427
40
0.5121305404
40
0.7475203519
40
1.0000000000
40
1.0000000000
40
1.0000000000
40
1.0000000000
10
-11.0087219643
20
21.4755923698
30
0.0000000000
10
-11.0064510124
20
21.4688055973
30
0.0000000000
10
-11.0070644478
20
21.4443203345
30
0.0000000000
10
-11.0036664875
20
21.3955798760
30
0.0000000000
10
-11.0029931518
20
21.3208239670
30
0.0000000000
10
-11.0014301292
20
21.2256234781
30
0.0000000000
10
-11.0007361325
20
21.1153658418
30
0.0000000000
10
-11.0004883564
20
21.0375638302
30
0.0000000000
10
-11.0004589101
20
20.9972959167
30
0.0000000000
11
-11.0087219643
21
21.4755923698
31
0.0000000000
11
-11.0066154888
21
21.4542260342
31
0.0000000000
11
-11.0046585314
21
21.4039818070
31
0.0000000000
11
-11.0029751375
21
21.3279645393
31
0.0000000000
11
-11.0016659628
21
21.2307227351
31
0.0000000000
11
-11.0008096574
21
21.1180991805
31
0.0000000000
11
-11.0004589101
21
20.9972959167
31
0.0000000000
0
SPLINE
5
365
100
AcDbEntity
8
0
100
AcDbSpline
62
9
6
CONTINUOUS
70
0
71
3
72
13
73
9
74
7
42
0.0000001000
43
0.0000001000
44
0.0000000001
12
0.1577378029
22
-0.9435858985
32
0.0000000000
13
0.0003490202
23
-0.9566793822
33
0.0000000000
40
0.0000000000
40
0.0000000000
40
0.0000000000
40
0.0000000000
40
0.0448208408
40
0.1498261432
40
0.3086281187
40
0.5117190361
40
0.7469352638
40
1.0000000000
40
1.0000000000
40
1.0000000000
40
1.0000000000
10
-10.5087981167
20
21.9749071372
30
0.0000000000
10
-10.5064414697
20
21.9608096994
30
0.0000000000
10
-10.5072295647
20
21.9127248768
30
0.0000000000
10
-10.5036916604
20
21.8145848799
30
0.0000000000
10
-10.5030908201
20
21.6655686219
30
0.0000000000
10
-10.5015010824
20
21.4752101535
30
0.0000000000
10
-10.5008152536
20
21.2547198844
30
0.0000000000
10
-10.5005645041
20
21.0990148361
30
0.0000000000
10
-10.5005350625
20
21.0183142309
30
0.0000000000
11
-10.5087981167
21
21.9749071372
31
0.0000000000
11
-10.5066887591
21
21.9320798744
31
0.0000000000
11
-10.5047336849
21
21.8316424864
31
0.0000000000
11
-10.5030519635
21
21.6797292088
31
0.0000000000
11
-10.5017438026
21
21.4854407064
31
0.0000000000
11
-10.5008871714
21
21.2604158065
31
0.0000000000
11
-10.5005350625
21
21.0183142309
31
0.0000000000
0
SPLINE
5
366
100
AcDbEntity
8
0
100
AcDbSpline
62
7
6
CONTINUOUS
70
0
71
3
72
18
73
14
74
12
42
0.0000001000
43
0.0000001000
44
0.0000000001
12
-0.1132632593
22
4.9086173143
32
0.0000000000
13
-4.2292597192
23
-1.1373898165
33
0.0000000000
40
0.0000000000
40
0.0000000000
40
0.0000000000
40
0.0000000000
40
0.1421315727
40
0.2843680078
40
0.4227561359
40
0.5534499825
40
0.6728179682
40
0.7775443294
40
0.8647222368
40
0.9319370044
40
0.9773415225
40
0.9997588062
40
1.0000000000
40
1.0000000000
40
1.0000000000
40
1.0000000000
10
-46.3053797386
20
-0.7161932091
30
0.0000000000
10
-46.3107458337
20
-0.4836367096
30
0.0000000000
10
-46.3213320880
20
-0.0183565416
30
0.0000000000
10
-46.3370350948
20
0.6734004362
30
0.0000000000
10
-46.3528085231
20
1.3462735812
30
0.0000000000
10
-46.3682715723
20
1.9822573440
30
0.0000000000
10
-46.3846152635
20
2.5613337739
30
0.0000000000
10
-46.3979887645
20
3.0747412606
30
0.0000000000
10
-46.4195148082
20
3.4866744136
30
0.0000000000
10
-46.4190833820
20
3.8432907524
30
0.0000000000
10
-46.4655271551
20
4.0016139851
30
0.0000000000
10
-46.4339193707
20
4.1966128036
30
0.0000000000
10
-46.4654722503
20
4.1887603804
30
0.0000000000
10
-46.4658122740
20
4.1886689366
30
0.0000000000
11
-46.3053797386
21
-0.7161932091
31
0.0000000000
11
-46.3213222921
21
-0.0185201346
31
0.0000000000
11
-46.3372648455
21
0.6796679410
31
0.0000000000
11
-46.3532073989
21
1.3589560596
31
0.0000000000
11
-46.3691499524
21
2.0004548260
31
0.0000000000
11
-46.3850925058
21
2.5863256778
31
0.0000000000
11
-46.4010350592
21
3.1002769329
31
0.0000000000
11
-46.4169776127
21
3.5280168233
31
0.0000000000
11
-46.4329201661
21
3.8576509147
31
0.0000000000
11
-46.4488627195
21
4.0800128631
31
0.0000000000
11
-46.4648052730
21
4.1889193091
31
0.0000000000
11
-46.4658122740
21
4.1886689366
31
0.0000000000
0
SPLINE
5
367
100
AcDbEntity
8
0
100
AcDbSpline
62
7
6
CONTINUOUS
70
0
71
3
72
15
73
11
74
9
42
0.0000001000
43
0.0000001000
44
0.0000000001
12
-1.9770215261
22
1.9958692890
32
0.0000000000
13
-0.1061040161
23
2.9701450746
33
0.0000000000
40
0.0000000000
40
0.0000000000
40
0.0000000000
40
0.0000000000
40
0.0198123462
40
0.0756241863
40
0.1639143995
40
0.2820950852
40
0.4288209595
40
0.6014352231
40
0.7942609050
40
1.0000000000
40
1.0000000000
40
1.0000000000
40
1.0000000000
10
-47.9188493174
20
-4.2980642949
30
0.0000000000
10
-47.9319057957
20
-4.2848833438
30
0.0000000000
10
-47.9350375063
20
-4.1949153466
30
0.0000000000
10
-47.9651421183
20
-4.0486339497
30
0.0000000000
10
-47.9798882670
20
-3.7815163932
30
0.0000000000
10
-48.0038022614
20
-3.4356280235
30
0.0000000000
10
-48.0247126514
20
-3.0014816687
30
0.0000000000
10
-48.0471471493
20
-2.4949962185
30
0.0000000000
10
-48.0692413770
20
-1.9294370050
30
0.0000000000
10
-48.0836691417
20
-1.5348828641
30
0.0000000000
10
-48.0909457231
20
-1.3311912109
30
0.0000000000
11
-47.9188493174
21
-4.2980642949
31
0.0000000000
11
-47.9342850605
21
-4.2392858120
31
0.0000000000
11
-47.9564223714
21
-4.0748946440
31
0.0000000000
11
-47.9786413608
21
-3.8134350206
31
0.0000000000
11
-48.0008195978
21
-3.4628982345
31
0.0000000000
11
-48.0232064018
21
-3.0273981299
31
0.0000000000
11
-48.0458442576
21
-2.5148814034
31
0.0000000000
11
-48.0685102736
21
-1.9422442321
31
0.0000000000
11
-48.0909457231
21
-1.3311912109
31
0.0000000000
0
SPLINE
5
368
100
AcDbEntity
8
0
100
AcDbSpline
62
7
6
CONTINUOUS
70
0
71
3
72
15
73
11
74
9
42
0.0000001000
43
0.0000001000
44
0.0000000001
12
-2.8165557490
22
-0.1698940158
32
0.0000000000
13
-0.0685865094
23
2.8610632295
33
0.0000000000
40
0.0000000000
40
0.0000000000
40
0.0000000000
40
0.0000000000
40
0.0011816830
40
0.0413103528
40
0.1208209449
40
0.2376385593
40
0.3885509076
40
0.5693773598
40
0.7750985799
40
1.0000000000
40
1.0000000000
40
1.0000000000
40
1.0000000000
10
-47.9761117302
20
-4.1866388156
30
0.0000000000
10
-47.9772211556
20
-4.1867057359
30
0.0000000000
10
-48.0151352340
20
-4.1873440914
30
0.0000000000
10
-47.9745712865
20
-4.0016260976
30
0.0000000000
10
-48.0268928547
20
-3.8278337083
30
0.0000000000
10
-48.0238770000
20
-3.4724722702
30
0.0000000000
10
-48.0464031208
20
-3.0544738576
30
0.0000000000
10
-48.0594368166
20
-2.5385915148
30
0.0000000000
10
-48.0759093189
20
-1.9566318000
30
0.0000000000
10
-48.0858039886
20
-1.5456769387
30
0.0000000000
10
-48.0909457231
20
-1.3311912109
30
0.0000000000
11
-47.9761117302
21
-4.1866388156
31
0.0000000000
11
-47.9793478491
21
-4.1866897756
31
0.0000000000
11
-47.9952904025
21
-4.0729580824
31
0.0000000000
11
-48.0112329559
21
-3.8459670635
31
0.0000000000
11
-48.0271755094
21
-3.5120288018
31
0.0000000000
11
-48.0431180628
21
-3.0804293303
31
0.0000000000
11
-48.0590606162
21
-2.5631704089
31
0.0000000000
11
-48.0750031697
21
-1.9746357840
31
0.0000000000
11
-48.0909457231
21
-1.3311912109
31
0.0000000000
0
SPLINE
5
369
100
AcDbEntity
8
0
100
AcDbSpline
62
7
6
CONTINUOUS
70
0
71
3
72
26
73
22
74
20
42
0.0000001000
43
0.0000001000
44
0.0000000001
12
-2.2921934785
22
3.2304586063
32
0.0000000000
13
-4.5662864840
23
5.2611259823
33
0.0000000000
40
0.0000000000
40
0.0000000000
40
0.0000000000
40
0.0000000000
40
0.0072800162
40
0.0295624971
40
0.0648812906
40
0.1122726668
40
0.1704258326
40
0.2377273847
40
0.3123081765
40
0.3920960057
40
0.4748735543
40
0.5583402190
40
0.6401762028
40
0.7181071292
40
0.7899674206
40
0.8537607327
40
0.9077158980
40
0.9503372276
40
0.9804494321
40
0.9972470171
40
1.0000000000
40
1.0000000000
40
1.0000000000
40
1.0000000000
10
-47.3770707315
20
-4.1978601344
30
0.0000000000
10
-47.3826331334
20
-4.1900208707
30
0.0000000000
10
-47.3978839508
20
-4.0542749787
30
0.0000000000
10
-47.4070695219
20
-3.9246906925
30
0.0000000000
10
-47.4242727535
20
-3.6035893831
30
0.0000000000
10
-47.4386097557
20
-3.2216339286
30
0.0000000000
10
-47.4544686301
20
-2.7343328733
30
0.0000000000
10
-47.4699602371
20
-2.1766429150
30
0.0000000000
10
-47.4856666503
20
-1.5565733671
30
0.0000000000
10
-47.5013572594
20
-0.8937974444
30
0.0000000000
10
-47.5170816578
20
-0.2059981864
30
0.0000000000
10
-47.5327936160
20
0.4874792651
30
0.0000000000
10
-47.5485417765
20
1.1674222775
30
0.0000000000
10
-47.5641147962
20
1.8148734824
30
0.0000000000
10
-47.5801526565
20
2.4119509246
30
0.0000000000
10
-47.5945177860
20
2.9416821280
30
0.0000000000
10
-47.6134581505
20
3.3904566216
30
0.0000000000
10
-47.6194786389
20
3.7427551590
30
0.0000000000
10
-47.6543416998
20
3.9962897779
30
0.0000000000
10
-47.6352127701
20
4.1289870794
30
0.0000000000
10
-47.6692613232
20
4.1871742368
30
0.0000000000
10
-47.6734516261
20
4.1920021668
30
0.0000000000
11
-47.3770707315
21
-4.1978601344
31
0.0000000000
11
-47.3894733721
21
-4.1278151775
31
0.0000000000
11
-47.4054159255
21
-3.9415813304
31
0.0000000000
11
-47.4213584789
21
-3.6457414341
31
0.0000000000
11
-47.4373010324
21
-3.2485220961
31
0.0000000000
11
-47.4532435858
21
-2.7609690461
31
0.0000000000
11
-47.4691861392
21
-2.1966399806
31
0.0000000000
11
-47.4851286927
21
-1.5712275556
31
0.0000000000
11
-47.5010712461
21
-0.9021230105
31
0.0000000000
11
-47.5170137995
21
-0.2079325593
31
0.0000000000
11
-47.5329563530
21
0.4920400043
31
0.0000000000
11
-47.5488989064
21
1.1783300998
31
0.0000000000
11
-47.5648414598
21
1.8318536237
31
0.0000000000
11
-47.5807840133
21
2.4344376333
31
0.0000000000
11
-47.5967265667
21
2.9693256933
31
0.0000000000
11
-47.6126691201
21
3.4216438326
31
0.0000000000
11
-47.6286116735
21
3.7788141542
31
0.0000000000
11
-47.6445542270
21
4.0309045965
31
0.0000000000
11
-47.6604967804
21
4.1709051211
31
0.0000000000
11
-47.6734516261
21
4.1920021668
31
0.0000000000
0
SPLINE
5
36A
100
AcDbEntity
8
0
100
AcDbSpline
62
7
6
CONTINUOUS
70
0
71
3
72
14
73
10
74
8
42
0.0000001000
43
0.0000001000
44
0.0000000001
12
-0.0812117636
22
2.2655888438
32
0.0000000000
13
-1.1917177184
23
-1.1237218917
33
0.0000000000
40
0.0000000000
40
0.0000000000
40
0.0000000000
40
0.0000000000
40
0.2768754340
40
0.5167388435
40
0.7131344617
40
0.8608522614
40
0.9561124505
40
0.9970747196
40
1.0000000000
40
1.0000000000
40
1.0000000000
40
1.0000000000
10
-47.3115228597
20
2.3075662287
30
0.0000000000
10
-47.3190180405
20
2.5166615268
30
0.0000000000
10
-47.3336894497
20
2.9055938872
30
0.0000000000
10
-47.3567417758
20
3.4488456858
30
0.0000000000
10
-47.3800304509
20
3.8764558573
30
0.0000000000
10
-47.4015065316
20
4.2395831539
30
0.0000000000
10
-47.4241287083
20
4.3912725819
30
0.0000000000
10
-47.4399253811
20
4.5722411957
30
0.0000000000
10
-47.4567980235
20
4.5597040271
30
0.0000000000
10
-47.4579600596
20
4.5586082933
30
0.0000000000
11
-47.3115228597
21
2.3075662287
31
0.0000000000
11
-47.3353237878
21
2.9348035911
31
0.0000000000
11
-47.3591431322
21
3.4780625442
31
0.0000000000
11
-47.3829804279
21
3.9226614744
31
0.0000000000
11
-47.4068359943
21
4.2566934517
31
0.0000000000
11
-47.4307098214
21
4.4713288268
31
0.0000000000
11
-47.4546015913
21
4.5610660489
31
0.0000000000
11
-47.4579600596
21
4.5586082933
31
0.0000000000
0
SPLINE
5
36B
100
AcDbEntity
8
0
100
AcDbSpline
62
7
6
CONTINUOUS
70
0
71
3
72
26
73
22
74
20
42
0.0000001000
43
0.0000001000
44
0.0000000001
12
-3.9812707358
22
5.3105236700
32
0.0000000000
13
-2.2730699638
23
3.9284105723
33
0.0000000000
40
0.0000000000
40
0.0000000000
40
0.0000000000
40
0.0000000000
40
0.0031736621
40
0.0205381424
40
0.0511920861
40
0.0943129964
40
0.1487113252
40
0.2128789415
40
0.2850342197
40
0.3631725884
40
0.4451226894
40
0.5286069674
40
0.6113051348
40
0.6909187993
40
0.7652354955
40
0.8321903836
40
0.8899239947
40
0.9368346769
40
0.9716252369
40
0.9933475918
40
1.0000000000
40
1.0000000000
40
1.0000000000
40
1.0000000000
10
-46.7706108447
20
-4.1930801577
30
0.0000000000
10
-46.7748225807
20
-4.1874622217
30
0.0000000000
10
-46.8062811794
20
-4.1213608527
30
0.0000000000
10
-46.7919420675
20
-3.9906540183
30
0.0000000000
10
-46.8235177748
20
-3.7287555240
30
0.0000000000
10
-46.8311224131
20
-3.3740135434
30
0.0000000000
10
-46.8494555574
20
-2.9209061662
30
0.0000000000
10
-46.8640405923
20
-2.3882847103
30
0.0000000000
10
-46.8800105110
20
-1.7886830465
30
0.0000000000
10
-46.8956063189
20
-1.1395279294
30
0.0000000000
10
-46.9113489386
20
-0.4586292031
30
0.0000000000
10
-46.9270622354
20
0.2349944589
30
0.0000000000
10
-46.9427876055
20
0.9221335452
30
0.0000000000
10
-46.9584708284
20
1.5834691159
30
0.0000000000
10
-46.9741970567
20
2.2013213635
30
0.0000000000
10
-46.9896166688
20
2.7562063401
30
0.0000000000
10
-47.0056732411
20
3.2397802428
30
0.0000000000
10
-47.0194474948
20
3.6184442675
30
0.0000000000
10
-47.0379192368
20
3.9332768195
30
0.0000000000
10
-47.0447295873
20
4.0622966340
30
0.0000000000
10
-47.0619942897
20
4.1885855915
30
0.0000000000
10
-47.0670347528
20
4.1972967218
30
0.0000000000
11
-46.7706108447
21
-4.1930801577
31
0.0000000000
11
-46.7836563416
21
-4.1673597814
31
0.0000000000
11
-46.7995988950
21
-4.0225739569
31
0.0000000000
11
-46.8155414485
21
-3.7659298699
31
0.0000000000
11
-46.8314840019
21
-3.4045641851
31
0.0000000000
11
-46.8474265553
21
-2.9485256272
31
0.0000000000
11
-46.8633691088
21
-2.4104955492
31
0.0000000000
11
-46.8793116622
21
-1.8054352942
31
0.0000000000
11
-46.8952542156
21
-1.1501701563
31
0.0000000000
11
-46.9111967691
21
-0.4629215082
31
0.0000000000
11
-46.9271393225
21
0.2371998916
31
0.0000000000
11
-46.9430818759
21
0.9307253238
31
0.0000000000
11
-46.9590244294
21
1.5983694872
31
0.0000000000
11
-46.9749669828
21
2.2215667777
31
0.0000000000
11
-46.9909095362
21
2.7829875533
31
0.0000000000
11
-47.0068520897
21
3.2670200309
31
0.0000000000
11
-47.0227946431
21
3.6602044128
31
0.0000000000
11
-47.0387371965
21
3.9516071717
31
0.0000000000
11
-47.0546797500
21
4.1331250865
31
0.0000000000
11
-47.0670347528
21
4.1972967218
31
0.0000000000
0
SPLINE
5
36C
100
AcDbEntity
8
0
100
AcDbSpline
62
7
6
CONTINUOUS
70
0
71
3
72
8
73
4
74
2
42
0.0000001000
43
0.0000001000
44
0.0000000001
12
-0.0333674648
22
0.0000000000
32
0.0000000000
13
-0.0022415777
23
0.0407847033
33
0.0000000000
40
0.0000000000
40
0.0000000000
40
0.0000000000
40
0.0000000000
40
1.0000000000
40
1.0000000000
40
1.0000000000
40
1.0000000000
10
-47.0315509961
20
-4.6500000000
30
0.0000000000
10
-47.0426734844
20
-4.6500000000
30
0.0000000000
10
-47.0461620211
20
-4.6397702575
30
0.0000000000
10
-47.0469092137
20
-4.6261753564
30
0.0000000000
11
-47.0315509961
21
-4.6500000000
31
0.0000000000
11
-47.0469092137
21
-4.6261753564
31
0.0000000000
0
SPLINE
5
36D
100
AcDbEntity
8
0
100
AcDbSpline
62
7
6
CONTINUOUS
70
0
71
3
72
26
73
22
74
20
42
0.0000001000
43
0.0000001000
44
0.0000000001
12
-0.6161170049
22
11.2100281436
32
0.0000000000
13
-0.9002602905
23
9.1270442318
33
0.0000000000
40
0.0000000000
40
0.0000000000
40
0.0000000000
40
0.0000000000
40
0.0024924446
40
0.0202561557
40
0.0495887523
40
0.0895093519
40
0.1393556160
40
0.1986289874
40
0.2654033428
40
0.3371175732
40
0.4120798212
40
0.4892870716
40
0.5673965028
40
0.6437274184
40
0.7168572068
40
0.7857168455
40
0.8479600877
40
0.9013095588
40
0.9447537442
40
0.9778537829
40
1.0000000000
40
1.0000000000
40
1.0000000000
40
1.0000000000
10
-47.0469092137
20
-4.6261753564
30
0.0000000000
10
-47.0474210928
20
-4.6168618984
30
0.0000000000
10
-47.0411251634
20
-4.5283358818
30
0.0000000000
10
-47.0720353249
20
-4.4131184094
30
0.0000000000
10
-47.0741274123
20
-4.1258563857
30
0.0000000000
10
-47.0931783489
20
-3.7712497310
30
0.0000000000
10
-47.1057079332
20
-3.3123840876
30
0.0000000000
10
-47.1209049709
20
-2.7760491406
30
0.0000000000
10
-47.1353058160
20
-2.1712601130
30
0.0000000000
10
-47.1499151947
20
-1.5189945625
30
0.0000000000
10
-47.1643794047
20
-0.8346767985
30
0.0000000000
10
-47.1788752407
20
-0.1308467992
30
0.0000000000
10
-47.1933878294
20
0.5771796601
30
0.0000000000
10
-47.2079209349
20
1.2727345870
30
0.0000000000
10
-47.2224762863
20
1.9400060715
30
0.0000000000
10
-47.2370803827
20
2.5641972520
30
0.0000000000
10
-47.2516596109
20
3.1279026986
30
0.0000000000
10
-47.2661308396
20
3.6138781096
30
0.0000000000
10
-47.2802362005
20
4.0107427786
30
0.0000000000
10
-47.2942472515
20
4.3121055407
30
0.0000000000
10
-47.3048770731
20
4.4807247860
30
0.0000000000
10
-47.3115228597
20
4.5481012871
30
0.0000000000
11
-47.0469092137
21
-4.6261753564
31
0.0000000000
11
-47.0461582009
21
-4.5957040500
31
0.0000000000
11
-47.0608088092
21
-4.4334471644
31
0.0000000000
11
-47.0755614704
21
-4.1648328771
31
0.0000000000
11
-47.0902433672
21
-3.7990021381
31
0.0000000000
11
-47.1049684733
21
-3.3420825098
31
0.0000000000
11
-47.1198783855
21
-2.7986710093
31
0.0000000000
11
-47.1348052298
21
-2.1864428964
31
0.0000000000
11
-47.1495583208
21
-1.5288930722
31
0.0000000000
11
-47.1641731792
21
-0.8415444629
31
0.0000000000
11
-47.1788069505
21
-0.1336020539
31
0.0000000000
11
-47.1935471582
21
0.5826141229
31
0.0000000000
11
-47.2082348141
21
1.2825165065
31
0.0000000000
11
-47.2229431763
21
1.9530530752
31
0.0000000000
11
-47.2378259683
21
2.5844125731
31
0.0000000000
11
-47.2527631744
21
3.1550708044
31
0.0000000000
11
-47.2675496300
21
3.6441332540
31
0.0000000000
11
-47.2821825120
21
4.0423056889
31
0.0000000000
11
-47.2968026263
21
4.3455250073
31
0.0000000000
11
-47.3115228597
21
4.5481012871
31
0.0000000000
0
SPLINE
5
36E
100
AcDbEntity
8
0
100
AcDbSpline
62
7
6
CONTINUOUS
70
0
71
3
72
8
73
4
74
2
42
0.0000001000
43
0.0000001000
44
0.0000000001
12
-0.0335034856
22
0.0000000000
32
0.0000000000
13
-0.0022493610
23
0.0409216957
33
0.0000000000
40
0.0000000000
40
0.0000000000
40
0.0000000000
40
0.0000000000
40
1.0000000000
40
1.0000000000
40
1.0000000000
40
1.0000000000
10
-44.0315509961
20
-4.6500000000
30
0.0000000000
10
-44.0427188247
20
-4.6500000000
30
0.0000000000
10
-44.0462290907
20
-4.6397492928
30
0.0000000000
10
-44.0469788777
20
-4.6261087276
30
0.0000000000
11
-44.0315509961
21
-4.6500000000
31
0.0000000000
11
-44.0469788777
21
-4.6261087276
31
0.0000000000
0
SPLINE
5
36F
100
AcDbEntity
8
0
100
AcDbSpline
62
7
6
CONTINUOUS
70
0
71
3
72
23
73
19
74
17
42
0.0000001000
43
0.0000001000
44
0.0000000001
12
-0.5538591749
22
10.0761313279
32
0.0000000000
13
-0.2706501414
23
8.2451077620
33
0.0000000000
40
0.0000000000
40
0.0000000000
40
0.0000000000
40
0.0000000000
40
0.0027935513
40
0.0228974640
40
0.0558861944
40
0.1003967896
40
0.1555445273
40
0.2209311046
40
0.2943756528
40
0.3731570759
40
0.4563705423
40
0.5431973879
40
0.6306258589
40
0.7155268446
40
0.7961964088
40
0.8722362432
40
0.9409559023
40
1.0000000000
40
1.0000000000
40
1.0000000000
40
1.0000000000
10
-44.0469788777
20
-4.6261087276
30
0.0000000000
10
-44.0474946224
20
-4.6167259975
30
0.0000000000
10
-44.0410163983
20
-4.5266736731
30
0.0000000000
10
-44.0723763001
20
-4.4100226131
30
0.0000000000
10
-44.0743608332
20
-4.1201440565
30
0.0000000000
10
-44.0933839384
20
-3.7648794136
30
0.0000000000
10
-44.1058407296
20
-3.3078287003
30
0.0000000000
10
-44.1209035242
20
-2.7757891106
30
0.0000000000
10
-44.1351657406
20
-2.1771843586
30
0.0000000000
10
-44.1496749214
20
-1.5300358034
30
0.0000000000
10
-44.1641462701
20
-0.8459337413
30
0.0000000000
10
-44.1787270476
20
-0.1380927778
30
0.0000000000
10
-44.1933301683
20
0.5744009582
30
0.0000000000
10
-44.2078622094
20
1.2699578112
30
0.0000000000
10
-44.2223491093
20
1.9341923517
30
0.0000000000
10
-44.2368301681
20
2.5539196077
30
0.0000000000
10
-44.2512971025
20
3.1141626481
30
0.0000000000
10
-44.2616787771
20
3.4653420916
30
0.0000000000
10
-44.2670055416
20
3.6276170742
30
0.0000000000
11
-44.0469788777
21
-4.6261087276
31
0.0000000000
11
-44.0462015750
21
-4.5953817559
31
0.0000000000
11
-44.0610292504
21
-4.4301977147
31
0.0000000000
11
-44.0758548524
21
-4.1584597070
31
0.0000000000
11
-44.0905078874
21
-3.7915598710
31
0.0000000000
11
-44.1051228698
21
-3.3368507364
31
0.0000000000
11
-44.1199048038
21
-2.7976435626
31
0.0000000000
11
-44.1346772890
21
-2.1919393027
31
0.0000000000
11
-44.1492689822
21
-1.5421919427
31
0.0000000000
11
-44.1638738831
21
-0.8558737793
31
0.0000000000
11
-44.1786807529
21
-0.1397445488
31
0.0000000000
11
-44.1935209548
21
0.5813481885
31
0.0000000000
11
-44.2082149954
21
1.2815888483
31
0.0000000000
11
-44.2228043571
21
1.9469164064
31
0.0000000000
11
-44.2375698888
21
2.5740369193
31
0.0000000000
11
-44.2523635962
21
3.1407500357
31
0.0000000000
11
-44.2670055416
21
3.6276170742
31
0.0000000000
0
SPLINE
5
370
100
AcDbEntity
8
0
100
AcDbSpline
62
7
6
CONTINUOUS
70
0
71
3
72
8
73
4
74
2
42
0.0000001000
43
0.0000001000
44
0.0000000001
12
-0.0349338097
22
0.0000000000
32
0.0000000000
13
-0.0021053040
23
0.0427444559
33
0.0000000000
40
0.0000000000
40
0.0000000000
40
0.0000000000
40
0.0000000000
40
1.0000000000
40
1.0000000000
40
1.0000000000
40
1.0000000000
10
-27.8315509961
20
-4.6500000000
30
0.0000000000
10
-27.8431955994
20
-4.6500000000
30
0.0000000000
10
-27.8467889309
20
-4.6392876486
30
0.0000000000
10
-27.8474906989
20
-4.6250394966
30
0.0000000000
11
-27.8315509961
21
-4.6500000000
31
0.0000000000
11
-27.8474906989
21
-4.6250394966
31
0.0000000000
0
SPLINE
5
371
100
AcDbEntity
8
0
100
AcDbSpline
62
7
6
CONTINUOUS
70
0
71
3
72
27
73
23
74
21
42
0.0000001000
43
0.0000001000
44
0.0000000001
12
-0.5586265190
22
11.3419185808
32
0.0000000000
13
-7.7109421862
23
2.0696361269
33
0.0000000000
40
0.0000000000
40
0.0000000000
40
0.0000000000
40
0.0000000000
40
0.0025877684
40
0.0212465763
40
0.0518265738
40
0.0930004461
40
0.1439720207
40
0.2040204961
40
0.2709571716
40
0.3427886854
40
0.4190962854
40
0.4983255497
40
0.5775536724
40
0.6538584737
40
0.7261874065
40
0.7934416346
40
0.8531393953
40
0.9037145933
40
0.9448839450
40
0.9754644037
40
0.9941218365
40
1.0000000000
40
1.0000000000
40
1.0000000000
40
1.0000000000
10
-27.8474906989
20
-4.6250394966
30
0.0000000000
10
-27.8479725643
20
-4.6152560771
30
0.0000000000
10
-27.8407355021
20
-4.5212432005
30
0.0000000000
10
-27.8735775640
20
-4.3998319568
30
0.0000000000
10
-27.8751214215
20
-4.0980123317
30
0.0000000000
10
-27.8947259522
20
-3.7287017927
30
0.0000000000
10
-27.9073453794
20
-3.2551149407
30
0.0000000000
10
-27.9226636935
20
-2.7066729853
30
0.0000000000
10
-27.9371251084
20
-2.0921568732
30
0.0000000000
10
-27.9518834878
20
-1.4278921243
30
0.0000000000
10
-27.9666486865
20
-0.7254898116
30
0.0000000000
10
-27.9815454525
20
-0.0002711116
30
0.0000000000
10
-27.9964418990
20
0.7249389439
30
0.0000000000
10
-28.0112387448
20
1.4288657579
30
0.0000000000
10
-28.0260546497
20
2.0956383700
30
0.0000000000
10
-28.0405603997
20
2.7115900364
30
0.0000000000
10
-28.0558581587
20
3.2587125488
30
0.0000000000
10
-28.0684359746
20
3.7299467751
30
0.0000000000
10
-28.0879823382
20
4.0980422399
30
0.0000000000
10
-28.0895253120
20
4.3998466058
30
0.0000000000
10
-28.1244511896
20
4.5289642002
30
0.0000000000
10
-28.1123928806
20
4.6454432810
30
0.0000000000
10
-28.1275016069
20
4.6494985008
30
0.0000000000
11
-27.8474906989
21
-4.6250394966
31
0.0000000000
11
-27.8465167465
21
-4.5930113858
31
0.0000000000
11
-27.8616633224
21
-4.4207195138
31
0.0000000000
11
-27.8767998437
21
-4.1376650217
31
0.0000000000
11
-27.8917473922
21
-3.7562998195
31
0.0000000000
11
-27.9066667522
21
-3.2840583661
31
0.0000000000
11
-27.9216919270
21
-2.7276465003
31
0.0000000000
11
-27.9366361092
21
-2.1073621621
31
0.0000000000
11
-27.9514481686
21
-1.4416902764
31
0.0000000000
11
-27.9664033387
21
-0.7345210007
31
0.0000000000
11
-27.9815455010
21
-0.0002675853
31
0.0000000000
11
-27.9966873037
21
0.7339752547
31
0.0000000000
11
-28.0116414755
21
1.4411186028
31
0.0000000000
11
-28.0265589306
21
2.1114000708
31
0.0000000000
11
-28.0415871821
21
2.7346267673
31
0.0000000000
11
-28.0565434992
21
3.2877883837
31
0.0000000000
11
-28.0713565985
21
3.7563571797
31
0.0000000000
11
-28.0863028450
21
4.1376804970
31
0.0000000000
11
-28.1014399759
21
4.4207392372
31
0.0000000000
11
-28.1165861619
21
4.5930183485
31
0.0000000000
11
-28.1275016069
21
4.6494985008
31
0.0000000000
0
SPLINE
5
372
100
AcDbEntity
8
0
100
AcDbSpline
62
7
6
CONTINUOUS
70
0
71
3
72
8
73
4
74
2
42
0.0000001000
43
0.0000001000
44
0.0000000001
12
0.0348788825
22
0.0000000000
32
0.0000000000
13
0.0021110322
23
-0.0426742929
33
0.0000000000
40
0.0000000000
40
0.0000000000
40
0.0000000000
40
0.0000000000
40
1.0000000000
40
1.0000000000
40
1.0000000000
40
1.0000000000
10
-28.2119357539
20
4.6500000000
30
0.0000000000
10
-28.2003094597
20
4.6500000000
30
0.0000000000
10
-28.1967192276
20
4.6393054806
30
0.0000000000
10
-28.1960155502
20
4.6250807163
30
0.0000000000
11
-28.2119357539
21
4.6500000000
31
0.0000000000
11
-28.1960155502
21
4.6250807163
31
0.0000000000
0
SPLINE
5
373
100
AcDbEntity
8
0
100
AcDbSpline
62
7
6
CONTINUOUS
70
0
71
3
72
27
73
23
74
21
42
0.0000001000
43
0.0000001000
44
0.0000000001
12
0.5610318910
22
-11.3412001658
32
0.0000000000
13
7.7088728527
23
-2.0728439255
33
0.0000000000
40
0.0000000000
40
0.0000000000
40
0.0000000000
40
0.0000000000
40
0.0025838984
40
0.0212141730
40
0.0517514139
40
0.0928665909
40
0.1434341906
40
0.2032866931
40
0.2706359747
40
0.3429681651
40
0.4192217685
40
0.4983924120
40
0.5775639707
40
0.6538195336
40
0.7256642691
40
0.7927840190
40
0.8528986836
40
0.9038423669
40
0.9449618814
40
0.9754986702
40
0.9941303199
40
1.0000000000
40
1.0000000000
40
1.0000000000
40
1.0000000000
10
-28.1960155502
20
4.6250807163
30
0.0000000000
10
-28.1955323337
20
4.6153125464
30
0.0000000000
10
-28.2027405510
20
4.5214469021
30
0.0000000000
10
-28.1699522887
20
4.4002059706
30
0.0000000000
10
-28.1683933667
20
4.0988193849
30
0.0000000000
10
-28.1488588279
20
3.7310354336
30
0.0000000000
10
-28.1362657797
20
3.2595091068
30
0.0000000000
10
-28.1209449856
20
2.7116392010
30
0.0000000000
10
-28.1064223716
20
2.0949011957
30
0.0000000000
10
-28.0916045777
20
1.4279791755
30
0.0000000000
10
-28.0768150395
20
0.7243738656
30
0.0000000000
10
-28.0619290781
20
-0.0003264864
30
0.0000000000
10
-28.0470428204
20
-0.7250328892
30
0.0000000000
10
-28.0322842757
20
-1.4271411778
30
0.0000000000
10
-28.0175171180
20
-2.0918553417
30
0.0000000000
10
-28.0030373031
20
-2.7071872258
30
0.0000000000
10
-27.9876960652
20
-3.2563135912
30
0.0000000000
10
-27.9750696528
20
-3.7298530948
30
0.0000000000
10
-27.9554798474
20
-4.0987899257
30
0.0000000000
10
-27.9539201167
20
-4.4001913192
30
0.0000000000
10
-27.9190487806
20
-4.5291319164
30
0.0000000000
10
-27.9310689452
20
-4.6454418903
30
0.0000000000
10
-27.9159860728
20
-4.6494975338
30
0.0000000000
11
-28.1960155502
21
4.6250807163
31
0.0000000000
11
-28.1969819290
21
4.5931019873
31
0.0000000000
11
-28.1818468820
21
4.4210735875
31
0.0000000000
11
-28.1667206151
21
4.1384137710
31
0.0000000000
11
-28.1517843344
21
3.7575903670
31
0.0000000000
11
-28.1369660472
21
3.2890894371
31
0.0000000000
11
-28.1219684868
21
2.7344907716
31
0.0000000000
11
-28.1069201671
21
2.1103795287
31
0.0000000000
11
-28.0920034526
21
1.4400638856
31
0.0000000000
11
-28.0770599072
21
0.7333908238
31
0.0000000000
11
-28.0619291072
21
-0.0003236588
31
0.0000000000
11
-28.0467979621
21
-0.7340466196
31
0.0000000000
11
-28.0318534990
21
-1.4407378291
31
0.0000000000
11
-28.0170398944
21
-2.1065361966
31
0.0000000000
11
-28.0020545159
21
-2.7285206994
31
0.0000000000
11
-27.9870082596
21
-3.2855490422
31
0.0000000000
11
-27.9720891166
21
-3.7575346237
31
0.0000000000
11
-27.9571515931
21
-4.1383982161
31
0.0000000000
11
-27.9420259324
21
-4.4210538681
31
0.0000000000
11
-27.9268904948
21
-4.5930950299
31
0.0000000000
11
-27.9159860728
21
-4.6494975338
31
0.0000000000
0
SPLINE
5
374
100
AcDbEntity
8
0
100
AcDbSpline
62
7
6
CONTINUOUS
70
0
71
3
72
15
73
11
74
9
42
0.0000001000
43
0.0000001000
44
0.0000000001
12
-0.0692584513
22
2.8970567968
32
0.0000000000
13
-2.3249249365
23
1.5392496263
33
0.0000000000
40
0.0000000000
40
0.0000000000
40
0.0000000000
40
0.0000000000
40
0.2206611273
40
0.4231242282
40
0.6018813448
40
0.7520727571
40
0.8696226827
40
0.9513612831
40
0.9951702533
40
1.0000000000
40
1.0000000000
40
1.0000000000
40
1.0000000000
10
-40.9517433750
20
1.2978713765
30
0.0000000000
10
-40.9568375910
20
1.5109606494
30
0.0000000000
10
-40.9666952160
20
1.9196166566
30
0.0000000000
10
-40.9828132261
20
2.5005762456
30
0.0000000000
10
-40.9962946130
20
3.0143634734
30
0.0000000000
10
-41.0170611872
20
3.4434113699
30
0.0000000000
10
-41.0178435002
20
3.7857912560
30
0.0000000000
10
-41.0629225233
20
4.0090977003
30
0.0000000000
10
-41.0293942542
20
4.1510143465
30
0.0000000000
10
-41.0696541696
20
4.1860939991
30
0.0000000000
10
-41.0733971025
20
4.1885720610
30
0.0000000000
11
-40.9517433750
21
1.2978713765
31
0.0000000000
11
-40.9675198902
21
1.9371271976
31
0.0000000000
11
-40.9832964053
21
2.5236297376
31
0.0000000000
11
-40.9990729205
21
3.0414069254
31
0.0000000000
11
-41.0148494356
21
3.4763582693
31
0.0000000000
11
-41.0306259508
21
3.8166388527
31
0.0000000000
11
-41.0464024659
21
4.0529819028
31
0.0000000000
11
-41.0621789811
21
4.1789511509
31
0.0000000000
11
-41.0733971025
21
4.1885720610
31
0.0000000000
0
SPLINE
5
375
100
AcDbEntity
8
0
100
AcDbSpline
62
7
6
CONTINUOUS
70
0
71
3
72
8
73
4
74
2
42
0.0000001000
43
0.0000001000
44
0.0000000001
12
0.0412950570
22
0.0169019832
32
0.0000000000
13
-0.0035756611
23
-0.0817222674
33
0.0000000000
40
0.0000000000
40
0.0000000000
40
0.0000000000
40
0.0000000000
40
1.0000000000
40
1.0000000000
40
1.0000000000
40
1.0000000000
10
-47.7748287859
20
4.3823715752
30
0.0000000000
10
-47.7610637670
20
4.3880055697
30
0.0000000000
10
-47.7635117134
20
4.3557628608
30
0.0000000000
10
-47.7647036004
20
4.3285221050
30
0.0000000000
11
-47.7748287859
21
4.3823715752
31
0.0000000000
11
-47.7647036004
21
4.3285221050
31
0.0000000000
0
SPLINE
5
376
100
AcDbEntity
8
0
100
AcDbSpline
62
7
6
CONTINUOUS
70
0
71
3
72
25
73
21
74
19
42
0.0000001000
43
0.0000001000
44
0.0000000001
12
-0.6053923094
22
-13.8363316381
32
0.0000000000
13
7.5804222181
23
-4.4775282416
33
0.0000000000
40
0.0000000000
40
0.0000000000
40
0.0000000000
40
0.0000000000
40
0.0194674069
40
0.0516199439
40
0.0957383023
40
0.1513633408
40
0.2171545388
40
0.2904428054
40
0.3683243965
40
0.4499839833
40
0.5326594726
40
0.6142246078
40
0.6928081283
40
0.7671796989
40
0.8342909974
40
0.8914160282
40
0.9372746999
40
0.9713288700
40
0.9923456278
40
1.0000000000
40
1.0000000000
40
1.0000000000
40
1.0000000000
10
-47.7647036004
20
4.3285221050
30
0.0000000000
10
-47.7686320732
20
4.2387362723
30
0.0000000000
10
-47.7428664835
20
4.1447469018
30
0.0000000000
10
-47.7426397860
20
3.8260247130
30
0.0000000000
10
-47.7266737626
20
3.4532248586
30
0.0000000000
10
-47.7168314117
20
2.9593961121
30
0.0000000000
10
-47.7045121647
20
2.3876213154
30
0.0000000000
10
-47.6929901220
20
1.7475071185
30
0.0000000000
10
-47.6812490056
20
1.0614561491
30
0.0000000000
10
-47.6696246425
20
0.3474773164
30
0.0000000000
10
-47.6579802680
20
-0.3772847425
30
0.0000000000
10
-47.6463875123
20
-1.0930189893
30
0.0000000000
10
-47.6346705175
20
-1.7841895005
30
0.0000000000
10
-47.6232114422
20
-2.4330076161
30
0.0000000000
10
-47.6107800158
20
-3.0177143827
30
0.0000000000
10
-47.6013979787
20
-3.5208799222
30
0.0000000000
10
-47.5842043359
20
-3.9196234504
30
0.0000000000
10
-47.5871457452
20
-4.2289651815
30
0.0000000000
10
-47.5516380596
20
-4.3916038005
30
0.0000000000
10
-47.5711219305
20
-4.4998612169
30
0.0000000000
10
-47.5517808062
20
-4.5112854395
30
0.0000000000
11
-47.7647036004
21
4.3285221050
31
0.0000000000
11
-47.7528453126
21
4.1567703764
31
0.0000000000
11
-47.7410594848
21
3.8726727944
31
0.0000000000
11
-47.7292685808
21
3.4826889461
31
0.0000000000
11
-47.7173386876
21
2.9909118967
31
0.0000000000
11
-47.7053028744
21
2.4092099243
31
0.0000000000
11
-47.6933292275
21
1.7611935075
31
0.0000000000
11
-47.6815321502
21
1.0725463121
31
0.0000000000
11
-47.6696992664
21
0.3504842064
31
0.0000000000
11
-47.6579115699
21
-0.3805639852
31
0.0000000000
11
-47.6461529352
21
-1.1017919071
31
0.0000000000
11
-47.6343749160
21
-1.7966478624
31
0.0000000000
11
-47.6224220528
21
-2.4542465018
31
0.0000000000
11
-47.6104244940
21
-3.0476260470
31
0.0000000000
11
-47.5985486636
21
-3.5526733989
31
0.0000000000
11
-47.5867920334
21
-3.9580555219
31
0.0000000000
11
-47.5749914062
21
-4.2589833305
31
0.0000000000
11
-47.5632641341
21
-4.4444753276
31
0.0000000000
11
-47.5517808062
21
-4.5112854395
31
0.0000000000
0
SPLINE
5
377
100
AcDbEntity
8
0
100
AcDbSpline
62
7
6
CONTINUOUS
70
0
71
3
72
27
73
23
74
21
42
0.0000001000
43
0.0000001000
44
0.0000000001
12
0.3864813086
22
-11.5557415905
32
0.0000000000
13
7.7033553757
23
-2.0792501358
33
0.0000000000
40
0.0000000000
40
0.0000000000
40
0.0000000000
40
0.0000000000
40
0.0024262216
40
0.0210072692
40
0.0514662489
40
0.0924855495
40
0.1431648220
40
0.2032627085
40
0.2707603531
40
0.3430922268
40
0.4192591392
40
0.4983314849
40
0.5774043923
40
0.6535707200
40
0.7256095168
40
0.7930018944
40
0.8532023840
40
0.9040847974
40
0.9451061365
40
0.9755647367
40
0.9941471599
40
1.0000000000
40
1.0000000000
40
1.0000000000
40
1.0000000000
10
-28.7959783032
20
4.6234223462
30
0.0000000000
10
-28.7956657401
20
4.6140767495
30
0.0000000000
10
-28.8026253773
20
4.5214599561
30
0.0000000000
10
-28.7700333176
20
4.4008948285
30
0.0000000000
10
-28.7684434660
20
4.1003041086
30
0.0000000000
10
-28.7489139517
20
3.7327529123
30
0.0000000000
10
-28.7362935137
20
3.2604748972
30
0.0000000000
10
-28.7209300852
20
2.7111283311
30
0.0000000000
10
-28.7063846543
20
2.0932603612
30
0.0000000000
10
-28.6915675329
20
1.4262428200
30
0.0000000000
10
-28.6767931501
20
0.7233089283
30
0.0000000000
10
-28.6619273019
20
-0.0004133043
30
0.0000000000
10
-28.6470612792
20
-0.7241337272
30
0.0000000000
10
-28.6323053167
20
-1.4261622612
30
0.0000000000
10
-28.6175159192
20
-2.0919481764
30
0.0000000000
10
-28.6029967848
20
-2.7089020774
30
0.0000000000
10
-28.5876235805
20
-3.2588651967
30
0.0000000000
10
-28.5749885806
20
-3.7321084331
30
0.0000000000
10
-28.5554292571
20
-4.1002810351
30
0.0000000000
10
-28.5538391935
20
-4.4008801221
30
0.0000000000
10
-28.5190757558
20
-4.5294744037
30
0.0000000000
10
-28.5310168561
20
-4.6454389986
30
0.0000000000
10
-28.5159880204
20
-4.6494955048
30
0.0000000000
11
-28.7959783032
21
4.6234223462
31
0.0000000000
11
-28.7970030520
21
4.5932622883
31
0.0000000000
11
-28.7818893770
21
4.4217144247
31
0.0000000000
11
-28.7667839768
21
4.1398197804
31
0.0000000000
11
-28.7518662481
21
3.7599386336
31
0.0000000000
11
-28.7370061498
21
3.2904695361
31
0.0000000000
11
-28.7219477901
21
2.7336755654
31
0.0000000000
11
-28.7068717285
21
2.1082774630
31
0.0000000000
11
-28.6919601559
21
1.4380590677
31
0.0000000000
11
-28.6770369888
21
0.7322887651
31
0.0000000000
11
-28.6619273018
21
-0.0004115689
31
0.0000000000
11
-28.6468172929
21
-0.7331171028
31
0.0000000000
11
-28.6318935809
21
-1.4388819735
31
0.0000000000
11
-28.6170433824
21
-2.1063847751
31
0.0000000000
11
-28.6019965031
21
-2.7308076646
31
0.0000000000
11
-28.5869210593
21
-3.2885524635
31
0.0000000000
11
-28.5720064850
21
-3.7599035251
31
0.0000000000
11
-28.5570882624
21
-4.1398035602
31
0.0000000000
11
-28.5419834387
21
-4.4216947133
31
0.0000000000
11
-28.5268693718
21
-4.5932553410
31
0.0000000000
11
-28.5159880204
21
-4.6494955048
31
0.0000000000
0
SPLINE
5
378
100
AcDbEntity
8
0
100
AcDbSpline
62
7
6
CONTINUOUS
70
0
71
3
72
8
73
4
74
2
42
0.0000001000
43
0.0000001000
44
0.0000000001
12
-0.0348833198
22
0.0000000000
32
0.0000000000
13
-0.0021104883
23
0.0426800990
33
0.0000000000
40
0.0000000000
40
0.0000000000
40
0.0000000000
40
0.0000000000
40
1.0000000000
40
1.0000000000
40
1.0000000000
40
1.0000000000
10
-28.4315509961
20
-4.6500000000
30
0.0000000000
10
-28.4431787694
20
-4.6500000000
30
0.0000000000
10
-28.4467691985
20
-4.6393039517
30
0.0000000000
10
-28.4474726946
20
-4.6250772521
30
0.0000000000
11
-28.4315509961
21
-4.6500000000
31
0.0000000000
11
-28.4474726946
21
-4.6250772521
31
0.0000000000
0
SPLINE
5
379
100
AcDbEntity
8
0
100
AcDbSpline
62
7
6
CONTINUOUS
70
0
71
3
72
27
73
23
74
21
42
0.0000001000
43
0.0000001000
44
0.0000000001
12
-0.5608156985
22
11.3412947548
32
0.0000000000
13
-7.7086806557
23
2.0731267111
33
0.0000000000
40
0.0000000000
40
0.0000000000
40
0.0000000000
40
0.0000000000
40
0.0025841721
40
0.0212158310
40
0.0517526349
40
0.0928721697
40
0.1438158781
40
0.2039305724
40
0.2710503555
40
0.3428951265
40
0.4191507270
40
0.4983223249
40
0.5774930074
40
0.6537466485
40
0.7260788746
40
0.7934281895
40
0.8532807216
40
0.9038483462
40
0.9449635436
40
0.9755007996
40
0.9941310833
40
1.0000000000
40
1.0000000000
40
1.0000000000
40
1.0000000000
10
-28.4474726946
20
-4.6250772521
30
0.0000000000
10
-28.4479557760
20
-4.6153079664
30
0.0000000000
10
-28.4407456729
20
-4.5214347868
30
0.0000000000
10
-28.4735353590
20
-4.4001913192
30
0.0000000000
10
-28.4750950897
20
-4.0987899257
30
0.0000000000
10
-28.4946848951
20
-3.7298530948
30
0.0000000000
10
-28.5073113074
20
-3.2563135912
30
0.0000000000
10
-28.5226525453
20
-2.7071872258
30
0.0000000000
10
-28.5371323602
20
-2.0918553417
30
0.0000000000
10
-28.5518995179
20
-1.4271411778
30
0.0000000000
10
-28.5666580627
20
-0.7250328892
30
0.0000000000
10
-28.5815443204
20
-0.0003264864
30
0.0000000000
10
-28.5964302818
20
0.7243738656
30
0.0000000000
10
-28.6112198200
20
1.4279791755
30
0.0000000000
10
-28.6260376139
20
2.0949011957
30
0.0000000000
10
-28.6405602279
20
2.7116392010
30
0.0000000000
10
-28.6558810219
20
3.2595091068
30
0.0000000000
10
-28.6684740702
20
3.7310354336
30
0.0000000000
10
-28.6880086089
20
4.0988193849
30
0.0000000000
10
-28.6895675310
20
4.4002059706
30
0.0000000000
10
-28.7244370880
20
4.5291428912
30
0.0000000000
10
-28.7124200596
20
4.6454417786
30
0.0000000000
10
-28.7275005945
20
4.6494974479
30
0.0000000000
11
-28.4474726946
21
-4.6250772521
31
0.0000000000
11
-28.4465057371
21
-4.5930950299
31
0.0000000000
11
-28.4616411747
21
-4.4210538681
31
0.0000000000
11
-28.4767668354
21
-4.1383982161
31
0.0000000000
11
-28.4917043589
21
-3.7575346237
31
0.0000000000
11
-28.5066235019
21
-3.2855490422
31
0.0000000000
11
-28.5216697582
21
-2.7285206994
31
0.0000000000
11
-28.5366551366
21
-2.1065361966
31
0.0000000000
11
-28.5514687413
21
-1.4407378291
31
0.0000000000
11
-28.5664132044
21
-0.7340466196
31
0.0000000000
11
-28.5815443494
21
-0.0003236588
31
0.0000000000
11
-28.5966751495
21
0.7333908238
31
0.0000000000
11
-28.6116186949
21
1.4400638856
31
0.0000000000
11
-28.6265354094
21
2.1103795287
31
0.0000000000
11
-28.6415837291
21
2.7344907716
31
0.0000000000
11
-28.6565812895
21
3.2890894371
31
0.0000000000
11
-28.6713995767
21
3.7575903670
31
0.0000000000
11
-28.6863358574
21
4.1384137710
31
0.0000000000
11
-28.7014621243
21
4.4210735875
31
0.0000000000
11
-28.7165971713
21
4.5931019873
31
0.0000000000
11
-28.7275005945
21
4.6494974479
31
0.0000000000
0
SPLINE
5
37A
100
AcDbEntity
8
0
100
AcDbSpline
62
7
6
CONTINUOUS
70
0
71
3
72
8
73
4
74
2
42
0.0000001000
43
0.0000001000
44
0.0000000001
12
0.0282526940
22
0.0230521725
32
0.0000000000
13
0.0068130057
23
-0.0882484480
33
0.0000000000
40
0.0000000000
40
0.0000000000
40
0.0000000000
40
0.0000000000
40
1.0000000000
40
1.0000000000
40
1.0000000000
40
1.0000000000
10
-47.3224020738
20
4.6379060928
30
0.0000000000
10
-47.3129845091
20
4.6455901504
30
0.0000000000
10
-47.3137938616
20
4.5775174365
30
0.0000000000
10
-47.3115228597
20
4.5481012871
30
0.0000000000
11
-47.3224020738
21
4.6379060928
31
0.0000000000
11
-47.3115228597
21
4.5481012871
31
0.0000000000
0
SPLINE
5
37B
100
AcDbEntity
8
0
100
AcDbSpline
62
7
6
CONTINUOUS
70
0
71
3
72
15
73
11
74
9
42
0.0000001000
43
0.0000001000
44
0.0000000001
12
-2.3008256897
22
-1.1859529508
32
0.0000000000
13
-0.0802453918
23
3.4776848373
33
0.0000000000
40
0.0000000000
40
0.0000000000
40
0.0000000000
40
0.0000000000
40
0.0295590397
40
0.0918087243
40
0.1850355974
40
0.3066747884
40
0.4533506173
40
0.6209834775
40
0.8049071101
40
1.0000000000
40
1.0000000000
40
1.0000000000
40
1.0000000000
10
-46.1779680102
20
-4.1919628231
30
0.0000000000
10
-46.2006380762
20
-4.2036480332
30
0.0000000000
10
-46.1843326658
20
-4.0067701450
30
0.0000000000
10
-46.2199859480
20
-3.8621149470
30
0.0000000000
10
-46.2245151482
20
-3.5071146118
30
0.0000000000
10
-46.2441082692
20
-3.1017772134
30
0.0000000000
10
-46.2581671889
20
-2.5916759377
30
0.0000000000
10
-46.2743046533
20
-2.0157608123
30
0.0000000000
10
-46.2898460998
20
-1.3815934374
30
0.0000000000
10
-46.3001613035
20
-0.9423504041
30
0.0000000000
10
-46.3053797386
20
-0.7161932091
30
0.0000000000
11
-46.1779680102
21
-4.1919628231
31
0.0000000000
11
-46.1936625669
21
-4.0898415154
31
0.0000000000
11
-46.2096221629
21
-3.8738880352
31
0.0000000000
11
-46.2255817588
21
-3.5499809974
31
0.0000000000
11
-46.2415413548
21
-3.1271467126
31
0.0000000000
11
-46.2575009508
21
-2.6171682951
31
0.0000000000
11
-46.2734605467
21
-2.0342573030
31
0.0000000000
11
-46.2894201427
21
-1.3946577047
31
0.0000000000
11
-46.3053797386
21
-0.7161932091
31
0.0000000000
0
SPLINE
5
37C
100
AcDbEntity
8
0
100
AcDbSpline
62
7
6
CONTINUOUS
70
0
71
3
72
9
73
5
74
3
42
0.0000001000
43
0.0000001000
44
0.0000000001
12
0.0601881185
22
-0.1165185963
32
0.0000000000
13
0.0144358779
23
-0.2158763802
33
0.0000000000
40
0.0000000000
40
0.0000000000
40
0.0000000000
40
0.0000000000
40
0.2168204800
40
1.0000000000
40
1.0000000000
40
1.0000000000
40
1.0000000000
10
-27.5286567085
20
4.6468024534
30
0.0000000000
10
-27.5243067029
20
4.6383812474
30
0.0000000000
10
-27.5045895629
20
4.5296388769
30
0.0000000000
10
-27.5055120030
20
4.4816552960
30
0.0000000000
10
-27.5017433750
20
4.4252986427
30
0.0000000000
11
-27.5286567085
21
4.6468024534
31
0.0000000000
11
-27.5167268332
21
4.5940824402
31
0.0000000000
11
-27.5017433750
21
4.4252986427
31
0.0000000000
0
SPLINE
5
37D
100
AcDbEntity
8
0
100
AcDbSpline
62
7
6
CONTINUOUS
70
0
71
3
72
26
73
22
74
20
42
0.0000001000
43
0.0000001000
44
0.0000000001
12
-2.4674536405
22
4.7706157259
32
0.0000000000
13
-3.1863691758
23
5.2408314835
33
0.0000000000
40
0.0000000000
40
0.0000000000
40
0.0000000000
40
0.0000000000
40
0.0054399284
40
0.0258322551
40
0.0593923569
40
0.1052070359
40
0.1620074775
40
0.2282148301
40
0.3019865822
40
0.3812687198
40
0.4638533178
40
0.5474402537
40
0.6297014274
40
0.7083457443
40
0.7811830894
40
0.8461855589
40
0.9015443633
40
0.9457211607
40
0.9774937589
40
0.9960033326
40
1.0000000000
40
1.0000000000
40
1.0000000000
40
1.0000000000
10
-45.5745822314
20
-4.1962713094
30
0.0000000000
10
-45.5790564884
20
-4.1876207068
30
0.0000000000
10
-45.6005906090
20
-4.0814144270
30
0.0000000000
10
-45.6019802070
20
-3.9526968658
30
0.0000000000
10
-45.6235412363
20
-3.6529309688
30
0.0000000000
10
-45.6359288035
20
-3.2814555738
30
0.0000000000
10
-45.6525015823
20
-2.8062406116
30
0.0000000000
10
-45.6677537057
20
-2.2572974449
30
0.0000000000
10
-45.6835475472
20
-1.6439706106
30
0.0000000000
10
-45.6992279918
20
-0.9852983540
30
0.0000000000
10
-45.7149728635
20
-0.2990306971
30
0.0000000000
10
-45.7307037579
20
0.3955234379
30
0.0000000000
10
-45.7464554737
20
1.0790932027
30
0.0000000000
10
-45.7621003709
20
1.7324973225
30
0.0000000000
10
-45.7779921648
20
2.3379382796
30
0.0000000000
10
-45.7929062616
20
2.8772410462
30
0.0000000000
10
-45.8103977848
20
3.3393291564
30
0.0000000000
10
-45.8202870988
20
3.7003529560
30
0.0000000000
10
-45.8471434782
20
3.9774856060
30
0.0000000000
10
-45.8399660590
20
4.1066678914
30
0.0000000000
10
-45.8672455579
20
4.1876336129
30
0.0000000000
10
-45.8714905106
20
4.1946155664
30
0.0000000000
11
-45.5745822314
21
-4.1962713094
31
0.0000000000
11
-45.5871979205
21
-4.1451166169
31
0.0000000000
11
-45.6031575164
21
-3.9747800965
31
0.0000000000
11
-45.6191171124
21
-3.6936784614
31
0.0000000000
11
-45.6350767083
21
-3.3096451651
31
0.0000000000
11
-45.6510363043
21
-2.8333820556
31
0.0000000000
11
-45.6669959003
21
-2.2781611470
31
0.0000000000
11
-45.6829554962
21
-1.6594547689
31
0.0000000000
11
-45.6989150922
21
-0.9945043991
31
0.0000000000
11
-45.7148746881
21
-0.3018401958
31
0.0000000000
11
-45.7308342841
21
0.3992353819
31
0.0000000000
11
-45.7467938801
21
1.0891854756
31
0.0000000000
11
-45.7627534760
21
1.7487832601
31
0.0000000000
11
-45.7787130720
21
2.3596477378
31
0.0000000000
11
-45.7946726679
21
2.9047559608
31
0.0000000000
11
-45.8106322639
21
3.3689174096
31
0.0000000000
11
-45.8265918598
21
3.7391973068
31
0.0000000000
11
-45.8425514558
21
4.0052770700
31
0.0000000000
11
-45.8585110518
21
4.1597418601
31
0.0000000000
11
-45.8714905106
21
4.1946155664
31
0.0000000000
0
SPLINE
5
37E
100
AcDbEntity
8
0
100
AcDbSpline
62
7
6
CONTINUOUS
70
0
71
3
72
27
73
23
74
21
42
0.0000001000
43
0.0000001000
44
0.0000000001
12
-8.3185245448
22
-0.2912523552
32
0.0000000000
13
-2.8857174046
23
5.2073855645
33
0.0000000000
40
0.0000000000
40
0.0000000000
40
0.0000000000
40
0.0000000000
40
0.0004149754
40
0.0133905982
40
0.0390645519
40
0.0768089309
40
0.1256451968
40
0.1842968019
40
0.2512272296
40
0.3246816455
40
0.4027334715
40
0.4833351983
40
0.5643722681
40
0.6437186774
40
0.7192928745
40
0.7891125141
40
0.8513466799
40
0.9043643123
40
0.9467778931
40
0.9774824841
40
0.9956964871
40
1.0000000000
40
1.0000000000
40
1.0000000000
40
1.0000000000
10
-27.5758328600
20
-4.1872974025
30
0.0000000000
10
-27.5769835209
20
-4.1873376900
30
0.0000000000
10
-27.6132578546
20
-4.1869259139
30
0.0000000000
10
-27.5752317900
20
-4.0130860800
30
0.0000000000
10
-27.6250304258
20
-3.8469194407
30
0.0000000000
10
-27.6225903167
20
-3.5109292863
30
0.0000000000
10
-27.6443030427
20
-3.1139116547
30
0.0000000000
10
-27.6570291842
20
-2.6232581349
30
0.0000000000
10
-27.6730076438
20
-2.0678892295
30
0.0000000000
10
-27.6880096519
20
-1.4569087036
30
0.0000000000
10
-27.7033513302
20
-0.8080972831
30
0.0000000000
10
-27.7186160975
20
-0.1379538233
30
0.0000000000
10
-27.7339034684
20
0.5357685858
30
0.0000000000
10
-27.7491939774
20
1.1954687874
30
0.0000000000
10
-27.7644012766
20
1.8236789859
30
0.0000000000
10
-27.7797845714
20
2.4043895809
30
0.0000000000
10
-27.7944224644
20
2.9208334576
30
0.0000000000
10
-27.8109652695
20
3.3640727097
30
0.0000000000
10
-27.8217580553
20
3.7096141746
30
0.0000000000
10
-27.8452979191
20
3.9804770422
30
0.0000000000
10
-27.8423543343
20
4.1020422860
30
0.0000000000
10
-27.8661549778
20
4.1879970179
30
0.0000000000
10
-27.8702945518
20
4.1954670349
30
0.0000000000
11
-27.5758328600
21
-4.1872974025
31
0.0000000000
11
-27.5791844524
21
-4.1872553352
31
0.0000000000
11
-27.5946726679
21
-4.0795046630
31
0.0000000000
11
-27.6101608834
21
-3.8646723126
31
0.0000000000
11
-27.6256490989
21
-3.5483973532
31
0.0000000000
11
-27.6411373144
21
-3.1389815901
31
0.0000000000
11
-27.6566255299
21
-2.6471716532
31
0.0000000000
11
-27.6721137454
21
-2.0858769120
31
0.0000000000
11
-27.6876019609
21
-1.4698306217
31
0.0000000000
11
-27.7030901763
21
-0.8152031941
31
0.0000000000
11
-27.7185783918
21
-0.1391777456
31
0.0000000000
11
-27.7340666073
21
0.5405009372
31
0.0000000000
11
-27.7495548228
21
1.2059921752
31
0.0000000000
11
-27.7650430383
21
1.8398276911
31
0.0000000000
11
-27.7805312538
21
2.4253701291
31
0.0000000000
11
-27.7960194693
21
2.9472497636
31
0.0000000000
11
-27.8115076848
21
3.3917679348
31
0.0000000000
11
-27.8269959003
21
3.7472566203
31
0.0000000000
11
-27.8424841157
21
4.0043847055
31
0.0000000000
11
-27.8579723312
21
4.1564029136
31
0.0000000000
11
-27.8702945518
21
4.1954670349
31
0.0000000000
0
SPLINE
5
37F
100
AcDbEntity
8
0
100
AcDbSpline
62
7
6
CONTINUOUS
70
0
71
3
72
26
73
22
74
20
42
0.0000001000
43
0.0000001000
44
0.0000000001
12
-7.8209278272
22
3.3557621220
32
0.0000000000
13
-3.4075843824
23
-2.8151257913
33
0.0000000000
40
0.0000000000
40
0.0000000000
40
0.0000000000
40
0.0000000000
40
0.0012444122
40
0.0161284076
40
0.0444218568
40
0.0853762561
40
0.1378616451
40
0.2004205313
40
0.2713125430
40
0.3485641423
40
0.4300241026
40
0.5134236917
40
0.5964400350
40
0.6767609548
40
0.7521495183
40
0.8205065362
40
0.8799293515
40
0.9287654982
40
0.9656604867
40
0.9896021196
40
1.0000000000
40
1.0000000000
40
1.0000000000
40
1.0000000000
10
-44.9711850934
20
-4.1866860550
30
0.0000000000
10
-44.9744292460
20
-4.1852940712
30
0.0000000000
10
-45.0175194452
20
-4.1613330301
30
0.0000000000
10
-44.9764206801
20
-4.0053363216
30
0.0000000000
10
-45.0275632484
20
-3.7924738177
30
0.0000000000
10
-45.0255932015
20
-3.4417963453
30
0.0000000000
10
-45.0476826912
20
-3.0095108008
30
0.0000000000
10
-45.0609299508
20
-2.4879770428
30
0.0000000000
10
-45.0773427895
20
-1.8989706367
30
0.0000000000
10
-45.0928147442
20
-1.2564574924
30
0.0000000000
10
-45.1086098105
20
-0.5791081878
30
0.0000000000
10
-45.1243299937
20
0.1144159647
30
0.0000000000
10
-45.1400684895
20
0.8047902231
30
0.0000000000
10
-45.1557984833
20
1.4725541642
30
0.0000000000
10
-45.1714567403
20
2.0999260773
30
0.0000000000
10
-45.1871977235
20
2.6666976069
30
0.0000000000
10
-45.2024178309
20
3.1655516387
30
0.0000000000
10
-45.2186536105
20
3.5581236659
30
0.0000000000
10
-45.2314646252
20
3.8974215583
30
0.0000000000
10
-45.2496837552
20
4.0321650153
30
0.0000000000
10
-45.2562008303
20
4.2065363901
30
0.0000000000
10
-45.2680113819
20
4.1967792764
30
0.0000000000
11
-44.9711850934
21
-4.1866860550
31
0.0000000000
11
-44.9807332740
21
-4.1814020370
31
0.0000000000
11
-44.9966928699
21
-4.0574628250
31
0.0000000000
11
-45.0126524659
21
-3.8204543805
31
0.0000000000
11
-45.0286120619
21
-3.4769814129
31
0.0000000000
11
-45.0445716578
21
-3.0366154763
31
0.0000000000
11
-45.0605312538
21
-2.5116282390
31
0.0000000000
11
-45.0764908497
21
-1.9166495097
31
0.0000000000
11
-45.0924504457
21
-1.2682595482
31
0.0000000000
11
-45.1084100417
21
-0.5845270241
31
0.0000000000
11
-45.1243696376
21
0.1154945025
31
0.0000000000
11
-45.1403292336
21
0.8122975462
31
0.0000000000
11
-45.1562888295
21
1.4864643109
31
0.0000000000
11
-45.1722484255
21
2.1192078055
31
0.0000000000
11
-45.1882080215
21
2.6928953801
31
0.0000000000
11
-45.2041676174
21
3.1915400949
31
0.0000000000
11
-45.2201272134
21
3.6012462279
31
0.0000000000
11
-45.2360868093
21
3.9105965070
31
0.0000000000
11
-45.2520464053
21
4.1109702741
31
0.0000000000
11
-45.2680113819
21
4.1967792764
31
0.0000000000
0
SPLINE
5
380
100
AcDbEntity
8
0
100
AcDbSpline
62
7
6
CONTINUOUS
70
0
71
3
72
26
73
22
74
20
42
0.0000001000
43
0.0000001000
44
0.0000000001
12
-5.7000125862
22
-2.8064208184
32
0.0000000000
13
-5.9487272432
23
4.8951217010
33
0.0000000000
40
0.0000000000
40
0.0000000000
40
0.0000000000
40
0.0000000000
40
0.0120561813
40
0.0373449920
40
0.0752018637
40
0.1246094610
40
0.1842280517
40
0.2524372617
40
0.3273816791
40
0.4070219430
40
0.4891905430
40
0.5716509959
40
0.6521588573
40
0.7285229472
40
0.7986651547
40
0.8606772529
40
0.9128733173
40
0.9538367606
40
0.9824625534
40
0.9980064914
40
1.0000000000
40
1.0000000000
40
1.0000000000
40
1.0000000000
10
-41.3778902075
20
-4.1918964476
30
0.0000000000
10
-41.4007970027
20
-4.2031746871
30
0.0000000000
10
-41.3838692661
20
-4.0107334032
30
0.0000000000
10
-41.4196956952
20
-3.8682372280
30
0.0000000000
10
-41.4239074813
20
-3.5207540479
30
0.0000000000
10
-41.4433881781
20
-3.1233646679
30
0.0000000000
10
-41.4572484294
20
-2.6231338158
30
0.0000000000
10
-41.4732168479
20
-2.0576907805
30
0.0000000000
10
-41.4885815404
20
-1.4342000897
30
0.0000000000
10
-41.5041738673
20
-0.7722711689
30
0.0000000000
10
-41.5197255891
20
-0.0891329709
30
0.0000000000
10
-41.5352782296
20
0.5963854198
30
0.0000000000
10
-41.5508774615
20
1.2656649917
30
0.0000000000
10
-41.5662419698
20
1.9005163113
30
0.0000000000
10
-41.5822636144
20
2.4834801119
30
0.0000000000
10
-41.5960107766
20
2.9992435056
30
0.0000000000
10
-41.6160511718
20
3.4321006424
30
0.0000000000
10
-41.6186834850
20
3.7748402330
30
0.0000000000
10
-41.6600075465
20
4.0073198848
30
0.0000000000
10
-41.6315355122
20
4.1438432503
30
0.0000000000
10
-41.6697383086
20
4.1865594569
30
0.0000000000
10
-41.6736912548
20
4.1898122792
30
0.0000000000
11
-41.3778902075
21
-4.1918964476
31
0.0000000000
11
-41.3934857992
21
-4.0916034492
31
0.0000000000
11
-41.4092623144
21
-3.8799751856
31
0.0000000000
11
-41.4250388295
21
-3.5626845670
31
0.0000000000
11
-41.4408153447
21
-3.1483722862
31
0.0000000000
11
-41.4565918598
21
-2.6483212017
31
0.0000000000
11
-41.4723683750
21
-2.0761490747
31
0.0000000000
11
-41.4881448902
21
-1.4474377200
31
0.0000000000
11
-41.5039214053
21
-0.7793086703
31
0.0000000000
11
-41.5196979205
21
-0.0899569103
31
0.0000000000
11
-41.5354744356
21
0.6018446229
31
0.0000000000
11
-41.5512509508
21
1.2772562780
31
0.0000000000
11
-41.5670274659
21
1.9178847451
31
0.0000000000
11
-41.5828039811
21
2.5062839557
31
0.0000000000
11
-41.5985804962
21
3.0264301872
31
0.0000000000
11
-41.6143570114
21
3.4641584325
31
0.0000000000
11
-41.6301335265
21
3.8075481523
31
0.0000000000
11
-41.6459100417
21
4.0472479035
31
0.0000000000
11
-41.6616865568
21
4.1767300052
31
0.0000000000
11
-41.6736912548
21
4.1898122792
31
0.0000000000
0
SPLINE
5
381
100
AcDbEntity
8
0
100
AcDbSpline
62
7
6
CONTINUOUS
70
0
71
3
72
11
73
7
74
5
42
0.0000001000
43
0.0000001000
44
0.0000000001
12
-0.0332021605
22
0.9135887872
32
0.0000000000
13
-0.2500136328
23
0.4592458349
33
0.0000000000
40
0.0000000000
40
0.0000000000
40
0.0000000000
40
0.0000000000
40
0.4285458766
40
0.7454068337
40
0.9419364008
40
1.0000000000
40
1.0000000000
40
1.0000000000
40
1.0000000000
10
-44.0071979205
20
3.2765573573
30
0.0000000000
10
-44.0119408035
20
3.4070622599
30
0.0000000000
10
-44.0194477407
20
3.6259144085
30
0.0000000000
10
-44.0388167516
20
3.9380234918
30
0.0000000000
10
-44.0442149198
20
4.0670094965
30
0.0000000000
10
-44.0626528452
20
4.1881269363
30
0.0000000000
10
-44.0674917424
20
4.1970154250
30
0.0000000000
11
-44.0071979205
21
3.2765573573
31
0.0000000000
11
-44.0231575164
21
3.6680053259
31
0.0000000000
11
-44.0391171124
21
3.9572370659
31
0.0000000000
11
-44.0550767083
21
4.1361925626
31
0.0000000000
11
-44.0674917424
21
4.1970154250
31
0.0000000000
0
SPLINE
5
382
100
AcDbEntity
8
0
100
AcDbSpline
62
7
6
CONTINUOUS
70
0
71
3
72
8
73
4
74
2
42
0.0000001000
43
0.0000001000
44
0.0000000001
12
-0.0350378611
22
0.0000000000
32
0.0000000000
13
-0.0020945977
23
0.0428770880
33
0.0000000000
40
0.0000000000
40
0.0000000000
40
0.0000000000
40
0.0000000000
40
1.0000000000
40
1.0000000000
40
1.0000000000
40
1.0000000000
10
-41.6315509961
20
-4.6500000000
30
0.0000000000
10
-41.6432302832
20
-4.6500000000
30
0.0000000000
10
-41.6468295895
20
-4.6392540486
30
0.0000000000
10
-41.6475277887
20
-4.6249616859
30
0.0000000000
11
-41.6315509961
21
-4.6500000000
31
0.0000000000
11
-41.6475277887
21
-4.6249616859
31
0.0000000000
0
SPLINE
5
383
100
AcDbEntity
8
0
100
AcDbSpline
62
7
6
CONTINUOUS
70
0
71
3
72
27
73
23
74
21
42
0.0000001000
43
0.0000001000
44
0.0000000001
12
-0.5541289935
22
11.3431987899
32
0.0000000000
13
-7.7155811470
23
2.0624783734
33
0.0000000000
40
0.0000000000
40
0.0000000000
40
0.0000000000
40
0.0000000000
40
0.0025951792
40
0.0213099323
40
0.0519789481
40
0.0932640233
40
0.1442417266
40
0.2039883511
40
0.2705154217
40
0.3425780481
40
0.4189912978
40
0.4983393979
40
0.5776856199
40
0.6540955869
40
0.7263590430
40
0.7932655865
40
0.8526279664
40
0.9034359581
40
0.9447200194
40
0.9753894044
40
0.9941027827
40
1.0000000000
40
1.0000000000
40
1.0000000000
40
1.0000000000
10
-41.6475277887
20
-4.6249616859
30
0.0000000000
10
-41.6480071434
20
-4.6151491413
30
0.0000000000
10
-41.6407144845
20
-4.5208483998
30
0.0000000000
10
-41.6736645235
20
-4.3990914452
30
0.0000000000
10
-41.6751754388
20
-4.0964122019
30
0.0000000000
10
-41.6948028536
20
-3.7264896605
30
0.0000000000
10
-41.7073920938
20
-3.2534827440
30
0.0000000000
10
-41.7226456148
20
-2.7072166209
30
0.0000000000
10
-41.7370783756
20
-2.0941941066
30
0.0000000000
10
-41.7518352822
20
-1.4301619062
30
0.0000000000
10
-41.7666308471
20
-0.7263599952
30
0.0000000000
10
-41.7815491318
20
-0.0000910940
30
0.0000000000
10
-41.7964671703
20
0.7261676666
30
0.0000000000
10
-41.8112752778
20
1.4305740509
30
0.0000000000
10
-41.8260726101
20
2.0963881379
30
0.0000000000
10
-41.8405251466
20
2.7100177413
30
0.0000000000
10
-41.8557734843
20
3.2557512071
30
0.0000000000
10
-41.8683247704
20
3.7270270649
30
0.0000000000
10
-41.8879276788
20
4.0964320677
30
0.0000000000
10
-41.8894384852
20
4.3991061841
30
0.0000000000
10
-41.9244803046
20
4.5285959774
30
0.0000000000
10
-41.9123368651
20
4.6454463633
30
0.0000000000
10
-41.9275036847
20
4.6495006577
30
0.0000000000
11
-41.6475277887
21
-4.6249616859
31
0.0000000000
11
-41.6465394089
21
-4.5928390157
31
0.0000000000
11
-41.6617089118
21
-4.4200305207
31
0.0000000000
11
-41.6768677965
21
-4.1361540692
31
0.0000000000
11
-41.6918357405
21
-3.7537623540
31
0.0000000000
11
-41.7067418360
21
-3.2814689086
31
0.0000000000
11
-41.7216865121
21
-2.7278600432
31
0.0000000000
11
-41.7365435617
21
-2.1113783778
31
0.0000000000
11
-41.7514075136
21
-1.4435722773
31
0.0000000000
11
-41.7663843959
21
-0.7354318207
31
0.0000000000
11
-41.7815492446
21
-0.0000852922
31
0.0000000000
11
-41.7967136867
21
0.7352438317
31
0.0000000000
11
-41.8116897604
21
1.4433538709
31
0.0000000000
11
-41.8265962963
21
2.1130210382
31
0.0000000000
11
-41.8415463640
21
2.7330189392
31
0.0000000000
11
-41.8564064905
21
3.2830671031
31
0.0000000000
11
-41.8712671472
21
3.7537880879
31
0.0000000000
11
-41.8862349300
21
4.1361704045
31
0.0000000000
11
-41.9013943851
21
4.4200502525
31
0.0000000000
11
-41.9165634995
21
4.5928459893
31
0.0000000000
11
-41.9275036847
21
4.6495006577
31
0.0000000000
0
SPLINE
5
384
100
AcDbEntity
8
0
100
AcDbSpline
62
7
6
CONTINUOUS
70
0
71
3
72
26
73
22
74
20
42
0.0000001000
43
0.0000001000
44
0.0000000001
12
-2.8305778798
22
-2.0799230407
32
0.0000000000
13
-5.8664152373
23
4.9088712952
33
0.0000000000
40
0.0000000000
40
0.0000000000
40
0.0000000000
40
0.0000000000
40
0.0093771879
40
0.0322947210
40
0.0682215138
40
0.1161737983
40
0.1748220877
40
0.2425356379
40
0.3174297861
40
0.3974191519
40
0.4802760567
40
0.5636927714
40
0.6453459410
40
0.7229614374
40
0.7943778689
40
0.8576070347
40
0.9108897837
40
0.9527461574
40
0.9820202671
40
0.9979316027
40
1.0000000000
40
1.0000000000
40
1.0000000000
40
1.0000000000
10
-44.3742177931
20
-4.1984947239
30
0.0000000000
10
-44.3830654134
20
-4.2049960003
30
0.0000000000
10
-44.3965024976
20
-4.0476312231
30
0.0000000000
10
-44.4088409073
20
-3.9143268389
30
0.0000000000
10
-44.4245632272
20
-3.5857673215
30
0.0000000000
10
-44.4395674368
20
-3.1993834335
30
0.0000000000
10
-44.4552153324
20
-2.7070914529
30
0.0000000000
10
-44.4708052700
20
-2.1453340687
30
0.0000000000
10
-44.4865056135
20
-1.5218391161
30
0.0000000000
10
-44.5022208522
20
-0.8565426364
30
0.0000000000
10
-44.5179610192
20
-0.1672009475
30
0.0000000000
10
-44.5336859522
20
0.5267529819
30
0.0000000000
10
-44.5494629102
20
1.2060309499
30
0.0000000000
10
-44.5650040961
20
1.8517372503
30
0.0000000000
10
-44.5812052541
20
2.4457177566
30
0.0000000000
10
-44.5951186188
20
2.9719514656
30
0.0000000000
10
-44.6153724741
20
3.4142041933
30
0.0000000000
10
-44.6180622789
20
3.7644873363
30
0.0000000000
10
-44.6598348473
20
4.0027956938
30
0.0000000000
10
-44.6310222304
20
4.1420972585
30
0.0000000000
10
-44.6698065088
20
4.1863517450
30
0.0000000000
10
-44.6738512013
20
4.1897362438
30
0.0000000000
11
-44.3742177931
21
-4.1984947239
31
0.0000000000
11
-44.3902282235
21
-4.1215574332
31
0.0000000000
11
-44.4061878194
21
-3.9297279666
31
0.0000000000
11
-44.4221474154
21
-3.6283888520
31
0.0000000000
11
-44.4381070114
21
-3.2259375005
31
0.0000000000
11
-44.4540666073
21
-2.7335890154
31
0.0000000000
11
-44.4700262033
21
-2.1650636619
31
0.0000000000
11
-44.4859857992
21
-1.5362045242
31
0.0000000000
11
-44.5019453952
21
-0.8645360068
31
0.0000000000
11
-44.5179049912
21
-0.1687754824
31
0.0000000000
11
-44.5338645871
21
0.5316883049
31
0.0000000000
11
-44.5498241831
21
1.2173355452
31
0.0000000000
11
-44.5657837790
21
1.8690593211
31
0.0000000000
11
-44.5817433750
21
2.4686980595
31
0.0000000000
11
-44.5977029710
21
2.9995416403
31
0.0000000000
11
-44.6136625669
21
3.4467970563
31
0.0000000000
11
-44.6296221629
21
3.7980006502
31
0.0000000000
11
-44.6455817588
21
4.0433654385
31
0.0000000000
11
-44.6615413548
21
4.1760538460
31
0.0000000000
11
-44.6738512013
21
4.1897362438
31
0.0000000000
0
SPLINE
5
385
100
AcDbEntity
8
0
100
AcDbSpline
62
7
6
CONTINUOUS
70
0
71
3
72
8
73
4
74
2
42
0.0000001000
43
0.0000001000
44
0.0000000001
12
0.0350110538
22
0.0000000000
32
0.0000000000
13
0.0020974482
23
-0.0428427659
33
0.0000000000
40
0.0000000000
40
0.0000000000
40
0.0000000000
40
0.0000000000
40
1.0000000000
40
1.0000000000
40
1.0000000000
40
1.0000000000
10
-42.0119357539
20
4.6500000000
30
0.0000000000
10
-42.0002654026
20
4.6500000000
30
0.0000000000
10
-41.9966675760
20
4.6392628022
30
0.0000000000
10
-41.9959684266
20
4.6249818803
30
0.0000000000
11
-42.0119357539
21
4.6500000000
31
0.0000000000
11
-41.9959684266
21
4.6249818803
31
0.0000000000
0
SPLINE
5
386
100
AcDbEntity
8
0
100
AcDbSpline
62
7
6
CONTINUOUS
70
0
71
3
72
27
73
23
74
21
42
0.0000001000
43
0.0000001000
44
0.0000000001
12
0.5553095667
22
-11.3428298969
32
0.0000000000
13
7.7147777312
23
-2.0637317094
33
0.0000000000
40
0.0000000000
40
0.0000000000
40
0.0000000000
40
0.0000000000
40
0.0025933126
40
0.0212946594
40
0.0519449285
40
0.0932040655
40
0.1439433059
40
0.2033441241
40
0.2703646757
40
0.3426571400
40
0.4190445188
40
0.4983653726
40
0.5776878768
40
0.6540784369
40
0.7260713597
40
0.7926496148
40
0.8525027820
40
0.9034921709
40
0.9447535239
40
0.9754033907
40
0.9941061123
40
1.0000000000
40
1.0000000000
40
1.0000000000
40
1.0000000000
10
-41.9959684266
20
4.6249818803
30
0.0000000000
10
-41.9954883961
20
4.6151767124
30
0.0000000000
10
-42.0027672141
20
4.5209453647
30
0.0000000000
10
-41.9698418848
20
4.3992652853
30
0.0000000000
10
-41.9683242284
20
4.0967787755
30
0.0000000000
10
-41.9487362100
20
3.7277126721
30
0.0000000000
10
-41.9361826791
20
3.2566098359
30
0.0000000000
10
-41.9209238695
20
2.7106174157
30
0.0000000000
10
-41.9064579217
20
2.0964247331
30
0.0000000000
10
-41.8916528038
20
1.4302368290
30
0.0000000000
10
-41.8768461523
20
0.7258869376
30
0.0000000000
10
-41.8619327524
20
-0.0001467100
30
0.0000000000
10
-41.8470190830
20
-0.7261901849
30
0.0000000000
10
-41.8322313263
20
-1.4296296372
30
0.0000000000
10
-41.8174780869
20
-2.0935365430
30
0.0000000000
10
-41.8030408137
20
-2.7068332370
30
0.0000000000
10
-41.7877727379
20
-3.2536216395
30
0.0000000000
10
-41.7751730335
20
-3.7269243388
30
0.0000000000
10
-41.7555486389
20
-4.0967555037
30
0.0000000000
10
-41.7540305908
20
-4.3992505759
30
0.0000000000
10
-41.7190118216
20
-4.5286641182
30
0.0000000000
10
-41.7311401063
20
-4.6454458133
30
0.0000000000
10
-41.7159834286
20
-4.6495002809
30
0.0000000000
11
-41.9959684266
21
4.6249818803
31
0.0000000000
11
-41.9969531244
21
4.5928830286
31
0.0000000000
11
-41.9817889343
21
4.4201983092
31
0.0000000000
11
-41.9666342704
21
4.1364948274
31
0.0000000000
11
-41.9516711965
21
3.7543424299
31
0.0000000000
11
-41.9368257656
21
3.2842572000
31
0.0000000000
11
-41.9219522534
21
2.7338513796
31
0.0000000000
11
-41.9069758485
21
2.1127952348
31
0.0000000000
11
-41.8920637908
21
1.4428573007
31
0.0000000000
11
-41.8770924278
21
0.7349545410
31
0.0000000000
11
-41.8619328457
21
-0.0001416113
31
0.0000000000
11
-41.8467728715
21
-0.7352530583
31
0.0000000000
11
-41.8318006314
21
-1.4431852943
31
0.0000000000
11
-41.8169520811
21
-2.1103473996
31
0.0000000000
11
-41.8020853388
21
-2.7273051977
31
0.0000000000
11
-41.7871140142
21
-3.2819028851
31
0.0000000000
11
-41.7722015838
21
-3.7543058678
31
0.0000000000
11
-41.7572379579
21
-4.1364788003
31
0.0000000000
11
-41.7420838784
21
-4.4201785791
31
0.0000000000
11
-41.7269192995
21
-4.5928760574
31
0.0000000000
11
-41.7159834286
21
-4.6495002809
31
0.0000000000
0
SPLINE
5
387
100
AcDbEntity
8
0
100
AcDbSpline
62
7
6
CONTINUOUS
70
0
71
3
72
8
73
4
74
2
42
0.0000001000
43
0.0000001000
44
0.0000000001
12
0.0350334130
22
0.0000000000
32
0.0000000000
13
0.0020951454
23
-0.0428712670
33
0.0000000000
40
0.0000000000
40
0.0000000000
40
0.0000000000
40
0.0000000000
40
1.0000000000
40
1.0000000000
40
1.0000000000
40
1.0000000000
10
-41.4119357539
20
4.6500000000
30
0.0000000000
10
-41.4002579495
20
4.6500000000
30
0.0000000000
10
-41.3966588395
20
4.6392555821
30
0.0000000000
10
-41.3959604577
20
4.6249651598
30
0.0000000000
11
-41.4119357539
21
4.6500000000
31
0.0000000000
11
-41.3959604577
21
4.6249651598
31
0.0000000000
0
SPLINE
5
388
100
AcDbEntity
8
0
100
AcDbSpline
62
7
6
CONTINUOUS
70
0
71
3
72
27
73
23
74
21
42
0.0000001000
43
0.0000001000
44
0.0000000001
12
0.5543445345
22
-11.3431044344
32
0.0000000000
13
7.7157719630
23
-2.0621979408
33
0.0000000000
40
0.0000000000
40
0.0000000000
40
0.0000000000
40
0.0000000000
40
0.0025949050
40
0.0213082740
40
0.0519776438
40
0.0932616847
40
0.1440696512
40
0.2034320017
40
0.2703385122
40
0.3426019324
40
0.4190118617
40
0.4983580444
40
0.5777061052
40
0.6541193170
40
0.7261819078
40
0.7927089455
40
0.8524555404
40
0.9034332185
40
0.9447182733
40
0.9753872739
40
0.9941020177
40
1.0000000000
40
1.0000000000
40
1.0000000000
40
1.0000000000
10
-41.3959604577
20
4.6249651598
30
0.0000000000
10
-41.3954809672
20
4.6151537337
30
0.0000000000
10
-41.4027717369
20
4.5208605265
30
0.0000000000
10
-41.3698232430
20
4.3991061841
30
0.0000000000
10
-41.3683124365
20
4.0964320677
30
0.0000000000
10
-41.3487095281
20
3.7270270649
30
0.0000000000
10
-41.3361582421
20
3.2557512071
30
0.0000000000
10
-41.3209099043
20
2.7100177413
30
0.0000000000
10
-41.3064573678
20
2.0963881379
30
0.0000000000
10
-41.2916600355
20
1.4305740509
30
0.0000000000
10
-41.2768519280
20
0.7261676666
30
0.0000000000
10
-41.2619338895
20
-0.0000910940
30
0.0000000000
10
-41.2470156048
20
-0.7263599952
30
0.0000000000
10
-41.2322200400
20
-1.4301619062
30
0.0000000000
10
-41.2174631333
20
-2.0941941066
30
0.0000000000
10
-41.2030303725
20
-2.7072166209
30
0.0000000000
10
-41.1877768516
20
-3.2534827440
30
0.0000000000
10
-41.1751876113
20
-3.7264896605
30
0.0000000000
10
-41.1555601966
20
-4.0964122019
30
0.0000000000
10
-41.1540492813
20
-4.3990914452
30
0.0000000000
10
-41.1190055564
20
-4.5285849858
30
0.0000000000
10
-41.1311521453
20
-4.6454464738
30
0.0000000000
10
-41.1159829831
20
-4.6495007428
30
0.0000000000
11
-41.3959604577
21
4.6249651598
31
0.0000000000
11
-41.3969482573
21
4.5928459893
31
0.0000000000
11
-41.3817791429
21
4.4200502525
31
0.0000000000
11
-41.3666196877
21
4.1361704045
31
0.0000000000
11
-41.3516519050
21
3.7537880879
31
0.0000000000
11
-41.3367912483
21
3.2830671031
31
0.0000000000
11
-41.3219311218
21
2.7330189392
31
0.0000000000
11
-41.3069810540
21
2.1130210382
31
0.0000000000
11
-41.2920745181
21
1.4433538709
31
0.0000000000
11
-41.2770984444
21
0.7352438317
31
0.0000000000
11
-41.2619340023
21
-0.0000852922
31
0.0000000000
11
-41.2467691536
21
-0.7354318207
31
0.0000000000
11
-41.2317922713
21
-1.4435722773
31
0.0000000000
11
-41.2169283194
21
-2.1113783778
31
0.0000000000
11
-41.2020712699
21
-2.7278600432
31
0.0000000000
11
-41.1871265937
21
-3.2814689086
31
0.0000000000
11
-41.1722204982
21
-3.7537623540
31
0.0000000000
11
-41.1572525542
21
-4.1361540692
31
0.0000000000
11
-41.1420936696
21
-4.4200305207
31
0.0000000000
11
-41.1269241667
21
-4.5928390157
31
0.0000000000
11
-41.1159829831
21
-4.6495007428
31
0.0000000000
0
SPLINE
5
389
100
AcDbEntity
8
0
100
AcDbSpline
62
7
6
CONTINUOUS
70
0
71
3
72
8
73
4
74
2
42
0.0000001000
43
0.0000001000
44
0.0000000001
12
-0.0350553741
22
0.0000000000
32
0.0000000000
13
-0.0020927927
23
0.0428994121
33
0.0000000000
40
0.0000000000
40
0.0000000000
40
0.0000000000
40
0.0000000000
40
1.0000000000
40
1.0000000000
40
1.0000000000
40
1.0000000000
10
-41.0315509961
20
-4.6500000000
30
0.0000000000
10
-41.0432361208
20
-4.6500000000
30
0.0000000000
10
-41.0468364318
20
-4.6392483929
30
0.0000000000
10
-41.0475340294
20
-4.6249485889
30
0.0000000000
11
-41.0315509961
21
-4.6500000000
31
0.0000000000
11
-41.0475340294
21
-4.6249485889
31
0.0000000000
0
SPLINE
5
38A
100
AcDbEntity
8
0
100
AcDbSpline
62
7
6
CONTINUOUS
70
0
71
3
72
27
73
23
74
21
42
0.0000001000
43
0.0000001000
44
0.0000000001
12
-0.5533738535
22
11.3434135582
32
0.0000000000
13
-7.7163591021
23
2.0612783175
33
0.0000000000
40
0.0000000000
40
0.0000000000
40
0.0000000000
40
0.0000000000
40
0.0025964265
40
0.0213205953
40
0.0520046119
40
0.0933077556
40
0.1442429037
40
0.2037985494
40
0.2703933304
40
0.3425487989
40
0.4189797792
40
0.4983479790
40
0.5777139431
40
0.6541414775
40
0.7263435810
40
0.7930587098
40
0.8524935910
40
0.9033884546
40
0.9446924503
40
0.9753767819
40
0.9940995759
40
1.0000000000
40
1.0000000000
40
1.0000000000
40
1.0000000000
10
-41.0475340294
20
-4.6249485889
30
0.0000000000
10
-41.0480129609
20
-4.6151311425
30
0.0000000000
10
-41.0407109394
20
-4.5207819532
30
0.0000000000
10
-41.0736791825
20
-4.3989668014
30
0.0000000000
10
-41.0751843820
20
-4.0961447028
30
0.0000000000
10
-41.0948092991
20
-3.7262534194
30
0.0000000000
10
-41.1073800864
20
-3.2539187226
30
0.0000000000
10
-41.1226216792
20
-2.7081621211
30
0.0000000000
10
-41.1370549296
20
-2.0952347349
30
0.0000000000
10
-41.1518249013
20
-1.4306532481
30
0.0000000000
10
-41.1666290327
20
-0.7264489826
30
0.0000000000
10
-41.1815509217
20
-0.0000035960
30
0.0000000000
10
-41.1964725955
20
0.7264311454
30
0.0000000000
10
-41.2112793629
20
1.4307619269
30
0.0000000000
10
-41.2260607664
20
2.0958484368
30
0.0000000000
10
-41.2404988296
20
2.7089190498
30
0.0000000000
10
-41.2557396079
20
3.2545518062
30
0.0000000000
10
-41.2682989694
20
3.7263873112
30
0.0000000000
10
-41.2879183454
20
4.0961593503
30
0.0000000000
10
-41.2894239073
20
4.3989815844
30
0.0000000000
10
-41.3244852116
20
4.5285340055
30
0.0000000000
10
-41.3123274364
20
4.6454468804
30
0.0000000000
10
-41.3275040333
20
4.6495010191
30
0.0000000000
11
-41.0475340294
21
-4.6249485889
31
0.0000000000
11
-41.0465432199
21
-4.5928100044
31
0.0000000000
11
-41.0617165781
21
-4.4199145613
31
0.0000000000
11
-41.0768792316
21
-4.1358995993
31
0.0000000000
11
-41.0918503961
21
-3.7533411179
31
0.0000000000
11
-41.1067425935
21
-3.2814427732
31
0.0000000000
11
-41.1216422660
21
-2.7296046166
31
0.0000000000
11
-41.1365177826
21
-2.1124967422
31
0.0000000000
11
-41.1514019123
21
-1.4438315500
31
0.0000000000
11
-41.1663823932
21
-0.7355281104
31
0.0000000000
11
-41.1815510641
21
0.0000033102
31
0.0000000000
11
-41.1967193058
21
0.7355140120
31
0.0000000000
11
-41.2116990855
21
1.4437855179
31
0.0000000000
11
-41.2265931111
21
2.1128828715
31
0.0000000000
11
-41.2414978142
21
2.7311059063
31
0.0000000000
11
-41.2563704775
21
3.2818249809
31
0.0000000000
11
-41.2712519077
21
3.7533500701
31
0.0000000000
11
-41.2862235173
21
4.1359164380
31
0.0000000000
11
-41.3013867186
21
4.4199342947
31
0.0000000000
11
-41.3165596886
21
4.5928169798
31
0.0000000000
11
-41.3275040333
21
4.6495010191
31
0.0000000000
0
SPLINE
5
38B
100
AcDbEntity
8
0
100
AcDbSpline
62
7
6
CONTINUOUS
70
0
71
3
72
8
73
4
74
2
42
0.0000001000
43
0.0000001000
44
0.0000000001
12
-0.0349627578
22
0.0000000000
32
0.0000000000
13
-0.0021023284
23
0.0427813550
33
0.0000000000
40
0.0000000000
40
0.0000000000
40
0.0000000000
40
0.0000000000
40
1.0000000000
40
1.0000000000
40
1.0000000000
40
1.0000000000
10
-42.8315509961
20
-4.6500000000
30
0.0000000000
10
-42.8432052487
20
-4.6500000000
30
0.0000000000
10
-42.8468002435
20
-4.6392783010
30
0.0000000000
10
-42.8475010196
20
-4.6250178493
30
0.0000000000
11
-42.8315509961
21
-4.6500000000
31
0.0000000000
11
-42.8475010196
21
-4.6250178493
31
0.0000000000
0
SPLINE
5
38C
100
AcDbEntity
8
0
100
AcDbSpline
62
7
6
CONTINUOUS
70
0
71
3
72
27
73
23
74
21
42
0.0000001000
43
0.0000001000
44
0.0000000001
12
-0.5573733739
22
11.3422754744
32
0.0000000000
13
-7.7122357135
23
2.0676399485
33
0.0000000000
40
0.0000000000
40
0.0000000000
40
0.0000000000
40
0.0000000000
40
0.0025898302
40
0.0212642032
40
0.0518689645
40
0.0930739263
40
0.1440572571
40
0.2040539896
40
0.2708613122
40
0.3427285355
40
0.4190656652
40
0.4983279830
40
0.5775890076
40
0.6539231115
40
0.7262453524
40
0.7934328939
40
0.8530252122
40
0.9036374504
40
0.9448383247
40
0.9754435373
40
0.9941165353
40
1.0000000000
40
1.0000000000
40
1.0000000000
40
1.0000000000
10
-42.8475010196
20
-4.6250178493
30
0.0000000000
10
-42.8479821871
20
-4.6152263267
30
0.0000000000
10
-42.8407296625
20
-4.5211333596
30
0.0000000000
10
-42.8736017573
20
-4.3996259307
30
0.0000000000
10
-42.8751364929
20
-4.0975667116
30
0.0000000000
10
-42.8947488535
20
-3.7280549295
30
0.0000000000
10
-42.9073629576
20
-3.2544971924
30
0.0000000000
10
-42.9226648352
20
-2.7065781043
30
0.0000000000
10
-42.9371168056
20
-2.0925138722
30
0.0000000000
10
-42.9518716354
20
-1.4284492152
30
0.0000000000
10
-42.9666434432
20
-0.7257454353
30
0.0000000000
10
-42.9815462105
20
-0.0002340168
30
0.0000000000
10
-42.9964486662
20
0.7252680554
30
0.0000000000
10
-43.0112493889
20
1.4293641721
30
0.0000000000
10
-43.0260630292
20
2.0959986151
30
0.0000000000
10
-43.0405564882
20
2.7113953128
30
0.0000000000
10
-43.0558406184
20
3.2581012941
30
0.0000000000
10
-43.0684091969
20
3.7292207800
30
0.0000000000
10
-43.0879671984
20
4.0975953500
30
0.0000000000
10
-43.0895011325
20
4.3996405918
30
0.0000000000
10
-43.1244592824
20
4.5288617532
30
0.0000000000
10
-43.1123772971
20
4.6454441404
30
0.0000000000
10
-43.1275021861
20
4.6494991026
30
0.0000000000
11
-42.8475010196
21
-4.6250178493
31
0.0000000000
11
-42.8465230549
21
-4.5929634299
31
0.0000000000
11
-42.8616760130
21
-4.4205278219
31
0.0000000000
11
-42.8768187579
21
-4.1372446688
31
0.0000000000
11
-42.8917720315
21
-3.7555924727
31
0.0000000000
11
-42.9066903885
21
-3.2832434239
31
0.0000000000
11
-42.9217003915
21
-2.7273126743
31
0.0000000000
11
-42.9366161394
21
-2.1082289450
31
0.0000000000
11
-42.9514365485
21
-1.4422282216
31
0.0000000000
11
-42.9663977966
21
-0.7347874832
31
0.0000000000
11
-42.9815462724
21
-0.0002300219
31
0.0000000000
11
-42.9966943789
21
0.7343154575
31
0.0000000000
11
-43.0116546420
21
1.4417281631
31
0.0000000000
11
-43.0265715032
21
2.1119455217
31
0.0000000000
11
-43.0415852916
21
2.7345523101
31
0.0000000000
11
-43.0565129207
21
3.2867352433
31
0.0000000000
11
-43.0713318220
21
3.7556459137
31
0.0000000000
11
-43.0862839348
21
4.1372602385
31
0.0000000000
11
-43.1014272849
21
4.4205475477
31
0.0000000000
11
-43.1165798535
21
4.5929703957
31
0.0000000000
11
-43.1275021861
21
4.6494991026
31
0.0000000000
0
SPLINE
5
38D
100
AcDbEntity
8
0
100
AcDbSpline
62
7
6
CONTINUOUS
70
0
71
3
72
8
73
4
74
2
42
0.0000001000
43
0.0000001000
44
0.0000000001
12
0.0348841561
22
0.0000000000
32
0.0000000000
13
0.0021104912
23
-0.0426810148
33
0.0000000000
40
0.0000000000
40
0.0000000000
40
0.0000000000
40
0.0000000000
40
1.0000000000
40
1.0000000000
40
1.0000000000
40
1.0000000000
10
-43.2119357539
20
4.6500000000
30
0.0000000000
10
-43.2003077018
20
4.6500000000
30
0.0000000000
10
-43.1967171665
20
4.6393037778
30
0.0000000000
10
-43.1960136694
20
4.6250767728
30
0.0000000000
11
-43.2119357539
21
4.6500000000
31
0.0000000000
11
-43.1960136694
21
4.6250767728
31
0.0000000000
0
SPLINE
5
38E
100
AcDbEntity
8
0
100
AcDbSpline
62
7
6
CONTINUOUS
70
0
71
3
72
27
73
23
74
21
42
0.0000001000
43
0.0000001000
44
0.0000000001
12
0.5608029867
22
-11.3412654180
32
0.0000000000
13
7.7091093674
23
-2.0724788466
33
0.0000000000
40
0.0000000000
40
0.0000000000
40
0.0000000000
40
0.0000000000
40
0.0025842741
40
0.0212173846
40
0.0517591397
40
0.0928799364
40
0.1434457610
40
0.2032834052
40
0.2706237090
40
0.3429559339
40
0.4192148842
40
0.4983915307
40
0.5775691142
40
0.6538301317
40
0.7256700752
40
0.7927726125
40
0.8528814439
40
0.9038283719
40
0.9449535675
40
0.9754948683
40
0.9941293539
40
1.0000000000
40
1.0000000000
40
1.0000000000
40
1.0000000000
10
-43.1960136694
20
4.6250767728
30
0.0000000000
10
-43.1955305799
20
4.6153071267
30
0.0000000000
10
-43.2027416125
20
4.5214268896
30
0.0000000000
10
-43.1699478764
20
4.4001684301
30
0.0000000000
10
-43.1683906283
20
4.0987383094
30
0.0000000000
10
-43.1488552359
20
3.7309297053
30
0.0000000000
10
-43.1362637394
20
3.2594380364
30
0.0000000000
10
-43.1209453186
20
2.7116471498
30
0.0000000000
10
-43.1064242604
20
2.0949831148
30
0.0000000000
10
-43.0916065710
20
1.4280725755
30
0.0000000000
10
-43.0768162448
20
0.7244324949
30
0.0000000000
10
-43.0619291878
20
-0.0003211210
30
0.0000000000
10
-43.0470418305
20
-0.7250811206
30
0.0000000000
10
-43.0322828105
20
-1.4272096707
30
0.0000000000
10
-43.0175166865
20
-2.0918723530
30
0.0000000000
10
-43.0030388809
20
-2.7071177691
30
0.0000000000
10
-42.9876997787
20
-3.2561829038
30
0.0000000000
10
-42.9750739923
20
-3.7297317856
30
0.0000000000
10
-42.9554826003
20
-4.0987086835
30
0.0000000000
10
-42.9539245259
20
-4.4001537800
30
0.0000000000
10
-42.9190473084
20
-4.5291132503
30
0.0000000000
10
-42.9310717844
20
-4.6454420474
30
0.0000000000
10
-42.9159859669
20
-4.6494976440
30
0.0000000000
11
-43.1960136694
21
4.6250767728
31
0.0000000000
11
-43.1969807786
21
4.5930932506
31
0.0000000000
11
-43.1818445676
21
4.4210386615
31
0.0000000000
11
-43.1667171651
21
4.1383371619
31
0.0000000000
11
-43.1517798553
21
3.7574618822
31
0.0000000000
11
-43.1369627994
21
3.2889776402
31
0.0000000000
11
-43.1219691518
21
2.7345169609
31
0.0000000000
11
-43.1069226962
21
2.1104892690
31
0.0000000000
11
-43.0920058241
21
1.4401736877
31
0.0000000000
11
-43.0770611686
21
0.7334514750
31
0.0000000000
11
-43.0619292187
21
-0.0003182257
31
0.0000000000
11
-43.0467969225
21
-0.7340966078
31
0.0000000000
11
-43.0318513361
21
-1.4408379668
31
0.0000000000
11
-43.0170386193
21
-2.1065915473
31
0.0000000000
11
-43.0020571662
21
-2.7284161955
31
0.0000000000
11
-42.9870128696
21
-3.2853901864
31
0.0000000000
11
-42.9720936147
21
-3.7574055897
31
0.0000000000
11
-42.9571550422
21
-4.1383216264
31
0.0000000000
11
-42.9420282467
21
-4.4210189416
31
0.0000000000
11
-42.9268916452
21
-4.5930862926
31
0.0000000000
11
-42.9159859669
21
-4.6494976440
31
0.0000000000
0
SPLINE
5
38F
100
AcDbEntity
8
0
100
AcDbSpline
62
7
6
CONTINUOUS
70
0
71
3
72
8
73
4
74
2
42
0.0000001000
43
0.0000001000
44
0.0000000001
12
0.0347169827
22
0.0000000000
32
0.0000000000
13
0.0021276051
23
-0.0424679356
33
0.0000000000
40
0.0000000000
40
0.0000000000
40
0.0000000000
40
0.0000000000
40
1.0000000000
40
1.0000000000
40
1.0000000000
40
1.0000000000
10
-44.4119357539
20
4.6500000000
30
0.0000000000
10
-44.4003634263
20
4.6500000000
30
0.0000000000
10
-44.3967825164
20
4.6393577544
30
0.0000000000
10
-44.3960733147
20
4.6252017759
30
0.0000000000
11
-44.4119357539
21
4.6500000000
31
0.0000000000
11
-44.3960733147
21
4.6252017759
31
0.0000000000
0
SPLINE
5
390
100
AcDbEntity
8
0
100
AcDbSpline
62
7
6
CONTINUOUS
70
0
71
3
72
27
73
23
74
21
42
0.0000001000
43
0.0000001000
44
0.0000000001
12
0.5680830447
22
-11.3391877282
32
0.0000000000
13
7.7015747409
23
-2.0841131161
33
0.0000000000
40
0.0000000000
40
0.0000000000
40
0.0000000000
40
0.0000000000
40
0.0025723646
40
0.0211155668
40
0.0515141164
40
0.0924592636
40
0.1432547632
40
0.2034753968
40
0.2710358591
40
0.3433411556
40
0.4194303358
40
0.4984163913
40
0.5774028065
40
0.6534892534
40
0.7257126090
40
0.7932312155
40
0.8534513242
40
0.9042723994
40
0.9452171571
40
0.9756154017
40
0.9941599795
40
1.0000000000
40
1.0000000000
40
1.0000000000
40
1.0000000000
10
-44.3960733147
20
4.6252017759
30
0.0000000000
10
-44.3955862091
20
4.6154789343
30
0.0000000000
10
-44.4027080608
20
4.5220613343
30
0.0000000000
10
-44.3700879378
20
4.4013586997
30
0.0000000000
10
-44.3684771065
20
4.1013016656
30
0.0000000000
10
-44.3489429381
20
3.7337416889
30
0.0000000000
10
-44.3363048657
20
3.2608699505
30
0.0000000000
10
-44.3209134117
20
2.7105085335
30
0.0000000000
10
-44.3063569339
20
2.0920508677
30
0.0000000000
10
-44.2915422223
20
1.4250560155
30
0.0000000000
10
-44.2767785755
20
0.7225997660
30
0.0000000000
10
-44.2619262839
20
-0.0004630298
30
0.0000000000
10
-44.2470739357
20
-0.7235173774
30
0.0000000000
10
-44.2323150676
20
-1.4257131349
30
0.0000000000
10
-44.2175082139
20
-2.0923172531
30
0.0000000000
10
-44.2029607298
20
-2.7103905439
30
0.0000000000
10
-44.1875714570
20
-3.2607001230
30
0.0000000000
10
-44.1749328683
20
-3.7336496054
30
0.0000000000
10
-44.1553951176
20
-4.1012853839
30
0.0000000000
10
-44.1537846804
20
-4.4013439317
30
0.0000000000
10
-44.1190938788
20
-4.5297050039
30
0.0000000000
10
-44.1309817888
20
-4.6454370423
30
0.0000000000
10
-44.1159893374
20
-4.6494941301
30
0.0000000000
11
-44.3960733147
21
4.6252017759
31
0.0000000000
11
-44.3970172907
21
4.5933702183
31
0.0000000000
11
-44.3819180228
21
4.4221459172
31
0.0000000000
11
-44.3668266995
21
4.1407667805
31
0.0000000000
11
-44.3519212164
21
3.7615128891
31
0.0000000000
11
-44.3370184552
21
3.2908929004
31
0.0000000000
11
-44.3219274290
21
2.7328734577
31
0.0000000000
11
-44.3068375581
21
2.1067942615
31
0.0000000000
11
-44.2919311569
21
1.4367161285
31
0.0000000000
11
-44.2770217212
21
0.7315545826
31
0.0000000000
11
-44.2619262679
21
-0.0004619175
31
0.0000000000
11
-44.2468305057
21
-0.7324817472
31
0.0000000000
11
-44.2319208776
21
-1.4376179468
31
0.0000000000
11
-44.2170306686
21
-2.1069366891
31
0.0000000000
11
-44.2019503085
21
-2.7326280143
31
0.0000000000
11
-44.1868603274
21
-3.2906426173
31
0.0000000000
11
-44.1719507560
21
-3.7614995856
31
0.0000000000
11
-44.1570455712
21
-4.1407498754
31
0.0000000000
11
-44.1419547937
21
-4.4221262113
31
0.0000000000
11
-44.1268551331
21
-4.5933632779
31
0.0000000000
11
-44.1159893374
21
-4.6494941301
31
0.0000000000
0
SPLINE
5
391
100
AcDbEntity
8
0
100
AcDbSpline
62
7
6
CONTINUOUS
70
0
71
3
72
12
73
8
74
6
42
0.0000001000
43
0.0000001000
44
0.0000000001
12
-0.0334981985
22
1.0204918256
32
0.0000000000
13
-0.7877841947
23
0.3241152903
33
0.0000000000
40
0.0000000000
40
0.0000000000
40
0.0000000000
40
0.0000000000
40
0.3481041883
40
0.6300972292
40
0.8366576956
40
0.9617770709
40
1.0000000000
40
1.0000000000
40
1.0000000000
40
1.0000000000
10
-44.2670055416
20
3.6276170742
30
0.0000000000
10
-44.2708924960
20
3.7460295671
30
0.0000000000
10
-44.2774404637
20
3.9624237211
30
0.0000000000
10
-44.2932563082
20
4.2397009978
30
0.0000000000
10
-44.2973866738
20
4.4647671302
30
0.0000000000
10
-44.3222725045
20
4.5610965106
30
0.0000000000
10
-44.3172329987
20
4.6450842804
30
0.0000000000
10
-44.3272701385
20
4.6492138257
30
0.0000000000
11
-44.2670055416
21
3.6276170742
31
0.0000000000
11
-44.2797643917
21
3.9828168120
31
0.0000000000
11
-44.2927008947
21
4.2704526381
31
0.0000000000
11
-44.3057234582
21
4.4809570147
31
0.0000000000
11
-44.3187138366
21
4.6080469115
31
0.0000000000
11
-44.3272701385
21
4.6492138257
31
0.0000000000
0
SPLINE
5
392
100
AcDbEntity
8
0
100
AcDbSpline
62
7
6
CONTINUOUS
70
0
71
3
72
8
73
4
74
2
42
0.0000001000
43
0.0000001000
44
0.0000000001
12
-0.0350155004
22
0.0000000000
32
0.0000000000
13
-0.0020969010
23
0.0428485850
33
0.0000000000
40
0.0000000000
40
0.0000000000
40
0.0000000000
40
0.0000000000
40
1.0000000000
40
1.0000000000
40
1.0000000000
40
1.0000000000
10
-42.2315509961
20
-4.6500000000
30
0.0000000000
10
-42.2432228296
20
-4.6500000000
30
0.0000000000
10
-42.2468208528
20
-4.6392612694
30
0.0000000000
10
-42.2475198198
20
-4.6249784078
30
0.0000000000
11
-42.2315509961
21
-4.6500000000
31
0.0000000000
11
-42.2475198198
21
-4.6249784078
31
0.0000000000
0
SPLINE
5
393
100
AcDbEntity
8
0
100
AcDbSpline
62
7
6
CONTINUOUS
70
0
71
3
72
27
73
23
74
21
42
0.0000001000
43
0.0000001000
44
0.0000000001
12
-0.5550939250
22
11.3429242825
32
0.0000000000
13
-7.7145866887
23
2.0640125268
33
0.0000000000
40
0.0000000000
40
0.0000000000
40
0.0000000000
40
0.0000000000
40
0.0025935867
40
0.0212963176
40
0.0519461996
40
0.0932075730
40
0.1441969871
40
0.2040501840
40
0.2706284720
40
0.3426214304
40
0.4190120283
40
0.4983345718
40
0.5776554648
40
0.6540428814
40
0.7263353815
40
0.7933559662
40
0.8527568138
40
0.9034960794
40
0.9447552368
40
0.9754055210
40
0.9941068771
40
1.0000000000
40
1.0000000000
40
1.0000000000
40
1.0000000000
10
-42.2475198198
20
-4.6249784078
30
0.0000000000
10
-42.2479997145
20
-4.6151721219
30
0.0000000000
10
-42.2407190077
20
-4.5209332395
30
0.0000000000
10
-42.2736458331
20
-4.3992505759
30
0.0000000000
10
-42.2751638812
20
-4.0967555037
30
0.0000000000
10
-42.2947882758
20
-3.7269243388
30
0.0000000000
10
-42.3073879801
20
-3.2536216395
30
0.0000000000
10
-42.3226560559
20
-2.7068332370
30
0.0000000000
10
-42.3370933292
20
-2.0935365430
30
0.0000000000
10
-42.3518465685
20
-1.4296296372
30
0.0000000000
10
-42.3666343253
20
-0.7261901849
30
0.0000000000
10
-42.3815479947
20
-0.0001467100
30
0.0000000000
10
-42.3964613946
20
0.7258869376
30
0.0000000000
10
-42.4112680461
20
1.4302368290
30
0.0000000000
10
-42.4260731640
20
2.0964247331
30
0.0000000000
10
-42.4405391117
20
2.7106174157
30
0.0000000000
10
-42.4557979214
20
3.2566098359
30
0.0000000000
10
-42.4683514523
20
3.7277126721
30
0.0000000000
10
-42.4879394707
20
4.0967787755
30
0.0000000000
10
-42.4894571271
20
4.3992652853
30
0.0000000000
10
-42.5244740416
20
4.5286751054
30
0.0000000000
10
-42.5123489033
20
4.6454457025
30
0.0000000000
10
-42.5275032392
20
4.6495001957
30
0.0000000000
11
-42.2475198198
21
-4.6249784078
31
0.0000000000
11
-42.2465345417
21
-4.5928760574
31
0.0000000000
11
-42.2616991207
21
-4.4201785791
31
0.0000000000
11
-42.2768532001
21
-4.1364788003
31
0.0000000000
11
-42.2918168261
21
-3.7543058678
31
0.0000000000
11
-42.3067292565
21
-3.2819028851
31
0.0000000000
11
-42.3217005811
21
-2.7273051977
31
0.0000000000
11
-42.3365673233
21
-2.1103473996
31
0.0000000000
11
-42.3514158737
21
-1.4431852943
31
0.0000000000
11
-42.3663881137
21
-0.7352530583
31
0.0000000000
11
-42.3815480880
21
-0.0001416113
31
0.0000000000
11
-42.3967076701
21
0.7349545410
31
0.0000000000
11
-42.4116790331
21
1.4428573007
31
0.0000000000
11
-42.4265910908
21
2.1127952348
31
0.0000000000
11
-42.4415674957
21
2.7338513796
31
0.0000000000
11
-42.4564410079
21
3.2842572000
31
0.0000000000
11
-42.4712864387
21
3.7543424299
31
0.0000000000
11
-42.4862495127
21
4.1364948274
31
0.0000000000
11
-42.5014041766
21
4.4201983092
31
0.0000000000
11
-42.5165683667
21
4.5928830286
31
0.0000000000
11
-42.5275032392
21
4.6495001957
31
0.0000000000
0
SPLINE
5
394
100
AcDbEntity
8
0
100
AcDbSpline
62
7
6
CONTINUOUS
70
0
71
3
72
8
73
4
74
2
42
0.0000001000
43
0.0000001000
44
0.0000000001
12
0.0349583146
22
0.0000000000
32
0.0000000000
13
0.0021028743
23
-0.0427755407
33
0.0000000000
40
0.0000000000
40
0.0000000000
40
0.0000000000
40
0.0000000000
40
1.0000000000
40
1.0000000000
40
1.0000000000
40
1.0000000000
10
-42.6119357539
20
4.6500000000
30
0.0000000000
10
-42.6002829823
20
4.6500000000
30
0.0000000000
10
-42.5966881844
20
4.6392798321
30
0.0000000000
10
-42.5959872263
20
4.6250213185
30
0.0000000000
11
-42.6119357539
21
4.6500000000
31
0.0000000000
11
-42.5959872263
21
4.6250213185
31
0.0000000000
0
SPLINE
5
395
100
AcDbEntity
8
0
100
AcDbSpline
62
7
6
CONTINUOUS
70
0
71
3
72
27
73
23
74
21
42
0.0000001000
43
0.0000001000
44
0.0000000001
12
0.5575892437
22
-11.3421810128
32
0.0000000000
13
7.7124272522
23
-2.0673582871
33
0.0000000000
40
0.0000000000
40
0.0000000000
40
0.0000000000
40
0.0000000000
40
0.0025895564
40
0.0212625451
40
0.0518677425
40
0.0930685965
40
0.1436808096
40
0.2032730985
40
0.2704606067
40
0.3427828118
40
0.4191168780
40
0.4983778634
40
0.5776401421
40
0.6539772340
40
0.7258444218
40
0.7926517113
40
0.8526484141
40
0.9036317197
40
0.9448366611
40
0.9754414073
40
0.9941157710
40
1.0000000000
40
1.0000000000
40
1.0000000000
40
1.0000000000
10
-42.5959872263
20
4.6250213185
30
0.0000000000
10
-42.5955059234
20
4.6152309129
30
0.0000000000
10
-42.6027565601
20
4.5211454810
30
0.0000000000
10
-42.5698858902
20
4.3996405918
30
0.0000000000
10
-42.5683519562
20
4.0975953500
30
0.0000000000
10
-42.5487939547
20
3.7292207800
30
0.0000000000
10
-42.5362253761
20
3.2581012941
30
0.0000000000
10
-42.5209412459
20
2.7113953128
30
0.0000000000
10
-42.5064477869
20
2.0959986151
30
0.0000000000
10
-42.4916341466
20
1.4293641721
30
0.0000000000
10
-42.4768334239
20
0.7252680554
30
0.0000000000
10
-42.4619309682
20
-0.0002340168
30
0.0000000000
10
-42.4470282009
20
-0.7257454353
30
0.0000000000
10
-42.4322563931
20
-1.4284492152
30
0.0000000000
10
-42.4175015633
20
-2.0925138722
30
0.0000000000
10
-42.4030495929
20
-2.7065781043
30
0.0000000000
10
-42.3877477153
20
-3.2544971924
30
0.0000000000
10
-42.3751336113
20
-3.7280549295
30
0.0000000000
10
-42.3555212506
20
-4.0975667116
30
0.0000000000
10
-42.3539865151
20
-4.3996259307
30
0.0000000000
10
-42.3190265844
20
-4.5288507735
30
0.0000000000
10
-42.3311117107
20
-4.6454442516
30
0.0000000000
10
-42.3159844814
20
-4.6494991881
30
0.0000000000
11
-42.5959872263
21
4.6250213185
31
0.0000000000
11
-42.5969646112
21
4.5929703957
31
0.0000000000
11
-42.5818120427
21
4.4205475477
31
0.0000000000
11
-42.5666686926
21
4.1372602385
31
0.0000000000
11
-42.5517165797
21
3.7556459137
31
0.0000000000
11
-42.5368976784
21
3.2867352433
31
0.0000000000
11
-42.5219700493
21
2.7345523101
31
0.0000000000
11
-42.5069562609
21
2.1119455217
31
0.0000000000
11
-42.4920393998
21
1.4417281631
31
0.0000000000
11
-42.4770791366
21
0.7343154575
31
0.0000000000
11
-42.4619310301
21
-0.0002300219
31
0.0000000000
11
-42.4467825543
21
-0.7347874832
31
0.0000000000
11
-42.4318213062
21
-1.4422282216
31
0.0000000000
11
-42.4170008971
21
-2.1082289450
31
0.0000000000
11
-42.4020851493
21
-2.7273126743
31
0.0000000000
11
-42.3870751463
21
-3.2832434239
31
0.0000000000
11
-42.3721567893
21
-3.7555924727
31
0.0000000000
11
-42.3572035156
21
-4.1372446688
31
0.0000000000
11
-42.3420607707
21
-4.4205278219
31
0.0000000000
11
-42.3269078127
21
-4.5929634299
31
0.0000000000
11
-42.3159844814
21
-4.6494991881
31
0.0000000000
0
SPLINE
5
396
100
AcDbEntity
8
0
100
AcDbSpline
62
7
6
CONTINUOUS
70
0
71
3
72
8
73
4
74
2
42
0.0000001000
43
0.0000001000
44
0.0000000001
12
-0.0348885938
22
0.0000000000
32
0.0000000000
13
-0.0021099471
23
0.0426868214
33
0.0000000000
40
0.0000000000
40
0.0000000000
40
0.0000000000
40
0.0000000000
40
1.0000000000
40
1.0000000000
40
1.0000000000
40
1.0000000000
10
-43.4315509961
20
-4.6500000000
30
0.0000000000
10
-43.4431805274
20
-4.6500000000
30
0.0000000000
10
-43.4467712598
20
-4.6393022488
30
0.0000000000
10
-43.4474745755
20
-4.6250733083
30
0.0000000000
11
-43.4315509961
21
-4.6500000000
31
0.0000000000
11
-43.4474745755
21
-4.6250733083
31
0.0000000000
0
SPLINE
5
397
100
AcDbEntity
8
0
100
AcDbSpline
62
7
6
CONTINUOUS
70
0
71
3
72
27
73
23
74
21
42
0.0000001000
43
0.0000001000
44
0.0000000001
12
-0.5605868150
22
11.3413599981
32
0.0000000000
13
-7.7089172115
23
2.0727615619
33
0.0000000000
40
0.0000000000
40
0.0000000000
40
0.0000000000
40
0.0000000000
40
0.0025845477
40
0.0212190426
40
0.0517603585
40
0.0928855744
40
0.1438325276
40
0.2039413887
40
0.2710439591
40
0.3428839381
40
0.4191449932
40
0.4983226159
40
0.5774993015
40
0.6537582894
40
0.7260905500
40
0.7934308872
40
0.8532685609
40
0.9038344105
40
0.9449552275
40
0.9754969977
40
0.9941301174
40
1.0000000000
40
1.0000000000
40
1.0000000000
40
1.0000000000
10
-43.4474745755
20
-4.6250733083
30
0.0000000000
10
-43.4479575299
20
-4.6153025462
30
0.0000000000
10
-43.4407446113
20
-4.5214147739
30
0.0000000000
10
-43.4735397682
20
-4.4001537800
30
0.0000000000
10
-43.4750978426
20
-4.0987086835
30
0.0000000000
10
-43.4946892346
20
-3.7297317856
30
0.0000000000
10
-43.5073150210
20
-3.2561829038
30
0.0000000000
10
-43.5226541231
20
-2.7071177691
30
0.0000000000
10
-43.5371319288
20
-2.0918723530
30
0.0000000000
10
-43.5518980527
20
-1.4272096707
30
0.0000000000
10
-43.5666570728
20
-0.7250811206
30
0.0000000000
10
-43.5815444301
20
-0.0003211210
30
0.0000000000
10
-43.5964314870
20
0.7244324949
30
0.0000000000
10
-43.6112218133
20
1.4280725755
30
0.0000000000
10
-43.6260395027
20
2.0949831148
30
0.0000000000
10
-43.6405605609
20
2.7116471498
30
0.0000000000
10
-43.6558789817
20
3.2594380364
30
0.0000000000
10
-43.6684704781
20
3.7309297053
30
0.0000000000
10
-43.6880058706
20
4.0987383094
30
0.0000000000
10
-43.6895631186
20
4.4001684301
30
0.0000000000
10
-43.7244385602
20
4.5291242253
30
0.0000000000
10
-43.7124172207
20
4.6454419357
30
0.0000000000
10
-43.7275007004
20
4.6494975581
30
0.0000000000
11
-43.4474745755
21
-4.6250733083
31
0.0000000000
11
-43.4465068875
21
-4.5930862926
31
0.0000000000
11
-43.4616434890
21
-4.4210189416
31
0.0000000000
11
-43.4767702845
21
-4.1383216264
31
0.0000000000
11
-43.4917088570
21
-3.7574055897
31
0.0000000000
11
-43.5066281118
21
-3.2853901864
31
0.0000000000
11
-43.5216724085
21
-2.7284161955
31
0.0000000000
11
-43.5366538616
21
-2.1065915473
31
0.0000000000
11
-43.5514665784
21
-1.4408379668
31
0.0000000000
11
-43.5664121648
21
-0.7340966078
31
0.0000000000
11
-43.5815444610
21
-0.0003182257
31
0.0000000000
11
-43.5966764108
21
0.7334514750
31
0.0000000000
11
-43.6116210664
21
1.4401736877
31
0.0000000000
11
-43.6265379385
21
2.1104892690
31
0.0000000000
11
-43.6415843940
21
2.7345169609
31
0.0000000000
11
-43.6565780416
21
3.2889776402
31
0.0000000000
11
-43.6713950976
21
3.7574618822
31
0.0000000000
11
-43.6863324074
21
4.1383371619
31
0.0000000000
11
-43.7014598099
21
4.4210386615
31
0.0000000000
11
-43.7165960209
21
4.5930932506
31
0.0000000000
11
-43.7275007004
21
4.6494975581
31
0.0000000000
0
SPLINE
5
398
100
AcDbEntity
8
0
100
AcDbSpline
62
7
6
CONTINUOUS
70
0
71
3
72
23
73
19
74
17
42
0.0000001000
43
0.0000001000
44
0.0000000001
12
0.2716024149
22
-8.2741179010
32
0.0000000000
13
6.8261063199
23
-1.9402854544
33
0.0000000000
40
0.0000000000
40
0.0000000000
40
0.0000000000
40
0.0000000000
40
0.0588370813
40
0.1273158004
40
0.2030890292
40
0.2834757554
40
0.3680790671
40
0.4552010024
40
0.5417234217
40
0.6246451308
40
0.7031503360
40
0.7763373780
40
0.8414947015
40
0.8964490840
40
0.9408036191
40
0.9736766868
40
0.9937101125
40
1.0000000000
40
1.0000000000
40
1.0000000000
40
1.0000000000
10
-43.7473902993
20
3.6276170742
30
0.0000000000
10
-43.7420635349
20
3.4653420916
30
0.0000000000
10
-43.7316818602
20
3.1141626481
30
0.0000000000
10
-43.7172149259
20
2.5539196077
30
0.0000000000
10
-43.7027338671
20
1.9341923517
30
0.0000000000
10
-43.6882469671
20
1.2699578112
30
0.0000000000
10
-43.6737149260
20
0.5744009582
30
0.0000000000
10
-43.6591118053
20
-0.1380927778
30
0.0000000000
10
-43.6445310278
20
-0.8459337413
30
0.0000000000
10
-43.6300596792
20
-1.5300358034
30
0.0000000000
10
-43.6155504984
20
-2.1771843586
30
0.0000000000
10
-43.6012882819
20
-2.7757891106
30
0.0000000000
10
-43.5862254873
20
-3.3078287003
30
0.0000000000
10
-43.5737686961
20
-3.7648794136
30
0.0000000000
10
-43.5547455909
20
-4.1201440565
30
0.0000000000
10
-43.5527610578
20
-4.4100226131
30
0.0000000000
10
-43.5194268084
20
-4.5340177569
30
0.0000000000
10
-43.5303266376
20
-4.6453990201
30
0.0000000000
10
-43.5160148239
20
-4.6494670791
30
0.0000000000
11
-43.7473902993
21
3.6276170742
31
0.0000000000
11
-43.7327483539
21
3.1407500357
31
0.0000000000
11
-43.7179546466
21
2.5740369193
31
0.0000000000
11
-43.7031891148
21
1.9469164064
31
0.0000000000
11
-43.6885997531
21
1.2815888483
31
0.0000000000
11
-43.6739057125
21
0.5813481885
31
0.0000000000
11
-43.6590655106
21
-0.1397445488
31
0.0000000000
11
-43.6442586408
21
-0.8558737793
31
0.0000000000
11
-43.6296537400
21
-1.5421919427
31
0.0000000000
11
-43.6150620468
21
-2.1919393027
31
0.0000000000
11
-43.6002895615
21
-2.7976435626
31
0.0000000000
11
-43.5855076276
21
-3.3368507364
31
0.0000000000
11
-43.5708926451
21
-3.7915598710
31
0.0000000000
11
-43.5562396101
21
-4.1584597070
31
0.0000000000
11
-43.5414140081
21
-4.4301977147
31
0.0000000000
11
-43.5265863328
21
-4.5953817559
31
0.0000000000
11
-43.5160148239
21
-4.6494670791
31
0.0000000000
0
SPLINE
5
399
100
AcDbEntity
8
0
100
AcDbSpline
62
7
6
CONTINUOUS
70
0
71
3
72
8
73
4
74
2
42
0.0000001000
43
0.0000001000
44
0.0000000001
12
0.0258813773
22
0.0000000000
32
0.0000000000
13
0.0029036634
23
-0.0312248057
33
0.0000000000
40
0.0000000000
40
0.0000000000
40
0.0000000000
40
0.0000000000
40
1.0000000000
40
1.0000000000
40
1.0000000000
40
1.0000000000
10
-43.8119357539
20
4.6500000000
30
0.0000000000
10
-43.8033086281
20
4.6500000000
30
0.0000000000
10
-43.8002747375
20
4.6422010989
30
0.0000000000
10
-43.7993068498
20
4.6317928303
30
0.0000000000
11
-43.8119357539
21
4.6500000000
31
0.0000000000
11
-43.7993068498
21
4.6317928303
31
0.0000000000
0
SPLINE
5
39A
100
AcDbEntity
8
0
100
AcDbSpline
62
7
6
CONTINUOUS
70
0
71
3
72
12
73
8
74
6
42
0.0000001000
43
0.0000001000
44
0.0000000001
12
0.1121919028
22
-1.2064657413
32
0.0000000000
13
0.0328080714
23
-0.9994677376
33
0.0000000000
40
0.0000000000
40
0.0000000000
40
0.0000000000
40
0.0000000000
40
0.0179916750
40
0.1457429720
40
0.3566484965
40
0.6445733411
40
1.0000000000
40
1.0000000000
40
1.0000000000
40
1.0000000000
10
-43.7993068498
20
4.6317928303
30
0.0000000000
10
-43.7986340097
20
4.6245573838
30
0.0000000000
10
-43.8012712336
20
4.5557313983
30
0.0000000000
10
-43.7777714315
20
4.4647671302
30
0.0000000000
10
-43.7736410659
20
4.2397009978
30
0.0000000000
10
-43.7578252214
20
3.9624237211
30
0.0000000000
10
-43.7512772537
20
3.7460295671
30
0.0000000000
10
-43.7473902993
20
3.6276170742
30
0.0000000000
11
-43.7993068498
21
4.6317928303
31
0.0000000000
11
-43.7990985944
21
4.6080469115
31
0.0000000000
11
-43.7861082159
21
4.4809570147
31
0.0000000000
11
-43.7730856525
21
4.2704526381
31
0.0000000000
11
-43.7601491494
21
3.9828168120
31
0.0000000000
11
-43.7473902993
21
3.6276170742
31
0.0000000000
0
SPLINE
5
39B
100
AcDbEntity
8
0
100
AcDbSpline
62
7
6
CONTINUOUS
70
0
71
3
72
8
73
4
74
2
42
0.0000001000
43
0.0000001000
44
0.0000000001
12
-0.0345016623
22
0.0000000000
32
0.0000000000
13
-0.0021515449
23
0.0421900850
33
0.0000000000
40
0.0000000000
40
0.0000000000
40
0.0000000000
40
0.0000000000
40
1.0000000000
40
1.0000000000
40
1.0000000000
40
1.0000000000
10
-45.2315509961
20
-4.6500000000
30
0.0000000000
10
-45.2430515502
20
-4.6500000000
30
0.0000000000
10
-45.2466213630
20
-4.6394294830
30
0.0000000000
10
-45.2473385447
20
-4.6253661213
30
0.0000000000
11
-45.2315509961
21
-4.6500000000
31
0.0000000000
11
-45.2473385447
21
-4.6253661213
31
0.0000000000
0
SPLINE
5
39C
100
AcDbEntity
8
0
100
AcDbSpline
62
7
6
CONTINUOUS
70
0
71
3
72
27
73
23
74
21
42
0.0000001000
43
0.0000001000
44
0.0000000001
12
-0.5780739869
22
11.3355711488
32
0.0000000000
13
-7.7036475845
23
2.0813487251
33
0.0000000000
40
0.0000000000
40
0.0000000000
40
0.0000000000
40
0.0000000000
40
0.0025579798
40
0.0210081228
40
0.0513227412
40
0.0922560612
40
0.1431398624
40
0.2034870996
40
0.2711920819
40
0.3436411236
40
0.4194648158
40
0.4982335421
40
0.5771470499
40
0.6533097266
40
0.7257541265
40
0.7934446638
40
0.8537672376
40
0.9046251973
40
0.9453555709
40
0.9756314435
40
0.9941518569
40
1.0000000000
40
1.0000000000
40
1.0000000000
40
1.0000000000
10
-45.2473385447
20
-4.6253661213
30
0.0000000000
10
-45.2478314452
20
-4.6157007339
30
0.0000000000
10
-45.2408133926
20
-4.5227713448
30
0.0000000000
10
-45.2732808371
20
-4.4024898194
30
0.0000000000
10
-45.2749420848
20
-4.1030550670
30
0.0000000000
10
-45.2944868948
20
-3.7355210255
30
0.0000000000
10
-45.3071500686
20
-3.2619980788
30
0.0000000000
10
-45.3225746693
20
-2.7105190777
30
0.0000000000
10
-45.3371598642
20
-2.0907633538
30
0.0000000000
10
-45.3519736072
20
-1.4236827089
30
0.0000000000
10
-45.3667149322
20
-0.7222573947
30
0.0000000000
10
-45.3815327392
20
-0.0008943137
30
0.0000000000
10
-45.3963714252
20
0.7215159991
30
0.0000000000
10
-45.4111434779
20
1.4244215759
30
0.0000000000
10
-45.4259816851
20
2.0924904415
30
0.0000000000
10
-45.4405670600
20
2.7121102880
30
0.0000000000
10
-45.4559923794
20
3.2633907909
30
0.0000000000
10
-45.4686381270
20
3.7361194495
30
0.0000000000
10
-45.4881395154
20
4.1028870800
30
0.0000000000
10
-45.4897674470
20
4.4017178091
30
0.0000000000
10
-45.5243896989
20
4.5297578038
30
0.0000000000
10
-45.5124808876
20
4.6454376420
30
0.0000000000
10
-45.5274982320
20
4.6494949837
30
0.0000000000
11
-45.2473385447
21
-4.6253661213
31
0.0000000000
11
-45.2464234730
21
-4.5937180996
31
0.0000000000
11
-45.2614884710
21
-4.4233526986
31
0.0000000000
11
-45.2765706594
21
-4.1427455560
31
0.0000000000
11
-45.2914928331
21
-3.7635930700
31
0.0000000000
11
-45.3064319170
21
-3.2921441503
31
0.0000000000
11
-45.3215576718
21
-2.7329384287
31
0.0000000000
11
-45.3366788864
21
-2.1055051211
31
0.0000000000
11
-45.3516125316
21
-1.4340789312
31
0.0000000000
11
-45.3664690504
21
-0.7313611874
31
0.0000000000
11
-45.3815234453
21
-0.0013415799
31
0.0000000000
11
-45.3966050496
21
0.7300198548
31
0.0000000000
11
-45.4115283288
21
1.4358792278
31
0.0000000000
11
-45.4264635835
21
2.1072623427
31
0.0000000000
11
-45.4415855298
21
2.7345616907
31
0.0000000000
11
-45.4567106363
21
3.2935387195
31
0.0000000000
11
-45.4716495551
21
3.7647479764
31
0.0000000000
11
-45.4864985641
21
4.1420206019
31
0.0000000000
11
-45.5015415187
21
4.4222701669
31
0.0000000000
11
-45.5166217058
21
4.5932881576
31
0.0000000000
11
-45.5274982320
21
4.6494949837
31
0.0000000000
0
SPLINE
5
39D
100
AcDbEntity
8
0
100
AcDbSpline
62
7
6
CONTINUOUS
70
0
71
3
72
26
73
22
74
20
42
0.0000001000
43
0.0000001000
44
0.0000000001
12
-3.2947023735
22
-2.7499260848
32
0.0000000000
13
-7.5040168506
23
3.7542675154
33
0.0000000000
40
0.0000000000
40
0.0000000000
40
0.0000000000
40
0.0000000000
40
0.0102391023
40
0.0340096759
40
0.0707427830
40
0.1194309659
40
0.1787239181
40
0.2469728148
40
0.3222780221
40
0.4025426786
40
0.4855314219
40
0.5689328441
40
0.6504240191
40
0.7277353427
40
0.7987139197
40
0.8613837916
40
0.9140014766
40
0.9551057531
40
0.9835623456
40
0.9986173642
40
1.0000000000
40
1.0000000000
40
1.0000000000
40
1.0000000000
10
-28.1752256759
20
-4.1970781049
30
0.0000000000
10
-28.1864706075
20
-4.2064636965
30
0.0000000000
10
-28.1943333798
20
-4.0347601696
30
0.0000000000
10
-28.2114531128
20
-3.9003169998
30
0.0000000000
10
-28.2248026627
20
-3.5627550781
30
0.0000000000
10
-28.2408135610
20
-3.1712319029
30
0.0000000000
10
-28.2561116506
20
-2.6734578205
30
0.0000000000
10
-28.2718253775
20
-2.1075184462
30
0.0000000000
10
-28.2874912860
20
-1.4807848011
30
0.0000000000
10
-28.3032186469
20
-0.8134249391
30
0.0000000000
10
-28.3189574804
20
-0.1232148607
30
0.0000000000
10
-28.3346784250
20
0.5703882195
30
0.0000000000
10
-28.3504705709
20
1.2480681345
30
0.0000000000
10
-28.3659537335
20
1.8911153179
30
0.0000000000
10
-28.3823325340
20
2.4809746652
30
0.0000000000
10
-28.3956865794
20
3.0032449393
30
0.0000000000
10
-28.4174841517
20
3.4373443807
30
0.0000000000
10
-28.4162480704
20
3.7875911680
30
0.0000000000
10
-28.4659482387
20
4.0054468179
30
0.0000000000
10
-28.4266356106
20
4.1577184445
30
0.0000000000
10
-28.4693299200
20
4.1854153226
30
0.0000000000
10
-28.4727883608
20
4.1871455842
30
0.0000000000
11
-28.1752256759
21
-4.1970781049
31
0.0000000000
11
-28.1912383245
21
-4.1127808446
31
0.0000000000
11
-28.2071979205
21
-3.9138289227
31
0.0000000000
11
-28.2231575164
21
-3.6058104113
31
0.0000000000
11
-28.2391171124
21
-3.1973088558
31
0.0000000000
11
-28.2550767083
21
-2.6997079607
31
0.0000000000
11
-28.2710363043
21
-2.1268743597
31
0.0000000000
11
-28.2869959003
21
-1.4947711950
31
0.0000000000
11
-28.3029554962
21
-0.8210132724
31
0.0000000000
11
-28.3189150922
21
-0.1243761899
31
0.0000000000
11
-28.3348746881
21
0.5757268812
31
0.0000000000
11
-28.3508342841
21
1.2597861834
31
0.0000000000
11
-28.3667938801
21
1.9087390500
31
0.0000000000
11
-28.3827534760
21
2.5045011250
31
0.0000000000
11
-28.3987130720
21
3.0304703191
31
0.0000000000
11
-28.4146726679
21
3.4719894596
31
0.0000000000
11
-28.4306322639
21
3.8167547417
31
0.0000000000
11
-28.4465918598
21
4.0551585984
31
0.0000000000
11
-28.4625514558
21
4.1805574345
31
0.0000000000
11
-28.4727883608
21
4.1871455842
31
0.0000000000
0
SPLINE
5
39E
100
AcDbEntity
8
0
100
AcDbSpline
62
7
6
CONTINUOUS
70
0
71
3
72
26
73
22
74
20
42
0.0000001000
43
0.0000001000
44
0.0000000001
12
-8.3323958805
22
2.3666841652
32
0.0000000000
13
-3.6623571395
23
-2.9155170913
33
0.0000000000
40
0.0000000000
40
0.0000000000
40
0.0000000000
40
0.0000000000
40
0.0009726501
40
0.0155145395
40
0.0434815000
40
0.0841358859
40
0.1363563815
40
0.1986929626
40
0.2694114878
40
0.3465432705
40
0.4279404318
40
0.5113359935
40
0.5944071945
40
0.6748403267
40
0.7503953258
40
0.8189683544
40
0.8786507160
40
0.9277826679
40
0.9650013604
40
0.9892851320
40
1.0000000000
40
1.0000000000
40
1.0000000000
40
1.0000000000
10
-41.9724513726
20
-4.1860066590
30
0.0000000000
10
-41.9751528746
20
-4.1852393404
30
0.0000000000
10
-42.0182763991
20
-4.1689901653
30
0.0000000000
10
-41.9746231830
20
-4.0044879142
30
0.0000000000
10
-42.0280062962
20
-3.8025043405
30
0.0000000000
10
-42.0248553055
20
-3.4505205268
30
0.0000000000
10
-42.0474194946
20
-3.0220512006
30
0.0000000000
10
-42.0604906501
20
-2.5019318568
30
0.0000000000
10
-42.0769595426
20
-1.9146609389
30
0.0000000000
10
-42.0924127073
20
-1.2732177501
30
0.0000000000
10
-42.1082125535
20
-0.5965407586
30
0.0000000000
10
-42.1239315188
20
0.0968168227
30
0.0000000000
10
-42.1396691763
20
0.7875098979
30
0.0000000000
10
-42.1554047400
20
1.4560734965
30
0.0000000000
10
-42.1710466591
20
2.0847120770
30
0.0000000000
10
-42.1868455242
20
2.6531448689
30
0.0000000000
10
-42.2018989705
20
3.1541385174
30
0.0000000000
10
-42.2186156997
20
3.5488399782
30
0.0000000000
10
-42.2302660892
20
3.8915176515
30
0.0000000000
10
-42.2508713321
20
4.0270185348
30
0.0000000000
10
-42.2544170367
20
4.2065482211
30
0.0000000000
10
-42.2674975944
20
4.1961350942
30
0.0000000000
11
-41.9724513726
21
-4.1860066590
31
0.0000000000
11
-41.9803292336
21
-4.1830350961
31
0.0000000000
11
-41.9962888295
21
-4.0620167898
31
0.0000000000
11
-42.0122484255
21
-3.8278023457
31
0.0000000000
11
-42.0282080215
21
-3.4869186130
31
0.0000000000
11
-42.0441676174
21
-3.0488649914
31
0.0000000000
11
-42.0601272134
21
-2.5258487123
31
0.0000000000
11
-42.0760868093
21
-1.9324446595
31
0.0000000000
11
-42.0920464053
21
-1.2851892114
31
0.0000000000
11
-42.1080060013
21
-0.6021194221
31
0.0000000000
11
-42.1239655972
21
0.0977296167
31
0.0000000000
11
-42.1399251932
21
0.7948552262
31
0.0000000000
11
-42.1558847891
21
1.4698306216
31
0.0000000000
11
-42.1718443851
21
2.1038462776
31
0.0000000000
11
-42.1878039811
21
2.6792340928
31
0.0000000000
11
-42.2037635770
21
3.1799597472
31
0.0000000000
11
-42.2197231730
21
3.5920695290
31
0.0000000000
11
-42.2356827689
21
3.9040791838
31
0.0000000000
11
-42.2516423649
21
4.1072939447
31
0.0000000000
11
-42.2674975944
21
4.1961350942
31
0.0000000000
0
SPLINE
5
39F
100
AcDbEntity
8
0
100
AcDbSpline
62
7
6
CONTINUOUS
70
0
71
3
72
8
73
4
74
2
42
0.0000001000
43
0.0000001000
44
0.0000000001
12
0.0348489129
22
0.0000000000
32
0.0000000000
13
0.0021037685
23
-0.0426535980
33
0.0000000000
40
0.0000000000
40
0.0000000000
40
0.0000000000
40
0.0000000000
40
1.0000000000
40
1.0000000000
40
1.0000000000
40
1.0000000000
10
-45.6119357539
20
4.6500000000
30
0.0000000000
10
-45.6003194495
20
4.6500000000
30
0.0000000000
10
-45.5967377485
20
4.6393039159
30
0.0000000000
10
-45.5960364924
20
4.6250860499
30
0.0000000000
11
-45.6119357539
21
4.6500000000
31
0.0000000000
11
-45.5960364924
21
4.6250860499
31
0.0000000000
0
SPLINE
5
3A0
100
AcDbEntity
8
0
100
AcDbSpline
62
7
6
CONTINUOUS
70
0
71
3
72
27
73
23
74
21
42
0.0000001000
43
0.0000001000
44
0.0000000001
12
0.5595834904
22
-11.3454734107
32
0.0000000000
13
7.6855442631
23
-2.1081829435
33
0.0000000000
40
0.0000000000
40
0.0000000000
40
0.0000000000
40
0.0000000000
40
0.0025768153
40
0.0210742275
40
0.0512220568
40
0.0918572880
40
0.1427788668
40
0.2032069094
40
0.2710356751
40
0.3436348580
40
0.4198814403
40
0.4987019370
40
0.5772015064
40
0.6529146626
40
0.7255160642
40
0.7933574353
40
0.8538075611
40
0.9047504164
40
0.9456651702
40
0.9758780622
40
0.9942220897
40
1.0000000000
40
1.0000000000
40
1.0000000000
40
1.0000000000
10
-45.5960364924
20
4.6250860499
30
0.0000000000
10
-45.5955558446
20
4.6153409869
30
0.0000000000
10
-45.6026918766
20
4.5221109138
30
0.0000000000
10
-45.5702206264
20
4.4020934883
30
0.0000000000
10
-45.5685673755
20
4.1041386549
30
0.0000000000
10
-45.5490791265
20
3.7378538978
30
0.0000000000
10
-45.5364209230
20
3.2649111664
30
0.0000000000
10
-45.5209650578
20
2.7127062236
30
0.0000000000
10
-45.5063518896
20
2.0918782751
30
0.0000000000
10
-45.4914902803
20
1.4226713094
30
0.0000000000
10
-45.4767112652
20
0.7193428748
30
0.0000000000
10
-45.4618912487
20
-0.0021798418
30
0.0000000000
10
-45.4471035653
20
-0.7220546885
30
0.0000000000
10
-45.4323783244
20
-1.4227505516
30
0.0000000000
10
-45.4175545275
20
-2.0903554434
30
0.0000000000
10
-45.4029414604
20
-2.7112985836
30
0.0000000000
10
-45.3874870105
20
-3.2636728505
30
0.0000000000
10
-45.3748033206
20
-3.7376300053
30
0.0000000000
10
-45.3552507581
20
-4.1049550603
30
0.0000000000
10
-45.3535461205
20
-4.4036124538
30
0.0000000000
10
-45.3191951375
20
-4.5309939465
30
0.0000000000
10
-45.3307984487
20
-4.6454265058
30
0.0000000000
10
-45.3159963203
20
-4.6494868031
30
0.0000000000
11
-45.5960364924
21
4.6250860499
31
0.0000000000
11
-45.5969945116
21
4.5931975027
31
0.0000000000
11
-45.5819347986
21
4.4223984264
31
0.0000000000
11
-45.5669432304
21
4.1433456077
31
0.0000000000
11
-45.5521120842
21
3.7669695373
31
0.0000000000
11
-45.5371434292
21
3.2951894989
31
0.0000000000
11
-45.5219879426
21
2.7352569831
31
0.0000000000
11
-45.5068354105
21
2.1067010312
31
0.0000000000
11
-45.4918705608
21
1.4339095055
31
0.0000000000
11
-45.4769332508
21
0.7272998761
31
0.0000000000
11
-45.4618706291
21
-0.0031712285
31
0.0000000000
11
-45.4468682205
21
-0.7306681081
31
0.0000000000
11
-45.4320349521
21
-1.4323342406
31
0.0000000000
11
-45.4170719067
21
-2.1051463771
31
0.0000000000
11
-45.4019200706
21
-2.7338192264
31
0.0000000000
11
-45.3867639592
21
-3.2939565006
31
0.0000000000
11
-45.3717956905
21
-3.7659338719
31
0.0000000000
11
-45.3568579581
21
-4.1448987877
31
0.0000000000
11
-45.3417932871
21
-4.4245516443
31
0.0000000000
11
-45.3267804789
21
-4.5939275227
31
0.0000000000
11
-45.3159963203
21
-4.6494868031
31
0.0000000000
0
SPLINE
5
3A1
100
AcDbEntity
8
0
100
AcDbSpline
62
7
6
CONTINUOUS
70
0
71
3
72
26
73
22
74
20
42
0.0000001000
43
0.0000001000
44
0.0000000001
12
-2.5569390728
22
4.8962020462
32
0.0000000000
13
-3.0088788123
23
5.1900725065
33
0.0000000000
40
0.0000000000
40
0.0000000000
40
0.0000000000
40
0.0000000000
40
0.0051654522
40
0.0252157393
40
0.0584515088
40
0.1039693417
40
0.1605088612
40
0.2264985448
40
0.3001019717
40
0.3792698313
40
0.4617973892
40
0.5453861151
40
0.6277078586
40
0.7064698345
40
0.7794786420
40
0.8447015859
40
0.9003237048
40
0.9447992548
40
0.9768975272
40
0.9957496967
40
1.0000000000
40
1.0000000000
40
1.0000000000
40
1.0000000000
10
-42.5741062805
20
-4.1960181460
30
0.0000000000
10
-42.5785088627
20
-4.1875877802
30
0.0000000000
10
-42.6010380970
20
-4.0861149933
30
0.0000000000
10
-42.6010483031
20
-3.9574328565
30
0.0000000000
10
-42.6234270497
20
-3.6616595037
30
0.0000000000
10
-42.6354336794
20
-3.2921290275
30
0.0000000000
10
-42.6521442589
20
-2.8192572712
30
0.0000000000
10
-42.6673454977
20
-2.2720538694
30
0.0000000000
10
-42.6831537275
20
-1.6601332865
30
0.0000000000
10
-42.6988288135
20
-1.0023933575
30
0.0000000000
10
-42.7145746031
20
-0.3165883271
30
0.0000000000
10
-42.7303057154
20
0.3779936134
30
0.0000000000
10
-42.7460557830
20
1.0620818348
30
0.0000000000
10
-42.7617085334
20
1.7164690678
30
0.0000000000
10
-42.7775781621
20
2.3233719515
30
0.0000000000
10
-42.7925671705
20
2.8644384702
30
0.0000000000
10
-42.8098542148
20
3.3289623231
30
0.0000000000
10
-42.8202919897
20
3.6918273837
30
0.0000000000
10
-42.8459959942
20
3.9732274035
30
0.0000000000
10
-42.8406192414
20
4.1021705487
30
0.0000000000
10
-42.8667669156
20
4.1876285756
30
0.0000000000
10
-42.8710297982
20
4.1949817031
30
0.0000000000
11
-42.5741062805
21
-4.1960181460
31
0.0000000000
11
-42.5867938801
21
-4.1479429581
31
0.0000000000
11
-42.6027534760
21
-3.9804855971
31
0.0000000000
11
-42.6187130720
21
-3.7021041265
31
0.0000000000
11
-42.6346726679
21
-3.3205561969
31
0.0000000000
11
-42.6506322639
21
-2.8464743964
31
0.0000000000
11
-42.6665918598
21
-2.2930699530
31
0.0000000000
11
-42.6825514558
21
-1.6757645766
31
0.0000000000
11
-42.6985110518
21
-1.0117607035
31
0.0000000000
11
-42.7144706477
21
-0.3195621158
31
0.0000000000
11
-42.7304302437
21
0.3815417027
31
0.0000000000
11
-42.7463898396
21
1.0720131065
31
0.0000000000
11
-42.7623494356
21
1.7326107433
31
0.0000000000
11
-42.7783090316
21
2.3449257524
31
0.0000000000
11
-42.7942686275
21
2.8918947641
31
0.0000000000
11
-42.8102282235
21
3.3582754043
31
0.0000000000
11
-42.8261878194
21
3.7310710533
31
0.0000000000
11
-42.8421474154
21
3.9998930226
31
0.0000000000
11
-42.8581070114
21
4.1572500559
31
0.0000000000
11
-42.8710297982
21
4.1949817031
31
0.0000000000
0
SPLINE
5
3A2
100
AcDbEntity
8
0
100
AcDbSpline
62
7
6
CONTINUOUS
70
0
71
3
72
8
73
4
74
2
42
0.0000001000
43
0.0000001000
44
0.0000000001
12
-0.0343860589
22
0.0000000000
32
0.0000000000
13
-0.0021593220
23
0.0420494419
33
0.0000000000
40
0.0000000000
40
0.0000000000
40
0.0000000000
40
0.0000000000
40
1.0000000000
40
1.0000000000
40
1.0000000000
40
1.0000000000
10
-45.8315509961
20
-4.6500000000
30
0.0000000000
10
-45.8430130158
20
-4.6500000000
30
0.0000000000
10
-45.8465736060
20
-4.6394626231
30
0.0000000000
10
-45.8472933800
20
-4.6254461425
30
0.0000000000
11
-45.8315509961
21
-4.6500000000
31
0.0000000000
11
-45.8472933800
21
-4.6254461425
31
0.0000000000
0
SPLINE
5
3A3
100
AcDbEntity
8
0
100
AcDbSpline
62
7
6
CONTINUOUS
70
0
71
3
72
27
73
23
74
21
42
0.0000001000
43
0.0000001000
44
0.0000000001
12
-0.5821214179
22
11.3359105321
32
0.0000000000
13
-7.7060422164
23
2.0779540639
33
0.0000000000
40
0.0000000000
40
0.0000000000
40
0.0000000000
40
0.0000000000
40
0.0025478118
40
0.0208908936
40
0.0511022280
40
0.0920148724
40
0.1429551013
40
0.2034021106
40
0.2712399842
40
0.3438376428
40
0.4195468956
40
0.4980424179
40
0.5768588509
40
0.6531015023
40
0.7256969424
40
0.7935222112
40
0.8539471383
40
0.9048660919
40
0.9454992281
40
0.9756455032
40
0.9941419618
40
1.0000000000
40
1.0000000000
40
1.0000000000
40
1.0000000000
10
-45.8472933800
20
-4.6254461425
30
0.0000000000
10
-45.8477877586
20
-4.6158188868
30
0.0000000000
10
-45.8408523949
20
-4.5234216760
30
0.0000000000
10
-45.8731613628
20
-4.4036124538
30
0.0000000000
10
-45.8748660004
20
-4.1049550603
30
0.0000000000
10
-45.8944185628
20
-3.7376300053
30
0.0000000000
10
-45.9071022528
20
-3.2636728505
30
0.0000000000
10
-45.9225567027
20
-2.7112985836
30
0.0000000000
10
-45.9371697698
20
-2.0903554434
30
0.0000000000
10
-45.9519935666
20
-1.4227505516
30
0.0000000000
10
-45.9667188076
20
-0.7220546885
30
0.0000000000
10
-45.9815064910
20
-0.0021798418
30
0.0000000000
10
-45.9963265075
20
0.7193428748
30
0.0000000000
10
-46.0111055226
20
1.4226713094
30
0.0000000000
10
-46.0259671319
20
2.0918782751
30
0.0000000000
10
-46.0405803001
20
2.7127062236
30
0.0000000000
10
-46.0560361653
20
3.2649111664
30
0.0000000000
10
-46.0686943687
20
3.7378538978
30
0.0000000000
10
-46.0881826178
20
4.1041386549
30
0.0000000000
10
-46.0898358686
20
4.4020934883
30
0.0000000000
10
-46.1243873793
20
4.5297997926
30
0.0000000000
10
-46.1124517988
20
4.6454384430
30
0.0000000000
10
-46.1274992288
20
4.6494960211
30
0.0000000000
11
-45.8472933800
21
-4.6254461425
31
0.0000000000
11
-45.8463957212
21
-4.5939275227
31
0.0000000000
11
-45.8614085294
21
-4.4245516443
31
0.0000000000
11
-45.8764732004
21
-4.1448987877
31
0.0000000000
11
-45.8914109328
21
-3.7659338719
31
0.0000000000
11
-45.9063792015
21
-3.2939565006
31
0.0000000000
11
-45.9215353129
21
-2.7338192264
31
0.0000000000
11
-45.9366871490
21
-2.1051463771
31
0.0000000000
11
-45.9516501944
21
-1.4323342406
31
0.0000000000
11
-45.9664834628
21
-0.7306681081
31
0.0000000000
11
-45.9814858714
21
-0.0031712285
31
0.0000000000
11
-45.9965484931
21
0.7272998761
31
0.0000000000
11
-46.0114858030
21
1.4339095055
31
0.0000000000
11
-46.0264506527
21
2.1067010312
31
0.0000000000
11
-46.0416031849
21
2.7352569831
31
0.0000000000
11
-46.0567586714
21
3.2951894989
31
0.0000000000
11
-46.0717273265
21
3.7669695373
31
0.0000000000
11
-46.0865584727
21
4.1433456077
31
0.0000000000
11
-46.1015500409
21
4.4223984264
31
0.0000000000
11
-46.1166097538
21
4.5931975027
31
0.0000000000
11
-46.1274992288
21
4.6494960211
31
0.0000000000
0
SPLINE
5
3A4
100
AcDbEntity
8
0
100
AcDbSpline
62
7
6
CONTINUOUS
70
0
71
3
72
26
73
22
74
20
42
0.0000001000
43
0.0000001000
44
0.0000000001
12
-4.9948236670
22
-2.9779341317
32
0.0000000000
13
-7.6190598391
23
-1.5409935567
33
0.0000000000
40
0.0000000000
40
0.0000000000
40
0.0000000000
40
0.0000000000
40
0.0118857798
40
0.0373618149
40
0.0757046485
40
0.1258598721
40
0.1864357358
40
0.2557474503
40
0.3318656671
40
0.4126708201
40
0.4959124617
40
0.5792721295
40
0.6604280670
40
0.7371200333
40
0.8072124371
40
0.8687541007
40
0.9200331640
40
0.9596261579
40
0.9864424243
40
0.9997834916
40
1.0000000000
40
1.0000000000
40
1.0000000000
40
1.0000000000
10
-43.1776649276
20
-4.1931192107
30
0.0000000000
10
-43.1974540523
20
-4.2049175671
30
0.0000000000
10
-43.1866630752
20
-4.0105219367
30
0.0000000000
10
-43.2182602837
20
-3.8692045422
30
0.0000000000
10
-43.2246791747
20
-3.5163169912
30
0.0000000000
10
-43.2435183672
20
-3.1135763800
30
0.0000000000
10
-43.2578376228
20
-2.6053961546
30
0.0000000000
10
-43.2738868704
20
-2.0311526254
30
0.0000000000
10
-43.2894569171
20
-1.3981933402
30
0.0000000000
10
-43.3052164967
20
-0.7269181182
30
0.0000000000
10
-43.3209482933
20
-0.0352090167
30
0.0000000000
10
-43.3366696666
20
0.6574699414
30
0.0000000000
10
-43.3524630442
20
1.3316930806
30
0.0000000000
10
-43.3679294137
20
1.9693182837
30
0.0000000000
10
-43.3843362088
20
2.5503805695
30
0.0000000000
10
-43.3975852581
20
3.0656206431
30
0.0000000000
10
-43.4195427480
20
3.4803202806
30
0.0000000000
10
-43.4180596542
20
3.8375035564
30
0.0000000000
10
-43.4669004979
20
4.0008223747
30
0.0000000000
10
-43.4317872743
20
4.1938982217
30
0.0000000000
10
-43.4656412837
20
4.1879902456
30
0.0000000000
10
-43.4661911471
20
4.1878790330
30
0.0000000000
11
-43.1776649276
21
-4.1931192107
31
0.0000000000
11
-43.1932585265
21
-4.0938481905
31
0.0000000000
11
-43.2092181225
21
-3.8807189336
31
0.0000000000
11
-43.2251777184
21
-3.5594457625
31
0.0000000000
11
-43.2411373144
21
-3.1389815900
31
0.0000000000
11
-43.2570969104
21
-2.6310434826
31
0.0000000000
11
-43.2730565063
21
-2.0497861410
31
0.0000000000
11
-43.2890161023
21
-1.4114074514
31
0.0000000000
11
-43.3049756982
21
-0.7336970996
31
0.0000000000
11
-43.3209352942
21
-0.0355408259
31
0.0000000000
11
-43.3368948902
21
0.6636058632
31
0.0000000000
11
-43.3528544861
21
1.3442598615
31
0.0000000000
11
-43.3688140821
21
1.9874533980
31
0.0000000000
11
-43.3847736780
21
2.5752626119
31
0.0000000000
11
-43.4007332740
21
3.0913070360
31
0.0000000000
11
-43.4166928699
21
3.5212060708
31
0.0000000000
11
-43.4326524659
21
3.8529797290
31
0.0000000000
11
-43.4486120619
21
4.0773824810
31
0.0000000000
11
-43.4645716578
21
4.1881608997
31
0.0000000000
11
-43.4661911471
21
4.1878790330
31
0.0000000000
0
SPLINE
5
3A5
100
AcDbEntity
8
0
100
AcDbSpline
62
7
6
CONTINUOUS
70
0
71
3
72
22
73
18
74
16
42
0.0000001000
43
0.0000001000
44
0.0000000001
12
-3.4805324930
22
4.7300237573
32
0.0000000000
13
-0.2714663017
23
7.4696515288
33
0.0000000000
40
0.0000000000
40
0.0000000000
40
0.0000000000
40
0.0000000000
40
0.0036370224
40
0.0232558740
40
0.0578154278
40
0.1063858998
40
0.1676244336
40
0.2398295957
40
0.3209922980
40
0.4088529080
40
0.5009646834
40
0.5947621898
40
0.6876329390
40
0.7769903106
40
0.8603457678
40
0.9353784053
40
1.0000000000
40
1.0000000000
40
1.0000000000
40
1.0000000000
10
-43.7706942876
20
-4.1932093316
30
0.0000000000
10
-43.7749138792
20
-4.1874749307
30
0.0000000000
10
-43.8060767753
20
-4.1201267372
30
0.0000000000
10
-43.7923203986
20
-3.9893622855
30
0.0000000000
10
-43.8235237858
20
-3.7257885095
30
0.0000000000
10
-43.8313321524
20
-3.3699629199
30
0.0000000000
10
-43.8496097484
20
-2.9153781124
30
0.0000000000
10
-43.8642375065
20
-2.3813719623
30
0.0000000000
10
-43.8802157850
20
-1.7803990978
30
0.0000000000
10
-43.8958309467
20
-1.1300084540
30
0.0000000000
10
-43.9115889618
20
-0.4480715333
30
0.0000000000
10
-43.9273202365
20
0.2463346545
30
0.0000000000
10
-43.9430565988
20
0.9338810981
30
0.0000000000
10
-43.9587735829
20
1.5954030939
30
0.0000000000
10
-43.9744550415
20
2.2124691712
30
0.0000000000
10
-43.9900800531
20
2.7678848487
30
0.0000000000
10
-44.0013503920
20
3.1156570929
30
0.0000000000
10
-44.0071979205
20
3.2765573573
30
0.0000000000
11
-43.7706942876
21
-4.1932093316
31
0.0000000000
11
-43.7837635770
21
-4.1667702898
31
0.0000000000
11
-43.7997231730
21
-4.0209986134
31
0.0000000000
11
-43.8156827689
21
-3.7631738520
31
0.0000000000
11
-43.8316423649
21
-3.4004808028
31
0.0000000000
11
-43.8476019609
21
-2.9430266254
31
0.0000000000
11
-43.8635615568
21
-2.4035591861
31
0.0000000000
11
-43.8795211528
21
-1.7971118127
31
0.0000000000
11
-43.8954807487
21
-1.1405843616
31
0.0000000000
11
-43.9114403447
21
-0.4522722698
31
0.0000000000
11
-43.9273999407
21
0.2486432840
31
0.0000000000
11
-43.9433595366
21
0.9426299006
31
0.0000000000
11
-43.9593191326
21
1.6103482692
31
0.0000000000
11
-43.9752787285
21
2.2331910960
31
0.0000000000
11
-43.9912383245
21
2.7938016328
31
0.0000000000
11
-44.0071979205
21
3.2765573573
31
0.0000000000
0
SPLINE
5
3A6
100
AcDbEntity
8
0
100
AcDbSpline
62
7
6
CONTINUOUS
70
0
71
3
72
16
73
12
74
10
42
0.0000001000
43
0.0000001000
44
0.0000000001
12
0.0803644004
22
-3.8560041392
32
0.0000000000
13
3.1849233189
23
-0.8967501027
33
0.0000000000
40
0.0000000000
40
0.0000000000
40
0.0000000000
40
0.0000000000
40
0.1798949388
40
0.3521985115
40
0.5128910892
40
0.6557687254
40
0.7760125574
40
0.8724189987
40
0.9433920993
40
0.9863925827
40
1.0000000000
40
1.0000000000
40
1.0000000000
40
1.0000000000
10
-46.0455721175
20
-0.7929281957
30
0.0000000000
10
-46.0407530679
20
-1.0241534053
30
0.0000000000
10
-46.0312126565
20
-1.4768719312
30
0.0000000000
10
-46.0165057520
20
-2.1359703828
30
0.0000000000
10
-46.0020088093
20
-2.7479736869
30
0.0000000000
10
-45.9866952080
20
-3.2914250516
30
0.0000000000
10
-45.9740949707
20
-3.7569252508
30
0.0000000000
10
-45.9548242597
20
-4.1170463200
30
0.0000000000
10
-45.9528931169
20
-4.4091687667
30
0.0000000000
10
-45.9194047637
20
-4.5337422340
30
0.0000000000
10
-45.9304560595
20
-4.6454049192
30
0.0000000000
10
-45.9160098660
20
-4.6494724035
30
0.0000000000
11
-46.0455721175
21
-0.7929281957
31
0.0000000000
11
-46.0308612564
21
-1.4865984903
31
0.0000000000
11
-46.0160132840
21
-2.1509801653
31
0.0000000000
11
-46.0009838855
21
-2.7705637086
31
0.0000000000
11
-45.9859616574
21
-3.3214153084
31
0.0000000000
11
-45.9711270922
21
-3.7849393889
31
0.0000000000
11
-45.9563308705
21
-4.1564692386
31
0.0000000000
11
-45.9414411512
21
-4.4297959736
31
0.0000000000
11
-45.9266401903
21
-4.5949802450
31
0.0000000000
11
-45.9160098660
21
-4.6494724035
31
0.0000000000
0
SPLINE
5
3A7
100
AcDbEntity
8
0
100
AcDbSpline
62
7
6
CONTINUOUS
70
0
71
3
72
8
73
4
74
2
42
0.0000001000
43
0.0000001000
44
0.0000000001
12
0.0354372907
22
0.0000000000
32
0.0000000000
13
0.0020391666
23
-0.0434099554
33
0.0000000000
40
0.0000000000
40
0.0000000000
40
0.0000000000
40
0.0000000000
40
1.0000000000
40
1.0000000000
40
1.0000000000
40
1.0000000000
10
-46.2119357539
20
4.6500000000
30
0.0000000000
10
-46.2001233236
20
4.6500000000
30
0.0000000000
10
-46.1965104264
20
4.6391098223
30
0.0000000000
10
-46.1958307042
20
4.6246398372
30
0.0000000000
11
-46.2119357539
21
4.6500000000
31
0.0000000000
11
-46.1958307042
21
4.6246398372
31
0.0000000000
0
SPLINE
5
3A8
100
AcDbEntity
8
0
100
AcDbSpline
62
7
6
CONTINUOUS
70
0
71
3
72
18
73
14
74
12
42
0.0000001000
43
0.0000001000
44
0.0000000001
12
0.3114251133
22
-6.6296449681
32
0.0000000000
13
0.1127699428
23
-5.4108705310
33
0.0000000000
40
0.0000000000
40
0.0000000000
40
0.0000000000
40
0.0000000000
40
0.0044818735
40
0.0366309274
40
0.0889006937
40
0.1595483073
40
0.2481821110
40
0.3532664572
40
0.4710553546
40
0.5968624021
40
0.7290460816
40
0.8651176884
40
1.0000000000
40
1.0000000000
40
1.0000000000
40
1.0000000000
10
-46.1958307042
20
4.6246398372
30
0.0000000000
10
-46.1953654482
20
4.6147354270
30
0.0000000000
10
-46.2027945997
20
4.5200775720
30
0.0000000000
10
-46.1698180079
20
4.3985085552
30
0.0000000000
10
-46.1683080493
20
4.0963625698
30
0.0000000000
10
-46.1485845596
20
3.7246364960
30
0.0000000000
10
-46.1358385672
20
3.2443196299
30
0.0000000000
10
-46.1202321732
20
2.6838036819
30
0.0000000000
10
-46.1054978302
20
2.0545573681
30
0.0000000000
10
-46.0905070835
20
1.3769286643
30
0.0000000000
10
-46.0756107794
20
0.6661561508
30
0.0000000000
10
-46.0606880401
20
-0.0609473717
30
0.0000000000
10
-46.0506423410
20
-0.5496512874
30
0.0000000000
10
-46.0455721175
20
-0.7929281957
30
0.0000000000
11
-46.1958307042
21
4.6246398372
31
0.0000000000
11
-46.1968687692
21
4.5922393966
31
0.0000000000
11
-46.1817037973
21
4.4189093943
31
0.0000000000
11
-46.1666311256
21
4.1364248727
31
0.0000000000
11
-46.1516721390
21
3.7543695101
31
0.0000000000
11
-46.1365552141
21
3.2749175841
31
0.0000000000
11
-46.1212572245
21
2.7064021034
31
0.0000000000
11
-46.1059713616
21
2.0691065198
31
0.0000000000
11
-46.0908897116
21
1.3884001018
31
0.0000000000
11
-46.0758089071
21
0.6731749832
31
0.0000000000
11
-46.0606399976
21
-0.0630945089
31
0.0000000000
11
-46.0455721175
21
-0.7929281957
31
0.0000000000
0
SPLINE
5
3A9
100
AcDbEntity
8
0
100
AcDbSpline
62
7
6
CONTINUOUS
70
0
71
3
72
8
73
4
74
2
42
0.0000001000
43
0.0000001000
44
0.0000000001
12
-0.0337815931
22
0.0000000000
32
0.0000000000
13
-0.0022087623
23
0.0412983286
33
0.0000000000
40
0.0000000000
40
0.0000000000
40
0.0000000000
40
0.0000000000
40
1.0000000000
40
1.0000000000
40
1.0000000000
40
1.0000000000
10
-46.4315509961
20
-4.6500000000
30
0.0000000000
10
-46.4428115272
20
-4.6500000000
30
0.0000000000
10
-46.4463296574
20
-4.6396455749
30
0.0000000000
10
-46.4470659115
20
-4.6258794654
30
0.0000000000
11
-46.4315509961
21
-4.6500000000
31
0.0000000000
11
-46.4470659115
21
-4.6258794654
31
0.0000000000
0
SPLINE
5
3AA
100
AcDbEntity
8
0
100
AcDbSpline
62
7
6
CONTINUOUS
70
0
71
3
72
16
73
12
74
10
42
0.0000001000
43
0.0000001000
44
0.0000000001
12
-0.2502576475
22
4.6791917839
32
0.0000000000
13
-0.0797536217
23
3.8266980609
33
0.0000000000
40
0.0000000000
40
0.0000000000
40
0.0000000000
40
0.0000000000
40
0.0060533072
40
0.0493831021
40
0.1208997375
40
0.2180444901
40
0.3392091879
40
0.4831810267
40
0.6451042396
40
0.8187273682
40
1.0000000000
40
1.0000000000
40
1.0000000000
40
1.0000000000
10
-46.4470659115
20
-4.6258794654
30
0.0000000000
10
-46.4475708737
20
-4.6164379369
30
0.0000000000
10
-46.4410149375
20
-4.5263212796
30
0.0000000000
10
-46.4725083592
20
-4.4091687667
30
0.0000000000
10
-46.4744395020
20
-4.1170463200
30
0.0000000000
10
-46.4937102130
20
-3.7569252508
30
0.0000000000
10
-46.5063104503
20
-3.2914250516
30
0.0000000000
10
-46.5216240516
20
-2.7479736869
30
0.0000000000
10
-46.5361209943
20
-2.1359703828
30
0.0000000000
10
-46.5508278988
20
-1.4768719312
30
0.0000000000
10
-46.5603683101
20
-1.0241534053
30
0.0000000000
10
-46.5651873598
20
-0.7929281957
30
0.0000000000
11
-46.4470659115
21
-4.6258794654
31
0.0000000000
11
-46.4462554325
21
-4.5949802450
31
0.0000000000
11
-46.4610563935
21
-4.4297959736
31
0.0000000000
11
-46.4759461128
21
-4.1564692386
31
0.0000000000
11
-46.4907423345
21
-3.7849393889
31
0.0000000000
11
-46.5055768996
21
-3.3214153084
31
0.0000000000
11
-46.5205991278
21
-2.7705637086
31
0.0000000000
11
-46.5356285262
21
-2.1509801653
31
0.0000000000
11
-46.5504764987
21
-1.4865984903
31
0.0000000000
11
-46.5651873598
21
-0.7929281957
31
0.0000000000
0
SPLINE
5
3AB
100
AcDbEntity
8
0
100
AcDbSpline
62
7
6
CONTINUOUS
70
0
71
3
72
8
73
4
74
2
42
0.0000001000
43
0.0000001000
44
0.0000000001
12
0.0348954692
22
0.0000000000
32
0.0000000000
13
0.0020902648
23
-0.0427277092
33
0.0000000000
40
0.0000000000
40
0.0000000000
40
0.0000000000
40
0.0000000000
40
1.0000000000
40
1.0000000000
40
1.0000000000
40
1.0000000000
10
-46.8119357539
20
4.6500000000
30
0.0000000000
10
-46.8003039308
20
4.6500000000
30
0.0000000000
10
-46.7967253039
20
4.6392793934
30
0.0000000000
10
-46.7960285490
20
4.6250368236
30
0.0000000000
11
-46.8119357539
21
4.6500000000
31
0.0000000000
11
-46.7960285490
21
4.6250368236
31
0.0000000000
0
SPLINE
5
3AC
100
AcDbEntity
8
0
100
AcDbSpline
62
7
6
CONTINUOUS
70
0
71
3
72
27
73
23
74
21
42
0.0000001000
43
0.0000001000
44
0.0000000001
12
0.5552472120
22
-11.3499692809
32
0.0000000000
13
7.6907046853
23
-2.1004827761
33
0.0000000000
40
0.0000000000
40
0.0000000000
40
0.0000000000
40
0.0000000000
40
0.0025759420
40
0.0209998681
40
0.0509113746
40
0.0915912507
40
0.1425838343
40
0.2031332028
40
0.2711202398
40
0.3438958769
40
0.4201934918
40
0.4987770719
40
0.5768066169
40
0.6527234380
40
0.7254984757
40
0.7934918407
40
0.8540545905
40
0.9050597123
40
0.9459273615
40
0.9759849404
40
0.9941989111
40
1.0000000000
40
1.0000000000
40
1.0000000000
40
1.0000000000
10
-46.7960285490
20
4.6250368236
30
0.0000000000
10
-46.7955517874
20
4.6152912029
30
0.0000000000
10
-46.8026652027
20
4.5223985639
30
0.0000000000
10
-46.7703724308
20
4.4030939553
30
0.0000000000
10
-46.7686506597
20
4.1061088149
30
0.0000000000
10
-46.7491525645
20
3.7402019167
30
0.0000000000
10
-46.7364672633
20
3.2665194461
30
0.0000000000
10
-46.7209764488
20
2.7132387966
30
0.0000000000
10
-46.7063312421
20
2.0910034309
30
0.0000000000
10
-46.6914456569
20
1.4206084310
30
0.0000000000
10
-46.6766694534
20
0.7173123766
30
0.0000000000
10
-46.6618912959
20
-0.0021807206
30
0.0000000000
10
-46.6471354163
20
-0.7204974659
30
0.0000000000
10
-46.6324186739
20
-1.4209037023
30
0.0000000000
10
-46.6175600038
20
-2.0901399600
30
0.0000000000
10
-46.6029151924
20
-2.7124354502
30
0.0000000000
10
-46.5874245774
20
-3.2658123620
30
0.0000000000
10
-46.5747239903
20
-3.7401691187
30
0.0000000000
10
-46.5551595488
20
-4.1070698919
30
0.0000000000
10
-46.5534339544
20
-4.4045717312
30
0.0000000000
10
-46.5192270977
20
-4.5314291976
30
0.0000000000
10
-46.5308655726
20
-4.6454274508
30
0.0000000000
10
-46.5159940853
20
-4.6494891466
30
0.0000000000
11
-46.7960285490
21
4.6250368236
31
0.0000000000
11
-46.7969894618
21
4.5931591789
31
0.0000000000
11
-46.7819774985
21
4.4230405305
31
0.0000000000
11
-46.7670715503
21
4.1461781877
31
0.0000000000
11
-46.7521969698
21
3.7693914678
31
0.0000000000
11
-46.7371948653
21
3.2969562317
31
0.0000000000
11
-46.7220043308
21
2.7359022941
31
0.0000000000
11
-46.7068165597
21
2.1058826687
31
0.0000000000
11
-46.6918176650
21
1.4314590650
31
0.0000000000
11
-46.6768725399
21
0.7243798142
31
0.0000000000
11
-46.6618558230
21
-0.0038922058
31
0.0000000000
11
-46.6469438746
21
-0.7270296926
31
0.0000000000
11
-46.6320728168
21
-1.4305799701
31
0.0000000000
11
-46.6170753230
21
-2.1049980477
31
0.0000000000
11
-46.6018881517
21
-2.7350763610
31
0.0000000000
11
-46.5866970796
21
-3.2962543671
31
0.0000000000
11
-46.5716950713
21
-3.7688058878
31
0.0000000000
11
-46.5567476071
21
-4.1473316392
31
0.0000000000
11
-46.5417269782
21
-4.4255437773
31
0.0000000000
11
-46.5268083879
21
-4.5937169118
31
0.0000000000
11
-46.5159940853
21
-4.6494891466
31
0.0000000000
0
SPLINE
5
3AD
100
AcDbEntity
8
0
100
AcDbSpline
62
7
6
CONTINUOUS
70
0
71
3
72
18
73
14
74
12
42
0.0000001000
43
0.0000001000
44
0.0000000001
12
-0.1134164245
22
5.4418896936
32
0.0000000000
13
-4.5400026537
23
1.1971517315
33
0.0000000000
40
0.0000000000
40
0.0000000000
40
0.0000000000
40
0.0000000000
40
0.1341134727
40
0.2694094616
40
0.4008396846
40
0.5259296229
40
0.6430471151
40
0.7475324730
40
0.8356610576
40
0.9059059747
40
0.9578777996
40
0.9898436016
40
1.0000000000
40
1.0000000000
40
1.0000000000
40
1.0000000000
10
-46.5651873598
20
-0.7929281957
30
0.0000000000
10
-46.5702575833
20
-0.5496512874
30
0.0000000000
10
-46.5803032824
20
-0.0609473717
30
0.0000000000
10
-46.5952260217
20
0.6661561508
30
0.0000000000
10
-46.6101223257
20
1.3769286643
30
0.0000000000
10
-46.6251130725
20
2.0545573681
30
0.0000000000
10
-46.6398474155
20
2.6838036819
30
0.0000000000
10
-46.6554538095
20
3.2443196299
30
0.0000000000
10
-46.6681998019
20
3.7246364960
30
0.0000000000
10
-46.6879232915
20
4.0963625698
30
0.0000000000
10
-46.6894332502
20
4.3985085552
30
0.0000000000
10
-46.7245363329
20
4.5279169333
30
0.0000000000
10
-46.7121406089
20
4.6454549104
30
0.0000000000
10
-46.7275106342
20
4.6495078271
30
0.0000000000
11
-46.5651873598
21
-0.7929281957
31
0.0000000000
11
-46.5802552399
21
-0.0630945089
31
0.0000000000
11
-46.5954241493
21
0.6731749832
31
0.0000000000
11
-46.6105049539
21
1.3884001018
31
0.0000000000
11
-46.6255866038
21
2.0691065198
31
0.0000000000
11
-46.6408724668
21
2.7064021034
31
0.0000000000
11
-46.6561704564
21
3.2749175841
31
0.0000000000
11
-46.6712873813
21
3.7543695101
31
0.0000000000
11
-46.6862463678
21
4.1364248727
31
0.0000000000
11
-46.7013190396
21
4.4189093943
31
0.0000000000
11
-46.7164840115
21
4.5922393966
31
0.0000000000
11
-46.7275106342
21
4.6495078271
31
0.0000000000
0
SPLINE
5
3AE
100
AcDbEntity
8
0
100
AcDbSpline
62
7
6
CONTINUOUS
70
0
71
3
72
8
73
4
74
2
42
0.0000001000
43
0.0000001000
44
0.0000000001
12
-0.0347214066
22
0.0000000000
32
0.0000000000
13
-0.0021270652
23
0.0424737235
33
0.0000000000
40
0.0000000000
40
0.0000000000
40
0.0000000000
40
0.0000000000
40
1.0000000000
40
1.0000000000
40
1.0000000000
40
1.0000000000
10
-44.6315509961
20
-4.6500000000
30
0.0000000000
10
-44.6431247983
20
-4.6500000000
30
0.0000000000
10
-44.6467059050
20
-4.6393562298
30
0.0000000000
10
-44.6474149268
20
-4.6251983219
30
0.0000000000
11
-44.6315509961
21
-4.6500000000
31
0.0000000000
11
-44.6474149268
21
-4.6251983219
31
0.0000000000
0
SPLINE
5
3AF
100
AcDbEntity
8
0
100
AcDbSpline
62
7
6
CONTINUOUS
70
0
71
3
72
27
73
23
74
21
42
0.0000001000
43
0.0000001000
44
0.0000000001
12
-0.5678662330
22
11.3392826055
32
0.0000000000
13
-7.7013813771
23
2.0843979062
33
0.0000000000
40
0.0000000000
40
0.0000000000
40
0.0000000000
40
0.0000000000
40
0.0025726378
40
0.0211172247
40
0.0515154843
40
0.0924602622
40
0.1432813625
40
0.2035015008
40
0.2710201406
40
0.3432435317
40
0.4193300161
40
0.4983164703
40
0.5773025647
40
0.6533917823
40
0.7256971145
40
0.7932576100
40
0.8534782733
40
0.9042737979
40
0.9452189653
40
0.9756175298
40
0.9941607412
40
1.0000000000
40
1.0000000000
40
1.0000000000
40
1.0000000000
10
-44.6474149268
20
-4.6251983219
30
0.0000000000
10
-44.6479018981
20
-4.6154743662
30
0.0000000000
10
-44.6407781661
20
-4.5220492328
30
0.0000000000
10
-44.6733999226
20
-4.4013439317
30
0.0000000000
10
-44.6750103599
20
-4.1012853839
30
0.0000000000
10
-44.6945481106
20
-3.7336496054
30
0.0000000000
10
-44.7071866993
20
-3.2607001230
30
0.0000000000
10
-44.7225759720
20
-2.7103905439
30
0.0000000000
10
-44.7371234562
20
-2.0923172531
30
0.0000000000
10
-44.7519303099
20
-1.4257131349
30
0.0000000000
10
-44.7666891779
20
-0.7235173774
30
0.0000000000
10
-44.7815415261
20
-0.0004630298
30
0.0000000000
10
-44.7963938177
20
0.7225997660
30
0.0000000000
10
-44.8111574645
20
1.4250560155
30
0.0000000000
10
-44.8259721761
20
2.0920508677
30
0.0000000000
10
-44.8405286540
20
2.7105085335
30
0.0000000000
10
-44.8559201079
20
3.2608699505
30
0.0000000000
10
-44.8685581804
20
3.7337416889
30
0.0000000000
10
-44.8880923487
20
4.1013016656
30
0.0000000000
10
-44.8897031800
20
4.4013586997
30
0.0000000000
10
-44.9243919865
20
4.5297159817
30
0.0000000000
10
-44.9125072097
20
4.6454369304
30
0.0000000000
10
-44.9274973295
20
4.6494940433
30
0.0000000000
11
-44.6474149268
21
-4.6251983219
31
0.0000000000
11
-44.6464703754
21
-4.5933632779
31
0.0000000000
11
-44.6615700360
21
-4.4221262113
31
0.0000000000
11
-44.6766608134
21
-4.1407498754
31
0.0000000000
11
-44.6915659983
21
-3.7614995856
31
0.0000000000
11
-44.7064755696
21
-3.2906426173
31
0.0000000000
11
-44.7215655508
21
-2.7326280143
31
0.0000000000
11
-44.7366459109
21
-2.1069366891
31
0.0000000000
11
-44.7515361199
21
-1.4376179468
31
0.0000000000
11
-44.7664457480
21
-0.7324817472
31
0.0000000000
11
-44.7815415101
21
-0.0004619175
31
0.0000000000
11
-44.7966369635
21
0.7315545826
31
0.0000000000
11
-44.8115463991
21
1.4367161285
31
0.0000000000
11
-44.8264528004
21
2.1067942615
31
0.0000000000
11
-44.8415426713
21
2.7328734577
31
0.0000000000
11
-44.8566336975
21
3.2908929004
31
0.0000000000
11
-44.8715364587
21
3.7615128891
31
0.0000000000
11
-44.8864419418
21
4.1407667805
31
0.0000000000
11
-44.9015332651
21
4.4221459172
31
0.0000000000
11
-44.9166325329
21
4.5933702183
31
0.0000000000
11
-44.9274973295
21
4.6494940433
31
0.0000000000
0
SPLINE
5
3B0
100
AcDbEntity
8
0
100
AcDbSpline
62
7
6
CONTINUOUS
70
0
71
3
72
8
73
4
74
2
42
0.0000001000
43
0.0000001000
44
0.0000000001
12
0.0347797832
22
0.0000000000
32
0.0000000000
13
0.0021162305
23
-0.0425563748
33
0.0000000000
40
0.0000000000
40
0.0000000000
40
0.0000000000
40
0.0000000000
40
1.0000000000
40
1.0000000000
40
1.0000000000
40
1.0000000000
10
-45.0119357539
20
4.6500000000
30
0.0000000000
10
-45.0003424928
20
4.6500000000
30
0.0000000000
10
-44.9967612247
20
4.6393320907
30
0.0000000000
10
-44.9960558146
20
4.6251466325
30
0.0000000000
11
-45.0119357539
21
4.6500000000
31
0.0000000000
11
-44.9960558146
21
4.6251466325
31
0.0000000000
0
SPLINE
5
3B1
100
AcDbEntity
8
0
100
AcDbSpline
62
7
6
CONTINUOUS
70
0
71
3
72
27
73
23
74
21
42
0.0000001000
43
0.0000001000
44
0.0000000001
12
0.5640215420
22
-11.3422010065
32
0.0000000000
13
7.6916700951
23
-2.0989784151
33
0.0000000000
40
0.0000000000
40
0.0000000000
40
0.0000000000
40
0.0000000000
40
0.0025744668
40
0.0210954535
40
0.0513722632
40
0.0921038975
40
0.1429634313
40
0.2032878722
40
0.2709805047
40
0.3434271469
40
0.4195921810
40
0.4985081313
40
0.5772792957
40
0.6531053348
40
0.7255566189
40
0.7932636968
40
0.8536128019
40
0.9044981781
40
0.9454327650
40
0.9757483216
40
0.9941990358
40
1.0000000000
40
1.0000000000
40
1.0000000000
40
1.0000000000
10
-44.9960558146
20
4.6251466325
30
0.0000000000
10
-44.9955717963
20
4.6154132591
30
0.0000000000
10
-45.0027002323
20
4.5220869086
30
0.0000000000
10
-44.9701522047
20
4.4017178091
30
0.0000000000
10
-44.9685242731
20
4.1028870800
30
0.0000000000
10
-44.9490228848
20
3.7361194495
30
0.0000000000
10
-44.9363771371
20
3.2633907909
30
0.0000000000
10
-44.9209518177
20
2.7121102880
30
0.0000000000
10
-44.9063664429
20
2.0924904415
30
0.0000000000
10
-44.8915282357
20
1.4244215759
30
0.0000000000
10
-44.8767561830
20
0.7215159991
30
0.0000000000
10
-44.8619174969
20
-0.0008943137
30
0.0000000000
10
-44.8470996899
20
-0.7222573947
30
0.0000000000
10
-44.8323583650
20
-1.4236827089
30
0.0000000000
10
-44.8175446220
20
-2.0907633538
30
0.0000000000
10
-44.8029594271
20
-2.7105190777
30
0.0000000000
10
-44.7875348264
20
-3.2619980788
30
0.0000000000
10
-44.7748716525
20
-3.7355210255
30
0.0000000000
10
-44.7553268425
20
-4.1030550670
30
0.0000000000
10
-44.7536655948
20
-4.4024898194
30
0.0000000000
10
-44.7191467091
20
-4.5303712803
30
0.0000000000
10
-44.7308666880
20
-4.6454309103
30
0.0000000000
10
-44.7159936536
20
-4.6494896099
30
0.0000000000
11
-44.9960558146
21
4.6251466325
31
0.0000000000
11
-44.9970064635
21
4.5932881576
31
0.0000000000
11
-44.9819262764
21
4.4222701669
31
0.0000000000
11
-44.9668833218
21
4.1420206019
31
0.0000000000
11
-44.9520343128
21
3.7647479764
31
0.0000000000
11
-44.9370953940
21
3.2935387195
31
0.0000000000
11
-44.9219702875
21
2.7345616907
31
0.0000000000
11
-44.9068483412
21
2.1072623427
31
0.0000000000
11
-44.8919130865
21
1.4358792278
31
0.0000000000
11
-44.8769898073
21
0.7300198548
31
0.0000000000
11
-44.8619082030
21
-0.0013415799
31
0.0000000000
11
-44.8468538082
21
-0.7313611874
31
0.0000000000
11
-44.8319972894
21
-1.4340789312
31
0.0000000000
11
-44.8170636441
21
-2.1055051211
31
0.0000000000
11
-44.8019424296
21
-2.7329384287
31
0.0000000000
11
-44.7868166747
21
-3.2921441503
31
0.0000000000
11
-44.7718775908
21
-3.7635930700
31
0.0000000000
11
-44.7569554171
21
-4.1427455560
31
0.0000000000
11
-44.7418732287
21
-4.4233526986
31
0.0000000000
11
-44.7268082307
21
-4.5937180996
31
0.0000000000
11
-44.7159936536
21
-4.6494896099
31
0.0000000000
0
SPLINE
5
3B2
100
AcDbEntity
8
0
100
AcDbSpline
62
7
6
CONTINUOUS
70
0
71
3
72
21
73
17
74
15
42
0.0000001000
43
0.0000001000
44
0.0000000001
12
0.1645396524
22
-6.9560313127
32
0.0000000000
13
5.6508102735
23
-1.7634835025
33
0.0000000000
40
0.0000000000
40
0.0000000000
40
0.0000000000
40
0.0000000000
40
0.0904907400
40
0.1856383021
40
0.2840937168
40
0.3834133220
40
0.4812522508
40
0.5761213041
40
0.6664474288
40
0.7499724857
40
0.8236562141
40
0.8854988303
40
0.9349202177
40
0.9710994343
40
0.9930398271
40
1.0000000000
40
1.0000000000
40
1.0000000000
40
1.0000000000
10
-47.3115228597
20
2.3075662287
30
0.0000000000
10
-47.3065597547
20
2.0977474217
30
0.0000000000
10
-47.2968218207
20
1.6673016745
30
0.0000000000
10
-47.2827361871
20
1.0085461585
30
0.0000000000
10
-47.2686792982
20
0.3293093515
30
0.0000000000
10
-47.2546417658
20
-0.3561743975
30
0.0000000000
10
-47.2406112206
20
-1.0333272427
30
0.0000000000
10
-47.2265731536
20
-1.6896571910
30
0.0000000000
10
-47.2123843771
20
-2.3126364017
30
0.0000000000
10
-47.1984058282
20
-2.8869405139
30
0.0000000000
10
-47.1837186041
20
-3.3936725176
30
0.0000000000
10
-47.1714941954
20
-3.8256409777
30
0.0000000000
10
-47.1533387368
20
-4.1587317694
30
0.0000000000
10
-47.1506319500
20
-4.4278890087
30
0.0000000000
10
-47.1200607145
20
-4.5428215543
30
0.0000000000
10
-47.1291747067
20
-4.6453203203
30
0.0000000000
10
-47.1160645013
20
-4.6494117036
30
0.0000000000
11
-47.3115228597
21
2.3075662287
31
0.0000000000
11
-47.2971929429
21
1.6780968243
31
0.0000000000
11
-47.2829746617
21
1.0162149667
31
0.0000000000
11
-47.2687453923
21
0.3313122440
31
0.0000000000
11
-47.2545434738
21
-0.3596053459
31
0.0000000000
11
-47.2403913781
21
-1.0402192520
31
0.0000000000
11
-47.2261921813
21
-1.7001632138
31
0.0000000000
11
-47.2118530523
21
-2.3284867212
31
0.0000000000
11
-47.1973806512
21
-2.9094719254
31
0.0000000000
11
-47.1829628309
21
-3.4219588497
31
0.0000000000
11
-47.1687125877
21
-3.8520223274
31
0.0000000000
11
-47.1545034427
21
-4.1956015153
31
0.0000000000
11
-47.1402609849
21
-4.4469324511
31
0.0000000000
11
-47.1261008501
21
-4.5989350671
31
0.0000000000
11
-47.1160645013
21
-4.6494117036
31
0.0000000000
0
SPLINE
5
3B3
100
AcDbEntity
8
0
100
AcDbSpline
62
7
6
CONTINUOUS
70
0
71
3
72
15
73
11
74
9
42
0.0000001000
43
0.0000001000
44
0.0000000001
12
0.0522048740
22
-2.9131647814
32
0.0000000000
13
1.6304364162
23
-2.1044037517
33
0.0000000000
40
0.0000000000
40
0.0000000000
40
0.0000000000
40
0.0000000000
40
0.2084967515
40
0.4032851284
40
0.5770508653
40
0.7241394020
40
0.8419387298
40
0.9291393860
40
0.9831618992
40
1.0000000000
40
1.0000000000
40
1.0000000000
40
1.0000000000
10
-48.0909457231
20
-1.3311912109
30
0.0000000000
10
-48.0873175409
20
-1.5336530087
30
0.0000000000
10
-48.0800894821
20
-1.9252194068
30
0.0000000000
10
-48.0691974335
20
-2.4857235541
30
0.0000000000
10
-48.0575520536
20
-2.9858601147
30
0.0000000000
10
-48.0483771472
20
-3.4133159113
30
0.0000000000
10
-48.0330409287
20
-3.7509031451
30
0.0000000000
10
-48.0336817513
20
-4.0121972961
30
0.0000000000
10
-48.0045542753
20
-4.1475266345
30
0.0000000000
10
-48.0171796860
20
-4.2341738699
30
0.0000000000
10
-48.0080285351
20
-4.2459852575
30
0.0000000000
11
-48.0909457231
21
-1.3311912109
31
0.0000000000
11
-48.0797411243
21
-1.9385707846
31
0.0000000000
11
-48.0684188001
21
-2.5059995818
31
0.0000000000
11
-48.0571065536
21
-3.0121626887
31
0.0000000000
11
-48.0459152370
21
-3.4405784826
31
0.0000000000
11
-48.0348240647
21
-3.7836231829
31
0.0000000000
11
-48.0237083574
21
-4.0374505745
31
0.0000000000
11
-48.0126297275
21
-4.1944619595
31
0.0000000000
11
-48.0080285351
21
-4.2459852575
31
0.0000000000
0
SPLINE
5
3B4
100
AcDbEntity
8
0
100
AcDbSpline
62
7
6
CONTINUOUS
70
0
71
3
72
8
73
4
74
2
42
0.0000001000
43
0.0000001000
44
0.0000000001
12
0.0050060815
22
-0.0064613477
32
0.0000000000
13
0.0076777159
23
-0.0045237514
33
0.0000000000
40
0.0000000000
40
0.0000000000
40
0.0000000000
40
0.0000000000
40
1.0000000000
40
1.0000000000
40
1.0000000000
40
1.0000000000
10
-48.0080285351
20
-4.2459852575
30
0.0000000000
10
-48.0063598412
20
-4.2481390400
30
0.0000000000
10
-48.0042871092
20
-4.2500009481
30
0.0000000000
10
-48.0017278706
20
-4.2515088652
30
0.0000000000
11
-48.0080285351
21
-4.2459852575
31
0.0000000000
11
-48.0017278706
21
-4.2515088652
31
0.0000000000
0
SPLINE
5
3B5
100
AcDbEntity
8
0
100
AcDbSpline
62
7
6
CONTINUOUS
70
0
71
3
72
15
73
11
74
9
42
0.0000001000
43
0.0000001000
44
0.0000000001
12
-0.0621539132
22
2.7673793522
32
0.0000000000
13
-1.6953654353
23
1.1584921260
33
0.0000000000
40
0.0000000000
40
0.0000000000
40
0.0000000000
40
0.0000000000
40
0.2230609995
40
0.4256368309
40
0.6031320441
40
0.7515285848
40
0.8674736214
40
0.9483606458
40
0.9924451029
40
1.0000000000
40
1.0000000000
40
1.0000000000
40
1.0000000000
10
-27.5017433750
20
1.8827636210
30
0.0000000000
10
-27.5063647463
20
2.0885284224
30
0.0000000000
10
-27.5153370938
20
2.4811687120
30
0.0000000000
10
-27.5299730682
20
3.0374410471
30
0.0000000000
10
-27.5425915532
20
3.5250134474
30
0.0000000000
10
-27.5606894123
20
3.9319988571
30
0.0000000000
10
-27.5637131559
20
4.2514299892
30
0.0000000000
10
-27.6000900200
20
4.4707810971
30
0.0000000000
10
-27.5757675037
20
4.5965249602
30
0.0000000000
10
-27.6122135691
20
4.6404282424
30
0.0000000000
10
-27.6164830063
20
4.6433456720
30
0.0000000000
11
-27.5017433750
21
1.8827636210
31
0.0000000000
11
-27.5161414486
21
2.5000458017
31
0.0000000000
11
-27.5305396763
21
3.0606064676
31
0.0000000000
11
-27.5449378022
21
3.5517159134
31
0.0000000000
11
-27.5593360004
21
3.9622365832
31
0.0000000000
11
-27.5737345931
21
4.2828582538
31
0.0000000000
11
-27.5881334663
21
4.5062963169
31
0.0000000000
11
-27.6025323123
21
4.6274730248
31
0.0000000000
11
-27.6164830063
21
4.6433456720
31
0.0000000000
0
SPLINE
5
3B6
100
AcDbEntity
8
0
100
AcDbSpline
62
7
6
CONTINUOUS
70
0
71
3
72
10
73
6
74
4
42
0.0000001000
43
0.0000001000
44
0.0000000001
12
3.9999639244
22
0.0374577365
32
0.0000000000
13
4.0000360299
23
0.0287443498
33
0.0000000000
40
0.0000000000
40
0.0000000000
40
0.0000000000
40
0.0000000000
40
0.3364708831
40
0.6698115685
40
1.0000000000
40
1.0000000000
40
1.0000000000
40
1.0000000000
10
-28.8017433750
20
-22.6631666220
30
0.0000000000
10
-28.3531195770
20
-22.6589654761
30
0.0000000000
10
-27.4600428179
20
-22.6508894149
30
0.0000000000
10
-26.1267094385
20
-22.6397547576
30
0.0000000000
10
-25.2419985826
20
-22.6330302866
30
0.0000000000
10
-24.8017433750
20
-22.6298666026
30
0.0000000000
11
-28.8017433750
21
-22.6631666220
31
0.0000000000
11
-27.4558678925
21
-22.6510076054
31
0.0000000000
11
-26.1225050864
21
-22.6398871632
31
0.0000000000
11
-24.8017433750
21
-22.6298666026
31
0.0000000000
0
SPLINE
5
3B7
100
AcDbEntity
8
0
100
AcDbSpline
62
7
6
CONTINUOUS
70
0
71
3
72
10
73
6
74
4
42
0.0000001000
43
0.0000001000
44
0.0000000001
12
3.9999639244
22
-0.0374577365
32
0.0000000000
13
4.0000360299
23
-0.0287443498
33
0.0000000000
40
0.0000000000
40
0.0000000000
40
0.0000000000
40
0.0000000000
40
0.3364708831
40
0.6698115685
40
1.0000000000
40
1.0000000000
40
1.0000000000
40
1.0000000000
10
-28.8017433750
20
22.6631666220
30
0.0000000000
10
-28.3531195770
20
22.6589654761
30
0.0000000000
10
-27.4600428179
20
22.6508894149
30
0.0000000000
10
-26.1267094385
20
22.6397547576
30
0.0000000000
10
-25.2419985826
20
22.6330302866
30
0.0000000000
10
-24.8017433750
20
22.6298666026
30
0.0000000000
11
-28.8017433750
21
22.6631666220
31
0.0000000000
11
-27.4558678925
21
22.6510076054
31
0.0000000000
11
-26.1225050864
21
22.6398871632
31
0.0000000000
11
-24.8017433750
21
22.6298666026
31
0.0000000000
0
SPLINE
5
3B8
100
AcDbEntity
8
0
100
AcDbSpline
62
9
6
CONTINUOUS
70
0
71
3
72
13
73
9
74
7
42
0.0000001000
43
0.0000001000
44
0.0000000001
12
0.0000448150
22
0.4698741839
32
0.0000000000
13
-0.4698741838
23
0.0000462340
33
0.0000000000
40
0.0000000000
40
0.0000000000
40
0.0000000000
40
0.0000000000
40
0.1477567409
40
0.3150474673
40
0.4926713929
40
0.6719442100
40
0.8433749448
40
1.0000000000
40
1.0000000000
40
1.0000000000
40
1.0000000000
10
-19.9982528937
20
-19.0000000000
30
0.0000000000
10
-19.9982506865
20
-18.9768576407
30
0.0000000000
10
-20.0040091947
20
-18.9273352429
30
0.0000000000
10
-20.0317437174
20
-18.8543959264
30
0.0000000000
10
-20.0810283429
20
-18.7873845821
30
0.0000000000
10
-20.1474857581
20
-18.7362335114
30
0.0000000000
10
-20.2221276535
20
-18.7063625541
30
0.0000000000
10
-20.2737215371
20
-18.7000024138
30
0.0000000000
10
-20.2982528937
20
-18.7000000000
30
0.0000000000
11
-19.9982528937
21
-19.0000000000
31
0.0000000000
11
-20.0062865639
21
-18.9310392912
31
0.0000000000
11
-20.0342231531
21
-18.8575655791
31
0.0000000000
11
-20.0836815948
21
-18.7903377281
31
0.0000000000
11
-20.1504277240
21
-18.7389509382
31
0.0000000000
11
-20.2252147442
21
-18.7090286155
31
0.0000000000
11
-20.2982528937
21
-18.7000000000
31
0.0000000000
0
SPLINE
5
3B9
100
AcDbEntity
8
0
100
AcDbSpline
62
9
6
CONTINUOUS
70
0
71
3
72
13
73
9
74
7
42
0.0000001000
43
0.0000001000
44
0.0000000001
12
0.0000892306
22
-0.4698760805
32
0.0000000000
13
-0.4698760828
23
0.0000763065
33
0.0000000000
40
0.0000000000
40
0.0000000000
40
0.0000000000
40
0.0000000000
40
0.1550483784
40
0.3243559340
40
0.5006146388
40
0.6768416506
40
0.8457851906
40
1.0000000000
40
1.0000000000
40
1.0000000000
40
1.0000000000
10
-19.9982528937
20
19.0000000000
30
0.0000000000
10
-19.9982482820
20
18.9757154919
30
0.0000000000
10
-20.0044809052
20
18.9247066242
30
0.0000000000
10
-20.0336458410
20
18.8509548116
30
0.0000000000
10
-20.0835976942
20
18.7849350501
30
0.0000000000
10
-20.1496670775
20
18.7351453912
30
0.0000000000
10
-20.2232810264
20
18.7061712519
30
0.0000000000
10
-20.2740989435
20
18.6999960775
30
0.0000000000
10
-20.2982528937
20
18.7000000000
30
0.0000000000
11
-19.9982528937
21
19.0000000000
31
0.0000000000
11
-20.0071006155
21
18.9276857274
31
0.0000000000
11
-20.0363492885
21
18.8537040678
31
0.0000000000
11
-20.0863309673
21
18.7876666321
31
0.0000000000
11
-20.1524524681
21
18.7378209520
31
0.0000000000
11
-20.2263216870
21
18.7087533662
31
0.0000000000
11
-20.2982528937
21
18.7000000000
31
0.0000000000
0
SPLINE
5
3BA
100
AcDbEntity
8
0
100
AcDbSpline
62
9
6
CONTINUOUS
70
0
71
3
72
9
73
5
74
3
42
0.0000001000
43
0.0000001000
44
0.0000000001
12
0.0689767967
22
-0.0689978125
32
0.0000000000
13
0.0736355110
23
-0.0698102598
33
0.0000000000
40
0.0000000000
40
0.0000000000
40
0.0000000000
40
0.0000000000
40
0.7717571908
40
1.0000000000
40
1.0000000000
40
1.0000000000
40
1.0000000000
10
-19.9982528937
20
-20.1171572875
30
0.0000000000
10
-19.9805084474
20
-20.1349071402
30
0.0000000000
10
-19.9589855699
20
-20.1578659501
30
0.0000000000
10
-19.9338718211
20
-20.1811460536
30
0.0000000000
10
-19.9282695624
20
-20.1864572836
30
0.0000000000
11
-19.9982528937
21
-20.1171572875
31
0.0000000000
11
-19.9451488206
21
-20.1705357589
31
0.0000000000
11
-19.9282695624
21
-20.1864572836
31
0.0000000000
0
SPLINE
5
3BB
100
AcDbEntity
8
0
100
AcDbSpline
62
9
6
CONTINUOUS
70
0
71
3
72
9
73
5
74
3
42
0.0000001000
43
0.0000001000
44
0.0000000001
12
0.0641145172
22
-0.0607838669
32
0.0000000000
13
0.1016854249
23
-0.0645472911
33
0.0000000000
40
0.0000000000
40
0.0000000000
40
0.0000000000
40
0.0000000000
40
0.4947342253
40
1.0000000000
40
1.0000000000
40
1.0000000000
40
1.0000000000
10
-19.9282695624
20
-20.1864572836
30
0.0000000000
10
-19.9176963471
20
-20.1964812367
30
0.0000000000
10
-19.8972591781
20
-20.2167260649
30
0.0000000000
10
-19.8874127374
20
-20.2364151166
30
0.0000000000
10
-19.8702866824
20
-20.2472862956
30
0.0000000000
11
-19.9282695624
21
-20.1864572836
31
0.0000000000
11
-19.9000666205
21
-20.2163768226
31
0.0000000000
11
-19.8702866824
21
-20.2472862956
31
0.0000000000
0
SPLINE
5
3BC
100
AcDbEntity
8
0
100
AcDbSpline
62
9
6
CONTINUOUS
70
0
71
3
72
8
73
4
74
2
42
0.0000001000
43
0.0000001000
44
0.0000000001
12
0.0180276091
22
-0.0114434624
32
0.0000000000
13
-0.0106492170
23
-0.0106492170
33
0.0000000000
40
0.0000000000
40
0.0000000000
40
0.0000000000
40
0.0000000000
40
1.0000000000
40
1.0000000000
40
1.0000000000
40
1.0000000000
10
-19.8702866824
20
-20.2472862956
30
0.0000000000
10
-19.8642774793
20
-20.2511007831
30
0.0000000000
10
-19.8567722797
20
-20.2550289047
30
0.0000000000
10
-19.8603220188
20
-20.2585786438
30
0.0000000000
11
-19.8702866824
21
-20.2472862956
31
0.0000000000
11
-19.8603220188
21
-20.2585786438
31
0.0000000000
0
SPLINE
5
3BD
100
AcDbEntity
8
0
100
AcDbSpline
62
7
6
CONTINUOUS
70
0
71
3
72
11
73
7
74
5
42
0.0000001000
43
0.0000001000
44
0.0000000001
12
0.0262732317
22
0.1996247748
32
0.0000000000
13
0.0039137548
23
0.2015172086
33
0.0000000000
40
0.0000000000
40
0.0000000000
40
0.0000000000
40
0.0000000000
40
0.3806643543
40
0.7053222360
40
0.9231727225
40
1.0000000000
40
1.0000000000
40
1.0000000000
40
1.0000000000
10
-24.5566342008
20
-18.7000000000
30
0.0000000000
10
-24.5533004399
20
-18.6746699880
30
0.0000000000
10
-24.5471736557
20
-18.6277230276
30
0.0000000000
10
-24.5400683173
20
-18.5661918001
30
0.0000000000
10
-24.5348358688
20
-18.5249145259
30
0.0000000000
10
-24.5338944103
20
-18.5051606728
30
0.0000000000
10
-24.5337941826
20
-18.5000000000
30
0.0000000000
11
-24.5566342008
21
-18.7000000000
31
0.0000000000
11
-24.5468905161
21
-18.6239765047
31
0.0000000000
11
-24.5391001857
21
-18.5590737083
31
0.0000000000
11
-24.5344905478
21
-18.5154532061
31
0.0000000000
11
-24.5337941826
21
-18.5000000000
31
0.0000000000
0
SPLINE
5
3BE
100
AcDbEntity
8
0
100
AcDbSpline
62
9
6
CONTINUOUS
70
0
71
3
72
11
73
7
74
5
42
0.0000001000
43
0.0000001000
44
0.0000000001
12
0.0000000000
22
0.2000781454
32
0.0000000000
13
-0.2000781454
23
-0.0000000000
33
0.0000000000
40
0.0000000000
40
0.0000000000
40
0.0000000000
40
0.0000000000
40
0.3825362711
40
0.7068549578
40
0.9236169453
40
1.0000000000
40
1.0000000000
40
1.0000000000
40
1.0000000000
10
-20.2982528937
20
-18.7000000000
30
0.0000000000
10
-20.2982528937
20
-18.6744876174
30
0.0000000000
10
-20.2996874290
20
-18.6288886270
30
0.0000000000
10
-20.2958200270
20
-18.5618570212
30
0.0000000000
10
-20.3056400528
20
-18.5314256819
30
0.0000000000
10
-20.2966491817
20
-18.5000000000
30
0.0000000000
10
-20.3017433750
20
-18.5000000000
30
0.0000000000
11
-20.2982528937
21
-18.7000000000
31
0.0000000000
11
-20.2985185908
21
-18.6234633135
31
0.0000000000
11
-20.2992752321
21
-18.5585786438
31
0.0000000000
11
-20.3004076258
21
-18.5152240935
31
0.0000000000
11
-20.3017433750
21
-18.5000000000
31
0.0000000000
0
SPLINE
5
3BF
100
AcDbEntity
8
0
100
AcDbSpline
62
7
6
CONTINUOUS
70
0
71
3
72
11
73
7
74
5
42
0.0000001000
43
0.0000001000
44
0.0000000001
12
0.0262732236
22
-0.1996247133
32
0.0000000000
13
0.0039467275
23
-0.2015164991
33
0.0000000000
40
0.0000000000
40
0.0000000000
40
0.0000000000
40
0.0000000000
40
0.3815193473
40
0.7053225289
40
0.9228155731
40
1.0000000000
40
1.0000000000
40
1.0000000000
40
1.0000000000
10
-24.5566342008
20
18.7000000000
30
0.0000000000
10
-24.5532929531
20
18.6746131032
30
0.0000000000
10
-24.5471668796
20
18.6276660866
30
0.0000000000
10
-24.5400625422
20
18.5661586915
30
0.0000000000
10
-24.5348415893
20
18.5249382596
30
0.0000000000
10
-24.5338957245
20
18.5051846452
30
0.0000000000
10
-24.5337941826
20
18.5000000000
30
0.0000000000
11
-24.5566342008
21
18.7000000000
31
0.0000000000
11
-24.5468692620
21
18.6238056948
31
0.0000000000
11
-24.5391001840
21
18.5590736936
31
0.0000000000
11
-24.5344969916
21
18.5155248943
31
0.0000000000
11
-24.5337941826
21
18.5000000000
31
0.0000000000
0
SPLINE
5
3C0
100
AcDbEntity
8
0
100
AcDbSpline
62
9
6
CONTINUOUS
70
0
71
3
72
11
73
7
74
5
42
0.0000001000
43
0.0000001000
44
0.0000000001
12
0.2000781454
22
0.0000000000
32
0.0000000000
13
-0.0000000000
23
0.2000781454
33
0.0000000000
40
0.0000000000
40
0.0000000000
40
0.0000000000
40
0.0000000000
40
0.0763830554
40
0.2931450430
40
0.6174637294
40
1.0000000000
40
1.0000000000
40
1.0000000000
40
1.0000000000
10
-20.3017433750
20
18.5000000000
30
0.0000000000
10
-20.2966491816
20
18.5000000000
30
0.0000000000
10
-20.3056400497
20
18.5314256817
30
0.0000000000
10
-20.2958200276
20
18.5618570214
30
0.0000000000
10
-20.2996874285
20
18.6288886270
30
0.0000000000
10
-20.2982528937
20
18.6744876175
30
0.0000000000
10
-20.2982528937
20
18.7000000000
30
0.0000000000
11
-20.3017433750
21
18.5000000000
31
0.0000000000
11
-20.3004076245
21
18.5152240935
31
0.0000000000
11
-20.2992752314
21
18.5585786439
31
0.0000000000
11
-20.2985185906
21
18.6234633136
31
0.0000000000
11
-20.2982528937
21
18.7000000000
31
0.0000000000
0
SPLINE
5
3C1
100
AcDbEntity
8
0
100
AcDbSpline
62
9
6
CONTINUOUS
70
0
71
3
72
13
73
9
74
7
42
0.0000001000
43
0.0000001000
44
0.0000000001
12
-0.7353260965
22
-0.0383875882
32
0.0000000000
13
-0.0307181493
23
-0.7356863941
33
0.0000000000
40
0.0000000000
40
0.0000000000
40
0.0000000000
40
0.0000000000
40
0.1661760139
40
0.3329167328
40
0.4996404914
40
0.6663226984
40
0.8331932491
40
1.0000000000
40
1.0000000000
40
1.0000000000
40
1.0000000000
10
-36.8955566200
20
21.4755923698
30
0.0000000000
10
-36.9362878066
20
21.4734660044
30
0.0000000000
10
-37.0177114495
20
21.4590758242
30
0.0000000000
10
-37.1307171215
20
21.4084670293
30
0.0000000000
10
-37.2281716214
20
21.3317731277
30
0.0000000000
10
-37.3039884428
20
21.2335934973
30
0.0000000000
10
-37.3536125049
20
21.1199569645
30
0.0000000000
10
-37.3672386788
20
21.0382017357
30
0.0000000000
10
-37.3689466770
20
20.9972959167
30
0.0000000000
11
-36.8955566200
21
21.4755923698
31
0.0000000000
11
-37.0160468913
21
21.4542838406
31
0.0000000000
11
-37.1281094874
21
21.4041254635
31
0.0000000000
11
-37.2245695314
21
21.3281894262
31
0.0000000000
11
-37.2995975390
21
21.2310600855
31
0.0000000000
11
-37.3487502516
21
21.1184484404
31
0.0000000000
11
-37.3689466770
21
20.9972959167
31
0.0000000000
0
SPLINE
5
3C2
100
AcDbEntity
8
0
100
AcDbSpline
62
9
6
CONTINUOUS
70
0
71
3
72
8
73
4
74
2
42
0.0000001000
43
0.0000001000
44
0.0000000001
12
0.0106492170
22
-0.0106492170
32
0.0000000000
13
-0.0180276091
23
-0.0114434624
33
0.0000000000
40
0.0000000000
40
0.0000000000
40
0.0000000000
40
0.0000000000
40
1.0000000000
40
1.0000000000
40
1.0000000000
40
1.0000000000
10
-19.8603220188
20
20.2585786438
30
0.0000000000
10
-19.8567722797
20
20.2550289047
30
0.0000000000
10
-19.8642774793
20
20.2511007831
30
0.0000000000
10
-19.8702866824
20
20.2472862956
30
0.0000000000
11
-19.8603220188
21
20.2585786438
31
0.0000000000
11
-19.8702866824
21
20.2472862956
31
0.0000000000
0
SPLINE
5
3C3
100
AcDbEntity
8
0
100
AcDbSpline
62
9
6
CONTINUOUS
70
0
71
3
72
9
73
5
74
3
42
0.0000001000
43
0.0000001000
44
0.0000000001
12
-0.1016854249
22
-0.0645472911
32
0.0000000000
13
-0.0641145172
23
-0.0607838669
33
0.0000000000
40
0.0000000000
40
0.0000000000
40
0.0000000000
40
0.0000000000
40
0.5052657747
40
1.0000000000
40
1.0000000000
40
1.0000000000
40
1.0000000000
10
-19.8702866824
20
20.2472862956
30
0.0000000000
10
-19.8874127374
20
20.2364151166
30
0.0000000000
10
-19.8972591781
20
20.2167260649
30
0.0000000000
10
-19.9176963471
20
20.1964812367
30
0.0000000000
10
-19.9282695624
20
20.1864572836
30
0.0000000000
11
-19.8702866824
21
20.2472862956
31
0.0000000000
11
-19.9000666205
21
20.2163768226
31
0.0000000000
11
-19.9282695624
21
20.1864572836
31
0.0000000000
0
SPLINE
5
3C4
100
AcDbEntity
8
0
100
AcDbSpline
62
9
6
CONTINUOUS
70
0
71
3
72
9
73
5
74
3
42
0.0000001000
43
0.0000001000
44
0.0000000001
12
-0.0736355110
22
-0.0698102598
32
0.0000000000
13
-0.0689767967
23
-0.0689978125
33
0.0000000000
40
0.0000000000
40
0.0000000000
40
0.0000000000
40
0.0000000000
40
0.2282428092
40
1.0000000000
40
1.0000000000
40
1.0000000000
40
1.0000000000
10
-19.9282695624
20
20.1864572836
30
0.0000000000
10
-19.9338718211
20
20.1811460536
30
0.0000000000
10
-19.9589855699
20
20.1578659501
30
0.0000000000
10
-19.9805084474
20
20.1349071402
30
0.0000000000
10
-19.9982528937
20
20.1171572875
30
0.0000000000
11
-19.9282695624
21
20.1864572836
31
0.0000000000
11
-19.9451488206
21
20.1705357589
31
0.0000000000
11
-19.9982528937
21
20.1171572875
31
0.0000000000
0
SPLINE
5
3C5
100
AcDbEntity
8
0
100
AcDbSpline
62
9
6
CONTINUOUS
70
0
71
3
72
12
73
8
74
6
42
0.0000001000
43
0.0000001000
44
0.0000000001
12
-0.0261470918
22
0.4990710030
32
0.0000000000
13
0.4990705792
23
0.0261551808
33
0.0000000000
40
0.0000000000
40
0.0000000000
40
0.0000000000
40
0.0000000000
40
0.3089436939
40
0.5876060637
40
0.8087537240
40
0.9507915428
40
1.0000000000
40
1.0000000000
40
1.0000000000
40
1.0000000000
10
-36.8955566200
20
21.4755923698
30
0.0000000000
10
-36.8982492797
20
21.5269873162
30
0.0000000000
10
-36.9039054149
20
21.6256520607
30
0.0000000000
10
-36.9067723366
20
21.7567809177
30
0.0000000000
10
-36.9184843116
20
21.8725158008
30
0.0000000000
10
-36.9051565138
20
21.9242212339
30
0.0000000000
10
-36.9211845639
20
21.9744781183
30
0.0000000000
10
-36.9129983995
20
21.9749071370
30
0.0000000000
11
-36.8955566200
21
21.4755923698
31
0.0000000000
11
-36.9032091661
21
21.6297989097
31
0.0000000000
11
-36.9092604508
21
21.7689304222
31
0.0000000000
11
-36.9131187515
21
21.8793828084
31
0.0000000000
11
-36.9144067378
21
21.9503553003
31
0.0000000000
11
-36.9129983995
21
21.9749071370
31
0.0000000000
0
SPLINE
5
3C6
100
AcDbEntity
8
0
100
AcDbSpline
62
9
6
CONTINUOUS
70
0
71
3
72
10
73
6
74
4
42
0.0000001000
43
0.0000001000
44
0.0000000001
12
-1.7657692813
22
-41.9684644010
32
0.0000000000
13
1.7657699770
23
-41.9684643717
33
0.0000000000
40
0.0000000000
40
0.0000000000
40
0.0000000000
40
0.0000000000
40
0.3333323477
40
0.6666669816
40
1.0000000000
40
1.0000000000
40
1.0000000000
40
1.0000000000
10
-37.3689466770
20
20.9972959167
30
0.0000000000
10
-37.5651426837
20
16.3341469941
30
0.0000000000
10
-37.8268256429
20
7.0017671651
30
0.0000000000
10
-37.8268259395
20
-7.0017483769
30
0.0000000000
10
-37.5651431558
20
-16.3341376140
30
0.0000000000
10
-37.3689466770
20
-20.9972959167
30
0.0000000000
11
-37.3689466770
21
20.9972959167
31
0.0000000000
11
-37.7614045038
21
7.0009737718
31
0.0000000000
11
-37.7614048771
21
-7.0009455965
31
0.0000000000
11
-37.3689466770
21
-20.9972959167
31
0.0000000000
0
SPLINE
5
3C7
100
AcDbEntity
8
0
100
AcDbSpline
62
9
6
CONTINUOUS
70
0
71
3
72
13
73
9
74
7
42
0.0000001000
43
0.0000001000
44
0.0000000001
12
0.0307181302
22
-0.7356863949
32
0.0000000000
13
0.7353260943
23
-0.0383876317
33
0.0000000000
40
0.0000000000
40
0.0000000000
40
0.0000000000
40
0.0000000000
40
0.1668067509
40
0.3336773015
40
0.5003595086
40
0.6670832671
40
0.8338239861
40
1.0000000000
40
1.0000000000
40
1.0000000000
40
1.0000000000
10
-37.3689466770
20
-20.9972959167
30
0.0000000000
10
-37.3672386799
20
-21.0382017357
30
0.0000000000
10
-37.3536125039
20
-21.1199569644
30
0.0000000000
10
-37.3039884432
20
-21.2335934974
30
0.0000000000
10
-37.2281716215
20
-21.3317731280
30
0.0000000000
10
-37.1307171211
20
-21.4084670284
30
0.0000000000
10
-37.0177114498
20
-21.4590758260
30
0.0000000000
10
-36.9362878064
20
-21.4734660020
30
0.0000000000
10
-36.8955566200
20
-21.4755923698
30
0.0000000000
11
-37.3689466770
21
-20.9972959167
31
0.0000000000
11
-37.3487502514
21
-21.1184484403
31
0.0000000000
11
-37.2995975391
21
-21.2310600856
31
0.0000000000
11
-37.2245695314
21
-21.3281894263
31
0.0000000000
11
-37.1281094872
21
-21.4041254633
31
0.0000000000
11
-37.0160468914
21
-21.4542838409
31
0.0000000000
11
-36.8955566200
21
-21.4755923698
31
0.0000000000
0
SPLINE
5
3C8
100
AcDbEntity
8
0
100
AcDbSpline
62
9
6
CONTINUOUS
70
0
71
3
72
12
73
8
74
6
42
0.0000001000
43
0.0000001000
44
0.0000000001
12
-0.0261472363
22
-0.4990710015
32
0.0000000000
13
0.4990705852
23
-0.0261551811
33
0.0000000000
40
0.0000000000
40
0.0000000000
40
0.0000000000
40
0.0000000000
40
0.3089507471
40
0.5876147125
40
0.8087596427
40
0.9507934516
40
1.0000000000
40
1.0000000000
40
1.0000000000
40
1.0000000000
10
-36.8955566200
20
-21.4755923698
30
0.0000000000
10
-36.8982493561
20
-21.5269884894
30
0.0000000000
10
-36.9039056040
20
-21.6256547081
30
0.0000000000
10
-36.9067725294
20
-21.7567844814
30
0.0000000000
10
-36.9184843487
20
-21.8725184815
30
0.0000000000
10
-36.9051569236
20
-21.9242228489
30
0.0000000000
10
-36.9211842419
20
-21.9744781351
30
0.0000000000
10
-36.9129983949
20
-21.9749071372
30
0.0000000000
11
-36.8955566200
21
-21.4755923698
31
0.0000000000
11
-36.9032093671
21
-21.6298024308
31
0.0000000000
11
-36.9092606774
21
-21.7689347420
31
0.0000000000
11
-36.9131188895
21
-21.8793857675
31
0.0000000000
11
-36.9144067700
21
-21.9503562578
31
0.0000000000
11
-36.9129983949
21
-21.9749071372
31
0.0000000000
0
SPLINE
5
3C9
100
AcDbEntity
8
0
100
AcDbSpline
62
7
6
CONTINUOUS
70
0
71
3
72
10
73
6
74
4
42
0.0000001000
43
0.0000001000
44
0.0000000001
12
4.0000789575
22
0.0760029924
32
0.0000000000
13
3.9999099472
23
0.0844306542
33
0.0000000000
40
0.0000000000
40
0.0000000000
40
0.0000000000
40
0.0000000000
40
0.3364642805
40
0.6698048252
40
1.0000000000
40
1.0000000000
40
1.0000000000
40
1.0000000000
10
-28.8017433750
20
-23.1799085618
30
0.0000000000
10
-28.3531154789
20
-23.1713844644
30
0.0000000000
10
-27.4600299716
20
-23.1541389527
30
0.0000000000
10
-26.1266956269
20
-23.1275011740
30
0.0000000000
10
-25.2419936964
20
-23.1091833397
30
0.0000000000
10
-24.8017433750
20
-23.0998904748
30
0.0000000000
11
-28.8017433750
21
-23.1799085618
31
0.0000000000
11
-27.4558678925
21
-23.1539079810
31
0.0000000000
11
-26.1225050864
21
-23.1272551822
31
0.0000000000
11
-24.8017433750
21
-23.0998904748
31
0.0000000000
0
SPLINE
5
3CA
100
AcDbEntity
8
0
100
AcDbSpline
62
7
6
CONTINUOUS
70
0
71
3
72
14
73
10
74
8
42
0.0000001000
43
0.0000001000
44
0.0000000001
12
0.2124183528
22
0.2124183528
32
0.0000000000
13
-0.3003956676
23
-0.0023571426
33
0.0000000000
40
0.0000000000
40
0.0000000000
40
0.0000000000
40
0.0000000000
40
0.1513188742
40
0.2818786869
40
0.3940475863
40
0.5043907142
40
0.6381355679
40
0.8048762473
40
1.0000000000
40
1.0000000000
40
1.0000000000
40
1.0000000000
10
-20.6112298864
20
-21.0094865114
30
0.0000000000
10
-20.6005155844
20
-20.9987722094
30
0.0000000000
10
-20.5819195003
20
-20.9772966162
30
0.0000000000
10
-20.5630871817
20
-20.9421137519
30
0.0000000000
10
-20.5589843259
20
-20.9054085283
30
0.0000000000
10
-20.5769620894
20
-20.8721731582
30
0.0000000000
10
-20.6133524186
20
-20.8504265231
30
0.0000000000
10
-20.6618459954
20
-20.8384692690
30
0.0000000000
10
-20.6982204037
20
-20.8365095960
30
0.0000000000
10
-20.7177585137
20
-20.8366629075
30
0.0000000000
11
-20.6112298864
21
-21.0094865114
31
0.0000000000
11
-20.5820267676
21
-20.9746510313
31
0.0000000000
11
-20.5647484253
21
-20.9394412204
31
0.0000000000
11
-20.5624735918
21
-20.9058220067
31
0.0000000000
11
-20.5776824213
21
-20.8763693993
31
0.0000000000
11
-20.6109814662
21
-20.8538879832
31
0.0000000000
11
-20.6592741878
21
-20.8405916279
31
0.0000000000
11
-20.7177585137
21
-20.8366629075
31
0.0000000000
0
SPLINE
5
3CB
100
AcDbEntity
8
0
100
AcDbSpline
62
7
6
CONTINUOUS
70
0
71
3
72
10
73
6
74
4
42
0.0000001000
43
0.0000001000
44
0.0000000001
12
4.0000789575
22
-0.0760029924
32
0.0000000000
13
3.9999099472
23
-0.0844306542
33
0.0000000000
40
0.0000000000
40
0.0000000000
40
0.0000000000
40
0.0000000000
40
0.3364642805
40
0.6698048252
40
1.0000000000
40
1.0000000000
40
1.0000000000
40
1.0000000000
10
-28.8017433750
20
23.1799085618
30
0.0000000000
10
-28.3531154789
20
23.1713844644
30
0.0000000000
10
-27.4600299716
20
23.1541389527
30
0.0000000000
10
-26.1266956269
20
23.1275011740
30
0.0000000000
10
-25.2419936964
20
23.1091833397
30
0.0000000000
10
-24.8017433750
20
23.0998904748
30
0.0000000000
11
-28.8017433750
21
23.1799085618
31
0.0000000000
11
-27.4558678925
21
23.1539079810
31
0.0000000000
11
-26.1225050864
21
23.1272551822
31
0.0000000000
11
-24.8017433750
21
23.0998904748
31
0.0000000000
0
SPLINE
5
3CC
100
AcDbEntity
8
0
100
AcDbSpline
62
7
6
CONTINUOUS
70
0
71
3
72
14
73
10
74
8
42
0.0000001000
43
0.0000001000
44
0.0000000001
12
0.3003880742
22
-0.0023570830
32
0.0000000000
13
-0.2124129833
23
0.2124129833
33
0.0000000000
40
0.0000000000
40
0.0000000000
40
0.0000000000
40
0.0000000000
40
0.1908229875
40
0.3555840812
40
0.4897926708
40
0.6018246220
40
0.7142482008
40
0.8446055685
40
1.0000000000
40
1.0000000000
40
1.0000000000
40
1.0000000000
10
-20.7177585137
20
20.8366629075
30
0.0000000000
10
-20.6986515304
20
20.8365129789
30
0.0000000000
10
-20.6629158595
20
20.8383881315
30
0.0000000000
10
-20.6149389546
20
20.8499034672
30
0.0000000000
10
-20.5782419814
20
20.8709660741
30
0.0000000000
10
-20.5591875569
20
20.9039240810
30
0.0000000000
10
-20.5626558485
20
20.9409457174
30
0.0000000000
10
-20.5814056640
20
20.9766703474
30
0.0000000000
10
-20.6002272881
20
20.9984839131
30
0.0000000000
10
-20.6112298864
20
21.0094865114
30
0.0000000000
11
-20.7177585137
21
20.8366629075
31
0.0000000000
11
-20.6605572990
21
20.8403931378
31
0.0000000000
11
-20.6127331699
21
20.8531402181
31
0.0000000000
11
-20.5789069691
21
20.8750755778
31
0.0000000000
11
-20.5627256804
21
20.9045842920
31
0.0000000000
11
-20.5644231134
21
20.9383133489
31
0.0000000000
11
-20.5813433543
21
20.9736281199
31
0.0000000000
11
-20.6112298864
21
21.0094865114
31
0.0000000000
0
ENDSEC
0
SECTION
2
OBJECTS
0
DICTIONARY
5
C
100
AcDbDictionary
280
0
281
1
3
ACAD_GROUP
350
D
3
ACAD_MLINESTYLE
350
17
3
ACAD_LAYOUT
350
1A
3
ACAD_PLOTSETTINGS
350
19
3
ACAD_PLOTSTYLENAME
350
E
0
DICTIONARY
5
D
102
{ACAD_REACTORS
330
C
102
}
100
AcDbDictionary
280
0
281
1
0
ACDBDICTIONARYWDFLT
5
E
102
{ACAD_REACTORS
330
C
102
}
100
AcDbDictionary
281
1
3
Normal
350
F
100
AcDbDictionaryWithDefault
340
F
0
DICTIONARY
5
17
102
{ACAD_REACTORS
330
C
102
}
100
AcDbDictionary
280
0
281
1
3
Standard
350
18
0
DICTIONARY
5
19
102
{ACAD_REACTORS
330
C
102
}
100
AcDbDictionary
281
1
0
DICTIONARY
5
1A
102
{ACAD_REACTORS
330
C
102
}
100
AcDbDictionary
281
1
3
Layout1
350
1E
3
Model
350
22
0
ACDBPLACEHOLDER
5
F
102
{ACAD_REACTORS
330
E
102
}
0
MLINESTYLE
5
18
102
{ACAD_REACTORS
330
17
102
}
100
AcDbMlineStyle
2
STANDARD
70
0
3

62
256
51
90.0
52
90.0
71
2
49
0.5
62
256
6
BYLAYER
49
-0.5
62
256
6
BYLAYER
0
LAYOUT
5
1E
102
{ACAD_REACTORS
330
1A
102
}
100
AcDbPlotSettings
1

2

4

6

40
0.0
41
0.0
42
0.0
43
0.0
44
0.0
45
0.0
46
0.0
47
0.0
48
0.0
49
0.0
140
0.0
141
0.0
142
1.0
143
1.0
70
0
72
0
73
0
74
0
7

75
0
147
1.0
148
0.0
149
0.0
100
AcDbLayout
1
Layout1
70
0
71
0
10
0.0
20
0.0
11
0.0
21
0.0
12
0.0
22
0.0
32
0.0
14
0.0
24
0.0
34
0.0
15
0.0
25
0.0
35
0.0
146
0.0
13
0.0
23
0.0
33
0.0
16
0.0
26
0.0
36
0.0
17
0.0
27
0.0
37
0.0
76
0
330
1B
331
0
345
0
346
0
0
LAYOUT
5
22
102
{ACAD_REACTORS
330
1A
102
}
100
AcDbPlotSettings
1

2

4

6

40
0.0
41
0.0
42
0.0
43
0.0
44
0.0
45
0.0
46
0.0
47
0.0
48
0.0
49
0.0
140
0.0
141
0.0
142
1.0
143
1.0
70
0
72
0
73
0
74
0
7

75
0
147
1.0
148
0.0
149
0.0
100
AcDbLayout
1
Model
70
0
71
0
10
0.0
20
0.0
11
0.0
21
0.0
12
0.0
22
0.0
32
0.0
14
0.0
24
0.0
34
0.0
15
0.0
25
0.0
35
0.0
146
0.0
13
0.0
23
0.0
33
0.0
16
0.0
26
0.0
36
0.0
17
0.0
27
0.0
37
0.0
76
0
330
1F
331
0
345
0
346
0
0
ENDSEC
0
EOF
