  0
SECTION
  2
HEADER
  9
$ACADVER
  1
AC1024
  9
$DWGCODEPAGE
  3
ANSI_1252
  9
$EXTMAX
 10
297.0
 20
210.0
 30
0.0
  9
$EXTMIN
 10
0.0
 20
0.0
 30
0.0
  9
$LIMMIN
 10
0.0
 20
0.0
  9
$LIMMAX
 10
297.0
 20
210.0
  9
$VIEWCTR
 10
148.5
 20
105.0
  9
$VIEWSIZE
 40
210.0
  9
$CLAYER
  8
0
  9
$LTSCALE
 40
16.335
  9
$CELTYPE
  6
BYLAYER
  9
$DIMSCALE
 40
1.0
  9
$DIMASZ
 40
3.0
  9
$DIMEXO
 40
0.5
  9
$DIMDLI
 40
11.286
  9
$DIMEXE
 40
1.5
  9
$DIMCEN
 40
2.673
  9
$DIMLFAC
 40
1.0
  9
$DIMBLK
  1
_FILLED
  9
$DIMALT
 70
0
  9
$DIMALTF
 40
0.0393700787
  9
$DIMTXT
 40
3.0
  9
$DIMTOL
 70
1
  9
$DIMLIM
 70
0
  9
$DIMTFAC
 40
1.0
  9
$DIMTP
 40
0.01
  9
$DIMTM
 40
0.01
  9
$DIMGAP
 40
0.625
  9
$DIMDSEP
 70
44
  9
$AUNITS
 70
0
  9
$PDMODE
 70
3
  9
$PDSIZE
 40
3.0
  9
$HANDSEED
  5
5F1
  9
$TILEMODE
 70
1
  9
$MEASUREMENT
 70
1
  9
$INSUNITS
 70
4
  0
ENDSEC
  0
SECTION
  2
CLASSES
  0
CLASS
  1
ACDBDICTIONARYWDFLT
  2
AcDbDictionaryWithDefault
  3
AutoCAD 2000
 90
0
 91
1
280
0
281
0
  0
CLASS
  1
ACDBPLACEHOLDER
  2
AcDbPlaceHolder
  3
AutoCAD 2000
 90
0
 91
1
280
0
281
0
  0
CLASS
  1
LAYOUT
  2
AcDbLayout
  3
AutoCAD 2000
 90
0
 91
0
280
0
281
0
  0
ENDSEC
  0
SECTION
  2
TABLES
  0
TABLE
  2
VPORT
  5
8
100
AcDbSymbolTable
 70
2
  0
VPORT
  5
1F4
100
AcDbSymbolTableRecord
100
AcDbViewportTableRecord
  2
*ACTIVE
 70
0
 10
0.0
 20
0.0
 11
1.0
 21
1.0
 12
148.5
 22
105.0
 13
0.0
 23
0.0
 14
1.0
 24
1.0
 15
0.0
 25
0.0
 16
0.0
 26
0.0
 36
1.0
 17
0.0
 27
0.0
 37
0.0
 40
210.0
 41
1.4142857143
 42
50.0
 43
0.0
 44
0.0
 50
0.0
 51
0.0
 71
0
 72
100
 73
1
 74
1
 75
0
 76
0
 77
0
 78
0
  0
ENDTAB
  0
TABLE
  2
LTYPE
  5
5
100
AcDbSymbolTable
 70
6
  0
LTYPE
  5
14
100
AcDbSymbolTableRecord
100
AcDbLinetypeTableRecord
  2
BYBLOCK
 70
0
  3

 72
65
 73
0
 40
0.0
  0
LTYPE
  5
15
100
AcDbSymbolTableRecord
100
AcDbLinetypeTableRecord
  2
BYLAYER
 70
0
  3

 72
65
 73
0
 40
0.0
  0
LTYPE
  5
16
100
AcDbSymbolTableRecord
100
AcDbLinetypeTableRecord
  2
CONTINUOUS
 70
64
  3
Solid line
 72
65
 73
0
 40
0.0
  0
LTYPE
  5
1F5
100
AcDbSymbolTableRecord
100
AcDbLinetypeTableRecord
  2
CENTER
 70
64
  3
____ _ ____ _ ____ _ ____ _ ____ _ ____ _ ____
 72
65
 73
4
 40
0.6
 49
0.375
 74
0
 49
-0.075
 74
0
 49
0.075
 74
0
 49
-0.075
 74
0
  0
LTYPE
  5
1F6
100
AcDbSymbolTableRecord
100
AcDbLinetypeTableRecord
  2
HIDDEN
 70
64
  3
- - - - - - - - - - - - - - - - - - - -
 72
65
 73
2
 40
0.2
 49
0.1
 74
0
 49
-0.1
 74
0
  0
LTYPE
  5
1F7
100
AcDbSymbolTableRecord
100
AcDbLinetypeTableRecord
  2
PHANTOM
 70
64
  3
_____ _ _ _____ _ _ _____ _ _ _____
 72
65
 73
6
 40
0.8
 49
0.45
 74
0
 49
-0.05
 74
0
 49
0.1
 74
0
 49
-0.05
 74
0
 49
0.1
 74
0
 49
-0.05
 74
0
  0
LTYPE
  5
1F8
100
AcDbSymbolTableRecord
100
AcDbLinetypeTableRecord
  2
DOT
 70
64
  3
. . . . . . . . . . . . . . . . . . . .
 72
65
 73
2
 40
0.2
 49
0.1
 74
0
 49
-0.1
 74
0
  0
LTYPE
  5
1F9
100
AcDbSymbolTableRecord
100
AcDbLinetypeTableRecord
  2
DASHED
 70
64
  3
- - - - - - - - - - - - - - - - - - - -
 72
65
 73
2
 40
0.2
 49
0.1
 74
0
 49
-0.1
 74
0
  0
ENDTAB
  0
TABLE
  2
LAYER
  5
2
100
AcDbSymbolTable
 70
36
  0
LAYER
  5
10
100
AcDbSymbolTableRecord
100
AcDbLayerTableRecord
  2
0
 70
0
 62
7
  6
CONTINUOUS
370
-3
390
F
  0
LAYER
  5
1FA
100
AcDbSymbolTableRecord
100
AcDbLayerTableRecord
  2
DEFAULT_1
 70
0
 62
7
  6
CENTER
370
-3
390
F
  0
LAYER
  5
1FB
100
AcDbSymbolTableRecord
100
AcDbLayerTableRecord
  2
DEFAULT_2
 70
0
 62
7
  6
HIDDEN
370
-3
390
F
  0
LAYER
  5
1FC
100
AcDbSymbolTableRecord
100
AcDbLayerTableRecord
  2
DEFAULT_3
 70
0
 62
7
  6
PHANTOM
370
-3
390
F
  0
LAYER
  5
1FD
100
AcDbSymbolTableRecord
100
AcDbLayerTableRecord
  2
ASSI
 70
0
 62
7
  6
CONTINUOUS
370
-3
390
F
  0
LAYER
  5
1FE
100
AcDbSymbolTableRecord
100
AcDbLayerTableRecord
  2
COORDINATE
 70
0
 62
7
  6
CONTINUOUS
370
-3
390
F
  0
LAYER
  5
1FF
100
AcDbSymbolTableRecord
100
AcDbLayerTableRecord
  2
COORD_ORIGINE
 70
0
 62
7
  6
CONTINUOUS
370
-3
390
F
  0
LAYER
  5
200
100
AcDbSymbolTableRecord
100
AcDbLayerTableRecord
  2
CURVE
 70
0
 62
7
  6
CONTINUOUS
370
-3
390
F
  0
LAYER
  5
201
100
AcDbSymbolTableRecord
100
AcDbLayerTableRecord
  2
DRAFT
 70
0
 62
7
  6
CONTINUOUS
370
-3
390
F
  0
LAYER
  5
202
100
AcDbSymbolTableRecord
100
AcDbLayerTableRecord
  2
IMPORT_FEATURES
 70
0
 62
7
  6
CONTINUOUS
370
-3
390
F
  0
LAYER
  5
203
100
AcDbSymbolTableRecord
100
AcDbLayerTableRecord
  2
INTF_1
 70
0
 62
7
  6
CONTINUOUS
370
-3
390
F
  0
LAYER
  5
204
100
AcDbSymbolTableRecord
100
AcDbLayerTableRecord
  2
INTF_12
 70
0
 62
7
  6
CONTINUOUS
370
-3
390
F
  0
LAYER
  5
205
100
AcDbSymbolTableRecord
100
AcDbLayerTableRecord
  2
NOTE
 70
0
 62
7
  6
CONTINUOUS
370
-3
390
F
  0
LAYER
  5
206
100
AcDbSymbolTableRecord
100
AcDbLayerTableRecord
  2
PIANI
 70
0
 62
7
  6
CONTINUOUS
370
-3
390
F
  0
LAYER
  5
207
100
AcDbSymbolTableRecord
100
AcDbLayerTableRecord
  2
PIANI_ORIGINE
 70
0
 62
7
  6
CONTINUOUS
370
-3
390
F
  0
LAYER
  5
208
100
AcDbSymbolTableRecord
100
AcDbLayerTableRecord
  2
PUNTI
 70
0
 62
7
  6
CONTINUOUS
370
-3
390
F
  0
LAYER
  5
209
100
AcDbSymbolTableRecord
100
AcDbLayerTableRecord
  2
RACCORDO
 70
0
 62
7
  6
CONTINUOUS
370
-3
390
F
  0
LAYER
  5
20A
100
AcDbSymbolTableRecord
100
AcDbLayerTableRecord
  2
RGB____0____0____0__
 70
0
 62
7
  6
CONTINUOUS
370
-3
390
F
  0
LAYER
  5
20B
100
AcDbSymbolTableRecord
100
AcDbLayerTableRecord
  2
SMUSSO
 70
0
 62
7
  6
CONTINUOUS
370
-3
390
F
  0
LAYER
  5
20C
100
AcDbSymbolTableRecord
100
AcDbLayerTableRecord
  2
SNAPLINE
 70
0
 62
7
  6
CONTINUOUS
370
-3
390
F
  0
LAYER
  5
20D
100
AcDbSymbolTableRecord
100
AcDbLayerTableRecord
  2
SUPERFICI
 70
0
 62
7
  6
CONTINUOUS
370
-3
390
F
  0
LAYER
  5
20E
100
AcDbSymbolTableRecord
100
AcDbLayerTableRecord
  2
TRASH
 70
0
 62
7
  6
CONTINUOUS
370
-3
390
F
  0
LAYER
  5
20F
100
AcDbSymbolTableRecord
100
AcDbLayerTableRecord
  2
XSEC_DATUMS
 70
0
 62
7
  6
CONTINUOUS
370
-3
390
F
  0
ENDTAB
  0
TABLE
  2
STYLE
  5
3
100
AcDbSymbolTable
 70
1
  0
STYLE
  5
11
100
AcDbSymbolTableRecord
100
AcDbTextStyleTableRecord
  2
STANDARD
 70
0
 40
0.0
 41
0.8
 50
0.0
 71
0
 42
0.2
  3
txt
  4

  0
STYLE
  5
210
100
AcDbSymbolTableRecord
100
AcDbTextStyleTableRecord
  2
TEXTSTYLE_1
 70
0
 40
0.0
 41
0.8
 50
0.0
 71
0
 42
0.2
  3
gdt
  4

  0
ENDTAB
  0
TABLE
  2
VIEW
  5
6
100
AcDbSymbolTable
 70
0
  0
ENDTAB
  0
TABLE
  2
UCS
  5
7
100
AcDbSymbolTable
 70
0
  0
ENDTAB
  0
TABLE
  2
APPID
  5
9
100
AcDbSymbolTable
 70
1
  0
APPID
  5
211
100
AcDbSymbolTableRecord
100
AcDbRegAppTableRecord
  2
ACAD
 70
0
  0
ENDTAB
  0
TABLE
  2
BLOCK_RECORD
  5
1
100
AcDbSymbolTable
 70
0
  0
BLOCK_RECORD
  5
212
100
AcDbSymbolTableRecord
100
AcDbBlockTableRecord
  2
*Model_Space
  0
BLOCK_RECORD
  5
213
100
AcDbSymbolTableRecord
100
AcDbBlockTableRecord
  2
*Paper_Space
  0
BLOCK_RECORD
  5
214
100
AcDbSymbolTableRecord
100
AcDbBlockTableRecord
  2
_FILLED
  0
BLOCK_RECORD
  5
215
100
AcDbSymbolTableRecord
100
AcDbBlockTableRecord
  2
*D0
  0
BLOCK_RECORD
  5
216
100
AcDbSymbolTableRecord
100
AcDbBlockTableRecord
  2
*D1
  0
BLOCK_RECORD
  5
217
100
AcDbSymbolTableRecord
100
AcDbBlockTableRecord
  2
*D2
  0
BLOCK_RECORD
  5
218
100
AcDbSymbolTableRecord
100
AcDbBlockTableRecord
  2
*D3
  0
ENDTAB
  0
TABLE
  2
DIMSTYLE
  5
A
100
AcDbSymbolTable
 70
1
100
AcDbDimStyleTable
 71
0
  0
DIMSTYLE
105
219
100
AcDbSymbolTableRecord
100
AcDbDimStyleTableRecord
  2
STANDARD
 70
0
  3

  4

 40
1.0
 41
3.0
 42
0.5
 43
0.38
 44
1.5
 45
0.0
 46
0.0
 47
0.01
 48
0.01
140
3.0
141
0.09
142
0.0
143
25.4
144
1.0
145
0.0
146
1.0
147
0.625
 71
1
 72
0
 73
0
 74
0
 75
0
 76
0
 77
1
 78
8
 79
2
170
0
171
1
172
0
173
0
174
0
175
0
176
0
177
0
178
0
270
2
179
2
271
2
272
2
273
2
274
2
275
0
280
0
281
0
282
0
283
1
284
8
285
0
286
0
287
3
288
0
340
11
278
44
341
214
342
214
343
214
344
214
  0
DIMSTYLE
105
21A
100
AcDbSymbolTableRecord
100
AcDbDimStyleTableRecord
  2
DIMSTYLE_1
 70
0
  3

  4

 40
1.0
 41
3.0
 42
0.5
 43
0.38
 44
1.5
 45
0.0
 46
0.0
 47
0.0
 48
0.0
140
3.0
141
0.09
142
0.0
143
25.4
144
1.0
145
0.0
146
1.0
147
0.75
 71
0
 72
0
 73
0
 74
0
 75
0
 76
0
 77
1
 78
8
 79
2
170
0
171
1
172
0
173
0
174
0
175
0
176
0
177
0
178
0
270
2
179
2
271
2
272
2
273
2
274
2
275
0
280
0
281
0
282
0
283
1
284
8
285
0
286
0
287
3
288
0
340
11
278
44
341
214
342
214
343
214
344
214
  0
ENDTAB
  0
ENDSEC
  0
SECTION
  2
BLOCKS
  0
BLOCK
  5
20
100
AcDbEntity
  8
0
100
AcDbBlockBegin
  2
*Model_Space
 70
0
 10
0.0
 20
0.0
 30
0.0
  3
*Model_Space
  1

  0
ENDBLK
  5
21
100
AcDbEntity
  8
0
100
AcDbBlockEnd
  0
BLOCK
  5
1C
100
AcDbEntity
  8
0
100
AcDbBlockBegin
  2
*Paper_Space
 70
0
 10
0.0
 20
0.0
 30
0.0
  3
*Paper_Space
  1

  0
ENDBLK
  5
1D
100
AcDbEntity
  8
0
100
AcDbBlockEnd
  0
BLOCK
  5
21B
100
AcDbEntity
  8
0
100
AcDbBlockBegin
  2
_FILLED
 70
64
 10
0.0
 20
0.0
  3
_FILLED
  1

  0
SOLID
  5
21C
100
AcDbEntity
  8
0
  6
BYBLOCK
 62
0
100
AcDbTrace
 10
0.0
 20
0.0
 11
-1.0
 21
0.3166666667
 12
-1.0
 22
-0.3166666667
 13
-1.0
 23
-0.3166666667
  0
ENDBLK
  5
21D
100
AcDbEntity
  8
0
  6
BYBLOCK
 62
0
100
AcDbBlockEnd
  0
BLOCK
  5
21E
100
AcDbEntity
  8
0
100
AcDbBlockBegin
 62
7
  6
CONTINUOUS
  2
*D0
 70
65
 10
0.0
 20
0.0
  3
*D0
  1

  0
LINE
  5
21F
100
AcDbEntity
  8
0
100
AcDbLine
 62
7
  6
CONTINUOUS
 10
44.1071031865
 20
23.5
 11
60.2837658388
 21
23.5
  0
LINE
  5
220
100
AcDbEntity
  8
0
100
AcDbLine
 62
7
  6
CONTINUOUS
 10
44.1071031865
 20
-23.5
 11
60.2837658388
 21
-23.5
  0
LINE
  5
221
100
AcDbEntity
  8
0
100
AcDbLine
 62
7
  6
CONTINUOUS
 10
58.7837658388
 20
23.5
 11
58.7837658388
 21
0.0
  0
LINE
  5
222
100
AcDbEntity
  8
0
100
AcDbLine
 62
7
  6
CONTINUOUS
 10
58.7837658388
 20
-23.5
 11
58.7837658388
 21
0.0
  0
INSERT
  5
223
100
AcDbEntity
  8
0
100
AcDbBlockReference
 62
7
  6
CONTINUOUS
  2
_FILLED
 10
58.7837658388
 20
23.5
 41
3.0
 42
3.0
 43
3.0
 50
90.0
  0
INSERT
  5
224
100
AcDbEntity
  8
0
100
AcDbBlockReference
 62
7
  6
CONTINUOUS
  2
_FILLED
 10
58.7837658388
 20
-23.5
 41
3.0
 42
3.0
 43
3.0
 50
270.0
  0
ENDBLK
  5
225
100
AcDbEntity
  8
0
  6
BYBLOCK
 62
0
100
AcDbBlockEnd
  0
BLOCK
  5
226
100
AcDbEntity
  8
0
100
AcDbBlockBegin
 62
7
  6
CONTINUOUS
  2
*D1
 70
65
 10
0.0
 20
0.0
  3
*D1
  1

  0
LINE
  5
227
100
AcDbEntity
  8
0
100
AcDbLine
 62
7
  6
CONTINUOUS
 10
50.7837658388
 20
22.3997711479
 11
50.7837658388
 21
33.0
  0
LINE
  5
228
100
AcDbEntity
  8
0
100
AcDbLine
 62
7
  6
CONTINUOUS
 10
28.4837658388
 20
22.3997711479
 11
28.4837658388
 21
33.0
  0
LINE
  5
229
100
AcDbEntity
  8
0
100
AcDbLine
 62
7
  6
CONTINUOUS
 10
50.7837658388
 20
31.5
 11
39.6337658388
 21
31.5
  0
LINE
  5
22A
100
AcDbEntity
  8
0
100
AcDbLine
 62
7
  6
CONTINUOUS
 10
28.4837658388
 20
31.5
 11
39.6337658388
 21
31.5
  0
INSERT
  5
22B
100
AcDbEntity
  8
0
100
AcDbBlockReference
 62
7
  6
CONTINUOUS
  2
_FILLED
 10
50.7837658388
 20
31.5
 41
3.0
 42
3.0
 43
3.0
  0
INSERT
  5
22C
100
AcDbEntity
  8
0
100
AcDbBlockReference
 62
7
  6
CONTINUOUS
  2
_FILLED
 10
28.4837658388
 20
31.5
 41
3.0
 42
3.0
 43
3.0
 50
180.0
  0
ENDBLK
  5
22D
100
AcDbEntity
  8
0
  6
BYBLOCK
 62
0
100
AcDbBlockEnd
  0
BLOCK
  5
22E
100
AcDbEntity
  8
0
100
AcDbBlockBegin
 62
7
  6
CONTINUOUS
  2
*D2
 70
65
 10
0.0
 20
0.0
  3
*D2
  1

  0
LINE
  5
22F
100
AcDbEntity
  8
0
100
AcDbLine
 62
7
  6
CONTINUOUS
 10
14.85
 20
20.6171572875
 11
14.85
 21
33.0
  0
LINE
  5
230
100
AcDbEntity
  8
0
100
AcDbLine
 62
7
  6
CONTINUOUS
 10
-3.65
 20
0.5
 11
-3.65
 21
33.0
  0
LINE
  5
231
100
AcDbEntity
  8
0
100
AcDbLine
 62
7
  6
CONTINUOUS
 10
14.85
 20
31.5
 11
5.6
 21
31.5
  0
LINE
  5
232
100
AcDbEntity
  8
0
100
AcDbLine
 62
7
  6
CONTINUOUS
 10
-3.65
 20
31.5
 11
5.6
 21
31.5
  0
INSERT
  5
233
100
AcDbEntity
  8
0
100
AcDbBlockReference
 62
7
  6
CONTINUOUS
  2
_FILLED
 10
14.85
 20
31.5
 41
3.0
 42
3.0
 43
3.0
  0
INSERT
  5
234
100
AcDbEntity
  8
0
100
AcDbBlockReference
 62
7
  6
CONTINUOUS
  2
_FILLED
 10
-3.65
 20
31.5
 41
3.0
 42
3.0
 43
3.0
 50
180.0
  0
ENDBLK
  5
235
100
AcDbEntity
  8
0
  6
BYBLOCK
 62
0
100
AcDbBlockEnd
  0
BLOCK
  5
236
100
AcDbEntity
  8
0
100
AcDbBlockBegin
 62
7
  6
CONTINUOUS
  2
*D3
 70
65
 10
0.0
 20
0.0
  3
*D3
  1

  0
LINE
  5
237
100
AcDbEntity
  8
0
100
AcDbLine
 62
7
  6
CONTINUOUS
 10
14.85
 20
20.6171572875
 11
14.85
 21
43.0
  0
LINE
  5
238
100
AcDbEntity
  8
0
100
AcDbLine
 62
7
  6
CONTINUOUS
 10
-14.85
 20
3.8854755959
 11
-14.85
 21
43.0
  0
LINE
  5
239
100
AcDbEntity
  8
0
100
AcDbLine
 62
7
  6
CONTINUOUS
 10
14.85
 20
41.5
 11
-0.0
 21
41.5
  0
LINE
  5
23A
100
AcDbEntity
  8
0
100
AcDbLine
 62
7
  6
CONTINUOUS
 10
-14.85
 20
41.5
 11
-0.0
 21
41.5
  0
INSERT
  5
23B
100
AcDbEntity
  8
0
100
AcDbBlockReference
 62
7
  6
CONTINUOUS
  2
_FILLED
 10
14.85
 20
41.5
 41
3.0
 42
3.0
 43
3.0
  0
INSERT
  5
23C
100
AcDbEntity
  8
0
100
AcDbBlockReference
 62
7
  6
CONTINUOUS
  2
_FILLED
 10
-14.85
 20
41.5
 41
3.0
 42
3.0
 43
3.0
 50
180.0
  0
ENDBLK
  5
23D
100
AcDbEntity
  8
0
  6
BYBLOCK
 62
0
100
AcDbBlockEnd
  0
ENDSEC
  0
SECTION
  2
ENTITIES
  0
DIMENSION
  5
23E
100
AcDbEntity
  8
0
100
AcDbDimension
 62
7
  6
CONTINUOUS
  2
*D0
 10
58.7837658388
 20
-23.5
 11
58.7837658388
 21
-2.3571428571
 70
160
 71
2
 72
2
 41
0.9
 42
47.0
  3
DIMSTYLE_1
100
AcDbAlignedDimension
 13
43.6071031865
 23
23.5
 14
43.6071031865
 24
-23.5
 50
270.0
100
AcDbRotatedDimension
  0
DIMENSION
  5
23F
100
AcDbEntity
  8
0
100
AcDbDimension
 62
7
  6
CONTINUOUS
  2
*D1
 10
28.4837658388
 20
31.5
 11
35.3480515531
 21
31.5
 70
160
 71
2
 72
2
 41
0.9
 42
22.3
  3
DIMSTYLE_1
100
AcDbAlignedDimension
 13
50.7837658388
 23
21.8997711479
 14
28.4837658388
 24
21.8997711479
 50
180.0
100
AcDbRotatedDimension
  0
DIMENSION
  5
240
100
AcDbEntity
  8
0
100
AcDbDimension
 62
7
  6
CONTINUOUS
  2
*D2
 10
-3.65
 20
31.5
 11
1.6357142857
 21
31.5
 70
160
 71
2
 72
2
 41
0.9
 42
18.5
  3
DIMSTYLE_1
100
AcDbAlignedDimension
 13
14.85
 23
20.1171572875
 14
-3.65
 24
-0.0
 50
180.0
100
AcDbRotatedDimension
  0
DIMENSION
  5
241
100
AcDbEntity
  8
0
100
AcDbDimension
 62
7
  6
CONTINUOUS
  2
*D3
 10
-14.85
 20
41.5
 11
-4.3928571429
 21
41.5
 70
160
 71
2
 72
2
 41
0.9
 42
29.7
  3
DIMSTYLE_1
100
AcDbAlignedDimension
 13
14.85
 23
20.1171572875
 14
-14.85
 24
3.3854755959
 50
180.0
100
AcDbRotatedDimension
  0
LWPOLYLINE
  5
242
100
AcDbEntity
  8
0
100
AcDbPolyline
 62
7
  6
CONTINUOUS
 90
10
 70
0
 43
0.3500000006
 10
-1.6071428418
 20
42.2499989777
 10
-0.7500000165
 20
43.107141449
 10
-0.5357142924
 20
43.9642839203
 10
-0.5357142924
 20
44.8214263916
 10
-0.9642857051
 20
45.2499998932
 10
-1.6071428418
 20
45.2499998932
 10
-2.0357142191
 20
44.8214263916
 10
-2.0357142191
 20
43.9642839203
 10
-1.6071428418
 20
43.5357149506
 10
-0.6785714536
 20
43.5357149506
  0
LWPOLYLINE
  5
243
100
AcDbEntity
  8
0
100
AcDbPolyline
 62
7
  6
CONTINUOUS
 90
3
 70
0
 43
0.3500000006
 10
1.6357142386
 20
34.392858902
 10
2.4928571348
 20
35.2500013733
 10
2.4928571348
 20
32.2500004578
  0
LINE
  5
244
100
AcDbEntity
  8
DRAFT
100
AcDbLine
 62
7
  6
CONTINUOUS
 10
5.85
 20
-23.1799085618
 11
9.85
 21
-23.0998904748
  0
LINE
  5
245
100
AcDbEntity
  8
DRAFT
100
AcDbLine
 62
7
  6
CONTINUOUS
 10
5.85
 20
-23.5
 11
9.85
 21
-23.4301797403
  0
LINE
  5
246
100
AcDbEntity
  8
DRAFT
100
AcDbLine
 62
7
  6
CONTINUOUS
 10
5.85
 20
-22.663166622
 11
7.6417233233
 21
-22.6471822492
  0
LWPOLYLINE
  5
247
100
AcDbEntity
  8
DRAFT
100
AcDbPolyline
 62
7
  6
CONTINUOUS
 90
3
 70
0
 10
7.6417233233
 20
-22.6471822492
 10
9.4111462178
 20
-22.6330767947
 10
9.85
 20
-22.6298666026
  0
LINE
  5
248
100
AcDbEntity
  8
0
100
AcDbLine
 62
7
  6
CONTINUOUS
 10
11.45
 20
-22.4
 11
11.95
 21
-22.4
  0
LINE
  5
249
100
AcDbEntity
  8
0
100
AcDbLine
 62
7
  6
CONTINUOUS
 10
-2.2612550199
 20
-21.9749071372
 11
5.85
 21
-22.4
  0
LINE
  5
24A
100
AcDbEntity
  8
0
100
AcDbLine
 62
250
  6
CONTINUOUS
 10
-3.205354846
 20
-21.0181634993
 11
-3.2080294644
 21
-21.018313994
  0
LINE
  5
24B
100
AcDbEntity
  8
0
100
AcDbLine
 62
250
  6
CONTINUOUS
 10
-2.717203302
 20
-20.9972959167
 11
-3.205354846
 21
-21.0181634993
  0
LINE
  5
24C
100
AcDbEntity
  8
DRAFT
100
AcDbLine
 62
7
  6
CONTINUOUS
 10
13.8852147859
 20
-21.1647852141
 11
9.85
 21
-21.2
  0
LINE
  5
24D
100
AcDbEntity
  8
RACCORDO
100
AcDbLine
 62
7
  6
CONTINUOUS
 10
13.9339848613
 20
-20.8366629075
 11
5.85
 21
-20.9
  0
LINE
  5
24E
100
AcDbEntity
  8
DRAFT
100
AcDbLine
 62
7
  6
CONTINUOUS
 10
13.85
 20
-21.2
 11
9.85
 21
-21.2
  0
LINE
  5
24F
100
AcDbEntity
  8
0
100
AcDbLine
 62
250
  6
CONTINUOUS
 10
-2.243813245
 20
-21.4755923698
 11
5.85
 21
-21.8997711479
  0
LINE
  5
250
100
AcDbEntity
  8
RACCORDO
100
AcDbLine
 62
250
  6
CONTINUOUS
 10
14.6534904813
 20
-20.1171572875
 11
14.85
 21
-20.1171572875
  0
LINE
  5
251
100
AcDbEntity
  8
RACCORDO
100
AcDbLine
 62
250
  6
CONTINUOUS
 10
14.6534904813
 20
-19.0
 11
14.85
 21
-18.9999999999
  0
LINE
  5
252
100
AcDbEntity
  8
RACCORDO
100
AcDbLine
 62
250
  6
CONTINUOUS
 10
14.3534904813
 20
-18.7
 11
10.0951091742
 21
-18.7
  0
LINE
  5
253
100
AcDbEntity
  8
RACCORDO
100
AcDbLine
 62
7
  6
CONTINUOUS
 10
14.35
 20
-18.5
 11
10.1179491924
 21
-18.5
  0
LINE
  5
254
100
AcDbEntity
  8
0
100
AcDbLine
 62
7
  6
CONTINUOUS
 10
-14.85
 20
-3.3854755959
 11
-14.85
 21
3.3854755959
  0
LINE
  5
255
100
AcDbEntity
  8
RACCORDO
100
AcDbLine
 62
250
  6
CONTINUOUS
 10
10.0951091742
 20
-18.7
 11
5.85
 21
-17.562526425
  0
LINE
  5
256
100
AcDbEntity
  8
RACCORDO
100
AcDbLine
 62
7
  6
CONTINUOUS
 10
10.1179491924
 20
-18.5
 11
5.85
 21
-17.3564064606
  0
LINE
  5
257
100
AcDbEntity
  8
0
100
AcDbLine
 62
7
  6
CONTINUOUS
 10
-13.3416695371
 20
-3.5894052414
 11
-13.3565137432
 21
-3.3268084224
  0
LWPOLYLINE
  5
258
100
AcDbEntity
  8
0
100
AcDbPolyline
 62
7
  6
CONTINUOUS
 90
10
 70
0
 10
-12.9715541141
 20
3.6710002554
 10
-12.9768682985
 20
3.7788141542
 10
-12.982182483
 20
3.8749283742
 10
-12.9874966675
 20
3.9590453338
 10
-12.992810852
 20
4.0309045965
 10
-12.9981250365
 20
4.0902836771
 10
-13.0034392209
 20
4.1369987305
 10
-13.0087534054
 20
4.1709051211
 10
-13.0140675899
 20
4.1918978705
 10
-13.0162413703
 20
4.1967470339
  0
LINE
  5
259
100
AcDbEntity
  8
0
100
AcDbLine
 62
7
  6
CONTINUOUS
 10
-13.3565137432
 20
-3.3268084224
 11
-13.3714630268
 21
-3.0273981299
  0
LWPOLYLINE
  5
25A
100
AcDbEntity
  8
0
100
AcDbPolyline
 62
7
  6
CONTINUOUS
 90
8
 70
0
 10
-12.9271777695
 20
-4.171145828
 10
-12.9232480312
 20
-4.2589833305
 10
-12.9193332438
 20
-4.3338204566
 10
-12.915426607
 20
-4.3956632796
 10
-12.9115207591
 20
-4.4444753276
 10
-12.9076132462
 20
-4.4801244536
 10
-12.9037065221
 20
-4.5024645112
 10
-12.899800587
 20
-4.511423752
  0
LWPOLYLINE
  5
25B
100
AcDbEntity
  8
0
100
AcDbPolyline
 62
7
  6
CONTINUOUS
 90
8
 70
0
 10
-13.3793758981
 20
-3.8785905648
 10
-13.3756683804
 20
-3.9633289523
 10
-13.3719649824
 20
-4.0374505745
 10
-13.3682696235
 20
-4.1007205533
 10
-13.3645783844
 20
-4.153079631
 10
-13.3608863525
 20
-4.1944619595
 10
-13.3571918901
 20
-4.2247502831
 10
-13.353496635
 20
-4.2438247819
  0
LINE
  5
25C
100
AcDbEntity
  8
0
100
AcDbLine
 62
7
  6
CONTINUOUS
 10
-13.3714630268
 20
-3.0273981299
 11
-13.3941008826
 21
-2.5148814034
  0
LINE
  5
25D
100
AcDbEntity
  8
0
100
AcDbLine
 62
7
  6
CONTINUOUS
 10
-12.9609257451
 20
3.4216438326
 11
-12.9715541141
 21
3.6710002554
  0
LINE
  5
25E
100
AcDbEntity
  8
0
100
AcDbLine
 62
7
  6
CONTINUOUS
 10
-12.7696151039
 20
-3.6457414341
 11
-12.7802434729
 21
-3.3915660427
  0
LINE
  5
25F
100
AcDbEntity
  8
0
100
AcDbLine
 62
7
  6
CONTINUOUS
 10
-13.3701179499
 20
-3.6347100684
 11
-13.3807463188
 21
-3.3784738572
  0
LINE
  5
260
100
AcDbEntity
  8
0
100
AcDbLine
 62
7
  6
CONTINUOUS
 10
-13.3941008826
 20
-2.5148814034
 11
-13.4167668986
 21
-1.9422442321
  0
LINE
  5
261
100
AcDbEntity
  8
0
100
AcDbLine
 62
7
  6
CONTINUOUS
 10
-13.4167668986
 20
-1.9422442321
 11
-13.4392023481
 21
-1.3311912109
  0
LINE
  5
262
100
AcDbEntity
  8
0
100
AcDbLine
 62
7
  6
CONTINUOUS
 10
-13.3867758555
 20
-3.6789182912
 11
-13.3793758981
 21
-3.8785905648
  0
LINE
  5
263
100
AcDbEntity
  8
0
100
AcDbLine
 62
7
  6
CONTINUOUS
 10
-12.9502973762
 20
3.1299448696
 11
-12.9609257451
 21
3.4216438326
  0
LINE
  5
264
100
AcDbEntity
  8
0
100
AcDbLine
 62
7
  6
CONTINUOUS
 10
-12.9350486584
 20
-3.9580555219
 11
-12.9271777695
 21
-4.171145828
  0
LINE
  5
265
100
AcDbEntity
  8
0
100
AcDbLine
 62
7
  6
CONTINUOUS
 10
-12.7802434729
 20
-3.3915660427
 11
-12.7908718418
 21
-3.0954203209
  0
LINE
  5
266
100
AcDbEntity
  8
0
100
AcDbLine
 62
7
  6
CONTINUOUS
 10
-13.3807463188
 20
-3.3784738572
 11
-13.3913746878
 21
-3.0804293303
  0
LINE
  5
267
100
AcDbEntity
  8
0
100
AcDbLine
 62
7
  6
CONTINUOUS
 10
-13.0932424114
 20
3.9794808501
 11
-13.0853913322
 21
3.7541588795
  0
LINE
  5
268
100
AcDbEntity
  8
0
100
AcDbLine
 62
7
  6
CONTINUOUS
 10
-13.394171862
 20
-3.4405784826
 11
-13.3867758555
 21
-3.6789182912
  0
LINE
  5
269
100
AcDbEntity
  8
0
100
AcDbLine
 62
7
  6
CONTINUOUS
 10
-12.9343548227
 20
2.6210328962
 11
-12.9502973762
 21
3.1299448696
  0
LINE
  5
26A
100
AcDbEntity
  8
0
100
AcDbLine
 62
7
  6
CONTINUOUS
 10
-12.7908718418
 20
-3.0954203209
 11
-12.8068143953
 21
-2.5806550491
  0
LINE
  5
26B
100
AcDbEntity
  8
0
100
AcDbLine
 62
7
  6
CONTINUOUS
 10
-13.3913746878
 20
-3.0804293303
 11
-13.4073172412
 21
-2.5631704089
  0
LINE
  5
26C
100
AcDbEntity
  8
0
100
AcDbLine
 62
7
  6
CONTINUOUS
 10
-12.9428792117
 20
-3.6991299567
 11
-12.9350486584
 21
-3.9580555219
  0
LINE
  5
26D
100
AcDbEntity
  8
0
100
AcDbLine
 62
7
  6
CONTINUOUS
 10
-13.4073172412
 20
-2.5631704089
 11
-13.4232597947
 21
-1.974635784
  0
LINE
  5
26E
100
AcDbEntity
  8
0
100
AcDbLine
 62
7
  6
CONTINUOUS
 10
-12.8068143953
 20
-2.5806550491
 11
-12.8227569487
 21
-1.9941278674
  0
LINE
  5
26F
100
AcDbEntity
  8
0
100
AcDbLine
 62
7
  6
CONTINUOUS
 10
-13.0853913322
 20
3.7541588795
 11
-13.0735627932
 21
3.329594177
  0
LINE
  5
270
100
AcDbEntity
  8
0
100
AcDbLine
 62
7
  6
CONTINUOUS
 10
-13.4053631786
 20
-3.0121626887
 11
-13.394171862
 21
-3.4405784826
  0
LINE
  5
271
100
AcDbEntity
  8
0
100
AcDbLine
 62
7
  6
CONTINUOUS
 10
-12.9024697159
 20
1.400733172
 11
-12.9343548227
 21
2.6210328962
  0
LINE
  5
272
100
AcDbEntity
  8
0
100
AcDbLine
 62
7
  6
CONTINUOUS
 10
-13.4232597947
 20
-1.974635784
 11
-13.4392023481
 21
-1.3311912109
  0
LINE
  5
273
100
AcDbEntity
  8
0
100
AcDbLine
 62
7
  6
CONTINUOUS
 10
-12.8227569487
 20
-1.9941278674
 11
-12.8440136866
 21
-1.1288834414
  0
LINE
  5
274
100
AcDbEntity
  8
0
100
AcDbLine
 62
7
  6
CONTINUOUS
 10
-12.9547090771
 20
-3.2264160316
 11
-12.9428792117
 21
-3.6991299567
  0
LINE
  5
275
100
AcDbEntity
  8
0
100
AcDbLine
 62
7
  6
CONTINUOUS
 10
-12.8440136866
 20
-1.1288834414
 11
-12.9024697159
 21
1.400733172
  0
LINE
  5
276
100
AcDbEntity
  8
0
100
AcDbLine
 62
7
  6
CONTINUOUS
 10
-13.0735627932
 20
3.329594177
 11
-13.0615889184
 21
2.8060758305
  0
LINE
  5
277
100
AcDbEntity
  8
0
100
AcDbLine
 62
7
  6
CONTINUOUS
 10
-13.4279977493
 20
-1.9385707846
 11
-13.4053631786
 21
-3.0121626887
  0
LINE
  5
278
100
AcDbEntity
  8
0
100
AcDbLine
 62
7
  6
CONTINUOUS
 10
-13.0615889184
 20
2.8060758305
 11
-13.0455616864
 21
1.9829632023
  0
LINE
  5
279
100
AcDbEntity
  8
0
100
AcDbLine
 62
7
  6
CONTINUOUS
 10
-12.9786618601
 20
-2.0212883796
 11
-12.9547090771
 21
-3.2264160316
  0
LINE
  5
27A
100
AcDbEntity
  8
0
100
AcDbLine
 62
7
  6
CONTINUOUS
 10
-13.4392023481
 20
-1.3311912109
 11
-13.4279977493
 21
-1.9385707846
  0
LINE
  5
27B
100
AcDbEntity
  8
0
100
AcDbLine
 62
7
  6
CONTINUOUS
 10
-13.0455616864
 20
1.9829632023
 11
-13.021898165
 21
0.5933382876
  0
LINE
  5
27C
100
AcDbEntity
  8
0
100
AcDbLine
 62
7
  6
CONTINUOUS
 10
-13.021898165
 20
0.5933382876
 11
-12.9786618601
 21
-2.0212883796
  0
LINE
  5
27D
100
AcDbEntity
  8
0
100
AcDbLine
 62
7
  6
CONTINUOUS
 10
-12.8155920292
 20
4.5570449316
 11
-13.0200000011
 21
4.2032521501
  0
LINE
  5
27E
100
AcDbEntity
  8
0
100
AcDbLine
 62
7
  6
CONTINUOUS
 10
-12.1635875927
 20
4.6470612089
 11
-12.4200000011
 21
4.2032521501
  0
LINE
  5
27F
100
AcDbEntity
  8
DRAFT
100
AcDbLine
 62
7
  6
CONTINUOUS
 10
5.85
 20
-12.7104613363
 11
11.85
 21
-12.6476271864
  0
LINE
  5
280
100
AcDbEntity
  8
0
100
AcDbLine
 62
7
  6
CONTINUOUS
 10
-13.2603988259
 20
-4.3032322616
 11
-13.26590572
 21
-4.2968754067
  0
LINE
  5
281
100
AcDbEntity
  8
0
100
AcDbLine
 62
7
  6
CONTINUOUS
 10
-13.3237586297
 20
-4.1967470338
 11
-13.26590572
 21
-4.2968754067
  0
LINE
  5
282
100
AcDbEntity
  8
0
100
AcDbLine
 62
7
  6
CONTINUOUS
 10
-12.7237586297
 20
-4.1967470338
 11
-12.4635875927
 21
-4.6470612089
  0
LWPOLYLINE
  5
283
100
AcDbEntity
  8
0
100
AcDbPolyline
 62
7
  6
CONTINUOUS
 90
12
 70
0
 10
-13.26590572
 20
-4.2968754067
 10
-13.2677803956
 20
-4.2932634756
 10
-13.2751613488
 20
-4.2719206436
 10
-13.2825416855
 20
-4.239285812
 10
-13.289918175
 20
-4.1954924474
 10
-13.297294048
 20
-4.1406698357
 10
-13.3046789964
 20
-4.074894644
 10
-13.3120807853
 20
-3.9982376727
 10
-13.3194916496
 20
-3.9109494832
 10
-13.3268979858
 20
-3.8134350206
 10
-13.3342860255
 20
-3.7062031437
 10
-13.3416695371
 20
-3.5894052414
  0
LINE
  5
284
100
AcDbEntity
  8
0
100
AcDbLine
 62
7
  6
CONTINUOUS
 10
-13.353496635
 20
-4.2438247819
 11
-13.349800587
 21
-4.2516161308
  0
LWPOLYLINE
  5
285
100
AcDbEntity
  8
0
100
AcDbPolyline
 62
7
  6
CONTINUOUS
 90
10
 70
0
 10
-12.1237586297
 20
-4.1967470338
 10
-12.1265987821
 20
-4.1899762255
 10
-12.1319129666
 20
-4.1673597814
 10
-12.1372271511
 20
-4.1318406729
 10
-12.1425413356
 20
-4.0835288716
 10
-12.14785552
 20
-4.0225739569
 10
-12.1531697045
 20
-3.9491646527
 10
-12.158483889
 20
-3.8635282433
 10
-12.1637980735
 20
-3.7659298699
 10
-12.169112258
 20
-3.656671709
  0
LWPOLYLINE
  5
286
100
AcDbEntity
  8
0
100
AcDbPolyline
 62
7
  6
CONTINUOUS
 90
10
 70
0
 10
-12.7237586297
 20
-4.1967470338
 10
-12.7271016281
 20
-4.1883910695
 10
-12.7324158126
 20
-4.1645501061
 10
-12.7377299971
 20
-4.1278151775
 10
-12.7430441815
 20
-4.0783000196
 10
-12.748358366
 20
-4.0161579373
 10
-12.7536725505
 20
-3.9415813304
 10
-12.758986735
 20
-3.8548010973
 10
-12.7643009194
 20
-3.7560859204
 10
-12.7696151039
 20
-3.6457414341
  0
LWPOLYLINE
  5
287
100
AcDbEntity
  8
0
100
AcDbPolyline
 62
7
  6
CONTINUOUS
 90
10
 70
0
 10
-13.3237586297
 20
-4.1967470338
 10
-13.3276044741
 20
-4.1866897756
 10
-13.3329186585
 20
-4.1616249542
 10
-13.338232843
 20
-4.1236752241
 10
-13.3435470275
 20
-4.0729580824
 10
-13.348861212
 20
-4.0096305558
 10
-13.3541753965
 20
-3.9338887141
 10
-13.3594895809
 20
-3.8459670635
 10
-13.3648037654
 20
-3.7461378203
 10
-13.3701179499
 20
-3.6347100684
  0
LWPOLYLINE
  5
288
100
AcDbEntity
  8
0
100
AcDbPolyline
 62
7
  6
CONTINUOUS
 90
6
 70
0
 10
-13.1129602254
 20
4.328522105
 10
-13.1090061069
 20
4.2843024176
 10
-13.1050499967
 20
4.2269396478
 10
-13.1011019376
 20
4.1567703764
 10
-13.0971681489
 20
4.0742132912
 10
-13.0932424114
 20
3.9794808501
  0
LWPOLYLINE
  5
289
100
AcDbEntity
  8
0
100
AcDbPolyline
 62
7
  6
CONTINUOUS
 90
12
 70
0
 10
-12.7232892694
 20
3.7862195508
 10
-12.7312370529
 20
3.9226614744
 10
-12.7391868787
 20
4.0467929143
 10
-12.7471387345
 20
4.1582462531
 10
-12.7550926193
 20
4.2566934517
 10
-12.7630485445
 20
4.3418469805
 10
-12.7710064987
 20
4.4134603047
 10
-12.7789664464
 20
4.4713288268
 10
-12.7869282657
 20
4.5152904299
 10
-12.7948920786
 20
4.5452276931
 10
-12.8028582163
 20
4.5610660489
 10
-12.810398826
 20
4.5630398828
  0
LWPOLYLINE
  5
28A
100
AcDbEntity
  8
0
100
AcDbPolyline
 62
7
  6
CONTINUOUS
 90
9
 70
0
 10
-11.1748484848
 20
3.7391973068
 10
-11.1801683502
 20
3.8398966098
 10
-11.1854882155
 20
3.9286816901
 10
-11.1908080808
 20
4.00527707
 10
-11.1961279461
 20
4.0694450935
 10
-11.2014478114
 20
4.1209866637
 10
-11.2067676768
 20
4.1597418601
 10
-11.2120875421
 20
4.1855904351
 10
-11.2162413703
 20
4.1967470339
  0
LWPOLYLINE
  5
28B
100
AcDbEntity
  8
0
100
AcDbPolyline
 62
7
  6
CONTINUOUS
 90
10
 70
0
 10
-12.5027600677
 20
-4.1956015153
 10
-12.4980120004
 20
-4.2900597377
 10
-12.4932602317
 20
-4.3739752572
 10
-12.4885176099
 20
-4.4469324511
 10
-12.4837916507
 20
-4.5087247963
 10
-12.4790748386
 20
-4.5593888178
 10
-12.4743574751
 20
-4.5989350671
 10
-12.4696363276
 20
-4.6272786862
 10
-12.4649146289
 20
-4.6443155344
 10
-12.4635875927
 20
-4.6470612089
  0
LINE
  5
28C
100
AcDbEntity
  8
0
100
AcDbLine
 62
7
  6
CONTINUOUS
 10
-12.7073997572
 20
3.4780625442
 11
-12.7232892694
 21
3.7862195508
  0
LWPOLYLINE
  5
28D
100
AcDbEntity
  8
0
100
AcDbPolyline
 62
7
  6
CONTINUOUS
 90
10
 70
0
 10
-12.3710512681
 20
3.6602044128
 10
-12.3763654526
 20
3.7691086452
 10
-12.3816796371
 20
3.8663432483
 10
-12.3869938215
 20
3.9516071717
 10
-12.392308006
 20
4.0246364276
 10
-12.3976221905
 20
4.0852049084
 10
-12.402936375
 20
4.1331250865
 10
-12.4082505594
 20
4.1682485951
 10
-12.4135647439
 20
4.1904666874
 10
-12.4162413704
 20
4.1967470339
  0
LWPOLYLINE
  5
28E
100
AcDbEntity
  8
0
100
AcDbPolyline
 62
7
  6
CONTINUOUS
 90
6
 70
0
 10
-12.6353097461
 20
4.154223447
 10
-12.6401789365
 20
4.2553084853
 10
-12.6450592513
 20
4.3455250073
 10
-12.6499548714
 20
4.4246232884
 10
-12.6548616159
 20
4.4922348759
 10
-12.6635721802
 20
4.5908070325
  0
LWPOLYLINE
  5
28F
100
AcDbEntity
  8
0
100
AcDbPolyline
 62
7
  6
CONTINUOUS
 90
10
 70
0
 10
-11.7705484221
 20
3.6493070783
 10
-11.7758626066
 20
3.7592986246
 10
-11.7811767911
 20
3.8576509147
 10
-11.7864909756
 20
3.9440594375
 10
-11.7918051601
 20
4.0182566616
 10
-11.7971193445
 20
4.0800128631
 10
-11.802433529
 20
4.1291368372
 10
-11.8077477135
 20
4.1654764899
 10
-11.813061898
 20
4.1889193091
 10
-11.8162413704
 20
4.1967470339
  0
LWPOLYLINE
  5
290
100
AcDbEntity
  8
0
100
AcDbPolyline
 62
7
  6
CONTINUOUS
 90
10
 70
0
 10
-11.3045874955
 20
-4.1564692386
 10
-11.2996278942
 20
-4.2590922287
 10
-11.2946579042
 20
-4.3504078498
 10
-11.2896977762
 20
-4.4297959736
 10
-11.2847539729
 20
-4.4970330179
 10
-11.2798200316
 20
-4.5521214735
 10
-11.2748968153
 20
-4.594980245
 10
-11.2699846115
 20
-4.6255733986
 10
-11.2650831327
 20
-4.6439027097
 10
-11.2635875927
 20
-4.6470612089
  0
LWPOLYLINE
  5
291
100
AcDbEntity
  8
0
100
AcDbPolyline
 62
7
  6
CONTINUOUS
 90
10
 70
0
 10
-11.9050042321
 20
-4.1473316392
 10
-11.8999989962
 20
-4.2518077849
 10
-11.8949856309
 20
-4.3447466848
 10
-11.8899836032
 20
-4.4255437773
 10
-11.8850014793
 20
-4.4939520443
 10
-11.880030693
 20
-4.5500167622
 10
-11.8750650129
 20
-4.5937169118
 10
-11.870102362
 20
-4.6249829429
 10
-11.8651448173
 20
-4.6437479705
 10
-11.8635875927
 20
-4.6470612089
  0
LWPOLYLINE
  5
292
100
AcDbEntity
  8
0
100
AcDbPolyline
 62
7
  6
CONTINUOUS
 90
10
 70
0
 10
-11.4348150977
 20
4.1433456077
 10
-11.4397978801
 20
4.2477934253
 10
-11.4447984872
 20
4.3409895699
 10
-11.4498066659
 20
4.4223984264
 10
-11.4548259102
 20
4.4917855096
 10
-11.4598527262
 20
4.5488424889
 10
-11.4648663788
 20
4.5931975027
 10
-11.4698599563
 20
4.6247925041
 10
-11.4748403704
 20
4.6437105246
 10
-11.4764124072
 20
4.6470612087
  0
LWPOLYLINE
  5
293
100
AcDbEntity
  8
0
100
AcDbPolyline
 62
7
  6
CONTINUOUS
 90
10
 70
0
 10
-12.0345029928
 20
4.1364248727
 10
-12.0395153771
 20
4.242178334
 10
-12.044540393
 20
4.3364686968
 10
-12.0495756646
 20
4.4189093943
 10
-12.0546274473
 20
4.4892763479
 10
-12.0596894856
 20
4.5471868365
 10
-12.0647406365
 20
4.5922393966
 10
-12.0697738522
 20
4.624354641
 10
-12.0747961804
 20
4.6435981468
 10
-12.0764124072
 20
4.6470612087
  0
LINE
  5
294
100
AcDbEntity
  8
0
100
AcDbLine
 62
7
  6
CONTINUOUS
 10
-12.6915181652
 20
3.1259984701
 11
-12.7073997572
 21
3.4780625442
  0
LWPOLYLINE
  5
295
100
AcDbEntity
  8
0
100
AcDbPolyline
 62
7
  6
CONTINUOUS
 90
11
 70
0
 10
-10.7101020991
 20
-4.0292143998
 10
-10.7051145831
 20
-4.1448987877
 10
-10.7001005081
 20
-4.2498039958
 10
-10.6950723289
 20
-4.3432404984
 10
-10.6900499121
 20
-4.4245516443
 10
-10.6850355757
 20
-4.4935252433
 10
-10.6800270019
 20
-4.5500538305
 10
-10.6750371039
 20
-4.5939275227
 10
-10.6700701863
 20
-4.6251449849
 10
-10.6651219446
 20
-4.6438055739
 10
-10.6635875927
 20
-4.6470612089
  0
LINE
  5
296
100
AcDbEntity
  8
0
100
AcDbLine
 62
7
  6
CONTINUOUS
 10
-11.1642087542
 20
3.5033418068
 11
-11.1748484848
 21
3.7391973068
  0
LINE
  5
297
100
AcDbEntity
  8
0
100
AcDbLine
 62
7
  6
CONTINUOUS
 10
-10.9673737374
 20
-3.6936784614
 11
-10.978013468
 21
-3.4484885795
  0
LINE
  5
298
100
AcDbEntity
  8
0
100
AcDbLine
 62
7
  6
CONTINUOUS
 10
-12.5122310205
 20
-3.9764687425
 11
-12.5027600677
 21
-4.1956015153
  0
LINE
  5
299
100
AcDbEntity
  8
0
100
AcDbLine
 62
7
  6
CONTINUOUS
 10
-11.5685185185
 20
-3.6694471539
 11
-11.5791582492
 21
-3.4195001524
  0
LINE
  5
29A
100
AcDbEntity
  8
0
100
AcDbLine
 62
7
  6
CONTINUOUS
 10
-12.3604228992
 20
3.4087708709
 11
-12.3710512681
 21
3.6602044128
  0
LINE
  5
29B
100
AcDbEntity
  8
0
100
AcDbLine
 62
7
  6
CONTINUOUS
 10
-12.169112258
 20
-3.656671709
 11
-12.1797406269
 21
-3.4045641851
  0
LINE
  5
29C
100
AcDbEntity
  8
0
100
AcDbLine
 62
7
  6
CONTINUOUS
 10
-11.7599200532
 20
3.3958033892
 11
-11.7705484221
 21
3.6493070783
  0
LINE
  5
29D
100
AcDbEntity
  8
0
100
AcDbLine
 62
7
  6
CONTINUOUS
 10
-12.4238180954
 20
-4.1648328771
 11
-12.4336054468
 21
-3.9313911659
  0
LINE
  5
29E
100
AcDbEntity
  8
0
100
AcDbLine
 62
7
  6
CONTINUOUS
 10
-12.6255681433
 20
3.9198640787
 11
-12.6353097461
 21
4.154223447
  0
LINE
  5
29F
100
AcDbEntity
  8
0
100
AcDbLine
 62
7
  6
CONTINUOUS
 10
-11.8242027378
 20
-4.1564692386
 11
-11.8340675082
 21
-3.9193293697
  0
LINE
  5
2A0
100
AcDbEntity
  8
0
100
AcDbLine
 62
7
  6
CONTINUOUS
 10
-11.3144522659
 20
-3.9193293697
 11
-11.3045874955
 21
-4.1564692386
  0
LINE
  5
2A1
100
AcDbEntity
  8
0
100
AcDbLine
 62
7
  6
CONTINUOUS
 10
-11.9149678778
 20
-3.9057613583
 11
-11.9050042321
 21
-4.1473316392
  0
LINE
  5
2A2
100
AcDbEntity
  8
0
100
AcDbLine
 62
7
  6
CONTINUOUS
 10
-12.1153281753
 20
4.1461781877
 11
-12.1054200728
 21
3.905845725
  0
LINE
  5
2A3
100
AcDbEntity
  8
0
100
AcDbLine
 62
7
  6
CONTINUOUS
 10
-11.2247298254
 20
-4.1448987877
 11
-11.2346907531
 21
-3.9029146795
  0
LINE
  5
2A4
100
AcDbEntity
  8
0
100
AcDbLine
 62
7
  6
CONTINUOUS
 10
-11.4249319111
 20
3.9031111353
 11
-11.4348150977
 21
4.1433456077
  0
LINE
  5
2A5
100
AcDbEntity
  8
0
100
AcDbLine
 62
7
  6
CONTINUOUS
 10
-12.0245378237
 20
3.892647281
 11
-12.0345029928
 21
4.1364248727
  0
LINE
  5
2A6
100
AcDbEntity
  8
0
100
AcDbLine
 62
7
  6
CONTINUOUS
 10
-11.5148877506
 20
4.1364248727
 11
-11.5049225814
 21
3.892647281
  0
LINE
  5
2A7
100
AcDbEntity
  8
0
100
AcDbLine
 62
7
  6
CONTINUOUS
 10
-11.1535690236
 20
3.2240401183
 11
-11.1642087542
 21
3.5033418068
  0
LWPOLYLINE
  5
2A8
100
AcDbEntity
  8
0
100
AcDbPolyline
 62
7
  6
CONTINUOUS
 90
3
 70
0
 10
-12.6597794847
 20
2.3075662287
 10
-12.6677110811
 20
2.5249687892
 10
-12.6915181652
 20
3.1259984701
  0
LINE
  5
2A9
100
AcDbEntity
  8
0
100
AcDbLine
 62
7
  6
CONTINUOUS
 10
-10.978013468
 20
-3.4484885795
 11
-10.9886531987
 21
-3.1605327633
  0
LINE
  5
2AA
100
AcDbEntity
  8
0
100
AcDbLine
 62
7
  6
CONTINUOUS
 10
-12.5217100429
 20
-3.7180171508
 11
-12.5122310205
 21
-3.9764687425
  0
LINE
  5
2AB
100
AcDbEntity
  8
0
100
AcDbLine
 62
7
  6
CONTINUOUS
 10
-11.5791582492
 20
-3.4195001524
 11
-11.5897979798
 21
-3.1271467126
  0
LINE
  5
2AC
100
AcDbEntity
  8
0
100
AcDbLine
 62
7
  6
CONTINUOUS
 10
-12.1797406269
 20
-3.4045641851
 11
-12.1903689959
 21
-3.1103254802
  0
LINE
  5
2AD
100
AcDbEntity
  8
0
100
AcDbLine
 62
7
  6
CONTINUOUS
 10
-12.3497945302
 20
3.1151540905
 11
-12.3604228992
 21
3.4087708709
  0
LINE
  5
2AE
100
AcDbEntity
  8
0
100
AcDbLine
 62
7
  6
CONTINUOUS
 10
-11.7492916842
 20
3.1002769329
 11
-11.7599200532
 21
3.3958033892
  0
LINE
  5
2AF
100
AcDbEntity
  8
0
100
AcDbLine
 62
7
  6
CONTINUOUS
 10
-12.4336054468
 20
-3.9313911659
 11
-12.4433983155
 21
-3.6565211648
  0
LINE
  5
2B0
100
AcDbEntity
  8
0
100
AcDbLine
 62
7
  6
CONTINUOUS
 10
-12.615806255
 20
3.644133254
 11
-12.6255681433
 21
3.9198640787
  0
LINE
  5
2B1
100
AcDbEntity
  8
0
100
AcDbLine
 62
7
  6
CONTINUOUS
 10
-11.8340675082
 20
-3.9193293697
 11
-11.8439340238
 21
-3.6403481346
  0
LINE
  5
2B2
100
AcDbEntity
  8
0
100
AcDbLine
 62
7
  6
CONTINUOUS
 10
-11.3243187815
 20
-3.6403481346
 11
-11.3144522659
 21
-3.9193293697
  0
LINE
  5
2B3
100
AcDbEntity
  8
0
100
AcDbLine
 62
7
  6
CONTINUOUS
 10
-11.9249413231
 20
-3.6214097165
 11
-11.9149678778
 21
-3.9057613583
  0
LINE
  5
2B4
100
AcDbEntity
  8
0
100
AcDbLine
 62
7
  6
CONTINUOUS
 10
-12.1054200728
 20
3.905845725
 11
-12.0954693184
 21
3.6222002031
  0
LINE
  5
2B5
100
AcDbEntity
  8
0
100
AcDbLine
 62
7
  6
CONTINUOUS
 10
-11.4150115053
 20
3.6199684201
 11
-11.4249319111
 21
3.9031111353
  0
LINE
  5
2B6
100
AcDbEntity
  8
0
100
AcDbLine
 62
7
  6
CONTINUOUS
 10
-11.2346907531
 20
-3.9029146795
 11
-11.2446477616
 21
-3.61862248
  0
LINE
  5
2B7
100
AcDbEntity
  8
0
100
AcDbLine
 62
7
  6
CONTINUOUS
 10
-12.0145234366
 20
3.6050040201
 11
-12.0245378237
 21
3.892647281
  0
LINE
  5
2B8
100
AcDbEntity
  8
0
100
AcDbLine
 62
7
  6
CONTINUOUS
 10
-11.5049225814
 20
3.892647281
 11
-11.4949081943
 21
3.6050040201
  0
LINE
  5
2B9
100
AcDbEntity
  8
0
100
AcDbLine
 62
7
  6
CONTINUOUS
 10
-11.1376094276
 20
2.7313397522
 11
-11.1535690236
 21
3.2240401183
  0
LINE
  5
2BA
100
AcDbEntity
  8
0
100
AcDbLine
 62
7
  6
CONTINUOUS
 10
-10.9886531987
 20
-3.1605327633
 11
-11.0046127946
 21
-2.656358815
  0
LINE
  5
2BB
100
AcDbEntity
  8
0
100
AcDbLine
 62
7
  6
CONTINUOUS
 10
-12.3338519768
 20
2.6037153855
 11
-12.3497945302
 21
3.1151540905
  0
LINE
  5
2BC
100
AcDbEntity
  8
0
100
AcDbLine
 62
7
  6
CONTINUOUS
 10
-11.5897979798
 20
-3.1271467126
 11
-11.6057575758
 21
-2.6171682951
  0
LINE
  5
2BD
100
AcDbEntity
  8
0
100
AcDbLine
 62
7
  6
CONTINUOUS
 10
-12.5360109614
 20
-3.2597403576
 11
-12.5217100429
 21
-3.7180171508
  0
LINE
  5
2BE
100
AcDbEntity
  8
0
100
AcDbLine
 62
7
  6
CONTINUOUS
 10
-12.1903689959
 20
-3.1103254802
 11
-12.2063115493
 21
-2.5980681317
  0
LINE
  5
2BF
100
AcDbEntity
  8
0
100
AcDbLine
 62
7
  6
CONTINUOUS
 10
-11.7333491308
 20
2.5863256778
 11
-11.7492916842
 21
3.1002769329
  0
LINE
  5
2C0
100
AcDbEntity
  8
0
100
AcDbLine
 62
7
  6
CONTINUOUS
 10
-12.4433983155
 20
-3.6565211648
 11
-12.4581807526
 21
-3.1698747674
  0
LINE
  5
2C1
100
AcDbEntity
  8
0
100
AcDbLine
 62
7
  6
CONTINUOUS
 10
-12.6010197994
 20
3.1550708044
 11
-12.615806255
 21
3.644133254
  0
LINE
  5
2C2
100
AcDbEntity
  8
0
100
AcDbLine
 62
7
  6
CONTINUOUS
 10
-11.8439340238
 20
-3.6403481346
 11
-11.8588267675
 21
-3.1467869133
  0
LINE
  5
2C3
100
AcDbEntity
  8
0
100
AcDbLine
 62
7
  6
CONTINUOUS
 10
-11.3392115252
 20
-3.1467869133
 11
-11.3243187815
 21
-3.6403481346
  0
LINE
  5
2C4
100
AcDbEntity
  8
0
100
AcDbLine
 62
7
  6
CONTINUOUS
 10
-11.9400035351
 20
-3.1182849596
 11
-11.9249413231
 21
-3.6214097165
  0
LINE
  5
2C5
100
AcDbEntity
  8
0
100
AcDbLine
 62
7
  6
CONTINUOUS
 10
-12.0954693184
 20
3.6222002031
 11
-12.0804018342
 21
3.1190294331
  0
LINE
  5
2C6
100
AcDbEntity
  8
0
100
AcDbLine
 62
7
  6
CONTINUOUS
 10
-11.2446477616
 20
-3.61862248
 11
-11.2596741077
 21
-3.1162857554
  0
LINE
  5
2C7
100
AcDbEntity
  8
0
100
AcDbLine
 62
7
  6
CONTINUOUS
 10
-11.3999771976
 20
3.1175889071
 11
-11.4150115053
 21
3.6199684201
  0
LINE
  5
2C8
100
AcDbEntity
  8
0
100
AcDbLine
 62
7
  6
CONTINUOUS
 10
-11.9993407146
 20
3.0945241519
 11
-12.0145234366
 21
3.6050040201
  0
LINE
  5
2C9
100
AcDbEntity
  8
0
100
AcDbLine
 62
7
  6
CONTINUOUS
 10
-11.4949081943
 20
3.6050040201
 11
-11.4797254723
 21
3.0945241519
  0
LINE
  5
2CA
100
AcDbEntity
  8
0
100
AcDbLine
 62
7
  6
CONTINUOUS
 10
-11.0046127946
 20
-2.656358815
 11
-11.0205723906
 21
-2.0781601706
  0
LINE
  5
2CB
100
AcDbEntity
  8
0
100
AcDbLine
 62
7
  6
CONTINUOUS
 10
-12.2063115493
 20
-2.5980681317
 11
-12.2222541027
 21
-2.0135646567
  0
LINE
  5
2CC
100
AcDbEntity
  8
0
100
AcDbLine
 62
7
  6
CONTINUOUS
 10
-11.6057575758
 20
-2.6171682951
 11
-11.6217171717
 21
-2.034257303
  0
LINE
  5
2CD
100
AcDbEntity
  8
0
100
AcDbLine
 62
7
  6
CONTINUOUS
 10
-11.111010101
 20
1.7487832601
 11
-11.1376094276
 21
2.7313397522
  0
LINE
  5
2CE
100
AcDbEntity
  8
0
100
AcDbLine
 62
7
  6
CONTINUOUS
 10
-12.4581807526
 20
-3.1698747674
 11
-12.4731158063
 21
-2.6012621339
  0
LINE
  5
2CF
100
AcDbEntity
  8
0
100
AcDbLine
 62
7
  6
CONTINUOUS
 10
-11.8588267675
 20
-3.1467869133
 11
-11.8738717406
 21
-2.5706695123
  0
LINE
  5
2D0
100
AcDbEntity
  8
0
100
AcDbLine
 62
7
  6
CONTINUOUS
 10
-12.0804018342
 20
3.1190294331
 11
-12.0651911653
 21
2.5325219519
  0
LINE
  5
2D1
100
AcDbEntity
  8
0
100
AcDbLine
 62
7
  6
CONTINUOUS
 10
-11.2596741077
 20
-3.1162857554
 11
-11.2748498588
 21
-2.530846328
  0
LINE
  5
2D2
100
AcDbEntity
  8
0
100
AcDbLine
 62
7
  6
CONTINUOUS
 10
-11.4797254723
 20
3.0945241519
 11
-11.4644101002
 21
2.5005395681
  0
LINE
  5
2D3
100
AcDbEntity
  8
0
100
AcDbLine
 62
7
  6
CONTINUOUS
 10
-12.3019668699
 20
1.3798637465
 11
-12.3338519768
 21
2.6037153855
  0
LINE
  5
2D4
100
AcDbEntity
  8
0
100
AcDbLine
 62
7
  6
CONTINUOUS
 10
-11.7014640239
 20
1.3589560596
 11
-11.7333491308
 21
2.5863256778
  0
LINE
  5
2D5
100
AcDbEntity
  8
0
100
AcDbLine
 62
7
  6
CONTINUOUS
 10
-12.5601096773
 20
-2.3284867212
 11
-12.5360109614
 21
-3.2597403576
  0
LINE
  5
2D6
100
AcDbEntity
  8
0
100
AcDbLine
 62
7
  6
CONTINUOUS
 10
-11.6217171717
 20
-2.034257303
 11
-11.642996633
 21
-1.1719048531
  0
LINE
  5
2D7
100
AcDbEntity
  8
0
100
AcDbLine
 62
7
  6
CONTINUOUS
 10
-11.0205723906
 20
-2.0781601706
 11
-11.0418518519
 21
-1.2201698779
  0
LINE
  5
2D8
100
AcDbEntity
  8
0
100
AcDbLine
 62
7
  6
CONTINUOUS
 10
-12.2222541027
 20
-2.0135646567
 11
-12.2435108406
 21
-1.1501701563
  0
LINE
  5
2D9
100
AcDbEntity
  8
0
100
AcDbLine
 62
7
  6
CONTINUOUS
 10
-12.5761457959
 20
2.1689064175
 11
-12.6010197994
 21
3.1550708044
  0
LINE
  5
2DA
100
AcDbEntity
  8
0
100
AcDbLine
 62
7
  6
CONTINUOUS
 10
-11.965331948
 20
-2.1049980477
 11
-11.9400035351
 21
-3.1182849596
  0
LINE
  5
2DB
100
AcDbEntity
  8
0
100
AcDbLine
 62
7
  6
CONTINUOUS
 10
-11.364269909
 20
-2.1509801653
 11
-11.3392115252
 21
-3.1467869133
  0
LINE
  5
2DC
100
AcDbEntity
  8
0
100
AcDbLine
 62
7
  6
CONTINUOUS
 10
-11.3747072777
 20
2.1067010312
 11
-11.3999771976
 21
3.1175889071
  0
LINE
  5
2DD
100
AcDbEntity
  8
0
100
AcDbLine
 62
7
  6
CONTINUOUS
 10
-12.2435108406
 20
-1.1501701563
 11
-12.3019668699
 21
1.3798637465
  0
LINE
  5
2DE
100
AcDbEntity
  8
0
100
AcDbLine
 62
7
  6
CONTINUOUS
 10
-11.642996633
 20
-1.1719048531
 11
-11.7014640239
 21
1.3589560596
  0
LINE
  5
2DF
100
AcDbEntity
  8
0
100
AcDbLine
 62
7
  6
CONTINUOUS
 10
-11.0418518519
 20
-1.2201698779
 11
-11.0737710438
 21
0.1658160621
  0
LINE
  5
2E0
100
AcDbEntity
  8
0
100
AcDbLine
 62
7
  6
CONTINUOUS
 10
-11.0737710438
 20
0.1658160621
 11
-11.111010101
 21
1.7487832601
  0
LINE
  5
2E1
100
AcDbEntity
  8
0
100
AcDbLine
 62
7
  6
CONTINUOUS
 10
-11.968800854
 20
1.8464352643
 11
-11.9993407146
 21
3.0945241519
  0
LINE
  5
2E2
100
AcDbEntity
  8
0
100
AcDbLine
 62
7
  6
CONTINUOUS
 10
-12.4731158063
 20
-2.6012621339
 11
-12.4929139235
 21
-1.7521659303
  0
LINE
  5
2E3
100
AcDbEntity
  8
0
100
AcDbLine
 62
7
  6
CONTINUOUS
 10
-11.8738717406
 20
-2.5706695123
 11
-11.8938006754
 21
-1.7120936345
  0
LINE
  5
2E4
100
AcDbEntity
  8
0
100
AcDbLine
 62
7
  6
CONTINUOUS
 10
-12.0651911653
 20
2.5325219519
 11
-12.0450629432
 21
1.6605252381
  0
LINE
  5
2E5
100
AcDbEntity
  8
0
100
AcDbLine
 62
7
  6
CONTINUOUS
 10
-11.4644101002
 20
2.5005395681
 11
-11.4441659272
 21
1.6196526856
  0
LINE
  5
2E6
100
AcDbEntity
  8
0
100
AcDbLine
 62
7
  6
CONTINUOUS
 10
-11.2748498588
 20
-2.530846328
 11
-11.2949357429
 21
-1.6605849983
  0
LINE
  5
2E7
100
AcDbEntity
  8
0
100
AcDbLine
 62
7
  6
CONTINUOUS
 10
-12.6597794847
 20
2.3075662287
 11
-12.6359673931
 21
1.2399216693
  0
LINE
  5
2E8
100
AcDbEntity
  8
0
100
AcDbLine
 62
7
  6
CONTINUOUS
 10
-12.6359673931
 20
1.2399216693
 11
-12.6122641732
 21
0.1008774601
  0
LINE
  5
2E9
100
AcDbEntity
  8
0
100
AcDbLine
 62
7
  6
CONTINUOUS
 10
-11.4441659272
 20
1.6196526856
 11
-11.4139487052
 21
0.1828659663
  0
LINE
  5
2EA
100
AcDbEntity
  8
0
100
AcDbLine
 62
7
  6
CONTINUOUS
 10
-12.6122641732
 20
0.1008774601
 11
-12.5601096773
 21
-2.3284867212
  0
LINE
  5
2EB
100
AcDbEntity
  8
0
100
AcDbLine
 62
7
  6
CONTINUOUS
 10
-12.4929139235
 20
-1.7521659303
 11
-12.5761457959
 21
2.1689064175
  0
LWPOLYLINE
  5
2EC
100
AcDbEntity
  8
0
100
AcDbPolyline
 62
7
  6
CONTINUOUS
 90
3
 70
0
 10
-12.0450629432
 20
1.6605252381
 10
-12.010112448
 20
-0.0038922058
 10
-11.965331948
 20
-2.1049980477
  0
LINE
  5
2ED
100
AcDbEntity
  8
0
100
AcDbLine
 62
7
  6
CONTINUOUS
 10
-11.8938006754
 20
-1.7120936345
 11
-11.968800854
 21
1.8464352643
  0
LINE
  5
2EE
100
AcDbEntity
  8
0
100
AcDbLine
 62
7
  6
CONTINUOUS
 10
-11.4139487052
 20
0.1828659663
 11
-11.364269909
 21
-2.1509801653
  0
LINE
  5
2EF
100
AcDbEntity
  8
0
100
AcDbLine
 62
7
  6
CONTINUOUS
 10
-11.2949357429
 20
-1.6605849983
 11
-11.3747072777
 21
2.1067010312
  0
LINE
  5
2F0
100
AcDbEntity
  8
0
100
AcDbLine
 62
7
  6
CONTINUOUS
 10
-12.6597794847
 20
2.3075662287
 11
-12.6597794847
 21
4.5481012871
  0
LWPOLYLINE
  5
2F1
100
AcDbEntity
  8
0
100
AcDbPolyline
 62
7
  6
CONTINUOUS
 90
3
 70
0
 43
0.3500000006
 10
1.035714268
 20
42.5357146454
 10
0.9642857051
 20
42.3214301605
 10
0.8214285793
 20
42.0357144928
  0
LINE
  5
2F2
100
AcDbEntity
  8
0
100
AcDbLine
 62
7
  6
CONTINUOUS
 10
-11.5635875927
 20
4.6470612089
 11
-11.8200000011
 21
4.2032521501
  0
LINE
  5
2F3
100
AcDbEntity
  8
0
100
AcDbLine
 62
7
  6
CONTINUOUS
 10
-10.9635875927
 20
4.6470612089
 11
-11.2200000011
 21
4.2032521501
  0
LINE
  5
2F4
100
AcDbEntity
  8
0
100
AcDbLine
 62
7
  6
CONTINUOUS
 10
-10.3635875927
 20
4.6470612089
 11
-10.6200000011
 21
4.2032521501
  0
LINE
  5
2F5
100
AcDbEntity
  8
0
100
AcDbLine
 62
7
  6
CONTINUOUS
 10
-12.810398826
 20
4.5630398828
 11
-12.8155920292
 21
4.5570449316
  0
LINE
  5
2F6
100
AcDbEntity
  8
0
100
AcDbLine
 62
7
  6
CONTINUOUS
 10
-12.1635875927
 20
4.6470612089
 11
-12.1601923789
 21
4.65
  0
LINE
  5
2F7
100
AcDbEntity
  8
0
100
AcDbLine
 62
7
  6
CONTINUOUS
 10
-11.5635875927
 20
4.6470612089
 11
-11.5601923789
 21
4.65
  0
LINE
  5
2F8
100
AcDbEntity
  8
0
100
AcDbLine
 62
7
  6
CONTINUOUS
 10
-12.4635875927
 20
-4.6470612089
 11
-12.4601923789
 21
-4.65
  0
LINE
  5
2F9
100
AcDbEntity
  8
0
100
AcDbLine
 62
7
  6
CONTINUOUS
 10
-11.8635875927
 20
-4.6470612089
 11
-11.8601923789
 21
-4.65
  0
LINE
  5
2FA
100
AcDbEntity
  8
0
100
AcDbLine
 62
7
  6
CONTINUOUS
 10
-11.2635875927
 20
-4.6470612089
 11
-11.2601923789
 21
-4.65
  0
LWPOLYLINE
  5
2FB
100
AcDbEntity
  8
0
100
AcDbPolyline
 62
7
  6
CONTINUOUS
 90
10
 70
0
 10
-12.3798076211
 20
-4.65
 10
-12.3846718668
 20
-4.6439686118
 10
-12.389540935
 20
-4.6258662047
 10
-12.3944148259
 20
-4.59570405
 10
-12.3992913672
 20
-4.5535465056
 10
-12.4041727311
 20
-4.4994573532
 10
-12.4090654342
 20
-4.4334471644
 10
-12.4139780494
 20
-4.3554615292
 10
-12.4189020038
 20
-4.2657316601
 10
-12.4238180954
 20
-4.1648328771
  0
LWPOLYLINE
  5
2FC
100
AcDbEntity
  8
0
100
AcDbPolyline
 62
7
  6
CONTINUOUS
 90
10
 70
0
 10
-11.7798076211
 20
-4.65
 10
-11.784698375
 20
-4.6439027097
 10
-11.7895998538
 20
-4.6255733986
 10
-11.7945120575
 20
-4.594980245
 10
-11.7994352739
 20
-4.5521214735
 10
-11.8043692152
 20
-4.4970330179
 10
-11.8093130185
 20
-4.4297959736
 10
-11.8142731465
 20
-4.3504078498
 10
-11.8192431365
 20
-4.2590922287
 10
-11.8242027378
 20
-4.1564692386
  0
LWPOLYLINE
  5
2FD
100
AcDbEntity
  8
0
100
AcDbPolyline
 62
7
  6
CONTINUOUS
 90
10
 70
0
 10
-11.1798076211
 20
-4.65
 10
-11.1847371869
 20
-4.6438055739
 10
-11.1896854286
 20
-4.6251449849
 10
-11.1946523462
 20
-4.5939275227
 10
-11.1996422442
 20
-4.5500538305
 10
-11.204650818
 20
-4.4935252433
 10
-11.2096651544
 20
-4.4245516443
 10
-11.2146875711
 20
-4.3432404984
 10
-11.2197157504
 20
-4.2498039958
 10
-11.2247298254
 20
-4.1448987877
  0
LWPOLYLINE
  5
2FE
100
AcDbEntity
  8
0
100
AcDbPolyline
 62
7
  6
CONTINUOUS
 90
10
 70
0
 10
-10.5798076211
 20
-4.65
 10
-10.5847437222
 20
-4.6437891424
 10
-10.5897012144
 20
-4.6250655504
 10
-10.594680098
 20
-4.5937180996
 10
-10.5996868665
 20
-4.5496052503
 10
-10.6047150262
 20
-4.4927199646
 10
-10.609745096
 20
-4.4233526986
 10
-10.6147771452
 20
-4.3416805851
 10
-10.6198111045
 20
-4.2479173838
 10
-10.6248272844
 20
-4.142745556
  0
LINE
  5
2FF
100
AcDbEntity
  8
0
100
AcDbLine
 62
7
  6
CONTINUOUS
 10
-12.1237586297
 20
-4.1967470338
 11
-11.8635875927
 21
-4.6470612089
  0
LINE
  5
300
100
AcDbEntity
  8
0
100
AcDbLine
 62
7
  6
CONTINUOUS
 10
-11.5237586297
 20
-4.1967470338
 11
-11.2635875927
 21
-4.6470612089
  0
LINE
  5
301
100
AcDbEntity
  8
0
100
AcDbLine
 62
7
  6
CONTINUOUS
 10
-10.9237586297
 20
-4.1967470338
 11
-10.6635875927
 21
-4.6470612089
  0
LINE
  5
302
100
AcDbEntity
  8
0
100
AcDbLine
 62
7
  6
CONTINUOUS
 10
-10.3237586297
 20
-4.1967470338
 11
-10.0635875927
 21
-4.6470612089
  0
LWPOLYLINE
  5
303
100
AcDbEntity
  8
0
100
AcDbPolyline
 62
7
  6
CONTINUOUS
 90
10
 70
0
 10
-10.9237586297
 20
-4.1967470338
 10
-10.9248148148
 20
-4.1946624286
 10
-10.9301346801
 20
-4.1763686277
 10
-10.9354545455
 20
-4.1451166169
 10
-10.9407744108
 20
-4.1010033632
 10
-10.9460942761
 20
-4.0441657389
 10
-10.9514141414
 20
-3.9747800965
 10
-10.9567340067
 20
-3.8930617221
 10
-10.9620538721
 20
-3.7992641671
 10
-10.9673737374
 20
-3.6936784614
  0
LWPOLYLINE
  5
304
100
AcDbEntity
  8
0
100
AcDbPolyline
 62
7
  6
CONTINUOUS
 90
10
 70
0
 10
-11.5237586297
 20
-4.1967470338
 10
-11.525959596
 20
-4.1918234669
 10
-11.5312794613
 20
-4.1707350187
 10
-11.5365993266
 20
-4.1367058403
 10
-11.5419191919
 20
-4.0898415154
 10
-11.5472390572
 20
-4.0302874523
 10
-11.5525589226
 20
-3.958228432
 10
-11.5578787879
 20
-3.8738880352
 10
-11.5631986532
 20
-3.7775279489
 10
-11.5685185185
 20
-3.6694471539
  0
LWPOLYLINE
  5
305
100
AcDbEntity
  8
0
100
AcDbPolyline
 62
7
  6
CONTINUOUS
 90
9
 70
0
 10
-10.3237586297
 20
-4.1967470338
 10
-10.328989899
 20
-4.181402037
 10
-10.3343097643
 20
-4.1529316852
 10
-10.3396296296
 20
-4.1115758423
 10
-10.3449494949
 20
-4.057462825
 10
-10.3502693603
 20
-3.9907605323
 10
-10.3555892256
 20
-3.9116759243
 10
-10.3609090909
 20
-3.8204543805
 10
-10.3662289562
 20
-3.7173789382
  0
LWPOLYLINE
  5
306
100
AcDbEntity
  8
0
100
AcDbPolyline
 62
7
  6
CONTINUOUS
 90
9
 70
0
 10
-10.5737037037
 20
3.7159995481
 10
-10.579023569
 20
3.8192230666
 10
-10.5843434343
 20
3.910596507
 10
-10.5896632997
 20
3.9898363607
 10
-10.594983165
 20
4.0566967667
 10
-10.6003030303
 20
4.1109702741
 10
-10.6056228956
 20
4.152488486
 10
-10.6109427609
 20
4.181122582
 10
-10.6162413704
 20
4.1967470339
  0
LWPOLYLINE
  5
307
100
AcDbEntity
  8
0
100
AcDbPolyline
 62
7
  6
CONTINUOUS
 90
10
 70
0
 10
-9.9725589226
 20
3.6922677509
 10
-9.9778787879
 20
3.7980006502
 10
-9.9831986532
 20
3.8919493191
 10
-9.9885185185
 20
3.9738222588
 10
-9.9938383838
 20
4.0433654385
 10
-9.9991582492
 20
4.1003630834
 10
-10.0044781145
 20
4.1446383442
 10
-10.0097979798
 20
4.176053846
 10
-10.0151178451
 20
4.1945121146
 10
-10.0162413704
 20
4.1967470339
  0
LWPOLYLINE
  5
308
100
AcDbEntity
  8
0
100
AcDbPolyline
 62
7
  6
CONTINUOUS
 90
11
 70
0
 10
-9.6366323975
 20
4.1827616486
 10
-9.6409575197
 20
4.2704526381
 10
-9.6452931914
 20
4.349566324
 10
-9.6496384253
 20
4.419859889
 10
-9.6539800832
 20
4.4809570147
 10
-9.6583182682
 20
4.5327552697
 10
-9.6626528771
 20
4.5751691975
 10
-9.6669704616
 20
4.6080469115
 10
-9.6712665391
 20
4.6314126947
 10
-9.6755455923
 20
4.6453693616
 10
-9.6764124072
 20
4.6470612087
  0
LWPOLYLINE
  5
309
100
AcDbEntity
  8
0
100
AcDbPolyline
 62
7
  6
CONTINUOUS
 90
10
 70
0
 10
-9.3714141414
 20
3.6680053259
 10
-9.3767340067
 20
3.7762324106
 10
-9.3820538721
 20
3.8727428064
 10
-9.3873737374
 20
3.9572370659
 10
-9.3926936027
 20
4.029453025
 10
-9.398013468
 20
4.089166616
 10
-9.4033333333
 20
4.1361925626
 10
-9.4086531987
 20
4.1703849555
 10
-9.413973064
 20
4.1916377042
 10
-9.4162413704
 20
4.1967470339
  0
LWPOLYLINE
  5
30A
100
AcDbEntity
  8
0
100
AcDbPolyline
 62
7
  6
CONTINUOUS
 90
10
 70
0
 10
-8.9044962351
 20
-4.158459707
 10
-8.8995672273
 20
-4.2602769586
 10
-8.8946190454
 20
-4.3510757021
 10
-8.8896706331
 20
-4.4301977147
 10
-8.8847216691
 20
-4.4974329092
 10
-8.8797724747
 20
-4.5525935479
 10
-8.8748429578
 20
-4.5953817559
 10
-8.8699397541
 20
-4.6257964847
 10
-8.8650562278
 20
-4.6439695954
 10
-8.8635875927
 20
-4.6470612089
  0
LWPOLYLINE
  5
30B
100
AcDbEntity
  8
0
100
AcDbPolyline
 62
7
  6
CONTINUOUS
 90
10
 70
0
 10
-10.8347551891
 20
4.1420206019
 10
-10.839753762
 20
4.2469189724
 10
-10.8447738843
 20
4.3405599845
 10
-10.8497981437
 20
4.4222701669
 10
-10.8548277035
 20
4.4918080935
 10
-10.8598614003
 20
4.5489300931
 10
-10.8648783308
 20
4.5932881576
 10
-10.8698715272
 20
4.6248510587
 10
-10.8748479573
 20
4.6437297185
 10
-10.8764124072
 20
4.6470612087
  0
LWPOLYLINE
  5
30C
100
AcDbEntity
  8
0
100
AcDbPolyline
 62
7
  6
CONTINUOUS
 90
10
 70
0
 10
-10.1052120421
 20
-4.142745556
 10
-10.1001958622
 20
-4.2479173838
 10
-10.095161903
 20
-4.3416805851
 10
-10.0901298537
 20
-4.4233526986
 10
-10.085099784
 20
-4.4927199646
 10
-10.0800716242
 20
-4.5496052503
 10
-10.0750648557
 20
-4.5937180996
 10
-10.0700859722
 20
-4.6250655504
 10
-10.0651284799
 20
-4.6437891424
 10
-10.0635875927
 20
-4.6470612089
  0
LWPOLYLINE
  5
30D
100
AcDbEntity
  8
0
100
AcDbPolyline
 62
7
  6
CONTINUOUS
 90
10
 70
0
 10
-10.2346985668
 20
4.1407667805
 10
-10.2397149477
 20
4.2461488965
 10
-10.2447519776
 20
4.3401772316
 10
-10.2497898901
 20
4.4221459172
 10
-10.2548290874
 20
4.4918255201
 10
-10.2598691674
 20
4.5490085046
 10
-10.2648891579
 20
4.5933702183
 10
-10.2698820684
 20
4.6249043432
 10
-10.2748548895
 20
4.6437472303
 10
-10.2764124072
 20
4.6470612087
  0
LWPOLYLINE
  5
30E
100
AcDbEntity
  8
0
100
AcDbPolyline
 62
7
  6
CONTINUOUS
 90
10
 70
0
 10
-9.5053021962
 20
-4.1407498754
 10
-9.5002860136
 20
-4.2461298144
 10
-9.4952492097
 20
-4.3401564821
 10
-9.4902114187
 20
-4.4221262113
 10
-9.4851721794
 20
-4.4918095677
 10
-9.4801319531
 20
-4.5489971948
 10
-9.4751117581
 20
-4.5933632779
 10
-9.4701186004
 20
-4.6249009641
 10
-9.465145474
 20
-4.6437463127
 10
-9.4635875927
 20
-4.6470612089
  0
LINE
  5
30F
100
AcDbEntity
  8
0
100
AcDbLine
 62
7
  6
CONTINUOUS
 10
-9.7650841751
 20
-3.7405451782
 11
-9.7757239057
 21
-3.5049745578
  0
LINE
  5
310
100
AcDbEntity
  8
0
100
AcDbLine
 62
7
  6
CONTINUOUS
 10
-10.3662289562
 20
-3.7173789382
 11
-10.3768686869
 21
-3.4769814129
  0
LINE
  5
311
100
AcDbEntity
  8
0
100
AcDbLine
 62
7
  6
CONTINUOUS
 10
-10.5630639731
 20
3.4753191564
 11
-10.5737037037
 21
3.7159995481
  0
LINE
  5
312
100
AcDbEntity
  8
0
100
AcDbLine
 62
7
  6
CONTINUOUS
 10
-9.9619191919
 20
3.4467970563
 11
-9.9725589226
 21
3.6922677509
  0
LINE
  5
313
100
AcDbEntity
  8
0
100
AcDbLine
 62
7
  6
CONTINUOUS
 10
-9.6280210167
 20
3.982816812
 11
-9.6366323975
 21
4.1827616486
  0
LINE
  5
314
100
AcDbEntity
  8
0
100
AcDbLine
 62
7
  6
CONTINUOUS
 10
-9.3607744108
 20
3.4177796058
 11
-9.3714141414
 21
3.6680053259
  0
LINE
  5
315
100
AcDbEntity
  8
0
100
AcDbLine
 62
7
  6
CONTINUOUS
 10
-9.1692592593
 20
-3.6534868419
 11
-9.1798989899
 21
-3.4004808028
  0
LINE
  5
316
100
AcDbEntity
  8
0
100
AcDbLine
 62
7
  6
CONTINUOUS
 10
-9.4241114774
 20
-4.158459707
 11
-9.4338893775
 21
-3.9239902352
  0
LINE
  5
317
100
AcDbEntity
  8
0
100
AcDbLine
 62
7
  6
CONTINUOUS
 10
-8.9142741352
 20
-3.9239902352
 11
-8.9044962351
 21
-4.158459707
  0
LINE
  5
318
100
AcDbEntity
  8
0
100
AcDbLine
 62
7
  6
CONTINUOUS
 10
-10.6248272844
 20
-4.142745556
 11
-10.634780074
 21
-3.9005485559
  0
LINE
  5
319
100
AcDbEntity
  8
0
100
AcDbLine
 62
7
  6
CONTINUOUS
 10
-10.9151998554
 20
4.1433456077
 11
-10.9053166689
 21
3.9031111353
  0
LINE
  5
31A
100
AcDbEntity
  8
0
100
AcDbLine
 62
7
  6
CONTINUOUS
 10
-10.8248553266
 20
3.9010828519
 11
-10.8347551891
 21
4.1420206019
  0
LINE
  5
31B
100
AcDbEntity
  8
0
100
AcDbLine
 62
7
  6
CONTINUOUS
 10
-10.1151648318
 20
-3.9005485559
 11
-10.1052120421
 21
-4.142745556
  0
LINE
  5
31C
100
AcDbEntity
  8
0
100
AcDbLine
 62
7
  6
CONTINUOUS
 10
-10.0249174384
 20
-4.1407498754
 11
-10.0348607772
 21
-3.8984077831
  0
LINE
  5
31D
100
AcDbEntity
  8
0
100
AcDbLine
 62
7
  6
CONTINUOUS
 10
-10.3151399468
 20
4.1420206019
 11
-10.3052400843
 21
3.9010828519
  0
LINE
  5
31E
100
AcDbEntity
  8
0
100
AcDbLine
 62
7
  6
CONTINUOUS
 10
-10.2247544935
 20
3.8984085371
 11
-10.2346985668
 21
4.1407667805
  0
LINE
  5
31F
100
AcDbEntity
  8
0
100
AcDbLine
 62
7
  6
CONTINUOUS
 10
-9.5152455349
 20
-3.8984077831
 11
-9.5053021962
 21
-4.1407498754
  0
LINE
  5
320
100
AcDbEntity
  8
0
100
AcDbLine
 62
7
  6
CONTINUOUS
 10
-9.7150833245
 20
4.1407667805
 11
-9.7051392512
 21
3.8984085371
  0
LINE
  5
321
100
AcDbEntity
  8
0
100
AcDbLine
 62
7
  6
CONTINUOUS
 10
-9.7757239057
 20
-3.5049745578
 11
-9.7863636364
 21
-3.2259375005
  0
LINE
  5
322
100
AcDbEntity
  8
0
100
AcDbLine
 62
7
  6
CONTINUOUS
 10
-10.7200523155
 20
-3.7659338719
 11
-10.7101020991
 21
-4.0292143998
  0
LINE
  5
323
100
AcDbEntity
  8
0
100
AcDbLine
 62
7
  6
CONTINUOUS
 10
-10.3768686869
 20
-3.4769814129
 11
-10.3875084175
 21
-3.1934646036
  0
LINE
  5
324
100
AcDbEntity
  8
0
100
AcDbLine
 62
7
  6
CONTINUOUS
 10
-10.5524242424
 20
3.1915400949
 11
-10.5630639731
 21
3.4753191564
  0
LINE
  5
325
100
AcDbEntity
  8
0
100
AcDbLine
 62
7
  6
CONTINUOUS
 10
-9.6194953774
 20
3.7529718837
 11
-9.6280210167
 21
3.982816812
  0
LINE
  5
326
100
AcDbEntity
  8
0
100
AcDbLine
 62
7
  6
CONTINUOUS
 10
-9.9512794613
 20
3.1585814047
 11
-9.9619191919
 21
3.4467970563
  0
LINE
  5
327
100
AcDbEntity
  8
0
100
AcDbLine
 62
7
  6
CONTINUOUS
 10
-9.3501346801
 20
3.1251687845
 11
-9.3607744108
 21
3.4177796058
  0
LINE
  5
328
100
AcDbEntity
  8
0
100
AcDbLine
 62
7
  6
CONTINUOUS
 10
-9.1798989899
 20
-3.4004808028
 11
-9.1905387205
 21
-3.1053041909
  0
LINE
  5
329
100
AcDbEntity
  8
0
100
AcDbLine
 62
7
  6
CONTINUOUS
 10
-9.4338893775
 20
-3.9239902352
 11
-9.4436328085
 21
-3.6494559532
  0
LINE
  5
32A
100
AcDbEntity
  8
0
100
AcDbLine
 62
7
  6
CONTINUOUS
 10
-8.9240175663
 20
-3.6494559532
 11
-8.9142741352
 21
-3.9239902352
  0
LINE
  5
32B
100
AcDbEntity
  8
0
100
AcDbLine
 62
7
  6
CONTINUOUS
 10
-10.9053166689
 20
3.9031111353
 11
-10.895396263
 21
3.6199684201
  0
LINE
  5
32C
100
AcDbEntity
  8
0
100
AcDbLine
 62
7
  6
CONTINUOUS
 10
-10.634780074
 20
-3.9005485559
 11
-10.6447209864
 21
-3.6163821178
  0
LINE
  5
32D
100
AcDbEntity
  8
0
100
AcDbLine
 62
7
  6
CONTINUOUS
 10
-10.8149400963
 20
3.6177848859
 11
-10.8248553266
 21
3.9010828519
  0
LINE
  5
32E
100
AcDbEntity
  8
0
100
AcDbLine
 62
7
  6
CONTINUOUS
 10
-10.1251057441
 20
-3.6163821178
 11
-10.1151648318
 21
-3.9005485559
  0
LINE
  5
32F
100
AcDbEntity
  8
0
100
AcDbLine
 62
7
  6
CONTINUOUS
 10
-10.3052400843
 20
3.9010828519
 11
-10.2953248541
 21
3.6177848859
  0
LINE
  5
330
100
AcDbEntity
  8
0
100
AcDbLine
 62
7
  6
CONTINUOUS
 10
-10.0348607772
 20
-3.8984077831
 11
-10.0447854736
 21
-3.614407324
  0
LINE
  5
331
100
AcDbEntity
  8
0
100
AcDbLine
 62
7
  6
CONTINUOUS
 10
-10.2148322678
 20
3.6144838857
 11
-10.2247544935
 21
3.8984085371
  0
LINE
  5
332
100
AcDbEntity
  8
0
100
AcDbLine
 62
7
  6
CONTINUOUS
 10
-9.5251702314
 20
-3.614407324
 11
-9.5152455349
 21
-3.8984077831
  0
LINE
  5
333
100
AcDbEntity
  8
0
100
AcDbLine
 62
7
  6
CONTINUOUS
 10
-9.7051392512
 20
3.8984085371
 11
-9.6952170255
 21
3.6144838857
  0
LINE
  5
334
100
AcDbEntity
  8
0
100
AcDbLine
 62
7
  6
CONTINUOUS
 10
-9.7863636364
 20
-3.2259375005
 11
-9.8023232323
 21
-2.7335890154
  0
LINE
  5
335
100
AcDbEntity
  8
0
100
AcDbLine
 62
7
  6
CONTINUOUS
 10
-10.3875084175
 20
-3.1934646036
 11
-10.4034680135
 21
-2.695167581
  0
LINE
  5
336
100
AcDbEntity
  8
0
100
AcDbLine
 62
7
  6
CONTINUOUS
 10
-10.5364646465
 20
2.6928953801
 11
-10.5524242424
 21
3.1915400949
  0
LINE
  5
337
100
AcDbEntity
  8
0
100
AcDbLine
 62
7
  6
CONTINUOUS
 10
-9.9353198653
 20
2.6540640031
 11
-9.9512794613
 21
3.1585814047
  0
LINE
  5
338
100
AcDbEntity
  8
0
100
AcDbLine
 62
7
  6
CONTINUOUS
 10
-9.6055177321
 20
3.3124061803
 11
-9.6194953774
 21
3.7529718837
  0
LINE
  5
339
100
AcDbEntity
  8
0
100
AcDbLine
 62
7
  6
CONTINUOUS
 10
-10.7350205842
 20
-3.2939565006
 11
-10.7200523155
 21
-3.7659338719
  0
LINE
  5
33A
100
AcDbEntity
  8
0
100
AcDbLine
 62
7
  6
CONTINUOUS
 10
-9.3341750842
 20
2.614851202
 11
-9.3501346801
 21
3.1251687845
  0
LINE
  5
33B
100
AcDbEntity
  8
0
100
AcDbLine
 62
7
  6
CONTINUOUS
 10
-9.1905387205
 20
-3.1053041909
 11
-9.2064983165
 21
-2.5916089432
  0
LINE
  5
33C
100
AcDbEntity
  8
0
100
AcDbLine
 62
7
  6
CONTINUOUS
 10
-9.4436328085
 20
-3.6494559532
 11
-9.4582947893
 21
-3.1658097352
  0
LINE
  5
33D
100
AcDbEntity
  8
0
100
AcDbLine
 62
7
  6
CONTINUOUS
 10
-8.938679547
 20
-3.1658097352
 11
-8.9240175663
 21
-3.6494559532
  0
LINE
  5
33E
100
AcDbEntity
  8
0
100
AcDbLine
 62
7
  6
CONTINUOUS
 10
-10.895396263
 20
3.6199684201
 11
-10.8803619553
 21
3.1175889071
  0
LINE
  5
33F
100
AcDbEntity
  8
0
100
AcDbLine
 62
7
  6
CONTINUOUS
 10
-10.6447209864
 20
-3.6163821178
 11
-10.6597168009
 21
-3.1147424415
  0
LINE
  5
340
100
AcDbEntity
  8
0
100
AcDbLine
 62
7
  6
CONTINUOUS
 10
-10.7999392337
 20
3.1162170551
 11
-10.8149400963
 21
3.6177848859
  0
LINE
  5
341
100
AcDbEntity
  8
0
100
AcDbLine
 62
7
  6
CONTINUOUS
 10
-10.1401015587
 20
-3.1147424415
 11
-10.1251057441
 21
-3.6163821178
  0
LINE
  5
342
100
AcDbEntity
  8
0
100
AcDbLine
 62
7
  6
CONTINUOUS
 10
-10.2953248541
 20
3.6177848859
 11
-10.2803239915
 21
3.1162170551
  0
LINE
  5
343
100
AcDbEntity
  8
0
100
AcDbLine
 62
7
  6
CONTINUOUS
 10
-10.0447854736
 20
-3.614407324
 11
-10.059749181
 21
-3.1135715219
  0
LINE
  5
344
100
AcDbEntity
  8
0
100
AcDbLine
 62
7
  6
CONTINUOUS
 10
-10.1998738832
 20
3.113854409
 11
-10.2148322678
 21
3.6144838857
  0
LINE
  5
345
100
AcDbEntity
  8
0
100
AcDbLine
 62
7
  6
CONTINUOUS
 10
-9.5401339387
 20
-3.1135715219
 11
-9.5251702314
 21
-3.614407324
  0
LINE
  5
346
100
AcDbEntity
  8
0
100
AcDbLine
 62
7
  6
CONTINUOUS
 10
-9.6952170255
 20
3.6144838857
 11
-9.6802586409
 21
3.113854409
  0
LINE
  5
347
100
AcDbEntity
  8
0
100
AcDbLine
 62
7
  6
CONTINUOUS
 10
-9.8023232323
 20
-2.7335890154
 11
-9.8182828283
 21
-2.1650636619
  0
LINE
  5
348
100
AcDbEntity
  8
0
100
AcDbLine
 62
7
  6
CONTINUOUS
 10
-10.4034680135
 20
-2.695167581
 11
-10.4194276094
 21
-2.1217643792
  0
LINE
  5
349
100
AcDbEntity
  8
0
100
AcDbLine
 62
7
  6
CONTINUOUS
 10
-9.2064983165
 20
-2.5916089432
 11
-9.2224579125
 21
-2.0056933827
  0
LINE
  5
34A
100
AcDbEntity
  8
0
100
AcDbLine
 62
7
  6
CONTINUOUS
 10
-8.9485461865
 20
-2.7976435626
 11
-8.938679547
 21
-3.1658097352
  0
LINE
  5
34B
100
AcDbEntity
  8
0
100
AcDbLine
 62
7
  6
CONTINUOUS
 10
-10.5098653199
 20
1.7028807791
 11
-10.5364646465
 21
2.6928953801
  0
LINE
  5
34C
100
AcDbEntity
  8
0
100
AcDbLine
 62
7
  6
CONTINUOUS
 10
-9.4582947893
 20
-3.1658097352
 11
-9.4730929864
 21
-2.6021831301
  0
LINE
  5
34D
100
AcDbEntity
  8
0
100
AcDbLine
 62
7
  6
CONTINUOUS
 10
-10.8803619553
 20
3.1175889071
 11
-10.8651865535
 21
2.5323336089
  0
LINE
  5
34E
100
AcDbEntity
  8
0
100
AcDbLine
 62
7
  6
CONTINUOUS
 10
-10.2803239915
 20
3.1162170551
 11
-10.2651791151
 21
2.5320298138
  0
LINE
  5
34F
100
AcDbEntity
  8
0
100
AcDbLine
 62
7
  6
CONTINUOUS
 10
-9.6802586409
 20
3.113854409
 11
-9.6651472163
 21
2.5307268453
  0
LINE
  5
350
100
AcDbEntity
  8
0
100
AcDbLine
 62
7
  6
CONTINUOUS
 10
-10.6597168009
 20
-3.1147424415
 11
-10.674861985
 21
-2.5303509468
  0
LINE
  5
351
100
AcDbEntity
  8
0
100
AcDbLine
 62
7
  6
CONTINUOUS
 10
-10.059749181
 20
-3.1135715219
 11
-10.0748567178
 21
-2.5305661306
  0
LINE
  5
352
100
AcDbEntity
  8
0
100
AcDbLine
 62
7
  6
CONTINUOUS
 10
-9.9034006734
 20
1.4392673987
 11
-9.9353198653
 21
2.6540640031
  0
LINE
  5
353
100
AcDbEntity
  8
0
100
AcDbLine
 62
7
  6
CONTINUOUS
 10
-9.580896058
 20
2.3707482726
 11
-9.6055177321
 21
3.3124061803
  0
LINE
  5
354
100
AcDbEntity
  8
0
100
AcDbLine
 62
7
  6
CONTINUOUS
 10
-9.3022558923
 20
1.3918636448
 11
-9.3341750842
 21
2.614851202
  0
LINE
  5
355
100
AcDbEntity
  8
0
100
AcDbLine
 62
7
  6
CONTINUOUS
 10
-10.7602920625
 20
-2.3207949907
 11
-10.7350205842
 21
-3.2939565006
  0
LINE
  5
356
100
AcDbEntity
  8
0
100
AcDbLine
 62
7
  6
CONTINUOUS
 10
-10.4194276094
 20
-2.1217643792
 11
-10.4407070707
 21
-1.2682595482
  0
LINE
  5
357
100
AcDbEntity
  8
0
100
AcDbLine
 62
7
  6
CONTINUOUS
 10
-9.8182828283
 20
-2.1650636619
 11
-9.8395622896
 21
-1.3161669526
  0
LINE
  5
358
100
AcDbEntity
  8
0
100
AcDbLine
 62
7
  6
CONTINUOUS
 10
-9.2224579125
 20
-2.0056933827
 11
-9.2437373737
 21
-1.1405843616
  0
LINE
  5
359
100
AcDbEntity
  8
0
100
AcDbLine
 62
7
  6
CONTINUOUS
 10
-10.7697275177
 20
1.8877613403
 11
-10.7999392337
 21
3.1162170551
  0
LINE
  5
35A
100
AcDbEntity
  8
0
100
AcDbLine
 62
7
  6
CONTINUOUS
 10
-10.4407070707
 20
-1.2682595482
 11
-10.4726262626
 21
0.1154945025
  0
LINE
  5
35B
100
AcDbEntity
  8
0
100
AcDbLine
 62
7
  6
CONTINUOUS
 10
-10.4726262626
 20
0.1154945025
 11
-10.5098653199
 21
1.7028807791
  0
LINE
  5
35C
100
AcDbEntity
  8
0
100
AcDbLine
 62
7
  6
CONTINUOUS
 10
-10.1703149014
 20
-1.885873442
 11
-10.1401015587
 21
-3.1147424415
  0
LINE
  5
35D
100
AcDbEntity
  8
0
100
AcDbLine
 62
7
  6
CONTINUOUS
 10
-10.169727147
 20
1.8877448427
 11
-10.1998738832
 21
3.113854409
  0
LINE
  5
35E
100
AcDbEntity
  8
0
100
AcDbLine
 62
7
  6
CONTINUOUS
 10
-9.8395622896
 20
-1.3161669526
 11
-9.8714814815
 21
0.0651563449
  0
LINE
  5
35F
100
AcDbEntity
  8
0
100
AcDbLine
 62
7
  6
CONTINUOUS
 10
-9.8714814815
 20
0.0651563449
 11
-9.9034006734
 21
1.4392673987
  0
LINE
  5
360
100
AcDbEntity
  8
0
100
AcDbLine
 62
7
  6
CONTINUOUS
 10
-9.5702640626
 20
-1.8881360185
 11
-9.5401339387
 21
-3.1135715219
  0
LINE
  5
361
100
AcDbEntity
  8
0
100
AcDbLine
 62
7
  6
CONTINUOUS
 10
-9.2437373737
 20
-1.1405843616
 11
-9.3022558923
 21
1.3918636448
  0
LINE
  5
362
100
AcDbEntity
  8
0
100
AcDbLine
 62
7
  6
CONTINUOUS
 10
-9.4730929864
 20
-2.6021831301
 11
-9.4926674272
 21
-1.7632784055
  0
LINE
  5
363
100
AcDbEntity
  8
0
100
AcDbLine
 62
7
  6
CONTINUOUS
 10
-10.8651865535
 20
2.5323336089
 11
-10.8451064778
 21
1.6625051949
  0
LINE
  5
364
100
AcDbEntity
  8
0
100
AcDbLine
 62
7
  6
CONTINUOUS
 10
-10.674861985
 20
-2.5303509468
 11
-10.694903935
 21
-1.6620316528
  0
LINE
  5
365
100
AcDbEntity
  8
0
100
AcDbLine
 62
7
  6
CONTINUOUS
 10
-10.2651791151
 20
2.5320298138
 11
-10.2451403282
 21
1.6640444733
  0
LINE
  5
366
100
AcDbEntity
  8
0
100
AcDbLine
 62
7
  6
CONTINUOUS
 10
-10.0748567178
 20
-2.5305661306
 11
-10.0948349461
 21
-1.6651686953
  0
LINE
  5
367
100
AcDbEntity
  8
0
100
AcDbLine
 62
7
  6
CONTINUOUS
 10
-9.6651472163
 20
2.5307268453
 11
-9.6451500119
 21
1.6644847808
  0
LWPOLYLINE
  5
368
100
AcDbEntity
  8
0
100
AcDbPolyline
 62
7
  6
CONTINUOUS
 90
3
 70
0
 10
-10.8451064778
 20
1.6625051949
 10
-10.8101272541
 20
-0.0031712285
 10
-10.7602920625
 20
-2.3207949907
  0
LINE
  5
369
100
AcDbEntity
  8
0
100
AcDbLine
 62
7
  6
CONTINUOUS
 10
-10.694903935
 20
-1.6620316528
 11
-10.7697275177
 21
1.8877613403
  0
LWPOLYLINE
  5
36A
100
AcDbEntity
  8
0
100
AcDbPolyline
 62
7
  6
CONTINUOUS
 90
3
 70
0
 10
-10.2451403282
 20
1.6640444733
 10
-10.210164828
 20
-0.0013415799
 10
-10.1703149014
 20
-1.885873442
  0
LINE
  5
36B
100
AcDbEntity
  8
0
100
AcDbLine
 62
7
  6
CONTINUOUS
 10
-10.0948349461
 20
-1.6651686953
 11
-10.169727147
 21
1.8877448427
  0
LWPOLYLINE
  5
36C
100
AcDbEntity
  8
0
100
AcDbPolyline
 62
7
  6
CONTINUOUS
 90
3
 70
0
 10
-9.6451500119
 20
1.6644847808
 10
-9.6101828929
 20
-0.0004619175
 10
-9.5702640626
 20
-1.8881360185
  0
LINE
  5
36D
100
AcDbEntity
  8
0
100
AcDbLine
 62
7
  6
CONTINUOUS
 10
-9.4926674272
 20
-1.7632784055
 11
-9.580896058
 21
2.3707482726
  0
LINE
  5
36E
100
AcDbEntity
  8
0
100
AcDbLine
 62
7
  6
CONTINUOUS
 10
-9.7635875927
 20
4.6470612089
 11
-10.0200000011
 21
4.2032521501
  0
LINE
  5
36F
100
AcDbEntity
  8
0
100
AcDbLine
 62
7
  6
CONTINUOUS
 10
-9.1635875927
 20
4.6470612089
 11
-9.4200000011
 21
4.2032521501
  0
LINE
  5
370
100
AcDbEntity
  8
0
100
AcDbLine
 62
7
  6
CONTINUOUS
 10
-8.5635875927
 20
4.6470612089
 11
-8.8200000011
 21
4.2032521501
  0
LINE
  5
371
100
AcDbEntity
  8
0
100
AcDbLine
 62
7
  6
CONTINUOUS
 10
-13.3470168546
 20
-4.250010967
 11
-13.3200000011
 21
-4.2032521501
  0
LINE
  5
372
100
AcDbEntity
  8
0
100
AcDbLine
 62
7
  6
CONTINUOUS
 10
-7.9635875927
 20
4.6470612089
 11
-8.2200000011
 21
4.2032521501
  0
LINE
  5
373
100
AcDbEntity
  8
0
100
AcDbLine
 62
7
  6
CONTINUOUS
 10
-10.9635875927
 20
4.6470612089
 11
-10.9601923789
 21
4.65
  0
LINE
  5
374
100
AcDbEntity
  8
0
100
AcDbLine
 62
7
  6
CONTINUOUS
 10
-10.3635875927
 20
4.6470612089
 11
-10.3601923789
 21
4.65
  0
LINE
  5
375
100
AcDbEntity
  8
0
100
AcDbLine
 62
7
  6
CONTINUOUS
 10
-9.7635875927
 20
4.6470612089
 11
-9.7601923789
 21
4.65
  0
LINE
  5
376
100
AcDbEntity
  8
0
100
AcDbLine
 62
7
  6
CONTINUOUS
 10
-9.1635875927
 20
4.6470612089
 11
-9.1601923789
 21
4.65
  0
LINE
  5
377
100
AcDbEntity
  8
0
100
AcDbLine
 62
7
  6
CONTINUOUS
 10
-8.5635875927
 20
4.6470612089
 11
-8.5601923789
 21
4.65
  0
LINE
  5
378
100
AcDbEntity
  8
0
100
AcDbLine
 62
7
  6
CONTINUOUS
 10
-12.674800587
 20
4.6413275625
 11
-12.810398826
 21
4.5630398828
  0
LINE
  5
379
100
AcDbEntity
  8
0
100
AcDbLine
 62
7
  6
CONTINUOUS
 10
-14.85
 20
3.3854755959
 11
-13.124800587
 21
4.3815199414
  0
LINE
  5
37A
100
AcDbEntity
  8
0
100
AcDbLine
 62
7
  6
CONTINUOUS
 10
-14.85
 20
-3.3854755959
 11
-13.354028135
 21
-4.2491753549
  0
LINE
  5
37B
100
AcDbEntity
  8
0
100
AcDbLine
 62
7
  6
CONTINUOUS
 10
-13.2603988259
 20
-4.3032322616
 11
-12.899800587
 21
-4.511423752
  0
LINE
  5
37C
100
AcDbEntity
  8
0
100
AcDbLine
 62
7
  6
CONTINUOUS
 10
-10.6635875927
 20
-4.6470612089
 11
-10.6601923789
 21
-4.65
  0
LINE
  5
37D
100
AcDbEntity
  8
0
100
AcDbLine
 62
7
  6
CONTINUOUS
 10
-10.0635875927
 20
-4.6470612089
 11
-10.0601923789
 21
-4.65
  0
LINE
  5
37E
100
AcDbEntity
  8
0
100
AcDbLine
 62
7
  6
CONTINUOUS
 10
-9.4635875927
 20
-4.6470612089
 11
-9.4601923789
 21
-4.65
  0
LINE
  5
37F
100
AcDbEntity
  8
0
100
AcDbLine
 62
7
  6
CONTINUOUS
 10
-8.8635875927
 20
-4.6470612089
 11
-8.8601923789
 21
-4.65
  0
LWPOLYLINE
  5
380
100
AcDbEntity
  8
0
100
AcDbPolyline
 62
7
  6
CONTINUOUS
 90
10
 70
0
 10
-9.3798076211
 20
-4.65
 10
-9.3846714701
 20
-4.6439695954
 10
-9.3895549964
 20
-4.6257964847
 10
-9.3944582
 20
-4.5953817559
 10
-9.399387717
 20
-4.5525935479
 10
-9.4043369114
 20
-4.4974329092
 10
-9.4092858754
 20
-4.4301977147
 10
-9.4142342876
 20
-4.3510757021
 10
-9.4191824696
 20
-4.2602769586
 10
-9.4241114774
 20
-4.158459707
  0
LWPOLYLINE
  5
381
100
AcDbEntity
  8
0
100
AcDbPolyline
 62
7
  6
CONTINUOUS
 90
10
 70
0
 10
-9.9798076211
 20
-4.65
 10
-9.9847607163
 20
-4.6437463127
 10
-9.9897338427
 20
-4.6249009641
 10
-9.9947270004
 20
-4.5933632779
 10
-9.9997471954
 20
-4.5489971948
 10
-10.0047874217
 20
-4.4918095677
 10
-10.009826661
 20
-4.4221262113
 10
-10.0148644519
 20
-4.3401564821
 10
-10.0199012559
 20
-4.2461298144
 10
-10.0249174384
 20
-4.1407498754
  0
LWPOLYLINE
  5
382
100
AcDbEntity
  8
0
100
AcDbPolyline
 62
7
  6
CONTINUOUS
 90
10
 70
0
 10
-8.7798076211
 20
-4.65
 10
-8.7847728394
 20
-4.6437156694
 10
-8.7897581365
 20
-4.6247780685
 10
-8.7947635125
 20
-4.5930862926
 10
-8.7997960236
 20
-4.5485037258
 10
-8.8048486136
 20
-4.4910380463
 10
-8.809900114
 20
-4.4210189416
 10
-8.8149500767
 20
-4.3386582156
 10
-8.8199989499
 20
-4.2441884122
 10
-8.8250269095
 20
-4.1383216264
  0
LWPOLYLINE
  5
383
100
AcDbEntity
  8
0
100
AcDbPolyline
 62
7
  6
CONTINUOUS
 90
10
 70
0
 10
-8.1798076211
 20
-4.65
 10
-8.1847782075
 20
-4.6437020765
 10
-8.1897688938
 20
-4.6247235548
 10
-8.1947796799
 20
-4.5929634299
 10
-8.1998176443
 20
-4.548284842
 10
-8.2048757085
 20
-4.4906958373
 10
-8.209932638
 20
-4.4205278219
 10
-8.2149879936
 20
-4.3379936303
 10
-8.2200422144
 20
-4.2433272297
 10
-8.2250753829
 20
-4.1372446688
  0
LINE
  5
384
100
AcDbEntity
  8
0
100
AcDbLine
 62
7
  6
CONTINUOUS
 10
-9.7237586297
 20
-4.1967470338
 11
-9.4635875927
 21
-4.6470612089
  0
LINE
  5
385
100
AcDbEntity
  8
0
100
AcDbLine
 62
7
  6
CONTINUOUS
 10
-9.1237586297
 20
-4.1967470338
 11
-8.8635875927
 21
-4.6470612089
  0
LINE
  5
386
100
AcDbEntity
  8
0
100
AcDbLine
 62
7
  6
CONTINUOUS
 10
-8.5237586297
 20
-4.1967470338
 11
-8.2635875927
 21
-4.6470612089
  0
LINE
  5
387
100
AcDbEntity
  8
0
100
AcDbLine
 62
7
  6
CONTINUOUS
 10
-13.0162413703
 20
4.1967470339
 11
-13.1220992461
 21
4.3799621695
  0
LWPOLYLINE
  5
388
100
AcDbEntity
  8
0
100
AcDbPolyline
 62
7
  6
CONTINUOUS
 90
10
 70
0
 10
-8.5237586297
 20
-4.1967470338
 10
-8.5255555556
 20
-4.1928942647
 10
-8.5308754209
 20
-4.1727918373
 10
-8.5361952862
 20
-4.1397422978
 10
-8.5415151515
 20
-4.0938481905
 10
-8.5468350168
 20
-4.0352519133
 10
-8.5521548822
 20
-3.9641352753
 10
-8.5574747475
 20
-3.8807189336
 10
-8.5627946128
 20
-3.7852617077
 10
-8.5681144781
 20
-3.6780597772
  0
LWPOLYLINE
  5
389
100
AcDbEntity
  8
0
100
AcDbPolyline
 62
7
  6
CONTINUOUS
 90
4
 70
0
 10
-12.6722502311
 20
4.6398566715
 10
-12.6711609437
 20
4.6374342083
 10
-12.6673659999
 20
4.6206123197
 10
-12.6635721802
 20
4.5908070325
  0
LWPOLYLINE
  5
38A
100
AcDbEntity
  8
0
100
AcDbPolyline
 62
7
  6
CONTINUOUS
 90
4
 70
0
 10
-13.1220992461
 20
4.3799621695
 10
-13.1208557916
 20
4.3771494187
 10
-13.1169090044
 20
4.359476883
 10
-13.1129602254
 20
4.328522105
  0
LWPOLYLINE
  5
38B
100
AcDbEntity
  8
0
100
AcDbPolyline
 62
7
  6
CONTINUOUS
 90
10
 70
0
 10
-9.1237586297
 20
-4.1967470338
 10
-9.1267003367
 20
-4.1896654493
 10
-9.132020202
 20
-4.1667702898
 10
-9.1373400673
 20
-4.1309467015
 10
-9.1426599327
 20
-4.082305836
 10
-9.147979798
 20
-4.0209986134
 10
-9.1532996633
 20
-3.9472152546
 10
-9.1586195286
 20
-3.8611846904
 10
-9.1639393939
 20
-3.763173852
 10
-9.1692592593
 20
-3.6534868419
  0
LWPOLYLINE
  5
38C
100
AcDbEntity
  8
0
100
AcDbPolyline
 62
7
  6
CONTINUOUS
 90
9
 70
0
 10
-9.7237586297
 20
-4.1967470338
 10
-9.7278451178
 20
-4.1858345232
 10
-9.7331649832
 20
-4.1601499219
 10
-9.7384848485
 20
-4.1215574332
 10
-9.7438047138
 20
-4.0701767998
 10
-9.7491245791
 20
-4.0061674427
 10
-9.7544444444
 20
-3.9297279666
 10
-9.7597643098
 20
-3.8410955438
 10
-9.7650841751
 20
-3.7405451782
  0
LWPOLYLINE
  5
38D
100
AcDbEntity
  8
0
100
AcDbPolyline
 62
7
  6
CONTINUOUS
 90
9
 70
0
 10
-8.1744444444
 20
3.7310710533
 10
-8.1797643098
 20
3.8326629272
 10
-8.1850841751
 20
3.9223630225
 10
-8.1904040404
 20
3.9998930226
 10
-8.1957239057
 20
4.0650123718
 10
-8.201043771
 20
4.1175190211
 10
-8.2063636364
 20
4.1572500559
 10
-8.2116835017
 20
4.1840822008
 10
-8.2162413704
 20
4.1967470339
  0
LWPOLYLINE
  5
38E
100
AcDbEntity
  8
0
100
AcDbPolyline
 62
7
  6
CONTINUOUS
 90
9
 70
0
 10
-7.5732996633
 20
3.7076844259
 10
-7.5786195286
 20
3.8117953207
 10
-7.5839393939
 20
3.9040791838
 10
-7.5892592593
 20
3.9842496819
 10
-7.5945791246
 20
4.0520580662
 10
-7.5998989899
 20
4.1072939447
 10
-7.6052188552
 20
4.1497859345
 10
-7.6105387205
 20
4.1794021936
 10
-7.6162413704
 20
4.1967470339
  0
LWPOLYLINE
  5
38F
100
AcDbEntity
  8
0
100
AcDbPolyline
 62
7
  6
CONTINUOUS
 90
10
 70
0
 10
-8.7702693603
 20
3.6432157596
 10
-8.7755892256
 20
3.7539214763
 10
-8.7809090909
 20
3.852979729
 10
-8.7862289562
 20
3.9400831654
 10
-8.7915488215
 20
4.0149615256
 10
-8.7968686869
 20
4.077382481
 10
-8.8021885522
 20
4.1271523553
 10
-8.8075084175
 20
4.1641167252
 10
-8.8128282828
 20
4.1881608997
 10
-8.8162413703
 20
4.1967470339
  0
LWPOLYLINE
  5
390
100
AcDbEntity
  8
0
100
AcDbPolyline
 62
7
  6
CONTINUOUS
 90
10
 70
0
 10
-9.0345890324
 20
4.1383371619
 10
-9.0396170927
 20
4.2442043358
 10
-9.0446662745
 20
4.3386776421
 10
-9.0497164349
 20
4.4210386615
 10
-9.0547678985
 20
4.4910540753
 10
-9.0598203409
 20
4.5485150801
 10
-9.0648526459
 20
4.5930932506
 10
-9.0698577749
 20
4.6247814575
 10
-9.0748427667
 20
4.64371659
 10
-9.0764124072
 20
4.6470612087
  0
LWPOLYLINE
  5
391
100
AcDbEntity
  8
0
100
AcDbPolyline
 62
7
  6
CONTINUOUS
 90
10
 70
0
 10
-8.3054116672
 20
-4.1383216264
 10
-8.3003837077
 20
-4.2441884122
 10
-8.2953348345
 20
-4.3386582156
 10
-8.2902848717
 20
-4.4210189416
 10
-8.2852333713
 20
-4.4910380463
 10
-8.2801807813
 20
-4.5485037258
 10
-8.2751482702
 20
-4.5930862926
 10
-8.2701428942
 20
-4.6247780685
 10
-8.2651575971
 20
-4.6437156694
 10
-8.2635875927
 20
-4.6470612089
  0
LWPOLYLINE
  5
392
100
AcDbEntity
  8
0
100
AcDbPolyline
 62
7
  6
CONTINUOUS
 90
10
 70
0
 10
-8.4345405598
 20
4.1372602385
 10
-8.4395738361
 20
4.2433433252
 10
-8.4446283609
 20
4.3380131341
 10
-8.4496839099
 20
4.4205475477
 10
-8.4547408027
 20
4.4907118731
 10
-8.4597987198
 20
4.5482962051
 10
-8.4648364785
 20
4.5929703957
 10
-8.4698470178
 20
4.6247269481
 10
-8.4748373987
 20
4.6437029984
 10
-8.4764124072
 20
4.6470612087
  0
LWPOLYLINE
  5
393
100
AcDbEntity
  8
0
100
AcDbPolyline
 62
7
  6
CONTINUOUS
 90
10
 70
0
 10
-7.7054601406
 20
-4.1372446688
 10
-7.7004269722
 20
-4.2433272297
 10
-7.6953727513
 20
-4.3379936303
 10
-7.6903173957
 20
-4.4205278219
 10
-7.6852604663
 20
-4.4906958373
 10
-7.680202402
 20
-4.548284842
 10
-7.6751644377
 20
-4.5929634299
 10
-7.6701536515
 20
-4.6247235548
 10
-7.6651629652
 20
-4.6437020765
 10
-7.6635875927
 20
-4.6470612089
  0
LWPOLYLINE
  5
394
100
AcDbEntity
  8
0
100
AcDbPolyline
 62
7
  6
CONTINUOUS
 90
10
 70
0
 10
-7.8345061377
 20
4.1364948274
 10
-7.8395431476
 20
4.2427319531
 10
-7.8446014454
 20
4.3375409735
 10
-7.8496608016
 20
4.4201983092
 10
-7.8547215504
 20
4.4904685092
 10
-7.8597833578
 20
4.5481405496
 10
-7.8648249917
 20
4.5928830286
 10
-7.8698393749
 20
4.624688184
 10
-7.8748335847
 20
4.6436933328
 10
-7.8764124072
 20
4.6470612087
  0
LWPOLYLINE
  5
395
100
AcDbEntity
  8
0
100
AcDbPolyline
 62
7
  6
CONTINUOUS
 90
10
 70
0
 10
-7.1054945829
 20
-4.1364788003
 10
-7.1004577196
 20
-4.2427146705
 10
-7.0953996948
 20
-4.3375209648
 10
-7.0903405034
 20
-4.4201785791
 10
-7.0852797166
 20
-4.4904524868
 10
-7.0802177631
 20
-4.5481291876
 10
-7.0751759245
 20
-4.5928760574
 10
-7.0701612945
 20
-4.6246847875
 10
-7.0651667793
 20
-4.6436924099
 10
-7.0635875927
 20
-4.6470612089
  0
LINE
  5
396
100
AcDbEntity
  8
0
100
AcDbLine
 62
7
  6
CONTINUOUS
 10
-8.1638047138
 20
3.4935087442
 11
-8.1744444444
 21
3.7310710533
  0
LINE
  5
397
100
AcDbEntity
  8
0
100
AcDbLine
 62
7
  6
CONTINUOUS
 10
-7.3658249158
 20
-3.7256164341
 11
-7.3764646465
 21
-3.486918613
  0
LINE
  5
398
100
AcDbEntity
  8
0
100
AcDbLine
 62
7
  6
CONTINUOUS
 10
-7.5626599327
 20
3.4653093538
 11
-7.5732996633
 21
3.7076844259
  0
LINE
  5
399
100
AcDbEntity
  8
0
100
AcDbLine
 62
7
  6
CONTINUOUS
 10
-7.966969697
 20
-3.7021041265
 11
-7.9776094276
 21
-3.4586016763
  0
LINE
  5
39A
100
AcDbEntity
  8
0
100
AcDbLine
 62
7
  6
CONTINUOUS
 10
-9.1170171552
 20
4.1827616486
 11
-9.1084057744
 21
3.982816812
  0
LINE
  5
39B
100
AcDbEntity
  8
0
100
AcDbLine
 62
7
  6
CONTINUOUS
 10
-8.5681144781
 20
-3.6780597772
 11
-8.5787542088
 21
-3.4297876926
  0
LINE
  5
39C
100
AcDbEntity
  8
0
100
AcDbLine
 62
7
  6
CONTINUOUS
 10
-8.7596296296
 20
3.3882709749
 11
-8.7702693603
 21
3.6432157596
  0
LINE
  5
39D
100
AcDbEntity
  8
0
100
AcDbLine
 62
7
  6
CONTINUOUS
 10
-8.8250269095
 20
-4.1383216264
 11
-8.83499436
 21
-3.8948581818
  0
LINE
  5
39E
100
AcDbEntity
  8
0
100
AcDbLine
 62
7
  6
CONTINUOUS
 10
-9.0246148777
 20
3.894698447
 11
-9.0345890324
 21
4.1383371619
  0
LINE
  5
39F
100
AcDbEntity
  8
0
100
AcDbLine
 62
7
  6
CONTINUOUS
 10
-8.3153791177
 20
-3.8948581818
 11
-8.3054116672
 21
-4.1383216264
  0
LINE
  5
3A0
100
AcDbEntity
  8
0
100
AcDbLine
 62
7
  6
CONTINUOUS
 10
-8.2250753829
 20
-4.1372446688
 11
-8.2350538359
 21
-3.8932753183
  0
LINE
  5
3A1
100
AcDbEntity
  8
0
100
AcDbLine
 62
7
  6
CONTINUOUS
 10
-8.5149737901
 20
4.1383371619
 11
-8.5049996354
 21
3.894698447
  0
LINE
  5
3A2
100
AcDbEntity
  8
0
100
AcDbLine
 62
7
  6
CONTINUOUS
 10
-8.4245555342
 20
3.8931189561
 11
-8.4345405598
 21
4.1372602385
  0
LINE
  5
3A3
100
AcDbEntity
  8
0
100
AcDbLine
 62
7
  6
CONTINUOUS
 10
-7.7154385936
 20
-3.8932753183
 11
-7.7054601406
 21
-4.1372446688
  0
LINE
  5
3A4
100
AcDbEntity
  8
0
100
AcDbLine
 62
7
  6
CONTINUOUS
 10
-7.6251098251
 20
-4.1364788003
 11
-7.6350964219
 21
-3.8921410261
  0
LINE
  5
3A5
100
AcDbEntity
  8
0
100
AcDbLine
 62
7
  6
CONTINUOUS
 10
-7.9149253176
 20
4.1372602385
 11
-7.9049402919
 21
3.8931189561
  0
LINE
  5
3A6
100
AcDbEntity
  8
0
100
AcDbLine
 62
7
  6
CONTINUOUS
 10
-7.8245149448
 20
3.8920377599
 11
-7.8345061377
 21
4.1364948274
  0
LINE
  5
3A7
100
AcDbEntity
  8
0
100
AcDbLine
 62
7
  6
CONTINUOUS
 10
-7.1154811796
 20
-3.8921410261
 11
-7.1054945829
 21
-4.1364788003
  0
LWPOLYLINE
  5
3A8
100
AcDbEntity
  8
0
100
AcDbPolyline
 62
7
  6
CONTINUOUS
 90
3
 70
0
 10
-7.0251244215
 20
-4.1361540692
 10
-7.0351147041
 20
-3.8916538364
 10
-7.0400923655
 20
-3.753762354
  0
LINE
  5
3A9
100
AcDbEntity
  8
0
100
AcDbLine
 62
7
  6
CONTINUOUS
 10
-8.1531649832
 20
3.2126221897
 11
-8.1638047138
 21
3.4935087442
  0
LINE
  5
3AA
100
AcDbEntity
  8
0
100
AcDbLine
 62
7
  6
CONTINUOUS
 10
-7.3764646465
 20
-3.486918613
 11
-7.3871043771
 21
-3.2049782731
  0
LINE
  5
3AB
100
AcDbEntity
  8
0
100
AcDbLine
 62
7
  6
CONTINUOUS
 10
-7.552020202
 20
3.1799597472
 11
-7.5626599327
 21
3.4653093538
  0
LINE
  5
3AC
100
AcDbEntity
  8
0
100
AcDbLine
 62
7
  6
CONTINUOUS
 10
-9.1084057744
 20
3.982816812
 11
-9.0998801351
 21
3.7529718837
  0
LINE
  5
3AD
100
AcDbEntity
  8
0
100
AcDbLine
 62
7
  6
CONTINUOUS
 10
-7.9776094276
 20
-3.4586016763
 11
-7.9882491582
 21
-3.1722078758
  0
LINE
  5
3AE
100
AcDbEntity
  8
0
100
AcDbLine
 62
7
  6
CONTINUOUS
 10
-8.5787542088
 20
-3.4297876926
 11
-8.5893939394
 21
-3.13898159
  0
LINE
  5
3AF
100
AcDbEntity
  8
0
100
AcDbLine
 62
7
  6
CONTINUOUS
 10
-8.748989899
 20
3.091307036
 11
-8.7596296296
 21
3.3882709749
  0
LINE
  5
3B0
100
AcDbEntity
  8
0
100
AcDbLine
 62
7
  6
CONTINUOUS
 10
-8.83499436
 20
-3.8948581818
 11
-8.8449353667
 21
-3.6098107823
  0
LINE
  5
3B1
100
AcDbEntity
  8
0
100
AcDbLine
 62
7
  6
CONTINUOUS
 10
-9.0147103367
 20
3.6107456071
 11
-9.0246148777
 21
3.894698447
  0
LINE
  5
3B2
100
AcDbEntity
  8
0
100
AcDbLine
 62
7
  6
CONTINUOUS
 10
-8.3253201244
 20
-3.6098107823
 11
-8.3153791177
 21
-3.8948581818
  0
LINE
  5
3B3
100
AcDbEntity
  8
0
100
AcDbLine
 62
7
  6
CONTINUOUS
 10
-8.5049996354
 20
3.894698447
 11
-8.4950950944
 21
3.6107456071
  0
LINE
  5
3B4
100
AcDbEntity
  8
0
100
AcDbLine
 62
7
  6
CONTINUOUS
 10
-8.2350538359
 20
-3.8932753183
 11
-8.2450006343
 21
-3.6078065391
  0
LINE
  5
3B5
100
AcDbEntity
  8
0
100
AcDbLine
 62
7
  6
CONTINUOUS
 10
-8.4146429726
 20
3.608677771
 11
-8.4245555342
 21
3.8931189561
  0
LINE
  5
3B6
100
AcDbEntity
  8
0
100
AcDbLine
 62
7
  6
CONTINUOUS
 10
-7.7253853921
 20
-3.6078065391
 11
-7.7154385936
 21
-3.8932753183
  0
LINE
  5
3B7
100
AcDbEntity
  8
0
100
AcDbLine
 62
7
  6
CONTINUOUS
 10
-7.9049402919
 20
3.8931189561
 11
-7.8950277304
 21
3.608677771
  0
LINE
  5
3B8
100
AcDbEntity
  8
0
100
AcDbLine
 62
7
  6
CONTINUOUS
 10
-7.6350964219
 20
-3.8921410261
 11
-7.6450458722
 21
-3.6064163816
  0
LINE
  5
3B9
100
AcDbEntity
  8
0
100
AcDbLine
 62
7
  6
CONTINUOUS
 10
-7.8145869125
 20
3.6069555573
 11
-7.8245149448
 21
3.8920377599
  0
LINE
  5
3BA
100
AcDbEntity
  8
0
100
AcDbLine
 62
7
  6
CONTINUOUS
 10
-7.1254306299
 20
-3.6064163816
 11
-7.1154811796
 21
-3.8921410261
  0
LINE
  5
3BB
100
AcDbEntity
  8
0
100
AcDbLine
 62
7
  6
CONTINUOUS
 10
-8.1372053872
 20
2.7178156887
 11
-8.1531649832
 21
3.2126221897
  0
LINE
  5
3BC
100
AcDbEntity
  8
0
100
AcDbLine
 62
7
  6
CONTINUOUS
 10
-7.3871043771
 20
-3.2049782731
 11
-7.4030639731
 21
-2.708772601
  0
LINE
  5
3BD
100
AcDbEntity
  8
0
100
AcDbLine
 62
7
  6
CONTINUOUS
 10
-7.9882491582
 20
-3.1722078758
 11
-8.0042087542
 21
-2.6700999063
  0
LINE
  5
3BE
100
AcDbEntity
  8
0
100
AcDbLine
 62
7
  6
CONTINUOUS
 10
-7.5360606061
 20
2.6792340928
 11
-7.552020202
 21
3.1799597472
  0
LINE
  5
3BF
100
AcDbEntity
  8
0
100
AcDbLine
 62
7
  6
CONTINUOUS
 10
-9.0998801351
 20
3.7529718837
 11
-9.0859024898
 21
3.3124061803
  0
LINE
  5
3C0
100
AcDbEntity
  8
0
100
AcDbLine
 62
7
  6
CONTINUOUS
 10
-8.5893939394
 20
-3.13898159
 11
-8.6053535354
 21
-2.6310434826
  0
LINE
  5
3C1
100
AcDbEntity
  8
0
100
AcDbLine
 62
7
  6
CONTINUOUS
 10
-7.2999278215
 20
3.7543424299
 11
-7.2850823906
 21
3.2842572
  0
LINE
  5
3C2
100
AcDbEntity
  8
0
100
AcDbLine
 62
7
  6
CONTINUOUS
 10
-8.733030303
 20
2.5752626119
 11
-8.748989899
 21
3.091307036
  0
LINE
  5
3C3
100
AcDbEntity
  8
0
100
AcDbLine
 62
7
  6
CONTINUOUS
 10
-8.8449353667
 20
-3.6098107823
 11
-8.8598925676
 21
-3.1083821146
  0
LINE
  5
3C4
100
AcDbEntity
  8
0
100
AcDbLine
 62
7
  6
CONTINUOUS
 10
-8.9998518208
 20
3.1130564488
 11
-9.0147103367
 21
3.6107456071
  0
LINE
  5
3C5
100
AcDbEntity
  8
0
100
AcDbLine
 62
7
  6
CONTINUOUS
 10
-8.3402773253
 20
-3.1083821146
 11
-8.3253201244
 21
-3.6098107823
  0
LINE
  5
3C6
100
AcDbEntity
  8
0
100
AcDbLine
 62
7
  6
CONTINUOUS
 10
-8.4950950944
 20
3.6107456071
 11
-8.4802365785
 21
3.1130564488
  0
LINE
  5
3C7
100
AcDbEntity
  8
0
100
AcDbLine
 62
7
  6
CONTINUOUS
 10
-8.2450006343
 20
-3.6078065391
 11
-8.2599470502
 21
-3.106408456
  0
LINE
  5
3C8
100
AcDbEntity
  8
0
100
AcDbLine
 62
7
  6
CONTINUOUS
 10
-8.3998049143
 20
3.1113593652
 11
-8.4146429726
 21
3.608677771
  0
LINE
  5
3C9
100
AcDbEntity
  8
0
100
AcDbLine
 62
7
  6
CONTINUOUS
 10
-7.7403318079
 20
-3.106408456
 11
-7.7253853921
 21
-3.6078065391
  0
LINE
  5
3CA
100
AcDbEntity
  8
0
100
AcDbLine
 62
7
  6
CONTINUOUS
 10
-7.8950277304
 20
3.608677771
 11
-7.880189672
 21
3.1113593652
  0
LINE
  5
3CB
100
AcDbEntity
  8
0
100
AcDbLine
 62
7
  6
CONTINUOUS
 10
-7.6450458722
 20
-3.6064163816
 11
-7.6599758339
 21
-3.1053653447
  0
LINE
  5
3CC
100
AcDbEntity
  8
0
100
AcDbLine
 62
7
  6
CONTINUOUS
 10
-7.7997456864
 20
3.1092154221
 11
-7.8145869125
 21
3.6069555573
  0
LINE
  5
3CD
100
AcDbEntity
  8
0
100
AcDbLine
 62
7
  6
CONTINUOUS
 10
-7.1403605917
 20
-3.1053653447
 11
-7.1254306299
 21
-3.6064163816
  0
LINE
  5
3CE
100
AcDbEntity
  8
0
100
AcDbLine
 62
7
  6
CONTINUOUS
 10
-7.4030639731
 20
-2.708772601
 11
-7.419023569
 21
-2.1370816189
  0
LINE
  5
3CF
100
AcDbEntity
  8
0
100
AcDbLine
 62
7
  6
CONTINUOUS
 10
-8.0042087542
 20
-2.6700999063
 11
-8.0201683502
 21
-2.0935843179
  0
LINE
  5
3D0
100
AcDbEntity
  8
0
100
AcDbLine
 62
7
  6
CONTINUOUS
 10
-8.6053535354
 20
-2.6310434826
 11
-8.6213131313
 21
-2.049786141
  0
LINE
  5
3D1
100
AcDbEntity
  8
0
100
AcDbLine
 62
7
  6
CONTINUOUS
 10
-9.0859024898
 20
3.3124061803
 11
-9.0711460411
 21
2.7706338615
  0
LINE
  5
3D2
100
AcDbEntity
  8
0
100
AcDbLine
 62
7
  6
CONTINUOUS
 10
-7.2850823906
 20
3.2842572
 11
-7.2702088784
 21
2.7338513796
  0
LINE
  5
3D3
100
AcDbEntity
  8
0
100
AcDbLine
 62
7
  6
CONTINUOUS
 10
-8.1106060606
 20
1.7326107433
 11
-8.1372053872
 21
2.7178156887
  0
LINE
  5
3D4
100
AcDbEntity
  8
0
100
AcDbLine
 62
7
  6
CONTINUOUS
 10
-8.4802365785
 20
3.1130564488
 11
-8.4652094039
 21
2.533266755
  0
LINE
  5
3D5
100
AcDbEntity
  8
0
100
AcDbLine
 62
7
  6
CONTINUOUS
 10
-7.880189672
 20
3.1113593652
 11
-7.8652248705
 21
2.5338982841
  0
LINE
  5
3D6
100
AcDbEntity
  8
0
100
AcDbLine
 62
7
  6
CONTINUOUS
 10
-8.8598925676
 20
-3.1083821146
 11
-8.8749337558
 21
-2.5274181175
  0
LINE
  5
3D7
100
AcDbEntity
  8
0
100
AcDbLine
 62
7
  6
CONTINUOUS
 10
-8.2599470502
 20
-3.106408456
 11
-8.2749394454
 21
-2.5271855562
  0
LINE
  5
3D8
100
AcDbEntity
  8
0
100
AcDbLine
 62
7
  6
CONTINUOUS
 10
-7.6599758339
 20
-3.1053653447
 11
-7.6749212075
 21
-2.5279309925
  0
LINE
  5
3D9
100
AcDbEntity
  8
0
100
AcDbLine
 62
7
  6
CONTINUOUS
 10
-7.5041414141
 20
1.4698306216
 11
-7.5360606061
 21
2.6792340928
  0
LINE
  5
3DA
100
AcDbEntity
  8
0
100
AcDbLine
 62
7
  6
CONTINUOUS
 10
-8.7011111111
 20
1.3442598615
 11
-8.733030303
 21
2.5752626119
  0
LINE
  5
3DB
100
AcDbEntity
  8
0
100
AcDbLine
 62
7
  6
CONTINUOUS
 10
-7.419023569
 20
-2.1370816189
 11
-7.4403030303
 21
-1.2851892114
  0
LINE
  5
3DC
100
AcDbEntity
  8
0
100
AcDbLine
 62
7
  6
CONTINUOUS
 10
-8.6213131313
 20
-2.049786141
 11
-8.6425925926
 21
-1.1889591566
  0
LINE
  5
3DD
100
AcDbEntity
  8
0
100
AcDbLine
 62
7
  6
CONTINUOUS
 10
-8.0201683502
 20
-2.0935843179
 11
-8.0414478114
 21
-1.2371630824
  0
LINE
  5
3DE
100
AcDbEntity
  8
0
100
AcDbLine
 62
7
  6
CONTINUOUS
 10
-9.0711460411
 20
2.7706338615
 11
-9.0514457398
 21
1.9469164064
  0
LINE
  5
3DF
100
AcDbEntity
  8
0
100
AcDbLine
 62
7
  6
CONTINUOUS
 10
-8.969813703
 20
1.8915959389
 11
-8.9998518208
 21
3.1130564488
  0
LINE
  5
3E0
100
AcDbEntity
  8
0
100
AcDbLine
 62
7
  6
CONTINUOUS
 10
-8.6425925926
 20
-1.1889591566
 11
-8.7011111111
 21
1.3442598615
  0
LINE
  5
3E1
100
AcDbEntity
  8
0
100
AcDbLine
 62
7
  6
CONTINUOUS
 10
-8.3702403945
 20
-1.8891891866
 11
-8.3402773253
 21
-3.1083821146
  0
LINE
  5
3E2
100
AcDbEntity
  8
0
100
AcDbLine
 62
7
  6
CONTINUOUS
 10
-8.3698502688
 20
1.8932223769
 11
-8.3998049143
 21
3.1113593652
  0
LINE
  5
3E3
100
AcDbEntity
  8
0
100
AcDbLine
 62
7
  6
CONTINUOUS
 10
-8.0414478114
 20
-1.2371630824
 11
-8.0733670034
 21
0.1480578603
  0
LINE
  5
3E4
100
AcDbEntity
  8
0
100
AcDbLine
 62
7
  6
CONTINUOUS
 10
-8.0733670034
 20
0.1480578603
 11
-8.1106060606
 21
1.7326107433
  0
LINE
  5
3E5
100
AcDbEntity
  8
0
100
AcDbLine
 62
7
  6
CONTINUOUS
 10
-7.7701995043
 20
-1.8910084099
 11
-7.7403318079
 21
-3.106408456
  0
LINE
  5
3E6
100
AcDbEntity
  8
0
100
AcDbLine
 62
7
  6
CONTINUOUS
 10
-7.7698744599
 20
1.8942982366
 11
-7.7997456864
 21
3.1092154221
  0
LINE
  5
3E7
100
AcDbEntity
  8
0
100
AcDbLine
 62
7
  6
CONTINUOUS
 10
-7.4403030303
 20
-1.2851892114
 11
-7.4722222222
 21
0.0977296167
  0
LINE
  5
3E8
100
AcDbEntity
  8
0
100
AcDbLine
 62
7
  6
CONTINUOUS
 10
-7.4722222222
 20
0.0977296167
 11
-7.5041414141
 21
1.4698306216
  0
LINE
  5
3E9
100
AcDbEntity
  8
0
100
AcDbLine
 62
7
  6
CONTINUOUS
 10
-7.1701549893
 20
-1.8929885133
 11
-7.1403605917
 21
-3.1053653447
  0
LINE
  5
3EA
100
AcDbEntity
  8
0
100
AcDbLine
 62
7
  6
CONTINUOUS
 10
-7.2702088784
 20
2.7338513796
 11
-7.2502592176
 21
1.8942982366
  0
LINE
  5
3EB
100
AcDbEntity
  8
0
100
AcDbLine
 62
7
  6
CONTINUOUS
 10
-8.8749337558
 20
-2.5274181175
 11
-8.8947820384
 21
-1.6675739071
  0
LINE
  5
3EC
100
AcDbEntity
  8
0
100
AcDbLine
 62
7
  6
CONTINUOUS
 10
-8.4652094039
 20
2.533266755
 11
-8.4452319985
 21
1.6682119449
  0
LINE
  5
3ED
100
AcDbEntity
  8
0
100
AcDbLine
 62
7
  6
CONTINUOUS
 10
-8.2749394454
 20
-2.5271855562
 11
-8.2947461357
 21
-1.6692057747
  0
LINE
  5
3EE
100
AcDbEntity
  8
0
100
AcDbLine
 62
7
  6
CONTINUOUS
 10
-7.8652248705
 20
2.5338982841
 11
-7.8452679369
 21
1.669845342
  0
LINE
  5
3EF
100
AcDbEntity
  8
0
100
AcDbLine
 62
7
  6
CONTINUOUS
 10
-7.6749212075
 20
-2.5279309925
 11
-7.6947144935
 21
-1.6706437944
  0
LINE
  5
3F0
100
AcDbEntity
  8
0
100
AcDbLine
 62
7
  6
CONTINUOUS
 10
-8.9876315157
 20
-1.0884025477
 11
-8.9485461865
 21
-2.7976435626
  0
LINE
  5
3F1
100
AcDbEntity
  8
0
100
AcDbLine
 62
7
  6
CONTINUOUS
 10
-9.0514457398
 20
1.9469164064
 11
-9.0221623375
 21
0.5813481885
  0
LINE
  5
3F2
100
AcDbEntity
  8
0
100
AcDbLine
 62
7
  6
CONTINUOUS
 10
-7.2502592176
 20
1.8942982366
 11
-7.2203098155
 21
0.4917441968
  0
LINE
  5
3F3
100
AcDbEntity
  8
0
100
AcDbLine
 62
7
  6
CONTINUOUS
 10
-9.0221623375
 20
0.5813481885
 11
-8.9876315157
 21
-1.0884025477
  0
LINE
  5
3F4
100
AcDbEntity
  8
0
100
AcDbLine
 62
7
  6
CONTINUOUS
 10
-8.8947820384
 20
-1.6675739071
 11
-8.969813703
 21
1.8915959389
  0
LWPOLYLINE
  5
3F5
100
AcDbEntity
  8
0
100
AcDbPolyline
 62
7
  6
CONTINUOUS
 90
3
 70
0
 10
-8.4452319985
 20
1.6682119449
 10
-8.4101858437
 20
-0.0003182257
 10
-8.3702403945
 20
-1.8891891866
  0
LINE
  5
3F6
100
AcDbEntity
  8
0
100
AcDbLine
 62
7
  6
CONTINUOUS
 10
-8.2947461357
 20
-1.6692057747
 11
-8.3698502688
 21
1.8932223769
  0
LWPOLYLINE
  5
3F7
100
AcDbEntity
  8
0
100
AcDbPolyline
 62
7
  6
CONTINUOUS
 90
3
 70
0
 10
-7.8452679369
 20
1.669845342
 10
-7.8101876551
 20
-0.0002300219
 10
-7.7701995043
 20
-1.8910084099
  0
LINE
  5
3F8
100
AcDbEntity
  8
0
100
AcDbLine
 62
7
  6
CONTINUOUS
 10
-7.6947144935
 20
-1.6706437944
 11
-7.7698744599
 21
1.8942982366
  0
LINE
  5
3F9
100
AcDbEntity
  8
0
100
AcDbLine
 62
7
  6
CONTINUOUS
 10
-7.2203098155
 20
0.4917441968
 11
-7.1701549893
 21
-1.8929885133
  0
LINE
  5
3FA
100
AcDbEntity
  8
0
100
AcDbLine
 62
7
  6
CONTINUOUS
 10
-12.897176907
 20
-4.5099106638
 11
-12.7200000011
 21
-4.2032521501
  0
LINE
  5
3FB
100
AcDbEntity
  8
0
100
AcDbLine
 62
7
  6
CONTINUOUS
 10
-7.3635875927
 20
4.6470612089
 11
-7.6200000011
 21
4.2032521501
  0
LINE
  5
3FC
100
AcDbEntity
  8
0
100
AcDbLine
 62
7
  6
CONTINUOUS
 10
-12.3764124072
 20
-4.6470612087
 11
-12.1200000011
 21
-4.2032521501
  0
LINE
  5
3FD
100
AcDbEntity
  8
0
100
AcDbLine
 62
7
  6
CONTINUOUS
 10
-6.7635875927
 20
4.6470612089
 11
-7.0200000011
 21
4.2032521501
  0
LINE
  5
3FE
100
AcDbEntity
  8
0
100
AcDbLine
 62
7
  6
CONTINUOUS
 10
-11.7764124072
 20
-4.6470612087
 11
-11.5200000011
 21
-4.2032521501
  0
LINE
  5
3FF
100
AcDbEntity
  8
0
100
AcDbLine
 62
7
  6
CONTINUOUS
 10
-6.3
 20
4.4109452876
 11
-6.4200000011
 21
4.2032521501
  0
LINE
  5
400
100
AcDbEntity
  8
0
100
AcDbLine
 62
7
  6
CONTINUOUS
 10
-11.1764124072
 20
-4.6470612087
 11
-10.9200000011
 21
-4.2032521501
  0
LINE
  5
401
100
AcDbEntity
  8
0
100
AcDbLine
 62
7
  6
CONTINUOUS
 10
-7.9635875927
 20
4.6470612089
 11
-7.9601923789
 21
4.65
  0
LINE
  5
402
100
AcDbEntity
  8
0
100
AcDbLine
 62
7
  6
CONTINUOUS
 10
-7.3635875927
 20
4.6470612089
 11
-7.3601923789
 21
4.65
  0
LINE
  5
403
100
AcDbEntity
  8
0
100
AcDbLine
 62
7
  6
CONTINUOUS
 10
-6.7635875927
 20
4.6470612089
 11
-6.7601923789
 21
4.65
  0
LINE
  5
404
100
AcDbEntity
  8
DRAFT
100
AcDbLine
 62
7
  6
CONTINUOUS
 10
5.85
 20
-7.2895386637
 11
11.85
 21
-7.3523728136
  0
LINE
  5
405
100
AcDbEntity
  8
0
100
AcDbLine
 62
7
  6
CONTINUOUS
 10
-8.2635875927
 20
-4.6470612089
 11
-8.2601923789
 21
-4.65
  0
LINE
  5
406
100
AcDbEntity
  8
0
100
AcDbLine
 62
7
  6
CONTINUOUS
 10
-7.6635875927
 20
-4.6470612089
 11
-7.6601923789
 21
-4.65
  0
LINE
  5
407
100
AcDbEntity
  8
0
100
AcDbLine
 62
7
  6
CONTINUOUS
 10
-7.0635875927
 20
-4.6470612089
 11
-7.0601923789
 21
-4.65
  0
LINE
  5
408
100
AcDbEntity
  8
0
100
AcDbLine
 62
7
  6
CONTINUOUS
 10
-6.4635875927
 20
-4.6470612089
 11
-6.4601923789
 21
-4.65
  0
LWPOLYLINE
  5
409
100
AcDbEntity
  8
0
100
AcDbPolyline
 62
7
  6
CONTINUOUS
 90
10
 70
0
 10
-7.5798076211
 20
-4.65
 10
-7.5847820215
 20
-4.6436924099
 10
-7.5897765367
 20
-4.6246847875
 10
-7.5947911667
 20
-4.5928760574
 10
-7.5998330054
 20
-4.5481291876
 10
-7.6048949589
 20
-4.4904524868
 10
-7.6099557457
 20
-4.4201785791
 10
-7.6150149371
 20
-4.3375209648
 10
-7.6200729619
 20
-4.2427146705
 10
-7.6251098251
 20
-4.1364788003
  0
LWPOLYLINE
  5
40A
100
AcDbEntity
  8
0
100
AcDbPolyline
 62
7
  6
CONTINUOUS
 90
10
 70
0
 10
-6.9798076211
 20
-4.65
 10
-6.9847836376
 20
-4.6436883117
 10
-6.9897797752
 20
-4.624668352
 10
-6.9947960339
 20
-4.5928390157
 10
-6.9998395141
 20
-4.5480631992
 10
-7.0049031154
 20
-4.4903493221
 10
-7.0099655368
 20
-4.4200305207
 10
-7.0150263568
 20
-4.3373205262
 10
-7.020085997
 20
-4.2424548488
 10
-7.0251244215
 20
-4.1361540692
  0
LWPOLYLINE
  5
40B
100
AcDbEntity
  8
0
100
AcDbPolyline
 62
7
  6
CONTINUOUS
 90
10
 70
0
 10
-6.3798076211
 20
-4.65
 10
-6.384784903
 20
-4.643685102
 10
-6.3897823109
 20
-4.6246554796
 10
-6.3947998449
 20
-4.5928100044
 10
-6.3998446101
 20
-4.5480115192
 10
-6.4049095013
 20
-4.4902685292
 10
-6.4099732031
 20
-4.4199145613
 10
-6.4150353061
 20
-4.3371634052
 10
-6.4200962196
 20
-4.2422510303
 10
-6.4251358566
 20
-4.1358995993
  0
LINE
  5
40C
100
AcDbEntity
  8
0
100
AcDbLine
 62
7
  6
CONTINUOUS
 10
-7.9237586297
 20
-4.1967470338
 11
-7.6635875927
 21
-4.6470612089
  0
LINE
  5
40D
100
AcDbEntity
  8
0
100
AcDbLine
 62
7
  6
CONTINUOUS
 10
-12.4162413704
 20
4.1967470339
 11
-12.6722502311
 21
4.6398566715
  0
LINE
  5
40E
100
AcDbEntity
  8
0
100
AcDbLine
 62
7
  6
CONTINUOUS
 10
-7.3237586297
 20
-4.1967470338
 11
-7.0635875927
 21
-4.6470612089
  0
LINE
  5
40F
100
AcDbEntity
  8
0
100
AcDbLine
 62
7
  6
CONTINUOUS
 10
-11.8162413704
 20
4.1967470339
 11
-12.0764124072
 21
4.6470612087
  0
LINE
  5
410
100
AcDbEntity
  8
0
100
AcDbLine
 62
7
  6
CONTINUOUS
 10
-6.7237586297
 20
-4.1967470338
 11
-6.4635875927
 21
-4.6470612089
  0
LINE
  5
411
100
AcDbEntity
  8
0
100
AcDbLine
 62
7
  6
CONTINUOUS
 10
-11.2162413703
 20
4.1967470339
 11
-11.4764124072
 21
4.6470612087
  0
LWPOLYLINE
  5
412
100
AcDbEntity
  8
0
100
AcDbPolyline
 62
7
  6
CONTINUOUS
 90
10
 70
0
 10
-7.9237586297
 20
-4.1967470338
 10
-7.9244107744
 20
-4.1955205055
 10
-7.9297306397
 20
-4.1782136991
 10
-7.9350505051
 20
-4.1479429581
 10
-7.9403703704
 20
-4.1048022047
 10
-7.9456902357
 20
-4.0489252937
 10
-7.951010101
 20
-3.9804855971
 10
-7.9563299663
 20
-3.8996954658
 10
-7.9616498316
 20
-3.806805571
 10
-7.966969697
 20
-3.7021041265
  0
LWPOLYLINE
  5
413
100
AcDbEntity
  8
0
100
AcDbPolyline
 62
7
  6
CONTINUOUS
 90
10
 70
0
 10
-6.7237586297
 20
-4.1967470338
 10
-6.7259659091
 20
-4.1918061402
 10
-6.7312247475
 20
-4.1710179179
 10
-6.7364835859
 20
-4.1375832298
 10
-6.7417424242
 20
-4.0916034492
 10
-6.7470012626
 20
-4.0332179862
 10
-6.752260101
 20
-3.9626038647
 10
-6.7575189394
 20
-3.8799751856
 10
-6.7627777778
 20
-3.785582478
 10
-6.7680366162
 20
-3.6797119392
  0
LWPOLYLINE
  5
414
100
AcDbEntity
  8
0
100
AcDbPolyline
 62
7
  6
CONTINUOUS
 90
9
 70
0
 10
-7.3237586297
 20
-4.1967470338
 10
-7.3285858586
 20
-4.1830350961
 10
-7.3339057239
 20
-4.1555475037
 10
-7.3392255892
 20
-4.1151663041
 10
-7.3445454545
 20
-4.0620167898
 10
-7.3498653199
 20
-3.9962638702
 10
-7.3551851852
 20
-3.9181115599
 10
-7.3605050505
 20
-3.8278023457
 10
-7.3658249158
 20
-3.7256164341
  0
LWPOLYLINE
  5
415
100
AcDbEntity
  8
0
100
AcDbPolyline
 62
7
  6
CONTINUOUS
 90
10
 70
0
 10
-6.3736237374
 20
3.7143591225
 10
-6.3788825758
 20
3.8166388527
 10
-6.3841414141
 20
3.9073465892
 10
-6.3894002525
 20
3.9862073074
 10
-6.3946590909
 20
4.0529819028
 10
-6.3999179293
 20
4.1074679158
 10
-6.4051767677
 20
4.1495001455
 10
-6.4104356061
 20
4.1789511509
 10
-6.4156944444
 20
4.195731637
 10
-6.4162413703
 20
4.1967470339
  0
LWPOLYLINE
  5
416
100
AcDbEntity
  8
0
100
AcDbPolyline
 62
7
  6
CONTINUOUS
 90
10
 70
0
 10
-6.9731313131
 20
3.704200193
 10
-6.9783901515
 20
3.8075481523
 10
-6.9836489899
 20
3.8993516807
 10
-6.9889078283
 20
3.9793324312
 10
-6.9941666667
 20
4.0472479035
 10
-6.9994255051
 20
4.1028921787
 10
-7.0046843434
 20
4.1460965443
 10
-7.0099431818
 20
4.1767300052
 10
-7.0152020202
 20
4.1946996812
 10
-7.0162413704
 20
4.1967470339
  0
LWPOLYLINE
  5
417
100
AcDbEntity
  8
0
100
AcDbPolyline
 62
7
  6
CONTINUOUS
 90
10
 70
0
 10
-7.234491555
 20
4.1361704045
 10
-7.239530151
 20
4.2424729032
 10
-7.2445900439
 20
4.3373408621
 10
-7.2496510101
 20
4.4200502525
 10
-7.2547133927
 20
4.4903653339
 10
-7.2597768485
 20
4.5480745589
 10
-7.2648201245
 20
4.5928459893
 10
-7.2698361365
 20
4.6246717498
 10
-7.2748319687
 20
4.643689235
 10
-7.2764124072
 20
4.6470612087
  0
LWPOLYLINE
  5
418
100
AcDbEntity
  8
0
100
AcDbPolyline
 62
7
  6
CONTINUOUS
 90
10
 70
0
 10
-6.5055091792
 20
-4.1361540692
 10
-6.5004707547
 20
-4.2424548488
 10
-6.4954111145
 20
-4.3373205262
 10
-6.4903502946
 20
-4.4200305207
 10
-6.4852878731
 20
-4.4903493221
 10
-6.4802242718
 20
-4.5480631992
 10
-6.4751807917
 20
-4.5928390157
 10
-6.4701645329
 20
-4.624668352
 10
-6.4651683953
 20
-4.6436883117
 10
-6.4635875927
 20
-4.6470612089
  0
LWPOLYLINE
  5
419
100
AcDbEntity
  8
0
100
AcDbPolyline
 62
7
  6
CONTINUOUS
 90
10
 70
0
 10
-6.6344801423
 20
4.135916438
 10
-6.6395199889
 20
4.2422702982
 10
-6.6445811236
 20
4.3371842542
 10
-6.6496433436
 20
4.4199342947
 10
-6.6547070049
 20
4.4902845219
 10
-6.6597717516
 20
4.5480228726
 10
-6.6648163136
 20
4.5928169798
 10
-6.6698336008
 20
4.6246588784
 10
-6.6748307033
 20
4.6436860255
 10
-6.6764124072
 20
4.6470612087
  0
LINE
  5
41A
100
AcDbEntity
  8
0
100
AcDbLine
 62
7
  6
CONTINUOUS
 10
-6.3631060606
 20
3.4763582693
 11
-6.3736237374
 21
3.7143591225
  0
LINE
  5
41B
100
AcDbEntity
  8
0
100
AcDbLine
 62
7
  6
CONTINUOUS
 10
-6.9626136364
 20
3.4641584325
 11
-6.9731313131
 21
3.704200193
  0
LINE
  5
41C
100
AcDbEntity
  8
0
100
AcDbLine
 62
7
  6
CONTINUOUS
 10
-6.7680366162
 20
-3.6797119392
 11
-6.7785542929
 21
-3.4348551868
  0
LWPOLYLINE
  5
41D
100
AcDbEntity
  8
0
100
AcDbPolyline
 62
7
  6
CONTINUOUS
 90
3
 70
0
 10
-7.3148908954
 20
4.1364948274
 10
-7.3048997025
 20
3.8920377599
 10
-7.2999278215
 20
3.7543424299
  0
LINE
  5
41E
100
AcDbEntity
  8
0
100
AcDbLine
 62
7
  6
CONTINUOUS
 10
-7.2244979989
 20
3.8915861565
 11
-7.234491555
 21
4.1361704045
  0
LINE
  5
41F
100
AcDbEntity
  8
0
100
AcDbLine
 62
7
  6
CONTINUOUS
 10
-6.5154994618
 20
-3.8916538364
 11
-6.5055091792
 21
-4.1361540692
  0
LINE
  5
420
100
AcDbEntity
  8
0
100
AcDbLine
 62
7
  6
CONTINUOUS
 10
-6.4251358566
 20
-4.1358995993
 11
-6.4351295745
 21
-3.8912574589
  0
LINE
  5
421
100
AcDbEntity
  8
0
100
AcDbLine
 62
7
  6
CONTINUOUS
 10
-6.7148763127
 20
4.1361704045
 11
-6.7048827566
 21
3.8915861565
  0
LINE
  5
422
100
AcDbEntity
  8
0
100
AcDbLine
 62
7
  6
CONTINUOUS
 10
-6.6244852932
 20
3.8912474744
 11
-6.6344801423
 21
4.135916438
  0
LINE
  5
423
100
AcDbEntity
  8
0
100
AcDbLine
 62
7
  6
CONTINUOUS
 10
-6.3525883838
 20
3.1962283024
 11
-6.3631060606
 21
3.4763582693
  0
LINE
  5
424
100
AcDbEntity
  8
0
100
AcDbLine
 62
7
  6
CONTINUOUS
 10
-6.9520959596
 20
3.182135405
 11
-6.9626136364
 21
3.4641584325
  0
LINE
  5
425
100
AcDbEntity
  8
0
100
AcDbLine
 62
7
  6
CONTINUOUS
 10
-6.7785542929
 20
-3.4348551868
 11
-6.7890719697
 21
-3.1483722862
  0
LINE
  5
426
100
AcDbEntity
  8
0
100
AcDbLine
 62
7
  6
CONTINUOUS
 10
-7.2145622651
 20
3.6061979733
 11
-7.2244979989
 21
3.8915861565
  0
LINE
  5
427
100
AcDbEntity
  8
0
100
AcDbLine
 62
7
  6
CONTINUOUS
 10
-6.5254489742
 20
-3.6058524347
 11
-6.5154994618
 21
-3.8916538364
  0
LINE
  5
428
100
AcDbEntity
  8
0
100
AcDbLine
 62
7
  6
CONTINUOUS
 10
-6.7048827566
 20
3.8915861565
 11
-6.6949470228
 21
3.6061979733
  0
LINE
  5
429
100
AcDbEntity
  8
0
100
AcDbLine
 62
7
  6
CONTINUOUS
 10
-6.4351295745
 20
-3.8912574589
 11
-6.4450766594
 21
-3.6054698303
  0
LINE
  5
42A
100
AcDbEntity
  8
0
100
AcDbLine
 62
7
  6
CONTINUOUS
 10
-6.6145410513
 20
3.6055457354
 11
-6.6244852932
 21
3.8912474744
  0
LINE
  5
42B
100
AcDbEntity
  8
0
100
AcDbLine
 62
7
  6
CONTINUOUS
 10
-6.3368118687
 20
2.7045970416
 11
-6.3525883838
 21
3.1962283024
  0
LINE
  5
42C
100
AcDbEntity
  8
0
100
AcDbLine
 62
7
  6
CONTINUOUS
 10
-6.9363194444
 20
2.6879913917
 11
-6.9520959596
 21
3.182135405
  0
LINE
  5
42D
100
AcDbEntity
  8
0
100
AcDbLine
 62
7
  6
CONTINUOUS
 10
-6.7890719697
 20
-3.1483722862
 11
-6.8048484848
 21
-2.6483212017
  0
LINE
  5
42E
100
AcDbEntity
  8
0
100
AcDbLine
 62
7
  6
CONTINUOUS
 10
-7.0400923655
 20
-3.753762354
 11
-7.054998461
 21
-3.2814689086
  0
LINE
  5
42F
100
AcDbEntity
  8
0
100
AcDbLine
 62
7
  6
CONTINUOUS
 10
-7.1997130319
 20
3.1080328742
 11
-7.2145622651
 21
3.6061979733
  0
LINE
  5
430
100
AcDbEntity
  8
0
100
AcDbLine
 62
7
  6
CONTINUOUS
 10
-6.540365165
 20
-3.1051995819
 11
-6.5254489742
 21
-3.6058524347
  0
LINE
  5
431
100
AcDbEntity
  8
0
100
AcDbLine
 62
7
  6
CONTINUOUS
 10
-6.6949470228
 20
3.6061979733
 11
-6.6800977896
 21
3.1080328742
  0
LINE
  5
432
100
AcDbEntity
  8
0
100
AcDbLine
 62
7
  6
CONTINUOUS
 10
-6.4450766594
 20
-3.6054698303
 11
-6.4599661169
 21
-3.1057175169
  0
LINE
  5
433
100
AcDbEntity
  8
0
100
AcDbLine
 62
7
  6
CONTINUOUS
 10
-6.5996700853
 20
3.1064770573
 11
-6.6145410513
 21
3.6055457354
  0
LINE
  5
434
100
AcDbEntity
  8
0
100
AcDbLine
 62
7
  6
CONTINUOUS
 10
-6.8048484848
 20
-2.6483212017
 11
-6.820625
 21
-2.0761490747
  0
LINE
  5
435
100
AcDbEntity
  8
0
100
AcDbLine
 62
7
  6
CONTINUOUS
 10
-7.054998461
 20
-3.2814689086
 11
-7.0699431371
 21
-2.7278600432
  0
LINE
  5
436
100
AcDbEntity
  8
0
100
AcDbLine
 62
7
  6
CONTINUOUS
 10
-6.3105176768
 20
1.7290688606
 11
-6.3368118687
 21
2.7045970416
  0
LINE
  5
437
100
AcDbEntity
  8
0
100
AcDbLine
 62
7
  6
CONTINUOUS
 10
-6.6800977896
 20
3.1080328742
 11
-6.6652094409
 21
2.5332682648
  0
LINE
  5
438
100
AcDbEntity
  8
0
100
AcDbLine
 62
7
  6
CONTINUOUS
 10
-6.4599661169
 20
-3.1057175169
 11
-6.4748588668
 21
-2.5304783364
  0
LINE
  5
439
100
AcDbEntity
  8
0
100
AcDbLine
 62
7
  6
CONTINUOUS
 10
-6.9047664141
 20
1.4955496231
 11
-6.9363194444
 21
2.6879913917
  0
LINE
  5
43A
100
AcDbEntity
  8
0
100
AcDbLine
 62
7
  6
CONTINUOUS
 10
-6.3
 20
1.2978713765
 11
-6.3105176768
 21
1.7290688606
  0
LINE
  5
43B
100
AcDbEntity
  8
0
100
AcDbLine
 62
7
  6
CONTINUOUS
 10
-6.820625
 20
-2.0761490747
 11
-6.8416603535
 21
-1.2282266904
  0
LINE
  5
43C
100
AcDbEntity
  8
0
100
AcDbLine
 62
7
  6
CONTINUOUS
 10
-7.0699431371
 20
-2.7278600432
 11
-7.0897501434
 21
-1.8938819324
  0
LINE
  5
43D
100
AcDbEntity
  8
0
100
AcDbLine
 62
7
  6
CONTINUOUS
 10
-7.1698834269
 20
1.8946969993
 11
-7.1997130319
 21
3.1080328742
  0
LINE
  5
43E
100
AcDbEntity
  8
0
100
AcDbLine
 62
7
  6
CONTINUOUS
 10
-6.8416603535
 20
-1.2282266904
 11
-6.8732133838
 21
0.1413053314
  0
LINE
  5
43F
100
AcDbEntity
  8
0
100
AcDbLine
 62
7
  6
CONTINUOUS
 10
-6.8732133838
 20
0.1413053314
 11
-6.9047664141
 21
1.4955496231
  0
LINE
  5
440
100
AcDbEntity
  8
0
100
AcDbLine
 62
7
  6
CONTINUOUS
 10
-6.5701349012
 20
-1.8938819324
 11
-6.540365165
 21
-3.1051995819
  0
LINE
  5
441
100
AcDbEntity
  8
0
100
AcDbLine
 62
7
  6
CONTINUOUS
 10
-6.569887446
 20
1.8948757243
 11
-6.5996700853
 21
3.1064770573
  0
LINE
  5
442
100
AcDbEntity
  8
0
100
AcDbLine
 62
7
  6
CONTINUOUS
 10
-6.6652094409
 20
2.5332682648
 11
-6.6453035271
 21
1.6714626787
  0
LINE
  5
443
100
AcDbEntity
  8
0
100
AcDbLine
 62
7
  6
CONTINUOUS
 10
-6.4748588668
 20
-2.5304783364
 11
-6.4946897046
 21
-1.6717702267
  0
LINE
  5
444
100
AcDbEntity
  8
0
100
AcDbLine
 62
7
  6
CONTINUOUS
 10
-7.0897501434
 20
-1.8938819324
 11
-7.119682062
 21
-0.4921374993
  0
LINE
  5
445
100
AcDbEntity
  8
0
100
AcDbLine
 62
7
  6
CONTINUOUS
 10
-7.119682062
 20
-0.4921374993
 11
-7.1698834269
 21
1.8946969993
  0
LWPOLYLINE
  5
446
100
AcDbEntity
  8
0
100
AcDbPolyline
 62
7
  6
CONTINUOUS
 90
3
 70
0
 10
-6.6453035271
 20
1.6714626787
 10
-6.6101906273
 20
-0.0000852922
 10
-6.5701349012
 20
-1.8938819324
  0
LINE
  5
447
100
AcDbEntity
  8
0
100
AcDbLine
 62
7
  6
CONTINUOUS
 10
-6.4946897046
 20
-1.6717702267
 11
-6.569887446
 21
1.8948757243
  0
LINE
  5
448
100
AcDbEntity
  8
0
100
AcDbLine
 62
7
  6
CONTINUOUS
 10
-6.3
 20
-6.3508529611
 11
-6.3
 21
6.3508529611
  0
LINE
  5
449
100
AcDbEntity
  8
0
100
AcDbLine
 62
7
  6
CONTINUOUS
 10
-10.5764124072
 20
-4.6470612087
 11
-10.3200000011
 21
-4.2032521501
  0
LINE
  5
44A
100
AcDbEntity
  8
0
100
AcDbLine
 62
7
  6
CONTINUOUS
 10
-9.9764124072
 20
-4.6470612087
 11
-9.7200000011
 21
-4.2032521501
  0
LINE
  5
44B
100
AcDbEntity
  8
0
100
AcDbLine
 62
7
  6
CONTINUOUS
 10
-9.3764124072
 20
-4.6470612087
 11
-9.1200000011
 21
-4.2032521501
  0
LINE
  5
44C
100
AcDbEntity
  8
0
100
AcDbLine
 62
7
  6
CONTINUOUS
 10
-3.9
 20
-6.3508529611
 11
-6.3
 21
-6.3508529611
  0
LINE
  5
44D
100
AcDbEntity
  8
0
100
AcDbLine
 62
7
  6
CONTINUOUS
 10
-3.6103050577
 20
-6.0
 11
-3.9
 21
-6.0
  0
LWPOLYLINE
  5
44E
100
AcDbEntity
  8
0
100
AcDbPolyline
 62
7
  6
CONTINUOUS
 90
10
 70
0
 10
-10.9601923789
 20
4.65
 10
-10.9552251282
 20
4.6437105246
 10
-10.9502447141
 20
4.6247925041
 10
-10.9452511366
 20
4.5931975027
 10
-10.940237484
 20
4.5488424889
 10
-10.935210668
 20
4.4917855096
 10
-10.9301914236
 20
4.4223984264
 10
-10.9251832449
 20
4.3409895699
 10
-10.9201826378
 20
4.2477934253
 10
-10.9151998554
 20
4.1433456077
  0
LWPOLYLINE
  5
44F
100
AcDbEntity
  8
0
100
AcDbPolyline
 62
7
  6
CONTINUOUS
 90
10
 70
0
 10
-12.1601923789
 20
4.65
 10
-12.1552175783
 20
4.6436913953
 10
-12.1502354809
 20
4.6247457311
 10
-12.1452460868
 20
4.5931591789
 10
-12.1402430371
 20
4.548898577
 10
-12.1352326906
 20
4.4920627452
 10
-12.1302341235
 20
4.4230405305
 10
-12.1252564594
 20
4.34226625
 10
-12.1202905747
 20
4.2499289891
 10
-12.1153281753
 20
4.1461781877
  0
LWPOLYLINE
  5
450
100
AcDbEntity
  8
0
100
AcDbPolyline
 62
7
  6
CONTINUOUS
 90
10
 70
0
 10
-11.5601923789
 20
4.65
 10
-11.5551809381
 20
4.6435981468
 10
-11.5501586099
 20
4.624354641
 10
-11.5451253942
 20
4.5922393966
 10
-11.5400742434
 20
4.5471868365
 10
-11.535012205
 20
4.4892763479
 10
-11.5299604223
 20
4.4189093943
 10
-11.5249251508
 20
4.3364686968
 10
-11.5199001348
 20
4.242178334
 10
-11.5148877506
 20
4.1364248727
  0
LINE
  5
451
100
AcDbEntity
  8
0
100
AcDbLine
 62
7
  6
CONTINUOUS
 10
-10.6162413704
 20
4.1967470339
 11
-10.8764124072
 21
4.6470612087
  0
LINE
  5
452
100
AcDbEntity
  8
0
100
AcDbLine
 62
7
  6
CONTINUOUS
 10
-10.0162413704
 20
4.1967470339
 11
-10.2764124072
 21
4.6470612087
  0
LINE
  5
453
100
AcDbEntity
  8
0
100
AcDbLine
 62
7
  6
CONTINUOUS
 10
-9.4162413704
 20
4.1967470339
 11
-9.6764124072
 21
4.6470612087
  0
LINE
  5
454
100
AcDbEntity
  8
0
100
AcDbLine
 62
7
  6
CONTINUOUS
 10
-8.8162413703
 20
4.1967470339
 11
-9.0764124072
 21
4.6470612087
  0
LWPOLYLINE
  5
455
100
AcDbEntity
  8
0
100
AcDbPolyline
 62
250
  6
CONTINUOUS
 90
19
 70
0
 10
-2.717203302
 20
-20.9972959167
 10
-2.7136885253
 20
-21.0386290777
 10
-2.7069563835
 20
-21.0790132523
 10
-2.6970068764
 20
-21.1184484403
 10
-2.6837258934
 20
-21.1571917317
 10
-2.6672275452
 20
-21.1949860367
 10
-2.6478541641
 20
-21.2310600856
 10
-2.6255552959
 20
-21.265368307
 10
-2.6003813949
 20
-21.2979562724
 10
-2.5728261564
 20
-21.3281894263
 10
-2.5428382389
 20
-21.3560260411
 10
-2.510468984
 20
-21.3815078444
 10
-2.4763661122
 20
-21.4041254633
 10
-2.4404797943
 20
-21.4238228917
 10
-2.4028598595
 20
-21.4406561357
 10
-2.3643035164
 20
-21.4542838409
 10
-2.325076501
 20
-21.4645922227
 10
-2.2849130772
 20
-21.4716950656
 10
-2.243813245
 20
-21.4755923698
  0
LINE
  5
456
100
AcDbEntity
  8
0
100
AcDbLine
 62
7
  6
CONTINUOUS
 10
-3.9
 20
-6.3508529611
 11
-3.9
 21
6.3508529611
  0
LWPOLYLINE
  5
457
100
AcDbEntity
  8
0
100
AcDbPolyline
 62
250
  6
CONTINUOUS
 90
10
 70
0
 10
-2.717203302
 20
20.9972959167
 10
-2.8916289614
 20
16.3324771154
 10
-3.022448237
 20
11.6670364005
 10
-3.1096611288
 20
7.0009737718
 10
-3.1532676785
 20
2.3338756638
 10
-3.1532678444
 20
-2.3338443579
 10
-3.1096615021
 20
-7.0009455965
 10
-3.0224486102
 20
-11.6670144863
 10
-2.8916292102
 20
-16.3324645931
 10
-2.717203302
 20
-20.9972959167
  0
LWPOLYLINE
  5
458
100
AcDbEntity
  8
0
100
AcDbPolyline
 62
7
  6
CONTINUOUS
 90
3
 70
0
 43
0.3500000006
 10
6.4214285889
 20
32.5357161255
 10
6.3500002384
 20
32.3214271088
 10
6.207142971
 20
32.0357159729
  0
LINE
  5
459
100
AcDbEntity
  8
0
100
AcDbLine
 62
7
  6
CONTINUOUS
 10
-8.7764124072
 20
-4.6470612087
 11
-8.5200000011
 21
-4.2032521501
  0
LINE
  5
45A
100
AcDbEntity
  8
0
100
AcDbLine
 62
7
  6
CONTINUOUS
 10
-8.1764124072
 20
-4.6470612087
 11
-7.9200000011
 21
-4.2032521501
  0
LINE
  5
45B
100
AcDbEntity
  8
0
100
AcDbLine
 62
7
  6
CONTINUOUS
 10
-7.5764124072
 20
-4.6470612087
 11
-7.3200000011
 21
-4.2032521501
  0
LINE
  5
45C
100
AcDbEntity
  8
0
100
AcDbLine
 62
7
  6
CONTINUOUS
 10
-6.9764124072
 20
-4.6470612087
 11
-6.7200000011
 21
-4.2032521501
  0
LINE
  5
45D
100
AcDbEntity
  8
RACCORDO
100
AcDbLine
 62
250
  6
CONTINUOUS
 10
14.7635844746
 20
20.2286273937
 11
14.7380381824
 21
20.2024368699
  0
LINE
  5
45E
100
AcDbEntity
  8
RACCORDO
100
AcDbLine
 62
250
  6
CONTINUOUS
 10
14.7380381824
 20
20.2024368699
 11
14.6893966955
 21
20.1531896548
  0
LINE
  5
45F
100
AcDbEntity
  8
RACCORDO
100
AcDbLine
 62
250
  6
CONTINUOUS
 10
14.6893966955
 20
20.1531896548
 11
14.6534904813
 21
20.1171572875
  0
LINE
  5
460
100
AcDbEntity
  8
0
100
AcDbLine
 62
7
  6
CONTINUOUS
 10
-12.3764124072
 20
-4.6470612087
 11
-12.3798076211
 21
-4.65
  0
LINE
  5
461
100
AcDbEntity
  8
0
100
AcDbLine
 62
7
  6
CONTINUOUS
 10
-11.7764124072
 20
-4.6470612087
 11
-11.7798076211
 21
-4.65
  0
LINE
  5
462
100
AcDbEntity
  8
0
100
AcDbLine
 62
7
  6
CONTINUOUS
 10
-11.1764124072
 20
-4.6470612087
 11
-11.1798076211
 21
-4.65
  0
LINE
  5
463
100
AcDbEntity
  8
0
100
AcDbLine
 62
7
  6
CONTINUOUS
 10
6.8201923789
 20
-4.65
 11
6.7398076211
 21
-4.65
  0
LINE
  5
464
100
AcDbEntity
  8
0
100
AcDbLine
 62
7
  6
CONTINUOUS
 10
6.2201923789
 20
-4.65
 11
6.1398076211
 21
-4.65
  0
LINE
  5
465
100
AcDbEntity
  8
0
100
AcDbLine
 62
7
  6
CONTINUOUS
 10
-6.3798076211
 20
-4.65
 11
-6.4601923789
 21
-4.65
  0
LINE
  5
466
100
AcDbEntity
  8
0
100
AcDbLine
 62
7
  6
CONTINUOUS
 10
-6.9798076211
 20
-4.65
 11
-7.0601923789
 21
-4.65
  0
LINE
  5
467
100
AcDbEntity
  8
0
100
AcDbLine
 62
7
  6
CONTINUOUS
 10
-7.5798076211
 20
-4.65
 11
-7.6601923789
 21
-4.65
  0
LINE
  5
468
100
AcDbEntity
  8
0
100
AcDbLine
 62
7
  6
CONTINUOUS
 10
-8.1798076211
 20
-4.65
 11
-8.2601923789
 21
-4.65
  0
LINE
  5
469
100
AcDbEntity
  8
0
100
AcDbLine
 62
7
  6
CONTINUOUS
 10
-8.7798076211
 20
-4.65
 11
-8.8601923789
 21
-4.65
  0
LINE
  5
46A
100
AcDbEntity
  8
0
100
AcDbLine
 62
7
  6
CONTINUOUS
 10
-9.3798076211
 20
-4.65
 11
-9.4601923789
 21
-4.65
  0
LINE
  5
46B
100
AcDbEntity
  8
0
100
AcDbLine
 62
7
  6
CONTINUOUS
 10
-9.9798076211
 20
-4.65
 11
-10.0601923789
 21
-4.65
  0
LINE
  5
46C
100
AcDbEntity
  8
0
100
AcDbLine
 62
7
  6
CONTINUOUS
 10
-10.5798076211
 20
-4.65
 11
-10.6601923789
 21
-4.65
  0
LINE
  5
46D
100
AcDbEntity
  8
0
100
AcDbLine
 62
7
  6
CONTINUOUS
 10
-11.1798076211
 20
-4.65
 11
-11.2601923789
 21
-4.65
  0
LINE
  5
46E
100
AcDbEntity
  8
0
100
AcDbLine
 62
7
  6
CONTINUOUS
 10
-11.7798076211
 20
-4.65
 11
-11.8601923789
 21
-4.65
  0
LINE
  5
46F
100
AcDbEntity
  8
0
100
AcDbLine
 62
7
  6
CONTINUOUS
 10
-12.3798076211
 20
-4.65
 11
-12.4601923789
 21
-4.65
  0
LINE
  5
470
100
AcDbEntity
  8
0
100
AcDbLine
 62
7
  6
CONTINUOUS
 10
-12.0764124072
 20
4.6470612087
 11
-12.0798076211
 21
4.65
  0
LINE
  5
471
100
AcDbEntity
  8
0
100
AcDbLine
 62
7
  6
CONTINUOUS
 10
-11.4764124072
 20
4.6470612087
 11
-11.4798076211
 21
4.65
  0
LINE
  5
472
100
AcDbEntity
  8
0
100
AcDbLine
 62
7
  6
CONTINUOUS
 10
-10.8764124072
 20
4.6470612087
 11
-10.8798076211
 21
4.65
  0
LINE
  5
473
100
AcDbEntity
  8
RACCORDO
100
AcDbLine
 62
250
  6
CONTINUOUS
 10
14.6534904813
 20
-20.1171572875
 11
14.7065945544
 21
-20.1705357589
  0
LINE
  5
474
100
AcDbEntity
  8
RACCORDO
100
AcDbLine
 62
250
  6
CONTINUOUS
 10
14.7065945544
 20
-20.1705357589
 11
14.7380381824
 21
-20.2024368699
  0
LWPOLYLINE
  5
475
100
AcDbEntity
  8
RACCORDO
100
AcDbPolyline
 62
250
  6
CONTINUOUS
 90
4
 70
0
 10
14.7380381824
 20
-20.2024368699
 10
14.7635844746
 20
-20.2286273937
 10
14.7735693276
 20
-20.2389909837
 10
14.7814566926
 20
-20.2472862956
  0
LWPOLYLINE
  5
476
100
AcDbEntity
  8
0
100
AcDbPolyline
 62
7
  6
CONTINUOUS
 90
11
 70
0
 10
-9.1601923789
 20
4.65
 10
-9.15593035
 20
4.6453693616
 10
-9.1516512969
 20
4.6314126947
 10
-9.1473552194
 20
4.6080469115
 10
-9.1430376348
 20
4.5751691975
 10
-9.1387030259
 20
4.5327552697
 10
-9.1343648409
 20
4.4809570147
 10
-9.1300231831
 20
4.419859889
 10
-9.1256779491
 20
4.349566324
 10
-9.1213422775
 20
4.2704526381
 10
-9.1170171552
 20
4.1827616486
  0
LWPOLYLINE
  5
477
100
AcDbEntity
  8
0
100
AcDbPolyline
 62
7
  6
CONTINUOUS
 90
10
 70
0
 10
-9.7601923789
 20
4.65
 10
-9.7552396472
 20
4.6437472303
 10
-9.7502668261
 20
4.6249043432
 10
-9.7452739157
 20
4.5933702183
 10
-9.7402539251
 20
4.5490085046
 10
-9.7352138451
 20
4.4918255201
 10
-9.7301746478
 20
4.4221459172
 10
-9.7251367353
 20
4.3401772316
 10
-9.7200997055
 20
4.2461488965
 10
-9.7150833245
 20
4.1407667805
  0
LWPOLYLINE
  5
478
100
AcDbEntity
  8
0
100
AcDbPolyline
 62
7
  6
CONTINUOUS
 90
10
 70
0
 10
-10.3601923789
 20
4.65
 10
-10.3552327151
 20
4.6437297185
 10
-10.350256285
 20
4.6248510587
 10
-10.3452630885
 20
4.5932881576
 10
-10.3402461581
 20
4.5489300931
 10
-10.3352124612
 20
4.4918080935
 10
-10.3301829014
 20
4.4222701669
 10
-10.3251586421
 20
4.3405599845
 10
-10.3201385197
 20
4.2469189724
 10
-10.3151399468
 20
4.1420206019
  0
LWPOLYLINE
  5
479
100
AcDbEntity
  8
0
100
AcDbPolyline
 62
7
  6
CONTINUOUS
 90
10
 70
0
 10
-8.5601923789
 20
4.65
 10
-8.5552275244
 20
4.64371659
 10
-8.5502425327
 20
4.6247814575
 10
-8.5452374036
 20
4.5930932506
 10
-8.5402050986
 20
4.5485150801
 10
-8.5351526563
 20
4.4910540753
 10
-8.5301011926
 20
4.4210386615
 10
-8.5250510322
 20
4.3386776421
 10
-8.5200018504
 20
4.2442043358
 10
-8.5149737901
 20
4.1383371619
  0
LINE
  5
47A
100
AcDbEntity
  8
0
100
AcDbLine
 62
7
  6
CONTINUOUS
 10
-8.2162413704
 20
4.1967470339
 11
-8.4764124072
 21
4.6470612087
  0
LINE
  5
47B
100
AcDbEntity
  8
0
100
AcDbLine
 62
7
  6
CONTINUOUS
 10
-7.6162413704
 20
4.1967470339
 11
-7.8764124072
 21
4.6470612087
  0
LINE
  5
47C
100
AcDbEntity
  8
0
100
AcDbLine
 62
7
  6
CONTINUOUS
 10
-7.0162413704
 20
4.1967470339
 11
-7.2764124072
 21
4.6470612087
  0
LWPOLYLINE
  5
47D
100
AcDbEntity
  8
0
100
AcDbPolyline
 62
250
  6
CONTINUOUS
 90
7
 70
0
 10
-2.2613755145
 20
-21.8793857675
 10
-2.2621020178
 20
-21.90785972
 10
-2.2625328831
 20
-21.931603162
 10
-2.262663395
 20
-21.9503562578
 10
-2.2624921252
 20
-21.9639137831
 10
-2.2620209481
 20
-21.9721273713
 10
-2.2612550199
 20
-21.9749071372
  0
LINE
  5
47E
100
AcDbEntity
  8
0
100
AcDbLine
 62
7
  6
CONTINUOUS
 10
-6.3764124072
 20
-4.6470612087
 11
-6.3
 21
-4.5147971272
  0
LWPOLYLINE
  5
47F
100
AcDbEntity
  8
RACCORDO
100
AcDbPolyline
 62
250
  6
CONTINUOUS
 90
3
 70
0
 10
14.7814566926
 20
20.2472862956
 10
14.7735693276
 20
20.2389909837
 10
14.7635844746
 20
20.2286273937
  0
LINE
  5
480
100
AcDbEntity
  8
0
100
AcDbLine
 62
7
  6
CONTINUOUS
 10
-10.5764124072
 20
-4.6470612087
 11
-10.5798076211
 21
-4.65
  0
LINE
  5
481
100
AcDbEntity
  8
0
100
AcDbLine
 62
7
  6
CONTINUOUS
 10
-9.9764124072
 20
-4.6470612087
 11
-9.9798076211
 21
-4.65
  0
LINE
  5
482
100
AcDbEntity
  8
0
100
AcDbLine
 62
7
  6
CONTINUOUS
 10
-9.3764124072
 20
-4.6470612087
 11
-9.3798076211
 21
-4.65
  0
LINE
  5
483
100
AcDbEntity
  8
0
100
AcDbLine
 62
7
  6
CONTINUOUS
 10
-8.7764124072
 20
-4.6470612087
 11
-8.7798076211
 21
-4.65
  0
LINE
  5
484
100
AcDbEntity
  8
0
100
AcDbLine
 62
7
  6
CONTINUOUS
 10
-8.1764124072
 20
-4.6470612087
 11
-8.1798076211
 21
-4.65
  0
LINE
  5
485
100
AcDbEntity
  8
0
100
AcDbLine
 62
7
  6
CONTINUOUS
 10
-13.349800587
 20
-4.2516161308
 11
-13.3470168546
 21
-4.250010967
  0
LINE
  5
486
100
AcDbEntity
  8
0
100
AcDbLine
 62
7
  6
CONTINUOUS
 10
-12.899800587
 20
-4.511423752
 11
-12.897176907
 21
-4.5099106638
  0
LINE
  5
487
100
AcDbEntity
  8
0
100
AcDbLine
 62
7
  6
CONTINUOUS
 10
-3.9
 20
-3.1754264805
 11
-6.3
 21
-3.1754264805
  0
LINE
  5
488
100
AcDbEntity
  8
0
100
AcDbLine
 62
7
  6
CONTINUOUS
 10
-13.124800587
 20
4.3815199414
 11
-13.1220992461
 21
4.3799621695
  0
LINE
  5
489
100
AcDbEntity
  8
0
100
AcDbLine
 62
7
  6
CONTINUOUS
 10
-12.674800587
 20
4.6413275625
 11
-12.6722502311
 21
4.6398566715
  0
LINE
  5
48A
100
AcDbEntity
  8
0
100
AcDbLine
 62
7
  6
CONTINUOUS
 10
-10.2764124072
 20
4.6470612087
 11
-10.2798076211
 21
4.65
  0
LINE
  5
48B
100
AcDbEntity
  8
0
100
AcDbLine
 62
7
  6
CONTINUOUS
 10
-9.6764124072
 20
4.6470612087
 11
-9.6798076211
 21
4.65
  0
LINE
  5
48C
100
AcDbEntity
  8
0
100
AcDbLine
 62
7
  6
CONTINUOUS
 10
-9.0764124072
 20
4.6470612087
 11
-9.0798076211
 21
4.65
  0
LINE
  5
48D
100
AcDbEntity
  8
0
100
AcDbLine
 62
7
  6
CONTINUOUS
 10
-8.4764124072
 20
4.6470612087
 11
-8.4798076211
 21
4.65
  0
LINE
  5
48E
100
AcDbEntity
  8
0
100
AcDbLine
 62
7
  6
CONTINUOUS
 10
-7.8764124072
 20
4.6470612087
 11
-7.8798076211
 21
4.65
  0
LWPOLYLINE
  5
48F
100
AcDbEntity
  8
RACCORDO
100
AcDbPolyline
 62
250
  6
CONTINUOUS
 90
4
 70
0
 10
14.7814566926
 20
-20.2472862956
 10
14.7871151929
 20
-20.2533749129
 10
14.7904544092
 20
-20.257159202
 10
14.7914213562
 20
-20.2585786438
  0
LWPOLYLINE
  5
490
100
AcDbEntity
  8
0
100
AcDbPolyline
 62
7
  6
CONTINUOUS
 90
10
 70
0
 10
-7.9601923789
 20
4.65
 10
-7.9552221564
 20
4.6437029984
 10
-7.9502317755
 20
4.6247269481
 10
-7.9452212362
 20
4.5929703957
 10
-7.9401834776
 20
4.5482962051
 10
-7.9351255605
 20
4.4907118731
 10
-7.9300686677
 20
4.4205475477
 10
-7.9250131186
 20
4.3380131341
 10
-7.9199585938
 20
4.2433433252
 10
-7.9149253176
 20
4.1372602385
  0
LWPOLYLINE
  5
491
100
AcDbEntity
  8
0
100
AcDbPolyline
 62
7
  6
CONTINUOUS
 90
10
 70
0
 10
-7.3601923789
 20
4.65
 10
-7.3552183425
 20
4.6436933328
 10
-7.3502241327
 20
4.624688184
 10
-7.3452097494
 20
4.5928830286
 10
-7.3401681155
 20
4.5481405496
 10
-7.3351063082
 20
4.4904685092
 10
-7.3300455593
 20
4.4201983092
 10
-7.3249862031
 20
4.3375409735
 10
-7.3199279053
 20
4.2427319531
 10
-7.3148908954
 20
4.1364948274
  0
LWPOLYLINE
  5
492
100
AcDbEntity
  8
0
100
AcDbPolyline
 62
7
  6
CONTINUOUS
 90
10
 70
0
 10
-6.7601923789
 20
4.65
 10
-6.7552167264
 20
4.643689235
 10
-6.7502208942
 20
4.6246717498
 10
-6.7452048823
 20
4.5928459893
 10
-6.7401616062
 20
4.5480745589
 10
-6.7350981504
 20
4.4903653339
 10
-6.7300357679
 20
4.4200502525
 10
-6.7249748017
 20
4.3373408621
 10
-6.7199149087
 20
4.2424729032
 10
-6.7148763127
 20
4.1361704045
  0
LINE
  5
493
100
AcDbEntity
  8
0
100
AcDbLine
 62
7
  6
CONTINUOUS
 10
-6.4162413703
 20
4.1967470339
 11
-6.6764124072
 21
4.6470612087
  0
LINE
  5
494
100
AcDbEntity
  8
0
100
AcDbLine
 62
250
  6
CONTINUOUS
 10
-2.243813245
 20
21.4755923698
 11
-2.2514657911
 21
21.6297989097
  0
LINE
  5
495
100
AcDbEntity
  8
0
100
AcDbLine
 62
250
  6
CONTINUOUS
 10
-2.2514657911
 20
21.6297989097
 11
-2.2557183603
 21
21.7251138478
  0
LINE
  5
496
100
AcDbEntity
  8
0
100
AcDbLine
 62
250
  6
CONTINUOUS
 10
-2.2557183603
 20
21.7251138478
 11
-2.2590703394
 21
21.8095370623
  0
LWPOLYLINE
  5
497
100
AcDbEntity
  8
0
100
AcDbPolyline
 62
250
  6
CONTINUOUS
 90
8
 70
0
 10
-2.2590703394
 20
21.8095370623
 10
-2.2613753765
 20
21.8793828084
 10
-2.262101918
 20
21.9078574436
 10
-2.2625328198
 20
21.9316015798
 10
-2.2626633628
 20
21.9503553003
 10
-2.262492116
 20
21.9639133265
 10
-2.2620209518
 20
21.9721272495
 10
-2.2612550245
 20
21.974907137
  0
LINE
  5
498
100
AcDbEntity
  8
0
100
AcDbLine
 62
250
  6
CONTINUOUS
 10
-2.2590705447
 20
-21.8095411066
 11
-2.2613755145
 21
-21.8793857675
  0
LINE
  5
499
100
AcDbEntity
  8
0
100
AcDbLine
 62
250
  6
CONTINUOUS
 10
-2.255718595
 20
-21.7251181902
 11
-2.2590705447
 21
-21.8095411066
  0
LINE
  5
49A
100
AcDbEntity
  8
0
100
AcDbLine
 62
250
  6
CONTINUOUS
 10
-2.2490586349
 20
-21.5793463095
 11
-2.255718595
 21
-21.7251181902
  0
LINE
  5
49B
100
AcDbEntity
  8
0
100
AcDbLine
 62
250
  6
CONTINUOUS
 10
-2.243813245
 20
-21.4755923698
 11
-2.2490586349
 21
-21.5793463095
  0
LINE
  5
49C
100
AcDbEntity
  8
0
100
AcDbLine
 62
7
  6
CONTINUOUS
 10
-7.5764124072
 20
-4.6470612087
 11
-7.5798076211
 21
-4.65
  0
LINE
  5
49D
100
AcDbEntity
  8
0
100
AcDbLine
 62
7
  6
CONTINUOUS
 10
-6.9764124072
 20
-4.6470612087
 11
-6.9798076211
 21
-4.65
  0
LINE
  5
49E
100
AcDbEntity
  8
0
100
AcDbLine
 62
7
  6
CONTINUOUS
 10
-6.3764124072
 20
-4.6470612087
 11
-6.3798076211
 21
-4.65
  0
LINE
  5
49F
100
AcDbEntity
  8
0
100
AcDbLine
 62
7
  6
CONTINUOUS
 10
-7.2764124072
 20
4.6470612087
 11
-7.2798076211
 21
4.65
  0
LINE
  5
4A0
100
AcDbEntity
  8
0
100
AcDbLine
 62
7
  6
CONTINUOUS
 10
-6.6764124072
 20
4.6470612087
 11
-6.6798076211
 21
4.65
  0
LWPOLYLINE
  5
4A1
100
AcDbEntity
  8
0
100
AcDbPolyline
 62
7
  6
CONTINUOUS
 90
4
 70
0
 43
0.3500000006
 10
2.0357142191
 20
44.6071419067
 10
2.0357142191
 20
45.2499998932
 10
3.5357143936
 20
45.2499998932
 10
2.6785713558
 20
42.2499989777
  0
LWPOLYLINE
  5
4A2
100
AcDbEntity
  8
RACCORDO
100
AcDbPolyline
 62
250
  6
CONTINUOUS
 90
4
 70
0
 10
14.7914213562
 20
20.2585786438
 10
14.7904544092
 20
20.257159202
 10
14.7871151929
 20
20.2533749129
 10
14.7814566926
 20
20.2472862956
  0
LINE
  5
4A3
100
AcDbEntity
  8
0
100
AcDbLine
 62
7
  6
CONTINUOUS
 10
6.4364124073
 20
4.6470612089
 11
6.4398076211
 21
4.65
  0
LINE
  5
4A4
100
AcDbEntity
  8
0
100
AcDbLine
 62
7
  6
CONTINUOUS
 10
7.0398076211
 20
4.65
 11
7.0364124073
 21
4.6470612089
  0
LINE
  5
4A5
100
AcDbEntity
  8
0
100
AcDbLine
 62
7
  6
CONTINUOUS
 10
6.1364124073
 20
-4.6470612089
 11
6.1398076211
 21
-4.65
  0
LINE
  5
4A6
100
AcDbEntity
  8
0
100
AcDbLine
 62
7
  6
CONTINUOUS
 10
6.7364124073
 20
-4.6470612089
 11
6.7398076211
 21
-4.65
  0
LWPOLYLINE
  5
4A7
100
AcDbEntity
  8
0
100
AcDbPolyline
 62
7
  6
CONTINUOUS
 90
10
 70
0
 10
6.2201923789
 20
-4.65
 10
6.2152275426
 20
-4.643716636
 10
6.210242629
 20
-4.6247819452
 10
6.2052376379
 20
-4.5930950299
 10
6.2002055149
 20
-4.5485192917
 10
6.1951533144
 20
-4.4910623827
 10
6.1901022003
 20
-4.4210538681
 10
6.1850526211
 20
-4.3387054764
 10
6.1800041283
 20
-4.2442496518
 10
6.1749765396
 20
-4.1383982161
  0
LWPOLYLINE
  5
4A8
100
AcDbEntity
  8
0
100
AcDbPolyline
 62
7
  6
CONTINUOUS
 90
4
 70
0
 43
0.3500000006
 10
3.3499998894
 20
32.6785694275
 10
3.3499998894
 20
33.5357164307
 10
3.7785714083
 20
33.9642854004
 10
4.421428545
 20
33.9642854004
  0
LINE
  5
4A9
100
AcDbEntity
  8
0
100
AcDbLine
 62
7
  6
CONTINUOUS
 10
6.4364124073
 20
4.6470612089
 11
6.1799999989
 21
4.2032521501
  0
LINE
  5
4AA
100
AcDbEntity
  8
0
100
AcDbLine
 62
7
  6
CONTINUOUS
 10
7.0364124073
 20
4.6470612089
 11
6.7799999989
 21
4.2032521501
  0
LINE
  5
4AB
100
AcDbEntity
  8
0
100
AcDbLine
 62
7
  6
CONTINUOUS
 10
-3.9
 20
3.1754264805
 11
-6.3
 21
3.1754264805
  0
LWPOLYLINE
  5
4AC
100
AcDbEntity
  8
0
100
AcDbPolyline
 62
7
  6
CONTINUOUS
 90
10
 70
0
 10
6.8201923789
 20
-4.65
 10
6.8152238871
 20
-4.6437073821
 10
6.8102353037
 20
-4.6247448327
 10
6.8052266285
 20
-4.5930113858
 10
6.8001907919
 20
-4.5483702765
 10
6.7951348637
 20
-4.4908294073
 10
6.7900800526
 20
-4.4207195138
 10
6.7850268017
 20
-4.338253036
 10
6.779974668
 20
-4.2436633799
 10
6.7749435313
 20
-4.1376650217
  0
LINE
  5
4AD
100
AcDbEntity
  8
0
100
AcDbLine
 62
7
  6
CONTINUOUS
 10
5.8762413703
 20
-4.1967470338
 11
6.1364124073
 21
-4.6470612089
  0
LINE
  5
4AE
100
AcDbEntity
  8
0
100
AcDbLine
 62
7
  6
CONTINUOUS
 10
6.4762413703
 20
-4.1967470338
 11
6.7364124073
 21
-4.6470612089
  0
LINE
  5
4AF
100
AcDbEntity
  8
0
100
AcDbLine
 62
7
  6
CONTINUOUS
 10
7.1201923789
 20
4.65
 11
7.0398076211
 21
4.65
  0
LINE
  5
4B0
100
AcDbEntity
  8
0
100
AcDbLine
 62
7
  6
CONTINUOUS
 10
6.5201923789
 20
4.65
 11
6.4398076211
 21
4.65
  0
LINE
  5
4B1
100
AcDbEntity
  8
0
100
AcDbLine
 62
7
  6
CONTINUOUS
 10
5.9201923789
 20
4.65
 11
5.85
 21
4.65
  0
LINE
  5
4B2
100
AcDbEntity
  8
0
100
AcDbLine
 62
7
  6
CONTINUOUS
 10
-6.6798076211
 20
4.65
 11
-6.7601923789
 21
4.65
  0
LINE
  5
4B3
100
AcDbEntity
  8
0
100
AcDbLine
 62
7
  6
CONTINUOUS
 10
-7.2798076211
 20
4.65
 11
-7.3601923789
 21
4.65
  0
LINE
  5
4B4
100
AcDbEntity
  8
0
100
AcDbLine
 62
7
  6
CONTINUOUS
 10
-7.8798076211
 20
4.65
 11
-7.9601923789
 21
4.65
  0
LINE
  5
4B5
100
AcDbEntity
  8
0
100
AcDbLine
 62
7
  6
CONTINUOUS
 10
-8.4798076211
 20
4.65
 11
-8.5601923789
 21
4.65
  0
LINE
  5
4B6
100
AcDbEntity
  8
0
100
AcDbLine
 62
7
  6
CONTINUOUS
 10
-9.0798076211
 20
4.65
 11
-9.1601923789
 21
4.65
  0
LINE
  5
4B7
100
AcDbEntity
  8
0
100
AcDbLine
 62
7
  6
CONTINUOUS
 10
-9.6798076211
 20
4.65
 11
-9.7601923789
 21
4.65
  0
LINE
  5
4B8
100
AcDbEntity
  8
0
100
AcDbLine
 62
7
  6
CONTINUOUS
 10
-10.2798076211
 20
4.65
 11
-10.3601923789
 21
4.65
  0
LINE
  5
4B9
100
AcDbEntity
  8
0
100
AcDbLine
 62
7
  6
CONTINUOUS
 10
-10.8798076211
 20
4.65
 11
-10.9601923789
 21
4.65
  0
LINE
  5
4BA
100
AcDbEntity
  8
0
100
AcDbLine
 62
7
  6
CONTINUOUS
 10
-11.4798076211
 20
4.65
 11
-11.5601923789
 21
4.65
  0
LINE
  5
4BB
100
AcDbEntity
  8
0
100
AcDbLine
 62
7
  6
CONTINUOUS
 10
-12.0798076211
 20
4.65
 11
-12.1601923789
 21
4.65
  0
LINE
  5
4BC
100
AcDbEntity
  8
0
100
AcDbLine
 62
7
  6
CONTINUOUS
 10
7.0762413703
 20
-4.1967470338
 11
7.15
 21
-4.324404694
  0
LWPOLYLINE
  5
4BD
100
AcDbEntity
  8
0
100
AcDbPolyline
 62
7
  6
CONTINUOUS
 90
10
 70
0
 10
7.0762413703
 20
-4.1967470338
 10
7.0725589226
 20
-4.1872553352
 10
7.0673961841
 20
-4.1634699662
 10
7.0622334456
 20
-4.1275180558
 10
7.0570707071
 20
-4.079504663
 10
7.0519079686
 20
-4.0195700931
 10
7.0467452301
 20
-3.9478894877
 10
7.0415824916
 20
-3.8646723126
 10
7.0364197531
 20
-3.7701617461
 10
7.0312570146
 20
-3.6646339682
  0
LWPOLYLINE
  5
4BE
100
AcDbEntity
  8
0
100
AcDbPolyline
 62
7
  6
CONTINUOUS
 90
9
 70
0
 10
6.4762413703
 20
-4.1967470338
 10
6.4711447811
 20
-4.1819547089
 10
6.4658249158
 20
-4.1538118878
 10
6.4605050505
 20
-4.1127808446
 10
6.4551851852
 20
-4.0589888881
 10
6.4498653199
 20
-3.9926029213
 10
6.4445454545
 20
-3.9138289227
 10
6.4392255892
 20
-3.8229113081
 10
6.4339057239
 20
-3.7201321718
  0
LWPOLYLINE
  5
4BF
100
AcDbEntity
  8
0
100
AcDbPolyline
 62
7
  6
CONTINUOUS
 90
9
 70
0
 10
6.8247474747
 20
3.7472566203
 10
6.8195847363
 20
3.844283361
 10
6.8144219978
 20
3.9300762911
 10
6.8092592593
 20
4.0043847055
 10
6.8040965208
 20
4.0669914594
 10
6.7989337823
 20
4.1177136023
 10
6.7937710438
 20
4.1564029136
 10
6.7886083053
 20
4.1829463349
 10
6.7837586296
 20
4.1967470339
  0
LWPOLYLINE
  5
4C0
100
AcDbEntity
  8
0
100
AcDbPolyline
 62
7
  6
CONTINUOUS
 90
9
 70
0
 10
6.2264309764
 20
3.713235225
 10
6.2211111111
 20
3.8167547417
 10
6.2157912458
 20
3.9084318389
 10
6.2104713805
 20
3.9879820658
 10
6.2051515152
 20
4.0551585984
 10
6.1998316498
 20
4.109753005
 10
6.1945117845
 20
4.151595893
 10
6.1891919192
 20
4.1805574345
 10
6.1837586296
 20
4.1967470339
  0
LWPOLYLINE
  5
4C1
100
AcDbEntity
  8
0
100
AcDbPolyline
 62
7
  6
CONTINUOUS
 90
10
 70
0
 10
7.0828083482
 20
4.1864668787
 10
7.0780087819
 20
4.2828582538
 10
7.0732091772
 20
4.3684333511
 10
7.0684095415
 20
4.4429756717
 10
7.0636099087
 20
4.5062963169
 10
7.0588102636
 20
4.5582355266
 10
7.0540106216
 20
4.5986619184
 10
7.0492110627
 20
4.6274730248
 10
7.044411577
 20
4.6445967089
 10
7.0398076211
 20
4.65
  0
LWPOLYLINE
  5
4C2
100
AcDbEntity
  8
0
100
AcDbPolyline
 62
7
  6
CONTINUOUS
 90
10
 70
0
 10
6.0946551126
 20
-4.1398035602
 10
6.0996758892
 20
-4.2453732656
 10
6.1047173993
 20
-4.3395726189
 10
6.1097599363
 20
-4.4216947133
 10
6.1148039572
 20
-4.4915089125
 10
6.1198490051
 20
-4.5488048961
 10
6.1248740032
 20
-4.593255341
 10
6.1298719257
 20
-4.6248530739
 10
6.1348497984
 20
-4.6437343716
 10
6.1364124073
 20
-4.6470612089
  0
LWPOLYLINE
  5
4C3
100
AcDbEntity
  8
0
100
AcDbPolyline
 62
7
  6
CONTINUOUS
 90
10
 70
0
 10
5.9654075176
 20
4.138413771
 10
5.9603798269
 20
4.2442656171
 10
5.9553310266
 20
4.3387249201
 10
5.9502812507
 20
4.4210735875
 10
5.9452301735
 20
4.4910784103
 10
5.9401781207
 20
4.548530645
 10
5.9351462037
 20
4.5931019873
 10
5.9301414596
 20
4.6247853339
 10
5.9251568513
 20
4.6437175565
 10
5.9235875928
 20
4.6470612087
  0
LWPOLYLINE
  5
4C4
100
AcDbEntity
  8
0
100
AcDbPolyline
 62
7
  6
CONTINUOUS
 90
10
 70
0
 10
6.6945917819
 20
-4.1383982161
 10
6.6996193706
 20
-4.2442496518
 10
6.7046678634
 20
-4.3387054764
 10
6.7097174426
 20
-4.4210538681
 10
6.7147685567
 20
-4.4910623827
 10
6.7198207571
 20
-4.5485192917
 10
6.7248528802
 20
-4.5930950299
 10
6.7298578712
 20
-4.6247819452
 10
6.7348427849
 20
-4.643716636
 10
6.7364124073
 20
-4.6470612089
  0
LWPOLYLINE
  5
4C5
100
AcDbEntity
  8
0
100
AcDbPolyline
 62
7
  6
CONTINUOUS
 90
10
 70
0
 10
6.56544053
 20
4.137680497
 10
6.5604092946
 20
4.2436792077
 10
6.5553568499
 20
4.3382724249
 10
6.5503033991
 20
4.4207392372
 10
6.5452486244
 20
4.4908454439
 10
6.5401928437
 20
4.5483816375
 10
6.5351572131
 20
4.5930183485
 10
6.5301487848
 20
4.6247482244
 10
6.5251605068
 20
4.6437083035
 10
6.5235875928
 20
4.6470612087
  0
LINE
  5
4C6
100
AcDbEntity
  8
0
100
AcDbLine
 62
7
  6
CONTINUOUS
 10
6.8350729517
 20
3.520667837
 11
6.8247474747
 21
3.7472566203
  0
LINE
  5
4C7
100
AcDbEntity
  8
0
100
AcDbLine
 62
7
  6
CONTINUOUS
 10
6.4339057239
 20
-3.7201321718
 11
6.4232659933
 21
-3.4803007379
  0
LINE
  5
4C8
100
AcDbEntity
  8
0
100
AcDbLine
 62
7
  6
CONTINUOUS
 10
6.2370707071
 20
3.4719894596
 11
6.2264309764
 21
3.713235225
  0
LINE
  5
4C9
100
AcDbEntity
  8
0
100
AcDbLine
 62
7
  6
CONTINUOUS
 10
7.0924073746
 20
3.9622365832
 11
7.0828083482
 21
4.1864668787
  0
LINE
  5
4CA
100
AcDbEntity
  8
0
100
AcDbLine
 62
7
  6
CONTINUOUS
 10
7.0312570146
 20
-3.6646339682
 11
7.0209315376
 21
-3.4217915693
  0
LINE
  5
4CB
100
AcDbEntity
  8
0
100
AcDbLine
 62
7
  6
CONTINUOUS
 10
6.0847024495
 20
-3.8970265162
 11
6.0946551126
 21
-4.1398035602
  0
LINE
  5
4CC
100
AcDbEntity
  8
0
100
AcDbLine
 62
7
  6
CONTINUOUS
 10
6.1749765396
 20
-4.1383982161
 11
6.1650098611
 21
-3.8949704614
  0
LINE
  5
4CD
100
AcDbEntity
  8
0
100
AcDbLine
 62
7
  6
CONTINUOUS
 10
5.8849593982
 20
4.1398197804
 11
5.8949157704
 21
3.896947412
  0
LINE
  5
4CE
100
AcDbEntity
  8
0
100
AcDbLine
 62
7
  6
CONTINUOUS
 10
5.9753808148
 20
3.8948130361
 11
5.9654075176
 21
4.138413771
  0
LINE
  5
4CF
100
AcDbEntity
  8
0
100
AcDbLine
 62
7
  6
CONTINUOUS
 10
6.6846251033
 20
-3.8949704614
 11
6.6945917819
 21
-4.1383982161
  0
LINE
  5
4D0
100
AcDbEntity
  8
0
100
AcDbLine
 62
7
  6
CONTINUOUS
 10
6.7749435313
 20
-4.1376650217
 11
6.7649694119
 21
-3.8938942038
  0
LINE
  5
4D1
100
AcDbEntity
  8
0
100
AcDbLine
 62
7
  6
CONTINUOUS
 10
6.4850227599
 20
4.138413771
 11
6.4949960571
 21
3.8948130361
  0
LINE
  5
4D2
100
AcDbEntity
  8
0
100
AcDbLine
 62
7
  6
CONTINUOUS
 10
6.5754216269
 20
3.8937270165
 11
6.56544053
 21
4.137680497
  0
LINE
  5
4D3
100
AcDbEntity
  8
0
100
AcDbLine
 62
7
  6
CONTINUOUS
 10
6.8453984287
 20
3.252956568
 11
6.8350729517
 21
3.520667837
  0
LINE
  5
4D4
100
AcDbEntity
  8
0
100
AcDbLine
 62
7
  6
CONTINUOUS
 10
6.4232659933
 20
-3.4803007379
 11
6.4126262626
 21
-3.1973088558
  0
LINE
  5
4D5
100
AcDbEntity
  8
0
100
AcDbLine
 62
7
  6
CONTINUOUS
 10
6.2477104377
 20
3.1876863172
 11
6.2370707071
 21
3.4719894596
  0
LINE
  5
4D6
100
AcDbEntity
  8
0
100
AcDbLine
 62
7
  6
CONTINUOUS
 10
7.0209315376
 20
-3.4217915693
 11
7.0106060606
 21
-3.1389815901
  0
LINE
  5
4D7
100
AcDbEntity
  8
0
100
AcDbLine
 62
7
  6
CONTINUOUS
 10
7.1020061933
 20
3.6980099975
 11
7.0924073746
 21
3.9622365832
  0
LINE
  5
4D8
100
AcDbEntity
  8
0
100
AcDbLine
 62
7
  6
CONTINUOUS
 10
6.0747710532
 20
-3.6126078463
 11
6.0847024495
 21
-3.8970265162
  0
LINE
  5
4D9
100
AcDbEntity
  8
0
100
AcDbLine
 62
7
  6
CONTINUOUS
 10
5.8949157704
 20
3.896947412
 11
5.9048274189
 21
3.6131219506
  0
LINE
  5
4DA
100
AcDbEntity
  8
0
100
AcDbLine
 62
7
  6
CONTINUOUS
 10
6.1650098611
 20
-3.8949704614
 11
6.1550693149
 21
-3.6099544787
  0
LINE
  5
4DB
100
AcDbEntity
  8
0
100
AcDbLine
 62
7
  6
CONTINUOUS
 10
5.9852853279
 20
3.6108786278
 11
5.9753808148
 21
3.8948130361
  0
LINE
  5
4DC
100
AcDbEntity
  8
0
100
AcDbLine
 62
7
  6
CONTINUOUS
 10
6.6746845571
 20
-3.6099544787
 11
6.6846251033
 21
-3.8949704614
  0
LINE
  5
4DD
100
AcDbEntity
  8
0
100
AcDbLine
 62
7
  6
CONTINUOUS
 10
6.4949960571
 20
3.8948130361
 11
6.5049005701
 21
3.6108786278
  0
LINE
  5
4DE
100
AcDbEntity
  8
0
100
AcDbLine
 62
7
  6
CONTINUOUS
 10
6.7649694119
 20
-3.8938942038
 11
6.7550246938
 21
-3.6085845179
  0
LINE
  5
4DF
100
AcDbEntity
  8
0
100
AcDbLine
 62
7
  6
CONTINUOUS
 10
6.5853290347
 20
3.6095372645
 11
6.5754216269
 21
3.8937270165
  0
LINE
  5
4E0
100
AcDbEntity
  8
0
100
AcDbLine
 62
7
  6
CONTINUOUS
 10
6.8608866442
 20
2.781247666
 11
6.8453984287
 21
3.252956568
  0
LINE
  5
4E1
100
AcDbEntity
  8
0
100
AcDbLine
 62
7
  6
CONTINUOUS
 10
6.4126262626
 20
-3.1973088558
 11
6.3966666667
 21
-2.6997079607
  0
LINE
  5
4E2
100
AcDbEntity
  8
0
100
AcDbLine
 62
7
  6
CONTINUOUS
 10
6.2636700337
 20
2.6883469622
 11
6.2477104377
 21
3.1876863172
  0
LINE
  5
4E3
100
AcDbEntity
  8
0
100
AcDbLine
 62
7
  6
CONTINUOUS
 10
7.0106060606
 20
-3.1389815901
 11
6.9951178451
 21
-2.6471716532
  0
LINE
  5
4E4
100
AcDbEntity
  8
0
100
AcDbLine
 62
7
  6
CONTINUOUS
 10
7.1164043185
 20
3.2326114412
 11
7.1020061933
 21
3.6980099975
  0
LINE
  5
4E5
100
AcDbEntity
  8
0
100
AcDbLine
 62
7
  6
CONTINUOUS
 10
6.0598080261
 20
-3.1114719746
 11
6.0747710532
 21
-3.6126078463
  0
LINE
  5
4E6
100
AcDbEntity
  8
0
100
AcDbLine
 62
7
  6
CONTINUOUS
 10
5.9048274189
 20
3.6131219506
 11
5.9197413368
 21
3.113855215
  0
LINE
  5
4E7
100
AcDbEntity
  8
0
100
AcDbLine
 62
7
  6
CONTINUOUS
 10
6.1550693149
 20
-3.6099544787
 11
6.1401116154
 21
-3.1085336034
  0
LINE
  5
4E8
100
AcDbEntity
  8
0
100
AcDbLine
 62
7
  6
CONTINUOUS
 10
6.0001461129
 20
3.1131311914
 11
5.9852853279
 21
3.6108786278
  0
LINE
  5
4E9
100
AcDbEntity
  8
0
100
AcDbLine
 62
7
  6
CONTINUOUS
 10
6.6597268577
 20
-3.1085336034
 11
6.6746845571
 21
-3.6099544787
  0
LINE
  5
4EA
100
AcDbEntity
  8
0
100
AcDbLine
 62
7
  6
CONTINUOUS
 10
6.5049005701
 20
3.6108786278
 11
6.5197613551
 21
3.1131311914
  0
LINE
  5
4EB
100
AcDbEntity
  8
0
100
AcDbLine
 62
7
  6
CONTINUOUS
 10
6.7550246938
 20
-3.6085845179
 11
6.7400730696
 21
-3.1071374242
  0
LINE
  5
4EC
100
AcDbEntity
  8
0
100
AcDbLine
 62
7
  6
CONTINUOUS
 10
6.6001720419
 20
3.1121931868
 11
6.5853290347
 21
3.6095372645
  0
LINE
  5
4ED
100
AcDbEntity
  8
0
100
AcDbLine
 62
7
  6
CONTINUOUS
 10
6.3966666667
 20
-2.6997079607
 11
6.3807070707
 21
-2.1268743597
  0
LINE
  5
4EE
100
AcDbEntity
  8
0
100
AcDbLine
 62
7
  6
CONTINUOUS
 10
6.9951178451
 20
-2.6471716532
 11
6.9796296296
 21
-2.085876912
  0
LINE
  5
4EF
100
AcDbEntity
  8
0
100
AcDbLine
 62
7
  6
CONTINUOUS
 10
6.8867003367
 20
1.8398276911
 11
6.8608866442
 21
2.781247666
  0
LINE
  5
4F0
100
AcDbEntity
  8
0
100
AcDbLine
 62
7
  6
CONTINUOUS
 10
6.2902693603
 20
1.69746427
 11
6.2636700337
 21
2.6883469622
  0
LINE
  5
4F1
100
AcDbEntity
  8
0
100
AcDbLine
 62
7
  6
CONTINUOUS
 10
5.9197413368
 20
3.113855215
 11
5.9348257197
 21
2.5318323425
  0
LINE
  5
4F2
100
AcDbEntity
  8
0
100
AcDbLine
 62
7
  6
CONTINUOUS
 10
6.5197613551
 20
3.1131311914
 11
6.5347921091
 21
2.5332049736
  0
LINE
  5
4F3
100
AcDbEntity
  8
0
100
AcDbLine
 62
7
  6
CONTINUOUS
 10
6.1401116154
 20
-3.1085336034
 11
6.1250676192
 21
-2.5274743176
  0
LINE
  5
4F4
100
AcDbEntity
  8
0
100
AcDbLine
 62
7
  6
CONTINUOUS
 10
6.7400730696
 20
-3.1071374242
 11
6.725059161
 21
-2.5271285936
  0
LINE
  5
4F5
100
AcDbEntity
  8
0
100
AcDbLine
 62
7
  6
CONTINUOUS
 10
6.3807070707
 20
-2.1268743597
 11
6.3594276094
 21
-1.2739053069
  0
LINE
  5
4F6
100
AcDbEntity
  8
0
100
AcDbLine
 62
7
  6
CONTINUOUS
 10
6.9796296296
 20
-2.085876912
 11
6.9589786756
 21
-1.2550763198
  0
LINE
  5
4F7
100
AcDbEntity
  8
0
100
AcDbLine
 62
7
  6
CONTINUOUS
 10
7.1404013014
 20
2.2999192375
 11
7.1164043185
 21
3.2326114412
  0
LINE
  5
4F8
100
AcDbEntity
  8
0
100
AcDbLine
 62
7
  6
CONTINUOUS
 10
6.0297380802
 20
-1.8882313751
 11
6.0598080261
 21
-3.1114719746
  0
LINE
  5
4F9
100
AcDbEntity
  8
0
100
AcDbLine
 62
7
  6
CONTINUOUS
 10
6.0301889586
 20
1.8914775395
 11
6.0001461129
 21
3.1131311914
  0
LWPOLYLINE
  5
4FA
100
AcDbEntity
  8
0
100
AcDbPolyline
 62
7
  6
CONTINUOUS
 90
3
 70
0
 10
6.3594276094
 20
-1.2739053069
 10
6.3275084175
 20
0.109573088
 10
6.2902693603
 20
1.69746427
  0
LINE
  5
4FB
100
AcDbEntity
  8
0
100
AcDbLine
 62
7
  6
CONTINUOUS
 10
6.6297577351
 20
-1.8891059601
 11
6.6597268577
 21
-3.1085336034
  0
LINE
  5
4FC
100
AcDbEntity
  8
0
100
AcDbLine
 62
7
  6
CONTINUOUS
 10
6.6301637767
 20
1.8925976666
 11
6.6001720419
 21
3.1121931868
  0
LINE
  5
4FD
100
AcDbEntity
  8
0
100
AcDbLine
 62
7
  6
CONTINUOUS
 10
6.9589786756
 20
-1.2550763198
 11
6.8867003367
 21
1.8398276911
  0
LINE
  5
4FE
100
AcDbEntity
  8
0
100
AcDbLine
 62
7
  6
CONTINUOUS
 10
7.15
 20
1.882763621
 11
7.1404013014
 21
2.2999192375
  0
LINE
  5
4FF
100
AcDbEntity
  8
0
100
AcDbLine
 62
7
  6
CONTINUOUS
 10
5.9348257197
 20
2.5318323425
 11
5.9548179283
 21
1.6659423896
  0
LINE
  5
500
100
AcDbEntity
  8
0
100
AcDbLine
 62
7
  6
CONTINUOUS
 10
6.1250676192
 20
-2.5274743176
 11
6.1052158332
 21
-1.6674771583
  0
LINE
  5
501
100
AcDbEntity
  8
0
100
AcDbLine
 62
7
  6
CONTINUOUS
 10
6.5347921091
 20
2.5332049736
 11
6.554770571
 21
1.6680951529
  0
LINE
  5
502
100
AcDbEntity
  8
0
100
AcDbLine
 62
7
  6
CONTINUOUS
 10
6.725059161
 20
-2.5271285936
 11
6.7052382669
 21
-1.6684968611
  0
LWPOLYLINE
  5
503
100
AcDbEntity
  8
0
100
AcDbPolyline
 62
7
  6
CONTINUOUS
 90
3
 70
0
 10
5.9548179283
 20
1.6659423896
 10
5.9898160732
 20
-0.0004115689
 10
6.0297380802
 20
-1.8882313751
  0
LINE
  5
504
100
AcDbEntity
  8
0
100
AcDbLine
 62
7
  6
CONTINUOUS
 10
6.1052158332
 20
-1.6674771583
 11
6.0301889586
 21
1.8914775395
  0
LWPOLYLINE
  5
505
100
AcDbEntity
  8
0
100
AcDbPolyline
 62
7
  6
CONTINUOUS
 90
3
 70
0
 10
6.554770571
 20
1.6680951529
 10
6.5898142678
 20
-0.0003236588
 10
6.6297577351
 20
-1.8891059601
  0
LINE
  5
506
100
AcDbEntity
  8
0
100
AcDbLine
 62
7
  6
CONTINUOUS
 10
6.7052382669
 20
-1.6684968611
 11
6.6301637767
 21
1.8925976666
  0
LINE
  5
507
100
AcDbEntity
  8
0
100
AcDbLine
 62
7
  6
CONTINUOUS
 10
5.85
 20
22.4
 11
5.85
 21
-22.4
  0
LINE
  5
508
100
AcDbEntity
  8
DRAFT
100
AcDbLine
 62
7
  6
CONTINUOUS
 10
5.85
 20
-22.4
 11
5.85
 21
-23.5
  0
LINE
  5
509
100
AcDbEntity
  8
DRAFT
100
AcDbLine
 62
7
  6
CONTINUOUS
 10
5.85
 20
22.4
 11
5.85
 21
23.5
  0
LINE
  5
50A
100
AcDbEntity
  8
0
100
AcDbLine
 62
7
  6
CONTINUOUS
 10
7.15
 20
-4.3245696117
 11
7.15
 21
4.6011744462
  0
LINE
  5
50B
100
AcDbEntity
  8
0
100
AcDbLine
 62
7
  6
CONTINUOUS
 10
5.85
 20
-4.2551741314
 11
5.8799999989
 21
-4.2032521501
  0
LINE
  5
50C
100
AcDbEntity
  8
0
100
AcDbLine
 62
7
  6
CONTINUOUS
 10
6.2235875928
 20
-4.6470612087
 11
6.2201923789
 21
-4.65
  0
LINE
  5
50D
100
AcDbEntity
  8
0
100
AcDbLine
 62
7
  6
CONTINUOUS
 10
-3.6103050577
 20
6.0
 11
-3.9
 21
6.0
  0
LINE
  5
50E
100
AcDbEntity
  8
0
100
AcDbLine
 62
7
  6
CONTINUOUS
 10
-3.9
 20
6.3508529611
 11
-6.3
 21
6.3508529611
  0
LINE
  5
50F
100
AcDbEntity
  8
0
100
AcDbLine
 62
7
  6
CONTINUOUS
 10
5.9235875928
 20
4.6470612087
 11
5.9201923789
 21
4.65
  0
LINE
  5
510
100
AcDbEntity
  8
0
100
AcDbLine
 62
7
  6
CONTINUOUS
 10
6.1837586296
 20
4.1967470339
 11
5.9235875928
 21
4.6470612087
  0
LWPOLYLINE
  5
511
100
AcDbEntity
  8
0
100
AcDbPolyline
 62
7
  6
CONTINUOUS
 90
8
 70
0
 10
5.85
 20
4.6232295336
 10
5.854740323
 20
4.5932622883
 10
5.8597651157
 20
4.5488162258
 10
5.8648100165
 20
4.4915249012
 10
5.869853998
 20
4.4217144247
 10
5.8748966951
 20
4.339592699
 10
5.8799384729
 20
4.2453907522
 10
5.8849593982
 20
4.1398197804
  0
LWPOLYLINE
  5
512
100
AcDbEntity
  8
RACCORDO
100
AcDbPolyline
 62
250
  6
CONTINUOUS
 90
8
 70
0
 10
14.35
 20
18.5
 10
14.3504555998
 20
18.5017110277
 10
14.3509034039
 20
18.5068148348
 10
14.3513357505
 20
18.5152240935
 10
14.3517452417
 20
18.5267949193
 10
14.3521248712
 20
18.541329332
 10
14.3524681436
 20
18.5585786439
 10
14.3530228458
 20
18.6000000001
  0
LINE
  5
513
100
AcDbEntity
  8
0
100
AcDbLine
 62
7
  6
CONTINUOUS
 10
6.2235875928
 20
-4.6470612087
 11
6.4799999989
 21
-4.2032521501
  0
LINE
  5
514
100
AcDbEntity
  8
0
100
AcDbLine
 62
7
  6
CONTINUOUS
 10
6.8235875928
 20
-4.6470612087
 11
7.0799999989
 21
-4.2032521501
  0
LINE
  5
515
100
AcDbEntity
  8
0
100
AcDbLine
 62
7
  6
CONTINUOUS
 10
6.8201923789
 20
-4.65
 11
6.8235875928
 21
-4.6470612087
  0
LINE
  5
516
100
AcDbEntity
  8
0
100
AcDbLine
 62
7
  6
CONTINUOUS
 10
6.5235875928
 20
4.6470612087
 11
6.5201923789
 21
4.65
  0
LINE
  5
517
100
AcDbEntity
  8
0
100
AcDbLine
 62
7
  6
CONTINUOUS
 10
7.1201923789
 20
4.65
 11
7.1235875928
 21
4.6470612087
  0
LWPOLYLINE
  5
518
100
AcDbEntity
  8
0
100
AcDbPolyline
 62
7
  6
CONTINUOUS
 90
10
 70
0
 10
6.4398076211
 20
4.65
 10
6.4447720936
 20
4.6437175565
 10
6.4497567019
 20
4.6247853339
 10
6.454761446
 20
4.5931019873
 10
6.459793363
 20
4.548530645
 10
6.4648454158
 20
4.4910784103
 10
6.469896493
 20
4.4210735875
 10
6.4749462689
 20
4.3387249201
 10
6.4799950692
 20
4.2442656171
 10
6.4850227599
 20
4.138413771
  0
LINE
  5
519
100
AcDbEntity
  8
0
100
AcDbLine
 62
7
  6
CONTINUOUS
 10
6.7837586296
 20
4.1967470339
 11
6.5235875928
 21
4.6470612087
  0
LINE
  5
51A
100
AcDbEntity
  8
0
100
AcDbLine
 62
7
  6
CONTINUOUS
 10
7.15
 20
4.6013427766
 11
7.1235875928
 21
4.6470612087
  0
LWPOLYLINE
  5
51B
100
AcDbEntity
  8
0
100
AcDbPolyline
 62
7
  6
CONTINUOUS
 90
7
 70
0
 10
7.1235875928
 20
4.6470612087
 10
7.1250283376
 20
4.6440385411
 10
7.1300224284
 20
4.6253845338
 10
7.1350165418
 20
4.5940824402
 10
7.1400110052
 20
4.5502144005
 10
7.1450054912
 20
4.4939018546
 10
7.15
 20
4.4252986427
  0
LINE
  5
51C
100
AcDbEntity
  8
DRAFT
100
AcDbLine
 62
7
  6
CONTINUOUS
 10
9.85
 20
23.4301797403
 11
9.85
 21
21.2
  0
LINE
  5
51D
100
AcDbEntity
  8
DRAFT
100
AcDbLine
 62
7
  6
CONTINUOUS
 10
9.85
 20
-21.2
 11
9.85
 21
-23.4301797403
  0
LINE
  5
51E
100
AcDbEntity
  8
DRAFT
100
AcDbLine
 62
7
  6
CONTINUOUS
 10
11.45
 20
-21.2
 11
11.45
 21
-22.4
  0
LINE
  5
51F
100
AcDbEntity
  8
DRAFT
100
AcDbLine
 62
7
  6
CONTINUOUS
 10
11.45
 20
21.2
 11
11.45
 21
22.4
  0
LINE
  5
520
100
AcDbEntity
  8
DRAFT
100
AcDbLine
 62
7
  6
CONTINUOUS
 10
11.85
 20
-7.3523728136
 11
11.85
 21
-12.6476271864
  0
LWPOLYLINE
  5
521
100
AcDbEntity
  8
RACCORDO
100
AcDbPolyline
 62
7
  6
CONTINUOUS
 90
5
 70
0
 10
10.1161270067
 20
-18.5271341059
 10
10.1172528272
 20
-18.5154532061
 10
10.1179101051
 20
-18.5069324742
 10
10.1181396398
 20
-18.5017443099
 10
10.1179491924
 20
-18.5
  0
LWPOLYLINE
  5
522
100
AcDbEntity
  8
RACCORDO
100
AcDbPolyline
 62
7
  6
CONTINUOUS
 90
3
 70
0
 10
10.1103572168
 20
-18.5787914426
 10
10.1126431893
 20
-18.5590737083
 10
10.1161270067
 20
-18.5271341059
  0
LWPOLYLINE
  5
523
100
AcDbEntity
  8
RACCORDO
100
AcDbPolyline
 62
7
  6
CONTINUOUS
 90
4
 70
0
 10
10.0951091742
 20
-18.7
 10
10.0985776903
 20
-18.6741235681
 10
10.101825193
 20
-18.6486379494
 10
10.1103572168
 20
-18.5787914426
  0
LINE
  5
524
100
AcDbEntity
  8
RACCORDO
100
AcDbLine
 62
7
  6
CONTINUOUS
 10
10.0951091742
 20
18.7
 11
10.104874113
 21
18.6238056948
  0
LINE
  5
525
100
AcDbEntity
  8
RACCORDO
100
AcDbLine
 62
7
  6
CONTINUOUS
 10
10.104874113
 20
18.6238056948
 11
10.1077723906
 21
18.6004322166
  0
LWPOLYLINE
  5
526
100
AcDbEntity
  8
RACCORDO
100
AcDbPolyline
 62
7
  6
CONTINUOUS
 90
8
 70
0
 10
10.1077723906
 20
18.6004322166
 10
10.112643191
 20
18.5590736936
 10
10.1145988165
 20
18.5417887896
 10
10.1161223192
 20
18.5271768639
 10
10.1172463834
 20
18.5155248943
 10
10.1179582778
 20
18.5070349419
 10
10.1181975229
 20
18.5018319132
 10
10.1179491924
 20
18.5
  0
LWPOLYLINE
  5
527
100
AcDbEntity
  8
RACCORDO
100
AcDbPolyline
 62
250
  6
CONTINUOUS
 90
19
 70
0
 10
14.6534904813
 20
-19.0
 10
14.6530240267
 20
-18.9775145419
 10
14.6503461367
 20
-18.954527639
 10
14.6454568111
 20
-18.9310392912
 10
14.6384160107
 20
-18.9066510222
 10
14.6291637748
 20
-18.8817613084
 10
14.6175202219
 20
-18.8575655791
 10
14.6032685707
 20
-18.8341069331
 10
14.5866256025
 20
-18.8113422717
 10
14.5680617802
 20
-18.7903377281
 10
14.5473914507
 20
-18.771240406
 10
14.524800267
 20
-18.7539032017
 10
14.501315651
 20
-18.7389509382
 10
14.4769174928
 20
-18.7266130291
 10
14.4516259024
 20
-18.7166600608
 10
14.4265286308
 20
-18.7090286155
 10
14.401988262
 20
-18.703697554
 10
14.3776422122
 20
-18.7006880155
 10
14.3534904813
 20
-18.7
  0
LWPOLYLINE
  5
528
100
AcDbEntity
  8
RACCORDO
100
AcDbPolyline
 62
250
  6
CONTINUOUS
 90
7
 70
0
 10
14.3524681429
 20
-18.5585786438
 10
14.3521248702
 20
-18.5413293319
 10
14.3517452405
 20
-18.5267949192
 10
14.3513357492
 20
-18.5152240935
 10
14.3509034029
 20
-18.5068148347
 10
14.3504555991
 20
-18.5017110277
 10
14.35
 20
-18.5
  0
LINE
  5
529
100
AcDbEntity
  8
RACCORDO
100
AcDbLine
 62
250
  6
CONTINUOUS
 10
14.3530228454
 20
-18.6
 11
14.3524681429
 21
-18.5585786438
  0
LINE
  5
52A
100
AcDbEntity
  8
RACCORDO
100
AcDbLine
 62
250
  6
CONTINUOUS
 10
14.353371546
 20
-18.648236191
 11
14.3530228454
 21
-18.6
  0
LINE
  5
52B
100
AcDbEntity
  8
RACCORDO
100
AcDbLine
 62
250
  6
CONTINUOUS
 10
14.3534904813
 20
-18.7
 11
14.353371546
 21
-18.648236191
  0
LINE
  5
52C
100
AcDbEntity
  8
RACCORDO
100
AcDbLine
 62
250
  6
CONTINUOUS
 10
14.6534904813
 20
20.1171572875
 11
14.6534904813
 21
19.0
  0
LINE
  5
52D
100
AcDbEntity
  8
RACCORDO
100
AcDbLine
 62
250
  6
CONTINUOUS
 10
14.6534904813
 20
-20.1171572875
 11
14.6534904813
 21
-19.0
  0
LINE
  5
52E
100
AcDbEntity
  8
RACCORDO
100
AcDbLine
 62
7
  6
CONTINUOUS
 10
14.85
 20
20.1171572875
 11
14.85
 21
19.0
  0
LINE
  5
52F
100
AcDbEntity
  8
RACCORDO
100
AcDbLine
 62
7
  6
CONTINUOUS
 10
14.85
 20
-20.1171572875
 11
14.85
 21
-19.0
  0
LINE
  5
530
100
AcDbEntity
  8
RACCORDO
100
AcDbLine
 62
250
  6
CONTINUOUS
 10
14.3533715461
 20
18.648236191
 11
14.3534904813
 21
18.7
  0
LINE
  5
531
100
AcDbEntity
  8
RACCORDO
100
AcDbLine
 62
250
  6
CONTINUOUS
 10
14.3530228458
 20
18.6000000001
 11
14.3533715461
 21
18.648236191
  0
LWPOLYLINE
  5
532
100
AcDbEntity
  8
RACCORDO
100
AcDbPolyline
 62
250
  6
CONTINUOUS
 90
19
 70
0
 10
14.6534904813
 20
19.0
 10
14.652808013
 20
18.9760805077
 10
14.6498587724
 20
18.9519757502
 10
14.6446427595
 20
18.9276857274
 10
14.6371722725
 20
18.9028544539
 10
14.6274350131
 20
18.8778379151
 10
14.6153940865
 20
18.8537040678
 10
14.6008670763
 20
18.8305034336
 10
14.5840363987
 20
18.8081854909
 10
14.5654124077
 20
18.7876666321
 10
14.5448544023
 20
18.7690824571
 10
14.5225030834
 20
18.752297366
 10
14.4992909069
 20
18.737820952
 10
14.4751699608
 20
18.7258402601
 10
14.4501881571
 20
18.7161682454
 10
14.425421688
 20
18.7087533662
 10
14.4012292844
 20
18.7035784419
 10
14.3772522155
 20
18.7006606532
 10
14.3534904813
 20
18.7
  0
LINE
  5
533
100
AcDbEntity
  8
RACCORDO
100
AcDbLine
 62
7
  6
CONTINUOUS
 10
5.85
 20
17.3564064606
 11
10.1179491924
 21
18.5
  0
LINE
  5
534
100
AcDbEntity
  8
RACCORDO
100
AcDbLine
 62
250
  6
CONTINUOUS
 10
5.85
 20
17.562526425
 11
10.0951091742
 21
18.7
  0
LINE
  5
535
100
AcDbEntity
  8
RACCORDO
100
AcDbLine
 62
7
  6
CONTINUOUS
 10
14.35
 20
18.5
 11
10.1179491924
 21
18.5
  0
LINE
  5
536
100
AcDbEntity
  8
RACCORDO
100
AcDbLine
 62
250
  6
CONTINUOUS
 10
14.3534904813
 20
18.7
 11
10.0951091742
 21
18.7
  0
LINE
  5
537
100
AcDbEntity
  8
RACCORDO
100
AcDbLine
 62
250
  6
CONTINUOUS
 10
14.85
 20
19.0
 11
14.6534904813
 21
19.0
  0
LINE
  5
538
100
AcDbEntity
  8
RACCORDO
100
AcDbLine
 62
250
  6
CONTINUOUS
 10
14.85
 20
20.1171572875
 11
14.6534904813
 21
20.1171572875
  0
LWPOLYLINE
  5
539
100
AcDbEntity
  8
0
100
AcDbPolyline
 62
7
  6
CONTINUOUS
 90
10
 70
0
 43
0.3500000006
 10
0.9642857051
 20
42.7499991302
 10
1.035714268
 20
42.6071412964
 10
1.035714268
 20
42.5357146454
 10
0.8928571422
 20
42.3928568115
 10
0.8214285793
 20
42.3928568115
 10
0.7500000165
 20
42.4642834625
 10
0.7500000165
 20
42.5357146454
 10
0.8214285793
 20
42.6785724792
 10
0.8928571422
 20
42.7499991302
 10
0.9642857051
 20
42.7499991302
  0
LWPOLYLINE
  5
53A
100
AcDbEntity
  8
0
100
AcDbPolyline
 62
7
  6
CONTINUOUS
 90
10
 70
0
 43
0.3500000006
 10
6.3500002384
 20
32.7500006104
 10
6.4214285889
 20
32.6071427765
 10
6.4214285889
 20
32.5357161255
 10
6.2785713215
 20
32.3928582916
 10
6.207142971
 20
32.3928582916
 10
6.1357140541
 20
32.4642849426
 10
6.1357140541
 20
32.5357161255
 10
6.207142971
 20
32.6785694275
 10
6.2785713215
 20
32.7500006104
 10
6.3500002384
 20
32.7500006104
  0
LWPOLYLINE
  5
53B
100
AcDbEntity
  8
0
100
AcDbPolyline
 62
250
  6
CONTINUOUS
 90
19
 70
0
 10
-2.243813245
 20
21.4755923698
 10
-2.2849130771
 20
21.4716950654
 10
-2.3250765009
 20
21.4645922224
 10
-2.3643035163
 20
21.4542838406
 10
-2.4028598595
 20
21.4406561355
 10
-2.4404797944
 20
21.4238228918
 10
-2.4763661124
 20
21.4041254635
 10
-2.5104689841
 20
21.3815078446
 10
-2.542838239
 20
21.3560260412
 10
-2.5728261564
 20
21.3281894262
 10
-2.6003813948
 20
21.2979562723
 10
-2.6255552958
 20
21.2653683069
 10
-2.647854164
 20
21.2310600855
 10
-2.6672275451
 20
21.1949860366
 10
-2.6837258935
 20
21.1571917318
 10
-2.6970068766
 20
21.1184484404
 10
-2.7069563837
 20
21.0790132523
 10
-2.7136885255
 20
21.0386290778
 10
-2.717203302
 20
20.9972959167
  0
LINE
  5
53C
100
AcDbEntity
  8
0
100
AcDbLine
 62
250
  6
CONTINUOUS
 10
5.85
 20
21.8997711479
 11
-2.243813245
 21
21.4755923698
  0
LINE
  5
53D
100
AcDbEntity
  8
0
100
AcDbLine
 62
7
  6
CONTINUOUS
 10
5.85
 20
22.4
 11
-2.2612550199
 21
21.9749071372
  0
LWPOLYLINE
  5
53E
100
AcDbEntity
  8
RACCORDO
100
AcDbPolyline
 62
7
  6
CONTINUOUS
 90
22
 70
0
 10
13.9339848613
 20
20.8366629075
 10
13.9539894574
 20
20.8368010859
 10
13.973075894
 20
20.8380636212
 10
13.991186076
 20
20.8403931378
 10
14.008360497
 20
20.8436534677
 10
14.0244280175
 20
20.8478512965
 10
14.0390102051
 20
20.8531402181
 10
14.0520098905
 20
20.8595243195
 10
14.0633802831
 20
20.8668554358
 10
14.0728364059
 20
20.8750755778
 10
14.0802378463
 20
20.8842329749
 10
14.0856214217
 20
20.8941735828
 10
14.0890176946
 20
20.904584292
 10
14.0903519006
 20
20.9154684847
 10
14.0896909632
 20
20.9268111718
 10
14.0873202616
 20
20.9383133489
 10
14.0832776215
 20
20.9499376582
 10
14.077563157
 20
20.9617560641
 10
14.0704000207
 20
20.9736281199
 10
14.0618622449
 20
20.985505879
 10
14.0518945595
 20
20.9974535593
 10
14.0405134886
 20
21.0094865114
  0
LINE
  5
53F
100
AcDbEntity
  8
DRAFT
100
AcDbLine
 62
7
  6
CONTINUOUS
 10
9.85
 20
21.2
 11
13.85
 21
21.2
  0
LINE
  5
540
100
AcDbEntity
  8
0
100
AcDbLine
 62
7
  6
CONTINUOUS
 10
11.45
 20
22.4
 11
11.95
 21
22.4
  0
LINE
  5
541
100
AcDbEntity
  8
RACCORDO
100
AcDbLine
 62
7
  6
CONTINUOUS
 10
13.9339848613
 20
20.8366629075
 11
5.85
 21
20.9
  0
LINE
  5
542
100
AcDbEntity
  8
DRAFT
100
AcDbLine
 62
7
  6
CONTINUOUS
 10
9.85
 20
21.2
 11
13.8852147859
 21
21.1647852141
  0
LWPOLYLINE
  5
543
100
AcDbEntity
  8
0
100
AcDbPolyline
 62
250
  6
CONTINUOUS
 90
3
 70
0
 10
-2.717203302
 20
20.9972959167
 10
-3.205360448
 20
21.0181637387
 10
-3.2080351158
 20
21.0183142302
  0
LINE
  5
544
100
AcDbEntity
  8
DRAFT
100
AcDbLine
 62
7
  6
CONTINUOUS
 10
5.85
 20
22.663166622
 11
9.85
 21
22.6298666026
  0
LINE
  5
545
100
AcDbEntity
  8
DRAFT
100
AcDbLine
 62
7
  6
CONTINUOUS
 10
5.85
 20
23.5
 11
9.85
 21
23.4301797403
  0
LINE
  5
546
100
AcDbEntity
  8
DRAFT
100
AcDbLine
 62
7
  6
CONTINUOUS
 10
5.85
 20
23.1799085618
 11
7.6417233233
 21
23.1450976957
  0
LWPOLYLINE
  5
547
100
AcDbEntity
  8
DRAFT
100
AcDbPolyline
 62
7
  6
CONTINUOUS
 90
3
 70
0
 10
7.6417233233
 20
23.1450976957
 10
9.4111462178
 20
23.1090864878
 10
9.85
 20
23.0998904748
  0
LWPOLYLINE
  5
548
100
AcDbEntity
  8
RACCORDO
100
AcDbPolyline
 62
7
  6
CONTINUOUS
 90
22
 70
0
 10
14.0405134886
 20
-21.0094865114
 10
14.0515251176
 20
-20.9978705966
 10
14.0612700384
 20
-20.9862689466
 10
14.0697166074
 20
-20.9746510313
 10
14.0769288031
 20
-20.9628966864
 10
14.082788357
 20
-20.9510743423
 10
14.0869949497
 20
-20.9394412204
 10
14.0895267906
 20
-20.9279768357
 10
14.0903746745
 20
-20.9166738744
 10
14.0892697832
 20
-20.9058220067
 10
14.086176703
 20
-20.8954483426
 10
14.0811450673
 20
-20.8855434904
 10
14.0740609537
 20
-20.8763693993
 10
14.0648588125
 20
-20.8680202071
 10
14.0536798398
 20
-20.8604803948
 10
14.0407619088
 20
-20.8538879832
 10
14.0261307666
 20
-20.8484063534
 10
14.0099006589
 20
-20.8440127591
 10
13.9924691872
 20
-20.8405916279
 10
13.9740172547
 20
-20.8381523097
 10
13.9545018365
 20
-20.8368223095
 10
13.9339848613
 20
-20.8366629075
  0
LINE
  5
549
100
AcDbEntity
  8
RACCORDO
100
AcDbLine
 62
250
  6
CONTINUOUS
 10
13.9339848613
 20
-20.8366629075
 11
14.6534904813
 21
-20.1171572875
  0
LINE
  5
54A
100
AcDbEntity
  8
DRAFT
100
AcDbLine
 62
7
  6
CONTINUOUS
 10
13.85
 20
-21.2
 11
13.8852147859
 21
-21.1647852141
  0
LINE
  5
54B
100
AcDbEntity
  8
RACCORDO
100
AcDbLine
 62
7
  6
CONTINUOUS
 10
13.8852147859
 20
-21.1647852141
 11
14.7914213562
 21
-20.2585786438
  0
LINE
  5
54C
100
AcDbEntity
  8
DRAFT
100
AcDbLine
 62
7
  6
CONTINUOUS
 10
13.85
 20
-21.2
 11
11.95
 21
-22.4
  0
LWPOLYLINE
  5
54D
100
AcDbEntity
  8
0
100
AcDbPolyline
 62
7
  6
CONTINUOUS
 90
8
 70
0
 43
0.3500000006
 10
7.4214283276
 20
32.2500004578
 10
8.2785713654
 20
32.2500004578
 10
8.707142601
 20
32.6785694275
 10
8.707142601
 20
33.5357164307
 10
8.2785713654
 20
33.9642854004
 10
7.4214283276
 20
33.9642854004
 10
7.4214283276
 20
35.2500013733
 10
8.707142601
 20
35.2500013733
  0
LWPOLYLINE
  5
54E
100
AcDbEntity
  8
0
100
AcDbPolyline
 62
7
  6
CONTINUOUS
 90
7
 70
0
 43
0.3500000006
 10
-2.8928572569
 20
42.2499989777
 10
-4.3928571482
 20
42.2499989777
 10
-2.8928572569
 20
44.3928574219
 10
-2.8928572569
 20
44.8214263916
 10
-3.3214284925
 20
45.2499998932
 10
-3.9642856293
 20
45.2499998932
 10
-4.3928571482
 20
44.6071419067
  0
LINE
  5
54F
100
AcDbEntity
  8
DRAFT
100
AcDbLine
 62
7
  6
CONTINUOUS
 10
11.95
 20
22.4
 11
13.85
 21
21.2
  0
LWPOLYLINE
  5
550
100
AcDbEntity
  8
0
100
AcDbPolyline
 62
7
  6
CONTINUOUS
 90
13
 70
0
 43
0.3500000006
 10
3.7785714083
 20
33.9642854004
 10
3.4928571568
 20
34.1785698853
 10
3.4928571568
 20
34.8214278717
 10
3.7785714083
 20
35.2500013733
 10
4.421428545
 20
35.2500013733
 10
4.7071427965
 20
34.8214278717
 10
4.7071427965
 20
34.1785698853
 10
4.421428545
 20
33.9642854004
 10
4.8499997807
 20
33.5357164307
 10
4.8499997807
 20
32.6785694275
 10
4.421428545
 20
32.2500004578
 10
3.7785714083
 20
32.2500004578
 10
3.3499998894
 20
32.6785694275
  0
LINE
  5
551
100
AcDbEntity
  8
RACCORDO
100
AcDbLine
 62
250
  6
CONTINUOUS
 10
13.9339848613
 20
20.8366629075
 11
14.6534904813
 21
20.1171572875
  0
LINE
  5
552
100
AcDbEntity
  8
DRAFT
100
AcDbLine
 62
7
  6
CONTINUOUS
 10
13.85
 20
21.2
 11
13.8852147859
 21
21.1647852141
  0
LINE
  5
553
100
AcDbEntity
  8
RACCORDO
100
AcDbLine
 62
7
  6
CONTINUOUS
 10
13.8852147859
 20
21.1647852141
 11
14.7914213562
 21
20.2585786438
  0
LWPOLYLINE
  5
554
100
AcDbEntity
  8
0
100
AcDbPolyline
 62
7
  6
CONTINUOUS
 90
5
 70
0
 43
0.3500000006
 10
42.6337662964
 20
33.9642854004
 10
42.9909086151
 20
34.1785698853
 10
42.9909086151
 20
34.8214278717
 10
42.6337662964
 20
35.2500013733
 10
41.7766238251
 20
35.2500013733
  0
LINE
  5
555
100
AcDbEntity
  8
DRAFT
100
AcDbLine
 62
7
  6
CONTINUOUS
 10
36.6337658388
 20
-23.5
 11
36.8524874976
 21
-23.4563623377
  0
LINE
  5
556
100
AcDbEntity
  8
DRAFT
100
AcDbLine
 62
7
  6
CONTINUOUS
 10
43.6071031865
 20
-23.5
 11
42.6337658388
 21
-23.5
  0
LINE
  5
557
100
AcDbEntity
  8
DRAFT
100
AcDbLine
 62
7
  6
CONTINUOUS
 10
36.6337658388
 20
-23.5
 11
35.6604284912
 21
-23.5
  0
LINE
  5
558
100
AcDbEntity
  8
DRAFT
100
AcDbLine
 62
7
  6
CONTINUOUS
 10
42.41504418
 20
-23.4563623377
 11
36.8524874976
 21
-23.4563623377
  0
LINE
  5
559
100
AcDbEntity
  8
DRAFT
100
AcDbLine
 62
7
  6
CONTINUOUS
 10
36.8524874976
 20
-22.5310194482
 11
42.41504418
 21
-22.5310194482
  0
LINE
  5
55A
100
AcDbEntity
  8
DRAFT
100
AcDbLine
 62
7
  6
CONTINUOUS
 10
50.2841464386
 20
-22.4
 11
42.6337658388
 21
-22.4
  0
LINE
  5
55B
100
AcDbEntity
  8
DRAFT
100
AcDbLine
 62
7
  6
CONTINUOUS
 10
36.6337658388
 20
-22.4
 11
28.9833852391
 21
-22.4
  0
LWPOLYLINE
  5
55C
100
AcDbEntity
  8
0
100
AcDbPolyline
 62
250
  6
CONTINUOUS
 90
16
 70
0
 10
29.1249677221
 20
-21.9749071372
 10
29.0727417037
 20
-21.9721273713
 10
29.0210872199
 20
-21.9639137831
 10
28.9705695505
 20
-21.9503562579
 10
28.921741535
 20
-21.9316031621
 10
28.8751375217
 20
-21.90785972
 10
28.831267521
 20
-21.8793857676
 10
28.7906116235
 20
-21.846492909
 10
28.7536147462
 20
-21.8095411067
 10
28.7206817639
 20
-21.7689347421
 10
28.692173078
 20
-21.7251181903
 10
28.668400673
 20
-21.6785709569
 10
28.6496247017
 20
-21.6298024308
 10
28.6360506386
 20
-21.5793463095
 10
28.6278270312
 20
-21.5277547588
 10
28.6250438745
 20
-21.4755923698
  0
LINE
  5
55D
100
AcDbEntity
  8
DRAFT
100
AcDbLine
 62
7
  6
CONTINUOUS
 10
42.6337658388
 20
-23.5
 11
42.41504418
 21
-23.4563623377
  0
LINE
  5
55E
100
AcDbEntity
  8
DRAFT
100
AcDbLine
 62
7
  6
CONTINUOUS
 10
36.8524874976
 20
22.5310194482
 11
36.6337658388
 21
22.4
  0
LINE
  5
55F
100
AcDbEntity
  8
0
100
AcDbLine
 62
250
  6
CONTINUOUS
 10
50.1425639555
 20
-21.9749071372
 11
29.1249677221
 21
-21.9749071372
  0
LINE
  5
560
100
AcDbEntity
  8
0
100
AcDbLine
 62
250
  6
CONTINUOUS
 10
50.1859868047
 20
-21.0181634993
 11
29.1332307763
 21
-21.0183142309
  0
LWPOLYLINE
  5
561
100
AcDbEntity
  8
0
100
AcDbPolyline
 62
250
  6
CONTINUOUS
 90
16
 70
0
 10
29.1332307763
 20
-21.0183132877
 10
29.0815454707
 20
-21.0181627949
 10
29.0304139289
 20
-21.0177887256
 10
28.9803839837
 20
-21.0171950877
 10
28.9319916653
 20
-21.0163882415
 10
28.8857554581
 20
-21.0153768319
 10
28.8421707455
 20
-21.0141716956
 10
28.8017045021
 20
-21.0127857448
 10
28.7647902909
 20
-21.0112338287
 10
28.7318236177
 20
-21.0095325749
 10
28.7031576935
 20
-21.0077002109
 10
28.6790996505
 20
-21.0057563691
 10
28.6599072509
 20
-21.0037218762
 10
28.6457861258
 20
-21.00161853
 10
28.6368875715
 20
-20.9994688662
 10
28.6333069289
 20
-20.9972959167
  0
LINE
  5
562
100
AcDbEntity
  8
DRAFT
100
AcDbLine
 62
7
  6
CONTINUOUS
 10
36.6337658388
 20
-22.4
 11
36.8524874976
 21
-22.5310194482
  0
LINE
  5
563
100
AcDbEntity
  8
0
100
AcDbLine
 62
250
  6
CONTINUOUS
 10
28.6291073075
 20
21.403981807
 11
28.630267422
 21
21.3558303735
  0
LINE
  5
564
100
AcDbEntity
  8
0
100
AcDbLine
 62
250
  6
CONTINUOUS
 10
28.630267422
 20
21.3558303735
 11
28.6312715858
 21
21.2976924869
  0
LINE
  5
565
100
AcDbEntity
  8
0
100
AcDbLine
 62
250
  6
CONTINUOUS
 10
28.6312715858
 20
21.2976924869
 11
28.6324375814
 21
21.1946238913
  0
LINE
  5
566
100
AcDbEntity
  8
0
100
AcDbLine
 62
250
  6
CONTINUOUS
 10
29.1290321539
 20
21.8316424864
 11
29.1307138753
 21
21.6797292088
  0
LINE
  5
567
100
AcDbEntity
  8
0
100
AcDbLine
 62
250
  6
CONTINUOUS
 10
28.6324375814
 20
21.1946238913
 11
28.6331292703
 21
21.0787402824
  0
LINE
  5
568
100
AcDbEntity
  8
0
100
AcDbLine
 62
250
  6
CONTINUOUS
 10
29.1307138753
 20
21.6797292088
 11
29.132647219
 21
21.3380251343
  0
LINE
  5
569
100
AcDbEntity
  8
0
100
AcDbLine
 62
250
  6
CONTINUOUS
 10
28.6331292703
 20
21.0787402824
 11
28.6386350036
 21
11.6670185434
  0
LINE
  5
56A
100
AcDbEntity
  8
0
100
AcDbLine
 62
250
  6
CONTINUOUS
 10
29.132647219
 20
21.3380251343
 11
29.1385588549
 21
11.6792204147
  0
LINE
  5
56B
100
AcDbEntity
  8
0
100
AcDbLine
 62
250
  6
CONTINUOUS
 10
28.6386350036
 20
11.6670185434
 11
28.6409184636
 21
2.3338547134
  0
LINE
  5
56C
100
AcDbEntity
  8
0
100
AcDbLine
 62
250
  6
CONTINUOUS
 10
29.1385588549
 20
11.6792204147
 11
29.1408423171
 21
2.3360479955
  0
LINE
  5
56D
100
AcDbEntity
  8
0
100
AcDbLine
 62
7
  6
CONTINUOUS
 10
28.4837658388
 20
-21.8997711479
 11
28.4837658388
 21
21.8997711479
  0
LINE
  5
56E
100
AcDbEntity
  8
0
100
AcDbLine
 62
250
  6
CONTINUOUS
 10
28.6409184636
 20
2.3338547134
 11
28.6401573092
 21
-7.0009579653
  0
LINE
  5
56F
100
AcDbEntity
  8
0
100
AcDbLine
 62
250
  6
CONTINUOUS
 10
29.1408423171
 20
2.3360479955
 11
29.1400811631
 21
-7.0079400882
  0
LINE
  5
570
100
AcDbEntity
  8
0
100
AcDbLine
 62
250
  6
CONTINUOUS
 10
28.6401573092
 20
-7.0009579653
 11
28.6363515421
 21
-16.3324690607
  0
LINE
  5
571
100
AcDbEntity
  8
0
100
AcDbLine
 62
250
  6
CONTINUOUS
 10
29.1400811631
 20
-7.0079400882
 11
29.1362753927
 21
-16.3494810544
  0
LINE
  5
572
100
AcDbEntity
  8
0
100
AcDbLine
 62
250
  6
CONTINUOUS
 10
28.6363515421
 20
-16.3324690607
 11
28.6329561814
 21
-21.1180991804
  0
LINE
  5
573
100
AcDbEntity
  8
0
100
AcDbLine
 62
250
  6
CONTINUOUS
 10
29.1362753927
 20
-16.3494810544
 11
29.1320220363
 21
-21.4854407064
  0
LINE
  5
574
100
AcDbEntity
  8
0
100
AcDbLine
 62
250
  6
CONTINUOUS
 10
28.6329561814
 20
-21.1180991804
 11
28.632099876
 21
-21.2307227352
  0
LINE
  5
575
100
AcDbEntity
  8
0
100
AcDbLine
 62
250
  6
CONTINUOUS
 10
29.1320220363
 20
-21.4854407064
 11
29.1301910968
 21
-21.7355821182
  0
LINE
  5
576
100
AcDbEntity
  8
0
100
AcDbLine
 62
250
  6
CONTINUOUS
 10
29.1301910968
 20
-21.7355821182
 11
29.1290321539
 21
-21.8316424864
  0
LINE
  5
577
100
AcDbEntity
  8
0
100
AcDbLine
 62
250
  6
CONTINUOUS
 10
28.632099876
 20
-21.2307227352
 11
28.6312715858
 21
-21.297692487
  0
LINE
  5
578
100
AcDbEntity
  8
0
100
AcDbLine
 62
250
  6
CONTINUOUS
 10
28.6312715858
 20
-21.297692487
 11
28.630267422
 21
-21.3558303734
  0
LWPOLYLINE
  5
579
100
AcDbEntity
  8
0
100
AcDbPolyline
 62
250
  6
CONTINUOUS
 90
8
 70
0
 10
28.630267422
 20
-21.3558303734
 10
28.6291073074
 20
-21.4039818068
 10
28.62848079
 20
-21.4237085483
 10
28.6278238766
 20
-21.4405716188
 10
28.6271503501
 20
-21.4542260345
 10
28.6264648047
 20
-21.464556801
 10
28.6257626462
 20
-21.4716789127
 10
28.6250438745
 20
-21.4755923698
  0
LINE
  5
57A
100
AcDbEntity
  8
0
100
AcDbLine
 62
250
  6
CONTINUOUS
 10
29.1277503237
 20
21.9047715709
 11
29.1290321539
 21
21.8316424864
  0
LWPOLYLINE
  5
57B
100
AcDbEntity
  8
0
100
AcDbPolyline
 62
250
  6
CONTINUOUS
 90
6
 70
0
 10
29.1290321539
 20
-21.8316424864
 10
29.1277503237
 20
-21.9047715709
 10
29.1270770797
 20
-21.9320798744
 10
29.1263911031
 20
-21.9529558612
 10
29.1256879839
 20
-21.9672631277
 10
29.1249677221
 20
-21.9749071372
  0
LWPOLYLINE
  5
57C
100
AcDbEntity
  8
0
100
AcDbPolyline
 62
7
  6
CONTINUOUS
 90
3
 70
0
 43
0.3500000006
 10
40.7766235199
 20
32.5357161255
 10
40.705192337
 20
32.3214271088
 10
40.562339035
 20
32.0357159729
  0
LWPOLYLINE
  5
57D
100
AcDbEntity
  8
0
100
AcDbPolyline
 62
250
  6
CONTINUOUS
 90
5
 70
0
 10
29.1249677221
 20
21.9749071372
 10
29.1256879839
 20
21.9672631277
 10
29.1263911031
 20
21.9529558612
 10
29.1270770797
 20
21.9320798744
 10
29.1277503237
 20
21.9047715709
  0
LWPOLYLINE
  5
57E
100
AcDbEntity
  8
0
100
AcDbPolyline
 62
250
  6
CONTINUOUS
 90
7
 70
0
 10
28.6250438745
 20
21.4755923698
 10
28.6257626462
 20
21.4716789126
 10
28.6264648047
 20
21.4645568007
 10
28.6271503501
 20
21.4542260342
 10
28.6278238766
 20
21.4405716186
 10
28.62848079
 20
21.4237085484
 10
28.6291073075
 20
21.403981807
  0
LINE
  5
57F
100
AcDbEntity
  8
0
100
AcDbLine
 62
7
  6
CONTINUOUS
 10
34.1337658388
 20
3.1754264805
 11
34.1337658388
 21
-3.1754264805
  0
LINE
  5
580
100
AcDbEntity
  8
0
100
AcDbLine
 62
7
  6
CONTINUOUS
 10
39.6337658388
 20
6.3508529611
 11
34.1337658388
 21
3.1754264805
  0
LINE
  5
581
100
AcDbEntity
  8
0
100
AcDbLine
 62
7
  6
CONTINUOUS
 10
34.1337658388
 20
-3.1754264805
 11
39.6337658388
 21
-6.3508529611
  0
LINE
  5
582
100
AcDbEntity
  8
0
100
AcDbLine
 62
250
  6
CONTINUOUS
 10
28.6250438745
 20
-21.4755923698
 11
28.4837658388
 21
-21.8997711479
  0
LWPOLYLINE
  5
583
100
AcDbEntity
  8
0
100
AcDbPolyline
 62
7
  6
CONTINUOUS
 90
25
 70
0
 10
39.6337658388
 20
-4.3032322616
 10
39.8552069793
 20
-4.2932634756
 10
40.0756033629
 20
-4.2719206436
 10
40.2943719959
 20
-4.239285812
 10
40.5108413631
 20
-4.1954924474
 10
40.724538339
 20
-4.1406698357
 10
40.9351763818
 20
-4.074894644
 10
41.1424039527
 20
-3.9982376727
 10
41.3454366768
 20
-3.9109494832
 10
41.5433638712
 20
-3.8134350206
 10
41.7353234817
 20
-3.7062031437
 10
41.9211988742
 20
-3.5894052414
 10
42.1011798432
 20
-3.4628982345
 10
42.2749101509
 20
-3.3268084224
 10
42.4416781767
 20
-3.1815641895
 10
42.6010724207
 20
-3.0273981299
 10
42.7527739512
 20
-2.8644396492
 10
42.8960698229
 20
-2.6932654246
 10
43.0300549986
 20
-2.5148814034
 10
43.1543848152
 20
-2.329757392
 10
43.268696128
 20
-2.1384459568
 10
43.3723031562
 20
-1.9422442321
 10
43.4649348319
 20
-1.7420194174
 10
43.546604976
 20
-1.5381329183
 10
43.6172228751
 20
-1.3311912109
  0
LWPOLYLINE
  5
584
100
AcDbEntity
  8
0
100
AcDbPolyline
 62
7
  6
CONTINUOUS
 90
61
 70
0
 10
39.6337658388
 20
-4.511423752
 10
39.3928559925
 20
-4.5071980648
 10
39.1524246665
 20
-4.4901133398
 10
38.9131578646
 20
-4.4602100792
 10
38.6757372989
 20
-4.4175650977
 10
38.4408422339
 20
-4.3622919562
 10
38.2091474025
 20
-4.2945413118
 10
37.9813154067
 20
-4.2144990664
 10
37.7579969121
 20
-4.1223858321
 10
37.5398323441
 20
-4.0184577547
 10
37.3274473475
 20
-3.903005027
 10
37.1214478916
 20
-3.7763489979
 10
36.9224207151
 20
-3.6388415902
 10
36.7309352292
 20
-3.4908665985
 10
36.547541643
 20
-3.3328392252
 10
36.3727663698
 20
-3.1652027965
 10
36.2071112216
 20
-2.9884278287
 10
36.0510526854
 20
-2.8030114057
 10
35.9050405105
 20
-2.6094759625
 10
35.7694957765
 20
-2.4083671333
 10
35.6448090463
 20
-2.2002509447
 10
35.5313400621
 20
-1.9857128892
 10
35.4294177371
 20
-1.7653582188
 10
35.3393381483
 20
-1.5398085412
 10
35.2613633828
 20
-1.3096986881
 10
35.1957219323
 20
-1.0756774797
 10
35.1426080106
 20
-0.8384070627
 10
35.1021801812
 20
-0.5985591695
 10
35.0745607655
 20
-0.356811857
 10
35.0598358844
 20
-0.1138492134
 10
35.058055083
 20
0.1296394853
 10
35.0692309933
 20
0.3729645428
 10
35.0933395706
 20
0.6154372167
 10
35.13032005
 20
0.8563699944
 10
35.1800750548
 20
1.0950793887
 10
35.2424712847
 20
1.3308894175
 10
35.3173400666
 20
1.5631328567
 10
35.4044772991
 20
1.7911512414
 10
35.5036437791
 20
2.0142968673
 10
35.6145663858
 20
2.2319361242
 10
35.7369387152
 20
2.4434507813
 10
35.8704217783
 20
2.6482394729
 10
36.0146449428
 20
2.8457194925
 10
36.1692070497
 20
3.0353286016
 10
36.3336780004
 20
3.2165271028
 10
36.5075998714
 20
3.3887990423
 10
36.6904873763
 20
3.5516528519
 10
36.8818299901
 20
3.7046235827
 10
37.0810939862
 20
3.8472745234
 10
37.2877224912
 20
3.9791972606
 10
37.5011372147
 20
4.1000131802
 10
37.7207410405
 20
4.2093751423
 10
37.9459194038
 20
4.3069681686
 10
38.1760407956
 20
4.3925098581
 10
38.4104587674
 20
4.4657515548
 10
38.6485189134
 20
4.5264804333
 10
38.8895500362
 20
4.5745170402
 10
39.1328643722
 20
4.6097173472
 10
39.3777854639
 20
4.631976923
 10
39.6236180586
 20
4.6412260602
 10
39.8696387285
 20
4.6374342083
  0
LWPOLYLINE
  5
585
100
AcDbEntity
  8
0
100
AcDbPolyline
 62
7
  6
CONTINUOUS
 90
58
 70
0
 10
39.6337658388
 20
-4.2516161308
 10
39.3994196541
 20
-4.2474352832
 10
39.1646472979
 20
-4.2302507536
 10
38.930177782
 20
-4.1999536618
 10
38.6963849603
 20
-4.1563966162
 10
38.4644010475
 20
-4.0995920621
 10
38.2360660232
 20
-4.029919185
 10
38.0121519487
 20
-3.9476463133
 10
37.7932845766
 20
-3.8530367583
 10
37.5809562221
 20
-3.7468481087
 10
37.3763290562
 20
-3.6299268581
 10
37.1793178635
 20
-3.5024963039
 10
36.9895280233
 20
-3.3644039066
 10
36.8072160652
 20
-3.2157856162
 10
36.6332831603
 20
-3.0573231107
 10
36.468350778
 20
-2.8895889083
 10
36.3129447323
 20
-2.7131475727
 10
36.1674761572
 20
-2.5284975525
 10
36.0323414679
 20
-2.3361608768
 10
35.907951407
 20
-2.13673837
 10
35.7946591004
 20
-1.9308138213
 10
35.6927487939
 20
-1.7188993921
 10
35.6026534476
 20
-1.5019299496
 10
35.524503065
 20
-1.2802576739
 10
35.4582620226
 20
-1.0534743435
 10
35.4042009861
 20
-0.8216502643
 10
35.362848548
 20
-0.5859880574
 10
35.3345792319
 20
-0.3477795255
 10
35.3195699647
 20
-0.1075844807
 10
35.317987547
 20
0.1336928776
 10
35.3298484776
 20
0.3742020674
 10
35.3550001637
 20
0.6129881551
 10
35.3932823607
 20
0.8495342333
 10
35.4443789492
 20
1.0826753328
 10
35.5077982143
 20
1.3111641154
 10
35.5833037145
 20
1.5349428964
 10
35.671042106
 20
1.7546160618
 10
35.771097742
 20
1.9701019093
 10
35.8829913054
 20
2.1801094433
 10
36.0060778963
 20
2.3834269269
 10
36.1397242025
 20
2.5791702962
 10
36.2836710502
 20
2.7671086545
 10
36.4377544959
 20
2.9470544633
 10
36.6015994445
 20
3.1185253627
 10
36.7746748799
 20
3.280923871
 10
36.9566178667
 20
3.4338606589
 10
37.1467198772
 20
3.5767008485
 10
37.3446262773
 20
3.70914028
 10
37.5505666622
 20
3.8311827713
 10
37.7645928624
 20
3.9425661088
 10
37.9856095729
 20
4.0424342944
 10
38.2120833437
 20
4.1299629581
 10
38.4433718455
 20
4.2048596007
 10
38.6787281436
 20
4.2668389025
 10
38.9163164563
 20
4.3154762369
 10
39.1549991817
 20
4.3507247534
 10
39.3943946878
 20
4.3727117021
 10
39.6337658388
 20
4.3815199414
  0
LWPOLYLINE
  5
586
100
AcDbEntity
  8
0
100
AcDbPolyline
 62
7
  6
CONTINUOUS
 90
19
 70
0
 10
35.9096284796
 20
-2.3188930904
 10
36.0495558767
 20
-2.5217349116
 10
36.2005407984
 20
-2.7162382131
 10
36.3620917042
 20
-2.9017996322
 10
36.5336838575
 20
-3.0778442689
 10
36.714760811
 20
-3.2438274593
 10
36.904736538
 20
-3.3992369431
 10
37.1029961665
 20
-3.5435936734
 10
37.3089013545
 20
-3.67645583
 10
37.5217926286
 20
-3.7974194484
 10
37.7409875317
 20
-3.9061170105
 10
37.9657800317
 20
-4.0022180896
 10
38.1954462728
 20
-4.0854329044
 10
38.4292501223
 20
-4.1555142147
 10
38.6664422027
 20
-4.212256556
 10
38.9062596511
 20
-4.2554966818
 10
39.1479341658
 20
-4.285115538
 10
39.390694603
 20
-4.3010379558
 10
39.6337658388
 20
-4.3032322616
  0
LINE
  5
587
100
AcDbEntity
  8
0
100
AcDbLine
 62
250
  6
CONTINUOUS
 10
28.4837658388
 20
21.8997711479
 11
28.6250438745
 21
21.4755923698
  0
LINE
  5
588
100
AcDbEntity
  8
DRAFT
100
AcDbLine
 62
7
  6
CONTINUOUS
 10
36.6337658388
 20
23.5
 11
36.6337658388
 21
22.4
  0
LINE
  5
589
100
AcDbEntity
  8
DRAFT
100
AcDbLine
 62
7
  6
CONTINUOUS
 10
36.6337658388
 20
-22.4
 11
36.6337658388
 21
-23.5
  0
LINE
  5
58A
100
AcDbEntity
  8
DRAFT
100
AcDbLine
 62
7
  6
CONTINUOUS
 10
36.8524874976
 20
23.4563623377
 11
36.8524874976
 21
22.5310194482
  0
LINE
  5
58B
100
AcDbEntity
  8
DRAFT
100
AcDbLine
 62
7
  6
CONTINUOUS
 10
36.8524874976
 20
-22.5310194482
 11
36.8524874976
 21
-23.4563623377
  0
LINE
  5
58C
100
AcDbEntity
  8
0
100
AcDbLine
 62
250
  6
CONTINUOUS
 10
29.1249677221
 20
-21.9749071372
 11
28.9833852391
 21
-22.4
  0
LINE
  5
58D
100
AcDbEntity
  8
0
100
AcDbLine
 62
250
  6
CONTINUOUS
 10
28.9833852391
 20
22.4
 11
29.1249677221
 21
21.9749071372
  0
LWPOLYLINE
  5
58E
100
AcDbEntity
  8
0
100
AcDbPolyline
 62
7
  6
CONTINUOUS
 90
2
 70
0
 43
0.3500000006
 10
58.0337664642
 20
-1.3571429443
 10
56.5337660065
 20
-1.3571429443
  0
LWPOLYLINE
  5
58F
100
AcDbEntity
  8
0
100
AcDbPolyline
 62
7
  6
CONTINUOUS
 90
4
 70
0
 43
0.3500000006
 10
55.6766235352
 20
-0.0000003204
 10
55.0337655487
 20
-0.0000003204
 10
55.0337655487
 20
1.5000001373
 10
58.0337664642
 20
0.642857666
  0
LINE
  5
590
100
AcDbEntity
  8
DRAFT
100
AcDbLine
 62
7
  6
CONTINUOUS
 10
42.41504418
 20
23.4563623377
 11
42.41504418
 21
22.5310194482
  0
LINE
  5
591
100
AcDbEntity
  8
DRAFT
100
AcDbLine
 62
7
  6
CONTINUOUS
 10
42.41504418
 20
-22.5310194482
 11
42.41504418
 21
-23.4563623377
  0
LINE
  5
592
100
AcDbEntity
  8
DRAFT
100
AcDbLine
 62
7
  6
CONTINUOUS
 10
42.6337658388
 20
23.5
 11
42.6337658388
 21
22.4
  0
LINE
  5
593
100
AcDbEntity
  8
DRAFT
100
AcDbLine
 62
7
  6
CONTINUOUS
 10
42.6337658388
 20
-22.4
 11
42.6337658388
 21
-23.5
  0
LINE
  5
594
100
AcDbEntity
  8
0
100
AcDbLine
 62
250
  6
CONTINUOUS
 10
50.2841464386
 20
22.4
 11
50.1425639555
 21
21.9749071372
  0
LINE
  5
595
100
AcDbEntity
  8
0
100
AcDbLine
 62
250
  6
CONTINUOUS
 10
50.7837658388
 20
21.8997711479
 11
50.6424878031
 21
21.4755923698
  0
LINE
  5
596
100
AcDbEntity
  8
0
100
AcDbLine
 62
250
  6
CONTINUOUS
 10
50.1425639555
 20
-21.9749071372
 11
50.2841464386
 21
-22.4
  0
LINE
  5
597
100
AcDbEntity
  8
0
100
AcDbLine
 62
250
  6
CONTINUOUS
 10
50.6424878031
 20
-21.4755923698
 11
50.7837658388
 21
-21.8997711479
  0
LWPOLYLINE
  5
598
100
AcDbEntity
  8
0
100
AcDbPolyline
 62
7
  6
CONTINUOUS
 90
25
 70
0
 10
43.6172228751
 20
-1.3311912109
 10
43.5446999065
 20
-1.5370910957
 10
43.4612255404
 20
-1.7397510186
 10
43.366904542
 20
-1.9385707846
 10
43.2617365322
 20
-2.1331914443
 10
43.1460070615
 20
-2.3227586109
 10
43.0204138897
 20
-2.5059995818
 10
42.8853283083
 20
-2.6823747675
 10
42.7411044484
 20
-2.8514237962
 10
42.5886548187
 20
-3.0121626887
 10
42.428695988
 20
-3.1640323353
 10
42.2615509955
 20
-3.3069119045
 10
42.0876366324
 20
-3.4405784826
 10
41.9076680382
 20
-3.5646189212
 10
41.7220022629
 20
-3.6789182912
 10
41.5304527051
 20
-3.7836231829
 10
41.3331395944
 20
-3.8785905648
 10
41.1309273216
 20
-3.9633289523
 10
40.9247281569
 20
-4.0374505745
 10
40.7153265289
 20
-4.1007205533
 10
40.503071777
 20
-4.153079631
 10
40.2882471059
 20
-4.1944619595
 10
40.0713233027
 20
-4.2247502831
 10
39.852969691
 20
-4.2438247819
 10
39.6337658388
 20
-4.2516161308
  0
LWPOLYLINE
  5
599
100
AcDbEntity
  8
0
100
AcDbPolyline
 62
7
  6
CONTINUOUS
 90
58
 70
0
 10
39.6337658388
 20
4.3815199414
 10
39.8751021709
 20
4.3771494187
 10
40.1160782782
 20
4.359476883
 10
40.3559601136
 20
4.328522105
 10
40.5942150283
 20
4.2843024176
 10
40.8299068249
 20
4.2269396478
 10
41.0617237687
 20
4.1567703764
 10
41.2886252183
 20
4.0742132912
 10
41.5103171389
 20
3.9794808501
 10
41.7266275871
 20
3.8726727944
 10
41.9367879307
 20
3.7541588795
 10
42.1402741921
 20
3.6242245294
 10
42.3371936774
 20
3.4826889461
 10
42.5271417759
 20
3.329594177
 10
42.7091155254
 20
3.165487718
 10
42.8822841566
 20
2.9909118967
 10
43.0462131829
 20
2.8060758305
 10
43.2000655229
 20
2.6116793419
 10
43.3426132919
 20
2.4092099243
 10
43.4733935889
 20
2.1994420595
 10
43.5921194967
 20
1.9829632023
 10
43.6981519644
 20
1.7611935075
 10
43.7910667615
 20
1.535599165
 10
43.8710951524
 20
1.3062712487
 10
43.9385385242
 20
1.0725463121
 10
43.9932748668
 20
0.8344519438
 10
44.0348810387
 20
0.5933382876
 10
44.0631277669
 20
0.3504842064
 10
44.0779593178
 20
0.1068534388
 10
44.0794002996
 20
-0.137037123
 10
44.0674754909
 20
-0.3805639852
 10
44.0422497723
 20
-0.6229225032
 10
44.0038164404
 20
-0.8634623489
 10
43.9522299002
 20
-1.1017919071
 10
43.8876817157
 20
-1.3369538744
 10
43.8102852094
 20
-1.5684775806
 10
43.7198143984
 20
-1.7966478624
 10
43.6160510037
 20
-2.0212883796
 10
43.499343499
 20
-2.2410014313
 10
43.3703504597
 20
-2.4542465018
 10
43.2293669138
 20
-2.6603945406
 10
43.0768190425
 20
-2.8586925074
 10
42.9139101151
 20
-3.047626047
 10
42.7415225312
 20
-3.2264160316
 10
42.5600314374
 20
-3.3949025473
 10
42.3700642213
 20
-3.5526733989
 10
42.1725823094
 20
-3.6991299567
 10
41.9679733404
 20
-3.8341756435
 10
41.7559193648
 20
-3.9580555219
 10
41.5364342785
 20
-4.0706256271
 10
41.3107033577
 20
-4.171145828
 10
41.0801553892
 20
-4.2589833305
 10
40.8459206872
 20
-4.3338204566
 10
40.6083266058
 20
-4.3956632796
 10
40.3676423394
 20
-4.4444753276
 10
40.1244293396
 20
-4.4801244536
 10
39.8795611259
 20
-4.5024645112
 10
39.6337658388
 20
-4.511423752
  0
LWPOLYLINE
  5
59A
100
AcDbEntity
  8
0
100
AcDbPolyline
 62
7
  6
CONTINUOUS
 90
4
 70
0
 10
39.8696387285
 20
4.6374342083
 10
40.1151453812
 20
4.6206123197
 10
40.3594594705
 20
4.5908070325
 10
40.6018953147
 20
4.5481012871
  0
LWPOLYLINE
  5
59B
100
AcDbEntity
  8
0
100
AcDbPolyline
 62
7
  6
CONTINUOUS
 90
58
 70
0
 10
43.6707991679
 20
2.3075662287
 10
43.533056288
 20
2.5249687892
 10
43.3835960784
 20
2.7342587542
 10
43.2228912222
 20
2.9348035911
 10
43.0514482442
 20
3.1259984701
 10
42.8698070525
 20
3.3072668651
 10
42.6785394868
 20
3.4780625442
 10
42.4782462618
 20
3.6378726057
 10
42.2695540078
 20
3.7862195508
 10
42.0531144679
 20
3.9226614744
 10
41.8296033252
 20
4.0467929143
 10
41.5997182632
 20
4.1582462531
 10
41.3641758369
 20
4.2566934517
 10
41.1237091699
 20
4.3418469805
 10
40.8790667474
 20
4.4134603047
 10
40.6310101882
 20
4.4713288268
 10
40.3803139015
 20
4.5152904299
 10
40.1277522113
 20
4.5452276931
 10
39.8740978544
 20
4.5610660489
 10
39.6201315246
 20
4.5627723936
 10
39.3666452253
 20
4.5503570535
 10
39.1144291901
 20
4.5238753478
 10
38.8642641694
 20
4.4834264868
 10
38.6169228828
 20
4.4291528053
 10
38.3731729977
 20
4.361240642
 10
38.133767242
 20
4.279918278
 10
37.8994430445
 20
4.1854551205
 10
37.6709237935
 20
4.0781622443
 10
37.4489134037
 20
3.9583903937
 10
37.2340929379
 20
3.8265278506
 10
37.0271203532
 20
3.682999801
 10
36.8286298232
 20
3.5282679886
 10
36.6392289268
 20
3.3628289733
 10
36.4594956403
 20
3.1872115849
 10
36.2899781271
 20
3.0019766383
 10
36.1311920149
 20
2.8077143181
 10
35.9836183742
 20
2.6050415613
 10
35.8477033808
 20
2.3946013993
 10
35.7238573253
 20
2.1770619901
 10
35.6124523892
 20
1.9531135363
 10
35.5138214574
 20
1.7234662542
 10
35.4282558991
 20
1.4888449534
 10
35.3560057278
 20
1.2499875175
 10
35.297280186
 20
1.0076464072
 10
35.252246603
 20
0.7625869074
 10
35.2210288532
 20
0.5155814977
 10
35.2037071927
 20
0.2674070829
 10
35.2003182939
 20
0.0188450697
 10
35.2108547151
 20
-0.2293206729
 10
35.2352649318
 20
-0.4763103442
 10
35.2734538492
 20
-0.7213491394
 10
35.3252827013
 20
-0.9636672062
 10
35.3905695441
 20
-1.2025039977
 10
35.4690908839
 20
-1.4371135034
 10
35.5605825907
 20
-1.6667649271
 10
35.6647394574
 20
-1.8907414766
 10
35.7812159357
 20
-2.1083434409
 10
35.9096284796
 20
-2.3188930904
  0
LINE
  5
59C
100
AcDbEntity
  8
0
100
AcDbLine
 62
7
  6
CONTINUOUS
 10
45.1337658388
 20
-3.1754264805
 11
45.1337658388
 21
3.1754264805
  0
LWPOLYLINE
  5
59D
100
AcDbEntity
  8
0
100
AcDbPolyline
 62
250
  6
CONTINUOUS
 90
9
 70
0
 10
50.6424878031
 20
21.4755923698
 10
50.6417704029
 20
21.4716950654
 10
50.6410693477
 20
21.4645922224
 10
50.6403846376
 20
21.4542838406
 10
50.6397116341
 20
21.4406561355
 10
50.6390549757
 20
21.4238228918
 10
50.6384285777
 20
21.4041254635
 10
50.6378333099
 20
21.3815078446
 10
50.6367448614
 20
21.3281894262
  0
LINE
  5
59E
100
AcDbEntity
  8
0
100
AcDbLine
 62
7
  6
CONTINUOUS
 10
39.6337658388
 20
-6.3508529611
 11
45.1337658388
 21
-3.1754264805
  0
LINE
  5
59F
100
AcDbEntity
  8
0
100
AcDbLine
 62
7
  6
CONTINUOUS
 10
45.1337658388
 20
3.1754264805
 11
39.6337658388
 21
6.3508529611
  0
LWPOLYLINE
  5
5A0
100
AcDbEntity
  8
0
100
AcDbPolyline
 62
250
  6
CONTINUOUS
 90
6
 70
0
 10
50.1425639555
 20
21.9749071372
 10
50.1418436657
 20
21.9672621499
 10
50.1411405626
 20
21.952953371
 10
50.1404546461
 20
21.9320760821
 10
50.1397815548
 20
21.9047687004
 10
50.1385000166
 20
21.8316431047
  0
LWPOLYLINE
  5
5A1
100
AcDbEntity
  8
0
100
AcDbPolyline
 62
250
  6
CONTINUOUS
 90
7
 70
0
 10
50.6384285777
 20
-21.4041254633
 10
50.6390549757
 20
-21.4238228917
 10
50.6397116341
 20
-21.4406561357
 10
50.6403846376
 20
-21.4542838409
 10
50.6410693477
 20
-21.4645922227
 10
50.6417704029
 20
-21.4716950656
 10
50.6424878031
 20
-21.4755923698
  0
LWPOLYLINE
  5
5A2
100
AcDbEntity
  8
0
100
AcDbPolyline
 62
250
  6
CONTINUOUS
 90
5
 70
0
 10
50.1397815548
 20
-21.9047687004
 10
50.1404546461
 20
-21.9320760821
 10
50.1411405626
 20
-21.952953371
 10
50.1418436657
 20
-21.9672621499
 10
50.1425639555
 20
-21.9749071372
  0
LWPOLYLINE
  5
5A3
100
AcDbEntity
  8
0
100
AcDbPolyline
 62
250
  6
CONTINUOUS
 90
3
 70
0
 10
50.6367448614
 20
-21.3281894263
 10
50.6372683024
 20
-21.3560260411
 10
50.6384285777
 20
-21.4041254633
  0
LINE
  5
5A4
100
AcDbEntity
  8
0
100
AcDbLine
 62
250
  6
CONTINUOUS
 10
50.1385000166
 20
-21.8316431047
 11
50.1397815548
 21
-21.9047687004
  0
LINE
  5
5A5
100
AcDbEntity
  8
0
100
AcDbLine
 62
250
  6
CONTINUOUS
 10
50.1368178282
 20
-21.6796926689
 11
50.1385000166
 21
-21.8316431047
  0
LINE
  5
5A6
100
AcDbEntity
  8
0
100
AcDbLine
 62
250
  6
CONTINUOUS
 10
50.1348844923
 20
-21.3380089963
 11
50.1368178282
 21
-21.6796926689
  0
LINE
  5
5A7
100
AcDbEntity
  8
0
100
AcDbLine
 62
250
  6
CONTINUOUS
 10
50.1312562851
 20
-16.3494810554
 11
50.1348844923
 21
-21.3380089963
  0
LINE
  5
5A8
100
AcDbEntity
  8
0
100
AcDbLine
 62
250
  6
CONTINUOUS
 10
50.1274505147
 20
-7.0079400907
 11
50.1312562851
 21
-16.3494810554
  0
LINE
  5
5A9
100
AcDbEntity
  8
0
100
AcDbLine
 62
250
  6
CONTINUOUS
 10
50.1266893603
 20
2.3360479917
 11
50.1274505147
 21
-7.0079400907
  0
LINE
  5
5AA
100
AcDbEntity
  8
0
100
AcDbLine
 62
250
  6
CONTINUOUS
 10
50.1289728225
 20
11.6792204116
 11
50.1266893603
 21
2.3360479917
  0
LINE
  5
5AB
100
AcDbEntity
  8
0
100
AcDbLine
 62
250
  6
CONTINUOUS
 10
50.1355099927
 20
21.4854586496
 11
50.1289728225
 21
11.6792204116
  0
LINE
  5
5AC
100
AcDbEntity
  8
0
100
AcDbLine
 62
250
  6
CONTINUOUS
 10
50.1373407374
 20
21.7355556626
 11
50.1355099927
 21
21.4854586496
  0
LINE
  5
5AD
100
AcDbEntity
  8
0
100
AcDbLine
 62
250
  6
CONTINUOUS
 10
50.1385000166
 20
21.8316431047
 11
50.1373407374
 21
21.7355556626
  0
LWPOLYLINE
  5
5AE
100
AcDbEntity
  8
0
100
AcDbPolyline
 62
250
  6
CONTINUOUS
 90
16
 70
0
 10
50.6424878031
 20
21.4755923698
 10
50.6397048012
 20
21.5277533032
 10
50.6314816035
 20
21.5793436708
 10
50.6179081252
 20
21.6297989097
 10
50.5991328306
 20
21.6785668706
 10
50.5753611144
 20
21.7251138478
 10
50.5468530608
 20
21.7689304222
 10
50.5139205817
 20
21.8095370623
 10
50.4769240228
 20
21.8464893433
 10
50.4362682374
 20
21.8793828084
 10
50.3923981055
 20
21.9078574436
 10
50.3457937016
 20
21.9316015798
 10
50.2969650773
 20
21.9503553003
 10
50.2464466067
 20
21.9639133265
 10
50.1947911305
 20
21.9721272495
 10
50.1425639554
 20
21.974907137
  0
LINE
  5
5AF
100
AcDbEntity
  8
0
100
AcDbLine
 62
250
  6
CONTINUOUS
 10
50.6358244708
 20
-21.265368307
 11
50.6367448614
 21
-21.3281894263
  0
LINE
  5
5B0
100
AcDbEntity
  8
0
100
AcDbLine
 62
250
  6
CONTINUOUS
 10
50.6348090993
 20
-21.1571917317
 11
50.6358244708
 21
-21.265368307
  0
LINE
  5
5B1
100
AcDbEntity
  8
0
100
AcDbLine
 62
250
  6
CONTINUOUS
 10
50.6342860996
 20
-21.0386290777
 11
50.6348090993
 21
-21.1571917317
  0
LINE
  5
5B2
100
AcDbEntity
  8
0
100
AcDbLine
 62
250
  6
CONTINUOUS
 10
50.6288966723
 20
-11.6670144863
 11
50.6342860996
 21
-21.0386290777
  0
LINE
  5
5B3
100
AcDbEntity
  8
0
100
AcDbLine
 62
250
  6
CONTINUOUS
 10
50.626613214
 20
-2.3338443579
 11
50.6288966723
 21
-11.6670144863
  0
LINE
  5
5B4
100
AcDbEntity
  8
0
100
AcDbLine
 62
7
  6
CONTINUOUS
 10
50.7837658388
 20
21.8997711479
 11
50.7837658388
 21
-21.8997711479
  0
LINE
  5
5B5
100
AcDbEntity
  8
0
100
AcDbLine
 62
250
  6
CONTINUOUS
 10
50.6273743721
 20
7.0009737718
 11
50.626613214
 21
-2.3338443579
  0
LINE
  5
5B6
100
AcDbEntity
  8
0
100
AcDbLine
 62
250
  6
CONTINUOUS
 10
50.6311801377
 20
16.3324771154
 11
50.6273743721
 21
7.0009737718
  0
LINE
  5
5B7
100
AcDbEntity
  8
0
100
AcDbLine
 62
250
  6
CONTINUOUS
 10
50.6345772788
 20
21.1184484404
 11
50.6311801377
 21
16.3324771154
  0
LINE
  5
5B8
100
AcDbEntity
  8
0
100
AcDbLine
 62
250
  6
CONTINUOUS
 10
50.6354352426
 20
21.2310600855
 11
50.6345772788
 21
21.1184484404
  0
LWPOLYLINE
  5
5B9
100
AcDbEntity
  8
0
100
AcDbPolyline
 62
250
  6
CONTINUOUS
 90
3
 70
0
 10
50.6367448614
 20
21.3281894262
 10
50.6362638829
 20
21.2979562723
 10
50.6354352426
 20
21.2310600855
  0
LWPOLYLINE
  5
5BA
100
AcDbEntity
  8
0
100
AcDbPolyline
 62
250
  6
CONTINUOUS
 90
16
 70
0
 10
50.6424878031
 20
-21.4755923698
 10
50.6397046464
 20
-21.5277547588
 10
50.6314810391
 20
-21.5793463095
 10
50.617906976
 20
-21.6298024308
 10
50.5991310047
 20
-21.6785709568
 10
50.5753585996
 20
-21.7251181902
 10
50.5468499138
 20
-21.768934742
 10
50.5139169315
 20
-21.8095411066
 10
50.4769200543
 20
-21.8464929089
 10
50.4362641567
 20
-21.8793857675
 10
50.392394156
 20
-21.90785972
 10
50.3457901428
 20
-21.931603162
 10
50.2969621272
 20
-21.9503562578
 10
50.2464444578
 20
-21.9639137831
 10
50.194789974
 20
-21.9721273713
 10
50.1425639555
 20
-21.9749071372
  0
LWPOLYLINE
  5
5BB
100
AcDbEntity
  8
0
100
AcDbPolyline
 62
7
  6
CONTINUOUS
 90
10
 70
0
 43
0.3500000006
 10
40.705192337
 20
32.7500006104
 10
40.7766235199
 20
32.6071427765
 10
40.7766235199
 20
32.5357161255
 10
40.633765686
 20
32.3928582916
 10
40.562339035
 20
32.3928582916
 10
40.4909078522
 20
32.4642849426
 10
40.4909078522
 20
32.5357161255
 10
40.562339035
 20
32.6785694275
 10
40.633765686
 20
32.7500006104
 10
40.705192337
 20
32.7500006104
  0
LWPOLYLINE
  5
5BC
100
AcDbEntity
  8
0
100
AcDbPolyline
 62
7
  6
CONTINUOUS
 90
3
 70
0
 43
0.3500000006
 10
57.3909084778
 20
-0.8571427917
 10
57.3909084778
 20
-2.3571432495
 10
55.0337655487
 20
-1.7142852631
  0
LINE
  5
5BD
100
AcDbEntity
  8
DRAFT
100
AcDbLine
 62
7
  6
CONTINUOUS
 10
42.6337658388
 20
-22.4
 11
42.41504418
 21
-22.5310194482
  0
LINE
  5
5BE
100
AcDbEntity
  8
0
100
AcDbLine
 62
250
  6
CONTINUOUS
 10
29.1332307763
 20
21.0183142309
 11
50.1343009013
 21
21.0183142309
  0
LINE
  5
5BF
100
AcDbEntity
  8
DRAFT
100
AcDbLine
 62
7
  6
CONTINUOUS
 10
42.41504418
 20
22.5310194482
 11
42.6337658388
 21
22.4
  0
LINE
  5
5C0
100
AcDbEntity
  8
DRAFT
100
AcDbLine
 62
7
  6
CONTINUOUS
 10
42.6337658388
 20
23.5
 11
42.41504418
 21
23.4563623377
  0
LWPOLYLINE
  5
5C1
100
AcDbEntity
  8
0
100
AcDbPolyline
 62
250
  6
CONTINUOUS
 90
16
 70
0
 10
29.1249677221
 20
21.9749071372
 10
29.0727408357
 20
21.97212728
 10
29.0210856072
 20
21.9639134406
 10
28.9705673367
 20
21.9503555394
 10
28.9217388645
 20
21.931601975
 10
28.8751345584
 20
21.9078580123
 10
28.8312644595
 20
21.8793835478
 10
28.7906086463
 20
21.8464902344
 10
28.753612008
 20
21.8095380733
 10
28.7206794033
 20
21.7689315022
 10
28.6921711918
 20
21.7251149336
 10
28.6683993035
 20
21.6785678925
 10
28.6496238398
 20
21.6297997904
 10
28.6360502153
 20
21.5793443309
 10
28.6278269152
 20
21.5277536674
 10
28.6250438745
 20
21.4755923698
  0
LWPOLYLINE
  5
5C2
100
AcDbEntity
  8
0
100
AcDbPolyline
 62
250
  6
CONTINUOUS
 90
16
 70
0
 10
29.1332307763
 20
21.0183142305
 10
29.0815446723
 20
21.0181637394
 10
29.03041236
 20
21.0177896594
 10
28.9803816977
 20
21.0171959985
 10
28.9319887398
 20
21.0163891176
 10
28.8857519936
 20
21.015377662
 10
28.8421668636
 20
21.0141724692
 10
28.8017003436
 20
21.0127864523
 10
28.7647860128
 20
21.0112344618
 10
28.7318193906
 20
21.0095331264
 10
28.7031536984
 20
21.0077006753
 10
28.6790960753
 20
21.0057567422
 10
28.6599042873
 20
21.0037221554
 10
28.6457839651
 20
21.0016187147
 10
28.6368864012
 20
20.9994689572
 10
28.6333069287
 20
20.9972959167
  0
LINE
  5
5C3
100
AcDbEntity
  8
0
100
AcDbLine
 62
250
  6
CONTINUOUS
 10
29.1249677221
 20
21.9749071372
 11
50.1425639555
 21
21.9749071372
  0
LINE
  5
5C4
100
AcDbEntity
  8
DRAFT
100
AcDbLine
 62
7
  6
CONTINUOUS
 10
28.9833852391
 20
22.4
 11
36.6337658388
 21
22.4
  0
LINE
  5
5C5
100
AcDbEntity
  8
DRAFT
100
AcDbLine
 62
7
  6
CONTINUOUS
 10
42.6337658388
 20
22.4
 11
50.2841464386
 21
22.4
  0
LINE
  5
5C6
100
AcDbEntity
  8
DRAFT
100
AcDbLine
 62
7
  6
CONTINUOUS
 10
36.8524874976
 20
22.5310194482
 11
42.41504418
 21
22.5310194482
  0
LINE
  5
5C7
100
AcDbEntity
  8
DRAFT
100
AcDbLine
 62
7
  6
CONTINUOUS
 10
36.6337658388
 20
23.5
 11
36.8524874976
 21
23.4563623377
  0
LWPOLYLINE
  5
5C8
100
AcDbEntity
  8
0
100
AcDbPolyline
 62
250
  6
CONTINUOUS
 90
15
 70
0
 10
50.6342247489
 20
-20.9972959167
 10
50.6306449824
 20
-20.9994689314
 10
50.6217471696
 20
-21.0016186628
 10
50.6076266457
 20
-21.0037220776
 10
50.588434704
 20
-21.005756639
 10
50.5643769754
 20
-21.0077005477
 10
50.5357112249
 20
-21.009532976
 10
50.5027445898
 20
-21.0112342904
 10
50.465830289
 20
-21.0127862623
 10
50.4253638385
 20
-21.014172263
 10
50.3817788133
 20
-21.0153774425
 10
50.3355422026
 20
-21.0163888878
 10
50.2871494054
 20
-21.0171957618
 10
50.2371189233
 20
-21.0177894192
 10
50.1859868047
 20
-21.0181634993
  0
LINE
  5
5C9
100
AcDbEntity
  8
DRAFT
100
AcDbLine
 62
7
  6
CONTINUOUS
 10
42.41504418
 20
23.4563623377
 11
36.8524874976
 21
23.4563623377
  0
LINE
  5
5CA
100
AcDbEntity
  8
DRAFT
100
AcDbLine
 62
7
  6
CONTINUOUS
 10
35.6604284912
 20
23.5
 11
36.6337658388
 21
23.5
  0
LINE
  5
5CB
100
AcDbEntity
  8
DRAFT
100
AcDbLine
 62
7
  6
CONTINUOUS
 10
42.6337658388
 20
23.5
 11
43.6071031865
 21
23.5
  0
LWPOLYLINE
  5
5CC
100
AcDbEntity
  8
0
100
AcDbPolyline
 62
7
  6
CONTINUOUS
 90
7
 70
0
 43
0.3500000006
 10
39.2051964111
 20
32.2500004578
 10
37.7051936874
 20
32.2500004578
 10
39.2051964111
 20
34.392858902
 10
39.2051964111
 20
34.8214278717
 10
38.7766229095
 20
35.2500013733
 10
38.1337649231
 20
35.2500013733
 10
37.7051936874
 20
34.6071433868
  0
LWPOLYLINE
  5
5CD
100
AcDbEntity
  8
0
100
AcDbPolyline
 62
7
  6
CONTINUOUS
 90
7
 70
0
 43
0.3500000006
 10
36.8480512161
 20
32.2500004578
 10
35.3480507584
 20
32.2500004578
 10
36.8480512161
 20
34.392858902
 10
36.8480512161
 20
34.8214278717
 10
36.4194799805
 20
35.2500013733
 10
35.776621994
 20
35.2500013733
 10
35.3480507584
 20
34.6071433868
  0
LWPOLYLINE
  5
5CE
100
AcDbEntity
  8
0
100
AcDbPolyline
 62
7
  6
CONTINUOUS
 90
6
 70
0
 43
0.3500000006
 10
41.7766238251
 20
32.2500004578
 10
42.8480507813
 20
32.2500004578
 10
43.0623352661
 20
32.4642849426
 10
43.0623352661
 20
33.5357164307
 10
42.6337662964
 20
33.9642854004
 10
42.2051927948
 20
33.9642854004
  0
LWPOLYLINE
  5
5CF
100
AcDbEntity
  8
0
100
AcDbPolyline
 62
250
  6
CONTINUOUS
 90
16
 70
0
 10
50.6342247489
 20
20.9972959167
 10
50.6306452757
 20
20.9994689572
 10
50.6217477112
 20
21.0016187146
 10
50.6076273885
 20
21.0037221553
 10
50.5884356001
 20
21.005756742
 10
50.5643779768
 20
21.007700675
 10
50.5357122844
 20
21.009533126
 10
50.5027456621
 20
21.0112344612
 10
50.4658313313
 20
21.0127864516
 10
50.4253648114
 20
21.0141724684
 10
50.3817796817
 20
21.0153776611
 10
50.3355429358
 20
21.0163891165
 10
50.2871499784
 20
21.0171959974
 10
50.2371193165
 20
21.0177896584
 10
50.1859870048
 20
21.0181637387
 10
50.1343009013
 20
21.0183142302
  0
ARC
  5
5D0
100
AcDbEntity
  8
0
100
AcDbCircle
 62
7
  6
CONTINUOUS
 10
496.35
 20
-0.0
 40
500.0
100
AcDbArc
 50
177.5907686986
 51
182.4092313014
  0
ARC
  5
5D1
100
AcDbEntity
  8
0
100
AcDbCircle
 62
7
  6
CONTINUOUS
 10
-2.2089190637
 20
20.9762776025
 40
1.0
100
AcDbArc
 50
93.0
 51
177.5907686986
  0
ARC
  5
5D2
100
AcDbEntity
  8
0
100
AcDbCircle
 62
7
  6
CONTINUOUS
 10
-2.2089190637
 20
-20.9762776025
 40
1.0
100
AcDbArc
 50
182.4092313014
 51
267.0
  0
ARC
  5
5D3
100
AcDbEntity
  8
RACCORDO
100
AcDbCircle
 62
7
  6
CONTINUOUS
 10
14.35
 20
-19.0
 40
0.5
100
AcDbArc
 50
0.0
 51
90.0
  0
ARC
  5
5D4
100
AcDbEntity
  8
RACCORDO
100
AcDbCircle
 62
7
  6
CONTINUOUS
 10
14.35
 20
19.0
 40
0.5
100
AcDbArc
 50
270.0
 51
360.0
  0
ARC
  5
5D5
100
AcDbEntity
  8
RACCORDO
100
AcDbCircle
 62
7
  6
CONTINUOUS
 10
14.65
 20
20.1171572875
 40
0.2
100
AcDbArc
 50
0.0
 51
45.0
  0
ARC
  5
5D6
100
AcDbEntity
  8
RACCORDO
100
AcDbCircle
 62
7
  6
CONTINUOUS
 10
14.65
 20
-20.1171572875
 40
0.2
100
AcDbArc
 50
315.0
 51
360.0
  0
ARC
  5
5D7
100
AcDbEntity
  8
DRAFT
100
AcDbCircle
 62
7
  6
CONTINUOUS
 10
28.3837658388
 20
0.0
 40
28.0
100
AcDbArc
 50
53.1301023542
 51
54.0372348486
  0
ARC
  5
5D8
100
AcDbEntity
  8
DRAFT
100
AcDbCircle
 62
7
  6
CONTINUOUS
 10
28.3837658388
 20
0.0
 40
28.0
100
AcDbArc
 50
55.8789063483
 51
57.0647695028
  0
ARC
  5
5D9
100
AcDbEntity
  8
DRAFT
100
AcDbCircle
 62
7
  6
CONTINUOUS
 10
28.3837658388
 20
0.0
 40
28.0
100
AcDbArc
 50
302.9352304972
 51
304.1210936517
  0
ARC
  5
5DA
100
AcDbEntity
  8
DRAFT
100
AcDbCircle
 62
7
  6
CONTINUOUS
 10
28.3837658388
 20
0.0
 40
28.0
100
AcDbArc
 50
305.9627651514
 51
306.8698976458
  0
ARC
  5
5DB
100
AcDbEntity
  8
DRAFT
100
AcDbCircle
 62
7
  6
CONTINUOUS
 10
50.8837658388
 20
0.0
 40
28.0
100
AcDbArc
 50
122.9352304972
 51
124.1210936517
  0
ARC
  5
5DC
100
AcDbEntity
  8
DRAFT
100
AcDbCircle
 62
7
  6
CONTINUOUS
 10
50.8837658388
 20
0.0
 40
28.0
100
AcDbArc
 50
125.9627651514
 51
126.8698976458
  0
ARC
  5
5DD
100
AcDbEntity
  8
DRAFT
100
AcDbCircle
 62
7
  6
CONTINUOUS
 10
50.8837658388
 20
0.0
 40
28.0
100
AcDbArc
 50
233.1301023542
 51
234.0372348486
  0
ARC
  5
5DE
100
AcDbEntity
  8
DRAFT
100
AcDbCircle
 62
7
  6
CONTINUOUS
 10
50.8837658388
 20
0.0
 40
28.0
100
AcDbArc
 50
235.8789063483
 51
237.0647695028
  0
ARC
  5
5DF
100
AcDbEntity
  8
0
100
AcDbCircle
 62
7
  6
CONTINUOUS
 10
39.6337658388
 20
0.0
 40
6.0
100
AcDbArc
 50
156.4435356909
 51
203.5564643091
  0
ARC
  5
5E0
100
AcDbEntity
  8
0
100
AcDbCircle
 62
7
  6
CONTINUOUS
 10
39.6337658388
 20
0.0
 40
6.0
100
AcDbArc
 50
216.4435356909
 51
263.5564643091
  0
ARC
  5
5E1
100
AcDbEntity
  8
0
100
AcDbCircle
 62
7
  6
CONTINUOUS
 10
39.6337658388
 20
0.0
 40
6.0
100
AcDbArc
 50
276.4435356909
 51
323.5564643091
  0
ARC
  5
5E2
100
AcDbEntity
  8
0
100
AcDbCircle
 62
7
  6
CONTINUOUS
 10
39.6337658388
 20
0.0
 40
6.0
100
AcDbArc
 50
336.4435356909
 51
23.5564643091
  0
ARC
  5
5E3
100
AcDbEntity
  8
0
100
AcDbCircle
 62
7
  6
CONTINUOUS
 10
39.6337658388
 20
0.0
 40
6.0
100
AcDbArc
 50
36.4435356909
 51
83.5564643091
  0
ARC
  5
5E4
100
AcDbEntity
  8
0
100
AcDbCircle
 62
7
  6
CONTINUOUS
 10
39.6337658388
 20
0.0
 40
6.0
100
AcDbArc
 50
96.4435356909
 51
143.5564643091
  0
CIRCLE
  5
5E5
100
AcDbEntity
  8
0
100
AcDbCircle
 62
7
  6
CONTINUOUS
 10
39.6337658388
 20
-0.0
 40
4.65
  0
CIRCLE
  5
5E6
100
AcDbEntity
  8
0
100
AcDbCircle
 62
7
  6
CONTINUOUS
 10
39.6337658388
 20
0.0
 40
3.3854755959
  0
ARC
  5
5E7
100
AcDbEntity
  8
DRAFT
100
AcDbCircle
 62
7
  6
CONTINUOUS
 10
44.5837658388
 20
23.1
 40
0.5
100
AcDbArc
 50
170.803718421
 51
299.112422776
  0
ARC
  5
5E8
100
AcDbEntity
  8
DRAFT
100
AcDbCircle
 62
7
  6
CONTINUOUS
 10
44.5837658388
 20
-23.1
 40
0.5
100
AcDbArc
 50
60.887577224
 51
189.196281579
  0
ARC
  5
5E9
100
AcDbEntity
  8
DRAFT
100
AcDbCircle
 62
7
  6
CONTINUOUS
 10
34.6837658388
 20
23.1
 40
0.5
100
AcDbArc
 50
240.887577224
 51
9.196281579
  0
ARC
  5
5EA
100
AcDbEntity
  8
DRAFT
100
AcDbCircle
 62
7
  6
CONTINUOUS
 10
34.6837658388
 20
-23.1
 40
0.5
100
AcDbArc
 50
350.803718421
 51
119.112422776
  0
ELLIPSE
  5
5EB
100
AcDbEntity
  8
0
100
AcDbEllipse
 62
7
  6
CONTINUOUS
 10
28.9838420028
 20
21.899313827
 30
0.0
 11
-0.1582391023
 21
0.4751033573
 31
0.0
 40
0.9984778551
 41
-0.3210503505
 42
1.2488325878
  0
ELLIPSE
  5
5EC
100
AcDbEntity
  8
0
100
AcDbEllipse
 62
7
  6
CONTINUOUS
 10
28.9838420028
 20
-21.899313827
 30
0.0
 11
0.1582391023
 21
0.4751033573
 31
0.0
 40
0.9984778551
 41
-4.3904252414
 42
-2.8205423031
  0
ELLIPSE
  5
5ED
100
AcDbEntity
  8
0
100
AcDbEllipse
 62
7
  6
CONTINUOUS
 10
50.2836896748
 20
21.899313827
 30
0.0
 11
0.1582391023
 21
0.4751033573
 31
0.0
 40
0.9984778551
 41
-1.2488325878
 42
0.3210503505
  0
ELLIPSE
  5
5EE
100
AcDbEntity
  8
0
100
AcDbEllipse
 62
7
  6
CONTINUOUS
 10
50.2836896748
 20
-21.899313827
 30
0.0
 11
-0.1582391023
 21
0.4751033573
 31
0.0
 40
0.9984778551
 41
-3.4626430041
 42
-1.8927600658
  0
ENDSEC
  0
SECTION
  2
OBJECTS
  0
DICTIONARY
  5
C
100
AcDbDictionary
280
0
281
1
  3
ACAD_GROUP
350
D
  3
ACAD_MLINESTYLE
350
17
  3
ACAD_LAYOUT
350
1A
  3
ACAD_PLOTSETTINGS
350
19
  3
ACAD_PLOTSTYLENAME
350
E
  0
DICTIONARY
  5
D
102
{ACAD_REACTORS
330
C
102
}
100
AcDbDictionary
280
0
281
1
  0
ACDBDICTIONARYWDFLT
  5
E
102
{ACAD_REACTORS
330
C
102
}
100
AcDbDictionary
281
1
  3
Normal
350
F
100
AcDbDictionaryWithDefault
340
F
  0
DICTIONARY
  5
17
102
{ACAD_REACTORS
330
C
102
}
100
AcDbDictionary
280
0
281
1
  3
Standard
350
18
  0
DICTIONARY
  5
19
102
{ACAD_REACTORS
330
C
102
}
100
AcDbDictionary
281
1
  0
DICTIONARY
  5
1A
102
{ACAD_REACTORS
330
C
102
}
100
AcDbDictionary
281
1
  3
Model
350
5EF
  3
Layout1
350
5F0
  0
ACDBPLACEHOLDER
  5
F
102
{ACAD_REACTORS
330
E
102
}
  0
MLINESTYLE
  5
18
102
{ACAD_REACTORS
330
17
102
}
100
AcDbMlineStyle
  2
STANDARD
 70
0
  3

 62
256
 51
90.0
 52
90.0
 71
2
 49
0.5
 62
256
  6
BYLAYER
 49
-0.5
 62
256
  6
BYLAYER
  0
LAYOUT
  5
5EF
102
{ACAD_REACTORS
330
1A
102
}
100
AcDbPlotSettings
  1

  2
none_device
  4
ISO_A4_(297.00_x_210.00_MM)
  6

 40
0.0
 41
0.0
 42
0.0
 43
0.0
 44
297.0
 45
210.0
 46
0.0
 47
0.0
 48
0.0
 49
0.0
140
0.0
141
0.0
142
1.0
143
1.0
 70
1024
 72
1
 73
0
 74
0
  7

 75
0
147
1.0
148
0.0
149
0.0
100
AcDbLayout
  1
Model
 70
0
 71
0
 10
0.0
 20
0.0
 11
297.0
 21
210.0
 12
0.0
 22
0.0
 32
0.0
 14
0.0
 24
0.0
 34
0.0
 15
0.0
 25
0.0
 35
0.0
146
0.0
 13
0.0
 23
0.0
 33
0.0
 16
1.0
 26
0.0
 36
0.0
 17
0.0
 27
1.0
 37
0.0
 76
0
330
212
345
0
346
0
  0
LAYOUT
  5
5F0
102
{ACAD_REACTORS
330
1A
102
}
100
AcDbPlotSettings
  1

  2
none_device
  4
ISO_A4_(297.00_x_210.00_MM)
  6

 40
0.0
 41
0.0
 42
0.0
 43
0.0
 44
297.0
 45
210.0
 46
0.0
 47
0.0
 48
0.0
 49
0.0
140
0.0
141
0.0
142
1.0
143
1.0
 70
0
 72
1
 73
0
 74
0
  7

 75
0
147
1.0
148
0.0
149
0.0
100
AcDbLayout
  1
Layout1
 70
0
 71
1
 10
0.0
 20
0.0
 11
297.0
 21
210.0
 12
0.0
 22
0.0
 32
0.0
 14
0.0
 24
0.0
 34
0.0
 15
0.0
 25
0.0
 35
0.0
146
0.0
 13
0.0
 23
0.0
 33
0.0
 16
1.0
 26
0.0
 36
0.0
 17
0.0
 27
1.0
 37
0.0
 76
0
330
213
345
0
346
0
  0
ENDSEC
  0
EOF
